  0
SECTION
  2
HEADER
  9
$ACADVER
  1
AC1015
  9
$ACADMAINTVER
 70
    20
  9
$DWGCODEPAGE
  3
ANSI_932
  9
$INSBASE
 10
0.0
 20
0.0
 30
0.0
  9
$EXTMIN
 10
-1700.084245350053
 20
-138.5623056612239
 30
-0.0000000349181948
  9
$EXTMAX
 10
200.0033780861895
 20
1214.044779131977
 30
0.0000000814935747
  9
$LIMMIN
 10
-210.0
 20
-148.5
  9
$LIMMAX
 10
210.0
 20
148.5
  9
$ORTHOMODE
 70
     0
  9
$REGENMODE
 70
     1
  9
$FILLMODE
 70
     1
  9
$QTEXTMODE
 70
     0
  9
$MIRRTEXT
 70
     0
  9
$LTSCALE
 40
1.0
  9
$ATTMODE
 70
     1
  9
$TEXTSIZE
 40
1.0
  9
$TRACEWID
 40
0.05
  9
$TEXTSTYLE
  7
STANDARD
  9
$CLAYER
  8
0
  9
$CELTYPE
  6
CONTINUOUS
  9
$CECOLOR
 62
   256
  9
$CELTSCALE
 40
1.0
  9
$DISPSILH
 70
     0
  9
$DIMSCALE
 40
1.0
  9
$DIMASZ
 40
2.5
  9
$DIMEXO
 40
0.8
  9
$DIMDLI
 40
0.38
  9
$DIMRND
 40
0.0
  9
$DIMDLE
 40
0.0
  9
$DIMEXE
 40
0.25
  9
$DIMTP
 40
0.0
  9
$DIMTM
 40
0.0
  9
$DIMTXT
 40
3.5
  9
$DIMCEN
 40
0.09
  9
$DIMTSZ
 40
0.0
  9
$DIMTOL
 70
     0
  9
$DIMLIM
 70
     0
  9
$DIMTIH
 70
     0
  9
$DIMTOH
 70
     0
  9
$DIMSE1
 70
     0
  9
$DIMSE2
 70
     0
  9
$DIMTAD
 70
     1
  9
$DIMZIN
 70
    12
  9
$DIMBLK
  1
Closed
  9
$DIMASO
 70
     1
  9
$DIMSHO
 70
     1
  9
$DIMPOST
  1

  9
$DIMAPOST
  1

  9
$DIMALT
 70
     0
  9
$DIMALTD
 70
     2
  9
$DIMALTF
 40
0.03937
  9
$DIMLFAC
 40
1.0
  9
$DIMTOFL
 70
     0
  9
$DIMTVP
 40
0.0
  9
$DIMTIX
 70
     0
  9
$DIMSOXD
 70
     0
  9
$DIMSAH
 70
     0
  9
$DIMBLK1
  1

  9
$DIMBLK2
  1

  9
$DIMSTYLE
  2
Standard
  9
$DIMCLRD
 70
     0
  9
$DIMCLRE
 70
     0
  9
$DIMCLRT
 70
     0
  9
$DIMTFAC
 40
1.0
  9
$DIMGAP
 40
0.8
  9
$DIMJUST
 70
     0
  9
$DIMSD1
 70
     0
  9
$DIMSD2
 70
     0
  9
$DIMTOLJ
 70
     1
  9
$DIMTZIN
 70
     0
  9
$DIMALTZ
 70
     0
  9
$DIMALTTZ
 70
     0
  9
$DIMUPT
 70
     0
  9
$DIMDEC
 70
     2
  9
$DIMTDEC
 70
     2
  9
$DIMALTU
 70
     2
  9
$DIMALTTD
 70
     2
  9
$DIMTXSTY
  7
STANDARD
  9
$DIMAUNIT
 70
     0
  9
$DIMADEC
 70
     0
  9
$DIMALTRND
 40
0.0
  9
$DIMAZIN
 70
     0
  9
$DIMDSEP
 70
    46
  9
$DIMATFIT
 70
     3
  9
$DIMFRAC
 70
     0
  9
$DIMLDRBLK
  1
Closed
  9
$DIMLUNIT
 70
     2
  9
$DIMLWD
 70
    -2
  9
$DIMLWE
 70
    -2
  9
$DIMTMOVE
 70
     0
  9
$LUNITS
 70
     2
  9
$LUPREC
 70
     4
  9
$SKETCHINC
 40
0.1
  9
$FILLETRAD
 40
0.0
  9
$AUNITS
 70
     0
  9
$AUPREC
 70
     0
  9
$MENU
  1
.
  9
$ELEVATION
 40
0.0
  9
$PELEVATION
 40
0.0
  9
$THICKNESS
 40
0.0
  9
$LIMCHECK
 70
     0
  9
$CHAMFERA
 40
0.0
  9
$CHAMFERB
 40
0.0
  9
$CHAMFERC
 40
0.0
  9
$CHAMFERD
 40
0.0
  9
$SKPOLY
 70
     0
  9
$TDCREATE
 40
2450693.000000000
  9
$TDUCREATE
 40
2450692.625000000
  9
$TDUPDATE
 40
2456678.438585556
  9
$TDUUPDATE
 40
2456678.063585556
  9
$TDINDWG
 40
0.1102343866
  9
$TDUSRTIMER
 40
0.1102343866
  9
$USRTIMER
 70
     1
  9
$ANGBASE
 50
0.0
  9
$ANGDIR
 70
     0
  9
$PDMODE
 70
     0
  9
$PDSIZE
 40
0.0
  9
$PLINEWID
 40
0.0
  9
$SPLFRAME
 70
     0
  9
$SPLINETYPE
 70
     6
  9
$SPLINESEGS
 70
     8
  9
$HANDSEED
  5
FFE
  9
$SURFTAB1
 70
     6
  9
$SURFTAB2
 70
     6
  9
$SURFTYPE
 70
     6
  9
$SURFU
 70
     6
  9
$SURFV
 70
     6
  9
$UCSBASE
  2

  9
$UCSNAME
  2

  9
$UCSORG
 10
0.0
 20
0.0
 30
0.0
  9
$UCSXDIR
 10
1.0
 20
0.0
 30
0.0
  9
$UCSYDIR
 10
0.0
 20
1.0
 30
0.0
  9
$UCSORTHOREF
  2

  9
$UCSORTHOVIEW
 70
     0
  9
$UCSORGTOP
 10
0.0
 20
0.0
 30
0.0
  9
$UCSORGBOTTOM
 10
0.0
 20
0.0
 30
0.0
  9
$UCSORGLEFT
 10
0.0
 20
0.0
 30
0.0
  9
$UCSORGRIGHT
 10
0.0
 20
0.0
 30
0.0
  9
$UCSORGFRONT
 10
0.0
 20
0.0
 30
0.0
  9
$UCSORGBACK
 10
0.0
 20
0.0
 30
0.0
  9
$PUCSBASE
  2

  9
$PUCSNAME
  2

  9
$PUCSORG
 10
0.0
 20
0.0
 30
0.0
  9
$PUCSXDIR
 10
1.0
 20
0.0
 30
0.0
  9
$PUCSYDIR
 10
0.0
 20
1.0
 30
0.0
  9
$PUCSORTHOREF
  2

  9
$PUCSORTHOVIEW
 70
     0
  9
$PUCSORGTOP
 10
0.0
 20
0.0
 30
0.0
  9
$PUCSORGBOTTOM
 10
0.0
 20
0.0
 30
0.0
  9
$PUCSORGLEFT
 10
0.0
 20
0.0
 30
0.0
  9
$PUCSORGRIGHT
 10
0.0
 20
0.0
 30
0.0
  9
$PUCSORGFRONT
 10
0.0
 20
0.0
 30
0.0
  9
$PUCSORGBACK
 10
0.0
 20
0.0
 30
0.0
  9
$USERI1
 70
     0
  9
$USERI2
 70
     0
  9
$USERI3
 70
     0
  9
$USERI4
 70
     0
  9
$USERI5
 70
     0
  9
$USERR1
 40
0.0
  9
$USERR2
 40
0.0
  9
$USERR3
 40
0.0
  9
$USERR4
 40
0.0
  9
$USERR5
 40
0.0
  9
$WORLDVIEW
 70
     1
  9
$SHADEDGE
 70
     3
  9
$SHADEDIF
 70
    70
  9
$TILEMODE
 70
     1
  9
$MAXACTVP
 70
    64
  9
$PINSBASE
 10
0.0
 20
0.0
 30
0.0
  9
$PLIMCHECK
 70
     0
  9
$PEXTMIN
 10
1.000000000000000E+20
 20
1.000000000000000E+20
 30
1.000000000000000E+20
  9
$PEXTMAX
 10
-1.000000000000000E+20
 20
-1.000000000000000E+20
 30
-1.000000000000000E+20
  9
$PLIMMIN
 10
0.0
 20
0.0
  9
$PLIMMAX
 10
12.0
 20
9.0
  9
$UNITMODE
 70
     0
  9
$VISRETAIN
 70
     1
  9
$PLINEGEN
 70
     0
  9
$PSLTSCALE
 70
     1
  9
$TREEDEPTH
 70
  3020
  9
$CMLSTYLE
  2
Standard
  9
$CMLJUST
 70
     0
  9
$CMLSCALE
 40
1.0
  9
$PROXYGRAPHICS
 70
     1
  9
$MEASUREMENT
 70
     0
  9
$CELWEIGHT
370
    -1
  9
$ENDCAPS
280
     0
  9
$JOINSTYLE
280
     0
  9
$LWDISPLAY
290
     0
  9
$INSUNITS
 70
     0
  9
$HYPERLINKBASE
  1

  9
$STYLESHEET
  1
MONOCHROME.CTB
  9
$XEDIT
290
     1
  9
$CEPSNTYPE
380
     0
  9
$PSTYLEMODE
290
     1
  9
$FINGERPRINTGUID
  2
{6930F773-A5A7-4F64-9DF4-D151E9FFAB02}
  9
$VERSIONGUID
  2
{EFD7B5D1-919C-40DF-820A-3FA5DE6FF7F9}
  9
$EXTNAMES
290
     1
  9
$PSVPSCALE
 40
0.0
  9
$OLESTARTUP
290
     0
  0
ENDSEC
  0
SECTION
  2
CLASSES
  0
CLASS
  1
ACDBDICTIONARYWDFLT
  2
AcDbDictionaryWithDefault
  3
ObjectDBX Classes
 90
        0
280
     0
281
     0
  0
CLASS
  1
MATERIAL
  2
AcDbMaterial
  3
ObjectDBX Classes
 90
     1153
280
     0
281
     0
  0
CLASS
  1
VISUALSTYLE
  2
AcDbVisualStyle
  3
ObjectDBX Classes
 90
     4095
280
     0
281
     0
  0
CLASS
  1
SCALE
  2
AcDbScale
  3
ObjectDBX Classes
 90
     1153
280
     0
281
     0
  0
CLASS
  1
TABLESTYLE
  2
AcDbTableStyle
  3
ObjectDBX Classes
 90
     4095
280
     0
281
     0
  0
CLASS
  1
MLEADERSTYLE
  2
AcDbMLeaderStyle
  3
ACDB_MLEADERSTYLE_CLASS
 90
     4095
280
     0
281
     0
  0
CLASS
  1
CELLSTYLEMAP
  2
AcDbCellStyleMap
  3
ObjectDBX Classes
 90
     1152
280
     0
281
     0
  0
CLASS
  1
DICTIONARYVAR
  2
AcDbDictionaryVar
  3
ObjectDBX Classes
 90
        0
280
     0
281
     0
  0
CLASS
  1
ACDBPLACEHOLDER
  2
AcDbPlaceHolder
  3
ObjectDBX Classes
 90
        0
280
     0
281
     0
  0
CLASS
  1
LAYOUT
  2
AcDbLayout
  3
ObjectDBX Classes
 90
        0
280
     0
281
     0
  0
ENDSEC
  0
SECTION
  2
TABLES
  0
TABLE
  2
VPORT
  5
8
102
{ACAD_XDICTIONARY
360
FBF
102
}
330
0
100
AcDbSymbolTable
 70
     1
  0
VPORT
  5
86
330
8
100
AcDbSymbolTableRecord
100
AcDbViewportTableRecord
  2
*Active
 70
     0
 10
0.0
 20
0.0
 11
1.0
 21
1.0
 12
-750.040433631932
 22
537.7412367353765
 13
0.0
 23
0.0
 14
1.0
 24
1.0
 15
0.0
 25
0.0
 16
0.0
 26
0.0
 36
1.0
 17
0.0
 27
0.0
 37
0.0
 40
1363.356280169041
 41
1.656498673740053
 42
50.0
 43
0.0
 44
0.0
 50
0.0
 51
0.0
 71
     0
 72
   100
 73
     1
 74
     1
 75
     0
 76
     0
 77
     0
 78
     0
281
     0
 65
     1
110
0.0
120
0.0
130
0.0
111
1.0
121
0.0
131
0.0
112
0.0
122
1.0
132
0.0
 79
     0
146
0.0
  0
ENDTAB
  0
TABLE
  2
LTYPE
  5
5
330
0
100
AcDbSymbolTable
 70
     7
  0
LTYPE
  5
62
330
5
100
AcDbSymbolTableRecord
100
AcDbLinetypeTableRecord
  2
ByBlock
 70
     0
  3

 72
    65
 73
     0
 40
0.0
  0
LTYPE
  5
63
330
5
100
AcDbSymbolTableRecord
100
AcDbLinetypeTableRecord
  2
ByLayer
 70
     0
  3

 72
    65
 73
     0
 40
0.0
  0
LTYPE
  5
64
330
5
100
AcDbSymbolTableRecord
100
AcDbLinetypeTableRecord
  2
CONTINUOUS
 70
     0
  3
Solid line
 72
    65
 73
     0
 40
0.0
  0
LTYPE
  5
78
330
5
100
AcDbSymbolTableRecord
100
AcDbLinetypeTableRecord
  2
DASHED
 70
     0
  3
__ __ __ __ __ __ __ __ __ __ __ __ __ __ __
 72
    65
 73
     2
 40
2.0
 49
1.199999999999999
 74
     0
 49
-0.8
 74
     0
  0
LTYPE
  5
79
330
5
100
AcDbSymbolTableRecord
100
AcDbLinetypeTableRecord
  2
CENTER
 70
     0
  3
____ _ ____ _ ____ _ ____ _ ____ _ ____ _ ____
 72
    65
 73
     4
 40
12.0
 49
9.0
 74
     0
 49
-1.0
 74
     0
 49
1.0
 74
     0
 49
-1.0
 74
     0
  0
LTYPE
  5
7A
330
5
100
AcDbSymbolTableRecord
100
AcDbLinetypeTableRecord
  2
HIDDEN
 70
     0
  3
_ _ _ _ _ _ _ _ _ _ _ _ _ _ _ _ _ _ _ _ _ _ _
 72
    65
 73
     2
 40
3.2
 49
2.399999999999999
 74
     0
 49
-0.8
 74
     0
  0
LTYPE
  5
7B
330
5
100
AcDbSymbolTableRecord
100
AcDbLinetypeTableRecord
  2
PHANTOM
 70
     0
  3
_____ _ _ _____ _ _ _____ _ _ _____ _ _ _____
 72
    65
 73
     6
 40
13.5
 49
9.0
 74
     0
 49
-1.0
 74
     0
 49
1.0
 74
     0
 49
-0.5
 74
     0
 49
1.0
 74
     0
 49
-1.0
 74
     0
  0
LTYPE
  5
7C
330
5
100
AcDbSymbolTableRecord
100
AcDbLinetypeTableRecord
  2
DOT
 70
     0
  3
...............................................
 72
    65
 73
     2
 40
1.0
 49
0.5
 74
     0
 49
-0.5
 74
     0
  0
LTYPE
  5
7D
330
5
100
AcDbSymbolTableRecord
100
AcDbLinetypeTableRecord
  2
DASHDOT
 70
     0
  3
__ . __ . __ . __ . __ . __ . __ . __ . __ . __
 72
    65
 73
     4
 40
8.0
 49
5.0
 74
     0
 49
-1.0
 74
     0
 49
1.0
 74
     0
 49
-1.0
 74
     0
  0
ENDTAB
  0
TABLE
  2
LAYER
  5
2
102
{ACAD_XDICTIONARY
360
967
102
}
330
0
100
AcDbSymbolTable
 70
     8
  0
LAYER
  5
5C
102
{ACAD_XDICTIONARY
360
F46
102
}
330
2
100
AcDbSymbolTableRecord
100
AcDbLayerTableRecord
  2
0
 70
     0
 62
     7
  6
CONTINUOUS
370
    -3
390
F
  0
LAYER
  5
7E
102
{ACAD_XDICTIONARY
360
F48
102
}
330
2
100
AcDbSymbolTableRecord
100
AcDbLayerTableRecord
  2
1
 70
     0
 62
     7
  6
CONTINUOUS
370
    -3
390
F
  0
LAYER
  5
7F
102
{ACAD_XDICTIONARY
360
F4A
102
}
330
2
100
AcDbSymbolTableRecord
100
AcDbLayerTableRecord
  2
2
 70
     0
 62
     7
  6
CONTINUOUS
370
    -3
390
F
  0
LAYER
  5
80
102
{ACAD_XDICTIONARY
360
F4C
102
}
330
2
100
AcDbSymbolTableRecord
100
AcDbLayerTableRecord
  2
3
 70
     0
 62
     7
  6
CONTINUOUS
370
    -3
390
F
  0
LAYER
  5
81
102
{ACAD_XDICTIONARY
360
F4E
102
}
330
2
100
AcDbSymbolTableRecord
100
AcDbLayerTableRecord
  2
5
 70
     0
 62
     2
  6
CONTINUOUS
370
    -3
390
F
  0
LAYER
  5
82
102
{ACAD_XDICTIONARY
360
F50
102
}
330
2
100
AcDbSymbolTableRecord
100
AcDbLayerTableRecord
  2
18
 70
     0
 62
     7
  6
CONTINUOUS
370
    -3
390
F
  0
LAYER
  5
83
102
{ACAD_XDICTIONARY
360
F52
102
}
330
2
100
AcDbSymbolTableRecord
100
AcDbLayerTableRecord
  2
20
 70
     0
 62
     7
  6
CONTINUOUS
370
    -3
390
F
  0
LAYER
  5
82D
330
2
100
AcDbSymbolTableRecord
100
AcDbLayerTableRecord
  2
Defpoints
 70
     0
 62
   251
  6
CONTINUOUS
290
     0
370
    -3
390
F
  0
ENDTAB
  0
TABLE
  2
STYLE
  5
3
330
0
100
AcDbSymbolTable
 70
     2
  0
STYLE
  5
5D
330
3
100
AcDbSymbolTableRecord
100
AcDbTextStyleTableRecord
  2
STANDARD
 70
     0
 40
0.0
 41
1.0
 50
0.0
 71
     0
 42
1.0
  3
simplex.shx
  4
BIGFONT.shx
  0
STYLE
  5
61
330
3
100
AcDbSymbolTableRecord
100
AcDbTextStyleTableRecord
  2
Annotative
 70
     0
 40
0.0
 41
1.0
 50
0.0
 71
     0
 42
0.2
  3

  4

1001
AcadAnnotative
1000
AnnotativeData
1002
{
1070
     1
1070
     1
1002
}
  0
ENDTAB
  0
TABLE
  2
VIEW
  5
6
330
0
100
AcDbSymbolTable
 70
     0
  0
ENDTAB
  0
TABLE
  2
UCS
  5
7
330
0
100
AcDbSymbolTable
 70
     0
  0
ENDTAB
  0
TABLE
  2
APPID
  5
9
330
0
100
AcDbSymbolTable
 70
     7
  0
APPID
  5
5E
330
9
100
AcDbSymbolTableRecord
100
AcDbRegAppTableRecord
  2
ACAD
 70
     0
  0
APPID
  5
65
330
9
100
AcDbSymbolTableRecord
100
AcDbRegAppTableRecord
  2
AcadAnnotative
 70
     0
  0
APPID
  5
6F
330
9
100
AcDbSymbolTableRecord
100
AcDbRegAppTableRecord
  2
ACAD_MLEADERVER
 70
     0
  0
APPID
  5
821
330
9
100
AcDbSymbolTableRecord
100
AcDbRegAppTableRecord
  2
AcadAnnoPO
 70
     0
  0
APPID
  5
82A
330
9
100
AcDbSymbolTableRecord
100
AcDbRegAppTableRecord
  2
ACAD_DSTYLE_DIMJAG
 70
     0
  0
APPID
  5
82B
330
9
100
AcDbSymbolTableRecord
100
AcDbRegAppTableRecord
  2
ACAD_DSTYLE_DIMTALN
 70
     0
  0
APPID
  5
F7E
330
9
100
AcDbSymbolTableRecord
100
AcDbRegAppTableRecord
  2
ACAD_PSEXT
 70
     0
  0
ENDTAB
  0
TABLE
  2
DIMSTYLE
  5
A
330
0
100
AcDbSymbolTable
 70
     2
100
AcDbDimStyleTable
 71
     1
340
5F
  0
DIMSTYLE
105
5F
102
{ACAD_REACTORS
330
75B
330
75C
330
75D
330
75E
330
763
330
764
330
BC2
330
D80
330
D8D
330
EDF
102
}
330
A
100
AcDbSymbolTableRecord
100
AcDbDimStyleTableRecord
  2
Standard
 70
     0
 41
2.5
 73
     0
 74
     0
 77
     1
 78
    12
140
3.5
143
1.0
147
0.8
271
     2
272
     2
340
5D
341
823
342
823
1001
ACAD_DSTYLE_DIMJAG
1070
   388
1040
1.5
1001
ACAD_DSTYLE_DIMTALN
1070
   392
1070
     0
  0
DIMSTYLE
105
60
330
A
100
AcDbSymbolTableRecord
100
AcDbDimStyleTableRecord
  2
Annotative
 70
     0
340
5D
1001
AcadAnnotative
1000
AnnotativeData
1002
{
1070
     1
1070
     1
1002
}
  0
ENDTAB
  0
TABLE
  2
BLOCK_RECORD
  5
1
330
0
100
AcDbSymbolTable
 70
    11
  0
BLOCK_RECORD
  5
74
330
1
100
AcDbSymbolTableRecord
100
AcDbBlockTableRecord
  2
*Model_Space
340
77
  0
BLOCK_RECORD
  5
70
330
1
100
AcDbSymbolTableRecord
100
AcDbBlockTableRecord
  2
*Paper_Space
340
73
  0
BLOCK_RECORD
  5
823
330
1
100
AcDbSymbolTableRecord
100
AcDbBlockTableRecord
  2
_Closed
340
0
102
{BLKREFS
331
E96
331
E97
331
E9F
331
EA0
331
EAA
331
EAB
331
EBC
331
EBD
331
EC5
331
EC6
331
ED0
331
ED1
331
ED9
331
EDA
331
F13
331
F14
331
F25
331
F26
331
F37
331
F38
102
}
  0
BLOCK_RECORD
  5
83B
330
1
100
AcDbSymbolTableRecord
100
AcDbBlockTableRecord
  2
*D1
340
0
  0
BLOCK_RECORD
  5
848
330
1
100
AcDbSymbolTableRecord
100
AcDbBlockTableRecord
  2
*D2
340
0
  0
BLOCK_RECORD
  5
855
330
1
100
AcDbSymbolTableRecord
100
AcDbBlockTableRecord
  2
*D3
340
0
  0
BLOCK_RECORD
  5
862
330
1
100
AcDbSymbolTableRecord
100
AcDbBlockTableRecord
  2
*D4
340
0
  0
BLOCK_RECORD
  5
8A3
330
1
100
AcDbSymbolTableRecord
100
AcDbBlockTableRecord
  2
*D5
340
0
  0
BLOCK_RECORD
  5
8B0
330
1
100
AcDbSymbolTableRecord
100
AcDbBlockTableRecord
  2
*D6
340
0
  0
BLOCK_RECORD
  5
BC3
330
1
100
AcDbSymbolTableRecord
100
AcDbBlockTableRecord
  2
*D7
340
0
  0
BLOCK_RECORD
  5
D81
330
1
100
AcDbSymbolTableRecord
100
AcDbBlockTableRecord
  2
*D8
340
0
  0
BLOCK_RECORD
  5
D8E
330
1
100
AcDbSymbolTableRecord
100
AcDbBlockTableRecord
  2
*D9
340
0
  0
BLOCK_RECORD
  5
EE0
330
1
100
AcDbSymbolTableRecord
100
AcDbBlockTableRecord
  2
*D10
340
0
  0
ENDTAB
  0
ENDSEC
  0
SECTION
  2
BLOCKS
  0
BLOCK
  5
75
330
74
100
AcDbEntity
  8
0
100
AcDbBlockBegin
  2
*Model_Space
 70
     0
 10
0.0
 20
0.0
 30
0.0
  3
*Model_Space
  1

  0
ENDBLK
  5
76
330
74
100
AcDbEntity
  8
0
100
AcDbBlockEnd
  0
BLOCK
  5
71
330
70
100
AcDbEntity
 67
     1
  8
0
100
AcDbBlockBegin
  2
*Paper_Space
 70
     0
 10
0.0
 20
0.0
 30
0.0
  3
*Paper_Space
  1

  0
ENDBLK
  5
72
330
70
100
AcDbEntity
 67
     1
  8
0
100
AcDbBlockEnd
  0
BLOCK
  5
828
330
823
100
AcDbEntity
  8
0
100
AcDbBlockBegin
  2
_Closed
 70
     0
 10
0.0
 20
0.0
 30
0.0
  3
_Closed
  1

  0
LINE
  5
824
330
823
100
AcDbEntity
  8
0
  6
ByBlock
 62
     0
370
    -2
100
AcDbLine
 10
-1.0
 20
0.1666666666666666
 30
0.0
 11
0.0
 21
0.0
 31
0.0
  0
LINE
  5
825
330
823
100
AcDbEntity
  8
0
  6
ByBlock
 62
     0
370
    -2
100
AcDbLine
 10
0.0
 20
0.0
 30
0.0
 11
-1.0
 21
-0.1666666666666666
 31
0.0
  0
LINE
  5
826
330
823
100
AcDbEntity
  8
0
  6
ByBlock
 62
     0
370
    -2
100
AcDbLine
 10
-1.0
 20
0.1666666666666666
 30
0.0
 11
-1.0
 21
-0.1666666666666666
 31
0.0
  0
LINE
  5
827
330
823
100
AcDbEntity
  8
0
  6
ByBlock
 62
     0
370
    -2
100
AcDbLine
 10
0.0
 20
0.0
 30
0.0
 11
-1.0
 21
0.0
 31
0.0
  0
ENDBLK
  5
829
330
823
100
AcDbEntity
  8
0
100
AcDbBlockEnd
  0
BLOCK
  5
83C
330
83B
100
AcDbEntity
  8
0
100
AcDbBlockBegin
  2
*D1
 70
     1
 10
0.0
 20
0.0
 30
0.0
  3
*D1
  1

  0
LINE
  5
EB9
330
83B
100
AcDbEntity
  8
5
 62
     0
370
    -2
100
AcDbLine
 10
-676.8666399999998
 20
204.26173
 30
0.0
 11
-745.975265
 21
204.26173
 31
0.0
  0
LINE
  5
EBA
330
83B
100
AcDbEntity
  8
5
 62
     0
370
    -2
100
AcDbLine
 10
-686.28853
 20
439.26173
 30
0.0
 11
-745.9752649999998
 21
439.26173
 31
0.0
  0
LINE
  5
EBB
330
83B
100
AcDbEntity
  8
5
 62
     0
370
    -2
100
AcDbLine
 10
-745.075265
 20
216.76173
 30
0.0
 11
-745.0752649999998
 21
426.76173
 31
0.0
  0
INSERT
  5
EBC
330
83B
100
AcDbEntity
  8
5
 62
     0
370
    -2
100
AcDbBlockReference
  2
_Closed
 10
-745.075265
 20
204.26173
 30
0.0
 41
12.5
 42
12.5
 43
12.5
 50
270.0
  0
INSERT
  5
EBD
330
83B
100
AcDbEntity
  8
5
 62
     0
370
    -2
100
AcDbBlockReference
  2
_Closed
 10
-745.0752649999998
 20
439.26173
 30
0.0
 41
12.5
 42
12.5
 43
12.5
 50
90.0
  0
MTEXT
  5
EBE
330
83B
100
AcDbEntity
  8
5
 62
     0
100
AcDbMText
 10
-757.825265
 20
321.7617299999999
 30
0.0
 40
17.5
 41
0.0
 71
     5
 72
     1
  1
\A1;235
 11
0.0000000000000001
 21
1.0
 31
0.0
 73
     1
 44
1.0
1001
ACAD
1000
MTEXTBEGIN
1070
    73
1070
     1
1070
    44
1040
1.0
1070
    74
1070
     0
1000
MTEXTEND
  0
POINT
  5
EBF
330
83B
100
AcDbEntity
  8
Defpoints
 62
     0
100
AcDbPoint
 10
-672.8666399999998
 20
204.26173
 30
0.0
  0
POINT
  5
EC0
330
83B
100
AcDbEntity
  8
Defpoints
 62
     0
100
AcDbPoint
 10
-682.28853
 20
439.26173
 30
0.0
  0
POINT
  5
EC1
330
83B
100
AcDbEntity
  8
Defpoints
 62
     0
100
AcDbPoint
 10
-745.0752649999998
 20
439.26173
 30
0.0
  0
ENDBLK
  5
83D
330
83B
100
AcDbEntity
  8
0
100
AcDbBlockEnd
  0
BLOCK
  5
849
330
848
100
AcDbEntity
  8
0
100
AcDbBlockBegin
  2
*D2
 70
     1
 10
0.0
 20
0.0
 30
0.0
  3
*D2
  1

  0
LINE
  5
ED6
330
848
100
AcDbEntity
  8
5
 62
     0
370
    -2
100
AcDbLine
 10
-646.78853
 20
14.76172999999994
 30
0.0
 11
-745.9752649999998
 21
14.76172999999997
 31
0.0
  0
LINE
  5
ED7
330
848
100
AcDbEntity
  8
5
 62
     0
370
    -2
100
AcDbLine
 10
-676.8666399999998
 20
204.26173
 30
0.0
 11
-745.9752649999998
 21
204.26173
 31
0.0
  0
LINE
  5
ED8
330
848
100
AcDbEntity
  8
5
 62
     0
370
    -2
100
AcDbLine
 10
-745.0752649999998
 20
27.26172999999997
 30
0.0
 11
-745.0752649999998
 21
191.76173
 31
0.0
  0
INSERT
  5
ED9
330
848
100
AcDbEntity
  8
5
 62
     0
370
    -2
100
AcDbBlockReference
  2
_Closed
 10
-745.0752649999998
 20
14.76172999999997
 30
0.0
 41
12.5
 42
12.5
 43
12.5
 50
270.0
  0
INSERT
  5
EDA
330
848
100
AcDbEntity
  8
5
 62
     0
370
    -2
100
AcDbBlockReference
  2
_Closed
 10
-745.0752649999998
 20
204.26173
 30
0.0
 41
12.5
 42
12.5
 43
12.5
 50
90.0
  0
MTEXT
  5
EDB
330
848
100
AcDbEntity
  8
5
 62
     0
100
AcDbMText
 10
-757.8252649999998
 20
109.5117299999998
 30
0.0
 40
17.5
 41
0.0
 71
     5
 72
     1
  1
\A1;190
 11
0.0000000000000001
 21
1.0
 31
0.0
 73
     1
 44
1.0
1001
ACAD
1000
MTEXTBEGIN
1070
    73
1070
     1
1070
    44
1040
1.0
1070
    74
1070
     0
1000
MTEXTEND
  0
POINT
  5
EDC
330
848
100
AcDbEntity
  8
Defpoints
 62
     0
100
AcDbPoint
 10
-642.78853
 20
14.76172999999994
 30
0.0
  0
POINT
  5
EDD
330
848
100
AcDbEntity
  8
Defpoints
 62
     0
100
AcDbPoint
 10
-672.8666399999998
 20
204.26173
 30
0.0
  0
POINT
  5
EDE
330
848
100
AcDbEntity
  8
Defpoints
 62
     0
100
AcDbPoint
 10
-745.0752649999998
 20
204.26173
 30
0.0
  0
ENDBLK
  5
84A
330
848
100
AcDbEntity
  8
0
100
AcDbBlockEnd
  0
BLOCK
  5
856
330
855
100
AcDbEntity
  8
0
100
AcDbBlockBegin
  2
*D3
 70
     1
 10
0.0
 20
0.0
 30
0.0
  3
*D3
  1

  0
LINE
  5
EA5
330
855
100
AcDbEntity
  8
5
 62
     0
370
    -2
100
AcDbLine
 10
-686.28853
 20
439.26173
 30
0.0
 11
-800.0236541774741
 21
439.26173
 31
0.0
  0
LINE
  5
EA6
330
855
100
AcDbEntity
  8
5
 62
     0
370
    -2
100
AcDbLine
 10
-701.28853
 20
468.76173
 30
0.0
 11
-800.0236541774741
 21
468.76173
 31
0.0
  0
LINE
  5
EA7
330
855
100
AcDbEntity
  8
5
 62
     0
370
    -2
100
AcDbLine
 10
-799.123654177474
 20
481.26173
 30
0.0
 11
-799.123654177474
 21
493.76173
 31
0.0
  0
LINE
  5
EA8
330
855
100
AcDbEntity
  8
5
 62
     0
370
    -2
100
AcDbLine
 10
-799.123654177474
 20
426.76173
 30
0.0
 11
-799.123654177474
 21
352.9283966666667
 31
0.0
  0
LINE
  5
EA9
330
855
100
AcDbEntity
  8
5
 62
     0
370
    -2
100
AcDbLine
 10
-799.123654177474
 20
468.76173
 30
0.0
 11
-799.123654177474
 21
439.26173
 31
0.0
  0
INSERT
  5
EAA
330
855
100
AcDbEntity
  8
5
 62
     0
370
    -2
100
AcDbBlockReference
  2
_Closed
 10
-799.123654177474
 20
468.76173
 30
0.0
 41
12.5
 42
12.5
 43
12.5
 50
270.0
  0
INSERT
  5
EAB
330
855
100
AcDbEntity
  8
5
 62
     0
370
    -2
100
AcDbBlockReference
  2
_Closed
 10
-799.123654177474
 20
439.26173
 30
0.0
 41
12.5
 42
12.5
 43
12.5
 50
90.0
  0
MTEXT
  5
EAC
330
855
100
AcDbEntity
  8
5
 62
     0
100
AcDbMText
 10
-811.8736541774742
 20
383.5950633333332
 30
0.0
 40
17.5
 41
0.0
 71
     5
 72
     1
  1
\A1;29.5
 11
0.0000000000000001
 21
1.0
 31
0.0
 73
     1
 44
1.0
1001
ACAD
1000
MTEXTBEGIN
1070
    73
1070
     1
1070
    44
1040
1.0
1070
    74
1070
     0
1000
MTEXTEND
  0
POINT
  5
EAD
330
855
100
AcDbEntity
  8
Defpoints
 62
     0
100
AcDbPoint
 10
-682.28853
 20
439.26173
 30
0.0
  0
POINT
  5
EAE
330
855
100
AcDbEntity
  8
Defpoints
 62
     0
100
AcDbPoint
 10
-697.28853
 20
468.76173
 30
0.0
  0
POINT
  5
EAF
330
855
100
AcDbEntity
  8
Defpoints
 62
     0
100
AcDbPoint
 10
-799.123654177474
 20
468.76173
 30
0.0
  0
ENDBLK
  5
857
330
855
100
AcDbEntity
  8
0
100
AcDbBlockEnd
  0
BLOCK
  5
863
330
862
100
AcDbEntity
  8
0
100
AcDbBlockBegin
  2
*D4
 70
     1
 10
0.0
 20
0.0
 30
0.0
  3
*D4
  1

  0
LINE
  5
E9C
330
862
100
AcDbEntity
  8
5
 62
     0
370
    -2
100
AcDbLine
 10
-701.28853
 20
468.76173
 30
0.0
 11
-800.0236541774741
 21
468.76173
 31
0.0
  0
LINE
  5
E9D
330
862
100
AcDbEntity
  8
5
 62
     0
370
    -2
100
AcDbLine
 10
-758.8885299999998
 20
510.76173
 30
0.0
 11
-800.0236541774741
 21
510.76173
 31
0.0
  0
LINE
  5
E9E
330
862
100
AcDbEntity
  8
5
 62
     0
370
    -2
100
AcDbLine
 10
-799.123654177474
 20
481.26173
 30
0.0
 11
-799.123654177474
 21
498.26173
 31
0.0
  0
INSERT
  5
E9F
330
862
100
AcDbEntity
  8
5
 62
     0
370
    -2
100
AcDbBlockReference
  2
_Closed
 10
-799.123654177474
 20
468.76173
 30
0.0
 41
12.5
 42
12.5
 43
12.5
 50
270.0
  0
INSERT
  5
EA0
330
862
100
AcDbEntity
  8
5
 62
     0
370
    -2
100
AcDbBlockReference
  2
_Closed
 10
-799.123654177474
 20
510.76173
 30
0.0
 41
12.5
 42
12.5
 43
12.5
 50
90.0
  0
MTEXT
  5
EA1
330
862
100
AcDbEntity
  8
5
 62
     0
100
AcDbMText
 10
-811.8736541774742
 20
489.7617299999998
 30
0.0
 40
17.5
 41
0.0
 71
     5
 72
     1
  1
\A1;42
 11
0.0000000000000001
 21
1.0
 31
0.0
 73
     1
 44
1.0
1001
ACAD
1000
MTEXTBEGIN
1070
    73
1070
     1
1070
    44
1040
1.0
1070
    74
1070
     0
1000
MTEXTEND
  0
POINT
  5
EA2
330
862
100
AcDbEntity
  8
Defpoints
 62
     0
100
AcDbPoint
 10
-697.28853
 20
468.76173
 30
0.0
  0
POINT
  5
EA3
330
862
100
AcDbEntity
  8
Defpoints
 62
     0
100
AcDbPoint
 10
-754.8885299999998
 20
510.76173
 30
0.0
  0
POINT
  5
EA4
330
862
100
AcDbEntity
  8
Defpoints
 62
     0
100
AcDbPoint
 10
-799.123654177474
 20
510.76173
 30
0.0
  0
ENDBLK
  5
864
330
862
100
AcDbEntity
  8
0
100
AcDbBlockEnd
  0
BLOCK
  5
8A4
330
8A3
100
AcDbEntity
  8
0
100
AcDbBlockBegin
  2
*D5
 70
     1
 10
0.0
 20
0.0
 30
0.0
  3
*D5
  1

  0
LINE
  5
ECB
330
8A3
100
AcDbEntity
  8
5
 62
     0
370
    -2
100
AcDbLine
 10
-645.78853
 20
68.76173
 30
0.0
 11
-645.78853
 21
-33.80094999999997
 31
0.0
  0
LINE
  5
ECC
330
8A3
100
AcDbEntity
  8
5
 62
     0
370
    -2
100
AcDbLine
 10
-619.78853
 20
-9.60514999999998
 30
0.0
 11
-619.78853
 21
-33.80094999999997
 31
0.0
  0
LINE
  5
ECD
330
8A3
100
AcDbEntity
  8
5
 62
     0
370
    -2
100
AcDbLine
 10
-607.28853
 20
-32.90094999999997
 30
0.0
 11
-594.78853
 21
-32.90094999999997
 31
0.0
  0
LINE
  5
ECE
330
8A3
100
AcDbEntity
  8
5
 62
     0
370
    -2
100
AcDbLine
 10
-658.28853
 20
-32.90094999999997
 30
0.0
 11
-706.28853
 21
-32.90094999999997
 31
0.0
  0
LINE
  5
ECF
330
8A3
100
AcDbEntity
  8
5
 62
     0
370
    -2
100
AcDbLine
 10
-619.78853
 20
-32.90094999999997
 30
0.0
 11
-645.78853
 21
-32.90094999999997
 31
0.0
  0
INSERT
  5
ED0
330
8A3
100
AcDbEntity
  8
5
 62
     0
370
    -2
100
AcDbBlockReference
  2
_Closed
 10
-619.78853
 20
-32.90094999999997
 30
0.0
 41
12.5
 42
12.5
 43
12.5
 50
180.0
  0
INSERT
  5
ED1
330
8A3
100
AcDbEntity
  8
5
 62
     0
370
    -2
100
AcDbBlockReference
  2
_Closed
 10
-645.78853
 20
-32.90094999999997
 30
0.0
 41
12.5
 42
12.5
 43
12.5
  0
MTEXT
  5
ED2
330
8A3
100
AcDbEntity
  8
5
 62
     0
100
AcDbMText
 10
-688.53853
 20
-20.15094999999996
 30
0.0
 40
17.5
 41
0.0
 71
     5
 72
     1
  1
\A1;26
 73
     1
 44
1.0
1001
ACAD
1000
MTEXTBEGIN
1070
    73
1070
     1
1070
    44
1040
1.0
1070
    74
1070
     0
1000
MTEXTEND
  0
POINT
  5
ED3
330
8A3
100
AcDbEntity
  8
Defpoints
 62
     0
100
AcDbPoint
 10
-645.78853
 20
72.76173
 30
0.0
  0
POINT
  5
ED4
330
8A3
100
AcDbEntity
  8
Defpoints
 62
     0
100
AcDbPoint
 10
-619.78853
 20
-5.60514999999998
 30
0.0
  0
POINT
  5
ED5
330
8A3
100
AcDbEntity
  8
Defpoints
 62
     0
100
AcDbPoint
 10
-619.78853
 20
-32.90094999999997
 30
0.0
  0
ENDBLK
  5
8A5
330
8A3
100
AcDbEntity
  8
0
100
AcDbBlockEnd
  0
BLOCK
  5
8B1
330
8B0
100
AcDbEntity
  8
0
100
AcDbBlockBegin
  2
*D6
 70
     1
 10
0.0
 20
0.0
 30
0.0
  3
*D6
  1

  0
LINE
  5
EC2
330
8B0
100
AcDbEntity
  8
5
 62
     0
370
    -2
100
AcDbLine
 10
-645.78853
 20
68.76173
 30
0.0
 11
-645.78853
 21
-73.56012999999999
 31
0.0
  0
LINE
  5
EC3
330
8B0
100
AcDbEntity
  8
5
 62
     0
370
    -2
100
AcDbLine
 10
-583.78853
 20
68.76173
 30
0.0
 11
-583.78853
 21
-73.56012999999999
 31
0.0
  0
LINE
  5
EC4
330
8B0
100
AcDbEntity
  8
5
 62
     0
370
    -2
100
AcDbLine
 10
-633.28853
 20
-72.66012999999998
 30
0.0
 11
-596.28853
 21
-72.66012999999998
 31
0.0
  0
INSERT
  5
EC5
330
8B0
100
AcDbEntity
  8
5
 62
     0
370
    -2
100
AcDbBlockReference
  2
_Closed
 10
-645.78853
 20
-72.66012999999998
 30
0.0
 41
12.5
 42
12.5
 43
12.5
 50
180.0
  0
INSERT
  5
EC6
330
8B0
100
AcDbEntity
  8
5
 62
     0
370
    -2
100
AcDbBlockReference
  2
_Closed
 10
-583.78853
 20
-72.66012999999998
 30
0.0
 41
12.5
 42
12.5
 43
12.5
  0
MTEXT
  5
EC7
330
8B0
100
AcDbEntity
  8
5
 62
     0
100
AcDbMText
 10
-614.78853
 20
-59.91012999999998
 30
0.0
 40
17.5
 41
0.0
 71
     5
 72
     1
  1
\A1;62
 73
     1
 44
1.0
1001
ACAD
1000
MTEXTBEGIN
1070
    73
1070
     1
1070
    44
1040
1.0
1070
    74
1070
     0
1000
MTEXTEND
  0
POINT
  5
EC8
330
8B0
100
AcDbEntity
  8
Defpoints
 62
     0
100
AcDbPoint
 10
-645.78853
 20
72.76173
 30
0.0
  0
POINT
  5
EC9
330
8B0
100
AcDbEntity
  8
Defpoints
 62
     0
100
AcDbPoint
 10
-583.78853
 20
72.76173
 30
0.0
  0
POINT
  5
ECA
330
8B0
100
AcDbEntity
  8
Defpoints
 62
     0
100
AcDbPoint
 10
-583.78853
 20
-72.66012999999998
 30
0.0
  0
ENDBLK
  5
8B2
330
8B0
100
AcDbEntity
  8
0
100
AcDbBlockEnd
  0
BLOCK
  5
BC4
330
BC3
100
AcDbEntity
  8
0
100
AcDbBlockBegin
  2
*D7
 70
     1
 10
0.0
 20
0.0
 30
0.0
  3
*D7
  1

  0
LINE
  5
E93
330
BC3
100
AcDbEntity
  8
5
  6
Continuous
 62
     0
370
    -2
100
AcDbLine
 10
-1046.493985
 20
650.7617299999998
 30
0.0
 11
-986.1974622517287
 21
650.7617299999998
 31
0.0
  0
LINE
  5
E94
330
BC3
100
AcDbEntity
  8
5
  6
Continuous
 62
     0
370
    -2
100
AcDbLine
 10
-1046.493985
 20
370.76173
 30
0.0
 11
-986.1974622517287
 21
370.76173
 31
0.0
  0
LINE
  5
E95
330
BC3
100
AcDbEntity
  8
5
  6
Continuous
 62
     0
370
    -2
100
AcDbLine
 10
-987.4474622517288
 20
638.2617299999998
 30
0.0
 11
-987.4474622517288
 21
383.26173
 31
0.0
  0
INSERT
  5
E96
330
BC3
100
AcDbEntity
  8
5
  6
Continuous
 62
     0
370
    -2
100
AcDbBlockReference
  2
_Closed
 10
-987.4474622517288
 20
650.7617299999998
 30
0.0
 41
12.5
 42
12.5
 43
12.5
 50
90.0
  0
INSERT
  5
E97
330
BC3
100
AcDbEntity
  8
5
  6
Continuous
 62
     0
370
    -2
100
AcDbBlockReference
  2
_Closed
 10
-987.4474622517288
 20
370.76173
 30
0.0
 41
12.5
 42
12.5
 43
12.5
 50
270.0
  0
MTEXT
  5
E98
330
BC3
100
AcDbEntity
  8
5
  6
Continuous
 62
     0
100
AcDbMText
 10
-1000.197462251729
 20
510.7617299999997
 30
0.0
 40
17.5
 41
0.0
 71
     5
 72
     1
  1
\A1;%%C280
 11
0.0000000000000001
 21
1.0
 31
0.0
 73
     1
 44
1.0
1001
ACAD
1000
MTEXTBEGIN
1070
    73
1070
     1
1070
    44
1040
1.0
1070
    74
1070
     0
1000
MTEXTEND
  0
POINT
  5
E99
330
BC3
100
AcDbEntity
  8
Defpoints
  6
Continuous
 62
     0
100
AcDbPoint
 10
-1050.493985
 20
650.7617299999998
 30
0.0
  0
POINT
  5
E9A
330
BC3
100
AcDbEntity
  8
Defpoints
  6
Continuous
 62
     0
100
AcDbPoint
 10
-1050.493985
 20
370.76173
 30
0.0
  0
POINT
  5
E9B
330
BC3
100
AcDbEntity
  8
Defpoints
  6
Continuous
 62
     0
100
AcDbPoint
 10
-987.4474622517288
 20
370.76173
 30
0.0
  0
ENDBLK
  5
BC5
330
BC3
100
AcDbEntity
  8
0
100
AcDbBlockEnd
  0
BLOCK
  5
D82
330
D81
100
AcDbEntity
  8
0
100
AcDbBlockBegin
  2
*D8
 70
     1
 10
0.0
 20
0.0
 30
0.0
  3
*D8
  1

  0
LINE
  5
F34
330
D81
100
AcDbEntity
  8
5
  6
Continuous
 62
     0
370
    -2
100
AcDbLine
 10
-1044.55648499113
 20
1086.709536841927
 30
0.0
 11
-1044.55648499113
 21
1118.872307130017
 31
0.0
  0
LINE
  5
F35
330
D81
100
AcDbEntity
  8
5
  6
Continuous
 62
     0
370
    -2
100
AcDbLine
 10
-1290.056485
 20
1001.352270409444
 30
0.0
 11
-1290.056485
 21
1118.872307130017
 31
0.0
  0
LINE
  5
F36
330
D81
100
AcDbEntity
  8
5
  6
Continuous
 62
     0
370
    -2
100
AcDbLine
 10
-1057.05648499113
 20
1117.622307130017
 30
0.0
 11
-1277.556485
 21
1117.622307130017
 31
0.0
  0
INSERT
  5
F37
330
D81
100
AcDbEntity
  8
5
  6
Continuous
 62
     0
370
    -2
100
AcDbBlockReference
  2
_Closed
 10
-1044.55648499113
 20
1117.622307130017
 30
0.0
 41
12.5
 42
12.5
 43
12.5
  0
INSERT
  5
F38
330
D81
100
AcDbEntity
  8
5
  6
Continuous
 62
     0
370
    -2
100
AcDbBlockReference
  2
_Closed
 10
-1290.056485
 20
1117.622307130017
 30
0.0
 41
12.5
 42
12.5
 43
12.5
 50
180.0
  0
MTEXT
  5
F39
330
D81
100
AcDbEntity
  8
5
  6
Continuous
 62
     0
100
AcDbMText
 10
-1167.306484995565
 20
1130.372307130017
 30
0.0
 40
17.5
 41
0.0
 71
     5
 72
     1
  1
\A1;246
 73
     1
 44
1.0
1001
ACAD
1000
MTEXTBEGIN
1070
    73
1070
     1
1070
    44
1040
1.0
1070
    74
1070
     0
1000
MTEXTEND
  0
POINT
  5
F3A
330
D81
100
AcDbEntity
  8
Defpoints
  6
Continuous
 62
     0
100
AcDbPoint
 10
-1044.55648499113
 20
1082.709536841927
 30
0.0
  0
POINT
  5
F3B
330
D81
100
AcDbEntity
  8
Defpoints
  6
Continuous
 62
     0
100
AcDbPoint
 10
-1290.056485
 20
997.3522704094438
 30
0.0
  0
POINT
  5
F3C
330
D81
100
AcDbEntity
  8
Defpoints
  6
Continuous
 62
     0
100
AcDbPoint
 10
-1290.056485
 20
1117.622307130017
 30
0.0
  0
ENDBLK
  5
D83
330
D81
100
AcDbEntity
  8
0
100
AcDbBlockEnd
  0
BLOCK
  5
D8F
330
D8E
100
AcDbEntity
  8
0
100
AcDbBlockBegin
  2
*D9
 70
     1
 10
0.0
 20
0.0
 30
0.0
  3
*D9
  1

  0
LINE
  5
F22
330
D8E
100
AcDbEntity
  8
5
  6
Continuous
 62
     0
370
    -2
100
AcDbLine
 10
-1025.46381
 20
946.46173
 30
0.0
 11
-985.7807955850619
 21
946.46173
 31
0.0
  0
LINE
  5
F23
330
D8E
100
AcDbEntity
  8
5
  6
Continuous
 62
     0
370
    -2
100
AcDbLine
 10
-1115.066965
 20
861.46173
 30
0.0
 11
-985.7807955850619
 21
861.46173
 31
0.0
  0
LINE
  5
F24
330
D8E
100
AcDbEntity
  8
5
  6
Continuous
 62
     0
370
    -2
100
AcDbLine
 10
-987.0307955850622
 20
933.96173
 30
0.0
 11
-987.0307955850622
 21
873.96173
 31
0.0
  0
INSERT
  5
F25
330
D8E
100
AcDbEntity
  8
5
  6
Continuous
 62
     0
370
    -2
100
AcDbBlockReference
  2
_Closed
 10
-987.0307955850622
 20
946.46173
 30
0.0
 41
12.5
 42
12.5
 43
12.5
 50
90.0
  0
INSERT
  5
F26
330
D8E
100
AcDbEntity
  8
5
  6
Continuous
 62
     0
370
    -2
100
AcDbBlockReference
  2
_Closed
 10
-987.0307955850622
 20
861.46173
 30
0.0
 41
12.5
 42
12.5
 43
12.5
 50
270.0
  0
MTEXT
  5
F27
330
D8E
100
AcDbEntity
  8
5
  6
Continuous
 62
     0
100
AcDbMText
 10
-999.7807955850623
 20
903.9617299999999
 30
0.0
 40
17.5
 41
0.0
 71
     5
 72
     1
  1
\A1;85
 11
0.0000000000000001
 21
1.0
 31
0.0
 73
     1
 44
1.0
1001
ACAD
1000
MTEXTBEGIN
1070
    73
1070
     1
1070
    44
1040
1.0
1070
    74
1070
     0
1000
MTEXTEND
  0
POINT
  5
F28
330
D8E
100
AcDbEntity
  8
Defpoints
  6
Continuous
 62
     0
100
AcDbPoint
 10
-1029.46381
 20
946.46173
 30
0.0
  0
POINT
  5
F29
330
D8E
100
AcDbEntity
  8
Defpoints
  6
Continuous
 62
     0
100
AcDbPoint
 10
-1119.066965
 20
861.46173
 30
0.0
  0
POINT
  5
F2A
330
D8E
100
AcDbEntity
  8
Defpoints
  6
Continuous
 62
     0
100
AcDbPoint
 10
-987.0307955850622
 20
861.46173
 30
0.0
  0
ENDBLK
  5
D90
330
D8E
100
AcDbEntity
  8
0
100
AcDbBlockEnd
  0
BLOCK
  5
EE1
330
EE0
100
AcDbEntity
  8
0
100
AcDbBlockBegin
  2
*D10
 70
     1
 10
0.0
 20
0.0
 30
0.0
  3
*D10
  1

  0
LINE
  5
F10
330
EE0
100
AcDbEntity
  8
5
  6
Continuous
 62
     0
370
    -2
100
AcDbLine
 10
-1115.066965
 20
861.46173
 30
0.0
 11
-985.7807955850619
 21
861.46173
 31
0.0
  0
LINE
  5
F11
330
EE0
100
AcDbEntity
  8
5
  6
Continuous
 62
     0
370
    -2
100
AcDbLine
 10
-1232.056485
 20
735.46173
 30
0.0
 11
-985.7807955850622
 21
735.46173
 31
0.0
  0
LINE
  5
F12
330
EE0
100
AcDbEntity
  8
5
  6
Continuous
 62
     0
370
    -2
100
AcDbLine
 10
-987.0307955850622
 20
848.96173
 30
0.0
 11
-987.0307955850622
 21
747.96173
 31
0.0
  0
INSERT
  5
F13
330
EE0
100
AcDbEntity
  8
5
  6
Continuous
 62
     0
370
    -2
100
AcDbBlockReference
  2
_Closed
 10
-987.0307955850622
 20
861.46173
 30
0.0
 41
12.5
 42
12.5
 43
12.5
 50
90.0
  0
INSERT
  5
F14
330
EE0
100
AcDbEntity
  8
5
  6
Continuous
 62
     0
370
    -2
100
AcDbBlockReference
  2
_Closed
 10
-987.0307955850622
 20
735.46173
 30
0.0
 41
12.5
 42
12.5
 43
12.5
 50
270.0
  0
MTEXT
  5
F15
330
EE0
100
AcDbEntity
  8
5
  6
Continuous
 62
     0
100
AcDbMText
 10
-999.7807955850623
 20
798.4617299999999
 30
0.0
 40
17.5
 41
0.0
 71
     5
 72
     1
  1
\A1;126
 11
0.0000000000000001
 21
1.0
 31
0.0
 73
     1
 44
1.0
1001
ACAD
1000
MTEXTBEGIN
1070
    73
1070
     1
1070
    44
1040
1.0
1070
    74
1070
     0
1000
MTEXTEND
  0
POINT
  5
F16
330
EE0
100
AcDbEntity
  8
Defpoints
  6
Continuous
 62
     0
100
AcDbPoint
 10
-1119.066965
 20
861.46173
 30
0.0
  0
POINT
  5
F17
330
EE0
100
AcDbEntity
  8
Defpoints
  6
Continuous
 62
     0
100
AcDbPoint
 10
-1236.056485
 20
735.46173
 30
0.0
  0
POINT
  5
F18
330
EE0
100
AcDbEntity
  8
Defpoints
  6
Continuous
 62
     0
100
AcDbPoint
 10
-987.0307955850622
 20
735.46173
 30
0.0
  0
ENDBLK
  5
EE2
330
EE0
100
AcDbEntity
  8
0
100
AcDbBlockEnd
  0
ENDSEC
  0
SECTION
  2
ENTITIES
  0
LINE
  5
109
330
74
100
AcDbEntity
  8
1
100
AcDbLine
 10
-1352.556485
 20
439.26173
 30
0.0
 11
-1227.556485
 21
439.26173
 31
0.0
  0
LINE
  5
10A
330
74
100
AcDbEntity
  8
1
  6
CENTER
 62
     2
100
AcDbLine
 10
-1245.861485
 20
482.44252
 30
0.0
 11
-1245.861485
 21
412.99832
 31
0.0
  0
LINE
  5
10B
330
74
100
AcDbEntity
  8
1
  6
CENTER
 62
     2
100
AcDbLine
 10
-1334.251485
 20
482.44252
 30
0.0
 11
-1334.251485
 21
412.99832
 31
0.0
  0
LINE
  5
10C
330
74
100
AcDbEntity
  8
1
  6
CENTER
 62
     2
100
AcDbLine
 10
-1290.056485
 20
-6.60514999999998
 30
0.0
 11
-1290.056485
 21
574.442115
 31
0.0
  0
LINE
  5
10D
330
74
100
AcDbEntity
  8
1
  6
CENTER
 62
     2
100
AcDbLine
 10
-1468.439415
 20
204.26173
 30
0.0
 11
-1119.066965
 21
204.26173
 31
0.0
  0
LINE
  5
10E
330
74
100
AcDbEntity
  8
1
  6
CENTER
 62
     2
100
AcDbLine
 10
-1292.656485
 20
17.0188599999999
 30
0.0
 11
-1292.656485
 21
431.3156799999998
 31
0.0
  0
LINE
  5
10F
330
74
100
AcDbEntity
  8
1
  6
CENTER
 62
     2
100
AcDbLine
 10
-1292.656485
 20
791.1883849999999
 30
0.0
 11
-1292.656485
 21
932.58551
 31
0.0
  0
LINE
  5
110
330
74
100
AcDbEntity
  8
1
100
AcDbLine
 10
-1322.656485
 20
30.26173000000006
 30
0.0
 11
-1262.656485
 21
30.26173000000006
 31
0.0
  0
LINE
  5
111
330
74
100
AcDbEntity
  8
1
100
AcDbLine
 10
-1347.556485
 20
424.26173
 30
0.0
 11
-1232.556485
 21
424.26173
 31
0.0
  0
LINE
  5
112
330
74
100
AcDbEntity
  8
1
100
AcDbLine
 10
-1352.556485
 20
429.2617299999998
 30
0.0
 11
-1352.556485
 21
439.26173
 31
0.0
  0
LINE
  5
113
330
74
100
AcDbEntity
  8
1
100
AcDbLine
 10
-1227.556485
 20
429.2617299999998
 30
0.0
 11
-1227.556485
 21
439.26173
 31
0.0
  0
ARC
  5
114
330
74
100
AcDbEntity
  8
1
100
AcDbCircle
 10
-1347.556485
 20
429.2617299999998
 30
0.0
 40
5.0
100
AcDbArc
 50
180.0
 51
270.0
  0
ARC
  5
115
330
74
100
AcDbEntity
  8
1
100
AcDbCircle
 10
-1232.556485
 20
429.2617299999998
 30
0.0
 40
5.0
100
AcDbArc
 50
270.0
 51
0.0
  0
ARC
  5
116
330
74
100
AcDbEntity
  8
1
100
AcDbCircle
 10
-1255.156485
 20
414.26173
 30
0.0
 40
10.0
100
AcDbArc
 50
90.0
 51
180.0
  0
ARC
  5
117
330
74
100
AcDbEntity
  8
1
100
AcDbCircle
 10
-1330.156485
 20
414.26173
 30
0.0
 40
10.0
100
AcDbArc
 50
0.0
 51
90.0
  0
ARC
  5
118
330
74
100
AcDbEntity
  8
1
100
AcDbCircle
 10
-1232.153785
 20
389.26376
 30
0.0
 40
35.0
100
AcDbArc
 50
90.57683900000048
 51
126.8734169999998
  0
ARC
  5
119
330
74
100
AcDbEntity
  8
1
100
AcDbCircle
 10
-1265.156485
 20
433.2617299999998
 30
0.0
 40
20.0
100
AcDbArc
 50
281.5369590000005
 51
306.8734169999998
  0
ARC
  5
11A
330
74
100
AcDbEntity
  8
1
100
AcDbCircle
 10
-1353.80033
 20
389.752055
 30
0.0
 40
35.0
100
AcDbArc
 50
52.28702199999966
 51
81.01962899999952
  0
ARC
  5
11B
330
74
100
AcDbEntity
  8
1
100
AcDbCircle
 10
-1320.156485
 20
433.2617299999998
 30
0.0
 40
20.0
100
AcDbArc
 50
232.2870219999996
 51
258.4630409999995
  0
ARC
  5
11C
330
74
100
AcDbEntity
  8
1
100
AcDbCircle
 10
-1260.156485
 20
408.766835
 30
0.0
 40
5.0
100
AcDbArc
 50
101.5369590000005
 51
180.0
  0
ARC
  5
11D
330
74
100
AcDbEntity
  8
1
100
AcDbCircle
 10
-1325.156485
 20
408.766835
 30
0.0
 40
5.0
100
AcDbArc
 50
0.0
 51
78.46304099999946
  0
LINE
  5
11E
330
74
100
AcDbEntity
  8
1
100
AcDbLine
 10
-1322.656485
 20
22.26172999999994
 30
0.0
 11
-1322.656485
 21
43.87890500000003
 31
0.0
  0
LINE
  5
11F
330
74
100
AcDbEntity
  8
1
100
AcDbLine
 10
-1262.656485
 20
22.26172999999994
 30
0.0
 11
-1262.656485
 21
43.87890500000003
 31
0.0
  0
LINE
  5
120
330
74
100
AcDbEntity
  8
1
100
AcDbLine
 10
-1265.156485
 20
69.69214
 30
0.0
 11
-1265.156485
 21
71.68722499999995
 31
0.0
  0
LINE
  5
121
330
74
100
AcDbEntity
  8
1
100
AcDbLine
 10
-1320.156485
 20
69.69214
 30
0.0
 11
-1320.156485
 21
71.68722499999995
 31
0.0
  0
ARC
  5
122
330
74
100
AcDbEntity
  8
1
100
AcDbCircle
 10
-1292.656485
 20
204.26173
 30
0.0
 40
131.5
100
AcDbArc
 50
28.09528599999975
 51
61.90471400000026
  0
ARC
  5
123
330
74
100
AcDbEntity
  8
1
100
AcDbCircle
 10
-1292.656485
 20
204.26173
 30
0.0
 40
131.5
100
AcDbArc
 50
343.0952859999995
 51
16.9047140000005
  0
ARC
  5
124
330
74
100
AcDbEntity
  8
1
100
AcDbCircle
 10
-1292.656485
 20
204.26173
 30
0.0
 40
131.5
100
AcDbArc
 50
298.0952859999997
 51
331.9047140000003
  0
ARC
  5
125
330
74
100
AcDbEntity
  8
1
100
AcDbCircle
 10
-1292.656485
 20
204.26173
 30
0.0
 40
131.5
100
AcDbArc
 50
253.0952859999995
 51
286.9047140000004
  0
ARC
  5
126
330
74
100
AcDbEntity
  8
1
100
AcDbCircle
 10
-1292.656485
 20
204.26173
 30
0.0
 40
131.5
100
AcDbArc
 50
208.0952859999997
 51
241.9047140000003
  0
ARC
  5
127
330
74
100
AcDbEntity
  8
1
100
AcDbCircle
 10
-1292.656485
 20
204.26173
 30
0.0
 40
131.5
100
AcDbArc
 50
163.0952859999995
 51
196.9047140000005
  0
ARC
  5
128
330
74
100
AcDbEntity
  8
1
100
AcDbCircle
 10
-1292.656485
 20
204.26173
 30
0.0
 40
131.5
100
AcDbArc
 50
73.0952859999995
 51
106.9047140000005
  0
ARC
  5
129
330
74
100
AcDbEntity
  8
1
100
AcDbCircle
 10
-1292.656485
 20
204.26173
 30
0.0
 40
131.5
100
AcDbArc
 50
118.0952859999997
 51
151.9047140000003
  0
ARC
  5
12A
330
74
100
AcDbEntity
  8
1
100
AcDbCircle
 10
-1346.232165
 20
333.604865
 30
0.0
 40
11.0
100
AcDbArc
 50
271.9705299999998
 51
313.02947
  0
ARC
  5
12B
330
74
100
AcDbEntity
  8
1
100
AcDbCircle
 10
-1239.080805
 20
333.604865
 30
0.0
 40
11.0
100
AcDbArc
 50
226.97053
 51
268.0294700000002
  0
ARC
  5
12C
330
74
100
AcDbEntity
  8
1
100
AcDbCircle
 10
-1163.31335
 20
257.83741
 30
0.0
 40
11.0
100
AcDbArc
 50
112.4999999999999
 51
223.02947
  0
ARC
  5
12D
330
74
100
AcDbEntity
  8
1
100
AcDbCircle
 10
-1163.31335
 20
150.68605
 30
0.0
 40
11.0
100
AcDbArc
 50
136.9705299999999
 51
247.5000000000001
  0
ARC
  5
12E
330
74
100
AcDbEntity
  8
1
100
AcDbCircle
 10
-1239.080805
 20
74.91859499999998
 30
0.0
 40
11.0
100
AcDbArc
 50
91.97052999999987
 51
133.02947
  0
ARC
  5
12F
330
74
100
AcDbEntity
  8
1
100
AcDbCircle
 10
-1346.232165
 20
74.91859499999998
 30
0.0
 40
11.0
100
AcDbArc
 50
46.97052999999996
 51
88.02947000000015
  0
ARC
  5
130
330
74
100
AcDbEntity
  8
1
100
AcDbCircle
 10
-1421.99962
 20
150.68605
 30
0.0
 40
11.0
100
AcDbArc
 50
292.4999999999999
 51
43.02947000000003
  0
ARC
  5
131
330
74
100
AcDbEntity
  8
1
100
AcDbCircle
 10
-1421.99962
 20
257.83741
 30
0.0
 40
11.0
100
AcDbArc
 50
316.97053
 51
67.50000000000007
  0
ARC
  5
132
330
74
100
AcDbEntity
  8
1
100
AcDbCircle
 10
-1260.234415
 20
310.94378
 30
0.0
 40
20.0
100
AcDbArc
 50
46.97052999999996
 51
73.0952859999995
  0
ARC
  5
133
330
74
100
AcDbEntity
  8
1
100
AcDbCircle
 10
-1240.146755
 20
302.623195
 30
0.0
 40
20.0
100
AcDbArc
 50
61.90471400000026
 51
88.02947000000015
  0
ARC
  5
134
330
74
100
AcDbEntity
  8
1
100
AcDbCircle
 10
-1325.07856
 20
310.94378
 30
0.0
 40
20.0
100
AcDbArc
 50
106.9047140000005
 51
133.02947
  0
ARC
  5
135
330
74
100
AcDbEntity
  8
1
100
AcDbCircle
 10
-1345.16622
 20
302.623195
 30
0.0
 40
20.0
100
AcDbArc
 50
91.97052999999987
 51
118.0952859999997
  0
ARC
  5
136
330
74
100
AcDbEntity
  8
1
100
AcDbCircle
 10
-1240.146755
 20
105.900265
 30
0.0
 40
20.0
100
AcDbArc
 50
271.9705299999998
 51
298.0952859999997
  0
ARC
  5
137
330
74
100
AcDbEntity
  8
1
100
AcDbCircle
 10
-1260.234415
 20
97.57968499999998
 30
0.0
 40
20.0
100
AcDbArc
 50
286.9047140000004
 51
313.02947
  0
ARC
  5
138
330
74
100
AcDbEntity
  8
1
100
AcDbCircle
 10
-1325.07856
 20
97.57968499999998
 30
0.0
 40
20.0
100
AcDbArc
 50
226.97053
 51
253.0952859999995
  0
ARC
  5
139
330
74
100
AcDbEntity
  8
1
100
AcDbCircle
 10
-1345.16622
 20
105.900265
 30
0.0
 40
20.0
100
AcDbArc
 50
241.9047140000003
 51
268.0294700000002
  0
ARC
  5
13A
330
74
100
AcDbEntity
  8
1
100
AcDbCircle
 10
-1399.338535
 20
171.83966
 30
0.0
 40
20.0
100
AcDbArc
 50
196.9047140000005
 51
223.02947
  0
ARC
  5
13B
330
74
100
AcDbEntity
  8
1
100
AcDbCircle
 10
-1399.338535
 20
236.683805
 30
0.0
 40
20.0
100
AcDbArc
 50
136.9705299999999
 51
163.0952859999995
  0
ARC
  5
13C
330
74
100
AcDbEntity
  8
1
100
AcDbCircle
 10
-1185.97444
 20
236.683805
 30
0.0
 40
20.0
100
AcDbArc
 50
16.9047140000005
 51
43.02947000000003
  0
ARC
  5
13D
330
74
100
AcDbEntity
  8
1
100
AcDbCircle
 10
-1185.97444
 20
171.83966
 30
0.0
 40
20.0
100
AcDbArc
 50
316.97053
 51
343.0952859999995
  0
ARC
  5
13E
330
74
100
AcDbEntity
  8
1
100
AcDbCircle
 10
-1194.29502
 20
151.7519999999999
 30
0.0
 40
20.0
100
AcDbArc
 50
331.9047140000003
 51
358.0294700000002
  0
ARC
  5
13F
330
74
100
AcDbEntity
  8
1
100
AcDbCircle
 10
-1194.29502
 20
256.77146
 30
0.0
 40
20.0
100
AcDbArc
 50
1.970529999999835
 51
28.09528599999975
  0
ARC
  5
140
330
74
100
AcDbEntity
  8
1
100
AcDbCircle
 10
-1391.017955
 20
256.77146
 30
0.0
 40
20.0
100
AcDbArc
 50
151.9047140000003
 51
178.0294700000002
  0
ARC
  5
141
330
74
100
AcDbEntity
  8
1
100
AcDbCircle
 10
-1391.017955
 20
151.7519999999999
 30
0.0
 40
20.0
100
AcDbArc
 50
181.9705299999998
 51
208.0952859999997
  0
LINE
  5
142
330
74
100
AcDbEntity
  8
1
100
AcDbLine
 10
-1167.52287
 20
268.000085
 30
0.0
 11
-1161.008435
 21
270.698455
 31
0.0
  0
LINE
  5
143
330
74
100
AcDbEntity
  8
1
100
AcDbLine
 10
-1417.790105
 20
140.523375
 30
0.0
 11
-1424.304535
 21
137.8250099999999
 31
0.0
  0
LINE
  5
144
330
74
100
AcDbEntity
  8
1
100
AcDbLine
 10
-1167.52287
 20
140.523375
 30
0.0
 11
-1161.008435
 21
137.8250099999999
 31
0.0
  0
LINE
  5
145
330
74
100
AcDbEntity
  8
1
100
AcDbLine
 10
-1417.790105
 20
268.000085
 30
0.0
 11
-1424.304535
 21
270.698455
 31
0.0
  0
LINE
  5
146
330
74
100
AcDbEntity
  8
1
100
AcDbLine
 10
-1423.156485
 20
281.7617299999999
 30
0.0
 11
-1404.34355
 21
281.7617299999999
 31
0.0
  0
LINE
  5
147
330
74
100
AcDbEntity
  8
1
100
AcDbLine
 10
-1180.969425
 20
281.7617299999999
 30
0.0
 11
-1162.156485
 21
281.7617299999999
 31
0.0
  0
LINE
  5
148
330
74
100
AcDbEntity
  8
1
100
AcDbLine
 10
-1423.156485
 20
126.76173
 30
0.0
 11
-1404.34355
 21
126.76173
 31
0.0
  0
LINE
  5
149
330
74
100
AcDbEntity
  8
1
100
AcDbLine
 10
-1180.969425
 20
126.76173
 30
0.0
 11
-1162.156485
 21
126.76173
 31
0.0
  0
LINE
  5
14A
330
74
100
AcDbEntity
  8
1
100
AcDbLine
 10
-1159.156485
 20
129.7617299999999
 30
0.0
 11
-1159.156485
 21
135.0533699999999
 31
0.0
  0
LINE
  5
14B
330
74
100
AcDbEntity
  8
1
100
AcDbLine
 10
-1159.156485
 20
273.4700899999999
 30
0.0
 11
-1159.156485
 21
278.76173
 31
0.0
  0
LINE
  5
14C
330
74
100
AcDbEntity
  8
1
100
AcDbLine
 10
-1426.156485
 20
129.7617299999999
 30
0.0
 11
-1426.156485
 21
135.0533699999999
 31
0.0
  0
LINE
  5
14D
330
74
100
AcDbEntity
  8
1
100
AcDbLine
 10
-1426.156485
 20
273.4700899999999
 30
0.0
 11
-1426.156485
 21
278.76173
 31
0.0
  0
ARC
  5
14E
330
74
100
AcDbEntity
  8
1
100
AcDbCircle
 10
-1162.156485
 20
278.76173
 30
0.0
 40
3.0
100
AcDbArc
 50
0.0
 51
90.0
  0
ARC
  5
14F
330
74
100
AcDbEntity
  8
1
100
AcDbCircle
 10
-1162.156485
 20
273.4700899999999
 30
0.0
 40
3.0
100
AcDbArc
 50
292.4999999999999
 51
0.0
  0
ARC
  5
150
330
74
100
AcDbEntity
  8
1
100
AcDbCircle
 10
-1162.156485
 20
135.0533699999999
 30
0.0
 40
3.0
100
AcDbArc
 50
0.0
 51
67.50000000000007
  0
ARC
  5
151
330
74
100
AcDbEntity
  8
1
100
AcDbCircle
 10
-1162.156485
 20
129.7617299999999
 30
0.0
 40
3.0
100
AcDbArc
 50
270.0
 51
0.0
  0
ARC
  5
152
330
74
100
AcDbEntity
  8
1
100
AcDbCircle
 10
-1423.156485
 20
129.7617299999999
 30
0.0
 40
3.0
100
AcDbArc
 50
180.0
 51
270.0
  0
ARC
  5
153
330
74
100
AcDbEntity
  8
1
100
AcDbCircle
 10
-1423.156485
 20
135.0533699999999
 30
0.0
 40
3.0
100
AcDbArc
 50
112.4999999999999
 51
180.0
  0
ARC
  5
154
330
74
100
AcDbEntity
  8
1
100
AcDbCircle
 10
-1423.156485
 20
273.4700899999999
 30
0.0
 40
3.0
100
AcDbArc
 50
180.0
 51
247.5000000000001
  0
ARC
  5
155
330
74
100
AcDbEntity
  8
1
100
AcDbCircle
 10
-1423.156485
 20
278.76173
 30
0.0
 40
3.0
100
AcDbArc
 50
90.0
 51
180.0
  0
ARC
  5
156
330
74
100
AcDbEntity
  8
1
100
AcDbCircle
 10
-1180.969425
 20
292.76173
 30
0.0
 40
11.0
100
AcDbArc
 50
218.3930440000001
 51
270.0
  0
ARC
  5
157
330
74
100
AcDbEntity
  8
1
100
AcDbCircle
 10
-1404.34355
 20
292.76173
 30
0.0
 40
11.0
100
AcDbArc
 50
270.0
 51
321.6069559999999
  0
ARC
  5
158
330
74
100
AcDbEntity
  8
1
100
AcDbCircle
 10
-1404.34355
 20
115.76173
 30
0.0
 40
11.0
100
AcDbArc
 50
38.3930440000001
 51
90.0
  0
ARC
  5
159
330
74
100
AcDbEntity
  8
1
100
AcDbCircle
 10
-1180.969425
 20
115.76173
 30
0.0
 40
11.0
100
AcDbArc
 50
90.0
 51
141.6069559999999
  0
ARC
  5
15A
330
74
100
AcDbEntity
  8
1
100
AcDbCircle
 10
-1253.656485
 20
381.764665
 30
0.0
 40
6.0
100
AcDbArc
 50
281.5532139999996
 51
95.37937899999958
  0
ARC
  5
15B
330
74
100
AcDbEntity
  8
1
100
AcDbCircle
 10
-1255.156485
 20
397.6942
 30
0.0
 40
10.0
100
AcDbArc
 50
180.0
 51
275.3793789999996
  0
ARC
  5
15C
330
74
100
AcDbEntity
  8
1
100
AcDbCircle
 10
-1331.656485
 20
381.764665
 30
0.0
 40
6.0
100
AcDbArc
 50
84.62062100000045
 51
258.4467860000004
  0
ARC
  5
15D
330
74
100
AcDbEntity
  8
1
100
AcDbCircle
 10
-1330.156485
 20
397.6942
 30
0.0
 40
10.0
100
AcDbArc
 50
264.6206210000004
 51
0.0
  0
ARC
  5
15E
330
74
100
AcDbEntity
  8
1
100
AcDbCircle
 10
-1249.951345
 20
363.6394899999999
 30
0.0
 40
12.5
100
AcDbArc
 50
101.5532139999996
 51
182.2175109999996
  0
ARC
  5
15F
330
74
100
AcDbEntity
  8
1
100
AcDbCircle
 10
-1255.127725
 20
344.320975
 30
0.0
 40
11.0
100
AcDbArc
 50
162.5373139999998
 51
254.7355599999995
  0
ARC
  5
160
330
74
100
AcDbEntity
  8
1
100
AcDbCircle
 10
-1252.539535
 20
353.980235
 30
0.0
 40
13.5
100
AcDbArc
 50
137.1818610000001
 51
195.223765
  0
LINE
  5
161
330
74
100
AcDbEntity
  8
1
100
AcDbLine
 10
-1265.156485
 20
336.83624
 30
0.0
 11
-1265.156485
 21
338.83132
 31
0.0
  0
LINE
  5
162
330
74
100
AcDbEntity
  8
1
100
AcDbLine
 10
-1265.156485
 20
359.627625
 30
0.0
 11
-1265.156485
 21
414.26173
 31
0.0
  0
ARC
  5
163
330
74
100
AcDbEntity
  8
1
100
AcDbCircle
 10
-1260.156485
 20
336.83624
 30
0.0
 40
5.0
100
AcDbArc
 50
180.0
 51
256.2258529999996
  0
ARC
  5
164
330
74
100
AcDbEntity
  8
1
100
AcDbCircle
 10
-1270.156485
 20
338.83132
 30
0.0
 40
5.0
100
AcDbArc
 50
0.0
 51
20.06607099999995
  0
ARC
  5
165
330
74
100
AcDbEntity
  8
1
100
AcDbCircle
 10
-1270.156485
 20
359.627625
 30
0.0
 40
5.0
100
AcDbArc
 50
342.2259359999998
 51
0.0
  0
ARC
  5
166
330
74
100
AcDbEntity
  8
1
100
AcDbCircle
 10
-1335.36163
 20
363.6394899999999
 30
0.0
 40
12.5
100
AcDbArc
 50
357.7824890000004
 51
78.44678600000041
  0
ARC
  5
167
330
74
100
AcDbEntity
  8
1
100
AcDbCircle
 10
-1332.77344
 20
353.980235
 30
0.0
 40
13.5
100
AcDbArc
 50
344.776235
 51
42.81813899999986
  0
ARC
  5
168
330
74
100
AcDbEntity
  8
1
100
AcDbCircle
 10
-1330.18525
 20
344.320975
 30
0.0
 40
11.0
100
AcDbArc
 50
285.2644400000005
 51
17.4626860000002
  0
LINE
  5
169
330
74
100
AcDbEntity
  8
1
100
AcDbLine
 10
-1320.156485
 20
336.83624
 30
0.0
 11
-1320.156485
 21
338.83132
 31
0.0
  0
LINE
  5
16A
330
74
100
AcDbEntity
  8
1
100
AcDbLine
 10
-1320.156485
 20
359.627625
 30
0.0
 11
-1320.156485
 21
414.26173
 31
0.0
  0
ARC
  5
16B
330
74
100
AcDbEntity
  8
1
100
AcDbCircle
 10
-1325.156485
 20
336.83624
 30
0.0
 40
5.0
100
AcDbArc
 50
283.7741470000004
 51
0.0
  0
ARC
  5
16C
330
74
100
AcDbEntity
  8
1
100
AcDbCircle
 10
-1315.156485
 20
338.83132
 30
0.0
 40
5.0
100
AcDbArc
 50
159.933929
 51
180.0
  0
ARC
  5
16D
330
74
100
AcDbEntity
  8
1
100
AcDbCircle
 10
-1315.156485
 20
359.627625
 30
0.0
 40
5.0
100
AcDbArc
 50
180.0
 51
197.7740640000002
  0
ARC
  5
16E
330
74
100
AcDbEntity
  8
1
100
AcDbCircle
 10
-1270.390325
 20
349.12233
 30
0.0
 40
5.0
100
AcDbArc
 50
342.5373139999998
 51
15.22376499999999
  0
ARC
  5
16F
330
74
100
AcDbEntity
  8
1
100
AcDbCircle
 10
-1314.922645
 20
349.12233
 30
0.0
 40
5.0
100
AcDbArc
 50
164.776235
 51
197.4626860000002
  0
ARC
  5
170
330
74
100
AcDbEntity
  8
1
100
AcDbCircle
 10
-1252.539535
 20
54.54322999999998
 30
0.0
 40
13.5
100
AcDbArc
 50
164.776235
 51
215.2012280000003
  0
ARC
  5
171
330
74
100
AcDbEntity
  8
1
100
AcDbCircle
 10
-1255.127725
 20
64.20248500000003
 30
0.0
 40
11.0
100
AcDbArc
 50
105.2644400000005
 51
197.4626860000002
  0
ARC
  5
172
330
74
100
AcDbEntity
  8
1
100
AcDbCircle
 10
-1332.77344
 20
54.54322999999998
 30
0.0
 40
13.5
100
AcDbArc
 50
324.7987719999997
 51
15.22376499999999
  0
ARC
  5
173
330
74
100
AcDbEntity
  8
1
100
AcDbCircle
 10
-1330.18525
 20
64.20248500000003
 30
0.0
 40
11.0
100
AcDbArc
 50
342.5373139999998
 51
74.73555999999951
  0
ARC
  5
174
330
74
100
AcDbEntity
  8
1
100
AcDbCircle
 10
-1260.156485
 20
71.68722499999995
 30
0.0
 40
5.0
100
AcDbArc
 50
103.7741470000004
 51
180.0
  0
ARC
  5
175
330
74
100
AcDbEntity
  8
1
100
AcDbCircle
 10
-1325.156485
 20
71.68722499999995
 30
0.0
 40
5.0
100
AcDbArc
 50
0.0
 51
76.22585299999953
  0
ARC
  5
176
330
74
100
AcDbEntity
  8
1
100
AcDbCircle
 10
-1315.156485
 20
69.69214
 30
0.0
 40
5.0
100
AcDbArc
 50
180.0
 51
200.066071
  0
ARC
  5
177
330
74
100
AcDbEntity
  8
1
100
AcDbCircle
 10
-1270.156485
 20
69.69214
 30
0.0
 40
5.0
100
AcDbArc
 50
339.9339290000001
 51
0.0
  0
ARC
  5
178
330
74
100
AcDbEntity
  8
1
100
AcDbCircle
 10
-1270.390325
 20
59.40112999999996
 30
0.0
 40
5.0
100
AcDbArc
 50
344.776235
 51
17.4626860000002
  0
ARC
  5
179
330
74
100
AcDbEntity
  8
1
100
AcDbCircle
 10
-1314.922645
 20
59.40112999999996
 30
0.0
 40
5.0
100
AcDbArc
 50
162.5373139999998
 51
195.223765
  0
ARC
  5
17A
330
74
100
AcDbEntity
  8
1
100
AcDbCircle
 10
-1267.656485
 20
43.87890500000003
 30
0.0
 40
5.0
100
AcDbArc
 50
0.0
 51
35.20122800000029
  0
ARC
  5
17B
330
74
100
AcDbEntity
  8
1
100
AcDbCircle
 10
-1317.656485
 20
43.87890500000003
 30
0.0
 40
5.0
100
AcDbArc
 50
144.7987719999997
 51
180.0
  0
ARC
  5
17C
330
74
100
AcDbEntity
  8
1
100
AcDbCircle
 10
-1260.656485
 20
324.061835
 30
0.0
 40
10.0
100
AcDbArc
 50
30.96206900000078
 51
74.73555999999951
  0
ARC
  5
17D
330
74
100
AcDbEntity
  8
1
100
AcDbCircle
 10
-1324.656485
 20
324.061835
 30
0.0
 40
10.0
100
AcDbArc
 50
105.2644400000005
 51
149.0379309999992
  0
ARC
  5
17E
330
74
100
AcDbEntity
  8
1
100
AcDbCircle
 10
-1260.656485
 20
84.46162500000003
 30
0.0
 40
10.0
100
AcDbArc
 50
285.2644400000005
 51
329.0379309999992
  0
ARC
  5
17F
330
74
100
AcDbEntity
  8
1
100
AcDbCircle
 10
-1324.656485
 20
84.46162500000003
 30
0.0
 40
10.0
100
AcDbArc
 50
210.9620690000008
 51
254.7355599999995
  0
CIRCLE
  5
180
330
74
100
AcDbEntity
  8
1
100
AcDbCircle
 10
-1292.656485
 20
204.26173
 30
0.0
 40
106.5
  0
LINE
  5
181
330
74
100
AcDbEntity
  8
1
  6
DASHED
100
AcDbLine
 10
-1320.156485
 20
923.96173
 30
0.0
 11
-1259.956485
 21
923.96173
 31
0.0
  0
LINE
  5
182
330
74
100
AcDbEntity
  8
1
  6
DASHED
100
AcDbLine
 10
-1320.156485
 20
798.9617299999999
 30
0.0
 11
-1259.956485
 21
798.9617299999999
 31
0.0
  0
LINE
  5
183
330
74
100
AcDbEntity
  8
1
  6
DASHED
100
AcDbLine
 10
-1352.556485
 20
831.36173
 30
0.0
 11
-1352.556485
 21
891.5617299999999
 31
0.0
  0
LINE
  5
184
330
74
100
AcDbEntity
  8
1
  6
DASHED
100
AcDbLine
 10
-1227.556485
 20
831.36173
 30
0.0
 11
-1227.556485
 21
891.5617299999999
 31
0.0
  0
ARC
  5
185
330
74
100
AcDbEntity
  8
1
  6
DASHED
100
AcDbCircle
 10
-1320.156485
 20
891.5617299999999
 30
0.0
 40
32.40000000000001
100
AcDbArc
 50
90.0
 51
180.0
  0
ARC
  5
186
330
74
100
AcDbEntity
  8
1
  6
DASHED
100
AcDbCircle
 10
-1259.956485
 20
891.5617299999999
 30
0.0
 40
32.40000000000001
100
AcDbArc
 50
0.0
 51
90.0
  0
ARC
  5
187
330
74
100
AcDbEntity
  8
1
  6
DASHED
100
AcDbCircle
 10
-1259.956485
 20
831.36173
 30
0.0
 40
32.40000000000001
100
AcDbArc
 50
270.0
 51
0.0
  0
ARC
  5
188
330
74
100
AcDbEntity
  8
1
  6
DASHED
100
AcDbCircle
 10
-1320.156485
 20
831.36173
 30
0.0
 40
32.40000000000001
100
AcDbArc
 50
180.0
 51
270.0
  0
LINE
  5
189
330
74
100
AcDbEntity
  8
1
  6
CENTER
 62
     2
100
AcDbLine
 10
-1245.861485
 20
892.387425
 30
0.0
 11
-1245.861485
 21
919.3461349999999
 31
0.0
  0
LINE
  5
18A
330
74
100
AcDbEntity
  8
1
  6
CENTER
 62
     2
100
AcDbLine
 10
-1259.149705
 20
905.6567300000001
 30
0.0
 11
-1232.567015
 21
905.6567300000001
 31
0.0
  0
CIRCLE
  5
18B
330
74
100
AcDbEntity
  8
1
  6
DASHED
100
AcDbCircle
 10
-1245.861485
 20
905.6567300000001
 30
0.0
 40
6.5
  0
LINE
  5
18C
330
74
100
AcDbEntity
  8
1
  6
CENTER
 62
     2
100
AcDbLine
 10
-1334.251485
 20
892.387425
 30
0.0
 11
-1334.251485
 21
919.3461349999999
 31
0.0
  0
LINE
  5
18D
330
74
100
AcDbEntity
  8
1
  6
CENTER
 62
     2
100
AcDbLine
 10
-1320.96327
 20
905.6567300000001
 30
0.0
 11
-1347.545955
 21
905.6567300000001
 31
0.0
  0
CIRCLE
  5
18E
330
74
100
AcDbEntity
  8
1
  6
DASHED
100
AcDbCircle
 10
-1334.251485
 20
905.6567300000001
 30
0.0
 40
6.5
  0
LINE
  5
18F
330
74
100
AcDbEntity
  8
1
  6
CENTER
 62
     2
100
AcDbLine
 10
-1245.861485
 20
830.5360399999997
 30
0.0
 11
-1245.861485
 21
803.5773299999997
 31
0.0
  0
LINE
  5
190
330
74
100
AcDbEntity
  8
1
  6
CENTER
 62
     2
100
AcDbLine
 10
-1259.149705
 20
817.2667299999998
 30
0.0
 11
-1232.567015
 21
817.2667299999998
 31
0.0
  0
CIRCLE
  5
191
330
74
100
AcDbEntity
  8
1
  6
DASHED
100
AcDbCircle
 10
-1245.861485
 20
817.2667299999998
 30
0.0
 40
6.5
  0
LINE
  5
192
330
74
100
AcDbEntity
  8
1
  6
CENTER
 62
     2
100
AcDbLine
 10
-1334.251485
 20
830.5360399999997
 30
0.0
 11
-1334.251485
 21
803.5773299999997
 31
0.0
  0
LINE
  5
193
330
74
100
AcDbEntity
  8
1
  6
CENTER
 62
     2
100
AcDbLine
 10
-1320.96327
 20
817.2667299999998
 30
0.0
 11
-1347.545955
 21
817.2667299999998
 31
0.0
  0
CIRCLE
  5
194
330
74
100
AcDbEntity
  8
1
  6
DASHED
100
AcDbCircle
 10
-1334.251485
 20
817.2667299999998
 30
0.0
 40
6.5
  0
LINE
  5
195
330
74
100
AcDbEntity
  8
1
100
AcDbLine
 10
-1423.775705
 20
850.4617299999999
 30
0.0
 11
-1423.775705
 21
875.4617299999999
 31
0.0
  0
LINE
  5
196
330
74
100
AcDbEntity
  8
1
100
AcDbLine
 10
-1406.84914
 20
861.6248049999997
 30
0.0
 11
-1406.84914
 21
864.2986599999996
 31
0.0
  0
LINE
  5
197
330
74
100
AcDbEntity
  8
1
100
AcDbLine
 10
-1420.264005
 20
874.36681
 30
0.0
 11
-1412.46787
 21
871.936035
 31
0.0
  0
LINE
  5
198
330
74
100
AcDbEntity
  8
1
100
AcDbLine
 10
-1412.46787
 20
853.987425
 30
0.0
 11
-1420.264005
 21
851.55665
 31
0.0
  0
ARC
  5
199
330
74
100
AcDbEntity
  8
1
100
AcDbCircle
 10
-1414.84914
 20
864.2986599999996
 30
0.0
 40
8.0
100
AcDbArc
 50
0.0
 51
72.6829370000004
  0
ARC
  5
19A
330
74
100
AcDbEntity
  8
1
100
AcDbCircle
 10
-1414.84914
 20
861.6248049999997
 30
0.0
 40
8.0
100
AcDbArc
 50
287.3170629999996
 51
0.0
  0
ARC
  5
19B
330
74
100
AcDbEntity
  8
1
100
AcDbCircle
 10
-1418.775705
 20
879.1401699999999
 30
0.0
 40
5.0
100
AcDbArc
 50
180.0
 51
252.6829370000004
  0
ARC
  5
19C
330
74
100
AcDbEntity
  8
1
100
AcDbCircle
 10
-1418.775705
 20
846.7832899999999
 30
0.0
 40
5.0
100
AcDbArc
 50
107.3170629999996
 51
180.0
  0
ARC
  5
19D
330
74
100
AcDbEntity
  8
1
100
AcDbCircle
 10
-1411.836945
 20
838.583625
 30
0.0
 40
12.78803
100
AcDbArc
 50
90.0
 51
111.7444369999996
  0
ARC
  5
19E
330
74
100
AcDbEntity
  8
1
100
AcDbCircle
 10
-1411.836945
 20
849.66526
 30
0.0
 40
1.706395
100
AcDbArc
 50
27.82388199999949
 51
90.0
  0
LINE
  5
19F
330
74
100
AcDbEntity
  8
1
100
AcDbLine
 10
-1420.264005
 20
850.4617299999999
 30
0.0
 11
-1416.574495
 21
850.4617299999999
 31
0.0
  0
ARC
  5
1A0
330
74
100
AcDbEntity
  8
1
100
AcDbCircle
 10
-1411.836945
 20
876.2582
 30
0.0
 40
1.706395
100
AcDbArc
 50
270.0
 51
332.1761180000005
  0
ARC
  5
1A1
330
74
100
AcDbEntity
  8
1
100
AcDbCircle
 10
-1411.836945
 20
887.339835
 30
0.0
 40
12.78803
100
AcDbArc
 50
248.2555630000004
 51
270.0
  0
LINE
  5
1A2
330
74
100
AcDbEntity
  8
1
100
AcDbLine
 10
-1420.264005
 20
875.4617299999999
 30
0.0
 11
-1416.574495
 21
875.4617299999999
 31
0.0
  0
LINE
  5
1A3
330
74
100
AcDbEntity
  8
1
100
AcDbLine
 10
-1416.574495
 20
835.4617299999999
 30
0.0
 11
-1416.574495
 21
850.4617299999999
 31
0.0
  0
LINE
  5
1A4
330
74
100
AcDbEntity
  8
1
100
AcDbLine
 10
-1410.327835
 20
835.4617299999999
 30
0.0
 11
-1410.327835
 21
850.4617299999999
 31
0.0
  0
LINE
  5
1A5
330
74
100
AcDbEntity
  8
1
100
AcDbLine
 10
-1410.327835
 20
889.4617300000001
 30
0.0
 11
-1410.327835
 21
897.4617300000002
 31
0.0
  0
LINE
  5
1A6
330
74
100
AcDbEntity
  8
1
100
AcDbLine
 10
-1416.574495
 20
875.4617299999999
 30
0.0
 11
-1416.574495
 21
878.4635099999999
 31
0.0
  0
LINE
  5
1A7
330
74
100
AcDbEntity
  8
1
100
AcDbLine
 10
-1416.574495
 20
889.4617300000001
 30
0.0
 11
-1416.574495
 21
897.4617300000002
 31
0.0
  0
LINE
  5
1A8
330
74
100
AcDbEntity
  8
1
100
AcDbLine
 10
-1424.156485
 20
835.4617299999999
 30
0.0
 11
-1424.156485
 21
881.2610699999998
 31
0.0
  0
LINE
  5
1A9
330
74
100
AcDbEntity
  8
1
100
AcDbLine
 10
-1424.156485
 20
889.4617300000001
 30
0.0
 11
-1424.156485
 21
897.4617300000002
 31
0.0
  0
LINE
  5
1AA
330
74
100
AcDbEntity
  8
1
100
AcDbLine
 10
-1426.156485
 20
883.3928699999999
 30
0.0
 11
-1426.156485
 21
887.46173
 31
0.0
  0
LINE
  5
1AB
330
74
100
AcDbEntity
  8
1
100
AcDbLine
 10
-1424.156485
 20
889.4617300000001
 30
0.0
 11
-1401.892075
 21
889.4617300000001
 31
0.0
  0
LINE
  5
1AC
330
74
100
AcDbEntity
  8
1
100
AcDbLine
 10
-1398.892075
 20
875.4617299999999
 30
0.0
 11
-1398.892075
 21
889.4617300000001
 31
0.0
  0
ARC
  5
1AD
330
74
100
AcDbEntity
  8
1
100
AcDbCircle
 10
-1401.892075
 20
892.4617299999999
 30
0.0
 40
3.0
100
AcDbArc
 50
270.0
 51
0.0
  0
ARC
  5
1AE
330
74
100
AcDbEntity
  8
1
100
AcDbCircle
 10
-1424.156485
 20
887.46173
 30
0.0
 40
2.0
100
AcDbArc
 50
90.0
 51
180.0
  0
LINE
  5
1AF
330
74
100
AcDbEntity
  8
1
100
AcDbLine
 10
-1398.892075
 20
875.4617299999999
 30
0.0
 11
-1424.71459
 21
882.9656600000001
 31
0.0
  0
ARC
  5
1B0
330
74
100
AcDbEntity
  8
1
100
AcDbCircle
 10
-1424.156485
 20
884.8862099999999
 30
0.0
 40
2.0
100
AcDbArc
 50
180.0
 51
253.7963299999999
  0
ARC
  5
1B1
330
74
100
AcDbEntity
  8
1
100
AcDbCircle
 10
-1411.327835
 20
875.4617299999999
 30
0.0
 40
1.0
100
AcDbArc
 50
0.0
 51
69.74725300000027
  0
LINE
  5
1B2
330
74
100
AcDbEntity
  8
1
100
AcDbLine
 10
-1410.98167
 20
876.399905
 30
0.0
 11
-1424.84881
 21
881.5165199999999
 31
0.0
  0
ARC
  5
1B3
330
74
100
AcDbEntity
  8
1
100
AcDbCircle
 10
-1424.156485
 20
883.3928699999999
 30
0.0
 40
2.0
100
AcDbArc
 50
180.0
 51
249.7472530000003
  0
LINE
  5
1B4
330
74
100
AcDbEntity
  8
1
100
AcDbLine
 10
-1161.537265
 20
850.4617299999999
 30
0.0
 11
-1161.537265
 21
875.4617299999999
 31
0.0
  0
LINE
  5
1B5
330
74
100
AcDbEntity
  8
1
100
AcDbLine
 10
-1178.46383
 20
861.6248049999997
 30
0.0
 11
-1178.46383
 21
864.2986599999996
 31
0.0
  0
LINE
  5
1B6
330
74
100
AcDbEntity
  8
1
100
AcDbLine
 10
-1165.048969999999
 20
874.36681
 30
0.0
 11
-1172.845105
 21
871.936035
 31
0.0
  0
LINE
  5
1B7
330
74
100
AcDbEntity
  8
1
100
AcDbLine
 10
-1172.845105
 20
853.987425
 30
0.0
 11
-1165.048969999999
 21
851.55665
 31
0.0
  0
ARC
  5
1B8
330
74
100
AcDbEntity
  8
1
100
AcDbCircle
 10
-1170.46383
 20
864.2986599999996
 30
0.0
 40
8.0
100
AcDbArc
 50
107.3170629999996
 51
180.0
  0
ARC
  5
1B9
330
74
100
AcDbEntity
  8
1
100
AcDbCircle
 10
-1170.46383
 20
861.6248049999997
 30
0.0
 40
8.0
100
AcDbArc
 50
180.0
 51
252.6829370000004
  0
ARC
  5
1BA
330
74
100
AcDbEntity
  8
1
100
AcDbCircle
 10
-1166.537265
 20
879.1401699999999
 30
0.0
 40
5.0
100
AcDbArc
 50
287.3170629999996
 51
0.0
  0
ARC
  5
1BB
330
74
100
AcDbEntity
  8
1
100
AcDbCircle
 10
-1166.537265
 20
846.7832899999999
 30
0.0
 40
5.0
100
AcDbArc
 50
0.0
 51
72.6829370000004
  0
ARC
  5
1BC
330
74
100
AcDbEntity
  8
1
100
AcDbCircle
 10
-1173.476025
 20
838.583625
 30
0.0
 40
12.78803
100
AcDbArc
 50
68.25556300000037
 51
90.0
  0
ARC
  5
1BD
330
74
100
AcDbEntity
  8
1
100
AcDbCircle
 10
-1173.476025
 20
849.66526
 30
0.0
 40
1.706395
100
AcDbArc
 50
90.0
 51
152.1761180000004
  0
LINE
  5
1BE
330
74
100
AcDbEntity
  8
1
100
AcDbLine
 10
-1165.048969999999
 20
850.4617299999999
 30
0.0
 11
-1168.73848
 21
850.4617299999999
 31
0.0
  0
ARC
  5
1BF
330
74
100
AcDbEntity
  8
1
100
AcDbCircle
 10
-1173.476025
 20
876.2582
 30
0.0
 40
1.706395
100
AcDbArc
 50
207.8238819999995
 51
270.0
  0
ARC
  5
1C0
330
74
100
AcDbEntity
  8
1
100
AcDbCircle
 10
-1173.476025
 20
887.339835
 30
0.0
 40
12.78803
100
AcDbArc
 50
270.0
 51
291.7444369999996
  0
LINE
  5
1C1
330
74
100
AcDbEntity
  8
1
100
AcDbLine
 10
-1165.048969999999
 20
875.4617299999999
 30
0.0
 11
-1168.73848
 21
875.4617299999999
 31
0.0
  0
LINE
  5
1C2
330
74
100
AcDbEntity
  8
1
100
AcDbLine
 10
-1168.73848
 20
835.4617299999999
 30
0.0
 11
-1168.73848
 21
850.4617299999999
 31
0.0
  0
LINE
  5
1C3
330
74
100
AcDbEntity
  8
1
100
AcDbLine
 10
-1174.98514
 20
835.4617299999999
 30
0.0
 11
-1174.98514
 21
850.4617299999999
 31
0.0
  0
LINE
  5
1C4
330
74
100
AcDbEntity
  8
1
100
AcDbLine
 10
-1174.98514
 20
889.4617300000001
 30
0.0
 11
-1174.98514
 21
897.4617300000002
 31
0.0
  0
LINE
  5
1C5
330
74
100
AcDbEntity
  8
1
100
AcDbLine
 10
-1168.73848
 20
875.4617299999999
 30
0.0
 11
-1168.73848
 21
878.4635099999999
 31
0.0
  0
LINE
  5
1C6
330
74
100
AcDbEntity
  8
1
100
AcDbLine
 10
-1168.73848
 20
889.4617300000001
 30
0.0
 11
-1168.73848
 21
897.4617300000002
 31
0.0
  0
LINE
  5
1C7
330
74
100
AcDbEntity
  8
1
100
AcDbLine
 10
-1161.156485
 20
835.4617299999999
 30
0.0
 11
-1161.156485
 21
881.2610699999998
 31
0.0
  0
LINE
  5
1C8
330
74
100
AcDbEntity
  8
1
100
AcDbLine
 10
-1161.156485
 20
889.4617300000001
 30
0.0
 11
-1161.156485
 21
897.4617300000002
 31
0.0
  0
LINE
  5
1C9
330
74
100
AcDbEntity
  8
1
100
AcDbLine
 10
-1159.156485
 20
883.3928699999999
 30
0.0
 11
-1159.156485
 21
887.46173
 31
0.0
  0
LINE
  5
1CA
330
74
100
AcDbEntity
  8
1
100
AcDbLine
 10
-1161.156485
 20
889.4617300000001
 30
0.0
 11
-1183.4209
 21
889.4617300000001
 31
0.0
  0
LINE
  5
1CB
330
74
100
AcDbEntity
  8
1
100
AcDbLine
 10
-1186.4209
 20
875.4617299999999
 30
0.0
 11
-1186.4209
 21
889.4617300000001
 31
0.0
  0
ARC
  5
1CC
330
74
100
AcDbEntity
  8
1
100
AcDbCircle
 10
-1183.4209
 20
892.4617299999999
 30
0.0
 40
3.0
100
AcDbArc
 50
180.0
 51
270.0
  0
ARC
  5
1CD
330
74
100
AcDbEntity
  8
1
100
AcDbCircle
 10
-1161.156485
 20
887.46173
 30
0.0
 40
2.0
100
AcDbArc
 50
0.0
 51
90.0
  0
LINE
  5
1CE
330
74
100
AcDbEntity
  8
1
100
AcDbLine
 10
-1186.4209
 20
875.4617299999999
 30
0.0
 11
-1160.59838
 21
882.9656600000001
 31
0.0
  0
ARC
  5
1CF
330
74
100
AcDbEntity
  8
1
100
AcDbCircle
 10
-1161.156485
 20
884.8862099999999
 30
0.0
 40
2.0
100
AcDbArc
 50
286.2036700000002
 51
0.0
  0
ARC
  5
1D0
330
74
100
AcDbEntity
  8
1
100
AcDbCircle
 10
-1173.98514
 20
875.4617299999999
 30
0.0
 40
1.0
100
AcDbArc
 50
110.2527469999997
 51
180.0
  0
LINE
  5
1D1
330
74
100
AcDbEntity
  8
1
100
AcDbLine
 10
-1174.3313
 20
876.399905
 30
0.0
 11
-1160.46416
 21
881.5165199999999
 31
0.0
  0
ARC
  5
1D2
330
74
100
AcDbEntity
  8
1
100
AcDbCircle
 10
-1161.156485
 20
883.3928699999999
 30
0.0
 40
2.0
100
AcDbArc
 50
290.2527469999997
 51
0.0
  0
LINE
  5
1D3
330
74
100
AcDbEntity
  8
1
100
AcDbLine
 10
-1276.239175
 20
396.454625
 30
0.0
 11
-1309.073795
 21
396.454625
 31
0.0
  0
LINE
  5
1D4
330
74
100
AcDbEntity
  8
1
100
AcDbLine
 10
-1294.056485
 20
404.0206299999998
 30
0.0
 11
-1294.056485
 21
420.26173
 31
0.0
  0
LINE
  5
1D5
330
74
100
AcDbEntity
  8
1
100
AcDbLine
 10
-1286.056485
 20
404.0206299999998
 30
0.0
 11
-1286.056485
 21
420.26173
 31
0.0
  0
ARC
  5
1D6
330
74
100
AcDbEntity
  8
1
100
AcDbCircle
 10
-1282.056485
 20
420.26173
 30
0.0
 40
4.0
100
AcDbArc
 50
90.0
 51
180.0
  0
ARC
  5
1D7
330
74
100
AcDbEntity
  8
1
100
AcDbCircle
 10
-1298.056485
 20
420.26173
 30
0.0
 40
4.0
100
AcDbArc
 50
0.0
 51
90.0
  0
ARC
  5
1D8
330
74
100
AcDbEntity
  8
1
100
AcDbCircle
 10
-1282.056485
 20
404.0206299999998
 30
0.0
 40
4.0
100
AcDbArc
 50
180.0
 51
270.0
  0
ARC
  5
1D9
330
74
100
AcDbEntity
  8
1
100
AcDbCircle
 10
-1298.056485
 20
404.0206299999998
 30
0.0
 40
4.0
100
AcDbArc
 50
270.0
 51
0.0
  0
LINE
  5
1DA
330
74
100
AcDbEntity
  8
1
100
AcDbLine
 10
-1282.056485
 20
400.02063
 30
0.0
 11
-1276.239175
 21
400.02063
 31
0.0
  0
LINE
  5
1DB
330
74
100
AcDbEntity
  8
1
100
AcDbLine
 10
-1309.073795
 20
400.02063
 30
0.0
 11
-1298.056485
 21
400.02063
 31
0.0
  0
LINE
  5
1DC
330
74
100
AcDbEntity
  8
1
100
AcDbLine
 10
-1294.056485
 20
400.02063
 30
0.0
 11
-1286.056485
 21
400.02063
 31
0.0
  0
LINE
  5
1DD
330
74
100
AcDbEntity
  8
1
  6
CENTER
 62
     2
100
AcDbLine
 10
-1468.439415
 20
861.46173
 30
0.0
 11
-1119.066965
 21
861.46173
 31
0.0
  0
ARC
  5
1DE
330
74
100
AcDbEntity
  8
1
100
AcDbCircle
 10
-1309.073795
 20
396.454625
 30
0.0
 40
3.566004999999998
100
AcDbArc
 50
90.0
 51
180.0
  0
ARC
  5
1DF
330
74
100
AcDbEntity
  8
1
100
AcDbCircle
 10
-1276.239175
 20
396.454625
 30
0.0
 40
3.566004999999998
100
AcDbArc
 50
0.0
 51
90.0
  0
LINE
  5
1E0
330
74
100
AcDbEntity
  8
1
100
AcDbLine
 10
-1272.67317
 20
396.454625
 30
0.0
 11
-1272.67317
 21
338.455935
 31
0.0
  0
LINE
  5
1E1
330
74
100
AcDbEntity
  8
1
100
AcDbLine
 10
-1312.6398
 20
396.454625
 30
0.0
 11
-1312.6398
 21
338.455935
 31
0.0
  0
ARC
  5
1E2
330
74
100
AcDbEntity
  8
1
100
AcDbCircle
 10
-1267.67317
 20
338.455935
 30
0.0
 40
5.0
100
AcDbArc
 50
180.0
 51
259.4538210000004
  0
ARC
  5
1E3
330
74
100
AcDbEntity
  8
1
100
AcDbCircle
 10
-1317.6398
 20
338.455935
 30
0.0
 40
5.0
100
AcDbArc
 50
280.5461789999997
 51
0.0
  0
LINE
  5
1E4
330
74
100
AcDbEntity
  8
1
100
AcDbLine
 10
-1320.34944
 20
49.26173
 30
0.0
 11
-1264.963535
 21
49.26173
 31
0.0
  0
LINE
  5
1E5
330
74
100
AcDbEntity
  8
1
100
AcDbLine
 10
-1264.963535
 20
46.26172999999993
 30
0.0
 11
-1320.34944
 21
46.26172999999993
 31
0.0
  0
LINE
  5
1E6
330
74
100
AcDbEntity
  8
1
  6
CENTER
 62
     2
100
AcDbLine
 10
-1313.656485
 20
7.923260000000027
 30
0.0
 11
-1313.656485
 21
39.67719499999999
 31
0.0
  0
LINE
  5
1E7
330
74
100
AcDbEntity
  8
1
  6
CENTER
 62
     2
100
AcDbLine
 10
-1271.656485
 20
7.923260000000027
 30
0.0
 11
-1271.656485
 21
39.67719499999999
 31
0.0
  0
LINE
  5
1E8
330
74
100
AcDbEntity
  8
1
100
AcDbLine
 10
-1322.656485
 20
28.26172999999995
 30
0.0
 11
-1262.656485
 21
28.26172999999995
 31
0.0
  0
LINE
  5
1E9
330
74
100
AcDbEntity
  8
1
100
AcDbLine
 10
-1322.656485
 20
22.26172999999994
 30
0.0
 11
-1262.656485
 21
22.26172999999994
 31
0.0
  0
LINE
  5
1EA
330
74
100
AcDbEntity
  8
1
100
AcDbLine
 10
-1264.156485
 20
20.26173000000006
 30
0.0
 11
-1264.156485
 21
15.48342000000002
 31
0.0
  0
LINE
  5
1EB
330
74
100
AcDbEntity
  8
1
100
AcDbLine
 10
-1264.156485
 20
15.48342000000002
 30
0.0
 11
-1265.406485
 21
14.76172999999994
 31
0.0
  0
LINE
  5
1EC
330
74
100
AcDbEntity
  8
1
100
AcDbLine
 10
-1267.906485
 20
20.26173000000006
 30
0.0
 11
-1267.906485
 21
15.48342000000002
 31
0.0
  0
ARC
  5
1ED
330
74
100
AcDbEntity
  8
1
100
AcDbCircle
 10
-1266.031485
 20
17.89379500000007
 30
0.0
 40
3.053774999999999
100
AcDbArc
 50
232.121121
 51
307.878879
  0
ARC
  5
1EE
330
74
100
AcDbEntity
  8
1
100
AcDbCircle
 10
-1271.656485
 20
26.0900200000001
 30
0.0
 40
11.25
100
AcDbArc
 50
250.5287769999997
 51
289.4712189999999
  0
LINE
  5
1EF
330
74
100
AcDbEntity
  8
1
100
AcDbLine
 10
-1279.156485
 20
20.26173000000006
 30
0.0
 11
-1279.156485
 21
15.48342000000002
 31
0.0
  0
LINE
  5
1F0
330
74
100
AcDbEntity
  8
1
100
AcDbLine
 10
-1279.156485
 20
15.48342000000002
 30
0.0
 11
-1277.906485
 21
14.76172999999994
 31
0.0
  0
LINE
  5
1F1
330
74
100
AcDbEntity
  8
1
100
AcDbLine
 10
-1277.906485
 20
14.76172999999994
 30
0.0
 11
-1265.406485
 21
14.76172999999994
 31
0.0
  0
LINE
  5
1F2
330
74
100
AcDbEntity
  8
1
100
AcDbLine
 10
-1275.406485
 20
20.26173000000006
 30
0.0
 11
-1275.406485
 21
15.48342000000002
 31
0.0
  0
ARC
  5
1F3
330
74
100
AcDbEntity
  8
1
100
AcDbCircle
 10
-1277.281485
 20
17.89379500000007
 30
0.0
 40
3.053774999999999
100
AcDbArc
 50
232.121121
 51
307.878879
  0
LINE
  5
1F4
330
74
100
AcDbEntity
  8
1
100
AcDbLine
 10
-1263.956485
 20
22.26172999999994
 30
0.0
 11
-1263.956485
 21
20.26173000000006
 31
0.0
  0
LINE
  5
1F5
330
74
100
AcDbEntity
  8
1
100
AcDbLine
 10
-1263.956485
 20
20.26173000000006
 30
0.0
 11
-1279.356485
 21
20.26173000000006
 31
0.0
  0
LINE
  5
1F6
330
74
100
AcDbEntity
  8
1
100
AcDbLine
 10
-1279.356485
 20
20.26173000000006
 30
0.0
 11
-1279.356485
 21
22.26172999999994
 31
0.0
  0
LINE
  5
1F7
330
74
100
AcDbEntity
  8
1
100
AcDbLine
 10
-1271.656485
 20
20.26173000000006
 30
0.0
 11
-1272.156485
 21
22.26172999999994
 31
0.0
  0
LINE
  5
1F8
330
74
100
AcDbEntity
  8
1
100
AcDbLine
 10
-1271.656485
 20
22.26172999999994
 30
0.0
 11
-1271.156485
 21
20.26173000000006
 31
0.0
  0
LINE
  5
1F9
330
74
100
AcDbEntity
  8
1
100
AcDbLine
 10
-1306.156485
 20
20.26173000000006
 30
0.0
 11
-1306.156485
 21
15.48342000000002
 31
0.0
  0
LINE
  5
1FA
330
74
100
AcDbEntity
  8
1
100
AcDbLine
 10
-1306.156485
 20
15.48342000000002
 30
0.0
 11
-1307.406485
 21
14.76172999999994
 31
0.0
  0
LINE
  5
1FB
330
74
100
AcDbEntity
  8
1
100
AcDbLine
 10
-1309.906485
 20
20.26173000000006
 30
0.0
 11
-1309.906485
 21
15.48342000000002
 31
0.0
  0
ARC
  5
1FC
330
74
100
AcDbEntity
  8
1
100
AcDbCircle
 10
-1308.031485
 20
17.89379500000007
 30
0.0
 40
3.053774999999999
100
AcDbArc
 50
232.121121
 51
307.878879
  0
ARC
  5
1FD
330
74
100
AcDbEntity
  8
1
100
AcDbCircle
 10
-1313.656485
 20
26.0900200000001
 30
0.0
 40
11.25
100
AcDbArc
 50
250.5287769999997
 51
289.4712189999999
  0
LINE
  5
1FE
330
74
100
AcDbEntity
  8
1
100
AcDbLine
 10
-1321.156485
 20
20.26173000000006
 30
0.0
 11
-1321.156485
 21
15.48342000000002
 31
0.0
  0
LINE
  5
1FF
330
74
100
AcDbEntity
  8
1
100
AcDbLine
 10
-1321.156485
 20
15.48342000000002
 30
0.0
 11
-1319.906485
 21
14.76172999999994
 31
0.0
  0
LINE
  5
200
330
74
100
AcDbEntity
  8
1
100
AcDbLine
 10
-1319.906485
 20
14.76172999999994
 30
0.0
 11
-1307.406485
 21
14.76172999999994
 31
0.0
  0
LINE
  5
201
330
74
100
AcDbEntity
  8
1
100
AcDbLine
 10
-1317.406485
 20
20.26173000000006
 30
0.0
 11
-1317.406485
 21
15.48342000000002
 31
0.0
  0
ARC
  5
202
330
74
100
AcDbEntity
  8
1
100
AcDbCircle
 10
-1319.281485
 20
17.89379500000007
 30
0.0
 40
3.053774999999999
100
AcDbArc
 50
232.121121
 51
307.878879
  0
LINE
  5
203
330
74
100
AcDbEntity
  8
1
100
AcDbLine
 10
-1305.956485
 20
22.26172999999994
 30
0.0
 11
-1305.956485
 21
20.26173000000006
 31
0.0
  0
LINE
  5
204
330
74
100
AcDbEntity
  8
1
100
AcDbLine
 10
-1305.956485
 20
20.26173000000006
 30
0.0
 11
-1321.356485
 21
20.26173000000006
 31
0.0
  0
LINE
  5
205
330
74
100
AcDbEntity
  8
1
100
AcDbLine
 10
-1321.356485
 20
20.26173000000006
 30
0.0
 11
-1321.356485
 21
22.26172999999994
 31
0.0
  0
LINE
  5
206
330
74
100
AcDbEntity
  8
1
100
AcDbLine
 10
-1313.656485
 20
20.26173000000006
 30
0.0
 11
-1314.156485
 21
22.26172999999994
 31
0.0
  0
LINE
  5
207
330
74
100
AcDbEntity
  8
1
100
AcDbLine
 10
-1313.656485
 20
22.26172999999994
 30
0.0
 11
-1313.156485
 21
20.26173000000006
 31
0.0
  0
LINE
  5
208
330
74
100
AcDbEntity
  8
1
100
AcDbLine
 10
-1316.656485
 20
301.54503
 30
0.0
 11
-1316.770435
 21
301.742395
 31
0.0
  0
ARC
  5
209
330
74
100
AcDbEntity
  8
1
100
AcDbCircle
 10
-1323.69864
 20
297.742395
 30
0.0
 40
8.0
100
AcDbArc
 50
29.99999999999989
 51
108.3697950000004
  0
ARC
  5
20A
330
74
100
AcDbEntity
  8
1
100
AcDbCircle
 10
-1318.336395
 20
301.54503
 30
0.0
 40
1.679904999999999
100
AcDbArc
 50
284.7870900000005
 51
0.0
  0
ARC
  5
20B
330
74
100
AcDbEntity
  8
1
100
AcDbCircle
 10
-1292.656485
 20
204.26173
 30
0.0
 40
100.2
100
AcDbArc
 50
103.5639749999999
 51
103.8582690000004
  0
LINE
  5
20C
330
74
100
AcDbEntity
  8
1
100
AcDbLine
 10
-1316.656485
 20
106.978435
 30
0.0
 11
-1316.770435
 21
106.781065
 31
0.0
  0
ARC
  5
20D
330
74
100
AcDbEntity
  8
1
100
AcDbCircle
 10
-1323.69864
 20
110.781065
 30
0.0
 40
8.0
100
AcDbArc
 50
251.6302049999997
 51
330.0000000000001
  0
ARC
  5
20E
330
74
100
AcDbEntity
  8
1
100
AcDbCircle
 10
-1318.336395
 20
106.978435
 30
0.0
 40
1.679904999999999
100
AcDbArc
 50
0.0
 51
75.21290999999947
  0
ARC
  5
20F
330
74
100
AcDbEntity
  8
1
100
AcDbCircle
 10
-1292.656485
 20
204.26173
 30
0.0
 40
100.2
100
AcDbArc
 50
256.1417309999996
 51
256.4360250000001
  0
ARC
  5
210
330
74
100
AcDbEntity
  8
1
100
AcDbCircle
 10
-1292.656485
 20
204.26173
 30
0.0
 40
98.935685
100
AcDbArc
 50
104.7870900000005
 51
255.2129099999995
  0
ARC
  5
211
330
74
100
AcDbEntity
  8
1
100
AcDbCircle
 10
-1292.656485
 20
204.26173
 30
0.0
 40
98.935685
100
AcDbArc
 50
283.6898629999995
 51
76.31013700000051
  0
ARC
  5
212
330
74
100
AcDbEntity
  8
1
100
AcDbCircle
 10
-1292.656485
 20
204.26173
 30
0.0
 40
97.755
100
AcDbArc
 50
103.9099680000007
 51
256.0900319999993
  0
ARC
  5
213
330
74
100
AcDbEntity
  8
1
100
AcDbCircle
 10
-1292.656485
 20
204.26173
 30
0.0
 40
97.755
100
AcDbArc
 50
283.9099680000007
 51
76.09003199999931
  0
LINE
  5
214
330
74
100
AcDbEntity
  8
1
100
AcDbLine
 10
-1314.156485
 20
264.2617299999999
 30
0.0
 11
-1269.656485
 21
264.2617299999999
 31
0.0
  0
LINE
  5
215
330
74
100
AcDbEntity
  8
1
100
AcDbLine
 10
-1314.156485
 20
144.26173
 30
0.0
 11
-1269.656485
 21
144.26173
 31
0.0
  0
LINE
  5
216
330
74
100
AcDbEntity
  8
1
100
AcDbLine
 10
-1269.156485
 20
297.38423
 30
0.0
 11
-1269.156485
 21
300.26173
 31
0.0
  0
LINE
  5
217
330
74
100
AcDbEntity
  8
1
100
AcDbLine
 10
-1316.156485
 20
102.015705
 30
0.0
 11
-1316.156485
 21
142.2617299999999
 31
0.0
  0
LINE
  5
218
330
74
100
AcDbEntity
  8
1
100
AcDbLine
 10
-1316.156485
 20
266.26173
 30
0.0
 11
-1316.156485
 21
306.50776
 31
0.0
  0
LINE
  5
219
330
74
100
AcDbEntity
  8
1
100
AcDbLine
 10
-1267.656485
 20
114.26173
 30
0.0
 11
-1267.656485
 21
142.2617299999999
 31
0.0
  0
LINE
  5
21A
330
74
100
AcDbEntity
  8
1
100
AcDbLine
 10
-1267.656485
 20
266.26173
 30
0.0
 11
-1267.656485
 21
294.26173
 31
0.0
  0
LINE
  5
21B
330
74
100
AcDbEntity
  8
1
100
AcDbLine
 10
-1311.156485
 20
262.2617299999999
 30
0.0
 11
-1311.156485
 21
146.2617299999999
 31
0.0
  0
LINE
  5
21C
330
74
100
AcDbEntity
  8
1
100
AcDbLine
 10
-1274.156485
 20
262.2617299999999
 30
0.0
 11
-1274.156485
 21
146.2617299999999
 31
0.0
  0
LINE
  5
21D
330
74
100
AcDbEntity
  8
1
100
AcDbLine
 10
-1317.156485
 20
264.2617299999999
 30
0.0
 11
-1317.156485
 21
144.26173
 31
0.0
  0
ARC
  5
21E
330
74
100
AcDbEntity
  8
1
100
AcDbCircle
 10
-1314.156485
 20
266.26173
 30
0.0
 40
2.0
100
AcDbArc
 50
180.0
 51
270.0
  0
ARC
  5
21F
330
74
100
AcDbEntity
  8
1
100
AcDbCircle
 10
-1314.156485
 20
142.2617299999999
 30
0.0
 40
2.0
100
AcDbArc
 50
90.0
 51
180.0
  0
ARC
  5
220
330
74
100
AcDbEntity
  8
1
100
AcDbCircle
 10
-1269.656485
 20
142.2617299999999
 30
0.0
 40
2.0
100
AcDbArc
 50
0.0
 51
90.0
  0
ARC
  5
221
330
74
100
AcDbEntity
  8
1
100
AcDbCircle
 10
-1269.656485
 20
266.26173
 30
0.0
 40
2.0
100
AcDbArc
 50
270.0
 51
0.0
  0
LINE
  5
222
330
74
100
AcDbEntity
  8
1
100
AcDbLine
 10
-1268.156485
 20
264.32524
 30
0.0
 11
-1268.156485
 21
144.19822
 31
0.0
  0
ARC
  5
223
330
74
100
AcDbEntity
  8
1
100
AcDbCircle
 10
-1276.156485
 20
262.2617299999999
 30
0.0
 40
2.0
100
AcDbArc
 50
0.0
 51
87.13401600000061
  0
ARC
  5
224
330
74
100
AcDbEntity
  8
1
100
AcDbCircle
 10
-1309.156485
 20
262.2617299999999
 30
0.0
 40
2.0
100
AcDbArc
 50
90.0
 51
180.0
  0
ARC
  5
225
330
74
100
AcDbEntity
  8
1
100
AcDbCircle
 10
-1266.156485
 20
264.32524
 30
0.0
 40
2.0
100
AcDbArc
 50
151.0449760000007
 51
180.0
  0
ARC
  5
226
330
74
100
AcDbEntity
  8
1
100
AcDbCircle
 10
-1266.156485
 20
144.19822
 30
0.0
 40
2.0
100
AcDbArc
 50
180.0
 51
208.9550239999993
  0
ARC
  5
227
330
74
100
AcDbEntity
  8
1
100
AcDbCircle
 10
-1276.156485
 20
146.2617299999999
 30
0.0
 40
2.0
100
AcDbArc
 50
272.8659839999993
 51
0.0
  0
ARC
  5
228
330
74
100
AcDbEntity
  8
1
100
AcDbCircle
 10
-1309.156485
 20
146.2617299999999
 30
0.0
 40
2.0
100
AcDbArc
 50
180.0
 51
270.0
  0
ARC
  5
229
330
74
100
AcDbEntity
  8
1
100
AcDbCircle
 10
-1315.156485
 20
264.2617299999999
 30
0.0
 40
2.0
100
AcDbArc
 50
138.5903779999994
 51
180.0
  0
ARC
  5
22A
330
74
100
AcDbEntity
  8
1
100
AcDbCircle
 10
-1318.156485
 20
266.90748
 30
0.0
 40
2.0
100
AcDbArc
 50
318.5903779999994
 51
0.0
  0
ARC
  5
22B
330
74
100
AcDbEntity
  8
1
100
AcDbCircle
 10
-1315.156485
 20
144.26173
 30
0.0
 40
2.0
100
AcDbArc
 50
180.0
 51
221.4096220000006
  0
ARC
  5
22C
330
74
100
AcDbEntity
  8
1
100
AcDbCircle
 10
-1318.156485
 20
141.6159799999999
 30
0.0
 40
2.0
100
AcDbArc
 50
0.0
 51
41.40962200000061
  0
LINE
  5
22D
330
74
100
AcDbEntity
  8
1
100
AcDbLine
 10
-1309.156485
 20
207.26173
 30
0.0
 11
-1304.056485
 21
207.26173
 31
0.0
  0
LINE
  5
22E
330
74
100
AcDbEntity
  8
1
100
AcDbLine
 10
-1309.156485
 20
201.26173
 30
0.0
 11
-1304.056485
 21
201.26173
 31
0.0
  0
LINE
  5
22F
330
74
100
AcDbEntity
  8
1
100
AcDbLine
 10
-1309.156485
 20
232.26173
 30
0.0
 11
-1304.056485
 21
232.26173
 31
0.0
  0
LINE
  5
230
330
74
100
AcDbEntity
  8
1
100
AcDbLine
 10
-1309.156485
 20
238.26173
 30
0.0
 11
-1304.056485
 21
238.26173
 31
0.0
  0
ARC
  5
231
330
74
100
AcDbEntity
  8
1
100
AcDbCircle
 10
-1276.156485
 20
209.26173
 30
0.0
 40
2.0
100
AcDbArc
 50
272.8659839999993
 51
0.0
  0
ARC
  5
232
330
74
100
AcDbEntity
  8
1
100
AcDbCircle
 10
-1276.156485
 20
199.26173
 30
0.0
 40
2.0
100
AcDbArc
 50
0.0
 51
87.13401600000061
  0
ARC
  5
233
330
74
100
AcDbEntity
  8
1
100
AcDbCircle
 10
-1309.156485
 20
199.26173
 30
0.0
 40
2.0
100
AcDbArc
 50
90.0
 51
180.0
  0
ARC
  5
234
330
74
100
AcDbEntity
  8
1
100
AcDbCircle
 10
-1309.156485
 20
209.26173
 30
0.0
 40
2.0
100
AcDbArc
 50
180.0
 51
270.0
  0
ARC
  5
235
330
74
100
AcDbEntity
  8
1
100
AcDbCircle
 10
-1309.156485
 20
230.26173
 30
0.0
 40
2.0
100
AcDbArc
 50
90.0
 51
180.0
  0
ARC
  5
236
330
74
100
AcDbEntity
  8
1
100
AcDbCircle
 10
-1276.156485
 20
230.26173
 30
0.0
 40
2.0
100
AcDbArc
 50
0.0
 51
87.13401600000061
  0
ARC
  5
237
330
74
100
AcDbEntity
  8
1
100
AcDbCircle
 10
-1276.156485
 20
240.26173
 30
0.0
 40
2.0
100
AcDbArc
 50
272.8659839999993
 51
0.0
  0
ARC
  5
238
330
74
100
AcDbEntity
  8
1
100
AcDbCircle
 10
-1309.156485
 20
240.26173
 30
0.0
 40
2.0
100
AcDbArc
 50
180.0
 51
270.0
  0
LINE
  5
239
330
74
100
AcDbEntity
  8
1
100
AcDbLine
 10
-1309.156485
 20
176.2617299999999
 30
0.0
 11
-1304.056485
 21
176.2617299999999
 31
0.0
  0
LINE
  5
23A
330
74
100
AcDbEntity
  8
1
100
AcDbLine
 10
-1309.156485
 20
170.26173
 30
0.0
 11
-1304.056485
 21
170.26173
 31
0.0
  0
ARC
  5
23B
330
74
100
AcDbEntity
  8
1
100
AcDbCircle
 10
-1309.156485
 20
178.26173
 30
0.0
 40
2.0
100
AcDbArc
 50
180.0
 51
270.0
  0
ARC
  5
23C
330
74
100
AcDbEntity
  8
1
100
AcDbCircle
 10
-1276.156485
 20
178.26173
 30
0.0
 40
2.0
100
AcDbArc
 50
272.8659839999993
 51
0.0
  0
ARC
  5
23D
330
74
100
AcDbEntity
  8
1
100
AcDbCircle
 10
-1276.156485
 20
168.26173
 30
0.0
 40
2.0
100
AcDbArc
 50
0.0
 51
87.13401600000061
  0
ARC
  5
23E
330
74
100
AcDbEntity
  8
1
100
AcDbCircle
 10
-1309.156485
 20
168.26173
 30
0.0
 40
2.0
100
AcDbArc
 50
90.0
 51
180.0
  0
LINE
  5
23F
330
74
100
AcDbEntity
  8
1
100
AcDbLine
 10
-1266.156485
 20
207.26173
 30
0.0
 11
-1238.156485
 21
207.26173
 31
0.0
  0
LINE
  5
240
330
74
100
AcDbEntity
  8
1
100
AcDbLine
 10
-1228.156485
 20
207.26173
 30
0.0
 11
-1205.800285
 21
207.26173
 31
0.0
  0
LINE
  5
241
330
74
100
AcDbEntity
  8
1
100
AcDbLine
 10
-1266.156485
 20
201.26173
 30
0.0
 11
-1238.156485
 21
201.26173
 31
0.0
  0
LINE
  5
242
330
74
100
AcDbEntity
  8
1
100
AcDbLine
 10
-1228.156485
 20
201.26173
 30
0.0
 11
-1205.800285
 21
201.26173
 31
0.0
  0
LINE
  5
243
330
74
100
AcDbEntity
  8
1
100
AcDbLine
 10
-1266.156485
 20
232.26173
 30
0.0
 11
-1238.156485
 21
232.26173
 31
0.0
  0
LINE
  5
244
330
74
100
AcDbEntity
  8
1
100
AcDbLine
 10
-1228.156485
 20
232.26173
 30
0.0
 11
-1209.632395
 21
232.26173
 31
0.0
  0
LINE
  5
245
330
74
100
AcDbEntity
  8
1
100
AcDbLine
 10
-1228.156485
 20
238.26173
 30
0.0
 11
-1213.454215
 21
238.26173
 31
0.0
  0
LINE
  5
246
330
74
100
AcDbEntity
  8
1
100
AcDbLine
 10
-1266.156485
 20
238.26173
 30
0.0
 11
-1238.156485
 21
238.26173
 31
0.0
  0
LINE
  5
247
330
74
100
AcDbEntity
  8
1
100
AcDbLine
 10
-1230.156485
 20
178.26173
 30
0.0
 11
-1230.156485
 21
199.26173
 31
0.0
  0
LINE
  5
248
330
74
100
AcDbEntity
  8
1
100
AcDbLine
 10
-1236.156485
 20
178.26173
 30
0.0
 11
-1236.156485
 21
199.26173
 31
0.0
  0
LINE
  5
249
330
74
100
AcDbEntity
  8
1
100
AcDbLine
 10
-1236.156485
 20
209.26173
 30
0.0
 11
-1236.156485
 21
230.26173
 31
0.0
  0
LINE
  5
24A
330
74
100
AcDbEntity
  8
1
100
AcDbLine
 10
-1236.156485
 20
240.26173
 30
0.0
 11
-1236.156485
 21
262.2617299999999
 31
0.0
  0
LINE
  5
24B
330
74
100
AcDbEntity
  8
1
100
AcDbLine
 10
-1230.156485
 20
209.26173
 30
0.0
 11
-1230.156485
 21
230.26173
 31
0.0
  0
LINE
  5
24C
330
74
100
AcDbEntity
  8
1
100
AcDbLine
 10
-1230.156485
 20
240.26173
 30
0.0
 11
-1230.156485
 21
262.64623
 31
0.0
  0
ARC
  5
24D
330
74
100
AcDbEntity
  8
1
100
AcDbCircle
 10
-1238.156485
 20
230.26173
 30
0.0
 40
2.0
100
AcDbArc
 50
0.0
 51
90.0
  0
ARC
  5
24E
330
74
100
AcDbEntity
  8
1
100
AcDbCircle
 10
-1238.156485
 20
240.26173
 30
0.0
 40
2.0
100
AcDbArc
 50
270.0
 51
0.0
  0
ARC
  5
24F
330
74
100
AcDbEntity
  8
1
100
AcDbCircle
 10
-1228.156485
 20
240.26173
 30
0.0
 40
2.0
100
AcDbArc
 50
180.0
 51
270.0
  0
ARC
  5
250
330
74
100
AcDbEntity
  8
1
100
AcDbCircle
 10
-1228.156485
 20
230.26173
 30
0.0
 40
2.0
100
AcDbArc
 50
90.0
 51
180.0
  0
ARC
  5
251
330
74
100
AcDbEntity
  8
1
100
AcDbCircle
 10
-1228.156485
 20
209.26173
 30
0.0
 40
2.0
100
AcDbArc
 50
180.0
 51
270.0
  0
ARC
  5
252
330
74
100
AcDbEntity
  8
1
100
AcDbCircle
 10
-1238.156485
 20
209.26173
 30
0.0
 40
2.0
100
AcDbArc
 50
270.0
 51
0.0
  0
ARC
  5
253
330
74
100
AcDbEntity
  8
1
100
AcDbCircle
 10
-1238.156485
 20
199.26173
 30
0.0
 40
2.0
100
AcDbArc
 50
0.0
 51
90.0
  0
ARC
  5
254
330
74
100
AcDbEntity
  8
1
100
AcDbCircle
 10
-1228.156485
 20
199.26173
 30
0.0
 40
2.0
100
AcDbArc
 50
90.0
 51
180.0
  0
ARC
  5
255
330
74
100
AcDbEntity
  8
1
100
AcDbCircle
 10
-1266.156485
 20
209.26173
 30
0.0
 40
2.0
100
AcDbArc
 50
180.0
 51
270.0
  0
ARC
  5
256
330
74
100
AcDbEntity
  8
1
100
AcDbCircle
 10
-1266.156485
 20
199.26173
 30
0.0
 40
2.0
100
AcDbArc
 50
90.0
 51
180.0
  0
ARC
  5
257
330
74
100
AcDbEntity
  8
1
100
AcDbCircle
 10
-1266.156485
 20
230.26173
 30
0.0
 40
2.0
100
AcDbArc
 50
90.0
 51
180.0
  0
ARC
  5
258
330
74
100
AcDbEntity
  8
1
100
AcDbCircle
 10
-1266.156485
 20
240.26173
 30
0.0
 40
2.0
100
AcDbArc
 50
180.0
 51
270.0
  0
ARC
  5
259
330
74
100
AcDbEntity
  8
1
100
AcDbCircle
 10
-1205.800285
 20
199.26173
 30
0.0
 40
2.0
100
AcDbArc
 50
356.7053240000003
 51
90.0
  0
ARC
  5
25A
330
74
100
AcDbEntity
  8
1
100
AcDbCircle
 10
-1205.800285
 20
209.26173
 30
0.0
 40
2.0
100
AcDbArc
 50
270.0
 51
3.294675999999638
  0
ARC
  5
25B
330
74
100
AcDbEntity
  8
1
100
AcDbCircle
 10
-1209.632395
 20
230.26173
 30
0.0
 40
2.0
100
AcDbArc
 50
17.38857899999936
 51
90.0
  0
ARC
  5
25C
330
74
100
AcDbEntity
  8
1
100
AcDbCircle
 10
-1213.454215
 20
240.26173
 30
0.0
 40
2.0
100
AcDbArc
 50
270.0
 51
24.44333500000014
  0
ARC
  5
25D
330
74
100
AcDbEntity
  8
1
100
AcDbCircle
 10
-1292.656485
 20
204.26173
 30
0.0
 40
89.0
100
AcDbArc
 50
3.294675999999638
 51
17.38857899999936
  0
LINE
  5
25E
330
74
100
AcDbEntity
  8
1
100
AcDbLine
 10
-1266.156485
 20
176.2617299999999
 30
0.0
 11
-1238.156485
 21
176.2617299999999
 31
0.0
  0
LINE
  5
25F
330
74
100
AcDbEntity
  8
1
100
AcDbLine
 10
-1228.156485
 20
176.2617299999999
 30
0.0
 11
-1209.632395
 21
176.2617299999999
 31
0.0
  0
LINE
  5
260
330
74
100
AcDbEntity
  8
1
100
AcDbLine
 10
-1228.156485
 20
170.26173
 30
0.0
 11
-1213.454215
 21
170.26173
 31
0.0
  0
LINE
  5
261
330
74
100
AcDbEntity
  8
1
100
AcDbLine
 10
-1266.156485
 20
170.26173
 30
0.0
 11
-1238.156485
 21
170.26173
 31
0.0
  0
LINE
  5
262
330
74
100
AcDbEntity
  8
1
100
AcDbLine
 10
-1236.156485
 20
168.26173
 30
0.0
 11
-1236.156485
 21
146.2617299999999
 31
0.0
  0
LINE
  5
263
330
74
100
AcDbEntity
  8
1
100
AcDbLine
 10
-1230.156485
 20
168.26173
 30
0.0
 11
-1230.156485
 21
145.87723
 31
0.0
  0
ARC
  5
264
330
74
100
AcDbEntity
  8
1
100
AcDbCircle
 10
-1238.156485
 20
178.26173
 30
0.0
 40
2.0
100
AcDbArc
 50
270.0
 51
0.0
  0
ARC
  5
265
330
74
100
AcDbEntity
  8
1
100
AcDbCircle
 10
-1238.156485
 20
168.26173
 30
0.0
 40
2.0
100
AcDbArc
 50
0.0
 51
90.0
  0
ARC
  5
266
330
74
100
AcDbEntity
  8
1
100
AcDbCircle
 10
-1228.156485
 20
168.26173
 30
0.0
 40
2.0
100
AcDbArc
 50
90.0
 51
180.0
  0
ARC
  5
267
330
74
100
AcDbEntity
  8
1
100
AcDbCircle
 10
-1228.156485
 20
178.26173
 30
0.0
 40
2.0
100
AcDbArc
 50
180.0
 51
270.0
  0
ARC
  5
268
330
74
100
AcDbEntity
  8
1
100
AcDbCircle
 10
-1266.156485
 20
178.26173
 30
0.0
 40
2.0
100
AcDbArc
 50
180.0
 51
270.0
  0
ARC
  5
269
330
74
100
AcDbEntity
  8
1
100
AcDbCircle
 10
-1266.156485
 20
168.26173
 30
0.0
 40
2.0
100
AcDbArc
 50
90.0
 51
180.0
  0
ARC
  5
26A
330
74
100
AcDbEntity
  8
1
100
AcDbCircle
 10
-1209.632395
 20
178.26173
 30
0.0
 40
2.0
100
AcDbArc
 50
270.0
 51
342.6114210000006
  0
ARC
  5
26B
330
74
100
AcDbEntity
  8
1
100
AcDbCircle
 10
-1213.454215
 20
168.26173
 30
0.0
 40
2.0
100
AcDbArc
 50
335.5566649999998
 51
90.0
  0
ARC
  5
26C
330
74
100
AcDbEntity
  8
1
100
AcDbCircle
 10
-1292.656485
 20
204.26173
 30
0.0
 40
89.0
100
AcDbArc
 50
342.6114210000006
 51
356.7053240000003
  0
ARC
  5
26D
330
74
100
AcDbEntity
  8
1
100
AcDbCircle
 10
-1228.156485
 20
262.64623
 30
0.0
 40
2.0
100
AcDbArc
 50
42.15095500000031
 51
180.0
  0
ARC
  5
26E
330
74
100
AcDbEntity
  8
1
100
AcDbCircle
 10
-1228.156485
 20
145.87723
 30
0.0
 40
2.0
100
AcDbArc
 50
180.0
 51
317.8490449999997
  0
LINE
  5
26F
330
74
100
AcDbEntity
  8
1
100
AcDbLine
 10
-1266.156485
 20
264.2617299999999
 30
0.0
 11
-1238.156485
 21
264.2617299999999
 31
0.0
  0
LINE
  5
270
330
74
100
AcDbEntity
  8
1
100
AcDbLine
 10
-1266.156485
 20
144.26173
 30
0.0
 11
-1238.156485
 21
144.26173
 31
0.0
  0
LINE
  5
271
330
74
100
AcDbEntity
  8
1
100
AcDbLine
 10
-1265.656485
 20
270.26173
 30
0.0
 11
-1238.38863
 21
270.26173
 31
0.0
  0
LINE
  5
272
330
74
100
AcDbEntity
  8
1
100
AcDbLine
 10
-1265.656485
 20
138.26173
 30
0.0
 11
-1238.38863
 21
138.26173
 31
0.0
  0
ARC
  5
273
330
74
100
AcDbEntity
  8
1
100
AcDbCircle
 10
-1238.156485
 20
262.2617299999999
 30
0.0
 40
2.0
100
AcDbArc
 50
0.0
 51
90.0
  0
ARC
  5
274
330
74
100
AcDbEntity
  8
1
100
AcDbCircle
 10
-1266.156485
 20
262.2617299999999
 30
0.0
 40
2.0
100
AcDbArc
 50
90.0
 51
180.0
  0
ARC
  5
275
330
74
100
AcDbEntity
  8
1
100
AcDbCircle
 10
-1265.656485
 20
272.26173
 30
0.0
 40
2.0
100
AcDbArc
 50
180.0
 51
270.0
  0
ARC
  5
276
330
74
100
AcDbEntity
  8
1
100
AcDbCircle
 10
-1238.38863
 20
272.26173
 30
0.0
 40
2.0
100
AcDbArc
 50
270.0
 51
51.40814900000029
  0
ARC
  5
277
330
74
100
AcDbEntity
  8
1
100
AcDbCircle
 10
-1292.656485
 20
204.26173
 30
0.0
 40
89.0
100
AcDbArc
 50
24.44333500000014
 51
42.15095500000031
  0
ARC
  5
278
330
74
100
AcDbEntity
  8
1
100
AcDbCircle
 10
-1238.156485
 20
146.2617299999999
 30
0.0
 40
2.0
100
AcDbArc
 50
270.0
 51
0.0
  0
ARC
  5
279
330
74
100
AcDbEntity
  8
1
100
AcDbCircle
 10
-1266.156485
 20
146.2617299999999
 30
0.0
 40
2.0
100
AcDbArc
 50
180.0
 51
270.0
  0
ARC
  5
27A
330
74
100
AcDbEntity
  8
1
100
AcDbCircle
 10
-1265.656485
 20
136.2617299999999
 30
0.0
 40
2.0
100
AcDbArc
 50
90.0
 51
180.0
  0
ARC
  5
27B
330
74
100
AcDbEntity
  8
1
100
AcDbCircle
 10
-1238.38863
 20
136.2617299999999
 30
0.0
 40
2.0
100
AcDbArc
 50
308.5918509999997
 51
90.0
  0
ARC
  5
27C
330
74
100
AcDbEntity
  8
1
100
AcDbCircle
 10
-1292.656485
 20
204.26173
 30
0.0
 40
89.0
100
AcDbArc
 50
317.8490449999997
 51
335.5566649999998
  0
ARC
  5
27D
330
74
100
AcDbEntity
  8
1
100
AcDbCircle
 10
-1292.656485
 20
204.26173
 30
0.0
 40
89.0
100
AcDbArc
 50
51.40814900000029
 51
71.91998699999998
  0
ARC
  5
27E
330
74
100
AcDbEntity
  8
1
100
AcDbCircle
 10
-1292.656485
 20
204.26173
 30
0.0
 40
89.0
100
AcDbArc
 50
288.080013
 51
308.5918509999997
  0
LINE
  5
27F
330
74
100
AcDbEntity
  8
1
100
AcDbLine
 10
-1319.156485
 20
207.26173
 30
0.0
 11
-1347.156485
 21
207.26173
 31
0.0
  0
LINE
  5
280
330
74
100
AcDbEntity
  8
1
100
AcDbLine
 10
-1357.156485
 20
207.26173
 30
0.0
 11
-1379.51269
 21
207.26173
 31
0.0
  0
LINE
  5
281
330
74
100
AcDbEntity
  8
1
100
AcDbLine
 10
-1319.156485
 20
201.26173
 30
0.0
 11
-1347.156485
 21
201.26173
 31
0.0
  0
LINE
  5
282
330
74
100
AcDbEntity
  8
1
100
AcDbLine
 10
-1357.156485
 20
201.26173
 30
0.0
 11
-1379.51269
 21
201.26173
 31
0.0
  0
LINE
  5
283
330
74
100
AcDbEntity
  8
1
100
AcDbLine
 10
-1319.156485
 20
232.26173
 30
0.0
 11
-1347.156485
 21
232.26173
 31
0.0
  0
LINE
  5
284
330
74
100
AcDbEntity
  8
1
100
AcDbLine
 10
-1357.156485
 20
232.26173
 30
0.0
 11
-1375.68058
 21
232.26173
 31
0.0
  0
LINE
  5
285
330
74
100
AcDbEntity
  8
1
100
AcDbLine
 10
-1357.156485
 20
238.26173
 30
0.0
 11
-1371.85876
 21
238.26173
 31
0.0
  0
LINE
  5
286
330
74
100
AcDbEntity
  8
1
100
AcDbLine
 10
-1319.156485
 20
238.26173
 30
0.0
 11
-1347.156485
 21
238.26173
 31
0.0
  0
LINE
  5
287
330
74
100
AcDbEntity
  8
1
100
AcDbLine
 10
-1355.156485
 20
178.26173
 30
0.0
 11
-1355.156485
 21
199.26173
 31
0.0
  0
LINE
  5
288
330
74
100
AcDbEntity
  8
1
100
AcDbLine
 10
-1349.156485
 20
178.26173
 30
0.0
 11
-1349.156485
 21
199.26173
 31
0.0
  0
LINE
  5
289
330
74
100
AcDbEntity
  8
1
100
AcDbLine
 10
-1349.156485
 20
209.26173
 30
0.0
 11
-1349.156485
 21
230.26173
 31
0.0
  0
LINE
  5
28A
330
74
100
AcDbEntity
  8
1
100
AcDbLine
 10
-1349.156485
 20
240.26173
 30
0.0
 11
-1349.156485
 21
262.2617299999999
 31
0.0
  0
LINE
  5
28B
330
74
100
AcDbEntity
  8
1
100
AcDbLine
 10
-1355.156485
 20
209.26173
 30
0.0
 11
-1355.156485
 21
230.26173
 31
0.0
  0
LINE
  5
28C
330
74
100
AcDbEntity
  8
1
100
AcDbLine
 10
-1355.156485
 20
240.26173
 30
0.0
 11
-1355.156485
 21
262.64623
 31
0.0
  0
ARC
  5
28D
330
74
100
AcDbEntity
  8
1
100
AcDbCircle
 10
-1347.156485
 20
230.26173
 30
0.0
 40
2.0
100
AcDbArc
 50
90.0
 51
180.0
  0
ARC
  5
28E
330
74
100
AcDbEntity
  8
1
100
AcDbCircle
 10
-1347.156485
 20
240.26173
 30
0.0
 40
2.0
100
AcDbArc
 50
180.0
 51
270.0
  0
ARC
  5
28F
330
74
100
AcDbEntity
  8
1
100
AcDbCircle
 10
-1357.156485
 20
240.26173
 30
0.0
 40
2.0
100
AcDbArc
 50
270.0
 51
0.0
  0
ARC
  5
290
330
74
100
AcDbEntity
  8
1
100
AcDbCircle
 10
-1357.156485
 20
230.26173
 30
0.0
 40
2.0
100
AcDbArc
 50
0.0
 51
90.0
  0
ARC
  5
291
330
74
100
AcDbEntity
  8
1
100
AcDbCircle
 10
-1357.156485
 20
209.26173
 30
0.0
 40
2.0
100
AcDbArc
 50
270.0
 51
0.0
  0
ARC
  5
292
330
74
100
AcDbEntity
  8
1
100
AcDbCircle
 10
-1347.156485
 20
209.26173
 30
0.0
 40
2.0
100
AcDbArc
 50
180.0
 51
270.0
  0
ARC
  5
293
330
74
100
AcDbEntity
  8
1
100
AcDbCircle
 10
-1347.156485
 20
199.26173
 30
0.0
 40
2.0
100
AcDbArc
 50
90.0
 51
180.0
  0
ARC
  5
294
330
74
100
AcDbEntity
  8
1
100
AcDbCircle
 10
-1357.156485
 20
199.26173
 30
0.0
 40
2.0
100
AcDbArc
 50
0.0
 51
90.0
  0
ARC
  5
295
330
74
100
AcDbEntity
  8
1
100
AcDbCircle
 10
-1319.156485
 20
209.26173
 30
0.0
 40
2.0
100
AcDbArc
 50
270.0
 51
0.0
  0
ARC
  5
296
330
74
100
AcDbEntity
  8
1
100
AcDbCircle
 10
-1319.156485
 20
199.26173
 30
0.0
 40
2.0
100
AcDbArc
 50
0.0
 51
90.0
  0
ARC
  5
297
330
74
100
AcDbEntity
  8
1
100
AcDbCircle
 10
-1319.156485
 20
230.26173
 30
0.0
 40
2.0
100
AcDbArc
 50
0.0
 51
90.0
  0
ARC
  5
298
330
74
100
AcDbEntity
  8
1
100
AcDbCircle
 10
-1319.156485
 20
240.26173
 30
0.0
 40
2.0
100
AcDbArc
 50
270.0
 51
0.0
  0
ARC
  5
299
330
74
100
AcDbEntity
  8
1
100
AcDbCircle
 10
-1379.51269
 20
199.26173
 30
0.0
 40
2.0
100
AcDbArc
 50
90.0
 51
183.2946759999996
  0
ARC
  5
29A
330
74
100
AcDbEntity
  8
1
100
AcDbCircle
 10
-1379.51269
 20
209.26173
 30
0.0
 40
2.0
100
AcDbArc
 50
176.7053240000003
 51
270.0
  0
ARC
  5
29B
330
74
100
AcDbEntity
  8
1
100
AcDbCircle
 10
-1375.68058
 20
230.26173
 30
0.0
 40
2.0
100
AcDbArc
 50
90.0
 51
162.6114210000006
  0
ARC
  5
29C
330
74
100
AcDbEntity
  8
1
100
AcDbCircle
 10
-1371.85876
 20
240.26173
 30
0.0
 40
2.0
100
AcDbArc
 50
155.5566649999998
 51
270.0
  0
ARC
  5
29D
330
74
100
AcDbEntity
  8
1
100
AcDbCircle
 10
-1292.656485
 20
204.26173
 30
0.0
 40
89.0
100
AcDbArc
 50
162.6114210000006
 51
176.7053240000003
  0
LINE
  5
29E
330
74
100
AcDbEntity
  8
1
100
AcDbLine
 10
-1319.156485
 20
176.2617299999999
 30
0.0
 11
-1347.156485
 21
176.2617299999999
 31
0.0
  0
LINE
  5
29F
330
74
100
AcDbEntity
  8
1
100
AcDbLine
 10
-1357.156485
 20
176.2617299999999
 30
0.0
 11
-1375.68058
 21
176.2617299999999
 31
0.0
  0
LINE
  5
2A0
330
74
100
AcDbEntity
  8
1
100
AcDbLine
 10
-1357.156485
 20
170.26173
 30
0.0
 11
-1371.85876
 21
170.26173
 31
0.0
  0
LINE
  5
2A1
330
74
100
AcDbEntity
  8
1
100
AcDbLine
 10
-1319.156485
 20
170.26173
 30
0.0
 11
-1347.156485
 21
170.26173
 31
0.0
  0
LINE
  5
2A2
330
74
100
AcDbEntity
  8
1
100
AcDbLine
 10
-1349.156485
 20
168.26173
 30
0.0
 11
-1349.156485
 21
146.2617299999999
 31
0.0
  0
LINE
  5
2A3
330
74
100
AcDbEntity
  8
1
100
AcDbLine
 10
-1355.156485
 20
168.26173
 30
0.0
 11
-1355.156485
 21
145.87723
 31
0.0
  0
ARC
  5
2A4
330
74
100
AcDbEntity
  8
1
100
AcDbCircle
 10
-1347.156485
 20
178.26173
 30
0.0
 40
2.0
100
AcDbArc
 50
180.0
 51
270.0
  0
ARC
  5
2A5
330
74
100
AcDbEntity
  8
1
100
AcDbCircle
 10
-1347.156485
 20
168.26173
 30
0.0
 40
2.0
100
AcDbArc
 50
90.0
 51
180.0
  0
ARC
  5
2A6
330
74
100
AcDbEntity
  8
1
100
AcDbCircle
 10
-1357.156485
 20
168.26173
 30
0.0
 40
2.0
100
AcDbArc
 50
0.0
 51
90.0
  0
ARC
  5
2A7
330
74
100
AcDbEntity
  8
1
100
AcDbCircle
 10
-1357.156485
 20
178.26173
 30
0.0
 40
2.0
100
AcDbArc
 50
270.0
 51
0.0
  0
ARC
  5
2A8
330
74
100
AcDbEntity
  8
1
100
AcDbCircle
 10
-1319.156485
 20
178.26173
 30
0.0
 40
2.0
100
AcDbArc
 50
270.0
 51
0.0
  0
ARC
  5
2A9
330
74
100
AcDbEntity
  8
1
100
AcDbCircle
 10
-1319.156485
 20
168.26173
 30
0.0
 40
2.0
100
AcDbArc
 50
0.0
 51
90.0
  0
ARC
  5
2AA
330
74
100
AcDbEntity
  8
1
100
AcDbCircle
 10
-1375.68058
 20
178.26173
 30
0.0
 40
2.0
100
AcDbArc
 50
197.3885789999993
 51
270.0
  0
ARC
  5
2AB
330
74
100
AcDbEntity
  8
1
100
AcDbCircle
 10
-1371.85876
 20
168.26173
 30
0.0
 40
2.0
100
AcDbArc
 50
90.0
 51
204.4433350000001
  0
ARC
  5
2AC
330
74
100
AcDbEntity
  8
1
100
AcDbCircle
 10
-1292.656485
 20
204.26173
 30
0.0
 40
89.0
100
AcDbArc
 50
183.2946759999996
 51
197.3885789999993
  0
ARC
  5
2AD
330
74
100
AcDbEntity
  8
1
100
AcDbCircle
 10
-1357.156485
 20
262.64623
 30
0.0
 40
2.0
100
AcDbArc
 50
0.0
 51
137.8490449999997
  0
ARC
  5
2AE
330
74
100
AcDbEntity
  8
1
100
AcDbCircle
 10
-1357.156485
 20
145.87723
 30
0.0
 40
2.0
100
AcDbArc
 50
222.1509550000003
 51
0.0
  0
LINE
  5
2AF
330
74
100
AcDbEntity
  8
1
100
AcDbLine
 10
-1319.156485
 20
264.2617299999999
 30
0.0
 11
-1347.156485
 21
264.2617299999999
 31
0.0
  0
LINE
  5
2B0
330
74
100
AcDbEntity
  8
1
100
AcDbLine
 10
-1319.156485
 20
144.26173
 30
0.0
 11
-1347.156485
 21
144.26173
 31
0.0
  0
LINE
  5
2B1
330
74
100
AcDbEntity
  8
1
100
AcDbLine
 10
-1318.156485
 20
270.26173
 30
0.0
 11
-1346.92434
 21
270.26173
 31
0.0
  0
LINE
  5
2B2
330
74
100
AcDbEntity
  8
1
100
AcDbLine
 10
-1318.156485
 20
138.26173
 30
0.0
 11
-1346.92434
 21
138.26173
 31
0.0
  0
ARC
  5
2B3
330
74
100
AcDbEntity
  8
1
100
AcDbCircle
 10
-1347.156485
 20
262.2617299999999
 30
0.0
 40
2.0
100
AcDbArc
 50
90.0
 51
180.0
  0
ARC
  5
2B4
330
74
100
AcDbEntity
  8
1
100
AcDbCircle
 10
-1346.92434
 20
272.26173
 30
0.0
 40
2.0
100
AcDbArc
 50
128.5918509999997
 51
270.0
  0
ARC
  5
2B5
330
74
100
AcDbEntity
  8
1
100
AcDbCircle
 10
-1292.656485
 20
204.26173
 30
0.0
 40
89.0
100
AcDbArc
 50
137.8490449999997
 51
155.5566649999998
  0
ARC
  5
2B6
330
74
100
AcDbEntity
  8
1
100
AcDbCircle
 10
-1347.156485
 20
146.2617299999999
 30
0.0
 40
2.0
100
AcDbArc
 50
180.0
 51
270.0
  0
ARC
  5
2B7
330
74
100
AcDbEntity
  8
1
100
AcDbCircle
 10
-1346.92434
 20
136.2617299999999
 30
0.0
 40
2.0
100
AcDbArc
 50
90.0
 51
231.4081490000003
  0
ARC
  5
2B8
330
74
100
AcDbEntity
  8
1
100
AcDbCircle
 10
-1292.656485
 20
204.26173
 30
0.0
 40
89.0
100
AcDbArc
 50
204.4433350000001
 51
222.1509550000003
  0
ARC
  5
2B9
330
74
100
AcDbEntity
  8
1
100
AcDbCircle
 10
-1292.656485
 20
204.26173
 30
0.0
 40
89.0
100
AcDbArc
 50
107.0438469999998
 51
128.5918509999997
  0
ARC
  5
2BA
330
74
100
AcDbEntity
  8
1
100
AcDbCircle
 10
-1292.656485
 20
204.26173
 30
0.0
 40
89.0
100
AcDbArc
 50
231.4081490000003
 51
252.9561530000002
  0
ARC
  5
2BB
330
74
100
AcDbEntity
  8
1
100
AcDbCircle
 10
-1318.156485
 20
287.440755
 30
0.0
 40
2.0
100
AcDbArc
 50
0.0
 51
107.0438469999998
  0
ARC
  5
2BC
330
74
100
AcDbEntity
  8
1
100
AcDbCircle
 10
-1318.156485
 20
272.26173
 30
0.0
 40
2.0
100
AcDbArc
 50
270.0
 51
0.0
  0
ARC
  5
2BD
330
74
100
AcDbEntity
  8
1
100
AcDbCircle
 10
-1319.156485
 20
262.2617299999999
 30
0.0
 40
2.0
100
AcDbArc
 50
0.0
 51
90.0
  0
ARC
  5
2BE
330
74
100
AcDbEntity
  8
1
100
AcDbCircle
 10
-1265.656485
 20
286.966025
 30
0.0
 40
2.0
100
AcDbArc
 50
71.91998699999998
 51
180.0
  0
ARC
  5
2BF
330
74
100
AcDbEntity
  8
1
100
AcDbCircle
 10
-1319.156485
 20
146.2617299999999
 30
0.0
 40
2.0
100
AcDbArc
 50
270.0
 51
0.0
  0
ARC
  5
2C0
330
74
100
AcDbEntity
  8
1
100
AcDbCircle
 10
-1318.156485
 20
136.2617299999999
 30
0.0
 40
2.0
100
AcDbArc
 50
0.0
 51
90.0
  0
ARC
  5
2C1
330
74
100
AcDbEntity
  8
1
100
AcDbCircle
 10
-1318.156485
 20
121.082705
 30
0.0
 40
2.0
100
AcDbArc
 50
252.9561530000002
 51
0.0
  0
ARC
  5
2C2
330
74
100
AcDbEntity
  8
1
100
AcDbCircle
 10
-1265.656485
 20
121.55744
 30
0.0
 40
2.0
100
AcDbArc
 50
180.0
 51
288.080013
  0
LINE
  5
2C3
330
74
100
AcDbEntity
  8
1
100
AcDbLine
 10
-1290.656485
 20
296.26173
 30
0.0
 11
-1269.656485
 21
296.26173
 31
0.0
  0
LINE
  5
2C4
330
74
100
AcDbEntity
  8
1
100
AcDbLine
 10
-1290.656485
 20
112.2617299999999
 30
0.0
 11
-1269.656485
 21
112.2617299999999
 31
0.0
  0
LINE
  5
2C5
330
74
100
AcDbEntity
  8
1
100
AcDbLine
 10
-1306.656485
 20
280.26173
 30
0.0
 11
-1294.656485
 21
280.26173
 31
0.0
  0
ARC
  5
2C6
330
74
100
AcDbEntity
  8
1
100
AcDbCircle
 10
-1294.656485
 20
282.26173
 30
0.0
 40
2.0
100
AcDbArc
 50
270.0
 51
0.0
  0
CIRCLE
  5
2C7
330
74
100
AcDbEntity
  8
1
100
AcDbCircle
 10
-1304.056485
 20
272.27023
 30
0.0
 40
4.019999999999999
  0
CIRCLE
  5
2C8
330
74
100
AcDbEntity
  8
1
100
AcDbCircle
 10
-1304.056485
 20
272.27023
 30
0.0
 40
2.649999999999999
  0
CIRCLE
  5
2C9
330
74
100
AcDbEntity
  8
1
 62
     2
100
AcDbCircle
 10
-1304.056485
 20
272.27023
 30
0.0
 40
2.5
  0
CIRCLE
  5
2CA
330
74
100
AcDbEntity
  8
1
100
AcDbCircle
 10
-1304.056485
 20
272.27023
 30
0.0
 40
2.066999999999999
  0
CIRCLE
  5
2CB
330
74
100
AcDbEntity
  8
1
100
AcDbCircle
 10
-1290.056485
 20
136.25323
 30
0.0
 40
4.019999999999999
  0
CIRCLE
  5
2CC
330
74
100
AcDbEntity
  8
1
100
AcDbCircle
 10
-1290.056485
 20
136.25323
 30
0.0
 40
2.649999999999999
  0
CIRCLE
  5
2CD
330
74
100
AcDbEntity
  8
1
 62
     2
100
AcDbCircle
 10
-1290.056485
 20
136.25323
 30
0.0
 40
2.5
  0
CIRCLE
  5
2CE
330
74
100
AcDbEntity
  8
1
100
AcDbCircle
 10
-1290.056485
 20
136.25323
 30
0.0
 40
2.066999999999999
  0
ARC
  5
2CF
330
74
100
AcDbEntity
  8
1
100
AcDbCircle
 10
-1306.656485
 20
272.26173
 30
0.0
 40
8.0
100
AcDbArc
 50
90.0
 51
270.0
  0
LINE
  5
2D0
330
74
100
AcDbEntity
  8
1
100
AcDbLine
 10
-1306.656485
 20
128.26173
 30
0.0
 11
-1294.656485
 21
128.26173
 31
0.0
  0
ARC
  5
2D1
330
74
100
AcDbEntity
  8
1
100
AcDbCircle
 10
-1306.656485
 20
136.2617299999999
 30
0.0
 40
8.0
100
AcDbArc
 50
90.0
 51
270.0
  0
ARC
  5
2D2
330
74
100
AcDbEntity
  8
1
100
AcDbCircle
 10
-1294.656485
 20
126.2617299999999
 30
0.0
 40
2.0
100
AcDbArc
 50
0.0
 51
90.0
  0
LINE
  5
2D3
330
74
100
AcDbEntity
  8
1
100
AcDbLine
 10
-1284.127125
 20
294.26173
 30
0.0
 11
-1284.127125
 21
266.26173
 31
0.0
  0
ARC
  5
2D4
330
74
100
AcDbEntity
  8
1
100
AcDbCircle
 10
-1282.127125
 20
294.26173
 30
0.0
 40
2.0
100
AcDbArc
 50
90.0
 51
180.0
  0
ARC
  5
2D5
330
74
100
AcDbEntity
  8
1
100
AcDbCircle
 10
-1269.656485
 20
294.26173
 30
0.0
 40
2.0
100
AcDbArc
 50
0.0
 51
90.0
  0
LINE
  5
2D6
330
74
100
AcDbEntity
  8
1
100
AcDbLine
 10
-1284.127125
 20
142.2617299999999
 30
0.0
 11
-1284.127125
 21
114.26173
 31
0.0
  0
ARC
  5
2D7
330
74
100
AcDbEntity
  8
1
100
AcDbCircle
 10
-1269.656485
 20
114.26173
 30
0.0
 40
2.0
100
AcDbArc
 50
270.0
 51
0.0
  0
ARC
  5
2D8
330
74
100
AcDbEntity
  8
1
100
AcDbCircle
 10
-1282.127125
 20
114.26173
 30
0.0
 40
2.0
100
AcDbArc
 50
180.0
 51
270.0
  0
ARC
  5
2D9
330
74
100
AcDbEntity
  8
1
100
AcDbCircle
 10
-1282.127125
 20
142.2617299999999
 30
0.0
 40
2.0
100
AcDbArc
 50
90.0
 51
180.0
  0
ARC
  5
2DA
330
74
100
AcDbEntity
  8
1
100
AcDbCircle
 10
-1292.656485
 20
204.26173
 30
0.0
 40
93.0
100
AcDbArc
 50
104.6366420000002
 51
255.3633579999998
  0
ARC
  5
2DB
330
74
100
AcDbEntity
  8
1
100
AcDbCircle
 10
-1292.656485
 20
204.26173
 30
0.0
 40
93.0
100
AcDbArc
 50
285.5938960000004
 51
74.40610399999958
  0
ARC
  5
2DC
330
74
100
AcDbEntity
  8
1
100
AcDbCircle
 10
-1282.127125
 20
266.26173
 30
0.0
 40
2.0
100
AcDbArc
 50
180.0
 51
270.0
  0
ARC
  5
2DD
330
74
100
AcDbEntity
  8
1
100
AcDbCircle
 10
-1290.656485
 20
298.2617300000001
 30
0.0
 40
2.0
100
AcDbArc
 50
180.0
 51
270.0
  0
ARC
  5
2DE
330
74
100
AcDbEntity
  8
1
100
AcDbCircle
 10
-1290.656485
 20
110.26173
 30
0.0
 40
2.0
100
AcDbArc
 50
90.0
 51
180.0
  0
LINE
  5
2DF
330
74
100
AcDbEntity
  8
1
100
AcDbLine
 10
-1316.156485
 20
306.50776
 30
0.0
 11
-1284.156485
 21
306.50776
 31
0.0
  0
ARC
  5
2E0
330
74
100
AcDbEntity
  8
1
100
AcDbCircle
 10
-1292.656485
 20
492.73062
 30
0.0
 40
184.4304349999999
100
AcDbArc
 50
266.1448660000002
 51
272.6415740000003
  0
ARC
  5
2E1
330
74
100
AcDbEntity
  8
1
100
AcDbCircle
 10
-1290.03776
 20
204.291995
 30
0.0
 40
105.5
100
AcDbArc
 50
98.18429300000014
 51
104.3338139999997
  0
LINE
  5
2E2
330
74
100
AcDbEntity
  8
1
100
AcDbLine
 10
-1284.156485
 20
308.496165
 30
0.0
 11
-1284.156485
 21
300.26173
 31
0.0
  0
LINE
  5
2E3
330
74
100
AcDbEntity
  8
1
100
AcDbLine
 10
-1284.156485
 20
300.26173
 30
0.0
 11
-1269.156485
 21
300.26173
 31
0.0
  0
LINE
  5
2E4
330
74
100
AcDbEntity
  8
1
100
AcDbLine
 10
-1269.241745
 20
301.68755
 30
0.0
 11
-1269.241745
 21
300.26173
 31
0.0
  0
ARC
  5
2E5
330
74
100
AcDbEntity
  8
1
100
AcDbCircle
 10
-1267.156485
 20
297.38423
 30
0.0
 40
2.0
100
AcDbArc
 50
180.0
 51
231.3178130000002
  0
LINE
  5
2E6
330
74
100
AcDbEntity
  8
1
100
AcDbLine
 10
-1275.19042
 20
302.90391
 30
0.0
 11
-1275.19042
 21
301.76173
 31
0.0
  0
LINE
  5
2E7
330
74
100
AcDbEntity
  8
1
100
AcDbLine
 10
-1276.056485
 20
301.76173
 30
0.0
 11
-1275.19042
 21
301.76173
 31
0.0
  0
LINE
  5
2E8
330
74
100
AcDbEntity
  8
1
100
AcDbLine
 10
-1276.056485
 20
300.26173
 30
0.0
 11
-1276.056485
 21
309.460065
 31
0.0
  0
LINE
  5
2E9
330
74
100
AcDbEntity
  8
1
100
AcDbLine
 10
-1304.056485
 20
308.65285
 30
0.0
 11
-1304.056485
 21
310.1498299999999
 31
0.0
  0
LINE
  5
2EA
330
74
100
AcDbEntity
  8
1
100
AcDbLine
 10
-1276.056485
 20
264.2617299999999
 30
0.0
 11
-1276.056485
 21
144.26173
 31
0.0
  0
LINE
  5
2EB
330
74
100
AcDbEntity
  8
1
100
AcDbLine
 10
-1304.056485
 20
264.2617299999999
 30
0.0
 11
-1304.056485
 21
144.26173
 31
0.0
  0
LINE
  5
2EC
330
74
100
AcDbEntity
  8
1
100
AcDbLine
 10
-1269.156485
 20
111.13923
 30
0.0
 11
-1269.156485
 21
108.26173
 31
0.0
  0
LINE
  5
2ED
330
74
100
AcDbEntity
  8
1
100
AcDbLine
 10
-1316.156485
 20
102.015705
 30
0.0
 11
-1284.156485
 21
102.015705
 31
0.0
  0
ARC
  5
2EE
330
74
100
AcDbEntity
  8
1
100
AcDbCircle
 10
-1292.656485
 20
-84.20716000000004
 30
0.0
 40
184.4304349999999
100
AcDbArc
 50
87.35842599999967
 51
93.85513399999979
  0
ARC
  5
2EF
330
74
100
AcDbEntity
  8
1
100
AcDbCircle
 10
-1290.03776
 20
204.231465
 30
0.0
 40
105.5
100
AcDbArc
 50
255.6661860000003
 51
261.8157069999999
  0
LINE
  5
2F0
330
74
100
AcDbEntity
  8
1
100
AcDbLine
 10
-1284.156485
 20
100.0273
 30
0.0
 11
-1284.156485
 21
108.26173
 31
0.0
  0
LINE
  5
2F1
330
74
100
AcDbEntity
  8
1
100
AcDbLine
 10
-1284.156485
 20
108.26173
 30
0.0
 11
-1269.156485
 21
108.26173
 31
0.0
  0
LINE
  5
2F2
330
74
100
AcDbEntity
  8
1
100
AcDbLine
 10
-1269.241745
 20
106.835915
 30
0.0
 11
-1269.241745
 21
108.26173
 31
0.0
  0
ARC
  5
2F3
330
74
100
AcDbEntity
  8
1
100
AcDbCircle
 10
-1267.156485
 20
111.13923
 30
0.0
 40
2.0
100
AcDbArc
 50
128.6821869999997
 51
180.0
  0
LINE
  5
2F4
330
74
100
AcDbEntity
  8
1
100
AcDbLine
 10
-1276.056485
 20
108.26173
 30
0.0
 11
-1276.056485
 21
99.06339500000001
 31
0.0
  0
LINE
  5
2F5
330
74
100
AcDbEntity
  8
1
100
AcDbLine
 10
-1304.056485
 20
99.87061
 30
0.0
 11
-1304.056485
 21
98.37363000000001
 31
0.0
  0
ARC
  5
2F6
330
74
100
AcDbEntity
  8
1
100
AcDbCircle
 10
-1292.656485
 20
204.26173
 30
0.0
 40
96.70865499999999
100
AcDbArc
 50
104.0635460000004
 51
255.9364539999996
  0
ARC
  5
2F7
330
74
100
AcDbEntity
  8
1
100
AcDbCircle
 10
-1292.656485
 20
204.26173
 30
0.0
 40
96.70865499999999
100
AcDbArc
 50
284.0635460000004
 51
75.93645399999958
  0
ARC
  5
2F8
330
74
100
AcDbEntity
  8
1
100
AcDbCircle
 10
-1292.28008
 20
204.172035
 30
0.0
 40
100.2
100
AcDbArc
 50
76.70743399999937
 51
80.17988100000042
  0
ARC
  5
2F9
330
74
100
AcDbEntity
  8
1
100
AcDbCircle
 10
-1275.19042
 20
658.9172900000001
 30
0.0
 40
356.01338
100
AcDbArc
 50
269.8606169999995
 51
270.0
  0
LINE
  5
2FA
330
74
100
AcDbEntity
  8
1
100
AcDbLine
 10
-1275.19042
 20
105.61955
 30
0.0
 11
-1275.19042
 21
106.76173
 31
0.0
  0
LINE
  5
2FB
330
74
100
AcDbEntity
  8
1
100
AcDbLine
 10
-1276.056485
 20
106.76173
 30
0.0
 11
-1275.19042
 21
106.76173
 31
0.0
  0
ARC
  5
2FC
330
74
100
AcDbEntity
  8
1
100
AcDbCircle
 10
-1292.28008
 20
204.351425
 30
0.0
 40
100.2
100
AcDbArc
 50
279.8201189999996
 51
283.2925659999993
  0
ARC
  5
2FD
330
74
100
AcDbEntity
  8
1
100
AcDbCircle
 10
-1275.19042
 20
-250.39383
 30
0.0
 40
356.01338
100
AcDbArc
 50
90.0
 51
90.13938300000054
  0
ARC
  5
2FE
330
74
100
AcDbEntity
  8
1
100
AcDbCircle
 10
-1292.656485
 20
204.26173
 30
0.0
 40
95.01800000000001
100
AcDbArc
 50
104.3190719999999
 51
255.6809280000001
  0
ARC
  5
2FF
330
74
100
AcDbEntity
  8
1
100
AcDbCircle
 10
-1292.656485
 20
204.26173
 30
0.0
 40
95.01800000000001
100
AcDbArc
 50
284.5455139999998
 51
75.45448600000027
  0
LINE
  5
300
330
74
100
AcDbEntity
  8
1
  6
CENTER
 62
     2
100
AcDbLine
 10
-1304.056485
 20
265.11955
 30
0.0
 11
-1304.056485
 21
279.62483
 31
0.0
  0
LINE
  5
301
330
74
100
AcDbEntity
  8
1
  6
CENTER
 62
     2
100
AcDbLine
 10
-1312.151655
 20
272.27023
 30
0.0
 11
-1296.062975
 21
272.27023
 31
0.0
  0
LINE
  5
302
330
74
100
AcDbEntity
  8
1
  6
CENTER
 62
     2
100
AcDbLine
 10
-1298.04894
 20
136.25323
 30
0.0
 11
-1282.01055
 21
136.25323
 31
0.0
  0
LINE
  5
303
330
74
100
AcDbEntity
  8
1
100
AcDbLine
 10
-1424.156485
 20
897.4617300000002
 30
0.0
 11
-1377.97122
 21
897.4617300000002
 31
0.0
  0
LINE
  5
304
330
74
100
AcDbEntity
  8
1
  6
DASHED
100
AcDbLine
 10
-1377.97122
 20
897.4617300000002
 30
0.0
 11
-1352.014765
 21
897.4617300000002
 31
0.0
  0
LINE
  5
305
330
74
100
AcDbEntity
  8
1
100
AcDbLine
 10
-1398.892075
 20
875.4617299999999
 30
0.0
 11
-1384.019245
 21
875.4617299999999
 31
0.0
  0
LINE
  5
306
330
74
100
AcDbEntity
  8
1
  6
DASHED
100
AcDbLine
 10
-1384.019245
 20
875.4617299999999
 30
0.0
 11
-1352.556485
 21
875.4617299999999
 31
0.0
  0
LINE
  5
307
330
74
100
AcDbEntity
  8
1
  6
DASHED
100
AcDbLine
 10
-1352.556485
 20
870.1841599999998
 30
0.0
 11
-1384.655215
 21
870.1841599999998
 31
0.0
  0
LINE
  5
308
330
74
100
AcDbEntity
  8
1
100
AcDbLine
 10
-1384.655215
 20
870.1841599999998
 30
0.0
 11
-1406.84914
 21
870.1841599999998
 31
0.0
  0
LINE
  5
309
330
74
100
AcDbEntity
  8
1
  6
DASHED
100
AcDbLine
 10
-1352.556485
 20
855.7392999999999
 30
0.0
 11
-1384.88398
 21
855.7392999999999
 31
0.0
  0
LINE
  5
30A
330
74
100
AcDbEntity
  8
1
100
AcDbLine
 10
-1384.88398
 20
855.7392999999999
 30
0.0
 11
-1406.84914
 21
855.7392999999999
 31
0.0
  0
LINE
  5
30B
330
74
100
AcDbEntity
  8
1
100
AcDbLine
 10
-1410.327835
 20
850.4617299999999
 30
0.0
 11
-1384.417495
 21
850.4617299999999
 31
0.0
  0
LINE
  5
30C
330
74
100
AcDbEntity
  8
1
  6
DASHED
100
AcDbLine
 10
-1384.417495
 20
850.4617299999999
 30
0.0
 11
-1352.556485
 21
850.4617299999999
 31
0.0
  0
LINE
  5
30D
330
74
100
AcDbEntity
  8
1
100
AcDbLine
 10
-1424.156485
 20
835.4617299999999
 30
0.0
 11
-1381.42935
 21
835.4617299999999
 31
0.0
  0
LINE
  5
30E
330
74
100
AcDbEntity
  8
1
  6
DASHED
100
AcDbLine
 10
-1381.42935
 20
835.4617299999999
 30
0.0
 11
-1352.556485
 21
835.4617299999999
 31
0.0
  0
LINE
  5
30F
330
74
100
AcDbEntity
  8
1
100
AcDbLine
 10
-1161.156485
 20
897.4617300000002
 30
0.0
 11
-1202.141755
 21
897.4617300000002
 31
0.0
  0
LINE
  5
310
330
74
100
AcDbEntity
  8
1
  6
DASHED
100
AcDbLine
 10
-1202.141755
 20
897.4617300000002
 30
0.0
 11
-1228.098205
 21
897.4617300000002
 31
0.0
  0
LINE
  5
311
330
74
100
AcDbEntity
  8
1
100
AcDbLine
 10
-1186.4209
 20
875.4617299999999
 30
0.0
 11
-1194.056485
 21
875.4617299999999
 31
0.0
  0
LINE
  5
312
330
74
100
AcDbEntity
  8
1
  6
DASHED
100
AcDbLine
 10
-1194.056485
 20
875.4617299999999
 30
0.0
 11
-1227.556485
 21
875.4617299999999
 31
0.0
  0
LINE
  5
313
330
74
100
AcDbEntity
  8
1
  6
DASHED
100
AcDbLine
 10
-1227.556485
 20
870.1841599999998
 30
0.0
 11
-1194.056485
 21
870.1841599999998
 31
0.0
  0
LINE
  5
314
330
74
100
AcDbEntity
  8
1
100
AcDbLine
 10
-1194.056485
 20
870.1841599999998
 30
0.0
 11
-1178.46383
 21
870.1841599999998
 31
0.0
  0
LINE
  5
315
330
74
100
AcDbEntity
  8
1
  6
DASHED
100
AcDbLine
 10
-1227.556485
 20
855.7392999999999
 30
0.0
 11
-1194.056485
 21
855.7392999999999
 31
0.0
  0
LINE
  5
316
330
74
100
AcDbEntity
  8
1
100
AcDbLine
 10
-1194.056485
 20
855.7392999999999
 30
0.0
 11
-1178.46383
 21
855.7392999999999
 31
0.0
  0
LINE
  5
317
330
74
100
AcDbEntity
  8
1
100
AcDbLine
 10
-1174.98514
 20
850.4617299999999
 30
0.0
 11
-1194.056485
 21
850.4617299999999
 31
0.0
  0
LINE
  5
318
330
74
100
AcDbEntity
  8
1
  6
DASHED
100
AcDbLine
 10
-1194.056485
 20
850.4617299999999
 30
0.0
 11
-1227.556485
 21
850.4617299999999
 31
0.0
  0
LINE
  5
319
330
74
100
AcDbEntity
  8
1
100
AcDbLine
 10
-1161.156485
 20
835.4617299999999
 30
0.0
 11
-1194.056485
 21
835.4617299999999
 31
0.0
  0
LINE
  5
31A
330
74
100
AcDbEntity
  8
1
  6
DASHED
100
AcDbLine
 10
-1194.056485
 20
835.4617299999999
 30
0.0
 11
-1227.556485
 21
835.4617299999999
 31
0.0
  0
LINE
  5
31B
330
74
100
AcDbEntity
  8
1
  6
CENTER
 62
     2
100
AcDbLine
 10
-619.78853
 20
-6.60514999999998
 30
0.0
 11
-619.78853
 21
574.442115
 31
0.0
  0
LINE
  5
31C
330
74
100
AcDbEntity
  8
1
100
AcDbLine
 10
-682.28853
 20
439.26173
 30
0.0
 11
-557.28853
 21
439.26173
 31
0.0
  0
LINE
  5
31D
330
74
100
AcDbEntity
  8
1
  6
CENTER
 62
     2
100
AcDbLine
 10
-575.5935299999999
 20
482.44252
 30
0.0
 11
-575.5935299999999
 21
412.99832
 31
0.0
  0
LINE
  5
31E
330
74
100
AcDbEntity
  8
1
  6
CENTER
 62
     2
100
AcDbLine
 10
-663.9835299999998
 20
482.44252
 30
0.0
 11
-663.9835299999998
 21
412.99832
 31
0.0
  0
LINE
  5
31F
330
74
100
AcDbEntity
  8
1
  6
CENTER
 62
     2
100
AcDbLine
 10
-672.8666399999998
 20
204.26173
 30
0.0
 11
-555.89414
 21
204.26173
 31
0.0
  0
LINE
  5
320
330
74
100
AcDbEntity
  8
1
100
AcDbLine
 10
-583.78853
 20
335.7617300000001
 30
0.0
 11
-583.78853
 21
72.76173
 31
0.0
  0
LINE
  5
321
330
74
100
AcDbEntity
  8
1
100
AcDbLine
 10
-645.78853
 20
335.7617300000001
 30
0.0
 11
-645.78853
 21
72.76173
 31
0.0
  0
LINE
  5
322
330
74
100
AcDbEntity
  8
1
100
AcDbLine
 10
-586.78853
 20
335.7617300000001
 30
0.0
 11
-583.78853
 21
335.7617300000001
 31
0.0
  0
LINE
  5
323
330
74
100
AcDbEntity
  8
1
100
AcDbLine
 10
-586.78853
 20
72.76173
 30
0.0
 11
-583.78853
 21
72.76173
 31
0.0
  0
ARC
  5
324
330
74
100
AcDbEntity
  8
1
100
AcDbCircle
 10
-658.344745
 20
253.627895
 30
0.0
 40
28.466135
100
AcDbArc
 50
0.0
 51
14.52579799999988
  0
ARC
  5
325
330
74
100
AcDbEntity
  8
1
100
AcDbCircle
 10
-646.1179899999998
 20
253.627895
 30
0.0
 40
16.239385
100
AcDbArc
 50
340.728974
 51
0.0
  0
ARC
  5
326
330
74
100
AcDbEntity
  8
1
100
AcDbCircle
 10
-578.23232
 20
253.627895
 30
0.0
 40
28.466135
100
AcDbArc
 50
165.4742020000001
 51
180.0
  0
ARC
  5
327
330
74
100
AcDbEntity
  8
1
100
AcDbCircle
 10
-590.4590749999998
 20
253.627895
 30
0.0
 40
16.239385
100
AcDbArc
 50
180.0
 51
199.2710259999999
  0
LINE
  5
328
330
74
100
AcDbEntity
  8
1
100
AcDbLine
 10
-645.78853
 20
260.767655
 30
0.0
 11
-630.78853
 21
260.767655
 31
0.0
  0
LINE
  5
329
330
74
100
AcDbEntity
  8
1
100
AcDbLine
 10
-588.78853
 20
260.767655
 30
0.0
 11
-583.78853
 21
260.767655
 31
0.0
  0
LINE
  5
32A
330
74
100
AcDbEntity
  8
1
100
AcDbLine
 10
-645.78853
 20
248.268295
 30
0.0
 11
-630.78853
 21
248.268295
 31
0.0
  0
LINE
  5
32B
330
74
100
AcDbEntity
  8
1
100
AcDbLine
 10
-605.78853
 20
248.268295
 30
0.0
 11
-583.78853
 21
248.268295
 31
0.0
  0
LINE
  5
32C
330
74
100
AcDbEntity
  8
1
100
AcDbLine
 10
-622.78853
 20
214.26173
 30
0.0
 11
-613.78853
 21
214.26173
 31
0.0
  0
LINE
  5
32D
330
74
100
AcDbEntity
  8
1
100
AcDbLine
 10
-605.78853
 20
222.26173
 30
0.0
 11
-605.78853
 21
248.268295
 31
0.0
  0
LINE
  5
32E
330
74
100
AcDbEntity
  8
1
100
AcDbLine
 10
-625.5109649999998
 20
235.737945
 30
0.0
 11
-625.5109649999998
 21
302.63715
 31
0.0
  0
LINE
  5
32F
330
74
100
AcDbEntity
  8
1
100
AcDbLine
 10
-630.78853
 20
222.26173
 30
0.0
 11
-630.78853
 21
248.268295
 31
0.0
  0
LINE
  5
330
330
74
100
AcDbEntity
  8
1
100
AcDbLine
 10
-611.0661
 20
235.737945
 30
0.0
 11
-611.0661
 21
302.63715
 31
0.0
  0
ARC
  5
331
330
74
100
AcDbEntity
  8
1
100
AcDbCircle
 10
-613.78853
 20
222.26173
 30
0.0
 40
8.0
100
AcDbArc
 50
270.0
 51
0.0
  0
ARC
  5
332
330
74
100
AcDbEntity
  8
1
100
AcDbCircle
 10
-622.78853
 20
222.26173
 30
0.0
 40
8.0
100
AcDbArc
 50
180.0
 51
270.0
  0
LINE
  5
333
330
74
100
AcDbEntity
  8
1
100
AcDbLine
 10
-619.5109649999998
 20
229.737945
 30
0.0
 11
-617.0660999999999
 21
229.737945
 31
0.0
  0
ARC
  5
334
330
74
100
AcDbEntity
  8
1
100
AcDbCircle
 10
-617.0660999999999
 20
235.737945
 30
0.0
 40
6.0
100
AcDbArc
 50
270.0
 51
0.0
  0
ARC
  5
335
330
74
100
AcDbEntity
  8
1
100
AcDbCircle
 10
-619.5109649999998
 20
235.737945
 30
0.0
 40
6.0
100
AcDbArc
 50
180.0
 51
270.0
  0
LINE
  5
336
330
74
100
AcDbEntity
  8
1
100
AcDbLine
 10
-611.0661
 20
229.737945
 30
0.0
 11
-608.516625
 21
222.26173
 31
0.0
  0
LINE
  5
337
330
74
100
AcDbEntity
  8
1
100
AcDbLine
 10
-628.0604399999998
 20
222.26173
 30
0.0
 11
-625.5109649999998
 21
229.737945
 31
0.0
  0
LINE
  5
338
330
74
100
AcDbEntity
  8
1
100
AcDbLine
 10
-595.86553
 20
271.465555
 30
0.0
 11
-593.78853
 21
271.465555
 31
0.0
  0
LINE
  5
339
330
74
100
AcDbEntity
  8
1
100
AcDbLine
 10
-591.78853
 20
282.93015
 30
0.0
 11
-591.78853
 21
260.45917
 31
0.0
  0
ARC
  5
33A
330
74
100
AcDbEntity
  8
1
100
AcDbCircle
 10
-593.78853
 20
279.7617299999999
 30
0.0
 40
2.0
100
AcDbArc
 50
0.0
 51
90.0
  0
ARC
  5
33B
330
74
100
AcDbEntity
  8
1
100
AcDbCircle
 10
-593.78853
 20
273.465555
 30
0.0
 40
2.0
100
AcDbArc
 50
270.0
 51
0.0
  0
LINE
  5
33C
330
74
100
AcDbEntity
  8
1
100
AcDbLine
 10
-601.6201099999999
 20
285.93015
 30
0.0
 11
-591.78853
 21
285.93015
 31
0.0
  0
ARC
  5
33D
330
74
100
AcDbEntity
  8
1
100
AcDbCircle
 10
-588.78853
 20
260.45917
 30
0.0
 40
3.0
100
AcDbArc
 50
180.0
 51
270.0
  0
ARC
  5
33E
330
74
100
AcDbEntity
  8
1
100
AcDbCircle
 10
-588.78853
 20
282.93015
 30
0.0
 40
3.0
100
AcDbArc
 50
90.0
 51
180.0
  0
LINE
  5
33F
330
74
100
AcDbEntity
  8
1
100
AcDbLine
 10
-597.86553
 20
279.7617299999999
 30
0.0
 11
-597.86553
 21
273.465555
 31
0.0
  0
ARC
  5
340
330
74
100
AcDbEntity
  8
1
100
AcDbCircle
 10
-595.86553
 20
279.7617299999999
 30
0.0
 40
2.0
100
AcDbArc
 50
90.0
 51
180.0
  0
ARC
  5
341
330
74
100
AcDbEntity
  8
1
100
AcDbCircle
 10
-595.86553
 20
273.465555
 30
0.0
 40
2.0
100
AcDbArc
 50
180.0
 51
270.0
  0
ARC
  5
342
330
74
100
AcDbEntity
  8
1
100
AcDbCircle
 10
-601.6201099999999
 20
285.93015
 30
0.0
 40
4.168419999999999
100
AcDbArc
 50
180.0
 51
270.0
  0
LINE
  5
343
330
74
100
AcDbEntity
  8
1
100
AcDbLine
 10
-597.86553
 20
271.465555
 30
0.0
 11
-605.78853
 21
260.767655
 31
0.0
  0
LINE
  5
344
330
74
100
AcDbEntity
  8
1
100
AcDbLine
 10
-605.78853
 20
257.45917
 30
0.0
 11
-591.78853
 21
257.45917
 31
0.0
  0
LINE
  5
345
330
74
100
AcDbEntity
  8
1
100
AcDbLine
 10
-601.6201099999999
 20
281.7617299999999
 30
0.0
 11
-597.86553
 21
281.7617299999999
 31
0.0
  0
LINE
  5
346
330
74
100
AcDbEntity
  8
1
100
AcDbLine
 10
-595.86553
 20
281.7617299999999
 30
0.0
 11
-593.78853
 21
281.7617299999999
 31
0.0
  0
ARC
  5
347
330
74
100
AcDbEntity
  8
1
100
AcDbCircle
 10
-642.6666349999999
 20
323.44219
 30
0.0
 40
12.78803
100
AcDbArc
 50
0.0
 51
21.74443699999963
  0
ARC
  5
348
330
74
100
AcDbEntity
  8
1
100
AcDbCircle
 10
-593.910425
 20
323.44219
 30
0.0
 40
12.78803
100
AcDbArc
 50
158.2555630000003
 51
180.0
  0
ARC
  5
349
330
74
100
AcDbEntity
  8
1
100
AcDbCircle
 10
-630.7128650000001
 20
323.44219
 30
0.0
 40
0.83426
100
AcDbArc
 50
264.7961539999997
 51
0.0
  0
ARC
  5
34A
330
74
100
AcDbEntity
  8
1
100
AcDbCircle
 10
-605.8641999999998
 20
323.44219
 30
0.0
 40
0.83426
100
AcDbArc
 50
180.0
 51
275.2038460000003
  0
LINE
  5
34B
330
74
100
AcDbEntity
  8
1
100
AcDbLine
 10
-645.78853
 20
322.6113699999999
 30
0.0
 11
-630.78853
 21
322.6113699999999
 31
0.0
  0
LINE
  5
34C
330
74
100
AcDbEntity
  8
1
100
AcDbLine
 10
-605.78853
 20
322.6113699999999
 30
0.0
 11
-583.78853
 21
322.6113699999999
 31
0.0
  0
LINE
  5
34D
330
74
100
AcDbEntity
  8
1
100
AcDbLine
 10
-630.78853
 20
260.767655
 30
0.0
 11
-630.78853
 21
322.6113699999999
 31
0.0
  0
LINE
  5
34E
330
74
100
AcDbEntity
  8
1
100
AcDbLine
 10
-645.78853
 20
328.179735
 30
0.0
 11
-630.78853
 21
328.179735
 31
0.0
  0
LINE
  5
34F
330
74
100
AcDbEntity
  8
1
100
AcDbLine
 10
-605.78853
 20
328.179735
 30
0.0
 11
-583.78853
 21
328.179735
 31
0.0
  0
LINE
  5
350
330
74
100
AcDbEntity
  8
1
100
AcDbLine
 10
-605.78853
 20
285.93015
 30
0.0
 11
-605.78853
 21
322.6113699999999
 31
0.0
  0
LINE
  5
351
330
74
100
AcDbEntity
  8
1
100
AcDbLine
 10
-619.5109649999998
 20
308.63715
 30
0.0
 11
-617.0660999999999
 21
308.63715
 31
0.0
  0
ARC
  5
352
330
74
100
AcDbEntity
  8
1
100
AcDbCircle
 10
-617.0660999999999
 20
302.63715
 30
0.0
 40
6.0
100
AcDbArc
 50
0.0
 51
90.0
  0
ARC
  5
353
330
74
100
AcDbEntity
  8
1
100
AcDbCircle
 10
-619.5109649999998
 20
302.63715
 30
0.0
 40
6.0
100
AcDbArc
 50
90.0
 51
180.0
  0
ARC
  5
354
330
74
100
AcDbEntity
  8
1
100
AcDbCircle
 10
-630.0926099999998
 20
328.457305
 30
0.0
 40
0.7492350000000001
100
AcDbArc
 50
90.0
 51
201.7444369999996
  0
ARC
  5
355
330
74
100
AcDbEntity
  8
1
100
AcDbCircle
 10
-606.484455
 20
328.457305
 30
0.0
 40
0.7492350000000001
100
AcDbArc
 50
338.2555630000004
 51
90.0
  0
LINE
  5
356
330
74
100
AcDbEntity
  8
1
100
AcDbLine
 10
-608.516625
 20
318.573765
 30
0.0
 11
-611.0661
 21
308.63715
 31
0.0
  0
LINE
  5
357
330
74
100
AcDbEntity
  8
1
100
AcDbLine
 10
-628.0604399999998
 20
318.573765
 30
0.0
 11
-625.5109649999998
 21
308.63715
 31
0.0
  0
ARC
  5
358
330
74
100
AcDbEntity
  8
1
100
AcDbCircle
 10
-658.344745
 20
154.89557
 30
0.0
 40
28.466135
100
AcDbArc
 50
345.4742020000002
 51
0.0
  0
ARC
  5
359
330
74
100
AcDbEntity
  8
1
100
AcDbCircle
 10
-646.1179899999998
 20
154.89557
 30
0.0
 40
16.239385
100
AcDbArc
 50
0.0
 51
19.27102599999997
  0
ARC
  5
35A
330
74
100
AcDbEntity
  8
1
100
AcDbCircle
 10
-578.23232
 20
154.89557
 30
0.0
 40
28.466135
100
AcDbArc
 50
180.0
 51
194.5257979999999
  0
ARC
  5
35B
330
74
100
AcDbEntity
  8
1
100
AcDbCircle
 10
-590.4590749999998
 20
154.89557
 30
0.0
 40
16.239385
100
AcDbArc
 50
160.728974
 51
180.0
  0
LINE
  5
35C
330
74
100
AcDbEntity
  8
1
100
AcDbLine
 10
-645.78853
 20
147.75581
 30
0.0
 11
-630.78853
 21
147.75581
 31
0.0
  0
LINE
  5
35D
330
74
100
AcDbEntity
  8
1
100
AcDbLine
 10
-588.78853
 20
147.75581
 30
0.0
 11
-583.78853
 21
147.75581
 31
0.0
  0
LINE
  5
35E
330
74
100
AcDbEntity
  8
1
100
AcDbLine
 10
-645.78853
 20
160.255165
 30
0.0
 11
-630.78853
 21
160.255165
 31
0.0
  0
LINE
  5
35F
330
74
100
AcDbEntity
  8
1
100
AcDbLine
 10
-605.78853
 20
160.255165
 30
0.0
 11
-583.78853
 21
160.255165
 31
0.0
  0
LINE
  5
360
330
74
100
AcDbEntity
  8
1
100
AcDbLine
 10
-622.78853
 20
194.26173
 30
0.0
 11
-613.78853
 21
194.26173
 31
0.0
  0
LINE
  5
361
330
74
100
AcDbEntity
  8
1
100
AcDbLine
 10
-605.78853
 20
186.2617299999999
 30
0.0
 11
-605.78853
 21
160.255165
 31
0.0
  0
LINE
  5
362
330
74
100
AcDbEntity
  8
1
100
AcDbLine
 10
-625.5109649999998
 20
172.785515
 30
0.0
 11
-625.5109649999998
 21
105.8863099999999
 31
0.0
  0
LINE
  5
363
330
74
100
AcDbEntity
  8
1
100
AcDbLine
 10
-630.78853
 20
186.2617299999999
 30
0.0
 11
-630.78853
 21
160.255165
 31
0.0
  0
LINE
  5
364
330
74
100
AcDbEntity
  8
1
100
AcDbLine
 10
-611.0661
 20
172.785515
 30
0.0
 11
-611.0661
 21
105.8863099999999
 31
0.0
  0
ARC
  5
365
330
74
100
AcDbEntity
  8
1
100
AcDbCircle
 10
-613.78853
 20
186.2617299999999
 30
0.0
 40
8.0
100
AcDbArc
 50
0.0
 51
90.0
  0
ARC
  5
366
330
74
100
AcDbEntity
  8
1
100
AcDbCircle
 10
-622.78853
 20
186.2617299999999
 30
0.0
 40
8.0
100
AcDbArc
 50
90.0
 51
180.0
  0
LINE
  5
367
330
74
100
AcDbEntity
  8
1
100
AcDbLine
 10
-619.5109649999998
 20
178.785515
 30
0.0
 11
-617.0660999999999
 21
178.785515
 31
0.0
  0
ARC
  5
368
330
74
100
AcDbEntity
  8
1
100
AcDbCircle
 10
-617.0660999999999
 20
172.785515
 30
0.0
 40
6.0
100
AcDbArc
 50
0.0
 51
90.0
  0
ARC
  5
369
330
74
100
AcDbEntity
  8
1
100
AcDbCircle
 10
-619.5109649999998
 20
172.785515
 30
0.0
 40
6.0
100
AcDbArc
 50
90.0
 51
180.0
  0
LINE
  5
36A
330
74
100
AcDbEntity
  8
1
100
AcDbLine
 10
-611.0661
 20
178.785515
 30
0.0
 11
-608.516625
 21
186.2617299999999
 31
0.0
  0
LINE
  5
36B
330
74
100
AcDbEntity
  8
1
100
AcDbLine
 10
-628.0604399999998
 20
186.2617299999999
 30
0.0
 11
-625.5109649999998
 21
178.785515
 31
0.0
  0
LINE
  5
36C
330
74
100
AcDbEntity
  8
1
100
AcDbLine
 10
-595.86553
 20
137.057905
 30
0.0
 11
-593.78853
 21
137.057905
 31
0.0
  0
LINE
  5
36D
330
74
100
AcDbEntity
  8
1
100
AcDbLine
 10
-591.78853
 20
125.59331
 30
0.0
 11
-591.78853
 21
148.0642899999999
 31
0.0
  0
ARC
  5
36E
330
74
100
AcDbEntity
  8
1
100
AcDbCircle
 10
-593.78853
 20
128.7617299999999
 30
0.0
 40
2.0
100
AcDbArc
 50
270.0
 51
0.0
  0
ARC
  5
36F
330
74
100
AcDbEntity
  8
1
100
AcDbCircle
 10
-593.78853
 20
135.057905
 30
0.0
 40
2.0
100
AcDbArc
 50
0.0
 51
90.0
  0
LINE
  5
370
330
74
100
AcDbEntity
  8
1
100
AcDbLine
 10
-601.6201099999999
 20
122.5933099999999
 30
0.0
 11
-591.78853
 21
122.5933099999999
 31
0.0
  0
ARC
  5
371
330
74
100
AcDbEntity
  8
1
100
AcDbCircle
 10
-588.78853
 20
148.0642899999999
 30
0.0
 40
3.0
100
AcDbArc
 50
90.0
 51
180.0
  0
ARC
  5
372
330
74
100
AcDbEntity
  8
1
100
AcDbCircle
 10
-588.78853
 20
125.59331
 30
0.0
 40
3.0
100
AcDbArc
 50
180.0
 51
270.0
  0
LINE
  5
373
330
74
100
AcDbEntity
  8
1
100
AcDbLine
 10
-597.86553
 20
128.7617299999999
 30
0.0
 11
-597.86553
 21
135.057905
 31
0.0
  0
ARC
  5
374
330
74
100
AcDbEntity
  8
1
100
AcDbCircle
 10
-595.86553
 20
128.7617299999999
 30
0.0
 40
2.0
100
AcDbArc
 50
180.0
 51
270.0
  0
ARC
  5
375
330
74
100
AcDbEntity
  8
1
100
AcDbCircle
 10
-595.86553
 20
135.057905
 30
0.0
 40
2.0
100
AcDbArc
 50
90.0
 51
180.0
  0
ARC
  5
376
330
74
100
AcDbEntity
  8
1
100
AcDbCircle
 10
-601.6201099999999
 20
122.5933099999999
 30
0.0
 40
4.168419999999999
100
AcDbArc
 50
90.0
 51
180.0
  0
LINE
  5
377
330
74
100
AcDbEntity
  8
1
100
AcDbLine
 10
-597.86553
 20
137.057905
 30
0.0
 11
-605.78853
 21
147.75581
 31
0.0
  0
LINE
  5
378
330
74
100
AcDbEntity
  8
1
100
AcDbLine
 10
-605.78853
 20
151.06429
 30
0.0
 11
-591.78853
 21
151.06429
 31
0.0
  0
LINE
  5
379
330
74
100
AcDbEntity
  8
1
100
AcDbLine
 10
-601.6201099999999
 20
126.76173
 30
0.0
 11
-597.86553
 21
126.76173
 31
0.0
  0
LINE
  5
37A
330
74
100
AcDbEntity
  8
1
100
AcDbLine
 10
-595.86553
 20
126.76173
 30
0.0
 11
-593.78853
 21
126.76173
 31
0.0
  0
ARC
  5
37B
330
74
100
AcDbEntity
  8
1
100
AcDbCircle
 10
-642.6666349999999
 20
85.08127000000001
 30
0.0
 40
12.78803
100
AcDbArc
 50
338.2555630000004
 51
0.0
  0
ARC
  5
37C
330
74
100
AcDbEntity
  8
1
100
AcDbCircle
 10
-593.910425
 20
85.08127000000001
 30
0.0
 40
12.78803
100
AcDbArc
 50
180.0
 51
201.7444369999996
  0
ARC
  5
37D
330
74
100
AcDbEntity
  8
1
100
AcDbCircle
 10
-630.7128650000001
 20
85.08127000000001
 30
0.0
 40
0.83426
100
AcDbArc
 50
0.0
 51
95.20384600000031
  0
ARC
  5
37E
330
74
100
AcDbEntity
  8
1
100
AcDbCircle
 10
-605.8641999999998
 20
85.08127000000001
 30
0.0
 40
0.83426
100
AcDbArc
 50
84.79615399999969
 51
180.0
  0
LINE
  5
37F
330
74
100
AcDbEntity
  8
1
100
AcDbLine
 10
-645.78853
 20
85.91209000000004
 30
0.0
 11
-630.78853
 21
85.91209000000004
 31
0.0
  0
LINE
  5
380
330
74
100
AcDbEntity
  8
1
100
AcDbLine
 10
-605.78853
 20
85.91209000000004
 30
0.0
 11
-583.78853
 21
85.91209000000004
 31
0.0
  0
LINE
  5
381
330
74
100
AcDbEntity
  8
1
100
AcDbLine
 10
-630.78853
 20
147.75581
 30
0.0
 11
-630.78853
 21
85.91209000000004
 31
0.0
  0
LINE
  5
382
330
74
100
AcDbEntity
  8
1
100
AcDbLine
 10
-645.78853
 20
80.34372499999994
 30
0.0
 11
-630.78853
 21
80.34372499999994
 31
0.0
  0
LINE
  5
383
330
74
100
AcDbEntity
  8
1
100
AcDbLine
 10
-605.78853
 20
80.34372499999994
 30
0.0
 11
-583.78853
 21
80.34372499999994
 31
0.0
  0
LINE
  5
384
330
74
100
AcDbEntity
  8
1
100
AcDbLine
 10
-605.78853
 20
122.5933099999999
 30
0.0
 11
-605.78853
 21
85.91209000000004
 31
0.0
  0
LINE
  5
385
330
74
100
AcDbEntity
  8
1
100
AcDbLine
 10
-619.5109649999998
 20
99.88630999999998
 30
0.0
 11
-617.0660999999999
 21
99.88630999999998
 31
0.0
  0
ARC
  5
386
330
74
100
AcDbEntity
  8
1
100
AcDbCircle
 10
-617.0660999999999
 20
105.8863099999999
 30
0.0
 40
6.0
100
AcDbArc
 50
270.0
 51
0.0
  0
ARC
  5
387
330
74
100
AcDbEntity
  8
1
100
AcDbCircle
 10
-619.5109649999998
 20
105.8863099999999
 30
0.0
 40
6.0
100
AcDbArc
 50
180.0
 51
270.0
  0
ARC
  5
388
330
74
100
AcDbEntity
  8
1
100
AcDbCircle
 10
-630.0926099999998
 20
80.06615500000005
 30
0.0
 40
0.7492350000000001
100
AcDbArc
 50
158.2555630000003
 51
270.0
  0
ARC
  5
389
330
74
100
AcDbEntity
  8
1
100
AcDbCircle
 10
-606.484455
 20
80.06615500000005
 30
0.0
 40
0.7492350000000001
100
AcDbArc
 50
270.0
 51
21.74443699999963
  0
LINE
  5
38A
330
74
100
AcDbEntity
  8
1
100
AcDbLine
 10
-608.516625
 20
89.94969499999996
 30
0.0
 11
-611.0661
 21
99.88630999999998
 31
0.0
  0
LINE
  5
38B
330
74
100
AcDbEntity
  8
1
100
AcDbLine
 10
-628.0604399999998
 20
89.94969499999996
 30
0.0
 11
-625.5109649999998
 21
99.88630999999998
 31
0.0
  0
LINE
  5
38C
330
74
100
AcDbEntity
  8
1
100
AcDbLine
 10
-645.28853
 20
30.26173000000006
 30
0.0
 11
-585.28853
 21
30.26173000000006
 31
0.0
  0
LINE
  5
38D
330
74
100
AcDbEntity
  8
1
100
AcDbLine
 10
-677.28853
 20
424.26173
 30
0.0
 11
-562.28853
 21
424.26173
 31
0.0
  0
LINE
  5
38E
330
74
100
AcDbEntity
  8
1
100
AcDbLine
 10
-682.28853
 20
439.26173
 30
0.0
 11
-682.28853
 21
429.2617299999998
 31
0.0
  0
LINE
  5
38F
330
74
100
AcDbEntity
  8
1
100
AcDbLine
 10
-557.28853
 20
439.26173
 30
0.0
 11
-557.28853
 21
429.2617299999998
 31
0.0
  0
ARC
  5
390
330
74
100
AcDbEntity
  8
1
100
AcDbCircle
 10
-562.28853
 20
429.2617299999998
 30
0.0
 40
5.0
100
AcDbArc
 50
270.0
 51
0.0
  0
ARC
  5
391
330
74
100
AcDbEntity
  8
1
100
AcDbCircle
 10
-677.28853
 20
429.2617299999998
 30
0.0
 40
5.0
100
AcDbArc
 50
180.0
 51
270.0
  0
LINE
  5
392
330
74
100
AcDbEntity
  8
1
100
AcDbLine
 10
-594.78853
 20
414.26173
 30
0.0
 11
-594.78853
 21
339.98003
 31
0.0
  0
LINE
  5
393
330
74
100
AcDbEntity
  8
1
100
AcDbLine
 10
-644.78853
 20
414.26173
 30
0.0
 11
-644.78853
 21
400.92676
 31
0.0
  0
LINE
  5
394
330
74
100
AcDbEntity
  8
1
100
AcDbLine
 10
-642.78853
 20
394.602205
 30
0.0
 11
-642.78853
 21
334.98003
 31
0.0
  0
ARC
  5
395
330
74
100
AcDbEntity
  8
1
100
AcDbCircle
 10
-584.78853
 20
414.26173
 30
0.0
 40
10.0
100
AcDbArc
 50
90.0
 51
180.0
  0
ARC
  5
396
330
74
100
AcDbEntity
  8
1
100
AcDbCircle
 10
-654.78853
 20
414.26173
 30
0.0
 40
10.0
100
AcDbArc
 50
0.0
 51
90.0
  0
ARC
  5
397
330
74
100
AcDbEntity
  8
1
100
AcDbCircle
 10
-559.78853
 20
389.33993
 30
0.0
 40
35.0
100
AcDbArc
 50
93.58332200000052
 51
180.0
  0
ARC
  5
398
330
74
100
AcDbEntity
  8
1
100
AcDbCircle
 10
-638.78853
 20
400.92676
 30
0.0
 40
6.0
100
AcDbArc
 50
180.0
 51
215.0968010000001
  0
ARC
  5
399
330
74
100
AcDbEntity
  8
1
100
AcDbCircle
 10
-647.78853
 20
394.602205
 30
0.0
 40
5.0
100
AcDbArc
 50
0.0
 51
35.09680100000007
  0
ARC
  5
39A
330
74
100
AcDbEntity
  8
1
100
AcDbCircle
 10
-678.096515
 20
389.26989
 30
0.0
 40
35.0
100
AcDbArc
 50
16.51783799999957
 51
88.84257299999996
  0
ARC
  5
39B
330
74
100
AcDbEntity
  8
1
100
AcDbCircle
 10
-645.78853
 20
338.76173
 30
0.0
 40
3.0
100
AcDbArc
 50
270.0
 51
0.0
  0
ARC
  5
39C
330
74
100
AcDbEntity
  8
1
100
AcDbCircle
 10
-586.78853
 20
343.76173
 30
0.0
 40
8.0
100
AcDbArc
 50
180.0
 51
270.0
  0
ARC
  5
39D
330
74
100
AcDbEntity
  8
1
100
AcDbCircle
 10
-645.78853
 20
334.98003
 30
0.0
 40
3.0
100
AcDbArc
 50
270.0
 51
0.0
  0
ARC
  5
39E
330
74
100
AcDbEntity
  8
1
100
AcDbCircle
 10
-586.78853
 20
339.98003
 30
0.0
 40
8.0
100
AcDbArc
 50
180.0
 51
270.0
  0
LINE
  5
39F
330
74
100
AcDbEntity
  8
1
100
AcDbLine
 10
-623.78853
 20
408.766835
 30
0.0
 11
-615.78853
 21
408.766835
 31
0.0
  0
LINE
  5
3A0
330
74
100
AcDbEntity
  8
1
100
AcDbLine
 10
-623.78853
 20
420.26173
 30
0.0
 11
-623.78853
 21
412.766835
 31
0.0
  0
LINE
  5
3A1
330
74
100
AcDbEntity
  8
1
100
AcDbLine
 10
-615.78853
 20
420.26173
 30
0.0
 11
-615.78853
 21
412.766835
 31
0.0
  0
ARC
  5
3A2
330
74
100
AcDbEntity
  8
1
100
AcDbCircle
 10
-611.78853
 20
420.26173
 30
0.0
 40
4.0
100
AcDbArc
 50
90.0
 51
180.0
  0
ARC
  5
3A3
330
74
100
AcDbEntity
  8
1
100
AcDbCircle
 10
-611.78853
 20
412.766835
 30
0.0
 40
4.0
100
AcDbArc
 50
180.0
 51
270.0
  0
ARC
  5
3A4
330
74
100
AcDbEntity
  8
1
100
AcDbCircle
 10
-627.78853
 20
420.26173
 30
0.0
 40
4.0
100
AcDbArc
 50
0.0
 51
90.0
  0
ARC
  5
3A5
330
74
100
AcDbEntity
  8
1
100
AcDbCircle
 10
-627.78853
 20
412.766835
 30
0.0
 40
4.0
100
AcDbArc
 50
270.0
 51
0.0
  0
LINE
  5
3A6
330
74
100
AcDbEntity
  8
1
100
AcDbLine
 10
-623.78853
 20
397.6942
 30
0.0
 11
-615.78853
 21
397.6942
 31
0.0
  0
LINE
  5
3A7
330
74
100
AcDbEntity
  8
1
100
AcDbLine
 10
-634.8595299999998
 20
353.71158
 30
0.0
 11
-634.8595299999998
 21
349.6408
 31
0.0
  0
LINE
  5
3A8
330
74
100
AcDbEntity
  8
1
100
AcDbLine
 10
-604.71753
 20
353.71158
 30
0.0
 11
-604.71753
 21
349.6408
 31
0.0
  0
LINE
  5
3A9
330
74
100
AcDbEntity
  8
1
100
AcDbLine
 10
-634.8595299999998
 20
348.994955
 30
0.0
 11
-604.71753
 21
348.994955
 31
0.0
  0
ARC
  5
3AA
330
74
100
AcDbEntity
  8
1
100
AcDbCircle
 10
-629.78853
 20
353.71158
 30
0.0
 40
5.070999999999998
100
AcDbArc
 50
90.0
 51
180.0
  0
ARC
  5
3AB
330
74
100
AcDbEntity
  8
1
100
AcDbCircle
 10
-609.78853
 20
353.71158
 30
0.0
 40
5.070999999999998
100
AcDbArc
 50
0.0
 51
90.0
  0
LINE
  5
3AC
330
74
100
AcDbEntity
  8
1
100
AcDbLine
 10
-604.47853
 20
347.46758
 30
0.0
 11
-604.47853
 21
345.11169
 31
0.0
  0
ARC
  5
3AD
330
74
100
AcDbEntity
  8
1
100
AcDbCircle
 10
-629.78853
 20
345.11169
 30
0.0
 40
5.309999999999999
100
AcDbArc
 50
180.0
 51
270.0
  0
ARC
  5
3AE
330
74
100
AcDbEntity
  8
1
100
AcDbCircle
 10
-609.78853
 20
345.11169
 30
0.0
 40
5.309999999999999
100
AcDbArc
 50
270.0
 51
0.0
  0
ARC
  5
3AF
330
74
100
AcDbEntity
  8
1
100
AcDbCircle
 10
-609.4785299999998
 20
347.46758
 30
0.0
 40
5.0
100
AcDbArc
 50
0.0
 51
12.55178100000012
  0
ARC
  5
3B0
330
74
100
AcDbEntity
  8
1
100
AcDbCircle
 10
-599.71753
 20
349.6408
 30
0.0
 40
5.0
100
AcDbArc
 50
180.0
 51
192.551781
  0
LINE
  5
3B1
330
74
100
AcDbEntity
  8
1
100
AcDbLine
 10
-635.0985299999998
 20
347.46758
 30
0.0
 11
-635.0985299999998
 21
345.11169
 31
0.0
  0
ARC
  5
3B2
330
74
100
AcDbEntity
  8
1
100
AcDbCircle
 10
-630.0985299999998
 20
347.46758
 30
0.0
 40
5.0
100
AcDbArc
 50
167.4482189999999
 51
180.0
  0
ARC
  5
3B3
330
74
100
AcDbEntity
  8
1
100
AcDbCircle
 10
-639.8595299999998
 20
349.6408
 30
0.0
 40
5.0
100
AcDbArc
 50
347.4482189999998
 51
0.0
  0
LINE
  5
3B4
330
74
100
AcDbEntity
  8
1
100
AcDbLine
 10
-623.78853
 20
393.6942
 30
0.0
 11
-623.78853
 21
362.78258
 31
0.0
  0
LINE
  5
3B5
330
74
100
AcDbEntity
  8
1
100
AcDbLine
 10
-615.78853
 20
393.6942
 30
0.0
 11
-615.78853
 21
362.78258
 31
0.0
  0
ARC
  5
3B6
330
74
100
AcDbEntity
  8
1
100
AcDbCircle
 10
-611.78853
 20
393.6942
 30
0.0
 40
4.0
100
AcDbArc
 50
90.0
 51
180.0
  0
ARC
  5
3B7
330
74
100
AcDbEntity
  8
1
100
AcDbCircle
 10
-627.78853
 20
393.6942
 30
0.0
 40
4.0
100
AcDbArc
 50
0.0
 51
90.0
  0
ARC
  5
3B8
330
74
100
AcDbEntity
  8
1
100
AcDbCircle
 10
-611.78853
 20
362.78258
 30
0.0
 40
4.0
100
AcDbArc
 50
180.0
 51
270.0
  0
ARC
  5
3B9
330
74
100
AcDbEntity
  8
1
100
AcDbCircle
 10
-627.78853
 20
362.78258
 30
0.0
 40
4.0
100
AcDbArc
 50
270.0
 51
0.0
  0
LINE
  5
3BA
330
74
100
AcDbEntity
  8
1
100
AcDbLine
 10
-611.78853
 20
358.78258
 30
0.0
 11
-609.78853
 21
358.78258
 31
0.0
  0
LINE
  5
3BB
330
74
100
AcDbEntity
  8
1
100
AcDbLine
 10
-629.78853
 20
358.78258
 30
0.0
 11
-627.78853
 21
358.78258
 31
0.0
  0
LINE
  5
3BC
330
74
100
AcDbEntity
  8
1
100
AcDbLine
 10
-623.78853
 20
358.78258
 30
0.0
 11
-615.78853
 21
358.78258
 31
0.0
  0
LINE
  5
3BD
330
74
100
AcDbEntity
  8
1
100
AcDbLine
 10
-621.78853
 20
387.73824
 30
0.0
 11
-617.78853
 21
387.73824
 31
0.0
  0
LINE
  5
3BE
330
74
100
AcDbEntity
  8
1
100
AcDbLine
 10
-621.78853
 20
375.88623
 30
0.0
 11
-617.78853
 21
375.88623
 31
0.0
  0
ARC
  5
3BF
330
74
100
AcDbEntity
  8
1
100
AcDbCircle
 10
-617.78853
 20
385.73824
 30
0.0
 40
2.0
100
AcDbArc
 50
0.0
 51
90.0
  0
ARC
  5
3C0
330
74
100
AcDbEntity
  8
1
100
AcDbCircle
 10
-621.78853
 20
385.73824
 30
0.0
 40
2.0
100
AcDbArc
 50
90.0
 51
180.0
  0
ARC
  5
3C1
330
74
100
AcDbEntity
  8
1
100
AcDbCircle
 10
-621.78853
 20
377.88623
 30
0.0
 40
2.0
100
AcDbArc
 50
180.0
 51
270.0
  0
ARC
  5
3C2
330
74
100
AcDbEntity
  8
1
100
AcDbCircle
 10
-617.78853
 20
377.88623
 30
0.0
 40
2.0
100
AcDbArc
 50
270.0
 51
0.0
  0
LINE
  5
3C3
330
74
100
AcDbEntity
  8
1
100
AcDbLine
 10
-621.78853
 20
363.1558250000002
 30
0.0
 11
-617.78853
 21
363.1558250000002
 31
0.0
  0
LINE
  5
3C4
330
74
100
AcDbEntity
  8
1
100
AcDbLine
 10
-623.78853
 20
335.80169
 30
0.0
 11
-623.78853
 21
333.20654
 31
0.0
  0
LINE
  5
3C5
330
74
100
AcDbEntity
  8
1
100
AcDbLine
 10
-615.78853
 20
335.80169
 30
0.0
 11
-615.78853
 21
333.20654
 31
0.0
  0
ARC
  5
3C6
330
74
100
AcDbEntity
  8
1
100
AcDbCircle
 10
-611.78853
 20
335.80169
 30
0.0
 40
4.0
100
AcDbArc
 50
90.0
 51
180.0
  0
ARC
  5
3C7
330
74
100
AcDbEntity
  8
1
100
AcDbCircle
 10
-627.78853
 20
335.80169
 30
0.0
 40
4.0
100
AcDbArc
 50
0.0
 51
90.0
  0
LINE
  5
3C8
330
74
100
AcDbEntity
  8
1
100
AcDbLine
 10
-642.78853
 20
331.98003
 30
0.0
 11
-623.981215
 21
331.98003
 31
0.0
  0
LINE
  5
3C9
330
74
100
AcDbEntity
  8
1
100
AcDbLine
 10
-615.59585
 20
331.98003
 30
0.0
 11
-594.78853
 21
331.98003
 31
0.0
  0
ARC
  5
3CA
330
74
100
AcDbEntity
  8
1
100
AcDbCircle
 10
-611.78853
 20
333.20654
 30
0.0
 40
4.0
100
AcDbArc
 50
180.0
 51
270.0
  0
ARC
  5
3CB
330
74
100
AcDbEntity
  8
1
100
AcDbCircle
 10
-627.78853
 20
333.20654
 30
0.0
 40
4.0
100
AcDbArc
 50
270.0
 51
0.0
  0
LINE
  5
3CC
330
74
100
AcDbEntity
  8
1
100
AcDbLine
 10
-611.78853
 20
339.80169
 30
0.0
 11
-609.78853
 21
339.80169
 31
0.0
  0
LINE
  5
3CD
330
74
100
AcDbEntity
  8
1
100
AcDbLine
 10
-629.78853
 20
339.80169
 30
0.0
 11
-627.78853
 21
339.80169
 31
0.0
  0
LINE
  5
3CE
330
74
100
AcDbEntity
  8
1
100
AcDbLine
 10
-623.78853
 20
339.80169
 30
0.0
 11
-615.78853
 21
339.80169
 31
0.0
  0
LINE
  5
3CF
330
74
100
AcDbEntity
  8
1
100
AcDbLine
 10
-611.78853
 20
329.20654
 30
0.0
 11
-606.484455
 21
329.20654
 31
0.0
  0
LINE
  5
3D0
330
74
100
AcDbEntity
  8
1
100
AcDbLine
 10
-630.0926099999998
 20
329.20654
 30
0.0
 11
-627.78853
 21
329.20654
 31
0.0
  0
LINE
  5
3D1
330
74
100
AcDbEntity
  8
1
100
AcDbLine
 10
-623.78853
 20
329.20654
 30
0.0
 11
-615.78853
 21
329.20654
 31
0.0
  0
LINE
  5
3D2
330
74
100
AcDbEntity
  8
1
100
AcDbLine
 10
-621.9784099999998
 20
333.709045
 30
0.0
 11
-617.598655
 21
333.709045
 31
0.0
  0
ARC
  5
3D3
330
74
100
AcDbEntity
  8
1
100
AcDbCircle
 10
-617.598655
 20
331.709045
 30
0.0
 40
2.0
100
AcDbArc
 50
14.45280799999994
 51
90.0
  0
ARC
  5
3D4
330
74
100
AcDbEntity
  8
1
100
AcDbCircle
 10
-621.9784099999998
 20
331.709045
 30
0.0
 40
2.0
100
AcDbArc
 50
90.0
 51
165.547192
  0
LINE
  5
3D5
330
74
100
AcDbEntity
  8
1
100
AcDbLine
 10
-586.78853
 20
47.52967999999998
 30
0.0
 11
-586.78853
 21
30.26173000000006
 31
0.0
  0
LINE
  5
3D6
330
74
100
AcDbEntity
  8
1
100
AcDbLine
 10
-643.78853
 20
46.26172999999993
 30
0.0
 11
-643.78853
 21
30.26173000000006
 31
0.0
  0
LINE
  5
3D7
330
74
100
AcDbEntity
  8
1
100
AcDbLine
 10
-588.28853
 20
50.12775499999998
 30
0.0
 11
-593.28853
 21
53.01451000000003
 31
0.0
  0
LINE
  5
3D8
330
74
100
AcDbEntity
  8
1
100
AcDbLine
 10
-594.78853
 20
68.54343499999997
 30
0.0
 11
-594.78853
 21
55.61258500000001
 31
0.0
  0
LINE
  5
3D9
330
74
100
AcDbEntity
  8
1
100
AcDbLine
 10
-641.78853
 20
72.54343499999997
 30
0.0
 11
-641.78853
 21
50.73386499999998
 31
0.0
  0
ARC
  5
3DA
330
74
100
AcDbEntity
  8
1
100
AcDbCircle
 10
-589.78853
 20
47.52967999999998
 30
0.0
 40
3.0
100
AcDbArc
 50
0.0
 51
60.0000000000001
  0
ARC
  5
3DB
330
74
100
AcDbEntity
  8
1
100
AcDbCircle
 10
-640.78853
 20
46.26172999999993
 30
0.0
 40
3.0
100
AcDbArc
 50
131.8103150000002
 51
180.0
  0
ARC
  5
3DC
330
74
100
AcDbEntity
  8
1
100
AcDbCircle
 10
-644.78853
 20
50.73386499999998
 30
0.0
 40
3.0
100
AcDbArc
 50
311.8103150000002
 51
0.0
  0
ARC
  5
3DD
330
74
100
AcDbEntity
  8
1
100
AcDbCircle
 10
-591.78853
 20
55.61258500000001
 30
0.0
 40
3.0
100
AcDbArc
 50
180.0
 51
240.0000000000002
  0
ARC
  5
3DE
330
74
100
AcDbEntity
  8
1
100
AcDbCircle
 10
-586.78853
 20
64.76172999999993
 30
0.0
 40
8.0
100
AcDbArc
 50
90.0
 51
180.0
  0
ARC
  5
3DF
330
74
100
AcDbEntity
  8
1
100
AcDbCircle
 10
-645.78853
 20
68.76172999999993
 30
0.0
 40
4.0
100
AcDbArc
 50
0.0
 51
90.0
  0
ARC
  5
3E0
330
74
100
AcDbEntity
  8
1
100
AcDbCircle
 10
-645.78853
 20
72.54343499999997
 30
0.0
 40
4.0
100
AcDbArc
 50
0.0
 51
90.0
  0
ARC
  5
3E1
330
74
100
AcDbEntity
  8
1
100
AcDbCircle
 10
-586.78853
 20
68.54343499999997
 30
0.0
 40
8.0
100
AcDbArc
 50
90.0
 51
180.0
  0
LINE
  5
3E2
330
74
100
AcDbEntity
  8
1
100
AcDbLine
 10
-636.6593649999998
 20
45.60470000000004
 30
0.0
 11
-593.78853
 21
45.60470000000004
 31
0.0
  0
LINE
  5
3E3
330
74
100
AcDbEntity
  8
1
100
AcDbLine
 10
-641.78853
 20
76.54343499999997
 30
0.0
 11
-623.981215
 21
76.54343499999997
 31
0.0
  0
LINE
  5
3E4
330
74
100
AcDbEntity
  8
1
100
AcDbLine
 10
-615.59585
 20
76.54343499999997
 30
0.0
 11
-594.78853
 21
76.54343499999997
 31
0.0
  0
LINE
  5
3E5
330
74
100
AcDbEntity
  8
1
100
AcDbLine
 10
-630.0926099999998
 20
79.31691999999998
 30
0.0
 11
-627.78853
 21
79.31691999999998
 31
0.0
  0
LINE
  5
3E6
330
74
100
AcDbEntity
  8
1
100
AcDbLine
 10
-623.78853
 20
79.31691999999998
 30
0.0
 11
-615.78853
 21
79.31691999999998
 31
0.0
  0
LINE
  5
3E7
330
74
100
AcDbEntity
  8
1
100
AcDbLine
 10
-611.78853
 20
79.31691999999998
 30
0.0
 11
-606.484455
 21
79.31691999999998
 31
0.0
  0
LINE
  5
3E8
330
74
100
AcDbEntity
  8
1
100
AcDbLine
 10
-641.78853
 20
54.54322999999998
 30
0.0
 11
-594.78853
 21
54.54322999999998
 31
0.0
  0
ARC
  5
3E9
330
74
100
AcDbEntity
  8
1
100
AcDbCircle
 10
-636.6593649999998
 20
50.73386499999998
 30
0.0
 40
5.129165
100
AcDbArc
 50
180.0
 51
270.0
  0
ARC
  5
3EA
330
74
100
AcDbEntity
  8
1
100
AcDbCircle
 10
-636.78853
 20
63.72176999999999
 30
0.0
 40
5.0
100
AcDbArc
 50
90.0
 51
180.0
  0
ARC
  5
3EB
330
74
100
AcDbEntity
  8
1
100
AcDbCircle
 10
-599.78853
 20
63.72176999999999
 30
0.0
 40
5.0
100
AcDbArc
 50
0.0
 51
90.0
  0
ARC
  5
3EC
330
74
100
AcDbEntity
  8
1
100
AcDbCircle
 10
-593.78853
 20
50.60470000000004
 30
0.0
 40
5.0
100
AcDbArc
 50
270.0
 51
357.8650710000003
  0
LINE
  5
3ED
330
74
100
AcDbEntity
  8
1
100
AcDbLine
 10
-623.78853
 20
75.31691999999998
 30
0.0
 11
-623.78853
 21
72.72176999999998
 31
0.0
  0
LINE
  5
3EE
330
74
100
AcDbEntity
  8
1
100
AcDbLine
 10
-615.78853
 20
75.31691999999998
 30
0.0
 11
-615.78853
 21
72.72176999999998
 31
0.0
  0
ARC
  5
3EF
330
74
100
AcDbEntity
  8
1
100
AcDbCircle
 10
-627.78853
 20
72.72176999999998
 30
0.0
 40
4.0
100
AcDbArc
 50
270.0
 51
0.0
  0
ARC
  5
3F0
330
74
100
AcDbEntity
  8
1
100
AcDbCircle
 10
-611.78853
 20
72.72176999999998
 30
0.0
 40
4.0
100
AcDbArc
 50
180.0
 51
270.0
  0
ARC
  5
3F1
330
74
100
AcDbEntity
  8
1
100
AcDbCircle
 10
-611.78853
 20
75.31691999999998
 30
0.0
 40
4.0
100
AcDbArc
 50
90.0
 51
180.0
  0
ARC
  5
3F2
330
74
100
AcDbEntity
  8
1
100
AcDbCircle
 10
-627.78853
 20
75.31691999999998
 30
0.0
 40
4.0
100
AcDbArc
 50
0.0
 51
90.0
  0
LINE
  5
3F3
330
74
100
AcDbEntity
  8
1
100
AcDbLine
 10
-611.78853
 20
68.72176999999999
 30
0.0
 11
-599.78853
 21
68.72176999999999
 31
0.0
  0
LINE
  5
3F4
330
74
100
AcDbEntity
  8
1
100
AcDbLine
 10
-636.78853
 20
68.72176999999999
 30
0.0
 11
-627.78853
 21
68.72176999999999
 31
0.0
  0
LINE
  5
3F5
330
74
100
AcDbEntity
  8
1
100
AcDbLine
 10
-623.78853
 20
68.72176999999999
 30
0.0
 11
-615.78853
 21
68.72176999999999
 31
0.0
  0
LINE
  5
3F6
330
74
100
AcDbEntity
  8
1
100
AcDbLine
 10
-621.9784099999998
 20
74.81441499999994
 30
0.0
 11
-617.598655
 21
74.81441499999994
 31
0.0
  0
ARC
  5
3F7
330
74
100
AcDbEntity
  8
1
100
AcDbCircle
 10
-617.598655
 20
76.814415
 30
0.0
 40
2.0
100
AcDbArc
 50
270.0
 51
345.5471920000002
  0
ARC
  5
3F8
330
74
100
AcDbEntity
  8
1
100
AcDbCircle
 10
-621.9784099999998
 20
76.814415
 30
0.0
 40
2.0
100
AcDbArc
 50
194.4528079999999
 51
270.0
  0
LINE
  5
3F9
330
74
100
AcDbEntity
  8
1
  6
CENTER
 62
     2
100
AcDbLine
 10
-636.28853
 20
39.67719499999999
 30
0.0
 11
-636.28853
 21
7.923260000000027
 31
0.0
  0
LINE
  5
3FA
330
74
100
AcDbEntity
  8
1
  6
CENTER
 62
     2
100
AcDbLine
 10
-594.28853
 20
39.67719499999999
 30
0.0
 11
-594.28853
 21
7.923260000000027
 31
0.0
  0
LINE
  5
3FB
330
74
100
AcDbEntity
  8
1
100
AcDbLine
 10
-645.28853
 20
28.26172999999995
 30
0.0
 11
-585.28853
 21
28.26172999999995
 31
0.0
  0
LINE
  5
3FC
330
74
100
AcDbEntity
  8
1
100
AcDbLine
 10
-645.28853
 20
22.26172999999994
 30
0.0
 11
-585.28853
 21
22.26172999999994
 31
0.0
  0
LINE
  5
3FD
330
74
100
AcDbEntity
  8
1
100
AcDbLine
 10
-585.28853
 20
30.26173000000006
 30
0.0
 11
-585.28853
 21
22.26172999999994
 31
0.0
  0
LINE
  5
3FE
330
74
100
AcDbEntity
  8
1
100
AcDbLine
 10
-645.28853
 20
30.26173000000006
 30
0.0
 11
-645.28853
 21
22.26172999999994
 31
0.0
  0
LINE
  5
3FF
330
74
100
AcDbEntity
  8
1
100
AcDbLine
 10
-587.78853
 20
20.26173000000006
 30
0.0
 11
-587.78853
 21
14.76172999999994
 31
0.0
  0
ARC
  5
400
330
74
100
AcDbEntity
  8
1
100
AcDbCircle
 10
-591.03853
 20
22.44048999999995
 30
0.0
 40
7.67876
100
AcDbArc
 50
244.9603399999996
 51
295.0396600000004
  0
LINE
  5
401
330
74
100
AcDbEntity
  8
1
100
AcDbLine
 10
-586.58853
 20
20.26173000000006
 30
0.0
 11
-601.9885299999998
 21
20.26173000000006
 31
0.0
  0
LINE
  5
402
330
74
100
AcDbEntity
  8
1
100
AcDbLine
 10
-600.78853
 20
20.26173000000006
 30
0.0
 11
-600.78853
 21
14.76172999999994
 31
0.0
  0
LINE
  5
403
330
74
100
AcDbEntity
  8
1
100
AcDbLine
 10
-600.78853
 20
14.76172999999994
 30
0.0
 11
-587.78853
 21
14.76172999999994
 31
0.0
  0
LINE
  5
404
330
74
100
AcDbEntity
  8
1
100
AcDbLine
 10
-594.28853
 20
20.26173000000006
 30
0.0
 11
-594.28853
 21
15.48342000000002
 31
0.0
  0
ARC
  5
405
330
74
100
AcDbEntity
  8
1
100
AcDbCircle
 10
-597.53853
 20
22.44048999999995
 30
0.0
 40
7.67876
100
AcDbArc
 50
244.9603399999996
 51
295.0396600000004
  0
LINE
  5
406
330
74
100
AcDbEntity
  8
1
100
AcDbLine
 10
-586.58853
 20
22.26172999999994
 30
0.0
 11
-586.58853
 21
20.26173000000006
 31
0.0
  0
LINE
  5
407
330
74
100
AcDbEntity
  8
1
100
AcDbLine
 10
-601.9885299999998
 20
20.26173000000006
 30
0.0
 11
-601.9885299999998
 21
22.26172999999994
 31
0.0
  0
LINE
  5
408
330
74
100
AcDbEntity
  8
1
100
AcDbLine
 10
-629.78853
 20
20.26173000000006
 30
0.0
 11
-629.78853
 21
14.76172999999994
 31
0.0
  0
ARC
  5
409
330
74
100
AcDbEntity
  8
1
100
AcDbCircle
 10
-633.03853
 20
22.44048999999995
 30
0.0
 40
7.67876
100
AcDbArc
 50
244.9603399999996
 51
295.0396600000004
  0
LINE
  5
40A
330
74
100
AcDbEntity
  8
1
100
AcDbLine
 10
-628.58853
 20
20.26173000000006
 30
0.0
 11
-643.98853
 21
20.26173000000006
 31
0.0
  0
LINE
  5
40B
330
74
100
AcDbEntity
  8
1
100
AcDbLine
 10
-642.78853
 20
20.26173000000006
 30
0.0
 11
-642.78853
 21
14.76172999999994
 31
0.0
  0
LINE
  5
40C
330
74
100
AcDbEntity
  8
1
100
AcDbLine
 10
-642.78853
 20
14.76172999999994
 30
0.0
 11
-629.78853
 21
14.76172999999994
 31
0.0
  0
LINE
  5
40D
330
74
100
AcDbEntity
  8
1
100
AcDbLine
 10
-636.28853
 20
20.26173000000006
 30
0.0
 11
-636.28853
 21
15.48342000000002
 31
0.0
  0
ARC
  5
40E
330
74
100
AcDbEntity
  8
1
100
AcDbCircle
 10
-639.53853
 20
22.44048999999995
 30
0.0
 40
7.67876
100
AcDbArc
 50
244.9603399999996
 51
295.0396600000004
  0
LINE
  5
40F
330
74
100
AcDbEntity
  8
1
100
AcDbLine
 10
-628.58853
 20
22.26172999999994
 30
0.0
 11
-628.58853
 21
20.26173000000006
 31
0.0
  0
LINE
  5
410
330
74
100
AcDbEntity
  8
1
100
AcDbLine
 10
-643.98853
 20
20.26173000000006
 30
0.0
 11
-643.98853
 21
22.26172999999994
 31
0.0
  0
LINE
  5
411
330
74
100
AcDbEntity
  8
1
100
AcDbLine
 10
-602.78853
 20
439.26173
 30
0.0
 11
-602.78853
 21
445.7617299999998
 31
0.0
  0
LINE
  5
412
330
74
100
AcDbEntity
  8
1
100
AcDbLine
 10
-636.78853
 20
439.26173
 30
0.0
 11
-636.78853
 21
445.7617299999998
 31
0.0
  0
LINE
  5
413
330
74
100
AcDbEntity
  8
1
100
AcDbLine
 10
-1311.056485
 20
451.76173
 30
0.0
 11
-1269.056485
 21
451.76173
 31
0.0
  0
LINE
  5
414
330
74
100
AcDbEntity
  8
1
100
AcDbLine
 10
-1311.056485
 20
445.7617299999998
 30
0.0
 11
-1311.056485
 21
451.76173
 31
0.0
  0
LINE
  5
415
330
74
100
AcDbEntity
  8
1
100
AcDbLine
 10
-1269.056485
 20
445.7617299999998
 30
0.0
 11
-1269.056485
 21
451.76173
 31
0.0
  0
LINE
  5
416
330
74
100
AcDbEntity
  8
1
100
AcDbLine
 10
-1297.556485
 20
451.76173
 30
0.0
 11
-1297.556485
 21
457.540045
 31
0.0
  0
LINE
  5
417
330
74
100
AcDbEntity
  8
1
100
AcDbLine
 10
-1297.556485
 20
457.540045
 30
0.0
 11
-1296.306485
 21
458.2617299999998
 31
0.0
  0
LINE
  5
418
330
74
100
AcDbEntity
  8
1
100
AcDbLine
 10
-1296.306485
 20
458.2617299999998
 30
0.0
 11
-1283.806485
 21
458.2617299999998
 31
0.0
  0
LINE
  5
419
330
74
100
AcDbEntity
  8
1
100
AcDbLine
 10
-1293.806485
 20
451.76173
 30
0.0
 11
-1293.806485
 21
457.540045
 31
0.0
  0
ARC
  5
41A
330
74
100
AcDbEntity
  8
1
100
AcDbCircle
 10
-1295.681485
 20
455.129665
 30
0.0
 40
3.053774999999999
100
AcDbArc
 50
52.12112099999997
 51
127.878879
  0
LINE
  5
41B
330
74
100
AcDbEntity
  8
1
100
AcDbLine
 10
-1282.556485
 20
451.76173
 30
0.0
 11
-1282.556485
 21
457.540045
 31
0.0
  0
LINE
  5
41C
330
74
100
AcDbEntity
  8
1
100
AcDbLine
 10
-1282.556485
 20
457.540045
 30
0.0
 11
-1283.806485
 21
458.2617299999998
 31
0.0
  0
LINE
  5
41D
330
74
100
AcDbEntity
  8
1
100
AcDbLine
 10
-1286.306485
 20
451.76173
 30
0.0
 11
-1286.306485
 21
457.540045
 31
0.0
  0
ARC
  5
41E
330
74
100
AcDbEntity
  8
1
100
AcDbCircle
 10
-1284.431485
 20
455.129665
 30
0.0
 40
3.053774999999999
100
AcDbArc
 50
52.12112099999997
 51
127.878879
  0
ARC
  5
41F
330
74
100
AcDbEntity
  8
1
100
AcDbCircle
 10
-1290.056485
 20
446.93344
 30
0.0
 40
11.25
100
AcDbArc
 50
70.52878100000009
 51
109.4712230000003
  0
LINE
  5
420
330
74
100
AcDbEntity
  8
1
 62
     2
100
AcDbLine
 10
-1286.732985
 20
459.2617299999998
 30
0.0
 11
-1286.732985
 21
458.2617299999998
 31
0.0
  0
LINE
  5
421
330
74
100
AcDbEntity
  8
1
 62
     2
100
AcDbLine
 10
-1286.597685
 20
445.7617299999998
 30
0.0
 11
-1286.056485
 21
443.76173
 31
0.0
  0
LINE
  5
422
330
74
100
AcDbEntity
  8
1
 62
     2
100
AcDbLine
 10
-1286.056485
 20
441.7617299999998
 30
0.0
 11
-1286.732985
 21
439.26173
 31
0.0
  0
LINE
  5
423
330
74
100
AcDbEntity
  8
1
 62
     2
100
AcDbLine
 10
-1293.379985
 20
459.2617299999998
 30
0.0
 11
-1293.379985
 21
458.2617299999998
 31
0.0
  0
LINE
  5
424
330
74
100
AcDbEntity
  8
1
 62
     2
100
AcDbLine
 10
-1293.515285
 20
445.7617299999998
 30
0.0
 11
-1294.056485
 21
443.76173
 31
0.0
  0
LINE
  5
425
330
74
100
AcDbEntity
  8
1
 62
     2
100
AcDbLine
 10
-1294.056485
 20
441.7617299999998
 30
0.0
 11
-1293.379985
 21
439.26173
 31
0.0
  0
LINE
  5
426
330
74
100
AcDbEntity
  8
1
100
AcDbLine
 10
-1286.056485
 20
439.26173
 30
0.0
 11
-1286.056485
 21
445.7617299999998
 31
0.0
  0
LINE
  5
427
330
74
100
AcDbEntity
  8
1
100
AcDbLine
 10
-1286.056485
 20
458.2617299999998
 30
0.0
 11
-1286.056485
 21
459.2617299999998
 31
0.0
  0
LINE
  5
428
330
74
100
AcDbEntity
  8
1
100
AcDbLine
 10
-1294.056485
 20
439.26173
 30
0.0
 11
-1294.056485
 21
445.7617299999998
 31
0.0
  0
LINE
  5
429
330
74
100
AcDbEntity
  8
1
100
AcDbLine
 10
-1294.056485
 20
458.2617299999998
 30
0.0
 11
-1294.056485
 21
459.2617299999998
 31
0.0
  0
LINE
  5
42A
330
74
100
AcDbEntity
  8
1
100
AcDbLine
 10
-1273.056485
 20
439.26173
 30
0.0
 11
-1273.056485
 21
445.7617299999998
 31
0.0
  0
LINE
  5
42B
330
74
100
AcDbEntity
  8
1
100
AcDbLine
 10
-1307.056485
 20
439.26173
 30
0.0
 11
-1307.056485
 21
445.7617299999998
 31
0.0
  0
LINE
  5
42C
330
74
100
AcDbEntity
  8
1
100
AcDbLine
 10
-1304.056485
 20
451.76173
 30
0.0
 11
-1304.056485
 21
459.2617299999998
 31
0.0
  0
LINE
  5
42D
330
74
100
AcDbEntity
  8
1
100
AcDbLine
 10
-1276.056485
 20
451.76173
 30
0.0
 11
-1276.056485
 21
459.2617299999998
 31
0.0
  0
LINE
  5
42E
330
74
100
AcDbEntity
  8
1
100
AcDbLine
 10
-1269.056485
 20
445.7617299999998
 30
0.0
 11
-1311.056485
 21
445.7617299999998
 31
0.0
  0
LINE
  5
42F
330
74
100
AcDbEntity
  8
1
100
AcDbLine
 10
-639.78853
 20
445.7617299999998
 30
0.0
 11
-599.78853
 21
445.7617299999998
 31
0.0
  0
LINE
  5
430
330
74
100
AcDbEntity
  8
2
  6
CENTER
 62
     2
100
AcDbLine
 10
-1423.51259
 20
946.46173
 30
0.0
 11
-1029.46381
 21
946.46173
 31
0.0
  0
LINE
  5
431
330
74
100
AcDbEntity
  8
2
  6
CENTER
 62
     2
100
AcDbLine
 10
-1290.056485
 20
1000.21173
 30
0.0
 11
-1290.056485
 21
740.5117299999998
 31
0.0
  0
LINE
  5
432
330
74
100
AcDbEntity
  8
2
  6
CENTER
 62
     2
100
AcDbLine
 10
-1335.056485
 20
528.4499599999999
 30
0.0
 11
-1335.056485
 21
491.541695
 31
0.0
  0
LINE
  5
433
330
74
100
AcDbEntity
  8
2
  6
CENTER
 62
     2
100
AcDbLine
 10
-1245.056485
 20
528.4499599999999
 30
0.0
 11
-1245.056485
 21
491.541695
 31
0.0
  0
CIRCLE
  5
434
330
74
100
AcDbEntity
  8
2
100
AcDbCircle
 10
-1290.056485
 20
861.46173
 30
0.0
 40
95.0
  0
LINE
  5
435
330
74
100
AcDbEntity
  8
2
100
AcDbLine
 10
-1350.056485
 20
786.8628049999998
 30
0.0
 11
-1350.056485
 21
765.4617299999999
 31
0.0
  0
LINE
  5
436
330
74
100
AcDbEntity
  8
2
100
AcDbLine
 10
-1230.056485
 20
786.8628049999998
 30
0.0
 11
-1230.056485
 21
765.4617299999999
 31
0.0
  0
LINE
  5
437
330
74
100
AcDbEntity
  8
2
100
AcDbLine
 10
-1350.056485
 20
765.4617299999999
 30
0.0
 11
-1230.056485
 21
765.4617299999999
 31
0.0
  0
LINE
  5
438
330
74
100
AcDbEntity
  8
2
100
AcDbLine
 10
-1195.056485
 20
983.96173
 30
0.0
 11
-1195.056485
 21
908.96173
 31
0.0
  0
LINE
  5
439
330
74
100
AcDbEntity
  8
2
100
AcDbLine
 10
-1385.056485
 20
983.96173
 30
0.0
 11
-1385.056485
 21
908.96173
 31
0.0
  0
LINE
  5
43A
330
74
100
AcDbEntity
  8
2
100
AcDbLine
 10
-1393.556485
 20
908.96173
 30
0.0
 11
-1375.72299
 21
908.96173
 31
0.0
  0
LINE
  5
43B
330
74
100
AcDbEntity
  8
2
100
AcDbLine
 10
-1204.38998
 20
908.96173
 30
0.0
 11
-1182.556485
 21
908.96173
 31
0.0
  0
LINE
  5
43C
330
74
100
AcDbEntity
  8
2
100
AcDbLine
 10
-1393.556485
 20
983.96173
 30
0.0
 11
-1365.855035
 21
983.96173
 31
0.0
  0
LINE
  5
43D
330
74
100
AcDbEntity
  8
2
100
AcDbLine
 10
-1214.257935
 20
983.96173
 30
0.0
 11
-1182.556485
 21
983.96173
 31
0.0
  0
LINE
  5
43E
330
74
100
AcDbEntity
  8
2
100
AcDbLine
 10
-1215.056485
 20
979.3218099999998
 30
0.0
 11
-1215.056485
 21
924.3413249999999
 31
0.0
  0
LINE
  5
43F
330
74
100
AcDbEntity
  8
2
100
AcDbLine
 10
-1365.056485
 20
979.3218099999998
 30
0.0
 11
-1365.056485
 21
924.3413249999999
 31
0.0
  0
LINE
  5
440
330
74
100
AcDbEntity
  8
2
100
AcDbLine
 10
-1355.056485
 20
970.085145
 30
0.0
 11
-1355.056485
 21
934.2378250000001
 31
0.0
  0
LINE
  5
441
330
74
100
AcDbEntity
  8
2
100
AcDbLine
 10
-1225.056485
 20
970.085145
 30
0.0
 11
-1225.056485
 21
934.2378250000001
 31
0.0
  0
LINE
  5
442
330
74
100
AcDbEntity
  8
2
100
AcDbLine
 10
-1354.257935
 20
974.4617299999999
 30
0.0
 11
-1225.855035
 21
974.4617299999999
 31
0.0
  0
LINE
  5
443
330
74
100
AcDbEntity
  8
2
100
AcDbLine
 10
-1215.635435
 20
983.41173
 30
0.0
 11
-1224.47754
 21
975.0117299999999
 31
0.0
  0
LINE
  5
444
330
74
100
AcDbEntity
  8
2
100
AcDbLine
 10
-1355.635435
 20
975.0117299999999
 30
0.0
 11
-1364.47754
 21
983.41173
 31
0.0
  0
ARC
  5
445
330
74
100
AcDbEntity
  8
2
100
AcDbCircle
 10
-1204.38998
 20
906.96173
 30
0.0
 40
2.0
100
AcDbArc
 50
90.0
 51
207.9740859999997
  0
ARC
  5
446
330
74
100
AcDbEntity
  8
2
100
AcDbCircle
 10
-1375.72299
 20
906.96173
 30
0.0
 40
2.0
100
AcDbArc
 50
332.0259140000003
 51
90.0
  0
ARC
  5
447
330
74
100
AcDbEntity
  8
2
100
AcDbCircle
 10
-1228.056485
 20
786.8628049999998
 30
0.0
 40
2.0
100
AcDbArc
 50
129.730348
 51
180.0
  0
ARC
  5
448
330
74
100
AcDbEntity
  8
2
100
AcDbCircle
 10
-1352.056485
 20
786.8628049999998
 30
0.0
 40
2.0
100
AcDbArc
 50
0.0
 51
50.26965199999996
  0
LINE
  5
449
330
74
100
AcDbEntity
  8
2
100
AcDbLine
 10
-1194.056485
 20
891.4617299999999
 30
0.0
 11
-1194.056485
 21
831.46173
 31
0.0
  0
LINE
  5
44A
330
74
100
AcDbEntity
  8
2
100
AcDbLine
 10
-1198.48684
 20
891.4617299999999
 30
0.0
 11
-1194.056485
 21
891.4617299999999
 31
0.0
  0
LINE
  5
44B
330
74
100
AcDbEntity
  8
2
100
AcDbLine
 10
-1198.48684
 20
831.46173
 30
0.0
 11
-1194.056485
 21
831.46173
 31
0.0
  0
ARC
  5
44C
330
74
100
AcDbEntity
  8
2
100
AcDbCircle
 10
-1198.48684
 20
893.4617299999999
 30
0.0
 40
2.0
100
AcDbArc
 50
199.2625180000003
 51
270.0
  0
ARC
  5
44D
330
74
100
AcDbEntity
  8
2
100
AcDbCircle
 10
-1198.48684
 20
829.46173
 30
0.0
 40
2.0
100
AcDbArc
 50
90.0
 51
160.7374819999997
  0
LINE
  5
44E
330
74
100
AcDbEntity
  8
2
  6
CENTER
 62
     2
100
AcDbLine
 10
-1335.056485
 20
772.846085
 30
0.0
 11
-1335.056485
 21
727.4932200000002
 31
0.0
  0
LINE
  5
44F
330
74
100
AcDbEntity
  8
2
  6
CENTER
 62
     2
100
AcDbLine
 10
-1245.056485
 20
772.846085
 30
0.0
 11
-1245.056485
 21
727.4932200000002
 31
0.0
  0
LINE
  5
450
330
74
100
AcDbEntity
  8
2
100
AcDbLine
 10
-1252.60555
 20
821.1823649999999
 30
0.0
 11
-1246.945425
 21
815.522245
 31
0.0
  0
LINE
  5
451
330
74
100
AcDbEntity
  8
2
100
AcDbLine
 10
-1249.77712
 20
824.0107949999996
 30
0.0
 11
-1244.117
 21
818.35067
 31
0.0
  0
LINE
  5
452
330
74
100
AcDbEntity
  8
2
100
AcDbLine
 10
-1330.33585
 20
824.0107949999996
 30
0.0
 11
-1335.995975
 21
818.35067
 31
0.0
  0
LINE
  5
453
330
74
100
AcDbEntity
  8
2
100
AcDbLine
 10
-1327.507425
 20
821.1823649999999
 30
0.0
 11
-1333.167545
 21
815.522245
 31
0.0
  0
LINE
  5
454
330
74
100
AcDbEntity
  8
2
100
AcDbLine
 10
-1291.556485
 20
806.48219
 30
0.0
 11
-1291.556485
 21
798.47959
 31
0.0
  0
LINE
  5
455
330
74
100
AcDbEntity
  8
2
100
AcDbLine
 10
-1288.556485
 20
806.48219
 30
0.0
 11
-1288.556485
 21
798.47959
 31
0.0
  0
LINE
  5
456
330
74
100
AcDbEntity
  8
2
100
AcDbLine
 10
-1269.936255
 20
810.274075
 30
0.0
 11
-1266.874345
 21
802.8819699999997
 31
0.0
  0
LINE
  5
457
330
74
100
AcDbEntity
  8
2
100
AcDbLine
 10
-1268.088495
 20
811.03944
 30
0.0
 11
-1265.02659
 21
803.6473349999999
 31
0.0
  0
LINE
  5
458
330
74
100
AcDbEntity
  8
2
100
AcDbLine
 10
-1312.024475
 20
811.03944
 30
0.0
 11
-1315.086385
 21
803.6473349999999
 31
0.0
  0
LINE
  5
459
330
74
100
AcDbEntity
  8
2
100
AcDbLine
 10
-1310.176715
 20
810.274075
 30
0.0
 11
-1313.238625
 21
802.8819699999997
 31
0.0
  0
ARC
  5
45A
330
74
100
AcDbEntity
  8
2
100
AcDbCircle
 10
-1290.056485
 20
861.46173
 30
0.0
 40
63.0
100
AcDbArc
 50
313.1807809999998
 51
316.8192190000001
  0
ARC
  5
45B
330
74
100
AcDbEntity
  8
2
100
AcDbCircle
 10
-1290.056485
 20
861.46173
 30
0.0
 40
55.0
100
AcDbArc
 50
312.9160580000007
 51
317.0839419999993
  0
ARC
  5
45C
330
74
100
AcDbEntity
  8
2
100
AcDbCircle
 10
-1290.056485
 20
861.46173
 30
0.0
 40
55.0
100
AcDbArc
 50
291.4582010000001
 51
293.5417989999998
  0
ARC
  5
45D
330
74
100
AcDbEntity
  8
2
100
AcDbCircle
 10
-1290.056485
 20
861.46173
 30
0.0
 40
63.0
100
AcDbArc
 50
291.5905049999998
 51
293.4094950000002
  0
ARC
  5
45E
330
74
100
AcDbEntity
  8
2
100
AcDbCircle
 10
-1290.056485
 20
861.46173
 30
0.0
 40
63.0
100
AcDbArc
 50
268.6356860000005
 51
271.3643139999995
  0
ARC
  5
45F
330
74
100
AcDbEntity
  8
2
100
AcDbCircle
 10
-1290.056485
 20
861.46173
 30
0.0
 40
55.0
100
AcDbArc
 50
268.4371940000005
 51
271.5628059999996
  0
ARC
  5
460
330
74
100
AcDbEntity
  8
2
100
AcDbCircle
 10
-1290.056485
 20
861.46173
 30
0.0
 40
55.0
100
AcDbArc
 50
222.9160580000007
 51
227.0839419999993
  0
ARC
  5
461
330
74
100
AcDbEntity
  8
2
100
AcDbCircle
 10
-1290.056485
 20
861.46173
 30
0.0
 40
55.0
100
AcDbArc
 50
246.4582010000002
 51
248.5417989999999
  0
ARC
  5
462
330
74
100
AcDbEntity
  8
2
100
AcDbCircle
 10
-1290.056485
 20
861.46173
 30
0.0
 40
63.0
100
AcDbArc
 50
223.1807809999998
 51
226.8192190000001
  0
ARC
  5
463
330
74
100
AcDbEntity
  8
2
100
AcDbCircle
 10
-1290.056485
 20
861.46173
 30
0.0
 40
63.0
100
AcDbArc
 50
246.5905049999998
 51
248.4094950000002
  0
ARC
  5
464
330
74
100
AcDbEntity
  8
2
100
AcDbCircle
 10
-1214.257935
 20
981.96173
 30
0.0
 40
2.0
100
AcDbArc
 50
90.0
 51
133.5311990000004
  0
ARC
  5
465
330
74
100
AcDbEntity
  8
2
100
AcDbCircle
 10
-1225.855035
 20
976.4617299999999
 30
0.0
 40
2.0
100
AcDbArc
 50
270.0
 51
313.5311990000003
  0
ARC
  5
466
330
74
100
AcDbEntity
  8
2
100
AcDbCircle
 10
-1354.257935
 20
976.4617299999999
 30
0.0
 40
2.0
100
AcDbArc
 50
226.4688009999996
 51
270.0
  0
ARC
  5
467
330
74
100
AcDbEntity
  8
2
100
AcDbCircle
 10
-1365.855035
 20
981.96173
 30
0.0
 40
2.0
100
AcDbArc
 50
46.46880099999961
 51
90.0
  0
LINE
  5
468
330
74
100
AcDbEntity
  8
2
  6
CENTER
 62
     2
100
AcDbLine
 10
-1359.45248
 20
792.0657349999999
 30
0.0
 11
-1345.77374
 21
805.744475
 31
0.0
  0
LINE
  5
469
330
74
100
AcDbEntity
  8
2
  6
CENTER
 62
     2
100
AcDbLine
 10
-1234.316535
 20
917.2016799999999
 30
0.0
 11
-1220.04654
 21
931.4716799999999
 31
0.0
  0
LINE
  5
46A
330
74
100
AcDbEntity
  8
2
  6
CENTER
 62
     2
100
AcDbLine
 10
-1359.213435
 20
930.61868
 30
0.0
 11
-1345.41823
 21
916.8234749999999
 31
0.0
  0
LINE
  5
46B
330
74
100
AcDbEntity
  8
2
  6
CENTER
 62
     2
100
AcDbLine
 10
-1234.2319
 20
805.6371449999996
 30
0.0
 11
-1220.38639
 21
791.7916349999999
 31
0.0
  0
ARC
  5
46C
330
74
100
AcDbEntity
  8
2
  6
CENTER
 62
     2
100
AcDbCircle
 10
-1290.056485
 20
861.46173
 30
0.0
 40
88.0
100
AcDbArc
 50
83.8287689999994
 51
95.78135399999991
  0
ARC
  5
46D
330
74
100
AcDbEntity
  8
2
  6
CENTER
 62
     2
100
AcDbCircle
 10
-1290.056485
 20
861.46173
 30
0.0
 40
88.0
100
AcDbArc
 50
354.2085140000005
 51
6.463912999999862
  0
ARC
  5
46E
330
74
100
AcDbEntity
  8
2
  6
CENTER
 62
     2
100
AcDbCircle
 10
-1290.056485
 20
861.46173
 30
0.0
 40
88.0
100
AcDbArc
 50
309.1529610000003
 51
321.0816969999996
  0
ARC
  5
46F
330
74
100
AcDbEntity
  8
2
  6
CENTER
 62
     2
100
AcDbCircle
 10
-1290.056485
 20
861.46173
 30
0.0
 40
88.0
100
AcDbArc
 50
264.4371080000004
 51
275.8752189999996
  0
ARC
  5
470
330
74
100
AcDbEntity
  8
2
  6
CENTER
 62
     2
100
AcDbCircle
 10
-1290.056485
 20
861.46173
 30
0.0
 40
88.0
100
AcDbArc
 50
219.2745869999997
 51
231.3292629999999
  0
ARC
  5
471
330
74
100
AcDbEntity
  8
2
  6
CENTER
 62
     2
100
AcDbCircle
 10
-1290.056485
 20
861.46173
 30
0.0
 40
88.0
100
AcDbArc
 50
128.4065630000005
 51
141.2218490000002
  0
ARC
  5
472
330
74
100
AcDbEntity
  8
2
  6
CENTER
 62
     2
100
AcDbCircle
 10
-1290.056485
 20
861.46173
 30
0.0
 40
88.0
100
AcDbArc
 50
174.016104
 51
186.6473540000003
  0
LINE
  5
473
330
74
100
AcDbEntity
  8
2
100
AcDbLine
 10
-1327.407655
 20
826.2354600000001
 30
0.0
 11
-1324.98353
 21
863.7204399999998
 31
0.0
  0
LINE
  5
474
330
74
100
AcDbEntity
  8
2
100
AcDbLine
 10
-1325.282755
 20
824.1105599999999
 30
0.0
 11
-1287.79778
 21
826.5346899999999
 31
0.0
  0
ARC
  5
475
330
74
100
AcDbEntity
  8
2
100
AcDbCircle
 10
-1290.056485
 20
861.46173
 30
0.0
 40
35.0
100
AcDbArc
 50
273.7001270000001
 51
176.2998729999999
  0
ARC
  5
476
330
74
100
AcDbEntity
  8
2
100
AcDbCircle
 10
-1325.411825
 20
826.1063899999998
 30
0.0
 40
2.0
100
AcDbArc
 50
176.2998729999999
 51
273.7001270000001
  0
LINE
  5
477
330
74
100
AcDbEntity
  8
2
100
AcDbLine
 10
-1194.556485
 20
983.96173
 30
0.0
 11
-1194.556485
 21
908.96173
 31
0.0
  0
LINE
  5
478
330
74
100
AcDbEntity
  8
2
100
AcDbLine
 10
-1385.556485
 20
983.96173
 30
0.0
 11
-1385.556485
 21
908.96173
 31
0.0
  0
LINE
  5
479
330
74
100
AcDbEntity
  8
2
100
AcDbLine
 10
-1393.556485
 20
983.96173
 30
0.0
 11
-1393.556485
 21
908.96173
 31
0.0
  0
LINE
  5
47A
330
74
100
AcDbEntity
  8
2
100
AcDbLine
 10
-1182.556485
 20
983.96173
 30
0.0
 11
-1182.556485
 21
908.96173
 31
0.0
  0
LINE
  5
47B
330
74
100
AcDbEntity
  8
2
  6
CENTER
 62
     2
100
AcDbLine
 10
-1165.075025
 20
965.9071649999999
 30
0.0
 11
-1199.854265
 21
965.9071649999999
 31
0.0
  0
LINE
  5
47C
330
74
100
AcDbEntity
  8
2
  6
CENTER
 62
     2
100
AcDbLine
 10
-1165.075025
 20
927.0162949999999
 30
0.0
 11
-1199.854265
 21
927.0162949999999
 31
0.0
  0
LINE
  5
47D
330
74
100
AcDbEntity
  8
2
100
AcDbLine
 10
-1182.556485
 20
956.4617300000001
 30
0.0
 11
-1180.056485
 21
956.4617300000001
 31
0.0
  0
LINE
  5
47E
330
74
100
AcDbEntity
  8
2
100
AcDbLine
 10
-1173.74667
 20
956.4617300000001
 30
0.0
 11
-1107.556485
 21
956.4617300000001
 31
0.0
  0
LINE
  5
47F
330
74
100
AcDbEntity
  8
2
100
AcDbLine
 10
-1182.556485
 20
936.46173
 30
0.0
 11
-1180.056485
 21
936.46173
 31
0.0
  0
LINE
  5
480
330
74
100
AcDbEntity
  8
2
100
AcDbLine
 10
-1173.74667
 20
936.46173
 30
0.0
 11
-1107.556485
 21
936.46173
 31
0.0
  0
LINE
  5
481
330
74
100
AcDbEntity
  8
2
  6
CENTER
 62
     2
100
AcDbLine
 10
-1411.03795
 20
927.0162949999999
 30
0.0
 11
-1379.714985
 21
927.0162949999999
 31
0.0
  0
LINE
  5
482
330
74
100
AcDbEntity
  8
2
  6
CENTER
 62
     2
100
AcDbLine
 10
-1411.03795
 20
965.9071649999999
 30
0.0
 11
-1379.714985
 21
965.9071649999999
 31
0.0
  0
LINE
  5
483
330
74
100
AcDbEntity
  8
2
100
AcDbLine
 10
-1385.056485
 20
542.7617299999998
 30
0.0
 11
-1195.056485
 21
542.7617299999998
 31
0.0
  0
LINE
  5
484
330
74
100
AcDbEntity
  8
2
100
AcDbLine
 10
-1367.556485
 20
468.76173
 30
0.0
 11
-1212.556485
 21
468.76173
 31
0.0
  0
LINE
  5
485
330
74
100
AcDbEntity
  8
2
100
AcDbLine
 10
-1383.056485
 20
471.7617299999998
 30
0.0
 11
-1197.056485
 21
471.7617299999998
 31
0.0
  0
LINE
  5
486
330
74
100
AcDbEntity
  8
2
100
AcDbLine
 10
-1385.056485
 20
548.2617299999998
 30
0.0
 11
-1385.056485
 21
473.76173
 31
0.0
  0
ARC
  5
487
330
74
100
AcDbEntity
  8
2
100
AcDbCircle
 10
-1383.056485
 20
473.76173
 30
0.0
 40
2.0
100
AcDbArc
 50
180.0
 51
270.0
  0
ARC
  5
488
330
74
100
AcDbEntity
  8
2
100
AcDbCircle
 10
-1197.056485
 20
473.76173
 30
0.0
 40
2.0
100
AcDbArc
 50
270.0
 51
0.0
  0
LINE
  5
489
330
74
100
AcDbEntity
  8
2
100
AcDbLine
 10
-1367.556485
 20
469.76173
 30
0.0
 11
-1367.556485
 21
468.76173
 31
0.0
  0
LINE
  5
48A
330
74
100
AcDbEntity
  8
2
100
AcDbLine
 10
-1212.556485
 20
469.76173
 30
0.0
 11
-1212.556485
 21
468.76173
 31
0.0
  0
ARC
  5
48B
330
74
100
AcDbEntity
  8
2
100
AcDbCircle
 10
-1210.556485
 20
469.76173
 30
0.0
 40
2.0
100
AcDbArc
 50
90.0
 51
180.0
  0
ARC
  5
48C
330
74
100
AcDbEntity
  8
2
100
AcDbCircle
 10
-1369.556485
 20
469.76173
 30
0.0
 40
2.0
100
AcDbArc
 50
0.0
 51
90.0
  0
LINE
  5
48D
330
74
100
AcDbEntity
  8
2
100
AcDbLine
 10
-1350.056485
 20
523.2617299999998
 30
0.0
 11
-1230.056485
 21
523.2617299999998
 31
0.0
  0
LINE
  5
48E
330
74
100
AcDbEntity
  8
2
100
AcDbLine
 10
-1350.056485
 20
498.26173
 30
0.0
 11
-1230.056485
 21
498.26173
 31
0.0
  0
LINE
  5
48F
330
74
100
AcDbEntity
  8
2
100
AcDbLine
 10
-1350.056485
 20
523.2617299999998
 30
0.0
 11
-1350.056485
 21
498.26173
 31
0.0
  0
LINE
  5
490
330
74
100
AcDbEntity
  8
2
100
AcDbLine
 10
-1230.056485
 20
523.2617299999998
 30
0.0
 11
-1230.056485
 21
498.26173
 31
0.0
  0
LINE
  5
491
330
74
100
AcDbEntity
  8
2
100
AcDbLine
 10
-1194.056485
 20
533.2617299999998
 30
0.0
 11
-1194.056485
 21
488.2617299999998
 31
0.0
  0
LINE
  5
492
330
74
100
AcDbEntity
  8
2
100
AcDbLine
 10
-1198.374875
 20
533.2617299999998
 30
0.0
 11
-1194.056485
 21
533.2617299999998
 31
0.0
  0
LINE
  5
493
330
74
100
AcDbEntity
  8
2
100
AcDbLine
 10
-1198.374875
 20
488.2617299999998
 30
0.0
 11
-1194.056485
 21
488.2617299999998
 31
0.0
  0
LINE
  5
494
330
74
100
AcDbEntity
  8
2
100
AcDbLine
 10
-1195.056485
 20
473.76173
 30
0.0
 11
-1195.056485
 21
488.2617299999998
 31
0.0
  0
LINE
  5
495
330
74
100
AcDbEntity
  8
2
100
AcDbLine
 10
-1195.056485
 20
533.2617299999998
 30
0.0
 11
-1195.056485
 21
548.2617299999998
 31
0.0
  0
LINE
  5
496
330
74
100
AcDbEntity
  8
2
100
AcDbLine
 10
-1385.056485
 20
543.2617299999998
 30
0.0
 11
-1195.056485
 21
543.2617299999998
 31
0.0
  0
LINE
  5
497
330
74
100
AcDbEntity
  8
2
100
AcDbLine
 10
-1384.156485
 20
550.2617299999998
 30
0.0
 11
-1195.956485
 21
550.2617299999998
 31
0.0
  0
ARC
  5
498
330
74
100
AcDbEntity
  8
2
100
AcDbCircle
 10
-1197.056485
 20
548.2617299999998
 30
0.0
 40
2.0
100
AcDbArc
 50
0.0
 51
90.0
  0
ARC
  5
499
330
74
100
AcDbEntity
  8
2
100
AcDbCircle
 10
-1383.056485
 20
548.2617299999998
 30
0.0
 40
2.0
100
AcDbArc
 50
90.0
 51
180.0
  0
LINE
  5
49A
330
74
100
AcDbEntity
  8
2
100
AcDbLine
 10
-1393.556485
 20
548.2617299999998
 30
0.0
 11
-1385.056485
 21
548.2617299999998
 31
0.0
  0
LINE
  5
49B
330
74
100
AcDbEntity
  8
2
100
AcDbLine
 10
-1393.556485
 20
473.26173
 30
0.0
 11
-1384.99298
 21
473.26173
 31
0.0
  0
LINE
  5
49C
330
74
100
AcDbEntity
  8
2
100
AcDbLine
 10
-1385.556485
 20
548.2617299999998
 30
0.0
 11
-1385.556485
 21
473.26173
 31
0.0
  0
LINE
  5
49D
330
74
100
AcDbEntity
  8
2
100
AcDbLine
 10
-1393.556485
 20
548.2617299999998
 30
0.0
 11
-1393.556485
 21
473.26173
 31
0.0
  0
LINE
  5
49E
330
74
100
AcDbEntity
  8
2
100
AcDbLine
 10
-1195.056485
 20
548.2617299999998
 30
0.0
 11
-1182.556485
 21
548.2617299999998
 31
0.0
  0
LINE
  5
49F
330
74
100
AcDbEntity
  8
2
100
AcDbLine
 10
-1195.119995
 20
473.26173
 30
0.0
 11
-1182.556485
 21
473.26173
 31
0.0
  0
LINE
  5
4A0
330
74
100
AcDbEntity
  8
2
100
AcDbLine
 10
-1194.556485
 20
473.26173
 30
0.0
 11
-1194.556485
 21
488.2617299999998
 31
0.0
  0
LINE
  5
4A1
330
74
100
AcDbEntity
  8
2
100
AcDbLine
 10
-1194.556485
 20
533.2617299999998
 30
0.0
 11
-1194.556485
 21
548.2617299999998
 31
0.0
  0
LINE
  5
4A2
330
74
100
AcDbEntity
  8
2
100
AcDbLine
 10
-1182.556485
 20
473.26173
 30
0.0
 11
-1182.556485
 21
548.2617299999998
 31
0.0
  0
LINE
  5
4A3
330
74
100
AcDbEntity
  8
2
100
AcDbLine
 10
-1182.556485
 20
520.7617299999998
 30
0.0
 11
-1107.556485
 21
520.7617299999998
 31
0.0
  0
LINE
  5
4A4
330
74
100
AcDbEntity
  8
2
100
AcDbLine
 10
-1182.556485
 20
500.7617299999998
 30
0.0
 11
-1107.556485
 21
500.7617299999998
 31
0.0
  0
LINE
  5
4A5
330
74
100
AcDbEntity
  8
2
  6
CENTER
 62
     2
100
AcDbLine
 10
-1388.028035
 20
530.207165
 30
0.0
 11
-1411.03795
 21
530.207165
 31
0.0
  0
LINE
  5
4A6
330
74
100
AcDbEntity
  8
2
  6
CENTER
 62
     2
100
AcDbLine
 10
-1388.028035
 20
491.3162949999998
 30
0.0
 11
-1411.03795
 21
491.3162949999998
 31
0.0
  0
LINE
  5
4A7
330
74
100
AcDbEntity
  8
2
  6
CENTER
 62
     2
100
AcDbLine
 10
-1165.075025
 20
530.207165
 30
0.0
 11
-1191.308705
 21
530.207165
 31
0.0
  0
LINE
  5
4A8
330
74
100
AcDbEntity
  8
2
  6
CENTER
 62
     2
100
AcDbLine
 10
-1165.075025
 20
491.3162949999998
 30
0.0
 11
-1191.308705
 21
491.3162949999998
 31
0.0
  0
LINE
  5
4A9
330
74
100
AcDbEntity
  8
2
100
AcDbLine
 10
-1253.056485
 20
551.7617299999998
 30
0.0
 11
-1253.056485
 21
550.2617299999998
 31
0.0
  0
LINE
  5
4AA
330
74
100
AcDbEntity
  8
2
100
AcDbLine
 10
-1327.056485
 20
552.7617299999998
 30
0.0
 11
-1327.056485
 21
550.2617299999998
 31
0.0
  0
LINE
  5
4AB
330
74
100
AcDbEntity
  8
2
100
AcDbLine
 10
-1255.056485
 20
555.0617299999998
 30
0.0
 11
-1255.056485
 21
551.7617299999998
 31
0.0
  0
LINE
  5
4AC
330
74
100
AcDbEntity
  8
2
100
AcDbLine
 10
-1327.411825
 20
555.0617299999998
 30
0.0
 11
-1327.411825
 21
552.7617299999998
 31
0.0
  0
LINE
  5
4AD
330
74
100
AcDbEntity
  8
2
  6
CENTER
 62
     2
100
AcDbLine
 10
-1273.545545
 20
567.440195
 30
0.0
 11
-1273.545545
 21
545.516425
 31
0.0
  0
LINE
  5
4AE
330
74
100
AcDbEntity
  8
2
  6
CENTER
 62
     2
100
AcDbLine
 10
-1306.56743
 20
567.440195
 30
0.0
 11
-1306.56743
 21
545.516425
 31
0.0
  0
LINE
  5
4AF
330
74
100
AcDbEntity
  8
2
  6
CENTER
 62
     2
100
AcDbLine
 10
-1202.056485
 20
562.3235849999998
 30
0.0
 11
-1202.056485
 21
538.1448599999998
 31
0.0
  0
LINE
  5
4B0
330
74
100
AcDbEntity
  8
2
  6
CENTER
 62
     2
100
AcDbLine
 10
-1227.83109
 20
562.3235849999998
 30
0.0
 11
-1227.83109
 21
538.1448599999998
 31
0.0
  0
LINE
  5
4B1
330
74
100
AcDbEntity
  8
2
  6
CENTER
 62
     2
100
AcDbLine
 10
-1352.281885
 20
562.3235849999998
 30
0.0
 11
-1352.281885
 21
538.1448599999998
 31
0.0
  0
LINE
  5
4B2
330
74
100
AcDbEntity
  8
2
  6
CENTER
 62
     2
100
AcDbLine
 10
-1378.056485
 20
562.3235849999998
 30
0.0
 11
-1378.056485
 21
538.1448599999998
 31
0.0
  0
LINE
  5
4B3
330
74
100
AcDbEntity
  8
2
100
AcDbLine
 10
-1327.411825
 20
555.0617299999998
 30
0.0
 11
-1295.806485
 21
555.0617299999998
 31
0.0
  0
LINE
  5
4B4
330
74
100
AcDbEntity
  8
2
100
AcDbLine
 10
-1284.306485
 20
555.0617299999998
 30
0.0
 11
-1255.056485
 21
555.0617299999998
 31
0.0
  0
LINE
  5
4B5
330
74
100
AcDbEntity
  8
2
100
AcDbLine
 10
-1327.411825
 20
552.7617299999998
 30
0.0
 11
-1295.806485
 21
552.7617299999998
 31
0.0
  0
LINE
  5
4B6
330
74
100
AcDbEntity
  8
2
100
AcDbLine
 10
-1284.306485
 20
552.7617299999998
 30
0.0
 11
-1255.056485
 21
552.7617299999998
 31
0.0
  0
LINE
  5
4B7
330
74
100
AcDbEntity
  8
2
100
AcDbLine
 10
-1327.056485
 20
551.7617299999998
 30
0.0
 11
-1296.156485
 21
551.7617299999998
 31
0.0
  0
LINE
  5
4B8
330
74
100
AcDbEntity
  8
2
100
AcDbLine
 10
-1283.956485
 20
551.7617299999998
 30
0.0
 11
-1253.056485
 21
551.7617299999998
 31
0.0
  0
CIRCLE
  5
4B9
330
74
100
AcDbEntity
  8
2
100
AcDbCircle
 10
-1306.56743
 20
877.972675
 30
0.0
 40
6.25
  0
CIRCLE
  5
4BA
330
74
100
AcDbEntity
  8
2
100
AcDbCircle
 10
-1273.545545
 20
844.9507849999999
 30
0.0
 40
6.25
  0
CIRCLE
  5
4BB
330
74
100
AcDbEntity
  8
2
100
AcDbCircle
 10
-1290.056485
 20
949.4617299999999
 30
0.0
 40
4.9
  0
CIRCLE
  5
4BC
330
74
100
AcDbEntity
  8
2
100
AcDbCircle
 10
-1290.056485
 20
949.4617299999999
 30
0.0
 40
6.099999999999998
  0
LINE
  5
4BD
330
74
100
AcDbEntity
  8
2
100
AcDbLine
 10
-1180.056485
 20
975.707165
 30
0.0
 11
-1173.95138
 21
975.707165
 31
0.0
  0
LINE
  5
4BE
330
74
100
AcDbEntity
  8
2
100
AcDbLine
 10
-1173.95138
 20
975.707165
 30
0.0
 11
-1173.056485
 21
974.1571649999999
 31
0.0
  0
LINE
  5
4BF
330
74
100
AcDbEntity
  8
2
100
AcDbLine
 10
-1173.056485
 20
974.1571649999999
 30
0.0
 11
-1173.056485
 21
957.6571649999999
 31
0.0
  0
LINE
  5
4C0
330
74
100
AcDbEntity
  8
2
100
AcDbLine
 10
-1180.056485
 20
970.807165
 30
0.0
 11
-1173.95138
 21
970.807165
 31
0.0
  0
ARC
  5
4C1
330
74
100
AcDbEntity
  8
2
100
AcDbCircle
 10
-1177.100935
 20
973.257165
 30
0.0
 40
3.990264999999998
100
AcDbArc
 50
322.121121
 51
37.87887900000003
  0
LINE
  5
4C2
330
74
100
AcDbEntity
  8
2
100
AcDbLine
 10
-1180.056485
 20
956.1071649999997
 30
0.0
 11
-1173.95138
 21
956.1071649999997
 31
0.0
  0
LINE
  5
4C3
330
74
100
AcDbEntity
  8
2
100
AcDbLine
 10
-1173.95138
 20
956.1071649999997
 30
0.0
 11
-1173.056485
 21
957.6571649999999
 31
0.0
  0
LINE
  5
4C4
330
74
100
AcDbEntity
  8
2
100
AcDbLine
 10
-1180.056485
 20
961.007165
 30
0.0
 11
-1173.95138
 21
961.007165
 31
0.0
  0
ARC
  5
4C5
330
74
100
AcDbEntity
  8
2
100
AcDbCircle
 10
-1177.100935
 20
958.557165
 30
0.0
 40
3.990264999999998
100
AcDbArc
 50
322.121121
 51
37.87887900000003
  0
ARC
  5
4C6
330
74
100
AcDbEntity
  8
2
100
AcDbCircle
 10
-1187.81067
 20
965.9071649999999
 30
0.0
 40
14.7
100
AcDbArc
 50
340.5287789999999
 51
19.47122100000013
  0
LINE
  5
4C7
330
74
100
AcDbEntity
  8
2
100
AcDbLine
 10
-1182.556485
 20
975.1071649999996
 30
0.0
 11
-1180.056485
 21
975.1071649999996
 31
0.0
  0
LINE
  5
4C8
330
74
100
AcDbEntity
  8
2
100
AcDbLine
 10
-1180.056485
 20
975.707165
 30
0.0
 11
-1180.056485
 21
956.1071649999997
 31
0.0
  0
LINE
  5
4C9
330
74
100
AcDbEntity
  8
2
100
AcDbLine
 10
-1180.056485
 20
956.707165
 30
0.0
 11
-1182.556485
 21
956.707165
 31
0.0
  0
LINE
  5
4CA
330
74
100
AcDbEntity
  8
2
100
AcDbLine
 10
-1180.056485
 20
965.9071649999999
 30
0.0
 11
-1182.556485
 21
965.407165
 31
0.0
  0
LINE
  5
4CB
330
74
100
AcDbEntity
  8
2
100
AcDbLine
 10
-1182.556485
 20
965.9071649999999
 30
0.0
 11
-1180.056485
 21
966.407165
 31
0.0
  0
LINE
  5
4CC
330
74
100
AcDbEntity
  8
2
100
AcDbLine
 10
-1180.056485
 20
936.816295
 30
0.0
 11
-1173.95138
 21
936.816295
 31
0.0
  0
LINE
  5
4CD
330
74
100
AcDbEntity
  8
2
100
AcDbLine
 10
-1173.95138
 20
936.816295
 30
0.0
 11
-1173.056485
 21
935.2662949999999
 31
0.0
  0
LINE
  5
4CE
330
74
100
AcDbEntity
  8
2
100
AcDbLine
 10
-1173.056485
 20
935.2662949999999
 30
0.0
 11
-1173.056485
 21
918.7662949999999
 31
0.0
  0
LINE
  5
4CF
330
74
100
AcDbEntity
  8
2
100
AcDbLine
 10
-1180.056485
 20
931.9162949999999
 30
0.0
 11
-1173.95138
 21
931.9162949999999
 31
0.0
  0
ARC
  5
4D0
330
74
100
AcDbEntity
  8
2
100
AcDbCircle
 10
-1177.100935
 20
934.3662949999998
 30
0.0
 40
3.990264999999998
100
AcDbArc
 50
322.121121
 51
37.87887900000003
  0
LINE
  5
4D1
330
74
100
AcDbEntity
  8
2
100
AcDbLine
 10
-1180.056485
 20
917.2162949999997
 30
0.0
 11
-1173.95138
 21
917.2162949999997
 31
0.0
  0
LINE
  5
4D2
330
74
100
AcDbEntity
  8
2
100
AcDbLine
 10
-1173.95138
 20
917.2162949999997
 30
0.0
 11
-1173.056485
 21
918.7662949999999
 31
0.0
  0
LINE
  5
4D3
330
74
100
AcDbEntity
  8
2
100
AcDbLine
 10
-1180.056485
 20
922.116295
 30
0.0
 11
-1173.95138
 21
922.116295
 31
0.0
  0
ARC
  5
4D4
330
74
100
AcDbEntity
  8
2
100
AcDbCircle
 10
-1177.100935
 20
919.6662949999998
 30
0.0
 40
3.990264999999998
100
AcDbArc
 50
322.121121
 51
37.87887900000003
  0
ARC
  5
4D5
330
74
100
AcDbEntity
  8
2
100
AcDbCircle
 10
-1187.81067
 20
927.0162949999999
 30
0.0
 40
14.7
100
AcDbArc
 50
340.5287789999999
 51
19.47122100000013
  0
LINE
  5
4D6
330
74
100
AcDbEntity
  8
2
100
AcDbLine
 10
-1182.556485
 20
936.216295
 30
0.0
 11
-1180.056485
 21
936.216295
 31
0.0
  0
LINE
  5
4D7
330
74
100
AcDbEntity
  8
2
100
AcDbLine
 10
-1180.056485
 20
936.816295
 30
0.0
 11
-1180.056485
 21
917.2162949999997
 31
0.0
  0
LINE
  5
4D8
330
74
100
AcDbEntity
  8
2
100
AcDbLine
 10
-1180.056485
 20
917.8162949999999
 30
0.0
 11
-1182.556485
 21
917.8162949999999
 31
0.0
  0
LINE
  5
4D9
330
74
100
AcDbEntity
  8
2
100
AcDbLine
 10
-1180.056485
 20
927.0162949999999
 30
0.0
 11
-1182.556485
 21
926.5162949999998
 31
0.0
  0
LINE
  5
4DA
330
74
100
AcDbEntity
  8
2
100
AcDbLine
 10
-1182.556485
 20
927.0162949999999
 30
0.0
 11
-1180.056485
 21
927.5162949999998
 31
0.0
  0
LINE
  5
4DB
330
74
100
AcDbEntity
  8
2
100
AcDbLine
 10
-1396.056485
 20
917.2162949999997
 30
0.0
 11
-1402.161595
 21
917.2162949999997
 31
0.0
  0
LINE
  5
4DC
330
74
100
AcDbEntity
  8
2
100
AcDbLine
 10
-1402.161595
 20
917.2162949999997
 30
0.0
 11
-1403.056485
 21
918.7662949999999
 31
0.0
  0
LINE
  5
4DD
330
74
100
AcDbEntity
  8
2
100
AcDbLine
 10
-1403.056485
 20
918.7662949999999
 30
0.0
 11
-1403.056485
 21
935.2662949999999
 31
0.0
  0
LINE
  5
4DE
330
74
100
AcDbEntity
  8
2
100
AcDbLine
 10
-1396.056485
 20
922.116295
 30
0.0
 11
-1402.161595
 21
922.116295
 31
0.0
  0
ARC
  5
4DF
330
74
100
AcDbEntity
  8
2
100
AcDbCircle
 10
-1399.012035
 20
919.6662949999998
 30
0.0
 40
3.990264999999998
100
AcDbArc
 50
142.1211209999999
 51
217.878879
  0
LINE
  5
4E0
330
74
100
AcDbEntity
  8
2
100
AcDbLine
 10
-1396.056485
 20
936.816295
 30
0.0
 11
-1402.161595
 21
936.816295
 31
0.0
  0
LINE
  5
4E1
330
74
100
AcDbEntity
  8
2
100
AcDbLine
 10
-1402.161595
 20
936.816295
 30
0.0
 11
-1403.056485
 21
935.2662949999999
 31
0.0
  0
LINE
  5
4E2
330
74
100
AcDbEntity
  8
2
100
AcDbLine
 10
-1396.056485
 20
931.9162949999999
 30
0.0
 11
-1402.161595
 21
931.9162949999999
 31
0.0
  0
ARC
  5
4E3
330
74
100
AcDbEntity
  8
2
100
AcDbCircle
 10
-1399.012035
 20
934.3662949999998
 30
0.0
 40
3.990264999999998
100
AcDbArc
 50
142.1211209999999
 51
217.878879
  0
ARC
  5
4E4
330
74
100
AcDbEntity
  8
2
100
AcDbCircle
 10
-1388.3023
 20
927.0162949999999
 30
0.0
 40
14.7
100
AcDbArc
 50
160.5287820000001
 51
199.4712179999998
  0
LINE
  5
4E5
330
74
100
AcDbEntity
  8
2
100
AcDbLine
 10
-1393.556485
 20
917.8162949999999
 30
0.0
 11
-1396.056485
 21
917.8162949999999
 31
0.0
  0
LINE
  5
4E6
330
74
100
AcDbEntity
  8
2
100
AcDbLine
 10
-1396.056485
 20
917.2162949999997
 30
0.0
 11
-1396.056485
 21
936.816295
 31
0.0
  0
LINE
  5
4E7
330
74
100
AcDbEntity
  8
2
100
AcDbLine
 10
-1396.056485
 20
936.216295
 30
0.0
 11
-1393.556485
 21
936.216295
 31
0.0
  0
LINE
  5
4E8
330
74
100
AcDbEntity
  8
2
100
AcDbLine
 10
-1396.056485
 20
927.0162949999999
 30
0.0
 11
-1393.556485
 21
927.5162949999998
 31
0.0
  0
LINE
  5
4E9
330
74
100
AcDbEntity
  8
2
100
AcDbLine
 10
-1393.556485
 20
927.0162949999999
 30
0.0
 11
-1396.056485
 21
926.5162949999998
 31
0.0
  0
LINE
  5
4EA
330
74
100
AcDbEntity
  8
2
100
AcDbLine
 10
-1396.056485
 20
956.1071649999997
 30
0.0
 11
-1402.161595
 21
956.1071649999997
 31
0.0
  0
LINE
  5
4EB
330
74
100
AcDbEntity
  8
2
100
AcDbLine
 10
-1402.161595
 20
956.1071649999997
 30
0.0
 11
-1403.056485
 21
957.6571649999999
 31
0.0
  0
LINE
  5
4EC
330
74
100
AcDbEntity
  8
2
100
AcDbLine
 10
-1403.056485
 20
957.6571649999999
 30
0.0
 11
-1403.056485
 21
974.1571649999999
 31
0.0
  0
LINE
  5
4ED
330
74
100
AcDbEntity
  8
2
100
AcDbLine
 10
-1396.056485
 20
961.007165
 30
0.0
 11
-1402.161595
 21
961.007165
 31
0.0
  0
ARC
  5
4EE
330
74
100
AcDbEntity
  8
2
100
AcDbCircle
 10
-1399.012035
 20
958.557165
 30
0.0
 40
3.990264999999998
100
AcDbArc
 50
142.1211209999999
 51
217.878879
  0
LINE
  5
4EF
330
74
100
AcDbEntity
  8
2
100
AcDbLine
 10
-1396.056485
 20
975.707165
 30
0.0
 11
-1402.161595
 21
975.707165
 31
0.0
  0
LINE
  5
4F0
330
74
100
AcDbEntity
  8
2
100
AcDbLine
 10
-1402.161595
 20
975.707165
 30
0.0
 11
-1403.056485
 21
974.1571649999999
 31
0.0
  0
LINE
  5
4F1
330
74
100
AcDbEntity
  8
2
100
AcDbLine
 10
-1396.056485
 20
970.807165
 30
0.0
 11
-1402.161595
 21
970.807165
 31
0.0
  0
ARC
  5
4F2
330
74
100
AcDbEntity
  8
2
100
AcDbCircle
 10
-1399.012035
 20
973.257165
 30
0.0
 40
3.990264999999998
100
AcDbArc
 50
142.1211209999999
 51
217.878879
  0
ARC
  5
4F3
330
74
100
AcDbEntity
  8
2
100
AcDbCircle
 10
-1388.3023
 20
965.9071649999999
 30
0.0
 40
14.7
100
AcDbArc
 50
160.5287820000001
 51
199.4712179999998
  0
LINE
  5
4F4
330
74
100
AcDbEntity
  8
2
100
AcDbLine
 10
-1393.556485
 20
956.707165
 30
0.0
 11
-1396.056485
 21
956.707165
 31
0.0
  0
LINE
  5
4F5
330
74
100
AcDbEntity
  8
2
100
AcDbLine
 10
-1396.056485
 20
956.1071649999997
 30
0.0
 11
-1396.056485
 21
975.707165
 31
0.0
  0
LINE
  5
4F6
330
74
100
AcDbEntity
  8
2
100
AcDbLine
 10
-1396.056485
 20
975.1071649999996
 30
0.0
 11
-1393.556485
 21
975.1071649999996
 31
0.0
  0
LINE
  5
4F7
330
74
100
AcDbEntity
  8
2
100
AcDbLine
 10
-1396.056485
 20
965.9071649999999
 30
0.0
 11
-1393.556485
 21
966.407165
 31
0.0
  0
LINE
  5
4F8
330
74
100
AcDbEntity
  8
2
100
AcDbLine
 10
-1393.556485
 20
965.9071649999999
 30
0.0
 11
-1396.056485
 21
965.407165
 31
0.0
  0
LINE
  5
4F9
330
74
100
AcDbEntity
  8
2
100
AcDbLine
 10
-1257.056485
 20
765.4617299999999
 30
0.0
 11
-1257.056485
 21
762.9617299999998
 31
0.0
  0
LINE
  5
4FA
330
74
100
AcDbEntity
  8
2
100
AcDbLine
 10
-1233.056485
 20
765.4617299999999
 30
0.0
 11
-1233.056485
 21
762.9617299999998
 31
0.0
  0
LINE
  5
4FB
330
74
100
AcDbEntity
  8
2
100
AcDbLine
 10
-1323.056485
 20
765.4617299999999
 30
0.0
 11
-1323.056485
 21
762.9617299999998
 31
0.0
  0
LINE
  5
4FC
330
74
100
AcDbEntity
  8
2
100
AcDbLine
 10
-1347.056485
 20
765.4617299999999
 30
0.0
 11
-1347.056485
 21
762.9617299999998
 31
0.0
  0
LINE
  5
4FD
330
74
100
AcDbEntity
  8
2
100
AcDbLine
 10
-1347.056485
 20
762.9617299999998
 30
0.0
 11
-1323.056485
 21
762.9617299999998
 31
0.0
  0
LINE
  5
4FE
330
74
100
AcDbEntity
  8
2
100
AcDbLine
 10
-1257.056485
 20
762.9617299999998
 30
0.0
 11
-1233.056485
 21
762.9617299999998
 31
0.0
  0
LINE
  5
4FF
330
74
100
AcDbEntity
  8
2
100
AcDbLine
 10
-1234.106485
 20
762.9617299999998
 30
0.0
 11
-1234.106485
 21
754.087565
 31
0.0
  0
LINE
  5
500
330
74
100
AcDbEntity
  8
2
100
AcDbLine
 10
-1234.106485
 20
754.087565
 30
0.0
 11
-1236.056485
 21
752.9617299999999
 31
0.0
  0
LINE
  5
501
330
74
100
AcDbEntity
  8
2
100
AcDbLine
 10
-1239.581485
 20
762.9617299999998
 30
0.0
 11
-1239.581485
 21
754.087565
 31
0.0
  0
ARC
  5
502
330
74
100
AcDbEntity
  8
2
100
AcDbCircle
 10
-1236.843985
 20
757.606715
 30
0.0
 40
4.458509999999999
100
AcDbArc
 50
232.121121
 51
307.878879
  0
ARC
  5
503
330
74
100
AcDbEntity
  8
2
100
AcDbCircle
 10
-1245.056485
 20
769.5732
 30
0.0
 40
16.425
100
AcDbArc
 50
250.5287769999997
 51
289.4712189999999
  0
LINE
  5
504
330
74
100
AcDbEntity
  8
2
100
AcDbLine
 10
-1256.006485
 20
762.9617299999998
 30
0.0
 11
-1256.006485
 21
754.087565
 31
0.0
  0
LINE
  5
505
330
74
100
AcDbEntity
  8
2
100
AcDbLine
 10
-1256.006485
 20
754.087565
 30
0.0
 11
-1254.056485
 21
752.9617299999999
 31
0.0
  0
LINE
  5
506
330
74
100
AcDbEntity
  8
2
100
AcDbLine
 10
-1254.056485
 20
752.9617299999999
 30
0.0
 11
-1236.056485
 21
752.9617299999999
 31
0.0
  0
LINE
  5
507
330
74
100
AcDbEntity
  8
2
100
AcDbLine
 10
-1250.531485
 20
762.9617299999998
 30
0.0
 11
-1250.531485
 21
754.087565
 31
0.0
  0
ARC
  5
508
330
74
100
AcDbEntity
  8
2
100
AcDbCircle
 10
-1253.268985
 20
757.606715
 30
0.0
 40
4.458509999999999
100
AcDbArc
 50
232.121121
 51
307.878879
  0
LINE
  5
509
330
74
100
AcDbEntity
  8
2
100
AcDbLine
 10
-1324.106485
 20
762.9617299999998
 30
0.0
 11
-1324.106485
 21
754.087565
 31
0.0
  0
LINE
  5
50A
330
74
100
AcDbEntity
  8
2
100
AcDbLine
 10
-1324.106485
 20
754.087565
 30
0.0
 11
-1326.056485
 21
752.9617299999999
 31
0.0
  0
LINE
  5
50B
330
74
100
AcDbEntity
  8
2
100
AcDbLine
 10
-1326.056485
 20
752.9617299999999
 30
0.0
 11
-1344.056485
 21
752.9617299999999
 31
0.0
  0
LINE
  5
50C
330
74
100
AcDbEntity
  8
2
100
AcDbLine
 10
-1329.581485
 20
762.9617299999998
 30
0.0
 11
-1329.581485
 21
754.087565
 31
0.0
  0
ARC
  5
50D
330
74
100
AcDbEntity
  8
2
100
AcDbCircle
 10
-1326.843985
 20
757.606715
 30
0.0
 40
4.458509999999999
100
AcDbArc
 50
232.121121
 51
307.878879
  0
ARC
  5
50E
330
74
100
AcDbEntity
  8
2
100
AcDbCircle
 10
-1335.056485
 20
769.5732
 30
0.0
 40
16.425
100
AcDbArc
 50
250.5287769999997
 51
289.4712189999999
  0
LINE
  5
50F
330
74
100
AcDbEntity
  8
2
100
AcDbLine
 10
-1346.006485
 20
762.9617299999998
 30
0.0
 11
-1346.006485
 21
754.087565
 31
0.0
  0
LINE
  5
510
330
74
100
AcDbEntity
  8
2
100
AcDbLine
 10
-1346.006485
 20
754.087565
 30
0.0
 11
-1344.056485
 21
752.9617299999999
 31
0.0
  0
LINE
  5
511
330
74
100
AcDbEntity
  8
2
100
AcDbLine
 10
-1340.531485
 20
762.9617299999998
 30
0.0
 11
-1340.531485
 21
754.087565
 31
0.0
  0
ARC
  5
512
330
74
100
AcDbEntity
  8
2
100
AcDbCircle
 10
-1343.268985
 20
757.606715
 30
0.0
 40
4.458509999999999
100
AcDbArc
 50
232.121121
 51
307.878879
  0
LINE
  5
513
330
74
100
AcDbEntity
  8
2
100
AcDbLine
 10
-1234.106485
 20
743.46173
 30
0.0
 11
-1234.106485
 21
736.587565
 31
0.0
  0
LINE
  5
514
330
74
100
AcDbEntity
  8
2
100
AcDbLine
 10
-1234.106485
 20
736.587565
 30
0.0
 11
-1236.056485
 21
735.46173
 31
0.0
  0
LINE
  5
515
330
74
100
AcDbEntity
  8
2
100
AcDbLine
 10
-1236.056485
 20
735.46173
 30
0.0
 11
-1254.056485
 21
735.46173
 31
0.0
  0
LINE
  5
516
330
74
100
AcDbEntity
  8
2
100
AcDbLine
 10
-1239.581485
 20
743.46173
 30
0.0
 11
-1239.581485
 21
736.587565
 31
0.0
  0
ARC
  5
517
330
74
100
AcDbEntity
  8
2
100
AcDbCircle
 10
-1236.843985
 20
740.106715
 30
0.0
 40
4.458509999999999
100
AcDbArc
 50
232.121121
 51
307.878879
  0
LINE
  5
518
330
74
100
AcDbEntity
  8
2
100
AcDbLine
 10
-1239.056485
 20
752.9617299999999
 30
0.0
 11
-1239.056485
 21
743.46173
 31
0.0
  0
LINE
  5
519
330
74
100
AcDbEntity
  8
2
 62
     2
100
AcDbLine
 10
-1240.003485
 20
752.9617299999999
 30
0.0
 11
-1240.003485
 21
748.51473
 31
0.0
  0
LINE
  5
51A
330
74
100
AcDbEntity
  8
2
 62
     2
100
AcDbLine
 10
-1240.003485
 20
748.51473
 30
0.0
 11
-1239.056485
 21
743.46173
 31
0.0
  0
LINE
  5
51B
330
74
100
AcDbEntity
  8
2
100
AcDbLine
 10
-1234.106485
 20
743.46173
 30
0.0
 11
-1256.006485
 21
743.46173
 31
0.0
  0
LINE
  5
51C
330
74
100
AcDbEntity
  8
2
100
AcDbLine
 10
-1256.006485
 20
743.46173
 30
0.0
 11
-1256.006485
 21
736.587565
 31
0.0
  0
LINE
  5
51D
330
74
100
AcDbEntity
  8
2
100
AcDbLine
 10
-1256.006485
 20
736.587565
 30
0.0
 11
-1254.056485
 21
735.46173
 31
0.0
  0
LINE
  5
51E
330
74
100
AcDbEntity
  8
2
100
AcDbLine
 10
-1250.531485
 20
743.46173
 30
0.0
 11
-1250.531485
 21
736.587565
 31
0.0
  0
ARC
  5
51F
330
74
100
AcDbEntity
  8
2
100
AcDbCircle
 10
-1253.268985
 20
740.106715
 30
0.0
 40
4.458509999999999
100
AcDbArc
 50
232.121121
 51
307.878879
  0
ARC
  5
520
330
74
100
AcDbEntity
  8
2
100
AcDbCircle
 10
-1245.056485
 20
752.0732
 30
0.0
 40
16.425
100
AcDbArc
 50
250.5287769999997
 51
289.4712189999999
  0
LINE
  5
521
330
74
100
AcDbEntity
  8
2
100
AcDbLine
 10
-1251.056485
 20
752.9617299999999
 30
0.0
 11
-1251.056485
 21
743.46173
 31
0.0
  0
LINE
  5
522
330
74
100
AcDbEntity
  8
2
100
AcDbLine
 10
-1239.056485
 20
748.51473
 30
0.0
 11
-1251.056485
 21
748.51473
 31
0.0
  0
LINE
  5
523
330
74
100
AcDbEntity
  8
2
 62
     2
100
AcDbLine
 10
-1250.109485
 20
752.9617299999999
 30
0.0
 11
-1250.109485
 21
748.51473
 31
0.0
  0
LINE
  5
524
330
74
100
AcDbEntity
  8
2
 62
     2
100
AcDbLine
 10
-1250.109485
 20
748.51473
 30
0.0
 11
-1251.056485
 21
743.46173
 31
0.0
  0
LINE
  5
525
330
74
100
AcDbEntity
  8
2
100
AcDbLine
 10
-1346.006485
 20
743.46173
 30
0.0
 11
-1346.006485
 21
736.587565
 31
0.0
  0
LINE
  5
526
330
74
100
AcDbEntity
  8
2
100
AcDbLine
 10
-1346.006485
 20
736.587565
 30
0.0
 11
-1344.056485
 21
735.46173
 31
0.0
  0
LINE
  5
527
330
74
100
AcDbEntity
  8
2
100
AcDbLine
 10
-1340.531485
 20
743.46173
 30
0.0
 11
-1340.531485
 21
736.587565
 31
0.0
  0
ARC
  5
528
330
74
100
AcDbEntity
  8
2
100
AcDbCircle
 10
-1343.268985
 20
740.106715
 30
0.0
 40
4.458509999999999
100
AcDbArc
 50
232.121121
 51
307.878879
  0
ARC
  5
529
330
74
100
AcDbEntity
  8
2
100
AcDbCircle
 10
-1335.056485
 20
752.0732
 30
0.0
 40
16.425
100
AcDbArc
 50
250.5287769999997
 51
289.4712189999999
  0
LINE
  5
52A
330
74
100
AcDbEntity
  8
2
100
AcDbLine
 10
-1341.056485
 20
752.9617299999999
 30
0.0
 11
-1341.056485
 21
743.46173
 31
0.0
  0
LINE
  5
52B
330
74
100
AcDbEntity
  8
2
 62
     2
100
AcDbLine
 10
-1340.109485
 20
752.9617299999999
 30
0.0
 11
-1340.109485
 21
748.51473
 31
0.0
  0
LINE
  5
52C
330
74
100
AcDbEntity
  8
2
 62
     2
100
AcDbLine
 10
-1340.109485
 20
748.51473
 30
0.0
 11
-1341.056485
 21
743.46173
 31
0.0
  0
LINE
  5
52D
330
74
100
AcDbEntity
  8
2
100
AcDbLine
 10
-1346.006485
 20
743.46173
 30
0.0
 11
-1324.106485
 21
743.46173
 31
0.0
  0
LINE
  5
52E
330
74
100
AcDbEntity
  8
2
100
AcDbLine
 10
-1324.106485
 20
743.46173
 30
0.0
 11
-1324.106485
 21
736.587565
 31
0.0
  0
LINE
  5
52F
330
74
100
AcDbEntity
  8
2
100
AcDbLine
 10
-1324.106485
 20
736.587565
 30
0.0
 11
-1326.056485
 21
735.46173
 31
0.0
  0
LINE
  5
530
330
74
100
AcDbEntity
  8
2
100
AcDbLine
 10
-1326.056485
 20
735.46173
 30
0.0
 11
-1344.056485
 21
735.46173
 31
0.0
  0
LINE
  5
531
330
74
100
AcDbEntity
  8
2
100
AcDbLine
 10
-1329.581485
 20
743.46173
 30
0.0
 11
-1329.581485
 21
736.587565
 31
0.0
  0
ARC
  5
532
330
74
100
AcDbEntity
  8
2
100
AcDbCircle
 10
-1326.843985
 20
740.106715
 30
0.0
 40
4.458509999999999
100
AcDbArc
 50
232.121121
 51
307.878879
  0
LINE
  5
533
330
74
100
AcDbEntity
  8
2
100
AcDbLine
 10
-1329.056485
 20
752.9617299999999
 30
0.0
 11
-1329.056485
 21
743.46173
 31
0.0
  0
LINE
  5
534
330
74
100
AcDbEntity
  8
2
100
AcDbLine
 10
-1341.056485
 20
748.51473
 30
0.0
 11
-1329.056485
 21
748.51473
 31
0.0
  0
LINE
  5
535
330
74
100
AcDbEntity
  8
2
 62
     2
100
AcDbLine
 10
-1330.003485
 20
752.9617299999999
 30
0.0
 11
-1330.003485
 21
748.51473
 31
0.0
  0
LINE
  5
536
330
74
100
AcDbEntity
  8
2
 62
     2
100
AcDbLine
 10
-1330.003485
 20
748.51473
 30
0.0
 11
-1329.056485
 21
743.46173
 31
0.0
  0
CIRCLE
  5
537
330
74
100
AcDbEntity
  8
2
100
AcDbCircle
 10
-1335.056485
 20
510.76173
 30
0.0
 40
12.0
  0
CIRCLE
  5
538
330
74
100
AcDbEntity
  8
2
100
AcDbCircle
 10
-1245.056485
 20
510.76173
 30
0.0
 40
12.0
  0
CIRCLE
  5
539
330
74
100
AcDbEntity
  8
2
100
AcDbCircle
 10
-1245.056485
 20
510.76173
 30
0.0
 40
9.0
  0
CIRCLE
  5
53A
330
74
100
AcDbEntity
  8
2
100
AcDbCircle
 10
-1335.056485
 20
510.76173
 30
0.0
 40
9.0
  0
LINE
  5
53B
330
74
100
AcDbEntity
  8
2
100
AcDbLine
 10
-1396.056485
 20
521.707165
 30
0.0
 11
-1403.056485
 21
521.707165
 31
0.0
  0
LINE
  5
53C
330
74
100
AcDbEntity
  8
2
100
AcDbLine
 10
-1403.056485
 20
521.707165
 30
0.0
 11
-1403.056485
 21
538.707165
 31
0.0
  0
ARC
  5
53D
330
74
100
AcDbEntity
  8
2
100
AcDbCircle
 10
-1392.51705
 20
525.957165
 30
0.0
 40
10.539435
100
AcDbArc
 50
156.218654
 51
203.781346
  0
LINE
  5
53E
330
74
100
AcDbEntity
  8
2
100
AcDbLine
 10
-1396.056485
 20
538.707165
 30
0.0
 11
-1403.056485
 21
538.707165
 31
0.0
  0
LINE
  5
53F
330
74
100
AcDbEntity
  8
2
100
AcDbLine
 10
-1396.056485
 20
530.207165
 30
0.0
 11
-1402.161595
 21
530.207165
 31
0.0
  0
ARC
  5
540
330
74
100
AcDbEntity
  8
2
100
AcDbCircle
 10
-1392.51705
 20
534.457165
 30
0.0
 40
10.539435
100
AcDbArc
 50
156.218654
 51
203.781346
  0
LINE
  5
541
330
74
100
AcDbEntity
  8
2
100
AcDbLine
 10
-1393.556485
 20
521.0071649999998
 30
0.0
 11
-1396.056485
 21
521.0071649999998
 31
0.0
  0
LINE
  5
542
330
74
100
AcDbEntity
  8
2
100
AcDbLine
 10
-1396.056485
 20
521.0071649999998
 30
0.0
 11
-1396.056485
 21
539.4071649999998
 31
0.0
  0
LINE
  5
543
330
74
100
AcDbEntity
  8
2
100
AcDbLine
 10
-1396.056485
 20
539.4071649999998
 30
0.0
 11
-1393.556485
 21
539.4071649999998
 31
0.0
  0
LINE
  5
544
330
74
100
AcDbEntity
  8
2
100
AcDbLine
 10
-1396.056485
 20
482.8162949999998
 30
0.0
 11
-1403.056485
 21
482.8162949999998
 31
0.0
  0
LINE
  5
545
330
74
100
AcDbEntity
  8
2
100
AcDbLine
 10
-1403.056485
 20
482.8162949999998
 30
0.0
 11
-1403.056485
 21
499.816295
 31
0.0
  0
ARC
  5
546
330
74
100
AcDbEntity
  8
2
100
AcDbCircle
 10
-1392.51705
 20
487.0662949999998
 30
0.0
 40
10.539435
100
AcDbArc
 50
156.218654
 51
203.781346
  0
LINE
  5
547
330
74
100
AcDbEntity
  8
2
100
AcDbLine
 10
-1396.056485
 20
499.816295
 30
0.0
 11
-1403.056485
 21
499.816295
 31
0.0
  0
LINE
  5
548
330
74
100
AcDbEntity
  8
2
100
AcDbLine
 10
-1396.056485
 20
491.3162949999998
 30
0.0
 11
-1402.161595
 21
491.3162949999998
 31
0.0
  0
ARC
  5
549
330
74
100
AcDbEntity
  8
2
100
AcDbCircle
 10
-1392.51705
 20
495.5662949999998
 30
0.0
 40
10.539435
100
AcDbArc
 50
156.218654
 51
203.781346
  0
LINE
  5
54A
330
74
100
AcDbEntity
  8
2
100
AcDbLine
 10
-1393.556485
 20
482.116295
 30
0.0
 11
-1396.056485
 21
482.116295
 31
0.0
  0
LINE
  5
54B
330
74
100
AcDbEntity
  8
2
100
AcDbLine
 10
-1396.056485
 20
482.116295
 30
0.0
 11
-1396.056485
 21
500.5162949999998
 31
0.0
  0
LINE
  5
54C
330
74
100
AcDbEntity
  8
2
100
AcDbLine
 10
-1396.056485
 20
500.5162949999998
 30
0.0
 11
-1393.556485
 21
500.5162949999998
 31
0.0
  0
LINE
  5
54D
330
74
100
AcDbEntity
  8
2
100
AcDbLine
 10
-1180.056485
 20
538.707165
 30
0.0
 11
-1173.056485
 21
538.707165
 31
0.0
  0
ARC
  5
54E
330
74
100
AcDbEntity
  8
2
100
AcDbCircle
 10
-1183.59592
 20
534.457165
 30
0.0
 40
10.539435
100
AcDbArc
 50
336.218654
 51
23.78134599999998
  0
LINE
  5
54F
330
74
100
AcDbEntity
  8
2
100
AcDbLine
 10
-1180.056485
 20
521.707165
 30
0.0
 11
-1173.056485
 21
521.707165
 31
0.0
  0
LINE
  5
550
330
74
100
AcDbEntity
  8
2
100
AcDbLine
 10
-1173.056485
 20
521.707165
 30
0.0
 11
-1173.056485
 21
538.707165
 31
0.0
  0
LINE
  5
551
330
74
100
AcDbEntity
  8
2
100
AcDbLine
 10
-1180.056485
 20
530.207165
 30
0.0
 11
-1173.95138
 21
530.207165
 31
0.0
  0
ARC
  5
552
330
74
100
AcDbEntity
  8
2
100
AcDbCircle
 10
-1183.59592
 20
525.957165
 30
0.0
 40
10.539435
100
AcDbArc
 50
336.218654
 51
23.78134599999998
  0
LINE
  5
553
330
74
100
AcDbEntity
  8
2
100
AcDbLine
 10
-1182.556485
 20
539.4071649999998
 30
0.0
 11
-1180.056485
 21
539.4071649999998
 31
0.0
  0
LINE
  5
554
330
74
100
AcDbEntity
  8
2
100
AcDbLine
 10
-1180.056485
 20
539.4071649999998
 30
0.0
 11
-1180.056485
 21
521.0071649999998
 31
0.0
  0
LINE
  5
555
330
74
100
AcDbEntity
  8
2
100
AcDbLine
 10
-1180.056485
 20
521.0071649999998
 30
0.0
 11
-1182.556485
 21
521.0071649999998
 31
0.0
  0
LINE
  5
556
330
74
100
AcDbEntity
  8
2
100
AcDbLine
 10
-1180.056485
 20
499.816295
 30
0.0
 11
-1173.056485
 21
499.816295
 31
0.0
  0
LINE
  5
557
330
74
100
AcDbEntity
  8
2
100
AcDbLine
 10
-1180.056485
 20
491.3162949999998
 30
0.0
 11
-1173.95138
 21
491.3162949999998
 31
0.0
  0
ARC
  5
558
330
74
100
AcDbEntity
  8
2
100
AcDbCircle
 10
-1183.59592
 20
495.5662949999998
 30
0.0
 40
10.539435
100
AcDbArc
 50
336.218654
 51
23.78134599999998
  0
LINE
  5
559
330
74
100
AcDbEntity
  8
2
100
AcDbLine
 10
-1180.056485
 20
482.8162949999998
 30
0.0
 11
-1173.056485
 21
482.8162949999998
 31
0.0
  0
LINE
  5
55A
330
74
100
AcDbEntity
  8
2
100
AcDbLine
 10
-1173.056485
 20
482.8162949999998
 30
0.0
 11
-1173.056485
 21
499.816295
 31
0.0
  0
ARC
  5
55B
330
74
100
AcDbEntity
  8
2
100
AcDbCircle
 10
-1183.59592
 20
487.0662949999998
 30
0.0
 40
10.539435
100
AcDbArc
 50
336.218654
 51
23.78134599999998
  0
LINE
  5
55C
330
74
100
AcDbEntity
  8
2
100
AcDbLine
 10
-1182.556485
 20
500.5162949999998
 30
0.0
 11
-1180.056485
 21
500.5162949999998
 31
0.0
  0
LINE
  5
55D
330
74
100
AcDbEntity
  8
2
100
AcDbLine
 10
-1180.056485
 20
500.5162949999998
 30
0.0
 11
-1180.056485
 21
482.116295
 31
0.0
  0
LINE
  5
55E
330
74
100
AcDbEntity
  8
2
100
AcDbLine
 10
-1180.056485
 20
482.116295
 30
0.0
 11
-1182.556485
 21
482.116295
 31
0.0
  0
LINE
  5
55F
330
74
100
AcDbEntity
  8
2
100
AcDbLine
 10
-1221.73109
 20
551.7617299999998
 30
0.0
 11
-1233.93109
 21
551.7617299999998
 31
0.0
  0
LINE
  5
560
330
74
100
AcDbEntity
  8
2
100
AcDbLine
 10
-1233.58109
 20
551.7617299999998
 30
0.0
 11
-1233.58109
 21
555.270985
 31
0.0
  0
LINE
  5
561
330
74
100
AcDbEntity
  8
2
100
AcDbLine
 10
-1233.58109
 20
555.270985
 30
0.0
 11
-1232.73109
 21
555.7617299999998
 31
0.0
  0
LINE
  5
562
330
74
100
AcDbEntity
  8
2
100
AcDbLine
 10
-1230.70609
 20
551.7617299999998
 30
0.0
 11
-1230.70609
 21
555.270985
 31
0.0
  0
ARC
  5
563
330
74
100
AcDbEntity
  8
2
100
AcDbCircle
 10
-1232.14359
 20
553.4230299999999
 30
0.0
 40
2.341224999999999
100
AcDbArc
 50
52.12112099999997
 51
127.878879
  0
ARC
  5
564
330
74
100
AcDbEntity
  8
2
100
AcDbCircle
 10
-1227.83109
 20
547.1392549999999
 30
0.0
 40
8.625
100
AcDbArc
 50
70.52878100000009
 51
109.4712230000003
  0
LINE
  5
565
330
74
100
AcDbEntity
  8
2
100
AcDbLine
 10
-1222.08109
 20
551.7617299999998
 30
0.0
 11
-1222.08109
 21
555.270985
 31
0.0
  0
LINE
  5
566
330
74
100
AcDbEntity
  8
2
100
AcDbLine
 10
-1222.08109
 20
555.270985
 30
0.0
 11
-1222.93109
 21
555.7617299999998
 31
0.0
  0
LINE
  5
567
330
74
100
AcDbEntity
  8
2
100
AcDbLine
 10
-1222.93109
 20
555.7617299999998
 30
0.0
 11
-1232.73109
 21
555.7617299999998
 31
0.0
  0
LINE
  5
568
330
74
100
AcDbEntity
  8
2
100
AcDbLine
 10
-1224.95609
 20
551.7617299999998
 30
0.0
 11
-1224.95609
 21
555.270985
 31
0.0
  0
ARC
  5
569
330
74
100
AcDbEntity
  8
2
100
AcDbCircle
 10
-1223.51859
 20
553.4230299999999
 30
0.0
 40
2.341224999999999
100
AcDbArc
 50
52.12112099999997
 51
127.878879
  0
LINE
  5
56A
330
74
100
AcDbEntity
  8
2
100
AcDbLine
 10
-1233.93109
 20
550.2617299999998
 30
0.0
 11
-1233.93109
 21
551.7617299999998
 31
0.0
  0
LINE
  5
56B
330
74
100
AcDbEntity
  8
2
100
AcDbLine
 10
-1221.73109
 20
551.7617299999998
 30
0.0
 11
-1221.73109
 21
550.2617299999998
 31
0.0
  0
LINE
  5
56C
330
74
100
AcDbEntity
  8
2
100
AcDbLine
 10
-1227.83109
 20
551.7617299999998
 30
0.0
 11
-1227.33109
 21
550.2617299999998
 31
0.0
  0
LINE
  5
56D
330
74
100
AcDbEntity
  8
2
100
AcDbLine
 10
-1227.83109
 20
550.2617299999998
 30
0.0
 11
-1228.33109
 21
551.7617299999998
 31
0.0
  0
LINE
  5
56E
330
74
100
AcDbEntity
  8
2
100
AcDbLine
 10
-1195.956485
 20
551.7617299999998
 30
0.0
 11
-1208.156485
 21
551.7617299999998
 31
0.0
  0
LINE
  5
56F
330
74
100
AcDbEntity
  8
2
100
AcDbLine
 10
-1207.806485
 20
551.7617299999998
 30
0.0
 11
-1207.806485
 21
555.270985
 31
0.0
  0
LINE
  5
570
330
74
100
AcDbEntity
  8
2
100
AcDbLine
 10
-1207.806485
 20
555.270985
 30
0.0
 11
-1206.956485
 21
555.7617299999998
 31
0.0
  0
LINE
  5
571
330
74
100
AcDbEntity
  8
2
100
AcDbLine
 10
-1204.931485
 20
551.7617299999998
 30
0.0
 11
-1204.931485
 21
555.270985
 31
0.0
  0
ARC
  5
572
330
74
100
AcDbEntity
  8
2
100
AcDbCircle
 10
-1206.368985
 20
553.4230299999999
 30
0.0
 40
2.341224999999999
100
AcDbArc
 50
52.12112099999997
 51
127.878879
  0
ARC
  5
573
330
74
100
AcDbEntity
  8
2
100
AcDbCircle
 10
-1202.056485
 20
547.1392549999999
 30
0.0
 40
8.625
100
AcDbArc
 50
70.52878100000009
 51
109.4712230000003
  0
LINE
  5
574
330
74
100
AcDbEntity
  8
2
100
AcDbLine
 10
-1196.306485
 20
551.7617299999998
 30
0.0
 11
-1196.306485
 21
555.270985
 31
0.0
  0
LINE
  5
575
330
74
100
AcDbEntity
  8
2
100
AcDbLine
 10
-1196.306485
 20
555.270985
 30
0.0
 11
-1197.156485
 21
555.7617299999998
 31
0.0
  0
LINE
  5
576
330
74
100
AcDbEntity
  8
2
100
AcDbLine
 10
-1197.156485
 20
555.7617299999998
 30
0.0
 11
-1206.956485
 21
555.7617299999998
 31
0.0
  0
LINE
  5
577
330
74
100
AcDbEntity
  8
2
100
AcDbLine
 10
-1199.181485
 20
551.7617299999998
 30
0.0
 11
-1199.181485
 21
555.270985
 31
0.0
  0
ARC
  5
578
330
74
100
AcDbEntity
  8
2
100
AcDbCircle
 10
-1197.743985
 20
553.4230299999999
 30
0.0
 40
2.341224999999999
100
AcDbArc
 50
52.12112099999997
 51
127.878879
  0
LINE
  5
579
330
74
100
AcDbEntity
  8
2
100
AcDbLine
 10
-1208.156485
 20
550.2617299999998
 30
0.0
 11
-1208.156485
 21
551.7617299999998
 31
0.0
  0
LINE
  5
57A
330
74
100
AcDbEntity
  8
2
100
AcDbLine
 10
-1195.956485
 20
551.7617299999998
 30
0.0
 11
-1195.956485
 21
550.2617299999998
 31
0.0
  0
LINE
  5
57B
330
74
100
AcDbEntity
  8
2
100
AcDbLine
 10
-1202.056485
 20
551.7617299999998
 30
0.0
 11
-1201.556485
 21
550.2617299999998
 31
0.0
  0
LINE
  5
57C
330
74
100
AcDbEntity
  8
2
100
AcDbLine
 10
-1202.056485
 20
550.2617299999998
 30
0.0
 11
-1202.556485
 21
551.7617299999998
 31
0.0
  0
LINE
  5
57D
330
74
100
AcDbEntity
  8
2
100
AcDbLine
 10
-1346.181885
 20
551.7617299999998
 30
0.0
 11
-1358.381885
 21
551.7617299999998
 31
0.0
  0
LINE
  5
57E
330
74
100
AcDbEntity
  8
2
100
AcDbLine
 10
-1358.031885
 20
551.7617299999998
 30
0.0
 11
-1358.031885
 21
555.270985
 31
0.0
  0
LINE
  5
57F
330
74
100
AcDbEntity
  8
2
100
AcDbLine
 10
-1358.031885
 20
555.270985
 30
0.0
 11
-1357.181885
 21
555.7617299999998
 31
0.0
  0
LINE
  5
580
330
74
100
AcDbEntity
  8
2
100
AcDbLine
 10
-1355.156885
 20
551.7617299999998
 30
0.0
 11
-1355.156885
 21
555.270985
 31
0.0
  0
ARC
  5
581
330
74
100
AcDbEntity
  8
2
100
AcDbCircle
 10
-1356.594385
 20
553.4230299999999
 30
0.0
 40
2.341224999999999
100
AcDbArc
 50
52.12112099999997
 51
127.878879
  0
ARC
  5
582
330
74
100
AcDbEntity
  8
2
100
AcDbCircle
 10
-1352.281885
 20
547.1392549999999
 30
0.0
 40
8.625
100
AcDbArc
 50
70.52878100000009
 51
109.4712230000003
  0
LINE
  5
583
330
74
100
AcDbEntity
  8
2
100
AcDbLine
 10
-1346.531885
 20
551.7617299999998
 30
0.0
 11
-1346.531885
 21
555.270985
 31
0.0
  0
LINE
  5
584
330
74
100
AcDbEntity
  8
2
100
AcDbLine
 10
-1346.531885
 20
555.270985
 30
0.0
 11
-1347.381885
 21
555.7617299999998
 31
0.0
  0
LINE
  5
585
330
74
100
AcDbEntity
  8
2
100
AcDbLine
 10
-1347.381885
 20
555.7617299999998
 30
0.0
 11
-1357.181885
 21
555.7617299999998
 31
0.0
  0
LINE
  5
586
330
74
100
AcDbEntity
  8
2
100
AcDbLine
 10
-1349.406885
 20
551.7617299999998
 30
0.0
 11
-1349.406885
 21
555.270985
 31
0.0
  0
ARC
  5
587
330
74
100
AcDbEntity
  8
2
100
AcDbCircle
 10
-1347.969385
 20
553.4230299999999
 30
0.0
 40
2.341224999999999
100
AcDbArc
 50
52.12112099999997
 51
127.878879
  0
LINE
  5
588
330
74
100
AcDbEntity
  8
2
100
AcDbLine
 10
-1358.381885
 20
550.2617299999998
 30
0.0
 11
-1358.381885
 21
551.7617299999998
 31
0.0
  0
LINE
  5
589
330
74
100
AcDbEntity
  8
2
100
AcDbLine
 10
-1346.181885
 20
551.7617299999998
 30
0.0
 11
-1346.181885
 21
550.2617299999998
 31
0.0
  0
LINE
  5
58A
330
74
100
AcDbEntity
  8
2
100
AcDbLine
 10
-1352.281885
 20
551.7617299999998
 30
0.0
 11
-1351.781885
 21
550.2617299999998
 31
0.0
  0
LINE
  5
58B
330
74
100
AcDbEntity
  8
2
100
AcDbLine
 10
-1352.281885
 20
550.2617299999998
 30
0.0
 11
-1352.781885
 21
551.7617299999998
 31
0.0
  0
LINE
  5
58C
330
74
100
AcDbEntity
  8
2
100
AcDbLine
 10
-1371.956485
 20
551.7617299999998
 30
0.0
 11
-1384.156485
 21
551.7617299999998
 31
0.0
  0
LINE
  5
58D
330
74
100
AcDbEntity
  8
2
100
AcDbLine
 10
-1383.806485
 20
551.7617299999998
 30
0.0
 11
-1383.806485
 21
555.270985
 31
0.0
  0
LINE
  5
58E
330
74
100
AcDbEntity
  8
2
100
AcDbLine
 10
-1383.806485
 20
555.270985
 30
0.0
 11
-1382.956485
 21
555.7617299999998
 31
0.0
  0
LINE
  5
58F
330
74
100
AcDbEntity
  8
2
100
AcDbLine
 10
-1382.956485
 20
555.7617299999998
 30
0.0
 11
-1373.156485
 21
555.7617299999998
 31
0.0
  0
LINE
  5
590
330
74
100
AcDbEntity
  8
2
100
AcDbLine
 10
-1380.931485
 20
551.7617299999998
 30
0.0
 11
-1380.931485
 21
555.270985
 31
0.0
  0
ARC
  5
591
330
74
100
AcDbEntity
  8
2
100
AcDbCircle
 10
-1382.368985
 20
553.4230299999999
 30
0.0
 40
2.341224999999999
100
AcDbArc
 50
52.12112099999997
 51
127.878879
  0
LINE
  5
592
330
74
100
AcDbEntity
  8
2
100
AcDbLine
 10
-1372.306485
 20
551.7617299999998
 30
0.0
 11
-1372.306485
 21
555.270985
 31
0.0
  0
LINE
  5
593
330
74
100
AcDbEntity
  8
2
100
AcDbLine
 10
-1372.306485
 20
555.270985
 30
0.0
 11
-1373.156485
 21
555.7617299999998
 31
0.0
  0
LINE
  5
594
330
74
100
AcDbEntity
  8
2
100
AcDbLine
 10
-1375.181485
 20
551.7617299999998
 30
0.0
 11
-1375.181485
 21
555.270985
 31
0.0
  0
ARC
  5
595
330
74
100
AcDbEntity
  8
2
100
AcDbCircle
 10
-1373.743985
 20
553.4230299999999
 30
0.0
 40
2.341224999999999
100
AcDbArc
 50
52.12112099999997
 51
127.878879
  0
ARC
  5
596
330
74
100
AcDbEntity
  8
2
100
AcDbCircle
 10
-1378.056485
 20
547.1392549999999
 30
0.0
 40
8.625
100
AcDbArc
 50
70.52878100000009
 51
109.4712230000003
  0
LINE
  5
597
330
74
100
AcDbEntity
  8
2
100
AcDbLine
 10
-1384.156485
 20
550.2617299999998
 30
0.0
 11
-1384.156485
 21
551.7617299999998
 31
0.0
  0
LINE
  5
598
330
74
100
AcDbEntity
  8
2
100
AcDbLine
 10
-1371.956485
 20
551.7617299999998
 30
0.0
 11
-1371.956485
 21
550.2617299999998
 31
0.0
  0
LINE
  5
599
330
74
100
AcDbEntity
  8
2
100
AcDbLine
 10
-1378.056485
 20
551.7617299999998
 30
0.0
 11
-1377.556485
 21
550.2617299999998
 31
0.0
  0
LINE
  5
59A
330
74
100
AcDbEntity
  8
2
100
AcDbLine
 10
-1378.056485
 20
550.2617299999998
 30
0.0
 11
-1378.556485
 21
551.7617299999998
 31
0.0
  0
LINE
  5
59B
330
74
100
AcDbEntity
  8
2
100
AcDbLine
 10
-1267.295545
 20
556.66173
 30
0.0
 11
-1279.795545
 21
556.66173
 31
0.0
  0
LINE
  5
59C
330
74
100
AcDbEntity
  8
2
100
AcDbLine
 10
-1279.295545
 20
556.66173
 30
0.0
 11
-1279.295545
 21
560.1709849999998
 31
0.0
  0
LINE
  5
59D
330
74
100
AcDbEntity
  8
2
100
AcDbLine
 10
-1279.295545
 20
560.1709849999998
 30
0.0
 11
-1278.445545
 21
560.66173
 31
0.0
  0
LINE
  5
59E
330
74
100
AcDbEntity
  8
2
100
AcDbLine
 10
-1276.420545
 20
556.66173
 30
0.0
 11
-1276.420545
 21
560.1709849999998
 31
0.0
  0
ARC
  5
59F
330
74
100
AcDbEntity
  8
2
100
AcDbCircle
 10
-1277.858045
 20
558.32303
 30
0.0
 40
2.341224999999999
100
AcDbArc
 50
52.12112099999997
 51
127.878879
  0
ARC
  5
5A0
330
74
100
AcDbEntity
  8
2
100
AcDbCircle
 10
-1273.545545
 20
552.039255
 30
0.0
 40
8.625
100
AcDbArc
 50
70.52878100000009
 51
109.4712230000003
  0
LINE
  5
5A1
330
74
100
AcDbEntity
  8
2
100
AcDbLine
 10
-1267.795545
 20
556.66173
 30
0.0
 11
-1267.795545
 21
560.1709849999998
 31
0.0
  0
LINE
  5
5A2
330
74
100
AcDbEntity
  8
2
100
AcDbLine
 10
-1267.795545
 20
560.1709849999998
 30
0.0
 11
-1268.645545
 21
560.66173
 31
0.0
  0
LINE
  5
5A3
330
74
100
AcDbEntity
  8
2
100
AcDbLine
 10
-1268.645545
 20
560.66173
 30
0.0
 11
-1278.445545
 21
560.66173
 31
0.0
  0
LINE
  5
5A4
330
74
100
AcDbEntity
  8
2
100
AcDbLine
 10
-1270.670545
 20
556.66173
 30
0.0
 11
-1270.670545
 21
560.1709849999998
 31
0.0
  0
ARC
  5
5A5
330
74
100
AcDbEntity
  8
2
100
AcDbCircle
 10
-1269.233045
 20
558.32303
 30
0.0
 40
2.341224999999999
100
AcDbArc
 50
52.12112099999997
 51
127.878879
  0
LINE
  5
5A6
330
74
100
AcDbEntity
  8
2
100
AcDbLine
 10
-1300.31743
 20
556.66173
 30
0.0
 11
-1312.81743
 21
556.66173
 31
0.0
  0
LINE
  5
5A7
330
74
100
AcDbEntity
  8
2
100
AcDbLine
 10
-1312.31743
 20
556.66173
 30
0.0
 11
-1312.31743
 21
560.1709849999998
 31
0.0
  0
LINE
  5
5A8
330
74
100
AcDbEntity
  8
2
100
AcDbLine
 10
-1312.31743
 20
560.1709849999998
 30
0.0
 11
-1311.46743
 21
560.66173
 31
0.0
  0
LINE
  5
5A9
330
74
100
AcDbEntity
  8
2
100
AcDbLine
 10
-1309.44243
 20
556.66173
 30
0.0
 11
-1309.44243
 21
560.1709849999998
 31
0.0
  0
ARC
  5
5AA
330
74
100
AcDbEntity
  8
2
100
AcDbCircle
 10
-1310.87993
 20
558.32303
 30
0.0
 40
2.341224999999999
100
AcDbArc
 50
52.12112099999997
 51
127.878879
  0
ARC
  5
5AB
330
74
100
AcDbEntity
  8
2
100
AcDbCircle
 10
-1306.56743
 20
552.039255
 30
0.0
 40
8.625
100
AcDbArc
 50
70.52878100000009
 51
109.4712230000003
  0
LINE
  5
5AC
330
74
100
AcDbEntity
  8
2
100
AcDbLine
 10
-1300.81743
 20
556.66173
 30
0.0
 11
-1300.81743
 21
560.1709849999998
 31
0.0
  0
LINE
  5
5AD
330
74
100
AcDbEntity
  8
2
100
AcDbLine
 10
-1300.81743
 20
560.1709849999998
 30
0.0
 11
-1301.66743
 21
560.66173
 31
0.0
  0
LINE
  5
5AE
330
74
100
AcDbEntity
  8
2
100
AcDbLine
 10
-1301.66743
 20
560.66173
 30
0.0
 11
-1311.46743
 21
560.66173
 31
0.0
  0
LINE
  5
5AF
330
74
100
AcDbEntity
  8
2
100
AcDbLine
 10
-1303.69243
 20
556.66173
 30
0.0
 11
-1303.69243
 21
560.1709849999998
 31
0.0
  0
ARC
  5
5B0
330
74
100
AcDbEntity
  8
2
100
AcDbCircle
 10
-1302.25493
 20
558.32303
 30
0.0
 40
2.341224999999999
100
AcDbArc
 50
52.12112099999997
 51
127.878879
  0
LINE
  5
5B1
330
74
100
AcDbEntity
  8
2
100
AcDbLine
 10
-1283.956485
 20
551.7617299999998
 30
0.0
 11
-1296.156485
 21
551.7617299999998
 31
0.0
  0
LINE
  5
5B2
330
74
100
AcDbEntity
  8
2
100
AcDbLine
 10
-1295.806485
 20
551.7617299999998
 30
0.0
 11
-1295.806485
 21
555.270985
 31
0.0
  0
LINE
  5
5B3
330
74
100
AcDbEntity
  8
2
100
AcDbLine
 10
-1295.806485
 20
555.270985
 30
0.0
 11
-1294.956485
 21
555.7617299999998
 31
0.0
  0
LINE
  5
5B4
330
74
100
AcDbEntity
  8
2
100
AcDbLine
 10
-1292.931485
 20
551.7617299999998
 30
0.0
 11
-1292.931485
 21
555.270985
 31
0.0
  0
ARC
  5
5B5
330
74
100
AcDbEntity
  8
2
100
AcDbCircle
 10
-1294.368985
 20
553.4230299999999
 30
0.0
 40
2.341224999999999
100
AcDbArc
 50
52.12112099999997
 51
127.878879
  0
ARC
  5
5B6
330
74
100
AcDbEntity
  8
2
100
AcDbCircle
 10
-1290.056485
 20
547.1392549999999
 30
0.0
 40
8.625
100
AcDbArc
 50
70.52878100000009
 51
109.4712230000003
  0
LINE
  5
5B7
330
74
100
AcDbEntity
  8
2
100
AcDbLine
 10
-1284.306485
 20
551.7617299999998
 30
0.0
 11
-1284.306485
 21
555.270985
 31
0.0
  0
LINE
  5
5B8
330
74
100
AcDbEntity
  8
2
100
AcDbLine
 10
-1284.306485
 20
555.270985
 30
0.0
 11
-1285.156485
 21
555.7617299999998
 31
0.0
  0
LINE
  5
5B9
330
74
100
AcDbEntity
  8
2
100
AcDbLine
 10
-1285.156485
 20
555.7617299999998
 30
0.0
 11
-1294.956485
 21
555.7617299999998
 31
0.0
  0
LINE
  5
5BA
330
74
100
AcDbEntity
  8
2
100
AcDbLine
 10
-1287.181485
 20
551.7617299999998
 30
0.0
 11
-1287.181485
 21
555.270985
 31
0.0
  0
ARC
  5
5BB
330
74
100
AcDbEntity
  8
2
100
AcDbCircle
 10
-1285.743985
 20
553.4230299999999
 30
0.0
 40
2.341224999999999
100
AcDbArc
 50
52.12112099999997
 51
127.878879
  0
LINE
  5
5BC
330
74
100
AcDbEntity
  8
2
100
AcDbLine
 10
-1296.156485
 20
550.2617299999998
 30
0.0
 11
-1296.156485
 21
551.7617299999998
 31
0.0
  0
LINE
  5
5BD
330
74
100
AcDbEntity
  8
2
100
AcDbLine
 10
-1283.956485
 20
551.7617299999998
 30
0.0
 11
-1283.956485
 21
550.2617299999998
 31
0.0
  0
LINE
  5
5BE
330
74
100
AcDbEntity
  8
2
100
AcDbLine
 10
-1290.056485
 20
551.7617299999998
 30
0.0
 11
-1289.556485
 21
550.2617299999998
 31
0.0
  0
LINE
  5
5BF
330
74
100
AcDbEntity
  8
2
100
AcDbLine
 10
-1290.056485
 20
550.2617299999998
 30
0.0
 11
-1290.556485
 21
551.7617299999998
 31
0.0
  0
LINE
  5
5C0
330
74
100
AcDbEntity
  8
2
  6
CENTER
 62
     2
100
AcDbLine
 10
-1423.51259
 20
510.76173
 30
0.0
 11
-1029.46381
 21
510.76173
 31
0.0
  0
LINE
  5
5C1
330
74
100
AcDbEntity
  8
2
100
AcDbLine
 10
-1279.795545
 20
556.66173
 30
0.0
 11
-1279.795545
 21
555.0617299999998
 31
0.0
  0
LINE
  5
5C2
330
74
100
AcDbEntity
  8
2
100
AcDbLine
 10
-1267.295545
 20
556.66173
 30
0.0
 11
-1267.295545
 21
555.0617299999998
 31
0.0
  0
LINE
  5
5C3
330
74
100
AcDbEntity
  8
2
100
AcDbLine
 10
-1300.31743
 20
556.66173
 30
0.0
 11
-1300.31743
 21
555.0617299999998
 31
0.0
  0
LINE
  5
5C4
330
74
100
AcDbEntity
  8
2
100
AcDbLine
 10
-1312.81743
 20
556.66173
 30
0.0
 11
-1312.81743
 21
555.0617299999998
 31
0.0
  0
LINE
  5
5C5
330
74
100
AcDbEntity
  8
2
100
AcDbLine
 10
-1200.374875
 20
533.2617299999998
 30
0.0
 11
-1200.374875
 21
488.2617299999998
 31
0.0
  0
ARC
  5
5C6
330
74
100
AcDbEntity
  8
2
100
AcDbCircle
 10
-1198.374875
 20
535.2617299999998
 30
0.0
 40
2.0
100
AcDbArc
 50
180.0
 51
270.0
  0
ARC
  5
5C7
330
74
100
AcDbEntity
  8
2
100
AcDbCircle
 10
-1198.374875
 20
486.26173
 30
0.0
 40
2.0
100
AcDbArc
 50
90.0
 51
180.0
  0
LINE
  5
5C8
330
74
100
AcDbEntity
  8
2
100
AcDbLine
 10
-1292.94324
 20
954.46173
 30
0.0
 11
-1287.169735
 21
954.46173
 31
0.0
  0
LINE
  5
5C9
330
74
100
AcDbEntity
  8
2
100
AcDbLine
 10
-1292.94324
 20
944.46173
 30
0.0
 11
-1287.169735
 21
944.46173
 31
0.0
  0
LINE
  5
5CA
330
74
100
AcDbEntity
  8
2
100
AcDbLine
 10
-1295.82999
 20
949.4617299999999
 30
0.0
 11
-1292.94324
 21
954.46173
 31
0.0
  0
LINE
  5
5CB
330
74
100
AcDbEntity
  8
2
100
AcDbLine
 10
-1287.169735
 20
944.46173
 30
0.0
 11
-1284.282985
 21
949.4617299999999
 31
0.0
  0
LINE
  5
5CC
330
74
100
AcDbEntity
  8
2
100
AcDbLine
 10
-1292.94324
 20
944.46173
 30
0.0
 11
-1295.82999
 21
949.4617299999999
 31
0.0
  0
LINE
  5
5CD
330
74
100
AcDbEntity
  8
2
100
AcDbLine
 10
-1284.282985
 20
949.4617299999999
 30
0.0
 11
-1287.169735
 21
954.46173
 31
0.0
  0
ARC
  5
5CE
330
74
100
AcDbEntity
  8
2
  6
CENTER
 62
     2
100
AcDbCircle
 10
-1290.056485
 20
861.46173
 30
0.0
 40
88.0
100
AcDbArc
 50
39.20851400000026
 51
51.46391300000002
  0
CIRCLE
  5
5CF
330
74
100
AcDbEntity
  8
2
100
AcDbCircle
 10
-1227.83109
 20
923.68713
 30
0.0
 40
4.9
  0
CIRCLE
  5
5D0
330
74
100
AcDbEntity
  8
2
100
AcDbCircle
 10
-1227.83109
 20
923.68713
 30
0.0
 40
6.099999999999998
  0
LINE
  5
5D1
330
74
100
AcDbEntity
  8
2
100
AcDbLine
 10
-1230.71784
 20
928.6871299999999
 30
0.0
 11
-1224.94434
 21
928.6871299999999
 31
0.0
  0
LINE
  5
5D2
330
74
100
AcDbEntity
  8
2
100
AcDbLine
 10
-1230.71784
 20
918.6871299999999
 30
0.0
 11
-1224.94434
 21
918.6871299999999
 31
0.0
  0
LINE
  5
5D3
330
74
100
AcDbEntity
  8
2
100
AcDbLine
 10
-1233.60459
 20
923.68713
 30
0.0
 11
-1230.71784
 21
928.6871299999999
 31
0.0
  0
LINE
  5
5D4
330
74
100
AcDbEntity
  8
2
100
AcDbLine
 10
-1224.94434
 20
918.6871299999999
 30
0.0
 11
-1222.057585
 21
923.68713
 31
0.0
  0
LINE
  5
5D5
330
74
100
AcDbEntity
  8
2
100
AcDbLine
 10
-1230.71784
 20
918.6871299999999
 30
0.0
 11
-1233.60459
 21
923.68713
 31
0.0
  0
LINE
  5
5D6
330
74
100
AcDbEntity
  8
2
100
AcDbLine
 10
-1222.057585
 20
923.68713
 30
0.0
 11
-1224.94434
 21
928.6871299999999
 31
0.0
  0
CIRCLE
  5
5D7
330
74
100
AcDbEntity
  8
2
100
AcDbCircle
 10
-1352.281885
 20
923.68713
 30
0.0
 40
4.9
  0
CIRCLE
  5
5D8
330
74
100
AcDbEntity
  8
2
100
AcDbCircle
 10
-1352.281885
 20
923.68713
 30
0.0
 40
6.099999999999998
  0
LINE
  5
5D9
330
74
100
AcDbEntity
  8
2
100
AcDbLine
 10
-1355.168635
 20
928.6871299999999
 30
0.0
 11
-1349.39513
 21
928.6871299999999
 31
0.0
  0
LINE
  5
5DA
330
74
100
AcDbEntity
  8
2
100
AcDbLine
 10
-1355.168635
 20
918.6871299999999
 30
0.0
 11
-1349.39513
 21
918.6871299999999
 31
0.0
  0
LINE
  5
5DB
330
74
100
AcDbEntity
  8
2
100
AcDbLine
 10
-1358.055385
 20
923.68713
 30
0.0
 11
-1355.168635
 21
928.6871299999999
 31
0.0
  0
LINE
  5
5DC
330
74
100
AcDbEntity
  8
2
100
AcDbLine
 10
-1349.39513
 20
918.6871299999999
 30
0.0
 11
-1346.50838
 21
923.68713
 31
0.0
  0
LINE
  5
5DD
330
74
100
AcDbEntity
  8
2
100
AcDbLine
 10
-1355.168635
 20
918.6871299999999
 30
0.0
 11
-1358.055385
 21
923.68713
 31
0.0
  0
LINE
  5
5DE
330
74
100
AcDbEntity
  8
2
100
AcDbLine
 10
-1346.50838
 20
923.68713
 30
0.0
 11
-1349.39513
 21
928.6871299999999
 31
0.0
  0
CIRCLE
  5
5DF
330
74
100
AcDbEntity
  8
2
100
AcDbCircle
 10
-1378.056485
 20
861.46173
 30
0.0
 40
4.9
  0
CIRCLE
  5
5E0
330
74
100
AcDbEntity
  8
2
100
AcDbCircle
 10
-1378.056485
 20
861.46173
 30
0.0
 40
6.099999999999998
  0
LINE
  5
5E1
330
74
100
AcDbEntity
  8
2
100
AcDbLine
 10
-1380.94324
 20
866.4617299999999
 30
0.0
 11
-1375.169735
 21
866.4617299999999
 31
0.0
  0
LINE
  5
5E2
330
74
100
AcDbEntity
  8
2
100
AcDbLine
 10
-1380.94324
 20
856.4617300000001
 30
0.0
 11
-1375.169735
 21
856.4617300000001
 31
0.0
  0
LINE
  5
5E3
330
74
100
AcDbEntity
  8
2
100
AcDbLine
 10
-1383.82999
 20
861.46173
 30
0.0
 11
-1380.94324
 21
866.4617299999999
 31
0.0
  0
LINE
  5
5E4
330
74
100
AcDbEntity
  8
2
100
AcDbLine
 10
-1375.169735
 20
856.4617300000001
 30
0.0
 11
-1372.282985
 21
861.46173
 31
0.0
  0
LINE
  5
5E5
330
74
100
AcDbEntity
  8
2
100
AcDbLine
 10
-1380.94324
 20
856.4617300000001
 30
0.0
 11
-1383.82999
 21
861.46173
 31
0.0
  0
LINE
  5
5E6
330
74
100
AcDbEntity
  8
2
100
AcDbLine
 10
-1372.282985
 20
861.46173
 30
0.0
 11
-1375.169735
 21
866.4617299999999
 31
0.0
  0
CIRCLE
  5
5E7
330
74
100
AcDbEntity
  8
2
100
AcDbCircle
 10
-1352.281885
 20
799.2363349999999
 30
0.0
 40
4.9
  0
CIRCLE
  5
5E8
330
74
100
AcDbEntity
  8
2
100
AcDbCircle
 10
-1352.281885
 20
799.2363349999999
 30
0.0
 40
6.099999999999998
  0
LINE
  5
5E9
330
74
100
AcDbEntity
  8
2
100
AcDbLine
 10
-1355.168635
 20
804.2363349999998
 30
0.0
 11
-1349.39513
 21
804.2363349999998
 31
0.0
  0
LINE
  5
5EA
330
74
100
AcDbEntity
  8
2
100
AcDbLine
 10
-1355.168635
 20
794.2363349999999
 30
0.0
 11
-1349.39513
 21
794.2363349999999
 31
0.0
  0
LINE
  5
5EB
330
74
100
AcDbEntity
  8
2
100
AcDbLine
 10
-1358.055385
 20
799.2363349999999
 30
0.0
 11
-1355.168635
 21
804.2363349999998
 31
0.0
  0
LINE
  5
5EC
330
74
100
AcDbEntity
  8
2
100
AcDbLine
 10
-1349.39513
 20
794.2363349999999
 30
0.0
 11
-1346.50838
 21
799.2363349999999
 31
0.0
  0
LINE
  5
5ED
330
74
100
AcDbEntity
  8
2
100
AcDbLine
 10
-1355.168635
 20
794.2363349999999
 30
0.0
 11
-1358.055385
 21
799.2363349999999
 31
0.0
  0
LINE
  5
5EE
330
74
100
AcDbEntity
  8
2
100
AcDbLine
 10
-1346.50838
 20
799.2363349999999
 30
0.0
 11
-1349.39513
 21
804.2363349999998
 31
0.0
  0
CIRCLE
  5
5EF
330
74
100
AcDbEntity
  8
2
100
AcDbCircle
 10
-1290.056485
 20
773.46173
 30
0.0
 40
4.9
  0
CIRCLE
  5
5F0
330
74
100
AcDbEntity
  8
2
100
AcDbCircle
 10
-1290.056485
 20
773.46173
 30
0.0
 40
6.099999999999998
  0
LINE
  5
5F1
330
74
100
AcDbEntity
  8
2
100
AcDbLine
 10
-1292.94324
 20
778.4617299999998
 30
0.0
 11
-1287.169735
 21
778.4617299999998
 31
0.0
  0
LINE
  5
5F2
330
74
100
AcDbEntity
  8
2
100
AcDbLine
 10
-1292.94324
 20
768.46173
 30
0.0
 11
-1287.169735
 21
768.46173
 31
0.0
  0
LINE
  5
5F3
330
74
100
AcDbEntity
  8
2
100
AcDbLine
 10
-1295.82999
 20
773.46173
 30
0.0
 11
-1292.94324
 21
778.4617299999998
 31
0.0
  0
LINE
  5
5F4
330
74
100
AcDbEntity
  8
2
100
AcDbLine
 10
-1287.169735
 20
768.46173
 30
0.0
 11
-1284.282985
 21
773.46173
 31
0.0
  0
LINE
  5
5F5
330
74
100
AcDbEntity
  8
2
100
AcDbLine
 10
-1292.94324
 20
768.46173
 30
0.0
 11
-1295.82999
 21
773.46173
 31
0.0
  0
LINE
  5
5F6
330
74
100
AcDbEntity
  8
2
100
AcDbLine
 10
-1284.282985
 20
773.46173
 30
0.0
 11
-1287.169735
 21
778.4617299999998
 31
0.0
  0
CIRCLE
  5
5F7
330
74
100
AcDbEntity
  8
2
100
AcDbCircle
 10
-1202.056485
 20
861.46173
 30
0.0
 40
4.9
  0
CIRCLE
  5
5F8
330
74
100
AcDbEntity
  8
2
100
AcDbCircle
 10
-1202.056485
 20
861.46173
 30
0.0
 40
6.099999999999998
  0
LINE
  5
5F9
330
74
100
AcDbEntity
  8
2
100
AcDbLine
 10
-1204.94324
 20
866.4617299999999
 30
0.0
 11
-1199.169735
 21
866.4617299999999
 31
0.0
  0
LINE
  5
5FA
330
74
100
AcDbEntity
  8
2
100
AcDbLine
 10
-1204.94324
 20
856.4617300000001
 30
0.0
 11
-1199.169735
 21
856.4617300000001
 31
0.0
  0
LINE
  5
5FB
330
74
100
AcDbEntity
  8
2
100
AcDbLine
 10
-1207.82999
 20
861.46173
 30
0.0
 11
-1204.94324
 21
866.4617299999999
 31
0.0
  0
LINE
  5
5FC
330
74
100
AcDbEntity
  8
2
100
AcDbLine
 10
-1199.169735
 20
856.4617300000001
 30
0.0
 11
-1196.282985
 21
861.46173
 31
0.0
  0
LINE
  5
5FD
330
74
100
AcDbEntity
  8
2
100
AcDbLine
 10
-1204.94324
 20
856.4617300000001
 30
0.0
 11
-1207.82999
 21
861.46173
 31
0.0
  0
LINE
  5
5FE
330
74
100
AcDbEntity
  8
2
100
AcDbLine
 10
-1196.282985
 20
861.46173
 30
0.0
 11
-1199.169735
 21
866.4617299999999
 31
0.0
  0
CIRCLE
  5
5FF
330
74
100
AcDbEntity
  8
2
100
AcDbCircle
 10
-1227.83109
 20
799.2363349999999
 30
0.0
 40
4.9
  0
CIRCLE
  5
600
330
74
100
AcDbEntity
  8
2
100
AcDbCircle
 10
-1227.83109
 20
799.2363349999999
 30
0.0
 40
6.099999999999998
  0
LINE
  5
601
330
74
100
AcDbEntity
  8
2
100
AcDbLine
 10
-1230.71784
 20
804.2363349999998
 30
0.0
 11
-1224.94434
 21
804.2363349999998
 31
0.0
  0
LINE
  5
602
330
74
100
AcDbEntity
  8
2
100
AcDbLine
 10
-1230.71784
 20
794.2363349999999
 30
0.0
 11
-1224.94434
 21
794.2363349999999
 31
0.0
  0
LINE
  5
603
330
74
100
AcDbEntity
  8
2
100
AcDbLine
 10
-1233.60459
 20
799.2363349999999
 30
0.0
 11
-1230.71784
 21
804.2363349999998
 31
0.0
  0
LINE
  5
604
330
74
100
AcDbEntity
  8
2
100
AcDbLine
 10
-1224.94434
 20
794.2363349999999
 30
0.0
 11
-1222.057585
 21
799.2363349999999
 31
0.0
  0
LINE
  5
605
330
74
100
AcDbEntity
  8
2
100
AcDbLine
 10
-1230.71784
 20
794.2363349999999
 30
0.0
 11
-1233.60459
 21
799.2363349999999
 31
0.0
  0
LINE
  5
606
330
74
100
AcDbEntity
  8
2
100
AcDbLine
 10
-1222.057585
 20
799.2363349999999
 30
0.0
 11
-1224.94434
 21
804.2363349999998
 31
0.0
  0
CIRCLE
  5
607
330
74
100
AcDbEntity
  8
2
100
AcDbCircle
 10
-1273.545545
 20
844.9507849999999
 30
0.0
 40
4.9
  0
LINE
  5
608
330
74
100
AcDbEntity
  8
2
100
AcDbLine
 10
-1276.432295
 20
849.950785
 30
0.0
 11
-1270.65879
 21
849.950785
 31
0.0
  0
LINE
  5
609
330
74
100
AcDbEntity
  8
2
100
AcDbLine
 10
-1276.432295
 20
839.950785
 30
0.0
 11
-1270.65879
 21
839.950785
 31
0.0
  0
LINE
  5
60A
330
74
100
AcDbEntity
  8
2
100
AcDbLine
 10
-1279.319045
 20
844.9507849999999
 30
0.0
 11
-1276.432295
 21
849.950785
 31
0.0
  0
LINE
  5
60B
330
74
100
AcDbEntity
  8
2
100
AcDbLine
 10
-1270.65879
 20
839.950785
 30
0.0
 11
-1267.77204
 21
844.9507849999999
 31
0.0
  0
LINE
  5
60C
330
74
100
AcDbEntity
  8
2
100
AcDbLine
 10
-1276.432295
 20
839.950785
 30
0.0
 11
-1279.319045
 21
844.9507849999999
 31
0.0
  0
LINE
  5
60D
330
74
100
AcDbEntity
  8
2
100
AcDbLine
 10
-1267.77204
 20
844.9507849999999
 30
0.0
 11
-1270.65879
 21
849.950785
 31
0.0
  0
CIRCLE
  5
60E
330
74
100
AcDbEntity
  8
2
100
AcDbCircle
 10
-1306.56743
 20
877.972675
 30
0.0
 40
4.9
  0
LINE
  5
60F
330
74
100
AcDbEntity
  8
2
100
AcDbLine
 10
-1309.45418
 20
882.972675
 30
0.0
 11
-1303.68068
 21
882.972675
 31
0.0
  0
LINE
  5
610
330
74
100
AcDbEntity
  8
2
100
AcDbLine
 10
-1309.45418
 20
872.9726749999999
 30
0.0
 11
-1303.68068
 21
872.9726749999999
 31
0.0
  0
LINE
  5
611
330
74
100
AcDbEntity
  8
2
100
AcDbLine
 10
-1312.34093
 20
877.972675
 30
0.0
 11
-1309.45418
 21
882.972675
 31
0.0
  0
LINE
  5
612
330
74
100
AcDbEntity
  8
2
100
AcDbLine
 10
-1303.68068
 20
872.9726749999999
 30
0.0
 11
-1300.793925
 21
877.972675
 31
0.0
  0
LINE
  5
613
330
74
100
AcDbEntity
  8
2
100
AcDbLine
 10
-1309.45418
 20
872.9726749999999
 30
0.0
 11
-1312.34093
 21
877.972675
 31
0.0
  0
LINE
  5
614
330
74
100
AcDbEntity
  8
2
100
AcDbLine
 10
-1300.793925
 20
877.972675
 30
0.0
 11
-1303.68068
 21
882.972675
 31
0.0
  0
LINE
  5
615
330
74
100
AcDbEntity
  8
2
100
AcDbLine
 10
-1329.57166
 20
520.2617299999998
 30
0.0
 11
-1340.541315
 21
520.2617299999998
 31
0.0
  0
LINE
  5
616
330
74
100
AcDbEntity
  8
2
100
AcDbLine
 10
-1329.57166
 20
501.26173
 30
0.0
 11
-1340.541315
 21
501.26173
 31
0.0
  0
LINE
  5
617
330
74
100
AcDbEntity
  8
2
100
AcDbLine
 10
-1340.541315
 20
520.2617299999998
 30
0.0
 11
-1346.02614
 21
510.76173
 31
0.0
  0
LINE
  5
618
330
74
100
AcDbEntity
  8
2
100
AcDbLine
 10
-1324.08683
 20
510.76173
 30
0.0
 11
-1329.57166
 21
501.26173
 31
0.0
  0
LINE
  5
619
330
74
100
AcDbEntity
  8
2
100
AcDbLine
 10
-1346.02614
 20
510.76173
 30
0.0
 11
-1340.541315
 21
501.26173
 31
0.0
  0
LINE
  5
61A
330
74
100
AcDbEntity
  8
2
100
AcDbLine
 10
-1329.57166
 20
520.2617299999998
 30
0.0
 11
-1324.08683
 21
510.76173
 31
0.0
  0
LINE
  5
61B
330
74
100
AcDbEntity
  8
2
100
AcDbLine
 10
-1239.57166
 20
520.2617299999998
 30
0.0
 11
-1250.541315
 21
520.2617299999998
 31
0.0
  0
LINE
  5
61C
330
74
100
AcDbEntity
  8
2
100
AcDbLine
 10
-1239.57166
 20
501.26173
 30
0.0
 11
-1250.541315
 21
501.26173
 31
0.0
  0
LINE
  5
61D
330
74
100
AcDbEntity
  8
2
100
AcDbLine
 10
-1250.541315
 20
520.2617299999998
 30
0.0
 11
-1256.02614
 21
510.76173
 31
0.0
  0
LINE
  5
61E
330
74
100
AcDbEntity
  8
2
100
AcDbLine
 10
-1234.08683
 20
510.76173
 30
0.0
 11
-1239.57166
 21
501.26173
 31
0.0
  0
LINE
  5
61F
330
74
100
AcDbEntity
  8
2
100
AcDbLine
 10
-1256.02614
 20
510.76173
 30
0.0
 11
-1250.541315
 21
501.26173
 31
0.0
  0
LINE
  5
620
330
74
100
AcDbEntity
  8
2
100
AcDbLine
 10
-1239.57166
 20
520.2617299999998
 30
0.0
 11
-1234.08683
 21
510.76173
 31
0.0
  0
LINE
  5
621
330
74
100
AcDbEntity
  8
2
100
AcDbLine
 10
-1044.556485
 20
374.513925
 30
0.0
 11
-1044.556485
 21
647.0095399999999
 31
0.0
  0
LINE
  5
622
330
74
100
AcDbEntity
  8
2
100
AcDbLine
 10
-1066.556485
 20
374.513925
 30
0.0
 11
-1066.556485
 21
647.0095399999999
 31
0.0
  0
LINE
  5
623
330
74
100
AcDbEntity
  8
2
100
AcDbLine
 10
-1107.556485
 20
488.2617299999998
 30
0.0
 11
-1107.556485
 21
533.2617299999998
 31
0.0
  0
ARC
  5
624
330
74
100
AcDbEntity
  8
2
100
AcDbCircle
 10
-1055.556485
 20
632.76173
 30
0.0
 40
18.0
100
AcDbArc
 50
52.33011300000018
 51
127.6698869999997
  0
ARC
  5
625
330
74
100
AcDbEntity
  8
2
100
AcDbCircle
 10
-1055.556485
 20
388.76173
 30
0.0
 40
18.0
100
AcDbArc
 50
232.3301130000002
 51
307.6698869999999
  0
ARC
  5
626
330
74
100
AcDbEntity
  8
2
100
AcDbCircle
 10
-1092.556485
 20
510.811785
 30
0.0
 40
27.0
100
AcDbArc
 50
56.25101100000032
 51
123.7489889999997
  0
ARC
  5
627
330
74
100
AcDbEntity
  8
2
100
AcDbCircle
 10
-1092.556485
 20
510.711675
 30
0.0
 40
27.0
100
AcDbArc
 50
236.2510110000003
 51
303.7489889999997
  0
LINE
  5
628
330
74
100
AcDbEntity
  8
2
100
AcDbLine
 10
-1066.556485
 20
445.180985
 30
0.0
 11
-1078.41842
 21
462.1215849999998
 31
0.0
  0
ARC
  5
629
330
74
100
AcDbEntity
  8
2
100
AcDbCircle
 10
-1074.556485
 20
478.385215
 30
0.0
 40
10.0
100
AcDbArc
 50
119.1099090000002
 51
189.709836
  0
ARC
  5
62A
330
74
100
AcDbEntity
  8
2
100
AcDbCircle
 10
-1048.92895
 20
482.77034
 30
0.0
 40
36.0
100
AcDbArc
 50
189.709836
 51
215.0000000000002
  0
LINE
  5
62B
330
74
100
AcDbEntity
  8
2
100
AcDbLine
 10
-1069.067015
 20
424.3581349999999
 30
0.0
 11
-1089.74092
 21
453.8835349999999
 31
0.0
  0
ARC
  5
62C
330
74
100
AcDbEntity
  8
2
100
AcDbCircle
 10
-1108.556485
 20
477.3500199999999
 30
0.0
 40
10.0
100
AcDbArc
 50
4.983697999999945
 51
64.37797200000075
  0
ARC
  5
62D
330
74
100
AcDbEntity
  8
2
100
AcDbCircle
 10
-1048.78332
 20
482.5623599999999
 30
0.0
 40
50.0
100
AcDbArc
 50
184.9836979999999
 51
215.0000000000002
  0
ARC
  5
62E
330
74
100
AcDbEntity
  8
2
100
AcDbCircle
 10
-1098.556485
 20
403.7093849999997
 30
0.0
 40
36.0
100
AcDbArc
 50
27.26604400000011
 51
35.00000000000025
  0
LINE
  5
62F
330
74
100
AcDbEntity
  8
2
100
AcDbLine
 10
-1066.556485
 20
576.342475
 30
0.0
 11
-1078.41842
 21
559.401875
 31
0.0
  0
ARC
  5
630
330
74
100
AcDbEntity
  8
2
100
AcDbCircle
 10
-1074.556485
 20
543.138245
 30
0.0
 40
10.0
100
AcDbArc
 50
170.290164
 51
240.8900909999998
  0
ARC
  5
631
330
74
100
AcDbEntity
  8
2
100
AcDbCircle
 10
-1048.92895
 20
538.7531249999998
 30
0.0
 40
36.0
100
AcDbArc
 50
144.9999999999997
 51
170.290164
  0
LINE
  5
632
330
74
100
AcDbEntity
  8
2
100
AcDbLine
 10
-1069.067015
 20
597.1653249999998
 30
0.0
 11
-1089.74092
 21
567.6399249999998
 31
0.0
  0
ARC
  5
633
330
74
100
AcDbEntity
  8
2
100
AcDbCircle
 10
-1108.556485
 20
544.17344
 30
0.0
 40
10.0
100
AcDbArc
 50
295.6220279999993
 51
355.0163020000002
  0
ARC
  5
634
330
74
100
AcDbEntity
  8
2
100
AcDbCircle
 10
-1048.78332
 20
538.961105
 30
0.0
 40
50.0
100
AcDbArc
 50
144.9999999999997
 51
175.016302
  0
ARC
  5
635
330
74
100
AcDbEntity
  8
2
100
AcDbCircle
 10
-1098.556485
 20
617.81408
 30
0.0
 40
36.0
100
AcDbArc
 50
324.9999999999997
 51
332.7339559999999
  0
LINE
  5
636
330
74
100
AcDbEntity
  8
2
100
AcDbLine
 10
-1098.53179
 20
496.7629650000001
 30
0.0
 11
-1066.556485
 21
498.3617299999999
 31
0.0
  0
LINE
  5
637
330
74
100
AcDbEntity
  8
2
100
AcDbLine
 10
-1098.53179
 20
524.760495
 30
0.0
 11
-1066.556485
 21
523.16173
 31
0.0
  0
ARC
  5
638
330
74
100
AcDbEntity
  8
2
100
AcDbCircle
 10
-1098.23216
 20
530.75301
 30
0.0
 40
6.0
100
AcDbArc
 50
180.0
 51
267.1375949999995
  0
ARC
  5
639
330
74
100
AcDbEntity
  8
2
100
AcDbCircle
 10
-1098.23216
 20
490.77045
 30
0.0
 40
6.0
100
AcDbArc
 50
92.86240500000047
 51
180.0
  0
LINE
  5
63A
330
74
100
AcDbEntity
  8
2
100
AcDbLine
 10
-1077.556485
 20
488.2617299999998
 30
0.0
 11
-1077.556485
 21
497.1129649999999
 31
0.0
  0
LINE
  5
63B
330
74
100
AcDbEntity
  8
2
100
AcDbLine
 10
-1077.556485
 20
524.4104949999998
 30
0.0
 11
-1077.556485
 21
533.2617299999998
 31
0.0
  0
LINE
  5
63C
330
74
100
AcDbEntity
  8
2
100
AcDbLine
 10
-1080.756235
 20
524.570485
 30
0.0
 11
-1066.556485
 21
523.860495
 31
0.0
  0
LINE
  5
63D
330
74
100
AcDbEntity
  8
2
100
AcDbLine
 10
-1080.756235
 20
496.95298
 30
0.0
 11
-1066.556485
 21
497.6629649999998
 31
0.0
  0
ARC
  5
63E
330
74
100
AcDbEntity
  8
2
100
AcDbCircle
 10
-1080.556485
 20
528.565495
 30
0.0
 40
4.0
100
AcDbArc
 50
180.0
 51
267.1375949999995
  0
ARC
  5
63F
330
74
100
AcDbEntity
  8
2
100
AcDbCircle
 10
-1080.556485
 20
492.9579699999998
 30
0.0
 40
4.0
100
AcDbArc
 50
92.86240500000047
 51
180.0
  0
LINE
  5
640
330
74
100
AcDbEntity
  8
2
100
AcDbLine
 10
-1044.556485
 20
810.213925
 30
0.0
 11
-1044.556485
 21
1082.70954
 31
0.0
  0
LINE
  5
641
330
74
100
AcDbEntity
  8
2
100
AcDbLine
 10
-1066.556485
 20
810.213925
 30
0.0
 11
-1066.556485
 21
1082.70954
 31
0.0
  0
LINE
  5
642
330
74
100
AcDbEntity
  8
2
100
AcDbLine
 10
-1107.556485
 20
923.96173
 30
0.0
 11
-1107.556485
 21
968.9617300000001
 31
0.0
  0
ARC
  5
643
330
74
100
AcDbEntity
  8
2
100
AcDbCircle
 10
-1055.556485
 20
1068.46173
 30
0.0
 40
18.0
100
AcDbArc
 50
52.33011300000018
 51
127.6698869999997
  0
ARC
  5
644
330
74
100
AcDbEntity
  8
2
100
AcDbCircle
 10
-1055.556485
 20
824.4617299999998
 30
0.0
 40
18.0
100
AcDbArc
 50
232.3301130000002
 51
307.6698869999999
  0
ARC
  5
645
330
74
100
AcDbEntity
  8
2
100
AcDbCircle
 10
-1092.556485
 20
946.5117849999996
 30
0.0
 40
27.0
100
AcDbArc
 50
56.25101100000032
 51
123.7489889999997
  0
ARC
  5
646
330
74
100
AcDbEntity
  8
2
100
AcDbCircle
 10
-1092.556485
 20
946.411675
 30
0.0
 40
27.0
100
AcDbArc
 50
236.2510110000003
 51
303.7489889999997
  0
LINE
  5
647
330
74
100
AcDbEntity
  8
2
100
AcDbLine
 10
-1066.556485
 20
880.8809850000001
 30
0.0
 11
-1078.41842
 21
897.8215849999997
 31
0.0
  0
ARC
  5
648
330
74
100
AcDbEntity
  8
2
100
AcDbCircle
 10
-1074.556485
 20
914.085215
 30
0.0
 40
10.0
100
AcDbArc
 50
119.1099090000002
 51
189.709836
  0
ARC
  5
649
330
74
100
AcDbEntity
  8
2
100
AcDbCircle
 10
-1048.92895
 20
918.47034
 30
0.0
 40
36.0
100
AcDbArc
 50
189.709836
 51
215.0000000000002
  0
LINE
  5
64A
330
74
100
AcDbEntity
  8
2
100
AcDbLine
 10
-1069.067015
 20
860.058135
 30
0.0
 11
-1089.74092
 21
889.583535
 31
0.0
  0
ARC
  5
64B
330
74
100
AcDbEntity
  8
2
100
AcDbCircle
 10
-1108.556485
 20
913.0500199999998
 30
0.0
 40
10.0
100
AcDbArc
 50
4.983697999999947
 51
64.37797200000075
  0
ARC
  5
64C
330
74
100
AcDbEntity
  8
2
100
AcDbCircle
 10
-1048.78332
 20
918.2623599999999
 30
0.0
 40
50.0
100
AcDbArc
 50
184.9836979999999
 51
215.0000000000002
  0
ARC
  5
64D
330
74
100
AcDbEntity
  8
2
100
AcDbCircle
 10
-1098.556485
 20
839.4093849999999
 30
0.0
 40
36.0
100
AcDbArc
 50
27.26604400000011
 51
35.00000000000025
  0
LINE
  5
64E
330
74
100
AcDbEntity
  8
2
100
AcDbLine
 10
-1066.556485
 20
1012.042475
 30
0.0
 11
-1078.41842
 21
995.1018749999999
 31
0.0
  0
ARC
  5
64F
330
74
100
AcDbEntity
  8
2
100
AcDbCircle
 10
-1074.556485
 20
978.8382449999996
 30
0.0
 40
10.0
100
AcDbArc
 50
170.290164
 51
240.8900909999998
  0
ARC
  5
650
330
74
100
AcDbEntity
  8
2
100
AcDbCircle
 10
-1048.92895
 20
974.4531249999999
 30
0.0
 40
36.0
100
AcDbArc
 50
144.9999999999997
 51
170.290164
  0
LINE
  5
651
330
74
100
AcDbEntity
  8
2
100
AcDbLine
 10
-1069.067015
 20
1032.865325
 30
0.0
 11
-1089.74092
 21
1003.339925
 31
0.0
  0
ARC
  5
652
330
74
100
AcDbEntity
  8
2
100
AcDbCircle
 10
-1108.556485
 20
979.87344
 30
0.0
 40
10.0
100
AcDbArc
 50
295.6220279999993
 51
355.0163020000002
  0
ARC
  5
653
330
74
100
AcDbEntity
  8
2
100
AcDbCircle
 10
-1048.78332
 20
974.661105
 30
0.0
 40
50.0
100
AcDbArc
 50
144.9999999999997
 51
175.016302
  0
ARC
  5
654
330
74
100
AcDbEntity
  8
2
100
AcDbCircle
 10
-1098.556485
 20
1053.51408
 30
0.0
 40
36.0
100
AcDbArc
 50
324.9999999999997
 51
332.7339559999999
  0
LINE
  5
655
330
74
100
AcDbEntity
  8
2
100
AcDbLine
 10
-1098.53179
 20
932.462965
 30
0.0
 11
-1066.556485
 21
934.0617299999999
 31
0.0
  0
LINE
  5
656
330
74
100
AcDbEntity
  8
2
100
AcDbLine
 10
-1098.53179
 20
960.4604949999998
 30
0.0
 11
-1066.556485
 21
958.8617299999999
 31
0.0
  0
ARC
  5
657
330
74
100
AcDbEntity
  8
2
100
AcDbCircle
 10
-1098.23216
 20
966.45301
 30
0.0
 40
6.0
100
AcDbArc
 50
180.0
 51
267.1375949999995
  0
ARC
  5
658
330
74
100
AcDbEntity
  8
2
100
AcDbCircle
 10
-1098.23216
 20
926.47045
 30
0.0
 40
6.0
100
AcDbArc
 50
92.86240500000053
 51
180.0
  0
LINE
  5
659
330
74
100
AcDbEntity
  8
2
100
AcDbLine
 10
-1077.556485
 20
923.96173
 30
0.0
 11
-1077.556485
 21
932.8129649999999
 31
0.0
  0
LINE
  5
65A
330
74
100
AcDbEntity
  8
2
100
AcDbLine
 10
-1077.556485
 20
960.1104949999999
 30
0.0
 11
-1077.556485
 21
968.9617300000001
 31
0.0
  0
LINE
  5
65B
330
74
100
AcDbEntity
  8
2
100
AcDbLine
 10
-1080.756235
 20
960.270485
 30
0.0
 11
-1066.556485
 21
959.560495
 31
0.0
  0
LINE
  5
65C
330
74
100
AcDbEntity
  8
2
100
AcDbLine
 10
-1080.756235
 20
932.6529799999999
 30
0.0
 11
-1066.556485
 21
933.362965
 31
0.0
  0
ARC
  5
65D
330
74
100
AcDbEntity
  8
2
100
AcDbCircle
 10
-1080.556485
 20
964.2654949999998
 30
0.0
 40
4.0
100
AcDbArc
 50
180.0
 51
267.1375949999995
  0
ARC
  5
65E
330
74
100
AcDbEntity
  8
2
100
AcDbCircle
 10
-1080.556485
 20
928.65797
 30
0.0
 40
4.0
100
AcDbArc
 50
92.86240500000053
 51
180.0
  0
LINE
  5
65F
330
74
100
AcDbEntity
  8
2
  6
CENTER
 62
     2
100
AcDbLine
 10
-534.78853
 20
559.0067699999998
 30
0.0
 11
-534.78853
 21
463.3117299999999
 31
0.0
  0
LINE
  5
660
330
74
100
AcDbEntity
  8
2
100
AcDbLine
 10
-714.78853
 20
542.7617299999998
 30
0.0
 11
-554.3397449999998
 21
542.7617299999998
 31
0.0
  0
LINE
  5
661
330
74
100
AcDbEntity
  8
2
100
AcDbLine
 10
-697.28853
 20
468.76173
 30
0.0
 11
-542.28853
 21
468.76173
 31
0.0
  0
LINE
  5
662
330
74
100
AcDbEntity
  8
2
100
AcDbLine
 10
-712.78853
 20
471.7617299999998
 30
0.0
 11
-526.78853
 21
471.7617299999998
 31
0.0
  0
LINE
  5
663
330
74
100
AcDbEntity
  8
2
100
AcDbLine
 10
-542.28853
 20
469.76173
 30
0.0
 11
-542.28853
 21
468.76173
 31
0.0
  0
LINE
  5
664
330
74
100
AcDbEntity
  8
2
100
AcDbLine
 10
-697.28853
 20
469.76173
 30
0.0
 11
-697.28853
 21
468.76173
 31
0.0
  0
ARC
  5
665
330
74
100
AcDbEntity
  8
2
100
AcDbCircle
 10
-712.78853
 20
473.76173
 30
0.0
 40
2.0
100
AcDbArc
 50
180.0
 51
270.0
  0
ARC
  5
666
330
74
100
AcDbEntity
  8
2
100
AcDbCircle
 10
-526.78853
 20
473.76173
 30
0.0
 40
2.0
100
AcDbArc
 50
270.0
 51
0.0
  0
ARC
  5
667
330
74
100
AcDbEntity
  8
2
100
AcDbCircle
 10
-540.28853
 20
469.76173
 30
0.0
 40
2.0
100
AcDbArc
 50
90.0
 51
180.0
  0
ARC
  5
668
330
74
100
AcDbEntity
  8
2
100
AcDbCircle
 10
-699.28853
 20
469.76173
 30
0.0
 40
2.0
100
AcDbArc
 50
0.0
 51
90.0
  0
LINE
  5
669
330
74
100
AcDbEntity
  8
2
100
AcDbLine
 10
-714.78853
 20
543.2617299999998
 30
0.0
 11
-553.49682
 21
543.2617299999998
 31
0.0
  0
LINE
  5
66A
330
74
100
AcDbEntity
  8
2
100
AcDbLine
 10
-713.8885299999998
 20
550.2617299999998
 30
0.0
 11
-525.68853
 21
550.2617299999998
 31
0.0
  0
ARC
  5
66B
330
74
100
AcDbEntity
  8
2
100
AcDbCircle
 10
-526.78853
 20
548.2617299999998
 30
0.0
 40
2.0
100
AcDbArc
 50
0.0
 51
90.0
  0
ARC
  5
66C
330
74
100
AcDbEntity
  8
2
100
AcDbCircle
 10
-712.78853
 20
548.2617299999998
 30
0.0
 40
2.0
100
AcDbArc
 50
90.0
 51
180.0
  0
LINE
  5
66D
330
74
100
AcDbEntity
  8
2
100
AcDbLine
 10
-715.78853
 20
523.2617299999998
 30
0.0
 11
-715.78853
 21
498.26173
 31
0.0
  0
LINE
  5
66E
330
74
100
AcDbEntity
  8
2
100
AcDbLine
 10
-715.78853
 20
523.2617299999998
 30
0.0
 11
-694.8495299999998
 21
523.2617299999998
 31
0.0
  0
LINE
  5
66F
330
74
100
AcDbEntity
  8
2
100
AcDbLine
 10
-715.78853
 20
498.26173
 30
0.0
 11
-694.8495299999998
 21
498.26173
 31
0.0
  0
LINE
  5
670
330
74
100
AcDbEntity
  8
2
100
AcDbLine
 10
-714.78853
 20
473.76173
 30
0.0
 11
-714.78853
 21
498.26173
 31
0.0
  0
LINE
  5
671
330
74
100
AcDbEntity
  8
2
100
AcDbLine
 10
-714.78853
 20
523.2617299999998
 30
0.0
 11
-714.78853
 21
548.2617299999998
 31
0.0
  0
LINE
  5
672
330
74
100
AcDbEntity
  8
2
100
AcDbLine
 10
-649.78853
 20
533.2617299999998
 30
0.0
 11
-589.78853
 21
533.2617299999998
 31
0.0
  0
LINE
  5
673
330
74
100
AcDbEntity
  8
2
100
AcDbLine
 10
-649.78853
 20
488.2617299999998
 30
0.0
 11
-589.78853
 21
488.2617299999998
 31
0.0
  0
LINE
  5
674
330
74
100
AcDbEntity
  8
2
100
AcDbLine
 10
-649.78853
 20
533.2617299999998
 30
0.0
 11
-649.78853
 21
488.2617299999998
 31
0.0
  0
LINE
  5
675
330
74
100
AcDbEntity
  8
2
100
AcDbLine
 10
-589.78853
 20
533.2617299999998
 30
0.0
 11
-589.78853
 21
488.2617299999998
 31
0.0
  0
CIRCLE
  5
676
330
74
100
AcDbEntity
  8
2
100
AcDbCircle
 10
-534.78853
 20
510.76173
 30
0.0
 40
37.5
  0
LINE
  5
677
330
74
100
AcDbEntity
  8
2
100
AcDbLine
 10
-524.78853
 20
473.76173
 30
0.0
 11
-524.78853
 21
474.6196499999999
 31
0.0
  0
LINE
  5
678
330
74
100
AcDbEntity
  8
2
100
AcDbLine
 10
-524.78853
 20
546.9038099999998
 30
0.0
 11
-524.78853
 21
548.2617299999998
 31
0.0
  0
CIRCLE
  5
679
330
74
100
AcDbEntity
  8
2
100
AcDbCircle
 10
-534.78853
 20
510.76173
 30
0.0
 40
10.0
  0
LINE
  5
67A
330
74
100
AcDbEntity
  8
2
  6
CENTER
 62
     2
100
AcDbLine
 10
-564.32795
 20
481.222315
 30
0.0
 11
-545.363425
 21
500.1868349999998
 31
0.0
  0
LINE
  5
67B
330
74
100
AcDbEntity
  8
2
  6
CENTER
 62
     2
100
AcDbLine
 10
-524.4121349999999
 20
521.1381299999999
 30
0.0
 11
-505.66059
 21
539.88967
 31
0.0
  0
LINE
  5
67C
330
74
100
AcDbEntity
  8
2
  6
CENTER
 62
     2
100
AcDbLine
 10
-564.0019399999999
 20
539.97514
 30
0.0
 11
-545.2179749999998
 21
521.191175
 31
0.0
  0
LINE
  5
67D
330
74
100
AcDbEntity
  8
2
  6
CENTER
 62
     2
100
AcDbLine
 10
-524.418315
 20
500.391515
 30
0.0
 11
-505.7537199999998
 21
481.72692
 31
0.0
  0
ARC
  5
67E
330
74
100
AcDbEntity
  8
2
  6
CENTER
 62
     2
100
AcDbCircle
 10
-534.78853
 20
510.76173
 30
0.0
 40
27.5
100
AcDbArc
 50
15.42206899999962
 51
74.80508699999949
  0
ARC
  5
67F
330
74
100
AcDbEntity
  8
2
  6
CENTER
 62
     2
100
AcDbCircle
 10
-534.78853
 20
510.76173
 30
0.0
 40
27.5
100
AcDbArc
 50
288.8329180000003
 51
341.7185850000004
  0
ARC
  5
680
330
74
100
AcDbEntity
  8
2
  6
CENTER
 62
     2
100
AcDbCircle
 10
-534.78853
 20
510.76173
 30
0.0
 40
27.5
100
AcDbArc
 50
109.2592709999997
 51
161.6474639999995
  0
ARC
  5
681
330
74
100
AcDbEntity
  8
2
  6
CENTER
 62
     2
100
AcDbCircle
 10
-534.78853
 20
510.76173
 30
0.0
 40
27.5
100
AcDbArc
 50
197.4779499999993
 51
252.3264179999999
  0
LINE
  5
682
330
74
100
AcDbEntity
  8
2
100
AcDbLine
 10
-582.78853
 20
551.7617299999998
 30
0.0
 11
-582.78853
 21
550.2617299999998
 31
0.0
  0
LINE
  5
683
330
74
100
AcDbEntity
  8
2
100
AcDbLine
 10
-656.78853
 20
552.7617299999998
 30
0.0
 11
-656.78853
 21
550.2617299999998
 31
0.0
  0
LINE
  5
684
330
74
100
AcDbEntity
  8
2
100
AcDbLine
 10
-584.78853
 20
555.0617299999998
 30
0.0
 11
-584.78853
 21
551.7617299999998
 31
0.0
  0
LINE
  5
685
330
74
100
AcDbEntity
  8
2
100
AcDbLine
 10
-657.1438699999998
 20
555.0617299999998
 30
0.0
 11
-657.1438699999998
 21
552.7617299999998
 31
0.0
  0
LINE
  5
686
330
74
100
AcDbEntity
  8
2
100
AcDbLine
 10
-657.1438699999998
 20
555.0617299999998
 30
0.0
 11
-624.78853
 21
555.0617299999998
 31
0.0
  0
LINE
  5
687
330
74
100
AcDbEntity
  8
2
100
AcDbLine
 10
-614.78853
 20
555.0617299999998
 30
0.0
 11
-584.78853
 21
555.0617299999998
 31
0.0
  0
LINE
  5
688
330
74
100
AcDbEntity
  8
2
100
AcDbLine
 10
-657.1438699999998
 20
552.7617299999998
 30
0.0
 11
-624.78853
 21
552.7617299999998
 31
0.0
  0
LINE
  5
689
330
74
100
AcDbEntity
  8
2
100
AcDbLine
 10
-614.78853
 20
552.7617299999998
 30
0.0
 11
-584.78853
 21
552.7617299999998
 31
0.0
  0
LINE
  5
68A
330
74
100
AcDbEntity
  8
2
100
AcDbLine
 10
-656.78853
 20
551.7617299999998
 30
0.0
 11
-625.8885299999998
 21
551.7617299999998
 31
0.0
  0
LINE
  5
68B
330
74
100
AcDbEntity
  8
2
100
AcDbLine
 10
-613.68853
 20
551.7617299999998
 30
0.0
 11
-582.78853
 21
551.7617299999998
 31
0.0
  0
LINE
  5
68C
330
74
100
AcDbEntity
  8
2
  6
CENTER
 62
     2
100
AcDbLine
 10
-707.78853
 20
562.3235849999998
 30
0.0
 11
-707.78853
 21
538.1448599999998
 31
0.0
  0
LINE
  5
68D
330
74
100
AcDbEntity
  8
2
  6
CENTER
 62
     2
100
AcDbLine
 10
-682.01393
 20
562.3235849999998
 30
0.0
 11
-682.01393
 21
538.1448599999998
 31
0.0
  0
LINE
  5
68E
330
74
100
AcDbEntity
  8
2
  6
CENTER
 62
     2
100
AcDbLine
 10
-636.299475
 20
567.540195
 30
0.0
 11
-636.299475
 21
545.516425
 31
0.0
  0
LINE
  5
68F
330
74
100
AcDbEntity
  8
2
  6
CENTER
 62
     2
100
AcDbLine
 10
-603.27759
 20
567.540195
 30
0.0
 11
-603.27759
 21
545.516425
 31
0.0
  0
LINE
  5
690
330
74
100
AcDbEntity
  8
2
  6
CENTER
 62
     2
100
AcDbLine
 10
-531.78853
 20
545.1486449999999
 30
0.0
 11
-531.78853
 21
562.3235849999998
 31
0.0
  0
LINE
  5
691
330
74
100
AcDbEntity
  8
2
  6
CENTER
 62
     2
100
AcDbLine
 10
-557.563135
 20
562.3235849999998
 30
0.0
 11
-557.563135
 21
544.749855
 31
0.0
  0
LINE
  5
692
330
74
100
AcDbEntity
  8
2
  6
CENTER
 62
     2
100
AcDbLine
 10
-488.1885299999999
 20
510.76173
 30
0.0
 11
-754.8885299999998
 21
510.76173
 31
0.0
  0
LINE
  5
693
330
74
100
AcDbEntity
  8
2
100
AcDbLine
 10
-712.78853
 20
551.7617299999998
 30
0.0
 11
-712.78853
 21
555.7617299999998
 31
0.0
  0
LINE
  5
694
330
74
100
AcDbEntity
  8
2
100
AcDbLine
 10
-712.78853
 20
555.7617299999998
 30
0.0
 11
-702.78853
 21
555.7617299999998
 31
0.0
  0
ARC
  5
695
330
74
100
AcDbEntity
  8
2
100
AcDbCircle
 10
-710.28853
 20
549.1485249999998
 30
0.0
 40
6.61321
100
AcDbArc
 50
67.78820499999949
 51
112.2117950000005
  0
LINE
  5
696
330
74
100
AcDbEntity
  8
2
100
AcDbLine
 10
-702.78853
 20
551.7617299999998
 30
0.0
 11
-702.78853
 21
555.7617299999998
 31
0.0
  0
LINE
  5
697
330
74
100
AcDbEntity
  8
2
100
AcDbLine
 10
-707.78853
 20
551.7617299999998
 30
0.0
 11
-707.78853
 21
555.270985
 31
0.0
  0
ARC
  5
698
330
74
100
AcDbEntity
  8
2
100
AcDbCircle
 10
-705.28853
 20
549.1485249999998
 30
0.0
 40
6.61321
100
AcDbArc
 50
67.78820499999949
 51
112.2117950000005
  0
LINE
  5
699
330
74
100
AcDbEntity
  8
2
100
AcDbLine
 10
-713.8885299999998
 20
550.2617299999998
 30
0.0
 11
-713.8885299999998
 21
551.7617299999998
 31
0.0
  0
LINE
  5
69A
330
74
100
AcDbEntity
  8
2
100
AcDbLine
 10
-713.8885299999998
 20
551.7617299999998
 30
0.0
 11
-701.68853
 21
551.7617299999998
 31
0.0
  0
LINE
  5
69B
330
74
100
AcDbEntity
  8
2
100
AcDbLine
 10
-701.68853
 20
551.7617299999998
 30
0.0
 11
-701.68853
 21
550.2617299999998
 31
0.0
  0
LINE
  5
69C
330
74
100
AcDbEntity
  8
2
100
AcDbLine
 10
-687.0139299999998
 20
551.7617299999998
 30
0.0
 11
-687.0139299999998
 21
555.7617299999998
 31
0.0
  0
LINE
  5
69D
330
74
100
AcDbEntity
  8
2
100
AcDbLine
 10
-687.0139299999998
 20
555.7617299999998
 30
0.0
 11
-677.0139299999998
 21
555.7617299999998
 31
0.0
  0
ARC
  5
69E
330
74
100
AcDbEntity
  8
2
100
AcDbCircle
 10
-684.5139299999998
 20
549.1485249999998
 30
0.0
 40
6.61321
100
AcDbArc
 50
67.78820499999949
 51
112.2117950000005
  0
LINE
  5
69F
330
74
100
AcDbEntity
  8
2
100
AcDbLine
 10
-677.0139299999998
 20
551.7617299999998
 30
0.0
 11
-677.0139299999998
 21
555.7617299999998
 31
0.0
  0
LINE
  5
6A0
330
74
100
AcDbEntity
  8
2
100
AcDbLine
 10
-682.01393
 20
551.7617299999998
 30
0.0
 11
-682.01393
 21
555.270985
 31
0.0
  0
ARC
  5
6A1
330
74
100
AcDbEntity
  8
2
100
AcDbCircle
 10
-679.5139299999998
 20
549.1485249999998
 30
0.0
 40
6.61321
100
AcDbArc
 50
67.78820499999949
 51
112.2117950000005
  0
LINE
  5
6A2
330
74
100
AcDbEntity
  8
2
100
AcDbLine
 10
-688.11393
 20
550.2617299999998
 30
0.0
 11
-688.11393
 21
551.7617299999998
 31
0.0
  0
LINE
  5
6A3
330
74
100
AcDbEntity
  8
2
100
AcDbLine
 10
-688.11393
 20
551.7617299999998
 30
0.0
 11
-675.9139299999998
 21
551.7617299999998
 31
0.0
  0
LINE
  5
6A4
330
74
100
AcDbEntity
  8
2
100
AcDbLine
 10
-675.9139299999998
 20
551.7617299999998
 30
0.0
 11
-675.9139299999998
 21
550.2617299999998
 31
0.0
  0
LINE
  5
6A5
330
74
100
AcDbEntity
  8
2
100
AcDbLine
 10
-641.299475
 20
556.66173
 30
0.0
 11
-641.299475
 21
560.66173
 31
0.0
  0
LINE
  5
6A6
330
74
100
AcDbEntity
  8
2
100
AcDbLine
 10
-641.299475
 20
560.66173
 30
0.0
 11
-631.299475
 21
560.66173
 31
0.0
  0
ARC
  5
6A7
330
74
100
AcDbEntity
  8
2
100
AcDbCircle
 10
-638.799475
 20
554.048525
 30
0.0
 40
6.61321
100
AcDbArc
 50
67.78820499999949
 51
112.2117950000005
  0
LINE
  5
6A8
330
74
100
AcDbEntity
  8
2
100
AcDbLine
 10
-631.299475
 20
556.66173
 30
0.0
 11
-631.299475
 21
560.66173
 31
0.0
  0
LINE
  5
6A9
330
74
100
AcDbEntity
  8
2
100
AcDbLine
 10
-636.299475
 20
556.66173
 30
0.0
 11
-636.299475
 21
560.1709849999998
 31
0.0
  0
ARC
  5
6AA
330
74
100
AcDbEntity
  8
2
100
AcDbCircle
 10
-633.799475
 20
554.048525
 30
0.0
 40
6.61321
100
AcDbArc
 50
67.78820499999949
 51
112.2117950000005
  0
LINE
  5
6AB
330
74
100
AcDbEntity
  8
2
100
AcDbLine
 10
-642.549475
 20
556.66173
 30
0.0
 11
-630.049475
 21
556.66173
 31
0.0
  0
LINE
  5
6AC
330
74
100
AcDbEntity
  8
2
100
AcDbLine
 10
-624.78853
 20
551.7617299999998
 30
0.0
 11
-624.78853
 21
555.7617299999998
 31
0.0
  0
LINE
  5
6AD
330
74
100
AcDbEntity
  8
2
100
AcDbLine
 10
-624.78853
 20
555.7617299999998
 30
0.0
 11
-614.78853
 21
555.7617299999998
 31
0.0
  0
ARC
  5
6AE
330
74
100
AcDbEntity
  8
2
100
AcDbCircle
 10
-622.28853
 20
549.1485249999998
 30
0.0
 40
6.61321
100
AcDbArc
 50
67.78820499999949
 51
112.2117950000005
  0
LINE
  5
6AF
330
74
100
AcDbEntity
  8
2
100
AcDbLine
 10
-614.78853
 20
551.7617299999998
 30
0.0
 11
-614.78853
 21
555.7617299999998
 31
0.0
  0
LINE
  5
6B0
330
74
100
AcDbEntity
  8
2
100
AcDbLine
 10
-619.78853
 20
551.7617299999998
 30
0.0
 11
-619.78853
 21
555.270985
 31
0.0
  0
ARC
  5
6B1
330
74
100
AcDbEntity
  8
2
100
AcDbCircle
 10
-617.28853
 20
549.1485249999998
 30
0.0
 40
6.61321
100
AcDbArc
 50
67.78820499999949
 51
112.2117950000005
  0
LINE
  5
6B2
330
74
100
AcDbEntity
  8
2
100
AcDbLine
 10
-625.8885299999998
 20
550.2617299999998
 30
0.0
 11
-625.8885299999998
 21
551.7617299999998
 31
0.0
  0
LINE
  5
6B3
330
74
100
AcDbEntity
  8
2
100
AcDbLine
 10
-625.8885299999998
 20
551.7617299999998
 30
0.0
 11
-613.68853
 21
551.7617299999998
 31
0.0
  0
LINE
  5
6B4
330
74
100
AcDbEntity
  8
2
100
AcDbLine
 10
-613.68853
 20
551.7617299999998
 30
0.0
 11
-613.68853
 21
550.2617299999998
 31
0.0
  0
LINE
  5
6B5
330
74
100
AcDbEntity
  8
2
100
AcDbLine
 10
-608.27759
 20
556.66173
 30
0.0
 11
-608.27759
 21
560.66173
 31
0.0
  0
LINE
  5
6B6
330
74
100
AcDbEntity
  8
2
100
AcDbLine
 10
-608.27759
 20
560.66173
 30
0.0
 11
-598.27759
 21
560.66173
 31
0.0
  0
ARC
  5
6B7
330
74
100
AcDbEntity
  8
2
100
AcDbCircle
 10
-605.77759
 20
554.048525
 30
0.0
 40
6.61321
100
AcDbArc
 50
67.78820499999949
 51
112.2117950000005
  0
LINE
  5
6B8
330
74
100
AcDbEntity
  8
2
100
AcDbLine
 10
-598.27759
 20
556.66173
 30
0.0
 11
-598.27759
 21
560.66173
 31
0.0
  0
LINE
  5
6B9
330
74
100
AcDbEntity
  8
2
100
AcDbLine
 10
-603.27759
 20
556.66173
 30
0.0
 11
-603.27759
 21
560.1709849999998
 31
0.0
  0
ARC
  5
6BA
330
74
100
AcDbEntity
  8
2
100
AcDbCircle
 10
-600.77759
 20
554.048525
 30
0.0
 40
6.61321
100
AcDbArc
 50
67.78820499999949
 51
112.2117950000005
  0
LINE
  5
6BB
330
74
100
AcDbEntity
  8
2
100
AcDbLine
 10
-609.52759
 20
556.66173
 30
0.0
 11
-597.02759
 21
556.66173
 31
0.0
  0
LINE
  5
6BC
330
74
100
AcDbEntity
  8
2
100
AcDbLine
 10
-562.5631349999999
 20
551.7617299999998
 30
0.0
 11
-562.5631349999999
 21
555.7617299999998
 31
0.0
  0
LINE
  5
6BD
330
74
100
AcDbEntity
  8
2
100
AcDbLine
 10
-562.5631349999999
 20
555.7617299999998
 30
0.0
 11
-552.563135
 21
555.7617299999998
 31
0.0
  0
ARC
  5
6BE
330
74
100
AcDbEntity
  8
2
100
AcDbCircle
 10
-560.0631349999998
 20
549.1485249999998
 30
0.0
 40
6.61321
100
AcDbArc
 50
67.78820499999949
 51
112.2117950000005
  0
LINE
  5
6BF
330
74
100
AcDbEntity
  8
2
100
AcDbLine
 10
-552.563135
 20
551.7617299999998
 30
0.0
 11
-552.563135
 21
555.7617299999998
 31
0.0
  0
LINE
  5
6C0
330
74
100
AcDbEntity
  8
2
100
AcDbLine
 10
-557.563135
 20
551.7617299999998
 30
0.0
 11
-557.563135
 21
555.270985
 31
0.0
  0
ARC
  5
6C1
330
74
100
AcDbEntity
  8
2
100
AcDbCircle
 10
-555.0631349999998
 20
549.1485249999998
 30
0.0
 40
6.61321
100
AcDbArc
 50
67.78820499999949
 51
112.2117950000005
  0
LINE
  5
6C2
330
74
100
AcDbEntity
  8
2
100
AcDbLine
 10
-563.663135
 20
550.2617299999998
 30
0.0
 11
-563.663135
 21
551.7617299999998
 31
0.0
  0
LINE
  5
6C3
330
74
100
AcDbEntity
  8
2
100
AcDbLine
 10
-563.663135
 20
551.7617299999998
 30
0.0
 11
-551.463135
 21
551.7617299999998
 31
0.0
  0
LINE
  5
6C4
330
74
100
AcDbEntity
  8
2
100
AcDbLine
 10
-551.463135
 20
551.7617299999998
 30
0.0
 11
-551.463135
 21
550.2617299999998
 31
0.0
  0
LINE
  5
6C5
330
74
100
AcDbEntity
  8
2
100
AcDbLine
 10
-536.78853
 20
551.7617299999998
 30
0.0
 11
-536.78853
 21
555.7617299999998
 31
0.0
  0
LINE
  5
6C6
330
74
100
AcDbEntity
  8
2
100
AcDbLine
 10
-536.78853
 20
555.7617299999998
 30
0.0
 11
-526.78853
 21
555.7617299999998
 31
0.0
  0
ARC
  5
6C7
330
74
100
AcDbEntity
  8
2
100
AcDbCircle
 10
-534.28853
 20
549.1485249999998
 30
0.0
 40
6.61321
100
AcDbArc
 50
67.78820499999949
 51
112.2117950000005
  0
LINE
  5
6C8
330
74
100
AcDbEntity
  8
2
100
AcDbLine
 10
-526.78853
 20
551.7617299999998
 30
0.0
 11
-526.78853
 21
555.7617299999998
 31
0.0
  0
LINE
  5
6C9
330
74
100
AcDbEntity
  8
2
100
AcDbLine
 10
-531.78853
 20
551.7617299999998
 30
0.0
 11
-531.78853
 21
555.270985
 31
0.0
  0
ARC
  5
6CA
330
74
100
AcDbEntity
  8
2
100
AcDbCircle
 10
-529.28853
 20
549.1485249999998
 30
0.0
 40
6.61321
100
AcDbArc
 50
67.78820499999949
 51
112.2117950000005
  0
LINE
  5
6CB
330
74
100
AcDbEntity
  8
2
100
AcDbLine
 10
-537.8885299999998
 20
550.2617299999998
 30
0.0
 11
-537.8885299999998
 21
551.7617299999998
 31
0.0
  0
LINE
  5
6CC
330
74
100
AcDbEntity
  8
2
100
AcDbLine
 10
-537.8885299999998
 20
551.7617299999998
 30
0.0
 11
-525.68853
 21
551.7617299999998
 31
0.0
  0
LINE
  5
6CD
330
74
100
AcDbEntity
  8
2
100
AcDbLine
 10
-525.68853
 20
551.7617299999998
 30
0.0
 11
-525.68853
 21
550.2617299999998
 31
0.0
  0
LINE
  5
6CE
330
74
100
AcDbEntity
  8
2
100
AcDbLine
 10
-718.28853
 20
522.7617299999998
 30
0.0
 11
-718.28853
 21
498.76173
 31
0.0
  0
LINE
  5
6CF
330
74
100
AcDbEntity
  8
2
100
AcDbLine
 10
-718.28853
 20
522.7617299999998
 30
0.0
 11
-715.78853
 21
522.7617299999998
 31
0.0
  0
LINE
  5
6D0
330
74
100
AcDbEntity
  8
2
100
AcDbLine
 10
-718.28853
 20
498.76173
 30
0.0
 11
-715.78853
 21
498.76173
 31
0.0
  0
LINE
  5
6D1
330
74
100
AcDbEntity
  8
2
100
AcDbLine
 10
-718.28853
 20
501.26173
 30
0.0
 11
-728.28853
 21
501.26173
 31
0.0
  0
LINE
  5
6D2
330
74
100
AcDbEntity
  8
2
100
AcDbLine
 10
-728.28853
 20
501.26173
 30
0.0
 11
-728.28853
 21
520.2617299999998
 31
0.0
  0
ARC
  5
6D3
330
74
100
AcDbEntity
  8
2
100
AcDbCircle
 10
-717.7052599999998
 20
506.0117299999998
 30
0.0
 40
10.583275
100
AcDbArc
 50
153.331909
 51
206.668091
  0
LINE
  5
6D4
330
74
100
AcDbEntity
  8
2
100
AcDbLine
 10
-718.28853
 20
520.2617299999998
 30
0.0
 11
-728.28853
 21
520.2617299999998
 31
0.0
  0
LINE
  5
6D5
330
74
100
AcDbEntity
  8
2
100
AcDbLine
 10
-718.28853
 20
510.76173
 30
0.0
 11
-727.1626999999998
 21
510.76173
 31
0.0
  0
ARC
  5
6D6
330
74
100
AcDbEntity
  8
2
100
AcDbCircle
 10
-717.7052599999998
 20
515.5117299999999
 30
0.0
 40
10.583275
100
AcDbArc
 50
153.331909
 51
206.668091
  0
LINE
  5
6D7
330
74
100
AcDbEntity
  8
2
100
AcDbLine
 10
-737.78853
 20
501.26173
 30
0.0
 11
-745.78853
 21
501.26173
 31
0.0
  0
LINE
  5
6D8
330
74
100
AcDbEntity
  8
2
100
AcDbLine
 10
-745.78853
 20
501.26173
 30
0.0
 11
-745.78853
 21
520.2617299999998
 31
0.0
  0
ARC
  5
6D9
330
74
100
AcDbEntity
  8
2
100
AcDbCircle
 10
-735.2052599999998
 20
506.0117299999998
 30
0.0
 40
10.583275
100
AcDbArc
 50
153.331909
 51
206.668091
  0
LINE
  5
6DA
330
74
100
AcDbEntity
  8
2
100
AcDbLine
 10
-728.28853
 20
504.7617299999997
 30
0.0
 11
-737.78853
 21
504.7617299999997
 31
0.0
  0
LINE
  5
6DB
330
74
100
AcDbEntity
  8
2
100
AcDbLine
 10
-732.7355299999999
 20
516.7617299999999
 30
0.0
 11
-732.7355299999999
 21
504.7617299999997
 31
0.0
  0
LINE
  5
6DC
330
74
100
AcDbEntity
  8
2
 62
     2
100
AcDbLine
 10
-728.28853
 20
505.70873
 30
0.0
 11
-732.7355299999999
 21
505.70873
 31
0.0
  0
LINE
  5
6DD
330
74
100
AcDbEntity
  8
2
 62
     2
100
AcDbLine
 10
-732.7355299999999
 20
505.70873
 30
0.0
 11
-737.78853
 21
504.7617299999997
 31
0.0
  0
LINE
  5
6DE
330
74
100
AcDbEntity
  8
2
100
AcDbLine
 10
-737.78853
 20
520.2617299999998
 30
0.0
 11
-737.78853
 21
501.26173
 31
0.0
  0
LINE
  5
6DF
330
74
100
AcDbEntity
  8
2
100
AcDbLine
 10
-737.78853
 20
521.2617299999998
 30
0.0
 11
-745.78853
 21
521.2617299999998
 31
0.0
  0
LINE
  5
6E0
330
74
100
AcDbEntity
  8
2
100
AcDbLine
 10
-737.78853
 20
511.76173
 30
0.0
 11
-744.6626999999998
 21
511.76173
 31
0.0
  0
ARC
  5
6E1
330
74
100
AcDbEntity
  8
2
100
AcDbCircle
 10
-735.2052599999998
 20
516.5117299999999
 30
0.0
 40
10.583275
100
AcDbArc
 50
153.331909
 51
206.668091
  0
LINE
  5
6E2
330
74
100
AcDbEntity
  8
2
100
AcDbLine
 10
-728.28853
 20
516.7617299999999
 30
0.0
 11
-737.78853
 21
516.7617299999999
 31
0.0
  0
LINE
  5
6E3
330
74
100
AcDbEntity
  8
2
 62
     2
100
AcDbLine
 10
-728.28853
 20
515.8147299999999
 30
0.0
 11
-732.7355299999999
 21
515.8147299999999
 31
0.0
  0
LINE
  5
6E4
330
74
100
AcDbEntity
  8
2
 62
     2
100
AcDbLine
 10
-732.7355299999999
 20
516.8147299999999
 30
0.0
 11
-737.78853
 21
517.7617299999999
 31
0.0
  0
CIRCLE
  5
6E5
330
74
100
AcDbEntity
  8
2
100
AcDbCircle
 10
-554.23397
 20
530.207165
 30
0.0
 40
8.25
  0
ARC
  5
6E6
330
74
100
AcDbEntity
  8
2
100
AcDbCircle
 10
-554.23397
 20
530.207165
 30
0.0
 40
9.199999999999999
100
AcDbArc
 50
127.5050179999994
 51
172.494982
  0
ARC
  5
6E7
330
74
100
AcDbEntity
  8
2
100
AcDbCircle
 10
-554.23397
 20
530.207165
 30
0.0
 40
9.199999999999999
100
AcDbArc
 50
67.50501799999954
 51
112.4949820000004
  0
ARC
  5
6E8
330
74
100
AcDbEntity
  8
2
100
AcDbCircle
 10
-554.23397
 20
530.207165
 30
0.0
 40
9.199999999999999
100
AcDbArc
 50
7.505018000000006
 51
52.49498200000054
  0
ARC
  5
6E9
330
74
100
AcDbEntity
  8
2
100
AcDbCircle
 10
-554.23397
 20
530.207165
 30
0.0
 40
9.199999999999999
100
AcDbArc
 50
307.5050179999994
 51
352.494982
  0
ARC
  5
6EA
330
74
100
AcDbEntity
  8
2
100
AcDbCircle
 10
-554.23397
 20
530.207165
 30
0.0
 40
9.199999999999999
100
AcDbArc
 50
247.5050179999996
 51
292.4949820000005
  0
ARC
  5
6EB
330
74
100
AcDbEntity
  8
2
100
AcDbCircle
 10
-554.23397
 20
530.207165
 30
0.0
 40
9.199999999999999
100
AcDbArc
 50
187.505018
 51
232.4949820000006
  0
LINE
  5
6EC
330
74
100
AcDbEntity
  8
2
100
AcDbLine
 10
-609.52759
 20
555.0617299999998
 30
0.0
 11
-609.52759
 21
556.66173
 31
0.0
  0
LINE
  5
6ED
330
74
100
AcDbEntity
  8
2
100
AcDbLine
 10
-597.02759
 20
555.0617299999998
 30
0.0
 11
-597.02759
 21
556.66173
 31
0.0
  0
LINE
  5
6EE
330
74
100
AcDbEntity
  8
2
100
AcDbLine
 10
-630.049475
 20
555.0617299999998
 30
0.0
 11
-630.049475
 21
556.66173
 31
0.0
  0
LINE
  5
6EF
330
74
100
AcDbEntity
  8
2
100
AcDbLine
 10
-642.549475
 20
555.0617299999998
 30
0.0
 11
-642.549475
 21
556.66173
 31
0.0
  0
LINE
  5
6F0
330
74
100
AcDbEntity
  8
2
100
AcDbLine
 10
-692.8495299999998
 20
523.2617299999998
 30
0.0
 11
-692.8495299999998
 21
498.26173
 31
0.0
  0
ARC
  5
6F1
330
74
100
AcDbEntity
  8
2
100
AcDbCircle
 10
-694.8495299999998
 20
525.2617299999998
 30
0.0
 40
2.0
100
AcDbArc
 50
270.0
 51
0.0
  0
ARC
  5
6F2
330
74
100
AcDbEntity
  8
2
100
AcDbCircle
 10
-694.8495299999998
 20
496.2617299999998
 30
0.0
 40
2.0
100
AcDbArc
 50
0.0
 51
90.0
  0
LINE
  5
6F3
330
74
100
AcDbEntity
  8
2
100
AcDbLine
 10
-559.141445
 20
538.707165
 30
0.0
 11
-549.3264899999998
 21
538.707165
 31
0.0
  0
LINE
  5
6F4
330
74
100
AcDbEntity
  8
2
100
AcDbLine
 10
-559.141445
 20
521.707165
 30
0.0
 11
-549.3264899999998
 21
521.707165
 31
0.0
  0
LINE
  5
6F5
330
74
100
AcDbEntity
  8
2
100
AcDbLine
 10
-564.048925
 20
530.207165
 30
0.0
 11
-559.141445
 21
538.707165
 31
0.0
  0
LINE
  5
6F6
330
74
100
AcDbEntity
  8
2
100
AcDbLine
 10
-549.3264899999998
 20
521.707165
 30
0.0
 11
-544.4190149999998
 21
530.207165
 31
0.0
  0
LINE
  5
6F7
330
74
100
AcDbEntity
  8
2
100
AcDbLine
 10
-559.141445
 20
521.707165
 30
0.0
 11
-564.048925
 21
530.207165
 31
0.0
  0
LINE
  5
6F8
330
74
100
AcDbEntity
  8
2
100
AcDbLine
 10
-544.4190149999998
 20
530.207165
 30
0.0
 11
-549.3264899999998
 21
538.707165
 31
0.0
  0
CIRCLE
  5
6F9
330
74
100
AcDbEntity
  8
2
100
AcDbCircle
 10
-515.3430949999998
 20
530.207165
 30
0.0
 40
8.25
  0
ARC
  5
6FA
330
74
100
AcDbEntity
  8
2
100
AcDbCircle
 10
-515.3430949999998
 20
530.207165
 30
0.0
 40
9.199999999999999
100
AcDbArc
 50
127.5050179999994
 51
172.494982
  0
ARC
  5
6FB
330
74
100
AcDbEntity
  8
2
100
AcDbCircle
 10
-515.3430949999998
 20
530.207165
 30
0.0
 40
9.199999999999999
100
AcDbArc
 50
67.50501799999954
 51
112.4949820000004
  0
ARC
  5
6FC
330
74
100
AcDbEntity
  8
2
100
AcDbCircle
 10
-515.3430949999998
 20
530.207165
 30
0.0
 40
9.199999999999999
100
AcDbArc
 50
7.505018000000006
 51
52.49498200000054
  0
ARC
  5
6FD
330
74
100
AcDbEntity
  8
2
100
AcDbCircle
 10
-515.3430949999998
 20
530.207165
 30
0.0
 40
9.199999999999999
100
AcDbArc
 50
307.5050179999994
 51
352.494982
  0
ARC
  5
6FE
330
74
100
AcDbEntity
  8
2
100
AcDbCircle
 10
-515.3430949999998
 20
530.207165
 30
0.0
 40
9.199999999999999
100
AcDbArc
 50
247.5050179999996
 51
292.4949820000005
  0
ARC
  5
6FF
330
74
100
AcDbEntity
  8
2
100
AcDbCircle
 10
-515.3430949999998
 20
530.207165
 30
0.0
 40
9.199999999999999
100
AcDbArc
 50
187.505018
 51
232.4949820000006
  0
LINE
  5
700
330
74
100
AcDbEntity
  8
2
100
AcDbLine
 10
-520.250575
 20
538.707165
 30
0.0
 11
-510.4356199999998
 21
538.707165
 31
0.0
  0
LINE
  5
701
330
74
100
AcDbEntity
  8
2
100
AcDbLine
 10
-520.250575
 20
521.707165
 30
0.0
 11
-510.4356199999998
 21
521.707165
 31
0.0
  0
LINE
  5
702
330
74
100
AcDbEntity
  8
2
100
AcDbLine
 10
-525.15805
 20
530.207165
 30
0.0
 11
-520.250575
 21
538.707165
 31
0.0
  0
LINE
  5
703
330
74
100
AcDbEntity
  8
2
100
AcDbLine
 10
-510.4356199999998
 20
521.707165
 30
0.0
 11
-505.5281400000001
 21
530.207165
 31
0.0
  0
LINE
  5
704
330
74
100
AcDbEntity
  8
2
100
AcDbLine
 10
-520.250575
 20
521.707165
 30
0.0
 11
-525.15805
 21
530.207165
 31
0.0
  0
LINE
  5
705
330
74
100
AcDbEntity
  8
2
100
AcDbLine
 10
-505.5281400000001
 20
530.207165
 30
0.0
 11
-510.4356199999998
 21
538.707165
 31
0.0
  0
CIRCLE
  5
706
330
74
100
AcDbEntity
  8
2
100
AcDbCircle
 10
-554.23397
 20
491.3162949999998
 30
0.0
 40
8.25
  0
ARC
  5
707
330
74
100
AcDbEntity
  8
2
100
AcDbCircle
 10
-554.23397
 20
491.3162949999998
 30
0.0
 40
9.199999999999999
100
AcDbArc
 50
127.5050179999994
 51
172.494982
  0
ARC
  5
708
330
74
100
AcDbEntity
  8
2
100
AcDbCircle
 10
-554.23397
 20
491.3162949999998
 30
0.0
 40
9.199999999999999
100
AcDbArc
 50
67.50501799999954
 51
112.4949820000004
  0
ARC
  5
709
330
74
100
AcDbEntity
  8
2
100
AcDbCircle
 10
-554.23397
 20
491.3162949999998
 30
0.0
 40
9.199999999999999
100
AcDbArc
 50
7.505018000000006
 51
52.49498200000054
  0
ARC
  5
70A
330
74
100
AcDbEntity
  8
2
100
AcDbCircle
 10
-554.23397
 20
491.3162949999998
 30
0.0
 40
9.199999999999999
100
AcDbArc
 50
307.5050179999994
 51
352.494982
  0
ARC
  5
70B
330
74
100
AcDbEntity
  8
2
100
AcDbCircle
 10
-554.23397
 20
491.3162949999998
 30
0.0
 40
9.199999999999999
100
AcDbArc
 50
247.5050179999996
 51
292.4949820000005
  0
ARC
  5
70C
330
74
100
AcDbEntity
  8
2
100
AcDbCircle
 10
-554.23397
 20
492.316295
 30
0.0
 40
9.199999999999999
100
AcDbArc
 50
187.505018
 51
232.4949820000006
  0
LINE
  5
70D
330
74
100
AcDbEntity
  8
2
100
AcDbLine
 10
-559.141445
 20
499.816295
 30
0.0
 11
-549.3264899999998
 21
499.816295
 31
0.0
  0
LINE
  5
70E
330
74
100
AcDbEntity
  8
2
100
AcDbLine
 10
-559.141445
 20
482.8162949999998
 30
0.0
 11
-549.3264899999998
 21
482.8162949999998
 31
0.0
  0
LINE
  5
70F
330
74
100
AcDbEntity
  8
2
100
AcDbLine
 10
-564.048925
 20
491.3162949999998
 30
0.0
 11
-559.141445
 21
499.816295
 31
0.0
  0
LINE
  5
710
330
74
100
AcDbEntity
  8
2
100
AcDbLine
 10
-549.3264899999998
 20
482.8162949999998
 30
0.0
 11
-544.4190149999998
 21
491.3162949999998
 31
0.0
  0
LINE
  5
711
330
74
100
AcDbEntity
  8
2
100
AcDbLine
 10
-559.141445
 20
482.8162949999998
 30
0.0
 11
-564.048925
 21
491.3162949999998
 31
0.0
  0
LINE
  5
712
330
74
100
AcDbEntity
  8
2
100
AcDbLine
 10
-544.4190149999998
 20
491.3162949999998
 30
0.0
 11
-549.3264899999998
 21
499.816295
 31
0.0
  0
CIRCLE
  5
713
330
74
100
AcDbEntity
  8
2
100
AcDbCircle
 10
-515.3430949999998
 20
491.3162949999998
 30
0.0
 40
8.25
  0
ARC
  5
714
330
74
100
AcDbEntity
  8
2
100
AcDbCircle
 10
-515.3430949999998
 20
491.3162949999998
 30
0.0
 40
9.199999999999999
100
AcDbArc
 50
127.5050179999994
 51
172.494982
  0
ARC
  5
715
330
74
100
AcDbEntity
  8
2
100
AcDbCircle
 10
-515.3430949999998
 20
491.3162949999998
 30
0.0
 40
9.199999999999999
100
AcDbArc
 50
67.50501799999954
 51
112.4949820000004
  0
ARC
  5
716
330
74
100
AcDbEntity
  8
2
100
AcDbCircle
 10
-515.3430949999998
 20
491.3162949999998
 30
0.0
 40
9.199999999999999
100
AcDbArc
 50
7.505018000000006
 51
52.49498200000054
  0
ARC
  5
717
330
74
100
AcDbEntity
  8
2
100
AcDbCircle
 10
-515.3430949999998
 20
491.3162949999998
 30
0.0
 40
9.199999999999999
100
AcDbArc
 50
307.5050179999994
 51
352.494982
  0
ARC
  5
718
330
74
100
AcDbEntity
  8
2
100
AcDbCircle
 10
-515.3430949999998
 20
491.3162949999998
 30
0.0
 40
9.199999999999999
100
AcDbArc
 50
247.5050179999996
 51
292.4949820000005
  0
ARC
  5
719
330
74
100
AcDbEntity
  8
2
100
AcDbCircle
 10
-515.3430949999998
 20
491.3162949999998
 30
0.0
 40
9.199999999999999
100
AcDbArc
 50
187.505018
 51
232.4949820000006
  0
LINE
  5
71A
330
74
100
AcDbEntity
  8
2
100
AcDbLine
 10
-520.250575
 20
499.816295
 30
0.0
 11
-510.4356199999998
 21
499.816295
 31
0.0
  0
LINE
  5
71B
330
74
100
AcDbEntity
  8
2
100
AcDbLine
 10
-520.250575
 20
482.8162949999998
 30
0.0
 11
-510.4356199999998
 21
482.8162949999998
 31
0.0
  0
LINE
  5
71C
330
74
100
AcDbEntity
  8
2
100
AcDbLine
 10
-525.15805
 20
491.3162949999998
 30
0.0
 11
-520.250575
 21
499.816295
 31
0.0
  0
LINE
  5
71D
330
74
100
AcDbEntity
  8
2
100
AcDbLine
 10
-510.4356199999998
 20
482.8162949999998
 30
0.0
 11
-505.5281400000001
 21
491.3162949999998
 31
0.0
  0
LINE
  5
71E
330
74
100
AcDbEntity
  8
2
100
AcDbLine
 10
-520.250575
 20
482.8162949999998
 30
0.0
 11
-525.15805
 21
491.3162949999998
 31
0.0
  0
LINE
  5
71F
330
74
100
AcDbEntity
  8
2
100
AcDbLine
 10
-505.5281400000001
 20
491.3162949999998
 30
0.0
 11
-510.4356199999998
 21
499.816295
 31
0.0
  0
CIRCLE
  5
720
330
74
100
AcDbEntity
  8
2
  6
PHANTOM
 62
     2
100
AcDbCircle
 10
-534.78853
 20
510.76173
 30
0.0
 40
140.0
  0
TEXT
  5
721
330
74
100
AcDbEntity
  8
2
100
AcDbText
 10
-1285.26292
 20
916.25244
 30
0.0
 40
8.0
  1
Ｖ
 50
355.0000000000002
100
AcDbText
  0
TEXT
  5
722
330
74
100
AcDbEntity
  8
2
100
AcDbText
 10
-1286.13448
 20
906.2904899999999
 30
0.0
 40
5.0
  1
Ｊ
 50
355.0000000000002
100
AcDbText
  0
TEXT
  5
723
330
74
100
AcDbEntity
  8
2
100
AcDbText
 10
-1277.68418
 20
915.0520850000001
 30
0.0
 40
8.0
  1
Ａ
 50
347.0000000000002
100
AcDbText
  0
TEXT
  5
724
330
74
100
AcDbEntity
  8
2
100
AcDbText
 10
-1270.34625
 20
912.808655
 30
0.0
 40
8.0
  1
Ｌ
 50
339.0000000000001
100
AcDbText
  0
TEXT
  5
725
330
74
100
AcDbEntity
  8
2
100
AcDbText
 10
-1263.391955
 20
909.565815
 30
0.0
 40
8.0
  1
Ｖ
 50
330.9999999999994
100
AcDbText
  0
TEXT
  5
726
330
74
100
AcDbEntity
  8
2
100
AcDbText
 10
-1256.95666
 20
905.386685
 30
0.0
 40
8.0
  1
Ｅ
 50
323.0000000000007
100
AcDbText
  0
TEXT
  5
727
330
74
100
AcDbEntity
  8
2
100
AcDbText
 10
-1279.93369
 20
905.308385
 30
0.0
 40
5.0
  1
Ａ
 50
347.0000000000002
100
AcDbText
  0
TEXT
  5
728
330
74
100
AcDbEntity
  8
2
100
AcDbText
 10
-1273.92993
 20
903.4728499999999
 30
0.0
 40
5.0
  1
Ｐ
 50
339.0000000000001
100
AcDbText
  0
TEXT
  5
729
330
74
100
AcDbEntity
  8
2
100
AcDbText
 10
-1268.240055
 20
900.8196199999998
 30
0.0
 40
5.0
  1
Ａ
 50
330.9999999999994
100
AcDbText
  0
TEXT
  5
72A
330
74
100
AcDbEntity
  8
2
100
AcDbText
 10
-1262.97481
 20
897.4003299999997
 30
0.0
 40
5.0
  1
Ｎ
 50
323.0000000000007
100
AcDbText
  0
TEXT
  5
72B
330
74
100
AcDbEntity
  8
2
100
AcDbText
 10
-1350.83921
 20
844.729075
 30
0.0
 40
8.0
  1
Ｓ
 50
286.0000000000003
100
AcDbText
  0
TEXT
  5
72C
330
74
100
AcDbEntity
  8
2
100
AcDbText
 10
-1348.692305
 20
838.494015
 30
0.0
 40
8.0
  1
Ｈ
 50
292.0
100
AcDbText
  0
TEXT
  5
72D
330
74
100
AcDbEntity
  8
2
100
AcDbText
 10
-1345.90542
 20
832.51752
 30
0.0
 40
8.0
  1
Ｕ
 50
297.9999999999995
100
AcDbText
  0
TEXT
  5
72E
330
74
100
AcDbEntity
  8
2
100
AcDbText
 10
-1342.50909
 20
826.8650799999997
 30
0.0
 40
8.0
  1
Ｔ
 50
303.9999999999999
100
AcDbText
  0
TEXT
  5
72F
330
74
100
AcDbEntity
  8
2
100
AcDbText
 10
-1302.81961
 20
915.5551950000001
 30
0.0
 40
8.0
  1
Ｅ
 50
4.999999999999798
100
AcDbText
  0
TEXT
  5
730
330
74
100
AcDbEntity
  8
2
100
AcDbText
 10
-1298.95947
 20
905.854715
 30
0.0
 40
5.0
  1
Ａ
 50
4.999999999999798
100
AcDbText
  0
TEXT
  5
731
330
74
100
AcDbEntity
  8
2
100
AcDbText
 10
-1310.223755
 20
913.2524749999999
 30
0.0
 40
8.0
  1
Ｏ
 50
12.99999999999992
100
AcDbText
  0
TEXT
  5
732
330
74
100
AcDbEntity
  8
2
100
AcDbText
 10
-1317.235365
 20
909.94171
 30
0.0
 40
8.0
  1
Ｍ
 50
20.99999999999999
100
AcDbText
  0
TEXT
  5
733
330
74
100
AcDbEntity
  8
2
100
AcDbText
 10
-1323.717975
 20
905.6873399999997
 30
0.0
 40
8.0
  1
Ｏ
 50
29.00000000000062
100
AcDbText
  0
TEXT
  5
734
330
74
100
AcDbEntity
  8
2
100
AcDbText
 10
-1329.545395
 20
900.5721649999998
 30
0.0
 40
8.0
  1
Ｔ
 50
36.99999999999928
100
AcDbText
  0
TEXT
  5
735
330
74
100
AcDbEntity
  8
2
100
AcDbText
 10
-1305.051135
 20
904.1836299999999
 30
0.0
 40
5.0
  1
Ｋ
 50
12.99999999999992
100
AcDbText
  0
TEXT
  5
736
330
74
100
AcDbEntity
  8
2
100
AcDbText
 10
-1310.850945
 20
901.68101
 30
0.0
 40
5.0
  1
Ａ
 50
20.99999999999999
100
AcDbText
  0
TEXT
  5
737
330
74
100
AcDbEntity
  8
2
100
AcDbText
 10
-1316.24602
 20
898.3955699999999
 30
0.0
 40
5.0
  1
Ｓ
 50
29.00000000000062
100
AcDbText
  0
TEXT
  5
738
330
74
100
AcDbEntity
  8
2
100
AcDbText
 10
-1321.13134
 20
894.3912550000002
 30
0.0
 40
5.0
  1
Ｏ
 50
36.99999999999928
100
AcDbText
  0
TEXT
  5
739
330
74
100
AcDbEntity
  8
2
100
AcDbText
 10
-1231.157865
 20
838.433515
 30
0.0
 40
8.0
  1
Ｎ
 50
73.99999999999969
100
AcDbText
  0
TEXT
  5
73A
330
74
100
AcDbEntity
  8
2
100
AcDbText
 10
-1234.09652
 20
832.4710749999997
 30
0.0
 40
8.0
  1
Ｅ
 50
68.0
100
AcDbText
  0
TEXT
  5
73B
330
74
100
AcDbEntity
  8
2
100
AcDbText
 10
-1237.642325
 20
826.848475
 30
0.0
 40
8.0
  1
Ｐ
 50
62.00000000000047
100
AcDbText
  0
TEXT
  5
73C
330
74
100
AcDbEntity
  8
2
100
AcDbText
 10
-1241.756425
 20
821.62731
 30
0.0
 40
8.0
  1
Ｏ
 50
56.00000000000015
100
AcDbText
  0
LINE
  5
73D
330
74
100
AcDbEntity
  8
3
100
AcDbLine
 10
-1227.556485
 20
467.2617299999997
 30
0.0
 11
-1352.556485
 21
467.2617299999997
 31
0.0
  0
LINE
  5
73E
330
74
100
AcDbEntity
  8
3
100
AcDbLine
 10
-1352.556485
 20
439.26173
 30
0.0
 11
-1352.556485
 21
468.76173
 31
0.0
  0
LINE
  5
73F
330
74
100
AcDbEntity
  8
3
100
AcDbLine
 10
-1227.556485
 20
439.26173
 30
0.0
 11
-1227.556485
 21
468.76173
 31
0.0
  0
LINE
  5
740
330
74
100
AcDbEntity
  8
3
100
AcDbLine
 10
-1320.056485
 20
439.26173
 30
0.0
 11
-1320.056485
 21
457.26173
 31
0.0
  0
LINE
  5
741
330
74
100
AcDbEntity
  8
3
100
AcDbLine
 10
-1260.056485
 20
439.26173
 30
0.0
 11
-1260.056485
 21
457.26173
 31
0.0
  0
LINE
  5
742
330
74
100
AcDbEntity
  8
3
100
AcDbLine
 10
-1247.636845
 20
459.2617299999998
 30
0.0
 11
-1332.47613
 21
459.2617299999998
 31
0.0
  0
ARC
  5
743
330
74
100
AcDbEntity
  8
3
100
AcDbCircle
 10
-1262.056485
 20
457.26173
 30
0.0
 40
2.0
100
AcDbArc
 50
0.0
 51
90.0
  0
ARC
  5
744
330
74
100
AcDbEntity
  8
3
100
AcDbCircle
 10
-1318.056485
 20
457.26173
 30
0.0
 40
2.0
100
AcDbArc
 50
90.0
 51
180.0
  0
ARC
  5
745
330
74
100
AcDbEntity
  8
3
100
AcDbCircle
 10
-1247.636845
 20
457.26173
 30
0.0
 40
2.0
100
AcDbArc
 50
0.0
 51
90.0
  0
ARC
  5
746
330
74
100
AcDbEntity
  8
3
100
AcDbCircle
 10
-1332.47613
 20
457.26173
 30
0.0
 40
2.0
100
AcDbArc
 50
90.0
 51
180.0
  0
LINE
  5
747
330
74
100
AcDbEntity
  8
3
100
AcDbLine
 10
-1227.556485
 20
468.76173
 30
0.0
 11
-1352.556485
 21
468.76173
 31
0.0
  0
LINE
  5
748
330
74
100
AcDbEntity
  8
3
100
AcDbLine
 10
-682.28853
 20
467.2617299999997
 30
0.0
 11
-557.28853
 21
467.2617299999997
 31
0.0
  0
LINE
  5
749
330
74
100
AcDbEntity
  8
3
100
AcDbLine
 10
-682.28853
 20
468.7617299999998
 30
0.0
 11
-682.28853
 21
459.2617299999998
 31
0.0
  0
LINE
  5
74A
330
74
100
AcDbEntity
  8
3
100
AcDbLine
 10
-557.28853
 20
468.7617299999998
 30
0.0
 11
-557.28853
 21
459.2617299999998
 31
0.0
  0
LINE
  5
74B
330
74
100
AcDbEntity
  8
3
100
AcDbLine
 10
-639.78853
 20
449.26173
 30
0.0
 11
-639.78853
 21
439.26173
 31
0.0
  0
LINE
  5
74C
330
74
100
AcDbEntity
  8
3
100
AcDbLine
 10
-599.78853
 20
449.26173
 30
0.0
 11
-599.78853
 21
439.26173
 31
0.0
  0
LINE
  5
74D
330
74
100
AcDbEntity
  8
3
100
AcDbLine
 10
-647.78853
 20
451.26173
 30
0.0
 11
-591.78853
 21
451.26173
 31
0.0
  0
ARC
  5
74E
330
74
100
AcDbEntity
  8
3
100
AcDbCircle
 10
-601.78853
 20
449.26173
 30
0.0
 40
2.0
100
AcDbArc
 50
0.0
 51
90.0
  0
ARC
  5
74F
330
74
100
AcDbEntity
  8
3
100
AcDbCircle
 10
-637.78853
 20
449.26173
 30
0.0
 40
2.0
100
AcDbArc
 50
90.0
 51
180.0
  0
ARC
  5
750
330
74
100
AcDbEntity
  8
3
100
AcDbCircle
 10
-591.78853
 20
449.26173
 30
0.0
 40
2.0
100
AcDbArc
 50
0.0
 51
90.0
  0
ARC
  5
751
330
74
100
AcDbEntity
  8
3
100
AcDbCircle
 10
-647.78853
 20
449.26173
 30
0.0
 40
2.0
100
AcDbArc
 50
90.0
 51
180.0
  0
LINE
  5
752
330
74
100
AcDbEntity
  8
3
100
AcDbLine
 10
-559.595
 20
457.26173
 30
0.0
 11
-559.595
 21
439.26173
 31
0.0
  0
LINE
  5
753
330
74
100
AcDbEntity
  8
3
100
AcDbLine
 10
-679.982065
 20
457.26173
 30
0.0
 11
-679.982065
 21
439.26173
 31
0.0
  0
ARC
  5
754
330
74
100
AcDbEntity
  8
3
100
AcDbCircle
 10
-557.595
 20
457.26173
 30
0.0
 40
2.0
100
AcDbArc
 50
90.0
 51
180.0
  0
ARC
  5
755
330
74
100
AcDbEntity
  8
3
100
AcDbCircle
 10
-681.982065
 20
457.26173
 30
0.0
 40
2.0
100
AcDbArc
 50
0.0
 51
90.0
  0
LINE
  5
756
330
74
100
AcDbEntity
  8
3
100
AcDbLine
 10
-682.28853
 20
459.2617299999998
 30
0.0
 11
-680.95239
 21
459.2617299999998
 31
0.0
  0
LINE
  5
757
330
74
100
AcDbEntity
  8
3
100
AcDbLine
 10
-558.6246749999998
 20
459.2617299999998
 30
0.0
 11
-557.28853
 21
459.2617299999998
 31
0.0
  0
ARC
  5
758
330
74
100
AcDbEntity
  8
3
100
AcDbCircle
 10
-558.6246749999998
 20
457.26173
 30
0.0
 40
2.0
100
AcDbArc
 50
90.0
 51
180.0
  0
ARC
  5
759
330
74
100
AcDbEntity
  8
3
100
AcDbCircle
 10
-680.95239
 20
457.26173
 30
0.0
 40
2.0
100
AcDbArc
 50
0.0
 51
90.0
  0
LINE
  5
75A
330
74
100
AcDbEntity
  8
3
100
AcDbLine
 10
-682.28853
 20
468.7617299999998
 30
0.0
 11
-557.28853
 21
468.7617299999998
 31
0.0
  0
DIMENSION
  5
75B
330
74
100
AcDbEntity
  8
5
100
AcDbDimension
  2
*D1
 10
-745.0752649999998
 20
439.26173
 30
0.0
 11
-757.825265
 21
321.7617299999999
 31
0.0
 70
    32
 71
     5
 42
235.0
  3
Standard
100
AcDbAlignedDimension
 13
-672.8666399999998
 23
204.26173
 33
0.0
 14
-682.28853
 24
439.26173
 34
0.0
 50
90.0
100
AcDbRotatedDimension
1001
ACAD
1000
DSTYLE
1002
{
1070
    42
1040
0.8
1070
   174
1070
     0
1070
    40
1040
5.0
1002
}
  0
DIMENSION
  5
75C
330
74
100
AcDbEntity
  8
5
100
AcDbDimension
  2
*D2
 10
-745.0752649999998
 20
204.26173
 30
0.0
 11
-757.8252649999998
 21
109.5117299999998
 31
0.0
 70
    32
 71
     5
 42
189.5
  3
Standard
100
AcDbAlignedDimension
 13
-642.78853
 23
14.76172999999994
 33
0.0
 14
-672.8666399999998
 24
204.26173
 34
0.0
 50
90.0
100
AcDbRotatedDimension
1001
ACAD
1000
DSTYLE
1002
{
1070
   271
1070
     0
1070
    42
1040
0.8
1070
   174
1070
     0
1070
    40
1040
5.0
1002
}
  0
DIMENSION
  5
75D
330
74
100
AcDbEntity
  8
5
100
AcDbDimension
  2
*D3
 10
-799.123654177474
 20
468.76173
 30
0.0
 11
-799.1236541774742
 21
383.5950633333332
 31
0.0
 70
   160
 71
     5
 42
29.5
  3
Standard
100
AcDbAlignedDimension
 13
-682.28853
 23
439.26173
 33
0.0
 14
-697.28853
 24
468.76173
 34
0.0
 50
90.0
100
AcDbRotatedDimension
1001
ACAD
1000
DSTYLE
1002
{
1070
   172
1070
     1
1070
    42
1040
0.8
1070
   174
1070
     0
1070
    40
1040
5.0
1002
}
  0
DIMENSION
  5
75E
330
74
100
AcDbEntity
  8
5
100
AcDbDimension
  2
*D4
 10
-799.123654177474
 20
510.76173
 30
0.0
 11
-811.8736541774742
 21
489.7617299999998
 31
0.0
 70
    32
 71
     5
 42
42.0
  3
Standard
100
AcDbAlignedDimension
 13
-697.28853
 23
468.76173
 33
0.0
 14
-754.8885299999998
 24
510.76173
 34
0.0
 50
90.0
100
AcDbRotatedDimension
1001
ACAD
1000
DSTYLE
1002
{
1070
    42
1040
0.8
1070
   174
1070
     0
1070
    40
1040
5.0
1002
}
  0
DIMENSION
  5
763
330
74
100
AcDbEntity
  8
5
100
AcDbDimension
  2
*D5
 10
-619.78853
 20
-32.90094999999997
 30
0.0
 11
-688.53853
 21
-32.90094999999997
 31
0.0
 70
   160
 71
     5
 42
26.0
  3
Standard
100
AcDbAlignedDimension
 13
-645.78853
 23
72.76173
 33
0.0
 14
-619.78853
 24
-5.60514999999998
 34
0.0
100
AcDbRotatedDimension
1001
ACAD
1000
DSTYLE
1002
{
1070
   172
1070
     1
1070
    42
1040
0.8
1070
   174
1070
     0
1070
    40
1040
5.0
1002
}
  0
DIMENSION
  5
764
330
74
100
AcDbEntity
  8
5
100
AcDbDimension
  2
*D6
 10
-583.78853
 20
-72.66012999999998
 30
0.0
 11
-614.78853
 21
-59.91012999999998
 31
0.0
 70
    32
 71
     5
 42
62.0
  3
Standard
100
AcDbAlignedDimension
 13
-645.78853
 23
72.76173
 33
0.0
 14
-583.78853
 24
72.76173
 34
0.0
100
AcDbRotatedDimension
1001
ACAD
1000
DSTYLE
1002
{
1070
    42
1040
0.8
1070
   174
1070
     0
1070
    40
1040
5.0
1002
}
  0
LINE
  5
765
330
74
100
AcDbEntity
  8
18
100
AcDbLine
 10
-500.40465
 20
204.26173
 30
0.0
 11
-350.4046500000002
 21
204.26173
 31
0.0
  0
LINE
  5
766
330
74
100
AcDbEntity
  8
18
100
AcDbLine
 10
-500.40465
 20
204.26173
 30
0.0
 11
-450.40465
 21
217.65919
 31
0.0
  0
LINE
  5
767
330
74
100
AcDbEntity
  8
18
100
AcDbLine
 10
-450.40465
 20
217.65919
 30
0.0
 11
-450.40465
 21
190.86427
 31
0.0
  0
LINE
  5
768
330
74
100
AcDbEntity
  8
18
100
AcDbLine
 10
-500.40465
 20
204.26173
 30
0.0
 11
-450.40465
 21
190.86427
 31
0.0
  0
LINE
  5
769
330
74
100
AcDbEntity
  8
18
100
AcDbLine
 10
-456.6316599999998
 20
1129.46299
 30
0.0
 11
-456.6316599999998
 21
954.46299
 31
0.0
  0
LINE
  5
76A
330
74
100
AcDbEntity
  8
18
100
AcDbLine
 10
103.36834
 20
1004.46299
 30
0.0
 11
-456.6316599999998
 21
1004.46299
 31
0.0
  0
LINE
  5
76B
330
74
100
AcDbEntity
  8
18
100
AcDbLine
 10
103.36834
 20
979.46299
 30
0.0
 11
-456.6316599999998
 21
979.46299
 31
0.0
  0
LINE
  5
76C
330
74
100
AcDbEntity
  8
18
100
AcDbLine
 10
103.36834
 20
954.46299
 30
0.0
 11
-456.6316599999998
 21
954.46299
 31
0.0
  0
LINE
  5
76D
330
74
100
AcDbEntity
  8
18
100
AcDbLine
 10
-316.63166
 20
1129.46299
 30
0.0
 11
-316.63166
 21
979.46299
 31
0.0
  0
LINE
  5
76E
330
74
100
AcDbEntity
  8
18
100
AcDbLine
 10
-176.63166
 20
1129.46299
 30
0.0
 11
-176.63166
 21
979.46299
 31
0.0
  0
LINE
  5
76F
330
74
100
AcDbEntity
  8
18
100
AcDbLine
 10
-36.63166000000001
 20
1129.46299
 30
0.0
 11
-36.63166000000001
 21
979.46299
 31
0.0
  0
LINE
  5
770
330
74
100
AcDbEntity
  8
18
100
AcDbLine
 10
103.36834
 20
1129.46299
 30
0.0
 11
103.36834
 21
954.46299
 31
0.0
  0
LINE
  5
771
330
74
100
AcDbEntity
  8
18
100
AcDbLine
 10
-456.6316599999998
 20
1129.46299
 30
0.0
 11
103.36834
 21
1129.46299
 31
0.0
  0
LWPOLYLINE
  5
772
330
74
100
AcDbEntity
  8
18
 62
     2
100
AcDbPolyline
 90
        2
 70
     0
 43
0.0
 10
-391.78252
 20
1082.5585
 10
-391.78252
 20
1105.24863
  0
LINE
  5
776
330
74
100
AcDbEntity
  8
18
 62
     2
100
AcDbLine
 10
-391.78252
 20
1092.21776
 30
0.0
 11
-394.370715
 21
1092.21776
 31
0.0
  0
LINE
  5
777
330
74
100
AcDbEntity
  8
18
 62
     2
100
AcDbLine
 10
-394.370715
 20
1092.21776
 30
0.0
 11
-391.78252
 21
1082.5585
 31
0.0
  0
LINE
  5
778
330
74
100
AcDbEntity
  8
18
 62
     2
100
AcDbLine
 10
-391.78252
 20
1082.5585
 30
0.0
 11
-389.19433
 21
1092.21776
 31
0.0
  0
LINE
  5
779
330
74
100
AcDbEntity
  8
18
 62
     2
100
AcDbLine
 10
-389.19433
 20
1092.21776
 30
0.0
 11
-391.78252
 21
1092.21776
 31
0.0
  0
LINE
  5
77A
330
74
100
AcDbEntity
  8
18
  6
CENTER
 62
     2
100
AcDbLine
 10
-66.49963500000001
 20
1067.16596
 30
0.0
 11
-141.7674999999999
 21
1067.16596
 31
0.0
  0
LINE
  5
77B
330
74
100
AcDbEntity
  8
18
  6
CENTER
 62
     2
100
AcDbLine
 10
-105.22156
 20
1037.023455
 30
0.0
 11
-105.22156
 21
1090.974415
 31
0.0
  0
LINE
  5
77C
330
74
100
AcDbEntity
  8
18
100
AcDbLine
 10
-134.47156
 20
1059.06596
 30
0.0
 11
-134.47156
 21
1075.26596
 31
0.0
  0
LINE
  5
77D
330
74
100
AcDbEntity
  8
18
100
AcDbLine
 10
-75.97156000000019
 20
1059.06596
 30
0.0
 11
-75.97156000000019
 21
1075.26596
 31
0.0
  0
LINE
  5
77E
330
74
100
AcDbEntity
  8
18
100
AcDbLine
 10
-143.7650450000001
 20
1035.27223
 30
0.0
 11
-143.7650450000001
 21
1061.37223
 31
0.0
  0
LINE
  5
77F
330
74
100
AcDbEntity
  8
18
100
AcDbLine
 10
-149.1650449999999
 20
1035.27223
 30
0.0
 11
-149.1650449999999
 21
1061.37223
 31
0.0
  0
LINE
  5
780
330
74
100
AcDbEntity
  8
18
100
AcDbLine
 10
-76.87156000000005
 20
1058.16596
 30
0.0
 11
-89.63309999999991
 21
1058.16596
 31
0.0
  0
LINE
  5
781
330
74
100
AcDbEntity
  8
18
100
AcDbLine
 10
-120.810015
 20
1058.16596
 30
0.0
 11
-133.5715600000001
 21
1058.16596
 31
0.0
  0
LINE
  5
782
330
74
100
AcDbEntity
  8
18
100
AcDbLine
 10
-76.87156000000005
 20
1076.16596
 30
0.0
 11
-89.63309999999991
 21
1076.16596
 31
0.0
  0
LINE
  5
783
330
74
100
AcDbEntity
  8
18
100
AcDbLine
 10
-120.810015
 20
1076.16596
 30
0.0
 11
-133.5715600000001
 21
1076.16596
 31
0.0
  0
ARC
  5
784
330
74
100
AcDbEntity
  8
18
100
AcDbCircle
 10
-146.465045
 20
1035.27223
 30
0.0
 40
2.7
100
AcDbArc
 50
180.0
 51
0.0
  0
ARC
  5
785
330
74
100
AcDbEntity
  8
18
100
AcDbCircle
 10
-146.465045
 20
1061.37223
 30
0.0
 40
2.7
100
AcDbArc
 50
0.0
 51
180.0
  0
ARC
  5
786
330
74
100
AcDbEntity
  8
18
100
AcDbCircle
 10
-76.87156000000005
 20
1059.06596
 30
0.0
 40
0.9
100
AcDbArc
 50
270.0
 51
0.0
  0
ARC
  5
787
330
74
100
AcDbEntity
  8
18
100
AcDbCircle
 10
-76.87156000000005
 20
1075.26596
 30
0.0
 40
0.9
100
AcDbArc
 50
0.0
 51
90.0
  0
ARC
  5
788
330
74
100
AcDbEntity
  8
18
100
AcDbCircle
 10
-133.5715600000001
 20
1059.06596
 30
0.0
 40
0.9
100
AcDbArc
 50
180.0
 51
270.0
  0
ARC
  5
789
330
74
100
AcDbEntity
  8
18
100
AcDbCircle
 10
-133.5715600000001
 20
1075.26596
 30
0.0
 40
0.9
100
AcDbArc
 50
90.0
 51
180.0
  0
LINE
  5
78A
330
74
100
AcDbEntity
  8
18
100
AcDbLine
 10
-91.72155999999997
 20
1044.66596
 30
0.0
 11
-91.72155999999997
 21
1055.26008
 31
0.0
  0
LINE
  5
78B
330
74
100
AcDbEntity
  8
18
100
AcDbLine
 10
-118.72156
 20
1044.66596
 30
0.0
 11
-118.72156
 21
1055.26008
 31
0.0
  0
LINE
  5
78C
330
74
100
AcDbEntity
  8
18
100
AcDbLine
 10
-91.72155999999997
 20
1044.66596
 30
0.0
 11
-118.72156
 21
1044.66596
 31
0.0
  0
CIRCLE
  5
78D
330
74
100
AcDbEntity
  8
18
100
AcDbCircle
 10
-105.22156
 20
1067.16596
 30
0.0
 40
18.0
  0
LINE
  5
78E
330
74
100
AcDbEntity
  8
18
100
AcDbLine
 10
-118.72156
 20
1046.91596
 30
0.0
 11
-143.801145
 21
1046.91596
 31
0.0
  0
LINE
  5
78F
330
74
100
AcDbEntity
  8
18
100
AcDbLine
 10
-118.72156
 20
1049.84096
 30
0.0
 11
-143.801145
 21
1049.84096
 31
0.0
  0
LINE
  5
790
330
74
100
AcDbEntity
  8
18
100
AcDbLine
 10
-95.52239999999995
 20
1076.86512
 30
0.0
 11
-93.13558999999996
 21
1079.251925
 31
0.0
  0
LINE
  5
791
330
74
100
AcDbEntity
  8
18
100
AcDbLine
 10
-107.4451650000001
 20
1072.332795
 30
0.0
 11
-97.64932000000001
 21
1076.548555
 31
0.0
  0
LINE
  5
792
330
74
100
AcDbEntity
  8
18
100
AcDbLine
 10
-100.044745
 20
1064.96568
 30
0.0
 11
-95.87321500000006
 21
1074.780445
 31
0.0
  0
ARC
  5
793
330
74
100
AcDbEntity
  8
18
100
AcDbCircle
 10
-97.11565000000007
 20
1075.308515
 30
0.0
 40
1.35
100
AcDbArc
 50
336.9732609999996
 51
113.2851900000001
  0
ARC
  5
794
330
74
100
AcDbEntity
  8
18
100
AcDbCircle
 10
-105.22156
 20
1067.16596
 30
0.0
 40
5.625
100
AcDbArc
 50
113.2851900000001
 51
336.9732609999996
  0
LINE
  5
795
330
74
100
AcDbEntity
  8
18
100
AcDbLine
 10
-114.920715
 20
1076.86512
 30
0.0
 11
-117.307525
 21
1079.251925
 31
0.0
  0
LINE
  5
796
330
74
100
AcDbEntity
  8
18
  6
CENTER
 62
     2
100
AcDbLine
 10
-288.360445
 20
1067.16596
 30
0.0
 11
-214.1283050000001
 21
1067.16596
 31
0.0
  0
LINE
  5
797
330
74
100
AcDbEntity
  8
18
  6
CENTER
 62
     2
100
AcDbLine
 10
-250.64329
 20
1094.17082
 30
0.0
 11
-250.64329
 21
1041.84794
 31
0.0
  0
LINE
  5
798
330
74
100
AcDbEntity
  8
18
100
AcDbLine
 10
-221.39329
 20
1075.26596
 30
0.0
 11
-221.39329
 21
1059.06596
 31
0.0
  0
LINE
  5
799
330
74
100
AcDbEntity
  8
18
100
AcDbLine
 10
-279.89329
 20
1075.26596
 30
0.0
 11
-279.89329
 21
1059.06596
 31
0.0
  0
LINE
  5
79A
330
74
100
AcDbEntity
  8
18
100
AcDbLine
 10
-218.7495550000001
 20
1028.62247
 30
0.0
 11
-244.849555
 21
1028.62247
 31
0.0
  0
LINE
  5
79B
330
74
100
AcDbEntity
  8
18
100
AcDbLine
 10
-218.7495550000001
 20
1023.22247
 30
0.0
 11
-244.849555
 21
1023.22247
 31
0.0
  0
LINE
  5
79C
330
74
100
AcDbEntity
  8
18
100
AcDbLine
 10
-278.99329
 20
1076.16596
 30
0.0
 11
-266.2317449999999
 21
1076.16596
 31
0.0
  0
LINE
  5
79D
330
74
100
AcDbEntity
  8
18
100
AcDbLine
 10
-228.14329
 20
1076.16596
 30
0.0
 11
-222.2932900000001
 21
1076.16596
 31
0.0
  0
LINE
  5
79E
330
74
100
AcDbEntity
  8
18
100
AcDbLine
 10
-278.99329
 20
1058.16596
 30
0.0
 11
-266.2317449999999
 21
1058.16596
 31
0.0
  0
LINE
  5
79F
330
74
100
AcDbEntity
  8
18
100
AcDbLine
 10
-228.14329
 20
1058.16596
 30
0.0
 11
-222.2932900000001
 21
1058.16596
 31
0.0
  0
ARC
  5
7A0
330
74
100
AcDbEntity
  8
18
100
AcDbCircle
 10
-218.7495550000001
 20
1025.92247
 30
0.0
 40
2.7
100
AcDbArc
 50
270.0
 51
90.0
  0
ARC
  5
7A1
330
74
100
AcDbEntity
  8
18
100
AcDbCircle
 10
-244.849555
 20
1025.92247
 30
0.0
 40
2.7
100
AcDbArc
 50
90.0
 51
270.0
  0
ARC
  5
7A2
330
74
100
AcDbEntity
  8
18
100
AcDbCircle
 10
-278.99329
 20
1075.26596
 30
0.0
 40
0.9
100
AcDbArc
 50
90.0
 51
180.0
  0
ARC
  5
7A3
330
74
100
AcDbEntity
  8
18
100
AcDbCircle
 10
-278.99329
 20
1059.06596
 30
0.0
 40
0.9
100
AcDbArc
 50
180.0
 51
270.0
  0
ARC
  5
7A4
330
74
100
AcDbEntity
  8
18
100
AcDbCircle
 10
-222.2932900000001
 20
1075.26596
 30
0.0
 40
0.9
100
AcDbArc
 50
0.0
 51
90.0
  0
ARC
  5
7A5
330
74
100
AcDbEntity
  8
18
100
AcDbCircle
 10
-222.2932900000001
 20
1059.06596
 30
0.0
 40
0.9
100
AcDbArc
 50
270.0
 51
0.0
  0
LINE
  5
7A6
330
74
100
AcDbEntity
  8
18
100
AcDbLine
 10
-228.14329
 20
1080.66596
 30
0.0
 11
-238.7374100000001
 21
1080.66596
 31
0.0
  0
LINE
  5
7A7
330
74
100
AcDbEntity
  8
18
100
AcDbLine
 10
-228.14329
 20
1053.66596
 30
0.0
 11
-238.7374100000001
 21
1053.66596
 31
0.0
  0
LINE
  5
7A8
330
74
100
AcDbEntity
  8
18
100
AcDbLine
 10
-228.14329
 20
1080.66596
 30
0.0
 11
-228.14329
 21
1053.66596
 31
0.0
  0
CIRCLE
  5
7A9
330
74
100
AcDbEntity
  8
18
100
AcDbCircle
 10
-250.64329
 20
1067.16596
 30
0.0
 40
18.0
  0
LINE
  5
7AA
330
74
100
AcDbEntity
  8
18
100
AcDbLine
 10
-230.39329
 20
1053.66596
 30
0.0
 11
-230.39329
 21
1028.58637
 31
0.0
  0
LINE
  5
7AB
330
74
100
AcDbEntity
  8
18
100
AcDbLine
 10
-233.3182900000001
 20
1053.66596
 30
0.0
 11
-233.3182900000001
 21
1028.58637
 31
0.0
  0
LINE
  5
7AC
330
74
100
AcDbEntity
  8
18
100
AcDbLine
 10
-260.34245
 20
1076.86512
 30
0.0
 11
-262.7292549999999
 21
1079.251925
 31
0.0
  0
LINE
  5
7AD
330
74
100
AcDbEntity
  8
18
100
AcDbLine
 10
-255.8101249999999
 20
1064.942355
 30
0.0
 11
-260.02588
 21
1074.7382
 31
0.0
  0
LINE
  5
7AE
330
74
100
AcDbEntity
  8
18
100
AcDbLine
 10
-248.4430099999999
 20
1072.342775
 30
0.0
 11
-258.257775
 21
1076.5143
 31
0.0
  0
ARC
  5
7AF
330
74
100
AcDbEntity
  8
18
100
AcDbCircle
 10
-258.78584
 20
1075.271865
 30
0.0
 40
1.35
100
AcDbArc
 50
66.97326099999964
 51
203.2851900000001
  0
ARC
  5
7B0
330
74
100
AcDbEntity
  8
18
100
AcDbCircle
 10
-250.64329
 20
1067.16596
 30
0.0
 40
5.625
100
AcDbArc
 50
203.2851900000001
 51
66.97326099999964
  0
LINE
  5
7B1
330
74
100
AcDbEntity
  8
18
100
AcDbLine
 10
-260.34245
 20
1057.4668
 30
0.0
 11
-262.7292549999999
 21
1055.079995
 31
0.0
  0
LINE
  5
7B2
330
74
100
AcDbEntity
  8
18
  6
CENTER
 62
     2
100
AcDbLine
 10
70.35095000000001
 20
1067.16596
 30
0.0
 11
-5.568620000000008
 21
1067.16596
 31
0.0
  0
LINE
  5
7B3
330
74
100
AcDbEntity
  8
18
  6
CENTER
 62
     2
100
AcDbLine
 10
32.7125749999999
 20
1040.161105
 30
0.0
 11
32.7125749999999
 21
1093.41784
 31
0.0
  0
LINE
  5
7B4
330
74
100
AcDbEntity
  8
18
100
AcDbLine
 10
3.462574999999901
 20
1059.06596
 30
0.0
 11
3.462574999999901
 21
1075.26596
 31
0.0
  0
LINE
  5
7B5
330
74
100
AcDbEntity
  8
18
100
AcDbLine
 10
61.96257500000001
 20
1059.06596
 30
0.0
 11
61.96257500000001
 21
1075.26596
 31
0.0
  0
LINE
  5
7B6
330
74
100
AcDbEntity
  8
18
100
AcDbLine
 10
0.81884500000001
 20
1105.709449999999
 30
0.0
 11
26.91884500000004
 21
1105.709449999999
 31
0.0
  0
LINE
  5
7B7
330
74
100
AcDbEntity
  8
18
100
AcDbLine
 10
0.81884500000001
 20
1111.10945
 30
0.0
 11
26.91884500000004
 21
1111.10945
 31
0.0
  0
LINE
  5
7B8
330
74
100
AcDbEntity
  8
18
100
AcDbLine
 10
61.06257499999992
 20
1058.16596
 30
0.0
 11
48.30103500000006
 21
1058.16596
 31
0.0
  0
LINE
  5
7B9
330
74
100
AcDbEntity
  8
18
100
AcDbLine
 10
10.2125749999999
 20
1058.16596
 30
0.0
 11
4.362574999999991
 21
1058.16596
 31
0.0
  0
LINE
  5
7BA
330
74
100
AcDbEntity
  8
18
100
AcDbLine
 10
61.06257499999992
 20
1076.16596
 30
0.0
 11
48.30103500000006
 21
1076.16596
 31
0.0
  0
LINE
  5
7BB
330
74
100
AcDbEntity
  8
18
100
AcDbLine
 10
10.2125749999999
 20
1076.16596
 30
0.0
 11
4.362574999999991
 21
1076.16596
 31
0.0
  0
ARC
  5
7BC
330
74
100
AcDbEntity
  8
18
100
AcDbCircle
 10
0.81884500000001
 20
1108.40945
 30
0.0
 40
2.7
100
AcDbArc
 50
90.0
 51
270.0
  0
ARC
  5
7BD
330
74
100
AcDbEntity
  8
18
100
AcDbCircle
 10
26.91884500000004
 20
1108.40945
 30
0.0
 40
2.7
100
AcDbArc
 50
270.0
 51
90.0
  0
ARC
  5
7BE
330
74
100
AcDbEntity
  8
18
100
AcDbCircle
 10
61.06257499999992
 20
1059.06596
 30
0.0
 40
0.9
100
AcDbArc
 50
270.0
 51
0.0
  0
ARC
  5
7BF
330
74
100
AcDbEntity
  8
18
100
AcDbCircle
 10
61.06257499999992
 20
1075.26596
 30
0.0
 40
0.9
100
AcDbArc
 50
0.0
 51
90.0
  0
ARC
  5
7C0
330
74
100
AcDbEntity
  8
18
100
AcDbCircle
 10
4.362574999999991
 20
1059.06596
 30
0.0
 40
0.9
100
AcDbArc
 50
180.0
 51
270.0
  0
ARC
  5
7C1
330
74
100
AcDbEntity
  8
18
100
AcDbCircle
 10
4.362574999999991
 20
1075.26596
 30
0.0
 40
0.9
100
AcDbArc
 50
90.0
 51
180.0
  0
LINE
  5
7C2
330
74
100
AcDbEntity
  8
18
100
AcDbLine
 10
10.2125749999999
 20
1053.66596
 30
0.0
 11
20.80669499999999
 21
1053.66596
 31
0.0
  0
LINE
  5
7C3
330
74
100
AcDbEntity
  8
18
100
AcDbLine
 10
10.2125749999999
 20
1080.66596
 30
0.0
 11
20.80669499999999
 21
1080.66596
 31
0.0
  0
LINE
  5
7C4
330
74
100
AcDbEntity
  8
18
100
AcDbLine
 10
10.2125749999999
 20
1053.66596
 30
0.0
 11
10.2125749999999
 21
1080.66596
 31
0.0
  0
CIRCLE
  5
7C5
330
74
100
AcDbEntity
  8
18
100
AcDbCircle
 10
32.7125749999999
 20
1067.16596
 30
0.0
 40
18.0
  0
LINE
  5
7C6
330
74
100
AcDbEntity
  8
18
100
AcDbLine
 10
12.46257500000001
 20
1080.66596
 30
0.0
 11
12.46257500000001
 21
1105.74555
 31
0.0
  0
LINE
  5
7C7
330
74
100
AcDbEntity
  8
18
100
AcDbLine
 10
15.38757499999985
 20
1080.66596
 30
0.0
 11
15.38757499999985
 21
1105.74555
 31
0.0
  0
LINE
  5
7C8
330
74
100
AcDbEntity
  8
18
100
AcDbLine
 10
42.41173500000002
 20
1057.4668
 30
0.0
 11
44.79854
 21
1055.079995
 31
0.0
  0
LINE
  5
7C9
330
74
100
AcDbEntity
  8
18
100
AcDbLine
 10
37.87941000000001
 20
1069.38957
 30
0.0
 11
42.09517000000004
 21
1059.59372
 31
0.0
  0
LINE
  5
7CA
330
74
100
AcDbEntity
  8
18
100
AcDbLine
 10
30.512295
 20
1061.98915
 30
0.0
 11
40.32706000000007
 21
1057.81762
 31
0.0
  0
ARC
  5
7CB
330
74
100
AcDbEntity
  8
18
100
AcDbCircle
 10
40.85513000000003
 20
1059.060055
 30
0.0
 40
1.35
100
AcDbArc
 50
246.9732609999996
 51
23.28519000000009
  0
ARC
  5
7CC
330
74
100
AcDbEntity
  8
18
100
AcDbCircle
 10
32.7125749999999
 20
1067.16596
 30
0.0
 40
5.625
100
AcDbArc
 50
23.28519000000009
 51
246.9732609999996
  0
LINE
  5
7CD
330
74
100
AcDbEntity
  8
18
100
AcDbLine
 10
42.41173500000002
 20
1076.86512
 30
0.0
 11
44.79854
 21
1079.251925
 31
0.0
  0
LINE
  5
7CE
330
74
100
AcDbEntity
  8
18
  6
CENTER
 62
     2
100
AcDbLine
 10
-427.398645
 20
1047.44287
 30
0.0
 11
-357.09408
 21
1047.44287
 31
0.0
  0
LINE
  5
7CF
330
74
100
AcDbEntity
  8
18
  6
CENTER
 62
     2
100
AcDbLine
 10
-391.7033449999999
 20
1078.656935
 30
0.0
 11
-391.7033449999999
 21
1023.634415
 31
0.0
  0
LINE
  5
7D0
330
74
100
AcDbEntity
  8
18
100
AcDbLine
 10
-362.453345
 20
1055.54287
 30
0.0
 11
-362.453345
 21
1039.34287
 31
0.0
  0
LINE
  5
7D1
330
74
100
AcDbEntity
  8
18
100
AcDbLine
 10
-420.953345
 20
1055.54287
 30
0.0
 11
-420.953345
 21
1039.34287
 31
0.0
  0
LINE
  5
7D2
330
74
100
AcDbEntity
  8
18
100
AcDbLine
 10
-353.159855
 20
1079.336605
 30
0.0
 11
-353.159855
 21
1053.236605
 31
0.0
  0
LINE
  5
7D3
330
74
100
AcDbEntity
  8
18
100
AcDbLine
 10
-347.759855
 20
1079.336605
 30
0.0
 11
-347.759855
 21
1053.236605
 31
0.0
  0
LINE
  5
7D4
330
74
100
AcDbEntity
  8
18
100
AcDbLine
 10
-420.053345
 20
1056.44287
 30
0.0
 11
-407.2918049999998
 21
1056.44287
 31
0.0
  0
LINE
  5
7D5
330
74
100
AcDbEntity
  8
18
100
AcDbLine
 10
-376.11489
 20
1056.44287
 30
0.0
 11
-363.3533449999998
 21
1056.44287
 31
0.0
  0
LINE
  5
7D6
330
74
100
AcDbEntity
  8
18
100
AcDbLine
 10
-420.053345
 20
1038.44287
 30
0.0
 11
-407.2918049999998
 21
1038.44287
 31
0.0
  0
LINE
  5
7D7
330
74
100
AcDbEntity
  8
18
100
AcDbLine
 10
-376.11489
 20
1038.44287
 30
0.0
 11
-363.3533449999998
 21
1038.44287
 31
0.0
  0
ARC
  5
7D8
330
74
100
AcDbEntity
  8
18
100
AcDbCircle
 10
-350.459855
 20
1079.336605
 30
0.0
 40
2.7
100
AcDbArc
 50
0.0
 51
180.0
  0
ARC
  5
7D9
330
74
100
AcDbEntity
  8
18
100
AcDbCircle
 10
-350.459855
 20
1053.236605
 30
0.0
 40
2.7
100
AcDbArc
 50
180.0
 51
0.0
  0
ARC
  5
7DA
330
74
100
AcDbEntity
  8
18
100
AcDbCircle
 10
-420.053345
 20
1055.54287
 30
0.0
 40
0.9
100
AcDbArc
 50
90.0
 51
180.0
  0
ARC
  5
7DB
330
74
100
AcDbEntity
  8
18
100
AcDbCircle
 10
-420.053345
 20
1039.34287
 30
0.0
 40
0.9
100
AcDbArc
 50
180.0
 51
270.0
  0
ARC
  5
7DC
330
74
100
AcDbEntity
  8
18
100
AcDbCircle
 10
-363.3533449999998
 20
1055.54287
 30
0.0
 40
0.9
100
AcDbArc
 50
0.0
 51
90.0
  0
ARC
  5
7DD
330
74
100
AcDbEntity
  8
18
100
AcDbCircle
 10
-363.3533449999998
 20
1039.34287
 30
0.0
 40
0.9
100
AcDbArc
 50
270.0
 51
0.0
  0
LINE
  5
7DE
330
74
100
AcDbEntity
  8
18
100
AcDbLine
 10
-405.2033449999998
 20
1069.94287
 30
0.0
 11
-405.2033449999998
 21
1059.34875
 31
0.0
  0
LINE
  5
7DF
330
74
100
AcDbEntity
  8
18
100
AcDbLine
 10
-378.203345
 20
1069.94287
 30
0.0
 11
-378.203345
 21
1059.34875
 31
0.0
  0
LINE
  5
7E0
330
74
100
AcDbEntity
  8
18
100
AcDbLine
 10
-405.2033449999998
 20
1069.94287
 30
0.0
 11
-378.203345
 21
1069.94287
 31
0.0
  0
CIRCLE
  5
7E1
330
74
100
AcDbEntity
  8
18
100
AcDbCircle
 10
-391.7033449999999
 20
1047.44287
 30
0.0
 40
18.0
  0
LINE
  5
7E2
330
74
100
AcDbEntity
  8
18
100
AcDbLine
 10
-378.203345
 20
1067.69287
 30
0.0
 11
-353.123755
 21
1067.69287
 31
0.0
  0
LINE
  5
7E3
330
74
100
AcDbEntity
  8
18
100
AcDbLine
 10
-378.203345
 20
1064.76787
 30
0.0
 11
-353.123755
 21
1064.76787
 31
0.0
  0
LINE
  5
7E4
330
74
100
AcDbEntity
  8
18
100
AcDbLine
 10
-401.4025049999998
 20
1037.74371
 30
0.0
 11
-403.7893099999998
 21
1035.356905
 31
0.0
  0
LINE
  5
7E5
330
74
100
AcDbEntity
  8
18
100
AcDbLine
 10
-389.47974
 20
1042.276035
 30
0.0
 11
-399.275585
 21
1038.06028
 31
0.0
  0
LINE
  5
7E6
330
74
100
AcDbEntity
  8
18
100
AcDbLine
 10
-396.88016
 20
1049.64315
 30
0.0
 11
-401.051685
 21
1039.828385
 31
0.0
  0
ARC
  5
7E7
330
74
100
AcDbEntity
  8
18
100
AcDbCircle
 10
-399.80925
 20
1039.30032
 30
0.0
 40
1.35
100
AcDbArc
 50
156.9732609999996
 51
293.2851900000001
  0
ARC
  5
7E8
330
74
100
AcDbEntity
  8
18
100
AcDbCircle
 10
-391.7033449999999
 20
1047.44287
 30
0.0
 40
5.625
100
AcDbArc
 50
293.2851900000001
 51
156.9732609999996
  0
LINE
  5
7E9
330
74
100
AcDbEntity
  8
18
100
AcDbLine
 10
-382.004185
 20
1037.74371
 30
0.0
 11
-379.61738
 21
1035.356905
 31
0.0
  0
TEXT
  5
7EB
330
74
100
AcDbEntity
  8
18
100
AcDbText
 10
-180.7638510284256
 20
-81.17631499999992
 30
0.0
 40
15.0
  1
標準仕様
100
AcDbText
  0
TEXT
  5
7EC
330
74
100
AcDbEntity
  8
18
100
AcDbText
 10
-437.02223
 20
212.999965
 30
0.0
 40
25.0
  1
高圧側
100
AcDbText
  0
TEXT
  5
7ED
330
74
100
AcDbEntity
  8
18
100
AcDbText
 10
-395.977975
 20
985.352385
 30
0.0
 40
15.0
  1
A
100
AcDbText
  0
TEXT
  5
7EE
330
74
100
AcDbEntity
  8
18
100
AcDbText
 10
-256.03771
 20
984.9516149999999
 30
0.0
 40
15.0
  1
B
100
AcDbText
  0
TEXT
  5
7EF
330
74
100
AcDbEntity
  8
18
100
AcDbText
 10
-115.977975
 20
985.352385
 30
0.0
 40
15.0
  1
C
100
AcDbText
  0
TEXT
  5
7F0
330
74
100
AcDbEntity
  8
18
100
AcDbText
 10
-256.8392199999999
 20
959.8178449999998
 30
0.0
 40
15.0
  1
アクチュエ-タ取付方向
100
AcDbText
  0
TEXT
  5
7F1
330
74
100
AcDbEntity
  8
18
100
AcDbText
 10
-430.75302
 20
1009.69107
 30
0.0
 40
12.5
  1
弁棒側 低圧側
100
AcDbText
  0
TEXT
  5
7F2
330
74
100
AcDbEntity
  8
18
100
AcDbText
 10
-442.7347199999998
 20
1109.219535
 30
0.0
 40
12.5
  1
フラット側 高圧側
 41
0.9481863899470738
 72
     5
 11
-325.0015765815715
 21
1109.219535
 31
0.0
100
AcDbText
  0
TEXT
  5
7F3
330
74
100
AcDbEntity
  8
18
100
AcDbText
 10
24.022025
 20
985.352385
 30
0.0
 40
15.0
  1
D
100
AcDbText
  0
TEXT
  5
7F4
330
74
100
AcDbEntity
  8
18
100
AcDbText
 10
-180.7638510284256
 20
-61.17631499999993
 30
0.0
 40
15.0
  1
302Y-2SAS 200A
100
AcDbText
  0
TEXT
  5
7F5
330
74
100
AcDbEntity
  8
18
100
AcDbText
 10
106.8298975461287
 20
-80.59274500000006
 30
0.0
 40
11.25
  1
′97. 9. 1
100
AcDbText
  0
TEXT
  5
7F6
330
74
100
AcDbEntity
  8
18
100
AcDbText
 10
-32.0
 20
-126.0
 30
0.0
 40
25.0
  1
D3-00553
100
AcDbText
  0
TEXT
  5
7F8
330
74
100
AcDbEntity
  8
18
100
AcDbText
 10
-95.47285
 20
1069.85282
 30
0.0
 40
6.75
  1
S
100
AcDbText
  0
TEXT
  5
7F9
330
74
100
AcDbEntity
  8
18
100
AcDbText
 10
-120.5462750000001
 20
1070.236065
 30
0.0
 40
6.75
  1
O
100
AcDbText
  0
TEXT
  5
7FA
330
74
100
AcDbEntity
  8
18
100
AcDbText
 10
-253.330145
 20
1077.13967
 30
0.0
 40
6.75
  1
S
 50
90.0
100
AcDbText
  0
TEXT
  5
7FB
330
74
100
AcDbEntity
  8
18
100
AcDbText
 10
-253.713395
 20
1051.84124
 30
0.0
 40
6.75
  1
O
 50
90.0
100
AcDbText
  0
TEXT
  5
7FC
330
74
100
AcDbEntity
  8
18
100
AcDbText
 10
35.39943500000004
 20
1057.192255
 30
0.0
 40
6.75
  1
S
 50
270.0
100
AcDbText
  0
TEXT
  5
7FD
330
74
100
AcDbEntity
  8
18
100
AcDbText
 10
35.78268000000004
 20
1082.49068
 30
0.0
 40
6.75
  1
O
 50
270.0
100
AcDbText
  0
TEXT
  5
7FE
330
74
100
AcDbEntity
  8
18
100
AcDbText
 10
-401.4520549999998
 20
1044.756015
 30
0.0
 40
6.75
  1
S
 50
180.0
100
AcDbText
  0
TEXT
  5
7FF
330
74
100
AcDbEntity
  8
18
100
AcDbText
 10
-376.3786249999999
 20
1044.372765
 30
0.0
 40
6.75
  1
O
 50
180.0
100
AcDbText
  0
LINE
  5
800
330
74
100
AcDbEntity
  8
20
 62
     3
100
AcDbLine
 10
-1700.0
 20
1214.0
 30
0.0
 11
-1700.0
 21
-138.5
 31
0.0
  0
LINE
  5
801
330
74
100
AcDbEntity
  8
20
 62
     3
100
AcDbLine
 10
200.0
 20
1214.0
 30
0.0
 11
200.0
 21
-138.5
 31
0.0
  0
LINE
  5
802
330
74
100
AcDbEntity
  8
20
 62
     3
100
AcDbLine
 10
-500.0
 20
-138.5
 30
0.0
 11
-500.0
 21
-38.5
 31
0.0
  0
LINE
  5
803
330
74
100
AcDbEntity
  8
20
 62
     3
100
AcDbLine
 10
-265.0
 20
-138.5
 30
0.0
 11
-265.0
 21
-38.5
 31
0.0
  0
LINE
  5
804
330
74
100
AcDbEntity
  8
20
100
AcDbLine
 10
-265.0
 20
-88.49999999999999
 30
0.0
 11
200.0
 21
-88.49999999999999
 31
0.0
  0
LINE
  5
805
330
74
100
AcDbEntity
  8
20
 62
     3
100
AcDbLine
 10
-500.0
 20
-38.5
 30
0.0
 11
200.0
 21
-38.5
 31
0.0
  0
LINE
  5
806
330
74
100
AcDbEntity
  8
20
100
AcDbLine
 10
100.0
 20
-88.49999999999999
 30
0.0
 11
100.0
 21
-38.5
 31
0.0
  0
LINE
  5
807
330
74
100
AcDbEntity
  8
20
100
AcDbLine
 10
100.0
 20
-63.5
 30
0.0
 11
200.0
 21
-63.5
 31
0.0
  0
LINE
  5
808
330
74
100
AcDbEntity
  8
20
100
AcDbLine
 10
-195.0
 20
-138.5
 30
0.0
 11
-195.0
 21
-38.5
 31
0.0
  0
LINE
  5
809
330
74
100
AcDbEntity
  8
20
100
AcDbLine
 10
-145.0
 20
-138.5
 30
0.0
 11
-145.0
 21
-88.49999999999999
 31
0.0
  0
LINE
  5
80A
330
74
100
AcDbEntity
  8
20
100
AcDbLine
 10
-45.0
 20
-138.5
 30
0.0
 11
-45.0
 21
-88.49999999999999
 31
0.0
  0
LINE
  5
80B
330
74
100
AcDbEntity
  8
20
100
AcDbLine
 10
-181.357925
 20
-124.857925
 30
0.0
 11
-160.508545
 21
-104.008545
 31
0.0
  0
LINE
  5
80C
330
74
100
AcDbEntity
  8
20
 62
     3
100
AcDbLine
 10
200.0
 20
-138.5
 30
0.0
 11
-1700.0
 21
-138.5
 31
0.0
  0
LINE
  5
80D
330
74
100
AcDbEntity
  8
20
 62
     3
100
AcDbLine
 10
200.0
 20
1214.0
 30
0.0
 11
-1700.0
 21
1214.0
 31
0.0
  0
TEXT
  5
80E
330
74
100
AcDbEntity
  8
20
100
AcDbText
 10
-137.6074075809133
 20
-108.48459
 30
0.0
 40
9.0
  1
DRAWING NO.
100
AcDbText
  0
TEXT
  5
80F
330
74
100
AcDbEntity
  8
20
100
AcDbText
 10
-127.7740525809133
 20
-128.5
 30
0.0
 40
15.0
  1
図   番
100
AcDbText
  0
TEXT
  5
810
330
74
100
AcDbEntity
  8
20
100
AcDbText
 10
130.0
 20
-56.0
 30
0.0
 40
10.0
  1
DATE
100
AcDbText
  0
TEXT
  5
811
330
74
100
AcDbEntity
  8
20
100
AcDbText
 10
-254.994645
 20
-110.805145
 30
0.0
 40
10.0
  1
SCALE
100
AcDbText
  0
TEXT
  5
812
330
74
100
AcDbEntity
  8
20
100
AcDbText
 10
-260.0
 20
-128.5
 30
0.0
 40
15.0
  1
尺  度
100
AcDbText
  0
TEXT
  5
813
330
74
100
AcDbEntity
  8
20
100
AcDbText
 10
-256.2918103299773
 20
-58.4794250000001
 30
0.0
 40
10.0
  1
FIG.NO.
100
AcDbText
  0
TEXT
  5
814
330
74
100
AcDbEntity
  8
20
100
AcDbText
 10
-260.0
 20
-78.5
 30
0.0
 40
15.0
  1
名  称
100
AcDbText
  0
TEXT
  5
815
330
74
100
AcDbEntity
  8
20
100
AcDbText
 10
-474.2408275024353
 20
-78.35126500000001
 30
0.0
 40
11.5
  1
TOMOE VALVE CO.,LTD.
100
AcDbText
  0
TEXT
  5
816
330
74
100
AcDbEntity
  8
20
100
AcDbText
 10
-475.4801765441356
 20
-112.44905
 30
0.0
 40
20.0
  1
巴バルブ株式会社
100
AcDbText
  0
DIMENSION
  5
BC2
330
74
100
AcDbEntity
  8
5
  6
Continuous
100
AcDbDimension
  2
*D7
 10
-987.4474622517288
 20
370.76173
 30
0.0
 11
-987.4474622517288
 21
510.7617299999997
 31
0.0
 70
   160
 71
     5
 42
279.9999999999999
  3
Standard
100
AcDbAlignedDimension
 13
-1050.493985
 23
650.7617299999998
 33
0.0
 14
-1050.493985
 24
370.76173
 34
0.0
 50
90.0
100
AcDbRotatedDimension
1001
ACAD
1000
DSTYLE
1002
{
1070
     3
1000
%%C<>
1070
    40
1040
5.0
1070
    42
1040
0.8
1070
    44
1040
0.25
1070
    77
1070
     1
1070
   143
1040
0.03937
1002
}
  0
DIMENSION
  5
D80
330
74
100
AcDbEntity
  8
5
  6
Continuous
100
AcDbDimension
  2
*D8
 10
-1290.056485
 20
1117.622307130017
 30
0.0
 11
-1167.306484995565
 21
1130.372307130017
 31
0.0
 70
    32
 71
     5
 42
245.5000000088701
  3
Standard
100
AcDbAlignedDimension
 13
-1044.55648499113
 23
1082.709536841927
 33
0.0
 14
-1290.056485
 24
997.3522704094438
 34
0.0
100
AcDbRotatedDimension
1001
ACAD
1000
DSTYLE
1002
{
1070
   271
1070
     0
1070
    40
1040
5.0
1070
    42
1040
0.8
1070
    44
1040
0.25
1070
   143
1040
0.03937
1002
}
  0
DIMENSION
  5
D8D
330
74
100
AcDbEntity
  8
5
  6
Continuous
100
AcDbDimension
  2
*D9
 10
-987.0307955850622
 20
861.46173
 30
0.0
 11
-999.7807955850623
 21
903.9617299999999
 31
0.0
 70
    32
 71
     5
 42
85.0
  3
Standard
100
AcDbAlignedDimension
 13
-1029.46381
 23
946.46173
 33
0.0
 14
-1119.066965
 24
861.46173
 34
0.0
 50
90.0
100
AcDbRotatedDimension
1001
ACAD
1000
DSTYLE
1002
{
1070
    40
1040
5.0
1070
    42
1040
0.8
1070
    44
1040
0.25
1070
   143
1040
0.03937
1002
}
  0
DIMENSION
  5
EDF
330
74
100
AcDbEntity
  8
5
  6
Continuous
100
AcDbDimension
  2
*D10
 10
-987.0307955850622
 20
735.46173
 30
0.0
 11
-999.7807955850623
 21
798.4617299999999
 31
0.0
 70
    32
 71
     5
 42
126.0
  3
Standard
100
AcDbAlignedDimension
 13
-1119.066965
 23
861.46173
 33
0.0
 14
-1236.056485
 24
735.46173
 34
0.0
 50
90.0
100
AcDbRotatedDimension
1001
ACAD
1000
DSTYLE
1002
{
1070
    40
1040
5.0
1070
    42
1040
0.8
1070
    44
1040
0.25
1070
   143
1040
0.03937
1002
}
  0
ENDSEC
  0
SECTION
  2
OBJECTS
  0
DICTIONARY
  5
C
330
0
100
AcDbDictionary
281
     1
  3
ACAD_COLOR
350
6A
  3
ACAD_GROUP
350
D
  3
ACAD_LAYOUT
350
69
  3
ACAD_MATERIAL
350
10
  3
ACAD_MLEADERSTYLE
350
6D
  3
ACAD_MLINESTYLE
350
66
  3
ACAD_PLOTSETTINGS
350
68
  3
ACAD_PLOTSTYLENAME
350
E
  3
ACAD_SCALELIST
350
3A
  3
ACAD_TABLESTYLE
350
6B
  3
ACAD_VISUALSTYLE
350
29
  3
ACDB_RECOMPOSE_DATA
350
FBD
  3
AcDbVariableDictionary
350
FC9
  3
DWGPROPS
350
FF8
  0
DICTIONARY
  5
FBF
330
8
100
AcDbDictionary
280
     1
281
     1
  0
DICTIONARY
  5
967
330
2
100
AcDbDictionary
280
     1
281
     1
  3
ACAD_LAYERFILTERS
360
FBA
  3
ACAD_LAYERSTATES
360
FB0
  3
ACLYDICTIONARY
360
FB9
  0
DICTIONARY
  5
F46
330
5C
100
AcDbDictionary
280
     1
281
     1
  3
ADSK_XREC_LAYER_RECONCILED
360
F47
  0
DICTIONARY
  5
F48
330
7E
100
AcDbDictionary
280
     1
281
     1
  3
ADSK_XREC_LAYER_RECONCILED
360
F49
  0
DICTIONARY
  5
F4A
330
7F
100
AcDbDictionary
280
     1
281
     1
  3
ADSK_XREC_LAYER_RECONCILED
360
F4B
  0
DICTIONARY
  5
F4C
330
80
100
AcDbDictionary
280
     1
281
     1
  3
ADSK_XREC_LAYER_RECONCILED
360
F4D
  0
DICTIONARY
  5
F4E
330
81
100
AcDbDictionary
280
     1
281
     1
  3
ADSK_XREC_LAYER_RECONCILED
360
F4F
  0
DICTIONARY
  5
F50
330
82
100
AcDbDictionary
280
     1
281
     1
  3
ADSK_XREC_LAYER_RECONCILED
360
F51
  0
DICTIONARY
  5
F52
330
83
100
AcDbDictionary
280
     1
281
     1
  3
ADSK_XREC_LAYER_RECONCILED
360
F53
  0
DICTIONARY
  5
6A
102
{ACAD_REACTORS
330
C
102
}
330
C
100
AcDbDictionary
281
     1
  0
DICTIONARY
  5
D
102
{ACAD_REACTORS
330
C
102
}
330
C
100
AcDbDictionary
281
     1
  0
DICTIONARY
  5
69
102
{ACAD_REACTORS
330
C
102
}
330
C
100
AcDbDictionary
281
     1
  3
Model
350
77
  3
レイアウト1
350
73
  0
DICTIONARY
  5
10
102
{ACAD_REACTORS
330
C
102
}
330
C
100
AcDbDictionary
281
     1
  3
ByBlock
350
19
  3
ByLayer
350
11
  3
Global
350
21
  0
DICTIONARY
  5
6D
102
{ACAD_REACTORS
330
C
102
}
330
C
100
AcDbDictionary
281
     1
  3
Standard
350
6E
  0
DICTIONARY
  5
66
102
{ACAD_REACTORS
330
C
102
}
330
C
100
AcDbDictionary
281
     1
  3
Standard
350
67
  0
DICTIONARY
  5
68
102
{ACAD_REACTORS
330
C
102
}
330
C
100
AcDbDictionary
281
     1
  0
ACDBDICTIONARYWDFLT
  5
E
102
{ACAD_REACTORS
330
C
102
}
330
C
100
AcDbDictionary
281
     1
  3
Normal
350
F
100
AcDbDictionaryWithDefault
340
F
  0
DICTIONARY
  5
3A
102
{ACAD_REACTORS
330
C
102
}
330
C
100
AcDbDictionary
281
     1
  3
*A1
350
FA4
  3
*A10
350
FA7
  3
*A11
350
FA8
  3
*A12
350
FA9
  3
*A2
350
FAA
  3
*A3
350
FAB
  3
*A4
350
FAC
  3
*A5
350
FAD
  3
*A6
350
FAE
  3
*A7
350
FAF
  3
*A8
350
FA5
  3
*A9
350
FA6
  3
A0
350
3B
  3
A1
350
3C
  3
A2
350
3D
  3
A3
350
3E
  3
A4
350
3F
  3
A5
350
40
  3
A6
350
41
  3
A7
350
42
  3
A8
350
43
  3
A9
350
44
  3
B0
350
45
  3
B1
350
46
  3
B2
350
47
  3
B3
350
48
  3
B4
350
49
  3
B5
350
4A
  3
B6
350
4B
  3
B7
350
4C
  3
B8
350
4D
  3
B9
350
4E
  3
C0
350
4F
  3
C1
350
50
  3
C2
350
51
  3
C3
350
52
  3
C4
350
53
  3
C5
350
54
  3
C6
350
55
  3
C7
350
56
  3
C8
350
57
  3
C9
350
58
  3
D0
350
59
  3
D1
350
5A
  3
D2
350
5B
  0
DICTIONARY
  5
6B
102
{ACAD_REACTORS
330
C
102
}
330
C
100
AcDbDictionary
281
     1
  3
Standard
350
6C
  0
DICTIONARY
  5
29
102
{ACAD_REACTORS
330
C
102
}
330
C
100
AcDbDictionary
281
     1
  3
2dWireframe
350
2F
  3
3D Hidden
350
31
  3
3dWireframe
350
30
  3
Basic
350
2E
  3
Brighten
350
35
  3
ColorChange
350
39
  3
Conceptual
350
32
  3
Dim
350
34
  3
Facepattern
350
38
  3
Flat
350
2A
  3
FlatWithEdges
350
2B
  3
Gouraud
350
2C
  3
GouraudWithEdges
350
2D
  3
Linepattern
350
37
  3
Realistic
350
33
  3
Thicken
350
36
  0
XRECORD
  5
FBD
102
{ACAD_REACTORS
330
C
102
}
330
C
100
AcDbXrecord
280
     1
 90
        1
330
6C
  0
DICTIONARY
  5
FC9
102
{ACAD_REACTORS
330
C
102
}
330
C
100
AcDbDictionary
281
     1
  3
CANNOSCALE
350
FCC
  3
CMLEADERSTYLE
350
FCB
  3
CTABLESTYLE
350
FCA
  3
DIMASSOC
350
FCF
  3
INDEXCTL
350
FCE
  3
SORTENTS
350
FCD
  0
XRECORD
  5
FF8
102
{ACAD_REACTORS
330
C
102
}
330
C
100
AcDbXrecord
280
     1
  1
DWGPROPS COOKIE
  2

  3

  4

  6

  7

  8
matsubara-akiko
  9

300
=
301
=
302
=
303
=
304
=
305
=
306
=
307
=
308
=
309
=
 40
0.110234212962963
 41
2450693.0
 42
2456678.438585556
  1

 90
        0
  0
DICTIONARY
  5
FBA
102
{ACAD_REACTORS
330
967
102
}
330
967
100
AcDbDictionary
281
     1
  0
DICTIONARY
  5
FB0
102
{ACAD_REACTORS
330
967
102
}
330
967
100
AcDbDictionary
281
     1
  0
DICTIONARY
  5
FB9
102
{ACAD_REACTORS
330
967
102
}
330
967
100
AcDbDictionary
281
     1
1001
ACAD
1000
<All
  0
XRECORD
  5
F47
102
{ACAD_REACTORS
330
F46
102
}
330
F46
100
AcDbXrecord
280
     1
290
     1
  0
XRECORD
  5
F49
102
{ACAD_REACTORS
330
F48
102
}
330
F48
100
AcDbXrecord
280
     1
290
     1
  0
XRECORD
  5
F4B
102
{ACAD_REACTORS
330
F4A
102
}
330
F4A
100
AcDbXrecord
280
     1
290
     1
  0
XRECORD
  5
F4D
102
{ACAD_REACTORS
330
F4C
102
}
330
F4C
100
AcDbXrecord
280
     1
290
     1
  0
XRECORD
  5
F4F
102
{ACAD_REACTORS
330
F4E
102
}
330
F4E
100
AcDbXrecord
280
     1
290
     1
  0
XRECORD
  5
F51
102
{ACAD_REACTORS
330
F50
102
}
330
F50
100
AcDbXrecord
280
     1
290
     1
  0
XRECORD
  5
F53
102
{ACAD_REACTORS
330
F52
102
}
330
F52
100
AcDbXrecord
280
     1
290
     1
  0
LAYOUT
  5
77
102
{ACAD_XDICTIONARY
360
FFC
102
}
102
{ACAD_REACTORS
330
69
102
}
330
69
100
AcDbPlotSettings
  1

  2
EMP07
  4
A3
  6

 40
5.873749732971191
 41
5.873747825622557
 42
5.873748779296875
 43
5.873748779296875
 44
296.9259948730469
 45
419.9466552734373
 46
0.0
 47
0.0
 48
-1796.893336038324
 49
-211.7432509279615
140
303.1066639616756
141
1273.256749072038
142
1.0
143
5.207264989998856
 70
 11952
 72
     1
 73
     1
 74
     4
  7
monochrome.ctb
 75
     0
147
0.1920393914887399
148
1796.893336038324
149
211.7432509279615
100
AcDbLayout
  1
Model
 70
     1
 71
     0
 10
0.0
 20
0.0
 11
12.0
 21
9.0
 12
0.0
 22
0.0
 32
0.0
 14
0.0
 24
0.0
 34
0.0
 15
0.0
 25
0.0
 35
0.0
146
0.0
 13
0.0
 23
0.0
 33
0.0
 16
1.0
 26
0.0
 36
0.0
 17
0.0
 27
1.0
 37
0.0
 76
     0
330
74
331
86
1001
ACAD_PSEXT
1000
EMP07
1000
RICOH imagio MP C5002 RPCS
1000
エンジニアリングセンター
1000

1070
     0
  0
LAYOUT
  5
73
102
{ACAD_XDICTIONARY
360
FFA
102
}
102
{ACAD_REACTORS
330
69
102
}
330
69
100
AcDbPlotSettings
  1

  2
EMP07
  4

  6

 40
0.0
 41
0.0
 42
0.0
 43
0.0
 44
0.0
 45
0.0
 46
0.0
 47
0.0
 48
0.0
 49
0.0
140
0.0
141
0.0
142
1.0
143
1.0
 70
   688
 72
     0
 73
     0
 74
     5
  7
monochrome.ctb
 75
    16
147
1.0
148
0.0
149
0.0
100
AcDbLayout
  1
レイアウト1
 70
     1
 71
     1
 10
0.0
 20
0.0
 11
12.0
 21
9.0
 12
0.0
 22
0.0
 32
0.0
 14
1.000000000000000E+20
 24
1.000000000000000E+20
 34
1.000000000000000E+20
 15
-1.000000000000000E+20
 25
-1.000000000000000E+20
 35
-1.000000000000000E+20
146
0.0
 13
0.0
 23
0.0
 33
0.0
 16
1.0
 26
0.0
 36
0.0
 17
0.0
 27
1.0
 37
0.0
 76
     0
330
70
  0
MATERIAL
  5
19
102
{ACAD_XDICTIONARY
360
1A
102
}
102
{ACAD_REACTORS
330
10
102
}
330
10
100
AcDbMaterial
  1
ByBlock
 72
     0
 43
0.0208333333333333
 43
0.0
 43
0.0
 43
0.0
 43
0.0
 43
0.0208333333333333
 43
0.0
 43
0.0
 43
0.0
 43
0.0
 43
1.0
 43
0.0
 43
0.0
 43
0.0
 43
0.0
 43
1.0
 77
     0
 47
0.0208333333333333
 47
0.0
 47
0.0
 47
0.0
 47
0.0
 47
0.0208333333333333
 47
0.0
 47
0.0
 47
0.0
 47
0.0
 47
1.0
 47
0.0
 47
0.0
 47
0.0
 47
0.0
 47
1.0
171
     0
 49
0.0208333333333333
 49
0.0
 49
0.0
 49
0.0
 49
0.0
 49
0.0208333333333333
 49
0.0
 49
0.0
 49
0.0
 49
0.0
 49
1.0
 49
0.0
 49
0.0
 49
0.0
 49
0.0
 49
1.0
175
     0
142
0.0208333333333333
142
0.0
142
0.0
142
0.0
142
0.0
142
0.0208333333333333
142
0.0
142
0.0
142
0.0
142
0.0
142
1.0
142
0.0
142
0.0
142
0.0
142
0.0
142
1.0
179
     0
144
0.0208333333333333
144
0.0
144
0.0
144
0.0
144
0.0
144
0.0208333333333333
144
0.0
144
0.0
144
0.0
144
0.0
144
1.0
144
0.0
144
0.0
144
0.0
144
0.0
144
1.0
147
0.0208333333333333
147
0.0
147
0.0
147
0.0
147
0.0
147
0.0208333333333333
147
0.0
147
0.0
147
0.0
147
0.0
147
1.0
147
0.0
147
0.0
147
0.0
147
0.0
147
1.0
  0
MATERIAL
  5
11
102
{ACAD_XDICTIONARY
360
12
102
}
102
{ACAD_REACTORS
330
10
102
}
330
10
100
AcDbMaterial
  1
ByLayer
 72
     0
 43
0.0208333333333333
 43
0.0
 43
0.0
 43
0.0
 43
0.0
 43
0.0208333333333333
 43
0.0
 43
0.0
 43
0.0
 43
0.0
 43
1.0
 43
0.0
 43
0.0
 43
0.0
 43
0.0
 43
1.0
 77
     0
 47
0.0208333333333333
 47
0.0
 47
0.0
 47
0.0
 47
0.0
 47
0.0208333333333333
 47
0.0
 47
0.0
 47
0.0
 47
0.0
 47
1.0
 47
0.0
 47
0.0
 47
0.0
 47
0.0
 47
1.0
171
     0
 49
0.0208333333333333
 49
0.0
 49
0.0
 49
0.0
 49
0.0
 49
0.0208333333333333
 49
0.0
 49
0.0
 49
0.0
 49
0.0
 49
1.0
 49
0.0
 49
0.0
 49
0.0
 49
0.0
 49
1.0
175
     0
142
0.0208333333333333
142
0.0
142
0.0
142
0.0
142
0.0
142
0.0208333333333333
142
0.0
142
0.0
142
0.0
142
0.0
142
1.0
142
0.0
142
0.0
142
0.0
142
0.0
142
1.0
179
     0
144
0.0208333333333333
144
0.0
144
0.0
144
0.0
144
0.0
144
0.0208333333333333
144
0.0
144
0.0
144
0.0
144
0.0
144
1.0
144
0.0
144
0.0
144
0.0
144
0.0
144
1.0
147
0.0208333333333333
147
0.0
147
0.0
147
0.0
147
0.0
147
0.0208333333333333
147
0.0
147
0.0
147
0.0
147
0.0
147
1.0
147
0.0
147
0.0
147
0.0
147
0.0
147
1.0
  0
MATERIAL
  5
21
102
{ACAD_XDICTIONARY
360
22
102
}
102
{ACAD_REACTORS
330
10
102
}
330
10
100
AcDbMaterial
  1
Global
 72
     0
 43
0.0208333333333333
 43
0.0
 43
0.0
 43
0.0
 43
0.0
 43
0.0208333333333333
 43
0.0
 43
0.0
 43
0.0
 43
0.0
 43
1.0
 43
0.0
 43
0.0
 43
0.0
 43
0.0
 43
1.0
 77
     0
 47
0.0208333333333333
 47
0.0
 47
0.0
 47
0.0
 47
0.0
 47
0.0208333333333333
 47
0.0
 47
0.0
 47
0.0
 47
0.0
 47
1.0
 47
0.0
 47
0.0
 47
0.0
 47
0.0
 47
1.0
171
     0
 49
0.0208333333333333
 49
0.0
 49
0.0
 49
0.0
 49
0.0
 49
0.0208333333333333
 49
0.0
 49
0.0
 49
0.0
 49
0.0
 49
1.0
 49
0.0
 49
0.0
 49
0.0
 49
0.0
 49
1.0
175
     0
142
0.0208333333333333
142
0.0
142
0.0
142
0.0
142
0.0
142
0.0208333333333333
142
0.0
142
0.0
142
0.0
142
0.0
142
1.0
142
0.0
142
0.0
142
0.0
142
0.0
142
1.0
179
     0
144
0.0208333333333333
144
0.0
144
0.0
144
0.0
144
0.0
144
0.0208333333333333
144
0.0
144
0.0
144
0.0
144
0.0
144
1.0
144
0.0
144
0.0
144
0.0
144
0.0
144
1.0
147
0.0208333333333333
147
0.0
147
0.0
147
0.0
147
0.0
147
0.0208333333333333
147
0.0
147
0.0
147
0.0
147
0.0
147
1.0
147
0.0
147
0.0
147
0.0
147
0.0
147
1.0
  0
MLEADERSTYLE
  5
6E
102
{ACAD_REACTORS
330
6D
102
}
330
6D
100
AcDbMLeaderStyle
170
     2
171
     1
172
     0
 90
        2
 40
0.0
 41
0.0
173
     1
 91
-1056964608
340
62
 92
       -2
290
     1
 42
0.09
291
     1
 43
0.36
  3
Standard
 44
0.18
300

342
5D
174
     1
178
     6
175
     1
176
     0
 93
-1056964608
 45
0.18
292
     0
297
     0
 46
0.18
 94
-1056964608
 47
1.0
 49
1.0
140
1.0
293
     1
141
0.0
294
     1
177
     0
142
1.0
295
     0
296
     0
143
0.125
1001
ACAD_MLEADERVER
1070
     2
  0
MLINESTYLE
  5
67
102
{ACAD_REACTORS
330
66
102
}
330
66
100
AcDbMlineStyle
  2
STANDARD
 70
     0
  3

 62
   256
 51
90.0
 52
90.0
 71
     2
 49
0.5
 62
   256
  6
BYLAYER
 49
-0.5
 62
   256
  6
BYLAYER
  0
ACDBPLACEHOLDER
  5
F
102
{ACAD_REACTORS
330
E
102
}
330
E
  0
SCALE
  5
FA4
102
{ACAD_REACTORS
330
3A
102
}
330
3A
100
AcDbScale
 70
     0
300
3:1
140
3.0
141
1.0
290
     0
  0
SCALE
  5
FA7
102
{ACAD_REACTORS
330
3A
102
}
330
3A
100
AcDbScale
 70
     0
300
1:6
140
1.0
141
5.0
290
     0
  0
SCALE
  5
FA8
102
{ACAD_REACTORS
330
3A
102
}
330
3A
100
AcDbScale
 70
     0
300
1:9
140
1.0
141
9.0
290
     0
  0
SCALE
  5
FA9
102
{ACAD_REACTORS
330
3A
102
}
330
3A
100
AcDbScale
 70
     0
300
1:12
140
1.0
141
12.0
290
     0
1001
ACAD
1000
AcRTDxfName
1000
SCALE
1000
AcRTDxfName
1000
SCALE
1000
AcRTDxfName
1000
SCALE
1000
AcRTDxfName
1000
SCALE
  0
SCALE
  5
FAA
102
{ACAD_REACTORS
330
3A
102
}
330
3A
100
AcDbScale
 70
     0
300
1:11
140
1.0
141
11.0
290
     0
  0
SCALE
  5
FAB
102
{ACAD_REACTORS
330
3A
102
}
330
3A
100
AcDbScale
 70
     0
300
2:3
140
2.0
141
3.0
290
     0
  0
SCALE
  5
FAC
102
{ACAD_REACTORS
330
3A
102
}
330
3A
100
AcDbScale
 70
     0
300
2:7
140
1.0
141
3.5
290
     0
  0
SCALE
  5
FAD
102
{ACAD_REACTORS
330
3A
102
}
330
3A
100
AcDbScale
 70
     0
300
1:4.5
140
1.0
141
4.5
290
     0
  0
SCALE
  5
FAE
102
{ACAD_REACTORS
330
3A
102
}
330
3A
100
AcDbScale
 70
     0
300
1:1.5
140
1.0
141
1.5
290
     0
  0
SCALE
  5
FAF
102
{ACAD_REACTORS
330
3A
102
}
330
3A
100
AcDbScale
 70
     0
300
1:2.5
140
1.0
141
2.5
290
     0
  0
SCALE
  5
FA5
102
{ACAD_REACTORS
330
3A
102
}
330
3A
100
AcDbScale
 70
     0
300
1:3
140
1.0
141
3.0
290
     0
  0
SCALE
  5
FA6
102
{ACAD_REACTORS
330
3A
102
}
330
3A
100
AcDbScale
 70
     0
300
1:7
140
1.0
141
7.0
290
     0
  0
SCALE
  5
3B
102
{ACAD_REACTORS
330
3A
102
}
330
3A
100
AcDbScale
 70
     0
300
1:1
140
1.0
141
1.0
290
     1
  0
SCALE
  5
3C
102
{ACAD_REACTORS
330
3A
102
}
330
3A
100
AcDbScale
 70
     0
300
1:2
140
1.0
141
2.0
290
     0
  0
SCALE
  5
3D
102
{ACAD_REACTORS
330
3A
102
}
330
3A
100
AcDbScale
 70
     0
300
1:4
140
1.0
141
4.0
290
     0
  0
SCALE
  5
3E
102
{ACAD_REACTORS
330
3A
102
}
330
3A
100
AcDbScale
 70
     0
300
1:5
140
1.0
141
5.0
290
     0
  0
SCALE
  5
3F
102
{ACAD_REACTORS
330
3A
102
}
330
3A
100
AcDbScale
 70
     0
300
1:8
140
1.0
141
8.0
290
     0
  0
SCALE
  5
40
102
{ACAD_REACTORS
330
3A
102
}
330
3A
100
AcDbScale
 70
     0
300
1:10
140
1.0
141
10.0
290
     0
  0
SCALE
  5
41
102
{ACAD_REACTORS
330
3A
102
}
330
3A
100
AcDbScale
 70
     0
300
1:16
140
1.0
141
16.0
290
     0
  0
SCALE
  5
42
102
{ACAD_REACTORS
330
3A
102
}
330
3A
100
AcDbScale
 70
     0
300
1:20
140
1.0
141
20.0
290
     0
  0
SCALE
  5
43
102
{ACAD_REACTORS
330
3A
102
}
330
3A
100
AcDbScale
 70
     0
300
1:30
140
1.0
141
30.0
290
     0
  0
SCALE
  5
44
102
{ACAD_REACTORS
330
3A
102
}
330
3A
100
AcDbScale
 70
     0
300
1:40
140
1.0
141
40.0
290
     0
  0
SCALE
  5
45
102
{ACAD_REACTORS
330
3A
102
}
330
3A
100
AcDbScale
 70
     0
300
1:50
140
1.0
141
50.0
290
     0
  0
SCALE
  5
46
102
{ACAD_REACTORS
330
3A
102
}
330
3A
100
AcDbScale
 70
     0
300
1:100
140
1.0
141
100.0
290
     0
  0
SCALE
  5
47
102
{ACAD_REACTORS
330
3A
102
}
330
3A
100
AcDbScale
 70
     0
300
2:1
140
2.0
141
1.0
290
     0
  0
SCALE
  5
48
102
{ACAD_REACTORS
330
3A
102
}
330
3A
100
AcDbScale
 70
     0
300
4:1
140
4.0
141
1.0
290
     0
  0
SCALE
  5
49
102
{ACAD_REACTORS
330
3A
102
}
330
3A
100
AcDbScale
 70
     0
300
8:1
140
8.0
141
1.0
290
     0
  0
SCALE
  5
4A
102
{ACAD_REACTORS
330
3A
102
}
330
3A
100
AcDbScale
 70
     0
300
10:1
140
10.0
141
1.0
290
     0
  0
SCALE
  5
4B
102
{ACAD_REACTORS
330
3A
102
}
330
3A
100
AcDbScale
 70
     0
300
100:1
140
100.0
141
1.0
290
     0
  0
SCALE
  5
4C
102
{ACAD_REACTORS
330
3A
102
}
330
3A
100
AcDbScale
 70
     0
300
1/128" = 1'-0"
140
0.0078125
141
12.0
290
     0
  0
SCALE
  5
4D
102
{ACAD_REACTORS
330
3A
102
}
330
3A
100
AcDbScale
 70
     0
300
1/64" = 1'-0"
140
0.015625
141
12.0
290
     0
  0
SCALE
  5
4E
102
{ACAD_REACTORS
330
3A
102
}
330
3A
100
AcDbScale
 70
     0
300
1/32" = 1'-0"
140
0.03125
141
12.0
290
     0
  0
SCALE
  5
4F
102
{ACAD_REACTORS
330
3A
102
}
330
3A
100
AcDbScale
 70
     0
300
1/16" = 1'-0"
140
0.0625
141
12.0
290
     0
  0
SCALE
  5
50
102
{ACAD_REACTORS
330
3A
102
}
330
3A
100
AcDbScale
 70
     0
300
3/32" = 1'-0"
140
0.09375
141
12.0
290
     0
  0
SCALE
  5
51
102
{ACAD_REACTORS
330
3A
102
}
330
3A
100
AcDbScale
 70
     0
300
1/8" = 1'-0"
140
0.125
141
12.0
290
     0
  0
SCALE
  5
52
102
{ACAD_REACTORS
330
3A
102
}
330
3A
100
AcDbScale
 70
     0
300
3/16" = 1'-0"
140
0.1875
141
12.0
290
     0
  0
SCALE
  5
53
102
{ACAD_REACTORS
330
3A
102
}
330
3A
100
AcDbScale
 70
     0
300
1/4" = 1'-0"
140
0.25
141
12.0
290
     0
  0
SCALE
  5
54
102
{ACAD_REACTORS
330
3A
102
}
330
3A
100
AcDbScale
 70
     0
300
3/8" = 1'-0"
140
0.375
141
12.0
290
     0
  0
SCALE
  5
55
102
{ACAD_REACTORS
330
3A
102
}
330
3A
100
AcDbScale
 70
     0
300
1/2" = 1'-0"
140
0.5
141
12.0
290
     0
  0
SCALE
  5
56
102
{ACAD_REACTORS
330
3A
102
}
330
3A
100
AcDbScale
 70
     0
300
3/4" = 1'-0"
140
0.75
141
12.0
290
     0
  0
SCALE
  5
57
102
{ACAD_REACTORS
330
3A
102
}
330
3A
100
AcDbScale
 70
     0
300
1" = 1'-0"
140
1.0
141
12.0
290
     0
  0
SCALE
  5
58
102
{ACAD_REACTORS
330
3A
102
}
330
3A
100
AcDbScale
 70
     0
300
1-1/2" = 1'-0"
140
1.5
141
12.0
290
     0
  0
SCALE
  5
59
102
{ACAD_REACTORS
330
3A
102
}
330
3A
100
AcDbScale
 70
     0
300
3" = 1'-0"
140
3.0
141
12.0
290
     0
  0
SCALE
  5
5A
102
{ACAD_REACTORS
330
3A
102
}
330
3A
100
AcDbScale
 70
     0
300
6" = 1'-0"
140
6.0
141
12.0
290
     0
  0
SCALE
  5
5B
102
{ACAD_REACTORS
330
3A
102
}
330
3A
100
AcDbScale
 70
     0
300
1'-0" = 1'-0"
140
12.0
141
12.0
290
     0
  0
TABLESTYLE
  5
6C
102
{ACAD_XDICTIONARY
360
FBB
102
}
102
{ACAD_REACTORS
330
6B
102
}
330
6B
100
AcDbTableStyle
  3
Standard
 70
     0
 71
     0
 40
0.06
 41
0.06
280
     0
281
     0
  7
STANDARD
140
0.18
170
     2
 62
     0
 63
     7
283
     0
274
    -2
284
     1
 64
     0
275
    -2
285
     1
 65
     0
276
    -2
286
     1
 66
     0
277
    -2
287
     1
 67
     0
278
    -2
288
     1
 68
     0
279
    -2
289
     1
 69
     0
  7
STANDARD
140
0.25
170
     5
 62
     0
 63
     7
283
     0
274
    -2
284
     1
 64
     0
275
    -2
285
     1
 65
     0
276
    -2
286
     1
 66
     0
277
    -2
287
     1
 67
     0
278
    -2
288
     1
 68
     0
279
    -2
289
     1
 69
     0
  7
STANDARD
140
0.18
170
     5
 62
     0
 63
     7
283
     0
274
    -2
284
     1
 64
     0
275
    -2
285
     1
 65
     0
276
    -2
286
     1
 66
     0
277
    -2
287
     1
 67
     0
278
    -2
288
     1
 68
     0
279
    -2
289
     1
 69
     0
  0
VISUALSTYLE
  5
2F
102
{ACAD_REACTORS
330
29
102
}
330
29
100
AcDbVisualStyle
  2
2dWireframe
 70
     4
 71
     0
 72
     2
 73
     0
 90
        0
 40
-0.6
 41
-30.0
 62
     5
 63
     7
 74
     1
 91
        4
 64
     7
 65
   257
 75
     1
175
     1
 42
1.0
 92
        0
 66
   257
 43
1.0
 76
     1
 77
     6
 78
     2
 67
     7
 79
     5
170
     0
171
     0
290
     0
174
     0
 93
        1
 44
0.0
173
     0
291
     0
 45
0.0
1001
ACAD
1000
AcDbSavedByObjectVersion
1070
     0
1000
AcDbSavedByObjectVersion
1070
     0
  0
VISUALSTYLE
  5
31
102
{ACAD_REACTORS
330
29
102
}
330
29
100
AcDbVisualStyle
  2
3D Hidden
 70
     6
 71
     1
 72
     2
 73
     2
 90
        0
 40
-0.6
 41
-30.0
 62
     5
 63
     7
 74
     2
 91
        2
 64
     7
 65
   257
 75
     2
175
     1
 42
40.0
 92
        0
 66
   257
 43
1.0
 76
     1
 77
     6
 78
     2
 67
     7
 79
     3
170
     0
171
     0
290
     0
174
     0
 93
        1
 44
0.0
173
     0
291
     0
 45
0.0
1001
ACAD
1000
AcDbSavedByObjectVersion
1070
     0
1000
AcDbSavedByObjectVersion
1070
     0
  0
VISUALSTYLE
  5
30
102
{ACAD_REACTORS
330
29
102
}
330
29
100
AcDbVisualStyle
  2
3dWireframe
 70
     5
 71
     0
 72
     2
 73
     0
 90
        0
 40
-0.6
 41
-30.0
 62
     5
 63
     7
 74
     1
 91
        4
 64
     7
 65
   257
 75
     1
175
     1
 42
1.0
 92
        0
 66
   257
 43
1.0
 76
     1
 77
     6
 78
     2
 67
     7
 79
     5
170
     0
171
     0
290
     0
174
     0
 93
        1
 44
0.0
173
     0
291
     0
 45
0.0
1001
ACAD
1000
AcDbSavedByObjectVersion
1070
     0
1000
AcDbSavedByObjectVersion
1070
     0
  0
VISUALSTYLE
  5
2E
102
{ACAD_REACTORS
330
29
102
}
330
29
100
AcDbVisualStyle
  2
Basic
 70
     7
 71
     1
 72
     0
 73
     1
 90
        0
 40
-0.6
 41
-30.0
 62
     5
 63
     7
 74
     0
 91
        4
 64
     7
 65
   257
 75
     1
175
     1
 42
1.0
 92
        8
 66
     7
 43
1.0
 76
     1
 77
     6
 78
     2
 67
     7
 79
     5
170
     0
171
     0
290
     0
174
     0
 93
        1
 44
0.0
173
     0
291
     1
 45
0.0
1001
ACAD
1000
AcDbSavedByObjectVersion
1070
     0
1000
AcDbSavedByObjectVersion
1070
     0
  0
VISUALSTYLE
  5
35
102
{ACAD_REACTORS
330
29
102
}
330
29
100
AcDbVisualStyle
  2
Brighten
 70
    12
 71
     2
 72
     2
 73
     0
 90
        0
 40
-0.6
 41
-30.0
 62
     5
 63
     7
 74
     1
 91
        4
 64
     7
 65
   257
 75
     1
175
     1
 42
1.0
 92
        8
 66
     7
 43
1.0
 76
     1
 77
     6
 78
     2
 67
     7
 79
     5
170
     0
171
     0
290
     0
174
     0
 93
        1
 44
50.0
173
     0
291
     1
 45
0.0
1001
ACAD
1000
AcDbSavedByObjectVersion
1070
     0
1000
AcDbSavedByObjectVersion
1070
     0
  0
VISUALSTYLE
  5
39
102
{ACAD_REACTORS
330
29
102
}
330
29
100
AcDbVisualStyle
  2
ColorChange
 70
    16
 71
     2
 72
     2
 73
     3
 90
        0
 40
-0.6
 41
-30.0
 62
     5
 63
     8
 74
     1
 91
        4
 64
     7
 65
   257
 75
     1
175
     1
 42
1.0
 92
        8
 66
     8
 43
1.0
 76
     1
 77
     6
 78
     2
 67
     7
 79
     5
170
     0
171
     0
290
     0
174
     0
 93
        1
 44
0.0
173
     0
291
     1
 45
0.0
1001
ACAD
1000
AcDbSavedByObjectVersion
1070
     0
1000
AcDbSavedByObjectVersion
1070
     0
  0
VISUALSTYLE
  5
32
102
{ACAD_REACTORS
330
29
102
}
330
29
100
AcDbVisualStyle
  2
Conceptual
 70
     9
 71
     3
 72
     2
 73
     0
 90
        0
 40
-0.6
 41
-30.0
 62
     5
 63
     7
 74
     2
 91
        2
 64
     7
 65
   257
 75
     1
175
     1
 42
40.0
 92
        8
 66
     7
 43
1.0
 76
     1
 77
     6
 78
     2
 67
     7
 79
     3
170
     0
171
     0
290
     0
174
     0
 93
        1
 44
0.0
173
     0
291
     0
 45
0.0
1001
ACAD
1000
AcDbSavedByObjectVersion
1070
     0
1000
AcDbSavedByObjectVersion
1070
     0
  0
VISUALSTYLE
  5
34
102
{ACAD_REACTORS
330
29
102
}
330
29
100
AcDbVisualStyle
  2
Dim
 70
    11
 71
     2
 72
     2
 73
     0
 90
        0
 40
-0.6
 41
-30.0
 62
     5
 63
     7
 74
     1
 91
        4
 64
     7
 65
   257
 75
     1
175
     1
 42
1.0
 92
        8
 66
     7
 43
1.0
 76
     1
 77
     6
 78
     2
 67
     7
 79
     5
170
     0
171
     0
290
     0
174
     0
 93
        1
 44
-50.0
173
     0
291
     1
 45
0.0
1001
ACAD
1000
AcDbSavedByObjectVersion
1070
     0
1000
AcDbSavedByObjectVersion
1070
     0
  0
VISUALSTYLE
  5
38
102
{ACAD_REACTORS
330
29
102
}
330
29
100
AcDbVisualStyle
  2
Facepattern
 70
    15
 71
     2
 72
     2
 73
     0
 90
        0
 40
-0.6
 41
-30.0
 62
     5
 63
     7
 74
     1
 91
        4
 64
     7
 65
   257
 75
     1
175
     1
 42
1.0
 92
        8
 66
     7
 43
1.0
 76
     1
 77
     6
 78
     2
 67
     7
 79
     5
170
     0
171
     0
290
     0
174
     0
 93
        1
 44
0.0
173
     0
291
     1
 45
0.0
1001
ACAD
1000
AcDbSavedByObjectVersion
1070
     0
1000
AcDbSavedByObjectVersion
1070
     0
  0
VISUALSTYLE
  5
2A
102
{ACAD_REACTORS
330
29
102
}
330
29
100
AcDbVisualStyle
  2
Flat
 70
     0
 71
     2
 72
     1
 73
     1
 90
        2
 40
-0.6
 41
30.0
 62
     5
 63
     7
 74
     0
 91
        4
 64
     7
 65
   257
 75
     1
175
     1
 42
1.0
 92
        8
 66
     7
 43
1.0
 76
     1
 77
     6
 78
     2
 67
     7
 79
     5
170
     0
171
     0
290
     0
174
     0
 93
       13
 44
0.0
173
     0
291
     1
 45
0.0
1001
ACAD
1000
AcDbSavedByObjectVersion
1070
     0
1000
AcDbSavedByObjectVersion
1070
     0
  0
VISUALSTYLE
  5
2B
102
{ACAD_REACTORS
330
29
102
}
330
29
100
AcDbVisualStyle
  2
FlatWithEdges
 70
     1
 71
     2
 72
     1
 73
     1
 90
        2
 40
-0.6
 41
30.0
 62
     5
 63
     7
 74
     1
 91
        4
 64
     7
 65
   257
 75
     1
175
     1
 42
1.0
 92
        0
 66
   257
 43
1.0
 76
     1
 77
     6
 78
     2
 67
     7
 79
     5
170
     0
171
     0
290
     0
174
     0
 93
       13
 44
0.0
173
     0
291
     1
 45
0.0
1001
ACAD
1000
AcDbSavedByObjectVersion
1070
     0
1000
AcDbSavedByObjectVersion
1070
     0
  0
VISUALSTYLE
  5
2C
102
{ACAD_REACTORS
330
29
102
}
330
29
100
AcDbVisualStyle
  2
Gouraud
 70
     2
 71
     2
 72
     2
 73
     1
 90
        2
 40
-0.6
 41
30.0
 62
     5
 63
     7
 74
     0
 91
        4
 64
     7
 65
   257
 75
     1
175
     1
 42
1.0
 92
        0
 66
     7
 43
1.0
 76
     1
 77
     6
 78
     2
 67
     7
 79
     5
170
     0
171
     0
290
     0
174
     0
 93
       13
 44
0.0
173
     0
291
     1
 45
0.0
1001
ACAD
1000
AcDbSavedByObjectVersion
1070
     0
1000
AcDbSavedByObjectVersion
1070
     0
  0
VISUALSTYLE
  5
2D
102
{ACAD_REACTORS
330
29
102
}
330
29
100
AcDbVisualStyle
  2
GouraudWithEdges
 70
     3
 71
     2
 72
     2
 73
     1
 90
        2
 40
-0.6
 41
30.0
 62
     5
 63
     7
 74
     1
 91
        4
 64
     7
 65
   257
 75
     1
175
     1
 42
1.0
 92
        0
 66
   257
 43
1.0
 76
     1
 77
     6
 78
     2
 67
     7
 79
     5
170
     0
171
     0
290
     0
174
     0
 93
       13
 44
0.0
173
     0
291
     1
 45
0.0
1001
ACAD
1000
AcDbSavedByObjectVersion
1070
     0
1000
AcDbSavedByObjectVersion
1070
     0
  0
VISUALSTYLE
  5
37
102
{ACAD_REACTORS
330
29
102
}
330
29
100
AcDbVisualStyle
  2
Linepattern
 70
    14
 71
     2
 72
     2
 73
     0
 90
        0
 40
-0.6
 41
-30.0
 62
     5
 63
     7
 74
     1
 91
        4
 64
     7
 65
   257
 75
     7
175
     7
 42
1.0
 92
        8
 66
     7
 43
1.0
 76
     1
 77
     6
 78
     2
 67
     7
 79
     5
170
     0
171
     0
290
     0
174
     0
 93
        1
 44
0.0
173
     0
291
     1
 45
0.0
1001
ACAD
1000
AcDbSavedByObjectVersion
1070
     0
1000
AcDbSavedByObjectVersion
1070
     0
  0
VISUALSTYLE
  5
33
102
{ACAD_REACTORS
330
29
102
}
330
29
100
AcDbVisualStyle
  2
Realistic
 70
     8
 71
     2
 72
     2
 73
     0
 90
        0
 40
-0.6
 41
-30.0
 62
     5
 63
     7
 74
     1
 91
        0
 64
     7
 65
   257
 75
     1
175
     1
 42
1.0
 92
        8
 66
     8
 43
1.0
 76
     1
 77
     6
 78
     2
 67
     7
 79
     5
170
     0
171
     0
290
     0
174
     0
 93
       13
 44
0.0
173
     0
291
     0
 45
0.0
1001
ACAD
1000
AcDbSavedByObjectVersion
1070
     0
1000
AcDbSavedByObjectVersion
1070
     0
  0
VISUALSTYLE
  5
36
102
{ACAD_REACTORS
330
29
102
}
330
29
100
AcDbVisualStyle
  2
Thicken
 70
    13
 71
     2
 72
     2
 73
     0
 90
        0
 40
-0.6
 41
-30.0
 62
     5
 63
     7
 74
     1
 91
        4
 64
     7
 65
   257
 75
     1
175
     1
 42
1.0
 92
       12
 66
     7
 43
1.0
 76
     1
 77
     6
 78
     2
 67
     7
 79
     5
170
     0
171
     0
290
     0
174
     0
 93
        1
 44
0.0
173
     0
291
     1
 45
0.0
1001
ACAD
1000
AcDbSavedByObjectVersion
1070
     0
1000
AcDbSavedByObjectVersion
1070
     0
  0
DICTIONARYVAR
  5
FCC
102
{ACAD_REACTORS
330
FC9
102
}
330
FC9
100
DictionaryVariables
280
     0
  1
1:1
  0
DICTIONARYVAR
  5
FCB
102
{ACAD_REACTORS
330
FC9
102
}
330
FC9
100
DictionaryVariables
280
     0
  1
STANDARD
  0
DICTIONARYVAR
  5
FCA
102
{ACAD_REACTORS
330
FC9
102
}
330
FC9
100
DictionaryVariables
280
     0
  1
STANDARD
  0
DICTIONARYVAR
  5
FCF
102
{ACAD_REACTORS
330
FC9
102
}
330
FC9
100
DictionaryVariables
280
     0
  1
1
  0
DICTIONARYVAR
  5
FCE
102
{ACAD_REACTORS
330
FC9
102
}
330
FC9
100
DictionaryVariables
280
     0
  1
0
  0
DICTIONARYVAR
  5
FCD
102
{ACAD_REACTORS
330
FC9
102
}
330
FC9
100
DictionaryVariables
280
     0
  1
127
  0
DICTIONARY
  5
FFC
330
77
100
AcDbDictionary
280
     1
281
     1
  3
ACAD_XREC_ROUNDTRIP
360
FFD
  0
DICTIONARY
  5
FFA
330
73
100
AcDbDictionary
280
     1
281
     1
  3
ACAD_XREC_ROUNDTRIP
360
FFB
  0
DICTIONARY
  5
1A
330
19
100
AcDbDictionary
280
     1
281
     1
  3
ACAD_XREC_ROUNDTRIP
360
FE9
  3
BUMPTILE
360
1C
  3
DIFFUSETILE
360
1B
  3
OPACITYTILE
360
1F
  3
REFLECTIONTILE
360
1E
  3
REFRACTIONTILE
360
20
  3
SPECULARTILE
360
1D
  0
DICTIONARY
  5
12
330
11
100
AcDbDictionary
280
     1
281
     1
  3
ACAD_XREC_ROUNDTRIP
360
FE8
  3
BUMPTILE
360
14
  3
DIFFUSETILE
360
13
  3
OPACITYTILE
360
17
  3
REFLECTIONTILE
360
16
  3
REFRACTIONTILE
360
18
  3
SPECULARTILE
360
15
  0
DICTIONARY
  5
22
330
21
100
AcDbDictionary
280
     1
281
     1
  3
ACAD_XREC_ROUNDTRIP
360
FEA
  3
BUMPTILE
360
24
  3
DIFFUSETILE
360
23
  3
OPACITYTILE
360
27
  3
REFLECTIONTILE
360
26
  3
REFRACTIONTILE
360
28
  3
SPECULARTILE
360
25
  0
DICTIONARY
  5
FBB
330
6C
100
AcDbDictionary
280
     1
281
     1
  3
ACAD_ROUNDTRIP_2008_TABLESTYLE_CELLSTYLEMAP
360
FF7
  3
ACAD_XREC_ROUNDTRIP
360
FF9
  0
XRECORD
  5
FFD
102
{ACAD_REACTORS
330
FFC
102
}
330
FFC
100
AcDbXrecord
280
     1
102
SHADEPLOT
 70
     0
102
SHADEPLOTRESLEVEL
 70
     2
102
SHADEPLOTCUSTOMDPI
 70
   300
  0
XRECORD
  5
FFB
102
{ACAD_REACTORS
330
FFA
102
}
330
FFA
100
AcDbXrecord
280
     1
102
SHADEPLOT
 70
     0
102
SHADEPLOTRESLEVEL
 70
     2
102
SHADEPLOTCUSTOMDPI
 70
   300
  0
XRECORD
  5
FE9
102
{ACAD_REACTORS
330
1A
102
}
330
1A
100
AcDbXrecord
280
     1
102
MATERIAL
148
0.0
149
0.0
149
0.0
 93
        0
 94
      127
282
     0
 72
     0
 77
     0
171
     0
175
     0
179
     0
273
     0
  0
XRECORD
  5
1C
102
{ACAD_REACTORS
330
1A
102
}
330
1A
100
AcDbXrecord
280
     1
270
     1
271
     1
  0
XRECORD
  5
1B
102
{ACAD_REACTORS
330
1A
102
}
330
1A
100
AcDbXrecord
280
     1
270
     1
271
     1
  0
XRECORD
  5
1F
102
{ACAD_REACTORS
330
1A
102
}
330
1A
100
AcDbXrecord
280
     1
270
     1
271
     1
  0
XRECORD
  5
1E
102
{ACAD_REACTORS
330
1A
102
}
330
1A
100
AcDbXrecord
280
     1
270
     1
271
     1
  0
XRECORD
  5
20
102
{ACAD_REACTORS
330
1A
102
}
330
1A
100
AcDbXrecord
280
     1
270
     1
271
     1
  0
XRECORD
  5
1D
102
{ACAD_REACTORS
330
1A
102
}
330
1A
100
AcDbXrecord
280
     1
270
     1
271
     1
  0
XRECORD
  5
FE8
102
{ACAD_REACTORS
330
12
102
}
330
12
100
AcDbXrecord
280
     1
102
MATERIAL
148
0.0
149
0.0
149
0.0
 93
        0
 94
      127
282
     0
 72
     0
 77
     0
171
     0
175
     0
179
     0
273
     0
  0
XRECORD
  5
14
102
{ACAD_REACTORS
330
12
102
}
330
12
100
AcDbXrecord
280
     1
270
     1
271
     1
  0
XRECORD
  5
13
102
{ACAD_REACTORS
330
12
102
}
330
12
100
AcDbXrecord
280
     1
270
     1
271
     1
  0
XRECORD
  5
17
102
{ACAD_REACTORS
330
12
102
}
330
12
100
AcDbXrecord
280
     1
270
     1
271
     1
  0
XRECORD
  5
16
102
{ACAD_REACTORS
330
12
102
}
330
12
100
AcDbXrecord
280
     1
270
     1
271
     1
  0
XRECORD
  5
18
102
{ACAD_REACTORS
330
12
102
}
330
12
100
AcDbXrecord
280
     1
270
     1
271
     1
  0
XRECORD
  5
15
102
{ACAD_REACTORS
330
12
102
}
330
12
100
AcDbXrecord
280
     1
270
     1
271
     1
  0
XRECORD
  5
FEA
102
{ACAD_REACTORS
330
22
102
}
330
22
100
AcDbXrecord
280
     1
102
MATERIAL
148
0.0
149
0.0
149
0.0
 93
        0
 94
      127
282
     0
 72
     0
 77
     0
171
     0
175
     0
179
     0
273
     0
  0
XRECORD
  5
24
102
{ACAD_REACTORS
330
22
102
}
330
22
100
AcDbXrecord
280
     1
270
     1
271
     1
  0
XRECORD
  5
23
102
{ACAD_REACTORS
330
22
102
}
330
22
100
AcDbXrecord
280
     1
270
     1
271
     1
  0
XRECORD
  5
27
102
{ACAD_REACTORS
330
22
102
}
330
22
100
AcDbXrecord
280
     1
270
     1
271
     1
  0
XRECORD
  5
26
102
{ACAD_REACTORS
330
22
102
}
330
22
100
AcDbXrecord
280
     1
270
     1
271
     1
  0
XRECORD
  5
28
102
{ACAD_REACTORS
330
22
102
}
330
22
100
AcDbXrecord
280
     1
270
     1
271
     1
  0
XRECORD
  5
25
102
{ACAD_REACTORS
330
22
102
}
330
22
100
AcDbXrecord
280
     1
270
     1
271
     1
  0
CELLSTYLEMAP
  5
FF7
102
{ACAD_REACTORS
330
FBB
102
}
330
FBB
100
AcDbCellStyleMap
 90
        3
300
CELLSTYLE
  1
TABLEFORMAT_BEGIN
 90
        5
170
     1
 91
        0
 92
    32768
 62
   257
 93
        1
300
CONTENTFORMAT
  1
CONTENTFORMAT_BEGIN
 90
        0
 91
        0
 92
      512
 93
        0
300

 40
0.0
140
1.0
 94
        5
 62
     0
340
5D
144
0.25
309
CONTENTFORMAT_END
171
     1
301
MARGIN
  1
CELLMARGIN_BEGIN
 40
0.06
 40
0.06
 40
0.06
 40
0.06
 40
0.18
 40
0.18
309
CELLMARGIN_END
 94
        6
 95
        1
302
GRIDFORMAT
  1
GRIDFORMAT_BEGIN
 90
        0
 91
        1
 62
     0
 92
       -2
340
0
 93
        0
 40
0.045
309
GRIDFORMAT_END
 95
        2
302
GRIDFORMAT
  1
GRIDFORMAT_BEGIN
 90
        0
 91
        1
 62
     0
 92
       -2
340
0
 93
        0
 40
0.045
309
GRIDFORMAT_END
 95
        4
302
GRIDFORMAT
  1
GRIDFORMAT_BEGIN
 90
        0
 91
        1
 62
     0
 92
       -2
340
0
 93
        0
 40
0.045
309
GRIDFORMAT_END
 95
        8
302
GRIDFORMAT
  1
GRIDFORMAT_BEGIN
 90
        0
 91
        1
 62
     0
 92
       -2
340
0
 93
        0
 40
0.045
309
GRIDFORMAT_END
 95
       16
302
GRIDFORMAT
  1
GRIDFORMAT_BEGIN
 90
        0
 91
        1
 62
     0
 92
       -2
340
0
 93
        0
 40
0.045
309
GRIDFORMAT_END
 95
       32
302
GRIDFORMAT
  1
GRIDFORMAT_BEGIN
 90
        0
 91
        1
 62
     0
 92
       -2
340
0
 93
        0
 40
0.045
309
GRIDFORMAT_END
309
TABLEFORMAT_END
  1
CELLSTYLE_BEGIN
 90
        1
 91
        1
300
_TITLE
309
CELLSTYLE_END
300
CELLSTYLE
  1
TABLEFORMAT_BEGIN
 90
        5
170
     1
 91
        0
 92
        0
 62
   257
 93
        1
300
CONTENTFORMAT
  1
CONTENTFORMAT_BEGIN
 90
        0
 91
        0
 92
      512
 93
        0
300

 40
0.0
140
1.0
 94
        5
 62
     0
340
5D
144
0.18
309
CONTENTFORMAT_END
171
     1
301
MARGIN
  1
CELLMARGIN_BEGIN
 40
0.06
 40
0.06
 40
0.06
 40
0.06
 40
0.18
 40
0.18
309
CELLMARGIN_END
 94
        6
 95
        1
302
GRIDFORMAT
  1
GRIDFORMAT_BEGIN
 90
        0
 91
        1
 62
     0
 92
       -2
340
0
 93
        0
 40
0.045
309
GRIDFORMAT_END
 95
        2
302
GRIDFORMAT
  1
GRIDFORMAT_BEGIN
 90
        0
 91
        1
 62
     0
 92
       -2
340
0
 93
        0
 40
0.045
309
GRIDFORMAT_END
 95
        4
302
GRIDFORMAT
  1
GRIDFORMAT_BEGIN
 90
        0
 91
        1
 62
     0
 92
       -2
340
0
 93
        0
 40
0.045
309
GRIDFORMAT_END
 95
        8
302
GRIDFORMAT
  1
GRIDFORMAT_BEGIN
 90
        0
 91
        1
 62
     0
 92
       -2
340
0
 93
        0
 40
0.045
309
GRIDFORMAT_END
 95
       16
302
GRIDFORMAT
  1
GRIDFORMAT_BEGIN
 90
        0
 91
        1
 62
     0
 92
       -2
340
0
 93
        0
 40
0.045
309
GRIDFORMAT_END
 95
       32
302
GRIDFORMAT
  1
GRIDFORMAT_BEGIN
 90
        0
 91
        1
 62
     0
 92
       -2
340
0
 93
        0
 40
0.045
309
GRIDFORMAT_END
309
TABLEFORMAT_END
  1
CELLSTYLE_BEGIN
 90
        2
 91
        1
300
_HEADER
309
CELLSTYLE_END
300
CELLSTYLE
  1
TABLEFORMAT_BEGIN
 90
        5
170
     1
 91
        0
 92
        0
 62
   257
 93
        1
300
CONTENTFORMAT
  1
CONTENTFORMAT_BEGIN
 90
        0
 91
        0
 92
      512
 93
        0
300

 40
0.0
140
1.0
 94
        2
 62
     0
340
5D
144
0.18
309
CONTENTFORMAT_END
171
     1
301
MARGIN
  1
CELLMARGIN_BEGIN
 40
0.06
 40
0.06
 40
0.06
 40
0.06
 40
0.18
 40
0.18
309
CELLMARGIN_END
 94
        6
 95
        1
302
GRIDFORMAT
  1
GRIDFORMAT_BEGIN
 90
        0
 91
        1
 62
     0
 92
       -2
340
0
 93
        0
 40
0.045
309
GRIDFORMAT_END
 95
        2
302
GRIDFORMAT
  1
GRIDFORMAT_BEGIN
 90
        0
 91
        1
 62
     0
 92
       -2
340
0
 93
        0
 40
0.045
309
GRIDFORMAT_END
 95
        4
302
GRIDFORMAT
  1
GRIDFORMAT_BEGIN
 90
        0
 91
        1
 62
     0
 92
       -2
340
0
 93
        0
 40
0.045
309
GRIDFORMAT_END
 95
        8
302
GRIDFORMAT
  1
GRIDFORMAT_BEGIN
 90
        0
 91
        1
 62
     0
 92
       -2
340
0
 93
        0
 40
0.045
309
GRIDFORMAT_END
 95
       16
302
GRIDFORMAT
  1
GRIDFORMAT_BEGIN
 90
        0
 91
        1
 62
     0
 92
       -2
340
0
 93
        0
 40
0.045
309
GRIDFORMAT_END
 95
       32
302
GRIDFORMAT
  1
GRIDFORMAT_BEGIN
 90
        0
 91
        1
 62
     0
 92
       -2
340
0
 93
        0
 40
0.045
309
GRIDFORMAT_END
309
TABLEFORMAT_END
  1
CELLSTYLE_BEGIN
 90
        3
 91
        2
300
_DATA
309
CELLSTYLE_END
  0
XRECORD
  5
FF9
102
{ACAD_REACTORS
330
FBB
102
}
330
FBB
100
AcDbXrecord
280
     1
102
ACAD_ROUNDTRIP_PRE2007_TABLESTYLE
 90
      512
 91
        0
  1

 92
      512
 93
        0
  2

 94
      512
 95
        0
  3

  0
ENDSEC
  0
EOF
