  0
SECTION
  2
HEADER
  9
$ACADVER
  1
AC1012
  9
$DWGCODEPAGE
  3
ansi_932
  9
$INSBASE
 10
0.0
 20
0.0
 30
0.0
  9
$EXTMIN
 10
-1260.0
 20
-891.0
 30
1.000000E+20
  9
$EXTMAX
 10
1260.0
 20
891.0
 30
-1.000000E+20
  9
$LIMMIN
 10
-1260.0
 20
-891.0
  9
$LIMMAX
 10
1260.0
 20
891.0
  9
$ORTHOMODE
 70
     0
  9
$REGENMODE
 70
     1
  9
$FILLMODE
 70
     1
  9
$QTEXTMODE
 70
     0
  9
$MIRRTEXT
 70
     1
  9
$DRAGMODE
 70
     2
  9
$LTSCALE
 40
1.0
  9
$OSMODE
 70
     0
  9
$ATTMODE
 70
     1
  9
$TEXTSIZE
 40
0.2
  9
$TRACEWID
 40
0.05
  9
$TEXTSTYLE
  7
STANDARD
  9
$CLAYER
  8
0
  9
$CELTYPE
  6
CONTINUOUS
  9
$CECOLOR
 62
   256
  9
$CELTSCALE
 40
1.0
  9
$DELOBJ
 70
     1
  9
$DISPSILH
 70
     0
  9
$DIMSCALE
 40
6.0
  9
$DIMASZ
 40
0.18
  9
$DIMEXO
 40
0.0625
  9
$DIMDLI
 40
0.38
  9
$DIMRND
 40
0.0
  9
$DIMDLE
 40
0.0
  9
$DIMEXE
 40
0.18
  9
$DIMTP
 40
0.0
  9
$DIMTM
 40
0.0
  9
$DIMTXT
 40
0.18
  9
$DIMCEN
 40
0.09
  9
$DIMTSZ
 40
0.0
  9
$DIMTOL
 70
     0
  9
$DIMLIM
 70
     0
  9
$DIMTIH
 70
     1
  9
$DIMTOH
 70
     1
  9
$DIMSE1
 70
     0
  9
$DIMSE2
 70
     0
  9
$DIMTAD
 70
     1
  9
$DIMZIN
 70
     0
  9
$DIMBLK
  1

  9
$DIMASO
 70
     1
  9
$DIMSHO
 70
     1
  9
$DIMPOST
  1

  9
$DIMAPOST
  1

  9
$DIMALT
 70
     0
  9
$DIMALTD
 70
     2
  9
$DIMALTF
 40
25.4
  9
$DIMLFAC
 40
1.0
  9
$DIMTOFL
 70
     0
  9
$DIMTVP
 40
0.0
  9
$DIMTIX
 70
     0
  9
$DIMSOXD
 70
     0
  9
$DIMSAH
 70
     0
  9
$DIMBLK1
  1

  9
$DIMBLK2
  1

  9
$DIMSTYLE
  2
STANDARD
  9
$DIMCLRD
 70
     0
  9
$DIMCLRE
 70
     0
  9
$DIMCLRT
 70
     0
  9
$DIMTFAC
 40
1.0
  9
$DIMGAP
 40
0.09
  9
$DIMJUST
 70
     0
  9
$DIMSD1
 70
     0
  9
$DIMSD2
 70
     0
  9
$DIMTOLJ
 70
     1
  9
$DIMTZIN
 70
     0
  9
$DIMALTZ
 70
     0
  9
$DIMALTTZ
 70
     0
  9
$DIMFIT
 70
     3
  9
$DIMUPT
 70
     0
  9
$DIMUNIT
 70
     2
  9
$DIMDEC
 70
     4
  9
$DIMTDEC
 70
     4
  9
$DIMALTU
 70
     2
  9
$DIMALTTD
 70
     2
  9
$DIMTXSTY
  7
STANDARD
  9
$DIMAUNIT
 70
     0
  9
$LUNITS
 70
     2
  9
$LUPREC
 70
     4
  9
$SKETCHINC
 40
0.1
  9
$FILLETRAD
 40
0.0
  9
$AUNITS
 70
     0
  9
$AUPREC
 70
     0
  9
$MENU
  1
acad
  9
$ELEVATION
 40
0.0
  9
$PELEVATION
 40
0.0
  9
$THICKNESS
 40
0.0
  9
$LIMCHECK
 70
     0
  9
$BLIPMODE
 70
     1
  9
$CHAMFERA
 40
0.0
  9
$CHAMFERB
 40
0.0
  9
$CHAMFERC
 40
0.0
  9
$CHAMFERD
 40
0.0
  9
$SKPOLY
 70
     0
  9
$TDCREATE
 40
2451515.000000000
  9
$TDUPDATE
 40
0.000000000
  9
$TDINDWG
 40
0.0000000000
  9
$TDUSRTIMER
 40
0.0000000000
  9
$USRTIMER
 70
     1
  9
$ANGBASE
 50
0.0
  9
$ANGDIR
 70
     0
  9
$PDMODE
 70
     0
  9
$PDSIZE
 40
0.0
  9
$PLINEWID
 40
0.0
  9
$COORDS
 70
     0
  9
$SPLFRAME
 70
     0
  9
$SPLINETYPE
 70
     6
  9
$SPLINESEGS
 70
     8
  9
$ATTDIA
 70
     0
  9
$ATTREQ
 70
     1
  9
$HANDLING
 70
     1
  9
$HANDSEED
  5
9C0
  9
$SURFTAB1
 70
     6
  9
$SURFTAB2
 70
     6
  9
$SURFTYPE
 70
     6
  9
$SURFU
 70
     6
  9
$SURFV
 70
     6
  9
$UCSNAME
  2

  9
$UCSORG
 10
0.0
 20
0.0
 30
0.0
  9
$UCSXDIR
 10
1.0
 20
0.0
 30
0.0
  9
$UCSYDIR
 10
0.0
 20
1.0
 30
0.0
  9
$PUCSNAME
  2

  9
$PUCSORG
 10
0.0
 20
0.0
 30
0.0
  9
$PUCSXDIR
 10
1.0
 20
0.0
 30
0.0
  9
$PUCSYDIR
 10
0.0
 20
1.0
 30
0.0
  9
$USERI1
 70
     0
  9
$USERI2
 70
     0
  9
$USERI3
 70
     0
  9
$USERI4
 70
     0
  9
$USERI5
 70
     0
  9
$USERR1
 40
0.0
  9
$USERR2
 40
0.0
  9
$USERR3
 40
0.0
  9
$USERR4
 40
0.0
  9
$USERR5
 40
0.0
  9
$WORLDVIEW
 70
     1
  9
$SHADEDGE
 70
     3
  9
$SHADEDIF
 70
    70
  9
$TILEMODE
 70
     1
  9
$MAXACTVP
 70
    16
  9
$PINSBASE
 10
0.0
 20
0.0
 30
0.0
  9
$PLIMCHECK
 70
     0
  9
$PEXTMIN
 10
1.000000E+20
 20
1.000000E+20
 30
1.000000E+20
  9
$PEXTMAX
 10
-1.000000E+20
 20
-1.000000E+20
 30
-1.000000E+20
  9
$PLIMMIN
 10
0.0
 20
0.0
  9
$PLIMMAX
 10
12.0
 20
9.0
  9
$UNITMODE
 70
     0
  9
$VISRETAIN
 70
     0
  9
$PLINEGEN
 70
     1
  9
$PSLTSCALE
 70
     0
  9
$TREEDEPTH
 70
  3020
  9
$PICKSTYLE
 70
     1
  9
$CMLSTYLE
  2
STANDARD
  9
$CMLJUST
 70
     0
  9
$CMLSCALE
 40
1.0
  9
$SAVEIMAGES
 70
     0
  0
ENDSEC
  0
SECTION
  2
CLASSES
  0
CLASS
  1
LWPOLYLINE
  2
AcDbPolyline
  3
"AutoCAD"
 90
    32768
280
     0
281
     1
  0
CLASS
  1
IMAGE
  2
AcDbRasterImage
  3
ISM
 90
    32895
280
     0
281
     1
  0
CLASS
  1
OLE2FRAME
  2
AcDbOle2Frame
  3
""
 90
    32768
280
     0
281
     1
  0
CLASS
  1
HATCH
  2
AcDbHatch
  3
"ACAD_SEDONA"
 90
    32768
280
     0
281
     1
  0
CLASS
  1
DICTIONARYVAR
  2
AcDbDictionaryVar
  3
"AutoCAD"
 90
    32768
280
     0
281
     0
  0
CLASS
  1
RASTERVARIABLES
  2
AcDbRasterVariables
  3
ISM
 90
    32768
280
     0
281
     0
  0
CLASS
  1
IMAGEDEF
  2
AcDbRasterImageDef
  3
ISM
 90
    32768
280
     0
281
     0
  0
CLASS
  1
IMAGEDEF_REACTOR
  2
AcDbRasterImageDefReactor
  3
ISM
 90
    32769
280
     0
281
     0
  0
CLASS
  1
IDBUFFER
  2
AcDbIdBuffer
  3
"Acad"
 90
    32768
280
     0
281
     0
  0
CLASS
  1
SPATIAL_FILTER
  2
AcDbSpatialFilter
  3
"Acad"
 90
    32768
280
     0
281
     0
  0
CLASS
  1
XRECORD
  2
AcDbXrecord
  3
"<Built In>"
 90
    32768
280
     0
281
     0
  0
CLASS
  1
SORTENTSTABLE
  2
AcDbSortentsTable
  3
"AutoCAD"
 90
    32768
280
     0
281
     0
  0
CLASS
  1
LAYER_INDEX
  2
AcDbLayerIndex
  3
"Acad"
 90
    32768
280
     0
281
     0
  0
CLASS
  1
SPATIAL_INDEX
  2
AcDbSpatialIndex
  3
"Acad"
 90
    32768
280
     0
281
     0
  0
CLASS
  1
OBJECT_PTR
  2
CAseDLPNTableRecord
  3
"ASE-LPNTableRecord"
 90
    32769
280
     0
281
     0
  0
CLASS
  1
LAYOUT
  2
AcDbLayout
  3
"AutoCAD 2000"
 90
    32768
280
     0
281
     0
  0
CLASS
  1
PLOTSETTINGS
  2
AcDbPlotSettings
  3
"AutoCAD 2000"
 90
    32768
280
     0
281
     0
  0
CLASS
  1
ACDBDICTIONARYWDFLT
  2
AcDbDictionaryWithDefault
  3
"AutoCAD 2000"
 90
    32768
280
     0
281
     0
  0
CLASS
  1
ACDBPLACEHOLDER
  2
AcDbPlaceHolder
  3
"AutoCAD 2000"
 90
    32768
280
     0
281
     0
  0
CLASS
  1
VBA_PROJECT
  2
AcDbVbaProject
  3
"acadvba"
 90
    32768
280
     0
281
     0
  0
CLASS
  1
WIPEOUT
  2
AcDbWipeout
  3
WipeOut|AutoCAD Express Tool|expresstools@autodesk.com
 90
    32895
280
     0
281
     1
  0
CLASS
  1
WIPEOUTVARIABLES
  2
AcDbWipeoutVariables
  3
WipeOut|AutoCAD Express Tool|expresstools@autodesk.com
 90
    32768
280
     0
281
     0
  0
CLASS
  1
RTEXT
  2
RText
  3
RText|AutoCAD Express Tool|expresstools@autodesk.com
 90
    32768
280
     0
281
     1
  0
CLASS
  1
ARCALIGNEDTEXT
  2
AcDbArcAlignedText
  3
ATEXT|AutoCAD Express Tool|expresstools@autodesk.com
 90
    32768
280
     0
281
     1
  0
ENDSEC
  0
SECTION
  2
TABLES
  0
TABLE
  2
VPORT
  5
6
100
AcDbSymbolTable
 70
     1
  0
VPORT
  5
1C
100
AcDbSymbolTableRecord
100
AcDbViewportTableRecord
  2
*ACTIVE
 70
     0
 10
0.0
 20
0.0
 11
1.0
 21
1.0
 12
0.0
 22
0.0
 13
0.0
 23
0.0
 14
1.0
 24
1.0
 15
0.0
 25
0.0
 16
0.0
 26
0.0
 36
1.0
 17
0.0
 27
0.0
 37
0.0
 40
1782.0
 41
1.414141
 42
50.0
 43
0.0
 44
0.0
 50
0.0
 51
0.0
 71
     0
 72
   500
 73
     1
 74
     1
 75
     0
 76
     0
 77
     0
 78
     0
  0
ENDTAB
  0
TABLE
  2
LTYPE
  5
3
100
AcDbSymbolTable
 70
     9
  0
LTYPE
  5
C
100
AcDbSymbolTableRecord
100
AcDbLinetypeTableRecord
  2
BYBLOCK
 70
    64
  3

 72
    65
 73
     0
 40
0.0
  0
LTYPE
  5
D
100
AcDbSymbolTableRecord
100
AcDbLinetypeTableRecord
  2
BYLAYER
 70
    64
  3

 72
    65
 73
     0
 40
0.0
  0
LTYPE
  5
E
100
AcDbSymbolTableRecord
100
AcDbLinetypeTableRecord
  2
CONTINUOUS
 70
     0
  3
Solid line
 72
    65
 73
     0
 40
0.0
  0
LTYPE
  5
F
100
AcDbSymbolTableRecord
100
AcDbLinetypeTableRecord
  2
DASHED
 70
     0
  3
__ __ __ __ __ __ __ __ __ __ __ __ __ __ __
 72
    65
 73
     2
 40
2.0
 49
1.2
 74
     0
 49
-0.8
 74
     0
  0
LTYPE
  5
10
100
AcDbSymbolTableRecord
100
AcDbLinetypeTableRecord
  2
CENTER
 70
     0
  3
____ _ ____ _ ____ _ ____ _ ____ _ ____ _ ____
 72
    65
 73
     4
 40
12.0
 49
9.0
 74
     0
 49
-1.0
 74
     0
 49
1.0
 74
     0
 49
-1.0
 74
     0
  0
LTYPE
  5
11
100
AcDbSymbolTableRecord
100
AcDbLinetypeTableRecord
  2
HIDDEN
 70
     0
  3
_ _ _ _ _ _ _ _ _ _ _ _ _ _ _ _ _ _ _ _ _ _ _
 72
    65
 73
     2
 40
3.2
 49
2.4
 74
     0
 49
-0.8
 74
     0
  0
LTYPE
  5
12
100
AcDbSymbolTableRecord
100
AcDbLinetypeTableRecord
  2
PHANTOM
 70
     0
  3
_____ _ _ _____ _ _ _____ _ _ _____ _ _ _____
 72
    65
 73
     6
 40
13.5
 49
9.0
 74
     0
 49
-1.0
 74
     0
 49
1.0
 74
     0
 49
-0.5
 74
     0
 49
1.0
 74
     0
 49
-1.0
 74
     0
  0
LTYPE
  5
13
100
AcDbSymbolTableRecord
100
AcDbLinetypeTableRecord
  2
DOT
 70
     0
  3
...............................................
 72
    65
 73
     2
 40
1.0
 49
0.5
 74
     0
 49
-0.5
 74
     0
  0
LTYPE
  5
14
100
AcDbSymbolTableRecord
100
AcDbLinetypeTableRecord
  2
DASHDOT
 70
     0
  3
__ . __ . __ . __ . __ . __ . __ . __ . __ . __
 72
    65
 73
     4
 40
8.0
 49
5.0
 74
     0
 49
-1.0
 74
     0
 49
1.0
 74
     0
 49
-1.0
 74
     0
  0
ENDTAB
  0
TABLE
  2
LAYER
  5
1
100
AcDbSymbolTable
 70
     7
  0
LAYER
  5
15
100
AcDbSymbolTableRecord
100
AcDbLayerTableRecord
  2
0
 70
     0
 62
     7
  6
CONTINUOUS
  0
LAYER
  5
16
100
AcDbSymbolTableRecord
100
AcDbLayerTableRecord
  2
1
 70
     0
 62
     7
  6
CONTINUOUS
  0
LAYER
  5
17
100
AcDbSymbolTableRecord
100
AcDbLayerTableRecord
  2
2
 70
     0
 62
     7
  6
CONTINUOUS
  0
LAYER
  5
18
100
AcDbSymbolTableRecord
100
AcDbLayerTableRecord
  2
3
 70
     0
 62
     7
  6
CONTINUOUS
  0
LAYER
  5
19
100
AcDbSymbolTableRecord
100
AcDbLayerTableRecord
  2
5
 70
     0
 62
     7
  6
CONTINUOUS
  0
LAYER
  5
1A
100
AcDbSymbolTableRecord
100
AcDbLayerTableRecord
  2
18
 70
     0
 62
     7
  6
CONTINUOUS
  0
LAYER
  5
1B
100
AcDbSymbolTableRecord
100
AcDbLayerTableRecord
  2
20
 70
     0
 62
     7
  6
CONTINUOUS
  0
ENDTAB
  0
TABLE
  2
STYLE
  5
2
100
AcDbSymbolTable
 70
     1
  0
STYLE
  5
1E
100
AcDbSymbolTableRecord
100
AcDbTextStyleTableRecord
  2
STANDARD
 70
    64
 40
0.0
 41
1.0
 50
0.0
 71
     0
 42
1.0
  3
txt
  4
BIGFONT
  0
ENDTAB
  0
TABLE
  2
VIEW
  5
4
100
AcDbSymbolTable
 70
     0
  0
ENDTAB
  0
TABLE
  2
UCS
  5
5
100
AcDbSymbolTable
 70
     0
  0
ENDTAB
  0
TABLE
  2
APPID
  5
7
100
AcDbSymbolTable
 70
     1
  0
APPID
  5
1D
100
AcDbSymbolTableRecord
100
AcDbRegAppTableRecord
  2
ACAD
 70
     0
  0
ENDTAB
  0
TABLE
  2
DIMSTYLE
  5
8
100
AcDbSymbolTable
 70
     1
  0
DIMSTYLE
105
31
100
AcDbSymbolTableRecord
100
AcDbDimStyleTableRecord
  2
STANDARD
 70
     0
  3

  4

  5

  6

  7

 40
6.0
 41
0.18
 42
0.0625
 43
0.38
 44
0.18
 45
0.0
 46
0.0
 47
0.0
 48
0.0
 71
     0
 72
     0
 73
     1
 74
     1
 75
     0
 76
     0
 77
     1
 78
     0
140
0.18
141
0.09
142
0.0
143
25.4
144
1.0
145
0.0
146
1.0
147
0.09
170
     0
171
     2
172
     0
173
     0
174
     0
175
     0
176
     0
177
     0
178
     0
270
     2
271
     4
272
     4
273
     2
274
     2
275
     0
280
     0
281
     0
282
     0
283
     1
284
     0
285
     0
286
     0
287
     3
288
     0
340
1E
  0
ENDTAB
  0
TABLE
  2
BLOCK_RECORD
  5
2C
100
AcDbSymbolTable
 70
    11
  0
BLOCK_RECORD
  5
2A
100
AcDbSymbolTableRecord
100
AcDbBlockTableRecord
  2
*MODEL_SPACE
  0
BLOCK_RECORD
  5
2B
100
AcDbSymbolTableRecord
100
AcDbBlockTableRecord
  2
*PAPER_SPACE
  0
BLOCK_RECORD
  5
1F
100
AcDbSymbolTableRecord
100
AcDbBlockTableRecord
  2
*D0
  0
BLOCK_RECORD
  5
20
100
AcDbSymbolTableRecord
100
AcDbBlockTableRecord
  2
*D1
  0
BLOCK_RECORD
  5
21
100
AcDbSymbolTableRecord
100
AcDbBlockTableRecord
  2
*D2
  0
BLOCK_RECORD
  5
22
100
AcDbSymbolTableRecord
100
AcDbBlockTableRecord
  2
*D3
  0
BLOCK_RECORD
  5
23
100
AcDbSymbolTableRecord
100
AcDbBlockTableRecord
  2
*D4
  0
BLOCK_RECORD
  5
24
100
AcDbSymbolTableRecord
100
AcDbBlockTableRecord
  2
*D5
  0
BLOCK_RECORD
  5
25
100
AcDbSymbolTableRecord
100
AcDbBlockTableRecord
  2
*D6
  0
BLOCK_RECORD
  5
26
100
AcDbSymbolTableRecord
100
AcDbBlockTableRecord
  2
*D7
  0
BLOCK_RECORD
  5
27
100
AcDbSymbolTableRecord
100
AcDbBlockTableRecord
  2
*D8
  0
BLOCK_RECORD
  5
28
100
AcDbSymbolTableRecord
100
AcDbBlockTableRecord
  2
*D9
  0
BLOCK_RECORD
  5
29
100
AcDbSymbolTableRecord
100
AcDbBlockTableRecord
  2
*D10
  0
ENDTAB
  0
ENDSEC
  0
SECTION
  2
BLOCKS
  0
BLOCK
  5
2D
100
AcDbEntity
  8
0
100
AcDbBlockBegin
  2
*MODEL_SPACE
 70
     0
 10
0.0
 20
0.0
 30
0.0
  3
*MODEL_SPACE
  1

  0
ENDBLK
  5
2E
100
AcDbEntity
  8
0
100
AcDbBlockEnd
  0
BLOCK
  5
2F
100
AcDbEntity
 67
     1
  8
0
100
AcDbBlockBegin
  2
*PAPER_SPACE
 70
     0
 10
0.0
 20
0.0
 30
0.0
  3
*PAPER_SPACE
  1

  0
ENDBLK
  5
30
100
AcDbEntity
 67
     1
  8
0
100
AcDbBlockEnd
  0
BLOCK
  5
932
100
AcDbEntity
  8
5
100
AcDbBlockBegin
  2
*D0
 70
     1
 10
0.0
 20
0.0
 30
0.0
  3
*D0
  1

  0
TEXT
  5
933
100
AcDbEntity
  8
5
 62
     2
100
AcDbText
 10
96.051554
 20
-705.318573
 30
0.0
 40
19.8
  1
30
 41
1.4
 72
     5
 11
118.227554
 21
-705.318573
 31
0.0
100
AcDbText
  0
LINE
  5
934
100
AcDbEntity
  8
5
 62
     2
100
AcDbLine
 10
138.771554
 20
-592.650965
 30
0.0
 11
138.771554
 21
-714.318573
 31
0.0
  0
LINE
  5
935
100
AcDbEntity
  8
5
 62
     2
100
AcDbLine
 10
138.771554
 20
-708.318573
 30
0.0
 11
127.180444
 21
-705.212744
 31
0.0
  0
LINE
  5
936
100
AcDbEntity
  8
5
 62
     2
100
AcDbLine
 10
138.771554
 20
-708.318573
 30
0.0
 11
127.180444
 21
-711.424402
 31
0.0
  0
LINE
  5
937
100
AcDbEntity
  8
5
 62
     2
100
AcDbLine
 10
127.180444
 20
-705.212744
 30
0.0
 11
127.180444
 21
-711.424402
 31
0.0
  0
LINE
  5
938
100
AcDbEntity
  8
5
 62
     2
100
AcDbLine
 10
93.051554
 20
-708.318573
 30
0.0
 11
198.771554
 21
-708.318573
 31
0.0
  0
LINE
  5
939
100
AcDbEntity
  8
5
 62
     2
100
AcDbLine
 10
168.771554
 20
-708.318573
 30
0.0
 11
180.362664
 21
-711.424402
 31
0.0
  0
LINE
  5
93A
100
AcDbEntity
  8
5
 62
     2
100
AcDbLine
 10
168.771554
 20
-708.318573
 30
0.0
 11
180.362664
 21
-705.212744
 31
0.0
  0
LINE
  5
93B
100
AcDbEntity
  8
5
 62
     2
100
AcDbLine
 10
180.362664
 20
-711.424402
 30
0.0
 11
180.362664
 21
-705.212744
 31
0.0
  0
LINE
  5
93C
100
AcDbEntity
  8
5
 62
     2
100
AcDbLine
 10
168.771554
 20
-685.498468
 30
0.0
 11
168.771554
 21
-714.318573
 31
0.0
  0
ENDBLK
  5
93D
100
AcDbEntity
  8
5
100
AcDbBlockEnd
  0
BLOCK
  5
93E
100
AcDbEntity
  8
5
100
AcDbBlockBegin
  2
*D1
 70
     1
 10
0.0
 20
0.0
 30
0.0
  3
*D1
  1

  0
TEXT
  5
93F
100
AcDbEntity
  8
5
 62
     2
100
AcDbText
 10
159.911554
 20
-755.517487
 30
0.0
 40
19.8
  1
70
 41
1.4
 72
     5
 11
182.087554
 21
-755.517487
 31
0.0
100
AcDbText
  0
LINE
  5
940
100
AcDbEntity
  8
5
 62
     2
100
AcDbLine
 10
138.771554
 20
-592.650965
 30
0.0
 11
138.771554
 21
-764.517487
 31
0.0
  0
LINE
  5
941
100
AcDbEntity
  8
5
 62
     2
100
AcDbLine
 10
138.771554
 20
-758.517487
 30
0.0
 11
150.362664
 21
-761.623315
 31
0.0
  0
LINE
  5
942
100
AcDbEntity
  8
5
 62
     2
100
AcDbLine
 10
138.771554
 20
-758.517487
 30
0.0
 11
150.362664
 21
-755.411658
 31
0.0
  0
LINE
  5
943
100
AcDbEntity
  8
5
 62
     2
100
AcDbLine
 10
150.362664
 20
-761.623315
 30
0.0
 11
150.362664
 21
-755.411658
 31
0.0
  0
LINE
  5
944
100
AcDbEntity
  8
5
 62
     2
100
AcDbLine
 10
138.771554
 20
-758.517487
 30
0.0
 11
208.771554
 21
-758.517487
 31
0.0
  0
LINE
  5
945
100
AcDbEntity
  8
5
 62
     2
100
AcDbLine
 10
208.771554
 20
-758.517487
 30
0.0
 11
197.180444
 21
-755.411658
 31
0.0
  0
LINE
  5
946
100
AcDbEntity
  8
5
 62
     2
100
AcDbLine
 10
208.771554
 20
-758.517487
 30
0.0
 11
197.180444
 21
-761.623315
 31
0.0
  0
LINE
  5
947
100
AcDbEntity
  8
5
 62
     2
100
AcDbLine
 10
197.180444
 20
-755.411658
 30
0.0
 11
197.180444
 21
-761.623315
 31
0.0
  0
LINE
  5
948
100
AcDbEntity
  8
5
 62
     2
100
AcDbLine
 10
208.771554
 20
-592.650965
 30
0.0
 11
208.771554
 21
-764.517487
 31
0.0
  0
ENDBLK
  5
949
100
AcDbEntity
  8
5
100
AcDbBlockEnd
  0
BLOCK
  5
94A
100
AcDbEntity
  8
5
100
AcDbBlockBegin
  2
*D2
 70
     1
 10
0.0
 20
0.0
 30
0.0
  3
*D2
  1

  0
TEXT
  5
94B
100
AcDbEntity
  8
5
 62
     2
100
AcDbText
 10
-696.618446
 20
711.18219
 30
0.0
 40
19.8
  1
167
 41
1.4
 72
     5
 11
-660.582447
 21
711.18219
 31
0.0
100
AcDbText
  0
LINE
  5
94C
100
AcDbEntity
  8
5
 62
     2
100
AcDbLine
 10
-759.328446
 20
492.649035
 30
0.0
 11
-759.328446
 21
714.18219
 31
0.0
  0
LINE
  5
94D
100
AcDbEntity
  8
5
 62
     2
100
AcDbLine
 10
-759.328446
 20
708.18219
 30
0.0
 11
-747.737336
 21
705.076361
 31
0.0
  0
LINE
  5
94E
100
AcDbEntity
  8
5
 62
     2
100
AcDbLine
 10
-759.328446
 20
708.18219
 30
0.0
 11
-747.737336
 21
711.288018
 31
0.0
  0
LINE
  5
94F
100
AcDbEntity
  8
5
 62
     2
100
AcDbLine
 10
-747.737336
 20
705.076361
 30
0.0
 11
-747.737336
 21
711.288018
 31
0.0
  0
LINE
  5
950
100
AcDbEntity
  8
5
 62
     2
100
AcDbLine
 10
-759.328446
 20
708.18219
 30
0.0
 11
-592.328446
 21
708.18219
 31
0.0
  0
LINE
  5
951
100
AcDbEntity
  8
5
 62
     2
100
AcDbLine
 10
-592.328446
 20
708.18219
 30
0.0
 11
-603.919556
 21
711.288018
 31
0.0
  0
LINE
  5
952
100
AcDbEntity
  8
5
 62
     2
100
AcDbLine
 10
-592.328446
 20
708.18219
 30
0.0
 11
-603.919556
 21
705.076361
 31
0.0
  0
LINE
  5
953
100
AcDbEntity
  8
5
 62
     2
100
AcDbLine
 10
-603.919556
 20
711.288018
 30
0.0
 11
-603.919556
 21
705.076361
 31
0.0
  0
LINE
  5
954
100
AcDbEntity
  8
5
 62
     2
100
AcDbLine
 10
-592.328446
 20
677.434387
 30
0.0
 11
-592.328446
 21
714.18219
 31
0.0
  0
ENDBLK
  5
955
100
AcDbEntity
  8
5
100
AcDbBlockEnd
  0
BLOCK
  5
956
100
AcDbEntity
  8
5
100
AcDbBlockBegin
  2
*D3
 70
     1
 10
0.0
 20
0.0
 30
0.0
  3
*D3
  1

  0
TEXT
  5
957
100
AcDbEntity
  8
5
 62
     2
100
AcDbText
 10
-541.618446
 20
711.18219
 30
0.0
 40
19.8
  1
143
 41
1.4
 72
     5
 11
-505.582447
 21
711.18219
 31
0.0
100
AcDbText
  0
LINE
  5
958
100
AcDbEntity
  8
5
 62
     2
100
AcDbLine
 10
-592.328446
 20
677.434387
 30
0.0
 11
-592.328446
 21
714.18219
 31
0.0
  0
LINE
  5
959
100
AcDbEntity
  8
5
 62
     2
100
AcDbLine
 10
-592.328446
 20
708.18219
 30
0.0
 11
-580.737336
 21
705.076361
 31
0.0
  0
LINE
  5
95A
100
AcDbEntity
  8
5
 62
     2
100
AcDbLine
 10
-592.328446
 20
708.18219
 30
0.0
 11
-580.737336
 21
711.288018
 31
0.0
  0
LINE
  5
95B
100
AcDbEntity
  8
5
 62
     2
100
AcDbLine
 10
-580.737336
 20
705.076361
 30
0.0
 11
-580.737336
 21
711.288018
 31
0.0
  0
LINE
  5
95C
100
AcDbEntity
  8
5
 62
     2
100
AcDbLine
 10
-592.328446
 20
708.18219
 30
0.0
 11
-449.328446
 21
708.18219
 31
0.0
  0
LINE
  5
95D
100
AcDbEntity
  8
5
 62
     2
100
AcDbLine
 10
-449.328446
 20
708.18219
 30
0.0
 11
-460.919556
 21
711.288018
 31
0.0
  0
LINE
  5
95E
100
AcDbEntity
  8
5
 62
     2
100
AcDbLine
 10
-449.328446
 20
708.18219
 30
0.0
 11
-460.919556
 21
705.076361
 31
0.0
  0
LINE
  5
95F
100
AcDbEntity
  8
5
 62
     2
100
AcDbLine
 10
-460.919556
 20
711.288018
 30
0.0
 11
-460.919556
 21
705.076361
 31
0.0
  0
LINE
  5
960
100
AcDbEntity
  8
5
 62
     2
100
AcDbLine
 10
-449.328446
 20
624.576252
 30
0.0
 11
-449.328446
 21
714.18219
 31
0.0
  0
ENDBLK
  5
961
100
AcDbEntity
  8
5
100
AcDbBlockEnd
  0
BLOCK
  5
962
100
AcDbEntity
  8
5
100
AcDbBlockBegin
  2
*D4
 70
     1
 10
0.0
 20
0.0
 30
0.0
  3
*D4
  1

  0
TEXT
  5
963
100
AcDbEntity
  8
5
 62
     2
100
AcDbText
 10
-317.890022
 20
465.859036
 30
0.0
 40
19.8
  1
154
 50
90.0
 41
1.4
 72
     5
 11
-317.890022
 21
501.895035
 31
0.0
100
AcDbText
  0
LINE
  5
964
100
AcDbEntity
  8
5
 62
     2
100
AcDbLine
 10
-492.045879
 20
409.649035
 30
0.0
 11
-308.890022
 21
409.649035
 31
0.0
  0
LINE
  5
965
100
AcDbEntity
  8
5
 62
     2
100
AcDbLine
 10
-314.890022
 20
409.649035
 30
0.0
 11
-311.784194
 21
421.240145
 31
0.0
  0
LINE
  5
966
100
AcDbEntity
  8
5
 62
     2
100
AcDbLine
 10
-314.890022
 20
409.649035
 30
0.0
 11
-317.995851
 21
421.240145
 31
0.0
  0
LINE
  5
967
100
AcDbEntity
  8
5
 62
     2
100
AcDbLine
 10
-311.784194
 20
421.240145
 30
0.0
 11
-317.995851
 21
421.240145
 31
0.0
  0
LINE
  5
968
100
AcDbEntity
  8
5
 62
     2
100
AcDbLine
 10
-314.890022
 20
409.649035
 30
0.0
 11
-314.890022
 21
563.649035
 31
0.0
  0
LINE
  5
969
100
AcDbEntity
  8
5
 62
     2
100
AcDbLine
 10
-314.890022
 20
563.649035
 30
0.0
 11
-317.995851
 21
552.057925
 31
0.0
  0
LINE
  5
96A
100
AcDbEntity
  8
5
 62
     2
100
AcDbLine
 10
-314.890022
 20
563.649035
 30
0.0
 11
-311.784194
 21
552.057925
 31
0.0
  0
LINE
  5
96B
100
AcDbEntity
  8
5
 62
     2
100
AcDbLine
 10
-317.995851
 20
552.057925
 30
0.0
 11
-311.784194
 21
552.057925
 31
0.0
  0
LINE
  5
96C
100
AcDbEntity
  8
5
 62
     2
100
AcDbLine
 10
-361.898847
 20
563.649035
 30
0.0
 11
-308.890022
 21
563.649035
 31
0.0
  0
ENDBLK
  5
96D
100
AcDbEntity
  8
5
100
AcDbBlockEnd
  0
BLOCK
  5
96E
100
AcDbEntity
  8
5
100
AcDbBlockBegin
  2
*D5
 70
     1
 10
0.0
 20
0.0
 30
0.0
  3
*D5
  1

  0
TEXT
  5
96F
100
AcDbEntity
  8
5
 62
     2
100
AcDbText
 10
-317.890022
 20
592.289035
 30
0.0
 40
19.8
  1
85
 50
90.0
 41
1.4
 72
     5
 11
-317.890022
 21
614.465035
 31
0.0
100
AcDbText
  0
LINE
  5
970
100
AcDbEntity
  8
5
 62
     2
100
AcDbLine
 10
-361.898847
 20
563.649035
 30
0.0
 11
-308.890022
 21
563.649035
 31
0.0
  0
LINE
  5
971
100
AcDbEntity
  8
5
 62
     2
100
AcDbLine
 10
-314.890022
 20
563.649035
 30
0.0
 11
-311.784194
 21
575.240145
 31
0.0
  0
LINE
  5
972
100
AcDbEntity
  8
5
 62
     2
100
AcDbLine
 10
-314.890022
 20
563.649035
 30
0.0
 11
-317.995851
 21
575.240145
 31
0.0
  0
LINE
  5
973
100
AcDbEntity
  8
5
 62
     2
100
AcDbLine
 10
-311.784194
 20
575.240145
 30
0.0
 11
-317.995851
 21
575.240145
 31
0.0
  0
LINE
  5
974
100
AcDbEntity
  8
5
 62
     2
100
AcDbLine
 10
-314.890022
 20
563.649035
 30
0.0
 11
-314.890022
 21
648.649035
 31
0.0
  0
LINE
  5
975
100
AcDbEntity
  8
5
 62
     2
100
AcDbLine
 10
-314.890022
 20
648.649035
 30
0.0
 11
-317.995851
 21
637.057925
 31
0.0
  0
LINE
  5
976
100
AcDbEntity
  8
5
 62
     2
100
AcDbLine
 10
-314.890022
 20
648.649035
 30
0.0
 11
-311.784194
 21
637.057925
 31
0.0
  0
LINE
  5
977
100
AcDbEntity
  8
5
 62
     2
100
AcDbLine
 10
-317.995851
 20
637.057925
 30
0.0
 11
-311.784194
 21
637.057925
 31
0.0
  0
LINE
  5
978
100
AcDbEntity
  8
5
 62
     2
100
AcDbLine
 10
-558.004946
 20
648.649035
 30
0.0
 11
-308.890022
 21
648.649035
 31
0.0
  0
ENDBLK
  5
979
100
AcDbEntity
  8
5
100
AcDbBlockEnd
  0
BLOCK
  5
97A
100
AcDbEntity
  8
5
100
AcDbBlockBegin
  2
*D6
 70
     1
 10
0.0
 20
0.0
 30
0.0
  3
*D6
  1

  0
TEXT
  5
97B
100
AcDbEntity
  8
5
 62
     2
100
AcDbText
 10
-34.989201
 20
124.129036
 30
0.0
 40
19.8
  1
%%c100
 50
90.0
 41
1.4
 72
     5
 11
-34.989201
 21
174.025035
 31
0.0
100
AcDbText
  0
LINE
  5
97C
100
AcDbEntity
  8
5
 62
     2
100
AcDbLine
 10
16.821554
 20
201.849035
 30
0.0
 11
-37.989201
 21
201.849035
 31
0.0
  0
LINE
  5
97D
100
AcDbEntity
  8
5
 62
     2
100
AcDbLine
 10
-31.989201
 20
201.849035
 30
0.0
 11
-35.095029
 21
190.257925
 31
0.0
  0
LINE
  5
97E
100
AcDbEntity
  8
5
 62
     2
100
AcDbLine
 10
-31.989201
 20
201.849035
 30
0.0
 11
-28.883372
 21
190.257925
 31
0.0
  0
LINE
  5
97F
100
AcDbEntity
  8
5
 62
     2
100
AcDbLine
 10
-35.095029
 20
190.257925
 30
0.0
 11
-28.883372
 21
190.257925
 31
0.0
  0
LINE
  5
980
100
AcDbEntity
  8
5
 62
     2
100
AcDbLine
 10
-31.989201
 20
201.849035
 30
0.0
 11
-31.989201
 21
101.849035
 31
0.0
  0
LINE
  5
981
100
AcDbEntity
  8
5
 62
     2
100
AcDbLine
 10
-31.989201
 20
101.849035
 30
0.0
 11
-28.883372
 21
113.440145
 31
0.0
  0
LINE
  5
982
100
AcDbEntity
  8
5
 62
     2
100
AcDbLine
 10
-31.989201
 20
101.849035
 30
0.0
 11
-35.095029
 21
113.440145
 31
0.0
  0
LINE
  5
983
100
AcDbEntity
  8
5
 62
     2
100
AcDbLine
 10
-28.883372
 20
113.440145
 30
0.0
 11
-35.095029
 21
113.440145
 31
0.0
  0
LINE
  5
984
100
AcDbEntity
  8
5
 62
     2
100
AcDbLine
 10
16.821554
 20
101.849035
 30
0.0
 11
-37.989201
 21
101.849035
 31
0.0
  0
ENDBLK
  5
985
100
AcDbEntity
  8
5
100
AcDbBlockEnd
  0
BLOCK
  5
986
100
AcDbEntity
  8
5
100
AcDbBlockBegin
  2
*D7
 70
     1
 10
0.0
 20
0.0
 30
0.0
  3
*D7
  1

  0
TEXT
  5
987
100
AcDbEntity
  8
5
 62
     2
100
AcDbText
 10
-112.605755
 20
148.559036
 30
0.0
 40
19.8
  1
201
 50
90.0
 41
1.4
 72
     5
 11
-112.605755
 21
184.595035
 31
0.0
100
AcDbText
  0
LINE
  5
988
100
AcDbEntity
  8
5
 62
     2
100
AcDbLine
 10
100.271554
 20
68.849035
 30
0.0
 11
-115.605755
 21
68.849035
 31
0.0
  0
LINE
  5
989
100
AcDbEntity
  8
5
 62
     2
100
AcDbLine
 10
-109.605755
 20
68.849035
 30
0.0
 11
-106.499926
 21
80.440145
 31
0.0
  0
LINE
  5
98A
100
AcDbEntity
  8
5
 62
     2
100
AcDbLine
 10
-109.605755
 20
68.849035
 30
0.0
 11
-112.711583
 21
80.440145
 31
0.0
  0
LINE
  5
98B
100
AcDbEntity
  8
5
 62
     2
100
AcDbLine
 10
-106.499926
 20
80.440145
 30
0.0
 11
-112.711583
 21
80.440145
 31
0.0
  0
LINE
  5
98C
100
AcDbEntity
  8
5
 62
     2
100
AcDbLine
 10
-109.605755
 20
68.849035
 30
0.0
 11
-109.605755
 21
269.849035
 31
0.0
  0
LINE
  5
98D
100
AcDbEntity
  8
5
 62
     2
100
AcDbLine
 10
-109.605755
 20
269.849035
 30
0.0
 11
-112.711583
 21
258.257925
 31
0.0
  0
LINE
  5
98E
100
AcDbEntity
  8
5
 62
     2
100
AcDbLine
 10
-109.605755
 20
269.849035
 30
0.0
 11
-106.499926
 21
258.257925
 31
0.0
  0
LINE
  5
98F
100
AcDbEntity
  8
5
 62
     2
100
AcDbLine
 10
-112.711583
 20
258.257925
 30
0.0
 11
-106.499926
 21
258.257925
 31
0.0
  0
LINE
  5
990
100
AcDbEntity
  8
5
 62
     2
100
AcDbLine
 10
162.771554
 20
269.849035
 30
0.0
 11
-115.605755
 21
269.849035
 31
0.0
  0
ENDBLK
  5
991
100
AcDbEntity
  8
5
100
AcDbBlockEnd
  0
BLOCK
  5
992
100
AcDbEntity
  8
5
100
AcDbBlockBegin
  2
*D8
 70
     1
 10
0.0
 20
0.0
 30
0.0
  3
*D8
  1

  0
TEXT
  5
993
100
AcDbEntity
  8
5
 62
     2
100
AcDbText
 10
-112.605755
 20
-56.940964
 30
0.0
 40
19.8
  1
210
 50
90.0
 41
1.4
 72
     5
 11
-112.605755
 21
-20.904965
 31
0.0
100
AcDbText
  0
LINE
  5
994
100
AcDbEntity
  8
5
 62
     2
100
AcDbLine
 10
87.771554
 20
-141.150965
 30
0.0
 11
-115.605755
 21
-141.150965
 31
0.0
  0
LINE
  5
995
100
AcDbEntity
  8
5
 62
     2
100
AcDbLine
 10
-109.605755
 20
-141.150965
 30
0.0
 11
-106.499926
 21
-129.559855
 31
0.0
  0
LINE
  5
996
100
AcDbEntity
  8
5
 62
     2
100
AcDbLine
 10
-109.605755
 20
-141.150965
 30
0.0
 11
-112.711583
 21
-129.559855
 31
0.0
  0
LINE
  5
997
100
AcDbEntity
  8
5
 62
     2
100
AcDbLine
 10
-106.499926
 20
-129.559855
 30
0.0
 11
-112.711583
 21
-129.559855
 31
0.0
  0
LINE
  5
998
100
AcDbEntity
  8
5
 62
     2
100
AcDbLine
 10
-109.605755
 20
-141.150965
 30
0.0
 11
-109.605755
 21
68.849035
 31
0.0
  0
LINE
  5
999
100
AcDbEntity
  8
5
 62
     2
100
AcDbLine
 10
-109.605755
 20
68.849035
 30
0.0
 11
-112.711583
 21
57.257925
 31
0.0
  0
LINE
  5
99A
100
AcDbEntity
  8
5
 62
     2
100
AcDbLine
 10
-109.605755
 20
68.849035
 30
0.0
 11
-106.499926
 21
57.257925
 31
0.0
  0
LINE
  5
99B
100
AcDbEntity
  8
5
 62
     2
100
AcDbLine
 10
-112.711583
 20
57.257925
 30
0.0
 11
-106.499926
 21
57.257925
 31
0.0
  0
LINE
  5
99C
100
AcDbEntity
  8
5
 62
     2
100
AcDbLine
 10
100.271554
 20
68.849035
 30
0.0
 11
-115.605755
 21
68.849035
 31
0.0
  0
ENDBLK
  5
99D
100
AcDbEntity
  8
5
100
AcDbBlockEnd
  0
BLOCK
  5
99E
100
AcDbEntity
  8
5
100
AcDbBlockBegin
  2
*D9
 70
     1
 10
0.0
 20
0.0
 30
0.0
  3
*D9
  1

  0
TEXT
  5
99F
100
AcDbEntity
  8
5
 62
     2
100
AcDbText
 10
-112.605755
 20
-303.440964
 30
0.0
 40
19.8
  1
283
 50
90.0
 41
1.4
 72
     5
 11
-112.605755
 21
-267.404965
 31
0.0
100
AcDbText
  0
LINE
  5
9A0
100
AcDbEntity
  8
5
 62
     2
100
AcDbLine
 10
93.389062
 20
-424.150965
 30
0.0
 11
-115.605755
 21
-424.150965
 31
0.0
  0
LINE
  5
9A1
100
AcDbEntity
  8
5
 62
     2
100
AcDbLine
 10
-109.605755
 20
-424.150965
 30
0.0
 11
-106.499926
 21
-412.559855
 31
0.0
  0
LINE
  5
9A2
100
AcDbEntity
  8
5
 62
     2
100
AcDbLine
 10
-109.605755
 20
-424.150965
 30
0.0
 11
-112.711583
 21
-412.559855
 31
0.0
  0
LINE
  5
9A3
100
AcDbEntity
  8
5
 62
     2
100
AcDbLine
 10
-106.499926
 20
-412.559855
 30
0.0
 11
-112.711583
 21
-412.559855
 31
0.0
  0
LINE
  5
9A4
100
AcDbEntity
  8
5
 62
     2
100
AcDbLine
 10
-109.605755
 20
-424.150965
 30
0.0
 11
-109.605755
 21
-141.150965
 31
0.0
  0
LINE
  5
9A5
100
AcDbEntity
  8
5
 62
     2
100
AcDbLine
 10
-109.605755
 20
-141.150965
 30
0.0
 11
-112.711583
 21
-152.742075
 31
0.0
  0
LINE
  5
9A6
100
AcDbEntity
  8
5
 62
     2
100
AcDbLine
 10
-109.605755
 20
-141.150965
 30
0.0
 11
-106.499926
 21
-152.742075
 31
0.0
  0
LINE
  5
9A7
100
AcDbEntity
  8
5
 62
     2
100
AcDbLine
 10
-112.711583
 20
-152.742075
 30
0.0
 11
-106.499926
 21
-152.742075
 31
0.0
  0
LINE
  5
9A8
100
AcDbEntity
  8
5
 62
     2
100
AcDbLine
 10
87.771554
 20
-141.150965
 30
0.0
 11
-115.605755
 21
-141.150965
 31
0.0
  0
ENDBLK
  5
9A9
100
AcDbEntity
  8
5
100
AcDbBlockEnd
  0
BLOCK
  5
9AA
100
AcDbEntity
  8
5
100
AcDbBlockBegin
  2
*D10
 70
     1
 10
0.0
 20
0.0
 30
0.0
  3
*D10
  1

  0
TEXT
  5
9AB
100
AcDbEntity
  8
5
 62
     2
100
AcDbText
 10
-112.605755
 20
-562.690964
 30
0.0
 40
19.8
  1
236
 50
90.0
 41
1.4
 72
     5
 11
-112.605755
 21
-526.654965
 31
0.0
100
AcDbText
  0
LINE
  5
9AC
100
AcDbEntity
  8
5
 62
     2
100
AcDbLine
 10
137.271554
 20
-659.650965
 30
0.0
 11
-115.605755
 21
-659.650965
 31
0.0
  0
LINE
  5
9AD
100
AcDbEntity
  8
5
 62
     2
100
AcDbLine
 10
-109.605755
 20
-659.650965
 30
0.0
 11
-106.499926
 21
-648.059855
 31
0.0
  0
LINE
  5
9AE
100
AcDbEntity
  8
5
 62
     2
100
AcDbLine
 10
-109.605755
 20
-659.650965
 30
0.0
 11
-112.711583
 21
-648.059855
 31
0.0
  0
LINE
  5
9AF
100
AcDbEntity
  8
5
 62
     2
100
AcDbLine
 10
-106.499926
 20
-648.059855
 30
0.0
 11
-112.711583
 21
-648.059855
 31
0.0
  0
LINE
  5
9B0
100
AcDbEntity
  8
5
 62
     2
100
AcDbLine
 10
-109.605755
 20
-659.650965
 30
0.0
 11
-109.605755
 21
-424.150965
 31
0.0
  0
LINE
  5
9B1
100
AcDbEntity
  8
5
 62
     2
100
AcDbLine
 10
-109.605755
 20
-424.150965
 30
0.0
 11
-112.711583
 21
-435.742075
 31
0.0
  0
LINE
  5
9B2
100
AcDbEntity
  8
5
 62
     2
100
AcDbLine
 10
-109.605755
 20
-424.150965
 30
0.0
 11
-106.499926
 21
-435.742075
 31
0.0
  0
LINE
  5
9B3
100
AcDbEntity
  8
5
 62
     2
100
AcDbLine
 10
-112.711583
 20
-435.742075
 30
0.0
 11
-106.499926
 21
-435.742075
 31
0.0
  0
LINE
  5
9B4
100
AcDbEntity
  8
5
 62
     2
100
AcDbLine
 10
93.389062
 20
-424.150965
 30
0.0
 11
-115.605755
 21
-424.150965
 31
0.0
  0
ENDBLK
  5
9B5
100
AcDbEntity
  8
5
100
AcDbBlockEnd
  0
ENDSEC
  0
SECTION
  2
ENTITIES
  0
LINE
  5
32
100
AcDbEntity
  8
1
  6
CENTER
 62
     2
100
AcDbLine
 10
168.771554
 20
-679.498468
 30
0.0
 11
168.771554
 21
290.88031
 31
0.0
  0
LINE
  5
33
100
AcDbEntity
  8
1
  6
CENTER
 62
     2
100
AcDbLine
 10
-592.328446
 20
-679.498468
 30
0.0
 11
-592.328446
 21
290.88031
 31
0.0
  0
LINE
  5
34
100
AcDbEntity
  8
1
  6
CENTER
 62
     2
100
AcDbLine
 10
99.389062
 20
-424.150965
 30
0.0
 11
247.346856
 21
-424.150965
 31
0.0
  0
LINE
  5
35
100
AcDbEntity
  8
1
  6
CENTER
 62
     2
100
AcDbLine
 10
-818.065214
 20
-424.150965
 30
0.0
 11
-367.898847
 21
-424.150965
 31
0.0
  0
ARC
  5
36
100
AcDbEntity
  8
1
100
AcDbCircle
 10
-430.53587
 20
-380.798775
 30
0.0
 40
9.0
100
AcDbArc
 50
101.177446
 51
230.821865
  0
ARC
  5
37
100
AcDbEntity
  8
1
100
AcDbCircle
 10
-473.888061
 20
-305.710579
 30
0.0
 40
9.0
100
AcDbArc
 50
189.178135
 51
260.821865
  0
ARC
  5
38
100
AcDbEntity
  8
1
100
AcDbCircle
 10
-548.976256
 20
-262.358389
 30
0.0
 40
9.0
100
AcDbArc
 50
219.178135
 51
290.821865
  0
ARC
  5
39
100
AcDbEntity
  8
1
100
AcDbCircle
 10
-635.680636
 20
-262.358389
 30
0.0
 40
9.0
100
AcDbArc
 50
249.178135
 51
320.821865
  0
ARC
  5
3A
100
AcDbEntity
  8
1
100
AcDbCircle
 10
-710.768832
 20
-305.710579
 30
0.0
 40
9.0
100
AcDbArc
 50
279.178135
 51
350.821865
  0
ARC
  5
3B
100
AcDbEntity
  8
1
100
AcDbCircle
 10
-754.121022
 20
-380.798775
 30
0.0
 40
9.0
100
AcDbArc
 50
309.178135
 51
78.822554
  0
ARC
  5
3C
100
AcDbEntity
  8
1
100
AcDbCircle
 10
-754.121022
 20
-467.503155
 30
0.0
 40
9.0
100
AcDbArc
 50
281.177446
 51
50.821865
  0
ARC
  5
3D
100
AcDbEntity
  8
1
100
AcDbCircle
 10
-710.768832
 20
-542.591351
 30
0.0
 40
9.0
100
AcDbArc
 50
9.178135
 51
80.821865
  0
ARC
  5
3E
100
AcDbEntity
  8
1
100
AcDbCircle
 10
-635.680636
 20
-585.943541
 30
0.0
 40
9.0
100
AcDbArc
 50
39.178135
 51
110.821865
  0
ARC
  5
3F
100
AcDbEntity
  8
1
100
AcDbCircle
 10
-548.976256
 20
-585.943541
 30
0.0
 40
9.0
100
AcDbArc
 50
69.178135
 51
140.821865
  0
ARC
  5
40
100
AcDbEntity
  8
1
100
AcDbCircle
 10
-473.888061
 20
-542.591351
 30
0.0
 40
9.0
100
AcDbArc
 50
99.178135
 51
170.821865
  0
ARC
  5
41
100
AcDbEntity
  8
1
100
AcDbCircle
 10
-430.53587
 20
-467.503155
 30
0.0
 40
9.0
100
AcDbArc
 50
129.178135
 51
258.822554
  0
ARC
  5
42
100
AcDbEntity
  8
1
100
AcDbCircle
 10
-592.328446
 20
-424.150965
 30
0.0
 40
162.5
100
AcDbArc
 50
79.181635
 51
100.818365
  0
ARC
  5
43
100
AcDbEntity
  8
1
100
AcDbCircle
 10
-592.328446
 20
-424.150965
 30
0.0
 40
162.5
100
AcDbArc
 50
49.181635
 51
70.818365
  0
ARC
  5
44
100
AcDbEntity
  8
1
100
AcDbCircle
 10
-642.434446
 20
-280.117501
 30
0.0
 40
10.0
100
AcDbArc
 50
69.178135
 51
109.181635
  0
ARC
  5
45
100
AcDbEntity
  8
1
100
AcDbCircle
 10
-620.95211
 20
-274.361326
 30
0.0
 40
10.0
100
AcDbArc
 50
100.818365
 51
140.821865
  0
ARC
  5
46
100
AcDbEntity
  8
1
100
AcDbCircle
 10
-563.704783
 20
-274.361326
 30
0.0
 40
10.0
100
AcDbArc
 50
39.178135
 51
79.181635
  0
ARC
  5
47
100
AcDbEntity
  8
1
100
AcDbCircle
 10
-542.222446
 20
-280.117501
 30
0.0
 40
10.0
100
AcDbArc
 50
70.818365
 51
110.821865
  0
ARC
  5
48
100
AcDbEntity
  8
1
100
AcDbCircle
 10
-492.644807
 20
-308.741164
 30
0.0
 40
10.0
100
AcDbArc
 50
9.178135
 51
49.181635
  0
ARC
  5
49
100
AcDbEntity
  8
1
100
AcDbCircle
 10
-476.918646
 20
-324.467326
 30
0.0
 40
10.0
100
AcDbArc
 50
40.818365
 51
80.821865
  0
ARC
  5
4A
100
AcDbEntity
  8
1
100
AcDbCircle
 10
-592.328446
 20
-424.150965
 30
0.0
 40
162.5
100
AcDbArc
 50
109.181635
 51
130.818365
  0
ARC
  5
4B
100
AcDbEntity
  8
1
100
AcDbCircle
 10
-592.328446
 20
-424.150965
 30
0.0
 40
162.5
100
AcDbArc
 50
199.181635
 51
220.818365
  0
ARC
  5
4C
100
AcDbEntity
  8
1
100
AcDbCircle
 10
-592.328446
 20
-424.150965
 30
0.0
 40
162.5
100
AcDbArc
 50
139.181635
 51
160.818365
  0
ARC
  5
4D
100
AcDbEntity
  8
1
100
AcDbCircle
 10
-592.328446
 20
-424.150965
 30
0.0
 40
162.5
100
AcDbArc
 50
169.181635
 51
190.818365
  0
ARC
  5
4E
100
AcDbEntity
  8
1
100
AcDbCircle
 10
-692.012085
 20
-308.741164
 30
0.0
 40
10.0
100
AcDbArc
 50
130.818365
 51
170.821865
  0
ARC
  5
4F
100
AcDbEntity
  8
1
100
AcDbCircle
 10
-707.738247
 20
-324.467326
 30
0.0
 40
10.0
100
AcDbArc
 50
99.178135
 51
139.181635
  0
ARC
  5
50
100
AcDbEntity
  8
1
100
AcDbCircle
 10
-707.738247
 20
-523.834604
 30
0.0
 40
10.0
100
AcDbArc
 50
220.818365
 51
260.821865
  0
ARC
  5
51
100
AcDbEntity
  8
1
100
AcDbCircle
 10
-692.012085
 20
-539.560766
 30
0.0
 40
10.0
100
AcDbArc
 50
189.178135
 51
229.181635
  0
ARC
  5
52
100
AcDbEntity
  8
1
100
AcDbCircle
 10
-736.36191
 20
-374.044965
 30
0.0
 40
10.0
100
AcDbArc
 50
160.818365
 51
200.821865
  0
ARC
  5
53
100
AcDbEntity
  8
1
100
AcDbCircle
 10
-742.118085
 20
-395.527302
 30
0.0
 40
10.0
100
AcDbArc
 50
129.178135
 51
169.181635
  0
ARC
  5
54
100
AcDbEntity
  8
1
100
AcDbCircle
 10
-742.118085
 20
-452.774628
 30
0.0
 40
10.0
100
AcDbArc
 50
190.818365
 51
230.821865
  0
ARC
  5
55
100
AcDbEntity
  8
1
100
AcDbCircle
 10
-736.36191
 20
-474.256965
 30
0.0
 40
10.0
100
AcDbArc
 50
159.178135
 51
199.181635
  0
ARC
  5
56
100
AcDbEntity
  8
1
100
AcDbCircle
 10
-592.328446
 20
-424.150965
 30
0.0
 40
162.5
100
AcDbArc
 50
319.181635
 51
340.818365
  0
ARC
  5
57
100
AcDbEntity
  8
1
100
AcDbCircle
 10
-592.328446
 20
-424.150965
 30
0.0
 40
162.5
100
AcDbArc
 50
289.181635
 51
310.818365
  0
ARC
  5
58
100
AcDbEntity
  8
1
100
AcDbCircle
 10
-592.328446
 20
-424.150965
 30
0.0
 40
162.5
100
AcDbArc
 50
229.181635
 51
250.818365
  0
ARC
  5
59
100
AcDbEntity
  8
1
100
AcDbCircle
 10
-592.328446
 20
-424.150965
 30
0.0
 40
162.5
100
AcDbArc
 50
259.181635
 51
280.818365
  0
ARC
  5
5A
100
AcDbEntity
  8
1
100
AcDbCircle
 10
-642.434446
 20
-568.184429
 30
0.0
 40
10.0
100
AcDbArc
 50
250.818365
 51
290.821865
  0
ARC
  5
5B
100
AcDbEntity
  8
1
100
AcDbCircle
 10
-620.95211
 20
-573.940604
 30
0.0
 40
10.0
100
AcDbArc
 50
219.178135
 51
259.181635
  0
ARC
  5
5C
100
AcDbEntity
  8
1
100
AcDbCircle
 10
-563.704783
 20
-573.940604
 30
0.0
 40
10.0
100
AcDbArc
 50
280.818365
 51
320.821865
  0
ARC
  5
5D
100
AcDbEntity
  8
1
100
AcDbCircle
 10
-542.222446
 20
-568.184429
 30
0.0
 40
10.0
100
AcDbArc
 50
249.178135
 51
289.181635
  0
ARC
  5
5E
100
AcDbEntity
  8
1
100
AcDbCircle
 10
-492.644807
 20
-539.560766
 30
0.0
 40
10.0
100
AcDbArc
 50
310.818365
 51
350.821865
  0
ARC
  5
5F
100
AcDbEntity
  8
1
100
AcDbCircle
 10
-476.918646
 20
-523.834604
 30
0.0
 40
10.0
100
AcDbArc
 50
279.178135
 51
319.181635
  0
ARC
  5
60
100
AcDbEntity
  8
1
100
AcDbCircle
 10
-448.294982
 20
-474.256965
 30
0.0
 40
10.0
100
AcDbArc
 50
340.818365
 51
20.821865
  0
ARC
  5
61
100
AcDbEntity
  8
1
100
AcDbCircle
 10
-442.538808
 20
-452.774628
 30
0.0
 40
10.0
100
AcDbArc
 50
309.178135
 51
349.181635
  0
ARC
  5
62
100
AcDbEntity
  8
1
100
AcDbCircle
 10
-592.328446
 20
-424.150965
 30
0.0
 40
162.5
100
AcDbArc
 50
349.181635
 51
10.818365
  0
ARC
  5
63
100
AcDbEntity
  8
1
100
AcDbCircle
 10
-592.328446
 20
-424.150965
 30
0.0
 40
162.5
100
AcDbArc
 50
19.181635
 51
40.818365
  0
ARC
  5
64
100
AcDbEntity
  8
1
100
AcDbCircle
 10
-448.294982
 20
-374.044965
 30
0.0
 40
10.0
100
AcDbArc
 50
339.178135
 51
19.181635
  0
ARC
  5
65
100
AcDbEntity
  8
1
100
AcDbCircle
 10
-442.538808
 20
-395.527302
 30
0.0
 40
10.0
100
AcDbArc
 50
10.818365
 51
50.821865
  0
ARC
  5
66
100
AcDbEntity
  8
1
100
AcDbCircle
 10
-420.876612
 20
-378.210584
 30
0.0
 40
13.0
100
AcDbArc
 50
104.926544
 51
151.309105
  0
ARC
  5
67
100
AcDbEntity
  8
1
100
AcDbCircle
 10
-413.632168
 20
-376.269441
 30
0.0
 40
15.0
100
AcDbArc
 50
78.895443
 51
134.926517
  0
ARC
  5
68
100
AcDbEntity
  8
1
100
AcDbCircle
 10
-420.876612
 20
-470.091345
 30
0.0
 40
13.0
100
AcDbArc
 50
208.690895
 51
255.073456
  0
ARC
  5
69
100
AcDbEntity
  8
1
100
AcDbCircle
 10
-413.632168
 20
-472.032488
 30
0.0
 40
15.0
100
AcDbArc
 50
225.073483
 51
281.104557
  0
ARC
  5
6A
100
AcDbEntity
  8
1
100
AcDbCircle
 10
-763.780281
 20
-378.210584
 30
0.0
 40
13.0
100
AcDbArc
 50
28.690895
 51
75.073456
  0
ARC
  5
6B
100
AcDbEntity
  8
1
100
AcDbCircle
 10
-771.024724
 20
-376.269441
 30
0.0
 40
15.0
100
AcDbArc
 50
45.073483
 51
101.104557
  0
ARC
  5
6C
100
AcDbEntity
  8
1
100
AcDbCircle
 10
-763.780281
 20
-470.091345
 30
0.0
 40
13.0
100
AcDbArc
 50
284.926544
 51
331.309105
  0
ARC
  5
6D
100
AcDbEntity
  8
1
100
AcDbCircle
 10
-771.024724
 20
-472.032488
 30
0.0
 40
15.0
100
AcDbArc
 50
258.895443
 51
314.926517
  0
LINE
  5
6E
100
AcDbEntity
  8
1
100
AcDbLine
 10
-411.481437
 20
-340.525781
 30
0.0
 11
-452.512617
 21
-329.531509
 31
0.0
  0
LINE
  5
6F
100
AcDbEntity
  8
1
100
AcDbLine
 10
-773.175456
 20
-507.776149
 30
0.0
 11
-732.144275
 21
-518.77042
 31
0.0
  0
LINE
  5
70
100
AcDbEntity
  8
1
100
AcDbLine
 10
-411.481437
 20
-507.776149
 30
0.0
 11
-452.512617
 21
-518.77042
 31
0.0
  0
LINE
  5
71
100
AcDbEntity
  8
1
100
AcDbLine
 10
-773.175456
 20
-340.525781
 30
0.0
 11
-732.144275
 21
-329.531509
 31
0.0
  0
ARC
  5
72
100
AcDbEntity
  8
1
100
AcDbCircle
 10
-414.328446
 20
-351.150965
 30
0.0
 40
11.0
100
AcDbArc
 50
289.022193
 51
75.0
  0
ARC
  5
73
100
AcDbEntity
  8
1
100
AcDbCircle
 10
-444.748046
 20
-300.553734
 30
0.0
 40
30.0
100
AcDbArc
 50
219.945865
 51
255.0
  0
ARC
  5
74
100
AcDbEntity
  8
1
100
AcDbCircle
 10
-414.328446
 20
-497.150965
 30
0.0
 40
11.0
100
AcDbArc
 50
285.0
 51
70.977807
  0
ARC
  5
75
100
AcDbEntity
  8
1
100
AcDbCircle
 10
-444.748046
 20
-547.748195
 30
0.0
 40
30.0
100
AcDbArc
 50
105.0
 51
140.054135
  0
ARC
  5
76
100
AcDbEntity
  8
1
100
AcDbCircle
 10
-770.328446
 20
-497.150965
 30
0.0
 40
11.0
100
AcDbArc
 50
109.022193
 51
255.0
  0
ARC
  5
77
100
AcDbEntity
  8
1
100
AcDbCircle
 10
-739.908847
 20
-547.748195
 30
0.0
 40
30.0
100
AcDbArc
 50
39.945865
 51
75.0
  0
ARC
  5
78
100
AcDbEntity
  8
1
100
AcDbCircle
 10
-770.328446
 20
-351.150965
 30
0.0
 40
11.0
100
AcDbArc
 50
105.0
 51
250.977807
  0
ARC
  5
79
100
AcDbEntity
  8
1
100
AcDbCircle
 10
-739.908847
 20
-300.553734
 30
0.0
 40
30.0
100
AcDbArc
 50
285.0
 51
320.054135
  0
LINE
  5
7A
100
AcDbEntity
  8
1
100
AcDbLine
 10
-622.328446
 20
-644.150965
 30
0.0
 11
-562.328446
 21
-644.150965
 31
0.0
  0
LINE
  5
7B
100
AcDbEntity
  8
1
100
AcDbLine
 10
-657.328446
 20
-159.150965
 30
0.0
 11
-527.328446
 21
-159.150965
 31
0.0
  0
LINE
  5
7C
100
AcDbEntity
  8
1
100
AcDbLine
 10
-662.328446
 20
-141.150965
 30
0.0
 11
-662.328446
 21
-154.150965
 31
0.0
  0
LINE
  5
7D
100
AcDbEntity
  8
1
100
AcDbLine
 10
-522.328446
 20
-141.150965
 30
0.0
 11
-522.328446
 21
-154.150965
 31
0.0
  0
ARC
  5
7E
100
AcDbEntity
  8
1
100
AcDbCircle
 10
-527.328446
 20
-154.150965
 30
0.0
 40
5.0
100
AcDbArc
 50
270.0
 51
360.0
  0
ARC
  5
7F
100
AcDbEntity
  8
1
100
AcDbCircle
 10
-657.328446
 20
-154.150965
 30
0.0
 40
5.0
100
AcDbArc
 50
180.0
 51
270.0
  0
LINE
  5
80
100
AcDbEntity
  8
1
100
AcDbLine
 10
-622.328446
 20
-169.150965
 30
0.0
 11
-622.328446
 21
-187.475046
 31
0.0
  0
LINE
  5
81
100
AcDbEntity
  8
1
100
AcDbLine
 10
-562.328446
 20
-169.150965
 30
0.0
 11
-562.328446
 21
-187.475046
 31
0.0
  0
ARC
  5
82
100
AcDbEntity
  8
1
100
AcDbCircle
 10
-552.328446
 20
-169.150965
 30
0.0
 40
10.0
100
AcDbArc
 50
90.0
 51
180.0
  0
ARC
  5
83
100
AcDbEntity
  8
1
100
AcDbCircle
 10
-632.328446
 20
-169.150965
 30
0.0
 40
10.0
100
AcDbArc
 50
0.0
 51
90.0
  0
LINE
  5
84
100
AcDbEntity
  8
1
100
AcDbLine
 10
-616.328446
 20
-196.826884
 30
0.0
 11
-616.328446
 21
-240.005526
 31
0.0
  0
LINE
  5
85
100
AcDbEntity
  8
1
100
AcDbLine
 10
-568.328446
 20
-196.826884
 30
0.0
 11
-568.328446
 21
-240.005526
 31
0.0
  0
LINE
  5
86
100
AcDbEntity
  8
1
100
AcDbLine
 10
-624.828446
 20
-251.268371
 30
0.0
 11
-624.828446
 21
-257.484381
 31
0.0
  0
LINE
  5
87
100
AcDbEntity
  8
1
100
AcDbLine
 10
-559.828446
 20
-251.268371
 30
0.0
 11
-559.828446
 21
-257.484381
 31
0.0
  0
ARC
  5
88
100
AcDbEntity
  8
1
100
AcDbCircle
 10
-564.828446
 20
-251.268371
 30
0.0
 40
5.0
100
AcDbArc
 50
0.0
 51
59.006723
  0
ARC
  5
89
100
AcDbEntity
  8
1
100
AcDbCircle
 10
-619.828446
 20
-251.268371
 30
0.0
 40
5.0
100
AcDbArc
 50
120.993277
 51
180.0
  0
ARC
  5
8A
100
AcDbEntity
  8
1
100
AcDbCircle
 10
-554.529696
 20
-234.123817
 30
0.0
 40
15.0
100
AcDbArc
 50
98.503196
 51
156.913901
  0
ARC
  5
8B
100
AcDbEntity
  8
1
100
AcDbCircle
 10
-554.529696
 20
-234.123817
 30
0.0
 40
15.0
100
AcDbArc
 50
203.086099
 51
239.006723
  0
ARC
  5
8C
100
AcDbEntity
  8
1
100
AcDbCircle
 10
-630.127196
 20
-234.123817
 30
0.0
 40
15.0
100
AcDbArc
 50
300.993277
 51
336.913901
  0
ARC
  5
8D
100
AcDbEntity
  8
1
100
AcDbCircle
 10
-630.127196
 20
-234.123817
 30
0.0
 40
15.0
100
AcDbArc
 50
23.086099
 51
81.496804
  0
LINE
  5
8E
100
AcDbEntity
  8
1
100
AcDbLine
 10
208.771554
 20
-261.650965
 30
0.0
 11
208.771554
 21
-586.650965
 31
0.0
  0
LINE
  5
8F
100
AcDbEntity
  8
1
100
AcDbLine
 10
138.771554
 20
-261.650965
 30
0.0
 11
138.771554
 21
-586.650965
 31
0.0
  0
LINE
  5
90
100
AcDbEntity
  8
1
100
AcDbLine
 10
206.771554
 20
-261.650965
 30
0.0
 11
208.771554
 21
-261.650965
 31
0.0
  0
LINE
  5
91
100
AcDbEntity
  8
1
100
AcDbLine
 10
140.771554
 20
-644.150965
 30
0.0
 11
200.771554
 21
-644.150965
 31
0.0
  0
LINE
  5
92
100
AcDbEntity
  8
1
100
AcDbLine
 10
103.771554
 20
-159.150965
 30
0.0
 11
233.771554
 21
-159.150965
 31
0.0
  0
LINE
  5
93
100
AcDbEntity
  8
1
100
AcDbLine
 10
98.771554
 20
-141.150965
 30
0.0
 11
98.771554
 21
-154.150965
 31
0.0
  0
LINE
  5
94
100
AcDbEntity
  8
1
100
AcDbLine
 10
238.771554
 20
-141.150965
 30
0.0
 11
238.771554
 21
-154.150965
 31
0.0
  0
ARC
  5
95
100
AcDbEntity
  8
1
100
AcDbCircle
 10
103.771554
 20
-154.150965
 30
0.0
 40
5.0
100
AcDbArc
 50
180.0
 51
270.0
  0
ARC
  5
96
100
AcDbEntity
  8
1
100
AcDbCircle
 10
233.771554
 20
-154.150965
 30
0.0
 40
5.0
100
AcDbArc
 50
270.0
 51
360.0
  0
LINE
  5
97
100
AcDbEntity
  8
1
100
AcDbLine
 10
198.771554
 20
-169.150965
 30
0.0
 11
198.771554
 21
-257.442279
 31
0.0
  0
LINE
  5
98
100
AcDbEntity
  8
1
100
AcDbLine
 10
138.771554
 20
-169.150965
 30
0.0
 11
138.771554
 21
-190.150965
 31
0.0
  0
LINE
  5
99
100
AcDbEntity
  8
1
100
AcDbLine
 10
140.771554
 20
-196.150965
 30
0.0
 11
140.771554
 21
-262.613852
 31
0.0
  0
ARC
  5
9A
100
AcDbEntity
  8
1
100
AcDbCircle
 10
233.771554
 20
-194.150965
 30
0.0
 40
35.0
100
AcDbArc
 50
90.0
 51
180.0
  0
ARC
  5
9B
100
AcDbEntity
  8
1
100
AcDbCircle
 10
208.771554
 20
-169.150965
 30
0.0
 40
10.0
100
AcDbArc
 50
90.0
 51
180.0
  0
ARC
  5
9C
100
AcDbEntity
  8
1
100
AcDbCircle
 10
128.771554
 20
-169.150965
 30
0.0
 40
10.0
100
AcDbArc
 50
0.0
 51
90.0
  0
ARC
  5
9D
100
AcDbEntity
  8
1
100
AcDbCircle
 10
143.771554
 20
-190.150965
 30
0.0
 40
5.0
100
AcDbArc
 50
180.0
 51
216.869898
  0
ARC
  5
9E
100
AcDbEntity
  8
1
100
AcDbCircle
 10
135.771554
 20
-196.150965
 30
0.0
 40
5.0
100
AcDbArc
 50
0.0
 51
36.869898
  0
ARC
  5
9F
100
AcDbEntity
  8
1
100
AcDbCircle
 10
103.972056
 20
-194.150965
 30
0.0
 40
35.0
100
AcDbArc
 50
5.73917
 51
90.0
  0
ARC
  5
A0
100
AcDbEntity
  8
1
100
AcDbCircle
 10
206.771554
 20
-253.650965
 30
0.0
 40
8.0
100
AcDbArc
 50
180.0
 51
270.0
  0
ARC
  5
A1
100
AcDbEntity
  8
1
100
AcDbCircle
 10
137.771554
 20
-258.822538
 30
0.0
 40
3.0
100
AcDbArc
 50
289.471221
 51
360.0
  0
LINE
  5
A2
100
AcDbEntity
  8
1
100
AcDbLine
 10
-568.328446
 20
-194.150965
 30
0.0
 11
-616.328446
 21
-194.150965
 31
0.0
  0
LINE
  5
A3
100
AcDbEntity
  8
1
100
AcDbLine
 10
139.771554
 20
-190.150965
 30
0.0
 11
198.771554
 21
-190.150965
 31
0.0
  0
LINE
  5
A4
100
AcDbEntity
  8
1
100
AcDbLine
 10
-564.554945
 20
-191.635297
 30
0.0
 11
-566.101947
 21
-192.666632
 31
0.0
  0
LINE
  5
A5
100
AcDbEntity
  8
1
100
AcDbLine
 10
-620.101947
 20
-191.635297
 30
0.0
 11
-618.554945
 21
-192.666632
 31
0.0
  0
ARC
  5
A6
100
AcDbEntity
  8
1
100
AcDbCircle
 10
-567.328446
 20
-187.475046
 30
0.0
 40
5.0
100
AcDbArc
 50
303.690068
 51
360.0
  0
ARC
  5
A7
100
AcDbEntity
  8
1
100
AcDbCircle
 10
-563.328446
 20
-196.826884
 30
0.0
 40
5.0
100
AcDbArc
 50
123.690068
 51
180.0
  0
ARC
  5
A8
100
AcDbEntity
  8
1
100
AcDbCircle
 10
-617.328446
 20
-187.475046
 30
0.0
 40
5.0
100
AcDbArc
 50
180.0
 51
236.309932
  0
ARC
  5
A9
100
AcDbEntity
  8
1
100
AcDbCircle
 10
-621.328446
 20
-196.826884
 30
0.0
 40
5.0
100
AcDbArc
 50
0.0
 51
56.309932
  0
ARC
  5
AA
100
AcDbEntity
  8
1
100
AcDbCircle
 10
-592.328446
 20
-424.150965
 30
0.0
 40
225.489778
100
AcDbArc
 50
80.897214
 51
82.352867
  0
ARC
  5
AB
100
AcDbEntity
  8
1
100
AcDbCircle
 10
-592.328446
 20
-424.150965
 30
0.0
 40
225.489778
100
AcDbArc
 50
97.647133
 51
99.102786
  0
ARC
  5
AC
100
AcDbEntity
  8
1
100
AcDbCircle
 10
-561.656769
 20
-195.711069
 30
0.0
 40
5.0
100
AcDbArc
 50
124.552962
 51
262.352867
  0
ARC
  5
AD
100
AcDbEntity
  8
1
100
AcDbCircle
 10
-623.000124
 20
-195.711069
 30
0.0
 40
5.0
100
AcDbArc
 50
277.647133
 51
55.447038
  0
ARC
  5
AE
100
AcDbEntity
  8
1
100
AcDbCircle
 10
-558.078446
 20
-210.387634
 30
0.0
 40
9.0
100
AcDbArc
 50
278.503196
 51
80.897214
  0
ARC
  5
AF
100
AcDbEntity
  8
1
100
AcDbCircle
 10
-626.578446
 20
-210.387634
 30
0.0
 40
9.0
100
AcDbArc
 50
99.102786
 51
261.496804
  0
LINE
  5
B0
100
AcDbEntity
  8
1
100
AcDbLine
 10
-597.328446
 20
-164.150965
 30
0.0
 11
-597.328446
 21
-185.150965
 31
0.0
  0
LINE
  5
B1
100
AcDbEntity
  8
1
100
AcDbLine
 10
-587.328446
 20
-164.150965
 30
0.0
 11
-587.328446
 21
-185.150965
 31
0.0
  0
ARC
  5
B2
100
AcDbEntity
  8
1
100
AcDbCircle
 10
-582.328446
 20
-164.150965
 30
0.0
 40
5.0
100
AcDbArc
 50
90.0
 51
180.0
  0
ARC
  5
B3
100
AcDbEntity
  8
1
100
AcDbCircle
 10
-602.328446
 20
-164.150965
 30
0.0
 40
5.0
100
AcDbArc
 50
0.0
 51
90.0
  0
ARC
  5
B4
100
AcDbEntity
  8
1
100
AcDbCircle
 10
-602.328446
 20
-185.150965
 30
0.0
 40
5.0
100
AcDbArc
 50
270.0
 51
360.0
  0
ARC
  5
B5
100
AcDbEntity
  8
1
100
AcDbCircle
 10
-582.328446
 20
-185.150965
 30
0.0
 40
5.0
100
AcDbArc
 50
180.0
 51
270.0
  0
LINE
  5
B6
100
AcDbEntity
  8
1
100
AcDbLine
 10
-582.328446
 20
-190.150965
 30
0.0
 11
-564.554945
 21
-190.150965
 31
0.0
  0
LINE
  5
B7
100
AcDbEntity
  8
1
100
AcDbLine
 10
-620.101947
 20
-190.150965
 30
0.0
 11
-602.328446
 21
-190.150965
 31
0.0
  0
LINE
  5
B8
100
AcDbEntity
  8
1
100
AcDbLine
 10
-597.328446
 20
-190.150965
 30
0.0
 11
-587.328446
 21
-190.150965
 31
0.0
  0
ARC
  5
B9
100
AcDbEntity
  8
1
100
AcDbCircle
 10
-528.03559
 20
-194.150965
 30
0.0
 40
35.0
100
AcDbArc
 50
90.0
 51
128.572651
  0
ARC
  5
BA
100
AcDbEntity
  8
1
100
AcDbCircle
 10
-656.621303
 20
-194.150965
 30
0.0
 40
35.0
100
AcDbArc
 50
51.427349
 51
90.0
  0
ARC
  5
BB
100
AcDbEntity
  8
1
100
AcDbCircle
 10
-622.328446
 20
-151.150965
 30
0.0
 40
20.0
100
AcDbArc
 50
231.427349
 51
258.463041
  0
ARC
  5
BC
100
AcDbEntity
  8
1
100
AcDbCircle
 10
-562.328446
 20
-151.150965
 30
0.0
 40
20.0
100
AcDbArc
 50
281.536959
 51
308.572651
  0
ARC
  5
BD
100
AcDbEntity
  8
1
100
AcDbCircle
 10
-557.328446
 20
-175.645862
 30
0.0
 40
5.0
100
AcDbArc
 50
101.536959
 51
180.0
  0
ARC
  5
BE
100
AcDbEntity
  8
1
100
AcDbCircle
 10
-627.328446
 20
-175.645862
 30
0.0
 40
5.0
100
AcDbArc
 50
0.0
 51
78.463041
  0
LINE
  5
BF
100
AcDbEntity
  8
1
100
AcDbLine
 10
163.771554
 20
-175.645862
 30
0.0
 11
173.771554
 21
-175.645862
 31
0.0
  0
LINE
  5
C0
100
AcDbEntity
  8
1
100
AcDbLine
 10
163.771554
 20
-164.150965
 30
0.0
 11
163.771554
 21
-170.645862
 31
0.0
  0
LINE
  5
C1
100
AcDbEntity
  8
1
100
AcDbLine
 10
173.771554
 20
-164.150965
 30
0.0
 11
173.771554
 21
-170.645862
 31
0.0
  0
ARC
  5
C2
100
AcDbEntity
  8
1
100
AcDbCircle
 10
178.771554
 20
-164.150965
 30
0.0
 40
5.0
100
AcDbArc
 50
90.0
 51
180.0
  0
ARC
  5
C3
100
AcDbEntity
  8
1
100
AcDbCircle
 10
158.771554
 20
-164.150965
 30
0.0
 40
5.0
100
AcDbArc
 50
0.0
 51
90.0
  0
ARC
  5
C4
100
AcDbEntity
  8
1
100
AcDbCircle
 10
158.771554
 20
-170.645862
 30
0.0
 40
5.0
100
AcDbArc
 50
270.0
 51
360.0
  0
ARC
  5
C5
100
AcDbEntity
  8
1
100
AcDbCircle
 10
178.771554
 20
-170.645862
 30
0.0
 40
5.0
100
AcDbArc
 50
180.0
 51
270.0
  0
LINE
  5
C6
100
AcDbEntity
  8
1
  6
CENTER
 62
     2
100
AcDbLine
 10
-641.828446
 20
-113.320961
 30
0.0
 11
-641.828446
 21
-173.78293
 31
0.0
  0
LINE
  5
C7
100
AcDbEntity
  8
1
  6
CENTER
 62
     2
100
AcDbLine
 10
-542.828446
 20
-113.320961
 30
0.0
 11
-542.828446
 21
-173.78293
 31
0.0
  0
LINE
  5
C8
100
AcDbEntity
  8
1
100
AcDbLine
 10
-620.828446
 20
-628.954809
 30
0.0
 11
-620.828446
 21
-644.150965
 31
0.0
  0
LINE
  5
C9
100
AcDbEntity
  8
1
100
AcDbLine
 10
-563.828446
 20
-628.954809
 30
0.0
 11
-563.828446
 21
-644.150965
 31
0.0
  0
ARC
  5
CA
100
AcDbEntity
  8
1
100
AcDbCircle
 10
-554.529696
 20
-614.178113
 30
0.0
 40
15.0
100
AcDbArc
 50
123.989025
 51
222.195934
  0
ARC
  5
CB
100
AcDbEntity
  8
1
100
AcDbCircle
 10
-630.127196
 20
-614.178113
 30
0.0
 40
15.0
100
AcDbArc
 50
317.804066
 51
56.010975
  0
LINE
  5
CC
100
AcDbEntity
  8
1
100
AcDbLine
 10
-624.828446
 20
-590.817548
 30
0.0
 11
-624.828446
 21
-595.93693
 31
0.0
  0
LINE
  5
CD
100
AcDbEntity
  8
1
100
AcDbLine
 10
-559.828446
 20
-590.817548
 30
0.0
 11
-559.828446
 21
-595.93693
 31
0.0
  0
ARC
  5
CE
100
AcDbEntity
  8
1
100
AcDbCircle
 10
-570.828446
 20
-628.954809
 30
0.0
 40
7.0
100
AcDbArc
 50
0.0
 51
42.195934
  0
ARC
  5
CF
100
AcDbEntity
  8
1
100
AcDbCircle
 10
-613.828446
 20
-628.954809
 30
0.0
 40
7.0
100
AcDbArc
 50
137.804066
 51
180.0
  0
ARC
  5
D0
100
AcDbEntity
  8
1
100
AcDbCircle
 10
-617.828446
 20
-595.93693
 30
0.0
 40
7.0
100
AcDbArc
 50
180.0
 51
236.010975
  0
ARC
  5
D1
100
AcDbEntity
  8
1
100
AcDbCircle
 10
-566.828446
 20
-595.93693
 30
0.0
 40
7.0
100
AcDbArc
 50
303.989025
 51
360.0
  0
LINE
  5
D2
100
AcDbEntity
  8
1
  6
CENTER
 62
     2
100
AcDbLine
 10
-613.328446
 20
-633.627649
 30
0.0
 11
-613.328446
 21
-668.013117
 31
0.0
  0
LINE
  5
D3
100
AcDbEntity
  8
1
  6
CENTER
 62
     2
100
AcDbLine
 10
-571.328446
 20
-633.627649
 30
0.0
 11
-571.328446
 21
-668.013117
 31
0.0
  0
CIRCLE
  5
D4
100
AcDbEntity
  8
1
100
AcDbCircle
 10
-595.278446
 20
-424.150965
 30
0.0
 40
131.5
  0
ARC
  5
D5
100
AcDbEntity
  8
1
100
AcDbCircle
 10
-529.828446
 20
-257.484381
 30
0.0
 40
30.0
100
AcDbArc
 50
180.0
 51
187.600472
  0
ARC
  5
D6
100
AcDbEntity
  8
1
100
AcDbCircle
 10
-654.828446
 20
-257.484381
 30
0.0
 40
30.0
100
AcDbArc
 50
352.399528
 51
360.0
  0
ARC
  5
D7
100
AcDbEntity
  8
1
100
AcDbCircle
 10
-529.828446
 20
-590.817548
 30
0.0
 40
30.0
100
AcDbArc
 50
172.399528
 51
180.0
  0
ARC
  5
D8
100
AcDbEntity
  8
1
100
AcDbCircle
 10
-654.828446
 20
-590.817548
 30
0.0
 40
30.0
100
AcDbArc
 50
0.0
 51
7.600472
  0
ARC
  5
D9
100
AcDbEntity
  8
1
100
AcDbCircle
 10
-635.004157
 20
-260.129673
 30
0.0
 40
10.0
100
AcDbArc
 50
314.636169
 51
352.399528
  0
ARC
  5
DA
100
AcDbEntity
  8
1
100
AcDbCircle
 10
-549.652735
 20
-260.129673
 30
0.0
 40
10.0
100
AcDbArc
 50
187.600472
 51
225.363831
  0
ARC
  5
DB
100
AcDbEntity
  8
1
100
AcDbCircle
 10
-549.652735
 20
-588.172257
 30
0.0
 40
10.0
100
AcDbArc
 50
134.636169
 51
172.399528
  0
ARC
  5
DC
100
AcDbEntity
  8
1
100
AcDbCircle
 10
-635.004157
 20
-588.172257
 30
0.0
 40
10.0
100
AcDbArc
 50
7.600472
 51
45.363831
  0
LINE
  5
DD
100
AcDbEntity
  8
1
  6
DASHED
100
AcDbLine
 10
-634.528446
 20
493.649035
 30
0.0
 11
-550.128446
 21
493.649035
 31
0.0
  0
LINE
  5
DE
100
AcDbEntity
  8
1
  6
DASHED
100
AcDbLine
 10
-662.328446
 20
521.449035
 30
0.0
 11
-662.328446
 21
605.849035
 31
0.0
  0
LINE
  5
DF
100
AcDbEntity
  8
1
  6
DASHED
100
AcDbLine
 10
-522.328446
 20
521.449035
 30
0.0
 11
-522.328446
 21
605.849035
 31
0.0
  0
ARC
  5
E0
100
AcDbEntity
  8
1
  6
DASHED
100
AcDbCircle
 10
-634.528446
 20
521.449035
 30
0.0
 40
27.8
100
AcDbArc
 50
180.0
 51
270.0
  0
ARC
  5
E1
100
AcDbEntity
  8
1
  6
DASHED
100
AcDbCircle
 10
-550.128446
 20
521.449035
 30
0.0
 40
27.8
100
AcDbArc
 50
270.0
 51
0.0
  0
CIRCLE
  5
E2
100
AcDbEntity
  8
1
  6
DASHED
100
AcDbCircle
 10
-542.828446
 20
613.149035
 30
0.0
 40
9.5
  0
CIRCLE
  5
E3
100
AcDbEntity
  8
1
  6
DASHED
100
AcDbCircle
 10
-641.828446
 20
613.149035
 30
0.0
 40
9.5
  0
CIRCLE
  5
E4
100
AcDbEntity
  8
1
  6
DASHED
100
AcDbCircle
 10
-641.828446
 20
514.149035
 30
0.0
 40
9.5
  0
CIRCLE
  5
E5
100
AcDbEntity
  8
1
  6
DASHED
100
AcDbCircle
 10
-542.828446
 20
514.149035
 30
0.0
 40
9.5
  0
LINE
  5
E6
100
AcDbEntity
  8
1
  6
CENTER
 62
     2
100
AcDbLine
 10
-560.696165
 20
613.149035
 30
0.0
 11
-526.181577
 21
613.149035
 31
0.0
  0
LINE
  5
E7
100
AcDbEntity
  8
1
  6
CENTER
 62
     2
100
AcDbLine
 10
-542.828446
 20
595.716845
 30
0.0
 11
-542.828446
 21
629.742694
 31
0.0
  0
LINE
  5
E8
100
AcDbEntity
  8
1
  6
CENTER
 62
     2
100
AcDbLine
 10
-658.949552
 20
613.149035
 30
0.0
 11
-625.190702
 21
613.149035
 31
0.0
  0
LINE
  5
E9
100
AcDbEntity
  8
1
  6
CENTER
 62
     2
100
AcDbLine
 10
-641.828446
 20
595.716845
 30
0.0
 11
-641.828446
 21
629.742694
 31
0.0
  0
LINE
  5
EA
100
AcDbEntity
  8
1
  6
CENTER
 62
     2
100
AcDbLine
 10
-658.949552
 20
514.149035
 30
0.0
 11
-625.190702
 21
514.149035
 31
0.0
  0
LINE
  5
EB
100
AcDbEntity
  8
1
  6
CENTER
 62
     2
100
AcDbLine
 10
-641.828446
 20
497.672015
 30
0.0
 11
-641.828446
 21
531.193743
 31
0.0
  0
LINE
  5
EC
100
AcDbEntity
  8
1
  6
CENTER
 62
     2
100
AcDbLine
 10
-560.696165
 20
514.149035
 30
0.0
 11
-526.181577
 21
514.149035
 31
0.0
  0
LINE
  5
ED
100
AcDbEntity
  8
1
  6
CENTER
 62
     2
100
AcDbLine
 10
-542.828446
 20
497.672015
 30
0.0
 11
-542.828446
 21
531.193743
 31
0.0
  0
LINE
  5
EE
100
AcDbEntity
  8
1
  6
DASHED
100
AcDbLine
 10
-754.828446
 20
603.649035
 30
0.0
 11
-662.328446
 21
603.649035
 31
0.0
  0
LINE
  5
EF
100
AcDbEntity
  8
1
  6
DASHED
100
AcDbLine
 10
-754.828446
 20
533.649035
 30
0.0
 11
-662.328446
 21
533.649035
 31
0.0
  0
LINE
  5
F0
100
AcDbEntity
  8
1
  6
DASHED
100
AcDbLine
 10
-662.328446
 20
573.371467
 30
0.0
 11
-737.967257
 21
573.371467
 31
0.0
  0
LINE
  5
F1
100
AcDbEntity
  8
1
  6
DASHED
100
AcDbLine
 10
-662.328446
 20
556.926604
 30
0.0
 11
-737.967257
 21
556.926604
 31
0.0
  0
LINE
  5
F2
100
AcDbEntity
  8
1
  6
DASHED
100
AcDbLine
 10
-737.967257
 20
564.194005
 30
0.0
 11
-737.967257
 21
566.104066
 31
0.0
  0
LINE
  5
F3
100
AcDbEntity
  8
1
  6
DASHED
100
AcDbLine
 10
-754.224246
 20
551.649035
 30
0.0
 11
-754.224246
 21
578.649035
 31
0.0
  0
LINE
  5
F4
100
AcDbEntity
  8
1
  6
DASHED
100
AcDbLine
 10
-750.768101
 20
577.527054
 30
0.0
 11
-744.879547
 21
575.61543
 31
0.0
  0
LINE
  5
F5
100
AcDbEntity
  8
1
  6
DASHED
100
AcDbLine
 10
-744.879547
 20
554.682641
 30
0.0
 11
-750.768101
 21
552.771017
 31
0.0
  0
ARC
  5
F6
100
AcDbEntity
  8
1
  6
DASHED
100
AcDbCircle
 10
-749.224246
 20
582.282736
 30
0.0
 40
5.0
100
AcDbArc
 50
197.518976
 51
252.014817
  0
ARC
  5
F7
100
AcDbEntity
  8
1
  6
DASHED
100
AcDbCircle
 10
-749.224246
 20
548.015335
 30
0.0
 40
5.0
100
AcDbArc
 50
107.985183
 51
180.0
  0
ARC
  5
F8
100
AcDbEntity
  8
1
  6
DASHED
100
AcDbCircle
 10
-747.967257
 20
566.104066
 30
0.0
 40
10.0
100
AcDbArc
 50
0.0
 51
72.014817
  0
ARC
  5
F9
100
AcDbEntity
  8
1
  6
DASHED
100
AcDbCircle
 10
-747.967257
 20
564.194005
 30
0.0
 40
10.0
100
AcDbArc
 50
287.985183
 51
360.0
  0
ARC
  5
FA
100
AcDbEntity
  8
1
  6
DASHED
100
AcDbCircle
 10
-704.404871
 20
530.830147
 30
0.0
 40
22.27477
100
AcDbArc
 50
90.0
 51
110.829952
  0
ARC
  5
FB
100
AcDbEntity
  8
1
  6
DASHED
100
AcDbCircle
 10
-704.404871
 20
599.467924
 30
0.0
 40
22.27477
100
AcDbArc
 50
249.170048
 51
270.0
  0
ARC
  5
FC
100
AcDbEntity
  8
1
  6
DASHED
100
AcDbCircle
 10
-704.404871
 20
580.068183
 30
0.0
 40
2.875029
100
AcDbArc
 50
270.0
 51
330.421756
  0
ARC
  5
FD
100
AcDbEntity
  8
1
  6
DASHED
100
AcDbCircle
 10
-704.404871
 20
550.229888
 30
0.0
 40
2.875029
100
AcDbArc
 50
29.578244
 51
90.0
  0
LINE
  5
FE
100
AcDbEntity
  8
1
  6
DASHED
100
AcDbLine
 10
-701.904509
 20
533.649035
 30
0.0
 11
-701.904509
 21
551.649035
 31
0.0
  0
LINE
  5
FF
100
AcDbEntity
  8
1
  6
DASHED
100
AcDbLine
 10
-701.904509
 20
578.649035
 30
0.0
 11
-701.904509
 21
603.649035
 31
0.0
  0
LINE
  5
100
100
AcDbEntity
  8
1
  6
DASHED
100
AcDbLine
 10
-712.325681
 20
533.649035
 30
0.0
 11
-712.325681
 21
551.649035
 31
0.0
  0
LINE
  5
101
100
AcDbEntity
  8
1
  6
DASHED
100
AcDbLine
 10
-712.325681
 20
578.649035
 30
0.0
 11
-712.325681
 21
603.649035
 31
0.0
  0
LINE
  5
102
100
AcDbEntity
  8
1
  6
DASHED
100
AcDbLine
 10
-716.909304
 20
578.649035
 30
0.0
 11
-712.325681
 21
578.649035
 31
0.0
  0
LINE
  5
103
100
AcDbEntity
  8
1
  6
DASHED
100
AcDbLine
 10
-701.904509
 20
578.649035
 30
0.0
 11
-662.328446
 21
578.649035
 31
0.0
  0
LINE
  5
104
100
AcDbEntity
  8
1
  6
DASHED
100
AcDbLine
 10
-746.36191
 20
551.649035
 30
0.0
 11
-712.325681
 21
551.649035
 31
0.0
  0
LINE
  5
105
100
AcDbEntity
  8
1
  6
DASHED
100
AcDbLine
 10
-701.904509
 20
551.649035
 30
0.0
 11
-662.328446
 21
551.649035
 31
0.0
  0
ARC
  5
106
100
AcDbEntity
  8
1
  6
DASHED
100
AcDbCircle
 10
-745.42769
 20
541.570515
 30
0.0
 40
11.534401
100
AcDbArc
 50
90.0
 51
119.099174
  0
ARC
  5
107
100
AcDbEntity
  8
1
  6
DASHED
100
AcDbCircle
 10
-745.42769
 20
588.727555
 30
0.0
 40
11.534401
100
AcDbArc
 50
240.900826
 51
270.0
  0
LINE
  5
108
100
AcDbEntity
  8
1
  6
DASHED
100
AcDbLine
 10
-751.037132
 20
533.649035
 30
0.0
 11
-751.037132
 21
551.649035
 31
0.0
  0
ARC
  5
109
100
AcDbEntity
  8
1
  6
DASHED
100
AcDbCircle
 10
-746.36191
 20
552.894911
 30
0.0
 40
1.245876
100
AcDbArc
 50
270.0
 51
354.092723
  0
ARC
  5
10A
100
AcDbEntity
  8
1
  6
DASHED
100
AcDbCircle
 10
-745.42769
 20
552.798249
 30
0.0
 40
0.306668
100
AcDbArc
 50
354.092723
 51
90.0
  0
LINE
  5
10B
100
AcDbEntity
  8
1
  6
DASHED
100
AcDbLine
 10
-746.36191
 20
533.649035
 30
0.0
 11
-746.36191
 21
551.649035
 31
0.0
  0
LINE
  5
10C
100
AcDbEntity
  8
1
  6
DASHED
100
AcDbLine
 10
-746.36191
 20
597.649035
 30
0.0
 11
-746.36191
 21
603.649035
 31
0.0
  0
ARC
  5
10D
100
AcDbEntity
  8
1
  6
DASHED
100
AcDbCircle
 10
-746.36191
 20
577.40316
 30
0.0
 40
1.245876
100
AcDbArc
 50
5.907277
 51
74.731046
  0
ARC
  5
10E
100
AcDbEntity
  8
1
  6
DASHED
100
AcDbCircle
 10
-745.42769
 20
577.499822
 30
0.0
 40
0.306668
100
AcDbArc
 50
270.0
 51
5.907277
  0
LINE
  5
10F
100
AcDbEntity
  8
1
100
AcDbLine
 10
140.771554
 20
-585.688077
 30
0.0
 11
140.771554
 21
-652.150965
 31
0.0
  0
LINE
  5
110
100
AcDbEntity
  8
1
100
AcDbLine
 10
200.771554
 20
-590.85965
 30
0.0
 11
200.771554
 21
-652.150965
 31
0.0
  0
ARC
  5
111
100
AcDbEntity
  8
1
100
AcDbCircle
 10
208.771554
 20
-594.650965
 30
0.0
 40
8.0
100
AcDbArc
 50
90.0
 51
180.0
  0
ARC
  5
112
100
AcDbEntity
  8
1
100
AcDbCircle
 10
137.771554
 20
-589.479392
 30
0.0
 40
3.0
100
AcDbArc
 50
0.0
 51
70.528779
  0
LINE
  5
113
100
AcDbEntity
  8
1
  6
CENTER
 62
     2
100
AcDbLine
 10
149.771554
 20
-633.627649
 30
0.0
 11
149.771554
 21
-668.013117
 31
0.0
  0
LINE
  5
114
100
AcDbEntity
  8
1
  6
CENTER
 62
     2
100
AcDbLine
 10
191.771554
 20
-633.627649
 30
0.0
 11
191.771554
 21
-668.013117
 31
0.0
  0
LINE
  5
115
100
AcDbEntity
  8
1
  6
DASHED
100
AcDbLine
 10
-751.037132
 20
578.649035
 30
0.0
 11
-751.037132
 21
579.970897
 31
0.0
  0
LINE
  5
116
100
AcDbEntity
  8
1
  6
DASHED
100
AcDbLine
 10
-751.037132
 20
597.649035
 30
0.0
 11
-751.037132
 21
603.649035
 31
0.0
  0
LINE
  5
117
100
AcDbEntity
  8
1
  6
DASHED
100
AcDbLine
 10
-754.828446
 20
533.649035
 30
0.0
 11
-754.828446
 21
581.005875
 31
0.0
  0
LINE
  5
118
100
AcDbEntity
  8
1
  6
DASHED
100
AcDbLine
 10
-754.828446
 20
597.649035
 30
0.0
 11
-754.828446
 21
603.649035
 31
0.0
  0
LINE
  5
119
100
AcDbEntity
  8
1
100
AcDbLine
 10
-781.328446
 20
590.149035
 30
0.0
 11
-781.328446
 21
595.149035
 31
0.0
  0
ARC
  5
11A
100
AcDbEntity
  8
1
100
AcDbCircle
 10
-778.828446
 20
595.149035
 30
0.0
 40
2.5
100
AcDbArc
 50
90.0
 51
180.0
  0
ARC
  5
11B
100
AcDbEntity
  8
1
100
AcDbCircle
 10
-778.828446
 20
590.149035
 30
0.0
 40
2.5
100
AcDbArc
 50
180.0
 51
261.753596
  0
LINE
  5
11C
100
AcDbEntity
  8
1
  6
DASHED
100
AcDbLine
 10
-716.909304
 20
578.649035
 30
0.0
 11
-716.909304
 21
597.649035
 31
0.0
  0
ARC
  5
11D
100
AcDbEntity
  8
1
  6
DASHED
100
AcDbCircle
 10
-720.909304
 20
601.649035
 30
0.0
 40
4.0
100
AcDbArc
 50
270.0
 51
360.0
  0
LINE
  5
11E
100
AcDbEntity
  8
1
100
AcDbLine
 10
-446.689635
 20
564.194005
 30
0.0
 11
-446.689635
 21
566.104066
 31
0.0
  0
LINE
  5
11F
100
AcDbEntity
  8
1
100
AcDbLine
 10
-430.432647
 20
551.649035
 30
0.0
 11
-430.432647
 21
578.649035
 31
0.0
  0
LINE
  5
120
100
AcDbEntity
  8
1
100
AcDbLine
 10
-433.888791
 20
577.527054
 30
0.0
 11
-439.777346
 21
575.61543
 31
0.0
  0
LINE
  5
121
100
AcDbEntity
  8
1
100
AcDbLine
 10
-439.777346
 20
554.682641
 30
0.0
 11
-433.888791
 21
552.771017
 31
0.0
  0
ARC
  5
122
100
AcDbEntity
  8
1
100
AcDbCircle
 10
-435.432647
 20
582.282736
 30
0.0
 40
5.0
100
AcDbArc
 50
287.985183
 51
342.481024
  0
ARC
  5
123
100
AcDbEntity
  8
1
100
AcDbCircle
 10
-435.432647
 20
548.015335
 30
0.0
 40
5.0
100
AcDbArc
 50
0.0
 51
72.014817
  0
ARC
  5
124
100
AcDbEntity
  8
1
100
AcDbCircle
 10
-436.689635
 20
566.104066
 30
0.0
 40
10.0
100
AcDbArc
 50
107.985183
 51
180.0
  0
ARC
  5
125
100
AcDbEntity
  8
1
100
AcDbCircle
 10
-436.689635
 20
564.194005
 30
0.0
 40
10.0
100
AcDbArc
 50
180.0
 51
252.014817
  0
ARC
  5
126
100
AcDbEntity
  8
1
  6
DASHED
100
AcDbCircle
 10
-480.252022
 20
530.830147
 30
0.0
 40
22.27477
100
AcDbArc
 50
69.170048
 51
90.0
  0
ARC
  5
127
100
AcDbEntity
  8
1
  6
DASHED
100
AcDbCircle
 10
-480.252022
 20
599.467924
 30
0.0
 40
22.27477
100
AcDbArc
 50
270.0
 51
290.829952
  0
ARC
  5
128
100
AcDbEntity
  8
1
  6
DASHED
100
AcDbCircle
 10
-480.252022
 20
580.068183
 30
0.0
 40
2.875029
100
AcDbArc
 50
209.578244
 51
270.0
  0
ARC
  5
129
100
AcDbEntity
  8
1
  6
DASHED
100
AcDbCircle
 10
-480.252022
 20
550.229888
 30
0.0
 40
2.875029
100
AcDbArc
 50
90.0
 51
150.421756
  0
LINE
  5
12A
100
AcDbEntity
  8
1
  6
DASHED
100
AcDbLine
 10
-482.752383
 20
533.649035
 30
0.0
 11
-482.752383
 21
551.649035
 31
0.0
  0
LINE
  5
12B
100
AcDbEntity
  8
1
  6
DASHED
100
AcDbLine
 10
-482.752383
 20
578.649035
 30
0.0
 11
-482.752383
 21
603.649035
 31
0.0
  0
LINE
  5
12C
100
AcDbEntity
  8
1
  6
DASHED
100
AcDbLine
 10
-472.331211
 20
533.649035
 30
0.0
 11
-472.331211
 21
551.649035
 31
0.0
  0
LINE
  5
12D
100
AcDbEntity
  8
1
  6
DASHED
100
AcDbLine
 10
-472.331211
 20
578.649035
 30
0.0
 11
-472.331211
 21
603.649035
 31
0.0
  0
LINE
  5
12E
100
AcDbEntity
  8
1
  6
DASHED
100
AcDbLine
 10
-467.747589
 20
578.649035
 30
0.0
 11
-472.331211
 21
578.649035
 31
0.0
  0
LINE
  5
12F
100
AcDbEntity
  8
1
  6
DASHED
100
AcDbLine
 10
-482.752383
 20
578.649035
 30
0.0
 11
-522.328446
 21
578.649035
 31
0.0
  0
LINE
  5
130
100
AcDbEntity
  8
1
  6
DASHED
100
AcDbLine
 10
-482.752383
 20
551.649035
 30
0.0
 11
-522.328446
 21
551.649035
 31
0.0
  0
ARC
  5
131
100
AcDbEntity
  8
1
100
AcDbCircle
 10
-439.229203
 20
541.570515
 30
0.0
 40
11.534401
100
AcDbArc
 50
60.900826
 51
90.0
  0
ARC
  5
132
100
AcDbEntity
  8
1
100
AcDbCircle
 10
-439.229203
 20
588.727555
 30
0.0
 40
11.534401
100
AcDbArc
 50
270.0
 51
299.099174
  0
LINE
  5
133
100
AcDbEntity
  8
1
100
AcDbLine
 10
-433.619761
 20
533.649035
 30
0.0
 11
-433.619761
 21
551.649035
 31
0.0
  0
ARC
  5
134
100
AcDbEntity
  8
1
100
AcDbCircle
 10
-438.294982
 20
552.894911
 30
0.0
 40
1.245876
100
AcDbArc
 50
185.907277
 51
270.0
  0
ARC
  5
135
100
AcDbEntity
  8
1
100
AcDbCircle
 10
-439.229203
 20
552.798249
 30
0.0
 40
0.306668
100
AcDbArc
 50
90.0
 51
185.907277
  0
LINE
  5
136
100
AcDbEntity
  8
1
100
AcDbLine
 10
-438.294982
 20
533.649035
 30
0.0
 11
-438.294982
 21
551.649035
 31
0.0
  0
LINE
  5
137
100
AcDbEntity
  8
1
100
AcDbLine
 10
-438.294982
 20
597.649035
 30
0.0
 11
-438.294982
 21
603.649035
 31
0.0
  0
ARC
  5
138
100
AcDbEntity
  8
1
100
AcDbCircle
 10
-438.294982
 20
577.40316
 30
0.0
 40
1.245876
100
AcDbArc
 50
105.268954
 51
174.092723
  0
ARC
  5
139
100
AcDbEntity
  8
1
100
AcDbCircle
 10
-439.229203
 20
577.499822
 30
0.0
 40
0.306668
100
AcDbArc
 50
174.092723
 51
270.0
  0
LINE
  5
13A
100
AcDbEntity
  8
1
100
AcDbLine
 10
-433.619761
 20
578.649035
 30
0.0
 11
-433.619761
 21
579.970897
 31
0.0
  0
LINE
  5
13B
100
AcDbEntity
  8
1
100
AcDbLine
 10
-433.619761
 20
597.649035
 30
0.0
 11
-433.619761
 21
603.649035
 31
0.0
  0
LINE
  5
13C
100
AcDbEntity
  8
1
100
AcDbLine
 10
-429.828446
 20
533.649035
 30
0.0
 11
-429.828446
 21
581.005875
 31
0.0
  0
LINE
  5
13D
100
AcDbEntity
  8
1
100
AcDbLine
 10
-429.828446
 20
597.649035
 30
0.0
 11
-429.828446
 21
603.649035
 31
0.0
  0
LINE
  5
13E
100
AcDbEntity
  8
1
100
AcDbLine
 10
-403.328446
 20
590.149035
 30
0.0
 11
-403.328446
 21
595.149035
 31
0.0
  0
ARC
  5
13F
100
AcDbEntity
  8
1
100
AcDbCircle
 10
-405.828446
 20
595.149035
 30
0.0
 40
2.5
100
AcDbArc
 50
360.0
 51
90.0
  0
ARC
  5
140
100
AcDbEntity
  8
1
100
AcDbCircle
 10
-405.828446
 20
590.149035
 30
0.0
 40
2.5
100
AcDbArc
 50
278.246404
 51
0.0
  0
LINE
  5
141
100
AcDbEntity
  8
1
  6
DASHED
100
AcDbLine
 10
-467.747589
 20
578.649035
 30
0.0
 11
-467.747589
 21
597.649035
 31
0.0
  0
ARC
  5
142
100
AcDbEntity
  8
1
  6
DASHED
100
AcDbCircle
 10
-463.747589
 20
601.649035
 30
0.0
 40
4.0
100
AcDbArc
 50
180.0
 51
270.0
  0
LINE
  5
143
100
AcDbEntity
  8
1
100
AcDbLine
 10
-405.17007
 20
587.737285
 30
0.0
 11
-438.623084
 21
578.605056
 31
0.0
  0
LINE
  5
144
100
AcDbEntity
  8
1
100
AcDbLine
 10
164.771554
 20
-410.150965
 30
0.0
 11
175.771554
 21
-410.150965
 31
0.0
  0
LINE
  5
145
100
AcDbEntity
  8
1
100
AcDbLine
 10
164.771554
 20
-438.150965
 30
0.0
 11
175.771554
 21
-438.150965
 31
0.0
  0
LINE
  5
146
100
AcDbEntity
  8
1
100
AcDbLine
 10
178.493985
 20
-555.727674
 30
0.0
 11
178.493985
 21
-457.482253
 31
0.0
  0
LINE
  5
147
100
AcDbEntity
  8
1
100
AcDbLine
 10
178.493985
 20
-390.819676
 30
0.0
 11
178.493985
 21
-292.574255
 31
0.0
  0
LINE
  5
148
100
AcDbEntity
  8
1
100
AcDbLine
 10
162.049122
 20
-555.727674
 30
0.0
 11
162.049122
 21
-457.482253
 31
0.0
  0
LINE
  5
149
100
AcDbEntity
  8
1
100
AcDbLine
 10
162.049122
 20
-390.819676
 30
0.0
 11
162.049122
 21
-292.574255
 31
0.0
  0
ARC
  5
14A
100
AcDbEntity
  8
1
100
AcDbCircle
 10
175.771554
 20
-402.150965
 30
0.0
 40
8.0
100
AcDbArc
 50
270.0
 51
360.0
  0
ARC
  5
14B
100
AcDbEntity
  8
1
100
AcDbCircle
 10
164.771554
 20
-402.150965
 30
0.0
 40
8.0
100
AcDbArc
 50
180.0
 51
270.0
  0
ARC
  5
14C
100
AcDbEntity
  8
1
100
AcDbCircle
 10
164.771554
 20
-446.150965
 30
0.0
 40
8.0
100
AcDbArc
 50
90.0
 51
180.0
  0
ARC
  5
14D
100
AcDbEntity
  8
1
100
AcDbCircle
 10
175.771554
 20
-446.150965
 30
0.0
 40
8.0
100
AcDbArc
 50
0.0
 51
90.0
  0
LINE
  5
14E
100
AcDbEntity
  8
1
100
AcDbLine
 10
169.049122
 20
-397.819676
 30
0.0
 11
171.493985
 21
-397.819676
 31
0.0
  0
LINE
  5
14F
100
AcDbEntity
  8
1
100
AcDbLine
 10
169.049122
 20
-450.482253
 30
0.0
 11
171.493985
 21
-450.482253
 31
0.0
  0
LINE
  5
150
100
AcDbEntity
  8
1
100
AcDbLine
 10
178.493985
 20
-397.819676
 30
0.0
 11
181.203662
 21
-404.150965
 31
0.0
  0
LINE
  5
151
100
AcDbEntity
  8
1
100
AcDbLine
 10
162.049122
 20
-397.819676
 30
0.0
 11
159.339445
 21
-404.150965
 31
0.0
  0
LINE
  5
152
100
AcDbEntity
  8
1
100
AcDbLine
 10
178.493985
 20
-450.482253
 30
0.0
 11
181.203662
 21
-444.150965
 31
0.0
  0
LINE
  5
153
100
AcDbEntity
  8
1
100
AcDbLine
 10
159.339445
 20
-444.150965
 30
0.0
 11
162.049122
 21
-450.482253
 31
0.0
  0
ARC
  5
154
100
AcDbEntity
  8
1
100
AcDbCircle
 10
171.493985
 20
-390.819676
 30
0.0
 40
7.0
100
AcDbArc
 50
270.0
 51
360.0
  0
ARC
  5
155
100
AcDbEntity
  8
1
100
AcDbCircle
 10
169.049122
 20
-390.819676
 30
0.0
 40
7.0
100
AcDbArc
 50
180.0
 51
270.0
  0
ARC
  5
156
100
AcDbEntity
  8
1
100
AcDbCircle
 10
171.493985
 20
-457.482253
 30
0.0
 40
7.0
100
AcDbArc
 50
0.0
 51
90.0
  0
ARC
  5
157
100
AcDbEntity
  8
1
100
AcDbCircle
 10
169.049122
 20
-457.482253
 30
0.0
 40
7.0
100
AcDbArc
 50
90.0
 51
180.0
  0
ARC
  5
158
100
AcDbEntity
  8
1
100
AcDbCircle
 10
205.63094
 20
-383.128146
 30
0.0
 40
23.315268
100
AcDbArc
 50
159.645212
 51
180.0
  0
ARC
  5
159
100
AcDbEntity
  8
1
100
AcDbCircle
 10
195.93107
 20
-383.128146
 30
0.0
 40
13.615397
100
AcDbArc
 50
180.0
 51
206.73828
  0
ARC
  5
15A
100
AcDbEntity
  8
1
100
AcDbCircle
 10
134.912167
 20
-383.128146
 30
0.0
 40
23.315268
100
AcDbArc
 50
0.0
 51
20.354788
  0
ARC
  5
15B
100
AcDbEntity
  8
1
100
AcDbCircle
 10
144.612037
 20
-383.128146
 30
0.0
 40
13.615397
100
AcDbArc
 50
333.26172
 51
360.0
  0
LINE
  5
15C
100
AcDbEntity
  8
1
100
AcDbLine
 10
183.771554
 20
-402.150965
 30
0.0
 11
183.771554
 21
-389.253928
 31
0.0
  0
LINE
  5
15D
100
AcDbEntity
  8
1
100
AcDbLine
 10
138.771554
 20
-375.018342
 30
0.0
 11
156.771554
 21
-375.018342
 31
0.0
  0
LINE
  5
15E
100
AcDbEntity
  8
1
100
AcDbLine
 10
203.03161
 20
-375.018342
 30
0.0
 11
208.771554
 21
-375.018342
 31
0.0
  0
LINE
  5
15F
100
AcDbEntity
  8
1
100
AcDbLine
 10
156.771554
 20
-402.150965
 30
0.0
 11
156.771554
 21
-389.253928
 31
0.0
  0
LINE
  5
160
100
AcDbEntity
  8
1
100
AcDbLine
 10
138.771554
 20
-389.253928
 30
0.0
 11
156.771554
 21
-389.253928
 31
0.0
  0
LINE
  5
161
100
AcDbEntity
  8
1
100
AcDbLine
 10
183.771554
 20
-389.253928
 30
0.0
 11
208.771554
 21
-389.253928
 31
0.0
  0
ARC
  5
162
100
AcDbEntity
  8
1
100
AcDbCircle
 10
204.590442
 20
-312.07454
 30
0.0
 40
22.27477
100
AcDbArc
 50
159.170048
 51
180.0
  0
ARC
  5
163
100
AcDbEntity
  8
1
100
AcDbCircle
 10
135.952665
 20
-312.07454
 30
0.0
 40
22.27477
100
AcDbArc
 50
0.0
 51
20.829952
  0
LINE
  5
164
100
AcDbEntity
  8
1
100
AcDbLine
 10
183.771554
 20
-319.81564
 30
0.0
 11
183.771554
 21
-314.574902
 31
0.0
  0
LINE
  5
165
100
AcDbEntity
  8
1
100
AcDbLine
 10
183.771554
 20
-304.15373
 30
0.0
 11
183.771554
 21
-270.117501
 31
0.0
  0
LINE
  5
166
100
AcDbEntity
  8
1
100
AcDbLine
 10
156.771554
 20
-375.018342
 30
0.0
 11
156.771554
 21
-314.574902
 31
0.0
  0
LINE
  5
167
100
AcDbEntity
  8
1
100
AcDbLine
 10
156.771554
 20
-304.15373
 30
0.0
 11
156.771554
 21
-270.117501
 31
0.0
  0
LINE
  5
168
100
AcDbEntity
  8
1
100
AcDbLine
 10
138.771554
 20
-304.15373
 30
0.0
 11
156.771554
 21
-304.15373
 31
0.0
  0
LINE
  5
169
100
AcDbEntity
  8
1
100
AcDbLine
 10
183.771554
 20
-304.15373
 30
0.0
 11
208.771554
 21
-304.15373
 31
0.0
  0
ARC
  5
16A
100
AcDbEntity
  8
1
100
AcDbCircle
 10
185.190701
 20
-312.07454
 30
0.0
 40
2.875029
100
AcDbArc
 50
180.0
 51
240.421756
  0
ARC
  5
16B
100
AcDbEntity
  8
1
100
AcDbCircle
 10
155.352406
 20
-312.07454
 30
0.0
 40
2.875029
100
AcDbArc
 50
299.578244
 51
360.0
  0
LINE
  5
16C
100
AcDbEntity
  8
1
100
AcDbLine
 10
138.771554
 20
-314.574902
 30
0.0
 11
156.771554
 21
-314.574902
 31
0.0
  0
LINE
  5
16D
100
AcDbEntity
  8
1
100
AcDbLine
 10
183.771554
 20
-314.574902
 30
0.0
 11
208.771554
 21
-314.574902
 31
0.0
  0
LINE
  5
16E
100
AcDbEntity
  8
1
100
AcDbLine
 10
169.049122
 20
-285.574255
 30
0.0
 11
171.493985
 21
-285.574255
 31
0.0
  0
ARC
  5
16F
100
AcDbEntity
  8
1
100
AcDbCircle
 10
171.493985
 20
-292.574255
 30
0.0
 40
7.0
100
AcDbArc
 50
360.0
 51
90.0
  0
ARC
  5
170
100
AcDbEntity
  8
1
100
AcDbCircle
 10
169.049122
 20
-292.574255
 30
0.0
 40
7.0
100
AcDbArc
 50
90.0
 51
180.0
  0
LINE
  5
171
100
AcDbEntity
  8
1
100
AcDbLine
 10
169.049122
 20
-562.727674
 30
0.0
 11
171.493985
 21
-562.727674
 31
0.0
  0
ARC
  5
172
100
AcDbEntity
  8
1
100
AcDbCircle
 10
169.049122
 20
-555.727674
 30
0.0
 40
7.0
100
AcDbArc
 50
180.0
 51
270.0
  0
ARC
  5
173
100
AcDbEntity
  8
1
100
AcDbCircle
 10
171.493985
 20
-555.727674
 30
0.0
 40
7.0
100
AcDbArc
 50
270.0
 51
360.0
  0
ARC
  5
174
100
AcDbEntity
  8
1
100
AcDbCircle
 10
157.920767
 20
-271.051721
 30
0.0
 40
0.306668
100
AcDbArc
 50
264.092723
 51
360.0
  0
ARC
  5
175
100
AcDbEntity
  8
1
100
AcDbCircle
 10
158.017429
 20
-270.117501
 30
0.0
 40
1.245876
100
AcDbArc
 50
180.0
 51
264.092723
  0
ARC
  5
176
100
AcDbEntity
  8
1
100
AcDbCircle
 10
182.62234
 20
-271.051721
 30
0.0
 40
0.306668
100
AcDbArc
 50
180.0
 51
275.907277
  0
ARC
  5
177
100
AcDbEntity
  8
1
100
AcDbCircle
 10
182.525678
 20
-270.117501
 30
0.0
 40
1.245876
100
AcDbArc
 50
275.907277
 51
360.0
  0
LINE
  5
178
100
AcDbEntity
  8
1
100
AcDbLine
 10
138.771554
 20
-270.117501
 30
0.0
 11
156.771554
 21
-270.117501
 31
0.0
  0
LINE
  5
179
100
AcDbEntity
  8
1
100
AcDbLine
 10
183.771554
 20
-270.117501
 30
0.0
 11
208.771554
 21
-270.117501
 31
0.0
  0
ARC
  5
17A
100
AcDbEntity
  8
1
100
AcDbCircle
 10
206.771554
 20
-257.442279
 30
0.0
 40
8.0
100
AcDbArc
 50
180.0
 51
270.0
  0
ARC
  5
17B
100
AcDbEntity
  8
1
100
AcDbCircle
 10
137.771554
 20
-262.613852
 30
0.0
 40
3.0
100
AcDbArc
 50
289.471221
 51
360.0
  0
LINE
  5
17C
100
AcDbEntity
  8
1
100
AcDbLine
 10
198.771554
 20
-265.442279
 30
0.0
 11
140.771554
 21
-265.442279
 31
0.0
  0
LINE
  5
17D
100
AcDbEntity
  8
1
100
AcDbLine
 10
206.771554
 20
-265.442279
 30
0.0
 11
208.771554
 21
-265.442279
 31
0.0
  0
ARC
  5
17E
100
AcDbEntity
  8
1
100
AcDbCircle
 10
176.706231
 20
-271.051721
 30
0.0
 40
5.609442
100
AcDbArc
 50
0.0
 51
90.0
  0
ARC
  5
17F
100
AcDbEntity
  8
1
100
AcDbCircle
 10
163.836877
 20
-271.051721
 30
0.0
 40
5.609442
100
AcDbArc
 50
90.0
 51
180.0
  0
LINE
  5
180
100
AcDbEntity
  8
1
100
AcDbLine
 10
181.250823
 20
-271.051721
 30
0.0
 11
178.493985
 21
-285.574255
 31
0.0
  0
LINE
  5
181
100
AcDbEntity
  8
1
100
AcDbLine
 10
159.292285
 20
-271.051721
 30
0.0
 11
162.049122
 21
-285.574255
 31
0.0
  0
ARC
  5
182
100
AcDbEntity
  8
1
100
AcDbCircle
 10
205.63094
 20
-465.173783
 30
0.0
 40
23.315268
100
AcDbArc
 50
180.0
 51
200.354788
  0
ARC
  5
183
100
AcDbEntity
  8
1
100
AcDbCircle
 10
195.93107
 20
-465.173783
 30
0.0
 40
13.615397
100
AcDbArc
 50
153.26172
 51
180.0
  0
ARC
  5
184
100
AcDbEntity
  8
1
100
AcDbCircle
 10
134.912167
 20
-465.173783
 30
0.0
 40
23.315268
100
AcDbArc
 50
339.645212
 51
360.0
  0
ARC
  5
185
100
AcDbEntity
  8
1
100
AcDbCircle
 10
144.612037
 20
-465.173783
 30
0.0
 40
13.615397
100
AcDbArc
 50
0.0
 51
26.73828
  0
LINE
  5
186
100
AcDbEntity
  8
1
100
AcDbLine
 10
183.771554
 20
-446.150965
 30
0.0
 11
183.771554
 21
-459.048001
 31
0.0
  0
LINE
  5
187
100
AcDbEntity
  8
1
100
AcDbLine
 10
138.771554
 20
-473.283587
 30
0.0
 11
156.771554
 21
-473.283587
 31
0.0
  0
LINE
  5
188
100
AcDbEntity
  8
1
100
AcDbLine
 10
203.03161
 20
-473.283587
 30
0.0
 11
208.771554
 21
-473.283587
 31
0.0
  0
LINE
  5
189
100
AcDbEntity
  8
1
100
AcDbLine
 10
156.771554
 20
-446.150965
 30
0.0
 11
156.771554
 21
-459.048001
 31
0.0
  0
LINE
  5
18A
100
AcDbEntity
  8
1
100
AcDbLine
 10
138.771554
 20
-459.048001
 30
0.0
 11
156.771554
 21
-459.048001
 31
0.0
  0
LINE
  5
18B
100
AcDbEntity
  8
1
100
AcDbLine
 10
183.771554
 20
-459.048001
 30
0.0
 11
208.771554
 21
-459.048001
 31
0.0
  0
ARC
  5
18C
100
AcDbEntity
  8
1
100
AcDbCircle
 10
204.590442
 20
-536.22739
 30
0.0
 40
22.27477
100
AcDbArc
 50
180.0
 51
200.829952
  0
ARC
  5
18D
100
AcDbEntity
  8
1
100
AcDbCircle
 10
135.952665
 20
-536.22739
 30
0.0
 40
22.27477
100
AcDbArc
 50
339.170048
 51
360.0
  0
LINE
  5
18E
100
AcDbEntity
  8
1
100
AcDbLine
 10
183.771554
 20
-528.486289
 30
0.0
 11
183.771554
 21
-533.727028
 31
0.0
  0
LINE
  5
18F
100
AcDbEntity
  8
1
100
AcDbLine
 10
183.771554
 20
-544.1482
 30
0.0
 11
183.771554
 21
-578.184429
 31
0.0
  0
LINE
  5
190
100
AcDbEntity
  8
1
100
AcDbLine
 10
156.771554
 20
-473.283587
 30
0.0
 11
156.771554
 21
-533.727028
 31
0.0
  0
LINE
  5
191
100
AcDbEntity
  8
1
100
AcDbLine
 10
156.771554
 20
-544.1482
 30
0.0
 11
156.771554
 21
-578.184429
 31
0.0
  0
LINE
  5
192
100
AcDbEntity
  8
1
100
AcDbLine
 10
138.771554
 20
-544.1482
 30
0.0
 11
156.771554
 21
-544.1482
 31
0.0
  0
LINE
  5
193
100
AcDbEntity
  8
1
100
AcDbLine
 10
183.771554
 20
-544.1482
 30
0.0
 11
208.771554
 21
-544.1482
 31
0.0
  0
ARC
  5
194
100
AcDbEntity
  8
1
100
AcDbCircle
 10
185.190701
 20
-536.22739
 30
0.0
 40
2.875029
100
AcDbArc
 50
119.578244
 51
180.0
  0
ARC
  5
195
100
AcDbEntity
  8
1
100
AcDbCircle
 10
155.352406
 20
-536.22739
 30
0.0
 40
2.875029
100
AcDbArc
 50
0.0
 51
60.421756
  0
LINE
  5
196
100
AcDbEntity
  8
1
100
AcDbLine
 10
138.771554
 20
-533.727028
 30
0.0
 11
156.771554
 21
-533.727028
 31
0.0
  0
LINE
  5
197
100
AcDbEntity
  8
1
100
AcDbLine
 10
183.771554
 20
-533.727028
 30
0.0
 11
208.771554
 21
-533.727028
 31
0.0
  0
ARC
  5
198
100
AcDbEntity
  8
1
100
AcDbCircle
 10
157.920767
 20
-577.250208
 30
0.0
 40
0.306668
100
AcDbArc
 50
0.0
 51
95.907277
  0
ARC
  5
199
100
AcDbEntity
  8
1
100
AcDbCircle
 10
158.017429
 20
-578.184429
 30
0.0
 40
1.245876
100
AcDbArc
 50
95.907277
 51
180.0
  0
ARC
  5
19A
100
AcDbEntity
  8
1
100
AcDbCircle
 10
182.62234
 20
-577.250208
 30
0.0
 40
0.306668
100
AcDbArc
 50
84.092723
 51
180.0
  0
ARC
  5
19B
100
AcDbEntity
  8
1
100
AcDbCircle
 10
182.525678
 20
-578.184429
 30
0.0
 40
1.245876
100
AcDbArc
 50
0.0
 51
84.092723
  0
LINE
  5
19C
100
AcDbEntity
  8
1
100
AcDbLine
 10
138.771554
 20
-578.184429
 30
0.0
 11
156.771554
 21
-578.184429
 31
0.0
  0
LINE
  5
19D
100
AcDbEntity
  8
1
100
AcDbLine
 10
183.771554
 20
-578.184429
 30
0.0
 11
208.771554
 21
-578.184429
 31
0.0
  0
LINE
  5
19E
100
AcDbEntity
  8
1
100
AcDbLine
 10
200.771554
 20
-582.85965
 30
0.0
 11
140.771554
 21
-582.85965
 31
0.0
  0
ARC
  5
19F
100
AcDbEntity
  8
1
100
AcDbCircle
 10
176.706231
 20
-577.250208
 30
0.0
 40
5.609442
100
AcDbArc
 50
270.0
 51
360.0
  0
ARC
  5
1A0
100
AcDbEntity
  8
1
100
AcDbCircle
 10
163.836877
 20
-577.250208
 30
0.0
 40
5.609442
100
AcDbArc
 50
180.0
 51
270.0
  0
LINE
  5
1A1
100
AcDbEntity
  8
1
100
AcDbLine
 10
181.250823
 20
-577.250208
 30
0.0
 11
178.493985
 21
-562.727674
 31
0.0
  0
LINE
  5
1A2
100
AcDbEntity
  8
1
100
AcDbLine
 10
159.292285
 20
-577.250208
 30
0.0
 11
162.049122
 21
-562.727674
 31
0.0
  0
ARC
  5
1A3
100
AcDbEntity
  8
1
100
AcDbCircle
 10
208.771554
 20
-590.85965
 30
0.0
 40
8.0
100
AcDbArc
 50
90.0
 51
180.0
  0
ARC
  5
1A4
100
AcDbEntity
  8
1
100
AcDbCircle
 10
137.771554
 20
-585.688077
 30
0.0
 40
3.0
100
AcDbArc
 50
0.0
 51
70.528779
  0
LINE
  5
1A5
100
AcDbEntity
  8
1
100
AcDbLine
 10
183.771554
 20
-319.81564
 30
0.0
 11
202.771554
 21
-319.81564
 31
0.0
  0
LINE
  5
1A6
100
AcDbEntity
  8
1
100
AcDbLine
 10
202.771554
 20
-323.81564
 30
0.0
 11
202.771554
 21
-373.599602
 31
0.0
  0
LINE
  5
1A7
100
AcDbEntity
  8
1
100
AcDbLine
 10
192.771554
 20
-343.025781
 30
0.0
 11
192.771554
 21
-359.050281
 31
0.0
  0
LINE
  5
1A8
100
AcDbEntity
  8
1
100
AcDbLine
 10
195.271554
 20
-340.525781
 30
0.0
 11
200.271554
 21
-340.525781
 31
0.0
  0
LINE
  5
1A9
100
AcDbEntity
  8
1
100
AcDbLine
 10
195.271554
 20
-361.550281
 30
0.0
 11
200.271554
 21
-361.550281
 31
0.0
  0
ARC
  5
1AA
100
AcDbEntity
  8
1
100
AcDbCircle
 10
195.271554
 20
-343.025781
 30
0.0
 40
2.5
100
AcDbArc
 50
90.0
 51
180.0
  0
ARC
  5
1AB
100
AcDbEntity
  8
1
100
AcDbCircle
 10
200.271554
 20
-343.025781
 30
0.0
 40
2.5
100
AcDbArc
 50
0.0
 51
90.0
  0
ARC
  5
1AC
100
AcDbEntity
  8
1
100
AcDbCircle
 10
195.271554
 20
-359.050281
 30
0.0
 40
2.5
100
AcDbArc
 50
180.0
 51
270.0
  0
ARC
  5
1AD
100
AcDbEntity
  8
1
100
AcDbCircle
 10
200.271554
 20
-359.050281
 30
0.0
 40
2.5
100
AcDbArc
 50
270.0
 51
360.0
  0
LINE
  5
1AE
100
AcDbEntity
  8
1
100
AcDbLine
 10
192.771554
 20
-340.525781
 30
0.0
 11
183.771554
 21
-319.81564
 31
0.0
  0
ARC
  5
1AF
100
AcDbEntity
  8
1
100
AcDbCircle
 10
206.771554
 20
-323.81564
 30
0.0
 40
4.0
100
AcDbArc
 50
90.0
 51
180.0
  0
LINE
  5
1B0
100
AcDbEntity
  8
1
100
AcDbLine
 10
183.771554
 20
-377.599602
 30
0.0
 11
202.771554
 21
-377.599602
 31
0.0
  0
ARC
  5
1B1
100
AcDbEntity
  8
1
100
AcDbCircle
 10
206.771554
 20
-373.599602
 30
0.0
 40
4.0
100
AcDbArc
 50
180.0
 51
270.0
  0
LINE
  5
1B2
100
AcDbEntity
  8
1
100
AcDbLine
 10
185.808941
 20
-371.969491
 30
0.0
 11
183.771554
 21
-375.018342
 31
0.0
  0
LINE
  5
1B3
100
AcDbEntity
  8
1
100
AcDbLine
 10
185.808941
 20
-371.969491
 30
0.0
 11
200.271554
 21
-371.969491
 31
0.0
  0
LINE
  5
1B4
100
AcDbEntity
  8
1
100
AcDbLine
 10
189.027344
 20
-365.649245
 30
0.0
 11
200.271554
 21
-365.649245
 31
0.0
  0
ARC
  5
1B5
100
AcDbEntity
  8
1
100
AcDbCircle
 10
200.271554
 20
-363.149245
 30
0.0
 40
2.5
100
AcDbArc
 50
270.0
 51
360.0
  0
ARC
  5
1B6
100
AcDbEntity
  8
1
100
AcDbCircle
 10
200.271554
 20
-369.469491
 30
0.0
 40
2.5
100
AcDbArc
 50
270.0
 51
360.0
  0
LINE
  5
1B7
100
AcDbEntity
  8
1
100
AcDbLine
 10
183.771554
 20
-528.486289
 30
0.0
 11
202.771554
 21
-528.486289
 31
0.0
  0
LINE
  5
1B8
100
AcDbEntity
  8
1
100
AcDbLine
 10
202.771554
 20
-524.486289
 30
0.0
 11
202.771554
 21
-474.702328
 31
0.0
  0
LINE
  5
1B9
100
AcDbEntity
  8
1
100
AcDbLine
 10
192.771554
 20
-505.276149
 30
0.0
 11
192.771554
 21
-489.251648
 31
0.0
  0
LINE
  5
1BA
100
AcDbEntity
  8
1
100
AcDbLine
 10
195.271554
 20
-507.776149
 30
0.0
 11
200.271554
 21
-507.776149
 31
0.0
  0
LINE
  5
1BB
100
AcDbEntity
  8
1
100
AcDbLine
 10
195.271554
 20
-486.751648
 30
0.0
 11
200.271554
 21
-486.751648
 31
0.0
  0
ARC
  5
1BC
100
AcDbEntity
  8
1
100
AcDbCircle
 10
195.271554
 20
-505.276149
 30
0.0
 40
2.5
100
AcDbArc
 50
180.0
 51
270.0
  0
ARC
  5
1BD
100
AcDbEntity
  8
1
100
AcDbCircle
 10
200.271554
 20
-505.276149
 30
0.0
 40
2.5
100
AcDbArc
 50
270.0
 51
360.0
  0
ARC
  5
1BE
100
AcDbEntity
  8
1
100
AcDbCircle
 10
195.271554
 20
-489.251648
 30
0.0
 40
2.5
100
AcDbArc
 50
90.0
 51
180.0
  0
ARC
  5
1BF
100
AcDbEntity
  8
1
100
AcDbCircle
 10
200.271554
 20
-489.251648
 30
0.0
 40
2.5
100
AcDbArc
 50
0.0
 51
90.0
  0
LINE
  5
1C0
100
AcDbEntity
  8
1
100
AcDbLine
 10
192.771554
 20
-507.776149
 30
0.0
 11
183.771554
 21
-528.486289
 31
0.0
  0
ARC
  5
1C1
100
AcDbEntity
  8
1
100
AcDbCircle
 10
206.771554
 20
-524.486289
 30
0.0
 40
4.0
100
AcDbArc
 50
180.0
 51
270.0
  0
LINE
  5
1C2
100
AcDbEntity
  8
1
100
AcDbLine
 10
183.771554
 20
-470.702328
 30
0.0
 11
202.771554
 21
-470.702328
 31
0.0
  0
ARC
  5
1C3
100
AcDbEntity
  8
1
100
AcDbCircle
 10
206.771554
 20
-474.702328
 30
0.0
 40
4.0
100
AcDbArc
 50
90.0
 51
180.0
  0
ARC
  5
1C4
100
AcDbEntity
  8
1
100
AcDbCircle
 10
200.271554
 20
-485.152684
 30
0.0
 40
2.5
100
AcDbArc
 50
0.0
 51
90.0
  0
ARC
  5
1C5
100
AcDbEntity
  8
1
100
AcDbCircle
 10
200.271554
 20
-478.832439
 30
0.0
 40
2.5
100
AcDbArc
 50
0.0
 51
90.0
  0
LINE
  5
1C6
100
AcDbEntity
  8
1
100
AcDbLine
 10
140.771554
 20
-240.005526
 30
0.0
 11
198.771554
 21
-240.005526
 31
0.0
  0
LINE
  5
1C7
100
AcDbEntity
  8
1
100
AcDbLine
 10
140.771554
 20
-248.156751
 30
0.0
 11
198.771554
 21
-248.156751
 31
0.0
  0
LINE
  5
1C8
100
AcDbEntity
  8
1
100
AcDbLine
 10
163.771554
 20
-228.242108
 30
0.0
 11
173.771554
 21
-228.242108
 31
0.0
  0
LINE
  5
1C9
100
AcDbEntity
  8
1
100
AcDbLine
 10
166.271554
 20
-201.500979
 30
0.0
 11
171.271554
 21
-201.500979
 31
0.0
  0
LINE
  5
1CA
100
AcDbEntity
  8
1
100
AcDbLine
 10
166.271554
 20
-219.288702
 30
0.0
 11
171.271554
 21
-219.288702
 31
0.0
  0
LINE
  5
1CB
100
AcDbEntity
  8
1
100
AcDbLine
 10
163.771554
 20
-191.593057
 30
0.0
 11
173.771554
 21
-191.593057
 31
0.0
  0
LINE
  5
1CC
100
AcDbEntity
  8
1
100
AcDbLine
 10
163.771554
 20
-196.593057
 30
0.0
 11
163.771554
 21
-223.242108
 31
0.0
  0
LINE
  5
1CD
100
AcDbEntity
  8
1
100
AcDbLine
 10
173.771554
 20
-196.593057
 30
0.0
 11
173.771554
 21
-223.242108
 31
0.0
  0
ARC
  5
1CE
100
AcDbEntity
  8
1
100
AcDbCircle
 10
178.771554
 20
-196.593057
 30
0.0
 40
5.0
100
AcDbArc
 50
90.0
 51
180.0
  0
ARC
  5
1CF
100
AcDbEntity
  8
1
100
AcDbCircle
 10
158.771554
 20
-196.593057
 30
0.0
 40
5.0
100
AcDbArc
 50
0.0
 51
90.0
  0
ARC
  5
1D0
100
AcDbEntity
  8
1
100
AcDbCircle
 10
178.771554
 20
-223.242108
 30
0.0
 40
5.0
100
AcDbArc
 50
180.0
 51
270.0
  0
ARC
  5
1D1
100
AcDbEntity
  8
1
100
AcDbCircle
 10
158.771554
 20
-223.242108
 30
0.0
 40
5.0
100
AcDbArc
 50
270.0
 51
360.0
  0
ARC
  5
1D2
100
AcDbEntity
  8
1
100
AcDbCircle
 10
171.271554
 20
-204.000979
 30
0.0
 40
2.5
100
AcDbArc
 50
0.0
 51
90.0
  0
ARC
  5
1D3
100
AcDbEntity
  8
1
100
AcDbCircle
 10
166.271554
 20
-204.000979
 30
0.0
 40
2.5
100
AcDbArc
 50
90.0
 51
180.0
  0
ARC
  5
1D4
100
AcDbEntity
  8
1
100
AcDbCircle
 10
166.271554
 20
-216.788702
 30
0.0
 40
2.5
100
AcDbArc
 50
180.0
 51
270.0
  0
ARC
  5
1D5
100
AcDbEntity
  8
1
100
AcDbCircle
 10
171.271554
 20
-216.788702
 30
0.0
 40
2.5
100
AcDbArc
 50
270.0
 51
0.0
  0
LINE
  5
1D6
100
AcDbEntity
  8
1
100
AcDbLine
 10
140.771554
 20
-194.150965
 30
0.0
 11
163.134601
 21
-194.150965
 31
0.0
  0
LINE
  5
1D7
100
AcDbEntity
  8
1
100
AcDbLine
 10
174.408506
 20
-194.150965
 30
0.0
 11
198.771554
 21
-194.150965
 31
0.0
  0
LINE
  5
1D8
100
AcDbEntity
  8
1
100
AcDbLine
 10
140.771554
 20
-600.145178
 30
0.0
 11
200.771554
 21
-600.145178
 31
0.0
  0
LINE
  5
1D9
100
AcDbEntity
  8
1
100
AcDbLine
 10
140.771554
 20
-625.948128
 30
0.0
 11
200.771554
 21
-625.948128
 31
0.0
  0
LINE
  5
1DA
100
AcDbEntity
  8
1
100
AcDbLine
 10
192.771554
 20
-361.550281
 30
0.0
 11
191.294959
 21
-361.550281
 31
0.0
  0
ARC
  5
1DB
100
AcDbEntity
  8
1
100
AcDbCircle
 10
191.294959
 20
-362.63547
 30
0.0
 40
1.085189
100
AcDbArc
 50
90.0
 51
153.013848
  0
ARC
  5
1DC
100
AcDbEntity
  8
1
100
AcDbCircle
 10
200.19454
 20
-375.315378
 30
0.0
 40
14.769577
100
AcDbArc
 50
139.121098
 51
166.906597
  0
ARC
  5
1DD
100
AcDbEntity
  8
1
100
AcDbCircle
 10
204.749972
 20
-369.487046
 30
0.0
 40
16.184244
100
AcDbArc
 50
153.013848
 51
166.282674
  0
LINE
  5
1DE
100
AcDbEntity
  8
1
100
AcDbLine
 10
185.808941
 20
-476.332439
 30
0.0
 11
183.771554
 21
-473.283587
 31
0.0
  0
LINE
  5
1DF
100
AcDbEntity
  8
1
100
AcDbLine
 10
185.808941
 20
-476.332439
 30
0.0
 11
200.271554
 21
-476.332439
 31
0.0
  0
LINE
  5
1E0
100
AcDbEntity
  8
1
100
AcDbLine
 10
189.027344
 20
-482.652684
 30
0.0
 11
200.271554
 21
-482.652684
 31
0.0
  0
LINE
  5
1E1
100
AcDbEntity
  8
1
100
AcDbLine
 10
192.771554
 20
-486.751648
 30
0.0
 11
191.294959
 21
-486.751648
 31
0.0
  0
ARC
  5
1E2
100
AcDbEntity
  8
1
100
AcDbCircle
 10
191.294959
 20
-485.666459
 30
0.0
 40
1.085189
100
AcDbArc
 50
206.986152
 51
270.0
  0
ARC
  5
1E3
100
AcDbEntity
  8
1
100
AcDbCircle
 10
200.19454
 20
-472.986551
 30
0.0
 40
14.769577
100
AcDbArc
 50
193.093403
 51
220.878902
  0
ARC
  5
1E4
100
AcDbEntity
  8
1
100
AcDbCircle
 10
204.749972
 20
-478.814883
 30
0.0
 40
16.184244
100
AcDbArc
 50
193.717326
 51
206.986152
  0
LINE
  5
1E5
100
AcDbEntity
  8
1
100
AcDbLine
 10
-622.328446
 20
-646.150965
 30
0.0
 11
-562.328446
 21
-646.150965
 31
0.0
  0
LINE
  5
1E6
100
AcDbEntity
  8
1
100
AcDbLine
 10
-622.328446
 20
-644.150965
 30
0.0
 11
-622.328446
 21
-652.150965
 31
0.0
  0
LINE
  5
1E7
100
AcDbEntity
  8
1
100
AcDbLine
 10
-562.328446
 20
-644.150965
 30
0.0
 11
-562.328446
 21
-652.150965
 31
0.0
  0
LINE
  5
1E8
100
AcDbEntity
  8
1
100
AcDbLine
 10
-622.328446
 20
-652.150965
 30
0.0
 11
-562.328446
 21
-652.150965
 31
0.0
  0
LINE
  5
1E9
100
AcDbEntity
  8
1
100
AcDbLine
 10
140.771554
 20
-646.150965
 30
0.0
 11
200.771554
 21
-646.150965
 31
0.0
  0
LINE
  5
1EA
100
AcDbEntity
  8
1
100
AcDbLine
 10
140.771554
 20
-652.150965
 30
0.0
 11
200.771554
 21
-652.150965
 31
0.0
  0
LINE
  5
1EB
100
AcDbEntity
  8
1
100
AcDbLine
 10
-563.828446
 20
-654.150965
 30
0.0
 11
-563.828446
 21
-658.929277
 31
0.0
  0
LINE
  5
1EC
100
AcDbEntity
  8
1
100
AcDbLine
 10
-563.828446
 20
-658.929277
 30
0.0
 11
-565.078446
 21
-659.650965
 31
0.0
  0
LINE
  5
1ED
100
AcDbEntity
  8
1
100
AcDbLine
 10
-567.578446
 20
-654.150965
 30
0.0
 11
-567.578446
 21
-658.929277
 31
0.0
  0
ARC
  5
1EE
100
AcDbEntity
  8
1
100
AcDbCircle
 10
-565.703446
 20
-656.518901
 30
0.0
 40
3.053774
100
AcDbArc
 50
232.121121
 51
307.878879
  0
ARC
  5
1EF
100
AcDbEntity
  8
1
100
AcDbCircle
 10
-571.328446
 20
-648.322675
 30
0.0
 40
11.25
100
AcDbArc
 50
250.528777
 51
289.471219
  0
LINE
  5
1F0
100
AcDbEntity
  8
1
100
AcDbLine
 10
-578.828446
 20
-654.150965
 30
0.0
 11
-578.828446
 21
-658.929277
 31
0.0
  0
LINE
  5
1F1
100
AcDbEntity
  8
1
100
AcDbLine
 10
-578.828446
 20
-658.929277
 30
0.0
 11
-577.578446
 21
-659.650965
 31
0.0
  0
LINE
  5
1F2
100
AcDbEntity
  8
1
100
AcDbLine
 10
-577.578446
 20
-659.650965
 30
0.0
 11
-565.078446
 21
-659.650965
 31
0.0
  0
LINE
  5
1F3
100
AcDbEntity
  8
1
100
AcDbLine
 10
-575.078446
 20
-654.150965
 30
0.0
 11
-575.078446
 21
-658.929277
 31
0.0
  0
ARC
  5
1F4
100
AcDbEntity
  8
1
100
AcDbCircle
 10
-576.953446
 20
-656.518901
 30
0.0
 40
3.053774
100
AcDbArc
 50
232.121121
 51
307.878879
  0
LINE
  5
1F5
100
AcDbEntity
  8
1
100
AcDbLine
 10
-563.628446
 20
-652.150965
 30
0.0
 11
-563.628446
 21
-654.150965
 31
0.0
  0
LINE
  5
1F6
100
AcDbEntity
  8
1
100
AcDbLine
 10
-563.628446
 20
-654.150965
 30
0.0
 11
-579.028446
 21
-654.150965
 31
0.0
  0
LINE
  5
1F7
100
AcDbEntity
  8
1
100
AcDbLine
 10
-579.028446
 20
-654.150965
 30
0.0
 11
-579.028446
 21
-652.150965
 31
0.0
  0
LINE
  5
1F8
100
AcDbEntity
  8
1
100
AcDbLine
 10
-571.328446
 20
-654.150965
 30
0.0
 11
-571.828446
 21
-652.150965
 31
0.0
  0
LINE
  5
1F9
100
AcDbEntity
  8
1
100
AcDbLine
 10
-571.328446
 20
-652.150965
 30
0.0
 11
-570.828446
 21
-654.150965
 31
0.0
  0
LINE
  5
1FA
100
AcDbEntity
  8
1
100
AcDbLine
 10
-605.828446
 20
-654.150965
 30
0.0
 11
-605.828446
 21
-658.929277
 31
0.0
  0
LINE
  5
1FB
100
AcDbEntity
  8
1
100
AcDbLine
 10
-605.828446
 20
-658.929277
 30
0.0
 11
-607.078446
 21
-659.650965
 31
0.0
  0
LINE
  5
1FC
100
AcDbEntity
  8
1
100
AcDbLine
 10
-609.578446
 20
-654.150965
 30
0.0
 11
-609.578446
 21
-658.929277
 31
0.0
  0
ARC
  5
1FD
100
AcDbEntity
  8
1
100
AcDbCircle
 10
-607.703446
 20
-656.518901
 30
0.0
 40
3.053774
100
AcDbArc
 50
232.121121
 51
307.878879
  0
ARC
  5
1FE
100
AcDbEntity
  8
1
100
AcDbCircle
 10
-613.328446
 20
-648.322675
 30
0.0
 40
11.25
100
AcDbArc
 50
250.528777
 51
289.471219
  0
LINE
  5
1FF
100
AcDbEntity
  8
1
100
AcDbLine
 10
-620.828446
 20
-654.150965
 30
0.0
 11
-620.828446
 21
-658.929277
 31
0.0
  0
LINE
  5
200
100
AcDbEntity
  8
1
100
AcDbLine
 10
-620.828446
 20
-658.929277
 30
0.0
 11
-619.578446
 21
-659.650965
 31
0.0
  0
LINE
  5
201
100
AcDbEntity
  8
1
100
AcDbLine
 10
-619.578446
 20
-659.650965
 30
0.0
 11
-607.078446
 21
-659.650965
 31
0.0
  0
LINE
  5
202
100
AcDbEntity
  8
1
100
AcDbLine
 10
-617.078446
 20
-654.150965
 30
0.0
 11
-617.078446
 21
-658.929277
 31
0.0
  0
ARC
  5
203
100
AcDbEntity
  8
1
100
AcDbCircle
 10
-618.953446
 20
-656.518901
 30
0.0
 40
3.053774
100
AcDbArc
 50
232.121121
 51
307.878879
  0
LINE
  5
204
100
AcDbEntity
  8
1
100
AcDbLine
 10
-605.628446
 20
-652.150965
 30
0.0
 11
-605.628446
 21
-654.150965
 31
0.0
  0
LINE
  5
205
100
AcDbEntity
  8
1
100
AcDbLine
 10
-605.628446
 20
-654.150965
 30
0.0
 11
-621.028446
 21
-654.150965
 31
0.0
  0
LINE
  5
206
100
AcDbEntity
  8
1
100
AcDbLine
 10
-621.028446
 20
-654.150965
 30
0.0
 11
-621.028446
 21
-652.150965
 31
0.0
  0
LINE
  5
207
100
AcDbEntity
  8
1
100
AcDbLine
 10
-613.328446
 20
-654.150965
 30
0.0
 11
-613.828446
 21
-652.150965
 31
0.0
  0
LINE
  5
208
100
AcDbEntity
  8
1
100
AcDbLine
 10
-613.328446
 20
-652.150965
 30
0.0
 11
-612.828446
 21
-654.150965
 31
0.0
  0
LINE
  5
209
100
AcDbEntity
  8
1
100
AcDbLine
 10
198.271554
 20
-654.150965
 30
0.0
 11
198.271554
 21
-659.650965
 31
0.0
  0
ARC
  5
20A
100
AcDbEntity
  8
1
100
AcDbCircle
 10
195.021554
 20
-651.972206
 30
0.0
 40
7.678759
100
AcDbArc
 50
244.96034
 51
295.03966
  0
LINE
  5
20B
100
AcDbEntity
  8
1
100
AcDbLine
 10
185.271554
 20
-654.150965
 30
0.0
 11
185.271554
 21
-659.650965
 31
0.0
  0
LINE
  5
20C
100
AcDbEntity
  8
1
100
AcDbLine
 10
185.271554
 20
-659.650965
 30
0.0
 11
198.271554
 21
-659.650965
 31
0.0
  0
LINE
  5
20D
100
AcDbEntity
  8
1
100
AcDbLine
 10
191.771554
 20
-654.150965
 30
0.0
 11
191.771554
 21
-658.929277
 31
0.0
  0
ARC
  5
20E
100
AcDbEntity
  8
1
100
AcDbCircle
 10
188.521554
 20
-651.972206
 30
0.0
 40
7.678759
100
AcDbArc
 50
244.96034
 51
295.03966
  0
LINE
  5
20F
100
AcDbEntity
  8
1
100
AcDbLine
 10
199.471554
 20
-652.150965
 30
0.0
 11
199.471554
 21
-654.150965
 31
0.0
  0
LINE
  5
210
100
AcDbEntity
  8
1
100
AcDbLine
 10
199.471554
 20
-654.150965
 30
0.0
 11
184.071554
 21
-654.150965
 31
0.0
  0
LINE
  5
211
100
AcDbEntity
  8
1
100
AcDbLine
 10
184.071554
 20
-654.150965
 30
0.0
 11
184.071554
 21
-652.150965
 31
0.0
  0
LINE
  5
212
100
AcDbEntity
  8
1
100
AcDbLine
 10
156.271554
 20
-654.150965
 30
0.0
 11
156.271554
 21
-659.650965
 31
0.0
  0
ARC
  5
213
100
AcDbEntity
  8
1
100
AcDbCircle
 10
153.021554
 20
-651.972206
 30
0.0
 40
7.678759
100
AcDbArc
 50
244.96034
 51
295.03966
  0
LINE
  5
214
100
AcDbEntity
  8
1
100
AcDbLine
 10
143.271554
 20
-654.150965
 30
0.0
 11
143.271554
 21
-659.650965
 31
0.0
  0
LINE
  5
215
100
AcDbEntity
  8
1
100
AcDbLine
 10
143.271554
 20
-659.650965
 30
0.0
 11
156.271554
 21
-659.650965
 31
0.0
  0
LINE
  5
216
100
AcDbEntity
  8
1
100
AcDbLine
 10
149.771554
 20
-654.150965
 30
0.0
 11
149.771554
 21
-658.929277
 31
0.0
  0
ARC
  5
217
100
AcDbEntity
  8
1
100
AcDbCircle
 10
146.521554
 20
-651.972206
 30
0.0
 40
7.678759
100
AcDbArc
 50
244.96034
 51
295.03966
  0
LINE
  5
218
100
AcDbEntity
  8
1
100
AcDbLine
 10
157.471554
 20
-652.150965
 30
0.0
 11
157.471554
 21
-654.150965
 31
0.0
  0
LINE
  5
219
100
AcDbEntity
  8
1
100
AcDbLine
 10
157.471554
 20
-654.150965
 30
0.0
 11
142.071554
 21
-654.150965
 31
0.0
  0
LINE
  5
21A
100
AcDbEntity
  8
1
100
AcDbLine
 10
142.071554
 20
-654.150965
 30
0.0
 11
142.071554
 21
-652.150965
 31
0.0
  0
LINE
  5
21B
100
AcDbEntity
  8
1
  6
CENTER
 62
     2
100
AcDbLine
 10
218.271554
 20
-123.819956
 30
0.0
 11
218.271554
 21
-173.78293
 31
0.0
  0
LINE
  5
21C
100
AcDbEntity
  8
1
  6
CENTER
 62
     2
100
AcDbLine
 10
119.271554
 20
-123.819956
 30
0.0
 11
119.271554
 21
-173.78293
 31
0.0
  0
LINE
  5
21D
100
AcDbEntity
  8
1
100
AcDbLine
 10
-602.128446
 20
-124.550965
 30
0.0
 11
-602.128446
 21
-117.445858
 31
0.0
  0
LINE
  5
21E
100
AcDbEntity
  8
1
100
AcDbLine
 10
-602.128446
 20
-117.445858
 30
0.0
 11
-600.578446
 21
-116.550965
 31
0.0
  0
LINE
  5
21F
100
AcDbEntity
  8
1
100
AcDbLine
 10
-600.578446
 20
-116.550965
 30
0.0
 11
-584.078446
 21
-116.550965
 31
0.0
  0
LINE
  5
220
100
AcDbEntity
  8
1
100
AcDbLine
 10
-597.228446
 20
-124.550965
 30
0.0
 11
-597.228446
 21
-117.445858
 31
0.0
  0
ARC
  5
221
100
AcDbEntity
  8
1
100
AcDbCircle
 10
-599.678446
 20
-120.595416
 30
0.0
 40
3.990265
100
AcDbArc
 50
52.121121
 51
127.878879
  0
LINE
  5
222
100
AcDbEntity
  8
1
100
AcDbLine
 10
-582.528446
 20
-124.550965
 30
0.0
 11
-582.528446
 21
-117.445858
 31
0.0
  0
LINE
  5
223
100
AcDbEntity
  8
1
100
AcDbLine
 10
-582.528446
 20
-117.445858
 30
0.0
 11
-584.078446
 21
-116.550965
 31
0.0
  0
LINE
  5
224
100
AcDbEntity
  8
1
100
AcDbLine
 10
-587.428446
 20
-124.550965
 30
0.0
 11
-587.428446
 21
-117.445858
 31
0.0
  0
ARC
  5
225
100
AcDbEntity
  8
1
100
AcDbCircle
 10
-584.978446
 20
-120.595416
 30
0.0
 40
3.990265
100
AcDbArc
 50
52.121121
 51
127.878879
  0
ARC
  5
226
100
AcDbEntity
  8
1
100
AcDbCircle
 10
-592.328446
 20
-131.305151
 30
0.0
 40
14.7
100
AcDbArc
 50
70.528781
 51
109.471223
  0
LINE
  5
227
100
AcDbEntity
  8
1
100
AcDbLine
 10
-592.328446
 20
-111.650965
 30
0.0
 11
-587.328446
 21
-111.650965
 31
0.0
  0
ARC
  5
228
100
AcDbEntity
  8
1
100
AcDbCircle
 10
-592.328446
 20
-119.234298
 30
0.0
 40
9.083333
100
AcDbArc
 50
56.601512
 51
123.398491
  0
LINE
  5
229
100
AcDbEntity
  8
1
 62
     2
100
AcDbLine
 10
-588.140446
 20
-111.17405
 30
0.0
 11
-588.140446
 21
-116.550965
 31
0.0
  0
LINE
  5
22A
100
AcDbEntity
  8
1
100
AcDbLine
 10
-592.328446
 20
-111.650965
 30
0.0
 11
-597.328446
 21
-111.650965
 31
0.0
  0
LINE
  5
22B
100
AcDbEntity
  8
1
 62
     2
100
AcDbLine
 10
-596.516446
 20
-111.17405
 30
0.0
 11
-596.516446
 21
-116.550965
 31
0.0
  0
LINE
  5
22C
100
AcDbEntity
  8
1
100
AcDbLine
 10
-587.328446
 20
-116.550965
 30
0.0
 11
-587.328446
 21
-111.650965
 31
0.0
  0
LINE
  5
22D
100
AcDbEntity
  8
1
100
AcDbLine
 10
-597.328446
 20
-116.550965
 30
0.0
 11
-597.328446
 21
-111.650965
 31
0.0
  0
LINE
  5
22E
100
AcDbEntity
  8
1
100
AcDbLine
 10
-564.828446
 20
-124.550965
 30
0.0
 11
-619.828446
 21
-124.550965
 31
0.0
  0
LINE
  5
22F
100
AcDbEntity
  8
1
100
AcDbLine
 10
-564.828446
 20
-124.550965
 30
0.0
 11
-564.828446
 21
-129.150965
 31
0.0
  0
LINE
  5
230
100
AcDbEntity
  8
1
100
AcDbLine
 10
-619.828446
 20
-124.550965
 30
0.0
 11
-619.828446
 21
-129.150965
 31
0.0
  0
LINE
  5
231
100
AcDbEntity
  8
1
100
AcDbLine
 10
-608.328446
 20
-95.150965
 30
0.0
 11
-608.328446
 21
-124.550965
 31
0.0
  0
LINE
  5
232
100
AcDbEntity
  8
1
100
AcDbLine
 10
-576.328446
 20
-100.150965
 30
0.0
 11
-573.328446
 21
-100.150965
 31
0.0
  0
LINE
  5
233
100
AcDbEntity
  8
1
100
AcDbLine
 10
-573.328446
 20
-95.150965
 30
0.0
 11
-573.328446
 21
-100.150965
 31
0.0
  0
LINE
  5
234
100
AcDbEntity
  8
1
100
AcDbLine
 10
-576.328446
 20
-124.550965
 30
0.0
 11
-576.328446
 21
-100.150965
 31
0.0
  0
LINE
  5
235
100
AcDbEntity
  8
1
100
AcDbLine
 10
-622.278446
 20
-304.150965
 30
0.0
 11
-623.636256
 21
-301.79917
 31
0.0
  0
ARC
  5
236
100
AcDbEntity
  8
1
100
AcDbCircle
 10
-630.564459
 20
-305.79917
 30
0.0
 40
8.0
100
AcDbArc
 50
30.0
 51
106.601694
  0
ARC
  5
237
100
AcDbEntity
  8
1
100
AcDbCircle
 10
-624.047435
 20
-304.150965
 30
0.0
 40
1.768988
100
AcDbArc
 50
283.481732
 51
360.0
  0
ARC
  5
238
100
AcDbEntity
  8
1
100
AcDbCircle
 10
-595.278446
 20
-424.150965
 30
0.0
 40
123.0
100
AcDbArc
 50
102.441762
 51
102.680383
  0
LINE
  5
239
100
AcDbEntity
  8
1
100
AcDbLine
 10
-622.278446
 20
-544.150965
 30
0.0
 11
-623.636256
 21
-546.50276
 31
0.0
  0
ARC
  5
23A
100
AcDbEntity
  8
1
100
AcDbCircle
 10
-630.564459
 20
-542.50276
 30
0.0
 40
8.0
100
AcDbArc
 50
253.398306
 51
330.0
  0
ARC
  5
23B
100
AcDbEntity
  8
1
100
AcDbCircle
 10
-624.047435
 20
-544.150965
 30
0.0
 40
1.768988
100
AcDbArc
 50
0.0
 51
76.518268
  0
ARC
  5
23C
100
AcDbEntity
  8
1
100
AcDbCircle
 10
-595.278446
 20
-424.150965
 30
0.0
 40
123.0
100
AcDbArc
 50
257.319617
 51
257.558238
  0
ARC
  5
23D
100
AcDbEntity
  8
1
100
AcDbCircle
 10
-595.278446
 20
-424.150965
 30
0.0
 40
121.631395
100
AcDbArc
 50
103.481732
 51
256.518268
  0
ARC
  5
23E
100
AcDbEntity
  8
1
100
AcDbCircle
 10
-595.278446
 20
-424.150965
 30
0.0
 40
121.631395
100
AcDbArc
 50
282.58404
 51
77.41596
  0
LINE
  5
23F
100
AcDbEntity
  8
1
  6
CENTER
 62
     2
100
AcDbLine
 10
-595.278446
 20
-234.389551
 30
0.0
 11
-595.278446
 21
-619.258448
 31
0.0
  0
ARC
  5
240
100
AcDbEntity
  8
1
100
AcDbCircle
 10
-595.278446
 20
-424.150965
 30
0.0
 40
120.635816
100
AcDbArc
 50
102.689617
 51
257.310383
  0
ARC
  5
241
100
AcDbEntity
  8
1
100
AcDbCircle
 10
-595.278446
 20
-424.150965
 30
0.0
 40
120.635816
100
AcDbArc
 50
282.689617
 51
77.310383
  0
LINE
  5
242
100
AcDbEntity
  8
1
100
AcDbLine
 10
-619.778446
 20
-354.150965
 30
0.0
 11
-566.778446
 21
-354.150965
 31
0.0
  0
LINE
  5
243
100
AcDbEntity
  8
1
100
AcDbLine
 10
-619.778446
 20
-494.150965
 30
0.0
 11
-566.778446
 21
-494.150965
 31
0.0
  0
LINE
  5
244
100
AcDbEntity
  8
1
100
AcDbLine
 10
-621.778446
 20
-549.849016
 30
0.0
 11
-621.778446
 21
-496.150965
 31
0.0
  0
LINE
  5
245
100
AcDbEntity
  8
1
100
AcDbLine
 10
-621.778446
 20
-352.150965
 30
0.0
 11
-621.778446
 21
-298.452914
 31
0.0
  0
ARC
  5
246
100
AcDbEntity
  8
1
100
AcDbCircle
 10
-619.778446
 20
-352.150965
 30
0.0
 40
2.0
100
AcDbArc
 50
180.0
 51
270.0
  0
ARC
  5
247
100
AcDbEntity
  8
1
100
AcDbCircle
 10
-566.778446
 20
-352.150965
 30
0.0
 40
2.0
100
AcDbArc
 50
270.0
 51
360.0
  0
ARC
  5
248
100
AcDbEntity
  8
1
100
AcDbCircle
 10
-566.778446
 20
-496.150965
 30
0.0
 40
2.0
100
AcDbArc
 50
0.0
 51
90.0
  0
ARC
  5
249
100
AcDbEntity
  8
1
100
AcDbCircle
 10
-619.778446
 20
-496.150965
 30
0.0
 40
2.0
100
AcDbArc
 50
90.0
 51
180.0
  0
LINE
  5
24A
100
AcDbEntity
  8
1
100
AcDbLine
 10
-702.136998
 20
-420.650965
 30
0.0
 11
-488.419895
 21
-420.650965
 31
0.0
  0
LINE
  5
24B
100
AcDbEntity
  8
1
100
AcDbLine
 10
-702.136998
 20
-427.650965
 30
0.0
 11
-488.419895
 21
-427.650965
 31
0.0
  0
ARC
  5
24C
100
AcDbEntity
  8
1
100
AcDbCircle
 10
-573.778446
 20
-356.150965
 30
0.0
 40
2.0
100
AcDbArc
 50
0.0
 51
90.0
  0
ARC
  5
24D
100
AcDbEntity
  8
1
100
AcDbCircle
 10
-616.778446
 20
-356.150965
 30
0.0
 40
2.0
100
AcDbArc
 50
90.0
 51
180.0
  0
ARC
  5
24E
100
AcDbEntity
  8
1
100
AcDbCircle
 10
-616.778446
 20
-492.150965
 30
0.0
 40
2.0
100
AcDbArc
 50
180.0
 51
270.0
  0
ARC
  5
24F
100
AcDbEntity
  8
1
100
AcDbCircle
 10
-573.778446
 20
-492.150965
 30
0.0
 40
2.0
100
AcDbArc
 50
270.0
 51
360.0
  0
LINE
  5
250
100
AcDbEntity
  8
1
100
AcDbLine
 10
-571.778446
 20
-492.150965
 30
0.0
 11
-571.778446
 21
-429.650965
 31
0.0
  0
LINE
  5
251
100
AcDbEntity
  8
1
100
AcDbLine
 10
-571.778446
 20
-418.650965
 30
0.0
 11
-571.778446
 21
-356.150965
 31
0.0
  0
LINE
  5
252
100
AcDbEntity
  8
1
100
AcDbLine
 10
-564.778446
 20
-429.650965
 30
0.0
 11
-564.778446
 21
-538.969038
 31
0.0
  0
LINE
  5
253
100
AcDbEntity
  8
1
100
AcDbLine
 10
-564.778446
 20
-418.650965
 30
0.0
 11
-564.778446
 21
-309.332891
 31
0.0
  0
LINE
  5
254
100
AcDbEntity
  8
1
100
AcDbLine
 10
-618.778446
 20
-492.150965
 30
0.0
 11
-618.778446
 21
-429.650965
 31
0.0
  0
LINE
  5
255
100
AcDbEntity
  8
1
100
AcDbLine
 10
-618.778446
 20
-418.650965
 30
0.0
 11
-618.778446
 21
-356.150965
 31
0.0
  0
ARC
  5
256
100
AcDbEntity
  8
1
100
AcDbCircle
 10
-573.778446
 20
-418.650965
 30
0.0
 40
2.0
100
AcDbArc
 50
270.0
 51
360.0
  0
ARC
  5
257
100
AcDbEntity
  8
1
100
AcDbCircle
 10
-573.778446
 20
-429.650965
 30
0.0
 40
2.0
100
AcDbArc
 50
0.0
 51
90.0
  0
ARC
  5
258
100
AcDbEntity
  8
1
100
AcDbCircle
 10
-562.778446
 20
-429.650965
 30
0.0
 40
2.0
100
AcDbArc
 50
90.0
 51
180.0
  0
ARC
  5
259
100
AcDbEntity
  8
1
100
AcDbCircle
 10
-562.778446
 20
-418.650965
 30
0.0
 40
2.0
100
AcDbArc
 50
180.0
 51
270.0
  0
ARC
  5
25A
100
AcDbEntity
  8
1
100
AcDbCircle
 10
-616.778446
 20
-418.650965
 30
0.0
 40
2.0
100
AcDbArc
 50
180.0
 51
270.0
  0
ARC
  5
25B
100
AcDbEntity
  8
1
100
AcDbCircle
 10
-627.778446
 20
-418.650965
 30
0.0
 40
2.0
100
AcDbArc
 50
270.0
 51
360.0
  0
ARC
  5
25C
100
AcDbEntity
  8
1
100
AcDbCircle
 10
-627.778446
 20
-429.650965
 30
0.0
 40
2.0
100
AcDbArc
 50
0.0
 51
90.0
  0
ARC
  5
25D
100
AcDbEntity
  8
1
100
AcDbCircle
 10
-616.778446
 20
-429.650965
 30
0.0
 40
2.0
100
AcDbArc
 50
90.0
 51
180.0
  0
ARC
  5
25E
100
AcDbEntity
  8
1
100
AcDbCircle
 10
-488.419895
 20
-418.650965
 30
0.0
 40
2.0
100
AcDbArc
 50
270.0
 51
2.946409
  0
ARC
  5
25F
100
AcDbEntity
  8
1
100
AcDbCircle
 10
-488.419895
 20
-429.650965
 30
0.0
 40
2.0
100
AcDbArc
 50
357.053591
 51
90.0
  0
ARC
  5
260
100
AcDbEntity
  8
1
100
AcDbCircle
 10
-702.136998
 20
-429.650965
 30
0.0
 40
2.0
100
AcDbArc
 50
90.0
 51
182.946409
  0
ARC
  5
261
100
AcDbEntity
  8
1
100
AcDbCircle
 10
-702.136998
 20
-418.650965
 30
0.0
 40
2.0
100
AcDbArc
 50
177.053591
 51
270.0
  0
ARC
  5
262
100
AcDbEntity
  8
1
100
AcDbCircle
 10
-623.778446
 20
-356.150965
 30
0.0
 40
2.0
100
AcDbArc
 50
90.0
 51
180.0
  0
ARC
  5
263
100
AcDbEntity
  8
1
100
AcDbCircle
 10
-623.778446
 20
-492.150965
 30
0.0
 40
2.0
100
AcDbArc
 50
180.0
 51
270.0
  0
ARC
  5
264
100
AcDbEntity
  8
1
100
AcDbCircle
 10
-623.778446
 20
-352.150965
 30
0.0
 40
2.0
100
AcDbArc
 50
270.0
 51
0.0
  0
ARC
  5
265
100
AcDbEntity
  8
1
100
AcDbCircle
 10
-627.778446
 20
-322.206127
 30
0.0
 40
2.0
100
AcDbArc
 50
0.0
 51
107.682274
  0
ARC
  5
266
100
AcDbEntity
  8
1
100
AcDbCircle
 10
-562.778446
 20
-322.206127
 30
0.0
 40
2.0
100
AcDbArc
 50
72.317726
 51
180.0
  0
ARC
  5
267
100
AcDbEntity
  8
1
100
AcDbCircle
 10
-562.778446
 20
-526.095803
 30
0.0
 40
2.0
100
AcDbArc
 50
180.0
 51
287.682274
  0
ARC
  5
268
100
AcDbEntity
  8
1
100
AcDbCircle
 10
-627.778446
 20
-526.095803
 30
0.0
 40
2.0
100
AcDbArc
 50
252.317726
 51
360.0
  0
ARC
  5
269
100
AcDbEntity
  8
1
100
AcDbCircle
 10
-623.778446
 20
-496.150965
 30
0.0
 40
2.0
100
AcDbArc
 50
0.0
 51
90.0
  0
ARC
  5
26A
100
AcDbEntity
  8
1
100
AcDbCircle
 10
-562.778446
 20
-356.150965
 30
0.0
 40
2.0
100
AcDbArc
 50
90.0
 51
180.0
  0
LINE
  5
26B
100
AcDbEntity
  8
1
100
AcDbLine
 10
-562.778446
 20
-347.150965
 30
0.0
 11
-528.778446
 21
-347.150965
 31
0.0
  0
ARC
  5
26C
100
AcDbEntity
  8
1
100
AcDbCircle
 10
-595.278446
 20
-424.150965
 30
0.0
 40
109.0
100
AcDbArc
 50
51.574586
 51
72.317726
  0
ARC
  5
26D
100
AcDbEntity
  8
1
100
AcDbCircle
 10
-595.278446
 20
-424.150965
 30
0.0
 40
109.0
100
AcDbArc
 50
23.40302
 51
39.458119
  0
LINE
  5
26E
100
AcDbEntity
  8
1
100
AcDbLine
 10
-519.778446
 20
-418.650965
 30
0.0
 11
-519.778446
 21
-392.650965
 31
0.0
  0
LINE
  5
26F
100
AcDbEntity
  8
1
100
AcDbLine
 10
-519.778446
 20
-381.650965
 30
0.0
 11
-519.778446
 21
-356.150965
 31
0.0
  0
LINE
  5
270
100
AcDbEntity
  8
1
100
AcDbLine
 10
-526.778446
 20
-418.650965
 30
0.0
 11
-526.778446
 21
-392.650965
 31
0.0
  0
LINE
  5
271
100
AcDbEntity
  8
1
100
AcDbLine
 10
-562.778446
 20
-383.650965
 30
0.0
 11
-528.778446
 21
-383.650965
 31
0.0
  0
LINE
  5
272
100
AcDbEntity
  8
1
100
AcDbLine
 10
-517.778446
 20
-383.650965
 30
0.0
 11
-497.080941
 21
-383.650965
 31
0.0
  0
LINE
  5
273
100
AcDbEntity
  8
1
100
AcDbLine
 10
-562.778446
 20
-390.650965
 30
0.0
 11
-528.778446
 21
-390.650965
 31
0.0
  0
LINE
  5
274
100
AcDbEntity
  8
1
100
AcDbLine
 10
-517.778446
 20
-390.650965
 30
0.0
 11
-493.020195
 21
-390.650965
 31
0.0
  0
LINE
  5
275
100
AcDbEntity
  8
1
100
AcDbLine
 10
-562.778446
 20
-354.150965
 30
0.0
 11
-528.778446
 21
-354.150965
 31
0.0
  0
LINE
  5
276
100
AcDbEntity
  8
1
100
AcDbLine
 10
-517.778446
 20
-354.150965
 30
0.0
 11
-512.664888
 21
-354.150965
 31
0.0
  0
LINE
  5
277
100
AcDbEntity
  8
1
100
AcDbLine
 10
-526.778446
 20
-381.650965
 30
0.0
 11
-526.778446
 21
-356.150965
 31
0.0
  0
LINE
  5
278
100
AcDbEntity
  8
1
100
AcDbLine
 10
-526.778446
 20
-345.150965
 30
0.0
 11
-526.778446
 21
-340.325253
 31
0.0
  0
ARC
  5
279
100
AcDbEntity
  8
1
100
AcDbCircle
 10
-517.778446
 20
-392.650965
 30
0.0
 40
2.0
100
AcDbArc
 50
90.0
 51
180.0
  0
ARC
  5
27A
100
AcDbEntity
  8
1
100
AcDbCircle
 10
-528.778446
 20
-392.650965
 30
0.0
 40
2.0
100
AcDbArc
 50
0.0
 51
90.0
  0
ARC
  5
27B
100
AcDbEntity
  8
1
100
AcDbCircle
 10
-528.778446
 20
-381.650965
 30
0.0
 40
2.0
100
AcDbArc
 50
270.0
 51
360.0
  0
ARC
  5
27C
100
AcDbEntity
  8
1
100
AcDbCircle
 10
-517.778446
 20
-381.650965
 30
0.0
 40
2.0
100
AcDbArc
 50
180.0
 51
270.0
  0
ARC
  5
27D
100
AcDbEntity
  8
1
100
AcDbCircle
 10
-517.778446
 20
-356.150965
 30
0.0
 40
2.0
100
AcDbArc
 50
90.0
 51
180.0
  0
ARC
  5
27E
100
AcDbEntity
  8
1
100
AcDbCircle
 10
-528.778446
 20
-356.150965
 30
0.0
 40
2.0
100
AcDbArc
 50
0.0
 51
90.0
  0
ARC
  5
27F
100
AcDbEntity
  8
1
100
AcDbCircle
 10
-512.664888
 20
-356.150965
 30
0.0
 40
2.0
100
AcDbArc
 50
39.458119
 51
90.0
  0
ARC
  5
280
100
AcDbEntity
  8
1
100
AcDbCircle
 10
-528.778446
 20
-345.150965
 30
0.0
 40
2.0
100
AcDbArc
 50
270.0
 51
360.0
  0
ARC
  5
281
100
AcDbEntity
  8
1
100
AcDbCircle
 10
-528.778446
 20
-340.325253
 30
0.0
 40
2.0
100
AcDbArc
 50
0.0
 51
51.574586
  0
ARC
  5
282
100
AcDbEntity
  8
1
100
AcDbCircle
 10
-497.080941
 20
-381.650965
 30
0.0
 40
2.0
100
AcDbArc
 50
270.0
 51
23.40302
  0
ARC
  5
283
100
AcDbEntity
  8
1
100
AcDbCircle
 10
-493.020195
 20
-392.650965
 30
0.0
 40
2.0
100
AcDbArc
 50
17.121114
 51
90.0
  0
ARC
  5
284
100
AcDbEntity
  8
1
100
AcDbCircle
 10
-562.778446
 20
-345.150965
 30
0.0
 40
2.0
100
AcDbArc
 50
180.0
 51
270.0
  0
ARC
  5
285
100
AcDbEntity
  8
1
100
AcDbCircle
 10
-562.778446
 20
-381.650965
 30
0.0
 40
2.0
100
AcDbArc
 50
180.0
 51
270.0
  0
ARC
  5
286
100
AcDbEntity
  8
1
100
AcDbCircle
 10
-562.778446
 20
-392.650965
 30
0.0
 40
2.0
100
AcDbArc
 50
90.0
 51
180.0
  0
ARC
  5
287
100
AcDbEntity
  8
1
100
AcDbCircle
 10
-528.778446
 20
-418.650965
 30
0.0
 40
2.0
100
AcDbArc
 50
270.0
 51
360.0
  0
ARC
  5
288
100
AcDbEntity
  8
1
100
AcDbCircle
 10
-517.778446
 20
-418.650965
 30
0.0
 40
2.0
100
AcDbArc
 50
180.0
 51
270.0
  0
LINE
  5
289
100
AcDbEntity
  8
1
100
AcDbLine
 10
-562.778446
 20
-501.150965
 30
0.0
 11
-528.778446
 21
-501.150965
 31
0.0
  0
LINE
  5
28A
100
AcDbEntity
  8
1
100
AcDbLine
 10
-519.778446
 20
-429.650965
 30
0.0
 11
-519.778446
 21
-455.650965
 31
0.0
  0
LINE
  5
28B
100
AcDbEntity
  8
1
100
AcDbLine
 10
-519.778446
 20
-466.650965
 30
0.0
 11
-519.778446
 21
-492.150965
 31
0.0
  0
LINE
  5
28C
100
AcDbEntity
  8
1
100
AcDbLine
 10
-526.778446
 20
-429.650965
 30
0.0
 11
-526.778446
 21
-455.650965
 31
0.0
  0
LINE
  5
28D
100
AcDbEntity
  8
1
100
AcDbLine
 10
-562.778446
 20
-464.650965
 30
0.0
 11
-528.778446
 21
-464.650965
 31
0.0
  0
LINE
  5
28E
100
AcDbEntity
  8
1
100
AcDbLine
 10
-517.778446
 20
-464.650965
 30
0.0
 11
-497.080941
 21
-464.650965
 31
0.0
  0
LINE
  5
28F
100
AcDbEntity
  8
1
100
AcDbLine
 10
-562.778446
 20
-457.650965
 30
0.0
 11
-528.778446
 21
-457.650965
 31
0.0
  0
LINE
  5
290
100
AcDbEntity
  8
1
100
AcDbLine
 10
-517.778446
 20
-457.650965
 30
0.0
 11
-493.020195
 21
-457.650965
 31
0.0
  0
LINE
  5
291
100
AcDbEntity
  8
1
100
AcDbLine
 10
-562.778446
 20
-494.150965
 30
0.0
 11
-528.778446
 21
-494.150965
 31
0.0
  0
LINE
  5
292
100
AcDbEntity
  8
1
100
AcDbLine
 10
-526.778446
 20
-466.650965
 30
0.0
 11
-526.778446
 21
-492.150965
 31
0.0
  0
LINE
  5
293
100
AcDbEntity
  8
1
100
AcDbLine
 10
-627.778446
 20
-347.150965
 30
0.0
 11
-661.778446
 21
-347.150965
 31
0.0
  0
LINE
  5
294
100
AcDbEntity
  8
1
100
AcDbLine
 10
-670.778446
 20
-418.650965
 30
0.0
 11
-670.778446
 21
-392.650965
 31
0.0
  0
LINE
  5
295
100
AcDbEntity
  8
1
100
AcDbLine
 10
-670.778446
 20
-381.650965
 30
0.0
 11
-670.778446
 21
-356.150965
 31
0.0
  0
LINE
  5
296
100
AcDbEntity
  8
1
100
AcDbLine
 10
-663.778446
 20
-418.650965
 30
0.0
 11
-663.778446
 21
-392.650965
 31
0.0
  0
LINE
  5
297
100
AcDbEntity
  8
1
100
AcDbLine
 10
-627.778446
 20
-383.650965
 30
0.0
 11
-661.778446
 21
-383.650965
 31
0.0
  0
LINE
  5
298
100
AcDbEntity
  8
1
100
AcDbLine
 10
-672.778446
 20
-383.650965
 30
0.0
 11
-693.475951
 21
-383.650965
 31
0.0
  0
LINE
  5
299
100
AcDbEntity
  8
1
100
AcDbLine
 10
-627.778446
 20
-390.650965
 30
0.0
 11
-661.778446
 21
-390.650965
 31
0.0
  0
LINE
  5
29A
100
AcDbEntity
  8
1
100
AcDbLine
 10
-672.778446
 20
-390.650965
 30
0.0
 11
-697.536698
 21
-390.650965
 31
0.0
  0
LINE
  5
29B
100
AcDbEntity
  8
1
100
AcDbLine
 10
-627.778446
 20
-354.150965
 30
0.0
 11
-661.778446
 21
-354.150965
 31
0.0
  0
LINE
  5
29C
100
AcDbEntity
  8
1
100
AcDbLine
 10
-663.778446
 20
-381.650965
 30
0.0
 11
-663.778446
 21
-356.150965
 31
0.0
  0
LINE
  5
29D
100
AcDbEntity
  8
1
100
AcDbLine
 10
-627.778446
 20
-501.150965
 30
0.0
 11
-661.778446
 21
-501.150965
 31
0.0
  0
LINE
  5
29E
100
AcDbEntity
  8
1
100
AcDbLine
 10
-670.778446
 20
-429.650965
 30
0.0
 11
-670.778446
 21
-455.650965
 31
0.0
  0
LINE
  5
29F
100
AcDbEntity
  8
1
100
AcDbLine
 10
-670.778446
 20
-466.650965
 30
0.0
 11
-670.778446
 21
-492.150965
 31
0.0
  0
LINE
  5
2A0
100
AcDbEntity
  8
1
100
AcDbLine
 10
-663.778446
 20
-429.650965
 30
0.0
 11
-663.778446
 21
-455.650965
 31
0.0
  0
LINE
  5
2A1
100
AcDbEntity
  8
1
100
AcDbLine
 10
-627.778446
 20
-464.650965
 30
0.0
 11
-661.778446
 21
-464.650965
 31
0.0
  0
LINE
  5
2A2
100
AcDbEntity
  8
1
100
AcDbLine
 10
-672.778446
 20
-464.650965
 30
0.0
 11
-693.475951
 21
-464.650965
 31
0.0
  0
LINE
  5
2A3
100
AcDbEntity
  8
1
100
AcDbLine
 10
-627.778446
 20
-457.650965
 30
0.0
 11
-661.778446
 21
-457.650965
 31
0.0
  0
LINE
  5
2A4
100
AcDbEntity
  8
1
100
AcDbLine
 10
-672.778446
 20
-457.650965
 30
0.0
 11
-697.536698
 21
-457.650965
 31
0.0
  0
LINE
  5
2A5
100
AcDbEntity
  8
1
100
AcDbLine
 10
-627.778446
 20
-494.150965
 30
0.0
 11
-661.778446
 21
-494.150965
 31
0.0
  0
LINE
  5
2A6
100
AcDbEntity
  8
1
100
AcDbLine
 10
-663.778446
 20
-466.650965
 30
0.0
 11
-663.778446
 21
-492.150965
 31
0.0
  0
ARC
  5
2A7
100
AcDbEntity
  8
1
100
AcDbCircle
 10
-661.778446
 20
-381.650965
 30
0.0
 40
2.0
100
AcDbArc
 50
180.0
 51
270.0
  0
ARC
  5
2A8
100
AcDbEntity
  8
1
100
AcDbCircle
 10
-661.778446
 20
-392.650965
 30
0.0
 40
2.0
100
AcDbArc
 50
90.0
 51
180.0
  0
ARC
  5
2A9
100
AcDbEntity
  8
1
100
AcDbCircle
 10
-672.778446
 20
-392.650965
 30
0.0
 40
2.0
100
AcDbArc
 50
0.0
 51
90.0
  0
ARC
  5
2AA
100
AcDbEntity
  8
1
100
AcDbCircle
 10
-672.778446
 20
-381.650965
 30
0.0
 40
2.0
100
AcDbArc
 50
270.0
 51
360.0
  0
ARC
  5
2AB
100
AcDbEntity
  8
1
100
AcDbCircle
 10
-661.778446
 20
-356.150965
 30
0.0
 40
2.0
100
AcDbArc
 50
90.0
 51
180.0
  0
ARC
  5
2AC
100
AcDbEntity
  8
1
100
AcDbCircle
 10
-661.778446
 20
-455.650965
 30
0.0
 40
2.0
100
AcDbArc
 50
180.0
 51
270.0
  0
ARC
  5
2AD
100
AcDbEntity
  8
1
100
AcDbCircle
 10
-661.778446
 20
-466.650965
 30
0.0
 40
2.0
100
AcDbArc
 50
90.0
 51
180.0
  0
ARC
  5
2AE
100
AcDbEntity
  8
1
100
AcDbCircle
 10
-672.778446
 20
-455.650965
 30
0.0
 40
2.0
100
AcDbArc
 50
270.0
 51
0.0
  0
ARC
  5
2AF
100
AcDbEntity
  8
1
100
AcDbCircle
 10
-672.778446
 20
-466.650965
 30
0.0
 40
2.0
100
AcDbArc
 50
360.0
 51
90.0
  0
ARC
  5
2B0
100
AcDbEntity
  8
1
100
AcDbCircle
 10
-661.778446
 20
-492.150965
 30
0.0
 40
2.0
100
AcDbArc
 50
180.0
 51
270.0
  0
ARC
  5
2B1
100
AcDbEntity
  8
1
100
AcDbCircle
 10
-528.778446
 20
-492.150965
 30
0.0
 40
2.0
100
AcDbArc
 50
270.0
 51
360.0
  0
ARC
  5
2B2
100
AcDbEntity
  8
1
100
AcDbCircle
 10
-528.778446
 20
-466.650965
 30
0.0
 40
2.0
100
AcDbArc
 50
0.0
 51
90.0
  0
ARC
  5
2B3
100
AcDbEntity
  8
1
100
AcDbCircle
 10
-528.778446
 20
-455.650965
 30
0.0
 40
2.0
100
AcDbArc
 50
270.0
 51
360.0
  0
ARC
  5
2B4
100
AcDbEntity
  8
1
100
AcDbCircle
 10
-517.778446
 20
-455.650965
 30
0.0
 40
2.0
100
AcDbArc
 50
180.0
 51
270.0
  0
ARC
  5
2B5
100
AcDbEntity
  8
1
100
AcDbCircle
 10
-517.778446
 20
-466.650965
 30
0.0
 40
2.0
100
AcDbArc
 50
90.0
 51
180.0
  0
LINE
  5
2B6
100
AcDbEntity
  8
1
100
AcDbLine
 10
-517.778446
 20
-494.150965
 30
0.0
 11
-512.664888
 21
-494.150965
 31
0.0
  0
LINE
  5
2B7
100
AcDbEntity
  8
1
100
AcDbLine
 10
-526.778446
 20
-503.150965
 30
0.0
 11
-526.778446
 21
-507.976677
 31
0.0
  0
LINE
  5
2B8
100
AcDbEntity
  8
1
100
AcDbLine
 10
-672.778446
 20
-494.150965
 30
0.0
 11
-677.892005
 21
-494.150965
 31
0.0
  0
LINE
  5
2B9
100
AcDbEntity
  8
1
100
AcDbLine
 10
-663.778446
 20
-503.150965
 30
0.0
 11
-663.778446
 21
-507.976677
 31
0.0
  0
LINE
  5
2BA
100
AcDbEntity
  8
1
100
AcDbLine
 10
-672.778446
 20
-354.150965
 30
0.0
 11
-677.892005
 21
-354.150965
 31
0.0
  0
LINE
  5
2BB
100
AcDbEntity
  8
1
100
AcDbLine
 10
-663.778446
 20
-345.150965
 30
0.0
 11
-663.778446
 21
-340.325253
 31
0.0
  0
ARC
  5
2BC
100
AcDbEntity
  8
1
100
AcDbCircle
 10
-595.278446
 20
-424.150965
 30
0.0
 40
109.0
100
AcDbArc
 50
342.878886
 51
357.053591
  0
ARC
  5
2BD
100
AcDbEntity
  8
1
100
AcDbCircle
 10
-595.278446
 20
-424.150965
 30
0.0
 40
109.0
100
AcDbArc
 50
287.682274
 51
308.425414
  0
ARC
  5
2BE
100
AcDbEntity
  8
1
100
AcDbCircle
 10
-595.278446
 20
-424.150965
 30
0.0
 40
109.0
100
AcDbArc
 50
320.541881
 51
336.59698
  0
ARC
  5
2BF
100
AcDbEntity
  8
1
100
AcDbCircle
 10
-595.278446
 20
-424.150965
 30
0.0
 40
109.0
100
AcDbArc
 50
107.682274
 51
128.425414
  0
ARC
  5
2C0
100
AcDbEntity
  8
1
100
AcDbCircle
 10
-595.278446
 20
-424.150965
 30
0.0
 40
109.0
100
AcDbArc
 50
140.541881
 51
156.59698
  0
ARC
  5
2C1
100
AcDbEntity
  8
1
100
AcDbCircle
 10
-595.278446
 20
-424.150965
 30
0.0
 40
109.0
100
AcDbArc
 50
182.946409
 51
197.121114
  0
ARC
  5
2C2
100
AcDbEntity
  8
1
100
AcDbCircle
 10
-595.278446
 20
-424.150965
 30
0.0
 40
109.0
100
AcDbArc
 50
203.40302
 51
219.458119
  0
ARC
  5
2C3
100
AcDbEntity
  8
1
100
AcDbCircle
 10
-595.278446
 20
-424.150965
 30
0.0
 40
109.0
100
AcDbArc
 50
231.574586
 51
252.317726
  0
ARC
  5
2C4
100
AcDbEntity
  8
1
100
AcDbCircle
 10
-512.664888
 20
-492.150965
 30
0.0
 40
2.0
100
AcDbArc
 50
270.0
 51
320.541881
  0
ARC
  5
2C5
100
AcDbEntity
  8
1
100
AcDbCircle
 10
-517.778446
 20
-492.150965
 30
0.0
 40
2.0
100
AcDbArc
 50
180.0
 51
270.0
  0
ARC
  5
2C6
100
AcDbEntity
  8
1
100
AcDbCircle
 10
-528.778446
 20
-503.150965
 30
0.0
 40
2.0
100
AcDbArc
 50
0.0
 51
90.0
  0
ARC
  5
2C7
100
AcDbEntity
  8
1
100
AcDbCircle
 10
-528.778446
 20
-507.976677
 30
0.0
 40
2.0
100
AcDbArc
 50
308.425414
 51
360.0
  0
ARC
  5
2C8
100
AcDbEntity
  8
1
100
AcDbCircle
 10
-661.778446
 20
-503.150965
 30
0.0
 40
2.0
100
AcDbArc
 50
90.0
 51
180.0
  0
ARC
  5
2C9
100
AcDbEntity
  8
1
100
AcDbCircle
 10
-661.778446
 20
-507.976677
 30
0.0
 40
2.0
100
AcDbArc
 50
180.0
 51
231.574586
  0
ARC
  5
2CA
100
AcDbEntity
  8
1
100
AcDbCircle
 10
-672.778446
 20
-492.150965
 30
0.0
 40
2.0
100
AcDbArc
 50
270.0
 51
360.0
  0
ARC
  5
2CB
100
AcDbEntity
  8
1
100
AcDbCircle
 10
-677.892005
 20
-492.150965
 30
0.0
 40
2.0
100
AcDbArc
 50
219.458119
 51
270.0
  0
ARC
  5
2CC
100
AcDbEntity
  8
1
100
AcDbCircle
 10
-693.475951
 20
-466.650965
 30
0.0
 40
2.0
100
AcDbArc
 50
90.0
 51
203.40302
  0
ARC
  5
2CD
100
AcDbEntity
  8
1
100
AcDbCircle
 10
-697.536698
 20
-455.650965
 30
0.0
 40
2.0
100
AcDbArc
 50
197.121114
 51
270.0
  0
ARC
  5
2CE
100
AcDbEntity
  8
1
100
AcDbCircle
 10
-493.020195
 20
-455.650965
 30
0.0
 40
2.0
100
AcDbArc
 50
270.0
 51
342.878886
  0
ARC
  5
2CF
100
AcDbEntity
  8
1
100
AcDbCircle
 10
-497.080941
 20
-466.650965
 30
0.0
 40
2.0
100
AcDbArc
 50
336.59698
 51
90.0
  0
ARC
  5
2D0
100
AcDbEntity
  8
1
100
AcDbCircle
 10
-697.536698
 20
-392.650965
 30
0.0
 40
2.0
100
AcDbArc
 50
90.0
 51
162.878886
  0
ARC
  5
2D1
100
AcDbEntity
  8
1
100
AcDbCircle
 10
-693.475951
 20
-381.650965
 30
0.0
 40
2.0
100
AcDbArc
 50
156.59698
 51
270.0
  0
ARC
  5
2D2
100
AcDbEntity
  8
1
100
AcDbCircle
 10
-677.892005
 20
-356.150965
 30
0.0
 40
2.0
100
AcDbArc
 50
90.0
 51
140.541881
  0
ARC
  5
2D3
100
AcDbEntity
  8
1
100
AcDbCircle
 10
-672.778446
 20
-356.150965
 30
0.0
 40
2.0
100
AcDbArc
 50
0.0
 51
90.0
  0
ARC
  5
2D4
100
AcDbEntity
  8
1
100
AcDbCircle
 10
-661.778446
 20
-345.150965
 30
0.0
 40
2.0
100
AcDbArc
 50
180.0
 51
270.0
  0
ARC
  5
2D5
100
AcDbEntity
  8
1
100
AcDbCircle
 10
-661.778446
 20
-340.325253
 30
0.0
 40
2.0
100
AcDbArc
 50
128.425414
 51
180.0
  0
ARC
  5
2D6
100
AcDbEntity
  8
1
100
AcDbCircle
 10
-627.778446
 20
-455.650965
 30
0.0
 40
2.0
100
AcDbArc
 50
270.0
 51
360.0
  0
ARC
  5
2D7
100
AcDbEntity
  8
1
100
AcDbCircle
 10
-627.778446
 20
-466.650965
 30
0.0
 40
2.0
100
AcDbArc
 50
0.0
 51
90.0
  0
ARC
  5
2D8
100
AcDbEntity
  8
1
100
AcDbCircle
 10
-562.778446
 20
-455.650965
 30
0.0
 40
2.0
100
AcDbArc
 50
180.0
 51
270.0
  0
ARC
  5
2D9
100
AcDbEntity
  8
1
100
AcDbCircle
 10
-562.778446
 20
-466.650965
 30
0.0
 40
2.0
100
AcDbArc
 50
90.0
 51
180.0
  0
ARC
  5
2DA
100
AcDbEntity
  8
1
100
AcDbCircle
 10
-562.778446
 20
-492.150965
 30
0.0
 40
2.0
100
AcDbArc
 50
180.0
 51
270.0
  0
ARC
  5
2DB
100
AcDbEntity
  8
1
100
AcDbCircle
 10
-562.778446
 20
-503.150965
 30
0.0
 40
2.0
100
AcDbArc
 50
90.0
 51
180.0
  0
ARC
  5
2DC
100
AcDbEntity
  8
1
100
AcDbCircle
 10
-528.778446
 20
-429.650965
 30
0.0
 40
2.0
100
AcDbArc
 50
0.0
 51
90.0
  0
ARC
  5
2DD
100
AcDbEntity
  8
1
100
AcDbCircle
 10
-517.778446
 20
-429.650965
 30
0.0
 40
2.0
100
AcDbArc
 50
90.0
 51
180.0
  0
ARC
  5
2DE
100
AcDbEntity
  8
1
100
AcDbCircle
 10
-627.778446
 20
-392.650965
 30
0.0
 40
2.0
100
AcDbArc
 50
0.0
 51
90.0
  0
ARC
  5
2DF
100
AcDbEntity
  8
1
100
AcDbCircle
 10
-627.778446
 20
-381.650965
 30
0.0
 40
2.0
100
AcDbArc
 50
270.0
 51
0.0
  0
ARC
  5
2E0
100
AcDbEntity
  8
1
100
AcDbCircle
 10
-661.778446
 20
-418.650965
 30
0.0
 40
2.0
100
AcDbArc
 50
180.0
 51
270.0
  0
ARC
  5
2E1
100
AcDbEntity
  8
1
100
AcDbCircle
 10
-672.778446
 20
-418.650965
 30
0.0
 40
2.0
100
AcDbArc
 50
270.0
 51
360.0
  0
ARC
  5
2E2
100
AcDbEntity
  8
1
100
AcDbCircle
 10
-661.778446
 20
-429.650965
 30
0.0
 40
2.0
100
AcDbArc
 50
90.0
 51
180.0
  0
ARC
  5
2E3
100
AcDbEntity
  8
1
100
AcDbCircle
 10
-672.778446
 20
-429.650965
 30
0.0
 40
2.0
100
AcDbArc
 50
0.0
 51
90.0
  0
ARC
  5
2E4
100
AcDbEntity
  8
1
100
AcDbCircle
 10
-627.778446
 20
-503.150965
 30
0.0
 40
2.0
100
AcDbArc
 50
360.0
 51
90.0
  0
ARC
  5
2E5
100
AcDbEntity
  8
1
100
AcDbCircle
 10
-627.778446
 20
-356.150965
 30
0.0
 40
2.0
100
AcDbArc
 50
0.0
 51
90.0
  0
ARC
  5
2E6
100
AcDbEntity
  8
1
100
AcDbCircle
 10
-627.778446
 20
-345.150965
 30
0.0
 40
2.0
100
AcDbArc
 50
270.0
 51
360.0
  0
LINE
  5
2E7
100
AcDbEntity
  8
1
100
AcDbLine
 10
-625.778446
 20
-526.095803
 30
0.0
 11
-625.778446
 21
-503.150965
 31
0.0
  0
LINE
  5
2E8
100
AcDbEntity
  8
1
100
AcDbLine
 10
-625.778446
 20
-492.150965
 30
0.0
 11
-625.778446
 21
-429.650965
 31
0.0
  0
ARC
  5
2E9
100
AcDbEntity
  8
1
100
AcDbCircle
 10
-627.778446
 20
-492.150965
 30
0.0
 40
2.0
100
AcDbArc
 50
270.0
 51
360.0
  0
LINE
  5
2EA
100
AcDbEntity
  8
1
100
AcDbLine
 10
-625.778446
 20
-418.650965
 30
0.0
 11
-625.778446
 21
-356.150965
 31
0.0
  0
LINE
  5
2EB
100
AcDbEntity
  8
1
100
AcDbLine
 10
-625.778446
 20
-345.150965
 30
0.0
 11
-625.778446
 21
-322.206127
 31
0.0
  0
ARC
  5
2EC
100
AcDbEntity
  8
1
100
AcDbCircle
 10
-616.778446
 20
-381.650965
 30
0.0
 40
2.0
100
AcDbArc
 50
180.0
 51
270.0
  0
ARC
  5
2ED
100
AcDbEntity
  8
1
100
AcDbCircle
 10
-616.778446
 20
-392.650965
 30
0.0
 40
2.0
100
AcDbArc
 50
90.0
 51
180.0
  0
ARC
  5
2EE
100
AcDbEntity
  8
1
100
AcDbCircle
 10
-573.778446
 20
-392.650965
 30
0.0
 40
2.0
100
AcDbArc
 50
360.0
 51
90.0
  0
ARC
  5
2EF
100
AcDbEntity
  8
1
100
AcDbCircle
 10
-573.778446
 20
-381.650965
 30
0.0
 40
2.0
100
AcDbArc
 50
270.0
 51
360.0
  0
ARC
  5
2F0
100
AcDbEntity
  8
1
100
AcDbCircle
 10
-573.778446
 20
-455.650965
 30
0.0
 40
2.0
100
AcDbArc
 50
270.0
 51
360.0
  0
ARC
  5
2F1
100
AcDbEntity
  8
1
100
AcDbCircle
 10
-573.778446
 20
-466.650965
 30
0.0
 40
2.0
100
AcDbArc
 50
0.0
 51
90.0
  0
ARC
  5
2F2
100
AcDbEntity
  8
1
100
AcDbCircle
 10
-616.778446
 20
-466.650965
 30
0.0
 40
2.0
100
AcDbArc
 50
90.0
 51
180.0
  0
ARC
  5
2F3
100
AcDbEntity
  8
1
100
AcDbCircle
 10
-616.778446
 20
-455.650965
 30
0.0
 40
2.0
100
AcDbArc
 50
180.0
 51
270.0
  0
LINE
  5
2F4
100
AcDbEntity
  8
1
100
AcDbLine
 10
-580.178777
 20
-311.332891
 30
0.0
 11
-580.178777
 21
-352.150965
 31
0.0
  0
ARC
  5
2F5
100
AcDbEntity
  8
1
100
AcDbCircle
 10
-578.178777
 20
-352.150965
 30
0.0
 40
2.0
100
AcDbArc
 50
180.0
 51
270.0
  0
LINE
  5
2F6
100
AcDbEntity
  8
1
100
AcDbLine
 10
-568.778446
 20
-308.344272
 30
0.0
 11
-568.778446
 21
-305.150965
 31
0.0
  0
LINE
  5
2F7
100
AcDbEntity
  8
1
100
AcDbLine
 10
-608.278446
 20
-334.150965
 30
0.0
 11
-597.278446
 21
-334.150965
 31
0.0
  0
ARC
  5
2F8
100
AcDbEntity
  8
1
100
AcDbCircle
 10
-597.278446
 20
-332.150965
 30
0.0
 40
2.0
100
AcDbArc
 50
270.0
 51
360.0
  0
ARC
  5
2F9
100
AcDbEntity
  8
1
100
AcDbCircle
 10
-608.278446
 20
-344.150965
 30
0.0
 40
10.0
100
AcDbArc
 50
90.0
 51
270.0
  0
ARC
  5
2FA
100
AcDbEntity
  8
1
100
AcDbCircle
 10
-595.278446
 20
-424.150965
 30
0.0
 40
118.8
100
AcDbArc
 50
75.123642
 51
77.110941
  0
LINE
  5
2FB
100
AcDbEntity
  8
1
100
AcDbLine
 10
-568.778446
 20
-308.344272
 30
0.0
 11
-593.278446
 21
-308.344272
 31
0.0
  0
LINE
  5
2FC
100
AcDbEntity
  8
1
100
AcDbLine
 10
-564.778446
 20
-309.332891
 30
0.0
 11
-578.178777
 21
-309.332891
 31
0.0
  0
ARC
  5
2FD
100
AcDbEntity
  8
1
100
AcDbCircle
 10
-578.178777
 20
-311.332891
 30
0.0
 40
2.0
100
AcDbArc
 50
90.0
 51
180.0
  0
ARC
  5
2FE
100
AcDbEntity
  8
1
100
AcDbCircle
 10
-593.278446
 20
-306.344272
 30
0.0
 40
2.0
100
AcDbArc
 50
180.0
 51
270.0
  0
LINE
  5
2FF
100
AcDbEntity
  8
1
100
AcDbLine
 10
-580.178777
 20
-536.969038
 30
0.0
 11
-580.178777
 21
-496.150965
 31
0.0
  0
ARC
  5
300
100
AcDbEntity
  8
1
100
AcDbCircle
 10
-578.178777
 20
-496.150965
 30
0.0
 40
2.0
100
AcDbArc
 50
90.0
 51
180.0
  0
LINE
  5
301
100
AcDbEntity
  8
1
100
AcDbLine
 10
-568.778446
 20
-539.957657
 30
0.0
 11
-568.778446
 21
-543.150965
 31
0.0
  0
LINE
  5
302
100
AcDbEntity
  8
1
100
AcDbLine
 10
-608.278446
 20
-514.150965
 30
0.0
 11
-597.278446
 21
-514.150965
 31
0.0
  0
ARC
  5
303
100
AcDbEntity
  8
1
100
AcDbCircle
 10
-597.278446
 20
-516.150965
 30
0.0
 40
2.0
100
AcDbArc
 50
0.0
 51
90.0
  0
ARC
  5
304
100
AcDbEntity
  8
1
100
AcDbCircle
 10
-608.278446
 20
-504.150965
 30
0.0
 40
10.0
100
AcDbArc
 50
90.0
 51
270.0
  0
ARC
  5
305
100
AcDbEntity
  8
1
100
AcDbCircle
 10
-595.278446
 20
-424.150965
 30
0.0
 40
118.8
100
AcDbArc
 50
282.889059
 51
284.876358
  0
LINE
  5
306
100
AcDbEntity
  8
1
100
AcDbLine
 10
-568.778446
 20
-539.957657
 30
0.0
 11
-593.278446
 21
-539.957657
 31
0.0
  0
LINE
  5
307
100
AcDbEntity
  8
1
100
AcDbLine
 10
-564.778446
 20
-538.969038
 30
0.0
 11
-578.178777
 21
-538.969038
 31
0.0
  0
ARC
  5
308
100
AcDbEntity
  8
1
100
AcDbCircle
 10
-578.178777
 20
-536.969038
 30
0.0
 40
2.0
100
AcDbArc
 50
180.0
 51
270.0
  0
ARC
  5
309
100
AcDbEntity
  8
1
100
AcDbCircle
 10
-593.278446
 20
-541.957657
 30
0.0
 40
2.0
100
AcDbArc
 50
90.0
 51
180.0
  0
ARC
  5
30A
100
AcDbEntity
  8
1
100
AcDbCircle
 10
-595.278446
 20
-424.150965
 30
0.0
 40
116.0
100
AcDbArc
 50
103.205732
 51
256.794268
  0
ARC
  5
30B
100
AcDbEntity
  8
1
100
AcDbCircle
 10
-595.278446
 20
-424.150965
 30
0.0
 40
116.0
100
AcDbArc
 50
285.244051
 51
74.755949
  0
CIRCLE
  5
30C
100
AcDbEntity
  8
1
100
AcDbCircle
 10
-608.328446
 20
-344.142465
 30
0.0
 40
5.025
  0
CIRCLE
  5
30D
100
AcDbEntity
  8
1
100
AcDbCircle
 10
-608.328446
 20
-344.142465
 30
0.0
 40
3.15
  0
CIRCLE
  5
30E
100
AcDbEntity
  8
1
 62
     2
100
AcDbCircle
 10
-608.328446
 20
-344.142465
 30
0.0
 40
3.0
  0
CIRCLE
  5
30F
100
AcDbEntity
  8
1
100
AcDbCircle
 10
-608.328446
 20
-344.142465
 30
0.0
 40
2.459
  0
CIRCLE
  5
310
100
AcDbEntity
  8
1
100
AcDbCircle
 10
-592.328446
 20
-504.159465
 30
0.0
 40
5.025
  0
CIRCLE
  5
311
100
AcDbEntity
  8
1
100
AcDbCircle
 10
-592.328446
 20
-504.159465
 30
0.0
 40
3.15
  0
CIRCLE
  5
312
100
AcDbEntity
  8
1
 62
     2
100
AcDbCircle
 10
-592.328446
 20
-504.159465
 30
0.0
 40
3.0
  0
CIRCLE
  5
313
100
AcDbEntity
  8
1
100
AcDbCircle
 10
-592.328446
 20
-504.159465
 30
0.0
 40
2.459
  0
LINE
  5
314
100
AcDbEntity
  8
1
100
AcDbLine
 10
-621.778446
 20
-298.452914
 30
0.0
 11
-592.328446
 21
-298.452914
 31
0.0
  0
ARC
  5
315
100
AcDbEntity
  8
1
100
AcDbCircle
 10
-575.328446
 20
343.79253
 30
0.0
 40
640.912012
100
AcDbArc
 50
266.959066
 51
268.480068
  0
ARC
  5
316
100
AcDbEntity
  8
1
100
AcDbCircle
 10
-592.778446
 20
-424.150965
 30
0.0
 40
129.0
100
AcDbArc
 50
97.371053
 51
102.991482
  0
LINE
  5
317
100
AcDbEntity
  8
1
100
AcDbLine
 10
-592.328446
 20
-305.150965
 30
0.0
 11
-568.778446
 21
-305.150965
 31
0.0
  0
LINE
  5
318
100
AcDbEntity
  8
1
100
AcDbLine
 10
-592.328446
 20
-296.893983
 30
0.0
 11
-592.328446
 21
-305.150965
 31
0.0
  0
LINE
  5
319
100
AcDbEntity
  8
1
100
AcDbLine
 10
-568.854026
 20
-304.022816
 30
0.0
 11
-568.854026
 21
-305.150965
 31
0.0
  0
ARC
  5
31A
100
AcDbEntity
  8
1
100
AcDbCircle
 10
-595.276647
 20
-424.151268
 30
0.0
 40
123.0
100
AcDbArc
 50
77.595146
 51
80.722244
  0
ARC
  5
31B
100
AcDbEntity
  8
1
100
AcDbCircle
 10
-575.446503
 20
155.979919
 30
0.0
 40
458.740226
100
AcDbArc
 50
269.889847
 51
270.0
  0
LINE
  5
31C
100
AcDbEntity
  8
1
100
AcDbLine
 10
-575.446503
 20
-302.760307
 30
0.0
 11
-575.446503
 21
-305.150965
 31
0.0
  0
LINE
  5
31D
100
AcDbEntity
  8
1
100
AcDbLine
 10
-568.778446
 20
-539.957657
 30
0.0
 11
-568.778446
 21
-543.150965
 31
0.0
  0
LINE
  5
31E
100
AcDbEntity
  8
1
100
AcDbLine
 10
-621.778446
 20
-549.849016
 30
0.0
 11
-592.328446
 21
-549.849016
 31
0.0
  0
ARC
  5
31F
100
AcDbEntity
  8
1
100
AcDbCircle
 10
-575.328446
 20
-1192.094459
 30
0.0
 40
640.912012
100
AcDbArc
 50
91.519932
 51
93.040934
  0
ARC
  5
320
100
AcDbEntity
  8
1
100
AcDbCircle
 10
-592.778446
 20
-424.150965
 30
0.0
 40
129.0
100
AcDbArc
 50
257.008518
 51
262.628947
  0
LINE
  5
321
100
AcDbEntity
  8
1
100
AcDbLine
 10
-592.328446
 20
-543.150965
 30
0.0
 11
-568.778446
 21
-543.150965
 31
0.0
  0
LINE
  5
322
100
AcDbEntity
  8
1
100
AcDbLine
 10
-592.328446
 20
-551.407947
 30
0.0
 11
-592.328446
 21
-543.150965
 31
0.0
  0
LINE
  5
323
100
AcDbEntity
  8
1
100
AcDbLine
 10
-568.854026
 20
-544.279114
 30
0.0
 11
-568.854026
 21
-543.150965
 31
0.0
  0
ARC
  5
324
100
AcDbEntity
  8
1
100
AcDbCircle
 10
-595.276647
 20
-424.150662
 30
0.0
 40
123.0
100
AcDbArc
 50
279.277756
 51
282.404854
  0
ARC
  5
325
100
AcDbEntity
  8
1
100
AcDbCircle
 10
-575.446503
 20
-1004.281848
 30
0.0
 40
458.740226
100
AcDbArc
 50
90.0
 51
90.110153
  0
LINE
  5
326
100
AcDbEntity
  8
1
100
AcDbLine
 10
-575.446503
 20
-545.541622
 30
0.0
 11
-575.446503
 21
-543.150965
 31
0.0
  0
ARC
  5
327
100
AcDbEntity
  8
1
100
AcDbCircle
 10
-595.278446
 20
-424.150965
 30
0.0
 40
118.213782
100
AcDbArc
 50
102.954084
 51
257.045916
  0
ARC
  5
328
100
AcDbEntity
  8
1
100
AcDbCircle
 10
-595.278446
 20
-424.150965
 30
0.0
 40
118.213782
100
AcDbArc
 50
284.951846
 51
75.048154
  0
ARC
  5
329
100
AcDbEntity
  8
1
100
AcDbCircle
 10
-595.278446
 20
-424.150965
 30
0.0
 40
119.608394
100
AcDbArc
 50
102.800462
 51
257.199538
  0
ARC
  5
32A
100
AcDbEntity
  8
1
100
AcDbCircle
 10
-595.278446
 20
-424.150965
 30
0.0
 40
119.608394
100
AcDbArc
 50
282.800462
 51
77.199538
  0
LINE
  5
32B
100
AcDbEntity
  8
1
100
AcDbLine
 10
-608.328446
 20
-296.269348
 30
0.0
 11
-608.328446
 21
-293.300105
 31
0.0
  0
LINE
  5
32C
100
AcDbEntity
  8
1
100
AcDbLine
 10
-608.328446
 20
-555.001825
 30
0.0
 11
-608.328446
 21
-552.032582
 31
0.0
  0
LINE
  5
32D
100
AcDbEntity
  8
1
100
AcDbLine
 10
-608.328446
 20
-494.150965
 30
0.0
 11
-608.328446
 21
-427.650965
 31
0.0
  0
LINE
  5
32E
100
AcDbEntity
  8
1
100
AcDbLine
 10
-608.328446
 20
-420.650965
 30
0.0
 11
-608.328446
 21
-354.150965
 31
0.0
  0
LINE
  5
32F
100
AcDbEntity
  8
1
100
AcDbLine
 10
-576.328446
 20
-554.278393
 30
0.0
 11
-576.328446
 21
-543.150965
 31
0.0
  0
LINE
  5
330
100
AcDbEntity
  8
1
100
AcDbLine
 10
-576.328446
 20
-494.150965
 30
0.0
 11
-576.328446
 21
-427.650965
 31
0.0
  0
LINE
  5
331
100
AcDbEntity
  8
1
100
AcDbLine
 10
-576.328446
 20
-420.650965
 30
0.0
 11
-576.328446
 21
-354.150965
 31
0.0
  0
LINE
  5
332
100
AcDbEntity
  8
1
100
AcDbLine
 10
-576.328446
 20
-305.150965
 30
0.0
 11
-576.328446
 21
-294.023537
 31
0.0
  0
LINE
  5
333
100
AcDbEntity
  8
1
100
AcDbLine
 10
-616.778446
 20
-383.650965
 30
0.0
 11
-608.328446
 21
-383.650965
 31
0.0
  0
LINE
  5
334
100
AcDbEntity
  8
1
100
AcDbLine
 10
-576.328446
 20
-383.650965
 30
0.0
 11
-573.778446
 21
-383.650965
 31
0.0
  0
LINE
  5
335
100
AcDbEntity
  8
1
100
AcDbLine
 10
-616.778446
 20
-390.650965
 30
0.0
 11
-608.328446
 21
-390.650965
 31
0.0
  0
LINE
  5
336
100
AcDbEntity
  8
1
100
AcDbLine
 10
-576.328446
 20
-390.650965
 30
0.0
 11
-573.778446
 21
-390.650965
 31
0.0
  0
LINE
  5
337
100
AcDbEntity
  8
1
100
AcDbLine
 10
-616.778446
 20
-457.650965
 30
0.0
 11
-608.328446
 21
-457.650965
 31
0.0
  0
LINE
  5
338
100
AcDbEntity
  8
1
100
AcDbLine
 10
-576.328446
 20
-457.650965
 30
0.0
 11
-573.778446
 21
-457.650965
 31
0.0
  0
LINE
  5
339
100
AcDbEntity
  8
1
100
AcDbLine
 10
-616.778446
 20
-464.650965
 30
0.0
 11
-608.328446
 21
-464.650965
 31
0.0
  0
LINE
  5
33A
100
AcDbEntity
  8
1
100
AcDbLine
 10
-576.328446
 20
-464.650965
 30
0.0
 11
-573.778446
 21
-464.650965
 31
0.0
  0
ARC
  5
33B
100
AcDbEntity
  8
1
100
AcDbCircle
 10
-595.278446
 20
-424.150965
 30
0.0
 40
109.0
100
AcDbArc
 50
358.159911
 51
1.840089
  0
ARC
  5
33C
100
AcDbEntity
  8
1
100
AcDbCircle
 10
-595.278446
 20
-424.150965
 30
0.0
 40
109.0
100
AcDbArc
 50
2.946409
 51
17.121114
  0
ARC
  5
33D
100
AcDbEntity
  8
1
100
AcDbCircle
 10
-595.278446
 20
-424.150965
 30
0.0
 40
109.0
100
AcDbArc
 50
162.878886
 51
177.053591
  0
ARC
  5
33E
100
AcDbEntity
  8
1
100
AcDbCircle
 10
-595.278446
 20
-424.150965
 30
0.0
 40
109.0
100
AcDbArc
 50
178.159911
 51
181.840089
  0
LINE
  5
33F
100
AcDbEntity
  8
1
  6
CENTER
 62
     2
100
AcDbLine
 10
-617.401203
 20
-344.142465
 30
0.0
 11
-598.754803
 21
-344.142465
 31
0.0
  0
LINE
  5
340
100
AcDbEntity
  8
1
  6
CENTER
 62
     2
100
AcDbLine
 10
-608.328446
 20
-353.164484
 30
0.0
 11
-608.328446
 21
-335.327997
 31
0.0
  0
LINE
  5
341
100
AcDbEntity
  8
1
  6
CENTER
 62
     2
100
AcDbLine
 10
-601.401203
 20
-504.159465
 30
0.0
 11
-582.754803
 21
-504.159465
 31
0.0
  0
LINE
  5
342
100
AcDbEntity
  8
1
100
AcDbLine
 10
-429.828446
 20
603.649035
 30
0.0
 11
-449.328446
 21
603.649035
 31
0.0
  0
LINE
  5
343
100
AcDbEntity
  8
1
  6
DASHED
100
AcDbLine
 10
-449.328446
 20
603.649035
 30
0.0
 11
-522.328446
 21
603.649035
 31
0.0
  0
LINE
  5
344
100
AcDbEntity
  8
1
100
AcDbLine
 10
-405.828446
 20
597.649035
 30
0.0
 11
-449.328446
 21
597.649035
 31
0.0
  0
LINE
  5
345
100
AcDbEntity
  8
1
  6
DASHED
100
AcDbLine
 10
-449.328446
 20
597.649035
 30
0.0
 11
-463.747589
 21
597.649035
 31
0.0
  0
LINE
  5
346
100
AcDbEntity
  8
1
100
AcDbLine
 10
-405.46987
 20
587.674884
 30
0.0
 11
-449.328446
 21
581.318504
 31
0.0
  0
LINE
  5
347
100
AcDbEntity
  8
1
  6
DASHED
100
AcDbLine
 10
-449.328446
 20
581.318504
 30
0.0
 11
-467.747589
 21
578.649035
 31
0.0
  0
LINE
  5
348
100
AcDbEntity
  8
1
  6
DASHED
100
AcDbLine
 10
-522.328446
 20
573.371467
 30
0.0
 11
-449.328446
 21
573.371467
 31
0.0
  0
LINE
  5
349
100
AcDbEntity
  8
1
100
AcDbLine
 10
-449.328446
 20
573.371467
 30
0.0
 11
-446.689635
 21
573.371467
 31
0.0
  0
LINE
  5
34A
100
AcDbEntity
  8
1
  6
DASHED
100
AcDbLine
 10
-522.328446
 20
556.926604
 30
0.0
 11
-449.328446
 21
556.926604
 31
0.0
  0
LINE
  5
34B
100
AcDbEntity
  8
1
100
AcDbLine
 10
-449.328446
 20
556.926604
 30
0.0
 11
-446.689635
 21
556.926604
 31
0.0
  0
LINE
  5
34C
100
AcDbEntity
  8
1
100
AcDbLine
 10
-438.294982
 20
551.649035
 30
0.0
 11
-449.328446
 21
551.649035
 31
0.0
  0
LINE
  5
34D
100
AcDbEntity
  8
1
  6
DASHED
100
AcDbLine
 10
-449.328446
 20
551.649035
 30
0.0
 11
-472.331211
 21
551.649035
 31
0.0
  0
LINE
  5
34E
100
AcDbEntity
  8
1
100
AcDbLine
 10
-429.828446
 20
533.649035
 30
0.0
 11
-449.328446
 21
533.649035
 31
0.0
  0
LINE
  5
34F
100
AcDbEntity
  8
1
  6
DASHED
100
AcDbLine
 10
-449.328446
 20
533.649035
 30
0.0
 11
-522.328446
 21
533.649035
 31
0.0
  0
ARC
  5
350
100
AcDbEntity
  8
1
100
AcDbCircle
 10
-561.129762
 20
-95.150965
 30
0.0
 40
16.0
100
AcDbArc
 50
180.0
 51
198.209957
  0
LINE
  5
351
100
AcDbEntity
  8
1
100
AcDbLine
 10
-778.828446
 20
597.649035
 30
0.0
 11
-758.328446
 21
597.649035
 31
0.0
  0
LINE
  5
352
100
AcDbEntity
  8
1
  6
DASHED
100
AcDbLine
 10
-758.328446
 20
597.649035
 30
0.0
 11
-720.909304
 21
597.649035
 31
0.0
  0
LINE
  5
353
100
AcDbEntity
  8
1
100
AcDbLine
 10
-779.187023
 20
587.674884
 30
0.0
 11
-758.328446
 21
584.651871
 31
0.0
  0
LINE
  5
354
100
AcDbEntity
  8
1
  6
DASHED
100
AcDbLine
 10
-758.328446
 20
584.651871
 30
0.0
 11
-716.909304
 21
578.649035
 31
0.0
  0
LINE
  5
355
100
AcDbEntity
  8
1
100
AcDbLine
 10
-779.486822
 20
587.737285
 30
0.0
 11
-758.328446
 21
581.961329
 31
0.0
  0
LINE
  5
356
100
AcDbEntity
  8
1
  6
DASHED
100
AcDbLine
 10
-758.328446
 20
581.961329
 30
0.0
 11
-746.033809
 21
578.605056
 31
0.0
  0
ARC
  5
357
100
AcDbEntity
  8
1
  6
DASHED
100
AcDbCircle
 10
-634.528446
 20
605.849035
 30
0.0
 40
27.8
100
AcDbArc
 50
90.000002
 51
180.000003
  0
LINE
  5
358
100
AcDbEntity
  8
1
  6
DASHED
100
AcDbLine
 10
-550.128446
 20
633.649035
 30
0.0
 11
-634.528446
 21
633.649035
 31
0.0
  0
ARC
  5
359
100
AcDbEntity
  8
1
  6
DASHED
100
AcDbCircle
 10
-550.128446
 20
605.849035
 30
0.0
 40
27.8
100
AcDbArc
 50
360.0
 51
90.000002
  0
LINE
  5
35A
100
AcDbEntity
  8
2
  6
CENTER
 62
     2
100
AcDbLine
 10
-367.898847
 20
563.649035
 30
0.0
 11
-825.021994
 21
563.649035
 31
0.0
  0
LINE
  5
35B
100
AcDbEntity
  8
2
100
AcDbLine
 10
-505.328446
 20
603.649035
 30
0.0
 11
-505.328446
 21
529.649035
 31
0.0
  0
LINE
  5
35C
100
AcDbEntity
  8
2
100
AcDbLine
 10
-661.328446
 20
616.649035
 30
0.0
 11
-513.328446
 21
616.649035
 31
0.0
  0
ARC
  5
35D
100
AcDbEntity
  8
2
100
AcDbCircle
 10
-513.328446
 20
610.649035
 30
0.0
 40
6.0
100
AcDbArc
 50
0.0
 51
90.0
  0
LINE
  5
35E
100
AcDbEntity
  8
2
100
AcDbLine
 10
-507.328446
 20
610.649035
 30
0.0
 11
-507.328446
 21
522.649035
 31
0.0
  0
LINE
  5
35F
100
AcDbEntity
  8
2
100
AcDbLine
 10
-667.328446
 20
522.649035
 30
0.0
 11
-667.328446
 21
610.649035
 31
0.0
  0
LINE
  5
360
100
AcDbEntity
  8
2
100
AcDbLine
 10
-671.627598
 20
516.649035
 30
0.0
 11
-513.328446
 21
516.649035
 31
0.0
  0
ARC
  5
361
100
AcDbEntity
  8
2
100
AcDbCircle
 10
-513.328446
 20
522.649035
 30
0.0
 40
6.0
100
AcDbArc
 50
270.0
 51
360.0
  0
ARC
  5
362
100
AcDbEntity
  8
2
100
AcDbCircle
 10
-661.328446
 20
522.649035
 30
0.0
 40
6.0
100
AcDbArc
 50
180.0
 51
270.0
  0
LINE
  5
363
100
AcDbEntity
  8
2
100
AcDbLine
 10
-479.645503
 20
517.649035
 30
0.0
 11
-510.028446
 21
517.649035
 31
0.0
  0
LINE
  5
364
100
AcDbEntity
  8
2
100
AcDbLine
 10
-471.328446
 20
487.649035
 30
0.0
 11
-758.328446
 21
487.649035
 31
0.0
  0
LINE
  5
365
100
AcDbEntity
  8
2
100
AcDbLine
 10
-759.328446
 20
486.649035
 30
0.0
 11
-759.328446
 21
474.649035
 31
0.0
  0
LINE
  5
366
100
AcDbEntity
  8
2
100
AcDbLine
 10
-759.328446
 20
482.649035
 30
0.0
 11
-470.328446
 21
482.649035
 31
0.0
  0
LINE
  5
367
100
AcDbEntity
  8
2
100
AcDbLine
 10
-470.328446
 20
486.649035
 30
0.0
 11
-470.328446
 21
472.649035
 31
0.0
  0
LINE
  5
368
100
AcDbEntity
  8
2
100
AcDbLine
 10
-750.488685
 20
526.649035
 30
0.0
 11
-681.627598
 21
526.649035
 31
0.0
  0
LINE
  5
369
100
AcDbEntity
  8
2
100
AcDbLine
 10
-467.328446
 20
513.649035
 30
0.0
 11
-467.328446
 21
625.649035
 31
0.0
  0
LINE
  5
36A
100
AcDbEntity
  8
2
100
AcDbLine
 10
-467.328446
 20
513.649035
 30
0.0
 11
-472.583488
 21
513.649035
 31
0.0
  0
LINE
  5
36B
100
AcDbEntity
  8
2
100
AcDbLine
 10
-467.328446
 20
625.649035
 30
0.0
 11
-471.328446
 21
625.649035
 31
0.0
  0
ARC
  5
36C
100
AcDbEntity
  8
2
100
AcDbCircle
 10
-471.328446
 20
624.649035
 30
0.0
 40
1.0
100
AcDbArc
 50
90.0
 51
180.0
  0
LINE
  5
36D
100
AcDbEntity
  8
2
100
AcDbLine
 10
-626.328446
 20
637.649035
 30
0.0
 11
-558.328446
 21
637.649035
 31
0.0
  0
LINE
  5
36E
100
AcDbEntity
  8
2
100
AcDbLine
 10
-543.328446
 20
640.649035
 30
0.0
 11
-517.328446
 21
640.649035
 31
0.0
  0
ARC
  5
36F
100
AcDbEntity
  8
2
100
AcDbCircle
 10
-750.328446
 20
622.649035
 30
0.0
 40
8.0
100
AcDbArc
 50
90.0
 51
270.0
  0
LINE
  5
370
100
AcDbEntity
  8
2
100
AcDbLine
 10
-758.328446
 20
622.649035
 30
0.0
 11
-758.328446
 21
504.649035
 31
0.0
  0
LINE
  5
371
100
AcDbEntity
  8
2
100
AcDbLine
 10
-750.328446
 20
630.649035
 30
0.0
 11
-739.969463
 21
630.649035
 31
0.0
  0
LINE
  5
372
100
AcDbEntity
  8
2
100
AcDbLine
 10
-738.969463
 20
640.649035
 30
0.0
 11
-655.728446
 21
640.649035
 31
0.0
  0
LINE
  5
373
100
AcDbEntity
  8
2
100
AcDbLine
 10
-750.328446
 20
614.649035
 30
0.0
 11
-746.328446
 21
614.649035
 31
0.0
  0
ARC
  5
374
100
AcDbEntity
  8
2
100
AcDbCircle
 10
-750.328446
 20
504.649035
 30
0.0
 40
8.0
100
AcDbArc
 50
126.62486
 51
203.989742
  0
LINE
  5
375
100
AcDbEntity
  8
2
100
AcDbLine
 10
-743.328446
 20
622.649035
 30
0.0
 11
-743.328446
 21
531.649035
 31
0.0
  0
LINE
  5
376
100
AcDbEntity
  8
2
100
AcDbLine
 10
-654.68743
 20
630.649035
 30
0.0
 11
-627.328446
 21
630.649035
 31
0.0
  0
LINE
  5
377
100
AcDbEntity
  8
2
100
AcDbLine
 10
-557.328446
 20
630.649035
 30
0.0
 11
-546.328446
 21
630.649035
 31
0.0
  0
LINE
  5
378
100
AcDbEntity
  8
2
100
AcDbLine
 10
-514.328446
 20
630.649035
 30
0.0
 11
-508.328446
 21
630.649035
 31
0.0
  0
ARC
  5
379
100
AcDbEntity
  8
2
100
AcDbCircle
 10
-508.328446
 20
622.649035
 30
0.0
 40
8.0
100
AcDbArc
 50
0.0
 51
90.0
  0
ARC
  5
37A
100
AcDbEntity
  8
2
100
AcDbCircle
 10
-473.328446
 20
623.649035
 30
0.0
 40
1.0
100
AcDbArc
 50
270.0
 51
360.0
  0
LINE
  5
37B
100
AcDbEntity
  8
2
100
AcDbLine
 10
-473.328446
 20
622.649035
 30
0.0
 11
-505.596396
 21
622.649035
 31
0.0
  0
LINE
  5
37C
100
AcDbEntity
  8
2
100
AcDbLine
 10
-726.878434
 20
94.849035
 30
0.0
 11
-497.206556
 21
94.849035
 31
0.0
  0
LINE
  5
37D
100
AcDbEntity
  8
2
100
AcDbLine
 10
-507.328446
 20
225.849035
 30
0.0
 11
-667.328446
 21
225.849035
 31
0.0
  0
LINE
  5
37E
100
AcDbEntity
  8
2
100
AcDbLine
 10
-507.328446
 20
225.849035
 30
0.0
 11
-507.328446
 21
213.470592
 31
0.0
  0
LINE
  5
37F
100
AcDbEntity
  8
2
100
AcDbLine
 10
-505.328446
 20
222.849035
 30
0.0
 11
-505.328446
 21
213.610445
 31
0.0
  0
LINE
  5
380
100
AcDbEntity
  8
2
100
AcDbLine
 10
-500.328446
 20
93.849035
 30
0.0
 11
-758.328446
 21
93.849035
 31
0.0
  0
LINE
  5
381
100
AcDbEntity
  8
2
100
AcDbLine
 10
-467.328446
 20
95.849035
 30
0.0
 11
-471.328446
 21
95.849035
 31
0.0
  0
ARC
  5
382
100
AcDbEntity
  8
2
100
AcDbCircle
 10
-471.328446
 20
96.849035
 30
0.0
 40
1.0
100
AcDbArc
 50
180.0
 51
270.0
  0
LINE
  5
383
100
AcDbEntity
  8
2
100
AcDbLine
 10
-467.328446
 20
183.849035
 30
0.0
 11
-473.781526
 21
183.849035
 31
0.0
  0
LINE
  5
384
100
AcDbEntity
  8
2
100
AcDbLine
 10
-472.328446
 20
96.849035
 30
0.0
 11
-472.328446
 21
127.435924
 31
0.0
  0
LINE
  5
385
100
AcDbEntity
  8
2
100
AcDbLine
 10
-472.328446
 20
176.262146
 30
0.0
 11
-472.328446
 21
183.849035
 31
0.0
  0
ARC
  5
386
100
AcDbEntity
  8
2
100
AcDbCircle
 10
-473.328446
 20
97.849035
 30
0.0
 40
1.0
100
AcDbArc
 50
0.0
 51
90.0
  0
LINE
  5
387
100
AcDbEntity
  8
2
100
AcDbLine
 10
-473.328446
 20
98.849035
 30
0.0
 11
-484.578446
 21
98.849035
 31
0.0
  0
LINE
  5
388
100
AcDbEntity
  8
2
100
AcDbLine
 10
-473.328446
 20
98.849035
 30
0.0
 11
-484.528446
 21
98.849035
 31
0.0
  0
ARC
  5
389
100
AcDbEntity
  8
2
100
AcDbCircle
 10
-499.328446
 20
93.849035
 30
0.0
 40
1.0
100
AcDbArc
 50
90.0
 51
180.0
  0
LINE
  5
38A
100
AcDbEntity
  8
2
100
AcDbLine
 10
101.771554
 20
93.849035
 30
0.0
 11
235.771554
 21
93.849035
 31
0.0
  0
LINE
  5
38B
100
AcDbEntity
  8
2
100
AcDbLine
 10
87.771554
 20
213.75041
 30
0.0
 11
87.771554
 21
94.849035
 31
0.0
  0
LINE
  5
38C
100
AcDbEntity
  8
2
100
AcDbLine
 10
77.771554
 20
94.849035
 30
0.0
 11
91.771554
 21
94.849035
 31
0.0
  0
LINE
  5
38D
100
AcDbEntity
  8
2
100
AcDbLine
 10
92.771554
 20
95.849035
 30
0.0
 11
92.771554
 21
212.75041
 31
0.0
  0
LINE
  5
38E
100
AcDbEntity
  8
2
100
AcDbLine
 10
-520.328446
 20
433.649035
 30
0.0
 11
-540.328446
 21
433.649035
 31
0.0
  0
LINE
  5
38F
100
AcDbEntity
  8
2
100
AcDbLine
 10
-520.328446
 20
433.649035
 30
0.0
 11
-519.328446
 21
432.649035
 31
0.0
  0
LINE
  5
390
100
AcDbEntity
  8
2
100
AcDbLine
 10
-519.328446
 20
425.699035
 30
0.0
 11
-519.328446
 21
432.649035
 31
0.0
  0
ARC
  5
391
100
AcDbEntity
  8
2
100
AcDbCircle
 10
-517.328446
 20
425.699035
 30
0.0
 40
2.0
100
AcDbArc
 50
180.0
 51
270.0
  0
ARC
  5
392
100
AcDbEntity
  8
2
100
AcDbCircle
 10
-486.328446
 20
417.699035
 30
0.0
 40
6.0
100
AcDbArc
 50
282.063826
 51
89.678732
  0
LINE
  5
393
100
AcDbEntity
  8
2
100
AcDbLine
 10
-521.828446
 20
423.699035
 30
0.0
 11
-518.778446
 21
423.699035
 31
0.0
  0
ARC
  5
394
100
AcDbEntity
  8
2
100
AcDbCircle
 10
-521.828446
 20
411.699035
 30
0.0
 40
12.0
100
AcDbArc
 50
90.0
 51
110.044444
  0
LINE
  5
395
100
AcDbEntity
  8
2
100
AcDbLine
 10
-502.028446
 20
423.699035
 30
0.0
 11
-498.728446
 21
423.699035
 31
0.0
  0
ARC
  5
396
100
AcDbEntity
  8
2
100
AcDbCircle
 10
-518.778446
 20
420.699035
 30
0.0
 40
3.0
100
AcDbArc
 50
0.0
 51
90.0
  0
ARC
  5
397
100
AcDbEntity
  8
2
100
AcDbCircle
 10
-521.328446
 20
421.699035
 30
0.0
 40
2.0
100
AcDbArc
 50
0.0
 51
90.0
  0
LINE
  5
398
100
AcDbEntity
  8
2
100
AcDbLine
 10
-562.611014
 20
409.649035
 30
0.0
 11
-498.045879
 21
409.649035
 31
0.0
  0
LINE
  5
399
100
AcDbEntity
  8
2
100
AcDbLine
 10
-483.610113
 20
417.699035
 30
0.0
 11
-492.823448
 21
417.699035
 31
0.0
  0
LINE
  5
39A
100
AcDbEntity
  8
2
100
AcDbLine
 10
-497.486893
 20
417.699035
 30
0.0
 11
-514.778446
 21
417.699035
 31
0.0
  0
LINE
  5
39B
100
AcDbEntity
  8
2
100
AcDbLine
 10
-520.328446
 20
417.699035
 30
0.0
 11
-540.328446
 21
417.699035
 31
0.0
  0
LINE
  5
39C
100
AcDbEntity
  8
2
100
AcDbLine
 10
-519.328446
 20
418.699035
 30
0.0
 11
-519.328446
 21
421.699035
 31
0.0
  0
ARC
  5
39D
100
AcDbEntity
  8
2
100
AcDbCircle
 10
-520.328446
 20
418.699035
 30
0.0
 40
1.0
100
AcDbArc
 50
270.0
 51
360.0
  0
ARC
  5
39E
100
AcDbEntity
  8
2
100
AcDbCircle
 10
-530.328446
 20
434.949035
 30
0.0
 40
12.75
100
AcDbArc
 50
249.950024
 51
290.044444
  0
LINE
  5
39F
100
AcDbEntity
  8
2
100
AcDbLine
 10
-515.778446
 20
418.699035
 30
0.0
 11
-515.778446
 21
420.699035
 31
0.0
  0
ARC
  5
3A0
100
AcDbEntity
  8
2
100
AcDbCircle
 10
-505.178446
 20
416.499035
 30
0.0
 40
9.0
100
AcDbArc
 50
15.962014
 51
39.79182
  0
ARC
  5
3A1
100
AcDbEntity
  8
2
100
AcDbCircle
 10
-502.578446
 20
416.499035
 30
0.0
 40
9.0
100
AcDbArc
 50
12.709033
 51
39.555556
  0
ARC
  5
3A2
100
AcDbEntity
  8
2
100
AcDbCircle
 10
-498.728446
 20
419.699035
 30
0.0
 40
4.0
100
AcDbArc
 50
39.555556
 51
90.0
  0
ARC
  5
3A3
100
AcDbEntity
  8
2
100
AcDbCircle
 10
-509.428446
 20
452.199035
 30
0.0
 40
30.0
100
AcDbArc
 50
255.130114
 51
270.0
  0
ARC
  5
3A4
100
AcDbEntity
  8
2
100
AcDbCircle
 10
-508.078446
 20
432.199035
 30
0.0
 40
10.0
100
AcDbArc
 50
270.0
 51
297.777778
  0
ARC
  5
3A5
100
AcDbEntity
  8
2
100
AcDbCircle
 10
-502.028446
 20
420.699035
 30
0.0
 40
3.0
100
AcDbArc
 50
90.0
 51
117.777778
  0
ARC
  5
3A6
100
AcDbEntity
  8
2
100
AcDbCircle
 10
-488.528446
 20
417.799035
 30
0.0
 40
6.0
100
AcDbArc
 50
10.36976
 51
70.754889
  0
ARC
  5
3A7
100
AcDbEntity
  8
2
100
AcDbCircle
 10
-487.628446
 20
417.849035
 30
0.0
 40
6.0
100
AcDbArc
 50
3.279341
 51
77.157379
  0
ARC
  5
3A8
100
AcDbEntity
  8
2
100
AcDbCircle
 10
-491.128446
 20
442.199035
 30
0.0
 40
20.0
100
AcDbArc
 50
255.003993
 51
270.0
  0
ARC
  5
3A9
100
AcDbEntity
  8
2
100
AcDbCircle
 10
-491.378446
 20
427.199035
 30
0.0
 40
5.0
100
AcDbArc
 50
270.0
 51
306.547676
  0
ARC
  5
3AA
100
AcDbEntity
  8
2
100
AcDbCircle
 10
-517.328446
 20
421.699035
 30
0.0
 40
2.0
100
AcDbArc
 50
35.562443
 51
90.0
  0
LINE
  5
3AB
100
AcDbEntity
  8
2
100
AcDbLine
 10
-490.878446
 20
411.799035
 30
0.0
 11
-570.978446
 21
411.799035
 31
0.0
  0
LINE
  5
3AC
100
AcDbEntity
  8
2
100
AcDbLine
 10
-509.428446
 20
422.199035
 30
0.0
 11
-508.078446
 21
422.199035
 31
0.0
  0
LINE
  5
3AD
100
AcDbEntity
  8
2
100
AcDbLine
 10
-540.328446
 20
433.649035
 30
0.0
 11
-541.328446
 21
432.649035
 31
0.0
  0
LINE
  5
3AE
100
AcDbEntity
  8
2
100
AcDbLine
 10
-541.328446
 20
425.699035
 30
0.0
 11
-541.328446
 21
432.649035
 31
0.0
  0
ARC
  5
3AF
100
AcDbEntity
  8
2
100
AcDbCircle
 10
-543.328446
 20
425.699035
 30
0.0
 40
2.0
100
AcDbArc
 50
270.0
 51
360.0
  0
ARC
  5
3B0
100
AcDbEntity
  8
2
100
AcDbCircle
 10
-574.328446
 20
417.699035
 30
0.0
 40
6.0
100
AcDbArc
 50
90.321268
 51
259.3
  0
LINE
  5
3B1
100
AcDbEntity
  8
2
100
AcDbLine
 10
-538.813728
 20
423.699035
 30
0.0
 11
-541.878446
 21
423.699035
 31
0.0
  0
LINE
  5
3B2
100
AcDbEntity
  8
2
100
AcDbLine
 10
-558.628446
 20
423.699035
 30
0.0
 11
-561.928446
 21
423.699035
 31
0.0
  0
ARC
  5
3B3
100
AcDbEntity
  8
2
100
AcDbCircle
 10
-541.878446
 20
420.699035
 30
0.0
 40
3.0
100
AcDbArc
 50
90.0
 51
180.0
  0
ARC
  5
3B4
100
AcDbEntity
  8
2
100
AcDbCircle
 10
-539.328446
 20
421.699035
 30
0.0
 40
2.0
100
AcDbArc
 50
90.0
 51
180.0
  0
LINE
  5
3B5
100
AcDbEntity
  8
2
100
AcDbLine
 10
-577.046779
 20
417.699035
 30
0.0
 11
-567.833445
 21
417.699035
 31
0.0
  0
LINE
  5
3B6
100
AcDbEntity
  8
2
100
AcDbLine
 10
-563.17
 20
417.699035
 30
0.0
 11
-545.878446
 21
417.699035
 31
0.0
  0
LINE
  5
3B7
100
AcDbEntity
  8
2
100
AcDbLine
 10
-541.328446
 20
418.699035
 30
0.0
 11
-541.328446
 21
421.699035
 31
0.0
  0
ARC
  5
3B8
100
AcDbEntity
  8
2
100
AcDbCircle
 10
-540.328446
 20
418.699035
 30
0.0
 40
1.0
100
AcDbArc
 50
180.0
 51
270.0
  0
LINE
  5
3B9
100
AcDbEntity
  8
2
100
AcDbLine
 10
-544.878446
 20
418.699035
 30
0.0
 11
-544.878446
 21
420.699035
 31
0.0
  0
ARC
  5
3BA
100
AcDbEntity
  8
2
100
AcDbCircle
 10
-555.478446
 20
416.499035
 30
0.0
 40
9.0
100
AcDbArc
 50
140.208181
 51
164.037986
  0
ARC
  5
3BB
100
AcDbEntity
  8
2
100
AcDbCircle
 10
-558.078446
 20
416.499035
 30
0.0
 40
9.0
100
AcDbArc
 50
140.444444
 51
167.290967
  0
ARC
  5
3BC
100
AcDbEntity
  8
2
100
AcDbCircle
 10
-561.928446
 20
419.699035
 30
0.0
 40
4.0
100
AcDbArc
 50
90.0
 51
140.444444
  0
ARC
  5
3BD
100
AcDbEntity
  8
2
100
AcDbCircle
 10
-551.228446
 20
452.199035
 30
0.0
 40
30.0
100
AcDbArc
 50
270.0
 51
284.869886
  0
ARC
  5
3BE
100
AcDbEntity
  8
2
100
AcDbCircle
 10
-552.578446
 20
432.199035
 30
0.0
 40
10.0
100
AcDbArc
 50
242.222222
 51
270.0
  0
ARC
  5
3BF
100
AcDbEntity
  8
2
100
AcDbCircle
 10
-558.628446
 20
420.699035
 30
0.0
 40
3.0
100
AcDbArc
 50
62.222222
 51
90.0
  0
ARC
  5
3C0
100
AcDbEntity
  8
2
100
AcDbCircle
 10
-572.128446
 20
417.799035
 30
0.0
 40
6.0
100
AcDbArc
 50
109.245111
 51
169.63024
  0
ARC
  5
3C1
100
AcDbEntity
  8
2
100
AcDbCircle
 10
-573.028446
 20
417.849035
 30
0.0
 40
6.0
100
AcDbArc
 50
102.842621
 51
176.720659
  0
ARC
  5
3C2
100
AcDbEntity
  8
2
100
AcDbCircle
 10
-569.528446
 20
442.199035
 30
0.0
 40
20.0
100
AcDbArc
 50
270.0
 51
284.996007
  0
ARC
  5
3C3
100
AcDbEntity
  8
2
100
AcDbCircle
 10
-569.278446
 20
427.199035
 30
0.0
 40
5.0
100
AcDbArc
 50
233.452324
 51
270.0
  0
ARC
  5
3C4
100
AcDbEntity
  8
2
100
AcDbCircle
 10
-543.328446
 20
421.699035
 30
0.0
 40
2.0
100
AcDbArc
 50
90.0
 51
144.437557
  0
LINE
  5
3C5
100
AcDbEntity
  8
2
100
AcDbLine
 10
-551.228446
 20
422.199035
 30
0.0
 11
-552.578446
 21
422.199035
 31
0.0
  0
LINE
  5
3C6
100
AcDbEntity
  8
2
100
AcDbLine
 10
-519.328446
 20
432.649035
 30
0.0
 11
-541.328446
 21
432.649035
 31
0.0
  0
LINE
  5
3C7
100
AcDbEntity
  8
2
100
AcDbLine
 10
-540.828446
 20
424.349035
 30
0.0
 11
-519.928446
 21
424.349035
 31
0.0
  0
LINE
  5
3C8
100
AcDbEntity
  8
2
100
AcDbLine
 10
-536.328446
 20
436.649035
 30
0.0
 11
-536.328446
 21
433.649035
 31
0.0
  0
LINE
  5
3C9
100
AcDbEntity
  8
2
100
AcDbLine
 10
-524.328446
 20
433.649035
 30
0.0
 11
-524.328446
 21
436.649035
 31
0.0
  0
LINE
  5
3CA
100
AcDbEntity
  8
2
100
AcDbLine
 10
38.771554
 20
141.849035
 30
0.0
 11
38.771554
 21
161.849035
 31
0.0
  0
LINE
  5
3CB
100
AcDbEntity
  8
2
100
AcDbLine
 10
38.771554
 20
141.849035
 30
0.0
 11
37.771554
 21
140.849035
 31
0.0
  0
LINE
  5
3CC
100
AcDbEntity
  8
2
100
AcDbLine
 10
38.771554
 20
161.849035
 30
0.0
 11
37.771554
 21
162.849035
 31
0.0
  0
LINE
  5
3CD
100
AcDbEntity
  8
2
100
AcDbLine
 10
37.771554
 20
140.849035
 30
0.0
 11
37.771554
 21
162.849035
 31
0.0
  0
LINE
  5
3CE
100
AcDbEntity
  8
2
100
AcDbLine
 10
41.771554
 20
157.849035
 30
0.0
 11
38.771554
 21
157.849035
 31
0.0
  0
LINE
  5
3CF
100
AcDbEntity
  8
2
100
AcDbLine
 10
38.771554
 20
145.849035
 30
0.0
 11
41.771554
 21
145.849035
 31
0.0
  0
LINE
  5
3D0
100
AcDbEntity
  8
2
100
AcDbLine
 10
-497.428446
 20
599.649035
 30
0.0
 11
-497.428446
 21
573.649035
 31
0.0
  0
LINE
  5
3D1
100
AcDbEntity
  8
2
100
AcDbLine
 10
-502.428446
 20
601.660142
 30
0.0
 11
-502.428446
 21
571.637928
 31
0.0
  0
LINE
  5
3D2
100
AcDbEntity
  8
2
100
AcDbLine
 10
-498.58956
 20
571.637928
 30
0.0
 11
-502.428446
 21
571.637928
 31
0.0
  0
LINE
  5
3D3
100
AcDbEntity
  8
2
100
AcDbLine
 10
-498.58956
 20
579.143482
 30
0.0
 11
-502.428446
 21
579.143482
 31
0.0
  0
LINE
  5
3D4
100
AcDbEntity
  8
2
100
AcDbLine
 10
-498.58956
 20
594.154589
 30
0.0
 11
-502.428446
 21
594.154589
 31
0.0
  0
LINE
  5
3D5
100
AcDbEntity
  8
2
100
AcDbLine
 10
-498.58956
 20
601.660142
 30
0.0
 11
-502.428446
 21
601.660142
 31
0.0
  0
LINE
  5
3D6
100
AcDbEntity
  8
2
100
AcDbLine
 10
-497.428446
 20
573.649035
 30
0.0
 11
-498.58956
 21
571.637928
 31
0.0
  0
LINE
  5
3D7
100
AcDbEntity
  8
2
100
AcDbLine
 10
-497.428446
 20
599.649035
 30
0.0
 11
-498.58956
 21
601.660142
 31
0.0
  0
ARC
  5
3D8
100
AcDbEntity
  8
2
100
AcDbCircle
 10
-522.267333
 20
586.649035
 30
0.0
 40
24.838887
100
AcDbArc
 50
342.412046
 51
17.587954
  0
ARC
  5
3D9
100
AcDbEntity
  8
2
100
AcDbCircle
 10
-504.073582
 20
575.390705
 30
0.0
 40
6.645136
100
AcDbArc
 50
325.615736
 51
34.384264
  0
ARC
  5
3DA
100
AcDbEntity
  8
2
100
AcDbCircle
 10
-504.073582
 20
597.907365
 30
0.0
 40
6.645136
100
AcDbArc
 50
325.615736
 51
34.384264
  0
LINE
  5
3DB
100
AcDbEntity
  8
2
100
AcDbLine
 10
-502.428446
 20
595.649035
 30
0.0
 11
-505.328446
 21
595.649035
 31
0.0
  0
LINE
  5
3DC
100
AcDbEntity
  8
2
100
AcDbLine
 10
-505.328446
 20
577.649035
 30
0.0
 11
-502.428446
 21
577.649035
 31
0.0
  0
LINE
  5
3DD
100
AcDbEntity
  8
2
100
AcDbLine
 10
-497.428446
 20
559.649035
 30
0.0
 11
-497.428446
 21
533.649035
 31
0.0
  0
LINE
  5
3DE
100
AcDbEntity
  8
2
100
AcDbLine
 10
-502.428446
 20
561.660142
 30
0.0
 11
-502.428446
 21
531.637928
 31
0.0
  0
LINE
  5
3DF
100
AcDbEntity
  8
2
100
AcDbLine
 10
-498.58956
 20
531.637928
 30
0.0
 11
-502.428446
 21
531.637928
 31
0.0
  0
LINE
  5
3E0
100
AcDbEntity
  8
2
100
AcDbLine
 10
-498.58956
 20
539.143482
 30
0.0
 11
-502.428446
 21
539.143482
 31
0.0
  0
LINE
  5
3E1
100
AcDbEntity
  8
2
100
AcDbLine
 10
-498.58956
 20
554.154589
 30
0.0
 11
-502.428446
 21
554.154589
 31
0.0
  0
LINE
  5
3E2
100
AcDbEntity
  8
2
100
AcDbLine
 10
-498.58956
 20
561.660142
 30
0.0
 11
-502.428446
 21
561.660142
 31
0.0
  0
LINE
  5
3E3
100
AcDbEntity
  8
2
100
AcDbLine
 10
-497.428446
 20
533.649035
 30
0.0
 11
-498.58956
 21
531.637928
 31
0.0
  0
LINE
  5
3E4
100
AcDbEntity
  8
2
100
AcDbLine
 10
-497.428446
 20
559.649035
 30
0.0
 11
-498.58956
 21
561.660142
 31
0.0
  0
ARC
  5
3E5
100
AcDbEntity
  8
2
100
AcDbCircle
 10
-522.267333
 20
546.649035
 30
0.0
 40
24.838887
100
AcDbArc
 50
342.412046
 51
17.587954
  0
ARC
  5
3E6
100
AcDbEntity
  8
2
100
AcDbCircle
 10
-504.073582
 20
535.390705
 30
0.0
 40
6.645136
100
AcDbArc
 50
325.615736
 51
34.384264
  0
ARC
  5
3E7
100
AcDbEntity
  8
2
100
AcDbCircle
 10
-504.073582
 20
557.907365
 30
0.0
 40
6.645136
100
AcDbArc
 50
325.615736
 51
34.384264
  0
LINE
  5
3E8
100
AcDbEntity
  8
2
100
AcDbLine
 10
-502.428446
 20
555.649035
 30
0.0
 11
-505.328446
 21
555.649035
 31
0.0
  0
LINE
  5
3E9
100
AcDbEntity
  8
2
100
AcDbLine
 10
-505.328446
 20
537.649035
 30
0.0
 11
-502.428446
 21
537.649035
 31
0.0
  0
LINE
  5
3EA
100
AcDbEntity
  8
2
100
AcDbLine
 10
-497.328446
 20
218.849035
 30
0.0
 11
-497.328446
 21
213.412549
 31
0.0
  0
LINE
  5
3EB
100
AcDbEntity
  8
2
100
AcDbLine
 10
-502.328446
 20
218.849035
 30
0.0
 11
-502.328446
 21
213.898304
 31
0.0
  0
LINE
  5
3EC
100
AcDbEntity
  8
2
100
AcDbLine
 10
-497.328446
 20
218.849035
 30
0.0
 11
-502.328446
 21
218.849035
 31
0.0
  0
LINE
  5
3ED
100
AcDbEntity
  8
2
100
AcDbLine
 10
-502.328446
 20
214.849035
 30
0.0
 11
-505.328446
 21
214.849035
 31
0.0
  0
ARC
  5
3EE
100
AcDbEntity
  8
2
100
AcDbCircle
 10
-515.532613
 20
212.349035
 30
0.0
 40
18.204167
100
AcDbArc
 50
3.368215
 51
20.919818
  0
CIRCLE
  5
3EF
100
AcDbEntity
  8
2
100
AcDbCircle
 10
151.771554
 20
205.849035
 30
0.0
 40
13.0
  0
LINE
  5
3F0
100
AcDbEntity
  8
2
100
AcDbLine
 10
144.266
 20
218.849035
 30
0.0
 11
136.760447
 21
205.849035
 31
0.0
  0
LINE
  5
3F1
100
AcDbEntity
  8
2
100
AcDbLine
 10
159.277107
 20
218.849035
 30
0.0
 11
144.266
 21
218.849035
 31
0.0
  0
LINE
  5
3F2
100
AcDbEntity
  8
2
100
AcDbLine
 10
166.782661
 20
205.849035
 30
0.0
 11
159.277107
 21
218.849035
 31
0.0
  0
LINE
  5
3F3
100
AcDbEntity
  8
2
100
AcDbLine
 10
159.277107
 20
192.849035
 30
0.0
 11
166.782661
 21
205.849035
 31
0.0
  0
LINE
  5
3F4
100
AcDbEntity
  8
2
100
AcDbLine
 10
144.266
 20
192.849035
 30
0.0
 11
159.277107
 21
192.849035
 31
0.0
  0
LINE
  5
3F5
100
AcDbEntity
  8
2
100
AcDbLine
 10
136.760447
 20
205.849035
 30
0.0
 11
144.266
 21
192.849035
 31
0.0
  0
CIRCLE
  5
3F6
100
AcDbEntity
  8
2
100
AcDbCircle
 10
191.771554
 20
205.849035
 30
0.0
 40
13.0
  0
LINE
  5
3F7
100
AcDbEntity
  8
2
100
AcDbLine
 10
184.266
 20
218.849035
 30
0.0
 11
176.760447
 21
205.849035
 31
0.0
  0
LINE
  5
3F8
100
AcDbEntity
  8
2
100
AcDbLine
 10
199.277107
 20
218.849035
 30
0.0
 11
184.266
 21
218.849035
 31
0.0
  0
LINE
  5
3F9
100
AcDbEntity
  8
2
100
AcDbLine
 10
206.782661
 20
205.849035
 30
0.0
 11
199.277107
 21
218.849035
 31
0.0
  0
LINE
  5
3FA
100
AcDbEntity
  8
2
100
AcDbLine
 10
199.277107
 20
192.849035
 30
0.0
 11
206.782661
 21
205.849035
 31
0.0
  0
LINE
  5
3FB
100
AcDbEntity
  8
2
100
AcDbLine
 10
184.266
 20
192.849035
 30
0.0
 11
199.277107
 21
192.849035
 31
0.0
  0
LINE
  5
3FC
100
AcDbEntity
  8
2
100
AcDbLine
 10
176.760447
 20
205.849035
 30
0.0
 11
184.266
 21
192.849035
 31
0.0
  0
ARC
  5
3FD
100
AcDbEntity
  8
2
100
AcDbCircle
 10
-661.328446
 20
610.649035
 30
0.0
 40
6.0
100
AcDbArc
 50
90.0
 51
180.0
  0
ARC
  5
3FE
100
AcDbEntity
  8
2
100
AcDbCircle
 10
-481.13909
 20
418.220862
 30
0.0
 40
0.5
100
AcDbArc
 50
183.279341
 51
259.2122
  0
ARC
  5
3FF
100
AcDbEntity
  8
2
100
AcDbCircle
 10
-483.610113
 20
418.699035
 30
0.0
 40
1.0
100
AcDbArc
 50
270.0
 51
10.36976
  0
ARC
  5
400
100
AcDbEntity
  8
2
100
AcDbCircle
 10
-492.823448
 20
418.699035
 30
0.0
 40
1.0
100
AcDbArc
 50
192.709033
 51
270.0
  0
ARC
  5
401
100
AcDbEntity
  8
2
100
AcDbCircle
 10
-481.419848
 20
416.747371
 30
0.0
 40
1.0
100
AcDbArc
 50
349.02779
 51
79.2122
  0
ARC
  5
402
100
AcDbEntity
  8
2
100
AcDbCircle
 10
-501.336572
 20
419.699035
 30
0.0
 40
4.0
100
AcDbArc
 50
39.79182
 51
90.0
  0
ARC
  5
403
100
AcDbEntity
  8
2
100
AcDbCircle
 10
-514.778446
 20
418.699035
 30
0.0
 40
1.0
100
AcDbArc
 50
180.0
 51
270.0
  0
ARC
  5
404
100
AcDbEntity
  8
2
100
AcDbCircle
 10
-497.486893
 20
418.699035
 30
0.0
 40
1.0
100
AcDbArc
 50
270.0
 51
15.962014
  0
ARC
  5
405
100
AcDbEntity
  8
2
100
AcDbCircle
 10
-579.517803
 20
418.220862
 30
0.0
 40
0.5
100
AcDbArc
 50
280.7878
 51
356.720659
  0
ARC
  5
406
100
AcDbEntity
  8
2
100
AcDbCircle
 10
-579.237044
 20
416.747371
 30
0.0
 40
1.0
100
AcDbArc
 50
100.7878
 51
190.97221
  0
ARC
  5
407
100
AcDbEntity
  8
2
100
AcDbCircle
 10
-577.046779
 20
418.699035
 30
0.0
 40
1.0
100
AcDbArc
 50
169.63024
 51
270.0
  0
ARC
  5
408
100
AcDbEntity
  8
2
100
AcDbCircle
 10
-567.833445
 20
418.699035
 30
0.0
 40
1.0
100
AcDbArc
 50
270.0
 51
347.290967
  0
ARC
  5
409
100
AcDbEntity
  8
2
100
AcDbCircle
 10
-559.320321
 20
419.699035
 30
0.0
 40
4.0
100
AcDbArc
 50
90.0
 51
140.208181
  0
ARC
  5
40A
100
AcDbEntity
  8
2
100
AcDbCircle
 10
-545.878446
 20
418.699035
 30
0.0
 40
1.0
100
AcDbArc
 50
270.0
 51
360.0
  0
ARC
  5
40B
100
AcDbEntity
  8
2
100
AcDbCircle
 10
-563.17
 20
418.699035
 30
0.0
 40
1.0
100
AcDbArc
 50
164.037986
 51
270.0
  0
ARC
  5
40C
100
AcDbEntity
  8
2
100
AcDbCircle
 10
-544.232274
 20
558.518851
 30
0.0
 40
150.0
100
AcDbArc
 50
257.936174
 51
262.962154
  0
ARC
  5
40D
100
AcDbEntity
  8
2
100
AcDbCircle
 10
-516.424619
 20
558.518851
 30
0.0
 40
150.0
100
AcDbArc
 50
277.037846
 51
282.063826
  0
LINE
  5
40E
100
AcDbEntity
  8
2
100
AcDbLine
 10
30.821554
 20
140.849035
 30
0.0
 11
37.771554
 21
140.849035
 31
0.0
  0
ARC
  5
40F
100
AcDbEntity
  8
2
100
AcDbCircle
 10
30.821554
 20
138.849035
 30
0.0
 40
2.0
100
AcDbArc
 50
90.0
 51
180.0
  0
ARC
  5
410
100
AcDbEntity
  8
2
100
AcDbCircle
 10
22.821554
 20
107.849035
 30
0.0
 40
6.0
100
AcDbArc
 50
192.063826
 51
359.678732
  0
LINE
  5
411
100
AcDbEntity
  8
2
100
AcDbLine
 10
28.821554
 20
143.349035
 30
0.0
 11
28.821554
 21
140.299035
 31
0.0
  0
ARC
  5
412
100
AcDbEntity
  8
2
100
AcDbCircle
 10
16.821554
 20
143.349035
 30
0.0
 40
12.0
100
AcDbArc
 50
0.0
 51
20.044444
  0
LINE
  5
413
100
AcDbEntity
  8
2
100
AcDbLine
 10
28.821554
 20
123.549035
 30
0.0
 11
28.821554
 21
120.249035
 31
0.0
  0
ARC
  5
414
100
AcDbEntity
  8
2
100
AcDbCircle
 10
25.821554
 20
140.299035
 30
0.0
 40
3.0
100
AcDbArc
 50
270.0
 51
360.0
  0
ARC
  5
415
100
AcDbEntity
  8
2
100
AcDbCircle
 10
26.821554
 20
142.849035
 30
0.0
 40
2.0
100
AcDbArc
 50
270.0
 51
360.0
  0
LINE
  5
416
100
AcDbEntity
  8
2
100
AcDbLine
 10
14.771554
 20
184.131603
 30
0.0
 11
14.771554
 21
119.566468
 31
0.0
  0
LINE
  5
417
100
AcDbEntity
  8
2
100
AcDbLine
 10
22.821554
 20
105.130702
 30
0.0
 11
22.821554
 21
114.344037
 31
0.0
  0
LINE
  5
418
100
AcDbEntity
  8
2
100
AcDbLine
 10
22.821554
 20
119.007481
 30
0.0
 11
22.821554
 21
136.299035
 31
0.0
  0
LINE
  5
419
100
AcDbEntity
  8
2
100
AcDbLine
 10
22.821554
 20
141.849035
 30
0.0
 11
22.821554
 21
161.849035
 31
0.0
  0
LINE
  5
41A
100
AcDbEntity
  8
2
100
AcDbLine
 10
23.821554
 20
140.849035
 30
0.0
 11
26.821554
 21
140.849035
 31
0.0
  0
ARC
  5
41B
100
AcDbEntity
  8
2
100
AcDbCircle
 10
23.821554
 20
141.849035
 30
0.0
 40
1.0
100
AcDbArc
 50
180.0
 51
270.0
  0
ARC
  5
41C
100
AcDbEntity
  8
2
100
AcDbCircle
 10
40.071554
 20
151.849035
 30
0.0
 40
12.75
100
AcDbArc
 50
159.950024
 51
200.044444
  0
LINE
  5
41D
100
AcDbEntity
  8
2
100
AcDbLine
 10
23.821554
 20
137.299035
 30
0.0
 11
25.821554
 21
137.299035
 31
0.0
  0
ARC
  5
41E
100
AcDbEntity
  8
2
100
AcDbCircle
 10
21.621554
 20
126.699035
 30
0.0
 40
9.0
100
AcDbArc
 50
285.962014
 51
309.79182
  0
ARC
  5
41F
100
AcDbEntity
  8
2
100
AcDbCircle
 10
21.621554
 20
124.099035
 30
0.0
 40
9.0
100
AcDbArc
 50
282.709033
 51
309.555556
  0
ARC
  5
420
100
AcDbEntity
  8
2
100
AcDbCircle
 10
24.821554
 20
120.249035
 30
0.0
 40
4.0
100
AcDbArc
 50
309.555556
 51
360.0
  0
ARC
  5
421
100
AcDbEntity
  8
2
100
AcDbCircle
 10
57.321554
 20
130.949035
 30
0.0
 40
30.0
100
AcDbArc
 50
165.130114
 51
180.0
  0
ARC
  5
422
100
AcDbEntity
  8
2
100
AcDbCircle
 10
37.321554
 20
129.599035
 30
0.0
 40
10.0
100
AcDbArc
 50
180.0
 51
207.777778
  0
ARC
  5
423
100
AcDbEntity
  8
2
100
AcDbCircle
 10
25.821554
 20
123.549035
 30
0.0
 40
3.0
100
AcDbArc
 50
0.0
 51
27.777778
  0
ARC
  5
424
100
AcDbEntity
  8
2
100
AcDbCircle
 10
22.921554
 20
110.049035
 30
0.0
 40
6.0
100
AcDbArc
 50
280.36976
 51
340.754889
  0
ARC
  5
425
100
AcDbEntity
  8
2
100
AcDbCircle
 10
22.971554
 20
109.149035
 30
0.0
 40
6.0
100
AcDbArc
 50
273.279341
 51
347.157379
  0
ARC
  5
426
100
AcDbEntity
  8
2
100
AcDbCircle
 10
47.321554
 20
112.649035
 30
0.0
 40
20.0
100
AcDbArc
 50
165.003993
 51
180.0
  0
ARC
  5
427
100
AcDbEntity
  8
2
100
AcDbCircle
 10
32.321554
 20
112.899035
 30
0.0
 40
5.0
100
AcDbArc
 50
180.0
 51
216.547676
  0
ARC
  5
428
100
AcDbEntity
  8
2
100
AcDbCircle
 10
26.821554
 20
138.849035
 30
0.0
 40
2.0
100
AcDbArc
 50
305.562443
 51
360.0
  0
LINE
  5
429
100
AcDbEntity
  8
2
100
AcDbLine
 10
16.921554
 20
112.399035
 30
0.0
 11
16.921554
 21
192.499035
 31
0.0
  0
LINE
  5
42A
100
AcDbEntity
  8
2
100
AcDbLine
 10
27.321554
 20
130.949035
 30
0.0
 11
27.321554
 21
129.599035
 31
0.0
  0
LINE
  5
42B
100
AcDbEntity
  8
2
100
AcDbLine
 10
30.821554
 20
162.849035
 30
0.0
 11
37.771554
 21
162.849035
 31
0.0
  0
ARC
  5
42C
100
AcDbEntity
  8
2
100
AcDbCircle
 10
30.821554
 20
164.849035
 30
0.0
 40
2.0
100
AcDbArc
 50
180.0
 51
270.0
  0
ARC
  5
42D
100
AcDbEntity
  8
2
100
AcDbCircle
 10
22.821554
 20
195.849035
 30
0.0
 40
6.0
100
AcDbArc
 50
0.321268
 51
169.3
  0
LINE
  5
42E
100
AcDbEntity
  8
2
100
AcDbLine
 10
28.821554
 20
160.334317
 30
0.0
 11
28.821554
 21
163.399035
 31
0.0
  0
LINE
  5
42F
100
AcDbEntity
  8
2
100
AcDbLine
 10
28.821554
 20
180.149035
 30
0.0
 11
28.821554
 21
183.449035
 31
0.0
  0
ARC
  5
430
100
AcDbEntity
  8
2
100
AcDbCircle
 10
25.821554
 20
163.399035
 30
0.0
 40
3.0
100
AcDbArc
 50
0.0
 51
90.0
  0
ARC
  5
431
100
AcDbEntity
  8
2
100
AcDbCircle
 10
26.821554
 20
160.849035
 30
0.0
 40
2.0
100
AcDbArc
 50
0.0
 51
90.0
  0
LINE
  5
432
100
AcDbEntity
  8
2
100
AcDbLine
 10
22.821554
 20
198.567368
 30
0.0
 11
22.821554
 21
189.354034
 31
0.0
  0
LINE
  5
433
100
AcDbEntity
  8
2
100
AcDbLine
 10
22.821554
 20
184.690589
 30
0.0
 11
22.821554
 21
167.399035
 31
0.0
  0
LINE
  5
434
100
AcDbEntity
  8
2
100
AcDbLine
 10
23.821554
 20
162.849035
 30
0.0
 11
26.821554
 21
162.849035
 31
0.0
  0
ARC
  5
435
100
AcDbEntity
  8
2
100
AcDbCircle
 10
23.821554
 20
161.849035
 30
0.0
 40
1.0
100
AcDbArc
 50
90.0
 51
180.0
  0
LINE
  5
436
100
AcDbEntity
  8
2
100
AcDbLine
 10
23.821554
 20
166.399035
 30
0.0
 11
25.821554
 21
166.399035
 31
0.0
  0
ARC
  5
437
100
AcDbEntity
  8
2
100
AcDbCircle
 10
21.621554
 20
176.999035
 30
0.0
 40
9.0
100
AcDbArc
 50
50.208181
 51
74.037986
  0
ARC
  5
438
100
AcDbEntity
  8
2
100
AcDbCircle
 10
21.621554
 20
179.599035
 30
0.0
 40
9.0
100
AcDbArc
 50
50.444444
 51
77.290967
  0
ARC
  5
439
100
AcDbEntity
  8
2
100
AcDbCircle
 10
24.821554
 20
183.449035
 30
0.0
 40
4.0
100
AcDbArc
 50
0.0
 51
50.444444
  0
ARC
  5
43A
100
AcDbEntity
  8
2
100
AcDbCircle
 10
57.321554
 20
172.749035
 30
0.0
 40
30.0
100
AcDbArc
 50
180.0
 51
194.869886
  0
ARC
  5
43B
100
AcDbEntity
  8
2
100
AcDbCircle
 10
37.321554
 20
174.099035
 30
0.0
 40
10.0
100
AcDbArc
 50
152.222222
 51
180.0
  0
ARC
  5
43C
100
AcDbEntity
  8
2
100
AcDbCircle
 10
25.821554
 20
180.149035
 30
0.0
 40
3.0
100
AcDbArc
 50
332.222222
 51
360.0
  0
ARC
  5
43D
100
AcDbEntity
  8
2
100
AcDbCircle
 10
22.921554
 20
193.649035
 30
0.0
 40
6.0
100
AcDbArc
 50
19.245111
 51
79.63024
  0
ARC
  5
43E
100
AcDbEntity
  8
2
100
AcDbCircle
 10
22.971554
 20
194.549035
 30
0.0
 40
6.0
100
AcDbArc
 50
12.842621
 51
86.720659
  0
ARC
  5
43F
100
AcDbEntity
  8
2
100
AcDbCircle
 10
47.321554
 20
191.049035
 30
0.0
 40
20.0
100
AcDbArc
 50
180.0
 51
194.996007
  0
ARC
  5
440
100
AcDbEntity
  8
2
100
AcDbCircle
 10
32.321554
 20
190.799035
 30
0.0
 40
5.0
100
AcDbArc
 50
143.452324
 51
180.0
  0
ARC
  5
441
100
AcDbEntity
  8
2
100
AcDbCircle
 10
26.821554
 20
164.849035
 30
0.0
 40
2.0
100
AcDbArc
 50
0.0
 51
54.437557
  0
LINE
  5
442
100
AcDbEntity
  8
2
100
AcDbLine
 10
27.321554
 20
172.749035
 30
0.0
 11
27.321554
 21
174.099035
 31
0.0
  0
LINE
  5
443
100
AcDbEntity
  8
2
100
AcDbLine
 10
29.471554
 20
162.349035
 30
0.0
 11
29.471554
 21
141.449035
 31
0.0
  0
ARC
  5
444
100
AcDbEntity
  8
2
100
AcDbCircle
 10
23.34338
 20
102.659679
 30
0.0
 40
0.5
100
AcDbArc
 50
93.279341
 51
169.2122
  0
ARC
  5
445
100
AcDbEntity
  8
2
100
AcDbCircle
 10
23.821554
 20
105.130702
 30
0.0
 40
1.0
100
AcDbArc
 50
180.0
 51
280.36976
  0
ARC
  5
446
100
AcDbEntity
  8
2
100
AcDbCircle
 10
23.821554
 20
114.344037
 30
0.0
 40
1.0
100
AcDbArc
 50
102.709033
 51
180.0
  0
ARC
  5
447
100
AcDbEntity
  8
2
100
AcDbCircle
 10
21.869889
 20
102.940437
 30
0.0
 40
1.0
100
AcDbArc
 50
259.02779
 51
349.2122
  0
ARC
  5
448
100
AcDbEntity
  8
2
100
AcDbCircle
 10
24.821554
 20
122.857161
 30
0.0
 40
4.0
100
AcDbArc
 50
309.79182
 51
360.0
  0
ARC
  5
449
100
AcDbEntity
  8
2
100
AcDbCircle
 10
23.821554
 20
136.299035
 30
0.0
 40
1.0
100
AcDbArc
 50
90.0
 51
180.0
  0
ARC
  5
44A
100
AcDbEntity
  8
2
100
AcDbCircle
 10
23.821554
 20
119.007481
 30
0.0
 40
1.0
100
AcDbArc
 50
180.0
 51
285.962014
  0
ARC
  5
44B
100
AcDbEntity
  8
2
100
AcDbCircle
 10
23.34338
 20
201.038392
 30
0.0
 40
0.5
100
AcDbArc
 50
190.7878
 51
266.720659
  0
ARC
  5
44C
100
AcDbEntity
  8
2
100
AcDbCircle
 10
21.869889
 20
200.757633
 30
0.0
 40
1.0
100
AcDbArc
 50
10.7878
 51
100.97221
  0
ARC
  5
44D
100
AcDbEntity
  8
2
100
AcDbCircle
 10
23.821554
 20
198.567368
 30
0.0
 40
1.0
100
AcDbArc
 50
79.63024
 51
180.0
  0
ARC
  5
44E
100
AcDbEntity
  8
2
100
AcDbCircle
 10
23.821554
 20
189.354034
 30
0.0
 40
1.0
100
AcDbArc
 50
180.0
 51
257.290967
  0
ARC
  5
44F
100
AcDbEntity
  8
2
100
AcDbCircle
 10
24.821554
 20
180.84091
 30
0.0
 40
4.0
100
AcDbArc
 50
0.0
 51
50.208181
  0
ARC
  5
450
100
AcDbEntity
  8
2
100
AcDbCircle
 10
23.821554
 20
167.399035
 30
0.0
 40
1.0
100
AcDbArc
 50
180.0
 51
270.0
  0
ARC
  5
451
100
AcDbEntity
  8
2
100
AcDbCircle
 10
23.821554
 20
184.690589
 30
0.0
 40
1.0
100
AcDbArc
 50
74.037986
 51
180.0
  0
ARC
  5
452
100
AcDbEntity
  8
2
100
AcDbCircle
 10
163.641369
 20
165.752862
 30
0.0
 40
150.0
100
AcDbArc
 50
167.936174
 51
172.962154
  0
ARC
  5
453
100
AcDbEntity
  8
2
100
AcDbCircle
 10
163.641369
 20
137.945208
 30
0.0
 40
150.0
100
AcDbArc
 50
187.037846
 51
192.063826
  0
ARC
  5
454
100
AcDbEntity
  8
2
100
AcDbCircle
 10
16.821554
 20
160.334317
 30
0.0
 40
12.0
100
AcDbArc
 50
339.950024
 51
360.0
  0
ARC
  5
455
100
AcDbEntity
  8
2
100
AcDbCircle
 10
-538.813728
 20
411.699035
 30
0.0
 40
12.0
100
AcDbArc
 50
69.950024
 51
90.0
  0
ARC
  5
456
100
AcDbEntity
  8
2
100
AcDbCircle
 10
-487.210006
 20
421.575504
 30
0.0
 40
2.0
100
AcDbArc
 50
70.754889
 51
126.547676
  0
LINE
  5
457
100
AcDbEntity
  8
2
100
AcDbLine
 10
-487.447047
 20
423.561407
 30
0.0
 11
-486.294803
 21
423.698941
 31
0.0
  0
ARC
  5
458
100
AcDbEntity
  8
2
100
AcDbCircle
 10
-573.446887
 20
421.575504
 30
0.0
 40
2.0
100
AcDbArc
 50
53.452324
 51
109.245111
  0
LINE
  5
459
100
AcDbEntity
  8
2
100
AcDbLine
 10
-574.362089
 20
423.698941
 30
0.0
 11
-573.209846
 21
423.561407
 31
0.0
  0
ARC
  5
45A
100
AcDbEntity
  8
2
100
AcDbCircle
 10
26.698022
 20
194.967476
 30
0.0
 40
2.0
100
AcDbArc
 50
323.452324
 51
19.245111
  0
LINE
  5
45B
100
AcDbEntity
  8
2
100
AcDbLine
 10
28.821459
 20
195.882678
 30
0.0
 11
28.683925
 21
194.730435
 31
0.0
  0
ARC
  5
45C
100
AcDbEntity
  8
2
100
AcDbCircle
 10
26.698022
 20
108.730595
 30
0.0
 40
2.0
100
AcDbArc
 50
340.754889
 51
36.547676
  0
LINE
  5
45D
100
AcDbEntity
  8
2
100
AcDbLine
 10
28.821459
 20
107.815392
 30
0.0
 11
28.683925
 21
108.967636
 31
0.0
  0
LINE
  5
45E
100
AcDbEntity
  8
2
100
AcDbLine
 10
-506.328446
 20
604.649035
 30
0.0
 11
-474.328446
 21
604.649035
 31
0.0
  0
LINE
  5
45F
100
AcDbEntity
  8
2
100
AcDbLine
 10
-506.328446
 20
528.649035
 30
0.0
 11
-474.328446
 21
528.649035
 31
0.0
  0
LINE
  5
460
100
AcDbEntity
  8
2
100
AcDbLine
 10
-472.328446
 20
513.649035
 30
0.0
 11
-472.328446
 21
526.649035
 31
0.0
  0
LINE
  5
461
100
AcDbEntity
  8
2
100
AcDbLine
 10
-472.328446
 20
606.649035
 30
0.0
 11
-472.328446
 21
624.649035
 31
0.0
  0
LINE
  5
462
100
AcDbEntity
  8
2
100
AcDbLine
 10
-666.870933
 20
623.649035
 30
0.0
 11
-507.328446
 21
623.649035
 31
0.0
  0
LINE
  5
463
100
AcDbEntity
  8
2
100
AcDbLine
 10
162.209054
 20
141.049035
 30
0.0
 11
162.209054
 21
136.099035
 31
0.0
  0
LINE
  5
464
100
AcDbEntity
  8
2
100
AcDbLine
 10
157.559054
 20
142.324035
 30
0.0
 11
160.184054
 21
143.599035
 31
0.0
  0
LINE
  5
465
100
AcDbEntity
  8
2
100
AcDbLine
 10
162.809054
 20
142.324035
 30
0.0
 11
162.809054
 21
143.599035
 31
0.0
  0
LINE
  5
466
100
AcDbEntity
  8
2
100
AcDbLine
 10
163.559054
 20
140.181178
 30
0.0
 11
163.559054
 21
138.241892
 31
0.0
  0
LINE
  5
467
100
AcDbEntity
  8
2
100
AcDbLine
 10
170.084054
 20
140.181178
 30
0.0
 11
170.084054
 21
138.241892
 31
0.0
  0
LINE
  5
468
100
AcDbEntity
  8
2
100
AcDbLine
 10
165.584054
 20
140.202607
 30
0.0
 11
165.584054
 21
138.220464
 31
0.0
  0
LINE
  5
469
100
AcDbEntity
  8
2
100
AcDbLine
 10
168.059054
 20
140.202607
 30
0.0
 11
168.059054
 21
138.220464
 31
0.0
  0
ARC
  5
46A
100
AcDbEntity
  8
2
100
AcDbCircle
 10
165.701911
 20
138.241892
 30
0.0
 40
2.142857
100
AcDbArc
 50
180.0
 51
270.0
  0
ARC
  5
46B
100
AcDbEntity
  8
2
100
AcDbCircle
 10
167.941196
 20
138.241892
 30
0.0
 40
2.142857
100
AcDbArc
 50
270.0
 51
360.0
  0
ARC
  5
46C
100
AcDbEntity
  8
2
100
AcDbCircle
 10
165.701911
 20
140.181178
 30
0.0
 40
2.142857
100
AcDbArc
 50
90.0
 51
180.0
  0
ARC
  5
46D
100
AcDbEntity
  8
2
100
AcDbCircle
 10
167.941196
 20
140.181178
 30
0.0
 40
2.142857
100
AcDbArc
 50
360.0
 51
90.0
  0
ARC
  5
46E
100
AcDbEntity
  8
2
100
AcDbCircle
 10
166.655482
 20
138.220464
 30
0.0
 40
1.071429
100
AcDbArc
 50
180.0
 51
270.0
  0
ARC
  5
46F
100
AcDbEntity
  8
2
100
AcDbCircle
 10
166.987625
 20
138.220464
 30
0.0
 40
1.071429
100
AcDbArc
 50
270.0
 51
360.0
  0
ARC
  5
470
100
AcDbEntity
  8
2
100
AcDbCircle
 10
166.987625
 20
140.202607
 30
0.0
 40
1.071429
100
AcDbArc
 50
0.0
 51
90.0
  0
ARC
  5
471
100
AcDbEntity
  8
2
100
AcDbCircle
 10
166.655482
 20
140.202607
 30
0.0
 40
1.071429
100
AcDbArc
 50
90.0
 51
180.0
  0
LINE
  5
472
100
AcDbEntity
  8
2
100
AcDbLine
 10
160.184054
 20
136.099035
 30
0.0
 11
162.209054
 21
136.099035
 31
0.0
  0
LINE
  5
473
100
AcDbEntity
  8
2
100
AcDbLine
 10
171.209054
 20
142.324035
 30
0.0
 11
170.759054
 21
136.099035
 31
0.0
  0
LINE
  5
474
100
AcDbEntity
  8
2
100
AcDbLine
 10
178.334054
 20
142.324035
 30
0.0
 11
178.784054
 21
136.099035
 31
0.0
  0
LINE
  5
475
100
AcDbEntity
  8
2
100
AcDbLine
 10
173.009054
 20
141.274035
 30
0.0
 11
172.784054
 21
136.099035
 31
0.0
  0
LINE
  5
476
100
AcDbEntity
  8
2
100
AcDbLine
 10
176.534054
 20
141.274035
 30
0.0
 11
176.759054
 21
136.099035
 31
0.0
  0
LINE
  5
477
100
AcDbEntity
  8
2
100
AcDbLine
 10
173.009054
 20
141.274035
 30
0.0
 11
173.973339
 21
136.099035
 31
0.0
  0
LINE
  5
478
100
AcDbEntity
  8
2
100
AcDbLine
 10
176.534054
 20
141.274035
 30
0.0
 11
175.569768
 21
136.099035
 31
0.0
  0
LINE
  5
479
100
AcDbEntity
  8
2
100
AcDbLine
 10
174.771554
 20
138.595464
 30
0.0
 11
174.076789
 21
142.324035
 31
0.0
  0
LINE
  5
47A
100
AcDbEntity
  8
2
100
AcDbLine
 10
174.771554
 20
138.595464
 30
0.0
 11
175.466319
 21
142.324035
 31
0.0
  0
LINE
  5
47B
100
AcDbEntity
  8
2
100
AcDbLine
 10
165.701911
 20
142.324035
 30
0.0
 11
167.941196
 21
142.324035
 31
0.0
  0
LINE
  5
47C
100
AcDbEntity
  8
2
100
AcDbLine
 10
171.209054
 20
142.324035
 30
0.0
 11
174.076789
 21
142.324035
 31
0.0
  0
LINE
  5
47D
100
AcDbEntity
  8
2
100
AcDbLine
 10
165.701911
 20
136.099035
 30
0.0
 11
167.941196
 21
136.099035
 31
0.0
  0
LINE
  5
47E
100
AcDbEntity
  8
2
100
AcDbLine
 10
170.759054
 20
136.099035
 30
0.0
 11
172.784054
 21
136.099035
 31
0.0
  0
LINE
  5
47F
100
AcDbEntity
  8
2
100
AcDbLine
 10
173.973339
 20
136.099035
 30
0.0
 11
175.569768
 21
136.099035
 31
0.0
  0
ARC
  5
480
100
AcDbEntity
  8
2
100
AcDbCircle
 10
181.601911
 20
138.241892
 30
0.0
 40
2.142857
100
AcDbArc
 50
180.0
 51
270.0
  0
ARC
  5
481
100
AcDbEntity
  8
2
100
AcDbCircle
 10
183.841196
 20
138.241892
 30
0.0
 40
2.142857
100
AcDbArc
 50
270.0
 51
360.0
  0
ARC
  5
482
100
AcDbEntity
  8
2
100
AcDbCircle
 10
182.887625
 20
138.220464
 30
0.0
 40
1.071429
100
AcDbArc
 50
270.0
 51
360.0
  0
LINE
  5
483
100
AcDbEntity
  8
2
100
AcDbLine
 10
183.959054
 20
140.202607
 30
0.0
 11
183.959054
 21
138.220464
 31
0.0
  0
ARC
  5
484
100
AcDbEntity
  8
2
100
AcDbCircle
 10
182.555482
 20
138.220464
 30
0.0
 40
1.071429
100
AcDbArc
 50
180.0
 51
270.0
  0
LINE
  5
485
100
AcDbEntity
  8
2
100
AcDbLine
 10
181.484054
 20
140.202607
 30
0.0
 11
181.484054
 21
138.220464
 31
0.0
  0
ARC
  5
486
100
AcDbEntity
  8
2
100
AcDbCircle
 10
182.887625
 20
140.202607
 30
0.0
 40
1.071429
100
AcDbArc
 50
0.0
 51
90.0
  0
ARC
  5
487
100
AcDbEntity
  8
2
100
AcDbCircle
 10
182.555482
 20
140.202607
 30
0.0
 40
1.071429
100
AcDbArc
 50
90.0
 51
180.0
  0
ARC
  5
488
100
AcDbEntity
  8
2
100
AcDbCircle
 10
181.601911
 20
140.181178
 30
0.0
 40
2.142857
100
AcDbArc
 50
90.0
 51
180.0
  0
ARC
  5
489
100
AcDbEntity
  8
2
100
AcDbCircle
 10
183.841196
 20
140.181178
 30
0.0
 40
2.142857
100
AcDbArc
 50
360.0
 51
90.0
  0
LINE
  5
48A
100
AcDbEntity
  8
2
100
AcDbLine
 10
185.984054
 20
140.181178
 30
0.0
 11
185.984054
 21
138.241892
 31
0.0
  0
LINE
  5
48B
100
AcDbEntity
  8
2
100
AcDbLine
 10
166.987625
 20
141.274035
 30
0.0
 11
166.655482
 21
141.274035
 31
0.0
  0
LINE
  5
48C
100
AcDbEntity
  8
2
100
AcDbLine
 10
166.987625
 20
137.149035
 30
0.0
 11
166.655482
 21
137.149035
 31
0.0
  0
LINE
  5
48D
100
AcDbEntity
  8
2
100
AcDbLine
 10
182.555482
 20
141.274035
 30
0.0
 11
182.887625
 21
141.274035
 31
0.0
  0
LINE
  5
48E
100
AcDbEntity
  8
2
100
AcDbLine
 10
179.459054
 20
140.181178
 30
0.0
 11
179.459054
 21
138.241892
 31
0.0
  0
LINE
  5
48F
100
AcDbEntity
  8
2
100
AcDbLine
 10
175.466319
 20
142.324035
 30
0.0
 11
178.334054
 21
142.324035
 31
0.0
  0
LINE
  5
490
100
AcDbEntity
  8
2
100
AcDbLine
 10
181.601911
 20
142.324035
 30
0.0
 11
183.841196
 21
142.324035
 31
0.0
  0
LINE
  5
491
100
AcDbEntity
  8
2
100
AcDbLine
 10
176.759054
 20
136.099035
 30
0.0
 11
178.784054
 21
136.099035
 31
0.0
  0
LINE
  5
492
100
AcDbEntity
  8
2
100
AcDbLine
 10
181.601911
 20
136.099035
 30
0.0
 11
183.841196
 21
136.099035
 31
0.0
  0
LINE
  5
493
100
AcDbEntity
  8
2
100
AcDbLine
 10
186.884054
 20
142.174035
 30
0.0
 11
186.884054
 21
136.249035
 31
0.0
  0
LINE
  5
494
100
AcDbEntity
  8
2
100
AcDbLine
 10
186.884054
 20
142.174035
 30
0.0
 11
191.759054
 21
142.174035
 31
0.0
  0
LINE
  5
495
100
AcDbEntity
  8
2
100
AcDbLine
 10
186.884054
 20
136.249035
 30
0.0
 11
191.759054
 21
136.249035
 31
0.0
  0
LINE
  5
496
100
AcDbEntity
  8
2
100
AcDbLine
 10
188.909054
 20
137.374035
 30
0.0
 11
191.759054
 21
137.374035
 31
0.0
  0
LINE
  5
497
100
AcDbEntity
  8
2
100
AcDbLine
 10
188.909054
 20
141.049035
 30
0.0
 11
191.759054
 21
141.049035
 31
0.0
  0
LINE
  5
498
100
AcDbEntity
  8
2
100
AcDbLine
 10
188.909054
 20
138.649035
 30
0.0
 11
191.759054
 21
138.649035
 31
0.0
  0
LINE
  5
499
100
AcDbEntity
  8
2
100
AcDbLine
 10
188.909054
 20
139.774035
 30
0.0
 11
191.759054
 21
139.774035
 31
0.0
  0
LINE
  5
49A
100
AcDbEntity
  8
2
100
AcDbLine
 10
191.759054
 20
141.049035
 30
0.0
 11
191.759054
 21
142.174035
 31
0.0
  0
LINE
  5
49B
100
AcDbEntity
  8
2
100
AcDbLine
 10
191.759054
 20
136.249035
 30
0.0
 11
191.759054
 21
137.374035
 31
0.0
  0
LINE
  5
49C
100
AcDbEntity
  8
2
100
AcDbLine
 10
191.759054
 20
138.649035
 30
0.0
 11
191.759054
 21
139.774035
 31
0.0
  0
LINE
  5
49D
100
AcDbEntity
  8
2
100
AcDbLine
 10
188.909054
 20
137.374035
 30
0.0
 11
188.909054
 21
138.649035
 31
0.0
  0
LINE
  5
49E
100
AcDbEntity
  8
2
100
AcDbLine
 10
188.909054
 20
139.774035
 30
0.0
 11
188.909054
 21
141.049035
 31
0.0
  0
LINE
  5
49F
100
AcDbEntity
  8
2
100
AcDbLine
 10
157.559054
 20
141.049035
 30
0.0
 11
162.209054
 21
141.049035
 31
0.0
  0
LINE
  5
4A0
100
AcDbEntity
  8
2
100
AcDbLine
 10
160.184054
 20
143.599035
 30
0.0
 11
160.184054
 21
136.099035
 31
0.0
  0
LINE
  5
4A1
100
AcDbEntity
  8
2
100
AcDbLine
 10
157.559054
 20
139.774035
 30
0.0
 11
165.434054
 21
143.599035
 31
0.0
  0
LINE
  5
4A2
100
AcDbEntity
  8
2
100
AcDbLine
 10
157.559054
 20
143.599035
 30
0.0
 11
157.559054
 21
139.774035
 31
0.0
  0
LINE
  5
4A3
100
AcDbEntity
  8
2
100
AcDbLine
 10
157.559054
 20
141.049035
 30
0.0
 11
162.809054
 21
143.599035
 31
0.0
  0
LINE
  5
4A4
100
AcDbEntity
  8
2
100
AcDbLine
 10
157.559054
 20
143.599035
 30
0.0
 11
165.434054
 21
143.599035
 31
0.0
  0
LINE
  5
4A5
100
AcDbEntity
  8
2
100
AcDbLine
 10
157.559054
 20
142.324035
 30
0.0
 11
162.809054
 21
142.324035
 31
0.0
  0
LINE
  5
4A6
100
AcDbEntity
  8
2
100
AcDbLine
 10
182.555482
 20
137.149035
 30
0.0
 11
182.887625
 21
137.149035
 31
0.0
  0
LINE
  5
4A7
100
AcDbEntity
  8
2
100
AcDbLine
 10
245.771554
 20
107.849035
 30
0.0
 11
245.771554
 21
129.349035
 31
0.0
  0
LINE
  5
4A8
100
AcDbEntity
  8
2
100
AcDbLine
 10
245.771554
 20
138.849035
 30
0.0
 11
245.771554
 21
193.849035
 31
0.0
  0
ARC
  5
4A9
100
AcDbEntity
  8
2
100
AcDbCircle
 10
-620.328446
 20
151.849035
 30
0.0
 40
150.0
100
AcDbArc
 50
344.131079
 51
16.484205
  0
ARC
  5
4AA
100
AcDbEntity
  8
2
100
AcDbCircle
 10
-629.328446
 20
146.849035
 30
0.0
 40
130.0
100
AcDbArc
 50
167.770243
 51
192.709033
  0
LINE
  5
4AB
100
AcDbEntity
  8
2
100
AcDbLine
 10
-729.151742
 20
197.959196
 30
0.0
 11
-504.267418
 21
213.68464
 31
0.0
  0
ARC
  5
4AC
100
AcDbEntity
  8
2
100
AcDbCircle
 10
-727.059047
 20
168.032274
 30
0.0
 40
30.0
100
AcDbArc
 50
94.0
 51
167.770243
  0
ARC
  5
4AD
100
AcDbEntity
  8
2
100
AcDbCircle
 10
-726.878434
 20
124.849035
 30
0.0
 40
30.0
100
AcDbArc
 50
192.709033
 51
270.0
  0
ARC
  5
4AE
100
AcDbEntity
  8
2
100
AcDbCircle
 10
-502.383993
 20
186.75041
 30
0.0
 40
27.0
100
AcDbArc
 50
16.484205
 51
94.0
  0
ARC
  5
4AF
100
AcDbEntity
  8
2
100
AcDbCircle
 10
-497.206556
 20
116.849035
 30
0.0
 40
22.0
100
AcDbArc
 50
270.0
 51
344.131079
  0
CIRCLE
  5
4B0
100
AcDbEntity
  8
2
100
AcDbCircle
 10
-530.328446
 20
151.849035
 30
0.0
 40
50.0
  0
CIRCLE
  5
4B1
100
AcDbEntity
  8
2
100
AcDbCircle
 10
-530.328446
 20
151.849035
 30
0.0
 40
32.5
  0
ARC
  5
4B2
100
AcDbEntity
  8
2
100
AcDbCircle
 10
-506.328446
 20
222.849035
 30
0.0
 40
1.0
100
AcDbArc
 50
360.0
 51
90.0
  0
ARC
  5
4B3
100
AcDbEntity
  8
2
100
AcDbCircle
 10
-506.328446
 20
224.849035
 30
0.0
 40
1.0
100
AcDbArc
 50
180.0
 51
270.0
  0
LINE
  5
4B4
100
AcDbEntity
  8
2
100
AcDbLine
 10
-634.828446
 20
247.849035
 30
0.0
 11
-549.828446
 21
247.849035
 31
0.0
  0
LINE
  5
4B5
100
AcDbEntity
  8
2
100
AcDbLine
 10
-549.828446
 20
249.049035
 30
0.0
 11
-549.828446
 21
245.849035
 31
0.0
  0
LINE
  5
4B6
100
AcDbEntity
  8
2
100
AcDbLine
 10
-634.828446
 20
249.049035
 30
0.0
 11
-634.828446
 21
245.849035
 31
0.0
  0
LINE
  5
4B7
100
AcDbEntity
  8
2
100
AcDbLine
 10
-594.328446
 20
257.349035
 30
0.0
 11
-594.328446
 21
249.049035
 31
0.0
  0
LINE
  5
4B8
100
AcDbEntity
  8
2
100
AcDbLine
 10
-590.328446
 20
257.349035
 30
0.0
 11
-590.328446
 21
249.049035
 31
0.0
  0
CIRCLE
  5
4B9
100
AcDbEntity
  8
2
100
AcDbCircle
 10
-592.328446
 20
563.649035
 30
0.0
 40
42.5
  0
LINE
  5
4BA
100
AcDbEntity
  8
2
100
AcDbLine
 10
-622.750642
 20
571.149035
 30
0.0
 11
-601.813399
 21
571.149035
 31
0.0
  0
LINE
  5
4BB
100
AcDbEntity
  8
2
100
AcDbLine
 10
-622.750642
 20
556.149035
 30
0.0
 11
-601.813399
 21
556.149035
 31
0.0
  0
LINE
  5
4BC
100
AcDbEntity
  8
2
100
AcDbLine
 10
-582.843494
 20
556.149035
 30
0.0
 11
-561.906251
 21
556.149035
 31
0.0
  0
LINE
  5
4BD
100
AcDbEntity
  8
2
100
AcDbLine
 10
-590.328446
 20
541.62656
 30
0.0
 11
-590.328446
 21
539.482943
 31
0.0
  0
LINE
  5
4BE
100
AcDbEntity
  8
2
100
AcDbLine
 10
-594.328446
 20
541.62656
 30
0.0
 11
-594.328446
 21
539.482943
 31
0.0
  0
LINE
  5
4BF
100
AcDbEntity
  8
2
100
AcDbLine
 10
-590.328446
 20
585.67151
 30
0.0
 11
-590.328446
 21
587.815127
 31
0.0
  0
LINE
  5
4C0
100
AcDbEntity
  8
2
100
AcDbLine
 10
-594.328446
 20
585.67151
 30
0.0
 11
-594.328446
 21
587.815127
 31
0.0
  0
LINE
  5
4C1
100
AcDbEntity
  8
2
100
AcDbLine
 10
-582.843494
 20
571.149035
 30
0.0
 11
-561.906251
 21
571.149035
 31
0.0
  0
LINE
  5
4C2
100
AcDbEntity
  8
2
100
AcDbLine
 10
-663.056833
 20
237.585196
 30
0.0
 11
-676.130048
 21
201.666834
 31
0.0
  0
ARC
  5
4C3
100
AcDbEntity
  8
2
100
AcDbCircle
 10
-655.539292
 20
234.849035
 30
0.0
 40
8.0
100
AcDbArc
 50
90.0
 51
160.0
  0
LINE
  5
4C4
100
AcDbEntity
  8
2
100
AcDbLine
 10
-507.328446
 20
225.849035
 30
0.0
 11
-508.336572
 21
237.37197
 31
0.0
  0
ARC
  5
4C5
100
AcDbEntity
  8
2
100
AcDbCircle
 10
-514.313741
 20
236.849035
 30
0.0
 40
6.0
100
AcDbArc
 50
5.0
 51
90.0
  0
LINE
  5
4C6
100
AcDbEntity
  8
2
100
AcDbLine
 10
-514.313741
 20
242.849035
 30
0.0
 11
-655.539292
 21
242.849035
 31
0.0
  0
LINE
  5
4C7
100
AcDbEntity
  8
2
100
AcDbLine
 10
-508.815754
 20
530.649035
 30
0.0
 11
-508.815754
 21
602.649035
 31
0.0
  0
LINE
  5
4C8
100
AcDbEntity
  8
2
100
AcDbLine
 10
-661.140952
 20
530.649035
 30
0.0
 11
-661.140952
 21
602.649035
 31
0.0
  0
LINE
  5
4C9
100
AcDbEntity
  8
2
100
AcDbLine
 10
-665.328446
 20
604.649035
 30
0.0
 11
-659.328446
 21
604.649035
 31
0.0
  0
LINE
  5
4CA
100
AcDbEntity
  8
2
100
AcDbLine
 10
-513.328446
 20
604.649035
 30
0.0
 11
-509.328446
 21
604.649035
 31
0.0
  0
LINE
  5
4CB
100
AcDbEntity
  8
2
100
AcDbLine
 10
-653.328446
 20
518.649035
 30
0.0
 11
-653.328446
 21
522.649035
 31
0.0
  0
LINE
  5
4CC
100
AcDbEntity
  8
2
100
AcDbLine
 10
-653.328446
 20
610.649035
 30
0.0
 11
-653.328446
 21
614.649035
 31
0.0
  0
LINE
  5
4CD
100
AcDbEntity
  8
2
100
AcDbLine
 10
-665.328446
 20
528.649035
 30
0.0
 11
-659.328446
 21
528.649035
 31
0.0
  0
LINE
  5
4CE
100
AcDbEntity
  8
2
100
AcDbLine
 10
-513.328446
 20
528.649035
 30
0.0
 11
-509.328446
 21
528.649035
 31
0.0
  0
LINE
  5
4CF
100
AcDbEntity
  8
2
100
AcDbLine
 10
-519.328446
 20
518.649035
 30
0.0
 11
-519.328446
 21
522.649035
 31
0.0
  0
LINE
  5
4D0
100
AcDbEntity
  8
2
100
AcDbLine
 10
-519.328446
 20
610.649035
 30
0.0
 11
-519.328446
 21
614.649035
 31
0.0
  0
ARC
  5
4D1
100
AcDbEntity
  8
2
100
AcDbCircle
 10
-513.328446
 20
610.649035
 30
0.0
 40
6.0
100
AcDbArc
 50
180.0
 51
270.0
  0
ARC
  5
4D2
100
AcDbEntity
  8
2
100
AcDbCircle
 10
-659.328446
 20
610.649035
 30
0.0
 40
6.0
100
AcDbArc
 50
270.0
 51
360.0
  0
ARC
  5
4D3
100
AcDbEntity
  8
2
100
AcDbCircle
 10
-659.328446
 20
522.649035
 30
0.0
 40
6.0
100
AcDbArc
 50
0.0
 51
90.0
  0
ARC
  5
4D4
100
AcDbEntity
  8
2
100
AcDbCircle
 10
-513.328446
 20
522.649035
 30
0.0
 40
6.0
100
AcDbArc
 50
90.0
 51
180.0
  0
LINE
  5
4D5
100
AcDbEntity
  8
2
100
AcDbLine
 10
-651.328446
 20
615.162035
 30
0.0
 11
-521.328446
 21
615.162035
 31
0.0
  0
LINE
  5
4D6
100
AcDbEntity
  8
2
100
AcDbLine
 10
-651.328446
 20
518.136035
 30
0.0
 11
-521.328446
 21
518.136035
 31
0.0
  0
LINE
  5
4D7
100
AcDbEntity
  8
2
100
AcDbLine
 10
-519.328446
 20
239.849035
 30
0.0
 11
-519.328446
 21
231.349035
 31
0.0
  0
LINE
  5
4D8
100
AcDbEntity
  8
2
100
AcDbLine
 10
-653.328446
 20
239.849035
 30
0.0
 11
-653.328446
 21
231.349035
 31
0.0
  0
LINE
  5
4D9
100
AcDbEntity
  8
2
100
AcDbLine
 10
-665.158491
 20
230.849035
 30
0.0
 11
-653.828446
 21
230.849035
 31
0.0
  0
LINE
  5
4DA
100
AcDbEntity
  8
2
100
AcDbLine
 10
-518.828446
 20
230.849035
 30
0.0
 11
-508.224055
 21
230.849035
 31
0.0
  0
ARC
  5
4DB
100
AcDbEntity
  8
2
100
AcDbCircle
 10
-653.828446
 20
231.349035
 30
0.0
 40
0.5
100
AcDbArc
 50
270.0
 51
360.0
  0
ARC
  5
4DC
100
AcDbEntity
  8
2
100
AcDbCircle
 10
-518.828446
 20
231.349035
 30
0.0
 40
0.5
100
AcDbArc
 50
180.0
 51
270.0
  0
ARC
  5
4DD
100
AcDbEntity
  8
2
100
AcDbCircle
 10
-508.224055
 20
230.349035
 30
0.0
 40
0.5
100
AcDbArc
 50
5.0
 51
90.0
  0
ARC
  5
4DE
100
AcDbEntity
  8
2
100
AcDbCircle
 10
-665.158491
 20
230.349035
 30
0.0
 40
0.5
100
AcDbArc
 50
90.0
 51
160.0
  0
ARC
  5
4DF
100
AcDbEntity
  8
2
100
AcDbCircle
 10
-522.328446
 20
239.849035
 30
0.0
 40
3.0
100
AcDbArc
 50
0.0
 51
90.0
  0
ARC
  5
4E0
100
AcDbEntity
  8
2
100
AcDbCircle
 10
-650.328446
 20
239.849035
 30
0.0
 40
3.0
100
AcDbArc
 50
90.0
 51
180.0
  0
ARC
  5
4E1
100
AcDbEntity
  8
2
100
AcDbCircle
 10
-546.828446
 20
245.849035
 30
0.0
 40
3.0
100
AcDbArc
 50
180.0
 51
270.0
  0
ARC
  5
4E2
100
AcDbEntity
  8
2
100
AcDbCircle
 10
-637.828446
 20
245.849035
 30
0.0
 40
3.0
100
AcDbArc
 50
270.0
 51
360.0
  0
ARC
  5
4E3
100
AcDbEntity
  8
2
100
AcDbCircle
 10
-592.328446
 20
235.849035
 30
0.0
 40
34.0
100
AcDbArc
 50
22.844739
 51
157.155261
  0
CIRCLE
  5
4E4
100
AcDbEntity
  8
2
100
AcDbCircle
 10
-592.328446
 20
563.649035
 30
0.0
 40
31.33305
  0
ARC
  5
4E5
100
AcDbEntity
  8
2
100
AcDbCircle
 10
-629.753056
 20
563.975884
 30
0.0
 40
45.0
100
AcDbArc
 50
12.236103
 51
30.645688
  0
ARC
  5
4E6
100
AcDbEntity
  8
2
100
AcDbCircle
 10
-554.903837
 20
563.975884
 30
0.0
 40
45.0
100
AcDbArc
 50
149.354312
 51
167.763897
  0
ARC
  5
4E7
100
AcDbEntity
  8
2
100
AcDbCircle
 10
-592.328446
 20
586.149035
 30
0.0
 40
1.5
100
AcDbArc
 50
30.645688
 51
149.354312
  0
ARC
  5
4E8
100
AcDbEntity
  8
2
100
AcDbCircle
 10
-582.843494
 20
574.149035
 30
0.0
 40
3.0
100
AcDbArc
 50
192.236103
 51
270.0
  0
ARC
  5
4E9
100
AcDbEntity
  8
2
100
AcDbCircle
 10
-601.813399
 20
574.149035
 30
0.0
 40
3.0
100
AcDbArc
 50
270.0
 51
347.763897
  0
ARC
  5
4EA
100
AcDbEntity
  8
2
100
AcDbCircle
 10
-629.753056
 20
563.322186
 30
0.0
 40
45.0
100
AcDbArc
 50
329.354312
 51
347.763897
  0
ARC
  5
4EB
100
AcDbEntity
  8
2
100
AcDbCircle
 10
-554.903837
 20
563.322186
 30
0.0
 40
45.0
100
AcDbArc
 50
192.236103
 51
210.645688
  0
ARC
  5
4EC
100
AcDbEntity
  8
2
100
AcDbCircle
 10
-592.328446
 20
541.149035
 30
0.0
 40
1.5
100
AcDbArc
 50
210.645688
 51
329.354312
  0
ARC
  5
4ED
100
AcDbEntity
  8
2
100
AcDbCircle
 10
-582.843494
 20
553.149035
 30
0.0
 40
3.0
100
AcDbArc
 50
90.0
 51
167.763897
  0
ARC
  5
4EE
100
AcDbEntity
  8
2
100
AcDbCircle
 10
-601.813399
 20
553.149035
 30
0.0
 40
3.0
100
AcDbArc
 50
12.236103
 51
90.0
  0
ARC
  5
4EF
100
AcDbEntity
  8
2
100
AcDbCircle
 10
-592.328446
 20
563.649035
 30
0.0
 40
24.248711
100
AcDbArc
 50
18.016736
 51
161.983264
  0
ARC
  5
4F0
100
AcDbEntity
  8
2
100
AcDbCircle
 10
-592.328446
 20
563.649035
 30
0.0
 40
24.248711
100
AcDbArc
 50
198.016736
 51
341.983264
  0
ARC
  5
4F1
100
AcDbEntity
  8
2
100
AcDbCircle
 10
-509.328446
 20
602.649035
 30
0.0
 40
2.0
100
AcDbArc
 50
0.0
 51
90.0
  0
ARC
  5
4F2
100
AcDbEntity
  8
2
100
AcDbCircle
 10
-521.328446
 20
614.649035
 30
0.0
 40
2.0
100
AcDbArc
 50
0.0
 51
90.0
  0
ARC
  5
4F3
100
AcDbEntity
  8
2
100
AcDbCircle
 10
-509.328446
 20
530.649035
 30
0.0
 40
2.0
100
AcDbArc
 50
270.0
 51
360.0
  0
ARC
  5
4F4
100
AcDbEntity
  8
2
100
AcDbCircle
 10
-521.328446
 20
518.649035
 30
0.0
 40
2.0
100
AcDbArc
 50
270.0
 51
360.0
  0
ARC
  5
4F5
100
AcDbEntity
  8
2
100
AcDbCircle
 10
-651.328446
 20
518.649035
 30
0.0
 40
2.0
100
AcDbArc
 50
180.0
 51
270.0
  0
ARC
  5
4F6
100
AcDbEntity
  8
2
100
AcDbCircle
 10
-665.328446
 20
530.649035
 30
0.0
 40
2.0
100
AcDbArc
 50
180.0
 51
270.0
  0
ARC
  5
4F7
100
AcDbEntity
  8
2
100
AcDbCircle
 10
-651.328446
 20
614.649035
 30
0.0
 40
2.0
100
AcDbArc
 50
90.0
 51
180.0
  0
ARC
  5
4F8
100
AcDbEntity
  8
2
100
AcDbCircle
 10
-665.328446
 20
602.649035
 30
0.0
 40
2.0
100
AcDbArc
 50
90.0
 51
180.0
  0
ARC
  5
4F9
100
AcDbEntity
  8
2
100
AcDbCircle
 10
-592.328446
 20
234.349035
 30
0.0
 40
28.0
100
AcDbArc
 50
34.712682
 51
81.884254
  0
ARC
  5
4FA
100
AcDbEntity
  8
2
100
AcDbCircle
 10
-592.328446
 20
234.349035
 30
0.0
 40
28.0
100
AcDbArc
 50
98.115746
 51
145.287318
  0
ARC
  5
4FB
100
AcDbEntity
  8
2
100
AcDbCircle
 10
-593.328446
 20
257.349035
 30
0.0
 40
1.0
100
AcDbArc
 50
90.0
 51
180.0
  0
ARC
  5
4FC
100
AcDbEntity
  8
2
100
AcDbCircle
 10
-591.328446
 20
257.349035
 30
0.0
 40
1.0
100
AcDbArc
 50
0.0
 51
90.0
  0
LINE
  5
4FD
100
AcDbEntity
  8
2
100
AcDbLine
 10
-593.328446
 20
258.349035
 30
0.0
 11
-592.96368
 21
258.34904
 31
0.0
  0
LINE
  5
4FE
100
AcDbEntity
  8
2
100
AcDbLine
 10
-591.69298
 20
258.349149
 30
0.0
 11
-591.328446
 21
258.349035
 31
0.0
  0
LINE
  5
4FF
100
AcDbEntity
  8
2
100
AcDbLine
 10
-601.144114
 20
541.059568
 30
0.0
 11
-599.145245
 21
545.885265
 31
0.0
  0
LINE
  5
500
100
AcDbEntity
  8
2
100
AcDbLine
 10
-584.587769
 20
581.030122
 30
0.0
 11
-582.588899
 21
585.855819
 31
0.0
  0
LINE
  5
501
100
AcDbEntity
  8
2
100
AcDbLine
 10
-602.067993
 20
541.442252
 30
0.0
 11
-600.069124
 21
546.267949
 31
0.0
  0
LINE
  5
502
100
AcDbEntity
  8
2
100
AcDbLine
 10
-585.511648
 20
581.412805
 30
0.0
 11
-583.512779
 21
586.238502
 31
0.0
  0
LINE
  5
503
100
AcDbEntity
  8
2
100
AcDbLine
 10
-609.117676
 20
546.152699
 30
0.0
 11
-605.424247
 21
549.846128
 31
0.0
  0
LINE
  5
504
100
AcDbEntity
  8
2
100
AcDbLine
 10
-578.525539
 20
576.744836
 30
0.0
 11
-574.83211
 21
580.438265
 31
0.0
  0
LINE
  5
505
100
AcDbEntity
  8
2
100
AcDbLine
 10
-609.824782
 20
546.859806
 30
0.0
 11
-606.131354
 21
550.553234
 31
0.0
  0
LINE
  5
506
100
AcDbEntity
  8
2
100
AcDbLine
 10
-579.232646
 20
577.451943
 30
0.0
 11
-575.539217
 21
581.145371
 31
0.0
  0
LINE
  5
507
100
AcDbEntity
  8
2
100
AcDbLine
 10
-614.53523
 20
553.909488
 30
0.0
 11
-609.709533
 21
555.908357
 31
0.0
  0
LINE
  5
508
100
AcDbEntity
  8
2
100
AcDbLine
 10
-572.915282
 20
571.149035
 30
0.0
 11
-569.73898
 21
572.464703
 31
0.0
  0
LINE
  5
509
100
AcDbEntity
  8
2
100
AcDbLine
 10
-614.917913
 20
554.833368
 30
0.0
 11
-611.741611
 21
556.149035
 31
0.0
  0
LINE
  5
50A
100
AcDbEntity
  8
2
100
AcDbLine
 10
-574.94736
 20
571.389713
 30
0.0
 11
-570.121663
 21
573.388582
 31
0.0
  0
ARC
  5
50B
100
AcDbEntity
  8
2
100
AcDbCircle
 10
-599.607184
 20
546.076607
 30
0.0
 40
0.5
100
AcDbArc
 50
337.5
 51
157.5
  0
ARC
  5
50C
100
AcDbEntity
  8
2
100
AcDbCircle
 10
-605.777801
 20
550.199681
 30
0.0
 40
0.5
100
AcDbArc
 50
315.0
 51
135.0
  0
ARC
  5
50D
100
AcDbEntity
  8
2
100
AcDbCircle
 10
-609.900875
 20
556.370297
 30
0.0
 40
0.5
100
AcDbArc
 50
292.5
 51
333.734975
  0
ARC
  5
50E
100
AcDbEntity
  8
2
100
AcDbCircle
 10
-585.049708
 20
581.221463
 30
0.0
 40
0.5
100
AcDbArc
 50
157.5
 51
337.5
  0
ARC
  5
50F
100
AcDbEntity
  8
2
100
AcDbCircle
 10
-578.879092
 20
577.098389
 30
0.0
 40
0.5
100
AcDbArc
 50
135.0
 51
315.0
  0
ARC
  5
510
100
AcDbEntity
  8
2
100
AcDbCircle
 10
-574.756018
 20
570.927773
 30
0.0
 40
0.5
100
AcDbArc
 50
112.5
 51
153.734975
  0
LINE
  5
511
100
AcDbEntity
  8
2
100
AcDbLine
 10
-575.527082
 20
554.795341
 30
0.0
 11
-573.505036
 21
553.957782
 31
0.0
  0
ARC
  5
512
100
AcDbEntity
  8
2
100
AcDbCircle
 10
-574.857331
 20
556.412262
 30
0.0
 40
1.750143
100
AcDbArc
 50
188.650293
 51
247.5
  0
ARC
  5
513
100
AcDbEntity
  8
2
100
AcDbCircle
 10
-572.835286
 20
555.574704
 30
0.0
 40
1.750143
100
AcDbArc
 50
247.5
 51
19.157293
  0
LINE
  5
514
100
AcDbEntity
  8
2
100
AcDbLine
 10
-609.129811
 20
572.502729
 30
0.0
 11
-611.151856
 21
573.340288
 31
0.0
  0
ARC
  5
515
100
AcDbEntity
  8
2
100
AcDbCircle
 10
-609.799562
 20
570.885808
 30
0.0
 40
1.750143
100
AcDbArc
 50
8.650293
 51
67.5
  0
ARC
  5
516
100
AcDbEntity
  8
2
100
AcDbCircle
 10
-611.821607
 20
571.723367
 30
0.0
 40
1.750143
100
AcDbArc
 50
67.5
 51
199.157293
  0
ARC
  5
517
100
AcDbEntity
  8
2
100
AcDbCircle
 10
-556.928051
 20
238.614665
 30
0.0
 40
45.274917
100
AcDbArc
 50
159.10214
 51
166.675437
  0
ARC
  5
518
100
AcDbEntity
  8
2
100
AcDbCircle
 10
-557.851931
 20
238.614665
 30
0.0
 40
45.274917
100
AcDbArc
 50
158.681079
 51
166.675437
  0
ARC
  5
519
100
AcDbEntity
  8
2
100
AcDbCircle
 10
-599.627283
 20
254.918088
 30
0.0
 40
0.430947
100
AcDbArc
 50
339.10214
 51
158.681079
  0
ARC
  5
51A
100
AcDbEntity
  8
2
100
AcDbCircle
 10
-580.898517
 20
236.847783
 30
0.0
 40
30.472934
100
AcDbArc
 50
143.677597
 51
156.39704
  0
ARC
  5
51B
100
AcDbEntity
  8
2
100
AcDbCircle
 10
-581.605624
 20
236.847783
 30
0.0
 40
30.472934
100
AcDbArc
 50
142.882669
 51
156.39704
  0
ARC
  5
51C
100
AcDbEntity
  8
2
100
AcDbCircle
 10
-605.678798
 20
255.065631
 30
0.0
 40
0.283404
100
AcDbArc
 50
323.677597
 51
142.882669
  0
ARC
  5
51D
100
AcDbEntity
  8
2
100
AcDbCircle
 10
-589.654105
 20
235.080902
 30
0.0
 40
28.197761
100
AcDbArc
 50
134.711482
 51
150.306296
  0
ARC
  5
51E
100
AcDbEntity
  8
2
100
AcDbCircle
 10
-590.036789
 20
235.080902
 30
0.0
 40
28.197761
100
AcDbArc
 50
134.156238
 51
150.306296
  0
ARC
  5
51F
100
AcDbEntity
  8
2
100
AcDbCircle
 10
-609.586521
 20
255.215078
 30
0.0
 40
0.133957
100
AcDbArc
 50
314.711482
 51
134.156238
  0
LINE
  5
520
100
AcDbEntity
  8
2
100
AcDbLine
 10
-549.828446
 20
249.049035
 30
0.0
 11
-634.828446
 21
249.049035
 31
0.0
  0
ARC
  5
521
100
AcDbEntity
  8
2
100
AcDbCircle
 10
-592.328446
 20
235.849035
 30
0.0
 40
33.162479
100
AcDbArc
 50
104.962752
 51
150.128593
  0
ARC
  5
522
100
AcDbEntity
  8
2
100
AcDbCircle
 10
-586.773898
 20
267.838898
 30
0.0
 40
10.0
100
AcDbArc
 50
202.238154
 51
227.992896
  0
ARC
  5
523
100
AcDbEntity
  8
2
100
AcDbCircle
 10
-600.116128
 20
264.988821
 30
0.0
 40
3.0
100
AcDbArc
 50
42.388379
 51
104.962752
  0
ARC
  5
524
100
AcDbEntity
  8
2
100
AcDbCircle
 10
-605.286273
 20
260.269753
 30
0.0
 40
10.0
100
AcDbArc
 50
22.238154
 51
42.388379
  0
ARC
  5
525
100
AcDbEntity
  8
2
100
AcDbCircle
 10
-597.882995
 20
267.838898
 30
0.0
 40
10.0
100
AcDbArc
 50
312.007104
 51
337.761846
  0
ARC
  5
526
100
AcDbEntity
  8
2
100
AcDbCircle
 10
-579.37062
 20
260.269753
 30
0.0
 40
10.0
100
AcDbArc
 50
137.611621
 51
157.761846
  0
ARC
  5
527
100
AcDbEntity
  8
2
100
AcDbCircle
 10
-584.540764
 20
264.988821
 30
0.0
 40
3.0
100
AcDbArc
 50
75.037248
 51
137.611621
  0
ARC
  5
528
100
AcDbEntity
  8
2
100
AcDbCircle
 10
-592.328446
 20
235.849035
 30
0.0
 40
33.162479
100
AcDbArc
 50
29.871407
 51
75.037248
  0
ARC
  5
529
100
AcDbEntity
  8
2
100
AcDbCircle
 10
-592.328446
 20
261.671485
 30
0.0
 40
1.7
100
AcDbArc
 50
227.992896
 51
312.007104
  0
ARC
  5
52A
100
AcDbEntity
  8
2
100
AcDbCircle
 10
-591.853555
 20
235.0265
 30
0.0
 40
32.849358
100
AcDbArc
 50
105.470231
 51
147.621493
  0
ARC
  5
52B
100
AcDbEntity
  8
2
100
AcDbCircle
 10
-585.819946
 20
267.947396
 30
0.0
 40
12.0
100
AcDbArc
 50
200.135943
 51
231.694293
  0
ARC
  5
52C
100
AcDbEntity
  8
2
100
AcDbCircle
 10
-602.719758
 20
261.750918
 30
0.0
 40
6.0
100
AcDbArc
 50
20.135943
 51
48.747449
  0
ARC
  5
52D
100
AcDbEntity
  8
2
100
AcDbCircle
 10
-600.082241
 20
264.75816
 30
0.0
 40
2.0
100
AcDbArc
 50
48.747449
 51
105.470231
  0
ARC
  5
52E
100
AcDbEntity
  8
2
100
AcDbCircle
 10
-598.836947
 20
267.947396
 30
0.0
 40
12.0
100
AcDbArc
 50
308.305707
 51
339.864057
  0
ARC
  5
52F
100
AcDbEntity
  8
2
100
AcDbCircle
 10
-581.937134
 20
261.750918
 30
0.0
 40
6.0
100
AcDbArc
 50
131.252551
 51
159.864057
  0
ARC
  5
530
100
AcDbEntity
  8
2
100
AcDbCircle
 10
-584.574651
 20
264.75816
 30
0.0
 40
2.0
100
AcDbArc
 50
74.529769
 51
131.252551
  0
ARC
  5
531
100
AcDbEntity
  8
2
100
AcDbCircle
 10
-592.803337
 20
235.0265
 30
0.0
 40
32.849358
100
AcDbArc
 50
32.378507
 51
74.529769
  0
ARC
  5
532
100
AcDbEntity
  8
2
100
AcDbCircle
 10
-592.328446
 20
259.707892
 30
0.0
 40
1.5
100
AcDbArc
 50
231.694293
 51
308.305707
  0
LINE
  5
533
100
AcDbEntity
  8
2
100
AcDbLine
 10
-663.928446
 20
232.149035
 30
0.0
 11
-663.928446
 21
230.849035
 31
0.0
  0
LINE
  5
534
100
AcDbEntity
  8
2
100
AcDbLine
 10
-654.728446
 20
232.149035
 30
0.0
 11
-654.728446
 21
230.849035
 31
0.0
  0
LINE
  5
535
100
AcDbEntity
  8
2
100
AcDbLine
 10
-663.928446
 20
232.149035
 30
0.0
 11
-654.728446
 21
232.149035
 31
0.0
  0
LINE
  5
536
100
AcDbEntity
  8
2
100
AcDbLine
 10
-663.828446
 20
233.436527
 30
0.0
 11
-663.828446
 21
232.149035
 31
0.0
  0
LINE
  5
537
100
AcDbEntity
  8
2
100
AcDbLine
 10
-654.828446
 20
233.436527
 30
0.0
 11
-654.828446
 21
232.149035
 31
0.0
  0
ARC
  5
538
100
AcDbEntity
  8
2
100
AcDbCircle
 10
-659.328446
 20
223.449035
 30
0.0
 40
12.0
100
AcDbArc
 50
73.808648
 51
106.191352
  0
ARC
  5
539
100
AcDbEntity
  8
2
100
AcDbCircle
 10
-662.228446
 20
233.436527
 30
0.0
 40
1.6
100
AcDbArc
 50
106.191352
 51
180.0
  0
ARC
  5
53A
100
AcDbEntity
  8
2
100
AcDbCircle
 10
-656.428446
 20
233.436527
 30
0.0
 40
1.6
100
AcDbArc
 50
0.0
 51
73.808648
  0
LINE
  5
53B
100
AcDbEntity
  8
2
100
AcDbLine
 10
-517.928446
 20
232.149035
 30
0.0
 11
-517.928446
 21
230.849035
 31
0.0
  0
LINE
  5
53C
100
AcDbEntity
  8
2
100
AcDbLine
 10
-508.728446
 20
232.149035
 30
0.0
 11
-508.728446
 21
230.849035
 31
0.0
  0
LINE
  5
53D
100
AcDbEntity
  8
2
100
AcDbLine
 10
-517.928446
 20
232.149035
 30
0.0
 11
-508.728446
 21
232.149035
 31
0.0
  0
LINE
  5
53E
100
AcDbEntity
  8
2
100
AcDbLine
 10
-517.828446
 20
233.436527
 30
0.0
 11
-517.828446
 21
232.149035
 31
0.0
  0
LINE
  5
53F
100
AcDbEntity
  8
2
100
AcDbLine
 10
-508.828446
 20
233.436527
 30
0.0
 11
-508.828446
 21
232.149035
 31
0.0
  0
ARC
  5
540
100
AcDbEntity
  8
2
100
AcDbCircle
 10
-513.328446
 20
223.449035
 30
0.0
 40
12.0
100
AcDbArc
 50
73.808648
 51
106.191352
  0
ARC
  5
541
100
AcDbEntity
  8
2
100
AcDbCircle
 10
-516.228446
 20
233.436527
 30
0.0
 40
1.6
100
AcDbArc
 50
106.191352
 51
180.0
  0
ARC
  5
542
100
AcDbEntity
  8
2
100
AcDbCircle
 10
-510.428446
 20
233.436527
 30
0.0
 40
1.6
100
AcDbArc
 50
0.0
 51
73.808648
  0
CIRCLE
  5
543
100
AcDbEntity
  8
2
100
AcDbCircle
 10
-513.328446
 20
522.649035
 30
0.0
 40
4.5
  0
CIRCLE
  5
544
100
AcDbEntity
  8
2
100
AcDbCircle
 10
-513.328446
 20
610.649035
 30
0.0
 40
4.5
  0
CIRCLE
  5
545
100
AcDbEntity
  8
2
100
AcDbCircle
 10
-659.328446
 20
522.649035
 30
0.0
 40
4.5
  0
CIRCLE
  5
546
100
AcDbEntity
  8
2
100
AcDbCircle
 10
-659.328446
 20
610.649035
 30
0.0
 40
4.5
  0
CIRCLE
  5
547
100
AcDbEntity
  8
2
100
AcDbCircle
 10
-565.811942
 20
537.132531
 30
0.0
 40
3.5
  0
CIRCLE
  5
548
100
AcDbEntity
  8
2
100
AcDbCircle
 10
-565.811942
 20
590.16554
 30
0.0
 40
3.5
  0
CIRCLE
  5
549
100
AcDbEntity
  8
2
100
AcDbCircle
 10
-618.844951
 20
537.132531
 30
0.0
 40
3.5
  0
CIRCLE
  5
54A
100
AcDbEntity
  8
2
100
AcDbCircle
 10
-618.844951
 20
590.16554
 30
0.0
 40
3.5
  0
LINE
  5
54B
100
AcDbEntity
  8
2
100
AcDbLine
 10
-562.011942
 20
250.049035
 30
0.0
 11
-569.611942
 21
250.049035
 31
0.0
  0
LINE
  5
54C
100
AcDbEntity
  8
2
100
AcDbLine
 10
-562.011942
 20
250.049035
 30
0.0
 11
-562.011942
 21
249.049035
 31
0.0
  0
LINE
  5
54D
100
AcDbEntity
  8
2
100
AcDbLine
 10
-569.611942
 20
250.049035
 30
0.0
 11
-569.611942
 21
249.049035
 31
0.0
  0
LINE
  5
54E
100
AcDbEntity
  8
2
100
AcDbLine
 10
-562.311942
 20
251.02806
 30
0.0
 11
-562.311942
 21
250.049035
 31
0.0
  0
LINE
  5
54F
100
AcDbEntity
  8
2
100
AcDbLine
 10
-569.311942
 20
251.02806
 30
0.0
 11
-569.311942
 21
250.049035
 31
0.0
  0
ARC
  5
550
100
AcDbEntity
  8
2
100
AcDbCircle
 10
-565.811942
 20
243.649035
 30
0.0
 40
9.0
100
AcDbArc
 50
73.39845
 51
106.60155
  0
ARC
  5
551
100
AcDbEntity
  8
2
100
AcDbCircle
 10
-563.611942
 20
251.02806
 30
0.0
 40
1.3
100
AcDbArc
 50
0.0
 51
73.39845
  0
ARC
  5
552
100
AcDbEntity
  8
2
100
AcDbCircle
 10
-568.011942
 20
251.02806
 30
0.0
 40
1.3
100
AcDbArc
 50
106.60155
 51
180.0
  0
LINE
  5
553
100
AcDbEntity
  8
2
100
AcDbLine
 10
-615.044951
 20
250.049035
 30
0.0
 11
-622.644951
 21
250.049035
 31
0.0
  0
LINE
  5
554
100
AcDbEntity
  8
2
100
AcDbLine
 10
-615.044951
 20
250.049035
 30
0.0
 11
-615.044951
 21
249.049035
 31
0.0
  0
LINE
  5
555
100
AcDbEntity
  8
2
100
AcDbLine
 10
-622.644951
 20
250.049035
 30
0.0
 11
-622.644951
 21
249.049035
 31
0.0
  0
LINE
  5
556
100
AcDbEntity
  8
2
100
AcDbLine
 10
-615.344951
 20
251.02806
 30
0.0
 11
-615.344951
 21
250.049035
 31
0.0
  0
LINE
  5
557
100
AcDbEntity
  8
2
100
AcDbLine
 10
-622.344951
 20
251.02806
 30
0.0
 11
-622.344951
 21
250.049035
 31
0.0
  0
ARC
  5
558
100
AcDbEntity
  8
2
100
AcDbCircle
 10
-618.844951
 20
243.649035
 30
0.0
 40
9.0
100
AcDbArc
 50
73.39845
 51
106.60155
  0
ARC
  5
559
100
AcDbEntity
  8
2
100
AcDbCircle
 10
-616.644951
 20
251.02806
 30
0.0
 40
1.3
100
AcDbArc
 50
0.0
 51
73.39845
  0
ARC
  5
55A
100
AcDbEntity
  8
2
100
AcDbCircle
 10
-621.044951
 20
251.02806
 30
0.0
 40
1.3
100
AcDbArc
 50
106.60155
 51
180.0
  0
LINE
  5
55B
100
AcDbEntity
  8
2
100
AcDbLine
 10
214.786259
 20
242.849035
 30
0.0
 11
128.756848
 21
242.849035
 31
0.0
  0
LINE
  5
55C
100
AcDbEntity
  8
2
100
AcDbLine
 10
126.271554
 20
249.049035
 30
0.0
 11
126.271554
 21
243.984268
 31
0.0
  0
LINE
  5
55D
100
AcDbEntity
  8
2
100
AcDbLine
 10
211.271554
 20
249.049035
 30
0.0
 11
211.271554
 21
245.849035
 31
0.0
  0
LINE
  5
55E
100
AcDbEntity
  8
2
100
AcDbLine
 10
126.271554
 20
247.849035
 30
0.0
 11
211.271554
 21
247.849035
 31
0.0
  0
LINE
  5
55F
100
AcDbEntity
  8
2
100
AcDbLine
 10
221.771554
 20
225.849035
 30
0.0
 11
220.763428
 21
237.37197
 31
0.0
  0
LINE
  5
560
100
AcDbEntity
  8
2
100
AcDbLine
 10
121.771554
 20
225.849035
 30
0.0
 11
122.77968
 21
237.37197
 31
0.0
  0
ARC
  5
561
100
AcDbEntity
  8
2
100
AcDbCircle
 10
214.786259
 20
236.849035
 30
0.0
 40
6.0
100
AcDbArc
 50
5.0
 51
90.0
  0
ARC
  5
562
100
AcDbEntity
  8
2
100
AcDbCircle
 10
128.756848
 20
236.849035
 30
0.0
 40
6.0
100
AcDbArc
 50
90.0
 51
175.0
  0
ARC
  5
563
100
AcDbEntity
  8
2
100
AcDbCircle
 10
214.271554
 20
245.849035
 30
0.0
 40
3.0
100
AcDbArc
 50
180.0
 51
270.0
  0
ARC
  5
564
100
AcDbEntity
  8
2
100
AcDbCircle
 10
123.271554
 20
243.984268
 30
0.0
 40
3.0
100
AcDbArc
 50
307.551707
 51
360.0
  0
ARC
  5
565
100
AcDbEntity
  8
2
100
AcDbCircle
 10
168.771554
 20
235.849035
 30
0.0
 40
34.0
100
AcDbArc
 50
45.099128
 51
134.900872
  0
LINE
  5
566
100
AcDbEntity
  8
2
100
AcDbLine
 10
176.271549
 20
267.454521
 30
0.0
 11
176.271554
 21
249.049035
 31
0.0
  0
LINE
  5
567
100
AcDbEntity
  8
2
100
AcDbLine
 10
161.271554
 20
267.454521
 30
0.0
 11
161.271554
 21
249.049035
 31
0.0
  0
LINE
  5
568
100
AcDbEntity
  8
2
100
AcDbLine
 10
144.771554
 20
259.932224
 30
0.0
 11
144.771554
 21
258.206137
 31
0.0
  0
LINE
  5
569
100
AcDbEntity
  8
2
100
AcDbLine
 10
192.771554
 20
259.932224
 30
0.0
 11
192.771554
 21
258.206137
 31
0.0
  0
ARC
  5
56A
100
AcDbEntity
  8
2
100
AcDbCircle
 10
168.771554
 20
237.849035
 30
0.0
 40
31.0
100
AcDbArc
 50
28.453097
 51
48.922243
  0
ARC
  5
56B
100
AcDbEntity
  8
2
100
AcDbCircle
 10
168.771554
 20
237.849035
 30
0.0
 40
31.0
100
AcDbArc
 50
131.077757
 51
151.546903
  0
ARC
  5
56C
100
AcDbEntity
  8
2
100
AcDbCircle
 10
168.771554
 20
234.349035
 30
0.0
 40
28.0
100
AcDbArc
 50
105.536794
 51
145.287318
  0
ARC
  5
56D
100
AcDbEntity
  8
2
100
AcDbCircle
 10
168.771554
 20
234.349035
 30
0.0
 40
28.0
100
AcDbArc
 50
34.712682
 51
74.463206
  0
ARC
  5
56E
100
AcDbEntity
  8
2
100
AcDbCircle
 10
133.371159
 20
238.614665
 30
0.0
 40
45.274917
100
AcDbArc
 50
13.324563
 51
18.638604
  0
ARC
  5
56F
100
AcDbEntity
  8
2
100
AcDbCircle
 10
134.295038
 20
238.614665
 30
0.0
 40
45.274917
100
AcDbArc
 50
13.324563
 51
21.318921
  0
ARC
  5
570
100
AcDbEntity
  8
2
100
AcDbCircle
 10
176.070391
 20
254.918088
 30
0.0
 40
0.430947
100
AcDbArc
 50
21.318921
 51
62.173379
  0
ARC
  5
571
100
AcDbEntity
  8
2
100
AcDbCircle
 10
157.341625
 20
236.847783
 30
0.0
 40
30.472934
100
AcDbArc
 50
23.60296
 51
36.322403
  0
ARC
  5
572
100
AcDbEntity
  8
2
100
AcDbCircle
 10
158.048732
 20
236.847783
 30
0.0
 40
30.472934
100
AcDbArc
 50
23.60296
 51
37.117331
  0
ARC
  5
573
100
AcDbEntity
  8
2
100
AcDbCircle
 10
182.121906
 20
255.065631
 30
0.0
 40
0.283404
100
AcDbArc
 50
37.117331
 51
216.322403
  0
ARC
  5
574
100
AcDbEntity
  8
2
100
AcDbCircle
 10
166.097212
 20
235.080902
 30
0.0
 40
28.197761
100
AcDbArc
 50
29.693704
 51
45.288518
  0
ARC
  5
575
100
AcDbEntity
  8
2
100
AcDbCircle
 10
166.479896
 20
235.080902
 30
0.0
 40
28.197761
100
AcDbArc
 50
29.693704
 51
45.843762
  0
ARC
  5
576
100
AcDbEntity
  8
2
100
AcDbCircle
 10
186.029628
 20
255.215078
 30
0.0
 40
0.133957
100
AcDbArc
 50
45.843762
 51
225.288518
  0
LINE
  5
577
100
AcDbEntity
  8
2
100
AcDbLine
 10
126.271554
 20
249.049035
 30
0.0
 11
211.271554
 21
249.049035
 31
0.0
  0
LINE
  5
578
100
AcDbEntity
  8
2
100
AcDbLine
 10
209.771554
 20
239.849035
 30
0.0
 11
209.771554
 21
231.349035
 31
0.0
  0
LINE
  5
579
100
AcDbEntity
  8
2
100
AcDbLine
 10
133.771554
 20
239.849035
 30
0.0
 11
133.771554
 21
231.349035
 31
0.0
  0
LINE
  5
57A
100
AcDbEntity
  8
2
100
AcDbLine
 10
122.667163
 20
230.849035
 30
0.0
 11
133.271554
 21
230.849035
 31
0.0
  0
LINE
  5
57B
100
AcDbEntity
  8
2
100
AcDbLine
 10
210.271554
 20
230.849035
 30
0.0
 11
220.875945
 21
230.849035
 31
0.0
  0
ARC
  5
57C
100
AcDbEntity
  8
2
100
AcDbCircle
 10
210.271554
 20
231.349035
 30
0.0
 40
0.5
100
AcDbArc
 50
180.0
 51
270.0
  0
ARC
  5
57D
100
AcDbEntity
  8
2
100
AcDbCircle
 10
133.271554
 20
231.349035
 30
0.0
 40
0.5
100
AcDbArc
 50
270.0
 51
360.0
  0
ARC
  5
57E
100
AcDbEntity
  8
2
100
AcDbCircle
 10
220.875945
 20
230.349035
 30
0.0
 40
0.5
100
AcDbArc
 50
5.0
 51
90.0
  0
ARC
  5
57F
100
AcDbEntity
  8
2
100
AcDbCircle
 10
122.667163
 20
230.349035
 30
0.0
 40
0.5
100
AcDbArc
 50
90.0
 51
175.0
  0
ARC
  5
580
100
AcDbEntity
  8
2
100
AcDbCircle
 10
206.771554
 20
239.849035
 30
0.0
 40
3.0
100
AcDbArc
 50
0.0
 51
90.0
  0
ARC
  5
581
100
AcDbEntity
  8
2
100
AcDbCircle
 10
136.771554
 20
239.849035
 30
0.0
 40
3.0
100
AcDbArc
 50
90.0
 51
180.0
  0
ARC
  5
582
100
AcDbEntity
  8
2
100
AcDbCircle
 10
160.487765
 20
256.528067
 30
0.0
 40
11.430139
100
AcDbArc
 50
88.512215
 51
112.714662
  0
ARC
  5
583
100
AcDbEntity
  8
2
100
AcDbCircle
 10
160.771554
 20
267.454521
 30
0.0
 40
0.5
100
AcDbArc
 50
0.0
 51
88.512215
  0
ARC
  5
584
100
AcDbEntity
  8
2
100
AcDbCircle
 10
171.607927
 20
229.963562
 30
0.0
 40
40.228245
100
AcDbArc
 50
112.714662
 51
131.843847
  0
ARC
  5
585
100
AcDbEntity
  8
2
100
AcDbCircle
 10
161.977768
 20
249.63209
 30
0.0
 40
17.127052
100
AcDbArc
 50
93.791923
 51
118.737001
  0
ARC
  5
586
100
AcDbEntity
  8
2
100
AcDbCircle
 10
160.871554
 20
266.322523
 30
0.0
 40
0.4
100
AcDbArc
 50
0.0
 51
93.791923
  0
ARC
  5
587
100
AcDbEntity
  8
2
100
AcDbCircle
 10
175.690117
 20
224.624325
 30
0.0
 40
45.647515
100
AcDbArc
 50
118.737001
 51
132.635576
  0
ARC
  5
588
100
AcDbEntity
  8
2
100
AcDbCircle
 10
175.56534
 20
249.63209
 30
0.0
 40
17.127052
100
AcDbArc
 50
61.262999
 51
86.208077
  0
ARC
  5
589
100
AcDbEntity
  8
2
100
AcDbCircle
 10
161.85299
 20
224.624325
 30
0.0
 40
45.647515
100
AcDbArc
 50
47.364424
 51
61.262999
  0
ARC
  5
58A
100
AcDbEntity
  8
2
100
AcDbCircle
 10
176.671554
 20
266.322523
 30
0.0
 40
0.4
100
AcDbArc
 50
86.208077
 51
180.0
  0
ARC
  5
58B
100
AcDbEntity
  8
2
100
AcDbCircle
 10
176.771554
 20
267.454521
 30
0.0
 40
0.5
100
AcDbArc
 50
91.487785
 51
180.0
  0
ARC
  5
58C
100
AcDbEntity
  8
2
100
AcDbCircle
 10
177.055342
 20
256.528067
 30
0.0
 40
11.430139
100
AcDbArc
 50
67.285338
 51
91.487785
  0
ARC
  5
58D
100
AcDbEntity
  8
2
100
AcDbCircle
 10
165.93518
 20
229.963562
 30
0.0
 40
40.228245
100
AcDbArc
 50
48.156153
 51
67.285338
  0
LINE
  5
58E
100
AcDbEntity
  8
2
100
AcDbLine
 10
123.171554
 20
232.149035
 30
0.0
 11
123.171554
 21
230.849035
 31
0.0
  0
LINE
  5
58F
100
AcDbEntity
  8
2
100
AcDbLine
 10
132.371554
 20
232.149035
 30
0.0
 11
132.371554
 21
230.849035
 31
0.0
  0
LINE
  5
590
100
AcDbEntity
  8
2
100
AcDbLine
 10
123.171554
 20
232.149035
 30
0.0
 11
132.371554
 21
232.149035
 31
0.0
  0
LINE
  5
591
100
AcDbEntity
  8
2
100
AcDbLine
 10
123.271554
 20
233.436527
 30
0.0
 11
123.271554
 21
232.149035
 31
0.0
  0
LINE
  5
592
100
AcDbEntity
  8
2
100
AcDbLine
 10
132.271554
 20
233.436527
 30
0.0
 11
132.271554
 21
232.149035
 31
0.0
  0
ARC
  5
593
100
AcDbEntity
  8
2
100
AcDbCircle
 10
127.771554
 20
223.449035
 30
0.0
 40
12.0
100
AcDbArc
 50
73.808648
 51
106.191352
  0
ARC
  5
594
100
AcDbEntity
  8
2
100
AcDbCircle
 10
124.871554
 20
233.436527
 30
0.0
 40
1.6
100
AcDbArc
 50
106.191352
 51
180.0
  0
ARC
  5
595
100
AcDbEntity
  8
2
100
AcDbCircle
 10
130.671554
 20
233.436527
 30
0.0
 40
1.6
100
AcDbArc
 50
0.0
 51
73.808648
  0
LINE
  5
596
100
AcDbEntity
  8
2
100
AcDbLine
 10
211.171554
 20
232.149035
 30
0.0
 11
211.171554
 21
230.849035
 31
0.0
  0
LINE
  5
597
100
AcDbEntity
  8
2
100
AcDbLine
 10
220.371554
 20
232.149035
 30
0.0
 11
220.371554
 21
230.849035
 31
0.0
  0
LINE
  5
598
100
AcDbEntity
  8
2
100
AcDbLine
 10
211.171554
 20
232.149035
 30
0.0
 11
220.371554
 21
232.149035
 31
0.0
  0
LINE
  5
599
100
AcDbEntity
  8
2
100
AcDbLine
 10
211.271554
 20
233.436527
 30
0.0
 11
211.271554
 21
232.149035
 31
0.0
  0
LINE
  5
59A
100
AcDbEntity
  8
2
100
AcDbLine
 10
220.271554
 20
233.436527
 30
0.0
 11
220.271554
 21
232.149035
 31
0.0
  0
ARC
  5
59B
100
AcDbEntity
  8
2
100
AcDbCircle
 10
215.771554
 20
223.449035
 30
0.0
 40
12.0
100
AcDbArc
 50
73.808648
 51
106.191352
  0
ARC
  5
59C
100
AcDbEntity
  8
2
100
AcDbCircle
 10
212.871554
 20
233.436527
 30
0.0
 40
1.6
100
AcDbArc
 50
106.191352
 51
180.0
  0
ARC
  5
59D
100
AcDbEntity
  8
2
100
AcDbCircle
 10
218.671554
 20
233.436527
 30
0.0
 40
1.6
100
AcDbArc
 50
0.0
 51
73.808648
  0
LINE
  5
59E
100
AcDbEntity
  8
2
100
AcDbLine
 10
146.055049
 20
250.049035
 30
0.0
 11
138.455049
 21
250.049035
 31
0.0
  0
LINE
  5
59F
100
AcDbEntity
  8
2
100
AcDbLine
 10
146.055049
 20
250.049035
 30
0.0
 11
146.055049
 21
249.049035
 31
0.0
  0
LINE
  5
5A0
100
AcDbEntity
  8
2
100
AcDbLine
 10
138.455049
 20
250.049035
 30
0.0
 11
138.455049
 21
249.049035
 31
0.0
  0
LINE
  5
5A1
100
AcDbEntity
  8
2
100
AcDbLine
 10
145.755049
 20
251.02806
 30
0.0
 11
145.755049
 21
250.049035
 31
0.0
  0
LINE
  5
5A2
100
AcDbEntity
  8
2
100
AcDbLine
 10
138.755049
 20
251.02806
 30
0.0
 11
138.755049
 21
250.049035
 31
0.0
  0
ARC
  5
5A3
100
AcDbEntity
  8
2
100
AcDbCircle
 10
142.255049
 20
243.649035
 30
0.0
 40
9.0
100
AcDbArc
 50
73.39845
 51
106.60155
  0
ARC
  5
5A4
100
AcDbEntity
  8
2
100
AcDbCircle
 10
144.455049
 20
251.02806
 30
0.0
 40
1.3
100
AcDbArc
 50
0.0
 51
73.39845
  0
ARC
  5
5A5
100
AcDbEntity
  8
2
100
AcDbCircle
 10
140.055049
 20
251.02806
 30
0.0
 40
1.3
100
AcDbArc
 50
106.60155
 51
180.0
  0
LINE
  5
5A6
100
AcDbEntity
  8
2
100
AcDbLine
 10
199.088058
 20
250.049035
 30
0.0
 11
191.488058
 21
250.049035
 31
0.0
  0
LINE
  5
5A7
100
AcDbEntity
  8
2
100
AcDbLine
 10
199.088058
 20
250.049035
 30
0.0
 11
199.088058
 21
249.049035
 31
0.0
  0
LINE
  5
5A8
100
AcDbEntity
  8
2
100
AcDbLine
 10
191.488058
 20
250.049035
 30
0.0
 11
191.488058
 21
249.049035
 31
0.0
  0
LINE
  5
5A9
100
AcDbEntity
  8
2
100
AcDbLine
 10
198.788058
 20
251.02806
 30
0.0
 11
198.788058
 21
250.049035
 31
0.0
  0
LINE
  5
5AA
100
AcDbEntity
  8
2
100
AcDbLine
 10
191.788058
 20
251.02806
 30
0.0
 11
191.788058
 21
250.049035
 31
0.0
  0
ARC
  5
5AB
100
AcDbEntity
  8
2
100
AcDbCircle
 10
195.288058
 20
243.649035
 30
0.0
 40
9.0
100
AcDbArc
 50
73.39845
 51
106.60155
  0
ARC
  5
5AC
100
AcDbEntity
  8
2
100
AcDbCircle
 10
197.488058
 20
251.02806
 30
0.0
 40
1.3
100
AcDbArc
 50
0.0
 51
73.39845
  0
ARC
  5
5AD
100
AcDbEntity
  8
2
100
AcDbCircle
 10
193.088058
 20
251.02806
 30
0.0
 40
1.3
100
AcDbArc
 50
106.60155
 51
180.0
  0
ARC
  5
5AE
100
AcDbEntity
  8
2
100
AcDbCircle
 10
-471.328446
 20
486.649035
 30
0.0
 40
1.0
100
AcDbArc
 50
0.0
 51
90.0
  0
ARC
  5
5AF
100
AcDbEntity
  8
2
100
AcDbCircle
 10
-758.328446
 20
486.649035
 30
0.0
 40
1.0
100
AcDbArc
 50
90.0
 51
180.0
  0
LINE
  5
5B0
100
AcDbEntity
  8
2
100
AcDbLine
 10
-494.328446
 20
489.649035
 30
0.0
 11
-494.328446
 21
502.649035
 31
0.0
  0
LINE
  5
5B1
100
AcDbEntity
  8
2
100
AcDbLine
 10
-486.328446
 20
489.649035
 30
0.0
 11
-486.328446
 21
502.649035
 31
0.0
  0
LINE
  5
5B2
100
AcDbEntity
  8
2
100
AcDbLine
 10
-621.328446
 20
499.649035
 30
0.0
 11
-621.328446
 21
489.649035
 31
0.0
  0
LINE
  5
5B3
100
AcDbEntity
  8
2
100
AcDbLine
 10
-613.328446
 20
499.649035
 30
0.0
 11
-613.328446
 21
489.649035
 31
0.0
  0
ARC
  5
5B4
100
AcDbEntity
  8
2
100
AcDbCircle
 10
-490.328446
 20
502.649035
 30
0.0
 40
4.0
100
AcDbArc
 50
0.0
 51
180.0
  0
ARC
  5
5B5
100
AcDbEntity
  8
2
100
AcDbCircle
 10
-617.328446
 20
499.649035
 30
0.0
 40
4.0
100
AcDbArc
 50
0.0
 51
180.0
  0
ARC
  5
5B6
100
AcDbEntity
  8
2
100
AcDbCircle
 10
-484.328446
 20
489.649035
 30
0.0
 40
2.0
100
AcDbArc
 50
180.0
 51
270.0
  0
ARC
  5
5B7
100
AcDbEntity
  8
2
100
AcDbCircle
 10
-496.328446
 20
489.649035
 30
0.0
 40
2.0
100
AcDbArc
 50
270.0
 51
360.0
  0
ARC
  5
5B8
100
AcDbEntity
  8
2
100
AcDbCircle
 10
-611.328446
 20
489.649035
 30
0.0
 40
2.0
100
AcDbArc
 50
180.0
 51
270.0
  0
ARC
  5
5B9
100
AcDbEntity
  8
2
100
AcDbCircle
 10
-623.328446
 20
489.649035
 30
0.0
 40
2.0
100
AcDbArc
 50
270.0
 51
360.0
  0
ARC
  5
5BA
100
AcDbEntity
  8
2
100
AcDbCircle
 10
-506.328446
 20
529.649035
 30
0.0
 40
1.0
100
AcDbArc
 50
270.0
 51
360.0
  0
ARC
  5
5BB
100
AcDbEntity
  8
2
100
AcDbCircle
 10
-506.328446
 20
527.649035
 30
0.0
 40
1.0
100
AcDbArc
 50
90.0
 51
180.0
  0
ARC
  5
5BC
100
AcDbEntity
  8
2
100
AcDbCircle
 10
-506.328446
 20
603.649035
 30
0.0
 40
1.0
100
AcDbArc
 50
0.0
 51
90.0
  0
ARC
  5
5BD
100
AcDbEntity
  8
2
100
AcDbCircle
 10
-506.328446
 20
605.649035
 30
0.0
 40
1.0
100
AcDbArc
 50
180.0
 51
270.0
  0
LINE
  5
5BE
100
AcDbEntity
  8
2
100
AcDbLine
 10
151.771554
 20
223.849035
 30
0.0
 11
191.771554
 21
223.849035
 31
0.0
  0
ARC
  5
5BF
100
AcDbEntity
  8
2
100
AcDbCircle
 10
191.771554
 20
205.849035
 30
0.0
 40
18.0
100
AcDbArc
 50
0.0
 51
90.0
  0
ARC
  5
5C0
100
AcDbEntity
  8
2
100
AcDbCircle
 10
151.771554
 20
205.849035
 30
0.0
 40
18.0
100
AcDbArc
 50
90.0
 51
180.0
  0
ARC
  5
5C1
100
AcDbEntity
  8
2
100
AcDbCircle
 10
-474.328446
 20
606.649035
 30
0.0
 40
2.0
100
AcDbArc
 50
270.0
 51
360.0
  0
ARC
  5
5C2
100
AcDbEntity
  8
2
100
AcDbCircle
 10
-474.328446
 20
526.649035
 30
0.0
 40
2.0
100
AcDbArc
 50
0.0
 51
90.0
  0
LINE
  5
5C3
100
AcDbEntity
  8
2
100
AcDbLine
 10
-546.328446
 20
637.649035
 30
0.0
 11
-546.328446
 21
626.649035
 31
0.0
  0
LINE
  5
5C4
100
AcDbEntity
  8
2
100
AcDbLine
 10
-514.328446
 20
637.649035
 30
0.0
 11
-514.328446
 21
626.649035
 31
0.0
  0
ARC
  5
5C5
100
AcDbEntity
  8
2
100
AcDbCircle
 10
-543.328446
 20
637.649035
 30
0.0
 40
3.0
100
AcDbArc
 50
90.0
 51
180.0
  0
ARC
  5
5C6
100
AcDbEntity
  8
2
100
AcDbCircle
 10
-517.328446
 20
637.649035
 30
0.0
 40
3.0
100
AcDbArc
 50
0.0
 51
90.0
  0
ARC
  5
5C7
100
AcDbEntity
  8
2
100
AcDbCircle
 10
-511.328446
 20
626.649035
 30
0.0
 40
3.0
100
AcDbArc
 50
180.0
 51
270.0
  0
ARC
  5
5C8
100
AcDbEntity
  8
2
100
AcDbCircle
 10
-549.328446
 20
626.649035
 30
0.0
 40
3.0
100
AcDbArc
 50
270.0
 51
360.0
  0
ARC
  5
5C9
100
AcDbEntity
  8
2
100
AcDbCircle
 10
-505.596396
 20
623.649035
 30
0.0
 40
1.0
100
AcDbArc
 50
210.0
 51
270.0
  0
ARC
  5
5CA
100
AcDbEntity
  8
2
100
AcDbCircle
 10
-507.328446
 20
622.649035
 30
0.0
 40
1.0
100
AcDbArc
 50
30.0
 51
90.0
  0
LINE
  5
5CB
100
AcDbEntity
  8
2
100
AcDbLine
 10
-700.992147
 20
609.649035
 30
0.0
 11
-693.769141
 21
609.649035
 31
0.0
  0
LINE
  5
5CC
100
AcDbEntity
  8
2
100
AcDbLine
 10
-707.294301
 20
628.649035
 30
0.0
 11
-707.294301
 21
639.649035
 31
0.0
  0
LINE
  5
5CD
100
AcDbEntity
  8
2
100
AcDbLine
 10
-707.294301
 20
639.649035
 30
0.0
 11
-706.294301
 21
640.649035
 31
0.0
  0
LINE
  5
5CE
100
AcDbEntity
  8
2
100
AcDbLine
 10
-702.992147
 20
611.649035
 30
0.0
 11
-702.992147
 21
622.649035
 31
0.0
  0
LINE
  5
5CF
100
AcDbEntity
  8
2
100
AcDbLine
 10
-687.362592
 20
616.649035
 30
0.0
 11
-687.362592
 21
639.649035
 31
0.0
  0
LINE
  5
5D0
100
AcDbEntity
  8
2
100
AcDbLine
 10
-756.278781
 20
488.596699
 30
0.0
 11
-754.483203
 21
522.858379
 31
0.0
  0
ARC
  5
5D1
100
AcDbEntity
  8
2
100
AcDbCircle
 10
-750.488685
 20
522.649035
 30
0.0
 40
4.0
100
AcDbArc
 50
90.0
 51
177.0
  0
ARC
  5
5D2
100
AcDbEntity
  8
2
100
AcDbCircle
 10
-757.277411
 20
488.649035
 30
0.0
 40
1.0
100
AcDbArc
 50
270.0
 51
357.0
  0
LINE
  5
5D3
100
AcDbEntity
  8
2
100
AcDbLine
 10
-473.378111
 20
488.596699
 30
0.0
 11
-474.652355
 21
512.910715
 31
0.0
  0
ARC
  5
5D4
100
AcDbEntity
  8
2
100
AcDbCircle
 10
-472.379482
 20
488.649035
 30
0.0
 40
1.0
100
AcDbArc
 50
183.0
 51
270.0
  0
ARC
  5
5D5
100
AcDbEntity
  8
2
100
AcDbCircle
 10
-479.645503
 20
512.649035
 30
0.0
 40
5.0
100
AcDbArc
 50
3.0
 51
90.0
  0
ARC
  5
5D6
100
AcDbEntity
  8
2
100
AcDbCircle
 10
-472.583488
 20
511.649035
 30
0.0
 40
2.0
100
AcDbArc
 50
90.0
 51
183.0
  0
ARC
  5
5D7
100
AcDbEntity
  8
2
100
AcDbCircle
 10
-666.870933
 20
619.649035
 30
0.0
 40
4.0
100
AcDbArc
 50
90.0
 51
180.0
  0
LINE
  5
5D8
100
AcDbEntity
  8
2
100
AcDbLine
 10
-687.362592
 20
639.649035
 30
0.0
 11
-688.362592
 21
640.649035
 31
0.0
  0
LINE
  5
5D9
100
AcDbEntity
  8
2
100
AcDbLine
 10
-739.328446
 20
626.649035
 30
0.0
 11
-706.992147
 21
626.649035
 31
0.0
  0
ARC
  5
5DA
100
AcDbEntity
  8
2
100
AcDbCircle
 10
-706.992147
 20
622.649035
 30
0.0
 40
4.0
100
AcDbArc
 50
0.0
 51
90.0
  0
LINE
  5
5DB
100
AcDbEntity
  8
2
100
AcDbLine
 10
-726.243214
 20
529.649035
 30
0.0
 11
-726.243214
 21
541.649035
 31
0.0
  0
LINE
  5
5DC
100
AcDbEntity
  8
2
100
AcDbLine
 10
-735.528446
 20
529.649035
 30
0.0
 11
-735.528446
 21
541.649035
 31
0.0
  0
LINE
  5
5DD
100
AcDbEntity
  8
2
100
AcDbLine
 10
-733.528446
 20
543.649035
 30
0.0
 11
-728.243214
 21
543.649035
 31
0.0
  0
ARC
  5
5DE
100
AcDbEntity
  8
2
100
AcDbCircle
 10
-733.528446
 20
541.649035
 30
0.0
 40
2.0
100
AcDbArc
 50
90.0
 51
180.0
  0
ARC
  5
5DF
100
AcDbEntity
  8
2
100
AcDbCircle
 10
-728.243214
 20
541.649035
 30
0.0
 40
2.0
100
AcDbArc
 50
0.0
 51
90.0
  0
ARC
  5
5E0
100
AcDbEntity
  8
2
100
AcDbCircle
 10
-723.243214
 20
529.649035
 30
0.0
 40
3.0
100
AcDbArc
 50
180.0
 51
270.0
  0
ARC
  5
5E1
100
AcDbEntity
  8
2
100
AcDbCircle
 10
-738.528446
 20
529.649035
 30
0.0
 40
3.0
100
AcDbArc
 50
270.0
 51
360.0
  0
ARC
  5
5E2
100
AcDbEntity
  8
2
100
AcDbCircle
 10
-748.328446
 20
531.649035
 30
0.0
 40
5.0
100
AcDbArc
 50
270.0
 51
360.0
  0
ARC
  5
5E3
100
AcDbEntity
  8
2
100
AcDbCircle
 10
-746.328446
 20
611.649035
 30
0.0
 40
3.0
100
AcDbArc
 50
0.0
 51
90.0
  0
LINE
  5
5E4
100
AcDbEntity
  8
2
100
AcDbLine
 10
-739.969463
 20
628.036524
 30
0.0
 11
-739.969463
 21
639.649035
 31
0.0
  0
LINE
  5
5E5
100
AcDbEntity
  8
2
100
AcDbLine
 10
-738.969463
 20
640.649035
 30
0.0
 11
-739.969463
 21
639.649035
 31
0.0
  0
LINE
  5
5E6
100
AcDbEntity
  8
2
100
AcDbLine
 10
-654.68743
 20
625.649035
 30
0.0
 11
-654.68743
 21
639.649035
 31
0.0
  0
LINE
  5
5E7
100
AcDbEntity
  8
2
100
AcDbLine
 10
-655.68743
 20
640.649035
 30
0.0
 11
-654.68743
 21
639.649035
 31
0.0
  0
LINE
  5
5E8
100
AcDbEntity
  8
2
100
AcDbLine
 10
-654.68743
 20
639.649035
 30
0.0
 11
-739.969463
 21
639.649035
 31
0.0
  0
ARC
  5
5E9
100
AcDbEntity
  8
2
100
AcDbCircle
 10
-652.68743
 20
625.649035
 30
0.0
 40
2.0
100
AcDbArc
 50
180.0
 51
270.0
  0
ARC
  5
5EA
100
AcDbEntity
  8
2
100
AcDbCircle
 10
-739.328446
 20
622.649035
 30
0.0
 40
4.0
100
AcDbArc
 50
90.0
 51
180.0
  0
ARC
  5
5EB
100
AcDbEntity
  8
2
100
AcDbCircle
 10
-741.969463
 20
628.036524
 30
0.0
 40
2.0
100
AcDbArc
 50
296.114687
 51
360.0
  0
LINE
  5
5EC
100
AcDbEntity
  8
2
100
AcDbLine
 10
-657.328446
 20
639.649035
 30
0.0
 11
-657.328446
 21
625.649035
 31
0.0
  0
LINE
  5
5ED
100
AcDbEntity
  8
2
100
AcDbLine
 10
-737.328446
 20
639.649035
 30
0.0
 11
-737.328446
 21
628.649035
 31
0.0
  0
ARC
  5
5EE
100
AcDbEntity
  8
2
100
AcDbCircle
 10
-655.328446
 20
625.649035
 30
0.0
 40
2.0
100
AcDbArc
 50
180.0
 51
270.0
  0
ARC
  5
5EF
100
AcDbEntity
  8
2
100
AcDbCircle
 10
-739.328446
 20
628.649035
 30
0.0
 40
2.0
100
AcDbArc
 50
270.0
 51
360.0
  0
LINE
  5
5F0
100
AcDbEntity
  8
2
100
AcDbLine
 10
-657.328446
 20
639.649035
 30
0.0
 11
-658.328446
 21
640.649035
 31
0.0
  0
LINE
  5
5F1
100
AcDbEntity
  8
2
100
AcDbLine
 10
-737.328446
 20
639.649035
 30
0.0
 11
-736.328446
 21
640.649035
 31
0.0
  0
LINE
  5
5F2
100
AcDbEntity
  8
2
100
AcDbLine
 10
-627.328446
 20
636.649035
 30
0.0
 11
-627.328446
 21
625.649035
 31
0.0
  0
LINE
  5
5F3
100
AcDbEntity
  8
2
100
AcDbLine
 10
-557.328446
 20
625.649035
 30
0.0
 11
-557.328446
 21
636.649035
 31
0.0
  0
ARC
  5
5F4
100
AcDbEntity
  8
2
100
AcDbCircle
 10
-555.328446
 20
625.649035
 30
0.0
 40
2.0
100
AcDbArc
 50
180.0
 51
270.0
  0
ARC
  5
5F5
100
AcDbEntity
  8
2
100
AcDbCircle
 10
-629.328446
 20
625.649035
 30
0.0
 40
2.0
100
AcDbArc
 50
270.0
 51
360.0
  0
ARC
  5
5F6
100
AcDbEntity
  8
2
100
AcDbCircle
 10
-558.328446
 20
636.649035
 30
0.0
 40
1.0
100
AcDbArc
 50
0.0
 51
90.0
  0
ARC
  5
5F7
100
AcDbEntity
  8
2
100
AcDbCircle
 10
-626.328446
 20
636.649035
 30
0.0
 40
1.0
100
AcDbArc
 50
90.0
 51
180.0
  0
LINE
  5
5F8
100
AcDbEntity
  8
2
100
AcDbLine
 10
-576.867838
 20
636.649035
 30
0.0
 11
-576.867838
 21
625.649035
 31
0.0
  0
LINE
  5
5F9
100
AcDbEntity
  8
2
100
AcDbLine
 10
-607.789054
 20
636.649035
 30
0.0
 11
-607.789054
 21
625.649035
 31
0.0
  0
ARC
  5
5FA
100
AcDbEntity
  8
2
100
AcDbCircle
 10
-578.867838
 20
625.649035
 30
0.0
 40
2.0
100
AcDbArc
 50
270.0
 51
360.0
  0
ARC
  5
5FB
100
AcDbEntity
  8
2
100
AcDbCircle
 10
-605.789054
 20
625.649035
 30
0.0
 40
2.0
100
AcDbArc
 50
180.0
 51
270.0
  0
ARC
  5
5FC
100
AcDbEntity
  8
2
100
AcDbCircle
 10
-575.867838
 20
636.649035
 30
0.0
 40
1.0
100
AcDbArc
 50
90.0
 51
180.0
  0
ARC
  5
5FD
100
AcDbEntity
  8
2
100
AcDbCircle
 10
-608.789054
 20
636.649035
 30
0.0
 40
1.0
100
AcDbArc
 50
0.0
 51
90.0
  0
LINE
  5
5FE
100
AcDbEntity
  8
2
100
AcDbLine
 10
-564.004946
 20
648.649035
 30
0.0
 11
-563.328446
 21
647.972535
 31
0.0
  0
LINE
  5
5FF
100
AcDbEntity
  8
2
100
AcDbLine
 10
-563.328446
 20
647.972535
 30
0.0
 11
-563.328446
 21
644.149035
 31
0.0
  0
LINE
  5
600
100
AcDbEntity
  8
2
 62
     2
100
AcDbLine
 10
-564.004946
 20
648.649035
 30
0.0
 11
-564.004946
 21
644.149035
 31
0.0
  0
LINE
  5
601
100
AcDbEntity
  8
2
100
AcDbLine
 10
-564.004946
 20
648.649035
 30
0.0
 11
-570.651946
 21
648.649035
 31
0.0
  0
LINE
  5
602
100
AcDbEntity
  8
2
100
AcDbLine
 10
-570.651946
 20
648.649035
 30
0.0
 11
-571.328446
 21
647.972535
 31
0.0
  0
LINE
  5
603
100
AcDbEntity
  8
2
100
AcDbLine
 10
-571.328446
 20
647.972535
 30
0.0
 11
-563.328446
 21
647.972535
 31
0.0
  0
LINE
  5
604
100
AcDbEntity
  8
2
 62
     2
100
AcDbLine
 10
-570.651946
 20
648.649035
 30
0.0
 11
-570.651946
 21
644.149035
 31
0.0
  0
LINE
  5
605
100
AcDbEntity
  8
2
100
AcDbLine
 10
-571.328446
 20
647.972535
 30
0.0
 11
-571.328446
 21
644.149035
 31
0.0
  0
LINE
  5
606
100
AcDbEntity
  8
2
100
AcDbLine
 10
-574.828446
 20
637.649035
 30
0.0
 11
-574.828446
 21
643.427347
 31
0.0
  0
LINE
  5
607
100
AcDbEntity
  8
2
100
AcDbLine
 10
-574.828446
 20
643.427347
 30
0.0
 11
-573.578446
 21
644.149035
 31
0.0
  0
LINE
  5
608
100
AcDbEntity
  8
2
100
AcDbLine
 10
-573.578446
 20
644.149035
 30
0.0
 11
-567.328446
 21
644.149035
 31
0.0
  0
LINE
  5
609
100
AcDbEntity
  8
2
100
AcDbLine
 10
-571.078446
 20
637.649035
 30
0.0
 11
-571.078446
 21
643.427347
 31
0.0
  0
ARC
  5
60A
100
AcDbEntity
  8
2
100
AcDbCircle
 10
-572.953446
 20
641.016971
 30
0.0
 40
3.053774
100
AcDbArc
 50
52.121121
 51
127.878879
  0
ARC
  5
60B
100
AcDbEntity
  8
2
100
AcDbCircle
 10
-567.328446
 20
632.820746
 30
0.0
 40
11.25
100
AcDbArc
 50
90.0
 51
109.471221
  0
LINE
  5
60C
100
AcDbEntity
  8
2
100
AcDbLine
 10
-559.828446
 20
637.649035
 30
0.0
 11
-559.828446
 21
643.427347
 31
0.0
  0
LINE
  5
60D
100
AcDbEntity
  8
2
100
AcDbLine
 10
-559.828446
 20
643.427347
 30
0.0
 11
-561.078446
 21
644.149035
 31
0.0
  0
LINE
  5
60E
100
AcDbEntity
  8
2
100
AcDbLine
 10
-561.078446
 20
644.149035
 30
0.0
 11
-567.328446
 21
644.149035
 31
0.0
  0
LINE
  5
60F
100
AcDbEntity
  8
2
100
AcDbLine
 10
-563.578446
 20
637.649035
 30
0.0
 11
-563.578446
 21
643.427347
 31
0.0
  0
ARC
  5
610
100
AcDbEntity
  8
2
100
AcDbCircle
 10
-561.703446
 20
641.016971
 30
0.0
 40
3.053774
100
AcDbArc
 50
52.121121
 51
127.878879
  0
ARC
  5
611
100
AcDbEntity
  8
2
100
AcDbCircle
 10
-567.328446
 20
632.820746
 30
0.0
 40
11.25
100
AcDbArc
 50
70.528779
 51
90.0
  0
LINE
  5
612
100
AcDbEntity
  8
2
100
AcDbLine
 10
-614.004946
 20
648.649035
 30
0.0
 11
-613.328446
 21
647.972535
 31
0.0
  0
LINE
  5
613
100
AcDbEntity
  8
2
100
AcDbLine
 10
-613.328446
 20
647.972535
 30
0.0
 11
-613.328446
 21
644.149035
 31
0.0
  0
LINE
  5
614
100
AcDbEntity
  8
2
 62
     2
100
AcDbLine
 10
-614.004946
 20
648.649035
 30
0.0
 11
-614.004946
 21
644.149035
 31
0.0
  0
LINE
  5
615
100
AcDbEntity
  8
2
100
AcDbLine
 10
-614.004946
 20
648.649035
 30
0.0
 11
-620.651946
 21
648.649035
 31
0.0
  0
LINE
  5
616
100
AcDbEntity
  8
2
100
AcDbLine
 10
-620.651946
 20
648.649035
 30
0.0
 11
-621.328446
 21
647.972535
 31
0.0
  0
LINE
  5
617
100
AcDbEntity
  8
2
100
AcDbLine
 10
-621.328446
 20
647.972535
 30
0.0
 11
-613.328446
 21
647.972535
 31
0.0
  0
LINE
  5
618
100
AcDbEntity
  8
2
 62
     2
100
AcDbLine
 10
-620.651946
 20
648.649035
 30
0.0
 11
-620.651946
 21
644.149035
 31
0.0
  0
LINE
  5
619
100
AcDbEntity
  8
2
100
AcDbLine
 10
-621.328446
 20
647.972535
 30
0.0
 11
-621.328446
 21
644.149035
 31
0.0
  0
LINE
  5
61A
100
AcDbEntity
  8
2
100
AcDbLine
 10
-624.828446
 20
637.649035
 30
0.0
 11
-624.828446
 21
643.427347
 31
0.0
  0
LINE
  5
61B
100
AcDbEntity
  8
2
100
AcDbLine
 10
-624.828446
 20
643.427347
 30
0.0
 11
-623.578446
 21
644.149035
 31
0.0
  0
LINE
  5
61C
100
AcDbEntity
  8
2
100
AcDbLine
 10
-623.578446
 20
644.149035
 30
0.0
 11
-617.328446
 21
644.149035
 31
0.0
  0
LINE
  5
61D
100
AcDbEntity
  8
2
100
AcDbLine
 10
-621.078446
 20
637.649035
 30
0.0
 11
-621.078446
 21
643.427347
 31
0.0
  0
ARC
  5
61E
100
AcDbEntity
  8
2
100
AcDbCircle
 10
-622.953446
 20
641.016971
 30
0.0
 40
3.053774
100
AcDbArc
 50
52.121121
 51
127.878879
  0
ARC
  5
61F
100
AcDbEntity
  8
2
100
AcDbCircle
 10
-617.328446
 20
632.820746
 30
0.0
 40
11.25
100
AcDbArc
 50
90.0
 51
109.471221
  0
LINE
  5
620
100
AcDbEntity
  8
2
100
AcDbLine
 10
-609.828446
 20
637.649035
 30
0.0
 11
-609.828446
 21
643.427347
 31
0.0
  0
LINE
  5
621
100
AcDbEntity
  8
2
100
AcDbLine
 10
-609.828446
 20
643.427347
 30
0.0
 11
-611.078446
 21
644.149035
 31
0.0
  0
LINE
  5
622
100
AcDbEntity
  8
2
100
AcDbLine
 10
-611.078446
 20
644.149035
 30
0.0
 11
-617.328446
 21
644.149035
 31
0.0
  0
LINE
  5
623
100
AcDbEntity
  8
2
100
AcDbLine
 10
-613.578446
 20
637.649035
 30
0.0
 11
-613.578446
 21
643.427347
 31
0.0
  0
ARC
  5
624
100
AcDbEntity
  8
2
100
AcDbCircle
 10
-611.703446
 20
641.016971
 30
0.0
 40
3.053774
100
AcDbArc
 50
52.121121
 51
127.878879
  0
ARC
  5
625
100
AcDbEntity
  8
2
100
AcDbCircle
 10
-617.328446
 20
632.820746
 30
0.0
 40
11.25
100
AcDbArc
 50
70.528779
 51
90.0
  0
ARC
  5
626
100
AcDbEntity
  8
2
100
AcDbCircle
 10
-641.328446
 20
622.649035
 30
0.0
 40
8.0
100
AcDbArc
 50
17.457603
 51
162.542397
  0
ARC
  5
627
100
AcDbEntity
  8
2
100
AcDbCircle
 10
-631.789054
 20
625.649035
 30
0.0
 40
2.0
100
AcDbArc
 50
197.457603
 51
270.0
  0
ARC
  5
628
100
AcDbEntity
  8
2
100
AcDbCircle
 10
-650.867838
 20
625.649035
 30
0.0
 40
2.0
100
AcDbArc
 50
270.0
 51
342.542397
  0
LINE
  5
629
100
AcDbEntity
  8
2
100
AcDbLine
 10
-758.328446
 20
499.149035
 30
0.0
 11
-758.328446
 21
488.381086
 31
0.0
  0
ARC
  5
62A
100
AcDbEntity
  8
2
100
AcDbCircle
 10
-759.328446
 20
488.381086
 30
0.0
 40
1.0
100
AcDbArc
 50
300.0
 51
360.0
  0
ARC
  5
62B
100
AcDbEntity
  8
2
100
AcDbCircle
 10
-754.328446
 20
499.149035
 30
0.0
 40
4.0
100
AcDbArc
 50
107.416924
 51
180.0
  0
ARC
  5
62C
100
AcDbEntity
  8
2
100
AcDbCircle
 10
-671.627598
 20
522.649035
 30
0.0
 40
6.0
100
AcDbArc
 50
180.0
 51
270.0
  0
LINE
  5
62D
100
AcDbEntity
  8
2
100
AcDbLine
 10
-680.500064
 20
526.48683
 30
0.0
 11
-680.500064
 21
608.649035
 31
0.0
  0
ARC
  5
62E
100
AcDbEntity
  8
2
100
AcDbCircle
 10
-700.992147
 20
611.649035
 30
0.0
 40
2.0
100
AcDbArc
 50
180.0
 51
270.0
  0
ARC
  5
62F
100
AcDbEntity
  8
2
100
AcDbCircle
 10
-693.769141
 20
611.649035
 30
0.0
 40
2.0
100
AcDbArc
 50
270.0
 51
350.405932
  0
ARC
  5
630
100
AcDbEntity
  8
2
100
AcDbCircle
 10
-709.294301
 20
628.649035
 30
0.0
 40
2.0
100
AcDbArc
 50
270.0
 51
360.0
  0
LINE
  5
631
100
AcDbEntity
  8
2
100
AcDbLine
 10
-467.328446
 20
625.649035
 30
0.0
 11
-454.805512
 21
624.55342
 31
0.0
  0
LINE
  5
632
100
AcDbEntity
  8
2
100
AcDbLine
 10
-467.328446
 20
513.649035
 30
0.0
 11
-454.805512
 21
514.74465
 31
0.0
  0
LINE
  5
633
100
AcDbEntity
  8
2
100
AcDbLine
 10
-449.328446
 20
520.721818
 30
0.0
 11
-449.328446
 21
618.576252
 31
0.0
  0
ARC
  5
634
100
AcDbEntity
  8
2
100
AcDbCircle
 10
-455.328446
 20
618.576252
 30
0.0
 40
6.0
100
AcDbArc
 50
0.0
 51
85.0
  0
ARC
  5
635
100
AcDbEntity
  8
2
100
AcDbCircle
 10
-455.328446
 20
520.721818
 30
0.0
 40
6.0
100
AcDbArc
 50
275.0
 51
360.0
  0
LINE
  5
636
100
AcDbEntity
  8
2
100
AcDbLine
 10
-452.328446
 20
612.149035
 30
0.0
 11
-461.828446
 21
612.149035
 31
0.0
  0
LINE
  5
637
100
AcDbEntity
  8
2
100
AcDbLine
 10
-461.828446
 20
527.149035
 30
0.0
 11
-452.328446
 21
527.149035
 31
0.0
  0
LINE
  5
638
100
AcDbEntity
  8
2
100
AcDbLine
 10
-462.328446
 20
514.544644
 30
0.0
 11
-462.328446
 21
526.649035
 31
0.0
  0
LINE
  5
639
100
AcDbEntity
  8
2
100
AcDbLine
 10
-462.328446
 20
612.649035
 30
0.0
 11
-462.328446
 21
624.753426
 31
0.0
  0
ARC
  5
63A
100
AcDbEntity
  8
2
100
AcDbCircle
 10
-452.328446
 20
609.149035
 30
0.0
 40
3.0
100
AcDbArc
 50
0.0
 51
90.0
  0
ARC
  5
63B
100
AcDbEntity
  8
2
100
AcDbCircle
 10
-452.328446
 20
530.149035
 30
0.0
 40
3.0
100
AcDbArc
 50
270.0
 51
360.0
  0
ARC
  5
63C
100
AcDbEntity
  8
2
100
AcDbCircle
 10
-462.828446
 20
624.753426
 30
0.0
 40
0.5
100
AcDbArc
 50
0.0
 51
85.0
  0
ARC
  5
63D
100
AcDbEntity
  8
2
100
AcDbCircle
 10
-462.828446
 20
514.544644
 30
0.0
 40
0.5
100
AcDbArc
 50
275.0
 51
360.0
  0
ARC
  5
63E
100
AcDbEntity
  8
2
100
AcDbCircle
 10
-461.828446
 20
612.649035
 30
0.0
 40
0.5
100
AcDbArc
 50
180.0
 51
270.0
  0
ARC
  5
63F
100
AcDbEntity
  8
2
100
AcDbCircle
 10
-461.828446
 20
526.649035
 30
0.0
 40
0.5
100
AcDbArc
 50
90.0
 51
180.0
  0
LINE
  5
640
100
AcDbEntity
  8
2
100
AcDbLine
 10
-754.789005
 20
113.849035
 30
0.0
 11
-756.328446
 21
113.849035
 31
0.0
  0
ARC
  5
641
100
AcDbEntity
  8
2
100
AcDbCircle
 10
-756.328446
 20
111.849035
 30
0.0
 40
2.0
100
AcDbArc
 50
90.0
 51
180.0
  0
LINE
  5
642
100
AcDbEntity
  8
2
100
AcDbLine
 10
-467.328446
 20
183.849035
 30
0.0
 11
-454.805512
 21
182.75342
 31
0.0
  0
LINE
  5
643
100
AcDbEntity
  8
2
100
AcDbLine
 10
-467.328446
 20
95.849035
 30
0.0
 11
-454.805512
 21
96.94465
 31
0.0
  0
LINE
  5
644
100
AcDbEntity
  8
2
100
AcDbLine
 10
-449.328446
 20
176.776252
 30
0.0
 11
-449.328446
 21
102.921818
 31
0.0
  0
ARC
  5
645
100
AcDbEntity
  8
2
100
AcDbCircle
 10
-455.328446
 20
176.776252
 30
0.0
 40
6.0
100
AcDbArc
 50
0.0
 51
85.0
  0
ARC
  5
646
100
AcDbEntity
  8
2
100
AcDbCircle
 10
-455.328446
 20
102.921818
 30
0.0
 40
6.0
100
AcDbArc
 50
275.0
 51
360.0
  0
LINE
  5
647
100
AcDbEntity
  8
2
100
AcDbLine
 10
-461.828446
 20
170.349035
 30
0.0
 11
-452.328446
 21
170.349035
 31
0.0
  0
LINE
  5
648
100
AcDbEntity
  8
2
100
AcDbLine
 10
-452.328446
 20
109.349035
 30
0.0
 11
-461.828446
 21
109.349035
 31
0.0
  0
LINE
  5
649
100
AcDbEntity
  8
2
100
AcDbLine
 10
-462.328446
 20
96.744644
 30
0.0
 11
-462.328446
 21
108.849035
 31
0.0
  0
LINE
  5
64A
100
AcDbEntity
  8
2
100
AcDbLine
 10
-462.328446
 20
170.849035
 30
0.0
 11
-462.328446
 21
182.953426
 31
0.0
  0
ARC
  5
64B
100
AcDbEntity
  8
2
100
AcDbCircle
 10
-452.328446
 20
167.349035
 30
0.0
 40
3.0
100
AcDbArc
 50
0.0
 51
90.0
  0
ARC
  5
64C
100
AcDbEntity
  8
2
100
AcDbCircle
 10
-452.328446
 20
112.349035
 30
0.0
 40
3.0
100
AcDbArc
 50
270.0
 51
360.0
  0
ARC
  5
64D
100
AcDbEntity
  8
2
100
AcDbCircle
 10
-462.828446
 20
182.953426
 30
0.0
 40
0.5
100
AcDbArc
 50
0.0
 51
85.0
  0
ARC
  5
64E
100
AcDbEntity
  8
2
100
AcDbCircle
 10
-462.828446
 20
96.744644
 30
0.0
 40
0.5
100
AcDbArc
 50
275.0
 51
360.0
  0
ARC
  5
64F
100
AcDbEntity
  8
2
100
AcDbCircle
 10
-461.828446
 20
170.849035
 30
0.0
 40
0.5
100
AcDbArc
 50
180.0
 51
270.0
  0
ARC
  5
650
100
AcDbEntity
  8
2
100
AcDbCircle
 10
-461.828446
 20
108.849035
 30
0.0
 40
0.5
100
AcDbArc
 50
90.0
 51
180.0
  0
LINE
  5
651
100
AcDbEntity
  8
2
100
AcDbLine
 10
-758.078446
 20
472.649035
 30
0.0
 11
-470.328446
 21
472.649035
 31
0.0
  0
LINE
  5
652
100
AcDbEntity
  8
2
100
AcDbLine
 10
-723.441695
 20
454.649035
 30
0.0
 11
-478.988167
 21
454.649035
 31
0.0
  0
LINE
  5
653
100
AcDbEntity
  8
2
100
AcDbLine
 10
-470.328446
 20
472.649035
 30
0.0
 11
-474.158538
 21
458.35494
 31
0.0
  0
ARC
  5
654
100
AcDbEntity
  8
2
100
AcDbCircle
 10
-478.988167
 20
459.649035
 30
0.0
 40
5.0
100
AcDbArc
 50
270.0
 51
345.0
  0
LINE
  5
655
100
AcDbEntity
  8
2
100
AcDbLine
 10
-727.771822
 20
457.149035
 30
0.0
 11
-735.854726
 21
471.149035
 31
0.0
  0
ARC
  5
656
100
AcDbEntity
  8
2
100
AcDbCircle
 10
-757.328446
 20
474.649035
 30
0.0
 40
2.0
100
AcDbArc
 50
180.0
 51
270.0
  0
ARC
  5
657
100
AcDbEntity
  8
2
100
AcDbCircle
 10
-529.452977
 20
158.794073
 30
0.0
 40
53.0
100
AcDbArc
 50
82.815375
 51
97.894178
  0
ARC
  5
658
100
AcDbEntity
  8
2
100
AcDbCircle
 10
-686.328446
 20
140.029035
 30
0.0
 40
40.0
100
AcDbArc
 50
99.899988
 51
268.765968
  0
ARC
  5
659
100
AcDbEntity
  8
2
100
AcDbCircle
 10
-530.328446
 20
151.849035
 30
0.0
 40
55.176915
100
AcDbArc
 50
268.765968
 51
99.899988
  0
ARC
  5
65A
100
AcDbEntity
  8
2
100
AcDbCircle
 10
-691.540751
 20
140.029035
 30
0.0
 40
45.18
100
AcDbArc
 50
180.0
 51
270.0
  0
ARC
  5
65B
100
AcDbEntity
  8
2
100
AcDbCircle
 10
-686.735311
 20
140.029035
 30
0.0
 40
49.98544
100
AcDbArc
 50
97.894178
 51
180.0
  0
ARC
  5
65C
100
AcDbEntity
  8
2
100
AcDbCircle
 10
-617.328446
 20
198.779035
 30
0.0
 40
6.5
100
AcDbArc
 50
198.050649
 51
357.737707
  0
LINE
  5
65D
100
AcDbEntity
  8
2
100
AcDbLine
 10
-693.600506
 20
189.540785
 30
0.0
 11
-626.772916
 21
198.806958
 31
0.0
  0
LINE
  5
65E
100
AcDbEntity
  8
2
100
AcDbLine
 10
-608.247882
 20
201.375601
 30
0.0
 11
-536.732204
 21
211.291815
 31
0.0
  0
ARC
  5
65F
100
AcDbEntity
  8
2
100
AcDbCircle
 10
-607.835851
 20
198.40403
 30
0.0
 40
3.0
100
AcDbArc
 50
97.894178
 51
177.737707
  0
ARC
  5
660
100
AcDbEntity
  8
2
100
AcDbCircle
 10
-626.360885
 20
195.835388
 30
0.0
 40
3.0
100
AcDbArc
 50
18.050649
 51
97.894178
  0
LINE
  5
661
100
AcDbEntity
  8
2
100
AcDbLine
 10
-610.828446
 20
101.849035
 30
0.0
 11
-610.828446
 21
97.849035
 31
0.0
  0
LINE
  5
662
100
AcDbEntity
  8
2
100
AcDbLine
 10
-623.828446
 20
101.849035
 30
0.0
 11
-623.828446
 21
97.849035
 31
0.0
  0
LINE
  5
663
100
AcDbEntity
  8
2
100
AcDbLine
 10
-687.189897
 20
100.038313
 30
0.0
 11
-627.521629
 21
98.752983
 31
0.0
  0
LINE
  5
664
100
AcDbEntity
  8
2
100
AcDbLine
 10
-607.264481
 20
98.316619
 30
0.0
 11
-531.516751
 21
96.684918
 31
0.0
  0
ARC
  5
665
100
AcDbEntity
  8
2
100
AcDbCircle
 10
-617.328446
 20
101.849035
 30
0.0
 40
6.5
100
AcDbArc
 50
0.0
 51
180.0
  0
ARC
  5
666
100
AcDbEntity
  8
2
100
AcDbCircle
 10
-626.828446
 20
97.849035
 30
0.0
 40
3.0
100
AcDbArc
 50
270.0
 51
360.0
  0
ARC
  5
667
100
AcDbEntity
  8
2
100
AcDbCircle
 10
-607.828446
 20
97.849035
 30
0.0
 40
3.0
100
AcDbArc
 50
180.0
 51
270.0
  0
LINE
  5
668
100
AcDbEntity
  8
2
100
AcDbLine
 10
-693.205602
 20
179.43341
 30
0.0
 11
-618.728809
 21
192.431675
 31
0.0
  0
LINE
  5
669
100
AcDbEntity
  8
2
100
AcDbLine
 10
-613.860783
 20
193.28128
 30
0.0
 11
-539.814952
 21
206.20433
 31
0.0
  0
ARC
  5
66A
100
AcDbEntity
  8
2
100
AcDbCircle
 10
-530.328446
 20
151.849035
 30
0.0
 40
60.0
100
AcDbArc
 50
0.0
 51
46.799266
  0
ARC
  5
66B
100
AcDbEntity
  8
2
100
AcDbCircle
 10
-530.328446
 20
151.849035
 30
0.0
 40
60.0
100
AcDbArc
 50
56.98558
 51
82.815375
  0
ARC
  5
66C
100
AcDbEntity
  8
2
100
AcDbCircle
 10
-490.328446
 20
202.849035
 30
0.0
 40
6.5
100
AcDbArc
 50
199.707605
 51
264.077241
  0
ARC
  5
66D
100
AcDbEntity
  8
2
100
AcDbCircle
 10
-491.308729
 20
193.399747
 30
0.0
 40
3.0
100
AcDbArc
 50
46.799266
 51
84.077241
  0
ARC
  5
66E
100
AcDbEntity
  8
2
100
AcDbCircle
 10
-499.271991
 20
199.645443
 30
0.0
 40
3.0
100
AcDbArc
 50
19.707605
 51
56.98558
  0
ARC
  5
66F
100
AcDbEntity
  8
2
100
AcDbCircle
 10
-527.328446
 20
151.849035
 30
0.0
 40
57.0
100
AcDbArc
 50
270.0
 51
304.899005
  0
ARC
  5
670
100
AcDbEntity
  8
2
100
AcDbCircle
 10
-527.328446
 20
151.849035
 30
0.0
 40
57.0
100
AcDbArc
 50
315.900804
 51
360.0
  0
ARC
  5
671
100
AcDbEntity
  8
2
100
AcDbCircle
 10
-487.328446
 20
104.849035
 30
0.0
 40
6.5
100
AcDbArc
 50
97.382331
 51
163.417478
  0
ARC
  5
672
100
AcDbEntity
  8
2
100
AcDbCircle
 10
-488.549099
 20
114.270288
 30
0.0
 40
3.0
100
AcDbArc
 50
277.382331
 51
315.900804
  0
ARC
  5
673
100
AcDbEntity
  8
2
100
AcDbCircle
 10
-496.433338
 20
107.560297
 30
0.0
 40
3.0
100
AcDbArc
 50
304.899005
 51
343.417478
  0
ARC
  5
674
100
AcDbEntity
  8
2
100
AcDbCircle
 10
-530.328446
 20
151.849035
 30
0.0
 40
22.2
100
AcDbArc
 50
20.571635
 51
163.0
  0
ARC
  5
675
100
AcDbEntity
  8
2
100
AcDbCircle
 10
-526.428446
 20
151.849035
 30
0.0
 40
18.2
100
AcDbArc
 50
25.014065
 51
166.591995
  0
LINE
  5
676
100
AcDbEntity
  8
2
100
AcDbLine
 10
-512.218401
 20
158.933044
 30
0.0
 11
-509.935533
 21
159.544736
 31
0.0
  0
LINE
  5
677
100
AcDbEntity
  8
2
100
AcDbLine
 10
-509.54406
 20
159.649631
 30
0.0
 11
-506.933849
 21
160.349035
 31
0.0
  0
LINE
  5
678
100
AcDbEntity
  8
2
100
AcDbLine
 10
-508.128446
 20
151.849035
 30
0.0
 11
-512.218401
 21
158.933044
 31
0.0
  0
LINE
  5
679
100
AcDbEntity
  8
2
100
AcDbLine
 10
-508.128446
 20
151.849035
 30
0.0
 11
-506.933849
 21
160.349035
 31
0.0
  0
LINE
  5
67A
100
AcDbEntity
  8
2
100
AcDbLine
 10
-544.132378
 20
156.069321
 30
0.0
 11
-551.558412
 21
158.339687
 31
0.0
  0
LINE
  5
67B
100
AcDbEntity
  8
2
100
AcDbLine
 10
-690.828446
 20
159.349035
 30
0.0
 11
-690.828446
 21
141.849035
 31
0.0
  0
LINE
  5
67C
100
AcDbEntity
  8
2
100
AcDbLine
 10
-679.16178
 20
124.349035
 30
0.0
 11
-667.495113
 21
124.349035
 31
0.0
  0
LINE
  5
67D
100
AcDbEntity
  8
2
100
AcDbLine
 10
-690.828446
 20
159.349035
 30
0.0
 11
-655.828446
 21
159.349035
 31
0.0
  0
LINE
  5
67E
100
AcDbEntity
  8
2
100
AcDbLine
 10
-690.828446
 20
141.849035
 30
0.0
 11
-655.828446
 21
159.349035
 31
0.0
  0
LINE
  5
67F
100
AcDbEntity
  8
2
100
AcDbLine
 10
-679.16178
 20
147.682369
 30
0.0
 11
-679.16178
 21
124.349035
 31
0.0
  0
LINE
  5
680
100
AcDbEntity
  8
2
100
AcDbLine
 10
-667.495113
 20
147.682369
 30
0.0
 11
-667.495113
 21
124.349035
 31
0.0
  0
LINE
  5
681
100
AcDbEntity
  8
2
100
AcDbLine
 10
-690.828446
 20
147.682369
 30
0.0
 11
-667.495113
 21
147.682369
 31
0.0
  0
LINE
  5
682
100
AcDbEntity
  8
2
100
AcDbLine
 10
-667.495113
 20
153.515702
 30
0.0
 11
-690.828446
 21
153.515702
 31
0.0
  0
LINE
  5
683
100
AcDbEntity
  8
2
100
AcDbLine
 10
-667.495113
 20
153.515702
 30
0.0
 11
-667.495113
 21
159.349035
 31
0.0
  0
LINE
  5
684
100
AcDbEntity
  8
2
100
AcDbLine
 10
-679.16178
 20
147.682369
 30
0.0
 11
-679.16178
 21
159.349035
 31
0.0
  0
LINE
  5
685
100
AcDbEntity
  8
2
100
AcDbLine
 10
-667.495113
 20
159.349035
 30
0.0
 11
-690.828446
 21
147.682369
 31
0.0
  0
LINE
  5
686
100
AcDbEntity
  8
2
100
AcDbLine
 10
-679.16178
 20
159.349035
 30
0.0
 11
-690.828446
 21
153.515702
 31
0.0
  0
LINE
  5
687
100
AcDbEntity
  8
2
100
AcDbLine
 10
-667.328446
 20
225.849035
 30
0.0
 11
-507.328446
 21
225.849035
 31
0.0
  0
LINE
  5
688
100
AcDbEntity
  8
2
100
AcDbLine
 10
-467.328446
 20
183.849035
 30
0.0
 11
-467.328446
 21
95.849035
 31
0.0
  0
LINE
  5
689
100
AcDbEntity
  8
2
100
AcDbLine
 10
-548.491811
 20
448.649035
 30
0.0
 11
-512.165081
 21
448.649035
 31
0.0
  0
LINE
  5
68A
100
AcDbEntity
  8
2
100
AcDbLine
 10
-542.793792
 20
436.649035
 30
0.0
 11
-517.8631
 21
436.649035
 31
0.0
  0
LINE
  5
68B
100
AcDbEntity
  8
2
100
AcDbLine
 10
-515.931249
 20
438.131397
 30
0.0
 11
-513.503501
 21
447.191873
 31
0.0
  0
LINE
  5
68C
100
AcDbEntity
  8
2
100
AcDbLine
 10
-507.335452
 20
452.35494
 30
0.0
 11
-507.117949
 21
453.166673
 31
0.0
  0
LINE
  5
68D
100
AcDbEntity
  8
2
100
AcDbLine
 10
-544.725644
 20
438.131397
 30
0.0
 11
-547.153391
 21
447.191873
 31
0.0
  0
LINE
  5
68E
100
AcDbEntity
  8
2
100
AcDbLine
 10
-553.321441
 20
452.35494
 30
0.0
 11
-553.538944
 21
453.166673
 31
0.0
  0
ARC
  5
68F
100
AcDbEntity
  8
2
100
AcDbCircle
 10
-512.165081
 20
453.649035
 30
0.0
 40
5.0
100
AcDbArc
 50
270.0
 51
345.0
  0
ARC
  5
690
100
AcDbEntity
  8
2
100
AcDbCircle
 10
-548.491811
 20
453.649035
 30
0.0
 40
5.0
100
AcDbArc
 50
195.0
 51
270.0
  0
ARC
  5
691
100
AcDbEntity
  8
2
100
AcDbCircle
 10
-517.8631
 20
438.649035
 30
0.0
 40
2.0
100
AcDbArc
 50
270.0
 51
345.0
  0
ARC
  5
692
100
AcDbEntity
  8
2
100
AcDbCircle
 10
-542.793792
 20
438.649035
 30
0.0
 40
2.0
100
AcDbArc
 50
195.0
 51
270.0
  0
ARC
  5
693
100
AcDbEntity
  8
2
100
AcDbCircle
 10
-511.57165
 20
446.674235
 30
0.0
 40
2.0
100
AcDbArc
 50
94.86314
 51
165.0
  0
ARC
  5
694
100
AcDbEntity
  8
2
100
AcDbCircle
 10
-505.186097
 20
452.649035
 30
0.0
 40
2.0
100
AcDbArc
 50
90.0
 51
165.0
  0
ARC
  5
695
100
AcDbEntity
  8
2
100
AcDbCircle
 10
-555.470795
 20
452.649035
 30
0.0
 40
2.0
100
AcDbArc
 50
15.0
 51
90.0
  0
ARC
  5
696
100
AcDbEntity
  8
2
100
AcDbCircle
 10
-549.085243
 20
446.674235
 30
0.0
 40
2.0
100
AcDbArc
 50
15.0
 51
85.13686
  0
ARC
  5
697
100
AcDbEntity
  8
2
100
AcDbCircle
 10
211.771554
 20
185.849035
 30
0.0
 40
2.0
100
AcDbArc
 50
180.0
 51
270.0
  0
ARC
  5
698
100
AcDbEntity
  8
2
100
AcDbCircle
 10
131.771554
 20
185.849035
 30
0.0
 40
2.0
100
AcDbArc
 50
270.0
 51
360.0
  0
ARC
  5
699
100
AcDbEntity
  8
2
100
AcDbCircle
 10
125.771554
 20
176.849035
 30
0.0
 40
7.0
100
AcDbArc
 50
90.0
 51
180.0
  0
ARC
  5
69A
100
AcDbEntity
  8
2
100
AcDbCircle
 10
223.771554
 20
176.849035
 30
0.0
 40
7.0
100
AcDbArc
 50
0.0
 51
90.0
  0
ARC
  5
69B
100
AcDbEntity
  8
2
100
AcDbCircle
 10
223.771554
 20
102.849035
 30
0.0
 40
7.0
100
AcDbArc
 50
270.0
 51
360.0
  0
ARC
  5
69C
100
AcDbEntity
  8
2
100
AcDbCircle
 10
125.771554
 20
102.849035
 30
0.0
 40
7.0
100
AcDbArc
 50
180.0
 51
270.0
  0
LINE
  5
69D
100
AcDbEntity
  8
2
100
AcDbLine
 10
204.771554
 20
144.349035
 30
0.0
 11
204.771554
 21
135.349035
 31
0.0
  0
LINE
  5
69E
100
AcDbEntity
  8
2
100
AcDbLine
 10
144.771554
 20
144.349035
 30
0.0
 11
144.771554
 21
135.349035
 31
0.0
  0
ARC
  5
69F
100
AcDbEntity
  8
2
100
AcDbCircle
 10
203.271554
 20
144.349035
 30
0.0
 40
1.5
100
AcDbArc
 50
0.0
 51
90.0
  0
ARC
  5
6A0
100
AcDbEntity
  8
2
100
AcDbCircle
 10
146.271554
 20
144.349035
 30
0.0
 40
1.5
100
AcDbArc
 50
90.0
 51
180.0
  0
ARC
  5
6A1
100
AcDbEntity
  8
2
100
AcDbCircle
 10
146.271554
 20
135.349035
 30
0.0
 40
1.5
100
AcDbArc
 50
180.0
 51
270.0
  0
ARC
  5
6A2
100
AcDbEntity
  8
2
100
AcDbCircle
 10
203.271554
 20
135.349035
 30
0.0
 40
1.5
100
AcDbArc
 50
270.0
 51
360.0
  0
LINE
  5
6A3
100
AcDbEntity
  8
2
100
AcDbLine
 10
121.771554
 20
225.849035
 30
0.0
 11
121.771554
 21
211.391925
 31
0.0
  0
LINE
  5
6A4
100
AcDbEntity
  8
2
100
AcDbLine
 10
219.771554
 20
219.849035
 30
0.0
 11
219.771554
 21
183.849035
 31
0.0
  0
ARC
  5
6A5
100
AcDbEntity
  8
2
100
AcDbCircle
 10
220.771554
 20
221.849035
 30
0.0
 40
1.0
100
AcDbArc
 50
270.0
 51
360.0
  0
ARC
  5
6A6
100
AcDbEntity
  8
2
100
AcDbCircle
 10
220.771554
 20
219.849035
 30
0.0
 40
1.0
100
AcDbArc
 50
90.0
 51
180.0
  0
LINE
  5
6A7
100
AcDbEntity
  8
2
100
AcDbLine
 10
-687.853061
 20
614.649035
 30
0.0
 11
-665.800582
 21
614.649035
 31
0.0
  0
ARC
  5
6A8
100
AcDbEntity
  8
2
100
AcDbCircle
 10
-674.500064
 20
608.649035
 30
0.0
 40
6.0
100
AcDbArc
 50
90.0
 51
180.0
  0
ARC
  5
6A9
100
AcDbEntity
  8
2
100
AcDbCircle
 10
-687.853061
 20
610.649035
 30
0.0
 40
4.0
100
AcDbArc
 50
90.0
 51
170.405932
  0
ARC
  5
6AA
100
AcDbEntity
  8
2
100
AcDbCircle
 10
-685.362592
 20
616.649035
 30
0.0
 40
2.0
100
AcDbArc
 50
180.0
 51
270.0
  0
LINE
  5
6AB
100
AcDbEntity
  8
2
100
AcDbLine
 10
-670.870933
 20
619.649035
 30
0.0
 11
-670.870933
 21
617.649035
 31
0.0
  0
ARC
  5
6AC
100
AcDbEntity
  8
2
100
AcDbCircle
 10
-673.870933
 20
617.649035
 30
0.0
 40
3.0
100
AcDbArc
 50
270.0
 51
360.0
  0
LINE
  5
6AD
100
AcDbEntity
  8
2
100
AcDbLine
 10
209.771554
 20
205.849035
 30
0.0
 11
209.771554
 21
185.849035
 31
0.0
  0
LINE
  5
6AE
100
AcDbEntity
  8
2
100
AcDbLine
 10
133.771554
 20
205.849035
 30
0.0
 11
133.771554
 21
185.849035
 31
0.0
  0
LINE
  5
6AF
100
AcDbEntity
  8
2
100
AcDbLine
 10
125.771554
 20
183.849035
 30
0.0
 11
223.771554
 21
183.849035
 31
0.0
  0
LINE
  5
6B0
100
AcDbEntity
  8
2
100
AcDbLine
 10
118.771554
 20
102.849035
 30
0.0
 11
118.771554
 21
176.849035
 31
0.0
  0
LINE
  5
6B1
100
AcDbEntity
  8
2
100
AcDbLine
 10
223.771554
 20
95.849035
 30
0.0
 11
125.771554
 21
95.849035
 31
0.0
  0
LINE
  5
6B2
100
AcDbEntity
  8
2
100
AcDbLine
 10
230.771554
 20
176.849035
 30
0.0
 11
230.771554
 21
102.849035
 31
0.0
  0
LINE
  5
6B3
100
AcDbEntity
  8
2
100
AcDbLine
 10
221.771554
 20
225.849035
 30
0.0
 11
121.771554
 21
225.849035
 31
0.0
  0
LINE
  5
6B4
100
AcDbEntity
  8
2
100
AcDbLine
 10
221.771554
 20
225.849035
 30
0.0
 11
221.771554
 21
221.849035
 31
0.0
  0
LINE
  5
6B5
100
AcDbEntity
  8
2
100
AcDbLine
 10
203.271554
 20
145.849035
 30
0.0
 11
146.271554
 21
145.849035
 31
0.0
  0
LINE
  5
6B6
100
AcDbEntity
  8
2
100
AcDbLine
 10
146.271554
 20
133.849035
 30
0.0
 11
203.271554
 21
133.849035
 31
0.0
  0
LINE
  5
6B7
100
AcDbEntity
  8
2
100
AcDbLine
 10
122.771554
 20
203.433354
 30
0.0
 11
122.771554
 21
186.849035
 31
0.0
  0
LINE
  5
6B8
100
AcDbEntity
  8
2
100
AcDbLine
 10
78.771554
 20
213.75041
 30
0.0
 11
91.771554
 21
213.75041
 31
0.0
  0
ARC
  5
6B9
100
AcDbEntity
  8
2
100
AcDbCircle
 10
91.771554
 20
212.75041
 30
0.0
 40
1.0
100
AcDbArc
 50
0.0
 51
90.0
  0
LINE
  5
6BA
100
AcDbEntity
  8
2
100
AcDbLine
 10
93.719218
 20
209.700745
 30
0.0
 11
118.033233
 21
208.426502
 31
0.0
  0
ARC
  5
6BB
100
AcDbEntity
  8
2
100
AcDbCircle
 10
93.771554
 20
210.699375
 30
0.0
 40
1.0
100
AcDbArc
 50
180.0
 51
267.0
  0
ARC
  5
6BC
100
AcDbEntity
  8
2
100
AcDbCircle
 10
117.771554
 20
203.433354
 30
0.0
 40
5.0
100
AcDbArc
 50
360.0
 51
87.0
  0
ARC
  5
6BD
100
AcDbEntity
  8
2
100
AcDbCircle
 10
-681.627598
 20
522.649035
 30
0.0
 40
4.0
100
AcDbArc
 50
360.0
 51
90.0
  0
ARC
  5
6BE
100
AcDbEntity
  8
2
100
AcDbCircle
 10
125.771554
 20
186.849035
 30
0.0
 40
3.0
100
AcDbArc
 50
180.0
 51
270.0
  0
LINE
  5
6BF
100
AcDbEntity
  8
2
100
AcDbLine
 10
93.771554
 20
98.849035
 30
0.0
 11
119.526556
 21
98.849035
 31
0.0
  0
ARC
  5
6C0
100
AcDbEntity
  8
2
100
AcDbCircle
 10
91.771554
 20
95.849035
 30
0.0
 40
1.0
100
AcDbArc
 50
270.0
 51
360.0
  0
ARC
  5
6C1
100
AcDbEntity
  8
2
100
AcDbCircle
 10
93.771554
 20
97.849035
 30
0.0
 40
1.0
100
AcDbArc
 50
90.0
 51
180.0
  0
ARC
  5
6C2
100
AcDbEntity
  8
2
100
AcDbCircle
 10
119.526556
 20
97.849035
 30
0.0
 40
1.0
100
AcDbArc
 50
38.682187
 51
90.0
  0
ARC
  5
6C3
100
AcDbEntity
  8
2
100
AcDbCircle
 10
100.771554
 20
97.849035
 30
0.0
 40
1.0
100
AcDbArc
 50
0.0
 51
90.0
  0
LINE
  5
6C4
100
AcDbEntity
  8
2
100
AcDbLine
 10
227.771554
 20
170.349035
 30
0.0
 11
223.771554
 21
170.349035
 31
0.0
  0
LINE
  5
6C5
100
AcDbEntity
  8
2
100
AcDbLine
 10
217.271554
 20
176.849035
 30
0.0
 11
217.271554
 21
180.849035
 31
0.0
  0
LINE
  5
6C6
100
AcDbEntity
  8
2
100
AcDbLine
 10
227.771554
 20
109.349035
 30
0.0
 11
223.771554
 21
109.349035
 31
0.0
  0
LINE
  5
6C7
100
AcDbEntity
  8
2
100
AcDbLine
 10
217.271554
 20
102.849035
 30
0.0
 11
217.271554
 21
98.849035
 31
0.0
  0
LINE
  5
6C8
100
AcDbEntity
  8
2
100
AcDbLine
 10
121.771554
 20
109.349035
 30
0.0
 11
125.771554
 21
109.349035
 31
0.0
  0
LINE
  5
6C9
100
AcDbEntity
  8
2
100
AcDbLine
 10
132.271554
 20
102.849035
 30
0.0
 11
132.271554
 21
98.849035
 31
0.0
  0
LINE
  5
6CA
100
AcDbEntity
  8
2
100
AcDbLine
 10
121.771554
 20
170.349035
 30
0.0
 11
125.771554
 21
170.349035
 31
0.0
  0
LINE
  5
6CB
100
AcDbEntity
  8
2
100
AcDbLine
 10
132.271554
 20
176.849035
 30
0.0
 11
132.271554
 21
180.849035
 31
0.0
  0
ARC
  5
6CC
100
AcDbEntity
  8
2
100
AcDbCircle
 10
214.271554
 20
180.849035
 30
0.0
 40
3.0
100
AcDbArc
 50
0.0
 51
90.0
  0
ARC
  5
6CD
100
AcDbEntity
  8
2
100
AcDbCircle
 10
227.771554
 20
167.349035
 30
0.0
 40
3.0
100
AcDbArc
 50
0.0
 51
90.0
  0
ARC
  5
6CE
100
AcDbEntity
  8
2
100
AcDbCircle
 10
227.771554
 20
112.349035
 30
0.0
 40
3.0
100
AcDbArc
 50
270.0
 51
360.0
  0
ARC
  5
6CF
100
AcDbEntity
  8
2
100
AcDbCircle
 10
214.271554
 20
98.849035
 30
0.0
 40
3.0
100
AcDbArc
 50
270.0
 51
360.0
  0
ARC
  5
6D0
100
AcDbEntity
  8
2
100
AcDbCircle
 10
135.271554
 20
98.849035
 30
0.0
 40
3.0
100
AcDbArc
 50
180.0
 51
270.0
  0
ARC
  5
6D1
100
AcDbEntity
  8
2
100
AcDbCircle
 10
121.771554
 20
112.349035
 30
0.0
 40
3.0
100
AcDbArc
 50
180.0
 51
270.0
  0
ARC
  5
6D2
100
AcDbEntity
  8
2
100
AcDbCircle
 10
121.771554
 20
167.349035
 30
0.0
 40
3.0
100
AcDbArc
 50
90.0
 51
180.0
  0
ARC
  5
6D3
100
AcDbEntity
  8
2
100
AcDbCircle
 10
135.271554
 20
180.849035
 30
0.0
 40
3.0
100
AcDbArc
 50
90.0
 51
180.0
  0
ARC
  5
6D4
100
AcDbEntity
  8
2
100
AcDbCircle
 10
223.771554
 20
176.849035
 30
0.0
 40
6.5
100
AcDbArc
 50
180.0
 51
270.0
  0
ARC
  5
6D5
100
AcDbEntity
  8
2
100
AcDbCircle
 10
223.771554
 20
102.849035
 30
0.0
 40
6.5
100
AcDbArc
 50
90.0
 51
180.0
  0
ARC
  5
6D6
100
AcDbEntity
  8
2
100
AcDbCircle
 10
125.771554
 20
102.849035
 30
0.0
 40
6.5
100
AcDbArc
 50
360.0
 51
90.0
  0
ARC
  5
6D7
100
AcDbEntity
  8
2
100
AcDbCircle
 10
125.771554
 20
176.849035
 30
0.0
 40
6.5
100
AcDbArc
 50
270.0
 51
0.0
  0
LINE
  5
6D8
100
AcDbEntity
  8
2
100
AcDbLine
 10
230.771554
 20
113.849035
 30
0.0
 11
233.771554
 21
113.849035
 31
0.0
  0
ARC
  5
6D9
100
AcDbEntity
  8
2
100
AcDbCircle
 10
233.771554
 20
111.849035
 30
0.0
 40
2.0
100
AcDbArc
 50
0.0
 51
90.0
  0
LINE
  5
6DA
100
AcDbEntity
  8
2
100
AcDbLine
 10
230.771554
 20
167.849035
 30
0.0
 11
242.771554
 21
167.849035
 31
0.0
  0
LINE
  5
6DB
100
AcDbEntity
  8
2
100
AcDbLine
 10
230.771554
 20
135.849035
 30
0.0
 11
242.771554
 21
135.849035
 31
0.0
  0
ARC
  5
6DC
100
AcDbEntity
  8
2
100
AcDbCircle
 10
242.771554
 20
138.849035
 30
0.0
 40
3.0
100
AcDbArc
 50
270.0
 51
360.0
  0
ARC
  5
6DD
100
AcDbEntity
  8
2
100
AcDbCircle
 10
242.771554
 20
164.849035
 30
0.0
 40
3.0
100
AcDbArc
 50
0.0
 51
90.0
  0
LINE
  5
6DE
100
AcDbEntity
  8
2
100
AcDbLine
 10
235.771554
 20
97.906834
 30
0.0
 11
245.684405
 21
138.131195
 31
0.0
  0
LINE
  5
6DF
100
AcDbEntity
  8
2
100
AcDbLine
 10
219.771554
 20
194.849035
 30
0.0
 11
244.771554
 21
194.849035
 31
0.0
  0
LINE
  5
6E0
100
AcDbEntity
  8
2
100
AcDbLine
 10
244.771554
 20
194.849035
 30
0.0
 11
245.771554
 21
193.849035
 31
0.0
  0
LINE
  5
6E1
100
AcDbEntity
  8
2
100
AcDbLine
 10
237.975261
 20
106.849035
 30
0.0
 11
244.771554
 21
106.849035
 31
0.0
  0
LINE
  5
6E2
100
AcDbEntity
  8
2
100
AcDbLine
 10
244.771554
 20
106.849035
 30
0.0
 11
245.771554
 21
107.849035
 31
0.0
  0
LINE
  5
6E3
100
AcDbEntity
  8
2
100
AcDbLine
 10
219.771554
 20
186.049035
 30
0.0
 11
244.771554
 21
186.049035
 31
0.0
  0
LINE
  5
6E4
100
AcDbEntity
  8
2
100
AcDbLine
 10
244.771554
 20
106.849035
 30
0.0
 11
244.771554
 21
129.349035
 31
0.0
  0
LINE
  5
6E5
100
AcDbEntity
  8
2
100
AcDbLine
 10
244.771554
 20
167.085103
 30
0.0
 11
244.771554
 21
194.849035
 31
0.0
  0
LINE
  5
6E6
100
AcDbEntity
  8
2
100
AcDbLine
 10
244.771554
 20
186.049035
 30
0.0
 11
245.771554
 21
185.049035
 31
0.0
  0
LINE
  5
6E7
100
AcDbEntity
  8
2
100
AcDbLine
 10
253.771554
 20
132.525535
 30
0.0
 11
253.095054
 21
131.849035
 31
0.0
  0
LINE
  5
6E8
100
AcDbEntity
  8
2
100
AcDbLine
 10
253.095054
 20
131.849035
 30
0.0
 11
249.271554
 21
131.849035
 31
0.0
  0
LINE
  5
6E9
100
AcDbEntity
  8
2
 62
     2
100
AcDbLine
 10
253.771554
 20
132.525535
 30
0.0
 11
249.271554
 21
132.525535
 31
0.0
  0
LINE
  5
6EA
100
AcDbEntity
  8
2
100
AcDbLine
 10
253.771554
 20
132.525535
 30
0.0
 11
253.771554
 21
139.172535
 31
0.0
  0
LINE
  5
6EB
100
AcDbEntity
  8
2
100
AcDbLine
 10
253.771554
 20
139.172535
 30
0.0
 11
253.095054
 21
139.849035
 31
0.0
  0
LINE
  5
6EC
100
AcDbEntity
  8
2
100
AcDbLine
 10
253.095054
 20
139.849035
 30
0.0
 11
249.234839
 21
139.849035
 31
0.0
  0
LINE
  5
6ED
100
AcDbEntity
  8
2
100
AcDbLine
 10
253.095054
 20
139.849035
 30
0.0
 11
253.095054
 21
131.849035
 31
0.0
  0
LINE
  5
6EE
100
AcDbEntity
  8
2
 62
     2
100
AcDbLine
 10
253.771554
 20
139.172535
 30
0.0
 11
249.271554
 21
139.172535
 31
0.0
  0
LINE
  5
6EF
100
AcDbEntity
  8
2
100
AcDbLine
 10
245.771554
 20
142.349035
 30
0.0
 11
249.271554
 21
142.349035
 31
0.0
  0
ARC
  5
6F0
100
AcDbEntity
  8
2
100
AcDbCircle
 10
241.592795
 20
139.099035
 30
0.0
 40
7.678759
100
AcDbArc
 50
334.96034
 51
25.03966
  0
LINE
  5
6F1
100
AcDbEntity
  8
2
100
AcDbLine
 10
243.520139
 20
129.349035
 30
0.0
 11
249.271554
 21
129.349035
 31
0.0
  0
LINE
  5
6F2
100
AcDbEntity
  8
2
100
AcDbLine
 10
249.271554
 20
129.349035
 30
0.0
 11
249.271554
 21
142.349035
 31
0.0
  0
LINE
  5
6F3
100
AcDbEntity
  8
2
100
AcDbLine
 10
245.121992
 20
135.849035
 30
0.0
 11
248.549866
 21
135.849035
 31
0.0
  0
ARC
  5
6F4
100
AcDbEntity
  8
2
100
AcDbCircle
 10
241.592795
 20
132.599035
 30
0.0
 40
7.678759
100
AcDbArc
 50
334.96034
 51
25.03966
  0
ARC
  5
6F5
100
AcDbEntity
  8
2
100
AcDbCircle
 10
118.771554
 20
211.391925
 30
0.0
 40
3.0
100
AcDbArc
 50
267.0
 51
360.0
  0
LINE
  5
6F6
100
AcDbEntity
  8
2
100
AcDbLine
 10
77.771554
 20
212.75041
 30
0.0
 11
77.771554
 21
95.849035
 31
0.0
  0
ARC
  5
6F7
100
AcDbEntity
  8
2
100
AcDbCircle
 10
78.771554
 20
212.75041
 30
0.0
 40
1.0
100
AcDbArc
 50
90.0
 51
180.0
  0
ARC
  5
6F8
100
AcDbEntity
  8
2
100
AcDbCircle
 10
78.771554
 20
95.849035
 30
0.0
 40
1.0
100
AcDbArc
 50
180.0
 51
270.0
  0
LINE
  5
6F9
100
AcDbEntity
  8
2
100
AcDbLine
 10
59.771554
 20
203.177978
 30
0.0
 11
59.771554
 21
101.191288
 31
0.0
  0
LINE
  5
6FA
100
AcDbEntity
  8
2
100
AcDbLine
 10
77.771554
 20
211.794073
 30
0.0
 11
63.491233
 21
208.011277
 31
0.0
  0
LINE
  5
6FB
100
AcDbEntity
  8
2
100
AcDbLine
 10
77.771554
 20
94.849035
 30
0.0
 11
64.267719
 21
96.216738
 31
0.0
  0
ARC
  5
6FC
100
AcDbEntity
  8
2
100
AcDbCircle
 10
64.771554
 20
203.177978
 30
0.0
 40
5.0
100
AcDbArc
 50
104.836646
 51
180.0
  0
ARC
  5
6FD
100
AcDbEntity
  8
2
100
AcDbCircle
 10
64.771554
 20
101.191288
 30
0.0
 40
5.0
100
AcDbArc
 50
180.0
 51
264.21666
  0
LINE
  5
6FE
100
AcDbEntity
  8
2
100
AcDbLine
 10
53.771554
 20
170.0124
 30
0.0
 11
53.771554
 21
133.68567
 31
0.0
  0
LINE
  5
6FF
100
AcDbEntity
  8
2
100
AcDbLine
 10
41.771554
 20
164.314381
 30
0.0
 11
41.771554
 21
139.383689
 31
0.0
  0
LINE
  5
700
100
AcDbEntity
  8
2
100
AcDbLine
 10
43.253916
 20
166.246233
 30
0.0
 11
52.314391
 21
168.67398
 31
0.0
  0
LINE
  5
701
100
AcDbEntity
  8
2
100
AcDbLine
 10
57.477458
 20
174.842029
 30
0.0
 11
58.289192
 21
175.059533
 31
0.0
  0
LINE
  5
702
100
AcDbEntity
  8
2
100
AcDbLine
 10
43.253916
 20
137.451838
 30
0.0
 11
52.314391
 21
135.02409
 31
0.0
  0
LINE
  5
703
100
AcDbEntity
  8
2
100
AcDbLine
 10
57.477458
 20
128.856041
 30
0.0
 11
58.289192
 21
128.638538
 31
0.0
  0
ARC
  5
704
100
AcDbEntity
  8
2
100
AcDbCircle
 10
58.771554
 20
170.0124
 30
0.0
 40
5.0
100
AcDbArc
 50
105.0
 51
180.0
  0
ARC
  5
705
100
AcDbEntity
  8
2
100
AcDbCircle
 10
58.771554
 20
133.68567
 30
0.0
 40
5.0
100
AcDbArc
 50
180.0
 51
255.0
  0
ARC
  5
706
100
AcDbEntity
  8
2
100
AcDbCircle
 10
43.771554
 20
164.314381
 30
0.0
 40
2.0
100
AcDbArc
 50
105.0
 51
180.0
  0
ARC
  5
707
100
AcDbEntity
  8
2
100
AcDbCircle
 10
43.771554
 20
139.383689
 30
0.0
 40
2.0
100
AcDbArc
 50
180.0
 51
255.0
  0
ARC
  5
708
100
AcDbEntity
  8
2
100
AcDbCircle
 10
57.771554
 20
176.991384
 30
0.0
 40
2.0
100
AcDbArc
 50
285.0
 51
360.0
  0
ARC
  5
709
100
AcDbEntity
  8
2
100
AcDbCircle
 10
57.771554
 20
126.706686
 30
0.0
 40
2.0
100
AcDbArc
 50
0.0
 51
75.0
  0
ARC
  5
70A
100
AcDbEntity
  8
2
100
AcDbCircle
 10
51.796753
 20
133.092239
 30
0.0
 40
2.0
100
AcDbArc
 50
4.86314
 51
75.0
  0
ARC
  5
70B
100
AcDbEntity
  8
2
100
AcDbCircle
 10
51.796753
 20
170.605832
 30
0.0
 40
2.0
100
AcDbArc
 50
285.0
 51
355.13686
  0
LINE
  5
70C
100
AcDbEntity
  8
2
100
AcDbLine
 10
94.771554
 20
206.849035
 30
0.0
 11
107.771554
 21
206.849035
 31
0.0
  0
LINE
  5
70D
100
AcDbEntity
  8
2
100
AcDbLine
 10
94.771554
 20
198.849035
 30
0.0
 11
107.771554
 21
198.849035
 31
0.0
  0
LINE
  5
70E
100
AcDbEntity
  8
2
100
AcDbLine
 10
94.771554
 20
108.849035
 30
0.0
 11
107.771554
 21
108.849035
 31
0.0
  0
LINE
  5
70F
100
AcDbEntity
  8
2
100
AcDbLine
 10
94.771554
 20
100.849035
 30
0.0
 11
107.771554
 21
100.849035
 31
0.0
  0
ARC
  5
710
100
AcDbEntity
  8
2
100
AcDbCircle
 10
107.771554
 20
202.849035
 30
0.0
 40
4.0
100
AcDbArc
 50
270.0
 51
90.0
  0
ARC
  5
711
100
AcDbEntity
  8
2
100
AcDbCircle
 10
107.771554
 20
104.849035
 30
0.0
 40
4.0
100
AcDbArc
 50
270.0
 51
90.0
  0
ARC
  5
712
100
AcDbEntity
  8
2
100
AcDbCircle
 10
94.771554
 20
208.849035
 30
0.0
 40
2.0
100
AcDbArc
 50
180.0
 51
270.0
  0
ARC
  5
713
100
AcDbEntity
  8
2
100
AcDbCircle
 10
94.771554
 20
196.849035
 30
0.0
 40
2.0
100
AcDbArc
 50
90.0
 51
180.0
  0
ARC
  5
714
100
AcDbEntity
  8
2
100
AcDbCircle
 10
94.771554
 20
110.849035
 30
0.0
 40
2.0
100
AcDbArc
 50
180.0
 51
270.0
  0
ARC
  5
715
100
AcDbEntity
  8
2
100
AcDbCircle
 10
94.771554
 20
98.849035
 30
0.0
 40
2.0
100
AcDbArc
 50
90.0
 51
180.0
  0
ARC
  5
716
100
AcDbEntity
  8
2
100
AcDbCircle
 10
-617.328446
 20
101.849035
 30
0.0
 40
7.128574
100
AcDbArc
 50
0.0
 51
180.0
  0
LINE
  5
717
100
AcDbEntity
  8
2
100
AcDbLine
 10
-610.199873
 20
101.849035
 30
0.0
 11
-610.199873
 21
101.315923
 31
0.0
  0
LINE
  5
718
100
AcDbEntity
  8
2
100
AcDbLine
 10
-624.45702
 20
101.849035
 30
0.0
 11
-624.45702
 21
101.752288
 31
0.0
  0
ARC
  5
719
100
AcDbEntity
  8
2
100
AcDbCircle
 10
-607.199873
 20
101.315923
 30
0.0
 40
3.0
100
AcDbArc
 50
180.0
 51
268.765968
  0
ARC
  5
71A
100
AcDbEntity
  8
2
100
AcDbCircle
 10
-627.45702
 20
101.752288
 30
0.0
 40
3.0
100
AcDbArc
 50
268.765968
 51
360.0
  0
LINE
  5
71B
100
AcDbEntity
  8
2
100
AcDbLine
 10
-611.207143
 20
460.952291
 30
0.0
 11
-611.207143
 21
472.649035
 31
0.0
  0
LINE
  5
71C
100
AcDbEntity
  8
2
100
AcDbLine
 10
-623.813656
 20
460.952291
 30
0.0
 11
-623.813656
 21
472.649035
 31
0.0
  0
ARC
  5
71D
100
AcDbEntity
  8
2
100
AcDbCircle
 10
-617.510399
 20
460.952291
 30
0.0
 40
6.303256
100
AcDbArc
 50
180.0
 51
360.0
  0
ARC
  5
71E
100
AcDbEntity
  8
2
100
AcDbCircle
 10
-738.452802
 20
469.649035
 30
0.0
 40
3.0
100
AcDbArc
 50
30.0
 51
90.0
  0
ARC
  5
71F
100
AcDbEntity
  8
2
100
AcDbCircle
 10
-723.441695
 20
459.649035
 30
0.0
 40
5.0
100
AcDbArc
 50
210.0
 51
270.0
  0
CIRCLE
  5
720
100
AcDbEntity
  8
2
100
AcDbCircle
 10
-752.328446
 20
146.849035
 30
0.0
 40
5.25
  0
CIRCLE
  5
721
100
AcDbEntity
  8
2
100
AcDbCircle
 10
-752.328446
 20
146.849035
 30
0.0
 40
5.25
  0
CIRCLE
  5
722
100
AcDbEntity
  8
2
100
AcDbCircle
 10
-752.328446
 20
146.849035
 30
0.0
 40
5.75
  0
CIRCLE
  5
723
100
AcDbEntity
  8
2
100
AcDbCircle
 10
-617.328446
 20
198.779035
 30
0.0
 40
5.25
  0
CIRCLE
  5
724
100
AcDbEntity
  8
2
100
AcDbCircle
 10
-617.328446
 20
198.779035
 30
0.0
 40
5.25
  0
CIRCLE
  5
725
100
AcDbEntity
  8
2
100
AcDbCircle
 10
-617.328446
 20
198.779035
 30
0.0
 40
5.75
  0
CIRCLE
  5
726
100
AcDbEntity
  8
2
100
AcDbCircle
 10
-617.328446
 20
101.849035
 30
0.0
 40
5.25
  0
CIRCLE
  5
727
100
AcDbEntity
  8
2
100
AcDbCircle
 10
-617.328446
 20
101.849035
 30
0.0
 40
5.25
  0
CIRCLE
  5
728
100
AcDbEntity
  8
2
100
AcDbCircle
 10
-617.328446
 20
101.849035
 30
0.0
 40
5.75
  0
CIRCLE
  5
729
100
AcDbEntity
  8
2
100
AcDbCircle
 10
-490.328446
 20
202.849035
 30
0.0
 40
5.25
  0
CIRCLE
  5
72A
100
AcDbEntity
  8
2
100
AcDbCircle
 10
-490.328446
 20
202.849035
 30
0.0
 40
5.25
  0
CIRCLE
  5
72B
100
AcDbEntity
  8
2
100
AcDbCircle
 10
-490.328446
 20
202.849035
 30
0.0
 40
5.75
  0
CIRCLE
  5
72C
100
AcDbEntity
  8
2
100
AcDbCircle
 10
-487.328446
 20
104.849035
 30
0.0
 40
5.25
  0
CIRCLE
  5
72D
100
AcDbEntity
  8
2
100
AcDbCircle
 10
-487.328446
 20
104.849035
 30
0.0
 40
5.25
  0
CIRCLE
  5
72E
100
AcDbEntity
  8
2
100
AcDbCircle
 10
-487.328446
 20
104.849035
 30
0.0
 40
5.75
  0
CIRCLE
  5
72F
100
AcDbEntity
  8
2
100
AcDbCircle
 10
125.771554
 20
176.849035
 30
0.0
 40
5.25
  0
CIRCLE
  5
730
100
AcDbEntity
  8
2
100
AcDbCircle
 10
125.771554
 20
176.849035
 30
0.0
 40
5.25
  0
CIRCLE
  5
731
100
AcDbEntity
  8
2
100
AcDbCircle
 10
125.771554
 20
176.849035
 30
0.0
 40
5.75
  0
CIRCLE
  5
732
100
AcDbEntity
  8
2
100
AcDbCircle
 10
223.771554
 20
176.849035
 30
0.0
 40
5.25
  0
CIRCLE
  5
733
100
AcDbEntity
  8
2
100
AcDbCircle
 10
223.771554
 20
176.849035
 30
0.0
 40
5.25
  0
CIRCLE
  5
734
100
AcDbEntity
  8
2
100
AcDbCircle
 10
223.771554
 20
176.849035
 30
0.0
 40
5.75
  0
CIRCLE
  5
735
100
AcDbEntity
  8
2
100
AcDbCircle
 10
125.771554
 20
102.849035
 30
0.0
 40
5.25
  0
CIRCLE
  5
736
100
AcDbEntity
  8
2
100
AcDbCircle
 10
125.771554
 20
102.849035
 30
0.0
 40
5.25
  0
CIRCLE
  5
737
100
AcDbEntity
  8
2
100
AcDbCircle
 10
125.771554
 20
102.849035
 30
0.0
 40
5.75
  0
CIRCLE
  5
738
100
AcDbEntity
  8
2
100
AcDbCircle
 10
223.771554
 20
102.849035
 30
0.0
 40
5.25
  0
CIRCLE
  5
739
100
AcDbEntity
  8
2
100
AcDbCircle
 10
223.771554
 20
102.849035
 30
0.0
 40
5.25
  0
CIRCLE
  5
73A
100
AcDbEntity
  8
2
100
AcDbCircle
 10
223.771554
 20
102.849035
 30
0.0
 40
5.75
  0
LINE
  5
73B
100
AcDbEntity
  8
2
100
AcDbLine
 10
-460.828446
 20
97.099035
 30
0.0
 11
-460.828446
 21
108.599035
 31
0.0
  0
LINE
  5
73C
100
AcDbEntity
  8
2
100
AcDbLine
 10
-460.828446
 20
108.599035
 30
0.0
 11
-462.328446
 21
108.599035
 31
0.0
  0
LINE
  5
73D
100
AcDbEntity
  8
2
100
AcDbLine
 10
-460.828446
 20
97.099035
 30
0.0
 11
-462.328446
 21
97.099035
 31
0.0
  0
LINE
  5
73E
100
AcDbEntity
  8
2
100
AcDbLine
 10
-459.30143
 20
108.099035
 30
0.0
 11
-460.828446
 21
108.099035
 31
0.0
  0
LINE
  5
73F
100
AcDbEntity
  8
2
100
AcDbLine
 10
-459.30143
 20
97.599035
 30
0.0
 11
-460.828446
 21
97.599035
 31
0.0
  0
ARC
  5
740
100
AcDbEntity
  8
2
100
AcDbCircle
 10
-470.928446
 20
102.849035
 30
0.0
 40
14.0
100
AcDbArc
 50
343.927141
 51
16.072859
  0
ARC
  5
741
100
AcDbEntity
  8
2
100
AcDbCircle
 10
-459.30143
 20
99.499035
 30
0.0
 40
1.9
100
AcDbArc
 50
270.0
 51
343.927141
  0
ARC
  5
742
100
AcDbEntity
  8
2
100
AcDbCircle
 10
-459.30143
 20
106.199035
 30
0.0
 40
1.9
100
AcDbArc
 50
16.072859
 51
90.0
  0
LINE
  5
743
100
AcDbEntity
  8
2
100
AcDbLine
 10
-460.828446
 20
171.099035
 30
0.0
 11
-460.828446
 21
182.599035
 31
0.0
  0
LINE
  5
744
100
AcDbEntity
  8
2
100
AcDbLine
 10
-460.828446
 20
182.599035
 30
0.0
 11
-462.328446
 21
182.599035
 31
0.0
  0
LINE
  5
745
100
AcDbEntity
  8
2
100
AcDbLine
 10
-460.828446
 20
171.099035
 30
0.0
 11
-462.328446
 21
171.099035
 31
0.0
  0
LINE
  5
746
100
AcDbEntity
  8
2
100
AcDbLine
 10
-459.30143
 20
182.099035
 30
0.0
 11
-460.828446
 21
182.099035
 31
0.0
  0
LINE
  5
747
100
AcDbEntity
  8
2
100
AcDbLine
 10
-459.30143
 20
171.599035
 30
0.0
 11
-460.828446
 21
171.599035
 31
0.0
  0
ARC
  5
748
100
AcDbEntity
  8
2
100
AcDbCircle
 10
-470.928446
 20
176.849035
 30
0.0
 40
14.0
100
AcDbArc
 50
343.927141
 51
16.072859
  0
ARC
  5
749
100
AcDbEntity
  8
2
100
AcDbCircle
 10
-459.30143
 20
173.499035
 30
0.0
 40
1.9
100
AcDbArc
 50
270.0
 51
343.927141
  0
ARC
  5
74A
100
AcDbEntity
  8
2
100
AcDbCircle
 10
-459.30143
 20
180.199035
 30
0.0
 40
1.9
100
AcDbArc
 50
16.072859
 51
90.0
  0
LINE
  5
74B
100
AcDbEntity
  8
2
100
AcDbLine
 10
-460.828446
 20
612.899035
 30
0.0
 11
-460.828446
 21
624.399035
 31
0.0
  0
LINE
  5
74C
100
AcDbEntity
  8
2
100
AcDbLine
 10
-460.828446
 20
624.399035
 30
0.0
 11
-462.328446
 21
624.399035
 31
0.0
  0
LINE
  5
74D
100
AcDbEntity
  8
2
100
AcDbLine
 10
-460.828446
 20
612.899035
 30
0.0
 11
-462.328446
 21
612.899035
 31
0.0
  0
LINE
  5
74E
100
AcDbEntity
  8
2
100
AcDbLine
 10
-459.30143
 20
623.899035
 30
0.0
 11
-460.828446
 21
623.899035
 31
0.0
  0
LINE
  5
74F
100
AcDbEntity
  8
2
100
AcDbLine
 10
-459.30143
 20
613.399035
 30
0.0
 11
-460.828446
 21
613.399035
 31
0.0
  0
ARC
  5
750
100
AcDbEntity
  8
2
100
AcDbCircle
 10
-470.928446
 20
618.649035
 30
0.0
 40
14.0
100
AcDbArc
 50
343.927141
 51
16.072859
  0
ARC
  5
751
100
AcDbEntity
  8
2
100
AcDbCircle
 10
-459.30143
 20
615.299035
 30
0.0
 40
1.9
100
AcDbArc
 50
270.0
 51
343.927141
  0
ARC
  5
752
100
AcDbEntity
  8
2
100
AcDbCircle
 10
-459.30143
 20
621.999035
 30
0.0
 40
1.9
100
AcDbArc
 50
16.072859
 51
90.0
  0
LINE
  5
753
100
AcDbEntity
  8
2
100
AcDbLine
 10
-460.828446
 20
514.899035
 30
0.0
 11
-460.828446
 21
526.399035
 31
0.0
  0
LINE
  5
754
100
AcDbEntity
  8
2
100
AcDbLine
 10
-460.828446
 20
526.399035
 30
0.0
 11
-462.328446
 21
526.399035
 31
0.0
  0
LINE
  5
755
100
AcDbEntity
  8
2
100
AcDbLine
 10
-460.828446
 20
514.899035
 30
0.0
 11
-462.328446
 21
514.899035
 31
0.0
  0
LINE
  5
756
100
AcDbEntity
  8
2
100
AcDbLine
 10
-459.30143
 20
525.899035
 30
0.0
 11
-460.828446
 21
525.899035
 31
0.0
  0
LINE
  5
757
100
AcDbEntity
  8
2
100
AcDbLine
 10
-459.30143
 20
515.399035
 30
0.0
 11
-460.828446
 21
515.399035
 31
0.0
  0
ARC
  5
758
100
AcDbEntity
  8
2
100
AcDbCircle
 10
-470.928446
 20
520.649035
 30
0.0
 40
14.0
100
AcDbArc
 50
343.927141
 51
16.072859
  0
ARC
  5
759
100
AcDbEntity
  8
2
100
AcDbCircle
 10
-459.30143
 20
517.299035
 30
0.0
 40
1.9
100
AcDbArc
 50
270.0
 51
343.927141
  0
ARC
  5
75A
100
AcDbEntity
  8
2
100
AcDbCircle
 10
-459.30143
 20
523.999035
 30
0.0
 40
1.9
100
AcDbArc
 50
16.072859
 51
90.0
  0
LINE
  5
75B
100
AcDbEntity
  8
2
100
AcDbLine
 10
-758.078446
 20
471.149035
 30
0.0
 11
-746.578446
 21
471.149035
 31
0.0
  0
LINE
  5
75C
100
AcDbEntity
  8
2
100
AcDbLine
 10
-746.578446
 20
471.149035
 30
0.0
 11
-746.578446
 21
472.649035
 31
0.0
  0
LINE
  5
75D
100
AcDbEntity
  8
2
100
AcDbLine
 10
-758.078446
 20
471.149035
 30
0.0
 11
-758.078446
 21
472.649035
 31
0.0
  0
LINE
  5
75E
100
AcDbEntity
  8
2
100
AcDbLine
 10
-747.078446
 20
469.622019
 30
0.0
 11
-747.078446
 21
471.149035
 31
0.0
  0
LINE
  5
75F
100
AcDbEntity
  8
2
100
AcDbLine
 10
-757.578446
 20
469.622019
 30
0.0
 11
-757.578446
 21
471.149035
 31
0.0
  0
ARC
  5
760
100
AcDbEntity
  8
2
100
AcDbCircle
 10
-752.328446
 20
481.249035
 30
0.0
 40
14.0
100
AcDbArc
 50
253.927141
 51
286.072859
  0
ARC
  5
761
100
AcDbEntity
  8
2
100
AcDbCircle
 10
-755.678446
 20
469.622019
 30
0.0
 40
1.9
100
AcDbArc
 50
180.0
 51
253.927141
  0
ARC
  5
762
100
AcDbEntity
  8
2
100
AcDbCircle
 10
-748.978446
 20
469.622019
 30
0.0
 40
1.9
100
AcDbArc
 50
286.072859
 51
360.0
  0
LINE
  5
763
100
AcDbEntity
  8
2
100
AcDbLine
 10
-623.078446
 20
471.149035
 30
0.0
 11
-611.578446
 21
471.149035
 31
0.0
  0
LINE
  5
764
100
AcDbEntity
  8
2
100
AcDbLine
 10
-611.578446
 20
471.149035
 30
0.0
 11
-611.578446
 21
472.649035
 31
0.0
  0
LINE
  5
765
100
AcDbEntity
  8
2
100
AcDbLine
 10
-623.078446
 20
471.149035
 30
0.0
 11
-623.078446
 21
472.649035
 31
0.0
  0
LINE
  5
766
100
AcDbEntity
  8
2
100
AcDbLine
 10
-612.078446
 20
469.622019
 30
0.0
 11
-612.078446
 21
471.149035
 31
0.0
  0
LINE
  5
767
100
AcDbEntity
  8
2
100
AcDbLine
 10
-622.578446
 20
469.622019
 30
0.0
 11
-622.578446
 21
471.149035
 31
0.0
  0
ARC
  5
768
100
AcDbEntity
  8
2
100
AcDbCircle
 10
-617.328446
 20
481.249035
 30
0.0
 40
14.0
100
AcDbArc
 50
253.927141
 51
286.072859
  0
ARC
  5
769
100
AcDbEntity
  8
2
100
AcDbCircle
 10
-620.678446
 20
469.622019
 30
0.0
 40
1.9
100
AcDbArc
 50
180.0
 51
253.927141
  0
ARC
  5
76A
100
AcDbEntity
  8
2
100
AcDbCircle
 10
-613.978446
 20
469.622019
 30
0.0
 40
1.9
100
AcDbArc
 50
286.072859
 51
360.0
  0
LINE
  5
76B
100
AcDbEntity
  8
2
100
AcDbLine
 10
-496.078446
 20
471.149035
 30
0.0
 11
-484.578446
 21
471.149035
 31
0.0
  0
LINE
  5
76C
100
AcDbEntity
  8
2
100
AcDbLine
 10
-484.578446
 20
471.149035
 30
0.0
 11
-484.578446
 21
472.649035
 31
0.0
  0
LINE
  5
76D
100
AcDbEntity
  8
2
100
AcDbLine
 10
-496.078446
 20
471.149035
 30
0.0
 11
-496.078446
 21
472.649035
 31
0.0
  0
LINE
  5
76E
100
AcDbEntity
  8
2
100
AcDbLine
 10
-485.078446
 20
469.622019
 30
0.0
 11
-485.078446
 21
471.149035
 31
0.0
  0
LINE
  5
76F
100
AcDbEntity
  8
2
100
AcDbLine
 10
-495.578446
 20
469.622019
 30
0.0
 11
-495.578446
 21
471.149035
 31
0.0
  0
ARC
  5
770
100
AcDbEntity
  8
2
100
AcDbCircle
 10
-490.328446
 20
481.249035
 30
0.0
 40
14.0
100
AcDbArc
 50
253.927141
 51
286.072859
  0
ARC
  5
771
100
AcDbEntity
  8
2
100
AcDbCircle
 10
-493.678446
 20
469.622019
 30
0.0
 40
1.9
100
AcDbArc
 50
180.0
 51
253.927141
  0
ARC
  5
772
100
AcDbEntity
  8
2
100
AcDbCircle
 10
-486.978446
 20
469.622019
 30
0.0
 40
1.9
100
AcDbArc
 50
286.072859
 51
360.0
  0
LINE
  5
773
100
AcDbEntity
  8
2
100
AcDbLine
 10
76.271554
 20
197.099035
 30
0.0
 11
76.271554
 21
208.599035
 31
0.0
  0
LINE
  5
774
100
AcDbEntity
  8
2
100
AcDbLine
 10
76.271554
 20
208.599035
 30
0.0
 11
77.771554
 21
208.599035
 31
0.0
  0
LINE
  5
775
100
AcDbEntity
  8
2
100
AcDbLine
 10
76.271554
 20
197.099035
 30
0.0
 11
77.771554
 21
197.099035
 31
0.0
  0
LINE
  5
776
100
AcDbEntity
  8
2
100
AcDbLine
 10
74.744538
 20
208.099035
 30
0.0
 11
76.271554
 21
208.099035
 31
0.0
  0
LINE
  5
777
100
AcDbEntity
  8
2
100
AcDbLine
 10
74.744538
 20
197.599035
 30
0.0
 11
76.271554
 21
197.599035
 31
0.0
  0
ARC
  5
778
100
AcDbEntity
  8
2
100
AcDbCircle
 10
86.371554
 20
202.849035
 30
0.0
 40
14.0
100
AcDbArc
 50
163.927141
 51
196.072859
  0
ARC
  5
779
100
AcDbEntity
  8
2
100
AcDbCircle
 10
74.744538
 20
199.499035
 30
0.0
 40
1.9
100
AcDbArc
 50
196.072859
 51
270.0
  0
ARC
  5
77A
100
AcDbEntity
  8
2
100
AcDbCircle
 10
74.744538
 20
206.199035
 30
0.0
 40
1.9
100
AcDbArc
 50
90.0
 51
163.927141
  0
LINE
  5
77B
100
AcDbEntity
  8
2
100
AcDbLine
 10
76.271554
 20
99.099035
 30
0.0
 11
76.271554
 21
110.599035
 31
0.0
  0
LINE
  5
77C
100
AcDbEntity
  8
2
100
AcDbLine
 10
76.271554
 20
110.599035
 30
0.0
 11
77.771554
 21
110.599035
 31
0.0
  0
LINE
  5
77D
100
AcDbEntity
  8
2
100
AcDbLine
 10
76.271554
 20
99.099035
 30
0.0
 11
77.771554
 21
99.099035
 31
0.0
  0
LINE
  5
77E
100
AcDbEntity
  8
2
100
AcDbLine
 10
74.744538
 20
110.099035
 30
0.0
 11
76.271554
 21
110.099035
 31
0.0
  0
LINE
  5
77F
100
AcDbEntity
  8
2
100
AcDbLine
 10
74.744538
 20
99.599035
 30
0.0
 11
76.271554
 21
99.599035
 31
0.0
  0
ARC
  5
780
100
AcDbEntity
  8
2
100
AcDbCircle
 10
86.371554
 20
104.849035
 30
0.0
 40
14.0
100
AcDbArc
 50
163.927141
 51
196.072859
  0
ARC
  5
781
100
AcDbEntity
  8
2
100
AcDbCircle
 10
74.744538
 20
101.499035
 30
0.0
 40
1.9
100
AcDbArc
 50
196.072859
 51
270.0
  0
ARC
  5
782
100
AcDbEntity
  8
2
100
AcDbCircle
 10
74.744538
 20
108.199035
 30
0.0
 40
1.9
100
AcDbArc
 50
90.0
 51
163.927141
  0
LINE
  5
783
100
AcDbEntity
  8
2
  6
CENTER
 62
     2
100
AcDbLine
 10
-666.802099
 20
610.649035
 30
0.0
 11
-650.152552
 21
610.649035
 31
0.0
  0
LINE
  5
784
100
AcDbEntity
  8
2
  6
CENTER
 62
     2
100
AcDbLine
 10
-522.434378
 20
610.649035
 30
0.0
 11
-503.999022
 21
610.649035
 31
0.0
  0
LINE
  5
785
100
AcDbEntity
  8
2
  6
CENTER
 62
     2
100
AcDbLine
 10
-659.328446
 20
515.554931
 30
0.0
 11
-659.328446
 21
530.572082
 31
0.0
  0
LINE
  5
786
100
AcDbEntity
  8
2
  6
CENTER
 62
     2
100
AcDbLine
 10
-659.328446
 20
603.209456
 30
0.0
 11
-659.328446
 21
618.553054
 31
0.0
  0
LINE
  5
787
100
AcDbEntity
  8
2
  6
CENTER
 62
     2
100
AcDbLine
 10
-665.985922
 20
522.649035
 30
0.0
 11
-652.111315
 21
522.649035
 31
0.0
  0
LINE
  5
788
100
AcDbEntity
  8
2
  6
CENTER
 62
     2
100
AcDbLine
 10
-522.676924
 20
522.649035
 30
0.0
 11
-504.484175
 21
522.649035
 31
0.0
  0
LINE
  5
789
100
AcDbEntity
  8
2
  6
CENTER
 62
     2
100
AcDbLine
 10
-513.328446
 20
513.880874
 30
0.0
 11
-513.328446
 21
531.345931
 31
0.0
  0
LINE
  5
78A
100
AcDbEntity
  8
2
  6
CENTER
 62
     2
100
AcDbLine
 10
-513.328446
 20
601.448348
 30
0.0
 11
-513.328446
 21
618.670791
 31
0.0
  0
LINE
  5
78B
100
AcDbEntity
  8
2
  6
CENTER
 62
     2
100
AcDbLine
 10
-659.328446
 20
239.976484
 30
0.0
 11
-659.328446
 21
223.060472
 31
0.0
  0
LINE
  5
78C
100
AcDbEntity
  8
2
  6
CENTER
 62
     2
100
AcDbLine
 10
-513.328446
 20
239.976484
 30
0.0
 11
-513.328446
 21
223.060472
 31
0.0
  0
ARC
  5
78D
100
AcDbEntity
  8
2
  6
CENTER
 62
     2
100
AcDbCircle
 10
-592.328446
 20
563.649035
 30
0.0
 40
37.5
100
AcDbArc
 50
126.361503
 51
143.885033
  0
ARC
  5
78E
100
AcDbEntity
  8
2
  6
CENTER
 62
     2
100
AcDbCircle
 10
-592.328446
 20
563.649035
 30
0.0
 40
37.5
100
AcDbArc
 50
216.93331
 51
233.416879
  0
ARC
  5
78F
100
AcDbEntity
  8
2
  6
CENTER
 62
     2
100
AcDbCircle
 10
-592.328446
 20
563.649035
 30
0.0
 40
37.5
100
AcDbArc
 50
306.278748
 51
323.822644
  0
ARC
  5
790
100
AcDbEntity
  8
2
  6
CENTER
 62
     2
100
AcDbCircle
 10
-592.328446
 20
563.649035
 30
0.0
 40
37.5
100
AcDbArc
 50
36.280641
 51
53.737219
  0
LINE
  5
791
100
AcDbEntity
  8
2
  6
CENTER
 62
     2
100
AcDbLine
 10
-623.167733
 20
532.809749
 30
0.0
 11
-615.117133
 21
540.860349
 31
0.0
  0
LINE
  5
792
100
AcDbEntity
  8
2
  6
CENTER
 62
     2
100
AcDbLine
 10
-569.937593
 20
586.039889
 30
0.0
 11
-561.39122
 21
594.586262
 31
0.0
  0
LINE
  5
793
100
AcDbEntity
  8
2
  6
CENTER
 62
     2
100
AcDbLine
 10
-623.222066
 20
594.542655
 30
0.0
 11
-614.871073
 21
586.191662
 31
0.0
  0
LINE
  5
794
100
AcDbEntity
  8
2
  6
CENTER
 62
     2
100
AcDbLine
 10
-569.756363
 20
541.076951
 30
0.0
 11
-561.625299
 21
532.945888
 31
0.0
  0
LINE
  5
795
100
AcDbEntity
  8
2
  6
CENTER
 62
     2
100
AcDbLine
 10
-618.844951
 20
255.764482
 30
0.0
 11
-618.844951
 21
239.344057
 31
0.0
  0
LINE
  5
796
100
AcDbEntity
  8
2
  6
CENTER
 62
     2
100
AcDbLine
 10
-565.811942
 20
256.194337
 30
0.0
 11
-565.811942
 21
239.344057
 31
0.0
  0
LINE
  5
797
100
AcDbEntity
  8
2
  6
CENTER
 62
     2
100
AcDbLine
 10
215.771554
 20
239.976484
 30
0.0
 11
215.771554
 21
223.501642
 31
0.0
  0
LINE
  5
798
100
AcDbEntity
  8
2
  6
CENTER
 62
     2
100
AcDbLine
 10
127.771554
 20
239.976484
 30
0.0
 11
127.771554
 21
223.501642
 31
0.0
  0
LINE
  5
799
100
AcDbEntity
  8
2
  6
CENTER
 62
     2
100
AcDbLine
 10
195.288058
 20
240.193853
 30
0.0
 11
195.288058
 21
255.805311
 31
0.0
  0
LINE
  5
79A
100
AcDbEntity
  8
2
  6
CENTER
 62
     2
100
AcDbLine
 10
142.255049
 20
240.193853
 30
0.0
 11
142.255049
 21
257.199201
 31
0.0
  0
LINE
  5
79B
100
AcDbEntity
  8
2
  6
CENTER
 62
     2
100
AcDbLine
 10
125.571554
 20
205.849035
 30
0.0
 11
216.371554
 21
205.849035
 31
0.0
  0
LINE
  5
79C
100
AcDbEntity
  8
2
  6
CENTER
 62
     2
100
AcDbLine
 10
151.771554
 20
228.149035
 30
0.0
 11
151.771554
 21
188.149035
 31
0.0
  0
LINE
  5
79D
100
AcDbEntity
  8
2
  6
CENTER
 62
     2
100
AcDbLine
 10
191.771554
 20
228.149035
 30
0.0
 11
191.771554
 21
188.149035
 31
0.0
  0
LINE
  5
79E
100
AcDbEntity
  8
2
  6
CENTER
 62
     2
100
AcDbLine
 10
-617.328446
 20
655.919004
 30
0.0
 11
-617.328446
 21
626.949035
 31
0.0
  0
LINE
  5
79F
100
AcDbEntity
  8
2
  6
CENTER
 62
     2
100
AcDbLine
 10
-567.328446
 20
626.699035
 30
0.0
 11
-567.328446
 21
655.919004
 31
0.0
  0
LINE
  5
7A0
100
AcDbEntity
  8
2
  6
CENTER
 62
     2
100
AcDbLine
 10
-592.328446
 20
671.434387
 30
0.0
 11
-592.328446
 21
428.267075
 31
0.0
  0
LINE
  5
7A1
100
AcDbEntity
  8
2
  6
CENTER
 62
     2
100
AcDbLine
 10
-530.328446
 20
646.799035
 30
0.0
 11
-530.328446
 21
391.146205
 31
0.0
  0
LINE
  5
7A2
100
AcDbEntity
  8
2
  6
CENTER
 62
     2
100
AcDbLine
 10
-530.328446
 20
217.899035
 30
0.0
 11
-530.328446
 21
84.849035
 31
0.0
  0
LINE
  5
7A3
100
AcDbEntity
  8
2
  6
CENTER
 62
     2
100
AcDbLine
 10
-490.328446
 20
193.849035
 30
0.0
 11
-490.328446
 21
210.749035
 31
0.0
  0
LINE
  5
7A4
100
AcDbEntity
  8
2
  6
CENTER
 62
     2
100
AcDbLine
 10
-498.878446
 20
202.849035
 30
0.0
 11
-480.328446
 21
202.849035
 31
0.0
  0
LINE
  5
7A5
100
AcDbEntity
  8
2
  6
CENTER
 62
     2
100
AcDbLine
 10
-487.328446
 20
114.138926
 30
0.0
 11
-487.328446
 21
95.274271
 31
0.0
  0
LINE
  5
7A6
100
AcDbEntity
  8
2
  6
CENTER
 62
     2
100
AcDbLine
 10
-496.328446
 20
104.849035
 30
0.0
 11
-478.428446
 21
104.849035
 31
0.0
  0
LINE
  5
7A7
100
AcDbEntity
  8
2
  6
CENTER
 62
     2
100
AcDbLine
 10
-760.800173
 20
146.849035
 30
0.0
 11
-744.528446
 21
146.849035
 31
0.0
  0
LINE
  5
7A8
100
AcDbEntity
  8
2
  6
CENTER
 62
     2
100
AcDbLine
 10
-617.328446
 20
92.849035
 30
0.0
 11
-617.328446
 21
110.899035
 31
0.0
  0
LINE
  5
7A9
100
AcDbEntity
  8
2
  6
CENTER
 62
     2
100
AcDbLine
 10
-626.328446
 20
101.849035
 30
0.0
 11
-608.278446
 21
101.849035
 31
0.0
  0
LINE
  5
7AA
100
AcDbEntity
  8
2
  6
CENTER
 62
     2
100
AcDbLine
 10
-617.328446
 20
188.399035
 30
0.0
 11
-617.328446
 21
207.949035
 31
0.0
  0
LINE
  5
7AB
100
AcDbEntity
  8
2
  6
CENTER
 62
     2
100
AcDbLine
 10
-775.428446
 20
151.849035
 30
0.0
 11
-441.828446
 21
151.849035
 31
0.0
  0
LINE
  5
7AC
100
AcDbEntity
  8
2
  6
CENTER
 62
     2
100
AcDbLine
 10
1.516667
 20
151.849035
 30
0.0
 11
257.007605
 21
151.849035
 31
0.0
  0
LINE
  5
7AD
100
AcDbEntity
  8
2
  6
CENTER
 62
     2
100
AcDbLine
 10
125.771554
 20
166.049035
 30
0.0
 11
125.771554
 21
187.649035
 31
0.0
  0
LINE
  5
7AE
100
AcDbEntity
  8
2
  6
CENTER
 62
     2
100
AcDbLine
 10
114.971554
 20
176.849035
 30
0.0
 11
136.571554
 21
176.849035
 31
0.0
  0
LINE
  5
7AF
100
AcDbEntity
  8
2
  6
CENTER
 62
     2
100
AcDbLine
 10
125.771554
 20
113.649035
 30
0.0
 11
125.771554
 21
92.049035
 31
0.0
  0
LINE
  5
7B0
100
AcDbEntity
  8
2
  6
CENTER
 62
     2
100
AcDbLine
 10
114.971554
 20
102.849035
 30
0.0
 11
136.571554
 21
102.849035
 31
0.0
  0
LINE
  5
7B1
100
AcDbEntity
  8
2
  6
CENTER
 62
     2
100
AcDbLine
 10
223.771554
 20
166.049035
 30
0.0
 11
223.771554
 21
187.649035
 31
0.0
  0
LINE
  5
7B2
100
AcDbEntity
  8
2
  6
CENTER
 62
     2
100
AcDbLine
 10
234.571554
 20
176.849035
 30
0.0
 11
212.971554
 21
176.849035
 31
0.0
  0
LINE
  5
7B3
100
AcDbEntity
  8
2
  6
CENTER
 62
     2
100
AcDbLine
 10
223.771554
 20
113.649035
 30
0.0
 11
223.771554
 21
92.049035
 31
0.0
  0
LINE
  5
7B4
100
AcDbEntity
  8
2
  6
CENTER
 62
     2
100
AcDbLine
 10
234.571554
 20
102.849035
 30
0.0
 11
212.971554
 21
102.849035
 31
0.0
  0
LINE
  5
7B5
100
AcDbEntity
  8
2
  6
CENTER
 62
     2
100
AcDbLine
 10
-475.378446
 20
176.849035
 30
0.0
 11
-452.378446
 21
176.849035
 31
0.0
  0
LINE
  5
7B6
100
AcDbEntity
  8
2
  6
CENTER
 62
     2
100
AcDbLine
 10
-452.378446
 20
102.849035
 30
0.0
 11
-475.378446
 21
102.849035
 31
0.0
  0
LINE
  5
7B7
100
AcDbEntity
  8
2
  6
CENTER
 62
     2
100
AcDbLine
 10
-752.328446
 20
460.399035
 30
0.0
 11
-752.328446
 21
511.837613
 31
0.0
  0
LINE
  5
7B8
100
AcDbEntity
  8
2
  6
CENTER
 62
     2
100
AcDbLine
 10
-617.328446
 20
507.759214
 30
0.0
 11
-617.328446
 21
461.599035
 31
0.0
  0
LINE
  5
7B9
100
AcDbEntity
  8
2
  6
CENTER
 62
     2
100
AcDbLine
 10
-490.328446
 20
461.599035
 30
0.0
 11
-490.328446
 21
511.318601
 31
0.0
  0
LINE
  5
7BA
100
AcDbEntity
  8
2
  6
CENTER
 62
     2
100
AcDbLine
 10
-480.028446
 20
520.649035
 30
0.0
 11
-453.478446
 21
520.649035
 31
0.0
  0
LINE
  5
7BB
100
AcDbEntity
  8
2
  6
CENTER
 62
     2
100
AcDbLine
 10
-453.478446
 20
618.649035
 30
0.0
 11
-478.328446
 21
618.649035
 31
0.0
  0
LINE
  5
7BC
100
AcDbEntity
  8
2
  6
CENTER
 62
     2
100
AcDbLine
 10
-489.445768
 20
586.649035
 30
0.0
 11
-520.428446
 21
586.649035
 31
0.0
  0
LINE
  5
7BD
100
AcDbEntity
  8
2
  6
CENTER
 62
     2
100
AcDbLine
 10
-522.267333
 20
546.649035
 30
0.0
 11
-489.445768
 21
546.649035
 31
0.0
  0
LINE
  5
7BE
100
AcDbEntity
  8
2
  6
CENTER
 62
     2
100
AcDbLine
 10
248.549866
 20
135.849035
 30
0.0
 11
261.421362
 21
135.849035
 31
0.0
  0
LINE
  5
7BF
100
AcDbEntity
  8
2
  6
CENTER
 62
     2
100
AcDbLine
 10
-627.951677
 20
198.779035
 30
0.0
 11
-607.492182
 21
198.779035
 31
0.0
  0
LINE
  5
7C0
100
AcDbEntity
  8
2
  6
CENTER
 62
     2
100
AcDbLine
 10
-752.328446
 20
154.571833
 30
0.0
 11
-752.328446
 21
138.916204
 31
0.0
  0
LINE
  5
7C1
100
AcDbEntity
  8
2
  6
CENTER
 62
     2
100
AcDbLine
 10
65.457251
 20
202.849035
 30
0.0
 11
116.025488
 21
202.849035
 31
0.0
  0
LINE
  5
7C2
100
AcDbEntity
  8
2
  6
CENTER
 62
     2
100
AcDbLine
 10
65.927618
 20
104.849035
 30
0.0
 11
115.843878
 21
104.849035
 31
0.0
  0
LINE
  5
7C3
100
AcDbEntity
  8
2
100
AcDbLine
 10
77.771554
 20
196.353511
 30
0.0
 11
74.298063
 21
195.050287
 31
0.0
  0
LINE
  5
7C4
100
AcDbEntity
  8
2
100
AcDbLine
 10
-496.694347
 20
469.77657
 30
0.0
 11
-496.694347
 21
472.649035
 31
0.0
  0
ARC
  5
7C5
100
AcDbEntity
  8
2
100
AcDbCircle
 10
-493.390812
 20
469.77657
 30
0.0
 40
3.303535
100
AcDbArc
 50
180.0
 51
310.859891
  0
LINE
  5
7C6
100
AcDbEntity
  8
2
100
AcDbLine
 10
77.771554
 20
111.348133
 30
0.0
 11
72.139468
 21
113.244317
 31
0.0
  0
LINE
  5
7C7
100
AcDbEntity
  8
2
100
AcDbLine
 10
72.562795
 20
107.155155
 30
0.0
 11
71.208921
 21
107.512273
 31
0.0
  0
LINE
  5
7C8
100
AcDbEntity
  8
2
100
AcDbLine
 10
69.514279
 20
111.121505
 30
0.0
 11
69.731986
 21
109.218774
 31
0.0
  0
ARC
  5
7C9
100
AcDbEntity
  8
2
100
AcDbCircle
 10
71.719022
 20
109.446128
 30
0.0
 40
2.0
100
AcDbArc
 50
186.527319
 51
255.223414
  0
ARC
  5
7CA
100
AcDbEntity
  8
2
100
AcDbCircle
 10
71.501314
 20
111.348859
 30
0.0
 40
2.0
100
AcDbArc
 50
71.392894
 51
186.527319
  0
LINE
  5
7CB
100
AcDbEntity
  8
2
100
AcDbLine
 10
71.595502
 20
198.049768
 30
0.0
 11
71.595502
 21
196.922828
 31
0.0
  0
ARC
  5
7CC
100
AcDbEntity
  8
2
100
AcDbCircle
 10
73.595502
 20
198.049768
 30
0.0
 40
2.0
100
AcDbArc
 50
116.623552
 51
180.0
  0
ARC
  5
7CD
100
AcDbEntity
  8
2
100
AcDbCircle
 10
73.595502
 20
196.922828
 30
0.0
 40
2.0
100
AcDbArc
 50
180.0
 51
290.565661
  0
LINE
  5
7CE
100
AcDbEntity
  8
2
100
AcDbLine
 10
-754.449767
 20
144.727715
 30
0.0
 11
-750.207126
 21
148.970356
 31
0.0
  0
LINE
  5
7CF
100
AcDbEntity
  8
2
100
AcDbLine
 10
-750.207126
 20
144.727715
 30
0.0
 11
-754.449767
 21
148.970356
 31
0.0
  0
LINE
  5
7D0
100
AcDbEntity
  8
2
100
AcDbLine
 10
-619.449767
 20
196.657715
 30
0.0
 11
-615.207126
 21
200.900356
 31
0.0
  0
LINE
  5
7D1
100
AcDbEntity
  8
2
100
AcDbLine
 10
-615.207126
 20
196.657715
 30
0.0
 11
-619.449767
 21
200.900356
 31
0.0
  0
LINE
  5
7D2
100
AcDbEntity
  8
2
100
AcDbLine
 10
-619.449767
 20
99.727715
 30
0.0
 11
-615.207126
 21
103.970356
 31
0.0
  0
LINE
  5
7D3
100
AcDbEntity
  8
2
100
AcDbLine
 10
-615.207126
 20
99.727715
 30
0.0
 11
-619.449767
 21
103.970356
 31
0.0
  0
LINE
  5
7D4
100
AcDbEntity
  8
2
100
AcDbLine
 10
-492.449767
 20
200.727715
 30
0.0
 11
-488.207126
 21
204.970356
 31
0.0
  0
LINE
  5
7D5
100
AcDbEntity
  8
2
100
AcDbLine
 10
-488.207126
 20
200.727715
 30
0.0
 11
-492.449767
 21
204.970356
 31
0.0
  0
LINE
  5
7D6
100
AcDbEntity
  8
2
100
AcDbLine
 10
-489.449767
 20
102.727715
 30
0.0
 11
-485.207126
 21
106.970356
 31
0.0
  0
LINE
  5
7D7
100
AcDbEntity
  8
2
100
AcDbLine
 10
-485.207126
 20
102.727715
 30
0.0
 11
-489.449767
 21
106.970356
 31
0.0
  0
LINE
  5
7D8
100
AcDbEntity
  8
2
100
AcDbLine
 10
123.650233
 20
174.727715
 30
0.0
 11
127.892874
 21
178.970356
 31
0.0
  0
LINE
  5
7D9
100
AcDbEntity
  8
2
100
AcDbLine
 10
127.892874
 20
174.727715
 30
0.0
 11
123.650233
 21
178.970356
 31
0.0
  0
LINE
  5
7DA
100
AcDbEntity
  8
2
100
AcDbLine
 10
-515.449767
 20
608.527715
 30
0.0
 11
-511.207126
 21
612.770356
 31
0.0
  0
LINE
  5
7DB
100
AcDbEntity
  8
2
100
AcDbLine
 10
-511.207126
 20
608.527715
 30
0.0
 11
-515.449767
 21
612.770356
 31
0.0
  0
LINE
  5
7DC
100
AcDbEntity
  8
2
100
AcDbLine
 10
-567.911942
 20
590.16554
 30
0.0
 11
-563.711942
 21
590.16554
 31
0.0
  0
LINE
  5
7DD
100
AcDbEntity
  8
2
100
AcDbLine
 10
-565.811942
 20
588.06554
 30
0.0
 11
-565.811942
 21
592.26554
 31
0.0
  0
LINE
  5
7DE
100
AcDbEntity
  8
2
100
AcDbLine
 10
-620.944951
 20
590.16554
 30
0.0
 11
-616.744951
 21
590.16554
 31
0.0
  0
LINE
  5
7DF
100
AcDbEntity
  8
2
100
AcDbLine
 10
-618.844951
 20
588.06554
 30
0.0
 11
-618.844951
 21
592.26554
 31
0.0
  0
LINE
  5
7E0
100
AcDbEntity
  8
2
100
AcDbLine
 10
-567.911942
 20
537.132531
 30
0.0
 11
-563.711942
 21
537.132531
 31
0.0
  0
LINE
  5
7E1
100
AcDbEntity
  8
2
100
AcDbLine
 10
-565.811942
 20
535.032531
 30
0.0
 11
-565.811942
 21
539.232531
 31
0.0
  0
LINE
  5
7E2
100
AcDbEntity
  8
2
100
AcDbLine
 10
-620.944951
 20
537.132531
 30
0.0
 11
-616.744951
 21
537.132531
 31
0.0
  0
LINE
  5
7E3
100
AcDbEntity
  8
2
100
AcDbLine
 10
-618.844951
 20
535.032531
 30
0.0
 11
-618.844951
 21
539.232531
 31
0.0
  0
LINE
  5
7E4
100
AcDbEntity
  8
2
100
AcDbLine
 10
-515.449767
 20
520.527715
 30
0.0
 11
-511.207126
 21
524.770356
 31
0.0
  0
LINE
  5
7E5
100
AcDbEntity
  8
2
100
AcDbLine
 10
-511.207126
 20
520.527715
 30
0.0
 11
-515.449767
 21
524.770356
 31
0.0
  0
LINE
  5
7E6
100
AcDbEntity
  8
2
100
AcDbLine
 10
-661.449767
 20
608.527715
 30
0.0
 11
-657.207126
 21
612.770356
 31
0.0
  0
LINE
  5
7E7
100
AcDbEntity
  8
2
100
AcDbLine
 10
-657.207126
 20
608.527715
 30
0.0
 11
-661.449767
 21
612.770356
 31
0.0
  0
LINE
  5
7E8
100
AcDbEntity
  8
2
100
AcDbLine
 10
-661.449767
 20
520.527715
 30
0.0
 11
-657.207126
 21
524.770356
 31
0.0
  0
LINE
  5
7E9
100
AcDbEntity
  8
2
100
AcDbLine
 10
-657.207126
 20
520.527715
 30
0.0
 11
-661.449767
 21
524.770356
 31
0.0
  0
LINE
  5
7EA
100
AcDbEntity
  8
2
100
AcDbLine
 10
123.650233
 20
100.727715
 30
0.0
 11
127.892874
 21
104.970356
 31
0.0
  0
LINE
  5
7EB
100
AcDbEntity
  8
2
100
AcDbLine
 10
127.892874
 20
100.727715
 30
0.0
 11
123.650233
 21
104.970356
 31
0.0
  0
LINE
  5
7EC
100
AcDbEntity
  8
2
100
AcDbLine
 10
221.650233
 20
174.727715
 30
0.0
 11
225.892874
 21
178.970356
 31
0.0
  0
LINE
  5
7ED
100
AcDbEntity
  8
2
100
AcDbLine
 10
225.892874
 20
174.727715
 30
0.0
 11
221.650233
 21
178.970356
 31
0.0
  0
LINE
  5
7EE
100
AcDbEntity
  8
2
100
AcDbLine
 10
221.650233
 20
100.727715
 30
0.0
 11
225.892874
 21
104.970356
 31
0.0
  0
LINE
  5
7EF
100
AcDbEntity
  8
2
100
AcDbLine
 10
225.892874
 20
100.727715
 30
0.0
 11
221.650233
 21
104.970356
 31
0.0
  0
LINE
  5
7F0
100
AcDbEntity
  8
2
100
AcDbLine
 10
-758.328446
 20
111.849035
 30
0.0
 11
-758.328446
 21
86.849035
 31
0.0
  0
ARC
  5
7F1
100
AcDbEntity
  8
2
100
AcDbCircle
 10
-756.328446
 20
86.849035
 30
0.0
 40
2.0
100
AcDbArc
 50
180.0
 51
270.0
  0
LINE
  5
7F2
100
AcDbEntity
  8
2
100
AcDbLine
 10
-500.328446
 20
93.849035
 30
0.0
 11
-500.328446
 21
86.849035
 31
0.0
  0
LINE
  5
7F3
100
AcDbEntity
  8
2
100
AcDbLine
 10
-501.078446
 20
84.849035
 30
0.0
 11
-757.578446
 21
84.849035
 31
0.0
  0
ARC
  5
7F4
100
AcDbEntity
  8
2
100
AcDbCircle
 10
-502.328446
 20
86.849035
 30
0.0
 40
2.0
100
AcDbArc
 50
270.0
 51
360.0
  0
LINE
  5
7F5
100
AcDbEntity
  8
2
100
AcDbLine
 10
-743.078446
 20
82.849035
 30
0.0
 11
-757.578446
 21
82.849035
 31
0.0
  0
LINE
  5
7F6
100
AcDbEntity
  8
2
100
AcDbLine
 10
-743.078446
 20
84.849035
 30
0.0
 11
-743.078446
 21
82.849035
 31
0.0
  0
LINE
  5
7F7
100
AcDbEntity
  8
2
100
AcDbLine
 10
-757.578446
 20
84.849035
 30
0.0
 11
-757.578446
 21
82.849035
 31
0.0
  0
LINE
  5
7F8
100
AcDbEntity
  8
2
100
AcDbLine
 10
-743.328446
 20
82.849035
 30
0.0
 11
-743.328446
 21
80.890987
 31
0.0
  0
LINE
  5
7F9
100
AcDbEntity
  8
2
100
AcDbLine
 10
-757.328446
 20
82.849035
 30
0.0
 11
-757.328446
 21
80.890987
 31
0.0
  0
ARC
  5
7FA
100
AcDbEntity
  8
2
100
AcDbCircle
 10
-750.328446
 20
95.649035
 30
0.0
 40
18.0
100
AcDbArc
 50
253.39845
 51
286.60155
  0
ARC
  5
7FB
100
AcDbEntity
  8
2
100
AcDbCircle
 10
-754.728446
 20
80.890987
 30
0.0
 40
2.6
100
AcDbArc
 50
180.0
 51
253.39845
  0
ARC
  5
7FC
100
AcDbEntity
  8
2
100
AcDbCircle
 10
-745.928446
 20
80.890987
 30
0.0
 40
2.6
100
AcDbArc
 50
286.60155
 51
360.0
  0
LINE
  5
7FD
100
AcDbEntity
  8
2
100
AcDbLine
 10
-634.078446
 20
82.849035
 30
0.0
 11
-648.578446
 21
82.849035
 31
0.0
  0
LINE
  5
7FE
100
AcDbEntity
  8
2
100
AcDbLine
 10
-634.078446
 20
84.849035
 30
0.0
 11
-634.078446
 21
82.849035
 31
0.0
  0
LINE
  5
7FF
100
AcDbEntity
  8
2
100
AcDbLine
 10
-648.578446
 20
84.849035
 30
0.0
 11
-648.578446
 21
82.849035
 31
0.0
  0
LINE
  5
800
100
AcDbEntity
  8
2
100
AcDbLine
 10
-634.328446
 20
82.849035
 30
0.0
 11
-634.328446
 21
80.890987
 31
0.0
  0
LINE
  5
801
100
AcDbEntity
  8
2
100
AcDbLine
 10
-648.328446
 20
82.849035
 30
0.0
 11
-648.328446
 21
80.890987
 31
0.0
  0
ARC
  5
802
100
AcDbEntity
  8
2
100
AcDbCircle
 10
-641.328446
 20
95.649035
 30
0.0
 40
18.0
100
AcDbArc
 50
253.39845
 51
286.60155
  0
ARC
  5
803
100
AcDbEntity
  8
2
100
AcDbCircle
 10
-645.728446
 20
80.890987
 30
0.0
 40
2.6
100
AcDbArc
 50
180.0
 51
253.39845
  0
ARC
  5
804
100
AcDbEntity
  8
2
100
AcDbCircle
 10
-636.928446
 20
80.890987
 30
0.0
 40
2.6
100
AcDbArc
 50
286.60155
 51
360.0
  0
LINE
  5
805
100
AcDbEntity
  8
2
100
AcDbLine
 10
-501.078446
 20
82.849035
 30
0.0
 11
-515.578446
 21
82.849035
 31
0.0
  0
LINE
  5
806
100
AcDbEntity
  8
2
100
AcDbLine
 10
-501.078446
 20
84.849035
 30
0.0
 11
-501.078446
 21
82.849035
 31
0.0
  0
LINE
  5
807
100
AcDbEntity
  8
2
100
AcDbLine
 10
-515.578446
 20
84.849035
 30
0.0
 11
-515.578446
 21
82.849035
 31
0.0
  0
LINE
  5
808
100
AcDbEntity
  8
2
100
AcDbLine
 10
-501.328446
 20
82.849035
 30
0.0
 11
-501.328446
 21
80.890987
 31
0.0
  0
LINE
  5
809
100
AcDbEntity
  8
2
100
AcDbLine
 10
-515.328446
 20
82.849035
 30
0.0
 11
-515.328446
 21
80.890987
 31
0.0
  0
ARC
  5
80A
100
AcDbEntity
  8
2
100
AcDbCircle
 10
-508.328446
 20
95.649035
 30
0.0
 40
18.0
100
AcDbArc
 50
253.39845
 51
286.60155
  0
ARC
  5
80B
100
AcDbEntity
  8
2
100
AcDbCircle
 10
-512.728446
 20
80.890987
 30
0.0
 40
2.6
100
AcDbArc
 50
180.0
 51
253.39845
  0
ARC
  5
80C
100
AcDbEntity
  8
2
100
AcDbCircle
 10
-503.928446
 20
80.890987
 30
0.0
 40
2.6
100
AcDbArc
 50
286.60155
 51
360.0
  0
LINE
  5
80D
100
AcDbEntity
  8
2
  6
CENTER
 62
     2
100
AcDbLine
 10
-750.328446
 20
102.999035
 30
0.0
 11
-750.328446
 21
72.358797
 31
0.0
  0
LINE
  5
80E
100
AcDbEntity
  8
2
  6
CENTER
 62
     2
100
AcDbLine
 10
-641.328446
 20
72.358797
 30
0.0
 11
-641.328446
 21
102.999035
 31
0.0
  0
LINE
  5
80F
100
AcDbEntity
  8
2
  6
CENTER
 62
     2
100
AcDbLine
 10
-508.328446
 20
102.999035
 30
0.0
 11
-508.328446
 21
72.358797
 31
0.0
  0
LINE
  5
810
100
AcDbEntity
  8
2
100
AcDbLine
 10
-654.828446
 20
82.849035
 30
0.0
 11
-654.828446
 21
68.849035
 31
0.0
  0
LINE
  5
811
100
AcDbEntity
  8
2
100
AcDbLine
 10
-529.828446
 20
82.849035
 30
0.0
 11
-529.828446
 21
68.849035
 31
0.0
  0
ARC
  5
812
100
AcDbEntity
  8
2
100
AcDbCircle
 10
-527.828446
 20
82.849035
 30
0.0
 40
2.0
100
AcDbArc
 50
90.0
 51
180.0
  0
ARC
  5
813
100
AcDbEntity
  8
2
100
AcDbCircle
 10
-656.828446
 20
82.849035
 30
0.0
 40
2.0
100
AcDbArc
 50
0.0
 51
90.0
  0
LINE
  5
814
100
AcDbEntity
  8
2
100
AcDbLine
 10
235.021554
 20
84.849035
 30
0.0
 11
102.521554
 21
84.849035
 31
0.0
  0
LINE
  5
815
100
AcDbEntity
  8
2
100
AcDbLine
 10
101.771554
 20
97.849035
 30
0.0
 11
101.771554
 21
86.849035
 31
0.0
  0
LINE
  5
816
100
AcDbEntity
  8
2
100
AcDbLine
 10
235.771554
 20
111.849035
 30
0.0
 11
235.771554
 21
86.849035
 31
0.0
  0
ARC
  5
817
100
AcDbEntity
  8
2
100
AcDbCircle
 10
233.771554
 20
86.849035
 30
0.0
 40
2.0
100
AcDbArc
 50
270.0
 51
360.0
  0
ARC
  5
818
100
AcDbEntity
  8
2
100
AcDbCircle
 10
103.771554
 20
86.849035
 30
0.0
 40
2.0
100
AcDbArc
 50
180.0
 51
270.0
  0
LINE
  5
819
100
AcDbEntity
  8
2
100
AcDbLine
 10
117.021554
 20
82.849035
 30
0.0
 11
102.521554
 21
82.849035
 31
0.0
  0
LINE
  5
81A
100
AcDbEntity
  8
2
100
AcDbLine
 10
117.021554
 20
84.849035
 30
0.0
 11
117.021554
 21
82.849035
 31
0.0
  0
LINE
  5
81B
100
AcDbEntity
  8
2
100
AcDbLine
 10
102.521554
 20
84.849035
 30
0.0
 11
102.521554
 21
82.849035
 31
0.0
  0
LINE
  5
81C
100
AcDbEntity
  8
2
100
AcDbLine
 10
116.771554
 20
82.849035
 30
0.0
 11
116.771554
 21
80.890987
 31
0.0
  0
LINE
  5
81D
100
AcDbEntity
  8
2
100
AcDbLine
 10
102.771554
 20
82.849035
 30
0.0
 11
102.771554
 21
80.890987
 31
0.0
  0
ARC
  5
81E
100
AcDbEntity
  8
2
100
AcDbCircle
 10
109.771554
 20
95.649035
 30
0.0
 40
18.0
100
AcDbArc
 50
253.39845
 51
286.60155
  0
ARC
  5
81F
100
AcDbEntity
  8
2
100
AcDbCircle
 10
105.371554
 20
80.890987
 30
0.0
 40
2.6
100
AcDbArc
 50
180.0
 51
253.39845
  0
ARC
  5
820
100
AcDbEntity
  8
2
100
AcDbCircle
 10
114.171554
 20
80.890987
 30
0.0
 40
2.6
100
AcDbArc
 50
286.60155
 51
360.0
  0
LINE
  5
821
100
AcDbEntity
  8
2
100
AcDbLine
 10
235.021554
 20
82.849035
 30
0.0
 11
220.521554
 21
82.849035
 31
0.0
  0
LINE
  5
822
100
AcDbEntity
  8
2
100
AcDbLine
 10
235.021554
 20
84.849035
 30
0.0
 11
235.021554
 21
82.849035
 31
0.0
  0
LINE
  5
823
100
AcDbEntity
  8
2
100
AcDbLine
 10
220.521554
 20
84.849035
 30
0.0
 11
220.521554
 21
82.849035
 31
0.0
  0
LINE
  5
824
100
AcDbEntity
  8
2
100
AcDbLine
 10
234.771554
 20
82.849035
 30
0.0
 11
234.771554
 21
80.890987
 31
0.0
  0
LINE
  5
825
100
AcDbEntity
  8
2
100
AcDbLine
 10
220.771554
 20
82.849035
 30
0.0
 11
220.771554
 21
80.890987
 31
0.0
  0
ARC
  5
826
100
AcDbEntity
  8
2
100
AcDbCircle
 10
227.771554
 20
95.649035
 30
0.0
 40
18.0
100
AcDbArc
 50
253.39845
 51
286.60155
  0
ARC
  5
827
100
AcDbEntity
  8
2
100
AcDbCircle
 10
223.371554
 20
80.890987
 30
0.0
 40
2.6
100
AcDbArc
 50
180.0
 51
253.39845
  0
ARC
  5
828
100
AcDbEntity
  8
2
100
AcDbCircle
 10
232.171554
 20
80.890987
 30
0.0
 40
2.6
100
AcDbArc
 50
286.60155
 51
360.0
  0
LINE
  5
829
100
AcDbEntity
  8
2
  6
CENTER
 62
     2
100
AcDbLine
 10
109.771554
 20
72.358797
 30
0.0
 11
109.771554
 21
97.249035
 31
0.0
  0
LINE
  5
82A
100
AcDbEntity
  8
2
  6
CENTER
 62
     2
100
AcDbLine
 10
227.771554
 20
96.049035
 30
0.0
 11
227.771554
 21
72.358797
 31
0.0
  0
LINE
  5
82B
100
AcDbEntity
  8
2
100
AcDbLine
 10
231.271554
 20
77.992592
 30
0.0
 11
231.271554
 21
68.849035
 31
0.0
  0
LINE
  5
82C
100
AcDbEntity
  8
2
100
AcDbLine
 10
106.271554
 20
77.992592
 30
0.0
 11
106.271554
 21
68.849035
 31
0.0
  0
TEXT
  5
82D
100
AcDbEntity
  8
2
100
AcDbText
 10
-586.908961
 20
540.635362
 30
0.0
 40
7.6
  1
Ｓ
 50
22.5
 72
     5
 11
-581.291773
 21
542.962077
 31
0.0
100
AcDbText
  0
TEXT
  5
82E
100
AcDbEntity
  8
2
100
AcDbText
 10
-597.747932
 20
586.662709
 30
0.0
 40
7.6
  1
Ｓ
 50
202.5
 72
     5
 11
-603.365119
 21
584.335994
 31
0.0
100
AcDbText
  0
TEXT
  5
82F
100
AcDbEntity
  8
2
100
AcDbText
 10
-586.083513
 20
248.256452
 30
0.0
 40
7.6
  1
Ｓ
 50
31.641
 72
     5
 11
-580.907295
 21
251.445992
 31
0.0
100
AcDbText
  0
TEXT
  5
830
100
AcDbEntity
  8
2
100
AcDbText
 10
-511.608027
 20
150.831242
 30
0.0
 40
9.0
  1
Ｓ
 50
253.0
 72
     5
 11
-513.713103
 21
143.945847
 31
0.0
100
AcDbText
  0
LINE
  5
831
100
AcDbEntity
  8
2
  6
CENTER
 62
     2
100
AcDbLine
 10
-560.508641
 20
81.621984
 30
0.0
 11
-560.508641
 21
52.560623
 31
0.0
  0
LINE
  5
832
100
AcDbEntity
  8
2
  6
CENTER
 62
     2
100
AcDbLine
 10
-624.148252
 20
81.621984
 30
0.0
 11
-624.148252
 21
52.560623
 31
0.0
  0
LINE
  5
833
100
AcDbEntity
  8
2
  6
CENTER
 62
     2
100
AcDbLine
 10
200.591359
 20
81.621984
 30
0.0
 11
200.591359
 21
52.560623
 31
0.0
  0
LINE
  5
834
100
AcDbEntity
  8
2
  6
CENTER
 62
     2
100
AcDbLine
 10
136.951748
 20
81.621984
 30
0.0
 11
136.951748
 21
52.560623
 31
0.0
  0
LINE
  5
835
100
AcDbEntity
  8
3
100
AcDbLine
 10
-513.728195
 20
48.849035
 30
0.0
 11
-672.828446
 21
48.849035
 31
0.0
  0
LINE
  5
836
100
AcDbEntity
  8
3
100
AcDbLine
 10
-515.828446
 20
-141.150965
 30
0.0
 11
-668.828446
 21
-141.150965
 31
0.0
  0
LINE
  5
837
100
AcDbEntity
  8
3
100
AcDbLine
 10
81.271554
 20
48.849035
 30
0.0
 11
256.271554
 21
48.849035
 31
0.0
  0
LINE
  5
838
100
AcDbEntity
  8
3
100
AcDbLine
 10
93.771554
 20
41.849035
 30
0.0
 11
243.771554
 21
41.849035
 31
0.0
  0
LINE
  5
839
100
AcDbEntity
  8
3
100
AcDbLine
 10
93.771554
 20
-141.150965
 30
0.0
 11
243.771554
 21
-141.150965
 31
0.0
  0
LINE
  5
83A
100
AcDbEntity
  8
3
100
AcDbLine
 10
-515.828446
 20
-129.150965
 30
0.0
 11
-668.828446
 21
-129.150965
 31
0.0
  0
LINE
  5
83B
100
AcDbEntity
  8
3
100
AcDbLine
 10
-684.828446
 20
41.849035
 30
0.0
 11
-684.828446
 21
-125.150965
 31
0.0
  0
LINE
  5
83C
100
AcDbEntity
  8
3
100
AcDbLine
 10
-499.828446
 20
41.849035
 30
0.0
 11
-499.828446
 21
-125.150965
 31
0.0
  0
LINE
  5
83D
100
AcDbEntity
  8
3
100
AcDbLine
 10
-511.828446
 20
48.482374
 30
0.0
 11
-511.828446
 21
-125.150965
 31
0.0
  0
LINE
  5
83E
100
AcDbEntity
  8
3
100
AcDbLine
 10
-672.828446
 20
48.849035
 30
0.0
 11
-672.828446
 21
-125.150965
 31
0.0
  0
LINE
  5
83F
100
AcDbEntity
  8
3
100
AcDbLine
 10
-511.828446
 20
33.849035
 30
0.0
 11
-672.828446
 21
33.849035
 31
0.0
  0
LINE
  5
840
100
AcDbEntity
  8
3
100
AcDbLine
 10
-684.828446
 20
41.849035
 30
0.0
 11
-672.828446
 21
41.849035
 31
0.0
  0
LINE
  5
841
100
AcDbEntity
  8
3
100
AcDbLine
 10
-511.828446
 20
41.849035
 30
0.0
 11
-499.828446
 21
41.849035
 31
0.0
  0
ARC
  5
842
100
AcDbEntity
  8
3
100
AcDbCircle
 10
-515.828446
 20
-125.150965
 30
0.0
 40
4.0
100
AcDbArc
 50
270.0
 51
360.0
  0
ARC
  5
843
100
AcDbEntity
  8
3
100
AcDbCircle
 10
-668.828446
 20
-125.150965
 30
0.0
 40
4.0
100
AcDbArc
 50
180.0
 51
270.0
  0
ARC
  5
844
100
AcDbEntity
  8
3
100
AcDbCircle
 10
-515.828446
 20
-125.150965
 30
0.0
 40
16.0
100
AcDbArc
 50
270.0
 51
360.0
  0
ARC
  5
845
100
AcDbEntity
  8
3
100
AcDbCircle
 10
-668.828446
 20
-125.150965
 30
0.0
 40
16.0
100
AcDbArc
 50
180.0
 51
270.0
  0
LINE
  5
846
100
AcDbEntity
  8
3
100
AcDbLine
 10
-511.38095
 20
48.401538
 30
0.0
 11
-504.828446
 21
41.849035
 31
0.0
  0
LINE
  5
847
100
AcDbEntity
  8
3
100
AcDbLine
 10
-672.828446
 20
48.849035
 30
0.0
 11
-679.828446
 21
41.849035
 31
0.0
  0
LINE
  5
848
100
AcDbEntity
  8
3
100
AcDbLine
 10
-511.828446
 20
26.849035
 30
0.0
 11
-518.828446
 21
33.849035
 31
0.0
  0
LINE
  5
849
100
AcDbEntity
  8
3
100
AcDbLine
 10
-672.828446
 20
26.849035
 30
0.0
 11
-665.828446
 21
33.849035
 31
0.0
  0
LINE
  5
84A
100
AcDbEntity
  8
3
100
AcDbLine
 10
-523.828446
 20
48.849035
 30
0.0
 11
-523.828446
 21
33.849035
 31
0.0
  0
LINE
  5
84B
100
AcDbEntity
  8
3
100
AcDbLine
 10
-660.828446
 20
48.849035
 30
0.0
 11
-660.828446
 21
33.849035
 31
0.0
  0
LINE
  5
84C
100
AcDbEntity
  8
3
100
AcDbLine
 10
81.271554
 20
48.849035
 30
0.0
 11
81.271554
 21
33.849035
 31
0.0
  0
LINE
  5
84D
100
AcDbEntity
  8
3
100
AcDbLine
 10
256.271554
 20
48.849035
 30
0.0
 11
256.271554
 21
33.849035
 31
0.0
  0
LINE
  5
84E
100
AcDbEntity
  8
3
100
AcDbLine
 10
93.771554
 20
41.849035
 30
0.0
 11
93.771554
 21
-141.150965
 31
0.0
  0
LINE
  5
84F
100
AcDbEntity
  8
3
100
AcDbLine
 10
243.771554
 20
41.849035
 30
0.0
 11
243.771554
 21
-141.150965
 31
0.0
  0
LINE
  5
850
100
AcDbEntity
  8
3
100
AcDbLine
 10
81.271554
 20
33.849035
 30
0.0
 11
93.771554
 21
33.849035
 31
0.0
  0
LINE
  5
851
100
AcDbEntity
  8
3
100
AcDbLine
 10
243.771554
 20
33.849035
 30
0.0
 11
256.271554
 21
33.849035
 31
0.0
  0
LINE
  5
852
100
AcDbEntity
  8
3
100
AcDbLine
 10
244.271554
 20
48.849035
 30
0.0
 11
244.271554
 21
33.849035
 31
0.0
  0
LINE
  5
853
100
AcDbEntity
  8
3
100
AcDbLine
 10
93.271554
 20
48.849035
 30
0.0
 11
93.271554
 21
33.849035
 31
0.0
  0
LINE
  5
854
100
AcDbEntity
  8
3
100
AcDbLine
 10
-618.828446
 20
-95.150965
 30
0.0
 11
-565.828446
 21
-95.150965
 31
0.0
  0
LINE
  5
855
100
AcDbEntity
  8
3
100
AcDbLine
 10
-616.328446
 20
-20.150965
 30
0.0
 11
-568.328446
 21
-20.150965
 31
0.0
  0
LINE
  5
856
100
AcDbEntity
  8
3
100
AcDbLine
 10
-619.828446
 20
-25.150965
 30
0.0
 11
-619.828446
 21
-94.150965
 31
0.0
  0
LINE
  5
857
100
AcDbEntity
  8
3
100
AcDbLine
 10
-564.828446
 20
-25.150965
 30
0.0
 11
-564.828446
 21
-94.150965
 31
0.0
  0
LINE
  5
858
100
AcDbEntity
  8
3
100
AcDbLine
 10
-564.828446
 20
-94.150965
 30
0.0
 11
-565.828446
 21
-95.150965
 31
0.0
  0
LINE
  5
859
100
AcDbEntity
  8
3
100
AcDbLine
 10
-618.828446
 20
-95.150965
 30
0.0
 11
-619.828446
 21
-94.150965
 31
0.0
  0
LINE
  5
85A
100
AcDbEntity
  8
3
100
AcDbLine
 10
-564.828446
 20
-25.150965
 30
0.0
 11
-619.828446
 21
-25.150965
 31
0.0
  0
LINE
  5
85B
100
AcDbEntity
  8
3
100
AcDbLine
 10
-564.828446
 20
-94.150965
 30
0.0
 11
-619.828446
 21
-94.150965
 31
0.0
  0
LINE
  5
85C
100
AcDbEntity
  8
3
100
AcDbLine
 10
-529.828446
 20
68.849035
 30
0.0
 11
-654.828446
 21
68.849035
 31
0.0
  0
LINE
  5
85D
100
AcDbEntity
  8
3
100
AcDbLine
 10
-654.828446
 20
68.849035
 30
0.0
 11
-654.828446
 21
48.849035
 31
0.0
  0
LINE
  5
85E
100
AcDbEntity
  8
3
100
AcDbLine
 10
-529.828446
 20
68.849035
 30
0.0
 11
-529.828446
 21
48.849035
 31
0.0
  0
LINE
  5
85F
100
AcDbEntity
  8
3
  6
CENTER
 62
     2
100
AcDbLine
 10
-548.134273
 20
63.534935
 30
0.0
 11
-548.134273
 21
15.098426
 31
0.0
  0
LINE
  5
860
100
AcDbEntity
  8
3
  6
CENTER
 62
     2
100
AcDbLine
 10
-636.52262
 20
63.534935
 30
0.0
 11
-636.52262
 21
15.098426
 31
0.0
  0
LINE
  5
861
100
AcDbEntity
  8
3
100
AcDbLine
 10
231.271554
 20
68.849035
 30
0.0
 11
106.271554
 21
68.849035
 31
0.0
  0
LINE
  5
862
100
AcDbEntity
  8
3
100
AcDbLine
 10
106.271554
 20
68.849035
 30
0.0
 11
106.271554
 21
48.849035
 31
0.0
  0
LINE
  5
863
100
AcDbEntity
  8
3
100
AcDbLine
 10
231.271554
 20
68.849035
 30
0.0
 11
231.271554
 21
48.849035
 31
0.0
  0
LINE
  5
864
100
AcDbEntity
  8
3
  6
CENTER
 62
     2
100
AcDbLine
 10
212.965727
 20
63.534935
 30
0.0
 11
212.965727
 21
15.098426
 31
0.0
  0
LINE
  5
865
100
AcDbEntity
  8
3
  6
CENTER
 62
     2
100
AcDbLine
 10
124.57738
 20
63.534935
 30
0.0
 11
124.57738
 21
15.098426
 31
0.0
  0
LINE
  5
866
100
AcDbEntity
  8
3
100
AcDbLine
 10
-616.328446
 20
-20.150965
 30
0.0
 11
-616.328446
 21
33.849035
 31
0.0
  0
LINE
  5
867
100
AcDbEntity
  8
3
100
AcDbLine
 10
-568.328446
 20
-20.150965
 30
0.0
 11
-568.328446
 21
33.849035
 31
0.0
  0
LINE
  5
868
100
AcDbEntity
  8
3
100
AcDbLine
 10
-568.328446
 20
-20.150965
 30
0.0
 11
-564.828446
 21
-25.150965
 31
0.0
  0
LINE
  5
869
100
AcDbEntity
  8
3
100
AcDbLine
 10
-616.328446
 20
-20.150965
 30
0.0
 11
-619.828446
 21
-25.150965
 31
0.0
  0
LINE
  5
86A
100
AcDbEntity
  8
3
100
AcDbLine
 10
-523.828446
 20
651.149035
 30
0.0
 11
-660.828446
 21
651.149035
 31
0.0
  0
LINE
  5
86B
100
AcDbEntity
  8
3
100
AcDbLine
 10
-511.828446
 20
639.149035
 30
0.0
 11
-511.828446
 21
630.649035
 31
0.0
  0
LINE
  5
86C
100
AcDbEntity
  8
3
100
AcDbLine
 10
-499.828446
 20
639.149035
 30
0.0
 11
-499.828446
 21
622.649035
 31
0.0
  0
LINE
  5
86D
100
AcDbEntity
  8
3
100
AcDbLine
 10
-660.828446
 20
651.149035
 30
0.0
 11
-671.328446
 21
640.649035
 31
0.0
  0
LINE
  5
86E
100
AcDbEntity
  8
3
100
AcDbLine
 10
-523.828446
 20
651.149035
 30
0.0
 11
-511.828446
 21
639.149035
 31
0.0
  0
LINE
  5
86F
100
AcDbEntity
  8
3
100
AcDbLine
 10
-511.828446
 20
639.149035
 30
0.0
 11
-499.828446
 21
639.149035
 31
0.0
  0
DIMENSION
  5
870
100
AcDbEntity
  8
5
100
AcDbDimension
  2
*D0
 10
168.771554
 20
-708.318573
 30
0.0
 11
109.911554
 21
-695.418573
 31
0.0
  1
30
100
AcDbAlignedDimension
 13
138.771554
 23
-586.650965
 33
0.0
 14
168.771554
 24
-679.498468
 34
0.0
100
AcDbRotatedDimension
  0
DIMENSION
  5
871
100
AcDbEntity
  8
5
100
AcDbDimension
  2
*D1
 10
208.771554
 20
-758.517487
 30
0.0
 11
173.771554
 21
-745.617487
 31
0.0
  1
70
100
AcDbAlignedDimension
 13
138.771554
 23
-586.650965
 33
0.0
 14
208.771554
 24
-586.650965
 34
0.0
100
AcDbRotatedDimension
  0
TEXT
  5
872
100
AcDbEntity
  8
5
100
AcDbText
 10
578.571625
 20
373.413712
 30
0.0
 40
30.0
  1
駆動部・・・４Ｉ－２．５型 
 72
     5
 11
962.571625
 21
373.413712
 31
0.0
100
AcDbText
  0
DIMENSION
  5
873
100
AcDbEntity
  8
5
100
AcDbDimension
  2
*D2
 10
-592.328446
 20
708.18219
 30
0.0
 11
-675.828446
 21
721.08219
 31
0.0
  1
167
100
AcDbAlignedDimension
 13
-759.328446
 23
486.649035
 33
0.0
 14
-592.328446
 24
671.434387
 34
0.0
100
AcDbRotatedDimension
  0
DIMENSION
  5
874
100
AcDbEntity
  8
5
100
AcDbDimension
  2
*D3
 10
-449.328446
 20
708.18219
 30
0.0
 11
-520.828446
 21
721.08219
 31
0.0
  1
143
100
AcDbAlignedDimension
 13
-592.328446
 23
671.434387
 33
0.0
 14
-449.328446
 24
618.576252
 34
0.0
100
AcDbRotatedDimension
  0
DIMENSION
  5
875
100
AcDbEntity
  8
5
100
AcDbDimension
  2
*D4
 10
-314.890022
 20
563.649035
 30
0.0
 11
-338.680022
 21
485.659035
 31
0.0
  1
154
100
AcDbAlignedDimension
 13
-498.045879
 23
409.649035
 33
0.0
 14
-367.898847
 24
563.649035
 34
0.0
 50
90.0
100
AcDbRotatedDimension
  0
DIMENSION
  5
876
100
AcDbEntity
  8
5
100
AcDbDimension
  2
*D5
 10
-314.890022
 20
648.649035
 30
0.0
 11
-331.750022
 21
612.089035
 31
0.0
  1
85
100
AcDbAlignedDimension
 13
-367.898847
 23
563.649035
 33
0.0
 14
-564.004946
 24
648.649035
 34
0.0
 50
90.0
100
AcDbRotatedDimension
  0
DIMENSION
  5
877
100
AcDbEntity
  8
5
100
AcDbDimension
  2
*D6
 10
-31.989201
 20
101.849035
 30
0.0
 11
-62.7092
 21
143.929035
 31
0.0
 70
     1
  1
%%c100
100
AcDbAlignedDimension
 13
22.821554
 23
201.849035
 33
0.0
 14
22.821554
 24
101.849035
 34
0.0
 50
90.0
  0
DIMENSION
  5
878
100
AcDbEntity
  8
5
100
AcDbDimension
  2
*D7
 10
-109.605755
 20
269.849035
 30
0.0
 11
-133.395755
 21
168.359035
 31
0.0
  1
201
100
AcDbAlignedDimension
 13
106.271554
 23
68.849035
 33
0.0
 14
168.771554
 24
269.849035
 34
0.0
 50
90.0
100
AcDbRotatedDimension
  0
DIMENSION
  5
879
100
AcDbEntity
  8
5
100
AcDbDimension
  2
*D8
 10
-109.605755
 20
68.849035
 30
0.0
 11
-133.395755
 21
-37.140965
 31
0.0
  1
210
100
AcDbAlignedDimension
 13
93.771554
 23
-141.150965
 33
0.0
 14
106.271554
 24
68.849035
 34
0.0
 50
90.0
100
AcDbRotatedDimension
  0
DIMENSION
  5
87A
100
AcDbEntity
  8
5
100
AcDbDimension
  2
*D9
 10
-109.605755
 20
-141.150965
 30
0.0
 11
-133.395755
 21
-283.640965
 31
0.0
  1
283
100
AcDbAlignedDimension
 13
99.389062
 23
-424.150965
 33
0.0
 14
93.771554
 24
-141.150965
 34
0.0
 50
90.0
100
AcDbRotatedDimension
  0
DIMENSION
  5
87B
100
AcDbEntity
  8
5
100
AcDbDimension
  2
*D10
 10
-109.605755
 20
-424.150965
 30
0.0
 11
-133.395755
 21
-542.890965
 31
0.0
  1
236
100
AcDbAlignedDimension
 13
143.271554
 23
-659.650965
 33
0.0
 14
99.389062
 24
-424.150965
 34
0.0
 50
90.0
100
AcDbRotatedDimension
  0
LINE
  5
87C
100
AcDbEntity
  8
18
100
AcDbLine
 10
322.771554
 20
-424.150965
 30
0.0
 11
502.771554
 21
-424.150965
 31
0.0
  0
LINE
  5
87D
100
AcDbEntity
  8
18
100
AcDbLine
 10
322.771554
 20
-424.150965
 30
0.0
 11
382.771554
 21
-408.074013
 31
0.0
  0
LINE
  5
87E
100
AcDbEntity
  8
18
100
AcDbLine
 10
382.771554
 20
-408.074013
 30
0.0
 11
382.771554
 21
-440.227916
 31
0.0
  0
LINE
  5
87F
100
AcDbEntity
  8
18
100
AcDbLine
 10
322.771554
 20
-424.150965
 30
0.0
 11
382.771554
 21
-440.227916
 31
0.0
  0
LINE
  5
880
100
AcDbEntity
  8
18
100
AcDbLine
 10
412.042007
 20
690.555588
 30
0.0
 11
412.042007
 21
480.555588
 31
0.0
  0
LINE
  5
881
100
AcDbEntity
  8
18
100
AcDbLine
 10
1084.042007
 20
540.555588
 30
0.0
 11
412.042007
 21
540.555588
 31
0.0
  0
LINE
  5
882
100
AcDbEntity
  8
18
100
AcDbLine
 10
1084.042007
 20
510.555588
 30
0.0
 11
412.042007
 21
510.555588
 31
0.0
  0
LINE
  5
883
100
AcDbEntity
  8
18
100
AcDbLine
 10
1084.042007
 20
480.555588
 30
0.0
 11
412.042007
 21
480.555588
 31
0.0
  0
LINE
  5
884
100
AcDbEntity
  8
18
100
AcDbLine
 10
580.042007
 20
690.555588
 30
0.0
 11
580.042007
 21
510.555588
 31
0.0
  0
LINE
  5
885
100
AcDbEntity
  8
18
100
AcDbLine
 10
748.042007
 20
690.555588
 30
0.0
 11
748.042007
 21
510.555588
 31
0.0
  0
LINE
  5
886
100
AcDbEntity
  8
18
100
AcDbLine
 10
916.042007
 20
690.555588
 30
0.0
 11
916.042007
 21
510.555588
 31
0.0
  0
LINE
  5
887
100
AcDbEntity
  8
18
100
AcDbLine
 10
1084.042007
 20
690.555588
 30
0.0
 11
1084.042007
 21
480.555588
 31
0.0
  0
LINE
  5
888
100
AcDbEntity
  8
18
100
AcDbLine
 10
412.042007
 20
690.555588
 30
0.0
 11
1084.042007
 21
690.555588
 31
0.0
  0
POLYLINE
  5
889
100
AcDbEntity
  8
18
 62
     2
100
AcDb2dPolyline
 66
     1
 10
0.0
 20
0.0
 30
0.0
  0
VERTEX
  5
9BC
100
AcDbEntity
  8
18
 62
     2
100
AcDbVertex
100
AcDb2dVertex
 10
489.860973
 20
629.043182
 30
0.0
  0
VERTEX
  5
9BD
100
AcDbEntity
  8
18
 62
     2
100
AcDbVertex
100
AcDb2dVertex
 10
489.860973
 20
656.271338
 30
0.0
  0
SEQEND
  5
9BE
100
AcDbEntity
  8
18
 62
     2
  0
LINE
  5
88D
100
AcDbEntity
  8
18
 62
     2
100
AcDbLine
 10
489.860973
 20
640.634292
 30
0.0
 11
486.755145
 21
640.634292
 31
0.0
  0
LINE
  5
88E
100
AcDbEntity
  8
18
 62
     2
100
AcDbLine
 10
486.755145
 20
640.634292
 30
0.0
 11
489.860973
 21
629.043182
 31
0.0
  0
LINE
  5
88F
100
AcDbEntity
  8
18
 62
     2
100
AcDbLine
 10
489.860973
 20
629.043182
 30
0.0
 11
492.966802
 21
640.634292
 31
0.0
  0
LINE
  5
890
100
AcDbEntity
  8
18
 62
     2
100
AcDbLine
 10
492.966802
 20
640.634292
 30
0.0
 11
489.860973
 21
640.634292
 31
0.0
  0
LINE
  5
891
100
AcDbEntity
  8
18
  6
CENTER
 62
     2
100
AcDbLine
 10
540.640166
 20
589.945725
 30
0.0
 11
435.028162
 21
589.945725
 31
0.0
  0
LINE
  5
892
100
AcDbEntity
  8
18
  6
CENTER
 62
     2
100
AcDbLine
 10
489.044956
 20
562.669163
 30
0.0
 11
489.044956
 21
620.511834
 31
0.0
  0
LINE
  5
893
100
AcDbEntity
  8
18
100
AcDbLine
 10
531.284956
 20
571.465725
 30
0.0
 11
452.084956
 21
571.465725
 31
0.0
  0
LINE
  5
894
100
AcDbEntity
  8
18
100
AcDbLine
 10
531.284956
 20
608.425725
 30
0.0
 11
452.084956
 21
608.425725
 31
0.0
  0
LINE
  5
895
100
AcDbEntity
  8
18
100
AcDbLine
 10
531.284956
 20
571.465725
 30
0.0
 11
531.284956
 21
613.705725
 31
0.0
  0
LINE
  5
896
100
AcDbEntity
  8
18
100
AcDbLine
 10
457.364956
 20
571.465725
 30
0.0
 11
457.364956
 21
608.425725
 31
0.0
  0
LINE
  5
897
100
AcDbEntity
  8
18
100
AcDbLine
 10
531.284956
 20
613.705725
 30
0.0
 11
460.884956
 21
613.705725
 31
0.0
  0
LINE
  5
898
100
AcDbEntity
  8
18
100
AcDbLine
 10
452.084956
 20
571.465725
 30
0.0
 11
452.084956
 21
608.425725
 31
0.0
  0
LINE
  5
899
100
AcDbEntity
  8
18
100
AcDbLine
 10
460.884956
 20
608.425725
 30
0.0
 11
460.884956
 21
613.705725
 31
0.0
  0
LINE
  5
89A
100
AcDbEntity
  8
18
100
AcDbLine
 10
507.524956
 20
574.105725
 30
0.0
 11
507.524956
 21
605.785725
 31
0.0
  0
LINE
  5
89B
100
AcDbEntity
  8
18
100
AcDbLine
 10
462.644956
 20
574.105725
 30
0.0
 11
462.644956
 21
605.785725
 31
0.0
  0
LINE
  5
89C
100
AcDbEntity
  8
18
100
AcDbLine
 10
507.524956
 20
574.105725
 30
0.0
 11
462.644956
 21
574.105725
 31
0.0
  0
LINE
  5
89D
100
AcDbEntity
  8
18
100
AcDbLine
 10
507.524956
 20
605.785725
 30
0.0
 11
462.644956
 21
605.785725
 31
0.0
  0
CIRCLE
  5
89E
100
AcDbEntity
  8
18
100
AcDbCircle
 10
489.044956
 20
589.945725
 30
0.0
 40
6.336
  0
LINE
  5
89F
100
AcDbEntity
  8
18
  6
DASHED
100
AcDbLine
 10
518.084956
 20
579.385725
 30
0.0
 11
460.004956
 21
579.385725
 31
0.0
  0
LINE
  5
8A0
100
AcDbEntity
  8
18
  6
DASHED
100
AcDbLine
 10
518.084956
 20
600.505725
 30
0.0
 11
460.004956
 21
600.505725
 31
0.0
  0
LINE
  5
8A1
100
AcDbEntity
  8
18
  6
DASHED
100
AcDbLine
 10
460.004956
 20
579.385725
 30
0.0
 11
460.004956
 21
600.505725
 31
0.0
  0
LINE
  5
8A2
100
AcDbEntity
  8
18
  6
DASHED
100
AcDbLine
 10
518.084956
 20
579.385725
 30
0.0
 11
518.084956
 21
600.505725
 31
0.0
  0
LINE
  5
8A3
100
AcDbEntity
  8
18
  6
CENTER
 62
     2
100
AcDbLine
 10
474.964956
 20
610.938642
 30
0.0
 11
474.964956
 21
633.703657
 31
0.0
  0
LINE
  5
8A4
100
AcDbEntity
  8
18
100
AcDbLine
 10
474.965271
 20
621.625725
 30
0.0
 11
485.297916
 21
621.625725
 31
0.0
  0
LINE
  5
8A5
100
AcDbEntity
  8
18
100
AcDbLine
 10
485.297916
 20
621.625725
 30
0.0
 11
485.297916
 21
624.265725
 31
0.0
  0
LINE
  5
8A6
100
AcDbEntity
  8
18
100
AcDbLine
 10
474.965271
 20
624.265725
 30
0.0
 11
485.297916
 21
624.265725
 31
0.0
  0
LINE
  5
8A7
100
AcDbEntity
  8
18
100
AcDbLine
 10
464.632626
 20
621.625725
 30
0.0
 11
464.632626
 21
624.265725
 31
0.0
  0
LINE
  5
8A8
100
AcDbEntity
  8
18
100
AcDbLine
 10
483.408941
 20
613.705725
 30
0.0
 11
479.715785
 21
621.625725
 31
0.0
  0
LINE
  5
8A9
100
AcDbEntity
  8
18
100
AcDbLine
 10
466.521601
 20
613.705725
 30
0.0
 11
470.214758
 21
621.625725
 31
0.0
  0
LINE
  5
8AA
100
AcDbEntity
  8
18
100
AcDbLine
 10
474.965271
 20
621.625725
 30
0.0
 11
464.632626
 21
621.625725
 31
0.0
  0
LINE
  5
8AB
100
AcDbEntity
  8
18
100
AcDbLine
 10
474.965271
 20
624.265725
 30
0.0
 11
464.632626
 21
624.265725
 31
0.0
  0
LINE
  5
8AC
100
AcDbEntity
  8
18
  6
CENTER
 62
     2
100
AcDbLine
 10
629.138948
 20
609.941807
 30
0.0
 11
703.722604
 21
609.941807
 31
0.0
  0
LINE
  5
8AD
100
AcDbEntity
  8
18
100
AcDbLine
 10
695.722007
 20
624.022122
 30
0.0
 11
695.722007
 21
634.354767
 31
0.0
  0
LINE
  5
8AE
100
AcDbEntity
  8
18
100
AcDbLine
 10
695.722007
 20
634.354767
 30
0.0
 11
698.362007
 21
634.354767
 31
0.0
  0
LINE
  5
8AF
100
AcDbEntity
  8
18
100
AcDbLine
 10
698.362007
 20
624.022122
 30
0.0
 11
698.362007
 21
634.354767
 31
0.0
  0
LINE
  5
8B0
100
AcDbEntity
  8
18
100
AcDbLine
 10
695.722007
 20
613.689477
 30
0.0
 11
698.362007
 21
613.689477
 31
0.0
  0
LINE
  5
8B1
100
AcDbEntity
  8
18
  6
CENTER
 62
     2
100
AcDbLine
 10
664.042007
 20
654.35054
 30
0.0
 11
664.042007
 21
561.414445
 31
0.0
  0
LINE
  5
8B2
100
AcDbEntity
  8
18
100
AcDbLine
 10
645.562007
 20
567.701807
 30
0.0
 11
645.562007
 21
646.901807
 31
0.0
  0
LINE
  5
8B3
100
AcDbEntity
  8
18
100
AcDbLine
 10
682.522007
 20
567.701807
 30
0.0
 11
682.522007
 21
646.901807
 31
0.0
  0
LINE
  5
8B4
100
AcDbEntity
  8
18
100
AcDbLine
 10
645.562007
 20
567.701807
 30
0.0
 11
687.802007
 21
567.701807
 31
0.0
  0
LINE
  5
8B5
100
AcDbEntity
  8
18
100
AcDbLine
 10
645.562007
 20
641.621807
 30
0.0
 11
682.522007
 21
641.621807
 31
0.0
  0
LINE
  5
8B6
100
AcDbEntity
  8
18
100
AcDbLine
 10
687.802007
 20
567.701807
 30
0.0
 11
687.802007
 21
638.101807
 31
0.0
  0
LINE
  5
8B7
100
AcDbEntity
  8
18
100
AcDbLine
 10
645.562007
 20
646.901807
 30
0.0
 11
682.522007
 21
646.901807
 31
0.0
  0
LINE
  5
8B8
100
AcDbEntity
  8
18
100
AcDbLine
 10
682.522007
 20
638.101807
 30
0.0
 11
687.802007
 21
638.101807
 31
0.0
  0
LINE
  5
8B9
100
AcDbEntity
  8
18
100
AcDbLine
 10
648.202007
 20
591.461807
 30
0.0
 11
679.882007
 21
591.461807
 31
0.0
  0
LINE
  5
8BA
100
AcDbEntity
  8
18
100
AcDbLine
 10
648.202007
 20
636.341807
 30
0.0
 11
679.882007
 21
636.341807
 31
0.0
  0
LINE
  5
8BB
100
AcDbEntity
  8
18
100
AcDbLine
 10
648.202007
 20
591.461807
 30
0.0
 11
648.202007
 21
636.341807
 31
0.0
  0
LINE
  5
8BC
100
AcDbEntity
  8
18
100
AcDbLine
 10
679.882007
 20
591.461807
 30
0.0
 11
679.882007
 21
636.341807
 31
0.0
  0
CIRCLE
  5
8BD
100
AcDbEntity
  8
18
100
AcDbCircle
 10
664.042007
 20
609.941807
 30
0.0
 40
6.336
  0
LINE
  5
8BE
100
AcDbEntity
  8
18
100
AcDbLine
 10
635.002007
 20
620.501807
 30
0.0
 11
635.002007
 21
599.381807
 31
0.0
  0
LINE
  5
8BF
100
AcDbEntity
  8
18
  6
CENTER
 62
     2
100
AcDbLine
 10
685.034924
 20
624.021807
 30
0.0
 11
709.335263
 21
624.021807
 31
0.0
  0
LINE
  5
8C0
100
AcDbEntity
  8
18
100
AcDbLine
 10
635.002007
 20
620.501807
 30
0.0
 11
645.562007
 21
620.501807
 31
0.0
  0
LINE
  5
8C1
100
AcDbEntity
  8
18
100
AcDbLine
 10
687.802007
 20
599.381807
 30
0.0
 11
693.082007
 21
599.381807
 31
0.0
  0
LINE
  5
8C2
100
AcDbEntity
  8
18
100
AcDbLine
 10
635.002007
 20
599.381807
 30
0.0
 11
645.562007
 21
599.381807
 31
0.0
  0
LINE
  5
8C3
100
AcDbEntity
  8
18
  6
DASHED
100
AcDbLine
 10
645.562007
 20
599.381807
 30
0.0
 11
687.802007
 21
599.381807
 31
0.0
  0
LINE
  5
8C4
100
AcDbEntity
  8
18
100
AcDbLine
 10
693.082007
 20
611.049162
 30
0.0
 11
693.082007
 21
599.381807
 31
0.0
  0
LINE
  5
8C5
100
AcDbEntity
  8
18
  6
DASHED
100
AcDbLine
 10
645.562007
 20
620.501807
 30
0.0
 11
687.802007
 21
620.501807
 31
0.0
  0
LINE
  5
8C6
100
AcDbEntity
  8
18
  6
DASHED
100
AcDbLine
 10
687.802007
 20
620.501807
 30
0.0
 11
692.370017
 21
620.501807
 31
0.0
  0
LINE
  5
8C7
100
AcDbEntity
  8
18
  6
DASHED
100
AcDbLine
 10
692.370017
 20
620.501807
 30
0.0
 11
693.082007
 21
620.501807
 31
0.0
  0
LINE
  5
8C8
100
AcDbEntity
  8
18
100
AcDbLine
 10
687.802007
 20
632.465792
 30
0.0
 11
695.722007
 21
628.772635
 31
0.0
  0
LINE
  5
8C9
100
AcDbEntity
  8
18
100
AcDbLine
 10
687.802007
 20
615.578451
 30
0.0
 11
695.722007
 21
619.271608
 31
0.0
  0
LINE
  5
8CA
100
AcDbEntity
  8
18
100
AcDbLine
 10
695.722007
 20
624.022122
 30
0.0
 11
695.722007
 21
613.689477
 31
0.0
  0
LINE
  5
8CB
100
AcDbEntity
  8
18
100
AcDbLine
 10
698.362007
 20
624.022122
 30
0.0
 11
698.362007
 21
613.689477
 31
0.0
  0
LINE
  5
8CC
100
AcDbEntity
  8
18
  6
DASHED
100
AcDbLine
 10
693.082007
 20
620.501807
 30
0.0
 11
693.082007
 21
618.040556
 31
0.0
  0
LINE
  5
8CD
100
AcDbEntity
  8
18
100
AcDbLine
 10
693.082007
 20
618.920556
 30
0.0
 11
693.082007
 21
618.856782
 31
0.0
  0
LINE
  5
8CE
100
AcDbEntity
  8
18
100
AcDbLine
 10
693.082007
 20
618.040556
 30
0.0
 11
693.082007
 21
610.334407
 31
0.0
  0
LINE
  5
8CF
100
AcDbEntity
  8
18
  6
CENTER
 62
     2
100
AcDbLine
 10
780.446797
 20
609.941807
 30
0.0
 11
886.058802
 21
609.941807
 31
0.0
  0
LINE
  5
8D0
100
AcDbEntity
  8
18
  6
CENTER
 62
     2
100
AcDbLine
 10
832.042007
 20
637.218369
 30
0.0
 11
832.042007
 21
579.375698
 31
0.0
  0
LINE
  5
8D1
100
AcDbEntity
  8
18
100
AcDbLine
 10
789.802007
 20
628.421807
 30
0.0
 11
869.002007
 21
628.421807
 31
0.0
  0
LINE
  5
8D2
100
AcDbEntity
  8
18
100
AcDbLine
 10
789.802007
 20
591.461807
 30
0.0
 11
869.002007
 21
591.461807
 31
0.0
  0
LINE
  5
8D3
100
AcDbEntity
  8
18
100
AcDbLine
 10
789.802007
 20
628.421807
 30
0.0
 11
789.802007
 21
586.181807
 31
0.0
  0
LINE
  5
8D4
100
AcDbEntity
  8
18
100
AcDbLine
 10
863.722007
 20
628.421807
 30
0.0
 11
863.722007
 21
591.461807
 31
0.0
  0
LINE
  5
8D5
100
AcDbEntity
  8
18
100
AcDbLine
 10
789.802007
 20
586.181807
 30
0.0
 11
860.202007
 21
586.181807
 31
0.0
  0
LINE
  5
8D6
100
AcDbEntity
  8
18
100
AcDbLine
 10
869.002007
 20
628.421807
 30
0.0
 11
869.002007
 21
591.461807
 31
0.0
  0
LINE
  5
8D7
100
AcDbEntity
  8
18
100
AcDbLine
 10
860.202007
 20
591.461807
 30
0.0
 11
860.202007
 21
586.181807
 31
0.0
  0
LINE
  5
8D8
100
AcDbEntity
  8
18
100
AcDbLine
 10
813.562007
 20
625.781807
 30
0.0
 11
813.562007
 21
594.101807
 31
0.0
  0
LINE
  5
8D9
100
AcDbEntity
  8
18
100
AcDbLine
 10
858.442007
 20
625.781807
 30
0.0
 11
858.442007
 21
594.101807
 31
0.0
  0
LINE
  5
8DA
100
AcDbEntity
  8
18
100
AcDbLine
 10
813.562007
 20
625.781807
 30
0.0
 11
858.442007
 21
625.781807
 31
0.0
  0
LINE
  5
8DB
100
AcDbEntity
  8
18
100
AcDbLine
 10
813.562007
 20
594.101807
 30
0.0
 11
858.442007
 21
594.101807
 31
0.0
  0
CIRCLE
  5
8DC
100
AcDbEntity
  8
18
100
AcDbCircle
 10
832.042007
 20
609.941807
 30
0.0
 40
6.336
  0
LINE
  5
8DD
100
AcDbEntity
  8
18
  6
DASHED
100
AcDbLine
 10
803.002007
 20
620.501807
 30
0.0
 11
861.082007
 21
620.501807
 31
0.0
  0
LINE
  5
8DE
100
AcDbEntity
  8
18
  6
DASHED
100
AcDbLine
 10
803.002007
 20
599.381807
 30
0.0
 11
861.082007
 21
599.381807
 31
0.0
  0
LINE
  5
8DF
100
AcDbEntity
  8
18
  6
DASHED
100
AcDbLine
 10
861.082007
 20
620.501807
 30
0.0
 11
861.082007
 21
599.381807
 31
0.0
  0
LINE
  5
8E0
100
AcDbEntity
  8
18
  6
DASHED
100
AcDbLine
 10
803.002007
 20
620.501807
 30
0.0
 11
803.002007
 21
599.381807
 31
0.0
  0
LINE
  5
8E1
100
AcDbEntity
  8
18
  6
CENTER
 62
     2
100
AcDbLine
 10
846.122007
 20
588.94889
 30
0.0
 11
846.122007
 21
566.183875
 31
0.0
  0
LINE
  5
8E2
100
AcDbEntity
  8
18
100
AcDbLine
 10
846.121692
 20
578.261807
 30
0.0
 11
835.789047
 21
578.261807
 31
0.0
  0
LINE
  5
8E3
100
AcDbEntity
  8
18
100
AcDbLine
 10
835.789047
 20
578.261807
 30
0.0
 11
835.789047
 21
575.621807
 31
0.0
  0
LINE
  5
8E4
100
AcDbEntity
  8
18
100
AcDbLine
 10
846.121692
 20
575.621807
 30
0.0
 11
835.789047
 21
575.621807
 31
0.0
  0
LINE
  5
8E5
100
AcDbEntity
  8
18
100
AcDbLine
 10
856.454337
 20
578.261807
 30
0.0
 11
856.454337
 21
575.621807
 31
0.0
  0
LINE
  5
8E6
100
AcDbEntity
  8
18
100
AcDbLine
 10
837.678022
 20
586.181807
 30
0.0
 11
841.371179
 21
578.261807
 31
0.0
  0
LINE
  5
8E7
100
AcDbEntity
  8
18
100
AcDbLine
 10
854.565363
 20
586.181807
 30
0.0
 11
850.872206
 21
578.261807
 31
0.0
  0
LINE
  5
8E8
100
AcDbEntity
  8
18
100
AcDbLine
 10
846.121692
 20
578.261807
 30
0.0
 11
856.454337
 21
578.261807
 31
0.0
  0
LINE
  5
8E9
100
AcDbEntity
  8
18
100
AcDbLine
 10
846.121692
 20
575.621807
 30
0.0
 11
856.454337
 21
575.621807
 31
0.0
  0
LINE
  5
8EA
100
AcDbEntity
  8
18
  6
CENTER
 62
     2
100
AcDbLine
 10
1034.945067
 20
609.941807
 30
0.0
 11
960.361411
 21
609.941807
 31
0.0
  0
LINE
  5
8EB
100
AcDbEntity
  8
18
100
AcDbLine
 10
968.362007
 20
595.861492
 30
0.0
 11
968.362007
 21
585.528847
 31
0.0
  0
LINE
  5
8EC
100
AcDbEntity
  8
18
100
AcDbLine
 10
968.362007
 20
585.528847
 30
0.0
 11
965.722007
 21
585.528847
 31
0.0
  0
LINE
  5
8ED
100
AcDbEntity
  8
18
100
AcDbLine
 10
965.722007
 20
595.861492
 30
0.0
 11
965.722007
 21
585.528847
 31
0.0
  0
LINE
  5
8EE
100
AcDbEntity
  8
18
100
AcDbLine
 10
968.362007
 20
606.194137
 30
0.0
 11
965.722007
 21
606.194137
 31
0.0
  0
LINE
  5
8EF
100
AcDbEntity
  8
18
  6
CENTER
 62
     2
100
AcDbLine
 10
1000.042007
 20
565.533073
 30
0.0
 11
1000.042007
 21
658.469169
 31
0.0
  0
LINE
  5
8F0
100
AcDbEntity
  8
18
100
AcDbLine
 10
1018.522007
 20
652.181807
 30
0.0
 11
1018.522007
 21
572.981807
 31
0.0
  0
LINE
  5
8F1
100
AcDbEntity
  8
18
100
AcDbLine
 10
981.562007
 20
652.181807
 30
0.0
 11
981.562007
 21
572.981807
 31
0.0
  0
LINE
  5
8F2
100
AcDbEntity
  8
18
100
AcDbLine
 10
1018.522007
 20
652.181807
 30
0.0
 11
976.282007
 21
652.181807
 31
0.0
  0
LINE
  5
8F3
100
AcDbEntity
  8
18
100
AcDbLine
 10
1018.522007
 20
578.261807
 30
0.0
 11
981.562007
 21
578.261807
 31
0.0
  0
LINE
  5
8F4
100
AcDbEntity
  8
18
100
AcDbLine
 10
976.282007
 20
652.181807
 30
0.0
 11
976.282007
 21
581.781807
 31
0.0
  0
LINE
  5
8F5
100
AcDbEntity
  8
18
100
AcDbLine
 10
1018.522007
 20
572.981807
 30
0.0
 11
981.562007
 21
572.981807
 31
0.0
  0
LINE
  5
8F6
100
AcDbEntity
  8
18
100
AcDbLine
 10
981.562007
 20
581.781807
 30
0.0
 11
976.282007
 21
581.781807
 31
0.0
  0
LINE
  5
8F7
100
AcDbEntity
  8
18
100
AcDbLine
 10
1015.882007
 20
628.421807
 30
0.0
 11
984.202007
 21
628.421807
 31
0.0
  0
LINE
  5
8F8
100
AcDbEntity
  8
18
100
AcDbLine
 10
1015.882007
 20
583.541807
 30
0.0
 11
984.202007
 21
583.541807
 31
0.0
  0
LINE
  5
8F9
100
AcDbEntity
  8
18
100
AcDbLine
 10
1015.882007
 20
628.421807
 30
0.0
 11
1015.882007
 21
583.541807
 31
0.0
  0
LINE
  5
8FA
100
AcDbEntity
  8
18
100
AcDbLine
 10
984.202007
 20
628.421807
 30
0.0
 11
984.202007
 21
583.541807
 31
0.0
  0
CIRCLE
  5
8FB
100
AcDbEntity
  8
18
100
AcDbCircle
 10
1000.042007
 20
609.941807
 30
0.0
 40
6.336
  0
LINE
  5
8FC
100
AcDbEntity
  8
18
100
AcDbLine
 10
1029.082007
 20
599.381807
 30
0.0
 11
1029.082007
 21
620.501807
 31
0.0
  0
LINE
  5
8FD
100
AcDbEntity
  8
18
  6
CENTER
 62
     2
100
AcDbLine
 10
979.049091
 20
595.861807
 30
0.0
 11
954.748752
 21
595.861807
 31
0.0
  0
LINE
  5
8FE
100
AcDbEntity
  8
18
100
AcDbLine
 10
1029.082007
 20
599.381807
 30
0.0
 11
1018.522007
 21
599.381807
 31
0.0
  0
LINE
  5
8FF
100
AcDbEntity
  8
18
100
AcDbLine
 10
976.282007
 20
620.501807
 30
0.0
 11
971.002007
 21
620.501807
 31
0.0
  0
LINE
  5
900
100
AcDbEntity
  8
18
100
AcDbLine
 10
1029.082007
 20
620.501807
 30
0.0
 11
1018.522007
 21
620.501807
 31
0.0
  0
LINE
  5
901
100
AcDbEntity
  8
18
  6
DASHED
100
AcDbLine
 10
1018.522007
 20
620.501807
 30
0.0
 11
976.282007
 21
620.501807
 31
0.0
  0
LINE
  5
902
100
AcDbEntity
  8
18
100
AcDbLine
 10
971.002007
 20
608.834452
 30
0.0
 11
971.002007
 21
620.501807
 31
0.0
  0
LINE
  5
903
100
AcDbEntity
  8
18
  6
DASHED
100
AcDbLine
 10
1018.522007
 20
599.381807
 30
0.0
 11
976.282007
 21
599.381807
 31
0.0
  0
LINE
  5
904
100
AcDbEntity
  8
18
  6
DASHED
100
AcDbLine
 10
976.282007
 20
599.381807
 30
0.0
 11
971.713998
 21
599.381807
 31
0.0
  0
LINE
  5
905
100
AcDbEntity
  8
18
  6
DASHED
100
AcDbLine
 10
971.713998
 20
599.381807
 30
0.0
 11
971.002007
 21
599.381807
 31
0.0
  0
LINE
  5
906
100
AcDbEntity
  8
18
100
AcDbLine
 10
976.282007
 20
587.417821
 30
0.0
 11
968.362007
 21
591.110978
 31
0.0
  0
LINE
  5
907
100
AcDbEntity
  8
18
100
AcDbLine
 10
976.282007
 20
604.305162
 30
0.0
 11
968.362007
 21
600.612005
 31
0.0
  0
LINE
  5
908
100
AcDbEntity
  8
18
100
AcDbLine
 10
968.362007
 20
595.861492
 30
0.0
 11
968.362007
 21
606.194137
 31
0.0
  0
LINE
  5
909
100
AcDbEntity
  8
18
100
AcDbLine
 10
965.722007
 20
595.861492
 30
0.0
 11
965.722007
 21
606.194137
 31
0.0
  0
LINE
  5
90A
100
AcDbEntity
  8
18
  6
DASHED
100
AcDbLine
 10
971.002007
 20
599.381807
 30
0.0
 11
971.002007
 21
601.843057
 31
0.0
  0
LINE
  5
90B
100
AcDbEntity
  8
18
100
AcDbLine
 10
971.002007
 20
600.963057
 30
0.0
 11
971.002007
 21
601.026832
 31
0.0
  0
LINE
  5
90C
100
AcDbEntity
  8
18
100
AcDbLine
 10
971.002007
 20
601.843057
 30
0.0
 11
971.002007
 21
609.549207
 31
0.0
  0
TEXT
  5
90D
100
AcDbEntity
  8
18
100
AcDbText
 10
733.794754
 20
-799.63147
 30
0.0
 40
18.0
  1
１
 72
     5
 11
748.194754
 21
-799.63147
 31
0.0
100
AcDbText
  0
TEXT
  5
90E
100
AcDbEntity
  8
18
100
AcDbText
 10
398.83046
 20
-413.665085
 30
0.0
 40
30.0
  1
高圧側
 72
     5
 11
482.83046
 21
-413.665085
 31
0.0
100
AcDbText
  0
TEXT
  5
90F
100
AcDbEntity
  8
18
100
AcDbText
 10
484.826431
 20
517.622864
 30
0.0
 40
18.0
  1
Ａ
 72
     5
 11
499.226431
 21
517.622864
 31
0.0
100
AcDbText
  0
TEXT
  5
910
100
AcDbEntity
  8
18
100
AcDbText
 10
652.754745
 20
517.141937
 30
0.0
 40
18.0
  1
Ｂ
 72
     5
 11
667.154745
 21
517.141937
 31
0.0
100
AcDbText
  0
TEXT
  5
911
100
AcDbEntity
  8
18
100
AcDbText
 10
820.826431
 20
517.622864
 30
0.0
 40
18.0
  1
Ｃ
 72
     5
 11
835.226431
 21
517.622864
 31
0.0
100
AcDbText
  0
TEXT
  5
912
100
AcDbEntity
  8
18
100
AcDbText
 10
651.792938
 20
486.981417
 30
0.0
 40
18.0
  1
アクチュエ－タ取付方向
 72
     5
 11
846.192938
 21
486.981417
 31
0.0
100
AcDbText
  0
TEXT
  5
913
100
AcDbEntity
  8
18
100
AcDbText
 10
443.096375
 20
546.829285
 30
0.0
 40
15.0
  1
弁棒側　低圧側
 72
     5
 11
545.096375
 21
546.829285
 31
0.0
100
AcDbText
  0
TEXT
  5
914
100
AcDbEntity
  8
18
100
AcDbText
 10
428.718338
 20
666.263443
 30
0.0
 40
15.0
  1
フラット側　高圧側
 72
     5
 11
560.718338
 21
666.263443
 31
0.0
100
AcDbText
  0
TEXT
  5
915
100
AcDbEntity
  8
18
100
AcDbText
 10
988.826431
 20
517.622864
 30
0.0
 40
18.0
  1
Ｄ
 72
     5
 11
1003.226431
 21
517.622864
 31
0.0
100
AcDbText
  0
TEXT
  5
916
100
AcDbEntity
  8
18
100
AcDbText
 10
757.785461
 20
-822.100616
 30
0.0
 40
18.0
  1
６
 72
     5
 11
772.185461
 21
-822.100616
 31
0.0
100
AcDbText
  0
TEXT
  5
917
100
AcDbEntity
  8
18
100
AcDbText
 10
733.125443
 20
-738.211578
 30
0.0
 40
18.0
  1
３０４Ｙ－４ＩＣＳ　２５０Ａ
 72
     5
 11
981.525443
 21
-738.211578
 31
0.0
100
AcDbText
  0
TEXT
  5
918
100
AcDbEntity
  8
18
100
AcDbText
 10
1081.874451
 20
-761.511292
 30
0.0
 40
13.5
  1
′９９．１２．　２
 72
     5
 11
1200.674451
 21
-761.511292
 31
0.0
100
AcDbText
  0
TEXT
  5
919
100
AcDbEntity
  8
18
100
AcDbText
 10
921.6
 20
-816.0
 30
0.0
 40
30.0
  1
Ｄ３－００８８５
 72
     5
 11
1155.6
 21
-816.0
 31
0.0
100
AcDbText
  0
TEXT
  5
91A
100
AcDbEntity
  8
18
100
AcDbText
 10
733.125443
 20
-762.211578
 30
0.0
 40
18.0
  1
標準仕様
 72
     5
 11
801.525443
 21
-762.211578
 31
0.0
100
AcDbText
  0
LINE
  5
91B
100
AcDbEntity
  8
20
 62
     3
100
AcDbLine
 10
-1080.0
 20
-831.0
 30
0.0
 11
1200.0
 21
-831.0
 31
0.0
  0
LINE
  5
91C
100
AcDbEntity
  8
20
 62
     3
100
AcDbLine
 10
-1080.0
 20
792.0
 30
0.0
 11
1200.0
 21
792.0
 31
0.0
  0
LINE
  5
91D
100
AcDbEntity
  8
20
 62
     3
100
AcDbLine
 10
-1080.0
 20
792.0
 30
0.0
 11
-1080.0
 21
-831.0
 31
0.0
  0
LINE
  5
91E
100
AcDbEntity
  8
20
 62
     3
100
AcDbLine
 10
1200.0
 20
792.0
 30
0.0
 11
1200.0
 21
-831.0
 31
0.0
  0
LINE
  5
91F
100
AcDbEntity
  8
20
 62
     3
100
AcDbLine
 10
360.0
 20
-831.0
 30
0.0
 11
360.0
 21
-711.0
 31
0.0
  0
LINE
  5
920
100
AcDbEntity
  8
20
 62
     3
100
AcDbLine
 10
642.0
 20
-831.0
 30
0.0
 11
642.0
 21
-711.0
 31
0.0
  0
LINE
  5
921
100
AcDbEntity
  8
20
100
AcDbLine
 10
642.0
 20
-771.0
 30
0.0
 11
1200.0
 21
-771.0
 31
0.0
  0
LINE
  5
922
100
AcDbEntity
  8
20
 62
     3
100
AcDbLine
 10
360.0
 20
-711.0
 30
0.0
 11
1200.0
 21
-711.0
 31
0.0
  0
LINE
  5
923
100
AcDbEntity
  8
20
100
AcDbLine
 10
1080.0
 20
-771.0
 30
0.0
 11
1080.0
 21
-711.0
 31
0.0
  0
LINE
  5
924
100
AcDbEntity
  8
20
100
AcDbLine
 10
1080.0
 20
-741.0
 30
0.0
 11
1200.0
 21
-741.0
 31
0.0
  0
LINE
  5
925
100
AcDbEntity
  8
20
100
AcDbLine
 10
726.0
 20
-831.0
 30
0.0
 11
726.0
 21
-711.0
 31
0.0
  0
LINE
  5
926
100
AcDbEntity
  8
20
100
AcDbLine
 10
786.0
 20
-831.0
 30
0.0
 11
786.0
 21
-771.0
 31
0.0
  0
LINE
  5
927
100
AcDbEntity
  8
20
100
AcDbLine
 10
906.0
 20
-831.0
 30
0.0
 11
906.0
 21
-771.0
 31
0.0
  0
LINE
  5
928
100
AcDbEntity
  8
20
100
AcDbLine
 10
742.370487
 20
-814.629513
 30
0.0
 11
767.389744
 21
-789.610256
 31
0.0
  0
TEXT
  5
929
100
AcDbEntity
  8
20
100
AcDbText
 10
789.199974
 20
-794.981506
 30
0.0
 40
10.8
  1
ＤＲＡＷＩＮＧ　ＮＯ．
 72
     5
 11
905.839974
 21
-794.981506
 31
0.0
100
AcDbText
  0
TEXT
  5
92A
100
AcDbEntity
  8
20
100
AcDbText
 10
801.0
 20
-819.0
 30
0.0
 40
18.0
  1
図　　　番
 72
     5
 11
887.4
 21
-819.0
 31
0.0
100
AcDbText
  0
TEXT
  5
92B
100
AcDbEntity
  8
20
100
AcDbText
 10
1116.0
 20
-732.0
 30
0.0
 40
12.0
  1
ＤＡＴＥ
 72
     5
 11
1161.6
 21
-732.0
 31
0.0
100
AcDbText
  0
TEXT
  5
92C
100
AcDbEntity
  8
20
100
AcDbText
 10
654.006426
 20
-797.766174
 30
0.0
 40
12.0
  1
ＳＣＡＬＥ
 72
     5
 11
711.606426
 21
-797.766174
 31
0.0
100
AcDbText
  0
TEXT
  5
92D
100
AcDbEntity
  8
20
100
AcDbText
 10
648.0
 20
-819.0
 30
0.0
 40
18.0
  1
尺　　度
 72
     5
 11
716.4
 21
-819.0
 31
0.0
100
AcDbText
  0
TEXT
  5
92E
100
AcDbEntity
  8
20
100
AcDbText
 10
645.006426
 20
-734.975308
 30
0.0
 40
12.0
  1
ＦＩＧ．ＮＯ．
 72
     5
 11
726.606426
 21
-734.975308
 31
0.0
100
AcDbText
  0
TEXT
  5
92F
100
AcDbEntity
  8
20
100
AcDbText
 10
648.0
 20
-759.0
 30
0.0
 40
18.0
  1
名　　称
 72
     5
 11
716.4
 21
-759.0
 31
0.0
100
AcDbText
  0
TEXT
  5
930
100
AcDbEntity
  8
20
100
AcDbText
 10
363.39315
 20
-758.821518
 30
0.0
 40
13.8
  1
ＴＯＭＯＥ　ＶＡＬＶＥ　ＣＯ．，ＬＴＤ．
 72
     5
 11
636.63315
 21
-758.821518
 31
0.0
100
AcDbText
  0
TEXT
  5
931
100
AcDbEntity
  8
20
100
AcDbText
 10
405.0
 20
-799.738861
 30
0.0
 40
24.0
  1
巴バルブ株式会社
 72
     5
 11
592.2
 21
-799.738861
 31
0.0
100
AcDbText
  0
ENDSEC
  0
SECTION
  2
OBJECTS
  0
DICTIONARY
  5
9B6
100
AcDbDictionary
  3
ACAD_GROUP
350
9B7
  3
ACAD_MLINESTYLE
350
9B8
  0
DICTIONARY
  5
9B7
102
{ACAD_REACTORS
330
9B6
102
}
100
AcDbDictionary
  0
DICTIONARY
  5
9B8
102
{ACAD_REACTORS
330
9B6
102
}
100
AcDbDictionary
  3
STANDARD
350
9B9
  0
MLINESTYLE
  5
9B9
102
{ACAD_REACTORS
330
9B8
102
}
100
AcDbMlineStyle
  2
STANDARD
 70
     0
  3

 62
     0
 51
90.0
 52
90.0
 71
     2
 49
0.5
 62
   256
  6
BYLAYER
 49
-0.5
 62
   256
  6
BYLAYER
  0
ENDSEC
  0
EOF
