  0
SECTION
  2
HEADER
  9
$ACADVER
  1
AC1012
  9
$DWGCODEPAGE
  3
ansi_932
  9
$INSBASE
 10
0.0
 20
0.0
 30
0.0
  9
$EXTMIN
 10
-840.0
 20
-594.0
 30
1.000000E+20
  9
$EXTMAX
 10
840.0
 20
594.0
 30
-1.000000E+20
  9
$LIMMIN
 10
-840.0
 20
-594.0
  9
$LIMMAX
 10
840.0
 20
594.0
  9
$ORTHOMODE
 70
     0
  9
$REGENMODE
 70
     1
  9
$FILLMODE
 70
     1
  9
$QTEXTMODE
 70
     0
  9
$MIRRTEXT
 70
     1
  9
$DRAGMODE
 70
     2
  9
$LTSCALE
 40
1.0
  9
$OSMODE
 70
     0
  9
$ATTMODE
 70
     1
  9
$TEXTSIZE
 40
0.2
  9
$TRACEWID
 40
0.05
  9
$TEXTSTYLE
  7
STANDARD
  9
$CLAYER
  8
0
  9
$CELTYPE
  6
CONTINUOUS
  9
$CECOLOR
 62
   256
  9
$CELTSCALE
 40
1.0
  9
$DELOBJ
 70
     1
  9
$DISPSILH
 70
     0
  9
$DIMSCALE
 40
4.0
  9
$DIMASZ
 40
2.0
  9
$DIMEXO
 40
1.0
  9
$DIMDLI
 40
0.38
  9
$DIMRND
 40
0.0
  9
$DIMDLE
 40
0.0
  9
$DIMEXE
 40
2.0
  9
$DIMTP
 40
0.0
  9
$DIMTM
 40
0.0
  9
$DIMTXT
 40
3.3
  9
$DIMCEN
 40
0.09
  9
$DIMTSZ
 40
0.0
  9
$DIMTOL
 70
     0
  9
$DIMLIM
 70
     0
  9
$DIMTIH
 70
     0
  9
$DIMTOH
 70
     0
  9
$DIMSE1
 70
     0
  9
$DIMSE2
 70
     0
  9
$DIMTAD
 70
     1
  9
$DIMZIN
 70
     0
  9
$DIMBLK
  1

  9
$DIMASO
 70
     1
  9
$DIMSHO
 70
     1
  9
$DIMPOST
  1

  9
$DIMAPOST
  1

  9
$DIMALT
 70
     0
  9
$DIMALTD
 70
     2
  9
$DIMALTF
 40
25.4
  9
$DIMLFAC
 40
1.0
  9
$DIMTOFL
 70
     0
  9
$DIMTVP
 40
0.0
  9
$DIMTIX
 70
     0
  9
$DIMSOXD
 70
     0
  9
$DIMSAH
 70
     0
  9
$DIMBLK1
  1

  9
$DIMBLK2
  1

  9
$DIMSTYLE
  2
STANDARD
  9
$DIMCLRD
 70
     0
  9
$DIMCLRE
 70
     0
  9
$DIMCLRT
 70
     0
  9
$DIMTFAC
 40
1.0
  9
$DIMGAP
 40
0.5
  9
$DIMJUST
 70
     0
  9
$DIMSD1
 70
     0
  9
$DIMSD2
 70
     0
  9
$DIMTOLJ
 70
     1
  9
$DIMTZIN
 70
     0
  9
$DIMALTZ
 70
     0
  9
$DIMALTTZ
 70
     0
  9
$DIMFIT
 70
     3
  9
$DIMUPT
 70
     0
  9
$DIMUNIT
 70
     2
  9
$DIMDEC
 70
     2
  9
$DIMTDEC
 70
     4
  9
$DIMALTU
 70
     2
  9
$DIMALTTD
 70
     2
  9
$DIMTXSTY
  7
STANDARD
  9
$DIMAUNIT
 70
     0
  9
$LUNITS
 70
     2
  9
$LUPREC
 70
     4
  9
$SKETCHINC
 40
0.1
  9
$FILLETRAD
 40
0.0
  9
$AUNITS
 70
     0
  9
$AUPREC
 70
     0
  9
$MENU
  1
acad
  9
$ELEVATION
 40
0.0
  9
$PELEVATION
 40
0.0
  9
$THICKNESS
 40
0.0
  9
$LIMCHECK
 70
     0
  9
$BLIPMODE
 70
     1
  9
$CHAMFERA
 40
0.0
  9
$CHAMFERB
 40
0.0
  9
$CHAMFERC
 40
0.0
  9
$CHAMFERD
 40
0.0
  9
$SKPOLY
 70
     0
  9
$TDCREATE
 40
2451484.000000000
  9
$TDUPDATE
 40
0.000000000
  9
$TDINDWG
 40
0.0000000000
  9
$TDUSRTIMER
 40
0.0000000000
  9
$USRTIMER
 70
     1
  9
$ANGBASE
 50
0.0
  9
$ANGDIR
 70
     0
  9
$PDMODE
 70
     0
  9
$PDSIZE
 40
0.0
  9
$PLINEWID
 40
0.0
  9
$COORDS
 70
     0
  9
$SPLFRAME
 70
     0
  9
$SPLINETYPE
 70
     6
  9
$SPLINESEGS
 70
     8
  9
$ATTDIA
 70
     0
  9
$ATTREQ
 70
     1
  9
$HANDLING
 70
     1
  9
$HANDSEED
  5
768
  9
$SURFTAB1
 70
     6
  9
$SURFTAB2
 70
     6
  9
$SURFTYPE
 70
     6
  9
$SURFU
 70
     6
  9
$SURFV
 70
     6
  9
$UCSNAME
  2

  9
$UCSORG
 10
0.0
 20
0.0
 30
0.0
  9
$UCSXDIR
 10
1.0
 20
0.0
 30
0.0
  9
$UCSYDIR
 10
0.0
 20
1.0
 30
0.0
  9
$PUCSNAME
  2

  9
$PUCSORG
 10
0.0
 20
0.0
 30
0.0
  9
$PUCSXDIR
 10
1.0
 20
0.0
 30
0.0
  9
$PUCSYDIR
 10
0.0
 20
1.0
 30
0.0
  9
$USERI1
 70
     0
  9
$USERI2
 70
     0
  9
$USERI3
 70
     0
  9
$USERI4
 70
     0
  9
$USERI5
 70
     0
  9
$USERR1
 40
0.0
  9
$USERR2
 40
0.0
  9
$USERR3
 40
0.0
  9
$USERR4
 40
0.0
  9
$USERR5
 40
0.0
  9
$WORLDVIEW
 70
     1
  9
$SHADEDGE
 70
     3
  9
$SHADEDIF
 70
    70
  9
$TILEMODE
 70
     1
  9
$MAXACTVP
 70
    16
  9
$PINSBASE
 10
0.0
 20
0.0
 30
0.0
  9
$PLIMCHECK
 70
     0
  9
$PEXTMIN
 10
1.000000E+20
 20
1.000000E+20
 30
1.000000E+20
  9
$PEXTMAX
 10
-1.000000E+20
 20
-1.000000E+20
 30
-1.000000E+20
  9
$PLIMMIN
 10
0.0
 20
0.0
  9
$PLIMMAX
 10
12.0
 20
9.0
  9
$UNITMODE
 70
     0
  9
$VISRETAIN
 70
     0
  9
$PLINEGEN
 70
     1
  9
$PSLTSCALE
 70
     0
  9
$TREEDEPTH
 70
  3020
  9
$PICKSTYLE
 70
     1
  9
$CMLSTYLE
  2
STANDARD
  9
$CMLJUST
 70
     0
  9
$CMLSCALE
 40
1.0
  9
$SAVEIMAGES
 70
     0
  0
ENDSEC
  0
SECTION
  2
CLASSES
  0
CLASS
  1
LWPOLYLINE
  2
AcDbPolyline
  3
"AutoCAD"
 90
    32768
280
     0
281
     1
  0
CLASS
  1
IMAGE
  2
AcDbRasterImage
  3
ISM
 90
    32895
280
     0
281
     1
  0
CLASS
  1
OLE2FRAME
  2
AcDbOle2Frame
  3
""
 90
    32768
280
     0
281
     1
  0
CLASS
  1
HATCH
  2
AcDbHatch
  3
"ACAD_SEDONA"
 90
    32768
280
     0
281
     1
  0
CLASS
  1
DICTIONARYVAR
  2
AcDbDictionaryVar
  3
"AutoCAD"
 90
    32768
280
     0
281
     0
  0
CLASS
  1
RASTERVARIABLES
  2
AcDbRasterVariables
  3
ISM
 90
    32768
280
     0
281
     0
  0
CLASS
  1
IMAGEDEF
  2
AcDbRasterImageDef
  3
ISM
 90
    32768
280
     0
281
     0
  0
CLASS
  1
IMAGEDEF_REACTOR
  2
AcDbRasterImageDefReactor
  3
ISM
 90
    32769
280
     0
281
     0
  0
CLASS
  1
IDBUFFER
  2
AcDbIdBuffer
  3
"Acad"
 90
    32768
280
     0
281
     0
  0
CLASS
  1
SPATIAL_FILTER
  2
AcDbSpatialFilter
  3
"Acad"
 90
    32768
280
     0
281
     0
  0
CLASS
  1
XRECORD
  2
AcDbXrecord
  3
"<Built In>"
 90
    32768
280
     0
281
     0
  0
CLASS
  1
SORTENTSTABLE
  2
AcDbSortentsTable
  3
"AutoCAD"
 90
    32768
280
     0
281
     0
  0
CLASS
  1
LAYER_INDEX
  2
AcDbLayerIndex
  3
"Acad"
 90
    32768
280
     0
281
     0
  0
CLASS
  1
SPATIAL_INDEX
  2
AcDbSpatialIndex
  3
"Acad"
 90
    32768
280
     0
281
     0
  0
CLASS
  1
OBJECT_PTR
  2
CAseDLPNTableRecord
  3
"ASE-LPNTableRecord"
 90
    32769
280
     0
281
     0
  0
CLASS
  1
LAYOUT
  2
AcDbLayout
  3
"AutoCAD 2000"
 90
    32768
280
     0
281
     0
  0
CLASS
  1
PLOTSETTINGS
  2
AcDbPlotSettings
  3
"AutoCAD 2000"
 90
    32768
280
     0
281
     0
  0
CLASS
  1
ACDBDICTIONARYWDFLT
  2
AcDbDictionaryWithDefault
  3
"AutoCAD 2000"
 90
    32768
280
     0
281
     0
  0
CLASS
  1
ACDBPLACEHOLDER
  2
AcDbPlaceHolder
  3
"AutoCAD 2000"
 90
    32768
280
     0
281
     0
  0
CLASS
  1
VBA_PROJECT
  2
AcDbVbaProject
  3
"acadvba"
 90
    32768
280
     0
281
     0
  0
CLASS
  1
WIPEOUT
  2
AcDbWipeout
  3
WipeOut|AutoCAD Express Tool|expresstools@autodesk.com
 90
    32895
280
     0
281
     1
  0
CLASS
  1
WIPEOUTVARIABLES
  2
AcDbWipeoutVariables
  3
WipeOut|AutoCAD Express Tool|expresstools@autodesk.com
 90
    32768
280
     0
281
     0
  0
CLASS
  1
RTEXT
  2
RText
  3
RText|AutoCAD Express Tool|expresstools@autodesk.com
 90
    32768
280
     0
281
     1
  0
CLASS
  1
ARCALIGNEDTEXT
  2
AcDbArcAlignedText
  3
ATEXT|AutoCAD Express Tool|expresstools@autodesk.com
 90
    32768
280
     0
281
     1
  0
ENDSEC
  0
SECTION
  2
TABLES
  0
TABLE
  2
VPORT
  5
6
100
AcDbSymbolTable
 70
     1
  0
VPORT
  5
1C
100
AcDbSymbolTableRecord
100
AcDbViewportTableRecord
  2
*ACTIVE
 70
     0
 10
0.0
 20
0.0
 11
1.0
 21
1.0
 12
0.0
 22
0.0
 13
0.0
 23
0.0
 14
1.0
 24
1.0
 15
0.0
 25
0.0
 16
0.0
 26
0.0
 36
1.0
 17
0.0
 27
0.0
 37
0.0
 40
1188.0
 41
1.414141
 42
50.0
 43
0.0
 44
0.0
 50
0.0
 51
0.0
 71
     0
 72
   500
 73
     1
 74
     1
 75
     0
 76
     0
 77
     0
 78
     0
  0
ENDTAB
  0
TABLE
  2
LTYPE
  5
3
100
AcDbSymbolTable
 70
     9
  0
LTYPE
  5
C
100
AcDbSymbolTableRecord
100
AcDbLinetypeTableRecord
  2
BYBLOCK
 70
    64
  3

 72
    65
 73
     0
 40
0.0
  0
LTYPE
  5
D
100
AcDbSymbolTableRecord
100
AcDbLinetypeTableRecord
  2
BYLAYER
 70
    64
  3

 72
    65
 73
     0
 40
0.0
  0
LTYPE
  5
E
100
AcDbSymbolTableRecord
100
AcDbLinetypeTableRecord
  2
CONTINUOUS
 70
     0
  3
Solid line
 72
    65
 73
     0
 40
0.0
  0
LTYPE
  5
F
100
AcDbSymbolTableRecord
100
AcDbLinetypeTableRecord
  2
DASHED
 70
     0
  3
__ __ __ __ __ __ __ __ __ __ __ __ __ __ __
 72
    65
 73
     2
 40
2.0
 49
1.2
 74
     0
 49
-0.8
 74
     0
  0
LTYPE
  5
10
100
AcDbSymbolTableRecord
100
AcDbLinetypeTableRecord
  2
CENTER
 70
     0
  3
____ _ ____ _ ____ _ ____ _ ____ _ ____ _ ____
 72
    65
 73
     4
 40
12.0
 49
9.0
 74
     0
 49
-1.0
 74
     0
 49
1.0
 74
     0
 49
-1.0
 74
     0
  0
LTYPE
  5
11
100
AcDbSymbolTableRecord
100
AcDbLinetypeTableRecord
  2
HIDDEN
 70
     0
  3
_ _ _ _ _ _ _ _ _ _ _ _ _ _ _ _ _ _ _ _ _ _ _
 72
    65
 73
     2
 40
3.2
 49
2.4
 74
     0
 49
-0.8
 74
     0
  0
LTYPE
  5
12
100
AcDbSymbolTableRecord
100
AcDbLinetypeTableRecord
  2
PHANTOM
 70
     0
  3
_____ _ _ _____ _ _ _____ _ _ _____ _ _ _____
 72
    65
 73
     6
 40
13.5
 49
9.0
 74
     0
 49
-1.0
 74
     0
 49
1.0
 74
     0
 49
-0.5
 74
     0
 49
1.0
 74
     0
 49
-1.0
 74
     0
  0
LTYPE
  5
13
100
AcDbSymbolTableRecord
100
AcDbLinetypeTableRecord
  2
DOT
 70
     0
  3
...............................................
 72
    65
 73
     2
 40
1.0
 49
0.5
 74
     0
 49
-0.5
 74
     0
  0
LTYPE
  5
14
100
AcDbSymbolTableRecord
100
AcDbLinetypeTableRecord
  2
DASHDOT
 70
     0
  3
__ . __ . __ . __ . __ . __ . __ . __ . __ . __
 72
    65
 73
     4
 40
8.0
 49
5.0
 74
     0
 49
-1.0
 74
     0
 49
1.0
 74
     0
 49
-1.0
 74
     0
  0
ENDTAB
  0
TABLE
  2
LAYER
  5
1
100
AcDbSymbolTable
 70
     7
  0
LAYER
  5
15
100
AcDbSymbolTableRecord
100
AcDbLayerTableRecord
  2
0
 70
     0
 62
     7
  6
CONTINUOUS
  0
LAYER
  5
16
100
AcDbSymbolTableRecord
100
AcDbLayerTableRecord
  2
1
 70
     0
 62
     7
  6
CONTINUOUS
  0
LAYER
  5
17
100
AcDbSymbolTableRecord
100
AcDbLayerTableRecord
  2
2
 70
     0
 62
     7
  6
CONTINUOUS
  0
LAYER
  5
18
100
AcDbSymbolTableRecord
100
AcDbLayerTableRecord
  2
3
 70
     0
 62
     7
  6
CONTINUOUS
  0
LAYER
  5
19
100
AcDbSymbolTableRecord
100
AcDbLayerTableRecord
  2
5
 70
     0
 62
     7
  6
CONTINUOUS
  0
LAYER
  5
1A
100
AcDbSymbolTableRecord
100
AcDbLayerTableRecord
  2
18
 70
     0
 62
     7
  6
CONTINUOUS
  0
LAYER
  5
1B
100
AcDbSymbolTableRecord
100
AcDbLayerTableRecord
  2
20
 70
     0
 62
     7
  6
CONTINUOUS
  0
ENDTAB
  0
TABLE
  2
STYLE
  5
2
100
AcDbSymbolTable
 70
     1
  0
STYLE
  5
1E
100
AcDbSymbolTableRecord
100
AcDbTextStyleTableRecord
  2
STANDARD
 70
    64
 40
0.0
 41
1.0
 50
0.0
 71
     0
 42
1.0
  3
txt
  4
BIGFONT
  0
ENDTAB
  0
TABLE
  2
VIEW
  5
4
100
AcDbSymbolTable
 70
     0
  0
ENDTAB
  0
TABLE
  2
UCS
  5
5
100
AcDbSymbolTable
 70
     0
  0
ENDTAB
  0
TABLE
  2
APPID
  5
7
100
AcDbSymbolTable
 70
     1
  0
APPID
  5
1D
100
AcDbSymbolTableRecord
100
AcDbRegAppTableRecord
  2
ACAD
 70
     0
  0
ENDTAB
  0
TABLE
  2
DIMSTYLE
  5
8
100
AcDbSymbolTable
 70
     1
  0
DIMSTYLE
105
31
100
AcDbSymbolTableRecord
100
AcDbDimStyleTableRecord
  2
STANDARD
 70
     0
  3

  4

  5

  6

  7

 40
4.0
 41
2.0
 42
1.0
 43
0.38
 44
2.0
 45
0.0
 46
0.0
 47
0.0
 48
0.0
 71
     0
 72
     0
 73
     0
 74
     0
 75
     0
 76
     0
 77
     1
 78
     0
140
3.3
141
0.09
142
0.0
143
25.4
144
1.0
145
0.0
146
1.0
147
0.5
170
     0
171
     2
172
     0
173
     0
174
     0
175
     0
176
     0
177
     0
178
     0
270
     2
271
     2
272
     4
273
     2
274
     2
275
     0
280
     0
281
     0
282
     0
283
     1
284
     0
285
     0
286
     0
287
     3
288
     0
340
1E
  0
ENDTAB
  0
TABLE
  2
BLOCK_RECORD
  5
2C
100
AcDbSymbolTable
 70
    11
  0
BLOCK_RECORD
  5
2A
100
AcDbSymbolTableRecord
100
AcDbBlockTableRecord
  2
*MODEL_SPACE
  0
BLOCK_RECORD
  5
2B
100
AcDbSymbolTableRecord
100
AcDbBlockTableRecord
  2
*PAPER_SPACE
  0
BLOCK_RECORD
  5
1F
100
AcDbSymbolTableRecord
100
AcDbBlockTableRecord
  2
*D0
  0
BLOCK_RECORD
  5
20
100
AcDbSymbolTableRecord
100
AcDbBlockTableRecord
  2
*D1
  0
BLOCK_RECORD
  5
21
100
AcDbSymbolTableRecord
100
AcDbBlockTableRecord
  2
*D2
  0
BLOCK_RECORD
  5
22
100
AcDbSymbolTableRecord
100
AcDbBlockTableRecord
  2
*D3
  0
BLOCK_RECORD
  5
23
100
AcDbSymbolTableRecord
100
AcDbBlockTableRecord
  2
*D4
  0
BLOCK_RECORD
  5
24
100
AcDbSymbolTableRecord
100
AcDbBlockTableRecord
  2
*D5
  0
BLOCK_RECORD
  5
25
100
AcDbSymbolTableRecord
100
AcDbBlockTableRecord
  2
*D6
  0
BLOCK_RECORD
  5
26
100
AcDbSymbolTableRecord
100
AcDbBlockTableRecord
  2
*D7
  0
BLOCK_RECORD
  5
27
100
AcDbSymbolTableRecord
100
AcDbBlockTableRecord
  2
*D8
  0
BLOCK_RECORD
  5
28
100
AcDbSymbolTableRecord
100
AcDbBlockTableRecord
  2
*D9
  0
BLOCK_RECORD
  5
29
100
AcDbSymbolTableRecord
100
AcDbBlockTableRecord
  2
*D10
  0
ENDTAB
  0
ENDSEC
  0
SECTION
  2
BLOCKS
  0
BLOCK
  5
2D
100
AcDbEntity
  8
0
100
AcDbBlockBegin
  2
*MODEL_SPACE
 70
     0
 10
0.0
 20
0.0
 30
0.0
  3
*MODEL_SPACE
  1

  0
ENDBLK
  5
2E
100
AcDbEntity
  8
0
100
AcDbBlockEnd
  0
BLOCK
  5
2F
100
AcDbEntity
 67
     1
  8
0
100
AcDbBlockBegin
  2
*PAPER_SPACE
 70
     0
 10
0.0
 20
0.0
 30
0.0
  3
*PAPER_SPACE
  1

  0
ENDBLK
  5
30
100
AcDbEntity
 67
     1
  8
0
100
AcDbBlockEnd
  0
BLOCK
  5
6DA
100
AcDbEntity
  8
5
100
AcDbBlockBegin
  2
*D0
 70
     1
 10
0.0
 20
0.0
 30
0.0
  3
*D0
  1

  0
TEXT
  5
6DB
100
AcDbEntity
  8
5
 62
     2
100
AcDbText
 10
-54.941227
 20
-120.293976
 30
0.0
 40
13.2
  1
100
 50
90.0
 41
1.4
 72
     5
 11
-54.941227
 21
-96.269977
 31
0.0
100
AcDbText
  0
LINE
  5
6DC
100
AcDbEntity
  8
5
 62
     2
100
AcDbLine
 10
97.514369
 20
-156.433977
 30
0.0
 11
-56.941227
 21
-156.433977
 31
0.0
  0
LINE
  5
6DD
100
AcDbEntity
  8
5
 62
     2
100
AcDbLine
 10
-52.941227
 20
-156.433977
 30
0.0
 11
-50.870675
 21
-148.70657
 31
0.0
  0
LINE
  5
6DE
100
AcDbEntity
  8
5
 62
     2
100
AcDbLine
 10
-52.941227
 20
-156.433977
 30
0.0
 11
-55.011779
 21
-148.70657
 31
0.0
  0
LINE
  5
6DF
100
AcDbEntity
  8
5
 62
     2
100
AcDbLine
 10
-50.870675
 20
-148.70657
 30
0.0
 11
-55.011779
 21
-148.70657
 31
0.0
  0
LINE
  5
6E0
100
AcDbEntity
  8
5
 62
     2
100
AcDbLine
 10
-52.941227
 20
-156.433977
 30
0.0
 11
-52.941227
 21
-56.433977
 31
0.0
  0
LINE
  5
6E1
100
AcDbEntity
  8
5
 62
     2
100
AcDbLine
 10
-52.941227
 20
-56.433977
 30
0.0
 11
-55.011779
 21
-64.161383
 31
0.0
  0
LINE
  5
6E2
100
AcDbEntity
  8
5
 62
     2
100
AcDbLine
 10
-52.941227
 20
-56.433977
 30
0.0
 11
-50.870675
 21
-64.161383
 31
0.0
  0
LINE
  5
6E3
100
AcDbEntity
  8
5
 62
     2
100
AcDbLine
 10
-55.011779
 20
-64.161383
 30
0.0
 11
-50.870675
 21
-64.161383
 31
0.0
  0
LINE
  5
6E4
100
AcDbEntity
  8
5
 62
     2
100
AcDbLine
 10
97.514369
 20
-56.433977
 30
0.0
 11
-56.941227
 21
-56.433977
 31
0.0
  0
ENDBLK
  5
6E5
100
AcDbEntity
  8
5
100
AcDbBlockEnd
  0
BLOCK
  5
6E6
100
AcDbEntity
  8
5
100
AcDbBlockBegin
  2
*D1
 70
     1
 10
0.0
 20
0.0
 30
0.0
  3
*D1
  1

  0
TEXT
  5
6E7
100
AcDbEntity
  8
5
 62
     2
100
AcDbText
 10
-54.941227
 20
12.206024
 30
0.0
 40
13.2
  1
165
 50
90.0
 41
1.4
 72
     5
 11
-54.941227
 21
36.230023
 31
0.0
100
AcDbText
  0
LINE
  5
6E8
100
AcDbEntity
  8
5
 62
     2
100
AcDbLine
 10
97.514369
 20
-56.433977
 30
0.0
 11
-56.941227
 21
-56.433977
 31
0.0
  0
LINE
  5
6E9
100
AcDbEntity
  8
5
 62
     2
100
AcDbLine
 10
-52.941227
 20
-56.433977
 30
0.0
 11
-50.870675
 21
-48.70657
 31
0.0
  0
LINE
  5
6EA
100
AcDbEntity
  8
5
 62
     2
100
AcDbLine
 10
-52.941227
 20
-56.433977
 30
0.0
 11
-55.011779
 21
-48.70657
 31
0.0
  0
LINE
  5
6EB
100
AcDbEntity
  8
5
 62
     2
100
AcDbLine
 10
-50.870675
 20
-48.70657
 30
0.0
 11
-55.011779
 21
-48.70657
 31
0.0
  0
LINE
  5
6EC
100
AcDbEntity
  8
5
 62
     2
100
AcDbLine
 10
-52.941227
 20
-56.433977
 30
0.0
 11
-52.941227
 21
108.566023
 31
0.0
  0
LINE
  5
6ED
100
AcDbEntity
  8
5
 62
     2
100
AcDbLine
 10
-52.941227
 20
108.566023
 30
0.0
 11
-55.011779
 21
100.838617
 31
0.0
  0
LINE
  5
6EE
100
AcDbEntity
  8
5
 62
     2
100
AcDbLine
 10
-52.941227
 20
108.566023
 30
0.0
 11
-50.870675
 21
100.838617
 31
0.0
  0
LINE
  5
6EF
100
AcDbEntity
  8
5
 62
     2
100
AcDbLine
 10
-55.011779
 20
100.838617
 30
0.0
 11
-50.870675
 21
100.838617
 31
0.0
  0
LINE
  5
6F0
100
AcDbEntity
  8
5
 62
     2
100
AcDbLine
 10
148.514369
 20
108.566023
 30
0.0
 11
-56.941227
 21
108.566023
 31
0.0
  0
ENDBLK
  5
6F1
100
AcDbEntity
  8
5
100
AcDbBlockEnd
  0
BLOCK
  5
6F2
100
AcDbEntity
  8
5
100
AcDbBlockBegin
  2
*D2
 70
     1
 10
0.0
 20
0.0
 30
0.0
  3
*D2
  1

  0
TEXT
  5
6F3
100
AcDbEntity
  8
5
 62
     2
100
AcDbText
 10
-8.992304
 20
-9.293976
 30
0.0
 40
13.2
  1
%%c70
 50
90.0
 41
1.4
 72
     5
 11
-8.992304
 21
14.730023
 31
0.0
100
AcDbText
  0
LINE
  5
6F4
100
AcDbEntity
  8
5
 62
     2
100
AcDbLine
 10
28.078256
 20
39.532101
 30
0.0
 11
-10.992304
 21
39.532101
 31
0.0
  0
LINE
  5
6F5
100
AcDbEntity
  8
5
 62
     2
100
AcDbLine
 10
-6.992304
 20
39.532101
 30
0.0
 11
-9.062857
 21
31.804695
 31
0.0
  0
LINE
  5
6F6
100
AcDbEntity
  8
5
 62
     2
100
AcDbLine
 10
-6.992304
 20
39.532101
 30
0.0
 11
-4.921752
 21
31.804695
 31
0.0
  0
LINE
  5
6F7
100
AcDbEntity
  8
5
 62
     2
100
AcDbLine
 10
-9.062857
 20
31.804695
 30
0.0
 11
-4.921752
 21
31.804695
 31
0.0
  0
LINE
  5
6F8
100
AcDbEntity
  8
5
 62
     2
100
AcDbLine
 10
-6.992304
 20
39.532101
 30
0.0
 11
-6.992304
 21
-30.400054
 31
0.0
  0
LINE
  5
6F9
100
AcDbEntity
  8
5
 62
     2
100
AcDbLine
 10
-6.992304
 20
-30.400054
 30
0.0
 11
-4.921752
 21
-22.672648
 31
0.0
  0
LINE
  5
6FA
100
AcDbEntity
  8
5
 62
     2
100
AcDbLine
 10
-6.992304
 20
-30.400054
 30
0.0
 11
-9.062857
 21
-22.672648
 31
0.0
  0
LINE
  5
6FB
100
AcDbEntity
  8
5
 62
     2
100
AcDbLine
 10
-4.921752
 20
-22.672648
 30
0.0
 11
-9.062857
 21
-22.672648
 31
0.0
  0
LINE
  5
6FC
100
AcDbEntity
  8
5
 62
     2
100
AcDbLine
 10
28.078256
 20
-30.400054
 30
0.0
 11
-10.992304
 21
-30.400054
 31
0.0
  0
ENDBLK
  5
6FD
100
AcDbEntity
  8
5
100
AcDbBlockEnd
  0
BLOCK
  5
6FE
100
AcDbEntity
  8
5
100
AcDbBlockBegin
  2
*D3
 70
     1
 10
0.0
 20
0.0
 30
0.0
  3
*D3
  1

  0
TEXT
  5
6FF
100
AcDbEntity
  8
5
 62
     2
100
AcDbText
 10
-331.745631
 20
458.373047
 30
0.0
 40
13.2
  1
114
 41
1.4
 72
     5
 11
-307.721631
 21
458.373047
 31
0.0
100
AcDbText
  0
LINE
  5
700
100
AcDbEntity
  8
5
 62
     2
100
AcDbLine
 10
-374.885631
 20
425.624359
 30
0.0
 11
-374.885631
 21
460.373047
 31
0.0
  0
LINE
  5
701
100
AcDbEntity
  8
5
 62
     2
100
AcDbLine
 10
-374.885631
 20
456.373047
 30
0.0
 11
-367.158224
 21
454.302495
 31
0.0
  0
LINE
  5
702
100
AcDbEntity
  8
5
 62
     2
100
AcDbLine
 10
-374.885631
 20
456.373047
 30
0.0
 11
-367.158224
 21
458.443599
 31
0.0
  0
LINE
  5
703
100
AcDbEntity
  8
5
 62
     2
100
AcDbLine
 10
-367.158224
 20
454.302495
 30
0.0
 11
-367.158224
 21
458.443599
 31
0.0
  0
LINE
  5
704
100
AcDbEntity
  8
5
 62
     2
100
AcDbLine
 10
-374.885631
 20
456.373047
 30
0.0
 11
-260.885631
 21
456.373047
 31
0.0
  0
LINE
  5
705
100
AcDbEntity
  8
5
 62
     2
100
AcDbLine
 10
-260.885631
 20
456.373047
 30
0.0
 11
-268.613038
 21
458.443599
 31
0.0
  0
LINE
  5
706
100
AcDbEntity
  8
5
 62
     2
100
AcDbLine
 10
-260.885631
 20
456.373047
 30
0.0
 11
-268.613038
 21
454.302495
 31
0.0
  0
LINE
  5
707
100
AcDbEntity
  8
5
 62
     2
100
AcDbLine
 10
-268.613038
 20
458.443599
 30
0.0
 11
-268.613038
 21
454.302495
 31
0.0
  0
LINE
  5
708
100
AcDbEntity
  8
5
 62
     2
100
AcDbLine
 10
-260.885631
 20
400.693241
 30
0.0
 11
-260.885631
 21
460.373047
 31
0.0
  0
ENDBLK
  5
709
100
AcDbEntity
  8
5
100
AcDbBlockEnd
  0
BLOCK
  5
70A
100
AcDbEntity
  8
5
100
AcDbBlockBegin
  2
*D4
 70
     1
 10
0.0
 20
0.0
 30
0.0
  3
*D4
  1

  0
TEXT
  5
70B
100
AcDbEntity
  8
5
 62
     2
100
AcDbText
 10
-457.745631
 20
458.373047
 30
0.0
 40
13.2
  1
138
 41
1.4
 72
     5
 11
-433.721631
 21
458.373047
 31
0.0
100
AcDbText
  0
LINE
  5
70C
100
AcDbEntity
  8
5
 62
     2
100
AcDbLine
 10
-512.885631
 20
399.766023
 30
0.0
 11
-512.885631
 21
460.373047
 31
0.0
  0
LINE
  5
70D
100
AcDbEntity
  8
5
 62
     2
100
AcDbLine
 10
-512.885631
 20
456.373047
 30
0.0
 11
-505.158224
 21
454.302495
 31
0.0
  0
LINE
  5
70E
100
AcDbEntity
  8
5
 62
     2
100
AcDbLine
 10
-512.885631
 20
456.373047
 30
0.0
 11
-505.158224
 21
458.443599
 31
0.0
  0
LINE
  5
70F
100
AcDbEntity
  8
5
 62
     2
100
AcDbLine
 10
-505.158224
 20
454.302495
 30
0.0
 11
-505.158224
 21
458.443599
 31
0.0
  0
LINE
  5
710
100
AcDbEntity
  8
5
 62
     2
100
AcDbLine
 10
-512.885631
 20
456.373047
 30
0.0
 11
-374.885631
 21
456.373047
 31
0.0
  0
LINE
  5
711
100
AcDbEntity
  8
5
 62
     2
100
AcDbLine
 10
-374.885631
 20
456.373047
 30
0.0
 11
-382.613038
 21
458.443599
 31
0.0
  0
LINE
  5
712
100
AcDbEntity
  8
5
 62
     2
100
AcDbLine
 10
-374.885631
 20
456.373047
 30
0.0
 11
-382.613038
 21
454.302495
 31
0.0
  0
LINE
  5
713
100
AcDbEntity
  8
5
 62
     2
100
AcDbLine
 10
-382.613038
 20
458.443599
 30
0.0
 11
-382.613038
 21
454.302495
 31
0.0
  0
LINE
  5
714
100
AcDbEntity
  8
5
 62
     2
100
AcDbLine
 10
-374.885631
 20
425.624359
 30
0.0
 11
-374.885631
 21
460.373047
 31
0.0
  0
ENDBLK
  5
715
100
AcDbEntity
  8
5
100
AcDbBlockEnd
  0
BLOCK
  5
716
100
AcDbEntity
  8
5
100
AcDbBlockBegin
  2
*D5
 70
     1
 10
0.0
 20
0.0
 30
0.0
  3
*D5
  1

  0
TEXT
  5
717
100
AcDbEntity
  8
5
 62
     2
100
AcDbText
 10
-206.745865
 20
375.026024
 30
0.0
 40
13.2
  1
65
 50
90.0
 41
1.4
 72
     5
 11
-206.745865
 21
389.810023
 31
0.0
100
AcDbText
  0
LINE
  5
718
100
AcDbEntity
  8
5
 62
     2
100
AcDbLine
 10
-243.526719
 20
351.766023
 30
0.0
 11
-200.745865
 21
351.766023
 31
0.0
  0
LINE
  5
719
100
AcDbEntity
  8
5
 62
     2
100
AcDbLine
 10
-204.745865
 20
351.766023
 30
0.0
 11
-202.675313
 21
359.49343
 31
0.0
  0
LINE
  5
71A
100
AcDbEntity
  8
5
 62
     2
100
AcDbLine
 10
-204.745865
 20
351.766023
 30
0.0
 11
-206.816417
 21
359.49343
 31
0.0
  0
LINE
  5
71B
100
AcDbEntity
  8
5
 62
     2
100
AcDbLine
 10
-202.675313
 20
359.49343
 30
0.0
 11
-206.816417
 21
359.49343
 31
0.0
  0
LINE
  5
71C
100
AcDbEntity
  8
5
 62
     2
100
AcDbLine
 10
-204.745865
 20
351.766023
 30
0.0
 11
-204.745865
 21
416.766023
 31
0.0
  0
LINE
  5
71D
100
AcDbEntity
  8
5
 62
     2
100
AcDbLine
 10
-204.745865
 20
416.766023
 30
0.0
 11
-206.816417
 21
409.038617
 31
0.0
  0
LINE
  5
71E
100
AcDbEntity
  8
5
 62
     2
100
AcDbLine
 10
-204.745865
 20
416.766023
 30
0.0
 11
-202.675313
 21
409.038617
 31
0.0
  0
LINE
  5
71F
100
AcDbEntity
  8
5
 62
     2
100
AcDbLine
 10
-206.816417
 20
409.038617
 30
0.0
 11
-202.675313
 21
409.038617
 31
0.0
  0
LINE
  5
720
100
AcDbEntity
  8
5
 62
     2
100
AcDbLine
 10
-349.562131
 20
416.766023
 30
0.0
 11
-200.745865
 21
416.766023
 31
0.0
  0
ENDBLK
  5
721
100
AcDbEntity
  8
5
100
AcDbBlockEnd
  0
BLOCK
  5
722
100
AcDbEntity
  8
5
100
AcDbBlockBegin
  2
*D6
 70
     1
 10
0.0
 20
0.0
 30
0.0
  3
*D6
  1

  0
TEXT
  5
723
100
AcDbEntity
  8
5
 62
     2
100
AcDbText
 10
-206.745865
 20
274.906024
 30
0.0
 40
13.2
  1
126
 50
90.0
 41
1.4
 72
     5
 11
-206.745865
 21
298.930023
 31
0.0
100
AcDbText
  0
LINE
  5
724
100
AcDbEntity
  8
5
 62
     2
100
AcDbLine
 10
-305.190611
 20
225.766023
 30
0.0
 11
-200.745865
 21
225.766023
 31
0.0
  0
LINE
  5
725
100
AcDbEntity
  8
5
 62
     2
100
AcDbLine
 10
-204.745865
 20
225.766023
 30
0.0
 11
-202.675313
 21
233.49343
 31
0.0
  0
LINE
  5
726
100
AcDbEntity
  8
5
 62
     2
100
AcDbLine
 10
-204.745865
 20
225.766023
 30
0.0
 11
-206.816417
 21
233.49343
 31
0.0
  0
LINE
  5
727
100
AcDbEntity
  8
5
 62
     2
100
AcDbLine
 10
-202.675313
 20
233.49343
 30
0.0
 11
-206.816417
 21
233.49343
 31
0.0
  0
LINE
  5
728
100
AcDbEntity
  8
5
 62
     2
100
AcDbLine
 10
-204.745865
 20
225.766023
 30
0.0
 11
-204.745865
 21
351.766023
 31
0.0
  0
LINE
  5
729
100
AcDbEntity
  8
5
 62
     2
100
AcDbLine
 10
-204.745865
 20
351.766023
 30
0.0
 11
-206.816417
 21
344.038617
 31
0.0
  0
LINE
  5
72A
100
AcDbEntity
  8
5
 62
     2
100
AcDbLine
 10
-204.745865
 20
351.766023
 30
0.0
 11
-202.675313
 21
344.038617
 31
0.0
  0
LINE
  5
72B
100
AcDbEntity
  8
5
 62
     2
100
AcDbLine
 10
-206.816417
 20
344.038617
 30
0.0
 11
-202.675313
 21
344.038617
 31
0.0
  0
LINE
  5
72C
100
AcDbEntity
  8
5
 62
     2
100
AcDbLine
 10
-243.526719
 20
351.766023
 30
0.0
 11
-200.745865
 21
351.766023
 31
0.0
  0
ENDBLK
  5
72D
100
AcDbEntity
  8
5
100
AcDbBlockEnd
  0
BLOCK
  5
72E
100
AcDbEntity
  8
5
100
AcDbBlockBegin
  2
*D7
 70
     1
 10
0.0
 20
0.0
 30
0.0
  3
*D7
  1

  0
TEXT
  5
72F
100
AcDbEntity
  8
5
 62
     2
100
AcDbText
 10
-54.941227
 20
-243.793976
 30
0.0
 40
13.2
  1
147
 50
90.0
 41
1.4
 72
     5
 11
-54.941227
 21
-219.769977
 31
0.0
100
AcDbText
  0
LINE
  5
730
100
AcDbEntity
  8
5
 62
     2
100
AcDbLine
 10
109.039195
 20
-303.433977
 30
0.0
 11
-56.941227
 21
-303.433977
 31
0.0
  0
LINE
  5
731
100
AcDbEntity
  8
5
 62
     2
100
AcDbLine
 10
-52.941227
 20
-303.433977
 30
0.0
 11
-50.870675
 21
-295.70657
 31
0.0
  0
LINE
  5
732
100
AcDbEntity
  8
5
 62
     2
100
AcDbLine
 10
-52.941227
 20
-303.433977
 30
0.0
 11
-55.011779
 21
-295.70657
 31
0.0
  0
LINE
  5
733
100
AcDbEntity
  8
5
 62
     2
100
AcDbLine
 10
-50.870675
 20
-295.70657
 30
0.0
 11
-55.011779
 21
-295.70657
 31
0.0
  0
LINE
  5
734
100
AcDbEntity
  8
5
 62
     2
100
AcDbLine
 10
-52.941227
 20
-303.433977
 30
0.0
 11
-52.941227
 21
-156.433977
 31
0.0
  0
LINE
  5
735
100
AcDbEntity
  8
5
 62
     2
100
AcDbLine
 10
-52.941227
 20
-156.433977
 30
0.0
 11
-55.011779
 21
-164.161383
 31
0.0
  0
LINE
  5
736
100
AcDbEntity
  8
5
 62
     2
100
AcDbLine
 10
-52.941227
 20
-156.433977
 30
0.0
 11
-50.870675
 21
-164.161383
 31
0.0
  0
LINE
  5
737
100
AcDbEntity
  8
5
 62
     2
100
AcDbLine
 10
-55.011779
 20
-164.161383
 30
0.0
 11
-50.870675
 21
-164.161383
 31
0.0
  0
LINE
  5
738
100
AcDbEntity
  8
5
 62
     2
100
AcDbLine
 10
97.514369
 20
-156.433977
 30
0.0
 11
-56.941227
 21
-156.433977
 31
0.0
  0
ENDBLK
  5
739
100
AcDbEntity
  8
5
100
AcDbBlockEnd
  0
BLOCK
  5
73A
100
AcDbEntity
  8
5
100
AcDbBlockBegin
  2
*D8
 70
     1
 10
0.0
 20
0.0
 30
0.0
  3
*D8
  1

  0
TEXT
  5
73B
100
AcDbEntity
  8
5
 62
     2
100
AcDbText
 10
-54.941227
 20
-360.173976
 30
0.0
 40
13.2
  1
95
 50
90.0
 41
1.4
 72
     5
 11
-54.941227
 21
-345.389977
 31
0.0
100
AcDbText
  0
LINE
  5
73C
100
AcDbEntity
  8
5
 62
     2
100
AcDbLine
 10
130.514369
 20
-398.433977
 30
0.0
 11
-56.941227
 21
-398.433977
 31
0.0
  0
LINE
  5
73D
100
AcDbEntity
  8
5
 62
     2
100
AcDbLine
 10
-52.941227
 20
-398.433977
 30
0.0
 11
-50.870675
 21
-390.70657
 31
0.0
  0
LINE
  5
73E
100
AcDbEntity
  8
5
 62
     2
100
AcDbLine
 10
-52.941227
 20
-398.433977
 30
0.0
 11
-55.011779
 21
-390.70657
 31
0.0
  0
LINE
  5
73F
100
AcDbEntity
  8
5
 62
     2
100
AcDbLine
 10
-50.870675
 20
-390.70657
 30
0.0
 11
-55.011779
 21
-390.70657
 31
0.0
  0
LINE
  5
740
100
AcDbEntity
  8
5
 62
     2
100
AcDbLine
 10
-52.941227
 20
-398.433977
 30
0.0
 11
-52.941227
 21
-303.433977
 31
0.0
  0
LINE
  5
741
100
AcDbEntity
  8
5
 62
     2
100
AcDbLine
 10
-52.941227
 20
-303.433977
 30
0.0
 11
-55.011779
 21
-311.161383
 31
0.0
  0
LINE
  5
742
100
AcDbEntity
  8
5
 62
     2
100
AcDbLine
 10
-52.941227
 20
-303.433977
 30
0.0
 11
-50.870675
 21
-311.161383
 31
0.0
  0
LINE
  5
743
100
AcDbEntity
  8
5
 62
     2
100
AcDbLine
 10
-55.011779
 20
-311.161383
 30
0.0
 11
-50.870675
 21
-311.161383
 31
0.0
  0
LINE
  5
744
100
AcDbEntity
  8
5
 62
     2
100
AcDbLine
 10
109.039195
 20
-303.433977
 30
0.0
 11
-56.941227
 21
-303.433977
 31
0.0
  0
ENDBLK
  5
745
100
AcDbEntity
  8
5
100
AcDbBlockEnd
  0
BLOCK
  5
746
100
AcDbEntity
  8
5
100
AcDbBlockBegin
  2
*D9
 70
     1
 10
0.0
 20
0.0
 30
0.0
  3
*D9
  1

  0
TEXT
  5
747
100
AcDbEntity
  8
5
 62
     2
100
AcDbText
 10
102.034369
 20
-436.680603
 30
0.0
 40
13.2
  1
22
 41
1.4
 72
     5
 11
116.818369
 21
-436.680603
 31
0.0
100
AcDbText
  0
LINE
  5
748
100
AcDbEntity
  8
5
 62
     2
100
AcDbLine
 10
130.514369
 20
-370.933977
 30
0.0
 11
130.514369
 21
-442.680603
 31
0.0
  0
LINE
  5
749
100
AcDbEntity
  8
5
 62
     2
100
AcDbLine
 10
130.514369
 20
-438.680603
 30
0.0
 11
122.786962
 21
-436.610051
 31
0.0
  0
LINE
  5
74A
100
AcDbEntity
  8
5
 62
     2
100
AcDbLine
 10
130.514369
 20
-438.680603
 30
0.0
 11
122.786962
 21
-440.751155
 31
0.0
  0
LINE
  5
74B
100
AcDbEntity
  8
5
 62
     2
100
AcDbLine
 10
122.786962
 20
-436.610051
 30
0.0
 11
122.786962
 21
-440.751155
 31
0.0
  0
LINE
  5
74C
100
AcDbEntity
  8
5
 62
     2
100
AcDbLine
 10
100.034369
 20
-438.680603
 30
0.0
 11
172.514369
 21
-438.680603
 31
0.0
  0
LINE
  5
74D
100
AcDbEntity
  8
5
 62
     2
100
AcDbLine
 10
152.514369
 20
-438.680603
 30
0.0
 11
160.241776
 21
-440.751155
 31
0.0
  0
LINE
  5
74E
100
AcDbEntity
  8
5
 62
     2
100
AcDbLine
 10
152.514369
 20
-438.680603
 30
0.0
 11
160.241776
 21
-436.610051
 31
0.0
  0
LINE
  5
74F
100
AcDbEntity
  8
5
 62
     2
100
AcDbLine
 10
160.241776
 20
-440.751155
 30
0.0
 11
160.241776
 21
-436.610051
 31
0.0
  0
LINE
  5
750
100
AcDbEntity
  8
5
 62
     2
100
AcDbLine
 10
152.514369
 20
-416.619092
 30
0.0
 11
152.514369
 21
-442.680603
 31
0.0
  0
ENDBLK
  5
751
100
AcDbEntity
  8
5
100
AcDbBlockEnd
  0
BLOCK
  5
752
100
AcDbEntity
  8
5
100
AcDbBlockBegin
  2
*D10
 70
     1
 10
0.0
 20
0.0
 30
0.0
  3
*D10
  1

  0
TEXT
  5
753
100
AcDbEntity
  8
5
 62
     2
100
AcDbText
 10
145.274369
 20
-472.269318
 30
0.0
 40
13.2
  1
48
 41
1.4
 72
     5
 11
160.058369
 21
-472.269318
 31
0.0
100
AcDbText
  0
LINE
  5
754
100
AcDbEntity
  8
5
 62
     2
100
AcDbLine
 10
130.514369
 20
-370.933977
 30
0.0
 11
130.514369
 21
-478.269318
 31
0.0
  0
LINE
  5
755
100
AcDbEntity
  8
5
 62
     2
100
AcDbLine
 10
130.514369
 20
-474.269318
 30
0.0
 11
138.241776
 21
-476.33987
 31
0.0
  0
LINE
  5
756
100
AcDbEntity
  8
5
 62
     2
100
AcDbLine
 10
130.514369
 20
-474.269318
 30
0.0
 11
138.241776
 21
-472.198765
 31
0.0
  0
LINE
  5
757
100
AcDbEntity
  8
5
 62
     2
100
AcDbLine
 10
138.241776
 20
-476.33987
 30
0.0
 11
138.241776
 21
-472.198765
 31
0.0
  0
LINE
  5
758
100
AcDbEntity
  8
5
 62
     2
100
AcDbLine
 10
130.514369
 20
-474.269318
 30
0.0
 11
178.514369
 21
-474.269318
 31
0.0
  0
LINE
  5
759
100
AcDbEntity
  8
5
 62
     2
100
AcDbLine
 10
178.514369
 20
-474.269318
 30
0.0
 11
170.786962
 21
-472.198765
 31
0.0
  0
LINE
  5
75A
100
AcDbEntity
  8
5
 62
     2
100
AcDbLine
 10
178.514369
 20
-474.269318
 30
0.0
 11
170.786962
 21
-476.33987
 31
0.0
  0
LINE
  5
75B
100
AcDbEntity
  8
5
 62
     2
100
AcDbLine
 10
170.786962
 20
-472.198765
 30
0.0
 11
170.786962
 21
-476.33987
 31
0.0
  0
LINE
  5
75C
100
AcDbEntity
  8
5
 62
     2
100
AcDbLine
 10
178.514369
 20
-370.933977
 30
0.0
 11
178.514369
 21
-478.269318
 31
0.0
  0
ENDBLK
  5
75D
100
AcDbEntity
  8
5
100
AcDbBlockEnd
  0
ENDSEC
  0
SECTION
  2
ENTITIES
  0
LINE
  5
32
100
AcDbEntity
  8
1
  6
CENTER
 62
     2
100
AcDbLine
 10
152.514369
 20
119.966023
 30
0.0
 11
152.514369
 21
-412.619092
 31
0.0
  0
LINE
  5
33
100
AcDbEntity
  8
1
  6
CENTER
 62
     2
100
AcDbLine
 10
-338.823185
 20
-136.105103
 30
0.0
 11
-338.823185
 21
-180.429916
 31
0.0
  0
LINE
  5
34
100
AcDbEntity
  8
1
  6
CENTER
 62
     2
100
AcDbLine
 10
-410.948077
 20
-136.105103
 30
0.0
 11
-410.948077
 21
-180.429916
 31
0.0
  0
LINE
  5
35
100
AcDbEntity
  8
1
  6
CENTER
 62
     2
100
AcDbLine
 10
188.576815
 20
-146.037774
 30
0.0
 11
188.576815
 21
-180.429916
 31
0.0
  0
LINE
  5
36
100
AcDbEntity
  8
1
  6
CENTER
 62
     2
100
AcDbLine
 10
116.451923
 20
-146.037774
 30
0.0
 11
116.451923
 21
-180.429916
 31
0.0
  0
LINE
  5
37
100
AcDbEntity
  8
1
  6
CENTER
 62
     2
100
AcDbLine
 10
113.039195
 20
-303.433977
 30
0.0
 11
196.047108
 21
-303.433977
 31
0.0
  0
LINE
  5
38
100
AcDbEntity
  8
1
  6
CENTER
 62
     2
100
AcDbLine
 10
-294.577985
 20
-303.433977
 30
0.0
 11
-462.502495
 21
-303.433977
 31
0.0
  0
LINE
  5
39
100
AcDbEntity
  8
1
  6
CENTER
 62
     2
100
AcDbLine
 10
-374.885631
 20
119.966023
 30
0.0
 11
-374.885631
 21
-412.619092
 31
0.0
  0
CIRCLE
  5
3A
100
AcDbEntity
  8
1
100
AcDbCircle
 10
-375.985631
 20
-303.433977
 30
0.0
 40
63.5
  0
LINE
  5
3B
100
AcDbEntity
  8
1
100
AcDbLine
 10
-357.985631
 20
-388.433977
 30
0.0
 11
-393.985631
 21
-388.433977
 31
0.0
  0
LINE
  5
3C
100
AcDbEntity
  8
1
100
AcDbLine
 10
-327.885631
 20
-171.433977
 30
0.0
 11
-421.885631
 21
-171.433977
 31
0.0
  0
LINE
  5
3D
100
AcDbEntity
  8
1
100
AcDbLine
 10
-425.885631
 20
-156.433977
 30
0.0
 11
-425.885631
 21
-167.433977
 31
0.0
  0
LINE
  5
3E
100
AcDbEntity
  8
1
100
AcDbLine
 10
-323.885631
 20
-156.433977
 30
0.0
 11
-323.885631
 21
-167.433977
 31
0.0
  0
ARC
  5
3F
100
AcDbEntity
  8
1
100
AcDbCircle
 10
-421.885631
 20
-167.433977
 30
0.0
 40
4.0
100
AcDbArc
 50
180.0
 51
270.0
  0
ARC
  5
40
100
AcDbEntity
  8
1
100
AcDbCircle
 10
-327.885631
 20
-167.433977
 30
0.0
 40
4.0
100
AcDbArc
 50
270.0
 51
360.0
  0
LINE
  5
41
100
AcDbEntity
  8
1
100
AcDbLine
 10
-393.985631
 20
-183.433977
 30
0.0
 11
-393.985631
 21
-235.476269
 31
0.0
  0
LINE
  5
42
100
AcDbEntity
  8
1
100
AcDbLine
 10
-357.985631
 20
-183.433977
 30
0.0
 11
-357.985631
 21
-235.476269
 31
0.0
  0
LINE
  5
43
100
AcDbEntity
  8
1
100
AcDbLine
 10
-393.985631
 20
-371.391684
 30
0.0
 11
-393.985631
 21
-392.933977
 31
0.0
  0
LINE
  5
44
100
AcDbEntity
  8
1
100
AcDbLine
 10
-357.985631
 20
-371.391684
 30
0.0
 11
-357.985631
 21
-392.933977
 31
0.0
  0
LINE
  5
45
100
AcDbEntity
  8
1
100
AcDbLine
 10
178.514369
 20
-239.933977
 30
0.0
 11
178.514369
 21
-366.933977
 31
0.0
  0
LINE
  5
46
100
AcDbEntity
  8
1
100
AcDbLine
 10
130.514369
 20
-239.933977
 30
0.0
 11
130.514369
 21
-366.933977
 31
0.0
  0
LINE
  5
47
100
AcDbEntity
  8
1
100
AcDbLine
 10
105.514369
 20
-171.433977
 30
0.0
 11
199.514369
 21
-171.433977
 31
0.0
  0
LINE
  5
48
100
AcDbEntity
  8
1
100
AcDbLine
 10
133.514369
 20
-388.433977
 30
0.0
 11
169.514369
 21
-388.433977
 31
0.0
  0
LINE
  5
49
100
AcDbEntity
  8
1
100
AcDbLine
 10
101.514369
 20
-156.433977
 30
0.0
 11
101.514369
 21
-167.433977
 31
0.0
  0
LINE
  5
4A
100
AcDbEntity
  8
1
100
AcDbLine
 10
203.514369
 20
-156.433977
 30
0.0
 11
203.514369
 21
-167.433977
 31
0.0
  0
ARC
  5
4B
100
AcDbEntity
  8
1
100
AcDbCircle
 10
105.514369
 20
-167.433977
 30
0.0
 40
4.0
100
AcDbArc
 50
180.0
 51
270.0
  0
ARC
  5
4C
100
AcDbEntity
  8
1
100
AcDbCircle
 10
199.514369
 20
-167.433977
 30
0.0
 40
4.0
100
AcDbArc
 50
270.0
 51
360.0
  0
LINE
  5
4D
100
AcDbEntity
  8
1
100
AcDbLine
 10
169.514369
 20
-392.933977
 30
0.0
 11
169.514369
 21
-365.145737
 31
0.0
  0
LINE
  5
4E
100
AcDbEntity
  8
1
100
AcDbLine
 10
169.514369
 20
-263.300172
 30
0.0
 11
169.514369
 21
-183.433977
 31
0.0
  0
LINE
  5
4F
100
AcDbEntity
  8
1
100
AcDbLine
 10
133.514369
 20
-392.933977
 30
0.0
 11
133.514369
 21
-365.145737
 31
0.0
  0
LINE
  5
50
100
AcDbEntity
  8
1
100
AcDbLine
 10
133.514369
 20
-241.722216
 30
0.0
 11
133.514369
 21
-183.433977
 31
0.0
  0
LINE
  5
51
100
AcDbEntity
  8
1
  6
DASHED
100
AcDbLine
 10
-323.885631
 20
324.266023
 30
0.0
 11
-323.885631
 21
379.266023
 31
0.0
  0
LINE
  5
52
100
AcDbEntity
  8
1
  6
DASHED
100
AcDbLine
 10
-425.885631
 20
324.266023
 30
0.0
 11
-425.885631
 21
379.266023
 31
0.0
  0
LINE
  5
53
100
AcDbEntity
  8
1
  6
DASHED
100
AcDbLine
 10
-402.385631
 20
402.766023
 30
0.0
 11
-347.385631
 21
402.766023
 31
0.0
  0
LINE
  5
54
100
AcDbEntity
  8
1
  6
DASHED
100
AcDbLine
 10
-402.385631
 20
300.766023
 30
0.0
 11
-347.385631
 21
300.766023
 31
0.0
  0
ARC
  5
55
100
AcDbEntity
  8
1
  6
DASHED
100
AcDbCircle
 10
-402.385631
 20
324.266023
 30
0.0
 40
23.5
100
AcDbArc
 50
180.0
 51
270.0
  0
ARC
  5
56
100
AcDbEntity
  8
1
  6
DASHED
100
AcDbCircle
 10
-347.385631
 20
324.266023
 30
0.0
 40
23.5
100
AcDbArc
 50
270.0
 51
360.0
  0
ARC
  5
57
100
AcDbEntity
  8
1
  6
DASHED
100
AcDbCircle
 10
-347.385631
 20
379.266023
 30
0.0
 40
23.5
100
AcDbArc
 50
0.0
 51
90.0
  0
ARC
  5
58
100
AcDbEntity
  8
1
  6
DASHED
100
AcDbCircle
 10
-402.385631
 20
379.266023
 30
0.0
 40
23.5
100
AcDbArc
 50
90.0
 51
180.0
  0
LINE
  5
59
100
AcDbEntity
  8
1
  6
DASHED
100
AcDbLine
 10
-439.485631
 20
329.766023
 30
0.0
 11
-439.485631
 21
377.766023
 31
0.0
  0
LINE
  5
5A
100
AcDbEntity
  8
1
  6
DASHED
100
AcDbLine
 10
-439.485631
 20
377.766023
 30
0.0
 11
-425.885631
 21
377.766023
 31
0.0
  0
LINE
  5
5B
100
AcDbEntity
  8
1
  6
CENTER
 62
     2
100
AcDbLine
 10
-387.985631
 20
-381.488309
 30
0.0
 11
-387.985631
 21
-403.74603
 31
0.0
  0
LINE
  5
5C
100
AcDbEntity
  8
1
  6
CENTER
 62
     2
100
AcDbLine
 10
-363.985631
 20
-381.488309
 30
0.0
 11
-363.985631
 21
-403.74603
 31
0.0
  0
LINE
  5
5D
100
AcDbEntity
  8
1
  6
CENTER
 62
     2
100
AcDbLine
 10
139.514369
 20
-381.488309
 30
0.0
 11
139.514369
 21
-403.74603
 31
0.0
  0
LINE
  5
5E
100
AcDbEntity
  8
1
  6
CENTER
 62
     2
100
AcDbLine
 10
163.514369
 20
-381.488309
 30
0.0
 11
163.514369
 21
-403.74603
 31
0.0
  0
LINE
  5
5F
100
AcDbEntity
  8
1
100
AcDbLine
 10
133.514369
 20
-389.933977
 30
0.0
 11
169.514369
 21
-389.933977
 31
0.0
  0
LINE
  5
60
100
AcDbEntity
  8
1
100
AcDbLine
 10
-357.985631
 20
-389.933977
 30
0.0
 11
-393.985631
 21
-389.933977
 31
0.0
  0
LINE
  5
61
100
AcDbEntity
  8
1
100
AcDbLine
 10
133.414369
 20
-392.933977
 30
0.0
 11
169.614369
 21
-392.933977
 31
0.0
  0
LINE
  5
62
100
AcDbEntity
  8
1
100
AcDbLine
 10
-357.885631
 20
-392.933977
 30
0.0
 11
-394.085631
 21
-392.933977
 31
0.0
  0
LINE
  5
63
100
AcDbEntity
  8
1
100
AcDbLine
 10
-382.235631
 20
-394.433977
 30
0.0
 11
-382.235631
 21
-397.943229
 31
0.0
  0
LINE
  5
64
100
AcDbEntity
  8
1
100
AcDbLine
 10
-382.235631
 20
-397.943229
 30
0.0
 11
-383.085631
 21
-398.433977
 31
0.0
  0
LINE
  5
65
100
AcDbEntity
  8
1
100
AcDbLine
 10
-385.110631
 20
-394.433977
 30
0.0
 11
-385.110631
 21
-397.943229
 31
0.0
  0
ARC
  5
66
100
AcDbEntity
  8
1
100
AcDbCircle
 10
-383.673131
 20
-396.095274
 30
0.0
 40
2.341227
100
AcDbArc
 50
232.121121
 51
307.878879
  0
ARC
  5
67
100
AcDbEntity
  8
1
100
AcDbCircle
 10
-387.985631
 20
-389.811501
 30
0.0
 40
8.625
100
AcDbArc
 50
250.528777
 51
289.471219
  0
LINE
  5
68
100
AcDbEntity
  8
1
100
AcDbLine
 10
-393.735631
 20
-394.433977
 30
0.0
 11
-393.735631
 21
-397.943229
 31
0.0
  0
LINE
  5
69
100
AcDbEntity
  8
1
100
AcDbLine
 10
-393.735631
 20
-397.943229
 30
0.0
 11
-392.885631
 21
-398.433977
 31
0.0
  0
LINE
  5
6A
100
AcDbEntity
  8
1
100
AcDbLine
 10
-392.885631
 20
-398.433977
 30
0.0
 11
-383.085631
 21
-398.433977
 31
0.0
  0
LINE
  5
6B
100
AcDbEntity
  8
1
100
AcDbLine
 10
-390.860631
 20
-394.433977
 30
0.0
 11
-390.860631
 21
-397.943229
 31
0.0
  0
ARC
  5
6C
100
AcDbEntity
  8
1
100
AcDbCircle
 10
-392.298131
 20
-396.095274
 30
0.0
 40
2.341227
100
AcDbArc
 50
232.121121
 51
307.878879
  0
LINE
  5
6D
100
AcDbEntity
  8
1
100
AcDbLine
 10
-381.885631
 20
-392.933977
 30
0.0
 11
-381.885631
 21
-394.433977
 31
0.0
  0
LINE
  5
6E
100
AcDbEntity
  8
1
100
AcDbLine
 10
-381.885631
 20
-394.433977
 30
0.0
 11
-394.085631
 21
-394.433977
 31
0.0
  0
LINE
  5
6F
100
AcDbEntity
  8
1
100
AcDbLine
 10
-394.085631
 20
-394.433977
 30
0.0
 11
-394.085631
 21
-392.933977
 31
0.0
  0
LINE
  5
70
100
AcDbEntity
  8
1
100
AcDbLine
 10
-387.985631
 20
-394.433977
 30
0.0
 11
-388.485631
 21
-392.933977
 31
0.0
  0
LINE
  5
71
100
AcDbEntity
  8
1
100
AcDbLine
 10
-387.985631
 20
-392.933977
 30
0.0
 11
-387.485631
 21
-394.433977
 31
0.0
  0
LINE
  5
72
100
AcDbEntity
  8
1
100
AcDbLine
 10
-358.235631
 20
-394.433977
 30
0.0
 11
-358.235631
 21
-397.943229
 31
0.0
  0
LINE
  5
73
100
AcDbEntity
  8
1
100
AcDbLine
 10
-358.235631
 20
-397.943229
 30
0.0
 11
-359.085631
 21
-398.433977
 31
0.0
  0
LINE
  5
74
100
AcDbEntity
  8
1
100
AcDbLine
 10
-361.110631
 20
-394.433977
 30
0.0
 11
-361.110631
 21
-397.943229
 31
0.0
  0
ARC
  5
75
100
AcDbEntity
  8
1
100
AcDbCircle
 10
-359.673131
 20
-396.095274
 30
0.0
 40
2.341227
100
AcDbArc
 50
232.121121
 51
307.878879
  0
ARC
  5
76
100
AcDbEntity
  8
1
100
AcDbCircle
 10
-363.985631
 20
-389.811501
 30
0.0
 40
8.625
100
AcDbArc
 50
250.528777
 51
289.471219
  0
LINE
  5
77
100
AcDbEntity
  8
1
100
AcDbLine
 10
-369.735631
 20
-394.433977
 30
0.0
 11
-369.735631
 21
-397.943229
 31
0.0
  0
LINE
  5
78
100
AcDbEntity
  8
1
100
AcDbLine
 10
-369.735631
 20
-397.943229
 30
0.0
 11
-368.885631
 21
-398.433977
 31
0.0
  0
LINE
  5
79
100
AcDbEntity
  8
1
100
AcDbLine
 10
-368.885631
 20
-398.433977
 30
0.0
 11
-359.085631
 21
-398.433977
 31
0.0
  0
LINE
  5
7A
100
AcDbEntity
  8
1
100
AcDbLine
 10
-366.860631
 20
-394.433977
 30
0.0
 11
-366.860631
 21
-397.943229
 31
0.0
  0
ARC
  5
7B
100
AcDbEntity
  8
1
100
AcDbCircle
 10
-368.298131
 20
-396.095274
 30
0.0
 40
2.341227
100
AcDbArc
 50
232.121121
 51
307.878879
  0
LINE
  5
7C
100
AcDbEntity
  8
1
100
AcDbLine
 10
-357.885631
 20
-392.933977
 30
0.0
 11
-357.885631
 21
-394.433977
 31
0.0
  0
LINE
  5
7D
100
AcDbEntity
  8
1
100
AcDbLine
 10
-357.885631
 20
-394.433977
 30
0.0
 11
-370.085631
 21
-394.433977
 31
0.0
  0
LINE
  5
7E
100
AcDbEntity
  8
1
100
AcDbLine
 10
-370.085631
 20
-394.433977
 30
0.0
 11
-370.085631
 21
-392.933977
 31
0.0
  0
LINE
  5
7F
100
AcDbEntity
  8
1
100
AcDbLine
 10
-363.985631
 20
-394.433977
 30
0.0
 11
-364.485631
 21
-392.933977
 31
0.0
  0
LINE
  5
80
100
AcDbEntity
  8
1
100
AcDbLine
 10
-363.985631
 20
-392.933977
 30
0.0
 11
-363.485631
 21
-394.433977
 31
0.0
  0
LINE
  5
81
100
AcDbEntity
  8
1
100
AcDbLine
 10
168.514369
 20
-394.433977
 30
0.0
 11
168.514369
 21
-398.433977
 31
0.0
  0
ARC
  5
82
100
AcDbEntity
  8
1
100
AcDbCircle
 10
166.014369
 20
-391.820769
 30
0.0
 40
6.613208
100
AcDbArc
 50
247.788205
 51
292.211795
  0
LINE
  5
83
100
AcDbEntity
  8
1
100
AcDbLine
 10
158.514369
 20
-394.433977
 30
0.0
 11
158.514369
 21
-398.433977
 31
0.0
  0
LINE
  5
84
100
AcDbEntity
  8
1
100
AcDbLine
 10
158.514369
 20
-398.433977
 30
0.0
 11
168.514369
 21
-398.433977
 31
0.0
  0
LINE
  5
85
100
AcDbEntity
  8
1
100
AcDbLine
 10
163.514369
 20
-394.433977
 30
0.0
 11
163.514369
 21
-397.943229
 31
0.0
  0
ARC
  5
86
100
AcDbEntity
  8
1
100
AcDbCircle
 10
161.014369
 20
-391.820769
 30
0.0
 40
6.613208
100
AcDbArc
 50
247.788205
 51
292.211795
  0
LINE
  5
87
100
AcDbEntity
  8
1
100
AcDbLine
 10
169.614369
 20
-392.933977
 30
0.0
 11
169.614369
 21
-394.433977
 31
0.0
  0
LINE
  5
88
100
AcDbEntity
  8
1
100
AcDbLine
 10
169.614369
 20
-394.433977
 30
0.0
 11
157.414369
 21
-394.433977
 31
0.0
  0
LINE
  5
89
100
AcDbEntity
  8
1
100
AcDbLine
 10
157.414369
 20
-394.433977
 30
0.0
 11
157.414369
 21
-392.933977
 31
0.0
  0
LINE
  5
8A
100
AcDbEntity
  8
1
100
AcDbLine
 10
144.514369
 20
-394.433977
 30
0.0
 11
144.514369
 21
-398.433977
 31
0.0
  0
ARC
  5
8B
100
AcDbEntity
  8
1
100
AcDbCircle
 10
142.014369
 20
-391.820769
 30
0.0
 40
6.613208
100
AcDbArc
 50
247.788205
 51
292.211795
  0
LINE
  5
8C
100
AcDbEntity
  8
1
100
AcDbLine
 10
134.514369
 20
-394.433977
 30
0.0
 11
134.514369
 21
-398.433977
 31
0.0
  0
LINE
  5
8D
100
AcDbEntity
  8
1
100
AcDbLine
 10
134.514369
 20
-398.433977
 30
0.0
 11
144.514369
 21
-398.433977
 31
0.0
  0
LINE
  5
8E
100
AcDbEntity
  8
1
100
AcDbLine
 10
139.514369
 20
-394.433977
 30
0.0
 11
139.514369
 21
-397.943229
 31
0.0
  0
ARC
  5
8F
100
AcDbEntity
  8
1
100
AcDbCircle
 10
137.014369
 20
-391.820769
 30
0.0
 40
6.613208
100
AcDbArc
 50
247.788205
 51
292.211795
  0
LINE
  5
90
100
AcDbEntity
  8
1
100
AcDbLine
 10
145.614369
 20
-392.933977
 30
0.0
 11
145.614369
 21
-394.433977
 31
0.0
  0
LINE
  5
91
100
AcDbEntity
  8
1
100
AcDbLine
 10
145.614369
 20
-394.433977
 30
0.0
 11
133.414369
 21
-394.433977
 31
0.0
  0
LINE
  5
92
100
AcDbEntity
  8
1
100
AcDbLine
 10
133.414369
 20
-394.433977
 30
0.0
 11
133.414369
 21
-392.933977
 31
0.0
  0
LINE
  5
93
100
AcDbEntity
  8
1
  6
CENTER
 62
     2
100
AcDbLine
 10
-375.985631
 20
296.417044
 30
0.0
 11
-375.985631
 21
407.929815
 31
0.0
  0
LINE
  5
94
100
AcDbEntity
  8
1
  6
CENTER
 62
     2
100
AcDbLine
 10
-375.985631
 20
-163.940995
 30
0.0
 11
-375.985631
 21
-394.812909
 31
0.0
  0
LINE
  5
95
100
AcDbEntity
  8
1
100
AcDbLine
 10
-366.885631
 20
-323.933977
 30
0.0
 11
-366.885631
 21
-282.933977
 31
0.0
  0
LINE
  5
96
100
AcDbEntity
  8
1
100
AcDbLine
 10
-382.885631
 20
-323.933977
 30
0.0
 11
-382.885631
 21
-282.933977
 31
0.0
  0
LINE
  5
97
100
AcDbEntity
  8
1
  6
DASHED
100
AcDbLine
 10
-439.485631
 20
329.766023
 30
0.0
 11
-425.885631
 21
329.766023
 31
0.0
  0
LINE
  5
98
100
AcDbEntity
  8
1
  6
DASHED
100
AcDbLine
 10
-435.324714
 20
361.766023
 30
0.0
 11
-431.985631
 21
361.766023
 31
0.0
  0
LINE
  5
99
100
AcDbEntity
  8
1
  6
DASHED
100
AcDbLine
 10
-435.324714
 20
337.766023
 30
0.0
 11
-425.885631
 21
337.766023
 31
0.0
  0
LINE
  5
9A
100
AcDbEntity
  8
1
  6
DASHED
100
AcDbLine
 10
-426.431146
 20
341.115388
 30
0.0
 11
-425.885631
 21
341.115388
 31
0.0
  0
LINE
  5
9B
100
AcDbEntity
  8
1
  6
DASHED
100
AcDbLine
 10
-426.431146
 20
344.960699
 30
0.0
 11
-426.431146
 21
354.571348
 31
0.0
  0
LINE
  5
9C
100
AcDbEntity
  8
1
  6
DASHED
100
AcDbLine
 10
-439.041162
 20
337.766023
 30
0.0
 11
-439.041162
 21
361.766023
 31
0.0
  0
LINE
  5
9D
100
AcDbEntity
  8
1
  6
DASHED
100
AcDbLine
 10
-431.575617
 20
359.783089
 30
0.0
 11
-435.324714
 21
360.778892
 31
0.0
  0
LINE
  5
9E
100
AcDbEntity
  8
1
  6
DASHED
100
AcDbLine
 10
-430.147594
 20
340.128257
 30
0.0
 11
-435.324714
 21
338.753155
 31
0.0
  0
ARC
  5
9F
100
AcDbEntity
  8
1
  6
DASHED
100
AcDbCircle
 10
-431.431146
 20
354.571348
 30
0.0
 40
5.0
100
AcDbArc
 50
0.0
 51
26.03877
  0
ARC
  5
A0
100
AcDbEntity
  8
1
  6
DASHED
100
AcDbCircle
 10
-431.431146
 20
344.960699
 30
0.0
 40
5.0
100
AcDbArc
 50
284.874958
 51
0.0
  0
ARC
  5
A1
100
AcDbEntity
  8
1
  6
DASHED
100
AcDbCircle
 10
-434.041162
 20
365.611334
 30
0.0
 40
5.0
100
AcDbArc
 50
180.0
 51
255.125042
  0
ARC
  5
A2
100
AcDbEntity
  8
1
  6
DASHED
100
AcDbCircle
 10
-434.041162
 20
333.920713
 30
0.0
 40
5.0
100
AcDbArc
 50
104.874958
 51
180.0
  0
LINE
  5
A3
100
AcDbEntity
  8
1
  6
DASHED
100
AcDbLine
 10
-312.485631
 20
329.766023
 30
0.0
 11
-312.485631
 21
377.766023
 31
0.0
  0
LINE
  5
A4
100
AcDbEntity
  8
1
  6
DASHED
100
AcDbLine
 10
-312.485631
 20
377.766023
 30
0.0
 11
-323.885631
 21
377.766023
 31
0.0
  0
LINE
  5
A5
100
AcDbEntity
  8
1
  6
DASHED
100
AcDbLine
 10
-312.485631
 20
329.766023
 30
0.0
 11
-323.885631
 21
329.766023
 31
0.0
  0
LINE
  5
A6
100
AcDbEntity
  8
1
  6
DASHED
100
AcDbLine
 10
-316.646548
 20
361.766023
 30
0.0
 11
-319.985631
 21
361.766023
 31
0.0
  0
LINE
  5
A7
100
AcDbEntity
  8
1
  6
DASHED
100
AcDbLine
 10
-316.646548
 20
337.766023
 30
0.0
 11
-323.885631
 21
337.766023
 31
0.0
  0
LINE
  5
A8
100
AcDbEntity
  8
1
  6
DASHED
100
AcDbLine
 10
-312.9301
 20
337.766023
 30
0.0
 11
-312.9301
 21
361.766023
 31
0.0
  0
LINE
  5
A9
100
AcDbEntity
  8
1
  6
DASHED
100
AcDbLine
 10
-320.395645
 20
359.783089
 30
0.0
 11
-316.646548
 21
360.778892
 31
0.0
  0
LINE
  5
AA
100
AcDbEntity
  8
1
  6
DASHED
100
AcDbLine
 10
-321.823668
 20
340.128257
 30
0.0
 11
-316.646548
 21
338.753155
 31
0.0
  0
ARC
  5
AB
100
AcDbEntity
  8
1
  6
DASHED
100
AcDbCircle
 10
-320.540116
 20
344.960699
 30
0.0
 40
5.0
100
AcDbArc
 50
228.002126
 51
255.125042
  0
ARC
  5
AC
100
AcDbEntity
  8
1
  6
DASHED
100
AcDbCircle
 10
-317.9301
 20
365.611334
 30
0.0
 40
5.0
100
AcDbArc
 50
284.874958
 51
360.0
  0
ARC
  5
AD
100
AcDbEntity
  8
1
  6
DASHED
100
AcDbCircle
 10
-317.9301
 20
333.920713
 30
0.0
 40
5.0
100
AcDbArc
 50
0.0
 51
75.125042
  0
CIRCLE
  5
AE
100
AcDbEntity
  8
1
  6
DASHED
100
AcDbCircle
 10
-338.823185
 20
387.828469
 30
0.0
 40
5.5
  0
LINE
  5
AF
100
AcDbEntity
  8
1
  6
CENTER
 62
     2
100
AcDbLine
 10
-346.247806
 20
380.403848
 30
0.0
 11
-331.398564
 21
395.253091
 31
0.0
  0
ARC
  5
B0
100
AcDbEntity
  8
1
  6
CENTER
 62
     2
100
AcDbCircle
 10
-374.885631
 20
351.766023
 30
0.0
 40
51.0
100
AcDbArc
 50
33.182876
 51
56.817124
  0
ARC
  5
B1
100
AcDbEntity
  8
1
  6
CENTER
 62
     2
100
AcDbCircle
 10
-374.885631
 20
351.766023
 30
0.0
 40
51.0
100
AcDbArc
 50
123.182876
 51
146.817124
  0
CIRCLE
  5
B2
100
AcDbEntity
  8
1
  6
DASHED
100
AcDbCircle
 10
-410.948077
 20
387.828469
 30
0.0
 40
5.5
  0
LINE
  5
B3
100
AcDbEntity
  8
1
  6
CENTER
 62
     2
100
AcDbLine
 10
-403.523456
 20
380.403848
 30
0.0
 11
-418.372698
 21
395.253091
 31
0.0
  0
ARC
  5
B4
100
AcDbEntity
  8
1
  6
CENTER
 62
     2
100
AcDbCircle
 10
-374.885631
 20
351.766023
 30
0.0
 40
51.0
100
AcDbArc
 50
303.182876
 51
326.817124
  0
CIRCLE
  5
B5
100
AcDbEntity
  8
1
  6
DASHED
100
AcDbCircle
 10
-338.823185
 20
315.703578
 30
0.0
 40
5.5
  0
LINE
  5
B6
100
AcDbEntity
  8
1
  6
CENTER
 62
     2
100
AcDbLine
 10
-346.247806
 20
323.128199
 30
0.0
 11
-331.398564
 21
308.278956
 31
0.0
  0
LINE
  5
B7
100
AcDbEntity
  8
1
  6
CENTER
 62
     2
100
AcDbLine
 10
-403.523456
 20
323.128199
 30
0.0
 11
-418.372698
 21
308.278956
 31
0.0
  0
CIRCLE
  5
B8
100
AcDbEntity
  8
1
  6
DASHED
100
AcDbCircle
 10
-410.948077
 20
315.703578
 30
0.0
 40
5.5
  0
ARC
  5
B9
100
AcDbEntity
  8
1
  6
CENTER
 62
     2
100
AcDbCircle
 10
-374.885631
 20
351.766023
 30
0.0
 40
51.0
100
AcDbArc
 50
213.182876
 51
236.817124
  0
LINE
  5
BA
100
AcDbEntity
  8
1
  6
DASHED
100
AcDbLine
 10
-431.985631
 20
361.766023
 30
0.0
 11
-431.985631
 21
363.766023
 31
0.0
  0
LINE
  5
BB
100
AcDbEntity
  8
1
  6
DASHED
100
AcDbLine
 10
-426.985631
 20
368.766023
 30
0.0
 11
-425.885631
 21
368.766023
 31
0.0
  0
LINE
  5
BC
100
AcDbEntity
  8
1
  6
DASHED
100
AcDbLine
 10
-426.985631
 20
356.766023
 30
0.0
 11
-425.885631
 21
356.766023
 31
0.0
  0
ARC
  5
BD
100
AcDbEntity
  8
1
  6
DASHED
100
AcDbCircle
 10
-426.985631
 20
363.766023
 30
0.0
 40
5.0
100
AcDbArc
 50
90.0
 51
180.0
  0
ARC
  5
BE
100
AcDbEntity
  8
1
  6
DASHED
100
AcDbCircle
 10
-426.985631
 20
361.766023
 30
0.0
 40
5.0
100
AcDbArc
 50
180.0
 51
270.0
  0
LINE
  5
BF
100
AcDbEntity
  8
1
  6
DASHED
100
AcDbLine
 10
-319.985631
 20
361.766023
 30
0.0
 11
-319.985631
 21
363.766023
 31
0.0
  0
ARC
  5
C0
100
AcDbEntity
  8
1
  6
DASHED
100
AcDbCircle
 10
-324.985631
 20
363.766023
 30
0.0
 40
5.0
100
AcDbArc
 50
0.0
 51
77.290967
  0
ARC
  5
C1
100
AcDbEntity
  8
1
  6
DASHED
100
AcDbCircle
 10
-324.985631
 20
361.766023
 30
0.0
 40
5.0
100
AcDbArc
 50
282.709033
 51
360.0
  0
LINE
  5
C2
100
AcDbEntity
  8
1
100
AcDbLine
 10
172.514369
 20
-239.933977
 30
0.0
 11
178.514369
 21
-239.933977
 31
0.0
  0
LINE
  5
C3
100
AcDbEntity
  8
1
100
AcDbLine
 10
172.514369
 20
-366.933977
 30
0.0
 11
178.514369
 21
-366.933977
 31
0.0
  0
LINE
  5
C4
100
AcDbEntity
  8
1
100
AcDbLine
 10
143.514369
 20
-295.933977
 30
0.0
 11
157.514369
 21
-295.933977
 31
0.0
  0
LINE
  5
C5
100
AcDbEntity
  8
1
100
AcDbLine
 10
143.514369
 20
-310.933977
 30
0.0
 11
157.514369
 21
-310.933977
 31
0.0
  0
LINE
  5
C6
100
AcDbEntity
  8
1
100
AcDbLine
 10
144.863734
 20
-290.035671
 30
0.0
 11
154.514369
 21
-290.035671
 31
0.0
  0
LINE
  5
C7
100
AcDbEntity
  8
1
100
AcDbLine
 10
144.863734
 20
-316.832282
 30
0.0
 11
156.165004
 21
-316.832282
 31
0.0
  0
LINE
  5
C8
100
AcDbEntity
  8
1
100
AcDbLine
 10
162.514369
 20
-357.145737
 30
0.0
 11
162.514369
 21
-315.933977
 31
0.0
  0
LINE
  5
C9
100
AcDbEntity
  8
1
100
AcDbLine
 10
162.514369
 20
-290.933977
 30
0.0
 11
162.514369
 21
-271.300172
 31
0.0
  0
LINE
  5
CA
100
AcDbEntity
  8
1
100
AcDbLine
 10
159.165004
 20
-348.151898
 30
0.0
 11
159.165004
 21
-319.832282
 31
0.0
  0
LINE
  5
CB
100
AcDbEntity
  8
1
100
AcDbLine
 10
141.863734
 20
-348.151898
 30
0.0
 11
141.863734
 21
-319.832282
 31
0.0
  0
LINE
  5
CC
100
AcDbEntity
  8
1
100
AcDbLine
 10
141.863734
 20
-287.035671
 30
0.0
 11
141.863734
 21
-258.716055
 31
0.0
  0
LINE
  5
CD
100
AcDbEntity
  8
1
100
AcDbLine
 10
138.514369
 20
-357.145737
 30
0.0
 11
138.514369
 21
-315.933977
 31
0.0
  0
LINE
  5
CE
100
AcDbEntity
  8
1
100
AcDbLine
 10
138.514369
 20
-290.933977
 30
0.0
 11
138.514369
 21
-249.722216
 31
0.0
  0
ARC
  5
CF
100
AcDbEntity
  8
1
100
AcDbCircle
 10
157.514369
 20
-290.933977
 30
0.0
 40
5.0
100
AcDbArc
 50
270.0
 51
360.0
  0
ARC
  5
D0
100
AcDbEntity
  8
1
100
AcDbCircle
 10
143.514369
 20
-290.933977
 30
0.0
 40
5.0
100
AcDbArc
 50
180.0
 51
270.0
  0
ARC
  5
D1
100
AcDbEntity
  8
1
100
AcDbCircle
 10
143.514369
 20
-315.933977
 30
0.0
 40
5.0
100
AcDbArc
 50
90.0
 51
180.0
  0
ARC
  5
D2
100
AcDbEntity
  8
1
100
AcDbCircle
 10
157.514369
 20
-315.933977
 30
0.0
 40
5.0
100
AcDbArc
 50
0.0
 51
90.0
  0
ARC
  5
D3
100
AcDbEntity
  8
1
100
AcDbCircle
 10
156.165004
 20
-319.832282
 30
0.0
 40
3.0
100
AcDbArc
 50
0.0
 51
90.0
  0
ARC
  5
D4
100
AcDbEntity
  8
1
100
AcDbCircle
 10
144.863734
 20
-319.832282
 30
0.0
 40
3.0
100
AcDbArc
 50
90.0
 51
180.0
  0
ARC
  5
D5
100
AcDbEntity
  8
1
100
AcDbCircle
 10
144.863734
 20
-287.035671
 30
0.0
 40
3.0
100
AcDbArc
 50
180.0
 51
270.0
  0
LINE
  5
D6
100
AcDbEntity
  8
1
100
AcDbLine
 10
159.165004
 20
-290.035671
 30
0.0
 11
160.810813
 21
-292.933977
 31
0.0
  0
LINE
  5
D7
100
AcDbEntity
  8
1
100
AcDbLine
 10
141.863734
 20
-290.035671
 30
0.0
 11
140.217925
 21
-292.933977
 31
0.0
  0
LINE
  5
D8
100
AcDbEntity
  8
1
100
AcDbLine
 10
140.217925
 20
-313.933977
 30
0.0
 11
141.863734
 21
-316.832282
 31
0.0
  0
LINE
  5
D9
100
AcDbEntity
  8
1
100
AcDbLine
 10
160.810813
 20
-313.933977
 30
0.0
 11
159.165004
 21
-316.832282
 31
0.0
  0
LINE
  5
DA
100
AcDbEntity
  8
1
100
AcDbLine
 10
144.863734
 20
-255.716055
 30
0.0
 11
154.514369
 21
-255.716055
 31
0.0
  0
ARC
  5
DB
100
AcDbEntity
  8
1
100
AcDbCircle
 10
144.863734
 20
-258.716055
 30
0.0
 40
3.0
100
AcDbArc
 50
90.0
 51
180.0
  0
LINE
  5
DC
100
AcDbEntity
  8
1
100
AcDbLine
 10
144.863734
 20
-351.151898
 30
0.0
 11
156.165004
 21
-351.151898
 31
0.0
  0
ARC
  5
DD
100
AcDbEntity
  8
1
100
AcDbCircle
 10
144.863734
 20
-348.151898
 30
0.0
 40
3.0
100
AcDbArc
 50
180.0
 51
270.0
  0
ARC
  5
DE
100
AcDbEntity
  8
1
100
AcDbCircle
 10
156.165004
 20
-348.151898
 30
0.0
 40
3.0
100
AcDbArc
 50
270.0
 51
0.0
  0
ARC
  5
DF
100
AcDbEntity
  8
1
100
AcDbCircle
 10
172.514369
 20
-236.933977
 30
0.0
 40
3.0
100
AcDbArc
 50
180.0
 51
270.0
  0
ARC
  5
E0
100
AcDbEntity
  8
1
100
AcDbCircle
 10
172.514369
 20
-241.722216
 30
0.0
 40
3.0
100
AcDbArc
 50
180.0
 51
270.0
  0
ARC
  5
E1
100
AcDbEntity
  8
1
100
AcDbCircle
 10
130.514369
 20
-236.933977
 30
0.0
 40
3.0
100
AcDbArc
 50
270.0
 51
360.0
  0
ARC
  5
E2
100
AcDbEntity
  8
1
100
AcDbCircle
 10
130.514369
 20
-241.722216
 30
0.0
 40
3.0
100
AcDbArc
 50
270.0
 51
360.0
  0
LINE
  5
E3
100
AcDbEntity
  8
1
100
AcDbLine
 10
167.514369
 20
-362.145737
 30
0.0
 11
169.514369
 21
-362.145737
 31
0.0
  0
ARC
  5
E4
100
AcDbEntity
  8
1
100
AcDbCircle
 10
172.514369
 20
-369.933977
 30
0.0
 40
3.0
100
AcDbArc
 50
90.0
 51
180.0
  0
ARC
  5
E5
100
AcDbEntity
  8
1
100
AcDbCircle
 10
172.514369
 20
-365.145737
 30
0.0
 40
3.0
100
AcDbArc
 50
90.0
 51
180.0
  0
ARC
  5
E6
100
AcDbEntity
  8
1
100
AcDbCircle
 10
130.514369
 20
-369.933977
 30
0.0
 40
3.0
100
AcDbArc
 50
0.0
 51
90.0
  0
ARC
  5
E7
100
AcDbEntity
  8
1
100
AcDbCircle
 10
130.514369
 20
-365.145737
 30
0.0
 40
3.0
100
AcDbArc
 50
0.0
 51
90.0
  0
ARC
  5
E8
100
AcDbEntity
  8
1
100
AcDbCircle
 10
167.514369
 20
-357.145737
 30
0.0
 40
5.0
100
AcDbArc
 50
180.0
 51
270.0
  0
LINE
  5
E9
100
AcDbEntity
  8
1
100
AcDbLine
 10
161.987675
 20
-357.145737
 30
0.0
 11
159.165004
 21
-351.151898
 31
0.0
  0
LINE
  5
EA
100
AcDbEntity
  8
1
100
AcDbLine
 10
162.514369
 20
-341.041754
 30
0.0
 11
171.514369
 21
-341.041754
 31
0.0
  0
LINE
  5
EB
100
AcDbEntity
  8
1
100
AcDbLine
 10
167.514369
 20
-361.31833
 30
0.0
 11
171.514369
 21
-361.31833
 31
0.0
  0
LINE
  5
EC
100
AcDbEntity
  8
1
100
AcDbLine
 10
171.514369
 20
-343.041754
 30
0.0
 11
171.514369
 21
-359.31833
 31
0.0
  0
ARC
  5
ED
100
AcDbEntity
  8
1
100
AcDbCircle
 10
173.514369
 20
-343.041754
 30
0.0
 40
2.0
100
AcDbArc
 50
90.0
 51
180.0
  0
ARC
  5
EE
100
AcDbEntity
  8
1
100
AcDbCircle
 10
173.514369
 20
-359.31833
 30
0.0
 40
2.0
100
AcDbArc
 50
180.0
 51
270.0
  0
LINE
  5
EF
100
AcDbEntity
  8
1
100
AcDbLine
 10
164.805044
 20
-360.433977
 30
0.0
 11
169.514369
 21
-360.433977
 31
0.0
  0
LINE
  5
F0
100
AcDbEntity
  8
1
100
AcDbLine
 10
164.514369
 20
-348.332083
 30
0.0
 11
169.514369
 21
-348.332083
 31
0.0
  0
ARC
  5
F1
100
AcDbEntity
  8
1
100
AcDbCircle
 10
169.514369
 20
-346.332083
 30
0.0
 40
2.0
100
AcDbArc
 50
270.0
 51
360.0
  0
ARC
  5
F2
100
AcDbEntity
  8
1
100
AcDbCircle
 10
164.514369
 20
-346.332083
 30
0.0
 40
2.0
100
AcDbArc
 50
180.0
 51
270.0
  0
ARC
  5
F3
100
AcDbEntity
  8
1
100
AcDbCircle
 10
169.514369
 20
-358.433977
 30
0.0
 40
2.0
100
AcDbArc
 50
270.0
 51
360.0
  0
ARC
  5
F4
100
AcDbEntity
  8
1
100
AcDbCircle
 10
164.805044
 20
-358.433977
 30
0.0
 40
2.0
100
AcDbArc
 50
205.430317
 51
270.0
  0
ARC
  5
F5
100
AcDbEntity
  8
1
100
AcDbCircle
 10
133.514369
 20
-249.722216
 30
0.0
 40
5.0
100
AcDbArc
 50
0.0
 51
90.0
  0
LINE
  5
F6
100
AcDbEntity
  8
1
100
AcDbLine
 10
139.041063
 20
-249.722216
 30
0.0
 11
141.863734
 21
-255.716055
 31
0.0
  0
ARC
  5
F7
100
AcDbEntity
  8
1
100
AcDbCircle
 10
133.514369
 20
-357.145737
 30
0.0
 40
5.0
100
AcDbArc
 50
270.0
 51
360.0
  0
LINE
  5
F8
100
AcDbEntity
  8
1
100
AcDbLine
 10
139.041063
 20
-357.145737
 30
0.0
 11
141.863734
 21
-351.151898
 31
0.0
  0
ARC
  5
F9
100
AcDbEntity
  8
1
100
AcDbCircle
 10
-345.985631
 20
-183.433977
 30
0.0
 40
12.0
100
AcDbArc
 50
90.0
 51
180.0
  0
ARC
  5
FA
100
AcDbEntity
  8
1
100
AcDbCircle
 10
-405.985631
 20
-183.433977
 30
0.0
 40
12.0
100
AcDbArc
 50
0.0
 51
90.0
  0
ARC
  5
FB
100
AcDbEntity
  8
1
100
AcDbCircle
 10
-347.985631
 20
-235.476269
 30
0.0
 40
10.0
100
AcDbArc
 50
180.0
 51
247.607312
  0
ARC
  5
FC
100
AcDbEntity
  8
1
100
AcDbCircle
 10
-403.985631
 20
-235.476269
 30
0.0
 40
10.0
100
AcDbArc
 50
292.392688
 51
360.0
  0
LINE
  5
FD
100
AcDbEntity
  8
1
100
AcDbLine
 10
-431.985631
 20
-225.832681
 30
0.0
 11
-431.985631
 21
-235.063352
 31
0.0
  0
LINE
  5
FE
100
AcDbEntity
  8
1
100
AcDbLine
 10
-319.985631
 20
-225.832681
 30
0.0
 11
-319.985631
 21
-235.063352
 31
0.0
  0
LINE
  5
FF
100
AcDbEntity
  8
1
100
AcDbLine
 10
-325.985631
 20
-260.896464
 30
0.0
 11
-325.985631
 21
-261.621897
 31
0.0
  0
LINE
  5
100
100
AcDbEntity
  8
1
100
AcDbLine
 10
-425.985631
 20
-260.896464
 30
0.0
 11
-425.985631
 21
-261.621897
 31
0.0
  0
ARC
  5
101
100
AcDbEntity
  8
1
100
AcDbCircle
 10
-360.985631
 20
-318.433977
 30
0.0
 40
120.0
100
AcDbArc
 50
109.315471
 51
124.228866
  0
ARC
  5
102
100
AcDbEntity
  8
1
100
AcDbCircle
 10
-390.985631
 20
-318.433977
 30
0.0
 40
120.0
100
AcDbArc
 50
55.771134
 51
70.684529
  0
ARC
  5
103
100
AcDbEntity
  8
1
100
AcDbCircle
 10
-347.985631
 20
-195.751459
 30
0.0
 40
10.0
100
AcDbArc
 50
180.0
 51
250.684529
  0
ARC
  5
104
100
AcDbEntity
  8
1
100
AcDbCircle
 10
-403.985631
 20
-195.751459
 30
0.0
 40
10.0
100
AcDbArc
 50
289.315471
 51
360.0
  0
ARC
  5
105
100
AcDbEntity
  8
1
100
AcDbCircle
 10
-327.985631
 20
-225.832681
 30
0.0
 40
8.0
100
AcDbArc
 50
0.0
 51
55.771134
  0
ARC
  5
106
100
AcDbEntity
  8
1
100
AcDbCircle
 10
-423.985631
 20
-225.832681
 30
0.0
 40
8.0
100
AcDbArc
 50
124.228866
 51
180.0
  0
ARC
  5
107
100
AcDbEntity
  8
1
100
AcDbCircle
 10
-375.985631
 20
-303.433977
 30
0.0
 40
67.2
100
AcDbArc
 50
44.031791
 51
45.0
  0
ARC
  5
108
100
AcDbEntity
  8
1
100
AcDbCircle
 10
-375.985631
 20
-303.433977
 30
0.0
 40
67.2
100
AcDbArc
 50
135.0
 51
135.968209
  0
ARC
  5
109
100
AcDbEntity
  8
1
100
AcDbCircle
 10
-429.867168
 20
-249.55244
 30
0.0
 40
9.0
100
AcDbArc
 50
315.0
 51
75.002962
  0
ARC
  5
10A
100
AcDbEntity
  8
1
100
AcDbCircle
 10
-322.104094
 20
-249.55244
 30
0.0
 40
9.0
100
AcDbArc
 50
104.997038
 51
225.0
  0
ARC
  5
10B
100
AcDbEntity
  8
1
100
AcDbCircle
 10
-419.985631
 20
-260.896464
 30
0.0
 40
6.0
100
AcDbArc
 50
135.968209
 51
180.0
  0
ARC
  5
10C
100
AcDbEntity
  8
1
100
AcDbCircle
 10
-433.985631
 20
-261.621897
 30
0.0
 40
8.0
100
AcDbArc
 50
324.212245
 51
360.0
  0
ARC
  5
10D
100
AcDbEntity
  8
1
100
AcDbCircle
 10
-425.985631
 20
-235.063352
 30
0.0
 40
6.0
100
AcDbArc
 50
180.0
 51
255.002962
  0
ARC
  5
10E
100
AcDbEntity
  8
1
100
AcDbCircle
 10
-325.985631
 20
-235.063352
 30
0.0
 40
6.0
100
AcDbArc
 50
284.997038
 51
360.0
  0
ARC
  5
10F
100
AcDbEntity
  8
1
100
AcDbCircle
 10
-331.985631
 20
-260.896464
 30
0.0
 40
6.0
100
AcDbArc
 50
0.0
 51
44.031791
  0
ARC
  5
110
100
AcDbEntity
  8
1
100
AcDbCircle
 10
-317.985631
 20
-261.621897
 30
0.0
 40
8.0
100
AcDbArc
 50
180.0
 51
215.787755
  0
ARC
  5
111
100
AcDbEntity
  8
1
100
AcDbCircle
 10
-347.985631
 20
-371.391684
 30
0.0
 40
10.0
100
AcDbArc
 50
112.392688
 51
180.0
  0
ARC
  5
112
100
AcDbEntity
  8
1
100
AcDbCircle
 10
-403.985631
 20
-371.391684
 30
0.0
 40
10.0
100
AcDbArc
 50
0.0
 51
67.607312
  0
LINE
  5
113
100
AcDbEntity
  8
1
100
AcDbLine
 10
-325.985631
 20
-344.595245
 30
0.0
 11
-325.985631
 21
-345.971489
 31
0.0
  0
LINE
  5
114
100
AcDbEntity
  8
1
100
AcDbLine
 10
-425.985631
 20
-344.595245
 30
0.0
 11
-425.985631
 21
-345.971489
 31
0.0
  0
ARC
  5
115
100
AcDbEntity
  8
1
100
AcDbCircle
 10
-375.985631
 20
-303.433977
 30
0.0
 40
67.2
100
AcDbArc
 50
224.031791
 51
236.44269
  0
ARC
  5
116
100
AcDbEntity
  8
1
100
AcDbCircle
 10
-375.985631
 20
-303.433977
 30
0.0
 40
67.2
100
AcDbArc
 50
303.55731
 51
315.968209
  0
LINE
  5
117
100
AcDbEntity
  8
1
100
AcDbLine
 10
-409.815204
 20
-360.433977
 30
0.0
 11
-406.205657
 21
-360.433977
 31
0.0
  0
LINE
  5
118
100
AcDbEntity
  8
1
100
AcDbLine
 10
-345.765604
 20
-360.433977
 30
0.0
 11
-342.156058
 21
-360.433977
 31
0.0
  0
ARC
  5
119
100
AcDbEntity
  8
1
100
AcDbCircle
 10
-319.985631
 20
-344.595245
 30
0.0
 40
6.0
100
AcDbArc
 50
143.683271
 51
180.0
  0
ARC
  5
11A
100
AcDbEntity
  8
1
100
AcDbCircle
 10
-431.985631
 20
-344.595245
 30
0.0
 40
6.0
100
AcDbArc
 50
0.0
 51
36.316729
  0
ARC
  5
11B
100
AcDbEntity
  8
1
100
AcDbCircle
 10
-331.985631
 20
-345.971489
 30
0.0
 40
6.0
100
AcDbArc
 50
315.968209
 51
360.0
  0
ARC
  5
11C
100
AcDbEntity
  8
1
100
AcDbCircle
 10
-342.156058
 20
-354.433977
 30
0.0
 40
6.0
100
AcDbArc
 50
270.0
 51
303.55731
  0
ARC
  5
11D
100
AcDbEntity
  8
1
100
AcDbCircle
 10
-409.815204
 20
-354.433977
 30
0.0
 40
6.0
100
AcDbArc
 50
236.44269
 51
270.0
  0
ARC
  5
11E
100
AcDbEntity
  8
1
100
AcDbCircle
 10
-419.985631
 20
-345.971489
 30
0.0
 40
6.0
100
AcDbArc
 50
180.0
 51
224.031791
  0
ARC
  5
11F
100
AcDbEntity
  8
1
100
AcDbCircle
 10
-406.205657
 20
-370.433977
 30
0.0
 40
10.0
100
AcDbArc
 50
65.722475
 51
90.0
  0
ARC
  5
120
100
AcDbEntity
  8
1
100
AcDbCircle
 10
-345.765604
 20
-370.433977
 30
0.0
 40
10.0
100
AcDbArc
 50
90.0
 51
114.277525
  0
ARC
  5
121
100
AcDbEntity
  8
1
100
AcDbCircle
 10
181.514369
 20
-183.433977
 30
0.0
 40
12.0
100
AcDbArc
 50
90.0
 51
180.0
  0
ARC
  5
122
100
AcDbEntity
  8
1
100
AcDbCircle
 10
121.514369
 20
-183.433977
 30
0.0
 40
12.0
100
AcDbArc
 50
0.0
 51
90.0
  0
LINE
  5
123
100
AcDbEntity
  8
1
100
AcDbLine
 10
157.514369
 20
-195.751459
 30
0.0
 11
169.514369
 21
-195.751459
 31
0.0
  0
LINE
  5
124
100
AcDbEntity
  8
1
100
AcDbLine
 10
157.514369
 20
-288.935046
 30
0.0
 11
157.514369
 21
-198.751459
 31
0.0
  0
ARC
  5
125
100
AcDbEntity
  8
1
100
AcDbCircle
 10
154.514369
 20
-198.751459
 30
0.0
 40
3.0
100
AcDbArc
 50
0.0
 51
90.0
  0
ARC
  5
126
100
AcDbEntity
  8
1
100
AcDbCircle
 10
154.514369
 20
-288.935046
 30
0.0
 40
3.0
100
AcDbArc
 50
270.0
 51
360.0
  0
LINE
  5
127
100
AcDbEntity
  8
1
100
AcDbLine
 10
167.514369
 20
-266.300172
 30
0.0
 11
169.514369
 21
-266.300172
 31
0.0
  0
ARC
  5
128
100
AcDbEntity
  8
1
100
AcDbCircle
 10
172.514369
 20
-263.300172
 30
0.0
 40
3.0
100
AcDbArc
 50
180.0
 51
270.0
  0
LINE
  5
129
100
AcDbEntity
  8
1
100
AcDbLine
 10
162.514369
 20
-219.218302
 30
0.0
 11
164.514369
 21
-219.218302
 31
0.0
  0
LINE
  5
12A
100
AcDbEntity
  8
1
100
AcDbLine
 10
162.514369
 20
-240.858987
 30
0.0
 11
164.514369
 21
-240.858987
 31
0.0
  0
ARC
  5
12B
100
AcDbEntity
  8
1
100
AcDbCircle
 10
164.514369
 20
-224.218302
 30
0.0
 40
5.0
100
AcDbArc
 50
0.0
 51
90.0
  0
ARC
  5
12C
100
AcDbEntity
  8
1
100
AcDbCircle
 10
162.514369
 20
-224.218302
 30
0.0
 40
5.0
100
AcDbArc
 50
90.0
 51
180.0
  0
ARC
  5
12D
100
AcDbEntity
  8
1
100
AcDbCircle
 10
162.514369
 20
-235.858987
 30
0.0
 40
5.0
100
AcDbArc
 50
180.0
 51
270.0
  0
ARC
  5
12E
100
AcDbEntity
  8
1
100
AcDbCircle
 10
164.514369
 20
-235.858987
 30
0.0
 40
5.0
100
AcDbArc
 50
270.0
 51
360.0
  0
LINE
  5
12F
100
AcDbEntity
  8
1
100
AcDbLine
 10
162.514369
 20
-256.726119
 30
0.0
 11
164.514369
 21
-256.726119
 31
0.0
  0
ARC
  5
130
100
AcDbEntity
  8
1
100
AcDbCircle
 10
164.514369
 20
-261.726119
 30
0.0
 40
5.0
100
AcDbArc
 50
0.0
 51
90.0
  0
ARC
  5
131
100
AcDbEntity
  8
1
100
AcDbCircle
 10
162.514369
 20
-261.726119
 30
0.0
 40
5.0
100
AcDbArc
 50
90.0
 51
180.0
  0
ARC
  5
132
100
AcDbEntity
  8
1
100
AcDbCircle
 10
154.514369
 20
-252.716055
 30
0.0
 40
3.0
100
AcDbArc
 50
270.0
 51
360.0
  0
ARC
  5
133
100
AcDbEntity
  8
1
100
AcDbCircle
 10
167.514369
 20
-271.300172
 30
0.0
 40
5.0
100
AcDbArc
 50
90.0
 51
180.0
  0
LINE
  5
134
100
AcDbEntity
  8
1
100
AcDbLine
 10
162.338478
 20
-271.300172
 30
0.0
 11
157.619904
 21
-288.935046
 31
0.0
  0
ARC
  5
135
100
AcDbEntity
  8
1
100
AcDbCircle
 10
154.514369
 20
-287.035671
 30
0.0
 40
3.0
100
AcDbArc
 50
270.0
 51
360.0
  0
LINE
  5
136
100
AcDbEntity
  8
1
100
AcDbLine
 10
-389.885631
 20
-141.033977
 30
0.0
 11
-359.885631
 21
-141.033977
 31
0.0
  0
LINE
  5
137
100
AcDbEntity
  8
1
100
AcDbLine
 10
-389.885631
 20
-147.033977
 30
0.0
 11
-359.885631
 21
-147.033977
 31
0.0
  0
LINE
  5
138
100
AcDbEntity
  8
1
100
AcDbLine
 10
-389.885631
 20
-147.033977
 30
0.0
 11
-389.885631
 21
-141.033977
 31
0.0
  0
LINE
  5
139
100
AcDbEntity
  8
1
100
AcDbLine
 10
-359.885631
 20
-147.033977
 30
0.0
 11
-359.885631
 21
-141.033977
 31
0.0
  0
LINE
  5
13A
100
AcDbEntity
  8
1
100
AcDbLine
 10
-380.635631
 20
-140.543229
 30
0.0
 11
-380.635631
 21
-137.924724
 31
0.0
  0
LINE
  5
13B
100
AcDbEntity
  8
1
100
AcDbLine
 10
-380.635631
 20
-137.924724
 30
0.0
 11
-379.785631
 21
-137.433977
 31
0.0
  0
LINE
  5
13C
100
AcDbEntity
  8
1
100
AcDbLine
 10
-377.760631
 20
-140.543229
 30
0.0
 11
-377.760631
 21
-137.924724
 31
0.0
  0
ARC
  5
13D
100
AcDbEntity
  8
1
100
AcDbCircle
 10
-379.198131
 20
-139.772679
 30
0.0
 40
2.341227
100
AcDbArc
 50
52.121121
 51
127.878879
  0
LINE
  5
13E
100
AcDbEntity
  8
1
100
AcDbLine
 10
-369.135631
 20
-140.543229
 30
0.0
 11
-369.135631
 21
-137.924724
 31
0.0
  0
LINE
  5
13F
100
AcDbEntity
  8
1
100
AcDbLine
 10
-369.135631
 20
-137.924724
 30
0.0
 11
-369.985631
 21
-137.433977
 31
0.0
  0
LINE
  5
140
100
AcDbEntity
  8
1
100
AcDbLine
 10
-369.985631
 20
-137.433977
 30
0.0
 11
-379.785631
 21
-137.433977
 31
0.0
  0
LINE
  5
141
100
AcDbEntity
  8
1
100
AcDbLine
 10
-372.010631
 20
-140.543229
 30
0.0
 11
-372.010631
 21
-137.924724
 31
0.0
  0
ARC
  5
142
100
AcDbEntity
  8
1
100
AcDbCircle
 10
-370.573131
 20
-139.772679
 30
0.0
 40
2.341227
100
AcDbArc
 50
52.121121
 51
127.878879
  0
ARC
  5
143
100
AcDbEntity
  8
1
100
AcDbCircle
 10
-374.885631
 20
-146.056452
 30
0.0
 40
8.625
100
AcDbArc
 50
70.528781
 51
109.471223
  0
LINE
  5
144
100
AcDbEntity
  8
1
100
AcDbLine
 10
-371.885631
 20
-135.433977
 30
0.0
 11
-377.885631
 21
-135.433977
 31
0.0
  0
ARC
  5
145
100
AcDbEntity
  8
1
100
AcDbCircle
 10
-374.885631
 20
-139.433977
 30
0.0
 40
5.0
100
AcDbArc
 50
53.130103
 51
126.8699
  0
LINE
  5
146
100
AcDbEntity
  8
1
100
AcDbLine
 10
-371.885631
 20
-147.433977
 30
0.0
 11
-371.885631
 21
-147.033977
 31
0.0
  0
LINE
  5
147
100
AcDbEntity
  8
1
100
AcDbLine
 10
-371.885631
 20
-137.433977
 30
0.0
 11
-371.885631
 21
-135.433977
 31
0.0
  0
LINE
  5
148
100
AcDbEntity
  8
1
 62
     2
100
AcDbLine
 10
-372.426631
 20
-147.433977
 30
0.0
 11
-372.426631
 21
-147.033977
 31
0.0
  0
LINE
  5
149
100
AcDbEntity
  8
1
 62
     2
100
AcDbLine
 10
-372.426631
 20
-137.433977
 30
0.0
 11
-372.426631
 21
-135.080436
 31
0.0
  0
LINE
  5
14A
100
AcDbEntity
  8
1
 62
     2
100
AcDbLine
 10
-377.344631
 20
-147.433977
 30
0.0
 11
-377.344631
 21
-147.033977
 31
0.0
  0
LINE
  5
14B
100
AcDbEntity
  8
1
 62
     2
100
AcDbLine
 10
-377.344631
 20
-137.433977
 30
0.0
 11
-377.344631
 21
-135.080436
 31
0.0
  0
LINE
  5
14C
100
AcDbEntity
  8
1
100
AcDbLine
 10
-377.885631
 20
-147.433977
 30
0.0
 11
-377.885631
 21
-147.033977
 31
0.0
  0
LINE
  5
14D
100
AcDbEntity
  8
1
100
AcDbLine
 10
-377.885631
 20
-137.433977
 30
0.0
 11
-377.885631
 21
-135.433977
 31
0.0
  0
LINE
  5
14E
100
AcDbEntity
  8
1
100
AcDbLine
 10
-366.885631
 20
-141.033977
 30
0.0
 11
-366.885631
 21
-120.433977
 31
0.0
  0
LINE
  5
14F
100
AcDbEntity
  8
1
100
AcDbLine
 10
-382.885631
 20
-141.033977
 30
0.0
 11
-382.885631
 21
-120.433977
 31
0.0
  0
LINE
  5
150
100
AcDbEntity
  8
1
100
AcDbLine
 10
-362.885631
 20
-147.433977
 30
0.0
 11
-362.885631
 21
-147.033977
 31
0.0
  0
LINE
  5
151
100
AcDbEntity
  8
1
100
AcDbLine
 10
-386.885631
 20
-147.433977
 30
0.0
 11
-386.885631
 21
-147.033977
 31
0.0
  0
CIRCLE
  5
152
100
AcDbEntity
  8
1
100
AcDbCircle
 10
-375.985631
 20
-303.433977
 30
0.0
 40
44.5
  0
LINE
  5
153
100
AcDbEntity
  8
1
100
AcDbLine
 10
-364.069256
 20
-260.933977
 30
0.0
 11
-387.902006
 21
-260.933977
 31
0.0
  0
LINE
  5
154
100
AcDbEntity
  8
1
100
AcDbLine
 10
-364.069256
 20
-345.933977
 30
0.0
 11
-387.902006
 21
-345.933977
 31
0.0
  0
ARC
  5
155
100
AcDbEntity
  8
1
100
AcDbCircle
 10
-387.902006
 20
-337.933977
 30
0.0
 40
8.0
100
AcDbArc
 50
250.944976
 51
270.0
  0
ARC
  5
156
100
AcDbEntity
  8
1
100
AcDbCircle
 10
-364.069256
 20
-337.933977
 30
0.0
 40
8.0
100
AcDbArc
 50
270.0
 51
289.055024
  0
ARC
  5
157
100
AcDbEntity
  8
1
100
AcDbCircle
 10
-364.069256
 20
-268.933977
 30
0.0
 40
8.0
100
AcDbArc
 50
70.944976
 51
90.0
  0
ARC
  5
158
100
AcDbEntity
  8
1
100
AcDbCircle
 10
-387.902006
 20
-268.933977
 30
0.0
 40
8.0
100
AcDbArc
 50
90.0
 51
109.055024
  0
ARC
  5
159
100
AcDbEntity
  8
1
100
AcDbCircle
 10
-370.573131
 20
-138.695274
 30
0.0
 40
2.341227
100
AcDbArc
 50
232.121121
 51
307.878879
  0
ARC
  5
15A
100
AcDbEntity
  8
1
100
AcDbCircle
 10
-374.885631
 20
-132.411501
 30
0.0
 40
8.625
100
AcDbArc
 50
250.528777
 51
289.471219
  0
ARC
  5
15B
100
AcDbEntity
  8
1
100
AcDbCircle
 10
-379.198131
 20
-138.695274
 30
0.0
 40
2.341227
100
AcDbArc
 50
232.121121
 51
307.878879
  0
LINE
  5
15C
100
AcDbEntity
  8
1
100
AcDbLine
 10
-380.635631
 20
-140.543229
 30
0.0
 11
-379.785631
 21
-141.033977
 31
0.0
  0
LINE
  5
15D
100
AcDbEntity
  8
1
100
AcDbLine
 10
-369.135631
 20
-140.543229
 30
0.0
 11
-369.985631
 21
-141.033977
 31
0.0
  0
LINE
  5
15E
100
AcDbEntity
  8
1
100
AcDbLine
 10
-334.340014
 20
-299.123301
 30
0.0
 11
-339.503269
 21
-300.50679
 31
0.0
  0
LINE
  5
15F
100
AcDbEntity
  8
1
100
AcDbLine
 10
-334.340014
 20
-307.744652
 30
0.0
 11
-339.503269
 21
-306.361163
 31
0.0
  0
LINE
  5
160
100
AcDbEntity
  8
1
100
AcDbLine
 10
-340.985631
 20
-302.438642
 30
0.0
 11
-340.985631
 21
-304.429311
 31
0.0
  0
ARC
  5
161
100
AcDbEntity
  8
1
100
AcDbCircle
 10
-338.985631
 20
-302.438642
 30
0.0
 40
2.0
100
AcDbArc
 50
105.0
 51
180.0
  0
ARC
  5
162
100
AcDbEntity
  8
1
100
AcDbCircle
 10
-338.985631
 20
-304.429311
 30
0.0
 40
2.0
100
AcDbArc
 50
180.0
 51
255.0
  0
ARC
  5
163
100
AcDbEntity
  8
1
100
AcDbCircle
 10
-335.116471
 20
-296.225523
 30
0.0
 40
3.0
100
AcDbArc
 50
285.0
 51
10.00288
  0
ARC
  5
164
100
AcDbEntity
  8
1
100
AcDbCircle
 10
-335.116471
 20
-310.64243
 30
0.0
 40
3.0
100
AcDbArc
 50
349.99712
 51
75.0
  0
LINE
  5
165
100
AcDbEntity
  8
1
100
AcDbLine
 10
-362.885631
 20
-263.933977
 30
0.0
 11
-386.885631
 21
-263.933977
 31
0.0
  0
LINE
  5
166
100
AcDbEntity
  8
1
100
AcDbLine
 10
-362.885631
 20
-342.933977
 30
0.0
 11
-386.885631
 21
-342.933977
 31
0.0
  0
LINE
  5
167
100
AcDbEntity
  8
1
100
AcDbLine
 10
-362.885631
 20
-342.933977
 30
0.0
 11
-362.885631
 21
-338.182214
 31
0.0
  0
LINE
  5
168
100
AcDbEntity
  8
1
100
AcDbLine
 10
-362.885631
 20
-268.685739
 30
0.0
 11
-362.885631
 21
-263.933977
 31
0.0
  0
LINE
  5
169
100
AcDbEntity
  8
1
100
AcDbLine
 10
-386.885631
 20
-342.933977
 30
0.0
 11
-386.885631
 21
-338.995754
 31
0.0
  0
LINE
  5
16A
100
AcDbEntity
  8
1
100
AcDbLine
 10
-386.885631
 20
-267.872199
 30
0.0
 11
-386.885631
 21
-263.933977
 31
0.0
  0
ARC
  5
16B
100
AcDbEntity
  8
1
100
AcDbCircle
 10
-362.885631
 20
-270.439432
 30
0.0
 40
1.0
100
AcDbArc
 50
0.0
 51
68.345174
  0
ARC
  5
16C
100
AcDbEntity
  8
1
100
AcDbCircle
 10
-386.885631
 20
-269.648773
 30
0.0
 40
1.0
100
AcDbArc
 50
107.881073
 51
180.0
  0
ARC
  5
16D
100
AcDbEntity
  8
1
100
AcDbCircle
 10
-386.885631
 20
-337.21918
 30
0.0
 40
1.0
100
AcDbArc
 50
180.0
 51
252.118927
  0
ARC
  5
16E
100
AcDbEntity
  8
1
100
AcDbCircle
 10
-362.885631
 20
-336.428522
 30
0.0
 40
1.0
100
AcDbArc
 50
291.654826
 51
360.0
  0
LINE
  5
16F
100
AcDbEntity
  8
1
100
AcDbLine
 10
-361.885631
 20
-336.428522
 30
0.0
 11
-361.885631
 21
-325.333977
 31
0.0
  0
LINE
  5
170
100
AcDbEntity
  8
1
100
AcDbLine
 10
-361.885631
 20
-281.533977
 30
0.0
 11
-361.885631
 21
-270.439432
 31
0.0
  0
LINE
  5
171
100
AcDbEntity
  8
1
100
AcDbLine
 10
-387.885631
 20
-337.21918
 30
0.0
 11
-387.885631
 21
-326.805968
 31
0.0
  0
LINE
  5
172
100
AcDbEntity
  8
1
100
AcDbLine
 10
-387.885631
 20
-280.061985
 30
0.0
 11
-387.885631
 21
-269.648773
 31
0.0
  0
LINE
  5
173
100
AcDbEntity
  8
1
100
AcDbLine
 10
-384.603198
 20
-282.933977
 30
0.0
 11
-366.014306
 21
-282.933977
 31
0.0
  0
LINE
  5
174
100
AcDbEntity
  8
1
100
AcDbLine
 10
-384.603198
 20
-323.933977
 30
0.0
 11
-366.014306
 21
-323.933977
 31
0.0
  0
ARC
  5
175
100
AcDbEntity
  8
1
100
AcDbCircle
 10
-357.492389
 20
-277.933977
 30
0.0
 40
2.5
100
AcDbArc
 50
54.049432
 51
90.0
  0
ARC
  5
176
100
AcDbEntity
  8
1
100
AcDbCircle
 10
-394.478873
 20
-277.933977
 30
0.0
 40
2.5
100
AcDbArc
 50
90.0
 51
125.950568
  0
ARC
  5
177
100
AcDbEntity
  8
1
100
AcDbCircle
 10
-394.478873
 20
-328.933977
 30
0.0
 40
2.5
100
AcDbArc
 50
234.049432
 51
270.0
  0
ARC
  5
178
100
AcDbEntity
  8
1
100
AcDbCircle
 10
-357.492389
 20
-328.933977
 30
0.0
 40
2.5
100
AcDbArc
 50
270.0
 51
305.950568
  0
LINE
  5
179
100
AcDbEntity
  8
1
100
AcDbLine
 10
-394.478873
 20
-275.433977
 30
0.0
 11
-390.385631
 21
-275.433977
 31
0.0
  0
LINE
  5
17A
100
AcDbEntity
  8
1
100
AcDbLine
 10
-359.385631
 20
-275.433977
 30
0.0
 11
-357.492389
 21
-275.433977
 31
0.0
  0
LINE
  5
17B
100
AcDbEntity
  8
1
100
AcDbLine
 10
-394.478873
 20
-331.433977
 30
0.0
 11
-390.385631
 21
-331.433977
 31
0.0
  0
LINE
  5
17C
100
AcDbEntity
  8
1
100
AcDbLine
 10
-359.385631
 20
-331.433977
 30
0.0
 11
-357.492389
 21
-331.433977
 31
0.0
  0
ARC
  5
17D
100
AcDbEntity
  8
1
100
AcDbCircle
 10
-359.385631
 20
-277.933977
 30
0.0
 40
2.5
100
AcDbArc
 50
90.0
 51
180.0
  0
ARC
  5
17E
100
AcDbEntity
  8
1
100
AcDbCircle
 10
-390.385631
 20
-277.933977
 30
0.0
 40
2.5
100
AcDbArc
 50
0.0
 51
90.0
  0
ARC
  5
17F
100
AcDbEntity
  8
1
100
AcDbCircle
 10
-390.385631
 20
-328.933977
 30
0.0
 40
2.5
100
AcDbArc
 50
270.0
 51
360.0
  0
ARC
  5
180
100
AcDbEntity
  8
1
100
AcDbCircle
 10
-359.385631
 20
-328.933977
 30
0.0
 40
2.5
100
AcDbArc
 50
180.0
 51
270.0
  0
ARC
  5
181
100
AcDbEntity
  8
1
100
AcDbCircle
 10
-388.585631
 20
-303.433977
 30
0.0
 40
30.0
100
AcDbArc
 50
316.895326
 51
43.104674
  0
ARC
  5
182
100
AcDbEntity
  8
1
100
AcDbCircle
 10
-366.385631
 20
-303.433977
 30
0.0
 40
27.0
100
AcDbArc
 50
130.601061
 51
229.398939
  0
LINE
  5
183
100
AcDbEntity
  8
1
100
AcDbLine
 10
-364.014306
 20
-279.933977
 30
0.0
 11
-364.014306
 21
-280.933977
 31
0.0
  0
LINE
  5
184
100
AcDbEntity
  8
1
100
AcDbLine
 10
-386.603198
 20
-279.933977
 30
0.0
 11
-386.603198
 21
-280.933977
 31
0.0
  0
LINE
  5
185
100
AcDbEntity
  8
1
100
AcDbLine
 10
-386.603198
 20
-326.933977
 30
0.0
 11
-386.603198
 21
-325.933977
 31
0.0
  0
LINE
  5
186
100
AcDbEntity
  8
1
100
AcDbLine
 10
-364.014306
 20
-326.933977
 30
0.0
 11
-364.014306
 21
-325.933977
 31
0.0
  0
ARC
  5
187
100
AcDbEntity
  8
1
100
AcDbCircle
 10
-366.014306
 20
-280.933977
 30
0.0
 40
2.0
100
AcDbArc
 50
270.0
 51
360.0
  0
ARC
  5
188
100
AcDbEntity
  8
1
100
AcDbCircle
 10
-384.603198
 20
-280.933977
 30
0.0
 40
2.0
100
AcDbArc
 50
180.0
 51
270.0
  0
ARC
  5
189
100
AcDbEntity
  8
1
100
AcDbCircle
 10
-384.603198
 20
-325.933977
 30
0.0
 40
2.0
100
AcDbArc
 50
90.0
 51
180.0
  0
ARC
  5
18A
100
AcDbEntity
  8
1
100
AcDbCircle
 10
-366.014306
 20
-325.933977
 30
0.0
 40
2.0
100
AcDbArc
 50
0.0
 51
90.0
  0
ARC
  5
18B
100
AcDbEntity
  8
1
100
AcDbCircle
 10
-359.385631
 20
-281.533977
 30
0.0
 40
2.5
100
AcDbArc
 50
180.0
 51
216.869898
  0
ARC
  5
18C
100
AcDbEntity
  8
1
100
AcDbCircle
 10
-359.385631
 20
-325.333977
 30
0.0
 40
2.5
100
AcDbArc
 50
143.130102
 51
180.0
  0
ARC
  5
18D
100
AcDbEntity
  8
1
100
AcDbCircle
 10
-390.385631
 20
-326.805968
 30
0.0
 40
2.5
100
AcDbArc
 50
0.0
 51
44.240477
  0
ARC
  5
18E
100
AcDbEntity
  8
1
100
AcDbCircle
 10
-390.385631
 20
-280.061985
 30
0.0
 40
2.5
100
AcDbArc
 50
315.759523
 51
360.0
  0
ARC
  5
18F
100
AcDbEntity
  8
1
100
AcDbCircle
 10
-352.36409
 20
-298.933977
 30
0.0
 40
2.5
100
AcDbArc
 50
187.081882
 51
270.0
  0
ARC
  5
190
100
AcDbEntity
  8
1
100
AcDbCircle
 10
-352.36409
 20
-307.933977
 30
0.0
 40
2.5
100
AcDbArc
 50
90.0
 51
172.918118
  0
ARC
  5
191
100
AcDbEntity
  8
1
100
AcDbCircle
 10
-344.808716
 20
-307.933977
 30
0.0
 40
2.5
100
AcDbArc
 50
351.786789
 51
90.0
  0
ARC
  5
192
100
AcDbEntity
  8
1
100
AcDbCircle
 10
-344.808716
 20
-298.933977
 30
0.0
 40
2.5
100
AcDbArc
 50
270.0
 51
8.213211
  0
ARC
  5
193
100
AcDbEntity
  8
1
100
AcDbCircle
 10
-399.582016
 20
-298.933977
 30
0.0
 40
2.5
100
AcDbArc
 50
270.0
 51
352.280216
  0
ARC
  5
194
100
AcDbEntity
  8
1
100
AcDbCircle
 10
-407.162545
 20
-298.933977
 30
0.0
 40
2.5
100
AcDbArc
 50
171.786789
 51
270.0
  0
ARC
  5
195
100
AcDbEntity
  8
1
100
AcDbCircle
 10
-407.162545
 20
-307.933977
 30
0.0
 40
2.5
100
AcDbArc
 50
90.0
 51
188.213211
  0
ARC
  5
196
100
AcDbEntity
  8
1
100
AcDbCircle
 10
-399.582016
 20
-307.933977
 30
0.0
 40
2.5
100
AcDbArc
 50
7.719784
 51
90.0
  0
ARC
  5
197
100
AcDbEntity
  8
1
100
AcDbCircle
 10
-388.585631
 20
-303.433977
 30
0.0
 40
34.0
100
AcDbArc
 50
7.081882
 51
43.723309
  0
ARC
  5
198
100
AcDbEntity
  8
1
100
AcDbCircle
 10
-388.585631
 20
-303.433977
 30
0.0
 40
34.0
100
AcDbArc
 50
316.276691
 51
352.918118
  0
ARC
  5
199
100
AcDbEntity
  8
1
100
AcDbCircle
 10
-388.585631
 20
-303.433977
 30
0.0
 40
34.0
100
AcDbArc
 50
356.627713
 51
3.372287
  0
ARC
  5
19A
100
AcDbEntity
  8
1
100
AcDbCircle
 10
-375.985631
 20
-303.433977
 30
0.0
 40
34.0
100
AcDbArc
 50
305.950568
 51
351.786789
  0
ARC
  5
19B
100
AcDbEntity
  8
1
100
AcDbCircle
 10
-375.985631
 20
-303.433977
 30
0.0
 40
34.0
100
AcDbArc
 50
356.627713
 51
3.372287
  0
ARC
  5
19C
100
AcDbEntity
  8
1
100
AcDbCircle
 10
-375.985631
 20
-303.433977
 30
0.0
 40
34.0
100
AcDbArc
 50
8.213211
 51
54.049432
  0
LINE
  5
19D
100
AcDbEntity
  8
1
100
AcDbLine
 10
-352.36409
 20
-301.433977
 30
0.0
 11
-344.808716
 21
-301.433977
 31
0.0
  0
LINE
  5
19E
100
AcDbEntity
  8
1
100
AcDbLine
 10
-352.36409
 20
-305.433977
 30
0.0
 11
-344.808716
 21
-305.433977
 31
0.0
  0
ARC
  5
19F
100
AcDbEntity
  8
1
100
AcDbCircle
 10
-366.385631
 20
-303.433977
 30
0.0
 40
31.0
100
AcDbArc
 50
130.706134
 51
172.280216
  0
ARC
  5
1A0
100
AcDbEntity
  8
1
100
AcDbCircle
 10
-366.385631
 20
-303.433977
 30
0.0
 40
31.0
100
AcDbArc
 50
176.300929
 51
183.699071
  0
ARC
  5
1A1
100
AcDbEntity
  8
1
100
AcDbCircle
 10
-366.385631
 20
-303.433977
 30
0.0
 40
31.0
100
AcDbArc
 50
187.719784
 51
229.293866
  0
ARC
  5
1A2
100
AcDbEntity
  8
1
100
AcDbCircle
 10
-375.985631
 20
-303.433977
 30
0.0
 40
34.0
100
AcDbArc
 50
188.213211
 51
234.049432
  0
ARC
  5
1A3
100
AcDbEntity
  8
1
100
AcDbCircle
 10
-375.985631
 20
-303.433977
 30
0.0
 40
34.0
100
AcDbArc
 50
125.950568
 51
171.786789
  0
ARC
  5
1A4
100
AcDbEntity
  8
1
100
AcDbCircle
 10
-375.985631
 20
-303.433977
 30
0.0
 40
34.0
100
AcDbArc
 50
176.627713
 51
183.372287
  0
LINE
  5
1A5
100
AcDbEntity
  8
1
100
AcDbLine
 10
-407.162545
 20
-301.433977
 30
0.0
 11
-399.582016
 21
-301.433977
 31
0.0
  0
LINE
  5
1A6
100
AcDbEntity
  8
1
100
AcDbLine
 10
-407.162545
 20
-305.433977
 30
0.0
 11
-399.582016
 21
-305.433977
 31
0.0
  0
ARC
  5
1A7
100
AcDbEntity
  8
1
100
AcDbCircle
 10
-375.985631
 20
-303.433977
 30
0.0
 40
38.011031
100
AcDbArc
 50
106.664013
 51
253.335987
  0
ARC
  5
1A8
100
AcDbEntity
  8
1
100
AcDbCircle
 10
-375.985631
 20
-303.433977
 30
0.0
 40
38.78552
100
AcDbArc
 50
106.32185
 51
253.67815
  0
ARC
  5
1A9
100
AcDbEntity
  8
1
100
AcDbCircle
 10
-375.985631
 20
-303.433977
 30
0.0
 40
38.011031
100
AcDbArc
 50
290.159626
 51
355.021948
  0
ARC
  5
1AA
100
AcDbEntity
  8
1
100
AcDbCircle
 10
-375.985631
 20
-303.433977
 30
0.0
 40
38.011031
100
AcDbArc
 50
4.978052
 51
69.840374
  0
ARC
  5
1AB
100
AcDbEntity
  8
1
100
AcDbCircle
 10
-375.985631
 20
-303.433977
 30
0.0
 40
38.78552
100
AcDbArc
 50
289.74015
 51
354.819821
  0
ARC
  5
1AC
100
AcDbEntity
  8
1
100
AcDbCircle
 10
-375.985631
 20
-303.433977
 30
0.0
 40
38.78552
100
AcDbArc
 50
5.180179
 51
70.25985
  0
ARC
  5
1AD
100
AcDbEntity
  8
1
100
AcDbCircle
 10
-375.985631
 20
-303.433977
 30
0.0
 40
36.5
100
AcDbArc
 50
4.554469
 51
355.445531
  0
LINE
  5
1AE
100
AcDbEntity
  8
1
100
AcDbLine
 10
-364.885631
 20
-345.933977
 30
0.0
 11
-364.885631
 21
-342.933977
 31
0.0
  0
LINE
  5
1AF
100
AcDbEntity
  8
1
100
AcDbLine
 10
-364.885631
 20
-263.933977
 30
0.0
 11
-364.885631
 21
-260.933977
 31
0.0
  0
LINE
  5
1B0
100
AcDbEntity
  8
1
100
AcDbLine
 10
-384.885631
 20
-345.933977
 30
0.0
 11
-384.885631
 21
-342.933977
 31
0.0
  0
LINE
  5
1B1
100
AcDbEntity
  8
1
100
AcDbLine
 10
-384.885631
 20
-263.933977
 30
0.0
 11
-384.885631
 21
-260.933977
 31
0.0
  0
ARC
  5
1B2
100
AcDbEntity
  8
1
100
AcDbCircle
 10
-375.985631
 20
-303.433977
 30
0.0
 40
40.771054
100
AcDbArc
 50
5.662792
 51
71.258052
  0
ARC
  5
1B3
100
AcDbEntity
  8
1
100
AcDbCircle
 10
-375.985631
 20
-303.433977
 30
0.0
 40
40.0
100
AcDbArc
 50
5.481147
 51
70.882894
  0
ARC
  5
1B4
100
AcDbEntity
  8
1
100
AcDbCircle
 10
-375.985631
 20
-303.433977
 30
0.0
 40
40.771054
100
AcDbArc
 50
105.506431
 51
254.493569
  0
ARC
  5
1B5
100
AcDbEntity
  8
1
100
AcDbCircle
 10
-375.985631
 20
-303.433977
 30
0.0
 40
40.771054
100
AcDbArc
 50
288.741948
 51
354.337208
  0
ARC
  5
1B6
100
AcDbEntity
  8
1
100
AcDbCircle
 10
-375.985631
 20
-303.433977
 30
0.0
 40
40.0
100
AcDbArc
 50
105.813086
 51
254.186914
  0
ARC
  5
1B7
100
AcDbEntity
  8
1
100
AcDbCircle
 10
-375.985631
 20
-303.433977
 30
0.0
 40
40.0
100
AcDbArc
 50
289.117106
 51
354.518853
  0
ARC
  5
1B8
100
AcDbEntity
  8
1
100
AcDbCircle
 10
-361.885631
 20
-338.182214
 30
0.0
 40
1.0
100
AcDbArc
 50
112.086132
 51
180.0
  0
ARC
  5
1B9
100
AcDbEntity
  8
1
100
AcDbCircle
 10
-387.885631
 20
-338.995754
 30
0.0
 40
1.0
100
AcDbArc
 50
0.0
 51
71.498267
  0
ARC
  5
1BA
100
AcDbEntity
  8
1
100
AcDbCircle
 10
-361.885631
 20
-268.685739
 30
0.0
 40
1.0
100
AcDbArc
 50
180.0
 51
247.913868
  0
ARC
  5
1BB
100
AcDbEntity
  8
1
100
AcDbCircle
 10
-387.885631
 20
-267.872199
 30
0.0
 40
1.0
100
AcDbArc
 50
288.501733
 51
360.0
  0
LINE
  5
1BC
100
AcDbEntity
  8
2
  6
CENTER
 62
     2
100
AcDbLine
 10
-374.885631
 20
421.624359
 30
0.0
 11
-374.885631
 21
262.866023
 31
0.0
  0
LINE
  5
1BD
100
AcDbEntity
  8
2
  6
CENTER
 62
     2
100
AcDbLine
 10
-522.814134
 20
351.766023
 30
0.0
 11
-247.526719
 21
351.766023
 31
0.0
  0
LINE
  5
1BE
100
AcDbEntity
  8
2
  6
CENTER
 62
     2
100
AcDbLine
 10
-350.136894
 20
-46.040226
 30
0.0
 11
-350.136894
 21
-74.689224
 31
0.0
  0
LINE
  5
1BF
100
AcDbEntity
  8
2
  6
CENTER
 62
     2
100
AcDbLine
 10
-399.634368
 20
-46.040226
 30
0.0
 11
-399.634368
 21
-74.689224
 31
0.0
  0
LINE
  5
1C0
100
AcDbEntity
  8
2
100
AcDbLine
 10
-417.385631
 20
86.566023
 30
0.0
 11
-332.385631
 21
86.566023
 31
0.0
  0
LINE
  5
1C1
100
AcDbEntity
  8
2
100
AcDbLine
 10
-332.385631
 20
87.766023
 30
0.0
 11
-332.385631
 21
84.566023
 31
0.0
  0
LINE
  5
1C2
100
AcDbEntity
  8
2
100
AcDbLine
 10
-417.385631
 20
87.766023
 30
0.0
 11
-417.385631
 21
84.566023
 31
0.0
  0
LINE
  5
1C3
100
AcDbEntity
  8
2
100
AcDbLine
 10
-339.885631
 20
-56.433977
 30
0.0
 11
-339.885631
 21
-50.433977
 31
0.0
  0
ARC
  5
1C4
100
AcDbEntity
  8
2
100
AcDbCircle
 10
-337.885631
 20
-50.433977
 30
0.0
 40
2.0
100
AcDbArc
 50
90.0
 51
180.0
  0
ARC
  5
1C5
100
AcDbEntity
  8
2
100
AcDbCircle
 10
-310.885631
 20
-46.433977
 30
0.0
 40
2.0
100
AcDbArc
 50
270.0
 51
360.0
  0
LINE
  5
1C6
100
AcDbEntity
  8
2
100
AcDbLine
 10
-310.885631
 20
-48.433977
 30
0.0
 11
-510.885631
 21
-48.433977
 31
0.0
  0
ARC
  5
1C7
100
AcDbEntity
  8
2
100
AcDbCircle
 10
-510.885631
 20
-46.433977
 30
0.0
 40
2.0
100
AcDbArc
 50
180.0
 51
270.0
  0
LINE
  5
1C8
100
AcDbEntity
  8
2
100
AcDbLine
 10
-512.885631
 20
-46.433977
 30
0.0
 11
-512.885631
 21
-42.433977
 31
0.0
  0
LINE
  5
1C9
100
AcDbEntity
  8
2
100
AcDbLine
 10
-308.885631
 20
-46.433977
 30
0.0
 11
-308.885631
 21
-41.433977
 31
0.0
  0
LINE
  5
1CA
100
AcDbEntity
  8
2
100
AcDbLine
 10
-278.885631
 20
-44.433977
 30
0.0
 11
-278.885631
 21
26.566023
 31
0.0
  0
LINE
  5
1CB
100
AcDbEntity
  8
2
100
AcDbLine
 10
-260.885631
 20
-37.361194
 30
0.0
 11
-260.885631
 21
19.493241
 31
0.0
  0
LINE
  5
1CC
100
AcDbEntity
  8
2
100
AcDbLine
 10
-376.885631
 20
96.066023
 30
0.0
 11
-376.885631
 21
87.766023
 31
0.0
  0
LINE
  5
1CD
100
AcDbEntity
  8
2
100
AcDbLine
 10
-372.885631
 20
96.066023
 30
0.0
 11
-372.885631
 21
87.766023
 31
0.0
  0
LINE
  5
1CE
100
AcDbEntity
  8
2
100
AcDbLine
 10
-484.885631
 20
-41.433977
 30
0.0
 11
-284.885631
 21
-41.433977
 31
0.0
  0
LINE
  5
1CF
100
AcDbEntity
  8
2
100
AcDbLine
 10
-278.885631
 20
-44.433977
 30
0.0
 11
-282.885631
 21
-44.433977
 31
0.0
  0
LINE
  5
1D0
100
AcDbEntity
  8
2
100
AcDbLine
 10
-283.885631
 20
-43.433977
 30
0.0
 11
-283.885631
 21
-42.433977
 31
0.0
  0
ARC
  5
1D1
100
AcDbEntity
  8
2
100
AcDbCircle
 10
-284.885631
 20
-42.433977
 30
0.0
 40
1.0
100
AcDbArc
 50
0.0
 51
90.0
  0
ARC
  5
1D2
100
AcDbEntity
  8
2
100
AcDbCircle
 10
-282.885631
 20
-43.433977
 30
0.0
 40
1.0
100
AcDbArc
 50
180.0
 51
270.0
  0
LINE
  5
1D3
100
AcDbEntity
  8
2
100
AcDbLine
 10
-278.885631
 20
26.566023
 30
0.0
 11
-285.720384
 21
26.566023
 31
0.0
  0
LINE
  5
1D4
100
AcDbEntity
  8
2
100
AcDbLine
 10
-308.885631
 20
-42.433977
 30
0.0
 11
-512.885631
 21
-42.433977
 31
0.0
  0
LINE
  5
1D5
100
AcDbEntity
  8
2
100
AcDbLine
 10
-512.885631
 20
-42.433977
 30
0.0
 11
-512.885631
 21
-26.433977
 31
0.0
  0
ARC
  5
1D6
100
AcDbEntity
  8
2
100
AcDbCircle
 10
-508.885631
 20
-26.433977
 30
0.0
 40
4.0
100
AcDbArc
 50
94.060176
 51
180.0
  0
LINE
  5
1D7
100
AcDbEntity
  8
2
100
AcDbLine
 10
-288.885631
 20
62.566023
 30
0.0
 11
-289.885631
 21
62.566023
 31
0.0
  0
ARC
  5
1D8
100
AcDbEntity
  8
2
100
AcDbCircle
 10
-288.885631
 20
61.566023
 30
0.0
 40
1.0
100
AcDbArc
 50
0.0
 51
90.0
  0
LINE
  5
1D9
100
AcDbEntity
  8
2
100
AcDbLine
 10
-287.885631
 20
61.566023
 30
0.0
 11
-287.885631
 21
27.059172
 31
0.0
  0
LINE
  5
1DA
100
AcDbEntity
  8
2
100
AcDbLine
 10
-291.885631
 20
58.566023
 30
0.0
 11
-291.885631
 21
35.934798
 31
0.0
  0
LINE
  5
1DB
100
AcDbEntity
  8
2
100
AcDbLine
 10
-443.885631
 20
404.766023
 30
0.0
 11
-295.885631
 21
404.766023
 31
0.0
  0
ARC
  5
1DC
100
AcDbEntity
  8
2
100
AcDbCircle
 10
-295.885631
 20
398.766023
 30
0.0
 40
6.0
100
AcDbArc
 50
0.0
 51
90.0
  0
ARC
  5
1DD
100
AcDbEntity
  8
2
100
AcDbCircle
 10
-443.885631
 20
398.766023
 30
0.0
 40
6.0
100
AcDbArc
 50
90.0
 51
180.0
  0
LINE
  5
1DE
100
AcDbEntity
  8
2
100
AcDbLine
 10
-289.885631
 20
398.766023
 30
0.0
 11
-289.885631
 21
310.766023
 31
0.0
  0
ARC
  5
1DF
100
AcDbEntity
  8
2
100
AcDbCircle
 10
-288.885631
 20
355.766023
 30
0.0
 40
1.0
100
AcDbArc
 50
90.0
 51
180.0
  0
ARC
  5
1E0
100
AcDbEntity
  8
2
100
AcDbCircle
 10
-288.885631
 20
393.766023
 30
0.0
 40
1.0
100
AcDbArc
 50
180.0
 51
270.0
  0
LINE
  5
1E1
100
AcDbEntity
  8
2
100
AcDbLine
 10
-449.885631
 20
310.766023
 30
0.0
 11
-449.885631
 21
398.766023
 31
0.0
  0
ARC
  5
1E2
100
AcDbEntity
  8
2
100
AcDbCircle
 10
-295.885631
 20
310.766023
 30
0.0
 40
6.0
100
AcDbArc
 50
270.0
 51
360.0
  0
ARC
  5
1E3
100
AcDbEntity
  8
2
100
AcDbCircle
 10
-443.885631
 20
310.766023
 30
0.0
 40
6.0
100
AcDbArc
 50
180.0
 51
270.0
  0
LINE
  5
1E4
100
AcDbEntity
  8
2
100
AcDbLine
 10
-287.885631
 20
391.766023
 30
0.0
 11
-287.885631
 21
357.766023
 31
0.0
  0
ARC
  5
1E5
100
AcDbEntity
  8
2
100
AcDbCircle
 10
-288.885631
 20
357.766023
 30
0.0
 40
1.0
100
AcDbArc
 50
270.0
 51
360.0
  0
ARC
  5
1E6
100
AcDbEntity
  8
2
100
AcDbCircle
 10
-288.885631
 20
391.766023
 30
0.0
 40
1.0
100
AcDbArc
 50
0.0
 51
90.0
  0
ARC
  5
1E7
100
AcDbEntity
  8
2
100
AcDbCircle
 10
-288.885631
 20
315.766023
 30
0.0
 40
1.0
100
AcDbArc
 50
90.0
 51
180.0
  0
ARC
  5
1E8
100
AcDbEntity
  8
2
100
AcDbCircle
 10
-288.885631
 20
353.766023
 30
0.0
 40
1.0
100
AcDbArc
 50
180.0
 51
270.0
  0
LINE
  5
1E9
100
AcDbEntity
  8
2
100
AcDbLine
 10
-287.885631
 20
351.766023
 30
0.0
 11
-287.885631
 21
317.766023
 31
0.0
  0
ARC
  5
1EA
100
AcDbEntity
  8
2
100
AcDbCircle
 10
-288.885631
 20
317.766023
 30
0.0
 40
1.0
100
AcDbArc
 50
270.0
 51
360.0
  0
ARC
  5
1EB
100
AcDbEntity
  8
2
100
AcDbCircle
 10
-288.885631
 20
351.766023
 30
0.0
 40
1.0
100
AcDbArc
 50
0.0
 51
90.0
  0
LINE
  5
1EC
100
AcDbEntity
  8
2
100
AcDbLine
 10
-503.385631
 20
406.766023
 30
0.0
 11
-418.385631
 21
406.766023
 31
0.0
  0
LINE
  5
1ED
100
AcDbEntity
  8
2
100
AcDbLine
 10
-278.885631
 20
403.766023
 30
0.0
 11
-292.585631
 21
403.766023
 31
0.0
  0
LINE
  5
1EE
100
AcDbEntity
  8
2
100
AcDbLine
 10
-417.385631
 20
404.766023
 30
0.0
 11
-417.385631
 21
405.766023
 31
0.0
  0
LINE
  5
1EF
100
AcDbEntity
  8
2
100
AcDbLine
 10
-278.885631
 20
300.766023
 30
0.0
 11
-278.885631
 21
403.766023
 31
0.0
  0
LINE
  5
1F0
100
AcDbEntity
  8
2
100
AcDbLine
 10
-260.885631
 20
307.838806
 30
0.0
 11
-260.885631
 21
396.693241
 31
0.0
  0
CIRCLE
  5
1F1
100
AcDbEntity
  8
2
100
AcDbCircle
 10
-374.885631
 20
351.766023
 30
0.0
 40
42.5
  0
LINE
  5
1F2
100
AcDbEntity
  8
2
100
AcDbLine
 10
-405.307827
 20
359.266023
 30
0.0
 11
-384.370584
 21
359.266023
 31
0.0
  0
LINE
  5
1F3
100
AcDbEntity
  8
2
100
AcDbLine
 10
-405.307827
 20
344.266023
 30
0.0
 11
-384.370584
 21
344.266023
 31
0.0
  0
LINE
  5
1F4
100
AcDbEntity
  8
2
100
AcDbLine
 10
-365.400678
 20
344.266023
 30
0.0
 11
-344.463435
 21
344.266023
 31
0.0
  0
LINE
  5
1F5
100
AcDbEntity
  8
2
100
AcDbLine
 10
-372.885631
 20
329.743548
 30
0.0
 11
-372.885631
 21
327.599932
 31
0.0
  0
LINE
  5
1F6
100
AcDbEntity
  8
2
100
AcDbLine
 10
-376.885631
 20
329.743548
 30
0.0
 11
-376.885631
 21
327.599932
 31
0.0
  0
LINE
  5
1F7
100
AcDbEntity
  8
2
100
AcDbLine
 10
-372.885631
 20
373.788499
 30
0.0
 11
-372.885631
 21
375.932115
 31
0.0
  0
LINE
  5
1F8
100
AcDbEntity
  8
2
100
AcDbLine
 10
-376.885631
 20
373.788499
 30
0.0
 11
-376.885631
 21
375.932115
 31
0.0
  0
ARC
  5
1F9
100
AcDbEntity
  8
2
100
AcDbCircle
 10
175.514369
 20
44.566023
 30
0.0
 40
18.0
100
AcDbArc
 50
0.0
 51
180.0
  0
LINE
  5
1FA
100
AcDbEntity
  8
2
100
AcDbLine
 10
157.514369
 20
44.566023
 30
0.0
 11
157.514369
 21
26.566023
 31
0.0
  0
LINE
  5
1FB
100
AcDbEntity
  8
2
100
AcDbLine
 10
193.514369
 20
44.566023
 30
0.0
 11
193.514369
 21
26.566023
 31
0.0
  0
ARC
  5
1FC
100
AcDbEntity
  8
2
100
AcDbCircle
 10
135.514369
 20
44.566023
 30
0.0
 40
18.0
100
AcDbArc
 50
0.0
 51
180.0
  0
LINE
  5
1FD
100
AcDbEntity
  8
2
100
AcDbLine
 10
117.514369
 20
44.566023
 30
0.0
 11
117.514369
 21
26.566023
 31
0.0
  0
LINE
  5
1FE
100
AcDbEntity
  8
2
100
AcDbLine
 10
153.514369
 20
44.566023
 30
0.0
 11
153.514369
 21
26.566023
 31
0.0
  0
LINE
  5
1FF
100
AcDbEntity
  8
2
100
AcDbLine
 10
107.514369
 20
26.566023
 30
0.0
 11
198.514369
 21
26.566023
 31
0.0
  0
LINE
  5
200
100
AcDbEntity
  8
2
100
AcDbLine
 10
204.514369
 20
20.566023
 30
0.0
 11
204.514369
 21
-46.433977
 31
0.0
  0
LINE
  5
201
100
AcDbEntity
  8
2
100
AcDbLine
 10
198.514369
 20
-44.433977
 30
0.0
 11
107.514369
 21
-44.433977
 31
0.0
  0
LINE
  5
202
100
AcDbEntity
  8
2
100
AcDbLine
 10
101.514369
 20
-38.433977
 30
0.0
 11
101.514369
 21
20.566023
 31
0.0
  0
LINE
  5
203
100
AcDbEntity
  8
2
100
AcDbLine
 10
205.514369
 20
64.566023
 30
0.0
 11
105.514369
 21
64.566023
 31
0.0
  0
LINE
  5
204
100
AcDbEntity
  8
2
100
AcDbLine
 10
204.514369
 20
59.566023
 30
0.0
 11
188.314369
 21
59.566023
 31
0.0
  0
LINE
  5
205
100
AcDbEntity
  8
2
100
AcDbLine
 10
163.614369
 20
59.566023
 30
0.0
 11
147.414369
 21
59.566023
 31
0.0
  0
LINE
  5
206
100
AcDbEntity
  8
2
100
AcDbLine
 10
122.714369
 20
59.566023
 30
0.0
 11
106.514369
 21
59.566023
 31
0.0
  0
LINE
  5
207
100
AcDbEntity
  8
2
100
AcDbLine
 10
105.514369
 20
64.566023
 30
0.0
 11
105.514369
 21
28.566023
 31
0.0
  0
LINE
  5
208
100
AcDbEntity
  8
2
100
AcDbLine
 10
203.514369
 20
58.566023
 30
0.0
 11
203.514369
 21
23.866023
 31
0.0
  0
LINE
  5
209
100
AcDbEntity
  8
2
100
AcDbLine
 10
205.514369
 20
64.566023
 30
0.0
 11
205.514369
 21
60.566023
 31
0.0
  0
LINE
  5
20A
100
AcDbEntity
  8
2
100
AcDbLine
 10
198.529075
 20
81.566023
 30
0.0
 11
112.499663
 21
81.566023
 31
0.0
  0
LINE
  5
20B
100
AcDbEntity
  8
2
100
AcDbLine
 10
110.014369
 20
87.766023
 30
0.0
 11
110.014369
 21
82.701256
 31
0.0
  0
LINE
  5
20C
100
AcDbEntity
  8
2
100
AcDbLine
 10
195.014369
 20
87.766023
 30
0.0
 11
195.014369
 21
84.566023
 31
0.0
  0
LINE
  5
20D
100
AcDbEntity
  8
2
100
AcDbLine
 10
129.014369
 20
-3.933977
 30
0.0
 11
176.014369
 21
-3.933977
 31
0.0
  0
LINE
  5
20E
100
AcDbEntity
  8
2
100
AcDbLine
 10
177.514369
 20
-5.433977
 30
0.0
 11
177.514369
 21
-12.433977
 31
0.0
  0
LINE
  5
20F
100
AcDbEntity
  8
2
100
AcDbLine
 10
176.014369
 20
-13.933977
 30
0.0
 11
129.014369
 21
-13.933977
 31
0.0
  0
LINE
  5
210
100
AcDbEntity
  8
2
100
AcDbLine
 10
127.514369
 20
-12.433977
 30
0.0
 11
127.514369
 21
-5.433977
 31
0.0
  0
LINE
  5
211
100
AcDbEntity
  8
2
100
AcDbLine
 10
187.514369
 20
-56.433977
 30
0.0
 11
187.514369
 21
-50.433977
 31
0.0
  0
ARC
  5
212
100
AcDbEntity
  8
2
100
AcDbCircle
 10
189.514369
 20
-50.433977
 30
0.0
 40
2.0
100
AcDbArc
 50
90.0
 51
180.0
  0
LINE
  5
213
100
AcDbEntity
  8
2
100
AcDbLine
 10
117.514369
 20
-50.433977
 30
0.0
 11
117.514369
 21
-56.433977
 31
0.0
  0
ARC
  5
214
100
AcDbEntity
  8
2
100
AcDbCircle
 10
115.514369
 20
-50.433977
 30
0.0
 40
2.0
100
AcDbArc
 50
0.0
 51
90.0
  0
LINE
  5
215
100
AcDbEntity
  8
2
100
AcDbLine
 10
103.514369
 20
-48.433977
 30
0.0
 11
202.514369
 21
-48.433977
 31
0.0
  0
ARC
  5
216
100
AcDbEntity
  8
2
100
AcDbCircle
 10
202.514369
 20
-46.433977
 30
0.0
 40
2.0
100
AcDbArc
 50
270.0
 51
360.0
  0
LINE
  5
217
100
AcDbEntity
  8
2
100
AcDbLine
 10
101.514369
 20
-46.433977
 30
0.0
 11
101.514369
 21
-42.433977
 31
0.0
  0
CIRCLE
  5
218
100
AcDbEntity
  8
2
100
AcDbCircle
 10
-333.885631
 20
4.566023
 30
0.0
 40
35.0
  0
LINE
  5
219
100
AcDbEntity
  8
2
100
AcDbLine
 10
-504.385631
 20
405.766023
 30
0.0
 11
-504.385631
 21
398.766023
 31
0.0
  0
ARC
  5
21A
100
AcDbEntity
  8
2
100
AcDbCircle
 10
-502.385631
 20
398.766023
 30
0.0
 40
2.0
100
AcDbArc
 50
180.0
 51
270.0
  0
LINE
  5
21B
100
AcDbEntity
  8
2
100
AcDbLine
 10
-502.385631
 20
396.766023
 30
0.0
 11
-499.773131
 21
396.766023
 31
0.0
  0
LINE
  5
21C
100
AcDbEntity
  8
2
100
AcDbLine
 10
-498.885631
 20
393.766023
 30
0.0
 11
-498.885631
 21
323.766023
 31
0.0
  0
ARC
  5
21D
100
AcDbEntity
  8
2
100
AcDbCircle
 10
-501.885631
 20
393.766023
 30
0.0
 40
3.0
100
AcDbArc
 50
0.0
 51
90.0
  0
LINE
  5
21E
100
AcDbEntity
  8
2
100
AcDbLine
 10
-508.885631
 20
302.766023
 30
0.0
 11
-508.885631
 21
318.766023
 31
0.0
  0
LINE
  5
21F
100
AcDbEntity
  8
2
100
AcDbLine
 10
-512.885631
 20
307.766023
 30
0.0
 11
-512.885631
 21
395.766023
 31
0.0
  0
LINE
  5
220
100
AcDbEntity
  8
2
100
AcDbLine
 10
110.014369
 20
86.566023
 30
0.0
 11
195.014369
 21
86.566023
 31
0.0
  0
LINE
  5
221
100
AcDbEntity
  8
2
100
AcDbLine
 10
-346.350977
 20
247.766023
 30
0.0
 11
-321.420285
 21
247.766023
 31
0.0
  0
LINE
  5
222
100
AcDbEntity
  8
2
100
AcDbLine
 10
-327.885631
 20
241.766023
 30
0.0
 11
-327.885631
 21
247.766023
 31
0.0
  0
LINE
  5
223
100
AcDbEntity
  8
2
100
AcDbLine
 10
-339.885631
 20
247.766023
 30
0.0
 11
-339.885631
 21
241.766023
 31
0.0
  0
LINE
  5
224
100
AcDbEntity
  8
2
100
AcDbLine
 10
-324.885631
 20
241.766023
 30
0.0
 11
-333.885631
 21
241.766023
 31
0.0
  0
LINE
  5
225
100
AcDbEntity
  8
2
100
AcDbLine
 10
-324.885631
 20
241.766023
 30
0.0
 11
-323.885631
 21
240.766023
 31
0.0
  0
LINE
  5
226
100
AcDbEntity
  8
2
100
AcDbLine
 10
-323.885631
 20
234.316023
 30
0.0
 11
-323.885631
 21
240.766023
 31
0.0
  0
ARC
  5
227
100
AcDbEntity
  8
2
100
AcDbCircle
 10
-334.285631
 20
322.566023
 30
0.0
 40
100.0
100
AcDbArc
 50
284.533747
 51
289.094774
  0
LINE
  5
228
100
AcDbEntity
  8
2
100
AcDbLine
 10
-304.035631
 20
235.816023
 30
0.0
 11
-304.579245
 21
235.816023
 31
0.0
  0
LINE
  5
229
100
AcDbEntity
  8
2
100
AcDbLine
 10
-314.399506
 20
235.816023
 30
0.0
 11
-317.228959
 21
235.816023
 31
0.0
  0
LINE
  5
22A
100
AcDbEntity
  8
2
100
AcDbLine
 10
-332.335631
 20
235.116023
 30
0.0
 11
-332.185631
 21
233.166023
 31
0.0
  0
ARC
  5
22B
100
AcDbEntity
  8
2
100
AcDbCircle
 10
-330.185631
 20
233.316023
 30
0.0
 40
2.0
100
AcDbArc
 50
184.377778
 51
270.0
  0
ARC
  5
22C
100
AcDbEntity
  8
2
100
AcDbCircle
 10
-331.835631
 20
235.166023
 30
0.0
 40
0.5
100
AcDbArc
 50
66.588889
 51
184.533333
  0
LINE
  5
22D
100
AcDbEntity
  8
2
100
AcDbLine
 10
-330.185631
 20
231.316023
 30
0.0
 11
-315.880887
 21
231.316023
 31
0.0
  0
ARC
  5
22E
100
AcDbEntity
  8
2
100
AcDbCircle
 10
-319.835631
 20
231.716023
 30
0.0
 40
5.0
100
AcDbArc
 50
8.626927
 51
51.90371
  0
ARC
  5
22F
100
AcDbEntity
  8
2
100
AcDbCircle
 10
-322.135631
 20
242.316023
 30
0.0
 40
8.0
100
AcDbArc
 50
270.0
 51
303.997432
  0
ARC
  5
230
100
AcDbEntity
  8
2
100
AcDbCircle
 10
-325.285631
 20
250.316023
 30
0.0
 40
16.0
100
AcDbArc
 50
246.588889
 51
270.0
  0
LINE
  5
231
100
AcDbEntity
  8
2
100
AcDbLine
 10
-325.285631
 20
234.316023
 30
0.0
 11
-322.135631
 21
234.316023
 31
0.0
  0
ARC
  5
232
100
AcDbEntity
  8
2
100
AcDbCircle
 10
-316.885631
 20
231.466023
 30
0.0
 40
5.0
100
AcDbArc
 50
6.434596
 51
51.566794
  0
ARC
  5
233
100
AcDbEntity
  8
2
100
AcDbCircle
 10
-305.235631
 20
231.816023
 30
0.0
 40
4.0
100
AcDbArc
 50
359.766667
 51
83.012597
  0
ARC
  5
234
100
AcDbEntity
  8
2
100
AcDbCircle
 10
-304.035631
 20
231.816023
 30
0.0
 40
4.0
100
AcDbArc
 50
6.423158
 51
90.0
  0
LINE
  5
235
100
AcDbEntity
  8
2
100
AcDbLine
 10
-311.122168
 20
231.316023
 30
0.0
 11
-301.735631
 21
231.316023
 31
0.0
  0
ARC
  5
236
100
AcDbEntity
  8
2
100
AcDbCircle
 10
-301.735631
 20
231.816023
 30
0.0
 40
0.5
100
AcDbArc
 50
270.0
 51
359.766667
  0
ARC
  5
237
100
AcDbEntity
  8
2
100
AcDbCircle
 10
-306.735631
 20
236.116023
 30
0.0
 40
1.8
100
AcDbArc
 50
270.0
 51
339.645594
  0
ARC
  5
238
100
AcDbEntity
  8
2
100
AcDbCircle
 10
-307.635631
 20
250.316023
 30
0.0
 40
16.0
100
AcDbArc
 50
244.992167
 51
270.0
  0
LINE
  5
239
100
AcDbEntity
  8
2
100
AcDbLine
 10
-307.635631
 20
234.316023
 30
0.0
 11
-306.735631
 21
234.316023
 31
0.0
  0
LINE
  5
23A
100
AcDbEntity
  8
2
100
AcDbLine
 10
-305.735631
 20
227.966023
 30
0.0
 11
-362.185631
 21
227.966023
 31
0.0
  0
LINE
  5
23B
100
AcDbEntity
  8
2
100
AcDbLine
 10
-342.885631
 20
241.766023
 30
0.0
 11
-333.885631
 21
241.766023
 31
0.0
  0
LINE
  5
23C
100
AcDbEntity
  8
2
100
AcDbLine
 10
-342.885631
 20
241.766023
 30
0.0
 11
-343.885631
 21
240.766023
 31
0.0
  0
LINE
  5
23D
100
AcDbEntity
  8
2
100
AcDbLine
 10
-343.885631
 20
234.316023
 30
0.0
 11
-343.885631
 21
240.766023
 31
0.0
  0
ARC
  5
23E
100
AcDbEntity
  8
2
100
AcDbCircle
 10
-333.485631
 20
322.566023
 30
0.0
 40
100.0
100
AcDbArc
 50
250.905226
 51
255.466253
  0
LINE
  5
23F
100
AcDbEntity
  8
2
100
AcDbLine
 10
-363.735631
 20
235.816023
 30
0.0
 11
-363.192017
 21
235.816023
 31
0.0
  0
LINE
  5
240
100
AcDbEntity
  8
2
100
AcDbLine
 10
-353.371756
 20
235.816023
 30
0.0
 11
-350.542303
 21
235.816023
 31
0.0
  0
LINE
  5
241
100
AcDbEntity
  8
2
100
AcDbLine
 10
-309.190611
 20
225.766023
 30
0.0
 11
-358.58065
 21
225.766023
 31
0.0
  0
LINE
  5
242
100
AcDbEntity
  8
2
100
AcDbLine
 10
-335.435631
 20
235.116023
 30
0.0
 11
-335.585631
 21
233.166023
 31
0.0
  0
ARC
  5
243
100
AcDbEntity
  8
2
100
AcDbCircle
 10
-337.585631
 20
233.316023
 30
0.0
 40
2.0
100
AcDbArc
 50
270.0
 51
355.622222
  0
ARC
  5
244
100
AcDbEntity
  8
2
100
AcDbCircle
 10
-335.935631
 20
235.166023
 30
0.0
 40
0.5
100
AcDbArc
 50
355.466667
 51
113.411111
  0
LINE
  5
245
100
AcDbEntity
  8
2
100
AcDbLine
 10
-337.585631
 20
231.316023
 30
0.0
 11
-351.890375
 21
231.316023
 31
0.0
  0
ARC
  5
246
100
AcDbEntity
  8
2
100
AcDbCircle
 10
-347.935631
 20
231.716023
 30
0.0
 40
5.0
100
AcDbArc
 50
128.09629
 51
171.373073
  0
ARC
  5
247
100
AcDbEntity
  8
2
100
AcDbCircle
 10
-345.635631
 20
242.316023
 30
0.0
 40
8.0
100
AcDbArc
 50
236.002568
 51
270.0
  0
ARC
  5
248
100
AcDbEntity
  8
2
100
AcDbCircle
 10
-342.485631
 20
250.316023
 30
0.0
 40
16.0
100
AcDbArc
 50
270.0
 51
293.411111
  0
LINE
  5
249
100
AcDbEntity
  8
2
100
AcDbLine
 10
-342.485631
 20
234.316023
 30
0.0
 11
-345.635631
 21
234.316023
 31
0.0
  0
ARC
  5
24A
100
AcDbEntity
  8
2
100
AcDbCircle
 10
-350.885631
 20
231.466023
 30
0.0
 40
5.0
100
AcDbArc
 50
128.433206
 51
173.565404
  0
ARC
  5
24B
100
AcDbEntity
  8
2
100
AcDbCircle
 10
-362.535631
 20
231.816023
 30
0.0
 40
4.0
100
AcDbArc
 50
96.987403
 51
180.233333
  0
ARC
  5
24C
100
AcDbEntity
  8
2
100
AcDbCircle
 10
-363.735631
 20
231.816023
 30
0.0
 40
4.0
100
AcDbArc
 50
90.0
 51
173.576842
  0
LINE
  5
24D
100
AcDbEntity
  8
2
100
AcDbLine
 10
-356.649093
 20
231.316023
 30
0.0
 11
-366.035631
 21
231.316023
 31
0.0
  0
ARC
  5
24E
100
AcDbEntity
  8
2
100
AcDbCircle
 10
-366.035631
 20
231.816023
 30
0.0
 40
0.5
100
AcDbArc
 50
180.233333
 51
270.0
  0
ARC
  5
24F
100
AcDbEntity
  8
2
100
AcDbCircle
 10
-361.035631
 20
236.116023
 30
0.0
 40
1.8
100
AcDbArc
 50
200.354406
 51
270.0
  0
ARC
  5
250
100
AcDbEntity
  8
2
100
AcDbCircle
 10
-360.135631
 20
250.316023
 30
0.0
 40
16.0
100
AcDbArc
 50
270.0
 51
295.007833
  0
LINE
  5
251
100
AcDbEntity
  8
2
100
AcDbLine
 10
-360.135631
 20
234.316023
 30
0.0
 11
-361.035631
 21
234.316023
 31
0.0
  0
LINE
  5
252
100
AcDbEntity
  8
2
100
AcDbLine
 10
42.514369
 20
10.566023
 30
0.0
 11
48.514369
 21
10.566023
 31
0.0
  0
LINE
  5
253
100
AcDbEntity
  8
2
100
AcDbLine
 10
48.514369
 20
-1.433977
 30
0.0
 11
42.514369
 21
-1.433977
 31
0.0
  0
LINE
  5
254
100
AcDbEntity
  8
2
100
AcDbLine
 10
35.064369
 20
14.566023
 30
0.0
 11
41.514369
 21
14.566023
 31
0.0
  0
LINE
  5
255
100
AcDbEntity
  8
2
100
AcDbLine
 10
35.064369
 20
-5.433977
 30
0.0
 11
41.514369
 21
-5.433977
 31
0.0
  0
LINE
  5
256
100
AcDbEntity
  8
2
100
AcDbLine
 10
-409.885631
 20
-56.433977
 30
0.0
 11
-409.885631
 21
-53.798217
 31
0.0
  0
LINE
  5
257
100
AcDbEntity
  8
2
100
AcDbLine
 10
-279.885631
 20
57.566023
 30
0.0
 11
-279.885631
 21
31.566023
 31
0.0
  0
LINE
  5
258
100
AcDbEntity
  8
2
100
AcDbLine
 10
-284.885631
 20
57.566023
 30
0.0
 11
-284.885631
 21
31.566023
 31
0.0
  0
LINE
  5
259
100
AcDbEntity
  8
2
100
AcDbLine
 10
-279.885631
 20
31.566023
 30
0.0
 11
-284.885631
 21
31.566023
 31
0.0
  0
LINE
  5
25A
100
AcDbEntity
  8
2
100
AcDbLine
 10
-279.885631
 20
57.566023
 30
0.0
 11
-284.885631
 21
57.566023
 31
0.0
  0
LINE
  5
25B
100
AcDbEntity
  8
2
100
AcDbLine
 10
-284.885631
 20
53.566023
 30
0.0
 11
-287.885631
 21
53.566023
 31
0.0
  0
LINE
  5
25C
100
AcDbEntity
  8
2
100
AcDbLine
 10
-287.885631
 20
35.566023
 30
0.0
 11
-284.885631
 21
35.566023
 31
0.0
  0
ARC
  5
25D
100
AcDbEntity
  8
2
100
AcDbCircle
 10
-298.089798
 20
38.066023
 30
0.0
 40
18.204167
100
AcDbArc
 50
339.080182
 51
20.919818
  0
ARC
  5
25E
100
AcDbEntity
  8
2
100
AcDbCircle
 10
-298.089798
 20
51.066023
 30
0.0
 40
18.204167
100
AcDbArc
 50
339.080182
 51
20.919818
  0
LINE
  5
25F
100
AcDbEntity
  8
2
100
AcDbLine
 10
-279.885631
 20
321.766023
 30
0.0
 11
-279.885631
 21
347.766023
 31
0.0
  0
LINE
  5
260
100
AcDbEntity
  8
2
100
AcDbLine
 10
-284.885631
 20
319.754916
 30
0.0
 11
-284.885631
 21
349.77713
 31
0.0
  0
LINE
  5
261
100
AcDbEntity
  8
2
100
AcDbLine
 10
-281.046744
 20
349.77713
 30
0.0
 11
-284.885631
 21
349.77713
 31
0.0
  0
LINE
  5
262
100
AcDbEntity
  8
2
100
AcDbLine
 10
-281.046744
 20
342.271577
 30
0.0
 11
-284.885631
 21
342.271577
 31
0.0
  0
LINE
  5
263
100
AcDbEntity
  8
2
100
AcDbLine
 10
-281.046744
 20
327.26047
 30
0.0
 11
-284.885631
 21
327.26047
 31
0.0
  0
LINE
  5
264
100
AcDbEntity
  8
2
100
AcDbLine
 10
-281.046744
 20
319.754916
 30
0.0
 11
-284.885631
 21
319.754916
 31
0.0
  0
LINE
  5
265
100
AcDbEntity
  8
2
100
AcDbLine
 10
-279.885631
 20
347.766023
 30
0.0
 11
-281.046744
 21
349.77713
 31
0.0
  0
LINE
  5
266
100
AcDbEntity
  8
2
100
AcDbLine
 10
-279.885631
 20
321.766023
 30
0.0
 11
-281.046744
 21
319.754916
 31
0.0
  0
ARC
  5
267
100
AcDbEntity
  8
2
100
AcDbCircle
 10
-304.724518
 20
334.766023
 30
0.0
 40
24.838887
100
AcDbArc
 50
342.412046
 51
17.587954
  0
ARC
  5
268
100
AcDbEntity
  8
2
100
AcDbCircle
 10
-286.530767
 20
346.024354
 30
0.0
 40
6.645136
100
AcDbArc
 50
325.615736
 51
34.384264
  0
ARC
  5
269
100
AcDbEntity
  8
2
100
AcDbCircle
 10
-286.530767
 20
323.507693
 30
0.0
 40
6.645136
100
AcDbArc
 50
325.615736
 51
34.384264
  0
LINE
  5
26A
100
AcDbEntity
  8
2
100
AcDbLine
 10
-284.885631
 20
325.766023
 30
0.0
 11
-287.885631
 21
325.766023
 31
0.0
  0
LINE
  5
26B
100
AcDbEntity
  8
2
100
AcDbLine
 10
-287.885631
 20
343.766023
 30
0.0
 11
-284.885631
 21
343.766023
 31
0.0
  0
LINE
  5
26C
100
AcDbEntity
  8
2
100
AcDbLine
 10
-279.885631
 20
361.766023
 30
0.0
 11
-279.885631
 21
387.766023
 31
0.0
  0
LINE
  5
26D
100
AcDbEntity
  8
2
100
AcDbLine
 10
-284.885631
 20
359.754916
 30
0.0
 11
-284.885631
 21
389.77713
 31
0.0
  0
LINE
  5
26E
100
AcDbEntity
  8
2
100
AcDbLine
 10
-281.046744
 20
389.77713
 30
0.0
 11
-284.885631
 21
389.77713
 31
0.0
  0
LINE
  5
26F
100
AcDbEntity
  8
2
100
AcDbLine
 10
-281.046744
 20
382.271577
 30
0.0
 11
-284.885631
 21
382.271577
 31
0.0
  0
LINE
  5
270
100
AcDbEntity
  8
2
100
AcDbLine
 10
-281.046744
 20
367.26047
 30
0.0
 11
-284.885631
 21
367.26047
 31
0.0
  0
LINE
  5
271
100
AcDbEntity
  8
2
100
AcDbLine
 10
-281.046744
 20
359.754916
 30
0.0
 11
-284.885631
 21
359.754916
 31
0.0
  0
LINE
  5
272
100
AcDbEntity
  8
2
100
AcDbLine
 10
-279.885631
 20
387.766023
 30
0.0
 11
-281.046744
 21
389.77713
 31
0.0
  0
LINE
  5
273
100
AcDbEntity
  8
2
100
AcDbLine
 10
-279.885631
 20
361.766023
 30
0.0
 11
-281.046744
 21
359.754916
 31
0.0
  0
ARC
  5
274
100
AcDbEntity
  8
2
100
AcDbCircle
 10
-304.724518
 20
374.766023
 30
0.0
 40
24.838887
100
AcDbArc
 50
342.412046
 51
17.587954
  0
ARC
  5
275
100
AcDbEntity
  8
2
100
AcDbCircle
 10
-286.530767
 20
386.024354
 30
0.0
 40
6.645136
100
AcDbArc
 50
325.615736
 51
34.384264
  0
ARC
  5
276
100
AcDbEntity
  8
2
100
AcDbCircle
 10
-286.530767
 20
363.507693
 30
0.0
 40
6.645136
100
AcDbArc
 50
325.615736
 51
34.384264
  0
LINE
  5
277
100
AcDbEntity
  8
2
100
AcDbLine
 10
-284.885631
 20
365.766023
 30
0.0
 11
-287.885631
 21
365.766023
 31
0.0
  0
LINE
  5
278
100
AcDbEntity
  8
2
100
AcDbLine
 10
-287.885631
 20
383.766023
 30
0.0
 11
-284.885631
 21
383.766023
 31
0.0
  0
CIRCLE
  5
279
100
AcDbEntity
  8
2
100
AcDbCircle
 10
175.514369
 20
44.566023
 30
0.0
 40
13.0
  0
LINE
  5
27A
100
AcDbEntity
  8
2
100
AcDbLine
 10
168.008816
 20
57.566023
 30
0.0
 11
160.503262
 21
44.566023
 31
0.0
  0
LINE
  5
27B
100
AcDbEntity
  8
2
100
AcDbLine
 10
183.019923
 20
57.566023
 30
0.0
 11
168.008816
 21
57.566023
 31
0.0
  0
LINE
  5
27C
100
AcDbEntity
  8
2
100
AcDbLine
 10
190.525476
 20
44.566023
 30
0.0
 11
183.019923
 21
57.566023
 31
0.0
  0
LINE
  5
27D
100
AcDbEntity
  8
2
100
AcDbLine
 10
183.019923
 20
31.566023
 30
0.0
 11
190.525476
 21
44.566023
 31
0.0
  0
LINE
  5
27E
100
AcDbEntity
  8
2
100
AcDbLine
 10
168.008816
 20
31.566023
 30
0.0
 11
183.019923
 21
31.566023
 31
0.0
  0
LINE
  5
27F
100
AcDbEntity
  8
2
100
AcDbLine
 10
160.503262
 20
44.566023
 30
0.0
 11
168.008816
 21
31.566023
 31
0.0
  0
CIRCLE
  5
280
100
AcDbEntity
  8
2
100
AcDbCircle
 10
135.514369
 20
44.566023
 30
0.0
 40
13.0
  0
LINE
  5
281
100
AcDbEntity
  8
2
100
AcDbLine
 10
128.008816
 20
57.566023
 30
0.0
 11
120.503262
 21
44.566023
 31
0.0
  0
LINE
  5
282
100
AcDbEntity
  8
2
100
AcDbLine
 10
143.019923
 20
57.566023
 30
0.0
 11
128.008816
 21
57.566023
 31
0.0
  0
LINE
  5
283
100
AcDbEntity
  8
2
100
AcDbLine
 10
150.525476
 20
44.566023
 30
0.0
 11
143.019923
 21
57.566023
 31
0.0
  0
LINE
  5
284
100
AcDbEntity
  8
2
100
AcDbLine
 10
143.019923
 20
31.566023
 30
0.0
 11
150.525476
 21
44.566023
 31
0.0
  0
LINE
  5
285
100
AcDbEntity
  8
2
100
AcDbLine
 10
128.008816
 20
31.566023
 30
0.0
 11
143.019923
 21
31.566023
 31
0.0
  0
LINE
  5
286
100
AcDbEntity
  8
2
100
AcDbLine
 10
120.503262
 20
44.566023
 30
0.0
 11
128.008816
 21
31.566023
 31
0.0
  0
LINE
  5
287
100
AcDbEntity
  8
2
100
AcDbLine
 10
-343.885631
 20
240.766023
 30
0.0
 11
-323.885631
 21
240.766023
 31
0.0
  0
LINE
  5
288
100
AcDbEntity
  8
2
100
AcDbLine
 10
-331.835631
 20
235.666023
 30
0.0
 11
-335.935631
 21
235.666023
 31
0.0
  0
ARC
  5
289
100
AcDbEntity
  8
2
100
AcDbCircle
 10
-368.207383
 20
232.319441
 30
0.0
 40
0.5
100
AcDbArc
 50
261.701798
 51
353.576842
  0
ARC
  5
28A
100
AcDbEntity
  8
2
100
AcDbCircle
 10
-368.351709
 20
231.329911
 30
0.0
 40
0.5
100
AcDbArc
 50
81.701798
 51
188.513567
  0
ARC
  5
28B
100
AcDbEntity
  8
2
100
AcDbCircle
 10
-363.192017
 20
235.316023
 30
0.0
 40
0.5
100
AcDbArc
 50
20.354406
 51
90.0
  0
ARC
  5
28C
100
AcDbEntity
  8
2
100
AcDbCircle
 10
-356.649093
 20
232.116023
 30
0.0
 40
0.8
100
AcDbArc
 50
270.0
 51
353.565404
  0
ARC
  5
28D
100
AcDbEntity
  8
2
100
AcDbCircle
 10
-350.542303
 20
235.040879
 30
0.0
 40
0.775144
100
AcDbArc
 50
56.002568
 51
128.09629
  0
ARC
  5
28E
100
AcDbEntity
  8
2
100
AcDbCircle
 10
-352.750437
 20
233.816023
 30
0.0
 40
2.0
100
AcDbArc
 50
90.0
 51
128.433206
  0
ARC
  5
28F
100
AcDbEntity
  8
2
100
AcDbCircle
 10
-317.228959
 20
235.040879
 30
0.0
 40
0.775144
100
AcDbArc
 50
51.90371
 51
123.997432
  0
ARC
  5
290
100
AcDbEntity
  8
2
100
AcDbCircle
 10
-315.020825
 20
233.816023
 30
0.0
 40
2.0
100
AcDbArc
 50
51.566794
 51
90.0
  0
ARC
  5
291
100
AcDbEntity
  8
2
100
AcDbCircle
 10
-311.122168
 20
232.116023
 30
0.0
 40
0.8
100
AcDbArc
 50
186.434596
 51
270.0
  0
ARC
  5
292
100
AcDbEntity
  8
2
100
AcDbCircle
 10
-304.579245
 20
235.316023
 30
0.0
 40
0.5
100
AcDbArc
 50
90.0
 51
159.645594
  0
ARC
  5
293
100
AcDbEntity
  8
2
100
AcDbCircle
 10
-299.563878
 20
232.319441
 30
0.0
 40
0.5
100
AcDbArc
 50
186.423158
 51
278.298202
  0
ARC
  5
294
100
AcDbEntity
  8
2
100
AcDbCircle
 10
-299.419553
 20
231.329911
 30
0.0
 40
0.5
100
AcDbArc
 50
351.486433
 51
98.298202
  0
ARC
  5
295
100
AcDbEntity
  8
2
100
AcDbCircle
 10
-302.880986
 20
231.848063
 30
0.0
 40
4.0
100
AcDbArc
 50
289.094774
 51
351.486433
  0
ARC
  5
296
100
AcDbEntity
  8
2
100
AcDbCircle
 10
-315.880887
 20
232.316023
 30
0.0
 40
1.0
100
AcDbArc
 50
270.0
 51
8.626927
  0
ARC
  5
297
100
AcDbEntity
  8
2
100
AcDbCircle
 10
-364.890276
 20
231.848063
 30
0.0
 40
4.0
100
AcDbArc
 50
188.513567
 51
250.905226
  0
ARC
  5
298
100
AcDbEntity
  8
2
100
AcDbCircle
 10
-351.890375
 20
232.316023
 30
0.0
 40
1.0
100
AcDbArc
 50
171.373073
 51
270.0
  0
LINE
  5
299
100
AcDbEntity
  8
2
100
AcDbLine
 10
-281.085631
 20
44.566023
 30
0.0
 11
-284.885631
 21
44.566023
 31
0.0
  0
ARC
  5
29A
100
AcDbEntity
  8
2
100
AcDbCircle
 10
123.314369
 20
4.966023
 30
0.0
 40
100.0
100
AcDbArc
 50
194.533747
 51
199.094774
  0
LINE
  5
29B
100
AcDbEntity
  8
2
100
AcDbLine
 10
36.564369
 20
-25.283977
 30
0.0
 11
36.564369
 21
-24.740362
 31
0.0
  0
LINE
  5
29C
100
AcDbEntity
  8
2
100
AcDbLine
 10
36.564369
 20
-14.920102
 30
0.0
 11
36.564369
 21
-12.090649
 31
0.0
  0
LINE
  5
29D
100
AcDbEntity
  8
2
100
AcDbLine
 10
35.864369
 20
3.016023
 30
0.0
 11
33.914369
 21
2.866023
 31
0.0
  0
ARC
  5
29E
100
AcDbEntity
  8
2
100
AcDbCircle
 10
34.064369
 20
0.866023
 30
0.0
 40
2.0
100
AcDbArc
 50
94.377778
 51
180.0
  0
ARC
  5
29F
100
AcDbEntity
  8
2
100
AcDbCircle
 10
35.914369
 20
2.516023
 30
0.0
 40
0.5
100
AcDbArc
 50
336.588889
 51
94.533333
  0
LINE
  5
2A0
100
AcDbEntity
  8
2
100
AcDbLine
 10
32.064369
 20
0.866023
 30
0.0
 11
32.064369
 21
-13.43872
 31
0.0
  0
ARC
  5
2A1
100
AcDbEntity
  8
2
100
AcDbCircle
 10
32.464369
 20
-9.483977
 30
0.0
 40
5.0
100
AcDbArc
 50
278.626927
 51
321.90371
  0
ARC
  5
2A2
100
AcDbEntity
  8
2
100
AcDbCircle
 10
43.064369
 20
-7.183977
 30
0.0
 40
8.0
100
AcDbArc
 50
180.0
 51
213.997432
  0
ARC
  5
2A3
100
AcDbEntity
  8
2
100
AcDbCircle
 10
51.064369
 20
-4.033977
 30
0.0
 40
16.0
100
AcDbArc
 50
156.588889
 51
180.0
  0
LINE
  5
2A4
100
AcDbEntity
  8
2
100
AcDbLine
 10
35.064369
 20
-4.033977
 30
0.0
 11
35.064369
 21
-7.183977
 31
0.0
  0
ARC
  5
2A5
100
AcDbEntity
  8
2
100
AcDbCircle
 10
32.214369
 20
-12.433977
 30
0.0
 40
5.0
100
AcDbArc
 50
276.434596
 51
321.566794
  0
ARC
  5
2A6
100
AcDbEntity
  8
2
100
AcDbCircle
 10
32.564369
 20
-24.083977
 30
0.0
 40
4.0
100
AcDbArc
 50
269.766667
 51
353.012597
  0
ARC
  5
2A7
100
AcDbEntity
  8
2
100
AcDbCircle
 10
32.564369
 20
-25.283977
 30
0.0
 40
4.0
100
AcDbArc
 50
276.423158
 51
360.0
  0
LINE
  5
2A8
100
AcDbEntity
  8
2
100
AcDbLine
 10
32.064369
 20
-18.197439
 30
0.0
 11
32.064369
 21
-27.583977
 31
0.0
  0
ARC
  5
2A9
100
AcDbEntity
  8
2
100
AcDbCircle
 10
32.564369
 20
-27.583977
 30
0.0
 40
0.5
100
AcDbArc
 50
180.0
 51
269.766667
  0
ARC
  5
2AA
100
AcDbEntity
  8
2
100
AcDbCircle
 10
36.864369
 20
-22.583977
 30
0.0
 40
1.8
100
AcDbArc
 50
180.0
 51
249.645594
  0
ARC
  5
2AB
100
AcDbEntity
  8
2
100
AcDbCircle
 10
51.064369
 20
-21.683977
 30
0.0
 40
16.0
100
AcDbArc
 50
154.992167
 51
180.0
  0
LINE
  5
2AC
100
AcDbEntity
  8
2
100
AcDbLine
 10
35.064369
 20
-21.683977
 30
0.0
 11
35.064369
 21
-22.583977
 31
0.0
  0
LINE
  5
2AD
100
AcDbEntity
  8
2
100
AcDbLine
 10
28.714369
 20
-23.583977
 30
0.0
 11
28.714369
 21
32.866023
 31
0.0
  0
ARC
  5
2AE
100
AcDbEntity
  8
2
100
AcDbCircle
 10
123.314369
 20
4.166023
 30
0.0
 40
100.0
100
AcDbArc
 50
160.905226
 51
165.466253
  0
LINE
  5
2AF
100
AcDbEntity
  8
2
100
AcDbLine
 10
36.564369
 20
34.416023
 30
0.0
 11
36.564369
 21
33.872409
 31
0.0
  0
LINE
  5
2B0
100
AcDbEntity
  8
2
100
AcDbLine
 10
36.564369
 20
24.052149
 30
0.0
 11
36.564369
 21
21.222696
 31
0.0
  0
LINE
  5
2B1
100
AcDbEntity
  8
2
100
AcDbLine
 10
26.514369
 20
-20.128996
 30
0.0
 11
26.514369
 21
29.261043
 31
0.0
  0
LINE
  5
2B2
100
AcDbEntity
  8
2
100
AcDbLine
 10
35.864369
 20
6.116023
 30
0.0
 11
33.914369
 21
6.266023
 31
0.0
  0
ARC
  5
2B3
100
AcDbEntity
  8
2
100
AcDbCircle
 10
34.064369
 20
8.266023
 30
0.0
 40
2.0
100
AcDbArc
 50
180.0
 51
265.622222
  0
ARC
  5
2B4
100
AcDbEntity
  8
2
100
AcDbCircle
 10
35.914369
 20
6.616023
 30
0.0
 40
0.5
100
AcDbArc
 50
265.466667
 51
23.411111
  0
LINE
  5
2B5
100
AcDbEntity
  8
2
100
AcDbLine
 10
32.064369
 20
8.266023
 30
0.0
 11
32.064369
 21
22.570767
 31
0.0
  0
ARC
  5
2B6
100
AcDbEntity
  8
2
100
AcDbCircle
 10
32.464369
 20
18.616023
 30
0.0
 40
5.0
100
AcDbArc
 50
38.09629
 51
81.373073
  0
ARC
  5
2B7
100
AcDbEntity
  8
2
100
AcDbCircle
 10
43.064369
 20
16.316023
 30
0.0
 40
8.0
100
AcDbArc
 50
146.002568
 51
180.0
  0
ARC
  5
2B8
100
AcDbEntity
  8
2
100
AcDbCircle
 10
51.064369
 20
13.166023
 30
0.0
 40
16.0
100
AcDbArc
 50
180.0
 51
203.411111
  0
LINE
  5
2B9
100
AcDbEntity
  8
2
100
AcDbLine
 10
35.064369
 20
13.166023
 30
0.0
 11
35.064369
 21
16.316023
 31
0.0
  0
ARC
  5
2BA
100
AcDbEntity
  8
2
100
AcDbCircle
 10
32.214369
 20
21.566023
 30
0.0
 40
5.0
100
AcDbArc
 50
38.433206
 51
83.565404
  0
ARC
  5
2BB
100
AcDbEntity
  8
2
100
AcDbCircle
 10
32.564369
 20
33.216023
 30
0.0
 40
4.0
100
AcDbArc
 50
6.987403
 51
90.233333
  0
ARC
  5
2BC
100
AcDbEntity
  8
2
100
AcDbCircle
 10
32.564369
 20
34.416023
 30
0.0
 40
4.0
100
AcDbArc
 50
0.0
 51
83.576842
  0
LINE
  5
2BD
100
AcDbEntity
  8
2
100
AcDbLine
 10
32.064369
 20
27.329486
 30
0.0
 11
32.064369
 21
36.716023
 31
0.0
  0
ARC
  5
2BE
100
AcDbEntity
  8
2
100
AcDbCircle
 10
32.564369
 20
36.716023
 30
0.0
 40
0.5
100
AcDbArc
 50
90.233333
 51
180.0
  0
ARC
  5
2BF
100
AcDbEntity
  8
2
100
AcDbCircle
 10
36.864369
 20
31.716023
 30
0.0
 40
1.8
100
AcDbArc
 50
110.354406
 51
180.0
  0
ARC
  5
2C0
100
AcDbEntity
  8
2
100
AcDbCircle
 10
51.064369
 20
30.816023
 30
0.0
 40
16.0
100
AcDbArc
 50
180.0
 51
205.007833
  0
LINE
  5
2C1
100
AcDbEntity
  8
2
100
AcDbLine
 10
35.064369
 20
30.816023
 30
0.0
 11
35.064369
 21
31.716023
 31
0.0
  0
LINE
  5
2C2
100
AcDbEntity
  8
2
100
AcDbLine
 10
36.414369
 20
2.516023
 30
0.0
 11
36.414369
 21
6.616023
 31
0.0
  0
ARC
  5
2C3
100
AcDbEntity
  8
2
100
AcDbCircle
 10
33.067787
 20
38.887776
 30
0.0
 40
0.5
100
AcDbArc
 50
171.701798
 51
263.576842
  0
ARC
  5
2C4
100
AcDbEntity
  8
2
100
AcDbCircle
 10
32.078256
 20
39.032101
 30
0.0
 40
0.5
100
AcDbArc
 50
351.701798
 51
98.513567
  0
ARC
  5
2C5
100
AcDbEntity
  8
2
100
AcDbCircle
 10
36.064369
 20
33.872409
 30
0.0
 40
0.5
100
AcDbArc
 50
290.354406
 51
360.0
  0
ARC
  5
2C6
100
AcDbEntity
  8
2
100
AcDbCircle
 10
32.864369
 20
27.329486
 30
0.0
 40
0.8
100
AcDbArc
 50
180.0
 51
263.565404
  0
ARC
  5
2C7
100
AcDbEntity
  8
2
100
AcDbCircle
 10
35.789225
 20
21.222696
 30
0.0
 40
0.775144
100
AcDbArc
 50
326.002568
 51
38.09629
  0
ARC
  5
2C8
100
AcDbEntity
  8
2
100
AcDbCircle
 10
34.564369
 20
23.430829
 30
0.0
 40
2.0
100
AcDbArc
 50
0.0
 51
38.433206
  0
ARC
  5
2C9
100
AcDbEntity
  8
2
100
AcDbCircle
 10
35.789225
 20
-12.090649
 30
0.0
 40
0.775144
100
AcDbArc
 50
321.90371
 51
33.997432
  0
ARC
  5
2CA
100
AcDbEntity
  8
2
100
AcDbCircle
 10
34.564369
 20
-14.298782
 30
0.0
 40
2.0
100
AcDbArc
 50
321.566794
 51
360.0
  0
ARC
  5
2CB
100
AcDbEntity
  8
2
100
AcDbCircle
 10
32.864369
 20
-18.197439
 30
0.0
 40
0.8
100
AcDbArc
 50
96.434596
 51
180.0
  0
ARC
  5
2CC
100
AcDbEntity
  8
2
100
AcDbCircle
 10
36.064369
 20
-24.740362
 30
0.0
 40
0.5
100
AcDbArc
 50
0.0
 51
69.645594
  0
ARC
  5
2CD
100
AcDbEntity
  8
2
100
AcDbCircle
 10
33.067787
 20
-29.755729
 30
0.0
 40
0.5
100
AcDbArc
 50
96.423158
 51
188.298202
  0
ARC
  5
2CE
100
AcDbEntity
  8
2
100
AcDbCircle
 10
32.078256
 20
-29.900054
 30
0.0
 40
0.5
100
AcDbArc
 50
261.486433
 51
8.298202
  0
ARC
  5
2CF
100
AcDbEntity
  8
2
100
AcDbCircle
 10
32.596409
 20
-26.438621
 30
0.0
 40
4.0
100
AcDbArc
 50
199.094774
 51
261.486433
  0
ARC
  5
2D0
100
AcDbEntity
  8
2
100
AcDbCircle
 10
33.064369
 20
-13.43872
 30
0.0
 40
1.0
100
AcDbArc
 50
180.0
 51
278.626927
  0
ARC
  5
2D1
100
AcDbEntity
  8
2
100
AcDbCircle
 10
32.596409
 20
35.570668
 30
0.0
 40
4.0
100
AcDbArc
 50
98.513567
 51
160.905226
  0
ARC
  5
2D2
100
AcDbEntity
  8
2
100
AcDbCircle
 10
33.064369
 20
22.570767
 30
0.0
 40
1.0
100
AcDbArc
 50
81.373073
 51
180.0
  0
LINE
  5
2D3
100
AcDbEntity
  8
2
100
AcDbLine
 10
42.514369
 20
13.566023
 30
0.0
 11
42.514369
 21
-4.433977
 31
0.0
  0
LINE
  5
2D4
100
AcDbEntity
  8
2
100
AcDbLine
 10
42.514369
 20
13.566023
 30
0.0
 11
41.514369
 21
14.566023
 31
0.0
  0
LINE
  5
2D5
100
AcDbEntity
  8
2
100
AcDbLine
 10
41.514369
 20
-5.433977
 30
0.0
 11
42.514369
 21
-4.433977
 31
0.0
  0
LINE
  5
2D6
100
AcDbEntity
  8
2
100
AcDbLine
 10
41.514369
 20
14.566023
 30
0.0
 11
41.514369
 21
-5.433977
 31
0.0
  0
LINE
  5
2D7
100
AcDbEntity
  8
2
100
AcDbLine
 10
-360.209131
 20
416.766023
 30
0.0
 11
-353.562131
 21
416.766023
 31
0.0
  0
LINE
  5
2D8
100
AcDbEntity
  8
2
100
AcDbLine
 10
-353.562131
 20
416.766023
 30
0.0
 11
-352.885631
 21
416.089523
 31
0.0
  0
LINE
  5
2D9
100
AcDbEntity
  8
2
100
AcDbLine
 10
-352.885631
 20
416.089523
 30
0.0
 11
-352.885631
 21
410.266023
 31
0.0
  0
LINE
  5
2DA
100
AcDbEntity
  8
2
100
AcDbLine
 10
-352.885631
 20
416.089523
 30
0.0
 11
-360.885631
 21
416.089523
 31
0.0
  0
LINE
  5
2DB
100
AcDbEntity
  8
2
 62
     2
100
AcDbLine
 10
-353.562131
 20
416.766023
 30
0.0
 11
-353.562131
 21
410.266023
 31
0.0
  0
LINE
  5
2DC
100
AcDbEntity
  8
2
100
AcDbLine
 10
-360.209131
 20
416.766023
 30
0.0
 11
-360.885631
 21
416.089523
 31
0.0
  0
LINE
  5
2DD
100
AcDbEntity
  8
2
100
AcDbLine
 10
-360.885631
 20
416.089523
 30
0.0
 11
-360.885631
 21
410.266023
 31
0.0
  0
LINE
  5
2DE
100
AcDbEntity
  8
2
 62
     2
100
AcDbLine
 10
-360.209131
 20
416.766023
 30
0.0
 11
-360.209131
 21
410.266023
 31
0.0
  0
LINE
  5
2DF
100
AcDbEntity
  8
2
100
AcDbLine
 10
-364.385631
 20
404.766023
 30
0.0
 11
-364.385631
 21
409.544336
 31
0.0
  0
LINE
  5
2E0
100
AcDbEntity
  8
2
100
AcDbLine
 10
-364.385631
 20
409.544336
 30
0.0
 11
-363.135631
 21
410.266023
 31
0.0
  0
LINE
  5
2E1
100
AcDbEntity
  8
2
100
AcDbLine
 10
-363.135631
 20
410.266023
 30
0.0
 11
-356.885631
 21
410.266023
 31
0.0
  0
LINE
  5
2E2
100
AcDbEntity
  8
2
100
AcDbLine
 10
-360.635631
 20
404.766023
 30
0.0
 11
-360.635631
 21
409.544336
 31
0.0
  0
ARC
  5
2E3
100
AcDbEntity
  8
2
100
AcDbCircle
 10
-362.510631
 20
407.13396
 30
0.0
 40
3.053774
100
AcDbArc
 50
52.121121
 51
127.878879
  0
ARC
  5
2E4
100
AcDbEntity
  8
2
100
AcDbCircle
 10
-356.885631
 20
398.937734
 30
0.0
 40
11.25
100
AcDbArc
 50
90.0
 51
109.471221
  0
LINE
  5
2E5
100
AcDbEntity
  8
2
100
AcDbLine
 10
-349.385631
 20
404.766023
 30
0.0
 11
-349.385631
 21
409.544336
 31
0.0
  0
LINE
  5
2E6
100
AcDbEntity
  8
2
100
AcDbLine
 10
-349.385631
 20
409.544336
 30
0.0
 11
-350.635631
 21
410.266023
 31
0.0
  0
LINE
  5
2E7
100
AcDbEntity
  8
2
100
AcDbLine
 10
-350.635631
 20
410.266023
 30
0.0
 11
-356.885631
 21
410.266023
 31
0.0
  0
LINE
  5
2E8
100
AcDbEntity
  8
2
100
AcDbLine
 10
-353.135631
 20
404.766023
 30
0.0
 11
-353.135631
 21
409.544336
 31
0.0
  0
ARC
  5
2E9
100
AcDbEntity
  8
2
100
AcDbCircle
 10
-351.260631
 20
407.13396
 30
0.0
 40
3.053774
100
AcDbArc
 50
52.121121
 51
127.878879
  0
ARC
  5
2EA
100
AcDbEntity
  8
2
100
AcDbCircle
 10
-356.885631
 20
398.937734
 30
0.0
 40
11.25
100
AcDbArc
 50
70.528779
 51
90.0
  0
LINE
  5
2EB
100
AcDbEntity
  8
2
100
AcDbLine
 10
-396.209131
 20
416.766023
 30
0.0
 11
-389.562131
 21
416.766023
 31
0.0
  0
LINE
  5
2EC
100
AcDbEntity
  8
2
100
AcDbLine
 10
-389.562131
 20
416.766023
 30
0.0
 11
-388.885631
 21
416.089523
 31
0.0
  0
LINE
  5
2ED
100
AcDbEntity
  8
2
100
AcDbLine
 10
-388.885631
 20
416.089523
 30
0.0
 11
-388.885631
 21
410.266023
 31
0.0
  0
LINE
  5
2EE
100
AcDbEntity
  8
2
100
AcDbLine
 10
-388.885631
 20
416.089523
 30
0.0
 11
-396.885631
 21
416.089523
 31
0.0
  0
LINE
  5
2EF
100
AcDbEntity
  8
2
 62
     2
100
AcDbLine
 10
-389.562131
 20
416.766023
 30
0.0
 11
-389.562131
 21
410.266023
 31
0.0
  0
LINE
  5
2F0
100
AcDbEntity
  8
2
100
AcDbLine
 10
-396.209131
 20
416.766023
 30
0.0
 11
-396.885631
 21
416.089523
 31
0.0
  0
LINE
  5
2F1
100
AcDbEntity
  8
2
100
AcDbLine
 10
-396.885631
 20
416.089523
 30
0.0
 11
-396.885631
 21
410.266023
 31
0.0
  0
LINE
  5
2F2
100
AcDbEntity
  8
2
 62
     2
100
AcDbLine
 10
-396.209131
 20
416.766023
 30
0.0
 11
-396.209131
 21
410.266023
 31
0.0
  0
LINE
  5
2F3
100
AcDbEntity
  8
2
100
AcDbLine
 10
-400.385631
 20
404.766023
 30
0.0
 11
-400.385631
 21
409.544336
 31
0.0
  0
LINE
  5
2F4
100
AcDbEntity
  8
2
100
AcDbLine
 10
-400.385631
 20
409.544336
 30
0.0
 11
-399.135631
 21
410.266023
 31
0.0
  0
LINE
  5
2F5
100
AcDbEntity
  8
2
100
AcDbLine
 10
-399.135631
 20
410.266023
 30
0.0
 11
-392.885631
 21
410.266023
 31
0.0
  0
LINE
  5
2F6
100
AcDbEntity
  8
2
100
AcDbLine
 10
-396.635631
 20
404.766023
 30
0.0
 11
-396.635631
 21
409.544336
 31
0.0
  0
ARC
  5
2F7
100
AcDbEntity
  8
2
100
AcDbCircle
 10
-398.510631
 20
407.13396
 30
0.0
 40
3.053774
100
AcDbArc
 50
52.121121
 51
127.878879
  0
ARC
  5
2F8
100
AcDbEntity
  8
2
100
AcDbCircle
 10
-392.885631
 20
398.937734
 30
0.0
 40
11.25
100
AcDbArc
 50
90.0
 51
109.471221
  0
LINE
  5
2F9
100
AcDbEntity
  8
2
100
AcDbLine
 10
-385.385631
 20
404.766023
 30
0.0
 11
-385.385631
 21
409.544336
 31
0.0
  0
LINE
  5
2FA
100
AcDbEntity
  8
2
100
AcDbLine
 10
-385.385631
 20
409.544336
 30
0.0
 11
-386.635631
 21
410.266023
 31
0.0
  0
LINE
  5
2FB
100
AcDbEntity
  8
2
100
AcDbLine
 10
-386.635631
 20
410.266023
 30
0.0
 11
-392.885631
 21
410.266023
 31
0.0
  0
LINE
  5
2FC
100
AcDbEntity
  8
2
100
AcDbLine
 10
-389.135631
 20
404.766023
 30
0.0
 11
-389.135631
 21
409.544336
 31
0.0
  0
ARC
  5
2FD
100
AcDbEntity
  8
2
100
AcDbCircle
 10
-387.260631
 20
407.13396
 30
0.0
 40
3.053774
100
AcDbArc
 50
52.121121
 51
127.878879
  0
ARC
  5
2FE
100
AcDbEntity
  8
2
100
AcDbCircle
 10
-392.885631
 20
398.937734
 30
0.0
 40
11.25
100
AcDbArc
 50
70.528779
 51
90.0
  0
LINE
  5
2FF
100
AcDbEntity
  8
2
100
AcDbLine
 10
142.146869
 20
-6.788977
 30
0.0
 11
142.146869
 21
-5.683977
 31
0.0
  0
ARC
  5
300
100
AcDbEntity
  8
2
100
AcDbCircle
 10
146.594726
 20
-10.326834
 30
0.0
 40
1.857143
100
AcDbArc
 50
270.0
 51
360.0
  0
ARC
  5
301
100
AcDbEntity
  8
2
100
AcDbCircle
 10
144.654012
 20
-8.646119
 30
0.0
 40
1.857143
100
AcDbArc
 50
90.0
 51
180.0
  0
ARC
  5
302
100
AcDbEntity
  8
2
100
AcDbCircle
 10
145.480441
 20
-10.345405
 30
0.0
 40
0.928571
100
AcDbArc
 50
180.0
 51
270.0
  0
ARC
  5
303
100
AcDbEntity
  8
2
100
AcDbCircle
 10
145.768298
 20
-8.627548
 30
0.0
 40
0.928571
100
AcDbArc
 50
0.0
 51
90.0
  0
LINE
  5
304
100
AcDbEntity
  8
2
100
AcDbLine
 10
150.986869
 20
-7.698977
 30
0.0
 11
150.791869
 21
-12.183977
 31
0.0
  0
LINE
  5
305
100
AcDbEntity
  8
2
100
AcDbLine
 10
154.041869
 20
-7.698977
 30
0.0
 11
154.236869
 21
-12.183977
 31
0.0
  0
LINE
  5
306
100
AcDbEntity
  8
2
100
AcDbLine
 10
150.986869
 20
-7.698977
 30
0.0
 11
151.822583
 21
-12.183977
 31
0.0
  0
LINE
  5
307
100
AcDbEntity
  8
2
100
AcDbLine
 10
152.514369
 20
-10.020405
 30
0.0
 11
153.116499
 21
-6.788977
 31
0.0
  0
LINE
  5
308
100
AcDbEntity
  8
2
100
AcDbLine
 10
149.426869
 20
-6.788977
 30
0.0
 11
151.91224
 21
-6.788977
 31
0.0
  0
LINE
  5
309
100
AcDbEntity
  8
2
100
AcDbLine
 10
151.822583
 20
-12.183977
 30
0.0
 11
153.206155
 21
-12.183977
 31
0.0
  0
ARC
  5
30A
100
AcDbEntity
  8
2
100
AcDbCircle
 10
160.374726
 20
-10.326834
 30
0.0
 40
1.857143
100
AcDbArc
 50
270.0
 51
360.0
  0
ARC
  5
30B
100
AcDbEntity
  8
2
100
AcDbCircle
 10
159.548298
 20
-10.345405
 30
0.0
 40
0.928571
100
AcDbArc
 50
270.0
 51
360.0
  0
LINE
  5
30C
100
AcDbEntity
  8
2
100
AcDbLine
 10
158.331869
 20
-8.627548
 30
0.0
 11
158.331869
 21
-10.345405
 31
0.0
  0
ARC
  5
30D
100
AcDbEntity
  8
2
100
AcDbCircle
 10
158.434012
 20
-8.646119
 30
0.0
 40
1.857143
100
AcDbArc
 50
90.0
 51
180.0
  0
LINE
  5
30E
100
AcDbEntity
  8
2
100
AcDbLine
 10
156.576869
 20
-8.646119
 30
0.0
 11
156.576869
 21
-10.326834
 31
0.0
  0
LINE
  5
30F
100
AcDbEntity
  8
2
100
AcDbLine
 10
154.236869
 20
-12.183977
 30
0.0
 11
155.991869
 21
-12.183977
 31
0.0
  0
LINE
  5
310
100
AcDbEntity
  8
2
100
AcDbLine
 10
163.011869
 20
-12.053977
 30
0.0
 11
167.236869
 21
-12.053977
 31
0.0
  0
LINE
  5
311
100
AcDbEntity
  8
2
100
AcDbLine
 10
164.766869
 20
-9.973977
 30
0.0
 11
167.236869
 21
-9.973977
 31
0.0
  0
LINE
  5
312
100
AcDbEntity
  8
2
100
AcDbLine
 10
164.766869
 20
-8.998977
 30
0.0
 11
167.236869
 21
-8.998977
 31
0.0
  0
LINE
  5
313
100
AcDbEntity
  8
2
100
AcDbLine
 10
164.766869
 20
-11.078977
 30
0.0
 11
164.766869
 21
-9.973977
 31
0.0
  0
LINE
  5
314
100
AcDbEntity
  8
2
100
AcDbLine
 10
164.766869
 20
-8.998977
 30
0.0
 11
164.766869
 21
-7.893977
 31
0.0
  0
LINE
  5
315
100
AcDbEntity
  8
2
100
AcDbLine
 10
137.596869
 20
-7.893977
 30
0.0
 11
141.626869
 21
-7.893977
 31
0.0
  0
LINE
  5
316
100
AcDbEntity
  8
2
100
AcDbLine
 10
137.596869
 20
-8.998977
 30
0.0
 11
144.421869
 21
-5.683977
 31
0.0
  0
LINE
  5
317
100
AcDbEntity
  8
2
100
AcDbLine
 10
137.596869
 20
-8.998977
 30
0.0
 11
137.596869
 21
-5.683977
 31
0.0
  0
LINE
  5
318
100
AcDbEntity
  8
2
100
AcDbLine
 10
137.596869
 20
-7.893977
 30
0.0
 11
142.146869
 21
-5.683977
 31
0.0
  0
LINE
  5
319
100
AcDbEntity
  8
2
100
AcDbLine
 10
137.596869
 20
-6.788977
 30
0.0
 11
142.146869
 21
-6.788977
 31
0.0
  0
LINE
  5
31A
100
AcDbEntity
  8
2
100
AcDbLine
 10
141.626869
 20
-7.893977
 30
0.0
 11
141.626869
 21
-12.183977
 31
0.0
  0
LINE
  5
31B
100
AcDbEntity
  8
2
100
AcDbLine
 10
137.596869
 20
-6.788977
 30
0.0
 11
139.871869
 21
-5.683977
 31
0.0
  0
LINE
  5
31C
100
AcDbEntity
  8
2
100
AcDbLine
 10
142.796869
 20
-8.646119
 30
0.0
 11
142.796869
 21
-10.326834
 31
0.0
  0
LINE
  5
31D
100
AcDbEntity
  8
2
100
AcDbLine
 10
148.451869
 20
-8.646119
 30
0.0
 11
148.451869
 21
-10.326834
 31
0.0
  0
LINE
  5
31E
100
AcDbEntity
  8
2
100
AcDbLine
 10
144.551869
 20
-8.627548
 30
0.0
 11
144.551869
 21
-10.345405
 31
0.0
  0
LINE
  5
31F
100
AcDbEntity
  8
2
100
AcDbLine
 10
146.696869
 20
-8.627548
 30
0.0
 11
146.696869
 21
-10.345405
 31
0.0
  0
ARC
  5
320
100
AcDbEntity
  8
2
100
AcDbCircle
 10
144.654012
 20
-10.326834
 30
0.0
 40
1.857143
100
AcDbArc
 50
180.0
 51
270.0
  0
ARC
  5
321
100
AcDbEntity
  8
2
100
AcDbCircle
 10
146.594726
 20
-8.646119
 30
0.0
 40
1.857143
100
AcDbArc
 50
360.0
 51
90.0
  0
ARC
  5
322
100
AcDbEntity
  8
2
100
AcDbCircle
 10
145.768298
 20
-10.345405
 30
0.0
 40
0.928571
100
AcDbArc
 50
270.0
 51
360.0
  0
ARC
  5
323
100
AcDbEntity
  8
2
100
AcDbCircle
 10
145.480441
 20
-8.627548
 30
0.0
 40
0.928571
100
AcDbArc
 50
90.0
 51
180.0
  0
LINE
  5
324
100
AcDbEntity
  8
2
100
AcDbLine
 10
139.871869
 20
-12.183977
 30
0.0
 11
141.626869
 21
-12.183977
 31
0.0
  0
LINE
  5
325
100
AcDbEntity
  8
2
100
AcDbLine
 10
149.426869
 20
-6.788977
 30
0.0
 11
149.036869
 21
-12.183977
 31
0.0
  0
LINE
  5
326
100
AcDbEntity
  8
2
100
AcDbLine
 10
155.601869
 20
-6.788977
 30
0.0
 11
155.991869
 21
-12.183977
 31
0.0
  0
LINE
  5
327
100
AcDbEntity
  8
2
100
AcDbLine
 10
154.041869
 20
-7.698977
 30
0.0
 11
153.206155
 21
-12.183977
 31
0.0
  0
LINE
  5
328
100
AcDbEntity
  8
2
100
AcDbLine
 10
152.514369
 20
-10.020405
 30
0.0
 11
151.91224
 21
-6.788977
 31
0.0
  0
LINE
  5
329
100
AcDbEntity
  8
2
100
AcDbLine
 10
144.654012
 20
-6.788977
 30
0.0
 11
146.594726
 21
-6.788977
 31
0.0
  0
LINE
  5
32A
100
AcDbEntity
  8
2
100
AcDbLine
 10
144.654012
 20
-12.183977
 30
0.0
 11
146.594726
 21
-12.183977
 31
0.0
  0
LINE
  5
32B
100
AcDbEntity
  8
2
100
AcDbLine
 10
149.036869
 20
-12.183977
 30
0.0
 11
150.791869
 21
-12.183977
 31
0.0
  0
ARC
  5
32C
100
AcDbEntity
  8
2
100
AcDbCircle
 10
158.434012
 20
-10.326834
 30
0.0
 40
1.857143
100
AcDbArc
 50
180.0
 51
270.0
  0
LINE
  5
32D
100
AcDbEntity
  8
2
100
AcDbLine
 10
160.476869
 20
-8.627548
 30
0.0
 11
160.476869
 21
-10.345405
 31
0.0
  0
ARC
  5
32E
100
AcDbEntity
  8
2
100
AcDbCircle
 10
159.260441
 20
-10.345405
 30
0.0
 40
0.928571
100
AcDbArc
 50
180.0
 51
270.0
  0
ARC
  5
32F
100
AcDbEntity
  8
2
100
AcDbCircle
 10
159.548298
 20
-8.627548
 30
0.0
 40
0.928571
100
AcDbArc
 50
0.0
 51
90.0
  0
ARC
  5
330
100
AcDbEntity
  8
2
100
AcDbCircle
 10
159.260441
 20
-8.627548
 30
0.0
 40
0.928571
100
AcDbArc
 50
90.0
 51
180.0
  0
ARC
  5
331
100
AcDbEntity
  8
2
100
AcDbCircle
 10
160.374726
 20
-8.646119
 30
0.0
 40
1.857143
100
AcDbArc
 50
360.0
 51
90.0
  0
LINE
  5
332
100
AcDbEntity
  8
2
100
AcDbLine
 10
162.231869
 20
-8.646119
 30
0.0
 11
162.231869
 21
-10.326834
 31
0.0
  0
LINE
  5
333
100
AcDbEntity
  8
2
100
AcDbLine
 10
145.768298
 20
-7.698977
 30
0.0
 11
145.480441
 21
-7.698977
 31
0.0
  0
LINE
  5
334
100
AcDbEntity
  8
2
100
AcDbLine
 10
145.768298
 20
-11.273977
 30
0.0
 11
145.480441
 21
-11.273977
 31
0.0
  0
LINE
  5
335
100
AcDbEntity
  8
2
100
AcDbLine
 10
159.260441
 20
-7.698977
 30
0.0
 11
159.548298
 21
-7.698977
 31
0.0
  0
LINE
  5
336
100
AcDbEntity
  8
2
100
AcDbLine
 10
153.116499
 20
-6.788977
 30
0.0
 11
155.601869
 21
-6.788977
 31
0.0
  0
LINE
  5
337
100
AcDbEntity
  8
2
100
AcDbLine
 10
158.434012
 20
-6.788977
 30
0.0
 11
160.374726
 21
-6.788977
 31
0.0
  0
LINE
  5
338
100
AcDbEntity
  8
2
100
AcDbLine
 10
158.434012
 20
-12.183977
 30
0.0
 11
160.374726
 21
-12.183977
 31
0.0
  0
LINE
  5
339
100
AcDbEntity
  8
2
100
AcDbLine
 10
163.011869
 20
-6.918977
 30
0.0
 11
163.011869
 21
-12.053977
 31
0.0
  0
LINE
  5
33A
100
AcDbEntity
  8
2
100
AcDbLine
 10
163.011869
 20
-6.918977
 30
0.0
 11
167.236869
 21
-6.918977
 31
0.0
  0
LINE
  5
33B
100
AcDbEntity
  8
2
100
AcDbLine
 10
164.766869
 20
-11.078977
 30
0.0
 11
167.236869
 21
-11.078977
 31
0.0
  0
LINE
  5
33C
100
AcDbEntity
  8
2
100
AcDbLine
 10
164.766869
 20
-7.893977
 30
0.0
 11
167.236869
 21
-7.893977
 31
0.0
  0
LINE
  5
33D
100
AcDbEntity
  8
2
100
AcDbLine
 10
167.236869
 20
-7.893977
 30
0.0
 11
167.236869
 21
-6.918977
 31
0.0
  0
LINE
  5
33E
100
AcDbEntity
  8
2
100
AcDbLine
 10
167.236869
 20
-12.053977
 30
0.0
 11
167.236869
 21
-11.078977
 31
0.0
  0
LINE
  5
33F
100
AcDbEntity
  8
2
100
AcDbLine
 10
167.236869
 20
-9.973977
 30
0.0
 11
167.236869
 21
-8.998977
 31
0.0
  0
LINE
  5
340
100
AcDbEntity
  8
2
100
AcDbLine
 10
139.871869
 20
-5.683977
 30
0.0
 11
139.871869
 21
-12.183977
 31
0.0
  0
LINE
  5
341
100
AcDbEntity
  8
2
100
AcDbLine
 10
137.596869
 20
-5.683977
 30
0.0
 11
144.421869
 21
-5.683977
 31
0.0
  0
LINE
  5
342
100
AcDbEntity
  8
2
100
AcDbLine
 10
159.260441
 20
-11.273977
 30
0.0
 11
159.548298
 21
-11.273977
 31
0.0
  0
ARC
  5
343
100
AcDbEntity
  8
2
100
AcDbCircle
 10
129.014369
 20
-5.433977
 30
0.0
 40
1.5
100
AcDbArc
 50
90.0
 51
180.0
  0
ARC
  5
344
100
AcDbEntity
  8
2
100
AcDbCircle
 10
129.014369
 20
-12.433977
 30
0.0
 40
1.5
100
AcDbArc
 50
180.0
 51
270.0
  0
ARC
  5
345
100
AcDbEntity
  8
2
100
AcDbCircle
 10
176.014369
 20
-12.433977
 30
0.0
 40
1.5
100
AcDbArc
 50
270.0
 51
360.0
  0
ARC
  5
346
100
AcDbEntity
  8
2
100
AcDbCircle
 10
176.014369
 20
-5.433977
 30
0.0
 40
1.5
100
AcDbArc
 50
0.0
 51
90.0
  0
LINE
  5
347
100
AcDbEntity
  8
2
100
AcDbLine
 10
-365.400678
 20
359.266023
 30
0.0
 11
-344.463435
 21
359.266023
 31
0.0
  0
LINE
  5
348
100
AcDbEntity
  8
2
100
AcDbLine
 10
-462.952497
 20
402.766023
 30
0.0
 11
-448.357767
 21
402.766023
 31
0.0
  0
ARC
  5
349
100
AcDbEntity
  8
2
100
AcDbCircle
 10
-412.885631
 20
4.566023
 30
0.0
 40
100.0
100
AcDbArc
 50
163.823523
 51
196.260205
  0
ARC
  5
34A
100
AcDbEntity
  8
2
100
AcDbCircle
 10
-484.885631
 20
-16.433977
 30
0.0
 40
25.0
100
AcDbArc
 50
196.260205
 51
270.0
  0
LINE
  5
34B
100
AcDbEntity
  8
2
100
AcDbLine
 10
-486.660154
 20
50.399888
 30
0.0
 11
-316.318467
 21
62.311339
 31
0.0
  0
ARC
  5
34C
100
AcDbEntity
  8
2
100
AcDbCircle
 10
-412.885631
 20
4.566023
 30
0.0
 40
125.0
100
AcDbArc
 50
343.631251
 51
21.096707
  0
ARC
  5
34D
100
AcDbEntity
  8
2
100
AcDbCircle
 10
-307.34417
 20
-26.433977
 30
0.0
 40
15.0
100
AcDbArc
 50
270.0
 51
343.631251
  0
ARC
  5
34E
100
AcDbEntity
  8
2
100
AcDbCircle
 10
-314.923337
 20
42.360058
 30
0.0
 40
20.0
100
AcDbArc
 50
21.096707
 51
94.0
  0
ARC
  5
34F
100
AcDbEntity
  8
2
100
AcDbCircle
 10
-484.916242
 20
25.460786
 30
0.0
 40
25.0
100
AcDbArc
 50
94.0
 51
163.823523
  0
LINE
  5
350
100
AcDbEntity
  8
2
100
AcDbLine
 10
-459.885631
 20
14.566023
 30
0.0
 11
-459.885631
 21
-0.433977
 31
0.0
  0
LINE
  5
351
100
AcDbEntity
  8
2
100
AcDbLine
 10
-449.885631
 20
-15.433977
 30
0.0
 11
-439.885631
 21
-15.433977
 31
0.0
  0
LINE
  5
352
100
AcDbEntity
  8
2
100
AcDbLine
 10
-449.885631
 20
14.566023
 30
0.0
 11
-449.885631
 21
-15.433977
 31
0.0
  0
LINE
  5
353
100
AcDbEntity
  8
2
100
AcDbLine
 10
-459.885631
 20
-0.433977
 30
0.0
 11
-429.885631
 21
14.566023
 31
0.0
  0
LINE
  5
354
100
AcDbEntity
  8
2
100
AcDbLine
 10
-459.885631
 20
4.566023
 30
0.0
 11
-439.885631
 21
4.566023
 31
0.0
  0
LINE
  5
355
100
AcDbEntity
  8
2
100
AcDbLine
 10
-459.885631
 20
9.566023
 30
0.0
 11
-439.885631
 21
9.566023
 31
0.0
  0
LINE
  5
356
100
AcDbEntity
  8
2
100
AcDbLine
 10
-439.885631
 20
14.566023
 30
0.0
 11
-459.885631
 21
4.566023
 31
0.0
  0
LINE
  5
357
100
AcDbEntity
  8
2
100
AcDbLine
 10
-449.885631
 20
14.566023
 30
0.0
 11
-459.885631
 21
9.566023
 31
0.0
  0
LINE
  5
358
100
AcDbEntity
  8
2
100
AcDbLine
 10
-459.885631
 20
14.566023
 30
0.0
 11
-429.885631
 21
14.566023
 31
0.0
  0
LINE
  5
359
100
AcDbEntity
  8
2
100
AcDbLine
 10
-439.885631
 20
-15.433977
 30
0.0
 11
-439.885631
 21
4.566023
 31
0.0
  0
LINE
  5
35A
100
AcDbEntity
  8
2
100
AcDbLine
 10
-439.885631
 20
9.566023
 30
0.0
 11
-439.885631
 21
14.566023
 31
0.0
  0
LINE
  5
35B
100
AcDbEntity
  8
2
100
AcDbLine
 10
-338.402316
 20
47.328151
 30
0.0
 11
-461.062003
 21
34.372406
 31
0.0
  0
ARC
  5
35C
100
AcDbEntity
  8
2
100
AcDbCircle
 10
-333.885631
 20
4.566023
 30
0.0
 40
43.0
100
AcDbArc
 50
268.607377
 51
96.029425
  0
ARC
  5
35D
100
AcDbEntity
  8
2
100
AcDbCircle
 10
-457.385631
 20
-0.433977
 30
0.0
 40
35.0
100
AcDbArc
 50
96.029425
 51
268.607377
  0
LINE
  5
35E
100
AcDbEntity
  8
2
100
AcDbLine
 10
-445.614018
 20
76.302185
 30
0.0
 11
-454.215936
 21
52.668608
 31
0.0
  0
ARC
  5
35F
100
AcDbEntity
  8
2
100
AcDbCircle
 10
-438.096477
 20
73.566023
 30
0.0
 40
8.0
100
AcDbArc
 50
90.0
 51
160.0
  0
LINE
  5
360
100
AcDbEntity
  8
2
100
AcDbLine
 10
-289.885631
 20
64.566023
 30
0.0
 11
-290.893757
 21
76.088958
 31
0.0
  0
ARC
  5
361
100
AcDbEntity
  8
2
100
AcDbCircle
 10
-296.870925
 20
75.566023
 30
0.0
 40
6.0
100
AcDbArc
 50
5.0
 51
90.0
  0
LINE
  5
362
100
AcDbEntity
  8
2
100
AcDbLine
 10
-512.885631
 20
300.766023
 30
0.0
 11
-512.885631
 21
289.766023
 31
0.0
  0
ARC
  5
363
100
AcDbEntity
  8
2
100
AcDbCircle
 10
-509.885631
 20
289.766023
 30
0.0
 40
3.0
100
AcDbArc
 50
180.0
 51
270.0
  0
LINE
  5
364
100
AcDbEntity
  8
2
100
AcDbLine
 10
-493.583056
 20
269.055923
 30
0.0
 11
-499.310551
 21
284.792084
 31
0.0
  0
LINE
  5
365
100
AcDbEntity
  8
2
100
AcDbLine
 10
-287.885631
 20
286.766023
 30
0.0
 11
-289.323575
 21
270.330245
 31
0.0
  0
ARC
  5
366
100
AcDbEntity
  8
2
100
AcDbCircle
 10
-294.304549
 20
270.766023
 30
0.0
 40
5.0
100
AcDbArc
 50
270.0
 51
355.0
  0
ARC
  5
367
100
AcDbEntity
  8
2
100
AcDbCircle
 10
-488.884593
 20
270.766023
 30
0.0
 40
5.0
100
AcDbArc
 50
200.0
 51
270.0
  0
ARC
  5
368
100
AcDbEntity
  8
2
100
AcDbCircle
 10
-502.129628
 20
283.766023
 30
0.0
 40
3.0
100
AcDbArc
 50
20.0
 51
73.660251
  0
ARC
  5
369
100
AcDbEntity
  8
2
100
AcDbCircle
 10
-448.215936
 20
310.766023
 30
0.0
 40
6.0
100
AcDbArc
 50
180.0
 51
270.0
  0
ARC
  5
36A
100
AcDbEntity
  8
2
100
AcDbCircle
 10
-511.885631
 20
300.766023
 30
0.0
 40
1.0
100
AcDbArc
 50
90.0
 51
180.0
  0
ARC
  5
36B
100
AcDbEntity
  8
2
100
AcDbCircle
 10
-509.885631
 20
302.766023
 30
0.0
 40
1.0
100
AcDbArc
 50
270.0
 51
360.0
  0
ARC
  5
36C
100
AcDbEntity
  8
2
100
AcDbCircle
 10
-288.885631
 20
303.766023
 30
0.0
 40
1.0
100
AcDbArc
 50
0.0
 51
90.0
  0
ARC
  5
36D
100
AcDbEntity
  8
2
100
AcDbCircle
 10
-286.885631
 20
299.766023
 30
0.0
 40
1.0
100
AcDbArc
 50
90.0
 51
180.0
  0
LINE
  5
36E
100
AcDbEntity
  8
2
100
AcDbLine
 10
-457.165257
 20
322.766023
 30
0.0
 11
-457.165257
 21
396.766023
 31
0.0
  0
ARC
  5
36F
100
AcDbEntity
  8
2
100
AcDbCircle
 10
-456.215936
 20
303.766023
 30
0.0
 40
2.0
100
AcDbArc
 50
270.0
 51
360.0
  0
ARC
  5
370
100
AcDbEntity
  8
2
100
AcDbCircle
 10
-458.801065
 20
303.766023
 30
0.0
 40
2.0
100
AcDbArc
 50
270.0
 51
0.0
  0
LINE
  5
371
100
AcDbEntity
  8
2
100
AcDbLine
 10
-449.885631
 20
64.566023
 30
0.0
 11
-289.885631
 21
64.566023
 31
0.0
  0
LINE
  5
372
100
AcDbEntity
  8
2
100
AcDbLine
 10
-296.870925
 20
81.566023
 30
0.0
 11
-438.096477
 21
81.566023
 31
0.0
  0
LINE
  5
373
100
AcDbEntity
  8
2
100
AcDbLine
 10
-289.885631
 20
64.566023
 30
0.0
 11
-289.885631
 21
60.566023
 31
0.0
  0
ARC
  5
374
100
AcDbEntity
  8
2
100
AcDbCircle
 10
-290.885631
 20
60.566023
 30
0.0
 40
1.0
100
AcDbArc
 50
270.0
 51
360.0
  0
LINE
  5
375
100
AcDbEntity
  8
2
100
AcDbLine
 10
-488.884593
 20
265.766023
 30
0.0
 11
-294.304549
 21
265.766023
 31
0.0
  0
LINE
  5
376
100
AcDbEntity
  8
2
100
AcDbLine
 10
-509.885631
 20
286.766023
 30
0.0
 11
-287.885631
 21
286.766023
 31
0.0
  0
LINE
  5
377
100
AcDbEntity
  8
2
100
AcDbLine
 10
-287.885631
 20
303.766023
 30
0.0
 11
-287.885631
 21
286.766023
 31
0.0
  0
LINE
  5
378
100
AcDbEntity
  8
2
100
AcDbLine
 10
-287.885631
 20
296.766023
 30
0.0
 11
-512.885631
 21
296.766023
 31
0.0
  0
LINE
  5
379
100
AcDbEntity
  8
2
100
AcDbLine
 10
-448.215936
 20
304.766023
 30
0.0
 11
-288.885631
 21
304.766023
 31
0.0
  0
LINE
  5
37A
100
AcDbEntity
  8
2
100
AcDbLine
 10
-511.885631
 20
301.766023
 30
0.0
 11
-456.215936
 21
301.766023
 31
0.0
  0
LINE
  5
37B
100
AcDbEntity
  8
2
100
AcDbLine
 10
-278.885631
 20
300.766023
 30
0.0
 11
-286.885631
 21
300.766023
 31
0.0
  0
LINE
  5
37C
100
AcDbEntity
  8
2
100
AcDbLine
 10
-506.885631
 20
320.766023
 30
0.0
 11
-458.801065
 21
320.766023
 31
0.0
  0
ARC
  5
37D
100
AcDbEntity
  8
2
100
AcDbCircle
 10
-506.885631
 20
318.766023
 30
0.0
 40
2.0
100
AcDbArc
 50
90.0
 51
180.0
  0
ARC
  5
37E
100
AcDbEntity
  8
2
100
AcDbCircle
 10
-501.885631
 20
323.766023
 30
0.0
 40
3.0
100
AcDbArc
 50
270.0
 51
0.0
  0
ARC
  5
37F
100
AcDbEntity
  8
2
100
AcDbCircle
 10
-459.165257
 20
322.766023
 30
0.0
 40
2.0
100
AcDbArc
 50
270.0
 51
360.0
  0
ARC
  5
380
100
AcDbEntity
  8
2
100
AcDbCircle
 10
-458.801065
 20
322.766023
 30
0.0
 40
2.0
100
AcDbArc
 50
270.0
 51
360.0
  0
ARC
  5
381
100
AcDbEntity
  8
2
100
AcDbCircle
 10
-504.885631
 20
307.766023
 30
0.0
 40
8.0
100
AcDbArc
 50
120.0
 51
228.590378
  0
LINE
  5
382
100
AcDbEntity
  8
2
100
AcDbLine
 10
-504.885631
 20
387.766023
 30
0.0
 11
-503.885631
 21
387.766023
 31
0.0
  0
ARC
  5
383
100
AcDbEntity
  8
2
100
AcDbCircle
 10
-503.885631
 20
382.766023
 30
0.0
 40
5.0
100
AcDbArc
 50
0.0
 51
90.0
  0
ARC
  5
384
100
AcDbEntity
  8
2
100
AcDbCircle
 10
-504.885631
 20
395.766023
 30
0.0
 40
8.0
100
AcDbArc
 50
90.0
 51
270.0
  0
LINE
  5
385
100
AcDbEntity
  8
2
100
AcDbLine
 10
-504.885631
 20
403.766023
 30
0.0
 11
-504.385631
 21
403.766023
 31
0.0
  0
LINE
  5
386
100
AcDbEntity
  8
2
100
AcDbLine
 10
-482.050132
 20
323.766023
 30
0.0
 11
-482.050132
 21
329.766023
 31
0.0
  0
LINE
  5
387
100
AcDbEntity
  8
2
100
AcDbLine
 10
-491.385631
 20
323.766023
 30
0.0
 11
-491.385631
 21
329.766023
 31
0.0
  0
LINE
  5
388
100
AcDbEntity
  8
2
100
AcDbLine
 10
-489.385631
 20
331.766023
 30
0.0
 11
-484.050132
 21
331.766023
 31
0.0
  0
ARC
  5
389
100
AcDbEntity
  8
2
100
AcDbCircle
 10
-489.385631
 20
329.766023
 30
0.0
 40
2.0
100
AcDbArc
 50
90.0
 51
180.0
  0
ARC
  5
38A
100
AcDbEntity
  8
2
100
AcDbCircle
 10
-484.050132
 20
329.766023
 30
0.0
 40
2.0
100
AcDbArc
 50
0.0
 51
90.0
  0
ARC
  5
38B
100
AcDbEntity
  8
2
100
AcDbCircle
 10
-479.050132
 20
323.766023
 30
0.0
 40
3.0
100
AcDbArc
 50
180.0
 51
270.0
  0
ARC
  5
38C
100
AcDbEntity
  8
2
100
AcDbCircle
 10
-494.385631
 20
323.766023
 30
0.0
 40
3.0
100
AcDbArc
 50
270.0
 51
360.0
  0
LINE
  5
38D
100
AcDbEntity
  8
2
100
AcDbLine
 10
-454.215936
 20
303.766023
 30
0.0
 11
-454.215936
 21
310.766023
 31
0.0
  0
LINE
  5
38E
100
AcDbEntity
  8
2
100
AcDbLine
 10
-456.801065
 20
303.766023
 30
0.0
 11
-456.801065
 21
322.766023
 31
0.0
  0
LINE
  5
38F
100
AcDbEntity
  8
2
100
AcDbLine
 10
-291.372938
 20
318.766023
 30
0.0
 11
-291.372938
 21
390.766023
 31
0.0
  0
LINE
  5
390
100
AcDbEntity
  8
2
100
AcDbLine
 10
-443.698137
 20
318.766023
 30
0.0
 11
-443.698137
 21
390.766023
 31
0.0
  0
LINE
  5
391
100
AcDbEntity
  8
2
100
AcDbLine
 10
-447.885631
 20
392.766023
 30
0.0
 11
-441.885631
 21
392.766023
 31
0.0
  0
LINE
  5
392
100
AcDbEntity
  8
2
100
AcDbLine
 10
-295.885631
 20
392.766023
 30
0.0
 11
-291.885631
 21
392.766023
 31
0.0
  0
LINE
  5
393
100
AcDbEntity
  8
2
100
AcDbLine
 10
-435.885631
 20
306.766023
 30
0.0
 11
-435.885631
 21
310.766023
 31
0.0
  0
LINE
  5
394
100
AcDbEntity
  8
2
100
AcDbLine
 10
-435.885631
 20
398.766023
 30
0.0
 11
-435.885631
 21
402.766023
 31
0.0
  0
LINE
  5
395
100
AcDbEntity
  8
2
100
AcDbLine
 10
-447.885631
 20
316.766023
 30
0.0
 11
-441.885631
 21
316.766023
 31
0.0
  0
LINE
  5
396
100
AcDbEntity
  8
2
100
AcDbLine
 10
-295.885631
 20
316.766023
 30
0.0
 11
-291.885631
 21
316.766023
 31
0.0
  0
LINE
  5
397
100
AcDbEntity
  8
2
100
AcDbLine
 10
-301.885631
 20
306.766023
 30
0.0
 11
-301.885631
 21
310.766023
 31
0.0
  0
LINE
  5
398
100
AcDbEntity
  8
2
100
AcDbLine
 10
-301.885631
 20
398.766023
 30
0.0
 11
-301.885631
 21
402.766023
 31
0.0
  0
ARC
  5
399
100
AcDbEntity
  8
2
100
AcDbCircle
 10
-295.885631
 20
398.766023
 30
0.0
 40
6.0
100
AcDbArc
 50
180.0
 51
270.0
  0
ARC
  5
39A
100
AcDbEntity
  8
2
100
AcDbCircle
 10
-441.885631
 20
398.766023
 30
0.0
 40
6.0
100
AcDbArc
 50
270.0
 51
360.0
  0
ARC
  5
39B
100
AcDbEntity
  8
2
100
AcDbCircle
 10
-441.885631
 20
310.766023
 30
0.0
 40
6.0
100
AcDbArc
 50
0.0
 51
90.0
  0
ARC
  5
39C
100
AcDbEntity
  8
2
100
AcDbCircle
 10
-295.885631
 20
310.766023
 30
0.0
 40
6.0
100
AcDbArc
 50
90.0
 51
180.0
  0
LINE
  5
39D
100
AcDbEntity
  8
2
100
AcDbLine
 10
-433.885631
 20
403.279023
 30
0.0
 11
-303.885631
 21
403.279023
 31
0.0
  0
LINE
  5
39E
100
AcDbEntity
  8
2
100
AcDbLine
 10
-433.885631
 20
306.253023
 30
0.0
 11
-303.885631
 21
306.253023
 31
0.0
  0
LINE
  5
39F
100
AcDbEntity
  8
2
100
AcDbLine
 10
-301.885631
 20
78.566023
 30
0.0
 11
-301.885631
 21
70.066023
 31
0.0
  0
LINE
  5
3A0
100
AcDbEntity
  8
2
100
AcDbLine
 10
-435.885631
 20
78.566023
 30
0.0
 11
-435.885631
 21
70.066023
 31
0.0
  0
LINE
  5
3A1
100
AcDbEntity
  8
2
100
AcDbLine
 10
-447.715676
 20
69.566023
 30
0.0
 11
-436.385631
 21
69.566023
 31
0.0
  0
LINE
  5
3A2
100
AcDbEntity
  8
2
100
AcDbLine
 10
-301.385631
 20
69.566023
 30
0.0
 11
-290.78124
 21
69.566023
 31
0.0
  0
ARC
  5
3A3
100
AcDbEntity
  8
2
100
AcDbCircle
 10
-436.385631
 20
70.066023
 30
0.0
 40
0.5
100
AcDbArc
 50
270.0
 51
360.0
  0
ARC
  5
3A4
100
AcDbEntity
  8
2
100
AcDbCircle
 10
-301.385631
 20
70.066023
 30
0.0
 40
0.5
100
AcDbArc
 50
180.0
 51
270.0
  0
ARC
  5
3A5
100
AcDbEntity
  8
2
100
AcDbCircle
 10
-290.78124
 20
69.066023
 30
0.0
 40
0.5
100
AcDbArc
 50
5.0
 51
90.0
  0
ARC
  5
3A6
100
AcDbEntity
  8
2
100
AcDbCircle
 10
-447.715676
 20
69.066023
 30
0.0
 40
0.5
100
AcDbArc
 50
90.0
 51
160.0
  0
ARC
  5
3A7
100
AcDbEntity
  8
2
100
AcDbCircle
 10
-304.885631
 20
78.566023
 30
0.0
 40
3.0
100
AcDbArc
 50
0.0
 51
90.0
  0
ARC
  5
3A8
100
AcDbEntity
  8
2
100
AcDbCircle
 10
-432.885631
 20
78.566023
 30
0.0
 40
3.0
100
AcDbArc
 50
90.0
 51
180.0
  0
ARC
  5
3A9
100
AcDbEntity
  8
2
100
AcDbCircle
 10
-285.720384
 20
31.566023
 30
0.0
 40
5.0
100
AcDbArc
 50
191.98715
 51
270.0
  0
LINE
  5
3AA
100
AcDbEntity
  8
2
100
AcDbLine
 10
-278.885631
 20
26.566023
 30
0.0
 11
-266.362696
 21
25.470409
 31
0.0
  0
LINE
  5
3AB
100
AcDbEntity
  8
2
100
AcDbLine
 10
-278.885631
 20
-44.433977
 30
0.0
 11
-266.362696
 21
-43.338362
 31
0.0
  0
ARC
  5
3AC
100
AcDbEntity
  8
2
100
AcDbCircle
 10
-266.885631
 20
19.493241
 30
0.0
 40
6.0
100
AcDbArc
 50
0.0
 51
85.0
  0
ARC
  5
3AD
100
AcDbEntity
  8
2
100
AcDbCircle
 10
-266.885631
 20
-37.361194
 30
0.0
 40
6.0
100
AcDbArc
 50
275.0
 51
360.0
  0
LINE
  5
3AE
100
AcDbEntity
  8
2
100
AcDbLine
 10
-273.385631
 20
14.566023
 30
0.0
 11
-263.885631
 21
14.566023
 31
0.0
  0
LINE
  5
3AF
100
AcDbEntity
  8
2
100
AcDbLine
 10
-273.385631
 20
-32.433977
 30
0.0
 11
-263.885631
 21
-32.433977
 31
0.0
  0
LINE
  5
3B0
100
AcDbEntity
  8
2
100
AcDbLine
 10
-273.885631
 20
-43.538368
 30
0.0
 11
-273.885631
 21
-32.933977
 31
0.0
  0
LINE
  5
3B1
100
AcDbEntity
  8
2
100
AcDbLine
 10
-273.885631
 20
15.066023
 30
0.0
 11
-273.885631
 21
25.670415
 31
0.0
  0
ARC
  5
3B2
100
AcDbEntity
  8
2
100
AcDbCircle
 10
-273.385631
 20
15.066023
 30
0.0
 40
0.5
100
AcDbArc
 50
180.0
 51
270.0
  0
ARC
  5
3B3
100
AcDbEntity
  8
2
100
AcDbCircle
 10
-273.385631
 20
-32.933977
 30
0.0
 40
0.5
100
AcDbArc
 50
90.0
 51
180.0
  0
ARC
  5
3B4
100
AcDbEntity
  8
2
100
AcDbCircle
 10
-274.385631
 20
25.670415
 30
0.0
 40
0.5
100
AcDbArc
 50
360.0
 51
85.0
  0
ARC
  5
3B5
100
AcDbEntity
  8
2
100
AcDbCircle
 10
-274.385631
 20
-43.538368
 30
0.0
 40
0.5
100
AcDbArc
 50
275.0
 51
360.0
  0
ARC
  5
3B6
100
AcDbEntity
  8
2
100
AcDbCircle
 10
-263.885631
 20
-29.433977
 30
0.0
 40
3.0
100
AcDbArc
 50
270.0
 51
360.0
  0
ARC
  5
3B7
100
AcDbEntity
  8
2
100
AcDbCircle
 10
-263.885631
 20
11.566023
 30
0.0
 40
3.0
100
AcDbArc
 50
0.0
 51
90.0
  0
LINE
  5
3B8
100
AcDbEntity
  8
2
100
AcDbLine
 10
-278.885631
 20
403.766023
 30
0.0
 11
-266.362696
 21
402.670409
 31
0.0
  0
LINE
  5
3B9
100
AcDbEntity
  8
2
100
AcDbLine
 10
-278.885631
 20
300.766023
 30
0.0
 11
-266.362696
 21
301.861638
 31
0.0
  0
ARC
  5
3BA
100
AcDbEntity
  8
2
100
AcDbCircle
 10
-266.885631
 20
396.693241
 30
0.0
 40
6.0
100
AcDbArc
 50
0.0
 51
85.0
  0
ARC
  5
3BB
100
AcDbEntity
  8
2
100
AcDbCircle
 10
-266.885631
 20
307.838806
 30
0.0
 40
6.0
100
AcDbArc
 50
275.0
 51
0.0
  0
LINE
  5
3BC
100
AcDbEntity
  8
2
100
AcDbLine
 10
-273.385631
 20
391.766023
 30
0.0
 11
-263.885631
 21
391.766023
 31
0.0
  0
LINE
  5
3BD
100
AcDbEntity
  8
2
100
AcDbLine
 10
-273.385631
 20
312.766023
 30
0.0
 11
-263.885631
 21
312.766023
 31
0.0
  0
LINE
  5
3BE
100
AcDbEntity
  8
2
100
AcDbLine
 10
-273.885631
 20
301.661632
 30
0.0
 11
-273.885631
 21
312.266023
 31
0.0
  0
LINE
  5
3BF
100
AcDbEntity
  8
2
100
AcDbLine
 10
-273.885631
 20
392.266023
 30
0.0
 11
-273.885631
 21
402.870415
 31
0.0
  0
ARC
  5
3C0
100
AcDbEntity
  8
2
100
AcDbCircle
 10
-273.385631
 20
392.266023
 30
0.0
 40
0.5
100
AcDbArc
 50
180.0
 51
270.0
  0
ARC
  5
3C1
100
AcDbEntity
  8
2
100
AcDbCircle
 10
-273.385631
 20
312.266023
 30
0.0
 40
0.5
100
AcDbArc
 50
90.0
 51
180.0
  0
ARC
  5
3C2
100
AcDbEntity
  8
2
100
AcDbCircle
 10
-274.385631
 20
402.870415
 30
0.0
 40
0.5
100
AcDbArc
 50
0.0
 51
85.0
  0
ARC
  5
3C3
100
AcDbEntity
  8
2
100
AcDbCircle
 10
-274.385631
 20
301.661632
 30
0.0
 40
0.5
100
AcDbArc
 50
275.0
 51
0.0
  0
ARC
  5
3C4
100
AcDbEntity
  8
2
100
AcDbCircle
 10
-263.885631
 20
315.766023
 30
0.0
 40
3.0
100
AcDbArc
 50
270.0
 51
360.0
  0
ARC
  5
3C5
100
AcDbEntity
  8
2
100
AcDbCircle
 10
-263.885631
 20
388.766023
 30
0.0
 40
3.0
100
AcDbArc
 50
360.0
 51
90.0
  0
ARC
  5
3C6
100
AcDbEntity
  8
2
100
AcDbCircle
 10
-505.885631
 20
0.566023
 30
0.0
 40
6.0
100
AcDbArc
 50
347.4955
 51
10.142123
  0
ARC
  5
3C7
100
AcDbEntity
  8
2
100
AcDbCircle
 10
-457.385631
 20
-0.433977
 30
0.0
 40
42.643375
100
AcDbArc
 50
93.874568
 51
177.23575
  0
ARC
  5
3C8
100
AcDbEntity
  8
2
100
AcDbCircle
 10
-457.385631
 20
-0.433977
 30
0.0
 40
42.643375
100
AcDbArc
 50
180.401872
 51
254.041765
  0
LINE
  5
3C9
100
AcDbEntity
  8
2
100
AcDbLine
 10
-460.267148
 20
42.111931
 30
0.0
 11
-400.810459
 21
46.138769
 31
0.0
  0
LINE
  5
3CA
100
AcDbEntity
  8
2
100
AcDbLine
 10
-390.54366
 20
46.834111
 30
0.0
 11
-336.993963
 21
50.460885
 31
0.0
  0
ARC
  5
3CB
100
AcDbEntity
  8
2
100
AcDbCircle
 10
-395.885631
 20
49.566023
 30
0.0
 40
6.0
100
AcDbArc
 50
214.83458
 51
332.914557
  0
LINE
  5
3CC
100
AcDbEntity
  8
2
100
AcDbLine
 10
-389.885631
 20
-35.433977
 30
0.0
 11
-389.885631
 21
-39.433977
 31
0.0
  0
LINE
  5
3CD
100
AcDbEntity
  8
2
100
AcDbLine
 10
-401.885631
 20
-35.433977
 30
0.0
 11
-401.885631
 21
-39.433977
 31
0.0
  0
ARC
  5
3CE
100
AcDbEntity
  8
2
100
AcDbCircle
 10
-395.885631
 20
-35.433977
 30
0.0
 40
6.0
100
AcDbArc
 50
0.0
 51
180.0
  0
ARC
  5
3CF
100
AcDbEntity
  8
2
100
AcDbCircle
 10
-387.885631
 20
-39.433977
 30
0.0
 40
2.0
100
AcDbArc
 50
180.0
 51
270.0
  0
ARC
  5
3D0
100
AcDbEntity
  8
2
100
AcDbCircle
 10
-403.885631
 20
-39.433977
 30
0.0
 40
2.0
100
AcDbArc
 50
270.0
 51
360.0
  0
LINE
  5
3D1
100
AcDbEntity
  8
2
100
AcDbLine
 10
-458.236252
 20
-35.423638
 30
0.0
 11
-404.638929
 21
-36.726624
 31
0.0
  0
LINE
  5
3D2
100
AcDbEntity
  8
2
100
AcDbLine
 10
-387.205486
 20
-37.150442
 30
0.0
 11
-334.93068
 21
-38.421275
 31
0.0
  0
ARC
  5
3D3
100
AcDbEntity
  8
2
100
AcDbCircle
 10
-300.885631
 20
-33.433977
 30
0.0
 40
6.0
100
AcDbArc
 50
89.567814
 51
172.375659
  0
ARC
  5
3D4
100
AcDbEntity
  8
2
100
AcDbCircle
 10
-333.885631
 20
4.566023
 30
0.0
 40
46.0
100
AcDbArc
 50
270.0
 51
306.022978
  0
ARC
  5
3D5
100
AcDbEntity
  8
2
100
AcDbCircle
 10
-333.885631
 20
4.566023
 30
0.0
 40
46.0
100
AcDbArc
 50
315.920494
 51
93.874568
  0
ARC
  5
3D6
100
AcDbEntity
  8
2
100
AcDbCircle
 10
-329.385631
 20
84.566023
 30
0.0
 40
3.0
100
AcDbArc
 50
180.0
 51
270.0
  0
ARC
  5
3D7
100
AcDbEntity
  8
2
100
AcDbCircle
 10
-420.385631
 20
84.566023
 30
0.0
 40
3.0
100
AcDbArc
 50
270.0
 51
360.0
  0
ARC
  5
3D8
100
AcDbEntity
  8
2
100
AcDbCircle
 10
-374.885631
 20
74.566023
 30
0.0
 40
34.0
100
AcDbArc
 50
22.844739
 51
157.155261
  0
LINE
  5
3D9
100
AcDbEntity
  8
2
100
AcDbLine
 10
-315.652958
 20
255.766023
 30
0.0
 11
-352.118304
 21
255.766023
 31
0.0
  0
LINE
  5
3DA
100
AcDbEntity
  8
2
100
AcDbLine
 10
-348.282829
 20
249.248385
 30
0.0
 11
-349.632027
 21
254.283662
 31
0.0
  0
LINE
  5
3DB
100
AcDbEntity
  8
2
100
AcDbLine
 10
-319.488433
 20
249.248385
 30
0.0
 11
-318.139235
 21
254.283662
 31
0.0
  0
LINE
  5
3DC
100
AcDbEntity
  8
2
100
AcDbLine
 10
-314.687032
 20
256.507204
 30
0.0
 11
-312.404738
 21
265.024843
 31
0.0
  0
LINE
  5
3DD
100
AcDbEntity
  8
2
100
AcDbLine
 10
-353.08423
 20
256.507204
 30
0.0
 11
-355.366524
 21
265.024843
 31
0.0
  0
ARC
  5
3DE
100
AcDbEntity
  8
2
100
AcDbCircle
 10
-352.118304
 20
256.766023
 30
0.0
 40
1.0
100
AcDbArc
 50
195.0
 51
270.0
  0
ARC
  5
3DF
100
AcDbEntity
  8
2
100
AcDbCircle
 10
-315.652958
 20
256.766023
 30
0.0
 40
1.0
100
AcDbArc
 50
270.0
 51
345.0
  0
ARC
  5
3E0
100
AcDbEntity
  8
2
100
AcDbCircle
 10
-311.438812
 20
264.766023
 30
0.0
 40
1.0
100
AcDbArc
 50
90.0
 51
165.0
  0
ARC
  5
3E1
100
AcDbEntity
  8
2
100
AcDbCircle
 10
-356.33245
 20
264.766023
 30
0.0
 40
1.0
100
AcDbArc
 50
15.0
 51
90.0
  0
ARC
  5
3E2
100
AcDbEntity
  8
2
100
AcDbCircle
 10
-351.563878
 20
253.766023
 30
0.0
 40
2.0
100
AcDbArc
 50
15.0
 51
90.0
  0
ARC
  5
3E3
100
AcDbEntity
  8
2
100
AcDbCircle
 10
-316.207383
 20
253.766023
 30
0.0
 40
2.0
100
AcDbArc
 50
90.0
 51
165.0
  0
ARC
  5
3E4
100
AcDbEntity
  8
2
100
AcDbCircle
 10
-321.420285
 20
249.766023
 30
0.0
 40
2.0
100
AcDbArc
 50
270.0
 51
345.0
  0
ARC
  5
3E5
100
AcDbEntity
  8
2
100
AcDbCircle
 10
-346.350977
 20
249.766023
 30
0.0
 40
2.0
100
AcDbArc
 50
195.0
 51
270.0
  0
CIRCLE
  5
3E6
100
AcDbEntity
  8
2
100
AcDbCircle
 10
-374.885631
 20
351.766023
 30
0.0
 40
31.33305
  0
ARC
  5
3E7
100
AcDbEntity
  8
2
100
AcDbCircle
 10
-412.31024
 20
352.092873
 30
0.0
 40
45.0
100
AcDbArc
 50
12.236103
 51
30.645688
  0
ARC
  5
3E8
100
AcDbEntity
  8
2
100
AcDbCircle
 10
-337.461022
 20
352.092873
 30
0.0
 40
45.0
100
AcDbArc
 50
149.354312
 51
167.763897
  0
ARC
  5
3E9
100
AcDbEntity
  8
2
100
AcDbCircle
 10
-374.885631
 20
374.266023
 30
0.0
 40
1.5
100
AcDbArc
 50
30.645688
 51
149.354312
  0
ARC
  5
3EA
100
AcDbEntity
  8
2
100
AcDbCircle
 10
-365.400678
 20
362.266023
 30
0.0
 40
3.0
100
AcDbArc
 50
192.236103
 51
270.0
  0
ARC
  5
3EB
100
AcDbEntity
  8
2
100
AcDbCircle
 10
-384.370584
 20
362.266023
 30
0.0
 40
3.0
100
AcDbArc
 50
270.0
 51
347.763897
  0
ARC
  5
3EC
100
AcDbEntity
  8
2
100
AcDbCircle
 10
-412.31024
 20
351.439174
 30
0.0
 40
45.0
100
AcDbArc
 50
329.354312
 51
347.763897
  0
ARC
  5
3ED
100
AcDbEntity
  8
2
100
AcDbCircle
 10
-337.461022
 20
351.439174
 30
0.0
 40
45.0
100
AcDbArc
 50
192.236103
 51
210.645688
  0
ARC
  5
3EE
100
AcDbEntity
  8
2
100
AcDbCircle
 10
-374.885631
 20
329.266023
 30
0.0
 40
1.5
100
AcDbArc
 50
210.645688
 51
329.354312
  0
ARC
  5
3EF
100
AcDbEntity
  8
2
100
AcDbCircle
 10
-365.400678
 20
341.266023
 30
0.0
 40
3.0
100
AcDbArc
 50
90.0
 51
167.763897
  0
ARC
  5
3F0
100
AcDbEntity
  8
2
100
AcDbCircle
 10
-384.370584
 20
341.266023
 30
0.0
 40
3.0
100
AcDbArc
 50
12.236103
 51
90.0
  0
CIRCLE
  5
3F1
100
AcDbEntity
  8
2
100
AcDbCircle
 10
-333.885631
 20
4.566023
 30
0.0
 40
25.0
  0
LINE
  5
3F2
100
AcDbEntity
  8
2
100
AcDbLine
 10
-316.885631
 20
4.566023
 30
0.0
 11
-315.972115
 21
11.066023
 31
0.0
  0
LINE
  5
3F3
100
AcDbEntity
  8
2
100
AcDbLine
 10
-316.885631
 20
4.566023
 30
0.0
 11
-320.013243
 21
9.983207
 31
0.0
  0
LINE
  5
3F4
100
AcDbEntity
  8
2
100
AcDbLine
 10
-344.50404
 20
7.812397
 30
0.0
 11
-350.142812
 21
9.536342
 31
0.0
  0
ARC
  5
3F5
100
AcDbEntity
  8
2
100
AcDbCircle
 10
-330.885631
 20
4.566023
 30
0.0
 40
14.0
100
AcDbArc
 50
24.948231
 51
166.591995
  0
ARC
  5
3F6
100
AcDbEntity
  8
2
100
AcDbCircle
 10
-333.885631
 20
4.566023
 30
0.0
 40
17.0
100
AcDbArc
 50
20.543278
 51
163.0
  0
LINE
  5
3F7
100
AcDbEntity
  8
2
100
AcDbLine
 10
-320.013243
 20
9.983207
 30
0.0
 11
-318.191981
 21
10.471212
 31
0.0
  0
LINE
  5
3F8
100
AcDbEntity
  8
2
100
AcDbLine
 10
-317.966705
 20
10.531575
 30
0.0
 11
-315.972115
 21
11.066023
 31
0.0
  0
ARC
  5
3F9
100
AcDbEntity
  8
2
100
AcDbCircle
 10
-374.885631
 20
351.766023
 30
0.0
 40
24.248711
100
AcDbArc
 50
18.016736
 51
161.983264
  0
ARC
  5
3FA
100
AcDbEntity
  8
2
100
AcDbCircle
 10
-374.885631
 20
351.766023
 30
0.0
 40
24.248711
100
AcDbArc
 50
198.016736
 51
341.983264
  0
LINE
  5
3FB
100
AcDbEntity
  8
2
100
AcDbLine
 10
217.514369
 20
-6.110477
 30
0.0
 11
217.514369
 21
-12.757477
 31
0.0
  0
LINE
  5
3FC
100
AcDbEntity
  8
2
100
AcDbLine
 10
217.514369
 20
-12.757477
 30
0.0
 11
216.837869
 21
-13.433977
 31
0.0
  0
LINE
  5
3FD
100
AcDbEntity
  8
2
100
AcDbLine
 10
216.837869
 20
-13.433977
 30
0.0
 11
211.014369
 21
-13.433977
 31
0.0
  0
LINE
  5
3FE
100
AcDbEntity
  8
2
100
AcDbLine
 10
216.837869
 20
-13.433977
 30
0.0
 11
216.837869
 21
-5.433977
 31
0.0
  0
LINE
  5
3FF
100
AcDbEntity
  8
2
 62
     2
100
AcDbLine
 10
217.514369
 20
-12.757477
 30
0.0
 11
211.014369
 21
-12.757477
 31
0.0
  0
LINE
  5
400
100
AcDbEntity
  8
2
100
AcDbLine
 10
217.514369
 20
-6.110477
 30
0.0
 11
216.837869
 21
-5.433977
 31
0.0
  0
LINE
  5
401
100
AcDbEntity
  8
2
100
AcDbLine
 10
216.837869
 20
-5.433977
 30
0.0
 11
211.014369
 21
-5.433977
 31
0.0
  0
LINE
  5
402
100
AcDbEntity
  8
2
 62
     2
100
AcDbLine
 10
217.514369
 20
-6.110477
 30
0.0
 11
211.014369
 21
-6.110477
 31
0.0
  0
LINE
  5
403
100
AcDbEntity
  8
2
100
AcDbLine
 10
204.514369
 20
-2.933977
 30
0.0
 11
211.014369
 21
-2.933977
 31
0.0
  0
ARC
  5
404
100
AcDbEntity
  8
2
100
AcDbCircle
 10
203.335611
 20
-6.183977
 30
0.0
 40
7.678759
100
AcDbArc
 50
334.96034
 51
25.03966
  0
LINE
  5
405
100
AcDbEntity
  8
2
100
AcDbLine
 10
204.514369
 20
-15.933977
 30
0.0
 11
211.014369
 21
-15.933977
 31
0.0
  0
LINE
  5
406
100
AcDbEntity
  8
2
100
AcDbLine
 10
211.014369
 20
-15.933977
 30
0.0
 11
211.014369
 21
-2.933977
 31
0.0
  0
LINE
  5
407
100
AcDbEntity
  8
2
100
AcDbLine
 10
204.514369
 20
-9.433977
 30
0.0
 11
210.292681
 21
-9.433977
 31
0.0
  0
ARC
  5
408
100
AcDbEntity
  8
2
100
AcDbCircle
 10
203.335611
 20
-12.683977
 30
0.0
 40
7.678759
100
AcDbArc
 50
334.96034
 51
25.03966
  0
ARC
  5
409
100
AcDbEntity
  8
2
100
AcDbCircle
 10
198.514369
 20
20.566023
 30
0.0
 40
6.0
100
AcDbArc
 50
0.0
 51
90.0
  0
ARC
  5
40A
100
AcDbEntity
  8
2
100
AcDbCircle
 10
198.514369
 20
-38.433977
 30
0.0
 40
6.0
100
AcDbArc
 50
270.0
 51
360.0
  0
ARC
  5
40B
100
AcDbEntity
  8
2
100
AcDbCircle
 10
107.514369
 20
-38.433977
 30
0.0
 40
6.0
100
AcDbArc
 50
180.0
 51
270.0
  0
LINE
  5
40C
100
AcDbEntity
  8
2
100
AcDbLine
 10
97.514369
 20
62.360058
 30
0.0
 11
97.514369
 21
-41.433977
 31
0.0
  0
LINE
  5
40D
100
AcDbEntity
  8
2
100
AcDbLine
 10
90.514369
 20
62.360058
 30
0.0
 11
104.514369
 21
62.360058
 31
0.0
  0
LINE
  5
40E
100
AcDbEntity
  8
2
100
AcDbLine
 10
87.514369
 20
-41.433977
 30
0.0
 11
100.514369
 21
-41.433977
 31
0.0
  0
LINE
  5
40F
100
AcDbEntity
  8
2
100
AcDbLine
 10
87.514369
 20
59.360058
 30
0.0
 11
87.514369
 21
-38.433977
 31
0.0
  0
LINE
  5
410
100
AcDbEntity
  8
2
100
AcDbLine
 10
66.514369
 20
43.229546
 30
0.0
 11
66.514369
 21
-34.097499
 31
0.0
  0
LINE
  5
411
100
AcDbEntity
  8
2
100
AcDbLine
 10
70.807262
 20
48.179294
 30
0.0
 11
82.932236
 21
49.911433
 31
0.0
  0
LINE
  5
412
100
AcDbEntity
  8
2
100
AcDbLine
 10
70.807262
 20
-39.047247
 30
0.0
 11
87.514369
 21
-41.433977
 31
0.0
  0
ARC
  5
413
100
AcDbEntity
  8
2
100
AcDbCircle
 10
90.514369
 20
59.360058
 30
0.0
 40
3.0
100
AcDbArc
 50
90.0
 51
180.0
  0
ARC
  5
414
100
AcDbEntity
  8
2
100
AcDbCircle
 10
71.514369
 20
43.229546
 30
0.0
 40
5.0
100
AcDbArc
 50
98.130102
 51
180.0
  0
ARC
  5
415
100
AcDbEntity
  8
2
100
AcDbCircle
 10
71.514369
 20
-34.097499
 30
0.0
 40
5.0
100
AcDbArc
 50
180.0
 51
261.869898
  0
LINE
  5
416
100
AcDbEntity
  8
2
100
AcDbLine
 10
56.514369
 20
22.798697
 30
0.0
 11
56.514369
 21
-13.66665
 31
0.0
  0
LINE
  5
417
100
AcDbEntity
  8
2
100
AcDbLine
 10
48.514369
 20
17.03137
 30
0.0
 11
48.514369
 21
-7.899323
 31
0.0
  0
LINE
  5
418
100
AcDbEntity
  8
2
100
AcDbLine
 10
49.996731
 20
18.963221
 30
0.0
 11
55.032007
 21
20.312419
 31
0.0
  0
LINE
  5
419
100
AcDbEntity
  8
2
100
AcDbLine
 10
57.25555
 20
23.764622
 30
0.0
 11
65.773188
 21
26.046917
 31
0.0
  0
LINE
  5
41A
100
AcDbEntity
  8
2
100
AcDbLine
 10
49.996731
 20
-9.831174
 30
0.0
 11
55.032007
 21
-11.180372
 31
0.0
  0
LINE
  5
41B
100
AcDbEntity
  8
2
100
AcDbLine
 10
57.25555
 20
-14.632575
 30
0.0
 11
65.773188
 21
-16.91487
 31
0.0
  0
ARC
  5
41C
100
AcDbEntity
  8
2
100
AcDbCircle
 10
57.514369
 20
22.798697
 30
0.0
 40
1.0
100
AcDbArc
 50
105.0
 51
180.0
  0
ARC
  5
41D
100
AcDbEntity
  8
2
100
AcDbCircle
 10
57.514369
 20
-13.66665
 30
0.0
 40
1.0
100
AcDbArc
 50
180.0
 51
255.0
  0
ARC
  5
41E
100
AcDbEntity
  8
2
100
AcDbCircle
 10
65.514369
 20
27.012842
 30
0.0
 40
1.0
100
AcDbArc
 50
285.0
 51
360.0
  0
ARC
  5
41F
100
AcDbEntity
  8
2
100
AcDbCircle
 10
65.514369
 20
-17.880795
 30
0.0
 40
1.0
100
AcDbArc
 50
360.0
 51
75.0
  0
ARC
  5
420
100
AcDbEntity
  8
2
100
AcDbCircle
 10
54.514369
 20
-13.112224
 30
0.0
 40
2.0
100
AcDbArc
 50
0.0
 51
75.0
  0
ARC
  5
421
100
AcDbEntity
  8
2
100
AcDbCircle
 10
54.514369
 20
22.244271
 30
0.0
 40
2.0
100
AcDbArc
 50
285.0
 51
0.0
  0
ARC
  5
422
100
AcDbEntity
  8
2
100
AcDbCircle
 10
50.514369
 20
17.03137
 30
0.0
 40
2.0
100
AcDbArc
 50
105.0
 51
180.0
  0
ARC
  5
423
100
AcDbEntity
  8
2
100
AcDbCircle
 10
50.514369
 20
-7.899323
 30
0.0
 40
2.0
100
AcDbArc
 50
180.0
 51
255.0
  0
ARC
  5
424
100
AcDbEntity
  8
2
100
AcDbCircle
 10
104.514369
 20
63.360058
 30
0.0
 40
1.0
100
AcDbArc
 50
270.0
 51
360.0
  0
LINE
  5
425
100
AcDbEntity
  8
2
100
AcDbLine
 10
101.514369
 20
-42.433977
 30
0.0
 11
103.042233
 21
-42.433977
 31
0.0
  0
ARC
  5
426
100
AcDbEntity
  8
2
100
AcDbCircle
 10
100.514369
 20
-42.433977
 30
0.0
 40
1.0
100
AcDbArc
 50
0.0
 51
90.0
  0
ARC
  5
427
100
AcDbEntity
  8
2
100
AcDbCircle
 10
103.514369
 20
-46.433977
 30
0.0
 40
2.0
100
AcDbArc
 50
180.0
 51
270.0
  0
ARC
  5
428
100
AcDbEntity
  8
2
100
AcDbCircle
 10
-291.885631
 20
390.766023
 30
0.0
 40
2.0
100
AcDbArc
 50
0.0
 51
90.0
  0
ARC
  5
429
100
AcDbEntity
  8
2
100
AcDbCircle
 10
-303.885631
 20
402.766023
 30
0.0
 40
2.0
100
AcDbArc
 50
0.0
 51
90.0
  0
ARC
  5
42A
100
AcDbEntity
  8
2
100
AcDbCircle
 10
-291.885631
 20
318.766023
 30
0.0
 40
2.0
100
AcDbArc
 50
270.0
 51
360.0
  0
ARC
  5
42B
100
AcDbEntity
  8
2
100
AcDbCircle
 10
-303.885631
 20
306.766023
 30
0.0
 40
2.0
100
AcDbArc
 50
270.0
 51
360.0
  0
ARC
  5
42C
100
AcDbEntity
  8
2
100
AcDbCircle
 10
-433.885631
 20
306.766023
 30
0.0
 40
2.0
100
AcDbArc
 50
180.0
 51
270.0
  0
ARC
  5
42D
100
AcDbEntity
  8
2
100
AcDbCircle
 10
-447.885631
 20
318.766023
 30
0.0
 40
2.0
100
AcDbArc
 50
180.0
 51
270.0
  0
ARC
  5
42E
100
AcDbEntity
  8
2
100
AcDbCircle
 10
-433.885631
 20
402.766023
 30
0.0
 40
2.0
100
AcDbArc
 50
90.0
 51
180.0
  0
ARC
  5
42F
100
AcDbEntity
  8
2
100
AcDbCircle
 10
-447.885631
 20
390.766023
 30
0.0
 40
2.0
100
AcDbArc
 50
90.0
 51
180.0
  0
LINE
  5
430
100
AcDbEntity
  8
2
100
AcDbLine
 10
198.514369
 20
14.566023
 30
0.0
 11
202.514369
 21
14.566023
 31
0.0
  0
LINE
  5
431
100
AcDbEntity
  8
2
100
AcDbLine
 10
107.514369
 20
14.566023
 30
0.0
 11
103.514369
 21
14.566023
 31
0.0
  0
LINE
  5
432
100
AcDbEntity
  8
2
100
AcDbLine
 10
113.514369
 20
24.566023
 30
0.0
 11
113.514369
 21
20.566023
 31
0.0
  0
LINE
  5
433
100
AcDbEntity
  8
2
100
AcDbLine
 10
192.514369
 20
24.566023
 30
0.0
 11
192.514369
 21
20.566023
 31
0.0
  0
LINE
  5
434
100
AcDbEntity
  8
2
100
AcDbLine
 10
198.514369
 20
-32.433977
 30
0.0
 11
202.514369
 21
-32.433977
 31
0.0
  0
LINE
  5
435
100
AcDbEntity
  8
2
100
AcDbLine
 10
192.514369
 20
-42.433977
 30
0.0
 11
192.514369
 21
-38.433977
 31
0.0
  0
LINE
  5
436
100
AcDbEntity
  8
2
100
AcDbLine
 10
107.514369
 20
-32.433977
 30
0.0
 11
103.514369
 21
-32.433977
 31
0.0
  0
LINE
  5
437
100
AcDbEntity
  8
2
100
AcDbLine
 10
113.514369
 20
-42.433977
 30
0.0
 11
113.514369
 21
-38.433977
 31
0.0
  0
ARC
  5
438
100
AcDbEntity
  8
2
100
AcDbCircle
 10
202.514369
 20
12.566023
 30
0.0
 40
2.0
100
AcDbArc
 50
0.0
 51
90.0
  0
ARC
  5
439
100
AcDbEntity
  8
2
100
AcDbCircle
 10
190.514369
 20
24.566023
 30
0.0
 40
2.0
100
AcDbArc
 50
0.0
 51
90.0
  0
ARC
  5
43A
100
AcDbEntity
  8
2
100
AcDbCircle
 10
115.514369
 20
24.566023
 30
0.0
 40
2.0
100
AcDbArc
 50
90.0
 51
180.0
  0
ARC
  5
43B
100
AcDbEntity
  8
2
100
AcDbCircle
 10
103.514369
 20
12.566023
 30
0.0
 40
2.0
100
AcDbArc
 50
90.0
 51
180.0
  0
ARC
  5
43C
100
AcDbEntity
  8
2
100
AcDbCircle
 10
103.514369
 20
-30.433977
 30
0.0
 40
2.0
100
AcDbArc
 50
180.0
 51
270.0
  0
ARC
  5
43D
100
AcDbEntity
  8
2
100
AcDbCircle
 10
115.514369
 20
-42.433977
 30
0.0
 40
2.0
100
AcDbArc
 50
180.0
 51
270.0
  0
ARC
  5
43E
100
AcDbEntity
  8
2
100
AcDbCircle
 10
190.514369
 20
-42.433977
 30
0.0
 40
2.0
100
AcDbArc
 50
270.0
 51
0.0
  0
ARC
  5
43F
100
AcDbEntity
  8
2
100
AcDbCircle
 10
202.514369
 20
-30.433977
 30
0.0
 40
2.0
100
AcDbArc
 50
270.0
 51
360.0
  0
ARC
  5
440
100
AcDbEntity
  8
2
100
AcDbCircle
 10
198.514369
 20
-38.433977
 30
0.0
 40
6.0
100
AcDbArc
 50
90.0
 51
180.0
  0
ARC
  5
441
100
AcDbEntity
  8
2
100
AcDbCircle
 10
198.514369
 20
20.566023
 30
0.0
 40
6.0
100
AcDbArc
 50
180.0
 51
270.0
  0
ARC
  5
442
100
AcDbEntity
  8
2
100
AcDbCircle
 10
107.514369
 20
20.566023
 30
0.0
 40
6.0
100
AcDbArc
 50
270.0
 51
360.0
  0
ARC
  5
443
100
AcDbEntity
  8
2
100
AcDbCircle
 10
107.514369
 20
-38.433977
 30
0.0
 40
6.0
100
AcDbArc
 50
360.0
 51
90.0
  0
LINE
  5
444
100
AcDbEntity
  8
2
100
AcDbLine
 10
115.514369
 20
24.991228
 30
0.0
 11
190.514369
 21
24.991228
 31
0.0
  0
LINE
  5
445
100
AcDbEntity
  8
2
100
AcDbLine
 10
115.514369
 20
-42.859181
 30
0.0
 11
190.514369
 21
-42.859181
 31
0.0
  0
LINE
  5
446
100
AcDbEntity
  8
2
100
AcDbLine
 10
202.939573
 20
-30.433977
 30
0.0
 11
202.939573
 21
12.566023
 31
0.0
  0
LINE
  5
447
100
AcDbEntity
  8
2
100
AcDbLine
 10
103.089165
 20
-30.433977
 30
0.0
 11
103.089165
 21
12.566023
 31
0.0
  0
ARC
  5
448
100
AcDbEntity
  8
2
100
AcDbCircle
 10
107.514369
 20
20.566023
 30
0.0
 40
6.0
100
AcDbArc
 50
90.0
 51
180.0
  0
ARC
  5
449
100
AcDbEntity
  8
2
100
AcDbCircle
 10
107.514369
 20
28.566023
 30
0.0
 40
2.0
100
AcDbArc
 50
180.0
 51
270.0
  0
LINE
  5
44A
100
AcDbEntity
  8
2
100
AcDbLine
 10
205.514369
 20
64.566023
 30
0.0
 11
204.506243
 21
76.088958
 31
0.0
  0
LINE
  5
44B
100
AcDbEntity
  8
2
100
AcDbLine
 10
105.514369
 20
64.566023
 30
0.0
 11
106.522495
 21
76.088958
 31
0.0
  0
ARC
  5
44C
100
AcDbEntity
  8
2
100
AcDbCircle
 10
198.529075
 20
75.566023
 30
0.0
 40
6.0
100
AcDbArc
 50
5.0
 51
90.0
  0
ARC
  5
44D
100
AcDbEntity
  8
2
100
AcDbCircle
 10
112.499663
 20
75.566023
 30
0.0
 40
6.0
100
AcDbArc
 50
90.0
 51
175.0
  0
ARC
  5
44E
100
AcDbEntity
  8
2
100
AcDbCircle
 10
198.014369
 20
84.566023
 30
0.0
 40
3.0
100
AcDbArc
 50
180.0
 51
270.0
  0
ARC
  5
44F
100
AcDbEntity
  8
2
100
AcDbCircle
 10
107.014369
 20
82.701256
 30
0.0
 40
3.0
100
AcDbArc
 50
307.551707
 51
360.0
  0
ARC
  5
450
100
AcDbEntity
  8
2
100
AcDbCircle
 10
152.514369
 20
74.566023
 30
0.0
 40
34.0
100
AcDbArc
 50
45.099128
 51
134.900872
  0
LINE
  5
451
100
AcDbEntity
  8
2
100
AcDbLine
 10
160.014364
 20
106.171509
 30
0.0
 11
160.014369
 21
87.766023
 31
0.0
  0
LINE
  5
452
100
AcDbEntity
  8
2
100
AcDbLine
 10
145.014369
 20
106.171509
 30
0.0
 11
145.014369
 21
87.766023
 31
0.0
  0
LINE
  5
453
100
AcDbEntity
  8
2
100
AcDbLine
 10
128.514369
 20
98.649213
 30
0.0
 11
128.514369
 21
96.923125
 31
0.0
  0
LINE
  5
454
100
AcDbEntity
  8
2
100
AcDbLine
 10
176.514369
 20
98.649213
 30
0.0
 11
176.514369
 21
96.923125
 31
0.0
  0
ARC
  5
455
100
AcDbEntity
  8
2
100
AcDbCircle
 10
-374.885631
 20
73.066023
 30
0.0
 40
28.0
100
AcDbArc
 50
34.712682
 51
81.884254
  0
ARC
  5
456
100
AcDbEntity
  8
2
100
AcDbCircle
 10
-374.885631
 20
73.066023
 30
0.0
 40
28.0
100
AcDbArc
 50
98.115746
 51
145.287318
  0
ARC
  5
457
100
AcDbEntity
  8
2
100
AcDbCircle
 10
152.514369
 20
76.566023
 30
0.0
 40
31.0
100
AcDbArc
 50
28.453097
 51
48.922243
  0
ARC
  5
458
100
AcDbEntity
  8
2
100
AcDbCircle
 10
152.514369
 20
76.566023
 30
0.0
 40
31.0
100
AcDbArc
 50
131.077757
 51
151.546903
  0
ARC
  5
459
100
AcDbEntity
  8
2
100
AcDbCircle
 10
152.514369
 20
73.066023
 30
0.0
 40
28.0
100
AcDbArc
 50
105.536794
 51
145.287318
  0
ARC
  5
45A
100
AcDbEntity
  8
2
100
AcDbCircle
 10
152.514369
 20
73.066023
 30
0.0
 40
28.0
100
AcDbArc
 50
34.712682
 51
74.463206
  0
ARC
  5
45B
100
AcDbEntity
  8
2
100
AcDbCircle
 10
-375.885631
 20
96.066023
 30
0.0
 40
1.0
100
AcDbArc
 50
90.0
 51
180.0
  0
ARC
  5
45C
100
AcDbEntity
  8
2
100
AcDbCircle
 10
-373.885631
 20
96.066023
 30
0.0
 40
1.0
100
AcDbArc
 50
0.0
 51
90.0
  0
LINE
  5
45D
100
AcDbEntity
  8
2
100
AcDbLine
 10
-375.885631
 20
97.066023
 30
0.0
 11
-375.520864
 21
97.066028
 31
0.0
  0
LINE
  5
45E
100
AcDbEntity
  8
2
100
AcDbLine
 10
-374.250164
 20
97.066138
 30
0.0
 11
-373.885631
 21
97.066023
 31
0.0
  0
LINE
  5
45F
100
AcDbEntity
  8
2
100
AcDbLine
 10
-383.701298
 20
329.176557
 30
0.0
 11
-381.702429
 21
334.002254
 31
0.0
  0
LINE
  5
460
100
AcDbEntity
  8
2
100
AcDbLine
 10
-367.144953
 20
369.14711
 30
0.0
 11
-365.146084
 21
373.972807
 31
0.0
  0
LINE
  5
461
100
AcDbEntity
  8
2
100
AcDbLine
 10
-384.625178
 20
329.55924
 30
0.0
 11
-382.626309
 21
334.384937
 31
0.0
  0
LINE
  5
462
100
AcDbEntity
  8
2
100
AcDbLine
 10
-368.068833
 20
369.529793
 30
0.0
 11
-366.069964
 21
374.35549
 31
0.0
  0
LINE
  5
463
100
AcDbEntity
  8
2
100
AcDbLine
 10
-391.67486
 20
334.269687
 30
0.0
 11
-387.981432
 21
337.963116
 31
0.0
  0
LINE
  5
464
100
AcDbEntity
  8
2
100
AcDbLine
 10
-361.082723
 20
364.861824
 30
0.0
 11
-357.389295
 21
368.555253
 31
0.0
  0
LINE
  5
465
100
AcDbEntity
  8
2
100
AcDbLine
 10
-392.381967
 20
334.976794
 30
0.0
 11
-388.688539
 21
338.670223
 31
0.0
  0
LINE
  5
466
100
AcDbEntity
  8
2
100
AcDbLine
 10
-361.78983
 20
365.568931
 30
0.0
 11
-358.096402
 21
369.26236
 31
0.0
  0
LINE
  5
467
100
AcDbEntity
  8
2
100
AcDbLine
 10
-397.092414
 20
342.026477
 30
0.0
 11
-392.266717
 21
344.025346
 31
0.0
  0
LINE
  5
468
100
AcDbEntity
  8
2
100
AcDbLine
 10
-355.472466
 20
359.266023
 30
0.0
 11
-352.296164
 21
360.581691
 31
0.0
  0
LINE
  5
469
100
AcDbEntity
  8
2
100
AcDbLine
 10
-397.475098
 20
342.950356
 30
0.0
 11
-394.298796
 21
344.266023
 31
0.0
  0
LINE
  5
46A
100
AcDbEntity
  8
2
100
AcDbLine
 10
-357.504544
 20
359.506701
 30
0.0
 11
-352.678848
 21
361.50557
 31
0.0
  0
ARC
  5
46B
100
AcDbEntity
  8
2
100
AcDbCircle
 10
-382.164369
 20
334.193595
 30
0.0
 40
0.5
100
AcDbArc
 50
337.5
 51
157.5
  0
ARC
  5
46C
100
AcDbEntity
  8
2
100
AcDbCircle
 10
-388.334985
 20
338.316669
 30
0.0
 40
0.5
100
AcDbArc
 50
315.0
 51
135.0
  0
ARC
  5
46D
100
AcDbEntity
  8
2
100
AcDbCircle
 10
-392.458059
 20
344.487285
 30
0.0
 40
0.5
100
AcDbArc
 50
292.5
 51
333.734975
  0
ARC
  5
46E
100
AcDbEntity
  8
2
100
AcDbCircle
 10
-367.606893
 20
369.338452
 30
0.0
 40
0.5
100
AcDbArc
 50
157.5
 51
337.5
  0
ARC
  5
46F
100
AcDbEntity
  8
2
100
AcDbCircle
 10
-361.436277
 20
365.215378
 30
0.0
 40
0.5
100
AcDbArc
 50
135.0
 51
315.0
  0
ARC
  5
470
100
AcDbEntity
  8
2
100
AcDbCircle
 10
-357.313203
 20
359.044762
 30
0.0
 40
0.5
100
AcDbArc
 50
112.5
 51
153.734975
  0
LINE
  5
471
100
AcDbEntity
  8
2
100
AcDbLine
 10
-358.084266
 20
342.912329
 30
0.0
 11
-356.062221
 21
342.074771
 31
0.0
  0
ARC
  5
472
100
AcDbEntity
  8
2
100
AcDbCircle
 10
-357.414516
 20
344.529251
 30
0.0
 40
1.750143
100
AcDbArc
 50
188.650293
 51
247.5
  0
ARC
  5
473
100
AcDbEntity
  8
2
100
AcDbCircle
 10
-355.39247
 20
343.691692
 30
0.0
 40
1.750143
100
AcDbArc
 50
247.5
 51
19.157293
  0
LINE
  5
474
100
AcDbEntity
  8
2
100
AcDbLine
 10
-391.686995
 20
360.619718
 30
0.0
 11
-393.709041
 21
361.457276
 31
0.0
  0
ARC
  5
475
100
AcDbEntity
  8
2
100
AcDbCircle
 10
-392.356746
 20
359.002796
 30
0.0
 40
1.750143
100
AcDbArc
 50
8.650293
 51
67.5
  0
ARC
  5
476
100
AcDbEntity
  8
2
100
AcDbCircle
 10
-394.378792
 20
359.840355
 30
0.0
 40
1.750143
100
AcDbArc
 50
67.5
 51
199.157293
  0
ARC
  5
477
100
AcDbEntity
  8
2
100
AcDbCircle
 10
-339.485236
 20
77.331653
 30
0.0
 40
45.274917
100
AcDbArc
 50
159.10214
 51
166.675437
  0
ARC
  5
478
100
AcDbEntity
  8
2
100
AcDbCircle
 10
-340.409115
 20
77.331653
 30
0.0
 40
45.274917
100
AcDbArc
 50
158.681079
 51
166.675437
  0
ARC
  5
479
100
AcDbEntity
  8
2
100
AcDbCircle
 10
-382.184468
 20
93.635077
 30
0.0
 40
0.430947
100
AcDbArc
 50
339.10214
 51
158.681079
  0
ARC
  5
47A
100
AcDbEntity
  8
2
100
AcDbCircle
 10
-363.455702
 20
75.564771
 30
0.0
 40
30.472934
100
AcDbArc
 50
143.677597
 51
156.39704
  0
ARC
  5
47B
100
AcDbEntity
  8
2
100
AcDbCircle
 10
-364.162809
 20
75.564771
 30
0.0
 40
30.472934
100
AcDbArc
 50
142.882669
 51
156.39704
  0
ARC
  5
47C
100
AcDbEntity
  8
2
100
AcDbCircle
 10
-388.235983
 20
93.782619
 30
0.0
 40
0.283404
100
AcDbArc
 50
323.677597
 51
142.882669
  0
ARC
  5
47D
100
AcDbEntity
  8
2
100
AcDbCircle
 10
-372.21129
 20
73.79789
 30
0.0
 40
28.197761
100
AcDbArc
 50
134.711482
 51
150.306296
  0
ARC
  5
47E
100
AcDbEntity
  8
2
100
AcDbCircle
 10
-372.593973
 20
73.79789
 30
0.0
 40
28.197761
100
AcDbArc
 50
134.156238
 51
150.306296
  0
ARC
  5
47F
100
AcDbEntity
  8
2
100
AcDbCircle
 10
-392.143705
 20
93.932066
 30
0.0
 40
0.133957
100
AcDbArc
 50
314.711482
 51
134.156238
  0
ARC
  5
480
100
AcDbEntity
  8
2
100
AcDbCircle
 10
117.113974
 20
77.331653
 30
0.0
 40
45.274917
100
AcDbArc
 50
13.324563
 51
18.638604
  0
ARC
  5
481
100
AcDbEntity
  8
2
100
AcDbCircle
 10
118.037854
 20
77.331653
 30
0.0
 40
45.274917
100
AcDbArc
 50
13.324563
 51
21.318921
  0
ARC
  5
482
100
AcDbEntity
  8
2
100
AcDbCircle
 10
159.813206
 20
93.635077
 30
0.0
 40
0.430947
100
AcDbArc
 50
21.318921
 51
62.173379
  0
ARC
  5
483
100
AcDbEntity
  8
2
100
AcDbCircle
 10
141.08444
 20
75.564771
 30
0.0
 40
30.472934
100
AcDbArc
 50
23.60296
 51
36.322403
  0
ARC
  5
484
100
AcDbEntity
  8
2
100
AcDbCircle
 10
141.791547
 20
75.564771
 30
0.0
 40
30.472934
100
AcDbArc
 50
23.60296
 51
37.117331
  0
ARC
  5
485
100
AcDbEntity
  8
2
100
AcDbCircle
 10
165.864721
 20
93.782619
 30
0.0
 40
0.283404
100
AcDbArc
 50
37.117331
 51
216.322403
  0
ARC
  5
486
100
AcDbEntity
  8
2
100
AcDbCircle
 10
149.840028
 20
73.79789
 30
0.0
 40
28.197761
100
AcDbArc
 50
29.693704
 51
45.288518
  0
ARC
  5
487
100
AcDbEntity
  8
2
100
AcDbCircle
 10
150.222711
 20
73.79789
 30
0.0
 40
28.197761
100
AcDbArc
 50
29.693704
 51
45.843762
  0
ARC
  5
488
100
AcDbEntity
  8
2
100
AcDbCircle
 10
169.772443
 20
93.932066
 30
0.0
 40
0.133957
100
AcDbArc
 50
45.843762
 51
225.288518
  0
LINE
  5
489
100
AcDbEntity
  8
2
100
AcDbLine
 10
110.014369
 20
87.766023
 30
0.0
 11
195.014369
 21
87.766023
 31
0.0
  0
LINE
  5
48A
100
AcDbEntity
  8
2
100
AcDbLine
 10
-332.385631
 20
87.766023
 30
0.0
 11
-417.385631
 21
87.766023
 31
0.0
  0
LINE
  5
48B
100
AcDbEntity
  8
2
100
AcDbLine
 10
193.514369
 20
78.566023
 30
0.0
 11
193.514369
 21
70.066023
 31
0.0
  0
LINE
  5
48C
100
AcDbEntity
  8
2
100
AcDbLine
 10
117.514369
 20
78.566023
 30
0.0
 11
117.514369
 21
70.066023
 31
0.0
  0
LINE
  5
48D
100
AcDbEntity
  8
2
100
AcDbLine
 10
106.409978
 20
69.566023
 30
0.0
 11
117.014369
 21
69.566023
 31
0.0
  0
LINE
  5
48E
100
AcDbEntity
  8
2
100
AcDbLine
 10
194.014369
 20
69.566023
 30
0.0
 11
204.61876
 21
69.566023
 31
0.0
  0
ARC
  5
48F
100
AcDbEntity
  8
2
100
AcDbCircle
 10
194.014369
 20
70.066023
 30
0.0
 40
0.5
100
AcDbArc
 50
180.0
 51
270.0
  0
ARC
  5
490
100
AcDbEntity
  8
2
100
AcDbCircle
 10
117.014369
 20
70.066023
 30
0.0
 40
0.5
100
AcDbArc
 50
270.0
 51
360.0
  0
ARC
  5
491
100
AcDbEntity
  8
2
100
AcDbCircle
 10
204.61876
 20
69.066023
 30
0.0
 40
0.5
100
AcDbArc
 50
5.0
 51
90.0
  0
ARC
  5
492
100
AcDbEntity
  8
2
100
AcDbCircle
 10
106.409978
 20
69.066023
 30
0.0
 40
0.5
100
AcDbArc
 50
90.0
 51
175.0
  0
ARC
  5
493
100
AcDbEntity
  8
2
100
AcDbCircle
 10
190.514369
 20
78.566023
 30
0.0
 40
3.0
100
AcDbArc
 50
0.0
 51
90.0
  0
ARC
  5
494
100
AcDbEntity
  8
2
100
AcDbCircle
 10
120.514369
 20
78.566023
 30
0.0
 40
3.0
100
AcDbArc
 50
90.0
 51
180.0
  0
ARC
  5
495
100
AcDbEntity
  8
2
100
AcDbCircle
 10
106.514369
 20
60.566023
 30
0.0
 40
1.0
100
AcDbArc
 50
180.0
 51
270.0
  0
ARC
  5
496
100
AcDbEntity
  8
2
100
AcDbCircle
 10
204.514369
 20
60.566023
 30
0.0
 40
1.0
100
AcDbArc
 50
270.0
 51
360.0
  0
ARC
  5
497
100
AcDbEntity
  8
2
100
AcDbCircle
 10
204.514369
 20
58.566023
 30
0.0
 40
1.0
100
AcDbArc
 50
90.0
 51
180.0
  0
ARC
  5
498
100
AcDbEntity
  8
2
100
AcDbCircle
 10
-290.885631
 20
58.566023
 30
0.0
 40
1.0
100
AcDbArc
 50
90.0
 51
180.0
  0
LINE
  5
499
100
AcDbEntity
  8
2
100
AcDbLine
 10
-503.385631
 20
406.766023
 30
0.0
 11
-504.385631
 21
405.766023
 31
0.0
  0
LINE
  5
49A
100
AcDbEntity
  8
2
100
AcDbLine
 10
-418.385631
 20
406.766023
 30
0.0
 11
-417.385631
 21
405.766023
 31
0.0
  0
LINE
  5
49B
100
AcDbEntity
  8
2
100
AcDbLine
 10
-504.385631
 20
405.766023
 30
0.0
 11
-417.385631
 21
405.766023
 31
0.0
  0
ARC
  5
49C
100
AcDbEntity
  8
2
100
AcDbCircle
 10
-374.885631
 20
74.566023
 30
0.0
 40
33.162479
100
AcDbArc
 50
104.962752
 51
150.128593
  0
ARC
  5
49D
100
AcDbEntity
  8
2
100
AcDbCircle
 10
-369.331082
 20
106.555887
 30
0.0
 40
10.0
100
AcDbArc
 50
202.238154
 51
227.992896
  0
ARC
  5
49E
100
AcDbEntity
  8
2
100
AcDbCircle
 10
-382.673313
 20
103.70581
 30
0.0
 40
3.0
100
AcDbArc
 50
42.388379
 51
104.962752
  0
ARC
  5
49F
100
AcDbEntity
  8
2
100
AcDbCircle
 10
-387.843457
 20
98.986742
 30
0.0
 40
10.0
100
AcDbArc
 50
22.238154
 51
42.388379
  0
ARC
  5
4A0
100
AcDbEntity
  8
2
100
AcDbCircle
 10
-380.44018
 20
106.555887
 30
0.0
 40
10.0
100
AcDbArc
 50
312.007104
 51
337.761846
  0
ARC
  5
4A1
100
AcDbEntity
  8
2
100
AcDbCircle
 10
-361.927804
 20
98.986742
 30
0.0
 40
10.0
100
AcDbArc
 50
137.611621
 51
157.761846
  0
ARC
  5
4A2
100
AcDbEntity
  8
2
100
AcDbCircle
 10
-367.097949
 20
103.70581
 30
0.0
 40
3.0
100
AcDbArc
 50
75.037248
 51
137.611621
  0
ARC
  5
4A3
100
AcDbEntity
  8
2
100
AcDbCircle
 10
-374.885631
 20
74.566023
 30
0.0
 40
33.162479
100
AcDbArc
 50
29.871407
 51
75.037248
  0
ARC
  5
4A4
100
AcDbEntity
  8
2
100
AcDbCircle
 10
-374.885631
 20
100.388473
 30
0.0
 40
1.7
100
AcDbArc
 50
227.992896
 51
312.007104
  0
ARC
  5
4A5
100
AcDbEntity
  8
2
100
AcDbCircle
 10
-374.41074
 20
73.743488
 30
0.0
 40
32.849358
100
AcDbArc
 50
105.470231
 51
147.621493
  0
ARC
  5
4A6
100
AcDbEntity
  8
2
100
AcDbCircle
 10
-368.37713
 20
106.664384
 30
0.0
 40
12.0
100
AcDbArc
 50
200.135943
 51
231.694293
  0
ARC
  5
4A7
100
AcDbEntity
  8
2
100
AcDbCircle
 10
-385.276943
 20
100.467907
 30
0.0
 40
6.0
100
AcDbArc
 50
20.135943
 51
48.747449
  0
ARC
  5
4A8
100
AcDbEntity
  8
2
100
AcDbCircle
 10
-382.639426
 20
103.475148
 30
0.0
 40
2.0
100
AcDbArc
 50
48.747449
 51
105.470231
  0
ARC
  5
4A9
100
AcDbEntity
  8
2
100
AcDbCircle
 10
-381.394131
 20
106.664384
 30
0.0
 40
12.0
100
AcDbArc
 50
308.305707
 51
339.864057
  0
ARC
  5
4AA
100
AcDbEntity
  8
2
100
AcDbCircle
 10
-364.494319
 20
100.467907
 30
0.0
 40
6.0
100
AcDbArc
 50
131.252551
 51
159.864057
  0
ARC
  5
4AB
100
AcDbEntity
  8
2
100
AcDbCircle
 10
-367.131836
 20
103.475148
 30
0.0
 40
2.0
100
AcDbArc
 50
74.529769
 51
131.252551
  0
ARC
  5
4AC
100
AcDbEntity
  8
2
100
AcDbCircle
 10
-375.360522
 20
73.743488
 30
0.0
 40
32.849358
100
AcDbArc
 50
32.378507
 51
74.529769
  0
ARC
  5
4AD
100
AcDbEntity
  8
2
100
AcDbCircle
 10
-374.885631
 20
98.42488
 30
0.0
 40
1.5
100
AcDbArc
 50
231.694293
 51
308.305707
  0
ARC
  5
4AE
100
AcDbEntity
  8
2
100
AcDbCircle
 10
144.230581
 20
95.245055
 30
0.0
 40
11.430139
100
AcDbArc
 50
88.512215
 51
112.714662
  0
ARC
  5
4AF
100
AcDbEntity
  8
2
100
AcDbCircle
 10
144.514369
 20
106.171509
 30
0.0
 40
0.5
100
AcDbArc
 50
0.0
 51
88.512215
  0
ARC
  5
4B0
100
AcDbEntity
  8
2
100
AcDbCircle
 10
155.350742
 20
68.68055
 30
0.0
 40
40.228245
100
AcDbArc
 50
112.714662
 51
131.843847
  0
ARC
  5
4B1
100
AcDbEntity
  8
2
100
AcDbCircle
 10
145.720583
 20
88.349079
 30
0.0
 40
17.127052
100
AcDbArc
 50
93.791923
 51
118.737001
  0
ARC
  5
4B2
100
AcDbEntity
  8
2
100
AcDbCircle
 10
144.614369
 20
105.039511
 30
0.0
 40
0.4
100
AcDbArc
 50
0.0
 51
93.791923
  0
ARC
  5
4B3
100
AcDbEntity
  8
2
100
AcDbCircle
 10
159.432933
 20
63.341313
 30
0.0
 40
45.647515
100
AcDbArc
 50
118.737001
 51
132.635576
  0
ARC
  5
4B4
100
AcDbEntity
  8
2
100
AcDbCircle
 10
159.308155
 20
88.349079
 30
0.0
 40
17.127052
100
AcDbArc
 50
61.262999
 51
86.208077
  0
ARC
  5
4B5
100
AcDbEntity
  8
2
100
AcDbCircle
 10
145.595806
 20
63.341313
 30
0.0
 40
45.647515
100
AcDbArc
 50
47.364424
 51
61.262999
  0
ARC
  5
4B6
100
AcDbEntity
  8
2
100
AcDbCircle
 10
160.414369
 20
105.039511
 30
0.0
 40
0.4
100
AcDbArc
 50
86.208077
 51
180.0
  0
ARC
  5
4B7
100
AcDbEntity
  8
2
100
AcDbCircle
 10
160.514369
 20
106.171509
 30
0.0
 40
0.5
100
AcDbArc
 50
91.487785
 51
180.0
  0
ARC
  5
4B8
100
AcDbEntity
  8
2
100
AcDbCircle
 10
160.798157
 20
95.245055
 30
0.0
 40
11.430139
100
AcDbArc
 50
67.285338
 51
91.487785
  0
ARC
  5
4B9
100
AcDbEntity
  8
2
100
AcDbCircle
 10
149.677996
 20
68.68055
 30
0.0
 40
40.228245
100
AcDbArc
 50
48.156153
 51
67.285338
  0
ARC
  5
4BA
100
AcDbEntity
  8
2
100
AcDbCircle
 10
-499.773131
 20
393.766023
 30
0.0
 40
3.0
100
AcDbArc
 50
0.0
 51
90.0
  0
LINE
  5
4BB
100
AcDbEntity
  8
2
100
AcDbLine
 10
-496.773131
 20
393.766023
 30
0.0
 11
-496.773131
 21
405.766023
 31
0.0
  0
ARC
  5
4BC
100
AcDbEntity
  8
2
100
AcDbCircle
 10
-451.165257
 20
396.766023
 30
0.0
 40
6.0
100
AcDbArc
 50
90.0
 51
180.0
  0
ARC
  5
4BD
100
AcDbEntity
  8
2
100
AcDbCircle
 10
90.514369
 20
-38.433977
 30
0.0
 40
3.0
100
AcDbArc
 50
180.0
 51
270.0
  0
ARC
  5
4BE
100
AcDbEntity
  8
2
100
AcDbCircle
 10
-395.885631
 20
-35.433977
 30
0.0
 40
6.733336
100
AcDbArc
 50
1.856603
 51
175.358151
  0
ARC
  5
4BF
100
AcDbEntity
  8
2
100
AcDbCircle
 10
-404.590322
 20
-34.727214
 30
0.0
 40
2.0
100
AcDbArc
 50
268.607377
 51
355.358151
  0
ARC
  5
4C0
100
AcDbEntity
  8
2
100
AcDbCircle
 10
-387.156879
 20
-35.151032
 30
0.0
 40
2.0
100
AcDbArc
 50
181.856603
 51
268.607377
  0
LINE
  5
4C1
100
AcDbEntity
  8
2
  6
CENTER
 62
     2
100
AcDbLine
 10
-333.885631
 20
62.466023
 30
0.0
 11
-333.885631
 21
-50.233977
 31
0.0
  0
LINE
  5
4C2
100
AcDbEntity
  8
2
  6
CENTER
 62
     2
100
AcDbLine
 10
-333.885631
 20
410.566023
 30
0.0
 11
-333.885631
 21
212.137103
 31
0.0
  0
LINE
  5
4C3
100
AcDbEntity
  8
2
  6
CENTER
 62
     2
100
AcDbLine
 10
18.235482
 20
4.566023
 30
0.0
 11
211.899209
 21
4.566023
 31
0.0
  0
LINE
  5
4C4
100
AcDbEntity
  8
2
  6
CENTER
 62
     2
100
AcDbLine
 10
109.314369
 20
44.566023
 30
0.0
 11
200.114369
 21
44.566023
 31
0.0
  0
LINE
  5
4C5
100
AcDbEntity
  8
2
  6
CENTER
 62
     2
100
AcDbLine
 10
135.514369
 20
66.866023
 30
0.0
 11
135.514369
 21
26.866023
 31
0.0
  0
LINE
  5
4C6
100
AcDbEntity
  8
2
  6
CENTER
 62
     2
100
AcDbLine
 10
175.514369
 20
66.866023
 30
0.0
 11
175.514369
 21
26.866023
 31
0.0
  0
LINE
  5
4C7
100
AcDbEntity
  8
2
  6
CENTER
 62
     2
100
AcDbLine
 10
198.514369
 20
-46.533977
 30
0.0
 11
198.514369
 21
-30.833977
 31
0.0
  0
LINE
  5
4C8
100
AcDbEntity
  8
2
  6
CENTER
 62
     2
100
AcDbLine
 10
191.314369
 20
-38.433977
 30
0.0
 11
206.114369
 21
-38.433977
 31
0.0
  0
LINE
  5
4C9
100
AcDbEntity
  8
2
  6
CENTER
 62
     2
100
AcDbLine
 10
107.514369
 20
-46.633977
 30
0.0
 11
107.514369
 21
-30.833977
 31
0.0
  0
LINE
  5
4CA
100
AcDbEntity
  8
2
  6
CENTER
 62
     2
100
AcDbLine
 10
114.914369
 20
-38.433977
 30
0.0
 11
99.814369
 21
-38.433977
 31
0.0
  0
LINE
  5
4CB
100
AcDbEntity
  8
2
  6
CENTER
 62
     2
100
AcDbLine
 10
198.514369
 20
27.666023
 30
0.0
 11
198.514369
 21
13.266023
 31
0.0
  0
LINE
  5
4CC
100
AcDbEntity
  8
2
  6
CENTER
 62
     2
100
AcDbLine
 10
191.014369
 20
20.566023
 30
0.0
 11
206.014369
 21
20.566023
 31
0.0
  0
LINE
  5
4CD
100
AcDbEntity
  8
2
  6
CENTER
 62
     2
100
AcDbLine
 10
107.514369
 20
28.366023
 30
0.0
 11
107.514369
 21
13.066023
 31
0.0
  0
LINE
  5
4CE
100
AcDbEntity
  8
2
  6
CENTER
 62
     2
100
AcDbLine
 10
114.914369
 20
20.566023
 30
0.0
 11
99.914369
 21
20.566023
 31
0.0
  0
LINE
  5
4CF
100
AcDbEntity
  8
2
  6
CENTER
 62
     2
100
AcDbLine
 10
109.514369
 20
-59.533977
 30
0.0
 11
109.514369
 21
-39.833977
 31
0.0
  0
LINE
  5
4D0
100
AcDbEntity
  8
2
  6
CENTER
 62
     2
100
AcDbLine
 10
196.514369
 20
-59.233977
 30
0.0
 11
196.514369
 21
-40.333977
 31
0.0
  0
LINE
  5
4D1
100
AcDbEntity
  8
2
  6
CENTER
 62
     2
100
AcDbLine
 10
-316.885631
 20
-59.033977
 30
0.0
 11
-316.885631
 21
-37.233977
 31
0.0
  0
LINE
  5
4D2
100
AcDbEntity
  8
2
  6
CENTER
 62
     2
100
AcDbLine
 10
-408.885631
 20
-59.033977
 30
0.0
 11
-408.885631
 21
-37.233977
 31
0.0
  0
LINE
  5
4D3
100
AcDbEntity
  8
2
  6
CENTER
 62
     2
100
AcDbLine
 10
-504.885631
 20
-59.033977
 30
0.0
 11
-504.885631
 21
-37.233977
 31
0.0
  0
LINE
  5
4D4
100
AcDbEntity
  8
2
  6
CENTER
 62
     2
100
AcDbLine
 10
-392.885631
 20
422.819883
 30
0.0
 11
-392.885631
 21
394.066023
 31
0.0
  0
LINE
  5
4D5
100
AcDbEntity
  8
2
  6
CENTER
 62
     2
100
AcDbLine
 10
-356.885631
 20
394.066023
 30
0.0
 11
-356.885631
 21
422.819883
 31
0.0
  0
LINE
  5
4D6
100
AcDbEntity
  8
2
  6
CENTER
 62
     2
100
AcDbLine
 10
-272.18576
 20
334.766023
 30
0.0
 11
-298.215719
 21
334.766023
 31
0.0
  0
LINE
  5
4D7
100
AcDbEntity
  8
2
  6
CENTER
 62
     2
100
AcDbLine
 10
-272.18576
 20
374.766023
 30
0.0
 11
-298.215719
 21
374.766023
 31
0.0
  0
LINE
  5
4D8
100
AcDbEntity
  8
2
  6
CENTER
 62
     2
100
AcDbLine
 10
-298.215719
 20
44.566023
 30
0.0
 11
-284.885631
 21
44.566023
 31
0.0
  0
LINE
  5
4D9
100
AcDbEntity
  8
2
  6
CENTER
 62
     2
100
AcDbLine
 10
-281.085631
 20
44.566023
 30
0.0
 11
-274.972253
 21
44.566023
 31
0.0
  0
LINE
  5
4DA
100
AcDbEntity
  8
2
  6
CENTER
 62
     2
100
AcDbLine
 10
-525.098038
 20
4.566023
 30
0.0
 11
-244.875031
 21
4.566023
 31
0.0
  0
LINE
  5
4DB
100
AcDbEntity
  8
2
  6
CENTER
 62
     2
100
AcDbLine
 10
-449.359284
 20
398.766023
 30
0.0
 11
-432.709736
 21
398.766023
 31
0.0
  0
LINE
  5
4DC
100
AcDbEntity
  8
2
  6
CENTER
 62
     2
100
AcDbLine
 10
-304.991562
 20
398.766023
 30
0.0
 11
-286.556206
 21
398.766023
 31
0.0
  0
LINE
  5
4DD
100
AcDbEntity
  8
2
  6
CENTER
 62
     2
100
AcDbLine
 10
-441.885631
 20
303.671919
 30
0.0
 11
-441.885631
 21
318.68907
 31
0.0
  0
LINE
  5
4DE
100
AcDbEntity
  8
2
  6
CENTER
 62
     2
100
AcDbLine
 10
-441.885631
 20
391.326445
 30
0.0
 11
-441.885631
 21
406.670042
 31
0.0
  0
LINE
  5
4DF
100
AcDbEntity
  8
2
  6
CENTER
 62
     2
100
AcDbLine
 10
-448.543107
 20
310.766023
 30
0.0
 11
-434.668499
 21
310.766023
 31
0.0
  0
LINE
  5
4E0
100
AcDbEntity
  8
2
  6
CENTER
 62
     2
100
AcDbLine
 10
-305.234108
 20
310.766023
 30
0.0
 11
-287.041359
 21
310.766023
 31
0.0
  0
LINE
  5
4E1
100
AcDbEntity
  8
2
  6
CENTER
 62
     2
100
AcDbLine
 10
-295.885631
 20
301.997862
 30
0.0
 11
-295.885631
 21
319.462919
 31
0.0
  0
LINE
  5
4E2
100
AcDbEntity
  8
2
  6
CENTER
 62
     2
100
AcDbLine
 10
-295.885631
 20
389.565336
 30
0.0
 11
-295.885631
 21
406.787779
 31
0.0
  0
LINE
  5
4E3
100
AcDbEntity
  8
2
  6
CENTER
 62
     2
100
AcDbLine
 10
-441.885631
 20
78.693472
 30
0.0
 11
-441.885631
 21
61.77746
 31
0.0
  0
LINE
  5
4E4
100
AcDbEntity
  8
2
  6
CENTER
 62
     2
100
AcDbLine
 10
-295.885631
 20
78.693472
 30
0.0
 11
-295.885631
 21
61.77746
 31
0.0
  0
LINE
  5
4E5
100
AcDbEntity
  8
2
  6
CENTER
 62
     2
100
AcDbLine
 10
-310.761033
 20
50.566023
 30
0.0
 11
-297.038704
 21
50.566023
 31
0.0
  0
LINE
  5
4E6
100
AcDbEntity
  8
2
  6
CENTER
 62
     2
100
AcDbLine
 10
-303.885631
 20
57.138311
 30
0.0
 11
-303.885631
 21
43.649018
 31
0.0
  0
LINE
  5
4E7
100
AcDbEntity
  8
2
  6
CENTER
 62
     2
100
AcDbLine
 10
-402.583666
 20
49.566023
 30
0.0
 11
-389.184565
 21
49.566023
 31
0.0
  0
LINE
  5
4E8
100
AcDbEntity
  8
2
  6
CENTER
 62
     2
100
AcDbLine
 10
-403.192742
 20
-35.433977
 30
0.0
 11
-388.27097
 21
-35.433977
 31
0.0
  0
LINE
  5
4E9
100
AcDbEntity
  8
2
  6
CENTER
 62
     2
100
AcDbLine
 10
-395.885631
 20
-42.729845
 30
0.0
 11
-395.885631
 21
-26.722383
 31
0.0
  0
LINE
  5
4EA
100
AcDbEntity
  8
2
  6
CENTER
 62
     2
100
AcDbLine
 10
-395.885631
 20
42.49903
 30
0.0
 11
-395.885631
 21
56.134523
 31
0.0
  0
LINE
  5
4EB
100
AcDbEntity
  8
2
  6
CENTER
 62
     2
100
AcDbLine
 10
-307.876191
 20
-33.433977
 30
0.0
 11
-293.488602
 21
-33.433977
 31
0.0
  0
LINE
  5
4EC
100
AcDbEntity
  8
2
  6
CENTER
 62
     2
100
AcDbLine
 10
-300.885631
 20
-26.548685
 30
0.0
 11
-300.885631
 21
-39.7316
 31
0.0
  0
LINE
  5
4ED
100
AcDbEntity
  8
2
  6
CENTER
 62
     2
100
AcDbLine
 10
-513.024445
 20
0.566023
 30
0.0
 11
-498.987763
 21
0.566023
 31
0.0
  0
LINE
  5
4EE
100
AcDbEntity
  8
2
  6
CENTER
 62
     2
100
AcDbLine
 10
-505.885631
 20
7.905687
 30
0.0
 11
-505.885631
 21
-6.901895
 31
0.0
  0
LINE
  5
4EF
100
AcDbEntity
  8
2
  6
CENTER
 62
     2
100
AcDbLine
 10
-505.885631
 20
294.000517
 30
0.0
 11
-505.885631
 21
277.655928
 31
0.0
  0
LINE
  5
4F0
100
AcDbEntity
  8
2
  6
CENTER
 62
     2
100
AcDbLine
 10
-395.885631
 20
294.000517
 30
0.0
 11
-395.885631
 21
277.655928
 31
0.0
  0
LINE
  5
4F1
100
AcDbEntity
  8
2
  6
CENTER
 62
     2
100
AcDbLine
 10
-303.885631
 20
294.000517
 30
0.0
 11
-303.885631
 21
277.655928
 31
0.0
  0
LINE
  5
4F2
100
AcDbEntity
  8
2
  6
CENTER
 62
     2
100
AcDbLine
 10
-284.308724
 20
20.566023
 30
0.0
 11
-264.148026
 21
20.566023
 31
0.0
  0
LINE
  5
4F3
100
AcDbEntity
  8
2
  6
CENTER
 62
     2
100
AcDbLine
 10
-284.308724
 20
-38.433977
 30
0.0
 11
-264.148026
 21
-38.433977
 31
0.0
  0
LINE
  5
4F4
100
AcDbEntity
  8
2
  6
CENTER
 62
     2
100
AcDbLine
 10
-281.943734
 20
397.766023
 30
0.0
 11
-264.796265
 21
397.766023
 31
0.0
  0
LINE
  5
4F5
100
AcDbEntity
  8
2
  6
CENTER
 62
     2
100
AcDbLine
 10
-281.943734
 20
306.766023
 30
0.0
 11
-264.796265
 21
306.766023
 31
0.0
  0
ARC
  5
4F6
100
AcDbEntity
  8
2
  6
CENTER
 62
     2
100
AcDbCircle
 10
-374.885631
 20
351.766023
 30
0.0
 40
37.5
100
AcDbArc
 50
126.361503
 51
143.885033
  0
ARC
  5
4F7
100
AcDbEntity
  8
2
  6
CENTER
 62
     2
100
AcDbCircle
 10
-374.885631
 20
351.766023
 30
0.0
 40
37.5
100
AcDbArc
 50
216.93331
 51
233.416879
  0
ARC
  5
4F8
100
AcDbEntity
  8
2
  6
CENTER
 62
     2
100
AcDbCircle
 10
-374.885631
 20
351.766023
 30
0.0
 40
37.5
100
AcDbArc
 50
306.278748
 51
323.822644
  0
ARC
  5
4F9
100
AcDbEntity
  8
2
  6
CENTER
 62
     2
100
AcDbCircle
 10
-374.885631
 20
351.766023
 30
0.0
 40
37.5
100
AcDbArc
 50
36.280641
 51
53.737219
  0
LINE
  5
4FA
100
AcDbEntity
  8
2
  6
CENTER
 62
     2
100
AcDbLine
 10
-405.724917
 20
320.926737
 30
0.0
 11
-397.674317
 21
328.977337
 31
0.0
  0
LINE
  5
4FB
100
AcDbEntity
  8
2
  6
CENTER
 62
     2
100
AcDbLine
 10
-352.494777
 20
374.156877
 30
0.0
 11
-343.948404
 21
382.70325
 31
0.0
  0
LINE
  5
4FC
100
AcDbEntity
  8
2
  6
CENTER
 62
     2
100
AcDbLine
 10
-405.77925
 20
382.659643
 30
0.0
 11
-397.428258
 21
374.308651
 31
0.0
  0
LINE
  5
4FD
100
AcDbEntity
  8
2
  6
CENTER
 62
     2
100
AcDbLine
 10
-352.313547
 20
329.19394
 30
0.0
 11
-344.182484
 21
321.062876
 31
0.0
  0
LINE
  5
4FE
100
AcDbEntity
  8
2
  6
CENTER
 62
     2
100
AcDbLine
 10
196.322366
 20
-9.433977
 30
0.0
 11
204.514369
 21
-9.433977
 31
0.0
  0
LINE
  5
4FF
100
AcDbEntity
  8
2
  6
CENTER
 62
     2
100
AcDbLine
 10
210.292681
 20
-9.433977
 30
0.0
 11
222.006204
 21
-9.433977
 31
0.0
  0
LINE
  5
500
100
AcDbEntity
  8
2
  6
CENTER
 62
     2
100
AcDbLine
 10
77.72181
 20
50.566023
 30
0.0
 11
94.228463
 21
50.566023
 31
0.0
  0
LINE
  5
501
100
AcDbEntity
  8
2
  6
CENTER
 62
     2
100
AcDbLine
 10
77.455575
 20
-33.433977
 30
0.0
 11
94.228463
 21
-33.433977
 31
0.0
  0
LINE
  5
502
100
AcDbEntity
  8
2
  6
CENTER
 62
     2
100
AcDbLine
 10
199.514369
 20
78.693472
 30
0.0
 11
199.514369
 21
62.21863
 31
0.0
  0
LINE
  5
503
100
AcDbEntity
  8
2
  6
CENTER
 62
     2
100
AcDbLine
 10
111.514369
 20
78.693472
 30
0.0
 11
111.514369
 21
62.21863
 31
0.0
  0
LINE
  5
504
100
AcDbEntity
  8
2
  6
CENTER
 62
     2
100
AcDbLine
 10
179.030873
 20
78.910841
 30
0.0
 11
179.030873
 21
94.522299
 31
0.0
  0
LINE
  5
505
100
AcDbEntity
  8
2
  6
CENTER
 62
     2
100
AcDbLine
 10
125.997865
 20
78.910841
 30
0.0
 11
125.997865
 21
95.916189
 31
0.0
  0
LINE
  5
506
100
AcDbEntity
  8
2
  6
CENTER
 62
     2
100
AcDbLine
 10
-401.402135
 20
94.48147
 30
0.0
 11
-401.402135
 21
78.061045
 31
0.0
  0
LINE
  5
507
100
AcDbEntity
  8
2
  6
CENTER
 62
     2
100
AcDbLine
 10
-348.369127
 20
94.911326
 30
0.0
 11
-348.369127
 21
78.061045
 31
0.0
  0
LINE
  5
508
100
AcDbEntity
  8
2
100
AcDbLine
 10
86.214369
 20
55.166023
 30
0.0
 11
87.514369
 21
55.166023
 31
0.0
  0
LINE
  5
509
100
AcDbEntity
  8
2
100
AcDbLine
 10
86.214369
 20
45.966023
 30
0.0
 11
87.514369
 21
45.966023
 31
0.0
  0
LINE
  5
50A
100
AcDbEntity
  8
2
100
AcDbLine
 10
86.214369
 20
55.166023
 30
0.0
 11
86.214369
 21
45.966023
 31
0.0
  0
LINE
  5
50B
100
AcDbEntity
  8
2
100
AcDbLine
 10
84.926877
 20
55.066023
 30
0.0
 11
86.214369
 21
55.066023
 31
0.0
  0
LINE
  5
50C
100
AcDbEntity
  8
2
100
AcDbLine
 10
84.926877
 20
46.066023
 30
0.0
 11
86.214369
 21
46.066023
 31
0.0
  0
ARC
  5
50D
100
AcDbEntity
  8
2
100
AcDbCircle
 10
94.914369
 20
50.566023
 30
0.0
 40
12.0
100
AcDbArc
 50
163.808648
 51
196.191352
  0
ARC
  5
50E
100
AcDbEntity
  8
2
100
AcDbCircle
 10
84.926877
 20
53.466023
 30
0.0
 40
1.6
100
AcDbArc
 50
90.0
 51
163.808648
  0
ARC
  5
50F
100
AcDbEntity
  8
2
100
AcDbCircle
 10
84.926877
 20
47.666023
 30
0.0
 40
1.6
100
AcDbArc
 50
196.191352
 51
270.0
  0
LINE
  5
510
100
AcDbEntity
  8
2
100
AcDbLine
 10
86.214369
 20
-28.833977
 30
0.0
 11
87.514369
 21
-28.833977
 31
0.0
  0
LINE
  5
511
100
AcDbEntity
  8
2
100
AcDbLine
 10
86.214369
 20
-38.033977
 30
0.0
 11
87.514369
 21
-38.033977
 31
0.0
  0
LINE
  5
512
100
AcDbEntity
  8
2
100
AcDbLine
 10
86.214369
 20
-28.833977
 30
0.0
 11
86.214369
 21
-38.033977
 31
0.0
  0
LINE
  5
513
100
AcDbEntity
  8
2
100
AcDbLine
 10
84.926877
 20
-28.933977
 30
0.0
 11
86.214369
 21
-28.933977
 31
0.0
  0
LINE
  5
514
100
AcDbEntity
  8
2
100
AcDbLine
 10
84.926877
 20
-37.933977
 30
0.0
 11
86.214369
 21
-37.933977
 31
0.0
  0
ARC
  5
515
100
AcDbEntity
  8
2
100
AcDbCircle
 10
94.914369
 20
-33.433977
 30
0.0
 40
12.0
100
AcDbArc
 50
163.808648
 51
196.191352
  0
ARC
  5
516
100
AcDbEntity
  8
2
100
AcDbCircle
 10
84.926877
 20
-30.533977
 30
0.0
 40
1.6
100
AcDbArc
 50
90.0
 51
163.808648
  0
ARC
  5
517
100
AcDbEntity
  8
2
100
AcDbCircle
 10
84.926877
 20
-36.333977
 30
0.0
 40
1.6
100
AcDbArc
 50
196.191352
 51
270.0
  0
LINE
  5
518
100
AcDbEntity
  8
2
100
AcDbLine
 10
-299.285631
 20
285.466023
 30
0.0
 11
-299.285631
 21
286.766023
 31
0.0
  0
LINE
  5
519
100
AcDbEntity
  8
2
100
AcDbLine
 10
-308.485631
 20
285.466023
 30
0.0
 11
-308.485631
 21
286.766023
 31
0.0
  0
LINE
  5
51A
100
AcDbEntity
  8
2
100
AcDbLine
 10
-299.285631
 20
285.466023
 30
0.0
 11
-308.485631
 21
285.466023
 31
0.0
  0
LINE
  5
51B
100
AcDbEntity
  8
2
100
AcDbLine
 10
-299.385631
 20
284.178531
 30
0.0
 11
-299.385631
 21
285.466023
 31
0.0
  0
LINE
  5
51C
100
AcDbEntity
  8
2
100
AcDbLine
 10
-308.385631
 20
284.178531
 30
0.0
 11
-308.385631
 21
285.466023
 31
0.0
  0
ARC
  5
51D
100
AcDbEntity
  8
2
100
AcDbCircle
 10
-303.885631
 20
294.166023
 30
0.0
 40
12.0
100
AcDbArc
 50
253.808648
 51
286.191352
  0
ARC
  5
51E
100
AcDbEntity
  8
2
100
AcDbCircle
 10
-300.985631
 20
284.178531
 30
0.0
 40
1.6
100
AcDbArc
 50
286.191352
 51
360.0
  0
ARC
  5
51F
100
AcDbEntity
  8
2
100
AcDbCircle
 10
-306.785631
 20
284.178531
 30
0.0
 40
1.6
100
AcDbArc
 50
180.0
 51
253.808648
  0
LINE
  5
520
100
AcDbEntity
  8
2
100
AcDbLine
 10
-391.285631
 20
285.466023
 30
0.0
 11
-391.285631
 21
286.766023
 31
0.0
  0
LINE
  5
521
100
AcDbEntity
  8
2
100
AcDbLine
 10
-400.485631
 20
285.466023
 30
0.0
 11
-400.485631
 21
286.766023
 31
0.0
  0
LINE
  5
522
100
AcDbEntity
  8
2
100
AcDbLine
 10
-391.285631
 20
285.466023
 30
0.0
 11
-400.485631
 21
285.466023
 31
0.0
  0
LINE
  5
523
100
AcDbEntity
  8
2
100
AcDbLine
 10
-391.385631
 20
284.178531
 30
0.0
 11
-391.385631
 21
285.466023
 31
0.0
  0
LINE
  5
524
100
AcDbEntity
  8
2
100
AcDbLine
 10
-400.385631
 20
284.178531
 30
0.0
 11
-400.385631
 21
285.466023
 31
0.0
  0
ARC
  5
525
100
AcDbEntity
  8
2
100
AcDbCircle
 10
-395.885631
 20
294.166023
 30
0.0
 40
12.0
100
AcDbArc
 50
253.808648
 51
286.191352
  0
ARC
  5
526
100
AcDbEntity
  8
2
100
AcDbCircle
 10
-392.985631
 20
284.178531
 30
0.0
 40
1.6
100
AcDbArc
 50
286.191352
 51
360.0
  0
ARC
  5
527
100
AcDbEntity
  8
2
100
AcDbCircle
 10
-398.785631
 20
284.178531
 30
0.0
 40
1.6
100
AcDbArc
 50
180.0
 51
253.808648
  0
LINE
  5
528
100
AcDbEntity
  8
2
100
AcDbLine
 10
-501.285631
 20
285.466023
 30
0.0
 11
-501.285631
 21
286.766023
 31
0.0
  0
LINE
  5
529
100
AcDbEntity
  8
2
100
AcDbLine
 10
-510.485631
 20
285.466023
 30
0.0
 11
-510.485631
 21
286.766023
 31
0.0
  0
LINE
  5
52A
100
AcDbEntity
  8
2
100
AcDbLine
 10
-501.285631
 20
285.466023
 30
0.0
 11
-510.485631
 21
285.466023
 31
0.0
  0
LINE
  5
52B
100
AcDbEntity
  8
2
100
AcDbLine
 10
-501.385631
 20
284.178531
 30
0.0
 11
-501.385631
 21
285.466023
 31
0.0
  0
LINE
  5
52C
100
AcDbEntity
  8
2
100
AcDbLine
 10
-510.385631
 20
284.178531
 30
0.0
 11
-510.385631
 21
285.466023
 31
0.0
  0
ARC
  5
52D
100
AcDbEntity
  8
2
100
AcDbCircle
 10
-505.885631
 20
294.166023
 30
0.0
 40
12.0
100
AcDbArc
 50
253.808648
 51
286.191352
  0
ARC
  5
52E
100
AcDbEntity
  8
2
100
AcDbCircle
 10
-502.985631
 20
284.178531
 30
0.0
 40
1.6
100
AcDbArc
 50
286.191352
 51
360.0
  0
ARC
  5
52F
100
AcDbEntity
  8
2
100
AcDbCircle
 10
-508.785631
 20
284.178531
 30
0.0
 40
1.6
100
AcDbArc
 50
180.0
 51
253.808648
  0
LINE
  5
530
100
AcDbEntity
  8
2
100
AcDbLine
 10
-509.885631
 20
286.766023
 30
0.0
 11
-510.485631
 21
286.766023
 31
0.0
  0
LINE
  5
531
100
AcDbEntity
  8
2
100
AcDbLine
 10
-446.485631
 20
70.866023
 30
0.0
 11
-446.485631
 21
69.566023
 31
0.0
  0
LINE
  5
532
100
AcDbEntity
  8
2
100
AcDbLine
 10
-437.285631
 20
70.866023
 30
0.0
 11
-437.285631
 21
69.566023
 31
0.0
  0
LINE
  5
533
100
AcDbEntity
  8
2
100
AcDbLine
 10
-446.485631
 20
70.866023
 30
0.0
 11
-437.285631
 21
70.866023
 31
0.0
  0
LINE
  5
534
100
AcDbEntity
  8
2
100
AcDbLine
 10
-446.385631
 20
72.153516
 30
0.0
 11
-446.385631
 21
70.866023
 31
0.0
  0
LINE
  5
535
100
AcDbEntity
  8
2
100
AcDbLine
 10
-437.385631
 20
72.153516
 30
0.0
 11
-437.385631
 21
70.866023
 31
0.0
  0
ARC
  5
536
100
AcDbEntity
  8
2
100
AcDbCircle
 10
-441.885631
 20
62.166023
 30
0.0
 40
12.0
100
AcDbArc
 50
73.808648
 51
106.191352
  0
ARC
  5
537
100
AcDbEntity
  8
2
100
AcDbCircle
 10
-444.785631
 20
72.153516
 30
0.0
 40
1.6
100
AcDbArc
 50
106.191352
 51
180.0
  0
ARC
  5
538
100
AcDbEntity
  8
2
100
AcDbCircle
 10
-438.985631
 20
72.153516
 30
0.0
 40
1.6
100
AcDbArc
 50
0.0
 51
73.808648
  0
LINE
  5
539
100
AcDbEntity
  8
2
100
AcDbLine
 10
-300.485631
 20
70.866023
 30
0.0
 11
-300.485631
 21
69.566023
 31
0.0
  0
LINE
  5
53A
100
AcDbEntity
  8
2
100
AcDbLine
 10
-291.285631
 20
70.866023
 30
0.0
 11
-291.285631
 21
69.566023
 31
0.0
  0
LINE
  5
53B
100
AcDbEntity
  8
2
100
AcDbLine
 10
-300.485631
 20
70.866023
 30
0.0
 11
-291.285631
 21
70.866023
 31
0.0
  0
LINE
  5
53C
100
AcDbEntity
  8
2
100
AcDbLine
 10
-300.385631
 20
72.153516
 30
0.0
 11
-300.385631
 21
70.866023
 31
0.0
  0
LINE
  5
53D
100
AcDbEntity
  8
2
100
AcDbLine
 10
-291.385631
 20
72.153516
 30
0.0
 11
-291.385631
 21
70.866023
 31
0.0
  0
ARC
  5
53E
100
AcDbEntity
  8
2
100
AcDbCircle
 10
-295.885631
 20
62.166023
 30
0.0
 40
12.0
100
AcDbArc
 50
73.808648
 51
106.191352
  0
ARC
  5
53F
100
AcDbEntity
  8
2
100
AcDbCircle
 10
-298.785631
 20
72.153516
 30
0.0
 40
1.6
100
AcDbArc
 50
106.191352
 51
180.0
  0
ARC
  5
540
100
AcDbEntity
  8
2
100
AcDbCircle
 10
-292.985631
 20
72.153516
 30
0.0
 40
1.6
100
AcDbArc
 50
0.0
 51
73.808648
  0
LINE
  5
541
100
AcDbEntity
  8
2
100
AcDbLine
 10
-272.585631
 20
25.166023
 30
0.0
 11
-273.885631
 21
25.166023
 31
0.0
  0
LINE
  5
542
100
AcDbEntity
  8
2
100
AcDbLine
 10
-272.585631
 20
15.966023
 30
0.0
 11
-273.885631
 21
15.966023
 31
0.0
  0
LINE
  5
543
100
AcDbEntity
  8
2
100
AcDbLine
 10
-272.585631
 20
25.166023
 30
0.0
 11
-272.585631
 21
15.966023
 31
0.0
  0
LINE
  5
544
100
AcDbEntity
  8
2
100
AcDbLine
 10
-271.298139
 20
25.066023
 30
0.0
 11
-272.585631
 21
25.066023
 31
0.0
  0
LINE
  5
545
100
AcDbEntity
  8
2
100
AcDbLine
 10
-271.298139
 20
16.066023
 30
0.0
 11
-272.585631
 21
16.066023
 31
0.0
  0
ARC
  5
546
100
AcDbEntity
  8
2
100
AcDbCircle
 10
-281.285631
 20
20.566023
 30
0.0
 40
12.0
100
AcDbArc
 50
343.808648
 51
16.191352
  0
ARC
  5
547
100
AcDbEntity
  8
2
100
AcDbCircle
 10
-271.298139
 20
23.466023
 30
0.0
 40
1.6
100
AcDbArc
 50
16.191352
 51
90.0
  0
ARC
  5
548
100
AcDbEntity
  8
2
100
AcDbCircle
 10
-271.298139
 20
17.666023
 30
0.0
 40
1.6
100
AcDbArc
 50
270.0
 51
343.808648
  0
LINE
  5
549
100
AcDbEntity
  8
2
100
AcDbLine
 10
-272.585631
 20
-33.833977
 30
0.0
 11
-273.885631
 21
-33.833977
 31
0.0
  0
LINE
  5
54A
100
AcDbEntity
  8
2
100
AcDbLine
 10
-272.585631
 20
-43.033977
 30
0.0
 11
-273.885631
 21
-43.033977
 31
0.0
  0
LINE
  5
54B
100
AcDbEntity
  8
2
100
AcDbLine
 10
-272.585631
 20
-33.833977
 30
0.0
 11
-272.585631
 21
-43.033977
 31
0.0
  0
LINE
  5
54C
100
AcDbEntity
  8
2
100
AcDbLine
 10
-271.298139
 20
-33.933977
 30
0.0
 11
-272.585631
 21
-33.933977
 31
0.0
  0
LINE
  5
54D
100
AcDbEntity
  8
2
100
AcDbLine
 10
-271.298139
 20
-42.933977
 30
0.0
 11
-272.585631
 21
-42.933977
 31
0.0
  0
ARC
  5
54E
100
AcDbEntity
  8
2
100
AcDbCircle
 10
-281.285631
 20
-38.433977
 30
0.0
 40
12.0
100
AcDbArc
 50
343.808648
 51
16.191352
  0
ARC
  5
54F
100
AcDbEntity
  8
2
100
AcDbCircle
 10
-271.298139
 20
-35.533977
 30
0.0
 40
1.6
100
AcDbArc
 50
16.191352
 51
90.0
  0
ARC
  5
550
100
AcDbEntity
  8
2
100
AcDbCircle
 10
-271.298139
 20
-41.333977
 30
0.0
 40
1.6
100
AcDbArc
 50
270.0
 51
343.808648
  0
LINE
  5
551
100
AcDbEntity
  8
2
100
AcDbLine
 10
106.914369
 20
70.866023
 30
0.0
 11
106.914369
 21
69.566023
 31
0.0
  0
LINE
  5
552
100
AcDbEntity
  8
2
100
AcDbLine
 10
116.114369
 20
70.866023
 30
0.0
 11
116.114369
 21
69.566023
 31
0.0
  0
LINE
  5
553
100
AcDbEntity
  8
2
100
AcDbLine
 10
106.914369
 20
70.866023
 30
0.0
 11
116.114369
 21
70.866023
 31
0.0
  0
LINE
  5
554
100
AcDbEntity
  8
2
100
AcDbLine
 10
107.014369
 20
72.153516
 30
0.0
 11
107.014369
 21
70.866023
 31
0.0
  0
LINE
  5
555
100
AcDbEntity
  8
2
100
AcDbLine
 10
116.014369
 20
72.153516
 30
0.0
 11
116.014369
 21
70.866023
 31
0.0
  0
ARC
  5
556
100
AcDbEntity
  8
2
100
AcDbCircle
 10
111.514369
 20
62.166023
 30
0.0
 40
12.0
100
AcDbArc
 50
73.808648
 51
106.191352
  0
ARC
  5
557
100
AcDbEntity
  8
2
100
AcDbCircle
 10
108.614369
 20
72.153516
 30
0.0
 40
1.6
100
AcDbArc
 50
106.191352
 51
180.0
  0
ARC
  5
558
100
AcDbEntity
  8
2
100
AcDbCircle
 10
114.414369
 20
72.153516
 30
0.0
 40
1.6
100
AcDbArc
 50
0.0
 51
73.808648
  0
LINE
  5
559
100
AcDbEntity
  8
2
100
AcDbLine
 10
194.914369
 20
70.866023
 30
0.0
 11
194.914369
 21
69.566023
 31
0.0
  0
LINE
  5
55A
100
AcDbEntity
  8
2
100
AcDbLine
 10
204.114369
 20
70.866023
 30
0.0
 11
204.114369
 21
69.566023
 31
0.0
  0
LINE
  5
55B
100
AcDbEntity
  8
2
100
AcDbLine
 10
194.914369
 20
70.866023
 30
0.0
 11
204.114369
 21
70.866023
 31
0.0
  0
LINE
  5
55C
100
AcDbEntity
  8
2
100
AcDbLine
 10
195.014369
 20
72.153516
 30
0.0
 11
195.014369
 21
70.866023
 31
0.0
  0
LINE
  5
55D
100
AcDbEntity
  8
2
100
AcDbLine
 10
204.014369
 20
72.153516
 30
0.0
 11
204.014369
 21
70.866023
 31
0.0
  0
ARC
  5
55E
100
AcDbEntity
  8
2
100
AcDbCircle
 10
199.514369
 20
62.166023
 30
0.0
 40
12.0
100
AcDbArc
 50
73.808648
 51
106.191352
  0
ARC
  5
55F
100
AcDbEntity
  8
2
100
AcDbCircle
 10
196.614369
 20
72.153516
 30
0.0
 40
1.6
100
AcDbArc
 50
106.191352
 51
180.0
  0
ARC
  5
560
100
AcDbEntity
  8
2
100
AcDbCircle
 10
202.414369
 20
72.153516
 30
0.0
 40
1.6
100
AcDbArc
 50
0.0
 51
73.808648
  0
LINE
  5
561
100
AcDbEntity
  8
2
100
AcDbLine
 10
-272.585631
 20
311.366023
 30
0.0
 11
-273.885631
 21
311.366023
 31
0.0
  0
LINE
  5
562
100
AcDbEntity
  8
2
100
AcDbLine
 10
-272.585631
 20
302.166023
 30
0.0
 11
-273.885631
 21
302.166023
 31
0.0
  0
LINE
  5
563
100
AcDbEntity
  8
2
100
AcDbLine
 10
-272.585631
 20
311.366023
 30
0.0
 11
-272.585631
 21
302.166023
 31
0.0
  0
LINE
  5
564
100
AcDbEntity
  8
2
100
AcDbLine
 10
-271.298139
 20
311.266023
 30
0.0
 11
-272.585631
 21
311.266023
 31
0.0
  0
LINE
  5
565
100
AcDbEntity
  8
2
100
AcDbLine
 10
-271.298139
 20
302.266023
 30
0.0
 11
-272.585631
 21
302.266023
 31
0.0
  0
ARC
  5
566
100
AcDbEntity
  8
2
100
AcDbCircle
 10
-281.285631
 20
306.766023
 30
0.0
 40
12.0
100
AcDbArc
 50
343.808648
 51
16.191352
  0
ARC
  5
567
100
AcDbEntity
  8
2
100
AcDbCircle
 10
-271.298139
 20
309.666023
 30
0.0
 40
1.6
100
AcDbArc
 50
16.191352
 51
90.0
  0
ARC
  5
568
100
AcDbEntity
  8
2
100
AcDbCircle
 10
-271.298139
 20
303.866023
 30
0.0
 40
1.6
100
AcDbArc
 50
270.0
 51
343.808648
  0
LINE
  5
569
100
AcDbEntity
  8
2
100
AcDbLine
 10
-272.585631
 20
402.366023
 30
0.0
 11
-273.885631
 21
402.366023
 31
0.0
  0
LINE
  5
56A
100
AcDbEntity
  8
2
100
AcDbLine
 10
-272.585631
 20
393.166023
 30
0.0
 11
-273.885631
 21
393.166023
 31
0.0
  0
LINE
  5
56B
100
AcDbEntity
  8
2
100
AcDbLine
 10
-272.585631
 20
402.366023
 30
0.0
 11
-272.585631
 21
393.166023
 31
0.0
  0
LINE
  5
56C
100
AcDbEntity
  8
2
100
AcDbLine
 10
-271.298139
 20
402.266023
 30
0.0
 11
-272.585631
 21
402.266023
 31
0.0
  0
LINE
  5
56D
100
AcDbEntity
  8
2
100
AcDbLine
 10
-271.298139
 20
393.266023
 30
0.0
 11
-272.585631
 21
393.266023
 31
0.0
  0
ARC
  5
56E
100
AcDbEntity
  8
2
100
AcDbCircle
 10
-281.285631
 20
397.766023
 30
0.0
 40
12.0
100
AcDbArc
 50
343.808648
 51
16.191352
  0
ARC
  5
56F
100
AcDbEntity
  8
2
100
AcDbCircle
 10
-271.298139
 20
400.666023
 30
0.0
 40
1.6
100
AcDbArc
 50
16.191352
 51
90.0
  0
ARC
  5
570
100
AcDbEntity
  8
2
100
AcDbCircle
 10
-271.298139
 20
394.866023
 30
0.0
 40
1.6
100
AcDbArc
 50
270.0
 51
343.808648
  0
CIRCLE
  5
571
100
AcDbEntity
  8
2
100
AcDbCircle
 10
-505.885631
 20
0.566023
 30
0.0
 40
4.5
  0
CIRCLE
  5
572
100
AcDbEntity
  8
2
100
AcDbCircle
 10
-395.885631
 20
49.566023
 30
0.0
 40
4.5
  0
CIRCLE
  5
573
100
AcDbEntity
  8
2
100
AcDbCircle
 10
-395.885631
 20
-35.433977
 30
0.0
 40
4.5
  0
CIRCLE
  5
574
100
AcDbEntity
  8
2
100
AcDbCircle
 10
-303.885631
 20
50.566023
 30
0.0
 40
4.5
  0
CIRCLE
  5
575
100
AcDbEntity
  8
2
100
AcDbCircle
 10
-300.885631
 20
-33.433977
 30
0.0
 40
4.5
  0
CIRCLE
  5
576
100
AcDbEntity
  8
2
100
AcDbCircle
 10
107.514369
 20
20.566023
 30
0.0
 40
4.5
  0
CIRCLE
  5
577
100
AcDbEntity
  8
2
100
AcDbCircle
 10
198.514369
 20
20.566023
 30
0.0
 40
4.5
  0
CIRCLE
  5
578
100
AcDbEntity
  8
2
100
AcDbCircle
 10
107.514369
 20
-38.433977
 30
0.0
 40
4.5
  0
CIRCLE
  5
579
100
AcDbEntity
  8
2
100
AcDbCircle
 10
198.514369
 20
-38.433977
 30
0.0
 40
4.5
  0
CIRCLE
  5
57A
100
AcDbEntity
  8
2
100
AcDbCircle
 10
-295.885631
 20
310.766023
 30
0.0
 40
4.5
  0
CIRCLE
  5
57B
100
AcDbEntity
  8
2
100
AcDbCircle
 10
-295.885631
 20
398.766023
 30
0.0
 40
4.5
  0
CIRCLE
  5
57C
100
AcDbEntity
  8
2
100
AcDbCircle
 10
-441.885631
 20
310.766023
 30
0.0
 40
4.5
  0
CIRCLE
  5
57D
100
AcDbEntity
  8
2
100
AcDbCircle
 10
-441.885631
 20
398.766023
 30
0.0
 40
4.5
  0
CIRCLE
  5
57E
100
AcDbEntity
  8
2
100
AcDbCircle
 10
-348.369127
 20
325.249519
 30
0.0
 40
3.5
  0
CIRCLE
  5
57F
100
AcDbEntity
  8
2
100
AcDbCircle
 10
-348.369127
 20
378.282528
 30
0.0
 40
3.5
  0
CIRCLE
  5
580
100
AcDbEntity
  8
2
100
AcDbCircle
 10
-401.402135
 20
325.249519
 30
0.0
 40
3.5
  0
CIRCLE
  5
581
100
AcDbEntity
  8
2
100
AcDbCircle
 10
-401.402135
 20
378.282528
 30
0.0
 40
3.5
  0
LINE
  5
582
100
AcDbEntity
  8
2
100
AcDbLine
 10
-344.569127
 20
88.766023
 30
0.0
 11
-352.169127
 21
88.766023
 31
0.0
  0
LINE
  5
583
100
AcDbEntity
  8
2
100
AcDbLine
 10
-344.569127
 20
88.766023
 30
0.0
 11
-344.569127
 21
87.766023
 31
0.0
  0
LINE
  5
584
100
AcDbEntity
  8
2
100
AcDbLine
 10
-352.169127
 20
88.766023
 30
0.0
 11
-352.169127
 21
87.766023
 31
0.0
  0
LINE
  5
585
100
AcDbEntity
  8
2
100
AcDbLine
 10
-344.869127
 20
89.745048
 30
0.0
 11
-344.869127
 21
88.766023
 31
0.0
  0
LINE
  5
586
100
AcDbEntity
  8
2
100
AcDbLine
 10
-351.869127
 20
89.745048
 30
0.0
 11
-351.869127
 21
88.766023
 31
0.0
  0
ARC
  5
587
100
AcDbEntity
  8
2
100
AcDbCircle
 10
-348.369127
 20
82.366023
 30
0.0
 40
9.0
100
AcDbArc
 50
73.39845
 51
106.60155
  0
ARC
  5
588
100
AcDbEntity
  8
2
100
AcDbCircle
 10
-346.169127
 20
89.745048
 30
0.0
 40
1.3
100
AcDbArc
 50
0.0
 51
73.39845
  0
ARC
  5
589
100
AcDbEntity
  8
2
100
AcDbCircle
 10
-350.569127
 20
89.745048
 30
0.0
 40
1.3
100
AcDbArc
 50
106.60155
 51
180.0
  0
LINE
  5
58A
100
AcDbEntity
  8
2
100
AcDbLine
 10
-397.602135
 20
88.766023
 30
0.0
 11
-405.202135
 21
88.766023
 31
0.0
  0
LINE
  5
58B
100
AcDbEntity
  8
2
100
AcDbLine
 10
-397.602135
 20
88.766023
 30
0.0
 11
-397.602135
 21
87.766023
 31
0.0
  0
LINE
  5
58C
100
AcDbEntity
  8
2
100
AcDbLine
 10
-405.202135
 20
88.766023
 30
0.0
 11
-405.202135
 21
87.766023
 31
0.0
  0
LINE
  5
58D
100
AcDbEntity
  8
2
100
AcDbLine
 10
-397.902135
 20
89.745048
 30
0.0
 11
-397.902135
 21
88.766023
 31
0.0
  0
LINE
  5
58E
100
AcDbEntity
  8
2
100
AcDbLine
 10
-404.902135
 20
89.745048
 30
0.0
 11
-404.902135
 21
88.766023
 31
0.0
  0
ARC
  5
58F
100
AcDbEntity
  8
2
100
AcDbCircle
 10
-401.402135
 20
82.366023
 30
0.0
 40
9.0
100
AcDbArc
 50
73.39845
 51
106.60155
  0
ARC
  5
590
100
AcDbEntity
  8
2
100
AcDbCircle
 10
-399.202135
 20
89.745048
 30
0.0
 40
1.3
100
AcDbArc
 50
0.0
 51
73.39845
  0
ARC
  5
591
100
AcDbEntity
  8
2
100
AcDbCircle
 10
-403.602135
 20
89.745048
 30
0.0
 40
1.3
100
AcDbArc
 50
106.60155
 51
180.0
  0
LINE
  5
592
100
AcDbEntity
  8
2
100
AcDbLine
 10
129.797865
 20
88.766023
 30
0.0
 11
122.197865
 21
88.766023
 31
0.0
  0
LINE
  5
593
100
AcDbEntity
  8
2
100
AcDbLine
 10
129.797865
 20
88.766023
 30
0.0
 11
129.797865
 21
87.766023
 31
0.0
  0
LINE
  5
594
100
AcDbEntity
  8
2
100
AcDbLine
 10
122.197865
 20
88.766023
 30
0.0
 11
122.197865
 21
87.766023
 31
0.0
  0
LINE
  5
595
100
AcDbEntity
  8
2
100
AcDbLine
 10
129.497865
 20
89.745048
 30
0.0
 11
129.497865
 21
88.766023
 31
0.0
  0
LINE
  5
596
100
AcDbEntity
  8
2
100
AcDbLine
 10
122.497865
 20
89.745048
 30
0.0
 11
122.497865
 21
88.766023
 31
0.0
  0
ARC
  5
597
100
AcDbEntity
  8
2
100
AcDbCircle
 10
125.997865
 20
82.366023
 30
0.0
 40
9.0
100
AcDbArc
 50
73.39845
 51
106.60155
  0
ARC
  5
598
100
AcDbEntity
  8
2
100
AcDbCircle
 10
128.197865
 20
89.745048
 30
0.0
 40
1.3
100
AcDbArc
 50
0.0
 51
73.39845
  0
ARC
  5
599
100
AcDbEntity
  8
2
100
AcDbCircle
 10
123.797865
 20
89.745048
 30
0.0
 40
1.3
100
AcDbArc
 50
106.60155
 51
180.0
  0
LINE
  5
59A
100
AcDbEntity
  8
2
100
AcDbLine
 10
182.830873
 20
88.766023
 30
0.0
 11
175.230873
 21
88.766023
 31
0.0
  0
LINE
  5
59B
100
AcDbEntity
  8
2
100
AcDbLine
 10
182.830873
 20
88.766023
 30
0.0
 11
182.830873
 21
87.766023
 31
0.0
  0
LINE
  5
59C
100
AcDbEntity
  8
2
100
AcDbLine
 10
175.230873
 20
88.766023
 30
0.0
 11
175.230873
 21
87.766023
 31
0.0
  0
LINE
  5
59D
100
AcDbEntity
  8
2
100
AcDbLine
 10
182.530873
 20
89.745048
 30
0.0
 11
182.530873
 21
88.766023
 31
0.0
  0
LINE
  5
59E
100
AcDbEntity
  8
2
100
AcDbLine
 10
175.530873
 20
89.745048
 30
0.0
 11
175.530873
 21
88.766023
 31
0.0
  0
ARC
  5
59F
100
AcDbEntity
  8
2
100
AcDbCircle
 10
179.030873
 20
82.366023
 30
0.0
 40
9.0
100
AcDbArc
 50
73.39845
 51
106.60155
  0
ARC
  5
5A0
100
AcDbEntity
  8
2
100
AcDbCircle
 10
181.230873
 20
89.745048
 30
0.0
 40
1.3
100
AcDbArc
 50
0.0
 51
73.39845
  0
ARC
  5
5A1
100
AcDbEntity
  8
2
100
AcDbCircle
 10
176.830873
 20
89.745048
 30
0.0
 40
1.3
100
AcDbArc
 50
106.60155
 51
180.0
  0
LINE
  5
5A2
100
AcDbEntity
  8
2
100
AcDbLine
 10
-310.785631
 20
-49.933977
 30
0.0
 11
-322.985631
 21
-49.933977
 31
0.0
  0
LINE
  5
5A3
100
AcDbEntity
  8
2
100
AcDbLine
 10
-322.985631
 20
-49.933977
 30
0.0
 11
-322.985631
 21
-48.433977
 31
0.0
  0
LINE
  5
5A4
100
AcDbEntity
  8
2
100
AcDbLine
 10
-310.785631
 20
-49.933977
 30
0.0
 11
-310.785631
 21
-48.433977
 31
0.0
  0
LINE
  5
5A5
100
AcDbEntity
  8
2
100
AcDbLine
 10
-311.635631
 20
-51.460992
 30
0.0
 11
-311.635631
 21
-49.933977
 31
0.0
  0
LINE
  5
5A6
100
AcDbEntity
  8
2
100
AcDbLine
 10
-322.135631
 20
-51.460992
 30
0.0
 11
-322.135631
 21
-49.933977
 31
0.0
  0
ARC
  5
5A7
100
AcDbEntity
  8
2
100
AcDbCircle
 10
-316.885631
 20
-39.833977
 30
0.0
 40
14.0
100
AcDbArc
 50
253.927141
 51
286.072859
  0
ARC
  5
5A8
100
AcDbEntity
  8
2
100
AcDbCircle
 10
-313.535631
 20
-51.460992
 30
0.0
 40
1.9
100
AcDbArc
 50
286.072859
 51
360.0
  0
ARC
  5
5A9
100
AcDbEntity
  8
2
100
AcDbCircle
 10
-320.235631
 20
-51.460992
 30
0.0
 40
1.9
100
AcDbArc
 50
180.0
 51
253.927141
  0
LINE
  5
5AA
100
AcDbEntity
  8
2
100
AcDbLine
 10
-402.785631
 20
-49.933977
 30
0.0
 11
-414.985631
 21
-49.933977
 31
0.0
  0
LINE
  5
5AB
100
AcDbEntity
  8
2
100
AcDbLine
 10
-414.985631
 20
-49.933977
 30
0.0
 11
-414.985631
 21
-48.433977
 31
0.0
  0
LINE
  5
5AC
100
AcDbEntity
  8
2
100
AcDbLine
 10
-402.785631
 20
-49.933977
 30
0.0
 11
-402.785631
 21
-48.433977
 31
0.0
  0
LINE
  5
5AD
100
AcDbEntity
  8
2
100
AcDbLine
 10
-403.635631
 20
-51.460992
 30
0.0
 11
-403.635631
 21
-49.933977
 31
0.0
  0
LINE
  5
5AE
100
AcDbEntity
  8
2
100
AcDbLine
 10
-414.135631
 20
-51.460992
 30
0.0
 11
-414.135631
 21
-49.933977
 31
0.0
  0
ARC
  5
5AF
100
AcDbEntity
  8
2
100
AcDbCircle
 10
-408.885631
 20
-39.833977
 30
0.0
 40
14.0
100
AcDbArc
 50
253.927141
 51
286.072859
  0
ARC
  5
5B0
100
AcDbEntity
  8
2
100
AcDbCircle
 10
-405.535631
 20
-51.460992
 30
0.0
 40
1.9
100
AcDbArc
 50
286.072859
 51
360.0
  0
ARC
  5
5B1
100
AcDbEntity
  8
2
100
AcDbCircle
 10
-412.235631
 20
-51.460992
 30
0.0
 40
1.9
100
AcDbArc
 50
180.0
 51
253.927141
  0
LINE
  5
5B2
100
AcDbEntity
  8
2
100
AcDbLine
 10
-498.785631
 20
-49.933977
 30
0.0
 11
-510.985631
 21
-49.933977
 31
0.0
  0
LINE
  5
5B3
100
AcDbEntity
  8
2
100
AcDbLine
 10
-510.985631
 20
-49.933977
 30
0.0
 11
-510.985631
 21
-48.433977
 31
0.0
  0
LINE
  5
5B4
100
AcDbEntity
  8
2
100
AcDbLine
 10
-498.785631
 20
-49.933977
 30
0.0
 11
-498.785631
 21
-48.433977
 31
0.0
  0
LINE
  5
5B5
100
AcDbEntity
  8
2
100
AcDbLine
 10
-499.635631
 20
-51.460992
 30
0.0
 11
-499.635631
 21
-49.933977
 31
0.0
  0
LINE
  5
5B6
100
AcDbEntity
  8
2
100
AcDbLine
 10
-510.135631
 20
-51.460992
 30
0.0
 11
-510.135631
 21
-49.933977
 31
0.0
  0
ARC
  5
5B7
100
AcDbEntity
  8
2
100
AcDbCircle
 10
-504.885631
 20
-39.833977
 30
0.0
 40
14.0
100
AcDbArc
 50
253.927141
 51
286.072859
  0
ARC
  5
5B8
100
AcDbEntity
  8
2
100
AcDbCircle
 10
-501.535631
 20
-51.460992
 30
0.0
 40
1.9
100
AcDbArc
 50
286.072859
 51
360.0
  0
ARC
  5
5B9
100
AcDbEntity
  8
2
100
AcDbCircle
 10
-508.235631
 20
-51.460992
 30
0.0
 40
1.9
100
AcDbArc
 50
180.0
 51
253.927141
  0
LINE
  5
5BA
100
AcDbEntity
  8
2
100
AcDbLine
 10
115.614369
 20
-49.933977
 30
0.0
 11
103.414369
 21
-49.933977
 31
0.0
  0
LINE
  5
5BB
100
AcDbEntity
  8
2
100
AcDbLine
 10
103.414369
 20
-49.933977
 30
0.0
 11
103.414369
 21
-48.433977
 31
0.0
  0
LINE
  5
5BC
100
AcDbEntity
  8
2
100
AcDbLine
 10
115.614369
 20
-49.933977
 30
0.0
 11
115.614369
 21
-48.433977
 31
0.0
  0
LINE
  5
5BD
100
AcDbEntity
  8
2
100
AcDbLine
 10
114.764369
 20
-51.460992
 30
0.0
 11
114.764369
 21
-49.933977
 31
0.0
  0
LINE
  5
5BE
100
AcDbEntity
  8
2
100
AcDbLine
 10
104.264369
 20
-51.460992
 30
0.0
 11
104.264369
 21
-49.933977
 31
0.0
  0
ARC
  5
5BF
100
AcDbEntity
  8
2
100
AcDbCircle
 10
109.514369
 20
-39.833977
 30
0.0
 40
14.0
100
AcDbArc
 50
253.927141
 51
286.072859
  0
ARC
  5
5C0
100
AcDbEntity
  8
2
100
AcDbCircle
 10
112.864369
 20
-51.460992
 30
0.0
 40
1.9
100
AcDbArc
 50
286.072859
 51
360.0
  0
ARC
  5
5C1
100
AcDbEntity
  8
2
100
AcDbCircle
 10
106.164369
 20
-51.460992
 30
0.0
 40
1.9
100
AcDbArc
 50
180.0
 51
253.927141
  0
LINE
  5
5C2
100
AcDbEntity
  8
2
100
AcDbLine
 10
202.614369
 20
-49.933977
 30
0.0
 11
190.414369
 21
-49.933977
 31
0.0
  0
LINE
  5
5C3
100
AcDbEntity
  8
2
100
AcDbLine
 10
190.414369
 20
-49.933977
 30
0.0
 11
190.414369
 21
-48.433977
 31
0.0
  0
LINE
  5
5C4
100
AcDbEntity
  8
2
100
AcDbLine
 10
202.614369
 20
-49.933977
 30
0.0
 11
202.614369
 21
-48.433977
 31
0.0
  0
LINE
  5
5C5
100
AcDbEntity
  8
2
100
AcDbLine
 10
201.764369
 20
-51.460992
 30
0.0
 11
201.764369
 21
-49.933977
 31
0.0
  0
LINE
  5
5C6
100
AcDbEntity
  8
2
100
AcDbLine
 10
191.264369
 20
-51.460992
 30
0.0
 11
191.264369
 21
-49.933977
 31
0.0
  0
ARC
  5
5C7
100
AcDbEntity
  8
2
100
AcDbCircle
 10
196.514369
 20
-39.833977
 30
0.0
 40
14.0
100
AcDbArc
 50
253.927141
 51
286.072859
  0
ARC
  5
5C8
100
AcDbEntity
  8
2
100
AcDbCircle
 10
199.864369
 20
-51.460992
 30
0.0
 40
1.9
100
AcDbArc
 50
286.072859
 51
360.0
  0
ARC
  5
5C9
100
AcDbEntity
  8
2
100
AcDbCircle
 10
193.164369
 20
-51.460992
 30
0.0
 40
1.9
100
AcDbArc
 50
180.0
 51
253.927141
  0
LINE
  5
5CA
100
AcDbEntity
  8
2
100
AcDbLine
 10
-390.54366
 20
278.283423
 30
0.0
 11
-390.54366
 21
286.766023
 31
0.0
  0
LINE
  5
5CB
100
AcDbEntity
  8
2
100
AcDbLine
 10
-400.810459
 20
278.283423
 30
0.0
 11
-400.810459
 21
286.766023
 31
0.0
  0
ARC
  5
5CC
100
AcDbEntity
  8
2
100
AcDbCircle
 10
-395.677059
 20
278.283423
 30
0.0
 40
5.133399
100
AcDbArc
 50
180.0
 51
360.0
  0
LINE
  5
5CD
100
AcDbEntity
  8
2
100
AcDbLine
 10
-302.117864
 20
52.33379
 30
0.0
 11
-305.653398
 21
48.798257
 31
0.0
  0
LINE
  5
5CE
100
AcDbEntity
  8
2
100
AcDbLine
 10
-305.653398
 20
52.33379
 30
0.0
 11
-302.117864
 21
48.798257
 31
0.0
  0
LINE
  5
5CF
100
AcDbEntity
  8
2
100
AcDbLine
 10
-394.117864
 20
51.33379
 30
0.0
 11
-397.653398
 21
47.798257
 31
0.0
  0
LINE
  5
5D0
100
AcDbEntity
  8
2
100
AcDbLine
 10
-397.653398
 20
51.33379
 30
0.0
 11
-394.117864
 21
47.798257
 31
0.0
  0
LINE
  5
5D1
100
AcDbEntity
  8
2
100
AcDbLine
 10
-299.117864
 20
-31.66621
 30
0.0
 11
-302.653398
 21
-35.201743
 31
0.0
  0
LINE
  5
5D2
100
AcDbEntity
  8
2
100
AcDbLine
 10
-302.653398
 20
-31.66621
 30
0.0
 11
-299.117864
 21
-35.201743
 31
0.0
  0
LINE
  5
5D3
100
AcDbEntity
  8
2
100
AcDbLine
 10
-394.117864
 20
-33.66621
 30
0.0
 11
-397.653398
 21
-37.201743
 31
0.0
  0
LINE
  5
5D4
100
AcDbEntity
  8
2
100
AcDbLine
 10
-397.653398
 20
-33.66621
 30
0.0
 11
-394.117864
 21
-37.201743
 31
0.0
  0
LINE
  5
5D5
100
AcDbEntity
  8
2
100
AcDbLine
 10
-504.117864
 20
2.269663
 30
0.0
 11
-507.653398
 21
-1.265871
 31
0.0
  0
LINE
  5
5D6
100
AcDbEntity
  8
2
100
AcDbLine
 10
-507.653398
 20
2.269663
 30
0.0
 11
-504.117864
 21
-1.265871
 31
0.0
  0
LINE
  5
5D7
100
AcDbEntity
  8
2
100
AcDbLine
 10
200.282136
 20
22.33379
 30
0.0
 11
196.746602
 21
18.798257
 31
0.0
  0
LINE
  5
5D8
100
AcDbEntity
  8
2
100
AcDbLine
 10
196.746602
 20
22.33379
 30
0.0
 11
200.282136
 21
18.798257
 31
0.0
  0
LINE
  5
5D9
100
AcDbEntity
  8
2
100
AcDbLine
 10
109.282136
 20
22.33379
 30
0.0
 11
105.746602
 21
18.798257
 31
0.0
  0
LINE
  5
5DA
100
AcDbEntity
  8
2
100
AcDbLine
 10
105.746602
 20
22.33379
 30
0.0
 11
109.282136
 21
18.798257
 31
0.0
  0
LINE
  5
5DB
100
AcDbEntity
  8
2
100
AcDbLine
 10
200.282136
 20
-36.66621
 30
0.0
 11
196.746602
 21
-40.201743
 31
0.0
  0
LINE
  5
5DC
100
AcDbEntity
  8
2
100
AcDbLine
 10
196.746602
 20
-36.66621
 30
0.0
 11
200.282136
 21
-40.201743
 31
0.0
  0
LINE
  5
5DD
100
AcDbEntity
  8
2
100
AcDbLine
 10
109.282136
 20
-36.66621
 30
0.0
 11
105.746602
 21
-40.201743
 31
0.0
  0
LINE
  5
5DE
100
AcDbEntity
  8
2
100
AcDbLine
 10
105.746602
 20
-36.66621
 30
0.0
 11
109.282136
 21
-40.201743
 31
0.0
  0
LINE
  5
5DF
100
AcDbEntity
  8
2
100
AcDbLine
 10
-350.869127
 20
378.282528
 30
0.0
 11
-345.869127
 21
378.282528
 31
0.0
  0
LINE
  5
5E0
100
AcDbEntity
  8
2
100
AcDbLine
 10
-348.369127
 20
375.782528
 30
0.0
 11
-348.369127
 21
380.782528
 31
0.0
  0
LINE
  5
5E1
100
AcDbEntity
  8
2
100
AcDbLine
 10
-350.869127
 20
325.249519
 30
0.0
 11
-345.869127
 21
325.249519
 31
0.0
  0
LINE
  5
5E2
100
AcDbEntity
  8
2
100
AcDbLine
 10
-348.369127
 20
322.749519
 30
0.0
 11
-348.369127
 21
327.749519
 31
0.0
  0
LINE
  5
5E3
100
AcDbEntity
  8
2
100
AcDbLine
 10
-403.902135
 20
378.282528
 30
0.0
 11
-398.902135
 21
378.282528
 31
0.0
  0
LINE
  5
5E4
100
AcDbEntity
  8
2
100
AcDbLine
 10
-401.402135
 20
375.782528
 30
0.0
 11
-401.402135
 21
380.782528
 31
0.0
  0
LINE
  5
5E5
100
AcDbEntity
  8
2
100
AcDbLine
 10
-403.902135
 20
325.249519
 30
0.0
 11
-398.902135
 21
325.249519
 31
0.0
  0
LINE
  5
5E6
100
AcDbEntity
  8
2
100
AcDbLine
 10
-401.402135
 20
322.749519
 30
0.0
 11
-401.402135
 21
327.749519
 31
0.0
  0
LINE
  5
5E7
100
AcDbEntity
  8
2
100
AcDbLine
 10
-294.117864
 20
400.53379
 30
0.0
 11
-297.653398
 21
396.998257
 31
0.0
  0
LINE
  5
5E8
100
AcDbEntity
  8
2
100
AcDbLine
 10
-297.653398
 20
400.53379
 30
0.0
 11
-294.117864
 21
396.998257
 31
0.0
  0
LINE
  5
5E9
100
AcDbEntity
  8
2
100
AcDbLine
 10
-294.117864
 20
312.53379
 30
0.0
 11
-297.653398
 21
308.998257
 31
0.0
  0
LINE
  5
5EA
100
AcDbEntity
  8
2
100
AcDbLine
 10
-297.653398
 20
312.53379
 30
0.0
 11
-294.117864
 21
308.998257
 31
0.0
  0
LINE
  5
5EB
100
AcDbEntity
  8
2
100
AcDbLine
 10
-440.117864
 20
400.53379
 30
0.0
 11
-443.653398
 21
396.998257
 31
0.0
  0
LINE
  5
5EC
100
AcDbEntity
  8
2
100
AcDbLine
 10
-443.653398
 20
400.53379
 30
0.0
 11
-440.117864
 21
396.998257
 31
0.0
  0
LINE
  5
5ED
100
AcDbEntity
  8
2
100
AcDbLine
 10
-294.117864
 20
312.53379
 30
0.0
 11
-297.653398
 21
308.998257
 31
0.0
  0
LINE
  5
5EE
100
AcDbEntity
  8
2
100
AcDbLine
 10
-297.653398
 20
312.53379
 30
0.0
 11
-294.117864
 21
308.998257
 31
0.0
  0
LINE
  5
5EF
100
AcDbEntity
  8
2
100
AcDbLine
 10
-440.117864
 20
312.53379
 30
0.0
 11
-443.653398
 21
308.998257
 31
0.0
  0
LINE
  5
5F0
100
AcDbEntity
  8
2
100
AcDbLine
 10
-443.653398
 20
312.53379
 30
0.0
 11
-440.117864
 21
308.998257
 31
0.0
  0
TEXT
  5
5F1
100
AcDbEntity
  8
2
100
AcDbText
 10
-319.938905
 20
3.345843
 30
0.0
 40
7.0
  1
Ｓ
 50
265.0
 72
     5
 11
-320.426977
 21
-2.232847
 31
0.0
100
AcDbText
  0
TEXT
  5
5F2
100
AcDbEntity
  8
2
100
AcDbText
 10
-369.466145
 20
328.75235
 30
0.0
 40
7.6
  1
Ｓ
 50
22.5
 72
     5
 11
-363.848958
 21
331.079065
 31
0.0
100
AcDbText
  0
TEXT
  5
5F3
100
AcDbEntity
  8
2
100
AcDbText
 10
-380.305116
 20
374.779697
 30
0.0
 40
7.6
  1
Ｓ
 50
202.5
 72
     5
 11
-385.922304
 21
372.452982
 31
0.0
100
AcDbText
  0
TEXT
  5
5F4
100
AcDbEntity
  8
2
100
AcDbText
 10
-368.640698
 20
86.973441
 30
0.0
 40
7.6
  1
Ｓ
 50
31.641
 72
     5
 11
-363.464479
 21
90.16298
 31
0.0
100
AcDbText
  0
LINE
  5
5F5
100
AcDbEntity
  8
3
100
AcDbLine
 10
-449.885631
 20
-144.433977
 30
0.0
 11
-449.885631
 21
-59.433977
 31
0.0
  0
LINE
  5
5F6
100
AcDbEntity
  8
3
100
AcDbLine
 10
-299.885631
 20
-144.433977
 30
0.0
 11
-299.885631
 21
-59.433977
 31
0.0
  0
LINE
  5
5F7
100
AcDbEntity
  8
3
100
AcDbLine
 10
-440.885631
 20
-56.433977
 30
0.0
 11
-308.885631
 21
-56.433977
 31
0.0
  0
LINE
  5
5F8
100
AcDbEntity
  8
3
100
AcDbLine
 10
-311.885631
 20
-156.433977
 30
0.0
 11
-437.885631
 21
-156.433977
 31
0.0
  0
LINE
  5
5F9
100
AcDbEntity
  8
3
100
AcDbLine
 10
101.514369
 20
-156.433977
 30
0.0
 11
203.514369
 21
-156.433977
 31
0.0
  0
LINE
  5
5FA
100
AcDbEntity
  8
3
100
AcDbLine
 10
101.514369
 20
-56.433977
 30
0.0
 11
203.514369
 21
-56.433977
 31
0.0
  0
LINE
  5
5FB
100
AcDbEntity
  8
3
100
AcDbLine
 10
203.514369
 20
-56.433977
 30
0.0
 11
203.514369
 21
-156.433977
 31
0.0
  0
LINE
  5
5FC
100
AcDbEntity
  8
3
100
AcDbLine
 10
101.514369
 20
-56.433977
 30
0.0
 11
101.514369
 21
-156.433977
 31
0.0
  0
LINE
  5
5FD
100
AcDbEntity
  8
3
100
AcDbLine
 10
-311.885631
 20
-147.433977
 30
0.0
 11
-437.885631
 21
-147.433977
 31
0.0
  0
LINE
  5
5FE
100
AcDbEntity
  8
3
100
AcDbLine
 10
-440.885631
 20
-144.433977
 30
0.0
 11
-440.885631
 21
-56.433977
 31
0.0
  0
LINE
  5
5FF
100
AcDbEntity
  8
3
100
AcDbLine
 10
-308.885631
 20
-144.433977
 30
0.0
 11
-308.885631
 21
-56.433977
 31
0.0
  0
LINE
  5
600
100
AcDbEntity
  8
3
100
AcDbLine
 10
-440.885631
 20
-62.433977
 30
0.0
 11
-308.885631
 21
-62.433977
 31
0.0
  0
LINE
  5
601
100
AcDbEntity
  8
3
100
AcDbLine
 10
-449.885631
 20
-59.433977
 30
0.0
 11
-440.885631
 21
-59.433977
 31
0.0
  0
LINE
  5
602
100
AcDbEntity
  8
3
100
AcDbLine
 10
-308.885631
 20
-59.433977
 30
0.0
 11
-299.885631
 21
-59.433977
 31
0.0
  0
ARC
  5
603
100
AcDbEntity
  8
3
100
AcDbCircle
 10
-311.885631
 20
-144.433977
 30
0.0
 40
3.0
100
AcDbArc
 50
270.0
 51
360.0
  0
ARC
  5
604
100
AcDbEntity
  8
3
100
AcDbCircle
 10
-437.885631
 20
-144.433977
 30
0.0
 40
3.0
100
AcDbArc
 50
180.0
 51
270.0
  0
ARC
  5
605
100
AcDbEntity
  8
3
100
AcDbCircle
 10
-437.885631
 20
-144.433977
 30
0.0
 40
12.0
100
AcDbArc
 50
180.0
 51
270.0
  0
ARC
  5
606
100
AcDbEntity
  8
3
100
AcDbCircle
 10
-311.885631
 20
-144.433977
 30
0.0
 40
12.0
100
AcDbArc
 50
270.0
 51
360.0
  0
LINE
  5
607
100
AcDbEntity
  8
3
100
AcDbLine
 10
101.514369
 20
-59.433977
 30
0.0
 11
203.514369
 21
-59.433977
 31
0.0
  0
LINE
  5
608
100
AcDbEntity
  8
3
100
AcDbLine
 10
-308.885631
 20
-56.433977
 30
0.0
 11
-305.885631
 21
-59.433977
 31
0.0
  0
LINE
  5
609
100
AcDbEntity
  8
3
100
AcDbLine
 10
-440.885631
 20
-56.433977
 30
0.0
 11
-443.885631
 21
-59.433977
 31
0.0
  0
LINE
  5
60A
100
AcDbEntity
  8
3
100
AcDbLine
 10
-308.885631
 20
-67.433977
 30
0.0
 11
-313.885631
 21
-62.433977
 31
0.0
  0
LINE
  5
60B
100
AcDbEntity
  8
3
100
AcDbLine
 10
-440.885631
 20
-67.433977
 30
0.0
 11
-435.885631
 21
-62.433977
 31
0.0
  0
LINE
  5
60C
100
AcDbEntity
  8
3
100
AcDbLine
 10
-389.885631
 20
-81.433977
 30
0.0
 11
-359.885631
 21
-81.433977
 31
0.0
  0
LINE
  5
60D
100
AcDbEntity
  8
3
100
AcDbLine
 10
-390.885631
 20
-117.433977
 30
0.0
 11
-390.885631
 21
-84.433977
 31
0.0
  0
LINE
  5
60E
100
AcDbEntity
  8
3
100
AcDbLine
 10
-358.885631
 20
-117.433977
 30
0.0
 11
-358.885631
 21
-84.433977
 31
0.0
  0
LINE
  5
60F
100
AcDbEntity
  8
3
100
AcDbLine
 10
-389.885631
 20
-81.433977
 30
0.0
 11
-389.885631
 21
-62.433977
 31
0.0
  0
LINE
  5
610
100
AcDbEntity
  8
3
100
AcDbLine
 10
-359.885631
 20
-81.433977
 30
0.0
 11
-359.885631
 21
-62.433977
 31
0.0
  0
LINE
  5
611
100
AcDbEntity
  8
3
100
AcDbLine
 10
-359.885631
 20
-81.433977
 30
0.0
 11
-358.885631
 21
-84.433977
 31
0.0
  0
LINE
  5
612
100
AcDbEntity
  8
3
100
AcDbLine
 10
-389.885631
 20
-81.433977
 30
0.0
 11
-390.885631
 21
-84.433977
 31
0.0
  0
LINE
  5
613
100
AcDbEntity
  8
3
100
AcDbLine
 10
-358.885631
 20
-84.433977
 30
0.0
 11
-390.885631
 21
-84.433977
 31
0.0
  0
LINE
  5
614
100
AcDbEntity
  8
3
100
AcDbLine
 10
-387.885631
 20
-120.433977
 30
0.0
 11
-361.885631
 21
-120.433977
 31
0.0
  0
LINE
  5
615
100
AcDbEntity
  8
3
100
AcDbLine
 10
-358.885631
 20
-117.433977
 30
0.0
 11
-361.885631
 21
-120.433977
 31
0.0
  0
LINE
  5
616
100
AcDbEntity
  8
3
100
AcDbLine
 10
-387.885631
 20
-120.433977
 30
0.0
 11
-390.885631
 21
-117.433977
 31
0.0
  0
LINE
  5
617
100
AcDbEntity
  8
3
100
AcDbLine
 10
-358.885631
 20
-117.433977
 30
0.0
 11
-390.885631
 21
-117.433977
 31
0.0
  0
DIMENSION
  5
618
100
AcDbEntity
  8
5
 62
     2
100
AcDbDimension
  2
*D0
 10
-52.941227
 20
-56.433977
 30
0.0
 11
-68.801227
 21
-107.093976
 31
0.0
  3
STANDARD
100
AcDbAlignedDimension
 13
101.514369
 23
-156.433977
 33
0.0
 14
101.514369
 24
-56.433977
 34
0.0
 50
90.0
100
AcDbRotatedDimension
  0
DIMENSION
  5
619
100
AcDbEntity
  8
5
 62
     2
100
AcDbDimension
  2
*D1
 10
-52.941227
 20
108.566023
 30
0.0
 11
-68.801227
 21
25.406024
 31
0.0
  3
STANDARD
100
AcDbAlignedDimension
 13
101.514369
 23
-56.433977
 33
0.0
 14
152.514369
 24
108.566023
 34
0.0
 50
90.0
100
AcDbRotatedDimension
  0
DIMENSION
  5
61A
100
AcDbEntity
  8
5
 62
     2
100
AcDbDimension
  2
*D2
 10
-6.992304
 20
-30.400054
 30
0.0
 11
-22.852304
 21
3.906024
 31
0.0
 70
     1
  3
STANDARD
100
AcDbAlignedDimension
 13
32.078256
 23
39.532101
 33
0.0
 14
32.078256
 24
-30.400054
 34
0.0
 50
90.0
  0
DIMENSION
  5
61B
100
AcDbEntity
  8
5
 62
     2
100
AcDbDimension
  2
*D3
 10
-260.885631
 20
456.373047
 30
0.0
 11
-317.885631
 21
464.973047
 31
0.0
  3
STANDARD
100
AcDbAlignedDimension
 13
-374.885631
 23
421.624359
 33
0.0
 14
-260.885631
 24
396.693241
 34
0.0
100
AcDbRotatedDimension
  0
DIMENSION
  5
61C
100
AcDbEntity
  8
5
 62
     2
100
AcDbDimension
  2
*D4
 10
-374.885631
 20
456.373047
 30
0.0
 11
-443.885631
 21
464.973047
 31
0.0
  3
STANDARD
100
AcDbAlignedDimension
 13
-512.885631
 23
395.766023
 33
0.0
 14
-374.885631
 24
421.624359
 34
0.0
100
AcDbRotatedDimension
  0
DIMENSION
  5
61D
100
AcDbEntity
  8
5
 62
     2
100
AcDbDimension
  2
*D5
 10
-204.745865
 20
416.766023
 30
0.0
 11
-215.985865
 21
388.226023
 31
0.0
  3
STANDARD
100
AcDbAlignedDimension
 13
-247.526719
 23
351.766023
 33
0.0
 14
-353.562131
 24
416.766023
 34
0.0
 50
90.0
100
AcDbRotatedDimension
  0
DIMENSION
  5
61E
100
AcDbEntity
  8
5
 62
     2
100
AcDbDimension
  2
*D6
 10
-204.745865
 20
351.766023
 30
0.0
 11
-220.605865
 21
288.106024
 31
0.0
  3
STANDARD
100
AcDbAlignedDimension
 13
-309.190611
 23
225.766023
 33
0.0
 14
-247.526719
 24
351.766023
 34
0.0
 50
90.0
100
AcDbRotatedDimension
  0
DIMENSION
  5
61F
100
AcDbEntity
  8
5
 62
     2
100
AcDbDimension
  2
*D7
 10
-52.941227
 20
-156.433977
 30
0.0
 11
-68.801227
 21
-230.593976
 31
0.0
  3
STANDARD
100
AcDbAlignedDimension
 13
113.039195
 23
-303.433977
 33
0.0
 14
101.514369
 24
-156.433977
 34
0.0
 50
90.0
100
AcDbRotatedDimension
  0
DIMENSION
  5
620
100
AcDbEntity
  8
5
 62
     2
100
AcDbDimension
  2
*D8
 10
-52.941227
 20
-303.433977
 30
0.0
 11
-64.181227
 21
-346.973977
 31
0.0
  3
STANDARD
100
AcDbAlignedDimension
 13
134.514369
 23
-398.433977
 33
0.0
 14
113.039195
 24
-303.433977
 34
0.0
 50
90.0
100
AcDbRotatedDimension
  0
DIMENSION
  5
621
100
AcDbEntity
  8
5
 62
     2
100
AcDbDimension
  2
*D9
 10
152.514369
 20
-438.680603
 30
0.0
 11
111.274369
 21
-430.080603
 31
0.0
  3
STANDARD
100
AcDbAlignedDimension
 13
130.514369
 23
-366.933977
 33
0.0
 14
152.514369
 24
-412.619092
 34
0.0
100
AcDbRotatedDimension
  0
DIMENSION
  5
622
100
AcDbEntity
  8
5
 62
     2
100
AcDbDimension
  2
*D10
 10
178.514369
 20
-474.269318
 30
0.0
 11
154.514369
 21
-465.669318
 31
0.0
  3
STANDARD
100
AcDbAlignedDimension
 13
130.514369
 23
-366.933977
 33
0.0
 14
178.514369
 24
-366.933977
 34
0.0
100
AcDbRotatedDimension
  0
TEXT
  5
623
100
AcDbEntity
  8
5
100
AcDbText
 10
385.714417
 20
248.942474
 30
0.0
 40
20.0
  1
駆動部・・・４Ｉ－１型 
 72
     5
 11
601.714417
 21
248.942474
 31
0.0
100
AcDbText
  0
LINE
  5
624
100
AcDbEntity
  8
18
100
AcDbLine
 10
228.514369
 20
-303.433977
 30
0.0
 11
348.514369
 21
-303.433977
 31
0.0
  0
LINE
  5
625
100
AcDbEntity
  8
18
100
AcDbLine
 10
228.514369
 20
-303.433977
 30
0.0
 11
268.514369
 21
-292.716009
 31
0.0
  0
LINE
  5
626
100
AcDbEntity
  8
18
100
AcDbLine
 10
268.514369
 20
-292.716009
 30
0.0
 11
268.514369
 21
-314.151944
 31
0.0
  0
LINE
  5
627
100
AcDbEntity
  8
18
100
AcDbLine
 10
228.514369
 20
-303.433977
 30
0.0
 11
268.514369
 21
-314.151944
 31
0.0
  0
LINE
  5
628
100
AcDbEntity
  8
18
100
AcDbLine
 10
274.694672
 20
460.370392
 30
0.0
 11
274.694672
 21
320.370392
 31
0.0
  0
LINE
  5
629
100
AcDbEntity
  8
18
100
AcDbLine
 10
722.694672
 20
360.370392
 30
0.0
 11
274.694672
 21
360.370392
 31
0.0
  0
LINE
  5
62A
100
AcDbEntity
  8
18
100
AcDbLine
 10
722.694672
 20
340.370392
 30
0.0
 11
274.694672
 21
340.370392
 31
0.0
  0
LINE
  5
62B
100
AcDbEntity
  8
18
100
AcDbLine
 10
722.694672
 20
320.370392
 30
0.0
 11
274.694672
 21
320.370392
 31
0.0
  0
LINE
  5
62C
100
AcDbEntity
  8
18
100
AcDbLine
 10
386.694672
 20
460.370392
 30
0.0
 11
386.694672
 21
340.370392
 31
0.0
  0
LINE
  5
62D
100
AcDbEntity
  8
18
100
AcDbLine
 10
498.694672
 20
460.370392
 30
0.0
 11
498.694672
 21
340.370392
 31
0.0
  0
LINE
  5
62E
100
AcDbEntity
  8
18
100
AcDbLine
 10
610.694672
 20
460.370392
 30
0.0
 11
610.694672
 21
340.370392
 31
0.0
  0
LINE
  5
62F
100
AcDbEntity
  8
18
100
AcDbLine
 10
722.694672
 20
460.370392
 30
0.0
 11
722.694672
 21
320.370392
 31
0.0
  0
LINE
  5
630
100
AcDbEntity
  8
18
100
AcDbLine
 10
274.694672
 20
460.370392
 30
0.0
 11
722.694672
 21
460.370392
 31
0.0
  0
POLYLINE
  5
631
100
AcDbEntity
  8
18
 62
     2
100
AcDb2dPolyline
 66
     1
 10
0.0
 20
0.0
 30
0.0
  0
VERTEX
  5
764
100
AcDbEntity
  8
18
 62
     2
100
AcDbVertex
100
AcDb2dVertex
 10
326.573982
 20
419.362122
 30
0.0
  0
VERTEX
  5
765
100
AcDbEntity
  8
18
 62
     2
100
AcDbVertex
100
AcDb2dVertex
 10
326.573982
 20
437.514225
 30
0.0
  0
SEQEND
  5
766
100
AcDbEntity
  8
18
 62
     2
  0
LINE
  5
635
100
AcDbEntity
  8
18
 62
     2
100
AcDbLine
 10
326.573982
 20
427.089528
 30
0.0
 11
324.50343
 21
427.089528
 31
0.0
  0
LINE
  5
636
100
AcDbEntity
  8
18
 62
     2
100
AcDbLine
 10
324.50343
 20
427.089528
 30
0.0
 11
326.573982
 21
419.362122
 31
0.0
  0
LINE
  5
637
100
AcDbEntity
  8
18
 62
     2
100
AcDbLine
 10
326.573982
 20
419.362122
 30
0.0
 11
328.644535
 21
427.089528
 31
0.0
  0
LINE
  5
638
100
AcDbEntity
  8
18
 62
     2
100
AcDbLine
 10
328.644535
 20
427.089528
 30
0.0
 11
326.573982
 21
427.089528
 31
0.0
  0
LINE
  5
639
100
AcDbEntity
  8
18
  6
CENTER
 62
     2
100
AcDbLine
 10
360.426777
 20
393.29715
 30
0.0
 11
290.018774
 21
393.29715
 31
0.0
  0
LINE
  5
63A
100
AcDbEntity
  8
18
  6
CENTER
 62
     2
100
AcDbLine
 10
326.029971
 20
375.112775
 30
0.0
 11
326.029971
 21
413.674556
 31
0.0
  0
LINE
  5
63B
100
AcDbEntity
  8
18
100
AcDbLine
 10
354.189971
 20
380.97715
 30
0.0
 11
301.389971
 21
380.97715
 31
0.0
  0
LINE
  5
63C
100
AcDbEntity
  8
18
100
AcDbLine
 10
354.189971
 20
405.61715
 30
0.0
 11
301.389971
 21
405.61715
 31
0.0
  0
LINE
  5
63D
100
AcDbEntity
  8
18
100
AcDbLine
 10
354.189971
 20
380.97715
 30
0.0
 11
354.189971
 21
409.13715
 31
0.0
  0
LINE
  5
63E
100
AcDbEntity
  8
18
100
AcDbLine
 10
304.909971
 20
380.97715
 30
0.0
 11
304.909971
 21
405.61715
 31
0.0
  0
LINE
  5
63F
100
AcDbEntity
  8
18
100
AcDbLine
 10
354.189971
 20
409.13715
 30
0.0
 11
307.256637
 21
409.13715
 31
0.0
  0
LINE
  5
640
100
AcDbEntity
  8
18
100
AcDbLine
 10
301.389971
 20
380.97715
 30
0.0
 11
301.389971
 21
405.61715
 31
0.0
  0
LINE
  5
641
100
AcDbEntity
  8
18
100
AcDbLine
 10
307.256637
 20
405.61715
 30
0.0
 11
307.256637
 21
409.13715
 31
0.0
  0
LINE
  5
642
100
AcDbEntity
  8
18
100
AcDbLine
 10
338.349971
 20
382.73715
 30
0.0
 11
338.349971
 21
403.85715
 31
0.0
  0
LINE
  5
643
100
AcDbEntity
  8
18
100
AcDbLine
 10
308.429971
 20
382.73715
 30
0.0
 11
308.429971
 21
403.85715
 31
0.0
  0
LINE
  5
644
100
AcDbEntity
  8
18
100
AcDbLine
 10
338.349971
 20
382.73715
 30
0.0
 11
308.429971
 21
382.73715
 31
0.0
  0
LINE
  5
645
100
AcDbEntity
  8
18
100
AcDbLine
 10
338.349971
 20
403.85715
 30
0.0
 11
308.429971
 21
403.85715
 31
0.0
  0
CIRCLE
  5
646
100
AcDbEntity
  8
18
100
AcDbCircle
 10
326.029971
 20
393.29715
 30
0.0
 40
4.224
  0
LINE
  5
647
100
AcDbEntity
  8
18
  6
DASHED
100
AcDbLine
 10
345.389971
 20
386.25715
 30
0.0
 11
306.669971
 21
386.25715
 31
0.0
  0
LINE
  5
648
100
AcDbEntity
  8
18
  6
DASHED
100
AcDbLine
 10
345.389971
 20
400.33715
 30
0.0
 11
306.669971
 21
400.33715
 31
0.0
  0
LINE
  5
649
100
AcDbEntity
  8
18
  6
DASHED
100
AcDbLine
 10
306.669971
 20
386.25715
 30
0.0
 11
306.669971
 21
400.33715
 31
0.0
  0
LINE
  5
64A
100
AcDbEntity
  8
18
  6
DASHED
100
AcDbLine
 10
345.389971
 20
386.25715
 30
0.0
 11
345.389971
 21
400.33715
 31
0.0
  0
LINE
  5
64B
100
AcDbEntity
  8
18
  6
CENTER
 62
     2
100
AcDbLine
 10
316.643304
 20
407.292428
 30
0.0
 11
316.643304
 21
422.469105
 31
0.0
  0
LINE
  5
64C
100
AcDbEntity
  8
18
100
AcDbLine
 10
316.643514
 20
414.41715
 30
0.0
 11
323.531944
 21
414.41715
 31
0.0
  0
LINE
  5
64D
100
AcDbEntity
  8
18
100
AcDbLine
 10
323.531944
 20
414.41715
 30
0.0
 11
323.531944
 21
416.17715
 31
0.0
  0
LINE
  5
64E
100
AcDbEntity
  8
18
100
AcDbLine
 10
316.643514
 20
416.17715
 30
0.0
 11
323.531944
 21
416.17715
 31
0.0
  0
LINE
  5
64F
100
AcDbEntity
  8
18
100
AcDbLine
 10
309.755084
 20
414.41715
 30
0.0
 11
309.755084
 21
416.17715
 31
0.0
  0
LINE
  5
650
100
AcDbEntity
  8
18
100
AcDbLine
 10
322.272628
 20
409.13715
 30
0.0
 11
319.810523
 21
414.41715
 31
0.0
  0
LINE
  5
651
100
AcDbEntity
  8
18
100
AcDbLine
 10
311.014401
 20
409.13715
 30
0.0
 11
313.476505
 21
414.41715
 31
0.0
  0
LINE
  5
652
100
AcDbEntity
  8
18
100
AcDbLine
 10
316.643514
 20
414.41715
 30
0.0
 11
309.755084
 21
414.41715
 31
0.0
  0
LINE
  5
653
100
AcDbEntity
  8
18
100
AcDbLine
 10
316.643514
 20
416.17715
 30
0.0
 11
309.755084
 21
416.17715
 31
0.0
  0
LINE
  5
654
100
AcDbEntity
  8
18
  6
CENTER
 62
     2
100
AcDbLine
 10
419.425966
 20
406.627871
 30
0.0
 11
469.148403
 21
406.627871
 31
0.0
  0
LINE
  5
655
100
AcDbEntity
  8
18
100
AcDbLine
 10
463.814672
 20
416.014748
 30
0.0
 11
463.814672
 21
422.903178
 31
0.0
  0
LINE
  5
656
100
AcDbEntity
  8
18
100
AcDbLine
 10
463.814672
 20
422.903178
 30
0.0
 11
465.574672
 21
422.903178
 31
0.0
  0
LINE
  5
657
100
AcDbEntity
  8
18
100
AcDbLine
 10
465.574672
 20
416.014748
 30
0.0
 11
465.574672
 21
422.903178
 31
0.0
  0
LINE
  5
658
100
AcDbEntity
  8
18
100
AcDbLine
 10
463.814672
 20
409.126318
 30
0.0
 11
465.574672
 21
409.126318
 31
0.0
  0
LINE
  5
659
100
AcDbEntity
  8
18
  6
CENTER
 62
     2
100
AcDbLine
 10
442.694672
 20
436.233693
 30
0.0
 11
442.694672
 21
374.276296
 31
0.0
  0
LINE
  5
65A
100
AcDbEntity
  8
18
100
AcDbLine
 10
430.374672
 20
378.467871
 30
0.0
 11
430.374672
 21
431.267871
 31
0.0
  0
LINE
  5
65B
100
AcDbEntity
  8
18
100
AcDbLine
 10
455.014672
 20
378.467871
 30
0.0
 11
455.014672
 21
431.267871
 31
0.0
  0
LINE
  5
65C
100
AcDbEntity
  8
18
100
AcDbLine
 10
430.374672
 20
378.467871
 30
0.0
 11
458.534672
 21
378.467871
 31
0.0
  0
LINE
  5
65D
100
AcDbEntity
  8
18
100
AcDbLine
 10
430.374672
 20
427.747871
 30
0.0
 11
455.014672
 21
427.747871
 31
0.0
  0
LINE
  5
65E
100
AcDbEntity
  8
18
100
AcDbLine
 10
458.534672
 20
378.467871
 30
0.0
 11
458.534672
 21
425.401204
 31
0.0
  0
LINE
  5
65F
100
AcDbEntity
  8
18
100
AcDbLine
 10
430.374672
 20
431.267871
 30
0.0
 11
455.014672
 21
431.267871
 31
0.0
  0
LINE
  5
660
100
AcDbEntity
  8
18
100
AcDbLine
 10
455.014672
 20
425.401204
 30
0.0
 11
458.534672
 21
425.401204
 31
0.0
  0
LINE
  5
661
100
AcDbEntity
  8
18
100
AcDbLine
 10
432.134672
 20
394.307871
 30
0.0
 11
453.254672
 21
394.307871
 31
0.0
  0
LINE
  5
662
100
AcDbEntity
  8
18
100
AcDbLine
 10
432.134672
 20
424.227871
 30
0.0
 11
453.254672
 21
424.227871
 31
0.0
  0
LINE
  5
663
100
AcDbEntity
  8
18
100
AcDbLine
 10
432.134672
 20
394.307871
 30
0.0
 11
432.134672
 21
424.227871
 31
0.0
  0
LINE
  5
664
100
AcDbEntity
  8
18
100
AcDbLine
 10
453.254672
 20
394.307871
 30
0.0
 11
453.254672
 21
424.227871
 31
0.0
  0
CIRCLE
  5
665
100
AcDbEntity
  8
18
100
AcDbCircle
 10
442.694672
 20
406.627871
 30
0.0
 40
4.224
  0
LINE
  5
666
100
AcDbEntity
  8
18
100
AcDbLine
 10
423.334672
 20
413.667871
 30
0.0
 11
423.334672
 21
399.587871
 31
0.0
  0
LINE
  5
667
100
AcDbEntity
  8
18
  6
CENTER
 62
     2
100
AcDbLine
 10
456.689949
 20
416.014538
 30
0.0
 11
472.890175
 21
416.014538
 31
0.0
  0
LINE
  5
668
100
AcDbEntity
  8
18
100
AcDbLine
 10
423.334672
 20
413.667871
 30
0.0
 11
430.374672
 21
413.667871
 31
0.0
  0
LINE
  5
669
100
AcDbEntity
  8
18
100
AcDbLine
 10
458.534672
 20
399.587871
 30
0.0
 11
462.054672
 21
399.587871
 31
0.0
  0
LINE
  5
66A
100
AcDbEntity
  8
18
100
AcDbLine
 10
423.334672
 20
399.587871
 30
0.0
 11
430.374672
 21
399.587871
 31
0.0
  0
LINE
  5
66B
100
AcDbEntity
  8
18
  6
DASHED
100
AcDbLine
 10
430.374672
 20
399.587871
 30
0.0
 11
458.534672
 21
399.587871
 31
0.0
  0
LINE
  5
66C
100
AcDbEntity
  8
18
100
AcDbLine
 10
462.054672
 20
407.366108
 30
0.0
 11
462.054672
 21
399.587871
 31
0.0
  0
LINE
  5
66D
100
AcDbEntity
  8
18
  6
DASHED
100
AcDbLine
 10
430.374672
 20
413.667871
 30
0.0
 11
458.534672
 21
413.667871
 31
0.0
  0
LINE
  5
66E
100
AcDbEntity
  8
18
  6
DASHED
100
AcDbLine
 10
458.534672
 20
413.667871
 30
0.0
 11
461.580011
 21
413.667871
 31
0.0
  0
LINE
  5
66F
100
AcDbEntity
  8
18
  6
DASHED
100
AcDbLine
 10
461.580011
 20
413.667871
 30
0.0
 11
462.054672
 21
413.667871
 31
0.0
  0
LINE
  5
670
100
AcDbEntity
  8
18
100
AcDbLine
 10
458.534672
 20
421.643861
 30
0.0
 11
463.814672
 21
419.181757
 31
0.0
  0
LINE
  5
671
100
AcDbEntity
  8
18
100
AcDbLine
 10
458.534672
 20
410.385634
 30
0.0
 11
463.814672
 21
412.847739
 31
0.0
  0
LINE
  5
672
100
AcDbEntity
  8
18
100
AcDbLine
 10
463.814672
 20
416.014748
 30
0.0
 11
463.814672
 21
409.126318
 31
0.0
  0
LINE
  5
673
100
AcDbEntity
  8
18
100
AcDbLine
 10
465.574672
 20
416.014748
 30
0.0
 11
465.574672
 21
409.126318
 31
0.0
  0
LINE
  5
674
100
AcDbEntity
  8
18
  6
DASHED
100
AcDbLine
 10
462.054672
 20
413.667871
 30
0.0
 11
462.054672
 21
412.027037
 31
0.0
  0
LINE
  5
675
100
AcDbEntity
  8
18
100
AcDbLine
 10
462.054672
 20
412.613704
 30
0.0
 11
462.054672
 21
412.571188
 31
0.0
  0
LINE
  5
676
100
AcDbEntity
  8
18
100
AcDbLine
 10
462.054672
 20
412.027037
 30
0.0
 11
462.054672
 21
406.889604
 31
0.0
  0
LINE
  5
677
100
AcDbEntity
  8
18
  6
CENTER
 62
     2
100
AcDbLine
 10
520.297865
 20
406.627871
 30
0.0
 11
590.705868
 21
406.627871
 31
0.0
  0
LINE
  5
678
100
AcDbEntity
  8
18
  6
CENTER
 62
     2
100
AcDbLine
 10
554.694672
 20
424.812246
 30
0.0
 11
554.694672
 21
386.250465
 31
0.0
  0
LINE
  5
679
100
AcDbEntity
  8
18
100
AcDbLine
 10
526.534672
 20
418.947871
 30
0.0
 11
579.334672
 21
418.947871
 31
0.0
  0
LINE
  5
67A
100
AcDbEntity
  8
18
100
AcDbLine
 10
526.534672
 20
394.307871
 30
0.0
 11
579.334672
 21
394.307871
 31
0.0
  0
LINE
  5
67B
100
AcDbEntity
  8
18
100
AcDbLine
 10
526.534672
 20
418.947871
 30
0.0
 11
526.534672
 21
390.787871
 31
0.0
  0
LINE
  5
67C
100
AcDbEntity
  8
18
100
AcDbLine
 10
575.814672
 20
418.947871
 30
0.0
 11
575.814672
 21
394.307871
 31
0.0
  0
LINE
  5
67D
100
AcDbEntity
  8
18
100
AcDbLine
 10
526.534672
 20
390.787871
 30
0.0
 11
573.468005
 21
390.787871
 31
0.0
  0
LINE
  5
67E
100
AcDbEntity
  8
18
100
AcDbLine
 10
579.334672
 20
418.947871
 30
0.0
 11
579.334672
 21
394.307871
 31
0.0
  0
LINE
  5
67F
100
AcDbEntity
  8
18
100
AcDbLine
 10
573.468005
 20
394.307871
 30
0.0
 11
573.468005
 21
390.787871
 31
0.0
  0
LINE
  5
680
100
AcDbEntity
  8
18
100
AcDbLine
 10
542.374672
 20
417.187871
 30
0.0
 11
542.374672
 21
396.067871
 31
0.0
  0
LINE
  5
681
100
AcDbEntity
  8
18
100
AcDbLine
 10
572.294672
 20
417.187871
 30
0.0
 11
572.294672
 21
396.067871
 31
0.0
  0
LINE
  5
682
100
AcDbEntity
  8
18
100
AcDbLine
 10
542.374672
 20
417.187871
 30
0.0
 11
572.294672
 21
417.187871
 31
0.0
  0
LINE
  5
683
100
AcDbEntity
  8
18
100
AcDbLine
 10
542.374672
 20
396.067871
 30
0.0
 11
572.294672
 21
396.067871
 31
0.0
  0
CIRCLE
  5
684
100
AcDbEntity
  8
18
100
AcDbCircle
 10
554.694672
 20
406.627871
 30
0.0
 40
4.224
  0
LINE
  5
685
100
AcDbEntity
  8
18
  6
DASHED
100
AcDbLine
 10
535.334672
 20
413.667871
 30
0.0
 11
574.054672
 21
413.667871
 31
0.0
  0
LINE
  5
686
100
AcDbEntity
  8
18
  6
DASHED
100
AcDbLine
 10
535.334672
 20
399.587871
 30
0.0
 11
574.054672
 21
399.587871
 31
0.0
  0
LINE
  5
687
100
AcDbEntity
  8
18
  6
DASHED
100
AcDbLine
 10
574.054672
 20
413.667871
 30
0.0
 11
574.054672
 21
399.587871
 31
0.0
  0
LINE
  5
688
100
AcDbEntity
  8
18
  6
DASHED
100
AcDbLine
 10
535.334672
 20
413.667871
 30
0.0
 11
535.334672
 21
399.587871
 31
0.0
  0
LINE
  5
689
100
AcDbEntity
  8
18
  6
CENTER
 62
     2
100
AcDbLine
 10
564.081338
 20
392.632593
 30
0.0
 11
564.081338
 21
377.455917
 31
0.0
  0
LINE
  5
68A
100
AcDbEntity
  8
18
100
AcDbLine
 10
564.081128
 20
385.507871
 30
0.0
 11
557.192698
 21
385.507871
 31
0.0
  0
LINE
  5
68B
100
AcDbEntity
  8
18
100
AcDbLine
 10
557.192698
 20
385.507871
 30
0.0
 11
557.192698
 21
383.747871
 31
0.0
  0
LINE
  5
68C
100
AcDbEntity
  8
18
100
AcDbLine
 10
564.081128
 20
383.747871
 30
0.0
 11
557.192698
 21
383.747871
 31
0.0
  0
LINE
  5
68D
100
AcDbEntity
  8
18
100
AcDbLine
 10
570.969558
 20
385.507871
 30
0.0
 11
570.969558
 21
383.747871
 31
0.0
  0
LINE
  5
68E
100
AcDbEntity
  8
18
100
AcDbLine
 10
558.452015
 20
390.787871
 30
0.0
 11
560.914119
 21
385.507871
 31
0.0
  0
LINE
  5
68F
100
AcDbEntity
  8
18
100
AcDbLine
 10
569.710242
 20
390.787871
 30
0.0
 11
567.248137
 21
385.507871
 31
0.0
  0
LINE
  5
690
100
AcDbEntity
  8
18
100
AcDbLine
 10
564.081128
 20
385.507871
 30
0.0
 11
570.969558
 21
385.507871
 31
0.0
  0
LINE
  5
691
100
AcDbEntity
  8
18
100
AcDbLine
 10
564.081128
 20
383.747871
 30
0.0
 11
570.969558
 21
383.747871
 31
0.0
  0
LINE
  5
692
100
AcDbEntity
  8
18
  6
CENTER
 62
     2
100
AcDbLine
 10
689.963378
 20
406.627871
 30
0.0
 11
640.240941
 21
406.627871
 31
0.0
  0
LINE
  5
693
100
AcDbEntity
  8
18
100
AcDbLine
 10
645.574672
 20
397.240994
 30
0.0
 11
645.574672
 21
390.352564
 31
0.0
  0
LINE
  5
694
100
AcDbEntity
  8
18
100
AcDbLine
 10
645.574672
 20
390.352564
 30
0.0
 11
643.814672
 21
390.352564
 31
0.0
  0
LINE
  5
695
100
AcDbEntity
  8
18
100
AcDbLine
 10
643.814672
 20
397.240994
 30
0.0
 11
643.814672
 21
390.352564
 31
0.0
  0
LINE
  5
696
100
AcDbEntity
  8
18
100
AcDbLine
 10
645.574672
 20
404.129424
 30
0.0
 11
643.814672
 21
404.129424
 31
0.0
  0
LINE
  5
697
100
AcDbEntity
  8
18
  6
CENTER
 62
     2
100
AcDbLine
 10
666.694672
 20
377.022049
 30
0.0
 11
666.694672
 21
438.979446
 31
0.0
  0
LINE
  5
698
100
AcDbEntity
  8
18
100
AcDbLine
 10
679.014672
 20
434.787871
 30
0.0
 11
679.014672
 21
381.987871
 31
0.0
  0
LINE
  5
699
100
AcDbEntity
  8
18
100
AcDbLine
 10
654.374672
 20
434.787871
 30
0.0
 11
654.374672
 21
381.987871
 31
0.0
  0
LINE
  5
69A
100
AcDbEntity
  8
18
100
AcDbLine
 10
679.014672
 20
434.787871
 30
0.0
 11
650.854672
 21
434.787871
 31
0.0
  0
LINE
  5
69B
100
AcDbEntity
  8
18
100
AcDbLine
 10
679.014672
 20
385.507871
 30
0.0
 11
654.374672
 21
385.507871
 31
0.0
  0
LINE
  5
69C
100
AcDbEntity
  8
18
100
AcDbLine
 10
650.854672
 20
434.787871
 30
0.0
 11
650.854672
 21
387.854538
 31
0.0
  0
LINE
  5
69D
100
AcDbEntity
  8
18
100
AcDbLine
 10
679.014672
 20
381.987871
 30
0.0
 11
654.374672
 21
381.987871
 31
0.0
  0
LINE
  5
69E
100
AcDbEntity
  8
18
100
AcDbLine
 10
654.374672
 20
387.854538
 30
0.0
 11
650.854672
 21
387.854538
 31
0.0
  0
LINE
  5
69F
100
AcDbEntity
  8
18
100
AcDbLine
 10
677.254672
 20
418.947871
 30
0.0
 11
656.134672
 21
418.947871
 31
0.0
  0
LINE
  5
6A0
100
AcDbEntity
  8
18
100
AcDbLine
 10
677.254672
 20
389.027871
 30
0.0
 11
656.134672
 21
389.027871
 31
0.0
  0
LINE
  5
6A1
100
AcDbEntity
  8
18
100
AcDbLine
 10
677.254672
 20
418.947871
 30
0.0
 11
677.254672
 21
389.027871
 31
0.0
  0
LINE
  5
6A2
100
AcDbEntity
  8
18
100
AcDbLine
 10
656.134672
 20
418.947871
 30
0.0
 11
656.134672
 21
389.027871
 31
0.0
  0
CIRCLE
  5
6A3
100
AcDbEntity
  8
18
100
AcDbCircle
 10
666.694672
 20
406.627871
 30
0.0
 40
4.224
  0
LINE
  5
6A4
100
AcDbEntity
  8
18
100
AcDbLine
 10
686.054672
 20
399.587871
 30
0.0
 11
686.054672
 21
413.667871
 31
0.0
  0
LINE
  5
6A5
100
AcDbEntity
  8
18
  6
CENTER
 62
     2
100
AcDbLine
 10
652.699394
 20
397.241204
 30
0.0
 11
636.499168
 21
397.241204
 31
0.0
  0
LINE
  5
6A6
100
AcDbEntity
  8
18
100
AcDbLine
 10
686.054672
 20
399.587871
 30
0.0
 11
679.014672
 21
399.587871
 31
0.0
  0
LINE
  5
6A7
100
AcDbEntity
  8
18
100
AcDbLine
 10
650.854672
 20
413.667871
 30
0.0
 11
647.334672
 21
413.667871
 31
0.0
  0
LINE
  5
6A8
100
AcDbEntity
  8
18
100
AcDbLine
 10
686.054672
 20
413.667871
 30
0.0
 11
679.014672
 21
413.667871
 31
0.0
  0
LINE
  5
6A9
100
AcDbEntity
  8
18
  6
DASHED
100
AcDbLine
 10
679.014672
 20
413.667871
 30
0.0
 11
650.854672
 21
413.667871
 31
0.0
  0
LINE
  5
6AA
100
AcDbEntity
  8
18
100
AcDbLine
 10
647.334672
 20
405.889634
 30
0.0
 11
647.334672
 21
413.667871
 31
0.0
  0
LINE
  5
6AB
100
AcDbEntity
  8
18
  6
DASHED
100
AcDbLine
 10
679.014672
 20
399.587871
 30
0.0
 11
650.854672
 21
399.587871
 31
0.0
  0
LINE
  5
6AC
100
AcDbEntity
  8
18
  6
DASHED
100
AcDbLine
 10
650.854672
 20
399.587871
 30
0.0
 11
647.809332
 21
399.587871
 31
0.0
  0
LINE
  5
6AD
100
AcDbEntity
  8
18
  6
DASHED
100
AcDbLine
 10
647.809332
 20
399.587871
 30
0.0
 11
647.334672
 21
399.587871
 31
0.0
  0
LINE
  5
6AE
100
AcDbEntity
  8
18
100
AcDbLine
 10
650.854672
 20
391.611881
 30
0.0
 11
645.574672
 21
394.073985
 31
0.0
  0
LINE
  5
6AF
100
AcDbEntity
  8
18
100
AcDbLine
 10
650.854672
 20
402.870108
 30
0.0
 11
645.574672
 21
400.408003
 31
0.0
  0
LINE
  5
6B0
100
AcDbEntity
  8
18
100
AcDbLine
 10
645.574672
 20
397.240994
 30
0.0
 11
645.574672
 21
404.129424
 31
0.0
  0
LINE
  5
6B1
100
AcDbEntity
  8
18
100
AcDbLine
 10
643.814672
 20
397.240994
 30
0.0
 11
643.814672
 21
404.129424
 31
0.0
  0
LINE
  5
6B2
100
AcDbEntity
  8
18
  6
DASHED
100
AcDbLine
 10
647.334672
 20
399.587871
 30
0.0
 11
647.334672
 21
401.228705
 31
0.0
  0
LINE
  5
6B3
100
AcDbEntity
  8
18
100
AcDbLine
 10
647.334672
 20
400.642038
 30
0.0
 11
647.334672
 21
400.684554
 31
0.0
  0
LINE
  5
6B4
100
AcDbEntity
  8
18
100
AcDbLine
 10
647.334672
 20
401.228705
 30
0.0
 11
647.334672
 21
406.366138
 31
0.0
  0
TEXT
  5
6B5
100
AcDbEntity
  8
18
100
AcDbText
 10
489.196503
 20
-533.087646
 30
0.0
 40
12.0
  1
１
 72
     5
 11
498.796503
 21
-533.087646
 31
0.0
100
AcDbText
  0
TEXT
  5
6B6
100
AcDbEntity
  8
18
100
AcDbText
 10
279.220306
 20
-296.44339
 30
0.0
 40
20.0
  1
高圧側
 72
     5
 11
335.220306
 21
-296.44339
 31
0.0
100
AcDbText
  0
TEXT
  5
6B7
100
AcDbEntity
  8
18
100
AcDbText
 10
323.217621
 20
345.081909
 30
0.0
 40
12.0
  1
Ａ
 72
     5
 11
332.817621
 21
345.081909
 31
0.0
100
AcDbText
  0
TEXT
  5
6B8
100
AcDbEntity
  8
18
100
AcDbText
 10
435.16983
 20
344.761292
 30
0.0
 40
12.0
  1
Ｂ
 72
     5
 11
444.76983
 21
344.761292
 31
0.0
100
AcDbText
  0
TEXT
  5
6B9
100
AcDbEntity
  8
18
100
AcDbText
 10
547.217621
 20
345.081909
 30
0.0
 40
12.0
  1
Ｃ
 72
     5
 11
556.817621
 21
345.081909
 31
0.0
100
AcDbText
  0
TEXT
  5
6BA
100
AcDbEntity
  8
18
100
AcDbText
 10
434.528625
 20
324.654278
 30
0.0
 40
12.0
  1
アクチュエ－タ取付方向
 72
     5
 11
564.128625
 21
324.654278
 31
0.0
100
AcDbText
  0
TEXT
  5
6BB
100
AcDbEntity
  8
18
100
AcDbText
 10
295.397583
 20
364.552856
 30
0.0
 40
10.0
  1
弁棒側　低圧側
 72
     5
 11
363.397583
 21
364.552856
 31
0.0
100
AcDbText
  0
TEXT
  5
6BC
100
AcDbEntity
  8
18
100
AcDbText
 10
285.812225
 20
444.175629
 30
0.0
 40
10.0
  1
フラット側　高圧側
 72
     5
 11
373.812225
 21
444.175629
 31
0.0
100
AcDbText
  0
TEXT
  5
6BD
100
AcDbEntity
  8
18
100
AcDbText
 10
659.217621
 20
345.081909
 30
0.0
 40
12.0
  1
Ｄ
 72
     5
 11
668.817621
 21
345.081909
 31
0.0
100
AcDbText
  0
TEXT
  5
6BE
100
AcDbEntity
  8
18
100
AcDbText
 10
505.190308
 20
-548.067078
 30
0.0
 40
12.0
  1
４
 72
     5
 11
514.790308
 21
-548.067078
 31
0.0
100
AcDbText
  0
TEXT
  5
6BF
100
AcDbEntity
  8
18
100
AcDbText
 10
488.750295
 20
-492.141052
 30
0.0
 40
12.0
  1
３０２Ａ－４ＩＣＳ　８０Ａ
 72
     5
 11
642.350295
 21
-492.141052
 31
0.0
100
AcDbText
  0
TEXT
  5
6C0
100
AcDbEntity
  8
18
100
AcDbText
 10
614.4
 20
-544.0
 30
0.0
 40
20.0
  1
Ｄ３－０１８４４
 72
     5
 11
770.4
 21
-544.0
 31
0.0
100
AcDbText
  0
TEXT
  5
6C1
100
AcDbEntity
  8
18
100
AcDbText
 10
721.249634
 20
-507.674194
 30
0.0
 40
9.0
  1
′９９．１２．　２
 72
     5
 11
800.449634
 21
-507.674194
 31
0.0
100
AcDbText
  0
TEXT
  5
6C2
100
AcDbEntity
  8
18
100
AcDbText
 10
488.750295
 20
-508.141052
 30
0.0
 40
12.0
  1
重負荷仕様
 72
     5
 11
546.350295
 21
-508.141052
 31
0.0
100
AcDbText
  0
LINE
  5
6C3
100
AcDbEntity
  8
20
 62
     3
100
AcDbLine
 10
-720.0
 20
-554.0
 30
0.0
 11
800.0
 21
-554.0
 31
0.0
  0
LINE
  5
6C4
100
AcDbEntity
  8
20
 62
     3
100
AcDbLine
 10
-720.0
 20
528.0
 30
0.0
 11
800.0
 21
528.0
 31
0.0
  0
LINE
  5
6C5
100
AcDbEntity
  8
20
 62
     3
100
AcDbLine
 10
-720.0
 20
528.0
 30
0.0
 11
-720.0
 21
-554.0
 31
0.0
  0
LINE
  5
6C6
100
AcDbEntity
  8
20
 62
     3
100
AcDbLine
 10
800.0
 20
528.0
 30
0.0
 11
800.0
 21
-554.0
 31
0.0
  0
LINE
  5
6C7
100
AcDbEntity
  8
20
 62
     3
100
AcDbLine
 10
240.0
 20
-554.0
 30
0.0
 11
240.0
 21
-474.0
 31
0.0
  0
LINE
  5
6C8
100
AcDbEntity
  8
20
 62
     3
100
AcDbLine
 10
428.0
 20
-554.0
 30
0.0
 11
428.0
 21
-474.0
 31
0.0
  0
LINE
  5
6C9
100
AcDbEntity
  8
20
100
AcDbLine
 10
428.0
 20
-514.0
 30
0.0
 11
800.0
 21
-514.0
 31
0.0
  0
LINE
  5
6CA
100
AcDbEntity
  8
20
 62
     3
100
AcDbLine
 10
240.0
 20
-474.0
 30
0.0
 11
800.0
 21
-474.0
 31
0.0
  0
LINE
  5
6CB
100
AcDbEntity
  8
20
100
AcDbLine
 10
720.0
 20
-514.0
 30
0.0
 11
720.0
 21
-474.0
 31
0.0
  0
LINE
  5
6CC
100
AcDbEntity
  8
20
100
AcDbLine
 10
720.0
 20
-494.0
 30
0.0
 11
800.0
 21
-494.0
 31
0.0
  0
LINE
  5
6CD
100
AcDbEntity
  8
20
100
AcDbLine
 10
484.0
 20
-554.0
 30
0.0
 11
484.0
 21
-474.0
 31
0.0
  0
LINE
  5
6CE
100
AcDbEntity
  8
20
100
AcDbLine
 10
524.0
 20
-554.0
 30
0.0
 11
524.0
 21
-514.0
 31
0.0
  0
LINE
  5
6CF
100
AcDbEntity
  8
20
100
AcDbLine
 10
604.0
 20
-554.0
 30
0.0
 11
604.0
 21
-514.0
 31
0.0
  0
LINE
  5
6D0
100
AcDbEntity
  8
20
100
AcDbLine
 10
494.913658
 20
-543.086342
 30
0.0
 11
511.593163
 21
-526.406837
 31
0.0
  0
TEXT
  5
6D1
100
AcDbEntity
  8
20
100
AcDbText
 10
526.133316
 20
-529.987671
 30
0.0
 40
7.2
  1
ＤＲＡＷＩＮＧ　ＮＯ．
 72
     5
 11
603.893316
 21
-529.987671
 31
0.0
100
AcDbText
  0
TEXT
  5
6D2
100
AcDbEntity
  8
20
100
AcDbText
 10
534.0
 20
-546.0
 30
0.0
 40
12.0
  1
図　　　番
 72
     5
 11
591.6
 21
-546.0
 31
0.0
100
AcDbText
  0
TEXT
  5
6D3
100
AcDbEntity
  8
20
100
AcDbText
 10
744.0
 20
-488.0
 30
0.0
 40
8.0
  1
ＤＡＴＥ
 72
     5
 11
774.4
 21
-488.0
 31
0.0
100
AcDbText
  0
TEXT
  5
6D4
100
AcDbEntity
  8
20
100
AcDbText
 10
436.004284
 20
-531.844116
 30
0.0
 40
8.0
  1
ＳＣＡＬＥ
 72
     5
 11
474.404284
 21
-531.844116
 31
0.0
100
AcDbText
  0
TEXT
  5
6D5
100
AcDbEntity
  8
20
100
AcDbText
 10
432.0
 20
-546.0
 30
0.0
 40
12.0
  1
尺　　度
 72
     5
 11
477.6
 21
-546.0
 31
0.0
100
AcDbText
  0
TEXT
  5
6D6
100
AcDbEntity
  8
20
100
AcDbText
 10
430.004284
 20
-489.983539
 30
0.0
 40
8.0
  1
ＦＩＧ．ＮＯ．
 72
     5
 11
484.404284
 21
-489.983539
 31
0.0
100
AcDbText
  0
TEXT
  5
6D7
100
AcDbEntity
  8
20
100
AcDbText
 10
432.0
 20
-506.0
 30
0.0
 40
12.0
  1
名　　称
 72
     5
 11
477.6
 21
-506.0
 31
0.0
100
AcDbText
  0
TEXT
  5
6D8
100
AcDbEntity
  8
20
100
AcDbText
 10
242.2621
 20
-505.881012
 30
0.0
 40
9.2
  1
ＴＯＭＯＥ　ＶＡＬＶＥ　ＣＯ．，ＬＴＤ．
 72
     5
 11
424.4221
 21
-505.881012
 31
0.0
100
AcDbText
  0
TEXT
  5
6D9
100
AcDbEntity
  8
20
100
AcDbText
 10
270.0
 20
-533.159241
 30
0.0
 40
16.0
  1
巴バルブ株式会社
 72
     5
 11
394.8
 21
-533.159241
 31
0.0
100
AcDbText
  0
ENDSEC
  0
SECTION
  2
OBJECTS
  0
DICTIONARY
  5
75E
100
AcDbDictionary
  3
ACAD_GROUP
350
75F
  3
ACAD_MLINESTYLE
350
760
  0
DICTIONARY
  5
75F
102
{ACAD_REACTORS
330
75E
102
}
100
AcDbDictionary
  0
DICTIONARY
  5
760
102
{ACAD_REACTORS
330
75E
102
}
100
AcDbDictionary
  3
STANDARD
350
761
  0
MLINESTYLE
  5
761
102
{ACAD_REACTORS
330
760
102
}
100
AcDbMlineStyle
  2
STANDARD
 70
     0
  3

 62
     0
 51
90.0
 52
90.0
 71
     2
 49
0.5
 62
   256
  6
BYLAYER
 49
-0.5
 62
   256
  6
BYLAYER
  0
ENDSEC
  0
EOF
