  0
SECTION
  2
HEADER
  9
$ACADVER
  1
AC1012
  9
$DWGCODEPAGE
  3
ansi_932
  9
$INSBASE
 10
0.0
 20
0.0
 30
0.0
  9
$EXTMIN
 10
-840.0
 20
-594.0
 30
1.000000E+20
  9
$EXTMAX
 10
840.0
 20
594.0
 30
-1.000000E+20
  9
$LIMMIN
 10
-840.0
 20
-594.0
  9
$LIMMAX
 10
840.0
 20
594.0
  9
$ORTHOMODE
 70
     0
  9
$REGENMODE
 70
     1
  9
$FILLMODE
 70
     1
  9
$QTEXTMODE
 70
     0
  9
$MIRRTEXT
 70
     1
  9
$DRAGMODE
 70
     2
  9
$LTSCALE
 40
1.0
  9
$OSMODE
 70
     0
  9
$ATTMODE
 70
     1
  9
$TEXTSIZE
 40
0.2
  9
$TRACEWID
 40
0.05
  9
$TEXTSTYLE
  7
STANDARD
  9
$CLAYER
  8
0
  9
$CELTYPE
  6
CONTINUOUS
  9
$CECOLOR
 62
   256
  9
$CELTSCALE
 40
1.0
  9
$DELOBJ
 70
     1
  9
$DISPSILH
 70
     0
  9
$DIMSCALE
 40
4.0
  9
$DIMASZ
 40
0.18
  9
$DIMEXO
 40
0.0625
  9
$DIMDLI
 40
0.38
  9
$DIMRND
 40
0.0
  9
$DIMDLE
 40
0.0
  9
$DIMEXE
 40
0.18
  9
$DIMTP
 40
0.0
  9
$DIMTM
 40
0.0
  9
$DIMTXT
 40
0.18
  9
$DIMCEN
 40
0.09
  9
$DIMTSZ
 40
0.0
  9
$DIMTOL
 70
     0
  9
$DIMLIM
 70
     0
  9
$DIMTIH
 70
     1
  9
$DIMTOH
 70
     1
  9
$DIMSE1
 70
     0
  9
$DIMSE2
 70
     0
  9
$DIMTAD
 70
     1
  9
$DIMZIN
 70
     0
  9
$DIMBLK
  1

  9
$DIMASO
 70
     1
  9
$DIMSHO
 70
     1
  9
$DIMPOST
  1

  9
$DIMAPOST
  1

  9
$DIMALT
 70
     0
  9
$DIMALTD
 70
     2
  9
$DIMALTF
 40
25.4
  9
$DIMLFAC
 40
1.0
  9
$DIMTOFL
 70
     0
  9
$DIMTVP
 40
0.0
  9
$DIMTIX
 70
     0
  9
$DIMSOXD
 70
     0
  9
$DIMSAH
 70
     0
  9
$DIMBLK1
  1

  9
$DIMBLK2
  1

  9
$DIMSTYLE
  2
STANDARD
  9
$DIMCLRD
 70
     0
  9
$DIMCLRE
 70
     0
  9
$DIMCLRT
 70
     0
  9
$DIMTFAC
 40
1.0
  9
$DIMGAP
 40
0.09
  9
$DIMJUST
 70
     0
  9
$DIMSD1
 70
     0
  9
$DIMSD2
 70
     0
  9
$DIMTOLJ
 70
     1
  9
$DIMTZIN
 70
     0
  9
$DIMALTZ
 70
     0
  9
$DIMALTTZ
 70
     0
  9
$DIMFIT
 70
     3
  9
$DIMUPT
 70
     0
  9
$DIMUNIT
 70
     2
  9
$DIMDEC
 70
     4
  9
$DIMTDEC
 70
     4
  9
$DIMALTU
 70
     2
  9
$DIMALTTD
 70
     2
  9
$DIMTXSTY
  7
STANDARD
  9
$DIMAUNIT
 70
     0
  9
$LUNITS
 70
     2
  9
$LUPREC
 70
     4
  9
$SKETCHINC
 40
0.1
  9
$FILLETRAD
 40
0.0
  9
$AUNITS
 70
     0
  9
$AUPREC
 70
     0
  9
$MENU
  1
acad
  9
$ELEVATION
 40
0.0
  9
$PELEVATION
 40
0.0
  9
$THICKNESS
 40
0.0
  9
$LIMCHECK
 70
     0
  9
$BLIPMODE
 70
     1
  9
$CHAMFERA
 40
0.0
  9
$CHAMFERB
 40
0.0
  9
$CHAMFERC
 40
0.0
  9
$CHAMFERD
 40
0.0
  9
$SKPOLY
 70
     0
  9
$TDCREATE
 40
2450743.000000000
  9
$TDUPDATE
 40
0.000000000
  9
$TDINDWG
 40
0.0000000000
  9
$TDUSRTIMER
 40
0.0000000000
  9
$USRTIMER
 70
     1
  9
$ANGBASE
 50
0.0
  9
$ANGDIR
 70
     0
  9
$PDMODE
 70
     0
  9
$PDSIZE
 40
0.0
  9
$PLINEWID
 40
0.0
  9
$COORDS
 70
     0
  9
$SPLFRAME
 70
     0
  9
$SPLINETYPE
 70
     6
  9
$SPLINESEGS
 70
     8
  9
$ATTDIA
 70
     0
  9
$ATTREQ
 70
     1
  9
$HANDLING
 70
     1
  9
$HANDSEED
  5
83C
  9
$SURFTAB1
 70
     6
  9
$SURFTAB2
 70
     6
  9
$SURFTYPE
 70
     6
  9
$SURFU
 70
     6
  9
$SURFV
 70
     6
  9
$UCSNAME
  2

  9
$UCSORG
 10
0.0
 20
0.0
 30
0.0
  9
$UCSXDIR
 10
1.0
 20
0.0
 30
0.0
  9
$UCSYDIR
 10
0.0
 20
1.0
 30
0.0
  9
$PUCSNAME
  2

  9
$PUCSORG
 10
0.0
 20
0.0
 30
0.0
  9
$PUCSXDIR
 10
1.0
 20
0.0
 30
0.0
  9
$PUCSYDIR
 10
0.0
 20
1.0
 30
0.0
  9
$USERI1
 70
     0
  9
$USERI2
 70
     0
  9
$USERI3
 70
     0
  9
$USERI4
 70
     0
  9
$USERI5
 70
     0
  9
$USERR1
 40
0.0
  9
$USERR2
 40
0.0
  9
$USERR3
 40
0.0
  9
$USERR4
 40
0.0
  9
$USERR5
 40
0.0
  9
$WORLDVIEW
 70
     1
  9
$SHADEDGE
 70
     3
  9
$SHADEDIF
 70
    70
  9
$TILEMODE
 70
     1
  9
$MAXACTVP
 70
    16
  9
$PINSBASE
 10
0.0
 20
0.0
 30
0.0
  9
$PLIMCHECK
 70
     0
  9
$PEXTMIN
 10
1.000000E+20
 20
1.000000E+20
 30
1.000000E+20
  9
$PEXTMAX
 10
-1.000000E+20
 20
-1.000000E+20
 30
-1.000000E+20
  9
$PLIMMIN
 10
0.0
 20
0.0
  9
$PLIMMAX
 10
12.0
 20
9.0
  9
$UNITMODE
 70
     0
  9
$VISRETAIN
 70
     0
  9
$PLINEGEN
 70
     1
  9
$PSLTSCALE
 70
     0
  9
$TREEDEPTH
 70
  3020
  9
$PICKSTYLE
 70
     1
  9
$CMLSTYLE
  2
STANDARD
  9
$CMLJUST
 70
     0
  9
$CMLSCALE
 40
1.0
  9
$SAVEIMAGES
 70
     0
  0
ENDSEC
  0
SECTION
  2
CLASSES
  0
CLASS
  1
LWPOLYLINE
  2
AcDbPolyline
  3
"AutoCAD"
 90
    32768
280
     0
281
     1
  0
CLASS
  1
IMAGE
  2
AcDbRasterImage
  3
ISM
 90
    32895
280
     0
281
     1
  0
CLASS
  1
OLE2FRAME
  2
AcDbOle2Frame
  3
""
 90
    32768
280
     0
281
     1
  0
CLASS
  1
HATCH
  2
AcDbHatch
  3
"ACAD_SEDONA"
 90
    32768
280
     0
281
     1
  0
CLASS
  1
DICTIONARYVAR
  2
AcDbDictionaryVar
  3
"AutoCAD"
 90
    32768
280
     0
281
     0
  0
CLASS
  1
RASTERVARIABLES
  2
AcDbRasterVariables
  3
ISM
 90
    32768
280
     0
281
     0
  0
CLASS
  1
IMAGEDEF
  2
AcDbRasterImageDef
  3
ISM
 90
    32768
280
     0
281
     0
  0
CLASS
  1
IMAGEDEF_REACTOR
  2
AcDbRasterImageDefReactor
  3
ISM
 90
    32769
280
     0
281
     0
  0
CLASS
  1
IDBUFFER
  2
AcDbIdBuffer
  3
"Acad"
 90
    32768
280
     0
281
     0
  0
CLASS
  1
SPATIAL_FILTER
  2
AcDbSpatialFilter
  3
"Acad"
 90
    32768
280
     0
281
     0
  0
CLASS
  1
XRECORD
  2
AcDbXrecord
  3
"<Built In>"
 90
    32768
280
     0
281
     0
  0
CLASS
  1
SORTENTSTABLE
  2
AcDbSortentsTable
  3
"AutoCAD"
 90
    32768
280
     0
281
     0
  0
CLASS
  1
LAYER_INDEX
  2
AcDbLayerIndex
  3
"Acad"
 90
    32768
280
     0
281
     0
  0
CLASS
  1
SPATIAL_INDEX
  2
AcDbSpatialIndex
  3
"Acad"
 90
    32768
280
     0
281
     0
  0
CLASS
  1
OBJECT_PTR
  2
CAseDLPNTableRecord
  3
"ASE-LPNTableRecord"
 90
    32769
280
     0
281
     0
  0
CLASS
  1
LAYOUT
  2
AcDbLayout
  3
"AutoCAD 2000"
 90
    32768
280
     0
281
     0
  0
CLASS
  1
PLOTSETTINGS
  2
AcDbPlotSettings
  3
"AutoCAD 2000"
 90
    32768
280
     0
281
     0
  0
CLASS
  1
ACDBDICTIONARYWDFLT
  2
AcDbDictionaryWithDefault
  3
"AutoCAD 2000"
 90
    32768
280
     0
281
     0
  0
CLASS
  1
ACDBPLACEHOLDER
  2
AcDbPlaceHolder
  3
"AutoCAD 2000"
 90
    32768
280
     0
281
     0
  0
CLASS
  1
VBA_PROJECT
  2
AcDbVbaProject
  3
"acadvba"
 90
    32768
280
     0
281
     0
  0
CLASS
  1
WIPEOUT
  2
AcDbWipeout
  3
WipeOut|AutoCAD Express Tool|expresstools@autodesk.com
 90
    32895
280
     0
281
     1
  0
CLASS
  1
WIPEOUTVARIABLES
  2
AcDbWipeoutVariables
  3
WipeOut|AutoCAD Express Tool|expresstools@autodesk.com
 90
    32768
280
     0
281
     0
  0
CLASS
  1
RTEXT
  2
RText
  3
RText|AutoCAD Express Tool|expresstools@autodesk.com
 90
    32768
280
     0
281
     1
  0
CLASS
  1
ARCALIGNEDTEXT
  2
AcDbArcAlignedText
  3
ATEXT|AutoCAD Express Tool|expresstools@autodesk.com
 90
    32768
280
     0
281
     1
  0
ENDSEC
  0
SECTION
  2
TABLES
  0
TABLE
  2
VPORT
  5
6
100
AcDbSymbolTable
 70
     1
  0
VPORT
  5
1C
100
AcDbSymbolTableRecord
100
AcDbViewportTableRecord
  2
*ACTIVE
 70
     0
 10
0.0
 20
0.0
 11
1.0
 21
1.0
 12
0.0
 22
0.0
 13
0.0
 23
0.0
 14
1.0
 24
1.0
 15
0.0
 25
0.0
 16
0.0
 26
0.0
 36
1.0
 17
0.0
 27
0.0
 37
0.0
 40
1188.0
 41
1.414141
 42
50.0
 43
0.0
 44
0.0
 50
0.0
 51
0.0
 71
     0
 72
   500
 73
     1
 74
     1
 75
     0
 76
     0
 77
     0
 78
     0
  0
ENDTAB
  0
TABLE
  2
LTYPE
  5
3
100
AcDbSymbolTable
 70
     9
  0
LTYPE
  5
C
100
AcDbSymbolTableRecord
100
AcDbLinetypeTableRecord
  2
BYBLOCK
 70
    64
  3

 72
    65
 73
     0
 40
0.0
  0
LTYPE
  5
D
100
AcDbSymbolTableRecord
100
AcDbLinetypeTableRecord
  2
BYLAYER
 70
    64
  3

 72
    65
 73
     0
 40
0.0
  0
LTYPE
  5
E
100
AcDbSymbolTableRecord
100
AcDbLinetypeTableRecord
  2
CONTINUOUS
 70
     0
  3
Solid line
 72
    65
 73
     0
 40
0.0
  0
LTYPE
  5
F
100
AcDbSymbolTableRecord
100
AcDbLinetypeTableRecord
  2
DASHED
 70
     0
  3
__ __ __ __ __ __ __ __ __ __ __ __ __ __ __
 72
    65
 73
     2
 40
2.0
 49
1.2
 74
     0
 49
-0.8
 74
     0
  0
LTYPE
  5
10
100
AcDbSymbolTableRecord
100
AcDbLinetypeTableRecord
  2
CENTER
 70
     0
  3
____ _ ____ _ ____ _ ____ _ ____ _ ____ _ ____
 72
    65
 73
     4
 40
12.0
 49
9.0
 74
     0
 49
-1.0
 74
     0
 49
1.0
 74
     0
 49
-1.0
 74
     0
  0
LTYPE
  5
11
100
AcDbSymbolTableRecord
100
AcDbLinetypeTableRecord
  2
HIDDEN
 70
     0
  3
_ _ _ _ _ _ _ _ _ _ _ _ _ _ _ _ _ _ _ _ _ _ _
 72
    65
 73
     2
 40
3.2
 49
2.4
 74
     0
 49
-0.8
 74
     0
  0
LTYPE
  5
12
100
AcDbSymbolTableRecord
100
AcDbLinetypeTableRecord
  2
PHANTOM
 70
     0
  3
_____ _ _ _____ _ _ _____ _ _ _____ _ _ _____
 72
    65
 73
     6
 40
13.5
 49
9.0
 74
     0
 49
-1.0
 74
     0
 49
1.0
 74
     0
 49
-0.5
 74
     0
 49
1.0
 74
     0
 49
-1.0
 74
     0
  0
LTYPE
  5
13
100
AcDbSymbolTableRecord
100
AcDbLinetypeTableRecord
  2
DOT
 70
     0
  3
...............................................
 72
    65
 73
     2
 40
1.0
 49
0.5
 74
     0
 49
-0.5
 74
     0
  0
LTYPE
  5
14
100
AcDbSymbolTableRecord
100
AcDbLinetypeTableRecord
  2
DASHDOT
 70
     0
  3
__ . __ . __ . __ . __ . __ . __ . __ . __ . __
 72
    65
 73
     4
 40
8.0
 49
5.0
 74
     0
 49
-1.0
 74
     0
 49
1.0
 74
     0
 49
-1.0
 74
     0
  0
ENDTAB
  0
TABLE
  2
LAYER
  5
1
100
AcDbSymbolTable
 70
     7
  0
LAYER
  5
15
100
AcDbSymbolTableRecord
100
AcDbLayerTableRecord
  2
0
 70
     0
 62
     7
  6
CONTINUOUS
  0
LAYER
  5
16
100
AcDbSymbolTableRecord
100
AcDbLayerTableRecord
  2
1
 70
     0
 62
     7
  6
CONTINUOUS
  0
LAYER
  5
17
100
AcDbSymbolTableRecord
100
AcDbLayerTableRecord
  2
2
 70
     0
 62
     7
  6
CONTINUOUS
  0
LAYER
  5
18
100
AcDbSymbolTableRecord
100
AcDbLayerTableRecord
  2
3
 70
     0
 62
     7
  6
CONTINUOUS
  0
LAYER
  5
19
100
AcDbSymbolTableRecord
100
AcDbLayerTableRecord
  2
5
 70
     0
 62
     7
  6
CONTINUOUS
  0
LAYER
  5
1A
100
AcDbSymbolTableRecord
100
AcDbLayerTableRecord
  2
18
 70
     0
 62
     7
  6
CONTINUOUS
  0
LAYER
  5
1B
100
AcDbSymbolTableRecord
100
AcDbLayerTableRecord
  2
20
 70
     0
 62
     7
  6
CONTINUOUS
  0
ENDTAB
  0
TABLE
  2
STYLE
  5
2
100
AcDbSymbolTable
 70
     1
  0
STYLE
  5
1E
100
AcDbSymbolTableRecord
100
AcDbTextStyleTableRecord
  2
STANDARD
 70
    64
 40
0.0
 41
1.0
 50
0.0
 71
     0
 42
1.0
  3
txt
  4
BIGFONT
  0
ENDTAB
  0
TABLE
  2
VIEW
  5
4
100
AcDbSymbolTable
 70
     0
  0
ENDTAB
  0
TABLE
  2
UCS
  5
5
100
AcDbSymbolTable
 70
     0
  0
ENDTAB
  0
TABLE
  2
APPID
  5
7
100
AcDbSymbolTable
 70
     1
  0
APPID
  5
1D
100
AcDbSymbolTableRecord
100
AcDbRegAppTableRecord
  2
ACAD
 70
     0
  0
ENDTAB
  0
TABLE
  2
DIMSTYLE
  5
8
100
AcDbSymbolTable
 70
     1
  0
DIMSTYLE
105
31
100
AcDbSymbolTableRecord
100
AcDbDimStyleTableRecord
  2
STANDARD
 70
     0
  3

  4

  5

  6

  7

 40
4.0
 41
0.18
 42
0.0625
 43
0.38
 44
0.18
 45
0.0
 46
0.0
 47
0.0
 48
0.0
 71
     0
 72
     0
 73
     1
 74
     1
 75
     0
 76
     0
 77
     1
 78
     0
140
0.18
141
0.09
142
0.0
143
25.4
144
1.0
145
0.0
146
1.0
147
0.09
170
     0
171
     2
172
     0
173
     0
174
     0
175
     0
176
     0
177
     0
178
     0
270
     2
271
     4
272
     4
273
     2
274
     2
275
     0
280
     0
281
     0
282
     0
283
     1
284
     0
285
     0
286
     0
287
     3
288
     0
340
1E
  0
ENDTAB
  0
TABLE
  2
BLOCK_RECORD
  5
2C
100
AcDbSymbolTable
 70
    11
  0
BLOCK_RECORD
  5
2A
100
AcDbSymbolTableRecord
100
AcDbBlockTableRecord
  2
*MODEL_SPACE
  0
BLOCK_RECORD
  5
2B
100
AcDbSymbolTableRecord
100
AcDbBlockTableRecord
  2
*PAPER_SPACE
  0
BLOCK_RECORD
  5
1F
100
AcDbSymbolTableRecord
100
AcDbBlockTableRecord
  2
*D0
  0
BLOCK_RECORD
  5
20
100
AcDbSymbolTableRecord
100
AcDbBlockTableRecord
  2
*D1
  0
BLOCK_RECORD
  5
21
100
AcDbSymbolTableRecord
100
AcDbBlockTableRecord
  2
*D2
  0
BLOCK_RECORD
  5
22
100
AcDbSymbolTableRecord
100
AcDbBlockTableRecord
  2
*D3
  0
BLOCK_RECORD
  5
23
100
AcDbSymbolTableRecord
100
AcDbBlockTableRecord
  2
*D4
  0
BLOCK_RECORD
  5
24
100
AcDbSymbolTableRecord
100
AcDbBlockTableRecord
  2
*D5
  0
BLOCK_RECORD
  5
25
100
AcDbSymbolTableRecord
100
AcDbBlockTableRecord
  2
*D6
  0
BLOCK_RECORD
  5
26
100
AcDbSymbolTableRecord
100
AcDbBlockTableRecord
  2
*D7
  0
BLOCK_RECORD
  5
27
100
AcDbSymbolTableRecord
100
AcDbBlockTableRecord
  2
*D8
  0
BLOCK_RECORD
  5
28
100
AcDbSymbolTableRecord
100
AcDbBlockTableRecord
  2
*D9
  0
BLOCK_RECORD
  5
29
100
AcDbSymbolTableRecord
100
AcDbBlockTableRecord
  2
*D10
  0
ENDTAB
  0
ENDSEC
  0
SECTION
  2
BLOCKS
  0
BLOCK
  5
2D
100
AcDbEntity
  8
0
100
AcDbBlockBegin
  2
*MODEL_SPACE
 70
     0
 10
0.0
 20
0.0
 30
0.0
  3
*MODEL_SPACE
  1

  0
ENDBLK
  5
2E
100
AcDbEntity
  8
0
100
AcDbBlockEnd
  0
BLOCK
  5
2F
100
AcDbEntity
 67
     1
  8
0
100
AcDbBlockBegin
  2
*PAPER_SPACE
 70
     0
 10
0.0
 20
0.0
 30
0.0
  3
*PAPER_SPACE
  1

  0
ENDBLK
  5
30
100
AcDbEntity
 67
     1
  8
0
100
AcDbBlockEnd
  0
BLOCK
  5
7AE
100
AcDbEntity
  8
5
100
AcDbBlockBegin
  2
*D0
 70
     1
 10
0.0
 20
0.0
 30
0.0
  3
*D0
  1

  0
TEXT
  5
7AF
100
AcDbEntity
  8
5
 62
     2
100
AcDbText
 10
-93.057724
 20
-160.293976
 30
0.0
 40
13.2
  1
100
 50
90.0
 41
1.4
 72
     5
 11
-93.057724
 21
-136.269977
 31
0.0
100
AcDbText
  0
LINE
  5
7B0
100
AcDbEntity
  8
5
 62
     2
100
AcDbLine
 10
97.514369
 20
-196.433977
 30
0.0
 11
-95.057724
 21
-196.433977
 31
0.0
  0
LINE
  5
7B1
100
AcDbEntity
  8
5
 62
     2
100
AcDbLine
 10
-91.057724
 20
-196.433977
 30
0.0
 11
-88.987172
 21
-188.70657
 31
0.0
  0
LINE
  5
7B2
100
AcDbEntity
  8
5
 62
     2
100
AcDbLine
 10
-91.057724
 20
-196.433977
 30
0.0
 11
-93.128276
 21
-188.70657
 31
0.0
  0
LINE
  5
7B3
100
AcDbEntity
  8
5
 62
     2
100
AcDbLine
 10
-88.987172
 20
-188.70657
 30
0.0
 11
-93.128276
 21
-188.70657
 31
0.0
  0
LINE
  5
7B4
100
AcDbEntity
  8
5
 62
     2
100
AcDbLine
 10
-91.057724
 20
-196.433977
 30
0.0
 11
-91.057724
 21
-96.433977
 31
0.0
  0
LINE
  5
7B5
100
AcDbEntity
  8
5
 62
     2
100
AcDbLine
 10
-91.057724
 20
-96.433977
 30
0.0
 11
-93.128276
 21
-104.161383
 31
0.0
  0
LINE
  5
7B6
100
AcDbEntity
  8
5
 62
     2
100
AcDbLine
 10
-91.057724
 20
-96.433977
 30
0.0
 11
-88.987172
 21
-104.161383
 31
0.0
  0
LINE
  5
7B7
100
AcDbEntity
  8
5
 62
     2
100
AcDbLine
 10
-93.128276
 20
-104.161383
 30
0.0
 11
-88.987172
 21
-104.161383
 31
0.0
  0
LINE
  5
7B8
100
AcDbEntity
  8
5
 62
     2
100
AcDbLine
 10
97.514369
 20
-96.433977
 30
0.0
 11
-95.057724
 21
-96.433977
 31
0.0
  0
ENDBLK
  5
7B9
100
AcDbEntity
  8
5
100
AcDbBlockEnd
  0
BLOCK
  5
7BA
100
AcDbEntity
  8
5
100
AcDbBlockBegin
  2
*D1
 70
     1
 10
0.0
 20
0.0
 30
0.0
  3
*D1
  1

  0
TEXT
  5
7BB
100
AcDbEntity
  8
5
 62
     2
100
AcDbText
 10
-38.261265
 20
-34.913976
 30
0.0
 40
13.2
  1
%%c100
 50
90.0
 41
1.4
 72
     5
 11
-38.261265
 21
-1.649977
 31
0.0
100
AcDbText
  0
LINE
  5
7BC
100
AcDbEntity
  8
5
 62
     2
100
AcDbLine
 10
2.564369
 20
-66.433977
 30
0.0
 11
-40.261265
 21
-66.433977
 31
0.0
  0
LINE
  5
7BD
100
AcDbEntity
  8
5
 62
     2
100
AcDbLine
 10
-36.261265
 20
-66.433977
 30
0.0
 11
-34.190712
 21
-58.70657
 31
0.0
  0
LINE
  5
7BE
100
AcDbEntity
  8
5
 62
     2
100
AcDbLine
 10
-36.261265
 20
-66.433977
 30
0.0
 11
-38.331817
 21
-58.70657
 31
0.0
  0
LINE
  5
7BF
100
AcDbEntity
  8
5
 62
     2
100
AcDbLine
 10
-34.190712
 20
-58.70657
 30
0.0
 11
-38.331817
 21
-58.70657
 31
0.0
  0
LINE
  5
7C0
100
AcDbEntity
  8
5
 62
     2
100
AcDbLine
 10
-36.261265
 20
-66.433977
 30
0.0
 11
-36.261265
 21
33.566023
 31
0.0
  0
LINE
  5
7C1
100
AcDbEntity
  8
5
 62
     2
100
AcDbLine
 10
-36.261265
 20
33.566023
 30
0.0
 11
-38.331817
 21
25.838617
 31
0.0
  0
LINE
  5
7C2
100
AcDbEntity
  8
5
 62
     2
100
AcDbLine
 10
-36.261265
 20
33.566023
 30
0.0
 11
-34.190712
 21
25.838617
 31
0.0
  0
LINE
  5
7C3
100
AcDbEntity
  8
5
 62
     2
100
AcDbLine
 10
-38.331817
 20
25.838617
 30
0.0
 11
-34.190712
 21
25.838617
 31
0.0
  0
LINE
  5
7C4
100
AcDbEntity
  8
5
 62
     2
100
AcDbLine
 10
2.564369
 20
33.566023
 30
0.0
 11
-40.261265
 21
33.566023
 31
0.0
  0
ENDBLK
  5
7C5
100
AcDbEntity
  8
5
100
AcDbBlockEnd
  0
BLOCK
  5
7C6
100
AcDbEntity
  8
5
100
AcDbBlockBegin
  2
*D2
 70
     1
 10
0.0
 20
0.0
 30
0.0
  3
*D2
  1

  0
TEXT
  5
7C7
100
AcDbEntity
  8
5
 62
     2
100
AcDbText
 10
-93.057724
 20
-11.293976
 30
0.0
 40
13.2
  1
198
 50
90.0
 41
1.4
 72
     5
 11
-93.057724
 21
12.730023
 31
0.0
100
AcDbText
  0
LINE
  5
7C8
100
AcDbEntity
  8
5
 62
     2
100
AcDbLine
 10
97.514369
 20
-96.433977
 30
0.0
 11
-95.057724
 21
-96.433977
 31
0.0
  0
LINE
  5
7C9
100
AcDbEntity
  8
5
 62
     2
100
AcDbLine
 10
-91.057724
 20
-96.433977
 30
0.0
 11
-88.987172
 21
-88.70657
 31
0.0
  0
LINE
  5
7CA
100
AcDbEntity
  8
5
 62
     2
100
AcDbLine
 10
-91.057724
 20
-96.433977
 30
0.0
 11
-93.128276
 21
-88.70657
 31
0.0
  0
LINE
  5
7CB
100
AcDbEntity
  8
5
 62
     2
100
AcDbLine
 10
-88.987172
 20
-88.70657
 30
0.0
 11
-93.128276
 21
-88.70657
 31
0.0
  0
LINE
  5
7CC
100
AcDbEntity
  8
5
 62
     2
100
AcDbLine
 10
-91.057724
 20
-96.433977
 30
0.0
 11
-91.057724
 21
101.566023
 31
0.0
  0
LINE
  5
7CD
100
AcDbEntity
  8
5
 62
     2
100
AcDbLine
 10
-91.057724
 20
101.566023
 30
0.0
 11
-93.128276
 21
93.838617
 31
0.0
  0
LINE
  5
7CE
100
AcDbEntity
  8
5
 62
     2
100
AcDbLine
 10
-91.057724
 20
101.566023
 30
0.0
 11
-88.987172
 21
93.838617
 31
0.0
  0
LINE
  5
7CF
100
AcDbEntity
  8
5
 62
     2
100
AcDbLine
 10
-93.128276
 20
93.838617
 30
0.0
 11
-88.987172
 21
93.838617
 31
0.0
  0
LINE
  5
7D0
100
AcDbEntity
  8
5
 62
     2
100
AcDbLine
 10
148.514369
 20
101.566023
 30
0.0
 11
-95.057724
 21
101.566023
 31
0.0
  0
ENDBLK
  5
7D1
100
AcDbEntity
  8
5
100
AcDbBlockEnd
  0
BLOCK
  5
7D2
100
AcDbEntity
  8
5
100
AcDbBlockBegin
  2
*D3
 70
     1
 10
0.0
 20
0.0
 30
0.0
  3
*D3
  1

  0
TEXT
  5
7D3
100
AcDbEntity
  8
5
 62
     2
100
AcDbText
 10
-317.245631
 20
466.148743
 30
0.0
 40
13.2
  1
143
 41
1.4
 72
     5
 11
-293.221631
 21
466.148743
 31
0.0
100
AcDbText
  0
LINE
  5
7D4
100
AcDbEntity
  8
5
 62
     2
100
AcDbLine
 10
-374.885631
 20
437.427746
 30
0.0
 11
-374.885631
 21
468.148743
 31
0.0
  0
LINE
  5
7D5
100
AcDbEntity
  8
5
 62
     2
100
AcDbLine
 10
-374.885631
 20
464.148743
 30
0.0
 11
-367.158224
 21
462.07819
 31
0.0
  0
LINE
  5
7D6
100
AcDbEntity
  8
5
 62
     2
100
AcDbLine
 10
-374.885631
 20
464.148743
 30
0.0
 11
-367.158224
 21
466.219295
 31
0.0
  0
LINE
  5
7D7
100
AcDbEntity
  8
5
 62
     2
100
AcDbLine
 10
-367.158224
 20
462.07819
 30
0.0
 11
-367.158224
 21
466.219295
 31
0.0
  0
LINE
  5
7D8
100
AcDbEntity
  8
5
 62
     2
100
AcDbLine
 10
-374.885631
 20
464.148743
 30
0.0
 11
-231.885631
 21
464.148743
 31
0.0
  0
LINE
  5
7D9
100
AcDbEntity
  8
5
 62
     2
100
AcDbLine
 10
-231.885631
 20
464.148743
 30
0.0
 11
-239.613038
 21
466.219295
 31
0.0
  0
LINE
  5
7DA
100
AcDbEntity
  8
5
 62
     2
100
AcDbLine
 10
-231.885631
 20
464.148743
 30
0.0
 11
-239.613038
 21
462.07819
 31
0.0
  0
LINE
  5
7DB
100
AcDbEntity
  8
5
 62
     2
100
AcDbLine
 10
-239.613038
 20
466.219295
 30
0.0
 11
-239.613038
 21
462.07819
 31
0.0
  0
LINE
  5
7DC
100
AcDbEntity
  8
5
 62
     2
100
AcDbLine
 10
-231.885631
 20
398.693241
 30
0.0
 11
-231.885631
 21
468.148743
 31
0.0
  0
ENDBLK
  5
7DD
100
AcDbEntity
  8
5
100
AcDbBlockEnd
  0
BLOCK
  5
7DE
100
AcDbEntity
  8
5
100
AcDbBlockBegin
  2
*D4
 70
     1
 10
0.0
 20
0.0
 30
0.0
  3
*D4
  1

  0
TEXT
  5
7DF
100
AcDbEntity
  8
5
 62
     2
100
AcDbText
 10
-472.245631
 20
466.148743
 30
0.0
 40
13.2
  1
167
 41
1.4
 72
     5
 11
-448.221631
 21
466.148743
 31
0.0
100
AcDbText
  0
LINE
  5
7E0
100
AcDbEntity
  8
5
 62
     2
100
AcDbLine
 10
-541.885631
 20
266.766023
 30
0.0
 11
-541.885631
 21
468.148743
 31
0.0
  0
LINE
  5
7E1
100
AcDbEntity
  8
5
 62
     2
100
AcDbLine
 10
-541.885631
 20
464.148743
 30
0.0
 11
-534.158224
 21
462.07819
 31
0.0
  0
LINE
  5
7E2
100
AcDbEntity
  8
5
 62
     2
100
AcDbLine
 10
-541.885631
 20
464.148743
 30
0.0
 11
-534.158224
 21
466.219295
 31
0.0
  0
LINE
  5
7E3
100
AcDbEntity
  8
5
 62
     2
100
AcDbLine
 10
-534.158224
 20
462.07819
 30
0.0
 11
-534.158224
 21
466.219295
 31
0.0
  0
LINE
  5
7E4
100
AcDbEntity
  8
5
 62
     2
100
AcDbLine
 10
-541.885631
 20
464.148743
 30
0.0
 11
-374.885631
 21
464.148743
 31
0.0
  0
LINE
  5
7E5
100
AcDbEntity
  8
5
 62
     2
100
AcDbLine
 10
-374.885631
 20
464.148743
 30
0.0
 11
-382.613038
 21
466.219295
 31
0.0
  0
LINE
  5
7E6
100
AcDbEntity
  8
5
 62
     2
100
AcDbLine
 10
-374.885631
 20
464.148743
 30
0.0
 11
-382.613038
 21
462.07819
 31
0.0
  0
LINE
  5
7E7
100
AcDbEntity
  8
5
 62
     2
100
AcDbLine
 10
-382.613038
 20
466.219295
 30
0.0
 11
-382.613038
 21
462.07819
 31
0.0
  0
LINE
  5
7E8
100
AcDbEntity
  8
5
 62
     2
100
AcDbLine
 10
-374.885631
 20
437.427746
 30
0.0
 11
-374.885631
 21
468.148743
 31
0.0
  0
ENDBLK
  5
7E9
100
AcDbEntity
  8
5
100
AcDbBlockEnd
  0
BLOCK
  5
7EA
100
AcDbEntity
  8
5
100
AcDbBlockBegin
  2
*D5
 70
     1
 10
0.0
 20
0.0
 30
0.0
  3
*D5
  1

  0
TEXT
  5
7EB
100
AcDbEntity
  8
5
 62
     2
100
AcDbText
 10
-174.284775
 20
373.026024
 30
0.0
 40
13.2
  1
85
 50
90.0
 41
1.4
 72
     5
 11
-174.284775
 21
387.810023
 31
0.0
100
AcDbText
  0
LINE
  5
7EC
100
AcDbEntity
  8
5
 62
     2
100
AcDbLine
 10
-215.199014
 20
339.766023
 30
0.0
 11
-168.284775
 21
339.766023
 31
0.0
  0
LINE
  5
7ED
100
AcDbEntity
  8
5
 62
     2
100
AcDbLine
 10
-172.284775
 20
339.766023
 30
0.0
 11
-170.214222
 21
347.49343
 31
0.0
  0
LINE
  5
7EE
100
AcDbEntity
  8
5
 62
     2
100
AcDbLine
 10
-172.284775
 20
339.766023
 30
0.0
 11
-174.355327
 21
347.49343
 31
0.0
  0
LINE
  5
7EF
100
AcDbEntity
  8
5
 62
     2
100
AcDbLine
 10
-170.214222
 20
347.49343
 30
0.0
 11
-174.355327
 21
347.49343
 31
0.0
  0
LINE
  5
7F0
100
AcDbEntity
  8
5
 62
     2
100
AcDbLine
 10
-172.284775
 20
339.766023
 30
0.0
 11
-172.284775
 21
424.766023
 31
0.0
  0
LINE
  5
7F1
100
AcDbEntity
  8
5
 62
     2
100
AcDbLine
 10
-172.284775
 20
424.766023
 30
0.0
 11
-174.355327
 21
417.038617
 31
0.0
  0
LINE
  5
7F2
100
AcDbEntity
  8
5
 62
     2
100
AcDbLine
 10
-172.284775
 20
424.766023
 30
0.0
 11
-170.214222
 21
417.038617
 31
0.0
  0
LINE
  5
7F3
100
AcDbEntity
  8
5
 62
     2
100
AcDbLine
 10
-174.355327
 20
417.038617
 30
0.0
 11
-170.214222
 21
417.038617
 31
0.0
  0
LINE
  5
7F4
100
AcDbEntity
  8
5
 62
     2
100
AcDbLine
 10
-342.562131
 20
424.766023
 30
0.0
 11
-168.284775
 21
424.766023
 31
0.0
  0
ENDBLK
  5
7F5
100
AcDbEntity
  8
5
100
AcDbBlockEnd
  0
BLOCK
  5
7F6
100
AcDbEntity
  8
5
100
AcDbBlockBegin
  2
*D6
 70
     1
 10
0.0
 20
0.0
 30
0.0
  3
*D6
  1

  0
TEXT
  5
7F7
100
AcDbEntity
  8
5
 62
     2
100
AcDbText
 10
-174.284775
 20
248.906024
 30
0.0
 40
13.2
  1
154
 50
90.0
 41
1.4
 72
     5
 11
-174.284775
 21
272.930023
 31
0.0
100
AcDbText
  0
LINE
  5
7F8
100
AcDbEntity
  8
5
 62
     2
100
AcDbLine
 10
-276.603064
 20
185.766023
 30
0.0
 11
-168.284775
 21
185.766023
 31
0.0
  0
LINE
  5
7F9
100
AcDbEntity
  8
5
 62
     2
100
AcDbLine
 10
-172.284775
 20
185.766023
 30
0.0
 11
-170.214222
 21
193.49343
 31
0.0
  0
LINE
  5
7FA
100
AcDbEntity
  8
5
 62
     2
100
AcDbLine
 10
-172.284775
 20
185.766023
 30
0.0
 11
-174.355327
 21
193.49343
 31
0.0
  0
LINE
  5
7FB
100
AcDbEntity
  8
5
 62
     2
100
AcDbLine
 10
-170.214222
 20
193.49343
 30
0.0
 11
-174.355327
 21
193.49343
 31
0.0
  0
LINE
  5
7FC
100
AcDbEntity
  8
5
 62
     2
100
AcDbLine
 10
-172.284775
 20
185.766023
 30
0.0
 11
-172.284775
 21
339.766023
 31
0.0
  0
LINE
  5
7FD
100
AcDbEntity
  8
5
 62
     2
100
AcDbLine
 10
-172.284775
 20
339.766023
 30
0.0
 11
-174.355327
 21
332.038617
 31
0.0
  0
LINE
  5
7FE
100
AcDbEntity
  8
5
 62
     2
100
AcDbLine
 10
-172.284775
 20
339.766023
 30
0.0
 11
-170.214222
 21
332.038617
 31
0.0
  0
LINE
  5
7FF
100
AcDbEntity
  8
5
 62
     2
100
AcDbLine
 10
-174.355327
 20
332.038617
 30
0.0
 11
-170.214222
 21
332.038617
 31
0.0
  0
LINE
  5
800
100
AcDbEntity
  8
5
 62
     2
100
AcDbLine
 10
-215.199014
 20
339.766023
 30
0.0
 11
-168.284775
 21
339.766023
 31
0.0
  0
ENDBLK
  5
801
100
AcDbEntity
  8
5
100
AcDbBlockEnd
  0
BLOCK
  5
802
100
AcDbEntity
  8
5
100
AcDbBlockBegin
  2
*D7
 70
     1
 10
0.0
 20
0.0
 30
0.0
  3
*D7
  1

  0
TEXT
  5
803
100
AcDbEntity
  8
5
 62
     2
100
AcDbText
 10
-93.057724
 20
-283.793976
 30
0.0
 40
13.2
  1
147
 50
90.0
 41
1.4
 72
     5
 11
-93.057724
 21
-259.769977
 31
0.0
100
AcDbText
  0
LINE
  5
804
100
AcDbEntity
  8
5
 62
     2
100
AcDbLine
 10
109.039195
 20
-343.433977
 30
0.0
 11
-95.057724
 21
-343.433977
 31
0.0
  0
LINE
  5
805
100
AcDbEntity
  8
5
 62
     2
100
AcDbLine
 10
-91.057724
 20
-343.433977
 30
0.0
 11
-88.987172
 21
-335.70657
 31
0.0
  0
LINE
  5
806
100
AcDbEntity
  8
5
 62
     2
100
AcDbLine
 10
-91.057724
 20
-343.433977
 30
0.0
 11
-93.128276
 21
-335.70657
 31
0.0
  0
LINE
  5
807
100
AcDbEntity
  8
5
 62
     2
100
AcDbLine
 10
-88.987172
 20
-335.70657
 30
0.0
 11
-93.128276
 21
-335.70657
 31
0.0
  0
LINE
  5
808
100
AcDbEntity
  8
5
 62
     2
100
AcDbLine
 10
-91.057724
 20
-343.433977
 30
0.0
 11
-91.057724
 21
-196.433977
 31
0.0
  0
LINE
  5
809
100
AcDbEntity
  8
5
 62
     2
100
AcDbLine
 10
-91.057724
 20
-196.433977
 30
0.0
 11
-93.128276
 21
-204.161383
 31
0.0
  0
LINE
  5
80A
100
AcDbEntity
  8
5
 62
     2
100
AcDbLine
 10
-91.057724
 20
-196.433977
 30
0.0
 11
-88.987172
 21
-204.161383
 31
0.0
  0
LINE
  5
80B
100
AcDbEntity
  8
5
 62
     2
100
AcDbLine
 10
-93.128276
 20
-204.161383
 30
0.0
 11
-88.987172
 21
-204.161383
 31
0.0
  0
LINE
  5
80C
100
AcDbEntity
  8
5
 62
     2
100
AcDbLine
 10
97.514369
 20
-196.433977
 30
0.0
 11
-95.057724
 21
-196.433977
 31
0.0
  0
ENDBLK
  5
80D
100
AcDbEntity
  8
5
100
AcDbBlockEnd
  0
BLOCK
  5
80E
100
AcDbEntity
  8
5
100
AcDbBlockBegin
  2
*D8
 70
     1
 10
0.0
 20
0.0
 30
0.0
  3
*D8
  1

  0
TEXT
  5
80F
100
AcDbEntity
  8
5
 62
     2
100
AcDbText
 10
-93.057724
 20
-400.173976
 30
0.0
 40
13.2
  1
95
 50
90.0
 41
1.4
 72
     5
 11
-93.057724
 21
-385.389977
 31
0.0
100
AcDbText
  0
LINE
  5
810
100
AcDbEntity
  8
5
 62
     2
100
AcDbLine
 10
131.514369
 20
-438.433977
 30
0.0
 11
-95.057724
 21
-438.433977
 31
0.0
  0
LINE
  5
811
100
AcDbEntity
  8
5
 62
     2
100
AcDbLine
 10
-91.057724
 20
-438.433977
 30
0.0
 11
-88.987172
 21
-430.70657
 31
0.0
  0
LINE
  5
812
100
AcDbEntity
  8
5
 62
     2
100
AcDbLine
 10
-91.057724
 20
-438.433977
 30
0.0
 11
-93.128276
 21
-430.70657
 31
0.0
  0
LINE
  5
813
100
AcDbEntity
  8
5
 62
     2
100
AcDbLine
 10
-88.987172
 20
-430.70657
 30
0.0
 11
-93.128276
 21
-430.70657
 31
0.0
  0
LINE
  5
814
100
AcDbEntity
  8
5
 62
     2
100
AcDbLine
 10
-91.057724
 20
-438.433977
 30
0.0
 11
-91.057724
 21
-343.433977
 31
0.0
  0
LINE
  5
815
100
AcDbEntity
  8
5
 62
     2
100
AcDbLine
 10
-91.057724
 20
-343.433977
 30
0.0
 11
-93.128276
 21
-351.161383
 31
0.0
  0
LINE
  5
816
100
AcDbEntity
  8
5
 62
     2
100
AcDbLine
 10
-91.057724
 20
-343.433977
 30
0.0
 11
-88.987172
 21
-351.161383
 31
0.0
  0
LINE
  5
817
100
AcDbEntity
  8
5
 62
     2
100
AcDbLine
 10
-93.128276
 20
-351.161383
 30
0.0
 11
-88.987172
 21
-351.161383
 31
0.0
  0
LINE
  5
818
100
AcDbEntity
  8
5
 62
     2
100
AcDbLine
 10
109.039195
 20
-343.433977
 30
0.0
 11
-95.057724
 21
-343.433977
 31
0.0
  0
ENDBLK
  5
819
100
AcDbEntity
  8
5
100
AcDbBlockEnd
  0
BLOCK
  5
81A
100
AcDbEntity
  8
5
100
AcDbBlockBegin
  2
*D9
 70
     1
 10
0.0
 20
0.0
 30
0.0
  3
*D9
  1

  0
TEXT
  5
81B
100
AcDbEntity
  8
5
 62
     2
100
AcDbText
 10
103.034369
 20
-473.983887
 30
0.0
 40
13.2
  1
21
 41
1.4
 72
     5
 11
117.818369
 21
-473.983887
 31
0.0
100
AcDbText
  0
LINE
  5
81C
100
AcDbEntity
  8
5
 62
     2
100
AcDbLine
 10
131.514369
 20
-410.933977
 30
0.0
 11
131.514369
 21
-479.983887
 31
0.0
  0
LINE
  5
81D
100
AcDbEntity
  8
5
 62
     2
100
AcDbLine
 10
131.514369
 20
-475.983887
 30
0.0
 11
123.786962
 21
-473.913334
 31
0.0
  0
LINE
  5
81E
100
AcDbEntity
  8
5
 62
     2
100
AcDbLine
 10
131.514369
 20
-475.983887
 30
0.0
 11
123.786962
 21
-478.054439
 31
0.0
  0
LINE
  5
81F
100
AcDbEntity
  8
5
 62
     2
100
AcDbLine
 10
123.786962
 20
-473.913334
 30
0.0
 11
123.786962
 21
-478.054439
 31
0.0
  0
LINE
  5
820
100
AcDbEntity
  8
5
 62
     2
100
AcDbLine
 10
101.034369
 20
-475.983887
 30
0.0
 11
172.514369
 21
-475.983887
 31
0.0
  0
LINE
  5
821
100
AcDbEntity
  8
5
 62
     2
100
AcDbLine
 10
152.514369
 20
-475.983887
 30
0.0
 11
160.241776
 21
-478.054439
 31
0.0
  0
LINE
  5
822
100
AcDbEntity
  8
5
 62
     2
100
AcDbLine
 10
152.514369
 20
-475.983887
 30
0.0
 11
160.241776
 21
-473.913334
 31
0.0
  0
LINE
  5
823
100
AcDbEntity
  8
5
 62
     2
100
AcDbLine
 10
160.241776
 20
-478.054439
 30
0.0
 11
160.241776
 21
-473.913334
 31
0.0
  0
LINE
  5
824
100
AcDbEntity
  8
5
 62
     2
100
AcDbLine
 10
152.514369
 20
-456.619092
 30
0.0
 11
152.514369
 21
-479.983887
 31
0.0
  0
ENDBLK
  5
825
100
AcDbEntity
  8
5
100
AcDbBlockEnd
  0
BLOCK
  5
826
100
AcDbEntity
  8
5
100
AcDbBlockBegin
  2
*D10
 70
     1
 10
0.0
 20
0.0
 30
0.0
  3
*D10
  1

  0
TEXT
  5
827
100
AcDbEntity
  8
5
 62
     2
100
AcDbText
 10
145.274369
 20
-504.190186
 30
0.0
 40
13.2
  1
46
 41
1.4
 72
     5
 11
160.058369
 21
-504.190186
 31
0.0
100
AcDbText
  0
LINE
  5
828
100
AcDbEntity
  8
5
 62
     2
100
AcDbLine
 10
131.514369
 20
-410.933977
 30
0.0
 11
131.514369
 21
-510.190186
 31
0.0
  0
LINE
  5
829
100
AcDbEntity
  8
5
 62
     2
100
AcDbLine
 10
131.514369
 20
-506.190186
 30
0.0
 11
139.241776
 21
-508.260738
 31
0.0
  0
LINE
  5
82A
100
AcDbEntity
  8
5
 62
     2
100
AcDbLine
 10
131.514369
 20
-506.190186
 30
0.0
 11
139.241776
 21
-504.119633
 31
0.0
  0
LINE
  5
82B
100
AcDbEntity
  8
5
 62
     2
100
AcDbLine
 10
139.241776
 20
-508.260738
 30
0.0
 11
139.241776
 21
-504.119633
 31
0.0
  0
LINE
  5
82C
100
AcDbEntity
  8
5
 62
     2
100
AcDbLine
 10
131.514369
 20
-506.190186
 30
0.0
 11
177.514369
 21
-506.190186
 31
0.0
  0
LINE
  5
82D
100
AcDbEntity
  8
5
 62
     2
100
AcDbLine
 10
177.514369
 20
-506.190186
 30
0.0
 11
169.786962
 21
-504.119633
 31
0.0
  0
LINE
  5
82E
100
AcDbEntity
  8
5
 62
     2
100
AcDbLine
 10
177.514369
 20
-506.190186
 30
0.0
 11
169.786962
 21
-508.260738
 31
0.0
  0
LINE
  5
82F
100
AcDbEntity
  8
5
 62
     2
100
AcDbLine
 10
169.786962
 20
-504.119633
 30
0.0
 11
169.786962
 21
-508.260738
 31
0.0
  0
LINE
  5
830
100
AcDbEntity
  8
5
 62
     2
100
AcDbLine
 10
177.514369
 20
-410.933977
 30
0.0
 11
177.514369
 21
-510.190186
 31
0.0
  0
ENDBLK
  5
831
100
AcDbEntity
  8
5
100
AcDbBlockEnd
  0
ENDSEC
  0
SECTION
  2
ENTITIES
  0
LINE
  5
32
100
AcDbEntity
  8
1
  6
CENTER
 62
     2
100
AcDbLine
 10
-374.885631
 20
112.966023
 30
0.0
 11
-374.885631
 21
-452.619092
 31
0.0
  0
LINE
  5
33
100
AcDbEntity
  8
1
  6
CENTER
 62
     2
100
AcDbLine
 10
152.514369
 20
112.966023
 30
0.0
 11
152.514369
 21
-452.619092
 31
0.0
  0
LINE
  5
34
100
AcDbEntity
  8
1
  6
DASHED
100
AcDbLine
 10
-323.885631
 20
312.266023
 30
0.0
 11
-323.885631
 21
367.266023
 31
0.0
  0
LINE
  5
35
100
AcDbEntity
  8
1
  6
DASHED
100
AcDbLine
 10
-425.885631
 20
312.266023
 30
0.0
 11
-425.885631
 21
367.266023
 31
0.0
  0
LINE
  5
36
100
AcDbEntity
  8
1
  6
DASHED
100
AcDbLine
 10
-402.385631
 20
390.766023
 30
0.0
 11
-347.385631
 21
390.766023
 31
0.0
  0
LINE
  5
37
100
AcDbEntity
  8
1
  6
DASHED
100
AcDbLine
 10
-402.385631
 20
288.766023
 30
0.0
 11
-347.385631
 21
288.766023
 31
0.0
  0
ARC
  5
38
100
AcDbEntity
  8
1
  6
DASHED
100
AcDbCircle
 10
-402.385631
 20
312.266023
 30
0.0
 40
23.5
100
AcDbArc
 50
180.0
 51
270.0
  0
ARC
  5
39
100
AcDbEntity
  8
1
  6
DASHED
100
AcDbCircle
 10
-347.385631
 20
312.266023
 30
0.0
 40
23.5
100
AcDbArc
 50
270.0
 51
360.0
  0
ARC
  5
3A
100
AcDbEntity
  8
1
  6
DASHED
100
AcDbCircle
 10
-347.385631
 20
367.266023
 30
0.0
 40
23.5
100
AcDbArc
 50
0.0
 51
90.0
  0
ARC
  5
3B
100
AcDbEntity
  8
1
  6
DASHED
100
AcDbCircle
 10
-402.385631
 20
367.266023
 30
0.0
 40
23.5
100
AcDbArc
 50
90.0
 51
180.0
  0
LINE
  5
3C
100
AcDbEntity
  8
1
  6
CENTER
 62
     2
100
AcDbLine
 10
-351.213636
 20
375.766023
 30
0.0
 11
-327.127577
 21
375.766023
 31
0.0
  0
LINE
  5
3D
100
AcDbEntity
  8
1
  6
CENTER
 62
     2
100
AcDbLine
 10
-338.885631
 20
364.475733
 30
0.0
 11
-338.885631
 21
387.568476
 31
0.0
  0
CIRCLE
  5
3E
100
AcDbEntity
  8
1
  6
DASHED
100
AcDbCircle
 10
-338.885631
 20
375.766023
 30
0.0
 40
5.5
  0
LINE
  5
3F
100
AcDbEntity
  8
1
  6
CENTER
 62
     2
100
AcDbLine
 10
-398.557626
 20
375.766023
 30
0.0
 11
-422.643685
 21
375.766023
 31
0.0
  0
CIRCLE
  5
40
100
AcDbEntity
  8
1
  6
DASHED
100
AcDbCircle
 10
-410.885631
 20
375.766023
 30
0.0
 40
5.5
  0
LINE
  5
41
100
AcDbEntity
  8
1
  6
CENTER
 62
     2
100
AcDbLine
 10
-410.885631
 20
364.475733
 30
0.0
 11
-410.885631
 21
387.568476
 31
0.0
  0
LINE
  5
42
100
AcDbEntity
  8
1
  6
CENTER
 62
     2
100
AcDbLine
 10
-351.213636
 20
303.766023
 30
0.0
 11
-327.127577
 21
303.766023
 31
0.0
  0
CIRCLE
  5
43
100
AcDbEntity
  8
1
  6
DASHED
100
AcDbCircle
 10
-338.885631
 20
303.766023
 30
0.0
 40
5.5
  0
LINE
  5
44
100
AcDbEntity
  8
1
  6
CENTER
 62
     2
100
AcDbLine
 10
-338.885631
 20
315.056314
 30
0.0
 11
-338.885631
 21
291.963571
 31
0.0
  0
LINE
  5
45
100
AcDbEntity
  8
1
  6
CENTER
 62
     2
100
AcDbLine
 10
-398.557626
 20
303.766023
 30
0.0
 11
-422.643685
 21
303.766023
 31
0.0
  0
CIRCLE
  5
46
100
AcDbEntity
  8
1
  6
DASHED
100
AcDbCircle
 10
-410.885631
 20
303.766023
 30
0.0
 40
5.5
  0
LINE
  5
47
100
AcDbEntity
  8
1
  6
CENTER
 62
     2
100
AcDbLine
 10
-410.885631
 20
315.056314
 30
0.0
 11
-410.885631
 21
291.963571
 31
0.0
  0
LINE
  5
48
100
AcDbEntity
  8
1
  6
CENTER
 62
     2
100
AcDbLine
 10
116.514369
 20
-186.037774
 30
0.0
 11
116.514369
 21
-220.429916
 31
0.0
  0
LINE
  5
49
100
AcDbEntity
  8
1
  6
CENTER
 62
     2
100
AcDbLine
 10
188.514369
 20
-186.037774
 30
0.0
 11
188.514369
 21
-220.429916
 31
0.0
  0
LINE
  5
4A
100
AcDbEntity
  8
1
  6
CENTER
 62
     2
100
AcDbLine
 10
-338.885631
 20
-176.625671
 30
0.0
 11
-338.885631
 21
-220.429916
 31
0.0
  0
LINE
  5
4B
100
AcDbEntity
  8
1
  6
CENTER
 62
     2
100
AcDbLine
 10
-410.885631
 20
-176.625671
 30
0.0
 11
-410.885631
 21
-220.429916
 31
0.0
  0
LINE
  5
4C
100
AcDbEntity
  8
1
  6
CENTER
 62
     2
100
AcDbLine
 10
113.039195
 20
-343.433977
 30
0.0
 11
196.047108
 21
-343.433977
 31
0.0
  0
LINE
  5
4D
100
AcDbEntity
  8
1
  6
CENTER
 62
     2
100
AcDbLine
 10
-294.577985
 20
-343.433977
 30
0.0
 11
-462.502495
 21
-343.433977
 31
0.0
  0
CIRCLE
  5
4E
100
AcDbEntity
  8
1
100
AcDbCircle
 10
-375.985631
 20
-343.433977
 30
0.0
 40
63.5
  0
LINE
  5
4F
100
AcDbEntity
  8
1
100
AcDbLine
 10
-357.985631
 20
-428.433977
 30
0.0
 11
-393.985631
 21
-428.433977
 31
0.0
  0
LINE
  5
50
100
AcDbEntity
  8
1
100
AcDbLine
 10
-327.885631
 20
-211.433977
 30
0.0
 11
-421.885631
 21
-211.433977
 31
0.0
  0
LINE
  5
51
100
AcDbEntity
  8
1
100
AcDbLine
 10
-425.885631
 20
-196.433977
 30
0.0
 11
-425.885631
 21
-207.433977
 31
0.0
  0
LINE
  5
52
100
AcDbEntity
  8
1
100
AcDbLine
 10
-323.885631
 20
-196.433977
 30
0.0
 11
-323.885631
 21
-207.433977
 31
0.0
  0
ARC
  5
53
100
AcDbEntity
  8
1
100
AcDbCircle
 10
-421.885631
 20
-207.433977
 30
0.0
 40
4.0
100
AcDbArc
 50
180.0
 51
270.0
  0
ARC
  5
54
100
AcDbEntity
  8
1
100
AcDbCircle
 10
-327.885631
 20
-207.433977
 30
0.0
 40
4.0
100
AcDbArc
 50
270.0
 51
360.0
  0
LINE
  5
55
100
AcDbEntity
  8
1
100
AcDbLine
 10
-393.985631
 20
-216.433977
 30
0.0
 11
-393.985631
 21
-280.336829
 31
0.0
  0
LINE
  5
56
100
AcDbEntity
  8
1
100
AcDbLine
 10
-357.985631
 20
-216.433977
 30
0.0
 11
-357.985631
 21
-280.336829
 31
0.0
  0
ARC
  5
57
100
AcDbEntity
  8
1
100
AcDbCircle
 10
-398.985631
 20
-216.433977
 30
0.0
 40
5.0
100
AcDbArc
 50
0.0
 51
90.0
  0
ARC
  5
58
100
AcDbEntity
  8
1
100
AcDbCircle
 10
-352.985631
 20
-216.433977
 30
0.0
 40
5.0
100
AcDbArc
 50
90.0
 51
180.0
  0
ARC
  5
59
100
AcDbEntity
  8
1
100
AcDbCircle
 10
-396.985631
 20
-280.336829
 30
0.0
 40
3.0
100
AcDbArc
 50
288.40848
 51
360.0
  0
ARC
  5
5A
100
AcDbEntity
  8
1
100
AcDbCircle
 10
-354.985631
 20
-280.336829
 30
0.0
 40
3.0
100
AcDbArc
 50
180.0
 51
251.59152
  0
LINE
  5
5B
100
AcDbEntity
  8
1
100
AcDbLine
 10
-393.985631
 20
-406.531124
 30
0.0
 11
-393.985631
 21
-432.933977
 31
0.0
  0
LINE
  5
5C
100
AcDbEntity
  8
1
100
AcDbLine
 10
-357.985631
 20
-406.531124
 30
0.0
 11
-357.985631
 21
-432.933977
 31
0.0
  0
ARC
  5
5D
100
AcDbEntity
  8
1
100
AcDbCircle
 10
-396.985631
 20
-406.531124
 30
0.0
 40
3.0
100
AcDbArc
 50
0.0
 51
71.59152
  0
ARC
  5
5E
100
AcDbEntity
  8
1
100
AcDbCircle
 10
-354.985631
 20
-406.531124
 30
0.0
 40
3.0
100
AcDbArc
 50
108.40848
 51
180.0
  0
ARC
  5
5F
100
AcDbEntity
  8
1
100
AcDbCircle
 10
-337.985631
 20
-231.433977
 30
0.0
 40
20.0
100
AcDbArc
 50
90.0
 51
180.0
  0
ARC
  5
60
100
AcDbEntity
  8
1
100
AcDbCircle
 10
-413.985631
 20
-231.433977
 30
0.0
 40
20.0
100
AcDbArc
 50
0.0
 51
90.0
  0
LINE
  5
61
100
AcDbEntity
  8
1
100
AcDbLine
 10
-371.885631
 20
-231.433977
 30
0.0
 11
-377.885631
 21
-231.433977
 31
0.0
  0
LINE
  5
62
100
AcDbEntity
  8
1
100
AcDbLine
 10
-377.885631
 20
-214.433977
 30
0.0
 11
-377.885631
 21
-228.433977
 31
0.0
  0
LINE
  5
63
100
AcDbEntity
  8
1
100
AcDbLine
 10
-371.885631
 20
-214.433977
 30
0.0
 11
-371.885631
 21
-228.433977
 31
0.0
  0
ARC
  5
64
100
AcDbEntity
  8
1
100
AcDbCircle
 10
-380.885631
 20
-214.433977
 30
0.0
 40
3.0
100
AcDbArc
 50
0.0
 51
90.0
  0
ARC
  5
65
100
AcDbEntity
  8
1
100
AcDbCircle
 10
-368.885631
 20
-214.433977
 30
0.0
 40
3.0
100
AcDbArc
 50
90.0
 51
180.0
  0
ARC
  5
66
100
AcDbEntity
  8
1
100
AcDbCircle
 10
-368.885631
 20
-228.433977
 30
0.0
 40
3.0
100
AcDbArc
 50
180.0
 51
270.0
  0
ARC
  5
67
100
AcDbEntity
  8
1
100
AcDbCircle
 10
-380.885631
 20
-228.433977
 30
0.0
 40
3.0
100
AcDbArc
 50
270.0
 51
360.0
  0
LINE
  5
68
100
AcDbEntity
  8
1
100
AcDbLine
 10
-337.901589
 20
-292.622012
 30
0.0
 11
-328.550602
 21
-283.271026
 31
0.0
  0
LINE
  5
69
100
AcDbEntity
  8
1
100
AcDbLine
 10
-341.985631
 20
-250.835997
 30
0.0
 11
-352.985631
 21
-250.835997
 31
0.0
  0
LINE
  5
6A
100
AcDbEntity
  8
1
100
AcDbLine
 10
-409.985631
 20
-250.835997
 30
0.0
 11
-398.985631
 21
-250.835997
 31
0.0
  0
ARC
  5
6B
100
AcDbEntity
  8
1
100
AcDbCircle
 10
-341.985631
 20
-269.835997
 30
0.0
 40
19.0
100
AcDbArc
 50
315.0
 51
90.0
  0
ARC
  5
6C
100
AcDbEntity
  8
1
100
AcDbCircle
 10
-409.985631
 20
-269.835997
 30
0.0
 40
19.0
100
AcDbArc
 50
90.0
 51
225.0
  0
ARC
  5
6D
100
AcDbEntity
  8
1
100
AcDbCircle
 10
-352.985631
 20
-245.835997
 30
0.0
 40
5.0
100
AcDbArc
 50
180.0
 51
270.0
  0
ARC
  5
6E
100
AcDbEntity
  8
1
100
AcDbCircle
 10
-398.985631
 20
-245.835997
 30
0.0
 40
5.0
100
AcDbArc
 50
270.0
 51
360.0
  0
ARC
  5
6F
100
AcDbEntity
  8
1
100
AcDbCircle
 10
-345.370956
 20
-269.523614
 30
0.0
 40
11.0
100
AcDbArc
 50
139.803355
 51
193.721547
  0
ARC
  5
70
100
AcDbEntity
  8
1
100
AcDbCircle
 10
-345.370956
 20
-269.523614
 30
0.0
 40
11.0
100
AcDbArc
 50
301.278453
 51
355.196645
  0
ARC
  5
71
100
AcDbEntity
  8
1
100
AcDbCircle
 10
-347.284373
 20
-274.143012
 30
0.0
 40
9.0
100
AcDbArc
 50
167.094068
 51
327.905932
  0
ARC
  5
72
100
AcDbEntity
  8
1
100
AcDbCircle
 10
-343.840223
 20
-265.828096
 30
0.0
 40
10.5
100
AcDbArc
 50
333.916678
 51
161.083322
  0
ARC
  5
73
100
AcDbEntity
  8
1
100
AcDbCircle
 10
-406.600305
 20
-269.523614
 30
0.0
 40
11.0
100
AcDbArc
 50
184.803355
 51
238.721547
  0
ARC
  5
74
100
AcDbEntity
  8
1
100
AcDbCircle
 10
-406.600305
 20
-269.523614
 30
0.0
 40
11.0
100
AcDbArc
 50
346.278453
 51
40.196645
  0
ARC
  5
75
100
AcDbEntity
  8
1
100
AcDbCircle
 10
-404.686888
 20
-274.143012
 30
0.0
 40
9.0
100
AcDbArc
 50
212.094068
 51
12.905932
  0
ARC
  5
76
100
AcDbEntity
  8
1
100
AcDbCircle
 10
-408.131039
 20
-265.828096
 30
0.0
 40
10.5
100
AcDbArc
 50
18.916678
 51
206.083322
  0
LINE
  5
77
100
AcDbEntity
  8
1
100
AcDbLine
 10
-332.864311
 20
-398.312656
 30
0.0
 11
-337.349525
 21
-393.827442
 31
0.0
  0
ARC
  5
78
100
AcDbEntity
  8
1
100
AcDbCircle
 10
-334.985631
 20
-400.433977
 30
0.0
 40
3.0
100
AcDbArc
 50
270.0
 51
45.0
  0
ARC
  5
79
100
AcDbEntity
  8
1
100
AcDbCircle
 10
-416.985631
 20
-400.433977
 30
0.0
 40
3.0
100
AcDbArc
 50
135.0
 51
270.0
  0
LINE
  5
7A
100
AcDbEntity
  8
1
100
AcDbLine
 10
-416.985631
 20
-403.433977
 30
0.0
 11
-404.566367
 21
-403.433977
 31
0.0
  0
LINE
  5
7B
100
AcDbEntity
  8
1
100
AcDbLine
 10
-347.404895
 20
-403.433977
 30
0.0
 11
-334.985631
 21
-403.433977
 31
0.0
  0
ARC
  5
7C
100
AcDbEntity
  8
1
100
AcDbCircle
 10
-347.404895
 20
-412.433977
 30
0.0
 40
9.0
100
AcDbArc
 50
90.0
 51
195.444287
  0
ARC
  5
7D
100
AcDbEntity
  8
1
100
AcDbCircle
 10
-404.566367
 20
-412.433977
 30
0.0
 40
9.0
100
AcDbArc
 50
344.555713
 51
90.0
  0
LINE
  5
7E
100
AcDbEntity
  8
1
100
AcDbLine
 10
-356.485631
 20
-426.08704
 30
0.0
 11
-356.985631
 21
-426.08704
 31
0.0
  0
LINE
  5
7F
100
AcDbEntity
  8
1
100
AcDbLine
 10
-395.485631
 20
-426.08704
 30
0.0
 11
-394.985631
 21
-426.08704
 31
0.0
  0
ARC
  5
80
100
AcDbEntity
  8
1
100
AcDbCircle
 10
-345.370956
 20
-417.344339
 30
0.0
 40
11.0
100
AcDbArc
 50
166.790413
 51
211.24303
  0
ARC
  5
81
100
AcDbEntity
  8
1
100
AcDbCircle
 10
-356.485631
 20
-424.08704
 30
0.0
 40
2.0
100
AcDbArc
 50
270.0
 51
31.24303
  0
ARC
  5
82
100
AcDbEntity
  8
1
100
AcDbCircle
 10
-406.600305
 20
-417.344339
 30
0.0
 40
11.0
100
AcDbArc
 50
328.75697
 51
13.209587
  0
ARC
  5
83
100
AcDbEntity
  8
1
100
AcDbCircle
 10
-395.485631
 20
-424.08704
 30
0.0
 40
2.0
100
AcDbArc
 50
148.75697
 51
270.0
  0
ARC
  5
84
100
AcDbEntity
  8
1
100
AcDbCircle
 10
-356.985631
 20
-427.08704
 30
0.0
 40
1.0
100
AcDbArc
 50
90.0
 51
180.0
  0
ARC
  5
85
100
AcDbEntity
  8
1
100
AcDbCircle
 10
-394.985631
 20
-427.08704
 30
0.0
 40
1.0
100
AcDbArc
 50
360.0
 51
90.0
  0
CIRCLE
  5
86
100
AcDbEntity
  8
1
100
AcDbCircle
 10
-375.985631
 20
-343.433977
 30
0.0
 40
44.5
  0
LINE
  5
87
100
AcDbEntity
  8
1
100
AcDbLine
 10
-414.069673
 20
-292.622012
 30
0.0
 11
-423.42066
 21
-283.271026
 31
0.0
  0
LINE
  5
88
100
AcDbEntity
  8
1
100
AcDbLine
 10
-419.106951
 20
-398.312656
 30
0.0
 11
-414.621737
 21
-393.827442
 31
0.0
  0
LINE
  5
89
100
AcDbEntity
  8
1
100
AcDbLine
 10
173.514369
 20
-279.933977
 30
0.0
 11
177.514369
 21
-279.933977
 31
0.0
  0
LINE
  5
8A
100
AcDbEntity
  8
1
100
AcDbLine
 10
173.514369
 20
-406.933977
 30
0.0
 11
177.514369
 21
-406.933977
 31
0.0
  0
LINE
  5
8B
100
AcDbEntity
  8
1
100
AcDbLine
 10
177.514369
 20
-279.933977
 30
0.0
 11
177.514369
 21
-406.933977
 31
0.0
  0
LINE
  5
8C
100
AcDbEntity
  8
1
100
AcDbLine
 10
131.514369
 20
-279.933977
 30
0.0
 11
131.514369
 21
-406.933977
 31
0.0
  0
LINE
  5
8D
100
AcDbEntity
  8
1
100
AcDbLine
 10
105.514369
 20
-211.433977
 30
0.0
 11
199.514369
 21
-211.433977
 31
0.0
  0
LINE
  5
8E
100
AcDbEntity
  8
1
100
AcDbLine
 10
134.514369
 20
-428.433977
 30
0.0
 11
170.514369
 21
-428.433977
 31
0.0
  0
LINE
  5
8F
100
AcDbEntity
  8
1
100
AcDbLine
 10
101.514369
 20
-196.433977
 30
0.0
 11
101.514369
 21
-207.433977
 31
0.0
  0
LINE
  5
90
100
AcDbEntity
  8
1
100
AcDbLine
 10
203.514369
 20
-196.433977
 30
0.0
 11
203.514369
 21
-207.433977
 31
0.0
  0
ARC
  5
91
100
AcDbEntity
  8
1
100
AcDbCircle
 10
105.514369
 20
-207.433977
 30
0.0
 40
4.0
100
AcDbArc
 50
180.0
 51
270.0
  0
ARC
  5
92
100
AcDbEntity
  8
1
100
AcDbCircle
 10
199.514369
 20
-207.433977
 30
0.0
 40
4.0
100
AcDbArc
 50
270.0
 51
360.0
  0
LINE
  5
93
100
AcDbEntity
  8
1
100
AcDbLine
 10
170.514369
 20
-432.933977
 30
0.0
 11
170.514369
 21
-406.684636
 31
0.0
  0
LINE
  5
94
100
AcDbEntity
  8
1
100
AcDbLine
 10
170.514369
 20
-280.183317
 30
0.0
 11
170.514369
 21
-216.433977
 31
0.0
  0
LINE
  5
95
100
AcDbEntity
  8
1
100
AcDbLine
 10
134.514369
 20
-432.933977
 30
0.0
 11
134.514369
 21
-406.684636
 31
0.0
  0
LINE
  5
96
100
AcDbEntity
  8
1
100
AcDbLine
 10
134.514369
 20
-280.183317
 30
0.0
 11
134.514369
 21
-216.433977
 31
0.0
  0
ARC
  5
97
100
AcDbEntity
  8
1
100
AcDbCircle
 10
175.514369
 20
-216.433977
 30
0.0
 40
5.0
100
AcDbArc
 50
90.0
 51
180.0
  0
ARC
  5
98
100
AcDbEntity
  8
1
100
AcDbCircle
 10
129.514369
 20
-216.433977
 30
0.0
 40
5.0
100
AcDbArc
 50
0.0
 51
90.0
  0
ARC
  5
99
100
AcDbEntity
  8
1
100
AcDbCircle
 10
190.514369
 20
-231.433977
 30
0.0
 40
20.0
100
AcDbArc
 50
90.0
 51
180.0
  0
ARC
  5
9A
100
AcDbEntity
  8
1
100
AcDbCircle
 10
114.514369
 20
-231.433977
 30
0.0
 40
20.0
100
AcDbArc
 50
0.0
 51
90.0
  0
LINE
  5
9B
100
AcDbEntity
  8
1
100
AcDbLine
 10
155.514369
 20
-231.433977
 30
0.0
 11
149.514369
 21
-231.433977
 31
0.0
  0
LINE
  5
9C
100
AcDbEntity
  8
1
100
AcDbLine
 10
149.514369
 20
-214.433977
 30
0.0
 11
149.514369
 21
-228.433977
 31
0.0
  0
LINE
  5
9D
100
AcDbEntity
  8
1
100
AcDbLine
 10
155.514369
 20
-214.433977
 30
0.0
 11
155.514369
 21
-228.433977
 31
0.0
  0
ARC
  5
9E
100
AcDbEntity
  8
1
100
AcDbCircle
 10
146.514369
 20
-214.433977
 30
0.0
 40
3.0
100
AcDbArc
 50
0.0
 51
90.0
  0
ARC
  5
9F
100
AcDbEntity
  8
1
100
AcDbCircle
 10
158.514369
 20
-214.433977
 30
0.0
 40
3.0
100
AcDbArc
 50
90.0
 51
180.0
  0
ARC
  5
A0
100
AcDbEntity
  8
1
100
AcDbCircle
 10
158.514369
 20
-228.433977
 30
0.0
 40
3.0
100
AcDbArc
 50
180.0
 51
270.0
  0
ARC
  5
A1
100
AcDbEntity
  8
1
100
AcDbCircle
 10
146.514369
 20
-228.433977
 30
0.0
 40
3.0
100
AcDbArc
 50
270.0
 51
360.0
  0
ARC
  5
A2
100
AcDbEntity
  8
1
100
AcDbCircle
 10
173.514369
 20
-276.933977
 30
0.0
 40
3.0
100
AcDbArc
 50
180.0
 51
270.0
  0
ARC
  5
A3
100
AcDbEntity
  8
1
100
AcDbCircle
 10
173.514369
 20
-409.933977
 30
0.0
 40
3.0
100
AcDbArc
 50
90.0
 51
180.0
  0
ARC
  5
A4
100
AcDbEntity
  8
1
100
AcDbCircle
 10
131.514369
 20
-276.933977
 30
0.0
 40
3.0
100
AcDbArc
 50
270.0
 51
360.0
  0
ARC
  5
A5
100
AcDbEntity
  8
1
100
AcDbCircle
 10
131.514369
 20
-409.933977
 30
0.0
 40
3.0
100
AcDbArc
 50
0.0
 51
90.0
  0
ARC
  5
A6
100
AcDbEntity
  8
1
100
AcDbCircle
 10
173.514369
 20
-280.183317
 30
0.0
 40
3.0
100
AcDbArc
 50
180.0
 51
270.0
  0
ARC
  5
A7
100
AcDbEntity
  8
1
100
AcDbCircle
 10
173.514369
 20
-406.684636
 30
0.0
 40
3.0
100
AcDbArc
 50
90.0
 51
180.0
  0
ARC
  5
A8
100
AcDbEntity
  8
1
100
AcDbCircle
 10
131.514369
 20
-280.183317
 30
0.0
 40
3.0
100
AcDbArc
 50
270.0
 51
360.0
  0
ARC
  5
A9
100
AcDbEntity
  8
1
100
AcDbCircle
 10
131.514369
 20
-406.684636
 30
0.0
 40
3.0
100
AcDbArc
 50
0.0
 51
90.0
  0
LINE
  5
AA
100
AcDbEntity
  8
1
  6
DASHED
100
AcDbLine
 10
-439.485631
 20
318.766023
 30
0.0
 11
-439.485631
 21
364.766023
 31
0.0
  0
LINE
  5
AB
100
AcDbEntity
  8
1
  6
DASHED
100
AcDbLine
 10
-439.485631
 20
364.766023
 30
0.0
 11
-425.885631
 21
364.766023
 31
0.0
  0
LINE
  5
AC
100
AcDbEntity
  8
1
  6
DASHED
100
AcDbLine
 10
-439.485631
 20
318.766023
 30
0.0
 11
-425.885631
 21
318.766023
 31
0.0
  0
LINE
  5
AD
100
AcDbEntity
  8
1
  6
DASHED
100
AcDbLine
 10
-437.651123
 20
348.373176
 30
0.0
 11
-429.145345
 21
346.130828
 31
0.0
  0
LINE
  5
AE
100
AcDbEntity
  8
1
  6
DASHED
100
AcDbLine
 10
-429.145345
 20
328.401219
 30
0.0
 11
-437.651123
 21
326.158871
 31
0.0
  0
ARC
  5
AF
100
AcDbEntity
  8
1
  6
DASHED
100
AcDbCircle
 10
-430.419931
 20
341.296013
 30
0.0
 40
5.0
100
AcDbArc
 50
24.925034
 51
75.231328
  0
ARC
  5
B0
100
AcDbEntity
  8
1
  6
DASHED
100
AcDbCircle
 10
-430.419931
 20
333.236034
 30
0.0
 40
5.0
100
AcDbArc
 50
284.768672
 51
335.074966
  0
ARC
  5
B1
100
AcDbEntity
  8
1
  6
DASHED
100
AcDbCircle
 10
-437.141289
 20
350.307102
 30
0.0
 40
2.0
100
AcDbArc
 50
180.0
 51
255.231328
  0
ARC
  5
B2
100
AcDbEntity
  8
1
  6
DASHED
100
AcDbCircle
 10
-437.141289
 20
324.224945
 30
0.0
 40
2.0
100
AcDbArc
 50
104.768672
 51
180.0
  0
LINE
  5
B3
100
AcDbEntity
  8
1
  6
DASHED
100
AcDbLine
 10
-428.985631
 20
338.766023
 30
0.0
 11
-428.985631
 21
340.766023
 31
0.0
  0
LINE
  5
B4
100
AcDbEntity
  8
1
  6
DASHED
100
AcDbLine
 10
-426.985631
 20
342.766023
 30
0.0
 11
-425.885631
 21
342.766023
 31
0.0
  0
LINE
  5
B5
100
AcDbEntity
  8
1
  6
DASHED
100
AcDbLine
 10
-426.985631
 20
336.766023
 30
0.0
 11
-425.885631
 21
336.766023
 31
0.0
  0
ARC
  5
B6
100
AcDbEntity
  8
1
  6
DASHED
100
AcDbCircle
 10
-426.985631
 20
340.766023
 30
0.0
 40
2.0
100
AcDbArc
 50
90.0
 51
180.0
  0
ARC
  5
B7
100
AcDbEntity
  8
1
  6
DASHED
100
AcDbCircle
 10
-426.985631
 20
338.766023
 30
0.0
 40
2.0
100
AcDbArc
 50
180.0
 51
270.0
  0
LINE
  5
B8
100
AcDbEntity
  8
1
  6
DASHED
100
AcDbLine
 10
-437.651123
 20
325.766023
 30
0.0
 11
-425.885631
 21
325.766023
 31
0.0
  0
LINE
  5
B9
100
AcDbEntity
  8
1
  6
DASHED
100
AcDbLine
 10
-437.651123
 20
348.766023
 30
0.0
 11
-425.885631
 21
348.766023
 31
0.0
  0
LINE
  5
BA
100
AcDbEntity
  8
1
  6
DASHED
100
AcDbLine
 10
-439.141289
 20
325.766023
 30
0.0
 11
-439.141289
 21
348.766023
 31
0.0
  0
LINE
  5
BB
100
AcDbEntity
  8
1
  6
DASHED
100
AcDbLine
 10
-312.485631
 20
318.766023
 30
0.0
 11
-312.485631
 21
364.766023
 31
0.0
  0
LINE
  5
BC
100
AcDbEntity
  8
1
  6
DASHED
100
AcDbLine
 10
-312.485631
 20
364.766023
 30
0.0
 11
-323.885631
 21
364.766023
 31
0.0
  0
LINE
  5
BD
100
AcDbEntity
  8
1
  6
DASHED
100
AcDbLine
 10
-312.485631
 20
318.766023
 30
0.0
 11
-323.885631
 21
318.766023
 31
0.0
  0
LINE
  5
BE
100
AcDbEntity
  8
1
  6
DASHED
100
AcDbLine
 10
-314.320138
 20
348.373176
 30
0.0
 11
-322.825916
 21
346.130828
 31
0.0
  0
LINE
  5
BF
100
AcDbEntity
  8
1
  6
DASHED
100
AcDbLine
 10
-322.825916
 20
328.401219
 30
0.0
 11
-314.320138
 21
326.158871
 31
0.0
  0
ARC
  5
C0
100
AcDbEntity
  8
1
  6
DASHED
100
AcDbCircle
 10
-321.551331
 20
341.296013
 30
0.0
 40
5.0
100
AcDbArc
 50
104.768672
 51
117.830662
  0
ARC
  5
C1
100
AcDbEntity
  8
1
  6
DASHED
100
AcDbCircle
 10
-321.551331
 20
333.236034
 30
0.0
 40
5.0
100
AcDbArc
 50
242.169338
 51
255.231328
  0
ARC
  5
C2
100
AcDbEntity
  8
1
  6
DASHED
100
AcDbCircle
 10
-314.829973
 20
350.307102
 30
0.0
 40
2.0
100
AcDbArc
 50
284.768672
 51
0.0
  0
ARC
  5
C3
100
AcDbEntity
  8
1
  6
DASHED
100
AcDbCircle
 10
-314.829973
 20
324.224945
 30
0.0
 40
2.0
100
AcDbArc
 50
0.0
 51
75.231328
  0
LINE
  5
C4
100
AcDbEntity
  8
1
  6
DASHED
100
AcDbLine
 10
-322.985631
 20
338.766023
 30
0.0
 11
-322.985631
 21
340.766023
 31
0.0
  0
ARC
  5
C5
100
AcDbEntity
  8
1
  6
DASHED
100
AcDbCircle
 10
-324.985631
 20
340.766023
 30
0.0
 40
2.0
100
AcDbArc
 50
0.0
 51
56.632987
  0
ARC
  5
C6
100
AcDbEntity
  8
1
  6
DASHED
100
AcDbCircle
 10
-324.985631
 20
338.766023
 30
0.0
 40
2.0
100
AcDbArc
 50
303.367013
 51
360.0
  0
LINE
  5
C7
100
AcDbEntity
  8
1
  6
DASHED
100
AcDbLine
 10
-314.320138
 20
325.766023
 30
0.0
 11
-323.885631
 21
325.766023
 31
0.0
  0
LINE
  5
C8
100
AcDbEntity
  8
1
  6
DASHED
100
AcDbLine
 10
-314.320138
 20
348.766023
 30
0.0
 11
-323.885631
 21
348.766023
 31
0.0
  0
LINE
  5
C9
100
AcDbEntity
  8
1
  6
DASHED
100
AcDbLine
 10
-312.829973
 20
325.766023
 30
0.0
 11
-312.829973
 21
348.766023
 31
0.0
  0
LINE
  5
CA
100
AcDbEntity
  8
1
100
AcDbLine
 10
145.131683
 20
-302.292149
 30
0.0
 11
154.897055
 21
-302.292149
 31
0.0
  0
LINE
  5
CB
100
AcDbEntity
  8
1
100
AcDbLine
 10
145.131683
 20
-330.071908
 30
0.0
 11
154.897055
 21
-330.071908
 31
0.0
  0
ARC
  5
CC
100
AcDbEntity
  8
1
100
AcDbCircle
 10
154.897055
 20
-305.292149
 30
0.0
 40
3.0
100
AcDbArc
 50
0.0
 51
90.0
  0
ARC
  5
CD
100
AcDbEntity
  8
1
100
AcDbCircle
 10
145.131683
 20
-305.292149
 30
0.0
 40
3.0
100
AcDbArc
 50
90.0
 51
180.0
  0
ARC
  5
CE
100
AcDbEntity
  8
1
100
AcDbCircle
 10
145.131683
 20
-327.071908
 30
0.0
 40
3.0
100
AcDbArc
 50
180.0
 51
270.0
  0
ARC
  5
CF
100
AcDbEntity
  8
1
100
AcDbCircle
 10
154.897055
 20
-327.071908
 30
0.0
 40
3.0
100
AcDbArc
 50
270.0
 51
360.0
  0
ARC
  5
D0
100
AcDbEntity
  8
1
100
AcDbCircle
 10
158.514369
 20
-332.933977
 30
0.0
 40
3.0
100
AcDbArc
 50
270.0
 51
360.0
  0
ARC
  5
D1
100
AcDbEntity
  8
1
100
AcDbCircle
 10
141.514369
 20
-332.933977
 30
0.0
 40
3.0
100
AcDbArc
 50
180.0
 51
270.0
  0
ARC
  5
D2
100
AcDbEntity
  8
1
100
AcDbCircle
 10
141.514369
 20
-295.622012
 30
0.0
 40
3.0
100
AcDbArc
 50
90.0
 51
180.0
  0
ARC
  5
D3
100
AcDbEntity
  8
1
100
AcDbCircle
 10
158.514369
 20
-295.622012
 30
0.0
 40
3.0
100
AcDbArc
 50
360.0
 51
90.0
  0
LINE
  5
D4
100
AcDbEntity
  8
1
100
AcDbLine
 10
160.392157
 20
-295.622012
 30
0.0
 11
157.897055
 21
-302.292149
 31
0.0
  0
LINE
  5
D5
100
AcDbEntity
  8
1
100
AcDbLine
 10
142.131683
 20
-302.292149
 30
0.0
 11
139.636581
 21
-295.622012
 31
0.0
  0
LINE
  5
D6
100
AcDbEntity
  8
1
100
AcDbLine
 10
142.131683
 20
-330.071908
 30
0.0
 11
140.365583
 21
-332.933977
 31
0.0
  0
LINE
  5
D7
100
AcDbEntity
  8
1
100
AcDbLine
 10
157.897055
 20
-330.071908
 30
0.0
 11
159.663155
 21
-332.933977
 31
0.0
  0
LINE
  5
D8
100
AcDbEntity
  8
1
100
AcDbLine
 10
145.131683
 20
-384.575804
 30
0.0
 11
154.897055
 21
-384.575804
 31
0.0
  0
LINE
  5
D9
100
AcDbEntity
  8
1
100
AcDbLine
 10
145.131683
 20
-356.796045
 30
0.0
 11
154.897055
 21
-356.796045
 31
0.0
  0
ARC
  5
DA
100
AcDbEntity
  8
1
100
AcDbCircle
 10
154.897055
 20
-381.575804
 30
0.0
 40
3.0
100
AcDbArc
 50
270.0
 51
360.0
  0
ARC
  5
DB
100
AcDbEntity
  8
1
100
AcDbCircle
 10
145.131683
 20
-381.575804
 30
0.0
 40
3.0
100
AcDbArc
 50
180.0
 51
270.0
  0
ARC
  5
DC
100
AcDbEntity
  8
1
100
AcDbCircle
 10
145.131683
 20
-359.796045
 30
0.0
 40
3.0
100
AcDbArc
 50
90.0
 51
180.0
  0
ARC
  5
DD
100
AcDbEntity
  8
1
100
AcDbCircle
 10
154.897055
 20
-359.796045
 30
0.0
 40
3.0
100
AcDbArc
 50
0.0
 51
90.0
  0
ARC
  5
DE
100
AcDbEntity
  8
1
100
AcDbCircle
 10
158.514369
 20
-353.933977
 30
0.0
 40
3.0
100
AcDbArc
 50
0.0
 51
90.0
  0
ARC
  5
DF
100
AcDbEntity
  8
1
100
AcDbCircle
 10
141.514369
 20
-353.933977
 30
0.0
 40
3.0
100
AcDbArc
 50
90.0
 51
180.0
  0
ARC
  5
E0
100
AcDbEntity
  8
1
100
AcDbCircle
 10
141.514369
 20
-391.245941
 30
0.0
 40
3.0
100
AcDbArc
 50
180.0
 51
270.0
  0
ARC
  5
E1
100
AcDbEntity
  8
1
100
AcDbCircle
 10
158.514369
 20
-391.245941
 30
0.0
 40
3.0
100
AcDbArc
 50
270.0
 51
0.0
  0
LINE
  5
E2
100
AcDbEntity
  8
1
100
AcDbLine
 10
160.392157
 20
-391.245941
 30
0.0
 11
157.897055
 21
-384.575804
 31
0.0
  0
LINE
  5
E3
100
AcDbEntity
  8
1
100
AcDbLine
 10
142.131683
 20
-384.575804
 30
0.0
 11
139.636581
 21
-391.245941
 31
0.0
  0
LINE
  5
E4
100
AcDbEntity
  8
1
100
AcDbLine
 10
142.131683
 20
-356.796045
 30
0.0
 11
140.365583
 21
-353.933977
 31
0.0
  0
LINE
  5
E5
100
AcDbEntity
  8
1
100
AcDbLine
 10
157.897055
 20
-356.796045
 30
0.0
 11
159.663155
 21
-353.933977
 31
0.0
  0
LINE
  5
E6
100
AcDbEntity
  8
1
100
AcDbLine
 10
138.514369
 20
-295.622012
 30
0.0
 11
138.514369
 21
-332.933977
 31
0.0
  0
LINE
  5
E7
100
AcDbEntity
  8
1
100
AcDbLine
 10
161.514369
 20
-295.622012
 30
0.0
 11
161.514369
 21
-332.933977
 31
0.0
  0
LINE
  5
E8
100
AcDbEntity
  8
1
100
AcDbLine
 10
157.897055
 20
-305.292149
 30
0.0
 11
157.897055
 21
-327.071908
 31
0.0
  0
LINE
  5
E9
100
AcDbEntity
  8
1
100
AcDbLine
 10
142.131683
 20
-305.292149
 30
0.0
 11
142.131683
 21
-327.071908
 31
0.0
  0
LINE
  5
EA
100
AcDbEntity
  8
1
100
AcDbLine
 10
138.514369
 20
-391.245941
 30
0.0
 11
138.514369
 21
-353.933977
 31
0.0
  0
LINE
  5
EB
100
AcDbEntity
  8
1
100
AcDbLine
 10
161.514369
 20
-391.245941
 30
0.0
 11
161.514369
 21
-353.933977
 31
0.0
  0
LINE
  5
EC
100
AcDbEntity
  8
1
100
AcDbLine
 10
157.897055
 20
-381.575804
 30
0.0
 11
157.897055
 21
-359.796045
 31
0.0
  0
LINE
  5
ED
100
AcDbEntity
  8
1
100
AcDbLine
 10
142.131683
 20
-381.575804
 30
0.0
 11
142.131683
 21
-359.796045
 31
0.0
  0
LINE
  5
EE
100
AcDbEntity
  8
1
100
AcDbLine
 10
141.514369
 20
-335.933977
 30
0.0
 11
158.514369
 21
-335.933977
 31
0.0
  0
LINE
  5
EF
100
AcDbEntity
  8
1
100
AcDbLine
 10
141.514369
 20
-292.622012
 30
0.0
 11
146.514369
 21
-292.622012
 31
0.0
  0
LINE
  5
F0
100
AcDbEntity
  8
1
100
AcDbLine
 10
141.514369
 20
-350.933977
 30
0.0
 11
158.514369
 21
-350.933977
 31
0.0
  0
LINE
  5
F1
100
AcDbEntity
  8
1
100
AcDbLine
 10
141.514369
 20
-394.245941
 30
0.0
 11
146.514369
 21
-394.245941
 31
0.0
  0
LINE
  5
F2
100
AcDbEntity
  8
1
100
AcDbLine
 10
134.514369
 20
-283.183317
 30
0.0
 11
146.514369
 21
-283.183317
 31
0.0
  0
LINE
  5
F3
100
AcDbEntity
  8
1
100
AcDbLine
 10
158.514369
 20
-283.183317
 30
0.0
 11
170.514369
 21
-283.183317
 31
0.0
  0
LINE
  5
F4
100
AcDbEntity
  8
1
100
AcDbLine
 10
134.514369
 20
-403.684636
 30
0.0
 11
146.514369
 21
-403.684636
 31
0.0
  0
LINE
  5
F5
100
AcDbEntity
  8
1
100
AcDbLine
 10
158.514369
 20
-403.684636
 30
0.0
 11
170.514369
 21
-403.684636
 31
0.0
  0
LINE
  5
F6
100
AcDbEntity
  8
1
100
AcDbLine
 10
149.514369
 20
-245.835997
 30
0.0
 11
155.514369
 21
-245.835997
 31
0.0
  0
LINE
  5
F7
100
AcDbEntity
  8
1
100
AcDbLine
 10
149.514369
 20
-248.835997
 30
0.0
 11
149.514369
 21
-289.622012
 31
0.0
  0
LINE
  5
F8
100
AcDbEntity
  8
1
100
AcDbLine
 10
155.514369
 20
-248.835997
 30
0.0
 11
155.514369
 21
-289.622012
 31
0.0
  0
ARC
  5
F9
100
AcDbEntity
  8
1
100
AcDbCircle
 10
158.514369
 20
-248.835997
 30
0.0
 40
3.0
100
AcDbArc
 50
90.0
 51
180.0
  0
ARC
  5
FA
100
AcDbEntity
  8
1
100
AcDbCircle
 10
146.514369
 20
-248.835997
 30
0.0
 40
3.0
100
AcDbArc
 50
0.0
 51
90.0
  0
ARC
  5
FB
100
AcDbEntity
  8
1
100
AcDbCircle
 10
146.514369
 20
-289.622012
 30
0.0
 40
3.0
100
AcDbArc
 50
270.0
 51
360.0
  0
ARC
  5
FC
100
AcDbEntity
  8
1
100
AcDbCircle
 10
158.514369
 20
-289.622012
 30
0.0
 40
3.0
100
AcDbArc
 50
180.0
 51
270.0
  0
LINE
  5
FD
100
AcDbEntity
  8
1
100
AcDbLine
 10
151.514369
 20
-250.835997
 30
0.0
 11
153.514369
 21
-250.835997
 31
0.0
  0
LINE
  5
FE
100
AcDbEntity
  8
1
100
AcDbLine
 10
151.514369
 20
-283.271026
 30
0.0
 11
153.514369
 21
-283.271026
 31
0.0
  0
ARC
  5
FF
100
AcDbEntity
  8
1
100
AcDbCircle
 10
153.514369
 20
-252.835997
 30
0.0
 40
2.0
100
AcDbArc
 50
0.0
 51
90.0
  0
ARC
  5
100
100
AcDbEntity
  8
1
100
AcDbCircle
 10
151.514369
 20
-252.835997
 30
0.0
 40
2.0
100
AcDbArc
 50
90.0
 51
180.0
  0
ARC
  5
101
100
AcDbEntity
  8
1
100
AcDbCircle
 10
153.514369
 20
-281.271026
 30
0.0
 40
2.0
100
AcDbArc
 50
270.0
 51
360.0
  0
ARC
  5
102
100
AcDbEntity
  8
1
100
AcDbCircle
 10
151.514369
 20
-281.271026
 30
0.0
 40
2.0
100
AcDbArc
 50
180.0
 51
270.0
  0
ARC
  5
103
100
AcDbEntity
  8
1
100
AcDbCircle
 10
158.514369
 20
-280.183317
 30
0.0
 40
3.0
100
AcDbArc
 50
180.0
 51
270.0
  0
ARC
  5
104
100
AcDbEntity
  8
1
100
AcDbCircle
 10
146.514369
 20
-280.183317
 30
0.0
 40
3.0
100
AcDbArc
 50
270.0
 51
360.0
  0
LINE
  5
105
100
AcDbEntity
  8
1
100
AcDbLine
 10
149.514369
 20
-427.08704
 30
0.0
 11
155.514369
 21
-427.08704
 31
0.0
  0
LINE
  5
106
100
AcDbEntity
  8
1
100
AcDbLine
 10
149.514369
 20
-397.245941
 30
0.0
 11
149.514369
 21
-424.08704
 31
0.0
  0
LINE
  5
107
100
AcDbEntity
  8
1
100
AcDbLine
 10
155.514369
 20
-397.245941
 30
0.0
 11
155.514369
 21
-424.08704
 31
0.0
  0
ARC
  5
108
100
AcDbEntity
  8
1
100
AcDbCircle
 10
158.514369
 20
-397.245941
 30
0.0
 40
3.0
100
AcDbArc
 50
90.0
 51
180.0
  0
ARC
  5
109
100
AcDbEntity
  8
1
100
AcDbCircle
 10
146.514369
 20
-397.245941
 30
0.0
 40
3.0
100
AcDbArc
 50
0.0
 51
90.0
  0
ARC
  5
10A
100
AcDbEntity
  8
1
100
AcDbCircle
 10
158.514369
 20
-424.08704
 30
0.0
 40
3.0
100
AcDbArc
 50
180.0
 51
270.0
  0
ARC
  5
10B
100
AcDbEntity
  8
1
100
AcDbCircle
 10
146.514369
 20
-424.08704
 30
0.0
 40
3.0
100
AcDbArc
 50
270.0
 51
0.0
  0
ARC
  5
10C
100
AcDbEntity
  8
1
100
AcDbCircle
 10
158.514369
 20
-406.684636
 30
0.0
 40
3.0
100
AcDbArc
 50
90.0
 51
180.0
  0
ARC
  5
10D
100
AcDbEntity
  8
1
100
AcDbCircle
 10
146.514369
 20
-406.684636
 30
0.0
 40
3.0
100
AcDbArc
 50
0.0
 51
90.0
  0
LINE
  5
10E
100
AcDbEntity
  8
1
100
AcDbLine
 10
151.514369
 20
-403.433977
 30
0.0
 11
153.514369
 21
-403.433977
 31
0.0
  0
LINE
  5
10F
100
AcDbEntity
  8
1
100
AcDbLine
 10
151.514369
 20
-398.312656
 30
0.0
 11
153.514369
 21
-398.312656
 31
0.0
  0
ARC
  5
110
100
AcDbEntity
  8
1
100
AcDbCircle
 10
153.514369
 20
-401.433977
 30
0.0
 40
2.0
100
AcDbArc
 50
270.0
 51
360.0
  0
ARC
  5
111
100
AcDbEntity
  8
1
100
AcDbCircle
 10
151.514369
 20
-401.433977
 30
0.0
 40
2.0
100
AcDbArc
 50
180.0
 51
270.0
  0
ARC
  5
112
100
AcDbEntity
  8
1
100
AcDbCircle
 10
151.514369
 20
-400.312656
 30
0.0
 40
2.0
100
AcDbArc
 50
90.0
 51
180.0
  0
ARC
  5
113
100
AcDbEntity
  8
1
100
AcDbCircle
 10
153.514369
 20
-400.312656
 30
0.0
 40
2.0
100
AcDbArc
 50
0.0
 51
90.0
  0
LINE
  5
114
100
AcDbEntity
  8
1
100
AcDbLine
 10
150.514369
 20
-414.830688
 30
0.0
 11
154.514369
 21
-414.830688
 31
0.0
  0
LINE
  5
115
100
AcDbEntity
  8
1
100
AcDbLine
 10
151.514369
 20
-426.08704
 30
0.0
 11
153.514369
 21
-426.08704
 31
0.0
  0
LINE
  5
116
100
AcDbEntity
  8
1
100
AcDbLine
 10
150.514369
 20
-423.049701
 30
0.0
 11
154.514369
 21
-423.049701
 31
0.0
  0
ARC
  5
117
100
AcDbEntity
  8
1
100
AcDbCircle
 10
153.514369
 20
-424.08704
 30
0.0
 40
2.0
100
AcDbArc
 50
270.0
 51
360.0
  0
ARC
  5
118
100
AcDbEntity
  8
1
100
AcDbCircle
 10
151.514369
 20
-424.08704
 30
0.0
 40
2.0
100
AcDbArc
 50
180.0
 51
270.0
  0
LINE
  5
119
100
AcDbEntity
  8
1
  6
CENTER
 62
     2
100
AcDbLine
 10
-387.985631
 20
-421.488309
 30
0.0
 11
-387.985631
 21
-443.74603
 31
0.0
  0
LINE
  5
11A
100
AcDbEntity
  8
1
  6
CENTER
 62
     2
100
AcDbLine
 10
-363.985631
 20
-421.488309
 30
0.0
 11
-363.985631
 21
-443.74603
 31
0.0
  0
LINE
  5
11B
100
AcDbEntity
  8
1
  6
CENTER
 62
     2
100
AcDbLine
 10
140.514369
 20
-421.488309
 30
0.0
 11
140.514369
 21
-443.74603
 31
0.0
  0
LINE
  5
11C
100
AcDbEntity
  8
1
  6
CENTER
 62
     2
100
AcDbLine
 10
164.514369
 20
-421.488309
 30
0.0
 11
164.514369
 21
-443.74603
 31
0.0
  0
LINE
  5
11D
100
AcDbEntity
  8
1
100
AcDbLine
 10
134.514369
 20
-429.933977
 30
0.0
 11
170.514369
 21
-429.933977
 31
0.0
  0
LINE
  5
11E
100
AcDbEntity
  8
1
100
AcDbLine
 10
-357.985631
 20
-429.933977
 30
0.0
 11
-393.985631
 21
-429.933977
 31
0.0
  0
LINE
  5
11F
100
AcDbEntity
  8
1
100
AcDbLine
 10
134.414369
 20
-432.933977
 30
0.0
 11
170.614369
 21
-432.933977
 31
0.0
  0
LINE
  5
120
100
AcDbEntity
  8
1
100
AcDbLine
 10
-357.885631
 20
-432.933977
 30
0.0
 11
-394.085631
 21
-432.933977
 31
0.0
  0
LINE
  5
121
100
AcDbEntity
  8
1
100
AcDbLine
 10
-382.235631
 20
-434.433977
 30
0.0
 11
-382.235631
 21
-437.943229
 31
0.0
  0
LINE
  5
122
100
AcDbEntity
  8
1
100
AcDbLine
 10
-382.235631
 20
-437.943229
 30
0.0
 11
-383.085631
 21
-438.433977
 31
0.0
  0
LINE
  5
123
100
AcDbEntity
  8
1
100
AcDbLine
 10
-385.110631
 20
-434.433977
 30
0.0
 11
-385.110631
 21
-437.943229
 31
0.0
  0
ARC
  5
124
100
AcDbEntity
  8
1
100
AcDbCircle
 10
-383.673131
 20
-436.095274
 30
0.0
 40
2.341227
100
AcDbArc
 50
232.121121
 51
307.878879
  0
ARC
  5
125
100
AcDbEntity
  8
1
100
AcDbCircle
 10
-387.985631
 20
-429.811501
 30
0.0
 40
8.625
100
AcDbArc
 50
250.528777
 51
289.471219
  0
LINE
  5
126
100
AcDbEntity
  8
1
100
AcDbLine
 10
-393.735631
 20
-434.433977
 30
0.0
 11
-393.735631
 21
-437.943229
 31
0.0
  0
LINE
  5
127
100
AcDbEntity
  8
1
100
AcDbLine
 10
-393.735631
 20
-437.943229
 30
0.0
 11
-392.885631
 21
-438.433977
 31
0.0
  0
LINE
  5
128
100
AcDbEntity
  8
1
100
AcDbLine
 10
-392.885631
 20
-438.433977
 30
0.0
 11
-383.085631
 21
-438.433977
 31
0.0
  0
LINE
  5
129
100
AcDbEntity
  8
1
100
AcDbLine
 10
-390.860631
 20
-434.433977
 30
0.0
 11
-390.860631
 21
-437.943229
 31
0.0
  0
ARC
  5
12A
100
AcDbEntity
  8
1
100
AcDbCircle
 10
-392.298131
 20
-436.095274
 30
0.0
 40
2.341227
100
AcDbArc
 50
232.121121
 51
307.878879
  0
LINE
  5
12B
100
AcDbEntity
  8
1
100
AcDbLine
 10
-381.885631
 20
-432.933977
 30
0.0
 11
-381.885631
 21
-434.433977
 31
0.0
  0
LINE
  5
12C
100
AcDbEntity
  8
1
100
AcDbLine
 10
-381.885631
 20
-434.433977
 30
0.0
 11
-394.085631
 21
-434.433977
 31
0.0
  0
LINE
  5
12D
100
AcDbEntity
  8
1
100
AcDbLine
 10
-394.085631
 20
-434.433977
 30
0.0
 11
-394.085631
 21
-432.933977
 31
0.0
  0
LINE
  5
12E
100
AcDbEntity
  8
1
100
AcDbLine
 10
-387.985631
 20
-434.433977
 30
0.0
 11
-388.485631
 21
-432.933977
 31
0.0
  0
LINE
  5
12F
100
AcDbEntity
  8
1
100
AcDbLine
 10
-387.985631
 20
-432.933977
 30
0.0
 11
-387.485631
 21
-434.433977
 31
0.0
  0
LINE
  5
130
100
AcDbEntity
  8
1
100
AcDbLine
 10
-358.235631
 20
-434.433977
 30
0.0
 11
-358.235631
 21
-437.943229
 31
0.0
  0
LINE
  5
131
100
AcDbEntity
  8
1
100
AcDbLine
 10
-358.235631
 20
-437.943229
 30
0.0
 11
-359.085631
 21
-438.433977
 31
0.0
  0
LINE
  5
132
100
AcDbEntity
  8
1
100
AcDbLine
 10
-361.110631
 20
-434.433977
 30
0.0
 11
-361.110631
 21
-437.943229
 31
0.0
  0
ARC
  5
133
100
AcDbEntity
  8
1
100
AcDbCircle
 10
-359.673131
 20
-436.095274
 30
0.0
 40
2.341227
100
AcDbArc
 50
232.121121
 51
307.878879
  0
ARC
  5
134
100
AcDbEntity
  8
1
100
AcDbCircle
 10
-363.985631
 20
-429.811501
 30
0.0
 40
8.625
100
AcDbArc
 50
250.528777
 51
289.471219
  0
LINE
  5
135
100
AcDbEntity
  8
1
100
AcDbLine
 10
-369.735631
 20
-434.433977
 30
0.0
 11
-369.735631
 21
-437.943229
 31
0.0
  0
LINE
  5
136
100
AcDbEntity
  8
1
100
AcDbLine
 10
-369.735631
 20
-437.943229
 30
0.0
 11
-368.885631
 21
-438.433977
 31
0.0
  0
LINE
  5
137
100
AcDbEntity
  8
1
100
AcDbLine
 10
-368.885631
 20
-438.433977
 30
0.0
 11
-359.085631
 21
-438.433977
 31
0.0
  0
LINE
  5
138
100
AcDbEntity
  8
1
100
AcDbLine
 10
-366.860631
 20
-434.433977
 30
0.0
 11
-366.860631
 21
-437.943229
 31
0.0
  0
ARC
  5
139
100
AcDbEntity
  8
1
100
AcDbCircle
 10
-368.298131
 20
-436.095274
 30
0.0
 40
2.341227
100
AcDbArc
 50
232.121121
 51
307.878879
  0
LINE
  5
13A
100
AcDbEntity
  8
1
100
AcDbLine
 10
-357.885631
 20
-432.933977
 30
0.0
 11
-357.885631
 21
-434.433977
 31
0.0
  0
LINE
  5
13B
100
AcDbEntity
  8
1
100
AcDbLine
 10
-357.885631
 20
-434.433977
 30
0.0
 11
-370.085631
 21
-434.433977
 31
0.0
  0
LINE
  5
13C
100
AcDbEntity
  8
1
100
AcDbLine
 10
-370.085631
 20
-434.433977
 30
0.0
 11
-370.085631
 21
-432.933977
 31
0.0
  0
LINE
  5
13D
100
AcDbEntity
  8
1
100
AcDbLine
 10
-363.985631
 20
-434.433977
 30
0.0
 11
-364.485631
 21
-432.933977
 31
0.0
  0
LINE
  5
13E
100
AcDbEntity
  8
1
100
AcDbLine
 10
-363.985631
 20
-432.933977
 30
0.0
 11
-363.485631
 21
-434.433977
 31
0.0
  0
LINE
  5
13F
100
AcDbEntity
  8
1
100
AcDbLine
 10
169.514369
 20
-434.433977
 30
0.0
 11
169.514369
 21
-438.433977
 31
0.0
  0
ARC
  5
140
100
AcDbEntity
  8
1
100
AcDbCircle
 10
167.014369
 20
-431.820769
 30
0.0
 40
6.613208
100
AcDbArc
 50
247.788205
 51
292.211795
  0
LINE
  5
141
100
AcDbEntity
  8
1
100
AcDbLine
 10
159.514369
 20
-434.433977
 30
0.0
 11
159.514369
 21
-438.433977
 31
0.0
  0
LINE
  5
142
100
AcDbEntity
  8
1
100
AcDbLine
 10
159.514369
 20
-438.433977
 30
0.0
 11
169.514369
 21
-438.433977
 31
0.0
  0
LINE
  5
143
100
AcDbEntity
  8
1
100
AcDbLine
 10
164.514369
 20
-434.433977
 30
0.0
 11
164.514369
 21
-437.943229
 31
0.0
  0
ARC
  5
144
100
AcDbEntity
  8
1
100
AcDbCircle
 10
162.014369
 20
-431.820769
 30
0.0
 40
6.613208
100
AcDbArc
 50
247.788205
 51
292.211795
  0
LINE
  5
145
100
AcDbEntity
  8
1
100
AcDbLine
 10
170.614369
 20
-432.933977
 30
0.0
 11
170.614369
 21
-434.433977
 31
0.0
  0
LINE
  5
146
100
AcDbEntity
  8
1
100
AcDbLine
 10
170.614369
 20
-434.433977
 30
0.0
 11
158.414369
 21
-434.433977
 31
0.0
  0
LINE
  5
147
100
AcDbEntity
  8
1
100
AcDbLine
 10
158.414369
 20
-434.433977
 30
0.0
 11
158.414369
 21
-432.933977
 31
0.0
  0
LINE
  5
148
100
AcDbEntity
  8
1
100
AcDbLine
 10
145.514369
 20
-434.433977
 30
0.0
 11
145.514369
 21
-438.433977
 31
0.0
  0
ARC
  5
149
100
AcDbEntity
  8
1
100
AcDbCircle
 10
143.014369
 20
-431.820769
 30
0.0
 40
6.613208
100
AcDbArc
 50
247.788205
 51
292.211795
  0
LINE
  5
14A
100
AcDbEntity
  8
1
100
AcDbLine
 10
135.514369
 20
-434.433977
 30
0.0
 11
135.514369
 21
-438.433977
 31
0.0
  0
LINE
  5
14B
100
AcDbEntity
  8
1
100
AcDbLine
 10
135.514369
 20
-438.433977
 30
0.0
 11
145.514369
 21
-438.433977
 31
0.0
  0
LINE
  5
14C
100
AcDbEntity
  8
1
100
AcDbLine
 10
140.514369
 20
-434.433977
 30
0.0
 11
140.514369
 21
-437.943229
 31
0.0
  0
ARC
  5
14D
100
AcDbEntity
  8
1
100
AcDbCircle
 10
138.014369
 20
-431.820769
 30
0.0
 40
6.613208
100
AcDbArc
 50
247.788205
 51
292.211795
  0
LINE
  5
14E
100
AcDbEntity
  8
1
100
AcDbLine
 10
146.614369
 20
-432.933977
 30
0.0
 11
146.614369
 21
-434.433977
 31
0.0
  0
LINE
  5
14F
100
AcDbEntity
  8
1
100
AcDbLine
 10
146.614369
 20
-434.433977
 30
0.0
 11
134.414369
 21
-434.433977
 31
0.0
  0
LINE
  5
150
100
AcDbEntity
  8
1
100
AcDbLine
 10
134.414369
 20
-434.433977
 30
0.0
 11
134.414369
 21
-432.933977
 31
0.0
  0
LINE
  5
151
100
AcDbEntity
  8
1
100
AcDbLine
 10
-388.985631
 20
-304.022684
 30
0.0
 11
-389.240509
 21
-303.581221
 31
0.0
  0
ARC
  5
152
100
AcDbEntity
  8
1
100
AcDbCircle
 10
-391.838586
 20
-305.081221
 30
0.0
 40
3.0
100
AcDbArc
 50
30.0
 51
112.457555
  0
ARC
  5
153
100
AcDbEntity
  8
1
100
AcDbCircle
 10
-390.382056
 20
-304.022684
 30
0.0
 40
1.396425
100
AcDbArc
 50
290.066581
 51
360.0
  0
LINE
  5
154
100
AcDbEntity
  8
1
100
AcDbLine
 10
-388.985631
 20
-382.845269
 30
0.0
 11
-389.240509
 21
-383.286732
 31
0.0
  0
ARC
  5
155
100
AcDbEntity
  8
1
100
AcDbCircle
 10
-391.838586
 20
-381.786732
 30
0.0
 40
3.0
100
AcDbArc
 50
247.542445
 51
330.0
  0
ARC
  5
156
100
AcDbEntity
  8
1
100
AcDbCircle
 10
-390.382056
 20
-382.845269
 30
0.0
 40
1.396425
100
AcDbArc
 50
360.0
 51
69.933419
  0
ARC
  5
157
100
AcDbEntity
  8
1
100
AcDbCircle
 10
-375.985631
 20
-343.433977
 30
0.0
 40
40.561972
100
AcDbArc
 50
110.066581
 51
249.933419
  0
ARC
  5
158
100
AcDbEntity
  8
1
100
AcDbCircle
 10
-375.985631
 20
-343.433977
 30
0.0
 40
40.561972
100
AcDbArc
 50
288.692998
 51
71.307002
  0
LINE
  5
159
100
AcDbEntity
  8
1
  6
CENTER
 62
     2
100
AcDbLine
 10
-375.985631
 20
284.417044
 30
0.0
 11
-375.985631
 21
395.929815
 31
0.0
  0
LINE
  5
15A
100
AcDbEntity
  8
1
  6
CENTER
 62
     2
100
AcDbLine
 10
-375.985631
 20
-203.940995
 30
0.0
 11
-375.985631
 21
-434.812909
 31
0.0
  0
ARC
  5
15B
100
AcDbEntity
  8
1
100
AcDbCircle
 10
-375.985631
 20
-343.433977
 30
0.0
 40
39.411293
100
AcDbArc
 50
109.259956
 51
250.740044
  0
ARC
  5
15C
100
AcDbEntity
  8
1
100
AcDbCircle
 10
-375.985631
 20
-343.433977
 30
0.0
 40
39.411293
100
AcDbArc
 50
289.259956
 51
70.740044
  0
LINE
  5
15D
100
AcDbEntity
  8
1
100
AcDbLine
 10
-388.985631
 20
-301.720669
 30
0.0
 11
-388.985631
 21
-320.111101
 31
0.0
  0
LINE
  5
15E
100
AcDbEntity
  8
1
100
AcDbLine
 10
-362.985631
 20
-304.933977
 30
0.0
 11
-362.985631
 21
-306.701926
 31
0.0
  0
LINE
  5
15F
100
AcDbEntity
  8
1
100
AcDbLine
 10
-361.985631
 20
-308.433977
 30
0.0
 11
-361.985631
 21
-320.433977
 31
0.0
  0
LINE
  5
160
100
AcDbEntity
  8
1
100
AcDbLine
 10
-362.985631
 20
-321.433977
 30
0.0
 11
-387.985631
 21
-321.433977
 31
0.0
  0
ARC
  5
161
100
AcDbEntity
  8
1
100
AcDbCircle
 10
-387.985631
 20
-320.433977
 30
0.0
 40
1.0
100
AcDbArc
 50
180.0
 51
270.0
  0
ARC
  5
162
100
AcDbEntity
  8
1
100
AcDbCircle
 10
-362.985631
 20
-320.433977
 30
0.0
 40
1.0
100
AcDbArc
 50
270.0
 51
360.0
  0
LINE
  5
163
100
AcDbEntity
  8
1
100
AcDbLine
 10
-362.985631
 20
-307.433977
 30
0.0
 11
-374.985631
 21
-307.433977
 31
0.0
  0
ARC
  5
164
100
AcDbEntity
  8
1
100
AcDbCircle
 10
-362.985631
 20
-308.433977
 30
0.0
 40
1.0
100
AcDbArc
 50
0.0
 51
90.0
  0
ARC
  5
165
100
AcDbEntity
  8
1
100
AcDbCircle
 10
-361.985631
 20
-306.701926
 30
0.0
 40
1.0
100
AcDbArc
 50
180.0
 51
240.0
  0
ARC
  5
166
100
AcDbEntity
  8
1
100
AcDbCircle
 10
-374.985631
 20
-306.433977
 30
0.0
 40
1.0
100
AcDbArc
 50
180.0
 51
270.0
  0
LINE
  5
167
100
AcDbEntity
  8
1
100
AcDbLine
 10
-370.789478
 20
-308.433977
 30
0.0
 11
-370.789478
 21
-320.433977
 31
0.0
  0
ARC
  5
168
100
AcDbEntity
  8
1
100
AcDbCircle
 10
-371.789478
 20
-320.433977
 30
0.0
 40
1.0
100
AcDbArc
 50
270.0
 51
360.0
  0
ARC
  5
169
100
AcDbEntity
  8
1
100
AcDbCircle
 10
-371.789478
 20
-308.433977
 30
0.0
 40
1.0
100
AcDbArc
 50
0.0
 51
90.0
  0
LINE
  5
16A
100
AcDbEntity
  8
1
100
AcDbLine
 10
-383.985631
 20
-311.433977
 30
0.0
 11
-376.985631
 21
-311.433977
 31
0.0
  0
ARC
  5
16B
100
AcDbEntity
  8
1
100
AcDbCircle
 10
-383.985631
 20
-316.433977
 30
0.0
 40
5.0
100
AcDbArc
 50
90.0
 51
270.0
  0
ARC
  5
16C
100
AcDbEntity
  8
1
100
AcDbCircle
 10
-376.985631
 20
-310.433977
 30
0.0
 40
1.0
100
AcDbArc
 50
270.0
 51
0.0
  0
LINE
  5
16D
100
AcDbEntity
  8
1
  6
CENTER
 62
     2
100
AcDbLine
 10
-377.79461
 20
-316.433977
 30
0.0
 11
-387.610146
 21
-316.433977
 31
0.0
  0
LINE
  5
16E
100
AcDbEntity
  8
1
100
AcDbLine
 10
-370.985631
 20
-301.720669
 30
0.0
 11
-388.985631
 21
-301.720669
 31
0.0
  0
ARC
  5
16F
100
AcDbEntity
  8
1
100
AcDbCircle
 10
-374.885631
 20
-142.293788
 30
0.0
 40
158.177995
100
AcDbArc
 50
266.919617
 51
271.412815
  0
ARC
  5
170
100
AcDbEntity
  8
1
100
AcDbCircle
 10
-374.985631
 20
-343.433977
 30
0.0
 40
44.0
100
AcDbArc
 50
101.005842
 51
108.553005
  0
LINE
  5
171
100
AcDbEntity
  8
1
100
AcDbLine
 10
-370.985631
 20
-300.423698
 30
0.0
 11
-370.985631
 21
-304.933977
 31
0.0
  0
LINE
  5
172
100
AcDbEntity
  8
1
100
AcDbLine
 10
-362.985631
 20
-304.933977
 30
0.0
 11
-370.985631
 21
-304.933977
 31
0.0
  0
ARC
  5
173
100
AcDbEntity
  8
1
100
AcDbCircle
 10
-374.885631
 20
-449.894437
 30
0.0
 40
147.080653
100
AcDbArc
 50
86.709983
 51
86.882033
  0
LINE
  5
174
100
AcDbEntity
  8
1
100
AcDbLine
 10
-363.02415
 20
-304.009841
 30
0.0
 11
-363.02415
 21
-304.933977
 31
0.0
  0
LINE
  5
175
100
AcDbEntity
  8
1
100
AcDbLine
 10
-366.444659
 20
-303.056198
 30
0.0
 11
-366.444659
 21
-303.933977
 31
0.0
  0
ARC
  5
176
100
AcDbEntity
  8
1
100
AcDbCircle
 10
-375.869399
 20
-343.471842
 30
0.0
 40
41.5
100
AcDbArc
 50
71.969449
 51
76.873477
  0
LINE
  5
177
100
AcDbEntity
  8
1
100
AcDbLine
 10
-366.444659
 20
-303.933977
 30
0.0
 11
-366.885631
 21
-303.933977
 31
0.0
  0
LINE
  5
178
100
AcDbEntity
  8
1
100
AcDbLine
 10
-366.885631
 20
-304.933977
 30
0.0
 11
-366.885631
 21
-299.874362
 31
0.0
  0
LINE
  5
179
100
AcDbEntity
  8
1
100
AcDbLine
 10
-382.885631
 20
-300.269351
 30
0.0
 11
-382.885631
 21
-299.472175
 31
0.0
  0
LINE
  5
17A
100
AcDbEntity
  8
1
100
AcDbLine
 10
-388.985631
 20
-385.147284
 30
0.0
 11
-388.985631
 21
-366.433977
 31
0.0
  0
LINE
  5
17B
100
AcDbEntity
  8
1
100
AcDbLine
 10
-362.985631
 20
-381.933977
 30
0.0
 11
-362.985631
 21
-380.166027
 31
0.0
  0
LINE
  5
17C
100
AcDbEntity
  8
1
100
AcDbLine
 10
-361.985631
 20
-378.433977
 30
0.0
 11
-361.985631
 21
-366.433977
 31
0.0
  0
LINE
  5
17D
100
AcDbEntity
  8
1
100
AcDbLine
 10
-362.985631
 20
-365.433977
 30
0.0
 11
-387.985631
 21
-365.433977
 31
0.0
  0
ARC
  5
17E
100
AcDbEntity
  8
1
100
AcDbCircle
 10
-387.985631
 20
-366.433977
 30
0.0
 40
1.0
100
AcDbArc
 50
90.0
 51
180.0
  0
ARC
  5
17F
100
AcDbEntity
  8
1
100
AcDbCircle
 10
-362.985631
 20
-366.433977
 30
0.0
 40
1.0
100
AcDbArc
 50
360.0
 51
90.0
  0
LINE
  5
180
100
AcDbEntity
  8
1
100
AcDbLine
 10
-362.985631
 20
-379.433977
 30
0.0
 11
-374.985631
 21
-379.433977
 31
0.0
  0
ARC
  5
181
100
AcDbEntity
  8
1
100
AcDbCircle
 10
-362.985631
 20
-378.433977
 30
0.0
 40
1.0
100
AcDbArc
 50
270.0
 51
360.0
  0
ARC
  5
182
100
AcDbEntity
  8
1
100
AcDbCircle
 10
-361.985631
 20
-380.166027
 30
0.0
 40
1.0
100
AcDbArc
 50
120.0
 51
180.0
  0
ARC
  5
183
100
AcDbEntity
  8
1
100
AcDbCircle
 10
-374.985631
 20
-380.433977
 30
0.0
 40
1.0
100
AcDbArc
 50
90.0
 51
180.0
  0
LINE
  5
184
100
AcDbEntity
  8
1
100
AcDbLine
 10
-370.789478
 20
-378.433977
 30
0.0
 11
-370.789478
 21
-366.433977
 31
0.0
  0
ARC
  5
185
100
AcDbEntity
  8
1
100
AcDbCircle
 10
-371.789478
 20
-366.433977
 30
0.0
 40
1.0
100
AcDbArc
 50
360.0
 51
90.0
  0
ARC
  5
186
100
AcDbEntity
  8
1
100
AcDbCircle
 10
-371.789478
 20
-378.433977
 30
0.0
 40
1.0
100
AcDbArc
 50
270.0
 51
360.0
  0
LINE
  5
187
100
AcDbEntity
  8
1
100
AcDbLine
 10
-383.985631
 20
-375.433977
 30
0.0
 11
-376.985631
 21
-375.433977
 31
0.0
  0
ARC
  5
188
100
AcDbEntity
  8
1
100
AcDbCircle
 10
-383.985631
 20
-370.433977
 30
0.0
 40
5.0
100
AcDbArc
 50
90.0
 51
270.0
  0
ARC
  5
189
100
AcDbEntity
  8
1
100
AcDbCircle
 10
-376.985631
 20
-376.433977
 30
0.0
 40
1.0
100
AcDbArc
 50
360.0
 51
90.0
  0
LINE
  5
18A
100
AcDbEntity
  8
1
  6
CENTER
 62
     2
100
AcDbLine
 10
-369.118996
 20
-370.433977
 30
0.0
 11
-380.113015
 21
-370.433977
 31
0.0
  0
LINE
  5
18B
100
AcDbEntity
  8
1
100
AcDbLine
 10
-370.985631
 20
-385.147284
 30
0.0
 11
-388.985631
 21
-385.147284
 31
0.0
  0
ARC
  5
18C
100
AcDbEntity
  8
1
100
AcDbCircle
 10
-374.885631
 20
-544.574165
 30
0.0
 40
158.177995
100
AcDbArc
 50
88.587185
 51
93.080383
  0
ARC
  5
18D
100
AcDbEntity
  8
1
100
AcDbCircle
 10
-374.985631
 20
-343.433977
 30
0.0
 40
44.0
100
AcDbArc
 50
251.446995
 51
258.994158
  0
LINE
  5
18E
100
AcDbEntity
  8
1
100
AcDbLine
 10
-370.985631
 20
-386.444255
 30
0.0
 11
-370.985631
 21
-381.933977
 31
0.0
  0
LINE
  5
18F
100
AcDbEntity
  8
1
100
AcDbLine
 10
-362.985631
 20
-381.933977
 30
0.0
 11
-370.985631
 21
-381.933977
 31
0.0
  0
ARC
  5
190
100
AcDbEntity
  8
1
100
AcDbCircle
 10
-374.885631
 20
-236.973516
 30
0.0
 40
147.080653
100
AcDbArc
 50
273.117967
 51
273.290017
  0
LINE
  5
191
100
AcDbEntity
  8
1
100
AcDbLine
 10
-363.02415
 20
-382.858112
 30
0.0
 11
-363.02415
 21
-381.933977
 31
0.0
  0
LINE
  5
192
100
AcDbEntity
  8
1
100
AcDbLine
 10
-366.444659
 20
-383.811755
 30
0.0
 11
-366.444659
 21
-382.933977
 31
0.0
  0
ARC
  5
193
100
AcDbEntity
  8
1
100
AcDbCircle
 10
-375.869399
 20
-343.396111
 30
0.0
 40
41.5
100
AcDbArc
 50
283.126523
 51
288.030551
  0
LINE
  5
194
100
AcDbEntity
  8
1
100
AcDbLine
 10
-366.444659
 20
-382.933977
 30
0.0
 11
-366.885631
 21
-382.933977
 31
0.0
  0
LINE
  5
195
100
AcDbEntity
  8
1
100
AcDbLine
 10
-366.885631
 20
-381.933977
 30
0.0
 11
-366.885631
 21
-386.993591
 31
0.0
  0
LINE
  5
196
100
AcDbEntity
  8
1
100
AcDbLine
 10
-382.885631
 20
-386.598602
 30
0.0
 11
-382.885631
 21
-387.395778
 31
0.0
  0
LINE
  5
197
100
AcDbEntity
  8
1
100
AcDbLine
 10
-386.485631
 20
-322.433977
 30
0.0
 11
-386.485631
 21
-364.433977
 31
0.0
  0
LINE
  5
198
100
AcDbEntity
  8
1
100
AcDbLine
 10
-365.485631
 20
-322.433977
 30
0.0
 11
-365.485631
 21
-364.433977
 31
0.0
  0
LINE
  5
199
100
AcDbEntity
  8
1
100
AcDbLine
 10
-362.485631
 20
-321.756852
 30
0.0
 11
-362.485631
 21
-365.111101
 31
0.0
  0
LINE
  5
19A
100
AcDbEntity
  8
1
100
AcDbLine
 10
-389.485631
 20
-321.433977
 30
0.0
 11
-389.485631
 21
-365.433977
 31
0.0
  0
ARC
  5
19B
100
AcDbEntity
  8
1
100
AcDbCircle
 10
-361.485631
 20
-321.756852
 30
0.0
 40
1.0
100
AcDbArc
 50
138.590378
 51
180.0
  0
ARC
  5
19C
100
AcDbEntity
  8
1
100
AcDbCircle
 10
-366.485631
 20
-322.433977
 30
0.0
 40
1.0
100
AcDbArc
 50
0.0
 51
90.0
  0
ARC
  5
19D
100
AcDbEntity
  8
1
100
AcDbCircle
 10
-385.485631
 20
-322.433977
 30
0.0
 40
1.0
100
AcDbArc
 50
90.0
 51
180.0
  0
ARC
  5
19E
100
AcDbEntity
  8
1
100
AcDbCircle
 10
-385.485631
 20
-364.433977
 30
0.0
 40
1.0
100
AcDbArc
 50
180.0
 51
270.0
  0
ARC
  5
19F
100
AcDbEntity
  8
1
100
AcDbCircle
 10
-366.485631
 20
-364.433977
 30
0.0
 40
1.0
100
AcDbArc
 50
270.0
 51
360.0
  0
ARC
  5
1A0
100
AcDbEntity
  8
1
100
AcDbCircle
 10
-361.485631
 20
-365.111101
 30
0.0
 40
1.0
100
AcDbArc
 50
180.0
 51
221.409622
  0
ARC
  5
1A1
100
AcDbEntity
  8
1
100
AcDbCircle
 10
-388.485631
 20
-321.433977
 30
0.0
 40
1.0
100
AcDbArc
 50
138.590378
 51
180.0
  0
ARC
  5
1A2
100
AcDbEntity
  8
1
100
AcDbCircle
 10
-389.985631
 20
-320.111101
 30
0.0
 40
1.0
100
AcDbArc
 50
318.590378
 51
360.0
  0
ARC
  5
1A3
100
AcDbEntity
  8
1
100
AcDbCircle
 10
-388.485631
 20
-365.433977
 30
0.0
 40
1.0
100
AcDbArc
 50
180.0
 51
221.409622
  0
ARC
  5
1A4
100
AcDbEntity
  8
1
100
AcDbCircle
 10
-389.985631
 20
-366.756852
 30
0.0
 40
1.0
100
AcDbArc
 50
0.0
 51
41.409622
  0
LINE
  5
1A5
100
AcDbEntity
  8
1
100
AcDbLine
 10
-361.485631
 20
-321.433977
 30
0.0
 11
-350.529787
 21
-321.433977
 31
0.0
  0
LINE
  5
1A6
100
AcDbEntity
  8
1
100
AcDbLine
 10
-390.485631
 20
-321.433977
 30
0.0
 11
-401.441475
 21
-321.433977
 31
0.0
  0
LINE
  5
1A7
100
AcDbEntity
  8
1
100
AcDbLine
 10
-361.485631
 20
-365.433977
 30
0.0
 11
-350.529787
 21
-365.433977
 31
0.0
  0
LINE
  5
1A8
100
AcDbEntity
  8
1
100
AcDbLine
 10
-390.485631
 20
-365.433977
 30
0.0
 11
-401.441475
 21
-365.433977
 31
0.0
  0
ARC
  5
1A9
100
AcDbEntity
  8
1
100
AcDbCircle
 10
-375.985631
 20
-343.433977
 30
0.0
 40
34.0
100
AcDbArc
 50
320.478804
 51
355.655248
  0
ARC
  5
1AA
100
AcDbEntity
  8
1
100
AcDbCircle
 10
-375.985631
 20
-343.433977
 30
0.0
 40
34.0
100
AcDbArc
 50
4.344752
 51
39.521196
  0
ARC
  5
1AB
100
AcDbEntity
  8
1
100
AcDbCircle
 10
-375.985631
 20
-343.433977
 30
0.0
 40
34.0
100
AcDbArc
 50
140.478804
 51
175.655248
  0
ARC
  5
1AC
100
AcDbEntity
  8
1
100
AcDbCircle
 10
-375.985631
 20
-343.433977
 30
0.0
 40
34.0
100
AcDbArc
 50
184.344752
 51
219.521196
  0
LINE
  5
1AD
100
AcDbEntity
  8
1
100
AcDbLine
 10
-408.890798
 20
-341.933977
 30
0.0
 11
-390.485631
 21
-341.933977
 31
0.0
  0
LINE
  5
1AE
100
AcDbEntity
  8
1
100
AcDbLine
 10
-408.890798
 20
-344.933977
 30
0.0
 11
-390.485631
 21
-344.933977
 31
0.0
  0
LINE
  5
1AF
100
AcDbEntity
  8
1
100
AcDbLine
 10
-361.485631
 20
-344.933977
 30
0.0
 11
-343.080464
 21
-344.933977
 31
0.0
  0
LINE
  5
1B0
100
AcDbEntity
  8
1
100
AcDbLine
 10
-361.485631
 20
-341.933977
 30
0.0
 11
-343.080464
 21
-341.933977
 31
0.0
  0
ARC
  5
1B1
100
AcDbEntity
  8
1
100
AcDbCircle
 10
-350.529787
 20
-322.433977
 30
0.0
 40
1.0
100
AcDbArc
 50
39.521196
 51
90.0
  0
ARC
  5
1B2
100
AcDbEntity
  8
1
100
AcDbCircle
 10
-343.080464
 20
-340.933977
 30
0.0
 40
1.0
100
AcDbArc
 50
270.0
 51
4.344752
  0
ARC
  5
1B3
100
AcDbEntity
  8
1
100
AcDbCircle
 10
-343.080464
 20
-345.933977
 30
0.0
 40
1.0
100
AcDbArc
 50
355.655248
 51
90.0
  0
ARC
  5
1B4
100
AcDbEntity
  8
1
100
AcDbCircle
 10
-350.529787
 20
-364.433977
 30
0.0
 40
1.0
100
AcDbArc
 50
270.0
 51
320.478804
  0
ARC
  5
1B5
100
AcDbEntity
  8
1
100
AcDbCircle
 10
-401.441475
 20
-364.433977
 30
0.0
 40
1.0
100
AcDbArc
 50
219.521196
 51
270.0
  0
ARC
  5
1B6
100
AcDbEntity
  8
1
100
AcDbCircle
 10
-408.890798
 20
-345.933977
 30
0.0
 40
1.0
100
AcDbArc
 50
90.0
 51
184.344752
  0
ARC
  5
1B7
100
AcDbEntity
  8
1
100
AcDbCircle
 10
-408.890798
 20
-340.933977
 30
0.0
 40
1.0
100
AcDbArc
 50
175.655248
 51
270.0
  0
ARC
  5
1B8
100
AcDbEntity
  8
1
100
AcDbCircle
 10
-401.441475
 20
-322.433977
 30
0.0
 40
1.0
100
AcDbArc
 50
90.0
 51
140.478804
  0
ARC
  5
1B9
100
AcDbEntity
  8
1
100
AcDbCircle
 10
-390.485631
 20
-322.433977
 30
0.0
 40
1.0
100
AcDbArc
 50
0.0
 51
90.0
  0
ARC
  5
1BA
100
AcDbEntity
  8
1
100
AcDbCircle
 10
-361.485631
 20
-322.433977
 30
0.0
 40
1.0
100
AcDbArc
 50
90.0
 51
180.0
  0
ARC
  5
1BB
100
AcDbEntity
  8
1
100
AcDbCircle
 10
-361.485631
 20
-364.433977
 30
0.0
 40
1.0
100
AcDbArc
 50
180.0
 51
270.0
  0
ARC
  5
1BC
100
AcDbEntity
  8
1
100
AcDbCircle
 10
-390.485631
 20
-364.433977
 30
0.0
 40
1.0
100
AcDbArc
 50
270.0
 51
360.0
  0
ARC
  5
1BD
100
AcDbEntity
  8
1
100
AcDbCircle
 10
-390.485631
 20
-345.933977
 30
0.0
 40
1.0
100
AcDbArc
 50
0.0
 51
90.0
  0
ARC
  5
1BE
100
AcDbEntity
  8
1
100
AcDbCircle
 10
-390.485631
 20
-340.933977
 30
0.0
 40
1.0
100
AcDbArc
 50
270.0
 51
360.0
  0
ARC
  5
1BF
100
AcDbEntity
  8
1
100
AcDbCircle
 10
-385.485631
 20
-340.933977
 30
0.0
 40
1.0
100
AcDbArc
 50
180.0
 51
270.0
  0
ARC
  5
1C0
100
AcDbEntity
  8
1
100
AcDbCircle
 10
-385.485631
 20
-345.933977
 30
0.0
 40
1.0
100
AcDbArc
 50
90.0
 51
180.0
  0
ARC
  5
1C1
100
AcDbEntity
  8
1
100
AcDbCircle
 10
-366.485631
 20
-345.933977
 30
0.0
 40
1.0
100
AcDbArc
 50
360.0
 51
90.0
  0
ARC
  5
1C2
100
AcDbEntity
  8
1
100
AcDbCircle
 10
-366.485631
 20
-340.933977
 30
0.0
 40
1.0
100
AcDbArc
 50
270.0
 51
0.0
  0
ARC
  5
1C3
100
AcDbEntity
  8
1
100
AcDbCircle
 10
-361.485631
 20
-340.933977
 30
0.0
 40
1.0
100
AcDbArc
 50
180.0
 51
270.0
  0
ARC
  5
1C4
100
AcDbEntity
  8
1
100
AcDbCircle
 10
-361.485631
 20
-345.933977
 30
0.0
 40
1.0
100
AcDbArc
 50
90.0
 51
180.0
  0
ARC
  5
1C5
100
AcDbEntity
  8
1
100
AcDbCircle
 10
-375.985631
 20
-343.433977
 30
0.0
 40
36.5
100
AcDbArc
 50
110.864824
 51
249.135176
  0
ARC
  5
1C6
100
AcDbEntity
  8
1
100
AcDbCircle
 10
-375.985631
 20
-343.433977
 30
0.0
 40
36.5
100
AcDbArc
 50
292.554474
 51
67.445526
  0
ARC
  5
1C7
100
AcDbEntity
  8
1
100
AcDbCircle
 10
-375.985631
 20
-343.433977
 30
0.0
 40
37.58834
100
AcDbArc
 50
110.23381
 51
249.766191
  0
ARC
  5
1C8
100
AcDbEntity
  8
1
100
AcDbCircle
 10
-375.985631
 20
-343.433977
 30
0.0
 40
37.58834
100
AcDbArc
 50
291.867161
 51
68.132839
  0
ARC
  5
1C9
100
AcDbEntity
  8
1
100
AcDbCircle
 10
-375.985631
 20
-343.433977
 30
0.0
 40
38.567614
100
AcDbArc
 50
109.698485
 51
250.301515
  0
ARC
  5
1CA
100
AcDbEntity
  8
1
100
AcDbCircle
 10
-375.985631
 20
-343.433977
 30
0.0
 40
38.567614
100
AcDbArc
 50
289.877216
 51
70.122784
  0
LINE
  5
1CB
100
AcDbEntity
  8
1
100
AcDbLine
 10
-366.885631
 20
-365.433977
 30
0.0
 11
-366.885631
 21
-321.433977
 31
0.0
  0
LINE
  5
1CC
100
AcDbEntity
  8
1
100
AcDbLine
 10
-382.885631
 20
-365.433977
 30
0.0
 11
-382.885631
 21
-321.433977
 31
0.0
  0
LINE
  5
1CD
100
AcDbEntity
  8
1
100
AcDbLine
 10
-385.485631
 20
-341.933977
 30
0.0
 11
-382.885631
 21
-341.933977
 31
0.0
  0
LINE
  5
1CE
100
AcDbEntity
  8
1
100
AcDbLine
 10
-366.885631
 20
-341.933977
 30
0.0
 11
-366.485631
 21
-341.933977
 31
0.0
  0
LINE
  5
1CF
100
AcDbEntity
  8
1
100
AcDbLine
 10
-385.485631
 20
-344.933977
 30
0.0
 11
-382.885631
 21
-344.933977
 31
0.0
  0
LINE
  5
1D0
100
AcDbEntity
  8
1
100
AcDbLine
 10
-366.885631
 20
-344.933977
 30
0.0
 11
-366.485631
 21
-344.933977
 31
0.0
  0
LINE
  5
1D1
100
AcDbEntity
  8
1
  6
CENTER
 62
     2
100
AcDbLine
 10
-382.885631
 20
-321.433977
 30
0.0
 11
-382.885631
 21
-311.433977
 31
0.0
  0
CIRCLE
  5
1D2
100
AcDbEntity
  8
1
100
AcDbCircle
 10
-382.885631
 20
-316.433977
 30
0.0
 40
3.012
  0
CIRCLE
  5
1D3
100
AcDbEntity
  8
1
100
AcDbCircle
 10
-382.885631
 20
-316.433977
 30
0.0
 40
2.15
  0
CIRCLE
  5
1D4
100
AcDbEntity
  8
1
 62
     2
100
AcDbCircle
 10
-382.885631
 20
-316.433977
 30
0.0
 40
2.0
  0
CIRCLE
  5
1D5
100
AcDbEntity
  8
1
100
AcDbCircle
 10
-382.885631
 20
-316.433977
 30
0.0
 40
1.621
  0
CIRCLE
  5
1D6
100
AcDbEntity
  8
1
100
AcDbCircle
 10
-374.885631
 20
-370.433977
 30
0.0
 40
3.012
  0
CIRCLE
  5
1D7
100
AcDbEntity
  8
1
100
AcDbCircle
 10
-374.885631
 20
-370.433977
 30
0.0
 40
2.15
  0
CIRCLE
  5
1D8
100
AcDbEntity
  8
1
 62
     2
100
AcDbCircle
 10
-374.885631
 20
-370.433977
 30
0.0
 40
2.0
  0
CIRCLE
  5
1D9
100
AcDbEntity
  8
1
100
AcDbCircle
 10
-374.885631
 20
-370.433977
 30
0.0
 40
1.621
  0
LINE
  5
1DA
100
AcDbEntity
  8
1
100
AcDbLine
 10
-389.885631
 20
-183.033977
 30
0.0
 11
-359.885631
 21
-183.033977
 31
0.0
  0
LINE
  5
1DB
100
AcDbEntity
  8
1
100
AcDbLine
 10
-389.885631
 20
-187.433977
 30
0.0
 11
-389.885631
 21
-183.033977
 31
0.0
  0
LINE
  5
1DC
100
AcDbEntity
  8
1
100
AcDbLine
 10
-359.885631
 20
-187.433977
 30
0.0
 11
-359.885631
 21
-183.033977
 31
0.0
  0
LINE
  5
1DD
100
AcDbEntity
  8
1
100
AcDbLine
 10
-380.635631
 20
-183.033977
 30
0.0
 11
-380.635631
 21
-178.524724
 31
0.0
  0
LINE
  5
1DE
100
AcDbEntity
  8
1
100
AcDbLine
 10
-380.635631
 20
-178.524724
 30
0.0
 11
-379.785631
 21
-178.033977
 31
0.0
  0
LINE
  5
1DF
100
AcDbEntity
  8
1
100
AcDbLine
 10
-377.760631
 20
-183.033977
 30
0.0
 11
-377.760631
 21
-178.524724
 31
0.0
  0
ARC
  5
1E0
100
AcDbEntity
  8
1
100
AcDbCircle
 10
-379.198131
 20
-180.372679
 30
0.0
 40
2.341227
100
AcDbArc
 50
52.121121
 51
127.878879
  0
LINE
  5
1E1
100
AcDbEntity
  8
1
100
AcDbLine
 10
-369.135631
 20
-183.033977
 30
0.0
 11
-369.135631
 21
-178.524724
 31
0.0
  0
LINE
  5
1E2
100
AcDbEntity
  8
1
100
AcDbLine
 10
-369.135631
 20
-178.524724
 30
0.0
 11
-369.985631
 21
-178.033977
 31
0.0
  0
LINE
  5
1E3
100
AcDbEntity
  8
1
100
AcDbLine
 10
-369.985631
 20
-178.033977
 30
0.0
 11
-379.785631
 21
-178.033977
 31
0.0
  0
LINE
  5
1E4
100
AcDbEntity
  8
1
100
AcDbLine
 10
-372.010631
 20
-183.033977
 30
0.0
 11
-372.010631
 21
-178.524724
 31
0.0
  0
ARC
  5
1E5
100
AcDbEntity
  8
1
100
AcDbCircle
 10
-370.573131
 20
-180.372679
 30
0.0
 40
2.341227
100
AcDbArc
 50
52.121121
 51
127.878879
  0
ARC
  5
1E6
100
AcDbEntity
  8
1
100
AcDbCircle
 10
-374.885631
 20
-186.656452
 30
0.0
 40
8.625
100
AcDbArc
 50
70.528781
 51
109.471223
  0
LINE
  5
1E7
100
AcDbEntity
  8
1
100
AcDbLine
 10
-371.885631
 20
-175.433977
 30
0.0
 11
-377.885631
 21
-175.433977
 31
0.0
  0
ARC
  5
1E8
100
AcDbEntity
  8
1
100
AcDbCircle
 10
-374.885631
 20
-179.433977
 30
0.0
 40
5.0
100
AcDbArc
 50
53.130103
 51
126.8699
  0
LINE
  5
1E9
100
AcDbEntity
  8
1
100
AcDbLine
 10
-371.885631
 20
-178.033977
 30
0.0
 11
-371.885631
 21
-175.433977
 31
0.0
  0
LINE
  5
1EA
100
AcDbEntity
  8
1
 62
     2
100
AcDbLine
 10
-372.426631
 20
-178.033977
 30
0.0
 11
-372.426631
 21
-175.433977
 31
0.0
  0
LINE
  5
1EB
100
AcDbEntity
  8
1
 62
     2
100
AcDbLine
 10
-377.344631
 20
-178.033977
 30
0.0
 11
-377.344631
 21
-175.433977
 31
0.0
  0
LINE
  5
1EC
100
AcDbEntity
  8
1
100
AcDbLine
 10
-377.885631
 20
-178.033977
 30
0.0
 11
-377.885631
 21
-175.433977
 31
0.0
  0
LINE
  5
1ED
100
AcDbEntity
  8
1
100
AcDbLine
 10
-366.885631
 20
-183.033977
 30
0.0
 11
-366.885631
 21
-160.433977
 31
0.0
  0
LINE
  5
1EE
100
AcDbEntity
  8
1
100
AcDbLine
 10
-382.885631
 20
-183.033977
 30
0.0
 11
-382.885631
 21
-160.433977
 31
0.0
  0
LINE
  5
1EF
100
AcDbEntity
  8
2
  6
CENTER
 62
     2
100
AcDbLine
 10
-552.885631
 20
339.766023
 30
0.0
 11
-219.199014
 21
339.766023
 31
0.0
  0
LINE
  5
1F0
100
AcDbEntity
  8
2
  6
CENTER
 62
     2
100
AcDbLine
 10
-374.885631
 20
433.427746
 30
0.0
 11
-374.885631
 21
219.666023
 31
0.0
  0
LINE
  5
1F1
100
AcDbEntity
  8
2
  6
CENTER
 62
     2
100
AcDbLine
 10
-338.885631
 20
-117.54792
 30
0.0
 11
-338.885631
 21
-79.304554
 31
0.0
  0
LINE
  5
1F2
100
AcDbEntity
  8
2
  6
CENTER
 62
     2
100
AcDbLine
 10
-410.885631
 20
-117.54792
 30
0.0
 11
-410.885631
 21
-79.304554
 31
0.0
  0
LINE
  5
1F3
100
AcDbEntity
  8
2
100
AcDbLine
 10
-287.885631
 20
379.766023
 30
0.0
 11
-287.885631
 21
305.766023
 31
0.0
  0
LINE
  5
1F4
100
AcDbEntity
  8
2
100
AcDbLine
 10
-443.885631
 20
392.766023
 30
0.0
 11
-295.885631
 21
392.766023
 31
0.0
  0
ARC
  5
1F5
100
AcDbEntity
  8
2
100
AcDbCircle
 10
-295.885631
 20
386.766023
 30
0.0
 40
6.0
100
AcDbArc
 50
0.0
 51
90.0
  0
LINE
  5
1F6
100
AcDbEntity
  8
2
100
AcDbLine
 10
-289.885631
 20
386.766023
 30
0.0
 11
-289.885631
 21
298.766023
 31
0.0
  0
LINE
  5
1F7
100
AcDbEntity
  8
2
100
AcDbLine
 10
-449.885631
 20
298.766023
 30
0.0
 11
-449.885631
 21
386.766023
 31
0.0
  0
LINE
  5
1F8
100
AcDbEntity
  8
2
100
AcDbLine
 10
-454.184783
 20
292.766023
 30
0.0
 11
-295.885631
 21
292.766023
 31
0.0
  0
ARC
  5
1F9
100
AcDbEntity
  8
2
100
AcDbCircle
 10
-295.885631
 20
298.766023
 30
0.0
 40
6.0
100
AcDbArc
 50
270.0
 51
360.0
  0
ARC
  5
1FA
100
AcDbEntity
  8
2
100
AcDbCircle
 10
-443.885631
 20
298.766023
 30
0.0
 40
6.0
100
AcDbArc
 50
180.0
 51
270.0
  0
LINE
  5
1FB
100
AcDbEntity
  8
2
100
AcDbLine
 10
-262.202687
 20
293.766023
 30
0.0
 11
-292.585631
 21
293.766023
 31
0.0
  0
LINE
  5
1FC
100
AcDbEntity
  8
2
100
AcDbLine
 10
-253.885631
 20
263.766023
 30
0.0
 11
-540.885631
 21
263.766023
 31
0.0
  0
LINE
  5
1FD
100
AcDbEntity
  8
2
100
AcDbLine
 10
-541.885631
 20
262.766023
 30
0.0
 11
-541.885631
 21
250.766023
 31
0.0
  0
LINE
  5
1FE
100
AcDbEntity
  8
2
100
AcDbLine
 10
-541.885631
 20
258.766023
 30
0.0
 11
-252.885631
 21
258.766023
 31
0.0
  0
LINE
  5
1FF
100
AcDbEntity
  8
2
100
AcDbLine
 10
-252.885631
 20
262.766023
 30
0.0
 11
-252.885631
 21
248.766023
 31
0.0
  0
LINE
  5
200
100
AcDbEntity
  8
2
100
AcDbLine
 10
-533.045869
 20
302.766023
 30
0.0
 11
-464.184783
 21
302.766023
 31
0.0
  0
LINE
  5
201
100
AcDbEntity
  8
2
100
AcDbLine
 10
-249.885631
 20
289.766023
 30
0.0
 11
-249.885631
 21
401.766023
 31
0.0
  0
LINE
  5
202
100
AcDbEntity
  8
2
100
AcDbLine
 10
-249.885631
 20
289.766023
 30
0.0
 11
-255.140673
 21
289.766023
 31
0.0
  0
LINE
  5
203
100
AcDbEntity
  8
2
100
AcDbLine
 10
-249.885631
 20
401.766023
 30
0.0
 11
-253.885631
 21
401.766023
 31
0.0
  0
ARC
  5
204
100
AcDbEntity
  8
2
100
AcDbCircle
 10
-253.885631
 20
400.766023
 30
0.0
 40
1.0
100
AcDbArc
 50
90.0
 51
180.0
  0
LINE
  5
205
100
AcDbEntity
  8
2
100
AcDbLine
 10
-408.885631
 20
413.766023
 30
0.0
 11
-340.885631
 21
413.766023
 31
0.0
  0
LINE
  5
206
100
AcDbEntity
  8
2
100
AcDbLine
 10
-325.885631
 20
416.766023
 30
0.0
 11
-299.885631
 21
416.766023
 31
0.0
  0
ARC
  5
207
100
AcDbEntity
  8
2
100
AcDbCircle
 10
-532.885631
 20
398.766023
 30
0.0
 40
8.0
100
AcDbArc
 50
90.0
 51
270.0
  0
LINE
  5
208
100
AcDbEntity
  8
2
100
AcDbLine
 10
-540.885631
 20
398.766023
 30
0.0
 11
-540.885631
 21
280.766023
 31
0.0
  0
LINE
  5
209
100
AcDbEntity
  8
2
100
AcDbLine
 10
-532.885631
 20
406.766023
 30
0.0
 11
-522.526647
 21
406.766023
 31
0.0
  0
LINE
  5
20A
100
AcDbEntity
  8
2
100
AcDbLine
 10
-521.526647
 20
416.766023
 30
0.0
 11
-438.285631
 21
416.766023
 31
0.0
  0
LINE
  5
20B
100
AcDbEntity
  8
2
100
AcDbLine
 10
-532.885631
 20
390.766023
 30
0.0
 11
-528.885631
 21
390.766023
 31
0.0
  0
ARC
  5
20C
100
AcDbEntity
  8
2
100
AcDbCircle
 10
-532.885631
 20
280.766023
 30
0.0
 40
8.0
100
AcDbArc
 50
126.62486
 51
203.989742
  0
LINE
  5
20D
100
AcDbEntity
  8
2
100
AcDbLine
 10
-525.885631
 20
398.766023
 30
0.0
 11
-525.885631
 21
307.766023
 31
0.0
  0
LINE
  5
20E
100
AcDbEntity
  8
2
100
AcDbLine
 10
-437.244615
 20
406.766023
 30
0.0
 11
-409.885631
 21
406.766023
 31
0.0
  0
LINE
  5
20F
100
AcDbEntity
  8
2
100
AcDbLine
 10
-339.885631
 20
406.766023
 30
0.0
 11
-328.885631
 21
406.766023
 31
0.0
  0
LINE
  5
210
100
AcDbEntity
  8
2
100
AcDbLine
 10
-296.885631
 20
406.766023
 30
0.0
 11
-290.885631
 21
406.766023
 31
0.0
  0
ARC
  5
211
100
AcDbEntity
  8
2
100
AcDbCircle
 10
-290.885631
 20
398.766023
 30
0.0
 40
8.0
100
AcDbArc
 50
0.0
 51
90.0
  0
ARC
  5
212
100
AcDbEntity
  8
2
100
AcDbCircle
 10
-255.885631
 20
399.766023
 30
0.0
 40
1.0
100
AcDbArc
 50
270.0
 51
360.0
  0
LINE
  5
213
100
AcDbEntity
  8
2
100
AcDbLine
 10
-255.885631
 20
398.766023
 30
0.0
 11
-288.15358
 21
398.766023
 31
0.0
  0
LINE
  5
214
100
AcDbEntity
  8
2
100
AcDbLine
 10
-509.435618
 20
-73.433977
 30
0.0
 11
-279.76374
 21
-73.433977
 31
0.0
  0
LINE
  5
215
100
AcDbEntity
  8
2
100
AcDbLine
 10
-289.885631
 20
57.566023
 30
0.0
 11
-449.885631
 21
57.566023
 31
0.0
  0
LINE
  5
216
100
AcDbEntity
  8
2
100
AcDbLine
 10
-289.885631
 20
57.566023
 30
0.0
 11
-289.885631
 21
45.18758
 31
0.0
  0
LINE
  5
217
100
AcDbEntity
  8
2
100
AcDbLine
 10
-287.885631
 20
54.566023
 30
0.0
 11
-287.885631
 21
45.327434
 31
0.0
  0
LINE
  5
218
100
AcDbEntity
  8
2
100
AcDbLine
 10
-282.885631
 20
-74.433977
 30
0.0
 11
-540.885631
 21
-74.433977
 31
0.0
  0
LINE
  5
219
100
AcDbEntity
  8
2
100
AcDbLine
 10
-249.885631
 20
-72.433977
 30
0.0
 11
-253.885631
 21
-72.433977
 31
0.0
  0
ARC
  5
21A
100
AcDbEntity
  8
2
100
AcDbCircle
 10
-253.885631
 20
-71.433977
 30
0.0
 40
1.0
100
AcDbArc
 50
180.0
 51
270.0
  0
LINE
  5
21B
100
AcDbEntity
  8
2
100
AcDbLine
 10
-249.885631
 20
15.566023
 30
0.0
 11
-256.33871
 21
15.566023
 31
0.0
  0
LINE
  5
21C
100
AcDbEntity
  8
2
100
AcDbLine
 10
-254.885631
 20
-71.433977
 30
0.0
 11
-254.885631
 21
-40.847088
 31
0.0
  0
LINE
  5
21D
100
AcDbEntity
  8
2
100
AcDbLine
 10
-254.885631
 20
7.979135
 30
0.0
 11
-254.885631
 21
15.566023
 31
0.0
  0
ARC
  5
21E
100
AcDbEntity
  8
2
100
AcDbCircle
 10
-255.885631
 20
-70.433977
 30
0.0
 40
1.0
100
AcDbArc
 50
0.0
 51
90.0
  0
LINE
  5
21F
100
AcDbEntity
  8
2
100
AcDbLine
 10
-255.885631
 20
-69.433977
 30
0.0
 11
-267.135631
 21
-69.433977
 31
0.0
  0
LINE
  5
220
100
AcDbEntity
  8
2
100
AcDbLine
 10
-255.885631
 20
-69.433977
 30
0.0
 11
-267.085631
 21
-69.433977
 31
0.0
  0
ARC
  5
221
100
AcDbEntity
  8
2
100
AcDbCircle
 10
-281.885631
 20
-74.433977
 30
0.0
 40
1.0
100
AcDbArc
 50
90.0
 51
180.0
  0
LINE
  5
222
100
AcDbEntity
  8
2
100
AcDbLine
 10
85.514369
 20
-74.433977
 30
0.0
 11
219.514369
 21
-74.433977
 31
0.0
  0
LINE
  5
223
100
AcDbEntity
  8
2
100
AcDbLine
 10
71.514369
 20
45.467399
 30
0.0
 11
71.514369
 21
-73.433977
 31
0.0
  0
LINE
  5
224
100
AcDbEntity
  8
2
100
AcDbLine
 10
61.514369
 20
-73.433977
 30
0.0
 11
75.514369
 21
-73.433977
 31
0.0
  0
LINE
  5
225
100
AcDbEntity
  8
2
100
AcDbLine
 10
76.514369
 20
-72.433977
 30
0.0
 11
76.514369
 21
44.467399
 31
0.0
  0
LINE
  5
226
100
AcDbEntity
  8
2
100
AcDbLine
 10
218.764369
 20
-83.433977
 30
0.0
 11
86.264369
 21
-83.433977
 31
0.0
  0
LINE
  5
227
100
AcDbEntity
  8
2
100
AcDbLine
 10
-302.885631
 20
209.766023
 30
0.0
 11
-322.885631
 21
209.766023
 31
0.0
  0
LINE
  5
228
100
AcDbEntity
  8
2
100
AcDbLine
 10
-302.885631
 20
209.766023
 30
0.0
 11
-301.885631
 21
208.766023
 31
0.0
  0
LINE
  5
229
100
AcDbEntity
  8
2
100
AcDbLine
 10
-301.885631
 20
201.816023
 30
0.0
 11
-301.885631
 21
208.766023
 31
0.0
  0
ARC
  5
22A
100
AcDbEntity
  8
2
100
AcDbCircle
 10
-299.885631
 20
201.816023
 30
0.0
 40
2.0
100
AcDbArc
 50
180.0
 51
270.0
  0
ARC
  5
22B
100
AcDbEntity
  8
2
100
AcDbCircle
 10
-268.885631
 20
193.816023
 30
0.0
 40
6.0
100
AcDbArc
 50
282.063826
 51
89.678732
  0
LINE
  5
22C
100
AcDbEntity
  8
2
100
AcDbLine
 10
-304.385631
 20
199.816023
 30
0.0
 11
-301.335631
 21
199.816023
 31
0.0
  0
ARC
  5
22D
100
AcDbEntity
  8
2
100
AcDbCircle
 10
-304.385631
 20
187.816023
 30
0.0
 40
12.0
100
AcDbArc
 50
90.0
 51
110.044444
  0
LINE
  5
22E
100
AcDbEntity
  8
2
100
AcDbLine
 10
-284.585631
 20
199.816023
 30
0.0
 11
-281.285631
 21
199.816023
 31
0.0
  0
ARC
  5
22F
100
AcDbEntity
  8
2
100
AcDbCircle
 10
-301.335631
 20
196.816023
 30
0.0
 40
3.0
100
AcDbArc
 50
0.0
 51
90.0
  0
ARC
  5
230
100
AcDbEntity
  8
2
100
AcDbCircle
 10
-303.885631
 20
197.816023
 30
0.0
 40
2.0
100
AcDbArc
 50
0.0
 51
90.0
  0
LINE
  5
231
100
AcDbEntity
  8
2
100
AcDbLine
 10
-345.168198
 20
185.766023
 30
0.0
 11
-280.603064
 21
185.766023
 31
0.0
  0
LINE
  5
232
100
AcDbEntity
  8
2
100
AcDbLine
 10
-266.167298
 20
193.816023
 30
0.0
 11
-275.380632
 21
193.816023
 31
0.0
  0
LINE
  5
233
100
AcDbEntity
  8
2
100
AcDbLine
 10
-280.044077
 20
193.816023
 30
0.0
 11
-297.335631
 21
193.816023
 31
0.0
  0
LINE
  5
234
100
AcDbEntity
  8
2
100
AcDbLine
 10
-302.885631
 20
193.816023
 30
0.0
 11
-322.885631
 21
193.816023
 31
0.0
  0
LINE
  5
235
100
AcDbEntity
  8
2
100
AcDbLine
 10
-301.885631
 20
194.816023
 30
0.0
 11
-301.885631
 21
197.816023
 31
0.0
  0
ARC
  5
236
100
AcDbEntity
  8
2
100
AcDbCircle
 10
-302.885631
 20
194.816023
 30
0.0
 40
1.0
100
AcDbArc
 50
270.0
 51
360.0
  0
ARC
  5
237
100
AcDbEntity
  8
2
100
AcDbCircle
 10
-312.885631
 20
211.066023
 30
0.0
 40
12.75
100
AcDbArc
 50
249.950024
 51
290.044444
  0
LINE
  5
238
100
AcDbEntity
  8
2
100
AcDbLine
 10
-298.335631
 20
194.816023
 30
0.0
 11
-298.335631
 21
196.816023
 31
0.0
  0
ARC
  5
239
100
AcDbEntity
  8
2
100
AcDbCircle
 10
-287.735631
 20
192.616023
 30
0.0
 40
9.0
100
AcDbArc
 50
15.962014
 51
39.79182
  0
ARC
  5
23A
100
AcDbEntity
  8
2
100
AcDbCircle
 10
-285.135631
 20
192.616023
 30
0.0
 40
9.0
100
AcDbArc
 50
12.709033
 51
39.555556
  0
ARC
  5
23B
100
AcDbEntity
  8
2
100
AcDbCircle
 10
-281.285631
 20
195.816023
 30
0.0
 40
4.0
100
AcDbArc
 50
39.555556
 51
90.0
  0
ARC
  5
23C
100
AcDbEntity
  8
2
100
AcDbCircle
 10
-291.985631
 20
228.316023
 30
0.0
 40
30.0
100
AcDbArc
 50
255.130114
 51
270.0
  0
ARC
  5
23D
100
AcDbEntity
  8
2
100
AcDbCircle
 10
-290.635631
 20
208.316023
 30
0.0
 40
10.0
100
AcDbArc
 50
270.0
 51
297.777778
  0
ARC
  5
23E
100
AcDbEntity
  8
2
100
AcDbCircle
 10
-284.585631
 20
196.816023
 30
0.0
 40
3.0
100
AcDbArc
 50
90.0
 51
117.777778
  0
ARC
  5
23F
100
AcDbEntity
  8
2
100
AcDbCircle
 10
-271.085631
 20
193.916023
 30
0.0
 40
6.0
100
AcDbArc
 50
10.36976
 51
70.754889
  0
ARC
  5
240
100
AcDbEntity
  8
2
100
AcDbCircle
 10
-270.185631
 20
193.966023
 30
0.0
 40
6.0
100
AcDbArc
 50
3.279341
 51
77.157379
  0
ARC
  5
241
100
AcDbEntity
  8
2
100
AcDbCircle
 10
-273.685631
 20
218.316023
 30
0.0
 40
20.0
100
AcDbArc
 50
255.003993
 51
270.0
  0
ARC
  5
242
100
AcDbEntity
  8
2
100
AcDbCircle
 10
-273.935631
 20
203.316023
 30
0.0
 40
5.0
100
AcDbArc
 50
270.0
 51
306.547676
  0
ARC
  5
243
100
AcDbEntity
  8
2
100
AcDbCircle
 10
-299.885631
 20
197.816023
 30
0.0
 40
2.0
100
AcDbArc
 50
35.562443
 51
90.0
  0
LINE
  5
244
100
AcDbEntity
  8
2
100
AcDbLine
 10
-273.435631
 20
187.916023
 30
0.0
 11
-353.535631
 21
187.916023
 31
0.0
  0
LINE
  5
245
100
AcDbEntity
  8
2
100
AcDbLine
 10
-291.985631
 20
198.316023
 30
0.0
 11
-290.635631
 21
198.316023
 31
0.0
  0
LINE
  5
246
100
AcDbEntity
  8
2
100
AcDbLine
 10
-322.885631
 20
209.766023
 30
0.0
 11
-323.885631
 21
208.766023
 31
0.0
  0
LINE
  5
247
100
AcDbEntity
  8
2
100
AcDbLine
 10
-323.885631
 20
201.816023
 30
0.0
 11
-323.885631
 21
208.766023
 31
0.0
  0
ARC
  5
248
100
AcDbEntity
  8
2
100
AcDbCircle
 10
-325.885631
 20
201.816023
 30
0.0
 40
2.0
100
AcDbArc
 50
270.0
 51
360.0
  0
ARC
  5
249
100
AcDbEntity
  8
2
100
AcDbCircle
 10
-356.885631
 20
193.816023
 30
0.0
 40
6.0
100
AcDbArc
 50
90.321268
 51
259.3
  0
LINE
  5
24A
100
AcDbEntity
  8
2
100
AcDbLine
 10
-321.370912
 20
199.816023
 30
0.0
 11
-324.435631
 21
199.816023
 31
0.0
  0
LINE
  5
24B
100
AcDbEntity
  8
2
100
AcDbLine
 10
-341.185631
 20
199.816023
 30
0.0
 11
-344.485631
 21
199.816023
 31
0.0
  0
ARC
  5
24C
100
AcDbEntity
  8
2
100
AcDbCircle
 10
-324.435631
 20
196.816023
 30
0.0
 40
3.0
100
AcDbArc
 50
90.0
 51
180.0
  0
ARC
  5
24D
100
AcDbEntity
  8
2
100
AcDbCircle
 10
-321.885631
 20
197.816023
 30
0.0
 40
2.0
100
AcDbArc
 50
90.0
 51
180.0
  0
LINE
  5
24E
100
AcDbEntity
  8
2
100
AcDbLine
 10
-359.603964
 20
193.816023
 30
0.0
 11
-350.39063
 21
193.816023
 31
0.0
  0
LINE
  5
24F
100
AcDbEntity
  8
2
100
AcDbLine
 10
-345.727185
 20
193.816023
 30
0.0
 11
-328.435631
 21
193.816023
 31
0.0
  0
LINE
  5
250
100
AcDbEntity
  8
2
100
AcDbLine
 10
-323.885631
 20
194.816023
 30
0.0
 11
-323.885631
 21
197.816023
 31
0.0
  0
ARC
  5
251
100
AcDbEntity
  8
2
100
AcDbCircle
 10
-322.885631
 20
194.816023
 30
0.0
 40
1.0
100
AcDbArc
 50
180.0
 51
270.0
  0
LINE
  5
252
100
AcDbEntity
  8
2
100
AcDbLine
 10
-327.435631
 20
194.816023
 30
0.0
 11
-327.435631
 21
196.816023
 31
0.0
  0
ARC
  5
253
100
AcDbEntity
  8
2
100
AcDbCircle
 10
-338.035631
 20
192.616023
 30
0.0
 40
9.0
100
AcDbArc
 50
140.208181
 51
164.037986
  0
ARC
  5
254
100
AcDbEntity
  8
2
100
AcDbCircle
 10
-340.635631
 20
192.616023
 30
0.0
 40
9.0
100
AcDbArc
 50
140.444444
 51
167.290967
  0
ARC
  5
255
100
AcDbEntity
  8
2
100
AcDbCircle
 10
-344.485631
 20
195.816023
 30
0.0
 40
4.0
100
AcDbArc
 50
90.0
 51
140.444444
  0
ARC
  5
256
100
AcDbEntity
  8
2
100
AcDbCircle
 10
-333.785631
 20
228.316023
 30
0.0
 40
30.0
100
AcDbArc
 50
270.0
 51
284.869886
  0
ARC
  5
257
100
AcDbEntity
  8
2
100
AcDbCircle
 10
-335.135631
 20
208.316023
 30
0.0
 40
10.0
100
AcDbArc
 50
242.222222
 51
270.0
  0
ARC
  5
258
100
AcDbEntity
  8
2
100
AcDbCircle
 10
-341.185631
 20
196.816023
 30
0.0
 40
3.0
100
AcDbArc
 50
62.222222
 51
90.0
  0
ARC
  5
259
100
AcDbEntity
  8
2
100
AcDbCircle
 10
-354.685631
 20
193.916023
 30
0.0
 40
6.0
100
AcDbArc
 50
109.245111
 51
169.63024
  0
ARC
  5
25A
100
AcDbEntity
  8
2
100
AcDbCircle
 10
-355.585631
 20
193.966023
 30
0.0
 40
6.0
100
AcDbArc
 50
102.842621
 51
176.720659
  0
ARC
  5
25B
100
AcDbEntity
  8
2
100
AcDbCircle
 10
-352.085631
 20
218.316023
 30
0.0
 40
20.0
100
AcDbArc
 50
270.0
 51
284.996007
  0
ARC
  5
25C
100
AcDbEntity
  8
2
100
AcDbCircle
 10
-351.835631
 20
203.316023
 30
0.0
 40
5.0
100
AcDbArc
 50
233.452324
 51
270.0
  0
ARC
  5
25D
100
AcDbEntity
  8
2
100
AcDbCircle
 10
-325.885631
 20
197.816023
 30
0.0
 40
2.0
100
AcDbArc
 50
90.0
 51
144.437557
  0
LINE
  5
25E
100
AcDbEntity
  8
2
100
AcDbLine
 10
-333.785631
 20
198.316023
 30
0.0
 11
-335.135631
 21
198.316023
 31
0.0
  0
LINE
  5
25F
100
AcDbEntity
  8
2
100
AcDbLine
 10
-301.885631
 20
208.766023
 30
0.0
 11
-323.885631
 21
208.766023
 31
0.0
  0
LINE
  5
260
100
AcDbEntity
  8
2
100
AcDbLine
 10
-323.385631
 20
200.466023
 30
0.0
 11
-302.485631
 21
200.466023
 31
0.0
  0
LINE
  5
261
100
AcDbEntity
  8
2
100
AcDbLine
 10
-318.885631
 20
212.766023
 30
0.0
 11
-318.885631
 21
209.766023
 31
0.0
  0
LINE
  5
262
100
AcDbEntity
  8
2
100
AcDbLine
 10
-306.885631
 20
209.766023
 30
0.0
 11
-306.885631
 21
212.766023
 31
0.0
  0
LINE
  5
263
100
AcDbEntity
  8
2
100
AcDbLine
 10
22.514369
 20
-26.433977
 30
0.0
 11
22.514369
 21
-6.433977
 31
0.0
  0
LINE
  5
264
100
AcDbEntity
  8
2
100
AcDbLine
 10
22.514369
 20
-26.433977
 30
0.0
 11
21.514369
 21
-27.433977
 31
0.0
  0
LINE
  5
265
100
AcDbEntity
  8
2
100
AcDbLine
 10
22.514369
 20
-6.433977
 30
0.0
 11
21.514369
 21
-5.433977
 31
0.0
  0
LINE
  5
266
100
AcDbEntity
  8
2
100
AcDbLine
 10
21.514369
 20
-27.433977
 30
0.0
 11
21.514369
 21
-5.433977
 31
0.0
  0
LINE
  5
267
100
AcDbEntity
  8
2
100
AcDbLine
 10
25.514369
 20
-10.433977
 30
0.0
 11
22.514369
 21
-10.433977
 31
0.0
  0
LINE
  5
268
100
AcDbEntity
  8
2
100
AcDbLine
 10
22.514369
 20
-22.433977
 30
0.0
 11
25.514369
 21
-22.433977
 31
0.0
  0
LINE
  5
269
100
AcDbEntity
  8
2
100
AcDbLine
 10
-279.985631
 20
375.766023
 30
0.0
 11
-279.985631
 21
349.766023
 31
0.0
  0
LINE
  5
26A
100
AcDbEntity
  8
2
100
AcDbLine
 10
-284.985631
 20
377.77713
 30
0.0
 11
-284.985631
 21
347.754916
 31
0.0
  0
LINE
  5
26B
100
AcDbEntity
  8
2
100
AcDbLine
 10
-281.146744
 20
347.754916
 30
0.0
 11
-284.985631
 21
347.754916
 31
0.0
  0
LINE
  5
26C
100
AcDbEntity
  8
2
100
AcDbLine
 10
-281.146744
 20
355.26047
 30
0.0
 11
-284.985631
 21
355.26047
 31
0.0
  0
LINE
  5
26D
100
AcDbEntity
  8
2
100
AcDbLine
 10
-281.146744
 20
370.271577
 30
0.0
 11
-284.985631
 21
370.271577
 31
0.0
  0
LINE
  5
26E
100
AcDbEntity
  8
2
100
AcDbLine
 10
-281.146744
 20
377.77713
 30
0.0
 11
-284.985631
 21
377.77713
 31
0.0
  0
LINE
  5
26F
100
AcDbEntity
  8
2
100
AcDbLine
 10
-279.985631
 20
349.766023
 30
0.0
 11
-281.146744
 21
347.754916
 31
0.0
  0
LINE
  5
270
100
AcDbEntity
  8
2
100
AcDbLine
 10
-279.985631
 20
375.766023
 30
0.0
 11
-281.146744
 21
377.77713
 31
0.0
  0
ARC
  5
271
100
AcDbEntity
  8
2
100
AcDbCircle
 10
-304.824518
 20
362.766023
 30
0.0
 40
24.838887
100
AcDbArc
 50
342.412046
 51
17.587954
  0
ARC
  5
272
100
AcDbEntity
  8
2
100
AcDbCircle
 10
-286.630767
 20
351.507693
 30
0.0
 40
6.645136
100
AcDbArc
 50
325.615736
 51
34.384264
  0
ARC
  5
273
100
AcDbEntity
  8
2
100
AcDbCircle
 10
-286.630767
 20
374.024354
 30
0.0
 40
6.645136
100
AcDbArc
 50
325.615736
 51
34.384264
  0
LINE
  5
274
100
AcDbEntity
  8
2
100
AcDbLine
 10
-284.985631
 20
371.766023
 30
0.0
 11
-287.885631
 21
371.766023
 31
0.0
  0
LINE
  5
275
100
AcDbEntity
  8
2
100
AcDbLine
 10
-287.885631
 20
353.766023
 30
0.0
 11
-284.985631
 21
353.766023
 31
0.0
  0
LINE
  5
276
100
AcDbEntity
  8
2
100
AcDbLine
 10
-279.985631
 20
335.766023
 30
0.0
 11
-279.985631
 21
309.766023
 31
0.0
  0
LINE
  5
277
100
AcDbEntity
  8
2
100
AcDbLine
 10
-284.985631
 20
337.77713
 30
0.0
 11
-284.985631
 21
307.754916
 31
0.0
  0
LINE
  5
278
100
AcDbEntity
  8
2
100
AcDbLine
 10
-281.146744
 20
307.754916
 30
0.0
 11
-284.985631
 21
307.754916
 31
0.0
  0
LINE
  5
279
100
AcDbEntity
  8
2
100
AcDbLine
 10
-281.146744
 20
315.26047
 30
0.0
 11
-284.985631
 21
315.26047
 31
0.0
  0
LINE
  5
27A
100
AcDbEntity
  8
2
100
AcDbLine
 10
-281.146744
 20
330.271577
 30
0.0
 11
-284.985631
 21
330.271577
 31
0.0
  0
LINE
  5
27B
100
AcDbEntity
  8
2
100
AcDbLine
 10
-281.146744
 20
337.77713
 30
0.0
 11
-284.985631
 21
337.77713
 31
0.0
  0
LINE
  5
27C
100
AcDbEntity
  8
2
100
AcDbLine
 10
-279.985631
 20
309.766023
 30
0.0
 11
-281.146744
 21
307.754916
 31
0.0
  0
LINE
  5
27D
100
AcDbEntity
  8
2
100
AcDbLine
 10
-279.985631
 20
335.766023
 30
0.0
 11
-281.146744
 21
337.77713
 31
0.0
  0
ARC
  5
27E
100
AcDbEntity
  8
2
100
AcDbCircle
 10
-304.824518
 20
322.766023
 30
0.0
 40
24.838887
100
AcDbArc
 50
342.412046
 51
17.587954
  0
ARC
  5
27F
100
AcDbEntity
  8
2
100
AcDbCircle
 10
-286.630767
 20
311.507693
 30
0.0
 40
6.645136
100
AcDbArc
 50
325.615736
 51
34.384264
  0
ARC
  5
280
100
AcDbEntity
  8
2
100
AcDbCircle
 10
-286.630767
 20
334.024354
 30
0.0
 40
6.645136
100
AcDbArc
 50
325.615736
 51
34.384264
  0
LINE
  5
281
100
AcDbEntity
  8
2
100
AcDbLine
 10
-284.985631
 20
331.766023
 30
0.0
 11
-287.885631
 21
331.766023
 31
0.0
  0
LINE
  5
282
100
AcDbEntity
  8
2
100
AcDbLine
 10
-287.885631
 20
313.766023
 30
0.0
 11
-284.985631
 21
313.766023
 31
0.0
  0
LINE
  5
283
100
AcDbEntity
  8
2
100
AcDbLine
 10
-279.885631
 20
50.566023
 30
0.0
 11
-279.885631
 21
45.129537
 31
0.0
  0
LINE
  5
284
100
AcDbEntity
  8
2
100
AcDbLine
 10
-284.885631
 20
50.566023
 30
0.0
 11
-284.885631
 21
45.615292
 31
0.0
  0
LINE
  5
285
100
AcDbEntity
  8
2
100
AcDbLine
 10
-279.885631
 20
50.566023
 30
0.0
 11
-284.885631
 21
50.566023
 31
0.0
  0
LINE
  5
286
100
AcDbEntity
  8
2
100
AcDbLine
 10
-284.885631
 20
46.566023
 30
0.0
 11
-287.885631
 21
46.566023
 31
0.0
  0
ARC
  5
287
100
AcDbEntity
  8
2
100
AcDbCircle
 10
-298.089798
 20
44.066023
 30
0.0
 40
18.204167
100
AcDbArc
 50
3.368215
 51
20.919818
  0
CIRCLE
  5
288
100
AcDbEntity
  8
2
100
AcDbCircle
 10
135.514369
 20
37.566023
 30
0.0
 40
13.0
  0
LINE
  5
289
100
AcDbEntity
  8
2
100
AcDbLine
 10
128.008816
 20
50.566023
 30
0.0
 11
120.503262
 21
37.566023
 31
0.0
  0
LINE
  5
28A
100
AcDbEntity
  8
2
100
AcDbLine
 10
143.019923
 20
50.566023
 30
0.0
 11
128.008816
 21
50.566023
 31
0.0
  0
LINE
  5
28B
100
AcDbEntity
  8
2
100
AcDbLine
 10
150.525476
 20
37.566023
 30
0.0
 11
143.019923
 21
50.566023
 31
0.0
  0
LINE
  5
28C
100
AcDbEntity
  8
2
100
AcDbLine
 10
143.019923
 20
24.566023
 30
0.0
 11
150.525476
 21
37.566023
 31
0.0
  0
LINE
  5
28D
100
AcDbEntity
  8
2
100
AcDbLine
 10
128.008816
 20
24.566023
 30
0.0
 11
143.019923
 21
24.566023
 31
0.0
  0
LINE
  5
28E
100
AcDbEntity
  8
2
100
AcDbLine
 10
120.503262
 20
37.566023
 30
0.0
 11
128.008816
 21
24.566023
 31
0.0
  0
CIRCLE
  5
28F
100
AcDbEntity
  8
2
100
AcDbCircle
 10
175.514369
 20
37.566023
 30
0.0
 40
13.0
  0
LINE
  5
290
100
AcDbEntity
  8
2
100
AcDbLine
 10
168.008816
 20
50.566023
 30
0.0
 11
160.503262
 21
37.566023
 31
0.0
  0
LINE
  5
291
100
AcDbEntity
  8
2
100
AcDbLine
 10
183.019923
 20
50.566023
 30
0.0
 11
168.008816
 21
50.566023
 31
0.0
  0
LINE
  5
292
100
AcDbEntity
  8
2
100
AcDbLine
 10
190.525476
 20
37.566023
 30
0.0
 11
183.019923
 21
50.566023
 31
0.0
  0
LINE
  5
293
100
AcDbEntity
  8
2
100
AcDbLine
 10
183.019923
 20
24.566023
 30
0.0
 11
190.525476
 21
37.566023
 31
0.0
  0
LINE
  5
294
100
AcDbEntity
  8
2
100
AcDbLine
 10
168.008816
 20
24.566023
 30
0.0
 11
183.019923
 21
24.566023
 31
0.0
  0
LINE
  5
295
100
AcDbEntity
  8
2
100
AcDbLine
 10
160.503262
 20
37.566023
 30
0.0
 11
168.008816
 21
24.566023
 31
0.0
  0
ARC
  5
296
100
AcDbEntity
  8
2
100
AcDbCircle
 10
-443.885631
 20
386.766023
 30
0.0
 40
6.0
100
AcDbArc
 50
90.0
 51
180.0
  0
ARC
  5
297
100
AcDbEntity
  8
2
100
AcDbCircle
 10
-263.696275
 20
194.33785
 30
0.0
 40
0.5
100
AcDbArc
 50
183.279341
 51
259.2122
  0
ARC
  5
298
100
AcDbEntity
  8
2
100
AcDbCircle
 10
-266.167298
 20
194.816023
 30
0.0
 40
1.0
100
AcDbArc
 50
270.0
 51
10.36976
  0
ARC
  5
299
100
AcDbEntity
  8
2
100
AcDbCircle
 10
-275.380632
 20
194.816023
 30
0.0
 40
1.0
100
AcDbArc
 50
192.709033
 51
270.0
  0
ARC
  5
29A
100
AcDbEntity
  8
2
100
AcDbCircle
 10
-263.977033
 20
192.864359
 30
0.0
 40
1.0
100
AcDbArc
 50
349.02779
 51
79.2122
  0
ARC
  5
29B
100
AcDbEntity
  8
2
100
AcDbCircle
 10
-283.893756
 20
195.816023
 30
0.0
 40
4.0
100
AcDbArc
 50
39.79182
 51
90.0
  0
ARC
  5
29C
100
AcDbEntity
  8
2
100
AcDbCircle
 10
-297.335631
 20
194.816023
 30
0.0
 40
1.0
100
AcDbArc
 50
180.0
 51
270.0
  0
ARC
  5
29D
100
AcDbEntity
  8
2
100
AcDbCircle
 10
-280.044077
 20
194.816023
 30
0.0
 40
1.0
100
AcDbArc
 50
270.0
 51
15.962014
  0
ARC
  5
29E
100
AcDbEntity
  8
2
100
AcDbCircle
 10
-362.074987
 20
194.33785
 30
0.0
 40
0.5
100
AcDbArc
 50
280.7878
 51
356.720659
  0
ARC
  5
29F
100
AcDbEntity
  8
2
100
AcDbCircle
 10
-361.794229
 20
192.864359
 30
0.0
 40
1.0
100
AcDbArc
 50
100.7878
 51
190.97221
  0
ARC
  5
2A0
100
AcDbEntity
  8
2
100
AcDbCircle
 10
-359.603964
 20
194.816023
 30
0.0
 40
1.0
100
AcDbArc
 50
169.63024
 51
270.0
  0
ARC
  5
2A1
100
AcDbEntity
  8
2
100
AcDbCircle
 10
-350.39063
 20
194.816023
 30
0.0
 40
1.0
100
AcDbArc
 50
270.0
 51
347.290967
  0
ARC
  5
2A2
100
AcDbEntity
  8
2
100
AcDbCircle
 10
-341.877505
 20
195.816023
 30
0.0
 40
4.0
100
AcDbArc
 50
90.0
 51
140.208181
  0
ARC
  5
2A3
100
AcDbEntity
  8
2
100
AcDbCircle
 10
-328.435631
 20
194.816023
 30
0.0
 40
1.0
100
AcDbArc
 50
270.0
 51
360.0
  0
ARC
  5
2A4
100
AcDbEntity
  8
2
100
AcDbCircle
 10
-345.727185
 20
194.816023
 30
0.0
 40
1.0
100
AcDbArc
 50
164.037986
 51
270.0
  0
ARC
  5
2A5
100
AcDbEntity
  8
2
100
AcDbCircle
 10
-326.789458
 20
334.635839
 30
0.0
 40
150.0
100
AcDbArc
 50
257.936174
 51
262.962154
  0
ARC
  5
2A6
100
AcDbEntity
  8
2
100
AcDbCircle
 10
-298.981804
 20
334.635839
 30
0.0
 40
150.0
100
AcDbArc
 50
277.037846
 51
282.063826
  0
LINE
  5
2A7
100
AcDbEntity
  8
2
100
AcDbLine
 10
14.564369
 20
-27.433977
 30
0.0
 11
21.514369
 21
-27.433977
 31
0.0
  0
ARC
  5
2A8
100
AcDbEntity
  8
2
100
AcDbCircle
 10
14.564369
 20
-29.433977
 30
0.0
 40
2.0
100
AcDbArc
 50
90.0
 51
180.0
  0
ARC
  5
2A9
100
AcDbEntity
  8
2
100
AcDbCircle
 10
6.564369
 20
-60.433977
 30
0.0
 40
6.0
100
AcDbArc
 50
192.063826
 51
359.678732
  0
LINE
  5
2AA
100
AcDbEntity
  8
2
100
AcDbLine
 10
12.564369
 20
-24.933977
 30
0.0
 11
12.564369
 21
-27.983977
 31
0.0
  0
ARC
  5
2AB
100
AcDbEntity
  8
2
100
AcDbCircle
 10
0.564369
 20
-24.933977
 30
0.0
 40
12.0
100
AcDbArc
 50
0.0
 51
20.044444
  0
LINE
  5
2AC
100
AcDbEntity
  8
2
100
AcDbLine
 10
12.564369
 20
-44.733977
 30
0.0
 11
12.564369
 21
-48.033977
 31
0.0
  0
ARC
  5
2AD
100
AcDbEntity
  8
2
100
AcDbCircle
 10
9.564369
 20
-27.983977
 30
0.0
 40
3.0
100
AcDbArc
 50
270.0
 51
360.0
  0
ARC
  5
2AE
100
AcDbEntity
  8
2
100
AcDbCircle
 10
10.564369
 20
-25.433977
 30
0.0
 40
2.0
100
AcDbArc
 50
270.0
 51
360.0
  0
LINE
  5
2AF
100
AcDbEntity
  8
2
100
AcDbLine
 10
-1.485631
 20
15.848591
 30
0.0
 11
-1.485631
 21
-48.716544
 31
0.0
  0
LINE
  5
2B0
100
AcDbEntity
  8
2
100
AcDbLine
 10
6.564369
 20
-63.15231
 30
0.0
 11
6.564369
 21
-53.938975
 31
0.0
  0
LINE
  5
2B1
100
AcDbEntity
  8
2
100
AcDbLine
 10
6.564369
 20
-49.27553
 30
0.0
 11
6.564369
 21
-31.983977
 31
0.0
  0
LINE
  5
2B2
100
AcDbEntity
  8
2
100
AcDbLine
 10
6.564369
 20
-26.433977
 30
0.0
 11
6.564369
 21
-6.433977
 31
0.0
  0
LINE
  5
2B3
100
AcDbEntity
  8
2
100
AcDbLine
 10
7.564369
 20
-27.433977
 30
0.0
 11
10.564369
 21
-27.433977
 31
0.0
  0
ARC
  5
2B4
100
AcDbEntity
  8
2
100
AcDbCircle
 10
7.564369
 20
-26.433977
 30
0.0
 40
1.0
100
AcDbArc
 50
180.0
 51
270.0
  0
ARC
  5
2B5
100
AcDbEntity
  8
2
100
AcDbCircle
 10
23.814369
 20
-16.433977
 30
0.0
 40
12.75
100
AcDbArc
 50
159.950024
 51
200.044444
  0
LINE
  5
2B6
100
AcDbEntity
  8
2
100
AcDbLine
 10
7.564369
 20
-30.983977
 30
0.0
 11
9.564369
 21
-30.983977
 31
0.0
  0
ARC
  5
2B7
100
AcDbEntity
  8
2
100
AcDbCircle
 10
5.364369
 20
-41.583977
 30
0.0
 40
9.0
100
AcDbArc
 50
285.962014
 51
309.79182
  0
ARC
  5
2B8
100
AcDbEntity
  8
2
100
AcDbCircle
 10
5.364369
 20
-44.183977
 30
0.0
 40
9.0
100
AcDbArc
 50
282.709033
 51
309.555556
  0
ARC
  5
2B9
100
AcDbEntity
  8
2
100
AcDbCircle
 10
8.564369
 20
-48.033977
 30
0.0
 40
4.0
100
AcDbArc
 50
309.555556
 51
360.0
  0
ARC
  5
2BA
100
AcDbEntity
  8
2
100
AcDbCircle
 10
41.064369
 20
-37.333977
 30
0.0
 40
30.0
100
AcDbArc
 50
165.130114
 51
180.0
  0
ARC
  5
2BB
100
AcDbEntity
  8
2
100
AcDbCircle
 10
21.064369
 20
-38.683977
 30
0.0
 40
10.0
100
AcDbArc
 50
180.0
 51
207.777778
  0
ARC
  5
2BC
100
AcDbEntity
  8
2
100
AcDbCircle
 10
9.564369
 20
-44.733977
 30
0.0
 40
3.0
100
AcDbArc
 50
0.0
 51
27.777778
  0
ARC
  5
2BD
100
AcDbEntity
  8
2
100
AcDbCircle
 10
6.664369
 20
-58.233977
 30
0.0
 40
6.0
100
AcDbArc
 50
280.36976
 51
340.754889
  0
ARC
  5
2BE
100
AcDbEntity
  8
2
100
AcDbCircle
 10
6.714369
 20
-59.133977
 30
0.0
 40
6.0
100
AcDbArc
 50
273.279341
 51
347.157379
  0
ARC
  5
2BF
100
AcDbEntity
  8
2
100
AcDbCircle
 10
31.064369
 20
-55.633977
 30
0.0
 40
20.0
100
AcDbArc
 50
165.003993
 51
180.0
  0
ARC
  5
2C0
100
AcDbEntity
  8
2
100
AcDbCircle
 10
16.064369
 20
-55.383977
 30
0.0
 40
5.0
100
AcDbArc
 50
180.0
 51
216.547676
  0
ARC
  5
2C1
100
AcDbEntity
  8
2
100
AcDbCircle
 10
10.564369
 20
-29.433977
 30
0.0
 40
2.0
100
AcDbArc
 50
305.562443
 51
360.0
  0
LINE
  5
2C2
100
AcDbEntity
  8
2
100
AcDbLine
 10
0.664369
 20
-55.883977
 30
0.0
 11
0.664369
 21
24.216023
 31
0.0
  0
LINE
  5
2C3
100
AcDbEntity
  8
2
100
AcDbLine
 10
11.064369
 20
-37.333977
 30
0.0
 11
11.064369
 21
-38.683977
 31
0.0
  0
LINE
  5
2C4
100
AcDbEntity
  8
2
100
AcDbLine
 10
14.564369
 20
-5.433977
 30
0.0
 11
21.514369
 21
-5.433977
 31
0.0
  0
ARC
  5
2C5
100
AcDbEntity
  8
2
100
AcDbCircle
 10
14.564369
 20
-3.433977
 30
0.0
 40
2.0
100
AcDbArc
 50
180.0
 51
270.0
  0
ARC
  5
2C6
100
AcDbEntity
  8
2
100
AcDbCircle
 10
6.564369
 20
27.566023
 30
0.0
 40
6.0
100
AcDbArc
 50
0.321268
 51
169.3
  0
LINE
  5
2C7
100
AcDbEntity
  8
2
100
AcDbLine
 10
12.564369
 20
-7.948695
 30
0.0
 11
12.564369
 21
-4.883977
 31
0.0
  0
LINE
  5
2C8
100
AcDbEntity
  8
2
100
AcDbLine
 10
12.564369
 20
11.866023
 30
0.0
 11
12.564369
 21
15.166023
 31
0.0
  0
ARC
  5
2C9
100
AcDbEntity
  8
2
100
AcDbCircle
 10
9.564369
 20
-4.883977
 30
0.0
 40
3.0
100
AcDbArc
 50
0.0
 51
90.0
  0
ARC
  5
2CA
100
AcDbEntity
  8
2
100
AcDbCircle
 10
10.564369
 20
-7.433977
 30
0.0
 40
2.0
100
AcDbArc
 50
0.0
 51
90.0
  0
LINE
  5
2CB
100
AcDbEntity
  8
2
100
AcDbLine
 10
6.564369
 20
30.284357
 30
0.0
 11
6.564369
 21
21.071022
 31
0.0
  0
LINE
  5
2CC
100
AcDbEntity
  8
2
100
AcDbLine
 10
6.564369
 20
16.407577
 30
0.0
 11
6.564369
 21
-0.883977
 31
0.0
  0
LINE
  5
2CD
100
AcDbEntity
  8
2
100
AcDbLine
 10
7.564369
 20
-5.433977
 30
0.0
 11
10.564369
 21
-5.433977
 31
0.0
  0
ARC
  5
2CE
100
AcDbEntity
  8
2
100
AcDbCircle
 10
7.564369
 20
-6.433977
 30
0.0
 40
1.0
100
AcDbArc
 50
90.0
 51
180.0
  0
LINE
  5
2CF
100
AcDbEntity
  8
2
100
AcDbLine
 10
7.564369
 20
-1.883977
 30
0.0
 11
9.564369
 21
-1.883977
 31
0.0
  0
ARC
  5
2D0
100
AcDbEntity
  8
2
100
AcDbCircle
 10
5.364369
 20
8.716023
 30
0.0
 40
9.0
100
AcDbArc
 50
50.208181
 51
74.037986
  0
ARC
  5
2D1
100
AcDbEntity
  8
2
100
AcDbCircle
 10
5.364369
 20
11.316023
 30
0.0
 40
9.0
100
AcDbArc
 50
50.444444
 51
77.290967
  0
ARC
  5
2D2
100
AcDbEntity
  8
2
100
AcDbCircle
 10
8.564369
 20
15.166023
 30
0.0
 40
4.0
100
AcDbArc
 50
0.0
 51
50.444444
  0
ARC
  5
2D3
100
AcDbEntity
  8
2
100
AcDbCircle
 10
41.064369
 20
4.466023
 30
0.0
 40
30.0
100
AcDbArc
 50
180.0
 51
194.869886
  0
ARC
  5
2D4
100
AcDbEntity
  8
2
100
AcDbCircle
 10
21.064369
 20
5.816023
 30
0.0
 40
10.0
100
AcDbArc
 50
152.222222
 51
180.0
  0
ARC
  5
2D5
100
AcDbEntity
  8
2
100
AcDbCircle
 10
9.564369
 20
11.866023
 30
0.0
 40
3.0
100
AcDbArc
 50
332.222222
 51
360.0
  0
ARC
  5
2D6
100
AcDbEntity
  8
2
100
AcDbCircle
 10
6.664369
 20
25.366023
 30
0.0
 40
6.0
100
AcDbArc
 50
19.245111
 51
79.63024
  0
ARC
  5
2D7
100
AcDbEntity
  8
2
100
AcDbCircle
 10
6.714369
 20
26.266023
 30
0.0
 40
6.0
100
AcDbArc
 50
12.842621
 51
86.720659
  0
ARC
  5
2D8
100
AcDbEntity
  8
2
100
AcDbCircle
 10
31.064369
 20
22.766023
 30
0.0
 40
20.0
100
AcDbArc
 50
180.0
 51
194.996007
  0
ARC
  5
2D9
100
AcDbEntity
  8
2
100
AcDbCircle
 10
16.064369
 20
22.516023
 30
0.0
 40
5.0
100
AcDbArc
 50
143.452324
 51
180.0
  0
ARC
  5
2DA
100
AcDbEntity
  8
2
100
AcDbCircle
 10
10.564369
 20
-3.433977
 30
0.0
 40
2.0
100
AcDbArc
 50
0.0
 51
54.437557
  0
LINE
  5
2DB
100
AcDbEntity
  8
2
100
AcDbLine
 10
11.064369
 20
4.466023
 30
0.0
 11
11.064369
 21
5.816023
 31
0.0
  0
LINE
  5
2DC
100
AcDbEntity
  8
2
100
AcDbLine
 10
13.214369
 20
-5.933977
 30
0.0
 11
13.214369
 21
-26.833977
 31
0.0
  0
ARC
  5
2DD
100
AcDbEntity
  8
2
100
AcDbCircle
 10
7.086195
 20
-65.623333
 30
0.0
 40
0.5
100
AcDbArc
 50
93.279341
 51
169.2122
  0
ARC
  5
2DE
100
AcDbEntity
  8
2
100
AcDbCircle
 10
7.564369
 20
-63.15231
 30
0.0
 40
1.0
100
AcDbArc
 50
180.0
 51
280.36976
  0
ARC
  5
2DF
100
AcDbEntity
  8
2
100
AcDbCircle
 10
7.564369
 20
-53.938975
 30
0.0
 40
1.0
100
AcDbArc
 50
102.709033
 51
180.0
  0
ARC
  5
2E0
100
AcDbEntity
  8
2
100
AcDbCircle
 10
5.612705
 20
-65.342575
 30
0.0
 40
1.0
100
AcDbArc
 50
259.02779
 51
349.2122
  0
ARC
  5
2E1
100
AcDbEntity
  8
2
100
AcDbCircle
 10
8.564369
 20
-45.425851
 30
0.0
 40
4.0
100
AcDbArc
 50
309.79182
 51
360.0
  0
ARC
  5
2E2
100
AcDbEntity
  8
2
100
AcDbCircle
 10
7.564369
 20
-31.983977
 30
0.0
 40
1.0
100
AcDbArc
 50
90.0
 51
180.0
  0
ARC
  5
2E3
100
AcDbEntity
  8
2
100
AcDbCircle
 10
7.564369
 20
-49.27553
 30
0.0
 40
1.0
100
AcDbArc
 50
180.0
 51
285.962014
  0
ARC
  5
2E4
100
AcDbEntity
  8
2
100
AcDbCircle
 10
7.086195
 20
32.75538
 30
0.0
 40
0.5
100
AcDbArc
 50
190.7878
 51
266.720659
  0
ARC
  5
2E5
100
AcDbEntity
  8
2
100
AcDbCircle
 10
5.612705
 20
32.474622
 30
0.0
 40
1.0
100
AcDbArc
 50
10.7878
 51
100.97221
  0
ARC
  5
2E6
100
AcDbEntity
  8
2
100
AcDbCircle
 10
7.564369
 20
30.284357
 30
0.0
 40
1.0
100
AcDbArc
 50
79.63024
 51
180.0
  0
ARC
  5
2E7
100
AcDbEntity
  8
2
100
AcDbCircle
 10
7.564369
 20
21.071022
 30
0.0
 40
1.0
100
AcDbArc
 50
180.0
 51
257.290967
  0
ARC
  5
2E8
100
AcDbEntity
  8
2
100
AcDbCircle
 10
8.564369
 20
12.557898
 30
0.0
 40
4.0
100
AcDbArc
 50
0.0
 51
50.208181
  0
ARC
  5
2E9
100
AcDbEntity
  8
2
100
AcDbCircle
 10
7.564369
 20
-0.883977
 30
0.0
 40
1.0
100
AcDbArc
 50
180.0
 51
270.0
  0
ARC
  5
2EA
100
AcDbEntity
  8
2
100
AcDbCircle
 10
7.564369
 20
16.407577
 30
0.0
 40
1.0
100
AcDbArc
 50
74.037986
 51
180.0
  0
ARC
  5
2EB
100
AcDbEntity
  8
2
100
AcDbCircle
 10
147.384184
 20
-2.530149
 30
0.0
 40
150.0
100
AcDbArc
 50
167.936174
 51
172.962154
  0
ARC
  5
2EC
100
AcDbEntity
  8
2
100
AcDbCircle
 10
147.384184
 20
-30.337804
 30
0.0
 40
150.0
100
AcDbArc
 50
187.037846
 51
192.063826
  0
ARC
  5
2ED
100
AcDbEntity
  8
2
100
AcDbCircle
 10
0.564369
 20
-7.948695
 30
0.0
 40
12.0
100
AcDbArc
 50
339.950024
 51
360.0
  0
ARC
  5
2EE
100
AcDbEntity
  8
2
100
AcDbCircle
 10
-321.370912
 20
187.816023
 30
0.0
 40
12.0
100
AcDbArc
 50
69.950024
 51
90.0
  0
ARC
  5
2EF
100
AcDbEntity
  8
2
100
AcDbCircle
 10
-269.767191
 20
197.692492
 30
0.0
 40
2.0
100
AcDbArc
 50
70.754889
 51
126.547676
  0
LINE
  5
2F0
100
AcDbEntity
  8
2
100
AcDbLine
 10
-270.004232
 20
199.678395
 30
0.0
 11
-268.851988
 21
199.815929
 31
0.0
  0
ARC
  5
2F1
100
AcDbEntity
  8
2
100
AcDbCircle
 10
-356.004071
 20
197.692492
 30
0.0
 40
2.0
100
AcDbArc
 50
53.452324
 51
109.245111
  0
LINE
  5
2F2
100
AcDbEntity
  8
2
100
AcDbLine
 10
-356.919274
 20
199.815929
 30
0.0
 11
-355.76703
 21
199.678395
 31
0.0
  0
ARC
  5
2F3
100
AcDbEntity
  8
2
100
AcDbCircle
 10
10.440838
 20
26.684464
 30
0.0
 40
2.0
100
AcDbArc
 50
323.452324
 51
19.245111
  0
LINE
  5
2F4
100
AcDbEntity
  8
2
100
AcDbLine
 10
12.564275
 20
27.599666
 30
0.0
 11
12.426741
 21
26.447423
 31
0.0
  0
ARC
  5
2F5
100
AcDbEntity
  8
2
100
AcDbCircle
 10
10.440838
 20
-59.552417
 30
0.0
 40
2.0
100
AcDbArc
 50
340.754889
 51
36.547676
  0
LINE
  5
2F6
100
AcDbEntity
  8
2
100
AcDbLine
 10
12.564275
 20
-60.467619
 30
0.0
 11
12.426741
 21
-59.315376
 31
0.0
  0
LINE
  5
2F7
100
AcDbEntity
  8
2
100
AcDbLine
 10
-288.885631
 20
380.766023
 30
0.0
 11
-256.885631
 21
380.766023
 31
0.0
  0
LINE
  5
2F8
100
AcDbEntity
  8
2
100
AcDbLine
 10
-288.885631
 20
304.766023
 30
0.0
 11
-256.885631
 21
304.766023
 31
0.0
  0
LINE
  5
2F9
100
AcDbEntity
  8
2
100
AcDbLine
 10
-254.885631
 20
289.766023
 30
0.0
 11
-254.885631
 21
302.766023
 31
0.0
  0
LINE
  5
2FA
100
AcDbEntity
  8
2
100
AcDbLine
 10
-254.885631
 20
382.766023
 30
0.0
 11
-254.885631
 21
400.766023
 31
0.0
  0
LINE
  5
2FB
100
AcDbEntity
  8
2
100
AcDbLine
 10
-449.428118
 20
399.766023
 30
0.0
 11
-289.885631
 21
399.766023
 31
0.0
  0
LINE
  5
2FC
100
AcDbEntity
  8
2
100
AcDbLine
 10
145.951869
 20
-27.233977
 30
0.0
 11
145.951869
 21
-32.183977
 31
0.0
  0
LINE
  5
2FD
100
AcDbEntity
  8
2
100
AcDbLine
 10
141.301869
 20
-25.958977
 30
0.0
 11
143.926869
 21
-24.683977
 31
0.0
  0
LINE
  5
2FE
100
AcDbEntity
  8
2
100
AcDbLine
 10
146.551869
 20
-25.958977
 30
0.0
 11
146.551869
 21
-24.683977
 31
0.0
  0
LINE
  5
2FF
100
AcDbEntity
  8
2
100
AcDbLine
 10
147.301869
 20
-28.101834
 30
0.0
 11
147.301869
 21
-30.041119
 31
0.0
  0
LINE
  5
300
100
AcDbEntity
  8
2
100
AcDbLine
 10
153.826869
 20
-28.101834
 30
0.0
 11
153.826869
 21
-30.041119
 31
0.0
  0
LINE
  5
301
100
AcDbEntity
  8
2
100
AcDbLine
 10
149.326869
 20
-28.080405
 30
0.0
 11
149.326869
 21
-30.062548
 31
0.0
  0
LINE
  5
302
100
AcDbEntity
  8
2
100
AcDbLine
 10
151.801869
 20
-28.080405
 30
0.0
 11
151.801869
 21
-30.062548
 31
0.0
  0
ARC
  5
303
100
AcDbEntity
  8
2
100
AcDbCircle
 10
149.444726
 20
-30.041119
 30
0.0
 40
2.142857
100
AcDbArc
 50
180.0
 51
270.0
  0
ARC
  5
304
100
AcDbEntity
  8
2
100
AcDbCircle
 10
151.684012
 20
-30.041119
 30
0.0
 40
2.142857
100
AcDbArc
 50
270.0
 51
360.0
  0
ARC
  5
305
100
AcDbEntity
  8
2
100
AcDbCircle
 10
149.444726
 20
-28.101834
 30
0.0
 40
2.142857
100
AcDbArc
 50
90.0
 51
180.0
  0
ARC
  5
306
100
AcDbEntity
  8
2
100
AcDbCircle
 10
151.684012
 20
-28.101834
 30
0.0
 40
2.142857
100
AcDbArc
 50
360.0
 51
90.0
  0
ARC
  5
307
100
AcDbEntity
  8
2
100
AcDbCircle
 10
150.398298
 20
-30.062548
 30
0.0
 40
1.071429
100
AcDbArc
 50
180.0
 51
270.0
  0
ARC
  5
308
100
AcDbEntity
  8
2
100
AcDbCircle
 10
150.730441
 20
-30.062548
 30
0.0
 40
1.071429
100
AcDbArc
 50
270.0
 51
360.0
  0
ARC
  5
309
100
AcDbEntity
  8
2
100
AcDbCircle
 10
150.730441
 20
-28.080405
 30
0.0
 40
1.071429
100
AcDbArc
 50
0.0
 51
90.0
  0
ARC
  5
30A
100
AcDbEntity
  8
2
100
AcDbCircle
 10
150.398298
 20
-28.080405
 30
0.0
 40
1.071429
100
AcDbArc
 50
90.0
 51
180.0
  0
LINE
  5
30B
100
AcDbEntity
  8
2
100
AcDbLine
 10
143.926869
 20
-32.183977
 30
0.0
 11
145.951869
 21
-32.183977
 31
0.0
  0
LINE
  5
30C
100
AcDbEntity
  8
2
100
AcDbLine
 10
154.951869
 20
-25.958977
 30
0.0
 11
154.501869
 21
-32.183977
 31
0.0
  0
LINE
  5
30D
100
AcDbEntity
  8
2
100
AcDbLine
 10
162.076869
 20
-25.958977
 30
0.0
 11
162.526869
 21
-32.183977
 31
0.0
  0
LINE
  5
30E
100
AcDbEntity
  8
2
100
AcDbLine
 10
156.751869
 20
-27.008977
 30
0.0
 11
156.526869
 21
-32.183977
 31
0.0
  0
LINE
  5
30F
100
AcDbEntity
  8
2
100
AcDbLine
 10
160.276869
 20
-27.008977
 30
0.0
 11
160.501869
 21
-32.183977
 31
0.0
  0
LINE
  5
310
100
AcDbEntity
  8
2
100
AcDbLine
 10
156.751869
 20
-27.008977
 30
0.0
 11
157.716155
 21
-32.183977
 31
0.0
  0
LINE
  5
311
100
AcDbEntity
  8
2
100
AcDbLine
 10
160.276869
 20
-27.008977
 30
0.0
 11
159.312583
 21
-32.183977
 31
0.0
  0
LINE
  5
312
100
AcDbEntity
  8
2
100
AcDbLine
 10
158.514369
 20
-29.687548
 30
0.0
 11
157.819604
 21
-25.958977
 31
0.0
  0
LINE
  5
313
100
AcDbEntity
  8
2
100
AcDbLine
 10
158.514369
 20
-29.687548
 30
0.0
 11
159.209134
 21
-25.958977
 31
0.0
  0
LINE
  5
314
100
AcDbEntity
  8
2
100
AcDbLine
 10
149.444726
 20
-25.958977
 30
0.0
 11
151.684012
 21
-25.958977
 31
0.0
  0
LINE
  5
315
100
AcDbEntity
  8
2
100
AcDbLine
 10
154.951869
 20
-25.958977
 30
0.0
 11
157.819604
 21
-25.958977
 31
0.0
  0
LINE
  5
316
100
AcDbEntity
  8
2
100
AcDbLine
 10
149.444726
 20
-32.183977
 30
0.0
 11
151.684012
 21
-32.183977
 31
0.0
  0
LINE
  5
317
100
AcDbEntity
  8
2
100
AcDbLine
 10
154.501869
 20
-32.183977
 30
0.0
 11
156.526869
 21
-32.183977
 31
0.0
  0
LINE
  5
318
100
AcDbEntity
  8
2
100
AcDbLine
 10
157.716155
 20
-32.183977
 30
0.0
 11
159.312583
 21
-32.183977
 31
0.0
  0
ARC
  5
319
100
AcDbEntity
  8
2
100
AcDbCircle
 10
165.344726
 20
-30.041119
 30
0.0
 40
2.142857
100
AcDbArc
 50
180.0
 51
270.0
  0
ARC
  5
31A
100
AcDbEntity
  8
2
100
AcDbCircle
 10
167.584012
 20
-30.041119
 30
0.0
 40
2.142857
100
AcDbArc
 50
270.0
 51
360.0
  0
ARC
  5
31B
100
AcDbEntity
  8
2
100
AcDbCircle
 10
166.630441
 20
-30.062548
 30
0.0
 40
1.071429
100
AcDbArc
 50
270.0
 51
360.0
  0
LINE
  5
31C
100
AcDbEntity
  8
2
100
AcDbLine
 10
167.701869
 20
-28.080405
 30
0.0
 11
167.701869
 21
-30.062548
 31
0.0
  0
ARC
  5
31D
100
AcDbEntity
  8
2
100
AcDbCircle
 10
166.298298
 20
-30.062548
 30
0.0
 40
1.071429
100
AcDbArc
 50
180.0
 51
270.0
  0
LINE
  5
31E
100
AcDbEntity
  8
2
100
AcDbLine
 10
165.226869
 20
-28.080405
 30
0.0
 11
165.226869
 21
-30.062548
 31
0.0
  0
ARC
  5
31F
100
AcDbEntity
  8
2
100
AcDbCircle
 10
166.630441
 20
-28.080405
 30
0.0
 40
1.071429
100
AcDbArc
 50
0.0
 51
90.0
  0
ARC
  5
320
100
AcDbEntity
  8
2
100
AcDbCircle
 10
166.298298
 20
-28.080405
 30
0.0
 40
1.071429
100
AcDbArc
 50
90.0
 51
180.0
  0
ARC
  5
321
100
AcDbEntity
  8
2
100
AcDbCircle
 10
165.344726
 20
-28.101834
 30
0.0
 40
2.142857
100
AcDbArc
 50
90.0
 51
180.0
  0
ARC
  5
322
100
AcDbEntity
  8
2
100
AcDbCircle
 10
167.584012
 20
-28.101834
 30
0.0
 40
2.142857
100
AcDbArc
 50
360.0
 51
90.0
  0
LINE
  5
323
100
AcDbEntity
  8
2
100
AcDbLine
 10
169.726869
 20
-28.101834
 30
0.0
 11
169.726869
 21
-30.041119
 31
0.0
  0
LINE
  5
324
100
AcDbEntity
  8
2
100
AcDbLine
 10
150.730441
 20
-27.008977
 30
0.0
 11
150.398298
 21
-27.008977
 31
0.0
  0
LINE
  5
325
100
AcDbEntity
  8
2
100
AcDbLine
 10
150.730441
 20
-31.133977
 30
0.0
 11
150.398298
 21
-31.133977
 31
0.0
  0
LINE
  5
326
100
AcDbEntity
  8
2
100
AcDbLine
 10
166.298298
 20
-27.008977
 30
0.0
 11
166.630441
 21
-27.008977
 31
0.0
  0
LINE
  5
327
100
AcDbEntity
  8
2
100
AcDbLine
 10
163.201869
 20
-28.101834
 30
0.0
 11
163.201869
 21
-30.041119
 31
0.0
  0
LINE
  5
328
100
AcDbEntity
  8
2
100
AcDbLine
 10
159.209134
 20
-25.958977
 30
0.0
 11
162.076869
 21
-25.958977
 31
0.0
  0
LINE
  5
329
100
AcDbEntity
  8
2
100
AcDbLine
 10
165.344726
 20
-25.958977
 30
0.0
 11
167.584012
 21
-25.958977
 31
0.0
  0
LINE
  5
32A
100
AcDbEntity
  8
2
100
AcDbLine
 10
160.501869
 20
-32.183977
 30
0.0
 11
162.526869
 21
-32.183977
 31
0.0
  0
LINE
  5
32B
100
AcDbEntity
  8
2
100
AcDbLine
 10
165.344726
 20
-32.183977
 30
0.0
 11
167.584012
 21
-32.183977
 31
0.0
  0
LINE
  5
32C
100
AcDbEntity
  8
2
100
AcDbLine
 10
170.626869
 20
-26.108977
 30
0.0
 11
170.626869
 21
-32.033977
 31
0.0
  0
LINE
  5
32D
100
AcDbEntity
  8
2
100
AcDbLine
 10
170.626869
 20
-26.108977
 30
0.0
 11
175.501869
 21
-26.108977
 31
0.0
  0
LINE
  5
32E
100
AcDbEntity
  8
2
100
AcDbLine
 10
170.626869
 20
-32.033977
 30
0.0
 11
175.501869
 21
-32.033977
 31
0.0
  0
LINE
  5
32F
100
AcDbEntity
  8
2
100
AcDbLine
 10
172.651869
 20
-30.908977
 30
0.0
 11
175.501869
 21
-30.908977
 31
0.0
  0
LINE
  5
330
100
AcDbEntity
  8
2
100
AcDbLine
 10
172.651869
 20
-27.233977
 30
0.0
 11
175.501869
 21
-27.233977
 31
0.0
  0
LINE
  5
331
100
AcDbEntity
  8
2
100
AcDbLine
 10
172.651869
 20
-29.633977
 30
0.0
 11
175.501869
 21
-29.633977
 31
0.0
  0
LINE
  5
332
100
AcDbEntity
  8
2
100
AcDbLine
 10
172.651869
 20
-28.508977
 30
0.0
 11
175.501869
 21
-28.508977
 31
0.0
  0
LINE
  5
333
100
AcDbEntity
  8
2
100
AcDbLine
 10
175.501869
 20
-27.233977
 30
0.0
 11
175.501869
 21
-26.108977
 31
0.0
  0
LINE
  5
334
100
AcDbEntity
  8
2
100
AcDbLine
 10
175.501869
 20
-32.033977
 30
0.0
 11
175.501869
 21
-30.908977
 31
0.0
  0
LINE
  5
335
100
AcDbEntity
  8
2
100
AcDbLine
 10
175.501869
 20
-29.633977
 30
0.0
 11
175.501869
 21
-28.508977
 31
0.0
  0
LINE
  5
336
100
AcDbEntity
  8
2
100
AcDbLine
 10
172.651869
 20
-30.908977
 30
0.0
 11
172.651869
 21
-29.633977
 31
0.0
  0
LINE
  5
337
100
AcDbEntity
  8
2
100
AcDbLine
 10
172.651869
 20
-28.508977
 30
0.0
 11
172.651869
 21
-27.233977
 31
0.0
  0
LINE
  5
338
100
AcDbEntity
  8
2
100
AcDbLine
 10
141.301869
 20
-27.233977
 30
0.0
 11
145.951869
 21
-27.233977
 31
0.0
  0
LINE
  5
339
100
AcDbEntity
  8
2
100
AcDbLine
 10
143.926869
 20
-24.683977
 30
0.0
 11
143.926869
 21
-32.183977
 31
0.0
  0
LINE
  5
33A
100
AcDbEntity
  8
2
100
AcDbLine
 10
141.301869
 20
-28.508977
 30
0.0
 11
149.176869
 21
-24.683977
 31
0.0
  0
LINE
  5
33B
100
AcDbEntity
  8
2
100
AcDbLine
 10
141.301869
 20
-24.683977
 30
0.0
 11
141.301869
 21
-28.508977
 31
0.0
  0
LINE
  5
33C
100
AcDbEntity
  8
2
100
AcDbLine
 10
141.301869
 20
-27.233977
 30
0.0
 11
146.551869
 21
-24.683977
 31
0.0
  0
LINE
  5
33D
100
AcDbEntity
  8
2
100
AcDbLine
 10
141.301869
 20
-24.683977
 30
0.0
 11
149.176869
 21
-24.683977
 31
0.0
  0
LINE
  5
33E
100
AcDbEntity
  8
2
100
AcDbLine
 10
141.301869
 20
-25.958977
 30
0.0
 11
146.551869
 21
-25.958977
 31
0.0
  0
LINE
  5
33F
100
AcDbEntity
  8
2
100
AcDbLine
 10
166.298298
 20
-31.133977
 30
0.0
 11
166.630441
 21
-31.133977
 31
0.0
  0
LINE
  5
340
100
AcDbEntity
  8
2
100
AcDbLine
 10
229.514369
 20
-60.433977
 30
0.0
 11
229.514369
 21
-38.933977
 31
0.0
  0
LINE
  5
341
100
AcDbEntity
  8
2
100
AcDbLine
 10
229.514369
 20
-29.433977
 30
0.0
 11
229.514369
 21
25.566023
 31
0.0
  0
ARC
  5
342
100
AcDbEntity
  8
2
100
AcDbCircle
 10
-402.885631
 20
-16.433977
 30
0.0
 40
150.0
100
AcDbArc
 50
344.131079
 51
16.484205
  0
ARC
  5
343
100
AcDbEntity
  8
2
100
AcDbCircle
 10
-411.885631
 20
-21.433977
 30
0.0
 40
130.0
100
AcDbArc
 50
167.770243
 51
192.709033
  0
LINE
  5
344
100
AcDbEntity
  8
2
100
AcDbLine
 10
-511.708926
 20
29.676184
 30
0.0
 11
-286.824603
 21
45.401628
 31
0.0
  0
ARC
  5
345
100
AcDbEntity
  8
2
100
AcDbCircle
 10
-509.616232
 20
-0.250737
 30
0.0
 40
30.0
100
AcDbArc
 50
94.0
 51
167.770243
  0
ARC
  5
346
100
AcDbEntity
  8
2
100
AcDbCircle
 10
-509.435618
 20
-43.433977
 30
0.0
 40
30.0
100
AcDbArc
 50
192.709033
 51
270.0
  0
ARC
  5
347
100
AcDbEntity
  8
2
100
AcDbCircle
 10
-284.941178
 20
18.467399
 30
0.0
 40
27.0
100
AcDbArc
 50
16.484205
 51
94.0
  0
ARC
  5
348
100
AcDbEntity
  8
2
100
AcDbCircle
 10
-279.76374
 20
-51.433977
 30
0.0
 40
22.0
100
AcDbArc
 50
270.0
 51
344.131079
  0
CIRCLE
  5
349
100
AcDbEntity
  8
2
100
AcDbCircle
 10
-312.885631
 20
-16.433977
 30
0.0
 40
50.0
  0
CIRCLE
  5
34A
100
AcDbEntity
  8
2
100
AcDbCircle
 10
-312.885631
 20
-16.433977
 30
0.0
 40
32.5
  0
ARC
  5
34B
100
AcDbEntity
  8
2
100
AcDbCircle
 10
-288.885631
 20
54.566023
 30
0.0
 40
1.0
100
AcDbArc
 50
360.0
 51
90.0
  0
ARC
  5
34C
100
AcDbEntity
  8
2
100
AcDbCircle
 10
-288.885631
 20
56.566023
 30
0.0
 40
1.0
100
AcDbArc
 50
180.0
 51
270.0
  0
LINE
  5
34D
100
AcDbEntity
  8
2
100
AcDbLine
 10
-417.385631
 20
79.566023
 30
0.0
 11
-332.385631
 21
79.566023
 31
0.0
  0
LINE
  5
34E
100
AcDbEntity
  8
2
100
AcDbLine
 10
-332.385631
 20
80.766023
 30
0.0
 11
-332.385631
 21
77.566023
 31
0.0
  0
LINE
  5
34F
100
AcDbEntity
  8
2
100
AcDbLine
 10
-417.385631
 20
80.766023
 30
0.0
 11
-417.385631
 21
77.566023
 31
0.0
  0
LINE
  5
350
100
AcDbEntity
  8
2
100
AcDbLine
 10
-376.885631
 20
89.066023
 30
0.0
 11
-376.885631
 21
80.766023
 31
0.0
  0
LINE
  5
351
100
AcDbEntity
  8
2
100
AcDbLine
 10
-372.885631
 20
89.066023
 30
0.0
 11
-372.885631
 21
80.766023
 31
0.0
  0
CIRCLE
  5
352
100
AcDbEntity
  8
2
100
AcDbCircle
 10
-374.885631
 20
339.766023
 30
0.0
 40
42.5
  0
LINE
  5
353
100
AcDbEntity
  8
2
100
AcDbLine
 10
-405.307827
 20
347.266023
 30
0.0
 11
-384.370584
 21
347.266023
 31
0.0
  0
LINE
  5
354
100
AcDbEntity
  8
2
100
AcDbLine
 10
-405.307827
 20
332.266023
 30
0.0
 11
-384.370584
 21
332.266023
 31
0.0
  0
LINE
  5
355
100
AcDbEntity
  8
2
100
AcDbLine
 10
-365.400678
 20
332.266023
 30
0.0
 11
-344.463435
 21
332.266023
 31
0.0
  0
LINE
  5
356
100
AcDbEntity
  8
2
100
AcDbLine
 10
-372.885631
 20
317.743548
 30
0.0
 11
-372.885631
 21
315.599932
 31
0.0
  0
LINE
  5
357
100
AcDbEntity
  8
2
100
AcDbLine
 10
-376.885631
 20
317.743548
 30
0.0
 11
-376.885631
 21
315.599932
 31
0.0
  0
LINE
  5
358
100
AcDbEntity
  8
2
100
AcDbLine
 10
-372.885631
 20
361.788499
 30
0.0
 11
-372.885631
 21
363.932115
 31
0.0
  0
LINE
  5
359
100
AcDbEntity
  8
2
100
AcDbLine
 10
-376.885631
 20
361.788499
 30
0.0
 11
-376.885631
 21
363.932115
 31
0.0
  0
LINE
  5
35A
100
AcDbEntity
  8
2
100
AcDbLine
 10
-365.400678
 20
347.266023
 30
0.0
 11
-344.463435
 21
347.266023
 31
0.0
  0
LINE
  5
35B
100
AcDbEntity
  8
2
100
AcDbLine
 10
-445.614018
 20
69.302185
 30
0.0
 11
-458.687232
 21
33.383822
 31
0.0
  0
ARC
  5
35C
100
AcDbEntity
  8
2
100
AcDbCircle
 10
-438.096477
 20
66.566023
 30
0.0
 40
8.0
100
AcDbArc
 50
90.0
 51
160.0
  0
LINE
  5
35D
100
AcDbEntity
  8
2
100
AcDbLine
 10
-289.885631
 20
57.566023
 30
0.0
 11
-290.893757
 21
69.088958
 31
0.0
  0
ARC
  5
35E
100
AcDbEntity
  8
2
100
AcDbCircle
 10
-296.870925
 20
68.566023
 30
0.0
 40
6.0
100
AcDbArc
 50
5.0
 51
90.0
  0
LINE
  5
35F
100
AcDbEntity
  8
2
100
AcDbLine
 10
-296.870925
 20
74.566023
 30
0.0
 11
-438.096477
 21
74.566023
 31
0.0
  0
LINE
  5
360
100
AcDbEntity
  8
2
100
AcDbLine
 10
-291.372938
 20
306.766023
 30
0.0
 11
-291.372938
 21
378.766023
 31
0.0
  0
LINE
  5
361
100
AcDbEntity
  8
2
100
AcDbLine
 10
-443.698137
 20
306.766023
 30
0.0
 11
-443.698137
 21
378.766023
 31
0.0
  0
LINE
  5
362
100
AcDbEntity
  8
2
100
AcDbLine
 10
-447.885631
 20
380.766023
 30
0.0
 11
-441.885631
 21
380.766023
 31
0.0
  0
LINE
  5
363
100
AcDbEntity
  8
2
100
AcDbLine
 10
-295.885631
 20
380.766023
 30
0.0
 11
-291.885631
 21
380.766023
 31
0.0
  0
LINE
  5
364
100
AcDbEntity
  8
2
100
AcDbLine
 10
-435.885631
 20
294.766023
 30
0.0
 11
-435.885631
 21
298.766023
 31
0.0
  0
LINE
  5
365
100
AcDbEntity
  8
2
100
AcDbLine
 10
-435.885631
 20
386.766023
 30
0.0
 11
-435.885631
 21
390.766023
 31
0.0
  0
LINE
  5
366
100
AcDbEntity
  8
2
100
AcDbLine
 10
-447.885631
 20
304.766023
 30
0.0
 11
-441.885631
 21
304.766023
 31
0.0
  0
LINE
  5
367
100
AcDbEntity
  8
2
100
AcDbLine
 10
-295.885631
 20
304.766023
 30
0.0
 11
-291.885631
 21
304.766023
 31
0.0
  0
LINE
  5
368
100
AcDbEntity
  8
2
100
AcDbLine
 10
-301.885631
 20
294.766023
 30
0.0
 11
-301.885631
 21
298.766023
 31
0.0
  0
LINE
  5
369
100
AcDbEntity
  8
2
100
AcDbLine
 10
-301.885631
 20
386.766023
 30
0.0
 11
-301.885631
 21
390.766023
 31
0.0
  0
ARC
  5
36A
100
AcDbEntity
  8
2
100
AcDbCircle
 10
-295.885631
 20
386.766023
 30
0.0
 40
6.0
100
AcDbArc
 50
180.0
 51
270.0
  0
ARC
  5
36B
100
AcDbEntity
  8
2
100
AcDbCircle
 10
-441.885631
 20
386.766023
 30
0.0
 40
6.0
100
AcDbArc
 50
270.0
 51
360.0
  0
ARC
  5
36C
100
AcDbEntity
  8
2
100
AcDbCircle
 10
-441.885631
 20
298.766023
 30
0.0
 40
6.0
100
AcDbArc
 50
0.0
 51
90.0
  0
ARC
  5
36D
100
AcDbEntity
  8
2
100
AcDbCircle
 10
-295.885631
 20
298.766023
 30
0.0
 40
6.0
100
AcDbArc
 50
90.0
 51
180.0
  0
LINE
  5
36E
100
AcDbEntity
  8
2
100
AcDbLine
 10
-433.885631
 20
391.279023
 30
0.0
 11
-303.885631
 21
391.279023
 31
0.0
  0
LINE
  5
36F
100
AcDbEntity
  8
2
100
AcDbLine
 10
-433.885631
 20
294.253023
 30
0.0
 11
-303.885631
 21
294.253023
 31
0.0
  0
LINE
  5
370
100
AcDbEntity
  8
2
100
AcDbLine
 10
-301.885631
 20
71.566023
 30
0.0
 11
-301.885631
 21
63.066023
 31
0.0
  0
LINE
  5
371
100
AcDbEntity
  8
2
100
AcDbLine
 10
-435.885631
 20
71.566023
 30
0.0
 11
-435.885631
 21
63.066023
 31
0.0
  0
LINE
  5
372
100
AcDbEntity
  8
2
100
AcDbLine
 10
-447.715676
 20
62.566023
 30
0.0
 11
-436.385631
 21
62.566023
 31
0.0
  0
LINE
  5
373
100
AcDbEntity
  8
2
100
AcDbLine
 10
-301.385631
 20
62.566023
 30
0.0
 11
-290.78124
 21
62.566023
 31
0.0
  0
ARC
  5
374
100
AcDbEntity
  8
2
100
AcDbCircle
 10
-436.385631
 20
63.066023
 30
0.0
 40
0.5
100
AcDbArc
 50
270.0
 51
360.0
  0
ARC
  5
375
100
AcDbEntity
  8
2
100
AcDbCircle
 10
-301.385631
 20
63.066023
 30
0.0
 40
0.5
100
AcDbArc
 50
180.0
 51
270.0
  0
ARC
  5
376
100
AcDbEntity
  8
2
100
AcDbCircle
 10
-290.78124
 20
62.066023
 30
0.0
 40
0.5
100
AcDbArc
 50
5.0
 51
90.0
  0
ARC
  5
377
100
AcDbEntity
  8
2
100
AcDbCircle
 10
-447.715676
 20
62.066023
 30
0.0
 40
0.5
100
AcDbArc
 50
90.0
 51
160.0
  0
ARC
  5
378
100
AcDbEntity
  8
2
100
AcDbCircle
 10
-304.885631
 20
71.566023
 30
0.0
 40
3.0
100
AcDbArc
 50
0.0
 51
90.0
  0
ARC
  5
379
100
AcDbEntity
  8
2
100
AcDbCircle
 10
-432.885631
 20
71.566023
 30
0.0
 40
3.0
100
AcDbArc
 50
90.0
 51
180.0
  0
ARC
  5
37A
100
AcDbEntity
  8
2
100
AcDbCircle
 10
-329.385631
 20
77.566023
 30
0.0
 40
3.0
100
AcDbArc
 50
180.0
 51
270.0
  0
ARC
  5
37B
100
AcDbEntity
  8
2
100
AcDbCircle
 10
-420.385631
 20
77.566023
 30
0.0
 40
3.0
100
AcDbArc
 50
270.0
 51
360.0
  0
ARC
  5
37C
100
AcDbEntity
  8
2
100
AcDbCircle
 10
-374.885631
 20
67.566023
 30
0.0
 40
34.0
100
AcDbArc
 50
22.844739
 51
157.155261
  0
CIRCLE
  5
37D
100
AcDbEntity
  8
2
100
AcDbCircle
 10
-374.885631
 20
339.766023
 30
0.0
 40
31.33305
  0
ARC
  5
37E
100
AcDbEntity
  8
2
100
AcDbCircle
 10
-412.31024
 20
340.092873
 30
0.0
 40
45.0
100
AcDbArc
 50
12.236103
 51
30.645688
  0
ARC
  5
37F
100
AcDbEntity
  8
2
100
AcDbCircle
 10
-337.461022
 20
340.092873
 30
0.0
 40
45.0
100
AcDbArc
 50
149.354312
 51
167.763897
  0
ARC
  5
380
100
AcDbEntity
  8
2
100
AcDbCircle
 10
-374.885631
 20
362.266023
 30
0.0
 40
1.5
100
AcDbArc
 50
30.645688
 51
149.354312
  0
ARC
  5
381
100
AcDbEntity
  8
2
100
AcDbCircle
 10
-365.400678
 20
350.266023
 30
0.0
 40
3.0
100
AcDbArc
 50
192.236103
 51
270.0
  0
ARC
  5
382
100
AcDbEntity
  8
2
100
AcDbCircle
 10
-384.370584
 20
350.266023
 30
0.0
 40
3.0
100
AcDbArc
 50
270.0
 51
347.763897
  0
ARC
  5
383
100
AcDbEntity
  8
2
100
AcDbCircle
 10
-412.31024
 20
339.439174
 30
0.0
 40
45.0
100
AcDbArc
 50
329.354312
 51
347.763897
  0
ARC
  5
384
100
AcDbEntity
  8
2
100
AcDbCircle
 10
-337.461022
 20
339.439174
 30
0.0
 40
45.0
100
AcDbArc
 50
192.236103
 51
210.645688
  0
ARC
  5
385
100
AcDbEntity
  8
2
100
AcDbCircle
 10
-374.885631
 20
317.266023
 30
0.0
 40
1.5
100
AcDbArc
 50
210.645688
 51
329.354312
  0
ARC
  5
386
100
AcDbEntity
  8
2
100
AcDbCircle
 10
-365.400678
 20
329.266023
 30
0.0
 40
3.0
100
AcDbArc
 50
90.0
 51
167.763897
  0
ARC
  5
387
100
AcDbEntity
  8
2
100
AcDbCircle
 10
-384.370584
 20
329.266023
 30
0.0
 40
3.0
100
AcDbArc
 50
12.236103
 51
90.0
  0
ARC
  5
388
100
AcDbEntity
  8
2
100
AcDbCircle
 10
-374.885631
 20
339.766023
 30
0.0
 40
24.248711
100
AcDbArc
 50
18.016736
 51
161.983264
  0
ARC
  5
389
100
AcDbEntity
  8
2
100
AcDbCircle
 10
-374.885631
 20
339.766023
 30
0.0
 40
24.248711
100
AcDbArc
 50
198.016736
 51
341.983264
  0
ARC
  5
38A
100
AcDbEntity
  8
2
100
AcDbCircle
 10
-291.885631
 20
378.766023
 30
0.0
 40
2.0
100
AcDbArc
 50
0.0
 51
90.0
  0
ARC
  5
38B
100
AcDbEntity
  8
2
100
AcDbCircle
 10
-303.885631
 20
390.766023
 30
0.0
 40
2.0
100
AcDbArc
 50
0.0
 51
90.0
  0
ARC
  5
38C
100
AcDbEntity
  8
2
100
AcDbCircle
 10
-291.885631
 20
306.766023
 30
0.0
 40
2.0
100
AcDbArc
 50
270.0
 51
360.0
  0
ARC
  5
38D
100
AcDbEntity
  8
2
100
AcDbCircle
 10
-303.885631
 20
294.766023
 30
0.0
 40
2.0
100
AcDbArc
 50
270.0
 51
360.0
  0
ARC
  5
38E
100
AcDbEntity
  8
2
100
AcDbCircle
 10
-433.885631
 20
294.766023
 30
0.0
 40
2.0
100
AcDbArc
 50
180.0
 51
270.0
  0
ARC
  5
38F
100
AcDbEntity
  8
2
100
AcDbCircle
 10
-447.885631
 20
306.766023
 30
0.0
 40
2.0
100
AcDbArc
 50
180.0
 51
270.0
  0
ARC
  5
390
100
AcDbEntity
  8
2
100
AcDbCircle
 10
-433.885631
 20
390.766023
 30
0.0
 40
2.0
100
AcDbArc
 50
90.0
 51
180.0
  0
ARC
  5
391
100
AcDbEntity
  8
2
100
AcDbCircle
 10
-447.885631
 20
378.766023
 30
0.0
 40
2.0
100
AcDbArc
 50
90.0
 51
180.0
  0
ARC
  5
392
100
AcDbEntity
  8
2
100
AcDbCircle
 10
-374.885631
 20
66.066023
 30
0.0
 40
28.0
100
AcDbArc
 50
34.712682
 51
81.884254
  0
ARC
  5
393
100
AcDbEntity
  8
2
100
AcDbCircle
 10
-374.885631
 20
66.066023
 30
0.0
 40
28.0
100
AcDbArc
 50
98.115746
 51
145.287318
  0
ARC
  5
394
100
AcDbEntity
  8
2
100
AcDbCircle
 10
-375.885631
 20
89.066023
 30
0.0
 40
1.0
100
AcDbArc
 50
90.0
 51
180.0
  0
ARC
  5
395
100
AcDbEntity
  8
2
100
AcDbCircle
 10
-373.885631
 20
89.066023
 30
0.0
 40
1.0
100
AcDbArc
 50
0.0
 51
90.0
  0
LINE
  5
396
100
AcDbEntity
  8
2
100
AcDbLine
 10
-375.885631
 20
90.066023
 30
0.0
 11
-375.520864
 21
90.066028
 31
0.0
  0
LINE
  5
397
100
AcDbEntity
  8
2
100
AcDbLine
 10
-374.250164
 20
90.066138
 30
0.0
 11
-373.885631
 21
90.066023
 31
0.0
  0
LINE
  5
398
100
AcDbEntity
  8
2
100
AcDbLine
 10
-383.701298
 20
317.176557
 30
0.0
 11
-381.702429
 21
322.002254
 31
0.0
  0
LINE
  5
399
100
AcDbEntity
  8
2
100
AcDbLine
 10
-367.144953
 20
357.14711
 30
0.0
 11
-365.146084
 21
361.972807
 31
0.0
  0
LINE
  5
39A
100
AcDbEntity
  8
2
100
AcDbLine
 10
-384.625178
 20
317.55924
 30
0.0
 11
-382.626309
 21
322.384937
 31
0.0
  0
LINE
  5
39B
100
AcDbEntity
  8
2
100
AcDbLine
 10
-368.068833
 20
357.529793
 30
0.0
 11
-366.069964
 21
362.35549
 31
0.0
  0
LINE
  5
39C
100
AcDbEntity
  8
2
100
AcDbLine
 10
-391.67486
 20
322.269687
 30
0.0
 11
-387.981432
 21
325.963116
 31
0.0
  0
LINE
  5
39D
100
AcDbEntity
  8
2
100
AcDbLine
 10
-361.082723
 20
352.861824
 30
0.0
 11
-357.389295
 21
356.555253
 31
0.0
  0
LINE
  5
39E
100
AcDbEntity
  8
2
100
AcDbLine
 10
-392.381967
 20
322.976794
 30
0.0
 11
-388.688539
 21
326.670223
 31
0.0
  0
LINE
  5
39F
100
AcDbEntity
  8
2
100
AcDbLine
 10
-361.78983
 20
353.568931
 30
0.0
 11
-358.096402
 21
357.26236
 31
0.0
  0
LINE
  5
3A0
100
AcDbEntity
  8
2
100
AcDbLine
 10
-397.092414
 20
330.026477
 30
0.0
 11
-392.266717
 21
332.025346
 31
0.0
  0
LINE
  5
3A1
100
AcDbEntity
  8
2
100
AcDbLine
 10
-355.472466
 20
347.266023
 30
0.0
 11
-352.296164
 21
348.581691
 31
0.0
  0
LINE
  5
3A2
100
AcDbEntity
  8
2
100
AcDbLine
 10
-397.475098
 20
330.950356
 30
0.0
 11
-394.298796
 21
332.266023
 31
0.0
  0
LINE
  5
3A3
100
AcDbEntity
  8
2
100
AcDbLine
 10
-357.504544
 20
347.506701
 30
0.0
 11
-352.678848
 21
349.50557
 31
0.0
  0
ARC
  5
3A4
100
AcDbEntity
  8
2
100
AcDbCircle
 10
-382.164369
 20
322.193595
 30
0.0
 40
0.5
100
AcDbArc
 50
337.5
 51
157.5
  0
ARC
  5
3A5
100
AcDbEntity
  8
2
100
AcDbCircle
 10
-388.334985
 20
326.316669
 30
0.0
 40
0.5
100
AcDbArc
 50
315.0
 51
135.0
  0
ARC
  5
3A6
100
AcDbEntity
  8
2
100
AcDbCircle
 10
-392.458059
 20
332.487285
 30
0.0
 40
0.5
100
AcDbArc
 50
292.5
 51
333.734975
  0
ARC
  5
3A7
100
AcDbEntity
  8
2
100
AcDbCircle
 10
-367.606893
 20
357.338452
 30
0.0
 40
0.5
100
AcDbArc
 50
157.5
 51
337.5
  0
ARC
  5
3A8
100
AcDbEntity
  8
2
100
AcDbCircle
 10
-361.436277
 20
353.215378
 30
0.0
 40
0.5
100
AcDbArc
 50
135.0
 51
315.0
  0
ARC
  5
3A9
100
AcDbEntity
  8
2
100
AcDbCircle
 10
-357.313203
 20
347.044762
 30
0.0
 40
0.5
100
AcDbArc
 50
112.5
 51
153.734975
  0
LINE
  5
3AA
100
AcDbEntity
  8
2
100
AcDbLine
 10
-358.084266
 20
330.912329
 30
0.0
 11
-356.062221
 21
330.074771
 31
0.0
  0
ARC
  5
3AB
100
AcDbEntity
  8
2
100
AcDbCircle
 10
-357.414516
 20
332.529251
 30
0.0
 40
1.750143
100
AcDbArc
 50
188.650293
 51
247.5
  0
ARC
  5
3AC
100
AcDbEntity
  8
2
100
AcDbCircle
 10
-355.39247
 20
331.691692
 30
0.0
 40
1.750143
100
AcDbArc
 50
247.5
 51
19.157293
  0
LINE
  5
3AD
100
AcDbEntity
  8
2
100
AcDbLine
 10
-391.686995
 20
348.619718
 30
0.0
 11
-393.709041
 21
349.457276
 31
0.0
  0
ARC
  5
3AE
100
AcDbEntity
  8
2
100
AcDbCircle
 10
-392.356746
 20
347.002796
 30
0.0
 40
1.750143
100
AcDbArc
 50
8.650293
 51
67.5
  0
ARC
  5
3AF
100
AcDbEntity
  8
2
100
AcDbCircle
 10
-394.378792
 20
347.840355
 30
0.0
 40
1.750143
100
AcDbArc
 50
67.5
 51
199.157293
  0
ARC
  5
3B0
100
AcDbEntity
  8
2
100
AcDbCircle
 10
-339.485236
 20
70.331653
 30
0.0
 40
45.274917
100
AcDbArc
 50
159.10214
 51
166.675437
  0
ARC
  5
3B1
100
AcDbEntity
  8
2
100
AcDbCircle
 10
-340.409115
 20
70.331653
 30
0.0
 40
45.274917
100
AcDbArc
 50
158.681079
 51
166.675437
  0
ARC
  5
3B2
100
AcDbEntity
  8
2
100
AcDbCircle
 10
-382.184468
 20
86.635077
 30
0.0
 40
0.430947
100
AcDbArc
 50
339.10214
 51
158.681079
  0
ARC
  5
3B3
100
AcDbEntity
  8
2
100
AcDbCircle
 10
-363.455702
 20
68.564771
 30
0.0
 40
30.472934
100
AcDbArc
 50
143.677597
 51
156.39704
  0
ARC
  5
3B4
100
AcDbEntity
  8
2
100
AcDbCircle
 10
-364.162809
 20
68.564771
 30
0.0
 40
30.472934
100
AcDbArc
 50
142.882669
 51
156.39704
  0
ARC
  5
3B5
100
AcDbEntity
  8
2
100
AcDbCircle
 10
-388.235983
 20
86.782619
 30
0.0
 40
0.283404
100
AcDbArc
 50
323.677597
 51
142.882669
  0
ARC
  5
3B6
100
AcDbEntity
  8
2
100
AcDbCircle
 10
-372.21129
 20
66.79789
 30
0.0
 40
28.197761
100
AcDbArc
 50
134.711482
 51
150.306296
  0
ARC
  5
3B7
100
AcDbEntity
  8
2
100
AcDbCircle
 10
-372.593973
 20
66.79789
 30
0.0
 40
28.197761
100
AcDbArc
 50
134.156238
 51
150.306296
  0
ARC
  5
3B8
100
AcDbEntity
  8
2
100
AcDbCircle
 10
-392.143705
 20
86.932066
 30
0.0
 40
0.133957
100
AcDbArc
 50
314.711482
 51
134.156238
  0
LINE
  5
3B9
100
AcDbEntity
  8
2
100
AcDbLine
 10
-332.385631
 20
80.766023
 30
0.0
 11
-417.385631
 21
80.766023
 31
0.0
  0
ARC
  5
3BA
100
AcDbEntity
  8
2
100
AcDbCircle
 10
-374.885631
 20
67.566023
 30
0.0
 40
33.162479
100
AcDbArc
 50
104.962752
 51
150.128593
  0
ARC
  5
3BB
100
AcDbEntity
  8
2
100
AcDbCircle
 10
-369.331082
 20
99.555887
 30
0.0
 40
10.0
100
AcDbArc
 50
202.238154
 51
227.992896
  0
ARC
  5
3BC
100
AcDbEntity
  8
2
100
AcDbCircle
 10
-382.673313
 20
96.70581
 30
0.0
 40
3.0
100
AcDbArc
 50
42.388379
 51
104.962752
  0
ARC
  5
3BD
100
AcDbEntity
  8
2
100
AcDbCircle
 10
-387.843457
 20
91.986742
 30
0.0
 40
10.0
100
AcDbArc
 50
22.238154
 51
42.388379
  0
ARC
  5
3BE
100
AcDbEntity
  8
2
100
AcDbCircle
 10
-380.44018
 20
99.555887
 30
0.0
 40
10.0
100
AcDbArc
 50
312.007104
 51
337.761846
  0
ARC
  5
3BF
100
AcDbEntity
  8
2
100
AcDbCircle
 10
-361.927804
 20
91.986742
 30
0.0
 40
10.0
100
AcDbArc
 50
137.611621
 51
157.761846
  0
ARC
  5
3C0
100
AcDbEntity
  8
2
100
AcDbCircle
 10
-367.097949
 20
96.70581
 30
0.0
 40
3.0
100
AcDbArc
 50
75.037248
 51
137.611621
  0
ARC
  5
3C1
100
AcDbEntity
  8
2
100
AcDbCircle
 10
-374.885631
 20
67.566023
 30
0.0
 40
33.162479
100
AcDbArc
 50
29.871407
 51
75.037248
  0
ARC
  5
3C2
100
AcDbEntity
  8
2
100
AcDbCircle
 10
-374.885631
 20
93.388473
 30
0.0
 40
1.7
100
AcDbArc
 50
227.992896
 51
312.007104
  0
ARC
  5
3C3
100
AcDbEntity
  8
2
100
AcDbCircle
 10
-374.41074
 20
66.743488
 30
0.0
 40
32.849358
100
AcDbArc
 50
105.470231
 51
147.621493
  0
ARC
  5
3C4
100
AcDbEntity
  8
2
100
AcDbCircle
 10
-368.37713
 20
99.664384
 30
0.0
 40
12.0
100
AcDbArc
 50
200.135943
 51
231.694293
  0
ARC
  5
3C5
100
AcDbEntity
  8
2
100
AcDbCircle
 10
-385.276943
 20
93.467907
 30
0.0
 40
6.0
100
AcDbArc
 50
20.135943
 51
48.747449
  0
ARC
  5
3C6
100
AcDbEntity
  8
2
100
AcDbCircle
 10
-382.639426
 20
96.475148
 30
0.0
 40
2.0
100
AcDbArc
 50
48.747449
 51
105.470231
  0
ARC
  5
3C7
100
AcDbEntity
  8
2
100
AcDbCircle
 10
-381.394131
 20
99.664384
 30
0.0
 40
12.0
100
AcDbArc
 50
308.305707
 51
339.864057
  0
ARC
  5
3C8
100
AcDbEntity
  8
2
100
AcDbCircle
 10
-364.494319
 20
93.467907
 30
0.0
 40
6.0
100
AcDbArc
 50
131.252551
 51
159.864057
  0
ARC
  5
3C9
100
AcDbEntity
  8
2
100
AcDbCircle
 10
-367.131836
 20
96.475148
 30
0.0
 40
2.0
100
AcDbArc
 50
74.529769
 51
131.252551
  0
ARC
  5
3CA
100
AcDbEntity
  8
2
100
AcDbCircle
 10
-375.360522
 20
66.743488
 30
0.0
 40
32.849358
100
AcDbArc
 50
32.378507
 51
74.529769
  0
ARC
  5
3CB
100
AcDbEntity
  8
2
100
AcDbCircle
 10
-374.885631
 20
91.42488
 30
0.0
 40
1.5
100
AcDbArc
 50
231.694293
 51
308.305707
  0
LINE
  5
3CC
100
AcDbEntity
  8
2
100
AcDbLine
 10
-446.485631
 20
63.866023
 30
0.0
 11
-446.485631
 21
62.566023
 31
0.0
  0
LINE
  5
3CD
100
AcDbEntity
  8
2
100
AcDbLine
 10
-437.285631
 20
63.866023
 30
0.0
 11
-437.285631
 21
62.566023
 31
0.0
  0
LINE
  5
3CE
100
AcDbEntity
  8
2
100
AcDbLine
 10
-446.485631
 20
63.866023
 30
0.0
 11
-437.285631
 21
63.866023
 31
0.0
  0
LINE
  5
3CF
100
AcDbEntity
  8
2
100
AcDbLine
 10
-446.385631
 20
65.153516
 30
0.0
 11
-446.385631
 21
63.866023
 31
0.0
  0
LINE
  5
3D0
100
AcDbEntity
  8
2
100
AcDbLine
 10
-437.385631
 20
65.153516
 30
0.0
 11
-437.385631
 21
63.866023
 31
0.0
  0
ARC
  5
3D1
100
AcDbEntity
  8
2
100
AcDbCircle
 10
-441.885631
 20
55.166023
 30
0.0
 40
12.0
100
AcDbArc
 50
73.808648
 51
106.191352
  0
ARC
  5
3D2
100
AcDbEntity
  8
2
100
AcDbCircle
 10
-444.785631
 20
65.153516
 30
0.0
 40
1.6
100
AcDbArc
 50
106.191352
 51
180.0
  0
ARC
  5
3D3
100
AcDbEntity
  8
2
100
AcDbCircle
 10
-438.985631
 20
65.153516
 30
0.0
 40
1.6
100
AcDbArc
 50
0.0
 51
73.808648
  0
LINE
  5
3D4
100
AcDbEntity
  8
2
100
AcDbLine
 10
-300.485631
 20
63.866023
 30
0.0
 11
-300.485631
 21
62.566023
 31
0.0
  0
LINE
  5
3D5
100
AcDbEntity
  8
2
100
AcDbLine
 10
-291.285631
 20
63.866023
 30
0.0
 11
-291.285631
 21
62.566023
 31
0.0
  0
LINE
  5
3D6
100
AcDbEntity
  8
2
100
AcDbLine
 10
-300.485631
 20
63.866023
 30
0.0
 11
-291.285631
 21
63.866023
 31
0.0
  0
LINE
  5
3D7
100
AcDbEntity
  8
2
100
AcDbLine
 10
-300.385631
 20
65.153516
 30
0.0
 11
-300.385631
 21
63.866023
 31
0.0
  0
LINE
  5
3D8
100
AcDbEntity
  8
2
100
AcDbLine
 10
-291.385631
 20
65.153516
 30
0.0
 11
-291.385631
 21
63.866023
 31
0.0
  0
ARC
  5
3D9
100
AcDbEntity
  8
2
100
AcDbCircle
 10
-295.885631
 20
55.166023
 30
0.0
 40
12.0
100
AcDbArc
 50
73.808648
 51
106.191352
  0
ARC
  5
3DA
100
AcDbEntity
  8
2
100
AcDbCircle
 10
-298.785631
 20
65.153516
 30
0.0
 40
1.6
100
AcDbArc
 50
106.191352
 51
180.0
  0
ARC
  5
3DB
100
AcDbEntity
  8
2
100
AcDbCircle
 10
-292.985631
 20
65.153516
 30
0.0
 40
1.6
100
AcDbArc
 50
0.0
 51
73.808648
  0
CIRCLE
  5
3DC
100
AcDbEntity
  8
2
100
AcDbCircle
 10
-295.885631
 20
298.766023
 30
0.0
 40
4.5
  0
CIRCLE
  5
3DD
100
AcDbEntity
  8
2
100
AcDbCircle
 10
-295.885631
 20
386.766023
 30
0.0
 40
4.5
  0
CIRCLE
  5
3DE
100
AcDbEntity
  8
2
100
AcDbCircle
 10
-441.885631
 20
298.766023
 30
0.0
 40
4.5
  0
CIRCLE
  5
3DF
100
AcDbEntity
  8
2
100
AcDbCircle
 10
-441.885631
 20
386.766023
 30
0.0
 40
4.5
  0
CIRCLE
  5
3E0
100
AcDbEntity
  8
2
100
AcDbCircle
 10
-348.369127
 20
313.249519
 30
0.0
 40
3.5
  0
CIRCLE
  5
3E1
100
AcDbEntity
  8
2
100
AcDbCircle
 10
-348.369127
 20
366.282528
 30
0.0
 40
3.5
  0
CIRCLE
  5
3E2
100
AcDbEntity
  8
2
100
AcDbCircle
 10
-401.402135
 20
313.249519
 30
0.0
 40
3.5
  0
CIRCLE
  5
3E3
100
AcDbEntity
  8
2
100
AcDbCircle
 10
-401.402135
 20
366.282528
 30
0.0
 40
3.5
  0
LINE
  5
3E4
100
AcDbEntity
  8
2
100
AcDbLine
 10
-344.569127
 20
81.766023
 30
0.0
 11
-352.169127
 21
81.766023
 31
0.0
  0
LINE
  5
3E5
100
AcDbEntity
  8
2
100
AcDbLine
 10
-344.569127
 20
81.766023
 30
0.0
 11
-344.569127
 21
80.766023
 31
0.0
  0
LINE
  5
3E6
100
AcDbEntity
  8
2
100
AcDbLine
 10
-352.169127
 20
81.766023
 30
0.0
 11
-352.169127
 21
80.766023
 31
0.0
  0
LINE
  5
3E7
100
AcDbEntity
  8
2
100
AcDbLine
 10
-344.869127
 20
82.745048
 30
0.0
 11
-344.869127
 21
81.766023
 31
0.0
  0
LINE
  5
3E8
100
AcDbEntity
  8
2
100
AcDbLine
 10
-351.869127
 20
82.745048
 30
0.0
 11
-351.869127
 21
81.766023
 31
0.0
  0
ARC
  5
3E9
100
AcDbEntity
  8
2
100
AcDbCircle
 10
-348.369127
 20
75.366023
 30
0.0
 40
9.0
100
AcDbArc
 50
73.39845
 51
106.60155
  0
ARC
  5
3EA
100
AcDbEntity
  8
2
100
AcDbCircle
 10
-346.169127
 20
82.745048
 30
0.0
 40
1.3
100
AcDbArc
 50
0.0
 51
73.39845
  0
ARC
  5
3EB
100
AcDbEntity
  8
2
100
AcDbCircle
 10
-350.569127
 20
82.745048
 30
0.0
 40
1.3
100
AcDbArc
 50
106.60155
 51
180.0
  0
LINE
  5
3EC
100
AcDbEntity
  8
2
100
AcDbLine
 10
-397.602135
 20
81.766023
 30
0.0
 11
-405.202135
 21
81.766023
 31
0.0
  0
LINE
  5
3ED
100
AcDbEntity
  8
2
100
AcDbLine
 10
-397.602135
 20
81.766023
 30
0.0
 11
-397.602135
 21
80.766023
 31
0.0
  0
LINE
  5
3EE
100
AcDbEntity
  8
2
100
AcDbLine
 10
-405.202135
 20
81.766023
 30
0.0
 11
-405.202135
 21
80.766023
 31
0.0
  0
LINE
  5
3EF
100
AcDbEntity
  8
2
100
AcDbLine
 10
-397.902135
 20
82.745048
 30
0.0
 11
-397.902135
 21
81.766023
 31
0.0
  0
LINE
  5
3F0
100
AcDbEntity
  8
2
100
AcDbLine
 10
-404.902135
 20
82.745048
 30
0.0
 11
-404.902135
 21
81.766023
 31
0.0
  0
ARC
  5
3F1
100
AcDbEntity
  8
2
100
AcDbCircle
 10
-401.402135
 20
75.366023
 30
0.0
 40
9.0
100
AcDbArc
 50
73.39845
 51
106.60155
  0
ARC
  5
3F2
100
AcDbEntity
  8
2
100
AcDbCircle
 10
-399.202135
 20
82.745048
 30
0.0
 40
1.3
100
AcDbArc
 50
0.0
 51
73.39845
  0
ARC
  5
3F3
100
AcDbEntity
  8
2
100
AcDbCircle
 10
-403.602135
 20
82.745048
 30
0.0
 40
1.3
100
AcDbArc
 50
106.60155
 51
180.0
  0
LINE
  5
3F4
100
AcDbEntity
  8
2
100
AcDbLine
 10
198.529075
 20
74.566023
 30
0.0
 11
112.499663
 21
74.566023
 31
0.0
  0
LINE
  5
3F5
100
AcDbEntity
  8
2
100
AcDbLine
 10
110.014369
 20
80.766023
 30
0.0
 11
110.014369
 21
75.701256
 31
0.0
  0
LINE
  5
3F6
100
AcDbEntity
  8
2
100
AcDbLine
 10
195.014369
 20
80.766023
 30
0.0
 11
195.014369
 21
77.566023
 31
0.0
  0
LINE
  5
3F7
100
AcDbEntity
  8
2
100
AcDbLine
 10
110.014369
 20
79.566023
 30
0.0
 11
195.014369
 21
79.566023
 31
0.0
  0
LINE
  5
3F8
100
AcDbEntity
  8
2
100
AcDbLine
 10
205.514369
 20
57.566023
 30
0.0
 11
204.506243
 21
69.088958
 31
0.0
  0
LINE
  5
3F9
100
AcDbEntity
  8
2
100
AcDbLine
 10
105.514369
 20
57.566023
 30
0.0
 11
106.522495
 21
69.088958
 31
0.0
  0
ARC
  5
3FA
100
AcDbEntity
  8
2
100
AcDbCircle
 10
198.529075
 20
68.566023
 30
0.0
 40
6.0
100
AcDbArc
 50
5.0
 51
90.0
  0
ARC
  5
3FB
100
AcDbEntity
  8
2
100
AcDbCircle
 10
112.499663
 20
68.566023
 30
0.0
 40
6.0
100
AcDbArc
 50
90.0
 51
175.0
  0
ARC
  5
3FC
100
AcDbEntity
  8
2
100
AcDbCircle
 10
198.014369
 20
77.566023
 30
0.0
 40
3.0
100
AcDbArc
 50
180.0
 51
270.0
  0
ARC
  5
3FD
100
AcDbEntity
  8
2
100
AcDbCircle
 10
107.014369
 20
75.701256
 30
0.0
 40
3.0
100
AcDbArc
 50
307.551707
 51
360.0
  0
ARC
  5
3FE
100
AcDbEntity
  8
2
100
AcDbCircle
 10
152.514369
 20
67.566023
 30
0.0
 40
34.0
100
AcDbArc
 50
45.099128
 51
134.900872
  0
LINE
  5
3FF
100
AcDbEntity
  8
2
100
AcDbLine
 10
160.014364
 20
99.171509
 30
0.0
 11
160.014369
 21
80.766023
 31
0.0
  0
LINE
  5
400
100
AcDbEntity
  8
2
100
AcDbLine
 10
145.014369
 20
99.171509
 30
0.0
 11
145.014369
 21
80.766023
 31
0.0
  0
LINE
  5
401
100
AcDbEntity
  8
2
100
AcDbLine
 10
128.514369
 20
91.649213
 30
0.0
 11
128.514369
 21
89.923125
 31
0.0
  0
LINE
  5
402
100
AcDbEntity
  8
2
100
AcDbLine
 10
176.514369
 20
91.649213
 30
0.0
 11
176.514369
 21
89.923125
 31
0.0
  0
ARC
  5
403
100
AcDbEntity
  8
2
100
AcDbCircle
 10
152.514369
 20
69.566023
 30
0.0
 40
31.0
100
AcDbArc
 50
28.453097
 51
48.922243
  0
ARC
  5
404
100
AcDbEntity
  8
2
100
AcDbCircle
 10
152.514369
 20
69.566023
 30
0.0
 40
31.0
100
AcDbArc
 50
131.077757
 51
151.546903
  0
ARC
  5
405
100
AcDbEntity
  8
2
100
AcDbCircle
 10
152.514369
 20
66.066023
 30
0.0
 40
28.0
100
AcDbArc
 50
105.536794
 51
145.287318
  0
ARC
  5
406
100
AcDbEntity
  8
2
100
AcDbCircle
 10
152.514369
 20
66.066023
 30
0.0
 40
28.0
100
AcDbArc
 50
34.712682
 51
74.463206
  0
ARC
  5
407
100
AcDbEntity
  8
2
100
AcDbCircle
 10
117.113974
 20
70.331653
 30
0.0
 40
45.274917
100
AcDbArc
 50
13.324563
 51
18.638604
  0
ARC
  5
408
100
AcDbEntity
  8
2
100
AcDbCircle
 10
118.037854
 20
70.331653
 30
0.0
 40
45.274917
100
AcDbArc
 50
13.324563
 51
21.318921
  0
ARC
  5
409
100
AcDbEntity
  8
2
100
AcDbCircle
 10
159.813206
 20
86.635077
 30
0.0
 40
0.430947
100
AcDbArc
 50
21.318921
 51
62.173379
  0
ARC
  5
40A
100
AcDbEntity
  8
2
100
AcDbCircle
 10
141.08444
 20
68.564771
 30
0.0
 40
30.472934
100
AcDbArc
 50
23.60296
 51
36.322403
  0
ARC
  5
40B
100
AcDbEntity
  8
2
100
AcDbCircle
 10
141.791547
 20
68.564771
 30
0.0
 40
30.472934
100
AcDbArc
 50
23.60296
 51
37.117331
  0
ARC
  5
40C
100
AcDbEntity
  8
2
100
AcDbCircle
 10
165.864721
 20
86.782619
 30
0.0
 40
0.283404
100
AcDbArc
 50
37.117331
 51
216.322403
  0
ARC
  5
40D
100
AcDbEntity
  8
2
100
AcDbCircle
 10
149.840028
 20
66.79789
 30
0.0
 40
28.197761
100
AcDbArc
 50
29.693704
 51
45.288518
  0
ARC
  5
40E
100
AcDbEntity
  8
2
100
AcDbCircle
 10
150.222711
 20
66.79789
 30
0.0
 40
28.197761
100
AcDbArc
 50
29.693704
 51
45.843762
  0
ARC
  5
40F
100
AcDbEntity
  8
2
100
AcDbCircle
 10
169.772443
 20
86.932066
 30
0.0
 40
0.133957
100
AcDbArc
 50
45.843762
 51
225.288518
  0
LINE
  5
410
100
AcDbEntity
  8
2
100
AcDbLine
 10
110.014369
 20
80.766023
 30
0.0
 11
195.014369
 21
80.766023
 31
0.0
  0
LINE
  5
411
100
AcDbEntity
  8
2
100
AcDbLine
 10
193.514369
 20
71.566023
 30
0.0
 11
193.514369
 21
63.066023
 31
0.0
  0
LINE
  5
412
100
AcDbEntity
  8
2
100
AcDbLine
 10
117.514369
 20
71.566023
 30
0.0
 11
117.514369
 21
63.066023
 31
0.0
  0
LINE
  5
413
100
AcDbEntity
  8
2
100
AcDbLine
 10
106.409978
 20
62.566023
 30
0.0
 11
117.014369
 21
62.566023
 31
0.0
  0
LINE
  5
414
100
AcDbEntity
  8
2
100
AcDbLine
 10
194.014369
 20
62.566023
 30
0.0
 11
204.61876
 21
62.566023
 31
0.0
  0
ARC
  5
415
100
AcDbEntity
  8
2
100
AcDbCircle
 10
194.014369
 20
63.066023
 30
0.0
 40
0.5
100
AcDbArc
 50
180.0
 51
270.0
  0
ARC
  5
416
100
AcDbEntity
  8
2
100
AcDbCircle
 10
117.014369
 20
63.066023
 30
0.0
 40
0.5
100
AcDbArc
 50
270.0
 51
360.0
  0
ARC
  5
417
100
AcDbEntity
  8
2
100
AcDbCircle
 10
204.61876
 20
62.066023
 30
0.0
 40
0.5
100
AcDbArc
 50
5.0
 51
90.0
  0
ARC
  5
418
100
AcDbEntity
  8
2
100
AcDbCircle
 10
106.409978
 20
62.066023
 30
0.0
 40
0.5
100
AcDbArc
 50
90.0
 51
175.0
  0
ARC
  5
419
100
AcDbEntity
  8
2
100
AcDbCircle
 10
190.514369
 20
71.566023
 30
0.0
 40
3.0
100
AcDbArc
 50
0.0
 51
90.0
  0
ARC
  5
41A
100
AcDbEntity
  8
2
100
AcDbCircle
 10
120.514369
 20
71.566023
 30
0.0
 40
3.0
100
AcDbArc
 50
90.0
 51
180.0
  0
ARC
  5
41B
100
AcDbEntity
  8
2
100
AcDbCircle
 10
144.230581
 20
88.245055
 30
0.0
 40
11.430139
100
AcDbArc
 50
88.512215
 51
112.714662
  0
ARC
  5
41C
100
AcDbEntity
  8
2
100
AcDbCircle
 10
144.514369
 20
99.171509
 30
0.0
 40
0.5
100
AcDbArc
 50
0.0
 51
88.512215
  0
ARC
  5
41D
100
AcDbEntity
  8
2
100
AcDbCircle
 10
155.350742
 20
61.68055
 30
0.0
 40
40.228245
100
AcDbArc
 50
112.714662
 51
131.843847
  0
ARC
  5
41E
100
AcDbEntity
  8
2
100
AcDbCircle
 10
145.720583
 20
81.349079
 30
0.0
 40
17.127052
100
AcDbArc
 50
93.791923
 51
118.737001
  0
ARC
  5
41F
100
AcDbEntity
  8
2
100
AcDbCircle
 10
144.614369
 20
98.039511
 30
0.0
 40
0.4
100
AcDbArc
 50
0.0
 51
93.791923
  0
ARC
  5
420
100
AcDbEntity
  8
2
100
AcDbCircle
 10
159.432933
 20
56.341313
 30
0.0
 40
45.647515
100
AcDbArc
 50
118.737001
 51
132.635576
  0
ARC
  5
421
100
AcDbEntity
  8
2
100
AcDbCircle
 10
159.308155
 20
81.349079
 30
0.0
 40
17.127052
100
AcDbArc
 50
61.262999
 51
86.208077
  0
ARC
  5
422
100
AcDbEntity
  8
2
100
AcDbCircle
 10
145.595806
 20
56.341313
 30
0.0
 40
45.647515
100
AcDbArc
 50
47.364424
 51
61.262999
  0
ARC
  5
423
100
AcDbEntity
  8
2
100
AcDbCircle
 10
160.414369
 20
98.039511
 30
0.0
 40
0.4
100
AcDbArc
 50
86.208077
 51
180.0
  0
ARC
  5
424
100
AcDbEntity
  8
2
100
AcDbCircle
 10
160.514369
 20
99.171509
 30
0.0
 40
0.5
100
AcDbArc
 50
91.487785
 51
180.0
  0
ARC
  5
425
100
AcDbEntity
  8
2
100
AcDbCircle
 10
160.798157
 20
88.245055
 30
0.0
 40
11.430139
100
AcDbArc
 50
67.285338
 51
91.487785
  0
ARC
  5
426
100
AcDbEntity
  8
2
100
AcDbCircle
 10
149.677996
 20
61.68055
 30
0.0
 40
40.228245
100
AcDbArc
 50
48.156153
 51
67.285338
  0
LINE
  5
427
100
AcDbEntity
  8
2
100
AcDbLine
 10
106.914369
 20
63.866023
 30
0.0
 11
106.914369
 21
62.566023
 31
0.0
  0
LINE
  5
428
100
AcDbEntity
  8
2
100
AcDbLine
 10
116.114369
 20
63.866023
 30
0.0
 11
116.114369
 21
62.566023
 31
0.0
  0
LINE
  5
429
100
AcDbEntity
  8
2
100
AcDbLine
 10
106.914369
 20
63.866023
 30
0.0
 11
116.114369
 21
63.866023
 31
0.0
  0
LINE
  5
42A
100
AcDbEntity
  8
2
100
AcDbLine
 10
107.014369
 20
65.153516
 30
0.0
 11
107.014369
 21
63.866023
 31
0.0
  0
LINE
  5
42B
100
AcDbEntity
  8
2
100
AcDbLine
 10
116.014369
 20
65.153516
 30
0.0
 11
116.014369
 21
63.866023
 31
0.0
  0
ARC
  5
42C
100
AcDbEntity
  8
2
100
AcDbCircle
 10
111.514369
 20
55.166023
 30
0.0
 40
12.0
100
AcDbArc
 50
73.808648
 51
106.191352
  0
ARC
  5
42D
100
AcDbEntity
  8
2
100
AcDbCircle
 10
108.614369
 20
65.153516
 30
0.0
 40
1.6
100
AcDbArc
 50
106.191352
 51
180.0
  0
ARC
  5
42E
100
AcDbEntity
  8
2
100
AcDbCircle
 10
114.414369
 20
65.153516
 30
0.0
 40
1.6
100
AcDbArc
 50
0.0
 51
73.808648
  0
LINE
  5
42F
100
AcDbEntity
  8
2
100
AcDbLine
 10
194.914369
 20
63.866023
 30
0.0
 11
194.914369
 21
62.566023
 31
0.0
  0
LINE
  5
430
100
AcDbEntity
  8
2
100
AcDbLine
 10
204.114369
 20
63.866023
 30
0.0
 11
204.114369
 21
62.566023
 31
0.0
  0
LINE
  5
431
100
AcDbEntity
  8
2
100
AcDbLine
 10
194.914369
 20
63.866023
 30
0.0
 11
204.114369
 21
63.866023
 31
0.0
  0
LINE
  5
432
100
AcDbEntity
  8
2
100
AcDbLine
 10
195.014369
 20
65.153516
 30
0.0
 11
195.014369
 21
63.866023
 31
0.0
  0
LINE
  5
433
100
AcDbEntity
  8
2
100
AcDbLine
 10
204.014369
 20
65.153516
 30
0.0
 11
204.014369
 21
63.866023
 31
0.0
  0
ARC
  5
434
100
AcDbEntity
  8
2
100
AcDbCircle
 10
199.514369
 20
55.166023
 30
0.0
 40
12.0
100
AcDbArc
 50
73.808648
 51
106.191352
  0
ARC
  5
435
100
AcDbEntity
  8
2
100
AcDbCircle
 10
196.614369
 20
65.153516
 30
0.0
 40
1.6
100
AcDbArc
 50
106.191352
 51
180.0
  0
ARC
  5
436
100
AcDbEntity
  8
2
100
AcDbCircle
 10
202.414369
 20
65.153516
 30
0.0
 40
1.6
100
AcDbArc
 50
0.0
 51
73.808648
  0
LINE
  5
437
100
AcDbEntity
  8
2
100
AcDbLine
 10
129.797865
 20
81.766023
 30
0.0
 11
122.197865
 21
81.766023
 31
0.0
  0
LINE
  5
438
100
AcDbEntity
  8
2
100
AcDbLine
 10
129.797865
 20
81.766023
 30
0.0
 11
129.797865
 21
80.766023
 31
0.0
  0
LINE
  5
439
100
AcDbEntity
  8
2
100
AcDbLine
 10
122.197865
 20
81.766023
 30
0.0
 11
122.197865
 21
80.766023
 31
0.0
  0
LINE
  5
43A
100
AcDbEntity
  8
2
100
AcDbLine
 10
129.497865
 20
82.745048
 30
0.0
 11
129.497865
 21
81.766023
 31
0.0
  0
LINE
  5
43B
100
AcDbEntity
  8
2
100
AcDbLine
 10
122.497865
 20
82.745048
 30
0.0
 11
122.497865
 21
81.766023
 31
0.0
  0
ARC
  5
43C
100
AcDbEntity
  8
2
100
AcDbCircle
 10
125.997865
 20
75.366023
 30
0.0
 40
9.0
100
AcDbArc
 50
73.39845
 51
106.60155
  0
ARC
  5
43D
100
AcDbEntity
  8
2
100
AcDbCircle
 10
128.197865
 20
82.745048
 30
0.0
 40
1.3
100
AcDbArc
 50
0.0
 51
73.39845
  0
ARC
  5
43E
100
AcDbEntity
  8
2
100
AcDbCircle
 10
123.797865
 20
82.745048
 30
0.0
 40
1.3
100
AcDbArc
 50
106.60155
 51
180.0
  0
LINE
  5
43F
100
AcDbEntity
  8
2
100
AcDbLine
 10
182.830873
 20
81.766023
 30
0.0
 11
175.230873
 21
81.766023
 31
0.0
  0
LINE
  5
440
100
AcDbEntity
  8
2
100
AcDbLine
 10
182.830873
 20
81.766023
 30
0.0
 11
182.830873
 21
80.766023
 31
0.0
  0
LINE
  5
441
100
AcDbEntity
  8
2
100
AcDbLine
 10
175.230873
 20
81.766023
 30
0.0
 11
175.230873
 21
80.766023
 31
0.0
  0
LINE
  5
442
100
AcDbEntity
  8
2
100
AcDbLine
 10
182.530873
 20
82.745048
 30
0.0
 11
182.530873
 21
81.766023
 31
0.0
  0
LINE
  5
443
100
AcDbEntity
  8
2
100
AcDbLine
 10
175.530873
 20
82.745048
 30
0.0
 11
175.530873
 21
81.766023
 31
0.0
  0
ARC
  5
444
100
AcDbEntity
  8
2
100
AcDbCircle
 10
179.030873
 20
75.366023
 30
0.0
 40
9.0
100
AcDbArc
 50
73.39845
 51
106.60155
  0
ARC
  5
445
100
AcDbEntity
  8
2
100
AcDbCircle
 10
181.230873
 20
82.745048
 30
0.0
 40
1.3
100
AcDbArc
 50
0.0
 51
73.39845
  0
ARC
  5
446
100
AcDbEntity
  8
2
100
AcDbCircle
 10
176.830873
 20
82.745048
 30
0.0
 40
1.3
100
AcDbArc
 50
106.60155
 51
180.0
  0
ARC
  5
447
100
AcDbEntity
  8
2
100
AcDbCircle
 10
-253.885631
 20
262.766023
 30
0.0
 40
1.0
100
AcDbArc
 50
0.0
 51
90.0
  0
ARC
  5
448
100
AcDbEntity
  8
2
100
AcDbCircle
 10
-540.885631
 20
262.766023
 30
0.0
 40
1.0
100
AcDbArc
 50
90.0
 51
180.0
  0
LINE
  5
449
100
AcDbEntity
  8
2
100
AcDbLine
 10
-276.885631
 20
265.766023
 30
0.0
 11
-276.885631
 21
278.766023
 31
0.0
  0
LINE
  5
44A
100
AcDbEntity
  8
2
100
AcDbLine
 10
-268.885631
 20
265.766023
 30
0.0
 11
-268.885631
 21
278.766023
 31
0.0
  0
LINE
  5
44B
100
AcDbEntity
  8
2
100
AcDbLine
 10
-403.885631
 20
275.766023
 30
0.0
 11
-403.885631
 21
265.766023
 31
0.0
  0
LINE
  5
44C
100
AcDbEntity
  8
2
100
AcDbLine
 10
-395.885631
 20
275.766023
 30
0.0
 11
-395.885631
 21
265.766023
 31
0.0
  0
ARC
  5
44D
100
AcDbEntity
  8
2
100
AcDbCircle
 10
-272.885631
 20
278.766023
 30
0.0
 40
4.0
100
AcDbArc
 50
0.0
 51
180.0
  0
ARC
  5
44E
100
AcDbEntity
  8
2
100
AcDbCircle
 10
-399.885631
 20
275.766023
 30
0.0
 40
4.0
100
AcDbArc
 50
0.0
 51
180.0
  0
ARC
  5
44F
100
AcDbEntity
  8
2
100
AcDbCircle
 10
-266.885631
 20
265.766023
 30
0.0
 40
2.0
100
AcDbArc
 50
180.0
 51
270.0
  0
ARC
  5
450
100
AcDbEntity
  8
2
100
AcDbCircle
 10
-278.885631
 20
265.766023
 30
0.0
 40
2.0
100
AcDbArc
 50
270.0
 51
360.0
  0
ARC
  5
451
100
AcDbEntity
  8
2
100
AcDbCircle
 10
-393.885631
 20
265.766023
 30
0.0
 40
2.0
100
AcDbArc
 50
180.0
 51
270.0
  0
ARC
  5
452
100
AcDbEntity
  8
2
100
AcDbCircle
 10
-405.885631
 20
265.766023
 30
0.0
 40
2.0
100
AcDbArc
 50
270.0
 51
360.0
  0
ARC
  5
453
100
AcDbEntity
  8
2
100
AcDbCircle
 10
-288.885631
 20
305.766023
 30
0.0
 40
1.0
100
AcDbArc
 50
270.0
 51
360.0
  0
ARC
  5
454
100
AcDbEntity
  8
2
100
AcDbCircle
 10
-288.885631
 20
303.766023
 30
0.0
 40
1.0
100
AcDbArc
 50
90.0
 51
180.0
  0
ARC
  5
455
100
AcDbEntity
  8
2
100
AcDbCircle
 10
-288.885631
 20
379.766023
 30
0.0
 40
1.0
100
AcDbArc
 50
0.0
 51
90.0
  0
ARC
  5
456
100
AcDbEntity
  8
2
100
AcDbCircle
 10
-288.885631
 20
381.766023
 30
0.0
 40
1.0
100
AcDbArc
 50
180.0
 51
270.0
  0
LINE
  5
457
100
AcDbEntity
  8
2
100
AcDbLine
 10
135.514369
 20
55.566023
 30
0.0
 11
175.514369
 21
55.566023
 31
0.0
  0
ARC
  5
458
100
AcDbEntity
  8
2
100
AcDbCircle
 10
175.514369
 20
37.566023
 30
0.0
 40
18.0
100
AcDbArc
 50
0.0
 51
90.0
  0
ARC
  5
459
100
AcDbEntity
  8
2
100
AcDbCircle
 10
135.514369
 20
37.566023
 30
0.0
 40
18.0
100
AcDbArc
 50
90.0
 51
180.0
  0
ARC
  5
45A
100
AcDbEntity
  8
2
100
AcDbCircle
 10
-256.885631
 20
382.766023
 30
0.0
 40
2.0
100
AcDbArc
 50
270.0
 51
360.0
  0
ARC
  5
45B
100
AcDbEntity
  8
2
100
AcDbCircle
 10
-256.885631
 20
302.766023
 30
0.0
 40
2.0
100
AcDbArc
 50
0.0
 51
90.0
  0
LINE
  5
45C
100
AcDbEntity
  8
2
100
AcDbLine
 10
-328.885631
 20
413.766023
 30
0.0
 11
-328.885631
 21
402.766023
 31
0.0
  0
LINE
  5
45D
100
AcDbEntity
  8
2
100
AcDbLine
 10
-296.885631
 20
413.766023
 30
0.0
 11
-296.885631
 21
402.766023
 31
0.0
  0
ARC
  5
45E
100
AcDbEntity
  8
2
100
AcDbCircle
 10
-325.885631
 20
413.766023
 30
0.0
 40
3.0
100
AcDbArc
 50
90.0
 51
180.0
  0
ARC
  5
45F
100
AcDbEntity
  8
2
100
AcDbCircle
 10
-299.885631
 20
413.766023
 30
0.0
 40
3.0
100
AcDbArc
 50
0.0
 51
90.0
  0
ARC
  5
460
100
AcDbEntity
  8
2
100
AcDbCircle
 10
-293.885631
 20
402.766023
 30
0.0
 40
3.0
100
AcDbArc
 50
180.0
 51
270.0
  0
ARC
  5
461
100
AcDbEntity
  8
2
100
AcDbCircle
 10
-331.885631
 20
402.766023
 30
0.0
 40
3.0
100
AcDbArc
 50
270.0
 51
360.0
  0
ARC
  5
462
100
AcDbEntity
  8
2
100
AcDbCircle
 10
-288.15358
 20
399.766023
 30
0.0
 40
1.0
100
AcDbArc
 50
210.0
 51
270.0
  0
ARC
  5
463
100
AcDbEntity
  8
2
100
AcDbCircle
 10
-289.885631
 20
398.766023
 30
0.0
 40
1.0
100
AcDbArc
 50
30.0
 51
90.0
  0
LINE
  5
464
100
AcDbEntity
  8
2
100
AcDbLine
 10
-483.549331
 20
385.766023
 30
0.0
 11
-476.326325
 21
385.766023
 31
0.0
  0
LINE
  5
465
100
AcDbEntity
  8
2
100
AcDbLine
 10
-489.851485
 20
404.766023
 30
0.0
 11
-489.851485
 21
415.766023
 31
0.0
  0
LINE
  5
466
100
AcDbEntity
  8
2
100
AcDbLine
 10
-489.851485
 20
415.766023
 30
0.0
 11
-488.851485
 21
416.766023
 31
0.0
  0
LINE
  5
467
100
AcDbEntity
  8
2
100
AcDbLine
 10
-485.549331
 20
387.766023
 30
0.0
 11
-485.549331
 21
398.766023
 31
0.0
  0
LINE
  5
468
100
AcDbEntity
  8
2
100
AcDbLine
 10
-469.919776
 20
392.766023
 30
0.0
 11
-469.919776
 21
415.766023
 31
0.0
  0
LINE
  5
469
100
AcDbEntity
  8
2
100
AcDbLine
 10
-538.835966
 20
264.713688
 30
0.0
 11
-537.040387
 21
298.975367
 31
0.0
  0
ARC
  5
46A
100
AcDbEntity
  8
2
100
AcDbCircle
 10
-533.045869
 20
298.766023
 30
0.0
 40
4.0
100
AcDbArc
 50
90.0
 51
177.0
  0
ARC
  5
46B
100
AcDbEntity
  8
2
100
AcDbCircle
 10
-539.834595
 20
264.766023
 30
0.0
 40
1.0
100
AcDbArc
 50
270.0
 51
357.0
  0
LINE
  5
46C
100
AcDbEntity
  8
2
100
AcDbLine
 10
-255.935296
 20
264.713688
 30
0.0
 11
-257.209539
 21
289.027703
 31
0.0
  0
ARC
  5
46D
100
AcDbEntity
  8
2
100
AcDbCircle
 10
-254.936666
 20
264.766023
 30
0.0
 40
1.0
100
AcDbArc
 50
183.0
 51
270.0
  0
ARC
  5
46E
100
AcDbEntity
  8
2
100
AcDbCircle
 10
-262.202687
 20
288.766023
 30
0.0
 40
5.0
100
AcDbArc
 50
3.0
 51
90.0
  0
ARC
  5
46F
100
AcDbEntity
  8
2
100
AcDbCircle
 10
-255.140673
 20
287.766023
 30
0.0
 40
2.0
100
AcDbArc
 50
90.0
 51
183.0
  0
ARC
  5
470
100
AcDbEntity
  8
2
100
AcDbCircle
 10
-449.428118
 20
395.766023
 30
0.0
 40
4.0
100
AcDbArc
 50
90.0
 51
180.0
  0
LINE
  5
471
100
AcDbEntity
  8
2
100
AcDbLine
 10
-469.919776
 20
415.766023
 30
0.0
 11
-470.919776
 21
416.766023
 31
0.0
  0
LINE
  5
472
100
AcDbEntity
  8
2
100
AcDbLine
 10
-521.885631
 20
402.766023
 30
0.0
 11
-489.549331
 21
402.766023
 31
0.0
  0
ARC
  5
473
100
AcDbEntity
  8
2
100
AcDbCircle
 10
-489.549331
 20
398.766023
 30
0.0
 40
4.0
100
AcDbArc
 50
0.0
 51
90.0
  0
LINE
  5
474
100
AcDbEntity
  8
2
100
AcDbLine
 10
-508.800399
 20
305.766023
 30
0.0
 11
-508.800399
 21
317.766023
 31
0.0
  0
LINE
  5
475
100
AcDbEntity
  8
2
100
AcDbLine
 10
-518.085631
 20
305.766023
 30
0.0
 11
-518.085631
 21
317.766023
 31
0.0
  0
LINE
  5
476
100
AcDbEntity
  8
2
100
AcDbLine
 10
-516.085631
 20
319.766023
 30
0.0
 11
-510.800399
 21
319.766023
 31
0.0
  0
ARC
  5
477
100
AcDbEntity
  8
2
100
AcDbCircle
 10
-516.085631
 20
317.766023
 30
0.0
 40
2.0
100
AcDbArc
 50
90.0
 51
180.0
  0
ARC
  5
478
100
AcDbEntity
  8
2
100
AcDbCircle
 10
-510.800399
 20
317.766023
 30
0.0
 40
2.0
100
AcDbArc
 50
0.0
 51
90.0
  0
ARC
  5
479
100
AcDbEntity
  8
2
100
AcDbCircle
 10
-505.800399
 20
305.766023
 30
0.0
 40
3.0
100
AcDbArc
 50
180.0
 51
270.0
  0
ARC
  5
47A
100
AcDbEntity
  8
2
100
AcDbCircle
 10
-521.085631
 20
305.766023
 30
0.0
 40
3.0
100
AcDbArc
 50
270.0
 51
360.0
  0
ARC
  5
47B
100
AcDbEntity
  8
2
100
AcDbCircle
 10
-530.885631
 20
307.766023
 30
0.0
 40
5.0
100
AcDbArc
 50
270.0
 51
360.0
  0
ARC
  5
47C
100
AcDbEntity
  8
2
100
AcDbCircle
 10
-528.885631
 20
387.766023
 30
0.0
 40
3.0
100
AcDbArc
 50
0.0
 51
90.0
  0
LINE
  5
47D
100
AcDbEntity
  8
2
100
AcDbLine
 10
-522.526647
 20
404.153512
 30
0.0
 11
-522.526647
 21
415.766023
 31
0.0
  0
LINE
  5
47E
100
AcDbEntity
  8
2
100
AcDbLine
 10
-521.526647
 20
416.766023
 30
0.0
 11
-522.526647
 21
415.766023
 31
0.0
  0
LINE
  5
47F
100
AcDbEntity
  8
2
100
AcDbLine
 10
-437.244615
 20
401.766023
 30
0.0
 11
-437.244615
 21
415.766023
 31
0.0
  0
LINE
  5
480
100
AcDbEntity
  8
2
100
AcDbLine
 10
-438.244615
 20
416.766023
 30
0.0
 11
-437.244615
 21
415.766023
 31
0.0
  0
LINE
  5
481
100
AcDbEntity
  8
2
100
AcDbLine
 10
-437.244615
 20
415.766023
 30
0.0
 11
-522.526647
 21
415.766023
 31
0.0
  0
ARC
  5
482
100
AcDbEntity
  8
2
100
AcDbCircle
 10
-435.244615
 20
401.766023
 30
0.0
 40
2.0
100
AcDbArc
 50
180.0
 51
270.0
  0
ARC
  5
483
100
AcDbEntity
  8
2
100
AcDbCircle
 10
-521.885631
 20
398.766023
 30
0.0
 40
4.0
100
AcDbArc
 50
90.0
 51
180.0
  0
ARC
  5
484
100
AcDbEntity
  8
2
100
AcDbCircle
 10
-524.526647
 20
404.153512
 30
0.0
 40
2.0
100
AcDbArc
 50
296.114687
 51
360.0
  0
LINE
  5
485
100
AcDbEntity
  8
2
100
AcDbLine
 10
-439.885631
 20
415.766023
 30
0.0
 11
-439.885631
 21
401.766023
 31
0.0
  0
LINE
  5
486
100
AcDbEntity
  8
2
100
AcDbLine
 10
-519.885631
 20
415.766023
 30
0.0
 11
-519.885631
 21
404.766023
 31
0.0
  0
ARC
  5
487
100
AcDbEntity
  8
2
100
AcDbCircle
 10
-437.885631
 20
401.766023
 30
0.0
 40
2.0
100
AcDbArc
 50
180.0
 51
270.0
  0
ARC
  5
488
100
AcDbEntity
  8
2
100
AcDbCircle
 10
-521.885631
 20
404.766023
 30
0.0
 40
2.0
100
AcDbArc
 50
270.0
 51
360.0
  0
LINE
  5
489
100
AcDbEntity
  8
2
100
AcDbLine
 10
-439.885631
 20
415.766023
 30
0.0
 11
-440.885631
 21
416.766023
 31
0.0
  0
LINE
  5
48A
100
AcDbEntity
  8
2
100
AcDbLine
 10
-519.885631
 20
415.766023
 30
0.0
 11
-518.885631
 21
416.766023
 31
0.0
  0
LINE
  5
48B
100
AcDbEntity
  8
2
100
AcDbLine
 10
-409.885631
 20
412.766023
 30
0.0
 11
-409.885631
 21
401.766023
 31
0.0
  0
LINE
  5
48C
100
AcDbEntity
  8
2
100
AcDbLine
 10
-339.885631
 20
401.766023
 30
0.0
 11
-339.885631
 21
412.766023
 31
0.0
  0
ARC
  5
48D
100
AcDbEntity
  8
2
100
AcDbCircle
 10
-337.885631
 20
401.766023
 30
0.0
 40
2.0
100
AcDbArc
 50
180.0
 51
270.0
  0
ARC
  5
48E
100
AcDbEntity
  8
2
100
AcDbCircle
 10
-411.885631
 20
401.766023
 30
0.0
 40
2.0
100
AcDbArc
 50
270.0
 51
360.0
  0
ARC
  5
48F
100
AcDbEntity
  8
2
100
AcDbCircle
 10
-340.885631
 20
412.766023
 30
0.0
 40
1.0
100
AcDbArc
 50
0.0
 51
90.0
  0
ARC
  5
490
100
AcDbEntity
  8
2
100
AcDbCircle
 10
-408.885631
 20
412.766023
 30
0.0
 40
1.0
100
AcDbArc
 50
90.0
 51
180.0
  0
LINE
  5
491
100
AcDbEntity
  8
2
100
AcDbLine
 10
-359.425023
 20
412.766023
 30
0.0
 11
-359.425023
 21
401.766023
 31
0.0
  0
LINE
  5
492
100
AcDbEntity
  8
2
100
AcDbLine
 10
-390.346239
 20
412.766023
 30
0.0
 11
-390.346239
 21
401.766023
 31
0.0
  0
ARC
  5
493
100
AcDbEntity
  8
2
100
AcDbCircle
 10
-361.425023
 20
401.766023
 30
0.0
 40
2.0
100
AcDbArc
 50
270.0
 51
360.0
  0
ARC
  5
494
100
AcDbEntity
  8
2
100
AcDbCircle
 10
-388.346239
 20
401.766023
 30
0.0
 40
2.0
100
AcDbArc
 50
180.0
 51
270.0
  0
ARC
  5
495
100
AcDbEntity
  8
2
100
AcDbCircle
 10
-358.425023
 20
412.766023
 30
0.0
 40
1.0
100
AcDbArc
 50
90.0
 51
180.0
  0
ARC
  5
496
100
AcDbEntity
  8
2
100
AcDbCircle
 10
-391.346239
 20
412.766023
 30
0.0
 40
1.0
100
AcDbArc
 50
0.0
 51
90.0
  0
LINE
  5
497
100
AcDbEntity
  8
2
100
AcDbLine
 10
-346.562131
 20
424.766023
 30
0.0
 11
-345.885631
 21
424.089523
 31
0.0
  0
LINE
  5
498
100
AcDbEntity
  8
2
100
AcDbLine
 10
-345.885631
 20
424.089523
 30
0.0
 11
-345.885631
 21
420.266023
 31
0.0
  0
LINE
  5
499
100
AcDbEntity
  8
2
 62
     2
100
AcDbLine
 10
-346.562131
 20
424.766023
 30
0.0
 11
-346.562131
 21
420.266023
 31
0.0
  0
LINE
  5
49A
100
AcDbEntity
  8
2
100
AcDbLine
 10
-346.562131
 20
424.766023
 30
0.0
 11
-353.209131
 21
424.766023
 31
0.0
  0
LINE
  5
49B
100
AcDbEntity
  8
2
100
AcDbLine
 10
-353.209131
 20
424.766023
 30
0.0
 11
-353.885631
 21
424.089523
 31
0.0
  0
LINE
  5
49C
100
AcDbEntity
  8
2
100
AcDbLine
 10
-353.885631
 20
424.089523
 30
0.0
 11
-345.885631
 21
424.089523
 31
0.0
  0
LINE
  5
49D
100
AcDbEntity
  8
2
 62
     2
100
AcDbLine
 10
-353.209131
 20
424.766023
 30
0.0
 11
-353.209131
 21
420.266023
 31
0.0
  0
LINE
  5
49E
100
AcDbEntity
  8
2
100
AcDbLine
 10
-353.885631
 20
424.089523
 30
0.0
 11
-353.885631
 21
420.266023
 31
0.0
  0
LINE
  5
49F
100
AcDbEntity
  8
2
100
AcDbLine
 10
-357.385631
 20
413.766023
 30
0.0
 11
-357.385631
 21
419.544336
 31
0.0
  0
LINE
  5
4A0
100
AcDbEntity
  8
2
100
AcDbLine
 10
-357.385631
 20
419.544336
 30
0.0
 11
-356.135631
 21
420.266023
 31
0.0
  0
LINE
  5
4A1
100
AcDbEntity
  8
2
100
AcDbLine
 10
-356.135631
 20
420.266023
 30
0.0
 11
-349.885631
 21
420.266023
 31
0.0
  0
LINE
  5
4A2
100
AcDbEntity
  8
2
100
AcDbLine
 10
-353.635631
 20
413.766023
 30
0.0
 11
-353.635631
 21
419.544336
 31
0.0
  0
ARC
  5
4A3
100
AcDbEntity
  8
2
100
AcDbCircle
 10
-355.510631
 20
417.13396
 30
0.0
 40
3.053774
100
AcDbArc
 50
52.121121
 51
127.878879
  0
ARC
  5
4A4
100
AcDbEntity
  8
2
100
AcDbCircle
 10
-349.885631
 20
408.937734
 30
0.0
 40
11.25
100
AcDbArc
 50
90.0
 51
109.471221
  0
LINE
  5
4A5
100
AcDbEntity
  8
2
100
AcDbLine
 10
-342.385631
 20
413.766023
 30
0.0
 11
-342.385631
 21
419.544336
 31
0.0
  0
LINE
  5
4A6
100
AcDbEntity
  8
2
100
AcDbLine
 10
-342.385631
 20
419.544336
 30
0.0
 11
-343.635631
 21
420.266023
 31
0.0
  0
LINE
  5
4A7
100
AcDbEntity
  8
2
100
AcDbLine
 10
-343.635631
 20
420.266023
 30
0.0
 11
-349.885631
 21
420.266023
 31
0.0
  0
LINE
  5
4A8
100
AcDbEntity
  8
2
100
AcDbLine
 10
-346.135631
 20
413.766023
 30
0.0
 11
-346.135631
 21
419.544336
 31
0.0
  0
ARC
  5
4A9
100
AcDbEntity
  8
2
100
AcDbCircle
 10
-344.260631
 20
417.13396
 30
0.0
 40
3.053774
100
AcDbArc
 50
52.121121
 51
127.878879
  0
ARC
  5
4AA
100
AcDbEntity
  8
2
100
AcDbCircle
 10
-349.885631
 20
408.937734
 30
0.0
 40
11.25
100
AcDbArc
 50
70.528779
 51
90.0
  0
LINE
  5
4AB
100
AcDbEntity
  8
2
100
AcDbLine
 10
-396.562131
 20
424.766023
 30
0.0
 11
-395.885631
 21
424.089523
 31
0.0
  0
LINE
  5
4AC
100
AcDbEntity
  8
2
100
AcDbLine
 10
-395.885631
 20
424.089523
 30
0.0
 11
-395.885631
 21
420.266023
 31
0.0
  0
LINE
  5
4AD
100
AcDbEntity
  8
2
 62
     2
100
AcDbLine
 10
-396.562131
 20
424.766023
 30
0.0
 11
-396.562131
 21
420.266023
 31
0.0
  0
LINE
  5
4AE
100
AcDbEntity
  8
2
100
AcDbLine
 10
-396.562131
 20
424.766023
 30
0.0
 11
-403.209131
 21
424.766023
 31
0.0
  0
LINE
  5
4AF
100
AcDbEntity
  8
2
100
AcDbLine
 10
-403.209131
 20
424.766023
 30
0.0
 11
-403.885631
 21
424.089523
 31
0.0
  0
LINE
  5
4B0
100
AcDbEntity
  8
2
100
AcDbLine
 10
-403.885631
 20
424.089523
 30
0.0
 11
-395.885631
 21
424.089523
 31
0.0
  0
LINE
  5
4B1
100
AcDbEntity
  8
2
 62
     2
100
AcDbLine
 10
-403.209131
 20
424.766023
 30
0.0
 11
-403.209131
 21
420.266023
 31
0.0
  0
LINE
  5
4B2
100
AcDbEntity
  8
2
100
AcDbLine
 10
-403.885631
 20
424.089523
 30
0.0
 11
-403.885631
 21
420.266023
 31
0.0
  0
LINE
  5
4B3
100
AcDbEntity
  8
2
100
AcDbLine
 10
-407.385631
 20
413.766023
 30
0.0
 11
-407.385631
 21
419.544336
 31
0.0
  0
LINE
  5
4B4
100
AcDbEntity
  8
2
100
AcDbLine
 10
-407.385631
 20
419.544336
 30
0.0
 11
-406.135631
 21
420.266023
 31
0.0
  0
LINE
  5
4B5
100
AcDbEntity
  8
2
100
AcDbLine
 10
-406.135631
 20
420.266023
 30
0.0
 11
-399.885631
 21
420.266023
 31
0.0
  0
LINE
  5
4B6
100
AcDbEntity
  8
2
100
AcDbLine
 10
-403.635631
 20
413.766023
 30
0.0
 11
-403.635631
 21
419.544336
 31
0.0
  0
ARC
  5
4B7
100
AcDbEntity
  8
2
100
AcDbCircle
 10
-405.510631
 20
417.13396
 30
0.0
 40
3.053774
100
AcDbArc
 50
52.121121
 51
127.878879
  0
ARC
  5
4B8
100
AcDbEntity
  8
2
100
AcDbCircle
 10
-399.885631
 20
408.937734
 30
0.0
 40
11.25
100
AcDbArc
 50
90.0
 51
109.471221
  0
LINE
  5
4B9
100
AcDbEntity
  8
2
100
AcDbLine
 10
-392.385631
 20
413.766023
 30
0.0
 11
-392.385631
 21
419.544336
 31
0.0
  0
LINE
  5
4BA
100
AcDbEntity
  8
2
100
AcDbLine
 10
-392.385631
 20
419.544336
 30
0.0
 11
-393.635631
 21
420.266023
 31
0.0
  0
LINE
  5
4BB
100
AcDbEntity
  8
2
100
AcDbLine
 10
-393.635631
 20
420.266023
 30
0.0
 11
-399.885631
 21
420.266023
 31
0.0
  0
LINE
  5
4BC
100
AcDbEntity
  8
2
100
AcDbLine
 10
-396.135631
 20
413.766023
 30
0.0
 11
-396.135631
 21
419.544336
 31
0.0
  0
ARC
  5
4BD
100
AcDbEntity
  8
2
100
AcDbCircle
 10
-394.260631
 20
417.13396
 30
0.0
 40
3.053774
100
AcDbArc
 50
52.121121
 51
127.878879
  0
ARC
  5
4BE
100
AcDbEntity
  8
2
100
AcDbCircle
 10
-399.885631
 20
408.937734
 30
0.0
 40
11.25
100
AcDbArc
 50
70.528779
 51
90.0
  0
ARC
  5
4BF
100
AcDbEntity
  8
2
100
AcDbCircle
 10
-423.885631
 20
398.766023
 30
0.0
 40
8.0
100
AcDbArc
 50
17.457603
 51
162.542397
  0
ARC
  5
4C0
100
AcDbEntity
  8
2
100
AcDbCircle
 10
-414.346239
 20
401.766023
 30
0.0
 40
2.0
100
AcDbArc
 50
197.457603
 51
270.0
  0
ARC
  5
4C1
100
AcDbEntity
  8
2
100
AcDbCircle
 10
-433.425023
 20
401.766023
 30
0.0
 40
2.0
100
AcDbArc
 50
270.0
 51
342.542397
  0
LINE
  5
4C2
100
AcDbEntity
  8
2
100
AcDbLine
 10
-540.885631
 20
275.266023
 30
0.0
 11
-540.885631
 21
264.498074
 31
0.0
  0
ARC
  5
4C3
100
AcDbEntity
  8
2
100
AcDbCircle
 10
-541.885631
 20
264.498074
 30
0.0
 40
1.0
100
AcDbArc
 50
300.0
 51
360.0
  0
ARC
  5
4C4
100
AcDbEntity
  8
2
100
AcDbCircle
 10
-536.885631
 20
275.266023
 30
0.0
 40
4.0
100
AcDbArc
 50
107.416924
 51
180.0
  0
ARC
  5
4C5
100
AcDbEntity
  8
2
100
AcDbCircle
 10
-454.184783
 20
298.766023
 30
0.0
 40
6.0
100
AcDbArc
 50
180.0
 51
270.0
  0
LINE
  5
4C6
100
AcDbEntity
  8
2
100
AcDbLine
 10
-463.057248
 20
302.603818
 30
0.0
 11
-463.057248
 21
384.766023
 31
0.0
  0
ARC
  5
4C7
100
AcDbEntity
  8
2
100
AcDbCircle
 10
-483.549331
 20
387.766023
 30
0.0
 40
2.0
100
AcDbArc
 50
180.0
 51
270.0
  0
ARC
  5
4C8
100
AcDbEntity
  8
2
100
AcDbCircle
 10
-476.326325
 20
387.766023
 30
0.0
 40
2.0
100
AcDbArc
 50
270.0
 51
350.405932
  0
ARC
  5
4C9
100
AcDbEntity
  8
2
100
AcDbCircle
 10
-491.851485
 20
404.766023
 30
0.0
 40
2.0
100
AcDbArc
 50
270.0
 51
360.0
  0
LINE
  5
4CA
100
AcDbEntity
  8
2
100
AcDbLine
 10
-249.885631
 20
401.766023
 30
0.0
 11
-237.362696
 21
400.670409
 31
0.0
  0
LINE
  5
4CB
100
AcDbEntity
  8
2
100
AcDbLine
 10
-249.885631
 20
289.766023
 30
0.0
 11
-237.362696
 21
290.861638
 31
0.0
  0
LINE
  5
4CC
100
AcDbEntity
  8
2
100
AcDbLine
 10
-231.885631
 20
296.838806
 30
0.0
 11
-231.885631
 21
394.693241
 31
0.0
  0
ARC
  5
4CD
100
AcDbEntity
  8
2
100
AcDbCircle
 10
-237.885631
 20
394.693241
 30
0.0
 40
6.0
100
AcDbArc
 50
0.0
 51
85.0
  0
ARC
  5
4CE
100
AcDbEntity
  8
2
100
AcDbCircle
 10
-237.885631
 20
296.838806
 30
0.0
 40
6.0
100
AcDbArc
 50
275.0
 51
360.0
  0
LINE
  5
4CF
100
AcDbEntity
  8
2
100
AcDbLine
 10
-234.885631
 20
388.266023
 30
0.0
 11
-244.385631
 21
388.266023
 31
0.0
  0
LINE
  5
4D0
100
AcDbEntity
  8
2
100
AcDbLine
 10
-244.385631
 20
303.266023
 30
0.0
 11
-234.885631
 21
303.266023
 31
0.0
  0
LINE
  5
4D1
100
AcDbEntity
  8
2
100
AcDbLine
 10
-244.885631
 20
290.661632
 30
0.0
 11
-244.885631
 21
302.766023
 31
0.0
  0
LINE
  5
4D2
100
AcDbEntity
  8
2
100
AcDbLine
 10
-244.885631
 20
388.766023
 30
0.0
 11
-244.885631
 21
400.870415
 31
0.0
  0
ARC
  5
4D3
100
AcDbEntity
  8
2
100
AcDbCircle
 10
-234.885631
 20
385.266023
 30
0.0
 40
3.0
100
AcDbArc
 50
0.0
 51
90.0
  0
ARC
  5
4D4
100
AcDbEntity
  8
2
100
AcDbCircle
 10
-234.885631
 20
306.266023
 30
0.0
 40
3.0
100
AcDbArc
 50
270.0
 51
360.0
  0
ARC
  5
4D5
100
AcDbEntity
  8
2
100
AcDbCircle
 10
-245.385631
 20
400.870415
 30
0.0
 40
0.5
100
AcDbArc
 50
0.0
 51
85.0
  0
ARC
  5
4D6
100
AcDbEntity
  8
2
100
AcDbCircle
 10
-245.385631
 20
290.661632
 30
0.0
 40
0.5
100
AcDbArc
 50
275.0
 51
360.0
  0
ARC
  5
4D7
100
AcDbEntity
  8
2
100
AcDbCircle
 10
-244.385631
 20
388.766023
 30
0.0
 40
0.5
100
AcDbArc
 50
180.0
 51
270.0
  0
ARC
  5
4D8
100
AcDbEntity
  8
2
100
AcDbCircle
 10
-244.385631
 20
302.766023
 30
0.0
 40
0.5
100
AcDbArc
 50
90.0
 51
180.0
  0
LINE
  5
4D9
100
AcDbEntity
  8
2
100
AcDbLine
 10
-540.885631
 20
-56.433977
 30
0.0
 11
-540.885631
 21
-81.433977
 31
0.0
  0
LINE
  5
4DA
100
AcDbEntity
  8
2
100
AcDbLine
 10
-537.34619
 20
-54.433977
 30
0.0
 11
-538.885631
 21
-54.433977
 31
0.0
  0
ARC
  5
4DB
100
AcDbEntity
  8
2
100
AcDbCircle
 10
-538.885631
 20
-56.433977
 30
0.0
 40
2.0
100
AcDbArc
 50
90.0
 51
180.0
  0
LINE
  5
4DC
100
AcDbEntity
  8
2
100
AcDbLine
 10
-249.885631
 20
15.566023
 30
0.0
 11
-237.362696
 21
14.470409
 31
0.0
  0
LINE
  5
4DD
100
AcDbEntity
  8
2
100
AcDbLine
 10
-249.885631
 20
-72.433977
 30
0.0
 11
-237.362696
 21
-71.338362
 31
0.0
  0
LINE
  5
4DE
100
AcDbEntity
  8
2
100
AcDbLine
 10
-231.885631
 20
8.493241
 30
0.0
 11
-231.885631
 21
-65.361194
 31
0.0
  0
ARC
  5
4DF
100
AcDbEntity
  8
2
100
AcDbCircle
 10
-237.885631
 20
8.493241
 30
0.0
 40
6.0
100
AcDbArc
 50
0.0
 51
85.0
  0
ARC
  5
4E0
100
AcDbEntity
  8
2
100
AcDbCircle
 10
-237.885631
 20
-65.361194
 30
0.0
 40
6.0
100
AcDbArc
 50
275.0
 51
360.0
  0
LINE
  5
4E1
100
AcDbEntity
  8
2
100
AcDbLine
 10
-244.385631
 20
2.066023
 30
0.0
 11
-234.885631
 21
2.066023
 31
0.0
  0
LINE
  5
4E2
100
AcDbEntity
  8
2
100
AcDbLine
 10
-234.885631
 20
-58.933977
 30
0.0
 11
-244.385631
 21
-58.933977
 31
0.0
  0
LINE
  5
4E3
100
AcDbEntity
  8
2
100
AcDbLine
 10
-244.885631
 20
-71.538368
 30
0.0
 11
-244.885631
 21
-59.433977
 31
0.0
  0
LINE
  5
4E4
100
AcDbEntity
  8
2
100
AcDbLine
 10
-244.885631
 20
2.566023
 30
0.0
 11
-244.885631
 21
14.670415
 31
0.0
  0
ARC
  5
4E5
100
AcDbEntity
  8
2
100
AcDbCircle
 10
-234.885631
 20
-0.933977
 30
0.0
 40
3.0
100
AcDbArc
 50
0.0
 51
90.0
  0
ARC
  5
4E6
100
AcDbEntity
  8
2
100
AcDbCircle
 10
-234.885631
 20
-55.933977
 30
0.0
 40
3.0
100
AcDbArc
 50
270.0
 51
360.0
  0
ARC
  5
4E7
100
AcDbEntity
  8
2
100
AcDbCircle
 10
-245.385631
 20
14.670415
 30
0.0
 40
0.5
100
AcDbArc
 50
0.0
 51
85.0
  0
ARC
  5
4E8
100
AcDbEntity
  8
2
100
AcDbCircle
 10
-245.385631
 20
-71.538368
 30
0.0
 40
0.5
100
AcDbArc
 50
275.0
 51
360.0
  0
ARC
  5
4E9
100
AcDbEntity
  8
2
100
AcDbCircle
 10
-244.385631
 20
2.566023
 30
0.0
 40
0.5
100
AcDbArc
 50
180.0
 51
270.0
  0
ARC
  5
4EA
100
AcDbEntity
  8
2
100
AcDbCircle
 10
-244.385631
 20
-59.433977
 30
0.0
 40
0.5
100
AcDbArc
 50
90.0
 51
180.0
  0
LINE
  5
4EB
100
AcDbEntity
  8
2
100
AcDbLine
 10
-540.635631
 20
248.766023
 30
0.0
 11
-252.885631
 21
248.766023
 31
0.0
  0
LINE
  5
4EC
100
AcDbEntity
  8
2
100
AcDbLine
 10
-505.99888
 20
230.766023
 30
0.0
 11
-261.545351
 21
230.766023
 31
0.0
  0
LINE
  5
4ED
100
AcDbEntity
  8
2
100
AcDbLine
 10
-252.885631
 20
248.766023
 30
0.0
 11
-256.715722
 21
234.471928
 31
0.0
  0
ARC
  5
4EE
100
AcDbEntity
  8
2
100
AcDbCircle
 10
-261.545351
 20
235.766023
 30
0.0
 40
5.0
100
AcDbArc
 50
270.0
 51
345.0
  0
LINE
  5
4EF
100
AcDbEntity
  8
2
100
AcDbLine
 10
-510.329007
 20
233.266023
 30
0.0
 11
-518.41191
 21
247.266023
 31
0.0
  0
ARC
  5
4F0
100
AcDbEntity
  8
2
100
AcDbCircle
 10
-539.885631
 20
250.766023
 30
0.0
 40
2.0
100
AcDbArc
 50
180.0
 51
270.0
  0
ARC
  5
4F1
100
AcDbEntity
  8
2
100
AcDbCircle
 10
-312.010162
 20
-9.488938
 30
0.0
 40
53.0
100
AcDbArc
 50
82.815375
 51
97.894178
  0
ARC
  5
4F2
100
AcDbEntity
  8
2
100
AcDbCircle
 10
-468.885631
 20
-28.253977
 30
0.0
 40
40.0
100
AcDbArc
 50
99.899988
 51
268.765968
  0
ARC
  5
4F3
100
AcDbEntity
  8
2
100
AcDbCircle
 10
-312.885631
 20
-16.433977
 30
0.0
 40
55.176915
100
AcDbArc
 50
268.765968
 51
99.899988
  0
ARC
  5
4F4
100
AcDbEntity
  8
2
100
AcDbCircle
 10
-474.097936
 20
-28.253977
 30
0.0
 40
45.18
100
AcDbArc
 50
180.0
 51
270.0
  0
ARC
  5
4F5
100
AcDbEntity
  8
2
100
AcDbCircle
 10
-469.292496
 20
-28.253977
 30
0.0
 40
49.98544
100
AcDbArc
 50
97.894178
 51
180.0
  0
ARC
  5
4F6
100
AcDbEntity
  8
2
100
AcDbCircle
 10
-399.885631
 20
30.496023
 30
0.0
 40
6.5
100
AcDbArc
 50
198.050649
 51
357.737707
  0
LINE
  5
4F7
100
AcDbEntity
  8
2
100
AcDbLine
 10
-476.157691
 20
21.257773
 30
0.0
 11
-409.330101
 21
30.523947
 31
0.0
  0
LINE
  5
4F8
100
AcDbEntity
  8
2
100
AcDbLine
 10
-390.805067
 20
33.092589
 30
0.0
 11
-319.289389
 21
43.008803
 31
0.0
  0
ARC
  5
4F9
100
AcDbEntity
  8
2
100
AcDbCircle
 10
-390.393035
 20
30.121019
 30
0.0
 40
3.0
100
AcDbArc
 50
97.894178
 51
177.737707
  0
ARC
  5
4FA
100
AcDbEntity
  8
2
100
AcDbCircle
 10
-408.918069
 20
27.552376
 30
0.0
 40
3.0
100
AcDbArc
 50
18.050649
 51
97.894178
  0
LINE
  5
4FB
100
AcDbEntity
  8
2
100
AcDbLine
 10
-393.385631
 20
-66.433977
 30
0.0
 11
-393.385631
 21
-70.433977
 31
0.0
  0
LINE
  5
4FC
100
AcDbEntity
  8
2
100
AcDbLine
 10
-406.385631
 20
-66.433977
 30
0.0
 11
-406.385631
 21
-70.433977
 31
0.0
  0
LINE
  5
4FD
100
AcDbEntity
  8
2
100
AcDbLine
 10
-469.747081
 20
-68.244699
 30
0.0
 11
-410.078814
 21
-69.530028
 31
0.0
  0
LINE
  5
4FE
100
AcDbEntity
  8
2
100
AcDbLine
 10
-389.821666
 20
-69.966393
 30
0.0
 11
-314.073935
 21
-71.598094
 31
0.0
  0
ARC
  5
4FF
100
AcDbEntity
  8
2
100
AcDbCircle
 10
-399.885631
 20
-66.433977
 30
0.0
 40
6.5
100
AcDbArc
 50
0.0
 51
180.0
  0
ARC
  5
500
100
AcDbEntity
  8
2
100
AcDbCircle
 10
-409.385631
 20
-70.433977
 30
0.0
 40
3.0
100
AcDbArc
 50
270.0
 51
360.0
  0
ARC
  5
501
100
AcDbEntity
  8
2
100
AcDbCircle
 10
-390.385631
 20
-70.433977
 30
0.0
 40
3.0
100
AcDbArc
 50
180.0
 51
270.0
  0
LINE
  5
502
100
AcDbEntity
  8
2
100
AcDbLine
 10
-475.762787
 20
11.150398
 30
0.0
 11
-401.285993
 21
24.148663
 31
0.0
  0
LINE
  5
503
100
AcDbEntity
  8
2
100
AcDbLine
 10
-396.417967
 20
24.998268
 30
0.0
 11
-322.372137
 21
37.921319
 31
0.0
  0
ARC
  5
504
100
AcDbEntity
  8
2
100
AcDbCircle
 10
-312.885631
 20
-16.433977
 30
0.0
 40
60.0
100
AcDbArc
 50
0.0
 51
46.799266
  0
ARC
  5
505
100
AcDbEntity
  8
2
100
AcDbCircle
 10
-312.885631
 20
-16.433977
 30
0.0
 40
60.0
100
AcDbArc
 50
56.98558
 51
82.815375
  0
ARC
  5
506
100
AcDbEntity
  8
2
100
AcDbCircle
 10
-272.885631
 20
34.566023
 30
0.0
 40
6.5
100
AcDbArc
 50
199.707605
 51
264.077241
  0
ARC
  5
507
100
AcDbEntity
  8
2
100
AcDbCircle
 10
-273.865914
 20
25.116735
 30
0.0
 40
3.0
100
AcDbArc
 50
46.799266
 51
84.077241
  0
ARC
  5
508
100
AcDbEntity
  8
2
100
AcDbCircle
 10
-281.829176
 20
31.362431
 30
0.0
 40
3.0
100
AcDbArc
 50
19.707605
 51
56.98558
  0
ARC
  5
509
100
AcDbEntity
  8
2
100
AcDbCircle
 10
-309.885631
 20
-16.433977
 30
0.0
 40
57.0
100
AcDbArc
 50
270.0
 51
304.899005
  0
ARC
  5
50A
100
AcDbEntity
  8
2
100
AcDbCircle
 10
-309.885631
 20
-16.433977
 30
0.0
 40
57.0
100
AcDbArc
 50
315.900804
 51
360.0
  0
ARC
  5
50B
100
AcDbEntity
  8
2
100
AcDbCircle
 10
-269.885631
 20
-63.433977
 30
0.0
 40
6.5
100
AcDbArc
 50
97.382331
 51
163.417478
  0
ARC
  5
50C
100
AcDbEntity
  8
2
100
AcDbCircle
 10
-271.106284
 20
-54.012724
 30
0.0
 40
3.0
100
AcDbArc
 50
277.382331
 51
315.900804
  0
ARC
  5
50D
100
AcDbEntity
  8
2
100
AcDbCircle
 10
-278.990523
 20
-60.722714
 30
0.0
 40
3.0
100
AcDbArc
 50
304.899005
 51
343.417478
  0
ARC
  5
50E
100
AcDbEntity
  8
2
100
AcDbCircle
 10
-312.885631
 20
-16.433977
 30
0.0
 40
22.2
100
AcDbArc
 50
20.571635
 51
163.0
  0
ARC
  5
50F
100
AcDbEntity
  8
2
100
AcDbCircle
 10
-308.985631
 20
-16.433977
 30
0.0
 40
18.2
100
AcDbArc
 50
25.014065
 51
166.591995
  0
LINE
  5
510
100
AcDbEntity
  8
2
100
AcDbLine
 10
-294.775585
 20
-9.349968
 30
0.0
 11
-292.492718
 21
-8.738275
 31
0.0
  0
LINE
  5
511
100
AcDbEntity
  8
2
100
AcDbLine
 10
-292.101245
 20
-8.63338
 30
0.0
 11
-289.491034
 21
-7.933977
 31
0.0
  0
LINE
  5
512
100
AcDbEntity
  8
2
100
AcDbLine
 10
-290.685631
 20
-16.433977
 30
0.0
 11
-294.775585
 21
-9.349968
 31
0.0
  0
LINE
  5
513
100
AcDbEntity
  8
2
100
AcDbLine
 10
-290.685631
 20
-16.433977
 30
0.0
 11
-289.491034
 21
-7.933977
 31
0.0
  0
LINE
  5
514
100
AcDbEntity
  8
2
100
AcDbLine
 10
-326.689562
 20
-12.213691
 30
0.0
 11
-334.115596
 21
-9.943325
 31
0.0
  0
LINE
  5
515
100
AcDbEntity
  8
2
100
AcDbLine
 10
-473.385631
 20
-8.933977
 30
0.0
 11
-473.385631
 21
-26.433977
 31
0.0
  0
LINE
  5
516
100
AcDbEntity
  8
2
100
AcDbLine
 10
-461.718964
 20
-43.933977
 30
0.0
 11
-450.052298
 21
-43.933977
 31
0.0
  0
LINE
  5
517
100
AcDbEntity
  8
2
100
AcDbLine
 10
-473.385631
 20
-8.933977
 30
0.0
 11
-438.385631
 21
-8.933977
 31
0.0
  0
LINE
  5
518
100
AcDbEntity
  8
2
100
AcDbLine
 10
-473.385631
 20
-26.433977
 30
0.0
 11
-438.385631
 21
-8.933977
 31
0.0
  0
LINE
  5
519
100
AcDbEntity
  8
2
100
AcDbLine
 10
-461.718964
 20
-20.600643
 30
0.0
 11
-461.718964
 21
-43.933977
 31
0.0
  0
LINE
  5
51A
100
AcDbEntity
  8
2
100
AcDbLine
 10
-450.052298
 20
-20.600643
 30
0.0
 11
-450.052298
 21
-43.933977
 31
0.0
  0
LINE
  5
51B
100
AcDbEntity
  8
2
100
AcDbLine
 10
-473.385631
 20
-20.600643
 30
0.0
 11
-450.052298
 21
-20.600643
 31
0.0
  0
LINE
  5
51C
100
AcDbEntity
  8
2
100
AcDbLine
 10
-450.052298
 20
-14.76731
 30
0.0
 11
-473.385631
 21
-14.76731
 31
0.0
  0
LINE
  5
51D
100
AcDbEntity
  8
2
100
AcDbLine
 10
-450.052298
 20
-14.76731
 30
0.0
 11
-450.052298
 21
-8.933977
 31
0.0
  0
LINE
  5
51E
100
AcDbEntity
  8
2
100
AcDbLine
 10
-461.718964
 20
-20.600643
 30
0.0
 11
-461.718964
 21
-8.933977
 31
0.0
  0
LINE
  5
51F
100
AcDbEntity
  8
2
100
AcDbLine
 10
-450.052298
 20
-8.933977
 30
0.0
 11
-473.385631
 21
-20.600643
 31
0.0
  0
LINE
  5
520
100
AcDbEntity
  8
2
100
AcDbLine
 10
-461.718964
 20
-8.933977
 30
0.0
 11
-473.385631
 21
-14.76731
 31
0.0
  0
ARC
  5
521
100
AcDbEntity
  8
2
100
AcDbCircle
 10
-538.885631
 20
-81.433977
 30
0.0
 40
2.0
100
AcDbArc
 50
180.0
 51
270.0
  0
LINE
  5
522
100
AcDbEntity
  8
2
100
AcDbLine
 10
-425.885631
 20
-90.52252
 30
0.0
 11
-425.885631
 21
-96.433977
 31
0.0
  0
LINE
  5
523
100
AcDbEntity
  8
2
100
AcDbLine
 10
-323.885631
 20
-85.433977
 30
0.0
 11
-323.885631
 21
-96.433977
 31
0.0
  0
ARC
  5
524
100
AcDbEntity
  8
2
100
AcDbCircle
 10
-321.885631
 20
-85.433977
 30
0.0
 40
2.0
100
AcDbArc
 50
90.0
 51
180.0
  0
LINE
  5
525
100
AcDbEntity
  8
2
100
AcDbLine
 10
-282.885631
 20
-74.433977
 30
0.0
 11
-282.885631
 21
-81.433977
 31
0.0
  0
LINE
  5
526
100
AcDbEntity
  8
2
100
AcDbLine
 10
-283.635631
 20
-83.433977
 30
0.0
 11
-540.135631
 21
-83.433977
 31
0.0
  0
LINE
  5
527
100
AcDbEntity
  8
2
100
AcDbLine
 10
-449.885631
 20
57.566023
 30
0.0
 11
-289.885631
 21
57.566023
 31
0.0
  0
LINE
  5
528
100
AcDbEntity
  8
2
100
AcDbLine
 10
-249.885631
 20
15.566023
 30
0.0
 11
-249.885631
 21
-72.433977
 31
0.0
  0
LINE
  5
529
100
AcDbEntity
  8
2
100
AcDbLine
 10
-331.048996
 20
224.766023
 30
0.0
 11
-294.722266
 21
224.766023
 31
0.0
  0
LINE
  5
52A
100
AcDbEntity
  8
2
100
AcDbLine
 10
-325.350977
 20
212.766023
 30
0.0
 11
-300.420285
 21
212.766023
 31
0.0
  0
LINE
  5
52B
100
AcDbEntity
  8
2
100
AcDbLine
 10
-298.488433
 20
214.248385
 30
0.0
 11
-296.060686
 21
223.308861
 31
0.0
  0
LINE
  5
52C
100
AcDbEntity
  8
2
100
AcDbLine
 10
-289.892637
 20
228.471928
 30
0.0
 11
-289.675133
 21
229.283662
 31
0.0
  0
LINE
  5
52D
100
AcDbEntity
  8
2
100
AcDbLine
 10
-327.282829
 20
214.248385
 30
0.0
 11
-329.710576
 21
223.308861
 31
0.0
  0
LINE
  5
52E
100
AcDbEntity
  8
2
100
AcDbLine
 10
-335.878625
 20
228.471928
 30
0.0
 11
-336.096128
 21
229.283662
 31
0.0
  0
ARC
  5
52F
100
AcDbEntity
  8
2
100
AcDbCircle
 10
-294.722266
 20
229.766023
 30
0.0
 40
5.0
100
AcDbArc
 50
270.0
 51
345.0
  0
ARC
  5
530
100
AcDbEntity
  8
2
100
AcDbCircle
 10
-331.048996
 20
229.766023
 30
0.0
 40
5.0
100
AcDbArc
 50
195.0
 51
270.0
  0
ARC
  5
531
100
AcDbEntity
  8
2
100
AcDbCircle
 10
-300.420285
 20
214.766023
 30
0.0
 40
2.0
100
AcDbArc
 50
270.0
 51
345.0
  0
ARC
  5
532
100
AcDbEntity
  8
2
100
AcDbCircle
 10
-325.350977
 20
214.766023
 30
0.0
 40
2.0
100
AcDbArc
 50
195.0
 51
270.0
  0
ARC
  5
533
100
AcDbEntity
  8
2
100
AcDbCircle
 10
-294.128834
 20
222.791223
 30
0.0
 40
2.0
100
AcDbArc
 50
94.86314
 51
165.0
  0
ARC
  5
534
100
AcDbEntity
  8
2
100
AcDbCircle
 10
-287.743282
 20
228.766023
 30
0.0
 40
2.0
100
AcDbArc
 50
90.0
 51
165.0
  0
ARC
  5
535
100
AcDbEntity
  8
2
100
AcDbCircle
 10
-338.02798
 20
228.766023
 30
0.0
 40
2.0
100
AcDbArc
 50
15.0
 51
90.0
  0
ARC
  5
536
100
AcDbEntity
  8
2
100
AcDbCircle
 10
-331.642427
 20
222.791223
 30
0.0
 40
2.0
100
AcDbArc
 50
15.0
 51
85.13686
  0
ARC
  5
537
100
AcDbEntity
  8
2
100
AcDbCircle
 10
195.514369
 20
17.566023
 30
0.0
 40
2.0
100
AcDbArc
 50
180.0
 51
270.0
  0
ARC
  5
538
100
AcDbEntity
  8
2
100
AcDbCircle
 10
115.514369
 20
17.566023
 30
0.0
 40
2.0
100
AcDbArc
 50
270.0
 51
360.0
  0
ARC
  5
539
100
AcDbEntity
  8
2
100
AcDbCircle
 10
109.514369
 20
8.566023
 30
0.0
 40
7.0
100
AcDbArc
 50
90.0
 51
180.0
  0
ARC
  5
53A
100
AcDbEntity
  8
2
100
AcDbCircle
 10
207.514369
 20
8.566023
 30
0.0
 40
7.0
100
AcDbArc
 50
0.0
 51
90.0
  0
ARC
  5
53B
100
AcDbEntity
  8
2
100
AcDbCircle
 10
207.514369
 20
-65.433977
 30
0.0
 40
7.0
100
AcDbArc
 50
270.0
 51
360.0
  0
ARC
  5
53C
100
AcDbEntity
  8
2
100
AcDbCircle
 10
109.514369
 20
-65.433977
 30
0.0
 40
7.0
100
AcDbArc
 50
180.0
 51
270.0
  0
LINE
  5
53D
100
AcDbEntity
  8
2
100
AcDbLine
 10
188.514369
 20
-23.933977
 30
0.0
 11
188.514369
 21
-32.933977
 31
0.0
  0
LINE
  5
53E
100
AcDbEntity
  8
2
100
AcDbLine
 10
128.514369
 20
-23.933977
 30
0.0
 11
128.514369
 21
-32.933977
 31
0.0
  0
ARC
  5
53F
100
AcDbEntity
  8
2
100
AcDbCircle
 10
187.014369
 20
-23.933977
 30
0.0
 40
1.5
100
AcDbArc
 50
0.0
 51
90.0
  0
ARC
  5
540
100
AcDbEntity
  8
2
100
AcDbCircle
 10
130.014369
 20
-23.933977
 30
0.0
 40
1.5
100
AcDbArc
 50
90.0
 51
180.0
  0
ARC
  5
541
100
AcDbEntity
  8
2
100
AcDbCircle
 10
130.014369
 20
-32.933977
 30
0.0
 40
1.5
100
AcDbArc
 50
180.0
 51
270.0
  0
ARC
  5
542
100
AcDbEntity
  8
2
100
AcDbCircle
 10
187.014369
 20
-32.933977
 30
0.0
 40
1.5
100
AcDbArc
 50
270.0
 51
360.0
  0
LINE
  5
543
100
AcDbEntity
  8
2
100
AcDbLine
 10
105.514369
 20
57.566023
 30
0.0
 11
105.514369
 21
43.108913
 31
0.0
  0
LINE
  5
544
100
AcDbEntity
  8
2
100
AcDbLine
 10
203.514369
 20
51.566023
 30
0.0
 11
203.514369
 21
15.566023
 31
0.0
  0
ARC
  5
545
100
AcDbEntity
  8
2
100
AcDbCircle
 10
204.514369
 20
53.566023
 30
0.0
 40
1.0
100
AcDbArc
 50
270.0
 51
360.0
  0
ARC
  5
546
100
AcDbEntity
  8
2
100
AcDbCircle
 10
204.514369
 20
51.566023
 30
0.0
 40
1.0
100
AcDbArc
 50
90.0
 51
180.0
  0
LINE
  5
547
100
AcDbEntity
  8
2
100
AcDbLine
 10
-470.410245
 20
390.766023
 30
0.0
 11
-448.357767
 21
390.766023
 31
0.0
  0
ARC
  5
548
100
AcDbEntity
  8
2
100
AcDbCircle
 10
-457.057248
 20
384.766023
 30
0.0
 40
6.0
100
AcDbArc
 50
90.0
 51
180.0
  0
ARC
  5
549
100
AcDbEntity
  8
2
100
AcDbCircle
 10
-470.410245
 20
386.766023
 30
0.0
 40
4.0
100
AcDbArc
 50
90.0
 51
170.405932
  0
ARC
  5
54A
100
AcDbEntity
  8
2
100
AcDbCircle
 10
-467.919776
 20
392.766023
 30
0.0
 40
2.0
100
AcDbArc
 50
180.0
 51
270.0
  0
LINE
  5
54B
100
AcDbEntity
  8
2
100
AcDbLine
 10
-453.428118
 20
395.766023
 30
0.0
 11
-453.428118
 21
393.766023
 31
0.0
  0
ARC
  5
54C
100
AcDbEntity
  8
2
100
AcDbCircle
 10
-456.428118
 20
393.766023
 30
0.0
 40
3.0
100
AcDbArc
 50
270.0
 51
360.0
  0
LINE
  5
54D
100
AcDbEntity
  8
2
100
AcDbLine
 10
193.514369
 20
37.566023
 30
0.0
 11
193.514369
 21
17.566023
 31
0.0
  0
LINE
  5
54E
100
AcDbEntity
  8
2
100
AcDbLine
 10
117.514369
 20
37.566023
 30
0.0
 11
117.514369
 21
17.566023
 31
0.0
  0
LINE
  5
54F
100
AcDbEntity
  8
2
100
AcDbLine
 10
109.514369
 20
15.566023
 30
0.0
 11
207.514369
 21
15.566023
 31
0.0
  0
LINE
  5
550
100
AcDbEntity
  8
2
100
AcDbLine
 10
102.514369
 20
-65.433977
 30
0.0
 11
102.514369
 21
8.566023
 31
0.0
  0
LINE
  5
551
100
AcDbEntity
  8
2
100
AcDbLine
 10
207.514369
 20
-72.433977
 30
0.0
 11
109.514369
 21
-72.433977
 31
0.0
  0
LINE
  5
552
100
AcDbEntity
  8
2
100
AcDbLine
 10
214.514369
 20
8.566023
 30
0.0
 11
214.514369
 21
-65.433977
 31
0.0
  0
LINE
  5
553
100
AcDbEntity
  8
2
100
AcDbLine
 10
205.514369
 20
57.566023
 30
0.0
 11
105.514369
 21
57.566023
 31
0.0
  0
LINE
  5
554
100
AcDbEntity
  8
2
100
AcDbLine
 10
205.514369
 20
57.566023
 30
0.0
 11
205.514369
 21
53.566023
 31
0.0
  0
LINE
  5
555
100
AcDbEntity
  8
2
100
AcDbLine
 10
187.014369
 20
-22.433977
 30
0.0
 11
130.014369
 21
-22.433977
 31
0.0
  0
LINE
  5
556
100
AcDbEntity
  8
2
100
AcDbLine
 10
130.014369
 20
-34.433977
 30
0.0
 11
187.014369
 21
-34.433977
 31
0.0
  0
LINE
  5
557
100
AcDbEntity
  8
2
100
AcDbLine
 10
106.514369
 20
35.150342
 30
0.0
 11
106.514369
 21
18.566023
 31
0.0
  0
LINE
  5
558
100
AcDbEntity
  8
2
100
AcDbLine
 10
62.514369
 20
45.467399
 30
0.0
 11
75.514369
 21
45.467399
 31
0.0
  0
ARC
  5
559
100
AcDbEntity
  8
2
100
AcDbCircle
 10
75.514369
 20
44.467399
 30
0.0
 40
1.0
100
AcDbArc
 50
0.0
 51
90.0
  0
ARC
  5
55A
100
AcDbEntity
  8
2
100
AcDbCircle
 10
-284.885631
 20
-81.433977
 30
0.0
 40
2.0
100
AcDbArc
 50
270.0
 51
360.0
  0
LINE
  5
55B
100
AcDbEntity
  8
2
100
AcDbLine
 10
77.462033
 20
41.417734
 30
0.0
 11
101.776049
 21
40.14349
 31
0.0
  0
ARC
  5
55C
100
AcDbEntity
  8
2
100
AcDbCircle
 10
77.514369
 20
42.416363
 30
0.0
 40
1.0
100
AcDbArc
 50
180.0
 51
267.0
  0
ARC
  5
55D
100
AcDbEntity
  8
2
100
AcDbCircle
 10
101.514369
 20
35.150342
 30
0.0
 40
5.0
100
AcDbArc
 50
360.0
 51
87.0
  0
ARC
  5
55E
100
AcDbEntity
  8
2
100
AcDbCircle
 10
-464.184783
 20
298.766023
 30
0.0
 40
4.0
100
AcDbArc
 50
360.0
 51
90.0
  0
ARC
  5
55F
100
AcDbEntity
  8
2
100
AcDbCircle
 10
109.514369
 20
18.566023
 30
0.0
 40
3.0
100
AcDbArc
 50
180.0
 51
270.0
  0
LINE
  5
560
100
AcDbEntity
  8
2
100
AcDbLine
 10
77.514369
 20
-69.433977
 30
0.0
 11
103.269371
 21
-69.433977
 31
0.0
  0
ARC
  5
561
100
AcDbEntity
  8
2
100
AcDbCircle
 10
75.514369
 20
-72.433977
 30
0.0
 40
1.0
100
AcDbArc
 50
270.0
 51
360.0
  0
ARC
  5
562
100
AcDbEntity
  8
2
100
AcDbCircle
 10
77.514369
 20
-70.433977
 30
0.0
 40
1.0
100
AcDbArc
 50
90.0
 51
180.0
  0
ARC
  5
563
100
AcDbEntity
  8
2
100
AcDbCircle
 10
103.269371
 20
-70.433977
 30
0.0
 40
1.0
100
AcDbArc
 50
38.682187
 51
90.0
  0
LINE
  5
564
100
AcDbEntity
  8
2
100
AcDbLine
 10
85.514369
 20
-70.433977
 30
0.0
 11
85.514369
 21
-81.433977
 31
0.0
  0
LINE
  5
565
100
AcDbEntity
  8
2
100
AcDbLine
 10
219.514369
 20
-56.433977
 30
0.0
 11
219.514369
 21
-81.433977
 31
0.0
  0
ARC
  5
566
100
AcDbEntity
  8
2
100
AcDbCircle
 10
217.514369
 20
-81.433977
 30
0.0
 40
2.0
100
AcDbArc
 50
270.0
 51
360.0
  0
ARC
  5
567
100
AcDbEntity
  8
2
100
AcDbCircle
 10
87.514369
 20
-81.433977
 30
0.0
 40
2.0
100
AcDbArc
 50
180.0
 51
270.0
  0
ARC
  5
568
100
AcDbEntity
  8
2
100
AcDbCircle
 10
84.514369
 20
-70.433977
 30
0.0
 40
1.0
100
AcDbArc
 50
0.0
 51
90.0
  0
LINE
  5
569
100
AcDbEntity
  8
2
100
AcDbLine
 10
101.514369
 20
-85.433977
 30
0.0
 11
101.514369
 21
-96.433977
 31
0.0
  0
LINE
  5
56A
100
AcDbEntity
  8
2
100
AcDbLine
 10
203.514369
 20
-85.433977
 30
0.0
 11
203.514369
 21
-96.433977
 31
0.0
  0
ARC
  5
56B
100
AcDbEntity
  8
2
100
AcDbCircle
 10
205.514369
 20
-85.433977
 30
0.0
 40
2.0
100
AcDbArc
 50
128.682187
 51
180.0
  0
ARC
  5
56C
100
AcDbEntity
  8
2
100
AcDbCircle
 10
99.514369
 20
-85.433977
 30
0.0
 40
2.0
100
AcDbArc
 50
0.0
 51
51.317813
  0
LINE
  5
56D
100
AcDbEntity
  8
2
100
AcDbLine
 10
211.514369
 20
2.066023
 30
0.0
 11
207.514369
 21
2.066023
 31
0.0
  0
LINE
  5
56E
100
AcDbEntity
  8
2
100
AcDbLine
 10
201.014369
 20
8.566023
 30
0.0
 11
201.014369
 21
12.566023
 31
0.0
  0
LINE
  5
56F
100
AcDbEntity
  8
2
100
AcDbLine
 10
211.514369
 20
-58.933977
 30
0.0
 11
207.514369
 21
-58.933977
 31
0.0
  0
LINE
  5
570
100
AcDbEntity
  8
2
100
AcDbLine
 10
201.014369
 20
-65.433977
 30
0.0
 11
201.014369
 21
-69.433977
 31
0.0
  0
LINE
  5
571
100
AcDbEntity
  8
2
100
AcDbLine
 10
105.514369
 20
-58.933977
 30
0.0
 11
109.514369
 21
-58.933977
 31
0.0
  0
LINE
  5
572
100
AcDbEntity
  8
2
100
AcDbLine
 10
116.014369
 20
-65.433977
 30
0.0
 11
116.014369
 21
-69.433977
 31
0.0
  0
LINE
  5
573
100
AcDbEntity
  8
2
100
AcDbLine
 10
105.514369
 20
2.066023
 30
0.0
 11
109.514369
 21
2.066023
 31
0.0
  0
LINE
  5
574
100
AcDbEntity
  8
2
100
AcDbLine
 10
116.014369
 20
8.566023
 30
0.0
 11
116.014369
 21
12.566023
 31
0.0
  0
ARC
  5
575
100
AcDbEntity
  8
2
100
AcDbCircle
 10
198.014369
 20
12.566023
 30
0.0
 40
3.0
100
AcDbArc
 50
0.0
 51
90.0
  0
ARC
  5
576
100
AcDbEntity
  8
2
100
AcDbCircle
 10
211.514369
 20
-0.933977
 30
0.0
 40
3.0
100
AcDbArc
 50
0.0
 51
90.0
  0
ARC
  5
577
100
AcDbEntity
  8
2
100
AcDbCircle
 10
211.514369
 20
-55.933977
 30
0.0
 40
3.0
100
AcDbArc
 50
270.0
 51
360.0
  0
ARC
  5
578
100
AcDbEntity
  8
2
100
AcDbCircle
 10
198.014369
 20
-69.433977
 30
0.0
 40
3.0
100
AcDbArc
 50
270.0
 51
360.0
  0
ARC
  5
579
100
AcDbEntity
  8
2
100
AcDbCircle
 10
119.014369
 20
-69.433977
 30
0.0
 40
3.0
100
AcDbArc
 50
180.0
 51
270.0
  0
ARC
  5
57A
100
AcDbEntity
  8
2
100
AcDbCircle
 10
105.514369
 20
-55.933977
 30
0.0
 40
3.0
100
AcDbArc
 50
180.0
 51
270.0
  0
ARC
  5
57B
100
AcDbEntity
  8
2
100
AcDbCircle
 10
105.514369
 20
-0.933977
 30
0.0
 40
3.0
100
AcDbArc
 50
90.0
 51
180.0
  0
ARC
  5
57C
100
AcDbEntity
  8
2
100
AcDbCircle
 10
119.014369
 20
12.566023
 30
0.0
 40
3.0
100
AcDbArc
 50
90.0
 51
180.0
  0
ARC
  5
57D
100
AcDbEntity
  8
2
100
AcDbCircle
 10
207.514369
 20
8.566023
 30
0.0
 40
6.5
100
AcDbArc
 50
180.0
 51
270.0
  0
ARC
  5
57E
100
AcDbEntity
  8
2
100
AcDbCircle
 10
207.514369
 20
-65.433977
 30
0.0
 40
6.5
100
AcDbArc
 50
90.0
 51
180.0
  0
ARC
  5
57F
100
AcDbEntity
  8
2
100
AcDbCircle
 10
109.514369
 20
-65.433977
 30
0.0
 40
6.5
100
AcDbArc
 50
360.0
 51
90.0
  0
ARC
  5
580
100
AcDbEntity
  8
2
100
AcDbCircle
 10
109.514369
 20
8.566023
 30
0.0
 40
6.5
100
AcDbArc
 50
270.0
 51
0.0
  0
LINE
  5
581
100
AcDbEntity
  8
2
100
AcDbLine
 10
214.514369
 20
-54.433977
 30
0.0
 11
217.514369
 21
-54.433977
 31
0.0
  0
ARC
  5
582
100
AcDbEntity
  8
2
100
AcDbCircle
 10
217.514369
 20
-56.433977
 30
0.0
 40
2.0
100
AcDbArc
 50
0.0
 51
90.0
  0
LINE
  5
583
100
AcDbEntity
  8
2
100
AcDbLine
 10
214.514369
 20
-0.433977
 30
0.0
 11
226.514369
 21
-0.433977
 31
0.0
  0
LINE
  5
584
100
AcDbEntity
  8
2
100
AcDbLine
 10
214.514369
 20
-32.433977
 30
0.0
 11
226.514369
 21
-32.433977
 31
0.0
  0
ARC
  5
585
100
AcDbEntity
  8
2
100
AcDbCircle
 10
226.514369
 20
-29.433977
 30
0.0
 40
3.0
100
AcDbArc
 50
270.0
 51
360.0
  0
ARC
  5
586
100
AcDbEntity
  8
2
100
AcDbCircle
 10
226.514369
 20
-3.433977
 30
0.0
 40
3.0
100
AcDbArc
 50
0.0
 51
90.0
  0
LINE
  5
587
100
AcDbEntity
  8
2
100
AcDbLine
 10
219.514369
 20
-70.376177
 30
0.0
 11
229.427221
 21
-30.151817
 31
0.0
  0
LINE
  5
588
100
AcDbEntity
  8
2
100
AcDbLine
 10
203.514369
 20
26.566023
 30
0.0
 11
228.514369
 21
26.566023
 31
0.0
  0
LINE
  5
589
100
AcDbEntity
  8
2
100
AcDbLine
 10
228.514369
 20
26.566023
 30
0.0
 11
229.514369
 21
25.566023
 31
0.0
  0
LINE
  5
58A
100
AcDbEntity
  8
2
100
AcDbLine
 10
221.718076
 20
-61.433977
 30
0.0
 11
228.514369
 21
-61.433977
 31
0.0
  0
LINE
  5
58B
100
AcDbEntity
  8
2
100
AcDbLine
 10
228.514369
 20
-61.433977
 30
0.0
 11
229.514369
 21
-60.433977
 31
0.0
  0
LINE
  5
58C
100
AcDbEntity
  8
2
100
AcDbLine
 10
203.514369
 20
17.766023
 30
0.0
 11
228.514369
 21
17.766023
 31
0.0
  0
LINE
  5
58D
100
AcDbEntity
  8
2
100
AcDbLine
 10
228.514369
 20
-61.433977
 30
0.0
 11
228.514369
 21
-38.933977
 31
0.0
  0
LINE
  5
58E
100
AcDbEntity
  8
2
100
AcDbLine
 10
228.514369
 20
-1.197909
 30
0.0
 11
228.514369
 21
26.566023
 31
0.0
  0
LINE
  5
58F
100
AcDbEntity
  8
2
100
AcDbLine
 10
228.514369
 20
17.766023
 30
0.0
 11
229.514369
 21
16.766023
 31
0.0
  0
LINE
  5
590
100
AcDbEntity
  8
2
100
AcDbLine
 10
237.514369
 20
-35.757477
 30
0.0
 11
236.837869
 21
-36.433977
 31
0.0
  0
LINE
  5
591
100
AcDbEntity
  8
2
100
AcDbLine
 10
236.837869
 20
-36.433977
 30
0.0
 11
233.014369
 21
-36.433977
 31
0.0
  0
LINE
  5
592
100
AcDbEntity
  8
2
 62
     2
100
AcDbLine
 10
237.514369
 20
-35.757477
 30
0.0
 11
233.014369
 21
-35.757477
 31
0.0
  0
LINE
  5
593
100
AcDbEntity
  8
2
100
AcDbLine
 10
237.514369
 20
-35.757477
 30
0.0
 11
237.514369
 21
-29.110477
 31
0.0
  0
LINE
  5
594
100
AcDbEntity
  8
2
100
AcDbLine
 10
237.514369
 20
-29.110477
 30
0.0
 11
236.837869
 21
-28.433977
 31
0.0
  0
LINE
  5
595
100
AcDbEntity
  8
2
100
AcDbLine
 10
236.837869
 20
-28.433977
 30
0.0
 11
232.977654
 21
-28.433977
 31
0.0
  0
LINE
  5
596
100
AcDbEntity
  8
2
100
AcDbLine
 10
236.837869
 20
-28.433977
 30
0.0
 11
236.837869
 21
-36.433977
 31
0.0
  0
LINE
  5
597
100
AcDbEntity
  8
2
 62
     2
100
AcDbLine
 10
237.514369
 20
-29.110477
 30
0.0
 11
233.014369
 21
-29.110477
 31
0.0
  0
LINE
  5
598
100
AcDbEntity
  8
2
100
AcDbLine
 10
229.514369
 20
-25.933977
 30
0.0
 11
233.014369
 21
-25.933977
 31
0.0
  0
ARC
  5
599
100
AcDbEntity
  8
2
100
AcDbCircle
 10
225.335611
 20
-29.183977
 30
0.0
 40
7.678759
100
AcDbArc
 50
334.96034
 51
25.03966
  0
LINE
  5
59A
100
AcDbEntity
  8
2
100
AcDbLine
 10
227.262954
 20
-38.933977
 30
0.0
 11
233.014369
 21
-38.933977
 31
0.0
  0
LINE
  5
59B
100
AcDbEntity
  8
2
100
AcDbLine
 10
233.014369
 20
-38.933977
 30
0.0
 11
233.014369
 21
-25.933977
 31
0.0
  0
LINE
  5
59C
100
AcDbEntity
  8
2
100
AcDbLine
 10
228.864808
 20
-32.433977
 30
0.0
 11
232.292681
 21
-32.433977
 31
0.0
  0
ARC
  5
59D
100
AcDbEntity
  8
2
100
AcDbCircle
 10
225.335611
 20
-35.683977
 30
0.0
 40
7.678759
100
AcDbArc
 50
334.96034
 51
25.03966
  0
ARC
  5
59E
100
AcDbEntity
  8
2
100
AcDbCircle
 10
102.514369
 20
43.108913
 30
0.0
 40
3.0
100
AcDbArc
 50
267.0
 51
360.0
  0
LINE
  5
59F
100
AcDbEntity
  8
2
100
AcDbLine
 10
61.514369
 20
44.467399
 30
0.0
 11
61.514369
 21
-72.433977
 31
0.0
  0
ARC
  5
5A0
100
AcDbEntity
  8
2
100
AcDbCircle
 10
62.514369
 20
44.467399
 30
0.0
 40
1.0
100
AcDbArc
 50
90.0
 51
180.0
  0
ARC
  5
5A1
100
AcDbEntity
  8
2
100
AcDbCircle
 10
62.514369
 20
-72.433977
 30
0.0
 40
1.0
100
AcDbArc
 50
180.0
 51
270.0
  0
LINE
  5
5A2
100
AcDbEntity
  8
2
100
AcDbLine
 10
43.514369
 20
34.894966
 30
0.0
 11
43.514369
 21
-67.091724
 31
0.0
  0
LINE
  5
5A3
100
AcDbEntity
  8
2
100
AcDbLine
 10
61.514369
 20
43.511062
 30
0.0
 11
47.234049
 21
39.728265
 31
0.0
  0
LINE
  5
5A4
100
AcDbEntity
  8
2
100
AcDbLine
 10
61.514369
 20
-73.433977
 30
0.0
 11
48.010534
 21
-72.066274
 31
0.0
  0
ARC
  5
5A5
100
AcDbEntity
  8
2
100
AcDbCircle
 10
48.514369
 20
34.894966
 30
0.0
 40
5.0
100
AcDbArc
 50
104.836646
 51
180.0
  0
ARC
  5
5A6
100
AcDbEntity
  8
2
100
AcDbCircle
 10
48.514369
 20
-67.091724
 30
0.0
 40
5.0
100
AcDbArc
 50
180.0
 51
264.21666
  0
LINE
  5
5A7
100
AcDbEntity
  8
2
100
AcDbLine
 10
37.514369
 20
1.729389
 30
0.0
 11
37.514369
 21
-34.597342
 31
0.0
  0
LINE
  5
5A8
100
AcDbEntity
  8
2
100
AcDbLine
 10
25.514369
 20
-3.96863
 30
0.0
 11
25.514369
 21
-28.899323
 31
0.0
  0
LINE
  5
5A9
100
AcDbEntity
  8
2
100
AcDbLine
 10
26.996731
 20
-2.036779
 30
0.0
 11
36.057207
 21
0.390968
 31
0.0
  0
LINE
  5
5AA
100
AcDbEntity
  8
2
100
AcDbLine
 10
41.220274
 20
6.559018
 30
0.0
 11
42.032007
 21
6.776521
 31
0.0
  0
LINE
  5
5AB
100
AcDbEntity
  8
2
100
AcDbLine
 10
26.996731
 20
-30.831174
 30
0.0
 11
36.057207
 21
-33.258921
 31
0.0
  0
LINE
  5
5AC
100
AcDbEntity
  8
2
100
AcDbLine
 10
41.220274
 20
-39.426971
 30
0.0
 11
42.032007
 21
-39.644474
 31
0.0
  0
ARC
  5
5AD
100
AcDbEntity
  8
2
100
AcDbCircle
 10
42.514369
 20
1.729389
 30
0.0
 40
5.0
100
AcDbArc
 50
105.0
 51
180.0
  0
ARC
  5
5AE
100
AcDbEntity
  8
2
100
AcDbCircle
 10
42.514369
 20
-34.597342
 30
0.0
 40
5.0
100
AcDbArc
 50
180.0
 51
255.0
  0
ARC
  5
5AF
100
AcDbEntity
  8
2
100
AcDbCircle
 10
27.514369
 20
-3.96863
 30
0.0
 40
2.0
100
AcDbArc
 50
105.0
 51
180.0
  0
ARC
  5
5B0
100
AcDbEntity
  8
2
100
AcDbCircle
 10
27.514369
 20
-28.899323
 30
0.0
 40
2.0
100
AcDbArc
 50
180.0
 51
255.0
  0
ARC
  5
5B1
100
AcDbEntity
  8
2
100
AcDbCircle
 10
41.514369
 20
8.708373
 30
0.0
 40
2.0
100
AcDbArc
 50
285.0
 51
360.0
  0
ARC
  5
5B2
100
AcDbEntity
  8
2
100
AcDbCircle
 10
41.514369
 20
-41.576326
 30
0.0
 40
2.0
100
AcDbArc
 50
0.0
 51
75.0
  0
ARC
  5
5B3
100
AcDbEntity
  8
2
100
AcDbCircle
 10
35.539569
 20
-35.190773
 30
0.0
 40
2.0
100
AcDbArc
 50
4.86314
 51
75.0
  0
ARC
  5
5B4
100
AcDbEntity
  8
2
100
AcDbCircle
 10
35.539569
 20
2.32282
 30
0.0
 40
2.0
100
AcDbArc
 50
285.0
 51
355.13686
  0
LINE
  5
5B5
100
AcDbEntity
  8
2
100
AcDbLine
 10
78.514369
 20
38.566023
 30
0.0
 11
91.514369
 21
38.566023
 31
0.0
  0
LINE
  5
5B6
100
AcDbEntity
  8
2
100
AcDbLine
 10
78.514369
 20
30.566023
 30
0.0
 11
91.514369
 21
30.566023
 31
0.0
  0
LINE
  5
5B7
100
AcDbEntity
  8
2
100
AcDbLine
 10
78.514369
 20
-59.433977
 30
0.0
 11
91.514369
 21
-59.433977
 31
0.0
  0
LINE
  5
5B8
100
AcDbEntity
  8
2
100
AcDbLine
 10
78.514369
 20
-67.433977
 30
0.0
 11
91.514369
 21
-67.433977
 31
0.0
  0
ARC
  5
5B9
100
AcDbEntity
  8
2
100
AcDbCircle
 10
91.514369
 20
34.566023
 30
0.0
 40
4.0
100
AcDbArc
 50
270.0
 51
90.0
  0
ARC
  5
5BA
100
AcDbEntity
  8
2
100
AcDbCircle
 10
91.514369
 20
-63.433977
 30
0.0
 40
4.0
100
AcDbArc
 50
270.0
 51
90.0
  0
ARC
  5
5BB
100
AcDbEntity
  8
2
100
AcDbCircle
 10
78.514369
 20
40.566023
 30
0.0
 40
2.0
100
AcDbArc
 50
180.0
 51
270.0
  0
ARC
  5
5BC
100
AcDbEntity
  8
2
100
AcDbCircle
 10
78.514369
 20
28.566023
 30
0.0
 40
2.0
100
AcDbArc
 50
90.0
 51
180.0
  0
ARC
  5
5BD
100
AcDbEntity
  8
2
100
AcDbCircle
 10
78.514369
 20
-57.433977
 30
0.0
 40
2.0
100
AcDbArc
 50
180.0
 51
270.0
  0
ARC
  5
5BE
100
AcDbEntity
  8
2
100
AcDbCircle
 10
78.514369
 20
-69.433977
 30
0.0
 40
2.0
100
AcDbArc
 50
90.0
 51
180.0
  0
ARC
  5
5BF
100
AcDbEntity
  8
2
100
AcDbCircle
 10
-399.885631
 20
-66.433977
 30
0.0
 40
7.128574
100
AcDbArc
 50
0.0
 51
180.0
  0
LINE
  5
5C0
100
AcDbEntity
  8
2
100
AcDbLine
 10
-392.757057
 20
-66.433977
 30
0.0
 11
-392.757057
 21
-66.967089
 31
0.0
  0
LINE
  5
5C1
100
AcDbEntity
  8
2
100
AcDbLine
 10
-407.014205
 20
-66.433977
 30
0.0
 11
-407.014205
 21
-66.530724
 31
0.0
  0
ARC
  5
5C2
100
AcDbEntity
  8
2
100
AcDbCircle
 10
-389.757057
 20
-66.967089
 30
0.0
 40
3.0
100
AcDbArc
 50
180.0
 51
268.765968
  0
ARC
  5
5C3
100
AcDbEntity
  8
2
100
AcDbCircle
 10
-410.014205
 20
-66.530724
 30
0.0
 40
3.0
100
AcDbArc
 50
268.765968
 51
360.0
  0
LINE
  5
5C4
100
AcDbEntity
  8
2
100
AcDbLine
 10
-393.764328
 20
237.06928
 30
0.0
 11
-393.764328
 21
248.766023
 31
0.0
  0
LINE
  5
5C5
100
AcDbEntity
  8
2
100
AcDbLine
 10
-406.37084
 20
237.06928
 30
0.0
 11
-406.37084
 21
248.766023
 31
0.0
  0
ARC
  5
5C6
100
AcDbEntity
  8
2
100
AcDbCircle
 10
-400.067584
 20
237.06928
 30
0.0
 40
6.303256
100
AcDbArc
 50
180.0
 51
360.0
  0
ARC
  5
5C7
100
AcDbEntity
  8
2
100
AcDbCircle
 10
-521.009987
 20
245.766023
 30
0.0
 40
3.0
100
AcDbArc
 50
30.0
 51
90.0
  0
ARC
  5
5C8
100
AcDbEntity
  8
2
100
AcDbCircle
 10
-505.99888
 20
235.766023
 30
0.0
 40
5.0
100
AcDbArc
 50
210.0
 51
270.0
  0
CIRCLE
  5
5C9
100
AcDbEntity
  8
2
100
AcDbCircle
 10
-534.885631
 20
-21.433977
 30
0.0
 40
5.25
  0
CIRCLE
  5
5CA
100
AcDbEntity
  8
2
100
AcDbCircle
 10
-534.885631
 20
-21.433977
 30
0.0
 40
5.25
  0
CIRCLE
  5
5CB
100
AcDbEntity
  8
2
100
AcDbCircle
 10
-534.885631
 20
-21.433977
 30
0.0
 40
5.75
  0
CIRCLE
  5
5CC
100
AcDbEntity
  8
2
100
AcDbCircle
 10
-399.885631
 20
30.496023
 30
0.0
 40
5.25
  0
CIRCLE
  5
5CD
100
AcDbEntity
  8
2
100
AcDbCircle
 10
-399.885631
 20
30.496023
 30
0.0
 40
5.25
  0
CIRCLE
  5
5CE
100
AcDbEntity
  8
2
100
AcDbCircle
 10
-399.885631
 20
30.496023
 30
0.0
 40
5.75
  0
CIRCLE
  5
5CF
100
AcDbEntity
  8
2
100
AcDbCircle
 10
-399.885631
 20
-66.433977
 30
0.0
 40
5.25
  0
CIRCLE
  5
5D0
100
AcDbEntity
  8
2
100
AcDbCircle
 10
-399.885631
 20
-66.433977
 30
0.0
 40
5.25
  0
CIRCLE
  5
5D1
100
AcDbEntity
  8
2
100
AcDbCircle
 10
-399.885631
 20
-66.433977
 30
0.0
 40
5.75
  0
CIRCLE
  5
5D2
100
AcDbEntity
  8
2
100
AcDbCircle
 10
-272.885631
 20
34.566023
 30
0.0
 40
5.25
  0
CIRCLE
  5
5D3
100
AcDbEntity
  8
2
100
AcDbCircle
 10
-272.885631
 20
34.566023
 30
0.0
 40
5.25
  0
CIRCLE
  5
5D4
100
AcDbEntity
  8
2
100
AcDbCircle
 10
-272.885631
 20
34.566023
 30
0.0
 40
5.75
  0
CIRCLE
  5
5D5
100
AcDbEntity
  8
2
100
AcDbCircle
 10
-269.885631
 20
-63.433977
 30
0.0
 40
5.25
  0
CIRCLE
  5
5D6
100
AcDbEntity
  8
2
100
AcDbCircle
 10
-269.885631
 20
-63.433977
 30
0.0
 40
5.25
  0
CIRCLE
  5
5D7
100
AcDbEntity
  8
2
100
AcDbCircle
 10
-269.885631
 20
-63.433977
 30
0.0
 40
5.75
  0
CIRCLE
  5
5D8
100
AcDbEntity
  8
2
100
AcDbCircle
 10
109.514369
 20
8.566023
 30
0.0
 40
5.25
  0
CIRCLE
  5
5D9
100
AcDbEntity
  8
2
100
AcDbCircle
 10
109.514369
 20
8.566023
 30
0.0
 40
5.25
  0
CIRCLE
  5
5DA
100
AcDbEntity
  8
2
100
AcDbCircle
 10
109.514369
 20
8.566023
 30
0.0
 40
5.75
  0
CIRCLE
  5
5DB
100
AcDbEntity
  8
2
100
AcDbCircle
 10
207.514369
 20
8.566023
 30
0.0
 40
5.25
  0
CIRCLE
  5
5DC
100
AcDbEntity
  8
2
100
AcDbCircle
 10
207.514369
 20
8.566023
 30
0.0
 40
5.25
  0
CIRCLE
  5
5DD
100
AcDbEntity
  8
2
100
AcDbCircle
 10
207.514369
 20
8.566023
 30
0.0
 40
5.75
  0
CIRCLE
  5
5DE
100
AcDbEntity
  8
2
100
AcDbCircle
 10
109.514369
 20
-65.433977
 30
0.0
 40
5.25
  0
CIRCLE
  5
5DF
100
AcDbEntity
  8
2
100
AcDbCircle
 10
109.514369
 20
-65.433977
 30
0.0
 40
5.25
  0
CIRCLE
  5
5E0
100
AcDbEntity
  8
2
100
AcDbCircle
 10
109.514369
 20
-65.433977
 30
0.0
 40
5.75
  0
CIRCLE
  5
5E1
100
AcDbEntity
  8
2
100
AcDbCircle
 10
207.514369
 20
-65.433977
 30
0.0
 40
5.25
  0
CIRCLE
  5
5E2
100
AcDbEntity
  8
2
100
AcDbCircle
 10
207.514369
 20
-65.433977
 30
0.0
 40
5.25
  0
CIRCLE
  5
5E3
100
AcDbEntity
  8
2
100
AcDbCircle
 10
207.514369
 20
-65.433977
 30
0.0
 40
5.75
  0
LINE
  5
5E4
100
AcDbEntity
  8
2
100
AcDbLine
 10
-243.385631
 20
-71.183977
 30
0.0
 11
-243.385631
 21
-59.683977
 31
0.0
  0
LINE
  5
5E5
100
AcDbEntity
  8
2
100
AcDbLine
 10
-243.385631
 20
-59.683977
 30
0.0
 11
-244.885631
 21
-59.683977
 31
0.0
  0
LINE
  5
5E6
100
AcDbEntity
  8
2
100
AcDbLine
 10
-243.385631
 20
-71.183977
 30
0.0
 11
-244.885631
 21
-71.183977
 31
0.0
  0
LINE
  5
5E7
100
AcDbEntity
  8
2
100
AcDbLine
 10
-241.858615
 20
-60.183977
 30
0.0
 11
-243.385631
 21
-60.183977
 31
0.0
  0
LINE
  5
5E8
100
AcDbEntity
  8
2
100
AcDbLine
 10
-241.858615
 20
-70.683977
 30
0.0
 11
-243.385631
 21
-70.683977
 31
0.0
  0
ARC
  5
5E9
100
AcDbEntity
  8
2
100
AcDbCircle
 10
-253.485631
 20
-65.433977
 30
0.0
 40
14.0
100
AcDbArc
 50
343.927141
 51
16.072859
  0
ARC
  5
5EA
100
AcDbEntity
  8
2
100
AcDbCircle
 10
-241.858615
 20
-68.783977
 30
0.0
 40
1.9
100
AcDbArc
 50
270.0
 51
343.927141
  0
ARC
  5
5EB
100
AcDbEntity
  8
2
100
AcDbCircle
 10
-241.858615
 20
-62.083977
 30
0.0
 40
1.9
100
AcDbArc
 50
16.072859
 51
90.0
  0
LINE
  5
5EC
100
AcDbEntity
  8
2
100
AcDbLine
 10
-243.385631
 20
2.816023
 30
0.0
 11
-243.385631
 21
14.316023
 31
0.0
  0
LINE
  5
5ED
100
AcDbEntity
  8
2
100
AcDbLine
 10
-243.385631
 20
14.316023
 30
0.0
 11
-244.885631
 21
14.316023
 31
0.0
  0
LINE
  5
5EE
100
AcDbEntity
  8
2
100
AcDbLine
 10
-243.385631
 20
2.816023
 30
0.0
 11
-244.885631
 21
2.816023
 31
0.0
  0
LINE
  5
5EF
100
AcDbEntity
  8
2
100
AcDbLine
 10
-241.858615
 20
13.816023
 30
0.0
 11
-243.385631
 21
13.816023
 31
0.0
  0
LINE
  5
5F0
100
AcDbEntity
  8
2
100
AcDbLine
 10
-241.858615
 20
3.316023
 30
0.0
 11
-243.385631
 21
3.316023
 31
0.0
  0
ARC
  5
5F1
100
AcDbEntity
  8
2
100
AcDbCircle
 10
-253.485631
 20
8.566023
 30
0.0
 40
14.0
100
AcDbArc
 50
343.927141
 51
16.072859
  0
ARC
  5
5F2
100
AcDbEntity
  8
2
100
AcDbCircle
 10
-241.858615
 20
5.216023
 30
0.0
 40
1.9
100
AcDbArc
 50
270.0
 51
343.927141
  0
ARC
  5
5F3
100
AcDbEntity
  8
2
100
AcDbCircle
 10
-241.858615
 20
11.916023
 30
0.0
 40
1.9
100
AcDbArc
 50
16.072859
 51
90.0
  0
LINE
  5
5F4
100
AcDbEntity
  8
2
100
AcDbLine
 10
-243.385631
 20
389.016023
 30
0.0
 11
-243.385631
 21
400.516023
 31
0.0
  0
LINE
  5
5F5
100
AcDbEntity
  8
2
100
AcDbLine
 10
-243.385631
 20
400.516023
 30
0.0
 11
-244.885631
 21
400.516023
 31
0.0
  0
LINE
  5
5F6
100
AcDbEntity
  8
2
100
AcDbLine
 10
-243.385631
 20
389.016023
 30
0.0
 11
-244.885631
 21
389.016023
 31
0.0
  0
LINE
  5
5F7
100
AcDbEntity
  8
2
100
AcDbLine
 10
-241.858615
 20
400.016023
 30
0.0
 11
-243.385631
 21
400.016023
 31
0.0
  0
LINE
  5
5F8
100
AcDbEntity
  8
2
100
AcDbLine
 10
-241.858615
 20
389.516023
 30
0.0
 11
-243.385631
 21
389.516023
 31
0.0
  0
ARC
  5
5F9
100
AcDbEntity
  8
2
100
AcDbCircle
 10
-253.485631
 20
394.766023
 30
0.0
 40
14.0
100
AcDbArc
 50
343.927141
 51
16.072859
  0
ARC
  5
5FA
100
AcDbEntity
  8
2
100
AcDbCircle
 10
-241.858615
 20
391.416023
 30
0.0
 40
1.9
100
AcDbArc
 50
270.0
 51
343.927141
  0
ARC
  5
5FB
100
AcDbEntity
  8
2
100
AcDbCircle
 10
-241.858615
 20
398.116023
 30
0.0
 40
1.9
100
AcDbArc
 50
16.072859
 51
90.0
  0
LINE
  5
5FC
100
AcDbEntity
  8
2
100
AcDbLine
 10
-243.385631
 20
291.016023
 30
0.0
 11
-243.385631
 21
302.516023
 31
0.0
  0
LINE
  5
5FD
100
AcDbEntity
  8
2
100
AcDbLine
 10
-243.385631
 20
302.516023
 30
0.0
 11
-244.885631
 21
302.516023
 31
0.0
  0
LINE
  5
5FE
100
AcDbEntity
  8
2
100
AcDbLine
 10
-243.385631
 20
291.016023
 30
0.0
 11
-244.885631
 21
291.016023
 31
0.0
  0
LINE
  5
5FF
100
AcDbEntity
  8
2
100
AcDbLine
 10
-241.858615
 20
302.016023
 30
0.0
 11
-243.385631
 21
302.016023
 31
0.0
  0
LINE
  5
600
100
AcDbEntity
  8
2
100
AcDbLine
 10
-241.858615
 20
291.516023
 30
0.0
 11
-243.385631
 21
291.516023
 31
0.0
  0
ARC
  5
601
100
AcDbEntity
  8
2
100
AcDbCircle
 10
-253.485631
 20
296.766023
 30
0.0
 40
14.0
100
AcDbArc
 50
343.927141
 51
16.072859
  0
ARC
  5
602
100
AcDbEntity
  8
2
100
AcDbCircle
 10
-241.858615
 20
293.416023
 30
0.0
 40
1.9
100
AcDbArc
 50
270.0
 51
343.927141
  0
ARC
  5
603
100
AcDbEntity
  8
2
100
AcDbCircle
 10
-241.858615
 20
300.116023
 30
0.0
 40
1.9
100
AcDbArc
 50
16.072859
 51
90.0
  0
LINE
  5
604
100
AcDbEntity
  8
2
100
AcDbLine
 10
-540.635631
 20
247.266023
 30
0.0
 11
-529.135631
 21
247.266023
 31
0.0
  0
LINE
  5
605
100
AcDbEntity
  8
2
100
AcDbLine
 10
-529.135631
 20
247.266023
 30
0.0
 11
-529.135631
 21
248.766023
 31
0.0
  0
LINE
  5
606
100
AcDbEntity
  8
2
100
AcDbLine
 10
-540.635631
 20
247.266023
 30
0.0
 11
-540.635631
 21
248.766023
 31
0.0
  0
LINE
  5
607
100
AcDbEntity
  8
2
100
AcDbLine
 10
-529.635631
 20
245.739008
 30
0.0
 11
-529.635631
 21
247.266023
 31
0.0
  0
LINE
  5
608
100
AcDbEntity
  8
2
100
AcDbLine
 10
-540.135631
 20
245.739008
 30
0.0
 11
-540.135631
 21
247.266023
 31
0.0
  0
ARC
  5
609
100
AcDbEntity
  8
2
100
AcDbCircle
 10
-534.885631
 20
257.366023
 30
0.0
 40
14.0
100
AcDbArc
 50
253.927141
 51
286.072859
  0
ARC
  5
60A
100
AcDbEntity
  8
2
100
AcDbCircle
 10
-538.235631
 20
245.739008
 30
0.0
 40
1.9
100
AcDbArc
 50
180.0
 51
253.927141
  0
ARC
  5
60B
100
AcDbEntity
  8
2
100
AcDbCircle
 10
-531.535631
 20
245.739008
 30
0.0
 40
1.9
100
AcDbArc
 50
286.072859
 51
360.0
  0
LINE
  5
60C
100
AcDbEntity
  8
2
100
AcDbLine
 10
-405.635631
 20
247.266023
 30
0.0
 11
-394.135631
 21
247.266023
 31
0.0
  0
LINE
  5
60D
100
AcDbEntity
  8
2
100
AcDbLine
 10
-394.135631
 20
247.266023
 30
0.0
 11
-394.135631
 21
248.766023
 31
0.0
  0
LINE
  5
60E
100
AcDbEntity
  8
2
100
AcDbLine
 10
-405.635631
 20
247.266023
 30
0.0
 11
-405.635631
 21
248.766023
 31
0.0
  0
LINE
  5
60F
100
AcDbEntity
  8
2
100
AcDbLine
 10
-394.635631
 20
245.739008
 30
0.0
 11
-394.635631
 21
247.266023
 31
0.0
  0
LINE
  5
610
100
AcDbEntity
  8
2
100
AcDbLine
 10
-405.135631
 20
245.739008
 30
0.0
 11
-405.135631
 21
247.266023
 31
0.0
  0
ARC
  5
611
100
AcDbEntity
  8
2
100
AcDbCircle
 10
-399.885631
 20
257.366023
 30
0.0
 40
14.0
100
AcDbArc
 50
253.927141
 51
286.072859
  0
ARC
  5
612
100
AcDbEntity
  8
2
100
AcDbCircle
 10
-403.235631
 20
245.739008
 30
0.0
 40
1.9
100
AcDbArc
 50
180.0
 51
253.927141
  0
ARC
  5
613
100
AcDbEntity
  8
2
100
AcDbCircle
 10
-396.535631
 20
245.739008
 30
0.0
 40
1.9
100
AcDbArc
 50
286.072859
 51
360.0
  0
LINE
  5
614
100
AcDbEntity
  8
2
100
AcDbLine
 10
-278.635631
 20
247.266023
 30
0.0
 11
-267.135631
 21
247.266023
 31
0.0
  0
LINE
  5
615
100
AcDbEntity
  8
2
100
AcDbLine
 10
-267.135631
 20
247.266023
 30
0.0
 11
-267.135631
 21
248.766023
 31
0.0
  0
LINE
  5
616
100
AcDbEntity
  8
2
100
AcDbLine
 10
-278.635631
 20
247.266023
 30
0.0
 11
-278.635631
 21
248.766023
 31
0.0
  0
LINE
  5
617
100
AcDbEntity
  8
2
100
AcDbLine
 10
-267.635631
 20
245.739008
 30
0.0
 11
-267.635631
 21
247.266023
 31
0.0
  0
LINE
  5
618
100
AcDbEntity
  8
2
100
AcDbLine
 10
-278.135631
 20
245.739008
 30
0.0
 11
-278.135631
 21
247.266023
 31
0.0
  0
ARC
  5
619
100
AcDbEntity
  8
2
100
AcDbCircle
 10
-272.885631
 20
257.366023
 30
0.0
 40
14.0
100
AcDbArc
 50
253.927141
 51
286.072859
  0
ARC
  5
61A
100
AcDbEntity
  8
2
100
AcDbCircle
 10
-276.235631
 20
245.739008
 30
0.0
 40
1.9
100
AcDbArc
 50
180.0
 51
253.927141
  0
ARC
  5
61B
100
AcDbEntity
  8
2
100
AcDbCircle
 10
-269.535631
 20
245.739008
 30
0.0
 40
1.9
100
AcDbArc
 50
286.072859
 51
360.0
  0
LINE
  5
61C
100
AcDbEntity
  8
2
100
AcDbLine
 10
60.014369
 20
28.816023
 30
0.0
 11
60.014369
 21
40.316023
 31
0.0
  0
LINE
  5
61D
100
AcDbEntity
  8
2
100
AcDbLine
 10
60.014369
 20
40.316023
 30
0.0
 11
61.514369
 21
40.316023
 31
0.0
  0
LINE
  5
61E
100
AcDbEntity
  8
2
100
AcDbLine
 10
60.014369
 20
28.816023
 30
0.0
 11
61.514369
 21
28.816023
 31
0.0
  0
LINE
  5
61F
100
AcDbEntity
  8
2
100
AcDbLine
 10
58.487353
 20
39.816023
 30
0.0
 11
60.014369
 21
39.816023
 31
0.0
  0
LINE
  5
620
100
AcDbEntity
  8
2
100
AcDbLine
 10
58.487353
 20
29.316023
 30
0.0
 11
60.014369
 21
29.316023
 31
0.0
  0
ARC
  5
621
100
AcDbEntity
  8
2
100
AcDbCircle
 10
70.114369
 20
34.566023
 30
0.0
 40
14.0
100
AcDbArc
 50
163.927141
 51
196.072859
  0
ARC
  5
622
100
AcDbEntity
  8
2
100
AcDbCircle
 10
58.487353
 20
31.216023
 30
0.0
 40
1.9
100
AcDbArc
 50
196.072859
 51
270.0
  0
ARC
  5
623
100
AcDbEntity
  8
2
100
AcDbCircle
 10
58.487353
 20
37.916023
 30
0.0
 40
1.9
100
AcDbArc
 50
90.0
 51
163.927141
  0
LINE
  5
624
100
AcDbEntity
  8
2
100
AcDbLine
 10
60.014369
 20
-69.183977
 30
0.0
 11
60.014369
 21
-57.683977
 31
0.0
  0
LINE
  5
625
100
AcDbEntity
  8
2
100
AcDbLine
 10
60.014369
 20
-57.683977
 30
0.0
 11
61.514369
 21
-57.683977
 31
0.0
  0
LINE
  5
626
100
AcDbEntity
  8
2
100
AcDbLine
 10
60.014369
 20
-69.183977
 30
0.0
 11
61.514369
 21
-69.183977
 31
0.0
  0
LINE
  5
627
100
AcDbEntity
  8
2
100
AcDbLine
 10
58.487353
 20
-58.183977
 30
0.0
 11
60.014369
 21
-58.183977
 31
0.0
  0
LINE
  5
628
100
AcDbEntity
  8
2
100
AcDbLine
 10
58.487353
 20
-68.683977
 30
0.0
 11
60.014369
 21
-68.683977
 31
0.0
  0
ARC
  5
629
100
AcDbEntity
  8
2
100
AcDbCircle
 10
70.114369
 20
-63.433977
 30
0.0
 40
14.0
100
AcDbArc
 50
163.927141
 51
196.072859
  0
ARC
  5
62A
100
AcDbEntity
  8
2
100
AcDbCircle
 10
58.487353
 20
-66.783977
 30
0.0
 40
1.9
100
AcDbArc
 50
196.072859
 51
270.0
  0
ARC
  5
62B
100
AcDbEntity
  8
2
100
AcDbCircle
 10
58.487353
 20
-60.083977
 30
0.0
 40
1.9
100
AcDbArc
 50
90.0
 51
163.927141
  0
LINE
  5
62C
100
AcDbEntity
  8
2
100
AcDbLine
 10
-525.635631
 20
-85.433977
 30
0.0
 11
-540.135631
 21
-85.433977
 31
0.0
  0
LINE
  5
62D
100
AcDbEntity
  8
2
100
AcDbLine
 10
-525.635631
 20
-83.433977
 30
0.0
 11
-525.635631
 21
-85.433977
 31
0.0
  0
LINE
  5
62E
100
AcDbEntity
  8
2
100
AcDbLine
 10
-540.135631
 20
-83.433977
 30
0.0
 11
-540.135631
 21
-85.433977
 31
0.0
  0
LINE
  5
62F
100
AcDbEntity
  8
2
100
AcDbLine
 10
-525.885631
 20
-85.433977
 30
0.0
 11
-525.885631
 21
-87.392025
 31
0.0
  0
LINE
  5
630
100
AcDbEntity
  8
2
100
AcDbLine
 10
-539.885631
 20
-85.433977
 30
0.0
 11
-539.885631
 21
-87.392025
 31
0.0
  0
ARC
  5
631
100
AcDbEntity
  8
2
100
AcDbCircle
 10
-532.885631
 20
-72.633977
 30
0.0
 40
18.0
100
AcDbArc
 50
253.39845
 51
286.60155
  0
ARC
  5
632
100
AcDbEntity
  8
2
100
AcDbCircle
 10
-537.285631
 20
-87.392025
 30
0.0
 40
2.6
100
AcDbArc
 50
180.0
 51
253.39845
  0
ARC
  5
633
100
AcDbEntity
  8
2
100
AcDbCircle
 10
-528.485631
 20
-87.392025
 30
0.0
 40
2.6
100
AcDbArc
 50
286.60155
 51
360.0
  0
LINE
  5
634
100
AcDbEntity
  8
2
100
AcDbLine
 10
-416.635631
 20
-85.433977
 30
0.0
 11
-431.135631
 21
-85.433977
 31
0.0
  0
LINE
  5
635
100
AcDbEntity
  8
2
100
AcDbLine
 10
-416.635631
 20
-83.433977
 30
0.0
 11
-416.635631
 21
-85.433977
 31
0.0
  0
LINE
  5
636
100
AcDbEntity
  8
2
100
AcDbLine
 10
-431.135631
 20
-83.433977
 30
0.0
 11
-431.135631
 21
-85.433977
 31
0.0
  0
LINE
  5
637
100
AcDbEntity
  8
2
100
AcDbLine
 10
-416.885631
 20
-85.433977
 30
0.0
 11
-416.885631
 21
-87.392025
 31
0.0
  0
LINE
  5
638
100
AcDbEntity
  8
2
100
AcDbLine
 10
-430.885631
 20
-85.433977
 30
0.0
 11
-430.885631
 21
-87.392025
 31
0.0
  0
ARC
  5
639
100
AcDbEntity
  8
2
100
AcDbCircle
 10
-423.885631
 20
-72.633977
 30
0.0
 40
18.0
100
AcDbArc
 50
253.39845
 51
286.60155
  0
ARC
  5
63A
100
AcDbEntity
  8
2
100
AcDbCircle
 10
-428.285631
 20
-87.392025
 30
0.0
 40
2.6
100
AcDbArc
 50
180.0
 51
253.39845
  0
ARC
  5
63B
100
AcDbEntity
  8
2
100
AcDbCircle
 10
-419.485631
 20
-87.392025
 30
0.0
 40
2.6
100
AcDbArc
 50
286.60155
 51
360.0
  0
LINE
  5
63C
100
AcDbEntity
  8
2
100
AcDbLine
 10
-283.635631
 20
-85.433977
 30
0.0
 11
-298.135631
 21
-85.433977
 31
0.0
  0
LINE
  5
63D
100
AcDbEntity
  8
2
100
AcDbLine
 10
-283.635631
 20
-83.433977
 30
0.0
 11
-283.635631
 21
-85.433977
 31
0.0
  0
LINE
  5
63E
100
AcDbEntity
  8
2
100
AcDbLine
 10
-298.135631
 20
-83.433977
 30
0.0
 11
-298.135631
 21
-85.433977
 31
0.0
  0
LINE
  5
63F
100
AcDbEntity
  8
2
100
AcDbLine
 10
-283.885631
 20
-85.433977
 30
0.0
 11
-283.885631
 21
-87.392025
 31
0.0
  0
LINE
  5
640
100
AcDbEntity
  8
2
100
AcDbLine
 10
-297.885631
 20
-85.433977
 30
0.0
 11
-297.885631
 21
-87.392025
 31
0.0
  0
ARC
  5
641
100
AcDbEntity
  8
2
100
AcDbCircle
 10
-290.885631
 20
-72.633977
 30
0.0
 40
18.0
100
AcDbArc
 50
253.39845
 51
286.60155
  0
ARC
  5
642
100
AcDbEntity
  8
2
100
AcDbCircle
 10
-295.285631
 20
-87.392025
 30
0.0
 40
2.6
100
AcDbArc
 50
180.0
 51
253.39845
  0
ARC
  5
643
100
AcDbEntity
  8
2
100
AcDbCircle
 10
-286.485631
 20
-87.392025
 30
0.0
 40
2.6
100
AcDbArc
 50
286.60155
 51
360.0
  0
LINE
  5
644
100
AcDbEntity
  8
2
100
AcDbLine
 10
100.764369
 20
-85.433977
 30
0.0
 11
86.264369
 21
-85.433977
 31
0.0
  0
LINE
  5
645
100
AcDbEntity
  8
2
100
AcDbLine
 10
100.764369
 20
-83.433977
 30
0.0
 11
100.764369
 21
-85.433977
 31
0.0
  0
LINE
  5
646
100
AcDbEntity
  8
2
100
AcDbLine
 10
86.264369
 20
-83.433977
 30
0.0
 11
86.264369
 21
-85.433977
 31
0.0
  0
LINE
  5
647
100
AcDbEntity
  8
2
100
AcDbLine
 10
100.514369
 20
-85.433977
 30
0.0
 11
100.514369
 21
-87.392025
 31
0.0
  0
LINE
  5
648
100
AcDbEntity
  8
2
100
AcDbLine
 10
86.514369
 20
-85.433977
 30
0.0
 11
86.514369
 21
-87.392025
 31
0.0
  0
ARC
  5
649
100
AcDbEntity
  8
2
100
AcDbCircle
 10
93.514369
 20
-72.633977
 30
0.0
 40
18.0
100
AcDbArc
 50
253.39845
 51
286.60155
  0
ARC
  5
64A
100
AcDbEntity
  8
2
100
AcDbCircle
 10
89.114369
 20
-87.392025
 30
0.0
 40
2.6
100
AcDbArc
 50
180.0
 51
253.39845
  0
ARC
  5
64B
100
AcDbEntity
  8
2
100
AcDbCircle
 10
97.914369
 20
-87.392025
 30
0.0
 40
2.6
100
AcDbArc
 50
286.60155
 51
360.0
  0
LINE
  5
64C
100
AcDbEntity
  8
2
100
AcDbLine
 10
218.764369
 20
-85.433977
 30
0.0
 11
204.264369
 21
-85.433977
 31
0.0
  0
LINE
  5
64D
100
AcDbEntity
  8
2
100
AcDbLine
 10
218.764369
 20
-83.433977
 30
0.0
 11
218.764369
 21
-85.433977
 31
0.0
  0
LINE
  5
64E
100
AcDbEntity
  8
2
100
AcDbLine
 10
204.264369
 20
-83.433977
 30
0.0
 11
204.264369
 21
-85.433977
 31
0.0
  0
LINE
  5
64F
100
AcDbEntity
  8
2
100
AcDbLine
 10
218.514369
 20
-85.433977
 30
0.0
 11
218.514369
 21
-87.392025
 31
0.0
  0
LINE
  5
650
100
AcDbEntity
  8
2
100
AcDbLine
 10
204.514369
 20
-85.433977
 30
0.0
 11
204.514369
 21
-87.392025
 31
0.0
  0
ARC
  5
651
100
AcDbEntity
  8
2
100
AcDbCircle
 10
211.514369
 20
-72.633977
 30
0.0
 40
18.0
100
AcDbArc
 50
253.39845
 51
286.60155
  0
ARC
  5
652
100
AcDbEntity
  8
2
100
AcDbCircle
 10
207.114369
 20
-87.392025
 30
0.0
 40
2.6
100
AcDbArc
 50
180.0
 51
253.39845
  0
ARC
  5
653
100
AcDbEntity
  8
2
100
AcDbCircle
 10
215.914369
 20
-87.392025
 30
0.0
 40
2.6
100
AcDbArc
 50
286.60155
 51
360.0
  0
LINE
  5
654
100
AcDbEntity
  8
2
  6
CENTER
 62
     2
100
AcDbLine
 10
-449.359284
 20
386.766023
 30
0.0
 11
-432.709736
 21
386.766023
 31
0.0
  0
LINE
  5
655
100
AcDbEntity
  8
2
  6
CENTER
 62
     2
100
AcDbLine
 10
-304.991562
 20
386.766023
 30
0.0
 11
-286.556206
 21
386.766023
 31
0.0
  0
LINE
  5
656
100
AcDbEntity
  8
2
  6
CENTER
 62
     2
100
AcDbLine
 10
-441.885631
 20
291.671919
 30
0.0
 11
-441.885631
 21
306.68907
 31
0.0
  0
LINE
  5
657
100
AcDbEntity
  8
2
  6
CENTER
 62
     2
100
AcDbLine
 10
-441.885631
 20
379.326445
 30
0.0
 11
-441.885631
 21
394.670042
 31
0.0
  0
LINE
  5
658
100
AcDbEntity
  8
2
  6
CENTER
 62
     2
100
AcDbLine
 10
-448.543107
 20
298.766023
 30
0.0
 11
-434.668499
 21
298.766023
 31
0.0
  0
LINE
  5
659
100
AcDbEntity
  8
2
  6
CENTER
 62
     2
100
AcDbLine
 10
-305.234108
 20
298.766023
 30
0.0
 11
-287.041359
 21
298.766023
 31
0.0
  0
LINE
  5
65A
100
AcDbEntity
  8
2
  6
CENTER
 62
     2
100
AcDbLine
 10
-295.885631
 20
289.997862
 30
0.0
 11
-295.885631
 21
307.462919
 31
0.0
  0
LINE
  5
65B
100
AcDbEntity
  8
2
  6
CENTER
 62
     2
100
AcDbLine
 10
-295.885631
 20
377.565336
 30
0.0
 11
-295.885631
 21
394.787779
 31
0.0
  0
LINE
  5
65C
100
AcDbEntity
  8
2
  6
CENTER
 62
     2
100
AcDbLine
 10
-441.885631
 20
71.693472
 30
0.0
 11
-441.885631
 21
54.77746
 31
0.0
  0
LINE
  5
65D
100
AcDbEntity
  8
2
  6
CENTER
 62
     2
100
AcDbLine
 10
-295.885631
 20
71.693472
 30
0.0
 11
-295.885631
 21
54.77746
 31
0.0
  0
ARC
  5
65E
100
AcDbEntity
  8
2
  6
CENTER
 62
     2
100
AcDbCircle
 10
-374.885631
 20
339.766023
 30
0.0
 40
37.5
100
AcDbArc
 50
126.361503
 51
143.885033
  0
ARC
  5
65F
100
AcDbEntity
  8
2
  6
CENTER
 62
     2
100
AcDbCircle
 10
-374.885631
 20
339.766023
 30
0.0
 40
37.5
100
AcDbArc
 50
216.93331
 51
233.416879
  0
ARC
  5
660
100
AcDbEntity
  8
2
  6
CENTER
 62
     2
100
AcDbCircle
 10
-374.885631
 20
339.766023
 30
0.0
 40
37.5
100
AcDbArc
 50
306.278748
 51
323.822644
  0
ARC
  5
661
100
AcDbEntity
  8
2
  6
CENTER
 62
     2
100
AcDbCircle
 10
-374.885631
 20
339.766023
 30
0.0
 40
37.5
100
AcDbArc
 50
36.280641
 51
53.737219
  0
LINE
  5
662
100
AcDbEntity
  8
2
  6
CENTER
 62
     2
100
AcDbLine
 10
-405.724917
 20
308.926737
 30
0.0
 11
-397.674317
 21
316.977337
 31
0.0
  0
LINE
  5
663
100
AcDbEntity
  8
2
  6
CENTER
 62
     2
100
AcDbLine
 10
-352.494777
 20
362.156877
 30
0.0
 11
-343.948404
 21
370.70325
 31
0.0
  0
LINE
  5
664
100
AcDbEntity
  8
2
  6
CENTER
 62
     2
100
AcDbLine
 10
-405.77925
 20
370.659643
 30
0.0
 11
-397.428258
 21
362.308651
 31
0.0
  0
LINE
  5
665
100
AcDbEntity
  8
2
  6
CENTER
 62
     2
100
AcDbLine
 10
-352.313547
 20
317.19394
 30
0.0
 11
-344.182484
 21
309.062876
 31
0.0
  0
LINE
  5
666
100
AcDbEntity
  8
2
  6
CENTER
 62
     2
100
AcDbLine
 10
-401.402135
 20
87.48147
 30
0.0
 11
-401.402135
 21
71.061045
 31
0.0
  0
LINE
  5
667
100
AcDbEntity
  8
2
  6
CENTER
 62
     2
100
AcDbLine
 10
-348.369127
 20
87.911326
 30
0.0
 11
-348.369127
 21
71.061045
 31
0.0
  0
LINE
  5
668
100
AcDbEntity
  8
2
  6
CENTER
 62
     2
100
AcDbLine
 10
199.514369
 20
71.693472
 30
0.0
 11
199.514369
 21
55.21863
 31
0.0
  0
LINE
  5
669
100
AcDbEntity
  8
2
  6
CENTER
 62
     2
100
AcDbLine
 10
111.514369
 20
71.693472
 30
0.0
 11
111.514369
 21
55.21863
 31
0.0
  0
LINE
  5
66A
100
AcDbEntity
  8
2
  6
CENTER
 62
     2
100
AcDbLine
 10
179.030873
 20
71.910841
 30
0.0
 11
179.030873
 21
87.522299
 31
0.0
  0
LINE
  5
66B
100
AcDbEntity
  8
2
  6
CENTER
 62
     2
100
AcDbLine
 10
125.997865
 20
71.910841
 30
0.0
 11
125.997865
 21
88.916189
 31
0.0
  0
LINE
  5
66C
100
AcDbEntity
  8
2
  6
CENTER
 62
     2
100
AcDbLine
 10
109.314369
 20
37.566023
 30
0.0
 11
200.114369
 21
37.566023
 31
0.0
  0
LINE
  5
66D
100
AcDbEntity
  8
2
  6
CENTER
 62
     2
100
AcDbLine
 10
135.514369
 20
59.866023
 30
0.0
 11
135.514369
 21
19.866023
 31
0.0
  0
LINE
  5
66E
100
AcDbEntity
  8
2
  6
CENTER
 62
     2
100
AcDbLine
 10
175.514369
 20
59.866023
 30
0.0
 11
175.514369
 21
19.866023
 31
0.0
  0
LINE
  5
66F
100
AcDbEntity
  8
2
  6
CENTER
 62
     2
100
AcDbLine
 10
-399.885631
 20
432.035992
 30
0.0
 11
-399.885631
 21
403.066023
 31
0.0
  0
LINE
  5
670
100
AcDbEntity
  8
2
  6
CENTER
 62
     2
100
AcDbLine
 10
-349.885631
 20
402.816023
 30
0.0
 11
-349.885631
 21
432.035992
 31
0.0
  0
LINE
  5
671
100
AcDbEntity
  8
2
  6
CENTER
 62
     2
100
AcDbLine
 10
-312.885631
 20
422.916023
 30
0.0
 11
-312.885631
 21
167.263193
 31
0.0
  0
LINE
  5
672
100
AcDbEntity
  8
2
  6
CENTER
 62
     2
100
AcDbLine
 10
-312.885631
 20
49.616023
 30
0.0
 11
-312.885631
 21
-83.433977
 31
0.0
  0
LINE
  5
673
100
AcDbEntity
  8
2
  6
CENTER
 62
     2
100
AcDbLine
 10
-272.885631
 20
25.566023
 30
0.0
 11
-272.885631
 21
42.466023
 31
0.0
  0
LINE
  5
674
100
AcDbEntity
  8
2
  6
CENTER
 62
     2
100
AcDbLine
 10
-281.435631
 20
34.566023
 30
0.0
 11
-262.885631
 21
34.566023
 31
0.0
  0
LINE
  5
675
100
AcDbEntity
  8
2
  6
CENTER
 62
     2
100
AcDbLine
 10
-269.885631
 20
-54.144086
 30
0.0
 11
-269.885631
 21
-73.008741
 31
0.0
  0
LINE
  5
676
100
AcDbEntity
  8
2
  6
CENTER
 62
     2
100
AcDbLine
 10
-278.885631
 20
-63.433977
 30
0.0
 11
-260.985631
 21
-63.433977
 31
0.0
  0
LINE
  5
677
100
AcDbEntity
  8
2
  6
CENTER
 62
     2
100
AcDbLine
 10
-543.357357
 20
-21.433977
 30
0.0
 11
-527.085631
 21
-21.433977
 31
0.0
  0
LINE
  5
678
100
AcDbEntity
  8
2
  6
CENTER
 62
     2
100
AcDbLine
 10
-399.885631
 20
-75.433977
 30
0.0
 11
-399.885631
 21
-57.383977
 31
0.0
  0
LINE
  5
679
100
AcDbEntity
  8
2
  6
CENTER
 62
     2
100
AcDbLine
 10
-408.885631
 20
-66.433977
 30
0.0
 11
-390.835631
 21
-66.433977
 31
0.0
  0
LINE
  5
67A
100
AcDbEntity
  8
2
  6
CENTER
 62
     2
100
AcDbLine
 10
-399.885631
 20
20.116023
 30
0.0
 11
-399.885631
 21
39.666023
 31
0.0
  0
LINE
  5
67B
100
AcDbEntity
  8
2
  6
CENTER
 62
     2
100
AcDbLine
 10
-557.985631
 20
-16.433977
 30
0.0
 11
-224.385631
 21
-16.433977
 31
0.0
  0
LINE
  5
67C
100
AcDbEntity
  8
2
  6
CENTER
 62
     2
100
AcDbLine
 10
-532.885631
 20
-65.283977
 30
0.0
 11
-532.885631
 21
-95.924215
 31
0.0
  0
LINE
  5
67D
100
AcDbEntity
  8
2
  6
CENTER
 62
     2
100
AcDbLine
 10
-14.740517
 20
-16.433977
 30
0.0
 11
240.75042
 21
-16.433977
 31
0.0
  0
LINE
  5
67E
100
AcDbEntity
  8
2
  6
CENTER
 62
     2
100
AcDbLine
 10
109.514369
 20
-2.233977
 30
0.0
 11
109.514369
 21
19.366023
 31
0.0
  0
LINE
  5
67F
100
AcDbEntity
  8
2
  6
CENTER
 62
     2
100
AcDbLine
 10
98.714369
 20
8.566023
 30
0.0
 11
120.314369
 21
8.566023
 31
0.0
  0
LINE
  5
680
100
AcDbEntity
  8
2
  6
CENTER
 62
     2
100
AcDbLine
 10
109.514369
 20
-54.633977
 30
0.0
 11
109.514369
 21
-76.233977
 31
0.0
  0
LINE
  5
681
100
AcDbEntity
  8
2
  6
CENTER
 62
     2
100
AcDbLine
 10
98.714369
 20
-65.433977
 30
0.0
 11
120.314369
 21
-65.433977
 31
0.0
  0
LINE
  5
682
100
AcDbEntity
  8
2
  6
CENTER
 62
     2
100
AcDbLine
 10
207.514369
 20
-2.233977
 30
0.0
 11
207.514369
 21
19.366023
 31
0.0
  0
LINE
  5
683
100
AcDbEntity
  8
2
  6
CENTER
 62
     2
100
AcDbLine
 10
218.314369
 20
8.566023
 30
0.0
 11
196.714369
 21
8.566023
 31
0.0
  0
LINE
  5
684
100
AcDbEntity
  8
2
  6
CENTER
 62
     2
100
AcDbLine
 10
207.514369
 20
-54.633977
 30
0.0
 11
207.514369
 21
-76.233977
 31
0.0
  0
LINE
  5
685
100
AcDbEntity
  8
2
  6
CENTER
 62
     2
100
AcDbLine
 10
218.314369
 20
-65.433977
 30
0.0
 11
196.714369
 21
-65.433977
 31
0.0
  0
LINE
  5
686
100
AcDbEntity
  8
2
  6
CENTER
 62
     2
100
AcDbLine
 10
-423.885631
 20
-95.924215
 30
0.0
 11
-423.885631
 21
-65.283977
 31
0.0
  0
LINE
  5
687
100
AcDbEntity
  8
2
  6
CENTER
 62
     2
100
AcDbLine
 10
-290.885631
 20
-65.283977
 30
0.0
 11
-290.885631
 21
-95.924215
 31
0.0
  0
LINE
  5
688
100
AcDbEntity
  8
2
  6
CENTER
 62
     2
100
AcDbLine
 10
93.514369
 20
-95.924215
 30
0.0
 11
93.514369
 21
-71.033977
 31
0.0
  0
LINE
  5
689
100
AcDbEntity
  8
2
  6
CENTER
 62
     2
100
AcDbLine
 10
211.514369
 20
-72.233977
 30
0.0
 11
211.514369
 21
-95.924215
 31
0.0
  0
LINE
  5
68A
100
AcDbEntity
  8
2
  6
CENTER
 62
     2
100
AcDbLine
 10
-257.935631
 20
8.566023
 30
0.0
 11
-234.935631
 21
8.566023
 31
0.0
  0
LINE
  5
68B
100
AcDbEntity
  8
2
  6
CENTER
 62
     2
100
AcDbLine
 10
-234.935631
 20
-65.433977
 30
0.0
 11
-257.935631
 21
-65.433977
 31
0.0
  0
LINE
  5
68C
100
AcDbEntity
  8
2
  6
CENTER
 62
     2
100
AcDbLine
 10
-534.885631
 20
236.516023
 30
0.0
 11
-534.885631
 21
287.954602
 31
0.0
  0
LINE
  5
68D
100
AcDbEntity
  8
2
  6
CENTER
 62
     2
100
AcDbLine
 10
-399.885631
 20
283.876202
 30
0.0
 11
-399.885631
 21
237.716023
 31
0.0
  0
LINE
  5
68E
100
AcDbEntity
  8
2
  6
CENTER
 62
     2
100
AcDbLine
 10
-272.885631
 20
237.716023
 30
0.0
 11
-272.885631
 21
287.435589
 31
0.0
  0
LINE
  5
68F
100
AcDbEntity
  8
2
  6
CENTER
 62
     2
100
AcDbLine
 10
-262.585631
 20
296.766023
 30
0.0
 11
-236.035631
 21
296.766023
 31
0.0
  0
LINE
  5
690
100
AcDbEntity
  8
2
  6
CENTER
 62
     2
100
AcDbLine
 10
-236.035631
 20
394.766023
 30
0.0
 11
-260.885631
 21
394.766023
 31
0.0
  0
LINE
  5
691
100
AcDbEntity
  8
2
  6
CENTER
 62
     2
100
AcDbLine
 10
-272.002952
 20
362.766023
 30
0.0
 11
-302.985631
 21
362.766023
 31
0.0
  0
LINE
  5
692
100
AcDbEntity
  8
2
  6
CENTER
 62
     2
100
AcDbLine
 10
-304.824518
 20
322.766023
 30
0.0
 11
-272.002952
 21
322.766023
 31
0.0
  0
LINE
  5
693
100
AcDbEntity
  8
2
  6
CENTER
 62
     2
100
AcDbLine
 10
232.292681
 20
-32.433977
 30
0.0
 11
245.164178
 21
-32.433977
 31
0.0
  0
LINE
  5
694
100
AcDbEntity
  8
2
  6
CENTER
 62
     2
100
AcDbLine
 10
-410.508862
 20
30.496023
 30
0.0
 11
-390.049366
 21
30.496023
 31
0.0
  0
LINE
  5
695
100
AcDbEntity
  8
2
  6
CENTER
 62
     2
100
AcDbLine
 10
-534.885631
 20
-13.711179
 30
0.0
 11
-534.885631
 21
-29.366807
 31
0.0
  0
LINE
  5
696
100
AcDbEntity
  8
2
  6
CENTER
 62
     2
100
AcDbLine
 10
49.200066
 20
34.566023
 30
0.0
 11
99.768303
 21
34.566023
 31
0.0
  0
LINE
  5
697
100
AcDbEntity
  8
2
  6
CENTER
 62
     2
100
AcDbLine
 10
49.670434
 20
-63.433977
 30
0.0
 11
99.586693
 21
-63.433977
 31
0.0
  0
LINE
  5
698
100
AcDbEntity
  8
2
100
AcDbLine
 10
61.514369
 20
28.070499
 30
0.0
 11
58.040879
 21
26.767275
 31
0.0
  0
LINE
  5
699
100
AcDbEntity
  8
2
100
AcDbLine
 10
-279.251532
 20
245.893558
 30
0.0
 11
-279.251532
 21
248.766023
 31
0.0
  0
ARC
  5
69A
100
AcDbEntity
  8
2
100
AcDbCircle
 10
-275.947997
 20
245.893558
 30
0.0
 40
3.303535
100
AcDbArc
 50
180.0
 51
310.859891
  0
LINE
  5
69B
100
AcDbEntity
  8
2
100
AcDbLine
 10
61.514369
 20
-56.934879
 30
0.0
 11
55.882283
 21
-55.038695
 31
0.0
  0
LINE
  5
69C
100
AcDbEntity
  8
2
100
AcDbLine
 10
56.305611
 20
-61.127856
 30
0.0
 11
54.951736
 21
-60.770739
 31
0.0
  0
LINE
  5
69D
100
AcDbEntity
  8
2
100
AcDbLine
 10
53.257094
 20
-57.161507
 30
0.0
 11
53.474802
 21
-59.064238
 31
0.0
  0
ARC
  5
69E
100
AcDbEntity
  8
2
100
AcDbCircle
 10
55.461837
 20
-58.836884
 30
0.0
 40
2.0
100
AcDbArc
 50
186.527319
 51
255.223414
  0
ARC
  5
69F
100
AcDbEntity
  8
2
100
AcDbCircle
 10
55.24413
 20
-56.934153
 30
0.0
 40
2.0
100
AcDbArc
 50
71.392894
 51
186.527319
  0
LINE
  5
6A0
100
AcDbEntity
  8
2
100
AcDbLine
 10
55.338318
 20
29.766757
 30
0.0
 11
55.338318
 21
28.639816
 31
0.0
  0
ARC
  5
6A1
100
AcDbEntity
  8
2
100
AcDbCircle
 10
57.338318
 20
29.766757
 30
0.0
 40
2.0
100
AcDbArc
 50
116.623552
 51
180.0
  0
ARC
  5
6A2
100
AcDbEntity
  8
2
100
AcDbCircle
 10
57.338318
 20
28.639816
 30
0.0
 40
2.0
100
AcDbArc
 50
180.0
 51
290.565661
  0
LINE
  5
6A3
100
AcDbEntity
  8
2
100
AcDbLine
 10
-537.006951
 20
-23.555297
 30
0.0
 11
-532.764311
 21
-19.312656
 31
0.0
  0
LINE
  5
6A4
100
AcDbEntity
  8
2
100
AcDbLine
 10
-532.764311
 20
-23.555297
 30
0.0
 11
-537.006951
 21
-19.312656
 31
0.0
  0
LINE
  5
6A5
100
AcDbEntity
  8
2
100
AcDbLine
 10
-402.006951
 20
28.374703
 30
0.0
 11
-397.764311
 21
32.617344
 31
0.0
  0
LINE
  5
6A6
100
AcDbEntity
  8
2
100
AcDbLine
 10
-397.764311
 20
28.374703
 30
0.0
 11
-402.006951
 21
32.617344
 31
0.0
  0
LINE
  5
6A7
100
AcDbEntity
  8
2
100
AcDbLine
 10
-402.006951
 20
-68.555297
 30
0.0
 11
-397.764311
 21
-64.312656
 31
0.0
  0
LINE
  5
6A8
100
AcDbEntity
  8
2
100
AcDbLine
 10
-397.764311
 20
-68.555297
 30
0.0
 11
-402.006951
 21
-64.312656
 31
0.0
  0
LINE
  5
6A9
100
AcDbEntity
  8
2
100
AcDbLine
 10
-275.006951
 20
32.444703
 30
0.0
 11
-270.764311
 21
36.687344
 31
0.0
  0
LINE
  5
6AA
100
AcDbEntity
  8
2
100
AcDbLine
 10
-270.764311
 20
32.444703
 30
0.0
 11
-275.006951
 21
36.687344
 31
0.0
  0
LINE
  5
6AB
100
AcDbEntity
  8
2
100
AcDbLine
 10
-272.006951
 20
-65.555297
 30
0.0
 11
-267.764311
 21
-61.312656
 31
0.0
  0
LINE
  5
6AC
100
AcDbEntity
  8
2
100
AcDbLine
 10
-267.764311
 20
-65.555297
 30
0.0
 11
-272.006951
 21
-61.312656
 31
0.0
  0
LINE
  5
6AD
100
AcDbEntity
  8
2
100
AcDbLine
 10
107.393049
 20
6.444703
 30
0.0
 11
111.635689
 21
10.687344
 31
0.0
  0
LINE
  5
6AE
100
AcDbEntity
  8
2
100
AcDbLine
 10
111.635689
 20
6.444703
 30
0.0
 11
107.393049
 21
10.687344
 31
0.0
  0
LINE
  5
6AF
100
AcDbEntity
  8
2
100
AcDbLine
 10
-298.006951
 20
384.644703
 30
0.0
 11
-293.764311
 21
388.887344
 31
0.0
  0
LINE
  5
6B0
100
AcDbEntity
  8
2
100
AcDbLine
 10
-293.764311
 20
384.644703
 30
0.0
 11
-298.006951
 21
388.887344
 31
0.0
  0
LINE
  5
6B1
100
AcDbEntity
  8
2
100
AcDbLine
 10
-350.469127
 20
366.282528
 30
0.0
 11
-346.269127
 21
366.282528
 31
0.0
  0
LINE
  5
6B2
100
AcDbEntity
  8
2
100
AcDbLine
 10
-348.369127
 20
364.182528
 30
0.0
 11
-348.369127
 21
368.382528
 31
0.0
  0
LINE
  5
6B3
100
AcDbEntity
  8
2
100
AcDbLine
 10
-403.502135
 20
366.282528
 30
0.0
 11
-399.302135
 21
366.282528
 31
0.0
  0
LINE
  5
6B4
100
AcDbEntity
  8
2
100
AcDbLine
 10
-401.402135
 20
364.182528
 30
0.0
 11
-401.402135
 21
368.382528
 31
0.0
  0
LINE
  5
6B5
100
AcDbEntity
  8
2
100
AcDbLine
 10
-350.469127
 20
313.249519
 30
0.0
 11
-346.269127
 21
313.249519
 31
0.0
  0
LINE
  5
6B6
100
AcDbEntity
  8
2
100
AcDbLine
 10
-348.369127
 20
311.149519
 30
0.0
 11
-348.369127
 21
315.349519
 31
0.0
  0
LINE
  5
6B7
100
AcDbEntity
  8
2
100
AcDbLine
 10
-403.502135
 20
313.249519
 30
0.0
 11
-399.302135
 21
313.249519
 31
0.0
  0
LINE
  5
6B8
100
AcDbEntity
  8
2
100
AcDbLine
 10
-401.402135
 20
311.149519
 30
0.0
 11
-401.402135
 21
315.349519
 31
0.0
  0
LINE
  5
6B9
100
AcDbEntity
  8
2
100
AcDbLine
 10
-298.006951
 20
296.644703
 30
0.0
 11
-293.764311
 21
300.887344
 31
0.0
  0
LINE
  5
6BA
100
AcDbEntity
  8
2
100
AcDbLine
 10
-293.764311
 20
296.644703
 30
0.0
 11
-298.006951
 21
300.887344
 31
0.0
  0
LINE
  5
6BB
100
AcDbEntity
  8
2
100
AcDbLine
 10
-444.006951
 20
384.644703
 30
0.0
 11
-439.764311
 21
388.887344
 31
0.0
  0
LINE
  5
6BC
100
AcDbEntity
  8
2
100
AcDbLine
 10
-439.764311
 20
384.644703
 30
0.0
 11
-444.006951
 21
388.887344
 31
0.0
  0
LINE
  5
6BD
100
AcDbEntity
  8
2
100
AcDbLine
 10
-444.006951
 20
296.644703
 30
0.0
 11
-439.764311
 21
300.887344
 31
0.0
  0
LINE
  5
6BE
100
AcDbEntity
  8
2
100
AcDbLine
 10
-439.764311
 20
296.644703
 30
0.0
 11
-444.006951
 21
300.887344
 31
0.0
  0
LINE
  5
6BF
100
AcDbEntity
  8
2
100
AcDbLine
 10
107.393049
 20
-67.555297
 30
0.0
 11
111.635689
 21
-63.312656
 31
0.0
  0
LINE
  5
6C0
100
AcDbEntity
  8
2
100
AcDbLine
 10
111.635689
 20
-67.555297
 30
0.0
 11
107.393049
 21
-63.312656
 31
0.0
  0
LINE
  5
6C1
100
AcDbEntity
  8
2
100
AcDbLine
 10
205.393049
 20
6.444703
 30
0.0
 11
209.635689
 21
10.687344
 31
0.0
  0
LINE
  5
6C2
100
AcDbEntity
  8
2
100
AcDbLine
 10
209.635689
 20
6.444703
 30
0.0
 11
205.393049
 21
10.687344
 31
0.0
  0
LINE
  5
6C3
100
AcDbEntity
  8
2
100
AcDbLine
 10
205.393049
 20
-67.555297
 30
0.0
 11
209.635689
 21
-63.312656
 31
0.0
  0
LINE
  5
6C4
100
AcDbEntity
  8
2
100
AcDbLine
 10
209.635689
 20
-67.555297
 30
0.0
 11
205.393049
 21
-63.312656
 31
0.0
  0
TEXT
  5
6C5
100
AcDbEntity
  8
2
100
AcDbText
 10
-369.466145
 20
316.75235
 30
0.0
 40
7.6
  1
Ｓ
 50
22.5
 72
     5
 11
-363.848958
 21
319.079065
 31
0.0
100
AcDbText
  0
TEXT
  5
6C6
100
AcDbEntity
  8
2
100
AcDbText
 10
-380.305116
 20
362.779697
 30
0.0
 40
7.6
  1
Ｓ
 50
202.5
 72
     5
 11
-385.922304
 21
360.452982
 31
0.0
100
AcDbText
  0
TEXT
  5
6C7
100
AcDbEntity
  8
2
100
AcDbText
 10
-368.640698
 20
79.973441
 30
0.0
 40
7.6
  1
Ｓ
 50
31.641
 72
     5
 11
-363.464479
 21
83.16298
 31
0.0
100
AcDbText
  0
TEXT
  5
6C8
100
AcDbEntity
  8
2
100
AcDbText
 10
-294.165212
 20
-17.45177
 30
0.0
 40
9.0
  1
Ｓ
 50
253.0
 72
     5
 11
-296.270288
 21
-24.337164
 31
0.0
100
AcDbText
  0
LINE
  5
6C9
100
AcDbEntity
  8
3
100
AcDbLine
 10
-449.885631
 20
-184.433977
 30
0.0
 11
-449.885631
 21
-99.433977
 31
0.0
  0
LINE
  5
6CA
100
AcDbEntity
  8
3
100
AcDbLine
 10
-299.885631
 20
-184.433977
 30
0.0
 11
-299.885631
 21
-99.433977
 31
0.0
  0
LINE
  5
6CB
100
AcDbEntity
  8
3
100
AcDbLine
 10
-440.885631
 20
-96.433977
 30
0.0
 11
-308.885631
 21
-96.433977
 31
0.0
  0
LINE
  5
6CC
100
AcDbEntity
  8
3
100
AcDbLine
 10
-311.885631
 20
-196.433977
 30
0.0
 11
-437.885631
 21
-196.433977
 31
0.0
  0
LINE
  5
6CD
100
AcDbEntity
  8
3
100
AcDbLine
 10
101.514369
 20
-196.433977
 30
0.0
 11
203.514369
 21
-196.433977
 31
0.0
  0
LINE
  5
6CE
100
AcDbEntity
  8
3
100
AcDbLine
 10
101.514369
 20
-96.433977
 30
0.0
 11
203.514369
 21
-96.433977
 31
0.0
  0
LINE
  5
6CF
100
AcDbEntity
  8
3
100
AcDbLine
 10
203.514369
 20
-96.433977
 30
0.0
 11
203.514369
 21
-196.433977
 31
0.0
  0
LINE
  5
6D0
100
AcDbEntity
  8
3
100
AcDbLine
 10
101.514369
 20
-96.433977
 30
0.0
 11
101.514369
 21
-196.433977
 31
0.0
  0
LINE
  5
6D1
100
AcDbEntity
  8
3
100
AcDbLine
 10
-311.885631
 20
-187.433977
 30
0.0
 11
-437.885631
 21
-187.433977
 31
0.0
  0
LINE
  5
6D2
100
AcDbEntity
  8
3
100
AcDbLine
 10
-440.885631
 20
-184.433977
 30
0.0
 11
-440.885631
 21
-96.433977
 31
0.0
  0
LINE
  5
6D3
100
AcDbEntity
  8
3
100
AcDbLine
 10
-308.885631
 20
-184.433977
 30
0.0
 11
-308.885631
 21
-96.433977
 31
0.0
  0
LINE
  5
6D4
100
AcDbEntity
  8
3
100
AcDbLine
 10
-440.885631
 20
-102.433977
 30
0.0
 11
-308.885631
 21
-102.433977
 31
0.0
  0
LINE
  5
6D5
100
AcDbEntity
  8
3
100
AcDbLine
 10
-449.885631
 20
-99.433977
 30
0.0
 11
-440.885631
 21
-99.433977
 31
0.0
  0
LINE
  5
6D6
100
AcDbEntity
  8
3
100
AcDbLine
 10
-308.885631
 20
-99.433977
 30
0.0
 11
-299.885631
 21
-99.433977
 31
0.0
  0
ARC
  5
6D7
100
AcDbEntity
  8
3
100
AcDbCircle
 10
-311.885631
 20
-184.433977
 30
0.0
 40
3.0
100
AcDbArc
 50
270.0
 51
360.0
  0
ARC
  5
6D8
100
AcDbEntity
  8
3
100
AcDbCircle
 10
-437.885631
 20
-184.433977
 30
0.0
 40
3.0
100
AcDbArc
 50
180.0
 51
270.0
  0
ARC
  5
6D9
100
AcDbEntity
  8
3
100
AcDbCircle
 10
-437.885631
 20
-184.433977
 30
0.0
 40
12.0
100
AcDbArc
 50
180.0
 51
270.0
  0
ARC
  5
6DA
100
AcDbEntity
  8
3
100
AcDbCircle
 10
-311.885631
 20
-184.433977
 30
0.0
 40
12.0
100
AcDbArc
 50
270.0
 51
360.0
  0
LINE
  5
6DB
100
AcDbEntity
  8
3
100
AcDbLine
 10
101.514369
 20
-99.433977
 30
0.0
 11
203.514369
 21
-99.433977
 31
0.0
  0
LINE
  5
6DC
100
AcDbEntity
  8
3
100
AcDbLine
 10
-308.885631
 20
-96.433977
 30
0.0
 11
-305.885631
 21
-99.433977
 31
0.0
  0
LINE
  5
6DD
100
AcDbEntity
  8
3
100
AcDbLine
 10
-440.885631
 20
-96.433977
 30
0.0
 11
-443.885631
 21
-99.433977
 31
0.0
  0
LINE
  5
6DE
100
AcDbEntity
  8
3
100
AcDbLine
 10
-308.885631
 20
-107.433977
 30
0.0
 11
-313.885631
 21
-102.433977
 31
0.0
  0
LINE
  5
6DF
100
AcDbEntity
  8
3
100
AcDbLine
 10
-440.885631
 20
-107.433977
 30
0.0
 11
-435.885631
 21
-102.433977
 31
0.0
  0
LINE
  5
6E0
100
AcDbEntity
  8
3
100
AcDbLine
 10
-397.885631
 20
-121.433977
 30
0.0
 11
-351.885631
 21
-121.433977
 31
0.0
  0
LINE
  5
6E1
100
AcDbEntity
  8
3
100
AcDbLine
 10
-390.885631
 20
-157.433977
 30
0.0
 11
-390.885631
 21
-124.433977
 31
0.0
  0
LINE
  5
6E2
100
AcDbEntity
  8
3
100
AcDbLine
 10
-358.885631
 20
-157.433977
 30
0.0
 11
-358.885631
 21
-124.433977
 31
0.0
  0
LINE
  5
6E3
100
AcDbEntity
  8
3
100
AcDbLine
 10
-358.885631
 20
-124.433977
 30
0.0
 11
-390.885631
 21
-124.433977
 31
0.0
  0
LINE
  5
6E4
100
AcDbEntity
  8
3
100
AcDbLine
 10
-397.885631
 20
-121.433977
 30
0.0
 11
-397.885631
 21
-102.433977
 31
0.0
  0
LINE
  5
6E5
100
AcDbEntity
  8
3
100
AcDbLine
 10
-351.885631
 20
-121.433977
 30
0.0
 11
-351.885631
 21
-102.433977
 31
0.0
  0
LINE
  5
6E6
100
AcDbEntity
  8
3
100
AcDbLine
 10
-358.885631
 20
-124.433977
 30
0.0
 11
-355.885631
 21
-121.433977
 31
0.0
  0
LINE
  5
6E7
100
AcDbEntity
  8
3
100
AcDbLine
 10
-390.885631
 20
-124.433977
 30
0.0
 11
-393.885631
 21
-121.433977
 31
0.0
  0
LINE
  5
6E8
100
AcDbEntity
  8
3
100
AcDbLine
 10
-361.885631
 20
-160.433977
 30
0.0
 11
-387.885631
 21
-160.433977
 31
0.0
  0
LINE
  5
6E9
100
AcDbEntity
  8
3
100
AcDbLine
 10
-387.885631
 20
-160.433977
 30
0.0
 11
-390.885631
 21
-157.433977
 31
0.0
  0
LINE
  5
6EA
100
AcDbEntity
  8
3
100
AcDbLine
 10
-361.885631
 20
-160.433977
 30
0.0
 11
-358.885631
 21
-157.433977
 31
0.0
  0
LINE
  5
6EB
100
AcDbEntity
  8
3
100
AcDbLine
 10
-358.885631
 20
-157.433977
 30
0.0
 11
-390.885631
 21
-157.433977
 31
0.0
  0
DIMENSION
  5
6EC
100
AcDbEntity
  8
5
100
AcDbDimension
  2
*D0
 10
-91.057724
 20
-96.433977
 30
0.0
 11
-106.917724
 21
-147.093976
 31
0.0
  1
100
100
AcDbAlignedDimension
 13
101.514369
 23
-196.433977
 33
0.0
 14
101.514369
 24
-96.433977
 34
0.0
 50
90.0
100
AcDbRotatedDimension
  0
DIMENSION
  5
6ED
100
AcDbEntity
  8
5
100
AcDbDimension
  2
*D1
 10
-36.261265
 20
33.566023
 30
0.0
 11
-56.741265
 21
-21.713976
 31
0.0
 70
     1
  1
%%c100
100
AcDbAlignedDimension
 13
6.564369
 23
-66.433977
 33
0.0
 14
6.564369
 24
33.566023
 34
0.0
 50
90.0
  0
DIMENSION
  5
6EE
100
AcDbEntity
  8
5
100
AcDbDimension
  2
*D2
 10
-91.057724
 20
101.566023
 30
0.0
 11
-106.917724
 21
1.906024
 31
0.0
  1
198
100
AcDbAlignedDimension
 13
101.514369
 23
-96.433977
 33
0.0
 14
152.514369
 24
101.566023
 34
0.0
 50
90.0
100
AcDbRotatedDimension
  0
DIMENSION
  5
6EF
100
AcDbEntity
  8
5
100
AcDbDimension
  2
*D3
 10
-231.885631
 20
464.148743
 30
0.0
 11
-303.385631
 21
472.748743
 31
0.0
  1
143
100
AcDbAlignedDimension
 13
-374.885631
 23
433.427746
 33
0.0
 14
-231.885631
 24
394.693241
 34
0.0
100
AcDbRotatedDimension
  0
DIMENSION
  5
6F0
100
AcDbEntity
  8
5
100
AcDbDimension
  2
*D4
 10
-374.885631
 20
464.148743
 30
0.0
 11
-458.385631
 21
472.748743
 31
0.0
  1
167
100
AcDbAlignedDimension
 13
-541.885631
 23
262.766023
 33
0.0
 14
-374.885631
 24
433.427746
 34
0.0
100
AcDbRotatedDimension
  0
DIMENSION
  5
6F1
100
AcDbEntity
  8
5
100
AcDbDimension
  2
*D5
 10
-172.284775
 20
424.766023
 30
0.0
 11
-183.524775
 21
386.226023
 31
0.0
  1
85
100
AcDbAlignedDimension
 13
-219.199014
 23
339.766023
 33
0.0
 14
-346.562131
 24
424.766023
 34
0.0
 50
90.0
100
AcDbRotatedDimension
  0
DIMENSION
  5
6F2
100
AcDbEntity
  8
5
100
AcDbDimension
  2
*D6
 10
-172.284775
 20
339.766023
 30
0.0
 11
-188.144775
 21
262.106024
 31
0.0
  1
154
100
AcDbAlignedDimension
 13
-280.603064
 23
185.766023
 33
0.0
 14
-219.199014
 24
339.766023
 34
0.0
 50
90.0
100
AcDbRotatedDimension
  0
DIMENSION
  5
6F3
100
AcDbEntity
  8
5
100
AcDbDimension
  2
*D7
 10
-91.057724
 20
-196.433977
 30
0.0
 11
-106.917724
 21
-270.593976
 31
0.0
  1
147
100
AcDbAlignedDimension
 13
113.039195
 23
-343.433977
 33
0.0
 14
101.514369
 24
-196.433977
 34
0.0
 50
90.0
100
AcDbRotatedDimension
  0
DIMENSION
  5
6F4
100
AcDbEntity
  8
5
100
AcDbDimension
  2
*D8
 10
-91.057724
 20
-343.433977
 30
0.0
 11
-102.297724
 21
-386.973977
 31
0.0
  1
95
100
AcDbAlignedDimension
 13
135.514369
 23
-438.433977
 33
0.0
 14
113.039195
 24
-343.433977
 34
0.0
 50
90.0
100
AcDbRotatedDimension
  0
DIMENSION
  5
6F5
100
AcDbEntity
  8
5
100
AcDbDimension
  2
*D9
 10
152.514369
 20
-475.983887
 30
0.0
 11
112.274369
 21
-467.383887
 31
0.0
  1
21
100
AcDbAlignedDimension
 13
131.514369
 23
-406.933977
 33
0.0
 14
152.514369
 24
-452.619092
 34
0.0
100
AcDbRotatedDimension
  0
DIMENSION
  5
6F6
100
AcDbEntity
  8
5
100
AcDbDimension
  2
*D10
 10
177.514369
 20
-506.190186
 30
0.0
 11
154.514369
 21
-497.590186
 31
0.0
  1
46
100
AcDbAlignedDimension
 13
131.514369
 23
-406.933977
 33
0.0
 14
177.514369
 24
-406.933977
 34
0.0
100
AcDbRotatedDimension
  0
TEXT
  5
6F7
100
AcDbEntity
  8
5
100
AcDbText
 10
385.714417
 20
248.942474
 30
0.0
 40
20.0
  1
駆動部・・・４Ｉ－２型 
 72
     5
 11
601.714417
 21
248.942474
 31
0.0
100
AcDbText
  0
LINE
  5
6F8
100
AcDbEntity
  8
18
100
AcDbLine
 10
228.514369
 20
-343.433977
 30
0.0
 11
348.514369
 21
-343.433977
 31
0.0
  0
LINE
  5
6F9
100
AcDbEntity
  8
18
100
AcDbLine
 10
228.514369
 20
-343.433977
 30
0.0
 11
268.514369
 21
-332.716009
 31
0.0
  0
LINE
  5
6FA
100
AcDbEntity
  8
18
100
AcDbLine
 10
268.514369
 20
-332.716009
 30
0.0
 11
268.514369
 21
-354.151944
 31
0.0
  0
LINE
  5
6FB
100
AcDbEntity
  8
18
100
AcDbLine
 10
228.514369
 20
-343.433977
 30
0.0
 11
268.514369
 21
-354.151944
 31
0.0
  0
LINE
  5
6FC
100
AcDbEntity
  8
18
100
AcDbLine
 10
274.694672
 20
460.370392
 30
0.0
 11
274.694672
 21
320.370392
 31
0.0
  0
LINE
  5
6FD
100
AcDbEntity
  8
18
100
AcDbLine
 10
722.694672
 20
360.370392
 30
0.0
 11
274.694672
 21
360.370392
 31
0.0
  0
LINE
  5
6FE
100
AcDbEntity
  8
18
100
AcDbLine
 10
722.694672
 20
340.370392
 30
0.0
 11
274.694672
 21
340.370392
 31
0.0
  0
LINE
  5
6FF
100
AcDbEntity
  8
18
100
AcDbLine
 10
722.694672
 20
320.370392
 30
0.0
 11
274.694672
 21
320.370392
 31
0.0
  0
LINE
  5
700
100
AcDbEntity
  8
18
100
AcDbLine
 10
386.694672
 20
460.370392
 30
0.0
 11
386.694672
 21
340.370392
 31
0.0
  0
LINE
  5
701
100
AcDbEntity
  8
18
100
AcDbLine
 10
498.694672
 20
460.370392
 30
0.0
 11
498.694672
 21
340.370392
 31
0.0
  0
LINE
  5
702
100
AcDbEntity
  8
18
100
AcDbLine
 10
610.694672
 20
460.370392
 30
0.0
 11
610.694672
 21
340.370392
 31
0.0
  0
LINE
  5
703
100
AcDbEntity
  8
18
100
AcDbLine
 10
722.694672
 20
460.370392
 30
0.0
 11
722.694672
 21
320.370392
 31
0.0
  0
LINE
  5
704
100
AcDbEntity
  8
18
100
AcDbLine
 10
274.694672
 20
460.370392
 30
0.0
 11
722.694672
 21
460.370392
 31
0.0
  0
POLYLINE
  5
705
100
AcDbEntity
  8
18
 62
     2
100
AcDb2dPolyline
 66
     1
 10
0.0
 20
0.0
 30
0.0
  0
VERTEX
  5
838
100
AcDbEntity
  8
18
 62
     2
100
AcDbVertex
100
AcDb2dVertex
 10
326.573982
 20
419.362122
 30
0.0
  0
VERTEX
  5
839
100
AcDbEntity
  8
18
 62
     2
100
AcDbVertex
100
AcDb2dVertex
 10
326.573982
 20
437.514225
 30
0.0
  0
SEQEND
  5
83A
100
AcDbEntity
  8
18
 62
     2
  0
LINE
  5
709
100
AcDbEntity
  8
18
 62
     2
100
AcDbLine
 10
326.573982
 20
427.089528
 30
0.0
 11
324.50343
 21
427.089528
 31
0.0
  0
LINE
  5
70A
100
AcDbEntity
  8
18
 62
     2
100
AcDbLine
 10
324.50343
 20
427.089528
 30
0.0
 11
326.573982
 21
419.362122
 31
0.0
  0
LINE
  5
70B
100
AcDbEntity
  8
18
 62
     2
100
AcDbLine
 10
326.573982
 20
419.362122
 30
0.0
 11
328.644535
 21
427.089528
 31
0.0
  0
LINE
  5
70C
100
AcDbEntity
  8
18
 62
     2
100
AcDbLine
 10
328.644535
 20
427.089528
 30
0.0
 11
326.573982
 21
427.089528
 31
0.0
  0
LINE
  5
70D
100
AcDbEntity
  8
18
  6
CENTER
 62
     2
100
AcDbLine
 10
360.426777
 20
393.29715
 30
0.0
 11
290.018774
 21
393.29715
 31
0.0
  0
LINE
  5
70E
100
AcDbEntity
  8
18
  6
CENTER
 62
     2
100
AcDbLine
 10
326.029971
 20
375.112775
 30
0.0
 11
326.029971
 21
413.674556
 31
0.0
  0
LINE
  5
70F
100
AcDbEntity
  8
18
100
AcDbLine
 10
354.189971
 20
380.97715
 30
0.0
 11
301.389971
 21
380.97715
 31
0.0
  0
LINE
  5
710
100
AcDbEntity
  8
18
100
AcDbLine
 10
354.189971
 20
405.61715
 30
0.0
 11
301.389971
 21
405.61715
 31
0.0
  0
LINE
  5
711
100
AcDbEntity
  8
18
100
AcDbLine
 10
354.189971
 20
380.97715
 30
0.0
 11
354.189971
 21
409.13715
 31
0.0
  0
LINE
  5
712
100
AcDbEntity
  8
18
100
AcDbLine
 10
304.909971
 20
380.97715
 30
0.0
 11
304.909971
 21
405.61715
 31
0.0
  0
LINE
  5
713
100
AcDbEntity
  8
18
100
AcDbLine
 10
354.189971
 20
409.13715
 30
0.0
 11
307.256637
 21
409.13715
 31
0.0
  0
LINE
  5
714
100
AcDbEntity
  8
18
100
AcDbLine
 10
301.389971
 20
380.97715
 30
0.0
 11
301.389971
 21
405.61715
 31
0.0
  0
LINE
  5
715
100
AcDbEntity
  8
18
100
AcDbLine
 10
307.256637
 20
405.61715
 30
0.0
 11
307.256637
 21
409.13715
 31
0.0
  0
LINE
  5
716
100
AcDbEntity
  8
18
100
AcDbLine
 10
338.349971
 20
382.73715
 30
0.0
 11
338.349971
 21
403.85715
 31
0.0
  0
LINE
  5
717
100
AcDbEntity
  8
18
100
AcDbLine
 10
308.429971
 20
382.73715
 30
0.0
 11
308.429971
 21
403.85715
 31
0.0
  0
LINE
  5
718
100
AcDbEntity
  8
18
100
AcDbLine
 10
338.349971
 20
382.73715
 30
0.0
 11
308.429971
 21
382.73715
 31
0.0
  0
LINE
  5
719
100
AcDbEntity
  8
18
100
AcDbLine
 10
338.349971
 20
403.85715
 30
0.0
 11
308.429971
 21
403.85715
 31
0.0
  0
CIRCLE
  5
71A
100
AcDbEntity
  8
18
100
AcDbCircle
 10
326.029971
 20
393.29715
 30
0.0
 40
4.224
  0
LINE
  5
71B
100
AcDbEntity
  8
18
  6
DASHED
100
AcDbLine
 10
345.389971
 20
386.25715
 30
0.0
 11
306.669971
 21
386.25715
 31
0.0
  0
LINE
  5
71C
100
AcDbEntity
  8
18
  6
DASHED
100
AcDbLine
 10
345.389971
 20
400.33715
 30
0.0
 11
306.669971
 21
400.33715
 31
0.0
  0
LINE
  5
71D
100
AcDbEntity
  8
18
  6
DASHED
100
AcDbLine
 10
306.669971
 20
386.25715
 30
0.0
 11
306.669971
 21
400.33715
 31
0.0
  0
LINE
  5
71E
100
AcDbEntity
  8
18
  6
DASHED
100
AcDbLine
 10
345.389971
 20
386.25715
 30
0.0
 11
345.389971
 21
400.33715
 31
0.0
  0
LINE
  5
71F
100
AcDbEntity
  8
18
  6
CENTER
 62
     2
100
AcDbLine
 10
316.643304
 20
407.292428
 30
0.0
 11
316.643304
 21
422.469105
 31
0.0
  0
LINE
  5
720
100
AcDbEntity
  8
18
100
AcDbLine
 10
316.643514
 20
414.41715
 30
0.0
 11
323.531944
 21
414.41715
 31
0.0
  0
LINE
  5
721
100
AcDbEntity
  8
18
100
AcDbLine
 10
323.531944
 20
414.41715
 30
0.0
 11
323.531944
 21
416.17715
 31
0.0
  0
LINE
  5
722
100
AcDbEntity
  8
18
100
AcDbLine
 10
316.643514
 20
416.17715
 30
0.0
 11
323.531944
 21
416.17715
 31
0.0
  0
LINE
  5
723
100
AcDbEntity
  8
18
100
AcDbLine
 10
309.755084
 20
414.41715
 30
0.0
 11
309.755084
 21
416.17715
 31
0.0
  0
LINE
  5
724
100
AcDbEntity
  8
18
100
AcDbLine
 10
322.272628
 20
409.13715
 30
0.0
 11
319.810523
 21
414.41715
 31
0.0
  0
LINE
  5
725
100
AcDbEntity
  8
18
100
AcDbLine
 10
311.014401
 20
409.13715
 30
0.0
 11
313.476505
 21
414.41715
 31
0.0
  0
LINE
  5
726
100
AcDbEntity
  8
18
100
AcDbLine
 10
316.643514
 20
414.41715
 30
0.0
 11
309.755084
 21
414.41715
 31
0.0
  0
LINE
  5
727
100
AcDbEntity
  8
18
100
AcDbLine
 10
316.643514
 20
416.17715
 30
0.0
 11
309.755084
 21
416.17715
 31
0.0
  0
LINE
  5
728
100
AcDbEntity
  8
18
  6
CENTER
 62
     2
100
AcDbLine
 10
419.425966
 20
406.627871
 30
0.0
 11
469.148403
 21
406.627871
 31
0.0
  0
LINE
  5
729
100
AcDbEntity
  8
18
100
AcDbLine
 10
463.814672
 20
416.014748
 30
0.0
 11
463.814672
 21
422.903178
 31
0.0
  0
LINE
  5
72A
100
AcDbEntity
  8
18
100
AcDbLine
 10
463.814672
 20
422.903178
 30
0.0
 11
465.574672
 21
422.903178
 31
0.0
  0
LINE
  5
72B
100
AcDbEntity
  8
18
100
AcDbLine
 10
465.574672
 20
416.014748
 30
0.0
 11
465.574672
 21
422.903178
 31
0.0
  0
LINE
  5
72C
100
AcDbEntity
  8
18
100
AcDbLine
 10
463.814672
 20
409.126318
 30
0.0
 11
465.574672
 21
409.126318
 31
0.0
  0
LINE
  5
72D
100
AcDbEntity
  8
18
  6
CENTER
 62
     2
100
AcDbLine
 10
442.694672
 20
436.233693
 30
0.0
 11
442.694672
 21
374.276296
 31
0.0
  0
LINE
  5
72E
100
AcDbEntity
  8
18
100
AcDbLine
 10
430.374672
 20
378.467871
 30
0.0
 11
430.374672
 21
431.267871
 31
0.0
  0
LINE
  5
72F
100
AcDbEntity
  8
18
100
AcDbLine
 10
455.014672
 20
378.467871
 30
0.0
 11
455.014672
 21
431.267871
 31
0.0
  0
LINE
  5
730
100
AcDbEntity
  8
18
100
AcDbLine
 10
430.374672
 20
378.467871
 30
0.0
 11
458.534672
 21
378.467871
 31
0.0
  0
LINE
  5
731
100
AcDbEntity
  8
18
100
AcDbLine
 10
430.374672
 20
427.747871
 30
0.0
 11
455.014672
 21
427.747871
 31
0.0
  0
LINE
  5
732
100
AcDbEntity
  8
18
100
AcDbLine
 10
458.534672
 20
378.467871
 30
0.0
 11
458.534672
 21
425.401204
 31
0.0
  0
LINE
  5
733
100
AcDbEntity
  8
18
100
AcDbLine
 10
430.374672
 20
431.267871
 30
0.0
 11
455.014672
 21
431.267871
 31
0.0
  0
LINE
  5
734
100
AcDbEntity
  8
18
100
AcDbLine
 10
455.014672
 20
425.401204
 30
0.0
 11
458.534672
 21
425.401204
 31
0.0
  0
LINE
  5
735
100
AcDbEntity
  8
18
100
AcDbLine
 10
432.134672
 20
394.307871
 30
0.0
 11
453.254672
 21
394.307871
 31
0.0
  0
LINE
  5
736
100
AcDbEntity
  8
18
100
AcDbLine
 10
432.134672
 20
424.227871
 30
0.0
 11
453.254672
 21
424.227871
 31
0.0
  0
LINE
  5
737
100
AcDbEntity
  8
18
100
AcDbLine
 10
432.134672
 20
394.307871
 30
0.0
 11
432.134672
 21
424.227871
 31
0.0
  0
LINE
  5
738
100
AcDbEntity
  8
18
100
AcDbLine
 10
453.254672
 20
394.307871
 30
0.0
 11
453.254672
 21
424.227871
 31
0.0
  0
CIRCLE
  5
739
100
AcDbEntity
  8
18
100
AcDbCircle
 10
442.694672
 20
406.627871
 30
0.0
 40
4.224
  0
LINE
  5
73A
100
AcDbEntity
  8
18
100
AcDbLine
 10
423.334672
 20
413.667871
 30
0.0
 11
423.334672
 21
399.587871
 31
0.0
  0
LINE
  5
73B
100
AcDbEntity
  8
18
  6
CENTER
 62
     2
100
AcDbLine
 10
456.689949
 20
416.014538
 30
0.0
 11
472.890175
 21
416.014538
 31
0.0
  0
LINE
  5
73C
100
AcDbEntity
  8
18
100
AcDbLine
 10
423.334672
 20
413.667871
 30
0.0
 11
430.374672
 21
413.667871
 31
0.0
  0
LINE
  5
73D
100
AcDbEntity
  8
18
100
AcDbLine
 10
458.534672
 20
399.587871
 30
0.0
 11
462.054672
 21
399.587871
 31
0.0
  0
LINE
  5
73E
100
AcDbEntity
  8
18
100
AcDbLine
 10
423.334672
 20
399.587871
 30
0.0
 11
430.374672
 21
399.587871
 31
0.0
  0
LINE
  5
73F
100
AcDbEntity
  8
18
  6
DASHED
100
AcDbLine
 10
430.374672
 20
399.587871
 30
0.0
 11
458.534672
 21
399.587871
 31
0.0
  0
LINE
  5
740
100
AcDbEntity
  8
18
100
AcDbLine
 10
462.054672
 20
407.366108
 30
0.0
 11
462.054672
 21
399.587871
 31
0.0
  0
LINE
  5
741
100
AcDbEntity
  8
18
  6
DASHED
100
AcDbLine
 10
430.374672
 20
413.667871
 30
0.0
 11
458.534672
 21
413.667871
 31
0.0
  0
LINE
  5
742
100
AcDbEntity
  8
18
  6
DASHED
100
AcDbLine
 10
458.534672
 20
413.667871
 30
0.0
 11
461.580011
 21
413.667871
 31
0.0
  0
LINE
  5
743
100
AcDbEntity
  8
18
  6
DASHED
100
AcDbLine
 10
461.580011
 20
413.667871
 30
0.0
 11
462.054672
 21
413.667871
 31
0.0
  0
LINE
  5
744
100
AcDbEntity
  8
18
100
AcDbLine
 10
458.534672
 20
421.643861
 30
0.0
 11
463.814672
 21
419.181757
 31
0.0
  0
LINE
  5
745
100
AcDbEntity
  8
18
100
AcDbLine
 10
458.534672
 20
410.385634
 30
0.0
 11
463.814672
 21
412.847739
 31
0.0
  0
LINE
  5
746
100
AcDbEntity
  8
18
100
AcDbLine
 10
463.814672
 20
416.014748
 30
0.0
 11
463.814672
 21
409.126318
 31
0.0
  0
LINE
  5
747
100
AcDbEntity
  8
18
100
AcDbLine
 10
465.574672
 20
416.014748
 30
0.0
 11
465.574672
 21
409.126318
 31
0.0
  0
LINE
  5
748
100
AcDbEntity
  8
18
  6
DASHED
100
AcDbLine
 10
462.054672
 20
413.667871
 30
0.0
 11
462.054672
 21
412.027037
 31
0.0
  0
LINE
  5
749
100
AcDbEntity
  8
18
100
AcDbLine
 10
462.054672
 20
412.613704
 30
0.0
 11
462.054672
 21
412.571188
 31
0.0
  0
LINE
  5
74A
100
AcDbEntity
  8
18
100
AcDbLine
 10
462.054672
 20
412.027037
 30
0.0
 11
462.054672
 21
406.889604
 31
0.0
  0
LINE
  5
74B
100
AcDbEntity
  8
18
  6
CENTER
 62
     2
100
AcDbLine
 10
520.297865
 20
406.627871
 30
0.0
 11
590.705868
 21
406.627871
 31
0.0
  0
LINE
  5
74C
100
AcDbEntity
  8
18
  6
CENTER
 62
     2
100
AcDbLine
 10
554.694672
 20
424.812246
 30
0.0
 11
554.694672
 21
386.250465
 31
0.0
  0
LINE
  5
74D
100
AcDbEntity
  8
18
100
AcDbLine
 10
526.534672
 20
418.947871
 30
0.0
 11
579.334672
 21
418.947871
 31
0.0
  0
LINE
  5
74E
100
AcDbEntity
  8
18
100
AcDbLine
 10
526.534672
 20
394.307871
 30
0.0
 11
579.334672
 21
394.307871
 31
0.0
  0
LINE
  5
74F
100
AcDbEntity
  8
18
100
AcDbLine
 10
526.534672
 20
418.947871
 30
0.0
 11
526.534672
 21
390.787871
 31
0.0
  0
LINE
  5
750
100
AcDbEntity
  8
18
100
AcDbLine
 10
575.814672
 20
418.947871
 30
0.0
 11
575.814672
 21
394.307871
 31
0.0
  0
LINE
  5
751
100
AcDbEntity
  8
18
100
AcDbLine
 10
526.534672
 20
390.787871
 30
0.0
 11
573.468005
 21
390.787871
 31
0.0
  0
LINE
  5
752
100
AcDbEntity
  8
18
100
AcDbLine
 10
579.334672
 20
418.947871
 30
0.0
 11
579.334672
 21
394.307871
 31
0.0
  0
LINE
  5
753
100
AcDbEntity
  8
18
100
AcDbLine
 10
573.468005
 20
394.307871
 30
0.0
 11
573.468005
 21
390.787871
 31
0.0
  0
LINE
  5
754
100
AcDbEntity
  8
18
100
AcDbLine
 10
542.374672
 20
417.187871
 30
0.0
 11
542.374672
 21
396.067871
 31
0.0
  0
LINE
  5
755
100
AcDbEntity
  8
18
100
AcDbLine
 10
572.294672
 20
417.187871
 30
0.0
 11
572.294672
 21
396.067871
 31
0.0
  0
LINE
  5
756
100
AcDbEntity
  8
18
100
AcDbLine
 10
542.374672
 20
417.187871
 30
0.0
 11
572.294672
 21
417.187871
 31
0.0
  0
LINE
  5
757
100
AcDbEntity
  8
18
100
AcDbLine
 10
542.374672
 20
396.067871
 30
0.0
 11
572.294672
 21
396.067871
 31
0.0
  0
CIRCLE
  5
758
100
AcDbEntity
  8
18
100
AcDbCircle
 10
554.694672
 20
406.627871
 30
0.0
 40
4.224
  0
LINE
  5
759
100
AcDbEntity
  8
18
  6
DASHED
100
AcDbLine
 10
535.334672
 20
413.667871
 30
0.0
 11
574.054672
 21
413.667871
 31
0.0
  0
LINE
  5
75A
100
AcDbEntity
  8
18
  6
DASHED
100
AcDbLine
 10
535.334672
 20
399.587871
 30
0.0
 11
574.054672
 21
399.587871
 31
0.0
  0
LINE
  5
75B
100
AcDbEntity
  8
18
  6
DASHED
100
AcDbLine
 10
574.054672
 20
413.667871
 30
0.0
 11
574.054672
 21
399.587871
 31
0.0
  0
LINE
  5
75C
100
AcDbEntity
  8
18
  6
DASHED
100
AcDbLine
 10
535.334672
 20
413.667871
 30
0.0
 11
535.334672
 21
399.587871
 31
0.0
  0
LINE
  5
75D
100
AcDbEntity
  8
18
  6
CENTER
 62
     2
100
AcDbLine
 10
564.081338
 20
392.632593
 30
0.0
 11
564.081338
 21
377.455917
 31
0.0
  0
LINE
  5
75E
100
AcDbEntity
  8
18
100
AcDbLine
 10
564.081128
 20
385.507871
 30
0.0
 11
557.192698
 21
385.507871
 31
0.0
  0
LINE
  5
75F
100
AcDbEntity
  8
18
100
AcDbLine
 10
557.192698
 20
385.507871
 30
0.0
 11
557.192698
 21
383.747871
 31
0.0
  0
LINE
  5
760
100
AcDbEntity
  8
18
100
AcDbLine
 10
564.081128
 20
383.747871
 30
0.0
 11
557.192698
 21
383.747871
 31
0.0
  0
LINE
  5
761
100
AcDbEntity
  8
18
100
AcDbLine
 10
570.969558
 20
385.507871
 30
0.0
 11
570.969558
 21
383.747871
 31
0.0
  0
LINE
  5
762
100
AcDbEntity
  8
18
100
AcDbLine
 10
558.452015
 20
390.787871
 30
0.0
 11
560.914119
 21
385.507871
 31
0.0
  0
LINE
  5
763
100
AcDbEntity
  8
18
100
AcDbLine
 10
569.710242
 20
390.787871
 30
0.0
 11
567.248137
 21
385.507871
 31
0.0
  0
LINE
  5
764
100
AcDbEntity
  8
18
100
AcDbLine
 10
564.081128
 20
385.507871
 30
0.0
 11
570.969558
 21
385.507871
 31
0.0
  0
LINE
  5
765
100
AcDbEntity
  8
18
100
AcDbLine
 10
564.081128
 20
383.747871
 30
0.0
 11
570.969558
 21
383.747871
 31
0.0
  0
LINE
  5
766
100
AcDbEntity
  8
18
  6
CENTER
 62
     2
100
AcDbLine
 10
689.963378
 20
406.627871
 30
0.0
 11
640.240941
 21
406.627871
 31
0.0
  0
LINE
  5
767
100
AcDbEntity
  8
18
100
AcDbLine
 10
645.574672
 20
397.240994
 30
0.0
 11
645.574672
 21
390.352564
 31
0.0
  0
LINE
  5
768
100
AcDbEntity
  8
18
100
AcDbLine
 10
645.574672
 20
390.352564
 30
0.0
 11
643.814672
 21
390.352564
 31
0.0
  0
LINE
  5
769
100
AcDbEntity
  8
18
100
AcDbLine
 10
643.814672
 20
397.240994
 30
0.0
 11
643.814672
 21
390.352564
 31
0.0
  0
LINE
  5
76A
100
AcDbEntity
  8
18
100
AcDbLine
 10
645.574672
 20
404.129424
 30
0.0
 11
643.814672
 21
404.129424
 31
0.0
  0
LINE
  5
76B
100
AcDbEntity
  8
18
  6
CENTER
 62
     2
100
AcDbLine
 10
666.694672
 20
377.022049
 30
0.0
 11
666.694672
 21
438.979446
 31
0.0
  0
LINE
  5
76C
100
AcDbEntity
  8
18
100
AcDbLine
 10
679.014672
 20
434.787871
 30
0.0
 11
679.014672
 21
381.987871
 31
0.0
  0
LINE
  5
76D
100
AcDbEntity
  8
18
100
AcDbLine
 10
654.374672
 20
434.787871
 30
0.0
 11
654.374672
 21
381.987871
 31
0.0
  0
LINE
  5
76E
100
AcDbEntity
  8
18
100
AcDbLine
 10
679.014672
 20
434.787871
 30
0.0
 11
650.854672
 21
434.787871
 31
0.0
  0
LINE
  5
76F
100
AcDbEntity
  8
18
100
AcDbLine
 10
679.014672
 20
385.507871
 30
0.0
 11
654.374672
 21
385.507871
 31
0.0
  0
LINE
  5
770
100
AcDbEntity
  8
18
100
AcDbLine
 10
650.854672
 20
434.787871
 30
0.0
 11
650.854672
 21
387.854538
 31
0.0
  0
LINE
  5
771
100
AcDbEntity
  8
18
100
AcDbLine
 10
679.014672
 20
381.987871
 30
0.0
 11
654.374672
 21
381.987871
 31
0.0
  0
LINE
  5
772
100
AcDbEntity
  8
18
100
AcDbLine
 10
654.374672
 20
387.854538
 30
0.0
 11
650.854672
 21
387.854538
 31
0.0
  0
LINE
  5
773
100
AcDbEntity
  8
18
100
AcDbLine
 10
677.254672
 20
418.947871
 30
0.0
 11
656.134672
 21
418.947871
 31
0.0
  0
LINE
  5
774
100
AcDbEntity
  8
18
100
AcDbLine
 10
677.254672
 20
389.027871
 30
0.0
 11
656.134672
 21
389.027871
 31
0.0
  0
LINE
  5
775
100
AcDbEntity
  8
18
100
AcDbLine
 10
677.254672
 20
418.947871
 30
0.0
 11
677.254672
 21
389.027871
 31
0.0
  0
LINE
  5
776
100
AcDbEntity
  8
18
100
AcDbLine
 10
656.134672
 20
418.947871
 30
0.0
 11
656.134672
 21
389.027871
 31
0.0
  0
CIRCLE
  5
777
100
AcDbEntity
  8
18
100
AcDbCircle
 10
666.694672
 20
406.627871
 30
0.0
 40
4.224
  0
LINE
  5
778
100
AcDbEntity
  8
18
100
AcDbLine
 10
686.054672
 20
399.587871
 30
0.0
 11
686.054672
 21
413.667871
 31
0.0
  0
LINE
  5
779
100
AcDbEntity
  8
18
  6
CENTER
 62
     2
100
AcDbLine
 10
652.699394
 20
397.241204
 30
0.0
 11
636.499168
 21
397.241204
 31
0.0
  0
LINE
  5
77A
100
AcDbEntity
  8
18
100
AcDbLine
 10
686.054672
 20
399.587871
 30
0.0
 11
679.014672
 21
399.587871
 31
0.0
  0
LINE
  5
77B
100
AcDbEntity
  8
18
100
AcDbLine
 10
650.854672
 20
413.667871
 30
0.0
 11
647.334672
 21
413.667871
 31
0.0
  0
LINE
  5
77C
100
AcDbEntity
  8
18
100
AcDbLine
 10
686.054672
 20
413.667871
 30
0.0
 11
679.014672
 21
413.667871
 31
0.0
  0
LINE
  5
77D
100
AcDbEntity
  8
18
  6
DASHED
100
AcDbLine
 10
679.014672
 20
413.667871
 30
0.0
 11
650.854672
 21
413.667871
 31
0.0
  0
LINE
  5
77E
100
AcDbEntity
  8
18
100
AcDbLine
 10
647.334672
 20
405.889634
 30
0.0
 11
647.334672
 21
413.667871
 31
0.0
  0
LINE
  5
77F
100
AcDbEntity
  8
18
  6
DASHED
100
AcDbLine
 10
679.014672
 20
399.587871
 30
0.0
 11
650.854672
 21
399.587871
 31
0.0
  0
LINE
  5
780
100
AcDbEntity
  8
18
  6
DASHED
100
AcDbLine
 10
650.854672
 20
399.587871
 30
0.0
 11
647.809332
 21
399.587871
 31
0.0
  0
LINE
  5
781
100
AcDbEntity
  8
18
  6
DASHED
100
AcDbLine
 10
647.809332
 20
399.587871
 30
0.0
 11
647.334672
 21
399.587871
 31
0.0
  0
LINE
  5
782
100
AcDbEntity
  8
18
100
AcDbLine
 10
650.854672
 20
391.611881
 30
0.0
 11
645.574672
 21
394.073985
 31
0.0
  0
LINE
  5
783
100
AcDbEntity
  8
18
100
AcDbLine
 10
650.854672
 20
402.870108
 30
0.0
 11
645.574672
 21
400.408003
 31
0.0
  0
LINE
  5
784
100
AcDbEntity
  8
18
100
AcDbLine
 10
645.574672
 20
397.240994
 30
0.0
 11
645.574672
 21
404.129424
 31
0.0
  0
LINE
  5
785
100
AcDbEntity
  8
18
100
AcDbLine
 10
643.814672
 20
397.240994
 30
0.0
 11
643.814672
 21
404.129424
 31
0.0
  0
LINE
  5
786
100
AcDbEntity
  8
18
  6
DASHED
100
AcDbLine
 10
647.334672
 20
399.587871
 30
0.0
 11
647.334672
 21
401.228705
 31
0.0
  0
LINE
  5
787
100
AcDbEntity
  8
18
100
AcDbLine
 10
647.334672
 20
400.642038
 30
0.0
 11
647.334672
 21
400.684554
 31
0.0
  0
LINE
  5
788
100
AcDbEntity
  8
18
100
AcDbLine
 10
647.334672
 20
401.228705
 30
0.0
 11
647.334672
 21
406.366138
 31
0.0
  0
TEXT
  5
789
100
AcDbEntity
  8
18
100
AcDbText
 10
489.196503
 20
-533.087646
 30
0.0
 40
12.0
  1
１
 72
     5
 11
498.796503
 21
-533.087646
 31
0.0
100
AcDbText
  0
TEXT
  5
78A
100
AcDbEntity
  8
18
100
AcDbText
 10
279.220306
 20
-336.44339
 30
0.0
 40
20.0
  1
高圧側
 72
     5
 11
335.220306
 21
-336.44339
 31
0.0
100
AcDbText
  0
TEXT
  5
78B
100
AcDbEntity
  8
18
100
AcDbText
 10
323.217621
 20
345.081909
 30
0.0
 40
12.0
  1
Ａ
 72
     5
 11
332.817621
 21
345.081909
 31
0.0
100
AcDbText
  0
TEXT
  5
78C
100
AcDbEntity
  8
18
100
AcDbText
 10
435.16983
 20
344.761292
 30
0.0
 40
12.0
  1
Ｂ
 72
     5
 11
444.76983
 21
344.761292
 31
0.0
100
AcDbText
  0
TEXT
  5
78D
100
AcDbEntity
  8
18
100
AcDbText
 10
547.217621
 20
345.081909
 30
0.0
 40
12.0
  1
Ｃ
 72
     5
 11
556.817621
 21
345.081909
 31
0.0
100
AcDbText
  0
TEXT
  5
78E
100
AcDbEntity
  8
18
100
AcDbText
 10
434.528625
 20
324.654278
 30
0.0
 40
12.0
  1
アクチュエ－タ取付方向
 72
     5
 11
564.128625
 21
324.654278
 31
0.0
100
AcDbText
  0
TEXT
  5
78F
100
AcDbEntity
  8
18
100
AcDbText
 10
295.397583
 20
364.552856
 30
0.0
 40
10.0
  1
弁棒側　低圧側
 72
     5
 11
363.397583
 21
364.552856
 31
0.0
100
AcDbText
  0
TEXT
  5
790
100
AcDbEntity
  8
18
100
AcDbText
 10
285.812225
 20
444.175629
 30
0.0
 40
10.0
  1
フラット側　高圧側
 72
     5
 11
373.812225
 21
444.175629
 31
0.0
100
AcDbText
  0
TEXT
  5
791
100
AcDbEntity
  8
18
100
AcDbText
 10
659.217621
 20
345.081909
 30
0.0
 40
12.0
  1
Ｄ
 72
     5
 11
668.817621
 21
345.081909
 31
0.0
100
AcDbText
  0
TEXT
  5
792
100
AcDbEntity
  8
18
100
AcDbText
 10
505.190308
 20
-548.067078
 30
0.0
 40
12.0
  1
４
 72
     5
 11
514.790308
 21
-548.067078
 31
0.0
100
AcDbText
  0
TEXT
  5
793
100
AcDbEntity
  8
18
100
AcDbText
 10
488.750295
 20
-508.141052
 30
0.0
 40
12.0
  1
標準仕様、重負荷仕様
 72
     5
 11
606.350295
 21
-508.141052
 31
0.0
100
AcDbText
  0
TEXT
  5
794
100
AcDbEntity
  8
18
100
AcDbText
 10
488.750295
 20
-492.141052
 30
0.0
 40
12.0
  1
３０２Ｙ－４ＩＣＳ　８０Ａ
 72
     5
 11
642.350295
 21
-492.141052
 31
0.0
100
AcDbText
  0
TEXT
  5
795
100
AcDbEntity
  8
18
100
AcDbText
 10
614.4
 20
-544.0
 30
0.0
 40
20.0
  1
Ｄ３－０２０２４
 72
     5
 11
770.4
 21
-544.0
 31
0.0
100
AcDbText
  0
TEXT
  5
796
100
AcDbEntity
  8
18
100
AcDbText
 10
721.249634
 20
-507.674194
 30
0.0
 40
9.0
  1
′９９．１２．　２
 72
     5
 11
800.449634
 21
-507.674194
 31
0.0
100
AcDbText
  0
LINE
  5
797
100
AcDbEntity
  8
20
 62
     3
100
AcDbLine
 10
-720.0
 20
-554.0
 30
0.0
 11
800.0
 21
-554.0
 31
0.0
  0
LINE
  5
798
100
AcDbEntity
  8
20
 62
     3
100
AcDbLine
 10
-720.0
 20
528.0
 30
0.0
 11
800.0
 21
528.0
 31
0.0
  0
LINE
  5
799
100
AcDbEntity
  8
20
 62
     3
100
AcDbLine
 10
-720.0
 20
528.0
 30
0.0
 11
-720.0
 21
-554.0
 31
0.0
  0
LINE
  5
79A
100
AcDbEntity
  8
20
 62
     3
100
AcDbLine
 10
800.0
 20
528.0
 30
0.0
 11
800.0
 21
-554.0
 31
0.0
  0
LINE
  5
79B
100
AcDbEntity
  8
20
 62
     3
100
AcDbLine
 10
240.0
 20
-554.0
 30
0.0
 11
240.0
 21
-474.0
 31
0.0
  0
LINE
  5
79C
100
AcDbEntity
  8
20
 62
     3
100
AcDbLine
 10
428.0
 20
-554.0
 30
0.0
 11
428.0
 21
-474.0
 31
0.0
  0
LINE
  5
79D
100
AcDbEntity
  8
20
100
AcDbLine
 10
428.0
 20
-514.0
 30
0.0
 11
800.0
 21
-514.0
 31
0.0
  0
LINE
  5
79E
100
AcDbEntity
  8
20
 62
     3
100
AcDbLine
 10
240.0
 20
-474.0
 30
0.0
 11
800.0
 21
-474.0
 31
0.0
  0
LINE
  5
79F
100
AcDbEntity
  8
20
100
AcDbLine
 10
720.0
 20
-514.0
 30
0.0
 11
720.0
 21
-474.0
 31
0.0
  0
LINE
  5
7A0
100
AcDbEntity
  8
20
100
AcDbLine
 10
720.0
 20
-494.0
 30
0.0
 11
800.0
 21
-494.0
 31
0.0
  0
LINE
  5
7A1
100
AcDbEntity
  8
20
100
AcDbLine
 10
484.0
 20
-554.0
 30
0.0
 11
484.0
 21
-474.0
 31
0.0
  0
LINE
  5
7A2
100
AcDbEntity
  8
20
100
AcDbLine
 10
524.0
 20
-554.0
 30
0.0
 11
524.0
 21
-514.0
 31
0.0
  0
LINE
  5
7A3
100
AcDbEntity
  8
20
100
AcDbLine
 10
604.0
 20
-554.0
 30
0.0
 11
604.0
 21
-514.0
 31
0.0
  0
LINE
  5
7A4
100
AcDbEntity
  8
20
100
AcDbLine
 10
494.913658
 20
-543.086342
 30
0.0
 11
511.593163
 21
-526.406837
 31
0.0
  0
TEXT
  5
7A5
100
AcDbEntity
  8
20
100
AcDbText
 10
526.133316
 20
-529.987671
 30
0.0
 40
7.2
  1
ＤＲＡＷＩＮＧ　ＮＯ．
 72
     5
 11
603.893316
 21
-529.987671
 31
0.0
100
AcDbText
  0
TEXT
  5
7A6
100
AcDbEntity
  8
20
100
AcDbText
 10
534.0
 20
-546.0
 30
0.0
 40
12.0
  1
図　　　番
 72
     5
 11
591.6
 21
-546.0
 31
0.0
100
AcDbText
  0
TEXT
  5
7A7
100
AcDbEntity
  8
20
100
AcDbText
 10
744.0
 20
-488.0
 30
0.0
 40
8.0
  1
ＤＡＴＥ
 72
     5
 11
774.4
 21
-488.0
 31
0.0
100
AcDbText
  0
TEXT
  5
7A8
100
AcDbEntity
  8
20
100
AcDbText
 10
436.004284
 20
-531.844116
 30
0.0
 40
8.0
  1
ＳＣＡＬＥ
 72
     5
 11
474.404284
 21
-531.844116
 31
0.0
100
AcDbText
  0
TEXT
  5
7A9
100
AcDbEntity
  8
20
100
AcDbText
 10
432.0
 20
-546.0
 30
0.0
 40
12.0
  1
尺　　度
 72
     5
 11
477.6
 21
-546.0
 31
0.0
100
AcDbText
  0
TEXT
  5
7AA
100
AcDbEntity
  8
20
100
AcDbText
 10
430.004284
 20
-489.983539
 30
0.0
 40
8.0
  1
ＦＩＧ．ＮＯ．
 72
     5
 11
484.404284
 21
-489.983539
 31
0.0
100
AcDbText
  0
TEXT
  5
7AB
100
AcDbEntity
  8
20
100
AcDbText
 10
432.0
 20
-506.0
 30
0.0
 40
12.0
  1
名　　称
 72
     5
 11
477.6
 21
-506.0
 31
0.0
100
AcDbText
  0
TEXT
  5
7AC
100
AcDbEntity
  8
20
100
AcDbText
 10
242.2621
 20
-505.881012
 30
0.0
 40
9.2
  1
ＴＯＭＯＥ　ＶＡＬＶＥ　ＣＯ．，ＬＴＤ．
 72
     5
 11
424.4221
 21
-505.881012
 31
0.0
100
AcDbText
  0
TEXT
  5
7AD
100
AcDbEntity
  8
20
100
AcDbText
 10
270.0
 20
-533.159241
 30
0.0
 40
16.0
  1
巴バルブ株式会社
 72
     5
 11
394.8
 21
-533.159241
 31
0.0
100
AcDbText
  0
ENDSEC
  0
SECTION
  2
OBJECTS
  0
DICTIONARY
  5
832
100
AcDbDictionary
  3
ACAD_GROUP
350
833
  3
ACAD_MLINESTYLE
350
834
  0
DICTIONARY
  5
833
102
{ACAD_REACTORS
330
832
102
}
100
AcDbDictionary
  0
DICTIONARY
  5
834
102
{ACAD_REACTORS
330
832
102
}
100
AcDbDictionary
  3
STANDARD
350
835
  0
MLINESTYLE
  5
835
102
{ACAD_REACTORS
330
834
102
}
100
AcDbMlineStyle
  2
STANDARD
 70
     0
  3

 62
     0
 51
90.0
 52
90.0
 71
     2
 49
0.5
 62
   256
  6
BYLAYER
 49
-0.5
 62
   256
  6
BYLAYER
  0
ENDSEC
  0
EOF
