  0
SECTION
  2
HEADER
  9
$ACADVER
  1
AC1012
  9
$DWGCODEPAGE
  3
ansi_932
  9
$INSBASE
 10
0.0
 20
0.0
 30
0.0
  9
$EXTMIN
 10
-1050.0
 20
-742.5
 30
1.000000E+20
  9
$EXTMAX
 10
1050.0
 20
742.5
 30
-1.000000E+20
  9
$LIMMIN
 10
-1050.0
 20
-742.5
  9
$LIMMAX
 10
1050.0
 20
742.5
  9
$ORTHOMODE
 70
     0
  9
$REGENMODE
 70
     1
  9
$FILLMODE
 70
     1
  9
$QTEXTMODE
 70
     0
  9
$MIRRTEXT
 70
     1
  9
$DRAGMODE
 70
     2
  9
$LTSCALE
 40
1.0
  9
$OSMODE
 70
     0
  9
$ATTMODE
 70
     1
  9
$TEXTSIZE
 40
0.2
  9
$TRACEWID
 40
0.05
  9
$TEXTSTYLE
  7
STANDARD
  9
$CLAYER
  8
0
  9
$CELTYPE
  6
CONTINUOUS
  9
$CECOLOR
 62
   256
  9
$CELTSCALE
 40
1.0
  9
$DELOBJ
 70
     1
  9
$DISPSILH
 70
     0
  9
$DIMSCALE
 40
5.0
  9
$DIMASZ
 40
0.18
  9
$DIMEXO
 40
0.0625
  9
$DIMDLI
 40
0.38
  9
$DIMRND
 40
0.0
  9
$DIMDLE
 40
0.0
  9
$DIMEXE
 40
0.18
  9
$DIMTP
 40
0.0
  9
$DIMTM
 40
0.0
  9
$DIMTXT
 40
0.18
  9
$DIMCEN
 40
0.09
  9
$DIMTSZ
 40
0.0
  9
$DIMTOL
 70
     0
  9
$DIMLIM
 70
     0
  9
$DIMTIH
 70
     1
  9
$DIMTOH
 70
     1
  9
$DIMSE1
 70
     0
  9
$DIMSE2
 70
     0
  9
$DIMTAD
 70
     1
  9
$DIMZIN
 70
     0
  9
$DIMBLK
  1

  9
$DIMASO
 70
     1
  9
$DIMSHO
 70
     1
  9
$DIMPOST
  1

  9
$DIMAPOST
  1

  9
$DIMALT
 70
     0
  9
$DIMALTD
 70
     2
  9
$DIMALTF
 40
25.4
  9
$DIMLFAC
 40
1.0
  9
$DIMTOFL
 70
     0
  9
$DIMTVP
 40
0.0
  9
$DIMTIX
 70
     0
  9
$DIMSOXD
 70
     0
  9
$DIMSAH
 70
     0
  9
$DIMBLK1
  1

  9
$DIMBLK2
  1

  9
$DIMSTYLE
  2
STANDARD
  9
$DIMCLRD
 70
     0
  9
$DIMCLRE
 70
     0
  9
$DIMCLRT
 70
     0
  9
$DIMTFAC
 40
1.0
  9
$DIMGAP
 40
0.09
  9
$DIMJUST
 70
     0
  9
$DIMSD1
 70
     0
  9
$DIMSD2
 70
     0
  9
$DIMTOLJ
 70
     1
  9
$DIMTZIN
 70
     0
  9
$DIMALTZ
 70
     0
  9
$DIMALTTZ
 70
     0
  9
$DIMFIT
 70
     3
  9
$DIMUPT
 70
     0
  9
$DIMUNIT
 70
     2
  9
$DIMDEC
 70
     4
  9
$DIMTDEC
 70
     4
  9
$DIMALTU
 70
     2
  9
$DIMALTTD
 70
     2
  9
$DIMTXSTY
  7
STANDARD
  9
$DIMAUNIT
 70
     0
  9
$LUNITS
 70
     2
  9
$LUPREC
 70
     4
  9
$SKETCHINC
 40
0.1
  9
$FILLETRAD
 40
0.0
  9
$AUNITS
 70
     0
  9
$AUPREC
 70
     0
  9
$MENU
  1
acad
  9
$ELEVATION
 40
0.0
  9
$PELEVATION
 40
0.0
  9
$THICKNESS
 40
0.0
  9
$LIMCHECK
 70
     0
  9
$BLIPMODE
 70
     1
  9
$CHAMFERA
 40
0.0
  9
$CHAMFERB
 40
0.0
  9
$CHAMFERC
 40
0.0
  9
$CHAMFERD
 40
0.0
  9
$SKPOLY
 70
     0
  9
$TDCREATE
 40
2451515.000000000
  9
$TDUPDATE
 40
0.000000000
  9
$TDINDWG
 40
0.0000000000
  9
$TDUSRTIMER
 40
0.0000000000
  9
$USRTIMER
 70
     1
  9
$ANGBASE
 50
0.0
  9
$ANGDIR
 70
     0
  9
$PDMODE
 70
     0
  9
$PDSIZE
 40
0.0
  9
$PLINEWID
 40
0.0
  9
$COORDS
 70
     0
  9
$SPLFRAME
 70
     0
  9
$SPLINETYPE
 70
     6
  9
$SPLINESEGS
 70
     8
  9
$ATTDIA
 70
     0
  9
$ATTREQ
 70
     1
  9
$HANDLING
 70
     1
  9
$HANDSEED
  5
985
  9
$SURFTAB1
 70
     6
  9
$SURFTAB2
 70
     6
  9
$SURFTYPE
 70
     6
  9
$SURFU
 70
     6
  9
$SURFV
 70
     6
  9
$UCSNAME
  2

  9
$UCSORG
 10
0.0
 20
0.0
 30
0.0
  9
$UCSXDIR
 10
1.0
 20
0.0
 30
0.0
  9
$UCSYDIR
 10
0.0
 20
1.0
 30
0.0
  9
$PUCSNAME
  2

  9
$PUCSORG
 10
0.0
 20
0.0
 30
0.0
  9
$PUCSXDIR
 10
1.0
 20
0.0
 30
0.0
  9
$PUCSYDIR
 10
0.0
 20
1.0
 30
0.0
  9
$USERI1
 70
     0
  9
$USERI2
 70
     0
  9
$USERI3
 70
     0
  9
$USERI4
 70
     0
  9
$USERI5
 70
     0
  9
$USERR1
 40
0.0
  9
$USERR2
 40
0.0
  9
$USERR3
 40
0.0
  9
$USERR4
 40
0.0
  9
$USERR5
 40
0.0
  9
$WORLDVIEW
 70
     1
  9
$SHADEDGE
 70
     3
  9
$SHADEDIF
 70
    70
  9
$TILEMODE
 70
     1
  9
$MAXACTVP
 70
    16
  9
$PINSBASE
 10
0.0
 20
0.0
 30
0.0
  9
$PLIMCHECK
 70
     0
  9
$PEXTMIN
 10
1.000000E+20
 20
1.000000E+20
 30
1.000000E+20
  9
$PEXTMAX
 10
-1.000000E+20
 20
-1.000000E+20
 30
-1.000000E+20
  9
$PLIMMIN
 10
0.0
 20
0.0
  9
$PLIMMAX
 10
12.0
 20
9.0
  9
$UNITMODE
 70
     0
  9
$VISRETAIN
 70
     0
  9
$PLINEGEN
 70
     1
  9
$PSLTSCALE
 70
     0
  9
$TREEDEPTH
 70
  3020
  9
$PICKSTYLE
 70
     1
  9
$CMLSTYLE
  2
STANDARD
  9
$CMLJUST
 70
     0
  9
$CMLSCALE
 40
1.0
  9
$SAVEIMAGES
 70
     0
  0
ENDSEC
  0
SECTION
  2
CLASSES
  0
CLASS
  1
LWPOLYLINE
  2
AcDbPolyline
  3
"AutoCAD"
 90
    32768
280
     0
281
     1
  0
CLASS
  1
IMAGE
  2
AcDbRasterImage
  3
ISM
 90
    32895
280
     0
281
     1
  0
CLASS
  1
OLE2FRAME
  2
AcDbOle2Frame
  3
""
 90
    32768
280
     0
281
     1
  0
CLASS
  1
HATCH
  2
AcDbHatch
  3
"ACAD_SEDONA"
 90
    32768
280
     0
281
     1
  0
CLASS
  1
DICTIONARYVAR
  2
AcDbDictionaryVar
  3
"AutoCAD"
 90
    32768
280
     0
281
     0
  0
CLASS
  1
RASTERVARIABLES
  2
AcDbRasterVariables
  3
ISM
 90
    32768
280
     0
281
     0
  0
CLASS
  1
IMAGEDEF
  2
AcDbRasterImageDef
  3
ISM
 90
    32768
280
     0
281
     0
  0
CLASS
  1
IMAGEDEF_REACTOR
  2
AcDbRasterImageDefReactor
  3
ISM
 90
    32769
280
     0
281
     0
  0
CLASS
  1
IDBUFFER
  2
AcDbIdBuffer
  3
"Acad"
 90
    32768
280
     0
281
     0
  0
CLASS
  1
SPATIAL_FILTER
  2
AcDbSpatialFilter
  3
"Acad"
 90
    32768
280
     0
281
     0
  0
CLASS
  1
XRECORD
  2
AcDbXrecord
  3
"<Built In>"
 90
    32768
280
     0
281
     0
  0
CLASS
  1
SORTENTSTABLE
  2
AcDbSortentsTable
  3
"AutoCAD"
 90
    32768
280
     0
281
     0
  0
CLASS
  1
LAYER_INDEX
  2
AcDbLayerIndex
  3
"Acad"
 90
    32768
280
     0
281
     0
  0
CLASS
  1
SPATIAL_INDEX
  2
AcDbSpatialIndex
  3
"Acad"
 90
    32768
280
     0
281
     0
  0
CLASS
  1
OBJECT_PTR
  2
CAseDLPNTableRecord
  3
"ASE-LPNTableRecord"
 90
    32769
280
     0
281
     0
  0
CLASS
  1
LAYOUT
  2
AcDbLayout
  3
"AutoCAD 2000"
 90
    32768
280
     0
281
     0
  0
CLASS
  1
PLOTSETTINGS
  2
AcDbPlotSettings
  3
"AutoCAD 2000"
 90
    32768
280
     0
281
     0
  0
CLASS
  1
ACDBDICTIONARYWDFLT
  2
AcDbDictionaryWithDefault
  3
"AutoCAD 2000"
 90
    32768
280
     0
281
     0
  0
CLASS
  1
ACDBPLACEHOLDER
  2
AcDbPlaceHolder
  3
"AutoCAD 2000"
 90
    32768
280
     0
281
     0
  0
CLASS
  1
VBA_PROJECT
  2
AcDbVbaProject
  3
"acadvba"
 90
    32768
280
     0
281
     0
  0
CLASS
  1
WIPEOUT
  2
AcDbWipeout
  3
WipeOut|AutoCAD Express Tool|expresstools@autodesk.com
 90
    32895
280
     0
281
     1
  0
CLASS
  1
WIPEOUTVARIABLES
  2
AcDbWipeoutVariables
  3
WipeOut|AutoCAD Express Tool|expresstools@autodesk.com
 90
    32768
280
     0
281
     0
  0
CLASS
  1
RTEXT
  2
RText
  3
RText|AutoCAD Express Tool|expresstools@autodesk.com
 90
    32768
280
     0
281
     1
  0
CLASS
  1
ARCALIGNEDTEXT
  2
AcDbArcAlignedText
  3
ATEXT|AutoCAD Express Tool|expresstools@autodesk.com
 90
    32768
280
     0
281
     1
  0
ENDSEC
  0
SECTION
  2
TABLES
  0
TABLE
  2
VPORT
  5
6
100
AcDbSymbolTable
 70
     1
  0
VPORT
  5
1C
100
AcDbSymbolTableRecord
100
AcDbViewportTableRecord
  2
*ACTIVE
 70
     0
 10
0.0
 20
0.0
 11
1.0
 21
1.0
 12
0.0
 22
0.0
 13
0.0
 23
0.0
 14
1.0
 24
1.0
 15
0.0
 25
0.0
 16
0.0
 26
0.0
 36
1.0
 17
0.0
 27
0.0
 37
0.0
 40
1485.0
 41
1.414141
 42
50.0
 43
0.0
 44
0.0
 50
0.0
 51
0.0
 71
     0
 72
   500
 73
     1
 74
     1
 75
     0
 76
     0
 77
     0
 78
     0
  0
ENDTAB
  0
TABLE
  2
LTYPE
  5
3
100
AcDbSymbolTable
 70
     9
  0
LTYPE
  5
C
100
AcDbSymbolTableRecord
100
AcDbLinetypeTableRecord
  2
BYBLOCK
 70
    64
  3

 72
    65
 73
     0
 40
0.0
  0
LTYPE
  5
D
100
AcDbSymbolTableRecord
100
AcDbLinetypeTableRecord
  2
BYLAYER
 70
    64
  3

 72
    65
 73
     0
 40
0.0
  0
LTYPE
  5
E
100
AcDbSymbolTableRecord
100
AcDbLinetypeTableRecord
  2
CONTINUOUS
 70
     0
  3
Solid line
 72
    65
 73
     0
 40
0.0
  0
LTYPE
  5
F
100
AcDbSymbolTableRecord
100
AcDbLinetypeTableRecord
  2
DASHED
 70
     0
  3
__ __ __ __ __ __ __ __ __ __ __ __ __ __ __
 72
    65
 73
     2
 40
2.0
 49
1.2
 74
     0
 49
-0.8
 74
     0
  0
LTYPE
  5
10
100
AcDbSymbolTableRecord
100
AcDbLinetypeTableRecord
  2
CENTER
 70
     0
  3
____ _ ____ _ ____ _ ____ _ ____ _ ____ _ ____
 72
    65
 73
     4
 40
12.0
 49
9.0
 74
     0
 49
-1.0
 74
     0
 49
1.0
 74
     0
 49
-1.0
 74
     0
  0
LTYPE
  5
11
100
AcDbSymbolTableRecord
100
AcDbLinetypeTableRecord
  2
HIDDEN
 70
     0
  3
_ _ _ _ _ _ _ _ _ _ _ _ _ _ _ _ _ _ _ _ _ _ _
 72
    65
 73
     2
 40
3.2
 49
2.4
 74
     0
 49
-0.8
 74
     0
  0
LTYPE
  5
12
100
AcDbSymbolTableRecord
100
AcDbLinetypeTableRecord
  2
PHANTOM
 70
     0
  3
_____ _ _ _____ _ _ _____ _ _ _____ _ _ _____
 72
    65
 73
     6
 40
13.5
 49
9.0
 74
     0
 49
-1.0
 74
     0
 49
1.0
 74
     0
 49
-0.5
 74
     0
 49
1.0
 74
     0
 49
-1.0
 74
     0
  0
LTYPE
  5
13
100
AcDbSymbolTableRecord
100
AcDbLinetypeTableRecord
  2
DOT
 70
     0
  3
...............................................
 72
    65
 73
     2
 40
1.0
 49
0.5
 74
     0
 49
-0.5
 74
     0
  0
LTYPE
  5
14
100
AcDbSymbolTableRecord
100
AcDbLinetypeTableRecord
  2
DASHDOT
 70
     0
  3
__ . __ . __ . __ . __ . __ . __ . __ . __ . __
 72
    65
 73
     4
 40
8.0
 49
5.0
 74
     0
 49
-1.0
 74
     0
 49
1.0
 74
     0
 49
-1.0
 74
     0
  0
ENDTAB
  0
TABLE
  2
LAYER
  5
1
100
AcDbSymbolTable
 70
     7
  0
LAYER
  5
15
100
AcDbSymbolTableRecord
100
AcDbLayerTableRecord
  2
0
 70
     0
 62
     7
  6
CONTINUOUS
  0
LAYER
  5
16
100
AcDbSymbolTableRecord
100
AcDbLayerTableRecord
  2
1
 70
     0
 62
     7
  6
CONTINUOUS
  0
LAYER
  5
17
100
AcDbSymbolTableRecord
100
AcDbLayerTableRecord
  2
2
 70
     0
 62
     7
  6
CONTINUOUS
  0
LAYER
  5
18
100
AcDbSymbolTableRecord
100
AcDbLayerTableRecord
  2
3
 70
     0
 62
     7
  6
CONTINUOUS
  0
LAYER
  5
19
100
AcDbSymbolTableRecord
100
AcDbLayerTableRecord
  2
5
 70
     0
 62
     7
  6
CONTINUOUS
  0
LAYER
  5
1A
100
AcDbSymbolTableRecord
100
AcDbLayerTableRecord
  2
18
 70
     0
 62
     7
  6
CONTINUOUS
  0
LAYER
  5
1B
100
AcDbSymbolTableRecord
100
AcDbLayerTableRecord
  2
20
 70
     0
 62
     7
  6
CONTINUOUS
  0
ENDTAB
  0
TABLE
  2
STYLE
  5
2
100
AcDbSymbolTable
 70
     1
  0
STYLE
  5
1E
100
AcDbSymbolTableRecord
100
AcDbTextStyleTableRecord
  2
STANDARD
 70
    64
 40
0.0
 41
1.0
 50
0.0
 71
     0
 42
1.0
  3
txt
  4
BIGFONT
  0
ENDTAB
  0
TABLE
  2
VIEW
  5
4
100
AcDbSymbolTable
 70
     0
  0
ENDTAB
  0
TABLE
  2
UCS
  5
5
100
AcDbSymbolTable
 70
     0
  0
ENDTAB
  0
TABLE
  2
APPID
  5
7
100
AcDbSymbolTable
 70
     1
  0
APPID
  5
1D
100
AcDbSymbolTableRecord
100
AcDbRegAppTableRecord
  2
ACAD
 70
     0
  0
ENDTAB
  0
TABLE
  2
DIMSTYLE
  5
8
100
AcDbSymbolTable
 70
     1
  0
DIMSTYLE
105
31
100
AcDbSymbolTableRecord
100
AcDbDimStyleTableRecord
  2
STANDARD
 70
     0
  3

  4

  5

  6

  7

 40
5.0
 41
0.18
 42
0.0625
 43
0.38
 44
0.18
 45
0.0
 46
0.0
 47
0.0
 48
0.0
 71
     0
 72
     0
 73
     1
 74
     1
 75
     0
 76
     0
 77
     1
 78
     0
140
0.18
141
0.09
142
0.0
143
25.4
144
1.0
145
0.0
146
1.0
147
0.09
170
     0
171
     2
172
     0
173
     0
174
     0
175
     0
176
     0
177
     0
178
     0
270
     2
271
     4
272
     4
273
     2
274
     2
275
     0
280
     0
281
     0
282
     0
283
     1
284
     0
285
     0
286
     0
287
     3
288
     0
340
1E
  0
ENDTAB
  0
TABLE
  2
BLOCK_RECORD
  5
2C
100
AcDbSymbolTable
 70
    11
  0
BLOCK_RECORD
  5
2A
100
AcDbSymbolTableRecord
100
AcDbBlockTableRecord
  2
*MODEL_SPACE
  0
BLOCK_RECORD
  5
2B
100
AcDbSymbolTableRecord
100
AcDbBlockTableRecord
  2
*PAPER_SPACE
  0
BLOCK_RECORD
  5
1F
100
AcDbSymbolTableRecord
100
AcDbBlockTableRecord
  2
*D0
  0
BLOCK_RECORD
  5
20
100
AcDbSymbolTableRecord
100
AcDbBlockTableRecord
  2
*D1
  0
BLOCK_RECORD
  5
21
100
AcDbSymbolTableRecord
100
AcDbBlockTableRecord
  2
*D2
  0
BLOCK_RECORD
  5
22
100
AcDbSymbolTableRecord
100
AcDbBlockTableRecord
  2
*D3
  0
BLOCK_RECORD
  5
23
100
AcDbSymbolTableRecord
100
AcDbBlockTableRecord
  2
*D4
  0
BLOCK_RECORD
  5
24
100
AcDbSymbolTableRecord
100
AcDbBlockTableRecord
  2
*D5
  0
BLOCK_RECORD
  5
25
100
AcDbSymbolTableRecord
100
AcDbBlockTableRecord
  2
*D6
  0
BLOCK_RECORD
  5
26
100
AcDbSymbolTableRecord
100
AcDbBlockTableRecord
  2
*D7
  0
BLOCK_RECORD
  5
27
100
AcDbSymbolTableRecord
100
AcDbBlockTableRecord
  2
*D8
  0
BLOCK_RECORD
  5
28
100
AcDbSymbolTableRecord
100
AcDbBlockTableRecord
  2
*D9
  0
BLOCK_RECORD
  5
29
100
AcDbSymbolTableRecord
100
AcDbBlockTableRecord
  2
*D10
  0
ENDTAB
  0
ENDSEC
  0
SECTION
  2
BLOCKS
  0
BLOCK
  5
2D
100
AcDbEntity
  8
0
100
AcDbBlockBegin
  2
*MODEL_SPACE
 70
     0
 10
0.0
 20
0.0
 30
0.0
  3
*MODEL_SPACE
  1

  0
ENDBLK
  5
2E
100
AcDbEntity
  8
0
100
AcDbBlockEnd
  0
BLOCK
  5
2F
100
AcDbEntity
 67
     1
  8
0
100
AcDbBlockBegin
  2
*PAPER_SPACE
 70
     0
 10
0.0
 20
0.0
 30
0.0
  3
*PAPER_SPACE
  1

  0
ENDBLK
  5
30
100
AcDbEntity
 67
     1
  8
0
100
AcDbBlockEnd
  0
BLOCK
  5
8F7
100
AcDbEntity
  8
5
100
AcDbBlockBegin
  2
*D0
 70
     1
 10
0.0
 20
0.0
 30
0.0
  3
*D0
  1

  0
TEXT
  5
8F8
100
AcDbEntity
  8
5
 62
     2
100
AcDbText
 10
-78.536267
 20
-131.61747
 30
0.0
 40
16.5
  1
175
 50
90.0
 41
1.4
 72
     5
 11
-78.536267
 21
-101.587471
 31
0.0
100
AcDbText
  0
LINE
  5
8F9
100
AcDbEntity
  8
5
 62
     2
100
AcDbLine
 10
123.142961
 20
-201.792471
 30
0.0
 11
-81.036267
 21
-201.792471
 31
0.0
  0
LINE
  5
8FA
100
AcDbEntity
  8
5
 62
     2
100
AcDbLine
 10
-76.036267
 20
-201.792471
 30
0.0
 11
-73.448077
 21
-192.133212
 31
0.0
  0
LINE
  5
8FB
100
AcDbEntity
  8
5
 62
     2
100
AcDbLine
 10
-76.036267
 20
-201.792471
 30
0.0
 11
-78.624458
 21
-192.133212
 31
0.0
  0
LINE
  5
8FC
100
AcDbEntity
  8
5
 62
     2
100
AcDbLine
 10
-73.448077
 20
-192.133212
 30
0.0
 11
-78.624458
 21
-192.133212
 31
0.0
  0
LINE
  5
8FD
100
AcDbEntity
  8
5
 62
     2
100
AcDbLine
 10
-76.036267
 20
-201.792471
 30
0.0
 11
-76.036267
 21
-26.792471
 31
0.0
  0
LINE
  5
8FE
100
AcDbEntity
  8
5
 62
     2
100
AcDbLine
 10
-76.036267
 20
-26.792471
 30
0.0
 11
-78.624458
 21
-36.451729
 31
0.0
  0
LINE
  5
8FF
100
AcDbEntity
  8
5
 62
     2
100
AcDbLine
 10
-76.036267
 20
-26.792471
 30
0.0
 11
-73.448077
 21
-36.451729
 31
0.0
  0
LINE
  5
900
100
AcDbEntity
  8
5
 62
     2
100
AcDbLine
 10
-78.624458
 20
-36.451729
 30
0.0
 11
-73.448077
 21
-36.451729
 31
0.0
  0
LINE
  5
901
100
AcDbEntity
  8
5
 62
     2
100
AcDbLine
 10
118.142961
 20
-26.792471
 30
0.0
 11
-81.036267
 21
-26.792471
 31
0.0
  0
ENDBLK
  5
902
100
AcDbEntity
  8
5
100
AcDbBlockEnd
  0
BLOCK
  5
903
100
AcDbEntity
  8
5
100
AcDbBlockBegin
  2
*D1
 70
     1
 10
0.0
 20
0.0
 30
0.0
  3
*D1
  1

  0
TEXT
  5
904
100
AcDbEntity
  8
5
 62
     2
100
AcDbText
 10
-78.536267
 20
54.88253
 30
0.0
 40
16.5
  1
198
 50
90.0
 41
1.4
 72
     5
 11
-78.536267
 21
84.912529
 31
0.0
100
AcDbText
  0
LINE
  5
905
100
AcDbEntity
  8
5
 62
     2
100
AcDbLine
 10
118.142961
 20
-26.792471
 30
0.0
 11
-81.036267
 21
-26.792471
 31
0.0
  0
LINE
  5
906
100
AcDbEntity
  8
5
 62
     2
100
AcDbLine
 10
-76.036267
 20
-26.792471
 30
0.0
 11
-73.448077
 21
-17.133212
 31
0.0
  0
LINE
  5
907
100
AcDbEntity
  8
5
 62
     2
100
AcDbLine
 10
-76.036267
 20
-26.792471
 30
0.0
 11
-78.624458
 21
-17.133212
 31
0.0
  0
LINE
  5
908
100
AcDbEntity
  8
5
 62
     2
100
AcDbLine
 10
-73.448077
 20
-17.133212
 30
0.0
 11
-78.624458
 21
-17.133212
 31
0.0
  0
LINE
  5
909
100
AcDbEntity
  8
5
 62
     2
100
AcDbLine
 10
-76.036267
 20
-26.792471
 30
0.0
 11
-76.036267
 21
171.207529
 31
0.0
  0
LINE
  5
90A
100
AcDbEntity
  8
5
 62
     2
100
AcDbLine
 10
-76.036267
 20
171.207529
 30
0.0
 11
-78.624458
 21
161.548271
 31
0.0
  0
LINE
  5
90B
100
AcDbEntity
  8
5
 62
     2
100
AcDbLine
 10
-76.036267
 20
171.207529
 30
0.0
 11
-73.448077
 21
161.548271
 31
0.0
  0
LINE
  5
90C
100
AcDbEntity
  8
5
 62
     2
100
AcDbLine
 10
-78.624458
 20
161.548271
 30
0.0
 11
-73.448077
 21
161.548271
 31
0.0
  0
LINE
  5
90D
100
AcDbEntity
  8
5
 62
     2
100
AcDbLine
 10
185.642961
 20
171.207529
 30
0.0
 11
-81.036267
 21
171.207529
 31
0.0
  0
ENDBLK
  5
90E
100
AcDbEntity
  8
5
100
AcDbBlockEnd
  0
BLOCK
  5
90F
100
AcDbEntity
  8
5
100
AcDbBlockBegin
  2
*D2
 70
     1
 10
0.0
 20
0.0
 30
0.0
  3
*D2
  1

  0
TEXT
  5
910
100
AcDbEntity
  8
5
 62
     2
100
AcDbText
 10
-15.073994
 20
30.10753
 30
0.0
 40
16.5
  1
%%c100
 50
90.0
 41
1.4
 72
     5
 11
-15.073994
 21
71.687529
 31
0.0
100
AcDbText
  0
LINE
  5
911
100
AcDbEntity
  8
5
 62
     2
100
AcDbLine
 10
39.692961
 20
103.207529
 30
0.0
 11
-17.573994
 21
103.207529
 31
0.0
  0
LINE
  5
912
100
AcDbEntity
  8
5
 62
     2
100
AcDbLine
 10
-12.573994
 20
103.207529
 30
0.0
 11
-15.162185
 21
93.548271
 31
0.0
  0
LINE
  5
913
100
AcDbEntity
  8
5
 62
     2
100
AcDbLine
 10
-12.573994
 20
103.207529
 30
0.0
 11
-9.985804
 21
93.548271
 31
0.0
  0
LINE
  5
914
100
AcDbEntity
  8
5
 62
     2
100
AcDbLine
 10
-15.162185
 20
93.548271
 30
0.0
 11
-9.985804
 21
93.548271
 31
0.0
  0
LINE
  5
915
100
AcDbEntity
  8
5
 62
     2
100
AcDbLine
 10
-12.573994
 20
103.207529
 30
0.0
 11
-12.573994
 21
3.207529
 31
0.0
  0
LINE
  5
916
100
AcDbEntity
  8
5
 62
     2
100
AcDbLine
 10
-12.573994
 20
3.207529
 30
0.0
 11
-9.985804
 21
12.866788
 31
0.0
  0
LINE
  5
917
100
AcDbEntity
  8
5
 62
     2
100
AcDbLine
 10
-12.573994
 20
3.207529
 30
0.0
 11
-15.162185
 21
12.866788
 31
0.0
  0
LINE
  5
918
100
AcDbEntity
  8
5
 62
     2
100
AcDbLine
 10
-9.985804
 20
12.866788
 30
0.0
 11
-15.162185
 21
12.866788
 31
0.0
  0
LINE
  5
919
100
AcDbEntity
  8
5
 62
     2
100
AcDbLine
 10
39.692961
 20
3.207529
 30
0.0
 11
-17.573994
 21
3.207529
 31
0.0
  0
ENDBLK
  5
91A
100
AcDbEntity
  8
5
100
AcDbBlockEnd
  0
BLOCK
  5
91B
100
AcDbEntity
  8
5
100
AcDbBlockBegin
  2
*D3
 70
     1
 10
0.0
 20
0.0
 30
0.0
  3
*D3
  1

  0
TEXT
  5
91C
100
AcDbEntity
  8
5
 62
     2
100
AcDbText
 10
-78.536267
 20
-321.61747
 30
0.0
 40
16.5
  1
205
 50
90.0
 41
1.4
 72
     5
 11
-78.536267
 21
-291.587471
 31
0.0
100
AcDbText
  0
LINE
  5
91D
100
AcDbEntity
  8
5
 62
     2
100
AcDbLine
 10
139.908625
 20
-406.792471
 30
0.0
 11
-81.036267
 21
-406.792471
 31
0.0
  0
LINE
  5
91E
100
AcDbEntity
  8
5
 62
     2
100
AcDbLine
 10
-76.036267
 20
-406.792471
 30
0.0
 11
-73.448077
 21
-397.133212
 31
0.0
  0
LINE
  5
91F
100
AcDbEntity
  8
5
 62
     2
100
AcDbLine
 10
-76.036267
 20
-406.792471
 30
0.0
 11
-78.624458
 21
-397.133212
 31
0.0
  0
LINE
  5
920
100
AcDbEntity
  8
5
 62
     2
100
AcDbLine
 10
-73.448077
 20
-397.133212
 30
0.0
 11
-78.624458
 21
-397.133212
 31
0.0
  0
LINE
  5
921
100
AcDbEntity
  8
5
 62
     2
100
AcDbLine
 10
-76.036267
 20
-406.792471
 30
0.0
 11
-76.036267
 21
-201.792471
 31
0.0
  0
LINE
  5
922
100
AcDbEntity
  8
5
 62
     2
100
AcDbLine
 10
-76.036267
 20
-201.792471
 30
0.0
 11
-78.624458
 21
-211.451729
 31
0.0
  0
LINE
  5
923
100
AcDbEntity
  8
5
 62
     2
100
AcDbLine
 10
-76.036267
 20
-201.792471
 30
0.0
 11
-73.448077
 21
-211.451729
 31
0.0
  0
LINE
  5
924
100
AcDbEntity
  8
5
 62
     2
100
AcDbLine
 10
-78.624458
 20
-211.451729
 30
0.0
 11
-73.448077
 21
-211.451729
 31
0.0
  0
LINE
  5
925
100
AcDbEntity
  8
5
 62
     2
100
AcDbLine
 10
123.142961
 20
-201.792471
 30
0.0
 11
-81.036267
 21
-201.792471
 31
0.0
  0
ENDBLK
  5
926
100
AcDbEntity
  8
5
100
AcDbBlockEnd
  0
BLOCK
  5
927
100
AcDbEntity
  8
5
100
AcDbBlockBegin
  2
*D4
 70
     1
 10
0.0
 20
0.0
 30
0.0
  3
*D4
  1

  0
TEXT
  5
928
100
AcDbEntity
  8
5
 62
     2
100
AcDbText
 10
-78.536267
 20
-505.61747
 30
0.0
 40
16.5
  1
163
 50
90.0
 41
1.4
 72
     5
 11
-78.536267
 21
-475.587471
 31
0.0
100
AcDbText
  0
LINE
  5
929
100
AcDbEntity
  8
5
 62
     2
100
AcDbLine
 10
165.642961
 20
-569.792471
 30
0.0
 11
-81.036267
 21
-569.792471
 31
0.0
  0
LINE
  5
92A
100
AcDbEntity
  8
5
 62
     2
100
AcDbLine
 10
-76.036267
 20
-569.792471
 30
0.0
 11
-73.448077
 21
-560.133212
 31
0.0
  0
LINE
  5
92B
100
AcDbEntity
  8
5
 62
     2
100
AcDbLine
 10
-76.036267
 20
-569.792471
 30
0.0
 11
-78.624458
 21
-560.133212
 31
0.0
  0
LINE
  5
92C
100
AcDbEntity
  8
5
 62
     2
100
AcDbLine
 10
-73.448077
 20
-560.133212
 30
0.0
 11
-78.624458
 21
-560.133212
 31
0.0
  0
LINE
  5
92D
100
AcDbEntity
  8
5
 62
     2
100
AcDbLine
 10
-76.036267
 20
-569.792471
 30
0.0
 11
-76.036267
 21
-406.792471
 31
0.0
  0
LINE
  5
92E
100
AcDbEntity
  8
5
 62
     2
100
AcDbLine
 10
-76.036267
 20
-406.792471
 30
0.0
 11
-78.624458
 21
-416.451729
 31
0.0
  0
LINE
  5
92F
100
AcDbEntity
  8
5
 62
     2
100
AcDbLine
 10
-76.036267
 20
-406.792471
 30
0.0
 11
-73.448077
 21
-416.451729
 31
0.0
  0
LINE
  5
930
100
AcDbEntity
  8
5
 62
     2
100
AcDbLine
 10
-78.624458
 20
-416.451729
 30
0.0
 11
-73.448077
 21
-416.451729
 31
0.0
  0
LINE
  5
931
100
AcDbEntity
  8
5
 62
     2
100
AcDbLine
 10
139.908625
 20
-406.792471
 30
0.0
 11
-81.036267
 21
-406.792471
 31
0.0
  0
ENDBLK
  5
932
100
AcDbEntity
  8
5
100
AcDbBlockEnd
  0
BLOCK
  5
933
100
AcDbEntity
  8
5
100
AcDbBlockBegin
  2
*D5
 70
     1
 10
0.0
 20
0.0
 30
0.0
  3
*D5
  1

  0
TEXT
  5
934
100
AcDbEntity
  8
5
 62
     2
100
AcDbText
 10
132.042962
 20
-610.004349
 30
0.0
 40
16.5
  1
23
 41
1.4
 72
     5
 11
150.522961
 21
-610.004349
 31
0.0
100
AcDbText
  0
LINE
  5
935
100
AcDbEntity
  8
5
 62
     2
100
AcDbLine
 10
167.642961
 20
-518.292471
 30
0.0
 11
167.642961
 21
-617.504349
 31
0.0
  0
LINE
  5
936
100
AcDbEntity
  8
5
 62
     2
100
AcDbLine
 10
167.642961
 20
-612.504349
 30
0.0
 11
157.983703
 21
-609.916158
 31
0.0
  0
LINE
  5
937
100
AcDbEntity
  8
5
 62
     2
100
AcDbLine
 10
167.642961
 20
-612.504349
 30
0.0
 11
157.983703
 21
-615.092539
 31
0.0
  0
LINE
  5
938
100
AcDbEntity
  8
5
 62
     2
100
AcDbLine
 10
157.983703
 20
-609.916158
 30
0.0
 11
157.983703
 21
-615.092539
 31
0.0
  0
LINE
  5
939
100
AcDbEntity
  8
5
 62
     2
100
AcDbLine
 10
129.542962
 20
-612.504349
 30
0.0
 11
215.642961
 21
-612.504349
 31
0.0
  0
LINE
  5
93A
100
AcDbEntity
  8
5
 62
     2
100
AcDbLine
 10
190.642961
 20
-612.504349
 30
0.0
 11
200.30222
 21
-615.092539
 31
0.0
  0
LINE
  5
93B
100
AcDbEntity
  8
5
 62
     2
100
AcDbLine
 10
190.642961
 20
-612.504349
 30
0.0
 11
200.30222
 21
-609.916158
 31
0.0
  0
LINE
  5
93C
100
AcDbEntity
  8
5
 62
     2
100
AcDbLine
 10
200.30222
 20
-615.092539
 30
0.0
 11
200.30222
 21
-609.916158
 31
0.0
  0
LINE
  5
93D
100
AcDbEntity
  8
5
 62
     2
100
AcDbLine
 10
190.642961
 20
-590.765063
 30
0.0
 11
190.642961
 21
-617.504349
 31
0.0
  0
ENDBLK
  5
93E
100
AcDbEntity
  8
5
100
AcDbBlockEnd
  0
BLOCK
  5
93F
100
AcDbEntity
  8
5
100
AcDbBlockBegin
  2
*D6
 70
     1
 10
0.0
 20
0.0
 30
0.0
  3
*D6
  1

  0
TEXT
  5
940
100
AcDbEntity
  8
5
 62
     2
100
AcDbText
 10
184.592962
 20
-647.08313
 30
0.0
 40
16.5
  1
57
 41
1.4
 72
     5
 11
203.072961
 21
-647.08313
 31
0.0
100
AcDbText
  0
LINE
  5
941
100
AcDbEntity
  8
5
 62
     2
100
AcDbLine
 10
167.642961
 20
-518.292471
 30
0.0
 11
167.642961
 21
-654.58313
 31
0.0
  0
LINE
  5
942
100
AcDbEntity
  8
5
 62
     2
100
AcDbLine
 10
167.642961
 20
-649.58313
 30
0.0
 11
177.30222
 21
-652.17132
 31
0.0
  0
LINE
  5
943
100
AcDbEntity
  8
5
 62
     2
100
AcDbLine
 10
167.642961
 20
-649.58313
 30
0.0
 11
177.30222
 21
-646.994939
 31
0.0
  0
LINE
  5
944
100
AcDbEntity
  8
5
 62
     2
100
AcDbLine
 10
177.30222
 20
-652.17132
 30
0.0
 11
177.30222
 21
-646.994939
 31
0.0
  0
LINE
  5
945
100
AcDbEntity
  8
5
 62
     2
100
AcDbLine
 10
167.642961
 20
-649.58313
 30
0.0
 11
224.642961
 21
-649.58313
 31
0.0
  0
LINE
  5
946
100
AcDbEntity
  8
5
 62
     2
100
AcDbLine
 10
224.642961
 20
-649.58313
 30
0.0
 11
214.983703
 21
-646.994939
 31
0.0
  0
LINE
  5
947
100
AcDbEntity
  8
5
 62
     2
100
AcDbLine
 10
224.642961
 20
-649.58313
 30
0.0
 11
214.983703
 21
-652.17132
 31
0.0
  0
LINE
  5
948
100
AcDbEntity
  8
5
 62
     2
100
AcDbLine
 10
214.983703
 20
-646.994939
 30
0.0
 11
214.983703
 21
-652.17132
 31
0.0
  0
LINE
  5
949
100
AcDbEntity
  8
5
 62
     2
100
AcDbLine
 10
224.642961
 20
-518.292471
 30
0.0
 11
224.642961
 21
-654.58313
 31
0.0
  0
ENDBLK
  5
94A
100
AcDbEntity
  8
5
100
AcDbBlockEnd
  0
BLOCK
  5
94B
100
AcDbEntity
  8
5
100
AcDbBlockBegin
  2
*D7
 70
     1
 10
0.0
 20
0.0
 30
0.0
  3
*D7
  1

  0
TEXT
  5
94C
100
AcDbEntity
  8
5
 62
     2
100
AcDbText
 10
-414.432038
 20
583.478355
 30
0.0
 40
16.5
  1
143
 41
1.4
 72
     5
 11
-384.402039
 21
583.478355
 31
0.0
100
AcDbText
  0
LINE
  5
94D
100
AcDbEntity
  8
5
 62
     2
100
AcDbLine
 10
-468.607039
 20
543.369252
 30
0.0
 11
-468.607039
 21
585.978355
 31
0.0
  0
LINE
  5
94E
100
AcDbEntity
  8
5
 62
     2
100
AcDbLine
 10
-468.607039
 20
580.978355
 30
0.0
 11
-458.94778
 21
578.390165
 31
0.0
  0
LINE
  5
94F
100
AcDbEntity
  8
5
 62
     2
100
AcDbLine
 10
-468.607039
 20
580.978355
 30
0.0
 11
-458.94778
 21
583.566546
 31
0.0
  0
LINE
  5
950
100
AcDbEntity
  8
5
 62
     2
100
AcDbLine
 10
-458.94778
 20
578.390165
 30
0.0
 11
-458.94778
 21
583.566546
 31
0.0
  0
LINE
  5
951
100
AcDbEntity
  8
5
 62
     2
100
AcDbLine
 10
-468.607039
 20
580.978355
 30
0.0
 11
-325.607039
 21
580.978355
 31
0.0
  0
LINE
  5
952
100
AcDbEntity
  8
5
 62
     2
100
AcDbLine
 10
-325.607039
 20
580.978355
 30
0.0
 11
-335.266297
 21
583.566546
 31
0.0
  0
LINE
  5
953
100
AcDbEntity
  8
5
 62
     2
100
AcDbLine
 10
-325.607039
 20
580.978355
 30
0.0
 11
-335.266297
 21
578.390165
 31
0.0
  0
LINE
  5
954
100
AcDbEntity
  8
5
 62
     2
100
AcDbLine
 10
-335.266297
 20
583.566546
 30
0.0
 11
-335.266297
 21
578.390165
 31
0.0
  0
LINE
  5
955
100
AcDbEntity
  8
5
 62
     2
100
AcDbLine
 10
-325.607039
 20
504.634746
 30
0.0
 11
-325.607039
 21
585.978355
 31
0.0
  0
ENDBLK
  5
956
100
AcDbEntity
  8
5
100
AcDbBlockEnd
  0
BLOCK
  5
957
100
AcDbEntity
  8
5
100
AcDbBlockBegin
  2
*D8
 70
     1
 10
0.0
 20
0.0
 30
0.0
  3
*D8
  1

  0
TEXT
  5
958
100
AcDbEntity
  8
5
 62
     2
100
AcDbText
 10
-569.432038
 20
583.478355
 30
0.0
 40
16.5
  1
167
 41
1.4
 72
     5
 11
-539.402039
 21
583.478355
 31
0.0
100
AcDbText
  0
LINE
  5
959
100
AcDbEntity
  8
5
 62
     2
100
AcDbLine
 10
-635.607039
 20
372.707529
 30
0.0
 11
-635.607039
 21
585.978355
 31
0.0
  0
LINE
  5
95A
100
AcDbEntity
  8
5
 62
     2
100
AcDbLine
 10
-635.607039
 20
580.978355
 30
0.0
 11
-625.94778
 21
578.390165
 31
0.0
  0
LINE
  5
95B
100
AcDbEntity
  8
5
 62
     2
100
AcDbLine
 10
-635.607039
 20
580.978355
 30
0.0
 11
-625.94778
 21
583.566546
 31
0.0
  0
LINE
  5
95C
100
AcDbEntity
  8
5
 62
     2
100
AcDbLine
 10
-625.94778
 20
578.390165
 30
0.0
 11
-625.94778
 21
583.566546
 31
0.0
  0
LINE
  5
95D
100
AcDbEntity
  8
5
 62
     2
100
AcDbLine
 10
-635.607039
 20
580.978355
 30
0.0
 11
-468.607039
 21
580.978355
 31
0.0
  0
LINE
  5
95E
100
AcDbEntity
  8
5
 62
     2
100
AcDbLine
 10
-468.607039
 20
580.978355
 30
0.0
 11
-478.266297
 21
583.566546
 31
0.0
  0
LINE
  5
95F
100
AcDbEntity
  8
5
 62
     2
100
AcDbLine
 10
-468.607039
 20
580.978355
 30
0.0
 11
-478.266297
 21
578.390165
 31
0.0
  0
LINE
  5
960
100
AcDbEntity
  8
5
 62
     2
100
AcDbLine
 10
-478.266297
 20
583.566546
 30
0.0
 11
-478.266297
 21
578.390165
 31
0.0
  0
LINE
  5
961
100
AcDbEntity
  8
5
 62
     2
100
AcDbLine
 10
-468.607039
 20
543.369252
 30
0.0
 11
-468.607039
 21
585.978355
 31
0.0
  0
ENDBLK
  5
962
100
AcDbEntity
  8
5
100
AcDbBlockEnd
  0
BLOCK
  5
963
100
AcDbEntity
  8
5
100
AcDbBlockBegin
  2
*D9
 70
     1
 10
0.0
 20
0.0
 30
0.0
  3
*D9
  1

  0
TEXT
  5
964
100
AcDbEntity
  8
5
 62
     2
100
AcDbText
 10
-255.178433
 20
475.65753
 30
0.0
 40
16.5
  1
85
 50
90.0
 41
1.4
 72
     5
 11
-255.178433
 21
494.137529
 31
0.0
100
AcDbText
  0
LINE
  5
965
100
AcDbEntity
  8
5
 62
     2
100
AcDbLine
 10
-307.920421
 20
444.707529
 30
0.0
 11
-247.678432
 21
444.707529
 31
0.0
  0
LINE
  5
966
100
AcDbEntity
  8
5
 62
     2
100
AcDbLine
 10
-252.678432
 20
444.707529
 30
0.0
 11
-250.090242
 21
454.366788
 31
0.0
  0
LINE
  5
967
100
AcDbEntity
  8
5
 62
     2
100
AcDbLine
 10
-252.678432
 20
444.707529
 30
0.0
 11
-255.266623
 21
454.366788
 31
0.0
  0
LINE
  5
968
100
AcDbEntity
  8
5
 62
     2
100
AcDbLine
 10
-250.090242
 20
454.366788
 30
0.0
 11
-255.266623
 21
454.366788
 31
0.0
  0
LINE
  5
969
100
AcDbEntity
  8
5
 62
     2
100
AcDbLine
 10
-252.678432
 20
444.707529
 30
0.0
 11
-252.678432
 21
529.707529
 31
0.0
  0
LINE
  5
96A
100
AcDbEntity
  8
5
 62
     2
100
AcDbLine
 10
-252.678432
 20
529.707529
 30
0.0
 11
-255.266623
 21
520.048271
 31
0.0
  0
LINE
  5
96B
100
AcDbEntity
  8
5
 62
     2
100
AcDbLine
 10
-252.678432
 20
529.707529
 30
0.0
 11
-250.090242
 21
520.048271
 31
0.0
  0
LINE
  5
96C
100
AcDbEntity
  8
5
 62
     2
100
AcDbLine
 10
-255.266623
 20
520.048271
 30
0.0
 11
-250.090242
 21
520.048271
 31
0.0
  0
LINE
  5
96D
100
AcDbEntity
  8
5
 62
     2
100
AcDbLine
 10
-435.283539
 20
529.707529
 30
0.0
 11
-247.678432
 21
529.707529
 31
0.0
  0
ENDBLK
  5
96E
100
AcDbEntity
  8
5
100
AcDbBlockEnd
  0
BLOCK
  5
96F
100
AcDbEntity
  8
5
100
AcDbBlockBegin
  2
*D10
 70
     1
 10
0.0
 20
0.0
 30
0.0
  3
*D10
  1

  0
TEXT
  5
970
100
AcDbEntity
  8
5
 62
     2
100
AcDbText
 10
-255.178432
 20
350.38253
 30
0.0
 40
16.5
  1
154
 50
90.0
 41
1.4
 72
     5
 11
-255.178432
 21
380.412529
 31
0.0
100
AcDbText
  0
LINE
  5
971
100
AcDbEntity
  8
5
 62
     2
100
AcDbLine
 10
-369.324471
 20
290.707529
 30
0.0
 11
-247.678432
 21
290.707529
 31
0.0
  0
LINE
  5
972
100
AcDbEntity
  8
5
 62
     2
100
AcDbLine
 10
-252.678432
 20
290.707529
 30
0.0
 11
-250.090242
 21
300.366788
 31
0.0
  0
LINE
  5
973
100
AcDbEntity
  8
5
 62
     2
100
AcDbLine
 10
-252.678432
 20
290.707529
 30
0.0
 11
-255.266623
 21
300.366788
 31
0.0
  0
LINE
  5
974
100
AcDbEntity
  8
5
 62
     2
100
AcDbLine
 10
-250.090242
 20
300.366788
 30
0.0
 11
-255.266623
 21
300.366788
 31
0.0
  0
LINE
  5
975
100
AcDbEntity
  8
5
 62
     2
100
AcDbLine
 10
-252.678432
 20
290.707529
 30
0.0
 11
-252.678432
 21
444.707529
 31
0.0
  0
LINE
  5
976
100
AcDbEntity
  8
5
 62
     2
100
AcDbLine
 10
-252.678432
 20
444.707529
 30
0.0
 11
-255.266623
 21
435.048271
 31
0.0
  0
LINE
  5
977
100
AcDbEntity
  8
5
 62
     2
100
AcDbLine
 10
-252.678432
 20
444.707529
 30
0.0
 11
-250.090242
 21
435.048271
 31
0.0
  0
LINE
  5
978
100
AcDbEntity
  8
5
 62
     2
100
AcDbLine
 10
-255.266623
 20
435.048271
 30
0.0
 11
-250.090242
 21
435.048271
 31
0.0
  0
LINE
  5
979
100
AcDbEntity
  8
5
 62
     2
100
AcDbLine
 10
-307.920421
 20
444.707529
 30
0.0
 11
-247.678432
 21
444.707529
 31
0.0
  0
ENDBLK
  5
97A
100
AcDbEntity
  8
5
100
AcDbBlockEnd
  0
ENDSEC
  0
SECTION
  2
ENTITIES
  0
LINE
  5
32
100
AcDbEntity
  8
1
  6
CENTER
 62
     2
100
AcDbLine
 10
-609.888138
 20
-406.792471
 30
0.0
 11
-329.820488
 21
-406.792471
 31
0.0
  0
LINE
  5
33
100
AcDbEntity
  8
1
  6
CENTER
 62
     2
100
AcDbLine
 10
-468.607039
 20
-585.765063
 30
0.0
 11
-468.607039
 21
182.607529
 31
0.0
  0
LINE
  5
34
100
AcDbEntity
  8
1
  6
CENTER
 62
     2
100
AcDbLine
 10
144.908625
 20
-406.792471
 30
0.0
 11
250.991213
 21
-406.792471
 31
0.0
  0
LINE
  5
35
100
AcDbEntity
  8
1
  6
CENTER
 62
     2
100
AcDbLine
 10
190.642961
 20
-585.765063
 30
0.0
 11
190.642961
 21
182.607529
 31
0.0
  0
LINE
  5
36
100
AcDbEntity
  8
1
100
AcDbLine
 10
-498.207039
 20
-556.792471
 30
0.0
 11
-443.207039
 21
-556.792471
 31
0.0
  0
LINE
  5
37
100
AcDbEntity
  8
1
100
AcDbLine
 10
-527.107039
 20
-216.792471
 30
0.0
 11
-410.107039
 21
-216.792471
 31
0.0
  0
LINE
  5
38
100
AcDbEntity
  8
1
100
AcDbLine
 10
-531.107039
 20
-201.792471
 30
0.0
 11
-531.107039
 21
-212.792471
 31
0.0
  0
LINE
  5
39
100
AcDbEntity
  8
1
100
AcDbLine
 10
-406.107039
 20
-201.792471
 30
0.0
 11
-406.107039
 21
-212.792471
 31
0.0
  0
ARC
  5
3A
100
AcDbEntity
  8
1
100
AcDbCircle
 10
-410.107039
 20
-212.792471
 30
0.0
 40
4.0
100
AcDbArc
 50
270.0
 51
360.0
  0
ARC
  5
3B
100
AcDbEntity
  8
1
100
AcDbCircle
 10
-527.107039
 20
-212.792471
 30
0.0
 40
4.0
100
AcDbArc
 50
180.0
 51
270.0
  0
ARC
  5
3C
100
AcDbEntity
  8
1
100
AcDbCircle
 10
-439.207039
 20
-224.792471
 30
0.0
 40
8.0
100
AcDbArc
 50
90.0
 51
180.0
  0
ARC
  5
3D
100
AcDbEntity
  8
1
100
AcDbCircle
 10
-502.207039
 20
-224.792471
 30
0.0
 40
8.0
100
AcDbArc
 50
0.0
 51
90.0
  0
ARC
  5
3E
100
AcDbEntity
  8
1
100
AcDbCircle
 10
-442.207039
 20
-298.996367
 30
0.0
 40
5.0
100
AcDbArc
 50
180.0
 51
255.19054
  0
ARC
  5
3F
100
AcDbEntity
  8
1
100
AcDbCircle
 10
-499.207039
 20
-298.996367
 30
0.0
 40
5.0
100
AcDbArc
 50
284.80946
 51
360.0
  0
ARC
  5
40
100
AcDbEntity
  8
1
100
AcDbCircle
 10
-415.918063
 20
-246.792471
 30
0.0
 40
30.0
100
AcDbArc
 50
90.0
 51
128.739425
  0
ARC
  5
41
100
AcDbEntity
  8
1
100
AcDbCircle
 10
-447.207039
 20
-207.792471
 30
0.0
 40
20.0
100
AcDbArc
 50
281.536959
 51
308.739425
  0
ARC
  5
42
100
AcDbEntity
  8
1
100
AcDbCircle
 10
-525.496014
 20
-246.792471
 30
0.0
 40
30.0
100
AcDbArc
 50
51.260575
 51
90.0
  0
ARC
  5
43
100
AcDbEntity
  8
1
100
AcDbCircle
 10
-494.207039
 20
-207.792471
 30
0.0
 40
20.0
100
AcDbArc
 50
231.260575
 51
258.463041
  0
ARC
  5
44
100
AcDbEntity
  8
1
100
AcDbCircle
 10
-442.207039
 20
-232.287368
 30
0.0
 40
5.0
100
AcDbArc
 50
101.536959
 51
180.0
  0
ARC
  5
45
100
AcDbEntity
  8
1
100
AcDbCircle
 10
-499.207039
 20
-232.287368
 30
0.0
 40
5.0
100
AcDbArc
 50
0.0
 51
78.463041
  0
LINE
  5
46
100
AcDbEntity
  8
1
100
AcDbLine
 10
224.642961
 20
-300.292471
 30
0.0
 11
224.642961
 21
-513.292471
 31
0.0
  0
LINE
  5
47
100
AcDbEntity
  8
1
100
AcDbLine
 10
167.642961
 20
-300.292471
 30
0.0
 11
167.642961
 21
-513.292471
 31
0.0
  0
LINE
  5
48
100
AcDbEntity
  8
1
100
AcDbLine
 10
216.642961
 20
-300.292471
 30
0.0
 11
224.642961
 21
-300.292471
 31
0.0
  0
LINE
  5
49
100
AcDbEntity
  8
1
100
AcDbLine
 10
216.642961
 20
-513.292471
 30
0.0
 11
224.642961
 21
-513.292471
 31
0.0
  0
LINE
  5
4A
100
AcDbEntity
  8
1
100
AcDbLine
 10
169.642961
 20
-556.792471
 30
0.0
 11
211.642961
 21
-556.792471
 31
0.0
  0
LINE
  5
4B
100
AcDbEntity
  8
1
100
AcDbLine
 10
132.142961
 20
-216.792471
 30
0.0
 11
249.142961
 21
-216.792471
 31
0.0
  0
LINE
  5
4C
100
AcDbEntity
  8
1
100
AcDbLine
 10
128.142961
 20
-201.792471
 30
0.0
 11
128.142961
 21
-212.792471
 31
0.0
  0
LINE
  5
4D
100
AcDbEntity
  8
1
100
AcDbLine
 10
253.142961
 20
-201.792471
 30
0.0
 11
253.142961
 21
-212.792471
 31
0.0
  0
ARC
  5
4E
100
AcDbEntity
  8
1
100
AcDbCircle
 10
132.142961
 20
-212.792471
 30
0.0
 40
4.0
100
AcDbArc
 50
180.0
 51
270.0
  0
ARC
  5
4F
100
AcDbEntity
  8
1
100
AcDbCircle
 10
249.142961
 20
-212.792471
 30
0.0
 40
4.0
100
AcDbArc
 50
270.0
 51
360.0
  0
LINE
  5
50
100
AcDbEntity
  8
1
100
AcDbLine
 10
169.642961
 20
-291.792471
 30
0.0
 11
170.642961
 21
-291.792471
 31
0.0
  0
LINE
  5
51
100
AcDbEntity
  8
1
100
AcDbLine
 10
169.642961
 20
-521.792471
 30
0.0
 11
170.642961
 21
-521.792471
 31
0.0
  0
LINE
  5
52
100
AcDbEntity
  8
1
100
AcDbLine
 10
211.642961
 20
-564.292471
 30
0.0
 11
211.642961
 21
-514.754668
 31
0.0
  0
LINE
  5
53
100
AcDbEntity
  8
1
100
AcDbLine
 10
211.642961
 20
-298.830273
 30
0.0
 11
211.642961
 21
-224.792471
 31
0.0
  0
LINE
  5
54
100
AcDbEntity
  8
1
100
AcDbLine
 10
169.642961
 20
-564.292471
 30
0.0
 11
169.642961
 21
-521.792471
 31
0.0
  0
LINE
  5
55
100
AcDbEntity
  8
1
100
AcDbLine
 10
169.642961
 20
-291.792471
 30
0.0
 11
169.642961
 21
-224.792471
 31
0.0
  0
ARC
  5
56
100
AcDbEntity
  8
1
100
AcDbCircle
 10
219.642961
 20
-224.792471
 30
0.0
 40
8.0
100
AcDbArc
 50
90.0
 51
180.0
  0
ARC
  5
57
100
AcDbEntity
  8
1
100
AcDbCircle
 10
161.642961
 20
-224.792471
 30
0.0
 40
8.0
100
AcDbArc
 50
0.0
 51
90.0
  0
LINE
  5
58
100
AcDbEntity
  8
1
100
AcDbLine
 10
170.642961
 20
-298.566288
 30
0.0
 11
170.642961
 21
-291.792471
 31
0.0
  0
ARC
  5
59
100
AcDbEntity
  8
1
100
AcDbCircle
 10
167.642961
 20
-297.292471
 30
0.0
 40
3.0
100
AcDbArc
 50
270.0
 51
360.0
  0
LINE
  5
5A
100
AcDbEntity
  8
1
100
AcDbLine
 10
170.642961
 20
-521.792471
 30
0.0
 11
170.642961
 21
-515.018654
 31
0.0
  0
ARC
  5
5B
100
AcDbEntity
  8
1
100
AcDbCircle
 10
167.642961
 20
-516.292471
 30
0.0
 40
3.0
100
AcDbArc
 50
0.0
 51
90.0
  0
ARC
  5
5C
100
AcDbEntity
  8
1
100
AcDbCircle
 10
216.642961
 20
-295.292471
 30
0.0
 40
5.0
100
AcDbArc
 50
180.0
 51
270.0
  0
ARC
  5
5D
100
AcDbEntity
  8
1
100
AcDbCircle
 10
216.642961
 20
-518.292471
 30
0.0
 40
5.0
100
AcDbArc
 50
90.0
 51
180.0
  0
ARC
  5
5E
100
AcDbEntity
  8
1
100
AcDbCircle
 10
241.642961
 20
-246.792471
 30
0.0
 40
30.0
100
AcDbArc
 50
90.0
 51
180.0
  0
ARC
  5
5F
100
AcDbEntity
  8
1
100
AcDbCircle
 10
139.642961
 20
-246.792471
 30
0.0
 40
30.0
100
AcDbArc
 50
0.0
 51
90.0
  0
LINE
  5
60
100
AcDbEntity
  8
1
100
AcDbLine
 10
-464.607039
 20
-246.792471
 30
0.0
 11
-472.607039
 21
-246.792471
 31
0.0
  0
LINE
  5
61
100
AcDbEntity
  8
1
100
AcDbLine
 10
186.642961
 20
-232.287368
 30
0.0
 11
194.642961
 21
-232.287368
 31
0.0
  0
LINE
  5
62
100
AcDbEntity
  8
1
100
AcDbLine
 10
186.642961
 20
-220.792471
 30
0.0
 11
186.642961
 21
-228.287368
 31
0.0
  0
LINE
  5
63
100
AcDbEntity
  8
1
100
AcDbLine
 10
194.642961
 20
-220.792471
 30
0.0
 11
194.642961
 21
-228.287368
 31
0.0
  0
ARC
  5
64
100
AcDbEntity
  8
1
100
AcDbCircle
 10
198.642961
 20
-220.792471
 30
0.0
 40
4.0
100
AcDbArc
 50
90.0
 51
180.0
  0
ARC
  5
65
100
AcDbEntity
  8
1
100
AcDbCircle
 10
182.642961
 20
-220.792471
 30
0.0
 40
4.0
100
AcDbArc
 50
0.0
 51
90.0
  0
ARC
  5
66
100
AcDbEntity
  8
1
100
AcDbCircle
 10
182.642961
 20
-228.287368
 30
0.0
 40
4.0
100
AcDbArc
 50
270.0
 51
0.0
  0
ARC
  5
67
100
AcDbEntity
  8
1
100
AcDbCircle
 10
198.642961
 20
-228.287368
 30
0.0
 40
4.0
100
AcDbArc
 50
180.0
 51
270.0
  0
LINE
  5
68
100
AcDbEntity
  8
1
100
AcDbLine
 10
-472.607039
 20
-220.792471
 30
0.0
 11
-472.607039
 21
-242.792471
 31
0.0
  0
LINE
  5
69
100
AcDbEntity
  8
1
100
AcDbLine
 10
-464.607039
 20
-220.792471
 30
0.0
 11
-464.607039
 21
-242.792471
 31
0.0
  0
ARC
  5
6A
100
AcDbEntity
  8
1
100
AcDbCircle
 10
-460.607039
 20
-220.792471
 30
0.0
 40
4.0
100
AcDbArc
 50
90.0
 51
180.0
  0
ARC
  5
6B
100
AcDbEntity
  8
1
100
AcDbCircle
 10
-476.607039
 20
-220.792471
 30
0.0
 40
4.0
100
AcDbArc
 50
0.0
 51
90.0
  0
ARC
  5
6C
100
AcDbEntity
  8
1
100
AcDbCircle
 10
-476.607039
 20
-242.792471
 30
0.0
 40
4.0
100
AcDbArc
 50
270.0
 51
0.0
  0
ARC
  5
6D
100
AcDbEntity
  8
1
100
AcDbCircle
 10
-460.607039
 20
-242.792471
 30
0.0
 40
4.0
100
AcDbArc
 50
180.0
 51
270.0
  0
LINE
  5
6E
100
AcDbEntity
  8
1
100
AcDbLine
 10
-494.207039
 20
-524.643743
 30
0.0
 11
-494.207039
 21
-514.588574
 31
0.0
  0
LINE
  5
6F
100
AcDbEntity
  8
1
100
AcDbLine
 10
-447.207039
 20
-524.643743
 30
0.0
 11
-447.207039
 21
-514.588574
 31
0.0
  0
LINE
  5
70
100
AcDbEntity
  8
1
100
AcDbLine
 10
-498.207039
 20
-564.292471
 30
0.0
 11
-498.207039
 21
-546.438115
 31
0.0
  0
LINE
  5
71
100
AcDbEntity
  8
1
100
AcDbLine
 10
-443.207039
 20
-564.292471
 30
0.0
 11
-443.207039
 21
-546.438115
 31
0.0
  0
ARC
  5
72
100
AcDbEntity
  8
1
100
AcDbCircle
 10
-442.207039
 20
-514.588574
 30
0.0
 40
5.0
100
AcDbArc
 50
104.80946
 51
180.0
  0
ARC
  5
73
100
AcDbEntity
  8
1
100
AcDbCircle
 10
-499.207039
 20
-514.588574
 30
0.0
 40
5.0
100
AcDbArc
 50
0.0
 51
75.19054
  0
LINE
  5
74
100
AcDbEntity
  8
1
100
AcDbLine
 10
169.642961
 20
-544.792471
 30
0.0
 11
211.642961
 21
-544.792471
 31
0.0
  0
LINE
  5
75
100
AcDbEntity
  8
1
  6
CENTER
 62
     2
100
AcDbLine
 10
-491.707039
 20
-574.867541
 30
0.0
 11
-491.707039
 21
-548.099932
 31
0.0
  0
LINE
  5
76
100
AcDbEntity
  8
1
  6
CENTER
 62
     2
100
AcDbLine
 10
-449.707039
 20
-574.867541
 30
0.0
 11
-449.707039
 21
-548.099932
 31
0.0
  0
LINE
  5
77
100
AcDbEntity
  8
1
  6
CENTER
 62
     2
100
AcDbLine
 10
175.642961
 20
-548.099932
 30
0.0
 11
175.642961
 21
-574.867541
 31
0.0
  0
LINE
  5
78
100
AcDbEntity
  8
1
  6
CENTER
 62
     2
100
AcDbLine
 10
205.642961
 20
-548.099932
 30
0.0
 11
205.642961
 21
-574.867541
 31
0.0
  0
LINE
  5
79
100
AcDbEntity
  8
1
100
AcDbLine
 10
-482.592203
 20
-291.792471
 30
0.0
 11
-458.821874
 21
-291.792471
 31
0.0
  0
LINE
  5
7A
100
AcDbEntity
  8
1
100
AcDbLine
 10
-456.821874
 20
-293.792471
 30
0.0
 11
-456.821874
 21
-298.60217
 31
0.0
  0
LINE
  5
7B
100
AcDbEntity
  8
1
100
AcDbLine
 10
-484.592203
 20
-293.792471
 30
0.0
 11
-484.592203
 21
-298.60217
 31
0.0
  0
ARC
  5
7C
100
AcDbEntity
  8
1
100
AcDbCircle
 10
-458.821874
 20
-293.792471
 30
0.0
 40
2.0
100
AcDbArc
 50
0.0
 51
90.0
  0
ARC
  5
7D
100
AcDbEntity
  8
1
100
AcDbCircle
 10
-482.592203
 20
-293.792471
 30
0.0
 40
2.0
100
AcDbArc
 50
90.0
 51
180.0
  0
ARC
  5
7E
100
AcDbEntity
  8
1
100
AcDbCircle
 10
-453.821874
 20
-298.60217
 30
0.0
 40
3.0
100
AcDbArc
 50
180.0
 51
261.129458
  0
ARC
  5
7F
100
AcDbEntity
  8
1
100
AcDbCircle
 10
-487.592203
 20
-298.60217
 30
0.0
 40
3.0
100
AcDbArc
 50
278.870542
 51
360.0
  0
LINE
  5
80
100
AcDbEntity
  8
1
100
AcDbLine
 10
-482.592203
 20
-521.792471
 30
0.0
 11
-458.821874
 21
-521.792471
 31
0.0
  0
LINE
  5
81
100
AcDbEntity
  8
1
100
AcDbLine
 10
-456.821874
 20
-519.792471
 30
0.0
 11
-456.821874
 21
-514.982772
 31
0.0
  0
LINE
  5
82
100
AcDbEntity
  8
1
100
AcDbLine
 10
-484.592203
 20
-519.792471
 30
0.0
 11
-484.592203
 21
-514.982772
 31
0.0
  0
ARC
  5
83
100
AcDbEntity
  8
1
100
AcDbCircle
 10
-458.821874
 20
-519.792471
 30
0.0
 40
2.0
100
AcDbArc
 50
270.0
 51
360.0
  0
ARC
  5
84
100
AcDbEntity
  8
1
100
AcDbCircle
 10
-482.592203
 20
-519.792471
 30
0.0
 40
2.0
100
AcDbArc
 50
180.0
 51
270.0
  0
ARC
  5
85
100
AcDbEntity
  8
1
100
AcDbCircle
 10
-453.821874
 20
-514.982772
 30
0.0
 40
3.0
100
AcDbArc
 50
98.870542
 51
180.0
  0
ARC
  5
86
100
AcDbEntity
  8
1
100
AcDbCircle
 10
-487.592203
 20
-514.982772
 30
0.0
 40
3.0
100
AcDbArc
 50
0.0
 51
81.129458
  0
ARC
  5
87
100
AcDbEntity
  8
1
100
AcDbCircle
 10
216.642961
 20
-298.830273
 30
0.0
 40
5.0
100
AcDbArc
 50
180.0
 51
270.0
  0
ARC
  5
88
100
AcDbEntity
  8
1
100
AcDbCircle
 10
167.642961
 20
-298.566288
 30
0.0
 40
3.0
100
AcDbArc
 50
270.0
 51
360.0
  0
ARC
  5
89
100
AcDbEntity
  8
1
100
AcDbCircle
 10
216.642961
 20
-514.754668
 30
0.0
 40
5.0
100
AcDbArc
 50
90.0
 51
180.0
  0
ARC
  5
8A
100
AcDbEntity
  8
1
100
AcDbCircle
 10
167.642961
 20
-515.018654
 30
0.0
 40
3.0
100
AcDbArc
 50
0.0
 51
90.0
  0
ARC
  5
8B
100
AcDbEntity
  8
1
100
AcDbCircle
 10
-366.770591
 20
-363.740584
 30
0.0
 40
9.0
100
AcDbArc
 50
172.573565
 51
232.426435
  0
LINE
  5
8C
100
AcDbEntity
  8
1
100
AcDbLine
 10
-581.392404
 20
-371.792471
 30
0.0
 11
-572.057758
 21
-371.792471
 31
0.0
  0
LINE
  5
8D
100
AcDbEntity
  8
1
100
AcDbLine
 10
-369.35632
 20
-371.792471
 30
0.0
 11
-360.021674
 21
-371.792471
 31
0.0
  0
LINE
  5
8E
100
AcDbEntity
  8
1
100
AcDbLine
 10
-581.392404
 20
-441.792471
 30
0.0
 11
-572.057758
 21
-441.792471
 31
0.0
  0
LINE
  5
8F
100
AcDbEntity
  8
1
100
AcDbLine
 10
-369.35632
 20
-441.792471
 30
0.0
 11
-360.021674
 21
-441.792471
 31
0.0
  0
ARC
  5
90
100
AcDbEntity
  8
1
100
AcDbCircle
 10
-385.611212
 20
-361.284775
 30
0.0
 40
10.0
100
AcDbArc
 50
352.573565
 51
28.137058
  0
ARC
  5
91
100
AcDbEntity
  8
1
100
AcDbCircle
 10
-378.356403
 20
-378.799435
 30
0.0
 40
10.0
100
AcDbArc
 50
16.862942
 51
52.426435
  0
ARC
  5
92
100
AcDbEntity
  8
1
100
AcDbCircle
 10
-427.655152
 20
-302.856023
 30
0.0
 40
9.0
100
AcDbArc
 50
217.573565
 51
277.426435
  0
ARC
  5
93
100
AcDbEntity
  8
1
100
AcDbCircle
 10
-513.758925
 20
-302.856023
 30
0.0
 40
9.0
100
AcDbArc
 50
262.573565
 51
322.426435
  0
ARC
  5
94
100
AcDbEntity
  8
1
100
AcDbCircle
 10
-470.707039
 20
-406.792471
 30
0.0
 40
106.5
100
AcDbArc
 50
28.137058
 51
61.862942
  0
ARC
  5
95
100
AcDbEntity
  8
1
100
AcDbCircle
 10
-470.707039
 20
-406.792471
 30
0.0
 40
106.5
100
AcDbArc
 50
73.137058
 51
106.862942
  0
ARC
  5
96
100
AcDbEntity
  8
1
100
AcDbCircle
 10
-425.199343
 20
-321.696644
 30
0.0
 40
10.0
100
AcDbArc
 50
61.862942
 51
97.426435
  0
ARC
  5
97
100
AcDbEntity
  8
1
100
AcDbCircle
 10
-516.214734
 20
-321.696644
 30
0.0
 40
10.0
100
AcDbArc
 50
82.573565
 51
118.137058
  0
ARC
  5
98
100
AcDbEntity
  8
1
100
AcDbCircle
 10
-442.714003
 20
-314.441835
 30
0.0
 40
10.0
100
AcDbArc
 50
37.573565
 51
73.137058
  0
ARC
  5
99
100
AcDbEntity
  8
1
100
AcDbCircle
 10
-498.700075
 20
-314.441835
 30
0.0
 40
10.0
100
AcDbArc
 50
106.862942
 51
142.426435
  0
ARC
  5
9A
100
AcDbEntity
  8
1
100
AcDbCircle
 10
-430.707039
 20
-305.441752
 30
0.0
 40
5.0
100
AcDbArc
 50
180.0
 51
220.273133
  0
ARC
  5
9B
100
AcDbEntity
  8
1
100
AcDbCircle
 10
-510.707039
 20
-305.441752
 30
0.0
 40
5.0
100
AcDbArc
 50
319.726867
 51
360.0
  0
ARC
  5
9C
100
AcDbEntity
  8
1
100
AcDbCircle
 10
-369.35632
 20
-366.792471
 30
0.0
 40
5.0
100
AcDbArc
 50
229.726867
 51
270.0
  0
ARC
  5
9D
100
AcDbEntity
  8
1
100
AcDbCircle
 10
-470.707039
 20
-406.792471
 30
0.0
 40
106.5
100
AcDbArc
 50
343.137058
 51
16.862942
  0
ARC
  5
9E
100
AcDbEntity
  8
1
100
AcDbCircle
 10
-366.770591
 20
-449.844357
 30
0.0
 40
9.0
100
AcDbArc
 50
127.573565
 51
187.426435
  0
ARC
  5
9F
100
AcDbEntity
  8
1
100
AcDbCircle
 10
-385.611212
 20
-452.300166
 30
0.0
 40
10.0
100
AcDbArc
 50
331.862942
 51
7.426435
  0
ARC
  5
A0
100
AcDbEntity
  8
1
100
AcDbCircle
 10
-378.356403
 20
-434.785507
 30
0.0
 40
10.0
100
AcDbArc
 50
307.573565
 51
343.137058
  0
ARC
  5
A1
100
AcDbEntity
  8
1
100
AcDbCircle
 10
-369.35632
 20
-446.792471
 30
0.0
 40
5.0
100
AcDbArc
 50
90.0
 51
130.273133
  0
ARC
  5
A2
100
AcDbEntity
  8
1
100
AcDbCircle
 10
-470.707039
 20
-406.792471
 30
0.0
 40
106.5
100
AcDbArc
 50
118.137058
 51
151.862942
  0
ARC
  5
A3
100
AcDbEntity
  8
1
100
AcDbCircle
 10
-574.643486
 20
-363.740584
 30
0.0
 40
9.0
100
AcDbArc
 50
307.573565
 51
7.426435
  0
ARC
  5
A4
100
AcDbEntity
  8
1
100
AcDbCircle
 10
-555.802865
 20
-361.284775
 30
0.0
 40
10.0
100
AcDbArc
 50
151.862942
 51
187.426435
  0
ARC
  5
A5
100
AcDbEntity
  8
1
100
AcDbCircle
 10
-563.057674
 20
-378.799435
 30
0.0
 40
10.0
100
AcDbArc
 50
127.573565
 51
163.137058
  0
ARC
  5
A6
100
AcDbEntity
  8
1
100
AcDbCircle
 10
-572.057758
 20
-366.792471
 30
0.0
 40
5.0
100
AcDbArc
 50
270.0
 51
310.273133
  0
ARC
  5
A7
100
AcDbEntity
  8
1
100
AcDbCircle
 10
-470.707039
 20
-406.792471
 30
0.0
 40
106.5
100
AcDbArc
 50
163.137058
 51
196.862942
  0
ARC
  5
A8
100
AcDbEntity
  8
1
100
AcDbCircle
 10
-574.643486
 20
-449.844357
 30
0.0
 40
9.0
100
AcDbArc
 50
352.573565
 51
52.426435
  0
ARC
  5
A9
100
AcDbEntity
  8
1
100
AcDbCircle
 10
-555.802865
 20
-452.300166
 30
0.0
 40
10.0
100
AcDbArc
 50
172.573565
 51
208.137058
  0
ARC
  5
AA
100
AcDbEntity
  8
1
100
AcDbCircle
 10
-563.057674
 20
-434.785507
 30
0.0
 40
10.0
100
AcDbArc
 50
196.862942
 51
232.426435
  0
ARC
  5
AB
100
AcDbEntity
  8
1
100
AcDbCircle
 10
-572.057758
 20
-446.792471
 30
0.0
 40
5.0
100
AcDbArc
 50
49.726867
 51
90.0
  0
LINE
  5
AC
100
AcDbEntity
  8
1
100
AcDbLine
 10
-505.707039
 20
-515.758515
 30
0.0
 11
-505.707039
 21
-508.14319
 31
0.0
  0
LINE
  5
AD
100
AcDbEntity
  8
1
100
AcDbLine
 10
-435.707039
 20
-515.758515
 30
0.0
 11
-435.707039
 21
-508.14319
 31
0.0
  0
ARC
  5
AE
100
AcDbEntity
  8
1
100
AcDbCircle
 10
-470.707039
 20
-406.792471
 30
0.0
 40
106.5
100
AcDbArc
 50
298.137058
 51
331.862942
  0
ARC
  5
AF
100
AcDbEntity
  8
1
100
AcDbCircle
 10
-427.655152
 20
-510.728918
 30
0.0
 40
9.0
100
AcDbArc
 50
82.573565
 51
142.426435
  0
ARC
  5
B0
100
AcDbEntity
  8
1
100
AcDbCircle
 10
-470.707039
 20
-406.792471
 30
0.0
 40
106.5
100
AcDbArc
 50
208.137058
 51
241.862942
  0
ARC
  5
B1
100
AcDbEntity
  8
1
100
AcDbCircle
 10
-470.707039
 20
-406.792471
 30
0.0
 40
106.5
100
AcDbArc
 50
253.137058
 51
286.862942
  0
ARC
  5
B2
100
AcDbEntity
  8
1
100
AcDbCircle
 10
-513.758925
 20
-510.728918
 30
0.0
 40
9.0
100
AcDbArc
 50
37.573565
 51
97.426435
  0
ARC
  5
B3
100
AcDbEntity
  8
1
100
AcDbCircle
 10
-425.199343
 20
-491.888297
 30
0.0
 40
10.0
100
AcDbArc
 50
262.573565
 51
298.137058
  0
ARC
  5
B4
100
AcDbEntity
  8
1
100
AcDbCircle
 10
-442.714003
 20
-499.143106
 30
0.0
 40
10.0
100
AcDbArc
 50
286.862942
 51
322.426435
  0
ARC
  5
B5
100
AcDbEntity
  8
1
100
AcDbCircle
 10
-516.214734
 20
-491.888297
 30
0.0
 40
10.0
100
AcDbArc
 50
241.862942
 51
277.426435
  0
ARC
  5
B6
100
AcDbEntity
  8
1
100
AcDbCircle
 10
-498.700075
 20
-499.143106
 30
0.0
 40
10.0
100
AcDbArc
 50
217.573565
 51
253.137058
  0
ARC
  5
B7
100
AcDbEntity
  8
1
100
AcDbCircle
 10
-510.707039
 20
-508.14319
 30
0.0
 40
5.0
100
AcDbArc
 50
0.0
 51
40.273133
  0
ARC
  5
B8
100
AcDbEntity
  8
1
100
AcDbCircle
 10
-430.707039
 20
-508.14319
 30
0.0
 40
5.0
100
AcDbArc
 50
139.726867
 51
180.0
  0
LINE
  5
B9
100
AcDbEntity
  8
1
100
AcDbLine
 10
-357.350701
 20
-381.760677
 30
0.0
 11
-361.305257
 21
-384.043841
 31
0.0
  0
LINE
  5
BA
100
AcDbEntity
  8
1
100
AcDbLine
 10
-584.063376
 20
-431.824264
 30
0.0
 11
-580.10882
 21
-429.5411
 31
0.0
  0
LINE
  5
BB
100
AcDbEntity
  8
1
100
AcDbLine
 10
-584.063376
 20
-381.760677
 30
0.0
 11
-580.10882
 21
-384.043841
 31
0.0
  0
LINE
  5
BC
100
AcDbEntity
  8
1
100
AcDbLine
 10
-357.350701
 20
-431.824264
 30
0.0
 11
-361.305257
 21
-429.5411
 31
0.0
  0
ARC
  5
BD
100
AcDbEntity
  8
1
100
AcDbCircle
 10
-470.707039
 20
-406.792471
 30
0.0
 40
117.5
100
AcDbArc
 50
163.39845
 51
166.60155
  0
ARC
  5
BE
100
AcDbEntity
  8
1
100
AcDbCircle
 10
-470.707039
 20
-406.792471
 30
0.0
 40
117.5
100
AcDbArc
 50
193.39845
 51
196.60155
  0
ARC
  5
BF
100
AcDbEntity
  8
1
100
AcDbCircle
 10
-470.707039
 20
-406.792471
 30
0.0
 40
117.5
100
AcDbArc
 50
343.39845
 51
346.60155
  0
ARC
  5
C0
100
AcDbEntity
  8
1
100
AcDbCircle
 10
-470.707039
 20
-406.792471
 30
0.0
 40
117.5
100
AcDbArc
 50
13.39845
 51
16.60155
  0
ARC
  5
C1
100
AcDbEntity
  8
1
100
AcDbCircle
 10
-360.021674
 20
-373.792471
 30
0.0
 40
2.0
100
AcDbArc
 50
16.60155
 51
90.0
  0
ARC
  5
C2
100
AcDbEntity
  8
1
100
AcDbCircle
 10
-358.350701
 20
-380.028627
 30
0.0
 40
2.0
100
AcDbArc
 50
300.0
 51
13.39845
  0
ARC
  5
C3
100
AcDbEntity
  8
1
100
AcDbCircle
 10
-358.350701
 20
-433.556315
 30
0.0
 40
2.0
100
AcDbArc
 50
346.60155
 51
60.0
  0
ARC
  5
C4
100
AcDbEntity
  8
1
100
AcDbCircle
 10
-360.021674
 20
-439.792471
 30
0.0
 40
2.0
100
AcDbArc
 50
270.0
 51
343.39845
  0
ARC
  5
C5
100
AcDbEntity
  8
1
100
AcDbCircle
 10
-357.305257
 20
-390.972045
 30
0.0
 40
8.0
100
AcDbArc
 50
120.0
 51
187.941946
  0
ARC
  5
C6
100
AcDbEntity
  8
1
100
AcDbCircle
 10
-357.305257
 20
-422.612897
 30
0.0
 40
8.0
100
AcDbArc
 50
172.058054
 51
240.0
  0
ARC
  5
C7
100
AcDbEntity
  8
1
100
AcDbCircle
 10
-584.10882
 20
-390.972045
 30
0.0
 40
8.0
100
AcDbArc
 50
352.058054
 51
60.0
  0
ARC
  5
C8
100
AcDbEntity
  8
1
100
AcDbCircle
 10
-584.10882
 20
-422.612897
 30
0.0
 40
8.0
100
AcDbArc
 50
300.0
 51
7.941946
  0
ARC
  5
C9
100
AcDbEntity
  8
1
100
AcDbCircle
 10
-583.063376
 20
-433.556315
 30
0.0
 40
2.0
100
AcDbArc
 50
120.0
 51
193.39845
  0
ARC
  5
CA
100
AcDbEntity
  8
1
100
AcDbCircle
 10
-581.392404
 20
-439.792471
 30
0.0
 40
2.0
100
AcDbArc
 50
196.60155
 51
270.0
  0
ARC
  5
CB
100
AcDbEntity
  8
1
100
AcDbCircle
 10
-583.063376
 20
-380.028627
 30
0.0
 40
2.0
100
AcDbArc
 50
166.60155
 51
240.0
  0
ARC
  5
CC
100
AcDbEntity
  8
1
100
AcDbCircle
 10
-581.392404
 20
-373.792471
 30
0.0
 40
2.0
100
AcDbArc
 50
90.0
 51
163.39845
  0
LINE
  5
CD
100
AcDbEntity
  8
1
100
AcDbLine
 10
-435.707039
 20
-305.441752
 30
0.0
 11
-435.707039
 21
-297.826426
 31
0.0
  0
LINE
  5
CE
100
AcDbEntity
  8
1
100
AcDbLine
 10
-505.707039
 20
-305.441752
 30
0.0
 11
-505.707039
 21
-297.826426
 31
0.0
  0
ARC
  5
CF
100
AcDbEntity
  8
1
100
AcDbCircle
 10
-435.766468
 20
-276.392484
 30
0.0
 40
10.5
100
AcDbArc
 50
108.587137
 51
160.219808
  0
ARC
  5
D0
100
AcDbEntity
  8
1
100
AcDbCircle
 10
-505.64761
 20
-276.392484
 30
0.0
 40
10.5
100
AcDbArc
 50
19.780192
 51
71.412863
  0
ARC
  5
D1
100
AcDbEntity
  8
1
100
AcDbCircle
 10
-440.707039
 20
-261.700964
 30
0.0
 40
5.0
100
AcDbArc
 50
288.587137
 51
76.506601
  0
ARC
  5
D2
100
AcDbEntity
  8
1
100
AcDbCircle
 10
-500.707039
 20
-261.700964
 30
0.0
 40
5.0
100
AcDbArc
 50
103.493399
 51
251.412863
  0
ARC
  5
D3
100
AcDbEntity
  8
1
100
AcDbCircle
 10
-437.207039
 20
-247.115012
 30
0.0
 40
10.0
100
AcDbArc
 50
180.0
 51
256.506601
  0
ARC
  5
D4
100
AcDbEntity
  8
1
100
AcDbCircle
 10
-504.207039
 20
-247.115012
 30
0.0
 40
10.0
100
AcDbArc
 50
283.493399
 51
360.0
  0
LINE
  5
D5
100
AcDbEntity
  8
1
100
AcDbLine
 10
-447.207039
 20
-298.996367
 30
0.0
 11
-447.207039
 21
-288.941198
 31
0.0
  0
LINE
  5
D6
100
AcDbEntity
  8
1
100
AcDbLine
 10
-447.207039
 20
-273.503028
 30
0.0
 11
-447.207039
 21
-224.792471
 31
0.0
  0
LINE
  5
D7
100
AcDbEntity
  8
1
100
AcDbLine
 10
-494.207039
 20
-298.996367
 30
0.0
 11
-494.207039
 21
-288.941198
 31
0.0
  0
LINE
  5
D8
100
AcDbEntity
  8
1
100
AcDbLine
 10
-494.207039
 20
-273.503028
 30
0.0
 11
-494.207039
 21
-224.792471
 31
0.0
  0
ARC
  5
D9
100
AcDbEntity
  8
1
100
AcDbCircle
 10
-437.060563
 20
-281.222113
 30
0.0
 40
12.0
100
AcDbArc
 50
135.686801
 51
257.613888
  0
ARC
  5
DA
100
AcDbEntity
  8
1
100
AcDbCircle
 10
-504.353514
 20
-281.222113
 30
0.0
 40
12.0
100
AcDbArc
 50
282.386112
 51
44.313199
  0
ARC
  5
DB
100
AcDbEntity
  8
1
100
AcDbCircle
 10
-440.707039
 20
-297.826426
 30
0.0
 40
5.0
100
AcDbArc
 50
0.0
 51
77.613888
  0
ARC
  5
DC
100
AcDbEntity
  8
1
100
AcDbCircle
 10
-500.707039
 20
-297.826426
 30
0.0
 40
5.0
100
AcDbArc
 50
102.386112
 51
180.0
  0
ARC
  5
DD
100
AcDbEntity
  8
1
100
AcDbCircle
 10
-452.207039
 20
-288.941198
 30
0.0
 40
5.0
100
AcDbArc
 50
0.0
 51
27.004714
  0
ARC
  5
DE
100
AcDbEntity
  8
1
100
AcDbCircle
 10
-452.207039
 20
-273.503028
 30
0.0
 40
5.0
100
AcDbArc
 50
332.995286
 51
360.0
  0
ARC
  5
DF
100
AcDbEntity
  8
1
100
AcDbCircle
 10
-489.207039
 20
-273.503028
 30
0.0
 40
5.0
100
AcDbArc
 50
180.0
 51
207.004714
  0
ARC
  5
E0
100
AcDbEntity
  8
1
100
AcDbCircle
 10
-489.207039
 20
-288.941198
 30
0.0
 40
5.0
100
AcDbArc
 50
152.995286
 51
180.0
  0
ARC
  5
E1
100
AcDbEntity
  8
1
100
AcDbCircle
 10
-437.060563
 20
-532.362828
 30
0.0
 40
12.0
100
AcDbArc
 50
102.386112
 51
224.313199
  0
ARC
  5
E2
100
AcDbEntity
  8
1
100
AcDbCircle
 10
-504.353514
 20
-532.362828
 30
0.0
 40
12.0
100
AcDbArc
 50
315.686801
 51
77.613888
  0
ARC
  5
E3
100
AcDbEntity
  8
1
100
AcDbCircle
 10
-500.707039
 20
-515.758515
 30
0.0
 40
5.0
100
AcDbArc
 50
180.0
 51
257.613888
  0
ARC
  5
E4
100
AcDbEntity
  8
1
100
AcDbCircle
 10
-440.707039
 20
-515.758515
 30
0.0
 40
5.0
100
AcDbArc
 50
282.386112
 51
360.0
  0
ARC
  5
E5
100
AcDbEntity
  8
1
100
AcDbCircle
 10
-435.766468
 20
-537.192457
 30
0.0
 40
10.5
100
AcDbArc
 50
199.780192
 51
216.619214
  0
ARC
  5
E6
100
AcDbEntity
  8
1
100
AcDbCircle
 10
-505.64761
 20
-537.192457
 30
0.0
 40
10.5
100
AcDbArc
 50
323.380786
 51
340.219808
  0
ARC
  5
E7
100
AcDbEntity
  8
1
100
AcDbCircle
 10
-448.207039
 20
-546.438115
 30
0.0
 40
5.0
100
AcDbArc
 50
0.0
 51
36.619214
  0
ARC
  5
E8
100
AcDbEntity
  8
1
100
AcDbCircle
 10
-493.207039
 20
-546.438115
 30
0.0
 40
5.0
100
AcDbArc
 50
143.380786
 51
180.0
  0
ARC
  5
E9
100
AcDbEntity
  8
1
100
AcDbCircle
 10
-452.207039
 20
-524.643743
 30
0.0
 40
5.0
100
AcDbArc
 50
332.995286
 51
360.0
  0
ARC
  5
EA
100
AcDbEntity
  8
1
100
AcDbCircle
 10
-489.207039
 20
-524.643743
 30
0.0
 40
5.0
100
AcDbArc
 50
180.0
 51
207.004714
  0
CIRCLE
  5
EB
100
AcDbEntity
  8
1
100
AcDbCircle
 10
-470.707039
 20
-406.792471
 30
0.0
 40
81.5
  0
LINE
  5
EC
100
AcDbEntity
  8
1
  6
DASHED
100
AcDbLine
 10
-498.707039
 20
507.207529
 30
0.0
 11
-438.507039
 21
507.207529
 31
0.0
  0
LINE
  5
ED
100
AcDbEntity
  8
1
  6
DASHED
100
AcDbLine
 10
-498.707039
 20
382.207529
 30
0.0
 11
-438.507039
 21
382.207529
 31
0.0
  0
LINE
  5
EE
100
AcDbEntity
  8
1
  6
DASHED
100
AcDbLine
 10
-531.107039
 20
414.607529
 30
0.0
 11
-531.107039
 21
474.807529
 31
0.0
  0
LINE
  5
EF
100
AcDbEntity
  8
1
  6
DASHED
100
AcDbLine
 10
-406.107039
 20
414.607529
 30
0.0
 11
-406.107039
 21
474.807529
 31
0.0
  0
ARC
  5
F0
100
AcDbEntity
  8
1
  6
DASHED
100
AcDbCircle
 10
-498.707039
 20
474.807529
 30
0.0
 40
32.4
100
AcDbArc
 50
90.0
 51
180.0
  0
ARC
  5
F1
100
AcDbEntity
  8
1
  6
DASHED
100
AcDbCircle
 10
-438.507039
 20
474.807529
 30
0.0
 40
32.4
100
AcDbArc
 50
360.0
 51
90.0
  0
ARC
  5
F2
100
AcDbEntity
  8
1
  6
DASHED
100
AcDbCircle
 10
-438.507039
 20
414.607529
 30
0.0
 40
32.4
100
AcDbArc
 50
270.0
 51
360.0
  0
ARC
  5
F3
100
AcDbEntity
  8
1
  6
DASHED
100
AcDbCircle
 10
-498.707039
 20
414.607529
 30
0.0
 40
32.4
100
AcDbArc
 50
180.0
 51
270.0
  0
LINE
  5
F4
100
AcDbEntity
  8
1
  6
CENTER
 62
     2
100
AcDbLine
 10
-424.412039
 20
475.633222
 30
0.0
 11
-424.412039
 21
502.591932
 31
0.0
  0
LINE
  5
F5
100
AcDbEntity
  8
1
  6
CENTER
 62
     2
100
AcDbLine
 10
-437.700256
 20
488.902529
 30
0.0
 11
-411.117569
 21
488.902529
 31
0.0
  0
CIRCLE
  5
F6
100
AcDbEntity
  8
1
  6
DASHED
100
AcDbCircle
 10
-424.412039
 20
488.902529
 30
0.0
 40
6.5
  0
LINE
  5
F7
100
AcDbEntity
  8
1
  6
CENTER
 62
     2
100
AcDbLine
 10
-512.802039
 20
475.633222
 30
0.0
 11
-512.802039
 21
502.591932
 31
0.0
  0
LINE
  5
F8
100
AcDbEntity
  8
1
  6
CENTER
 62
     2
100
AcDbLine
 10
-499.513821
 20
488.902529
 30
0.0
 11
-526.096509
 21
488.902529
 31
0.0
  0
CIRCLE
  5
F9
100
AcDbEntity
  8
1
  6
DASHED
100
AcDbCircle
 10
-512.802039
 20
488.902529
 30
0.0
 40
6.5
  0
LINE
  5
FA
100
AcDbEntity
  8
1
  6
CENTER
 62
     2
100
AcDbLine
 10
-424.412039
 20
413.781837
 30
0.0
 11
-424.412039
 21
386.823127
 31
0.0
  0
LINE
  5
FB
100
AcDbEntity
  8
1
  6
CENTER
 62
     2
100
AcDbLine
 10
-437.700256
 20
400.512529
 30
0.0
 11
-411.117569
 21
400.512529
 31
0.0
  0
CIRCLE
  5
FC
100
AcDbEntity
  8
1
  6
DASHED
100
AcDbCircle
 10
-424.412039
 20
400.512529
 30
0.0
 40
6.5
  0
LINE
  5
FD
100
AcDbEntity
  8
1
  6
CENTER
 62
     2
100
AcDbLine
 10
-512.802039
 20
413.781837
 30
0.0
 11
-512.802039
 21
386.823127
 31
0.0
  0
LINE
  5
FE
100
AcDbEntity
  8
1
  6
CENTER
 62
     2
100
AcDbLine
 10
-499.513821
 20
400.512529
 30
0.0
 11
-526.096509
 21
400.512529
 31
0.0
  0
CIRCLE
  5
FF
100
AcDbEntity
  8
1
  6
DASHED
100
AcDbCircle
 10
-512.802039
 20
400.512529
 30
0.0
 40
6.5
  0
LINE
  5
100
100
AcDbEntity
  8
1
  6
CENTER
 62
     2
100
AcDbLine
 10
-424.412039
 20
-179.037724
 30
0.0
 11
-424.412039
 21
-228.05588
 31
0.0
  0
LINE
  5
101
100
AcDbEntity
  8
1
  6
CENTER
 62
     2
100
AcDbLine
 10
-512.802039
 20
-179.037724
 30
0.0
 11
-512.802039
 21
-228.05588
 31
0.0
  0
LINE
  5
102
100
AcDbEntity
  8
1
  6
CENTER
 62
     2
100
AcDbLine
 10
234.837961
 20
-188.335871
 30
0.0
 11
234.837961
 21
-228.05588
 31
0.0
  0
LINE
  5
103
100
AcDbEntity
  8
1
  6
CENTER
 62
     2
100
AcDbLine
 10
146.447961
 20
-188.335871
 30
0.0
 11
146.447961
 21
-228.05588
 31
0.0
  0
LINE
  5
104
100
AcDbEntity
  8
1
  6
DASHED
100
AcDbLine
 10
-577.207039
 20
478.707529
 30
0.0
 11
-530.87146
 21
478.707529
 31
0.0
  0
LINE
  5
105
100
AcDbEntity
  8
1
  6
DASHED
100
AcDbLine
 10
-577.207039
 20
421.707529
 30
0.0
 11
-531.107039
 21
421.707529
 31
0.0
  0
LINE
  5
106
100
AcDbEntity
  8
1
  6
DASHED
100
AcDbLine
 10
-560.652856
 20
452.884006
 30
0.0
 11
-531.107039
 21
452.884006
 31
0.0
  0
LINE
  5
107
100
AcDbEntity
  8
1
  6
DASHED
100
AcDbLine
 10
-560.652856
 20
439.531053
 30
0.0
 11
-531.107039
 21
439.531053
 31
0.0
  0
LINE
  5
108
100
AcDbEntity
  8
1
  6
DASHED
100
AcDbLine
 10
-560.652856
 20
445.152427
 30
0.0
 11
-560.652856
 21
447.262632
 31
0.0
  0
LINE
  5
109
100
AcDbEntity
  8
1
  6
DASHED
100
AcDbLine
 10
-576.818806
 20
433.707529
 30
0.0
 11
-576.818806
 21
458.707529
 31
0.0
  0
LINE
  5
10A
100
AcDbEntity
  8
1
  6
DASHED
100
AcDbLine
 10
-573.671576
 20
457.57379
 30
0.0
 11
-565.941541
 21
454.78917
 31
0.0
  0
LINE
  5
10B
100
AcDbEntity
  8
1
  6
DASHED
100
AcDbLine
 10
-565.941541
 20
437.625889
 30
0.0
 11
-574.174463
 21
434.660111
 31
0.0
  0
ARC
  5
10C
100
AcDbEntity
  8
1
  6
DASHED
100
AcDbCircle
 10
-572.818806
 20
430.896842
 30
0.0
 40
4.0
100
AcDbArc
 50
109.810741
 51
180.0
  0
ARC
  5
10D
100
AcDbEntity
  8
1
  6
DASHED
100
AcDbCircle
 10
-568.652856
 20
447.262632
 30
0.0
 40
8.0
100
AcDbArc
 50
360.0
 51
70.189259
  0
ARC
  5
10E
100
AcDbEntity
  8
1
  6
DASHED
100
AcDbCircle
 10
-568.652856
 20
445.152427
 30
0.0
 40
8.0
100
AcDbArc
 50
289.810741
 51
360.0
  0
LINE
  5
10F
100
AcDbEntity
  8
1
  6
DASHED
100
AcDbLine
 10
-574.174463
 20
433.707529
 30
0.0
 11
-571.411984
 21
433.707529
 31
0.0
  0
LINE
  5
110
100
AcDbEntity
  8
1
  6
DASHED
100
AcDbLine
 10
-565.77736
 20
433.707529
 30
0.0
 11
-531.107039
 21
433.707529
 31
0.0
  0
LINE
  5
111
100
AcDbEntity
  8
1
  6
DASHED
100
AcDbLine
 10
-565.802865
 20
458.707529
 30
0.0
 11
-531.107039
 21
458.707529
 31
0.0
  0
LINE
  5
112
100
AcDbEntity
  8
1
100
AcDbLine
 10
179.642961
 20
-311.722149
 30
0.0
 11
167.642961
 21
-311.722149
 31
0.0
  0
LINE
  5
113
100
AcDbEntity
  8
1
100
AcDbLine
 10
204.642961
 20
-311.722149
 30
0.0
 11
224.642961
 21
-311.722149
 31
0.0
  0
ARC
  5
114
100
AcDbEntity
  8
1
100
AcDbCircle
 10
157.113841
 20
-367.184735
 30
0.0
 40
23.621031
100
AcDbArc
 50
0.0
 51
17.489166
  0
ARC
  5
115
100
AcDbEntity
  8
1
100
AcDbCircle
 10
168.943078
 20
-367.184735
 30
0.0
 40
11.791794
100
AcDbArc
 50
335.148597
 51
360.0
  0
ARC
  5
116
100
AcDbEntity
  8
1
100
AcDbCircle
 10
227.172082
 20
-367.184735
 30
0.0
 40
23.621031
100
AcDbArc
 50
162.510834
 51
180.0
  0
ARC
  5
117
100
AcDbEntity
  8
1
100
AcDbCircle
 10
215.342845
 20
-367.184735
 30
0.0
 40
11.791794
100
AcDbArc
 50
180.0
 51
196.873049
  0
LINE
  5
118
100
AcDbEntity
  8
1
100
AcDbLine
 10
167.642961
 20
-360.086014
 30
0.0
 11
179.642961
 21
-360.086014
 31
0.0
  0
LINE
  5
119
100
AcDbEntity
  8
1
100
AcDbLine
 10
204.642961
 20
-360.086014
 30
0.0
 11
224.642961
 21
-360.086014
 31
0.0
  0
LINE
  5
11A
100
AcDbEntity
  8
1
100
AcDbLine
 10
167.642961
 20
-372.140429
 30
0.0
 11
179.642961
 21
-372.140429
 31
0.0
  0
LINE
  5
11B
100
AcDbEntity
  8
1
100
AcDbLine
 10
218.642961
 20
-372.140429
 30
0.0
 11
224.642961
 21
-372.140429
 31
0.0
  0
LINE
  5
11C
100
AcDbEntity
  8
1
100
AcDbLine
 10
185.642961
 20
-396.792471
 30
0.0
 11
198.642961
 21
-396.792471
 31
0.0
  0
LINE
  5
11D
100
AcDbEntity
  8
1
100
AcDbLine
 10
189.466485
 20
-385.346973
 30
0.0
 11
194.819438
 21
-385.346973
 31
0.0
  0
ARC
  5
11E
100
AcDbEntity
  8
1
100
AcDbCircle
 10
185.642961
 20
-390.792471
 30
0.0
 40
6.0
100
AcDbArc
 50
180.0
 51
270.0
  0
ARC
  5
11F
100
AcDbEntity
  8
1
100
AcDbCircle
 10
198.642961
 20
-390.792471
 30
0.0
 40
6.0
100
AcDbArc
 50
270.0
 51
347.634031
  0
ARC
  5
120
100
AcDbEntity
  8
1
100
AcDbCircle
 10
194.819438
 20
-381.346973
 30
0.0
 40
4.0
100
AcDbArc
 50
270.0
 51
360.0
  0
ARC
  5
121
100
AcDbEntity
  8
1
100
AcDbCircle
 10
189.466485
 20
-381.346973
 30
0.0
 40
4.0
100
AcDbArc
 50
180.0
 51
270.0
  0
LINE
  5
122
100
AcDbEntity
  8
1
100
AcDbLine
 10
198.819438
 20
-385.346973
 30
0.0
 11
201.590133
 21
-390.792471
 31
0.0
  0
LINE
  5
123
100
AcDbEntity
  8
1
100
AcDbLine
 10
185.466485
 20
-385.346973
 30
0.0
 11
182.69579
 21
-390.792471
 31
0.0
  0
LINE
  5
124
100
AcDbEntity
  8
1
100
AcDbLine
 10
189.466485
 20
-328.854996
 30
0.0
 11
194.819438
 21
-328.854996
 31
0.0
  0
ARC
  5
125
100
AcDbEntity
  8
1
100
AcDbCircle
 10
194.819438
 20
-332.854996
 30
0.0
 40
4.0
100
AcDbArc
 50
0.0
 51
90.0
  0
ARC
  5
126
100
AcDbEntity
  8
1
100
AcDbCircle
 10
189.466485
 20
-332.854996
 30
0.0
 40
4.0
100
AcDbArc
 50
90.0
 51
180.0
  0
LINE
  5
127
100
AcDbEntity
  8
1
100
AcDbLine
 10
198.819438
 20
-332.854996
 30
0.0
 11
198.819438
 21
-381.346973
 31
0.0
  0
LINE
  5
128
100
AcDbEntity
  8
1
100
AcDbLine
 10
185.466485
 20
-332.854996
 30
0.0
 11
185.466485
 21
-381.346973
 31
0.0
  0
ARC
  5
129
100
AcDbEntity
  8
1
100
AcDbCircle
 10
180.049788
 20
-311.170939
 30
0.0
 40
0.685084
100
AcDbArc
 50
233.570424
 51
360.0
  0
ARC
  5
12A
100
AcDbEntity
  8
1
100
AcDbCircle
 10
204.236135
 20
-311.170939
 30
0.0
 40
0.685084
100
AcDbArc
 50
180.0
 51
306.429576
  0
LINE
  5
12B
100
AcDbEntity
  8
1
100
AcDbLine
 10
204.642961
 20
-360.086014
 30
0.0
 11
204.642961
 21
-311.722149
 31
0.0
  0
LINE
  5
12C
100
AcDbEntity
  8
1
100
AcDbLine
 10
179.642961
 20
-390.792471
 30
0.0
 11
179.642961
 21
-372.140429
 31
0.0
  0
LINE
  5
12D
100
AcDbEntity
  8
1
100
AcDbLine
 10
179.642961
 20
-360.086014
 30
0.0
 11
179.642961
 21
-311.722149
 31
0.0
  0
LINE
  5
12E
100
AcDbEntity
  8
1
100
AcDbLine
 10
179.642961
 20
-501.862792
 30
0.0
 11
167.642961
 21
-501.862792
 31
0.0
  0
LINE
  5
12F
100
AcDbEntity
  8
1
100
AcDbLine
 10
204.642961
 20
-501.862792
 30
0.0
 11
224.642961
 21
-501.862792
 31
0.0
  0
ARC
  5
130
100
AcDbEntity
  8
1
100
AcDbCircle
 10
157.113841
 20
-446.400206
 30
0.0
 40
23.621031
100
AcDbArc
 50
342.510834
 51
360.0
  0
ARC
  5
131
100
AcDbEntity
  8
1
100
AcDbCircle
 10
168.943078
 20
-446.400206
 30
0.0
 40
11.791794
100
AcDbArc
 50
0.0
 51
24.851403
  0
ARC
  5
132
100
AcDbEntity
  8
1
100
AcDbCircle
 10
227.172082
 20
-446.400206
 30
0.0
 40
23.621031
100
AcDbArc
 50
180.0
 51
197.489166
  0
ARC
  5
133
100
AcDbEntity
  8
1
100
AcDbCircle
 10
215.342845
 20
-446.400206
 30
0.0
 40
11.791794
100
AcDbArc
 50
163.126951
 51
180.0
  0
LINE
  5
134
100
AcDbEntity
  8
1
100
AcDbLine
 10
167.642961
 20
-453.498927
 30
0.0
 11
179.642961
 21
-453.498927
 31
0.0
  0
LINE
  5
135
100
AcDbEntity
  8
1
100
AcDbLine
 10
204.642961
 20
-453.498927
 30
0.0
 11
224.642961
 21
-453.498927
 31
0.0
  0
LINE
  5
136
100
AcDbEntity
  8
1
100
AcDbLine
 10
167.642961
 20
-441.444512
 30
0.0
 11
179.642961
 21
-441.444512
 31
0.0
  0
LINE
  5
137
100
AcDbEntity
  8
1
100
AcDbLine
 10
218.642961
 20
-441.444512
 30
0.0
 11
224.642961
 21
-441.444512
 31
0.0
  0
LINE
  5
138
100
AcDbEntity
  8
1
100
AcDbLine
 10
185.642961
 20
-416.792471
 30
0.0
 11
198.642961
 21
-416.792471
 31
0.0
  0
LINE
  5
139
100
AcDbEntity
  8
1
100
AcDbLine
 10
189.466485
 20
-428.237968
 30
0.0
 11
194.819438
 21
-428.237968
 31
0.0
  0
ARC
  5
13A
100
AcDbEntity
  8
1
100
AcDbCircle
 10
185.642961
 20
-422.792471
 30
0.0
 40
6.0
100
AcDbArc
 50
90.0
 51
180.0
  0
ARC
  5
13B
100
AcDbEntity
  8
1
100
AcDbCircle
 10
198.642961
 20
-422.792471
 30
0.0
 40
6.0
100
AcDbArc
 50
12.365969
 51
90.0
  0
ARC
  5
13C
100
AcDbEntity
  8
1
100
AcDbCircle
 10
194.819438
 20
-432.237968
 30
0.0
 40
4.0
100
AcDbArc
 50
0.0
 51
90.0
  0
ARC
  5
13D
100
AcDbEntity
  8
1
100
AcDbCircle
 10
189.466485
 20
-432.237968
 30
0.0
 40
4.0
100
AcDbArc
 50
90.0
 51
180.0
  0
LINE
  5
13E
100
AcDbEntity
  8
1
100
AcDbLine
 10
198.819438
 20
-428.237968
 30
0.0
 11
201.590133
 21
-422.792471
 31
0.0
  0
LINE
  5
13F
100
AcDbEntity
  8
1
100
AcDbLine
 10
185.466485
 20
-428.237968
 30
0.0
 11
182.69579
 21
-422.792471
 31
0.0
  0
LINE
  5
140
100
AcDbEntity
  8
1
100
AcDbLine
 10
189.466485
 20
-484.729946
 30
0.0
 11
194.819438
 21
-484.729946
 31
0.0
  0
ARC
  5
141
100
AcDbEntity
  8
1
100
AcDbCircle
 10
194.819438
 20
-480.729946
 30
0.0
 40
4.0
100
AcDbArc
 50
270.0
 51
360.0
  0
ARC
  5
142
100
AcDbEntity
  8
1
100
AcDbCircle
 10
189.466485
 20
-480.729946
 30
0.0
 40
4.0
100
AcDbArc
 50
180.0
 51
270.0
  0
LINE
  5
143
100
AcDbEntity
  8
1
100
AcDbLine
 10
198.819438
 20
-480.729946
 30
0.0
 11
198.819438
 21
-432.237968
 31
0.0
  0
LINE
  5
144
100
AcDbEntity
  8
1
100
AcDbLine
 10
185.466485
 20
-480.729946
 30
0.0
 11
185.466485
 21
-432.237968
 31
0.0
  0
LINE
  5
145
100
AcDbEntity
  8
1
100
AcDbLine
 10
204.642961
 20
-453.498927
 30
0.0
 11
204.642961
 21
-501.862792
 31
0.0
  0
LINE
  5
146
100
AcDbEntity
  8
1
100
AcDbLine
 10
179.642961
 20
-422.792471
 30
0.0
 11
179.642961
 21
-441.444512
 31
0.0
  0
LINE
  5
147
100
AcDbEntity
  8
1
100
AcDbLine
 10
179.642961
 20
-453.498927
 30
0.0
 11
179.642961
 21
-501.862792
 31
0.0
  0
LINE
  5
148
100
AcDbEntity
  8
1
  6
DASHED
100
AcDbLine
 10
-565.802865
 20
421.707529
 30
0.0
 11
-565.802865
 21
433.707529
 31
0.0
  0
LINE
  5
149
100
AcDbEntity
  8
1
  6
DASHED
100
AcDbLine
 10
-571.411984
 20
421.707529
 30
0.0
 11
-571.411984
 21
433.707529
 31
0.0
  0
ARC
  5
14A
100
AcDbEntity
  8
1
  6
DASHED
100
AcDbCircle
 10
-566.32857
 20
422.420513
 30
0.0
 40
12.378927
100
AcDbArc
 50
90.0
 51
114.245712
  0
ARC
  5
14B
100
AcDbEntity
  8
1
  6
DASHED
100
AcDbCircle
 10
-566.32857
 20
434.114356
 30
0.0
 40
0.685084
100
AcDbArc
 50
323.570424
 51
90.0
  0
LINE
  5
14C
100
AcDbEntity
  8
1
  6
DASHED
100
AcDbLine
 10
-565.802865
 20
478.707529
 30
0.0
 11
-565.802865
 21
458.707529
 31
0.0
  0
LINE
  5
14D
100
AcDbEntity
  8
1
  6
DASHED
100
AcDbLine
 10
-571.411984
 20
478.707529
 30
0.0
 11
-571.411984
 21
469.736179
 31
0.0
  0
ARC
  5
14E
100
AcDbEntity
  8
1
  6
DASHED
100
AcDbCircle
 10
-566.32857
 20
469.994545
 30
0.0
 40
12.378927
100
AcDbArc
 50
250.540764
 51
270.0
  0
ARC
  5
14F
100
AcDbEntity
  8
1
  6
DASHED
100
AcDbCircle
 10
-566.32857
 20
458.300703
 30
0.0
 40
0.685084
100
AcDbArc
 50
270.0
 51
36.429576
  0
LINE
  5
150
100
AcDbEntity
  8
1
  6
DASHED
100
AcDbLine
 10
-577.207039
 20
421.707529
 30
0.0
 11
-577.207039
 21
459.168194
 31
0.0
  0
LINE
  5
151
100
AcDbEntity
  8
1
  6
DASHED
100
AcDbLine
 10
-577.207039
 20
469.707529
 30
0.0
 11
-577.207039
 21
478.707529
 31
0.0
  0
LINE
  5
152
100
AcDbEntity
  8
1
  6
DASHED
100
AcDbLine
 10
-364.207039
 20
478.707529
 30
0.0
 11
-406.342617
 21
478.707529
 31
0.0
  0
LINE
  5
153
100
AcDbEntity
  8
1
  6
DASHED
100
AcDbLine
 10
-364.207039
 20
421.707529
 30
0.0
 11
-406.107039
 21
421.707529
 31
0.0
  0
LINE
  5
154
100
AcDbEntity
  8
1
  6
DASHED
100
AcDbLine
 10
-380.761222
 20
452.884006
 30
0.0
 11
-406.107039
 21
452.884006
 31
0.0
  0
LINE
  5
155
100
AcDbEntity
  8
1
  6
DASHED
100
AcDbLine
 10
-380.761222
 20
439.531053
 30
0.0
 11
-406.107039
 21
439.531053
 31
0.0
  0
LINE
  5
156
100
AcDbEntity
  8
1
  6
DASHED
100
AcDbLine
 10
-380.761222
 20
445.152427
 30
0.0
 11
-380.761222
 21
447.262632
 31
0.0
  0
LINE
  5
157
100
AcDbEntity
  8
1
  6
DASHED
100
AcDbLine
 10
-364.595271
 20
433.707529
 30
0.0
 11
-364.595271
 21
458.707529
 31
0.0
  0
LINE
  5
158
100
AcDbEntity
  8
1
  6
DASHED
100
AcDbLine
 10
-367.742501
 20
457.57379
 30
0.0
 11
-375.472536
 21
454.78917
 31
0.0
  0
LINE
  5
159
100
AcDbEntity
  8
1
  6
DASHED
100
AcDbLine
 10
-375.472536
 20
437.625889
 30
0.0
 11
-367.239614
 21
434.660111
 31
0.0
  0
ARC
  5
15A
100
AcDbEntity
  8
1
  6
DASHED
100
AcDbCircle
 10
-368.595271
 20
430.896842
 30
0.0
 40
4.0
100
AcDbArc
 50
0.0
 51
70.189259
  0
ARC
  5
15B
100
AcDbEntity
  8
1
  6
DASHED
100
AcDbCircle
 10
-372.761222
 20
447.262632
 30
0.0
 40
8.0
100
AcDbArc
 50
109.810741
 51
180.0
  0
ARC
  5
15C
100
AcDbEntity
  8
1
  6
DASHED
100
AcDbCircle
 10
-372.761222
 20
445.152427
 30
0.0
 40
8.0
100
AcDbArc
 50
180.0
 51
250.189259
  0
LINE
  5
15D
100
AcDbEntity
  8
1
  6
DASHED
100
AcDbLine
 10
-367.239614
 20
433.707529
 30
0.0
 11
-370.002093
 21
433.707529
 31
0.0
  0
LINE
  5
15E
100
AcDbEntity
  8
1
  6
DASHED
100
AcDbLine
 10
-375.636717
 20
433.707529
 30
0.0
 11
-406.107039
 21
433.707529
 31
0.0
  0
LINE
  5
15F
100
AcDbEntity
  8
1
  6
DASHED
100
AcDbLine
 10
-375.611212
 20
458.707529
 30
0.0
 11
-406.107039
 21
458.707529
 31
0.0
  0
LINE
  5
160
100
AcDbEntity
  8
1
  6
DASHED
100
AcDbLine
 10
-375.611212
 20
421.707529
 30
0.0
 11
-375.611212
 21
433.707529
 31
0.0
  0
LINE
  5
161
100
AcDbEntity
  8
1
  6
DASHED
100
AcDbLine
 10
-370.002093
 20
421.707529
 30
0.0
 11
-370.002093
 21
433.707529
 31
0.0
  0
ARC
  5
162
100
AcDbEntity
  8
1
  6
DASHED
100
AcDbCircle
 10
-375.085507
 20
422.420513
 30
0.0
 40
12.378927
100
AcDbArc
 50
65.754288
 51
90.0
  0
ARC
  5
163
100
AcDbEntity
  8
1
  6
DASHED
100
AcDbCircle
 10
-375.085507
 20
434.114356
 30
0.0
 40
0.685084
100
AcDbArc
 50
90.0
 51
216.429576
  0
LINE
  5
164
100
AcDbEntity
  8
1
  6
DASHED
100
AcDbLine
 10
-375.611212
 20
478.707529
 30
0.0
 11
-375.611212
 21
458.707529
 31
0.0
  0
LINE
  5
165
100
AcDbEntity
  8
1
  6
DASHED
100
AcDbLine
 10
-370.002093
 20
478.707529
 30
0.0
 11
-370.002093
 21
469.736179
 31
0.0
  0
ARC
  5
166
100
AcDbEntity
  8
1
  6
DASHED
100
AcDbCircle
 10
-375.085507
 20
469.994545
 30
0.0
 40
12.378927
100
AcDbArc
 50
270.0
 51
289.459236
  0
ARC
  5
167
100
AcDbEntity
  8
1
  6
DASHED
100
AcDbCircle
 10
-375.085507
 20
458.300703
 30
0.0
 40
0.685084
100
AcDbArc
 50
143.570424
 51
270.0
  0
LINE
  5
168
100
AcDbEntity
  8
1
  6
DASHED
100
AcDbLine
 10
-364.207039
 20
421.707529
 30
0.0
 11
-364.207039
 21
459.168194
 31
0.0
  0
LINE
  5
169
100
AcDbEntity
  8
1
  6
DASHED
100
AcDbLine
 10
-364.207039
 20
469.707529
 30
0.0
 11
-364.207039
 21
478.707529
 31
0.0
  0
LINE
  5
16A
100
AcDbEntity
  8
1
  6
DASHED
100
AcDbLine
 10
-583.063376
 20
469.707529
 30
0.0
 11
-571.825597
 21
469.707529
 31
0.0
  0
LINE
  5
16B
100
AcDbEntity
  8
1
  6
DASHED
100
AcDbLine
 10
-568.825597
 20
458.707529
 30
0.0
 11
-568.825597
 21
469.707529
 31
0.0
  0
ARC
  5
16C
100
AcDbEntity
  8
1
  6
DASHED
100
AcDbCircle
 10
-571.825597
 20
472.707529
 30
0.0
 40
3.0
100
AcDbArc
 50
270.0
 51
360.0
  0
LINE
  5
16D
100
AcDbEntity
  8
1
  6
DASHED
100
AcDbLine
 10
-582.87321
 20
464.832993
 30
0.0
 11
-582.87321
 21
467.707529
 31
0.0
  0
LINE
  5
16E
100
AcDbEntity
  8
1
  6
DASHED
100
AcDbLine
 10
-585.063376
 20
464.649236
 30
0.0
 11
-585.063376
 21
467.707529
 31
0.0
  0
ARC
  5
16F
100
AcDbEntity
  8
1
  6
DASHED
100
AcDbCircle
 10
-583.063376
 20
467.707529
 30
0.0
 40
2.0
100
AcDbArc
 50
90.0
 51
180.0
  0
ARC
  5
170
100
AcDbEntity
  8
1
  6
DASHED
100
AcDbCircle
 10
-580.87321
 20
467.707529
 30
0.0
 40
2.0
100
AcDbArc
 50
90.0
 51
180.0
  0
LINE
  5
171
100
AcDbEntity
  8
1
  6
DASHED
100
AcDbLine
 10
-570.452438
 20
458.322718
 30
0.0
 11
-580.872618
 21
462.004357
 31
0.0
  0
LINE
  5
172
100
AcDbEntity
  8
1
  6
DASHED
100
AcDbLine
 10
-573.671576
 20
457.57379
 30
0.0
 11
-583.296686
 21
461.91447
 31
0.0
  0
ARC
  5
173
100
AcDbEntity
  8
1
  6
DASHED
100
AcDbCircle
 10
-579.87321
 20
464.832993
 30
0.0
 40
3.0
100
AcDbArc
 50
180.0
 51
250.540764
  0
ARC
  5
174
100
AcDbEntity
  8
1
  6
DASHED
100
AcDbCircle
 10
-582.063376
 20
464.649236
 30
0.0
 40
3.0
100
AcDbArc
 50
180.0
 51
245.725839
  0
LINE
  5
175
100
AcDbEntity
  8
1
  6
DASHED
100
AcDbLine
 10
-358.350701
 20
469.707529
 30
0.0
 11
-369.58848
 21
469.707529
 31
0.0
  0
LINE
  5
176
100
AcDbEntity
  8
1
  6
DASHED
100
AcDbLine
 10
-372.58848
 20
458.707529
 30
0.0
 11
-372.58848
 21
469.707529
 31
0.0
  0
ARC
  5
177
100
AcDbEntity
  8
1
  6
DASHED
100
AcDbCircle
 10
-369.58848
 20
472.707529
 30
0.0
 40
3.0
100
AcDbArc
 50
180.0
 51
270.0
  0
LINE
  5
178
100
AcDbEntity
  8
1
  6
DASHED
100
AcDbLine
 10
-358.540867
 20
464.832993
 30
0.0
 11
-358.540867
 21
467.707529
 31
0.0
  0
LINE
  5
179
100
AcDbEntity
  8
1
  6
DASHED
100
AcDbLine
 10
-356.350701
 20
464.649236
 30
0.0
 11
-356.350701
 21
467.707529
 31
0.0
  0
ARC
  5
17A
100
AcDbEntity
  8
1
  6
DASHED
100
AcDbCircle
 10
-358.350701
 20
467.707529
 30
0.0
 40
2.0
100
AcDbArc
 50
0.0
 51
90.0
  0
ARC
  5
17B
100
AcDbEntity
  8
1
  6
DASHED
100
AcDbCircle
 10
-360.540867
 20
467.707529
 30
0.0
 40
2.0
100
AcDbArc
 50
0.0
 51
90.0
  0
LINE
  5
17C
100
AcDbEntity
  8
1
  6
DASHED
100
AcDbLine
 10
-370.961639
 20
458.322718
 30
0.0
 11
-360.541459
 21
462.004357
 31
0.0
  0
LINE
  5
17D
100
AcDbEntity
  8
1
  6
DASHED
100
AcDbLine
 10
-367.742501
 20
457.57379
 30
0.0
 11
-358.117391
 21
461.91447
 31
0.0
  0
ARC
  5
17E
100
AcDbEntity
  8
1
  6
DASHED
100
AcDbCircle
 10
-361.540867
 20
464.832993
 30
0.0
 40
3.0
100
AcDbArc
 50
289.459236
 51
360.0
  0
ARC
  5
17F
100
AcDbEntity
  8
1
  6
DASHED
100
AcDbCircle
 10
-359.350701
 20
464.649236
 30
0.0
 40
3.0
100
AcDbArc
 50
294.274161
 51
360.0
  0
LINE
  5
180
100
AcDbEntity
  8
1
100
AcDbLine
 10
215.642961
 20
-373.607328
 30
0.0
 11
215.642961
 21
-389.077402
 31
0.0
  0
LINE
  5
181
100
AcDbEntity
  8
1
100
AcDbLine
 10
208.646961
 20
-373.792471
 30
0.0
 11
208.646961
 21
-379.020274
 31
0.0
  0
LINE
  5
182
100
AcDbEntity
  8
1
100
AcDbLine
 10
205.656607
 20
-370.607328
 30
0.0
 11
215.642961
 21
-370.607328
 31
0.0
  0
LINE
  5
183
100
AcDbEntity
  8
1
100
AcDbLine
 10
204.642961
 20
-392.077402
 30
0.0
 11
215.642961
 21
-392.077402
 31
0.0
  0
LINE
  5
184
100
AcDbEntity
  8
1
100
AcDbLine
 10
210.646961
 20
-371.792471
 30
0.0
 11
213.642961
 21
-371.792471
 31
0.0
  0
LINE
  5
185
100
AcDbEntity
  8
1
100
AcDbLine
 10
210.646961
 20
-381.020274
 30
0.0
 11
213.642961
 21
-381.020274
 31
0.0
  0
ARC
  5
186
100
AcDbEntity
  8
1
100
AcDbCircle
 10
213.642961
 20
-373.792471
 30
0.0
 40
2.0
100
AcDbArc
 50
0.0
 51
90.0
  0
ARC
  5
187
100
AcDbEntity
  8
1
100
AcDbCircle
 10
210.646961
 20
-373.792471
 30
0.0
 40
2.0
100
AcDbArc
 50
90.0
 51
180.0
  0
ARC
  5
188
100
AcDbEntity
  8
1
100
AcDbCircle
 10
210.646961
 20
-379.020274
 30
0.0
 40
2.0
100
AcDbArc
 50
180.0
 51
270.0
  0
ARC
  5
189
100
AcDbEntity
  8
1
100
AcDbCircle
 10
213.642961
 20
-379.020274
 30
0.0
 40
2.0
100
AcDbArc
 50
270.0
 51
360.0
  0
ARC
  5
18A
100
AcDbEntity
  8
1
100
AcDbCircle
 10
218.642961
 20
-373.607328
 30
0.0
 40
3.0
100
AcDbArc
 50
90.0
 51
180.0
  0
LINE
  5
18B
100
AcDbEntity
  8
1
100
AcDbLine
 10
208.646961
 20
-371.792471
 30
0.0
 11
205.656607
 21
-371.792471
 31
0.0
  0
ARC
  5
18C
100
AcDbEntity
  8
1
100
AcDbCircle
 10
205.656607
 20
-370.122663
 30
0.0
 40
1.669807
100
AcDbArc
 50
196.873049
 51
270.0
  0
ARC
  5
18D
100
AcDbEntity
  8
1
100
AcDbCircle
 10
218.642961
 20
-389.077402
 30
0.0
 40
3.0
100
AcDbArc
 50
180.0
 51
270.0
  0
LINE
  5
18E
100
AcDbEntity
  8
1
100
AcDbLine
 10
208.646961
 20
-381.020274
 30
0.0
 11
204.503759
 21
-392.077402
 31
0.0
  0
LINE
  5
18F
100
AcDbEntity
  8
1
100
AcDbLine
 10
215.642961
 20
-439.977613
 30
0.0
 11
215.642961
 21
-424.507539
 31
0.0
  0
LINE
  5
190
100
AcDbEntity
  8
1
100
AcDbLine
 10
208.646961
 20
-439.792471
 30
0.0
 11
208.646961
 21
-434.564667
 31
0.0
  0
LINE
  5
191
100
AcDbEntity
  8
1
100
AcDbLine
 10
205.656607
 20
-442.977613
 30
0.0
 11
215.642961
 21
-442.977613
 31
0.0
  0
LINE
  5
192
100
AcDbEntity
  8
1
100
AcDbLine
 10
204.642961
 20
-421.507539
 30
0.0
 11
215.642961
 21
-421.507539
 31
0.0
  0
LINE
  5
193
100
AcDbEntity
  8
1
100
AcDbLine
 10
210.646961
 20
-441.792471
 30
0.0
 11
213.642961
 21
-441.792471
 31
0.0
  0
LINE
  5
194
100
AcDbEntity
  8
1
100
AcDbLine
 10
210.646961
 20
-432.564667
 30
0.0
 11
213.642961
 21
-432.564667
 31
0.0
  0
ARC
  5
195
100
AcDbEntity
  8
1
100
AcDbCircle
 10
213.642961
 20
-439.792471
 30
0.0
 40
2.0
100
AcDbArc
 50
270.0
 51
360.0
  0
ARC
  5
196
100
AcDbEntity
  8
1
100
AcDbCircle
 10
210.646961
 20
-439.792471
 30
0.0
 40
2.0
100
AcDbArc
 50
180.0
 51
270.0
  0
ARC
  5
197
100
AcDbEntity
  8
1
100
AcDbCircle
 10
210.646961
 20
-434.564667
 30
0.0
 40
2.0
100
AcDbArc
 50
90.0
 51
180.0
  0
ARC
  5
198
100
AcDbEntity
  8
1
100
AcDbCircle
 10
213.642961
 20
-434.564667
 30
0.0
 40
2.0
100
AcDbArc
 50
0.0
 51
90.0
  0
ARC
  5
199
100
AcDbEntity
  8
1
100
AcDbCircle
 10
218.642961
 20
-439.977613
 30
0.0
 40
3.0
100
AcDbArc
 50
180.0
 51
270.0
  0
LINE
  5
19A
100
AcDbEntity
  8
1
100
AcDbLine
 10
208.646961
 20
-441.792471
 30
0.0
 11
205.656607
 21
-441.792471
 31
0.0
  0
ARC
  5
19B
100
AcDbEntity
  8
1
100
AcDbCircle
 10
205.656607
 20
-443.462278
 30
0.0
 40
1.669807
100
AcDbArc
 50
90.0
 51
163.126951
  0
ARC
  5
19C
100
AcDbEntity
  8
1
100
AcDbCircle
 10
218.642961
 20
-424.507539
 30
0.0
 40
3.0
100
AcDbArc
 50
90.0
 51
180.0
  0
LINE
  5
19D
100
AcDbEntity
  8
1
100
AcDbLine
 10
208.646961
 20
-432.564667
 30
0.0
 11
204.503759
 21
-421.507539
 31
0.0
  0
LINE
  5
19E
100
AcDbEntity
  8
1
100
AcDbLine
 10
180.734872
 20
-312.827069
 30
0.0
 11
180.734872
 21
-311.170939
 31
0.0
  0
LINE
  5
19F
100
AcDbEntity
  8
1
100
AcDbLine
 10
203.551051
 20
-312.827069
 30
0.0
 11
203.551051
 21
-311.170939
 31
0.0
  0
LINE
  5
1A0
100
AcDbEntity
  8
1
100
AcDbLine
 10
203.17007
 20
-315.266442
 30
0.0
 11
198.819438
 21
-328.854996
 31
0.0
  0
LINE
  5
1A1
100
AcDbEntity
  8
1
100
AcDbLine
 10
203.17007
 20
-314.076507
 30
0.0
 11
181.115853
 21
-314.076507
 31
0.0
  0
LINE
  5
1A2
100
AcDbEntity
  8
1
100
AcDbLine
 10
181.115853
 20
-315.266442
 30
0.0
 11
185.466485
 21
-328.854996
 31
0.0
  0
ARC
  5
1A3
100
AcDbEntity
  8
1
100
AcDbCircle
 10
195.551051
 20
-312.827069
 30
0.0
 40
8.0
100
AcDbArc
 50
342.246549
 51
360.0
  0
ARC
  5
1A4
100
AcDbEntity
  8
1
100
AcDbCircle
 10
188.734872
 20
-312.827069
 30
0.0
 40
8.0
100
AcDbArc
 50
180.0
 51
197.753451
  0
ARC
  5
1A5
100
AcDbEntity
  8
1
100
AcDbCircle
 10
180.049788
 20
-502.414002
 30
0.0
 40
0.685084
100
AcDbArc
 50
0.0
 51
126.429576
  0
ARC
  5
1A6
100
AcDbEntity
  8
1
100
AcDbCircle
 10
204.236135
 20
-502.414002
 30
0.0
 40
0.685084
100
AcDbArc
 50
53.570424
 51
180.0
  0
LINE
  5
1A7
100
AcDbEntity
  8
1
100
AcDbLine
 10
180.734872
 20
-500.757872
 30
0.0
 11
180.734872
 21
-502.414002
 31
0.0
  0
LINE
  5
1A8
100
AcDbEntity
  8
1
100
AcDbLine
 10
203.551051
 20
-500.757872
 30
0.0
 11
203.551051
 21
-502.414002
 31
0.0
  0
LINE
  5
1A9
100
AcDbEntity
  8
1
100
AcDbLine
 10
203.17007
 20
-498.318499
 30
0.0
 11
198.819438
 21
-484.729946
 31
0.0
  0
LINE
  5
1AA
100
AcDbEntity
  8
1
100
AcDbLine
 10
203.17007
 20
-499.508435
 30
0.0
 11
181.115853
 21
-499.508435
 31
0.0
  0
LINE
  5
1AB
100
AcDbEntity
  8
1
100
AcDbLine
 10
181.115853
 20
-498.318499
 30
0.0
 11
185.466485
 21
-484.729946
 31
0.0
  0
ARC
  5
1AC
100
AcDbEntity
  8
1
100
AcDbCircle
 10
195.551051
 20
-500.757872
 30
0.0
 40
8.0
100
AcDbArc
 50
0.0
 51
17.753451
  0
ARC
  5
1AD
100
AcDbEntity
  8
1
100
AcDbCircle
 10
188.734872
 20
-500.757872
 30
0.0
 40
8.0
100
AcDbArc
 50
162.246549
 51
180.0
  0
ARC
  5
1AE
100
AcDbEntity
  8
1
100
AcDbCircle
 10
197.459768
 20
-281.222113
 30
0.0
 40
6.406952
100
AcDbArc
 50
276.528221
 51
83.471779
  0
ARC
  5
1AF
100
AcDbEntity
  8
1
100
AcDbCircle
 10
183.826155
 20
-281.222113
 30
0.0
 40
6.406952
100
AcDbArc
 50
96.528221
 51
263.471779
  0
ARC
  5
1B0
100
AcDbEntity
  8
1
100
AcDbCircle
 10
197.459768
 20
-532.362828
 30
0.0
 40
6.406952
100
AcDbArc
 50
0.0
 51
83.471779
  0
ARC
  5
1B1
100
AcDbEntity
  8
1
100
AcDbCircle
 10
183.826155
 20
-532.362828
 30
0.0
 40
6.406952
100
AcDbArc
 50
96.528221
 51
180.0
  0
LINE
  5
1B2
100
AcDbEntity
  8
1
100
AcDbLine
 10
186.642961
 20
-247.115012
 30
0.0
 11
194.642961
 21
-247.115012
 31
0.0
  0
LINE
  5
1B3
100
AcDbEntity
  8
1
100
AcDbLine
 10
186.642961
 20
-308.673912
 30
0.0
 11
194.642961
 21
-308.673912
 31
0.0
  0
ARC
  5
1B4
100
AcDbEntity
  8
1
100
AcDbCircle
 10
198.642961
 20
-251.115012
 30
0.0
 40
4.0
100
AcDbArc
 50
90.0
 51
180.0
  0
ARC
  5
1B5
100
AcDbEntity
  8
1
100
AcDbCircle
 10
182.642961
 20
-251.115012
 30
0.0
 40
4.0
100
AcDbArc
 50
0.0
 51
90.0
  0
ARC
  5
1B6
100
AcDbEntity
  8
1
100
AcDbCircle
 10
198.642961
 20
-304.673912
 30
0.0
 40
4.0
100
AcDbArc
 50
180.0
 51
270.0
  0
ARC
  5
1B7
100
AcDbEntity
  8
1
100
AcDbCircle
 10
182.642961
 20
-304.673912
 30
0.0
 40
4.0
100
AcDbArc
 50
270.0
 51
360.0
  0
LINE
  5
1B8
100
AcDbEntity
  8
1
100
AcDbLine
 10
194.642961
 20
-304.673912
 30
0.0
 11
194.642961
 21
-291.561586
 31
0.0
  0
LINE
  5
1B9
100
AcDbEntity
  8
1
100
AcDbLine
 10
194.642961
 20
-270.882641
 30
0.0
 11
194.642961
 21
-251.115012
 31
0.0
  0
LINE
  5
1BA
100
AcDbEntity
  8
1
100
AcDbLine
 10
186.642961
 20
-304.673912
 30
0.0
 11
186.642961
 21
-291.561586
 31
0.0
  0
LINE
  5
1BB
100
AcDbEntity
  8
1
100
AcDbLine
 10
186.642961
 20
-270.882641
 30
0.0
 11
186.642961
 21
-251.115012
 31
0.0
  0
ARC
  5
1BC
100
AcDbEntity
  8
1
100
AcDbCircle
 10
198.642961
 20
-270.882641
 30
0.0
 40
4.0
100
AcDbArc
 50
180.0
 51
263.471779
  0
ARC
  5
1BD
100
AcDbEntity
  8
1
100
AcDbCircle
 10
182.642961
 20
-270.882641
 30
0.0
 40
4.0
100
AcDbArc
 50
276.528221
 51
360.0
  0
ARC
  5
1BE
100
AcDbEntity
  8
1
100
AcDbCircle
 10
182.642961
 20
-291.561586
 30
0.0
 40
4.0
100
AcDbArc
 50
0.0
 51
83.471779
  0
ARC
  5
1BF
100
AcDbEntity
  8
1
100
AcDbCircle
 10
198.642961
 20
-291.561586
 30
0.0
 40
4.0
100
AcDbArc
 50
96.528221
 51
180.0
  0
LINE
  5
1C0
100
AcDbEntity
  8
1
100
AcDbLine
 10
188.642961
 20
-256.83898
 30
0.0
 11
192.642961
 21
-256.83898
 31
0.0
  0
LINE
  5
1C1
100
AcDbEntity
  8
1
100
AcDbLine
 10
188.642961
 20
-266.440164
 30
0.0
 11
192.642961
 21
-266.440164
 31
0.0
  0
ARC
  5
1C2
100
AcDbEntity
  8
1
100
AcDbCircle
 10
192.642961
 20
-258.83898
 30
0.0
 40
2.0
100
AcDbArc
 50
0.0
 51
90.0
  0
ARC
  5
1C3
100
AcDbEntity
  8
1
100
AcDbCircle
 10
188.642961
 20
-258.83898
 30
0.0
 40
2.0
100
AcDbArc
 50
90.0
 51
180.0
  0
ARC
  5
1C4
100
AcDbEntity
  8
1
100
AcDbCircle
 10
188.642961
 20
-264.440164
 30
0.0
 40
2.0
100
AcDbArc
 50
180.0
 51
270.0
  0
ARC
  5
1C5
100
AcDbEntity
  8
1
100
AcDbCircle
 10
192.642961
 20
-264.440164
 30
0.0
 40
2.0
100
AcDbArc
 50
270.0
 51
360.0
  0
LINE
  5
1C6
100
AcDbEntity
  8
1
100
AcDbLine
 10
188.642961
 20
-272.839152
 30
0.0
 11
192.642961
 21
-272.839152
 31
0.0
  0
LINE
  5
1C7
100
AcDbEntity
  8
1
100
AcDbLine
 10
188.642961
 20
-292.942805
 30
0.0
 11
192.642961
 21
-292.942805
 31
0.0
  0
ARC
  5
1C8
100
AcDbEntity
  8
1
100
AcDbCircle
 10
192.642961
 20
-294.942805
 30
0.0
 40
2.0
100
AcDbArc
 50
360.0
 51
90.0
  0
ARC
  5
1C9
100
AcDbEntity
  8
1
100
AcDbCircle
 10
188.642961
 20
-294.942805
 30
0.0
 40
2.0
100
AcDbArc
 50
90.0
 51
180.0
  0
LINE
  5
1CA
100
AcDbEntity
  8
1
100
AcDbLine
 10
170.642961
 20
-303.830273
 30
0.0
 11
182.642961
 21
-303.830273
 31
0.0
  0
LINE
  5
1CB
100
AcDbEntity
  8
1
100
AcDbLine
 10
198.642961
 20
-303.830273
 30
0.0
 11
211.642961
 21
-303.830273
 31
0.0
  0
LINE
  5
1CC
100
AcDbEntity
  8
1
100
AcDbLine
 10
167.642961
 20
-306.087525
 30
0.0
 11
182.642961
 21
-306.087525
 31
0.0
  0
LINE
  5
1CD
100
AcDbEntity
  8
1
100
AcDbLine
 10
198.642961
 20
-306.087525
 30
0.0
 11
224.642961
 21
-306.087525
 31
0.0
  0
ARC
  5
1CE
100
AcDbEntity
  8
1
100
AcDbCircle
 10
198.642961
 20
-299.830273
 30
0.0
 40
4.0
100
AcDbArc
 50
180.0
 51
270.0
  0
ARC
  5
1CF
100
AcDbEntity
  8
1
100
AcDbCircle
 10
198.642961
 20
-302.087525
 30
0.0
 40
4.0
100
AcDbArc
 50
180.0
 51
270.0
  0
ARC
  5
1D0
100
AcDbEntity
  8
1
100
AcDbCircle
 10
182.642961
 20
-299.830273
 30
0.0
 40
4.0
100
AcDbArc
 50
270.0
 51
360.0
  0
ARC
  5
1D1
100
AcDbEntity
  8
1
100
AcDbCircle
 10
182.642961
 20
-302.087525
 30
0.0
 40
4.0
100
AcDbArc
 50
270.0
 51
360.0
  0
LINE
  5
1D2
100
AcDbEntity
  8
1
100
AcDbLine
 10
203.86672
 20
-537.74579
 30
0.0
 11
203.86672
 21
-532.362828
 31
0.0
  0
LINE
  5
1D3
100
AcDbEntity
  8
1
100
AcDbLine
 10
177.419203
 20
-537.74579
 30
0.0
 11
177.419203
 21
-532.362828
 31
0.0
  0
LINE
  5
1D4
100
AcDbEntity
  8
1
100
AcDbLine
 10
169.642961
 20
-540.74579
 30
0.0
 11
174.419203
 21
-540.74579
 31
0.0
  0
LINE
  5
1D5
100
AcDbEntity
  8
1
100
AcDbLine
 10
206.86672
 20
-540.74579
 30
0.0
 11
211.642961
 21
-540.74579
 31
0.0
  0
ARC
  5
1D6
100
AcDbEntity
  8
1
100
AcDbCircle
 10
174.419203
 20
-537.74579
 30
0.0
 40
3.0
100
AcDbArc
 50
270.0
 51
360.0
  0
ARC
  5
1D7
100
AcDbEntity
  8
1
100
AcDbCircle
 10
206.86672
 20
-537.74579
 30
0.0
 40
3.0
100
AcDbArc
 50
180.0
 51
270.0
  0
LINE
  5
1D8
100
AcDbEntity
  8
1
100
AcDbLine
 10
186.642961
 20
-504.911029
 30
0.0
 11
194.642961
 21
-504.911029
 31
0.0
  0
ARC
  5
1D9
100
AcDbEntity
  8
1
100
AcDbCircle
 10
198.642961
 20
-508.911029
 30
0.0
 40
4.0
100
AcDbArc
 50
90.0
 51
180.0
  0
ARC
  5
1DA
100
AcDbEntity
  8
1
100
AcDbCircle
 10
182.642961
 20
-508.911029
 30
0.0
 40
4.0
100
AcDbArc
 50
0.0
 51
90.0
  0
LINE
  5
1DB
100
AcDbEntity
  8
1
100
AcDbLine
 10
194.642961
 20
-508.911029
 30
0.0
 11
194.642961
 21
-522.023355
 31
0.0
  0
LINE
  5
1DC
100
AcDbEntity
  8
1
100
AcDbLine
 10
186.642961
 20
-508.911029
 30
0.0
 11
186.642961
 21
-522.023355
 31
0.0
  0
LINE
  5
1DD
100
AcDbEntity
  8
1
100
AcDbLine
 10
188.642961
 20
-520.642136
 30
0.0
 11
192.642961
 21
-520.642136
 31
0.0
  0
ARC
  5
1DE
100
AcDbEntity
  8
1
100
AcDbCircle
 10
192.642961
 20
-518.642136
 30
0.0
 40
2.0
100
AcDbArc
 50
270.0
 51
0.0
  0
ARC
  5
1DF
100
AcDbEntity
  8
1
100
AcDbCircle
 10
188.642961
 20
-518.642136
 30
0.0
 40
2.0
100
AcDbArc
 50
180.0
 51
270.0
  0
ARC
  5
1E0
100
AcDbEntity
  8
1
100
AcDbCircle
 10
198.642961
 20
-522.023355
 30
0.0
 40
4.0
100
AcDbArc
 50
180.0
 51
263.471779
  0
ARC
  5
1E1
100
AcDbEntity
  8
1
100
AcDbCircle
 10
182.642961
 20
-522.023355
 30
0.0
 40
4.0
100
AcDbArc
 50
276.528221
 51
360.0
  0
LINE
  5
1E2
100
AcDbEntity
  8
1
100
AcDbLine
 10
167.642961
 20
-507.497416
 30
0.0
 11
182.642961
 21
-507.497416
 31
0.0
  0
LINE
  5
1E3
100
AcDbEntity
  8
1
100
AcDbLine
 10
198.642961
 20
-507.497416
 30
0.0
 11
224.642961
 21
-507.497416
 31
0.0
  0
LINE
  5
1E4
100
AcDbEntity
  8
1
100
AcDbLine
 10
170.642961
 20
-509.754668
 30
0.0
 11
182.642961
 21
-509.754668
 31
0.0
  0
LINE
  5
1E5
100
AcDbEntity
  8
1
100
AcDbLine
 10
198.642961
 20
-509.754668
 30
0.0
 11
211.642961
 21
-509.754668
 31
0.0
  0
ARC
  5
1E6
100
AcDbEntity
  8
1
100
AcDbCircle
 10
198.642961
 20
-513.754668
 30
0.0
 40
4.0
100
AcDbArc
 50
90.0
 51
180.0
  0
ARC
  5
1E7
100
AcDbEntity
  8
1
100
AcDbCircle
 10
198.642961
 20
-511.497416
 30
0.0
 40
4.0
100
AcDbArc
 50
90.0
 51
180.0
  0
ARC
  5
1E8
100
AcDbEntity
  8
1
100
AcDbCircle
 10
182.642961
 20
-513.754668
 30
0.0
 40
4.0
100
AcDbArc
 50
0.0
 51
90.0
  0
ARC
  5
1E9
100
AcDbEntity
  8
1
100
AcDbCircle
 10
182.642961
 20
-511.497416
 30
0.0
 40
4.0
100
AcDbArc
 50
0.0
 51
90.0
  0
LINE
  5
1EA
100
AcDbEntity
  8
1
100
AcDbLine
 10
169.642961
 20
-558.292471
 30
0.0
 11
211.642961
 21
-558.292471
 31
0.0
  0
LINE
  5
1EB
100
AcDbEntity
  8
1
100
AcDbLine
 10
-498.207039
 20
-558.292471
 30
0.0
 11
-443.207039
 21
-558.292471
 31
0.0
  0
LINE
  5
1EC
100
AcDbEntity
  8
1
100
AcDbLine
 10
169.542961
 20
-564.292471
 30
0.0
 11
211.742961
 21
-564.292471
 31
0.0
  0
LINE
  5
1ED
100
AcDbEntity
  8
1
100
AcDbLine
 10
-498.207039
 20
-564.292471
 30
0.0
 11
-443.207039
 21
-564.292471
 31
0.0
  0
LINE
  5
1EE
100
AcDbEntity
  8
1
100
AcDbLine
 10
-485.957039
 20
-565.792471
 30
0.0
 11
-485.957039
 21
-569.301723
 31
0.0
  0
LINE
  5
1EF
100
AcDbEntity
  8
1
100
AcDbLine
 10
-485.957039
 20
-569.301723
 30
0.0
 11
-486.807039
 21
-569.792471
 31
0.0
  0
LINE
  5
1F0
100
AcDbEntity
  8
1
100
AcDbLine
 10
-488.832039
 20
-565.792471
 30
0.0
 11
-488.832039
 21
-569.301723
 31
0.0
  0
ARC
  5
1F1
100
AcDbEntity
  8
1
100
AcDbCircle
 10
-487.394539
 20
-567.453768
 30
0.0
 40
2.341227
100
AcDbArc
 50
232.121121
 51
307.878879
  0
ARC
  5
1F2
100
AcDbEntity
  8
1
100
AcDbCircle
 10
-491.707039
 20
-561.169995
 30
0.0
 40
8.625
100
AcDbArc
 50
250.528777
 51
289.471219
  0
LINE
  5
1F3
100
AcDbEntity
  8
1
100
AcDbLine
 10
-497.457039
 20
-565.792471
 30
0.0
 11
-497.457039
 21
-569.301723
 31
0.0
  0
LINE
  5
1F4
100
AcDbEntity
  8
1
100
AcDbLine
 10
-497.457039
 20
-569.301723
 30
0.0
 11
-496.607039
 21
-569.792471
 31
0.0
  0
LINE
  5
1F5
100
AcDbEntity
  8
1
100
AcDbLine
 10
-496.607039
 20
-569.792471
 30
0.0
 11
-486.807039
 21
-569.792471
 31
0.0
  0
LINE
  5
1F6
100
AcDbEntity
  8
1
100
AcDbLine
 10
-494.582039
 20
-565.792471
 30
0.0
 11
-494.582039
 21
-569.301723
 31
0.0
  0
ARC
  5
1F7
100
AcDbEntity
  8
1
100
AcDbCircle
 10
-496.019539
 20
-567.453768
 30
0.0
 40
2.341227
100
AcDbArc
 50
232.121121
 51
307.878879
  0
LINE
  5
1F8
100
AcDbEntity
  8
1
100
AcDbLine
 10
-485.607039
 20
-564.292471
 30
0.0
 11
-485.607039
 21
-565.792471
 31
0.0
  0
LINE
  5
1F9
100
AcDbEntity
  8
1
100
AcDbLine
 10
-485.607039
 20
-565.792471
 30
0.0
 11
-497.807039
 21
-565.792471
 31
0.0
  0
LINE
  5
1FA
100
AcDbEntity
  8
1
100
AcDbLine
 10
-497.807039
 20
-565.792471
 30
0.0
 11
-497.807039
 21
-564.292471
 31
0.0
  0
LINE
  5
1FB
100
AcDbEntity
  8
1
100
AcDbLine
 10
-491.707039
 20
-565.792471
 30
0.0
 11
-492.207039
 21
-564.292471
 31
0.0
  0
LINE
  5
1FC
100
AcDbEntity
  8
1
100
AcDbLine
 10
-491.707039
 20
-564.292471
 30
0.0
 11
-491.207039
 21
-565.792471
 31
0.0
  0
LINE
  5
1FD
100
AcDbEntity
  8
1
100
AcDbLine
 10
-443.957039
 20
-565.792471
 30
0.0
 11
-443.957039
 21
-569.301723
 31
0.0
  0
LINE
  5
1FE
100
AcDbEntity
  8
1
100
AcDbLine
 10
-443.957039
 20
-569.301723
 30
0.0
 11
-444.807039
 21
-569.792471
 31
0.0
  0
LINE
  5
1FF
100
AcDbEntity
  8
1
100
AcDbLine
 10
-446.832039
 20
-565.792471
 30
0.0
 11
-446.832039
 21
-569.301723
 31
0.0
  0
ARC
  5
200
100
AcDbEntity
  8
1
100
AcDbCircle
 10
-445.394539
 20
-567.453768
 30
0.0
 40
2.341227
100
AcDbArc
 50
232.121121
 51
307.878879
  0
ARC
  5
201
100
AcDbEntity
  8
1
100
AcDbCircle
 10
-449.707039
 20
-561.169995
 30
0.0
 40
8.625
100
AcDbArc
 50
250.528777
 51
289.471219
  0
LINE
  5
202
100
AcDbEntity
  8
1
100
AcDbLine
 10
-455.457039
 20
-565.792471
 30
0.0
 11
-455.457039
 21
-569.301723
 31
0.0
  0
LINE
  5
203
100
AcDbEntity
  8
1
100
AcDbLine
 10
-455.457039
 20
-569.301723
 30
0.0
 11
-454.607039
 21
-569.792471
 31
0.0
  0
LINE
  5
204
100
AcDbEntity
  8
1
100
AcDbLine
 10
-454.607039
 20
-569.792471
 30
0.0
 11
-444.807039
 21
-569.792471
 31
0.0
  0
LINE
  5
205
100
AcDbEntity
  8
1
100
AcDbLine
 10
-452.582039
 20
-565.792471
 30
0.0
 11
-452.582039
 21
-569.301723
 31
0.0
  0
ARC
  5
206
100
AcDbEntity
  8
1
100
AcDbCircle
 10
-454.019539
 20
-567.453768
 30
0.0
 40
2.341227
100
AcDbArc
 50
232.121121
 51
307.878879
  0
LINE
  5
207
100
AcDbEntity
  8
1
100
AcDbLine
 10
-443.607039
 20
-564.292471
 30
0.0
 11
-443.607039
 21
-565.792471
 31
0.0
  0
LINE
  5
208
100
AcDbEntity
  8
1
100
AcDbLine
 10
-443.607039
 20
-565.792471
 30
0.0
 11
-455.807039
 21
-565.792471
 31
0.0
  0
LINE
  5
209
100
AcDbEntity
  8
1
100
AcDbLine
 10
-455.807039
 20
-565.792471
 30
0.0
 11
-455.807039
 21
-564.292471
 31
0.0
  0
LINE
  5
20A
100
AcDbEntity
  8
1
100
AcDbLine
 10
-449.707039
 20
-565.792471
 30
0.0
 11
-450.207039
 21
-564.292471
 31
0.0
  0
LINE
  5
20B
100
AcDbEntity
  8
1
100
AcDbLine
 10
-449.707039
 20
-564.292471
 30
0.0
 11
-449.207039
 21
-565.792471
 31
0.0
  0
LINE
  5
20C
100
AcDbEntity
  8
1
100
AcDbLine
 10
210.642961
 20
-565.792471
 30
0.0
 11
210.642961
 21
-569.792471
 31
0.0
  0
ARC
  5
20D
100
AcDbEntity
  8
1
100
AcDbCircle
 10
208.142961
 20
-563.179263
 30
0.0
 40
6.613208
100
AcDbArc
 50
247.788205
 51
292.211795
  0
LINE
  5
20E
100
AcDbEntity
  8
1
100
AcDbLine
 10
200.642961
 20
-565.792471
 30
0.0
 11
200.642961
 21
-569.792471
 31
0.0
  0
LINE
  5
20F
100
AcDbEntity
  8
1
100
AcDbLine
 10
200.642961
 20
-569.792471
 30
0.0
 11
210.642961
 21
-569.792471
 31
0.0
  0
LINE
  5
210
100
AcDbEntity
  8
1
100
AcDbLine
 10
205.642961
 20
-565.792471
 30
0.0
 11
205.642961
 21
-569.301723
 31
0.0
  0
ARC
  5
211
100
AcDbEntity
  8
1
100
AcDbCircle
 10
203.142961
 20
-563.179263
 30
0.0
 40
6.613208
100
AcDbArc
 50
247.788205
 51
292.211795
  0
LINE
  5
212
100
AcDbEntity
  8
1
100
AcDbLine
 10
211.742961
 20
-564.292471
 30
0.0
 11
211.742961
 21
-565.792471
 31
0.0
  0
LINE
  5
213
100
AcDbEntity
  8
1
100
AcDbLine
 10
211.742961
 20
-565.792471
 30
0.0
 11
199.542961
 21
-565.792471
 31
0.0
  0
LINE
  5
214
100
AcDbEntity
  8
1
100
AcDbLine
 10
199.542961
 20
-565.792471
 30
0.0
 11
199.542961
 21
-564.292471
 31
0.0
  0
LINE
  5
215
100
AcDbEntity
  8
1
100
AcDbLine
 10
170.642961
 20
-565.792471
 30
0.0
 11
170.642961
 21
-569.792471
 31
0.0
  0
ARC
  5
216
100
AcDbEntity
  8
1
100
AcDbCircle
 10
173.142961
 20
-563.179263
 30
0.0
 40
6.613208
100
AcDbArc
 50
247.788205
 51
292.211795
  0
LINE
  5
217
100
AcDbEntity
  8
1
100
AcDbLine
 10
180.642961
 20
-565.792471
 30
0.0
 11
180.642961
 21
-569.792471
 31
0.0
  0
LINE
  5
218
100
AcDbEntity
  8
1
100
AcDbLine
 10
180.642961
 20
-569.792471
 30
0.0
 11
170.642961
 21
-569.792471
 31
0.0
  0
LINE
  5
219
100
AcDbEntity
  8
1
100
AcDbLine
 10
175.642961
 20
-565.792471
 30
0.0
 11
175.642961
 21
-569.301723
 31
0.0
  0
ARC
  5
21A
100
AcDbEntity
  8
1
100
AcDbCircle
 10
178.142961
 20
-563.179263
 30
0.0
 40
6.613208
100
AcDbArc
 50
247.788205
 51
292.211795
  0
LINE
  5
21B
100
AcDbEntity
  8
1
100
AcDbLine
 10
169.542961
 20
-564.292471
 30
0.0
 11
169.542961
 21
-565.792471
 31
0.0
  0
LINE
  5
21C
100
AcDbEntity
  8
1
100
AcDbLine
 10
169.542961
 20
-565.792471
 30
0.0
 11
181.742961
 21
-565.792471
 31
0.0
  0
LINE
  5
21D
100
AcDbEntity
  8
1
100
AcDbLine
 10
181.742961
 20
-565.792471
 30
0.0
 11
181.742961
 21
-564.292471
 31
0.0
  0
LINE
  5
21E
100
AcDbEntity
  8
1
100
AcDbLine
 10
-490.207039
 20
-332.612689
 30
0.0
 11
-490.698373
 21
-331.761674
 31
0.0
  0
ARC
  5
21F
100
AcDbEntity
  8
1
100
AcDbCircle
 10
-495.0285
 20
-334.261674
 30
0.0
 40
5.0
100
AcDbArc
 50
30.0
 51
108.537641
  0
ARC
  5
220
100
AcDbEntity
  8
1
100
AcDbCircle
 10
-491.563797
 20
-332.612689
 30
0.0
 40
1.356759
100
AcDbArc
 50
285.704125
 51
360.0
  0
LINE
  5
221
100
AcDbEntity
  8
1
100
AcDbLine
 10
-490.207039
 20
-480.972252
 30
0.0
 11
-490.698373
 21
-481.823268
 31
0.0
  0
ARC
  5
222
100
AcDbEntity
  8
1
100
AcDbCircle
 10
-495.0285
 20
-479.323268
 30
0.0
 40
5.0
100
AcDbArc
 50
251.462359
 51
330.0
  0
ARC
  5
223
100
AcDbEntity
  8
1
100
AcDbCircle
 10
-491.563797
 20
-480.972252
 30
0.0
 40
1.356759
100
AcDbArc
 50
0.0
 51
74.295875
  0
ARC
  5
224
100
AcDbEntity
  8
1
100
AcDbCircle
 10
-470.707039
 20
-406.792471
 30
0.0
 40
75.699353
100
AcDbArc
 50
105.704125
 51
254.295875
  0
ARC
  5
225
100
AcDbEntity
  8
1
100
AcDbCircle
 10
-470.707039
 20
-406.792471
 30
0.0
 40
75.699353
100
AcDbArc
 50
284.882328
 51
75.117672
  0
ARC
  5
226
100
AcDbEntity
  8
1
100
AcDbCircle
 10
-470.707039
 20
-406.792471
 30
0.0
 40
74.179782
100
AcDbArc
 50
105.240715
 51
254.759285
  0
ARC
  5
227
100
AcDbEntity
  8
1
100
AcDbCircle
 10
-470.707039
 20
-406.792471
 30
0.0
 40
74.179782
100
AcDbArc
 50
285.240715
 51
74.759285
  0
LINE
  5
228
100
AcDbEntity
  8
1
100
AcDbLine
 10
-488.207039
 20
-361.792471
 30
0.0
 11
-452.207039
 21
-361.792471
 31
0.0
  0
LINE
  5
229
100
AcDbEntity
  8
1
100
AcDbLine
 10
-490.207039
 20
-359.792471
 30
0.0
 11
-490.207039
 21
-329.079859
 31
0.0
  0
LINE
  5
22A
100
AcDbEntity
  8
1
100
AcDbLine
 10
-450.207039
 20
-339.792471
 30
0.0
 11
-450.207039
 21
-473.792471
 31
0.0
  0
ARC
  5
22B
100
AcDbEntity
  8
1
100
AcDbCircle
 10
-488.207039
 20
-359.792471
 30
0.0
 40
2.0
100
AcDbArc
 50
180.0
 51
270.0
  0
ARC
  5
22C
100
AcDbEntity
  8
1
100
AcDbCircle
 10
-452.207039
 20
-359.792471
 30
0.0
 40
2.0
100
AcDbArc
 50
270.0
 51
360.0
  0
LINE
  5
22D
100
AcDbEntity
  8
1
100
AcDbLine
 10
-451.207039
 20
-337.146719
 30
0.0
 11
-451.207039
 21
-333.792471
 31
0.0
  0
LINE
  5
22E
100
AcDbEntity
  8
1
100
AcDbLine
 10
-462.207039
 20
-329.079859
 30
0.0
 11
-490.207039
 21
-329.079859
 31
0.0
  0
ARC
  5
22F
100
AcDbEntity
  8
1
100
AcDbCircle
 10
-469.207039
 20
-406.792471
 30
0.0
 40
80.5
100
AcDbArc
 50
98.141305
 51
105.121665
  0
ARC
  5
230
100
AcDbEntity
  8
1
100
AcDbCircle
 10
-468.607039
 20
-108.26829
 30
0.0
 40
219.164241
100
AcDbArc
 50
266.861288
 51
271.67338
  0
LINE
  5
231
100
AcDbEntity
  8
1
100
AcDbLine
 10
-462.207039
 20
-333.792471
 30
0.0
 11
-462.207039
 21
-327.339065
 31
0.0
  0
LINE
  5
232
100
AcDbEntity
  8
1
100
AcDbLine
 10
-462.207039
 20
-333.792471
 30
0.0
 11
-451.207039
 21
-333.792471
 31
0.0
  0
ARC
  5
233
100
AcDbEntity
  8
1
100
AcDbCircle
 10
-468.607039
 20
-427.897641
 30
0.0
 40
96.860632
100
AcDbArc
 50
82.939482
 51
83.479123
  0
LINE
  5
234
100
AcDbEntity
  8
1
100
AcDbLine
 10
-456.701158
 20
-331.771515
 30
0.0
 11
-456.701158
 21
-332.492471
 31
0.0
  0
LINE
  5
235
100
AcDbEntity
  8
1
100
AcDbLine
 10
-457.607039
 20
-332.492471
 30
0.0
 11
-456.701158
 21
-332.492471
 31
0.0
  0
LINE
  5
236
100
AcDbEntity
  8
1
100
AcDbLine
 10
-457.607039
 20
-326.352182
 30
0.0
 11
-457.607039
 21
-333.792471
 31
0.0
  0
LINE
  5
237
100
AcDbEntity
  8
1
100
AcDbLine
 10
-479.607039
 20
-327.156308
 30
0.0
 11
-479.607039
 21
-325.779879
 31
0.0
  0
LINE
  5
238
100
AcDbEntity
  8
1
100
AcDbLine
 10
-451.264817
 20
-332.597467
 30
0.0
 11
-451.264817
 21
-333.792471
 31
0.0
  0
ARC
  5
239
100
AcDbEntity
  8
1
100
AcDbCircle
 10
-465.496517
 20
-407.965555
 30
0.0
 40
76.7
100
AcDbArc
 50
79.306788
 51
83.415281
  0
LINE
  5
23A
100
AcDbEntity
  8
1
100
AcDbLine
 10
-468.707039
 20
-337.792471
 30
0.0
 11
-452.207039
 21
-337.792471
 31
0.0
  0
ARC
  5
23B
100
AcDbEntity
  8
1
100
AcDbCircle
 10
-452.207039
 20
-339.792471
 30
0.0
 40
2.0
100
AcDbArc
 50
0.0
 51
90.0
  0
ARC
  5
23C
100
AcDbEntity
  8
1
100
AcDbCircle
 10
-449.207039
 20
-337.146719
 30
0.0
 40
2.0
100
AcDbArc
 50
180.0
 51
221.409622
  0
ARC
  5
23D
100
AcDbEntity
  8
1
100
AcDbCircle
 10
-468.707039
 20
-335.792471
 30
0.0
 40
2.0
100
AcDbArc
 50
180.0
 51
270.0
  0
LINE
  5
23E
100
AcDbEntity
  8
1
  6
CENTER
 62
     2
100
AcDbLine
 10
-486.811615
 20
-353.792471
 30
0.0
 11
-472.194397
 21
-353.792471
 31
0.0
  0
LINE
  5
23F
100
AcDbEntity
  8
1
100
AcDbLine
 10
-481.707039
 20
-345.792471
 30
0.0
 11
-472.707039
 21
-345.792471
 31
0.0
  0
ARC
  5
240
100
AcDbEntity
  8
1
100
AcDbCircle
 10
-481.707039
 20
-353.792471
 30
0.0
 40
8.0
100
AcDbArc
 50
90.0
 51
270.0
  0
ARC
  5
241
100
AcDbEntity
  8
1
100
AcDbCircle
 10
-472.707039
 20
-343.792471
 30
0.0
 40
2.0
100
AcDbArc
 50
270.0
 51
360.0
  0
LINE
  5
242
100
AcDbEntity
  8
1
100
AcDbLine
 10
-464.382483
 20
-339.792471
 30
0.0
 11
-464.382483
 21
-359.792471
 31
0.0
  0
ARC
  5
243
100
AcDbEntity
  8
1
100
AcDbCircle
 10
-466.382483
 20
-359.792471
 30
0.0
 40
2.0
100
AcDbArc
 50
270.0
 51
360.0
  0
ARC
  5
244
100
AcDbEntity
  8
1
100
AcDbCircle
 10
-466.382483
 20
-339.792471
 30
0.0
 40
2.0
100
AcDbArc
 50
0.0
 51
90.0
  0
LINE
  5
245
100
AcDbEntity
  8
1
100
AcDbLine
 10
-488.207039
 20
-451.792471
 30
0.0
 11
-452.207039
 21
-451.792471
 31
0.0
  0
LINE
  5
246
100
AcDbEntity
  8
1
100
AcDbLine
 10
-490.207039
 20
-453.792471
 30
0.0
 11
-490.207039
 21
-484.505082
 31
0.0
  0
ARC
  5
247
100
AcDbEntity
  8
1
100
AcDbCircle
 10
-488.207039
 20
-453.792471
 30
0.0
 40
2.0
100
AcDbArc
 50
90.0
 51
180.0
  0
ARC
  5
248
100
AcDbEntity
  8
1
100
AcDbCircle
 10
-452.207039
 20
-453.792471
 30
0.0
 40
2.0
100
AcDbArc
 50
0.0
 51
90.0
  0
LINE
  5
249
100
AcDbEntity
  8
1
100
AcDbLine
 10
-451.207039
 20
-476.438222
 30
0.0
 11
-451.207039
 21
-479.792471
 31
0.0
  0
LINE
  5
24A
100
AcDbEntity
  8
1
100
AcDbLine
 10
-462.207039
 20
-484.505082
 30
0.0
 11
-490.207039
 21
-484.505082
 31
0.0
  0
ARC
  5
24B
100
AcDbEntity
  8
1
100
AcDbCircle
 10
-469.207039
 20
-406.792471
 30
0.0
 40
80.5
100
AcDbArc
 50
254.878335
 51
261.858695
  0
ARC
  5
24C
100
AcDbEntity
  8
1
100
AcDbCircle
 10
-468.607039
 20
-705.316651
 30
0.0
 40
219.164241
100
AcDbArc
 50
88.32662
 51
93.138712
  0
LINE
  5
24D
100
AcDbEntity
  8
1
100
AcDbLine
 10
-462.207039
 20
-479.792471
 30
0.0
 11
-462.207039
 21
-486.245876
 31
0.0
  0
LINE
  5
24E
100
AcDbEntity
  8
1
100
AcDbLine
 10
-462.207039
 20
-479.792471
 30
0.0
 11
-451.207039
 21
-479.792471
 31
0.0
  0
ARC
  5
24F
100
AcDbEntity
  8
1
100
AcDbCircle
 10
-468.607039
 20
-385.6873
 30
0.0
 40
96.860632
100
AcDbArc
 50
276.520877
 51
277.060518
  0
LINE
  5
250
100
AcDbEntity
  8
1
100
AcDbLine
 10
-456.701158
 20
-481.813426
 30
0.0
 11
-456.701158
 21
-481.092471
 31
0.0
  0
LINE
  5
251
100
AcDbEntity
  8
1
100
AcDbLine
 10
-457.607039
 20
-481.092471
 30
0.0
 11
-456.701158
 21
-481.092471
 31
0.0
  0
LINE
  5
252
100
AcDbEntity
  8
1
100
AcDbLine
 10
-457.607039
 20
-487.232759
 30
0.0
 11
-457.607039
 21
-479.792471
 31
0.0
  0
LINE
  5
253
100
AcDbEntity
  8
1
100
AcDbLine
 10
-479.607039
 20
-486.428633
 30
0.0
 11
-479.607039
 21
-487.805062
 31
0.0
  0
LINE
  5
254
100
AcDbEntity
  8
1
100
AcDbLine
 10
-451.264817
 20
-480.987475
 30
0.0
 11
-451.264817
 21
-479.792471
 31
0.0
  0
ARC
  5
255
100
AcDbEntity
  8
1
100
AcDbCircle
 10
-465.496517
 20
-405.619387
 30
0.0
 40
76.7
100
AcDbArc
 50
276.584719
 51
280.693212
  0
LINE
  5
256
100
AcDbEntity
  8
1
100
AcDbLine
 10
-468.707039
 20
-475.792471
 30
0.0
 11
-452.207039
 21
-475.792471
 31
0.0
  0
ARC
  5
257
100
AcDbEntity
  8
1
100
AcDbCircle
 10
-452.207039
 20
-473.792471
 30
0.0
 40
2.0
100
AcDbArc
 50
270.0
 51
360.0
  0
ARC
  5
258
100
AcDbEntity
  8
1
100
AcDbCircle
 10
-449.207039
 20
-476.438222
 30
0.0
 40
2.0
100
AcDbArc
 50
138.590378
 51
180.0
  0
ARC
  5
259
100
AcDbEntity
  8
1
100
AcDbCircle
 10
-468.707039
 20
-477.792471
 30
0.0
 40
2.0
100
AcDbArc
 50
90.0
 51
180.0
  0
LINE
  5
25A
100
AcDbEntity
  8
1
  6
CENTER
 62
     2
100
AcDbLine
 10
-475.73027
 20
-459.792471
 30
0.0
 11
-461.451477
 21
-459.792471
 31
0.0
  0
LINE
  5
25B
100
AcDbEntity
  8
1
100
AcDbLine
 10
-481.707039
 20
-467.792471
 30
0.0
 11
-472.707039
 21
-467.792471
 31
0.0
  0
ARC
  5
25C
100
AcDbEntity
  8
1
100
AcDbCircle
 10
-481.707039
 20
-459.792471
 30
0.0
 40
8.0
100
AcDbArc
 50
90.0
 51
270.0
  0
ARC
  5
25D
100
AcDbEntity
  8
1
100
AcDbCircle
 10
-472.707039
 20
-469.792471
 30
0.0
 40
2.0
100
AcDbArc
 50
0.0
 51
90.0
  0
LINE
  5
25E
100
AcDbEntity
  8
1
100
AcDbLine
 10
-464.382483
 20
-473.792471
 30
0.0
 11
-464.382483
 21
-453.792471
 31
0.0
  0
ARC
  5
25F
100
AcDbEntity
  8
1
100
AcDbCircle
 10
-466.382483
 20
-453.792471
 30
0.0
 40
2.0
100
AcDbArc
 50
0.0
 51
90.0
  0
ARC
  5
260
100
AcDbEntity
  8
1
100
AcDbCircle
 10
-466.382483
 20
-473.792471
 30
0.0
 40
2.0
100
AcDbArc
 50
270.0
 51
360.0
  0
LINE
  5
261
100
AcDbEntity
  8
1
100
AcDbLine
 10
-485.207039
 20
-449.792471
 30
0.0
 11
-485.207039
 21
-363.792471
 31
0.0
  0
LINE
  5
262
100
AcDbEntity
  8
1
100
AcDbLine
 10
-456.207039
 20
-449.792471
 30
0.0
 11
-456.207039
 21
-363.792471
 31
0.0
  0
LINE
  5
263
100
AcDbEntity
  8
1
100
AcDbLine
 10
-491.207039
 20
-451.792471
 30
0.0
 11
-491.207039
 21
-361.792471
 31
0.0
  0
ARC
  5
264
100
AcDbEntity
  8
1
100
AcDbCircle
 10
-458.207039
 20
-363.792471
 30
0.0
 40
2.0
100
AcDbArc
 50
0.0
 51
72.542397
  0
ARC
  5
265
100
AcDbEntity
  8
1
100
AcDbCircle
 10
-483.207039
 20
-363.792471
 30
0.0
 40
2.0
100
AcDbArc
 50
90.0
 51
180.0
  0
ARC
  5
266
100
AcDbEntity
  8
1
100
AcDbCircle
 10
-448.207039
 20
-363.792471
 30
0.0
 40
2.0
100
AcDbArc
 50
90.0
 51
180.0
  0
ARC
  5
267
100
AcDbEntity
  8
1
100
AcDbCircle
 10
-448.207039
 20
-449.792471
 30
0.0
 40
2.0
100
AcDbArc
 50
180.0
 51
270.0
  0
ARC
  5
268
100
AcDbEntity
  8
1
100
AcDbCircle
 10
-458.207039
 20
-449.792471
 30
0.0
 40
2.0
100
AcDbArc
 50
287.457603
 51
360.0
  0
ARC
  5
269
100
AcDbEntity
  8
1
100
AcDbCircle
 10
-483.207039
 20
-449.792471
 30
0.0
 40
2.0
100
AcDbArc
 50
180.0
 51
270.0
  0
ARC
  5
26A
100
AcDbEntity
  8
1
100
AcDbCircle
 10
-493.207039
 20
-363.792471
 30
0.0
 40
2.0
100
AcDbArc
 50
0.0
 51
90.0
  0
ARC
  5
26B
100
AcDbEntity
  8
1
100
AcDbCircle
 10
-493.207039
 20
-449.792471
 30
0.0
 40
2.0
100
AcDbArc
 50
270.0
 51
360.0
  0
ARC
  5
26C
100
AcDbEntity
  8
1
100
AcDbCircle
 10
-448.207039
 20
-346.877948
 30
0.0
 40
2.0
100
AcDbArc
 50
69.417086
 51
180.0
  0
ARC
  5
26D
100
AcDbEntity
  8
1
100
AcDbCircle
 10
-492.207039
 20
-346.511877
 30
0.0
 40
2.0
100
AcDbArc
 50
0.0
 51
109.629557
  0
ARC
  5
26E
100
AcDbEntity
  8
1
100
AcDbCircle
 10
-492.207039
 20
-467.073065
 30
0.0
 40
2.0
100
AcDbArc
 50
250.370443
 51
360.0
  0
ARC
  5
26F
100
AcDbEntity
  8
1
100
AcDbCircle
 10
-448.207039
 20
-466.706993
 30
0.0
 40
2.0
100
AcDbArc
 50
180.0
 51
290.582914
  0
LINE
  5
270
100
AcDbEntity
  8
1
100
AcDbLine
 10
-448.207039
 20
-355.792471
 30
0.0
 11
-434.832256
 21
-355.792471
 31
0.0
  0
LINE
  5
271
100
AcDbEntity
  8
1
100
AcDbLine
 10
-492.207039
 20
-355.792471
 30
0.0
 11
-506.581821
 21
-355.792471
 31
0.0
  0
LINE
  5
272
100
AcDbEntity
  8
1
100
AcDbLine
 10
-492.207039
 20
-457.792471
 30
0.0
 11
-506.581821
 21
-457.792471
 31
0.0
  0
LINE
  5
273
100
AcDbEntity
  8
1
100
AcDbLine
 10
-448.207039
 20
-457.792471
 30
0.0
 11
-434.832256
 21
-457.792471
 31
0.0
  0
ARC
  5
274
100
AcDbEntity
  8
1
100
AcDbCircle
 10
-470.707039
 20
-406.792471
 30
0.0
 40
66.0
100
AcDbArc
 50
55.906609
 51
69.417086
  0
ARC
  5
275
100
AcDbEntity
  8
1
100
AcDbCircle
 10
-470.707039
 20
-406.792471
 30
0.0
 40
66.0
100
AcDbArc
 50
290.582914
 51
304.093391
  0
ARC
  5
276
100
AcDbEntity
  8
1
100
AcDbCircle
 10
-470.707039
 20
-406.792471
 30
0.0
 40
66.0
100
AcDbArc
 50
235.906609
 51
250.370443
  0
ARC
  5
277
100
AcDbEntity
  8
1
100
AcDbCircle
 10
-470.707039
 20
-406.792471
 30
0.0
 40
66.0
100
AcDbArc
 50
109.629557
 51
124.093391
  0
ARC
  5
278
100
AcDbEntity
  8
1
100
AcDbCircle
 10
-423.304507
 20
-363.792471
 30
0.0
 40
2.0
100
AcDbArc
 50
42.211944
 51
90.0
  0
ARC
  5
279
100
AcDbEntity
  8
1
100
AcDbCircle
 10
-434.832256
 20
-353.792471
 30
0.0
 40
2.0
100
AcDbArc
 50
270.0
 51
55.906609
  0
ARC
  5
27A
100
AcDbEntity
  8
1
100
AcDbCircle
 10
-506.581821
 20
-353.792471
 30
0.0
 40
2.0
100
AcDbArc
 50
124.093391
 51
270.0
  0
ARC
  5
27B
100
AcDbEntity
  8
1
100
AcDbCircle
 10
-518.10957
 20
-363.792471
 30
0.0
 40
2.0
100
AcDbArc
 50
90.0
 51
137.788056
  0
ARC
  5
27C
100
AcDbEntity
  8
1
100
AcDbCircle
 10
-506.581821
 20
-459.792471
 30
0.0
 40
2.0
100
AcDbArc
 50
90.0
 51
235.906609
  0
ARC
  5
27D
100
AcDbEntity
  8
1
100
AcDbCircle
 10
-434.832256
 20
-459.792471
 30
0.0
 40
2.0
100
AcDbArc
 50
304.093391
 51
90.0
  0
ARC
  5
27E
100
AcDbEntity
  8
1
100
AcDbCircle
 10
-448.207039
 20
-459.792471
 30
0.0
 40
2.0
100
AcDbArc
 50
90.0
 51
180.0
  0
ARC
  5
27F
100
AcDbEntity
  8
1
100
AcDbCircle
 10
-492.207039
 20
-459.792471
 30
0.0
 40
2.0
100
AcDbArc
 50
360.0
 51
90.0
  0
ARC
  5
280
100
AcDbEntity
  8
1
100
AcDbCircle
 10
-492.207039
 20
-353.792471
 30
0.0
 40
2.0
100
AcDbArc
 50
270.0
 51
360.0
  0
ARC
  5
281
100
AcDbEntity
  8
1
100
AcDbCircle
 10
-448.207039
 20
-353.792471
 30
0.0
 40
2.0
100
AcDbArc
 50
180.0
 51
270.0
  0
LINE
  5
282
100
AcDbEntity
  8
1
100
AcDbLine
 10
-483.207039
 20
-403.792471
 30
0.0
 11
-479.607039
 21
-403.792471
 31
0.0
  0
LINE
  5
283
100
AcDbEntity
  8
1
100
AcDbLine
 10
-483.207039
 20
-386.792471
 30
0.0
 11
-479.607039
 21
-386.792471
 31
0.0
  0
LINE
  5
284
100
AcDbEntity
  8
1
100
AcDbLine
 10
-483.207039
 20
-380.792471
 30
0.0
 11
-479.607039
 21
-380.792471
 31
0.0
  0
LINE
  5
285
100
AcDbEntity
  8
1
100
AcDbLine
 10
-532.123649
 20
-386.792471
 30
0.0
 11
-517.207039
 21
-386.792471
 31
0.0
  0
LINE
  5
286
100
AcDbEntity
  8
1
100
AcDbLine
 10
-507.207039
 20
-386.792471
 30
0.0
 11
-493.207039
 21
-386.792471
 31
0.0
  0
LINE
  5
287
100
AcDbEntity
  8
1
100
AcDbLine
 10
-534.511427
 20
-403.792471
 30
0.0
 11
-517.207039
 21
-403.792471
 31
0.0
  0
LINE
  5
288
100
AcDbEntity
  8
1
100
AcDbLine
 10
-507.207039
 20
-403.792471
 30
0.0
 11
-493.207039
 21
-403.792471
 31
0.0
  0
LINE
  5
289
100
AcDbEntity
  8
1
100
AcDbLine
 10
-448.207039
 20
-403.792471
 30
0.0
 11
-434.207039
 21
-403.792471
 31
0.0
  0
LINE
  5
28A
100
AcDbEntity
  8
1
100
AcDbLine
 10
-424.207039
 20
-403.792471
 30
0.0
 11
-406.90265
 21
-403.792471
 31
0.0
  0
LINE
  5
28B
100
AcDbEntity
  8
1
100
AcDbLine
 10
-448.207039
 20
-386.792471
 30
0.0
 11
-434.207039
 21
-386.792471
 31
0.0
  0
LINE
  5
28C
100
AcDbEntity
  8
1
100
AcDbLine
 10
-424.207039
 20
-386.792471
 30
0.0
 11
-409.290429
 21
-386.792471
 31
0.0
  0
LINE
  5
28D
100
AcDbEntity
  8
1
100
AcDbLine
 10
-448.207039
 20
-380.792471
 30
0.0
 11
-434.207039
 21
-380.792471
 31
0.0
  0
LINE
  5
28E
100
AcDbEntity
  8
1
100
AcDbLine
 10
-424.207039
 20
-380.792471
 30
0.0
 11
-413.15706
 21
-380.792471
 31
0.0
  0
LINE
  5
28F
100
AcDbEntity
  8
1
100
AcDbLine
 10
-528.257017
 20
-380.792471
 30
0.0
 11
-517.207039
 21
-380.792471
 31
0.0
  0
LINE
  5
290
100
AcDbEntity
  8
1
100
AcDbLine
 10
-507.207039
 20
-380.792471
 30
0.0
 11
-493.207039
 21
-380.792471
 31
0.0
  0
LINE
  5
291
100
AcDbEntity
  8
1
100
AcDbLine
 10
-509.207039
 20
-401.792471
 30
0.0
 11
-509.207039
 21
-388.792471
 31
0.0
  0
LINE
  5
292
100
AcDbEntity
  8
1
100
AcDbLine
 10
-509.207039
 20
-378.792471
 30
0.0
 11
-509.207039
 21
-363.792471
 31
0.0
  0
LINE
  5
293
100
AcDbEntity
  8
1
100
AcDbLine
 10
-515.207039
 20
-401.792471
 30
0.0
 11
-515.207039
 21
-388.792471
 31
0.0
  0
LINE
  5
294
100
AcDbEntity
  8
1
100
AcDbLine
 10
-515.207039
 20
-378.792471
 30
0.0
 11
-515.207039
 21
-363.792471
 31
0.0
  0
LINE
  5
295
100
AcDbEntity
  8
1
100
AcDbLine
 10
-432.207039
 20
-401.792471
 30
0.0
 11
-432.207039
 21
-388.792471
 31
0.0
  0
LINE
  5
296
100
AcDbEntity
  8
1
100
AcDbLine
 10
-432.207039
 20
-378.792471
 30
0.0
 11
-432.207039
 21
-363.792471
 31
0.0
  0
LINE
  5
297
100
AcDbEntity
  8
1
100
AcDbLine
 10
-426.207039
 20
-401.792471
 30
0.0
 11
-426.207039
 21
-388.792471
 31
0.0
  0
LINE
  5
298
100
AcDbEntity
  8
1
100
AcDbLine
 10
-426.207039
 20
-378.792471
 30
0.0
 11
-426.207039
 21
-363.792471
 31
0.0
  0
ARC
  5
299
100
AcDbEntity
  8
1
100
AcDbCircle
 10
-470.707039
 20
-406.792471
 30
0.0
 40
66.0
100
AcDbArc
 50
25.94448
 51
42.211944
  0
ARC
  5
29A
100
AcDbEntity
  8
1
100
AcDbCircle
 10
-470.707039
 20
-406.792471
 30
0.0
 40
66.0
100
AcDbArc
 50
137.788056
 51
154.05552
  0
ARC
  5
29B
100
AcDbEntity
  8
1
100
AcDbCircle
 10
-470.707039
 20
-406.792471
 30
0.0
 40
66.0
100
AcDbArc
 50
4.480799
 51
16.334823
  0
ARC
  5
29C
100
AcDbEntity
  8
1
100
AcDbCircle
 10
-470.707039
 20
-406.792471
 30
0.0
 40
66.0
100
AcDbArc
 50
163.665177
 51
175.519201
  0
LINE
  5
29D
100
AcDbEntity
  8
1
100
AcDbLine
 10
-448.207039
 20
-361.792471
 30
0.0
 11
-434.207039
 21
-361.792471
 31
0.0
  0
LINE
  5
29E
100
AcDbEntity
  8
1
100
AcDbLine
 10
-424.207039
 20
-361.792471
 30
0.0
 11
-423.304507
 21
-361.792471
 31
0.0
  0
LINE
  5
29F
100
AcDbEntity
  8
1
100
AcDbLine
 10
-518.10957
 20
-361.792471
 30
0.0
 11
-517.207039
 21
-361.792471
 31
0.0
  0
LINE
  5
2A0
100
AcDbEntity
  8
1
100
AcDbLine
 10
-507.207039
 20
-361.792471
 30
0.0
 11
-493.207039
 21
-361.792471
 31
0.0
  0
ARC
  5
2A1
100
AcDbEntity
  8
1
100
AcDbCircle
 10
-434.207039
 20
-401.792471
 30
0.0
 40
2.0
100
AcDbArc
 50
270.0
 51
360.0
  0
ARC
  5
2A2
100
AcDbEntity
  8
1
100
AcDbCircle
 10
-434.207039
 20
-388.792471
 30
0.0
 40
2.0
100
AcDbArc
 50
360.0
 51
90.0
  0
ARC
  5
2A3
100
AcDbEntity
  8
1
100
AcDbCircle
 10
-434.207039
 20
-378.792471
 30
0.0
 40
2.0
100
AcDbArc
 50
270.0
 51
0.0
  0
ARC
  5
2A4
100
AcDbEntity
  8
1
100
AcDbCircle
 10
-424.207039
 20
-378.792471
 30
0.0
 40
2.0
100
AcDbArc
 50
180.0
 51
270.0
  0
ARC
  5
2A5
100
AcDbEntity
  8
1
100
AcDbCircle
 10
-424.207039
 20
-388.792471
 30
0.0
 40
2.0
100
AcDbArc
 50
90.0
 51
180.0
  0
ARC
  5
2A6
100
AcDbEntity
  8
1
100
AcDbCircle
 10
-424.207039
 20
-401.792471
 30
0.0
 40
2.0
100
AcDbArc
 50
180.0
 51
270.0
  0
ARC
  5
2A7
100
AcDbEntity
  8
1
100
AcDbCircle
 10
-517.207039
 20
-378.792471
 30
0.0
 40
2.0
100
AcDbArc
 50
270.0
 51
360.0
  0
ARC
  5
2A8
100
AcDbEntity
  8
1
100
AcDbCircle
 10
-517.207039
 20
-388.792471
 30
0.0
 40
2.0
100
AcDbArc
 50
0.0
 51
90.0
  0
ARC
  5
2A9
100
AcDbEntity
  8
1
100
AcDbCircle
 10
-507.207039
 20
-388.792471
 30
0.0
 40
2.0
100
AcDbArc
 50
90.0
 51
180.0
  0
ARC
  5
2AA
100
AcDbEntity
  8
1
100
AcDbCircle
 10
-507.207039
 20
-378.792471
 30
0.0
 40
2.0
100
AcDbArc
 50
180.0
 51
270.0
  0
ARC
  5
2AB
100
AcDbEntity
  8
1
100
AcDbCircle
 10
-507.207039
 20
-401.792471
 30
0.0
 40
2.0
100
AcDbArc
 50
180.0
 51
270.0
  0
ARC
  5
2AC
100
AcDbEntity
  8
1
100
AcDbCircle
 10
-517.207039
 20
-401.792471
 30
0.0
 40
2.0
100
AcDbArc
 50
270.0
 51
360.0
  0
ARC
  5
2AD
100
AcDbEntity
  8
1
100
AcDbCircle
 10
-434.207039
 20
-363.792471
 30
0.0
 40
2.0
100
AcDbArc
 50
0.0
 51
90.0
  0
ARC
  5
2AE
100
AcDbEntity
  8
1
100
AcDbCircle
 10
-424.207039
 20
-363.792471
 30
0.0
 40
2.0
100
AcDbArc
 50
90.0
 51
180.0
  0
ARC
  5
2AF
100
AcDbEntity
  8
1
100
AcDbCircle
 10
-507.207039
 20
-363.792471
 30
0.0
 40
2.0
100
AcDbArc
 50
90.0
 51
180.0
  0
ARC
  5
2B0
100
AcDbEntity
  8
1
100
AcDbCircle
 10
-517.207039
 20
-363.792471
 30
0.0
 40
2.0
100
AcDbArc
 50
0.0
 51
90.0
  0
ARC
  5
2B1
100
AcDbEntity
  8
1
100
AcDbCircle
 10
-413.15706
 20
-378.792471
 30
0.0
 40
2.0
100
AcDbArc
 50
270.0
 51
25.94448
  0
ARC
  5
2B2
100
AcDbEntity
  8
1
100
AcDbCircle
 10
-409.290429
 20
-388.792471
 30
0.0
 40
2.0
100
AcDbArc
 50
16.334823
 51
90.0
  0
ARC
  5
2B3
100
AcDbEntity
  8
1
100
AcDbCircle
 10
-406.90265
 20
-401.792471
 30
0.0
 40
2.0
100
AcDbArc
 50
270.0
 51
4.480799
  0
ARC
  5
2B4
100
AcDbEntity
  8
1
100
AcDbCircle
 10
-534.511427
 20
-401.792471
 30
0.0
 40
2.0
100
AcDbArc
 50
175.519201
 51
270.0
  0
ARC
  5
2B5
100
AcDbEntity
  8
1
100
AcDbCircle
 10
-532.123649
 20
-388.792471
 30
0.0
 40
2.0
100
AcDbArc
 50
90.0
 51
163.665177
  0
ARC
  5
2B6
100
AcDbEntity
  8
1
100
AcDbCircle
 10
-528.257017
 20
-378.792471
 30
0.0
 40
2.0
100
AcDbArc
 50
154.05552
 51
270.0
  0
ARC
  5
2B7
100
AcDbEntity
  8
1
100
AcDbCircle
 10
-448.207039
 20
-378.792471
 30
0.0
 40
2.0
100
AcDbArc
 50
180.0
 51
270.0
  0
ARC
  5
2B8
100
AcDbEntity
  8
1
100
AcDbCircle
 10
-448.207039
 20
-388.792471
 30
0.0
 40
2.0
100
AcDbArc
 50
90.0
 51
180.0
  0
ARC
  5
2B9
100
AcDbEntity
  8
1
100
AcDbCircle
 10
-448.207039
 20
-401.792471
 30
0.0
 40
2.0
100
AcDbArc
 50
180.0
 51
270.0
  0
ARC
  5
2BA
100
AcDbEntity
  8
1
100
AcDbCircle
 10
-458.207039
 20
-401.792471
 30
0.0
 40
2.0
100
AcDbArc
 50
287.457603
 51
360.0
  0
ARC
  5
2BB
100
AcDbEntity
  8
1
100
AcDbCircle
 10
-458.207039
 20
-388.792471
 30
0.0
 40
2.0
100
AcDbArc
 50
0.0
 51
72.542397
  0
ARC
  5
2BC
100
AcDbEntity
  8
1
100
AcDbCircle
 10
-458.207039
 20
-378.792471
 30
0.0
 40
2.0
100
AcDbArc
 50
287.457603
 51
360.0
  0
ARC
  5
2BD
100
AcDbEntity
  8
1
100
AcDbCircle
 10
-483.207039
 20
-378.792471
 30
0.0
 40
2.0
100
AcDbArc
 50
180.0
 51
270.0
  0
ARC
  5
2BE
100
AcDbEntity
  8
1
100
AcDbCircle
 10
-483.207039
 20
-388.792471
 30
0.0
 40
2.0
100
AcDbArc
 50
90.0
 51
180.0
  0
ARC
  5
2BF
100
AcDbEntity
  8
1
100
AcDbCircle
 10
-483.207039
 20
-401.792471
 30
0.0
 40
2.0
100
AcDbArc
 50
180.0
 51
270.0
  0
ARC
  5
2C0
100
AcDbEntity
  8
1
100
AcDbCircle
 10
-493.207039
 20
-401.792471
 30
0.0
 40
2.0
100
AcDbArc
 50
270.0
 51
0.0
  0
ARC
  5
2C1
100
AcDbEntity
  8
1
100
AcDbCircle
 10
-493.207039
 20
-388.792471
 30
0.0
 40
2.0
100
AcDbArc
 50
0.0
 51
90.0
  0
ARC
  5
2C2
100
AcDbEntity
  8
1
100
AcDbCircle
 10
-493.207039
 20
-378.792471
 30
0.0
 40
2.0
100
AcDbArc
 50
270.0
 51
0.0
  0
ARC
  5
2C3
100
AcDbEntity
  8
1
100
AcDbCircle
 10
-423.304507
 20
-449.792471
 30
0.0
 40
2.0
100
AcDbArc
 50
270.0
 51
317.788056
  0
ARC
  5
2C4
100
AcDbEntity
  8
1
100
AcDbCircle
 10
-518.10957
 20
-449.792471
 30
0.0
 40
2.0
100
AcDbArc
 50
222.211944
 51
270.0
  0
LINE
  5
2C5
100
AcDbEntity
  8
1
100
AcDbLine
 10
-483.207039
 20
-409.792471
 30
0.0
 11
-479.607039
 21
-409.792471
 31
0.0
  0
LINE
  5
2C6
100
AcDbEntity
  8
1
100
AcDbLine
 10
-483.207039
 20
-426.792471
 30
0.0
 11
-479.607039
 21
-426.792471
 31
0.0
  0
LINE
  5
2C7
100
AcDbEntity
  8
1
100
AcDbLine
 10
-483.207039
 20
-432.792471
 30
0.0
 11
-479.607039
 21
-432.792471
 31
0.0
  0
LINE
  5
2C8
100
AcDbEntity
  8
1
100
AcDbLine
 10
-532.123649
 20
-426.792471
 30
0.0
 11
-517.207039
 21
-426.792471
 31
0.0
  0
LINE
  5
2C9
100
AcDbEntity
  8
1
100
AcDbLine
 10
-507.207039
 20
-426.792471
 30
0.0
 11
-493.207039
 21
-426.792471
 31
0.0
  0
LINE
  5
2CA
100
AcDbEntity
  8
1
100
AcDbLine
 10
-534.511427
 20
-409.792471
 30
0.0
 11
-517.207039
 21
-409.792471
 31
0.0
  0
LINE
  5
2CB
100
AcDbEntity
  8
1
100
AcDbLine
 10
-507.207039
 20
-409.792471
 30
0.0
 11
-493.207039
 21
-409.792471
 31
0.0
  0
LINE
  5
2CC
100
AcDbEntity
  8
1
100
AcDbLine
 10
-448.207039
 20
-409.792471
 30
0.0
 11
-434.207039
 21
-409.792471
 31
0.0
  0
LINE
  5
2CD
100
AcDbEntity
  8
1
100
AcDbLine
 10
-424.207039
 20
-409.792471
 30
0.0
 11
-406.90265
 21
-409.792471
 31
0.0
  0
LINE
  5
2CE
100
AcDbEntity
  8
1
100
AcDbLine
 10
-448.207039
 20
-426.792471
 30
0.0
 11
-434.207039
 21
-426.792471
 31
0.0
  0
LINE
  5
2CF
100
AcDbEntity
  8
1
100
AcDbLine
 10
-424.207039
 20
-426.792471
 30
0.0
 11
-409.290429
 21
-426.792471
 31
0.0
  0
LINE
  5
2D0
100
AcDbEntity
  8
1
100
AcDbLine
 10
-448.207039
 20
-432.792471
 30
0.0
 11
-434.207039
 21
-432.792471
 31
0.0
  0
LINE
  5
2D1
100
AcDbEntity
  8
1
100
AcDbLine
 10
-424.207039
 20
-432.792471
 30
0.0
 11
-413.15706
 21
-432.792471
 31
0.0
  0
LINE
  5
2D2
100
AcDbEntity
  8
1
100
AcDbLine
 10
-528.257017
 20
-432.792471
 30
0.0
 11
-517.207039
 21
-432.792471
 31
0.0
  0
LINE
  5
2D3
100
AcDbEntity
  8
1
100
AcDbLine
 10
-507.207039
 20
-432.792471
 30
0.0
 11
-493.207039
 21
-432.792471
 31
0.0
  0
LINE
  5
2D4
100
AcDbEntity
  8
1
100
AcDbLine
 10
-509.207039
 20
-411.792471
 30
0.0
 11
-509.207039
 21
-424.792471
 31
0.0
  0
LINE
  5
2D5
100
AcDbEntity
  8
1
100
AcDbLine
 10
-509.207039
 20
-434.792471
 30
0.0
 11
-509.207039
 21
-449.792471
 31
0.0
  0
LINE
  5
2D6
100
AcDbEntity
  8
1
100
AcDbLine
 10
-515.207039
 20
-411.792471
 30
0.0
 11
-515.207039
 21
-424.792471
 31
0.0
  0
LINE
  5
2D7
100
AcDbEntity
  8
1
100
AcDbLine
 10
-515.207039
 20
-434.792471
 30
0.0
 11
-515.207039
 21
-449.792471
 31
0.0
  0
LINE
  5
2D8
100
AcDbEntity
  8
1
100
AcDbLine
 10
-432.207039
 20
-411.792471
 30
0.0
 11
-432.207039
 21
-424.792471
 31
0.0
  0
LINE
  5
2D9
100
AcDbEntity
  8
1
100
AcDbLine
 10
-432.207039
 20
-434.792471
 30
0.0
 11
-432.207039
 21
-449.792471
 31
0.0
  0
LINE
  5
2DA
100
AcDbEntity
  8
1
100
AcDbLine
 10
-426.207039
 20
-411.792471
 30
0.0
 11
-426.207039
 21
-424.792471
 31
0.0
  0
LINE
  5
2DB
100
AcDbEntity
  8
1
100
AcDbLine
 10
-426.207039
 20
-434.792471
 30
0.0
 11
-426.207039
 21
-449.792471
 31
0.0
  0
ARC
  5
2DC
100
AcDbEntity
  8
1
100
AcDbCircle
 10
-470.707039
 20
-406.792471
 30
0.0
 40
66.0
100
AcDbArc
 50
317.788056
 51
334.05552
  0
ARC
  5
2DD
100
AcDbEntity
  8
1
100
AcDbCircle
 10
-470.707039
 20
-406.792471
 30
0.0
 40
66.0
100
AcDbArc
 50
205.94448
 51
222.211944
  0
ARC
  5
2DE
100
AcDbEntity
  8
1
100
AcDbCircle
 10
-470.707039
 20
-406.792471
 30
0.0
 40
66.0
100
AcDbArc
 50
343.665177
 51
355.519201
  0
ARC
  5
2DF
100
AcDbEntity
  8
1
100
AcDbCircle
 10
-470.707039
 20
-406.792471
 30
0.0
 40
66.0
100
AcDbArc
 50
184.480799
 51
196.334823
  0
LINE
  5
2E0
100
AcDbEntity
  8
1
100
AcDbLine
 10
-448.207039
 20
-451.792471
 30
0.0
 11
-434.207039
 21
-451.792471
 31
0.0
  0
LINE
  5
2E1
100
AcDbEntity
  8
1
100
AcDbLine
 10
-424.207039
 20
-451.792471
 30
0.0
 11
-423.304507
 21
-451.792471
 31
0.0
  0
LINE
  5
2E2
100
AcDbEntity
  8
1
100
AcDbLine
 10
-518.10957
 20
-451.792471
 30
0.0
 11
-517.207039
 21
-451.792471
 31
0.0
  0
LINE
  5
2E3
100
AcDbEntity
  8
1
100
AcDbLine
 10
-507.207039
 20
-451.792471
 30
0.0
 11
-493.207039
 21
-451.792471
 31
0.0
  0
ARC
  5
2E4
100
AcDbEntity
  8
1
100
AcDbCircle
 10
-434.207039
 20
-411.792471
 30
0.0
 40
2.0
100
AcDbArc
 50
0.0
 51
90.0
  0
ARC
  5
2E5
100
AcDbEntity
  8
1
100
AcDbCircle
 10
-434.207039
 20
-424.792471
 30
0.0
 40
2.0
100
AcDbArc
 50
270.0
 51
0.0
  0
ARC
  5
2E6
100
AcDbEntity
  8
1
100
AcDbCircle
 10
-434.207039
 20
-434.792471
 30
0.0
 40
2.0
100
AcDbArc
 50
360.0
 51
90.0
  0
ARC
  5
2E7
100
AcDbEntity
  8
1
100
AcDbCircle
 10
-424.207039
 20
-434.792471
 30
0.0
 40
2.0
100
AcDbArc
 50
90.0
 51
180.0
  0
ARC
  5
2E8
100
AcDbEntity
  8
1
100
AcDbCircle
 10
-424.207039
 20
-424.792471
 30
0.0
 40
2.0
100
AcDbArc
 50
180.0
 51
270.0
  0
ARC
  5
2E9
100
AcDbEntity
  8
1
100
AcDbCircle
 10
-424.207039
 20
-411.792471
 30
0.0
 40
2.0
100
AcDbArc
 50
90.0
 51
180.0
  0
ARC
  5
2EA
100
AcDbEntity
  8
1
100
AcDbCircle
 10
-517.207039
 20
-434.792471
 30
0.0
 40
2.0
100
AcDbArc
 50
0.0
 51
90.0
  0
ARC
  5
2EB
100
AcDbEntity
  8
1
100
AcDbCircle
 10
-517.207039
 20
-424.792471
 30
0.0
 40
2.0
100
AcDbArc
 50
270.0
 51
360.0
  0
ARC
  5
2EC
100
AcDbEntity
  8
1
100
AcDbCircle
 10
-507.207039
 20
-424.792471
 30
0.0
 40
2.0
100
AcDbArc
 50
180.0
 51
270.0
  0
ARC
  5
2ED
100
AcDbEntity
  8
1
100
AcDbCircle
 10
-507.207039
 20
-434.792471
 30
0.0
 40
2.0
100
AcDbArc
 50
90.0
 51
180.0
  0
ARC
  5
2EE
100
AcDbEntity
  8
1
100
AcDbCircle
 10
-507.207039
 20
-411.792471
 30
0.0
 40
2.0
100
AcDbArc
 50
90.0
 51
180.0
  0
ARC
  5
2EF
100
AcDbEntity
  8
1
100
AcDbCircle
 10
-517.207039
 20
-411.792471
 30
0.0
 40
2.0
100
AcDbArc
 50
0.0
 51
90.0
  0
ARC
  5
2F0
100
AcDbEntity
  8
1
100
AcDbCircle
 10
-434.207039
 20
-449.792471
 30
0.0
 40
2.0
100
AcDbArc
 50
270.0
 51
360.0
  0
ARC
  5
2F1
100
AcDbEntity
  8
1
100
AcDbCircle
 10
-424.207039
 20
-449.792471
 30
0.0
 40
2.0
100
AcDbArc
 50
180.0
 51
270.0
  0
ARC
  5
2F2
100
AcDbEntity
  8
1
100
AcDbCircle
 10
-507.207039
 20
-449.792471
 30
0.0
 40
2.0
100
AcDbArc
 50
180.0
 51
270.0
  0
ARC
  5
2F3
100
AcDbEntity
  8
1
100
AcDbCircle
 10
-517.207039
 20
-449.792471
 30
0.0
 40
2.0
100
AcDbArc
 50
270.0
 51
360.0
  0
ARC
  5
2F4
100
AcDbEntity
  8
1
100
AcDbCircle
 10
-413.15706
 20
-434.792471
 30
0.0
 40
2.0
100
AcDbArc
 50
334.05552
 51
90.0
  0
ARC
  5
2F5
100
AcDbEntity
  8
1
100
AcDbCircle
 10
-409.290429
 20
-424.792471
 30
0.0
 40
2.0
100
AcDbArc
 50
270.0
 51
343.665177
  0
ARC
  5
2F6
100
AcDbEntity
  8
1
100
AcDbCircle
 10
-406.90265
 20
-411.792471
 30
0.0
 40
2.0
100
AcDbArc
 50
355.519201
 51
90.0
  0
ARC
  5
2F7
100
AcDbEntity
  8
1
100
AcDbCircle
 10
-534.511427
 20
-411.792471
 30
0.0
 40
2.0
100
AcDbArc
 50
90.0
 51
184.480799
  0
ARC
  5
2F8
100
AcDbEntity
  8
1
100
AcDbCircle
 10
-532.123649
 20
-424.792471
 30
0.0
 40
2.0
100
AcDbArc
 50
196.334823
 51
270.0
  0
ARC
  5
2F9
100
AcDbEntity
  8
1
100
AcDbCircle
 10
-528.257017
 20
-434.792471
 30
0.0
 40
2.0
100
AcDbArc
 50
90.0
 51
205.94448
  0
ARC
  5
2FA
100
AcDbEntity
  8
1
100
AcDbCircle
 10
-448.207039
 20
-434.792471
 30
0.0
 40
2.0
100
AcDbArc
 50
90.0
 51
180.0
  0
ARC
  5
2FB
100
AcDbEntity
  8
1
100
AcDbCircle
 10
-448.207039
 20
-424.792471
 30
0.0
 40
2.0
100
AcDbArc
 50
180.0
 51
270.0
  0
ARC
  5
2FC
100
AcDbEntity
  8
1
100
AcDbCircle
 10
-448.207039
 20
-411.792471
 30
0.0
 40
2.0
100
AcDbArc
 50
90.0
 51
180.0
  0
ARC
  5
2FD
100
AcDbEntity
  8
1
100
AcDbCircle
 10
-458.207039
 20
-411.792471
 30
0.0
 40
2.0
100
AcDbArc
 50
0.0
 51
72.542397
  0
ARC
  5
2FE
100
AcDbEntity
  8
1
100
AcDbCircle
 10
-458.207039
 20
-424.792471
 30
0.0
 40
2.0
100
AcDbArc
 50
287.457603
 51
360.0
  0
ARC
  5
2FF
100
AcDbEntity
  8
1
100
AcDbCircle
 10
-458.207039
 20
-434.792471
 30
0.0
 40
2.0
100
AcDbArc
 50
0.0
 51
72.542397
  0
ARC
  5
300
100
AcDbEntity
  8
1
100
AcDbCircle
 10
-483.207039
 20
-434.792471
 30
0.0
 40
2.0
100
AcDbArc
 50
90.0
 51
180.0
  0
ARC
  5
301
100
AcDbEntity
  8
1
100
AcDbCircle
 10
-483.207039
 20
-424.792471
 30
0.0
 40
2.0
100
AcDbArc
 50
180.0
 51
270.0
  0
ARC
  5
302
100
AcDbEntity
  8
1
100
AcDbCircle
 10
-483.207039
 20
-411.792471
 30
0.0
 40
2.0
100
AcDbArc
 50
90.0
 51
180.0
  0
ARC
  5
303
100
AcDbEntity
  8
1
100
AcDbCircle
 10
-493.207039
 20
-411.792471
 30
0.0
 40
2.0
100
AcDbArc
 50
360.0
 51
90.0
  0
ARC
  5
304
100
AcDbEntity
  8
1
100
AcDbCircle
 10
-493.207039
 20
-424.792471
 30
0.0
 40
2.0
100
AcDbArc
 50
270.0
 51
360.0
  0
ARC
  5
305
100
AcDbEntity
  8
1
100
AcDbCircle
 10
-493.207039
 20
-434.792471
 30
0.0
 40
2.0
100
AcDbArc
 50
360.0
 51
90.0
  0
ARC
  5
306
100
AcDbEntity
  8
1
100
AcDbCircle
 10
-470.707039
 20
-406.792471
 30
0.0
 40
70.0
100
AcDbArc
 50
106.174962
 51
253.825038
  0
ARC
  5
307
100
AcDbEntity
  8
1
100
AcDbCircle
 10
-470.707039
 20
-406.792471
 30
0.0
 40
70.0
100
AcDbArc
 50
287.029087
 51
72.970913
  0
ARC
  5
308
100
AcDbEntity
  8
1
100
AcDbCircle
 10
-470.707039
 20
-406.792471
 30
0.0
 40
71.58902
100
AcDbArc
 50
105.806425
 51
254.193575
  0
ARC
  5
309
100
AcDbEntity
  8
1
100
AcDbCircle
 10
-470.707039
 20
-406.792471
 30
0.0
 40
71.58902
100
AcDbArc
 50
285.950048
 51
74.049952
  0
ARC
  5
30A
100
AcDbEntity
  8
1
100
AcDbCircle
 10
-470.707039
 20
-406.792471
 30
0.0
 40
73.279619
100
AcDbArc
 50
105.432563
 51
254.567437
  0
ARC
  5
30B
100
AcDbEntity
  8
1
100
AcDbCircle
 10
-470.707039
 20
-406.792471
 30
0.0
 40
73.279619
100
AcDbArc
 50
285.432563
 51
74.567437
  0
LINE
  5
30C
100
AcDbEntity
  8
1
100
AcDbLine
 10
-457.607039
 20
-451.792471
 30
0.0
 11
-457.607039
 21
-361.792471
 31
0.0
  0
LINE
  5
30D
100
AcDbEntity
  8
1
100
AcDbLine
 10
-479.607039
 20
-451.792471
 30
0.0
 11
-479.607039
 21
-361.792471
 31
0.0
  0
LINE
  5
30E
100
AcDbEntity
  8
1
  6
CENTER
 62
     2
100
AcDbLine
 10
-479.607039
 20
-360.707751
 30
0.0
 11
-479.607039
 21
-347.077014
 31
0.0
  0
CIRCLE
  5
30F
100
AcDbEntity
  8
1
100
AcDbCircle
 10
-479.607039
 20
-353.792471
 30
0.0
 40
3.5175
  0
CIRCLE
  5
310
100
AcDbEntity
  8
1
 62
     2
100
AcDbCircle
 10
-479.607039
 20
-353.792471
 30
0.0
 40
2.5
  0
CIRCLE
  5
311
100
AcDbEntity
  8
1
100
AcDbCircle
 10
-479.607039
 20
-353.792471
 30
0.0
 40
2.067
  0
CIRCLE
  5
312
100
AcDbEntity
  8
1
100
AcDbCircle
 10
-479.607039
 20
-353.792471
 30
0.0
 40
2.65
  0
CIRCLE
  5
313
100
AcDbEntity
  8
1
100
AcDbCircle
 10
-468.607039
 20
-459.792471
 30
0.0
 40
3.5175
  0
CIRCLE
  5
314
100
AcDbEntity
  8
1
 62
     2
100
AcDbCircle
 10
-468.607039
 20
-459.792471
 30
0.0
 40
2.5
  0
CIRCLE
  5
315
100
AcDbEntity
  8
1
100
AcDbCircle
 10
-468.607039
 20
-459.792471
 30
0.0
 40
2.067
  0
CIRCLE
  5
316
100
AcDbEntity
  8
1
100
AcDbCircle
 10
-468.607039
 20
-459.792471
 30
0.0
 40
2.65
  0
LINE
  5
317
100
AcDbEntity
  8
1
  6
CENTER
 62
     2
100
AcDbLine
 10
-470.707039
 20
-570.021993
 30
0.0
 11
-470.707039
 21
-210.744902
 31
0.0
  0
LINE
  5
318
100
AcDbEntity
  8
1
  6
CENTER
 62
     2
100
AcDbLine
 10
-470.707039
 20
376.503782
 30
0.0
 11
-470.707039
 21
512.981486
 31
0.0
  0
ARC
  5
319
100
AcDbEntity
  8
1
100
AcDbCircle
 10
-489.207039
 20
-361.792471
 30
0.0
 40
2.0
100
AcDbArc
 50
138.590378
 51
180.0
  0
ARC
  5
31A
100
AcDbEntity
  8
1
100
AcDbCircle
 10
-492.207039
 20
-359.146719
 30
0.0
 40
2.0
100
AcDbArc
 50
318.590378
 51
360.0
  0
ARC
  5
31B
100
AcDbEntity
  8
1
100
AcDbCircle
 10
-489.207039
 20
-451.792471
 30
0.0
 40
2.0
100
AcDbArc
 50
180.0
 51
221.409622
  0
ARC
  5
31C
100
AcDbEntity
  8
1
100
AcDbCircle
 10
-492.207039
 20
-454.438222
 30
0.0
 40
2.0
100
AcDbArc
 50
0.0
 51
41.409622
  0
LINE
  5
31D
100
AcDbEntity
  8
1
100
AcDbLine
 10
-489.607039
 20
-189.292471
 30
0.0
 11
-447.607039
 21
-189.292471
 31
0.0
  0
LINE
  5
31E
100
AcDbEntity
  8
1
100
AcDbLine
 10
-489.607039
 20
-192.792471
 30
0.0
 11
-489.607039
 21
-189.292471
 31
0.0
  0
LINE
  5
31F
100
AcDbEntity
  8
1
100
AcDbLine
 10
-447.607039
 20
-192.792471
 30
0.0
 11
-447.607039
 21
-189.292471
 31
0.0
  0
LINE
  5
320
100
AcDbEntity
  8
1
100
AcDbLine
 10
-476.107039
 20
-189.292471
 30
0.0
 11
-476.107039
 21
-183.514158
 31
0.0
  0
LINE
  5
321
100
AcDbEntity
  8
1
100
AcDbLine
 10
-476.107039
 20
-183.514158
 30
0.0
 11
-474.857039
 21
-182.792471
 31
0.0
  0
LINE
  5
322
100
AcDbEntity
  8
1
100
AcDbLine
 10
-474.857039
 20
-182.792471
 30
0.0
 11
-462.357039
 21
-182.792471
 31
0.0
  0
LINE
  5
323
100
AcDbEntity
  8
1
100
AcDbLine
 10
-472.357039
 20
-189.292471
 30
0.0
 11
-472.357039
 21
-183.514158
 31
0.0
  0
ARC
  5
324
100
AcDbEntity
  8
1
100
AcDbCircle
 10
-474.232039
 20
-185.924535
 30
0.0
 40
3.053774
100
AcDbArc
 50
52.121121
 51
127.878879
  0
LINE
  5
325
100
AcDbEntity
  8
1
100
AcDbLine
 10
-461.107039
 20
-189.292471
 30
0.0
 11
-461.107039
 21
-183.514158
 31
0.0
  0
LINE
  5
326
100
AcDbEntity
  8
1
100
AcDbLine
 10
-461.107039
 20
-183.514158
 30
0.0
 11
-462.357039
 21
-182.792471
 31
0.0
  0
LINE
  5
327
100
AcDbEntity
  8
1
100
AcDbLine
 10
-464.857039
 20
-189.292471
 30
0.0
 11
-464.857039
 21
-183.514158
 31
0.0
  0
ARC
  5
328
100
AcDbEntity
  8
1
100
AcDbCircle
 10
-462.982039
 20
-185.924535
 30
0.0
 40
3.053774
100
AcDbArc
 50
52.121121
 51
127.878879
  0
ARC
  5
329
100
AcDbEntity
  8
1
100
AcDbCircle
 10
-468.607039
 20
-194.12076
 30
0.0
 40
11.25
100
AcDbArc
 50
70.528781
 51
109.471223
  0
LINE
  5
32A
100
AcDbEntity
  8
1
100
AcDbLine
 10
-464.607039
 20
-180.492471
 30
0.0
 11
-472.607039
 21
-180.492471
 31
0.0
  0
ARC
  5
32B
100
AcDbEntity
  8
1
100
AcDbCircle
 10
-468.607039
 20
-186.559137
 30
0.0
 40
7.266667
100
AcDbArc
 50
56.601512
 51
123.398491
  0
LINE
  5
32C
100
AcDbEntity
  8
1
 62
     2
100
AcDbLine
 10
-465.283539
 20
-180.097033
 30
0.0
 11
-465.283539
 21
-182.792471
 31
0.0
  0
LINE
  5
32D
100
AcDbEntity
  8
1
 62
     2
100
AcDbLine
 10
-471.930539
 20
-180.097033
 30
0.0
 11
-471.930539
 21
-182.792471
 31
0.0
  0
LINE
  5
32E
100
AcDbEntity
  8
1
100
AcDbLine
 10
-464.607039
 20
-182.792471
 30
0.0
 11
-464.607039
 21
-180.492471
 31
0.0
  0
LINE
  5
32F
100
AcDbEntity
  8
1
100
AcDbLine
 10
-472.607039
 20
-182.792471
 30
0.0
 11
-472.607039
 21
-180.492471
 31
0.0
  0
LINE
  5
330
100
AcDbEntity
  8
1
100
AcDbLine
 10
-457.607039
 20
-189.292471
 30
0.0
 11
-457.607039
 21
-165.292471
 31
0.0
  0
LINE
  5
331
100
AcDbEntity
  8
1
100
AcDbLine
 10
-479.607039
 20
-189.292471
 30
0.0
 11
-479.607039
 21
-165.292471
 31
0.0
  0
LINE
  5
332
100
AcDbEntity
  8
2
  6
CENTER
 62
     2
100
AcDbLine
 10
-646.607039
 20
444.707529
 30
0.0
 11
-312.920421
 21
444.707529
 31
0.0
  0
LINE
  5
333
100
AcDbEntity
  8
2
  6
CENTER
 62
     2
100
AcDbLine
 10
-468.607039
 20
538.369252
 30
0.0
 11
-468.607039
 21
324.607529
 31
0.0
  0
LINE
  5
334
100
AcDbEntity
  8
2
  6
CENTER
 62
     2
100
AcDbLine
 10
-432.544593
 20
-9.538538
 30
0.0
 11
-432.544593
 21
-51.944666
 31
0.0
  0
LINE
  5
335
100
AcDbEntity
  8
2
  6
CENTER
 62
     2
100
AcDbLine
 10
-504.669484
 20
-9.538538
 30
0.0
 11
-504.669484
 21
-51.944666
 31
0.0
  0
LINE
  5
336
100
AcDbEntity
  8
2
100
AcDbLine
 10
-381.607039
 20
484.707529
 30
0.0
 11
-381.607039
 21
410.707529
 31
0.0
  0
LINE
  5
337
100
AcDbEntity
  8
2
100
AcDbLine
 10
-537.607039
 20
497.707529
 30
0.0
 11
-389.607039
 21
497.707529
 31
0.0
  0
ARC
  5
338
100
AcDbEntity
  8
2
100
AcDbCircle
 10
-389.607039
 20
491.707529
 30
0.0
 40
6.0
100
AcDbArc
 50
0.0
 51
90.0
  0
LINE
  5
339
100
AcDbEntity
  8
2
100
AcDbLine
 10
-383.607039
 20
491.707529
 30
0.0
 11
-383.607039
 21
403.707529
 31
0.0
  0
LINE
  5
33A
100
AcDbEntity
  8
2
100
AcDbLine
 10
-543.607039
 20
403.707529
 30
0.0
 11
-543.607039
 21
491.707529
 31
0.0
  0
LINE
  5
33B
100
AcDbEntity
  8
2
100
AcDbLine
 10
-547.906191
 20
397.707529
 30
0.0
 11
-389.607039
 21
397.707529
 31
0.0
  0
ARC
  5
33C
100
AcDbEntity
  8
2
100
AcDbCircle
 10
-389.607039
 20
403.707529
 30
0.0
 40
6.0
100
AcDbArc
 50
270.0
 51
360.0
  0
ARC
  5
33D
100
AcDbEntity
  8
2
100
AcDbCircle
 10
-537.607039
 20
403.707529
 30
0.0
 40
6.0
100
AcDbArc
 50
180.0
 51
270.0
  0
LINE
  5
33E
100
AcDbEntity
  8
2
100
AcDbLine
 10
-355.924095
 20
398.707529
 30
0.0
 11
-386.307039
 21
398.707529
 31
0.0
  0
LINE
  5
33F
100
AcDbEntity
  8
2
100
AcDbLine
 10
-347.607039
 20
368.707529
 30
0.0
 11
-634.607039
 21
368.707529
 31
0.0
  0
LINE
  5
340
100
AcDbEntity
  8
2
100
AcDbLine
 10
-635.607039
 20
367.707529
 30
0.0
 11
-635.607039
 21
355.707529
 31
0.0
  0
LINE
  5
341
100
AcDbEntity
  8
2
100
AcDbLine
 10
-635.607039
 20
363.707529
 30
0.0
 11
-346.607039
 21
363.707529
 31
0.0
  0
LINE
  5
342
100
AcDbEntity
  8
2
100
AcDbLine
 10
-346.607039
 20
367.707529
 30
0.0
 11
-346.607039
 21
353.707529
 31
0.0
  0
LINE
  5
343
100
AcDbEntity
  8
2
100
AcDbLine
 10
-626.767277
 20
407.707529
 30
0.0
 11
-557.906191
 21
407.707529
 31
0.0
  0
LINE
  5
344
100
AcDbEntity
  8
2
100
AcDbLine
 10
-343.607039
 20
394.707529
 30
0.0
 11
-343.607039
 21
506.707529
 31
0.0
  0
LINE
  5
345
100
AcDbEntity
  8
2
100
AcDbLine
 10
-343.607039
 20
394.707529
 30
0.0
 11
-348.862081
 21
394.707529
 31
0.0
  0
LINE
  5
346
100
AcDbEntity
  8
2
100
AcDbLine
 10
-343.607039
 20
506.707529
 30
0.0
 11
-347.607039
 21
506.707529
 31
0.0
  0
ARC
  5
347
100
AcDbEntity
  8
2
100
AcDbCircle
 10
-347.607039
 20
505.707529
 30
0.0
 40
1.0
100
AcDbArc
 50
90.0
 51
180.0
  0
LINE
  5
348
100
AcDbEntity
  8
2
100
AcDbLine
 10
-502.607039
 20
518.707529
 30
0.0
 11
-434.607039
 21
518.707529
 31
0.0
  0
LINE
  5
349
100
AcDbEntity
  8
2
100
AcDbLine
 10
-419.607039
 20
521.707529
 30
0.0
 11
-393.607039
 21
521.707529
 31
0.0
  0
ARC
  5
34A
100
AcDbEntity
  8
2
100
AcDbCircle
 10
-626.607039
 20
503.707529
 30
0.0
 40
8.0
100
AcDbArc
 50
90.0
 51
270.0
  0
LINE
  5
34B
100
AcDbEntity
  8
2
100
AcDbLine
 10
-634.607039
 20
503.707529
 30
0.0
 11
-634.607039
 21
385.707529
 31
0.0
  0
LINE
  5
34C
100
AcDbEntity
  8
2
100
AcDbLine
 10
-626.607039
 20
511.707529
 30
0.0
 11
-616.248055
 21
511.707529
 31
0.0
  0
LINE
  5
34D
100
AcDbEntity
  8
2
100
AcDbLine
 10
-615.248055
 20
521.707529
 30
0.0
 11
-532.007039
 21
521.707529
 31
0.0
  0
LINE
  5
34E
100
AcDbEntity
  8
2
100
AcDbLine
 10
-626.607039
 20
495.707529
 30
0.0
 11
-622.607039
 21
495.707529
 31
0.0
  0
ARC
  5
34F
100
AcDbEntity
  8
2
100
AcDbCircle
 10
-626.607039
 20
385.707529
 30
0.0
 40
8.0
100
AcDbArc
 50
126.62486
 51
203.989742
  0
LINE
  5
350
100
AcDbEntity
  8
2
100
AcDbLine
 10
-619.607039
 20
503.707529
 30
0.0
 11
-619.607039
 21
412.707529
 31
0.0
  0
LINE
  5
351
100
AcDbEntity
  8
2
100
AcDbLine
 10
-530.966022
 20
511.707529
 30
0.0
 11
-503.607039
 21
511.707529
 31
0.0
  0
LINE
  5
352
100
AcDbEntity
  8
2
100
AcDbLine
 10
-433.607039
 20
511.707529
 30
0.0
 11
-422.607039
 21
511.707529
 31
0.0
  0
LINE
  5
353
100
AcDbEntity
  8
2
100
AcDbLine
 10
-390.607039
 20
511.707529
 30
0.0
 11
-384.607039
 21
511.707529
 31
0.0
  0
ARC
  5
354
100
AcDbEntity
  8
2
100
AcDbCircle
 10
-384.607039
 20
503.707529
 30
0.0
 40
8.0
100
AcDbArc
 50
0.0
 51
90.0
  0
ARC
  5
355
100
AcDbEntity
  8
2
100
AcDbCircle
 10
-349.607039
 20
504.707529
 30
0.0
 40
1.0
100
AcDbArc
 50
270.0
 51
360.0
  0
LINE
  5
356
100
AcDbEntity
  8
2
100
AcDbLine
 10
-349.607039
 20
503.707529
 30
0.0
 11
-381.874988
 21
503.707529
 31
0.0
  0
LINE
  5
357
100
AcDbEntity
  8
2
100
AcDbLine
 10
-603.157026
 20
-3.792471
 30
0.0
 11
-373.485148
 21
-3.792471
 31
0.0
  0
LINE
  5
358
100
AcDbEntity
  8
2
100
AcDbLine
 10
-383.607039
 20
127.207529
 30
0.0
 11
-543.607039
 21
127.207529
 31
0.0
  0
LINE
  5
359
100
AcDbEntity
  8
2
100
AcDbLine
 10
-383.607039
 20
127.207529
 30
0.0
 11
-383.607039
 21
114.829086
 31
0.0
  0
LINE
  5
35A
100
AcDbEntity
  8
2
100
AcDbLine
 10
-381.607039
 20
124.207529
 30
0.0
 11
-381.607039
 21
114.96894
 31
0.0
  0
LINE
  5
35B
100
AcDbEntity
  8
2
100
AcDbLine
 10
-376.607039
 20
-4.792471
 30
0.0
 11
-634.607039
 21
-4.792471
 31
0.0
  0
LINE
  5
35C
100
AcDbEntity
  8
2
100
AcDbLine
 10
-343.607039
 20
-2.792471
 30
0.0
 11
-347.607039
 21
-2.792471
 31
0.0
  0
ARC
  5
35D
100
AcDbEntity
  8
2
100
AcDbCircle
 10
-347.607039
 20
-1.792471
 30
0.0
 40
1.0
100
AcDbArc
 50
180.0
 51
270.0
  0
LINE
  5
35E
100
AcDbEntity
  8
2
100
AcDbLine
 10
-343.607039
 20
85.207529
 30
0.0
 11
-350.060118
 21
85.207529
 31
0.0
  0
LINE
  5
35F
100
AcDbEntity
  8
2
100
AcDbLine
 10
-348.607039
 20
-1.792471
 30
0.0
 11
-348.607039
 21
28.794418
 31
0.0
  0
LINE
  5
360
100
AcDbEntity
  8
2
100
AcDbLine
 10
-348.607039
 20
77.620641
 30
0.0
 11
-348.607039
 21
85.207529
 31
0.0
  0
ARC
  5
361
100
AcDbEntity
  8
2
100
AcDbCircle
 10
-349.607039
 20
-0.792471
 30
0.0
 40
1.0
100
AcDbArc
 50
0.0
 51
90.0
  0
LINE
  5
362
100
AcDbEntity
  8
2
100
AcDbLine
 10
-349.607039
 20
0.207529
 30
0.0
 11
-360.857039
 21
0.207529
 31
0.0
  0
LINE
  5
363
100
AcDbEntity
  8
2
100
AcDbLine
 10
-349.607039
 20
0.207529
 30
0.0
 11
-360.807039
 21
0.207529
 31
0.0
  0
ARC
  5
364
100
AcDbEntity
  8
2
100
AcDbCircle
 10
-375.607039
 20
-4.792471
 30
0.0
 40
1.0
100
AcDbArc
 50
90.0
 51
180.0
  0
LINE
  5
365
100
AcDbEntity
  8
2
100
AcDbLine
 10
123.642961
 20
-4.792471
 30
0.0
 11
257.642961
 21
-4.792471
 31
0.0
  0
LINE
  5
366
100
AcDbEntity
  8
2
100
AcDbLine
 10
109.642961
 20
115.108905
 30
0.0
 11
109.642961
 21
-3.792471
 31
0.0
  0
LINE
  5
367
100
AcDbEntity
  8
2
100
AcDbLine
 10
99.642961
 20
-3.792471
 30
0.0
 11
113.642961
 21
-3.792471
 31
0.0
  0
LINE
  5
368
100
AcDbEntity
  8
2
100
AcDbLine
 10
114.642961
 20
-2.792471
 30
0.0
 11
114.642961
 21
114.108905
 31
0.0
  0
LINE
  5
369
100
AcDbEntity
  8
2
100
AcDbLine
 10
256.892961
 20
-13.792471
 30
0.0
 11
124.392961
 21
-13.792471
 31
0.0
  0
LINE
  5
36A
100
AcDbEntity
  8
2
100
AcDbLine
 10
-396.607039
 20
314.707529
 30
0.0
 11
-416.607039
 21
314.707529
 31
0.0
  0
LINE
  5
36B
100
AcDbEntity
  8
2
100
AcDbLine
 10
-396.607039
 20
314.707529
 30
0.0
 11
-395.607039
 21
313.707529
 31
0.0
  0
LINE
  5
36C
100
AcDbEntity
  8
2
100
AcDbLine
 10
-395.607039
 20
306.757529
 30
0.0
 11
-395.607039
 21
313.707529
 31
0.0
  0
ARC
  5
36D
100
AcDbEntity
  8
2
100
AcDbCircle
 10
-393.607039
 20
306.757529
 30
0.0
 40
2.0
100
AcDbArc
 50
180.0
 51
270.0
  0
ARC
  5
36E
100
AcDbEntity
  8
2
100
AcDbCircle
 10
-362.607039
 20
298.757529
 30
0.0
 40
6.0
100
AcDbArc
 50
282.063826
 51
89.678732
  0
LINE
  5
36F
100
AcDbEntity
  8
2
100
AcDbLine
 10
-398.107039
 20
304.757529
 30
0.0
 11
-395.057039
 21
304.757529
 31
0.0
  0
ARC
  5
370
100
AcDbEntity
  8
2
100
AcDbCircle
 10
-398.107039
 20
292.757529
 30
0.0
 40
12.0
100
AcDbArc
 50
90.0
 51
110.044444
  0
LINE
  5
371
100
AcDbEntity
  8
2
100
AcDbLine
 10
-378.307039
 20
304.757529
 30
0.0
 11
-375.007039
 21
304.757529
 31
0.0
  0
ARC
  5
372
100
AcDbEntity
  8
2
100
AcDbCircle
 10
-395.057039
 20
301.757529
 30
0.0
 40
3.0
100
AcDbArc
 50
0.0
 51
90.0
  0
ARC
  5
373
100
AcDbEntity
  8
2
100
AcDbCircle
 10
-397.607039
 20
302.757529
 30
0.0
 40
2.0
100
AcDbArc
 50
0.0
 51
90.0
  0
LINE
  5
374
100
AcDbEntity
  8
2
100
AcDbLine
 10
-438.889606
 20
290.707529
 30
0.0
 11
-374.324471
 21
290.707529
 31
0.0
  0
LINE
  5
375
100
AcDbEntity
  8
2
100
AcDbLine
 10
-359.888706
 20
298.757529
 30
0.0
 11
-369.10204
 21
298.757529
 31
0.0
  0
LINE
  5
376
100
AcDbEntity
  8
2
100
AcDbLine
 10
-373.765485
 20
298.757529
 30
0.0
 11
-391.057039
 21
298.757529
 31
0.0
  0
LINE
  5
377
100
AcDbEntity
  8
2
100
AcDbLine
 10
-396.607039
 20
298.757529
 30
0.0
 11
-416.607039
 21
298.757529
 31
0.0
  0
LINE
  5
378
100
AcDbEntity
  8
2
100
AcDbLine
 10
-395.607039
 20
299.757529
 30
0.0
 11
-395.607039
 21
302.757529
 31
0.0
  0
ARC
  5
379
100
AcDbEntity
  8
2
100
AcDbCircle
 10
-396.607039
 20
299.757529
 30
0.0
 40
1.0
100
AcDbArc
 50
270.0
 51
360.0
  0
ARC
  5
37A
100
AcDbEntity
  8
2
100
AcDbCircle
 10
-406.607039
 20
316.007529
 30
0.0
 40
12.75
100
AcDbArc
 50
249.950024
 51
290.044444
  0
LINE
  5
37B
100
AcDbEntity
  8
2
100
AcDbLine
 10
-392.057039
 20
299.757529
 30
0.0
 11
-392.057039
 21
301.757529
 31
0.0
  0
ARC
  5
37C
100
AcDbEntity
  8
2
100
AcDbCircle
 10
-381.457039
 20
297.557529
 30
0.0
 40
9.0
100
AcDbArc
 50
15.962014
 51
39.79182
  0
ARC
  5
37D
100
AcDbEntity
  8
2
100
AcDbCircle
 10
-378.857039
 20
297.557529
 30
0.0
 40
9.0
100
AcDbArc
 50
12.709033
 51
39.555556
  0
ARC
  5
37E
100
AcDbEntity
  8
2
100
AcDbCircle
 10
-375.007039
 20
300.757529
 30
0.0
 40
4.0
100
AcDbArc
 50
39.555556
 51
90.0
  0
ARC
  5
37F
100
AcDbEntity
  8
2
100
AcDbCircle
 10
-385.707039
 20
333.257529
 30
0.0
 40
30.0
100
AcDbArc
 50
255.130114
 51
270.0
  0
ARC
  5
380
100
AcDbEntity
  8
2
100
AcDbCircle
 10
-384.357039
 20
313.257529
 30
0.0
 40
10.0
100
AcDbArc
 50
270.0
 51
297.777778
  0
ARC
  5
381
100
AcDbEntity
  8
2
100
AcDbCircle
 10
-378.307039
 20
301.757529
 30
0.0
 40
3.0
100
AcDbArc
 50
90.0
 51
117.777778
  0
ARC
  5
382
100
AcDbEntity
  8
2
100
AcDbCircle
 10
-364.807039
 20
298.857529
 30
0.0
 40
6.0
100
AcDbArc
 50
10.36976
 51
70.754889
  0
ARC
  5
383
100
AcDbEntity
  8
2
100
AcDbCircle
 10
-363.907039
 20
298.907529
 30
0.0
 40
6.0
100
AcDbArc
 50
3.279341
 51
77.157379
  0
ARC
  5
384
100
AcDbEntity
  8
2
100
AcDbCircle
 10
-367.407039
 20
323.257529
 30
0.0
 40
20.0
100
AcDbArc
 50
255.003993
 51
270.0
  0
ARC
  5
385
100
AcDbEntity
  8
2
100
AcDbCircle
 10
-367.657039
 20
308.257529
 30
0.0
 40
5.0
100
AcDbArc
 50
270.0
 51
306.547676
  0
ARC
  5
386
100
AcDbEntity
  8
2
100
AcDbCircle
 10
-393.607039
 20
302.757529
 30
0.0
 40
2.0
100
AcDbArc
 50
35.562443
 51
90.0
  0
LINE
  5
387
100
AcDbEntity
  8
2
100
AcDbLine
 10
-367.157039
 20
292.857529
 30
0.0
 11
-447.257039
 21
292.857529
 31
0.0
  0
LINE
  5
388
100
AcDbEntity
  8
2
100
AcDbLine
 10
-385.707039
 20
303.257529
 30
0.0
 11
-384.357039
 21
303.257529
 31
0.0
  0
LINE
  5
389
100
AcDbEntity
  8
2
100
AcDbLine
 10
-416.607039
 20
314.707529
 30
0.0
 11
-417.607039
 21
313.707529
 31
0.0
  0
LINE
  5
38A
100
AcDbEntity
  8
2
100
AcDbLine
 10
-417.607039
 20
306.757529
 30
0.0
 11
-417.607039
 21
313.707529
 31
0.0
  0
ARC
  5
38B
100
AcDbEntity
  8
2
100
AcDbCircle
 10
-419.607039
 20
306.757529
 30
0.0
 40
2.0
100
AcDbArc
 50
270.0
 51
360.0
  0
ARC
  5
38C
100
AcDbEntity
  8
2
100
AcDbCircle
 10
-450.607039
 20
298.757529
 30
0.0
 40
6.0
100
AcDbArc
 50
90.321268
 51
259.3
  0
LINE
  5
38D
100
AcDbEntity
  8
2
100
AcDbLine
 10
-415.09232
 20
304.757529
 30
0.0
 11
-418.157039
 21
304.757529
 31
0.0
  0
LINE
  5
38E
100
AcDbEntity
  8
2
100
AcDbLine
 10
-434.907039
 20
304.757529
 30
0.0
 11
-438.207039
 21
304.757529
 31
0.0
  0
ARC
  5
38F
100
AcDbEntity
  8
2
100
AcDbCircle
 10
-418.157039
 20
301.757529
 30
0.0
 40
3.0
100
AcDbArc
 50
90.0
 51
180.0
  0
ARC
  5
390
100
AcDbEntity
  8
2
100
AcDbCircle
 10
-415.607039
 20
302.757529
 30
0.0
 40
2.0
100
AcDbArc
 50
90.0
 51
180.0
  0
LINE
  5
391
100
AcDbEntity
  8
2
100
AcDbLine
 10
-453.325372
 20
298.757529
 30
0.0
 11
-444.112037
 21
298.757529
 31
0.0
  0
LINE
  5
392
100
AcDbEntity
  8
2
100
AcDbLine
 10
-439.448592
 20
298.757529
 30
0.0
 11
-422.157039
 21
298.757529
 31
0.0
  0
LINE
  5
393
100
AcDbEntity
  8
2
100
AcDbLine
 10
-417.607039
 20
299.757529
 30
0.0
 11
-417.607039
 21
302.757529
 31
0.0
  0
ARC
  5
394
100
AcDbEntity
  8
2
100
AcDbCircle
 10
-416.607039
 20
299.757529
 30
0.0
 40
1.0
100
AcDbArc
 50
180.0
 51
270.0
  0
LINE
  5
395
100
AcDbEntity
  8
2
100
AcDbLine
 10
-421.157039
 20
299.757529
 30
0.0
 11
-421.157039
 21
301.757529
 31
0.0
  0
ARC
  5
396
100
AcDbEntity
  8
2
100
AcDbCircle
 10
-431.757039
 20
297.557529
 30
0.0
 40
9.0
100
AcDbArc
 50
140.208181
 51
164.037986
  0
ARC
  5
397
100
AcDbEntity
  8
2
100
AcDbCircle
 10
-434.357039
 20
297.557529
 30
0.0
 40
9.0
100
AcDbArc
 50
140.444444
 51
167.290967
  0
ARC
  5
398
100
AcDbEntity
  8
2
100
AcDbCircle
 10
-438.207039
 20
300.757529
 30
0.0
 40
4.0
100
AcDbArc
 50
90.0
 51
140.444444
  0
ARC
  5
399
100
AcDbEntity
  8
2
100
AcDbCircle
 10
-427.507039
 20
333.257529
 30
0.0
 40
30.0
100
AcDbArc
 50
270.0
 51
284.869886
  0
ARC
  5
39A
100
AcDbEntity
  8
2
100
AcDbCircle
 10
-428.857039
 20
313.257529
 30
0.0
 40
10.0
100
AcDbArc
 50
242.222222
 51
270.0
  0
ARC
  5
39B
100
AcDbEntity
  8
2
100
AcDbCircle
 10
-434.907039
 20
301.757529
 30
0.0
 40
3.0
100
AcDbArc
 50
62.222222
 51
90.0
  0
ARC
  5
39C
100
AcDbEntity
  8
2
100
AcDbCircle
 10
-448.407039
 20
298.857529
 30
0.0
 40
6.0
100
AcDbArc
 50
109.245111
 51
169.63024
  0
ARC
  5
39D
100
AcDbEntity
  8
2
100
AcDbCircle
 10
-449.307039
 20
298.907529
 30
0.0
 40
6.0
100
AcDbArc
 50
102.842621
 51
176.720659
  0
ARC
  5
39E
100
AcDbEntity
  8
2
100
AcDbCircle
 10
-445.807039
 20
323.257529
 30
0.0
 40
20.0
100
AcDbArc
 50
270.0
 51
284.996007
  0
ARC
  5
39F
100
AcDbEntity
  8
2
100
AcDbCircle
 10
-445.557039
 20
308.257529
 30
0.0
 40
5.0
100
AcDbArc
 50
233.452324
 51
270.0
  0
ARC
  5
3A0
100
AcDbEntity
  8
2
100
AcDbCircle
 10
-419.607039
 20
302.757529
 30
0.0
 40
2.0
100
AcDbArc
 50
90.0
 51
144.437557
  0
LINE
  5
3A1
100
AcDbEntity
  8
2
100
AcDbLine
 10
-427.507039
 20
303.257529
 30
0.0
 11
-428.857039
 21
303.257529
 31
0.0
  0
LINE
  5
3A2
100
AcDbEntity
  8
2
100
AcDbLine
 10
-395.607039
 20
313.707529
 30
0.0
 11
-417.607039
 21
313.707529
 31
0.0
  0
LINE
  5
3A3
100
AcDbEntity
  8
2
100
AcDbLine
 10
-417.107039
 20
305.407529
 30
0.0
 11
-396.207039
 21
305.407529
 31
0.0
  0
LINE
  5
3A4
100
AcDbEntity
  8
2
100
AcDbLine
 10
-412.607039
 20
317.707529
 30
0.0
 11
-412.607039
 21
314.707529
 31
0.0
  0
LINE
  5
3A5
100
AcDbEntity
  8
2
100
AcDbLine
 10
-400.607039
 20
314.707529
 30
0.0
 11
-400.607039
 21
317.707529
 31
0.0
  0
LINE
  5
3A6
100
AcDbEntity
  8
2
100
AcDbLine
 10
60.642961
 20
43.207529
 30
0.0
 11
60.642961
 21
63.207529
 31
0.0
  0
LINE
  5
3A7
100
AcDbEntity
  8
2
100
AcDbLine
 10
60.642961
 20
43.207529
 30
0.0
 11
59.642961
 21
42.207529
 31
0.0
  0
LINE
  5
3A8
100
AcDbEntity
  8
2
100
AcDbLine
 10
60.642961
 20
63.207529
 30
0.0
 11
59.642961
 21
64.207529
 31
0.0
  0
LINE
  5
3A9
100
AcDbEntity
  8
2
100
AcDbLine
 10
59.642961
 20
42.207529
 30
0.0
 11
59.642961
 21
64.207529
 31
0.0
  0
LINE
  5
3AA
100
AcDbEntity
  8
2
100
AcDbLine
 10
63.642961
 20
59.207529
 30
0.0
 11
60.642961
 21
59.207529
 31
0.0
  0
LINE
  5
3AB
100
AcDbEntity
  8
2
100
AcDbLine
 10
60.642961
 20
47.207529
 30
0.0
 11
63.642961
 21
47.207529
 31
0.0
  0
LINE
  5
3AC
100
AcDbEntity
  8
2
100
AcDbLine
 10
-373.707039
 20
480.707529
 30
0.0
 11
-373.707039
 21
454.707529
 31
0.0
  0
LINE
  5
3AD
100
AcDbEntity
  8
2
100
AcDbLine
 10
-378.707039
 20
482.718636
 30
0.0
 11
-378.707039
 21
452.696422
 31
0.0
  0
LINE
  5
3AE
100
AcDbEntity
  8
2
100
AcDbLine
 10
-374.868152
 20
452.696422
 30
0.0
 11
-378.707039
 21
452.696422
 31
0.0
  0
LINE
  5
3AF
100
AcDbEntity
  8
2
100
AcDbLine
 10
-374.868152
 20
460.201976
 30
0.0
 11
-378.707039
 21
460.201976
 31
0.0
  0
LINE
  5
3B0
100
AcDbEntity
  8
2
100
AcDbLine
 10
-374.868152
 20
475.213083
 30
0.0
 11
-378.707039
 21
475.213083
 31
0.0
  0
LINE
  5
3B1
100
AcDbEntity
  8
2
100
AcDbLine
 10
-374.868152
 20
482.718636
 30
0.0
 11
-378.707039
 21
482.718636
 31
0.0
  0
LINE
  5
3B2
100
AcDbEntity
  8
2
100
AcDbLine
 10
-373.707039
 20
454.707529
 30
0.0
 11
-374.868152
 21
452.696422
 31
0.0
  0
LINE
  5
3B3
100
AcDbEntity
  8
2
100
AcDbLine
 10
-373.707039
 20
480.707529
 30
0.0
 11
-374.868152
 21
482.718636
 31
0.0
  0
ARC
  5
3B4
100
AcDbEntity
  8
2
100
AcDbCircle
 10
-398.545925
 20
467.707529
 30
0.0
 40
24.838887
100
AcDbArc
 50
342.412046
 51
17.587954
  0
ARC
  5
3B5
100
AcDbEntity
  8
2
100
AcDbCircle
 10
-380.352174
 20
456.449199
 30
0.0
 40
6.645136
100
AcDbArc
 50
325.615736
 51
34.384264
  0
ARC
  5
3B6
100
AcDbEntity
  8
2
100
AcDbCircle
 10
-380.352174
 20
478.96586
 30
0.0
 40
6.645136
100
AcDbArc
 50
325.615736
 51
34.384264
  0
LINE
  5
3B7
100
AcDbEntity
  8
2
100
AcDbLine
 10
-378.707039
 20
476.707529
 30
0.0
 11
-381.607039
 21
476.707529
 31
0.0
  0
LINE
  5
3B8
100
AcDbEntity
  8
2
100
AcDbLine
 10
-381.607039
 20
458.707529
 30
0.0
 11
-378.707039
 21
458.707529
 31
0.0
  0
LINE
  5
3B9
100
AcDbEntity
  8
2
100
AcDbLine
 10
-373.707039
 20
440.707529
 30
0.0
 11
-373.707039
 21
414.707529
 31
0.0
  0
LINE
  5
3BA
100
AcDbEntity
  8
2
100
AcDbLine
 10
-378.707039
 20
442.718636
 30
0.0
 11
-378.707039
 21
412.696422
 31
0.0
  0
LINE
  5
3BB
100
AcDbEntity
  8
2
100
AcDbLine
 10
-374.868152
 20
412.696422
 30
0.0
 11
-378.707039
 21
412.696422
 31
0.0
  0
LINE
  5
3BC
100
AcDbEntity
  8
2
100
AcDbLine
 10
-374.868152
 20
420.201976
 30
0.0
 11
-378.707039
 21
420.201976
 31
0.0
  0
LINE
  5
3BD
100
AcDbEntity
  8
2
100
AcDbLine
 10
-374.868152
 20
435.213083
 30
0.0
 11
-378.707039
 21
435.213083
 31
0.0
  0
LINE
  5
3BE
100
AcDbEntity
  8
2
100
AcDbLine
 10
-374.868152
 20
442.718636
 30
0.0
 11
-378.707039
 21
442.718636
 31
0.0
  0
LINE
  5
3BF
100
AcDbEntity
  8
2
100
AcDbLine
 10
-373.707039
 20
414.707529
 30
0.0
 11
-374.868152
 21
412.696422
 31
0.0
  0
LINE
  5
3C0
100
AcDbEntity
  8
2
100
AcDbLine
 10
-373.707039
 20
440.707529
 30
0.0
 11
-374.868152
 21
442.718636
 31
0.0
  0
ARC
  5
3C1
100
AcDbEntity
  8
2
100
AcDbCircle
 10
-398.545925
 20
427.707529
 30
0.0
 40
24.838887
100
AcDbArc
 50
342.412046
 51
17.587954
  0
ARC
  5
3C2
100
AcDbEntity
  8
2
100
AcDbCircle
 10
-380.352174
 20
416.449199
 30
0.0
 40
6.645136
100
AcDbArc
 50
325.615736
 51
34.384264
  0
ARC
  5
3C3
100
AcDbEntity
  8
2
100
AcDbCircle
 10
-380.352174
 20
438.96586
 30
0.0
 40
6.645136
100
AcDbArc
 50
325.615736
 51
34.384264
  0
LINE
  5
3C4
100
AcDbEntity
  8
2
100
AcDbLine
 10
-378.707039
 20
436.707529
 30
0.0
 11
-381.607039
 21
436.707529
 31
0.0
  0
LINE
  5
3C5
100
AcDbEntity
  8
2
100
AcDbLine
 10
-381.607039
 20
418.707529
 30
0.0
 11
-378.707039
 21
418.707529
 31
0.0
  0
LINE
  5
3C6
100
AcDbEntity
  8
2
100
AcDbLine
 10
-373.607039
 20
120.207529
 30
0.0
 11
-373.607039
 21
114.771043
 31
0.0
  0
LINE
  5
3C7
100
AcDbEntity
  8
2
100
AcDbLine
 10
-378.607039
 20
120.207529
 30
0.0
 11
-378.607039
 21
115.256798
 31
0.0
  0
LINE
  5
3C8
100
AcDbEntity
  8
2
100
AcDbLine
 10
-373.607039
 20
120.207529
 30
0.0
 11
-378.607039
 21
120.207529
 31
0.0
  0
LINE
  5
3C9
100
AcDbEntity
  8
2
100
AcDbLine
 10
-378.607039
 20
116.207529
 30
0.0
 11
-381.607039
 21
116.207529
 31
0.0
  0
ARC
  5
3CA
100
AcDbEntity
  8
2
100
AcDbCircle
 10
-391.811205
 20
113.707529
 30
0.0
 40
18.204167
100
AcDbArc
 50
3.368215
 51
20.919818
  0
CIRCLE
  5
3CB
100
AcDbEntity
  8
2
100
AcDbCircle
 10
173.642961
 20
107.207529
 30
0.0
 40
13.0
  0
LINE
  5
3CC
100
AcDbEntity
  8
2
100
AcDbLine
 10
166.137408
 20
120.207529
 30
0.0
 11
158.631854
 21
107.207529
 31
0.0
  0
LINE
  5
3CD
100
AcDbEntity
  8
2
100
AcDbLine
 10
181.148515
 20
120.207529
 30
0.0
 11
166.137408
 21
120.207529
 31
0.0
  0
LINE
  5
3CE
100
AcDbEntity
  8
2
100
AcDbLine
 10
188.654068
 20
107.207529
 30
0.0
 11
181.148515
 21
120.207529
 31
0.0
  0
LINE
  5
3CF
100
AcDbEntity
  8
2
100
AcDbLine
 10
181.148515
 20
94.207529
 30
0.0
 11
188.654068
 21
107.207529
 31
0.0
  0
LINE
  5
3D0
100
AcDbEntity
  8
2
100
AcDbLine
 10
166.137408
 20
94.207529
 30
0.0
 11
181.148515
 21
94.207529
 31
0.0
  0
LINE
  5
3D1
100
AcDbEntity
  8
2
100
AcDbLine
 10
158.631854
 20
107.207529
 30
0.0
 11
166.137408
 21
94.207529
 31
0.0
  0
CIRCLE
  5
3D2
100
AcDbEntity
  8
2
100
AcDbCircle
 10
213.642961
 20
107.207529
 30
0.0
 40
13.0
  0
LINE
  5
3D3
100
AcDbEntity
  8
2
100
AcDbLine
 10
206.137408
 20
120.207529
 30
0.0
 11
198.631854
 21
107.207529
 31
0.0
  0
LINE
  5
3D4
100
AcDbEntity
  8
2
100
AcDbLine
 10
221.148515
 20
120.207529
 30
0.0
 11
206.137408
 21
120.207529
 31
0.0
  0
LINE
  5
3D5
100
AcDbEntity
  8
2
100
AcDbLine
 10
228.654068
 20
107.207529
 30
0.0
 11
221.148515
 21
120.207529
 31
0.0
  0
LINE
  5
3D6
100
AcDbEntity
  8
2
100
AcDbLine
 10
221.148515
 20
94.207529
 30
0.0
 11
228.654068
 21
107.207529
 31
0.0
  0
LINE
  5
3D7
100
AcDbEntity
  8
2
100
AcDbLine
 10
206.137408
 20
94.207529
 30
0.0
 11
221.148515
 21
94.207529
 31
0.0
  0
LINE
  5
3D8
100
AcDbEntity
  8
2
100
AcDbLine
 10
198.631854
 20
107.207529
 30
0.0
 11
206.137408
 21
94.207529
 31
0.0
  0
ARC
  5
3D9
100
AcDbEntity
  8
2
100
AcDbCircle
 10
-537.607039
 20
491.707529
 30
0.0
 40
6.0
100
AcDbArc
 50
90.0
 51
180.0
  0
ARC
  5
3DA
100
AcDbEntity
  8
2
100
AcDbCircle
 10
-357.417682
 20
299.279356
 30
0.0
 40
0.5
100
AcDbArc
 50
183.279341
 51
259.2122
  0
ARC
  5
3DB
100
AcDbEntity
  8
2
100
AcDbCircle
 10
-359.888706
 20
299.757529
 30
0.0
 40
1.0
100
AcDbArc
 50
270.0
 51
10.36976
  0
ARC
  5
3DC
100
AcDbEntity
  8
2
100
AcDbCircle
 10
-369.10204
 20
299.757529
 30
0.0
 40
1.0
100
AcDbArc
 50
192.709033
 51
270.0
  0
ARC
  5
3DD
100
AcDbEntity
  8
2
100
AcDbCircle
 10
-357.698441
 20
297.805865
 30
0.0
 40
1.0
100
AcDbArc
 50
349.02779
 51
79.2122
  0
ARC
  5
3DE
100
AcDbEntity
  8
2
100
AcDbCircle
 10
-377.615164
 20
300.757529
 30
0.0
 40
4.0
100
AcDbArc
 50
39.79182
 51
90.0
  0
ARC
  5
3DF
100
AcDbEntity
  8
2
100
AcDbCircle
 10
-391.057039
 20
299.757529
 30
0.0
 40
1.0
100
AcDbArc
 50
180.0
 51
270.0
  0
ARC
  5
3E0
100
AcDbEntity
  8
2
100
AcDbCircle
 10
-373.765485
 20
299.757529
 30
0.0
 40
1.0
100
AcDbArc
 50
270.0
 51
15.962014
  0
ARC
  5
3E1
100
AcDbEntity
  8
2
100
AcDbCircle
 10
-455.796395
 20
299.279356
 30
0.0
 40
0.5
100
AcDbArc
 50
280.7878
 51
356.720659
  0
ARC
  5
3E2
100
AcDbEntity
  8
2
100
AcDbCircle
 10
-455.515637
 20
297.805865
 30
0.0
 40
1.0
100
AcDbArc
 50
100.7878
 51
190.97221
  0
ARC
  5
3E3
100
AcDbEntity
  8
2
100
AcDbCircle
 10
-453.325372
 20
299.757529
 30
0.0
 40
1.0
100
AcDbArc
 50
169.63024
 51
270.0
  0
ARC
  5
3E4
100
AcDbEntity
  8
2
100
AcDbCircle
 10
-444.112037
 20
299.757529
 30
0.0
 40
1.0
100
AcDbArc
 50
270.0
 51
347.290967
  0
ARC
  5
3E5
100
AcDbEntity
  8
2
100
AcDbCircle
 10
-435.598913
 20
300.757529
 30
0.0
 40
4.0
100
AcDbArc
 50
90.0
 51
140.208181
  0
ARC
  5
3E6
100
AcDbEntity
  8
2
100
AcDbCircle
 10
-422.157039
 20
299.757529
 30
0.0
 40
1.0
100
AcDbArc
 50
270.0
 51
360.0
  0
ARC
  5
3E7
100
AcDbEntity
  8
2
100
AcDbCircle
 10
-439.448592
 20
299.757529
 30
0.0
 40
1.0
100
AcDbArc
 50
164.037986
 51
270.0
  0
ARC
  5
3E8
100
AcDbEntity
  8
2
100
AcDbCircle
 10
-420.510866
 20
439.577345
 30
0.0
 40
150.0
100
AcDbArc
 50
257.936174
 51
262.962154
  0
ARC
  5
3E9
100
AcDbEntity
  8
2
100
AcDbCircle
 10
-392.703211
 20
439.577345
 30
0.0
 40
150.0
100
AcDbArc
 50
277.037846
 51
282.063826
  0
LINE
  5
3EA
100
AcDbEntity
  8
2
100
AcDbLine
 10
52.692961
 20
42.207529
 30
0.0
 11
59.642961
 21
42.207529
 31
0.0
  0
ARC
  5
3EB
100
AcDbEntity
  8
2
100
AcDbCircle
 10
52.692961
 20
40.207529
 30
0.0
 40
2.0
100
AcDbArc
 50
90.0
 51
180.0
  0
ARC
  5
3EC
100
AcDbEntity
  8
2
100
AcDbCircle
 10
44.692961
 20
9.207529
 30
0.0
 40
6.0
100
AcDbArc
 50
192.063826
 51
359.678732
  0
LINE
  5
3ED
100
AcDbEntity
  8
2
100
AcDbLine
 10
50.692961
 20
44.707529
 30
0.0
 11
50.692961
 21
41.657529
 31
0.0
  0
ARC
  5
3EE
100
AcDbEntity
  8
2
100
AcDbCircle
 10
38.692961
 20
44.707529
 30
0.0
 40
12.0
100
AcDbArc
 50
0.0
 51
20.044444
  0
LINE
  5
3EF
100
AcDbEntity
  8
2
100
AcDbLine
 10
50.692961
 20
24.907529
 30
0.0
 11
50.692961
 21
21.607529
 31
0.0
  0
ARC
  5
3F0
100
AcDbEntity
  8
2
100
AcDbCircle
 10
47.692961
 20
41.657529
 30
0.0
 40
3.0
100
AcDbArc
 50
270.0
 51
360.0
  0
ARC
  5
3F1
100
AcDbEntity
  8
2
100
AcDbCircle
 10
48.692961
 20
44.207529
 30
0.0
 40
2.0
100
AcDbArc
 50
270.0
 51
360.0
  0
LINE
  5
3F2
100
AcDbEntity
  8
2
100
AcDbLine
 10
36.642961
 20
85.490097
 30
0.0
 11
36.642961
 21
20.924962
 31
0.0
  0
LINE
  5
3F3
100
AcDbEntity
  8
2
100
AcDbLine
 10
44.692961
 20
6.489196
 30
0.0
 11
44.692961
 21
15.702531
 31
0.0
  0
LINE
  5
3F4
100
AcDbEntity
  8
2
100
AcDbLine
 10
44.692961
 20
20.365976
 30
0.0
 11
44.692961
 21
37.657529
 31
0.0
  0
LINE
  5
3F5
100
AcDbEntity
  8
2
100
AcDbLine
 10
44.692961
 20
43.207529
 30
0.0
 11
44.692961
 21
63.207529
 31
0.0
  0
LINE
  5
3F6
100
AcDbEntity
  8
2
100
AcDbLine
 10
45.692961
 20
42.207529
 30
0.0
 11
48.692961
 21
42.207529
 31
0.0
  0
ARC
  5
3F7
100
AcDbEntity
  8
2
100
AcDbCircle
 10
45.692961
 20
43.207529
 30
0.0
 40
1.0
100
AcDbArc
 50
180.0
 51
270.0
  0
ARC
  5
3F8
100
AcDbEntity
  8
2
100
AcDbCircle
 10
61.942961
 20
53.207529
 30
0.0
 40
12.75
100
AcDbArc
 50
159.950024
 51
200.044444
  0
LINE
  5
3F9
100
AcDbEntity
  8
2
100
AcDbLine
 10
45.692961
 20
38.657529
 30
0.0
 11
47.692961
 21
38.657529
 31
0.0
  0
ARC
  5
3FA
100
AcDbEntity
  8
2
100
AcDbCircle
 10
43.492961
 20
28.057529
 30
0.0
 40
9.0
100
AcDbArc
 50
285.962014
 51
309.79182
  0
ARC
  5
3FB
100
AcDbEntity
  8
2
100
AcDbCircle
 10
43.492961
 20
25.457529
 30
0.0
 40
9.0
100
AcDbArc
 50
282.709033
 51
309.555556
  0
ARC
  5
3FC
100
AcDbEntity
  8
2
100
AcDbCircle
 10
46.692961
 20
21.607529
 30
0.0
 40
4.0
100
AcDbArc
 50
309.555556
 51
360.0
  0
ARC
  5
3FD
100
AcDbEntity
  8
2
100
AcDbCircle
 10
79.192961
 20
32.307529
 30
0.0
 40
30.0
100
AcDbArc
 50
165.130114
 51
180.0
  0
ARC
  5
3FE
100
AcDbEntity
  8
2
100
AcDbCircle
 10
59.192961
 20
30.957529
 30
0.0
 40
10.0
100
AcDbArc
 50
180.0
 51
207.777778
  0
ARC
  5
3FF
100
AcDbEntity
  8
2
100
AcDbCircle
 10
47.692961
 20
24.907529
 30
0.0
 40
3.0
100
AcDbArc
 50
0.0
 51
27.777778
  0
ARC
  5
400
100
AcDbEntity
  8
2
100
AcDbCircle
 10
44.792961
 20
11.407529
 30
0.0
 40
6.0
100
AcDbArc
 50
280.36976
 51
340.754889
  0
ARC
  5
401
100
AcDbEntity
  8
2
100
AcDbCircle
 10
44.842961
 20
10.507529
 30
0.0
 40
6.0
100
AcDbArc
 50
273.279341
 51
347.157379
  0
ARC
  5
402
100
AcDbEntity
  8
2
100
AcDbCircle
 10
69.192961
 20
14.007529
 30
0.0
 40
20.0
100
AcDbArc
 50
165.003993
 51
180.0
  0
ARC
  5
403
100
AcDbEntity
  8
2
100
AcDbCircle
 10
54.192961
 20
14.257529
 30
0.0
 40
5.0
100
AcDbArc
 50
180.0
 51
216.547676
  0
ARC
  5
404
100
AcDbEntity
  8
2
100
AcDbCircle
 10
48.692961
 20
40.207529
 30
0.0
 40
2.0
100
AcDbArc
 50
305.562443
 51
360.0
  0
LINE
  5
405
100
AcDbEntity
  8
2
100
AcDbLine
 10
38.792961
 20
13.757529
 30
0.0
 11
38.792961
 21
93.857529
 31
0.0
  0
LINE
  5
406
100
AcDbEntity
  8
2
100
AcDbLine
 10
49.192961
 20
32.307529
 30
0.0
 11
49.192961
 21
30.957529
 31
0.0
  0
LINE
  5
407
100
AcDbEntity
  8
2
100
AcDbLine
 10
52.692961
 20
64.207529
 30
0.0
 11
59.642961
 21
64.207529
 31
0.0
  0
ARC
  5
408
100
AcDbEntity
  8
2
100
AcDbCircle
 10
52.692961
 20
66.207529
 30
0.0
 40
2.0
100
AcDbArc
 50
180.0
 51
270.0
  0
ARC
  5
409
100
AcDbEntity
  8
2
100
AcDbCircle
 10
44.692961
 20
97.207529
 30
0.0
 40
6.0
100
AcDbArc
 50
0.321268
 51
169.3
  0
LINE
  5
40A
100
AcDbEntity
  8
2
100
AcDbLine
 10
50.692961
 20
61.692811
 30
0.0
 11
50.692961
 21
64.757529
 31
0.0
  0
LINE
  5
40B
100
AcDbEntity
  8
2
100
AcDbLine
 10
50.692961
 20
81.507529
 30
0.0
 11
50.692961
 21
84.807529
 31
0.0
  0
ARC
  5
40C
100
AcDbEntity
  8
2
100
AcDbCircle
 10
47.692961
 20
64.757529
 30
0.0
 40
3.0
100
AcDbArc
 50
0.0
 51
90.0
  0
ARC
  5
40D
100
AcDbEntity
  8
2
100
AcDbCircle
 10
48.692961
 20
62.207529
 30
0.0
 40
2.0
100
AcDbArc
 50
0.0
 51
90.0
  0
LINE
  5
40E
100
AcDbEntity
  8
2
100
AcDbLine
 10
44.692961
 20
99.925862
 30
0.0
 11
44.692961
 21
90.712528
 31
0.0
  0
LINE
  5
40F
100
AcDbEntity
  8
2
100
AcDbLine
 10
44.692961
 20
86.049083
 30
0.0
 11
44.692961
 21
68.757529
 31
0.0
  0
LINE
  5
410
100
AcDbEntity
  8
2
100
AcDbLine
 10
45.692961
 20
64.207529
 30
0.0
 11
48.692961
 21
64.207529
 31
0.0
  0
ARC
  5
411
100
AcDbEntity
  8
2
100
AcDbCircle
 10
45.692961
 20
63.207529
 30
0.0
 40
1.0
100
AcDbArc
 50
90.0
 51
180.0
  0
LINE
  5
412
100
AcDbEntity
  8
2
100
AcDbLine
 10
45.692961
 20
67.757529
 30
0.0
 11
47.692961
 21
67.757529
 31
0.0
  0
ARC
  5
413
100
AcDbEntity
  8
2
100
AcDbCircle
 10
43.492961
 20
78.357529
 30
0.0
 40
9.0
100
AcDbArc
 50
50.208181
 51
74.037986
  0
ARC
  5
414
100
AcDbEntity
  8
2
100
AcDbCircle
 10
43.492961
 20
80.957529
 30
0.0
 40
9.0
100
AcDbArc
 50
50.444444
 51
77.290967
  0
ARC
  5
415
100
AcDbEntity
  8
2
100
AcDbCircle
 10
46.692961
 20
84.807529
 30
0.0
 40
4.0
100
AcDbArc
 50
0.0
 51
50.444444
  0
ARC
  5
416
100
AcDbEntity
  8
2
100
AcDbCircle
 10
79.192961
 20
74.107529
 30
0.0
 40
30.0
100
AcDbArc
 50
180.0
 51
194.869886
  0
ARC
  5
417
100
AcDbEntity
  8
2
100
AcDbCircle
 10
59.192961
 20
75.457529
 30
0.0
 40
10.0
100
AcDbArc
 50
152.222222
 51
180.0
  0
ARC
  5
418
100
AcDbEntity
  8
2
100
AcDbCircle
 10
47.692961
 20
81.507529
 30
0.0
 40
3.0
100
AcDbArc
 50
332.222222
 51
360.0
  0
ARC
  5
419
100
AcDbEntity
  8
2
100
AcDbCircle
 10
44.792961
 20
95.007529
 30
0.0
 40
6.0
100
AcDbArc
 50
19.245111
 51
79.63024
  0
ARC
  5
41A
100
AcDbEntity
  8
2
100
AcDbCircle
 10
44.842961
 20
95.907529
 30
0.0
 40
6.0
100
AcDbArc
 50
12.842621
 51
86.720659
  0
ARC
  5
41B
100
AcDbEntity
  8
2
100
AcDbCircle
 10
69.192961
 20
92.407529
 30
0.0
 40
20.0
100
AcDbArc
 50
180.0
 51
194.996007
  0
ARC
  5
41C
100
AcDbEntity
  8
2
100
AcDbCircle
 10
54.192961
 20
92.157529
 30
0.0
 40
5.0
100
AcDbArc
 50
143.452324
 51
180.0
  0
ARC
  5
41D
100
AcDbEntity
  8
2
100
AcDbCircle
 10
48.692961
 20
66.207529
 30
0.0
 40
2.0
100
AcDbArc
 50
0.0
 51
54.437557
  0
LINE
  5
41E
100
AcDbEntity
  8
2
100
AcDbLine
 10
49.192961
 20
74.107529
 30
0.0
 11
49.192961
 21
75.457529
 31
0.0
  0
LINE
  5
41F
100
AcDbEntity
  8
2
100
AcDbLine
 10
51.342961
 20
63.707529
 30
0.0
 11
51.342961
 21
42.807529
 31
0.0
  0
ARC
  5
420
100
AcDbEntity
  8
2
100
AcDbCircle
 10
45.214788
 20
4.018173
 30
0.0
 40
0.5
100
AcDbArc
 50
93.279341
 51
169.2122
  0
ARC
  5
421
100
AcDbEntity
  8
2
100
AcDbCircle
 10
45.692961
 20
6.489196
 30
0.0
 40
1.0
100
AcDbArc
 50
180.0
 51
280.36976
  0
ARC
  5
422
100
AcDbEntity
  8
2
100
AcDbCircle
 10
45.692961
 20
15.702531
 30
0.0
 40
1.0
100
AcDbArc
 50
102.709033
 51
180.0
  0
ARC
  5
423
100
AcDbEntity
  8
2
100
AcDbCircle
 10
43.741297
 20
4.298931
 30
0.0
 40
1.0
100
AcDbArc
 50
259.02779
 51
349.2122
  0
ARC
  5
424
100
AcDbEntity
  8
2
100
AcDbCircle
 10
46.692961
 20
24.215655
 30
0.0
 40
4.0
100
AcDbArc
 50
309.79182
 51
360.0
  0
ARC
  5
425
100
AcDbEntity
  8
2
100
AcDbCircle
 10
45.692961
 20
37.657529
 30
0.0
 40
1.0
100
AcDbArc
 50
90.0
 51
180.0
  0
ARC
  5
426
100
AcDbEntity
  8
2
100
AcDbCircle
 10
45.692961
 20
20.365976
 30
0.0
 40
1.0
100
AcDbArc
 50
180.0
 51
285.962014
  0
ARC
  5
427
100
AcDbEntity
  8
2
100
AcDbCircle
 10
45.214788
 20
102.396886
 30
0.0
 40
0.5
100
AcDbArc
 50
190.7878
 51
266.720659
  0
ARC
  5
428
100
AcDbEntity
  8
2
100
AcDbCircle
 10
43.741297
 20
102.116127
 30
0.0
 40
1.0
100
AcDbArc
 50
10.7878
 51
100.97221
  0
ARC
  5
429
100
AcDbEntity
  8
2
100
AcDbCircle
 10
45.692961
 20
99.925862
 30
0.0
 40
1.0
100
AcDbArc
 50
79.63024
 51
180.0
  0
ARC
  5
42A
100
AcDbEntity
  8
2
100
AcDbCircle
 10
45.692961
 20
90.712528
 30
0.0
 40
1.0
100
AcDbArc
 50
180.0
 51
257.290967
  0
ARC
  5
42B
100
AcDbEntity
  8
2
100
AcDbCircle
 10
46.692961
 20
82.199404
 30
0.0
 40
4.0
100
AcDbArc
 50
0.0
 51
50.208181
  0
ARC
  5
42C
100
AcDbEntity
  8
2
100
AcDbCircle
 10
45.692961
 20
68.757529
 30
0.0
 40
1.0
100
AcDbArc
 50
180.0
 51
270.0
  0
ARC
  5
42D
100
AcDbEntity
  8
2
100
AcDbCircle
 10
45.692961
 20
86.049083
 30
0.0
 40
1.0
100
AcDbArc
 50
74.037986
 51
180.0
  0
ARC
  5
42E
100
AcDbEntity
  8
2
100
AcDbCircle
 10
185.512777
 20
67.111357
 30
0.0
 40
150.0
100
AcDbArc
 50
167.936174
 51
172.962154
  0
ARC
  5
42F
100
AcDbEntity
  8
2
100
AcDbCircle
 10
185.512777
 20
39.303702
 30
0.0
 40
150.0
100
AcDbArc
 50
187.037846
 51
192.063826
  0
ARC
  5
430
100
AcDbEntity
  8
2
100
AcDbCircle
 10
38.692961
 20
61.692811
 30
0.0
 40
12.0
100
AcDbArc
 50
339.950024
 51
360.0
  0
ARC
  5
431
100
AcDbEntity
  8
2
100
AcDbCircle
 10
-415.09232
 20
292.757529
 30
0.0
 40
12.0
100
AcDbArc
 50
69.950024
 51
90.0
  0
ARC
  5
432
100
AcDbEntity
  8
2
100
AcDbCircle
 10
-363.488598
 20
302.633998
 30
0.0
 40
2.0
100
AcDbArc
 50
70.754889
 51
126.547676
  0
LINE
  5
433
100
AcDbEntity
  8
2
100
AcDbLine
 10
-363.725639
 20
304.619901
 30
0.0
 11
-362.573396
 21
304.757435
 31
0.0
  0
ARC
  5
434
100
AcDbEntity
  8
2
100
AcDbCircle
 10
-449.725479
 20
302.633998
 30
0.0
 40
2.0
100
AcDbArc
 50
53.452324
 51
109.245111
  0
LINE
  5
435
100
AcDbEntity
  8
2
100
AcDbLine
 10
-450.640682
 20
304.757435
 30
0.0
 11
-449.488438
 21
304.619901
 31
0.0
  0
ARC
  5
436
100
AcDbEntity
  8
2
100
AcDbCircle
 10
48.56943
 20
96.32597
 30
0.0
 40
2.0
100
AcDbArc
 50
323.452324
 51
19.245111
  0
LINE
  5
437
100
AcDbEntity
  8
2
100
AcDbLine
 10
50.692867
 20
97.241172
 30
0.0
 11
50.555333
 21
96.088929
 31
0.0
  0
ARC
  5
438
100
AcDbEntity
  8
2
100
AcDbCircle
 10
48.56943
 20
10.089089
 30
0.0
 40
2.0
100
AcDbArc
 50
340.754889
 51
36.547676
  0
LINE
  5
439
100
AcDbEntity
  8
2
100
AcDbLine
 10
50.692867
 20
9.173886
 30
0.0
 11
50.555333
 21
10.32613
 31
0.0
  0
LINE
  5
43A
100
AcDbEntity
  8
2
100
AcDbLine
 10
-382.607039
 20
485.707529
 30
0.0
 11
-350.607039
 21
485.707529
 31
0.0
  0
LINE
  5
43B
100
AcDbEntity
  8
2
100
AcDbLine
 10
-382.607039
 20
409.707529
 30
0.0
 11
-350.607039
 21
409.707529
 31
0.0
  0
LINE
  5
43C
100
AcDbEntity
  8
2
100
AcDbLine
 10
-348.607039
 20
394.707529
 30
0.0
 11
-348.607039
 21
407.707529
 31
0.0
  0
LINE
  5
43D
100
AcDbEntity
  8
2
100
AcDbLine
 10
-348.607039
 20
487.707529
 30
0.0
 11
-348.607039
 21
505.707529
 31
0.0
  0
LINE
  5
43E
100
AcDbEntity
  8
2
100
AcDbLine
 10
-543.149526
 20
504.707529
 30
0.0
 11
-383.607039
 21
504.707529
 31
0.0
  0
LINE
  5
43F
100
AcDbEntity
  8
2
100
AcDbLine
 10
184.080461
 20
42.407529
 30
0.0
 11
184.080461
 21
37.457529
 31
0.0
  0
LINE
  5
440
100
AcDbEntity
  8
2
100
AcDbLine
 10
179.430461
 20
43.682529
 30
0.0
 11
182.055461
 21
44.957529
 31
0.0
  0
LINE
  5
441
100
AcDbEntity
  8
2
100
AcDbLine
 10
184.680461
 20
43.682529
 30
0.0
 11
184.680461
 21
44.957529
 31
0.0
  0
LINE
  5
442
100
AcDbEntity
  8
2
100
AcDbLine
 10
185.430461
 20
41.539672
 30
0.0
 11
185.430461
 21
39.600387
 31
0.0
  0
LINE
  5
443
100
AcDbEntity
  8
2
100
AcDbLine
 10
191.955461
 20
41.539672
 30
0.0
 11
191.955461
 21
39.600387
 31
0.0
  0
LINE
  5
444
100
AcDbEntity
  8
2
100
AcDbLine
 10
187.455461
 20
41.561101
 30
0.0
 11
187.455461
 21
39.578958
 31
0.0
  0
LINE
  5
445
100
AcDbEntity
  8
2
100
AcDbLine
 10
189.930461
 20
41.561101
 30
0.0
 11
189.930461
 21
39.578958
 31
0.0
  0
ARC
  5
446
100
AcDbEntity
  8
2
100
AcDbCircle
 10
187.573319
 20
39.600387
 30
0.0
 40
2.142857
100
AcDbArc
 50
180.0
 51
270.0
  0
ARC
  5
447
100
AcDbEntity
  8
2
100
AcDbCircle
 10
189.812604
 20
39.600387
 30
0.0
 40
2.142857
100
AcDbArc
 50
270.0
 51
360.0
  0
ARC
  5
448
100
AcDbEntity
  8
2
100
AcDbCircle
 10
187.573319
 20
41.539672
 30
0.0
 40
2.142857
100
AcDbArc
 50
90.0
 51
180.0
  0
ARC
  5
449
100
AcDbEntity
  8
2
100
AcDbCircle
 10
189.812604
 20
41.539672
 30
0.0
 40
2.142857
100
AcDbArc
 50
360.0
 51
90.0
  0
ARC
  5
44A
100
AcDbEntity
  8
2
100
AcDbCircle
 10
188.52689
 20
39.578958
 30
0.0
 40
1.071429
100
AcDbArc
 50
180.0
 51
270.0
  0
ARC
  5
44B
100
AcDbEntity
  8
2
100
AcDbCircle
 10
188.859033
 20
39.578958
 30
0.0
 40
1.071429
100
AcDbArc
 50
270.0
 51
360.0
  0
ARC
  5
44C
100
AcDbEntity
  8
2
100
AcDbCircle
 10
188.859033
 20
41.561101
 30
0.0
 40
1.071429
100
AcDbArc
 50
0.0
 51
90.0
  0
ARC
  5
44D
100
AcDbEntity
  8
2
100
AcDbCircle
 10
188.52689
 20
41.561101
 30
0.0
 40
1.071429
100
AcDbArc
 50
90.0
 51
180.0
  0
LINE
  5
44E
100
AcDbEntity
  8
2
100
AcDbLine
 10
182.055461
 20
37.457529
 30
0.0
 11
184.080461
 21
37.457529
 31
0.0
  0
LINE
  5
44F
100
AcDbEntity
  8
2
100
AcDbLine
 10
193.080461
 20
43.682529
 30
0.0
 11
192.630461
 21
37.457529
 31
0.0
  0
LINE
  5
450
100
AcDbEntity
  8
2
100
AcDbLine
 10
200.205461
 20
43.682529
 30
0.0
 11
200.655461
 21
37.457529
 31
0.0
  0
LINE
  5
451
100
AcDbEntity
  8
2
100
AcDbLine
 10
194.880461
 20
42.632529
 30
0.0
 11
194.655461
 21
37.457529
 31
0.0
  0
LINE
  5
452
100
AcDbEntity
  8
2
100
AcDbLine
 10
198.405461
 20
42.632529
 30
0.0
 11
198.630461
 21
37.457529
 31
0.0
  0
LINE
  5
453
100
AcDbEntity
  8
2
100
AcDbLine
 10
194.880461
 20
42.632529
 30
0.0
 11
195.844747
 21
37.457529
 31
0.0
  0
LINE
  5
454
100
AcDbEntity
  8
2
100
AcDbLine
 10
198.405461
 20
42.632529
 30
0.0
 11
197.441176
 21
37.457529
 31
0.0
  0
LINE
  5
455
100
AcDbEntity
  8
2
100
AcDbLine
 10
196.642961
 20
39.953958
 30
0.0
 11
195.948197
 21
43.682529
 31
0.0
  0
LINE
  5
456
100
AcDbEntity
  8
2
100
AcDbLine
 10
196.642961
 20
39.953958
 30
0.0
 11
197.337726
 21
43.682529
 31
0.0
  0
LINE
  5
457
100
AcDbEntity
  8
2
100
AcDbLine
 10
187.573319
 20
43.682529
 30
0.0
 11
189.812604
 21
43.682529
 31
0.0
  0
LINE
  5
458
100
AcDbEntity
  8
2
100
AcDbLine
 10
193.080461
 20
43.682529
 30
0.0
 11
195.948197
 21
43.682529
 31
0.0
  0
LINE
  5
459
100
AcDbEntity
  8
2
100
AcDbLine
 10
187.573319
 20
37.457529
 30
0.0
 11
189.812604
 21
37.457529
 31
0.0
  0
LINE
  5
45A
100
AcDbEntity
  8
2
100
AcDbLine
 10
192.630461
 20
37.457529
 30
0.0
 11
194.655461
 21
37.457529
 31
0.0
  0
LINE
  5
45B
100
AcDbEntity
  8
2
100
AcDbLine
 10
195.844747
 20
37.457529
 30
0.0
 11
197.441176
 21
37.457529
 31
0.0
  0
ARC
  5
45C
100
AcDbEntity
  8
2
100
AcDbCircle
 10
203.473319
 20
39.600387
 30
0.0
 40
2.142857
100
AcDbArc
 50
180.0
 51
270.0
  0
ARC
  5
45D
100
AcDbEntity
  8
2
100
AcDbCircle
 10
205.712604
 20
39.600387
 30
0.0
 40
2.142857
100
AcDbArc
 50
270.0
 51
360.0
  0
ARC
  5
45E
100
AcDbEntity
  8
2
100
AcDbCircle
 10
204.759033
 20
39.578958
 30
0.0
 40
1.071429
100
AcDbArc
 50
270.0
 51
360.0
  0
LINE
  5
45F
100
AcDbEntity
  8
2
100
AcDbLine
 10
205.830461
 20
41.561101
 30
0.0
 11
205.830461
 21
39.578958
 31
0.0
  0
ARC
  5
460
100
AcDbEntity
  8
2
100
AcDbCircle
 10
204.42689
 20
39.578958
 30
0.0
 40
1.071429
100
AcDbArc
 50
180.0
 51
270.0
  0
LINE
  5
461
100
AcDbEntity
  8
2
100
AcDbLine
 10
203.355461
 20
41.561101
 30
0.0
 11
203.355461
 21
39.578958
 31
0.0
  0
ARC
  5
462
100
AcDbEntity
  8
2
100
AcDbCircle
 10
204.759033
 20
41.561101
 30
0.0
 40
1.071429
100
AcDbArc
 50
0.0
 51
90.0
  0
ARC
  5
463
100
AcDbEntity
  8
2
100
AcDbCircle
 10
204.42689
 20
41.561101
 30
0.0
 40
1.071429
100
AcDbArc
 50
90.0
 51
180.0
  0
ARC
  5
464
100
AcDbEntity
  8
2
100
AcDbCircle
 10
203.473319
 20
41.539672
 30
0.0
 40
2.142857
100
AcDbArc
 50
90.0
 51
180.0
  0
ARC
  5
465
100
AcDbEntity
  8
2
100
AcDbCircle
 10
205.712604
 20
41.539672
 30
0.0
 40
2.142857
100
AcDbArc
 50
360.0
 51
90.0
  0
LINE
  5
466
100
AcDbEntity
  8
2
100
AcDbLine
 10
207.855461
 20
41.539672
 30
0.0
 11
207.855461
 21
39.600387
 31
0.0
  0
LINE
  5
467
100
AcDbEntity
  8
2
100
AcDbLine
 10
188.859033
 20
42.632529
 30
0.0
 11
188.52689
 21
42.632529
 31
0.0
  0
LINE
  5
468
100
AcDbEntity
  8
2
100
AcDbLine
 10
188.859033
 20
38.507529
 30
0.0
 11
188.52689
 21
38.507529
 31
0.0
  0
LINE
  5
469
100
AcDbEntity
  8
2
100
AcDbLine
 10
204.42689
 20
42.632529
 30
0.0
 11
204.759033
 21
42.632529
 31
0.0
  0
LINE
  5
46A
100
AcDbEntity
  8
2
100
AcDbLine
 10
201.330461
 20
41.539672
 30
0.0
 11
201.330461
 21
39.600387
 31
0.0
  0
LINE
  5
46B
100
AcDbEntity
  8
2
100
AcDbLine
 10
197.337726
 20
43.682529
 30
0.0
 11
200.205461
 21
43.682529
 31
0.0
  0
LINE
  5
46C
100
AcDbEntity
  8
2
100
AcDbLine
 10
203.473319
 20
43.682529
 30
0.0
 11
205.712604
 21
43.682529
 31
0.0
  0
LINE
  5
46D
100
AcDbEntity
  8
2
100
AcDbLine
 10
198.630461
 20
37.457529
 30
0.0
 11
200.655461
 21
37.457529
 31
0.0
  0
LINE
  5
46E
100
AcDbEntity
  8
2
100
AcDbLine
 10
203.473319
 20
37.457529
 30
0.0
 11
205.712604
 21
37.457529
 31
0.0
  0
LINE
  5
46F
100
AcDbEntity
  8
2
100
AcDbLine
 10
208.755461
 20
43.532529
 30
0.0
 11
208.755461
 21
37.607529
 31
0.0
  0
LINE
  5
470
100
AcDbEntity
  8
2
100
AcDbLine
 10
208.755461
 20
43.532529
 30
0.0
 11
213.630461
 21
43.532529
 31
0.0
  0
LINE
  5
471
100
AcDbEntity
  8
2
100
AcDbLine
 10
208.755461
 20
37.607529
 30
0.0
 11
213.630461
 21
37.607529
 31
0.0
  0
LINE
  5
472
100
AcDbEntity
  8
2
100
AcDbLine
 10
210.780461
 20
38.732529
 30
0.0
 11
213.630461
 21
38.732529
 31
0.0
  0
LINE
  5
473
100
AcDbEntity
  8
2
100
AcDbLine
 10
210.780461
 20
42.407529
 30
0.0
 11
213.630461
 21
42.407529
 31
0.0
  0
LINE
  5
474
100
AcDbEntity
  8
2
100
AcDbLine
 10
210.780461
 20
40.007529
 30
0.0
 11
213.630461
 21
40.007529
 31
0.0
  0
LINE
  5
475
100
AcDbEntity
  8
2
100
AcDbLine
 10
210.780461
 20
41.132529
 30
0.0
 11
213.630461
 21
41.132529
 31
0.0
  0
LINE
  5
476
100
AcDbEntity
  8
2
100
AcDbLine
 10
213.630461
 20
42.407529
 30
0.0
 11
213.630461
 21
43.532529
 31
0.0
  0
LINE
  5
477
100
AcDbEntity
  8
2
100
AcDbLine
 10
213.630461
 20
37.607529
 30
0.0
 11
213.630461
 21
38.732529
 31
0.0
  0
LINE
  5
478
100
AcDbEntity
  8
2
100
AcDbLine
 10
213.630461
 20
40.007529
 30
0.0
 11
213.630461
 21
41.132529
 31
0.0
  0
LINE
  5
479
100
AcDbEntity
  8
2
100
AcDbLine
 10
210.780461
 20
38.732529
 30
0.0
 11
210.780461
 21
40.007529
 31
0.0
  0
LINE
  5
47A
100
AcDbEntity
  8
2
100
AcDbLine
 10
210.780461
 20
41.132529
 30
0.0
 11
210.780461
 21
42.407529
 31
0.0
  0
LINE
  5
47B
100
AcDbEntity
  8
2
100
AcDbLine
 10
179.430461
 20
42.407529
 30
0.0
 11
184.080461
 21
42.407529
 31
0.0
  0
LINE
  5
47C
100
AcDbEntity
  8
2
100
AcDbLine
 10
182.055461
 20
44.957529
 30
0.0
 11
182.055461
 21
37.457529
 31
0.0
  0
LINE
  5
47D
100
AcDbEntity
  8
2
100
AcDbLine
 10
179.430461
 20
41.132529
 30
0.0
 11
187.305461
 21
44.957529
 31
0.0
  0
LINE
  5
47E
100
AcDbEntity
  8
2
100
AcDbLine
 10
179.430461
 20
44.957529
 30
0.0
 11
179.430461
 21
41.132529
 31
0.0
  0
LINE
  5
47F
100
AcDbEntity
  8
2
100
AcDbLine
 10
179.430461
 20
42.407529
 30
0.0
 11
184.680461
 21
44.957529
 31
0.0
  0
LINE
  5
480
100
AcDbEntity
  8
2
100
AcDbLine
 10
179.430461
 20
44.957529
 30
0.0
 11
187.305461
 21
44.957529
 31
0.0
  0
LINE
  5
481
100
AcDbEntity
  8
2
100
AcDbLine
 10
179.430461
 20
43.682529
 30
0.0
 11
184.680461
 21
43.682529
 31
0.0
  0
LINE
  5
482
100
AcDbEntity
  8
2
100
AcDbLine
 10
204.42689
 20
38.507529
 30
0.0
 11
204.759033
 21
38.507529
 31
0.0
  0
LINE
  5
483
100
AcDbEntity
  8
2
100
AcDbLine
 10
267.642961
 20
9.207529
 30
0.0
 11
267.642961
 21
30.707529
 31
0.0
  0
LINE
  5
484
100
AcDbEntity
  8
2
100
AcDbLine
 10
267.642961
 20
40.207529
 30
0.0
 11
267.642961
 21
95.207529
 31
0.0
  0
ARC
  5
485
100
AcDbEntity
  8
2
100
AcDbCircle
 10
-496.607039
 20
53.207529
 30
0.0
 40
150.0
100
AcDbArc
 50
344.131079
 51
16.484205
  0
ARC
  5
486
100
AcDbEntity
  8
2
100
AcDbCircle
 10
-505.607039
 20
48.207529
 30
0.0
 40
130.0
100
AcDbArc
 50
167.770243
 51
192.709033
  0
LINE
  5
487
100
AcDbEntity
  8
2
100
AcDbLine
 10
-605.430334
 20
99.31769
 30
0.0
 11
-380.54601
 21
115.043134
 31
0.0
  0
ARC
  5
488
100
AcDbEntity
  8
2
100
AcDbCircle
 10
-603.33764
 20
69.390769
 30
0.0
 40
30.0
100
AcDbArc
 50
94.0
 51
167.770243
  0
ARC
  5
489
100
AcDbEntity
  8
2
100
AcDbCircle
 10
-603.157026
 20
26.207529
 30
0.0
 40
30.0
100
AcDbArc
 50
192.709033
 51
270.0
  0
ARC
  5
48A
100
AcDbEntity
  8
2
100
AcDbCircle
 10
-378.662586
 20
88.108905
 30
0.0
 40
27.0
100
AcDbArc
 50
16.484205
 51
94.0
  0
ARC
  5
48B
100
AcDbEntity
  8
2
100
AcDbCircle
 10
-373.485148
 20
18.207529
 30
0.0
 40
22.0
100
AcDbArc
 50
270.0
 51
344.131079
  0
CIRCLE
  5
48C
100
AcDbEntity
  8
2
100
AcDbCircle
 10
-406.607039
 20
53.207529
 30
0.0
 40
50.0
  0
CIRCLE
  5
48D
100
AcDbEntity
  8
2
100
AcDbCircle
 10
-406.607039
 20
53.207529
 30
0.0
 40
32.5
  0
ARC
  5
48E
100
AcDbEntity
  8
2
100
AcDbCircle
 10
-382.607039
 20
124.207529
 30
0.0
 40
1.0
100
AcDbArc
 50
360.0
 51
90.0
  0
ARC
  5
48F
100
AcDbEntity
  8
2
100
AcDbCircle
 10
-382.607039
 20
126.207529
 30
0.0
 40
1.0
100
AcDbArc
 50
180.0
 51
270.0
  0
LINE
  5
490
100
AcDbEntity
  8
2
100
AcDbLine
 10
-511.107039
 20
149.207529
 30
0.0
 11
-426.107039
 21
149.207529
 31
0.0
  0
LINE
  5
491
100
AcDbEntity
  8
2
100
AcDbLine
 10
-426.107039
 20
150.407529
 30
0.0
 11
-426.107039
 21
147.207529
 31
0.0
  0
LINE
  5
492
100
AcDbEntity
  8
2
100
AcDbLine
 10
-511.107039
 20
150.407529
 30
0.0
 11
-511.107039
 21
147.207529
 31
0.0
  0
LINE
  5
493
100
AcDbEntity
  8
2
100
AcDbLine
 10
-470.607039
 20
158.707529
 30
0.0
 11
-470.607039
 21
150.407529
 31
0.0
  0
LINE
  5
494
100
AcDbEntity
  8
2
100
AcDbLine
 10
-466.607039
 20
158.707529
 30
0.0
 11
-466.607039
 21
150.407529
 31
0.0
  0
CIRCLE
  5
495
100
AcDbEntity
  8
2
100
AcDbCircle
 10
-468.607039
 20
444.707529
 30
0.0
 40
42.5
  0
LINE
  5
496
100
AcDbEntity
  8
2
100
AcDbLine
 10
-499.029234
 20
452.207529
 30
0.0
 11
-478.091991
 21
452.207529
 31
0.0
  0
LINE
  5
497
100
AcDbEntity
  8
2
100
AcDbLine
 10
-499.029234
 20
437.207529
 30
0.0
 11
-478.091991
 21
437.207529
 31
0.0
  0
LINE
  5
498
100
AcDbEntity
  8
2
100
AcDbLine
 10
-459.122086
 20
437.207529
 30
0.0
 11
-438.184843
 21
437.207529
 31
0.0
  0
LINE
  5
499
100
AcDbEntity
  8
2
100
AcDbLine
 10
-466.607039
 20
422.685054
 30
0.0
 11
-466.607039
 21
420.541437
 31
0.0
  0
LINE
  5
49A
100
AcDbEntity
  8
2
100
AcDbLine
 10
-470.607039
 20
422.685054
 30
0.0
 11
-470.607039
 21
420.541437
 31
0.0
  0
LINE
  5
49B
100
AcDbEntity
  8
2
100
AcDbLine
 10
-466.607039
 20
466.730004
 30
0.0
 11
-466.607039
 21
468.873621
 31
0.0
  0
LINE
  5
49C
100
AcDbEntity
  8
2
100
AcDbLine
 10
-470.607039
 20
466.730004
 30
0.0
 11
-470.607039
 21
468.873621
 31
0.0
  0
LINE
  5
49D
100
AcDbEntity
  8
2
100
AcDbLine
 10
-459.122086
 20
452.207529
 30
0.0
 11
-438.184843
 21
452.207529
 31
0.0
  0
LINE
  5
49E
100
AcDbEntity
  8
2
100
AcDbLine
 10
-539.335425
 20
138.943691
 30
0.0
 11
-552.40864
 21
103.025328
 31
0.0
  0
ARC
  5
49F
100
AcDbEntity
  8
2
100
AcDbCircle
 10
-531.817884
 20
136.207529
 30
0.0
 40
8.0
100
AcDbArc
 50
90.0
 51
160.0
  0
LINE
  5
4A0
100
AcDbEntity
  8
2
100
AcDbLine
 10
-383.607039
 20
127.207529
 30
0.0
 11
-384.615165
 21
138.730464
 31
0.0
  0
ARC
  5
4A1
100
AcDbEntity
  8
2
100
AcDbCircle
 10
-390.592333
 20
138.207529
 30
0.0
 40
6.0
100
AcDbArc
 50
5.0
 51
90.0
  0
LINE
  5
4A2
100
AcDbEntity
  8
2
100
AcDbLine
 10
-390.592333
 20
144.207529
 30
0.0
 11
-531.817884
 21
144.207529
 31
0.0
  0
LINE
  5
4A3
100
AcDbEntity
  8
2
100
AcDbLine
 10
-385.094346
 20
411.707529
 30
0.0
 11
-385.094346
 21
483.707529
 31
0.0
  0
LINE
  5
4A4
100
AcDbEntity
  8
2
100
AcDbLine
 10
-537.419545
 20
411.707529
 30
0.0
 11
-537.419545
 21
483.707529
 31
0.0
  0
LINE
  5
4A5
100
AcDbEntity
  8
2
100
AcDbLine
 10
-541.607039
 20
485.707529
 30
0.0
 11
-535.607039
 21
485.707529
 31
0.0
  0
LINE
  5
4A6
100
AcDbEntity
  8
2
100
AcDbLine
 10
-389.607039
 20
485.707529
 30
0.0
 11
-385.607039
 21
485.707529
 31
0.0
  0
LINE
  5
4A7
100
AcDbEntity
  8
2
100
AcDbLine
 10
-529.607039
 20
399.707529
 30
0.0
 11
-529.607039
 21
403.707529
 31
0.0
  0
LINE
  5
4A8
100
AcDbEntity
  8
2
100
AcDbLine
 10
-529.607039
 20
491.707529
 30
0.0
 11
-529.607039
 21
495.707529
 31
0.0
  0
LINE
  5
4A9
100
AcDbEntity
  8
2
100
AcDbLine
 10
-541.607039
 20
409.707529
 30
0.0
 11
-535.607039
 21
409.707529
 31
0.0
  0
LINE
  5
4AA
100
AcDbEntity
  8
2
100
AcDbLine
 10
-389.607039
 20
409.707529
 30
0.0
 11
-385.607039
 21
409.707529
 31
0.0
  0
LINE
  5
4AB
100
AcDbEntity
  8
2
100
AcDbLine
 10
-395.607039
 20
399.707529
 30
0.0
 11
-395.607039
 21
403.707529
 31
0.0
  0
LINE
  5
4AC
100
AcDbEntity
  8
2
100
AcDbLine
 10
-395.607039
 20
491.707529
 30
0.0
 11
-395.607039
 21
495.707529
 31
0.0
  0
ARC
  5
4AD
100
AcDbEntity
  8
2
100
AcDbCircle
 10
-389.607039
 20
491.707529
 30
0.0
 40
6.0
100
AcDbArc
 50
180.0
 51
270.0
  0
ARC
  5
4AE
100
AcDbEntity
  8
2
100
AcDbCircle
 10
-535.607039
 20
491.707529
 30
0.0
 40
6.0
100
AcDbArc
 50
270.0
 51
360.0
  0
ARC
  5
4AF
100
AcDbEntity
  8
2
100
AcDbCircle
 10
-535.607039
 20
403.707529
 30
0.0
 40
6.0
100
AcDbArc
 50
0.0
 51
90.0
  0
ARC
  5
4B0
100
AcDbEntity
  8
2
100
AcDbCircle
 10
-389.607039
 20
403.707529
 30
0.0
 40
6.0
100
AcDbArc
 50
90.0
 51
180.0
  0
LINE
  5
4B1
100
AcDbEntity
  8
2
100
AcDbLine
 10
-527.607039
 20
496.220529
 30
0.0
 11
-397.607039
 21
496.220529
 31
0.0
  0
LINE
  5
4B2
100
AcDbEntity
  8
2
100
AcDbLine
 10
-527.607039
 20
399.194529
 30
0.0
 11
-397.607039
 21
399.194529
 31
0.0
  0
LINE
  5
4B3
100
AcDbEntity
  8
2
100
AcDbLine
 10
-395.607039
 20
141.207529
 30
0.0
 11
-395.607039
 21
132.707529
 31
0.0
  0
LINE
  5
4B4
100
AcDbEntity
  8
2
100
AcDbLine
 10
-529.607039
 20
141.207529
 30
0.0
 11
-529.607039
 21
132.707529
 31
0.0
  0
LINE
  5
4B5
100
AcDbEntity
  8
2
100
AcDbLine
 10
-541.437084
 20
132.207529
 30
0.0
 11
-530.107039
 21
132.207529
 31
0.0
  0
LINE
  5
4B6
100
AcDbEntity
  8
2
100
AcDbLine
 10
-395.107039
 20
132.207529
 30
0.0
 11
-384.502648
 21
132.207529
 31
0.0
  0
ARC
  5
4B7
100
AcDbEntity
  8
2
100
AcDbCircle
 10
-530.107039
 20
132.707529
 30
0.0
 40
0.5
100
AcDbArc
 50
270.0
 51
360.0
  0
ARC
  5
4B8
100
AcDbEntity
  8
2
100
AcDbCircle
 10
-395.107039
 20
132.707529
 30
0.0
 40
0.5
100
AcDbArc
 50
180.0
 51
270.0
  0
ARC
  5
4B9
100
AcDbEntity
  8
2
100
AcDbCircle
 10
-384.502648
 20
131.707529
 30
0.0
 40
0.5
100
AcDbArc
 50
5.0
 51
90.0
  0
ARC
  5
4BA
100
AcDbEntity
  8
2
100
AcDbCircle
 10
-541.437084
 20
131.707529
 30
0.0
 40
0.5
100
AcDbArc
 50
90.0
 51
160.0
  0
ARC
  5
4BB
100
AcDbEntity
  8
2
100
AcDbCircle
 10
-398.607039
 20
141.207529
 30
0.0
 40
3.0
100
AcDbArc
 50
0.0
 51
90.0
  0
ARC
  5
4BC
100
AcDbEntity
  8
2
100
AcDbCircle
 10
-526.607039
 20
141.207529
 30
0.0
 40
3.0
100
AcDbArc
 50
90.0
 51
180.0
  0
ARC
  5
4BD
100
AcDbEntity
  8
2
100
AcDbCircle
 10
-423.107039
 20
147.207529
 30
0.0
 40
3.0
100
AcDbArc
 50
180.0
 51
270.0
  0
ARC
  5
4BE
100
AcDbEntity
  8
2
100
AcDbCircle
 10
-514.107039
 20
147.207529
 30
0.0
 40
3.0
100
AcDbArc
 50
270.0
 51
360.0
  0
ARC
  5
4BF
100
AcDbEntity
  8
2
100
AcDbCircle
 10
-468.607039
 20
137.207529
 30
0.0
 40
34.0
100
AcDbArc
 50
22.844739
 51
157.155261
  0
CIRCLE
  5
4C0
100
AcDbEntity
  8
2
100
AcDbCircle
 10
-468.607039
 20
444.707529
 30
0.0
 40
31.33305
  0
ARC
  5
4C1
100
AcDbEntity
  8
2
100
AcDbCircle
 10
-506.031648
 20
445.034378
 30
0.0
 40
45.0
100
AcDbArc
 50
12.236103
 51
30.645688
  0
ARC
  5
4C2
100
AcDbEntity
  8
2
100
AcDbCircle
 10
-431.182429
 20
445.034378
 30
0.0
 40
45.0
100
AcDbArc
 50
149.354312
 51
167.763897
  0
ARC
  5
4C3
100
AcDbEntity
  8
2
100
AcDbCircle
 10
-468.607039
 20
467.207529
 30
0.0
 40
1.5
100
AcDbArc
 50
30.645688
 51
149.354312
  0
ARC
  5
4C4
100
AcDbEntity
  8
2
100
AcDbCircle
 10
-459.122086
 20
455.207529
 30
0.0
 40
3.0
100
AcDbArc
 50
192.236103
 51
270.0
  0
ARC
  5
4C5
100
AcDbEntity
  8
2
100
AcDbCircle
 10
-478.091991
 20
455.207529
 30
0.0
 40
3.0
100
AcDbArc
 50
270.0
 51
347.763897
  0
ARC
  5
4C6
100
AcDbEntity
  8
2
100
AcDbCircle
 10
-506.031648
 20
444.38068
 30
0.0
 40
45.0
100
AcDbArc
 50
329.354312
 51
347.763897
  0
ARC
  5
4C7
100
AcDbEntity
  8
2
100
AcDbCircle
 10
-431.182429
 20
444.38068
 30
0.0
 40
45.0
100
AcDbArc
 50
192.236103
 51
210.645688
  0
ARC
  5
4C8
100
AcDbEntity
  8
2
100
AcDbCircle
 10
-468.607039
 20
422.207529
 30
0.0
 40
1.5
100
AcDbArc
 50
210.645688
 51
329.354312
  0
ARC
  5
4C9
100
AcDbEntity
  8
2
100
AcDbCircle
 10
-459.122086
 20
434.207529
 30
0.0
 40
3.0
100
AcDbArc
 50
90.0
 51
167.763897
  0
ARC
  5
4CA
100
AcDbEntity
  8
2
100
AcDbCircle
 10
-478.091991
 20
434.207529
 30
0.0
 40
3.0
100
AcDbArc
 50
12.236103
 51
90.0
  0
ARC
  5
4CB
100
AcDbEntity
  8
2
100
AcDbCircle
 10
-468.607039
 20
444.707529
 30
0.0
 40
24.248711
100
AcDbArc
 50
18.016736
 51
161.983264
  0
ARC
  5
4CC
100
AcDbEntity
  8
2
100
AcDbCircle
 10
-468.607039
 20
444.707529
 30
0.0
 40
24.248711
100
AcDbArc
 50
198.016736
 51
341.983264
  0
ARC
  5
4CD
100
AcDbEntity
  8
2
100
AcDbCircle
 10
-385.607039
 20
483.707529
 30
0.0
 40
2.0
100
AcDbArc
 50
0.0
 51
90.0
  0
ARC
  5
4CE
100
AcDbEntity
  8
2
100
AcDbCircle
 10
-397.607039
 20
495.707529
 30
0.0
 40
2.0
100
AcDbArc
 50
0.0
 51
90.0
  0
ARC
  5
4CF
100
AcDbEntity
  8
2
100
AcDbCircle
 10
-385.607039
 20
411.707529
 30
0.0
 40
2.0
100
AcDbArc
 50
270.0
 51
360.0
  0
ARC
  5
4D0
100
AcDbEntity
  8
2
100
AcDbCircle
 10
-397.607039
 20
399.707529
 30
0.0
 40
2.0
100
AcDbArc
 50
270.0
 51
360.0
  0
ARC
  5
4D1
100
AcDbEntity
  8
2
100
AcDbCircle
 10
-527.607039
 20
399.707529
 30
0.0
 40
2.0
100
AcDbArc
 50
180.0
 51
270.0
  0
ARC
  5
4D2
100
AcDbEntity
  8
2
100
AcDbCircle
 10
-541.607039
 20
411.707529
 30
0.0
 40
2.0
100
AcDbArc
 50
180.0
 51
270.0
  0
ARC
  5
4D3
100
AcDbEntity
  8
2
100
AcDbCircle
 10
-527.607039
 20
495.707529
 30
0.0
 40
2.0
100
AcDbArc
 50
90.0
 51
180.0
  0
ARC
  5
4D4
100
AcDbEntity
  8
2
100
AcDbCircle
 10
-541.607039
 20
483.707529
 30
0.0
 40
2.0
100
AcDbArc
 50
90.0
 51
180.0
  0
ARC
  5
4D5
100
AcDbEntity
  8
2
100
AcDbCircle
 10
-468.607039
 20
135.707529
 30
0.0
 40
28.0
100
AcDbArc
 50
34.712682
 51
81.884254
  0
ARC
  5
4D6
100
AcDbEntity
  8
2
100
AcDbCircle
 10
-468.607039
 20
135.707529
 30
0.0
 40
28.0
100
AcDbArc
 50
98.115746
 51
145.287318
  0
ARC
  5
4D7
100
AcDbEntity
  8
2
100
AcDbCircle
 10
-469.607039
 20
158.707529
 30
0.0
 40
1.0
100
AcDbArc
 50
90.0
 51
180.0
  0
ARC
  5
4D8
100
AcDbEntity
  8
2
100
AcDbCircle
 10
-467.607039
 20
158.707529
 30
0.0
 40
1.0
100
AcDbArc
 50
0.0
 51
90.0
  0
LINE
  5
4D9
100
AcDbEntity
  8
2
100
AcDbLine
 10
-469.607039
 20
159.707529
 30
0.0
 11
-469.242272
 21
159.707534
 31
0.0
  0
LINE
  5
4DA
100
AcDbEntity
  8
2
100
AcDbLine
 10
-467.971572
 20
159.707643
 30
0.0
 11
-467.607039
 21
159.707529
 31
0.0
  0
LINE
  5
4DB
100
AcDbEntity
  8
2
100
AcDbLine
 10
-477.422706
 20
422.118063
 30
0.0
 11
-475.423837
 21
426.943759
 31
0.0
  0
LINE
  5
4DC
100
AcDbEntity
  8
2
100
AcDbLine
 10
-460.866361
 20
462.088616
 30
0.0
 11
-458.867492
 21
466.914313
 31
0.0
  0
LINE
  5
4DD
100
AcDbEntity
  8
2
100
AcDbLine
 10
-478.346586
 20
422.500746
 30
0.0
 11
-476.347716
 21
427.326443
 31
0.0
  0
LINE
  5
4DE
100
AcDbEntity
  8
2
100
AcDbLine
 10
-461.79024
 20
462.471299
 30
0.0
 11
-459.791371
 21
467.296996
 31
0.0
  0
LINE
  5
4DF
100
AcDbEntity
  8
2
100
AcDbLine
 10
-485.396268
 20
427.211193
 30
0.0
 11
-481.702839
 21
430.904622
 31
0.0
  0
LINE
  5
4E0
100
AcDbEntity
  8
2
100
AcDbLine
 10
-454.804131
 20
457.80333
 30
0.0
 11
-451.110703
 21
461.496759
 31
0.0
  0
LINE
  5
4E1
100
AcDbEntity
  8
2
100
AcDbLine
 10
-486.103375
 20
427.9183
 30
0.0
 11
-482.409946
 21
431.611729
 31
0.0
  0
LINE
  5
4E2
100
AcDbEntity
  8
2
100
AcDbLine
 10
-455.511238
 20
458.510437
 30
0.0
 11
-451.817809
 21
462.203865
 31
0.0
  0
LINE
  5
4E3
100
AcDbEntity
  8
2
100
AcDbLine
 10
-490.813822
 20
434.967982
 30
0.0
 11
-485.988125
 21
436.966852
 31
0.0
  0
LINE
  5
4E4
100
AcDbEntity
  8
2
100
AcDbLine
 10
-449.193874
 20
452.207529
 30
0.0
 11
-446.017572
 21
453.523197
 31
0.0
  0
LINE
  5
4E5
100
AcDbEntity
  8
2
100
AcDbLine
 10
-491.196505
 20
435.891862
 30
0.0
 11
-488.020203
 21
437.207529
 31
0.0
  0
LINE
  5
4E6
100
AcDbEntity
  8
2
100
AcDbLine
 10
-451.225952
 20
452.448207
 30
0.0
 11
-446.400255
 21
454.447076
 31
0.0
  0
ARC
  5
4E7
100
AcDbEntity
  8
2
100
AcDbCircle
 10
-475.885777
 20
427.135101
 30
0.0
 40
0.5
100
AcDbArc
 50
337.5
 51
157.5
  0
ARC
  5
4E8
100
AcDbEntity
  8
2
100
AcDbCircle
 10
-482.056393
 20
431.258175
 30
0.0
 40
0.5
100
AcDbArc
 50
315.0
 51
135.0
  0
ARC
  5
4E9
100
AcDbEntity
  8
2
100
AcDbCircle
 10
-486.179467
 20
437.428791
 30
0.0
 40
0.5
100
AcDbArc
 50
292.5
 51
333.734975
  0
ARC
  5
4EA
100
AcDbEntity
  8
2
100
AcDbCircle
 10
-461.328301
 20
462.279958
 30
0.0
 40
0.5
100
AcDbArc
 50
157.5
 51
337.5
  0
ARC
  5
4EB
100
AcDbEntity
  8
2
100
AcDbCircle
 10
-455.157684
 20
458.156884
 30
0.0
 40
0.5
100
AcDbArc
 50
135.0
 51
315.0
  0
ARC
  5
4EC
100
AcDbEntity
  8
2
100
AcDbCircle
 10
-451.03461
 20
451.986267
 30
0.0
 40
0.5
100
AcDbArc
 50
112.5
 51
153.734975
  0
LINE
  5
4ED
100
AcDbEntity
  8
2
100
AcDbLine
 10
-451.805674
 20
435.853835
 30
0.0
 11
-449.783629
 21
435.016277
 31
0.0
  0
ARC
  5
4EE
100
AcDbEntity
  8
2
100
AcDbCircle
 10
-451.135923
 20
437.470756
 30
0.0
 40
1.750143
100
AcDbArc
 50
188.650293
 51
247.5
  0
ARC
  5
4EF
100
AcDbEntity
  8
2
100
AcDbCircle
 10
-449.113878
 20
436.633198
 30
0.0
 40
1.750143
100
AcDbArc
 50
247.5
 51
19.157293
  0
LINE
  5
4F0
100
AcDbEntity
  8
2
100
AcDbLine
 10
-485.408403
 20
453.561224
 30
0.0
 11
-487.430449
 21
454.398782
 31
0.0
  0
ARC
  5
4F1
100
AcDbEntity
  8
2
100
AcDbCircle
 10
-486.078154
 20
451.944302
 30
0.0
 40
1.750143
100
AcDbArc
 50
8.650293
 51
67.5
  0
ARC
  5
4F2
100
AcDbEntity
  8
2
100
AcDbCircle
 10
-488.100199
 20
452.781861
 30
0.0
 40
1.750143
100
AcDbArc
 50
67.5
 51
199.157293
  0
ARC
  5
4F3
100
AcDbEntity
  8
2
100
AcDbCircle
 10
-433.206644
 20
139.973159
 30
0.0
 40
45.274917
100
AcDbArc
 50
159.10214
 51
166.675437
  0
ARC
  5
4F4
100
AcDbEntity
  8
2
100
AcDbCircle
 10
-434.130523
 20
139.973159
 30
0.0
 40
45.274917
100
AcDbArc
 50
158.681079
 51
166.675437
  0
ARC
  5
4F5
100
AcDbEntity
  8
2
100
AcDbCircle
 10
-475.905876
 20
156.276582
 30
0.0
 40
0.430947
100
AcDbArc
 50
339.10214
 51
158.681079
  0
ARC
  5
4F6
100
AcDbEntity
  8
2
100
AcDbCircle
 10
-457.17711
 20
138.206277
 30
0.0
 40
30.472934
100
AcDbArc
 50
143.677597
 51
156.39704
  0
ARC
  5
4F7
100
AcDbEntity
  8
2
100
AcDbCircle
 10
-457.884217
 20
138.206277
 30
0.0
 40
30.472934
100
AcDbArc
 50
142.882669
 51
156.39704
  0
ARC
  5
4F8
100
AcDbEntity
  8
2
100
AcDbCircle
 10
-481.957391
 20
156.424125
 30
0.0
 40
0.283404
100
AcDbArc
 50
323.677597
 51
142.882669
  0
ARC
  5
4F9
100
AcDbEntity
  8
2
100
AcDbCircle
 10
-465.932697
 20
136.439396
 30
0.0
 40
28.197761
100
AcDbArc
 50
134.711482
 51
150.306296
  0
ARC
  5
4FA
100
AcDbEntity
  8
2
100
AcDbCircle
 10
-466.315381
 20
136.439396
 30
0.0
 40
28.197761
100
AcDbArc
 50
134.156238
 51
150.306296
  0
ARC
  5
4FB
100
AcDbEntity
  8
2
100
AcDbCircle
 10
-485.865113
 20
156.573572
 30
0.0
 40
0.133957
100
AcDbArc
 50
314.711482
 51
134.156238
  0
LINE
  5
4FC
100
AcDbEntity
  8
2
100
AcDbLine
 10
-426.107039
 20
150.407529
 30
0.0
 11
-511.107039
 21
150.407529
 31
0.0
  0
ARC
  5
4FD
100
AcDbEntity
  8
2
100
AcDbCircle
 10
-468.607039
 20
137.207529
 30
0.0
 40
33.162479
100
AcDbArc
 50
104.962752
 51
150.128593
  0
ARC
  5
4FE
100
AcDbEntity
  8
2
100
AcDbCircle
 10
-463.05249
 20
169.197392
 30
0.0
 40
10.0
100
AcDbArc
 50
202.238154
 51
227.992896
  0
ARC
  5
4FF
100
AcDbEntity
  8
2
100
AcDbCircle
 10
-476.394721
 20
166.347316
 30
0.0
 40
3.0
100
AcDbArc
 50
42.388379
 51
104.962752
  0
ARC
  5
500
100
AcDbEntity
  8
2
100
AcDbCircle
 10
-481.564865
 20
161.628247
 30
0.0
 40
10.0
100
AcDbArc
 50
22.238154
 51
42.388379
  0
ARC
  5
501
100
AcDbEntity
  8
2
100
AcDbCircle
 10
-474.161587
 20
169.197392
 30
0.0
 40
10.0
100
AcDbArc
 50
312.007104
 51
337.761846
  0
ARC
  5
502
100
AcDbEntity
  8
2
100
AcDbCircle
 10
-455.649212
 20
161.628247
 30
0.0
 40
10.0
100
AcDbArc
 50
137.611621
 51
157.761846
  0
ARC
  5
503
100
AcDbEntity
  8
2
100
AcDbCircle
 10
-460.819357
 20
166.347316
 30
0.0
 40
3.0
100
AcDbArc
 50
75.037248
 51
137.611621
  0
ARC
  5
504
100
AcDbEntity
  8
2
100
AcDbCircle
 10
-468.607039
 20
137.207529
 30
0.0
 40
33.162479
100
AcDbArc
 50
29.871407
 51
75.037248
  0
ARC
  5
505
100
AcDbEntity
  8
2
100
AcDbCircle
 10
-468.607039
 20
163.029979
 30
0.0
 40
1.7
100
AcDbArc
 50
227.992896
 51
312.007104
  0
ARC
  5
506
100
AcDbEntity
  8
2
100
AcDbCircle
 10
-468.132148
 20
136.384994
 30
0.0
 40
32.849358
100
AcDbArc
 50
105.470231
 51
147.621493
  0
ARC
  5
507
100
AcDbEntity
  8
2
100
AcDbCircle
 10
-462.098538
 20
169.30589
 30
0.0
 40
12.0
100
AcDbArc
 50
200.135943
 51
231.694293
  0
ARC
  5
508
100
AcDbEntity
  8
2
100
AcDbCircle
 10
-478.998351
 20
163.109413
 30
0.0
 40
6.0
100
AcDbArc
 50
20.135943
 51
48.747449
  0
ARC
  5
509
100
AcDbEntity
  8
2
100
AcDbCircle
 10
-476.360834
 20
166.116654
 30
0.0
 40
2.0
100
AcDbArc
 50
48.747449
 51
105.470231
  0
ARC
  5
50A
100
AcDbEntity
  8
2
100
AcDbCircle
 10
-475.115539
 20
169.30589
 30
0.0
 40
12.0
100
AcDbArc
 50
308.305707
 51
339.864057
  0
ARC
  5
50B
100
AcDbEntity
  8
2
100
AcDbCircle
 10
-458.215727
 20
163.109413
 30
0.0
 40
6.0
100
AcDbArc
 50
131.252551
 51
159.864057
  0
ARC
  5
50C
100
AcDbEntity
  8
2
100
AcDbCircle
 10
-460.853244
 20
166.116654
 30
0.0
 40
2.0
100
AcDbArc
 50
74.529769
 51
131.252551
  0
ARC
  5
50D
100
AcDbEntity
  8
2
100
AcDbCircle
 10
-469.08193
 20
136.384994
 30
0.0
 40
32.849358
100
AcDbArc
 50
32.378507
 51
74.529769
  0
ARC
  5
50E
100
AcDbEntity
  8
2
100
AcDbCircle
 10
-468.607039
 20
161.066386
 30
0.0
 40
1.5
100
AcDbArc
 50
231.694293
 51
308.305707
  0
LINE
  5
50F
100
AcDbEntity
  8
2
100
AcDbLine
 10
-540.207039
 20
133.507529
 30
0.0
 11
-540.207039
 21
132.207529
 31
0.0
  0
LINE
  5
510
100
AcDbEntity
  8
2
100
AcDbLine
 10
-531.007039
 20
133.507529
 30
0.0
 11
-531.007039
 21
132.207529
 31
0.0
  0
LINE
  5
511
100
AcDbEntity
  8
2
100
AcDbLine
 10
-540.207039
 20
133.507529
 30
0.0
 11
-531.007039
 21
133.507529
 31
0.0
  0
LINE
  5
512
100
AcDbEntity
  8
2
100
AcDbLine
 10
-540.107039
 20
134.795022
 30
0.0
 11
-540.107039
 21
133.507529
 31
0.0
  0
LINE
  5
513
100
AcDbEntity
  8
2
100
AcDbLine
 10
-531.107039
 20
134.795022
 30
0.0
 11
-531.107039
 21
133.507529
 31
0.0
  0
ARC
  5
514
100
AcDbEntity
  8
2
100
AcDbCircle
 10
-535.607039
 20
124.807529
 30
0.0
 40
12.0
100
AcDbArc
 50
73.808648
 51
106.191352
  0
ARC
  5
515
100
AcDbEntity
  8
2
100
AcDbCircle
 10
-538.507039
 20
134.795022
 30
0.0
 40
1.6
100
AcDbArc
 50
106.191352
 51
180.0
  0
ARC
  5
516
100
AcDbEntity
  8
2
100
AcDbCircle
 10
-532.707039
 20
134.795022
 30
0.0
 40
1.6
100
AcDbArc
 50
0.0
 51
73.808648
  0
LINE
  5
517
100
AcDbEntity
  8
2
100
AcDbLine
 10
-394.207039
 20
133.507529
 30
0.0
 11
-394.207039
 21
132.207529
 31
0.0
  0
LINE
  5
518
100
AcDbEntity
  8
2
100
AcDbLine
 10
-385.007039
 20
133.507529
 30
0.0
 11
-385.007039
 21
132.207529
 31
0.0
  0
LINE
  5
519
100
AcDbEntity
  8
2
100
AcDbLine
 10
-394.207039
 20
133.507529
 30
0.0
 11
-385.007039
 21
133.507529
 31
0.0
  0
LINE
  5
51A
100
AcDbEntity
  8
2
100
AcDbLine
 10
-394.107039
 20
134.795022
 30
0.0
 11
-394.107039
 21
133.507529
 31
0.0
  0
LINE
  5
51B
100
AcDbEntity
  8
2
100
AcDbLine
 10
-385.107039
 20
134.795022
 30
0.0
 11
-385.107039
 21
133.507529
 31
0.0
  0
ARC
  5
51C
100
AcDbEntity
  8
2
100
AcDbCircle
 10
-389.607039
 20
124.807529
 30
0.0
 40
12.0
100
AcDbArc
 50
73.808648
 51
106.191352
  0
ARC
  5
51D
100
AcDbEntity
  8
2
100
AcDbCircle
 10
-392.507039
 20
134.795022
 30
0.0
 40
1.6
100
AcDbArc
 50
106.191352
 51
180.0
  0
ARC
  5
51E
100
AcDbEntity
  8
2
100
AcDbCircle
 10
-386.707039
 20
134.795022
 30
0.0
 40
1.6
100
AcDbArc
 50
0.0
 51
73.808648
  0
CIRCLE
  5
51F
100
AcDbEntity
  8
2
100
AcDbCircle
 10
-389.607039
 20
403.707529
 30
0.0
 40
4.5
  0
CIRCLE
  5
520
100
AcDbEntity
  8
2
100
AcDbCircle
 10
-389.607039
 20
491.707529
 30
0.0
 40
4.5
  0
CIRCLE
  5
521
100
AcDbEntity
  8
2
100
AcDbCircle
 10
-535.607039
 20
403.707529
 30
0.0
 40
4.5
  0
CIRCLE
  5
522
100
AcDbEntity
  8
2
100
AcDbCircle
 10
-535.607039
 20
491.707529
 30
0.0
 40
4.5
  0
CIRCLE
  5
523
100
AcDbEntity
  8
2
100
AcDbCircle
 10
-442.090534
 20
418.191025
 30
0.0
 40
3.5
  0
CIRCLE
  5
524
100
AcDbEntity
  8
2
100
AcDbCircle
 10
-442.090534
 20
471.224034
 30
0.0
 40
3.5
  0
CIRCLE
  5
525
100
AcDbEntity
  8
2
100
AcDbCircle
 10
-495.123543
 20
418.191025
 30
0.0
 40
3.5
  0
CIRCLE
  5
526
100
AcDbEntity
  8
2
100
AcDbCircle
 10
-495.123543
 20
471.224034
 30
0.0
 40
3.5
  0
LINE
  5
527
100
AcDbEntity
  8
2
100
AcDbLine
 10
-438.290534
 20
151.407529
 30
0.0
 11
-445.890534
 21
151.407529
 31
0.0
  0
LINE
  5
528
100
AcDbEntity
  8
2
100
AcDbLine
 10
-438.290534
 20
151.407529
 30
0.0
 11
-438.290534
 21
150.407529
 31
0.0
  0
LINE
  5
529
100
AcDbEntity
  8
2
100
AcDbLine
 10
-445.890534
 20
151.407529
 30
0.0
 11
-445.890534
 21
150.407529
 31
0.0
  0
LINE
  5
52A
100
AcDbEntity
  8
2
100
AcDbLine
 10
-438.590534
 20
152.386554
 30
0.0
 11
-438.590534
 21
151.407529
 31
0.0
  0
LINE
  5
52B
100
AcDbEntity
  8
2
100
AcDbLine
 10
-445.590534
 20
152.386554
 30
0.0
 11
-445.590534
 21
151.407529
 31
0.0
  0
ARC
  5
52C
100
AcDbEntity
  8
2
100
AcDbCircle
 10
-442.090534
 20
145.007529
 30
0.0
 40
9.0
100
AcDbArc
 50
73.39845
 51
106.60155
  0
ARC
  5
52D
100
AcDbEntity
  8
2
100
AcDbCircle
 10
-439.890534
 20
152.386554
 30
0.0
 40
1.3
100
AcDbArc
 50
0.0
 51
73.39845
  0
ARC
  5
52E
100
AcDbEntity
  8
2
100
AcDbCircle
 10
-444.290534
 20
152.386554
 30
0.0
 40
1.3
100
AcDbArc
 50
106.60155
 51
180.0
  0
LINE
  5
52F
100
AcDbEntity
  8
2
100
AcDbLine
 10
-491.323543
 20
151.407529
 30
0.0
 11
-498.923543
 21
151.407529
 31
0.0
  0
LINE
  5
530
100
AcDbEntity
  8
2
100
AcDbLine
 10
-491.323543
 20
151.407529
 30
0.0
 11
-491.323543
 21
150.407529
 31
0.0
  0
LINE
  5
531
100
AcDbEntity
  8
2
100
AcDbLine
 10
-498.923543
 20
151.407529
 30
0.0
 11
-498.923543
 21
150.407529
 31
0.0
  0
LINE
  5
532
100
AcDbEntity
  8
2
100
AcDbLine
 10
-491.623543
 20
152.386554
 30
0.0
 11
-491.623543
 21
151.407529
 31
0.0
  0
LINE
  5
533
100
AcDbEntity
  8
2
100
AcDbLine
 10
-498.623543
 20
152.386554
 30
0.0
 11
-498.623543
 21
151.407529
 31
0.0
  0
ARC
  5
534
100
AcDbEntity
  8
2
100
AcDbCircle
 10
-495.123543
 20
145.007529
 30
0.0
 40
9.0
100
AcDbArc
 50
73.39845
 51
106.60155
  0
ARC
  5
535
100
AcDbEntity
  8
2
100
AcDbCircle
 10
-492.923543
 20
152.386554
 30
0.0
 40
1.3
100
AcDbArc
 50
0.0
 51
73.39845
  0
ARC
  5
536
100
AcDbEntity
  8
2
100
AcDbCircle
 10
-497.323543
 20
152.386554
 30
0.0
 40
1.3
100
AcDbArc
 50
106.60155
 51
180.0
  0
LINE
  5
537
100
AcDbEntity
  8
2
100
AcDbLine
 10
236.657667
 20
144.207529
 30
0.0
 11
150.628256
 21
144.207529
 31
0.0
  0
LINE
  5
538
100
AcDbEntity
  8
2
100
AcDbLine
 10
148.142961
 20
150.407529
 30
0.0
 11
148.142961
 21
145.342762
 31
0.0
  0
LINE
  5
539
100
AcDbEntity
  8
2
100
AcDbLine
 10
233.142961
 20
150.407529
 30
0.0
 11
233.142961
 21
147.207529
 31
0.0
  0
LINE
  5
53A
100
AcDbEntity
  8
2
100
AcDbLine
 10
148.142961
 20
149.207529
 30
0.0
 11
233.142961
 21
149.207529
 31
0.0
  0
LINE
  5
53B
100
AcDbEntity
  8
2
100
AcDbLine
 10
243.642961
 20
127.207529
 30
0.0
 11
242.634835
 21
138.730464
 31
0.0
  0
LINE
  5
53C
100
AcDbEntity
  8
2
100
AcDbLine
 10
143.642961
 20
127.207529
 30
0.0
 11
144.651088
 21
138.730464
 31
0.0
  0
ARC
  5
53D
100
AcDbEntity
  8
2
100
AcDbCircle
 10
236.657667
 20
138.207529
 30
0.0
 40
6.0
100
AcDbArc
 50
5.0
 51
90.0
  0
ARC
  5
53E
100
AcDbEntity
  8
2
100
AcDbCircle
 10
150.628256
 20
138.207529
 30
0.0
 40
6.0
100
AcDbArc
 50
90.0
 51
175.0
  0
ARC
  5
53F
100
AcDbEntity
  8
2
100
AcDbCircle
 10
236.142961
 20
147.207529
 30
0.0
 40
3.0
100
AcDbArc
 50
180.0
 51
270.0
  0
ARC
  5
540
100
AcDbEntity
  8
2
100
AcDbCircle
 10
145.142961
 20
145.342762
 30
0.0
 40
3.0
100
AcDbArc
 50
307.551707
 51
360.0
  0
ARC
  5
541
100
AcDbEntity
  8
2
100
AcDbCircle
 10
190.642961
 20
137.207529
 30
0.0
 40
34.0
100
AcDbArc
 50
45.099128
 51
134.900872
  0
LINE
  5
542
100
AcDbEntity
  8
2
100
AcDbLine
 10
198.142956
 20
168.813015
 30
0.0
 11
198.142961
 21
150.407529
 31
0.0
  0
LINE
  5
543
100
AcDbEntity
  8
2
100
AcDbLine
 10
183.142961
 20
168.813015
 30
0.0
 11
183.142961
 21
150.407529
 31
0.0
  0
LINE
  5
544
100
AcDbEntity
  8
2
100
AcDbLine
 10
166.642961
 20
161.290719
 30
0.0
 11
166.642961
 21
159.564631
 31
0.0
  0
LINE
  5
545
100
AcDbEntity
  8
2
100
AcDbLine
 10
214.642961
 20
161.290719
 30
0.0
 11
214.642961
 21
159.564631
 31
0.0
  0
ARC
  5
546
100
AcDbEntity
  8
2
100
AcDbCircle
 10
190.642961
 20
139.207529
 30
0.0
 40
31.0
100
AcDbArc
 50
28.453097
 51
48.922243
  0
ARC
  5
547
100
AcDbEntity
  8
2
100
AcDbCircle
 10
190.642961
 20
139.207529
 30
0.0
 40
31.0
100
AcDbArc
 50
131.077757
 51
151.546903
  0
ARC
  5
548
100
AcDbEntity
  8
2
100
AcDbCircle
 10
190.642961
 20
135.707529
 30
0.0
 40
28.0
100
AcDbArc
 50
105.536794
 51
145.287318
  0
ARC
  5
549
100
AcDbEntity
  8
2
100
AcDbCircle
 10
190.642961
 20
135.707529
 30
0.0
 40
28.0
100
AcDbArc
 50
34.712682
 51
74.463206
  0
ARC
  5
54A
100
AcDbEntity
  8
2
100
AcDbCircle
 10
155.242566
 20
139.973159
 30
0.0
 40
45.274917
100
AcDbArc
 50
13.324563
 51
18.638604
  0
ARC
  5
54B
100
AcDbEntity
  8
2
100
AcDbCircle
 10
156.166446
 20
139.973159
 30
0.0
 40
45.274917
100
AcDbArc
 50
13.324563
 51
21.318921
  0
ARC
  5
54C
100
AcDbEntity
  8
2
100
AcDbCircle
 10
197.941798
 20
156.276582
 30
0.0
 40
0.430947
100
AcDbArc
 50
21.318921
 51
62.173379
  0
ARC
  5
54D
100
AcDbEntity
  8
2
100
AcDbCircle
 10
179.213032
 20
138.206277
 30
0.0
 40
30.472934
100
AcDbArc
 50
23.60296
 51
36.322403
  0
ARC
  5
54E
100
AcDbEntity
  8
2
100
AcDbCircle
 10
179.920139
 20
138.206277
 30
0.0
 40
30.472934
100
AcDbArc
 50
23.60296
 51
37.117331
  0
ARC
  5
54F
100
AcDbEntity
  8
2
100
AcDbCircle
 10
203.993313
 20
156.424125
 30
0.0
 40
0.283404
100
AcDbArc
 50
37.117331
 51
216.322403
  0
ARC
  5
550
100
AcDbEntity
  8
2
100
AcDbCircle
 10
187.96862
 20
136.439396
 30
0.0
 40
28.197761
100
AcDbArc
 50
29.693704
 51
45.288518
  0
ARC
  5
551
100
AcDbEntity
  8
2
100
AcDbCircle
 10
188.351304
 20
136.439396
 30
0.0
 40
28.197761
100
AcDbArc
 50
29.693704
 51
45.843762
  0
ARC
  5
552
100
AcDbEntity
  8
2
100
AcDbCircle
 10
207.901036
 20
156.573572
 30
0.0
 40
0.133957
100
AcDbArc
 50
45.843762
 51
225.288518
  0
LINE
  5
553
100
AcDbEntity
  8
2
100
AcDbLine
 10
148.142961
 20
150.407529
 30
0.0
 11
233.142961
 21
150.407529
 31
0.0
  0
LINE
  5
554
100
AcDbEntity
  8
2
100
AcDbLine
 10
231.642961
 20
141.207529
 30
0.0
 11
231.642961
 21
132.707529
 31
0.0
  0
LINE
  5
555
100
AcDbEntity
  8
2
100
AcDbLine
 10
155.642961
 20
141.207529
 30
0.0
 11
155.642961
 21
132.707529
 31
0.0
  0
LINE
  5
556
100
AcDbEntity
  8
2
100
AcDbLine
 10
144.53857
 20
132.207529
 30
0.0
 11
155.142961
 21
132.207529
 31
0.0
  0
LINE
  5
557
100
AcDbEntity
  8
2
100
AcDbLine
 10
232.142961
 20
132.207529
 30
0.0
 11
242.747352
 21
132.207529
 31
0.0
  0
ARC
  5
558
100
AcDbEntity
  8
2
100
AcDbCircle
 10
232.142961
 20
132.707529
 30
0.0
 40
0.5
100
AcDbArc
 50
180.0
 51
270.0
  0
ARC
  5
559
100
AcDbEntity
  8
2
100
AcDbCircle
 10
155.142961
 20
132.707529
 30
0.0
 40
0.5
100
AcDbArc
 50
270.0
 51
360.0
  0
ARC
  5
55A
100
AcDbEntity
  8
2
100
AcDbCircle
 10
242.747352
 20
131.707529
 30
0.0
 40
0.5
100
AcDbArc
 50
5.0
 51
90.0
  0
ARC
  5
55B
100
AcDbEntity
  8
2
100
AcDbCircle
 10
144.53857
 20
131.707529
 30
0.0
 40
0.5
100
AcDbArc
 50
90.0
 51
175.0
  0
ARC
  5
55C
100
AcDbEntity
  8
2
100
AcDbCircle
 10
228.642961
 20
141.207529
 30
0.0
 40
3.0
100
AcDbArc
 50
0.0
 51
90.0
  0
ARC
  5
55D
100
AcDbEntity
  8
2
100
AcDbCircle
 10
158.642961
 20
141.207529
 30
0.0
 40
3.0
100
AcDbArc
 50
90.0
 51
180.0
  0
ARC
  5
55E
100
AcDbEntity
  8
2
100
AcDbCircle
 10
182.359173
 20
157.886561
 30
0.0
 40
11.430139
100
AcDbArc
 50
88.512215
 51
112.714662
  0
ARC
  5
55F
100
AcDbEntity
  8
2
100
AcDbCircle
 10
182.642961
 20
168.813015
 30
0.0
 40
0.5
100
AcDbArc
 50
0.0
 51
88.512215
  0
ARC
  5
560
100
AcDbEntity
  8
2
100
AcDbCircle
 10
193.479335
 20
131.322056
 30
0.0
 40
40.228245
100
AcDbArc
 50
112.714662
 51
131.843847
  0
ARC
  5
561
100
AcDbEntity
  8
2
100
AcDbCircle
 10
183.849175
 20
150.990585
 30
0.0
 40
17.127052
100
AcDbArc
 50
93.791923
 51
118.737001
  0
ARC
  5
562
100
AcDbEntity
  8
2
100
AcDbCircle
 10
182.742961
 20
167.681017
 30
0.0
 40
0.4
100
AcDbArc
 50
0.0
 51
93.791923
  0
ARC
  5
563
100
AcDbEntity
  8
2
100
AcDbCircle
 10
197.561525
 20
125.982819
 30
0.0
 40
45.647515
100
AcDbArc
 50
118.737001
 51
132.635576
  0
ARC
  5
564
100
AcDbEntity
  8
2
100
AcDbCircle
 10
197.436747
 20
150.990585
 30
0.0
 40
17.127052
100
AcDbArc
 50
61.262999
 51
86.208077
  0
ARC
  5
565
100
AcDbEntity
  8
2
100
AcDbCircle
 10
183.724398
 20
125.982819
 30
0.0
 40
45.647515
100
AcDbArc
 50
47.364424
 51
61.262999
  0
ARC
  5
566
100
AcDbEntity
  8
2
100
AcDbCircle
 10
198.542961
 20
167.681017
 30
0.0
 40
0.4
100
AcDbArc
 50
86.208077
 51
180.0
  0
ARC
  5
567
100
AcDbEntity
  8
2
100
AcDbCircle
 10
198.642961
 20
168.813015
 30
0.0
 40
0.5
100
AcDbArc
 50
91.487785
 51
180.0
  0
ARC
  5
568
100
AcDbEntity
  8
2
100
AcDbCircle
 10
198.92675
 20
157.886561
 30
0.0
 40
11.430139
100
AcDbArc
 50
67.285338
 51
91.487785
  0
ARC
  5
569
100
AcDbEntity
  8
2
100
AcDbCircle
 10
187.806588
 20
131.322056
 30
0.0
 40
40.228245
100
AcDbArc
 50
48.156153
 51
67.285338
  0
LINE
  5
56A
100
AcDbEntity
  8
2
100
AcDbLine
 10
145.042961
 20
133.507529
 30
0.0
 11
145.042961
 21
132.207529
 31
0.0
  0
LINE
  5
56B
100
AcDbEntity
  8
2
100
AcDbLine
 10
154.242961
 20
133.507529
 30
0.0
 11
154.242961
 21
132.207529
 31
0.0
  0
LINE
  5
56C
100
AcDbEntity
  8
2
100
AcDbLine
 10
145.042961
 20
133.507529
 30
0.0
 11
154.242961
 21
133.507529
 31
0.0
  0
LINE
  5
56D
100
AcDbEntity
  8
2
100
AcDbLine
 10
145.142961
 20
134.795022
 30
0.0
 11
145.142961
 21
133.507529
 31
0.0
  0
LINE
  5
56E
100
AcDbEntity
  8
2
100
AcDbLine
 10
154.142961
 20
134.795022
 30
0.0
 11
154.142961
 21
133.507529
 31
0.0
  0
ARC
  5
56F
100
AcDbEntity
  8
2
100
AcDbCircle
 10
149.642961
 20
124.807529
 30
0.0
 40
12.0
100
AcDbArc
 50
73.808648
 51
106.191352
  0
ARC
  5
570
100
AcDbEntity
  8
2
100
AcDbCircle
 10
146.742961
 20
134.795022
 30
0.0
 40
1.6
100
AcDbArc
 50
106.191352
 51
180.0
  0
ARC
  5
571
100
AcDbEntity
  8
2
100
AcDbCircle
 10
152.542961
 20
134.795022
 30
0.0
 40
1.6
100
AcDbArc
 50
0.0
 51
73.808648
  0
LINE
  5
572
100
AcDbEntity
  8
2
100
AcDbLine
 10
233.042961
 20
133.507529
 30
0.0
 11
233.042961
 21
132.207529
 31
0.0
  0
LINE
  5
573
100
AcDbEntity
  8
2
100
AcDbLine
 10
242.242961
 20
133.507529
 30
0.0
 11
242.242961
 21
132.207529
 31
0.0
  0
LINE
  5
574
100
AcDbEntity
  8
2
100
AcDbLine
 10
233.042961
 20
133.507529
 30
0.0
 11
242.242961
 21
133.507529
 31
0.0
  0
LINE
  5
575
100
AcDbEntity
  8
2
100
AcDbLine
 10
233.142961
 20
134.795022
 30
0.0
 11
233.142961
 21
133.507529
 31
0.0
  0
LINE
  5
576
100
AcDbEntity
  8
2
100
AcDbLine
 10
242.142961
 20
134.795022
 30
0.0
 11
242.142961
 21
133.507529
 31
0.0
  0
ARC
  5
577
100
AcDbEntity
  8
2
100
AcDbCircle
 10
237.642961
 20
124.807529
 30
0.0
 40
12.0
100
AcDbArc
 50
73.808648
 51
106.191352
  0
ARC
  5
578
100
AcDbEntity
  8
2
100
AcDbCircle
 10
234.742961
 20
134.795022
 30
0.0
 40
1.6
100
AcDbArc
 50
106.191352
 51
180.0
  0
ARC
  5
579
100
AcDbEntity
  8
2
100
AcDbCircle
 10
240.542961
 20
134.795022
 30
0.0
 40
1.6
100
AcDbArc
 50
0.0
 51
73.808648
  0
LINE
  5
57A
100
AcDbEntity
  8
2
100
AcDbLine
 10
167.926457
 20
151.407529
 30
0.0
 11
160.326457
 21
151.407529
 31
0.0
  0
LINE
  5
57B
100
AcDbEntity
  8
2
100
AcDbLine
 10
167.926457
 20
151.407529
 30
0.0
 11
167.926457
 21
150.407529
 31
0.0
  0
LINE
  5
57C
100
AcDbEntity
  8
2
100
AcDbLine
 10
160.326457
 20
151.407529
 30
0.0
 11
160.326457
 21
150.407529
 31
0.0
  0
LINE
  5
57D
100
AcDbEntity
  8
2
100
AcDbLine
 10
167.626457
 20
152.386554
 30
0.0
 11
167.626457
 21
151.407529
 31
0.0
  0
LINE
  5
57E
100
AcDbEntity
  8
2
100
AcDbLine
 10
160.626457
 20
152.386554
 30
0.0
 11
160.626457
 21
151.407529
 31
0.0
  0
ARC
  5
57F
100
AcDbEntity
  8
2
100
AcDbCircle
 10
164.126457
 20
145.007529
 30
0.0
 40
9.0
100
AcDbArc
 50
73.39845
 51
106.60155
  0
ARC
  5
580
100
AcDbEntity
  8
2
100
AcDbCircle
 10
166.326457
 20
152.386554
 30
0.0
 40
1.3
100
AcDbArc
 50
0.0
 51
73.39845
  0
ARC
  5
581
100
AcDbEntity
  8
2
100
AcDbCircle
 10
161.926457
 20
152.386554
 30
0.0
 40
1.3
100
AcDbArc
 50
106.60155
 51
180.0
  0
LINE
  5
582
100
AcDbEntity
  8
2
100
AcDbLine
 10
220.959466
 20
151.407529
 30
0.0
 11
213.359466
 21
151.407529
 31
0.0
  0
LINE
  5
583
100
AcDbEntity
  8
2
100
AcDbLine
 10
220.959466
 20
151.407529
 30
0.0
 11
220.959466
 21
150.407529
 31
0.0
  0
LINE
  5
584
100
AcDbEntity
  8
2
100
AcDbLine
 10
213.359466
 20
151.407529
 30
0.0
 11
213.359466
 21
150.407529
 31
0.0
  0
LINE
  5
585
100
AcDbEntity
  8
2
100
AcDbLine
 10
220.659466
 20
152.386554
 30
0.0
 11
220.659466
 21
151.407529
 31
0.0
  0
LINE
  5
586
100
AcDbEntity
  8
2
100
AcDbLine
 10
213.659466
 20
152.386554
 30
0.0
 11
213.659466
 21
151.407529
 31
0.0
  0
ARC
  5
587
100
AcDbEntity
  8
2
100
AcDbCircle
 10
217.159466
 20
145.007529
 30
0.0
 40
9.0
100
AcDbArc
 50
73.39845
 51
106.60155
  0
ARC
  5
588
100
AcDbEntity
  8
2
100
AcDbCircle
 10
219.359466
 20
152.386554
 30
0.0
 40
1.3
100
AcDbArc
 50
0.0
 51
73.39845
  0
ARC
  5
589
100
AcDbEntity
  8
2
100
AcDbCircle
 10
214.959466
 20
152.386554
 30
0.0
 40
1.3
100
AcDbArc
 50
106.60155
 51
180.0
  0
ARC
  5
58A
100
AcDbEntity
  8
2
100
AcDbCircle
 10
-347.607039
 20
367.707529
 30
0.0
 40
1.0
100
AcDbArc
 50
0.0
 51
90.0
  0
ARC
  5
58B
100
AcDbEntity
  8
2
100
AcDbCircle
 10
-634.607039
 20
367.707529
 30
0.0
 40
1.0
100
AcDbArc
 50
90.0
 51
180.0
  0
LINE
  5
58C
100
AcDbEntity
  8
2
100
AcDbLine
 10
-370.607039
 20
370.707529
 30
0.0
 11
-370.607039
 21
383.707529
 31
0.0
  0
LINE
  5
58D
100
AcDbEntity
  8
2
100
AcDbLine
 10
-362.607039
 20
370.707529
 30
0.0
 11
-362.607039
 21
383.707529
 31
0.0
  0
LINE
  5
58E
100
AcDbEntity
  8
2
100
AcDbLine
 10
-497.607039
 20
380.707529
 30
0.0
 11
-497.607039
 21
370.707529
 31
0.0
  0
LINE
  5
58F
100
AcDbEntity
  8
2
100
AcDbLine
 10
-489.607039
 20
380.707529
 30
0.0
 11
-489.607039
 21
370.707529
 31
0.0
  0
ARC
  5
590
100
AcDbEntity
  8
2
100
AcDbCircle
 10
-366.607039
 20
383.707529
 30
0.0
 40
4.0
100
AcDbArc
 50
0.0
 51
180.0
  0
ARC
  5
591
100
AcDbEntity
  8
2
100
AcDbCircle
 10
-493.607039
 20
380.707529
 30
0.0
 40
4.0
100
AcDbArc
 50
0.0
 51
180.0
  0
ARC
  5
592
100
AcDbEntity
  8
2
100
AcDbCircle
 10
-360.607039
 20
370.707529
 30
0.0
 40
2.0
100
AcDbArc
 50
180.0
 51
270.0
  0
ARC
  5
593
100
AcDbEntity
  8
2
100
AcDbCircle
 10
-372.607039
 20
370.707529
 30
0.0
 40
2.0
100
AcDbArc
 50
270.0
 51
360.0
  0
ARC
  5
594
100
AcDbEntity
  8
2
100
AcDbCircle
 10
-487.607039
 20
370.707529
 30
0.0
 40
2.0
100
AcDbArc
 50
180.0
 51
270.0
  0
ARC
  5
595
100
AcDbEntity
  8
2
100
AcDbCircle
 10
-499.607039
 20
370.707529
 30
0.0
 40
2.0
100
AcDbArc
 50
270.0
 51
360.0
  0
ARC
  5
596
100
AcDbEntity
  8
2
100
AcDbCircle
 10
-382.607039
 20
410.707529
 30
0.0
 40
1.0
100
AcDbArc
 50
270.0
 51
360.0
  0
ARC
  5
597
100
AcDbEntity
  8
2
100
AcDbCircle
 10
-382.607039
 20
408.707529
 30
0.0
 40
1.0
100
AcDbArc
 50
90.0
 51
180.0
  0
ARC
  5
598
100
AcDbEntity
  8
2
100
AcDbCircle
 10
-382.607039
 20
484.707529
 30
0.0
 40
1.0
100
AcDbArc
 50
0.0
 51
90.0
  0
ARC
  5
599
100
AcDbEntity
  8
2
100
AcDbCircle
 10
-382.607039
 20
486.707529
 30
0.0
 40
1.0
100
AcDbArc
 50
180.0
 51
270.0
  0
LINE
  5
59A
100
AcDbEntity
  8
2
100
AcDbLine
 10
173.642961
 20
125.207529
 30
0.0
 11
213.642961
 21
125.207529
 31
0.0
  0
ARC
  5
59B
100
AcDbEntity
  8
2
100
AcDbCircle
 10
213.642961
 20
107.207529
 30
0.0
 40
18.0
100
AcDbArc
 50
0.0
 51
90.0
  0
ARC
  5
59C
100
AcDbEntity
  8
2
100
AcDbCircle
 10
173.642961
 20
107.207529
 30
0.0
 40
18.0
100
AcDbArc
 50
90.0
 51
180.0
  0
ARC
  5
59D
100
AcDbEntity
  8
2
100
AcDbCircle
 10
-350.607039
 20
487.707529
 30
0.0
 40
2.0
100
AcDbArc
 50
270.0
 51
360.0
  0
ARC
  5
59E
100
AcDbEntity
  8
2
100
AcDbCircle
 10
-350.607039
 20
407.707529
 30
0.0
 40
2.0
100
AcDbArc
 50
0.0
 51
90.0
  0
LINE
  5
59F
100
AcDbEntity
  8
2
100
AcDbLine
 10
-422.607039
 20
518.707529
 30
0.0
 11
-422.607039
 21
507.707529
 31
0.0
  0
LINE
  5
5A0
100
AcDbEntity
  8
2
100
AcDbLine
 10
-390.607039
 20
518.707529
 30
0.0
 11
-390.607039
 21
507.707529
 31
0.0
  0
ARC
  5
5A1
100
AcDbEntity
  8
2
100
AcDbCircle
 10
-419.607039
 20
518.707529
 30
0.0
 40
3.0
100
AcDbArc
 50
90.0
 51
180.0
  0
ARC
  5
5A2
100
AcDbEntity
  8
2
100
AcDbCircle
 10
-393.607039
 20
518.707529
 30
0.0
 40
3.0
100
AcDbArc
 50
0.0
 51
90.0
  0
ARC
  5
5A3
100
AcDbEntity
  8
2
100
AcDbCircle
 10
-387.607039
 20
507.707529
 30
0.0
 40
3.0
100
AcDbArc
 50
180.0
 51
270.0
  0
ARC
  5
5A4
100
AcDbEntity
  8
2
100
AcDbCircle
 10
-425.607039
 20
507.707529
 30
0.0
 40
3.0
100
AcDbArc
 50
270.0
 51
360.0
  0
ARC
  5
5A5
100
AcDbEntity
  8
2
100
AcDbCircle
 10
-381.874988
 20
504.707529
 30
0.0
 40
1.0
100
AcDbArc
 50
210.0
 51
270.0
  0
ARC
  5
5A6
100
AcDbEntity
  8
2
100
AcDbCircle
 10
-383.607039
 20
503.707529
 30
0.0
 40
1.0
100
AcDbArc
 50
30.0
 51
90.0
  0
LINE
  5
5A7
100
AcDbEntity
  8
2
100
AcDbLine
 10
-577.270739
 20
490.707529
 30
0.0
 11
-570.047733
 21
490.707529
 31
0.0
  0
LINE
  5
5A8
100
AcDbEntity
  8
2
100
AcDbLine
 10
-583.572893
 20
509.707529
 30
0.0
 11
-583.572893
 21
520.707529
 31
0.0
  0
LINE
  5
5A9
100
AcDbEntity
  8
2
100
AcDbLine
 10
-583.572893
 20
520.707529
 30
0.0
 11
-582.572893
 21
521.707529
 31
0.0
  0
LINE
  5
5AA
100
AcDbEntity
  8
2
100
AcDbLine
 10
-579.270739
 20
492.707529
 30
0.0
 11
-579.270739
 21
503.707529
 31
0.0
  0
LINE
  5
5AB
100
AcDbEntity
  8
2
100
AcDbLine
 10
-563.641184
 20
497.707529
 30
0.0
 11
-563.641184
 21
520.707529
 31
0.0
  0
LINE
  5
5AC
100
AcDbEntity
  8
2
100
AcDbLine
 10
-632.557374
 20
369.655193
 30
0.0
 11
-630.761795
 21
403.916873
 31
0.0
  0
ARC
  5
5AD
100
AcDbEntity
  8
2
100
AcDbCircle
 10
-626.767277
 20
403.707529
 30
0.0
 40
4.0
100
AcDbArc
 50
90.0
 51
177.0
  0
ARC
  5
5AE
100
AcDbEntity
  8
2
100
AcDbCircle
 10
-633.556003
 20
369.707529
 30
0.0
 40
1.0
100
AcDbArc
 50
270.0
 51
357.0
  0
LINE
  5
5AF
100
AcDbEntity
  8
2
100
AcDbLine
 10
-349.656704
 20
369.655193
 30
0.0
 11
-350.930947
 21
393.969209
 31
0.0
  0
ARC
  5
5B0
100
AcDbEntity
  8
2
100
AcDbCircle
 10
-348.658074
 20
369.707529
 30
0.0
 40
1.0
100
AcDbArc
 50
183.0
 51
270.0
  0
ARC
  5
5B1
100
AcDbEntity
  8
2
100
AcDbCircle
 10
-355.924095
 20
393.707529
 30
0.0
 40
5.0
100
AcDbArc
 50
3.0
 51
90.0
  0
ARC
  5
5B2
100
AcDbEntity
  8
2
100
AcDbCircle
 10
-348.862081
 20
392.707529
 30
0.0
 40
2.0
100
AcDbArc
 50
90.0
 51
183.0
  0
ARC
  5
5B3
100
AcDbEntity
  8
2
100
AcDbCircle
 10
-543.149526
 20
500.707529
 30
0.0
 40
4.0
100
AcDbArc
 50
90.0
 51
180.0
  0
LINE
  5
5B4
100
AcDbEntity
  8
2
100
AcDbLine
 10
-563.641184
 20
520.707529
 30
0.0
 11
-564.641184
 21
521.707529
 31
0.0
  0
LINE
  5
5B5
100
AcDbEntity
  8
2
100
AcDbLine
 10
-615.607039
 20
507.707529
 30
0.0
 11
-583.270739
 21
507.707529
 31
0.0
  0
ARC
  5
5B6
100
AcDbEntity
  8
2
100
AcDbCircle
 10
-583.270739
 20
503.707529
 30
0.0
 40
4.0
100
AcDbArc
 50
0.0
 51
90.0
  0
LINE
  5
5B7
100
AcDbEntity
  8
2
100
AcDbLine
 10
-602.521807
 20
410.707529
 30
0.0
 11
-602.521807
 21
422.707529
 31
0.0
  0
LINE
  5
5B8
100
AcDbEntity
  8
2
100
AcDbLine
 10
-611.807039
 20
410.707529
 30
0.0
 11
-611.807039
 21
422.707529
 31
0.0
  0
LINE
  5
5B9
100
AcDbEntity
  8
2
100
AcDbLine
 10
-609.807039
 20
424.707529
 30
0.0
 11
-604.521807
 21
424.707529
 31
0.0
  0
ARC
  5
5BA
100
AcDbEntity
  8
2
100
AcDbCircle
 10
-609.807039
 20
422.707529
 30
0.0
 40
2.0
100
AcDbArc
 50
90.0
 51
180.0
  0
ARC
  5
5BB
100
AcDbEntity
  8
2
100
AcDbCircle
 10
-604.521807
 20
422.707529
 30
0.0
 40
2.0
100
AcDbArc
 50
0.0
 51
90.0
  0
ARC
  5
5BC
100
AcDbEntity
  8
2
100
AcDbCircle
 10
-599.521807
 20
410.707529
 30
0.0
 40
3.0
100
AcDbArc
 50
180.0
 51
270.0
  0
ARC
  5
5BD
100
AcDbEntity
  8
2
100
AcDbCircle
 10
-614.807039
 20
410.707529
 30
0.0
 40
3.0
100
AcDbArc
 50
270.0
 51
360.0
  0
ARC
  5
5BE
100
AcDbEntity
  8
2
100
AcDbCircle
 10
-624.607039
 20
412.707529
 30
0.0
 40
5.0
100
AcDbArc
 50
270.0
 51
360.0
  0
ARC
  5
5BF
100
AcDbEntity
  8
2
100
AcDbCircle
 10
-622.607039
 20
492.707529
 30
0.0
 40
3.0
100
AcDbArc
 50
0.0
 51
90.0
  0
LINE
  5
5C0
100
AcDbEntity
  8
2
100
AcDbLine
 10
-616.248055
 20
509.095018
 30
0.0
 11
-616.248055
 21
520.707529
 31
0.0
  0
LINE
  5
5C1
100
AcDbEntity
  8
2
100
AcDbLine
 10
-615.248055
 20
521.707529
 30
0.0
 11
-616.248055
 21
520.707529
 31
0.0
  0
LINE
  5
5C2
100
AcDbEntity
  8
2
100
AcDbLine
 10
-530.966022
 20
506.707529
 30
0.0
 11
-530.966022
 21
520.707529
 31
0.0
  0
LINE
  5
5C3
100
AcDbEntity
  8
2
100
AcDbLine
 10
-531.966022
 20
521.707529
 30
0.0
 11
-530.966022
 21
520.707529
 31
0.0
  0
LINE
  5
5C4
100
AcDbEntity
  8
2
100
AcDbLine
 10
-530.966022
 20
520.707529
 30
0.0
 11
-616.248055
 21
520.707529
 31
0.0
  0
ARC
  5
5C5
100
AcDbEntity
  8
2
100
AcDbCircle
 10
-528.966022
 20
506.707529
 30
0.0
 40
2.0
100
AcDbArc
 50
180.0
 51
270.0
  0
ARC
  5
5C6
100
AcDbEntity
  8
2
100
AcDbCircle
 10
-615.607039
 20
503.707529
 30
0.0
 40
4.0
100
AcDbArc
 50
90.0
 51
180.0
  0
ARC
  5
5C7
100
AcDbEntity
  8
2
100
AcDbCircle
 10
-618.248055
 20
509.095018
 30
0.0
 40
2.0
100
AcDbArc
 50
296.114687
 51
360.0
  0
LINE
  5
5C8
100
AcDbEntity
  8
2
100
AcDbLine
 10
-533.607039
 20
520.707529
 30
0.0
 11
-533.607039
 21
506.707529
 31
0.0
  0
LINE
  5
5C9
100
AcDbEntity
  8
2
100
AcDbLine
 10
-613.607039
 20
520.707529
 30
0.0
 11
-613.607039
 21
509.707529
 31
0.0
  0
ARC
  5
5CA
100
AcDbEntity
  8
2
100
AcDbCircle
 10
-531.607039
 20
506.707529
 30
0.0
 40
2.0
100
AcDbArc
 50
180.0
 51
270.0
  0
ARC
  5
5CB
100
AcDbEntity
  8
2
100
AcDbCircle
 10
-615.607039
 20
509.707529
 30
0.0
 40
2.0
100
AcDbArc
 50
270.0
 51
360.0
  0
LINE
  5
5CC
100
AcDbEntity
  8
2
100
AcDbLine
 10
-533.607039
 20
520.707529
 30
0.0
 11
-534.607039
 21
521.707529
 31
0.0
  0
LINE
  5
5CD
100
AcDbEntity
  8
2
100
AcDbLine
 10
-613.607039
 20
520.707529
 30
0.0
 11
-612.607039
 21
521.707529
 31
0.0
  0
LINE
  5
5CE
100
AcDbEntity
  8
2
100
AcDbLine
 10
-503.607039
 20
517.707529
 30
0.0
 11
-503.607039
 21
506.707529
 31
0.0
  0
LINE
  5
5CF
100
AcDbEntity
  8
2
100
AcDbLine
 10
-433.607039
 20
506.707529
 30
0.0
 11
-433.607039
 21
517.707529
 31
0.0
  0
ARC
  5
5D0
100
AcDbEntity
  8
2
100
AcDbCircle
 10
-431.607039
 20
506.707529
 30
0.0
 40
2.0
100
AcDbArc
 50
180.0
 51
270.0
  0
ARC
  5
5D1
100
AcDbEntity
  8
2
100
AcDbCircle
 10
-505.607039
 20
506.707529
 30
0.0
 40
2.0
100
AcDbArc
 50
270.0
 51
360.0
  0
ARC
  5
5D2
100
AcDbEntity
  8
2
100
AcDbCircle
 10
-434.607039
 20
517.707529
 30
0.0
 40
1.0
100
AcDbArc
 50
0.0
 51
90.0
  0
ARC
  5
5D3
100
AcDbEntity
  8
2
100
AcDbCircle
 10
-502.607039
 20
517.707529
 30
0.0
 40
1.0
100
AcDbArc
 50
90.0
 51
180.0
  0
LINE
  5
5D4
100
AcDbEntity
  8
2
100
AcDbLine
 10
-453.146431
 20
517.707529
 30
0.0
 11
-453.146431
 21
506.707529
 31
0.0
  0
LINE
  5
5D5
100
AcDbEntity
  8
2
100
AcDbLine
 10
-484.067647
 20
517.707529
 30
0.0
 11
-484.067647
 21
506.707529
 31
0.0
  0
ARC
  5
5D6
100
AcDbEntity
  8
2
100
AcDbCircle
 10
-455.146431
 20
506.707529
 30
0.0
 40
2.0
100
AcDbArc
 50
270.0
 51
360.0
  0
ARC
  5
5D7
100
AcDbEntity
  8
2
100
AcDbCircle
 10
-482.067647
 20
506.707529
 30
0.0
 40
2.0
100
AcDbArc
 50
180.0
 51
270.0
  0
ARC
  5
5D8
100
AcDbEntity
  8
2
100
AcDbCircle
 10
-452.146431
 20
517.707529
 30
0.0
 40
1.0
100
AcDbArc
 50
90.0
 51
180.0
  0
ARC
  5
5D9
100
AcDbEntity
  8
2
100
AcDbCircle
 10
-485.067647
 20
517.707529
 30
0.0
 40
1.0
100
AcDbArc
 50
0.0
 51
90.0
  0
LINE
  5
5DA
100
AcDbEntity
  8
2
100
AcDbLine
 10
-440.283539
 20
529.707529
 30
0.0
 11
-439.607039
 21
529.031029
 31
0.0
  0
LINE
  5
5DB
100
AcDbEntity
  8
2
100
AcDbLine
 10
-439.607039
 20
529.031029
 30
0.0
 11
-439.607039
 21
525.207529
 31
0.0
  0
LINE
  5
5DC
100
AcDbEntity
  8
2
 62
     2
100
AcDbLine
 10
-440.283539
 20
529.707529
 30
0.0
 11
-440.283539
 21
525.207529
 31
0.0
  0
LINE
  5
5DD
100
AcDbEntity
  8
2
100
AcDbLine
 10
-440.283539
 20
529.707529
 30
0.0
 11
-446.930539
 21
529.707529
 31
0.0
  0
LINE
  5
5DE
100
AcDbEntity
  8
2
100
AcDbLine
 10
-446.930539
 20
529.707529
 30
0.0
 11
-447.607039
 21
529.031029
 31
0.0
  0
LINE
  5
5DF
100
AcDbEntity
  8
2
100
AcDbLine
 10
-447.607039
 20
529.031029
 30
0.0
 11
-439.607039
 21
529.031029
 31
0.0
  0
LINE
  5
5E0
100
AcDbEntity
  8
2
 62
     2
100
AcDbLine
 10
-446.930539
 20
529.707529
 30
0.0
 11
-446.930539
 21
525.207529
 31
0.0
  0
LINE
  5
5E1
100
AcDbEntity
  8
2
100
AcDbLine
 10
-447.607039
 20
529.031029
 30
0.0
 11
-447.607039
 21
525.207529
 31
0.0
  0
LINE
  5
5E2
100
AcDbEntity
  8
2
100
AcDbLine
 10
-451.107039
 20
518.707529
 30
0.0
 11
-451.107039
 21
524.485842
 31
0.0
  0
LINE
  5
5E3
100
AcDbEntity
  8
2
100
AcDbLine
 10
-451.107039
 20
524.485842
 30
0.0
 11
-449.857039
 21
525.207529
 31
0.0
  0
LINE
  5
5E4
100
AcDbEntity
  8
2
100
AcDbLine
 10
-449.857039
 20
525.207529
 30
0.0
 11
-443.607039
 21
525.207529
 31
0.0
  0
LINE
  5
5E5
100
AcDbEntity
  8
2
100
AcDbLine
 10
-447.357039
 20
518.707529
 30
0.0
 11
-447.357039
 21
524.485842
 31
0.0
  0
ARC
  5
5E6
100
AcDbEntity
  8
2
100
AcDbCircle
 10
-449.232039
 20
522.075465
 30
0.0
 40
3.053774
100
AcDbArc
 50
52.121121
 51
127.878879
  0
ARC
  5
5E7
100
AcDbEntity
  8
2
100
AcDbCircle
 10
-443.607039
 20
513.87924
 30
0.0
 40
11.25
100
AcDbArc
 50
90.0
 51
109.471221
  0
LINE
  5
5E8
100
AcDbEntity
  8
2
100
AcDbLine
 10
-436.107039
 20
518.707529
 30
0.0
 11
-436.107039
 21
524.485842
 31
0.0
  0
LINE
  5
5E9
100
AcDbEntity
  8
2
100
AcDbLine
 10
-436.107039
 20
524.485842
 30
0.0
 11
-437.357039
 21
525.207529
 31
0.0
  0
LINE
  5
5EA
100
AcDbEntity
  8
2
100
AcDbLine
 10
-437.357039
 20
525.207529
 30
0.0
 11
-443.607039
 21
525.207529
 31
0.0
  0
LINE
  5
5EB
100
AcDbEntity
  8
2
100
AcDbLine
 10
-439.857039
 20
518.707529
 30
0.0
 11
-439.857039
 21
524.485842
 31
0.0
  0
ARC
  5
5EC
100
AcDbEntity
  8
2
100
AcDbCircle
 10
-437.982039
 20
522.075465
 30
0.0
 40
3.053774
100
AcDbArc
 50
52.121121
 51
127.878879
  0
ARC
  5
5ED
100
AcDbEntity
  8
2
100
AcDbCircle
 10
-443.607039
 20
513.87924
 30
0.0
 40
11.25
100
AcDbArc
 50
70.528779
 51
90.0
  0
LINE
  5
5EE
100
AcDbEntity
  8
2
100
AcDbLine
 10
-490.283539
 20
529.707529
 30
0.0
 11
-489.607039
 21
529.031029
 31
0.0
  0
LINE
  5
5EF
100
AcDbEntity
  8
2
100
AcDbLine
 10
-489.607039
 20
529.031029
 30
0.0
 11
-489.607039
 21
525.207529
 31
0.0
  0
LINE
  5
5F0
100
AcDbEntity
  8
2
 62
     2
100
AcDbLine
 10
-490.283539
 20
529.707529
 30
0.0
 11
-490.283539
 21
525.207529
 31
0.0
  0
LINE
  5
5F1
100
AcDbEntity
  8
2
100
AcDbLine
 10
-490.283539
 20
529.707529
 30
0.0
 11
-496.930539
 21
529.707529
 31
0.0
  0
LINE
  5
5F2
100
AcDbEntity
  8
2
100
AcDbLine
 10
-496.930539
 20
529.707529
 30
0.0
 11
-497.607039
 21
529.031029
 31
0.0
  0
LINE
  5
5F3
100
AcDbEntity
  8
2
100
AcDbLine
 10
-497.607039
 20
529.031029
 30
0.0
 11
-489.607039
 21
529.031029
 31
0.0
  0
LINE
  5
5F4
100
AcDbEntity
  8
2
 62
     2
100
AcDbLine
 10
-496.930539
 20
529.707529
 30
0.0
 11
-496.930539
 21
525.207529
 31
0.0
  0
LINE
  5
5F5
100
AcDbEntity
  8
2
100
AcDbLine
 10
-497.607039
 20
529.031029
 30
0.0
 11
-497.607039
 21
525.207529
 31
0.0
  0
LINE
  5
5F6
100
AcDbEntity
  8
2
100
AcDbLine
 10
-501.107039
 20
518.707529
 30
0.0
 11
-501.107039
 21
524.485842
 31
0.0
  0
LINE
  5
5F7
100
AcDbEntity
  8
2
100
AcDbLine
 10
-501.107039
 20
524.485842
 30
0.0
 11
-499.857039
 21
525.207529
 31
0.0
  0
LINE
  5
5F8
100
AcDbEntity
  8
2
100
AcDbLine
 10
-499.857039
 20
525.207529
 30
0.0
 11
-493.607039
 21
525.207529
 31
0.0
  0
LINE
  5
5F9
100
AcDbEntity
  8
2
100
AcDbLine
 10
-497.357039
 20
518.707529
 30
0.0
 11
-497.357039
 21
524.485842
 31
0.0
  0
ARC
  5
5FA
100
AcDbEntity
  8
2
100
AcDbCircle
 10
-499.232039
 20
522.075465
 30
0.0
 40
3.053774
100
AcDbArc
 50
52.121121
 51
127.878879
  0
ARC
  5
5FB
100
AcDbEntity
  8
2
100
AcDbCircle
 10
-493.607039
 20
513.87924
 30
0.0
 40
11.25
100
AcDbArc
 50
90.0
 51
109.471221
  0
LINE
  5
5FC
100
AcDbEntity
  8
2
100
AcDbLine
 10
-486.107039
 20
518.707529
 30
0.0
 11
-486.107039
 21
524.485842
 31
0.0
  0
LINE
  5
5FD
100
AcDbEntity
  8
2
100
AcDbLine
 10
-486.107039
 20
524.485842
 30
0.0
 11
-487.357039
 21
525.207529
 31
0.0
  0
LINE
  5
5FE
100
AcDbEntity
  8
2
100
AcDbLine
 10
-487.357039
 20
525.207529
 30
0.0
 11
-493.607039
 21
525.207529
 31
0.0
  0
LINE
  5
5FF
100
AcDbEntity
  8
2
100
AcDbLine
 10
-489.857039
 20
518.707529
 30
0.0
 11
-489.857039
 21
524.485842
 31
0.0
  0
ARC
  5
600
100
AcDbEntity
  8
2
100
AcDbCircle
 10
-487.982039
 20
522.075465
 30
0.0
 40
3.053774
100
AcDbArc
 50
52.121121
 51
127.878879
  0
ARC
  5
601
100
AcDbEntity
  8
2
100
AcDbCircle
 10
-493.607039
 20
513.87924
 30
0.0
 40
11.25
100
AcDbArc
 50
70.528779
 51
90.0
  0
ARC
  5
602
100
AcDbEntity
  8
2
100
AcDbCircle
 10
-517.607039
 20
503.707529
 30
0.0
 40
8.0
100
AcDbArc
 50
17.457603
 51
162.542397
  0
ARC
  5
603
100
AcDbEntity
  8
2
100
AcDbCircle
 10
-508.067647
 20
506.707529
 30
0.0
 40
2.0
100
AcDbArc
 50
197.457603
 51
270.0
  0
ARC
  5
604
100
AcDbEntity
  8
2
100
AcDbCircle
 10
-527.146431
 20
506.707529
 30
0.0
 40
2.0
100
AcDbArc
 50
270.0
 51
342.542397
  0
LINE
  5
605
100
AcDbEntity
  8
2
100
AcDbLine
 10
-634.607039
 20
380.207529
 30
0.0
 11
-634.607039
 21
369.43958
 31
0.0
  0
ARC
  5
606
100
AcDbEntity
  8
2
100
AcDbCircle
 10
-635.607039
 20
369.43958
 30
0.0
 40
1.0
100
AcDbArc
 50
300.0
 51
360.0
  0
ARC
  5
607
100
AcDbEntity
  8
2
100
AcDbCircle
 10
-630.607039
 20
380.207529
 30
0.0
 40
4.0
100
AcDbArc
 50
107.416924
 51
180.0
  0
ARC
  5
608
100
AcDbEntity
  8
2
100
AcDbCircle
 10
-547.906191
 20
403.707529
 30
0.0
 40
6.0
100
AcDbArc
 50
180.0
 51
270.0
  0
LINE
  5
609
100
AcDbEntity
  8
2
100
AcDbLine
 10
-556.778656
 20
407.545324
 30
0.0
 11
-556.778656
 21
489.707529
 31
0.0
  0
ARC
  5
60A
100
AcDbEntity
  8
2
100
AcDbCircle
 10
-577.270739
 20
492.707529
 30
0.0
 40
2.0
100
AcDbArc
 50
180.0
 51
270.0
  0
ARC
  5
60B
100
AcDbEntity
  8
2
100
AcDbCircle
 10
-570.047733
 20
492.707529
 30
0.0
 40
2.0
100
AcDbArc
 50
270.0
 51
350.405932
  0
ARC
  5
60C
100
AcDbEntity
  8
2
100
AcDbCircle
 10
-585.572893
 20
509.707529
 30
0.0
 40
2.0
100
AcDbArc
 50
270.0
 51
360.0
  0
LINE
  5
60D
100
AcDbEntity
  8
2
100
AcDbLine
 10
-343.607039
 20
506.707529
 30
0.0
 11
-331.084104
 21
505.611915
 31
0.0
  0
LINE
  5
60E
100
AcDbEntity
  8
2
100
AcDbLine
 10
-343.607039
 20
394.707529
 30
0.0
 11
-331.084104
 21
395.803144
 31
0.0
  0
LINE
  5
60F
100
AcDbEntity
  8
2
100
AcDbLine
 10
-325.607039
 20
401.780312
 30
0.0
 11
-325.607039
 21
499.634746
 31
0.0
  0
ARC
  5
610
100
AcDbEntity
  8
2
100
AcDbCircle
 10
-331.607039
 20
499.634746
 30
0.0
 40
6.0
100
AcDbArc
 50
0.0
 51
85.0
  0
ARC
  5
611
100
AcDbEntity
  8
2
100
AcDbCircle
 10
-331.607039
 20
401.780312
 30
0.0
 40
6.0
100
AcDbArc
 50
275.0
 51
360.0
  0
LINE
  5
612
100
AcDbEntity
  8
2
100
AcDbLine
 10
-328.607039
 20
493.207529
 30
0.0
 11
-338.107039
 21
493.207529
 31
0.0
  0
LINE
  5
613
100
AcDbEntity
  8
2
100
AcDbLine
 10
-338.107039
 20
408.207529
 30
0.0
 11
-328.607039
 21
408.207529
 31
0.0
  0
LINE
  5
614
100
AcDbEntity
  8
2
100
AcDbLine
 10
-338.607039
 20
395.603138
 30
0.0
 11
-338.607039
 21
407.707529
 31
0.0
  0
LINE
  5
615
100
AcDbEntity
  8
2
100
AcDbLine
 10
-338.607039
 20
493.707529
 30
0.0
 11
-338.607039
 21
505.81192
 31
0.0
  0
ARC
  5
616
100
AcDbEntity
  8
2
100
AcDbCircle
 10
-328.607039
 20
490.207529
 30
0.0
 40
3.0
100
AcDbArc
 50
0.0
 51
90.0
  0
ARC
  5
617
100
AcDbEntity
  8
2
100
AcDbCircle
 10
-328.607039
 20
411.207529
 30
0.0
 40
3.0
100
AcDbArc
 50
270.0
 51
360.0
  0
ARC
  5
618
100
AcDbEntity
  8
2
100
AcDbCircle
 10
-339.107039
 20
505.81192
 30
0.0
 40
0.5
100
AcDbArc
 50
0.0
 51
85.0
  0
ARC
  5
619
100
AcDbEntity
  8
2
100
AcDbCircle
 10
-339.107039
 20
395.603138
 30
0.0
 40
0.5
100
AcDbArc
 50
275.0
 51
360.0
  0
ARC
  5
61A
100
AcDbEntity
  8
2
100
AcDbCircle
 10
-338.107039
 20
493.707529
 30
0.0
 40
0.5
100
AcDbArc
 50
180.0
 51
270.0
  0
ARC
  5
61B
100
AcDbEntity
  8
2
100
AcDbCircle
 10
-338.107039
 20
407.707529
 30
0.0
 40
0.5
100
AcDbArc
 50
90.0
 51
180.0
  0
LINE
  5
61C
100
AcDbEntity
  8
2
100
AcDbLine
 10
-634.607039
 20
13.207529
 30
0.0
 11
-634.607039
 21
-11.792471
 31
0.0
  0
LINE
  5
61D
100
AcDbEntity
  8
2
100
AcDbLine
 10
-631.067597
 20
15.207529
 30
0.0
 11
-632.607039
 21
15.207529
 31
0.0
  0
ARC
  5
61E
100
AcDbEntity
  8
2
100
AcDbCircle
 10
-632.607039
 20
13.207529
 30
0.0
 40
2.0
100
AcDbArc
 50
90.0
 51
180.0
  0
LINE
  5
61F
100
AcDbEntity
  8
2
100
AcDbLine
 10
-343.607039
 20
85.207529
 30
0.0
 11
-331.084104
 21
84.111915
 31
0.0
  0
LINE
  5
620
100
AcDbEntity
  8
2
100
AcDbLine
 10
-343.607039
 20
-2.792471
 30
0.0
 11
-331.084104
 21
-1.696856
 31
0.0
  0
LINE
  5
621
100
AcDbEntity
  8
2
100
AcDbLine
 10
-325.607039
 20
78.134746
 30
0.0
 11
-325.607039
 21
4.280312
 31
0.0
  0
ARC
  5
622
100
AcDbEntity
  8
2
100
AcDbCircle
 10
-331.607039
 20
78.134746
 30
0.0
 40
6.0
100
AcDbArc
 50
0.0
 51
85.0
  0
ARC
  5
623
100
AcDbEntity
  8
2
100
AcDbCircle
 10
-331.607039
 20
4.280312
 30
0.0
 40
6.0
100
AcDbArc
 50
275.0
 51
360.0
  0
LINE
  5
624
100
AcDbEntity
  8
2
100
AcDbLine
 10
-338.107039
 20
71.707529
 30
0.0
 11
-328.607039
 21
71.707529
 31
0.0
  0
LINE
  5
625
100
AcDbEntity
  8
2
100
AcDbLine
 10
-328.607039
 20
10.707529
 30
0.0
 11
-338.107039
 21
10.707529
 31
0.0
  0
LINE
  5
626
100
AcDbEntity
  8
2
100
AcDbLine
 10
-338.607039
 20
-1.896862
 30
0.0
 11
-338.607039
 21
10.207529
 31
0.0
  0
LINE
  5
627
100
AcDbEntity
  8
2
100
AcDbLine
 10
-338.607039
 20
72.207529
 30
0.0
 11
-338.607039
 21
84.31192
 31
0.0
  0
ARC
  5
628
100
AcDbEntity
  8
2
100
AcDbCircle
 10
-328.607039
 20
68.707529
 30
0.0
 40
3.0
100
AcDbArc
 50
0.0
 51
90.0
  0
ARC
  5
629
100
AcDbEntity
  8
2
100
AcDbCircle
 10
-328.607039
 20
13.707529
 30
0.0
 40
3.0
100
AcDbArc
 50
270.0
 51
360.0
  0
ARC
  5
62A
100
AcDbEntity
  8
2
100
AcDbCircle
 10
-339.107039
 20
84.31192
 30
0.0
 40
0.5
100
AcDbArc
 50
0.0
 51
85.0
  0
ARC
  5
62B
100
AcDbEntity
  8
2
100
AcDbCircle
 10
-339.107039
 20
-1.896862
 30
0.0
 40
0.5
100
AcDbArc
 50
275.0
 51
360.0
  0
ARC
  5
62C
100
AcDbEntity
  8
2
100
AcDbCircle
 10
-338.107039
 20
72.207529
 30
0.0
 40
0.5
100
AcDbArc
 50
180.0
 51
270.0
  0
ARC
  5
62D
100
AcDbEntity
  8
2
100
AcDbCircle
 10
-338.107039
 20
10.207529
 30
0.0
 40
0.5
100
AcDbArc
 50
90.0
 51
180.0
  0
LINE
  5
62E
100
AcDbEntity
  8
2
100
AcDbLine
 10
-634.357039
 20
353.707529
 30
0.0
 11
-346.607039
 21
353.707529
 31
0.0
  0
LINE
  5
62F
100
AcDbEntity
  8
2
100
AcDbLine
 10
-599.720287
 20
335.707529
 30
0.0
 11
-355.266759
 21
335.707529
 31
0.0
  0
LINE
  5
630
100
AcDbEntity
  8
2
100
AcDbLine
 10
-346.607039
 20
353.707529
 30
0.0
 11
-350.43713
 21
339.413434
 31
0.0
  0
ARC
  5
631
100
AcDbEntity
  8
2
100
AcDbCircle
 10
-355.266759
 20
340.707529
 30
0.0
 40
5.0
100
AcDbArc
 50
270.0
 51
345.0
  0
LINE
  5
632
100
AcDbEntity
  8
2
100
AcDbLine
 10
-604.050414
 20
338.207529
 30
0.0
 11
-612.133318
 21
352.207529
 31
0.0
  0
ARC
  5
633
100
AcDbEntity
  8
2
100
AcDbCircle
 10
-633.607039
 20
355.707529
 30
0.0
 40
2.0
100
AcDbArc
 50
180.0
 51
270.0
  0
ARC
  5
634
100
AcDbEntity
  8
2
100
AcDbCircle
 10
-405.73157
 20
60.152567
 30
0.0
 40
53.0
100
AcDbArc
 50
82.815375
 51
97.894178
  0
ARC
  5
635
100
AcDbEntity
  8
2
100
AcDbCircle
 10
-562.607039
 20
41.387529
 30
0.0
 40
40.0
100
AcDbArc
 50
99.899988
 51
268.765968
  0
ARC
  5
636
100
AcDbEntity
  8
2
100
AcDbCircle
 10
-406.607039
 20
53.207529
 30
0.0
 40
55.176915
100
AcDbArc
 50
268.765968
 51
99.899988
  0
ARC
  5
637
100
AcDbEntity
  8
2
100
AcDbCircle
 10
-567.819343
 20
41.387529
 30
0.0
 40
45.18
100
AcDbArc
 50
180.0
 51
270.0
  0
ARC
  5
638
100
AcDbEntity
  8
2
100
AcDbCircle
 10
-563.013903
 20
41.387529
 30
0.0
 40
49.98544
100
AcDbArc
 50
97.894178
 51
180.0
  0
ARC
  5
639
100
AcDbEntity
  8
2
100
AcDbCircle
 10
-493.607039
 20
100.137529
 30
0.0
 40
6.5
100
AcDbArc
 50
198.050649
 51
357.737707
  0
LINE
  5
63A
100
AcDbEntity
  8
2
100
AcDbLine
 10
-569.879099
 20
90.899279
 30
0.0
 11
-503.051509
 21
100.165452
 31
0.0
  0
LINE
  5
63B
100
AcDbEntity
  8
2
100
AcDbLine
 10
-484.526475
 20
102.734095
 30
0.0
 11
-413.010797
 21
112.650309
 31
0.0
  0
ARC
  5
63C
100
AcDbEntity
  8
2
100
AcDbCircle
 10
-484.114443
 20
99.762525
 30
0.0
 40
3.0
100
AcDbArc
 50
97.894178
 51
177.737707
  0
ARC
  5
63D
100
AcDbEntity
  8
2
100
AcDbCircle
 10
-502.639477
 20
97.193882
 30
0.0
 40
3.0
100
AcDbArc
 50
18.050649
 51
97.894178
  0
LINE
  5
63E
100
AcDbEntity
  8
2
100
AcDbLine
 10
-487.107039
 20
3.207529
 30
0.0
 11
-487.107039
 21
-0.792471
 31
0.0
  0
LINE
  5
63F
100
AcDbEntity
  8
2
100
AcDbLine
 10
-500.107039
 20
3.207529
 30
0.0
 11
-500.107039
 21
-0.792471
 31
0.0
  0
LINE
  5
640
100
AcDbEntity
  8
2
100
AcDbLine
 10
-563.468489
 20
1.396807
 30
0.0
 11
-503.800221
 21
0.111477
 31
0.0
  0
LINE
  5
641
100
AcDbEntity
  8
2
100
AcDbLine
 10
-483.543074
 20
-0.324887
 30
0.0
 11
-407.795343
 21
-1.956588
 31
0.0
  0
ARC
  5
642
100
AcDbEntity
  8
2
100
AcDbCircle
 10
-493.607039
 20
3.207529
 30
0.0
 40
6.5
100
AcDbArc
 50
0.0
 51
180.0
  0
ARC
  5
643
100
AcDbEntity
  8
2
100
AcDbCircle
 10
-503.107039
 20
-0.792471
 30
0.0
 40
3.0
100
AcDbArc
 50
270.0
 51
360.0
  0
ARC
  5
644
100
AcDbEntity
  8
2
100
AcDbCircle
 10
-484.107039
 20
-0.792471
 30
0.0
 40
3.0
100
AcDbArc
 50
180.0
 51
270.0
  0
LINE
  5
645
100
AcDbEntity
  8
2
100
AcDbLine
 10
-569.484194
 20
80.791904
 30
0.0
 11
-495.007401
 21
93.790169
 31
0.0
  0
LINE
  5
646
100
AcDbEntity
  8
2
100
AcDbLine
 10
-490.139375
 20
94.639774
 30
0.0
 11
-416.093544
 21
107.562824
 31
0.0
  0
ARC
  5
647
100
AcDbEntity
  8
2
100
AcDbCircle
 10
-406.607039
 20
53.207529
 30
0.0
 40
60.0
100
AcDbArc
 50
0.0
 51
46.799266
  0
ARC
  5
648
100
AcDbEntity
  8
2
100
AcDbCircle
 10
-406.607039
 20
53.207529
 30
0.0
 40
60.0
100
AcDbArc
 50
56.98558
 51
82.815375
  0
ARC
  5
649
100
AcDbEntity
  8
2
100
AcDbCircle
 10
-366.607039
 20
104.207529
 30
0.0
 40
6.5
100
AcDbArc
 50
199.707605
 51
264.077241
  0
ARC
  5
64A
100
AcDbEntity
  8
2
100
AcDbCircle
 10
-367.587321
 20
94.758241
 30
0.0
 40
3.0
100
AcDbArc
 50
46.799266
 51
84.077241
  0
ARC
  5
64B
100
AcDbEntity
  8
2
100
AcDbCircle
 10
-375.550584
 20
101.003937
 30
0.0
 40
3.0
100
AcDbArc
 50
19.707605
 51
56.98558
  0
ARC
  5
64C
100
AcDbEntity
  8
2
100
AcDbCircle
 10
-403.607039
 20
53.207529
 30
0.0
 40
57.0
100
AcDbArc
 50
270.0
 51
304.899005
  0
ARC
  5
64D
100
AcDbEntity
  8
2
100
AcDbCircle
 10
-403.607039
 20
53.207529
 30
0.0
 40
57.0
100
AcDbArc
 50
315.900804
 51
360.0
  0
ARC
  5
64E
100
AcDbEntity
  8
2
100
AcDbCircle
 10
-363.607039
 20
6.207529
 30
0.0
 40
6.5
100
AcDbArc
 50
97.382331
 51
163.417478
  0
ARC
  5
64F
100
AcDbEntity
  8
2
100
AcDbCircle
 10
-364.827691
 20
15.628782
 30
0.0
 40
3.0
100
AcDbArc
 50
277.382331
 51
315.900804
  0
ARC
  5
650
100
AcDbEntity
  8
2
100
AcDbCircle
 10
-372.711931
 20
8.918792
 30
0.0
 40
3.0
100
AcDbArc
 50
304.899005
 51
343.417478
  0
ARC
  5
651
100
AcDbEntity
  8
2
100
AcDbCircle
 10
-406.607039
 20
53.207529
 30
0.0
 40
22.2
100
AcDbArc
 50
20.571635
 51
163.0
  0
ARC
  5
652
100
AcDbEntity
  8
2
100
AcDbCircle
 10
-402.707039
 20
53.207529
 30
0.0
 40
18.2
100
AcDbArc
 50
25.014065
 51
166.591995
  0
LINE
  5
653
100
AcDbEntity
  8
2
100
AcDbLine
 10
-388.496993
 20
60.291538
 30
0.0
 11
-386.214126
 21
60.903231
 31
0.0
  0
LINE
  5
654
100
AcDbEntity
  8
2
100
AcDbLine
 10
-385.822653
 20
61.008125
 30
0.0
 11
-383.212442
 21
61.707529
 31
0.0
  0
LINE
  5
655
100
AcDbEntity
  8
2
100
AcDbLine
 10
-384.407039
 20
53.207529
 30
0.0
 11
-388.496993
 21
60.291538
 31
0.0
  0
LINE
  5
656
100
AcDbEntity
  8
2
100
AcDbLine
 10
-384.407039
 20
53.207529
 30
0.0
 11
-383.212442
 21
61.707529
 31
0.0
  0
LINE
  5
657
100
AcDbEntity
  8
2
100
AcDbLine
 10
-420.41097
 20
57.427815
 30
0.0
 11
-427.837004
 21
59.698181
 31
0.0
  0
LINE
  5
658
100
AcDbEntity
  8
2
100
AcDbLine
 10
-567.107039
 20
60.707529
 30
0.0
 11
-567.107039
 21
43.207529
 31
0.0
  0
LINE
  5
659
100
AcDbEntity
  8
2
100
AcDbLine
 10
-555.440372
 20
25.707529
 30
0.0
 11
-543.773705
 21
25.707529
 31
0.0
  0
LINE
  5
65A
100
AcDbEntity
  8
2
100
AcDbLine
 10
-567.107039
 20
60.707529
 30
0.0
 11
-532.107039
 21
60.707529
 31
0.0
  0
LINE
  5
65B
100
AcDbEntity
  8
2
100
AcDbLine
 10
-567.107039
 20
43.207529
 30
0.0
 11
-532.107039
 21
60.707529
 31
0.0
  0
LINE
  5
65C
100
AcDbEntity
  8
2
100
AcDbLine
 10
-555.440372
 20
49.040863
 30
0.0
 11
-555.440372
 21
25.707529
 31
0.0
  0
LINE
  5
65D
100
AcDbEntity
  8
2
100
AcDbLine
 10
-543.773705
 20
49.040863
 30
0.0
 11
-543.773705
 21
25.707529
 31
0.0
  0
LINE
  5
65E
100
AcDbEntity
  8
2
100
AcDbLine
 10
-567.107039
 20
49.040863
 30
0.0
 11
-543.773705
 21
49.040863
 31
0.0
  0
LINE
  5
65F
100
AcDbEntity
  8
2
100
AcDbLine
 10
-543.773705
 20
54.874196
 30
0.0
 11
-567.107039
 21
54.874196
 31
0.0
  0
LINE
  5
660
100
AcDbEntity
  8
2
100
AcDbLine
 10
-543.773705
 20
54.874196
 30
0.0
 11
-543.773705
 21
60.707529
 31
0.0
  0
LINE
  5
661
100
AcDbEntity
  8
2
100
AcDbLine
 10
-555.440372
 20
49.040863
 30
0.0
 11
-555.440372
 21
60.707529
 31
0.0
  0
LINE
  5
662
100
AcDbEntity
  8
2
100
AcDbLine
 10
-543.773705
 20
60.707529
 30
0.0
 11
-567.107039
 21
49.040863
 31
0.0
  0
LINE
  5
663
100
AcDbEntity
  8
2
100
AcDbLine
 10
-555.440372
 20
60.707529
 30
0.0
 11
-567.107039
 21
54.874196
 31
0.0
  0
ARC
  5
664
100
AcDbEntity
  8
2
100
AcDbCircle
 10
-632.607039
 20
-11.792471
 30
0.0
 40
2.0
100
AcDbArc
 50
180.0
 51
270.0
  0
LINE
  5
665
100
AcDbEntity
  8
2
100
AcDbLine
 10
-519.607039
 20
-20.881014
 30
0.0
 11
-519.607039
 21
-26.792471
 31
0.0
  0
LINE
  5
666
100
AcDbEntity
  8
2
100
AcDbLine
 10
-417.607039
 20
-15.792471
 30
0.0
 11
-417.607039
 21
-26.792471
 31
0.0
  0
ARC
  5
667
100
AcDbEntity
  8
2
100
AcDbCircle
 10
-415.607039
 20
-15.792471
 30
0.0
 40
2.0
100
AcDbArc
 50
90.0
 51
180.0
  0
LINE
  5
668
100
AcDbEntity
  8
2
100
AcDbLine
 10
-376.607039
 20
-4.792471
 30
0.0
 11
-376.607039
 21
-11.792471
 31
0.0
  0
LINE
  5
669
100
AcDbEntity
  8
2
100
AcDbLine
 10
-377.357039
 20
-13.792471
 30
0.0
 11
-633.857039
 21
-13.792471
 31
0.0
  0
LINE
  5
66A
100
AcDbEntity
  8
2
100
AcDbLine
 10
-543.607039
 20
127.207529
 30
0.0
 11
-383.607039
 21
127.207529
 31
0.0
  0
LINE
  5
66B
100
AcDbEntity
  8
2
100
AcDbLine
 10
-343.607039
 20
85.207529
 30
0.0
 11
-343.607039
 21
-2.792471
 31
0.0
  0
LINE
  5
66C
100
AcDbEntity
  8
2
100
AcDbLine
 10
-424.770404
 20
329.707529
 30
0.0
 11
-388.443674
 21
329.707529
 31
0.0
  0
LINE
  5
66D
100
AcDbEntity
  8
2
100
AcDbLine
 10
-419.072385
 20
317.707529
 30
0.0
 11
-394.141693
 21
317.707529
 31
0.0
  0
LINE
  5
66E
100
AcDbEntity
  8
2
100
AcDbLine
 10
-392.209841
 20
319.189891
 30
0.0
 11
-389.782094
 21
328.250367
 31
0.0
  0
LINE
  5
66F
100
AcDbEntity
  8
2
100
AcDbLine
 10
-383.614044
 20
333.413434
 30
0.0
 11
-383.396541
 21
334.225167
 31
0.0
  0
LINE
  5
670
100
AcDbEntity
  8
2
100
AcDbLine
 10
-421.004236
 20
319.189891
 30
0.0
 11
-423.431984
 21
328.250367
 31
0.0
  0
LINE
  5
671
100
AcDbEntity
  8
2
100
AcDbLine
 10
-429.600033
 20
333.413434
 30
0.0
 11
-429.817536
 21
334.225167
 31
0.0
  0
ARC
  5
672
100
AcDbEntity
  8
2
100
AcDbCircle
 10
-388.443674
 20
334.707529
 30
0.0
 40
5.0
100
AcDbArc
 50
270.0
 51
345.0
  0
ARC
  5
673
100
AcDbEntity
  8
2
100
AcDbCircle
 10
-424.770404
 20
334.707529
 30
0.0
 40
5.0
100
AcDbArc
 50
195.0
 51
270.0
  0
ARC
  5
674
100
AcDbEntity
  8
2
100
AcDbCircle
 10
-394.141693
 20
319.707529
 30
0.0
 40
2.0
100
AcDbArc
 50
270.0
 51
345.0
  0
ARC
  5
675
100
AcDbEntity
  8
2
100
AcDbCircle
 10
-419.072385
 20
319.707529
 30
0.0
 40
2.0
100
AcDbArc
 50
195.0
 51
270.0
  0
ARC
  5
676
100
AcDbEntity
  8
2
100
AcDbCircle
 10
-387.850242
 20
327.732729
 30
0.0
 40
2.0
100
AcDbArc
 50
94.86314
 51
165.0
  0
ARC
  5
677
100
AcDbEntity
  8
2
100
AcDbCircle
 10
-381.46469
 20
333.707529
 30
0.0
 40
2.0
100
AcDbArc
 50
90.0
 51
165.0
  0
ARC
  5
678
100
AcDbEntity
  8
2
100
AcDbCircle
 10
-431.749388
 20
333.707529
 30
0.0
 40
2.0
100
AcDbArc
 50
15.0
 51
90.0
  0
ARC
  5
679
100
AcDbEntity
  8
2
100
AcDbCircle
 10
-425.363835
 20
327.732729
 30
0.0
 40
2.0
100
AcDbArc
 50
15.0
 51
85.13686
  0
ARC
  5
67A
100
AcDbEntity
  8
2
100
AcDbCircle
 10
233.642961
 20
87.207529
 30
0.0
 40
2.0
100
AcDbArc
 50
180.0
 51
270.0
  0
ARC
  5
67B
100
AcDbEntity
  8
2
100
AcDbCircle
 10
153.642961
 20
87.207529
 30
0.0
 40
2.0
100
AcDbArc
 50
270.0
 51
360.0
  0
ARC
  5
67C
100
AcDbEntity
  8
2
100
AcDbCircle
 10
147.642961
 20
78.207529
 30
0.0
 40
7.0
100
AcDbArc
 50
90.0
 51
180.0
  0
ARC
  5
67D
100
AcDbEntity
  8
2
100
AcDbCircle
 10
245.642961
 20
78.207529
 30
0.0
 40
7.0
100
AcDbArc
 50
0.0
 51
90.0
  0
ARC
  5
67E
100
AcDbEntity
  8
2
100
AcDbCircle
 10
245.642961
 20
4.207529
 30
0.0
 40
7.0
100
AcDbArc
 50
270.0
 51
360.0
  0
ARC
  5
67F
100
AcDbEntity
  8
2
100
AcDbCircle
 10
147.642961
 20
4.207529
 30
0.0
 40
7.0
100
AcDbArc
 50
180.0
 51
270.0
  0
LINE
  5
680
100
AcDbEntity
  8
2
100
AcDbLine
 10
226.642961
 20
45.707529
 30
0.0
 11
226.642961
 21
36.707529
 31
0.0
  0
LINE
  5
681
100
AcDbEntity
  8
2
100
AcDbLine
 10
166.642961
 20
45.707529
 30
0.0
 11
166.642961
 21
36.707529
 31
0.0
  0
ARC
  5
682
100
AcDbEntity
  8
2
100
AcDbCircle
 10
225.142961
 20
45.707529
 30
0.0
 40
1.5
100
AcDbArc
 50
0.0
 51
90.0
  0
ARC
  5
683
100
AcDbEntity
  8
2
100
AcDbCircle
 10
168.142961
 20
45.707529
 30
0.0
 40
1.5
100
AcDbArc
 50
90.0
 51
180.0
  0
ARC
  5
684
100
AcDbEntity
  8
2
100
AcDbCircle
 10
168.142961
 20
36.707529
 30
0.0
 40
1.5
100
AcDbArc
 50
180.0
 51
270.0
  0
ARC
  5
685
100
AcDbEntity
  8
2
100
AcDbCircle
 10
225.142961
 20
36.707529
 30
0.0
 40
1.5
100
AcDbArc
 50
270.0
 51
360.0
  0
LINE
  5
686
100
AcDbEntity
  8
2
100
AcDbLine
 10
143.642961
 20
127.207529
 30
0.0
 11
143.642961
 21
112.750419
 31
0.0
  0
LINE
  5
687
100
AcDbEntity
  8
2
100
AcDbLine
 10
241.642961
 20
121.207529
 30
0.0
 11
241.642961
 21
85.207529
 31
0.0
  0
ARC
  5
688
100
AcDbEntity
  8
2
100
AcDbCircle
 10
242.642961
 20
123.207529
 30
0.0
 40
1.0
100
AcDbArc
 50
270.0
 51
360.0
  0
ARC
  5
689
100
AcDbEntity
  8
2
100
AcDbCircle
 10
242.642961
 20
121.207529
 30
0.0
 40
1.0
100
AcDbArc
 50
90.0
 51
180.0
  0
LINE
  5
68A
100
AcDbEntity
  8
2
100
AcDbLine
 10
-564.131653
 20
495.707529
 30
0.0
 11
-542.079175
 21
495.707529
 31
0.0
  0
ARC
  5
68B
100
AcDbEntity
  8
2
100
AcDbCircle
 10
-550.778656
 20
489.707529
 30
0.0
 40
6.0
100
AcDbArc
 50
90.0
 51
180.0
  0
ARC
  5
68C
100
AcDbEntity
  8
2
100
AcDbCircle
 10
-564.131653
 20
491.707529
 30
0.0
 40
4.0
100
AcDbArc
 50
90.0
 51
170.405932
  0
ARC
  5
68D
100
AcDbEntity
  8
2
100
AcDbCircle
 10
-561.641184
 20
497.707529
 30
0.0
 40
2.0
100
AcDbArc
 50
180.0
 51
270.0
  0
LINE
  5
68E
100
AcDbEntity
  8
2
100
AcDbLine
 10
-547.149526
 20
500.707529
 30
0.0
 11
-547.149526
 21
498.707529
 31
0.0
  0
ARC
  5
68F
100
AcDbEntity
  8
2
100
AcDbCircle
 10
-550.149526
 20
498.707529
 30
0.0
 40
3.0
100
AcDbArc
 50
270.0
 51
360.0
  0
LINE
  5
690
100
AcDbEntity
  8
2
100
AcDbLine
 10
231.642961
 20
107.207529
 30
0.0
 11
231.642961
 21
87.207529
 31
0.0
  0
LINE
  5
691
100
AcDbEntity
  8
2
100
AcDbLine
 10
155.642961
 20
107.207529
 30
0.0
 11
155.642961
 21
87.207529
 31
0.0
  0
LINE
  5
692
100
AcDbEntity
  8
2
100
AcDbLine
 10
147.642961
 20
85.207529
 30
0.0
 11
245.642961
 21
85.207529
 31
0.0
  0
LINE
  5
693
100
AcDbEntity
  8
2
100
AcDbLine
 10
140.642961
 20
4.207529
 30
0.0
 11
140.642961
 21
78.207529
 31
0.0
  0
LINE
  5
694
100
AcDbEntity
  8
2
100
AcDbLine
 10
245.642961
 20
-2.792471
 30
0.0
 11
147.642961
 21
-2.792471
 31
0.0
  0
LINE
  5
695
100
AcDbEntity
  8
2
100
AcDbLine
 10
252.642961
 20
78.207529
 30
0.0
 11
252.642961
 21
4.207529
 31
0.0
  0
LINE
  5
696
100
AcDbEntity
  8
2
100
AcDbLine
 10
243.642961
 20
127.207529
 30
0.0
 11
143.642961
 21
127.207529
 31
0.0
  0
LINE
  5
697
100
AcDbEntity
  8
2
100
AcDbLine
 10
243.642961
 20
127.207529
 30
0.0
 11
243.642961
 21
123.207529
 31
0.0
  0
LINE
  5
698
100
AcDbEntity
  8
2
100
AcDbLine
 10
225.142961
 20
47.207529
 30
0.0
 11
168.142961
 21
47.207529
 31
0.0
  0
LINE
  5
699
100
AcDbEntity
  8
2
100
AcDbLine
 10
168.142961
 20
35.207529
 30
0.0
 11
225.142961
 21
35.207529
 31
0.0
  0
LINE
  5
69A
100
AcDbEntity
  8
2
100
AcDbLine
 10
144.642961
 20
104.791848
 30
0.0
 11
144.642961
 21
88.207529
 31
0.0
  0
LINE
  5
69B
100
AcDbEntity
  8
2
100
AcDbLine
 10
100.642961
 20
115.108905
 30
0.0
 11
113.642961
 21
115.108905
 31
0.0
  0
ARC
  5
69C
100
AcDbEntity
  8
2
100
AcDbCircle
 10
113.642961
 20
114.108905
 30
0.0
 40
1.0
100
AcDbArc
 50
0.0
 51
90.0
  0
ARC
  5
69D
100
AcDbEntity
  8
2
100
AcDbCircle
 10
-378.607039
 20
-11.792471
 30
0.0
 40
2.0
100
AcDbArc
 50
270.0
 51
360.0
  0
LINE
  5
69E
100
AcDbEntity
  8
2
100
AcDbLine
 10
115.590625
 20
111.05924
 30
0.0
 11
139.904641
 21
109.784996
 31
0.0
  0
ARC
  5
69F
100
AcDbEntity
  8
2
100
AcDbCircle
 10
115.642961
 20
112.057869
 30
0.0
 40
1.0
100
AcDbArc
 50
180.0
 51
267.0
  0
ARC
  5
6A0
100
AcDbEntity
  8
2
100
AcDbCircle
 10
139.642961
 20
104.791848
 30
0.0
 40
5.0
100
AcDbArc
 50
360.0
 51
87.0
  0
ARC
  5
6A1
100
AcDbEntity
  8
2
100
AcDbCircle
 10
-557.906191
 20
403.707529
 30
0.0
 40
4.0
100
AcDbArc
 50
360.0
 51
90.0
  0
ARC
  5
6A2
100
AcDbEntity
  8
2
100
AcDbCircle
 10
147.642961
 20
88.207529
 30
0.0
 40
3.0
100
AcDbArc
 50
180.0
 51
270.0
  0
LINE
  5
6A3
100
AcDbEntity
  8
2
100
AcDbLine
 10
115.642961
 20
0.207529
 30
0.0
 11
141.397963
 21
0.207529
 31
0.0
  0
ARC
  5
6A4
100
AcDbEntity
  8
2
100
AcDbCircle
 10
113.642961
 20
-2.792471
 30
0.0
 40
1.0
100
AcDbArc
 50
270.0
 51
360.0
  0
ARC
  5
6A5
100
AcDbEntity
  8
2
100
AcDbCircle
 10
115.642961
 20
-0.792471
 30
0.0
 40
1.0
100
AcDbArc
 50
90.0
 51
180.0
  0
ARC
  5
6A6
100
AcDbEntity
  8
2
100
AcDbCircle
 10
141.397963
 20
-0.792471
 30
0.0
 40
1.0
100
AcDbArc
 50
38.682187
 51
90.0
  0
LINE
  5
6A7
100
AcDbEntity
  8
2
100
AcDbLine
 10
123.642961
 20
-0.792471
 30
0.0
 11
123.642961
 21
-11.792471
 31
0.0
  0
LINE
  5
6A8
100
AcDbEntity
  8
2
100
AcDbLine
 10
257.642961
 20
13.207529
 30
0.0
 11
257.642961
 21
-11.792471
 31
0.0
  0
ARC
  5
6A9
100
AcDbEntity
  8
2
100
AcDbCircle
 10
255.642961
 20
-11.792471
 30
0.0
 40
2.0
100
AcDbArc
 50
270.0
 51
360.0
  0
ARC
  5
6AA
100
AcDbEntity
  8
2
100
AcDbCircle
 10
125.642961
 20
-11.792471
 30
0.0
 40
2.0
100
AcDbArc
 50
180.0
 51
270.0
  0
ARC
  5
6AB
100
AcDbEntity
  8
2
100
AcDbCircle
 10
122.642961
 20
-0.792471
 30
0.0
 40
1.0
100
AcDbArc
 50
0.0
 51
90.0
  0
LINE
  5
6AC
100
AcDbEntity
  8
2
100
AcDbLine
 10
139.642961
 20
-15.792471
 30
0.0
 11
139.642961
 21
-26.792471
 31
0.0
  0
LINE
  5
6AD
100
AcDbEntity
  8
2
100
AcDbLine
 10
241.642961
 20
-15.792471
 30
0.0
 11
241.642961
 21
-26.792471
 31
0.0
  0
ARC
  5
6AE
100
AcDbEntity
  8
2
100
AcDbCircle
 10
243.642961
 20
-15.792471
 30
0.0
 40
2.0
100
AcDbArc
 50
128.682187
 51
180.0
  0
ARC
  5
6AF
100
AcDbEntity
  8
2
100
AcDbCircle
 10
137.642961
 20
-15.792471
 30
0.0
 40
2.0
100
AcDbArc
 50
0.0
 51
51.317813
  0
LINE
  5
6B0
100
AcDbEntity
  8
2
100
AcDbLine
 10
249.642961
 20
71.707529
 30
0.0
 11
245.642961
 21
71.707529
 31
0.0
  0
LINE
  5
6B1
100
AcDbEntity
  8
2
100
AcDbLine
 10
239.142961
 20
78.207529
 30
0.0
 11
239.142961
 21
82.207529
 31
0.0
  0
LINE
  5
6B2
100
AcDbEntity
  8
2
100
AcDbLine
 10
249.642961
 20
10.707529
 30
0.0
 11
245.642961
 21
10.707529
 31
0.0
  0
LINE
  5
6B3
100
AcDbEntity
  8
2
100
AcDbLine
 10
239.142961
 20
4.207529
 30
0.0
 11
239.142961
 21
0.207529
 31
0.0
  0
LINE
  5
6B4
100
AcDbEntity
  8
2
100
AcDbLine
 10
143.642961
 20
10.707529
 30
0.0
 11
147.642961
 21
10.707529
 31
0.0
  0
LINE
  5
6B5
100
AcDbEntity
  8
2
100
AcDbLine
 10
154.142961
 20
4.207529
 30
0.0
 11
154.142961
 21
0.207529
 31
0.0
  0
LINE
  5
6B6
100
AcDbEntity
  8
2
100
AcDbLine
 10
143.642961
 20
71.707529
 30
0.0
 11
147.642961
 21
71.707529
 31
0.0
  0
LINE
  5
6B7
100
AcDbEntity
  8
2
100
AcDbLine
 10
154.142961
 20
78.207529
 30
0.0
 11
154.142961
 21
82.207529
 31
0.0
  0
ARC
  5
6B8
100
AcDbEntity
  8
2
100
AcDbCircle
 10
236.142961
 20
82.207529
 30
0.0
 40
3.0
100
AcDbArc
 50
0.0
 51
90.0
  0
ARC
  5
6B9
100
AcDbEntity
  8
2
100
AcDbCircle
 10
249.642961
 20
68.707529
 30
0.0
 40
3.0
100
AcDbArc
 50
0.0
 51
90.0
  0
ARC
  5
6BA
100
AcDbEntity
  8
2
100
AcDbCircle
 10
249.642961
 20
13.707529
 30
0.0
 40
3.0
100
AcDbArc
 50
270.0
 51
360.0
  0
ARC
  5
6BB
100
AcDbEntity
  8
2
100
AcDbCircle
 10
236.142961
 20
0.207529
 30
0.0
 40
3.0
100
AcDbArc
 50
270.0
 51
360.0
  0
ARC
  5
6BC
100
AcDbEntity
  8
2
100
AcDbCircle
 10
157.142961
 20
0.207529
 30
0.0
 40
3.0
100
AcDbArc
 50
180.0
 51
270.0
  0
ARC
  5
6BD
100
AcDbEntity
  8
2
100
AcDbCircle
 10
143.642961
 20
13.707529
 30
0.0
 40
3.0
100
AcDbArc
 50
180.0
 51
270.0
  0
ARC
  5
6BE
100
AcDbEntity
  8
2
100
AcDbCircle
 10
143.642961
 20
68.707529
 30
0.0
 40
3.0
100
AcDbArc
 50
90.0
 51
180.0
  0
ARC
  5
6BF
100
AcDbEntity
  8
2
100
AcDbCircle
 10
157.142961
 20
82.207529
 30
0.0
 40
3.0
100
AcDbArc
 50
90.0
 51
180.0
  0
ARC
  5
6C0
100
AcDbEntity
  8
2
100
AcDbCircle
 10
245.642961
 20
78.207529
 30
0.0
 40
6.5
100
AcDbArc
 50
180.0
 51
270.0
  0
ARC
  5
6C1
100
AcDbEntity
  8
2
100
AcDbCircle
 10
245.642961
 20
4.207529
 30
0.0
 40
6.5
100
AcDbArc
 50
90.0
 51
180.0
  0
ARC
  5
6C2
100
AcDbEntity
  8
2
100
AcDbCircle
 10
147.642961
 20
4.207529
 30
0.0
 40
6.5
100
AcDbArc
 50
360.0
 51
90.0
  0
ARC
  5
6C3
100
AcDbEntity
  8
2
100
AcDbCircle
 10
147.642961
 20
78.207529
 30
0.0
 40
6.5
100
AcDbArc
 50
270.0
 51
0.0
  0
LINE
  5
6C4
100
AcDbEntity
  8
2
100
AcDbLine
 10
252.642961
 20
15.207529
 30
0.0
 11
255.642961
 21
15.207529
 31
0.0
  0
ARC
  5
6C5
100
AcDbEntity
  8
2
100
AcDbCircle
 10
255.642961
 20
13.207529
 30
0.0
 40
2.0
100
AcDbArc
 50
0.0
 51
90.0
  0
LINE
  5
6C6
100
AcDbEntity
  8
2
100
AcDbLine
 10
252.642961
 20
69.207529
 30
0.0
 11
264.642961
 21
69.207529
 31
0.0
  0
LINE
  5
6C7
100
AcDbEntity
  8
2
100
AcDbLine
 10
252.642961
 20
37.207529
 30
0.0
 11
264.642961
 21
37.207529
 31
0.0
  0
ARC
  5
6C8
100
AcDbEntity
  8
2
100
AcDbCircle
 10
264.642961
 20
40.207529
 30
0.0
 40
3.0
100
AcDbArc
 50
270.0
 51
360.0
  0
ARC
  5
6C9
100
AcDbEntity
  8
2
100
AcDbCircle
 10
264.642961
 20
66.207529
 30
0.0
 40
3.0
100
AcDbArc
 50
0.0
 51
90.0
  0
LINE
  5
6CA
100
AcDbEntity
  8
2
100
AcDbLine
 10
257.642961
 20
-0.734672
 30
0.0
 11
267.555813
 21
39.489689
 31
0.0
  0
LINE
  5
6CB
100
AcDbEntity
  8
2
100
AcDbLine
 10
241.642961
 20
96.207529
 30
0.0
 11
266.642961
 21
96.207529
 31
0.0
  0
LINE
  5
6CC
100
AcDbEntity
  8
2
100
AcDbLine
 10
266.642961
 20
96.207529
 30
0.0
 11
267.642961
 21
95.207529
 31
0.0
  0
LINE
  5
6CD
100
AcDbEntity
  8
2
100
AcDbLine
 10
259.846669
 20
8.207529
 30
0.0
 11
266.642961
 21
8.207529
 31
0.0
  0
LINE
  5
6CE
100
AcDbEntity
  8
2
100
AcDbLine
 10
266.642961
 20
8.207529
 30
0.0
 11
267.642961
 21
9.207529
 31
0.0
  0
LINE
  5
6CF
100
AcDbEntity
  8
2
100
AcDbLine
 10
241.642961
 20
87.407529
 30
0.0
 11
266.642961
 21
87.407529
 31
0.0
  0
LINE
  5
6D0
100
AcDbEntity
  8
2
100
AcDbLine
 10
266.642961
 20
8.207529
 30
0.0
 11
266.642961
 21
30.707529
 31
0.0
  0
LINE
  5
6D1
100
AcDbEntity
  8
2
100
AcDbLine
 10
266.642961
 20
68.443597
 30
0.0
 11
266.642961
 21
96.207529
 31
0.0
  0
LINE
  5
6D2
100
AcDbEntity
  8
2
100
AcDbLine
 10
266.642961
 20
87.407529
 30
0.0
 11
267.642961
 21
86.407529
 31
0.0
  0
LINE
  5
6D3
100
AcDbEntity
  8
2
100
AcDbLine
 10
275.642961
 20
33.884029
 30
0.0
 11
274.966461
 21
33.207529
 31
0.0
  0
LINE
  5
6D4
100
AcDbEntity
  8
2
100
AcDbLine
 10
274.966461
 20
33.207529
 30
0.0
 11
271.142961
 21
33.207529
 31
0.0
  0
LINE
  5
6D5
100
AcDbEntity
  8
2
 62
     2
100
AcDbLine
 10
275.642961
 20
33.884029
 30
0.0
 11
271.142961
 21
33.884029
 31
0.0
  0
LINE
  5
6D6
100
AcDbEntity
  8
2
100
AcDbLine
 10
275.642961
 20
33.884029
 30
0.0
 11
275.642961
 21
40.531029
 31
0.0
  0
LINE
  5
6D7
100
AcDbEntity
  8
2
100
AcDbLine
 10
275.642961
 20
40.531029
 30
0.0
 11
274.966461
 21
41.207529
 31
0.0
  0
LINE
  5
6D8
100
AcDbEntity
  8
2
100
AcDbLine
 10
274.966461
 20
41.207529
 30
0.0
 11
271.106247
 21
41.207529
 31
0.0
  0
LINE
  5
6D9
100
AcDbEntity
  8
2
100
AcDbLine
 10
274.966461
 20
41.207529
 30
0.0
 11
274.966461
 21
33.207529
 31
0.0
  0
LINE
  5
6DA
100
AcDbEntity
  8
2
 62
     2
100
AcDbLine
 10
275.642961
 20
40.531029
 30
0.0
 11
271.142961
 21
40.531029
 31
0.0
  0
LINE
  5
6DB
100
AcDbEntity
  8
2
100
AcDbLine
 10
267.642961
 20
43.707529
 30
0.0
 11
271.142961
 21
43.707529
 31
0.0
  0
ARC
  5
6DC
100
AcDbEntity
  8
2
100
AcDbCircle
 10
263.464203
 20
40.457529
 30
0.0
 40
7.678759
100
AcDbArc
 50
334.96034
 51
25.03966
  0
LINE
  5
6DD
100
AcDbEntity
  8
2
100
AcDbLine
 10
265.391546
 20
30.707529
 30
0.0
 11
271.142961
 21
30.707529
 31
0.0
  0
LINE
  5
6DE
100
AcDbEntity
  8
2
100
AcDbLine
 10
271.142961
 20
30.707529
 30
0.0
 11
271.142961
 21
43.707529
 31
0.0
  0
LINE
  5
6DF
100
AcDbEntity
  8
2
100
AcDbLine
 10
266.9934
 20
37.207529
 30
0.0
 11
270.421274
 21
37.207529
 31
0.0
  0
ARC
  5
6E0
100
AcDbEntity
  8
2
100
AcDbCircle
 10
263.464203
 20
33.957529
 30
0.0
 40
7.678759
100
AcDbArc
 50
334.96034
 51
25.03966
  0
ARC
  5
6E1
100
AcDbEntity
  8
2
100
AcDbCircle
 10
140.642961
 20
112.750419
 30
0.0
 40
3.0
100
AcDbArc
 50
267.0
 51
360.0
  0
LINE
  5
6E2
100
AcDbEntity
  8
2
100
AcDbLine
 10
99.642961
 20
114.108905
 30
0.0
 11
99.642961
 21
-2.792471
 31
0.0
  0
ARC
  5
6E3
100
AcDbEntity
  8
2
100
AcDbCircle
 10
100.642961
 20
114.108905
 30
0.0
 40
1.0
100
AcDbArc
 50
90.0
 51
180.0
  0
ARC
  5
6E4
100
AcDbEntity
  8
2
100
AcDbCircle
 10
100.642961
 20
-2.792471
 30
0.0
 40
1.0
100
AcDbArc
 50
180.0
 51
270.0
  0
LINE
  5
6E5
100
AcDbEntity
  8
2
100
AcDbLine
 10
81.642961
 20
104.536472
 30
0.0
 11
81.642961
 21
2.549782
 31
0.0
  0
LINE
  5
6E6
100
AcDbEntity
  8
2
100
AcDbLine
 10
99.642961
 20
113.152567
 30
0.0
 11
85.362641
 21
109.369771
 31
0.0
  0
LINE
  5
6E7
100
AcDbEntity
  8
2
100
AcDbLine
 10
99.642961
 20
-3.792471
 30
0.0
 11
86.139126
 21
-2.424768
 31
0.0
  0
ARC
  5
6E8
100
AcDbEntity
  8
2
100
AcDbCircle
 10
86.642961
 20
104.536472
 30
0.0
 40
5.0
100
AcDbArc
 50
104.836646
 51
180.0
  0
ARC
  5
6E9
100
AcDbEntity
  8
2
100
AcDbCircle
 10
86.642961
 20
2.549782
 30
0.0
 40
5.0
100
AcDbArc
 50
180.0
 51
264.21666
  0
LINE
  5
6EA
100
AcDbEntity
  8
2
100
AcDbLine
 10
75.642961
 20
71.370894
 30
0.0
 11
75.642961
 21
35.044164
 31
0.0
  0
LINE
  5
6EB
100
AcDbEntity
  8
2
100
AcDbLine
 10
63.642961
 20
65.672875
 30
0.0
 11
63.642961
 21
40.742183
 31
0.0
  0
LINE
  5
6EC
100
AcDbEntity
  8
2
100
AcDbLine
 10
65.125323
 20
67.604727
 30
0.0
 11
74.185799
 21
70.032474
 31
0.0
  0
LINE
  5
6ED
100
AcDbEntity
  8
2
100
AcDbLine
 10
79.348866
 20
76.200524
 30
0.0
 11
80.160599
 21
76.418027
 31
0.0
  0
LINE
  5
6EE
100
AcDbEntity
  8
2
100
AcDbLine
 10
65.125323
 20
38.810332
 30
0.0
 11
74.185799
 21
36.382584
 31
0.0
  0
LINE
  5
6EF
100
AcDbEntity
  8
2
100
AcDbLine
 10
79.348866
 20
30.214535
 30
0.0
 11
80.160599
 21
29.997032
 31
0.0
  0
ARC
  5
6F0
100
AcDbEntity
  8
2
100
AcDbCircle
 10
80.642961
 20
71.370894
 30
0.0
 40
5.0
100
AcDbArc
 50
105.0
 51
180.0
  0
ARC
  5
6F1
100
AcDbEntity
  8
2
100
AcDbCircle
 10
80.642961
 20
35.044164
 30
0.0
 40
5.0
100
AcDbArc
 50
180.0
 51
255.0
  0
ARC
  5
6F2
100
AcDbEntity
  8
2
100
AcDbCircle
 10
65.642961
 20
65.672875
 30
0.0
 40
2.0
100
AcDbArc
 50
105.0
 51
180.0
  0
ARC
  5
6F3
100
AcDbEntity
  8
2
100
AcDbCircle
 10
65.642961
 20
40.742183
 30
0.0
 40
2.0
100
AcDbArc
 50
180.0
 51
255.0
  0
ARC
  5
6F4
100
AcDbEntity
  8
2
100
AcDbCircle
 10
79.642961
 20
78.349878
 30
0.0
 40
2.0
100
AcDbArc
 50
285.0
 51
360.0
  0
ARC
  5
6F5
100
AcDbEntity
  8
2
100
AcDbCircle
 10
79.642961
 20
28.06518
 30
0.0
 40
2.0
100
AcDbArc
 50
0.0
 51
75.0
  0
ARC
  5
6F6
100
AcDbEntity
  8
2
100
AcDbCircle
 10
73.668161
 20
34.450733
 30
0.0
 40
2.0
100
AcDbArc
 50
4.86314
 51
75.0
  0
ARC
  5
6F7
100
AcDbEntity
  8
2
100
AcDbCircle
 10
73.668161
 20
71.964326
 30
0.0
 40
2.0
100
AcDbArc
 50
285.0
 51
355.13686
  0
LINE
  5
6F8
100
AcDbEntity
  8
2
100
AcDbLine
 10
116.642961
 20
108.207529
 30
0.0
 11
129.642961
 21
108.207529
 31
0.0
  0
LINE
  5
6F9
100
AcDbEntity
  8
2
100
AcDbLine
 10
116.642961
 20
100.207529
 30
0.0
 11
129.642961
 21
100.207529
 31
0.0
  0
LINE
  5
6FA
100
AcDbEntity
  8
2
100
AcDbLine
 10
116.642961
 20
10.207529
 30
0.0
 11
129.642961
 21
10.207529
 31
0.0
  0
LINE
  5
6FB
100
AcDbEntity
  8
2
100
AcDbLine
 10
116.642961
 20
2.207529
 30
0.0
 11
129.642961
 21
2.207529
 31
0.0
  0
ARC
  5
6FC
100
AcDbEntity
  8
2
100
AcDbCircle
 10
129.642961
 20
104.207529
 30
0.0
 40
4.0
100
AcDbArc
 50
270.0
 51
90.0
  0
ARC
  5
6FD
100
AcDbEntity
  8
2
100
AcDbCircle
 10
129.642961
 20
6.207529
 30
0.0
 40
4.0
100
AcDbArc
 50
270.0
 51
90.0
  0
ARC
  5
6FE
100
AcDbEntity
  8
2
100
AcDbCircle
 10
116.642961
 20
110.207529
 30
0.0
 40
2.0
100
AcDbArc
 50
180.0
 51
270.0
  0
ARC
  5
6FF
100
AcDbEntity
  8
2
100
AcDbCircle
 10
116.642961
 20
98.207529
 30
0.0
 40
2.0
100
AcDbArc
 50
90.0
 51
180.0
  0
ARC
  5
700
100
AcDbEntity
  8
2
100
AcDbCircle
 10
116.642961
 20
12.207529
 30
0.0
 40
2.0
100
AcDbArc
 50
180.0
 51
270.0
  0
ARC
  5
701
100
AcDbEntity
  8
2
100
AcDbCircle
 10
116.642961
 20
0.207529
 30
0.0
 40
2.0
100
AcDbArc
 50
90.0
 51
180.0
  0
ARC
  5
702
100
AcDbEntity
  8
2
100
AcDbCircle
 10
-493.607039
 20
3.207529
 30
0.0
 40
7.128574
100
AcDbArc
 50
0.0
 51
180.0
  0
LINE
  5
703
100
AcDbEntity
  8
2
100
AcDbLine
 10
-486.478465
 20
3.207529
 30
0.0
 11
-486.478465
 21
2.674417
 31
0.0
  0
LINE
  5
704
100
AcDbEntity
  8
2
100
AcDbLine
 10
-500.735612
 20
3.207529
 30
0.0
 11
-500.735612
 21
3.110782
 31
0.0
  0
ARC
  5
705
100
AcDbEntity
  8
2
100
AcDbCircle
 10
-483.478465
 20
2.674417
 30
0.0
 40
3.0
100
AcDbArc
 50
180.0
 51
268.765968
  0
ARC
  5
706
100
AcDbEntity
  8
2
100
AcDbCircle
 10
-503.735612
 20
3.110782
 30
0.0
 40
3.0
100
AcDbArc
 50
268.765968
 51
360.0
  0
LINE
  5
707
100
AcDbEntity
  8
2
100
AcDbLine
 10
-487.485735
 20
342.010786
 30
0.0
 11
-487.485735
 21
353.707529
 31
0.0
  0
LINE
  5
708
100
AcDbEntity
  8
2
100
AcDbLine
 10
-500.092248
 20
342.010786
 30
0.0
 11
-500.092248
 21
353.707529
 31
0.0
  0
ARC
  5
709
100
AcDbEntity
  8
2
100
AcDbCircle
 10
-493.788992
 20
342.010786
 30
0.0
 40
6.303256
100
AcDbArc
 50
180.0
 51
360.0
  0
ARC
  5
70A
100
AcDbEntity
  8
2
100
AcDbCircle
 10
-614.731394
 20
350.707529
 30
0.0
 40
3.0
100
AcDbArc
 50
30.0
 51
90.0
  0
ARC
  5
70B
100
AcDbEntity
  8
2
100
AcDbCircle
 10
-599.720287
 20
340.707529
 30
0.0
 40
5.0
100
AcDbArc
 50
210.0
 51
270.0
  0
CIRCLE
  5
70C
100
AcDbEntity
  8
2
100
AcDbCircle
 10
-628.607039
 20
48.207529
 30
0.0
 40
5.25
  0
CIRCLE
  5
70D
100
AcDbEntity
  8
2
100
AcDbCircle
 10
-628.607039
 20
48.207529
 30
0.0
 40
5.25
  0
CIRCLE
  5
70E
100
AcDbEntity
  8
2
100
AcDbCircle
 10
-628.607039
 20
48.207529
 30
0.0
 40
5.75
  0
CIRCLE
  5
70F
100
AcDbEntity
  8
2
100
AcDbCircle
 10
-493.607039
 20
100.137529
 30
0.0
 40
5.25
  0
CIRCLE
  5
710
100
AcDbEntity
  8
2
100
AcDbCircle
 10
-493.607039
 20
100.137529
 30
0.0
 40
5.25
  0
CIRCLE
  5
711
100
AcDbEntity
  8
2
100
AcDbCircle
 10
-493.607039
 20
100.137529
 30
0.0
 40
5.75
  0
CIRCLE
  5
712
100
AcDbEntity
  8
2
100
AcDbCircle
 10
-493.607039
 20
3.207529
 30
0.0
 40
5.25
  0
CIRCLE
  5
713
100
AcDbEntity
  8
2
100
AcDbCircle
 10
-493.607039
 20
3.207529
 30
0.0
 40
5.25
  0
CIRCLE
  5
714
100
AcDbEntity
  8
2
100
AcDbCircle
 10
-493.607039
 20
3.207529
 30
0.0
 40
5.75
  0
CIRCLE
  5
715
100
AcDbEntity
  8
2
100
AcDbCircle
 10
-366.607039
 20
104.207529
 30
0.0
 40
5.25
  0
CIRCLE
  5
716
100
AcDbEntity
  8
2
100
AcDbCircle
 10
-366.607039
 20
104.207529
 30
0.0
 40
5.25
  0
CIRCLE
  5
717
100
AcDbEntity
  8
2
100
AcDbCircle
 10
-366.607039
 20
104.207529
 30
0.0
 40
5.75
  0
CIRCLE
  5
718
100
AcDbEntity
  8
2
100
AcDbCircle
 10
-363.607039
 20
6.207529
 30
0.0
 40
5.25
  0
CIRCLE
  5
719
100
AcDbEntity
  8
2
100
AcDbCircle
 10
-363.607039
 20
6.207529
 30
0.0
 40
5.25
  0
CIRCLE
  5
71A
100
AcDbEntity
  8
2
100
AcDbCircle
 10
-363.607039
 20
6.207529
 30
0.0
 40
5.75
  0
CIRCLE
  5
71B
100
AcDbEntity
  8
2
100
AcDbCircle
 10
147.642961
 20
78.207529
 30
0.0
 40
5.25
  0
CIRCLE
  5
71C
100
AcDbEntity
  8
2
100
AcDbCircle
 10
147.642961
 20
78.207529
 30
0.0
 40
5.25
  0
CIRCLE
  5
71D
100
AcDbEntity
  8
2
100
AcDbCircle
 10
147.642961
 20
78.207529
 30
0.0
 40
5.75
  0
CIRCLE
  5
71E
100
AcDbEntity
  8
2
100
AcDbCircle
 10
245.642961
 20
78.207529
 30
0.0
 40
5.25
  0
CIRCLE
  5
71F
100
AcDbEntity
  8
2
100
AcDbCircle
 10
245.642961
 20
78.207529
 30
0.0
 40
5.25
  0
CIRCLE
  5
720
100
AcDbEntity
  8
2
100
AcDbCircle
 10
245.642961
 20
78.207529
 30
0.0
 40
5.75
  0
CIRCLE
  5
721
100
AcDbEntity
  8
2
100
AcDbCircle
 10
147.642961
 20
4.207529
 30
0.0
 40
5.25
  0
CIRCLE
  5
722
100
AcDbEntity
  8
2
100
AcDbCircle
 10
147.642961
 20
4.207529
 30
0.0
 40
5.25
  0
CIRCLE
  5
723
100
AcDbEntity
  8
2
100
AcDbCircle
 10
147.642961
 20
4.207529
 30
0.0
 40
5.75
  0
CIRCLE
  5
724
100
AcDbEntity
  8
2
100
AcDbCircle
 10
245.642961
 20
4.207529
 30
0.0
 40
5.25
  0
CIRCLE
  5
725
100
AcDbEntity
  8
2
100
AcDbCircle
 10
245.642961
 20
4.207529
 30
0.0
 40
5.25
  0
CIRCLE
  5
726
100
AcDbEntity
  8
2
100
AcDbCircle
 10
245.642961
 20
4.207529
 30
0.0
 40
5.75
  0
LINE
  5
727
100
AcDbEntity
  8
2
100
AcDbLine
 10
-337.107039
 20
-1.542471
 30
0.0
 11
-337.107039
 21
9.957529
 31
0.0
  0
LINE
  5
728
100
AcDbEntity
  8
2
100
AcDbLine
 10
-337.107039
 20
9.957529
 30
0.0
 11
-338.607039
 21
9.957529
 31
0.0
  0
LINE
  5
729
100
AcDbEntity
  8
2
100
AcDbLine
 10
-337.107039
 20
-1.542471
 30
0.0
 11
-338.607039
 21
-1.542471
 31
0.0
  0
LINE
  5
72A
100
AcDbEntity
  8
2
100
AcDbLine
 10
-335.580023
 20
9.457529
 30
0.0
 11
-337.107039
 21
9.457529
 31
0.0
  0
LINE
  5
72B
100
AcDbEntity
  8
2
100
AcDbLine
 10
-335.580023
 20
-1.042471
 30
0.0
 11
-337.107039
 21
-1.042471
 31
0.0
  0
ARC
  5
72C
100
AcDbEntity
  8
2
100
AcDbCircle
 10
-347.207039
 20
4.207529
 30
0.0
 40
14.0
100
AcDbArc
 50
343.927141
 51
16.072859
  0
ARC
  5
72D
100
AcDbEntity
  8
2
100
AcDbCircle
 10
-335.580023
 20
0.857529
 30
0.0
 40
1.9
100
AcDbArc
 50
270.0
 51
343.927141
  0
ARC
  5
72E
100
AcDbEntity
  8
2
100
AcDbCircle
 10
-335.580023
 20
7.557529
 30
0.0
 40
1.9
100
AcDbArc
 50
16.072859
 51
90.0
  0
LINE
  5
72F
100
AcDbEntity
  8
2
100
AcDbLine
 10
-337.107039
 20
72.457529
 30
0.0
 11
-337.107039
 21
83.957529
 31
0.0
  0
LINE
  5
730
100
AcDbEntity
  8
2
100
AcDbLine
 10
-337.107039
 20
83.957529
 30
0.0
 11
-338.607039
 21
83.957529
 31
0.0
  0
LINE
  5
731
100
AcDbEntity
  8
2
100
AcDbLine
 10
-337.107039
 20
72.457529
 30
0.0
 11
-338.607039
 21
72.457529
 31
0.0
  0
LINE
  5
732
100
AcDbEntity
  8
2
100
AcDbLine
 10
-335.580023
 20
83.457529
 30
0.0
 11
-337.107039
 21
83.457529
 31
0.0
  0
LINE
  5
733
100
AcDbEntity
  8
2
100
AcDbLine
 10
-335.580023
 20
72.957529
 30
0.0
 11
-337.107039
 21
72.957529
 31
0.0
  0
ARC
  5
734
100
AcDbEntity
  8
2
100
AcDbCircle
 10
-347.207039
 20
78.207529
 30
0.0
 40
14.0
100
AcDbArc
 50
343.927141
 51
16.072859
  0
ARC
  5
735
100
AcDbEntity
  8
2
100
AcDbCircle
 10
-335.580023
 20
74.857529
 30
0.0
 40
1.9
100
AcDbArc
 50
270.0
 51
343.927141
  0
ARC
  5
736
100
AcDbEntity
  8
2
100
AcDbCircle
 10
-335.580023
 20
81.557529
 30
0.0
 40
1.9
100
AcDbArc
 50
16.072859
 51
90.0
  0
LINE
  5
737
100
AcDbEntity
  8
2
100
AcDbLine
 10
-337.107039
 20
493.957529
 30
0.0
 11
-337.107039
 21
505.457529
 31
0.0
  0
LINE
  5
738
100
AcDbEntity
  8
2
100
AcDbLine
 10
-337.107039
 20
505.457529
 30
0.0
 11
-338.607039
 21
505.457529
 31
0.0
  0
LINE
  5
739
100
AcDbEntity
  8
2
100
AcDbLine
 10
-337.107039
 20
493.957529
 30
0.0
 11
-338.607039
 21
493.957529
 31
0.0
  0
LINE
  5
73A
100
AcDbEntity
  8
2
100
AcDbLine
 10
-335.580023
 20
504.957529
 30
0.0
 11
-337.107039
 21
504.957529
 31
0.0
  0
LINE
  5
73B
100
AcDbEntity
  8
2
100
AcDbLine
 10
-335.580023
 20
494.457529
 30
0.0
 11
-337.107039
 21
494.457529
 31
0.0
  0
ARC
  5
73C
100
AcDbEntity
  8
2
100
AcDbCircle
 10
-347.207039
 20
499.707529
 30
0.0
 40
14.0
100
AcDbArc
 50
343.927141
 51
16.072859
  0
ARC
  5
73D
100
AcDbEntity
  8
2
100
AcDbCircle
 10
-335.580023
 20
496.357529
 30
0.0
 40
1.9
100
AcDbArc
 50
270.0
 51
343.927141
  0
ARC
  5
73E
100
AcDbEntity
  8
2
100
AcDbCircle
 10
-335.580023
 20
503.057529
 30
0.0
 40
1.9
100
AcDbArc
 50
16.072859
 51
90.0
  0
LINE
  5
73F
100
AcDbEntity
  8
2
100
AcDbLine
 10
-337.107039
 20
395.957529
 30
0.0
 11
-337.107039
 21
407.457529
 31
0.0
  0
LINE
  5
740
100
AcDbEntity
  8
2
100
AcDbLine
 10
-337.107039
 20
407.457529
 30
0.0
 11
-338.607039
 21
407.457529
 31
0.0
  0
LINE
  5
741
100
AcDbEntity
  8
2
100
AcDbLine
 10
-337.107039
 20
395.957529
 30
0.0
 11
-338.607039
 21
395.957529
 31
0.0
  0
LINE
  5
742
100
AcDbEntity
  8
2
100
AcDbLine
 10
-335.580023
 20
406.957529
 30
0.0
 11
-337.107039
 21
406.957529
 31
0.0
  0
LINE
  5
743
100
AcDbEntity
  8
2
100
AcDbLine
 10
-335.580023
 20
396.457529
 30
0.0
 11
-337.107039
 21
396.457529
 31
0.0
  0
ARC
  5
744
100
AcDbEntity
  8
2
100
AcDbCircle
 10
-347.207039
 20
401.707529
 30
0.0
 40
14.0
100
AcDbArc
 50
343.927141
 51
16.072859
  0
ARC
  5
745
100
AcDbEntity
  8
2
100
AcDbCircle
 10
-335.580023
 20
398.357529
 30
0.0
 40
1.9
100
AcDbArc
 50
270.0
 51
343.927141
  0
ARC
  5
746
100
AcDbEntity
  8
2
100
AcDbCircle
 10
-335.580023
 20
405.057529
 30
0.0
 40
1.9
100
AcDbArc
 50
16.072859
 51
90.0
  0
LINE
  5
747
100
AcDbEntity
  8
2
100
AcDbLine
 10
-634.357039
 20
352.207529
 30
0.0
 11
-622.857039
 21
352.207529
 31
0.0
  0
LINE
  5
748
100
AcDbEntity
  8
2
100
AcDbLine
 10
-622.857039
 20
352.207529
 30
0.0
 11
-622.857039
 21
353.707529
 31
0.0
  0
LINE
  5
749
100
AcDbEntity
  8
2
100
AcDbLine
 10
-634.357039
 20
352.207529
 30
0.0
 11
-634.357039
 21
353.707529
 31
0.0
  0
LINE
  5
74A
100
AcDbEntity
  8
2
100
AcDbLine
 10
-623.357039
 20
350.680513
 30
0.0
 11
-623.357039
 21
352.207529
 31
0.0
  0
LINE
  5
74B
100
AcDbEntity
  8
2
100
AcDbLine
 10
-633.857039
 20
350.680513
 30
0.0
 11
-633.857039
 21
352.207529
 31
0.0
  0
ARC
  5
74C
100
AcDbEntity
  8
2
100
AcDbCircle
 10
-628.607039
 20
362.307529
 30
0.0
 40
14.0
100
AcDbArc
 50
253.927141
 51
286.072859
  0
ARC
  5
74D
100
AcDbEntity
  8
2
100
AcDbCircle
 10
-631.957039
 20
350.680513
 30
0.0
 40
1.9
100
AcDbArc
 50
180.0
 51
253.927141
  0
ARC
  5
74E
100
AcDbEntity
  8
2
100
AcDbCircle
 10
-625.257039
 20
350.680513
 30
0.0
 40
1.9
100
AcDbArc
 50
286.072859
 51
360.0
  0
LINE
  5
74F
100
AcDbEntity
  8
2
100
AcDbLine
 10
-499.357039
 20
352.207529
 30
0.0
 11
-487.857039
 21
352.207529
 31
0.0
  0
LINE
  5
750
100
AcDbEntity
  8
2
100
AcDbLine
 10
-487.857039
 20
352.207529
 30
0.0
 11
-487.857039
 21
353.707529
 31
0.0
  0
LINE
  5
751
100
AcDbEntity
  8
2
100
AcDbLine
 10
-499.357039
 20
352.207529
 30
0.0
 11
-499.357039
 21
353.707529
 31
0.0
  0
LINE
  5
752
100
AcDbEntity
  8
2
100
AcDbLine
 10
-488.357039
 20
350.680513
 30
0.0
 11
-488.357039
 21
352.207529
 31
0.0
  0
LINE
  5
753
100
AcDbEntity
  8
2
100
AcDbLine
 10
-498.857039
 20
350.680513
 30
0.0
 11
-498.857039
 21
352.207529
 31
0.0
  0
ARC
  5
754
100
AcDbEntity
  8
2
100
AcDbCircle
 10
-493.607039
 20
362.307529
 30
0.0
 40
14.0
100
AcDbArc
 50
253.927141
 51
286.072859
  0
ARC
  5
755
100
AcDbEntity
  8
2
100
AcDbCircle
 10
-496.957039
 20
350.680513
 30
0.0
 40
1.9
100
AcDbArc
 50
180.0
 51
253.927141
  0
ARC
  5
756
100
AcDbEntity
  8
2
100
AcDbCircle
 10
-490.257039
 20
350.680513
 30
0.0
 40
1.9
100
AcDbArc
 50
286.072859
 51
360.0
  0
LINE
  5
757
100
AcDbEntity
  8
2
100
AcDbLine
 10
-372.357039
 20
352.207529
 30
0.0
 11
-360.857039
 21
352.207529
 31
0.0
  0
LINE
  5
758
100
AcDbEntity
  8
2
100
AcDbLine
 10
-360.857039
 20
352.207529
 30
0.0
 11
-360.857039
 21
353.707529
 31
0.0
  0
LINE
  5
759
100
AcDbEntity
  8
2
100
AcDbLine
 10
-372.357039
 20
352.207529
 30
0.0
 11
-372.357039
 21
353.707529
 31
0.0
  0
LINE
  5
75A
100
AcDbEntity
  8
2
100
AcDbLine
 10
-361.357039
 20
350.680513
 30
0.0
 11
-361.357039
 21
352.207529
 31
0.0
  0
LINE
  5
75B
100
AcDbEntity
  8
2
100
AcDbLine
 10
-371.857039
 20
350.680513
 30
0.0
 11
-371.857039
 21
352.207529
 31
0.0
  0
ARC
  5
75C
100
AcDbEntity
  8
2
100
AcDbCircle
 10
-366.607039
 20
362.307529
 30
0.0
 40
14.0
100
AcDbArc
 50
253.927141
 51
286.072859
  0
ARC
  5
75D
100
AcDbEntity
  8
2
100
AcDbCircle
 10
-369.957039
 20
350.680513
 30
0.0
 40
1.9
100
AcDbArc
 50
180.0
 51
253.927141
  0
ARC
  5
75E
100
AcDbEntity
  8
2
100
AcDbCircle
 10
-363.257039
 20
350.680513
 30
0.0
 40
1.9
100
AcDbArc
 50
286.072859
 51
360.0
  0
LINE
  5
75F
100
AcDbEntity
  8
2
100
AcDbLine
 10
98.142961
 20
98.457529
 30
0.0
 11
98.142961
 21
109.957529
 31
0.0
  0
LINE
  5
760
100
AcDbEntity
  8
2
100
AcDbLine
 10
98.142961
 20
109.957529
 30
0.0
 11
99.642961
 21
109.957529
 31
0.0
  0
LINE
  5
761
100
AcDbEntity
  8
2
100
AcDbLine
 10
98.142961
 20
98.457529
 30
0.0
 11
99.642961
 21
98.457529
 31
0.0
  0
LINE
  5
762
100
AcDbEntity
  8
2
100
AcDbLine
 10
96.615945
 20
109.457529
 30
0.0
 11
98.142961
 21
109.457529
 31
0.0
  0
LINE
  5
763
100
AcDbEntity
  8
2
100
AcDbLine
 10
96.615945
 20
98.957529
 30
0.0
 11
98.142961
 21
98.957529
 31
0.0
  0
ARC
  5
764
100
AcDbEntity
  8
2
100
AcDbCircle
 10
108.242961
 20
104.207529
 30
0.0
 40
14.0
100
AcDbArc
 50
163.927141
 51
196.072859
  0
ARC
  5
765
100
AcDbEntity
  8
2
100
AcDbCircle
 10
96.615945
 20
100.857529
 30
0.0
 40
1.9
100
AcDbArc
 50
196.072859
 51
270.0
  0
ARC
  5
766
100
AcDbEntity
  8
2
100
AcDbCircle
 10
96.615945
 20
107.557529
 30
0.0
 40
1.9
100
AcDbArc
 50
90.0
 51
163.927141
  0
LINE
  5
767
100
AcDbEntity
  8
2
100
AcDbLine
 10
98.142961
 20
0.457529
 30
0.0
 11
98.142961
 21
11.957529
 31
0.0
  0
LINE
  5
768
100
AcDbEntity
  8
2
100
AcDbLine
 10
98.142961
 20
11.957529
 30
0.0
 11
99.642961
 21
11.957529
 31
0.0
  0
LINE
  5
769
100
AcDbEntity
  8
2
100
AcDbLine
 10
98.142961
 20
0.457529
 30
0.0
 11
99.642961
 21
0.457529
 31
0.0
  0
LINE
  5
76A
100
AcDbEntity
  8
2
100
AcDbLine
 10
96.615945
 20
11.457529
 30
0.0
 11
98.142961
 21
11.457529
 31
0.0
  0
LINE
  5
76B
100
AcDbEntity
  8
2
100
AcDbLine
 10
96.615945
 20
0.957529
 30
0.0
 11
98.142961
 21
0.957529
 31
0.0
  0
ARC
  5
76C
100
AcDbEntity
  8
2
100
AcDbCircle
 10
108.242961
 20
6.207529
 30
0.0
 40
14.0
100
AcDbArc
 50
163.927141
 51
196.072859
  0
ARC
  5
76D
100
AcDbEntity
  8
2
100
AcDbCircle
 10
96.615945
 20
2.857529
 30
0.0
 40
1.9
100
AcDbArc
 50
196.072859
 51
270.0
  0
ARC
  5
76E
100
AcDbEntity
  8
2
100
AcDbCircle
 10
96.615945
 20
9.557529
 30
0.0
 40
1.9
100
AcDbArc
 50
90.0
 51
163.927141
  0
LINE
  5
76F
100
AcDbEntity
  8
2
100
AcDbLine
 10
-619.357039
 20
-15.792471
 30
0.0
 11
-633.857039
 21
-15.792471
 31
0.0
  0
LINE
  5
770
100
AcDbEntity
  8
2
100
AcDbLine
 10
-619.357039
 20
-13.792471
 30
0.0
 11
-619.357039
 21
-15.792471
 31
0.0
  0
LINE
  5
771
100
AcDbEntity
  8
2
100
AcDbLine
 10
-633.857039
 20
-13.792471
 30
0.0
 11
-633.857039
 21
-15.792471
 31
0.0
  0
LINE
  5
772
100
AcDbEntity
  8
2
100
AcDbLine
 10
-619.607039
 20
-15.792471
 30
0.0
 11
-619.607039
 21
-17.750519
 31
0.0
  0
LINE
  5
773
100
AcDbEntity
  8
2
100
AcDbLine
 10
-633.607039
 20
-15.792471
 30
0.0
 11
-633.607039
 21
-17.750519
 31
0.0
  0
ARC
  5
774
100
AcDbEntity
  8
2
100
AcDbCircle
 10
-626.607039
 20
-2.992471
 30
0.0
 40
18.0
100
AcDbArc
 50
253.39845
 51
286.60155
  0
ARC
  5
775
100
AcDbEntity
  8
2
100
AcDbCircle
 10
-631.007039
 20
-17.750519
 30
0.0
 40
2.6
100
AcDbArc
 50
180.0
 51
253.39845
  0
ARC
  5
776
100
AcDbEntity
  8
2
100
AcDbCircle
 10
-622.207039
 20
-17.750519
 30
0.0
 40
2.6
100
AcDbArc
 50
286.60155
 51
360.0
  0
LINE
  5
777
100
AcDbEntity
  8
2
100
AcDbLine
 10
-510.357039
 20
-15.792471
 30
0.0
 11
-524.857039
 21
-15.792471
 31
0.0
  0
LINE
  5
778
100
AcDbEntity
  8
2
100
AcDbLine
 10
-510.357039
 20
-13.792471
 30
0.0
 11
-510.357039
 21
-15.792471
 31
0.0
  0
LINE
  5
779
100
AcDbEntity
  8
2
100
AcDbLine
 10
-524.857039
 20
-13.792471
 30
0.0
 11
-524.857039
 21
-15.792471
 31
0.0
  0
LINE
  5
77A
100
AcDbEntity
  8
2
100
AcDbLine
 10
-510.607039
 20
-15.792471
 30
0.0
 11
-510.607039
 21
-17.750519
 31
0.0
  0
LINE
  5
77B
100
AcDbEntity
  8
2
100
AcDbLine
 10
-524.607039
 20
-15.792471
 30
0.0
 11
-524.607039
 21
-17.750519
 31
0.0
  0
ARC
  5
77C
100
AcDbEntity
  8
2
100
AcDbCircle
 10
-517.607039
 20
-2.992471
 30
0.0
 40
18.0
100
AcDbArc
 50
253.39845
 51
286.60155
  0
ARC
  5
77D
100
AcDbEntity
  8
2
100
AcDbCircle
 10
-522.007039
 20
-17.750519
 30
0.0
 40
2.6
100
AcDbArc
 50
180.0
 51
253.39845
  0
ARC
  5
77E
100
AcDbEntity
  8
2
100
AcDbCircle
 10
-513.207039
 20
-17.750519
 30
0.0
 40
2.6
100
AcDbArc
 50
286.60155
 51
360.0
  0
LINE
  5
77F
100
AcDbEntity
  8
2
100
AcDbLine
 10
-377.357039
 20
-15.792471
 30
0.0
 11
-391.857039
 21
-15.792471
 31
0.0
  0
LINE
  5
780
100
AcDbEntity
  8
2
100
AcDbLine
 10
-377.357039
 20
-13.792471
 30
0.0
 11
-377.357039
 21
-15.792471
 31
0.0
  0
LINE
  5
781
100
AcDbEntity
  8
2
100
AcDbLine
 10
-391.857039
 20
-13.792471
 30
0.0
 11
-391.857039
 21
-15.792471
 31
0.0
  0
LINE
  5
782
100
AcDbEntity
  8
2
100
AcDbLine
 10
-377.607039
 20
-15.792471
 30
0.0
 11
-377.607039
 21
-17.750519
 31
0.0
  0
LINE
  5
783
100
AcDbEntity
  8
2
100
AcDbLine
 10
-391.607039
 20
-15.792471
 30
0.0
 11
-391.607039
 21
-17.750519
 31
0.0
  0
ARC
  5
784
100
AcDbEntity
  8
2
100
AcDbCircle
 10
-384.607039
 20
-2.992471
 30
0.0
 40
18.0
100
AcDbArc
 50
253.39845
 51
286.60155
  0
ARC
  5
785
100
AcDbEntity
  8
2
100
AcDbCircle
 10
-389.007039
 20
-17.750519
 30
0.0
 40
2.6
100
AcDbArc
 50
180.0
 51
253.39845
  0
ARC
  5
786
100
AcDbEntity
  8
2
100
AcDbCircle
 10
-380.207039
 20
-17.750519
 30
0.0
 40
2.6
100
AcDbArc
 50
286.60155
 51
360.0
  0
LINE
  5
787
100
AcDbEntity
  8
2
100
AcDbLine
 10
138.892961
 20
-15.792471
 30
0.0
 11
124.392961
 21
-15.792471
 31
0.0
  0
LINE
  5
788
100
AcDbEntity
  8
2
100
AcDbLine
 10
138.892961
 20
-13.792471
 30
0.0
 11
138.892961
 21
-15.792471
 31
0.0
  0
LINE
  5
789
100
AcDbEntity
  8
2
100
AcDbLine
 10
124.392961
 20
-13.792471
 30
0.0
 11
124.392961
 21
-15.792471
 31
0.0
  0
LINE
  5
78A
100
AcDbEntity
  8
2
100
AcDbLine
 10
138.642961
 20
-15.792471
 30
0.0
 11
138.642961
 21
-17.750519
 31
0.0
  0
LINE
  5
78B
100
AcDbEntity
  8
2
100
AcDbLine
 10
124.642961
 20
-15.792471
 30
0.0
 11
124.642961
 21
-17.750519
 31
0.0
  0
ARC
  5
78C
100
AcDbEntity
  8
2
100
AcDbCircle
 10
131.642961
 20
-2.992471
 30
0.0
 40
18.0
100
AcDbArc
 50
253.39845
 51
286.60155
  0
ARC
  5
78D
100
AcDbEntity
  8
2
100
AcDbCircle
 10
127.242961
 20
-17.750519
 30
0.0
 40
2.6
100
AcDbArc
 50
180.0
 51
253.39845
  0
ARC
  5
78E
100
AcDbEntity
  8
2
100
AcDbCircle
 10
136.042961
 20
-17.750519
 30
0.0
 40
2.6
100
AcDbArc
 50
286.60155
 51
360.0
  0
LINE
  5
78F
100
AcDbEntity
  8
2
100
AcDbLine
 10
256.892961
 20
-15.792471
 30
0.0
 11
242.392961
 21
-15.792471
 31
0.0
  0
LINE
  5
790
100
AcDbEntity
  8
2
100
AcDbLine
 10
256.892961
 20
-13.792471
 30
0.0
 11
256.892961
 21
-15.792471
 31
0.0
  0
LINE
  5
791
100
AcDbEntity
  8
2
100
AcDbLine
 10
242.392961
 20
-13.792471
 30
0.0
 11
242.392961
 21
-15.792471
 31
0.0
  0
LINE
  5
792
100
AcDbEntity
  8
2
100
AcDbLine
 10
256.642961
 20
-15.792471
 30
0.0
 11
256.642961
 21
-17.750519
 31
0.0
  0
LINE
  5
793
100
AcDbEntity
  8
2
100
AcDbLine
 10
242.642961
 20
-15.792471
 30
0.0
 11
242.642961
 21
-17.750519
 31
0.0
  0
ARC
  5
794
100
AcDbEntity
  8
2
100
AcDbCircle
 10
249.642961
 20
-2.992471
 30
0.0
 40
18.0
100
AcDbArc
 50
253.39845
 51
286.60155
  0
ARC
  5
795
100
AcDbEntity
  8
2
100
AcDbCircle
 10
245.242961
 20
-17.750519
 30
0.0
 40
2.6
100
AcDbArc
 50
180.0
 51
253.39845
  0
ARC
  5
796
100
AcDbEntity
  8
2
100
AcDbCircle
 10
254.042961
 20
-17.750519
 30
0.0
 40
2.6
100
AcDbArc
 50
286.60155
 51
360.0
  0
LINE
  5
797
100
AcDbEntity
  8
2
  6
CENTER
 62
     2
100
AcDbLine
 10
-543.080692
 20
491.707529
 30
0.0
 11
-526.431144
 21
491.707529
 31
0.0
  0
LINE
  5
798
100
AcDbEntity
  8
2
  6
CENTER
 62
     2
100
AcDbLine
 10
-398.71297
 20
491.707529
 30
0.0
 11
-380.277614
 21
491.707529
 31
0.0
  0
LINE
  5
799
100
AcDbEntity
  8
2
  6
CENTER
 62
     2
100
AcDbLine
 10
-535.607039
 20
396.613425
 30
0.0
 11
-535.607039
 21
411.630576
 31
0.0
  0
LINE
  5
79A
100
AcDbEntity
  8
2
  6
CENTER
 62
     2
100
AcDbLine
 10
-535.607039
 20
484.267951
 30
0.0
 11
-535.607039
 21
499.611548
 31
0.0
  0
LINE
  5
79B
100
AcDbEntity
  8
2
  6
CENTER
 62
     2
100
AcDbLine
 10
-542.264514
 20
403.707529
 30
0.0
 11
-528.389907
 21
403.707529
 31
0.0
  0
LINE
  5
79C
100
AcDbEntity
  8
2
  6
CENTER
 62
     2
100
AcDbLine
 10
-398.955516
 20
403.707529
 30
0.0
 11
-380.762767
 21
403.707529
 31
0.0
  0
LINE
  5
79D
100
AcDbEntity
  8
2
  6
CENTER
 62
     2
100
AcDbLine
 10
-389.607039
 20
394.939368
 30
0.0
 11
-389.607039
 21
412.404425
 31
0.0
  0
LINE
  5
79E
100
AcDbEntity
  8
2
  6
CENTER
 62
     2
100
AcDbLine
 10
-389.607039
 20
482.506842
 30
0.0
 11
-389.607039
 21
499.729285
 31
0.0
  0
LINE
  5
79F
100
AcDbEntity
  8
2
  6
CENTER
 62
     2
100
AcDbLine
 10
-535.607039
 20
141.334978
 30
0.0
 11
-535.607039
 21
124.418966
 31
0.0
  0
LINE
  5
7A0
100
AcDbEntity
  8
2
  6
CENTER
 62
     2
100
AcDbLine
 10
-389.607039
 20
141.334978
 30
0.0
 11
-389.607039
 21
124.418966
 31
0.0
  0
ARC
  5
7A1
100
AcDbEntity
  8
2
  6
CENTER
 62
     2
100
AcDbCircle
 10
-468.607039
 20
444.707529
 30
0.0
 40
37.5
100
AcDbArc
 50
126.361503
 51
143.885033
  0
ARC
  5
7A2
100
AcDbEntity
  8
2
  6
CENTER
 62
     2
100
AcDbCircle
 10
-468.607039
 20
444.707529
 30
0.0
 40
37.5
100
AcDbArc
 50
216.93331
 51
233.416879
  0
ARC
  5
7A3
100
AcDbEntity
  8
2
  6
CENTER
 62
     2
100
AcDbCircle
 10
-468.607039
 20
444.707529
 30
0.0
 40
37.5
100
AcDbArc
 50
306.278748
 51
323.822644
  0
ARC
  5
7A4
100
AcDbEntity
  8
2
  6
CENTER
 62
     2
100
AcDbCircle
 10
-468.607039
 20
444.707529
 30
0.0
 40
37.5
100
AcDbArc
 50
36.280641
 51
53.737219
  0
LINE
  5
7A5
100
AcDbEntity
  8
2
  6
CENTER
 62
     2
100
AcDbLine
 10
-499.446325
 20
413.868243
 30
0.0
 11
-491.395725
 21
421.918843
 31
0.0
  0
LINE
  5
7A6
100
AcDbEntity
  8
2
  6
CENTER
 62
     2
100
AcDbLine
 10
-446.216185
 20
467.098383
 30
0.0
 11
-437.669812
 21
475.644756
 31
0.0
  0
LINE
  5
7A7
100
AcDbEntity
  8
2
  6
CENTER
 62
     2
100
AcDbLine
 10
-499.500658
 20
475.601149
 30
0.0
 11
-491.149666
 21
467.250156
 31
0.0
  0
LINE
  5
7A8
100
AcDbEntity
  8
2
  6
CENTER
 62
     2
100
AcDbLine
 10
-446.034955
 20
422.135446
 30
0.0
 11
-437.903891
 21
414.004382
 31
0.0
  0
LINE
  5
7A9
100
AcDbEntity
  8
2
  6
CENTER
 62
     2
100
AcDbLine
 10
-495.123543
 20
157.122976
 30
0.0
 11
-495.123543
 21
140.702551
 31
0.0
  0
LINE
  5
7AA
100
AcDbEntity
  8
2
  6
CENTER
 62
     2
100
AcDbLine
 10
-442.090534
 20
157.552831
 30
0.0
 11
-442.090534
 21
140.702551
 31
0.0
  0
LINE
  5
7AB
100
AcDbEntity
  8
2
  6
CENTER
 62
     2
100
AcDbLine
 10
237.642961
 20
141.334978
 30
0.0
 11
237.642961
 21
124.860136
 31
0.0
  0
LINE
  5
7AC
100
AcDbEntity
  8
2
  6
CENTER
 62
     2
100
AcDbLine
 10
149.642961
 20
141.334978
 30
0.0
 11
149.642961
 21
124.860136
 31
0.0
  0
LINE
  5
7AD
100
AcDbEntity
  8
2
  6
CENTER
 62
     2
100
AcDbLine
 10
217.159466
 20
141.552347
 30
0.0
 11
217.159466
 21
157.163805
 31
0.0
  0
LINE
  5
7AE
100
AcDbEntity
  8
2
  6
CENTER
 62
     2
100
AcDbLine
 10
164.126457
 20
141.552347
 30
0.0
 11
164.126457
 21
158.557695
 31
0.0
  0
LINE
  5
7AF
100
AcDbEntity
  8
2
  6
CENTER
 62
     2
100
AcDbLine
 10
147.442961
 20
107.207529
 30
0.0
 11
238.242961
 21
107.207529
 31
0.0
  0
LINE
  5
7B0
100
AcDbEntity
  8
2
  6
CENTER
 62
     2
100
AcDbLine
 10
173.642961
 20
129.507529
 30
0.0
 11
173.642961
 21
89.507529
 31
0.0
  0
LINE
  5
7B1
100
AcDbEntity
  8
2
  6
CENTER
 62
     2
100
AcDbLine
 10
213.642961
 20
129.507529
 30
0.0
 11
213.642961
 21
89.507529
 31
0.0
  0
LINE
  5
7B2
100
AcDbEntity
  8
2
  6
CENTER
 62
     2
100
AcDbLine
 10
-493.607039
 20
536.977498
 30
0.0
 11
-493.607039
 21
508.007529
 31
0.0
  0
LINE
  5
7B3
100
AcDbEntity
  8
2
  6
CENTER
 62
     2
100
AcDbLine
 10
-443.607039
 20
507.757529
 30
0.0
 11
-443.607039
 21
536.977498
 31
0.0
  0
LINE
  5
7B4
100
AcDbEntity
  8
2
  6
CENTER
 62
     2
100
AcDbLine
 10
-406.607039
 20
527.857529
 30
0.0
 11
-406.607039
 21
272.204699
 31
0.0
  0
LINE
  5
7B5
100
AcDbEntity
  8
2
  6
CENTER
 62
     2
100
AcDbLine
 10
-406.607039
 20
119.257529
 30
0.0
 11
-406.607039
 21
-13.792471
 31
0.0
  0
LINE
  5
7B6
100
AcDbEntity
  8
2
  6
CENTER
 62
     2
100
AcDbLine
 10
-366.607039
 20
95.207529
 30
0.0
 11
-366.607039
 21
112.107529
 31
0.0
  0
LINE
  5
7B7
100
AcDbEntity
  8
2
  6
CENTER
 62
     2
100
AcDbLine
 10
-375.157039
 20
104.207529
 30
0.0
 11
-356.607039
 21
104.207529
 31
0.0
  0
LINE
  5
7B8
100
AcDbEntity
  8
2
  6
CENTER
 62
     2
100
AcDbLine
 10
-363.607039
 20
15.49742
 30
0.0
 11
-363.607039
 21
-3.367235
 31
0.0
  0
LINE
  5
7B9
100
AcDbEntity
  8
2
  6
CENTER
 62
     2
100
AcDbLine
 10
-372.607039
 20
6.207529
 30
0.0
 11
-354.707039
 21
6.207529
 31
0.0
  0
LINE
  5
7BA
100
AcDbEntity
  8
2
  6
CENTER
 62
     2
100
AcDbLine
 10
-637.078765
 20
48.207529
 30
0.0
 11
-620.807039
 21
48.207529
 31
0.0
  0
LINE
  5
7BB
100
AcDbEntity
  8
2
  6
CENTER
 62
     2
100
AcDbLine
 10
-493.607039
 20
-5.792471
 30
0.0
 11
-493.607039
 21
12.257529
 31
0.0
  0
LINE
  5
7BC
100
AcDbEntity
  8
2
  6
CENTER
 62
     2
100
AcDbLine
 10
-502.607039
 20
3.207529
 30
0.0
 11
-484.557039
 21
3.207529
 31
0.0
  0
LINE
  5
7BD
100
AcDbEntity
  8
2
  6
CENTER
 62
     2
100
AcDbLine
 10
-493.607039
 20
89.757529
 30
0.0
 11
-493.607039
 21
109.307529
 31
0.0
  0
LINE
  5
7BE
100
AcDbEntity
  8
2
  6
CENTER
 62
     2
100
AcDbLine
 10
-651.707039
 20
53.207529
 30
0.0
 11
-318.107039
 21
53.207529
 31
0.0
  0
LINE
  5
7BF
100
AcDbEntity
  8
2
  6
CENTER
 62
     2
100
AcDbLine
 10
-626.607039
 20
4.357529
 30
0.0
 11
-626.607039
 21
-26.282709
 31
0.0
  0
LINE
  5
7C0
100
AcDbEntity
  8
2
  6
CENTER
 62
     2
100
AcDbLine
 10
23.388075
 20
53.207529
 30
0.0
 11
278.879012
 21
53.207529
 31
0.0
  0
LINE
  5
7C1
100
AcDbEntity
  8
2
  6
CENTER
 62
     2
100
AcDbLine
 10
147.642961
 20
67.407529
 30
0.0
 11
147.642961
 21
89.007529
 31
0.0
  0
LINE
  5
7C2
100
AcDbEntity
  8
2
  6
CENTER
 62
     2
100
AcDbLine
 10
136.842961
 20
78.207529
 30
0.0
 11
158.442961
 21
78.207529
 31
0.0
  0
LINE
  5
7C3
100
AcDbEntity
  8
2
  6
CENTER
 62
     2
100
AcDbLine
 10
147.642961
 20
15.007529
 30
0.0
 11
147.642961
 21
-6.592471
 31
0.0
  0
LINE
  5
7C4
100
AcDbEntity
  8
2
  6
CENTER
 62
     2
100
AcDbLine
 10
136.842961
 20
4.207529
 30
0.0
 11
158.442961
 21
4.207529
 31
0.0
  0
LINE
  5
7C5
100
AcDbEntity
  8
2
  6
CENTER
 62
     2
100
AcDbLine
 10
245.642961
 20
67.407529
 30
0.0
 11
245.642961
 21
89.007529
 31
0.0
  0
LINE
  5
7C6
100
AcDbEntity
  8
2
  6
CENTER
 62
     2
100
AcDbLine
 10
256.442961
 20
78.207529
 30
0.0
 11
234.842961
 21
78.207529
 31
0.0
  0
LINE
  5
7C7
100
AcDbEntity
  8
2
  6
CENTER
 62
     2
100
AcDbLine
 10
245.642961
 20
15.007529
 30
0.0
 11
245.642961
 21
-6.592471
 31
0.0
  0
LINE
  5
7C8
100
AcDbEntity
  8
2
  6
CENTER
 62
     2
100
AcDbLine
 10
256.442961
 20
4.207529
 30
0.0
 11
234.842961
 21
4.207529
 31
0.0
  0
LINE
  5
7C9
100
AcDbEntity
  8
2
  6
CENTER
 62
     2
100
AcDbLine
 10
-517.607039
 20
-26.282709
 30
0.0
 11
-517.607039
 21
4.357529
 31
0.0
  0
LINE
  5
7CA
100
AcDbEntity
  8
2
  6
CENTER
 62
     2
100
AcDbLine
 10
-384.607039
 20
4.357529
 30
0.0
 11
-384.607039
 21
-26.282709
 31
0.0
  0
LINE
  5
7CB
100
AcDbEntity
  8
2
  6
CENTER
 62
     2
100
AcDbLine
 10
131.642961
 20
-26.282709
 30
0.0
 11
131.642961
 21
-1.392471
 31
0.0
  0
LINE
  5
7CC
100
AcDbEntity
  8
2
  6
CENTER
 62
     2
100
AcDbLine
 10
249.642961
 20
-2.592471
 30
0.0
 11
249.642961
 21
-26.282709
 31
0.0
  0
LINE
  5
7CD
100
AcDbEntity
  8
2
  6
CENTER
 62
     2
100
AcDbLine
 10
-351.657039
 20
78.207529
 30
0.0
 11
-328.657039
 21
78.207529
 31
0.0
  0
LINE
  5
7CE
100
AcDbEntity
  8
2
  6
CENTER
 62
     2
100
AcDbLine
 10
-328.657039
 20
4.207529
 30
0.0
 11
-351.657039
 21
4.207529
 31
0.0
  0
LINE
  5
7CF
100
AcDbEntity
  8
2
  6
CENTER
 62
     2
100
AcDbLine
 10
-628.607039
 20
341.457529
 30
0.0
 11
-628.607039
 21
392.896107
 31
0.0
  0
LINE
  5
7D0
100
AcDbEntity
  8
2
  6
CENTER
 62
     2
100
AcDbLine
 10
-493.607039
 20
388.817708
 30
0.0
 11
-493.607039
 21
342.657529
 31
0.0
  0
LINE
  5
7D1
100
AcDbEntity
  8
2
  6
CENTER
 62
     2
100
AcDbLine
 10
-366.607039
 20
342.657529
 30
0.0
 11
-366.607039
 21
392.377095
 31
0.0
  0
LINE
  5
7D2
100
AcDbEntity
  8
2
  6
CENTER
 62
     2
100
AcDbLine
 10
-356.307039
 20
401.707529
 30
0.0
 11
-329.757039
 21
401.707529
 31
0.0
  0
LINE
  5
7D3
100
AcDbEntity
  8
2
  6
CENTER
 62
     2
100
AcDbLine
 10
-329.757039
 20
499.707529
 30
0.0
 11
-354.607039
 21
499.707529
 31
0.0
  0
LINE
  5
7D4
100
AcDbEntity
  8
2
  6
CENTER
 62
     2
100
AcDbLine
 10
-365.72436
 20
467.707529
 30
0.0
 11
-396.707039
 21
467.707529
 31
0.0
  0
LINE
  5
7D5
100
AcDbEntity
  8
2
  6
CENTER
 62
     2
100
AcDbLine
 10
-398.545925
 20
427.707529
 30
0.0
 11
-365.72436
 21
427.707529
 31
0.0
  0
LINE
  5
7D6
100
AcDbEntity
  8
2
  6
CENTER
 62
     2
100
AcDbLine
 10
270.421274
 20
37.207529
 30
0.0
 11
283.29277
 21
37.207529
 31
0.0
  0
LINE
  5
7D7
100
AcDbEntity
  8
2
  6
CENTER
 62
     2
100
AcDbLine
 10
-504.23027
 20
100.137529
 30
0.0
 11
-483.770774
 21
100.137529
 31
0.0
  0
LINE
  5
7D8
100
AcDbEntity
  8
2
  6
CENTER
 62
     2
100
AcDbLine
 10
-628.607039
 20
55.930327
 30
0.0
 11
-628.607039
 21
40.274699
 31
0.0
  0
LINE
  5
7D9
100
AcDbEntity
  8
2
  6
CENTER
 62
     2
100
AcDbLine
 10
87.328658
 20
104.207529
 30
0.0
 11
137.896896
 21
104.207529
 31
0.0
  0
LINE
  5
7DA
100
AcDbEntity
  8
2
  6
CENTER
 62
     2
100
AcDbLine
 10
87.799026
 20
6.207529
 30
0.0
 11
137.715286
 21
6.207529
 31
0.0
  0
LINE
  5
7DB
100
AcDbEntity
  8
2
100
AcDbLine
 10
99.642961
 20
97.712005
 30
0.0
 11
96.169471
 21
96.408781
 31
0.0
  0
LINE
  5
7DC
100
AcDbEntity
  8
2
100
AcDbLine
 10
-372.972939
 20
350.835064
 30
0.0
 11
-372.972939
 21
353.707529
 31
0.0
  0
ARC
  5
7DD
100
AcDbEntity
  8
2
100
AcDbCircle
 10
-369.669405
 20
350.835064
 30
0.0
 40
3.303535
100
AcDbArc
 50
180.0
 51
310.859891
  0
LINE
  5
7DE
100
AcDbEntity
  8
2
100
AcDbLine
 10
99.642961
 20
12.706627
 30
0.0
 11
94.010876
 21
14.602811
 31
0.0
  0
LINE
  5
7DF
100
AcDbEntity
  8
2
100
AcDbLine
 10
94.434203
 20
8.513649
 30
0.0
 11
93.080328
 21
8.870767
 31
0.0
  0
LINE
  5
7E0
100
AcDbEntity
  8
2
100
AcDbLine
 10
91.385686
 20
12.479999
 30
0.0
 11
91.603394
 21
10.577268
 31
0.0
  0
ARC
  5
7E1
100
AcDbEntity
  8
2
100
AcDbCircle
 10
93.59043
 20
10.804622
 30
0.0
 40
2.0
100
AcDbArc
 50
186.527319
 51
255.223414
  0
ARC
  5
7E2
100
AcDbEntity
  8
2
100
AcDbCircle
 10
93.372722
 20
12.707353
 30
0.0
 40
2.0
100
AcDbArc
 50
71.392894
 51
186.527319
  0
LINE
  5
7E3
100
AcDbEntity
  8
2
100
AcDbLine
 10
93.46691
 20
99.408262
 30
0.0
 11
93.46691
 21
98.281322
 31
0.0
  0
ARC
  5
7E4
100
AcDbEntity
  8
2
100
AcDbCircle
 10
95.46691
 20
99.408262
 30
0.0
 40
2.0
100
AcDbArc
 50
116.623552
 51
180.0
  0
ARC
  5
7E5
100
AcDbEntity
  8
2
100
AcDbCircle
 10
95.46691
 20
98.281322
 30
0.0
 40
2.0
100
AcDbArc
 50
180.0
 51
290.565661
  0
LINE
  5
7E6
100
AcDbEntity
  8
2
100
AcDbLine
 10
-630.728359
 20
46.086209
 30
0.0
 11
-626.485718
 21
50.32885
 31
0.0
  0
LINE
  5
7E7
100
AcDbEntity
  8
2
100
AcDbLine
 10
-626.485718
 20
46.086209
 30
0.0
 11
-630.728359
 21
50.32885
 31
0.0
  0
LINE
  5
7E8
100
AcDbEntity
  8
2
100
AcDbLine
 10
-495.728359
 20
98.016209
 30
0.0
 11
-491.485718
 21
102.25885
 31
0.0
  0
LINE
  5
7E9
100
AcDbEntity
  8
2
100
AcDbLine
 10
-491.485718
 20
98.016209
 30
0.0
 11
-495.728359
 21
102.25885
 31
0.0
  0
LINE
  5
7EA
100
AcDbEntity
  8
2
100
AcDbLine
 10
-495.728359
 20
1.086209
 30
0.0
 11
-491.485718
 21
5.32885
 31
0.0
  0
LINE
  5
7EB
100
AcDbEntity
  8
2
100
AcDbLine
 10
-491.485718
 20
1.086209
 30
0.0
 11
-495.728359
 21
5.32885
 31
0.0
  0
LINE
  5
7EC
100
AcDbEntity
  8
2
100
AcDbLine
 10
-368.728359
 20
102.086209
 30
0.0
 11
-364.485718
 21
106.32885
 31
0.0
  0
LINE
  5
7ED
100
AcDbEntity
  8
2
100
AcDbLine
 10
-364.485718
 20
102.086209
 30
0.0
 11
-368.728359
 21
106.32885
 31
0.0
  0
LINE
  5
7EE
100
AcDbEntity
  8
2
100
AcDbLine
 10
-365.728359
 20
4.086209
 30
0.0
 11
-361.485718
 21
8.32885
 31
0.0
  0
LINE
  5
7EF
100
AcDbEntity
  8
2
100
AcDbLine
 10
-361.485718
 20
4.086209
 30
0.0
 11
-365.728359
 21
8.32885
 31
0.0
  0
LINE
  5
7F0
100
AcDbEntity
  8
2
100
AcDbLine
 10
145.521641
 20
76.086209
 30
0.0
 11
149.764282
 21
80.32885
 31
0.0
  0
LINE
  5
7F1
100
AcDbEntity
  8
2
100
AcDbLine
 10
149.764282
 20
76.086209
 30
0.0
 11
145.521641
 21
80.32885
 31
0.0
  0
LINE
  5
7F2
100
AcDbEntity
  8
2
100
AcDbLine
 10
-391.728359
 20
489.586209
 30
0.0
 11
-387.485718
 21
493.82885
 31
0.0
  0
LINE
  5
7F3
100
AcDbEntity
  8
2
100
AcDbLine
 10
-387.485718
 20
489.586209
 30
0.0
 11
-391.728359
 21
493.82885
 31
0.0
  0
LINE
  5
7F4
100
AcDbEntity
  8
2
100
AcDbLine
 10
-444.190534
 20
471.224034
 30
0.0
 11
-439.990534
 21
471.224034
 31
0.0
  0
LINE
  5
7F5
100
AcDbEntity
  8
2
100
AcDbLine
 10
-442.090534
 20
469.124034
 30
0.0
 11
-442.090534
 21
473.324034
 31
0.0
  0
LINE
  5
7F6
100
AcDbEntity
  8
2
100
AcDbLine
 10
-497.223543
 20
471.224034
 30
0.0
 11
-493.023543
 21
471.224034
 31
0.0
  0
LINE
  5
7F7
100
AcDbEntity
  8
2
100
AcDbLine
 10
-495.123543
 20
469.124034
 30
0.0
 11
-495.123543
 21
473.324034
 31
0.0
  0
LINE
  5
7F8
100
AcDbEntity
  8
2
100
AcDbLine
 10
-444.190534
 20
418.191025
 30
0.0
 11
-439.990534
 21
418.191025
 31
0.0
  0
LINE
  5
7F9
100
AcDbEntity
  8
2
100
AcDbLine
 10
-442.090534
 20
416.091025
 30
0.0
 11
-442.090534
 21
420.291025
 31
0.0
  0
LINE
  5
7FA
100
AcDbEntity
  8
2
100
AcDbLine
 10
-497.223543
 20
418.191025
 30
0.0
 11
-493.023543
 21
418.191025
 31
0.0
  0
LINE
  5
7FB
100
AcDbEntity
  8
2
100
AcDbLine
 10
-495.123543
 20
416.091025
 30
0.0
 11
-495.123543
 21
420.291025
 31
0.0
  0
LINE
  5
7FC
100
AcDbEntity
  8
2
100
AcDbLine
 10
-391.728359
 20
401.586209
 30
0.0
 11
-387.485718
 21
405.82885
 31
0.0
  0
LINE
  5
7FD
100
AcDbEntity
  8
2
100
AcDbLine
 10
-387.485718
 20
401.586209
 30
0.0
 11
-391.728359
 21
405.82885
 31
0.0
  0
LINE
  5
7FE
100
AcDbEntity
  8
2
100
AcDbLine
 10
-537.728359
 20
489.586209
 30
0.0
 11
-533.485718
 21
493.82885
 31
0.0
  0
LINE
  5
7FF
100
AcDbEntity
  8
2
100
AcDbLine
 10
-533.485718
 20
489.586209
 30
0.0
 11
-537.728359
 21
493.82885
 31
0.0
  0
LINE
  5
800
100
AcDbEntity
  8
2
100
AcDbLine
 10
-537.728359
 20
401.586209
 30
0.0
 11
-533.485718
 21
405.82885
 31
0.0
  0
LINE
  5
801
100
AcDbEntity
  8
2
100
AcDbLine
 10
-533.485718
 20
401.586209
 30
0.0
 11
-537.728359
 21
405.82885
 31
0.0
  0
LINE
  5
802
100
AcDbEntity
  8
2
100
AcDbLine
 10
145.521641
 20
2.086209
 30
0.0
 11
149.764282
 21
6.32885
 31
0.0
  0
LINE
  5
803
100
AcDbEntity
  8
2
100
AcDbLine
 10
149.764282
 20
2.086209
 30
0.0
 11
145.521641
 21
6.32885
 31
0.0
  0
LINE
  5
804
100
AcDbEntity
  8
2
100
AcDbLine
 10
243.521641
 20
76.086209
 30
0.0
 11
247.764282
 21
80.32885
 31
0.0
  0
LINE
  5
805
100
AcDbEntity
  8
2
100
AcDbLine
 10
247.764282
 20
76.086209
 30
0.0
 11
243.521641
 21
80.32885
 31
0.0
  0
LINE
  5
806
100
AcDbEntity
  8
2
100
AcDbLine
 10
243.521641
 20
2.086209
 30
0.0
 11
247.764282
 21
6.32885
 31
0.0
  0
LINE
  5
807
100
AcDbEntity
  8
2
100
AcDbLine
 10
247.764282
 20
2.086209
 30
0.0
 11
243.521641
 21
6.32885
 31
0.0
  0
TEXT
  5
808
100
AcDbEntity
  8
2
100
AcDbText
 10
-463.187553
 20
421.693856
 30
0.0
 40
7.6
  1
Ｓ
 50
22.5
 72
     5
 11
-457.570366
 21
424.020571
 31
0.0
100
AcDbText
  0
TEXT
  5
809
100
AcDbEntity
  8
2
100
AcDbText
 10
-474.026524
 20
467.721203
 30
0.0
 40
7.6
  1
Ｓ
 50
202.5
 72
     5
 11
-479.643712
 21
465.394488
 31
0.0
100
AcDbText
  0
TEXT
  5
80A
100
AcDbEntity
  8
2
100
AcDbText
 10
-462.362106
 20
149.614947
 30
0.0
 40
7.6
  1
Ｓ
 50
31.641
 72
     5
 11
-457.185887
 21
152.804486
 31
0.0
100
AcDbText
  0
TEXT
  5
80B
100
AcDbEntity
  8
2
100
AcDbText
 10
-387.886619
 20
52.189736
 30
0.0
 40
9.0
  1
Ｓ
 50
253.0
 72
     5
 11
-389.991696
 21
45.304341
 31
0.0
100
AcDbText
  0
LINE
  5
80C
100
AcDbEntity
  8
3
100
AcDbLine
 10
-390.107039
 20
-26.792471
 30
0.0
 11
-547.107039
 21
-26.792471
 31
0.0
  0
LINE
  5
80D
100
AcDbEntity
  8
3
100
AcDbLine
 10
-544.107039
 20
-201.792471
 30
0.0
 11
-393.107039
 21
-201.792471
 31
0.0
  0
LINE
  5
80E
100
AcDbEntity
  8
3
100
AcDbLine
 10
123.142961
 20
-26.792471
 30
0.0
 11
258.142961
 21
-26.792471
 31
0.0
  0
LINE
  5
80F
100
AcDbEntity
  8
3
100
AcDbLine
 10
128.142961
 20
-201.792471
 30
0.0
 11
253.142961
 21
-201.792471
 31
0.0
  0
LINE
  5
810
100
AcDbEntity
  8
3
100
AcDbLine
 10
123.142961
 20
-26.792471
 30
0.0
 11
123.142961
 21
-35.792471
 31
0.0
  0
LINE
  5
811
100
AcDbEntity
  8
3
100
AcDbLine
 10
258.142961
 20
-26.792471
 30
0.0
 11
258.142961
 21
-35.792471
 31
0.0
  0
LINE
  5
812
100
AcDbEntity
  8
3
100
AcDbLine
 10
-544.107039
 20
-192.792471
 30
0.0
 11
-393.107039
 21
-192.792471
 31
0.0
  0
LINE
  5
813
100
AcDbEntity
  8
3
100
AcDbLine
 10
-556.107039
 20
-189.792471
 30
0.0
 11
-556.107039
 21
-30.792471
 31
0.0
  0
LINE
  5
814
100
AcDbEntity
  8
3
100
AcDbLine
 10
-381.107039
 20
-189.792471
 30
0.0
 11
-381.107039
 21
-30.792471
 31
0.0
  0
LINE
  5
815
100
AcDbEntity
  8
3
100
AcDbLine
 10
-390.107039
 20
-189.792471
 30
0.0
 11
-390.107039
 21
-26.792471
 31
0.0
  0
LINE
  5
816
100
AcDbEntity
  8
3
100
AcDbLine
 10
-547.107039
 20
-189.792471
 30
0.0
 11
-547.107039
 21
-26.792471
 31
0.0
  0
LINE
  5
817
100
AcDbEntity
  8
3
100
AcDbLine
 10
-390.107039
 20
-35.792471
 30
0.0
 11
-547.107039
 21
-35.792471
 31
0.0
  0
LINE
  5
818
100
AcDbEntity
  8
3
100
AcDbLine
 10
-556.107039
 20
-30.792471
 30
0.0
 11
-547.107039
 21
-30.792471
 31
0.0
  0
LINE
  5
819
100
AcDbEntity
  8
3
100
AcDbLine
 10
-390.107039
 20
-30.792471
 30
0.0
 11
-381.107039
 21
-30.792471
 31
0.0
  0
ARC
  5
81A
100
AcDbEntity
  8
3
100
AcDbCircle
 10
-393.107039
 20
-189.792471
 30
0.0
 40
3.0
100
AcDbArc
 50
270.0
 51
360.0
  0
ARC
  5
81B
100
AcDbEntity
  8
3
100
AcDbCircle
 10
-544.107039
 20
-189.792471
 30
0.0
 40
3.0
100
AcDbArc
 50
180.0
 51
270.0
  0
ARC
  5
81C
100
AcDbEntity
  8
3
100
AcDbCircle
 10
-393.107039
 20
-189.792471
 30
0.0
 40
12.0
100
AcDbArc
 50
270.0
 51
360.0
  0
ARC
  5
81D
100
AcDbEntity
  8
3
100
AcDbCircle
 10
-544.107039
 20
-189.792471
 30
0.0
 40
12.0
100
AcDbArc
 50
180.0
 51
270.0
  0
LINE
  5
81E
100
AcDbEntity
  8
3
100
AcDbLine
 10
-390.107039
 20
-41.792471
 30
0.0
 11
-396.107039
 21
-35.792471
 31
0.0
  0
LINE
  5
81F
100
AcDbEntity
  8
3
100
AcDbLine
 10
-541.107039
 20
-35.792471
 30
0.0
 11
-547.107039
 21
-41.792471
 31
0.0
  0
LINE
  5
820
100
AcDbEntity
  8
3
100
AcDbLine
 10
-390.107039
 20
-26.792471
 30
0.0
 11
-386.107039
 21
-30.792471
 31
0.0
  0
LINE
  5
821
100
AcDbEntity
  8
3
100
AcDbLine
 10
-547.107039
 20
-26.792471
 30
0.0
 11
-551.107039
 21
-30.792471
 31
0.0
  0
LINE
  5
822
100
AcDbEntity
  8
3
100
AcDbLine
 10
-395.107039
 20
-26.792471
 30
0.0
 11
-395.107039
 21
-35.792471
 31
0.0
  0
LINE
  5
823
100
AcDbEntity
  8
3
100
AcDbLine
 10
-542.107039
 20
-26.792471
 30
0.0
 11
-542.107039
 21
-35.792471
 31
0.0
  0
LINE
  5
824
100
AcDbEntity
  8
3
100
AcDbLine
 10
128.142961
 20
-201.792471
 30
0.0
 11
128.142961
 21
-26.792471
 31
0.0
  0
LINE
  5
825
100
AcDbEntity
  8
3
100
AcDbLine
 10
253.142961
 20
-201.792471
 30
0.0
 11
253.142961
 21
-26.792471
 31
0.0
  0
LINE
  5
826
100
AcDbEntity
  8
3
100
AcDbLine
 10
128.142961
 20
-30.792471
 30
0.0
 11
253.142961
 21
-30.792471
 31
0.0
  0
LINE
  5
827
100
AcDbEntity
  8
3
100
AcDbLine
 10
123.142961
 20
-35.792471
 30
0.0
 11
128.142961
 21
-35.792471
 31
0.0
  0
LINE
  5
828
100
AcDbEntity
  8
3
100
AcDbLine
 10
253.142961
 20
-35.792471
 30
0.0
 11
258.142961
 21
-35.792471
 31
0.0
  0
LINE
  5
829
100
AcDbEntity
  8
3
100
AcDbLine
 10
-492.607039
 20
-103.292471
 30
0.0
 11
-444.607039
 21
-103.292471
 31
0.0
  0
LINE
  5
82A
100
AcDbEntity
  8
3
100
AcDbLine
 10
-491.607039
 20
-162.292471
 30
0.0
 11
-491.607039
 21
-106.292471
 31
0.0
  0
LINE
  5
82B
100
AcDbEntity
  8
3
100
AcDbLine
 10
-445.607039
 20
-162.292471
 30
0.0
 11
-445.607039
 21
-106.292471
 31
0.0
  0
LINE
  5
82C
100
AcDbEntity
  8
3
100
AcDbLine
 10
-445.607039
 20
-106.292471
 30
0.0
 11
-491.607039
 21
-106.292471
 31
0.0
  0
LINE
  5
82D
100
AcDbEntity
  8
3
100
AcDbLine
 10
-492.607039
 20
-103.292471
 30
0.0
 11
-492.607039
 21
-35.792471
 31
0.0
  0
LINE
  5
82E
100
AcDbEntity
  8
3
100
AcDbLine
 10
-444.607039
 20
-103.292471
 30
0.0
 11
-444.607039
 21
-35.792471
 31
0.0
  0
LINE
  5
82F
100
AcDbEntity
  8
3
100
AcDbLine
 10
-445.607039
 20
-106.292471
 30
0.0
 11
-444.607039
 21
-103.292471
 31
0.0
  0
LINE
  5
830
100
AcDbEntity
  8
3
100
AcDbLine
 10
-491.607039
 20
-106.292471
 30
0.0
 11
-492.607039
 21
-103.292471
 31
0.0
  0
LINE
  5
831
100
AcDbEntity
  8
3
100
AcDbLine
 10
-488.607039
 20
-165.292471
 30
0.0
 11
-448.607039
 21
-165.292471
 31
0.0
  0
LINE
  5
832
100
AcDbEntity
  8
3
100
AcDbLine
 10
-491.607039
 20
-162.292471
 30
0.0
 11
-488.607039
 21
-165.292471
 31
0.0
  0
LINE
  5
833
100
AcDbEntity
  8
3
100
AcDbLine
 10
-448.607039
 20
-165.292471
 30
0.0
 11
-445.607039
 21
-162.292471
 31
0.0
  0
LINE
  5
834
100
AcDbEntity
  8
3
100
AcDbLine
 10
-445.607039
 20
-162.292471
 30
0.0
 11
-491.607039
 21
-162.292471
 31
0.0
  0
DIMENSION
  5
835
100
AcDbEntity
  8
5
100
AcDbDimension
  2
*D0
 10
-76.036267
 20
-26.792471
 30
0.0
 11
-95.861267
 21
-115.117471
 31
0.0
  1
175
100
AcDbAlignedDimension
 13
128.142961
 23
-201.792471
 33
0.0
 14
123.142961
 24
-26.792471
 34
0.0
 50
90.0
100
AcDbRotatedDimension
  0
DIMENSION
  5
836
100
AcDbEntity
  8
5
100
AcDbDimension
  2
*D1
 10
-76.036267
 20
171.207529
 30
0.0
 11
-95.861267
 21
71.382529
 31
0.0
  1
198
100
AcDbAlignedDimension
 13
123.142961
 23
-26.792471
 33
0.0
 14
190.642961
 24
171.207529
 34
0.0
 50
90.0
100
AcDbRotatedDimension
  0
DIMENSION
  5
837
100
AcDbEntity
  8
5
100
AcDbDimension
  2
*D2
 10
-12.573994
 20
3.207529
 30
0.0
 11
-38.173994
 21
46.607529
 31
0.0
 70
     1
  1
%%c100
100
AcDbAlignedDimension
 13
44.692961
 23
103.207529
 33
0.0
 14
44.692961
 24
3.207529
 34
0.0
 50
90.0
  0
DIMENSION
  5
838
100
AcDbEntity
  8
5
100
AcDbDimension
  2
*D3
 10
-76.036267
 20
-201.792471
 30
0.0
 11
-95.861267
 21
-305.117471
 31
0.0
  1
205
100
AcDbAlignedDimension
 13
144.908625
 23
-406.792471
 33
0.0
 14
128.142961
 24
-201.792471
 34
0.0
 50
90.0
100
AcDbRotatedDimension
  0
DIMENSION
  5
839
100
AcDbEntity
  8
5
100
AcDbDimension
  2
*D4
 10
-76.036267
 20
-406.792471
 30
0.0
 11
-95.861267
 21
-489.117471
 31
0.0
  1
163
100
AcDbAlignedDimension
 13
170.642961
 23
-569.792471
 33
0.0
 14
144.908625
 24
-406.792471
 34
0.0
 50
90.0
100
AcDbRotatedDimension
  0
DIMENSION
  5
83A
100
AcDbEntity
  8
5
100
AcDbDimension
  2
*D5
 10
190.642961
 20
-612.504349
 30
0.0
 11
143.592962
 21
-601.754349
 31
0.0
  1
23
100
AcDbAlignedDimension
 13
167.642961
 23
-513.292471
 33
0.0
 14
190.642961
 24
-585.765063
 34
0.0
100
AcDbRotatedDimension
  0
DIMENSION
  5
83B
100
AcDbEntity
  8
5
100
AcDbDimension
  2
*D6
 10
224.642961
 20
-649.58313
 30
0.0
 11
196.142961
 21
-638.83313
 31
0.0
  1
57
100
AcDbAlignedDimension
 13
167.642961
 23
-513.292471
 33
0.0
 14
224.642961
 24
-513.292471
 34
0.0
100
AcDbRotatedDimension
  0
DIMENSION
  5
83C
100
AcDbEntity
  8
5
100
AcDbDimension
  2
*D7
 10
-325.607039
 20
580.978355
 30
0.0
 11
-397.107039
 21
591.728355
 31
0.0
  1
143
100
AcDbAlignedDimension
 13
-468.607039
 23
538.369252
 33
0.0
 14
-325.607039
 24
499.634746
 34
0.0
100
AcDbRotatedDimension
  0
DIMENSION
  5
83D
100
AcDbEntity
  8
5
100
AcDbDimension
  2
*D8
 10
-468.607039
 20
580.978355
 30
0.0
 11
-552.107039
 21
591.728355
 31
0.0
  1
167
100
AcDbAlignedDimension
 13
-635.607039
 23
367.707529
 33
0.0
 14
-468.607039
 24
538.369252
 34
0.0
100
AcDbRotatedDimension
  0
DIMENSION
  5
83E
100
AcDbEntity
  8
5
100
AcDbDimension
  2
*D9
 10
-252.678432
 20
529.707529
 30
0.0
 11
-266.728432
 21
492.157529
 31
0.0
  1
85
100
AcDbAlignedDimension
 13
-312.920421
 23
444.707529
 33
0.0
 14
-440.283539
 24
529.707529
 34
0.0
 50
90.0
100
AcDbRotatedDimension
  0
DIMENSION
  5
83F
100
AcDbEntity
  8
5
100
AcDbDimension
  2
*D10
 10
-252.678432
 20
444.707529
 30
0.0
 11
-272.503432
 21
366.882529
 31
0.0
  1
154
100
AcDbAlignedDimension
 13
-374.324471
 23
290.707529
 33
0.0
 14
-312.920421
 24
444.707529
 34
0.0
 50
90.0
100
AcDbRotatedDimension
  0
TEXT
  5
840
100
AcDbEntity
  8
5
100
AcDbText
 10
482.143021
 20
311.178093
 30
0.0
 40
25.0
  1
駆動部・・・４Ｉ－２．５型 
 72
     5
 11
802.143021
 21
311.178093
 31
0.0
100
AcDbText
  0
LINE
  5
841
100
AcDbEntity
  8
18
100
AcDbLine
 10
285.642961
 20
-406.792471
 30
0.0
 11
435.642961
 21
-406.792471
 31
0.0
  0
LINE
  5
842
100
AcDbEntity
  8
18
100
AcDbLine
 10
285.642961
 20
-406.792471
 30
0.0
 11
335.642961
 21
-393.395011
 31
0.0
  0
LINE
  5
843
100
AcDbEntity
  8
18
100
AcDbLine
 10
335.642961
 20
-393.395011
 30
0.0
 11
335.642961
 21
-420.18993
 31
0.0
  0
LINE
  5
844
100
AcDbEntity
  8
18
100
AcDbLine
 10
285.642961
 20
-406.792471
 30
0.0
 11
335.642961
 21
-420.18993
 31
0.0
  0
LINE
  5
845
100
AcDbEntity
  8
18
100
AcDbLine
 10
343.36834
 20
575.46299
 30
0.0
 11
343.36834
 21
400.46299
 31
0.0
  0
LINE
  5
846
100
AcDbEntity
  8
18
100
AcDbLine
 10
903.36834
 20
450.46299
 30
0.0
 11
343.36834
 21
450.46299
 31
0.0
  0
LINE
  5
847
100
AcDbEntity
  8
18
100
AcDbLine
 10
903.36834
 20
425.46299
 30
0.0
 11
343.36834
 21
425.46299
 31
0.0
  0
LINE
  5
848
100
AcDbEntity
  8
18
100
AcDbLine
 10
903.36834
 20
400.46299
 30
0.0
 11
343.36834
 21
400.46299
 31
0.0
  0
LINE
  5
849
100
AcDbEntity
  8
18
100
AcDbLine
 10
483.36834
 20
575.46299
 30
0.0
 11
483.36834
 21
425.46299
 31
0.0
  0
LINE
  5
84A
100
AcDbEntity
  8
18
100
AcDbLine
 10
623.36834
 20
575.46299
 30
0.0
 11
623.36834
 21
425.46299
 31
0.0
  0
LINE
  5
84B
100
AcDbEntity
  8
18
100
AcDbLine
 10
763.36834
 20
575.46299
 30
0.0
 11
763.36834
 21
425.46299
 31
0.0
  0
LINE
  5
84C
100
AcDbEntity
  8
18
100
AcDbLine
 10
903.36834
 20
575.46299
 30
0.0
 11
903.36834
 21
400.46299
 31
0.0
  0
LINE
  5
84D
100
AcDbEntity
  8
18
100
AcDbLine
 10
343.36834
 20
575.46299
 30
0.0
 11
903.36834
 21
575.46299
 31
0.0
  0
POLYLINE
  5
84E
100
AcDbEntity
  8
18
 62
     2
100
AcDb2dPolyline
 66
     1
 10
0.0
 20
0.0
 30
0.0
  0
VERTEX
  5
981
100
AcDbEntity
  8
18
 62
     2
100
AcDbVertex
100
AcDb2dVertex
 10
408.217478
 20
524.202652
 30
0.0
  0
VERTEX
  5
982
100
AcDbEntity
  8
18
 62
     2
100
AcDbVertex
100
AcDb2dVertex
 10
408.217478
 20
546.892781
 30
0.0
  0
SEQEND
  5
983
100
AcDbEntity
  8
18
 62
     2
  0
LINE
  5
852
100
AcDbEntity
  8
18
 62
     2
100
AcDbLine
 10
408.217478
 20
533.86191
 30
0.0
 11
405.629287
 21
533.86191
 31
0.0
  0
LINE
  5
853
100
AcDbEntity
  8
18
 62
     2
100
AcDbLine
 10
405.629287
 20
533.86191
 30
0.0
 11
408.217478
 21
524.202652
 31
0.0
  0
LINE
  5
854
100
AcDbEntity
  8
18
 62
     2
100
AcDbLine
 10
408.217478
 20
524.202652
 30
0.0
 11
410.805668
 21
533.86191
 31
0.0
  0
LINE
  5
855
100
AcDbEntity
  8
18
 62
     2
100
AcDbLine
 10
410.805668
 20
533.86191
 30
0.0
 11
408.217478
 21
533.86191
 31
0.0
  0
LINE
  5
856
100
AcDbEntity
  8
18
  6
CENTER
 62
     2
100
AcDbLine
 10
450.533472
 20
491.621438
 30
0.0
 11
362.523468
 21
491.621438
 31
0.0
  0
LINE
  5
857
100
AcDbEntity
  8
18
  6
CENTER
 62
     2
100
AcDbLine
 10
407.537463
 20
468.890969
 30
0.0
 11
407.537463
 21
517.093195
 31
0.0
  0
LINE
  5
858
100
AcDbEntity
  8
18
100
AcDbLine
 10
442.737463
 20
476.221438
 30
0.0
 11
376.737463
 21
476.221438
 31
0.0
  0
LINE
  5
859
100
AcDbEntity
  8
18
100
AcDbLine
 10
442.737463
 20
507.021438
 30
0.0
 11
376.737463
 21
507.021438
 31
0.0
  0
LINE
  5
85A
100
AcDbEntity
  8
18
100
AcDbLine
 10
442.737463
 20
476.221438
 30
0.0
 11
442.737463
 21
511.421438
 31
0.0
  0
LINE
  5
85B
100
AcDbEntity
  8
18
100
AcDbLine
 10
381.137463
 20
476.221438
 30
0.0
 11
381.137463
 21
507.021438
 31
0.0
  0
LINE
  5
85C
100
AcDbEntity
  8
18
100
AcDbLine
 10
442.737463
 20
511.421438
 30
0.0
 11
384.070797
 21
511.421438
 31
0.0
  0
LINE
  5
85D
100
AcDbEntity
  8
18
100
AcDbLine
 10
376.737463
 20
476.221438
 30
0.0
 11
376.737463
 21
507.021438
 31
0.0
  0
LINE
  5
85E
100
AcDbEntity
  8
18
100
AcDbLine
 10
384.070797
 20
507.021438
 30
0.0
 11
384.070797
 21
511.421438
 31
0.0
  0
LINE
  5
85F
100
AcDbEntity
  8
18
100
AcDbLine
 10
422.937463
 20
478.421438
 30
0.0
 11
422.937463
 21
504.821438
 31
0.0
  0
LINE
  5
860
100
AcDbEntity
  8
18
100
AcDbLine
 10
385.537463
 20
478.421438
 30
0.0
 11
385.537463
 21
504.821438
 31
0.0
  0
LINE
  5
861
100
AcDbEntity
  8
18
100
AcDbLine
 10
422.937463
 20
478.421438
 30
0.0
 11
385.537463
 21
478.421438
 31
0.0
  0
LINE
  5
862
100
AcDbEntity
  8
18
100
AcDbLine
 10
422.937463
 20
504.821438
 30
0.0
 11
385.537463
 21
504.821438
 31
0.0
  0
CIRCLE
  5
863
100
AcDbEntity
  8
18
100
AcDbCircle
 10
407.537463
 20
491.621438
 30
0.0
 40
5.28
  0
LINE
  5
864
100
AcDbEntity
  8
18
  6
DASHED
100
AcDbLine
 10
431.737463
 20
482.821438
 30
0.0
 11
383.337463
 21
482.821438
 31
0.0
  0
LINE
  5
865
100
AcDbEntity
  8
18
  6
DASHED
100
AcDbLine
 10
431.737463
 20
500.421438
 30
0.0
 11
383.337463
 21
500.421438
 31
0.0
  0
LINE
  5
866
100
AcDbEntity
  8
18
  6
DASHED
100
AcDbLine
 10
383.337463
 20
482.821438
 30
0.0
 11
383.337463
 21
500.421438
 31
0.0
  0
LINE
  5
867
100
AcDbEntity
  8
18
  6
DASHED
100
AcDbLine
 10
431.737463
 20
482.821438
 30
0.0
 11
431.737463
 21
500.421438
 31
0.0
  0
LINE
  5
868
100
AcDbEntity
  8
18
  6
CENTER
 62
     2
100
AcDbLine
 10
395.80413
 20
509.115535
 30
0.0
 11
395.80413
 21
528.086381
 31
0.0
  0
LINE
  5
869
100
AcDbEntity
  8
18
100
AcDbLine
 10
395.804393
 20
518.021438
 30
0.0
 11
404.41493
 21
518.021438
 31
0.0
  0
LINE
  5
86A
100
AcDbEntity
  8
18
100
AcDbLine
 10
404.41493
 20
518.021438
 30
0.0
 11
404.41493
 21
520.221438
 31
0.0
  0
LINE
  5
86B
100
AcDbEntity
  8
18
100
AcDbLine
 10
395.804393
 20
520.221438
 30
0.0
 11
404.41493
 21
520.221438
 31
0.0
  0
LINE
  5
86C
100
AcDbEntity
  8
18
100
AcDbLine
 10
387.193855
 20
518.021438
 30
0.0
 11
387.193855
 21
520.221438
 31
0.0
  0
LINE
  5
86D
100
AcDbEntity
  8
18
100
AcDbLine
 10
402.840784
 20
511.421438
 30
0.0
 11
399.763154
 21
518.021438
 31
0.0
  0
LINE
  5
86E
100
AcDbEntity
  8
18
100
AcDbLine
 10
388.768001
 20
511.421438
 30
0.0
 11
391.845631
 21
518.021438
 31
0.0
  0
LINE
  5
86F
100
AcDbEntity
  8
18
100
AcDbLine
 10
395.804393
 20
518.021438
 30
0.0
 11
387.193855
 21
518.021438
 31
0.0
  0
LINE
  5
870
100
AcDbEntity
  8
18
100
AcDbLine
 10
395.804393
 20
520.221438
 30
0.0
 11
387.193855
 21
520.221438
 31
0.0
  0
LINE
  5
871
100
AcDbEntity
  8
18
  6
CENTER
 62
     2
100
AcDbLine
 10
524.282457
 20
508.284839
 30
0.0
 11
586.435503
 21
508.284839
 31
0.0
  0
LINE
  5
872
100
AcDbEntity
  8
18
100
AcDbLine
 10
579.76834
 20
520.018435
 30
0.0
 11
579.76834
 21
528.628972
 31
0.0
  0
LINE
  5
873
100
AcDbEntity
  8
18
100
AcDbLine
 10
579.76834
 20
528.628972
 30
0.0
 11
581.96834
 21
528.628972
 31
0.0
  0
LINE
  5
874
100
AcDbEntity
  8
18
100
AcDbLine
 10
581.96834
 20
520.018435
 30
0.0
 11
581.96834
 21
528.628972
 31
0.0
  0
LINE
  5
875
100
AcDbEntity
  8
18
100
AcDbLine
 10
579.76834
 20
511.407897
 30
0.0
 11
581.96834
 21
511.407897
 31
0.0
  0
LINE
  5
876
100
AcDbEntity
  8
18
  6
CENTER
 62
     2
100
AcDbLine
 10
553.36834
 20
545.292117
 30
0.0
 11
553.36834
 21
467.84537
 31
0.0
  0
LINE
  5
877
100
AcDbEntity
  8
18
100
AcDbLine
 10
537.96834
 20
473.084839
 30
0.0
 11
537.96834
 21
539.084839
 31
0.0
  0
LINE
  5
878
100
AcDbEntity
  8
18
100
AcDbLine
 10
568.76834
 20
473.084839
 30
0.0
 11
568.76834
 21
539.084839
 31
0.0
  0
LINE
  5
879
100
AcDbEntity
  8
18
100
AcDbLine
 10
537.96834
 20
473.084839
 30
0.0
 11
573.16834
 21
473.084839
 31
0.0
  0
LINE
  5
87A
100
AcDbEntity
  8
18
100
AcDbLine
 10
537.96834
 20
534.684839
 30
0.0
 11
568.76834
 21
534.684839
 31
0.0
  0
LINE
  5
87B
100
AcDbEntity
  8
18
100
AcDbLine
 10
573.16834
 20
473.084839
 30
0.0
 11
573.16834
 21
531.751506
 31
0.0
  0
LINE
  5
87C
100
AcDbEntity
  8
18
100
AcDbLine
 10
537.96834
 20
539.084839
 30
0.0
 11
568.76834
 21
539.084839
 31
0.0
  0
LINE
  5
87D
100
AcDbEntity
  8
18
100
AcDbLine
 10
568.76834
 20
531.751506
 30
0.0
 11
573.16834
 21
531.751506
 31
0.0
  0
LINE
  5
87E
100
AcDbEntity
  8
18
100
AcDbLine
 10
540.16834
 20
492.884839
 30
0.0
 11
566.56834
 21
492.884839
 31
0.0
  0
LINE
  5
87F
100
AcDbEntity
  8
18
100
AcDbLine
 10
540.16834
 20
530.284839
 30
0.0
 11
566.56834
 21
530.284839
 31
0.0
  0
LINE
  5
880
100
AcDbEntity
  8
18
100
AcDbLine
 10
540.16834
 20
492.884839
 30
0.0
 11
540.16834
 21
530.284839
 31
0.0
  0
LINE
  5
881
100
AcDbEntity
  8
18
100
AcDbLine
 10
566.56834
 20
492.884839
 30
0.0
 11
566.56834
 21
530.284839
 31
0.0
  0
CIRCLE
  5
882
100
AcDbEntity
  8
18
100
AcDbCircle
 10
553.36834
 20
508.284839
 30
0.0
 40
5.28
  0
LINE
  5
883
100
AcDbEntity
  8
18
100
AcDbLine
 10
529.16834
 20
517.084839
 30
0.0
 11
529.16834
 21
499.484839
 31
0.0
  0
LINE
  5
884
100
AcDbEntity
  8
18
  6
CENTER
 62
     2
100
AcDbLine
 10
570.862437
 20
520.018172
 30
0.0
 11
591.112719
 21
520.018172
 31
0.0
  0
LINE
  5
885
100
AcDbEntity
  8
18
100
AcDbLine
 10
529.16834
 20
517.084839
 30
0.0
 11
537.96834
 21
517.084839
 31
0.0
  0
LINE
  5
886
100
AcDbEntity
  8
18
100
AcDbLine
 10
573.16834
 20
499.484839
 30
0.0
 11
577.56834
 21
499.484839
 31
0.0
  0
LINE
  5
887
100
AcDbEntity
  8
18
100
AcDbLine
 10
529.16834
 20
499.484839
 30
0.0
 11
537.96834
 21
499.484839
 31
0.0
  0
LINE
  5
888
100
AcDbEntity
  8
18
  6
DASHED
100
AcDbLine
 10
537.96834
 20
499.484839
 30
0.0
 11
573.16834
 21
499.484839
 31
0.0
  0
LINE
  5
889
100
AcDbEntity
  8
18
100
AcDbLine
 10
577.56834
 20
509.207635
 30
0.0
 11
577.56834
 21
499.484839
 31
0.0
  0
LINE
  5
88A
100
AcDbEntity
  8
18
  6
DASHED
100
AcDbLine
 10
537.96834
 20
517.084839
 30
0.0
 11
573.16834
 21
517.084839
 31
0.0
  0
LINE
  5
88B
100
AcDbEntity
  8
18
  6
DASHED
100
AcDbLine
 10
573.16834
 20
517.084839
 30
0.0
 11
576.975014
 21
517.084839
 31
0.0
  0
LINE
  5
88C
100
AcDbEntity
  8
18
  6
DASHED
100
AcDbLine
 10
576.975014
 20
517.084839
 30
0.0
 11
577.56834
 21
517.084839
 31
0.0
  0
LINE
  5
88D
100
AcDbEntity
  8
18
100
AcDbLine
 10
573.16834
 20
527.054827
 30
0.0
 11
579.76834
 21
523.977196
 31
0.0
  0
LINE
  5
88E
100
AcDbEntity
  8
18
100
AcDbLine
 10
573.16834
 20
512.982043
 30
0.0
 11
579.76834
 21
516.059673
 31
0.0
  0
LINE
  5
88F
100
AcDbEntity
  8
18
100
AcDbLine
 10
579.76834
 20
520.018435
 30
0.0
 11
579.76834
 21
511.407897
 31
0.0
  0
LINE
  5
890
100
AcDbEntity
  8
18
100
AcDbLine
 10
581.96834
 20
520.018435
 30
0.0
 11
581.96834
 21
511.407897
 31
0.0
  0
LINE
  5
891
100
AcDbEntity
  8
18
  6
DASHED
100
AcDbLine
 10
577.56834
 20
517.084839
 30
0.0
 11
577.56834
 21
515.033797
 31
0.0
  0
LINE
  5
892
100
AcDbEntity
  8
18
100
AcDbLine
 10
577.56834
 20
515.76713
 30
0.0
 11
577.56834
 21
515.713985
 31
0.0
  0
LINE
  5
893
100
AcDbEntity
  8
18
100
AcDbLine
 10
577.56834
 20
515.033797
 30
0.0
 11
577.56834
 21
508.612006
 31
0.0
  0
LINE
  5
894
100
AcDbEntity
  8
18
  6
CENTER
 62
     2
100
AcDbLine
 10
650.372331
 20
508.284839
 30
0.0
 11
738.382335
 21
508.284839
 31
0.0
  0
LINE
  5
895
100
AcDbEntity
  8
18
  6
CENTER
 62
     2
100
AcDbLine
 10
693.36834
 20
531.015308
 30
0.0
 11
693.36834
 21
482.813081
 31
0.0
  0
LINE
  5
896
100
AcDbEntity
  8
18
100
AcDbLine
 10
658.16834
 20
523.684839
 30
0.0
 11
724.16834
 21
523.684839
 31
0.0
  0
LINE
  5
897
100
AcDbEntity
  8
18
100
AcDbLine
 10
658.16834
 20
492.884839
 30
0.0
 11
724.16834
 21
492.884839
 31
0.0
  0
LINE
  5
898
100
AcDbEntity
  8
18
100
AcDbLine
 10
658.16834
 20
523.684839
 30
0.0
 11
658.16834
 21
488.484839
 31
0.0
  0
LINE
  5
899
100
AcDbEntity
  8
18
100
AcDbLine
 10
719.76834
 20
523.684839
 30
0.0
 11
719.76834
 21
492.884839
 31
0.0
  0
LINE
  5
89A
100
AcDbEntity
  8
18
100
AcDbLine
 10
658.16834
 20
488.484839
 30
0.0
 11
716.835006
 21
488.484839
 31
0.0
  0
LINE
  5
89B
100
AcDbEntity
  8
18
100
AcDbLine
 10
724.16834
 20
523.684839
 30
0.0
 11
724.16834
 21
492.884839
 31
0.0
  0
LINE
  5
89C
100
AcDbEntity
  8
18
100
AcDbLine
 10
716.835006
 20
492.884839
 30
0.0
 11
716.835006
 21
488.484839
 31
0.0
  0
LINE
  5
89D
100
AcDbEntity
  8
18
100
AcDbLine
 10
677.96834
 20
521.484839
 30
0.0
 11
677.96834
 21
495.084839
 31
0.0
  0
LINE
  5
89E
100
AcDbEntity
  8
18
100
AcDbLine
 10
715.36834
 20
521.484839
 30
0.0
 11
715.36834
 21
495.084839
 31
0.0
  0
LINE
  5
89F
100
AcDbEntity
  8
18
100
AcDbLine
 10
677.96834
 20
521.484839
 30
0.0
 11
715.36834
 21
521.484839
 31
0.0
  0
LINE
  5
8A0
100
AcDbEntity
  8
18
100
AcDbLine
 10
677.96834
 20
495.084839
 30
0.0
 11
715.36834
 21
495.084839
 31
0.0
  0
CIRCLE
  5
8A1
100
AcDbEntity
  8
18
100
AcDbCircle
 10
693.36834
 20
508.284839
 30
0.0
 40
5.28
  0
LINE
  5
8A2
100
AcDbEntity
  8
18
  6
DASHED
100
AcDbLine
 10
669.16834
 20
517.084839
 30
0.0
 11
717.56834
 21
517.084839
 31
0.0
  0
LINE
  5
8A3
100
AcDbEntity
  8
18
  6
DASHED
100
AcDbLine
 10
669.16834
 20
499.484839
 30
0.0
 11
717.56834
 21
499.484839
 31
0.0
  0
LINE
  5
8A4
100
AcDbEntity
  8
18
  6
DASHED
100
AcDbLine
 10
717.56834
 20
517.084839
 30
0.0
 11
717.56834
 21
499.484839
 31
0.0
  0
LINE
  5
8A5
100
AcDbEntity
  8
18
  6
DASHED
100
AcDbLine
 10
669.16834
 20
517.084839
 30
0.0
 11
669.16834
 21
499.484839
 31
0.0
  0
LINE
  5
8A6
100
AcDbEntity
  8
18
  6
CENTER
 62
     2
100
AcDbLine
 10
705.101673
 20
490.790742
 30
0.0
 11
705.101673
 21
471.819896
 31
0.0
  0
LINE
  5
8A7
100
AcDbEntity
  8
18
100
AcDbLine
 10
705.10141
 20
481.884839
 30
0.0
 11
696.490873
 21
481.884839
 31
0.0
  0
LINE
  5
8A8
100
AcDbEntity
  8
18
100
AcDbLine
 10
696.490873
 20
481.884839
 30
0.0
 11
696.490873
 21
479.684839
 31
0.0
  0
LINE
  5
8A9
100
AcDbEntity
  8
18
100
AcDbLine
 10
705.10141
 20
479.684839
 30
0.0
 11
696.490873
 21
479.684839
 31
0.0
  0
LINE
  5
8AA
100
AcDbEntity
  8
18
100
AcDbLine
 10
713.711948
 20
481.884839
 30
0.0
 11
713.711948
 21
479.684839
 31
0.0
  0
LINE
  5
8AB
100
AcDbEntity
  8
18
100
AcDbLine
 10
698.065018
 20
488.484839
 30
0.0
 11
701.142649
 21
481.884839
 31
0.0
  0
LINE
  5
8AC
100
AcDbEntity
  8
18
100
AcDbLine
 10
712.137802
 20
488.484839
 30
0.0
 11
709.060172
 21
481.884839
 31
0.0
  0
LINE
  5
8AD
100
AcDbEntity
  8
18
100
AcDbLine
 10
705.10141
 20
481.884839
 30
0.0
 11
713.711948
 21
481.884839
 31
0.0
  0
LINE
  5
8AE
100
AcDbEntity
  8
18
100
AcDbLine
 10
705.10141
 20
479.684839
 30
0.0
 11
713.711948
 21
479.684839
 31
0.0
  0
LINE
  5
8AF
100
AcDbEntity
  8
18
  6
CENTER
 62
     2
100
AcDbLine
 10
862.454222
 20
508.284839
 30
0.0
 11
800.301176
 21
508.284839
 31
0.0
  0
LINE
  5
8B0
100
AcDbEntity
  8
18
100
AcDbLine
 10
806.96834
 20
496.551243
 30
0.0
 11
806.96834
 21
487.940706
 31
0.0
  0
LINE
  5
8B1
100
AcDbEntity
  8
18
100
AcDbLine
 10
806.96834
 20
487.940706
 30
0.0
 11
804.76834
 21
487.940706
 31
0.0
  0
LINE
  5
8B2
100
AcDbEntity
  8
18
100
AcDbLine
 10
804.76834
 20
496.551243
 30
0.0
 11
804.76834
 21
487.940706
 31
0.0
  0
LINE
  5
8B3
100
AcDbEntity
  8
18
100
AcDbLine
 10
806.96834
 20
505.16178
 30
0.0
 11
804.76834
 21
505.16178
 31
0.0
  0
LINE
  5
8B4
100
AcDbEntity
  8
18
  6
CENTER
 62
     2
100
AcDbLine
 10
833.36834
 20
471.277561
 30
0.0
 11
833.36834
 21
548.724307
 31
0.0
  0
LINE
  5
8B5
100
AcDbEntity
  8
18
100
AcDbLine
 10
848.76834
 20
543.484839
 30
0.0
 11
848.76834
 21
477.484839
 31
0.0
  0
LINE
  5
8B6
100
AcDbEntity
  8
18
100
AcDbLine
 10
817.96834
 20
543.484839
 30
0.0
 11
817.96834
 21
477.484839
 31
0.0
  0
LINE
  5
8B7
100
AcDbEntity
  8
18
100
AcDbLine
 10
848.76834
 20
543.484839
 30
0.0
 11
813.56834
 21
543.484839
 31
0.0
  0
LINE
  5
8B8
100
AcDbEntity
  8
18
100
AcDbLine
 10
848.76834
 20
481.884839
 30
0.0
 11
817.96834
 21
481.884839
 31
0.0
  0
LINE
  5
8B9
100
AcDbEntity
  8
18
100
AcDbLine
 10
813.56834
 20
543.484839
 30
0.0
 11
813.56834
 21
484.818172
 31
0.0
  0
LINE
  5
8BA
100
AcDbEntity
  8
18
100
AcDbLine
 10
848.76834
 20
477.484839
 30
0.0
 11
817.96834
 21
477.484839
 31
0.0
  0
LINE
  5
8BB
100
AcDbEntity
  8
18
100
AcDbLine
 10
817.96834
 20
484.818172
 30
0.0
 11
813.56834
 21
484.818172
 31
0.0
  0
LINE
  5
8BC
100
AcDbEntity
  8
18
100
AcDbLine
 10
846.56834
 20
523.684839
 30
0.0
 11
820.16834
 21
523.684839
 31
0.0
  0
LINE
  5
8BD
100
AcDbEntity
  8
18
100
AcDbLine
 10
846.56834
 20
486.284839
 30
0.0
 11
820.16834
 21
486.284839
 31
0.0
  0
LINE
  5
8BE
100
AcDbEntity
  8
18
100
AcDbLine
 10
846.56834
 20
523.684839
 30
0.0
 11
846.56834
 21
486.284839
 31
0.0
  0
LINE
  5
8BF
100
AcDbEntity
  8
18
100
AcDbLine
 10
820.16834
 20
523.684839
 30
0.0
 11
820.16834
 21
486.284839
 31
0.0
  0
CIRCLE
  5
8C0
100
AcDbEntity
  8
18
100
AcDbCircle
 10
833.36834
 20
508.284839
 30
0.0
 40
5.28
  0
LINE
  5
8C1
100
AcDbEntity
  8
18
100
AcDbLine
 10
857.56834
 20
499.484839
 30
0.0
 11
857.56834
 21
517.084839
 31
0.0
  0
LINE
  5
8C2
100
AcDbEntity
  8
18
  6
CENTER
 62
     2
100
AcDbLine
 10
815.874242
 20
496.551506
 30
0.0
 11
795.62396
 21
496.551506
 31
0.0
  0
LINE
  5
8C3
100
AcDbEntity
  8
18
100
AcDbLine
 10
857.56834
 20
499.484839
 30
0.0
 11
848.76834
 21
499.484839
 31
0.0
  0
LINE
  5
8C4
100
AcDbEntity
  8
18
100
AcDbLine
 10
813.56834
 20
517.084839
 30
0.0
 11
809.16834
 21
517.084839
 31
0.0
  0
LINE
  5
8C5
100
AcDbEntity
  8
18
100
AcDbLine
 10
857.56834
 20
517.084839
 30
0.0
 11
848.76834
 21
517.084839
 31
0.0
  0
LINE
  5
8C6
100
AcDbEntity
  8
18
  6
DASHED
100
AcDbLine
 10
848.76834
 20
517.084839
 30
0.0
 11
813.56834
 21
517.084839
 31
0.0
  0
LINE
  5
8C7
100
AcDbEntity
  8
18
100
AcDbLine
 10
809.16834
 20
507.362043
 30
0.0
 11
809.16834
 21
517.084839
 31
0.0
  0
LINE
  5
8C8
100
AcDbEntity
  8
18
  6
DASHED
100
AcDbLine
 10
848.76834
 20
499.484839
 30
0.0
 11
813.56834
 21
499.484839
 31
0.0
  0
LINE
  5
8C9
100
AcDbEntity
  8
18
  6
DASHED
100
AcDbLine
 10
813.56834
 20
499.484839
 30
0.0
 11
809.761665
 21
499.484839
 31
0.0
  0
LINE
  5
8CA
100
AcDbEntity
  8
18
  6
DASHED
100
AcDbLine
 10
809.761665
 20
499.484839
 30
0.0
 11
809.16834
 21
499.484839
 31
0.0
  0
LINE
  5
8CB
100
AcDbEntity
  8
18
100
AcDbLine
 10
813.56834
 20
489.514851
 30
0.0
 11
806.96834
 21
492.592482
 31
0.0
  0
LINE
  5
8CC
100
AcDbEntity
  8
18
100
AcDbLine
 10
813.56834
 20
503.587635
 30
0.0
 11
806.96834
 21
500.510004
 31
0.0
  0
LINE
  5
8CD
100
AcDbEntity
  8
18
100
AcDbLine
 10
806.96834
 20
496.551243
 30
0.0
 11
806.96834
 21
505.16178
 31
0.0
  0
LINE
  5
8CE
100
AcDbEntity
  8
18
100
AcDbLine
 10
804.76834
 20
496.551243
 30
0.0
 11
804.76834
 21
505.16178
 31
0.0
  0
LINE
  5
8CF
100
AcDbEntity
  8
18
  6
DASHED
100
AcDbLine
 10
809.16834
 20
499.484839
 30
0.0
 11
809.16834
 21
501.535881
 31
0.0
  0
LINE
  5
8D0
100
AcDbEntity
  8
18
100
AcDbLine
 10
809.16834
 20
500.802548
 30
0.0
 11
809.16834
 21
500.855693
 31
0.0
  0
LINE
  5
8D1
100
AcDbEntity
  8
18
100
AcDbLine
 10
809.16834
 20
501.535881
 30
0.0
 11
809.16834
 21
507.957672
 31
0.0
  0
TEXT
  5
8D2
100
AcDbEntity
  8
18
100
AcDbText
 10
611.495628
 20
-666.359558
 30
0.0
 40
15.0
  1
１
 72
     5
 11
623.495628
 21
-666.359558
 31
0.0
100
AcDbText
  0
TEXT
  5
8D3
100
AcDbEntity
  8
18
100
AcDbText
 10
349.025383
 20
-398.054237
 30
0.0
 40
25.0
  1
高圧側
 72
     5
 11
419.025383
 21
-398.054237
 31
0.0
100
AcDbText
  0
TEXT
  5
8D4
100
AcDbEntity
  8
18
100
AcDbText
 10
404.022026
 20
431.352386
 30
0.0
 40
15.0
  1
Ａ
 72
     5
 11
416.022026
 21
431.352386
 31
0.0
100
AcDbText
  0
TEXT
  5
8D5
100
AcDbEntity
  8
18
100
AcDbText
 10
543.962288
 20
430.951614
 30
0.0
 40
15.0
  1
Ｂ
 72
     5
 11
555.962288
 21
430.951614
 31
0.0
100
AcDbText
  0
TEXT
  5
8D6
100
AcDbEntity
  8
18
100
AcDbText
 10
684.022026
 20
431.352386
 30
0.0
 40
15.0
  1
Ｃ
 72
     5
 11
696.022026
 21
431.352386
 31
0.0
100
AcDbText
  0
TEXT
  5
8D7
100
AcDbEntity
  8
18
100
AcDbText
 10
543.160782
 20
405.817847
 30
0.0
 40
15.0
  1
アクチュエ－タ取付方向
 72
     5
 11
705.160782
 21
405.817847
 31
0.0
100
AcDbText
  0
TEXT
  5
8D8
100
AcDbEntity
  8
18
100
AcDbText
 10
369.246979
 20
455.691071
 30
0.0
 40
12.5
  1
弁棒側　低圧側
 72
     5
 11
454.246979
 21
455.691071
 31
0.0
100
AcDbText
  0
TEXT
  5
8D9
100
AcDbEntity
  8
18
100
AcDbText
 10
357.265282
 20
555.219536
 30
0.0
 40
12.5
  1
フラット側　高圧側
 72
     5
 11
467.265282
 21
555.219536
 31
0.0
100
AcDbText
  0
TEXT
  5
8DA
100
AcDbEntity
  8
18
100
AcDbText
 10
824.022026
 20
431.352386
 30
0.0
 40
15.0
  1
Ｄ
 72
     5
 11
836.022026
 21
431.352386
 31
0.0
100
AcDbText
  0
TEXT
  5
8DB
100
AcDbEntity
  8
18
100
AcDbText
 10
610.937869
 20
-635.176315
 30
0.0
 40
15.0
  1
標準仕様、重負荷仕様
 72
     5
 11
757.937869
 21
-635.176315
 31
0.0
100
AcDbText
  0
TEXT
  5
8DC
100
AcDbEntity
  8
18
100
AcDbText
 10
631.487885
 20
-685.083847
 30
0.0
 40
15.0
  1
５
 72
     5
 11
643.487885
 21
-685.083847
 31
0.0
100
AcDbText
  0
TEXT
  5
8DD
100
AcDbEntity
  8
18
100
AcDbText
 10
610.937869
 20
-615.176315
 30
0.0
 40
15.0
  1
３０２Ｙ－４ＩＣＳ　１５０Ａ
 72
     5
 11
817.937869
 21
-615.176315
 31
0.0
100
AcDbText
  0
TEXT
  5
8DE
100
AcDbEntity
  8
18
100
AcDbText
 10
901.562042
 20
-634.592743
 30
0.0
 40
11.25
  1
′９９．１２．　２
 72
     5
 11
1000.562042
 21
-634.592743
 31
0.0
100
AcDbText
  0
TEXT
  5
8DF
100
AcDbEntity
  8
18
100
AcDbText
 10
768.0
 20
-680.0
 30
0.0
 40
25.0
  1
Ｄ３－０２０２７
 72
     5
 11
963.0
 21
-680.0
 31
0.0
100
AcDbText
  0
LINE
  5
8E0
100
AcDbEntity
  8
20
 62
     3
100
AcDbLine
 10
-900.0
 20
-692.5
 30
0.0
 11
1000.0
 21
-692.5
 31
0.0
  0
LINE
  5
8E1
100
AcDbEntity
  8
20
 62
     3
100
AcDbLine
 10
-900.0
 20
660.0
 30
0.0
 11
1000.0
 21
660.0
 31
0.0
  0
LINE
  5
8E2
100
AcDbEntity
  8
20
 62
     3
100
AcDbLine
 10
-900.0
 20
660.0
 30
0.0
 11
-900.0
 21
-692.5
 31
0.0
  0
LINE
  5
8E3
100
AcDbEntity
  8
20
 62
     3
100
AcDbLine
 10
1000.0
 20
660.0
 30
0.0
 11
1000.0
 21
-692.5
 31
0.0
  0
LINE
  5
8E4
100
AcDbEntity
  8
20
 62
     3
100
AcDbLine
 10
300.0
 20
-692.5
 30
0.0
 11
300.0
 21
-592.5
 31
0.0
  0
LINE
  5
8E5
100
AcDbEntity
  8
20
 62
     3
100
AcDbLine
 10
535.0
 20
-692.5
 30
0.0
 11
535.0
 21
-592.5
 31
0.0
  0
LINE
  5
8E6
100
AcDbEntity
  8
20
100
AcDbLine
 10
535.0
 20
-642.5
 30
0.0
 11
1000.0
 21
-642.5
 31
0.0
  0
LINE
  5
8E7
100
AcDbEntity
  8
20
 62
     3
100
AcDbLine
 10
300.0
 20
-592.5
 30
0.0
 11
1000.0
 21
-592.5
 31
0.0
  0
LINE
  5
8E8
100
AcDbEntity
  8
20
100
AcDbLine
 10
900.0
 20
-642.5
 30
0.0
 11
900.0
 21
-592.5
 31
0.0
  0
LINE
  5
8E9
100
AcDbEntity
  8
20
100
AcDbLine
 10
900.0
 20
-617.5
 30
0.0
 11
1000.0
 21
-617.5
 31
0.0
  0
LINE
  5
8EA
100
AcDbEntity
  8
20
100
AcDbLine
 10
605.0
 20
-692.5
 30
0.0
 11
605.0
 21
-592.5
 31
0.0
  0
LINE
  5
8EB
100
AcDbEntity
  8
20
100
AcDbLine
 10
655.0
 20
-692.5
 30
0.0
 11
655.0
 21
-642.5
 31
0.0
  0
LINE
  5
8EC
100
AcDbEntity
  8
20
100
AcDbLine
 10
755.0
 20
-692.5
 30
0.0
 11
755.0
 21
-642.5
 31
0.0
  0
LINE
  5
8ED
100
AcDbEntity
  8
20
100
AcDbLine
 10
618.642073
 20
-678.857927
 30
0.0
 11
639.491453
 21
-658.008547
 31
0.0
  0
TEXT
  5
8EE
100
AcDbEntity
  8
20
100
AcDbText
 10
657.666645
 20
-662.484589
 30
0.0
 40
9.0
  1
ＤＲＡＷＩＮＧ　ＮＯ．
 72
     5
 11
754.866645
 21
-662.484589
 31
0.0
100
AcDbText
  0
TEXT
  5
8EF
100
AcDbEntity
  8
20
100
AcDbText
 10
667.5
 20
-682.5
 30
0.0
 40
15.0
  1
図　　　番
 72
     5
 11
739.5
 21
-682.5
 31
0.0
100
AcDbText
  0
TEXT
  5
8F0
100
AcDbEntity
  8
20
100
AcDbText
 10
930.0
 20
-610.0
 30
0.0
 40
10.0
  1
ＤＡＴＥ
 72
     5
 11
968.0
 21
-610.0
 31
0.0
100
AcDbText
  0
TEXT
  5
8F1
100
AcDbEntity
  8
20
100
AcDbText
 10
545.005355
 20
-664.805145
 30
0.0
 40
10.0
  1
ＳＣＡＬＥ
 72
     5
 11
593.005355
 21
-664.805145
 31
0.0
100
AcDbText
  0
TEXT
  5
8F2
100
AcDbEntity
  8
20
100
AcDbText
 10
540.0
 20
-682.5
 30
0.0
 40
15.0
  1
尺　　度
 72
     5
 11
597.0
 21
-682.5
 31
0.0
100
AcDbText
  0
TEXT
  5
8F3
100
AcDbEntity
  8
20
100
AcDbText
 10
537.505355
 20
-612.479424
 30
0.0
 40
10.0
  1
ＦＩＧ．ＮＯ．
 72
     5
 11
605.505355
 21
-612.479424
 31
0.0
100
AcDbText
  0
TEXT
  5
8F4
100
AcDbEntity
  8
20
100
AcDbText
 10
540.0
 20
-632.5
 30
0.0
 40
15.0
  1
名　　称
 72
     5
 11
597.0
 21
-632.5
 31
0.0
100
AcDbText
  0
TEXT
  5
8F5
100
AcDbEntity
  8
20
100
AcDbText
 10
302.827625
 20
-632.351265
 30
0.0
 40
11.5
  1
ＴＯＭＯＥ　ＶＡＬＶＥ　ＣＯ．，ＬＴＤ．
 72
     5
 11
530.527625
 21
-632.351265
 31
0.0
100
AcDbText
  0
TEXT
  5
8F6
100
AcDbEntity
  8
20
100
AcDbText
 10
337.5
 20
-666.449051
 30
0.0
 40
20.0
  1
巴バルブ株式会社
 72
     5
 11
493.5
 21
-666.449051
 31
0.0
100
AcDbText
  0
ENDSEC
  0
SECTION
  2
OBJECTS
  0
DICTIONARY
  5
97B
100
AcDbDictionary
  3
ACAD_GROUP
350
97C
  3
ACAD_MLINESTYLE
350
97D
  0
DICTIONARY
  5
97C
102
{ACAD_REACTORS
330
97B
102
}
100
AcDbDictionary
  0
DICTIONARY
  5
97D
102
{ACAD_REACTORS
330
97B
102
}
100
AcDbDictionary
  3
STANDARD
350
97E
  0
MLINESTYLE
  5
97E
102
{ACAD_REACTORS
330
97D
102
}
100
AcDbMlineStyle
  2
STANDARD
 70
     0
  3

 62
     0
 51
90.0
 52
90.0
 71
     2
 49
0.5
 62
   256
  6
BYLAYER
 49
-0.5
 62
   256
  6
BYLAYER
  0
ENDSEC
  0
EOF
