  0
SECTION
  2
HEADER
  9
$ACADVER
  1
AC1012
  9
$DWGCODEPAGE
  3
ansi_932
  9
$INSBASE
 10
0.0
 20
0.0
 30
0.0
  9
$EXTMIN
 10
-1260.0
 20
-891.0
 30
1.000000E+20
  9
$EXTMAX
 10
1260.0
 20
891.0
 30
-1.000000E+20
  9
$LIMMIN
 10
-1260.0
 20
-891.0
  9
$LIMMAX
 10
1260.0
 20
891.0
  9
$ORTHOMODE
 70
     0
  9
$REGENMODE
 70
     1
  9
$FILLMODE
 70
     1
  9
$QTEXTMODE
 70
     0
  9
$MIRRTEXT
 70
     1
  9
$DRAGMODE
 70
     2
  9
$LTSCALE
 40
1.0
  9
$OSMODE
 70
     0
  9
$ATTMODE
 70
     1
  9
$TEXTSIZE
 40
0.2
  9
$TRACEWID
 40
0.05
  9
$TEXTSTYLE
  7
STANDARD
  9
$CLAYER
  8
0
  9
$CELTYPE
  6
CONTINUOUS
  9
$CECOLOR
 62
   256
  9
$CELTSCALE
 40
1.0
  9
$DELOBJ
 70
     1
  9
$DISPSILH
 70
     0
  9
$DIMSCALE
 40
6.0
  9
$DIMASZ
 40
0.18
  9
$DIMEXO
 40
0.0625
  9
$DIMDLI
 40
0.38
  9
$DIMRND
 40
0.0
  9
$DIMDLE
 40
0.0
  9
$DIMEXE
 40
0.18
  9
$DIMTP
 40
0.0
  9
$DIMTM
 40
0.0
  9
$DIMTXT
 40
0.18
  9
$DIMCEN
 40
0.09
  9
$DIMTSZ
 40
0.0
  9
$DIMTOL
 70
     0
  9
$DIMLIM
 70
     0
  9
$DIMTIH
 70
     1
  9
$DIMTOH
 70
     1
  9
$DIMSE1
 70
     0
  9
$DIMSE2
 70
     0
  9
$DIMTAD
 70
     1
  9
$DIMZIN
 70
     0
  9
$DIMBLK
  1

  9
$DIMASO
 70
     1
  9
$DIMSHO
 70
     1
  9
$DIMPOST
  1

  9
$DIMAPOST
  1

  9
$DIMALT
 70
     0
  9
$DIMALTD
 70
     2
  9
$DIMALTF
 40
25.4
  9
$DIMLFAC
 40
1.0
  9
$DIMTOFL
 70
     0
  9
$DIMTVP
 40
0.0
  9
$DIMTIX
 70
     0
  9
$DIMSOXD
 70
     0
  9
$DIMSAH
 70
     0
  9
$DIMBLK1
  1

  9
$DIMBLK2
  1

  9
$DIMSTYLE
  2
STANDARD
  9
$DIMCLRD
 70
     0
  9
$DIMCLRE
 70
     0
  9
$DIMCLRT
 70
     0
  9
$DIMTFAC
 40
1.0
  9
$DIMGAP
 40
0.09
  9
$DIMJUST
 70
     0
  9
$DIMSD1
 70
     0
  9
$DIMSD2
 70
     0
  9
$DIMTOLJ
 70
     1
  9
$DIMTZIN
 70
     0
  9
$DIMALTZ
 70
     0
  9
$DIMALTTZ
 70
     0
  9
$DIMFIT
 70
     3
  9
$DIMUPT
 70
     0
  9
$DIMUNIT
 70
     2
  9
$DIMDEC
 70
     4
  9
$DIMTDEC
 70
     4
  9
$DIMALTU
 70
     2
  9
$DIMALTTD
 70
     2
  9
$DIMTXSTY
  7
STANDARD
  9
$DIMAUNIT
 70
     0
  9
$LUNITS
 70
     2
  9
$LUPREC
 70
     4
  9
$SKETCHINC
 40
0.1
  9
$FILLETRAD
 40
0.0
  9
$AUNITS
 70
     0
  9
$AUPREC
 70
     0
  9
$MENU
  1
acad
  9
$ELEVATION
 40
0.0
  9
$PELEVATION
 40
0.0
  9
$THICKNESS
 40
0.0
  9
$LIMCHECK
 70
     0
  9
$BLIPMODE
 70
     1
  9
$CHAMFERA
 40
0.0
  9
$CHAMFERB
 40
0.0
  9
$CHAMFERC
 40
0.0
  9
$CHAMFERD
 40
0.0
  9
$SKPOLY
 70
     0
  9
$TDCREATE
 40
2451515.000000000
  9
$TDUPDATE
 40
0.000000000
  9
$TDINDWG
 40
0.0000000000
  9
$TDUSRTIMER
 40
0.0000000000
  9
$USRTIMER
 70
     1
  9
$ANGBASE
 50
0.0
  9
$ANGDIR
 70
     0
  9
$PDMODE
 70
     0
  9
$PDSIZE
 40
0.0
  9
$PLINEWID
 40
0.0
  9
$COORDS
 70
     0
  9
$SPLFRAME
 70
     0
  9
$SPLINETYPE
 70
     6
  9
$SPLINESEGS
 70
     8
  9
$ATTDIA
 70
     0
  9
$ATTREQ
 70
     1
  9
$HANDLING
 70
     1
  9
$HANDSEED
  5
9CC
  9
$SURFTAB1
 70
     6
  9
$SURFTAB2
 70
     6
  9
$SURFTYPE
 70
     6
  9
$SURFU
 70
     6
  9
$SURFV
 70
     6
  9
$UCSNAME
  2

  9
$UCSORG
 10
0.0
 20
0.0
 30
0.0
  9
$UCSXDIR
 10
1.0
 20
0.0
 30
0.0
  9
$UCSYDIR
 10
0.0
 20
1.0
 30
0.0
  9
$PUCSNAME
  2

  9
$PUCSORG
 10
0.0
 20
0.0
 30
0.0
  9
$PUCSXDIR
 10
1.0
 20
0.0
 30
0.0
  9
$PUCSYDIR
 10
0.0
 20
1.0
 30
0.0
  9
$USERI1
 70
     0
  9
$USERI2
 70
     0
  9
$USERI3
 70
     0
  9
$USERI4
 70
     0
  9
$USERI5
 70
     0
  9
$USERR1
 40
0.0
  9
$USERR2
 40
0.0
  9
$USERR3
 40
0.0
  9
$USERR4
 40
0.0
  9
$USERR5
 40
0.0
  9
$WORLDVIEW
 70
     1
  9
$SHADEDGE
 70
     3
  9
$SHADEDIF
 70
    70
  9
$TILEMODE
 70
     1
  9
$MAXACTVP
 70
    16
  9
$PINSBASE
 10
0.0
 20
0.0
 30
0.0
  9
$PLIMCHECK
 70
     0
  9
$PEXTMIN
 10
1.000000E+20
 20
1.000000E+20
 30
1.000000E+20
  9
$PEXTMAX
 10
-1.000000E+20
 20
-1.000000E+20
 30
-1.000000E+20
  9
$PLIMMIN
 10
0.0
 20
0.0
  9
$PLIMMAX
 10
12.0
 20
9.0
  9
$UNITMODE
 70
     0
  9
$VISRETAIN
 70
     0
  9
$PLINEGEN
 70
     1
  9
$PSLTSCALE
 70
     0
  9
$TREEDEPTH
 70
  3020
  9
$PICKSTYLE
 70
     1
  9
$CMLSTYLE
  2
STANDARD
  9
$CMLJUST
 70
     0
  9
$CMLSCALE
 40
1.0
  9
$SAVEIMAGES
 70
     0
  0
ENDSEC
  0
SECTION
  2
CLASSES
  0
CLASS
  1
LWPOLYLINE
  2
AcDbPolyline
  3
"AutoCAD"
 90
    32768
280
     0
281
     1
  0
CLASS
  1
IMAGE
  2
AcDbRasterImage
  3
ISM
 90
    32895
280
     0
281
     1
  0
CLASS
  1
OLE2FRAME
  2
AcDbOle2Frame
  3
""
 90
    32768
280
     0
281
     1
  0
CLASS
  1
HATCH
  2
AcDbHatch
  3
"ACAD_SEDONA"
 90
    32768
280
     0
281
     1
  0
CLASS
  1
DICTIONARYVAR
  2
AcDbDictionaryVar
  3
"AutoCAD"
 90
    32768
280
     0
281
     0
  0
CLASS
  1
RASTERVARIABLES
  2
AcDbRasterVariables
  3
ISM
 90
    32768
280
     0
281
     0
  0
CLASS
  1
IMAGEDEF
  2
AcDbRasterImageDef
  3
ISM
 90
    32768
280
     0
281
     0
  0
CLASS
  1
IMAGEDEF_REACTOR
  2
AcDbRasterImageDefReactor
  3
ISM
 90
    32769
280
     0
281
     0
  0
CLASS
  1
IDBUFFER
  2
AcDbIdBuffer
  3
"Acad"
 90
    32768
280
     0
281
     0
  0
CLASS
  1
SPATIAL_FILTER
  2
AcDbSpatialFilter
  3
"Acad"
 90
    32768
280
     0
281
     0
  0
CLASS
  1
XRECORD
  2
AcDbXrecord
  3
"<Built In>"
 90
    32768
280
     0
281
     0
  0
CLASS
  1
SORTENTSTABLE
  2
AcDbSortentsTable
  3
"AutoCAD"
 90
    32768
280
     0
281
     0
  0
CLASS
  1
LAYER_INDEX
  2
AcDbLayerIndex
  3
"Acad"
 90
    32768
280
     0
281
     0
  0
CLASS
  1
SPATIAL_INDEX
  2
AcDbSpatialIndex
  3
"Acad"
 90
    32768
280
     0
281
     0
  0
CLASS
  1
OBJECT_PTR
  2
CAseDLPNTableRecord
  3
"ASE-LPNTableRecord"
 90
    32769
280
     0
281
     0
  0
CLASS
  1
LAYOUT
  2
AcDbLayout
  3
"AutoCAD 2000"
 90
    32768
280
     0
281
     0
  0
CLASS
  1
PLOTSETTINGS
  2
AcDbPlotSettings
  3
"AutoCAD 2000"
 90
    32768
280
     0
281
     0
  0
CLASS
  1
ACDBDICTIONARYWDFLT
  2
AcDbDictionaryWithDefault
  3
"AutoCAD 2000"
 90
    32768
280
     0
281
     0
  0
CLASS
  1
ACDBPLACEHOLDER
  2
AcDbPlaceHolder
  3
"AutoCAD 2000"
 90
    32768
280
     0
281
     0
  0
CLASS
  1
VBA_PROJECT
  2
AcDbVbaProject
  3
"acadvba"
 90
    32768
280
     0
281
     0
  0
CLASS
  1
WIPEOUT
  2
AcDbWipeout
  3
WipeOut|AutoCAD Express Tool|expresstools@autodesk.com
 90
    32895
280
     0
281
     1
  0
CLASS
  1
WIPEOUTVARIABLES
  2
AcDbWipeoutVariables
  3
WipeOut|AutoCAD Express Tool|expresstools@autodesk.com
 90
    32768
280
     0
281
     0
  0
CLASS
  1
RTEXT
  2
RText
  3
RText|AutoCAD Express Tool|expresstools@autodesk.com
 90
    32768
280
     0
281
     1
  0
CLASS
  1
ARCALIGNEDTEXT
  2
AcDbArcAlignedText
  3
ATEXT|AutoCAD Express Tool|expresstools@autodesk.com
 90
    32768
280
     0
281
     1
  0
ENDSEC
  0
SECTION
  2
TABLES
  0
TABLE
  2
VPORT
  5
6
100
AcDbSymbolTable
 70
     1
  0
VPORT
  5
1C
100
AcDbSymbolTableRecord
100
AcDbViewportTableRecord
  2
*ACTIVE
 70
     0
 10
0.0
 20
0.0
 11
1.0
 21
1.0
 12
0.0
 22
0.0
 13
0.0
 23
0.0
 14
1.0
 24
1.0
 15
0.0
 25
0.0
 16
0.0
 26
0.0
 36
1.0
 17
0.0
 27
0.0
 37
0.0
 40
1782.0
 41
1.414141
 42
50.0
 43
0.0
 44
0.0
 50
0.0
 51
0.0
 71
     0
 72
   500
 73
     1
 74
     1
 75
     0
 76
     0
 77
     0
 78
     0
  0
ENDTAB
  0
TABLE
  2
LTYPE
  5
3
100
AcDbSymbolTable
 70
     9
  0
LTYPE
  5
C
100
AcDbSymbolTableRecord
100
AcDbLinetypeTableRecord
  2
BYBLOCK
 70
    64
  3

 72
    65
 73
     0
 40
0.0
  0
LTYPE
  5
D
100
AcDbSymbolTableRecord
100
AcDbLinetypeTableRecord
  2
BYLAYER
 70
    64
  3

 72
    65
 73
     0
 40
0.0
  0
LTYPE
  5
E
100
AcDbSymbolTableRecord
100
AcDbLinetypeTableRecord
  2
CONTINUOUS
 70
     0
  3
Solid line
 72
    65
 73
     0
 40
0.0
  0
LTYPE
  5
F
100
AcDbSymbolTableRecord
100
AcDbLinetypeTableRecord
  2
DASHED
 70
     0
  3
__ __ __ __ __ __ __ __ __ __ __ __ __ __ __
 72
    65
 73
     2
 40
2.0
 49
1.2
 74
     0
 49
-0.8
 74
     0
  0
LTYPE
  5
10
100
AcDbSymbolTableRecord
100
AcDbLinetypeTableRecord
  2
CENTER
 70
     0
  3
____ _ ____ _ ____ _ ____ _ ____ _ ____ _ ____
 72
    65
 73
     4
 40
12.0
 49
9.0
 74
     0
 49
-1.0
 74
     0
 49
1.0
 74
     0
 49
-1.0
 74
     0
  0
LTYPE
  5
11
100
AcDbSymbolTableRecord
100
AcDbLinetypeTableRecord
  2
HIDDEN
 70
     0
  3
_ _ _ _ _ _ _ _ _ _ _ _ _ _ _ _ _ _ _ _ _ _ _
 72
    65
 73
     2
 40
3.2
 49
2.4
 74
     0
 49
-0.8
 74
     0
  0
LTYPE
  5
12
100
AcDbSymbolTableRecord
100
AcDbLinetypeTableRecord
  2
PHANTOM
 70
     0
  3
_____ _ _ _____ _ _ _____ _ _ _____ _ _ _____
 72
    65
 73
     6
 40
13.5
 49
9.0
 74
     0
 49
-1.0
 74
     0
 49
1.0
 74
     0
 49
-0.5
 74
     0
 49
1.0
 74
     0
 49
-1.0
 74
     0
  0
LTYPE
  5
13
100
AcDbSymbolTableRecord
100
AcDbLinetypeTableRecord
  2
DOT
 70
     0
  3
...............................................
 72
    65
 73
     2
 40
1.0
 49
0.5
 74
     0
 49
-0.5
 74
     0
  0
LTYPE
  5
14
100
AcDbSymbolTableRecord
100
AcDbLinetypeTableRecord
  2
DASHDOT
 70
     0
  3
__ . __ . __ . __ . __ . __ . __ . __ . __ . __
 72
    65
 73
     4
 40
8.0
 49
5.0
 74
     0
 49
-1.0
 74
     0
 49
1.0
 74
     0
 49
-1.0
 74
     0
  0
ENDTAB
  0
TABLE
  2
LAYER
  5
1
100
AcDbSymbolTable
 70
     7
  0
LAYER
  5
15
100
AcDbSymbolTableRecord
100
AcDbLayerTableRecord
  2
0
 70
     0
 62
     7
  6
CONTINUOUS
  0
LAYER
  5
16
100
AcDbSymbolTableRecord
100
AcDbLayerTableRecord
  2
1
 70
     0
 62
     7
  6
CONTINUOUS
  0
LAYER
  5
17
100
AcDbSymbolTableRecord
100
AcDbLayerTableRecord
  2
2
 70
     0
 62
     7
  6
CONTINUOUS
  0
LAYER
  5
18
100
AcDbSymbolTableRecord
100
AcDbLayerTableRecord
  2
3
 70
     0
 62
     7
  6
CONTINUOUS
  0
LAYER
  5
19
100
AcDbSymbolTableRecord
100
AcDbLayerTableRecord
  2
5
 70
     0
 62
     7
  6
CONTINUOUS
  0
LAYER
  5
1A
100
AcDbSymbolTableRecord
100
AcDbLayerTableRecord
  2
18
 70
     0
 62
     7
  6
CONTINUOUS
  0
LAYER
  5
1B
100
AcDbSymbolTableRecord
100
AcDbLayerTableRecord
  2
20
 70
     0
 62
     7
  6
CONTINUOUS
  0
ENDTAB
  0
TABLE
  2
STYLE
  5
2
100
AcDbSymbolTable
 70
     1
  0
STYLE
  5
1E
100
AcDbSymbolTableRecord
100
AcDbTextStyleTableRecord
  2
STANDARD
 70
    64
 40
0.0
 41
1.0
 50
0.0
 71
     0
 42
1.0
  3
txt
  4
BIGFONT
  0
ENDTAB
  0
TABLE
  2
VIEW
  5
4
100
AcDbSymbolTable
 70
     0
  0
ENDTAB
  0
TABLE
  2
UCS
  5
5
100
AcDbSymbolTable
 70
     0
  0
ENDTAB
  0
TABLE
  2
APPID
  5
7
100
AcDbSymbolTable
 70
     1
  0
APPID
  5
1D
100
AcDbSymbolTableRecord
100
AcDbRegAppTableRecord
  2
ACAD
 70
     0
  0
ENDTAB
  0
TABLE
  2
DIMSTYLE
  5
8
100
AcDbSymbolTable
 70
     1
  0
DIMSTYLE
105
31
100
AcDbSymbolTableRecord
100
AcDbDimStyleTableRecord
  2
STANDARD
 70
     0
  3

  4

  5

  6

  7

 40
6.0
 41
0.18
 42
0.0625
 43
0.38
 44
0.18
 45
0.0
 46
0.0
 47
0.0
 48
0.0
 71
     0
 72
     0
 73
     1
 74
     1
 75
     0
 76
     0
 77
     1
 78
     0
140
0.18
141
0.09
142
0.0
143
25.4
144
1.0
145
0.0
146
1.0
147
0.09
170
     0
171
     2
172
     0
173
     0
174
     0
175
     0
176
     0
177
     0
178
     0
270
     2
271
     4
272
     4
273
     2
274
     2
275
     0
280
     0
281
     0
282
     0
283
     1
284
     0
285
     0
286
     0
287
     3
288
     0
340
1E
  0
ENDTAB
  0
TABLE
  2
BLOCK_RECORD
  5
2C
100
AcDbSymbolTable
 70
    11
  0
BLOCK_RECORD
  5
2A
100
AcDbSymbolTableRecord
100
AcDbBlockTableRecord
  2
*MODEL_SPACE
  0
BLOCK_RECORD
  5
2B
100
AcDbSymbolTableRecord
100
AcDbBlockTableRecord
  2
*PAPER_SPACE
  0
BLOCK_RECORD
  5
1F
100
AcDbSymbolTableRecord
100
AcDbBlockTableRecord
  2
*D0
  0
BLOCK_RECORD
  5
20
100
AcDbSymbolTableRecord
100
AcDbBlockTableRecord
  2
*D1
  0
BLOCK_RECORD
  5
21
100
AcDbSymbolTableRecord
100
AcDbBlockTableRecord
  2
*D2
  0
BLOCK_RECORD
  5
22
100
AcDbSymbolTableRecord
100
AcDbBlockTableRecord
  2
*D3
  0
BLOCK_RECORD
  5
23
100
AcDbSymbolTableRecord
100
AcDbBlockTableRecord
  2
*D4
  0
BLOCK_RECORD
  5
24
100
AcDbSymbolTableRecord
100
AcDbBlockTableRecord
  2
*D5
  0
BLOCK_RECORD
  5
25
100
AcDbSymbolTableRecord
100
AcDbBlockTableRecord
  2
*D6
  0
BLOCK_RECORD
  5
26
100
AcDbSymbolTableRecord
100
AcDbBlockTableRecord
  2
*D7
  0
BLOCK_RECORD
  5
27
100
AcDbSymbolTableRecord
100
AcDbBlockTableRecord
  2
*D8
  0
BLOCK_RECORD
  5
28
100
AcDbSymbolTableRecord
100
AcDbBlockTableRecord
  2
*D9
  0
BLOCK_RECORD
  5
29
100
AcDbSymbolTableRecord
100
AcDbBlockTableRecord
  2
*D10
  0
ENDTAB
  0
ENDSEC
  0
SECTION
  2
BLOCKS
  0
BLOCK
  5
2D
100
AcDbEntity
  8
0
100
AcDbBlockBegin
  2
*MODEL_SPACE
 70
     0
 10
0.0
 20
0.0
 30
0.0
  3
*MODEL_SPACE
  1

  0
ENDBLK
  5
2E
100
AcDbEntity
  8
0
100
AcDbBlockEnd
  0
BLOCK
  5
2F
100
AcDbEntity
 67
     1
  8
0
100
AcDbBlockBegin
  2
*PAPER_SPACE
 70
     0
 10
0.0
 20
0.0
 30
0.0
  3
*PAPER_SPACE
  1

  0
ENDBLK
  5
30
100
AcDbEntity
 67
     1
  8
0
100
AcDbBlockEnd
  0
BLOCK
  5
93E
100
AcDbEntity
  8
5
100
AcDbBlockBegin
  2
*D0
 70
     1
 10
0.0
 20
0.0
 30
0.0
  3
*D0
  1

  0
TEXT
  5
93F
100
AcDbEntity
  8
5
 62
     2
100
AcDbText
 10
-206.550545
 20
-7.870964
 30
0.0
 40
19.8
  1
%%c200
 50
90.0
 41
1.4
 72
     5
 11
-206.550545
 21
42.025035
 31
0.0
100
AcDbText
  0
LINE
  5
940
100
AcDbEntity
  8
5
 62
     2
100
AcDbLine
 10
-128.720487
 20
119.849035
 30
0.0
 11
-209.550545
 21
119.849035
 31
0.0
  0
LINE
  5
941
100
AcDbEntity
  8
5
 62
     2
100
AcDbLine
 10
-203.550545
 20
119.849035
 30
0.0
 11
-206.656373
 21
108.257925
 31
0.0
  0
LINE
  5
942
100
AcDbEntity
  8
5
 62
     2
100
AcDbLine
 10
-203.550545
 20
119.849035
 30
0.0
 11
-200.444716
 21
108.257925
 31
0.0
  0
LINE
  5
943
100
AcDbEntity
  8
5
 62
     2
100
AcDbLine
 10
-206.656373
 20
108.257925
 30
0.0
 11
-200.444716
 21
108.257925
 31
0.0
  0
LINE
  5
944
100
AcDbEntity
  8
5
 62
     2
100
AcDbLine
 10
-203.550545
 20
119.849035
 30
0.0
 11
-203.550545
 21
-80.150965
 31
0.0
  0
LINE
  5
945
100
AcDbEntity
  8
5
 62
     2
100
AcDbLine
 10
-203.550545
 20
-80.150965
 30
0.0
 11
-200.444716
 21
-68.559855
 31
0.0
  0
LINE
  5
946
100
AcDbEntity
  8
5
 62
     2
100
AcDbLine
 10
-203.550545
 20
-80.150965
 30
0.0
 11
-206.656373
 21
-68.559855
 31
0.0
  0
LINE
  5
947
100
AcDbEntity
  8
5
 62
     2
100
AcDbLine
 10
-200.444716
 20
-68.559855
 30
0.0
 11
-206.656373
 21
-68.559855
 31
0.0
  0
LINE
  5
948
100
AcDbEntity
  8
5
 62
     2
100
AcDbLine
 10
-128.720487
 20
-80.150965
 30
0.0
 11
-209.550545
 21
-80.150965
 31
0.0
  0
ENDBLK
  5
949
100
AcDbEntity
  8
5
100
AcDbBlockEnd
  0
BLOCK
  5
94A
100
AcDbEntity
  8
5
100
AcDbBlockBegin
  2
*D1
 70
     1
 10
0.0
 20
0.0
 30
0.0
  3
*D1
  1

  0
TEXT
  5
94B
100
AcDbEntity
  8
5
 62
     2
100
AcDbText
 10
309.278824
 20
16.059036
 30
0.0
 40
19.8
  1
230
 50
90.0
 41
1.4
 72
     5
 11
309.278824
 21
52.095035
 31
0.0
100
AcDbText
  0
LINE
  5
94C
100
AcDbEntity
  8
5
 62
     2
100
AcDbLine
 10
184.771554
 20
-78.150965
 30
0.0
 11
318.278824
 21
-78.150965
 31
0.0
  0
LINE
  5
94D
100
AcDbEntity
  8
5
 62
     2
100
AcDbLine
 10
312.278824
 20
-78.150965
 30
0.0
 11
315.384652
 21
-66.559855
 31
0.0
  0
LINE
  5
94E
100
AcDbEntity
  8
5
 62
     2
100
AcDbLine
 10
312.278824
 20
-78.150965
 30
0.0
 11
309.172995
 21
-66.559855
 31
0.0
  0
LINE
  5
94F
100
AcDbEntity
  8
5
 62
     2
100
AcDbLine
 10
315.384652
 20
-66.559855
 30
0.0
 11
309.172995
 21
-66.559855
 31
0.0
  0
LINE
  5
950
100
AcDbEntity
  8
5
 62
     2
100
AcDbLine
 10
312.278824
 20
-78.150965
 30
0.0
 11
312.278824
 21
151.849035
 31
0.0
  0
LINE
  5
951
100
AcDbEntity
  8
5
 62
     2
100
AcDbLine
 10
312.278824
 20
151.849035
 30
0.0
 11
309.172995
 21
140.257925
 31
0.0
  0
LINE
  5
952
100
AcDbEntity
  8
5
 62
     2
100
AcDbLine
 10
312.278824
 20
151.849035
 30
0.0
 11
315.384652
 21
140.257925
 31
0.0
  0
LINE
  5
953
100
AcDbEntity
  8
5
 62
     2
100
AcDbLine
 10
309.172995
 20
140.257925
 30
0.0
 11
315.384652
 21
140.257925
 31
0.0
  0
LINE
  5
954
100
AcDbEntity
  8
5
 62
     2
100
AcDbLine
 10
114.771554
 20
151.849035
 30
0.0
 11
318.278824
 21
151.849035
 31
0.0
  0
ENDBLK
  5
955
100
AcDbEntity
  8
5
100
AcDbBlockEnd
  0
BLOCK
  5
956
100
AcDbEntity
  8
5
100
AcDbBlockBegin
  2
*D2
 70
     1
 10
0.0
 20
0.0
 30
0.0
  3
*D2
  1

  0
TEXT
  5
957
100
AcDbEntity
  8
5
 62
     2
100
AcDbText
 10
309.278824
 20
-186.440964
 30
0.0
 40
19.8
  1
175
 50
90.0
 41
1.4
 72
     5
 11
309.278824
 21
-150.404965
 31
0.0
100
AcDbText
  0
LINE
  5
958
100
AcDbEntity
  8
5
 62
     2
100
AcDbLine
 10
177.271554
 20
-253.150965
 30
0.0
 11
318.278824
 21
-253.150965
 31
0.0
  0
LINE
  5
959
100
AcDbEntity
  8
5
 62
     2
100
AcDbLine
 10
312.278824
 20
-253.150965
 30
0.0
 11
315.384652
 21
-241.559855
 31
0.0
  0
LINE
  5
95A
100
AcDbEntity
  8
5
 62
     2
100
AcDbLine
 10
312.278824
 20
-253.150965
 30
0.0
 11
309.172995
 21
-241.559855
 31
0.0
  0
LINE
  5
95B
100
AcDbEntity
  8
5
 62
     2
100
AcDbLine
 10
315.384652
 20
-241.559855
 30
0.0
 11
309.172995
 21
-241.559855
 31
0.0
  0
LINE
  5
95C
100
AcDbEntity
  8
5
 62
     2
100
AcDbLine
 10
312.278824
 20
-253.150965
 30
0.0
 11
312.278824
 21
-78.150965
 31
0.0
  0
LINE
  5
95D
100
AcDbEntity
  8
5
 62
     2
100
AcDbLine
 10
312.278824
 20
-78.150965
 30
0.0
 11
309.172995
 21
-89.742075
 31
0.0
  0
LINE
  5
95E
100
AcDbEntity
  8
5
 62
     2
100
AcDbLine
 10
312.278824
 20
-78.150965
 30
0.0
 11
315.384652
 21
-89.742075
 31
0.0
  0
LINE
  5
95F
100
AcDbEntity
  8
5
 62
     2
100
AcDbLine
 10
309.172995
 20
-89.742075
 30
0.0
 11
315.384652
 21
-89.742075
 31
0.0
  0
LINE
  5
960
100
AcDbEntity
  8
5
 62
     2
100
AcDbLine
 10
184.771554
 20
-78.150965
 30
0.0
 11
318.278824
 21
-78.150965
 31
0.0
  0
ENDBLK
  5
961
100
AcDbEntity
  8
5
100
AcDbBlockEnd
  0
BLOCK
  5
962
100
AcDbEntity
  8
5
100
AcDbBlockBegin
  2
*D3
 70
     1
 10
0.0
 20
0.0
 30
0.0
  3
*D3
  1

  0
TEXT
  5
963
100
AcDbEntity
  8
5
 62
     2
100
AcDbText
 10
-530.618446
 20
717.53952
 30
0.0
 40
19.8
  1
165
 41
1.4
 72
     5
 11
-494.582447
 21
717.53952
 31
0.0
100
AcDbText
  0
LINE
  5
964
100
AcDbEntity
  8
5
 62
     2
100
AcDbLine
 10
-592.328446
 20
676.897562
 30
0.0
 11
-592.328446
 21
720.53952
 31
0.0
  0
LINE
  5
965
100
AcDbEntity
  8
5
 62
     2
100
AcDbLine
 10
-592.328446
 20
714.53952
 30
0.0
 11
-580.737336
 21
711.433692
 31
0.0
  0
LINE
  5
966
100
AcDbEntity
  8
5
 62
     2
100
AcDbLine
 10
-592.328446
 20
714.53952
 30
0.0
 11
-580.737336
 21
717.645349
 31
0.0
  0
LINE
  5
967
100
AcDbEntity
  8
5
 62
     2
100
AcDbLine
 10
-580.737336
 20
711.433692
 30
0.0
 11
-580.737336
 21
717.645349
 31
0.0
  0
LINE
  5
968
100
AcDbEntity
  8
5
 62
     2
100
AcDbLine
 10
-592.328446
 20
714.53952
 30
0.0
 11
-427.328446
 21
714.53952
 31
0.0
  0
LINE
  5
969
100
AcDbEntity
  8
5
 62
     2
100
AcDbLine
 10
-427.328446
 20
714.53952
 30
0.0
 11
-438.919556
 21
717.645349
 31
0.0
  0
LINE
  5
96A
100
AcDbEntity
  8
5
 62
     2
100
AcDbLine
 10
-427.328446
 20
714.53952
 30
0.0
 11
-438.919556
 21
711.433692
 31
0.0
  0
LINE
  5
96B
100
AcDbEntity
  8
5
 62
     2
100
AcDbLine
 10
-438.919556
 20
717.645349
 30
0.0
 11
-438.919556
 21
711.433692
 31
0.0
  0
LINE
  5
96C
100
AcDbEntity
  8
5
 62
     2
100
AcDbLine
 10
-427.328446
 20
448.649035
 30
0.0
 11
-427.328446
 21
720.53952
 31
0.0
  0
ENDBLK
  5
96D
100
AcDbEntity
  8
5
100
AcDbBlockEnd
  0
BLOCK
  5
96E
100
AcDbEntity
  8
5
100
AcDbBlockBegin
  2
*D4
 70
     1
 10
0.0
 20
0.0
 30
0.0
  3
*D4
  1

  0
TEXT
  5
96F
100
AcDbEntity
  8
5
 62
     2
100
AcDbText
 10
-724.618446
 20
717.53952
 30
0.0
 40
19.8
  1
223
 41
1.4
 72
     5
 11
-688.582447
 21
717.53952
 31
0.0
100
AcDbText
  0
LINE
  5
970
100
AcDbEntity
  8
5
 62
     2
100
AcDbLine
 10
-815.328446
 20
624.649035
 30
0.0
 11
-815.328446
 21
720.53952
 31
0.0
  0
LINE
  5
971
100
AcDbEntity
  8
5
 62
     2
100
AcDbLine
 10
-815.328446
 20
714.53952
 30
0.0
 11
-803.737336
 21
711.433692
 31
0.0
  0
LINE
  5
972
100
AcDbEntity
  8
5
 62
     2
100
AcDbLine
 10
-815.328446
 20
714.53952
 30
0.0
 11
-803.737336
 21
717.645349
 31
0.0
  0
LINE
  5
973
100
AcDbEntity
  8
5
 62
     2
100
AcDbLine
 10
-803.737336
 20
711.433692
 30
0.0
 11
-803.737336
 21
717.645349
 31
0.0
  0
LINE
  5
974
100
AcDbEntity
  8
5
 62
     2
100
AcDbLine
 10
-815.328446
 20
714.53952
 30
0.0
 11
-592.328446
 21
714.53952
 31
0.0
  0
LINE
  5
975
100
AcDbEntity
  8
5
 62
     2
100
AcDbLine
 10
-592.328446
 20
714.53952
 30
0.0
 11
-603.919556
 21
717.645349
 31
0.0
  0
LINE
  5
976
100
AcDbEntity
  8
5
 62
     2
100
AcDbLine
 10
-592.328446
 20
714.53952
 30
0.0
 11
-603.919556
 21
711.433692
 31
0.0
  0
LINE
  5
977
100
AcDbEntity
  8
5
 62
     2
100
AcDbLine
 10
-603.919556
 20
717.645349
 30
0.0
 11
-603.919556
 21
711.433692
 31
0.0
  0
LINE
  5
978
100
AcDbEntity
  8
5
 62
     2
100
AcDbLine
 10
-592.328446
 20
676.897562
 30
0.0
 11
-592.328446
 21
720.53952
 31
0.0
  0
ENDBLK
  5
979
100
AcDbEntity
  8
5
100
AcDbBlockEnd
  0
BLOCK
  5
97A
100
AcDbEntity
  8
5
100
AcDbBlockBegin
  2
*D5
 70
     1
 10
0.0
 20
0.0
 30
0.0
  3
*D5
  1

  0
TEXT
  5
97B
100
AcDbEntity
  8
5
 62
     2
100
AcDbText
 10
-316.185425
 20
580.859036
 30
0.0
 40
19.8
  1
136
 50
90.0
 41
1.4
 72
     5
 11
-316.185425
 21
616.895035
 31
0.0
100
AcDbText
  0
LINE
  5
97C
100
AcDbEntity
  8
5
 62
     2
100
AcDbLine
 10
-421.135254
 20
533.649035
 30
0.0
 11
-307.185425
 21
533.649035
 31
0.0
  0
LINE
  5
97D
100
AcDbEntity
  8
5
 62
     2
100
AcDbLine
 10
-313.185425
 20
533.649035
 30
0.0
 11
-310.079596
 21
545.240145
 31
0.0
  0
LINE
  5
97E
100
AcDbEntity
  8
5
 62
     2
100
AcDbLine
 10
-313.185425
 20
533.649035
 30
0.0
 11
-316.291253
 21
545.240145
 31
0.0
  0
LINE
  5
97F
100
AcDbEntity
  8
5
 62
     2
100
AcDbLine
 10
-310.079596
 20
545.240145
 30
0.0
 11
-316.291253
 21
545.240145
 31
0.0
  0
LINE
  5
980
100
AcDbEntity
  8
5
 62
     2
100
AcDbLine
 10
-313.185425
 20
533.649035
 30
0.0
 11
-313.185425
 21
669.649035
 31
0.0
  0
LINE
  5
981
100
AcDbEntity
  8
5
 62
     2
100
AcDbLine
 10
-313.185425
 20
669.649035
 30
0.0
 11
-316.291253
 21
658.057925
 31
0.0
  0
LINE
  5
982
100
AcDbEntity
  8
5
 62
     2
100
AcDbLine
 10
-313.185425
 20
669.649035
 30
0.0
 11
-310.079596
 21
658.057925
 31
0.0
  0
LINE
  5
983
100
AcDbEntity
  8
5
 62
     2
100
AcDbLine
 10
-316.291253
 20
658.057925
 30
0.0
 11
-310.079596
 21
658.057925
 31
0.0
  0
LINE
  5
984
100
AcDbEntity
  8
5
 62
     2
100
AcDbLine
 10
-529.410946
 20
669.649035
 30
0.0
 11
-307.185425
 21
669.649035
 31
0.0
  0
ENDBLK
  5
985
100
AcDbEntity
  8
5
100
AcDbBlockEnd
  0
BLOCK
  5
986
100
AcDbEntity
  8
5
100
AcDbBlockBegin
  2
*D6
 70
     1
 10
0.0
 20
0.0
 30
0.0
  3
*D6
  1

  0
TEXT
  5
987
100
AcDbEntity
  8
5
 62
     2
100
AcDbText
 10
-316.185425
 20
376.249036
 30
0.0
 40
19.8
  1
245.5
 50
90.0
 41
1.4
 72
     5
 11
-316.185425
 21
440.005035
 31
0.0
100
AcDbText
  0
LINE
  5
988
100
AcDbEntity
  8
5
 62
     2
100
AcDbLine
 10
-453.273357
 20
288.149035
 30
0.0
 11
-307.185425
 21
288.149035
 31
0.0
  0
LINE
  5
989
100
AcDbEntity
  8
5
 62
     2
100
AcDbLine
 10
-313.185425
 20
288.149035
 30
0.0
 11
-310.079596
 21
299.740145
 31
0.0
  0
LINE
  5
98A
100
AcDbEntity
  8
5
 62
     2
100
AcDbLine
 10
-313.185425
 20
288.149035
 30
0.0
 11
-316.291253
 21
299.740145
 31
0.0
  0
LINE
  5
98B
100
AcDbEntity
  8
5
 62
     2
100
AcDbLine
 10
-310.079596
 20
299.740145
 30
0.0
 11
-316.291253
 21
299.740145
 31
0.0
  0
LINE
  5
98C
100
AcDbEntity
  8
5
 62
     2
100
AcDbLine
 10
-313.185425
 20
288.149035
 30
0.0
 11
-313.185425
 21
533.649035
 31
0.0
  0
LINE
  5
98D
100
AcDbEntity
  8
5
 62
     2
100
AcDbLine
 10
-313.185425
 20
533.649035
 30
0.0
 11
-316.291253
 21
522.057925
 31
0.0
  0
LINE
  5
98E
100
AcDbEntity
  8
5
 62
     2
100
AcDbLine
 10
-313.185425
 20
533.649035
 30
0.0
 11
-310.079596
 21
522.057925
 31
0.0
  0
LINE
  5
98F
100
AcDbEntity
  8
5
 62
     2
100
AcDbLine
 10
-316.291253
 20
522.057925
 30
0.0
 11
-310.079596
 21
522.057925
 31
0.0
  0
LINE
  5
990
100
AcDbEntity
  8
5
 62
     2
100
AcDbLine
 10
-421.135254
 20
533.649035
 30
0.0
 11
-307.185425
 21
533.649035
 31
0.0
  0
ENDBLK
  5
991
100
AcDbEntity
  8
5
100
AcDbBlockEnd
  0
BLOCK
  5
992
100
AcDbEntity
  8
5
100
AcDbBlockBegin
  2
*D7
 70
     1
 10
0.0
 20
0.0
 30
0.0
  3
*D7
  1

  0
TEXT
  5
993
100
AcDbEntity
  8
5
 62
     2
100
AcDbText
 10
309.278824
 20
-391.440964
 30
0.0
 40
19.8
  1
235
 50
90.0
 41
1.4
 72
     5
 11
309.278824
 21
-355.404965
 31
0.0
100
AcDbText
  0
LINE
  5
994
100
AcDbEntity
  8
5
 62
     2
100
AcDbLine
 10
178.665948
 20
-488.150965
 30
0.0
 11
318.278824
 21
-488.150965
 31
0.0
  0
LINE
  5
995
100
AcDbEntity
  8
5
 62
     2
100
AcDbLine
 10
312.278824
 20
-488.150965
 30
0.0
 11
315.384652
 21
-476.559855
 31
0.0
  0
LINE
  5
996
100
AcDbEntity
  8
5
 62
     2
100
AcDbLine
 10
312.278824
 20
-488.150965
 30
0.0
 11
309.172995
 21
-476.559855
 31
0.0
  0
LINE
  5
997
100
AcDbEntity
  8
5
 62
     2
100
AcDbLine
 10
315.384652
 20
-476.559855
 30
0.0
 11
309.172995
 21
-476.559855
 31
0.0
  0
LINE
  5
998
100
AcDbEntity
  8
5
 62
     2
100
AcDbLine
 10
312.278824
 20
-488.150965
 30
0.0
 11
312.278824
 21
-253.150965
 31
0.0
  0
LINE
  5
999
100
AcDbEntity
  8
5
 62
     2
100
AcDbLine
 10
312.278824
 20
-253.150965
 30
0.0
 11
309.172995
 21
-264.742075
 31
0.0
  0
LINE
  5
99A
100
AcDbEntity
  8
5
 62
     2
100
AcDbLine
 10
312.278824
 20
-253.150965
 30
0.0
 11
315.384652
 21
-264.742075
 31
0.0
  0
LINE
  5
99B
100
AcDbEntity
  8
5
 62
     2
100
AcDbLine
 10
309.172995
 20
-264.742075
 30
0.0
 11
315.384652
 21
-264.742075
 31
0.0
  0
LINE
  5
99C
100
AcDbEntity
  8
5
 62
     2
100
AcDbLine
 10
177.271554
 20
-253.150965
 30
0.0
 11
318.278824
 21
-253.150965
 31
0.0
  0
ENDBLK
  5
99D
100
AcDbEntity
  8
5
100
AcDbBlockEnd
  0
BLOCK
  5
99E
100
AcDbEntity
  8
5
100
AcDbBlockBegin
  2
*D8
 70
     1
 10
0.0
 20
0.0
 30
0.0
  3
*D8
  1

  0
TEXT
  5
99F
100
AcDbEntity
  8
5
 62
     2
100
AcDbText
 10
309.278824
 20
-603.690964
 30
0.0
 40
19.8
  1
190
 50
90.0
 41
1.4
 72
     5
 11
309.278824
 21
-567.654965
 31
0.0
100
AcDbText
  0
LINE
  5
9A0
100
AcDbEntity
  8
5
 62
     2
100
AcDbLine
 10
146.771554
 20
-677.650965
 30
0.0
 11
318.278824
 21
-677.650965
 31
0.0
  0
LINE
  5
9A1
100
AcDbEntity
  8
5
 62
     2
100
AcDbLine
 10
312.278824
 20
-677.650965
 30
0.0
 11
315.384652
 21
-666.059855
 31
0.0
  0
LINE
  5
9A2
100
AcDbEntity
  8
5
 62
     2
100
AcDbLine
 10
312.278824
 20
-677.650965
 30
0.0
 11
309.172995
 21
-666.059855
 31
0.0
  0
LINE
  5
9A3
100
AcDbEntity
  8
5
 62
     2
100
AcDbLine
 10
315.384652
 20
-666.059855
 30
0.0
 11
309.172995
 21
-666.059855
 31
0.0
  0
LINE
  5
9A4
100
AcDbEntity
  8
5
 62
     2
100
AcDbLine
 10
312.278824
 20
-677.650965
 30
0.0
 11
312.278824
 21
-488.150965
 31
0.0
  0
LINE
  5
9A5
100
AcDbEntity
  8
5
 62
     2
100
AcDbLine
 10
312.278824
 20
-488.150965
 30
0.0
 11
309.172995
 21
-499.742075
 31
0.0
  0
LINE
  5
9A6
100
AcDbEntity
  8
5
 62
     2
100
AcDbLine
 10
312.278824
 20
-488.150965
 30
0.0
 11
315.384652
 21
-499.742075
 31
0.0
  0
LINE
  5
9A7
100
AcDbEntity
  8
5
 62
     2
100
AcDbLine
 10
309.172995
 20
-499.742075
 30
0.0
 11
315.384652
 21
-499.742075
 31
0.0
  0
LINE
  5
9A8
100
AcDbEntity
  8
5
 62
     2
100
AcDbLine
 10
178.665948
 20
-488.150965
 30
0.0
 11
318.278824
 21
-488.150965
 31
0.0
  0
ENDBLK
  5
9A9
100
AcDbEntity
  8
5
100
AcDbBlockEnd
  0
BLOCK
  5
9AA
100
AcDbEntity
  8
5
100
AcDbBlockBegin
  2
*D9
 70
     1
 10
0.0
 20
0.0
 30
0.0
  3
*D9
  1

  0
TEXT
  5
9AB
100
AcDbEntity
  8
5
 62
     2
100
AcDbText
 10
40.051554
 20
-723.983002
 30
0.0
 40
19.8
  1
26
 41
1.4
 72
     5
 11
62.227554
 21
-723.983002
 31
0.0
100
AcDbText
  0
LINE
  5
9AC
100
AcDbEntity
  8
5
 62
     2
100
AcDbLine
 10
82.771554
 20
-625.650965
 30
0.0
 11
82.771554
 21
-732.983002
 31
0.0
  0
LINE
  5
9AD
100
AcDbEntity
  8
5
 62
     2
100
AcDbLine
 10
82.771554
 20
-726.983002
 30
0.0
 11
71.180444
 21
-723.877173
 31
0.0
  0
LINE
  5
9AE
100
AcDbEntity
  8
5
 62
     2
100
AcDbLine
 10
82.771554
 20
-726.983002
 30
0.0
 11
71.180444
 21
-730.08883
 31
0.0
  0
LINE
  5
9AF
100
AcDbEntity
  8
5
 62
     2
100
AcDbLine
 10
71.180444
 20
-723.877173
 30
0.0
 11
71.180444
 21
-730.08883
 31
0.0
  0
LINE
  5
9B0
100
AcDbEntity
  8
5
 62
     2
100
AcDbLine
 10
37.051554
 20
-726.983002
 30
0.0
 11
138.771554
 21
-726.983002
 31
0.0
  0
LINE
  5
9B1
100
AcDbEntity
  8
5
 62
     2
100
AcDbLine
 10
108.771554
 20
-726.983002
 30
0.0
 11
120.362664
 21
-730.08883
 31
0.0
  0
LINE
  5
9B2
100
AcDbEntity
  8
5
 62
     2
100
AcDbLine
 10
108.771554
 20
-726.983002
 30
0.0
 11
120.362664
 21
-723.877173
 31
0.0
  0
LINE
  5
9B3
100
AcDbEntity
  8
5
 62
     2
100
AcDbLine
 10
120.362664
 20
-730.08883
 30
0.0
 11
120.362664
 21
-723.877173
 31
0.0
  0
LINE
  5
9B4
100
AcDbEntity
  8
5
 62
     2
100
AcDbLine
 10
108.771554
 20
-704.017847
 30
0.0
 11
108.771554
 21
-732.983002
 31
0.0
  0
ENDBLK
  5
9B5
100
AcDbEntity
  8
5
100
AcDbBlockEnd
  0
BLOCK
  5
9B6
100
AcDbEntity
  8
5
100
AcDbBlockBegin
  2
*D10
 70
     1
 10
0.0
 20
0.0
 30
0.0
  3
*D10
  1

  0
TEXT
  5
9B7
100
AcDbEntity
  8
5
 62
     2
100
AcDbText
 10
99.911554
 20
-772.684113
 30
0.0
 40
19.8
  1
62
 41
1.4
 72
     5
 11
122.087554
 21
-772.684113
 31
0.0
100
AcDbText
  0
LINE
  5
9B8
100
AcDbEntity
  8
5
 62
     2
100
AcDbLine
 10
82.771554
 20
-625.650965
 30
0.0
 11
82.771554
 21
-781.684113
 31
0.0
  0
LINE
  5
9B9
100
AcDbEntity
  8
5
 62
     2
100
AcDbLine
 10
82.771554
 20
-775.684113
 30
0.0
 11
94.362664
 21
-778.789941
 31
0.0
  0
LINE
  5
9BA
100
AcDbEntity
  8
5
 62
     2
100
AcDbLine
 10
82.771554
 20
-775.684113
 30
0.0
 11
94.362664
 21
-772.578284
 31
0.0
  0
LINE
  5
9BB
100
AcDbEntity
  8
5
 62
     2
100
AcDbLine
 10
94.362664
 20
-778.789941
 30
0.0
 11
94.362664
 21
-772.578284
 31
0.0
  0
LINE
  5
9BC
100
AcDbEntity
  8
5
 62
     2
100
AcDbLine
 10
82.771554
 20
-775.684113
 30
0.0
 11
144.771554
 21
-775.684113
 31
0.0
  0
LINE
  5
9BD
100
AcDbEntity
  8
5
 62
     2
100
AcDbLine
 10
144.771554
 20
-775.684113
 30
0.0
 11
133.180444
 21
-772.578284
 31
0.0
  0
LINE
  5
9BE
100
AcDbEntity
  8
5
 62
     2
100
AcDbLine
 10
144.771554
 20
-775.684113
 30
0.0
 11
133.180444
 21
-778.789941
 31
0.0
  0
LINE
  5
9BF
100
AcDbEntity
  8
5
 62
     2
100
AcDbLine
 10
133.180444
 20
-772.578284
 30
0.0
 11
133.180444
 21
-778.789941
 31
0.0
  0
LINE
  5
9C0
100
AcDbEntity
  8
5
 62
     2
100
AcDbLine
 10
144.771554
 20
-625.650965
 30
0.0
 11
144.771554
 21
-781.684113
 31
0.0
  0
ENDBLK
  5
9C1
100
AcDbEntity
  8
5
100
AcDbBlockEnd
  0
ENDSEC
  0
SECTION
  2
ENTITIES
  0
LINE
  5
32
100
AcDbEntity
  8
1
  6
CENTER
 62
     2
100
AcDbLine
 10
-770.711375
 20
-488.150965
 30
0.0
 11
-421.338923
 21
-488.150965
 31
0.0
  0
LINE
  5
33
100
AcDbEntity
  8
1
  6
CENTER
 62
     2
100
AcDbLine
 10
-594.928446
 20
-698.017847
 30
0.0
 11
-594.928446
 21
-261.097017
 31
0.0
  0
LINE
  5
34
100
AcDbEntity
  8
1
  6
CENTER
 62
     2
100
AcDbLine
 10
-594.928446
 20
463.375689
 30
0.0
 11
-594.928446
 21
604.772815
 31
0.0
  0
LINE
  5
35
100
AcDbEntity
  8
1
  6
CENTER
 62
     2
100
AcDbLine
 10
55.693448
 20
-488.150965
 30
0.0
 11
172.665948
 21
-488.150965
 31
0.0
  0
LINE
  5
36
100
AcDbEntity
  8
1
  6
CENTER
 62
     2
100
AcDbLine
 10
108.771554
 20
-698.017847
 30
0.0
 11
108.771554
 21
170.242957
 31
0.0
  0
LINE
  5
37
100
AcDbEntity
  8
1
100
AcDbLine
 10
-624.928446
 20
-662.150965
 30
0.0
 11
-564.928446
 21
-662.150965
 31
0.0
  0
LINE
  5
38
100
AcDbEntity
  8
1
100
AcDbLine
 10
-649.828446
 20
-268.150965
 30
0.0
 11
-534.828446
 21
-268.150965
 31
0.0
  0
LINE
  5
39
100
AcDbEntity
  8
1
100
AcDbLine
 10
-654.828446
 20
-263.150965
 30
0.0
 11
-654.828446
 21
-253.150965
 31
0.0
  0
LINE
  5
3A
100
AcDbEntity
  8
1
100
AcDbLine
 10
-529.828446
 20
-263.150965
 30
0.0
 11
-529.828446
 21
-253.150965
 31
0.0
  0
ARC
  5
3B
100
AcDbEntity
  8
1
100
AcDbCircle
 10
-649.828446
 20
-263.150965
 30
0.0
 40
5.0
100
AcDbArc
 50
180.0
 51
270.0
  0
ARC
  5
3C
100
AcDbEntity
  8
1
100
AcDbCircle
 10
-534.828446
 20
-263.150965
 30
0.0
 40
5.0
100
AcDbArc
 50
270.0
 51
360.0
  0
ARC
  5
3D
100
AcDbEntity
  8
1
100
AcDbCircle
 10
-557.428446
 20
-278.150965
 30
0.0
 40
10.0
100
AcDbArc
 50
90.0
 51
180.0
  0
ARC
  5
3E
100
AcDbEntity
  8
1
100
AcDbCircle
 10
-632.428446
 20
-278.150965
 30
0.0
 40
10.0
100
AcDbArc
 50
0.0
 51
90.0
  0
ARC
  5
3F
100
AcDbEntity
  8
1
100
AcDbCircle
 10
-534.425744
 20
-303.148938
 30
0.0
 40
35.0
100
AcDbArc
 50
90.576839
 51
126.873417
  0
ARC
  5
40
100
AcDbEntity
  8
1
100
AcDbCircle
 10
-567.428446
 20
-259.150965
 30
0.0
 40
20.0
100
AcDbArc
 50
281.536959
 51
306.873417
  0
ARC
  5
41
100
AcDbEntity
  8
1
100
AcDbCircle
 10
-656.072289
 20
-302.66064
 30
0.0
 40
35.0
100
AcDbArc
 50
52.287022
 51
81.019629
  0
ARC
  5
42
100
AcDbEntity
  8
1
100
AcDbCircle
 10
-622.428446
 20
-259.150965
 30
0.0
 40
20.0
100
AcDbArc
 50
232.287022
 51
258.463041
  0
ARC
  5
43
100
AcDbEntity
  8
1
100
AcDbCircle
 10
-562.428446
 20
-283.645862
 30
0.0
 40
5.0
100
AcDbArc
 50
101.536959
 51
180.0
  0
ARC
  5
44
100
AcDbEntity
  8
1
100
AcDbCircle
 10
-627.428446
 20
-283.645862
 30
0.0
 40
5.0
100
AcDbArc
 50
0.0
 51
78.463041
  0
LINE
  5
45
100
AcDbEntity
  8
1
100
AcDbLine
 10
-624.928446
 20
-670.150965
 30
0.0
 11
-624.928446
 21
-648.53379
 31
0.0
  0
LINE
  5
46
100
AcDbEntity
  8
1
100
AcDbLine
 10
-564.928446
 20
-670.150965
 30
0.0
 11
-564.928446
 21
-648.53379
 31
0.0
  0
LINE
  5
47
100
AcDbEntity
  8
1
100
AcDbLine
 10
-567.428446
 20
-622.720553
 30
0.0
 11
-567.428446
 21
-620.725472
 31
0.0
  0
LINE
  5
48
100
AcDbEntity
  8
1
100
AcDbLine
 10
-622.428446
 20
-622.720553
 30
0.0
 11
-622.428446
 21
-620.725472
 31
0.0
  0
ARC
  5
49
100
AcDbEntity
  8
1
100
AcDbCircle
 10
-594.928446
 20
-488.150965
 30
0.0
 40
131.5
100
AcDbArc
 50
28.095286
 51
61.904714
  0
ARC
  5
4A
100
AcDbEntity
  8
1
100
AcDbCircle
 10
-594.928446
 20
-488.150965
 30
0.0
 40
131.5
100
AcDbArc
 50
343.095286
 51
16.904714
  0
ARC
  5
4B
100
AcDbEntity
  8
1
100
AcDbCircle
 10
-594.928446
 20
-488.150965
 30
0.0
 40
131.5
100
AcDbArc
 50
298.095286
 51
331.904714
  0
ARC
  5
4C
100
AcDbEntity
  8
1
100
AcDbCircle
 10
-594.928446
 20
-488.150965
 30
0.0
 40
131.5
100
AcDbArc
 50
253.095286
 51
286.904714
  0
ARC
  5
4D
100
AcDbEntity
  8
1
100
AcDbCircle
 10
-594.928446
 20
-488.150965
 30
0.0
 40
131.5
100
AcDbArc
 50
208.095286
 51
241.904714
  0
ARC
  5
4E
100
AcDbEntity
  8
1
100
AcDbCircle
 10
-594.928446
 20
-488.150965
 30
0.0
 40
131.5
100
AcDbArc
 50
163.095286
 51
196.904714
  0
ARC
  5
4F
100
AcDbEntity
  8
1
100
AcDbCircle
 10
-594.928446
 20
-488.150965
 30
0.0
 40
131.5
100
AcDbArc
 50
73.095286
 51
106.904714
  0
ARC
  5
50
100
AcDbEntity
  8
1
100
AcDbCircle
 10
-594.928446
 20
-488.150965
 30
0.0
 40
131.5
100
AcDbArc
 50
118.095286
 51
151.904714
  0
ARC
  5
51
100
AcDbEntity
  8
1
100
AcDbCircle
 10
-648.504127
 20
-358.80783
 30
0.0
 40
11.0
100
AcDbArc
 50
271.97053
 51
313.02947
  0
ARC
  5
52
100
AcDbEntity
  8
1
100
AcDbCircle
 10
-541.352766
 20
-358.80783
 30
0.0
 40
11.0
100
AcDbArc
 50
226.97053
 51
268.02947
  0
ARC
  5
53
100
AcDbEntity
  8
1
100
AcDbCircle
 10
-465.585312
 20
-434.575284
 30
0.0
 40
11.0
100
AcDbArc
 50
112.5
 51
223.02947
  0
ARC
  5
54
100
AcDbEntity
  8
1
100
AcDbCircle
 10
-465.585312
 20
-541.726645
 30
0.0
 40
11.0
100
AcDbArc
 50
136.97053
 51
247.5
  0
ARC
  5
55
100
AcDbEntity
  8
1
100
AcDbCircle
 10
-541.352766
 20
-617.494099
 30
0.0
 40
11.0
100
AcDbArc
 50
91.97053
 51
133.02947
  0
ARC
  5
56
100
AcDbEntity
  8
1
100
AcDbCircle
 10
-648.504127
 20
-617.494099
 30
0.0
 40
11.0
100
AcDbArc
 50
46.97053
 51
88.02947
  0
ARC
  5
57
100
AcDbEntity
  8
1
100
AcDbCircle
 10
-724.271581
 20
-541.726645
 30
0.0
 40
11.0
100
AcDbArc
 50
292.5
 51
43.02947
  0
ARC
  5
58
100
AcDbEntity
  8
1
100
AcDbCircle
 10
-724.271581
 20
-434.575284
 30
0.0
 40
11.0
100
AcDbArc
 50
316.97053
 51
67.5
  0
ARC
  5
59
100
AcDbEntity
  8
1
100
AcDbCircle
 10
-562.506374
 20
-381.468918
 30
0.0
 40
20.0
100
AcDbArc
 50
46.97053
 51
73.095286
  0
ARC
  5
5A
100
AcDbEntity
  8
1
100
AcDbCircle
 10
-542.418715
 20
-389.789498
 30
0.0
 40
20.0
100
AcDbArc
 50
61.904714
 51
88.02947
  0
ARC
  5
5B
100
AcDbEntity
  8
1
100
AcDbCircle
 10
-627.350519
 20
-381.468918
 30
0.0
 40
20.0
100
AcDbArc
 50
106.904714
 51
133.02947
  0
ARC
  5
5C
100
AcDbEntity
  8
1
100
AcDbCircle
 10
-647.438178
 20
-389.789498
 30
0.0
 40
20.0
100
AcDbArc
 50
91.97053
 51
118.095286
  0
ARC
  5
5D
100
AcDbEntity
  8
1
100
AcDbCircle
 10
-542.418715
 20
-586.512431
 30
0.0
 40
20.0
100
AcDbArc
 50
271.97053
 51
298.095286
  0
ARC
  5
5E
100
AcDbEntity
  8
1
100
AcDbCircle
 10
-562.506374
 20
-594.833012
 30
0.0
 40
20.0
100
AcDbArc
 50
286.904714
 51
313.02947
  0
ARC
  5
5F
100
AcDbEntity
  8
1
100
AcDbCircle
 10
-627.350519
 20
-594.833012
 30
0.0
 40
20.0
100
AcDbArc
 50
226.97053
 51
253.095286
  0
ARC
  5
60
100
AcDbEntity
  8
1
100
AcDbCircle
 10
-647.438178
 20
-586.512431
 30
0.0
 40
20.0
100
AcDbArc
 50
241.904714
 51
268.02947
  0
ARC
  5
61
100
AcDbEntity
  8
1
100
AcDbCircle
 10
-701.610494
 20
-520.573038
 30
0.0
 40
20.0
100
AcDbArc
 50
196.904714
 51
223.02947
  0
ARC
  5
62
100
AcDbEntity
  8
1
100
AcDbCircle
 10
-701.610494
 20
-455.728892
 30
0.0
 40
20.0
100
AcDbArc
 50
136.97053
 51
163.095286
  0
ARC
  5
63
100
AcDbEntity
  8
1
100
AcDbCircle
 10
-488.246399
 20
-455.728892
 30
0.0
 40
20.0
100
AcDbArc
 50
16.904714
 51
43.02947
  0
ARC
  5
64
100
AcDbEntity
  8
1
100
AcDbCircle
 10
-488.246399
 20
-520.573038
 30
0.0
 40
20.0
100
AcDbArc
 50
316.97053
 51
343.095286
  0
ARC
  5
65
100
AcDbEntity
  8
1
100
AcDbCircle
 10
-496.56698
 20
-540.660696
 30
0.0
 40
20.0
100
AcDbArc
 50
331.904714
 51
358.02947
  0
ARC
  5
66
100
AcDbEntity
  8
1
100
AcDbCircle
 10
-496.56698
 20
-435.641233
 30
0.0
 40
20.0
100
AcDbArc
 50
1.97053
 51
28.095286
  0
ARC
  5
67
100
AcDbEntity
  8
1
100
AcDbCircle
 10
-693.289913
 20
-435.641233
 30
0.0
 40
20.0
100
AcDbArc
 50
151.904714
 51
178.02947
  0
ARC
  5
68
100
AcDbEntity
  8
1
100
AcDbCircle
 10
-693.289913
 20
-540.660696
 30
0.0
 40
20.0
100
AcDbArc
 50
181.97053
 51
208.095286
  0
LINE
  5
69
100
AcDbEntity
  8
1
100
AcDbLine
 10
-469.79483
 20
-424.412609
 30
0.0
 11
-463.280396
 21
-421.714243
 31
0.0
  0
LINE
  5
6A
100
AcDbEntity
  8
1
100
AcDbLine
 10
-720.062063
 20
-551.88932
 30
0.0
 11
-726.576497
 21
-554.587687
 31
0.0
  0
LINE
  5
6B
100
AcDbEntity
  8
1
100
AcDbLine
 10
-469.79483
 20
-551.88932
 30
0.0
 11
-463.280396
 21
-554.587687
 31
0.0
  0
LINE
  5
6C
100
AcDbEntity
  8
1
100
AcDbLine
 10
-720.062063
 20
-424.412609
 30
0.0
 11
-726.576497
 21
-421.714243
 31
0.0
  0
LINE
  5
6D
100
AcDbEntity
  8
1
100
AcDbLine
 10
-725.428446
 20
-410.650965
 30
0.0
 11
-706.615509
 21
-410.650965
 31
0.0
  0
LINE
  5
6E
100
AcDbEntity
  8
1
100
AcDbLine
 10
-483.241384
 20
-410.650965
 30
0.0
 11
-464.428446
 21
-410.650965
 31
0.0
  0
LINE
  5
6F
100
AcDbEntity
  8
1
100
AcDbLine
 10
-725.428446
 20
-565.650965
 30
0.0
 11
-706.615509
 21
-565.650965
 31
0.0
  0
LINE
  5
70
100
AcDbEntity
  8
1
100
AcDbLine
 10
-483.241384
 20
-565.650965
 30
0.0
 11
-464.428446
 21
-565.650965
 31
0.0
  0
LINE
  5
71
100
AcDbEntity
  8
1
100
AcDbLine
 10
-461.428446
 20
-562.650965
 30
0.0
 11
-461.428446
 21
-557.359325
 31
0.0
  0
LINE
  5
72
100
AcDbEntity
  8
1
100
AcDbLine
 10
-461.428446
 20
-418.942604
 30
0.0
 11
-461.428446
 21
-413.650965
 31
0.0
  0
LINE
  5
73
100
AcDbEntity
  8
1
100
AcDbLine
 10
-728.428446
 20
-562.650965
 30
0.0
 11
-728.428446
 21
-557.359325
 31
0.0
  0
LINE
  5
74
100
AcDbEntity
  8
1
100
AcDbLine
 10
-728.428446
 20
-418.942604
 30
0.0
 11
-728.428446
 21
-413.650965
 31
0.0
  0
ARC
  5
75
100
AcDbEntity
  8
1
100
AcDbCircle
 10
-464.428446
 20
-413.650965
 30
0.0
 40
3.0
100
AcDbArc
 50
0.0
 51
90.0
  0
ARC
  5
76
100
AcDbEntity
  8
1
100
AcDbCircle
 10
-464.428446
 20
-418.942604
 30
0.0
 40
3.0
100
AcDbArc
 50
292.5
 51
0.0
  0
ARC
  5
77
100
AcDbEntity
  8
1
100
AcDbCircle
 10
-464.428446
 20
-557.359325
 30
0.0
 40
3.0
100
AcDbArc
 50
360.0
 51
67.5
  0
ARC
  5
78
100
AcDbEntity
  8
1
100
AcDbCircle
 10
-464.428446
 20
-562.650965
 30
0.0
 40
3.0
100
AcDbArc
 50
270.0
 51
360.0
  0
ARC
  5
79
100
AcDbEntity
  8
1
100
AcDbCircle
 10
-725.428446
 20
-562.650965
 30
0.0
 40
3.0
100
AcDbArc
 50
180.0
 51
270.0
  0
ARC
  5
7A
100
AcDbEntity
  8
1
100
AcDbCircle
 10
-725.428446
 20
-557.359325
 30
0.0
 40
3.0
100
AcDbArc
 50
112.5
 51
180.0
  0
ARC
  5
7B
100
AcDbEntity
  8
1
100
AcDbCircle
 10
-725.428446
 20
-418.942604
 30
0.0
 40
3.0
100
AcDbArc
 50
180.0
 51
247.5
  0
ARC
  5
7C
100
AcDbEntity
  8
1
100
AcDbCircle
 10
-725.428446
 20
-413.650965
 30
0.0
 40
3.0
100
AcDbArc
 50
90.0
 51
180.0
  0
ARC
  5
7D
100
AcDbEntity
  8
1
100
AcDbCircle
 10
-483.241384
 20
-399.650965
 30
0.0
 40
11.0
100
AcDbArc
 50
218.393044
 51
270.0
  0
ARC
  5
7E
100
AcDbEntity
  8
1
100
AcDbCircle
 10
-706.615509
 20
-399.650965
 30
0.0
 40
11.0
100
AcDbArc
 50
270.0
 51
321.606956
  0
ARC
  5
7F
100
AcDbEntity
  8
1
100
AcDbCircle
 10
-706.615509
 20
-576.650965
 30
0.0
 40
11.0
100
AcDbArc
 50
38.393044
 51
90.0
  0
ARC
  5
80
100
AcDbEntity
  8
1
100
AcDbCircle
 10
-483.241384
 20
-576.650965
 30
0.0
 40
11.0
100
AcDbArc
 50
90.0
 51
141.606956
  0
ARC
  5
81
100
AcDbEntity
  8
1
100
AcDbCircle
 10
-555.928446
 20
-310.64803
 30
0.0
 40
6.0
100
AcDbArc
 50
281.553214
 51
95.379379
  0
ARC
  5
82
100
AcDbEntity
  8
1
100
AcDbCircle
 10
-557.428446
 20
-294.718497
 30
0.0
 40
10.0
100
AcDbArc
 50
180.0
 51
275.379379
  0
ARC
  5
83
100
AcDbEntity
  8
1
100
AcDbCircle
 10
-633.928446
 20
-310.64803
 30
0.0
 40
6.0
100
AcDbArc
 50
84.620621
 51
258.446786
  0
ARC
  5
84
100
AcDbEntity
  8
1
100
AcDbCircle
 10
-632.428446
 20
-294.718497
 30
0.0
 40
10.0
100
AcDbArc
 50
264.620621
 51
360.0
  0
ARC
  5
85
100
AcDbEntity
  8
1
100
AcDbCircle
 10
-552.223304
 20
-328.773203
 30
0.0
 40
12.5
100
AcDbArc
 50
101.553214
 51
182.217511
  0
ARC
  5
86
100
AcDbEntity
  8
1
100
AcDbCircle
 10
-557.399685
 20
-348.09172
 30
0.0
 40
11.0
100
AcDbArc
 50
162.537314
 51
254.73556
  0
ARC
  5
87
100
AcDbEntity
  8
1
100
AcDbCircle
 10
-554.811494
 20
-338.432462
 30
0.0
 40
13.5
100
AcDbArc
 50
137.181861
 51
195.223765
  0
LINE
  5
88
100
AcDbEntity
  8
1
100
AcDbLine
 10
-567.428446
 20
-355.576457
 30
0.0
 11
-567.428446
 21
-353.581376
 31
0.0
  0
LINE
  5
89
100
AcDbEntity
  8
1
100
AcDbLine
 10
-567.428446
 20
-332.785073
 30
0.0
 11
-567.428446
 21
-278.150965
 31
0.0
  0
ARC
  5
8A
100
AcDbEntity
  8
1
100
AcDbCircle
 10
-562.428446
 20
-355.576457
 30
0.0
 40
5.0
100
AcDbArc
 50
180.0
 51
256.225853
  0
ARC
  5
8B
100
AcDbEntity
  8
1
100
AcDbCircle
 10
-572.428446
 20
-353.581376
 30
0.0
 40
5.0
100
AcDbArc
 50
0.0
 51
20.066071
  0
ARC
  5
8C
100
AcDbEntity
  8
1
100
AcDbCircle
 10
-572.428446
 20
-332.785073
 30
0.0
 40
5.0
100
AcDbArc
 50
342.225936
 51
360.0
  0
ARC
  5
8D
100
AcDbEntity
  8
1
100
AcDbCircle
 10
-637.633589
 20
-328.773203
 30
0.0
 40
12.5
100
AcDbArc
 50
357.782489
 51
78.446786
  0
ARC
  5
8E
100
AcDbEntity
  8
1
100
AcDbCircle
 10
-635.045398
 20
-338.432462
 30
0.0
 40
13.5
100
AcDbArc
 50
344.776235
 51
42.818139
  0
ARC
  5
8F
100
AcDbEntity
  8
1
100
AcDbCircle
 10
-632.457208
 20
-348.09172
 30
0.0
 40
11.0
100
AcDbArc
 50
285.26444
 51
17.462686
  0
LINE
  5
90
100
AcDbEntity
  8
1
100
AcDbLine
 10
-622.428446
 20
-355.576457
 30
0.0
 11
-622.428446
 21
-353.581376
 31
0.0
  0
LINE
  5
91
100
AcDbEntity
  8
1
100
AcDbLine
 10
-622.428446
 20
-332.785073
 30
0.0
 11
-622.428446
 21
-278.150965
 31
0.0
  0
ARC
  5
92
100
AcDbEntity
  8
1
100
AcDbCircle
 10
-627.428446
 20
-355.576457
 30
0.0
 40
5.0
100
AcDbArc
 50
283.774147
 51
360.0
  0
ARC
  5
93
100
AcDbEntity
  8
1
100
AcDbCircle
 10
-617.428446
 20
-353.581376
 30
0.0
 40
5.0
100
AcDbArc
 50
159.933929
 51
180.0
  0
ARC
  5
94
100
AcDbEntity
  8
1
100
AcDbCircle
 10
-617.428446
 20
-332.785073
 30
0.0
 40
5.0
100
AcDbArc
 50
180.0
 51
197.774064
  0
ARC
  5
95
100
AcDbEntity
  8
1
100
AcDbCircle
 10
-572.662286
 20
-343.290366
 30
0.0
 40
5.0
100
AcDbArc
 50
342.537314
 51
15.223765
  0
ARC
  5
96
100
AcDbEntity
  8
1
100
AcDbCircle
 10
-617.194607
 20
-343.290366
 30
0.0
 40
5.0
100
AcDbArc
 50
164.776235
 51
197.462686
  0
ARC
  5
97
100
AcDbEntity
  8
1
100
AcDbCircle
 10
-554.811494
 20
-637.869468
 30
0.0
 40
13.5
100
AcDbArc
 50
164.776235
 51
215.201228
  0
ARC
  5
98
100
AcDbEntity
  8
1
100
AcDbCircle
 10
-557.399685
 20
-628.21021
 30
0.0
 40
11.0
100
AcDbArc
 50
105.26444
 51
197.462686
  0
ARC
  5
99
100
AcDbEntity
  8
1
100
AcDbCircle
 10
-635.045398
 20
-637.869468
 30
0.0
 40
13.5
100
AcDbArc
 50
324.798772
 51
15.223765
  0
ARC
  5
9A
100
AcDbEntity
  8
1
100
AcDbCircle
 10
-632.457208
 20
-628.21021
 30
0.0
 40
11.0
100
AcDbArc
 50
342.537314
 51
74.73556
  0
ARC
  5
9B
100
AcDbEntity
  8
1
100
AcDbCircle
 10
-562.428446
 20
-620.725472
 30
0.0
 40
5.0
100
AcDbArc
 50
103.774147
 51
180.0
  0
ARC
  5
9C
100
AcDbEntity
  8
1
100
AcDbCircle
 10
-627.428446
 20
-620.725472
 30
0.0
 40
5.0
100
AcDbArc
 50
0.0
 51
76.225853
  0
ARC
  5
9D
100
AcDbEntity
  8
1
100
AcDbCircle
 10
-617.428446
 20
-622.720553
 30
0.0
 40
5.0
100
AcDbArc
 50
180.0
 51
200.066071
  0
ARC
  5
9E
100
AcDbEntity
  8
1
100
AcDbCircle
 10
-572.428446
 20
-622.720553
 30
0.0
 40
5.0
100
AcDbArc
 50
339.933929
 51
360.0
  0
ARC
  5
9F
100
AcDbEntity
  8
1
100
AcDbCircle
 10
-572.662286
 20
-633.011564
 30
0.0
 40
5.0
100
AcDbArc
 50
344.776235
 51
17.462686
  0
ARC
  5
A0
100
AcDbEntity
  8
1
100
AcDbCircle
 10
-617.194607
 20
-633.011564
 30
0.0
 40
5.0
100
AcDbArc
 50
162.537314
 51
195.223765
  0
ARC
  5
A1
100
AcDbEntity
  8
1
100
AcDbCircle
 10
-569.928446
 20
-648.53379
 30
0.0
 40
5.0
100
AcDbArc
 50
0.0
 51
35.201228
  0
ARC
  5
A2
100
AcDbEntity
  8
1
100
AcDbCircle
 10
-619.928446
 20
-648.53379
 30
0.0
 40
5.0
100
AcDbArc
 50
144.798772
 51
180.0
  0
ARC
  5
A3
100
AcDbEntity
  8
1
100
AcDbCircle
 10
-562.928446
 20
-368.350861
 30
0.0
 40
10.0
100
AcDbArc
 50
30.962069
 51
74.73556
  0
ARC
  5
A4
100
AcDbEntity
  8
1
100
AcDbCircle
 10
-626.928446
 20
-368.350861
 30
0.0
 40
10.0
100
AcDbArc
 50
105.26444
 51
149.037931
  0
ARC
  5
A5
100
AcDbEntity
  8
1
100
AcDbCircle
 10
-562.928446
 20
-607.951069
 30
0.0
 40
10.0
100
AcDbArc
 50
285.26444
 51
329.037931
  0
ARC
  5
A6
100
AcDbEntity
  8
1
100
AcDbCircle
 10
-626.928446
 20
-607.951069
 30
0.0
 40
10.0
100
AcDbArc
 50
210.962069
 51
254.73556
  0
CIRCLE
  5
A7
100
AcDbEntity
  8
1
100
AcDbCircle
 10
-594.928446
 20
-488.150965
 30
0.0
 40
106.5
  0
LINE
  5
A8
100
AcDbEntity
  8
1
100
AcDbLine
 10
144.771554
 20
-356.650965
 30
0.0
 11
144.771554
 21
-619.650965
 31
0.0
  0
LINE
  5
A9
100
AcDbEntity
  8
1
100
AcDbLine
 10
82.771554
 20
-356.650965
 30
0.0
 11
82.771554
 21
-619.650965
 31
0.0
  0
LINE
  5
AA
100
AcDbEntity
  8
1
100
AcDbLine
 10
141.771554
 20
-356.650965
 30
0.0
 11
144.771554
 21
-356.650965
 31
0.0
  0
LINE
  5
AB
100
AcDbEntity
  8
1
100
AcDbLine
 10
141.771554
 20
-619.650965
 30
0.0
 11
144.771554
 21
-619.650965
 31
0.0
  0
LINE
  5
AC
100
AcDbEntity
  8
1
  6
DASHED
100
AcDbLine
 10
-622.428446
 20
596.149035
 30
0.0
 11
-562.228446
 21
596.149035
 31
0.0
  0
LINE
  5
AD
100
AcDbEntity
  8
1
  6
DASHED
100
AcDbLine
 10
-622.428446
 20
471.149035
 30
0.0
 11
-562.228446
 21
471.149035
 31
0.0
  0
LINE
  5
AE
100
AcDbEntity
  8
1
  6
DASHED
100
AcDbLine
 10
-654.828446
 20
503.549035
 30
0.0
 11
-654.828446
 21
563.749035
 31
0.0
  0
LINE
  5
AF
100
AcDbEntity
  8
1
  6
DASHED
100
AcDbLine
 10
-529.828446
 20
503.549035
 30
0.0
 11
-529.828446
 21
563.749035
 31
0.0
  0
ARC
  5
B0
100
AcDbEntity
  8
1
  6
DASHED
100
AcDbCircle
 10
-622.428446
 20
563.749035
 30
0.0
 40
32.4
100
AcDbArc
 50
90.0
 51
180.0
  0
ARC
  5
B1
100
AcDbEntity
  8
1
  6
DASHED
100
AcDbCircle
 10
-562.228446
 20
563.749035
 30
0.0
 40
32.4
100
AcDbArc
 50
360.0
 51
90.0
  0
ARC
  5
B2
100
AcDbEntity
  8
1
  6
DASHED
100
AcDbCircle
 10
-562.228446
 20
503.549035
 30
0.0
 40
32.4
100
AcDbArc
 50
270.0
 51
360.0
  0
ARC
  5
B3
100
AcDbEntity
  8
1
  6
DASHED
100
AcDbCircle
 10
-622.428446
 20
503.549035
 30
0.0
 40
32.4
100
AcDbArc
 50
180.0
 51
270.0
  0
LINE
  5
B4
100
AcDbEntity
  8
1
  6
CENTER
 62
     2
100
AcDbLine
 10
-548.133446
 20
564.574728
 30
0.0
 11
-548.133446
 21
591.533438
 31
0.0
  0
LINE
  5
B5
100
AcDbEntity
  8
1
  6
CENTER
 62
     2
100
AcDbLine
 10
-561.421664
 20
577.844035
 30
0.0
 11
-534.838976
 21
577.844035
 31
0.0
  0
CIRCLE
  5
B6
100
AcDbEntity
  8
1
  6
DASHED
100
AcDbCircle
 10
-548.133446
 20
577.844035
 30
0.0
 40
6.5
  0
LINE
  5
B7
100
AcDbEntity
  8
1
  6
CENTER
 62
     2
100
AcDbLine
 10
-636.523446
 20
564.574728
 30
0.0
 11
-636.523446
 21
591.533438
 31
0.0
  0
LINE
  5
B8
100
AcDbEntity
  8
1
  6
CENTER
 62
     2
100
AcDbLine
 10
-623.235229
 20
577.844035
 30
0.0
 11
-649.817916
 21
577.844035
 31
0.0
  0
CIRCLE
  5
B9
100
AcDbEntity
  8
1
  6
DASHED
100
AcDbCircle
 10
-636.523446
 20
577.844035
 30
0.0
 40
6.5
  0
LINE
  5
BA
100
AcDbEntity
  8
1
  6
CENTER
 62
     2
100
AcDbLine
 10
-548.133446
 20
502.723343
 30
0.0
 11
-548.133446
 21
475.764633
 31
0.0
  0
LINE
  5
BB
100
AcDbEntity
  8
1
  6
CENTER
 62
     2
100
AcDbLine
 10
-561.421664
 20
489.454035
 30
0.0
 11
-534.838976
 21
489.454035
 31
0.0
  0
CIRCLE
  5
BC
100
AcDbEntity
  8
1
  6
DASHED
100
AcDbCircle
 10
-548.133446
 20
489.454035
 30
0.0
 40
6.5
  0
LINE
  5
BD
100
AcDbEntity
  8
1
  6
CENTER
 62
     2
100
AcDbLine
 10
-636.523446
 20
502.723343
 30
0.0
 11
-636.523446
 21
475.764633
 31
0.0
  0
LINE
  5
BE
100
AcDbEntity
  8
1
  6
CENTER
 62
     2
100
AcDbLine
 10
-623.235229
 20
489.454035
 30
0.0
 11
-649.817916
 21
489.454035
 31
0.0
  0
CIRCLE
  5
BF
100
AcDbEntity
  8
1
  6
DASHED
100
AcDbCircle
 10
-636.523446
 20
489.454035
 30
0.0
 40
6.5
  0
LINE
  5
C0
100
AcDbEntity
  8
1
  6
DASHED
100
AcDbLine
 10
-726.428446
 20
569.649035
 30
0.0
 11
-654.286726
 21
569.649035
 31
0.0
  0
LINE
  5
C1
100
AcDbEntity
  8
1
  6
DASHED
100
AcDbLine
 10
-726.428446
 20
507.649035
 30
0.0
 11
-654.828446
 21
507.649035
 31
0.0
  0
LINE
  5
C2
100
AcDbEntity
  8
1
  6
DASHED
100
AcDbLine
 10
-654.828446
 20
542.371467
 30
0.0
 11
-709.121101
 21
542.371467
 31
0.0
  0
LINE
  5
C3
100
AcDbEntity
  8
1
  6
DASHED
100
AcDbLine
 10
-654.828446
 20
527.926604
 30
0.0
 11
-709.121101
 21
527.926604
 31
0.0
  0
LINE
  5
C4
100
AcDbEntity
  8
1
  6
DASHED
100
AcDbLine
 10
-726.047667
 20
522.649035
 30
0.0
 11
-726.047667
 21
547.649035
 31
0.0
  0
LINE
  5
C5
100
AcDbEntity
  8
1
  6
DASHED
100
AcDbLine
 10
-709.121101
 20
533.812107
 30
0.0
 11
-709.121101
 21
536.485963
 31
0.0
  0
LINE
  5
C6
100
AcDbEntity
  8
1
  6
DASHED
100
AcDbLine
 10
-722.535963
 20
546.554114
 30
0.0
 11
-714.739828
 21
544.123341
 31
0.0
  0
LINE
  5
C7
100
AcDbEntity
  8
1
  6
DASHED
100
AcDbLine
 10
-714.739828
 20
526.174729
 30
0.0
 11
-722.535963
 21
523.743957
 31
0.0
  0
ARC
  5
C8
100
AcDbEntity
  8
1
  6
DASHED
100
AcDbCircle
 10
-717.121101
 20
536.485963
 30
0.0
 40
8.0
100
AcDbArc
 50
360.0
 51
72.682937
  0
ARC
  5
C9
100
AcDbEntity
  8
1
  6
DASHED
100
AcDbCircle
 10
-717.121101
 20
533.812107
 30
0.0
 40
8.0
100
AcDbArc
 50
287.317063
 51
360.0
  0
ARC
  5
CA
100
AcDbEntity
  8
1
  6
DASHED
100
AcDbCircle
 10
-721.047667
 20
551.327475
 30
0.0
 40
5.0
100
AcDbArc
 50
180.0
 51
252.682937
  0
ARC
  5
CB
100
AcDbEntity
  8
1
  6
DASHED
100
AcDbCircle
 10
-721.047667
 20
518.970596
 30
0.0
 40
5.0
100
AcDbArc
 50
107.317063
 51
180.0
  0
ARC
  5
CC
100
AcDbEntity
  8
1
  6
DASHED
100
AcDbCircle
 10
-714.108906
 20
510.77093
 30
0.0
 40
12.788031
100
AcDbArc
 50
90.0
 51
111.744437
  0
ARC
  5
CD
100
AcDbEntity
  8
1
  6
DASHED
100
AcDbCircle
 10
-714.108906
 20
521.852567
 30
0.0
 40
1.706394
100
AcDbArc
 50
27.823882
 51
90.0
  0
LINE
  5
CE
100
AcDbEntity
  8
1
  6
DASHED
100
AcDbLine
 10
-722.535963
 20
522.649035
 30
0.0
 11
-718.846453
 21
522.649035
 31
0.0
  0
LINE
  5
CF
100
AcDbEntity
  8
1
  6
DASHED
100
AcDbLine
 10
-712.599794
 20
522.649035
 30
0.0
 11
-654.828446
 21
522.649035
 31
0.0
  0
ARC
  5
D0
100
AcDbEntity
  8
1
  6
DASHED
100
AcDbCircle
 10
-714.108906
 20
548.445504
 30
0.0
 40
1.706394
100
AcDbArc
 50
270.0
 51
332.176118
  0
ARC
  5
D1
100
AcDbEntity
  8
1
  6
DASHED
100
AcDbCircle
 10
-714.108906
 20
559.52714
 30
0.0
 40
12.788031
100
AcDbArc
 50
248.255563
 51
270.0
  0
LINE
  5
D2
100
AcDbEntity
  8
1
  6
DASHED
100
AcDbLine
 10
-722.535963
 20
547.649035
 30
0.0
 11
-718.846453
 21
547.649035
 31
0.0
  0
LINE
  5
D3
100
AcDbEntity
  8
1
  6
DASHED
100
AcDbLine
 10
-701.164034
 20
547.649035
 30
0.0
 11
-654.828446
 21
547.649035
 31
0.0
  0
LINE
  5
D4
100
AcDbEntity
  8
1
  6
DASHED
100
AcDbLine
 10
-718.846453
 20
507.649035
 30
0.0
 11
-718.846453
 21
522.649035
 31
0.0
  0
LINE
  5
D5
100
AcDbEntity
  8
1
  6
DASHED
100
AcDbLine
 10
-712.599794
 20
507.649035
 30
0.0
 11
-712.599794
 21
522.649035
 31
0.0
  0
LINE
  5
D6
100
AcDbEntity
  8
1
  6
DASHED
100
AcDbLine
 10
-712.599794
 20
561.649035
 30
0.0
 11
-712.599794
 21
569.649035
 31
0.0
  0
LINE
  5
D7
100
AcDbEntity
  8
1
  6
DASHED
100
AcDbLine
 10
-718.846453
 20
547.649035
 30
0.0
 11
-718.846453
 21
550.650815
 31
0.0
  0
LINE
  5
D8
100
AcDbEntity
  8
1
  6
DASHED
100
AcDbLine
 10
-718.846453
 20
561.649035
 30
0.0
 11
-718.846453
 21
569.649035
 31
0.0
  0
LINE
  5
D9
100
AcDbEntity
  8
1
  6
DASHED
100
AcDbLine
 10
-726.428446
 20
507.649035
 30
0.0
 11
-726.428446
 21
553.448373
 31
0.0
  0
LINE
  5
DA
100
AcDbEntity
  8
1
  6
DASHED
100
AcDbLine
 10
-726.428446
 20
561.649035
 30
0.0
 11
-726.428446
 21
569.649035
 31
0.0
  0
LINE
  5
DB
100
AcDbEntity
  8
1
  6
DASHED
100
AcDbLine
 10
-728.428446
 20
555.580172
 30
0.0
 11
-728.428446
 21
559.649035
 31
0.0
  0
LINE
  5
DC
100
AcDbEntity
  8
1
  6
DASHED
100
AcDbLine
 10
-726.428446
 20
561.649035
 30
0.0
 11
-704.164034
 21
561.649035
 31
0.0
  0
LINE
  5
DD
100
AcDbEntity
  8
1
  6
DASHED
100
AcDbLine
 10
-701.164034
 20
547.649035
 30
0.0
 11
-701.164034
 21
561.649035
 31
0.0
  0
ARC
  5
DE
100
AcDbEntity
  8
1
  6
DASHED
100
AcDbCircle
 10
-704.164034
 20
564.649035
 30
0.0
 40
3.0
100
AcDbArc
 50
270.0
 51
360.0
  0
ARC
  5
DF
100
AcDbEntity
  8
1
  6
DASHED
100
AcDbCircle
 10
-726.428446
 20
559.649035
 30
0.0
 40
2.0
100
AcDbArc
 50
90.0
 51
180.0
  0
LINE
  5
E0
100
AcDbEntity
  8
1
  6
DASHED
100
AcDbLine
 10
-701.164034
 20
547.649035
 30
0.0
 11
-726.986552
 21
555.152964
 31
0.0
  0
ARC
  5
E1
100
AcDbEntity
  8
1
  6
DASHED
100
AcDbCircle
 10
-726.428446
 20
557.073516
 30
0.0
 40
2.0
100
AcDbArc
 50
180.0
 51
253.79633
  0
ARC
  5
E2
100
AcDbEntity
  8
1
  6
DASHED
100
AcDbCircle
 10
-713.599794
 20
547.649035
 30
0.0
 40
1.0
100
AcDbArc
 50
0.0
 51
69.747253
  0
LINE
  5
E3
100
AcDbEntity
  8
1
  6
DASHED
100
AcDbLine
 10
-713.253632
 20
548.58721
 30
0.0
 11
-727.12077
 21
553.703823
 31
0.0
  0
ARC
  5
E4
100
AcDbEntity
  8
1
  6
DASHED
100
AcDbCircle
 10
-726.428446
 20
555.580172
 30
0.0
 40
2.0
100
AcDbArc
 50
180.0
 51
249.747253
  0
ARC
  5
E5
100
AcDbEntity
  8
1
100
AcDbCircle
 10
70.215342
 20
-438.784802
 30
0.0
 40
28.466137
100
AcDbArc
 50
0.0
 51
14.525798
  0
ARC
  5
E6
100
AcDbEntity
  8
1
100
AcDbCircle
 10
82.442097
 20
-438.784802
 30
0.0
 40
16.239383
100
AcDbArc
 50
340.728974
 51
360.0
  0
ARC
  5
E7
100
AcDbEntity
  8
1
100
AcDbCircle
 10
150.327765
 20
-438.784802
 30
0.0
 40
28.466137
100
AcDbArc
 50
165.474202
 51
180.0
  0
ARC
  5
E8
100
AcDbEntity
  8
1
100
AcDbCircle
 10
138.101011
 20
-438.784802
 30
0.0
 40
16.239383
100
AcDbArc
 50
180.0
 51
199.271026
  0
LINE
  5
E9
100
AcDbEntity
  8
1
100
AcDbLine
 10
82.771554
 20
-431.645042
 30
0.0
 11
97.771554
 21
-431.645042
 31
0.0
  0
LINE
  5
EA
100
AcDbEntity
  8
1
100
AcDbLine
 10
139.771554
 20
-431.645042
 30
0.0
 11
144.771554
 21
-431.645042
 31
0.0
  0
LINE
  5
EB
100
AcDbEntity
  8
1
100
AcDbLine
 10
82.771554
 20
-444.1444
 30
0.0
 11
97.771554
 21
-444.1444
 31
0.0
  0
LINE
  5
EC
100
AcDbEntity
  8
1
100
AcDbLine
 10
122.771554
 20
-444.1444
 30
0.0
 11
144.771554
 21
-444.1444
 31
0.0
  0
LINE
  5
ED
100
AcDbEntity
  8
1
100
AcDbLine
 10
105.771554
 20
-478.150965
 30
0.0
 11
114.771554
 21
-478.150965
 31
0.0
  0
LINE
  5
EE
100
AcDbEntity
  8
1
100
AcDbLine
 10
122.771554
 20
-470.150965
 30
0.0
 11
122.771554
 21
-444.1444
 31
0.0
  0
LINE
  5
EF
100
AcDbEntity
  8
1
100
AcDbLine
 10
103.049122
 20
-456.674749
 30
0.0
 11
103.049122
 21
-389.775545
 31
0.0
  0
LINE
  5
F0
100
AcDbEntity
  8
1
100
AcDbLine
 10
97.771554
 20
-470.150965
 30
0.0
 11
97.771554
 21
-444.1444
 31
0.0
  0
LINE
  5
F1
100
AcDbEntity
  8
1
100
AcDbLine
 10
117.493985
 20
-456.674749
 30
0.0
 11
117.493985
 21
-389.775545
 31
0.0
  0
ARC
  5
F2
100
AcDbEntity
  8
1
100
AcDbCircle
 10
114.771554
 20
-470.150965
 30
0.0
 40
8.0
100
AcDbArc
 50
270.0
 51
360.0
  0
ARC
  5
F3
100
AcDbEntity
  8
1
100
AcDbCircle
 10
105.771554
 20
-470.150965
 30
0.0
 40
8.0
100
AcDbArc
 50
180.0
 51
270.0
  0
LINE
  5
F4
100
AcDbEntity
  8
1
100
AcDbLine
 10
109.049122
 20
-462.674749
 30
0.0
 11
111.493985
 21
-462.674749
 31
0.0
  0
ARC
  5
F5
100
AcDbEntity
  8
1
100
AcDbCircle
 10
111.493985
 20
-456.674749
 30
0.0
 40
6.0
100
AcDbArc
 50
270.0
 51
360.0
  0
ARC
  5
F6
100
AcDbEntity
  8
1
100
AcDbCircle
 10
109.049122
 20
-456.674749
 30
0.0
 40
6.0
100
AcDbArc
 50
180.0
 51
270.0
  0
LINE
  5
F7
100
AcDbEntity
  8
1
100
AcDbLine
 10
117.493985
 20
-462.674749
 30
0.0
 11
120.043461
 21
-470.150965
 31
0.0
  0
LINE
  5
F8
100
AcDbEntity
  8
1
100
AcDbLine
 10
100.499646
 20
-470.150965
 30
0.0
 11
103.049122
 21
-462.674749
 31
0.0
  0
LINE
  5
F9
100
AcDbEntity
  8
1
100
AcDbLine
 10
132.694554
 20
-420.94714
 30
0.0
 11
134.771554
 21
-420.94714
 31
0.0
  0
LINE
  5
FA
100
AcDbEntity
  8
1
100
AcDbLine
 10
136.771554
 20
-409.482544
 30
0.0
 11
136.771554
 21
-431.953524
 31
0.0
  0
ARC
  5
FB
100
AcDbEntity
  8
1
100
AcDbCircle
 10
134.771554
 20
-412.650965
 30
0.0
 40
2.0
100
AcDbArc
 50
0.0
 51
90.0
  0
ARC
  5
FC
100
AcDbEntity
  8
1
100
AcDbCircle
 10
134.771554
 20
-418.94714
 30
0.0
 40
2.0
100
AcDbArc
 50
270.0
 51
0.0
  0
LINE
  5
FD
100
AcDbEntity
  8
1
100
AcDbLine
 10
126.939975
 20
-406.482544
 30
0.0
 11
136.771554
 21
-406.482544
 31
0.0
  0
ARC
  5
FE
100
AcDbEntity
  8
1
100
AcDbCircle
 10
139.771554
 20
-431.953524
 30
0.0
 40
3.0
100
AcDbArc
 50
180.0
 51
270.0
  0
ARC
  5
FF
100
AcDbEntity
  8
1
100
AcDbCircle
 10
139.771554
 20
-409.482544
 30
0.0
 40
3.0
100
AcDbArc
 50
90.0
 51
180.0
  0
LINE
  5
100
100
AcDbEntity
  8
1
100
AcDbLine
 10
130.694554
 20
-412.650965
 30
0.0
 11
130.694554
 21
-418.94714
 31
0.0
  0
ARC
  5
101
100
AcDbEntity
  8
1
100
AcDbCircle
 10
132.694554
 20
-412.650965
 30
0.0
 40
2.0
100
AcDbArc
 50
90.0
 51
180.0
  0
ARC
  5
102
100
AcDbEntity
  8
1
100
AcDbCircle
 10
132.694554
 20
-418.94714
 30
0.0
 40
2.0
100
AcDbArc
 50
180.0
 51
270.0
  0
ARC
  5
103
100
AcDbEntity
  8
1
100
AcDbCircle
 10
126.939975
 20
-406.482544
 30
0.0
 40
4.168421
100
AcDbArc
 50
180.0
 51
270.0
  0
LINE
  5
104
100
AcDbEntity
  8
1
100
AcDbLine
 10
130.694554
 20
-420.94714
 30
0.0
 11
122.771554
 21
-431.645042
 31
0.0
  0
LINE
  5
105
100
AcDbEntity
  8
1
100
AcDbLine
 10
122.771554
 20
-434.953524
 30
0.0
 11
136.771554
 21
-434.953524
 31
0.0
  0
LINE
  5
106
100
AcDbEntity
  8
1
100
AcDbLine
 10
126.939975
 20
-410.650965
 30
0.0
 11
130.694554
 21
-410.650965
 31
0.0
  0
LINE
  5
107
100
AcDbEntity
  8
1
100
AcDbLine
 10
132.694554
 20
-410.650965
 30
0.0
 11
134.771554
 21
-410.650965
 31
0.0
  0
ARC
  5
108
100
AcDbEntity
  8
1
100
AcDbCircle
 10
85.893449
 20
-368.970505
 30
0.0
 40
12.788031
100
AcDbArc
 50
0.0
 51
21.744437
  0
ARC
  5
109
100
AcDbEntity
  8
1
100
AcDbCircle
 10
134.649659
 20
-368.970505
 30
0.0
 40
12.788031
100
AcDbArc
 50
158.255563
 51
180.0
  0
ARC
  5
10A
100
AcDbEntity
  8
1
100
AcDbCircle
 10
97.84722
 20
-368.970505
 30
0.0
 40
0.834259
100
AcDbArc
 50
264.796154
 51
0.0
  0
ARC
  5
10B
100
AcDbEntity
  8
1
100
AcDbCircle
 10
122.695887
 20
-368.970505
 30
0.0
 40
0.834259
100
AcDbArc
 50
180.0
 51
275.203846
  0
LINE
  5
10C
100
AcDbEntity
  8
1
100
AcDbLine
 10
82.771554
 20
-369.801325
 30
0.0
 11
97.771554
 21
-369.801325
 31
0.0
  0
LINE
  5
10D
100
AcDbEntity
  8
1
100
AcDbLine
 10
122.771554
 20
-369.801325
 30
0.0
 11
144.771554
 21
-369.801325
 31
0.0
  0
LINE
  5
10E
100
AcDbEntity
  8
1
100
AcDbLine
 10
97.771554
 20
-431.645042
 30
0.0
 11
97.771554
 21
-369.801325
 31
0.0
  0
LINE
  5
10F
100
AcDbEntity
  8
1
100
AcDbLine
 10
82.771554
 20
-364.232958
 30
0.0
 11
97.771554
 21
-364.232958
 31
0.0
  0
LINE
  5
110
100
AcDbEntity
  8
1
100
AcDbLine
 10
122.771554
 20
-364.232958
 30
0.0
 11
144.771554
 21
-364.232958
 31
0.0
  0
LINE
  5
111
100
AcDbEntity
  8
1
100
AcDbLine
 10
122.771554
 20
-406.482544
 30
0.0
 11
122.771554
 21
-369.801325
 31
0.0
  0
LINE
  5
112
100
AcDbEntity
  8
1
100
AcDbLine
 10
109.049122
 20
-383.775545
 30
0.0
 11
111.493985
 21
-383.775545
 31
0.0
  0
ARC
  5
113
100
AcDbEntity
  8
1
100
AcDbCircle
 10
111.493985
 20
-389.775545
 30
0.0
 40
6.0
100
AcDbArc
 50
360.0
 51
90.0
  0
ARC
  5
114
100
AcDbEntity
  8
1
100
AcDbCircle
 10
109.049122
 20
-389.775545
 30
0.0
 40
6.0
100
AcDbArc
 50
90.0
 51
180.0
  0
ARC
  5
115
100
AcDbEntity
  8
1
100
AcDbCircle
 10
98.467478
 20
-363.955391
 30
0.0
 40
0.749235
100
AcDbArc
 50
90.0
 51
201.744437
  0
ARC
  5
116
100
AcDbEntity
  8
1
100
AcDbCircle
 10
122.07563
 20
-363.955391
 30
0.0
 40
0.749235
100
AcDbArc
 50
338.255563
 51
90.0
  0
LINE
  5
117
100
AcDbEntity
  8
1
100
AcDbLine
 10
120.043461
 20
-373.83893
 30
0.0
 11
117.493985
 21
-383.775545
 31
0.0
  0
LINE
  5
118
100
AcDbEntity
  8
1
100
AcDbLine
 10
100.499646
 20
-373.83893
 30
0.0
 11
103.049122
 21
-383.775545
 31
0.0
  0
ARC
  5
119
100
AcDbEntity
  8
1
100
AcDbCircle
 10
70.215342
 20
-537.517128
 30
0.0
 40
28.466137
100
AcDbArc
 50
345.474202
 51
360.0
  0
ARC
  5
11A
100
AcDbEntity
  8
1
100
AcDbCircle
 10
82.442097
 20
-537.517128
 30
0.0
 40
16.239383
100
AcDbArc
 50
0.0
 51
19.271026
  0
ARC
  5
11B
100
AcDbEntity
  8
1
100
AcDbCircle
 10
150.327765
 20
-537.517128
 30
0.0
 40
28.466137
100
AcDbArc
 50
180.0
 51
194.525798
  0
ARC
  5
11C
100
AcDbEntity
  8
1
100
AcDbCircle
 10
138.101011
 20
-537.517128
 30
0.0
 40
16.239383
100
AcDbArc
 50
160.728974
 51
180.0
  0
LINE
  5
11D
100
AcDbEntity
  8
1
100
AcDbLine
 10
82.771554
 20
-544.656887
 30
0.0
 11
97.771554
 21
-544.656887
 31
0.0
  0
LINE
  5
11E
100
AcDbEntity
  8
1
100
AcDbLine
 10
139.771554
 20
-544.656887
 30
0.0
 11
144.771554
 21
-544.656887
 31
0.0
  0
LINE
  5
11F
100
AcDbEntity
  8
1
100
AcDbLine
 10
82.771554
 20
-532.157529
 30
0.0
 11
97.771554
 21
-532.157529
 31
0.0
  0
LINE
  5
120
100
AcDbEntity
  8
1
100
AcDbLine
 10
122.771554
 20
-532.157529
 30
0.0
 11
144.771554
 21
-532.157529
 31
0.0
  0
LINE
  5
121
100
AcDbEntity
  8
1
100
AcDbLine
 10
105.771554
 20
-498.150965
 30
0.0
 11
114.771554
 21
-498.150965
 31
0.0
  0
LINE
  5
122
100
AcDbEntity
  8
1
100
AcDbLine
 10
122.771554
 20
-506.150965
 30
0.0
 11
122.771554
 21
-532.157529
 31
0.0
  0
LINE
  5
123
100
AcDbEntity
  8
1
100
AcDbLine
 10
103.049122
 20
-519.627181
 30
0.0
 11
103.049122
 21
-586.526385
 31
0.0
  0
LINE
  5
124
100
AcDbEntity
  8
1
100
AcDbLine
 10
97.771554
 20
-506.150965
 30
0.0
 11
97.771554
 21
-532.157529
 31
0.0
  0
LINE
  5
125
100
AcDbEntity
  8
1
100
AcDbLine
 10
117.493985
 20
-519.627181
 30
0.0
 11
117.493985
 21
-586.526385
 31
0.0
  0
ARC
  5
126
100
AcDbEntity
  8
1
100
AcDbCircle
 10
114.771554
 20
-506.150965
 30
0.0
 40
8.0
100
AcDbArc
 50
0.0
 51
90.0
  0
ARC
  5
127
100
AcDbEntity
  8
1
100
AcDbCircle
 10
105.771554
 20
-506.150965
 30
0.0
 40
8.0
100
AcDbArc
 50
90.0
 51
180.0
  0
LINE
  5
128
100
AcDbEntity
  8
1
100
AcDbLine
 10
109.049122
 20
-513.627181
 30
0.0
 11
111.493985
 21
-513.627181
 31
0.0
  0
ARC
  5
129
100
AcDbEntity
  8
1
100
AcDbCircle
 10
111.493985
 20
-519.627181
 30
0.0
 40
6.0
100
AcDbArc
 50
0.0
 51
90.0
  0
ARC
  5
12A
100
AcDbEntity
  8
1
100
AcDbCircle
 10
109.049122
 20
-519.627181
 30
0.0
 40
6.0
100
AcDbArc
 50
90.0
 51
180.0
  0
LINE
  5
12B
100
AcDbEntity
  8
1
100
AcDbLine
 10
117.493985
 20
-513.627181
 30
0.0
 11
120.043461
 21
-506.150965
 31
0.0
  0
LINE
  5
12C
100
AcDbEntity
  8
1
100
AcDbLine
 10
100.499646
 20
-506.150965
 30
0.0
 11
103.049122
 21
-513.627181
 31
0.0
  0
LINE
  5
12D
100
AcDbEntity
  8
1
100
AcDbLine
 10
132.694554
 20
-555.35479
 30
0.0
 11
134.771554
 21
-555.35479
 31
0.0
  0
LINE
  5
12E
100
AcDbEntity
  8
1
100
AcDbLine
 10
136.771554
 20
-566.819386
 30
0.0
 11
136.771554
 21
-544.348405
 31
0.0
  0
ARC
  5
12F
100
AcDbEntity
  8
1
100
AcDbCircle
 10
134.771554
 20
-563.650965
 30
0.0
 40
2.0
100
AcDbArc
 50
270.0
 51
360.0
  0
ARC
  5
130
100
AcDbEntity
  8
1
100
AcDbCircle
 10
134.771554
 20
-557.35479
 30
0.0
 40
2.0
100
AcDbArc
 50
360.0
 51
90.0
  0
LINE
  5
131
100
AcDbEntity
  8
1
100
AcDbLine
 10
126.939975
 20
-569.819386
 30
0.0
 11
136.771554
 21
-569.819386
 31
0.0
  0
ARC
  5
132
100
AcDbEntity
  8
1
100
AcDbCircle
 10
139.771554
 20
-544.348405
 30
0.0
 40
3.0
100
AcDbArc
 50
90.0
 51
180.0
  0
ARC
  5
133
100
AcDbEntity
  8
1
100
AcDbCircle
 10
139.771554
 20
-566.819386
 30
0.0
 40
3.0
100
AcDbArc
 50
180.0
 51
270.0
  0
LINE
  5
134
100
AcDbEntity
  8
1
100
AcDbLine
 10
130.694554
 20
-563.650965
 30
0.0
 11
130.694554
 21
-557.35479
 31
0.0
  0
ARC
  5
135
100
AcDbEntity
  8
1
100
AcDbCircle
 10
132.694554
 20
-563.650965
 30
0.0
 40
2.0
100
AcDbArc
 50
180.0
 51
270.0
  0
ARC
  5
136
100
AcDbEntity
  8
1
100
AcDbCircle
 10
132.694554
 20
-557.35479
 30
0.0
 40
2.0
100
AcDbArc
 50
90.0
 51
180.0
  0
ARC
  5
137
100
AcDbEntity
  8
1
100
AcDbCircle
 10
126.939975
 20
-569.819386
 30
0.0
 40
4.168421
100
AcDbArc
 50
90.0
 51
180.0
  0
LINE
  5
138
100
AcDbEntity
  8
1
100
AcDbLine
 10
130.694554
 20
-555.35479
 30
0.0
 11
122.771554
 21
-544.656887
 31
0.0
  0
LINE
  5
139
100
AcDbEntity
  8
1
100
AcDbLine
 10
122.771554
 20
-541.348405
 30
0.0
 11
136.771554
 21
-541.348405
 31
0.0
  0
LINE
  5
13A
100
AcDbEntity
  8
1
100
AcDbLine
 10
126.939975
 20
-565.650965
 30
0.0
 11
130.694554
 21
-565.650965
 31
0.0
  0
LINE
  5
13B
100
AcDbEntity
  8
1
100
AcDbLine
 10
132.694554
 20
-565.650965
 30
0.0
 11
134.771554
 21
-565.650965
 31
0.0
  0
ARC
  5
13C
100
AcDbEntity
  8
1
100
AcDbCircle
 10
85.893449
 20
-607.331424
 30
0.0
 40
12.788031
100
AcDbArc
 50
338.255563
 51
360.0
  0
ARC
  5
13D
100
AcDbEntity
  8
1
100
AcDbCircle
 10
134.649659
 20
-607.331424
 30
0.0
 40
12.788031
100
AcDbArc
 50
180.0
 51
201.744437
  0
ARC
  5
13E
100
AcDbEntity
  8
1
100
AcDbCircle
 10
97.84722
 20
-607.331424
 30
0.0
 40
0.834259
100
AcDbArc
 50
360.0
 51
95.203846
  0
ARC
  5
13F
100
AcDbEntity
  8
1
100
AcDbCircle
 10
122.695887
 20
-607.331424
 30
0.0
 40
0.834259
100
AcDbArc
 50
84.796154
 51
180.0
  0
LINE
  5
140
100
AcDbEntity
  8
1
100
AcDbLine
 10
82.771554
 20
-606.500604
 30
0.0
 11
97.771554
 21
-606.500604
 31
0.0
  0
LINE
  5
141
100
AcDbEntity
  8
1
100
AcDbLine
 10
122.771554
 20
-606.500604
 30
0.0
 11
144.771554
 21
-606.500604
 31
0.0
  0
LINE
  5
142
100
AcDbEntity
  8
1
100
AcDbLine
 10
97.771554
 20
-544.656887
 30
0.0
 11
97.771554
 21
-606.500604
 31
0.0
  0
LINE
  5
143
100
AcDbEntity
  8
1
100
AcDbLine
 10
82.771554
 20
-612.068971
 30
0.0
 11
97.771554
 21
-612.068971
 31
0.0
  0
LINE
  5
144
100
AcDbEntity
  8
1
100
AcDbLine
 10
122.771554
 20
-612.068971
 30
0.0
 11
144.771554
 21
-612.068971
 31
0.0
  0
LINE
  5
145
100
AcDbEntity
  8
1
100
AcDbLine
 10
122.771554
 20
-569.819386
 30
0.0
 11
122.771554
 21
-606.500604
 31
0.0
  0
LINE
  5
146
100
AcDbEntity
  8
1
100
AcDbLine
 10
109.049122
 20
-592.526385
 30
0.0
 11
111.493985
 21
-592.526385
 31
0.0
  0
ARC
  5
147
100
AcDbEntity
  8
1
100
AcDbCircle
 10
111.493985
 20
-586.526385
 30
0.0
 40
6.0
100
AcDbArc
 50
270.0
 51
0.0
  0
ARC
  5
148
100
AcDbEntity
  8
1
100
AcDbCircle
 10
109.049122
 20
-586.526385
 30
0.0
 40
6.0
100
AcDbArc
 50
180.0
 51
270.0
  0
ARC
  5
149
100
AcDbEntity
  8
1
100
AcDbCircle
 10
98.467478
 20
-612.346538
 30
0.0
 40
0.749235
100
AcDbArc
 50
158.255563
 51
270.0
  0
ARC
  5
14A
100
AcDbEntity
  8
1
100
AcDbCircle
 10
122.07563
 20
-612.346538
 30
0.0
 40
0.749235
100
AcDbArc
 50
270.0
 51
21.744437
  0
LINE
  5
14B
100
AcDbEntity
  8
1
100
AcDbLine
 10
120.043461
 20
-602.463
 30
0.0
 11
117.493985
 21
-592.526385
 31
0.0
  0
LINE
  5
14C
100
AcDbEntity
  8
1
100
AcDbLine
 10
100.499646
 20
-602.463
 30
0.0
 11
103.049122
 21
-592.526385
 31
0.0
  0
LINE
  5
14D
100
AcDbEntity
  8
1
  6
DASHED
100
AcDbLine
 10
-463.428446
 20
569.649035
 30
0.0
 11
-530.370166
 21
569.649035
 31
0.0
  0
LINE
  5
14E
100
AcDbEntity
  8
1
  6
DASHED
100
AcDbLine
 10
-463.428446
 20
507.649035
 30
0.0
 11
-529.828446
 21
507.649035
 31
0.0
  0
LINE
  5
14F
100
AcDbEntity
  8
1
  6
DASHED
100
AcDbLine
 10
-529.828446
 20
542.371467
 30
0.0
 11
-480.735792
 21
542.371467
 31
0.0
  0
LINE
  5
150
100
AcDbEntity
  8
1
  6
DASHED
100
AcDbLine
 10
-529.828446
 20
527.926604
 30
0.0
 11
-480.735792
 21
527.926604
 31
0.0
  0
LINE
  5
151
100
AcDbEntity
  8
1
  6
DASHED
100
AcDbLine
 10
-463.809226
 20
522.649035
 30
0.0
 11
-463.809226
 21
547.649035
 31
0.0
  0
LINE
  5
152
100
AcDbEntity
  8
1
  6
DASHED
100
AcDbLine
 10
-480.735792
 20
533.812107
 30
0.0
 11
-480.735792
 21
536.485963
 31
0.0
  0
LINE
  5
153
100
AcDbEntity
  8
1
  6
DASHED
100
AcDbLine
 10
-467.32093
 20
546.554114
 30
0.0
 11
-475.117065
 21
544.123341
 31
0.0
  0
LINE
  5
154
100
AcDbEntity
  8
1
  6
DASHED
100
AcDbLine
 10
-475.117065
 20
526.174729
 30
0.0
 11
-467.32093
 21
523.743957
 31
0.0
  0
ARC
  5
155
100
AcDbEntity
  8
1
  6
DASHED
100
AcDbCircle
 10
-472.735792
 20
536.485963
 30
0.0
 40
8.0
100
AcDbArc
 50
107.317063
 51
180.0
  0
ARC
  5
156
100
AcDbEntity
  8
1
  6
DASHED
100
AcDbCircle
 10
-472.735792
 20
533.812107
 30
0.0
 40
8.0
100
AcDbArc
 50
180.0
 51
252.682937
  0
ARC
  5
157
100
AcDbEntity
  8
1
  6
DASHED
100
AcDbCircle
 10
-468.809226
 20
551.327475
 30
0.0
 40
5.0
100
AcDbArc
 50
287.317063
 51
360.0
  0
ARC
  5
158
100
AcDbEntity
  8
1
  6
DASHED
100
AcDbCircle
 10
-468.809226
 20
518.970596
 30
0.0
 40
5.0
100
AcDbArc
 50
360.0
 51
72.682937
  0
ARC
  5
159
100
AcDbEntity
  8
1
  6
DASHED
100
AcDbCircle
 10
-475.747987
 20
510.77093
 30
0.0
 40
12.788031
100
AcDbArc
 50
68.255563
 51
90.0
  0
ARC
  5
15A
100
AcDbEntity
  8
1
  6
DASHED
100
AcDbCircle
 10
-475.747987
 20
521.852567
 30
0.0
 40
1.706394
100
AcDbArc
 50
90.0
 51
152.176118
  0
LINE
  5
15B
100
AcDbEntity
  8
1
  6
DASHED
100
AcDbLine
 10
-467.32093
 20
522.649035
 30
0.0
 11
-471.01044
 21
522.649035
 31
0.0
  0
LINE
  5
15C
100
AcDbEntity
  8
1
  6
DASHED
100
AcDbLine
 10
-477.257099
 20
522.649035
 30
0.0
 11
-529.828446
 21
522.649035
 31
0.0
  0
ARC
  5
15D
100
AcDbEntity
  8
1
  6
DASHED
100
AcDbCircle
 10
-475.747987
 20
548.445504
 30
0.0
 40
1.706394
100
AcDbArc
 50
207.823882
 51
270.0
  0
ARC
  5
15E
100
AcDbEntity
  8
1
  6
DASHED
100
AcDbCircle
 10
-475.747987
 20
559.52714
 30
0.0
 40
12.788031
100
AcDbArc
 50
270.0
 51
291.744437
  0
LINE
  5
15F
100
AcDbEntity
  8
1
  6
DASHED
100
AcDbLine
 10
-467.32093
 20
547.649035
 30
0.0
 11
-471.01044
 21
547.649035
 31
0.0
  0
LINE
  5
160
100
AcDbEntity
  8
1
  6
DASHED
100
AcDbLine
 10
-488.692859
 20
547.649035
 30
0.0
 11
-529.828446
 21
547.649035
 31
0.0
  0
LINE
  5
161
100
AcDbEntity
  8
1
  6
DASHED
100
AcDbLine
 10
-471.01044
 20
507.649035
 30
0.0
 11
-471.01044
 21
522.649035
 31
0.0
  0
LINE
  5
162
100
AcDbEntity
  8
1
  6
DASHED
100
AcDbLine
 10
-477.257099
 20
507.649035
 30
0.0
 11
-477.257099
 21
522.649035
 31
0.0
  0
LINE
  5
163
100
AcDbEntity
  8
1
  6
DASHED
100
AcDbLine
 10
-477.257099
 20
561.649035
 30
0.0
 11
-477.257099
 21
569.649035
 31
0.0
  0
LINE
  5
164
100
AcDbEntity
  8
1
  6
DASHED
100
AcDbLine
 10
-471.01044
 20
547.649035
 30
0.0
 11
-471.01044
 21
550.650815
 31
0.0
  0
LINE
  5
165
100
AcDbEntity
  8
1
  6
DASHED
100
AcDbLine
 10
-471.01044
 20
561.649035
 30
0.0
 11
-471.01044
 21
569.649035
 31
0.0
  0
LINE
  5
166
100
AcDbEntity
  8
1
  6
DASHED
100
AcDbLine
 10
-463.428446
 20
507.649035
 30
0.0
 11
-463.428446
 21
553.448373
 31
0.0
  0
LINE
  5
167
100
AcDbEntity
  8
1
  6
DASHED
100
AcDbLine
 10
-463.428446
 20
561.649035
 30
0.0
 11
-463.428446
 21
569.649035
 31
0.0
  0
LINE
  5
168
100
AcDbEntity
  8
1
  6
DASHED
100
AcDbLine
 10
-461.428446
 20
555.580172
 30
0.0
 11
-461.428446
 21
559.649035
 31
0.0
  0
LINE
  5
169
100
AcDbEntity
  8
1
  6
DASHED
100
AcDbLine
 10
-463.428446
 20
561.649035
 30
0.0
 11
-485.692859
 21
561.649035
 31
0.0
  0
LINE
  5
16A
100
AcDbEntity
  8
1
  6
DASHED
100
AcDbLine
 10
-488.692859
 20
547.649035
 30
0.0
 11
-488.692859
 21
561.649035
 31
0.0
  0
ARC
  5
16B
100
AcDbEntity
  8
1
  6
DASHED
100
AcDbCircle
 10
-485.692859
 20
564.649035
 30
0.0
 40
3.0
100
AcDbArc
 50
180.0
 51
270.0
  0
ARC
  5
16C
100
AcDbEntity
  8
1
  6
DASHED
100
AcDbCircle
 10
-463.428446
 20
559.649035
 30
0.0
 40
2.0
100
AcDbArc
 50
0.0
 51
90.0
  0
LINE
  5
16D
100
AcDbEntity
  8
1
  6
DASHED
100
AcDbLine
 10
-488.692859
 20
547.649035
 30
0.0
 11
-462.870341
 21
555.152964
 31
0.0
  0
ARC
  5
16E
100
AcDbEntity
  8
1
  6
DASHED
100
AcDbCircle
 10
-463.428446
 20
557.073516
 30
0.0
 40
2.0
100
AcDbArc
 50
286.20367
 51
360.0
  0
ARC
  5
16F
100
AcDbEntity
  8
1
  6
DASHED
100
AcDbCircle
 10
-476.257099
 20
547.649035
 30
0.0
 40
1.0
100
AcDbArc
 50
110.252747
 51
180.0
  0
LINE
  5
170
100
AcDbEntity
  8
1
  6
DASHED
100
AcDbLine
 10
-476.603261
 20
548.58721
 30
0.0
 11
-462.736122
 21
553.703823
 31
0.0
  0
ARC
  5
171
100
AcDbEntity
  8
1
  6
DASHED
100
AcDbCircle
 10
-463.428446
 20
555.580172
 30
0.0
 40
2.0
100
AcDbArc
 50
290.252747
 51
360.0
  0
LINE
  5
172
100
AcDbEntity
  8
1
100
AcDbLine
 10
83.271554
 20
-662.150965
 30
0.0
 11
143.271554
 21
-662.150965
 31
0.0
  0
LINE
  5
173
100
AcDbEntity
  8
1
  6
CENTER
 62
     2
100
AcDbLine
 10
-548.133446
 20
-229.88063
 30
0.0
 11
-548.133446
 21
-281.89007
 31
0.0
  0
LINE
  5
174
100
AcDbEntity
  8
1
  6
CENTER
 62
     2
100
AcDbLine
 10
-636.523446
 20
-229.88063
 30
0.0
 11
-636.523446
 21
-281.89007
 31
0.0
  0
LINE
  5
175
100
AcDbEntity
  8
1
100
AcDbLine
 10
51.271554
 20
-268.150965
 30
0.0
 11
166.271554
 21
-268.150965
 31
0.0
  0
LINE
  5
176
100
AcDbEntity
  8
1
100
AcDbLine
 10
46.271554
 20
-253.150965
 30
0.0
 11
46.271554
 21
-263.150965
 31
0.0
  0
LINE
  5
177
100
AcDbEntity
  8
1
100
AcDbLine
 10
171.271554
 20
-253.150965
 30
0.0
 11
171.271554
 21
-263.150965
 31
0.0
  0
ARC
  5
178
100
AcDbEntity
  8
1
100
AcDbCircle
 10
166.271554
 20
-263.150965
 30
0.0
 40
5.0
100
AcDbArc
 50
270.0
 51
360.0
  0
ARC
  5
179
100
AcDbEntity
  8
1
100
AcDbCircle
 10
51.271554
 20
-263.150965
 30
0.0
 40
5.0
100
AcDbArc
 50
180.0
 51
270.0
  0
LINE
  5
17A
100
AcDbEntity
  8
1
100
AcDbLine
 10
133.771554
 20
-278.150965
 30
0.0
 11
133.771554
 21
-352.432666
 31
0.0
  0
LINE
  5
17B
100
AcDbEntity
  8
1
100
AcDbLine
 10
83.771554
 20
-278.150965
 30
0.0
 11
83.771554
 21
-291.485936
 31
0.0
  0
LINE
  5
17C
100
AcDbEntity
  8
1
100
AcDbLine
 10
85.771554
 20
-297.810491
 30
0.0
 11
85.771554
 21
-357.432666
 31
0.0
  0
ARC
  5
17D
100
AcDbEntity
  8
1
100
AcDbCircle
 10
143.771554
 20
-278.150965
 30
0.0
 40
10.0
100
AcDbArc
 50
90.0
 51
180.0
  0
ARC
  5
17E
100
AcDbEntity
  8
1
100
AcDbCircle
 10
73.771554
 20
-278.150965
 30
0.0
 40
10.0
100
AcDbArc
 50
0.0
 51
90.0
  0
ARC
  5
17F
100
AcDbEntity
  8
1
100
AcDbCircle
 10
168.771554
 20
-303.072763
 30
0.0
 40
35.0
100
AcDbArc
 50
93.583322
 51
180.0
  0
ARC
  5
180
100
AcDbEntity
  8
1
100
AcDbCircle
 10
89.771554
 20
-291.485936
 30
0.0
 40
6.0
100
AcDbArc
 50
180.0
 51
215.096801
  0
ARC
  5
181
100
AcDbEntity
  8
1
100
AcDbCircle
 10
80.771554
 20
-297.810491
 30
0.0
 40
5.0
100
AcDbArc
 50
0.0
 51
35.096801
  0
ARC
  5
182
100
AcDbEntity
  8
1
100
AcDbCircle
 10
50.463572
 20
-303.142803
 30
0.0
 40
35.0
100
AcDbArc
 50
16.517838
 51
88.842573
  0
ARC
  5
183
100
AcDbEntity
  8
1
100
AcDbCircle
 10
82.771554
 20
-353.650965
 30
0.0
 40
3.0
100
AcDbArc
 50
270.0
 51
360.0
  0
ARC
  5
184
100
AcDbEntity
  8
1
100
AcDbCircle
 10
141.771554
 20
-348.650965
 30
0.0
 40
8.0
100
AcDbArc
 50
180.0
 51
270.0
  0
ARC
  5
185
100
AcDbEntity
  8
1
100
AcDbCircle
 10
82.771554
 20
-357.432666
 30
0.0
 40
3.0
100
AcDbArc
 50
270.0
 51
360.0
  0
ARC
  5
186
100
AcDbEntity
  8
1
100
AcDbCircle
 10
141.771554
 20
-352.432666
 30
0.0
 40
8.0
100
AcDbArc
 50
180.0
 51
270.0
  0
LINE
  5
187
100
AcDbEntity
  8
1
  6
CENTER
 62
     2
100
AcDbLine
 10
152.966554
 20
-240.101114
 30
0.0
 11
152.966554
 21
-281.89007
 31
0.0
  0
LINE
  5
188
100
AcDbEntity
  8
1
  6
CENTER
 62
     2
100
AcDbLine
 10
64.576554
 20
-240.101114
 30
0.0
 11
64.576554
 21
-281.89007
 31
0.0
  0
LINE
  5
189
100
AcDbEntity
  8
1
100
AcDbLine
 10
-578.511137
 20
-295.958072
 30
0.0
 11
-611.345756
 21
-295.958072
 31
0.0
  0
LINE
  5
18A
100
AcDbEntity
  8
1
100
AcDbLine
 10
-596.328446
 20
-288.392067
 30
0.0
 11
-596.328446
 21
-272.150965
 31
0.0
  0
LINE
  5
18B
100
AcDbEntity
  8
1
100
AcDbLine
 10
-588.328446
 20
-288.392067
 30
0.0
 11
-588.328446
 21
-272.150965
 31
0.0
  0
ARC
  5
18C
100
AcDbEntity
  8
1
100
AcDbCircle
 10
-584.328446
 20
-272.150965
 30
0.0
 40
4.0
100
AcDbArc
 50
90.0
 51
180.0
  0
ARC
  5
18D
100
AcDbEntity
  8
1
100
AcDbCircle
 10
-600.328446
 20
-272.150965
 30
0.0
 40
4.0
100
AcDbArc
 50
0.0
 51
90.0
  0
ARC
  5
18E
100
AcDbEntity
  8
1
100
AcDbCircle
 10
-584.328446
 20
-288.392067
 30
0.0
 40
4.0
100
AcDbArc
 50
180.0
 51
270.0
  0
ARC
  5
18F
100
AcDbEntity
  8
1
100
AcDbCircle
 10
-600.328446
 20
-288.392067
 30
0.0
 40
4.0
100
AcDbArc
 50
270.0
 51
360.0
  0
LINE
  5
190
100
AcDbEntity
  8
1
100
AcDbLine
 10
-584.328446
 20
-292.392067
 30
0.0
 11
-578.511137
 21
-292.392067
 31
0.0
  0
LINE
  5
191
100
AcDbEntity
  8
1
100
AcDbLine
 10
-611.345756
 20
-292.392067
 30
0.0
 11
-600.328446
 21
-292.392067
 31
0.0
  0
LINE
  5
192
100
AcDbEntity
  8
1
100
AcDbLine
 10
-596.328446
 20
-292.392067
 30
0.0
 11
-588.328446
 21
-292.392067
 31
0.0
  0
LINE
  5
193
100
AcDbEntity
  8
1
100
AcDbLine
 10
104.771554
 20
-283.645862
 30
0.0
 11
112.771554
 21
-283.645862
 31
0.0
  0
LINE
  5
194
100
AcDbEntity
  8
1
100
AcDbLine
 10
104.771554
 20
-272.150965
 30
0.0
 11
104.771554
 21
-279.645862
 31
0.0
  0
LINE
  5
195
100
AcDbEntity
  8
1
100
AcDbLine
 10
112.771554
 20
-272.150965
 30
0.0
 11
112.771554
 21
-279.645862
 31
0.0
  0
ARC
  5
196
100
AcDbEntity
  8
1
100
AcDbCircle
 10
116.771554
 20
-272.150965
 30
0.0
 40
4.0
100
AcDbArc
 50
90.0
 51
180.0
  0
ARC
  5
197
100
AcDbEntity
  8
1
100
AcDbCircle
 10
116.771554
 20
-279.645862
 30
0.0
 40
4.0
100
AcDbArc
 50
180.0
 51
270.0
  0
ARC
  5
198
100
AcDbEntity
  8
1
100
AcDbCircle
 10
100.771554
 20
-272.150965
 30
0.0
 40
4.0
100
AcDbArc
 50
0.0
 51
90.0
  0
ARC
  5
199
100
AcDbEntity
  8
1
100
AcDbCircle
 10
100.771554
 20
-279.645862
 30
0.0
 40
4.0
100
AcDbArc
 50
270.0
 51
0.0
  0
LINE
  5
19A
100
AcDbEntity
  8
1
100
AcDbLine
 10
104.771554
 20
-294.718497
 30
0.0
 11
112.771554
 21
-294.718497
 31
0.0
  0
LINE
  5
19B
100
AcDbEntity
  8
1
100
AcDbLine
 10
93.700554
 20
-338.701116
 30
0.0
 11
93.700554
 21
-342.771898
 31
0.0
  0
LINE
  5
19C
100
AcDbEntity
  8
1
100
AcDbLine
 10
123.842554
 20
-338.701116
 30
0.0
 11
123.842554
 21
-342.771898
 31
0.0
  0
LINE
  5
19D
100
AcDbEntity
  8
1
100
AcDbLine
 10
93.700554
 20
-343.41774
 30
0.0
 11
123.842554
 21
-343.41774
 31
0.0
  0
ARC
  5
19E
100
AcDbEntity
  8
1
100
AcDbCircle
 10
98.771554
 20
-338.701116
 30
0.0
 40
5.071
100
AcDbArc
 50
90.0
 51
180.0
  0
ARC
  5
19F
100
AcDbEntity
  8
1
100
AcDbCircle
 10
118.771554
 20
-338.701116
 30
0.0
 40
5.071
100
AcDbArc
 50
360.0
 51
90.0
  0
LINE
  5
1A0
100
AcDbEntity
  8
1
100
AcDbLine
 10
124.081554
 20
-344.945116
 30
0.0
 11
124.081554
 21
-347.301006
 31
0.0
  0
ARC
  5
1A1
100
AcDbEntity
  8
1
100
AcDbCircle
 10
98.771554
 20
-347.301006
 30
0.0
 40
5.31
100
AcDbArc
 50
180.0
 51
270.0
  0
ARC
  5
1A2
100
AcDbEntity
  8
1
100
AcDbCircle
 10
118.771554
 20
-347.301006
 30
0.0
 40
5.31
100
AcDbArc
 50
270.0
 51
360.0
  0
ARC
  5
1A3
100
AcDbEntity
  8
1
100
AcDbCircle
 10
119.081554
 20
-344.945116
 30
0.0
 40
5.0
100
AcDbArc
 50
0.0
 51
12.551781
  0
ARC
  5
1A4
100
AcDbEntity
  8
1
100
AcDbCircle
 10
128.842554
 20
-342.771898
 30
0.0
 40
5.0
100
AcDbArc
 50
180.0
 51
192.551781
  0
LINE
  5
1A5
100
AcDbEntity
  8
1
100
AcDbLine
 10
93.461554
 20
-344.945116
 30
0.0
 11
93.461554
 21
-347.301006
 31
0.0
  0
ARC
  5
1A6
100
AcDbEntity
  8
1
100
AcDbCircle
 10
98.461554
 20
-344.945116
 30
0.0
 40
5.0
100
AcDbArc
 50
167.448219
 51
180.0
  0
ARC
  5
1A7
100
AcDbEntity
  8
1
100
AcDbCircle
 10
88.700554
 20
-342.771898
 30
0.0
 40
5.0
100
AcDbArc
 50
347.448219
 51
360.0
  0
LINE
  5
1A8
100
AcDbEntity
  8
1
100
AcDbLine
 10
104.771554
 20
-298.718497
 30
0.0
 11
104.771554
 21
-329.630116
 31
0.0
  0
LINE
  5
1A9
100
AcDbEntity
  8
1
100
AcDbLine
 10
112.771554
 20
-298.718497
 30
0.0
 11
112.771554
 21
-329.630116
 31
0.0
  0
ARC
  5
1AA
100
AcDbEntity
  8
1
100
AcDbCircle
 10
116.771554
 20
-298.718497
 30
0.0
 40
4.0
100
AcDbArc
 50
90.0
 51
180.0
  0
ARC
  5
1AB
100
AcDbEntity
  8
1
100
AcDbCircle
 10
100.771554
 20
-298.718497
 30
0.0
 40
4.0
100
AcDbArc
 50
0.0
 51
90.0
  0
ARC
  5
1AC
100
AcDbEntity
  8
1
100
AcDbCircle
 10
116.771554
 20
-329.630116
 30
0.0
 40
4.0
100
AcDbArc
 50
180.0
 51
270.0
  0
ARC
  5
1AD
100
AcDbEntity
  8
1
100
AcDbCircle
 10
100.771554
 20
-329.630116
 30
0.0
 40
4.0
100
AcDbArc
 50
270.0
 51
360.0
  0
LINE
  5
1AE
100
AcDbEntity
  8
1
100
AcDbLine
 10
116.771554
 20
-333.630116
 30
0.0
 11
118.771554
 21
-333.630116
 31
0.0
  0
LINE
  5
1AF
100
AcDbEntity
  8
1
100
AcDbLine
 10
98.771554
 20
-333.630116
 30
0.0
 11
100.771554
 21
-333.630116
 31
0.0
  0
LINE
  5
1B0
100
AcDbEntity
  8
1
100
AcDbLine
 10
104.771554
 20
-333.630116
 30
0.0
 11
112.771554
 21
-333.630116
 31
0.0
  0
LINE
  5
1B1
100
AcDbEntity
  8
1
100
AcDbLine
 10
106.771554
 20
-304.674455
 30
0.0
 11
110.771554
 21
-304.674455
 31
0.0
  0
LINE
  5
1B2
100
AcDbEntity
  8
1
100
AcDbLine
 10
106.771554
 20
-316.526464
 30
0.0
 11
110.771554
 21
-316.526464
 31
0.0
  0
ARC
  5
1B3
100
AcDbEntity
  8
1
100
AcDbCircle
 10
110.771554
 20
-306.674455
 30
0.0
 40
2.0
100
AcDbArc
 50
0.0
 51
90.0
  0
ARC
  5
1B4
100
AcDbEntity
  8
1
100
AcDbCircle
 10
106.771554
 20
-306.674455
 30
0.0
 40
2.0
100
AcDbArc
 50
90.0
 51
180.0
  0
ARC
  5
1B5
100
AcDbEntity
  8
1
100
AcDbCircle
 10
106.771554
 20
-314.526464
 30
0.0
 40
2.0
100
AcDbArc
 50
180.0
 51
270.0
  0
ARC
  5
1B6
100
AcDbEntity
  8
1
100
AcDbCircle
 10
110.771554
 20
-314.526464
 30
0.0
 40
2.0
100
AcDbArc
 50
270.0
 51
360.0
  0
LINE
  5
1B7
100
AcDbEntity
  8
1
100
AcDbLine
 10
106.771554
 20
-329.256869
 30
0.0
 11
110.771554
 21
-329.256869
 31
0.0
  0
LINE
  5
1B8
100
AcDbEntity
  8
1
100
AcDbLine
 10
104.771554
 20
-356.611006
 30
0.0
 11
104.771554
 21
-359.206156
 31
0.0
  0
LINE
  5
1B9
100
AcDbEntity
  8
1
100
AcDbLine
 10
112.771554
 20
-356.611006
 30
0.0
 11
112.771554
 21
-359.206156
 31
0.0
  0
ARC
  5
1BA
100
AcDbEntity
  8
1
100
AcDbCircle
 10
116.771554
 20
-356.611006
 30
0.0
 40
4.0
100
AcDbArc
 50
90.0
 51
180.0
  0
ARC
  5
1BB
100
AcDbEntity
  8
1
100
AcDbCircle
 10
100.771554
 20
-356.611006
 30
0.0
 40
4.0
100
AcDbArc
 50
0.0
 51
90.0
  0
LINE
  5
1BC
100
AcDbEntity
  8
1
100
AcDbLine
 10
85.771554
 20
-360.432666
 30
0.0
 11
104.578872
 21
-360.432666
 31
0.0
  0
LINE
  5
1BD
100
AcDbEntity
  8
1
100
AcDbLine
 10
112.964235
 20
-360.432666
 30
0.0
 11
133.771554
 21
-360.432666
 31
0.0
  0
ARC
  5
1BE
100
AcDbEntity
  8
1
100
AcDbCircle
 10
116.771554
 20
-359.206156
 30
0.0
 40
4.0
100
AcDbArc
 50
180.0
 51
270.0
  0
ARC
  5
1BF
100
AcDbEntity
  8
1
100
AcDbCircle
 10
100.771554
 20
-359.206156
 30
0.0
 40
4.0
100
AcDbArc
 50
270.0
 51
360.0
  0
LINE
  5
1C0
100
AcDbEntity
  8
1
100
AcDbLine
 10
116.771554
 20
-352.611006
 30
0.0
 11
118.771554
 21
-352.611006
 31
0.0
  0
LINE
  5
1C1
100
AcDbEntity
  8
1
100
AcDbLine
 10
98.771554
 20
-352.611006
 30
0.0
 11
100.771554
 21
-352.611006
 31
0.0
  0
LINE
  5
1C2
100
AcDbEntity
  8
1
100
AcDbLine
 10
104.771554
 20
-352.611006
 30
0.0
 11
112.771554
 21
-352.611006
 31
0.0
  0
LINE
  5
1C3
100
AcDbEntity
  8
1
100
AcDbLine
 10
116.771554
 20
-363.206156
 30
0.0
 11
122.07563
 21
-363.206156
 31
0.0
  0
LINE
  5
1C4
100
AcDbEntity
  8
1
100
AcDbLine
 10
98.467478
 20
-363.206156
 30
0.0
 11
100.771554
 21
-363.206156
 31
0.0
  0
LINE
  5
1C5
100
AcDbEntity
  8
1
100
AcDbLine
 10
104.771554
 20
-363.206156
 30
0.0
 11
112.771554
 21
-363.206156
 31
0.0
  0
LINE
  5
1C6
100
AcDbEntity
  8
1
100
AcDbLine
 10
106.581675
 20
-358.703651
 30
0.0
 11
110.961432
 21
-358.703651
 31
0.0
  0
ARC
  5
1C7
100
AcDbEntity
  8
1
100
AcDbCircle
 10
110.961432
 20
-360.703651
 30
0.0
 40
2.0
100
AcDbArc
 50
14.452808
 51
90.0
  0
ARC
  5
1C8
100
AcDbEntity
  8
1
100
AcDbCircle
 10
106.581675
 20
-360.703651
 30
0.0
 40
2.0
100
AcDbArc
 50
90.0
 51
165.547192
  0
ARC
  5
1C9
100
AcDbEntity
  8
1
100
AcDbCircle
 10
-611.345756
 20
-295.958072
 30
0.0
 40
3.566005
100
AcDbArc
 50
90.0
 51
180.0
  0
ARC
  5
1CA
100
AcDbEntity
  8
1
100
AcDbCircle
 10
-578.511137
 20
-295.958072
 30
0.0
 40
3.566005
100
AcDbArc
 50
0.0
 51
90.0
  0
LINE
  5
1CB
100
AcDbEntity
  8
1
100
AcDbLine
 10
-574.945132
 20
-295.958072
 30
0.0
 11
-574.945132
 21
-353.956762
 31
0.0
  0
LINE
  5
1CC
100
AcDbEntity
  8
1
100
AcDbLine
 10
-614.911761
 20
-295.958072
 30
0.0
 11
-614.911761
 21
-353.956762
 31
0.0
  0
ARC
  5
1CD
100
AcDbEntity
  8
1
100
AcDbCircle
 10
-569.945132
 20
-353.956762
 30
0.0
 40
5.0
100
AcDbArc
 50
180.0
 51
259.453821
  0
ARC
  5
1CE
100
AcDbEntity
  8
1
100
AcDbCircle
 10
-619.911761
 20
-353.956762
 30
0.0
 40
5.0
100
AcDbArc
 50
280.546179
 51
360.0
  0
LINE
  5
1CF
100
AcDbEntity
  8
1
100
AcDbLine
 10
141.771554
 20
-644.883016
 30
0.0
 11
141.771554
 21
-662.150965
 31
0.0
  0
LINE
  5
1D0
100
AcDbEntity
  8
1
100
AcDbLine
 10
84.771554
 20
-646.150965
 30
0.0
 11
84.771554
 21
-662.150965
 31
0.0
  0
LINE
  5
1D1
100
AcDbEntity
  8
1
100
AcDbLine
 10
140.271554
 20
-642.284939
 30
0.0
 11
135.271554
 21
-639.398188
 31
0.0
  0
LINE
  5
1D2
100
AcDbEntity
  8
1
100
AcDbLine
 10
133.771554
 20
-623.869263
 30
0.0
 11
133.771554
 21
-636.800112
 31
0.0
  0
LINE
  5
1D3
100
AcDbEntity
  8
1
100
AcDbLine
 10
86.771554
 20
-619.869263
 30
0.0
 11
86.771554
 21
-641.678829
 31
0.0
  0
ARC
  5
1D4
100
AcDbEntity
  8
1
100
AcDbCircle
 10
138.771554
 20
-644.883016
 30
0.0
 40
3.0
100
AcDbArc
 50
0.0
 51
60.0
  0
ARC
  5
1D5
100
AcDbEntity
  8
1
100
AcDbCircle
 10
87.771554
 20
-646.150965
 30
0.0
 40
3.0
100
AcDbArc
 50
131.810315
 51
180.0
  0
ARC
  5
1D6
100
AcDbEntity
  8
1
100
AcDbCircle
 10
83.771554
 20
-641.678829
 30
0.0
 40
3.0
100
AcDbArc
 50
311.810315
 51
360.0
  0
ARC
  5
1D7
100
AcDbEntity
  8
1
100
AcDbCircle
 10
136.771554
 20
-636.800112
 30
0.0
 40
3.0
100
AcDbArc
 50
180.0
 51
240.0
  0
ARC
  5
1D8
100
AcDbEntity
  8
1
100
AcDbCircle
 10
141.771554
 20
-627.650965
 30
0.0
 40
8.0
100
AcDbArc
 50
90.0
 51
180.0
  0
ARC
  5
1D9
100
AcDbEntity
  8
1
100
AcDbCircle
 10
82.771554
 20
-623.650965
 30
0.0
 40
4.0
100
AcDbArc
 50
0.0
 51
90.0
  0
ARC
  5
1DA
100
AcDbEntity
  8
1
100
AcDbCircle
 10
82.771554
 20
-619.869263
 30
0.0
 40
4.0
100
AcDbArc
 50
0.0
 51
90.0
  0
ARC
  5
1DB
100
AcDbEntity
  8
1
100
AcDbCircle
 10
141.771554
 20
-623.869263
 30
0.0
 40
8.0
100
AcDbArc
 50
90.0
 51
180.0
  0
LINE
  5
1DC
100
AcDbEntity
  8
1
100
AcDbLine
 10
-622.621398
 20
-643.150965
 30
0.0
 11
-567.235495
 21
-643.150965
 31
0.0
  0
LINE
  5
1DD
100
AcDbEntity
  8
1
100
AcDbLine
 10
-567.235495
 20
-646.150965
 30
0.0
 11
-622.621398
 21
-646.150965
 31
0.0
  0
LINE
  5
1DE
100
AcDbEntity
  8
1
100
AcDbLine
 10
91.900721
 20
-646.807996
 30
0.0
 11
134.771554
 21
-646.807996
 31
0.0
  0
LINE
  5
1DF
100
AcDbEntity
  8
1
100
AcDbLine
 10
86.771554
 20
-615.869263
 30
0.0
 11
104.578872
 21
-615.869263
 31
0.0
  0
LINE
  5
1E0
100
AcDbEntity
  8
1
100
AcDbLine
 10
112.964235
 20
-615.869263
 30
0.0
 11
133.771554
 21
-615.869263
 31
0.0
  0
LINE
  5
1E1
100
AcDbEntity
  8
1
100
AcDbLine
 10
98.467478
 20
-613.095774
 30
0.0
 11
100.771554
 21
-613.095774
 31
0.0
  0
LINE
  5
1E2
100
AcDbEntity
  8
1
100
AcDbLine
 10
104.771554
 20
-613.095774
 30
0.0
 11
112.771554
 21
-613.095774
 31
0.0
  0
LINE
  5
1E3
100
AcDbEntity
  8
1
100
AcDbLine
 10
116.771554
 20
-613.095774
 30
0.0
 11
122.07563
 21
-613.095774
 31
0.0
  0
LINE
  5
1E4
100
AcDbEntity
  8
1
100
AcDbLine
 10
86.771554
 20
-637.869468
 30
0.0
 11
133.771554
 21
-637.869468
 31
0.0
  0
ARC
  5
1E5
100
AcDbEntity
  8
1
100
AcDbCircle
 10
91.900721
 20
-641.678829
 30
0.0
 40
5.129167
100
AcDbArc
 50
180.0
 51
270.0
  0
ARC
  5
1E6
100
AcDbEntity
  8
1
100
AcDbCircle
 10
91.771554
 20
-628.690924
 30
0.0
 40
5.0
100
AcDbArc
 50
90.0
 51
180.0
  0
ARC
  5
1E7
100
AcDbEntity
  8
1
100
AcDbCircle
 10
128.771554
 20
-628.690924
 30
0.0
 40
5.0
100
AcDbArc
 50
0.0
 51
90.0
  0
ARC
  5
1E8
100
AcDbEntity
  8
1
100
AcDbCircle
 10
134.771554
 20
-641.807996
 30
0.0
 40
5.0
100
AcDbArc
 50
270.0
 51
357.865071
  0
LINE
  5
1E9
100
AcDbEntity
  8
1
100
AcDbLine
 10
104.771554
 20
-617.095774
 30
0.0
 11
104.771554
 21
-619.690924
 31
0.0
  0
LINE
  5
1EA
100
AcDbEntity
  8
1
100
AcDbLine
 10
112.771554
 20
-617.095774
 30
0.0
 11
112.771554
 21
-619.690924
 31
0.0
  0
ARC
  5
1EB
100
AcDbEntity
  8
1
100
AcDbCircle
 10
100.771554
 20
-619.690924
 30
0.0
 40
4.0
100
AcDbArc
 50
270.0
 51
360.0
  0
ARC
  5
1EC
100
AcDbEntity
  8
1
100
AcDbCircle
 10
116.771554
 20
-619.690924
 30
0.0
 40
4.0
100
AcDbArc
 50
180.0
 51
270.0
  0
ARC
  5
1ED
100
AcDbEntity
  8
1
100
AcDbCircle
 10
116.771554
 20
-617.095774
 30
0.0
 40
4.0
100
AcDbArc
 50
90.0
 51
180.0
  0
ARC
  5
1EE
100
AcDbEntity
  8
1
100
AcDbCircle
 10
100.771554
 20
-617.095774
 30
0.0
 40
4.0
100
AcDbArc
 50
0.0
 51
90.0
  0
LINE
  5
1EF
100
AcDbEntity
  8
1
100
AcDbLine
 10
116.771554
 20
-623.690924
 30
0.0
 11
128.771554
 21
-623.690924
 31
0.0
  0
LINE
  5
1F0
100
AcDbEntity
  8
1
100
AcDbLine
 10
91.771554
 20
-623.690924
 30
0.0
 11
100.771554
 21
-623.690924
 31
0.0
  0
LINE
  5
1F1
100
AcDbEntity
  8
1
100
AcDbLine
 10
104.771554
 20
-623.690924
 30
0.0
 11
112.771554
 21
-623.690924
 31
0.0
  0
LINE
  5
1F2
100
AcDbEntity
  8
1
100
AcDbLine
 10
106.581675
 20
-617.598279
 30
0.0
 11
110.961432
 21
-617.598279
 31
0.0
  0
ARC
  5
1F3
100
AcDbEntity
  8
1
100
AcDbCircle
 10
110.961432
 20
-615.598279
 30
0.0
 40
2.0
100
AcDbArc
 50
270.0
 51
345.547192
  0
ARC
  5
1F4
100
AcDbEntity
  8
1
100
AcDbCircle
 10
106.581675
 20
-615.598279
 30
0.0
 40
2.0
100
AcDbArc
 50
194.452808
 51
270.0
  0
LINE
  5
1F5
100
AcDbEntity
  8
1
  6
CENTER
 62
     2
100
AcDbLine
 10
-615.928446
 20
-684.489435
 30
0.0
 11
-615.928446
 21
-652.735498
 31
0.0
  0
LINE
  5
1F6
100
AcDbEntity
  8
1
  6
CENTER
 62
     2
100
AcDbLine
 10
-573.928446
 20
-684.489435
 30
0.0
 11
-573.928446
 21
-652.735498
 31
0.0
  0
LINE
  5
1F7
100
AcDbEntity
  8
1
  6
CENTER
 62
     2
100
AcDbLine
 10
92.271554
 20
-652.735498
 30
0.0
 11
92.271554
 21
-684.489435
 31
0.0
  0
LINE
  5
1F8
100
AcDbEntity
  8
1
  6
CENTER
 62
     2
100
AcDbLine
 10
134.271554
 20
-652.735498
 30
0.0
 11
134.271554
 21
-684.489435
 31
0.0
  0
LINE
  5
1F9
100
AcDbEntity
  8
1
100
AcDbLine
 10
-624.928446
 20
-664.150965
 30
0.0
 11
-564.928446
 21
-664.150965
 31
0.0
  0
LINE
  5
1FA
100
AcDbEntity
  8
1
100
AcDbLine
 10
-624.928446
 20
-670.150965
 30
0.0
 11
-564.928446
 21
-670.150965
 31
0.0
  0
LINE
  5
1FB
100
AcDbEntity
  8
1
100
AcDbLine
 10
83.271554
 20
-664.150965
 30
0.0
 11
143.271554
 21
-664.150965
 31
0.0
  0
LINE
  5
1FC
100
AcDbEntity
  8
1
100
AcDbLine
 10
83.271554
 20
-670.150965
 30
0.0
 11
143.271554
 21
-670.150965
 31
0.0
  0
LINE
  5
1FD
100
AcDbEntity
  8
1
100
AcDbLine
 10
143.271554
 20
-662.150965
 30
0.0
 11
143.271554
 21
-670.150965
 31
0.0
  0
LINE
  5
1FE
100
AcDbEntity
  8
1
100
AcDbLine
 10
83.271554
 20
-662.150965
 30
0.0
 11
83.271554
 21
-670.150965
 31
0.0
  0
LINE
  5
1FF
100
AcDbEntity
  8
1
100
AcDbLine
 10
-566.428446
 20
-672.150965
 30
0.0
 11
-566.428446
 21
-676.929277
 31
0.0
  0
LINE
  5
200
100
AcDbEntity
  8
1
100
AcDbLine
 10
-566.428446
 20
-676.929277
 30
0.0
 11
-567.678446
 21
-677.650965
 31
0.0
  0
LINE
  5
201
100
AcDbEntity
  8
1
100
AcDbLine
 10
-570.178446
 20
-672.150965
 30
0.0
 11
-570.178446
 21
-676.929277
 31
0.0
  0
ARC
  5
202
100
AcDbEntity
  8
1
100
AcDbCircle
 10
-568.303446
 20
-674.518901
 30
0.0
 40
3.053774
100
AcDbArc
 50
232.121121
 51
307.878879
  0
ARC
  5
203
100
AcDbEntity
  8
1
100
AcDbCircle
 10
-573.928446
 20
-666.322675
 30
0.0
 40
11.25
100
AcDbArc
 50
250.528777
 51
289.471219
  0
LINE
  5
204
100
AcDbEntity
  8
1
100
AcDbLine
 10
-581.428446
 20
-672.150965
 30
0.0
 11
-581.428446
 21
-676.929277
 31
0.0
  0
LINE
  5
205
100
AcDbEntity
  8
1
100
AcDbLine
 10
-581.428446
 20
-676.929277
 30
0.0
 11
-580.178446
 21
-677.650965
 31
0.0
  0
LINE
  5
206
100
AcDbEntity
  8
1
100
AcDbLine
 10
-580.178446
 20
-677.650965
 30
0.0
 11
-567.678446
 21
-677.650965
 31
0.0
  0
LINE
  5
207
100
AcDbEntity
  8
1
100
AcDbLine
 10
-577.678446
 20
-672.150965
 30
0.0
 11
-577.678446
 21
-676.929277
 31
0.0
  0
ARC
  5
208
100
AcDbEntity
  8
1
100
AcDbCircle
 10
-579.553446
 20
-674.518901
 30
0.0
 40
3.053774
100
AcDbArc
 50
232.121121
 51
307.878879
  0
LINE
  5
209
100
AcDbEntity
  8
1
100
AcDbLine
 10
-566.228446
 20
-670.150965
 30
0.0
 11
-566.228446
 21
-672.150965
 31
0.0
  0
LINE
  5
20A
100
AcDbEntity
  8
1
100
AcDbLine
 10
-566.228446
 20
-672.150965
 30
0.0
 11
-581.628446
 21
-672.150965
 31
0.0
  0
LINE
  5
20B
100
AcDbEntity
  8
1
100
AcDbLine
 10
-581.628446
 20
-672.150965
 30
0.0
 11
-581.628446
 21
-670.150965
 31
0.0
  0
LINE
  5
20C
100
AcDbEntity
  8
1
100
AcDbLine
 10
-573.928446
 20
-672.150965
 30
0.0
 11
-574.428446
 21
-670.150965
 31
0.0
  0
LINE
  5
20D
100
AcDbEntity
  8
1
100
AcDbLine
 10
-573.928446
 20
-670.150965
 30
0.0
 11
-573.428446
 21
-672.150965
 31
0.0
  0
LINE
  5
20E
100
AcDbEntity
  8
1
100
AcDbLine
 10
-608.428446
 20
-672.150965
 30
0.0
 11
-608.428446
 21
-676.929277
 31
0.0
  0
LINE
  5
20F
100
AcDbEntity
  8
1
100
AcDbLine
 10
-608.428446
 20
-676.929277
 30
0.0
 11
-609.678446
 21
-677.650965
 31
0.0
  0
LINE
  5
210
100
AcDbEntity
  8
1
100
AcDbLine
 10
-612.178446
 20
-672.150965
 30
0.0
 11
-612.178446
 21
-676.929277
 31
0.0
  0
ARC
  5
211
100
AcDbEntity
  8
1
100
AcDbCircle
 10
-610.303446
 20
-674.518901
 30
0.0
 40
3.053774
100
AcDbArc
 50
232.121121
 51
307.878879
  0
ARC
  5
212
100
AcDbEntity
  8
1
100
AcDbCircle
 10
-615.928446
 20
-666.322675
 30
0.0
 40
11.25
100
AcDbArc
 50
250.528777
 51
289.471219
  0
LINE
  5
213
100
AcDbEntity
  8
1
100
AcDbLine
 10
-623.428446
 20
-672.150965
 30
0.0
 11
-623.428446
 21
-676.929277
 31
0.0
  0
LINE
  5
214
100
AcDbEntity
  8
1
100
AcDbLine
 10
-623.428446
 20
-676.929277
 30
0.0
 11
-622.178446
 21
-677.650965
 31
0.0
  0
LINE
  5
215
100
AcDbEntity
  8
1
100
AcDbLine
 10
-622.178446
 20
-677.650965
 30
0.0
 11
-609.678446
 21
-677.650965
 31
0.0
  0
LINE
  5
216
100
AcDbEntity
  8
1
100
AcDbLine
 10
-619.678446
 20
-672.150965
 30
0.0
 11
-619.678446
 21
-676.929277
 31
0.0
  0
ARC
  5
217
100
AcDbEntity
  8
1
100
AcDbCircle
 10
-621.553446
 20
-674.518901
 30
0.0
 40
3.053774
100
AcDbArc
 50
232.121121
 51
307.878879
  0
LINE
  5
218
100
AcDbEntity
  8
1
100
AcDbLine
 10
-608.228446
 20
-670.150965
 30
0.0
 11
-608.228446
 21
-672.150965
 31
0.0
  0
LINE
  5
219
100
AcDbEntity
  8
1
100
AcDbLine
 10
-608.228446
 20
-672.150965
 30
0.0
 11
-623.628446
 21
-672.150965
 31
0.0
  0
LINE
  5
21A
100
AcDbEntity
  8
1
100
AcDbLine
 10
-623.628446
 20
-672.150965
 30
0.0
 11
-623.628446
 21
-670.150965
 31
0.0
  0
LINE
  5
21B
100
AcDbEntity
  8
1
100
AcDbLine
 10
-615.928446
 20
-672.150965
 30
0.0
 11
-616.428446
 21
-670.150965
 31
0.0
  0
LINE
  5
21C
100
AcDbEntity
  8
1
100
AcDbLine
 10
-615.928446
 20
-670.150965
 30
0.0
 11
-615.428446
 21
-672.150965
 31
0.0
  0
LINE
  5
21D
100
AcDbEntity
  8
1
100
AcDbLine
 10
140.771554
 20
-672.150965
 30
0.0
 11
140.771554
 21
-677.650965
 31
0.0
  0
ARC
  5
21E
100
AcDbEntity
  8
1
100
AcDbCircle
 10
137.521554
 20
-669.972206
 30
0.0
 40
7.678759
100
AcDbArc
 50
244.96034
 51
295.03966
  0
LINE
  5
21F
100
AcDbEntity
  8
1
100
AcDbLine
 10
141.971554
 20
-672.150965
 30
0.0
 11
126.571554
 21
-672.150965
 31
0.0
  0
LINE
  5
220
100
AcDbEntity
  8
1
100
AcDbLine
 10
127.771554
 20
-672.150965
 30
0.0
 11
127.771554
 21
-677.650965
 31
0.0
  0
LINE
  5
221
100
AcDbEntity
  8
1
100
AcDbLine
 10
127.771554
 20
-677.650965
 30
0.0
 11
140.771554
 21
-677.650965
 31
0.0
  0
LINE
  5
222
100
AcDbEntity
  8
1
100
AcDbLine
 10
134.271554
 20
-672.150965
 30
0.0
 11
134.271554
 21
-676.929277
 31
0.0
  0
ARC
  5
223
100
AcDbEntity
  8
1
100
AcDbCircle
 10
131.021554
 20
-669.972206
 30
0.0
 40
7.678759
100
AcDbArc
 50
244.96034
 51
295.03966
  0
LINE
  5
224
100
AcDbEntity
  8
1
100
AcDbLine
 10
141.971554
 20
-670.150965
 30
0.0
 11
141.971554
 21
-672.150965
 31
0.0
  0
LINE
  5
225
100
AcDbEntity
  8
1
100
AcDbLine
 10
126.571554
 20
-672.150965
 30
0.0
 11
126.571554
 21
-670.150965
 31
0.0
  0
LINE
  5
226
100
AcDbEntity
  8
1
100
AcDbLine
 10
98.771554
 20
-672.150965
 30
0.0
 11
98.771554
 21
-677.650965
 31
0.0
  0
ARC
  5
227
100
AcDbEntity
  8
1
100
AcDbCircle
 10
95.521554
 20
-669.972206
 30
0.0
 40
7.678759
100
AcDbArc
 50
244.96034
 51
295.03966
  0
LINE
  5
228
100
AcDbEntity
  8
1
100
AcDbLine
 10
99.971554
 20
-672.150965
 30
0.0
 11
84.571554
 21
-672.150965
 31
0.0
  0
LINE
  5
229
100
AcDbEntity
  8
1
100
AcDbLine
 10
85.771554
 20
-672.150965
 30
0.0
 11
85.771554
 21
-677.650965
 31
0.0
  0
LINE
  5
22A
100
AcDbEntity
  8
1
100
AcDbLine
 10
85.771554
 20
-677.650965
 30
0.0
 11
98.771554
 21
-677.650965
 31
0.0
  0
LINE
  5
22B
100
AcDbEntity
  8
1
100
AcDbLine
 10
92.271554
 20
-672.150965
 30
0.0
 11
92.271554
 21
-676.929277
 31
0.0
  0
ARC
  5
22C
100
AcDbEntity
  8
1
100
AcDbCircle
 10
89.021554
 20
-669.972206
 30
0.0
 40
7.678759
100
AcDbArc
 50
244.96034
 51
295.03966
  0
LINE
  5
22D
100
AcDbEntity
  8
1
100
AcDbLine
 10
99.971554
 20
-670.150965
 30
0.0
 11
99.971554
 21
-672.150965
 31
0.0
  0
LINE
  5
22E
100
AcDbEntity
  8
1
100
AcDbLine
 10
84.571554
 20
-672.150965
 30
0.0
 11
84.571554
 21
-670.150965
 31
0.0
  0
LINE
  5
22F
100
AcDbEntity
  8
1
  6
CENTER
 62
     2
100
AcDbLine
 10
-592.328446
 20
-688.561304
 30
0.0
 11
-592.328446
 21
170.242957
 31
0.0
  0
LINE
  5
230
100
AcDbEntity
  8
1
100
AcDbLine
 10
-618.928446
 20
-390.867667
 30
0.0
 11
-619.042396
 21
-390.6703
 31
0.0
  0
ARC
  5
231
100
AcDbEntity
  8
1
100
AcDbCircle
 10
-625.9706
 20
-394.6703
 30
0.0
 40
8.0
100
AcDbArc
 50
30.0
 51
108.369795
  0
ARC
  5
232
100
AcDbEntity
  8
1
100
AcDbCircle
 10
-620.608353
 20
-390.867667
 30
0.0
 40
1.679906
100
AcDbArc
 50
284.78709
 51
360.0
  0
ARC
  5
233
100
AcDbEntity
  8
1
100
AcDbCircle
 10
-594.928446
 20
-488.150965
 30
0.0
 40
100.2
100
AcDbArc
 50
103.563975
 51
103.858269
  0
LINE
  5
234
100
AcDbEntity
  8
1
100
AcDbLine
 10
-618.928446
 20
-585.434262
 30
0.0
 11
-619.042396
 21
-585.63163
 31
0.0
  0
ARC
  5
235
100
AcDbEntity
  8
1
100
AcDbCircle
 10
-625.9706
 20
-581.63163
 30
0.0
 40
8.0
100
AcDbArc
 50
251.630205
 51
330.0
  0
ARC
  5
236
100
AcDbEntity
  8
1
100
AcDbCircle
 10
-620.608353
 20
-585.434262
 30
0.0
 40
1.679906
100
AcDbArc
 50
0.0
 51
75.21291
  0
ARC
  5
237
100
AcDbEntity
  8
1
100
AcDbCircle
 10
-594.928446
 20
-488.150965
 30
0.0
 40
100.2
100
AcDbArc
 50
256.141731
 51
256.436025
  0
ARC
  5
238
100
AcDbEntity
  8
1
100
AcDbCircle
 10
-594.928446
 20
-488.150965
 30
0.0
 40
98.935687
100
AcDbArc
 50
104.78709
 51
255.21291
  0
ARC
  5
239
100
AcDbEntity
  8
1
100
AcDbCircle
 10
-594.928446
 20
-488.150965
 30
0.0
 40
98.935687
100
AcDbArc
 50
283.689863
 51
76.310137
  0
ARC
  5
23A
100
AcDbEntity
  8
1
100
AcDbCircle
 10
-594.928446
 20
-488.150965
 30
0.0
 40
97.755
100
AcDbArc
 50
103.909968
 51
256.090032
  0
ARC
  5
23B
100
AcDbEntity
  8
1
100
AcDbCircle
 10
-594.928446
 20
-488.150965
 30
0.0
 40
97.755
100
AcDbArc
 50
283.909968
 51
76.090032
  0
LINE
  5
23C
100
AcDbEntity
  8
1
100
AcDbLine
 10
-616.428446
 20
-428.150965
 30
0.0
 11
-571.928446
 21
-428.150965
 31
0.0
  0
LINE
  5
23D
100
AcDbEntity
  8
1
100
AcDbLine
 10
-616.428446
 20
-548.150965
 30
0.0
 11
-571.928446
 21
-548.150965
 31
0.0
  0
LINE
  5
23E
100
AcDbEntity
  8
1
100
AcDbLine
 10
-571.428446
 20
-395.028466
 30
0.0
 11
-571.428446
 21
-392.150965
 31
0.0
  0
LINE
  5
23F
100
AcDbEntity
  8
1
100
AcDbLine
 10
-618.428446
 20
-590.396992
 30
0.0
 11
-618.428446
 21
-550.150965
 31
0.0
  0
LINE
  5
240
100
AcDbEntity
  8
1
100
AcDbLine
 10
-618.428446
 20
-426.150965
 30
0.0
 11
-618.428446
 21
-385.904938
 31
0.0
  0
LINE
  5
241
100
AcDbEntity
  8
1
100
AcDbLine
 10
-569.928446
 20
-578.150965
 30
0.0
 11
-569.928446
 21
-550.150965
 31
0.0
  0
LINE
  5
242
100
AcDbEntity
  8
1
100
AcDbLine
 10
-569.928446
 20
-426.150965
 30
0.0
 11
-569.928446
 21
-398.150965
 31
0.0
  0
LINE
  5
243
100
AcDbEntity
  8
1
100
AcDbLine
 10
-613.428446
 20
-430.150965
 30
0.0
 11
-613.428446
 21
-546.150965
 31
0.0
  0
LINE
  5
244
100
AcDbEntity
  8
1
100
AcDbLine
 10
-576.428446
 20
-430.150965
 30
0.0
 11
-576.428446
 21
-546.150965
 31
0.0
  0
LINE
  5
245
100
AcDbEntity
  8
1
100
AcDbLine
 10
-619.428446
 20
-428.150965
 30
0.0
 11
-619.428446
 21
-548.150965
 31
0.0
  0
ARC
  5
246
100
AcDbEntity
  8
1
100
AcDbCircle
 10
-616.428446
 20
-426.150965
 30
0.0
 40
2.0
100
AcDbArc
 50
180.0
 51
270.0
  0
ARC
  5
247
100
AcDbEntity
  8
1
100
AcDbCircle
 10
-616.428446
 20
-550.150965
 30
0.0
 40
2.0
100
AcDbArc
 50
90.0
 51
180.0
  0
ARC
  5
248
100
AcDbEntity
  8
1
100
AcDbCircle
 10
-571.928446
 20
-550.150965
 30
0.0
 40
2.0
100
AcDbArc
 50
0.0
 51
90.0
  0
ARC
  5
249
100
AcDbEntity
  8
1
100
AcDbCircle
 10
-571.928446
 20
-426.150965
 30
0.0
 40
2.0
100
AcDbArc
 50
270.0
 51
360.0
  0
LINE
  5
24A
100
AcDbEntity
  8
1
100
AcDbLine
 10
-570.428446
 20
-428.087456
 30
0.0
 11
-570.428446
 21
-548.214473
 31
0.0
  0
ARC
  5
24B
100
AcDbEntity
  8
1
100
AcDbCircle
 10
-578.428446
 20
-430.150965
 30
0.0
 40
2.0
100
AcDbArc
 50
0.0
 51
87.134016
  0
ARC
  5
24C
100
AcDbEntity
  8
1
100
AcDbCircle
 10
-611.428446
 20
-430.150965
 30
0.0
 40
2.0
100
AcDbArc
 50
90.0
 51
180.0
  0
ARC
  5
24D
100
AcDbEntity
  8
1
100
AcDbCircle
 10
-568.428446
 20
-428.087456
 30
0.0
 40
2.0
100
AcDbArc
 50
151.044976
 51
180.0
  0
ARC
  5
24E
100
AcDbEntity
  8
1
100
AcDbCircle
 10
-568.428446
 20
-548.214473
 30
0.0
 40
2.0
100
AcDbArc
 50
180.0
 51
208.955024
  0
ARC
  5
24F
100
AcDbEntity
  8
1
100
AcDbCircle
 10
-578.428446
 20
-546.150965
 30
0.0
 40
2.0
100
AcDbArc
 50
272.865984
 51
360.0
  0
ARC
  5
250
100
AcDbEntity
  8
1
100
AcDbCircle
 10
-611.428446
 20
-546.150965
 30
0.0
 40
2.0
100
AcDbArc
 50
180.0
 51
270.0
  0
ARC
  5
251
100
AcDbEntity
  8
1
100
AcDbCircle
 10
-617.428446
 20
-428.150965
 30
0.0
 40
2.0
100
AcDbArc
 50
138.590378
 51
180.0
  0
ARC
  5
252
100
AcDbEntity
  8
1
100
AcDbCircle
 10
-620.428446
 20
-425.505213
 30
0.0
 40
2.0
100
AcDbArc
 50
318.590378
 51
360.0
  0
ARC
  5
253
100
AcDbEntity
  8
1
100
AcDbCircle
 10
-617.428446
 20
-548.150965
 30
0.0
 40
2.0
100
AcDbArc
 50
180.0
 51
221.409622
  0
ARC
  5
254
100
AcDbEntity
  8
1
100
AcDbCircle
 10
-620.428446
 20
-550.796716
 30
0.0
 40
2.0
100
AcDbArc
 50
0.0
 51
41.409622
  0
LINE
  5
255
100
AcDbEntity
  8
1
100
AcDbLine
 10
-611.428446
 20
-485.150965
 30
0.0
 11
-606.328446
 21
-485.150965
 31
0.0
  0
LINE
  5
256
100
AcDbEntity
  8
1
100
AcDbLine
 10
-611.428446
 20
-491.150965
 30
0.0
 11
-606.328446
 21
-491.150965
 31
0.0
  0
LINE
  5
257
100
AcDbEntity
  8
1
100
AcDbLine
 10
-611.428446
 20
-460.150965
 30
0.0
 11
-606.328446
 21
-460.150965
 31
0.0
  0
LINE
  5
258
100
AcDbEntity
  8
1
100
AcDbLine
 10
-611.428446
 20
-454.150965
 30
0.0
 11
-606.328446
 21
-454.150965
 31
0.0
  0
ARC
  5
259
100
AcDbEntity
  8
1
100
AcDbCircle
 10
-578.428446
 20
-483.150965
 30
0.0
 40
2.0
100
AcDbArc
 50
272.865984
 51
360.0
  0
ARC
  5
25A
100
AcDbEntity
  8
1
100
AcDbCircle
 10
-578.428446
 20
-493.150965
 30
0.0
 40
2.0
100
AcDbArc
 50
0.0
 51
87.134016
  0
ARC
  5
25B
100
AcDbEntity
  8
1
100
AcDbCircle
 10
-611.428446
 20
-493.150965
 30
0.0
 40
2.0
100
AcDbArc
 50
90.0
 51
180.0
  0
ARC
  5
25C
100
AcDbEntity
  8
1
100
AcDbCircle
 10
-611.428446
 20
-483.150965
 30
0.0
 40
2.0
100
AcDbArc
 50
180.0
 51
270.0
  0
ARC
  5
25D
100
AcDbEntity
  8
1
100
AcDbCircle
 10
-611.428446
 20
-462.150965
 30
0.0
 40
2.0
100
AcDbArc
 50
90.0
 51
180.0
  0
ARC
  5
25E
100
AcDbEntity
  8
1
100
AcDbCircle
 10
-578.428446
 20
-462.150965
 30
0.0
 40
2.0
100
AcDbArc
 50
0.0
 51
87.134016
  0
ARC
  5
25F
100
AcDbEntity
  8
1
100
AcDbCircle
 10
-578.428446
 20
-452.150965
 30
0.0
 40
2.0
100
AcDbArc
 50
272.865984
 51
360.0
  0
ARC
  5
260
100
AcDbEntity
  8
1
100
AcDbCircle
 10
-611.428446
 20
-452.150965
 30
0.0
 40
2.0
100
AcDbArc
 50
180.0
 51
270.0
  0
LINE
  5
261
100
AcDbEntity
  8
1
100
AcDbLine
 10
-611.428446
 20
-516.150965
 30
0.0
 11
-606.328446
 21
-516.150965
 31
0.0
  0
LINE
  5
262
100
AcDbEntity
  8
1
100
AcDbLine
 10
-611.428446
 20
-522.150965
 30
0.0
 11
-606.328446
 21
-522.150965
 31
0.0
  0
ARC
  5
263
100
AcDbEntity
  8
1
100
AcDbCircle
 10
-611.428446
 20
-514.150965
 30
0.0
 40
2.0
100
AcDbArc
 50
180.0
 51
270.0
  0
ARC
  5
264
100
AcDbEntity
  8
1
100
AcDbCircle
 10
-578.428446
 20
-514.150965
 30
0.0
 40
2.0
100
AcDbArc
 50
272.865984
 51
360.0
  0
ARC
  5
265
100
AcDbEntity
  8
1
100
AcDbCircle
 10
-578.428446
 20
-524.150965
 30
0.0
 40
2.0
100
AcDbArc
 50
0.0
 51
87.134016
  0
ARC
  5
266
100
AcDbEntity
  8
1
100
AcDbCircle
 10
-611.428446
 20
-524.150965
 30
0.0
 40
2.0
100
AcDbArc
 50
90.0
 51
180.0
  0
LINE
  5
267
100
AcDbEntity
  8
1
100
AcDbLine
 10
-568.428446
 20
-485.150965
 30
0.0
 11
-540.428446
 21
-485.150965
 31
0.0
  0
LINE
  5
268
100
AcDbEntity
  8
1
100
AcDbLine
 10
-530.428446
 20
-485.150965
 30
0.0
 11
-508.072243
 21
-485.150965
 31
0.0
  0
LINE
  5
269
100
AcDbEntity
  8
1
100
AcDbLine
 10
-568.428446
 20
-491.150965
 30
0.0
 11
-540.428446
 21
-491.150965
 31
0.0
  0
LINE
  5
26A
100
AcDbEntity
  8
1
100
AcDbLine
 10
-530.428446
 20
-491.150965
 30
0.0
 11
-508.072243
 21
-491.150965
 31
0.0
  0
LINE
  5
26B
100
AcDbEntity
  8
1
100
AcDbLine
 10
-568.428446
 20
-460.150965
 30
0.0
 11
-540.428446
 21
-460.150965
 31
0.0
  0
LINE
  5
26C
100
AcDbEntity
  8
1
100
AcDbLine
 10
-530.428446
 20
-460.150965
 30
0.0
 11
-511.904353
 21
-460.150965
 31
0.0
  0
LINE
  5
26D
100
AcDbEntity
  8
1
100
AcDbLine
 10
-530.428446
 20
-454.150965
 30
0.0
 11
-515.726174
 21
-454.150965
 31
0.0
  0
LINE
  5
26E
100
AcDbEntity
  8
1
100
AcDbLine
 10
-568.428446
 20
-454.150965
 30
0.0
 11
-540.428446
 21
-454.150965
 31
0.0
  0
LINE
  5
26F
100
AcDbEntity
  8
1
100
AcDbLine
 10
-532.428446
 20
-514.150965
 30
0.0
 11
-532.428446
 21
-493.150965
 31
0.0
  0
LINE
  5
270
100
AcDbEntity
  8
1
100
AcDbLine
 10
-538.428446
 20
-514.150965
 30
0.0
 11
-538.428446
 21
-493.150965
 31
0.0
  0
LINE
  5
271
100
AcDbEntity
  8
1
100
AcDbLine
 10
-538.428446
 20
-483.150965
 30
0.0
 11
-538.428446
 21
-462.150965
 31
0.0
  0
LINE
  5
272
100
AcDbEntity
  8
1
100
AcDbLine
 10
-538.428446
 20
-452.150965
 30
0.0
 11
-538.428446
 21
-430.150965
 31
0.0
  0
LINE
  5
273
100
AcDbEntity
  8
1
100
AcDbLine
 10
-532.428446
 20
-483.150965
 30
0.0
 11
-532.428446
 21
-462.150965
 31
0.0
  0
LINE
  5
274
100
AcDbEntity
  8
1
100
AcDbLine
 10
-532.428446
 20
-452.150965
 30
0.0
 11
-532.428446
 21
-429.766463
 31
0.0
  0
ARC
  5
275
100
AcDbEntity
  8
1
100
AcDbCircle
 10
-540.428446
 20
-462.150965
 30
0.0
 40
2.0
100
AcDbArc
 50
0.0
 51
90.0
  0
ARC
  5
276
100
AcDbEntity
  8
1
100
AcDbCircle
 10
-540.428446
 20
-452.150965
 30
0.0
 40
2.0
100
AcDbArc
 50
270.0
 51
360.0
  0
ARC
  5
277
100
AcDbEntity
  8
1
100
AcDbCircle
 10
-530.428446
 20
-452.150965
 30
0.0
 40
2.0
100
AcDbArc
 50
180.0
 51
270.0
  0
ARC
  5
278
100
AcDbEntity
  8
1
100
AcDbCircle
 10
-530.428446
 20
-462.150965
 30
0.0
 40
2.0
100
AcDbArc
 50
90.0
 51
180.0
  0
ARC
  5
279
100
AcDbEntity
  8
1
100
AcDbCircle
 10
-530.428446
 20
-483.150965
 30
0.0
 40
2.0
100
AcDbArc
 50
180.0
 51
270.0
  0
ARC
  5
27A
100
AcDbEntity
  8
1
100
AcDbCircle
 10
-540.428446
 20
-483.150965
 30
0.0
 40
2.0
100
AcDbArc
 50
270.0
 51
360.0
  0
ARC
  5
27B
100
AcDbEntity
  8
1
100
AcDbCircle
 10
-540.428446
 20
-493.150965
 30
0.0
 40
2.0
100
AcDbArc
 50
0.0
 51
90.0
  0
ARC
  5
27C
100
AcDbEntity
  8
1
100
AcDbCircle
 10
-530.428446
 20
-493.150965
 30
0.0
 40
2.0
100
AcDbArc
 50
90.0
 51
180.0
  0
ARC
  5
27D
100
AcDbEntity
  8
1
100
AcDbCircle
 10
-568.428446
 20
-483.150965
 30
0.0
 40
2.0
100
AcDbArc
 50
180.0
 51
270.0
  0
ARC
  5
27E
100
AcDbEntity
  8
1
100
AcDbCircle
 10
-568.428446
 20
-493.150965
 30
0.0
 40
2.0
100
AcDbArc
 50
90.0
 51
180.0
  0
ARC
  5
27F
100
AcDbEntity
  8
1
100
AcDbCircle
 10
-568.428446
 20
-462.150965
 30
0.0
 40
2.0
100
AcDbArc
 50
90.0
 51
180.0
  0
ARC
  5
280
100
AcDbEntity
  8
1
100
AcDbCircle
 10
-568.428446
 20
-452.150965
 30
0.0
 40
2.0
100
AcDbArc
 50
180.0
 51
270.0
  0
ARC
  5
281
100
AcDbEntity
  8
1
100
AcDbCircle
 10
-508.072243
 20
-493.150965
 30
0.0
 40
2.0
100
AcDbArc
 50
356.705324
 51
90.0
  0
ARC
  5
282
100
AcDbEntity
  8
1
100
AcDbCircle
 10
-508.072243
 20
-483.150965
 30
0.0
 40
2.0
100
AcDbArc
 50
270.0
 51
3.294676
  0
ARC
  5
283
100
AcDbEntity
  8
1
100
AcDbCircle
 10
-511.904353
 20
-462.150965
 30
0.0
 40
2.0
100
AcDbArc
 50
17.388579
 51
90.0
  0
ARC
  5
284
100
AcDbEntity
  8
1
100
AcDbCircle
 10
-515.726174
 20
-452.150965
 30
0.0
 40
2.0
100
AcDbArc
 50
270.0
 51
24.443335
  0
ARC
  5
285
100
AcDbEntity
  8
1
100
AcDbCircle
 10
-594.928446
 20
-488.150965
 30
0.0
 40
89.0
100
AcDbArc
 50
3.294676
 51
17.388579
  0
LINE
  5
286
100
AcDbEntity
  8
1
100
AcDbLine
 10
-568.428446
 20
-516.150965
 30
0.0
 11
-540.428446
 21
-516.150965
 31
0.0
  0
LINE
  5
287
100
AcDbEntity
  8
1
100
AcDbLine
 10
-530.428446
 20
-516.150965
 30
0.0
 11
-511.904353
 21
-516.150965
 31
0.0
  0
LINE
  5
288
100
AcDbEntity
  8
1
100
AcDbLine
 10
-530.428446
 20
-522.150965
 30
0.0
 11
-515.726174
 21
-522.150965
 31
0.0
  0
LINE
  5
289
100
AcDbEntity
  8
1
100
AcDbLine
 10
-568.428446
 20
-522.150965
 30
0.0
 11
-540.428446
 21
-522.150965
 31
0.0
  0
LINE
  5
28A
100
AcDbEntity
  8
1
100
AcDbLine
 10
-538.428446
 20
-524.150965
 30
0.0
 11
-538.428446
 21
-546.150965
 31
0.0
  0
LINE
  5
28B
100
AcDbEntity
  8
1
100
AcDbLine
 10
-532.428446
 20
-524.150965
 30
0.0
 11
-532.428446
 21
-546.535466
 31
0.0
  0
ARC
  5
28C
100
AcDbEntity
  8
1
100
AcDbCircle
 10
-540.428446
 20
-514.150965
 30
0.0
 40
2.0
100
AcDbArc
 50
270.0
 51
360.0
  0
ARC
  5
28D
100
AcDbEntity
  8
1
100
AcDbCircle
 10
-540.428446
 20
-524.150965
 30
0.0
 40
2.0
100
AcDbArc
 50
0.0
 51
90.0
  0
ARC
  5
28E
100
AcDbEntity
  8
1
100
AcDbCircle
 10
-530.428446
 20
-524.150965
 30
0.0
 40
2.0
100
AcDbArc
 50
90.0
 51
180.0
  0
ARC
  5
28F
100
AcDbEntity
  8
1
100
AcDbCircle
 10
-530.428446
 20
-514.150965
 30
0.0
 40
2.0
100
AcDbArc
 50
180.0
 51
270.0
  0
ARC
  5
290
100
AcDbEntity
  8
1
100
AcDbCircle
 10
-568.428446
 20
-514.150965
 30
0.0
 40
2.0
100
AcDbArc
 50
180.0
 51
270.0
  0
ARC
  5
291
100
AcDbEntity
  8
1
100
AcDbCircle
 10
-568.428446
 20
-524.150965
 30
0.0
 40
2.0
100
AcDbArc
 50
90.0
 51
180.0
  0
ARC
  5
292
100
AcDbEntity
  8
1
100
AcDbCircle
 10
-511.904353
 20
-514.150965
 30
0.0
 40
2.0
100
AcDbArc
 50
270.0
 51
342.611421
  0
ARC
  5
293
100
AcDbEntity
  8
1
100
AcDbCircle
 10
-515.726174
 20
-524.150965
 30
0.0
 40
2.0
100
AcDbArc
 50
335.556665
 51
90.0
  0
ARC
  5
294
100
AcDbEntity
  8
1
100
AcDbCircle
 10
-594.928446
 20
-488.150965
 30
0.0
 40
89.0
100
AcDbArc
 50
342.611421
 51
356.705324
  0
ARC
  5
295
100
AcDbEntity
  8
1
100
AcDbCircle
 10
-530.428446
 20
-429.766463
 30
0.0
 40
2.0
100
AcDbArc
 50
42.150955
 51
180.0
  0
ARC
  5
296
100
AcDbEntity
  8
1
100
AcDbCircle
 10
-530.428446
 20
-546.535466
 30
0.0
 40
2.0
100
AcDbArc
 50
180.0
 51
317.849045
  0
LINE
  5
297
100
AcDbEntity
  8
1
100
AcDbLine
 10
-568.428446
 20
-428.150965
 30
0.0
 11
-540.428446
 21
-428.150965
 31
0.0
  0
LINE
  5
298
100
AcDbEntity
  8
1
100
AcDbLine
 10
-568.428446
 20
-548.150965
 30
0.0
 11
-540.428446
 21
-548.150965
 31
0.0
  0
LINE
  5
299
100
AcDbEntity
  8
1
100
AcDbLine
 10
-567.928446
 20
-422.150965
 30
0.0
 11
-540.660592
 21
-422.150965
 31
0.0
  0
LINE
  5
29A
100
AcDbEntity
  8
1
100
AcDbLine
 10
-567.928446
 20
-554.150965
 30
0.0
 11
-540.660592
 21
-554.150965
 31
0.0
  0
ARC
  5
29B
100
AcDbEntity
  8
1
100
AcDbCircle
 10
-540.428446
 20
-430.150965
 30
0.0
 40
2.0
100
AcDbArc
 50
0.0
 51
90.0
  0
ARC
  5
29C
100
AcDbEntity
  8
1
100
AcDbCircle
 10
-568.428446
 20
-430.150965
 30
0.0
 40
2.0
100
AcDbArc
 50
90.0
 51
180.0
  0
ARC
  5
29D
100
AcDbEntity
  8
1
100
AcDbCircle
 10
-567.928446
 20
-420.150965
 30
0.0
 40
2.0
100
AcDbArc
 50
180.0
 51
270.0
  0
ARC
  5
29E
100
AcDbEntity
  8
1
100
AcDbCircle
 10
-540.660592
 20
-420.150965
 30
0.0
 40
2.0
100
AcDbArc
 50
270.0
 51
51.408149
  0
ARC
  5
29F
100
AcDbEntity
  8
1
100
AcDbCircle
 10
-594.928446
 20
-488.150965
 30
0.0
 40
89.0
100
AcDbArc
 50
24.443335
 51
42.150955
  0
ARC
  5
2A0
100
AcDbEntity
  8
1
100
AcDbCircle
 10
-540.428446
 20
-546.150965
 30
0.0
 40
2.0
100
AcDbArc
 50
270.0
 51
360.0
  0
ARC
  5
2A1
100
AcDbEntity
  8
1
100
AcDbCircle
 10
-568.428446
 20
-546.150965
 30
0.0
 40
2.0
100
AcDbArc
 50
180.0
 51
270.0
  0
ARC
  5
2A2
100
AcDbEntity
  8
1
100
AcDbCircle
 10
-567.928446
 20
-556.150965
 30
0.0
 40
2.0
100
AcDbArc
 50
90.0
 51
180.0
  0
ARC
  5
2A3
100
AcDbEntity
  8
1
100
AcDbCircle
 10
-540.660592
 20
-556.150965
 30
0.0
 40
2.0
100
AcDbArc
 50
308.591851
 51
90.0
  0
ARC
  5
2A4
100
AcDbEntity
  8
1
100
AcDbCircle
 10
-594.928446
 20
-488.150965
 30
0.0
 40
89.0
100
AcDbArc
 50
317.849045
 51
335.556665
  0
ARC
  5
2A5
100
AcDbEntity
  8
1
100
AcDbCircle
 10
-594.928446
 20
-488.150965
 30
0.0
 40
89.0
100
AcDbArc
 50
51.408149
 51
71.919987
  0
ARC
  5
2A6
100
AcDbEntity
  8
1
100
AcDbCircle
 10
-594.928446
 20
-488.150965
 30
0.0
 40
89.0
100
AcDbArc
 50
288.080013
 51
308.591851
  0
LINE
  5
2A7
100
AcDbEntity
  8
1
100
AcDbLine
 10
-621.428446
 20
-485.150965
 30
0.0
 11
-649.428446
 21
-485.150965
 31
0.0
  0
LINE
  5
2A8
100
AcDbEntity
  8
1
100
AcDbLine
 10
-659.428446
 20
-485.150965
 30
0.0
 11
-681.784649
 21
-485.150965
 31
0.0
  0
LINE
  5
2A9
100
AcDbEntity
  8
1
100
AcDbLine
 10
-621.428446
 20
-491.150965
 30
0.0
 11
-649.428446
 21
-491.150965
 31
0.0
  0
LINE
  5
2AA
100
AcDbEntity
  8
1
100
AcDbLine
 10
-659.428446
 20
-491.150965
 30
0.0
 11
-681.784649
 21
-491.150965
 31
0.0
  0
LINE
  5
2AB
100
AcDbEntity
  8
1
100
AcDbLine
 10
-621.428446
 20
-460.150965
 30
0.0
 11
-649.428446
 21
-460.150965
 31
0.0
  0
LINE
  5
2AC
100
AcDbEntity
  8
1
100
AcDbLine
 10
-659.428446
 20
-460.150965
 30
0.0
 11
-677.952539
 21
-460.150965
 31
0.0
  0
LINE
  5
2AD
100
AcDbEntity
  8
1
100
AcDbLine
 10
-659.428446
 20
-454.150965
 30
0.0
 11
-674.130719
 21
-454.150965
 31
0.0
  0
LINE
  5
2AE
100
AcDbEntity
  8
1
100
AcDbLine
 10
-621.428446
 20
-454.150965
 30
0.0
 11
-649.428446
 21
-454.150965
 31
0.0
  0
LINE
  5
2AF
100
AcDbEntity
  8
1
100
AcDbLine
 10
-657.428446
 20
-514.150965
 30
0.0
 11
-657.428446
 21
-493.150965
 31
0.0
  0
LINE
  5
2B0
100
AcDbEntity
  8
1
100
AcDbLine
 10
-651.428446
 20
-514.150965
 30
0.0
 11
-651.428446
 21
-493.150965
 31
0.0
  0
LINE
  5
2B1
100
AcDbEntity
  8
1
100
AcDbLine
 10
-651.428446
 20
-483.150965
 30
0.0
 11
-651.428446
 21
-462.150965
 31
0.0
  0
LINE
  5
2B2
100
AcDbEntity
  8
1
100
AcDbLine
 10
-651.428446
 20
-452.150965
 30
0.0
 11
-651.428446
 21
-430.150965
 31
0.0
  0
LINE
  5
2B3
100
AcDbEntity
  8
1
100
AcDbLine
 10
-657.428446
 20
-483.150965
 30
0.0
 11
-657.428446
 21
-462.150965
 31
0.0
  0
LINE
  5
2B4
100
AcDbEntity
  8
1
100
AcDbLine
 10
-657.428446
 20
-452.150965
 30
0.0
 11
-657.428446
 21
-429.766463
 31
0.0
  0
ARC
  5
2B5
100
AcDbEntity
  8
1
100
AcDbCircle
 10
-649.428446
 20
-462.150965
 30
0.0
 40
2.0
100
AcDbArc
 50
90.0
 51
180.0
  0
ARC
  5
2B6
100
AcDbEntity
  8
1
100
AcDbCircle
 10
-649.428446
 20
-452.150965
 30
0.0
 40
2.0
100
AcDbArc
 50
180.0
 51
270.0
  0
ARC
  5
2B7
100
AcDbEntity
  8
1
100
AcDbCircle
 10
-659.428446
 20
-452.150965
 30
0.0
 40
2.0
100
AcDbArc
 50
270.0
 51
360.0
  0
ARC
  5
2B8
100
AcDbEntity
  8
1
100
AcDbCircle
 10
-659.428446
 20
-462.150965
 30
0.0
 40
2.0
100
AcDbArc
 50
0.0
 51
90.0
  0
ARC
  5
2B9
100
AcDbEntity
  8
1
100
AcDbCircle
 10
-659.428446
 20
-483.150965
 30
0.0
 40
2.0
100
AcDbArc
 50
270.0
 51
360.0
  0
ARC
  5
2BA
100
AcDbEntity
  8
1
100
AcDbCircle
 10
-649.428446
 20
-483.150965
 30
0.0
 40
2.0
100
AcDbArc
 50
180.0
 51
270.0
  0
ARC
  5
2BB
100
AcDbEntity
  8
1
100
AcDbCircle
 10
-649.428446
 20
-493.150965
 30
0.0
 40
2.0
100
AcDbArc
 50
90.0
 51
180.0
  0
ARC
  5
2BC
100
AcDbEntity
  8
1
100
AcDbCircle
 10
-659.428446
 20
-493.150965
 30
0.0
 40
2.0
100
AcDbArc
 50
0.0
 51
90.0
  0
ARC
  5
2BD
100
AcDbEntity
  8
1
100
AcDbCircle
 10
-621.428446
 20
-483.150965
 30
0.0
 40
2.0
100
AcDbArc
 50
270.0
 51
360.0
  0
ARC
  5
2BE
100
AcDbEntity
  8
1
100
AcDbCircle
 10
-621.428446
 20
-493.150965
 30
0.0
 40
2.0
100
AcDbArc
 50
0.0
 51
90.0
  0
ARC
  5
2BF
100
AcDbEntity
  8
1
100
AcDbCircle
 10
-621.428446
 20
-462.150965
 30
0.0
 40
2.0
100
AcDbArc
 50
0.0
 51
90.0
  0
ARC
  5
2C0
100
AcDbEntity
  8
1
100
AcDbCircle
 10
-621.428446
 20
-452.150965
 30
0.0
 40
2.0
100
AcDbArc
 50
270.0
 51
360.0
  0
ARC
  5
2C1
100
AcDbEntity
  8
1
100
AcDbCircle
 10
-681.784649
 20
-493.150965
 30
0.0
 40
2.0
100
AcDbArc
 50
90.0
 51
183.294676
  0
ARC
  5
2C2
100
AcDbEntity
  8
1
100
AcDbCircle
 10
-681.784649
 20
-483.150965
 30
0.0
 40
2.0
100
AcDbArc
 50
176.705324
 51
270.0
  0
ARC
  5
2C3
100
AcDbEntity
  8
1
100
AcDbCircle
 10
-677.952539
 20
-462.150965
 30
0.0
 40
2.0
100
AcDbArc
 50
90.0
 51
162.611421
  0
ARC
  5
2C4
100
AcDbEntity
  8
1
100
AcDbCircle
 10
-674.130719
 20
-452.150965
 30
0.0
 40
2.0
100
AcDbArc
 50
155.556665
 51
270.0
  0
ARC
  5
2C5
100
AcDbEntity
  8
1
100
AcDbCircle
 10
-594.928446
 20
-488.150965
 30
0.0
 40
89.0
100
AcDbArc
 50
162.611421
 51
176.705324
  0
LINE
  5
2C6
100
AcDbEntity
  8
1
100
AcDbLine
 10
-621.428446
 20
-516.150965
 30
0.0
 11
-649.428446
 21
-516.150965
 31
0.0
  0
LINE
  5
2C7
100
AcDbEntity
  8
1
100
AcDbLine
 10
-659.428446
 20
-516.150965
 30
0.0
 11
-677.952539
 21
-516.150965
 31
0.0
  0
LINE
  5
2C8
100
AcDbEntity
  8
1
100
AcDbLine
 10
-659.428446
 20
-522.150965
 30
0.0
 11
-674.130719
 21
-522.150965
 31
0.0
  0
LINE
  5
2C9
100
AcDbEntity
  8
1
100
AcDbLine
 10
-621.428446
 20
-522.150965
 30
0.0
 11
-649.428446
 21
-522.150965
 31
0.0
  0
LINE
  5
2CA
100
AcDbEntity
  8
1
100
AcDbLine
 10
-651.428446
 20
-524.150965
 30
0.0
 11
-651.428446
 21
-546.150965
 31
0.0
  0
LINE
  5
2CB
100
AcDbEntity
  8
1
100
AcDbLine
 10
-657.428446
 20
-524.150965
 30
0.0
 11
-657.428446
 21
-546.535466
 31
0.0
  0
ARC
  5
2CC
100
AcDbEntity
  8
1
100
AcDbCircle
 10
-649.428446
 20
-514.150965
 30
0.0
 40
2.0
100
AcDbArc
 50
180.0
 51
270.0
  0
ARC
  5
2CD
100
AcDbEntity
  8
1
100
AcDbCircle
 10
-649.428446
 20
-524.150965
 30
0.0
 40
2.0
100
AcDbArc
 50
90.0
 51
180.0
  0
ARC
  5
2CE
100
AcDbEntity
  8
1
100
AcDbCircle
 10
-659.428446
 20
-524.150965
 30
0.0
 40
2.0
100
AcDbArc
 50
0.0
 51
90.0
  0
ARC
  5
2CF
100
AcDbEntity
  8
1
100
AcDbCircle
 10
-659.428446
 20
-514.150965
 30
0.0
 40
2.0
100
AcDbArc
 50
270.0
 51
360.0
  0
ARC
  5
2D0
100
AcDbEntity
  8
1
100
AcDbCircle
 10
-621.428446
 20
-514.150965
 30
0.0
 40
2.0
100
AcDbArc
 50
270.0
 51
360.0
  0
ARC
  5
2D1
100
AcDbEntity
  8
1
100
AcDbCircle
 10
-621.428446
 20
-524.150965
 30
0.0
 40
2.0
100
AcDbArc
 50
0.0
 51
90.0
  0
ARC
  5
2D2
100
AcDbEntity
  8
1
100
AcDbCircle
 10
-677.952539
 20
-514.150965
 30
0.0
 40
2.0
100
AcDbArc
 50
197.388579
 51
270.0
  0
ARC
  5
2D3
100
AcDbEntity
  8
1
100
AcDbCircle
 10
-674.130719
 20
-524.150965
 30
0.0
 40
2.0
100
AcDbArc
 50
90.0
 51
204.443335
  0
ARC
  5
2D4
100
AcDbEntity
  8
1
100
AcDbCircle
 10
-594.928446
 20
-488.150965
 30
0.0
 40
89.0
100
AcDbArc
 50
183.294676
 51
197.388579
  0
ARC
  5
2D5
100
AcDbEntity
  8
1
100
AcDbCircle
 10
-659.428446
 20
-429.766463
 30
0.0
 40
2.0
100
AcDbArc
 50
0.0
 51
137.849045
  0
ARC
  5
2D6
100
AcDbEntity
  8
1
100
AcDbCircle
 10
-659.428446
 20
-546.535466
 30
0.0
 40
2.0
100
AcDbArc
 50
222.150955
 51
360.0
  0
LINE
  5
2D7
100
AcDbEntity
  8
1
100
AcDbLine
 10
-621.428446
 20
-428.150965
 30
0.0
 11
-649.428446
 21
-428.150965
 31
0.0
  0
LINE
  5
2D8
100
AcDbEntity
  8
1
100
AcDbLine
 10
-621.428446
 20
-548.150965
 30
0.0
 11
-649.428446
 21
-548.150965
 31
0.0
  0
LINE
  5
2D9
100
AcDbEntity
  8
1
100
AcDbLine
 10
-620.428446
 20
-422.150965
 30
0.0
 11
-649.196301
 21
-422.150965
 31
0.0
  0
LINE
  5
2DA
100
AcDbEntity
  8
1
100
AcDbLine
 10
-620.428446
 20
-554.150965
 30
0.0
 11
-649.196301
 21
-554.150965
 31
0.0
  0
ARC
  5
2DB
100
AcDbEntity
  8
1
100
AcDbCircle
 10
-649.428446
 20
-430.150965
 30
0.0
 40
2.0
100
AcDbArc
 50
90.0
 51
180.0
  0
ARC
  5
2DC
100
AcDbEntity
  8
1
100
AcDbCircle
 10
-649.196301
 20
-420.150965
 30
0.0
 40
2.0
100
AcDbArc
 50
128.591851
 51
270.0
  0
ARC
  5
2DD
100
AcDbEntity
  8
1
100
AcDbCircle
 10
-594.928446
 20
-488.150965
 30
0.0
 40
89.0
100
AcDbArc
 50
137.849045
 51
155.556665
  0
ARC
  5
2DE
100
AcDbEntity
  8
1
100
AcDbCircle
 10
-649.428446
 20
-546.150965
 30
0.0
 40
2.0
100
AcDbArc
 50
180.0
 51
270.0
  0
ARC
  5
2DF
100
AcDbEntity
  8
1
100
AcDbCircle
 10
-649.196301
 20
-556.150965
 30
0.0
 40
2.0
100
AcDbArc
 50
90.0
 51
231.408149
  0
ARC
  5
2E0
100
AcDbEntity
  8
1
100
AcDbCircle
 10
-594.928446
 20
-488.150965
 30
0.0
 40
89.0
100
AcDbArc
 50
204.443335
 51
222.150955
  0
ARC
  5
2E1
100
AcDbEntity
  8
1
100
AcDbCircle
 10
-594.928446
 20
-488.150965
 30
0.0
 40
89.0
100
AcDbArc
 50
107.043847
 51
128.591851
  0
ARC
  5
2E2
100
AcDbEntity
  8
1
100
AcDbCircle
 10
-594.928446
 20
-488.150965
 30
0.0
 40
89.0
100
AcDbArc
 50
231.408149
 51
252.956153
  0
ARC
  5
2E3
100
AcDbEntity
  8
1
100
AcDbCircle
 10
-620.428446
 20
-404.971941
 30
0.0
 40
2.0
100
AcDbArc
 50
0.0
 51
107.043847
  0
ARC
  5
2E4
100
AcDbEntity
  8
1
100
AcDbCircle
 10
-620.428446
 20
-420.150965
 30
0.0
 40
2.0
100
AcDbArc
 50
270.0
 51
360.0
  0
ARC
  5
2E5
100
AcDbEntity
  8
1
100
AcDbCircle
 10
-621.428446
 20
-430.150965
 30
0.0
 40
2.0
100
AcDbArc
 50
0.0
 51
90.0
  0
ARC
  5
2E6
100
AcDbEntity
  8
1
100
AcDbCircle
 10
-567.928446
 20
-405.446672
 30
0.0
 40
2.0
100
AcDbArc
 50
71.919987
 51
180.0
  0
ARC
  5
2E7
100
AcDbEntity
  8
1
100
AcDbCircle
 10
-621.428446
 20
-546.150965
 30
0.0
 40
2.0
100
AcDbArc
 50
270.0
 51
360.0
  0
ARC
  5
2E8
100
AcDbEntity
  8
1
100
AcDbCircle
 10
-620.428446
 20
-556.150965
 30
0.0
 40
2.0
100
AcDbArc
 50
0.0
 51
90.0
  0
ARC
  5
2E9
100
AcDbEntity
  8
1
100
AcDbCircle
 10
-620.428446
 20
-571.329989
 30
0.0
 40
2.0
100
AcDbArc
 50
252.956153
 51
360.0
  0
ARC
  5
2EA
100
AcDbEntity
  8
1
100
AcDbCircle
 10
-567.928446
 20
-570.855257
 30
0.0
 40
2.0
100
AcDbArc
 50
180.0
 51
288.080013
  0
LINE
  5
2EB
100
AcDbEntity
  8
1
100
AcDbLine
 10
-592.928446
 20
-396.150965
 30
0.0
 11
-571.928446
 21
-396.150965
 31
0.0
  0
LINE
  5
2EC
100
AcDbEntity
  8
1
100
AcDbLine
 10
-592.928446
 20
-580.150965
 30
0.0
 11
-571.928446
 21
-580.150965
 31
0.0
  0
LINE
  5
2ED
100
AcDbEntity
  8
1
100
AcDbLine
 10
-608.928446
 20
-412.150965
 30
0.0
 11
-596.928446
 21
-412.150965
 31
0.0
  0
ARC
  5
2EE
100
AcDbEntity
  8
1
100
AcDbCircle
 10
-596.928446
 20
-410.150965
 30
0.0
 40
2.0
100
AcDbArc
 50
270.0
 51
360.0
  0
CIRCLE
  5
2EF
100
AcDbEntity
  8
1
100
AcDbCircle
 10
-606.328446
 20
-420.142465
 30
0.0
 40
4.02
  0
CIRCLE
  5
2F0
100
AcDbEntity
  8
1
100
AcDbCircle
 10
-606.328446
 20
-420.142465
 30
0.0
 40
2.65
  0
CIRCLE
  5
2F1
100
AcDbEntity
  8
1
 62
     2
100
AcDbCircle
 10
-606.328446
 20
-420.142465
 30
0.0
 40
2.5
  0
CIRCLE
  5
2F2
100
AcDbEntity
  8
1
100
AcDbCircle
 10
-606.328446
 20
-420.142465
 30
0.0
 40
2.067
  0
CIRCLE
  5
2F3
100
AcDbEntity
  8
1
100
AcDbCircle
 10
-592.328446
 20
-556.159465
 30
0.0
 40
4.02
  0
CIRCLE
  5
2F4
100
AcDbEntity
  8
1
100
AcDbCircle
 10
-592.328446
 20
-556.159465
 30
0.0
 40
2.65
  0
CIRCLE
  5
2F5
100
AcDbEntity
  8
1
 62
     2
100
AcDbCircle
 10
-592.328446
 20
-556.159465
 30
0.0
 40
2.5
  0
CIRCLE
  5
2F6
100
AcDbEntity
  8
1
100
AcDbCircle
 10
-592.328446
 20
-556.159465
 30
0.0
 40
2.067
  0
ARC
  5
2F7
100
AcDbEntity
  8
1
100
AcDbCircle
 10
-608.928446
 20
-420.150965
 30
0.0
 40
8.0
100
AcDbArc
 50
90.0
 51
270.0
  0
LINE
  5
2F8
100
AcDbEntity
  8
1
100
AcDbLine
 10
-608.928446
 20
-564.150965
 30
0.0
 11
-596.928446
 21
-564.150965
 31
0.0
  0
ARC
  5
2F9
100
AcDbEntity
  8
1
100
AcDbCircle
 10
-608.928446
 20
-556.150965
 30
0.0
 40
8.0
100
AcDbArc
 50
90.0
 51
270.0
  0
ARC
  5
2FA
100
AcDbEntity
  8
1
100
AcDbCircle
 10
-596.928446
 20
-566.150965
 30
0.0
 40
2.0
100
AcDbArc
 50
0.0
 51
90.0
  0
LINE
  5
2FB
100
AcDbEntity
  8
1
100
AcDbLine
 10
-586.399085
 20
-398.150965
 30
0.0
 11
-586.399085
 21
-426.150965
 31
0.0
  0
ARC
  5
2FC
100
AcDbEntity
  8
1
100
AcDbCircle
 10
-584.399085
 20
-398.150965
 30
0.0
 40
2.0
100
AcDbArc
 50
90.0
 51
180.0
  0
ARC
  5
2FD
100
AcDbEntity
  8
1
100
AcDbCircle
 10
-571.928446
 20
-398.150965
 30
0.0
 40
2.0
100
AcDbArc
 50
0.0
 51
90.0
  0
LINE
  5
2FE
100
AcDbEntity
  8
1
100
AcDbLine
 10
-586.399085
 20
-550.150965
 30
0.0
 11
-586.399085
 21
-578.150965
 31
0.0
  0
ARC
  5
2FF
100
AcDbEntity
  8
1
100
AcDbCircle
 10
-571.928446
 20
-578.150965
 30
0.0
 40
2.0
100
AcDbArc
 50
270.0
 51
360.0
  0
ARC
  5
300
100
AcDbEntity
  8
1
100
AcDbCircle
 10
-584.399085
 20
-578.150965
 30
0.0
 40
2.0
100
AcDbArc
 50
180.0
 51
270.0
  0
ARC
  5
301
100
AcDbEntity
  8
1
100
AcDbCircle
 10
-584.399085
 20
-550.150965
 30
0.0
 40
2.0
100
AcDbArc
 50
90.0
 51
180.0
  0
ARC
  5
302
100
AcDbEntity
  8
1
100
AcDbCircle
 10
-594.928446
 20
-488.150965
 30
0.0
 40
93.0
100
AcDbArc
 50
104.636642
 51
255.363358
  0
ARC
  5
303
100
AcDbEntity
  8
1
100
AcDbCircle
 10
-594.928446
 20
-488.150965
 30
0.0
 40
93.0
100
AcDbArc
 50
285.593896
 51
74.406104
  0
ARC
  5
304
100
AcDbEntity
  8
1
100
AcDbCircle
 10
-584.399085
 20
-426.150965
 30
0.0
 40
2.0
100
AcDbArc
 50
180.0
 51
270.0
  0
ARC
  5
305
100
AcDbEntity
  8
1
100
AcDbCircle
 10
-592.928446
 20
-394.150965
 30
0.0
 40
2.0
100
AcDbArc
 50
180.0
 51
270.0
  0
ARC
  5
306
100
AcDbEntity
  8
1
100
AcDbCircle
 10
-592.928446
 20
-582.150965
 30
0.0
 40
2.0
100
AcDbArc
 50
90.0
 51
180.0
  0
LINE
  5
307
100
AcDbEntity
  8
1
100
AcDbLine
 10
-618.428446
 20
-385.904938
 30
0.0
 11
-586.428446
 21
-385.904938
 31
0.0
  0
ARC
  5
308
100
AcDbEntity
  8
1
100
AcDbCircle
 10
-594.928446
 20
-199.682074
 30
0.0
 40
184.430437
100
AcDbArc
 50
266.144866
 51
272.641574
  0
ARC
  5
309
100
AcDbEntity
  8
1
100
AcDbCircle
 10
-592.309721
 20
-488.120701
 30
0.0
 40
105.5
100
AcDbArc
 50
98.184293
 51
104.333814
  0
LINE
  5
30A
100
AcDbEntity
  8
1
100
AcDbLine
 10
-586.428446
 20
-383.916533
 30
0.0
 11
-586.428446
 21
-392.150965
 31
0.0
  0
LINE
  5
30B
100
AcDbEntity
  8
1
100
AcDbLine
 10
-586.428446
 20
-392.150965
 30
0.0
 11
-571.428446
 21
-392.150965
 31
0.0
  0
LINE
  5
30C
100
AcDbEntity
  8
1
100
AcDbLine
 10
-571.513707
 20
-390.725147
 30
0.0
 11
-571.513707
 21
-392.150965
 31
0.0
  0
ARC
  5
30D
100
AcDbEntity
  8
1
100
AcDbCircle
 10
-569.428446
 20
-395.028466
 30
0.0
 40
2.0
100
AcDbArc
 50
180.0
 51
231.317813
  0
LINE
  5
30E
100
AcDbEntity
  8
1
100
AcDbLine
 10
-577.462378
 20
-389.508783
 30
0.0
 11
-577.462378
 21
-390.650965
 31
0.0
  0
LINE
  5
30F
100
AcDbEntity
  8
1
100
AcDbLine
 10
-578.328446
 20
-390.650965
 30
0.0
 11
-577.462378
 21
-390.650965
 31
0.0
  0
LINE
  5
310
100
AcDbEntity
  8
1
100
AcDbLine
 10
-578.328446
 20
-392.150965
 30
0.0
 11
-578.328446
 21
-382.952628
 31
0.0
  0
LINE
  5
311
100
AcDbEntity
  8
1
100
AcDbLine
 10
-606.328446
 20
-383.759845
 30
0.0
 11
-606.328446
 21
-382.262863
 31
0.0
  0
LINE
  5
312
100
AcDbEntity
  8
1
100
AcDbLine
 10
-578.328446
 20
-428.150965
 30
0.0
 11
-578.328446
 21
-548.150965
 31
0.0
  0
LINE
  5
313
100
AcDbEntity
  8
1
100
AcDbLine
 10
-606.328446
 20
-428.150965
 30
0.0
 11
-606.328446
 21
-548.150965
 31
0.0
  0
LINE
  5
314
100
AcDbEntity
  8
1
100
AcDbLine
 10
-571.428446
 20
-581.273464
 30
0.0
 11
-571.428446
 21
-584.150965
 31
0.0
  0
LINE
  5
315
100
AcDbEntity
  8
1
100
AcDbLine
 10
-618.428446
 20
-590.396992
 30
0.0
 11
-586.428446
 21
-590.396992
 31
0.0
  0
ARC
  5
316
100
AcDbEntity
  8
1
100
AcDbCircle
 10
-594.928446
 20
-776.619856
 30
0.0
 40
184.430437
100
AcDbArc
 50
87.358426
 51
93.855134
  0
ARC
  5
317
100
AcDbEntity
  8
1
100
AcDbCircle
 10
-592.309721
 20
-488.181229
 30
0.0
 40
105.5
100
AcDbArc
 50
255.666186
 51
261.815707
  0
LINE
  5
318
100
AcDbEntity
  8
1
100
AcDbLine
 10
-586.428446
 20
-592.385397
 30
0.0
 11
-586.428446
 21
-584.150965
 31
0.0
  0
LINE
  5
319
100
AcDbEntity
  8
1
100
AcDbLine
 10
-586.428446
 20
-584.150965
 30
0.0
 11
-571.428446
 21
-584.150965
 31
0.0
  0
LINE
  5
31A
100
AcDbEntity
  8
1
100
AcDbLine
 10
-571.513707
 20
-585.576783
 30
0.0
 11
-571.513707
 21
-584.150965
 31
0.0
  0
ARC
  5
31B
100
AcDbEntity
  8
1
100
AcDbCircle
 10
-569.428446
 20
-581.273464
 30
0.0
 40
2.0
100
AcDbArc
 50
128.682187
 51
180.0
  0
LINE
  5
31C
100
AcDbEntity
  8
1
100
AcDbLine
 10
-578.328446
 20
-584.150965
 30
0.0
 11
-578.328446
 21
-593.349301
 31
0.0
  0
LINE
  5
31D
100
AcDbEntity
  8
1
100
AcDbLine
 10
-606.328446
 20
-592.542084
 30
0.0
 11
-606.328446
 21
-594.039066
 31
0.0
  0
ARC
  5
31E
100
AcDbEntity
  8
1
100
AcDbCircle
 10
-594.928446
 20
-488.150965
 30
0.0
 40
96.708657
100
AcDbArc
 50
104.063546
 51
255.936454
  0
ARC
  5
31F
100
AcDbEntity
  8
1
100
AcDbCircle
 10
-594.928446
 20
-488.150965
 30
0.0
 40
96.708657
100
AcDbArc
 50
284.063546
 51
75.936454
  0
ARC
  5
320
100
AcDbEntity
  8
1
100
AcDbCircle
 10
-594.55204
 20
-488.24066
 30
0.0
 40
100.2
100
AcDbArc
 50
76.707434
 51
80.179881
  0
ARC
  5
321
100
AcDbEntity
  8
1
100
AcDbCircle
 10
-577.462378
 20
-33.495405
 30
0.0
 40
356.013378
100
AcDbArc
 50
269.860617
 51
270.0
  0
LINE
  5
322
100
AcDbEntity
  8
1
100
AcDbLine
 10
-577.462378
 20
-586.793146
 30
0.0
 11
-577.462378
 21
-585.650965
 31
0.0
  0
LINE
  5
323
100
AcDbEntity
  8
1
100
AcDbLine
 10
-578.328446
 20
-585.650965
 30
0.0
 11
-577.462378
 21
-585.650965
 31
0.0
  0
ARC
  5
324
100
AcDbEntity
  8
1
100
AcDbCircle
 10
-594.55204
 20
-488.06127
 30
0.0
 40
100.2
100
AcDbArc
 50
279.820119
 51
283.292566
  0
ARC
  5
325
100
AcDbEntity
  8
1
100
AcDbCircle
 10
-577.462378
 20
-942.806525
 30
0.0
 40
356.013378
100
AcDbArc
 50
90.0
 51
90.139383
  0
ARC
  5
326
100
AcDbEntity
  8
1
100
AcDbCircle
 10
-594.928446
 20
-488.150965
 30
0.0
 40
95.018
100
AcDbArc
 50
104.319072
 51
255.680928
  0
ARC
  5
327
100
AcDbEntity
  8
1
100
AcDbCircle
 10
-594.928446
 20
-488.150965
 30
0.0
 40
95.018
100
AcDbArc
 50
284.545514
 51
75.454486
  0
LINE
  5
328
100
AcDbEntity
  8
1
  6
CENTER
 62
     2
100
AcDbLine
 10
-606.328446
 20
-427.293146
 30
0.0
 11
-606.328446
 21
-412.787865
 31
0.0
  0
LINE
  5
329
100
AcDbEntity
  8
1
  6
CENTER
 62
     2
100
AcDbLine
 10
-614.423613
 20
-420.142465
 30
0.0
 11
-598.334937
 21
-420.142465
 31
0.0
  0
LINE
  5
32A
100
AcDbEntity
  8
1
  6
CENTER
 62
     2
100
AcDbLine
 10
-600.320902
 20
-556.159465
 30
0.0
 11
-584.282511
 21
-556.159465
 31
0.0
  0
LINE
  5
32B
100
AcDbEntity
  8
1
100
AcDbLine
 10
-613.328446
 20
-240.650965
 30
0.0
 11
-571.328446
 21
-240.650965
 31
0.0
  0
LINE
  5
32C
100
AcDbEntity
  8
1
100
AcDbLine
 10
-613.328446
 20
-244.150965
 30
0.0
 11
-613.328446
 21
-240.650965
 31
0.0
  0
LINE
  5
32D
100
AcDbEntity
  8
1
100
AcDbLine
 10
-571.328446
 20
-244.150965
 30
0.0
 11
-571.328446
 21
-240.650965
 31
0.0
  0
LINE
  5
32E
100
AcDbEntity
  8
1
100
AcDbLine
 10
-599.828446
 20
-240.650965
 30
0.0
 11
-599.828446
 21
-234.872653
 31
0.0
  0
LINE
  5
32F
100
AcDbEntity
  8
1
100
AcDbLine
 10
-599.828446
 20
-234.872653
 30
0.0
 11
-598.578446
 21
-234.150965
 31
0.0
  0
LINE
  5
330
100
AcDbEntity
  8
1
100
AcDbLine
 10
-598.578446
 20
-234.150965
 30
0.0
 11
-586.078446
 21
-234.150965
 31
0.0
  0
LINE
  5
331
100
AcDbEntity
  8
1
100
AcDbLine
 10
-596.078446
 20
-240.650965
 30
0.0
 11
-596.078446
 21
-234.872653
 31
0.0
  0
ARC
  5
332
100
AcDbEntity
  8
1
100
AcDbCircle
 10
-597.953446
 20
-237.283029
 30
0.0
 40
3.053774
100
AcDbArc
 50
52.121121
 51
127.878879
  0
LINE
  5
333
100
AcDbEntity
  8
1
100
AcDbLine
 10
-584.828446
 20
-240.650965
 30
0.0
 11
-584.828446
 21
-234.872653
 31
0.0
  0
LINE
  5
334
100
AcDbEntity
  8
1
100
AcDbLine
 10
-584.828446
 20
-234.872653
 30
0.0
 11
-586.078446
 21
-234.150965
 31
0.0
  0
LINE
  5
335
100
AcDbEntity
  8
1
100
AcDbLine
 10
-588.578446
 20
-240.650965
 30
0.0
 11
-588.578446
 21
-234.872653
 31
0.0
  0
ARC
  5
336
100
AcDbEntity
  8
1
100
AcDbCircle
 10
-586.703446
 20
-237.283029
 30
0.0
 40
3.053774
100
AcDbArc
 50
52.121121
 51
127.878879
  0
ARC
  5
337
100
AcDbEntity
  8
1
100
AcDbCircle
 10
-592.328446
 20
-245.479254
 30
0.0
 40
11.25
100
AcDbArc
 50
70.528781
 51
109.471223
  0
LINE
  5
338
100
AcDbEntity
  8
1
100
AcDbLine
 10
-588.328446
 20
-231.850965
 30
0.0
 11
-596.328446
 21
-231.850965
 31
0.0
  0
ARC
  5
339
100
AcDbEntity
  8
1
100
AcDbCircle
 10
-592.328446
 20
-237.917631
 30
0.0
 40
7.266667
100
AcDbArc
 50
56.601512
 51
123.398491
  0
LINE
  5
33A
100
AcDbEntity
  8
1
 62
     2
100
AcDbLine
 10
-589.004946
 20
-231.455527
 30
0.0
 11
-589.004946
 21
-234.150965
 31
0.0
  0
LINE
  5
33B
100
AcDbEntity
  8
1
 62
     2
100
AcDbLine
 10
-595.651946
 20
-231.455527
 30
0.0
 11
-595.651946
 21
-234.150965
 31
0.0
  0
LINE
  5
33C
100
AcDbEntity
  8
1
100
AcDbLine
 10
-588.328446
 20
-234.150965
 30
0.0
 11
-588.328446
 21
-231.850965
 31
0.0
  0
LINE
  5
33D
100
AcDbEntity
  8
1
100
AcDbLine
 10
-596.328446
 20
-234.150965
 30
0.0
 11
-596.328446
 21
-231.850965
 31
0.0
  0
LINE
  5
33E
100
AcDbEntity
  8
1
100
AcDbLine
 10
-606.328446
 20
-240.650965
 30
0.0
 11
-606.328446
 21
-220.150965
 31
0.0
  0
LINE
  5
33F
100
AcDbEntity
  8
1
100
AcDbLine
 10
-578.328446
 20
-240.650965
 30
0.0
 11
-578.328446
 21
-220.150965
 31
0.0
  0
LINE
  5
340
100
AcDbEntity
  8
2
  6
CENTER
 62
     2
100
AcDbLine
 10
-592.328446
 20
670.897562
 30
0.0
 11
-592.328446
 21
359.256958
 31
0.0
  0
LINE
  5
341
100
AcDbEntity
  8
2
  6
CENTER
 62
     2
100
AcDbLine
 10
-825.021994
 20
533.649035
 30
0.0
 11
-427.135254
 21
533.649035
 31
0.0
  0
LINE
  5
342
100
AcDbEntity
  8
2
  6
CENTER
 62
     2
100
AcDbLine
 10
-636.523446
 20
-105.561527
 30
0.0
 11
-636.523446
 21
-60.418259
 31
0.0
  0
LINE
  5
343
100
AcDbEntity
  8
2
  6
CENTER
 62
     2
100
AcDbLine
 10
-548.133446
 20
-105.561527
 30
0.0
 11
-548.133446
 21
-60.418259
 31
0.0
  0
LINE
  5
344
100
AcDbEntity
  8
2
100
AcDbLine
 10
-684.328446
 20
603.649035
 30
0.0
 11
-684.328446
 21
618.649035
 31
0.0
  0
LINE
  5
345
100
AcDbEntity
  8
2
100
AcDbLine
 10
-465.328446
 20
576.149035
 30
0.0
 11
-465.328446
 21
541.149035
 31
0.0
  0
LINE
  5
346
100
AcDbEntity
  8
2
100
AcDbLine
 10
-465.828446
 20
540.649035
 30
0.0
 11
-466.828446
 21
540.649035
 31
0.0
  0
LINE
  5
347
100
AcDbEntity
  8
2
100
AcDbLine
 10
-466.828446
 20
576.649035
 30
0.0
 11
-465.828446
 21
576.649035
 31
0.0
  0
LINE
  5
348
100
AcDbEntity
  8
2
100
AcDbLine
 10
-465.328446
 20
491.149035
 30
0.0
 11
-465.328446
 21
526.149035
 31
0.0
  0
LINE
  5
349
100
AcDbEntity
  8
2
100
AcDbLine
 10
-465.828446
 20
526.649035
 30
0.0
 11
-466.828446
 21
526.649035
 31
0.0
  0
LINE
  5
34A
100
AcDbEntity
  8
2
100
AcDbLine
 10
-466.828446
 20
490.649035
 30
0.0
 11
-465.828446
 21
490.649035
 31
0.0
  0
LINE
  5
34B
100
AcDbEntity
  8
2
100
AcDbLine
 10
-479.828446
 20
324.149035
 30
0.0
 11
-507.828446
 21
324.149035
 31
0.0
  0
LINE
  5
34C
100
AcDbEntity
  8
2
100
AcDbLine
 10
-507.828446
 20
324.149035
 30
0.0
 11
-509.828446
 21
322.149035
 31
0.0
  0
LINE
  5
34D
100
AcDbEntity
  8
2
100
AcDbLine
 10
-509.828446
 20
313.149035
 30
0.0
 11
-509.828446
 21
322.149035
 31
0.0
  0
ARC
  5
34E
100
AcDbEntity
  8
2
100
AcDbCircle
 10
-511.828446
 20
313.149035
 30
0.0
 40
2.0
100
AcDbArc
 50
270.0
 51
360.0
  0
LINE
  5
34F
100
AcDbEntity
  8
2
100
AcDbLine
 10
-513.828446
 20
309.149035
 30
0.0
 11
-513.828446
 21
308.68876
 31
0.0
  0
LINE
  5
350
100
AcDbEntity
  8
2
100
AcDbLine
 10
-528.383535
 20
288.149035
 30
0.0
 11
-459.273357
 21
288.149035
 31
0.0
  0
LINE
  5
351
100
AcDbEntity
  8
2
100
AcDbLine
 10
-485.281517
 20
310.149035
 30
0.0
 11
-479.76495
 21
310.149035
 31
0.0
  0
LINE
  5
352
100
AcDbEntity
  8
2
100
AcDbLine
 10
-463.428446
 20
310.149035
 30
0.0
 11
-458.975144
 21
310.149035
 31
0.0
  0
LINE
  5
353
100
AcDbEntity
  8
2
100
AcDbLine
 10
-442.895181
 20
310.149035
 30
0.0
 11
-438.928446
 21
310.149035
 31
0.0
  0
LINE
  5
354
100
AcDbEntity
  8
2
100
AcDbLine
 10
-411.528446
 20
310.149035
 30
0.0
 11
-410.428446
 21
310.149035
 31
0.0
  0
LINE
  5
355
100
AcDbEntity
  8
2
100
AcDbLine
 10
-404.928446
 20
310.149035
 30
0.0
 11
-401.820487
 21
310.149035
 31
0.0
  0
ARC
  5
356
100
AcDbEntity
  8
2
100
AcDbCircle
 10
-506.028446
 20
787.649035
 30
0.0
 40
500.0
100
AcDbArc
 50
260.664881
 51
267.437441
  0
ARC
  5
357
100
AcDbEntity
  8
2
100
AcDbCircle
 10
-511.828446
 20
309.149035
 30
0.0
 40
2.0
100
AcDbArc
 50
90.0
 51
180.0
  0
LINE
  5
358
100
AcDbEntity
  8
2
100
AcDbLine
 10
-479.828446
 20
324.149035
 30
0.0
 11
-477.828446
 21
322.149035
 31
0.0
  0
LINE
  5
359
100
AcDbEntity
  8
2
100
AcDbLine
 10
-477.828446
 20
313.149035
 30
0.0
 11
-477.828446
 21
322.149035
 31
0.0
  0
ARC
  5
35A
100
AcDbEntity
  8
2
100
AcDbCircle
 10
-475.828446
 20
313.149035
 30
0.0
 40
2.0
100
AcDbArc
 50
180.0
 51
270.0
  0
LINE
  5
35B
100
AcDbEntity
  8
2
100
AcDbLine
 10
-473.828446
 20
309.149035
 30
0.0
 11
-473.828446
 21
308.68876
 31
0.0
  0
ARC
  5
35C
100
AcDbEntity
  8
2
100
AcDbCircle
 10
-481.628446
 20
787.649035
 30
0.0
 40
500.0
100
AcDbArc
 50
272.562559
 51
279.335119
  0
ARC
  5
35D
100
AcDbEntity
  8
2
100
AcDbCircle
 10
-475.828446
 20
309.149035
 30
0.0
 40
2.0
100
AcDbArc
 50
0.0
 51
90.0
  0
LINE
  5
35E
100
AcDbEntity
  8
2
100
AcDbLine
 10
-477.828446
 20
322.149035
 30
0.0
 11
-509.828446
 21
322.149035
 31
0.0
  0
ARC
  5
35F
100
AcDbEntity
  8
2
100
AcDbCircle
 10
-493.828446
 20
339.949035
 30
0.0
 40
37.8
100
AcDbArc
 50
256.46135
 51
283.347693
  0
ARC
  5
360
100
AcDbEntity
  8
2
100
AcDbCircle
 10
-493.828446
 20
330.749035
 30
0.0
 40
22.1
100
AcDbArc
 50
249.678608
 51
289.90826
  0
ARC
  5
361
100
AcDbEntity
  8
2
100
AcDbCircle
 10
-494.528446
 20
303.049035
 30
0.0
 40
11.2
100
AcDbArc
 50
12.984112
 51
30.742694
  0
ARC
  5
362
100
AcDbEntity
  8
2
100
AcDbCircle
 10
-494.128446
 20
303.249035
 30
0.0
 40
10.3
100
AcDbArc
 50
152.801464
 51
166.803615
  0
LINE
  5
363
100
AcDbEntity
  8
2
100
AcDbLine
 10
-423.629962
 20
310.149035
 30
0.0
 11
-426.128446
 21
310.149035
 31
0.0
  0
ARC
  5
364
100
AcDbEntity
  8
2
100
AcDbCircle
 10
-468.928446
 20
340.349035
 30
0.0
 40
38.1
100
AcDbArc
 50
257.489802
 51
282.010034
  0
ARC
  5
365
100
AcDbEntity
  8
2
100
AcDbCircle
 10
-471.528446
 20
327.549035
 30
0.0
 40
19.0
100
AcDbArc
 50
248.013597
 51
292.510479
  0
ARC
  5
366
100
AcDbEntity
  8
2
100
AcDbCircle
 10
-468.228446
 20
301.449035
 30
0.0
 40
9.7
100
AcDbArc
 50
27.791668
 51
57.213701
  0
ARC
  5
367
100
AcDbEntity
  8
2
100
AcDbCircle
 10
-486.628446
 20
306.649035
 30
0.0
 40
8.0
100
AcDbArc
 50
351.124411
 51
14.477512
  0
ARC
  5
368
100
AcDbEntity
  8
2
100
AcDbCircle
 10
-445.728446
 20
330.649035
 30
0.0
 40
28.5
100
AcDbArc
 50
254.666975
 51
284.161069
  0
ARC
  5
369
100
AcDbEntity
  8
2
100
AcDbCircle
 10
-451.028446
 20
326.449035
 30
0.0
 40
17.8
100
AcDbArc
 50
248.621499
 51
290.899028
  0
ARC
  5
36A
100
AcDbEntity
  8
2
100
AcDbCircle
 10
-445.128446
 20
301.349035
 30
0.0
 40
8.9
100
AcDbArc
 50
31.500458
 51
74.573378
  0
ARC
  5
36B
100
AcDbEntity
  8
2
100
AcDbCircle
 10
-460.728446
 20
304.749035
 30
0.0
 40
6.0
100
AcDbArc
 50
2.459196
 51
53.130102
  0
ARC
  5
36C
100
AcDbEntity
  8
2
100
AcDbCircle
 10
-425.728446
 20
321.449035
 30
0.0
 40
19.3
100
AcDbArc
 50
251.56195
 51
283.988737
  0
ARC
  5
36D
100
AcDbEntity
  8
2
100
AcDbCircle
 10
-432.928446
 20
319.849035
 30
0.0
 40
11.2
100
AcDbArc
 50
255.994128
 51
295.608305
  0
ARC
  5
36E
100
AcDbEntity
  8
2
100
AcDbCircle
 10
-426.128446
 20
305.149035
 30
0.0
 40
5.0
100
AcDbArc
 50
90.0
 51
113.068733
  0
ARC
  5
36F
100
AcDbEntity
  8
2
100
AcDbCircle
 10
-430.028446
 20
296.749035
 30
0.0
 40
13.6
100
AcDbArc
 50
43.012702
 51
73.688203
  0
ARC
  5
370
100
AcDbEntity
  8
2
100
AcDbCircle
 10
-439.428446
 20
303.949035
 30
0.0
 40
6.3
100
AcDbArc
 50
7.53278
 51
67.380135
  0
ARC
  5
371
100
AcDbEntity
  8
2
100
AcDbCircle
 10
-409.828446
 20
314.349035
 30
0.0
 40
12.2
100
AcDbArc
 50
244.256542
 51
286.000716
  0
ARC
  5
372
100
AcDbEntity
  8
2
100
AcDbCircle
 10
-417.728446
 20
317.149035
 30
0.0
 40
8.5
100
AcDbArc
 50
251.083012
 51
297.322222
  0
ARC
  5
373
100
AcDbEntity
  8
2
100
AcDbCircle
 10
-411.528446
 20
305.149035
 30
0.0
 40
5.0
100
AcDbArc
 50
90.0
 51
117.322222
  0
ARC
  5
374
100
AcDbEntity
  8
2
100
AcDbCircle
 10
-414.928446
 20
297.949035
 30
0.0
 40
12.3
100
AcDbArc
 50
39.814743
 51
74.699906
  0
ARC
  5
375
100
AcDbEntity
  8
2
100
AcDbCircle
 10
-426.928446
 20
298.749035
 30
0.0
 40
12.2
100
AcDbArc
 50
26.844811
 51
62.733956
  0
LINE
  5
376
100
AcDbEntity
  8
2
100
AcDbLine
 10
-402.228446
 20
302.149035
 30
0.0
 11
-404.328446
 21
302.149035
 31
0.0
  0
LINE
  5
377
100
AcDbEntity
  8
2
100
AcDbLine
 10
-415.228446
 20
302.149035
 30
0.0
 11
-418.328446
 21
302.149035
 31
0.0
  0
LINE
  5
378
100
AcDbEntity
  8
2
100
AcDbLine
 10
-433.528446
 20
302.149035
 30
0.0
 11
-436.128446
 21
302.149035
 31
0.0
  0
LINE
  5
379
100
AcDbEntity
  8
2
100
AcDbLine
 10
-454.528446
 20
302.149035
 30
0.0
 11
-458.428446
 21
302.149035
 31
0.0
  0
LINE
  5
37A
100
AcDbEntity
  8
2
100
AcDbLine
 10
-478.328446
 20
302.149035
 30
0.0
 11
-483.128446
 21
302.149035
 31
0.0
  0
LINE
  5
37B
100
AcDbEntity
  8
2
100
AcDbLine
 10
-504.528446
 20
302.149035
 30
0.0
 11
-508.628446
 21
302.149035
 31
0.0
  0
LINE
  5
37C
100
AcDbEntity
  8
2
100
AcDbLine
 10
-528.428446
 20
302.149035
 30
0.0
 11
-532.528446
 21
302.149035
 31
0.0
  0
LINE
  5
37D
100
AcDbEntity
  8
2
100
AcDbLine
 10
-551.328446
 20
302.149035
 30
0.0
 11
-554.228446
 21
302.149035
 31
0.0
  0
LINE
  5
37E
100
AcDbEntity
  8
2
100
AcDbLine
 10
-568.628446
 20
302.149035
 30
0.0
 11
-571.128446
 21
302.149035
 31
0.0
  0
LINE
  5
37F
100
AcDbEntity
  8
2
100
AcDbLine
 10
-583.028446
 20
302.149035
 30
0.0
 11
-584.928446
 21
302.149035
 31
0.0
  0
LINE
  5
380
100
AcDbEntity
  8
2
100
AcDbLine
 10
-511.828446
 20
311.149035
 30
0.0
 11
-475.828446
 21
311.149035
 31
0.0
  0
ARC
  5
381
100
AcDbEntity
  8
2
100
AcDbCircle
 10
-399.528446
 20
306.349035
 30
0.0
 40
4.2
100
AcDbArc
 50
221.945518
 51
307.267545
  0
ARC
  5
382
100
AcDbEntity
  8
2
100
AcDbCircle
 10
-407.028446
 20
298.349035
 30
0.0
 40
11.9
100
AcDbArc
 50
30.020559
 51
77.925147
  0
ARC
  5
383
100
AcDbEntity
  8
2
100
AcDbCircle
 10
-404.928446
 20
307.149035
 30
0.0
 40
3.0
100
AcDbArc
 50
90.0
 51
113.288889
  0
LINE
  5
384
100
AcDbEntity
  8
2
100
AcDbLine
 10
-577.528446
 20
294.149035
 30
0.0
 11
-408.628446
 21
294.149035
 31
0.0
  0
LINE
  5
385
100
AcDbEntity
  8
2
100
AcDbLine
 10
-501.828446
 20
328.649035
 30
0.0
 11
-501.828446
 21
324.149035
 31
0.0
  0
LINE
  5
386
100
AcDbEntity
  8
2
100
AcDbLine
 10
-485.828446
 20
324.149035
 30
0.0
 11
-485.828446
 21
328.649035
 31
0.0
  0
LINE
  5
387
100
AcDbEntity
  8
2
100
AcDbLine
 10
-689.328446
 20
-69.150965
 30
0.0
 11
-689.328446
 21
-55.150965
 31
0.0
  0
LINE
  5
388
100
AcDbEntity
  8
2
100
AcDbLine
 10
-558.820754
 20
-56.150965
 30
0.0
 11
-689.328446
 21
-56.150965
 31
0.0
  0
LINE
  5
389
100
AcDbEntity
  8
2
100
AcDbLine
 10
-546.506715
 20
104.849035
 30
0.0
 11
-731.328446
 21
104.849035
 31
0.0
  0
LINE
  5
38A
100
AcDbEntity
  8
2
100
AcDbLine
 10
-782.379458
 20
-54.150965
 30
0.0
 11
-561.089133
 21
-54.150965
 31
0.0
  0
CIRCLE
  5
38B
100
AcDbEntity
  8
2
100
AcDbCircle
 10
-493.828446
 20
19.849035
 30
0.0
 40
100.0
  0
CIRCLE
  5
38C
100
AcDbEntity
  8
2
100
AcDbCircle
 10
-493.828446
 20
19.849035
 30
0.0
 40
92.0
  0
LINE
  5
38D
100
AcDbEntity
  8
2
100
AcDbLine
 10
38.771554
 20
104.849035
 30
0.0
 11
178.771554
 21
104.849035
 31
0.0
  0
LINE
  5
38E
100
AcDbEntity
  8
2
100
AcDbLine
 10
8.771554
 20
-54.150965
 30
0.0
 11
8.771554
 21
93.865326
 31
0.0
  0
LINE
  5
38F
100
AcDbEntity
  8
2
100
AcDbLine
 10
198.771554
 20
54.849035
 30
0.0
 11
25.771554
 21
54.849035
 31
0.0
  0
LINE
  5
390
100
AcDbEntity
  8
2
100
AcDbLine
 10
178.771554
 20
69.849035
 30
0.0
 11
198.771554
 21
69.849035
 31
0.0
  0
LINE
  5
391
100
AcDbEntity
  8
2
100
AcDbLine
 10
10.771554
 20
-56.150965
 30
0.0
 11
206.771554
 21
-56.150965
 31
0.0
  0
LINE
  5
392
100
AcDbEntity
  8
2
100
AcDbLine
 10
8.771554
 20
19.849035
 30
0.0
 11
221.771554
 21
19.849035
 31
0.0
  0
LINE
  5
393
100
AcDbEntity
  8
2
100
AcDbLine
 10
10.771554
 20
-56.150965
 30
0.0
 11
10.771554
 21
-55.150965
 31
0.0
  0
LINE
  5
394
100
AcDbEntity
  8
2
100
AcDbLine
 10
-100.728446
 20
33.849035
 30
0.0
 11
-100.728446
 21
5.849035
 31
0.0
  0
LINE
  5
395
100
AcDbEntity
  8
2
100
AcDbLine
 10
-100.728446
 20
5.849035
 30
0.0
 11
-102.728446
 21
3.849035
 31
0.0
  0
LINE
  5
396
100
AcDbEntity
  8
2
100
AcDbLine
 10
-111.728446
 20
3.849035
 30
0.0
 11
-102.728446
 21
3.849035
 31
0.0
  0
ARC
  5
397
100
AcDbEntity
  8
2
100
AcDbCircle
 10
-111.728446
 20
1.849035
 30
0.0
 40
2.0
100
AcDbArc
 50
90.0
 51
180.0
  0
LINE
  5
398
100
AcDbEntity
  8
2
100
AcDbLine
 10
-115.728446
 20
-0.150965
 30
0.0
 11
-116.188722
 21
-0.150965
 31
0.0
  0
ARC
  5
399
100
AcDbEntity
  8
2
100
AcDbCircle
 10
-115.728446
 20
1.849035
 30
0.0
 40
2.0
100
AcDbArc
 50
270.0
 51
0.0
  0
LINE
  5
39A
100
AcDbEntity
  8
2
100
AcDbLine
 10
-100.728446
 20
33.849035
 30
0.0
 11
-102.728446
 21
35.849035
 31
0.0
  0
LINE
  5
39B
100
AcDbEntity
  8
2
100
AcDbLine
 10
-111.728446
 20
35.849035
 30
0.0
 11
-102.728446
 21
35.849035
 31
0.0
  0
ARC
  5
39C
100
AcDbEntity
  8
2
100
AcDbCircle
 10
-111.728446
 20
37.849035
 30
0.0
 40
2.0
100
AcDbArc
 50
180.0
 51
270.0
  0
LINE
  5
39D
100
AcDbEntity
  8
2
100
AcDbLine
 10
-115.728446
 20
39.849035
 30
0.0
 11
-116.188722
 21
39.849035
 31
0.0
  0
ARC
  5
39E
100
AcDbEntity
  8
2
100
AcDbCircle
 10
-115.728446
 20
37.849035
 30
0.0
 40
2.0
100
AcDbArc
 50
0.0
 51
90.0
  0
LINE
  5
39F
100
AcDbEntity
  8
2
100
AcDbLine
 10
-102.728446
 20
35.849035
 30
0.0
 11
-102.728446
 21
3.849035
 31
0.0
  0
LINE
  5
3A0
100
AcDbEntity
  8
2
100
AcDbLine
 10
-113.728446
 20
2.849035
 30
0.0
 11
-113.728446
 21
37.149035
 31
0.0
  0
LINE
  5
3A1
100
AcDbEntity
  8
2
100
AcDbLine
 10
-96.228446
 20
27.849035
 30
0.0
 11
-100.728446
 21
27.849035
 31
0.0
  0
LINE
  5
3A2
100
AcDbEntity
  8
2
100
AcDbLine
 10
-100.728446
 20
11.849035
 30
0.0
 11
-96.228446
 21
11.849035
 31
0.0
  0
CIRCLE
  5
3A3
100
AcDbEntity
  8
2
100
AcDbCircle
 10
133.771554
 20
84.849035
 30
0.0
 40
13.0
  0
LINE
  5
3A4
100
AcDbEntity
  8
2
100
AcDbLine
 10
126.266
 20
97.849035
 30
0.0
 11
118.760447
 21
84.849035
 31
0.0
  0
LINE
  5
3A5
100
AcDbEntity
  8
2
100
AcDbLine
 10
141.277107
 20
97.849035
 30
0.0
 11
126.266
 21
97.849035
 31
0.0
  0
LINE
  5
3A6
100
AcDbEntity
  8
2
100
AcDbLine
 10
148.782661
 20
84.849035
 30
0.0
 11
141.277107
 21
97.849035
 31
0.0
  0
LINE
  5
3A7
100
AcDbEntity
  8
2
100
AcDbLine
 10
141.277107
 20
71.849035
 30
0.0
 11
148.782661
 21
84.849035
 31
0.0
  0
LINE
  5
3A8
100
AcDbEntity
  8
2
100
AcDbLine
 10
126.266
 20
71.849035
 30
0.0
 11
141.277107
 21
71.849035
 31
0.0
  0
LINE
  5
3A9
100
AcDbEntity
  8
2
100
AcDbLine
 10
118.760447
 20
84.849035
 30
0.0
 11
126.266
 21
71.849035
 31
0.0
  0
CIRCLE
  5
3AA
100
AcDbEntity
  8
2
100
AcDbCircle
 10
83.771554
 20
84.849035
 30
0.0
 40
13.0
  0
LINE
  5
3AB
100
AcDbEntity
  8
2
100
AcDbLine
 10
76.266
 20
97.849035
 30
0.0
 11
68.760447
 21
84.849035
 31
0.0
  0
LINE
  5
3AC
100
AcDbEntity
  8
2
100
AcDbLine
 10
91.277107
 20
97.849035
 30
0.0
 11
76.266
 21
97.849035
 31
0.0
  0
LINE
  5
3AD
100
AcDbEntity
  8
2
100
AcDbLine
 10
98.782661
 20
84.849035
 30
0.0
 11
91.277107
 21
97.849035
 31
0.0
  0
LINE
  5
3AE
100
AcDbEntity
  8
2
100
AcDbLine
 10
91.277107
 20
71.849035
 30
0.0
 11
98.782661
 21
84.849035
 31
0.0
  0
LINE
  5
3AF
100
AcDbEntity
  8
2
100
AcDbLine
 10
76.266
 20
71.849035
 30
0.0
 11
91.277107
 21
71.849035
 31
0.0
  0
LINE
  5
3B0
100
AcDbEntity
  8
2
100
AcDbLine
 10
68.760447
 20
84.849035
 30
0.0
 11
76.266
 21
71.849035
 31
0.0
  0
LINE
  5
3B1
100
AcDbEntity
  8
2
100
AcDbLine
 10
-457.328446
 20
571.649035
 30
0.0
 11
-457.328446
 21
545.649035
 31
0.0
  0
LINE
  5
3B2
100
AcDbEntity
  8
2
100
AcDbLine
 10
-462.328446
 20
573.660142
 30
0.0
 11
-462.328446
 21
543.637928
 31
0.0
  0
LINE
  5
3B3
100
AcDbEntity
  8
2
100
AcDbLine
 10
-458.48956
 20
543.637928
 30
0.0
 11
-462.328446
 21
543.637928
 31
0.0
  0
LINE
  5
3B4
100
AcDbEntity
  8
2
100
AcDbLine
 10
-458.48956
 20
551.143482
 30
0.0
 11
-462.328446
 21
551.143482
 31
0.0
  0
LINE
  5
3B5
100
AcDbEntity
  8
2
100
AcDbLine
 10
-458.48956
 20
566.154589
 30
0.0
 11
-462.328446
 21
566.154589
 31
0.0
  0
LINE
  5
3B6
100
AcDbEntity
  8
2
100
AcDbLine
 10
-458.48956
 20
573.660142
 30
0.0
 11
-462.328446
 21
573.660142
 31
0.0
  0
LINE
  5
3B7
100
AcDbEntity
  8
2
100
AcDbLine
 10
-457.328446
 20
545.649035
 30
0.0
 11
-458.48956
 21
543.637928
 31
0.0
  0
LINE
  5
3B8
100
AcDbEntity
  8
2
100
AcDbLine
 10
-457.328446
 20
571.649035
 30
0.0
 11
-458.48956
 21
573.660142
 31
0.0
  0
ARC
  5
3B9
100
AcDbEntity
  8
2
100
AcDbCircle
 10
-482.167333
 20
558.649035
 30
0.0
 40
24.838887
100
AcDbArc
 50
342.412046
 51
17.587954
  0
ARC
  5
3BA
100
AcDbEntity
  8
2
100
AcDbCircle
 10
-463.973582
 20
547.390705
 30
0.0
 40
6.645136
100
AcDbArc
 50
325.615736
 51
34.384264
  0
ARC
  5
3BB
100
AcDbEntity
  8
2
100
AcDbCircle
 10
-463.973582
 20
569.907365
 30
0.0
 40
6.645136
100
AcDbArc
 50
325.615736
 51
34.384264
  0
LINE
  5
3BC
100
AcDbEntity
  8
2
100
AcDbLine
 10
-462.328446
 20
567.649035
 30
0.0
 11
-465.328446
 21
567.649035
 31
0.0
  0
LINE
  5
3BD
100
AcDbEntity
  8
2
100
AcDbLine
 10
-465.328446
 20
549.649035
 30
0.0
 11
-462.328446
 21
549.649035
 31
0.0
  0
LINE
  5
3BE
100
AcDbEntity
  8
2
100
AcDbLine
 10
-457.328446
 20
521.649035
 30
0.0
 11
-457.328446
 21
495.649035
 31
0.0
  0
LINE
  5
3BF
100
AcDbEntity
  8
2
100
AcDbLine
 10
-462.328446
 20
523.660142
 30
0.0
 11
-462.328446
 21
493.637928
 31
0.0
  0
LINE
  5
3C0
100
AcDbEntity
  8
2
100
AcDbLine
 10
-458.48956
 20
493.637928
 30
0.0
 11
-462.328446
 21
493.637928
 31
0.0
  0
LINE
  5
3C1
100
AcDbEntity
  8
2
100
AcDbLine
 10
-458.48956
 20
501.143482
 30
0.0
 11
-462.328446
 21
501.143482
 31
0.0
  0
LINE
  5
3C2
100
AcDbEntity
  8
2
100
AcDbLine
 10
-458.48956
 20
516.154589
 30
0.0
 11
-462.328446
 21
516.154589
 31
0.0
  0
LINE
  5
3C3
100
AcDbEntity
  8
2
100
AcDbLine
 10
-458.48956
 20
523.660142
 30
0.0
 11
-462.328446
 21
523.660142
 31
0.0
  0
LINE
  5
3C4
100
AcDbEntity
  8
2
100
AcDbLine
 10
-457.328446
 20
495.649035
 30
0.0
 11
-458.48956
 21
493.637928
 31
0.0
  0
LINE
  5
3C5
100
AcDbEntity
  8
2
100
AcDbLine
 10
-457.328446
 20
521.649035
 30
0.0
 11
-458.48956
 21
523.660142
 31
0.0
  0
ARC
  5
3C6
100
AcDbEntity
  8
2
100
AcDbCircle
 10
-482.167333
 20
508.649035
 30
0.0
 40
24.838887
100
AcDbArc
 50
342.412046
 51
17.587954
  0
ARC
  5
3C7
100
AcDbEntity
  8
2
100
AcDbCircle
 10
-463.973582
 20
497.390705
 30
0.0
 40
6.645136
100
AcDbArc
 50
325.615736
 51
34.384264
  0
ARC
  5
3C8
100
AcDbEntity
  8
2
100
AcDbCircle
 10
-463.973582
 20
519.907365
 30
0.0
 40
6.645136
100
AcDbArc
 50
325.615736
 51
34.384264
  0
LINE
  5
3C9
100
AcDbEntity
  8
2
100
AcDbLine
 10
-462.328446
 20
517.649035
 30
0.0
 11
-465.328446
 21
517.649035
 31
0.0
  0
LINE
  5
3CA
100
AcDbEntity
  8
2
100
AcDbLine
 10
-465.328446
 20
499.649035
 30
0.0
 11
-462.328446
 21
499.649035
 31
0.0
  0
ARC
  5
3CB
100
AcDbEntity
  8
2
100
AcDbCircle
 10
-401.820487
 20
302.156995
 30
0.0
 40
7.992041
100
AcDbArc
 50
279.335119
 51
90.0
  0
ARC
  5
3CC
100
AcDbEntity
  8
2
100
AcDbCircle
 10
-397.590726
 20
303.802422
 30
0.0
 40
1.0
100
AcDbArc
 50
307.267545
 51
30.020559
  0
ARC
  5
3CD
100
AcDbEntity
  8
2
100
AcDbCircle
 10
-407.458798
 20
313.027583
 30
0.0
 40
3.4
100
AcDbArc
 50
266.638278
 51
293.288889
  0
ARC
  5
3CE
100
AcDbEntity
  8
2
100
AcDbCircle
 10
-405.166661
 20
307.052124
 30
0.0
 40
3.0
100
AcDbArc
 50
77.925147
 51
110.986403
  0
ARC
  5
3CF
100
AcDbEntity
  8
2
100
AcDbCircle
 10
-401.908545
 20
304.21008
 30
0.0
 40
1.0
100
AcDbArc
 50
191.678445
 51
221.945518
  0
ARC
  5
3D0
100
AcDbEntity
  8
2
100
AcDbCircle
 10
-410.428446
 20
302.449035
 30
0.0
 40
7.7
100
AcDbArc
 50
11.678445
 51
90.0
  0
ARC
  5
3D1
100
AcDbEntity
  8
2
100
AcDbCircle
 10
-407.016823
 20
304.544201
 30
0.0
 40
2.0
100
AcDbArc
 50
286.000716
 51
39.814743
  0
ARC
  5
3D2
100
AcDbEntity
  8
2
100
AcDbCircle
 10
-414.258739
 20
305.161407
 30
0.0
 40
2.0
100
AcDbArc
 50
206.844811
 51
244.256542
  0
ARC
  5
3D3
100
AcDbEntity
  8
2
100
AcDbCircle
 10
-412.474412
 20
306.919415
 30
0.0
 40
3.0
100
AcDbArc
 50
74.699906
 51
117.185481
  0
ARC
  5
3D4
100
AcDbEntity
  8
2
100
AcDbCircle
 10
-423.629962
 20
305.149035
 30
0.0
 40
5.0
100
AcDbArc
 50
62.733956
 51
90.0
  0
ARC
  5
3D5
100
AcDbEntity
  8
2
100
AcDbCircle
 10
-431.200075
 20
305.03711
 30
0.0
 40
2.0
100
AcDbArc
 50
187.53278
 51
251.56195
  0
ARC
  5
3D6
100
AcDbEntity
  8
2
100
AcDbCircle
 10
-421.546497
 20
304.662097
 30
0.0
 40
2.0
100
AcDbArc
 50
283.988737
 51
43.012702
  0
ARC
  5
3D7
100
AcDbEntity
  8
2
100
AcDbCircle
 10
-427.051285
 20
306.922359
 30
0.0
 40
3.0
100
AcDbArc
 50
73.688203
 51
114.449096
  0
ARC
  5
3D8
100
AcDbEntity
  8
2
100
AcDbCircle
 10
-438.928446
 20
305.149035
 30
0.0
 40
5.0
100
AcDbArc
 50
67.380135
 51
90.0
  0
ARC
  5
3D9
100
AcDbEntity
  8
2
100
AcDbCircle
 10
-439.245258
 20
304.954322
 30
0.0
 40
2.0
100
AcDbArc
 50
284.161069
 51
31.500458
  0
ARC
  5
3DA
100
AcDbEntity
  8
2
100
AcDbCircle
 10
-452.735814
 20
305.092298
 30
0.0
 40
2.0
100
AcDbArc
 50
182.459196
 51
254.666975
  0
ARC
  5
3DB
100
AcDbEntity
  8
2
100
AcDbCircle
 10
-442.895181
 20
305.149035
 30
0.0
 40
5.0
100
AcDbArc
 50
90.0
 51
110.899028
  0
ARC
  5
3DC
100
AcDbEntity
  8
2
100
AcDbCircle
 10
-443.559023
 20
307.03647
 30
0.0
 40
3.0
100
AcDbArc
 50
74.573378
 51
111.045359
  0
ARC
  5
3DD
100
AcDbEntity
  8
2
100
AcDbCircle
 10
-458.975144
 20
306.149035
 30
0.0
 40
4.0
100
AcDbArc
 50
68.621499
 51
90.0
  0
ARC
  5
3DE
100
AcDbEntity
  8
2
100
AcDbCircle
 10
-458.928446
 20
307.149035
 30
0.0
 40
3.0
100
AcDbArc
 50
53.130102
 51
90.0
  0
ARC
  5
3DF
100
AcDbEntity
  8
2
100
AcDbCircle
 10
-476.748189
 20
305.106141
 30
0.0
 40
2.0
100
AcDbArc
 50
171.124411
 51
257.489802
  0
ARC
  5
3E0
100
AcDbEntity
  8
2
100
AcDbCircle
 10
-461.416651
 20
305.039222
 30
0.0
 40
2.0
100
AcDbArc
 50
282.010034
 51
27.791668
  0
ARC
  5
3E1
100
AcDbEntity
  8
2
100
AcDbCircle
 10
-463.488546
 20
308.149035
 30
0.0
 40
2.0
100
AcDbArc
 50
90.0
 51
112.510479
  0
ARC
  5
3E2
100
AcDbEntity
  8
2
100
AcDbCircle
 10
-464.058841
 20
307.922395
 30
0.0
 40
2.0
100
AcDbArc
 50
57.213701
 51
110.836076
  0
ARC
  5
3E3
100
AcDbEntity
  8
2
100
AcDbCircle
 10
-480.818971
 20
308.149035
 30
0.0
 40
2.0
100
AcDbArc
 50
14.477512
 51
90.0
  0
ARC
  5
3E4
100
AcDbEntity
  8
2
100
AcDbCircle
 10
-479.76495
 20
307.149035
 30
0.0
 40
3.0
100
AcDbArc
 50
68.013597
 51
90.0
  0
ARC
  5
3E5
100
AcDbEntity
  8
2
100
AcDbCircle
 10
-485.563668
 20
305.116099
 30
0.0
 40
2.0
100
AcDbArc
 50
283.347693
 51
12.984112
  0
ARC
  5
3E6
100
AcDbEntity
  8
2
100
AcDbCircle
 10
-502.209271
 20
305.143838
 30
0.0
 40
2.0
100
AcDbArc
 50
166.803615
 51
256.46135
  0
ARC
  5
3E7
100
AcDbEntity
  8
2
100
AcDbCircle
 10
-486.621308
 20
307.751923
 30
0.0
 40
2.0
100
AcDbArc
 50
30.742694
 51
107.400637
  0
ARC
  5
3E8
100
AcDbEntity
  8
2
100
AcDbCircle
 10
-485.281517
 20
307.149035
 30
0.0
 40
3.0
100
AcDbArc
 50
90.0
 51
109.90826
  0
ARC
  5
3E9
100
AcDbEntity
  8
2
100
AcDbCircle
 10
-502.198034
 20
308.149035
 30
0.0
 40
2.0
100
AcDbArc
 50
69.678608
 51
90.0
  0
ARC
  5
3EA
100
AcDbEntity
  8
2
100
AcDbCircle
 10
-500.621271
 20
306.585684
 30
0.0
 40
3.0
100
AcDbArc
 50
74.298213
 51
152.801464
  0
LINE
  5
3EB
100
AcDbEntity
  8
2
100
AcDbLine
 10
-502.198034
 20
310.149035
 30
0.0
 11
-507.891942
 21
310.149035
 31
0.0
  0
LINE
  5
3EC
100
AcDbEntity
  8
2
100
AcDbLine
 10
-576.128446
 20
310.149035
 30
0.0
 11
-577.228446
 21
310.149035
 31
0.0
  0
LINE
  5
3ED
100
AcDbEntity
  8
2
100
AcDbLine
 10
-582.728446
 20
310.149035
 30
0.0
 11
-585.836406
 21
310.149035
 31
0.0
  0
LINE
  5
3EE
100
AcDbEntity
  8
2
100
AcDbLine
 10
-564.128446
 20
310.149035
 30
0.0
 11
-561.528446
 21
310.149035
 31
0.0
  0
LINE
  5
3EF
100
AcDbEntity
  8
2
100
AcDbLine
 10
-548.728446
 20
310.149035
 30
0.0
 11
-544.728446
 21
310.149035
 31
0.0
  0
LINE
  5
3F0
100
AcDbEntity
  8
2
100
AcDbLine
 10
-528.628446
 20
310.149035
 30
0.0
 11
-524.168347
 21
310.149035
 31
0.0
  0
ARC
  5
3F1
100
AcDbEntity
  8
2
100
AcDbCircle
 10
-518.728446
 20
340.349035
 30
0.0
 40
38.1
100
AcDbArc
 50
257.989966
 51
282.510198
  0
ARC
  5
3F2
100
AcDbEntity
  8
2
100
AcDbCircle
 10
-516.128446
 20
327.549035
 30
0.0
 40
19.0
100
AcDbArc
 50
247.489521
 51
291.986403
  0
ARC
  5
3F3
100
AcDbEntity
  8
2
100
AcDbCircle
 10
-519.428446
 20
301.449035
 30
0.0
 40
9.7
100
AcDbArc
 50
122.786299
 51
152.208332
  0
ARC
  5
3F4
100
AcDbEntity
  8
2
100
AcDbCircle
 10
-501.028446
 20
306.649035
 30
0.0
 40
8.0
100
AcDbArc
 50
165.522488
 51
188.875589
  0
ARC
  5
3F5
100
AcDbEntity
  8
2
100
AcDbCircle
 10
-541.928446
 20
330.649035
 30
0.0
 40
28.5
100
AcDbArc
 50
255.838931
 51
285.333025
  0
ARC
  5
3F6
100
AcDbEntity
  8
2
100
AcDbCircle
 10
-536.628446
 20
326.449035
 30
0.0
 40
17.8
100
AcDbArc
 50
249.100972
 51
291.378501
  0
ARC
  5
3F7
100
AcDbEntity
  8
2
100
AcDbCircle
 10
-542.528446
 20
301.349035
 30
0.0
 40
8.9
100
AcDbArc
 50
105.426622
 51
148.499542
  0
ARC
  5
3F8
100
AcDbEntity
  8
2
100
AcDbCircle
 10
-526.928446
 20
304.749035
 30
0.0
 40
6.0
100
AcDbArc
 50
126.869898
 51
177.540804
  0
ARC
  5
3F9
100
AcDbEntity
  8
2
100
AcDbCircle
 10
-561.928446
 20
321.449035
 30
0.0
 40
19.3
100
AcDbArc
 50
256.011263
 51
288.43805
  0
ARC
  5
3FA
100
AcDbEntity
  8
2
100
AcDbCircle
 10
-554.728446
 20
319.849035
 30
0.0
 40
11.2
100
AcDbArc
 50
244.391695
 51
284.005872
  0
ARC
  5
3FB
100
AcDbEntity
  8
2
100
AcDbCircle
 10
-561.528446
 20
305.149035
 30
0.0
 40
5.0
100
AcDbArc
 50
66.931267
 51
90.0
  0
ARC
  5
3FC
100
AcDbEntity
  8
2
100
AcDbCircle
 10
-557.628446
 20
296.749035
 30
0.0
 40
13.6
100
AcDbArc
 50
106.311797
 51
136.987298
  0
ARC
  5
3FD
100
AcDbEntity
  8
2
100
AcDbCircle
 10
-548.228446
 20
303.949035
 30
0.0
 40
6.3
100
AcDbArc
 50
112.619865
 51
172.46722
  0
ARC
  5
3FE
100
AcDbEntity
  8
2
100
AcDbCircle
 10
-577.828446
 20
314.349035
 30
0.0
 40
12.2
100
AcDbArc
 50
253.999284
 51
295.743458
  0
ARC
  5
3FF
100
AcDbEntity
  8
2
100
AcDbCircle
 10
-569.928446
 20
317.149035
 30
0.0
 40
8.5
100
AcDbArc
 50
242.677778
 51
288.916988
  0
ARC
  5
400
100
AcDbEntity
  8
2
100
AcDbCircle
 10
-576.128446
 20
305.149035
 30
0.0
 40
5.0
100
AcDbArc
 50
62.677778
 51
90.0
  0
ARC
  5
401
100
AcDbEntity
  8
2
100
AcDbCircle
 10
-572.728446
 20
297.949035
 30
0.0
 40
12.3
100
AcDbArc
 50
105.300094
 51
140.185257
  0
ARC
  5
402
100
AcDbEntity
  8
2
100
AcDbCircle
 10
-560.728446
 20
298.749035
 30
0.0
 40
12.2
100
AcDbArc
 50
117.266044
 51
153.155189
  0
ARC
  5
403
100
AcDbEntity
  8
2
100
AcDbCircle
 10
-588.128446
 20
306.349035
 30
0.0
 40
4.2
100
AcDbArc
 50
232.732455
 51
318.054482
  0
ARC
  5
404
100
AcDbEntity
  8
2
100
AcDbCircle
 10
-580.628446
 20
298.349035
 30
0.0
 40
11.9
100
AcDbArc
 50
102.074853
 51
149.979441
  0
ARC
  5
405
100
AcDbEntity
  8
2
100
AcDbCircle
 10
-582.728446
 20
307.149035
 30
0.0
 40
3.0
100
AcDbArc
 50
66.711111
 51
90.0
  0
ARC
  5
406
100
AcDbEntity
  8
2
100
AcDbCircle
 10
-585.836406
 20
302.156995
 30
0.0
 40
7.992041
100
AcDbArc
 50
90.0
 51
260.664881
  0
ARC
  5
407
100
AcDbEntity
  8
2
100
AcDbCircle
 10
-590.066167
 20
303.802422
 30
0.0
 40
1.0
100
AcDbArc
 50
149.979441
 51
232.732455
  0
ARC
  5
408
100
AcDbEntity
  8
2
100
AcDbCircle
 10
-580.198095
 20
313.027583
 30
0.0
 40
3.4
100
AcDbArc
 50
246.711111
 51
273.361722
  0
ARC
  5
409
100
AcDbEntity
  8
2
100
AcDbCircle
 10
-582.490232
 20
307.052124
 30
0.0
 40
3.0
100
AcDbArc
 50
69.013597
 51
102.074853
  0
ARC
  5
40A
100
AcDbEntity
  8
2
100
AcDbCircle
 10
-577.228446
 20
302.449035
 30
0.0
 40
7.7
100
AcDbArc
 50
90.0
 51
168.321555
  0
ARC
  5
40B
100
AcDbEntity
  8
2
100
AcDbCircle
 10
-580.64007
 20
304.544201
 30
0.0
 40
2.0
100
AcDbArc
 50
140.185257
 51
253.999284
  0
ARC
  5
40C
100
AcDbEntity
  8
2
100
AcDbCircle
 10
-573.398154
 20
305.161407
 30
0.0
 40
2.0
100
AcDbArc
 50
295.743458
 51
333.155189
  0
ARC
  5
40D
100
AcDbEntity
  8
2
100
AcDbCircle
 10
-575.18248
 20
306.919415
 30
0.0
 40
3.0
100
AcDbArc
 50
62.814519
 51
105.300094
  0
ARC
  5
40E
100
AcDbEntity
  8
2
100
AcDbCircle
 10
-564.026931
 20
305.149035
 30
0.0
 40
5.0
100
AcDbArc
 50
90.0
 51
117.266044
  0
ARC
  5
40F
100
AcDbEntity
  8
2
100
AcDbCircle
 10
-556.456818
 20
305.03711
 30
0.0
 40
2.0
100
AcDbArc
 50
288.43805
 51
352.46722
  0
ARC
  5
410
100
AcDbEntity
  8
2
100
AcDbCircle
 10
-566.110395
 20
304.662097
 30
0.0
 40
2.0
100
AcDbArc
 50
136.987298
 51
256.011263
  0
ARC
  5
411
100
AcDbEntity
  8
2
100
AcDbCircle
 10
-560.605608
 20
306.922359
 30
0.0
 40
3.0
100
AcDbArc
 50
65.550904
 51
106.311797
  0
ARC
  5
412
100
AcDbEntity
  8
2
100
AcDbCircle
 10
-548.728446
 20
305.149035
 30
0.0
 40
5.0
100
AcDbArc
 50
90.0
 51
112.619865
  0
ARC
  5
413
100
AcDbEntity
  8
2
100
AcDbCircle
 10
-548.411635
 20
304.954322
 30
0.0
 40
2.0
100
AcDbArc
 50
148.499542
 51
255.838931
  0
ARC
  5
414
100
AcDbEntity
  8
2
100
AcDbCircle
 10
-534.921079
 20
305.092298
 30
0.0
 40
2.0
100
AcDbArc
 50
285.333025
 51
357.540804
  0
ARC
  5
415
100
AcDbEntity
  8
2
100
AcDbCircle
 10
-544.761711
 20
305.149035
 30
0.0
 40
5.0
100
AcDbArc
 50
69.100972
 51
90.0
  0
ARC
  5
416
100
AcDbEntity
  8
2
100
AcDbCircle
 10
-544.09787
 20
307.03647
 30
0.0
 40
3.0
100
AcDbArc
 50
68.954641
 51
105.426622
  0
ARC
  5
417
100
AcDbEntity
  8
2
100
AcDbCircle
 10
-528.681749
 20
306.149035
 30
0.0
 40
4.0
100
AcDbArc
 50
90.0
 51
111.378501
  0
ARC
  5
418
100
AcDbEntity
  8
2
100
AcDbCircle
 10
-528.728446
 20
307.149035
 30
0.0
 40
3.0
100
AcDbArc
 50
90.0
 51
126.869898
  0
ARC
  5
419
100
AcDbEntity
  8
2
100
AcDbCircle
 10
-510.908703
 20
305.106141
 30
0.0
 40
2.0
100
AcDbArc
 50
282.510198
 51
8.875589
  0
ARC
  5
41A
100
AcDbEntity
  8
2
100
AcDbCircle
 10
-526.240242
 20
305.039222
 30
0.0
 40
2.0
100
AcDbArc
 50
152.208332
 51
257.989966
  0
ARC
  5
41B
100
AcDbEntity
  8
2
100
AcDbCircle
 10
-524.168347
 20
308.149035
 30
0.0
 40
2.0
100
AcDbArc
 50
67.489521
 51
90.0
  0
ARC
  5
41C
100
AcDbEntity
  8
2
100
AcDbCircle
 10
-523.598052
 20
307.922395
 30
0.0
 40
2.0
100
AcDbArc
 50
69.163924
 51
122.786299
  0
ARC
  5
41D
100
AcDbEntity
  8
2
100
AcDbCircle
 10
-506.837921
 20
308.149035
 30
0.0
 40
2.0
100
AcDbArc
 50
90.0
 51
165.522488
  0
ARC
  5
41E
100
AcDbEntity
  8
2
100
AcDbCircle
 10
-507.891942
 20
307.149035
 30
0.0
 40
3.0
100
AcDbArc
 50
90.0
 51
111.986403
  0
LINE
  5
41F
100
AcDbEntity
  8
2
100
AcDbLine
 10
-136.728446
 20
54.404124
 30
0.0
 11
-136.728446
 21
-14.706054
 31
0.0
  0
LINE
  5
420
100
AcDbEntity
  8
2
100
AcDbLine
 10
-114.728446
 20
11.302106
 30
0.0
 11
-114.728446
 21
5.785539
 31
0.0
  0
LINE
  5
421
100
AcDbEntity
  8
2
100
AcDbLine
 10
-114.728446
 20
-10.550965
 30
0.0
 11
-114.728446
 21
-15.004267
 31
0.0
  0
LINE
  5
422
100
AcDbEntity
  8
2
100
AcDbLine
 10
-114.728446
 20
-31.08423
 30
0.0
 11
-114.728446
 21
-35.050965
 31
0.0
  0
LINE
  5
423
100
AcDbEntity
  8
2
100
AcDbLine
 10
-114.728446
 20
-47.850965
 30
0.0
 11
-114.728446
 21
-50.349449
 31
0.0
  0
LINE
  5
424
100
AcDbEntity
  8
2
100
AcDbLine
 10
-114.728446
 20
-62.450965
 30
0.0
 11
-114.728446
 21
-63.550965
 31
0.0
  0
LINE
  5
425
100
AcDbEntity
  8
2
100
AcDbLine
 10
-114.728446
 20
-69.050965
 30
0.0
 11
-114.728446
 21
-72.158924
 31
0.0
  0
ARC
  5
426
100
AcDbEntity
  8
2
100
AcDbCircle
 10
362.771554
 20
32.049035
 30
0.0
 40
500.0
100
AcDbArc
 50
170.664881
 51
177.437441
  0
ARC
  5
427
100
AcDbEntity
  8
2
100
AcDbCircle
 10
362.771554
 20
7.649035
 30
0.0
 40
500.0
100
AcDbArc
 50
182.562559
 51
189.335119
  0
ARC
  5
428
100
AcDbEntity
  8
2
100
AcDbCircle
 10
-84.928446
 20
19.849035
 30
0.0
 40
37.8
100
AcDbArc
 50
166.46135
 51
193.347693
  0
ARC
  5
429
100
AcDbEntity
  8
2
100
AcDbCircle
 10
-94.128446
 20
19.849035
 30
0.0
 40
22.1
100
AcDbArc
 50
159.678608
 51
199.90826
  0
ARC
  5
42A
100
AcDbEntity
  8
2
100
AcDbCircle
 10
-121.828446
 20
20.549035
 30
0.0
 40
11.2
100
AcDbArc
 50
282.984112
 51
300.742694
  0
ARC
  5
42B
100
AcDbEntity
  8
2
100
AcDbCircle
 10
-121.628446
 20
20.149035
 30
0.0
 40
10.3
100
AcDbArc
 50
62.801464
 51
76.803615
  0
LINE
  5
42C
100
AcDbEntity
  8
2
100
AcDbLine
 10
-114.728446
 20
-50.450965
 30
0.0
 11
-114.728446
 21
-47.850965
 31
0.0
  0
LINE
  5
42D
100
AcDbEntity
  8
2
100
AcDbLine
 10
-114.728446
 20
-34.850965
 30
0.0
 11
-114.728446
 21
-31.050965
 31
0.0
  0
LINE
  5
42E
100
AcDbEntity
  8
2
100
AcDbLine
 10
-114.728446
 20
-14.950965
 30
0.0
 11
-114.728446
 21
-10.490865
 31
0.0
  0
ARC
  5
42F
100
AcDbEntity
  8
2
100
AcDbCircle
 10
-84.528446
 20
-5.050965
 30
0.0
 40
38.1
100
AcDbArc
 50
167.489802
 51
192.010034
  0
ARC
  5
430
100
AcDbEntity
  8
2
100
AcDbCircle
 10
-97.328446
 20
-2.450965
 30
0.0
 40
19.0
100
AcDbArc
 50
158.013597
 51
202.510479
  0
ARC
  5
431
100
AcDbEntity
  8
2
100
AcDbCircle
 10
-123.428446
 20
-5.750965
 30
0.0
 40
9.7
100
AcDbArc
 50
297.791668
 51
327.213701
  0
ARC
  5
432
100
AcDbEntity
  8
2
100
AcDbCircle
 10
-118.228446
 20
12.649035
 30
0.0
 40
8.0
100
AcDbArc
 50
261.124411
 51
284.477512
  0
ARC
  5
433
100
AcDbEntity
  8
2
100
AcDbCircle
 10
-94.228446
 20
-28.250965
 30
0.0
 40
28.5
100
AcDbArc
 50
164.666975
 51
194.161069
  0
ARC
  5
434
100
AcDbEntity
  8
2
100
AcDbCircle
 10
-98.428446
 20
-22.950965
 30
0.0
 40
17.8
100
AcDbArc
 50
158.621499
 51
200.899028
  0
ARC
  5
435
100
AcDbEntity
  8
2
100
AcDbCircle
 10
-123.528446
 20
-28.850965
 30
0.0
 40
8.9
100
AcDbArc
 50
301.500458
 51
344.573378
  0
ARC
  5
436
100
AcDbEntity
  8
2
100
AcDbCircle
 10
-120.128446
 20
-13.250965
 30
0.0
 40
6.0
100
AcDbArc
 50
272.459196
 51
323.130102
  0
ARC
  5
437
100
AcDbEntity
  8
2
100
AcDbCircle
 10
-103.428446
 20
-48.250965
 30
0.0
 40
19.3
100
AcDbArc
 50
161.56195
 51
193.988737
  0
ARC
  5
438
100
AcDbEntity
  8
2
100
AcDbCircle
 10
-105.028446
 20
-41.050965
 30
0.0
 40
11.2
100
AcDbArc
 50
165.994128
 51
205.608305
  0
ARC
  5
439
100
AcDbEntity
  8
2
100
AcDbCircle
 10
-119.728446
 20
-47.850965
 30
0.0
 40
5.0
100
AcDbArc
 50
0.0
 51
23.068733
  0
ARC
  5
43A
100
AcDbEntity
  8
2
100
AcDbCircle
 10
-128.128446
 20
-43.950965
 30
0.0
 40
13.6
100
AcDbArc
 50
313.012702
 51
343.688203
  0
ARC
  5
43B
100
AcDbEntity
  8
2
100
AcDbCircle
 10
-120.928446
 20
-34.550965
 30
0.0
 40
6.3
100
AcDbArc
 50
277.53278
 51
337.380135
  0
ARC
  5
43C
100
AcDbEntity
  8
2
100
AcDbCircle
 10
-110.528446
 20
-64.150965
 30
0.0
 40
12.2
100
AcDbArc
 50
154.256542
 51
196.000716
  0
ARC
  5
43D
100
AcDbEntity
  8
2
100
AcDbCircle
 10
-107.728446
 20
-56.250965
 30
0.0
 40
8.5
100
AcDbArc
 50
161.083012
 51
207.322222
  0
ARC
  5
43E
100
AcDbEntity
  8
2
100
AcDbCircle
 10
-119.728446
 20
-62.450965
 30
0.0
 40
5.0
100
AcDbArc
 50
0.0
 51
27.322222
  0
ARC
  5
43F
100
AcDbEntity
  8
2
100
AcDbCircle
 10
-126.928446
 20
-59.050965
 30
0.0
 40
12.3
100
AcDbArc
 50
309.814743
 51
344.699906
  0
ARC
  5
440
100
AcDbEntity
  8
2
100
AcDbCircle
 10
-126.128446
 20
-47.050965
 30
0.0
 40
12.2
100
AcDbArc
 50
296.844811
 51
332.733956
  0
LINE
  5
441
100
AcDbEntity
  8
2
100
AcDbLine
 10
-122.728446
 20
-71.750965
 30
0.0
 11
-122.728446
 21
-69.650965
 31
0.0
  0
LINE
  5
442
100
AcDbEntity
  8
2
100
AcDbLine
 10
-122.728446
 20
-58.750965
 30
0.0
 11
-122.728446
 21
-55.650965
 31
0.0
  0
LINE
  5
443
100
AcDbEntity
  8
2
100
AcDbLine
 10
-122.728446
 20
-40.450965
 30
0.0
 11
-122.728446
 21
-37.850965
 31
0.0
  0
LINE
  5
444
100
AcDbEntity
  8
2
100
AcDbLine
 10
-122.728446
 20
-19.450965
 30
0.0
 11
-122.728446
 21
-15.550965
 31
0.0
  0
LINE
  5
445
100
AcDbEntity
  8
2
100
AcDbLine
 10
-122.728446
 20
4.349035
 30
0.0
 11
-122.728446
 21
9.149035
 31
0.0
  0
LINE
  5
446
100
AcDbEntity
  8
2
100
AcDbLine
 10
-122.728446
 20
30.549035
 30
0.0
 11
-122.728446
 21
34.649035
 31
0.0
  0
LINE
  5
447
100
AcDbEntity
  8
2
100
AcDbLine
 10
-122.728446
 20
54.449035
 30
0.0
 11
-122.728446
 21
58.549035
 31
0.0
  0
LINE
  5
448
100
AcDbEntity
  8
2
100
AcDbLine
 10
-122.728446
 20
77.349035
 30
0.0
 11
-122.728446
 21
80.249035
 31
0.0
  0
LINE
  5
449
100
AcDbEntity
  8
2
100
AcDbLine
 10
-122.728446
 20
94.649035
 30
0.0
 11
-122.728446
 21
97.149035
 31
0.0
  0
LINE
  5
44A
100
AcDbEntity
  8
2
100
AcDbLine
 10
-122.728446
 20
109.049035
 30
0.0
 11
-122.728446
 21
110.949035
 31
0.0
  0
ARC
  5
44B
100
AcDbEntity
  8
2
100
AcDbCircle
 10
-118.528446
 20
-74.450965
 30
0.0
 40
4.2
100
AcDbArc
 50
131.945518
 51
217.267545
  0
ARC
  5
44C
100
AcDbEntity
  8
2
100
AcDbCircle
 10
-126.528446
 20
-66.950965
 30
0.0
 40
11.9
100
AcDbArc
 50
300.020559
 51
347.925147
  0
ARC
  5
44D
100
AcDbEntity
  8
2
100
AcDbCircle
 10
-117.728446
 20
-69.050965
 30
0.0
 40
3.0
100
AcDbArc
 50
0.0
 51
23.288889
  0
LINE
  5
44E
100
AcDbEntity
  8
2
100
AcDbLine
 10
-130.728446
 20
103.549035
 30
0.0
 11
-130.728446
 21
-65.350965
 31
0.0
  0
ARC
  5
44F
100
AcDbEntity
  8
2
100
AcDbCircle
 10
-122.720487
 20
-72.158924
 30
0.0
 40
7.992041
100
AcDbArc
 50
189.335119
 51
360.0
  0
ARC
  5
450
100
AcDbEntity
  8
2
100
AcDbCircle
 10
-121.07506
 20
-76.388685
 30
0.0
 40
1.0
100
AcDbArc
 50
217.267545
 51
300.020559
  0
ARC
  5
451
100
AcDbEntity
  8
2
100
AcDbCircle
 10
-111.849899
 20
-66.520613
 30
0.0
 40
3.4
100
AcDbArc
 50
176.638278
 51
203.288889
  0
ARC
  5
452
100
AcDbEntity
  8
2
100
AcDbCircle
 10
-117.825358
 20
-68.81275
 30
0.0
 40
3.0
100
AcDbArc
 50
347.925147
 51
20.986403
  0
ARC
  5
453
100
AcDbEntity
  8
2
100
AcDbCircle
 10
-120.667402
 20
-72.070866
 30
0.0
 40
1.0
100
AcDbArc
 50
101.678445
 51
131.945518
  0
ARC
  5
454
100
AcDbEntity
  8
2
100
AcDbCircle
 10
-122.428446
 20
-63.550965
 30
0.0
 40
7.7
100
AcDbArc
 50
281.678445
 51
360.0
  0
ARC
  5
455
100
AcDbEntity
  8
2
100
AcDbCircle
 10
-120.333281
 20
-66.962588
 30
0.0
 40
2.0
100
AcDbArc
 50
196.000716
 51
309.814743
  0
ARC
  5
456
100
AcDbEntity
  8
2
100
AcDbCircle
 10
-119.716074
 20
-59.720672
 30
0.0
 40
2.0
100
AcDbArc
 50
116.844811
 51
154.256542
  0
ARC
  5
457
100
AcDbEntity
  8
2
100
AcDbCircle
 10
-117.958066
 20
-61.504999
 30
0.0
 40
3.0
100
AcDbArc
 50
344.699906
 51
27.185481
  0
ARC
  5
458
100
AcDbEntity
  8
2
100
AcDbCircle
 10
-119.728446
 20
-50.349449
 30
0.0
 40
5.0
100
AcDbArc
 50
332.733956
 51
360.0
  0
ARC
  5
459
100
AcDbEntity
  8
2
100
AcDbCircle
 10
-119.840371
 20
-42.779336
 30
0.0
 40
2.0
100
AcDbArc
 50
97.53278
 51
161.56195
  0
ARC
  5
45A
100
AcDbEntity
  8
2
100
AcDbCircle
 10
-120.215385
 20
-52.432914
 30
0.0
 40
2.0
100
AcDbArc
 50
193.988737
 51
313.012702
  0
ARC
  5
45B
100
AcDbEntity
  8
2
100
AcDbCircle
 10
-117.955123
 20
-46.928127
 30
0.0
 40
3.0
100
AcDbArc
 50
343.688203
 51
24.449096
  0
ARC
  5
45C
100
AcDbEntity
  8
2
100
AcDbCircle
 10
-119.728446
 20
-35.050965
 30
0.0
 40
5.0
100
AcDbArc
 50
337.380135
 51
360.0
  0
ARC
  5
45D
100
AcDbEntity
  8
2
100
AcDbCircle
 10
-119.923159
 20
-34.734153
 30
0.0
 40
2.0
100
AcDbArc
 50
194.161069
 51
301.500458
  0
ARC
  5
45E
100
AcDbEntity
  8
2
100
AcDbCircle
 10
-119.785183
 20
-21.243597
 30
0.0
 40
2.0
100
AcDbArc
 50
92.459196
 51
164.666975
  0
ARC
  5
45F
100
AcDbEntity
  8
2
100
AcDbCircle
 10
-119.728446
 20
-31.08423
 30
0.0
 40
5.0
100
AcDbArc
 50
0.0
 51
20.899028
  0
ARC
  5
460
100
AcDbEntity
  8
2
100
AcDbCircle
 10
-117.841012
 20
-30.420389
 30
0.0
 40
3.0
100
AcDbArc
 50
344.573378
 51
21.045359
  0
ARC
  5
461
100
AcDbEntity
  8
2
100
AcDbCircle
 10
-118.728446
 20
-15.004267
 30
0.0
 40
4.0
100
AcDbArc
 50
338.621499
 51
360.0
  0
ARC
  5
462
100
AcDbEntity
  8
2
100
AcDbCircle
 10
-117.728446
 20
-15.050965
 30
0.0
 40
3.0
100
AcDbArc
 50
323.130102
 51
360.0
  0
ARC
  5
463
100
AcDbEntity
  8
2
100
AcDbCircle
 10
-119.771341
 20
2.768778
 30
0.0
 40
2.0
100
AcDbArc
 50
81.124411
 51
167.489802
  0
ARC
  5
464
100
AcDbEntity
  8
2
100
AcDbCircle
 10
-119.83826
 20
-12.56276
 30
0.0
 40
2.0
100
AcDbArc
 50
192.010034
 51
297.791668
  0
ARC
  5
465
100
AcDbEntity
  8
2
100
AcDbCircle
 10
-116.728446
 20
-10.490865
 30
0.0
 40
2.0
100
AcDbArc
 50
0.0
 51
22.510479
  0
ARC
  5
466
100
AcDbEntity
  8
2
100
AcDbCircle
 10
-116.955086
 20
-9.92057
 30
0.0
 40
2.0
100
AcDbArc
 50
327.213701
 51
20.836076
  0
ARC
  5
467
100
AcDbEntity
  8
2
100
AcDbCircle
 10
-116.728446
 20
6.83956
 30
0.0
 40
2.0
100
AcDbArc
 50
284.477512
 51
360.0
  0
ARC
  5
468
100
AcDbEntity
  8
2
100
AcDbCircle
 10
-117.728446
 20
5.785539
 30
0.0
 40
3.0
100
AcDbArc
 50
338.013597
 51
360.0
  0
ARC
  5
469
100
AcDbEntity
  8
2
100
AcDbCircle
 10
-119.761383
 20
11.584257
 30
0.0
 40
2.0
100
AcDbArc
 50
193.347693
 51
282.984112
  0
ARC
  5
46A
100
AcDbEntity
  8
2
100
AcDbCircle
 10
-119.733644
 20
28.22986
 30
0.0
 40
2.0
100
AcDbArc
 50
76.803615
 51
166.46135
  0
ARC
  5
46B
100
AcDbEntity
  8
2
100
AcDbCircle
 10
-117.125558
 20
12.641897
 30
0.0
 40
2.0
100
AcDbArc
 50
300.742694
 51
17.400637
  0
ARC
  5
46C
100
AcDbEntity
  8
2
100
AcDbCircle
 10
-117.728446
 20
11.302106
 30
0.0
 40
3.0
100
AcDbArc
 50
0.0
 51
19.90826
  0
ARC
  5
46D
100
AcDbEntity
  8
2
100
AcDbCircle
 10
-116.728446
 20
28.218623
 30
0.0
 40
2.0
100
AcDbArc
 50
339.678608
 51
360.0
  0
ARC
  5
46E
100
AcDbEntity
  8
2
100
AcDbCircle
 10
-118.291797
 20
26.64186
 30
0.0
 40
3.0
100
AcDbArc
 50
344.298213
 51
62.801464
  0
LINE
  5
46F
100
AcDbEntity
  8
2
100
AcDbLine
 10
-114.728446
 20
28.218623
 30
0.0
 11
-114.728446
 21
33.912531
 31
0.0
  0
LINE
  5
470
100
AcDbEntity
  8
2
100
AcDbLine
 10
-114.728446
 20
50.249035
 30
0.0
 11
-114.728446
 21
54.702338
 31
0.0
  0
LINE
  5
471
100
AcDbEntity
  8
2
100
AcDbLine
 10
-114.728446
 20
70.7823
 30
0.0
 11
-114.728446
 21
74.749035
 31
0.0
  0
LINE
  5
472
100
AcDbEntity
  8
2
100
AcDbLine
 10
-114.728446
 20
87.549035
 30
0.0
 11
-114.728446
 21
90.04752
 31
0.0
  0
LINE
  5
473
100
AcDbEntity
  8
2
100
AcDbLine
 10
-114.728446
 20
102.149035
 30
0.0
 11
-114.728446
 21
103.249035
 31
0.0
  0
LINE
  5
474
100
AcDbEntity
  8
2
100
AcDbLine
 10
-114.728446
 20
108.749035
 30
0.0
 11
-114.728446
 21
111.856995
 31
0.0
  0
LINE
  5
475
100
AcDbEntity
  8
2
100
AcDbLine
 10
-114.728446
 20
90.149035
 30
0.0
 11
-114.728446
 21
87.549035
 31
0.0
  0
LINE
  5
476
100
AcDbEntity
  8
2
100
AcDbLine
 10
-114.728446
 20
74.549035
 30
0.0
 11
-114.728446
 21
70.749035
 31
0.0
  0
LINE
  5
477
100
AcDbEntity
  8
2
100
AcDbLine
 10
-114.728446
 20
54.649035
 30
0.0
 11
-114.728446
 21
50.188936
 31
0.0
  0
ARC
  5
478
100
AcDbEntity
  8
2
100
AcDbCircle
 10
-84.528446
 20
44.749035
 30
0.0
 40
38.1
100
AcDbArc
 50
167.989966
 51
192.510198
  0
ARC
  5
479
100
AcDbEntity
  8
2
100
AcDbCircle
 10
-97.328446
 20
42.149035
 30
0.0
 40
19.0
100
AcDbArc
 50
157.489521
 51
201.986403
  0
ARC
  5
47A
100
AcDbEntity
  8
2
100
AcDbCircle
 10
-123.428446
 20
45.449035
 30
0.0
 40
9.7
100
AcDbArc
 50
32.786299
 51
62.208332
  0
ARC
  5
47B
100
AcDbEntity
  8
2
100
AcDbCircle
 10
-118.228446
 20
27.049035
 30
0.0
 40
8.0
100
AcDbArc
 50
75.522488
 51
98.875589
  0
ARC
  5
47C
100
AcDbEntity
  8
2
100
AcDbCircle
 10
-94.228446
 20
67.949035
 30
0.0
 40
28.5
100
AcDbArc
 50
165.838931
 51
195.333025
  0
ARC
  5
47D
100
AcDbEntity
  8
2
100
AcDbCircle
 10
-98.428446
 20
62.649035
 30
0.0
 40
17.8
100
AcDbArc
 50
159.100972
 51
201.378501
  0
ARC
  5
47E
100
AcDbEntity
  8
2
100
AcDbCircle
 10
-123.528446
 20
68.549035
 30
0.0
 40
8.9
100
AcDbArc
 50
15.426622
 51
58.499542
  0
ARC
  5
47F
100
AcDbEntity
  8
2
100
AcDbCircle
 10
-120.128446
 20
52.949035
 30
0.0
 40
6.0
100
AcDbArc
 50
36.869898
 51
87.540804
  0
ARC
  5
480
100
AcDbEntity
  8
2
100
AcDbCircle
 10
-103.428446
 20
87.949035
 30
0.0
 40
19.3
100
AcDbArc
 50
166.011263
 51
198.43805
  0
ARC
  5
481
100
AcDbEntity
  8
2
100
AcDbCircle
 10
-105.028446
 20
80.749035
 30
0.0
 40
11.2
100
AcDbArc
 50
154.391695
 51
194.005872
  0
ARC
  5
482
100
AcDbEntity
  8
2
100
AcDbCircle
 10
-119.728446
 20
87.549035
 30
0.0
 40
5.0
100
AcDbArc
 50
336.931267
 51
360.0
  0
ARC
  5
483
100
AcDbEntity
  8
2
100
AcDbCircle
 10
-128.128446
 20
83.649035
 30
0.0
 40
13.6
100
AcDbArc
 50
16.311797
 51
46.987298
  0
ARC
  5
484
100
AcDbEntity
  8
2
100
AcDbCircle
 10
-120.928446
 20
74.249035
 30
0.0
 40
6.3
100
AcDbArc
 50
22.619865
 51
82.46722
  0
ARC
  5
485
100
AcDbEntity
  8
2
100
AcDbCircle
 10
-110.528446
 20
103.849035
 30
0.0
 40
12.2
100
AcDbArc
 50
163.999284
 51
205.743458
  0
ARC
  5
486
100
AcDbEntity
  8
2
100
AcDbCircle
 10
-107.728446
 20
95.949035
 30
0.0
 40
8.5
100
AcDbArc
 50
152.677778
 51
198.916988
  0
ARC
  5
487
100
AcDbEntity
  8
2
100
AcDbCircle
 10
-119.728446
 20
102.149035
 30
0.0
 40
5.0
100
AcDbArc
 50
332.677778
 51
360.0
  0
ARC
  5
488
100
AcDbEntity
  8
2
100
AcDbCircle
 10
-126.928446
 20
98.749035
 30
0.0
 40
12.3
100
AcDbArc
 50
15.300094
 51
50.185257
  0
ARC
  5
489
100
AcDbEntity
  8
2
100
AcDbCircle
 10
-126.128446
 20
86.749035
 30
0.0
 40
12.2
100
AcDbArc
 50
27.266044
 51
63.155189
  0
ARC
  5
48A
100
AcDbEntity
  8
2
100
AcDbCircle
 10
-118.528446
 20
114.149035
 30
0.0
 40
4.2
100
AcDbArc
 50
142.732455
 51
228.054482
  0
ARC
  5
48B
100
AcDbEntity
  8
2
100
AcDbCircle
 10
-126.528446
 20
106.649035
 30
0.0
 40
11.9
100
AcDbArc
 50
12.074853
 51
59.979441
  0
ARC
  5
48C
100
AcDbEntity
  8
2
100
AcDbCircle
 10
-117.728446
 20
108.749035
 30
0.0
 40
3.0
100
AcDbArc
 50
336.711111
 51
360.0
  0
ARC
  5
48D
100
AcDbEntity
  8
2
100
AcDbCircle
 10
-122.720487
 20
111.856995
 30
0.0
 40
7.992041
100
AcDbArc
 50
0.0
 51
170.664881
  0
ARC
  5
48E
100
AcDbEntity
  8
2
100
AcDbCircle
 10
-121.07506
 20
116.086756
 30
0.0
 40
1.0
100
AcDbArc
 50
59.979441
 51
142.732455
  0
ARC
  5
48F
100
AcDbEntity
  8
2
100
AcDbCircle
 10
-111.849899
 20
106.218684
 30
0.0
 40
3.4
100
AcDbArc
 50
156.711111
 51
183.361722
  0
ARC
  5
490
100
AcDbEntity
  8
2
100
AcDbCircle
 10
-117.825358
 20
108.510821
 30
0.0
 40
3.0
100
AcDbArc
 50
339.013597
 51
12.074853
  0
ARC
  5
491
100
AcDbEntity
  8
2
100
AcDbCircle
 10
-122.428446
 20
103.249035
 30
0.0
 40
7.7
100
AcDbArc
 50
0.0
 51
78.321555
  0
ARC
  5
492
100
AcDbEntity
  8
2
100
AcDbCircle
 10
-120.333281
 20
106.660659
 30
0.0
 40
2.0
100
AcDbArc
 50
50.185257
 51
163.999284
  0
ARC
  5
493
100
AcDbEntity
  8
2
100
AcDbCircle
 10
-119.716074
 20
99.418743
 30
0.0
 40
2.0
100
AcDbArc
 50
205.743458
 51
243.155189
  0
ARC
  5
494
100
AcDbEntity
  8
2
100
AcDbCircle
 10
-117.958066
 20
101.203069
 30
0.0
 40
3.0
100
AcDbArc
 50
332.814519
 51
15.300094
  0
ARC
  5
495
100
AcDbEntity
  8
2
100
AcDbCircle
 10
-119.728446
 20
90.04752
 30
0.0
 40
5.0
100
AcDbArc
 50
0.0
 51
27.266044
  0
ARC
  5
496
100
AcDbEntity
  8
2
100
AcDbCircle
 10
-119.840371
 20
82.477406
 30
0.0
 40
2.0
100
AcDbArc
 50
198.43805
 51
262.46722
  0
ARC
  5
497
100
AcDbEntity
  8
2
100
AcDbCircle
 10
-120.215385
 20
92.130984
 30
0.0
 40
2.0
100
AcDbArc
 50
46.987298
 51
166.011263
  0
ARC
  5
498
100
AcDbEntity
  8
2
100
AcDbCircle
 10
-117.955123
 20
86.626197
 30
0.0
 40
3.0
100
AcDbArc
 50
335.550904
 51
16.311797
  0
ARC
  5
499
100
AcDbEntity
  8
2
100
AcDbCircle
 10
-119.728446
 20
74.749035
 30
0.0
 40
5.0
100
AcDbArc
 50
0.0
 51
22.619865
  0
ARC
  5
49A
100
AcDbEntity
  8
2
100
AcDbCircle
 10
-119.923159
 20
74.432224
 30
0.0
 40
2.0
100
AcDbArc
 50
58.499542
 51
165.838931
  0
ARC
  5
49B
100
AcDbEntity
  8
2
100
AcDbCircle
 10
-119.785183
 20
60.941667
 30
0.0
 40
2.0
100
AcDbArc
 50
195.333025
 51
267.540804
  0
ARC
  5
49C
100
AcDbEntity
  8
2
100
AcDbCircle
 10
-119.728446
 20
70.7823
 30
0.0
 40
5.0
100
AcDbArc
 50
339.100972
 51
360.0
  0
ARC
  5
49D
100
AcDbEntity
  8
2
100
AcDbCircle
 10
-117.841012
 20
70.118459
 30
0.0
 40
3.0
100
AcDbArc
 50
338.954641
 51
15.426622
  0
ARC
  5
49E
100
AcDbEntity
  8
2
100
AcDbCircle
 10
-118.728446
 20
54.702338
 30
0.0
 40
4.0
100
AcDbArc
 50
0.0
 51
21.378501
  0
ARC
  5
49F
100
AcDbEntity
  8
2
100
AcDbCircle
 10
-117.728446
 20
54.749035
 30
0.0
 40
3.0
100
AcDbArc
 50
0.0
 51
36.869898
  0
ARC
  5
4A0
100
AcDbEntity
  8
2
100
AcDbCircle
 10
-119.771341
 20
36.929292
 30
0.0
 40
2.0
100
AcDbArc
 50
192.510198
 51
278.875589
  0
ARC
  5
4A1
100
AcDbEntity
  8
2
100
AcDbCircle
 10
-119.83826
 20
52.260831
 30
0.0
 40
2.0
100
AcDbArc
 50
62.208332
 51
167.989966
  0
ARC
  5
4A2
100
AcDbEntity
  8
2
100
AcDbCircle
 10
-116.728446
 20
50.188936
 30
0.0
 40
2.0
100
AcDbArc
 50
337.489521
 51
360.0
  0
ARC
  5
4A3
100
AcDbEntity
  8
2
100
AcDbCircle
 10
-116.955086
 20
49.618641
 30
0.0
 40
2.0
100
AcDbArc
 50
339.163924
 51
32.786299
  0
ARC
  5
4A4
100
AcDbEntity
  8
2
100
AcDbCircle
 10
-116.728446
 20
32.85851
 30
0.0
 40
2.0
100
AcDbArc
 50
0.0
 51
75.522488
  0
ARC
  5
4A5
100
AcDbEntity
  8
2
100
AcDbCircle
 10
-117.728446
 20
33.912531
 30
0.0
 40
3.0
100
AcDbArc
 50
0.0
 51
21.986403
  0
ARC
  5
4A6
100
AcDbEntity
  8
2
100
AcDbCircle
 10
-686.328446
 20
-69.150965
 30
0.0
 40
3.0
100
AcDbArc
 50
180.0
 51
270.0
  0
LINE
  5
4A7
100
AcDbEntity
  8
2
100
AcDbLine
 10
-662.328446
 20
-75.150965
 30
0.0
 11
-662.328446
 21
-78.150965
 31
0.0
  0
LINE
  5
4A8
100
AcDbEntity
  8
2
100
AcDbLine
 10
-522.328446
 20
-76.003716
 30
0.0
 11
-522.328446
 21
-78.150965
 31
0.0
  0
LINE
  5
4A9
100
AcDbEntity
  8
2
100
AcDbLine
 10
-686.328446
 20
-72.150965
 30
0.0
 11
-533.020282
 21
-72.150965
 31
0.0
  0
LINE
  5
4AA
100
AcDbEntity
  8
2
100
AcDbLine
 10
-454.63661
 20
-72.150965
 30
0.0
 11
-453.328446
 21
-72.150965
 31
0.0
  0
LINE
  5
4AB
100
AcDbEntity
  8
2
100
AcDbLine
 10
-594.328446
 20
139.349035
 30
0.0
 11
-594.328446
 21
131.049035
 31
0.0
  0
LINE
  5
4AC
100
AcDbEntity
  8
2
100
AcDbLine
 10
-590.328446
 20
139.349035
 30
0.0
 11
-590.328446
 21
131.049035
 31
0.0
  0
CIRCLE
  5
4AD
100
AcDbEntity
  8
2
100
AcDbCircle
 10
-592.328446
 20
533.649035
 30
0.0
 40
42.5
  0
LINE
  5
4AE
100
AcDbEntity
  8
2
100
AcDbLine
 10
-622.750642
 20
541.149035
 30
0.0
 11
-601.813399
 21
541.149035
 31
0.0
  0
LINE
  5
4AF
100
AcDbEntity
  8
2
100
AcDbLine
 10
-622.750642
 20
526.149035
 30
0.0
 11
-601.813399
 21
526.149035
 31
0.0
  0
LINE
  5
4B0
100
AcDbEntity
  8
2
100
AcDbLine
 10
-582.843494
 20
526.149035
 30
0.0
 11
-561.906251
 21
526.149035
 31
0.0
  0
LINE
  5
4B1
100
AcDbEntity
  8
2
100
AcDbLine
 10
-590.328446
 20
511.62656
 30
0.0
 11
-590.328446
 21
509.482943
 31
0.0
  0
LINE
  5
4B2
100
AcDbEntity
  8
2
100
AcDbLine
 10
-594.328446
 20
511.62656
 30
0.0
 11
-594.328446
 21
509.482943
 31
0.0
  0
LINE
  5
4B3
100
AcDbEntity
  8
2
100
AcDbLine
 10
-590.328446
 20
555.67151
 30
0.0
 11
-590.328446
 21
557.815127
 31
0.0
  0
LINE
  5
4B4
100
AcDbEntity
  8
2
100
AcDbLine
 10
-594.328446
 20
555.67151
 30
0.0
 11
-594.328446
 21
557.815127
 31
0.0
  0
LINE
  5
4B5
100
AcDbEntity
  8
2
100
AcDbLine
 10
-582.843494
 20
541.149035
 30
0.0
 11
-561.906251
 21
541.149035
 31
0.0
  0
ARC
  5
4B6
100
AcDbEntity
  8
2
100
AcDbCircle
 10
-592.328446
 20
117.849035
 30
0.0
 40
34.0
100
AcDbArc
 50
22.844739
 51
157.155261
  0
CIRCLE
  5
4B7
100
AcDbEntity
  8
2
100
AcDbCircle
 10
-592.328446
 20
533.649035
 30
0.0
 40
31.33305
  0
ARC
  5
4B8
100
AcDbEntity
  8
2
100
AcDbCircle
 10
-629.753056
 20
533.975884
 30
0.0
 40
45.0
100
AcDbArc
 50
12.236103
 51
30.645688
  0
ARC
  5
4B9
100
AcDbEntity
  8
2
100
AcDbCircle
 10
-554.903837
 20
533.975884
 30
0.0
 40
45.0
100
AcDbArc
 50
149.354312
 51
167.763897
  0
ARC
  5
4BA
100
AcDbEntity
  8
2
100
AcDbCircle
 10
-592.328446
 20
556.149035
 30
0.0
 40
1.5
100
AcDbArc
 50
30.645688
 51
149.354312
  0
ARC
  5
4BB
100
AcDbEntity
  8
2
100
AcDbCircle
 10
-582.843494
 20
544.149035
 30
0.0
 40
3.0
100
AcDbArc
 50
192.236103
 51
270.0
  0
ARC
  5
4BC
100
AcDbEntity
  8
2
100
AcDbCircle
 10
-601.813399
 20
544.149035
 30
0.0
 40
3.0
100
AcDbArc
 50
270.0
 51
347.763897
  0
ARC
  5
4BD
100
AcDbEntity
  8
2
100
AcDbCircle
 10
-629.753056
 20
533.322186
 30
0.0
 40
45.0
100
AcDbArc
 50
329.354312
 51
347.763897
  0
ARC
  5
4BE
100
AcDbEntity
  8
2
100
AcDbCircle
 10
-554.903837
 20
533.322186
 30
0.0
 40
45.0
100
AcDbArc
 50
192.236103
 51
210.645688
  0
ARC
  5
4BF
100
AcDbEntity
  8
2
100
AcDbCircle
 10
-592.328446
 20
511.149035
 30
0.0
 40
1.5
100
AcDbArc
 50
210.645688
 51
329.354312
  0
ARC
  5
4C0
100
AcDbEntity
  8
2
100
AcDbCircle
 10
-582.843494
 20
523.149035
 30
0.0
 40
3.0
100
AcDbArc
 50
90.0
 51
167.763897
  0
ARC
  5
4C1
100
AcDbEntity
  8
2
100
AcDbCircle
 10
-601.813399
 20
523.149035
 30
0.0
 40
3.0
100
AcDbArc
 50
12.236103
 51
90.0
  0
ARC
  5
4C2
100
AcDbEntity
  8
2
100
AcDbCircle
 10
-592.328446
 20
533.649035
 30
0.0
 40
24.248711
100
AcDbArc
 50
18.016736
 51
161.983264
  0
ARC
  5
4C3
100
AcDbEntity
  8
2
100
AcDbCircle
 10
-592.328446
 20
533.649035
 30
0.0
 40
24.248711
100
AcDbArc
 50
198.016736
 51
341.983264
  0
ARC
  5
4C4
100
AcDbEntity
  8
2
100
AcDbCircle
 10
108.771554
 20
117.849035
 30
0.0
 40
34.0
100
AcDbArc
 50
45.099128
 51
134.900872
  0
LINE
  5
4C5
100
AcDbEntity
  8
2
100
AcDbLine
 10
116.271549
 20
149.454521
 30
0.0
 11
116.271554
 21
131.049035
 31
0.0
  0
LINE
  5
4C6
100
AcDbEntity
  8
2
100
AcDbLine
 10
101.271554
 20
149.454521
 30
0.0
 11
101.271554
 21
131.049035
 31
0.0
  0
LINE
  5
4C7
100
AcDbEntity
  8
2
100
AcDbLine
 10
84.771554
 20
141.932224
 30
0.0
 11
84.771554
 21
140.206137
 31
0.0
  0
LINE
  5
4C8
100
AcDbEntity
  8
2
100
AcDbLine
 10
132.771554
 20
141.932224
 30
0.0
 11
132.771554
 21
140.206137
 31
0.0
  0
ARC
  5
4C9
100
AcDbEntity
  8
2
100
AcDbCircle
 10
-592.328446
 20
116.349035
 30
0.0
 40
28.0
100
AcDbArc
 50
34.712682
 51
81.884254
  0
ARC
  5
4CA
100
AcDbEntity
  8
2
100
AcDbCircle
 10
-592.328446
 20
116.349035
 30
0.0
 40
28.0
100
AcDbArc
 50
98.115746
 51
145.287318
  0
ARC
  5
4CB
100
AcDbEntity
  8
2
100
AcDbCircle
 10
108.771554
 20
119.849035
 30
0.0
 40
31.0
100
AcDbArc
 50
28.453097
 51
48.922243
  0
ARC
  5
4CC
100
AcDbEntity
  8
2
100
AcDbCircle
 10
108.771554
 20
119.849035
 30
0.0
 40
31.0
100
AcDbArc
 50
131.077757
 51
151.546903
  0
ARC
  5
4CD
100
AcDbEntity
  8
2
100
AcDbCircle
 10
108.771554
 20
116.349035
 30
0.0
 40
28.0
100
AcDbArc
 50
105.536794
 51
145.287318
  0
ARC
  5
4CE
100
AcDbEntity
  8
2
100
AcDbCircle
 10
108.771554
 20
116.349035
 30
0.0
 40
28.0
100
AcDbArc
 50
34.712682
 51
74.463206
  0
ARC
  5
4CF
100
AcDbEntity
  8
2
100
AcDbCircle
 10
-593.328446
 20
139.349035
 30
0.0
 40
1.0
100
AcDbArc
 50
90.0
 51
180.0
  0
ARC
  5
4D0
100
AcDbEntity
  8
2
100
AcDbCircle
 10
-591.328446
 20
139.349035
 30
0.0
 40
1.0
100
AcDbArc
 50
0.0
 51
90.0
  0
LINE
  5
4D1
100
AcDbEntity
  8
2
100
AcDbLine
 10
-593.328446
 20
140.349035
 30
0.0
 11
-592.96368
 21
140.34904
 31
0.0
  0
LINE
  5
4D2
100
AcDbEntity
  8
2
100
AcDbLine
 10
-591.69298
 20
140.349149
 30
0.0
 11
-591.328446
 21
140.349035
 31
0.0
  0
LINE
  5
4D3
100
AcDbEntity
  8
2
100
AcDbLine
 10
-601.144114
 20
511.059568
 30
0.0
 11
-599.145245
 21
515.885265
 31
0.0
  0
LINE
  5
4D4
100
AcDbEntity
  8
2
100
AcDbLine
 10
-584.587769
 20
551.030122
 30
0.0
 11
-582.588899
 21
555.855819
 31
0.0
  0
LINE
  5
4D5
100
AcDbEntity
  8
2
100
AcDbLine
 10
-602.067993
 20
511.442252
 30
0.0
 11
-600.069124
 21
516.267949
 31
0.0
  0
LINE
  5
4D6
100
AcDbEntity
  8
2
100
AcDbLine
 10
-585.511648
 20
551.412805
 30
0.0
 11
-583.512779
 21
556.238502
 31
0.0
  0
LINE
  5
4D7
100
AcDbEntity
  8
2
100
AcDbLine
 10
-609.117676
 20
516.152699
 30
0.0
 11
-605.424247
 21
519.846128
 31
0.0
  0
LINE
  5
4D8
100
AcDbEntity
  8
2
100
AcDbLine
 10
-578.525539
 20
546.744836
 30
0.0
 11
-574.83211
 21
550.438265
 31
0.0
  0
LINE
  5
4D9
100
AcDbEntity
  8
2
100
AcDbLine
 10
-609.824782
 20
516.859806
 30
0.0
 11
-606.131354
 21
520.553234
 31
0.0
  0
LINE
  5
4DA
100
AcDbEntity
  8
2
100
AcDbLine
 10
-579.232646
 20
547.451943
 30
0.0
 11
-575.539217
 21
551.145371
 31
0.0
  0
LINE
  5
4DB
100
AcDbEntity
  8
2
100
AcDbLine
 10
-614.53523
 20
523.909488
 30
0.0
 11
-609.709533
 21
525.908357
 31
0.0
  0
LINE
  5
4DC
100
AcDbEntity
  8
2
100
AcDbLine
 10
-572.915282
 20
541.149035
 30
0.0
 11
-569.73898
 21
542.464703
 31
0.0
  0
LINE
  5
4DD
100
AcDbEntity
  8
2
100
AcDbLine
 10
-614.917913
 20
524.833368
 30
0.0
 11
-611.741611
 21
526.149035
 31
0.0
  0
LINE
  5
4DE
100
AcDbEntity
  8
2
100
AcDbLine
 10
-574.94736
 20
541.389713
 30
0.0
 11
-570.121663
 21
543.388582
 31
0.0
  0
ARC
  5
4DF
100
AcDbEntity
  8
2
100
AcDbCircle
 10
-599.607184
 20
516.076607
 30
0.0
 40
0.5
100
AcDbArc
 50
337.5
 51
157.5
  0
ARC
  5
4E0
100
AcDbEntity
  8
2
100
AcDbCircle
 10
-605.777801
 20
520.199681
 30
0.0
 40
0.5
100
AcDbArc
 50
315.0
 51
135.0
  0
ARC
  5
4E1
100
AcDbEntity
  8
2
100
AcDbCircle
 10
-609.900875
 20
526.370297
 30
0.0
 40
0.5
100
AcDbArc
 50
292.5
 51
333.734975
  0
ARC
  5
4E2
100
AcDbEntity
  8
2
100
AcDbCircle
 10
-585.049708
 20
551.221463
 30
0.0
 40
0.5
100
AcDbArc
 50
157.5
 51
337.5
  0
ARC
  5
4E3
100
AcDbEntity
  8
2
100
AcDbCircle
 10
-578.879092
 20
547.098389
 30
0.0
 40
0.5
100
AcDbArc
 50
135.0
 51
315.0
  0
ARC
  5
4E4
100
AcDbEntity
  8
2
100
AcDbCircle
 10
-574.756018
 20
540.927773
 30
0.0
 40
0.5
100
AcDbArc
 50
112.5
 51
153.734975
  0
TEXT
  5
4E5
100
AcDbEntity
  8
2
100
AcDbText
 10
-586.908961
 20
510.635362
 30
0.0
 40
7.6
  1
Ｓ
 50
22.5
 72
     5
 11
-581.291773
 21
512.962077
 31
0.0
100
AcDbText
  0
TEXT
  5
4E6
100
AcDbEntity
  8
2
100
AcDbText
 10
-597.747932
 20
556.662709
 30
0.0
 40
7.6
  1
Ｓ
 50
202.5
 72
     5
 11
-603.365119
 21
554.335994
 31
0.0
100
AcDbText
  0
LINE
  5
4E7
100
AcDbEntity
  8
2
100
AcDbLine
 10
-575.527082
 20
524.795341
 30
0.0
 11
-573.505036
 21
523.957782
 31
0.0
  0
ARC
  5
4E8
100
AcDbEntity
  8
2
100
AcDbCircle
 10
-574.857331
 20
526.412262
 30
0.0
 40
1.750143
100
AcDbArc
 50
188.650293
 51
247.5
  0
ARC
  5
4E9
100
AcDbEntity
  8
2
100
AcDbCircle
 10
-572.835286
 20
525.574704
 30
0.0
 40
1.750143
100
AcDbArc
 50
247.5
 51
19.157293
  0
LINE
  5
4EA
100
AcDbEntity
  8
2
100
AcDbLine
 10
-609.129811
 20
542.502729
 30
0.0
 11
-611.151856
 21
543.340288
 31
0.0
  0
ARC
  5
4EB
100
AcDbEntity
  8
2
100
AcDbCircle
 10
-609.799562
 20
540.885808
 30
0.0
 40
1.750143
100
AcDbArc
 50
8.650293
 51
67.5
  0
ARC
  5
4EC
100
AcDbEntity
  8
2
100
AcDbCircle
 10
-611.821607
 20
541.723367
 30
0.0
 40
1.750143
100
AcDbArc
 50
67.5
 51
199.157293
  0
ARC
  5
4ED
100
AcDbEntity
  8
2
100
AcDbCircle
 10
-556.928051
 20
120.614665
 30
0.0
 40
45.274917
100
AcDbArc
 50
159.10214
 51
166.675437
  0
ARC
  5
4EE
100
AcDbEntity
  8
2
100
AcDbCircle
 10
-557.851931
 20
120.614665
 30
0.0
 40
45.274917
100
AcDbArc
 50
158.681079
 51
166.675437
  0
ARC
  5
4EF
100
AcDbEntity
  8
2
100
AcDbCircle
 10
-599.627283
 20
136.918088
 30
0.0
 40
0.430947
100
AcDbArc
 50
339.10214
 51
158.681079
  0
ARC
  5
4F0
100
AcDbEntity
  8
2
100
AcDbCircle
 10
-580.898517
 20
118.847783
 30
0.0
 40
30.472934
100
AcDbArc
 50
143.677597
 51
156.39704
  0
ARC
  5
4F1
100
AcDbEntity
  8
2
100
AcDbCircle
 10
-581.605624
 20
118.847783
 30
0.0
 40
30.472934
100
AcDbArc
 50
142.882669
 51
156.39704
  0
ARC
  5
4F2
100
AcDbEntity
  8
2
100
AcDbCircle
 10
-605.678798
 20
137.065631
 30
0.0
 40
0.283404
100
AcDbArc
 50
323.677597
 51
142.882669
  0
ARC
  5
4F3
100
AcDbEntity
  8
2
100
AcDbCircle
 10
-589.654105
 20
117.080902
 30
0.0
 40
28.197761
100
AcDbArc
 50
134.711482
 51
150.306296
  0
ARC
  5
4F4
100
AcDbEntity
  8
2
100
AcDbCircle
 10
-590.036789
 20
117.080902
 30
0.0
 40
28.197761
100
AcDbArc
 50
134.156238
 51
150.306296
  0
ARC
  5
4F5
100
AcDbEntity
  8
2
100
AcDbCircle
 10
-609.586521
 20
137.215078
 30
0.0
 40
0.133957
100
AcDbArc
 50
314.711482
 51
134.156238
  0
TEXT
  5
4F6
100
AcDbEntity
  8
2
100
AcDbText
 10
-586.083513
 20
130.256452
 30
0.0
 40
7.6
  1
Ｓ
 50
31.641
 72
     5
 11
-580.907295
 21
133.445992
 31
0.0
100
AcDbText
  0
ARC
  5
4F7
100
AcDbEntity
  8
2
100
AcDbCircle
 10
73.371159
 20
120.614665
 30
0.0
 40
45.274917
100
AcDbArc
 50
13.324563
 51
18.638604
  0
ARC
  5
4F8
100
AcDbEntity
  8
2
100
AcDbCircle
 10
74.295038
 20
120.614665
 30
0.0
 40
45.274917
100
AcDbArc
 50
13.324563
 51
21.318921
  0
ARC
  5
4F9
100
AcDbEntity
  8
2
100
AcDbCircle
 10
116.070391
 20
136.918088
 30
0.0
 40
0.430947
100
AcDbArc
 50
21.318921
 51
62.173379
  0
ARC
  5
4FA
100
AcDbEntity
  8
2
100
AcDbCircle
 10
97.341625
 20
118.847783
 30
0.0
 40
30.472934
100
AcDbArc
 50
23.60296
 51
36.322403
  0
ARC
  5
4FB
100
AcDbEntity
  8
2
100
AcDbCircle
 10
98.048732
 20
118.847783
 30
0.0
 40
30.472934
100
AcDbArc
 50
23.60296
 51
37.117331
  0
ARC
  5
4FC
100
AcDbEntity
  8
2
100
AcDbCircle
 10
122.121906
 20
137.065631
 30
0.0
 40
0.283404
100
AcDbArc
 50
37.117331
 51
216.322403
  0
ARC
  5
4FD
100
AcDbEntity
  8
2
100
AcDbCircle
 10
106.097212
 20
117.080902
 30
0.0
 40
28.197761
100
AcDbArc
 50
29.693704
 51
45.288518
  0
ARC
  5
4FE
100
AcDbEntity
  8
2
100
AcDbCircle
 10
106.479896
 20
117.080902
 30
0.0
 40
28.197761
100
AcDbArc
 50
29.693704
 51
45.843762
  0
ARC
  5
4FF
100
AcDbEntity
  8
2
100
AcDbCircle
 10
126.029628
 20
137.215078
 30
0.0
 40
0.133957
100
AcDbArc
 50
45.843762
 51
225.288518
  0
LINE
  5
500
100
AcDbEntity
  8
2
100
AcDbLine
 10
66.271554
 20
131.049035
 30
0.0
 11
151.271554
 21
131.049035
 31
0.0
  0
LINE
  5
501
100
AcDbEntity
  8
2
100
AcDbLine
 10
-549.828446
 20
131.049035
 30
0.0
 11
-634.828446
 21
131.049035
 31
0.0
  0
ARC
  5
502
100
AcDbEntity
  8
2
100
AcDbCircle
 10
-592.328446
 20
117.849035
 30
0.0
 40
33.162479
100
AcDbArc
 50
104.962752
 51
150.128593
  0
ARC
  5
503
100
AcDbEntity
  8
2
100
AcDbCircle
 10
-586.773898
 20
149.838898
 30
0.0
 40
10.0
100
AcDbArc
 50
202.238154
 51
227.992896
  0
ARC
  5
504
100
AcDbEntity
  8
2
100
AcDbCircle
 10
-600.116128
 20
146.988821
 30
0.0
 40
3.0
100
AcDbArc
 50
42.388379
 51
104.962752
  0
ARC
  5
505
100
AcDbEntity
  8
2
100
AcDbCircle
 10
-605.286273
 20
142.269753
 30
0.0
 40
10.0
100
AcDbArc
 50
22.238154
 51
42.388379
  0
ARC
  5
506
100
AcDbEntity
  8
2
100
AcDbCircle
 10
-597.882995
 20
149.838898
 30
0.0
 40
10.0
100
AcDbArc
 50
312.007104
 51
337.761846
  0
ARC
  5
507
100
AcDbEntity
  8
2
100
AcDbCircle
 10
-579.37062
 20
142.269753
 30
0.0
 40
10.0
100
AcDbArc
 50
137.611621
 51
157.761846
  0
ARC
  5
508
100
AcDbEntity
  8
2
100
AcDbCircle
 10
-584.540764
 20
146.988821
 30
0.0
 40
3.0
100
AcDbArc
 50
75.037248
 51
137.611621
  0
ARC
  5
509
100
AcDbEntity
  8
2
100
AcDbCircle
 10
-592.328446
 20
117.849035
 30
0.0
 40
33.162479
100
AcDbArc
 50
29.871407
 51
75.037248
  0
ARC
  5
50A
100
AcDbEntity
  8
2
100
AcDbCircle
 10
-592.328446
 20
143.671485
 30
0.0
 40
1.7
100
AcDbArc
 50
227.992896
 51
312.007104
  0
ARC
  5
50B
100
AcDbEntity
  8
2
100
AcDbCircle
 10
-591.853555
 20
117.0265
 30
0.0
 40
32.849358
100
AcDbArc
 50
105.470231
 51
147.621493
  0
ARC
  5
50C
100
AcDbEntity
  8
2
100
AcDbCircle
 10
-585.819946
 20
149.947396
 30
0.0
 40
12.0
100
AcDbArc
 50
200.135943
 51
231.694293
  0
ARC
  5
50D
100
AcDbEntity
  8
2
100
AcDbCircle
 10
-602.719758
 20
143.750918
 30
0.0
 40
6.0
100
AcDbArc
 50
20.135943
 51
48.747449
  0
ARC
  5
50E
100
AcDbEntity
  8
2
100
AcDbCircle
 10
-600.082241
 20
146.75816
 30
0.0
 40
2.0
100
AcDbArc
 50
48.747449
 51
105.470231
  0
ARC
  5
50F
100
AcDbEntity
  8
2
100
AcDbCircle
 10
-598.836947
 20
149.947396
 30
0.0
 40
12.0
100
AcDbArc
 50
308.305707
 51
339.864057
  0
ARC
  5
510
100
AcDbEntity
  8
2
100
AcDbCircle
 10
-581.937134
 20
143.750918
 30
0.0
 40
6.0
100
AcDbArc
 50
131.252551
 51
159.864057
  0
ARC
  5
511
100
AcDbEntity
  8
2
100
AcDbCircle
 10
-584.574651
 20
146.75816
 30
0.0
 40
2.0
100
AcDbArc
 50
74.529769
 51
131.252551
  0
ARC
  5
512
100
AcDbEntity
  8
2
100
AcDbCircle
 10
-592.803337
 20
117.0265
 30
0.0
 40
32.849358
100
AcDbArc
 50
32.378507
 51
74.529769
  0
ARC
  5
513
100
AcDbEntity
  8
2
100
AcDbCircle
 10
-592.328446
 20
141.707892
 30
0.0
 40
1.5
100
AcDbArc
 50
231.694293
 51
308.305707
  0
ARC
  5
514
100
AcDbEntity
  8
2
100
AcDbCircle
 10
100.487765
 20
138.528067
 30
0.0
 40
11.430139
100
AcDbArc
 50
88.512215
 51
112.714662
  0
ARC
  5
515
100
AcDbEntity
  8
2
100
AcDbCircle
 10
100.771554
 20
149.454521
 30
0.0
 40
0.5
100
AcDbArc
 50
0.0
 51
88.512215
  0
ARC
  5
516
100
AcDbEntity
  8
2
100
AcDbCircle
 10
111.607927
 20
111.963562
 30
0.0
 40
40.228245
100
AcDbArc
 50
112.714662
 51
131.843847
  0
ARC
  5
517
100
AcDbEntity
  8
2
100
AcDbCircle
 10
101.977768
 20
131.63209
 30
0.0
 40
17.127052
100
AcDbArc
 50
93.791923
 51
118.737001
  0
ARC
  5
518
100
AcDbEntity
  8
2
100
AcDbCircle
 10
100.871554
 20
148.322523
 30
0.0
 40
0.4
100
AcDbArc
 50
0.0
 51
93.791923
  0
ARC
  5
519
100
AcDbEntity
  8
2
100
AcDbCircle
 10
115.690117
 20
106.624325
 30
0.0
 40
45.647515
100
AcDbArc
 50
118.737001
 51
132.635576
  0
ARC
  5
51A
100
AcDbEntity
  8
2
100
AcDbCircle
 10
115.56534
 20
131.63209
 30
0.0
 40
17.127052
100
AcDbArc
 50
61.262999
 51
86.208077
  0
ARC
  5
51B
100
AcDbEntity
  8
2
100
AcDbCircle
 10
101.85299
 20
106.624325
 30
0.0
 40
45.647515
100
AcDbArc
 50
47.364424
 51
61.262999
  0
ARC
  5
51C
100
AcDbEntity
  8
2
100
AcDbCircle
 10
116.671554
 20
148.322523
 30
0.0
 40
0.4
100
AcDbArc
 50
86.208077
 51
180.0
  0
ARC
  5
51D
100
AcDbEntity
  8
2
100
AcDbCircle
 10
116.771554
 20
149.454521
 30
0.0
 40
0.5
100
AcDbArc
 50
91.487785
 51
180.0
  0
ARC
  5
51E
100
AcDbEntity
  8
2
100
AcDbCircle
 10
117.055342
 20
138.528067
 30
0.0
 40
11.430139
100
AcDbArc
 50
67.285338
 51
91.487785
  0
ARC
  5
51F
100
AcDbEntity
  8
2
100
AcDbCircle
 10
105.93518
 20
111.963562
 30
0.0
 40
40.228245
100
AcDbArc
 50
48.156153
 51
67.285338
  0
ARC
  5
520
100
AcDbEntity
  8
2
  6
CENTER
 62
     2
100
AcDbCircle
 10
-592.328446
 20
533.649035
 30
0.0
 40
37.5
100
AcDbArc
 50
126.361503
 51
143.885033
  0
ARC
  5
521
100
AcDbEntity
  8
2
  6
CENTER
 62
     2
100
AcDbCircle
 10
-592.328446
 20
533.649035
 30
0.0
 40
37.5
100
AcDbArc
 50
216.93331
 51
233.416879
  0
ARC
  5
522
100
AcDbEntity
  8
2
  6
CENTER
 62
     2
100
AcDbCircle
 10
-592.328446
 20
533.649035
 30
0.0
 40
37.5
100
AcDbArc
 50
306.278748
 51
323.822644
  0
ARC
  5
523
100
AcDbEntity
  8
2
  6
CENTER
 62
     2
100
AcDbCircle
 10
-592.328446
 20
533.649035
 30
0.0
 40
37.5
100
AcDbArc
 50
36.280641
 51
53.737219
  0
LINE
  5
524
100
AcDbEntity
  8
2
  6
CENTER
 62
     2
100
AcDbLine
 10
-623.167733
 20
502.809749
 30
0.0
 11
-615.117133
 21
510.860349
 31
0.0
  0
LINE
  5
525
100
AcDbEntity
  8
2
  6
CENTER
 62
     2
100
AcDbLine
 10
-569.937593
 20
556.039889
 30
0.0
 11
-561.39122
 21
564.586262
 31
0.0
  0
LINE
  5
526
100
AcDbEntity
  8
2
  6
CENTER
 62
     2
100
AcDbLine
 10
-623.222066
 20
564.542655
 30
0.0
 11
-614.871073
 21
556.191662
 31
0.0
  0
LINE
  5
527
100
AcDbEntity
  8
2
  6
CENTER
 62
     2
100
AcDbLine
 10
-569.756363
 20
511.076951
 30
0.0
 11
-561.625299
 21
502.945888
 31
0.0
  0
LINE
  5
528
100
AcDbEntity
  8
2
  6
CENTER
 62
     2
100
AcDbLine
 10
135.288058
 20
122.193853
 30
0.0
 11
135.288058
 21
137.805311
 31
0.0
  0
LINE
  5
529
100
AcDbEntity
  8
2
  6
CENTER
 62
     2
100
AcDbLine
 10
82.255049
 20
122.193853
 30
0.0
 11
82.255049
 21
139.199201
 31
0.0
  0
LINE
  5
52A
100
AcDbEntity
  8
2
  6
CENTER
 62
     2
100
AcDbLine
 10
-618.844951
 20
137.764482
 30
0.0
 11
-618.844951
 21
121.344057
 31
0.0
  0
LINE
  5
52B
100
AcDbEntity
  8
2
  6
CENTER
 62
     2
100
AcDbLine
 10
-565.811942
 20
138.194337
 30
0.0
 11
-565.811942
 21
121.344057
 31
0.0
  0
CIRCLE
  5
52C
100
AcDbEntity
  8
2
100
AcDbCircle
 10
-565.811942
 20
507.132531
 30
0.0
 40
3.5
  0
CIRCLE
  5
52D
100
AcDbEntity
  8
2
100
AcDbCircle
 10
-565.811942
 20
560.16554
 30
0.0
 40
3.5
  0
CIRCLE
  5
52E
100
AcDbEntity
  8
2
100
AcDbCircle
 10
-618.844951
 20
507.132531
 30
0.0
 40
3.5
  0
CIRCLE
  5
52F
100
AcDbEntity
  8
2
100
AcDbCircle
 10
-618.844951
 20
560.16554
 30
0.0
 40
3.5
  0
LINE
  5
530
100
AcDbEntity
  8
2
100
AcDbLine
 10
-562.011942
 20
132.049035
 30
0.0
 11
-569.611942
 21
132.049035
 31
0.0
  0
LINE
  5
531
100
AcDbEntity
  8
2
100
AcDbLine
 10
-562.011942
 20
132.049035
 30
0.0
 11
-562.011942
 21
131.049035
 31
0.0
  0
LINE
  5
532
100
AcDbEntity
  8
2
100
AcDbLine
 10
-569.611942
 20
132.049035
 30
0.0
 11
-569.611942
 21
131.049035
 31
0.0
  0
LINE
  5
533
100
AcDbEntity
  8
2
100
AcDbLine
 10
-562.311942
 20
133.02806
 30
0.0
 11
-562.311942
 21
132.049035
 31
0.0
  0
LINE
  5
534
100
AcDbEntity
  8
2
100
AcDbLine
 10
-569.311942
 20
133.02806
 30
0.0
 11
-569.311942
 21
132.049035
 31
0.0
  0
ARC
  5
535
100
AcDbEntity
  8
2
100
AcDbCircle
 10
-565.811942
 20
125.649035
 30
0.0
 40
9.0
100
AcDbArc
 50
73.39845
 51
106.60155
  0
ARC
  5
536
100
AcDbEntity
  8
2
100
AcDbCircle
 10
-563.611942
 20
133.02806
 30
0.0
 40
1.3
100
AcDbArc
 50
0.0
 51
73.39845
  0
ARC
  5
537
100
AcDbEntity
  8
2
100
AcDbCircle
 10
-568.011942
 20
133.02806
 30
0.0
 40
1.3
100
AcDbArc
 50
106.60155
 51
180.0
  0
LINE
  5
538
100
AcDbEntity
  8
2
100
AcDbLine
 10
-615.044951
 20
132.049035
 30
0.0
 11
-622.644951
 21
132.049035
 31
0.0
  0
LINE
  5
539
100
AcDbEntity
  8
2
100
AcDbLine
 10
-615.044951
 20
132.049035
 30
0.0
 11
-615.044951
 21
131.049035
 31
0.0
  0
LINE
  5
53A
100
AcDbEntity
  8
2
100
AcDbLine
 10
-622.644951
 20
132.049035
 30
0.0
 11
-622.644951
 21
131.049035
 31
0.0
  0
LINE
  5
53B
100
AcDbEntity
  8
2
100
AcDbLine
 10
-615.344951
 20
133.02806
 30
0.0
 11
-615.344951
 21
132.049035
 31
0.0
  0
LINE
  5
53C
100
AcDbEntity
  8
2
100
AcDbLine
 10
-622.344951
 20
133.02806
 30
0.0
 11
-622.344951
 21
132.049035
 31
0.0
  0
ARC
  5
53D
100
AcDbEntity
  8
2
100
AcDbCircle
 10
-618.844951
 20
125.649035
 30
0.0
 40
9.0
100
AcDbArc
 50
73.39845
 51
106.60155
  0
ARC
  5
53E
100
AcDbEntity
  8
2
100
AcDbCircle
 10
-616.644951
 20
133.02806
 30
0.0
 40
1.3
100
AcDbArc
 50
0.0
 51
73.39845
  0
ARC
  5
53F
100
AcDbEntity
  8
2
100
AcDbCircle
 10
-621.044951
 20
133.02806
 30
0.0
 40
1.3
100
AcDbArc
 50
106.60155
 51
180.0
  0
LINE
  5
540
100
AcDbEntity
  8
2
100
AcDbLine
 10
86.055049
 20
132.049035
 30
0.0
 11
78.455049
 21
132.049035
 31
0.0
  0
LINE
  5
541
100
AcDbEntity
  8
2
100
AcDbLine
 10
86.055049
 20
132.049035
 30
0.0
 11
86.055049
 21
131.049035
 31
0.0
  0
LINE
  5
542
100
AcDbEntity
  8
2
100
AcDbLine
 10
78.455049
 20
132.049035
 30
0.0
 11
78.455049
 21
131.049035
 31
0.0
  0
LINE
  5
543
100
AcDbEntity
  8
2
100
AcDbLine
 10
85.755049
 20
133.02806
 30
0.0
 11
85.755049
 21
132.049035
 31
0.0
  0
LINE
  5
544
100
AcDbEntity
  8
2
100
AcDbLine
 10
78.755049
 20
133.02806
 30
0.0
 11
78.755049
 21
132.049035
 31
0.0
  0
ARC
  5
545
100
AcDbEntity
  8
2
100
AcDbCircle
 10
82.255049
 20
125.649035
 30
0.0
 40
9.0
100
AcDbArc
 50
73.39845
 51
106.60155
  0
ARC
  5
546
100
AcDbEntity
  8
2
100
AcDbCircle
 10
84.455049
 20
133.02806
 30
0.0
 40
1.3
100
AcDbArc
 50
0.0
 51
73.39845
  0
ARC
  5
547
100
AcDbEntity
  8
2
100
AcDbCircle
 10
80.055049
 20
133.02806
 30
0.0
 40
1.3
100
AcDbArc
 50
106.60155
 51
180.0
  0
LINE
  5
548
100
AcDbEntity
  8
2
100
AcDbLine
 10
139.088058
 20
132.049035
 30
0.0
 11
131.488058
 21
132.049035
 31
0.0
  0
LINE
  5
549
100
AcDbEntity
  8
2
100
AcDbLine
 10
139.088058
 20
132.049035
 30
0.0
 11
139.088058
 21
131.049035
 31
0.0
  0
LINE
  5
54A
100
AcDbEntity
  8
2
100
AcDbLine
 10
131.488058
 20
132.049035
 30
0.0
 11
131.488058
 21
131.049035
 31
0.0
  0
LINE
  5
54B
100
AcDbEntity
  8
2
100
AcDbLine
 10
138.788058
 20
133.02806
 30
0.0
 11
138.788058
 21
132.049035
 31
0.0
  0
LINE
  5
54C
100
AcDbEntity
  8
2
100
AcDbLine
 10
131.788058
 20
133.02806
 30
0.0
 11
131.788058
 21
132.049035
 31
0.0
  0
ARC
  5
54D
100
AcDbEntity
  8
2
100
AcDbCircle
 10
135.288058
 20
125.649035
 30
0.0
 40
9.0
100
AcDbArc
 50
73.39845
 51
106.60155
  0
ARC
  5
54E
100
AcDbEntity
  8
2
100
AcDbCircle
 10
137.488058
 20
133.02806
 30
0.0
 40
1.3
100
AcDbArc
 50
0.0
 51
73.39845
  0
ARC
  5
54F
100
AcDbEntity
  8
2
100
AcDbCircle
 10
133.088058
 20
133.02806
 30
0.0
 40
1.3
100
AcDbArc
 50
106.60155
 51
180.0
  0
ARC
  5
550
100
AcDbEntity
  8
2
100
AcDbCircle
 10
-430.328446
 20
442.649035
 30
0.0
 40
3.0
100
AcDbArc
 50
360.0
 51
90.0
  0
LINE
  5
551
100
AcDbEntity
  8
2
100
AcDbLine
 10
-448.328446
 20
618.649035
 30
0.0
 11
-448.328446
 21
450.649035
 31
0.0
  0
LINE
  5
552
100
AcDbEntity
  8
2
100
AcDbLine
 10
-464.511777
 20
445.649035
 30
0.0
 11
-521.725416
 21
445.649035
 31
0.0
  0
LINE
  5
553
100
AcDbEntity
  8
2
100
AcDbLine
 10
-430.328446
 20
445.649035
 30
0.0
 11
-451.850297
 21
445.649035
 31
0.0
  0
LINE
  5
554
100
AcDbEntity
  8
2
100
AcDbLine
 10
-427.328446
 20
425.649035
 30
0.0
 11
-427.328446
 21
442.649035
 31
0.0
  0
LINE
  5
555
100
AcDbEntity
  8
2
100
AcDbLine
 10
-427.328446
 20
433.649035
 30
0.0
 11
-815.328446
 21
433.649035
 31
0.0
  0
LINE
  5
556
100
AcDbEntity
  8
2
100
AcDbLine
 10
-536.931477
 20
445.649035
 30
0.0
 11
-669.049729
 21
445.649035
 31
0.0
  0
LINE
  5
557
100
AcDbEntity
  8
2
100
AcDbLine
 10
-815.328446
 20
425.649035
 30
0.0
 11
-815.328446
 21
618.649035
 31
0.0
  0
LINE
  5
558
100
AcDbEntity
  8
2
100
AcDbLine
 10
-731.328446
 20
470.649035
 30
0.0
 11
-731.328446
 21
596.649035
 31
0.0
  0
LINE
  5
559
100
AcDbEntity
  8
2
100
AcDbLine
 10
-737.067405
 20
603.649035
 30
0.0
 11
-474.328446
 21
603.649035
 31
0.0
  0
LINE
  5
55A
100
AcDbEntity
  8
2
100
AcDbLine
 10
-467.328446
 20
596.649035
 30
0.0
 11
-467.328446
 21
448.649035
 31
0.0
  0
ARC
  5
55B
100
AcDbEntity
  8
2
100
AcDbCircle
 10
-724.328446
 20
596.649035
 30
0.0
 40
7.0
100
AcDbArc
 50
90.0
 51
180.0
  0
ARC
  5
55C
100
AcDbEntity
  8
2
100
AcDbCircle
 10
-724.328446
 20
470.649035
 30
0.0
 40
7.0
100
AcDbArc
 50
180.0
 51
270.0
  0
ARC
  5
55D
100
AcDbEntity
  8
2
100
AcDbCircle
 10
-474.328446
 20
596.649035
 30
0.0
 40
7.0
100
AcDbArc
 50
0.0
 51
90.0
  0
ARC
  5
55E
100
AcDbEntity
  8
2
100
AcDbCircle
 10
-474.328446
 20
470.649035
 30
0.0
 40
7.0
100
AcDbArc
 50
270.0
 51
360.0
  0
ARC
  5
55F
100
AcDbEntity
  8
2
100
AcDbCircle
 10
-690.328446
 20
-55.150965
 30
0.0
 40
1.0
100
AcDbArc
 50
0.0
 51
90.0
  0
ARC
  5
560
100
AcDbEntity
  8
2
100
AcDbCircle
 10
-635.328446
 20
19.849035
 30
0.0
 40
180.0
100
AcDbArc
 50
170.0242
 51
198.428986
  0
ARC
  5
561
100
AcDbEntity
  8
2
100
AcDbCircle
 10
-782.379458
 20
-29.150965
 30
0.0
 40
25.0
100
AcDbArc
 50
198.428986
 51
270.0
  0
LINE
  5
562
100
AcDbEntity
  8
2
100
AcDbLine
 10
-789.728915
 20
71.639129
 30
0.0
 11
-567.783573
 21
87.159059
 31
0.0
  0
ARC
  5
563
100
AcDbEntity
  8
2
100
AcDbCircle
 10
-787.985003
 20
46.700028
 30
0.0
 40
25.0
100
AcDbArc
 50
94.0
 51
170.0242
  0
LINE
  5
564
100
AcDbEntity
  8
2
100
AcDbLine
 10
-731.328446
 20
104.849035
 30
0.0
 11
-737.764144
 21
87.167101
 31
0.0
  0
ARC
  5
565
100
AcDbEntity
  8
2
100
AcDbCircle
 10
-756.557997
 20
94.007503
 30
0.0
 40
20.0
100
AcDbArc
 50
274.0
 51
340.0
  0
LINE
  5
566
100
AcDbEntity
  8
2
100
AcDbLine
 10
-800.328446
 20
633.649035
 30
0.0
 11
-463.328446
 21
633.649035
 31
0.0
  0
CIRCLE
  5
567
100
AcDbEntity
  8
2
100
AcDbCircle
 10
-529.328446
 20
448.649035
 30
0.0
 40
7.099784
  0
ARC
  5
568
100
AcDbEntity
  8
2
100
AcDbCircle
 10
-521.725416
 20
443.649035
 30
0.0
 40
2.0
100
AcDbArc
 50
90.0
 51
146.66978
  0
ARC
  5
569
100
AcDbEntity
  8
2
100
AcDbCircle
 10
-536.931477
 20
443.649035
 30
0.0
 40
2.0
100
AcDbArc
 50
33.33022
 51
90.0
  0
CIRCLE
  5
56A
100
AcDbEntity
  8
2
100
AcDbCircle
 10
-529.328446
 20
448.649035
 30
0.0
 40
6.0
  0
CIRCLE
  5
56B
100
AcDbEntity
  8
2
100
AcDbCircle
 10
-676.328446
 20
448.649035
 30
0.0
 40
6.0
  0
LINE
  5
56C
100
AcDbEntity
  8
2
100
AcDbLine
 10
-684.328446
 20
460.649035
 30
0.0
 11
-684.328446
 21
448.649035
 31
0.0
  0
ARC
  5
56D
100
AcDbEntity
  8
2
100
AcDbCircle
 10
-681.328446
 20
460.649035
 30
0.0
 40
3.0
100
AcDbArc
 50
90.0
 51
180.0
  0
ARC
  5
56E
100
AcDbEntity
  8
2
100
AcDbCircle
 10
-681.328446
 20
448.649035
 30
0.0
 40
3.0
100
AcDbArc
 50
180.0
 51
235.972242
  0
CIRCLE
  5
56F
100
AcDbEntity
  8
2
100
AcDbCircle
 10
-676.328446
 20
448.649035
 30
0.0
 40
6.830613
  0
ARC
  5
570
100
AcDbEntity
  8
2
100
AcDbCircle
 10
-669.049729
 20
443.649035
 30
0.0
 40
2.0
100
AcDbArc
 50
90.0
 51
145.513495
  0
ARC
  5
571
100
AcDbEntity
  8
2
100
AcDbCircle
 10
-684.126419
 20
444.505202
 30
0.0
 40
2.0
100
AcDbArc
 50
27.986121
 51
55.972242
  0
CIRCLE
  5
572
100
AcDbEntity
  8
2
100
AcDbCircle
 10
-458.328446
 20
448.649035
 30
0.0
 40
6.0
  0
CIRCLE
  5
573
100
AcDbEntity
  8
2
100
AcDbCircle
 10
-458.328446
 20
448.649035
 30
0.0
 40
6.183301
  0
ARC
  5
574
100
AcDbEntity
  8
2
100
AcDbCircle
 10
-451.850297
 20
443.649035
 30
0.0
 40
2.0
100
AcDbArc
 50
90.0
 51
142.33813
  0
ARC
  5
575
100
AcDbEntity
  8
2
100
AcDbCircle
 10
-464.328446
 20
448.649035
 30
0.0
 40
3.0
100
AcDbArc
 50
180.0
 51
264.293054
  0
ARC
  5
576
100
AcDbEntity
  8
2
100
AcDbCircle
 10
-464.825648
 20
443.673818
 30
0.0
 40
2.0
100
AcDbArc
 50
37.443005
 51
84.293054
  0
ARC
  5
577
100
AcDbEntity
  8
2
100
AcDbCircle
 10
-443.328446
 20
450.649035
 30
0.0
 40
5.0
100
AcDbArc
 50
180.0
 51
270.0
  0
LINE
  5
578
100
AcDbEntity
  8
2
100
AcDbLine
 10
-458.328446
 20
539.649035
 30
0.0
 11
-450.328446
 21
539.649035
 31
0.0
  0
LINE
  5
579
100
AcDbEntity
  8
2
100
AcDbLine
 10
-458.328446
 20
527.649035
 30
0.0
 11
-450.328446
 21
527.649035
 31
0.0
  0
ARC
  5
57A
100
AcDbEntity
  8
2
100
AcDbCircle
 10
-458.328446
 20
533.649035
 30
0.0
 40
6.0
100
AcDbArc
 50
90.0
 51
270.0
  0
ARC
  5
57B
100
AcDbEntity
  8
2
100
AcDbCircle
 10
-450.328446
 20
525.649035
 30
0.0
 40
2.0
100
AcDbArc
 50
0.0
 51
90.0
  0
ARC
  5
57C
100
AcDbEntity
  8
2
100
AcDbCircle
 10
-450.328446
 20
541.649035
 30
0.0
 40
2.0
100
AcDbArc
 50
270.0
 51
0.0
  0
ARC
  5
57D
100
AcDbEntity
  8
2
100
AcDbCircle
 10
-463.328446
 20
618.649035
 30
0.0
 40
15.0
100
AcDbArc
 50
0.0
 51
90.0
  0
LINE
  5
57E
100
AcDbEntity
  8
2
100
AcDbLine
 10
-462.328446
 20
613.649035
 30
0.0
 11
-450.328446
 21
613.649035
 31
0.0
  0
LINE
  5
57F
100
AcDbEntity
  8
2
100
AcDbLine
 10
-468.328446
 20
619.649035
 30
0.0
 11
-468.328446
 21
631.649035
 31
0.0
  0
ARC
  5
580
100
AcDbEntity
  8
2
100
AcDbCircle
 10
-462.328446
 20
619.649035
 30
0.0
 40
6.0
100
AcDbArc
 50
180.0
 51
270.0
  0
ARC
  5
581
100
AcDbEntity
  8
2
100
AcDbCircle
 10
-450.328446
 20
611.649035
 30
0.0
 40
2.0
100
AcDbArc
 50
0.0
 51
90.0
  0
ARC
  5
582
100
AcDbEntity
  8
2
100
AcDbCircle
 10
-470.328446
 20
631.649035
 30
0.0
 40
2.0
100
AcDbArc
 50
0.0
 51
90.0
  0
LINE
  5
583
100
AcDbEntity
  8
2
100
AcDbLine
 10
-523.328446
 20
623.649035
 30
0.0
 11
-523.328446
 21
631.649035
 31
0.0
  0
LINE
  5
584
100
AcDbEntity
  8
2
100
AcDbLine
 10
-535.328446
 20
623.649035
 30
0.0
 11
-535.328446
 21
631.649035
 31
0.0
  0
ARC
  5
585
100
AcDbEntity
  8
2
100
AcDbCircle
 10
-529.328446
 20
623.649035
 30
0.0
 40
6.0
100
AcDbArc
 50
180.0
 51
360.0
  0
ARC
  5
586
100
AcDbEntity
  8
2
100
AcDbCircle
 10
-521.328446
 20
631.649035
 30
0.0
 40
2.0
100
AcDbArc
 50
90.0
 51
180.0
  0
ARC
  5
587
100
AcDbEntity
  8
2
100
AcDbCircle
 10
-537.328446
 20
631.649035
 30
0.0
 40
2.0
100
AcDbArc
 50
0.0
 51
90.0
  0
LINE
  5
588
100
AcDbEntity
  8
2
100
AcDbLine
 10
-670.328446
 20
623.649035
 30
0.0
 11
-670.328446
 21
631.649035
 31
0.0
  0
LINE
  5
589
100
AcDbEntity
  8
2
100
AcDbLine
 10
-682.328446
 20
623.649035
 30
0.0
 11
-682.328446
 21
631.649035
 31
0.0
  0
ARC
  5
58A
100
AcDbEntity
  8
2
100
AcDbCircle
 10
-676.328446
 20
623.649035
 30
0.0
 40
6.0
100
AcDbArc
 50
180.0
 51
360.0
  0
ARC
  5
58B
100
AcDbEntity
  8
2
100
AcDbCircle
 10
-668.328446
 20
631.649035
 30
0.0
 40
2.0
100
AcDbArc
 50
90.0
 51
180.0
  0
ARC
  5
58C
100
AcDbEntity
  8
2
100
AcDbCircle
 10
-684.328446
 20
631.649035
 30
0.0
 40
2.0
100
AcDbArc
 50
0.0
 51
90.0
  0
ARC
  5
58D
100
AcDbEntity
  8
2
100
AcDbCircle
 10
-699.328446
 20
618.649035
 30
0.0
 40
15.0
100
AcDbArc
 50
360.0
 51
90.0
  0
ARC
  5
58E
100
AcDbEntity
  8
2
100
AcDbCircle
 10
-800.328446
 20
618.649035
 30
0.0
 40
15.0
100
AcDbArc
 50
90.0
 51
180.0
  0
LINE
  5
58F
100
AcDbEntity
  8
2
100
AcDbLine
 10
-795.328446
 20
619.649035
 30
0.0
 11
-795.328446
 21
631.649035
 31
0.0
  0
LINE
  5
590
100
AcDbEntity
  8
2
100
AcDbLine
 10
-801.328446
 20
613.649035
 30
0.0
 11
-811.137333
 21
613.649035
 31
0.0
  0
ARC
  5
591
100
AcDbEntity
  8
2
100
AcDbCircle
 10
-801.328446
 20
619.649035
 30
0.0
 40
6.0
100
AcDbArc
 50
270.0
 51
360.0
  0
ARC
  5
592
100
AcDbEntity
  8
2
100
AcDbCircle
 10
-793.328446
 20
631.649035
 30
0.0
 40
2.0
100
AcDbArc
 50
90.0
 51
180.0
  0
LINE
  5
593
100
AcDbEntity
  8
2
100
AcDbLine
 10
-806.328446
 20
539.649035
 30
0.0
 11
-811.137333
 21
539.649035
 31
0.0
  0
LINE
  5
594
100
AcDbEntity
  8
2
100
AcDbLine
 10
-806.328446
 20
527.649035
 30
0.0
 11
-811.137333
 21
527.649035
 31
0.0
  0
ARC
  5
595
100
AcDbEntity
  8
2
100
AcDbCircle
 10
-806.328446
 20
533.649035
 30
0.0
 40
6.0
100
AcDbArc
 50
270.0
 51
90.0
  0
LINE
  5
596
100
AcDbEntity
  8
2
100
AcDbLine
 10
-806.328446
 20
460.649035
 30
0.0
 11
-811.137333
 21
460.649035
 31
0.0
  0
LINE
  5
597
100
AcDbEntity
  8
2
100
AcDbLine
 10
-806.328446
 20
448.649035
 30
0.0
 11
-811.137333
 21
448.649035
 31
0.0
  0
ARC
  5
598
100
AcDbEntity
  8
2
100
AcDbCircle
 10
-806.328446
 20
454.649035
 30
0.0
 40
6.0
100
AcDbArc
 50
270.0
 51
90.0
  0
LINE
  5
599
100
AcDbEntity
  8
2
100
AcDbLine
 10
-744.067405
 20
470.649035
 30
0.0
 11
-744.067405
 21
596.649035
 31
0.0
  0
ARC
  5
59A
100
AcDbEntity
  8
2
100
AcDbCircle
 10
-737.067405
 20
596.649035
 30
0.0
 40
7.0
100
AcDbArc
 50
90.0
 51
180.0
  0
LINE
  5
59B
100
AcDbEntity
  8
2
100
AcDbLine
 10
-811.328446
 20
463.649035
 30
0.0
 11
-474.328446
 21
463.649035
 31
0.0
  0
ARC
  5
59C
100
AcDbEntity
  8
2
100
AcDbCircle
 10
-811.137333
 20
462.649035
 30
0.0
 40
2.0
100
AcDbArc
 50
180.0
 51
270.0
  0
ARC
  5
59D
100
AcDbEntity
  8
2
100
AcDbCircle
 10
-811.137333
 20
446.649035
 30
0.0
 40
2.0
100
AcDbArc
 50
90.0
 51
180.0
  0
ARC
  5
59E
100
AcDbEntity
  8
2
100
AcDbCircle
 10
-811.137333
 20
541.649035
 30
0.0
 40
2.0
100
AcDbArc
 50
180.0
 51
270.0
  0
ARC
  5
59F
100
AcDbEntity
  8
2
100
AcDbCircle
 10
-811.137333
 20
525.649035
 30
0.0
 40
2.0
100
AcDbArc
 50
90.0
 51
180.0
  0
ARC
  5
5A0
100
AcDbEntity
  8
2
100
AcDbCircle
 10
-811.137333
 20
611.649035
 30
0.0
 40
2.0
100
AcDbArc
 50
90.0
 51
180.0
  0
LINE
  5
5A1
100
AcDbEntity
  8
2
100
AcDbLine
 10
-813.137333
 20
448.649035
 30
0.0
 11
-813.137333
 21
460.649035
 31
0.0
  0
LINE
  5
5A2
100
AcDbEntity
  8
2
100
AcDbLine
 10
-813.137333
 20
527.649035
 30
0.0
 11
-813.137333
 21
539.649035
 31
0.0
  0
ARC
  5
5A3
100
AcDbEntity
  8
2
100
AcDbCircle
 10
-737.067405
 20
470.649035
 30
0.0
 40
7.0
100
AcDbArc
 50
180.0
 51
270.0
  0
ARC
  5
5A4
100
AcDbEntity
  8
2
100
AcDbCircle
 10
-465.828446
 20
541.149035
 30
0.0
 40
0.5
100
AcDbArc
 50
270.0
 51
360.0
  0
ARC
  5
5A5
100
AcDbEntity
  8
2
100
AcDbCircle
 10
-466.828446
 20
540.149035
 30
0.0
 40
0.5
100
AcDbArc
 50
90.0
 51
180.0
  0
ARC
  5
5A6
100
AcDbEntity
  8
2
100
AcDbCircle
 10
-465.828446
 20
576.149035
 30
0.0
 40
0.5
100
AcDbArc
 50
0.0
 51
90.0
  0
ARC
  5
5A7
100
AcDbEntity
  8
2
100
AcDbCircle
 10
-466.828446
 20
577.149035
 30
0.0
 40
0.5
100
AcDbArc
 50
180.0
 51
270.0
  0
ARC
  5
5A8
100
AcDbEntity
  8
2
100
AcDbCircle
 10
-465.828446
 20
526.149035
 30
0.0
 40
0.5
100
AcDbArc
 50
360.0
 51
90.0
  0
ARC
  5
5A9
100
AcDbEntity
  8
2
100
AcDbCircle
 10
-466.828446
 20
527.149035
 30
0.0
 40
0.5
100
AcDbArc
 50
180.0
 51
270.0
  0
ARC
  5
5AA
100
AcDbEntity
  8
2
100
AcDbCircle
 10
-465.828446
 20
491.149035
 30
0.0
 40
0.5
100
AcDbArc
 50
270.0
 51
360.0
  0
ARC
  5
5AB
100
AcDbEntity
  8
2
100
AcDbCircle
 10
-466.828446
 20
490.149035
 30
0.0
 40
0.5
100
AcDbArc
 50
90.0
 51
180.0
  0
LINE
  5
5AC
100
AcDbEntity
  8
2
100
AcDbLine
 10
-656.328446
 20
646.649035
 30
0.0
 11
-628.328446
 21
646.649035
 31
0.0
  0
LINE
  5
5AD
100
AcDbEntity
  8
2
100
AcDbLine
 10
-556.328446
 20
646.649035
 30
0.0
 11
-528.328446
 21
646.649035
 31
0.0
  0
ARC
  5
5AE
100
AcDbEntity
  8
2
100
AcDbCircle
 10
-528.328446
 20
645.649035
 30
0.0
 40
1.0
100
AcDbArc
 50
0.0
 51
90.0
  0
ARC
  5
5AF
100
AcDbEntity
  8
2
100
AcDbCircle
 10
-556.328446
 20
645.649035
 30
0.0
 40
1.0
100
AcDbArc
 50
90.0
 51
180.0
  0
ARC
  5
5B0
100
AcDbEntity
  8
2
100
AcDbCircle
 10
-628.328446
 20
645.649035
 30
0.0
 40
1.0
100
AcDbArc
 50
0.0
 51
90.0
  0
ARC
  5
5B1
100
AcDbEntity
  8
2
100
AcDbCircle
 10
-656.328446
 20
645.649035
 30
0.0
 40
1.0
100
AcDbArc
 50
90.0
 51
180.0
  0
LINE
  5
5B2
100
AcDbEntity
  8
2
100
AcDbLine
 10
-524.328446
 20
641.649035
 30
0.0
 11
-503.483147
 21
641.649035
 31
0.0
  0
LINE
  5
5B3
100
AcDbEntity
  8
2
100
AcDbLine
 10
-681.173746
 20
641.649035
 30
0.0
 11
-660.328446
 21
641.649035
 31
0.0
  0
LINE
  5
5B4
100
AcDbEntity
  8
2
100
AcDbLine
 10
-624.328446
 20
641.649035
 30
0.0
 11
-560.328446
 21
641.649035
 31
0.0
  0
ARC
  5
5B5
100
AcDbEntity
  8
2
100
AcDbCircle
 10
-524.328446
 20
644.649035
 30
0.0
 40
3.0
100
AcDbArc
 50
180.0
 51
270.0
  0
ARC
  5
5B6
100
AcDbEntity
  8
2
100
AcDbCircle
 10
-560.328446
 20
644.649035
 30
0.0
 40
3.0
100
AcDbArc
 50
270.0
 51
360.0
  0
ARC
  5
5B7
100
AcDbEntity
  8
2
100
AcDbCircle
 10
-624.328446
 20
644.649035
 30
0.0
 40
3.0
100
AcDbArc
 50
180.0
 51
270.0
  0
ARC
  5
5B8
100
AcDbEntity
  8
2
100
AcDbCircle
 10
-660.328446
 20
644.649035
 30
0.0
 40
3.0
100
AcDbArc
 50
270.0
 51
360.0
  0
LINE
  5
5B9
100
AcDbEntity
  8
2
100
AcDbLine
 10
-682.905797
 20
640.649035
 30
0.0
 11
-686.081223
 21
635.149035
 31
0.0
  0
ARC
  5
5BA
100
AcDbEntity
  8
2
100
AcDbCircle
 10
-681.173746
 20
639.649035
 30
0.0
 40
2.0
100
AcDbArc
 50
90.0
 51
150.0
  0
ARC
  5
5BB
100
AcDbEntity
  8
2
100
AcDbCircle
 10
-688.679299
 20
636.649035
 30
0.0
 40
3.0
100
AcDbArc
 50
270.0
 51
330.0
  0
LINE
  5
5BC
100
AcDbEntity
  8
2
100
AcDbLine
 10
-501.751096
 20
640.649035
 30
0.0
 11
-498.57567
 21
635.149035
 31
0.0
  0
ARC
  5
5BD
100
AcDbEntity
  8
2
100
AcDbCircle
 10
-503.483147
 20
639.649035
 30
0.0
 40
2.0
100
AcDbArc
 50
30.0
 51
90.0
  0
ARC
  5
5BE
100
AcDbEntity
  8
2
100
AcDbCircle
 10
-495.977593
 20
636.649035
 30
0.0
 40
3.0
100
AcDbArc
 50
210.0
 51
270.0
  0
LINE
  5
5BF
100
AcDbEntity
  8
2
100
AcDbLine
 10
-527.328446
 20
645.649035
 30
0.0
 11
-527.328446
 21
644.649035
 31
0.0
  0
LINE
  5
5C0
100
AcDbEntity
  8
2
100
AcDbLine
 10
-557.328446
 20
645.649035
 30
0.0
 11
-557.328446
 21
644.649035
 31
0.0
  0
LINE
  5
5C1
100
AcDbEntity
  8
2
100
AcDbLine
 10
-627.328446
 20
645.649035
 30
0.0
 11
-627.328446
 21
644.649035
 31
0.0
  0
LINE
  5
5C2
100
AcDbEntity
  8
2
100
AcDbLine
 10
-657.328446
 20
645.649035
 30
0.0
 11
-657.328446
 21
644.649035
 31
0.0
  0
LINE
  5
5C3
100
AcDbEntity
  8
2
100
AcDbLine
 10
-556.178446
 20
646.649035
 30
0.0
 11
-556.178446
 21
658.292262
 31
0.0
  0
LINE
  5
5C4
100
AcDbEntity
  8
2
100
AcDbLine
 10
-556.178446
 20
658.292262
 30
0.0
 11
-553.828446
 21
659.649035
 31
0.0
  0
LINE
  5
5C5
100
AcDbEntity
  8
2
100
AcDbLine
 10
-553.828446
 20
659.649035
 30
0.0
 11
-542.328446
 21
659.649035
 31
0.0
  0
LINE
  5
5C6
100
AcDbEntity
  8
2
100
AcDbLine
 10
-549.253446
 20
646.649035
 30
0.0
 11
-549.253446
 21
658.292262
 31
0.0
  0
ARC
  5
5C7
100
AcDbEntity
  8
2
100
AcDbCircle
 10
-552.715946
 20
653.841101
 30
0.0
 40
5.639303
100
AcDbArc
 50
52.121121
 51
127.878879
  0
ARC
  5
5C8
100
AcDbEntity
  8
2
100
AcDbCircle
 10
-542.328446
 20
638.705404
 30
0.0
 40
20.775
100
AcDbArc
 50
90.0
 51
109.471221
  0
LINE
  5
5C9
100
AcDbEntity
  8
2
100
AcDbLine
 10
-528.478446
 20
646.649035
 30
0.0
 11
-528.478446
 21
658.292262
 31
0.0
  0
LINE
  5
5CA
100
AcDbEntity
  8
2
100
AcDbLine
 10
-528.478446
 20
658.292262
 30
0.0
 11
-530.828446
 21
659.649035
 31
0.0
  0
LINE
  5
5CB
100
AcDbEntity
  8
2
100
AcDbLine
 10
-530.828446
 20
659.649035
 30
0.0
 11
-542.328446
 21
659.649035
 31
0.0
  0
LINE
  5
5CC
100
AcDbEntity
  8
2
100
AcDbLine
 10
-535.403446
 20
646.649035
 30
0.0
 11
-535.403446
 21
658.292262
 31
0.0
  0
ARC
  5
5CD
100
AcDbEntity
  8
2
100
AcDbCircle
 10
-531.940946
 20
653.841101
 30
0.0
 40
5.639303
100
AcDbArc
 50
52.121121
 51
127.878879
  0
ARC
  5
5CE
100
AcDbEntity
  8
2
100
AcDbCircle
 10
-542.328446
 20
638.705404
 30
0.0
 40
20.775
100
AcDbArc
 50
70.528779
 51
90.0
  0
LINE
  5
5CF
100
AcDbEntity
  8
2
100
AcDbLine
 10
-656.178446
 20
646.649035
 30
0.0
 11
-656.178446
 21
658.292262
 31
0.0
  0
LINE
  5
5D0
100
AcDbEntity
  8
2
100
AcDbLine
 10
-656.178446
 20
658.292262
 30
0.0
 11
-653.828446
 21
659.649035
 31
0.0
  0
LINE
  5
5D1
100
AcDbEntity
  8
2
100
AcDbLine
 10
-653.828446
 20
659.649035
 30
0.0
 11
-642.328446
 21
659.649035
 31
0.0
  0
LINE
  5
5D2
100
AcDbEntity
  8
2
100
AcDbLine
 10
-649.253446
 20
646.649035
 30
0.0
 11
-649.253446
 21
658.292262
 31
0.0
  0
ARC
  5
5D3
100
AcDbEntity
  8
2
100
AcDbCircle
 10
-652.715946
 20
653.841101
 30
0.0
 40
5.639303
100
AcDbArc
 50
52.121121
 51
127.878879
  0
ARC
  5
5D4
100
AcDbEntity
  8
2
100
AcDbCircle
 10
-642.328446
 20
638.705404
 30
0.0
 40
20.775
100
AcDbArc
 50
90.0
 51
109.471221
  0
LINE
  5
5D5
100
AcDbEntity
  8
2
100
AcDbLine
 10
-628.478446
 20
646.649035
 30
0.0
 11
-628.478446
 21
658.292262
 31
0.0
  0
LINE
  5
5D6
100
AcDbEntity
  8
2
100
AcDbLine
 10
-628.478446
 20
658.292262
 30
0.0
 11
-630.828446
 21
659.649035
 31
0.0
  0
LINE
  5
5D7
100
AcDbEntity
  8
2
100
AcDbLine
 10
-630.828446
 20
659.649035
 30
0.0
 11
-642.328446
 21
659.649035
 31
0.0
  0
LINE
  5
5D8
100
AcDbEntity
  8
2
100
AcDbLine
 10
-635.403446
 20
646.649035
 30
0.0
 11
-635.403446
 21
658.292262
 31
0.0
  0
ARC
  5
5D9
100
AcDbEntity
  8
2
100
AcDbCircle
 10
-631.940946
 20
653.841101
 30
0.0
 40
5.639303
100
AcDbArc
 50
52.121121
 51
127.878879
  0
ARC
  5
5DA
100
AcDbEntity
  8
2
100
AcDbCircle
 10
-642.328446
 20
638.705404
 30
0.0
 40
20.775
100
AcDbArc
 50
70.528779
 51
90.0
  0
LINE
  5
5DB
100
AcDbEntity
  8
2
100
AcDbLine
 10
-535.410946
 20
669.649035
 30
0.0
 11
-534.328446
 21
668.566535
 31
0.0
  0
LINE
  5
5DC
100
AcDbEntity
  8
2
100
AcDbLine
 10
-534.328446
 20
668.566535
 30
0.0
 11
-534.328446
 21
659.649035
 31
0.0
  0
LINE
  5
5DD
100
AcDbEntity
  8
2
 62
     2
100
AcDbLine
 10
-535.410946
 20
669.649035
 30
0.0
 11
-535.410946
 21
659.649035
 31
0.0
  0
LINE
  5
5DE
100
AcDbEntity
  8
2
100
AcDbLine
 10
-535.410946
 20
669.649035
 30
0.0
 11
-549.245946
 21
669.649035
 31
0.0
  0
LINE
  5
5DF
100
AcDbEntity
  8
2
100
AcDbLine
 10
-549.245946
 20
669.649035
 30
0.0
 11
-550.328446
 21
668.566535
 31
0.0
  0
LINE
  5
5E0
100
AcDbEntity
  8
2
100
AcDbLine
 10
-550.328446
 20
668.566535
 30
0.0
 11
-550.328446
 21
659.649035
 31
0.0
  0
LINE
  5
5E1
100
AcDbEntity
  8
2
100
AcDbLine
 10
-550.328446
 20
668.566535
 30
0.0
 11
-534.328446
 21
668.566535
 31
0.0
  0
LINE
  5
5E2
100
AcDbEntity
  8
2
 62
     2
100
AcDbLine
 10
-549.245946
 20
669.649035
 30
0.0
 11
-549.245946
 21
659.649035
 31
0.0
  0
LINE
  5
5E3
100
AcDbEntity
  8
2
100
AcDbLine
 10
-635.410946
 20
669.649035
 30
0.0
 11
-634.328446
 21
668.566535
 31
0.0
  0
LINE
  5
5E4
100
AcDbEntity
  8
2
100
AcDbLine
 10
-634.328446
 20
668.566535
 30
0.0
 11
-634.328446
 21
659.649035
 31
0.0
  0
LINE
  5
5E5
100
AcDbEntity
  8
2
 62
     2
100
AcDbLine
 10
-635.410946
 20
669.649035
 30
0.0
 11
-635.410946
 21
659.649035
 31
0.0
  0
LINE
  5
5E6
100
AcDbEntity
  8
2
100
AcDbLine
 10
-635.410946
 20
669.649035
 30
0.0
 11
-649.245946
 21
669.649035
 31
0.0
  0
LINE
  5
5E7
100
AcDbEntity
  8
2
100
AcDbLine
 10
-649.245946
 20
669.649035
 30
0.0
 11
-650.328446
 21
668.566535
 31
0.0
  0
LINE
  5
5E8
100
AcDbEntity
  8
2
100
AcDbLine
 10
-650.328446
 20
668.566535
 30
0.0
 11
-650.328446
 21
659.649035
 31
0.0
  0
LINE
  5
5E9
100
AcDbEntity
  8
2
100
AcDbLine
 10
-650.328446
 20
668.566535
 30
0.0
 11
-634.328446
 21
668.566535
 31
0.0
  0
LINE
  5
5EA
100
AcDbEntity
  8
2
 62
     2
100
AcDbLine
 10
-649.245946
 20
669.649035
 30
0.0
 11
-649.245946
 21
659.649035
 31
0.0
  0
LINE
  5
5EB
100
AcDbEntity
  8
2
100
AcDbLine
 10
-474.328446
 20
589.649035
 30
0.0
 11
-469.328446
 21
589.649035
 31
0.0
  0
LINE
  5
5EC
100
AcDbEntity
  8
2
100
AcDbLine
 10
-474.328446
 20
477.649035
 30
0.0
 11
-469.328446
 21
477.649035
 31
0.0
  0
LINE
  5
5ED
100
AcDbEntity
  8
2
100
AcDbLine
 10
-724.328446
 20
477.649035
 30
0.0
 11
-729.328446
 21
477.649035
 31
0.0
  0
LINE
  5
5EE
100
AcDbEntity
  8
2
100
AcDbLine
 10
-724.328446
 20
589.649035
 30
0.0
 11
-729.328446
 21
589.649035
 31
0.0
  0
LINE
  5
5EF
100
AcDbEntity
  8
2
100
AcDbLine
 10
-481.328446
 20
596.649035
 30
0.0
 11
-481.328446
 21
601.649035
 31
0.0
  0
LINE
  5
5F0
100
AcDbEntity
  8
2
100
AcDbLine
 10
-592.328446
 20
596.649035
 30
0.0
 11
-592.328446
 21
601.649035
 31
0.0
  0
LINE
  5
5F1
100
AcDbEntity
  8
2
100
AcDbLine
 10
-606.328446
 20
596.649035
 30
0.0
 11
-606.328446
 21
601.649035
 31
0.0
  0
LINE
  5
5F2
100
AcDbEntity
  8
2
100
AcDbLine
 10
-717.328446
 20
596.649035
 30
0.0
 11
-717.328446
 21
601.649035
 31
0.0
  0
LINE
  5
5F3
100
AcDbEntity
  8
2
100
AcDbLine
 10
-717.328446
 20
470.649035
 30
0.0
 11
-717.328446
 21
465.649035
 31
0.0
  0
LINE
  5
5F4
100
AcDbEntity
  8
2
100
AcDbLine
 10
-606.328446
 20
470.649035
 30
0.0
 11
-606.328446
 21
465.649035
 31
0.0
  0
LINE
  5
5F5
100
AcDbEntity
  8
2
100
AcDbLine
 10
-592.328446
 20
470.649035
 30
0.0
 11
-592.328446
 21
465.649035
 31
0.0
  0
LINE
  5
5F6
100
AcDbEntity
  8
2
100
AcDbLine
 10
-481.328446
 20
470.649035
 30
0.0
 11
-481.328446
 21
465.649035
 31
0.0
  0
ARC
  5
5F7
100
AcDbEntity
  8
2
100
AcDbCircle
 10
-474.328446
 20
596.649035
 30
0.0
 40
7.0
100
AcDbArc
 50
180.0
 51
270.0
  0
ARC
  5
5F8
100
AcDbEntity
  8
2
100
AcDbCircle
 10
-469.328446
 20
587.649035
 30
0.0
 40
2.0
100
AcDbArc
 50
0.0
 51
90.0
  0
ARC
  5
5F9
100
AcDbEntity
  8
2
100
AcDbCircle
 10
-483.328446
 20
601.649035
 30
0.0
 40
2.0
100
AcDbArc
 50
0.0
 51
90.0
  0
ARC
  5
5FA
100
AcDbEntity
  8
2
100
AcDbCircle
 10
-599.328446
 20
596.649035
 30
0.0
 40
7.0
100
AcDbArc
 50
180.0
 51
360.0
  0
ARC
  5
5FB
100
AcDbEntity
  8
2
100
AcDbCircle
 10
-608.328446
 20
601.649035
 30
0.0
 40
2.0
100
AcDbArc
 50
0.0
 51
90.0
  0
ARC
  5
5FC
100
AcDbEntity
  8
2
100
AcDbCircle
 10
-590.328446
 20
601.649035
 30
0.0
 40
2.0
100
AcDbArc
 50
90.0
 51
180.0
  0
ARC
  5
5FD
100
AcDbEntity
  8
2
100
AcDbCircle
 10
-724.328446
 20
596.649035
 30
0.0
 40
7.0
100
AcDbArc
 50
270.0
 51
360.0
  0
ARC
  5
5FE
100
AcDbEntity
  8
2
100
AcDbCircle
 10
-715.328446
 20
601.649035
 30
0.0
 40
2.0
100
AcDbArc
 50
90.0
 51
180.0
  0
ARC
  5
5FF
100
AcDbEntity
  8
2
100
AcDbCircle
 10
-729.328446
 20
587.649035
 30
0.0
 40
2.0
100
AcDbArc
 50
90.0
 51
180.0
  0
ARC
  5
600
100
AcDbEntity
  8
2
100
AcDbCircle
 10
-724.328446
 20
470.649035
 30
0.0
 40
7.0
100
AcDbArc
 50
0.0
 51
90.0
  0
ARC
  5
601
100
AcDbEntity
  8
2
100
AcDbCircle
 10
-715.328446
 20
465.649035
 30
0.0
 40
2.0
100
AcDbArc
 50
180.0
 51
270.0
  0
ARC
  5
602
100
AcDbEntity
  8
2
100
AcDbCircle
 10
-729.328446
 20
479.649035
 30
0.0
 40
2.0
100
AcDbArc
 50
180.0
 51
270.0
  0
ARC
  5
603
100
AcDbEntity
  8
2
100
AcDbCircle
 10
-599.328446
 20
470.649035
 30
0.0
 40
7.0
100
AcDbArc
 50
360.0
 51
180.0
  0
ARC
  5
604
100
AcDbEntity
  8
2
100
AcDbCircle
 10
-608.328446
 20
465.649035
 30
0.0
 40
2.0
100
AcDbArc
 50
270.0
 51
360.0
  0
ARC
  5
605
100
AcDbEntity
  8
2
100
AcDbCircle
 10
-590.328446
 20
465.649035
 30
0.0
 40
2.0
100
AcDbArc
 50
180.0
 51
270.0
  0
ARC
  5
606
100
AcDbEntity
  8
2
100
AcDbCircle
 10
-474.328446
 20
470.649035
 30
0.0
 40
7.0
100
AcDbArc
 50
90.0
 51
180.0
  0
ARC
  5
607
100
AcDbEntity
  8
2
100
AcDbCircle
 10
-469.328446
 20
479.649035
 30
0.0
 40
2.0
100
AcDbArc
 50
270.0
 51
360.0
  0
ARC
  5
608
100
AcDbEntity
  8
2
100
AcDbCircle
 10
-483.328446
 20
465.649035
 30
0.0
 40
2.0
100
AcDbArc
 50
270.0
 51
360.0
  0
LINE
  5
609
100
AcDbEntity
  8
2
100
AcDbLine
 10
-473.222432
 20
124.849035
 30
0.0
 11
-722.367855
 21
124.849035
 31
0.0
  0
LINE
  5
60A
100
AcDbEntity
  8
2
100
AcDbLine
 10
-537.417436
 20
109.849035
 30
0.0
 11
-730.828446
 21
109.849035
 31
0.0
  0
LINE
  5
60B
100
AcDbEntity
  8
2
100
AcDbLine
 10
-731.328446
 20
104.849035
 30
0.0
 11
-731.328446
 21
109.849035
 31
0.0
  0
LINE
  5
60C
100
AcDbEntity
  8
2
100
AcDbLine
 10
-731.328446
 20
109.849035
 30
0.0
 11
-727.066318
 21
121.559136
 31
0.0
  0
LINE
  5
60D
100
AcDbEntity
  8
2
100
AcDbLine
 10
-467.90423
 20
116.43027
 30
0.0
 11
-468.241459
 21
120.284814
 31
0.0
  0
LINE
  5
60E
100
AcDbEntity
  8
2
100
AcDbLine
 10
-468.640776
 20
480.649035
 30
0.0
 11
-468.640776
 21
586.649035
 31
0.0
  0
LINE
  5
60F
100
AcDbEntity
  8
2
100
AcDbLine
 10
-725.868893
 20
480.649035
 30
0.0
 11
-725.868893
 21
586.649035
 31
0.0
  0
ARC
  5
610
100
AcDbEntity
  8
2
100
AcDbCircle
 10
-722.367855
 20
119.849035
 30
0.0
 40
5.0
100
AcDbArc
 50
90.0
 51
160.0
  0
ARC
  5
611
100
AcDbEntity
  8
2
100
AcDbCircle
 10
-473.222432
 20
119.849035
 30
0.0
 40
5.0
100
AcDbArc
 50
5.0
 51
90.0
  0
LINE
  5
612
100
AcDbEntity
  8
2
100
AcDbLine
 10
-717.328446
 20
119.849035
 30
0.0
 11
-717.328446
 21
110.349035
 31
0.0
  0
LINE
  5
613
100
AcDbEntity
  8
2
100
AcDbLine
 10
-606.328446
 20
119.849035
 30
0.0
 11
-606.328446
 21
110.349035
 31
0.0
  0
LINE
  5
614
100
AcDbEntity
  8
2
100
AcDbLine
 10
-592.328446
 20
119.849035
 30
0.0
 11
-592.328446
 21
110.349035
 31
0.0
  0
LINE
  5
615
100
AcDbEntity
  8
2
100
AcDbLine
 10
-481.328446
 20
119.849035
 30
0.0
 11
-481.328446
 21
119.064709
 31
0.0
  0
ARC
  5
616
100
AcDbEntity
  8
2
100
AcDbCircle
 10
-712.328446
 20
119.849035
 30
0.0
 40
5.0
100
AcDbArc
 50
90.0
 51
180.0
  0
ARC
  5
617
100
AcDbEntity
  8
2
100
AcDbCircle
 10
-611.328446
 20
119.849035
 30
0.0
 40
5.0
100
AcDbArc
 50
360.0
 51
90.0
  0
ARC
  5
618
100
AcDbEntity
  8
2
100
AcDbCircle
 10
-587.328446
 20
119.849035
 30
0.0
 40
5.0
100
AcDbArc
 50
90.0
 51
180.0
  0
ARC
  5
619
100
AcDbEntity
  8
2
100
AcDbCircle
 10
-486.328446
 20
119.849035
 30
0.0
 40
5.0
100
AcDbArc
 50
0.0
 51
90.0
  0
ARC
  5
61A
100
AcDbEntity
  8
2
100
AcDbCircle
 10
-717.828446
 20
110.349035
 30
0.0
 40
0.5
100
AcDbArc
 50
270.0
 51
360.0
  0
ARC
  5
61B
100
AcDbEntity
  8
2
100
AcDbCircle
 10
-605.828446
 20
110.349035
 30
0.0
 40
0.5
100
AcDbArc
 50
180.0
 51
270.0
  0
ARC
  5
61C
100
AcDbEntity
  8
2
100
AcDbCircle
 10
-592.828446
 20
110.349035
 30
0.0
 40
0.5
100
AcDbArc
 50
270.0
 51
360.0
  0
ARC
  5
61D
100
AcDbEntity
  8
2
100
AcDbCircle
 10
-730.828446
 20
109.349035
 30
0.0
 40
0.5
100
AcDbArc
 50
90.0
 51
180.0
  0
LINE
  5
61E
100
AcDbEntity
  8
2
100
AcDbLine
 10
-549.828446
 20
129.849035
 30
0.0
 11
-634.828446
 21
129.849035
 31
0.0
  0
LINE
  5
61F
100
AcDbEntity
  8
2
100
AcDbLine
 10
-634.828446
 20
131.049035
 30
0.0
 11
-634.828446
 21
127.849035
 31
0.0
  0
LINE
  5
620
100
AcDbEntity
  8
2
100
AcDbLine
 10
-549.828446
 20
131.049035
 30
0.0
 11
-549.828446
 21
127.849035
 31
0.0
  0
ARC
  5
621
100
AcDbEntity
  8
2
100
AcDbCircle
 10
-546.828446
 20
127.849035
 30
0.0
 40
3.0
100
AcDbArc
 50
180.0
 51
270.0
  0
ARC
  5
622
100
AcDbEntity
  8
2
100
AcDbCircle
 10
-637.828446
 20
127.849035
 30
0.0
 40
3.0
100
AcDbArc
 50
270.0
 51
360.0
  0
LINE
  5
623
100
AcDbEntity
  8
2
100
AcDbLine
 10
-429.328446
 20
423.649035
 30
0.0
 11
-813.328446
 21
423.649035
 31
0.0
  0
LINE
  5
624
100
AcDbEntity
  8
2
100
AcDbLine
 10
-437.805329
 20
408.649035
 30
0.0
 11
-804.848542
 21
408.649035
 31
0.0
  0
LINE
  5
625
100
AcDbEntity
  8
2
100
AcDbLine
 10
-439.524079
 20
375.649035
 30
0.0
 11
-782.724484
 21
375.649035
 31
0.0
  0
ARC
  5
626
100
AcDbEntity
  8
2
100
AcDbCircle
 10
-742.328446
 20
4.849035
 30
0.0
 40
45.0
100
AcDbArc
 50
96.908613
 51
270.0
  0
LINE
  5
627
100
AcDbEntity
  8
2
100
AcDbLine
 10
-788.520039
 20
380.096121
 30
0.0
 11
-795.574973
 21
406.425492
 31
0.0
  0
ARC
  5
628
100
AcDbEntity
  8
2
100
AcDbCircle
 10
-787.985003
 20
46.700028
 30
0.0
 40
21.0
100
AcDbArc
 50
94.0
 51
170.0242
  0
ARC
  5
629
100
AcDbEntity
  8
2
100
AcDbCircle
 10
-782.379458
 20
-29.150965
 30
0.0
 40
21.0
100
AcDbArc
 50
198.428986
 51
270.0
  0
ARC
  5
62A
100
AcDbEntity
  8
2
100
AcDbCircle
 10
-782.724484
 20
381.649035
 30
0.0
 40
6.0
100
AcDbArc
 50
195.0
 51
270.0
  0
LINE
  5
62B
100
AcDbEntity
  8
2
100
AcDbLine
 10
-431.427195
 20
421.753061
 30
0.0
 11
-433.5322
 21
381.336958
 31
0.0
  0
ARC
  5
62C
100
AcDbEntity
  8
2
100
AcDbCircle
 10
-439.524079
 20
381.649035
 30
0.0
 40
6.0
100
AcDbArc
 50
270.0
 51
357.018539
  0
ARC
  5
62D
100
AcDbEntity
  8
2
100
AcDbCircle
 10
-742.328446
 20
4.849035
 30
0.0
 40
53.842323
100
AcDbArc
 50
95.26735
 51
271.641263
  0
LINE
  5
62E
100
AcDbEntity
  8
2
100
AcDbLine
 10
-811.229116
 20
421.753707
 30
0.0
 11
-810.840319
 21
414.33502
 31
0.0
  0
ARC
  5
62F
100
AcDbEntity
  8
2
100
AcDbCircle
 10
-804.848542
 20
414.649035
 30
0.0
 40
6.0
100
AcDbArc
 50
183.0
 51
270.0
  0
ARC
  5
630
100
AcDbEntity
  8
2
100
AcDbCircle
 10
-798.472751
 20
405.649035
 30
0.0
 40
3.0
100
AcDbArc
 50
15.0
 51
90.0
  0
ARC
  5
631
100
AcDbEntity
  8
2
100
AcDbCircle
 10
-813.226375
 20
421.649035
 30
0.0
 40
2.0
100
AcDbArc
 50
3.0
 51
90.0
  0
ARC
  5
632
100
AcDbEntity
  8
2
100
AcDbCircle
 10
-813.328446
 20
425.649035
 30
0.0
 40
2.0
100
AcDbArc
 50
180.0
 51
270.0
  0
ARC
  5
633
100
AcDbEntity
  8
2
100
AcDbCircle
 10
-437.805329
 20
414.649035
 30
0.0
 40
6.0
100
AcDbArc
 50
270.0
 51
357.018539
  0
ARC
  5
634
100
AcDbEntity
  8
2
100
AcDbCircle
 10
-429.429902
 20
421.649035
 30
0.0
 40
2.0
100
AcDbArc
 50
90.0
 51
177.018539
  0
ARC
  5
635
100
AcDbEntity
  8
2
100
AcDbCircle
 10
-429.328446
 20
425.649035
 30
0.0
 40
2.0
100
AcDbArc
 50
270.0
 51
0.0
  0
LINE
  5
636
100
AcDbEntity
  8
2
100
AcDbLine
 10
-471.345745
 20
341.649035
 30
0.0
 11
-516.311147
 21
341.649035
 31
0.0
  0
LINE
  5
637
100
AcDbEntity
  8
2
100
AcDbLine
 10
-476.726375
 20
328.649035
 30
0.0
 11
-510.930517
 21
328.649035
 31
0.0
  0
LINE
  5
638
100
AcDbEntity
  8
2
100
AcDbLine
 10
-519.265571
 20
344.128091
 30
0.0
 11
-523.366482
 21
367.385517
 31
0.0
  0
LINE
  5
639
100
AcDbEntity
  8
2
100
AcDbLine
 10
-468.391322
 20
344.128091
 30
0.0
 11
-464.29041
 21
367.385517
 31
0.0
  0
LINE
  5
63A
100
AcDbEntity
  8
2
100
AcDbLine
 10
-474.729116
 20
330.544363
 30
0.0
 11
-474.246475
 21
339.753707
 31
0.0
  0
LINE
  5
63B
100
AcDbEntity
  8
2
100
AcDbLine
 10
-512.927776
 20
330.544363
 30
0.0
 11
-513.410418
 21
339.753707
 31
0.0
  0
ARC
  5
63C
100
AcDbEntity
  8
2
100
AcDbCircle
 10
-471.345745
 20
344.649035
 30
0.0
 40
3.0
100
AcDbArc
 50
270.0
 51
350.0
  0
ARC
  5
63D
100
AcDbEntity
  8
2
100
AcDbCircle
 10
-516.311147
 20
344.649035
 30
0.0
 40
3.0
100
AcDbArc
 50
190.0
 51
270.0
  0
ARC
  5
63E
100
AcDbEntity
  8
2
100
AcDbCircle
 10
-472.249216
 20
339.649035
 30
0.0
 40
2.0
100
AcDbArc
 50
90.0
 51
177.0
  0
ARC
  5
63F
100
AcDbEntity
  8
2
100
AcDbCircle
 10
-515.407677
 20
339.649035
 30
0.0
 40
2.0
100
AcDbArc
 50
3.0
 51
90.0
  0
ARC
  5
640
100
AcDbEntity
  8
2
100
AcDbCircle
 10
-476.726375
 20
330.649035
 30
0.0
 40
2.0
100
AcDbArc
 50
270.0
 51
357.0
  0
ARC
  5
641
100
AcDbEntity
  8
2
100
AcDbCircle
 10
-510.930517
 20
330.649035
 30
0.0
 40
2.0
100
AcDbArc
 50
183.0
 51
270.0
  0
ARC
  5
642
100
AcDbEntity
  8
2
100
AcDbCircle
 10
-454.442333
 20
365.649035
 30
0.0
 40
10.0
100
AcDbArc
 50
90.0
 51
170.0
  0
ARC
  5
643
100
AcDbEntity
  8
2
100
AcDbCircle
 10
-533.21456
 20
365.649035
 30
0.0
 40
10.0
100
AcDbArc
 50
10.0
 51
90.0
  0
ARC
  5
644
100
AcDbEntity
  8
2
100
AcDbCircle
 10
-635.328446
 20
19.849035
 30
0.0
 40
176.0
100
AcDbArc
 50
170.0242
 51
180.828003
  0
ARC
  5
645
100
AcDbEntity
  8
2
100
AcDbCircle
 10
-635.328446
 20
19.849035
 30
0.0
 40
176.0
100
AcDbArc
 50
188.476216
 51
198.428986
  0
ARC
  5
646
100
AcDbEntity
  8
2
100
AcDbCircle
 10
-806.328446
 20
5.849035
 30
0.0
 40
8.5
100
AcDbArc
 50
270.0
 51
90.0
  0
LINE
  5
647
100
AcDbEntity
  8
2
100
AcDbLine
 10
-806.328446
 20
14.349035
 30
0.0
 11
-808.310382
 21
14.349035
 31
0.0
  0
LINE
  5
648
100
AcDbEntity
  8
2
100
AcDbLine
 10
-806.328446
 20
-2.650965
 30
0.0
 11
-806.438791
 21
-2.650965
 31
0.0
  0
ARC
  5
649
100
AcDbEntity
  8
2
100
AcDbCircle
 10
-808.310382
 20
17.349035
 30
0.0
 40
3.0
100
AcDbArc
 50
180.828003
 51
270.0
  0
ARC
  5
64A
100
AcDbEntity
  8
2
100
AcDbCircle
 10
-806.438791
 20
-5.650965
 30
0.0
 40
3.0
100
AcDbArc
 50
90.0
 51
188.476216
  0
LINE
  5
64B
100
AcDbEntity
  8
2
100
AcDbLine
 10
-683.828446
 20
69.849035
 30
0.0
 11
-683.828446
 21
72.237098
 31
0.0
  0
LINE
  5
64C
100
AcDbEntity
  8
2
100
AcDbLine
 10
-700.828446
 20
69.849035
 30
0.0
 11
-700.828446
 21
70.628781
 31
0.0
  0
ARC
  5
64D
100
AcDbEntity
  8
2
100
AcDbCircle
 10
-692.328446
 20
69.849035
 30
0.0
 40
8.5
100
AcDbArc
 50
180.0
 51
360.0
  0
LINE
  5
64E
100
AcDbEntity
  8
2
100
AcDbLine
 10
-789.449889
 20
67.648873
 30
0.0
 11
-704.037716
 21
73.621474
 31
0.0
  0
ARC
  5
64F
100
AcDbEntity
  8
2
100
AcDbCircle
 10
-680.828446
 20
72.237098
 30
0.0
 40
3.0
100
AcDbArc
 50
94.0
 51
180.0
  0
ARC
  5
650
100
AcDbEntity
  8
2
100
AcDbCircle
 10
-703.828446
 20
70.628781
 30
0.0
 40
3.0
100
AcDbArc
 50
0.0
 51
94.0
  0
LINE
  5
651
100
AcDbEntity
  8
2
100
AcDbLine
 10
-747.271342
 20
58.463992
 30
0.0
 11
-697.440415
 21
63.058028
 31
0.0
  0
LINE
  5
652
100
AcDbEntity
  8
2
100
AcDbLine
 10
-681.037716
 20
75.22979
 30
0.0
 11
-571.452488
 21
82.892736
 31
0.0
  0
LINE
  5
653
100
AcDbEntity
  8
2
100
AcDbLine
 10
-686.061037
 20
64.107121
 30
0.0
 11
-577.843775
 21
74.083938
 31
0.0
  0
LINE
  5
654
100
AcDbEntity
  8
2
100
AcDbLine
 10
-747.74132
 20
49.522302
 30
0.0
 11
-580.464752
 21
69.790506
 31
0.0
  0
ARC
  5
655
100
AcDbEntity
  8
2
100
AcDbCircle
 10
-568.828446
 20
-47.150965
 30
0.0
 40
3.0
100
AcDbArc
 50
270.0
 51
323.537161
  0
LINE
  5
656
100
AcDbEntity
  8
2
100
AcDbLine
 10
-740.78632
 20
-48.971199
 30
0.0
 11
-679.82935
 21
-47.224582
 31
0.0
  0
LINE
  5
657
100
AcDbEntity
  8
2
100
AcDbLine
 10
-662.828446
 20
-46.73745
 30
0.0
 11
-570.710059
 21
-44.097956
 31
0.0
  0
LINE
  5
658
100
AcDbEntity
  8
2
100
AcDbLine
 10
-679.828446
 20
-46.150965
 30
0.0
 11
-679.828446
 21
-47.150965
 31
0.0
  0
LINE
  5
659
100
AcDbEntity
  8
2
100
AcDbLine
 10
-662.828446
 20
-46.150965
 30
0.0
 11
-662.828446
 21
-47.150965
 31
0.0
  0
ARC
  5
65A
100
AcDbEntity
  8
2
100
AcDbCircle
 10
-671.328446
 20
-46.150965
 30
0.0
 40
8.5
100
AcDbArc
 50
0.0
 51
180.0
  0
LINE
  5
65B
100
AcDbEntity
  8
2
100
AcDbLine
 10
-742.328446
 20
-40.150965
 30
0.0
 11
-677.349244
 21
-40.150965
 31
0.0
  0
LINE
  5
65C
100
AcDbEntity
  8
2
100
AcDbLine
 10
-665.307649
 20
-40.150965
 30
0.0
 11
-573.828446
 21
-40.150965
 31
0.0
  0
LINE
  5
65D
100
AcDbEntity
  8
2
100
AcDbLine
 10
-782.379458
 20
-50.150965
 30
0.0
 11
-682.828446
 21
-50.150965
 31
0.0
  0
LINE
  5
65E
100
AcDbEntity
  8
2
100
AcDbLine
 10
-659.828446
 20
-50.150965
 30
0.0
 11
-568.828446
 21
-50.150965
 31
0.0
  0
ARC
  5
65F
100
AcDbEntity
  8
2
100
AcDbCircle
 10
-659.828446
 20
-47.150965
 30
0.0
 40
3.0
100
AcDbArc
 50
180.0
 51
270.0
  0
ARC
  5
660
100
AcDbEntity
  8
2
100
AcDbCircle
 10
-682.828446
 20
-47.150965
 30
0.0
 40
3.0
100
AcDbArc
 50
270.0
 51
0.0
  0
LINE
  5
661
100
AcDbEntity
  8
2
100
AcDbLine
 10
-456.828446
 20
409.149035
 30
0.0
 11
-456.828446
 21
423.149035
 31
0.0
  0
LINE
  5
662
100
AcDbEntity
  8
2
100
AcDbLine
 10
-437.103176
 20
409.282022
 30
0.0
 11
-437.103176
 21
423.149035
 31
0.0
  0
ARC
  5
663
100
AcDbEntity
  8
2
100
AcDbCircle
 10
-457.328446
 20
409.149035
 30
0.0
 40
0.5
100
AcDbArc
 50
270.0
 51
360.0
  0
ARC
  5
664
100
AcDbEntity
  8
2
100
AcDbCircle
 10
-456.328446
 20
423.149035
 30
0.0
 40
0.5
100
AcDbArc
 50
90.0
 51
180.0
  0
ARC
  5
665
100
AcDbEntity
  8
2
100
AcDbCircle
 10
-437.603176
 20
423.149035
 30
0.0
 40
0.5
100
AcDbArc
 50
0.0
 51
90.0
  0
ARC
  5
666
100
AcDbEntity
  8
2
100
AcDbCircle
 10
-436.603176
 20
409.282022
 30
0.0
 40
0.5
100
AcDbArc
 50
180.0
 51
282.625246
  0
LINE
  5
667
100
AcDbEntity
  8
2
100
AcDbLine
 10
151.771554
 20
84.849035
 30
0.0
 11
151.771554
 21
56.849035
 31
0.0
  0
LINE
  5
668
100
AcDbEntity
  8
2
100
AcDbLine
 10
115.771554
 20
84.849035
 30
0.0
 11
115.771554
 21
56.849035
 31
0.0
  0
LINE
  5
669
100
AcDbEntity
  8
2
100
AcDbLine
 10
101.771554
 20
84.849035
 30
0.0
 11
101.771554
 21
56.849035
 31
0.0
  0
LINE
  5
66A
100
AcDbEntity
  8
2
100
AcDbLine
 10
65.771554
 20
84.849035
 30
0.0
 11
65.771554
 21
56.849035
 31
0.0
  0
ARC
  5
66B
100
AcDbEntity
  8
2
100
AcDbCircle
 10
133.771554
 20
84.849035
 30
0.0
 40
18.0
100
AcDbArc
 50
0.0
 51
180.0
  0
ARC
  5
66C
100
AcDbEntity
  8
2
100
AcDbCircle
 10
83.771554
 20
84.849035
 30
0.0
 40
18.0
100
AcDbArc
 50
0.0
 51
180.0
  0
ARC
  5
66D
100
AcDbEntity
  8
2
100
AcDbCircle
 10
153.771554
 20
56.849035
 30
0.0
 40
2.0
100
AcDbArc
 50
180.0
 51
270.0
  0
ARC
  5
66E
100
AcDbEntity
  8
2
100
AcDbCircle
 10
113.771554
 20
56.849035
 30
0.0
 40
2.0
100
AcDbArc
 50
270.0
 51
0.0
  0
ARC
  5
66F
100
AcDbEntity
  8
2
100
AcDbCircle
 10
103.771554
 20
56.849035
 30
0.0
 40
2.0
100
AcDbArc
 50
180.0
 51
270.0
  0
ARC
  5
670
100
AcDbEntity
  8
2
100
AcDbCircle
 10
63.771554
 20
56.849035
 30
0.0
 40
2.0
100
AcDbArc
 50
270.0
 51
360.0
  0
LINE
  5
671
100
AcDbEntity
  8
2
100
AcDbLine
 10
208.771554
 20
59.849035
 30
0.0
 11
208.771554
 21
19.849035
 31
0.0
  0
ARC
  5
672
100
AcDbEntity
  8
2
100
AcDbCircle
 10
198.771554
 20
59.849035
 30
0.0
 40
10.0
100
AcDbArc
 50
0.0
 51
90.0
  0
ARC
  5
673
100
AcDbEntity
  8
2
100
AcDbCircle
 10
198.771554
 20
44.849035
 30
0.0
 40
10.0
100
AcDbArc
 50
0.0
 51
90.0
  0
LINE
  5
674
100
AcDbEntity
  8
2
100
AcDbLine
 10
103.271554
 20
47.849035
 30
0.0
 11
114.271554
 21
47.849035
 31
0.0
  0
LINE
  5
675
100
AcDbEntity
  8
2
100
AcDbLine
 10
189.271554
 20
47.849035
 30
0.0
 11
206.708808
 21
47.849035
 31
0.0
  0
LINE
  5
676
100
AcDbEntity
  8
2
100
AcDbLine
 10
188.771554
 20
54.349035
 30
0.0
 11
188.771554
 21
48.349035
 31
0.0
  0
LINE
  5
677
100
AcDbEntity
  8
2
100
AcDbLine
 10
114.771554
 20
52.849035
 30
0.0
 11
114.771554
 21
48.349035
 31
0.0
  0
LINE
  5
678
100
AcDbEntity
  8
2
100
AcDbLine
 10
102.771554
 20
52.849035
 30
0.0
 11
102.771554
 21
48.349035
 31
0.0
  0
ARC
  5
679
100
AcDbEntity
  8
2
100
AcDbCircle
 10
114.271554
 20
48.349035
 30
0.0
 40
0.5
100
AcDbArc
 50
270.0
 51
360.0
  0
ARC
  5
67A
100
AcDbEntity
  8
2
100
AcDbCircle
 10
103.271554
 20
48.349035
 30
0.0
 40
0.5
100
AcDbArc
 50
180.0
 51
270.0
  0
ARC
  5
67B
100
AcDbEntity
  8
2
100
AcDbCircle
 10
116.771554
 20
52.849035
 30
0.0
 40
2.0
100
AcDbArc
 50
90.0
 51
180.0
  0
ARC
  5
67C
100
AcDbEntity
  8
2
100
AcDbCircle
 10
100.771554
 20
52.849035
 30
0.0
 40
2.0
100
AcDbArc
 50
0.0
 51
90.0
  0
ARC
  5
67D
100
AcDbEntity
  8
2
100
AcDbCircle
 10
189.271554
 20
48.349035
 30
0.0
 40
0.5
100
AcDbArc
 50
180.0
 51
270.0
  0
ARC
  5
67E
100
AcDbEntity
  8
2
100
AcDbCircle
 10
188.271554
 20
54.349035
 30
0.0
 40
0.5
100
AcDbArc
 50
0.0
 51
90.0
  0
ARC
  5
67F
100
AcDbEntity
  8
2
100
AcDbCircle
 10
206.708808
 20
45.849035
 30
0.0
 40
2.0
100
AcDbArc
 50
7.180756
 51
90.0
  0
LINE
  5
680
100
AcDbEntity
  8
2
100
AcDbLine
 10
20.771554
 20
-52.150965
 30
0.0
 11
20.771554
 21
90.865326
 31
0.0
  0
LINE
  5
681
100
AcDbEntity
  8
2
100
AcDbLine
 10
0.771554
 20
93.865326
 30
0.0
 11
17.771554
 21
93.865326
 31
0.0
  0
LINE
  5
682
100
AcDbEntity
  8
2
100
AcDbLine
 10
0.771554
 20
-54.150965
 30
0.0
 11
18.771554
 21
-54.150965
 31
0.0
  0
ARC
  5
683
100
AcDbEntity
  8
2
100
AcDbCircle
 10
17.771554
 20
90.865326
 30
0.0
 40
3.0
100
AcDbArc
 50
0.0
 51
90.0
  0
ARC
  5
684
100
AcDbEntity
  8
2
100
AcDbCircle
 10
25.771554
 20
59.849035
 30
0.0
 40
5.0
100
AcDbArc
 50
180.0
 51
270.0
  0
ARC
  5
685
100
AcDbEntity
  8
2
100
AcDbCircle
 10
18.771554
 20
-52.150965
 30
0.0
 40
2.0
100
AcDbArc
 50
270.0
 51
360.0
  0
LINE
  5
686
100
AcDbEntity
  8
2
100
AcDbLine
 10
178.771554
 20
109.849035
 30
0.0
 11
178.771554
 21
59.849035
 31
0.0
  0
LINE
  5
687
100
AcDbEntity
  8
2
100
AcDbLine
 10
38.771554
 20
109.849035
 30
0.0
 11
38.771554
 21
72.849035
 31
0.0
  0
ARC
  5
688
100
AcDbEntity
  8
2
100
AcDbCircle
 10
183.771554
 20
59.849035
 30
0.0
 40
5.0
100
AcDbArc
 50
180.0
 51
270.0
  0
LINE
  5
689
100
AcDbEntity
  8
2
100
AcDbLine
 10
23.771554
 20
67.849035
 30
0.0
 11
33.771554
 21
67.849035
 31
0.0
  0
ARC
  5
68A
100
AcDbEntity
  8
2
100
AcDbCircle
 10
33.771554
 20
72.849035
 30
0.0
 40
5.0
100
AcDbArc
 50
270.0
 51
360.0
  0
ARC
  5
68B
100
AcDbEntity
  8
2
100
AcDbCircle
 10
23.771554
 20
70.849035
 30
0.0
 40
3.0
100
AcDbArc
 50
180.0
 51
270.0
  0
LINE
  5
68C
100
AcDbEntity
  8
2
100
AcDbLine
 10
20.771554
 20
79.009448
 30
0.0
 11
35.771554
 21
79.009448
 31
0.0
  0
ARC
  5
68D
100
AcDbEntity
  8
2
100
AcDbCircle
 10
35.771554
 20
82.009448
 30
0.0
 40
3.0
100
AcDbArc
 50
270.0
 51
360.0
  0
ARC
  5
68E
100
AcDbEntity
  8
2
100
AcDbCircle
 10
9.771554
 20
-55.150965
 30
0.0
 40
1.0
100
AcDbArc
 50
0.0
 51
90.0
  0
LINE
  5
68F
100
AcDbEntity
  8
2
100
AcDbLine
 10
221.771554
 20
19.849035
 30
0.0
 11
221.771554
 21
-14.150965
 31
0.0
  0
LINE
  5
690
100
AcDbEntity
  8
2
100
AcDbLine
 10
210.772592
 20
-15.150965
 30
0.0
 11
220.771554
 21
-15.150965
 31
0.0
  0
ARC
  5
691
100
AcDbEntity
  8
2
100
AcDbCircle
 10
220.771554
 20
-14.150965
 30
0.0
 40
1.0
100
AcDbArc
 50
270.0
 51
360.0
  0
LINE
  5
692
100
AcDbEntity
  8
2
100
AcDbLine
 10
208.771554
 20
19.849035
 30
0.0
 11
206.771554
 21
-56.150965
 31
0.0
  0
ARC
  5
693
100
AcDbEntity
  8
2
100
AcDbCircle
 10
210.772592
 20
-18.150965
 30
0.0
 40
3.0
100
AcDbArc
 50
90.0
 51
178.492564
  0
LINE
  5
694
100
AcDbEntity
  8
2
100
AcDbLine
 10
216.771554
 20
19.849035
 30
0.0
 11
216.771554
 21
-12.150965
 31
0.0
  0
ARC
  5
695
100
AcDbEntity
  8
2
100
AcDbCircle
 10
213.771554
 20
-12.150965
 30
0.0
 40
3.0
100
AcDbArc
 50
270.0
 51
360.0
  0
LINE
  5
696
100
AcDbEntity
  8
2
100
AcDbLine
 10
221.771554
 20
11.849035
 30
0.0
 11
234.771554
 21
11.849035
 31
0.0
  0
LINE
  5
697
100
AcDbEntity
  8
2
100
AcDbLine
 10
221.771554
 20
-0.150965
 30
0.0
 11
233.414781
 21
-0.150965
 31
0.0
  0
ARC
  5
698
100
AcDbEntity
  8
2
100
AcDbCircle
 10
220.826395
 20
5.849035
 30
0.0
 40
13.945159
100
AcDbArc
 50
334.516139
 51
25.483861
  0
LINE
  5
699
100
AcDbEntity
  8
2
100
AcDbLine
 10
221.771554
 20
-12.150965
 30
0.0
 11
234.771554
 21
-12.150965
 31
0.0
  0
LINE
  5
69A
100
AcDbEntity
  8
2
100
AcDbLine
 10
234.771554
 20
-12.150965
 30
0.0
 11
234.771554
 21
11.849035
 31
0.0
  0
ARC
  5
69B
100
AcDbEntity
  8
2
100
AcDbCircle
 10
220.826395
 20
-6.150965
 30
0.0
 40
13.945159
100
AcDbArc
 50
334.516139
 51
25.483861
  0
LINE
  5
69C
100
AcDbEntity
  8
2
100
AcDbLine
 10
244.771554
 20
-7.068465
 30
0.0
 11
243.689054
 21
-8.150965
 31
0.0
  0
LINE
  5
69D
100
AcDbEntity
  8
2
100
AcDbLine
 10
243.689054
 20
-8.150965
 30
0.0
 11
234.771554
 21
-8.150965
 31
0.0
  0
LINE
  5
69E
100
AcDbEntity
  8
2
 62
     2
100
AcDbLine
 10
244.771554
 20
-7.068465
 30
0.0
 11
234.771554
 21
-7.068465
 31
0.0
  0
LINE
  5
69F
100
AcDbEntity
  8
2
100
AcDbLine
 10
244.771554
 20
-7.068465
 30
0.0
 11
244.771554
 21
6.766535
 31
0.0
  0
LINE
  5
6A0
100
AcDbEntity
  8
2
100
AcDbLine
 10
244.771554
 20
6.766535
 30
0.0
 11
243.689054
 21
7.849035
 31
0.0
  0
LINE
  5
6A1
100
AcDbEntity
  8
2
100
AcDbLine
 10
243.689054
 20
7.849035
 30
0.0
 11
234.771554
 21
7.849035
 31
0.0
  0
LINE
  5
6A2
100
AcDbEntity
  8
2
100
AcDbLine
 10
243.689054
 20
7.849035
 30
0.0
 11
243.689054
 21
-8.150965
 31
0.0
  0
LINE
  5
6A3
100
AcDbEntity
  8
2
 62
     2
100
AcDbLine
 10
244.771554
 20
6.766535
 30
0.0
 11
234.771554
 21
6.766535
 31
0.0
  0
LINE
  5
6A4
100
AcDbEntity
  8
2
100
AcDbLine
 10
39.271554
 20
109.849035
 30
0.0
 11
178.271554
 21
109.849035
 31
0.0
  0
LINE
  5
6A5
100
AcDbEntity
  8
2
100
AcDbLine
 10
44.665539
 20
124.849035
 30
0.0
 11
172.877568
 21
124.849035
 31
0.0
  0
LINE
  5
6A6
100
AcDbEntity
  8
2
100
AcDbLine
 10
66.271554
 20
129.849035
 30
0.0
 11
151.271554
 21
129.849035
 31
0.0
  0
LINE
  5
6A7
100
AcDbEntity
  8
2
100
AcDbLine
 10
178.771554
 20
109.849035
 30
0.0
 11
177.858541
 21
120.284814
 31
0.0
  0
LINE
  5
6A8
100
AcDbEntity
  8
2
100
AcDbLine
 10
38.771554
 20
109.849035
 30
0.0
 11
39.684566
 21
120.284814
 31
0.0
  0
ARC
  5
6A9
100
AcDbEntity
  8
2
100
AcDbCircle
 10
172.877568
 20
119.849035
 30
0.0
 40
5.0
100
AcDbArc
 50
5.0
 51
90.0
  0
ARC
  5
6AA
100
AcDbEntity
  8
2
100
AcDbCircle
 10
44.665539
 20
119.849035
 30
0.0
 40
5.0
100
AcDbArc
 50
90.0
 51
175.0
  0
LINE
  5
6AB
100
AcDbEntity
  8
2
100
AcDbLine
 10
151.271554
 20
131.049035
 30
0.0
 11
151.271554
 21
127.849035
 31
0.0
  0
LINE
  5
6AC
100
AcDbEntity
  8
2
100
AcDbLine
 10
66.271554
 20
131.049035
 30
0.0
 11
66.271554
 21
127.849035
 31
0.0
  0
ARC
  5
6AD
100
AcDbEntity
  8
2
100
AcDbCircle
 10
154.271554
 20
127.849035
 30
0.0
 40
3.0
100
AcDbArc
 50
180.0
 51
270.0
  0
ARC
  5
6AE
100
AcDbEntity
  8
2
100
AcDbCircle
 10
63.271554
 20
127.849035
 30
0.0
 40
3.0
100
AcDbArc
 50
270.0
 51
360.0
  0
LINE
  5
6AF
100
AcDbEntity
  8
2
100
AcDbLine
 10
164.771554
 20
119.849035
 30
0.0
 11
164.771554
 21
110.349035
 31
0.0
  0
LINE
  5
6B0
100
AcDbEntity
  8
2
100
AcDbLine
 10
52.771554
 20
119.849035
 30
0.0
 11
52.771554
 21
110.349035
 31
0.0
  0
ARC
  5
6B1
100
AcDbEntity
  8
2
100
AcDbCircle
 10
159.771554
 20
119.849035
 30
0.0
 40
5.0
100
AcDbArc
 50
360.0
 51
90.0
  0
ARC
  5
6B2
100
AcDbEntity
  8
2
100
AcDbCircle
 10
57.771554
 20
119.849035
 30
0.0
 40
5.0
100
AcDbArc
 50
90.0
 51
180.0
  0
ARC
  5
6B3
100
AcDbEntity
  8
2
100
AcDbCircle
 10
165.271554
 20
110.349035
 30
0.0
 40
0.5
100
AcDbArc
 50
180.0
 51
270.0
  0
ARC
  5
6B4
100
AcDbEntity
  8
2
100
AcDbCircle
 10
52.271554
 20
110.349035
 30
0.0
 40
0.5
100
AcDbArc
 50
270.0
 51
360.0
  0
ARC
  5
6B5
100
AcDbEntity
  8
2
100
AcDbCircle
 10
178.271554
 20
109.349035
 30
0.0
 40
0.5
100
AcDbArc
 50
0.0
 51
90.0
  0
ARC
  5
6B6
100
AcDbEntity
  8
2
100
AcDbCircle
 10
39.271554
 20
109.349035
 30
0.0
 40
0.5
100
AcDbArc
 50
90.0
 51
180.0
  0
LINE
  5
6B7
100
AcDbEntity
  8
2
100
AcDbLine
 10
-714.328446
 20
602.337035
 30
0.0
 11
-606.450507
 21
602.337035
 31
0.0
  0
LINE
  5
6B8
100
AcDbEntity
  8
2
100
AcDbLine
 10
-592.206386
 20
602.337035
 30
0.0
 11
-484.328446
 21
602.337035
 31
0.0
  0
LINE
  5
6B9
100
AcDbEntity
  8
2
100
AcDbLine
 10
-714.328446
 20
464.961035
 30
0.0
 11
-606.450507
 21
464.961035
 31
0.0
  0
LINE
  5
6BA
100
AcDbEntity
  8
2
100
AcDbLine
 10
-592.206386
 20
464.961035
 30
0.0
 11
-484.328446
 21
464.961035
 31
0.0
  0
LINE
  5
6BB
100
AcDbEntity
  8
2
100
AcDbLine
 10
-1.228446
 20
-52.150965
 30
0.0
 11
-1.228446
 21
91.865326
 31
0.0
  0
LINE
  5
6BC
100
AcDbEntity
  8
2
100
AcDbLine
 10
-16.228446
 20
-43.671061
 30
0.0
 11
-16.228446
 21
83.385422
 31
0.0
  0
LINE
  5
6BD
100
AcDbEntity
  8
2
100
AcDbLine
 10
-49.228446
 20
-35.547003
 30
0.0
 11
-49.228446
 21
74.153403
 31
0.0
  0
ARC
  5
6BE
100
AcDbEntity
  8
2
100
AcDbCircle
 10
0.771554
 20
91.865326
 30
0.0
 40
2.0
100
AcDbArc
 50
90.0
 51
180.0
  0
ARC
  5
6BF
100
AcDbEntity
  8
2
100
AcDbCircle
 10
0.771554
 20
-52.150965
 30
0.0
 40
2.0
100
AcDbArc
 50
180.0
 51
270.0
  0
LINE
  5
6C0
100
AcDbEntity
  8
2
100
AcDbLine
 10
-43.540523
 20
80.145281
 30
0.0
 11
-19.012896
 21
81.422762
 31
0.0
  0
LINE
  5
6C1
100
AcDbEntity
  8
2
100
AcDbLine
 10
-3.123774
 20
89.765996
 30
0.0
 11
-10.542462
 21
89.377199
 31
0.0
  0
ARC
  5
6C2
100
AcDbEntity
  8
2
100
AcDbCircle
 10
-43.228446
 20
74.153403
 30
0.0
 40
6.0
100
AcDbArc
 50
92.981461
 51
180.0
  0
ARC
  5
6C3
100
AcDbEntity
  8
2
100
AcDbCircle
 10
-10.228446
 20
83.385422
 30
0.0
 40
6.0
100
AcDbArc
 50
93.0
 51
180.0
  0
ARC
  5
6C4
100
AcDbEntity
  8
2
100
AcDbCircle
 10
-19.168935
 20
84.418701
 30
0.0
 40
3.0
100
AcDbArc
 50
272.981461
 51
353.407404
  0
ARC
  5
6C5
100
AcDbEntity
  8
2
100
AcDbCircle
 10
-3.228446
 20
91.763255
 30
0.0
 40
2.0
100
AcDbArc
 50
273.0
 51
360.0
  0
LINE
  5
6C6
100
AcDbEntity
  8
2
100
AcDbLine
 10
-44.781361
 20
-41.342558
 30
0.0
 11
-18.336986
 21
-48.428307
 31
0.0
  0
LINE
  5
6C7
100
AcDbEntity
  8
2
100
AcDbLine
 10
-3.123774
 20
-50.051635
 30
0.0
 11
-10.542462
 21
-49.662838
 31
0.0
  0
ARC
  5
6C8
100
AcDbEntity
  8
2
100
AcDbCircle
 10
-43.228446
 20
-35.547003
 30
0.0
 40
6.0
100
AcDbArc
 50
180.0
 51
255.0
  0
ARC
  5
6C9
100
AcDbEntity
  8
2
100
AcDbCircle
 10
-10.228446
 20
-43.671061
 30
0.0
 40
6.0
100
AcDbArc
 50
180.0
 51
267.0
  0
ARC
  5
6CA
100
AcDbEntity
  8
2
100
AcDbCircle
 10
-3.228446
 20
-52.048894
 30
0.0
 40
2.0
100
AcDbArc
 50
0.0
 51
87.0
  0
ARC
  5
6CB
100
AcDbEntity
  8
2
100
AcDbCircle
 10
-8.566834
 20
-11.9656
 30
0.0
 40
37.748972
100
AcDbArc
 50
255.0
 51
267.0
  0
LINE
  5
6CC
100
AcDbEntity
  8
2
100
AcDbLine
 10
-18.121975
 20
-41.794971
 30
0.0
 11
-43.54511
 21
-40.451334
 31
0.0
  0
ARC
  5
6CD
100
AcDbEntity
  8
2
100
AcDbCircle
 10
-43.228446
 20
-34.459697
 30
0.0
 40
6.0
100
AcDbArc
 50
180.0
 51
266.974679
  0
LINE
  5
6CE
100
AcDbEntity
  8
2
100
AcDbLine
 10
-16.228446
 20
67.349035
 30
0.0
 11
-1.228446
 21
67.349035
 31
0.0
  0
LINE
  5
6CF
100
AcDbEntity
  8
2
100
AcDbLine
 10
-16.228446
 20
-29.650965
 30
0.0
 11
-1.228446
 21
-29.650965
 31
0.0
  0
LINE
  5
6D0
100
AcDbEntity
  8
2
100
AcDbLine
 10
-12.256651
 20
-49.317864
 30
0.0
 11
-1.228446
 21
-49.317864
 31
0.0
  0
ARC
  5
6D1
100
AcDbEntity
  8
2
100
AcDbCircle
 10
-18.227529
 20
-43.792183
 30
0.0
 40
2.0
100
AcDbArc
 50
0.86751
 51
86.974679
  0
LINE
  5
6D2
100
AcDbEntity
  8
2
100
AcDbLine
 10
-14.879886
 20
87.175424
 30
0.0
 11
-1.228446
 21
87.175424
 31
0.0
  0
LINE
  5
6D3
100
AcDbEntity
  8
2
100
AcDbLine
 10
-96.228446
 20
2.746964
 30
0.0
 11
-96.228446
 21
36.951106
 31
0.0
  0
LINE
  5
6D4
100
AcDbEntity
  8
2
100
AcDbLine
 10
-83.228446
 20
-2.633666
 30
0.0
 11
-83.228446
 21
42.331736
 31
0.0
  0
LINE
  5
6D5
100
AcDbEntity
  8
2
100
AcDbLine
 10
-80.749391
 20
45.28616
 30
0.0
 11
-57.491965
 21
49.387071
 31
0.0
  0
LINE
  5
6D6
100
AcDbEntity
  8
2
100
AcDbLine
 10
-80.749391
 20
-5.588089
 30
0.0
 11
-57.491965
 21
-9.689001
 31
0.0
  0
LINE
  5
6D7
100
AcDbEntity
  8
2
100
AcDbLine
 10
-94.333118
 20
38.948365
 30
0.0
 11
-85.123774
 21
39.431006
 31
0.0
  0
LINE
  5
6D8
100
AcDbEntity
  8
2
100
AcDbLine
 10
-94.333118
 20
0.749705
 30
0.0
 11
-85.123774
 21
0.267064
 31
0.0
  0
ARC
  5
6D9
100
AcDbEntity
  8
2
100
AcDbCircle
 10
-80.228446
 20
42.331736
 30
0.0
 40
3.0
100
AcDbArc
 50
100.0
 51
180.0
  0
ARC
  5
6DA
100
AcDbEntity
  8
2
100
AcDbCircle
 10
-80.228446
 20
-2.633666
 30
0.0
 40
3.0
100
AcDbArc
 50
180.0
 51
260.0
  0
ARC
  5
6DB
100
AcDbEntity
  8
2
100
AcDbCircle
 10
-94.228446
 20
36.951106
 30
0.0
 40
2.0
100
AcDbArc
 50
93.0
 51
180.0
  0
ARC
  5
6DC
100
AcDbEntity
  8
2
100
AcDbCircle
 10
-94.228446
 20
2.746964
 30
0.0
 40
2.0
100
AcDbArc
 50
180.0
 51
267.0
  0
ARC
  5
6DD
100
AcDbEntity
  8
2
100
AcDbCircle
 10
-85.228446
 20
-1.730195
 30
0.0
 40
2.0
100
AcDbArc
 50
0.0
 51
87.0
  0
ARC
  5
6DE
100
AcDbEntity
  8
2
100
AcDbCircle
 10
-85.228446
 20
41.428266
 30
0.0
 40
2.0
100
AcDbArc
 50
273.0
 51
360.0
  0
LINE
  5
6DF
100
AcDbEntity
  8
2
100
AcDbLine
 10
-548.828446
 20
408.649035
 30
0.0
 11
-548.828446
 21
423.649035
 31
0.0
  0
LINE
  5
6E0
100
AcDbEntity
  8
2
100
AcDbLine
 10
-565.828446
 20
408.649035
 30
0.0
 11
-565.828446
 21
423.649035
 31
0.0
  0
LINE
  5
6E1
100
AcDbEntity
  8
2
100
AcDbLine
 10
-683.828446
 20
408.649035
 30
0.0
 11
-683.828446
 21
423.649035
 31
0.0
  0
LINE
  5
6E2
100
AcDbEntity
  8
2
100
AcDbLine
 10
-700.828446
 20
408.649035
 30
0.0
 11
-700.828446
 21
423.649035
 31
0.0
  0
LINE
  5
6E3
100
AcDbEntity
  8
2
100
AcDbLine
 10
-564.516681
 20
408.649035
 30
0.0
 11
-560.943032
 21
375.649035
 31
0.0
  0
LINE
  5
6E4
100
AcDbEntity
  8
2
100
AcDbLine
 10
-551.981135
 20
375.649035
 30
0.0
 11
-549.431973
 21
408.649035
 31
0.0
  0
LINE
  5
6E5
100
AcDbEntity
  8
2
100
AcDbLine
 10
-697.440415
 20
404.472724
 30
0.0
 11
-697.440415
 21
408.649035
 31
0.0
  0
LINE
  5
6E6
100
AcDbEntity
  8
2
100
AcDbLine
 10
-686.061037
 20
404.472724
 30
0.0
 11
-686.061037
 21
408.649035
 31
0.0
  0
ARC
  5
6E7
100
AcDbEntity
  8
2
100
AcDbCircle
 10
-691.750726
 20
404.472724
 30
0.0
 40
5.689689
100
AcDbArc
 50
180.0
 51
360.0
  0
ARC
  5
6E8
100
AcDbEntity
  8
2
100
AcDbCircle
 10
-665.328446
 20
-75.150965
 30
0.0
 40
3.0
100
AcDbArc
 50
0.0
 51
90.0
  0
ARC
  5
6E9
100
AcDbEntity
  8
2
100
AcDbCircle
 10
-453.328446
 20
-69.150965
 30
0.0
 40
3.0
100
AcDbArc
 50
270.0
 51
337.371859
  0
LINE
  5
6EA
100
AcDbEntity
  8
2
100
AcDbLine
 10
13.771554
 20
-72.150965
 30
0.0
 11
203.771554
 21
-72.150965
 31
0.0
  0
LINE
  5
6EB
100
AcDbEntity
  8
2
100
AcDbLine
 10
10.771554
 20
-56.150965
 30
0.0
 11
10.771554
 21
-69.150965
 31
0.0
  0
LINE
  5
6EC
100
AcDbEntity
  8
2
100
AcDbLine
 10
206.771554
 20
-56.150965
 30
0.0
 11
206.771554
 21
-69.150965
 31
0.0
  0
LINE
  5
6ED
100
AcDbEntity
  8
2
100
AcDbLine
 10
38.771554
 20
-78.150965
 30
0.0
 11
178.771554
 21
-78.150965
 31
0.0
  0
LINE
  5
6EE
100
AcDbEntity
  8
2
100
AcDbLine
 10
38.771554
 20
-75.150965
 30
0.0
 11
38.771554
 21
-78.150965
 31
0.0
  0
LINE
  5
6EF
100
AcDbEntity
  8
2
100
AcDbLine
 10
178.771554
 20
-75.150965
 30
0.0
 11
178.771554
 21
-78.150965
 31
0.0
  0
ARC
  5
6F0
100
AcDbEntity
  8
2
100
AcDbCircle
 10
181.771554
 20
-75.150965
 30
0.0
 40
3.0
100
AcDbArc
 50
90.0
 51
180.0
  0
ARC
  5
6F1
100
AcDbEntity
  8
2
100
AcDbCircle
 10
35.771554
 20
-75.150965
 30
0.0
 40
3.0
100
AcDbArc
 50
0.0
 51
90.0
  0
ARC
  5
6F2
100
AcDbEntity
  8
2
100
AcDbCircle
 10
203.771554
 20
-69.150965
 30
0.0
 40
3.0
100
AcDbArc
 50
270.0
 51
360.0
  0
ARC
  5
6F3
100
AcDbEntity
  8
2
100
AcDbCircle
 10
13.771554
 20
-69.150965
 30
0.0
 40
3.0
100
AcDbArc
 50
180.0
 51
270.0
  0
LINE
  5
6F4
100
AcDbEntity
  8
2
100
AcDbLine
 10
187.771554
 20
-63.150965
 30
0.0
 11
206.271554
 21
-63.150965
 31
0.0
  0
LINE
  5
6F5
100
AcDbEntity
  8
2
100
AcDbLine
 10
11.271554
 20
-63.150965
 30
0.0
 11
25.771554
 21
-63.150965
 31
0.0
  0
LINE
  5
6F6
100
AcDbEntity
  8
2
100
AcDbLine
 10
101.771554
 20
-63.150965
 30
0.0
 11
115.771554
 21
-63.150965
 31
0.0
  0
LINE
  5
6F7
100
AcDbEntity
  8
2
100
AcDbLine
 10
187.271554
 20
-63.650965
 30
0.0
 11
187.271554
 21
-71.150965
 31
0.0
  0
LINE
  5
6F8
100
AcDbEntity
  8
2
100
AcDbLine
 10
26.271554
 20
-63.650965
 30
0.0
 11
26.271554
 21
-71.150965
 31
0.0
  0
LINE
  5
6F9
100
AcDbEntity
  8
2
100
AcDbLine
 10
101.271554
 20
-63.650965
 30
0.0
 11
101.271554
 21
-71.150965
 31
0.0
  0
LINE
  5
6FA
100
AcDbEntity
  8
2
100
AcDbLine
 10
116.271554
 20
-63.650965
 30
0.0
 11
116.271554
 21
-71.150965
 31
0.0
  0
ARC
  5
6FB
100
AcDbEntity
  8
2
100
AcDbCircle
 10
101.771554
 20
-63.650965
 30
0.0
 40
0.5
100
AcDbArc
 50
90.0
 51
180.0
  0
ARC
  5
6FC
100
AcDbEntity
  8
2
100
AcDbCircle
 10
115.771554
 20
-63.650965
 30
0.0
 40
0.5
100
AcDbArc
 50
360.0
 51
90.0
  0
ARC
  5
6FD
100
AcDbEntity
  8
2
100
AcDbCircle
 10
187.771554
 20
-63.650965
 30
0.0
 40
0.5
100
AcDbArc
 50
90.0
 51
180.0
  0
ARC
  5
6FE
100
AcDbEntity
  8
2
100
AcDbCircle
 10
25.771554
 20
-63.650965
 30
0.0
 40
0.5
100
AcDbArc
 50
0.0
 51
90.0
  0
ARC
  5
6FF
100
AcDbEntity
  8
2
100
AcDbCircle
 10
206.271554
 20
-62.650965
 30
0.0
 40
0.5
100
AcDbArc
 50
270.0
 51
0.0
  0
ARC
  5
700
100
AcDbEntity
  8
2
100
AcDbCircle
 10
11.271554
 20
-62.650965
 30
0.0
 40
0.5
100
AcDbArc
 50
180.0
 51
270.0
  0
ARC
  5
701
100
AcDbEntity
  8
2
100
AcDbCircle
 10
186.271554
 20
-71.150965
 30
0.0
 40
1.0
100
AcDbArc
 50
270.0
 51
360.0
  0
ARC
  5
702
100
AcDbEntity
  8
2
100
AcDbCircle
 10
27.271554
 20
-71.150965
 30
0.0
 40
1.0
100
AcDbArc
 50
180.0
 51
270.0
  0
ARC
  5
703
100
AcDbEntity
  8
2
100
AcDbCircle
 10
100.271554
 20
-71.150965
 30
0.0
 40
1.0
100
AcDbArc
 50
270.0
 51
360.0
  0
ARC
  5
704
100
AcDbEntity
  8
2
100
AcDbCircle
 10
117.271554
 20
-71.150965
 30
0.0
 40
1.0
100
AcDbArc
 50
180.0
 51
270.0
  0
LINE
  5
705
100
AcDbEntity
  8
2
100
AcDbLine
 10
-674.328446
 20
-63.150965
 30
0.0
 11
-688.828446
 21
-63.150965
 31
0.0
  0
LINE
  5
706
100
AcDbEntity
  8
2
100
AcDbLine
 10
-673.828446
 20
-63.650965
 30
0.0
 11
-673.828446
 21
-71.150965
 31
0.0
  0
LINE
  5
707
100
AcDbEntity
  8
2
100
AcDbLine
 10
-549.828446
 20
-63.650965
 30
0.0
 11
-549.828446
 21
-71.150965
 31
0.0
  0
ARC
  5
708
100
AcDbEntity
  8
2
100
AcDbCircle
 10
-549.328446
 20
-63.650965
 30
0.0
 40
0.5
100
AcDbArc
 50
114.645458
 51
180.0
  0
ARC
  5
709
100
AcDbEntity
  8
2
100
AcDbCircle
 10
-550.828446
 20
-71.150965
 30
0.0
 40
1.0
100
AcDbArc
 50
270.0
 51
0.0
  0
ARC
  5
70A
100
AcDbEntity
  8
2
100
AcDbCircle
 10
-672.828446
 20
-71.150965
 30
0.0
 40
1.0
100
AcDbArc
 50
180.0
 51
270.0
  0
ARC
  5
70B
100
AcDbEntity
  8
2
100
AcDbCircle
 10
-688.828446
 20
-62.650965
 30
0.0
 40
0.5
100
AcDbArc
 50
180.0
 51
270.0
  0
ARC
  5
70C
100
AcDbEntity
  8
2
100
AcDbCircle
 10
-674.328446
 20
-63.650965
 30
0.0
 40
0.5
100
AcDbArc
 50
0.0
 51
90.0
  0
CIRCLE
  5
70D
100
AcDbEntity
  8
2
100
AcDbCircle
 10
-493.828446
 20
19.849035
 30
0.0
 40
32.5
  0
LINE
  5
70E
100
AcDbEntity
  8
2
  6
CENTER
 62
     2
100
AcDbLine
 10
-458.328446
 20
525.105811
 30
0.0
 11
-458.328446
 21
542.192259
 31
0.0
  0
LINE
  5
70F
100
AcDbEntity
  8
2
  6
CENTER
 62
     2
100
AcDbLine
 10
-462.328446
 20
611.105811
 30
0.0
 11
-462.328446
 21
628.192259
 31
0.0
  0
LINE
  5
710
100
AcDbEntity
  8
2
  6
CENTER
 62
     2
100
AcDbLine
 10
-454.511177
 20
619.649035
 30
0.0
 11
-470.87167
 21
619.649035
 31
0.0
  0
LINE
  5
711
100
AcDbEntity
  8
2
  6
CENTER
 62
     2
100
AcDbLine
 10
-458.328446
 20
440.105811
 30
0.0
 11
-458.328446
 21
457.192259
 31
0.0
  0
LINE
  5
712
100
AcDbEntity
  8
2
  6
CENTER
 62
     2
100
AcDbLine
 10
-449.785222
 20
448.649035
 30
0.0
 11
-466.87167
 21
448.649035
 31
0.0
  0
LINE
  5
713
100
AcDbEntity
  8
2
  6
CENTER
 62
     2
100
AcDbLine
 10
-529.328446
 20
615.105811
 30
0.0
 11
-529.328446
 21
632.192259
 31
0.0
  0
LINE
  5
714
100
AcDbEntity
  8
2
  6
CENTER
 62
     2
100
AcDbLine
 10
-520.785222
 20
623.649035
 30
0.0
 11
-537.87167
 21
623.649035
 31
0.0
  0
LINE
  5
715
100
AcDbEntity
  8
2
  6
CENTER
 62
     2
100
AcDbLine
 10
-676.328446
 20
615.105811
 30
0.0
 11
-676.328446
 21
630.996468
 31
0.0
  0
LINE
  5
716
100
AcDbEntity
  8
2
  6
CENTER
 62
     2
100
AcDbLine
 10
-667.785222
 20
623.649035
 30
0.0
 11
-684.87167
 21
623.649035
 31
0.0
  0
LINE
  5
717
100
AcDbEntity
  8
2
  6
CENTER
 62
     2
100
AcDbLine
 10
-801.328446
 20
611.105811
 30
0.0
 11
-801.328446
 21
628.192259
 31
0.0
  0
LINE
  5
718
100
AcDbEntity
  8
2
  6
CENTER
 62
     2
100
AcDbLine
 10
-792.785222
 20
619.649035
 30
0.0
 11
-809.87167
 21
619.649035
 31
0.0
  0
LINE
  5
719
100
AcDbEntity
  8
2
  6
CENTER
 62
     2
100
AcDbLine
 10
-806.328446
 20
525.105811
 30
0.0
 11
-806.328446
 21
542.192259
 31
0.0
  0
LINE
  5
71A
100
AcDbEntity
  8
2
  6
CENTER
 62
     2
100
AcDbLine
 10
-806.328446
 20
446.105811
 30
0.0
 11
-806.328446
 21
463.192259
 31
0.0
  0
LINE
  5
71B
100
AcDbEntity
  8
2
  6
CENTER
 62
     2
100
AcDbLine
 10
-797.785222
 20
454.649035
 30
0.0
 11
-814.87167
 21
454.649035
 31
0.0
  0
LINE
  5
71C
100
AcDbEntity
  8
2
  6
CENTER
 62
     2
100
AcDbLine
 10
-676.328446
 20
440.105811
 30
0.0
 11
-676.328446
 21
457.192259
 31
0.0
  0
LINE
  5
71D
100
AcDbEntity
  8
2
  6
CENTER
 62
     2
100
AcDbLine
 10
-667.785222
 20
448.649035
 30
0.0
 11
-684.87167
 21
448.649035
 31
0.0
  0
LINE
  5
71E
100
AcDbEntity
  8
2
  6
CENTER
 62
     2
100
AcDbLine
 10
-529.328446
 20
440.105811
 30
0.0
 11
-529.328446
 21
457.192259
 31
0.0
  0
LINE
  5
71F
100
AcDbEntity
  8
2
  6
CENTER
 62
     2
100
AcDbLine
 10
-520.785222
 20
448.649035
 30
0.0
 11
-537.87167
 21
448.649035
 31
0.0
  0
LINE
  5
720
100
AcDbEntity
  8
2
  6
CENTER
 62
     2
100
AcDbLine
 10
-479.392841
 20
558.649035
 30
0.0
 11
-445.19303
 21
558.649035
 31
0.0
  0
LINE
  5
721
100
AcDbEntity
  8
2
  6
CENTER
 62
     2
100
AcDbLine
 10
-479.392841
 20
508.649035
 30
0.0
 11
-445.19303
 21
508.649035
 31
0.0
  0
LINE
  5
722
100
AcDbEntity
  8
2
  6
CENTER
 62
     2
100
AcDbLine
 10
-493.828446
 20
645.490395
 30
0.0
 11
-493.828446
 21
270.908627
 31
0.0
  0
LINE
  5
723
100
AcDbEntity
  8
2
  6
CENTER
 62
     2
100
AcDbLine
 10
-642.328446
 20
679.222269
 30
0.0
 11
-642.328446
 21
624.775011
 31
0.0
  0
LINE
  5
724
100
AcDbEntity
  8
2
  6
CENTER
 62
     2
100
AcDbLine
 10
-542.328446
 20
679.222269
 30
0.0
 11
-542.328446
 21
624.775011
 31
0.0
  0
LINE
  5
725
100
AcDbEntity
  8
2
  6
CENTER
 62
     2
100
AcDbLine
 10
-474.328446
 20
588.037629
 30
0.0
 11
-474.328446
 21
605.260441
 31
0.0
  0
LINE
  5
726
100
AcDbEntity
  8
2
  6
CENTER
 62
     2
100
AcDbLine
 10
-465.71704
 20
596.649035
 30
0.0
 11
-482.939852
 21
596.649035
 31
0.0
  0
LINE
  5
727
100
AcDbEntity
  8
2
  6
CENTER
 62
     2
100
AcDbLine
 10
-474.328446
 20
479.260441
 30
0.0
 11
-474.328446
 21
462.037629
 31
0.0
  0
LINE
  5
728
100
AcDbEntity
  8
2
  6
CENTER
 62
     2
100
AcDbLine
 10
-465.71704
 20
470.649035
 30
0.0
 11
-482.939852
 21
470.649035
 31
0.0
  0
LINE
  5
729
100
AcDbEntity
  8
2
  6
CENTER
 62
     2
100
AcDbLine
 10
-724.328446
 20
588.037629
 30
0.0
 11
-724.328446
 21
605.260441
 31
0.0
  0
LINE
  5
72A
100
AcDbEntity
  8
2
  6
CENTER
 62
     2
100
AcDbLine
 10
-732.939852
 20
596.649035
 30
0.0
 11
-715.71704
 21
596.649035
 31
0.0
  0
LINE
  5
72B
100
AcDbEntity
  8
2
  6
CENTER
 62
     2
100
AcDbLine
 10
-724.328446
 20
479.260441
 30
0.0
 11
-724.328446
 21
462.037629
 31
0.0
  0
LINE
  5
72C
100
AcDbEntity
  8
2
  6
CENTER
 62
     2
100
AcDbLine
 10
-732.939852
 20
470.649035
 30
0.0
 11
-715.71704
 21
470.649035
 31
0.0
  0
LINE
  5
72D
100
AcDbEntity
  8
2
  6
CENTER
 62
     2
100
AcDbLine
 10
-599.328446
 20
588.037629
 30
0.0
 11
-599.328446
 21
605.260441
 31
0.0
  0
LINE
  5
72E
100
AcDbEntity
  8
2
  6
CENTER
 62
     2
100
AcDbLine
 10
-590.71704
 20
596.649035
 30
0.0
 11
-607.939852
 21
596.649035
 31
0.0
  0
LINE
  5
72F
100
AcDbEntity
  8
2
  6
CENTER
 62
     2
100
AcDbLine
 10
-599.328446
 20
479.260441
 30
0.0
 11
-599.328446
 21
462.037629
 31
0.0
  0
LINE
  5
730
100
AcDbEntity
  8
2
  6
CENTER
 62
     2
100
AcDbLine
 10
-590.71704
 20
470.649035
 30
0.0
 11
-607.939852
 21
470.649035
 31
0.0
  0
LINE
  5
731
100
AcDbEntity
  8
2
  6
CENTER
 62
     2
100
AcDbLine
 10
-832.561
 20
19.849035
 30
0.0
 11
-375.591885
 21
19.849035
 31
0.0
  0
LINE
  5
732
100
AcDbEntity
  8
2
  6
CENTER
 62
     2
100
AcDbLine
 10
-493.828446
 20
139.710225
 30
0.0
 11
-493.828446
 21
-93.490908
 31
0.0
  0
LINE
  5
733
100
AcDbEntity
  8
2
  6
CENTER
 62
     2
100
AcDbLine
 10
58.173742
 20
84.849035
 30
0.0
 11
161.044478
 21
84.849035
 31
0.0
  0
LINE
  5
734
100
AcDbEntity
  8
2
  6
CENTER
 62
     2
100
AcDbLine
 10
133.771554
 20
107.985283
 30
0.0
 11
133.771554
 21
46.115869
 31
0.0
  0
LINE
  5
735
100
AcDbEntity
  8
2
  6
CENTER
 62
     2
100
AcDbLine
 10
83.771554
 20
107.985283
 30
0.0
 11
83.771554
 21
46.115869
 31
0.0
  0
LINE
  5
736
100
AcDbEntity
  8
2
  6
CENTER
 62
     2
100
AcDbLine
 10
-158.927919
 20
19.849035
 30
0.0
 11
8.771554
 21
19.849035
 31
0.0
  0
LINE
  5
737
100
AcDbEntity
  8
2
  6
CENTER
 62
     2
100
AcDbLine
 10
-702.144557
 20
69.849035
 30
0.0
 11
-681.872584
 21
69.849035
 31
0.0
  0
LINE
  5
738
100
AcDbEntity
  8
2
  6
CENTER
 62
     2
100
AcDbLine
 10
-692.328446
 20
81.781943
 30
0.0
 11
-692.328446
 21
58.055701
 31
0.0
  0
LINE
  5
739
100
AcDbEntity
  8
2
  6
CENTER
 62
     2
100
AcDbLine
 10
-818.868129
 20
5.849035
 30
0.0
 11
-794.241481
 21
5.849035
 31
0.0
  0
LINE
  5
73A
100
AcDbEntity
  8
2
  6
CENTER
 62
     2
100
AcDbLine
 10
-806.328446
 20
17.618796
 30
0.0
 11
-806.328446
 21
-7.481362
 31
0.0
  0
LINE
  5
73B
100
AcDbEntity
  8
2
  6
CENTER
 62
     2
100
AcDbLine
 10
-671.328446
 20
-32.58146
 30
0.0
 11
-671.328446
 21
-60.52308
 31
0.0
  0
LINE
  5
73C
100
AcDbEntity
  8
2
  6
CENTER
 62
     2
100
AcDbLine
 10
-682.947871
 20
-46.150965
 30
0.0
 11
-658.321193
 21
-46.150965
 31
0.0
  0
LINE
  5
73D
100
AcDbEntity
  8
2
  6
CENTER
 62
     2
100
AcDbLine
 10
-724.328446
 20
127.508857
 30
0.0
 11
-724.328446
 21
98.375495
 31
0.0
  0
LINE
  5
73E
100
AcDbEntity
  8
2
  6
CENTER
 62
     2
100
AcDbLine
 10
-599.328446
 20
127.508857
 30
0.0
 11
-599.328446
 21
98.375495
 31
0.0
  0
LINE
  5
73F
100
AcDbEntity
  8
2
  6
CENTER
 62
     2
100
AcDbLine
 10
-692.328446
 20
400.497568
 30
0.0
 11
-692.328446
 21
437.494814
 31
0.0
  0
LINE
  5
740
100
AcDbEntity
  8
2
  6
CENTER
 62
     2
100
AcDbLine
 10
-557.328446
 20
400.497568
 30
0.0
 11
-557.328446
 21
437.494814
 31
0.0
  0
LINE
  5
741
100
AcDbEntity
  8
2
  6
CENTER
 62
     2
100
AcDbLine
 10
-448.328446
 20
400.497568
 30
0.0
 11
-448.328446
 21
437.494814
 31
0.0
  0
LINE
  5
742
100
AcDbEntity
  8
2
  6
CENTER
 62
     2
100
AcDbLine
 10
194.771554
 20
60.8908
 30
0.0
 11
194.771554
 21
40.537223
 31
0.0
  0
LINE
  5
743
100
AcDbEntity
  8
2
  6
CENTER
 62
     2
100
AcDbLine
 10
184.277922
 20
-0.150965
 30
0.0
 11
221.771554
 21
-0.150965
 31
0.0
  0
LINE
  5
744
100
AcDbEntity
  8
2
  6
CENTER
 62
     2
100
AcDbLine
 10
233.414781
 20
-0.150965
 30
0.0
 11
256.668456
 21
-0.150965
 31
0.0
  0
LINE
  5
745
100
AcDbEntity
  8
2
  6
CENTER
 62
     2
100
AcDbLine
 10
171.771554
 20
129.537223
 30
0.0
 11
171.771554
 21
100.79119
 31
0.0
  0
LINE
  5
746
100
AcDbEntity
  8
2
  6
CENTER
 62
     2
100
AcDbLine
 10
45.771554
 20
129.537223
 30
0.0
 11
45.771554
 21
100.79119
 31
0.0
  0
LINE
  5
747
100
AcDbEntity
  8
2
  6
CENTER
 62
     2
100
AcDbLine
 10
-26.089937
 20
75.849035
 30
0.0
 11
14.472853
 21
75.849035
 31
0.0
  0
LINE
  5
748
100
AcDbEntity
  8
2
  6
CENTER
 62
     2
100
AcDbLine
 10
-26.089937
 20
-38.150965
 30
0.0
 11
14.472853
 21
-38.150965
 31
0.0
  0
LINE
  5
749
100
AcDbEntity
  8
2
  6
CENTER
 62
     2
100
AcDbLine
 10
18.771554
 20
-52.225106
 30
0.0
 11
18.771554
 21
-77.127816
 31
0.0
  0
LINE
  5
74A
100
AcDbEntity
  8
2
  6
CENTER
 62
     2
100
AcDbLine
 10
194.771554
 20
-52.225106
 30
0.0
 11
194.771554
 21
-77.127816
 31
0.0
  0
LINE
  5
74B
100
AcDbEntity
  8
2
  6
CENTER
 62
     2
100
AcDbLine
 10
-681.328446
 20
-52.467019
 30
0.0
 11
-681.328446
 21
-76.686135
 31
0.0
  0
LINE
  5
74C
100
AcDbEntity
  8
2
  6
CENTER
 62
     2
100
AcDbLine
 10
-542.328446
 20
-54.150965
 30
0.0
 11
-542.328446
 21
-76.686135
 31
0.0
  0
ARC
  5
74D
100
AcDbEntity
  8
2
100
AcDbCircle
 10
-493.828446
 20
19.849035
 30
0.0
 40
22.2
100
AcDbArc
 50
20.571635
 51
163.0
  0
ARC
  5
74E
100
AcDbEntity
  8
2
100
AcDbCircle
 10
-489.928446
 20
19.849035
 30
0.0
 40
18.2
100
AcDbArc
 50
25.014065
 51
166.591995
  0
LINE
  5
74F
100
AcDbEntity
  8
2
100
AcDbLine
 10
-475.718401
 20
26.933044
 30
0.0
 11
-473.435533
 21
27.544736
 31
0.0
  0
LINE
  5
750
100
AcDbEntity
  8
2
100
AcDbLine
 10
-473.04406
 20
27.649631
 30
0.0
 11
-470.433849
 21
28.349035
 31
0.0
  0
LINE
  5
751
100
AcDbEntity
  8
2
100
AcDbLine
 10
-471.628446
 20
19.849035
 30
0.0
 11
-475.718401
 21
26.933044
 31
0.0
  0
LINE
  5
752
100
AcDbEntity
  8
2
100
AcDbLine
 10
-471.628446
 20
19.849035
 30
0.0
 11
-470.433849
 21
28.349035
 31
0.0
  0
LINE
  5
753
100
AcDbEntity
  8
2
100
AcDbLine
 10
-507.632378
 20
24.069321
 30
0.0
 11
-515.058412
 21
26.339687
 31
0.0
  0
TEXT
  5
754
100
AcDbEntity
  8
2
100
AcDbText
 10
-475.108027
 20
18.831242
 30
0.0
 40
9.0
  1
Ｓ
 50
253.0
 72
     5
 11
-477.213103
 21
11.945847
 31
0.0
100
AcDbText
  0
CIRCLE
  5
755
100
AcDbEntity
  8
2
100
AcDbCircle
 10
-529.328446
 20
448.649035
 30
0.0
 40
5.0
  0
CIRCLE
  5
756
100
AcDbEntity
  8
2
100
AcDbCircle
 10
-529.328446
 20
448.649035
 30
0.0
 40
4.30718
  0
CIRCLE
  5
757
100
AcDbEntity
  8
2
100
AcDbCircle
 10
-676.328446
 20
448.649035
 30
0.0
 40
5.0
  0
CIRCLE
  5
758
100
AcDbEntity
  8
2
100
AcDbCircle
 10
-676.328446
 20
448.649035
 30
0.0
 40
4.30718
  0
CIRCLE
  5
759
100
AcDbEntity
  8
2
100
AcDbCircle
 10
-458.328446
 20
448.649035
 30
0.0
 40
5.0
  0
CIRCLE
  5
75A
100
AcDbEntity
  8
2
100
AcDbCircle
 10
-458.328446
 20
448.649035
 30
0.0
 40
4.30718
  0
CIRCLE
  5
75B
100
AcDbEntity
  8
2
100
AcDbCircle
 10
-458.328446
 20
533.649035
 30
0.0
 40
5.0
  0
CIRCLE
  5
75C
100
AcDbEntity
  8
2
100
AcDbCircle
 10
-458.328446
 20
533.649035
 30
0.0
 40
4.30718
  0
CIRCLE
  5
75D
100
AcDbEntity
  8
2
100
AcDbCircle
 10
-462.328446
 20
619.649035
 30
0.0
 40
5.0
  0
CIRCLE
  5
75E
100
AcDbEntity
  8
2
100
AcDbCircle
 10
-462.328446
 20
619.649035
 30
0.0
 40
4.30718
  0
CIRCLE
  5
75F
100
AcDbEntity
  8
2
100
AcDbCircle
 10
-529.328446
 20
623.649035
 30
0.0
 40
5.0
  0
CIRCLE
  5
760
100
AcDbEntity
  8
2
100
AcDbCircle
 10
-529.328446
 20
623.649035
 30
0.0
 40
4.30718
  0
CIRCLE
  5
761
100
AcDbEntity
  8
2
100
AcDbCircle
 10
-676.328446
 20
623.649035
 30
0.0
 40
5.0
  0
CIRCLE
  5
762
100
AcDbEntity
  8
2
100
AcDbCircle
 10
-676.328446
 20
623.649035
 30
0.0
 40
4.30718
  0
CIRCLE
  5
763
100
AcDbEntity
  8
2
100
AcDbCircle
 10
-801.328446
 20
619.649035
 30
0.0
 40
5.0
  0
CIRCLE
  5
764
100
AcDbEntity
  8
2
100
AcDbCircle
 10
-801.328446
 20
619.649035
 30
0.0
 40
4.30718
  0
CIRCLE
  5
765
100
AcDbEntity
  8
2
100
AcDbCircle
 10
-806.328446
 20
533.649035
 30
0.0
 40
5.0
  0
CIRCLE
  5
766
100
AcDbEntity
  8
2
100
AcDbCircle
 10
-806.328446
 20
533.649035
 30
0.0
 40
4.30718
  0
CIRCLE
  5
767
100
AcDbEntity
  8
2
100
AcDbCircle
 10
-806.328446
 20
454.649035
 30
0.0
 40
5.0
  0
CIRCLE
  5
768
100
AcDbEntity
  8
2
100
AcDbCircle
 10
-806.328446
 20
454.649035
 30
0.0
 40
4.30718
  0
CIRCLE
  5
769
100
AcDbEntity
  8
2
100
AcDbCircle
 10
-474.328446
 20
470.649035
 30
0.0
 40
5.75
  0
CIRCLE
  5
76A
100
AcDbEntity
  8
2
100
AcDbCircle
 10
-474.328446
 20
470.649035
 30
0.0
 40
5.25
  0
CIRCLE
  5
76B
100
AcDbEntity
  8
2
100
AcDbCircle
 10
-474.328446
 20
596.649035
 30
0.0
 40
5.75
  0
CIRCLE
  5
76C
100
AcDbEntity
  8
2
100
AcDbCircle
 10
-474.328446
 20
596.649035
 30
0.0
 40
5.25
  0
CIRCLE
  5
76D
100
AcDbEntity
  8
2
100
AcDbCircle
 10
-599.328446
 20
470.649035
 30
0.0
 40
5.75
  0
CIRCLE
  5
76E
100
AcDbEntity
  8
2
100
AcDbCircle
 10
-599.328446
 20
470.649035
 30
0.0
 40
5.25
  0
CIRCLE
  5
76F
100
AcDbEntity
  8
2
100
AcDbCircle
 10
-599.328446
 20
596.649035
 30
0.0
 40
5.75
  0
CIRCLE
  5
770
100
AcDbEntity
  8
2
100
AcDbCircle
 10
-599.328446
 20
596.649035
 30
0.0
 40
5.25
  0
CIRCLE
  5
771
100
AcDbEntity
  8
2
100
AcDbCircle
 10
-724.328446
 20
470.649035
 30
0.0
 40
5.75
  0
CIRCLE
  5
772
100
AcDbEntity
  8
2
100
AcDbCircle
 10
-724.328446
 20
470.649035
 30
0.0
 40
5.25
  0
CIRCLE
  5
773
100
AcDbEntity
  8
2
100
AcDbCircle
 10
-724.328446
 20
596.649035
 30
0.0
 40
5.75
  0
CIRCLE
  5
774
100
AcDbEntity
  8
2
100
AcDbCircle
 10
-724.328446
 20
596.649035
 30
0.0
 40
5.25
  0
LINE
  5
775
100
AcDbEntity
  8
2
100
AcDbLine
 10
-605.078446
 20
111.349035
 30
0.0
 11
-605.078446
 21
109.849035
 31
0.0
  0
LINE
  5
776
100
AcDbEntity
  8
2
100
AcDbLine
 10
-593.578446
 20
111.349035
 30
0.0
 11
-593.578446
 21
109.849035
 31
0.0
  0
LINE
  5
777
100
AcDbEntity
  8
2
100
AcDbLine
 10
-593.578446
 20
111.349035
 30
0.0
 11
-605.078446
 21
111.349035
 31
0.0
  0
LINE
  5
778
100
AcDbEntity
  8
2
100
AcDbLine
 10
-604.578446
 20
112.876051
 30
0.0
 11
-604.578446
 21
111.349035
 31
0.0
  0
LINE
  5
779
100
AcDbEntity
  8
2
100
AcDbLine
 10
-594.078446
 20
112.876051
 30
0.0
 11
-594.078446
 21
111.349035
 31
0.0
  0
ARC
  5
77A
100
AcDbEntity
  8
2
100
AcDbCircle
 10
-599.328446
 20
101.249035
 30
0.0
 40
14.0
100
AcDbArc
 50
73.927141
 51
106.072859
  0
ARC
  5
77B
100
AcDbEntity
  8
2
100
AcDbCircle
 10
-595.978446
 20
112.876051
 30
0.0
 40
1.9
100
AcDbArc
 50
0.0
 51
73.927141
  0
ARC
  5
77C
100
AcDbEntity
  8
2
100
AcDbCircle
 10
-602.678446
 20
112.876051
 30
0.0
 40
1.9
100
AcDbArc
 50
106.072859
 51
180.0
  0
LINE
  5
77D
100
AcDbEntity
  8
2
100
AcDbLine
 10
-730.078446
 20
111.349035
 30
0.0
 11
-730.078446
 21
109.849035
 31
0.0
  0
LINE
  5
77E
100
AcDbEntity
  8
2
100
AcDbLine
 10
-718.578446
 20
111.349035
 30
0.0
 11
-718.578446
 21
109.849035
 31
0.0
  0
LINE
  5
77F
100
AcDbEntity
  8
2
100
AcDbLine
 10
-718.578446
 20
111.349035
 30
0.0
 11
-730.078446
 21
111.349035
 31
0.0
  0
LINE
  5
780
100
AcDbEntity
  8
2
100
AcDbLine
 10
-729.578446
 20
112.876051
 30
0.0
 11
-729.578446
 21
111.349035
 31
0.0
  0
LINE
  5
781
100
AcDbEntity
  8
2
100
AcDbLine
 10
-719.078446
 20
112.876051
 30
0.0
 11
-719.078446
 21
111.349035
 31
0.0
  0
ARC
  5
782
100
AcDbEntity
  8
2
100
AcDbCircle
 10
-724.328446
 20
101.249035
 30
0.0
 40
14.0
100
AcDbArc
 50
73.927141
 51
106.072859
  0
ARC
  5
783
100
AcDbEntity
  8
2
100
AcDbCircle
 10
-720.978446
 20
112.876051
 30
0.0
 40
1.9
100
AcDbArc
 50
0.0
 51
73.927141
  0
ARC
  5
784
100
AcDbEntity
  8
2
100
AcDbCircle
 10
-727.678446
 20
112.876051
 30
0.0
 40
1.9
100
AcDbArc
 50
106.072859
 51
180.0
  0
LINE
  5
785
100
AcDbEntity
  8
2
100
AcDbLine
 10
189.771554
 20
47.849035
 30
0.0
 11
189.771554
 21
53.449035
 31
0.0
  0
LINE
  5
786
100
AcDbEntity
  8
2
100
AcDbLine
 10
189.771554
 20
53.449035
 30
0.0
 11
190.464374
 21
53.849035
 31
0.0
  0
LINE
  5
787
100
AcDbEntity
  8
2
100
AcDbLine
 10
190.464374
 20
53.849035
 30
0.0
 11
199.078733
 21
53.849035
 31
0.0
  0
LINE
  5
788
100
AcDbEntity
  8
2
100
AcDbLine
 10
199.771554
 20
53.449035
 30
0.0
 11
189.771554
 21
53.449035
 31
0.0
  0
LINE
  5
789
100
AcDbEntity
  8
2
100
AcDbLine
 10
199.771554
 20
47.849035
 30
0.0
 11
199.771554
 21
53.449035
 31
0.0
  0
LINE
  5
78A
100
AcDbEntity
  8
2
100
AcDbLine
 10
199.771554
 20
53.449035
 30
0.0
 11
199.078733
 21
53.849035
 31
0.0
  0
LINE
  5
78B
100
AcDbEntity
  8
2
100
AcDbLine
 10
103.771554
 20
47.849035
 30
0.0
 11
103.771554
 21
53.449035
 31
0.0
  0
LINE
  5
78C
100
AcDbEntity
  8
2
100
AcDbLine
 10
103.771554
 20
53.449035
 30
0.0
 11
104.464374
 21
53.849035
 31
0.0
  0
LINE
  5
78D
100
AcDbEntity
  8
2
100
AcDbLine
 10
104.464374
 20
53.849035
 30
0.0
 11
113.078733
 21
53.849035
 31
0.0
  0
LINE
  5
78E
100
AcDbEntity
  8
2
100
AcDbLine
 10
113.771554
 20
53.449035
 30
0.0
 11
103.771554
 21
53.449035
 31
0.0
  0
LINE
  5
78F
100
AcDbEntity
  8
2
100
AcDbLine
 10
113.771554
 20
47.849035
 30
0.0
 11
113.771554
 21
53.449035
 31
0.0
  0
LINE
  5
790
100
AcDbEntity
  8
2
100
AcDbLine
 10
113.771554
 20
53.449035
 30
0.0
 11
113.078733
 21
53.849035
 31
0.0
  0
LINE
  5
791
100
AcDbEntity
  8
2
100
AcDbLine
 10
40.021554
 20
111.349035
 30
0.0
 11
40.021554
 21
109.849035
 31
0.0
  0
LINE
  5
792
100
AcDbEntity
  8
2
100
AcDbLine
 10
51.521554
 20
111.349035
 30
0.0
 11
51.521554
 21
109.849035
 31
0.0
  0
LINE
  5
793
100
AcDbEntity
  8
2
100
AcDbLine
 10
51.521554
 20
111.349035
 30
0.0
 11
40.021554
 21
111.349035
 31
0.0
  0
LINE
  5
794
100
AcDbEntity
  8
2
100
AcDbLine
 10
40.521554
 20
112.876051
 30
0.0
 11
40.521554
 21
111.349035
 31
0.0
  0
LINE
  5
795
100
AcDbEntity
  8
2
100
AcDbLine
 10
51.021554
 20
112.876051
 30
0.0
 11
51.021554
 21
111.349035
 31
0.0
  0
ARC
  5
796
100
AcDbEntity
  8
2
100
AcDbCircle
 10
45.771554
 20
101.249035
 30
0.0
 40
14.0
100
AcDbArc
 50
73.927141
 51
106.072859
  0
ARC
  5
797
100
AcDbEntity
  8
2
100
AcDbCircle
 10
49.121554
 20
112.876051
 30
0.0
 40
1.9
100
AcDbArc
 50
0.0
 51
73.927141
  0
ARC
  5
798
100
AcDbEntity
  8
2
100
AcDbCircle
 10
42.421554
 20
112.876051
 30
0.0
 40
1.9
100
AcDbArc
 50
106.072859
 51
180.0
  0
LINE
  5
799
100
AcDbEntity
  8
2
100
AcDbLine
 10
177.521554
 20
111.349035
 30
0.0
 11
177.521554
 21
109.849035
 31
0.0
  0
LINE
  5
79A
100
AcDbEntity
  8
2
100
AcDbLine
 10
166.021554
 20
111.349035
 30
0.0
 11
166.021554
 21
109.849035
 31
0.0
  0
LINE
  5
79B
100
AcDbEntity
  8
2
100
AcDbLine
 10
166.021554
 20
111.349035
 30
0.0
 11
177.521554
 21
111.349035
 31
0.0
  0
LINE
  5
79C
100
AcDbEntity
  8
2
100
AcDbLine
 10
177.021554
 20
112.876051
 30
0.0
 11
177.021554
 21
111.349035
 31
0.0
  0
LINE
  5
79D
100
AcDbEntity
  8
2
100
AcDbLine
 10
166.521554
 20
112.876051
 30
0.0
 11
166.521554
 21
111.349035
 31
0.0
  0
ARC
  5
79E
100
AcDbEntity
  8
2
100
AcDbCircle
 10
171.771554
 20
101.249035
 30
0.0
 40
14.0
100
AcDbArc
 50
73.927141
 51
106.072859
  0
ARC
  5
79F
100
AcDbEntity
  8
2
100
AcDbCircle
 10
168.421554
 20
112.876051
 30
0.0
 40
1.9
100
AcDbArc
 50
106.072859
 51
180.0
  0
ARC
  5
7A0
100
AcDbEntity
  8
2
100
AcDbCircle
 10
175.121554
 20
112.876051
 30
0.0
 40
1.9
100
AcDbArc
 50
0.0
 51
73.927141
  0
LINE
  5
7A1
100
AcDbEntity
  8
2
100
AcDbLine
 10
-3.228446
 20
68.599035
 30
0.0
 11
-3.228446
 21
83.099035
 31
0.0
  0
LINE
  5
7A2
100
AcDbEntity
  8
2
100
AcDbLine
 10
-3.228446
 20
83.099035
 30
0.0
 11
-1.228446
 21
83.099035
 31
0.0
  0
LINE
  5
7A3
100
AcDbEntity
  8
2
100
AcDbLine
 10
-3.228446
 20
68.599035
 30
0.0
 11
-1.228446
 21
68.599035
 31
0.0
  0
LINE
  5
7A4
100
AcDbEntity
  8
2
100
AcDbLine
 10
-5.186495
 20
82.849035
 30
0.0
 11
-3.228446
 21
82.849035
 31
0.0
  0
LINE
  5
7A5
100
AcDbEntity
  8
2
100
AcDbLine
 10
-5.186495
 20
68.849035
 30
0.0
 11
-3.228446
 21
68.849035
 31
0.0
  0
ARC
  5
7A6
100
AcDbEntity
  8
2
100
AcDbCircle
 10
9.571554
 20
75.849035
 30
0.0
 40
18.0
100
AcDbArc
 50
163.39845
 51
196.60155
  0
ARC
  5
7A7
100
AcDbEntity
  8
2
100
AcDbCircle
 10
-5.186495
 20
80.249035
 30
0.0
 40
2.6
100
AcDbArc
 50
90.0
 51
163.39845
  0
ARC
  5
7A8
100
AcDbEntity
  8
2
100
AcDbCircle
 10
-5.186495
 20
71.449035
 30
0.0
 40
2.6
100
AcDbArc
 50
196.60155
 51
270.0
  0
LINE
  5
7A9
100
AcDbEntity
  8
2
100
AcDbLine
 10
-3.228446
 20
-45.400965
 30
0.0
 11
-3.228446
 21
-30.900965
 31
0.0
  0
LINE
  5
7AA
100
AcDbEntity
  8
2
100
AcDbLine
 10
-3.228446
 20
-30.900965
 30
0.0
 11
-1.228446
 21
-30.900965
 31
0.0
  0
LINE
  5
7AB
100
AcDbEntity
  8
2
100
AcDbLine
 10
-3.228446
 20
-45.400965
 30
0.0
 11
-1.228446
 21
-45.400965
 31
0.0
  0
LINE
  5
7AC
100
AcDbEntity
  8
2
100
AcDbLine
 10
-5.186495
 20
-31.150965
 30
0.0
 11
-3.228446
 21
-31.150965
 31
0.0
  0
LINE
  5
7AD
100
AcDbEntity
  8
2
100
AcDbLine
 10
-5.186495
 20
-45.150965
 30
0.0
 11
-3.228446
 21
-45.150965
 31
0.0
  0
ARC
  5
7AE
100
AcDbEntity
  8
2
100
AcDbCircle
 10
9.571554
 20
-38.150965
 30
0.0
 40
18.0
100
AcDbArc
 50
163.39845
 51
196.60155
  0
ARC
  5
7AF
100
AcDbEntity
  8
2
100
AcDbCircle
 10
-5.186495
 20
-33.750965
 30
0.0
 40
2.6
100
AcDbArc
 50
90.0
 51
163.39845
  0
ARC
  5
7B0
100
AcDbEntity
  8
2
100
AcDbCircle
 10
-5.186495
 20
-42.550965
 30
0.0
 40
2.6
100
AcDbArc
 50
196.60155
 51
270.0
  0
LINE
  5
7B1
100
AcDbEntity
  8
2
100
AcDbLine
 10
-441.078446
 20
421.649035
 30
0.0
 11
-455.578446
 21
421.649035
 31
0.0
  0
LINE
  5
7B2
100
AcDbEntity
  8
2
100
AcDbLine
 10
-455.578446
 20
421.649035
 30
0.0
 11
-455.578446
 21
423.649035
 31
0.0
  0
LINE
  5
7B3
100
AcDbEntity
  8
2
100
AcDbLine
 10
-441.078446
 20
421.649035
 30
0.0
 11
-441.078446
 21
423.649035
 31
0.0
  0
LINE
  5
7B4
100
AcDbEntity
  8
2
100
AcDbLine
 10
-455.328446
 20
419.690987
 30
0.0
 11
-455.328446
 21
421.649035
 31
0.0
  0
LINE
  5
7B5
100
AcDbEntity
  8
2
100
AcDbLine
 10
-441.328446
 20
419.690987
 30
0.0
 11
-441.328446
 21
421.649035
 31
0.0
  0
ARC
  5
7B6
100
AcDbEntity
  8
2
100
AcDbCircle
 10
-448.328446
 20
434.449035
 30
0.0
 40
18.0
100
AcDbArc
 50
253.39845
 51
286.60155
  0
ARC
  5
7B7
100
AcDbEntity
  8
2
100
AcDbCircle
 10
-452.728446
 20
419.690987
 30
0.0
 40
2.6
100
AcDbArc
 50
180.0
 51
253.39845
  0
ARC
  5
7B8
100
AcDbEntity
  8
2
100
AcDbCircle
 10
-443.928446
 20
419.690987
 30
0.0
 40
2.6
100
AcDbArc
 50
286.60155
 51
360.0
  0
LINE
  5
7B9
100
AcDbEntity
  8
2
100
AcDbLine
 10
-550.078446
 20
421.649035
 30
0.0
 11
-564.578446
 21
421.649035
 31
0.0
  0
LINE
  5
7BA
100
AcDbEntity
  8
2
100
AcDbLine
 10
-564.578446
 20
421.649035
 30
0.0
 11
-564.578446
 21
423.649035
 31
0.0
  0
LINE
  5
7BB
100
AcDbEntity
  8
2
100
AcDbLine
 10
-550.078446
 20
421.649035
 30
0.0
 11
-550.078446
 21
423.649035
 31
0.0
  0
LINE
  5
7BC
100
AcDbEntity
  8
2
100
AcDbLine
 10
-564.328446
 20
419.690987
 30
0.0
 11
-564.328446
 21
421.649035
 31
0.0
  0
LINE
  5
7BD
100
AcDbEntity
  8
2
100
AcDbLine
 10
-550.328446
 20
419.690987
 30
0.0
 11
-550.328446
 21
421.649035
 31
0.0
  0
ARC
  5
7BE
100
AcDbEntity
  8
2
100
AcDbCircle
 10
-557.328446
 20
434.449035
 30
0.0
 40
18.0
100
AcDbArc
 50
253.39845
 51
286.60155
  0
ARC
  5
7BF
100
AcDbEntity
  8
2
100
AcDbCircle
 10
-561.728446
 20
419.690987
 30
0.0
 40
2.6
100
AcDbArc
 50
180.0
 51
253.39845
  0
ARC
  5
7C0
100
AcDbEntity
  8
2
100
AcDbCircle
 10
-552.928446
 20
419.690987
 30
0.0
 40
2.6
100
AcDbArc
 50
286.60155
 51
360.0
  0
LINE
  5
7C1
100
AcDbEntity
  8
2
100
AcDbLine
 10
-685.078446
 20
421.649035
 30
0.0
 11
-699.578446
 21
421.649035
 31
0.0
  0
LINE
  5
7C2
100
AcDbEntity
  8
2
100
AcDbLine
 10
-699.578446
 20
421.649035
 30
0.0
 11
-699.578446
 21
423.649035
 31
0.0
  0
LINE
  5
7C3
100
AcDbEntity
  8
2
100
AcDbLine
 10
-685.078446
 20
421.649035
 30
0.0
 11
-685.078446
 21
423.649035
 31
0.0
  0
LINE
  5
7C4
100
AcDbEntity
  8
2
100
AcDbLine
 10
-699.328446
 20
419.690987
 30
0.0
 11
-699.328446
 21
421.649035
 31
0.0
  0
LINE
  5
7C5
100
AcDbEntity
  8
2
100
AcDbLine
 10
-685.328446
 20
419.690987
 30
0.0
 11
-685.328446
 21
421.649035
 31
0.0
  0
ARC
  5
7C6
100
AcDbEntity
  8
2
100
AcDbCircle
 10
-692.328446
 20
434.449035
 30
0.0
 40
18.0
100
AcDbArc
 50
253.39845
 51
286.60155
  0
ARC
  5
7C7
100
AcDbEntity
  8
2
100
AcDbCircle
 10
-696.728446
 20
419.690987
 30
0.0
 40
2.6
100
AcDbArc
 50
180.0
 51
253.39845
  0
ARC
  5
7C8
100
AcDbEntity
  8
2
100
AcDbCircle
 10
-687.928446
 20
419.690987
 30
0.0
 40
2.6
100
AcDbArc
 50
286.60155
 51
360.0
  0
LINE
  5
7C9
100
AcDbEntity
  8
2
100
AcDbLine
 10
-674.828446
 20
-63.150965
 30
0.0
 11
-674.828446
 21
-70.650965
 31
0.0
  0
LINE
  5
7CA
100
AcDbEntity
  8
2
100
AcDbLine
 10
-674.828446
 20
-70.650965
 30
0.0
 11
-675.694472
 21
-71.150965
 31
0.0
  0
LINE
  5
7CB
100
AcDbEntity
  8
2
100
AcDbLine
 10
-687.828446
 20
-63.150965
 30
0.0
 11
-687.828446
 21
-70.650965
 31
0.0
  0
LINE
  5
7CC
100
AcDbEntity
  8
2
100
AcDbLine
 10
-687.828446
 20
-70.650965
 30
0.0
 11
-686.962421
 21
-71.150965
 31
0.0
  0
LINE
  5
7CD
100
AcDbEntity
  8
2
100
AcDbLine
 10
-686.962421
 20
-71.150965
 30
0.0
 11
-675.694472
 21
-71.150965
 31
0.0
  0
LINE
  5
7CE
100
AcDbEntity
  8
2
100
AcDbLine
 10
-674.828446
 20
-70.650965
 30
0.0
 11
-687.828446
 21
-70.650965
 31
0.0
  0
LINE
  5
7CF
100
AcDbEntity
  8
2
100
AcDbLine
 10
-536.070736
 20
-70.790851
 30
0.0
 11
-536.694472
 21
-71.150965
 31
0.0
  0
LINE
  5
7D0
100
AcDbEntity
  8
2
100
AcDbLine
 10
-548.828446
 20
-63.66743
 30
0.0
 11
-548.828446
 21
-70.650965
 31
0.0
  0
LINE
  5
7D1
100
AcDbEntity
  8
2
100
AcDbLine
 10
-548.828446
 20
-70.650965
 30
0.0
 11
-547.962421
 21
-71.150965
 31
0.0
  0
LINE
  5
7D2
100
AcDbEntity
  8
2
100
AcDbLine
 10
-547.962421
 20
-71.150965
 30
0.0
 11
-536.694472
 21
-71.150965
 31
0.0
  0
LINE
  5
7D3
100
AcDbEntity
  8
2
100
AcDbLine
 10
-536.369603
 20
-70.650965
 30
0.0
 11
-548.828446
 21
-70.650965
 31
0.0
  0
LINE
  5
7D4
100
AcDbEntity
  8
2
100
AcDbLine
 10
25.271554
 20
-63.150965
 30
0.0
 11
25.271554
 21
-70.650965
 31
0.0
  0
LINE
  5
7D5
100
AcDbEntity
  8
2
100
AcDbLine
 10
25.271554
 20
-70.650965
 30
0.0
 11
24.405528
 21
-71.150965
 31
0.0
  0
LINE
  5
7D6
100
AcDbEntity
  8
2
100
AcDbLine
 10
12.271554
 20
-63.150965
 30
0.0
 11
12.271554
 21
-70.650965
 31
0.0
  0
LINE
  5
7D7
100
AcDbEntity
  8
2
100
AcDbLine
 10
12.271554
 20
-70.650965
 30
0.0
 11
13.137579
 21
-71.150965
 31
0.0
  0
LINE
  5
7D8
100
AcDbEntity
  8
2
100
AcDbLine
 10
13.137579
 20
-71.150965
 30
0.0
 11
24.405528
 21
-71.150965
 31
0.0
  0
LINE
  5
7D9
100
AcDbEntity
  8
2
100
AcDbLine
 10
25.271554
 20
-70.650965
 30
0.0
 11
12.271554
 21
-70.650965
 31
0.0
  0
LINE
  5
7DA
100
AcDbEntity
  8
2
100
AcDbLine
 10
115.271554
 20
-63.150965
 30
0.0
 11
115.271554
 21
-70.650965
 31
0.0
  0
LINE
  5
7DB
100
AcDbEntity
  8
2
100
AcDbLine
 10
115.271554
 20
-70.650965
 30
0.0
 11
114.405528
 21
-71.150965
 31
0.0
  0
LINE
  5
7DC
100
AcDbEntity
  8
2
100
AcDbLine
 10
102.271554
 20
-63.150965
 30
0.0
 11
102.271554
 21
-70.650965
 31
0.0
  0
LINE
  5
7DD
100
AcDbEntity
  8
2
100
AcDbLine
 10
102.271554
 20
-70.650965
 30
0.0
 11
103.137579
 21
-71.150965
 31
0.0
  0
LINE
  5
7DE
100
AcDbEntity
  8
2
100
AcDbLine
 10
103.137579
 20
-71.150965
 30
0.0
 11
114.405528
 21
-71.150965
 31
0.0
  0
LINE
  5
7DF
100
AcDbEntity
  8
2
100
AcDbLine
 10
115.271554
 20
-70.650965
 30
0.0
 11
102.271554
 21
-70.650965
 31
0.0
  0
LINE
  5
7E0
100
AcDbEntity
  8
2
100
AcDbLine
 10
201.271554
 20
-63.150965
 30
0.0
 11
201.271554
 21
-70.650965
 31
0.0
  0
LINE
  5
7E1
100
AcDbEntity
  8
2
100
AcDbLine
 10
201.271554
 20
-70.650965
 30
0.0
 11
200.405528
 21
-71.150965
 31
0.0
  0
LINE
  5
7E2
100
AcDbEntity
  8
2
100
AcDbLine
 10
188.271554
 20
-63.150965
 30
0.0
 11
188.271554
 21
-70.650965
 31
0.0
  0
LINE
  5
7E3
100
AcDbEntity
  8
2
100
AcDbLine
 10
188.271554
 20
-70.650965
 30
0.0
 11
189.137579
 21
-71.150965
 31
0.0
  0
LINE
  5
7E4
100
AcDbEntity
  8
2
100
AcDbLine
 10
189.137579
 20
-71.150965
 30
0.0
 11
200.405528
 21
-71.150965
 31
0.0
  0
LINE
  5
7E5
100
AcDbEntity
  8
2
100
AcDbLine
 10
201.271554
 20
-70.650965
 30
0.0
 11
188.271554
 21
-70.650965
 31
0.0
  0
CIRCLE
  5
7E6
100
AcDbEntity
  8
2
100
AcDbCircle
 10
-692.328446
 20
69.849035
 30
0.0
 40
7.25
  0
CIRCLE
  5
7E7
100
AcDbEntity
  8
2
100
AcDbCircle
 10
-692.328446
 20
69.849035
 30
0.0
 40
7.0
  0
CIRCLE
  5
7E8
100
AcDbEntity
  8
2
100
AcDbCircle
 10
-671.328446
 20
-46.150965
 30
0.0
 40
7.25
  0
CIRCLE
  5
7E9
100
AcDbEntity
  8
2
100
AcDbCircle
 10
-671.328446
 20
-46.150965
 30
0.0
 40
7.0
  0
CIRCLE
  5
7EA
100
AcDbEntity
  8
2
100
AcDbCircle
 10
-806.328446
 20
5.849035
 30
0.0
 40
7.25
  0
CIRCLE
  5
7EB
100
AcDbEntity
  8
2
100
AcDbCircle
 10
-806.328446
 20
5.849035
 30
0.0
 40
7.0
  0
LINE
  5
7EC
100
AcDbEntity
  8
2
100
AcDbLine
 10
-811.223631
 20
421.649035
 30
0.0
 11
-813.578446
 21
421.649035
 31
0.0
  0
LINE
  5
7ED
100
AcDbEntity
  8
2
100
AcDbLine
 10
-813.578446
 20
421.649035
 30
0.0
 11
-813.578446
 21
423.649035
 31
0.0
  0
LINE
  5
7EE
100
AcDbEntity
  8
2
100
AcDbLine
 10
-813.328446
 20
419.690987
 30
0.0
 11
-813.328446
 21
421.649035
 31
0.0
  0
ARC
  5
7EF
100
AcDbEntity
  8
2
100
AcDbCircle
 10
-806.328446
 20
434.449035
 30
0.0
 40
18.0
100
AcDbArc
 50
253.39845
 51
255.013153
  0
ARC
  5
7F0
100
AcDbEntity
  8
2
100
AcDbCircle
 10
-810.728446
 20
419.690987
 30
0.0
 40
2.6
100
AcDbArc
 50
180.0
 51
253.39845
  0
LINE
  5
7F1
100
AcDbEntity
  8
2
100
AcDbLine
 10
-729.828446
 20
22.349035
 30
0.0
 11
-729.828446
 21
4.849035
 31
0.0
  0
LINE
  5
7F2
100
AcDbEntity
  8
2
100
AcDbLine
 10
-729.828446
 20
22.349035
 30
0.0
 11
-694.828446
 21
22.349035
 31
0.0
  0
LINE
  5
7F3
100
AcDbEntity
  8
2
100
AcDbLine
 10
-729.828446
 20
4.849035
 30
0.0
 11
-694.828446
 21
22.349035
 31
0.0
  0
LINE
  5
7F4
100
AcDbEntity
  8
2
100
AcDbLine
 10
-718.16178
 20
22.349035
 30
0.0
 11
-718.16178
 21
-12.650965
 31
0.0
  0
LINE
  5
7F5
100
AcDbEntity
  8
2
100
AcDbLine
 10
-706.495113
 20
10.682369
 30
0.0
 11
-729.828446
 21
10.682369
 31
0.0
  0
LINE
  5
7F6
100
AcDbEntity
  8
2
100
AcDbLine
 10
-706.495113
 20
16.515702
 30
0.0
 11
-729.828446
 21
16.515702
 31
0.0
  0
LINE
  5
7F7
100
AcDbEntity
  8
2
100
AcDbLine
 10
-706.495113
 20
22.349035
 30
0.0
 11
-729.828446
 21
10.682369
 31
0.0
  0
LINE
  5
7F8
100
AcDbEntity
  8
2
100
AcDbLine
 10
-718.16178
 20
22.349035
 30
0.0
 11
-729.828446
 21
16.515702
 31
0.0
  0
LINE
  5
7F9
100
AcDbEntity
  8
2
100
AcDbLine
 10
-706.495113
 20
-12.650965
 30
0.0
 11
-706.495113
 21
10.682369
 31
0.0
  0
LINE
  5
7FA
100
AcDbEntity
  8
2
100
AcDbLine
 10
-706.495113
 20
16.515702
 30
0.0
 11
-706.495113
 21
22.349035
 31
0.0
  0
LINE
  5
7FB
100
AcDbEntity
  8
2
100
AcDbLine
 10
-718.16178
 20
-12.650965
 30
0.0
 11
-706.495113
 21
-12.650965
 31
0.0
  0
ARC
  5
7FC
100
AcDbEntity
  8
2
100
AcDbCircle
 10
-59.228446
 20
59.235149
 30
0.0
 40
10.0
100
AcDbArc
 50
280.0
 51
360.0
  0
ARC
  5
7FD
100
AcDbEntity
  8
2
100
AcDbCircle
 10
-59.228446
 20
-19.537078
 30
0.0
 40
10.0
100
AcDbArc
 50
0.0
 51
80.0
  0
LINE
  5
7FE
100
AcDbEntity
  8
2
100
AcDbLine
 10
-809.156873
 20
3.020608
 30
0.0
 11
-803.500019
 21
8.677462
 31
0.0
  0
LINE
  5
7FF
100
AcDbEntity
  8
2
100
AcDbLine
 10
-803.500019
 20
3.020608
 30
0.0
 11
-809.156873
 21
8.677462
 31
0.0
  0
LINE
  5
800
100
AcDbEntity
  8
2
100
AcDbLine
 10
-695.156873
 20
67.020608
 30
0.0
 11
-689.500019
 21
72.677462
 31
0.0
  0
LINE
  5
801
100
AcDbEntity
  8
2
100
AcDbLine
 10
-689.500019
 20
67.020608
 30
0.0
 11
-695.156873
 21
72.677462
 31
0.0
  0
LINE
  5
802
100
AcDbEntity
  8
2
100
AcDbLine
 10
-674.156873
 20
-48.979392
 30
0.0
 11
-668.500019
 21
-43.322538
 31
0.0
  0
LINE
  5
803
100
AcDbEntity
  8
2
100
AcDbLine
 10
-668.500019
 20
-48.979392
 30
0.0
 11
-674.156873
 21
-43.322538
 31
0.0
  0
LINE
  5
804
100
AcDbEntity
  8
2
100
AcDbLine
 10
-476.449767
 20
594.527715
 30
0.0
 11
-472.207126
 21
598.770356
 31
0.0
  0
LINE
  5
805
100
AcDbEntity
  8
2
100
AcDbLine
 10
-472.207126
 20
594.527715
 30
0.0
 11
-476.449767
 21
598.770356
 31
0.0
  0
LINE
  5
806
100
AcDbEntity
  8
2
100
AcDbLine
 10
-476.449767
 20
468.527715
 30
0.0
 11
-472.207126
 21
472.770356
 31
0.0
  0
LINE
  5
807
100
AcDbEntity
  8
2
100
AcDbLine
 10
-472.207126
 20
468.527715
 30
0.0
 11
-476.449767
 21
472.770356
 31
0.0
  0
LINE
  5
808
100
AcDbEntity
  8
2
100
AcDbLine
 10
-601.449767
 20
594.527715
 30
0.0
 11
-597.207126
 21
598.770356
 31
0.0
  0
LINE
  5
809
100
AcDbEntity
  8
2
100
AcDbLine
 10
-597.207126
 20
594.527715
 30
0.0
 11
-601.449767
 21
598.770356
 31
0.0
  0
LINE
  5
80A
100
AcDbEntity
  8
2
100
AcDbLine
 10
-726.449767
 20
594.527715
 30
0.0
 11
-722.207126
 21
598.770356
 31
0.0
  0
LINE
  5
80B
100
AcDbEntity
  8
2
100
AcDbLine
 10
-722.207126
 20
594.527715
 30
0.0
 11
-726.449767
 21
598.770356
 31
0.0
  0
LINE
  5
80C
100
AcDbEntity
  8
2
100
AcDbLine
 10
-601.449767
 20
468.527715
 30
0.0
 11
-597.207126
 21
472.770356
 31
0.0
  0
LINE
  5
80D
100
AcDbEntity
  8
2
100
AcDbLine
 10
-597.207126
 20
468.527715
 30
0.0
 11
-601.449767
 21
472.770356
 31
0.0
  0
LINE
  5
80E
100
AcDbEntity
  8
2
100
AcDbLine
 10
-726.449767
 20
468.527715
 30
0.0
 11
-722.207126
 21
472.770356
 31
0.0
  0
LINE
  5
80F
100
AcDbEntity
  8
2
100
AcDbLine
 10
-722.207126
 20
468.527715
 30
0.0
 11
-726.449767
 21
472.770356
 31
0.0
  0
LINE
  5
810
100
AcDbEntity
  8
2
100
AcDbLine
 10
-567.911942
 20
560.16554
 30
0.0
 11
-563.711942
 21
560.16554
 31
0.0
  0
LINE
  5
811
100
AcDbEntity
  8
2
100
AcDbLine
 10
-565.811942
 20
558.06554
 30
0.0
 11
-565.811942
 21
562.26554
 31
0.0
  0
LINE
  5
812
100
AcDbEntity
  8
2
100
AcDbLine
 10
-620.944951
 20
560.16554
 30
0.0
 11
-616.744951
 21
560.16554
 31
0.0
  0
LINE
  5
813
100
AcDbEntity
  8
2
100
AcDbLine
 10
-618.844951
 20
558.06554
 30
0.0
 11
-618.844951
 21
562.26554
 31
0.0
  0
LINE
  5
814
100
AcDbEntity
  8
2
100
AcDbLine
 10
-567.911942
 20
507.132531
 30
0.0
 11
-563.711942
 21
507.132531
 31
0.0
  0
LINE
  5
815
100
AcDbEntity
  8
2
100
AcDbLine
 10
-565.811942
 20
505.032531
 30
0.0
 11
-565.811942
 21
509.232531
 31
0.0
  0
LINE
  5
816
100
AcDbEntity
  8
2
100
AcDbLine
 10
-620.944951
 20
507.132531
 30
0.0
 11
-616.744951
 21
507.132531
 31
0.0
  0
LINE
  5
817
100
AcDbEntity
  8
2
100
AcDbLine
 10
-618.844951
 20
505.032531
 30
0.0
 11
-618.844951
 21
509.232531
 31
0.0
  0
LINE
  5
818
100
AcDbEntity
  8
2
100
AcDbLine
 10
-464.828446
 20
618.20566
 30
0.0
 11
-464.828446
 21
621.092411
 31
0.0
  0
LINE
  5
819
100
AcDbEntity
  8
2
100
AcDbLine
 10
-459.828446
 20
618.20566
 30
0.0
 11
-459.828446
 21
621.092411
 31
0.0
  0
LINE
  5
81A
100
AcDbEntity
  8
2
100
AcDbLine
 10
-462.328446
 20
616.762284
 30
0.0
 11
-464.828446
 21
618.20566
 31
0.0
  0
LINE
  5
81B
100
AcDbEntity
  8
2
100
AcDbLine
 10
-459.828446
 20
621.092411
 30
0.0
 11
-462.328446
 21
622.535787
 31
0.0
  0
LINE
  5
81C
100
AcDbEntity
  8
2
100
AcDbLine
 10
-459.828446
 20
618.20566
 30
0.0
 11
-462.328446
 21
616.762284
 31
0.0
  0
LINE
  5
81D
100
AcDbEntity
  8
2
100
AcDbLine
 10
-462.328446
 20
622.535787
 30
0.0
 11
-464.828446
 21
621.092411
 31
0.0
  0
LINE
  5
81E
100
AcDbEntity
  8
2
100
AcDbLine
 10
-531.828446
 20
622.20566
 30
0.0
 11
-531.828446
 21
625.092411
 31
0.0
  0
LINE
  5
81F
100
AcDbEntity
  8
2
100
AcDbLine
 10
-526.828446
 20
622.20566
 30
0.0
 11
-526.828446
 21
625.092411
 31
0.0
  0
LINE
  5
820
100
AcDbEntity
  8
2
100
AcDbLine
 10
-529.328446
 20
620.762284
 30
0.0
 11
-531.828446
 21
622.20566
 31
0.0
  0
LINE
  5
821
100
AcDbEntity
  8
2
100
AcDbLine
 10
-526.828446
 20
625.092411
 30
0.0
 11
-529.328446
 21
626.535787
 31
0.0
  0
LINE
  5
822
100
AcDbEntity
  8
2
100
AcDbLine
 10
-526.828446
 20
622.20566
 30
0.0
 11
-529.328446
 21
620.762284
 31
0.0
  0
LINE
  5
823
100
AcDbEntity
  8
2
100
AcDbLine
 10
-529.328446
 20
626.535787
 30
0.0
 11
-531.828446
 21
625.092411
 31
0.0
  0
LINE
  5
824
100
AcDbEntity
  8
2
100
AcDbLine
 10
-460.828446
 20
532.20566
 30
0.0
 11
-460.828446
 21
535.092411
 31
0.0
  0
LINE
  5
825
100
AcDbEntity
  8
2
100
AcDbLine
 10
-455.828446
 20
532.20566
 30
0.0
 11
-455.828446
 21
535.092411
 31
0.0
  0
LINE
  5
826
100
AcDbEntity
  8
2
100
AcDbLine
 10
-458.328446
 20
530.762284
 30
0.0
 11
-460.828446
 21
532.20566
 31
0.0
  0
LINE
  5
827
100
AcDbEntity
  8
2
100
AcDbLine
 10
-455.828446
 20
535.092411
 30
0.0
 11
-458.328446
 21
536.535787
 31
0.0
  0
LINE
  5
828
100
AcDbEntity
  8
2
100
AcDbLine
 10
-455.828446
 20
532.20566
 30
0.0
 11
-458.328446
 21
530.762284
 31
0.0
  0
LINE
  5
829
100
AcDbEntity
  8
2
100
AcDbLine
 10
-458.328446
 20
536.535787
 30
0.0
 11
-460.828446
 21
535.092411
 31
0.0
  0
LINE
  5
82A
100
AcDbEntity
  8
2
100
AcDbLine
 10
-460.828446
 20
447.20566
 30
0.0
 11
-460.828446
 21
450.092411
 31
0.0
  0
LINE
  5
82B
100
AcDbEntity
  8
2
100
AcDbLine
 10
-455.828446
 20
447.20566
 30
0.0
 11
-455.828446
 21
450.092411
 31
0.0
  0
LINE
  5
82C
100
AcDbEntity
  8
2
100
AcDbLine
 10
-458.328446
 20
445.762284
 30
0.0
 11
-460.828446
 21
447.20566
 31
0.0
  0
LINE
  5
82D
100
AcDbEntity
  8
2
100
AcDbLine
 10
-455.828446
 20
450.092411
 30
0.0
 11
-458.328446
 21
451.535787
 31
0.0
  0
LINE
  5
82E
100
AcDbEntity
  8
2
100
AcDbLine
 10
-455.828446
 20
447.20566
 30
0.0
 11
-458.328446
 21
445.762284
 31
0.0
  0
LINE
  5
82F
100
AcDbEntity
  8
2
100
AcDbLine
 10
-458.328446
 20
451.535787
 30
0.0
 11
-460.828446
 21
450.092411
 31
0.0
  0
LINE
  5
830
100
AcDbEntity
  8
2
100
AcDbLine
 10
-531.828446
 20
447.20566
 30
0.0
 11
-531.828446
 21
450.092411
 31
0.0
  0
LINE
  5
831
100
AcDbEntity
  8
2
100
AcDbLine
 10
-526.828446
 20
447.20566
 30
0.0
 11
-526.828446
 21
450.092411
 31
0.0
  0
LINE
  5
832
100
AcDbEntity
  8
2
100
AcDbLine
 10
-529.328446
 20
445.762284
 30
0.0
 11
-531.828446
 21
447.20566
 31
0.0
  0
LINE
  5
833
100
AcDbEntity
  8
2
100
AcDbLine
 10
-526.828446
 20
450.092411
 30
0.0
 11
-529.328446
 21
451.535787
 31
0.0
  0
LINE
  5
834
100
AcDbEntity
  8
2
100
AcDbLine
 10
-526.828446
 20
447.20566
 30
0.0
 11
-529.328446
 21
445.762284
 31
0.0
  0
LINE
  5
835
100
AcDbEntity
  8
2
100
AcDbLine
 10
-529.328446
 20
451.535787
 30
0.0
 11
-531.828446
 21
450.092411
 31
0.0
  0
LINE
  5
836
100
AcDbEntity
  8
2
100
AcDbLine
 10
-678.828446
 20
622.20566
 30
0.0
 11
-678.828446
 21
625.092411
 31
0.0
  0
LINE
  5
837
100
AcDbEntity
  8
2
100
AcDbLine
 10
-673.828446
 20
622.20566
 30
0.0
 11
-673.828446
 21
625.092411
 31
0.0
  0
LINE
  5
838
100
AcDbEntity
  8
2
100
AcDbLine
 10
-676.328446
 20
620.762284
 30
0.0
 11
-678.828446
 21
622.20566
 31
0.0
  0
LINE
  5
839
100
AcDbEntity
  8
2
100
AcDbLine
 10
-673.828446
 20
625.092411
 30
0.0
 11
-676.328446
 21
626.535787
 31
0.0
  0
LINE
  5
83A
100
AcDbEntity
  8
2
100
AcDbLine
 10
-673.828446
 20
622.20566
 30
0.0
 11
-676.328446
 21
620.762284
 31
0.0
  0
LINE
  5
83B
100
AcDbEntity
  8
2
100
AcDbLine
 10
-676.328446
 20
626.535787
 30
0.0
 11
-678.828446
 21
625.092411
 31
0.0
  0
LINE
  5
83C
100
AcDbEntity
  8
2
100
AcDbLine
 10
-678.828446
 20
447.20566
 30
0.0
 11
-678.828446
 21
450.092411
 31
0.0
  0
LINE
  5
83D
100
AcDbEntity
  8
2
100
AcDbLine
 10
-673.828446
 20
447.20566
 30
0.0
 11
-673.828446
 21
450.092411
 31
0.0
  0
LINE
  5
83E
100
AcDbEntity
  8
2
100
AcDbLine
 10
-676.328446
 20
445.762284
 30
0.0
 11
-678.828446
 21
447.20566
 31
0.0
  0
LINE
  5
83F
100
AcDbEntity
  8
2
100
AcDbLine
 10
-673.828446
 20
450.092411
 30
0.0
 11
-676.328446
 21
451.535787
 31
0.0
  0
LINE
  5
840
100
AcDbEntity
  8
2
100
AcDbLine
 10
-673.828446
 20
447.20566
 30
0.0
 11
-676.328446
 21
445.762284
 31
0.0
  0
LINE
  5
841
100
AcDbEntity
  8
2
100
AcDbLine
 10
-676.328446
 20
451.535787
 30
0.0
 11
-678.828446
 21
450.092411
 31
0.0
  0
LINE
  5
842
100
AcDbEntity
  8
2
100
AcDbLine
 10
-803.828446
 20
618.20566
 30
0.0
 11
-803.828446
 21
621.092411
 31
0.0
  0
LINE
  5
843
100
AcDbEntity
  8
2
100
AcDbLine
 10
-798.828446
 20
618.20566
 30
0.0
 11
-798.828446
 21
621.092411
 31
0.0
  0
LINE
  5
844
100
AcDbEntity
  8
2
100
AcDbLine
 10
-801.328446
 20
616.762284
 30
0.0
 11
-803.828446
 21
618.20566
 31
0.0
  0
LINE
  5
845
100
AcDbEntity
  8
2
100
AcDbLine
 10
-798.828446
 20
621.092411
 30
0.0
 11
-801.328446
 21
622.535787
 31
0.0
  0
LINE
  5
846
100
AcDbEntity
  8
2
100
AcDbLine
 10
-798.828446
 20
618.20566
 30
0.0
 11
-801.328446
 21
616.762284
 31
0.0
  0
LINE
  5
847
100
AcDbEntity
  8
2
100
AcDbLine
 10
-801.328446
 20
622.535787
 30
0.0
 11
-803.828446
 21
621.092411
 31
0.0
  0
LINE
  5
848
100
AcDbEntity
  8
2
100
AcDbLine
 10
-808.828446
 20
532.20566
 30
0.0
 11
-808.828446
 21
535.092411
 31
0.0
  0
LINE
  5
849
100
AcDbEntity
  8
2
100
AcDbLine
 10
-803.828446
 20
532.20566
 30
0.0
 11
-803.828446
 21
535.092411
 31
0.0
  0
LINE
  5
84A
100
AcDbEntity
  8
2
100
AcDbLine
 10
-806.328446
 20
530.762284
 30
0.0
 11
-808.828446
 21
532.20566
 31
0.0
  0
LINE
  5
84B
100
AcDbEntity
  8
2
100
AcDbLine
 10
-803.828446
 20
535.092411
 30
0.0
 11
-806.328446
 21
536.535787
 31
0.0
  0
LINE
  5
84C
100
AcDbEntity
  8
2
100
AcDbLine
 10
-803.828446
 20
532.20566
 30
0.0
 11
-806.328446
 21
530.762284
 31
0.0
  0
LINE
  5
84D
100
AcDbEntity
  8
2
100
AcDbLine
 10
-806.328446
 20
536.535787
 30
0.0
 11
-808.828446
 21
535.092411
 31
0.0
  0
LINE
  5
84E
100
AcDbEntity
  8
2
100
AcDbLine
 10
-808.828446
 20
453.20566
 30
0.0
 11
-808.828446
 21
456.092411
 31
0.0
  0
LINE
  5
84F
100
AcDbEntity
  8
2
100
AcDbLine
 10
-803.828446
 20
453.20566
 30
0.0
 11
-803.828446
 21
456.092411
 31
0.0
  0
LINE
  5
850
100
AcDbEntity
  8
2
100
AcDbLine
 10
-806.328446
 20
451.762284
 30
0.0
 11
-808.828446
 21
453.20566
 31
0.0
  0
LINE
  5
851
100
AcDbEntity
  8
2
100
AcDbLine
 10
-803.828446
 20
456.092411
 30
0.0
 11
-806.328446
 21
457.535787
 31
0.0
  0
LINE
  5
852
100
AcDbEntity
  8
2
100
AcDbLine
 10
-803.828446
 20
453.20566
 30
0.0
 11
-806.328446
 21
451.762284
 31
0.0
  0
LINE
  5
853
100
AcDbEntity
  8
2
100
AcDbLine
 10
-806.328446
 20
457.535787
 30
0.0
 11
-808.828446
 21
456.092411
 31
0.0
  0
LINE
  5
854
100
AcDbEntity
  8
3
100
AcDbLine
 10
-513.828446
 20
-78.150965
 30
0.0
 11
-670.828446
 21
-78.150965
 31
0.0
  0
LINE
  5
855
100
AcDbEntity
  8
3
100
AcDbLine
 10
-667.828446
 20
-253.150965
 30
0.0
 11
-516.828446
 21
-253.150965
 31
0.0
  0
LINE
  5
856
100
AcDbEntity
  8
3
100
AcDbLine
 10
46.271554
 20
-253.150965
 30
0.0
 11
171.271554
 21
-253.150965
 31
0.0
  0
LINE
  5
857
100
AcDbEntity
  8
3
100
AcDbLine
 10
41.271554
 20
-78.150965
 30
0.0
 11
41.271554
 21
-87.150965
 31
0.0
  0
LINE
  5
858
100
AcDbEntity
  8
3
100
AcDbLine
 10
176.271554
 20
-78.150965
 30
0.0
 11
176.271554
 21
-87.150965
 31
0.0
  0
LINE
  5
859
100
AcDbEntity
  8
3
100
AcDbLine
 10
-667.828446
 20
-244.150965
 30
0.0
 11
-516.828446
 21
-244.150965
 31
0.0
  0
LINE
  5
85A
100
AcDbEntity
  8
3
100
AcDbLine
 10
-679.828446
 20
-241.150965
 30
0.0
 11
-679.828446
 21
-82.150965
 31
0.0
  0
LINE
  5
85B
100
AcDbEntity
  8
3
100
AcDbLine
 10
-504.828446
 20
-241.150965
 30
0.0
 11
-504.828446
 21
-82.150965
 31
0.0
  0
LINE
  5
85C
100
AcDbEntity
  8
3
100
AcDbLine
 10
-513.828446
 20
-241.150965
 30
0.0
 11
-513.828446
 21
-78.150965
 31
0.0
  0
LINE
  5
85D
100
AcDbEntity
  8
3
100
AcDbLine
 10
-670.828446
 20
-241.150965
 30
0.0
 11
-670.828446
 21
-78.150965
 31
0.0
  0
LINE
  5
85E
100
AcDbEntity
  8
3
100
AcDbLine
 10
-513.828446
 20
-87.150965
 30
0.0
 11
-670.828446
 21
-87.150965
 31
0.0
  0
LINE
  5
85F
100
AcDbEntity
  8
3
100
AcDbLine
 10
-679.828446
 20
-82.150965
 30
0.0
 11
-670.828446
 21
-82.150965
 31
0.0
  0
LINE
  5
860
100
AcDbEntity
  8
3
100
AcDbLine
 10
-513.828446
 20
-82.150965
 30
0.0
 11
-504.828446
 21
-82.150965
 31
0.0
  0
ARC
  5
861
100
AcDbEntity
  8
3
100
AcDbCircle
 10
-516.828446
 20
-241.150965
 30
0.0
 40
3.0
100
AcDbArc
 50
270.0
 51
360.0
  0
ARC
  5
862
100
AcDbEntity
  8
3
100
AcDbCircle
 10
-667.828446
 20
-241.150965
 30
0.0
 40
3.0
100
AcDbArc
 50
180.0
 51
270.0
  0
ARC
  5
863
100
AcDbEntity
  8
3
100
AcDbCircle
 10
-516.828446
 20
-241.150965
 30
0.0
 40
12.0
100
AcDbArc
 50
270.0
 51
360.0
  0
ARC
  5
864
100
AcDbEntity
  8
3
100
AcDbCircle
 10
-667.828446
 20
-241.150965
 30
0.0
 40
12.0
100
AcDbArc
 50
180.0
 51
270.0
  0
LINE
  5
865
100
AcDbEntity
  8
3
100
AcDbLine
 10
-513.828446
 20
-93.150965
 30
0.0
 11
-519.828446
 21
-87.150965
 31
0.0
  0
LINE
  5
866
100
AcDbEntity
  8
3
100
AcDbLine
 10
-664.828446
 20
-87.150965
 30
0.0
 11
-670.828446
 21
-93.150965
 31
0.0
  0
LINE
  5
867
100
AcDbEntity
  8
3
100
AcDbLine
 10
-513.828446
 20
-78.150965
 30
0.0
 11
-509.828446
 21
-82.150965
 31
0.0
  0
LINE
  5
868
100
AcDbEntity
  8
3
100
AcDbLine
 10
-670.828446
 20
-78.150965
 30
0.0
 11
-674.828446
 21
-82.150965
 31
0.0
  0
LINE
  5
869
100
AcDbEntity
  8
3
100
AcDbLine
 10
-518.828446
 20
-78.150965
 30
0.0
 11
-518.828446
 21
-87.150965
 31
0.0
  0
LINE
  5
86A
100
AcDbEntity
  8
3
100
AcDbLine
 10
-665.828446
 20
-78.150965
 30
0.0
 11
-665.828446
 21
-87.150965
 31
0.0
  0
LINE
  5
86B
100
AcDbEntity
  8
3
100
AcDbLine
 10
46.271554
 20
-253.150965
 30
0.0
 11
46.271554
 21
-78.150965
 31
0.0
  0
LINE
  5
86C
100
AcDbEntity
  8
3
100
AcDbLine
 10
171.271554
 20
-253.150965
 30
0.0
 11
171.271554
 21
-78.150965
 31
0.0
  0
LINE
  5
86D
100
AcDbEntity
  8
3
100
AcDbLine
 10
46.271554
 20
-82.150965
 30
0.0
 11
171.271554
 21
-82.150965
 31
0.0
  0
LINE
  5
86E
100
AcDbEntity
  8
3
100
AcDbLine
 10
41.271554
 20
-87.150965
 30
0.0
 11
46.271554
 21
-87.150965
 31
0.0
  0
LINE
  5
86F
100
AcDbEntity
  8
3
100
AcDbLine
 10
171.271554
 20
-87.150965
 30
0.0
 11
176.271554
 21
-87.150965
 31
0.0
  0
LINE
  5
870
100
AcDbEntity
  8
3
100
AcDbLine
 10
-613.328446
 20
-153.150965
 30
0.0
 11
-571.328446
 21
-153.150965
 31
0.0
  0
LINE
  5
871
100
AcDbEntity
  8
3
100
AcDbLine
 10
-615.328446
 20
-217.150965
 30
0.0
 11
-615.328446
 21
-156.150965
 31
0.0
  0
LINE
  5
872
100
AcDbEntity
  8
3
100
AcDbLine
 10
-569.328446
 20
-217.150965
 30
0.0
 11
-569.328446
 21
-156.150965
 31
0.0
  0
LINE
  5
873
100
AcDbEntity
  8
3
100
AcDbLine
 10
-569.328446
 20
-156.150965
 30
0.0
 11
-615.328446
 21
-156.150965
 31
0.0
  0
LINE
  5
874
100
AcDbEntity
  8
3
100
AcDbLine
 10
-613.328446
 20
-153.150965
 30
0.0
 11
-613.328446
 21
-87.150965
 31
0.0
  0
LINE
  5
875
100
AcDbEntity
  8
3
100
AcDbLine
 10
-571.328446
 20
-153.150965
 30
0.0
 11
-571.328446
 21
-87.150965
 31
0.0
  0
LINE
  5
876
100
AcDbEntity
  8
3
100
AcDbLine
 10
-571.328446
 20
-153.150965
 30
0.0
 11
-569.328446
 21
-156.150965
 31
0.0
  0
LINE
  5
877
100
AcDbEntity
  8
3
100
AcDbLine
 10
-613.328446
 20
-153.150965
 30
0.0
 11
-615.328446
 21
-156.150965
 31
0.0
  0
LINE
  5
878
100
AcDbEntity
  8
3
100
AcDbLine
 10
-612.328446
 20
-220.150965
 30
0.0
 11
-572.328446
 21
-220.150965
 31
0.0
  0
LINE
  5
879
100
AcDbEntity
  8
3
100
AcDbLine
 10
-612.328446
 20
-220.150965
 30
0.0
 11
-615.328446
 21
-217.150965
 31
0.0
  0
LINE
  5
87A
100
AcDbEntity
  8
3
100
AcDbLine
 10
-569.328446
 20
-217.150965
 30
0.0
 11
-572.328446
 21
-220.150965
 31
0.0
  0
LINE
  5
87B
100
AcDbEntity
  8
3
100
AcDbLine
 10
-569.328446
 20
-217.150965
 30
0.0
 11
-615.328446
 21
-217.150965
 31
0.0
  0
DIMENSION
  5
87C
100
AcDbEntity
  8
5
100
AcDbDimension
  2
*D0
 10
-203.550545
 20
-80.150965
 30
0.0
 11
-234.270544
 21
11.929035
 31
0.0
 70
     1
  1
%%c200
100
AcDbAlignedDimension
 13
-122.720487
 23
119.849035
 33
0.0
 14
-122.720487
 24
-80.150965
 34
0.0
 50
90.0
  0
DIMENSION
  5
87D
100
AcDbEntity
  8
5
100
AcDbDimension
  2
*D1
 10
312.278824
 20
151.849035
 30
0.0
 11
288.488824
 21
35.859035
 31
0.0
  1
230
100
AcDbAlignedDimension
 13
178.771554
 23
-78.150965
 33
0.0
 14
108.771554
 24
151.849035
 34
0.0
 50
90.0
100
AcDbRotatedDimension
  0
DIMENSION
  5
87E
100
AcDbEntity
  8
5
100
AcDbDimension
  2
*D2
 10
312.278824
 20
-78.150965
 30
0.0
 11
288.488824
 21
-166.640965
 31
0.0
  1
175
100
AcDbAlignedDimension
 13
171.271554
 23
-253.150965
 33
0.0
 14
178.771554
 24
-78.150965
 34
0.0
 50
90.0
100
AcDbRotatedDimension
  0
DIMENSION
  5
87F
100
AcDbEntity
  8
5
100
AcDbDimension
  2
*D3
 10
-427.328446
 20
714.53952
 30
0.0
 11
-509.828446
 21
727.43952
 31
0.0
  1
165
100
AcDbAlignedDimension
 13
-592.328446
 23
670.897562
 33
0.0
 14
-427.328446
 24
442.649035
 34
0.0
100
AcDbRotatedDimension
  0
DIMENSION
  5
880
100
AcDbEntity
  8
5
100
AcDbDimension
  2
*D4
 10
-592.328446
 20
714.53952
 30
0.0
 11
-703.828446
 21
727.43952
 31
0.0
  1
223
100
AcDbAlignedDimension
 13
-815.328446
 23
618.649035
 33
0.0
 14
-592.328446
 24
670.897562
 34
0.0
100
AcDbRotatedDimension
  0
DIMENSION
  5
881
100
AcDbEntity
  8
5
100
AcDbDimension
  2
*D5
 10
-313.185425
 20
669.649035
 30
0.0
 11
-336.975425
 21
600.659035
 31
0.0
  1
136
100
AcDbAlignedDimension
 13
-427.135254
 23
533.649035
 33
0.0
 14
-535.410946
 24
669.649035
 34
0.0
 50
90.0
100
AcDbRotatedDimension
  0
DIMENSION
  5
882
100
AcDbEntity
  8
5
100
AcDbDimension
  2
*D6
 10
-313.185425
 20
533.649035
 30
0.0
 11
-350.835424
 21
396.049035
 31
0.0
  1
245.5
100
AcDbAlignedDimension
 13
-459.273357
 23
288.149035
 33
0.0
 14
-427.135254
 24
533.649035
 34
0.0
 50
90.0
100
AcDbRotatedDimension
  0
DIMENSION
  5
883
100
AcDbEntity
  8
5
100
AcDbDimension
  2
*D7
 10
312.278824
 20
-253.150965
 30
0.0
 11
288.488824
 21
-371.640965
 31
0.0
  1
235
100
AcDbAlignedDimension
 13
172.665948
 23
-488.150965
 33
0.0
 14
171.271554
 24
-253.150965
 34
0.0
 50
90.0
100
AcDbRotatedDimension
  0
DIMENSION
  5
884
100
AcDbEntity
  8
5
100
AcDbDimension
  2
*D8
 10
312.278824
 20
-488.150965
 30
0.0
 11
288.488824
 21
-583.890965
 31
0.0
  1
190
100
AcDbAlignedDimension
 13
140.771554
 23
-677.650965
 33
0.0
 14
172.665948
 24
-488.150965
 34
0.0
 50
90.0
100
AcDbRotatedDimension
  0
DIMENSION
  5
885
100
AcDbEntity
  8
5
100
AcDbDimension
  2
*D9
 10
108.771554
 20
-726.983002
 30
0.0
 11
53.911554
 21
-714.083002
 31
0.0
  1
26
100
AcDbAlignedDimension
 13
82.771554
 23
-619.650965
 33
0.0
 14
108.771554
 24
-698.017847
 34
0.0
100
AcDbRotatedDimension
  0
DIMENSION
  5
886
100
AcDbEntity
  8
5
100
AcDbDimension
  2
*D10
 10
144.771554
 20
-775.684113
 30
0.0
 11
113.771554
 21
-762.784113
 31
0.0
  1
62
100
AcDbAlignedDimension
 13
82.771554
 23
-619.650965
 33
0.0
 14
144.771554
 24
-619.650965
 34
0.0
100
AcDbRotatedDimension
  0
TEXT
  5
887
100
AcDbEntity
  8
5
100
AcDbText
 10
578.571625
 20
373.413712
 30
0.0
 40
30.0
  1
駆動部・・・４Ｉ－３型 
 72
     5
 11
902.571625
 21
373.413712
 31
0.0
100
AcDbText
  0
LINE
  5
888
100
AcDbEntity
  8
18
100
AcDbLine
 10
352.771554
 20
-488.150965
 30
0.0
 11
532.771554
 21
-488.150965
 31
0.0
  0
LINE
  5
889
100
AcDbEntity
  8
18
100
AcDbLine
 10
352.771554
 20
-488.150965
 30
0.0
 11
412.771554
 21
-472.074013
 31
0.0
  0
LINE
  5
88A
100
AcDbEntity
  8
18
100
AcDbLine
 10
412.771554
 20
-472.074013
 30
0.0
 11
412.771554
 21
-504.227916
 31
0.0
  0
LINE
  5
88B
100
AcDbEntity
  8
18
100
AcDbLine
 10
352.771554
 20
-488.150965
 30
0.0
 11
412.771554
 21
-504.227916
 31
0.0
  0
LINE
  5
88C
100
AcDbEntity
  8
18
100
AcDbLine
 10
412.042007
 20
690.555588
 30
0.0
 11
412.042007
 21
480.555588
 31
0.0
  0
LINE
  5
88D
100
AcDbEntity
  8
18
100
AcDbLine
 10
1084.042007
 20
540.555588
 30
0.0
 11
412.042007
 21
540.555588
 31
0.0
  0
LINE
  5
88E
100
AcDbEntity
  8
18
100
AcDbLine
 10
1084.042007
 20
510.555588
 30
0.0
 11
412.042007
 21
510.555588
 31
0.0
  0
LINE
  5
88F
100
AcDbEntity
  8
18
100
AcDbLine
 10
1084.042007
 20
480.555588
 30
0.0
 11
412.042007
 21
480.555588
 31
0.0
  0
LINE
  5
890
100
AcDbEntity
  8
18
100
AcDbLine
 10
580.042007
 20
690.555588
 30
0.0
 11
580.042007
 21
510.555588
 31
0.0
  0
LINE
  5
891
100
AcDbEntity
  8
18
100
AcDbLine
 10
748.042007
 20
690.555588
 30
0.0
 11
748.042007
 21
510.555588
 31
0.0
  0
LINE
  5
892
100
AcDbEntity
  8
18
100
AcDbLine
 10
916.042007
 20
690.555588
 30
0.0
 11
916.042007
 21
510.555588
 31
0.0
  0
LINE
  5
893
100
AcDbEntity
  8
18
100
AcDbLine
 10
1084.042007
 20
690.555588
 30
0.0
 11
1084.042007
 21
480.555588
 31
0.0
  0
LINE
  5
894
100
AcDbEntity
  8
18
100
AcDbLine
 10
412.042007
 20
690.555588
 30
0.0
 11
1084.042007
 21
690.555588
 31
0.0
  0
POLYLINE
  5
895
100
AcDbEntity
  8
18
 62
     2
100
AcDb2dPolyline
 66
     1
 10
0.0
 20
0.0
 30
0.0
  0
VERTEX
  5
9C8
100
AcDbEntity
  8
18
 62
     2
100
AcDbVertex
100
AcDb2dVertex
 10
489.860973
 20
629.043182
 30
0.0
  0
VERTEX
  5
9C9
100
AcDbEntity
  8
18
 62
     2
100
AcDbVertex
100
AcDb2dVertex
 10
489.860973
 20
656.271338
 30
0.0
  0
SEQEND
  5
9CA
100
AcDbEntity
  8
18
 62
     2
  0
LINE
  5
899
100
AcDbEntity
  8
18
 62
     2
100
AcDbLine
 10
489.860973
 20
640.634292
 30
0.0
 11
486.755145
 21
640.634292
 31
0.0
  0
LINE
  5
89A
100
AcDbEntity
  8
18
 62
     2
100
AcDbLine
 10
486.755145
 20
640.634292
 30
0.0
 11
489.860973
 21
629.043182
 31
0.0
  0
LINE
  5
89B
100
AcDbEntity
  8
18
 62
     2
100
AcDbLine
 10
489.860973
 20
629.043182
 30
0.0
 11
492.966802
 21
640.634292
 31
0.0
  0
LINE
  5
89C
100
AcDbEntity
  8
18
 62
     2
100
AcDbLine
 10
492.966802
 20
640.634292
 30
0.0
 11
489.860973
 21
640.634292
 31
0.0
  0
TEXT
  5
89D
100
AcDbEntity
  8
18
100
AcDbText
 10
733.794754
 20
-799.63147
 30
0.0
 40
18.0
  1
１
 72
     5
 11
748.194754
 21
-799.63147
 31
0.0
100
AcDbText
  0
TEXT
  5
89E
100
AcDbEntity
  8
18
100
AcDbText
 10
428.83046
 20
-477.665085
 30
0.0
 40
30.0
  1
高圧側
 72
     5
 11
512.83046
 21
-477.665085
 31
0.0
100
AcDbText
  0
TEXT
  5
89F
100
AcDbEntity
  8
18
100
AcDbText
 10
484.826431
 20
517.622864
 30
0.0
 40
18.0
  1
Ａ
 72
     5
 11
499.226431
 21
517.622864
 31
0.0
100
AcDbText
  0
TEXT
  5
8A0
100
AcDbEntity
  8
18
100
AcDbText
 10
652.754745
 20
517.141937
 30
0.0
 40
18.0
  1
Ｂ
 72
     5
 11
667.154745
 21
517.141937
 31
0.0
100
AcDbText
  0
TEXT
  5
8A1
100
AcDbEntity
  8
18
100
AcDbText
 10
820.826431
 20
517.622864
 30
0.0
 40
18.0
  1
Ｃ
 72
     5
 11
835.226431
 21
517.622864
 31
0.0
100
AcDbText
  0
TEXT
  5
8A2
100
AcDbEntity
  8
18
100
AcDbText
 10
651.792938
 20
486.981417
 30
0.0
 40
18.0
  1
アクチュエ－タ取付方向
 72
     5
 11
846.192938
 21
486.981417
 31
0.0
100
AcDbText
  0
TEXT
  5
8A3
100
AcDbEntity
  8
18
100
AcDbText
 10
443.096375
 20
546.829285
 30
0.0
 40
15.0
  1
弁棒側　低圧側
 72
     5
 11
545.096375
 21
546.829285
 31
0.0
100
AcDbText
  0
TEXT
  5
8A4
100
AcDbEntity
  8
18
100
AcDbText
 10
428.718338
 20
666.263443
 30
0.0
 40
15.0
  1
フラット側　高圧側
 72
     5
 11
560.718338
 21
666.263443
 31
0.0
100
AcDbText
  0
TEXT
  5
8A5
100
AcDbEntity
  8
18
100
AcDbText
 10
988.826431
 20
517.622864
 30
0.0
 40
18.0
  1
Ｄ
 72
     5
 11
1003.226431
 21
517.622864
 31
0.0
100
AcDbText
  0
LINE
  5
8A6
100
AcDbEntity
  8
18
  6
CENTER
 62
     2
100
AcDbLine
 10
540.640166
 20
589.945725
 30
0.0
 11
435.028162
 21
589.945725
 31
0.0
  0
LINE
  5
8A7
100
AcDbEntity
  8
18
  6
CENTER
 62
     2
100
AcDbLine
 10
489.044956
 20
562.669163
 30
0.0
 11
489.044956
 21
620.511834
 31
0.0
  0
LINE
  5
8A8
100
AcDbEntity
  8
18
100
AcDbLine
 10
531.284956
 20
571.465725
 30
0.0
 11
452.084956
 21
571.465725
 31
0.0
  0
LINE
  5
8A9
100
AcDbEntity
  8
18
100
AcDbLine
 10
531.284956
 20
608.425725
 30
0.0
 11
452.084956
 21
608.425725
 31
0.0
  0
LINE
  5
8AA
100
AcDbEntity
  8
18
100
AcDbLine
 10
531.284956
 20
571.465725
 30
0.0
 11
531.284956
 21
613.705725
 31
0.0
  0
LINE
  5
8AB
100
AcDbEntity
  8
18
100
AcDbLine
 10
457.364956
 20
571.465725
 30
0.0
 11
457.364956
 21
608.425725
 31
0.0
  0
LINE
  5
8AC
100
AcDbEntity
  8
18
100
AcDbLine
 10
531.284956
 20
613.705725
 30
0.0
 11
460.884956
 21
613.705725
 31
0.0
  0
LINE
  5
8AD
100
AcDbEntity
  8
18
100
AcDbLine
 10
452.084956
 20
571.465725
 30
0.0
 11
452.084956
 21
608.425725
 31
0.0
  0
LINE
  5
8AE
100
AcDbEntity
  8
18
100
AcDbLine
 10
460.884956
 20
608.425725
 30
0.0
 11
460.884956
 21
613.705725
 31
0.0
  0
LINE
  5
8AF
100
AcDbEntity
  8
18
100
AcDbLine
 10
507.524956
 20
574.105725
 30
0.0
 11
507.524956
 21
605.785725
 31
0.0
  0
LINE
  5
8B0
100
AcDbEntity
  8
18
100
AcDbLine
 10
462.644956
 20
574.105725
 30
0.0
 11
462.644956
 21
605.785725
 31
0.0
  0
LINE
  5
8B1
100
AcDbEntity
  8
18
100
AcDbLine
 10
507.524956
 20
574.105725
 30
0.0
 11
462.644956
 21
574.105725
 31
0.0
  0
LINE
  5
8B2
100
AcDbEntity
  8
18
100
AcDbLine
 10
507.524956
 20
605.785725
 30
0.0
 11
462.644956
 21
605.785725
 31
0.0
  0
CIRCLE
  5
8B3
100
AcDbEntity
  8
18
100
AcDbCircle
 10
489.044956
 20
589.945725
 30
0.0
 40
6.336
  0
LINE
  5
8B4
100
AcDbEntity
  8
18
  6
DASHED
100
AcDbLine
 10
518.084956
 20
579.385725
 30
0.0
 11
460.004956
 21
579.385725
 31
0.0
  0
LINE
  5
8B5
100
AcDbEntity
  8
18
  6
DASHED
100
AcDbLine
 10
518.084956
 20
600.505725
 30
0.0
 11
460.004956
 21
600.505725
 31
0.0
  0
LINE
  5
8B6
100
AcDbEntity
  8
18
  6
DASHED
100
AcDbLine
 10
460.004956
 20
579.385725
 30
0.0
 11
460.004956
 21
600.505725
 31
0.0
  0
LINE
  5
8B7
100
AcDbEntity
  8
18
  6
DASHED
100
AcDbLine
 10
518.084956
 20
579.385725
 30
0.0
 11
518.084956
 21
600.505725
 31
0.0
  0
LINE
  5
8B8
100
AcDbEntity
  8
18
  6
CENTER
 62
     2
100
AcDbLine
 10
474.964956
 20
610.938642
 30
0.0
 11
474.964956
 21
633.703657
 31
0.0
  0
LINE
  5
8B9
100
AcDbEntity
  8
18
100
AcDbLine
 10
474.965271
 20
621.625725
 30
0.0
 11
485.297916
 21
621.625725
 31
0.0
  0
LINE
  5
8BA
100
AcDbEntity
  8
18
100
AcDbLine
 10
485.297916
 20
621.625725
 30
0.0
 11
485.297916
 21
624.265725
 31
0.0
  0
LINE
  5
8BB
100
AcDbEntity
  8
18
100
AcDbLine
 10
474.965271
 20
624.265725
 30
0.0
 11
485.297916
 21
624.265725
 31
0.0
  0
LINE
  5
8BC
100
AcDbEntity
  8
18
100
AcDbLine
 10
464.632626
 20
621.625725
 30
0.0
 11
464.632626
 21
624.265725
 31
0.0
  0
LINE
  5
8BD
100
AcDbEntity
  8
18
100
AcDbLine
 10
483.408941
 20
613.705725
 30
0.0
 11
479.715785
 21
621.625725
 31
0.0
  0
LINE
  5
8BE
100
AcDbEntity
  8
18
100
AcDbLine
 10
466.521601
 20
613.705725
 30
0.0
 11
470.214758
 21
621.625725
 31
0.0
  0
LINE
  5
8BF
100
AcDbEntity
  8
18
100
AcDbLine
 10
474.965271
 20
621.625725
 30
0.0
 11
464.632626
 21
621.625725
 31
0.0
  0
LINE
  5
8C0
100
AcDbEntity
  8
18
100
AcDbLine
 10
474.965271
 20
624.265725
 30
0.0
 11
464.632626
 21
624.265725
 31
0.0
  0
LINE
  5
8C1
100
AcDbEntity
  8
18
  6
CENTER
 62
     2
100
AcDbLine
 10
629.138948
 20
609.941807
 30
0.0
 11
703.722604
 21
609.941807
 31
0.0
  0
LINE
  5
8C2
100
AcDbEntity
  8
18
100
AcDbLine
 10
695.722007
 20
624.022122
 30
0.0
 11
695.722007
 21
634.354767
 31
0.0
  0
LINE
  5
8C3
100
AcDbEntity
  8
18
100
AcDbLine
 10
695.722007
 20
634.354767
 30
0.0
 11
698.362007
 21
634.354767
 31
0.0
  0
LINE
  5
8C4
100
AcDbEntity
  8
18
100
AcDbLine
 10
698.362007
 20
624.022122
 30
0.0
 11
698.362007
 21
634.354767
 31
0.0
  0
LINE
  5
8C5
100
AcDbEntity
  8
18
100
AcDbLine
 10
695.722007
 20
613.689477
 30
0.0
 11
698.362007
 21
613.689477
 31
0.0
  0
LINE
  5
8C6
100
AcDbEntity
  8
18
  6
CENTER
 62
     2
100
AcDbLine
 10
664.042007
 20
654.35054
 30
0.0
 11
664.042007
 21
561.414445
 31
0.0
  0
LINE
  5
8C7
100
AcDbEntity
  8
18
100
AcDbLine
 10
645.562007
 20
567.701807
 30
0.0
 11
645.562007
 21
646.901807
 31
0.0
  0
LINE
  5
8C8
100
AcDbEntity
  8
18
100
AcDbLine
 10
682.522007
 20
567.701807
 30
0.0
 11
682.522007
 21
646.901807
 31
0.0
  0
LINE
  5
8C9
100
AcDbEntity
  8
18
100
AcDbLine
 10
645.562007
 20
567.701807
 30
0.0
 11
687.802007
 21
567.701807
 31
0.0
  0
LINE
  5
8CA
100
AcDbEntity
  8
18
100
AcDbLine
 10
645.562007
 20
641.621807
 30
0.0
 11
682.522007
 21
641.621807
 31
0.0
  0
LINE
  5
8CB
100
AcDbEntity
  8
18
100
AcDbLine
 10
687.802007
 20
567.701807
 30
0.0
 11
687.802007
 21
638.101807
 31
0.0
  0
LINE
  5
8CC
100
AcDbEntity
  8
18
100
AcDbLine
 10
645.562007
 20
646.901807
 30
0.0
 11
682.522007
 21
646.901807
 31
0.0
  0
LINE
  5
8CD
100
AcDbEntity
  8
18
100
AcDbLine
 10
682.522007
 20
638.101807
 30
0.0
 11
687.802007
 21
638.101807
 31
0.0
  0
LINE
  5
8CE
100
AcDbEntity
  8
18
100
AcDbLine
 10
648.202007
 20
591.461807
 30
0.0
 11
679.882007
 21
591.461807
 31
0.0
  0
LINE
  5
8CF
100
AcDbEntity
  8
18
100
AcDbLine
 10
648.202007
 20
636.341807
 30
0.0
 11
679.882007
 21
636.341807
 31
0.0
  0
LINE
  5
8D0
100
AcDbEntity
  8
18
100
AcDbLine
 10
648.202007
 20
591.461807
 30
0.0
 11
648.202007
 21
636.341807
 31
0.0
  0
LINE
  5
8D1
100
AcDbEntity
  8
18
100
AcDbLine
 10
679.882007
 20
591.461807
 30
0.0
 11
679.882007
 21
636.341807
 31
0.0
  0
CIRCLE
  5
8D2
100
AcDbEntity
  8
18
100
AcDbCircle
 10
664.042007
 20
609.941807
 30
0.0
 40
6.336
  0
LINE
  5
8D3
100
AcDbEntity
  8
18
100
AcDbLine
 10
635.002007
 20
620.501807
 30
0.0
 11
635.002007
 21
599.381807
 31
0.0
  0
LINE
  5
8D4
100
AcDbEntity
  8
18
  6
CENTER
 62
     2
100
AcDbLine
 10
685.034924
 20
624.021807
 30
0.0
 11
709.335263
 21
624.021807
 31
0.0
  0
LINE
  5
8D5
100
AcDbEntity
  8
18
100
AcDbLine
 10
635.002007
 20
620.501807
 30
0.0
 11
645.562007
 21
620.501807
 31
0.0
  0
LINE
  5
8D6
100
AcDbEntity
  8
18
100
AcDbLine
 10
687.802007
 20
599.381807
 30
0.0
 11
693.082007
 21
599.381807
 31
0.0
  0
LINE
  5
8D7
100
AcDbEntity
  8
18
100
AcDbLine
 10
635.002007
 20
599.381807
 30
0.0
 11
645.562007
 21
599.381807
 31
0.0
  0
LINE
  5
8D8
100
AcDbEntity
  8
18
  6
DASHED
100
AcDbLine
 10
645.562007
 20
599.381807
 30
0.0
 11
687.802007
 21
599.381807
 31
0.0
  0
LINE
  5
8D9
100
AcDbEntity
  8
18
100
AcDbLine
 10
693.082007
 20
611.049162
 30
0.0
 11
693.082007
 21
599.381807
 31
0.0
  0
LINE
  5
8DA
100
AcDbEntity
  8
18
  6
DASHED
100
AcDbLine
 10
645.562007
 20
620.501807
 30
0.0
 11
687.802007
 21
620.501807
 31
0.0
  0
LINE
  5
8DB
100
AcDbEntity
  8
18
  6
DASHED
100
AcDbLine
 10
687.802007
 20
620.501807
 30
0.0
 11
692.370017
 21
620.501807
 31
0.0
  0
LINE
  5
8DC
100
AcDbEntity
  8
18
  6
DASHED
100
AcDbLine
 10
692.370017
 20
620.501807
 30
0.0
 11
693.082007
 21
620.501807
 31
0.0
  0
LINE
  5
8DD
100
AcDbEntity
  8
18
100
AcDbLine
 10
687.802007
 20
632.465792
 30
0.0
 11
695.722007
 21
628.772635
 31
0.0
  0
LINE
  5
8DE
100
AcDbEntity
  8
18
100
AcDbLine
 10
687.802007
 20
615.578451
 30
0.0
 11
695.722007
 21
619.271608
 31
0.0
  0
LINE
  5
8DF
100
AcDbEntity
  8
18
100
AcDbLine
 10
695.722007
 20
624.022122
 30
0.0
 11
695.722007
 21
613.689477
 31
0.0
  0
LINE
  5
8E0
100
AcDbEntity
  8
18
100
AcDbLine
 10
698.362007
 20
624.022122
 30
0.0
 11
698.362007
 21
613.689477
 31
0.0
  0
LINE
  5
8E1
100
AcDbEntity
  8
18
  6
DASHED
100
AcDbLine
 10
693.082007
 20
620.501807
 30
0.0
 11
693.082007
 21
618.040556
 31
0.0
  0
LINE
  5
8E2
100
AcDbEntity
  8
18
100
AcDbLine
 10
693.082007
 20
618.920556
 30
0.0
 11
693.082007
 21
618.856782
 31
0.0
  0
LINE
  5
8E3
100
AcDbEntity
  8
18
100
AcDbLine
 10
693.082007
 20
618.040556
 30
0.0
 11
693.082007
 21
610.334407
 31
0.0
  0
LINE
  5
8E4
100
AcDbEntity
  8
18
  6
CENTER
 62
     2
100
AcDbLine
 10
780.446797
 20
609.941807
 30
0.0
 11
886.058802
 21
609.941807
 31
0.0
  0
LINE
  5
8E5
100
AcDbEntity
  8
18
  6
CENTER
 62
     2
100
AcDbLine
 10
832.042007
 20
637.218369
 30
0.0
 11
832.042007
 21
579.375698
 31
0.0
  0
LINE
  5
8E6
100
AcDbEntity
  8
18
100
AcDbLine
 10
789.802007
 20
628.421807
 30
0.0
 11
869.002007
 21
628.421807
 31
0.0
  0
LINE
  5
8E7
100
AcDbEntity
  8
18
100
AcDbLine
 10
789.802007
 20
591.461807
 30
0.0
 11
869.002007
 21
591.461807
 31
0.0
  0
LINE
  5
8E8
100
AcDbEntity
  8
18
100
AcDbLine
 10
789.802007
 20
628.421807
 30
0.0
 11
789.802007
 21
586.181807
 31
0.0
  0
LINE
  5
8E9
100
AcDbEntity
  8
18
100
AcDbLine
 10
863.722007
 20
628.421807
 30
0.0
 11
863.722007
 21
591.461807
 31
0.0
  0
LINE
  5
8EA
100
AcDbEntity
  8
18
100
AcDbLine
 10
789.802007
 20
586.181807
 30
0.0
 11
860.202007
 21
586.181807
 31
0.0
  0
LINE
  5
8EB
100
AcDbEntity
  8
18
100
AcDbLine
 10
869.002007
 20
628.421807
 30
0.0
 11
869.002007
 21
591.461807
 31
0.0
  0
LINE
  5
8EC
100
AcDbEntity
  8
18
100
AcDbLine
 10
860.202007
 20
591.461807
 30
0.0
 11
860.202007
 21
586.181807
 31
0.0
  0
LINE
  5
8ED
100
AcDbEntity
  8
18
100
AcDbLine
 10
813.562007
 20
625.781807
 30
0.0
 11
813.562007
 21
594.101807
 31
0.0
  0
LINE
  5
8EE
100
AcDbEntity
  8
18
100
AcDbLine
 10
858.442007
 20
625.781807
 30
0.0
 11
858.442007
 21
594.101807
 31
0.0
  0
LINE
  5
8EF
100
AcDbEntity
  8
18
100
AcDbLine
 10
813.562007
 20
625.781807
 30
0.0
 11
858.442007
 21
625.781807
 31
0.0
  0
LINE
  5
8F0
100
AcDbEntity
  8
18
100
AcDbLine
 10
813.562007
 20
594.101807
 30
0.0
 11
858.442007
 21
594.101807
 31
0.0
  0
CIRCLE
  5
8F1
100
AcDbEntity
  8
18
100
AcDbCircle
 10
832.042007
 20
609.941807
 30
0.0
 40
6.336
  0
LINE
  5
8F2
100
AcDbEntity
  8
18
  6
DASHED
100
AcDbLine
 10
803.002007
 20
620.501807
 30
0.0
 11
861.082007
 21
620.501807
 31
0.0
  0
LINE
  5
8F3
100
AcDbEntity
  8
18
  6
DASHED
100
AcDbLine
 10
803.002007
 20
599.381807
 30
0.0
 11
861.082007
 21
599.381807
 31
0.0
  0
LINE
  5
8F4
100
AcDbEntity
  8
18
  6
DASHED
100
AcDbLine
 10
861.082007
 20
620.501807
 30
0.0
 11
861.082007
 21
599.381807
 31
0.0
  0
LINE
  5
8F5
100
AcDbEntity
  8
18
  6
DASHED
100
AcDbLine
 10
803.002007
 20
620.501807
 30
0.0
 11
803.002007
 21
599.381807
 31
0.0
  0
LINE
  5
8F6
100
AcDbEntity
  8
18
  6
CENTER
 62
     2
100
AcDbLine
 10
846.122007
 20
588.94889
 30
0.0
 11
846.122007
 21
566.183875
 31
0.0
  0
LINE
  5
8F7
100
AcDbEntity
  8
18
100
AcDbLine
 10
846.121692
 20
578.261807
 30
0.0
 11
835.789047
 21
578.261807
 31
0.0
  0
LINE
  5
8F8
100
AcDbEntity
  8
18
100
AcDbLine
 10
835.789047
 20
578.261807
 30
0.0
 11
835.789047
 21
575.621807
 31
0.0
  0
LINE
  5
8F9
100
AcDbEntity
  8
18
100
AcDbLine
 10
846.121692
 20
575.621807
 30
0.0
 11
835.789047
 21
575.621807
 31
0.0
  0
LINE
  5
8FA
100
AcDbEntity
  8
18
100
AcDbLine
 10
856.454337
 20
578.261807
 30
0.0
 11
856.454337
 21
575.621807
 31
0.0
  0
LINE
  5
8FB
100
AcDbEntity
  8
18
100
AcDbLine
 10
837.678022
 20
586.181807
 30
0.0
 11
841.371179
 21
578.261807
 31
0.0
  0
LINE
  5
8FC
100
AcDbEntity
  8
18
100
AcDbLine
 10
854.565363
 20
586.181807
 30
0.0
 11
850.872206
 21
578.261807
 31
0.0
  0
LINE
  5
8FD
100
AcDbEntity
  8
18
100
AcDbLine
 10
846.121692
 20
578.261807
 30
0.0
 11
856.454337
 21
578.261807
 31
0.0
  0
LINE
  5
8FE
100
AcDbEntity
  8
18
100
AcDbLine
 10
846.121692
 20
575.621807
 30
0.0
 11
856.454337
 21
575.621807
 31
0.0
  0
LINE
  5
8FF
100
AcDbEntity
  8
18
  6
CENTER
 62
     2
100
AcDbLine
 10
1034.945067
 20
609.941807
 30
0.0
 11
960.361411
 21
609.941807
 31
0.0
  0
LINE
  5
900
100
AcDbEntity
  8
18
100
AcDbLine
 10
968.362007
 20
595.861492
 30
0.0
 11
968.362007
 21
585.528847
 31
0.0
  0
LINE
  5
901
100
AcDbEntity
  8
18
100
AcDbLine
 10
968.362007
 20
585.528847
 30
0.0
 11
965.722007
 21
585.528847
 31
0.0
  0
LINE
  5
902
100
AcDbEntity
  8
18
100
AcDbLine
 10
965.722007
 20
595.861492
 30
0.0
 11
965.722007
 21
585.528847
 31
0.0
  0
LINE
  5
903
100
AcDbEntity
  8
18
100
AcDbLine
 10
968.362007
 20
606.194137
 30
0.0
 11
965.722007
 21
606.194137
 31
0.0
  0
LINE
  5
904
100
AcDbEntity
  8
18
  6
CENTER
 62
     2
100
AcDbLine
 10
1000.042007
 20
565.533073
 30
0.0
 11
1000.042007
 21
658.469169
 31
0.0
  0
LINE
  5
905
100
AcDbEntity
  8
18
100
AcDbLine
 10
1018.522007
 20
652.181807
 30
0.0
 11
1018.522007
 21
572.981807
 31
0.0
  0
LINE
  5
906
100
AcDbEntity
  8
18
100
AcDbLine
 10
981.562007
 20
652.181807
 30
0.0
 11
981.562007
 21
572.981807
 31
0.0
  0
LINE
  5
907
100
AcDbEntity
  8
18
100
AcDbLine
 10
1018.522007
 20
652.181807
 30
0.0
 11
976.282007
 21
652.181807
 31
0.0
  0
LINE
  5
908
100
AcDbEntity
  8
18
100
AcDbLine
 10
1018.522007
 20
578.261807
 30
0.0
 11
981.562007
 21
578.261807
 31
0.0
  0
LINE
  5
909
100
AcDbEntity
  8
18
100
AcDbLine
 10
976.282007
 20
652.181807
 30
0.0
 11
976.282007
 21
581.781807
 31
0.0
  0
LINE
  5
90A
100
AcDbEntity
  8
18
100
AcDbLine
 10
1018.522007
 20
572.981807
 30
0.0
 11
981.562007
 21
572.981807
 31
0.0
  0
LINE
  5
90B
100
AcDbEntity
  8
18
100
AcDbLine
 10
981.562007
 20
581.781807
 30
0.0
 11
976.282007
 21
581.781807
 31
0.0
  0
LINE
  5
90C
100
AcDbEntity
  8
18
100
AcDbLine
 10
1015.882007
 20
628.421807
 30
0.0
 11
984.202007
 21
628.421807
 31
0.0
  0
LINE
  5
90D
100
AcDbEntity
  8
18
100
AcDbLine
 10
1015.882007
 20
583.541807
 30
0.0
 11
984.202007
 21
583.541807
 31
0.0
  0
LINE
  5
90E
100
AcDbEntity
  8
18
100
AcDbLine
 10
1015.882007
 20
628.421807
 30
0.0
 11
1015.882007
 21
583.541807
 31
0.0
  0
LINE
  5
90F
100
AcDbEntity
  8
18
100
AcDbLine
 10
984.202007
 20
628.421807
 30
0.0
 11
984.202007
 21
583.541807
 31
0.0
  0
CIRCLE
  5
910
100
AcDbEntity
  8
18
100
AcDbCircle
 10
1000.042007
 20
609.941807
 30
0.0
 40
6.336
  0
LINE
  5
911
100
AcDbEntity
  8
18
100
AcDbLine
 10
1029.082007
 20
599.381807
 30
0.0
 11
1029.082007
 21
620.501807
 31
0.0
  0
LINE
  5
912
100
AcDbEntity
  8
18
  6
CENTER
 62
     2
100
AcDbLine
 10
979.049091
 20
595.861807
 30
0.0
 11
954.748752
 21
595.861807
 31
0.0
  0
LINE
  5
913
100
AcDbEntity
  8
18
100
AcDbLine
 10
1029.082007
 20
599.381807
 30
0.0
 11
1018.522007
 21
599.381807
 31
0.0
  0
LINE
  5
914
100
AcDbEntity
  8
18
100
AcDbLine
 10
976.282007
 20
620.501807
 30
0.0
 11
971.002007
 21
620.501807
 31
0.0
  0
LINE
  5
915
100
AcDbEntity
  8
18
100
AcDbLine
 10
1029.082007
 20
620.501807
 30
0.0
 11
1018.522007
 21
620.501807
 31
0.0
  0
LINE
  5
916
100
AcDbEntity
  8
18
  6
DASHED
100
AcDbLine
 10
1018.522007
 20
620.501807
 30
0.0
 11
976.282007
 21
620.501807
 31
0.0
  0
LINE
  5
917
100
AcDbEntity
  8
18
100
AcDbLine
 10
971.002007
 20
608.834452
 30
0.0
 11
971.002007
 21
620.501807
 31
0.0
  0
LINE
  5
918
100
AcDbEntity
  8
18
  6
DASHED
100
AcDbLine
 10
1018.522007
 20
599.381807
 30
0.0
 11
976.282007
 21
599.381807
 31
0.0
  0
LINE
  5
919
100
AcDbEntity
  8
18
  6
DASHED
100
AcDbLine
 10
976.282007
 20
599.381807
 30
0.0
 11
971.713998
 21
599.381807
 31
0.0
  0
LINE
  5
91A
100
AcDbEntity
  8
18
  6
DASHED
100
AcDbLine
 10
971.713998
 20
599.381807
 30
0.0
 11
971.002007
 21
599.381807
 31
0.0
  0
LINE
  5
91B
100
AcDbEntity
  8
18
100
AcDbLine
 10
976.282007
 20
587.417821
 30
0.0
 11
968.362007
 21
591.110978
 31
0.0
  0
LINE
  5
91C
100
AcDbEntity
  8
18
100
AcDbLine
 10
976.282007
 20
604.305162
 30
0.0
 11
968.362007
 21
600.612005
 31
0.0
  0
LINE
  5
91D
100
AcDbEntity
  8
18
100
AcDbLine
 10
968.362007
 20
595.861492
 30
0.0
 11
968.362007
 21
606.194137
 31
0.0
  0
LINE
  5
91E
100
AcDbEntity
  8
18
100
AcDbLine
 10
965.722007
 20
595.861492
 30
0.0
 11
965.722007
 21
606.194137
 31
0.0
  0
LINE
  5
91F
100
AcDbEntity
  8
18
  6
DASHED
100
AcDbLine
 10
971.002007
 20
599.381807
 30
0.0
 11
971.002007
 21
601.843057
 31
0.0
  0
LINE
  5
920
100
AcDbEntity
  8
18
100
AcDbLine
 10
971.002007
 20
600.963057
 30
0.0
 11
971.002007
 21
601.026832
 31
0.0
  0
LINE
  5
921
100
AcDbEntity
  8
18
100
AcDbLine
 10
971.002007
 20
601.843057
 30
0.0
 11
971.002007
 21
609.549207
 31
0.0
  0
TEXT
  5
922
100
AcDbEntity
  8
18
100
AcDbText
 10
733.125443
 20
-762.211578
 30
0.0
 40
18.0
  1
標準仕様、重負荷仕様
 72
     5
 11
909.525443
 21
-762.211578
 31
0.0
100
AcDbText
  0
TEXT
  5
923
100
AcDbEntity
  8
18
100
AcDbText
 10
757.785461
 20
-822.100616
 30
0.0
 40
18.0
  1
６
 72
     5
 11
772.185461
 21
-822.100616
 31
0.0
100
AcDbText
  0
TEXT
  5
924
100
AcDbEntity
  8
18
100
AcDbText
 10
733.125443
 20
-738.211578
 30
0.0
 40
18.0
  1
３０２Ｙ－４ＩＣＳ　２００Ａ
 72
     5
 11
981.525443
 21
-738.211578
 31
0.0
100
AcDbText
  0
TEXT
  5
925
100
AcDbEntity
  8
18
100
AcDbText
 10
1081.874451
 20
-761.511292
 30
0.0
 40
13.5
  1
′９９．１２．　２
 72
     5
 11
1200.674451
 21
-761.511292
 31
0.0
100
AcDbText
  0
TEXT
  5
926
100
AcDbEntity
  8
18
100
AcDbText
 10
921.6
 20
-816.0
 30
0.0
 40
30.0
  1
Ｄ３－０２０２８
 72
     5
 11
1155.6
 21
-816.0
 31
0.0
100
AcDbText
  0
LINE
  5
927
100
AcDbEntity
  8
20
 62
     3
100
AcDbLine
 10
-1080.0
 20
-831.0
 30
0.0
 11
1200.0
 21
-831.0
 31
0.0
  0
LINE
  5
928
100
AcDbEntity
  8
20
 62
     3
100
AcDbLine
 10
-1080.0
 20
792.0
 30
0.0
 11
1200.0
 21
792.0
 31
0.0
  0
LINE
  5
929
100
AcDbEntity
  8
20
 62
     3
100
AcDbLine
 10
-1080.0
 20
792.0
 30
0.0
 11
-1080.0
 21
-831.0
 31
0.0
  0
LINE
  5
92A
100
AcDbEntity
  8
20
 62
     3
100
AcDbLine
 10
1200.0
 20
792.0
 30
0.0
 11
1200.0
 21
-831.0
 31
0.0
  0
LINE
  5
92B
100
AcDbEntity
  8
20
 62
     3
100
AcDbLine
 10
360.0
 20
-831.0
 30
0.0
 11
360.0
 21
-711.0
 31
0.0
  0
LINE
  5
92C
100
AcDbEntity
  8
20
 62
     3
100
AcDbLine
 10
642.0
 20
-831.0
 30
0.0
 11
642.0
 21
-711.0
 31
0.0
  0
LINE
  5
92D
100
AcDbEntity
  8
20
100
AcDbLine
 10
642.0
 20
-771.0
 30
0.0
 11
1200.0
 21
-771.0
 31
0.0
  0
LINE
  5
92E
100
AcDbEntity
  8
20
 62
     3
100
AcDbLine
 10
360.0
 20
-711.0
 30
0.0
 11
1200.0
 21
-711.0
 31
0.0
  0
LINE
  5
92F
100
AcDbEntity
  8
20
100
AcDbLine
 10
1080.0
 20
-771.0
 30
0.0
 11
1080.0
 21
-711.0
 31
0.0
  0
LINE
  5
930
100
AcDbEntity
  8
20
100
AcDbLine
 10
1080.0
 20
-741.0
 30
0.0
 11
1200.0
 21
-741.0
 31
0.0
  0
LINE
  5
931
100
AcDbEntity
  8
20
100
AcDbLine
 10
726.0
 20
-831.0
 30
0.0
 11
726.0
 21
-711.0
 31
0.0
  0
LINE
  5
932
100
AcDbEntity
  8
20
100
AcDbLine
 10
786.0
 20
-831.0
 30
0.0
 11
786.0
 21
-771.0
 31
0.0
  0
LINE
  5
933
100
AcDbEntity
  8
20
100
AcDbLine
 10
906.0
 20
-831.0
 30
0.0
 11
906.0
 21
-771.0
 31
0.0
  0
LINE
  5
934
100
AcDbEntity
  8
20
100
AcDbLine
 10
742.370487
 20
-814.629513
 30
0.0
 11
767.389744
 21
-789.610256
 31
0.0
  0
TEXT
  5
935
100
AcDbEntity
  8
20
100
AcDbText
 10
789.199974
 20
-794.981506
 30
0.0
 40
10.8
  1
ＤＲＡＷＩＮＧ　ＮＯ．
 72
     5
 11
905.839974
 21
-794.981506
 31
0.0
100
AcDbText
  0
TEXT
  5
936
100
AcDbEntity
  8
20
100
AcDbText
 10
801.0
 20
-819.0
 30
0.0
 40
18.0
  1
図　　　番
 72
     5
 11
887.4
 21
-819.0
 31
0.0
100
AcDbText
  0
TEXT
  5
937
100
AcDbEntity
  8
20
100
AcDbText
 10
1116.0
 20
-732.0
 30
0.0
 40
12.0
  1
ＤＡＴＥ
 72
     5
 11
1161.6
 21
-732.0
 31
0.0
100
AcDbText
  0
TEXT
  5
938
100
AcDbEntity
  8
20
100
AcDbText
 10
654.006426
 20
-797.766174
 30
0.0
 40
12.0
  1
ＳＣＡＬＥ
 72
     5
 11
711.606426
 21
-797.766174
 31
0.0
100
AcDbText
  0
TEXT
  5
939
100
AcDbEntity
  8
20
100
AcDbText
 10
648.0
 20
-819.0
 30
0.0
 40
18.0
  1
尺　　度
 72
     5
 11
716.4
 21
-819.0
 31
0.0
100
AcDbText
  0
TEXT
  5
93A
100
AcDbEntity
  8
20
100
AcDbText
 10
645.006426
 20
-734.975308
 30
0.0
 40
12.0
  1
ＦＩＧ．ＮＯ．
 72
     5
 11
726.606426
 21
-734.975308
 31
0.0
100
AcDbText
  0
TEXT
  5
93B
100
AcDbEntity
  8
20
100
AcDbText
 10
648.0
 20
-759.0
 30
0.0
 40
18.0
  1
名　　称
 72
     5
 11
716.4
 21
-759.0
 31
0.0
100
AcDbText
  0
TEXT
  5
93C
100
AcDbEntity
  8
20
100
AcDbText
 10
363.39315
 20
-758.821518
 30
0.0
 40
13.8
  1
ＴＯＭＯＥ　ＶＡＬＶＥ　ＣＯ．，ＬＴＤ．
 72
     5
 11
636.63315
 21
-758.821518
 31
0.0
100
AcDbText
  0
TEXT
  5
93D
100
AcDbEntity
  8
20
100
AcDbText
 10
405.0
 20
-799.738861
 30
0.0
 40
24.0
  1
巴バルブ株式会社
 72
     5
 11
592.2
 21
-799.738861
 31
0.0
100
AcDbText
  0
ENDSEC
  0
SECTION
  2
OBJECTS
  0
DICTIONARY
  5
9C2
100
AcDbDictionary
  3
ACAD_GROUP
350
9C3
  3
ACAD_MLINESTYLE
350
9C4
  0
DICTIONARY
  5
9C3
102
{ACAD_REACTORS
330
9C2
102
}
100
AcDbDictionary
  0
DICTIONARY
  5
9C4
102
{ACAD_REACTORS
330
9C2
102
}
100
AcDbDictionary
  3
STANDARD
350
9C5
  0
MLINESTYLE
  5
9C5
102
{ACAD_REACTORS
330
9C4
102
}
100
AcDbMlineStyle
  2
STANDARD
 70
     0
  3

 62
     0
 51
90.0
 52
90.0
 71
     2
 49
0.5
 62
   256
  6
BYLAYER
 49
-0.5
 62
   256
  6
BYLAYER
  0
ENDSEC
  0
EOF
