  0
SECTION
  2
HEADER
  9
$ACADVER
  1
AC1012
  9
$DWGCODEPAGE
  3
ansi_932
  9
$INSBASE
 10
0.0
 20
0.0
 30
0.0
  9
$EXTMIN
 10
-1260.0
 20
-891.0
 30
1.000000E+20
  9
$EXTMAX
 10
1260.0
 20
891.0
 30
-1.000000E+20
  9
$LIMMIN
 10
-1260.0
 20
-891.0
  9
$LIMMAX
 10
1260.0
 20
891.0
  9
$ORTHOMODE
 70
     0
  9
$REGENMODE
 70
     1
  9
$FILLMODE
 70
     1
  9
$QTEXTMODE
 70
     0
  9
$MIRRTEXT
 70
     1
  9
$DRAGMODE
 70
     2
  9
$LTSCALE
 40
1.0
  9
$OSMODE
 70
     0
  9
$ATTMODE
 70
     1
  9
$TEXTSIZE
 40
0.2
  9
$TRACEWID
 40
0.05
  9
$TEXTSTYLE
  7
STANDARD
  9
$CLAYER
  8
0
  9
$CELTYPE
  6
CONTINUOUS
  9
$CECOLOR
 62
   256
  9
$CELTSCALE
 40
1.0
  9
$DELOBJ
 70
     1
  9
$DISPSILH
 70
     0
  9
$DIMSCALE
 40
6.0
  9
$DIMASZ
 40
0.18
  9
$DIMEXO
 40
0.0625
  9
$DIMDLI
 40
0.38
  9
$DIMRND
 40
0.0
  9
$DIMDLE
 40
0.0
  9
$DIMEXE
 40
0.18
  9
$DIMTP
 40
0.0
  9
$DIMTM
 40
0.0
  9
$DIMTXT
 40
0.18
  9
$DIMCEN
 40
0.09
  9
$DIMTSZ
 40
0.0
  9
$DIMTOL
 70
     0
  9
$DIMLIM
 70
     0
  9
$DIMTIH
 70
     1
  9
$DIMTOH
 70
     1
  9
$DIMSE1
 70
     0
  9
$DIMSE2
 70
     0
  9
$DIMTAD
 70
     1
  9
$DIMZIN
 70
     0
  9
$DIMBLK
  1

  9
$DIMASO
 70
     1
  9
$DIMSHO
 70
     1
  9
$DIMPOST
  1

  9
$DIMAPOST
  1

  9
$DIMALT
 70
     0
  9
$DIMALTD
 70
     2
  9
$DIMALTF
 40
25.4
  9
$DIMLFAC
 40
1.0
  9
$DIMTOFL
 70
     0
  9
$DIMTVP
 40
0.0
  9
$DIMTIX
 70
     0
  9
$DIMSOXD
 70
     0
  9
$DIMSAH
 70
     0
  9
$DIMBLK1
  1

  9
$DIMBLK2
  1

  9
$DIMSTYLE
  2
STANDARD
  9
$DIMCLRD
 70
     0
  9
$DIMCLRE
 70
     0
  9
$DIMCLRT
 70
     0
  9
$DIMTFAC
 40
1.0
  9
$DIMGAP
 40
0.09
  9
$DIMJUST
 70
     0
  9
$DIMSD1
 70
     0
  9
$DIMSD2
 70
     0
  9
$DIMTOLJ
 70
     1
  9
$DIMTZIN
 70
     0
  9
$DIMALTZ
 70
     0
  9
$DIMALTTZ
 70
     0
  9
$DIMFIT
 70
     3
  9
$DIMUPT
 70
     0
  9
$DIMUNIT
 70
     2
  9
$DIMDEC
 70
     4
  9
$DIMTDEC
 70
     4
  9
$DIMALTU
 70
     2
  9
$DIMALTTD
 70
     2
  9
$DIMTXSTY
  7
STANDARD
  9
$DIMAUNIT
 70
     0
  9
$LUNITS
 70
     2
  9
$LUPREC
 70
     4
  9
$SKETCHINC
 40
0.1
  9
$FILLETRAD
 40
0.0
  9
$AUNITS
 70
     0
  9
$AUPREC
 70
     0
  9
$MENU
  1
acad
  9
$ELEVATION
 40
0.0
  9
$PELEVATION
 40
0.0
  9
$THICKNESS
 40
0.0
  9
$LIMCHECK
 70
     0
  9
$BLIPMODE
 70
     1
  9
$CHAMFERA
 40
0.0
  9
$CHAMFERB
 40
0.0
  9
$CHAMFERC
 40
0.0
  9
$CHAMFERD
 40
0.0
  9
$SKPOLY
 70
     0
  9
$TDCREATE
 40
2451515.000000000
  9
$TDUPDATE
 40
0.000000000
  9
$TDINDWG
 40
0.0000000000
  9
$TDUSRTIMER
 40
0.0000000000
  9
$USRTIMER
 70
     1
  9
$ANGBASE
 50
0.0
  9
$ANGDIR
 70
     0
  9
$PDMODE
 70
     0
  9
$PDSIZE
 40
0.0
  9
$PLINEWID
 40
0.0
  9
$COORDS
 70
     0
  9
$SPLFRAME
 70
     0
  9
$SPLINETYPE
 70
     6
  9
$SPLINESEGS
 70
     8
  9
$ATTDIA
 70
     0
  9
$ATTREQ
 70
     1
  9
$HANDLING
 70
     1
  9
$HANDSEED
  5
983
  9
$SURFTAB1
 70
     6
  9
$SURFTAB2
 70
     6
  9
$SURFTYPE
 70
     6
  9
$SURFU
 70
     6
  9
$SURFV
 70
     6
  9
$UCSNAME
  2

  9
$UCSORG
 10
0.0
 20
0.0
 30
0.0
  9
$UCSXDIR
 10
1.0
 20
0.0
 30
0.0
  9
$UCSYDIR
 10
0.0
 20
1.0
 30
0.0
  9
$PUCSNAME
  2

  9
$PUCSORG
 10
0.0
 20
0.0
 30
0.0
  9
$PUCSXDIR
 10
1.0
 20
0.0
 30
0.0
  9
$PUCSYDIR
 10
0.0
 20
1.0
 30
0.0
  9
$USERI1
 70
     0
  9
$USERI2
 70
     0
  9
$USERI3
 70
     0
  9
$USERI4
 70
     0
  9
$USERI5
 70
     0
  9
$USERR1
 40
0.0
  9
$USERR2
 40
0.0
  9
$USERR3
 40
0.0
  9
$USERR4
 40
0.0
  9
$USERR5
 40
0.0
  9
$WORLDVIEW
 70
     1
  9
$SHADEDGE
 70
     3
  9
$SHADEDIF
 70
    70
  9
$TILEMODE
 70
     1
  9
$MAXACTVP
 70
    16
  9
$PINSBASE
 10
0.0
 20
0.0
 30
0.0
  9
$PLIMCHECK
 70
     0
  9
$PEXTMIN
 10
1.000000E+20
 20
1.000000E+20
 30
1.000000E+20
  9
$PEXTMAX
 10
-1.000000E+20
 20
-1.000000E+20
 30
-1.000000E+20
  9
$PLIMMIN
 10
0.0
 20
0.0
  9
$PLIMMAX
 10
12.0
 20
9.0
  9
$UNITMODE
 70
     0
  9
$VISRETAIN
 70
     0
  9
$PLINEGEN
 70
     1
  9
$PSLTSCALE
 70
     0
  9
$TREEDEPTH
 70
  3020
  9
$PICKSTYLE
 70
     1
  9
$CMLSTYLE
  2
STANDARD
  9
$CMLJUST
 70
     0
  9
$CMLSCALE
 40
1.0
  9
$SAVEIMAGES
 70
     0
  0
ENDSEC
  0
SECTION
  2
CLASSES
  0
CLASS
  1
LWPOLYLINE
  2
AcDbPolyline
  3
"AutoCAD"
 90
    32768
280
     0
281
     1
  0
CLASS
  1
IMAGE
  2
AcDbRasterImage
  3
ISM
 90
    32895
280
     0
281
     1
  0
CLASS
  1
OLE2FRAME
  2
AcDbOle2Frame
  3
""
 90
    32768
280
     0
281
     1
  0
CLASS
  1
HATCH
  2
AcDbHatch
  3
"ACAD_SEDONA"
 90
    32768
280
     0
281
     1
  0
CLASS
  1
DICTIONARYVAR
  2
AcDbDictionaryVar
  3
"AutoCAD"
 90
    32768
280
     0
281
     0
  0
CLASS
  1
RASTERVARIABLES
  2
AcDbRasterVariables
  3
ISM
 90
    32768
280
     0
281
     0
  0
CLASS
  1
IMAGEDEF
  2
AcDbRasterImageDef
  3
ISM
 90
    32768
280
     0
281
     0
  0
CLASS
  1
IMAGEDEF_REACTOR
  2
AcDbRasterImageDefReactor
  3
ISM
 90
    32769
280
     0
281
     0
  0
CLASS
  1
IDBUFFER
  2
AcDbIdBuffer
  3
"Acad"
 90
    32768
280
     0
281
     0
  0
CLASS
  1
SPATIAL_FILTER
  2
AcDbSpatialFilter
  3
"Acad"
 90
    32768
280
     0
281
     0
  0
CLASS
  1
XRECORD
  2
AcDbXrecord
  3
"<Built In>"
 90
    32768
280
     0
281
     0
  0
CLASS
  1
SORTENTSTABLE
  2
AcDbSortentsTable
  3
"AutoCAD"
 90
    32768
280
     0
281
     0
  0
CLASS
  1
LAYER_INDEX
  2
AcDbLayerIndex
  3
"Acad"
 90
    32768
280
     0
281
     0
  0
CLASS
  1
SPATIAL_INDEX
  2
AcDbSpatialIndex
  3
"Acad"
 90
    32768
280
     0
281
     0
  0
CLASS
  1
OBJECT_PTR
  2
CAseDLPNTableRecord
  3
"ASE-LPNTableRecord"
 90
    32769
280
     0
281
     0
  0
CLASS
  1
LAYOUT
  2
AcDbLayout
  3
"AutoCAD 2000"
 90
    32768
280
     0
281
     0
  0
CLASS
  1
PLOTSETTINGS
  2
AcDbPlotSettings
  3
"AutoCAD 2000"
 90
    32768
280
     0
281
     0
  0
CLASS
  1
ACDBDICTIONARYWDFLT
  2
AcDbDictionaryWithDefault
  3
"AutoCAD 2000"
 90
    32768
280
     0
281
     0
  0
CLASS
  1
ACDBPLACEHOLDER
  2
AcDbPlaceHolder
  3
"AutoCAD 2000"
 90
    32768
280
     0
281
     0
  0
CLASS
  1
VBA_PROJECT
  2
AcDbVbaProject
  3
"acadvba"
 90
    32768
280
     0
281
     0
  0
CLASS
  1
WIPEOUT
  2
AcDbWipeout
  3
WipeOut|AutoCAD Express Tool|expresstools@autodesk.com
 90
    32895
280
     0
281
     1
  0
CLASS
  1
WIPEOUTVARIABLES
  2
AcDbWipeoutVariables
  3
WipeOut|AutoCAD Express Tool|expresstools@autodesk.com
 90
    32768
280
     0
281
     0
  0
CLASS
  1
RTEXT
  2
RText
  3
RText|AutoCAD Express Tool|expresstools@autodesk.com
 90
    32768
280
     0
281
     1
  0
CLASS
  1
ARCALIGNEDTEXT
  2
AcDbArcAlignedText
  3
ATEXT|AutoCAD Express Tool|expresstools@autodesk.com
 90
    32768
280
     0
281
     1
  0
ENDSEC
  0
SECTION
  2
TABLES
  0
TABLE
  2
VPORT
  5
6
100
AcDbSymbolTable
 70
     1
  0
VPORT
  5
1C
100
AcDbSymbolTableRecord
100
AcDbViewportTableRecord
  2
*ACTIVE
 70
     0
 10
0.0
 20
0.0
 11
1.0
 21
1.0
 12
0.0
 22
0.0
 13
0.0
 23
0.0
 14
1.0
 24
1.0
 15
0.0
 25
0.0
 16
0.0
 26
0.0
 36
1.0
 17
0.0
 27
0.0
 37
0.0
 40
1782.0
 41
1.414141
 42
50.0
 43
0.0
 44
0.0
 50
0.0
 51
0.0
 71
     0
 72
   500
 73
     1
 74
     1
 75
     0
 76
     0
 77
     0
 78
     0
  0
ENDTAB
  0
TABLE
  2
LTYPE
  5
3
100
AcDbSymbolTable
 70
     9
  0
LTYPE
  5
C
100
AcDbSymbolTableRecord
100
AcDbLinetypeTableRecord
  2
BYBLOCK
 70
    64
  3

 72
    65
 73
     0
 40
0.0
  0
LTYPE
  5
D
100
AcDbSymbolTableRecord
100
AcDbLinetypeTableRecord
  2
BYLAYER
 70
    64
  3

 72
    65
 73
     0
 40
0.0
  0
LTYPE
  5
E
100
AcDbSymbolTableRecord
100
AcDbLinetypeTableRecord
  2
CONTINUOUS
 70
     0
  3
Solid line
 72
    65
 73
     0
 40
0.0
  0
LTYPE
  5
F
100
AcDbSymbolTableRecord
100
AcDbLinetypeTableRecord
  2
DASHED
 70
     0
  3
__ __ __ __ __ __ __ __ __ __ __ __ __ __ __
 72
    65
 73
     2
 40
2.0
 49
1.2
 74
     0
 49
-0.8
 74
     0
  0
LTYPE
  5
10
100
AcDbSymbolTableRecord
100
AcDbLinetypeTableRecord
  2
CENTER
 70
     0
  3
____ _ ____ _ ____ _ ____ _ ____ _ ____ _ ____
 72
    65
 73
     4
 40
12.0
 49
9.0
 74
     0
 49
-1.0
 74
     0
 49
1.0
 74
     0
 49
-1.0
 74
     0
  0
LTYPE
  5
11
100
AcDbSymbolTableRecord
100
AcDbLinetypeTableRecord
  2
HIDDEN
 70
     0
  3
_ _ _ _ _ _ _ _ _ _ _ _ _ _ _ _ _ _ _ _ _ _ _
 72
    65
 73
     2
 40
3.2
 49
2.4
 74
     0
 49
-0.8
 74
     0
  0
LTYPE
  5
12
100
AcDbSymbolTableRecord
100
AcDbLinetypeTableRecord
  2
PHANTOM
 70
     0
  3
_____ _ _ _____ _ _ _____ _ _ _____ _ _ _____
 72
    65
 73
     6
 40
13.5
 49
9.0
 74
     0
 49
-1.0
 74
     0
 49
1.0
 74
     0
 49
-0.5
 74
     0
 49
1.0
 74
     0
 49
-1.0
 74
     0
  0
LTYPE
  5
13
100
AcDbSymbolTableRecord
100
AcDbLinetypeTableRecord
  2
DOT
 70
     0
  3
...............................................
 72
    65
 73
     2
 40
1.0
 49
0.5
 74
     0
 49
-0.5
 74
     0
  0
LTYPE
  5
14
100
AcDbSymbolTableRecord
100
AcDbLinetypeTableRecord
  2
DASHDOT
 70
     0
  3
__ . __ . __ . __ . __ . __ . __ . __ . __ . __
 72
    65
 73
     4
 40
8.0
 49
5.0
 74
     0
 49
-1.0
 74
     0
 49
1.0
 74
     0
 49
-1.0
 74
     0
  0
ENDTAB
  0
TABLE
  2
LAYER
  5
1
100
AcDbSymbolTable
 70
     7
  0
LAYER
  5
15
100
AcDbSymbolTableRecord
100
AcDbLayerTableRecord
  2
0
 70
     0
 62
     7
  6
CONTINUOUS
  0
LAYER
  5
16
100
AcDbSymbolTableRecord
100
AcDbLayerTableRecord
  2
1
 70
     0
 62
     7
  6
CONTINUOUS
  0
LAYER
  5
17
100
AcDbSymbolTableRecord
100
AcDbLayerTableRecord
  2
2
 70
     0
 62
     7
  6
CONTINUOUS
  0
LAYER
  5
18
100
AcDbSymbolTableRecord
100
AcDbLayerTableRecord
  2
3
 70
     0
 62
     7
  6
CONTINUOUS
  0
LAYER
  5
19
100
AcDbSymbolTableRecord
100
AcDbLayerTableRecord
  2
5
 70
     0
 62
     7
  6
CONTINUOUS
  0
LAYER
  5
1A
100
AcDbSymbolTableRecord
100
AcDbLayerTableRecord
  2
18
 70
     0
 62
     7
  6
CONTINUOUS
  0
LAYER
  5
1B
100
AcDbSymbolTableRecord
100
AcDbLayerTableRecord
  2
20
 70
     0
 62
     7
  6
CONTINUOUS
  0
ENDTAB
  0
TABLE
  2
STYLE
  5
2
100
AcDbSymbolTable
 70
     1
  0
STYLE
  5
1E
100
AcDbSymbolTableRecord
100
AcDbTextStyleTableRecord
  2
STANDARD
 70
    64
 40
0.0
 41
1.0
 50
0.0
 71
     0
 42
1.0
  3
txt
  4
BIGFONT
  0
ENDTAB
  0
TABLE
  2
VIEW
  5
4
100
AcDbSymbolTable
 70
     0
  0
ENDTAB
  0
TABLE
  2
UCS
  5
5
100
AcDbSymbolTable
 70
     0
  0
ENDTAB
  0
TABLE
  2
APPID
  5
7
100
AcDbSymbolTable
 70
     1
  0
APPID
  5
1D
100
AcDbSymbolTableRecord
100
AcDbRegAppTableRecord
  2
ACAD
 70
     0
  0
ENDTAB
  0
TABLE
  2
DIMSTYLE
  5
8
100
AcDbSymbolTable
 70
     1
  0
DIMSTYLE
105
31
100
AcDbSymbolTableRecord
100
AcDbDimStyleTableRecord
  2
STANDARD
 70
     0
  3

  4

  5

  6

  7

 40
6.0
 41
0.18
 42
0.0625
 43
0.38
 44
0.18
 45
0.0
 46
0.0
 47
0.0
 48
0.0
 71
     0
 72
     0
 73
     1
 74
     1
 75
     0
 76
     0
 77
     1
 78
     0
140
0.18
141
0.09
142
0.0
143
25.4
144
1.0
145
0.0
146
1.0
147
0.09
170
     0
171
     2
172
     0
173
     0
174
     0
175
     0
176
     0
177
     0
178
     0
270
     2
271
     4
272
     4
273
     2
274
     2
275
     0
280
     0
281
     0
282
     0
283
     1
284
     0
285
     0
286
     0
287
     3
288
     0
340
1E
  0
ENDTAB
  0
TABLE
  2
BLOCK_RECORD
  5
2C
100
AcDbSymbolTable
 70
    11
  0
BLOCK_RECORD
  5
2A
100
AcDbSymbolTableRecord
100
AcDbBlockTableRecord
  2
*MODEL_SPACE
  0
BLOCK_RECORD
  5
2B
100
AcDbSymbolTableRecord
100
AcDbBlockTableRecord
  2
*PAPER_SPACE
  0
BLOCK_RECORD
  5
1F
100
AcDbSymbolTableRecord
100
AcDbBlockTableRecord
  2
*D0
  0
BLOCK_RECORD
  5
20
100
AcDbSymbolTableRecord
100
AcDbBlockTableRecord
  2
*D1
  0
BLOCK_RECORD
  5
21
100
AcDbSymbolTableRecord
100
AcDbBlockTableRecord
  2
*D2
  0
BLOCK_RECORD
  5
22
100
AcDbSymbolTableRecord
100
AcDbBlockTableRecord
  2
*D3
  0
BLOCK_RECORD
  5
23
100
AcDbSymbolTableRecord
100
AcDbBlockTableRecord
  2
*D4
  0
BLOCK_RECORD
  5
24
100
AcDbSymbolTableRecord
100
AcDbBlockTableRecord
  2
*D5
  0
BLOCK_RECORD
  5
25
100
AcDbSymbolTableRecord
100
AcDbBlockTableRecord
  2
*D6
  0
BLOCK_RECORD
  5
26
100
AcDbSymbolTableRecord
100
AcDbBlockTableRecord
  2
*D7
  0
BLOCK_RECORD
  5
27
100
AcDbSymbolTableRecord
100
AcDbBlockTableRecord
  2
*D8
  0
BLOCK_RECORD
  5
28
100
AcDbSymbolTableRecord
100
AcDbBlockTableRecord
  2
*D9
  0
BLOCK_RECORD
  5
29
100
AcDbSymbolTableRecord
100
AcDbBlockTableRecord
  2
*D10
  0
ENDTAB
  0
ENDSEC
  0
SECTION
  2
BLOCKS
  0
BLOCK
  5
2D
100
AcDbEntity
  8
0
100
AcDbBlockBegin
  2
*MODEL_SPACE
 70
     0
 10
0.0
 20
0.0
 30
0.0
  3
*MODEL_SPACE
  1

  0
ENDBLK
  5
2E
100
AcDbEntity
  8
0
100
AcDbBlockEnd
  0
BLOCK
  5
2F
100
AcDbEntity
 67
     1
  8
0
100
AcDbBlockBegin
  2
*PAPER_SPACE
 70
     0
 10
0.0
 20
0.0
 30
0.0
  3
*PAPER_SPACE
  1

  0
ENDBLK
  5
30
100
AcDbEntity
 67
     1
  8
0
100
AcDbBlockEnd
  0
BLOCK
  5
8F5
100
AcDbEntity
  8
5
100
AcDbBlockBegin
  2
*D0
 70
     1
 10
0.0
 20
0.0
 30
0.0
  3
*D0
  1

  0
TEXT
  5
8F6
100
AcDbEntity
  8
5
 62
     2
100
AcDbText
 10
-206.550545
 20
109.129036
 30
0.0
 40
19.8
  1
%%c200
 50
90.0
 41
1.4
 72
     5
 11
-206.550545
 21
159.025035
 31
0.0
100
AcDbText
  0
LINE
  5
8F7
100
AcDbEntity
  8
5
 62
     2
100
AcDbLine
 10
-128.720487
 20
236.849035
 30
0.0
 11
-209.550545
 21
236.849035
 31
0.0
  0
LINE
  5
8F8
100
AcDbEntity
  8
5
 62
     2
100
AcDbLine
 10
-203.550545
 20
236.849035
 30
0.0
 11
-206.656373
 21
225.257925
 31
0.0
  0
LINE
  5
8F9
100
AcDbEntity
  8
5
 62
     2
100
AcDbLine
 10
-203.550545
 20
236.849035
 30
0.0
 11
-200.444716
 21
225.257925
 31
0.0
  0
LINE
  5
8FA
100
AcDbEntity
  8
5
 62
     2
100
AcDbLine
 10
-206.656373
 20
225.257925
 30
0.0
 11
-200.444716
 21
225.257925
 31
0.0
  0
LINE
  5
8FB
100
AcDbEntity
  8
5
 62
     2
100
AcDbLine
 10
-203.550545
 20
236.849035
 30
0.0
 11
-203.550545
 21
36.849035
 31
0.0
  0
LINE
  5
8FC
100
AcDbEntity
  8
5
 62
     2
100
AcDbLine
 10
-203.550545
 20
36.849035
 30
0.0
 11
-200.444716
 21
48.440145
 31
0.0
  0
LINE
  5
8FD
100
AcDbEntity
  8
5
 62
     2
100
AcDbLine
 10
-203.550545
 20
36.849035
 30
0.0
 11
-206.656373
 21
48.440145
 31
0.0
  0
LINE
  5
8FE
100
AcDbEntity
  8
5
 62
     2
100
AcDbLine
 10
-200.444716
 20
48.440145
 30
0.0
 11
-206.656373
 21
48.440145
 31
0.0
  0
LINE
  5
8FF
100
AcDbEntity
  8
5
 62
     2
100
AcDbLine
 10
-128.720487
 20
36.849035
 30
0.0
 11
-209.550545
 21
36.849035
 31
0.0
  0
ENDBLK
  5
900
100
AcDbEntity
  8
5
100
AcDbBlockEnd
  0
BLOCK
  5
901
100
AcDbEntity
  8
5
100
AcDbBlockBegin
  2
*D1
 70
     1
 10
0.0
 20
0.0
 30
0.0
  3
*D1
  1

  0
TEXT
  5
902
100
AcDbEntity
  8
5
 62
     2
100
AcDbText
 10
-530.618446
 20
750.525604
 30
0.0
 40
19.8
  1
165
 41
1.4
 72
     5
 11
-494.582447
 21
750.525604
 31
0.0
100
AcDbText
  0
LINE
  5
903
100
AcDbEntity
  8
5
 62
     2
100
AcDbLine
 10
-592.328446
 20
718.897562
 30
0.0
 11
-592.328446
 21
753.525604
 31
0.0
  0
LINE
  5
904
100
AcDbEntity
  8
5
 62
     2
100
AcDbLine
 10
-592.328446
 20
747.525604
 30
0.0
 11
-580.737336
 21
744.419776
 31
0.0
  0
LINE
  5
905
100
AcDbEntity
  8
5
 62
     2
100
AcDbLine
 10
-592.328446
 20
747.525604
 30
0.0
 11
-580.737336
 21
750.631433
 31
0.0
  0
LINE
  5
906
100
AcDbEntity
  8
5
 62
     2
100
AcDbLine
 10
-580.737336
 20
744.419776
 30
0.0
 11
-580.737336
 21
750.631433
 31
0.0
  0
LINE
  5
907
100
AcDbEntity
  8
5
 62
     2
100
AcDbLine
 10
-592.328446
 20
747.525604
 30
0.0
 11
-427.328446
 21
747.525604
 31
0.0
  0
LINE
  5
908
100
AcDbEntity
  8
5
 62
     2
100
AcDbLine
 10
-427.328446
 20
747.525604
 30
0.0
 11
-438.919556
 21
750.631433
 31
0.0
  0
LINE
  5
909
100
AcDbEntity
  8
5
 62
     2
100
AcDbLine
 10
-427.328446
 20
747.525604
 30
0.0
 11
-438.919556
 21
744.419776
 31
0.0
  0
LINE
  5
90A
100
AcDbEntity
  8
5
 62
     2
100
AcDbLine
 10
-438.919556
 20
750.631433
 30
0.0
 11
-438.919556
 21
744.419776
 31
0.0
  0
LINE
  5
90B
100
AcDbEntity
  8
5
 62
     2
100
AcDbLine
 10
-427.328446
 20
490.649035
 30
0.0
 11
-427.328446
 21
753.525604
 31
0.0
  0
ENDBLK
  5
90C
100
AcDbEntity
  8
5
100
AcDbBlockEnd
  0
BLOCK
  5
90D
100
AcDbEntity
  8
5
100
AcDbBlockBegin
  2
*D2
 70
     1
 10
0.0
 20
0.0
 30
0.0
  3
*D2
  1

  0
TEXT
  5
90E
100
AcDbEntity
  8
5
 62
     2
100
AcDbText
 10
-724.618446
 20
750.525604
 30
0.0
 40
19.8
  1
223
 41
1.4
 72
     5
 11
-688.582447
 21
750.525604
 31
0.0
100
AcDbText
  0
LINE
  5
90F
100
AcDbEntity
  8
5
 62
     2
100
AcDbLine
 10
-815.328446
 20
666.649035
 30
0.0
 11
-815.328446
 21
753.525604
 31
0.0
  0
LINE
  5
910
100
AcDbEntity
  8
5
 62
     2
100
AcDbLine
 10
-815.328446
 20
747.525604
 30
0.0
 11
-803.737336
 21
744.419776
 31
0.0
  0
LINE
  5
911
100
AcDbEntity
  8
5
 62
     2
100
AcDbLine
 10
-815.328446
 20
747.525604
 30
0.0
 11
-803.737336
 21
750.631433
 31
0.0
  0
LINE
  5
912
100
AcDbEntity
  8
5
 62
     2
100
AcDbLine
 10
-803.737336
 20
744.419776
 30
0.0
 11
-803.737336
 21
750.631433
 31
0.0
  0
LINE
  5
913
100
AcDbEntity
  8
5
 62
     2
100
AcDbLine
 10
-815.328446
 20
747.525604
 30
0.0
 11
-592.328446
 21
747.525604
 31
0.0
  0
LINE
  5
914
100
AcDbEntity
  8
5
 62
     2
100
AcDbLine
 10
-592.328446
 20
747.525604
 30
0.0
 11
-603.919556
 21
750.631433
 31
0.0
  0
LINE
  5
915
100
AcDbEntity
  8
5
 62
     2
100
AcDbLine
 10
-592.328446
 20
747.525604
 30
0.0
 11
-603.919556
 21
744.419776
 31
0.0
  0
LINE
  5
916
100
AcDbEntity
  8
5
 62
     2
100
AcDbLine
 10
-603.919556
 20
750.631433
 30
0.0
 11
-603.919556
 21
744.419776
 31
0.0
  0
LINE
  5
917
100
AcDbEntity
  8
5
 62
     2
100
AcDbLine
 10
-592.328446
 20
718.897562
 30
0.0
 11
-592.328446
 21
753.525604
 31
0.0
  0
ENDBLK
  5
918
100
AcDbEntity
  8
5
100
AcDbBlockEnd
  0
BLOCK
  5
919
100
AcDbEntity
  8
5
100
AcDbBlockBegin
  2
*D3
 70
     1
 10
0.0
 20
0.0
 30
0.0
  3
*D3
  1

  0
TEXT
  5
91A
100
AcDbEntity
  8
5
 62
     2
100
AcDbText
 10
309.278824
 20
-76.940964
 30
0.0
 40
19.8
  1
190
 50
90.0
 41
1.4
 72
     5
 11
309.278824
 21
-40.904965
 31
0.0
100
AcDbText
  0
LINE
  5
91B
100
AcDbEntity
  8
5
 62
     2
100
AcDbLine
 10
189.771554
 20
-151.150965
 30
0.0
 11
318.278824
 21
-151.150965
 31
0.0
  0
LINE
  5
91C
100
AcDbEntity
  8
5
 62
     2
100
AcDbLine
 10
312.278824
 20
-151.150965
 30
0.0
 11
315.384652
 21
-139.559855
 31
0.0
  0
LINE
  5
91D
100
AcDbEntity
  8
5
 62
     2
100
AcDbLine
 10
312.278824
 20
-151.150965
 30
0.0
 11
309.172995
 21
-139.559855
 31
0.0
  0
LINE
  5
91E
100
AcDbEntity
  8
5
 62
     2
100
AcDbLine
 10
315.384652
 20
-139.559855
 30
0.0
 11
309.172995
 21
-139.559855
 31
0.0
  0
LINE
  5
91F
100
AcDbEntity
  8
5
 62
     2
100
AcDbLine
 10
312.278824
 20
-151.150965
 30
0.0
 11
312.278824
 21
38.849035
 31
0.0
  0
LINE
  5
920
100
AcDbEntity
  8
5
 62
     2
100
AcDbLine
 10
312.278824
 20
38.849035
 30
0.0
 11
309.172995
 21
27.257925
 31
0.0
  0
LINE
  5
921
100
AcDbEntity
  8
5
 62
     2
100
AcDbLine
 10
312.278824
 20
38.849035
 30
0.0
 11
315.384652
 21
27.257925
 31
0.0
  0
LINE
  5
922
100
AcDbEntity
  8
5
 62
     2
100
AcDbLine
 10
309.172995
 20
27.257925
 30
0.0
 11
315.384652
 21
27.257925
 31
0.0
  0
LINE
  5
923
100
AcDbEntity
  8
5
 62
     2
100
AcDbLine
 10
202.271554
 20
38.849035
 30
0.0
 11
318.278824
 21
38.849035
 31
0.0
  0
ENDBLK
  5
924
100
AcDbEntity
  8
5
100
AcDbBlockEnd
  0
BLOCK
  5
925
100
AcDbEntity
  8
5
100
AcDbBlockBegin
  2
*D4
 70
     1
 10
0.0
 20
0.0
 30
0.0
  3
*D4
  1

  0
TEXT
  5
926
100
AcDbEntity
  8
5
 62
     2
100
AcDbText
 10
309.278824
 20
133.059036
 30
0.0
 40
19.8
  1
230
 50
90.0
 41
1.4
 72
     5
 11
309.278824
 21
169.095035
 31
0.0
100
AcDbText
  0
LINE
  5
927
100
AcDbEntity
  8
5
 62
     2
100
AcDbLine
 10
202.271554
 20
38.849035
 30
0.0
 11
318.278824
 21
38.849035
 31
0.0
  0
LINE
  5
928
100
AcDbEntity
  8
5
 62
     2
100
AcDbLine
 10
312.278824
 20
38.849035
 30
0.0
 11
315.384652
 21
50.440145
 31
0.0
  0
LINE
  5
929
100
AcDbEntity
  8
5
 62
     2
100
AcDbLine
 10
312.278824
 20
38.849035
 30
0.0
 11
309.172995
 21
50.440145
 31
0.0
  0
LINE
  5
92A
100
AcDbEntity
  8
5
 62
     2
100
AcDbLine
 10
315.384652
 20
50.440145
 30
0.0
 11
309.172995
 21
50.440145
 31
0.0
  0
LINE
  5
92B
100
AcDbEntity
  8
5
 62
     2
100
AcDbLine
 10
312.278824
 20
38.849035
 30
0.0
 11
312.278824
 21
268.849035
 31
0.0
  0
LINE
  5
92C
100
AcDbEntity
  8
5
 62
     2
100
AcDbLine
 10
312.278824
 20
268.849035
 30
0.0
 11
309.172995
 21
257.257925
 31
0.0
  0
LINE
  5
92D
100
AcDbEntity
  8
5
 62
     2
100
AcDbLine
 10
312.278824
 20
268.849035
 30
0.0
 11
315.384652
 21
257.257925
 31
0.0
  0
LINE
  5
92E
100
AcDbEntity
  8
5
 62
     2
100
AcDbLine
 10
309.172995
 20
257.257925
 30
0.0
 11
315.384652
 21
257.257925
 31
0.0
  0
LINE
  5
92F
100
AcDbEntity
  8
5
 62
     2
100
AcDbLine
 10
114.771554
 20
268.849035
 30
0.0
 11
318.278824
 21
268.849035
 31
0.0
  0
ENDBLK
  5
930
100
AcDbEntity
  8
5
100
AcDbBlockEnd
  0
BLOCK
  5
931
100
AcDbEntity
  8
5
100
AcDbBlockBegin
  2
*D5
 70
     1
 10
0.0
 20
0.0
 30
0.0
  3
*D5
  1

  0
TEXT
  5
932
100
AcDbEntity
  8
5
 62
     2
100
AcDbText
 10
309.278824
 20
-326.940964
 30
0.0
 40
19.8
  1
310
 50
90.0
 41
1.4
 72
     5
 11
309.278824
 21
-290.904965
 31
0.0
100
AcDbText
  0
LINE
  5
933
100
AcDbEntity
  8
5
 62
     2
100
AcDbLine
 10
195.892464
 20
-461.150965
 30
0.0
 11
318.278824
 21
-461.150965
 31
0.0
  0
LINE
  5
934
100
AcDbEntity
  8
5
 62
     2
100
AcDbLine
 10
312.278824
 20
-461.150965
 30
0.0
 11
315.384652
 21
-449.559855
 31
0.0
  0
LINE
  5
935
100
AcDbEntity
  8
5
 62
     2
100
AcDbLine
 10
312.278824
 20
-461.150965
 30
0.0
 11
309.172995
 21
-449.559855
 31
0.0
  0
LINE
  5
936
100
AcDbEntity
  8
5
 62
     2
100
AcDbLine
 10
315.384652
 20
-449.559855
 30
0.0
 11
309.172995
 21
-449.559855
 31
0.0
  0
LINE
  5
937
100
AcDbEntity
  8
5
 62
     2
100
AcDbLine
 10
312.278824
 20
-461.150965
 30
0.0
 11
312.278824
 21
-151.150965
 31
0.0
  0
LINE
  5
938
100
AcDbEntity
  8
5
 62
     2
100
AcDbLine
 10
312.278824
 20
-151.150965
 30
0.0
 11
309.172995
 21
-162.742075
 31
0.0
  0
LINE
  5
939
100
AcDbEntity
  8
5
 62
     2
100
AcDbLine
 10
312.278824
 20
-151.150965
 30
0.0
 11
315.384652
 21
-162.742075
 31
0.0
  0
LINE
  5
93A
100
AcDbEntity
  8
5
 62
     2
100
AcDbLine
 10
309.172995
 20
-162.742075
 30
0.0
 11
315.384652
 21
-162.742075
 31
0.0
  0
LINE
  5
93B
100
AcDbEntity
  8
5
 62
     2
100
AcDbLine
 10
189.771554
 20
-151.150965
 30
0.0
 11
318.278824
 21
-151.150965
 31
0.0
  0
ENDBLK
  5
93C
100
AcDbEntity
  8
5
100
AcDbBlockEnd
  0
BLOCK
  5
93D
100
AcDbEntity
  8
5
100
AcDbBlockBegin
  2
*D6
 70
     1
 10
0.0
 20
0.0
 30
0.0
  3
*D6
  1

  0
TEXT
  5
93E
100
AcDbEntity
  8
5
 62
     2
100
AcDbText
 10
309.278824
 20
-604.690964
 30
0.0
 40
19.8
  1
246
 50
90.0
 41
1.4
 72
     5
 11
309.278824
 21
-568.654965
 31
0.0
100
AcDbText
  0
LINE
  5
93F
100
AcDbEntity
  8
5
 62
     2
100
AcDbLine
 10
142.271554
 20
-706.650965
 30
0.0
 11
318.278824
 21
-706.650965
 31
0.0
  0
LINE
  5
940
100
AcDbEntity
  8
5
 62
     2
100
AcDbLine
 10
312.278824
 20
-706.650965
 30
0.0
 11
315.384652
 21
-695.059855
 31
0.0
  0
LINE
  5
941
100
AcDbEntity
  8
5
 62
     2
100
AcDbLine
 10
312.278824
 20
-706.650965
 30
0.0
 11
309.172995
 21
-695.059855
 31
0.0
  0
LINE
  5
942
100
AcDbEntity
  8
5
 62
     2
100
AcDbLine
 10
315.384652
 20
-695.059855
 30
0.0
 11
309.172995
 21
-695.059855
 31
0.0
  0
LINE
  5
943
100
AcDbEntity
  8
5
 62
     2
100
AcDbLine
 10
312.278824
 20
-706.650965
 30
0.0
 11
312.278824
 21
-461.150965
 31
0.0
  0
LINE
  5
944
100
AcDbEntity
  8
5
 62
     2
100
AcDbLine
 10
312.278824
 20
-461.150965
 30
0.0
 11
309.172995
 21
-472.742075
 31
0.0
  0
LINE
  5
945
100
AcDbEntity
  8
5
 62
     2
100
AcDbLine
 10
312.278824
 20
-461.150965
 30
0.0
 11
315.384652
 21
-472.742075
 31
0.0
  0
LINE
  5
946
100
AcDbEntity
  8
5
 62
     2
100
AcDbLine
 10
309.172995
 20
-472.742075
 30
0.0
 11
315.384652
 21
-472.742075
 31
0.0
  0
LINE
  5
947
100
AcDbEntity
  8
5
 62
     2
100
AcDbLine
 10
195.892464
 20
-461.150965
 30
0.0
 11
318.278824
 21
-461.150965
 31
0.0
  0
ENDBLK
  5
948
100
AcDbEntity
  8
5
100
AcDbBlockEnd
  0
BLOCK
  5
949
100
AcDbEntity
  8
5
100
AcDbBlockBegin
  2
*D7
 70
     1
 10
0.0
 20
0.0
 30
0.0
  3
*D7
  1

  0
TEXT
  5
94A
100
AcDbEntity
  8
5
 62
     2
100
AcDbText
 10
32.051554
 20
-749.473389
 30
0.0
 40
19.8
  1
34
 41
1.4
 72
     5
 11
54.227554
 21
-749.473389
 31
0.0
100
AcDbText
  0
LINE
  5
94B
100
AcDbEntity
  8
5
 62
     2
100
AcDbLine
 10
74.771554
 20
-651.150965
 30
0.0
 11
74.771554
 21
-758.473389
 31
0.0
  0
LINE
  5
94C
100
AcDbEntity
  8
5
 62
     2
100
AcDbLine
 10
74.771554
 20
-752.473389
 30
0.0
 11
63.180444
 21
-749.36756
 31
0.0
  0
LINE
  5
94D
100
AcDbEntity
  8
5
 62
     2
100
AcDbLine
 10
74.771554
 20
-752.473389
 30
0.0
 11
63.180444
 21
-755.579217
 31
0.0
  0
LINE
  5
94E
100
AcDbEntity
  8
5
 62
     2
100
AcDbLine
 10
63.180444
 20
-749.36756
 30
0.0
 11
63.180444
 21
-755.579217
 31
0.0
  0
LINE
  5
94F
100
AcDbEntity
  8
5
 62
     2
100
AcDbLine
 10
29.051554
 20
-752.473389
 30
0.0
 11
138.771554
 21
-752.473389
 31
0.0
  0
LINE
  5
950
100
AcDbEntity
  8
5
 62
     2
100
AcDbLine
 10
108.771554
 20
-752.473389
 30
0.0
 11
120.362664
 21
-755.579217
 31
0.0
  0
LINE
  5
951
100
AcDbEntity
  8
5
 62
     2
100
AcDbLine
 10
108.771554
 20
-752.473389
 30
0.0
 11
120.362664
 21
-749.36756
 31
0.0
  0
LINE
  5
952
100
AcDbEntity
  8
5
 62
     2
100
AcDbLine
 10
120.362664
 20
-755.579217
 30
0.0
 11
120.362664
 21
-749.36756
 31
0.0
  0
LINE
  5
953
100
AcDbEntity
  8
5
 62
     2
100
AcDbLine
 10
108.771554
 20
-739.493906
 30
0.0
 11
108.771554
 21
-758.473389
 31
0.0
  0
ENDBLK
  5
954
100
AcDbEntity
  8
5
100
AcDbBlockEnd
  0
BLOCK
  5
955
100
AcDbEntity
  8
5
100
AcDbBlockBegin
  2
*D8
 70
     1
 10
0.0
 20
0.0
 30
0.0
  3
*D8
  1

  0
TEXT
  5
956
100
AcDbEntity
  8
5
 62
     2
100
AcDbText
 10
100.911554
 20
-796.449463
 30
0.0
 40
19.8
  1
80
 41
1.4
 72
     5
 11
123.087554
 21
-796.449463
 31
0.0
100
AcDbText
  0
LINE
  5
957
100
AcDbEntity
  8
5
 62
     2
100
AcDbLine
 10
74.771554
 20
-651.150965
 30
0.0
 11
74.771554
 21
-805.449463
 31
0.0
  0
LINE
  5
958
100
AcDbEntity
  8
5
 62
     2
100
AcDbLine
 10
74.771554
 20
-799.449463
 30
0.0
 11
86.362664
 21
-802.555291
 31
0.0
  0
LINE
  5
959
100
AcDbEntity
  8
5
 62
     2
100
AcDbLine
 10
74.771554
 20
-799.449463
 30
0.0
 11
86.362664
 21
-796.343634
 31
0.0
  0
LINE
  5
95A
100
AcDbEntity
  8
5
 62
     2
100
AcDbLine
 10
86.362664
 20
-802.555291
 30
0.0
 11
86.362664
 21
-796.343634
 31
0.0
  0
LINE
  5
95B
100
AcDbEntity
  8
5
 62
     2
100
AcDbLine
 10
74.771554
 20
-799.449463
 30
0.0
 11
154.771554
 21
-799.449463
 31
0.0
  0
LINE
  5
95C
100
AcDbEntity
  8
5
 62
     2
100
AcDbLine
 10
154.771554
 20
-799.449463
 30
0.0
 11
143.180444
 21
-796.343634
 31
0.0
  0
LINE
  5
95D
100
AcDbEntity
  8
5
 62
     2
100
AcDbLine
 10
154.771554
 20
-799.449463
 30
0.0
 11
143.180444
 21
-802.555291
 31
0.0
  0
LINE
  5
95E
100
AcDbEntity
  8
5
 62
     2
100
AcDbLine
 10
143.180444
 20
-796.343634
 30
0.0
 11
143.180444
 21
-802.555291
 31
0.0
  0
LINE
  5
95F
100
AcDbEntity
  8
5
 62
     2
100
AcDbLine
 10
154.771554
 20
-651.150965
 30
0.0
 11
154.771554
 21
-805.449463
 31
0.0
  0
ENDBLK
  5
960
100
AcDbEntity
  8
5
100
AcDbBlockEnd
  0
BLOCK
  5
961
100
AcDbEntity
  8
5
100
AcDbBlockBegin
  2
*D9
 70
     1
 10
0.0
 20
0.0
 30
0.0
  3
*D9
  1

  0
TEXT
  5
962
100
AcDbEntity
  8
5
 62
     2
100
AcDbText
 10
-312.322151
 20
622.859036
 30
0.0
 40
19.8
  1
136
 50
90.0
 41
1.4
 72
     5
 11
-312.322151
 21
658.895035
 31
0.0
100
AcDbText
  0
LINE
  5
963
100
AcDbEntity
  8
5
 62
     2
100
AcDbLine
 10
-343.880097
 20
575.649035
 30
0.0
 11
-303.322151
 21
575.649035
 31
0.0
  0
LINE
  5
964
100
AcDbEntity
  8
5
 62
     2
100
AcDbLine
 10
-309.322151
 20
575.649035
 30
0.0
 11
-306.216323
 21
587.240145
 31
0.0
  0
LINE
  5
965
100
AcDbEntity
  8
5
 62
     2
100
AcDbLine
 10
-309.322151
 20
575.649035
 30
0.0
 11
-312.42798
 21
587.240145
 31
0.0
  0
LINE
  5
966
100
AcDbEntity
  8
5
 62
     2
100
AcDbLine
 10
-306.216323
 20
587.240145
 30
0.0
 11
-312.42798
 21
587.240145
 31
0.0
  0
LINE
  5
967
100
AcDbEntity
  8
5
 62
     2
100
AcDbLine
 10
-309.322151
 20
575.649035
 30
0.0
 11
-309.322151
 21
711.649035
 31
0.0
  0
LINE
  5
968
100
AcDbEntity
  8
5
 62
     2
100
AcDbLine
 10
-309.322151
 20
711.649035
 30
0.0
 11
-312.42798
 21
700.057925
 31
0.0
  0
LINE
  5
969
100
AcDbEntity
  8
5
 62
     2
100
AcDbLine
 10
-309.322151
 20
711.649035
 30
0.0
 11
-306.216323
 21
700.057925
 31
0.0
  0
LINE
  5
96A
100
AcDbEntity
  8
5
 62
     2
100
AcDbLine
 10
-312.42798
 20
700.057925
 30
0.0
 11
-306.216323
 21
700.057925
 31
0.0
  0
LINE
  5
96B
100
AcDbEntity
  8
5
 62
     2
100
AcDbLine
 10
-529.410946
 20
711.649035
 30
0.0
 11
-303.322151
 21
711.649035
 31
0.0
  0
ENDBLK
  5
96C
100
AcDbEntity
  8
5
100
AcDbBlockEnd
  0
BLOCK
  5
96D
100
AcDbEntity
  8
5
100
AcDbBlockBegin
  2
*D10
 70
     1
 10
0.0
 20
0.0
 30
0.0
  3
*D10
  1

  0
TEXT
  5
96E
100
AcDbEntity
  8
5
 62
     2
100
AcDbText
 10
-312.322151
 20
418.249036
 30
0.0
 40
19.8
  1
245.5
 50
90.0
 41
1.4
 72
     5
 11
-312.322151
 21
482.005035
 31
0.0
100
AcDbText
  0
LINE
  5
96F
100
AcDbEntity
  8
5
 62
     2
100
AcDbLine
 10
-453.273357
 20
330.149035
 30
0.0
 11
-303.322151
 21
330.149035
 31
0.0
  0
LINE
  5
970
100
AcDbEntity
  8
5
 62
     2
100
AcDbLine
 10
-309.322151
 20
330.149035
 30
0.0
 11
-306.216323
 21
341.740145
 31
0.0
  0
LINE
  5
971
100
AcDbEntity
  8
5
 62
     2
100
AcDbLine
 10
-309.322151
 20
330.149035
 30
0.0
 11
-312.42798
 21
341.740145
 31
0.0
  0
LINE
  5
972
100
AcDbEntity
  8
5
 62
     2
100
AcDbLine
 10
-306.216323
 20
341.740145
 30
0.0
 11
-312.42798
 21
341.740145
 31
0.0
  0
LINE
  5
973
100
AcDbEntity
  8
5
 62
     2
100
AcDbLine
 10
-309.322151
 20
330.149035
 30
0.0
 11
-309.322151
 21
575.649035
 31
0.0
  0
LINE
  5
974
100
AcDbEntity
  8
5
 62
     2
100
AcDbLine
 10
-309.322151
 20
575.649035
 30
0.0
 11
-312.42798
 21
564.057925
 31
0.0
  0
LINE
  5
975
100
AcDbEntity
  8
5
 62
     2
100
AcDbLine
 10
-309.322151
 20
575.649035
 30
0.0
 11
-306.216323
 21
564.057925
 31
0.0
  0
LINE
  5
976
100
AcDbEntity
  8
5
 62
     2
100
AcDbLine
 10
-312.42798
 20
564.057925
 30
0.0
 11
-306.216323
 21
564.057925
 31
0.0
  0
LINE
  5
977
100
AcDbEntity
  8
5
 62
     2
100
AcDbLine
 10
-343.880097
 20
575.649035
 30
0.0
 11
-303.322151
 21
575.649035
 31
0.0
  0
ENDBLK
  5
978
100
AcDbEntity
  8
5
100
AcDbBlockEnd
  0
ENDSEC
  0
SECTION
  2
ENTITIES
  0
LINE
  5
32
100
AcDbEntity
  8
1
  6
CENTER
 62
     2
100
AcDbLine
 10
108.771554
 20
287.242957
 30
0.0
 11
108.771554
 21
-733.493906
 31
0.0
  0
LINE
  5
33
100
AcDbEntity
  8
1
  6
CENTER
 62
     2
100
AcDbLine
 10
-592.328446
 20
287.242957
 30
0.0
 11
-592.328446
 21
-718.978876
 31
0.0
  0
LINE
  5
34
100
AcDbEntity
  8
1
  6
CENTER
 62
     2
100
AcDbLine
 10
-641.828446
 20
-123.320961
 30
0.0
 11
-641.828446
 21
-183.78293
 31
0.0
  0
LINE
  5
35
100
AcDbEntity
  8
1
  6
CENTER
 62
     2
100
AcDbLine
 10
-542.828446
 20
-123.320961
 30
0.0
 11
-542.828446
 21
-183.78293
 31
0.0
  0
LINE
  5
36
100
AcDbEntity
  8
1
  6
DASHED
100
AcDbLine
 10
-634.528446
 20
645.649035
 30
0.0
 11
-550.128446
 21
645.649035
 31
0.0
  0
LINE
  5
37
100
AcDbEntity
  8
1
  6
DASHED
100
AcDbLine
 10
-634.528446
 20
505.649035
 30
0.0
 11
-550.128446
 21
505.649035
 31
0.0
  0
LINE
  5
38
100
AcDbEntity
  8
1
  6
DASHED
100
AcDbLine
 10
-662.328446
 20
533.449035
 30
0.0
 11
-662.328446
 21
617.849035
 31
0.0
  0
LINE
  5
39
100
AcDbEntity
  8
1
  6
DASHED
100
AcDbLine
 10
-522.328446
 20
533.449035
 30
0.0
 11
-522.328446
 21
617.849035
 31
0.0
  0
ARC
  5
3A
100
AcDbEntity
  8
1
  6
DASHED
100
AcDbCircle
 10
-634.528446
 20
617.849035
 30
0.0
 40
27.8
100
AcDbArc
 50
90.0
 51
180.0
  0
ARC
  5
3B
100
AcDbEntity
  8
1
  6
DASHED
100
AcDbCircle
 10
-634.528446
 20
533.449035
 30
0.0
 40
27.8
100
AcDbArc
 50
180.0
 51
270.0
  0
ARC
  5
3C
100
AcDbEntity
  8
1
  6
DASHED
100
AcDbCircle
 10
-550.128446
 20
533.449035
 30
0.0
 40
27.8
100
AcDbArc
 50
270.0
 51
0.0
  0
ARC
  5
3D
100
AcDbEntity
  8
1
  6
DASHED
100
AcDbCircle
 10
-550.128446
 20
617.849035
 30
0.0
 40
27.8
100
AcDbArc
 50
360.0
 51
90.0
  0
CIRCLE
  5
3E
100
AcDbEntity
  8
1
  6
DASHED
100
AcDbCircle
 10
-542.828446
 20
625.149035
 30
0.0
 40
9.5
  0
CIRCLE
  5
3F
100
AcDbEntity
  8
1
  6
DASHED
100
AcDbCircle
 10
-641.828446
 20
625.149035
 30
0.0
 40
9.5
  0
CIRCLE
  5
40
100
AcDbEntity
  8
1
  6
DASHED
100
AcDbCircle
 10
-641.828446
 20
526.149035
 30
0.0
 40
9.5
  0
CIRCLE
  5
41
100
AcDbEntity
  8
1
  6
DASHED
100
AcDbCircle
 10
-542.828446
 20
526.149035
 30
0.0
 40
9.5
  0
LINE
  5
42
100
AcDbEntity
  8
1
  6
CENTER
 62
     2
100
AcDbLine
 10
-560.696165
 20
625.149035
 30
0.0
 11
-526.181577
 21
625.149035
 31
0.0
  0
LINE
  5
43
100
AcDbEntity
  8
1
  6
CENTER
 62
     2
100
AcDbLine
 10
-542.828446
 20
607.716845
 30
0.0
 11
-542.828446
 21
641.742694
 31
0.0
  0
LINE
  5
44
100
AcDbEntity
  8
1
  6
CENTER
 62
     2
100
AcDbLine
 10
-658.949552
 20
625.149035
 30
0.0
 11
-625.190702
 21
625.149035
 31
0.0
  0
LINE
  5
45
100
AcDbEntity
  8
1
  6
CENTER
 62
     2
100
AcDbLine
 10
-641.828446
 20
607.716845
 30
0.0
 11
-641.828446
 21
641.742694
 31
0.0
  0
LINE
  5
46
100
AcDbEntity
  8
1
  6
CENTER
 62
     2
100
AcDbLine
 10
-658.949552
 20
526.149035
 30
0.0
 11
-625.190702
 21
526.149035
 31
0.0
  0
LINE
  5
47
100
AcDbEntity
  8
1
  6
CENTER
 62
     2
100
AcDbLine
 10
-641.828446
 20
509.672015
 30
0.0
 11
-641.828446
 21
543.193743
 31
0.0
  0
LINE
  5
48
100
AcDbEntity
  8
1
  6
CENTER
 62
     2
100
AcDbLine
 10
-560.696165
 20
526.149035
 30
0.0
 11
-526.181577
 21
526.149035
 31
0.0
  0
LINE
  5
49
100
AcDbEntity
  8
1
  6
CENTER
 62
     2
100
AcDbLine
 10
-542.828446
 20
509.672015
 30
0.0
 11
-542.828446
 21
543.193743
 31
0.0
  0
LINE
  5
4A
100
AcDbEntity
  8
1
  6
CENTER
 62
     2
100
AcDbLine
 10
158.271554
 20
-133.819956
 30
0.0
 11
158.271554
 21
-183.78293
 31
0.0
  0
LINE
  5
4B
100
AcDbEntity
  8
1
  6
CENTER
 62
     2
100
AcDbLine
 10
59.271554
 20
-133.819956
 30
0.0
 11
59.271554
 21
-183.78293
 31
0.0
  0
LINE
  5
4C
100
AcDbEntity
  8
1
  6
CENTER
 62
     2
100
AcDbLine
 10
-594.828446
 20
-733.493906
 30
0.0
 11
-594.828446
 21
-159.219095
 31
0.0
  0
LINE
  5
4D
100
AcDbEntity
  8
1
  6
CENTER
 62
     2
100
AcDbLine
 10
-594.828446
 20
492.229144
 30
0.0
 11
-594.828446
 21
657.375293
 31
0.0
  0
LINE
  5
4E
100
AcDbEntity
  8
1
  6
CENTER
 62
     2
100
AcDbLine
 10
-842.665894
 20
575.649035
 30
0.0
 11
-349.880097
 21
575.649035
 31
0.0
  0
LINE
  5
4F
100
AcDbEntity
  8
1
  6
CENTER
 62
     2
100
AcDbLine
 10
-349.880097
 20
-461.150965
 30
0.0
 11
-842.665894
 21
-461.150965
 31
0.0
  0
LINE
  5
50
100
AcDbEntity
  8
1
  6
CENTER
 62
     2
100
AcDbLine
 10
34.545785
 20
-461.150965
 30
0.0
 11
189.892464
 21
-461.150965
 31
0.0
  0
CIRCLE
  5
51
100
AcDbEntity
  8
1
100
AcDbCircle
 10
-594.828446
 20
-461.150965
 30
0.0
 40
184.0
  0
LINE
  5
52
100
AcDbEntity
  8
1
100
AcDbLine
 10
-564.828446
 20
-691.150965
 30
0.0
 11
-624.828446
 21
-691.150965
 31
0.0
  0
LINE
  5
53
100
AcDbEntity
  8
1
100
AcDbLine
 10
-527.328446
 20
-169.150965
 30
0.0
 11
-657.328446
 21
-169.150965
 31
0.0
  0
LINE
  5
54
100
AcDbEntity
  8
1
100
AcDbLine
 10
-662.328446
 20
-164.150965
 30
0.0
 11
-662.328446
 21
-151.150965
 31
0.0
  0
LINE
  5
55
100
AcDbEntity
  8
1
100
AcDbLine
 10
-522.328446
 20
-164.150965
 30
0.0
 11
-522.328446
 21
-151.150965
 31
0.0
  0
ARC
  5
56
100
AcDbEntity
  8
1
100
AcDbCircle
 10
-527.328446
 20
-164.150965
 30
0.0
 40
5.0
100
AcDbArc
 50
270.0
 51
360.0
  0
ARC
  5
57
100
AcDbEntity
  8
1
100
AcDbCircle
 10
-657.328446
 20
-164.150965
 30
0.0
 40
5.0
100
AcDbArc
 50
180.0
 51
270.0
  0
LINE
  5
58
100
AcDbEntity
  8
1
100
AcDbLine
 10
-373.871505
 20
-444.058537
 30
0.0
 11
-401.125105
 21
-449.372792
 31
0.0
  0
LINE
  5
59
100
AcDbEntity
  8
1
100
AcDbLine
 10
-373.871505
 20
-478.243393
 30
0.0
 11
-401.125105
 21
-472.929138
 31
0.0
  0
LINE
  5
5A
100
AcDbEntity
  8
1
100
AcDbLine
 10
-815.785387
 20
-444.058537
 30
0.0
 11
-788.531788
 21
-449.372792
 31
0.0
  0
LINE
  5
5B
100
AcDbEntity
  8
1
100
AcDbLine
 10
-815.785387
 20
-478.243393
 30
0.0
 11
-788.531788
 21
-472.929138
 31
0.0
  0
LINE
  5
5C
100
AcDbEntity
  8
1
100
AcDbLine
 10
-814.828446
 20
-434.150965
 30
0.0
 11
-786.909159
 21
-434.150965
 31
0.0
  0
LINE
  5
5D
100
AcDbEntity
  8
1
100
AcDbLine
 10
-402.747734
 20
-434.150965
 30
0.0
 11
-374.828446
 21
-434.150965
 31
0.0
  0
LINE
  5
5E
100
AcDbEntity
  8
1
100
AcDbLine
 10
-814.828446
 20
-488.150965
 30
0.0
 11
-786.909159
 21
-488.150965
 31
0.0
  0
LINE
  5
5F
100
AcDbEntity
  8
1
100
AcDbLine
 10
-402.747734
 20
-488.150965
 30
0.0
 11
-374.828446
 21
-488.150965
 31
0.0
  0
ARC
  5
60
100
AcDbEntity
  8
1
100
AcDbCircle
 10
-398.828446
 20
-461.150965
 30
0.0
 40
12.0
100
AcDbArc
 50
101.03381
 51
258.96619
  0
ARC
  5
61
100
AcDbEntity
  8
1
100
AcDbCircle
 10
-374.828446
 20
-439.150965
 30
0.0
 40
5.0
100
AcDbArc
 50
281.03381
 51
90.0
  0
ARC
  5
62
100
AcDbEntity
  8
1
100
AcDbCircle
 10
-374.828446
 20
-483.150965
 30
0.0
 40
5.0
100
AcDbArc
 50
270.0
 51
78.96619
  0
ARC
  5
63
100
AcDbEntity
  8
1
100
AcDbCircle
 10
-814.828446
 20
-483.150965
 30
0.0
 40
5.0
100
AcDbArc
 50
101.03381
 51
270.0
  0
ARC
  5
64
100
AcDbEntity
  8
1
100
AcDbCircle
 10
-790.828446
 20
-461.150965
 30
0.0
 40
12.0
100
AcDbArc
 50
281.03381
 51
78.96619
  0
ARC
  5
65
100
AcDbEntity
  8
1
100
AcDbCircle
 10
-814.828446
 20
-439.150965
 30
0.0
 40
5.0
100
AcDbArc
 50
90.0
 51
258.96619
  0
ARC
  5
66
100
AcDbEntity
  8
1
100
AcDbCircle
 10
-402.747734
 20
-422.150965
 30
0.0
 40
12.0
100
AcDbArc
 50
191.477295
 51
270.0
  0
ARC
  5
67
100
AcDbEntity
  8
1
100
AcDbCircle
 10
-402.747734
 20
-500.150965
 30
0.0
 40
12.0
100
AcDbArc
 50
90.0
 51
168.522705
  0
ARC
  5
68
100
AcDbEntity
  8
1
100
AcDbCircle
 10
-786.909159
 20
-500.150965
 30
0.0
 40
12.0
100
AcDbArc
 50
11.477295
 51
90.0
  0
ARC
  5
69
100
AcDbEntity
  8
1
100
AcDbCircle
 10
-786.909159
 20
-422.150965
 30
0.0
 40
12.0
100
AcDbArc
 50
270.0
 51
348.522705
  0
LINE
  5
6A
100
AcDbEntity
  8
1
100
AcDbLine
 10
-799.828446
 20
-372.150965
 30
0.0
 11
-762.801659
 21
-372.150965
 31
0.0
  0
LINE
  5
6B
100
AcDbEntity
  8
1
100
AcDbLine
 10
-426.855234
 20
-372.150965
 30
0.0
 11
-389.828446
 21
-372.150965
 31
0.0
  0
LINE
  5
6C
100
AcDbEntity
  8
1
100
AcDbLine
 10
-799.828446
 20
-550.150965
 30
0.0
 11
-762.801659
 21
-550.150965
 31
0.0
  0
LINE
  5
6D
100
AcDbEntity
  8
1
100
AcDbLine
 10
-426.855234
 20
-550.150965
 30
0.0
 11
-389.828446
 21
-550.150965
 31
0.0
  0
ARC
  5
6E
100
AcDbEntity
  8
1
100
AcDbCircle
 10
-426.855234
 20
-360.150965
 30
0.0
 40
12.0
100
AcDbArc
 50
211.017919
 51
270.0
  0
ARC
  5
6F
100
AcDbEntity
  8
1
100
AcDbCircle
 10
-762.801659
 20
-360.150965
 30
0.0
 40
12.0
100
AcDbArc
 50
270.0
 51
328.982081
  0
ARC
  5
70
100
AcDbEntity
  8
1
100
AcDbCircle
 10
-762.801659
 20
-562.150965
 30
0.0
 40
12.0
100
AcDbArc
 50
31.017919
 51
90.0
  0
ARC
  5
71
100
AcDbEntity
  8
1
100
AcDbCircle
 10
-426.855234
 20
-562.150965
 30
0.0
 40
12.0
100
AcDbArc
 50
90.0
 51
148.982081
  0
ARC
  5
72
100
AcDbEntity
  8
1
100
AcDbCircle
 10
-389.828446
 20
-382.150965
 30
0.0
 40
10.0
100
AcDbArc
 50
290.263338
 51
90.0
  0
ARC
  5
73
100
AcDbEntity
  8
1
100
AcDbCircle
 10
-406.47291
 20
-410.681251
 30
0.0
 40
11.0
100
AcDbArc
 50
110.263338
 51
195.0
  0
LINE
  5
74
100
AcDbEntity
  8
1
100
AcDbLine
 10
-410.2826
 20
-400.362033
 30
0.0
 11
-405.81355
 21
-398.712131
 31
0.0
  0
LINE
  5
75
100
AcDbEntity
  8
1
100
AcDbLine
 10
-396.068545
 20
-395.114431
 30
0.0
 11
-386.365092
 21
-391.532072
 31
0.0
  0
ARC
  5
76
100
AcDbEntity
  8
1
100
AcDbCircle
 10
-396.813652
 20
-408.093061
 30
0.0
 40
13.0
100
AcDbArc
 50
86.714237
 51
133.812439
  0
ARC
  5
77
100
AcDbEntity
  8
1
100
AcDbCircle
 10
-389.828446
 20
-540.150965
 30
0.0
 40
10.0
100
AcDbArc
 50
270.0
 51
69.736662
  0
ARC
  5
78
100
AcDbEntity
  8
1
100
AcDbCircle
 10
-406.47291
 20
-511.620679
 30
0.0
 40
11.0
100
AcDbArc
 50
165.0
 51
249.736662
  0
LINE
  5
79
100
AcDbEntity
  8
1
100
AcDbLine
 10
-410.2826
 20
-521.939897
 30
0.0
 11
-405.81355
 21
-523.589798
 31
0.0
  0
LINE
  5
7A
100
AcDbEntity
  8
1
100
AcDbLine
 10
-396.068545
 20
-527.187498
 30
0.0
 11
-386.365092
 21
-530.769857
 31
0.0
  0
ARC
  5
7B
100
AcDbEntity
  8
1
100
AcDbCircle
 10
-396.813652
 20
-514.208869
 30
0.0
 40
13.0
100
AcDbArc
 50
226.187561
 51
273.285763
  0
ARC
  5
7C
100
AcDbEntity
  8
1
100
AcDbCircle
 10
-799.828446
 20
-540.150965
 30
0.0
 40
10.0
100
AcDbArc
 50
110.263338
 51
270.0
  0
ARC
  5
7D
100
AcDbEntity
  8
1
100
AcDbCircle
 10
-783.183982
 20
-511.620679
 30
0.0
 40
11.0
100
AcDbArc
 50
290.263338
 51
15.0
  0
ARC
  5
7E
100
AcDbEntity
  8
1
100
AcDbCircle
 10
-792.843241
 20
-514.208869
 30
0.0
 40
13.0
100
AcDbArc
 50
266.714237
 51
313.812439
  0
LINE
  5
7F
100
AcDbEntity
  8
1
100
AcDbLine
 10
-803.291801
 20
-530.769857
 30
0.0
 11
-793.588348
 21
-527.187498
 31
0.0
  0
LINE
  5
80
100
AcDbEntity
  8
1
100
AcDbLine
 10
-783.843343
 20
-523.589798
 30
0.0
 11
-779.374293
 21
-521.939897
 31
0.0
  0
ARC
  5
81
100
AcDbEntity
  8
1
100
AcDbCircle
 10
-799.828446
 20
-382.150965
 30
0.0
 40
10.0
100
AcDbArc
 50
90.0
 51
249.736662
  0
ARC
  5
82
100
AcDbEntity
  8
1
100
AcDbCircle
 10
-792.843241
 20
-408.093061
 30
0.0
 40
13.0
100
AcDbArc
 50
46.187561
 51
93.285763
  0
ARC
  5
83
100
AcDbEntity
  8
1
100
AcDbCircle
 10
-783.183982
 20
-410.681251
 30
0.0
 40
11.0
100
AcDbArc
 50
345.0
 51
69.736662
  0
LINE
  5
84
100
AcDbEntity
  8
1
100
AcDbLine
 10
-803.291801
 20
-391.532072
 30
0.0
 11
-793.588348
 21
-395.114431
 31
0.0
  0
LINE
  5
85
100
AcDbEntity
  8
1
100
AcDbLine
 10
-783.843343
 20
-398.712131
 30
0.0
 11
-779.374293
 21
-400.362033
 31
0.0
  0
LINE
  5
86
100
AcDbEntity
  8
1
100
AcDbLine
 10
-626.828446
 20
-228.312812
 30
0.0
 11
-626.828446
 21
-179.150965
 31
0.0
  0
LINE
  5
87
100
AcDbEntity
  8
1
100
AcDbLine
 10
-562.828446
 20
-228.312812
 30
0.0
 11
-562.828446
 21
-179.150965
 31
0.0
  0
ARC
  5
88
100
AcDbEntity
  8
1
100
AcDbCircle
 10
-552.828446
 20
-179.150965
 30
0.0
 40
10.0
100
AcDbArc
 50
90.0
 51
180.0
  0
ARC
  5
89
100
AcDbEntity
  8
1
100
AcDbCircle
 10
-636.828446
 20
-179.150965
 30
0.0
 40
10.0
100
AcDbArc
 50
0.0
 51
90.0
  0
ARC
  5
8A
100
AcDbEntity
  8
1
100
AcDbCircle
 10
-552.828446
 20
-198.066767
 30
0.0
 40
10.0
100
AcDbArc
 50
180.0
 51
270.0
  0
ARC
  5
8B
100
AcDbEntity
  8
1
100
AcDbCircle
 10
-552.828446
 20
-216.066767
 30
0.0
 40
8.0
100
AcDbArc
 50
274.763105
 51
90.0
  0
ARC
  5
8C
100
AcDbEntity
  8
1
100
AcDbCircle
 10
-636.828446
 20
-216.066767
 30
0.0
 40
8.0
100
AcDbArc
 50
90.0
 51
265.236895
  0
ARC
  5
8D
100
AcDbEntity
  8
1
100
AcDbCircle
 10
-636.828446
 20
-198.066767
 30
0.0
 40
10.0
100
AcDbArc
 50
270.0
 51
360.0
  0
LINE
  5
8E
100
AcDbEntity
  8
1
100
AcDbLine
 10
-566.835579
 20
-239.983884
 30
0.0
 11
-566.835579
 21
-244.772664
 31
0.0
  0
LINE
  5
8F
100
AcDbEntity
  8
1
100
AcDbLine
 10
-622.821314
 20
-239.983884
 30
0.0
 11
-622.821314
 21
-244.772664
 31
0.0
  0
ARC
  5
90
100
AcDbEntity
  8
1
100
AcDbCircle
 10
-550.835579
 20
-239.983884
 30
0.0
 40
16.0
100
AcDbArc
 50
94.763105
 51
180.0
  0
ARC
  5
91
100
AcDbEntity
  8
1
100
AcDbCircle
 10
-638.821314
 20
-239.983884
 30
0.0
 40
16.0
100
AcDbArc
 50
0.0
 51
85.236895
  0
ARC
  5
92
100
AcDbEntity
  8
1
100
AcDbCircle
 10
-552.884027
 20
-250.282129
 30
0.0
 40
15.0
100
AcDbArc
 50
158.450945
 51
205.619898
  0
ARC
  5
93
100
AcDbEntity
  8
1
100
AcDbCircle
 10
-636.772866
 20
-250.282129
 30
0.0
 40
15.0
100
AcDbArc
 50
334.380102
 51
21.549055
  0
ARC
  5
94
100
AcDbEntity
  8
1
100
AcDbCircle
 10
-555.810382
 20
-264.993909
 30
0.0
 40
12.0
100
AcDbArc
 50
152.489795
 51
257.931204
  0
ARC
  5
95
100
AcDbEntity
  8
1
100
AcDbCircle
 10
-633.846511
 20
-264.993909
 30
0.0
 40
12.0
100
AcDbArc
 50
282.068796
 51
27.510205
  0
ARC
  5
96
100
AcDbEntity
  8
1
100
AcDbCircle
 10
-560.828446
 20
-288.463443
 30
0.0
 40
12.0
100
AcDbArc
 50
41.742421
 51
77.931204
  0
ARC
  5
97
100
AcDbEntity
  8
1
100
AcDbCircle
 10
-628.828446
 20
-288.463443
 30
0.0
 40
12.0
100
AcDbArc
 50
102.068796
 51
138.257579
  0
ARC
  5
98
100
AcDbEntity
  8
1
100
AcDbCircle
 10
-544.413247
 20
-273.816217
 30
0.0
 40
10.0
100
AcDbArc
 50
221.742421
 51
254.937523
  0
ARC
  5
99
100
AcDbEntity
  8
1
100
AcDbCircle
 10
-645.243646
 20
-273.816217
 30
0.0
 40
10.0
100
AcDbArc
 50
285.062477
 51
318.257579
  0
ARC
  5
9A
100
AcDbEntity
  8
1
100
AcDbCircle
 10
-569.114311
 20
-258.06531
 30
0.0
 40
3.0
100
AcDbArc
 50
332.489795
 51
25.619898
  0
ARC
  5
9B
100
AcDbEntity
  8
1
100
AcDbCircle
 10
-620.542582
 20
-258.06531
 30
0.0
 40
3.0
100
AcDbArc
 50
154.380102
 51
207.510205
  0
ARC
  5
9C
100
AcDbEntity
  8
1
100
AcDbCircle
 10
-565.828446
 20
-228.312812
 30
0.0
 40
3.0
100
AcDbArc
 50
322.101325
 51
360.0
  0
ARC
  5
9D
100
AcDbEntity
  8
1
100
AcDbCircle
 10
-623.828446
 20
-228.312812
 30
0.0
 40
3.0
100
AcDbArc
 50
180.0
 51
217.898675
  0
LINE
  5
9E
100
AcDbEntity
  8
1
100
AcDbLine
 10
-623.328446
 20
-691.150965
 30
0.0
 11
-623.328446
 21
-678.671686
 31
0.0
  0
LINE
  5
9F
100
AcDbEntity
  8
1
100
AcDbLine
 10
-566.328446
 20
-691.150965
 30
0.0
 11
-566.328446
 21
-678.671686
 31
0.0
  0
ARC
  5
A0
100
AcDbEntity
  8
1
100
AcDbCircle
 10
-552.884027
 20
-672.0198
 30
0.0
 40
15.0
100
AcDbArc
 50
154.380102
 51
206.324794
  0
ARC
  5
A1
100
AcDbEntity
  8
1
100
AcDbCircle
 10
-555.810382
 20
-657.308021
 30
0.0
 40
12.0
100
AcDbArc
 50
102.068796
 51
207.510205
  0
ARC
  5
A2
100
AcDbEntity
  8
1
100
AcDbCircle
 10
-560.828446
 20
-633.838487
 30
0.0
 40
12.0
100
AcDbArc
 50
282.068796
 51
318.257579
  0
ARC
  5
A3
100
AcDbEntity
  8
1
100
AcDbCircle
 10
-569.114311
 20
-664.23662
 30
0.0
 40
3.0
100
AcDbArc
 50
334.380102
 51
27.510205
  0
ARC
  5
A4
100
AcDbEntity
  8
1
100
AcDbCircle
 10
-636.772866
 20
-672.0198
 30
0.0
 40
15.0
100
AcDbArc
 50
333.675206
 51
25.619898
  0
ARC
  5
A5
100
AcDbEntity
  8
1
100
AcDbCircle
 10
-633.846511
 20
-657.308021
 30
0.0
 40
12.0
100
AcDbArc
 50
332.489795
 51
77.931204
  0
ARC
  5
A6
100
AcDbEntity
  8
1
100
AcDbCircle
 10
-620.542582
 20
-664.23662
 30
0.0
 40
3.0
100
AcDbArc
 50
152.489795
 51
205.619898
  0
ARC
  5
A7
100
AcDbEntity
  8
1
100
AcDbCircle
 10
-544.413247
 20
-648.485712
 30
0.0
 40
10.0
100
AcDbArc
 50
105.062477
 51
138.257579
  0
ARC
  5
A8
100
AcDbEntity
  8
1
100
AcDbCircle
 10
-628.828446
 20
-633.838487
 30
0.0
 40
12.0
100
AcDbArc
 50
221.742421
 51
257.931204
  0
ARC
  5
A9
100
AcDbEntity
  8
1
100
AcDbCircle
 10
-645.243646
 20
-648.485712
 30
0.0
 40
10.0
100
AcDbArc
 50
41.742421
 51
74.937523
  0
LINE
  5
AA
100
AcDbEntity
  8
1
  6
CENTER
 62
     2
100
AcDbLine
 10
-615.828446
 20
-714.334223
 30
0.0
 11
-615.828446
 21
-679.579645
 31
0.0
  0
LINE
  5
AB
100
AcDbEntity
  8
1
  6
CENTER
 62
     2
100
AcDbLine
 10
-573.828446
 20
-714.334223
 30
0.0
 11
-573.828446
 21
-679.579645
 31
0.0
  0
LINE
  5
AC
100
AcDbEntity
  8
1
100
AcDbLine
 10
154.771554
 20
-277.150965
 30
0.0
 11
154.771554
 21
-645.150965
 31
0.0
  0
LINE
  5
AD
100
AcDbEntity
  8
1
100
AcDbLine
 10
74.771554
 20
-277.150965
 30
0.0
 11
74.771554
 21
-645.150965
 31
0.0
  0
LINE
  5
AE
100
AcDbEntity
  8
1
100
AcDbLine
 10
152.771554
 20
-277.150965
 30
0.0
 11
154.771554
 21
-277.150965
 31
0.0
  0
LINE
  5
AF
100
AcDbEntity
  8
1
100
AcDbLine
 10
150.771554
 20
-645.150965
 30
0.0
 11
154.771554
 21
-645.150965
 31
0.0
  0
LINE
  5
B0
100
AcDbEntity
  8
1
  6
DASHED
100
AcDbLine
 10
-778.828446
 20
621.649035
 30
0.0
 11
-662.06751
 21
621.649035
 31
0.0
  0
LINE
  5
B1
100
AcDbEntity
  8
1
  6
DASHED
100
AcDbLine
 10
-778.828446
 20
541.649035
 30
0.0
 11
-662.328446
 21
541.649035
 31
0.0
  0
LINE
  5
B2
100
AcDbEntity
  8
1
  6
DASHED
100
AcDbLine
 10
-767.552545
 20
568.873864
 30
0.0
 11
-767.552545
 21
584.424206
 31
0.0
  0
LINE
  5
B3
100
AcDbEntity
  8
1
  6
DASHED
100
AcDbLine
 10
-778.295065
 20
561.649035
 30
0.0
 11
-778.295065
 21
591.649035
 31
0.0
  0
LINE
  5
B4
100
AcDbEntity
  8
1
  6
DASHED
100
AcDbLine
 10
-778.295065
 20
591.649035
 30
0.0
 11
-770.948072
 21
589.159781
 31
0.0
  0
LINE
  5
B5
100
AcDbEntity
  8
1
  6
DASHED
100
AcDbLine
 10
-770.948072
 20
564.13829
 30
0.0
 11
-774.899538
 21
562.799483
 31
0.0
  0
ARC
  5
B6
100
AcDbEntity
  8
1
  6
DASHED
100
AcDbCircle
 10
-772.552545
 20
584.424206
 30
0.0
 40
5.0
100
AcDbArc
 50
0.0
 51
71.282965
  0
ARC
  5
B7
100
AcDbEntity
  8
1
  6
DASHED
100
AcDbCircle
 10
-772.552545
 20
568.873864
 30
0.0
 40
5.0
100
AcDbArc
 50
288.717035
 51
360.0
  0
ARC
  5
B8
100
AcDbEntity
  8
1
  6
DASHED
100
AcDbCircle
 10
-773.295065
 20
558.063908
 30
0.0
 40
5.0
100
AcDbArc
 50
108.717035
 51
180.0
  0
LINE
  5
B9
100
AcDbEntity
  8
1
  6
DASHED
100
AcDbLine
 10
-774.899538
 20
561.649035
 30
0.0
 11
-662.328446
 21
561.649035
 31
0.0
  0
LINE
  5
BA
100
AcDbEntity
  8
1
  6
DASHED
100
AcDbLine
 10
-662.328446
 20
588.009333
 30
0.0
 11
-767.552545
 21
588.009333
 31
0.0
  0
LINE
  5
BB
100
AcDbEntity
  8
1
  6
DASHED
100
AcDbLine
 10
-662.328446
 20
565.288738
 30
0.0
 11
-767.552545
 21
565.288738
 31
0.0
  0
LINE
  5
BC
100
AcDbEntity
  8
1
  6
DASHED
100
AcDbLine
 10
-778.828446
 20
541.649035
 30
0.0
 11
-778.828446
 21
591.649035
 31
0.0
  0
LINE
  5
BD
100
AcDbEntity
  8
1
  6
DASHED
100
AcDbLine
 10
-778.828446
 20
613.649035
 30
0.0
 11
-778.828446
 21
621.649035
 31
0.0
  0
LINE
  5
BE
100
AcDbEntity
  8
1
  6
DASHED
100
AcDbLine
 10
-774.899538
 20
591.649035
 30
0.0
 11
-772.558798
 21
591.649035
 31
0.0
  0
LINE
  5
BF
100
AcDbEntity
  8
1
  6
DASHED
100
AcDbLine
 10
-752.517584
 20
591.649035
 30
0.0
 11
-662.328446
 21
591.649035
 31
0.0
  0
LINE
  5
C0
100
AcDbEntity
  8
1
100
AcDbLine
 10
-819.828446
 20
605.566183
 30
0.0
 11
-819.828446
 21
611.149035
 31
0.0
  0
ARC
  5
C1
100
AcDbEntity
  8
1
100
AcDbCircle
 10
-817.328446
 20
611.149035
 30
0.0
 40
2.5
100
AcDbArc
 50
90.0
 51
180.0
  0
ARC
  5
C2
100
AcDbEntity
  8
1
  6
DASHED
100
AcDbCircle
 10
-779.149115
 20
617.649035
 30
0.0
 40
4.0
100
AcDbArc
 50
270.0
 51
360.0
  0
ARC
  5
C3
100
AcDbEntity
  8
1
100
AcDbCircle
 10
-817.328446
 20
605.566183
 30
0.0
 40
2.5
100
AcDbArc
 50
180.0
 51
254.966254
  0
LINE
  5
C4
100
AcDbEntity
  8
1
  6
DASHED
100
AcDbLine
 10
-775.149115
 20
591.649035
 30
0.0
 11
-775.149115
 21
593.20922
 31
0.0
  0
ARC
  5
C5
100
AcDbEntity
  8
1
  6
DASHED
100
AcDbCircle
 10
-779.203446
 20
591.649035
 30
0.0
 40
0.375
100
AcDbArc
 50
0.0
 51
74.008
  0
LINE
  5
C6
100
AcDbEntity
  8
1
  6
DASHED
100
AcDbLine
 10
-809.828446
 20
605.679789
 30
0.0
 11
-809.828446
 21
611.149035
 31
0.0
  0
LINE
  5
C7
100
AcDbEntity
  8
1
  6
DASHED
100
AcDbLine
 10
-752.517584
 20
591.649035
 30
0.0
 11
-752.517584
 21
613.649035
 31
0.0
  0
ARC
  5
C8
100
AcDbEntity
  8
1
  6
DASHED
100
AcDbCircle
 10
-807.328446
 20
611.149035
 30
0.0
 40
2.5
100
AcDbArc
 50
90.0
 51
180.0
  0
LINE
  5
C9
100
AcDbEntity
  8
1
  6
DASHED
100
AcDbLine
 10
-752.517584
 20
591.649035
 30
0.0
 11
-807.840797
 21
603.232852
 31
0.0
  0
ARC
  5
CA
100
AcDbEntity
  8
1
  6
DASHED
100
AcDbCircle
 10
-807.328446
 20
605.679789
 30
0.0
 40
2.5
100
AcDbArc
 50
180.0
 51
258.174007
  0
ARC
  5
CB
100
AcDbEntity
  8
1
  6
DASHED
100
AcDbCircle
 10
-756.517584
 20
617.649035
 30
0.0
 40
4.0
100
AcDbArc
 50
270.0
 51
360.0
  0
LINE
  5
CC
100
AcDbEntity
  8
1
  6
DASHED
100
AcDbLine
 10
-808.06058
 20
603.289395
 30
0.0
 11
-772.449032
 21
592.382234
 31
0.0
  0
ARC
  5
CD
100
AcDbEntity
  8
1
  6
DASHED
100
AcDbCircle
 10
-772.558798
 20
592.023851
 30
0.0
 40
0.374816
100
AcDbArc
 50
270.0
 51
72.971138
  0
LINE
  5
CE
100
AcDbEntity
  8
1
100
AcDbLine
 10
-422.104348
 20
568.873864
 30
0.0
 11
-422.104348
 21
584.424206
 31
0.0
  0
LINE
  5
CF
100
AcDbEntity
  8
1
100
AcDbLine
 10
-411.361828
 20
561.649035
 30
0.0
 11
-411.361828
 21
591.649035
 31
0.0
  0
LINE
  5
D0
100
AcDbEntity
  8
1
100
AcDbLine
 10
-411.361828
 20
591.649035
 30
0.0
 11
-418.708821
 21
589.159781
 31
0.0
  0
LINE
  5
D1
100
AcDbEntity
  8
1
100
AcDbLine
 10
-418.708821
 20
564.13829
 30
0.0
 11
-414.757355
 21
562.799483
 31
0.0
  0
ARC
  5
D2
100
AcDbEntity
  8
1
100
AcDbCircle
 10
-417.104348
 20
584.424206
 30
0.0
 40
5.0
100
AcDbArc
 50
108.717035
 51
180.0
  0
ARC
  5
D3
100
AcDbEntity
  8
1
100
AcDbCircle
 10
-417.104348
 20
568.873864
 30
0.0
 40
5.0
100
AcDbArc
 50
180.0
 51
251.282965
  0
ARC
  5
D4
100
AcDbEntity
  8
1
100
AcDbCircle
 10
-416.361828
 20
558.063908
 30
0.0
 40
5.0
100
AcDbArc
 50
360.0
 51
71.282965
  0
LINE
  5
D5
100
AcDbEntity
  8
1
100
AcDbLine
 10
-410.828446
 20
541.649035
 30
0.0
 11
-410.828446
 21
591.649035
 31
0.0
  0
LINE
  5
D6
100
AcDbEntity
  8
1
100
AcDbLine
 10
-410.828446
 20
613.649035
 30
0.0
 11
-410.828446
 21
621.649035
 31
0.0
  0
LINE
  5
D7
100
AcDbEntity
  8
1
100
AcDbLine
 10
-414.757355
 20
591.649035
 30
0.0
 11
-417.098094
 21
591.649035
 31
0.0
  0
LINE
  5
D8
100
AcDbEntity
  8
1
100
AcDbLine
 10
-369.828446
 20
605.566183
 30
0.0
 11
-369.828446
 21
611.149035
 31
0.0
  0
ARC
  5
D9
100
AcDbEntity
  8
1
100
AcDbCircle
 10
-372.328446
 20
611.149035
 30
0.0
 40
2.5
100
AcDbArc
 50
360.0
 51
90.0
  0
ARC
  5
DA
100
AcDbEntity
  8
1
100
AcDbCircle
 10
-410.507778
 20
617.649035
 30
0.0
 40
4.0
100
AcDbArc
 50
180.0
 51
270.0
  0
LINE
  5
DB
100
AcDbEntity
  8
1
100
AcDbLine
 10
-414.507778
 20
591.649035
 30
0.0
 11
-371.679977
 21
603.15175
 31
0.0
  0
ARC
  5
DC
100
AcDbEntity
  8
1
100
AcDbCircle
 10
-372.328446
 20
605.566183
 30
0.0
 40
2.5
100
AcDbArc
 50
285.033746
 51
360.0
  0
LINE
  5
DD
100
AcDbEntity
  8
1
100
AcDbLine
 10
-414.507778
 20
591.649035
 30
0.0
 11
-414.507778
 21
593.20922
 31
0.0
  0
LINE
  5
DE
100
AcDbEntity
  8
1
100
AcDbLine
 10
-371.639689
 20
603.162933
 30
0.0
 11
-410.55676
 21
592.009523
 31
0.0
  0
ARC
  5
DF
100
AcDbEntity
  8
1
100
AcDbCircle
 10
-410.453446
 20
591.649035
 30
0.0
 40
0.375
100
AcDbArc
 50
105.992
 51
180.0
  0
LINE
  5
E0
100
AcDbEntity
  8
1
100
AcDbLine
 10
-379.828446
 20
605.679789
 30
0.0
 11
-379.828446
 21
611.149035
 31
0.0
  0
LINE
  5
E1
100
AcDbEntity
  8
1
100
AcDbLine
 10
-437.139308
 20
591.649035
 30
0.0
 11
-437.139308
 21
613.649035
 31
0.0
  0
LINE
  5
E2
100
AcDbEntity
  8
1
100
AcDbLine
 10
-372.328446
 20
613.649035
 30
0.0
 11
-433.139308
 21
613.649035
 31
0.0
  0
ARC
  5
E3
100
AcDbEntity
  8
1
100
AcDbCircle
 10
-382.328446
 20
611.149035
 30
0.0
 40
2.5
100
AcDbArc
 50
360.0
 51
90.0
  0
LINE
  5
E4
100
AcDbEntity
  8
1
100
AcDbLine
 10
-437.139308
 20
591.649035
 30
0.0
 11
-381.816096
 21
603.232852
 31
0.0
  0
ARC
  5
E5
100
AcDbEntity
  8
1
100
AcDbCircle
 10
-382.328446
 20
605.679789
 30
0.0
 40
2.5
100
AcDbArc
 50
281.825993
 51
360.0
  0
ARC
  5
E6
100
AcDbEntity
  8
1
100
AcDbCircle
 10
-433.139308
 20
617.649035
 30
0.0
 40
4.0
100
AcDbArc
 50
180.0
 51
270.0
  0
LINE
  5
E7
100
AcDbEntity
  8
1
100
AcDbLine
 10
-381.596313
 20
603.289395
 30
0.0
 11
-417.20786
 21
592.382234
 31
0.0
  0
ARC
  5
E8
100
AcDbEntity
  8
1
100
AcDbCircle
 10
-417.098094
 20
592.023851
 30
0.0
 40
0.374816
100
AcDbArc
 50
107.028862
 51
270.0
  0
LINE
  5
E9
100
AcDbEntity
  8
1
100
AcDbLine
 10
105.411256
 20
-440.117998
 30
0.0
 11
114.131851
 21
-440.117998
 31
0.0
  0
LINE
  5
EA
100
AcDbEntity
  8
1
100
AcDbLine
 10
105.411256
 20
-482.183932
 30
0.0
 11
114.131851
 21
-482.183932
 31
0.0
  0
LINE
  5
EB
100
AcDbEntity
  8
1
100
AcDbLine
 10
102.771554
 20
-447.150965
 30
0.0
 11
116.771554
 21
-447.150965
 31
0.0
  0
LINE
  5
EC
100
AcDbEntity
  8
1
100
AcDbLine
 10
102.771554
 20
-475.150965
 30
0.0
 11
116.771554
 21
-475.150965
 31
0.0
  0
ARC
  5
ED
100
AcDbEntity
  8
1
100
AcDbCircle
 10
116.771554
 20
-439.150965
 30
0.0
 40
8.0
100
AcDbArc
 50
270.0
 51
360.0
  0
ARC
  5
EE
100
AcDbEntity
  8
1
100
AcDbCircle
 10
102.771554
 20
-439.150965
 30
0.0
 40
8.0
100
AcDbArc
 50
180.0
 51
270.0
  0
ARC
  5
EF
100
AcDbEntity
  8
1
100
AcDbCircle
 10
102.771554
 20
-483.150965
 30
0.0
 40
8.0
100
AcDbArc
 50
90.0
 51
180.0
  0
ARC
  5
F0
100
AcDbEntity
  8
1
100
AcDbCircle
 10
116.771554
 20
-483.150965
 30
0.0
 40
8.0
100
AcDbArc
 50
0.0
 51
90.0
  0
ARC
  5
F1
100
AcDbEntity
  8
1
100
AcDbCircle
 10
114.131851
 20
-489.183932
 30
0.0
 40
7.0
100
AcDbArc
 50
0.0
 51
90.0
  0
ARC
  5
F2
100
AcDbEntity
  8
1
100
AcDbCircle
 10
105.411256
 20
-489.183932
 30
0.0
 40
7.0
100
AcDbArc
 50
90.0
 51
180.0
  0
ARC
  5
F3
100
AcDbEntity
  8
1
100
AcDbCircle
 10
105.411256
 20
-433.117998
 30
0.0
 40
7.0
100
AcDbArc
 50
180.0
 51
270.0
  0
ARC
  5
F4
100
AcDbEntity
  8
1
100
AcDbCircle
 10
114.131851
 20
-433.117998
 30
0.0
 40
7.0
100
AcDbArc
 50
270.0
 51
360.0
  0
LINE
  5
F5
100
AcDbEntity
  8
1
100
AcDbLine
 10
121.131851
 20
-440.117998
 30
0.0
 11
122.183953
 21
-442.150965
 31
0.0
  0
LINE
  5
F6
100
AcDbEntity
  8
1
100
AcDbLine
 10
98.411256
 20
-440.117998
 30
0.0
 11
97.359155
 21
-442.150965
 31
0.0
  0
LINE
  5
F7
100
AcDbEntity
  8
1
100
AcDbLine
 10
121.131851
 20
-482.183932
 30
0.0
 11
122.183953
 21
-480.150965
 31
0.0
  0
LINE
  5
F8
100
AcDbEntity
  8
1
100
AcDbLine
 10
98.411256
 20
-482.183932
 30
0.0
 11
97.359155
 21
-480.150965
 31
0.0
  0
LINE
  5
F9
100
AcDbEntity
  8
1
100
AcDbLine
 10
121.131851
 20
-626.94432
 30
0.0
 11
121.131851
 21
-489.183932
 31
0.0
  0
LINE
  5
FA
100
AcDbEntity
  8
1
100
AcDbLine
 10
121.131851
 20
-433.117998
 30
0.0
 11
121.131851
 21
-295.35761
 31
0.0
  0
LINE
  5
FB
100
AcDbEntity
  8
1
100
AcDbLine
 10
98.411256
 20
-626.94432
 30
0.0
 11
98.411256
 21
-489.183932
 31
0.0
  0
LINE
  5
FC
100
AcDbEntity
  8
1
100
AcDbLine
 10
98.411256
 20
-433.117998
 30
0.0
 11
98.411256
 21
-295.35761
 31
0.0
  0
LINE
  5
FD
100
AcDbEntity
  8
1
100
AcDbLine
 10
94.771554
 20
-636.067747
 30
0.0
 11
94.771554
 21
-483.150965
 31
0.0
  0
LINE
  5
FE
100
AcDbEntity
  8
1
100
AcDbLine
 10
94.771554
 20
-439.150965
 30
0.0
 11
94.771554
 21
-286.234183
 31
0.0
  0
LINE
  5
FF
100
AcDbEntity
  8
1
100
AcDbLine
 10
102.183744
 20
-295.35761
 30
0.0
 11
117.359364
 21
-295.35761
 31
0.0
  0
LINE
  5
100
100
AcDbEntity
  8
1
100
AcDbLine
 10
102.183744
 20
-626.94432
 30
0.0
 11
117.359364
 21
-626.94432
 31
0.0
  0
LINE
  5
101
100
AcDbEntity
  8
1
100
AcDbLine
 10
123.736078
 20
-286.234183
 30
0.0
 11
122.167327
 21
-291.730014
 31
0.0
  0
LINE
  5
102
100
AcDbEntity
  8
1
100
AcDbLine
 10
95.807029
 20
-286.234183
 30
0.0
 11
97.375781
 21
-291.730014
 31
0.0
  0
LINE
  5
103
100
AcDbEntity
  8
1
100
AcDbLine
 10
122.167327
 20
-630.571916
 30
0.0
 11
123.736078
 21
-636.067747
 31
0.0
  0
LINE
  5
104
100
AcDbEntity
  8
1
100
AcDbLine
 10
97.375781
 20
-630.571916
 30
0.0
 11
95.807029
 21
-636.067747
 31
0.0
  0
LINE
  5
105
100
AcDbEntity
  8
1
100
AcDbLine
 10
124.771554
 20
-366.334638
 30
0.0
 11
124.771554
 21
-286.234183
 31
0.0
  0
LINE
  5
106
100
AcDbEntity
  8
1
100
AcDbLine
 10
124.771554
 20
-454.566689
 30
0.0
 11
124.771554
 21
-439.150965
 31
0.0
  0
LINE
  5
107
100
AcDbEntity
  8
1
100
AcDbLine
 10
124.771554
 20
-424.53872
 30
0.0
 11
124.771554
 21
-413.52826
 31
0.0
  0
LINE
  5
108
100
AcDbEntity
  8
1
100
AcDbLine
 10
124.771554
 20
-555.967291
 30
0.0
 11
124.771554
 21
-636.067747
 31
0.0
  0
LINE
  5
109
100
AcDbEntity
  8
1
100
AcDbLine
 10
124.771554
 20
-467.735241
 30
0.0
 11
124.771554
 21
-483.150965
 31
0.0
  0
LINE
  5
10A
100
AcDbEntity
  8
1
100
AcDbLine
 10
124.771554
 20
-497.76321
 30
0.0
 11
124.771554
 21
-508.773669
 31
0.0
  0
LINE
  5
10B
100
AcDbEntity
  8
1
100
AcDbLine
 10
127.928687
 20
-366.334638
 30
0.0
 11
146.771554
 21
-366.334638
 31
0.0
  0
LINE
  5
10C
100
AcDbEntity
  8
1
100
AcDbLine
 10
125.301405
 20
-413.52826
 30
0.0
 11
146.771554
 21
-413.52826
 31
0.0
  0
LINE
  5
10D
100
AcDbEntity
  8
1
100
AcDbLine
 10
139.271554
 20
-391.532072
 30
0.0
 11
144.271554
 21
-391.532072
 31
0.0
  0
LINE
  5
10E
100
AcDbEntity
  8
1
100
AcDbLine
 10
146.771554
 20
-457.150965
 30
0.0
 11
146.771554
 21
-428.53872
 31
0.0
  0
LINE
  5
10F
100
AcDbEntity
  8
1
100
AcDbLine
 10
146.771554
 20
-409.52826
 30
0.0
 11
146.771554
 21
-370.334638
 31
0.0
  0
LINE
  5
110
100
AcDbEntity
  8
1
100
AcDbLine
 10
136.771554
 20
-441.558537
 30
0.0
 11
136.771554
 21
-436.650965
 31
0.0
  0
LINE
  5
111
100
AcDbEntity
  8
1
100
AcDbLine
 10
136.771554
 20
-389.032072
 30
0.0
 11
136.771554
 21
-374.650965
 31
0.0
  0
ARC
  5
112
100
AcDbEntity
  8
1
100
AcDbCircle
 10
144.271554
 20
-374.650965
 30
0.0
 40
2.5
100
AcDbArc
 50
0.0
 51
90.0
  0
ARC
  5
113
100
AcDbEntity
  8
1
100
AcDbCircle
 10
139.271554
 20
-374.650965
 30
0.0
 40
2.5
100
AcDbArc
 50
90.0
 51
180.0
  0
ARC
  5
114
100
AcDbEntity
  8
1
100
AcDbCircle
 10
139.271554
 20
-389.032072
 30
0.0
 40
2.5
100
AcDbArc
 50
180.0
 51
270.0
  0
ARC
  5
115
100
AcDbEntity
  8
1
100
AcDbCircle
 10
144.271554
 20
-389.032072
 30
0.0
 40
2.5
100
AcDbArc
 50
270.0
 51
360.0
  0
ARC
  5
116
100
AcDbEntity
  8
1
100
AcDbCircle
 10
150.771554
 20
-370.334638
 30
0.0
 40
4.0
100
AcDbArc
 50
90.0
 51
180.0
  0
ARC
  5
117
100
AcDbEntity
  8
1
100
AcDbCircle
 10
150.771554
 20
-409.52826
 30
0.0
 40
4.0
100
AcDbArc
 50
180.0
 51
270.0
  0
LINE
  5
118
100
AcDbEntity
  8
1
100
AcDbLine
 10
136.771554
 20
-391.532072
 30
0.0
 11
125.301405
 21
-411.538771
 31
0.0
  0
ARC
  5
119
100
AcDbEntity
  8
1
100
AcDbCircle
 10
128.771554
 20
-413.52826
 30
0.0
 40
4.0
100
AcDbArc
 50
150.173688
 51
180.0
  0
LINE
  5
11A
100
AcDbEntity
  8
1
100
AcDbLine
 10
127.928687
 20
-555.967291
 30
0.0
 11
146.771554
 21
-555.967291
 31
0.0
  0
LINE
  5
11B
100
AcDbEntity
  8
1
100
AcDbLine
 10
125.301405
 20
-508.773669
 30
0.0
 11
146.771554
 21
-508.773669
 31
0.0
  0
LINE
  5
11C
100
AcDbEntity
  8
1
100
AcDbLine
 10
139.271554
 20
-530.769857
 30
0.0
 11
144.271554
 21
-530.769857
 31
0.0
  0
LINE
  5
11D
100
AcDbEntity
  8
1
100
AcDbLine
 10
146.771554
 20
-465.150965
 30
0.0
 11
146.771554
 21
-493.76321
 31
0.0
  0
LINE
  5
11E
100
AcDbEntity
  8
1
100
AcDbLine
 10
146.771554
 20
-512.773669
 30
0.0
 11
146.771554
 21
-551.967291
 31
0.0
  0
LINE
  5
11F
100
AcDbEntity
  8
1
100
AcDbLine
 10
136.771554
 20
-480.743393
 30
0.0
 11
136.771554
 21
-485.650965
 31
0.0
  0
LINE
  5
120
100
AcDbEntity
  8
1
100
AcDbLine
 10
136.771554
 20
-533.269857
 30
0.0
 11
136.771554
 21
-547.650965
 31
0.0
  0
ARC
  5
121
100
AcDbEntity
  8
1
100
AcDbCircle
 10
144.271554
 20
-547.650965
 30
0.0
 40
2.5
100
AcDbArc
 50
270.0
 51
0.0
  0
ARC
  5
122
100
AcDbEntity
  8
1
100
AcDbCircle
 10
139.271554
 20
-547.650965
 30
0.0
 40
2.5
100
AcDbArc
 50
180.0
 51
270.0
  0
ARC
  5
123
100
AcDbEntity
  8
1
100
AcDbCircle
 10
139.271554
 20
-533.269857
 30
0.0
 40
2.5
100
AcDbArc
 50
90.0
 51
180.0
  0
ARC
  5
124
100
AcDbEntity
  8
1
100
AcDbCircle
 10
144.271554
 20
-533.269857
 30
0.0
 40
2.5
100
AcDbArc
 50
0.0
 51
90.0
  0
ARC
  5
125
100
AcDbEntity
  8
1
100
AcDbCircle
 10
150.771554
 20
-551.967291
 30
0.0
 40
4.0
100
AcDbArc
 50
180.0
 51
270.0
  0
ARC
  5
126
100
AcDbEntity
  8
1
100
AcDbCircle
 10
150.771554
 20
-512.773669
 30
0.0
 40
4.0
100
AcDbArc
 50
90.0
 51
180.0
  0
LINE
  5
127
100
AcDbEntity
  8
1
100
AcDbLine
 10
136.771554
 20
-530.769857
 30
0.0
 11
125.301405
 21
-510.763159
 31
0.0
  0
ARC
  5
128
100
AcDbEntity
  8
1
100
AcDbCircle
 10
128.771554
 20
-508.773669
 30
0.0
 40
4.0
100
AcDbArc
 50
180.0
 51
209.826312
  0
LINE
  5
129
100
AcDbEntity
  8
1
100
AcDbLine
 10
126.677013
 20
-424.53872
 30
0.0
 11
146.771554
 21
-424.53872
 31
0.0
  0
LINE
  5
12A
100
AcDbEntity
  8
1
100
AcDbLine
 10
139.271554
 20
-444.058537
 30
0.0
 11
144.271554
 21
-444.058537
 31
0.0
  0
ARC
  5
12B
100
AcDbEntity
  8
1
100
AcDbCircle
 10
144.271554
 20
-436.650965
 30
0.0
 40
2.5
100
AcDbArc
 50
0.0
 51
90.0
  0
ARC
  5
12C
100
AcDbEntity
  8
1
100
AcDbCircle
 10
139.271554
 20
-436.650965
 30
0.0
 40
2.5
100
AcDbArc
 50
90.0
 51
180.0
  0
ARC
  5
12D
100
AcDbEntity
  8
1
100
AcDbCircle
 10
139.271554
 20
-441.558537
 30
0.0
 40
2.5
100
AcDbArc
 50
180.0
 51
270.0
  0
ARC
  5
12E
100
AcDbEntity
  8
1
100
AcDbCircle
 10
144.271554
 20
-441.558537
 30
0.0
 40
2.5
100
AcDbArc
 50
270.0
 51
360.0
  0
ARC
  5
12F
100
AcDbEntity
  8
1
100
AcDbCircle
 10
150.771554
 20
-428.53872
 30
0.0
 40
4.0
100
AcDbArc
 50
90.0
 51
180.0
  0
ARC
  5
130
100
AcDbEntity
  8
1
100
AcDbCircle
 10
150.771554
 20
-457.150965
 30
0.0
 40
4.0
100
AcDbArc
 50
180.0
 51
270.0
  0
LINE
  5
131
100
AcDbEntity
  8
1
100
AcDbLine
 10
126.677013
 20
-497.76321
 30
0.0
 11
146.771554
 21
-497.76321
 31
0.0
  0
LINE
  5
132
100
AcDbEntity
  8
1
100
AcDbLine
 10
139.271554
 20
-478.243393
 30
0.0
 11
144.271554
 21
-478.243393
 31
0.0
  0
ARC
  5
133
100
AcDbEntity
  8
1
100
AcDbCircle
 10
144.271554
 20
-485.650965
 30
0.0
 40
2.5
100
AcDbArc
 50
270.0
 51
0.0
  0
ARC
  5
134
100
AcDbEntity
  8
1
100
AcDbCircle
 10
139.271554
 20
-485.650965
 30
0.0
 40
2.5
100
AcDbArc
 50
180.0
 51
270.0
  0
ARC
  5
135
100
AcDbEntity
  8
1
100
AcDbCircle
 10
139.271554
 20
-480.743393
 30
0.0
 40
2.5
100
AcDbArc
 50
90.0
 51
180.0
  0
ARC
  5
136
100
AcDbEntity
  8
1
100
AcDbCircle
 10
144.271554
 20
-480.743393
 30
0.0
 40
2.5
100
AcDbArc
 50
0.0
 51
90.0
  0
ARC
  5
137
100
AcDbEntity
  8
1
100
AcDbCircle
 10
150.771554
 20
-493.76321
 30
0.0
 40
4.0
100
AcDbArc
 50
180.0
 51
270.0
  0
ARC
  5
138
100
AcDbEntity
  8
1
100
AcDbCircle
 10
150.771554
 20
-465.150965
 30
0.0
 40
4.0
100
AcDbArc
 50
90.0
 51
180.0
  0
ARC
  5
139
100
AcDbEntity
  8
1
100
AcDbCircle
 10
134.383799
 20
-424.53872
 30
0.0
 40
9.612245
100
AcDbArc
 50
180.0
 51
270.0
  0
ARC
  5
13A
100
AcDbEntity
  8
1
100
AcDbCircle
 10
134.383799
 20
-497.76321
 30
0.0
 40
9.612245
100
AcDbArc
 50
90.0
 51
180.0
  0
ARC
  5
13B
100
AcDbEntity
  8
1
100
AcDbCircle
 10
130.58788
 20
-366.334638
 30
0.0
 40
5.816327
100
AcDbArc
 50
180.0
 51
270.0
  0
ARC
  5
13C
100
AcDbEntity
  8
1
100
AcDbCircle
 10
130.58788
 20
-555.967291
 30
0.0
 40
5.816327
100
AcDbArc
 50
90.0
 51
180.0
  0
LINE
  5
13D
100
AcDbEntity
  8
1
100
AcDbLine
 10
127.300834
 20
-467.735241
 30
0.0
 11
136.771554
 21
-478.243393
 31
0.0
  0
LINE
  5
13E
100
AcDbEntity
  8
1
100
AcDbLine
 10
136.771554
 20
-444.058537
 30
0.0
 11
127.300834
 21
-454.566689
 31
0.0
  0
ARC
  5
13F
100
AcDbEntity
  8
1
100
AcDbCircle
 10
134.606358
 20
-461.150965
 30
0.0
 40
9.834804
100
AcDbArc
 50
137.972497
 51
222.027503
  0
LINE
  5
140
100
AcDbEntity
  8
1
100
AcDbLine
 10
130.58788
 20
-372.150965
 30
0.0
 11
136.771554
 21
-372.150965
 31
0.0
  0
LINE
  5
141
100
AcDbEntity
  8
1
100
AcDbLine
 10
139.271554
 20
-372.150965
 30
0.0
 11
144.271554
 21
-372.150965
 31
0.0
  0
LINE
  5
142
100
AcDbEntity
  8
1
100
AcDbLine
 10
134.383799
 20
-434.150965
 30
0.0
 11
136.771554
 21
-434.150965
 31
0.0
  0
LINE
  5
143
100
AcDbEntity
  8
1
100
AcDbLine
 10
139.271554
 20
-434.150965
 30
0.0
 11
144.271554
 21
-434.150965
 31
0.0
  0
LINE
  5
144
100
AcDbEntity
  8
1
100
AcDbLine
 10
134.383799
 20
-488.150965
 30
0.0
 11
136.771554
 21
-488.150965
 31
0.0
  0
LINE
  5
145
100
AcDbEntity
  8
1
100
AcDbLine
 10
139.271554
 20
-488.150965
 30
0.0
 11
144.271554
 21
-488.150965
 31
0.0
  0
LINE
  5
146
100
AcDbEntity
  8
1
100
AcDbLine
 10
130.58788
 20
-550.150965
 30
0.0
 11
136.771554
 21
-550.150965
 31
0.0
  0
LINE
  5
147
100
AcDbEntity
  8
1
100
AcDbLine
 10
139.271554
 20
-550.150965
 30
0.0
 11
144.271554
 21
-550.150965
 31
0.0
  0
LINE
  5
148
100
AcDbEntity
  8
1
100
AcDbLine
 10
78.771554
 20
-691.150965
 30
0.0
 11
138.771554
 21
-691.150965
 31
0.0
  0
LINE
  5
149
100
AcDbEntity
  8
1
100
AcDbLine
 10
38.771554
 20
-151.150965
 30
0.0
 11
38.771554
 21
-164.150965
 31
0.0
  0
LINE
  5
14A
100
AcDbEntity
  8
1
100
AcDbLine
 10
178.771554
 20
-151.150965
 30
0.0
 11
178.771554
 21
-164.150965
 31
0.0
  0
LINE
  5
14B
100
AcDbEntity
  8
1
100
AcDbLine
 10
43.771554
 20
-169.150965
 30
0.0
 11
173.771554
 21
-169.150965
 31
0.0
  0
ARC
  5
14C
100
AcDbEntity
  8
1
100
AcDbCircle
 10
43.771554
 20
-164.150965
 30
0.0
 40
5.0
100
AcDbArc
 50
180.0
 51
270.0
  0
ARC
  5
14D
100
AcDbEntity
  8
1
100
AcDbCircle
 10
173.771554
 20
-164.150965
 30
0.0
 40
5.0
100
AcDbArc
 50
270.0
 51
360.0
  0
LINE
  5
14E
100
AcDbEntity
  8
1
100
AcDbLine
 10
140.771554
 20
-179.150965
 30
0.0
 11
140.771554
 21
-270.606587
 31
0.0
  0
LINE
  5
14F
100
AcDbEntity
  8
1
100
AcDbLine
 10
76.771554
 20
-179.150965
 30
0.0
 11
76.771554
 21
-198.686863
 31
0.0
  0
LINE
  5
150
100
AcDbEntity
  8
1
100
AcDbLine
 10
78.771554
 20
-202.150965
 30
0.0
 11
78.771554
 21
-278.606587
 31
0.0
  0
ARC
  5
151
100
AcDbEntity
  8
1
100
AcDbCircle
 10
150.771554
 20
-179.150965
 30
0.0
 40
10.0
100
AcDbArc
 50
90.0
 51
180.0
  0
ARC
  5
152
100
AcDbEntity
  8
1
100
AcDbCircle
 10
66.771554
 20
-179.150965
 30
0.0
 40
10.0
100
AcDbArc
 50
0.0
 51
90.0
  0
ARC
  5
153
100
AcDbEntity
  8
1
100
AcDbCircle
 10
175.771554
 20
-204.100933
 30
0.0
 40
35.0
100
AcDbArc
 50
92.865984
 51
180.0
  0
ARC
  5
154
100
AcDbEntity
  8
1
100
AcDbCircle
 10
76.771554
 20
-202.150965
 30
0.0
 40
2.0
100
AcDbArc
 50
0.0
 51
60.0
  0
ARC
  5
155
100
AcDbEntity
  8
1
100
AcDbCircle
 10
78.771554
 20
-198.686863
 30
0.0
 40
2.0
100
AcDbArc
 50
180.0
 51
240.0
  0
ARC
  5
156
100
AcDbEntity
  8
1
100
AcDbCircle
 10
42.172483
 20
-204.118989
 30
0.0
 40
35.0
100
AcDbArc
 50
8.442351
 51
87.708889
  0
LINE
  5
157
100
AcDbEntity
  8
1
100
AcDbLine
 10
-562.828446
 20
-202.150965
 30
0.0
 11
-626.828446
 21
-202.150965
 31
0.0
  0
LINE
  5
158
100
AcDbEntity
  8
1
100
AcDbLine
 10
-597.328446
 20
-193.980492
 30
0.0
 11
-597.328446
 21
-174.150965
 31
0.0
  0
LINE
  5
159
100
AcDbEntity
  8
1
100
AcDbLine
 10
-587.328446
 20
-193.980492
 30
0.0
 11
-587.328446
 21
-174.150965
 31
0.0
  0
ARC
  5
15A
100
AcDbEntity
  8
1
100
AcDbCircle
 10
-582.328446
 20
-174.150965
 30
0.0
 40
5.0
100
AcDbArc
 50
90.0
 51
180.0
  0
ARC
  5
15B
100
AcDbEntity
  8
1
100
AcDbCircle
 10
-602.328446
 20
-174.150965
 30
0.0
 40
5.0
100
AcDbArc
 50
0.0
 51
90.0
  0
ARC
  5
15C
100
AcDbEntity
  8
1
100
AcDbCircle
 10
-582.328446
 20
-193.980492
 30
0.0
 40
5.0
100
AcDbArc
 50
180.0
 51
270.0
  0
ARC
  5
15D
100
AcDbEntity
  8
1
100
AcDbCircle
 10
-602.328446
 20
-193.980492
 30
0.0
 40
5.0
100
AcDbArc
 50
270.0
 51
0.0
  0
LINE
  5
15E
100
AcDbEntity
  8
1
100
AcDbLine
 10
-582.328446
 20
-198.980492
 30
0.0
 11
-562.828446
 21
-198.980492
 31
0.0
  0
LINE
  5
15F
100
AcDbEntity
  8
1
100
AcDbLine
 10
-626.828446
 20
-198.980492
 30
0.0
 11
-602.328446
 21
-198.980492
 31
0.0
  0
LINE
  5
160
100
AcDbEntity
  8
1
100
AcDbLine
 10
-597.328446
 20
-198.980492
 30
0.0
 11
-587.328446
 21
-198.980492
 31
0.0
  0
ARC
  5
161
100
AcDbEntity
  8
1
100
AcDbCircle
 10
152.771554
 20
-265.150965
 30
0.0
 40
12.0
100
AcDbArc
 50
180.0
 51
270.0
  0
ARC
  5
162
100
AcDbEntity
  8
1
100
AcDbCircle
 10
74.771554
 20
-273.150965
 30
0.0
 40
4.0
100
AcDbArc
 50
270.0
 51
360.0
  0
ARC
  5
163
100
AcDbEntity
  8
1
100
AcDbCircle
 10
74.771554
 20
-278.606587
 30
0.0
 40
4.0
100
AcDbArc
 50
270.0
 51
360.0
  0
ARC
  5
164
100
AcDbEntity
  8
1
100
AcDbCircle
 10
152.771554
 20
-270.606587
 30
0.0
 40
12.0
100
AcDbArc
 50
180.0
 51
270.0
  0
LINE
  5
165
100
AcDbEntity
  8
1
100
AcDbLine
 10
78.771554
 20
-244.772664
 30
0.0
 11
140.771554
 21
-244.772664
 31
0.0
  0
LINE
  5
166
100
AcDbEntity
  8
1
100
AcDbLine
 10
78.771554
 20
-258.140501
 30
0.0
 11
140.771554
 21
-258.140501
 31
0.0
  0
LINE
  5
167
100
AcDbEntity
  8
1
100
AcDbLine
 10
78.771554
 20
-276.728676
 30
0.0
 11
140.771554
 21
-276.728676
 31
0.0
  0
LINE
  5
168
100
AcDbEntity
  8
1
100
AcDbLine
 10
106.271554
 20
-208.066767
 30
0.0
 11
111.271554
 21
-208.066767
 31
0.0
  0
LINE
  5
169
100
AcDbEntity
  8
1
100
AcDbLine
 10
106.271554
 20
-224.039139
 30
0.0
 11
111.271554
 21
-224.039139
 31
0.0
  0
LINE
  5
16A
100
AcDbEntity
  8
1
100
AcDbLine
 10
103.771554
 20
-198.066767
 30
0.0
 11
113.771554
 21
-198.066767
 31
0.0
  0
LINE
  5
16B
100
AcDbEntity
  8
1
100
AcDbLine
 10
103.771554
 20
-203.066767
 30
0.0
 11
103.771554
 21
-224.392797
 31
0.0
  0
LINE
  5
16C
100
AcDbEntity
  8
1
100
AcDbLine
 10
113.771554
 20
-203.066767
 30
0.0
 11
113.771554
 21
-224.392797
 31
0.0
  0
ARC
  5
16D
100
AcDbEntity
  8
1
100
AcDbCircle
 10
118.771554
 20
-203.066767
 30
0.0
 40
5.0
100
AcDbArc
 50
90.0
 51
180.0
  0
ARC
  5
16E
100
AcDbEntity
  8
1
100
AcDbCircle
 10
98.771554
 20
-203.066767
 30
0.0
 40
5.0
100
AcDbArc
 50
0.0
 51
90.0
  0
ARC
  5
16F
100
AcDbEntity
  8
1
100
AcDbCircle
 10
118.771554
 20
-224.392797
 30
0.0
 40
5.0
100
AcDbArc
 50
180.0
 51
270.0
  0
ARC
  5
170
100
AcDbEntity
  8
1
100
AcDbCircle
 10
98.771554
 20
-224.392797
 30
0.0
 40
5.0
100
AcDbArc
 50
270.0
 51
360.0
  0
ARC
  5
171
100
AcDbEntity
  8
1
100
AcDbCircle
 10
111.271554
 20
-210.566767
 30
0.0
 40
2.5
100
AcDbArc
 50
0.0
 51
90.0
  0
ARC
  5
172
100
AcDbEntity
  8
1
100
AcDbCircle
 10
111.271554
 20
-221.539139
 30
0.0
 40
2.5
100
AcDbArc
 50
270.0
 51
360.0
  0
ARC
  5
173
100
AcDbEntity
  8
1
100
AcDbCircle
 10
106.271554
 20
-221.539139
 30
0.0
 40
2.5
100
AcDbArc
 50
180.0
 51
270.0
  0
ARC
  5
174
100
AcDbEntity
  8
1
100
AcDbCircle
 10
106.271554
 20
-210.566767
 30
0.0
 40
2.5
100
AcDbArc
 50
90.0
 51
180.0
  0
LINE
  5
175
100
AcDbEntity
  8
1
100
AcDbLine
 10
118.771554
 20
-229.392797
 30
0.0
 11
140.771554
 21
-229.392797
 31
0.0
  0
LINE
  5
176
100
AcDbEntity
  8
1
100
AcDbLine
 10
78.771554
 20
-229.392797
 30
0.0
 11
98.771554
 21
-229.392797
 31
0.0
  0
LINE
  5
177
100
AcDbEntity
  8
1
100
AcDbLine
 10
103.771554
 20
-229.392797
 30
0.0
 11
113.771554
 21
-229.392797
 31
0.0
  0
LINE
  5
178
100
AcDbEntity
  8
1
100
AcDbLine
 10
78.771554
 20
-643.695343
 30
0.0
 11
78.771554
 21
-699.150965
 31
0.0
  0
LINE
  5
179
100
AcDbEntity
  8
1
100
AcDbLine
 10
138.771554
 20
-651.695343
 30
0.0
 11
138.771554
 21
-699.150965
 31
0.0
  0
ARC
  5
17A
100
AcDbEntity
  8
1
100
AcDbCircle
 10
150.771554
 20
-657.150965
 30
0.0
 40
12.0
100
AcDbArc
 50
90.0
 51
180.0
  0
ARC
  5
17B
100
AcDbEntity
  8
1
100
AcDbCircle
 10
74.771554
 20
-649.150965
 30
0.0
 40
4.0
100
AcDbArc
 50
0.0
 51
90.0
  0
ARC
  5
17C
100
AcDbEntity
  8
1
100
AcDbCircle
 10
74.771554
 20
-643.695343
 30
0.0
 40
4.0
100
AcDbArc
 50
0.0
 51
90.0
  0
ARC
  5
17D
100
AcDbEntity
  8
1
100
AcDbCircle
 10
150.771554
 20
-651.695343
 30
0.0
 40
12.0
100
AcDbArc
 50
90.0
 51
180.0
  0
LINE
  5
17E
100
AcDbEntity
  8
1
100
AcDbLine
 10
78.771554
 20
-678.671686
 30
0.0
 11
138.771554
 21
-678.671686
 31
0.0
  0
LINE
  5
17F
100
AcDbEntity
  8
1
100
AcDbLine
 10
78.771554
 20
-664.161429
 30
0.0
 11
138.771554
 21
-664.161429
 31
0.0
  0
LINE
  5
180
100
AcDbEntity
  8
1
100
AcDbLine
 10
78.771554
 20
-645.573254
 30
0.0
 11
138.771554
 21
-645.573254
 31
0.0
  0
LINE
  5
181
100
AcDbEntity
  8
1
100
AcDbLine
 10
78.771554
 20
-282.606587
 30
0.0
 11
90.999066
 21
-282.606587
 31
0.0
  0
LINE
  5
182
100
AcDbEntity
  8
1
100
AcDbLine
 10
128.544041
 20
-282.606587
 30
0.0
 11
140.771554
 21
-282.606587
 31
0.0
  0
ARC
  5
183
100
AcDbEntity
  8
1
100
AcDbCircle
 10
128.544041
 20
-287.606587
 30
0.0
 40
5.0
100
AcDbArc
 50
90.0
 51
164.068926
  0
ARC
  5
184
100
AcDbEntity
  8
1
100
AcDbCircle
 10
90.999066
 20
-287.606587
 30
0.0
 40
5.0
100
AcDbArc
 50
15.931074
 51
90.0
  0
ARC
  5
185
100
AcDbEntity
  8
1
100
AcDbCircle
 10
117.359364
 20
-290.35761
 30
0.0
 40
5.0
100
AcDbArc
 50
270.0
 51
344.068926
  0
ARC
  5
186
100
AcDbEntity
  8
1
100
AcDbCircle
 10
102.183744
 20
-290.35761
 30
0.0
 40
5.0
100
AcDbArc
 50
195.931074
 51
270.0
  0
ARC
  5
187
100
AcDbEntity
  8
1
100
AcDbCircle
 10
128.544041
 20
-634.695343
 30
0.0
 40
5.0
100
AcDbArc
 50
195.931074
 51
270.0
  0
ARC
  5
188
100
AcDbEntity
  8
1
100
AcDbCircle
 10
90.999066
 20
-634.695343
 30
0.0
 40
5.0
100
AcDbArc
 50
270.0
 51
344.068926
  0
ARC
  5
189
100
AcDbEntity
  8
1
100
AcDbCircle
 10
102.183744
 20
-631.94432
 30
0.0
 40
5.0
100
AcDbArc
 50
90.0
 51
164.068926
  0
ARC
  5
18A
100
AcDbEntity
  8
1
100
AcDbCircle
 10
117.359364
 20
-631.94432
 30
0.0
 40
5.0
100
AcDbArc
 50
15.931074
 51
90.0
  0
LINE
  5
18B
100
AcDbEntity
  8
1
100
AcDbLine
 10
78.771554
 20
-639.695343
 30
0.0
 11
90.999066
 21
-639.695343
 31
0.0
  0
LINE
  5
18C
100
AcDbEntity
  8
1
100
AcDbLine
 10
128.544041
 20
-639.695343
 30
0.0
 11
138.771554
 21
-639.695343
 31
0.0
  0
LINE
  5
18D
100
AcDbEntity
  8
1
  6
CENTER
 62
     2
100
AcDbLine
 10
87.771554
 20
-679.579645
 30
0.0
 11
87.771554
 21
-714.334223
 31
0.0
  0
LINE
  5
18E
100
AcDbEntity
  8
1
  6
CENTER
 62
     2
100
AcDbLine
 10
129.771554
 20
-679.579645
 30
0.0
 11
129.771554
 21
-714.334223
 31
0.0
  0
LINE
  5
18F
100
AcDbEntity
  8
1
100
AcDbLine
 10
-564.828446
 20
-693.150965
 30
0.0
 11
-624.828446
 21
-693.150965
 31
0.0
  0
LINE
  5
190
100
AcDbEntity
  8
1
100
AcDbLine
 10
-564.828446
 20
-699.150965
 30
0.0
 11
-624.828446
 21
-699.150965
 31
0.0
  0
LINE
  5
191
100
AcDbEntity
  8
1
100
AcDbLine
 10
-624.828446
 20
-699.150965
 30
0.0
 11
-624.828446
 21
-691.150965
 31
0.0
  0
LINE
  5
192
100
AcDbEntity
  8
1
100
AcDbLine
 10
-564.828446
 20
-699.150965
 30
0.0
 11
-564.828446
 21
-691.150965
 31
0.0
  0
LINE
  5
193
100
AcDbEntity
  8
1
100
AcDbLine
 10
78.771554
 20
-693.150965
 30
0.0
 11
138.771554
 21
-693.150965
 31
0.0
  0
LINE
  5
194
100
AcDbEntity
  8
1
100
AcDbLine
 10
78.771554
 20
-699.150965
 30
0.0
 11
138.771554
 21
-699.150965
 31
0.0
  0
LINE
  5
195
100
AcDbEntity
  8
1
100
AcDbLine
 10
-566.328446
 20
-701.150965
 30
0.0
 11
-566.328446
 21
-705.929277
 31
0.0
  0
LINE
  5
196
100
AcDbEntity
  8
1
100
AcDbLine
 10
-566.328446
 20
-705.929277
 30
0.0
 11
-567.578446
 21
-706.650965
 31
0.0
  0
LINE
  5
197
100
AcDbEntity
  8
1
100
AcDbLine
 10
-570.078446
 20
-701.150965
 30
0.0
 11
-570.078446
 21
-705.929277
 31
0.0
  0
ARC
  5
198
100
AcDbEntity
  8
1
100
AcDbCircle
 10
-568.203446
 20
-703.518901
 30
0.0
 40
3.053774
100
AcDbArc
 50
232.121121
 51
307.878879
  0
ARC
  5
199
100
AcDbEntity
  8
1
100
AcDbCircle
 10
-573.828446
 20
-695.322675
 30
0.0
 40
11.25
100
AcDbArc
 50
250.528777
 51
289.471219
  0
LINE
  5
19A
100
AcDbEntity
  8
1
100
AcDbLine
 10
-581.328446
 20
-701.150965
 30
0.0
 11
-581.328446
 21
-705.929277
 31
0.0
  0
LINE
  5
19B
100
AcDbEntity
  8
1
100
AcDbLine
 10
-581.328446
 20
-705.929277
 30
0.0
 11
-580.078446
 21
-706.650965
 31
0.0
  0
LINE
  5
19C
100
AcDbEntity
  8
1
100
AcDbLine
 10
-580.078446
 20
-706.650965
 30
0.0
 11
-567.578446
 21
-706.650965
 31
0.0
  0
LINE
  5
19D
100
AcDbEntity
  8
1
100
AcDbLine
 10
-577.578446
 20
-701.150965
 30
0.0
 11
-577.578446
 21
-705.929277
 31
0.0
  0
ARC
  5
19E
100
AcDbEntity
  8
1
100
AcDbCircle
 10
-579.453446
 20
-703.518901
 30
0.0
 40
3.053774
100
AcDbArc
 50
232.121121
 51
307.878879
  0
LINE
  5
19F
100
AcDbEntity
  8
1
100
AcDbLine
 10
-566.128446
 20
-699.150965
 30
0.0
 11
-566.128446
 21
-701.150965
 31
0.0
  0
LINE
  5
1A0
100
AcDbEntity
  8
1
100
AcDbLine
 10
-566.128446
 20
-701.150965
 30
0.0
 11
-581.528446
 21
-701.150965
 31
0.0
  0
LINE
  5
1A1
100
AcDbEntity
  8
1
100
AcDbLine
 10
-581.528446
 20
-701.150965
 30
0.0
 11
-581.528446
 21
-699.150965
 31
0.0
  0
LINE
  5
1A2
100
AcDbEntity
  8
1
100
AcDbLine
 10
-573.828446
 20
-701.150965
 30
0.0
 11
-574.328446
 21
-699.150965
 31
0.0
  0
LINE
  5
1A3
100
AcDbEntity
  8
1
100
AcDbLine
 10
-573.828446
 20
-699.150965
 30
0.0
 11
-573.328446
 21
-701.150965
 31
0.0
  0
LINE
  5
1A4
100
AcDbEntity
  8
1
100
AcDbLine
 10
-608.328446
 20
-701.150965
 30
0.0
 11
-608.328446
 21
-705.929277
 31
0.0
  0
LINE
  5
1A5
100
AcDbEntity
  8
1
100
AcDbLine
 10
-608.328446
 20
-705.929277
 30
0.0
 11
-609.578446
 21
-706.650965
 31
0.0
  0
LINE
  5
1A6
100
AcDbEntity
  8
1
100
AcDbLine
 10
-612.078446
 20
-701.150965
 30
0.0
 11
-612.078446
 21
-705.929277
 31
0.0
  0
ARC
  5
1A7
100
AcDbEntity
  8
1
100
AcDbCircle
 10
-610.203446
 20
-703.518901
 30
0.0
 40
3.053774
100
AcDbArc
 50
232.121121
 51
307.878879
  0
ARC
  5
1A8
100
AcDbEntity
  8
1
100
AcDbCircle
 10
-615.828446
 20
-695.322675
 30
0.0
 40
11.25
100
AcDbArc
 50
250.528777
 51
289.471219
  0
LINE
  5
1A9
100
AcDbEntity
  8
1
100
AcDbLine
 10
-623.328446
 20
-701.150965
 30
0.0
 11
-623.328446
 21
-705.929277
 31
0.0
  0
LINE
  5
1AA
100
AcDbEntity
  8
1
100
AcDbLine
 10
-623.328446
 20
-705.929277
 30
0.0
 11
-622.078446
 21
-706.650965
 31
0.0
  0
LINE
  5
1AB
100
AcDbEntity
  8
1
100
AcDbLine
 10
-622.078446
 20
-706.650965
 30
0.0
 11
-609.578446
 21
-706.650965
 31
0.0
  0
LINE
  5
1AC
100
AcDbEntity
  8
1
100
AcDbLine
 10
-619.578446
 20
-701.150965
 30
0.0
 11
-619.578446
 21
-705.929277
 31
0.0
  0
ARC
  5
1AD
100
AcDbEntity
  8
1
100
AcDbCircle
 10
-621.453446
 20
-703.518901
 30
0.0
 40
3.053774
100
AcDbArc
 50
232.121121
 51
307.878879
  0
LINE
  5
1AE
100
AcDbEntity
  8
1
100
AcDbLine
 10
-608.128446
 20
-699.150965
 30
0.0
 11
-608.128446
 21
-701.150965
 31
0.0
  0
LINE
  5
1AF
100
AcDbEntity
  8
1
100
AcDbLine
 10
-608.128446
 20
-701.150965
 30
0.0
 11
-623.528446
 21
-701.150965
 31
0.0
  0
LINE
  5
1B0
100
AcDbEntity
  8
1
100
AcDbLine
 10
-623.528446
 20
-701.150965
 30
0.0
 11
-623.528446
 21
-699.150965
 31
0.0
  0
LINE
  5
1B1
100
AcDbEntity
  8
1
100
AcDbLine
 10
-615.828446
 20
-701.150965
 30
0.0
 11
-616.328446
 21
-699.150965
 31
0.0
  0
LINE
  5
1B2
100
AcDbEntity
  8
1
100
AcDbLine
 10
-615.828446
 20
-699.150965
 30
0.0
 11
-615.328446
 21
-701.150965
 31
0.0
  0
LINE
  5
1B3
100
AcDbEntity
  8
1
100
AcDbLine
 10
136.271554
 20
-701.150965
 30
0.0
 11
136.271554
 21
-706.650965
 31
0.0
  0
ARC
  5
1B4
100
AcDbEntity
  8
1
100
AcDbCircle
 10
133.021554
 20
-698.972206
 30
0.0
 40
7.678759
100
AcDbArc
 50
244.96034
 51
295.03966
  0
LINE
  5
1B5
100
AcDbEntity
  8
1
100
AcDbLine
 10
123.271554
 20
-701.150965
 30
0.0
 11
123.271554
 21
-706.650965
 31
0.0
  0
LINE
  5
1B6
100
AcDbEntity
  8
1
100
AcDbLine
 10
123.271554
 20
-706.650965
 30
0.0
 11
136.271554
 21
-706.650965
 31
0.0
  0
LINE
  5
1B7
100
AcDbEntity
  8
1
100
AcDbLine
 10
129.771554
 20
-701.150965
 30
0.0
 11
129.771554
 21
-705.929277
 31
0.0
  0
ARC
  5
1B8
100
AcDbEntity
  8
1
100
AcDbCircle
 10
126.521554
 20
-698.972206
 30
0.0
 40
7.678759
100
AcDbArc
 50
244.96034
 51
295.03966
  0
LINE
  5
1B9
100
AcDbEntity
  8
1
100
AcDbLine
 10
137.471554
 20
-699.150965
 30
0.0
 11
137.471554
 21
-701.150965
 31
0.0
  0
LINE
  5
1BA
100
AcDbEntity
  8
1
100
AcDbLine
 10
137.471554
 20
-701.150965
 30
0.0
 11
122.071554
 21
-701.150965
 31
0.0
  0
LINE
  5
1BB
100
AcDbEntity
  8
1
100
AcDbLine
 10
122.071554
 20
-701.150965
 30
0.0
 11
122.071554
 21
-699.150965
 31
0.0
  0
LINE
  5
1BC
100
AcDbEntity
  8
1
100
AcDbLine
 10
94.271554
 20
-701.150965
 30
0.0
 11
94.271554
 21
-706.650965
 31
0.0
  0
ARC
  5
1BD
100
AcDbEntity
  8
1
100
AcDbCircle
 10
91.021554
 20
-698.972206
 30
0.0
 40
7.678759
100
AcDbArc
 50
244.96034
 51
295.03966
  0
LINE
  5
1BE
100
AcDbEntity
  8
1
100
AcDbLine
 10
81.271554
 20
-701.150965
 30
0.0
 11
81.271554
 21
-706.650965
 31
0.0
  0
LINE
  5
1BF
100
AcDbEntity
  8
1
100
AcDbLine
 10
81.271554
 20
-706.650965
 30
0.0
 11
94.271554
 21
-706.650965
 31
0.0
  0
LINE
  5
1C0
100
AcDbEntity
  8
1
100
AcDbLine
 10
87.771554
 20
-701.150965
 30
0.0
 11
87.771554
 21
-705.929277
 31
0.0
  0
ARC
  5
1C1
100
AcDbEntity
  8
1
100
AcDbCircle
 10
84.521554
 20
-698.972206
 30
0.0
 40
7.678759
100
AcDbArc
 50
244.96034
 51
295.03966
  0
LINE
  5
1C2
100
AcDbEntity
  8
1
100
AcDbLine
 10
95.471554
 20
-699.150965
 30
0.0
 11
95.471554
 21
-701.150965
 31
0.0
  0
LINE
  5
1C3
100
AcDbEntity
  8
1
100
AcDbLine
 10
95.471554
 20
-701.150965
 30
0.0
 11
80.071554
 21
-701.150965
 31
0.0
  0
LINE
  5
1C4
100
AcDbEntity
  8
1
100
AcDbLine
 10
80.071554
 20
-701.150965
 30
0.0
 11
80.071554
 21
-699.150965
 31
0.0
  0
CIRCLE
  5
1C5
100
AcDbEntity
  8
1
100
AcDbCircle
 10
-596.278446
 20
-461.150965
 30
0.0
 40
157.5
  0
LINE
  5
1C6
100
AcDbEntity
  8
1
100
AcDbLine
 10
-602.128446
 20
-134.550965
 30
0.0
 11
-602.128446
 21
-127.445858
 31
0.0
  0
LINE
  5
1C7
100
AcDbEntity
  8
1
100
AcDbLine
 10
-602.128446
 20
-127.445858
 30
0.0
 11
-600.578446
 21
-126.550965
 31
0.0
  0
LINE
  5
1C8
100
AcDbEntity
  8
1
100
AcDbLine
 10
-600.578446
 20
-126.550965
 30
0.0
 11
-584.078446
 21
-126.550965
 31
0.0
  0
LINE
  5
1C9
100
AcDbEntity
  8
1
100
AcDbLine
 10
-597.228446
 20
-134.550965
 30
0.0
 11
-597.228446
 21
-127.445858
 31
0.0
  0
ARC
  5
1CA
100
AcDbEntity
  8
1
100
AcDbCircle
 10
-599.678446
 20
-130.595416
 30
0.0
 40
3.990265
100
AcDbArc
 50
52.121121
 51
127.878879
  0
LINE
  5
1CB
100
AcDbEntity
  8
1
100
AcDbLine
 10
-582.528446
 20
-134.550965
 30
0.0
 11
-582.528446
 21
-127.445858
 31
0.0
  0
LINE
  5
1CC
100
AcDbEntity
  8
1
100
AcDbLine
 10
-582.528446
 20
-127.445858
 30
0.0
 11
-584.078446
 21
-126.550965
 31
0.0
  0
LINE
  5
1CD
100
AcDbEntity
  8
1
100
AcDbLine
 10
-587.428446
 20
-134.550965
 30
0.0
 11
-587.428446
 21
-127.445858
 31
0.0
  0
ARC
  5
1CE
100
AcDbEntity
  8
1
100
AcDbCircle
 10
-584.978446
 20
-130.595416
 30
0.0
 40
3.990265
100
AcDbArc
 50
52.121121
 51
127.878879
  0
ARC
  5
1CF
100
AcDbEntity
  8
1
100
AcDbCircle
 10
-592.328446
 20
-141.305151
 30
0.0
 40
14.7
100
AcDbArc
 50
70.528781
 51
109.471223
  0
LINE
  5
1D0
100
AcDbEntity
  8
1
100
AcDbLine
 10
-592.328446
 20
-121.650965
 30
0.0
 11
-587.328446
 21
-121.650965
 31
0.0
  0
ARC
  5
1D1
100
AcDbEntity
  8
1
100
AcDbCircle
 10
-592.328446
 20
-129.234298
 30
0.0
 40
9.083333
100
AcDbArc
 50
56.601512
 51
123.398491
  0
LINE
  5
1D2
100
AcDbEntity
  8
1
 62
     2
100
AcDbLine
 10
-588.140446
 20
-121.17405
 30
0.0
 11
-588.140446
 21
-126.550965
 31
0.0
  0
LINE
  5
1D3
100
AcDbEntity
  8
1
100
AcDbLine
 10
-592.328446
 20
-121.650965
 30
0.0
 11
-597.328446
 21
-121.650965
 31
0.0
  0
LINE
  5
1D4
100
AcDbEntity
  8
1
 62
     2
100
AcDbLine
 10
-596.516446
 20
-121.17405
 30
0.0
 11
-596.516446
 21
-126.550965
 31
0.0
  0
LINE
  5
1D5
100
AcDbEntity
  8
1
100
AcDbLine
 10
-587.328446
 20
-126.550965
 30
0.0
 11
-587.328446
 21
-121.650965
 31
0.0
  0
LINE
  5
1D6
100
AcDbEntity
  8
1
100
AcDbLine
 10
-597.328446
 20
-126.550965
 30
0.0
 11
-597.328446
 21
-121.650965
 31
0.0
  0
LINE
  5
1D7
100
AcDbEntity
  8
1
100
AcDbLine
 10
-564.828446
 20
-134.550965
 30
0.0
 11
-619.828446
 21
-134.550965
 31
0.0
  0
LINE
  5
1D8
100
AcDbEntity
  8
1
100
AcDbLine
 10
-564.828446
 20
-134.550965
 30
0.0
 11
-564.828446
 21
-139.150965
 31
0.0
  0
LINE
  5
1D9
100
AcDbEntity
  8
1
100
AcDbLine
 10
-619.828446
 20
-134.550965
 30
0.0
 11
-619.828446
 21
-139.150965
 31
0.0
  0
LINE
  5
1DA
100
AcDbEntity
  8
1
100
AcDbLine
 10
-609.828446
 20
-134.550965
 30
0.0
 11
-609.828446
 21
-105.150965
 31
0.0
  0
LINE
  5
1DB
100
AcDbEntity
  8
1
100
AcDbLine
 10
-571.828446
 20
-110.150965
 30
0.0
 11
-574.828446
 21
-110.150965
 31
0.0
  0
LINE
  5
1DC
100
AcDbEntity
  8
1
100
AcDbLine
 10
-571.828446
 20
-110.150965
 30
0.0
 11
-571.828446
 21
-105.150965
 31
0.0
  0
LINE
  5
1DD
100
AcDbEntity
  8
1
100
AcDbLine
 10
-574.828446
 20
-134.550965
 30
0.0
 11
-574.828446
 21
-110.150965
 31
0.0
  0
ARC
  5
1DE
100
AcDbEntity
  8
1
100
AcDbCircle
 10
-558.057937
 20
-105.150965
 30
0.0
 40
17.5
100
AcDbArc
 50
180.0
 51
196.60155
  0
LINE
  5
1DF
100
AcDbEntity
  8
1
100
AcDbLine
 10
-626.278446
 20
-313.1611
 30
0.0
 11
-626.719723
 21
-312.396787
 31
0.0
  0
ARC
  5
1E0
100
AcDbEntity
  8
1
100
AcDbCircle
 10
-633.647926
 20
-316.396787
 30
0.0
 40
8.0
100
AcDbArc
 50
30.0
 51
104.475327
  0
ARC
  5
1E1
100
AcDbEntity
  8
1
100
AcDbCircle
 10
-604.530937
 20
-311.87891
 30
0.0
 40
8.0
100
AcDbArc
 50
131.467012
 51
143.913952
  0
ARC
  5
1E2
100
AcDbEntity
  8
1
100
AcDbCircle
 10
-627.213973
 20
-313.1611
 30
0.0
 40
0.935527
100
AcDbArc
 50
281.806986
 51
360.0
  0
ARC
  5
1E3
100
AcDbEntity
  8
1
100
AcDbCircle
 10
-596.278446
 20
-461.150965
 30
0.0
 40
151.0
100
AcDbArc
 50
100.68623
 51
101.459516
  0
LINE
  5
1E4
100
AcDbEntity
  8
1
100
AcDbLine
 10
-626.278446
 20
-609.140829
 30
0.0
 11
-626.719723
 21
-609.905143
 31
0.0
  0
ARC
  5
1E5
100
AcDbEntity
  8
1
100
AcDbCircle
 10
-633.647926
 20
-605.905143
 30
0.0
 40
8.0
100
AcDbArc
 50
255.524673
 51
330.0
  0
ARC
  5
1E6
100
AcDbEntity
  8
1
100
AcDbCircle
 10
-604.530937
 20
-610.42302
 30
0.0
 40
8.0
100
AcDbArc
 50
216.086048
 51
228.532988
  0
ARC
  5
1E7
100
AcDbEntity
  8
1
100
AcDbCircle
 10
-627.213973
 20
-609.140829
 30
0.0
 40
0.935527
100
AcDbArc
 50
360.0
 51
78.193014
  0
ARC
  5
1E8
100
AcDbEntity
  8
1
100
AcDbCircle
 10
-596.278446
 20
-461.150965
 30
0.0
 40
151.0
100
AcDbArc
 50
258.540484
 51
259.31377
  0
ARC
  5
1E9
100
AcDbEntity
  8
1
100
AcDbCircle
 10
-596.278446
 20
-461.150965
 30
0.0
 40
150.25312
100
AcDbArc
 50
101.806986
 51
258.193014
  0
ARC
  5
1EA
100
AcDbEntity
  8
1
100
AcDbCircle
 10
-596.278446
 20
-461.150965
 30
0.0
 40
150.25312
100
AcDbArc
 50
280.712221
 51
79.287779
  0
ARC
  5
1EB
100
AcDbEntity
  8
1
100
AcDbCircle
 10
-596.278446
 20
-461.150965
 30
0.0
 40
148.566483
100
AcDbArc
 50
100.863381
 51
259.136619
  0
ARC
  5
1EC
100
AcDbEntity
  8
1
100
AcDbCircle
 10
-596.278446
 20
-461.150965
 30
0.0
 40
148.566483
100
AcDbArc
 50
280.863381
 51
79.136619
  0
LINE
  5
1ED
100
AcDbEntity
  8
1
100
AcDbLine
 10
-621.278446
 20
-368.650965
 30
0.0
 11
-565.278446
 21
-368.650965
 31
0.0
  0
LINE
  5
1EE
100
AcDbEntity
  8
1
100
AcDbLine
 10
-621.278446
 20
-553.650965
 30
0.0
 11
-565.278446
 21
-553.650965
 31
0.0
  0
LINE
  5
1EF
100
AcDbEntity
  8
1
100
AcDbLine
 10
-624.278446
 20
-612.832027
 30
0.0
 11
-624.278446
 21
-556.650965
 31
0.0
  0
LINE
  5
1F0
100
AcDbEntity
  8
1
100
AcDbLine
 10
-624.278446
 20
-365.650965
 30
0.0
 11
-624.278446
 21
-309.282601
 31
0.0
  0
ARC
  5
1F1
100
AcDbEntity
  8
1
100
AcDbCircle
 10
-621.278446
 20
-365.650965
 30
0.0
 40
3.0
100
AcDbArc
 50
180.0
 51
270.0
  0
ARC
  5
1F2
100
AcDbEntity
  8
1
100
AcDbCircle
 10
-565.278446
 20
-365.650965
 30
0.0
 40
3.0
100
AcDbArc
 50
270.0
 51
0.0
  0
ARC
  5
1F3
100
AcDbEntity
  8
1
100
AcDbCircle
 10
-565.278446
 20
-556.650965
 30
0.0
 40
3.0
100
AcDbArc
 50
0.0
 51
90.0
  0
ARC
  5
1F4
100
AcDbEntity
  8
1
100
AcDbCircle
 10
-621.278446
 20
-556.650965
 30
0.0
 40
3.0
100
AcDbArc
 50
90.0
 51
180.0
  0
LINE
  5
1F5
100
AcDbEntity
  8
1
100
AcDbLine
 10
-725.088384
 20
-457.150965
 30
0.0
 11
-467.468509
 21
-457.150965
 31
0.0
  0
LINE
  5
1F6
100
AcDbEntity
  8
1
100
AcDbLine
 10
-725.088384
 20
-465.150965
 30
0.0
 11
-467.468509
 21
-465.150965
 31
0.0
  0
ARC
  5
1F7
100
AcDbEntity
  8
1
100
AcDbCircle
 10
-467.468509
 20
-468.150965
 30
0.0
 40
3.0
100
AcDbArc
 50
356.889399
 51
90.0
  0
ARC
  5
1F8
100
AcDbEntity
  8
1
100
AcDbCircle
 10
-467.468509
 20
-454.150965
 30
0.0
 40
3.0
100
AcDbArc
 50
270.0
 51
3.110601
  0
ARC
  5
1F9
100
AcDbEntity
  8
1
100
AcDbCircle
 10
-725.088384
 20
-468.150965
 30
0.0
 40
3.0
100
AcDbArc
 50
90.0
 51
183.110601
  0
ARC
  5
1FA
100
AcDbEntity
  8
1
100
AcDbCircle
 10
-725.088384
 20
-454.150965
 30
0.0
 40
3.0
100
AcDbArc
 50
176.889399
 51
270.0
  0
ARC
  5
1FB
100
AcDbEntity
  8
1
100
AcDbCircle
 10
-596.278446
 20
-461.150965
 30
0.0
 40
132.0
100
AcDbArc
 50
358.263498
 51
1.736502
  0
ARC
  5
1FC
100
AcDbEntity
  8
1
100
AcDbCircle
 10
-596.278446
 20
-461.150965
 30
0.0
 40
132.0
100
AcDbArc
 50
178.263498
 51
181.736502
  0
LINE
  5
1FD
100
AcDbEntity
  8
1
100
AcDbLine
 10
-570.278446
 20
-550.650965
 30
0.0
 11
-570.278446
 21
-468.150965
 31
0.0
  0
LINE
  5
1FE
100
AcDbEntity
  8
1
100
AcDbLine
 10
-570.278446
 20
-454.150965
 30
0.0
 11
-570.278446
 21
-371.650965
 31
0.0
  0
LINE
  5
1FF
100
AcDbEntity
  8
1
100
AcDbLine
 10
-562.278446
 20
-602.108405
 30
0.0
 11
-562.278446
 21
-468.150965
 31
0.0
  0
LINE
  5
200
100
AcDbEntity
  8
1
100
AcDbLine
 10
-562.278446
 20
-454.150965
 30
0.0
 11
-562.278446
 21
-320.193524
 31
0.0
  0
LINE
  5
201
100
AcDbEntity
  8
1
100
AcDbLine
 10
-622.278446
 20
-550.650965
 30
0.0
 11
-622.278446
 21
-468.150965
 31
0.0
  0
LINE
  5
202
100
AcDbEntity
  8
1
100
AcDbLine
 10
-622.278446
 20
-454.150965
 30
0.0
 11
-622.278446
 21
-371.650965
 31
0.0
  0
LINE
  5
203
100
AcDbEntity
  8
1
100
AcDbLine
 10
-630.278446
 20
-553.650965
 30
0.0
 11
-630.278446
 21
-468.150965
 31
0.0
  0
ARC
  5
204
100
AcDbEntity
  8
1
100
AcDbCircle
 10
-573.278446
 20
-454.150965
 30
0.0
 40
3.0
100
AcDbArc
 50
270.0
 51
360.0
  0
ARC
  5
205
100
AcDbEntity
  8
1
100
AcDbCircle
 10
-559.278446
 20
-454.150965
 30
0.0
 40
3.0
100
AcDbArc
 50
180.0
 51
270.0
  0
ARC
  5
206
100
AcDbEntity
  8
1
100
AcDbCircle
 10
-559.278446
 20
-468.150965
 30
0.0
 40
3.0
100
AcDbArc
 50
90.0
 51
180.0
  0
ARC
  5
207
100
AcDbEntity
  8
1
100
AcDbCircle
 10
-573.278446
 20
-468.150965
 30
0.0
 40
3.0
100
AcDbArc
 50
0.0
 51
90.0
  0
ARC
  5
208
100
AcDbEntity
  8
1
100
AcDbCircle
 10
-619.278446
 20
-468.150965
 30
0.0
 40
3.0
100
AcDbArc
 50
90.0
 51
180.0
  0
ARC
  5
209
100
AcDbEntity
  8
1
100
AcDbCircle
 10
-619.278446
 20
-454.150965
 30
0.0
 40
3.0
100
AcDbArc
 50
180.0
 51
270.0
  0
ARC
  5
20A
100
AcDbEntity
  8
1
100
AcDbCircle
 10
-633.278446
 20
-454.150965
 30
0.0
 40
3.0
100
AcDbArc
 50
270.0
 51
360.0
  0
ARC
  5
20B
100
AcDbEntity
  8
1
100
AcDbCircle
 10
-633.278446
 20
-468.150965
 30
0.0
 40
3.0
100
AcDbArc
 50
0.0
 51
90.0
  0
ARC
  5
20C
100
AcDbEntity
  8
1
100
AcDbCircle
 10
-619.278446
 20
-371.650965
 30
0.0
 40
3.0
100
AcDbArc
 50
90.0
 51
180.0
  0
ARC
  5
20D
100
AcDbEntity
  8
1
100
AcDbCircle
 10
-573.278446
 20
-371.650965
 30
0.0
 40
3.0
100
AcDbArc
 50
0.0
 51
90.0
  0
ARC
  5
20E
100
AcDbEntity
  8
1
100
AcDbCircle
 10
-573.278446
 20
-550.650965
 30
0.0
 40
3.0
100
AcDbArc
 50
270.0
 51
360.0
  0
ARC
  5
20F
100
AcDbEntity
  8
1
100
AcDbCircle
 10
-619.278446
 20
-550.650965
 30
0.0
 40
3.0
100
AcDbArc
 50
180.0
 51
270.0
  0
ARC
  5
210
100
AcDbEntity
  8
1
100
AcDbCircle
 10
-627.278446
 20
-368.650965
 30
0.0
 40
3.0
100
AcDbArc
 50
90.0
 51
180.0
  0
ARC
  5
211
100
AcDbEntity
  8
1
100
AcDbCircle
 10
-627.278446
 20
-362.650965
 30
0.0
 40
3.0
100
AcDbArc
 50
270.0
 51
360.0
  0
ARC
  5
212
100
AcDbEntity
  8
1
100
AcDbCircle
 10
-627.278446
 20
-553.650965
 30
0.0
 40
3.0
100
AcDbArc
 50
180.0
 51
270.0
  0
ARC
  5
213
100
AcDbEntity
  8
1
100
AcDbCircle
 10
-627.278446
 20
-559.650965
 30
0.0
 40
3.0
100
AcDbArc
 50
0.0
 51
90.0
  0
ARC
  5
214
100
AcDbEntity
  8
1
100
AcDbCircle
 10
-573.278446
 20
-420.150965
 30
0.0
 40
3.0
100
AcDbArc
 50
0.0
 51
90.0
  0
ARC
  5
215
100
AcDbEntity
  8
1
100
AcDbCircle
 10
-573.278446
 20
-406.150965
 30
0.0
 40
3.0
100
AcDbArc
 50
270.0
 51
360.0
  0
ARC
  5
216
100
AcDbEntity
  8
1
100
AcDbCircle
 10
-619.278446
 20
-406.150965
 30
0.0
 40
3.0
100
AcDbArc
 50
180.0
 51
270.0
  0
ARC
  5
217
100
AcDbEntity
  8
1
100
AcDbCircle
 10
-619.278446
 20
-420.150965
 30
0.0
 40
3.0
100
AcDbArc
 50
90.0
 51
180.0
  0
ARC
  5
218
100
AcDbEntity
  8
1
100
AcDbCircle
 10
-573.278446
 20
-502.150965
 30
0.0
 40
3.0
100
AcDbArc
 50
270.0
 51
360.0
  0
ARC
  5
219
100
AcDbEntity
  8
1
100
AcDbCircle
 10
-573.278446
 20
-516.150965
 30
0.0
 40
3.0
100
AcDbArc
 50
0.0
 51
90.0
  0
ARC
  5
21A
100
AcDbEntity
  8
1
100
AcDbCircle
 10
-619.278446
 20
-516.150965
 30
0.0
 40
3.0
100
AcDbArc
 50
90.0
 51
180.0
  0
ARC
  5
21B
100
AcDbEntity
  8
1
100
AcDbCircle
 10
-619.278446
 20
-502.150965
 30
0.0
 40
3.0
100
AcDbArc
 50
180.0
 51
270.0
  0
LINE
  5
21C
100
AcDbEntity
  8
1
100
AcDbLine
 10
-559.278446
 20
-360.650965
 30
0.0
 11
-519.28007
 21
-360.650965
 31
0.0
  0
LINE
  5
21D
100
AcDbEntity
  8
1
100
AcDbLine
 10
-507.278446
 20
-454.150965
 30
0.0
 11
-507.278446
 21
-420.150965
 31
0.0
  0
LINE
  5
21E
100
AcDbEntity
  8
1
100
AcDbLine
 10
-507.278446
 20
-406.150965
 30
0.0
 11
-507.278446
 21
-371.650965
 31
0.0
  0
LINE
  5
21F
100
AcDbEntity
  8
1
100
AcDbLine
 10
-515.278446
 20
-454.150965
 30
0.0
 11
-515.278446
 21
-420.150965
 31
0.0
  0
LINE
  5
220
100
AcDbEntity
  8
1
100
AcDbLine
 10
-515.278446
 20
-406.150965
 30
0.0
 11
-515.278446
 21
-371.650965
 31
0.0
  0
LINE
  5
221
100
AcDbEntity
  8
1
100
AcDbLine
 10
-559.278446
 20
-417.150965
 30
0.0
 11
-518.278446
 21
-417.150965
 31
0.0
  0
LINE
  5
222
100
AcDbEntity
  8
1
100
AcDbLine
 10
-504.278446
 20
-417.150965
 30
0.0
 11
-473.967368
 21
-417.150965
 31
0.0
  0
LINE
  5
223
100
AcDbEntity
  8
1
100
AcDbLine
 10
-559.278446
 20
-409.150965
 30
0.0
 11
-518.278446
 21
-409.150965
 31
0.0
  0
LINE
  5
224
100
AcDbEntity
  8
1
100
AcDbLine
 10
-504.278446
 20
-409.150965
 30
0.0
 11
-479.590829
 21
-409.150965
 31
0.0
  0
ARC
  5
225
100
AcDbEntity
  8
1
100
AcDbCircle
 10
-596.278446
 20
-461.150965
 30
0.0
 40
132.0
100
AcDbArc
 50
3.110601
 51
18.53171
  0
ARC
  5
226
100
AcDbEntity
  8
1
100
AcDbCircle
 10
-596.278446
 20
-461.150965
 30
0.0
 40
132.0
100
AcDbArc
 50
25.236561
 51
43.931546
  0
ARC
  5
227
100
AcDbEntity
  8
1
100
AcDbCircle
 10
-596.278446
 20
-461.150965
 30
0.0
 40
132.0
100
AcDbArc
 50
53.352756
 51
73.332229
  0
LINE
  5
228
100
AcDbEntity
  8
1
100
AcDbLine
 10
-559.278446
 20
-368.650965
 30
0.0
 11
-518.278446
 21
-368.650965
 31
0.0
  0
LINE
  5
229
100
AcDbEntity
  8
1
100
AcDbLine
 10
-504.278446
 20
-368.650965
 30
0.0
 11
-503.376616
 21
-368.650965
 31
0.0
  0
ARC
  5
22A
100
AcDbEntity
  8
1
100
AcDbCircle
 10
-518.278446
 20
-420.150965
 30
0.0
 40
3.0
100
AcDbArc
 50
0.0
 51
90.0
  0
ARC
  5
22B
100
AcDbEntity
  8
1
100
AcDbCircle
 10
-518.278446
 20
-406.150965
 30
0.0
 40
3.0
100
AcDbArc
 50
270.0
 51
360.0
  0
ARC
  5
22C
100
AcDbEntity
  8
1
100
AcDbCircle
 10
-504.278446
 20
-406.150965
 30
0.0
 40
3.0
100
AcDbArc
 50
180.0
 51
270.0
  0
ARC
  5
22D
100
AcDbEntity
  8
1
100
AcDbCircle
 10
-504.278446
 20
-420.150965
 30
0.0
 40
3.0
100
AcDbArc
 50
90.0
 51
180.0
  0
ARC
  5
22E
100
AcDbEntity
  8
1
100
AcDbCircle
 10
-473.967368
 20
-420.150965
 30
0.0
 40
3.0
100
AcDbArc
 50
18.53171
 51
90.0
  0
ARC
  5
22F
100
AcDbEntity
  8
1
100
AcDbCircle
 10
-479.590829
 20
-406.150965
 30
0.0
 40
3.0
100
AcDbArc
 50
270.0
 51
25.236561
  0
ARC
  5
230
100
AcDbEntity
  8
1
100
AcDbCircle
 10
-503.376616
 20
-371.650965
 30
0.0
 40
3.0
100
AcDbArc
 50
43.931546
 51
90.0
  0
ARC
  5
231
100
AcDbEntity
  8
1
100
AcDbCircle
 10
-504.278446
 20
-371.650965
 30
0.0
 40
3.0
100
AcDbArc
 50
90.0
 51
180.0
  0
ARC
  5
232
100
AcDbEntity
  8
1
100
AcDbCircle
 10
-518.278446
 20
-371.650965
 30
0.0
 40
3.0
100
AcDbArc
 50
0.0
 51
90.0
  0
ARC
  5
233
100
AcDbEntity
  8
1
100
AcDbCircle
 10
-519.28007
 20
-357.650965
 30
0.0
 40
3.0
100
AcDbArc
 50
270.0
 51
53.352756
  0
ARC
  5
234
100
AcDbEntity
  8
1
100
AcDbCircle
 10
-504.278446
 20
-454.150965
 30
0.0
 40
3.0
100
AcDbArc
 50
180.0
 51
270.0
  0
ARC
  5
235
100
AcDbEntity
  8
1
100
AcDbCircle
 10
-518.278446
 20
-454.150965
 30
0.0
 40
3.0
100
AcDbArc
 50
270.0
 51
0.0
  0
ARC
  5
236
100
AcDbEntity
  8
1
100
AcDbCircle
 10
-559.278446
 20
-420.150965
 30
0.0
 40
3.0
100
AcDbArc
 50
90.0
 51
180.0
  0
ARC
  5
237
100
AcDbEntity
  8
1
100
AcDbCircle
 10
-559.278446
 20
-406.150965
 30
0.0
 40
3.0
100
AcDbArc
 50
180.0
 51
270.0
  0
ARC
  5
238
100
AcDbEntity
  8
1
100
AcDbCircle
 10
-559.278446
 20
-371.650965
 30
0.0
 40
3.0
100
AcDbArc
 50
90.0
 51
180.0
  0
ARC
  5
239
100
AcDbEntity
  8
1
100
AcDbCircle
 10
-559.278446
 20
-357.650965
 30
0.0
 40
3.0
100
AcDbArc
 50
180.0
 51
270.0
  0
ARC
  5
23A
100
AcDbEntity
  8
1
100
AcDbCircle
 10
-559.278446
 20
-337.571031
 30
0.0
 40
3.0
100
AcDbArc
 50
73.332229
 51
180.0
  0
LINE
  5
23B
100
AcDbEntity
  8
1
100
AcDbLine
 10
-559.278446
 20
-561.650965
 30
0.0
 11
-519.28007
 21
-561.650965
 31
0.0
  0
LINE
  5
23C
100
AcDbEntity
  8
1
100
AcDbLine
 10
-507.278446
 20
-468.150965
 30
0.0
 11
-507.278446
 21
-502.150965
 31
0.0
  0
LINE
  5
23D
100
AcDbEntity
  8
1
100
AcDbLine
 10
-507.278446
 20
-516.150965
 30
0.0
 11
-507.278446
 21
-550.650965
 31
0.0
  0
LINE
  5
23E
100
AcDbEntity
  8
1
100
AcDbLine
 10
-515.278446
 20
-468.150965
 30
0.0
 11
-515.278446
 21
-502.150965
 31
0.0
  0
LINE
  5
23F
100
AcDbEntity
  8
1
100
AcDbLine
 10
-515.278446
 20
-516.150965
 30
0.0
 11
-515.278446
 21
-550.650965
 31
0.0
  0
LINE
  5
240
100
AcDbEntity
  8
1
100
AcDbLine
 10
-559.278446
 20
-505.150965
 30
0.0
 11
-518.278446
 21
-505.150965
 31
0.0
  0
LINE
  5
241
100
AcDbEntity
  8
1
100
AcDbLine
 10
-504.278446
 20
-505.150965
 30
0.0
 11
-473.967368
 21
-505.150965
 31
0.0
  0
LINE
  5
242
100
AcDbEntity
  8
1
100
AcDbLine
 10
-559.278446
 20
-513.150965
 30
0.0
 11
-518.278446
 21
-513.150965
 31
0.0
  0
LINE
  5
243
100
AcDbEntity
  8
1
100
AcDbLine
 10
-504.278446
 20
-513.150965
 30
0.0
 11
-479.590829
 21
-513.150965
 31
0.0
  0
ARC
  5
244
100
AcDbEntity
  8
1
100
AcDbCircle
 10
-596.278446
 20
-461.150965
 30
0.0
 40
132.0
100
AcDbArc
 50
341.46829
 51
356.889399
  0
ARC
  5
245
100
AcDbEntity
  8
1
100
AcDbCircle
 10
-596.278446
 20
-461.150965
 30
0.0
 40
132.0
100
AcDbArc
 50
316.068454
 51
334.763439
  0
ARC
  5
246
100
AcDbEntity
  8
1
100
AcDbCircle
 10
-596.278446
 20
-461.150965
 30
0.0
 40
132.0
100
AcDbArc
 50
286.667771
 51
306.647244
  0
LINE
  5
247
100
AcDbEntity
  8
1
100
AcDbLine
 10
-559.278446
 20
-553.650965
 30
0.0
 11
-518.278446
 21
-553.650965
 31
0.0
  0
LINE
  5
248
100
AcDbEntity
  8
1
100
AcDbLine
 10
-504.278446
 20
-553.650965
 30
0.0
 11
-503.376616
 21
-553.650965
 31
0.0
  0
ARC
  5
249
100
AcDbEntity
  8
1
100
AcDbCircle
 10
-518.278446
 20
-502.150965
 30
0.0
 40
3.0
100
AcDbArc
 50
270.0
 51
360.0
  0
ARC
  5
24A
100
AcDbEntity
  8
1
100
AcDbCircle
 10
-518.278446
 20
-516.150965
 30
0.0
 40
3.0
100
AcDbArc
 50
0.0
 51
90.0
  0
ARC
  5
24B
100
AcDbEntity
  8
1
100
AcDbCircle
 10
-504.278446
 20
-516.150965
 30
0.0
 40
3.0
100
AcDbArc
 50
90.0
 51
180.0
  0
ARC
  5
24C
100
AcDbEntity
  8
1
100
AcDbCircle
 10
-504.278446
 20
-502.150965
 30
0.0
 40
3.0
100
AcDbArc
 50
180.0
 51
270.0
  0
ARC
  5
24D
100
AcDbEntity
  8
1
100
AcDbCircle
 10
-473.967368
 20
-502.150965
 30
0.0
 40
3.0
100
AcDbArc
 50
270.0
 51
341.46829
  0
ARC
  5
24E
100
AcDbEntity
  8
1
100
AcDbCircle
 10
-479.590829
 20
-516.150965
 30
0.0
 40
3.0
100
AcDbArc
 50
334.763439
 51
90.0
  0
ARC
  5
24F
100
AcDbEntity
  8
1
100
AcDbCircle
 10
-503.376616
 20
-550.650965
 30
0.0
 40
3.0
100
AcDbArc
 50
270.0
 51
316.068454
  0
ARC
  5
250
100
AcDbEntity
  8
1
100
AcDbCircle
 10
-504.278446
 20
-550.650965
 30
0.0
 40
3.0
100
AcDbArc
 50
180.0
 51
270.0
  0
ARC
  5
251
100
AcDbEntity
  8
1
100
AcDbCircle
 10
-518.278446
 20
-550.650965
 30
0.0
 40
3.0
100
AcDbArc
 50
270.0
 51
360.0
  0
ARC
  5
252
100
AcDbEntity
  8
1
100
AcDbCircle
 10
-519.28007
 20
-564.650965
 30
0.0
 40
3.0
100
AcDbArc
 50
306.647244
 51
90.0
  0
ARC
  5
253
100
AcDbEntity
  8
1
100
AcDbCircle
 10
-504.278446
 20
-468.150965
 30
0.0
 40
3.0
100
AcDbArc
 50
90.0
 51
180.0
  0
ARC
  5
254
100
AcDbEntity
  8
1
100
AcDbCircle
 10
-518.278446
 20
-468.150965
 30
0.0
 40
3.0
100
AcDbArc
 50
360.0
 51
90.0
  0
ARC
  5
255
100
AcDbEntity
  8
1
100
AcDbCircle
 10
-559.278446
 20
-502.150965
 30
0.0
 40
3.0
100
AcDbArc
 50
180.0
 51
270.0
  0
ARC
  5
256
100
AcDbEntity
  8
1
100
AcDbCircle
 10
-559.278446
 20
-516.150965
 30
0.0
 40
3.0
100
AcDbArc
 50
90.0
 51
180.0
  0
ARC
  5
257
100
AcDbEntity
  8
1
100
AcDbCircle
 10
-559.278446
 20
-550.650965
 30
0.0
 40
3.0
100
AcDbArc
 50
180.0
 51
270.0
  0
ARC
  5
258
100
AcDbEntity
  8
1
100
AcDbCircle
 10
-559.278446
 20
-564.650965
 30
0.0
 40
3.0
100
AcDbArc
 50
90.0
 51
180.0
  0
ARC
  5
259
100
AcDbEntity
  8
1
100
AcDbCircle
 10
-559.278446
 20
-584.730898
 30
0.0
 40
3.0
100
AcDbArc
 50
180.0
 51
286.667771
  0
LINE
  5
25A
100
AcDbEntity
  8
1
100
AcDbLine
 10
-633.278446
 20
-360.650965
 30
0.0
 11
-673.276823
 21
-360.650965
 31
0.0
  0
LINE
  5
25B
100
AcDbEntity
  8
1
100
AcDbLine
 10
-685.278446
 20
-454.150965
 30
0.0
 11
-685.278446
 21
-420.150965
 31
0.0
  0
LINE
  5
25C
100
AcDbEntity
  8
1
100
AcDbLine
 10
-685.278446
 20
-406.150965
 30
0.0
 11
-685.278446
 21
-371.650965
 31
0.0
  0
LINE
  5
25D
100
AcDbEntity
  8
1
100
AcDbLine
 10
-677.278446
 20
-454.150965
 30
0.0
 11
-677.278446
 21
-420.150965
 31
0.0
  0
LINE
  5
25E
100
AcDbEntity
  8
1
100
AcDbLine
 10
-677.278446
 20
-406.150965
 30
0.0
 11
-677.278446
 21
-371.650965
 31
0.0
  0
LINE
  5
25F
100
AcDbEntity
  8
1
100
AcDbLine
 10
-633.278446
 20
-417.150965
 30
0.0
 11
-674.278446
 21
-417.150965
 31
0.0
  0
LINE
  5
260
100
AcDbEntity
  8
1
100
AcDbLine
 10
-688.278446
 20
-417.150965
 30
0.0
 11
-718.589525
 21
-417.150965
 31
0.0
  0
LINE
  5
261
100
AcDbEntity
  8
1
100
AcDbLine
 10
-633.278446
 20
-409.150965
 30
0.0
 11
-674.278446
 21
-409.150965
 31
0.0
  0
LINE
  5
262
100
AcDbEntity
  8
1
100
AcDbLine
 10
-688.278446
 20
-409.150965
 30
0.0
 11
-712.966064
 21
-409.150965
 31
0.0
  0
ARC
  5
263
100
AcDbEntity
  8
1
100
AcDbCircle
 10
-596.278446
 20
-461.150965
 30
0.0
 40
132.0
100
AcDbArc
 50
161.46829
 51
176.889399
  0
ARC
  5
264
100
AcDbEntity
  8
1
100
AcDbCircle
 10
-596.278446
 20
-461.150965
 30
0.0
 40
132.0
100
AcDbArc
 50
136.068454
 51
154.763439
  0
ARC
  5
265
100
AcDbEntity
  8
1
100
AcDbCircle
 10
-596.278446
 20
-461.150965
 30
0.0
 40
132.0
100
AcDbArc
 50
106.667771
 51
126.647244
  0
LINE
  5
266
100
AcDbEntity
  8
1
100
AcDbLine
 10
-633.278446
 20
-368.650965
 30
0.0
 11
-674.278446
 21
-368.650965
 31
0.0
  0
LINE
  5
267
100
AcDbEntity
  8
1
100
AcDbLine
 10
-688.278446
 20
-368.650965
 30
0.0
 11
-689.180276
 21
-368.650965
 31
0.0
  0
ARC
  5
268
100
AcDbEntity
  8
1
100
AcDbCircle
 10
-674.278446
 20
-420.150965
 30
0.0
 40
3.0
100
AcDbArc
 50
90.0
 51
180.0
  0
ARC
  5
269
100
AcDbEntity
  8
1
100
AcDbCircle
 10
-674.278446
 20
-406.150965
 30
0.0
 40
3.0
100
AcDbArc
 50
180.0
 51
270.0
  0
ARC
  5
26A
100
AcDbEntity
  8
1
100
AcDbCircle
 10
-688.278446
 20
-406.150965
 30
0.0
 40
3.0
100
AcDbArc
 50
270.0
 51
360.0
  0
ARC
  5
26B
100
AcDbEntity
  8
1
100
AcDbCircle
 10
-688.278446
 20
-420.150965
 30
0.0
 40
3.0
100
AcDbArc
 50
360.0
 51
90.0
  0
ARC
  5
26C
100
AcDbEntity
  8
1
100
AcDbCircle
 10
-718.589525
 20
-420.150965
 30
0.0
 40
3.0
100
AcDbArc
 50
90.0
 51
161.46829
  0
ARC
  5
26D
100
AcDbEntity
  8
1
100
AcDbCircle
 10
-712.966064
 20
-406.150965
 30
0.0
 40
3.0
100
AcDbArc
 50
154.763439
 51
270.0
  0
ARC
  5
26E
100
AcDbEntity
  8
1
100
AcDbCircle
 10
-689.180276
 20
-371.650965
 30
0.0
 40
3.0
100
AcDbArc
 50
90.0
 51
136.068454
  0
ARC
  5
26F
100
AcDbEntity
  8
1
100
AcDbCircle
 10
-688.278446
 20
-371.650965
 30
0.0
 40
3.0
100
AcDbArc
 50
0.0
 51
90.0
  0
ARC
  5
270
100
AcDbEntity
  8
1
100
AcDbCircle
 10
-674.278446
 20
-371.650965
 30
0.0
 40
3.0
100
AcDbArc
 50
90.0
 51
180.0
  0
ARC
  5
271
100
AcDbEntity
  8
1
100
AcDbCircle
 10
-673.276823
 20
-357.650965
 30
0.0
 40
3.0
100
AcDbArc
 50
126.647244
 51
270.0
  0
ARC
  5
272
100
AcDbEntity
  8
1
100
AcDbCircle
 10
-688.278446
 20
-454.150965
 30
0.0
 40
3.0
100
AcDbArc
 50
270.0
 51
0.0
  0
ARC
  5
273
100
AcDbEntity
  8
1
100
AcDbCircle
 10
-674.278446
 20
-454.150965
 30
0.0
 40
3.0
100
AcDbArc
 50
180.0
 51
270.0
  0
ARC
  5
274
100
AcDbEntity
  8
1
100
AcDbCircle
 10
-633.278446
 20
-420.150965
 30
0.0
 40
3.0
100
AcDbArc
 50
0.0
 51
90.0
  0
ARC
  5
275
100
AcDbEntity
  8
1
100
AcDbCircle
 10
-633.278446
 20
-406.150965
 30
0.0
 40
3.0
100
AcDbArc
 50
270.0
 51
360.0
  0
ARC
  5
276
100
AcDbEntity
  8
1
100
AcDbCircle
 10
-633.278446
 20
-337.571031
 30
0.0
 40
3.0
100
AcDbArc
 50
0.0
 51
106.667771
  0
ARC
  5
277
100
AcDbEntity
  8
1
100
AcDbCircle
 10
-633.278446
 20
-371.650965
 30
0.0
 40
3.0
100
AcDbArc
 50
0.0
 51
90.0
  0
ARC
  5
278
100
AcDbEntity
  8
1
100
AcDbCircle
 10
-633.278446
 20
-357.650965
 30
0.0
 40
3.0
100
AcDbArc
 50
270.0
 51
0.0
  0
LINE
  5
279
100
AcDbEntity
  8
1
100
AcDbLine
 10
-630.278446
 20
-454.150965
 30
0.0
 11
-630.278446
 21
-368.650965
 31
0.0
  0
LINE
  5
27A
100
AcDbEntity
  8
1
100
AcDbLine
 10
-630.278446
 20
-357.650965
 30
0.0
 11
-630.278446
 21
-337.571031
 31
0.0
  0
LINE
  5
27B
100
AcDbEntity
  8
1
100
AcDbLine
 10
-633.278446
 20
-561.650965
 30
0.0
 11
-673.276823
 21
-561.650965
 31
0.0
  0
LINE
  5
27C
100
AcDbEntity
  8
1
100
AcDbLine
 10
-685.278446
 20
-468.150965
 30
0.0
 11
-685.278446
 21
-502.150965
 31
0.0
  0
LINE
  5
27D
100
AcDbEntity
  8
1
100
AcDbLine
 10
-685.278446
 20
-516.150965
 30
0.0
 11
-685.278446
 21
-550.650965
 31
0.0
  0
LINE
  5
27E
100
AcDbEntity
  8
1
100
AcDbLine
 10
-677.278446
 20
-468.150965
 30
0.0
 11
-677.278446
 21
-502.150965
 31
0.0
  0
LINE
  5
27F
100
AcDbEntity
  8
1
100
AcDbLine
 10
-677.278446
 20
-516.150965
 30
0.0
 11
-677.278446
 21
-550.650965
 31
0.0
  0
LINE
  5
280
100
AcDbEntity
  8
1
100
AcDbLine
 10
-633.278446
 20
-505.150965
 30
0.0
 11
-674.278446
 21
-505.150965
 31
0.0
  0
LINE
  5
281
100
AcDbEntity
  8
1
100
AcDbLine
 10
-688.278446
 20
-505.150965
 30
0.0
 11
-718.589525
 21
-505.150965
 31
0.0
  0
LINE
  5
282
100
AcDbEntity
  8
1
100
AcDbLine
 10
-633.278446
 20
-513.150965
 30
0.0
 11
-674.278446
 21
-513.150965
 31
0.0
  0
LINE
  5
283
100
AcDbEntity
  8
1
100
AcDbLine
 10
-688.278446
 20
-513.150965
 30
0.0
 11
-712.966064
 21
-513.150965
 31
0.0
  0
ARC
  5
284
100
AcDbEntity
  8
1
100
AcDbCircle
 10
-596.278446
 20
-461.150965
 30
0.0
 40
132.0
100
AcDbArc
 50
183.110601
 51
198.53171
  0
ARC
  5
285
100
AcDbEntity
  8
1
100
AcDbCircle
 10
-596.278446
 20
-461.150965
 30
0.0
 40
132.0
100
AcDbArc
 50
205.236561
 51
223.931546
  0
ARC
  5
286
100
AcDbEntity
  8
1
100
AcDbCircle
 10
-596.278446
 20
-461.150965
 30
0.0
 40
132.0
100
AcDbArc
 50
233.352756
 51
253.332229
  0
LINE
  5
287
100
AcDbEntity
  8
1
100
AcDbLine
 10
-633.278446
 20
-553.650965
 30
0.0
 11
-674.278446
 21
-553.650965
 31
0.0
  0
LINE
  5
288
100
AcDbEntity
  8
1
100
AcDbLine
 10
-688.278446
 20
-553.650965
 30
0.0
 11
-689.180276
 21
-553.650965
 31
0.0
  0
ARC
  5
289
100
AcDbEntity
  8
1
100
AcDbCircle
 10
-674.278446
 20
-502.150965
 30
0.0
 40
3.0
100
AcDbArc
 50
180.0
 51
270.0
  0
ARC
  5
28A
100
AcDbEntity
  8
1
100
AcDbCircle
 10
-674.278446
 20
-516.150965
 30
0.0
 40
3.0
100
AcDbArc
 50
90.0
 51
180.0
  0
ARC
  5
28B
100
AcDbEntity
  8
1
100
AcDbCircle
 10
-688.278446
 20
-516.150965
 30
0.0
 40
3.0
100
AcDbArc
 50
0.0
 51
90.0
  0
ARC
  5
28C
100
AcDbEntity
  8
1
100
AcDbCircle
 10
-688.278446
 20
-502.150965
 30
0.0
 40
3.0
100
AcDbArc
 50
270.0
 51
0.0
  0
ARC
  5
28D
100
AcDbEntity
  8
1
100
AcDbCircle
 10
-718.589525
 20
-502.150965
 30
0.0
 40
3.0
100
AcDbArc
 50
198.53171
 51
270.0
  0
ARC
  5
28E
100
AcDbEntity
  8
1
100
AcDbCircle
 10
-712.966064
 20
-516.150965
 30
0.0
 40
3.0
100
AcDbArc
 50
90.0
 51
205.236561
  0
ARC
  5
28F
100
AcDbEntity
  8
1
100
AcDbCircle
 10
-689.180276
 20
-550.650965
 30
0.0
 40
3.0
100
AcDbArc
 50
223.931546
 51
270.0
  0
ARC
  5
290
100
AcDbEntity
  8
1
100
AcDbCircle
 10
-688.278446
 20
-550.650965
 30
0.0
 40
3.0
100
AcDbArc
 50
270.0
 51
360.0
  0
ARC
  5
291
100
AcDbEntity
  8
1
100
AcDbCircle
 10
-674.278446
 20
-550.650965
 30
0.0
 40
3.0
100
AcDbArc
 50
180.0
 51
270.0
  0
ARC
  5
292
100
AcDbEntity
  8
1
100
AcDbCircle
 10
-673.276823
 20
-564.650965
 30
0.0
 40
3.0
100
AcDbArc
 50
90.0
 51
233.352756
  0
ARC
  5
293
100
AcDbEntity
  8
1
100
AcDbCircle
 10
-688.278446
 20
-468.150965
 30
0.0
 40
3.0
100
AcDbArc
 50
360.0
 51
90.0
  0
ARC
  5
294
100
AcDbEntity
  8
1
100
AcDbCircle
 10
-674.278446
 20
-468.150965
 30
0.0
 40
3.0
100
AcDbArc
 50
90.0
 51
180.0
  0
ARC
  5
295
100
AcDbEntity
  8
1
100
AcDbCircle
 10
-633.278446
 20
-502.150965
 30
0.0
 40
3.0
100
AcDbArc
 50
270.0
 51
360.0
  0
ARC
  5
296
100
AcDbEntity
  8
1
100
AcDbCircle
 10
-633.278446
 20
-516.150965
 30
0.0
 40
3.0
100
AcDbArc
 50
0.0
 51
90.0
  0
ARC
  5
297
100
AcDbEntity
  8
1
100
AcDbCircle
 10
-633.278446
 20
-584.730898
 30
0.0
 40
3.0
100
AcDbArc
 50
253.332229
 51
360.0
  0
ARC
  5
298
100
AcDbEntity
  8
1
100
AcDbCircle
 10
-633.278446
 20
-550.650965
 30
0.0
 40
3.0
100
AcDbArc
 50
270.0
 51
360.0
  0
ARC
  5
299
100
AcDbEntity
  8
1
100
AcDbCircle
 10
-633.278446
 20
-564.650965
 30
0.0
 40
3.0
100
AcDbArc
 50
360.0
 51
90.0
  0
LINE
  5
29A
100
AcDbEntity
  8
1
100
AcDbLine
 10
-630.278446
 20
-564.650965
 30
0.0
 11
-630.278446
 21
-584.730898
 31
0.0
  0
LINE
  5
29B
100
AcDbEntity
  8
1
100
AcDbLine
 10
-576.991145
 20
-323.193524
 30
0.0
 11
-576.991145
 21
-365.650965
 31
0.0
  0
ARC
  5
29C
100
AcDbEntity
  8
1
100
AcDbCircle
 10
-573.991145
 20
-365.650965
 30
0.0
 40
3.0
100
AcDbArc
 50
180.0
 51
270.0
  0
ARC
  5
29D
100
AcDbEntity
  8
1
100
AcDbCircle
 10
-596.278446
 20
-461.150965
 30
0.0
 40
145.0
100
AcDbArc
 50
76.438865
 51
78.866046
  0
LINE
  5
29E
100
AcDbEntity
  8
1
100
AcDbLine
 10
-568.278446
 20
-318.880096
 30
0.0
 11
-568.278446
 21
-314.150965
 31
0.0
  0
LINE
  5
29F
100
AcDbEntity
  8
1
100
AcDbLine
 10
-568.278446
 20
-318.880096
 30
0.0
 11
-593.278446
 21
-318.880096
 31
0.0
  0
LINE
  5
2A0
100
AcDbEntity
  8
1
100
AcDbLine
 10
-562.278446
 20
-320.193524
 30
0.0
 11
-573.991145
 21
-320.193524
 31
0.0
  0
ARC
  5
2A1
100
AcDbEntity
  8
1
100
AcDbCircle
 10
-573.991145
 20
-323.193524
 30
0.0
 40
3.0
100
AcDbArc
 50
90.0
 51
180.0
  0
ARC
  5
2A2
100
AcDbEntity
  8
1
100
AcDbCircle
 10
-593.278446
 20
-315.880096
 30
0.0
 40
3.0
100
AcDbArc
 50
180.0
 51
270.0
  0
LINE
  5
2A3
100
AcDbEntity
  8
1
100
AcDbLine
 10
-609.778446
 20
-344.650965
 30
0.0
 11
-599.278446
 21
-344.650965
 31
0.0
  0
ARC
  5
2A4
100
AcDbEntity
  8
1
100
AcDbCircle
 10
-609.778446
 20
-356.650965
 30
0.0
 40
12.0
100
AcDbArc
 50
90.0
 51
270.0
  0
ARC
  5
2A5
100
AcDbEntity
  8
1
100
AcDbCircle
 10
-599.278446
 20
-341.650965
 30
0.0
 40
3.0
100
AcDbArc
 50
270.0
 51
360.0
  0
CIRCLE
  5
2A6
100
AcDbEntity
  8
1
100
AcDbCircle
 10
-609.828446
 20
-356.638965
 30
0.0
 40
6.025
  0
CIRCLE
  5
2A7
100
AcDbEntity
  8
1
100
AcDbCircle
 10
-609.828446
 20
-356.638965
 30
0.0
 40
4.2
  0
CIRCLE
  5
2A8
100
AcDbEntity
  8
1
 62
     2
100
AcDbCircle
 10
-609.828446
 20
-356.638965
 30
0.0
 40
4.0
  0
CIRCLE
  5
2A9
100
AcDbEntity
  8
1
100
AcDbCircle
 10
-609.828446
 20
-356.638965
 30
0.0
 40
3.3235
  0
CIRCLE
  5
2AA
100
AcDbEntity
  8
1
100
AcDbCircle
 10
-592.328446
 20
-565.662965
 30
0.0
 40
6.025
  0
CIRCLE
  5
2AB
100
AcDbEntity
  8
1
100
AcDbCircle
 10
-592.328446
 20
-565.662965
 30
0.0
 40
4.2
  0
CIRCLE
  5
2AC
100
AcDbEntity
  8
1
 62
     2
100
AcDbCircle
 10
-592.328446
 20
-565.662965
 30
0.0
 40
4.0
  0
CIRCLE
  5
2AD
100
AcDbEntity
  8
1
100
AcDbCircle
 10
-592.328446
 20
-565.662965
 30
0.0
 40
3.3235
  0
LINE
  5
2AE
100
AcDbEntity
  8
1
100
AcDbLine
 10
-624.278446
 20
-309.282601
 30
0.0
 11
-592.328446
 21
-309.282601
 31
0.0
  0
ARC
  5
2AF
100
AcDbEntity
  8
1
100
AcDbCircle
 10
-573.828446
 20
310.705596
 30
0.0
 40
618.960199
100
AcDbArc
 50
266.572949
 51
268.287241
  0
ARC
  5
2B0
100
AcDbEntity
  8
1
100
AcDbCircle
 10
-593.278446
 20
-461.150965
 30
0.0
 40
155.0
100
AcDbArc
 50
96.501303
 51
101.536959
  0
LINE
  5
2B1
100
AcDbEntity
  8
1
100
AcDbLine
 10
-592.328446
 20
-307.978069
 30
0.0
 11
-592.328446
 21
-314.150965
 31
0.0
  0
LINE
  5
2B2
100
AcDbEntity
  8
1
100
AcDbLine
 10
-592.328446
 20
-314.150965
 30
0.0
 11
-568.278446
 21
-314.150965
 31
0.0
  0
LINE
  5
2B3
100
AcDbEntity
  8
1
100
AcDbLine
 10
-568.349966
 20
-312.756131
 30
0.0
 11
-568.349966
 21
-314.150965
 31
0.0
  0
LINE
  5
2B4
100
AcDbEntity
  8
1
100
AcDbLine
 10
-573.936872
 20
-311.812976
 30
0.0
 11
-573.936872
 21
-314.150965
 31
0.0
  0
ARC
  5
2B5
100
AcDbEntity
  8
1
100
AcDbCircle
 10
-596.274455
 20
-461.151626
 30
0.0
 40
151.0
100
AcDbArc
 50
79.342926
 51
81.492955
  0
ARC
  5
2B6
100
AcDbEntity
  8
1
100
AcDbCircle
 10
-573.936872
 20
164.326988
 30
0.0
 40
476.139963
100
AcDbArc
 50
269.892713
 51
270.0
  0
LINE
  5
2B7
100
AcDbEntity
  8
1
100
AcDbLine
 10
-609.828446
 20
-307.206799
 30
0.0
 11
-609.828446
 21
-304.234912
 31
0.0
  0
LINE
  5
2B8
100
AcDbEntity
  8
1
100
AcDbLine
 10
-574.828446
 20
-314.150965
 30
0.0
 11
-574.828446
 21
-305.118444
 31
0.0
  0
LINE
  5
2B9
100
AcDbEntity
  8
1
100
AcDbLine
 10
-576.991145
 20
-599.108405
 30
0.0
 11
-576.991145
 21
-556.650965
 31
0.0
  0
ARC
  5
2BA
100
AcDbEntity
  8
1
100
AcDbCircle
 10
-573.991145
 20
-556.650965
 30
0.0
 40
3.0
100
AcDbArc
 50
90.0
 51
180.0
  0
ARC
  5
2BB
100
AcDbEntity
  8
1
100
AcDbCircle
 10
-596.278446
 20
-461.150965
 30
0.0
 40
145.0
100
AcDbArc
 50
281.133954
 51
283.561135
  0
LINE
  5
2BC
100
AcDbEntity
  8
1
100
AcDbLine
 10
-568.278446
 20
-603.421833
 30
0.0
 11
-568.278446
 21
-608.150965
 31
0.0
  0
LINE
  5
2BD
100
AcDbEntity
  8
1
100
AcDbLine
 10
-568.278446
 20
-603.421833
 30
0.0
 11
-593.278446
 21
-603.421833
 31
0.0
  0
LINE
  5
2BE
100
AcDbEntity
  8
1
100
AcDbLine
 10
-562.278446
 20
-602.108405
 30
0.0
 11
-573.991145
 21
-602.108405
 31
0.0
  0
ARC
  5
2BF
100
AcDbEntity
  8
1
100
AcDbCircle
 10
-573.991145
 20
-599.108405
 30
0.0
 40
3.0
100
AcDbArc
 50
180.0
 51
270.0
  0
ARC
  5
2C0
100
AcDbEntity
  8
1
100
AcDbCircle
 10
-593.278446
 20
-606.421833
 30
0.0
 40
3.0
100
AcDbArc
 50
90.0
 51
180.0
  0
LINE
  5
2C1
100
AcDbEntity
  8
1
100
AcDbLine
 10
-609.778446
 20
-577.650965
 30
0.0
 11
-599.278446
 21
-577.650965
 31
0.0
  0
ARC
  5
2C2
100
AcDbEntity
  8
1
100
AcDbCircle
 10
-609.778446
 20
-565.650965
 30
0.0
 40
12.0
100
AcDbArc
 50
90.0
 51
270.0
  0
ARC
  5
2C3
100
AcDbEntity
  8
1
100
AcDbCircle
 10
-599.278446
 20
-580.650965
 30
0.0
 40
3.0
100
AcDbArc
 50
0.0
 51
90.0
  0
LINE
  5
2C4
100
AcDbEntity
  8
1
100
AcDbLine
 10
-624.278446
 20
-613.019329
 30
0.0
 11
-592.328446
 21
-613.019329
 31
0.0
  0
ARC
  5
2C5
100
AcDbEntity
  8
1
100
AcDbCircle
 10
-573.828446
 20
-1233.007526
 30
0.0
 40
618.960199
100
AcDbArc
 50
91.712759
 51
93.427051
  0
ARC
  5
2C6
100
AcDbEntity
  8
1
100
AcDbCircle
 10
-593.278446
 20
-461.150965
 30
0.0
 40
155.0
100
AcDbArc
 50
258.463041
 51
263.498697
  0
LINE
  5
2C7
100
AcDbEntity
  8
1
100
AcDbLine
 10
-592.328446
 20
-614.32386
 30
0.0
 11
-592.328446
 21
-608.150965
 31
0.0
  0
LINE
  5
2C8
100
AcDbEntity
  8
1
100
AcDbLine
 10
-592.328446
 20
-608.150965
 30
0.0
 11
-568.278446
 21
-608.150965
 31
0.0
  0
LINE
  5
2C9
100
AcDbEntity
  8
1
100
AcDbLine
 10
-568.349966
 20
-609.545799
 30
0.0
 11
-568.349966
 21
-608.150965
 31
0.0
  0
LINE
  5
2CA
100
AcDbEntity
  8
1
100
AcDbLine
 10
-573.936872
 20
-610.488954
 30
0.0
 11
-573.936872
 21
-608.150965
 31
0.0
  0
ARC
  5
2CB
100
AcDbEntity
  8
1
100
AcDbCircle
 10
-596.274455
 20
-461.150304
 30
0.0
 40
151.0
100
AcDbArc
 50
278.507045
 51
280.657074
  0
ARC
  5
2CC
100
AcDbEntity
  8
1
100
AcDbCircle
 10
-573.936872
 20
-1086.628917
 30
0.0
 40
476.139963
100
AcDbArc
 50
90.0
 51
90.107287
  0
LINE
  5
2CD
100
AcDbEntity
  8
1
100
AcDbLine
 10
-609.828446
 20
-615.095131
 30
0.0
 11
-609.828446
 21
-618.067017
 31
0.0
  0
LINE
  5
2CE
100
AcDbEntity
  8
1
100
AcDbLine
 10
-574.828446
 20
-608.150965
 30
0.0
 11
-574.828446
 21
-617.183485
 31
0.0
  0
ARC
  5
2CF
100
AcDbEntity
  8
1
100
AcDbCircle
 10
-596.278446
 20
-461.150965
 30
0.0
 40
140.0
100
AcDbArc
 50
101.536959
 51
258.463041
  0
ARC
  5
2D0
100
AcDbEntity
  8
1
100
AcDbCircle
 10
-596.278446
 20
-461.150965
 30
0.0
 40
140.0
100
AcDbArc
 50
284.055233
 51
75.944767
  0
LINE
  5
2D1
100
AcDbEntity
  8
1
100
AcDbLine
 10
-609.828446
 20
-553.650965
 30
0.0
 11
-609.828446
 21
-465.150965
 31
0.0
  0
LINE
  5
2D2
100
AcDbEntity
  8
1
100
AcDbLine
 10
-609.828446
 20
-457.150965
 30
0.0
 11
-609.828446
 21
-368.650965
 31
0.0
  0
LINE
  5
2D3
100
AcDbEntity
  8
1
100
AcDbLine
 10
-574.828446
 20
-553.650965
 30
0.0
 11
-574.828446
 21
-465.150965
 31
0.0
  0
LINE
  5
2D4
100
AcDbEntity
  8
1
100
AcDbLine
 10
-574.828446
 20
-457.150965
 30
0.0
 11
-574.828446
 21
-368.650965
 31
0.0
  0
LINE
  5
2D5
100
AcDbEntity
  8
1
100
AcDbLine
 10
-619.278446
 20
-409.150965
 30
0.0
 11
-609.828446
 21
-409.150965
 31
0.0
  0
LINE
  5
2D6
100
AcDbEntity
  8
1
100
AcDbLine
 10
-574.828446
 20
-409.150965
 30
0.0
 11
-573.278446
 21
-409.150965
 31
0.0
  0
LINE
  5
2D7
100
AcDbEntity
  8
1
100
AcDbLine
 10
-619.278446
 20
-417.150965
 30
0.0
 11
-609.828446
 21
-417.150965
 31
0.0
  0
LINE
  5
2D8
100
AcDbEntity
  8
1
100
AcDbLine
 10
-574.828446
 20
-417.150965
 30
0.0
 11
-573.278446
 21
-417.150965
 31
0.0
  0
LINE
  5
2D9
100
AcDbEntity
  8
1
100
AcDbLine
 10
-619.278446
 20
-505.150965
 30
0.0
 11
-609.828446
 21
-505.150965
 31
0.0
  0
LINE
  5
2DA
100
AcDbEntity
  8
1
100
AcDbLine
 10
-574.828446
 20
-505.150965
 30
0.0
 11
-573.278446
 21
-505.150965
 31
0.0
  0
LINE
  5
2DB
100
AcDbEntity
  8
1
100
AcDbLine
 10
-619.278446
 20
-513.150965
 30
0.0
 11
-609.828446
 21
-513.150965
 31
0.0
  0
LINE
  5
2DC
100
AcDbEntity
  8
1
100
AcDbLine
 10
-574.828446
 20
-513.150965
 30
0.0
 11
-573.278446
 21
-513.150965
 31
0.0
  0
ARC
  5
2DD
100
AcDbEntity
  8
1
100
AcDbCircle
 10
-596.278446
 20
-461.150965
 30
0.0
 40
144.27633
100
AcDbArc
 50
101.190519
 51
258.809481
  0
ARC
  5
2DE
100
AcDbEntity
  8
1
100
AcDbCircle
 10
-596.278446
 20
-461.150965
 30
0.0
 40
144.27633
100
AcDbArc
 50
283.630465
 51
76.369535
  0
ARC
  5
2DF
100
AcDbEntity
  8
1
100
AcDbCircle
 10
-596.278446
 20
-461.150965
 30
0.0
 40
145.812228
100
AcDbArc
 50
101.071147
 51
258.928853
  0
ARC
  5
2E0
100
AcDbEntity
  8
1
100
AcDbCircle
 10
-596.278446
 20
-461.150965
 30
0.0
 40
145.812228
100
AcDbArc
 50
281.071147
 51
78.928853
  0
LINE
  5
2E1
100
AcDbEntity
  8
1
  6
CENTER
 62
     2
100
AcDbLine
 10
-620.730236
 20
-356.638965
 30
0.0
 11
-598.398022
 21
-356.638965
 31
0.0
  0
LINE
  5
2E2
100
AcDbEntity
  8
1
  6
CENTER
 62
     2
100
AcDbLine
 10
-609.828446
 20
-367.70999
 30
0.0
 11
-609.828446
 21
-346.309109
 31
0.0
  0
LINE
  5
2E3
100
AcDbEntity
  8
1
  6
CENTER
 62
     2
100
AcDbLine
 10
-603.230236
 20
-565.662965
 30
0.0
 11
-580.898022
 21
-565.662965
 31
0.0
  0
LINE
  5
2E4
100
AcDbEntity
  8
1
100
AcDbLine
 10
-410.828446
 20
621.649035
 30
0.0
 11
-448.328446
 21
621.649035
 31
0.0
  0
LINE
  5
2E5
100
AcDbEntity
  8
1
  6
DASHED
100
AcDbLine
 10
-448.328446
 20
621.649035
 30
0.0
 11
-522.589383
 21
621.649035
 31
0.0
  0
LINE
  5
2E6
100
AcDbEntity
  8
1
100
AcDbLine
 10
-437.139308
 20
591.649035
 30
0.0
 11
-448.328446
 21
591.649035
 31
0.0
  0
LINE
  5
2E7
100
AcDbEntity
  8
1
  6
DASHED
100
AcDbLine
 10
-448.328446
 20
591.649035
 30
0.0
 11
-522.328446
 21
591.649035
 31
0.0
  0
LINE
  5
2E8
100
AcDbEntity
  8
1
  6
DASHED
100
AcDbLine
 10
-522.328446
 20
588.009333
 30
0.0
 11
-448.328446
 21
588.009333
 31
0.0
  0
LINE
  5
2E9
100
AcDbEntity
  8
1
100
AcDbLine
 10
-448.328446
 20
588.009333
 30
0.0
 11
-422.104348
 21
588.009333
 31
0.0
  0
LINE
  5
2EA
100
AcDbEntity
  8
1
  6
DASHED
100
AcDbLine
 10
-522.328446
 20
565.288738
 30
0.0
 11
-448.328446
 21
565.288738
 31
0.0
  0
LINE
  5
2EB
100
AcDbEntity
  8
1
100
AcDbLine
 10
-448.328446
 20
565.288738
 30
0.0
 11
-422.104348
 21
565.288738
 31
0.0
  0
LINE
  5
2EC
100
AcDbEntity
  8
1
100
AcDbLine
 10
-414.757355
 20
561.649035
 30
0.0
 11
-448.328446
 21
561.649035
 31
0.0
  0
LINE
  5
2ED
100
AcDbEntity
  8
1
  6
DASHED
100
AcDbLine
 10
-448.328446
 20
561.649035
 30
0.0
 11
-522.328446
 21
561.649035
 31
0.0
  0
LINE
  5
2EE
100
AcDbEntity
  8
1
100
AcDbLine
 10
-410.828446
 20
541.649035
 30
0.0
 11
-448.328446
 21
541.649035
 31
0.0
  0
LINE
  5
2EF
100
AcDbEntity
  8
1
  6
DASHED
100
AcDbLine
 10
-448.328446
 20
541.649035
 30
0.0
 11
-522.328446
 21
541.649035
 31
0.0
  0
LINE
  5
2F0
100
AcDbEntity
  8
1
100
AcDbLine
 10
-817.328446
 20
613.649035
 30
0.0
 11
-815.328446
 21
613.649035
 31
0.0
  0
LINE
  5
2F1
100
AcDbEntity
  8
1
  6
DASHED
100
AcDbLine
 10
-815.328446
 20
613.649035
 30
0.0
 11
-756.517584
 21
613.649035
 31
0.0
  0
LINE
  5
2F2
100
AcDbEntity
  8
1
  6
DASHED
100
AcDbLine
 10
-775.149115
 20
591.649035
 30
0.0
 11
-815.328446
 21
602.440423
 31
0.0
  0
LINE
  5
2F3
100
AcDbEntity
  8
1
100
AcDbLine
 10
-815.328446
 20
602.440423
 30
0.0
 11
-817.976916
 21
603.15175
 31
0.0
  0
LINE
  5
2F4
100
AcDbEntity
  8
1
100
AcDbLine
 10
-818.017204
 20
603.162933
 30
0.0
 11
-815.328446
 21
602.39235
 31
0.0
  0
LINE
  5
2F5
100
AcDbEntity
  8
1
  6
DASHED
100
AcDbLine
 10
-815.328446
 20
602.39235
 30
0.0
 11
-779.100133
 21
592.009523
 31
0.0
  0
LINE
  5
2F6
100
AcDbEntity
  8
2
  6
CENTER
 62
     2
100
AcDbLine
 10
-592.328446
 20
712.897562
 30
0.0
 11
-592.328446
 21
390.783783
 31
0.0
  0
LINE
  5
2F7
100
AcDbEntity
  8
2
  6
CENTER
 62
     2
100
AcDbLine
 10
-636.523446
 20
11.438473
 30
0.0
 11
-636.523446
 21
56.581741
 31
0.0
  0
LINE
  5
2F8
100
AcDbEntity
  8
2
  6
CENTER
 62
     2
100
AcDbLine
 10
-548.133446
 20
11.438473
 30
0.0
 11
-548.133446
 21
56.581741
 31
0.0
  0
LINE
  5
2F9
100
AcDbEntity
  8
2
100
AcDbLine
 10
-684.328446
 20
645.649035
 30
0.0
 11
-684.328446
 21
660.649035
 31
0.0
  0
LINE
  5
2FA
100
AcDbEntity
  8
2
100
AcDbLine
 10
-465.328446
 20
618.149035
 30
0.0
 11
-465.328446
 21
583.149035
 31
0.0
  0
LINE
  5
2FB
100
AcDbEntity
  8
2
100
AcDbLine
 10
-465.828446
 20
582.649035
 30
0.0
 11
-466.828446
 21
582.649035
 31
0.0
  0
LINE
  5
2FC
100
AcDbEntity
  8
2
100
AcDbLine
 10
-466.828446
 20
618.649035
 30
0.0
 11
-465.828446
 21
618.649035
 31
0.0
  0
LINE
  5
2FD
100
AcDbEntity
  8
2
100
AcDbLine
 10
-465.328446
 20
533.149035
 30
0.0
 11
-465.328446
 21
568.149035
 31
0.0
  0
LINE
  5
2FE
100
AcDbEntity
  8
2
100
AcDbLine
 10
-465.828446
 20
568.649035
 30
0.0
 11
-466.828446
 21
568.649035
 31
0.0
  0
LINE
  5
2FF
100
AcDbEntity
  8
2
100
AcDbLine
 10
-466.828446
 20
532.649035
 30
0.0
 11
-465.828446
 21
532.649035
 31
0.0
  0
LINE
  5
300
100
AcDbEntity
  8
2
100
AcDbLine
 10
-479.828446
 20
366.149035
 30
0.0
 11
-507.828446
 21
366.149035
 31
0.0
  0
LINE
  5
301
100
AcDbEntity
  8
2
100
AcDbLine
 10
-507.828446
 20
366.149035
 30
0.0
 11
-509.828446
 21
364.149035
 31
0.0
  0
LINE
  5
302
100
AcDbEntity
  8
2
100
AcDbLine
 10
-509.828446
 20
355.149035
 30
0.0
 11
-509.828446
 21
364.149035
 31
0.0
  0
ARC
  5
303
100
AcDbEntity
  8
2
100
AcDbCircle
 10
-511.828446
 20
355.149035
 30
0.0
 40
2.0
100
AcDbArc
 50
270.0
 51
360.0
  0
LINE
  5
304
100
AcDbEntity
  8
2
100
AcDbLine
 10
-513.828446
 20
351.149035
 30
0.0
 11
-513.828446
 21
350.68876
 31
0.0
  0
LINE
  5
305
100
AcDbEntity
  8
2
100
AcDbLine
 10
-528.383535
 20
330.149035
 30
0.0
 11
-459.273357
 21
330.149035
 31
0.0
  0
LINE
  5
306
100
AcDbEntity
  8
2
100
AcDbLine
 10
-485.281517
 20
352.149035
 30
0.0
 11
-479.76495
 21
352.149035
 31
0.0
  0
LINE
  5
307
100
AcDbEntity
  8
2
100
AcDbLine
 10
-463.428446
 20
352.149035
 30
0.0
 11
-458.975144
 21
352.149035
 31
0.0
  0
LINE
  5
308
100
AcDbEntity
  8
2
100
AcDbLine
 10
-442.895181
 20
352.149035
 30
0.0
 11
-438.928446
 21
352.149035
 31
0.0
  0
LINE
  5
309
100
AcDbEntity
  8
2
100
AcDbLine
 10
-411.528446
 20
352.149035
 30
0.0
 11
-410.428446
 21
352.149035
 31
0.0
  0
LINE
  5
30A
100
AcDbEntity
  8
2
100
AcDbLine
 10
-404.928446
 20
352.149035
 30
0.0
 11
-401.820487
 21
352.149035
 31
0.0
  0
ARC
  5
30B
100
AcDbEntity
  8
2
100
AcDbCircle
 10
-506.028446
 20
829.649035
 30
0.0
 40
500.0
100
AcDbArc
 50
260.664881
 51
267.437441
  0
ARC
  5
30C
100
AcDbEntity
  8
2
100
AcDbCircle
 10
-511.828446
 20
351.149035
 30
0.0
 40
2.0
100
AcDbArc
 50
90.0
 51
180.0
  0
LINE
  5
30D
100
AcDbEntity
  8
2
100
AcDbLine
 10
-479.828446
 20
366.149035
 30
0.0
 11
-477.828446
 21
364.149035
 31
0.0
  0
LINE
  5
30E
100
AcDbEntity
  8
2
100
AcDbLine
 10
-477.828446
 20
355.149035
 30
0.0
 11
-477.828446
 21
364.149035
 31
0.0
  0
ARC
  5
30F
100
AcDbEntity
  8
2
100
AcDbCircle
 10
-475.828446
 20
355.149035
 30
0.0
 40
2.0
100
AcDbArc
 50
180.0
 51
270.0
  0
LINE
  5
310
100
AcDbEntity
  8
2
100
AcDbLine
 10
-473.828446
 20
351.149035
 30
0.0
 11
-473.828446
 21
350.68876
 31
0.0
  0
ARC
  5
311
100
AcDbEntity
  8
2
100
AcDbCircle
 10
-481.628446
 20
829.649035
 30
0.0
 40
500.0
100
AcDbArc
 50
272.562559
 51
279.335119
  0
ARC
  5
312
100
AcDbEntity
  8
2
100
AcDbCircle
 10
-475.828446
 20
351.149035
 30
0.0
 40
2.0
100
AcDbArc
 50
0.0
 51
90.0
  0
LINE
  5
313
100
AcDbEntity
  8
2
100
AcDbLine
 10
-477.828446
 20
364.149035
 30
0.0
 11
-509.828446
 21
364.149035
 31
0.0
  0
ARC
  5
314
100
AcDbEntity
  8
2
100
AcDbCircle
 10
-493.828446
 20
381.949035
 30
0.0
 40
37.8
100
AcDbArc
 50
256.46135
 51
283.347693
  0
ARC
  5
315
100
AcDbEntity
  8
2
100
AcDbCircle
 10
-493.828446
 20
372.749035
 30
0.0
 40
22.1
100
AcDbArc
 50
249.678608
 51
289.90826
  0
ARC
  5
316
100
AcDbEntity
  8
2
100
AcDbCircle
 10
-494.528446
 20
345.049035
 30
0.0
 40
11.2
100
AcDbArc
 50
12.984112
 51
30.742694
  0
ARC
  5
317
100
AcDbEntity
  8
2
100
AcDbCircle
 10
-494.128446
 20
345.249035
 30
0.0
 40
10.3
100
AcDbArc
 50
152.801464
 51
166.803615
  0
LINE
  5
318
100
AcDbEntity
  8
2
100
AcDbLine
 10
-423.629962
 20
352.149035
 30
0.0
 11
-426.128446
 21
352.149035
 31
0.0
  0
ARC
  5
319
100
AcDbEntity
  8
2
100
AcDbCircle
 10
-468.928446
 20
382.349035
 30
0.0
 40
38.1
100
AcDbArc
 50
257.489802
 51
282.010034
  0
ARC
  5
31A
100
AcDbEntity
  8
2
100
AcDbCircle
 10
-471.528446
 20
369.549035
 30
0.0
 40
19.0
100
AcDbArc
 50
248.013597
 51
292.510479
  0
ARC
  5
31B
100
AcDbEntity
  8
2
100
AcDbCircle
 10
-468.228446
 20
343.449035
 30
0.0
 40
9.7
100
AcDbArc
 50
27.791668
 51
57.213701
  0
ARC
  5
31C
100
AcDbEntity
  8
2
100
AcDbCircle
 10
-486.628446
 20
348.649035
 30
0.0
 40
8.0
100
AcDbArc
 50
351.124411
 51
14.477512
  0
ARC
  5
31D
100
AcDbEntity
  8
2
100
AcDbCircle
 10
-445.728446
 20
372.649035
 30
0.0
 40
28.5
100
AcDbArc
 50
254.666975
 51
284.161069
  0
ARC
  5
31E
100
AcDbEntity
  8
2
100
AcDbCircle
 10
-451.028446
 20
368.449035
 30
0.0
 40
17.8
100
AcDbArc
 50
248.621499
 51
290.899028
  0
ARC
  5
31F
100
AcDbEntity
  8
2
100
AcDbCircle
 10
-445.128446
 20
343.349035
 30
0.0
 40
8.9
100
AcDbArc
 50
31.500458
 51
74.573378
  0
ARC
  5
320
100
AcDbEntity
  8
2
100
AcDbCircle
 10
-460.728446
 20
346.749035
 30
0.0
 40
6.0
100
AcDbArc
 50
2.459196
 51
53.130102
  0
ARC
  5
321
100
AcDbEntity
  8
2
100
AcDbCircle
 10
-425.728446
 20
363.449035
 30
0.0
 40
19.3
100
AcDbArc
 50
251.56195
 51
283.988737
  0
ARC
  5
322
100
AcDbEntity
  8
2
100
AcDbCircle
 10
-432.928446
 20
361.849035
 30
0.0
 40
11.2
100
AcDbArc
 50
255.994128
 51
295.608305
  0
ARC
  5
323
100
AcDbEntity
  8
2
100
AcDbCircle
 10
-426.128446
 20
347.149035
 30
0.0
 40
5.0
100
AcDbArc
 50
90.0
 51
113.068733
  0
ARC
  5
324
100
AcDbEntity
  8
2
100
AcDbCircle
 10
-430.028446
 20
338.749035
 30
0.0
 40
13.6
100
AcDbArc
 50
43.012702
 51
73.688203
  0
ARC
  5
325
100
AcDbEntity
  8
2
100
AcDbCircle
 10
-439.428446
 20
345.949035
 30
0.0
 40
6.3
100
AcDbArc
 50
7.53278
 51
67.380135
  0
ARC
  5
326
100
AcDbEntity
  8
2
100
AcDbCircle
 10
-409.828446
 20
356.349035
 30
0.0
 40
12.2
100
AcDbArc
 50
244.256542
 51
286.000716
  0
ARC
  5
327
100
AcDbEntity
  8
2
100
AcDbCircle
 10
-417.728446
 20
359.149035
 30
0.0
 40
8.5
100
AcDbArc
 50
251.083012
 51
297.322222
  0
ARC
  5
328
100
AcDbEntity
  8
2
100
AcDbCircle
 10
-411.528446
 20
347.149035
 30
0.0
 40
5.0
100
AcDbArc
 50
90.0
 51
117.322222
  0
ARC
  5
329
100
AcDbEntity
  8
2
100
AcDbCircle
 10
-414.928446
 20
339.949035
 30
0.0
 40
12.3
100
AcDbArc
 50
39.814743
 51
74.699906
  0
ARC
  5
32A
100
AcDbEntity
  8
2
100
AcDbCircle
 10
-426.928446
 20
340.749035
 30
0.0
 40
12.2
100
AcDbArc
 50
26.844811
 51
62.733956
  0
LINE
  5
32B
100
AcDbEntity
  8
2
100
AcDbLine
 10
-402.228446
 20
344.149035
 30
0.0
 11
-404.328446
 21
344.149035
 31
0.0
  0
LINE
  5
32C
100
AcDbEntity
  8
2
100
AcDbLine
 10
-415.228446
 20
344.149035
 30
0.0
 11
-418.328446
 21
344.149035
 31
0.0
  0
LINE
  5
32D
100
AcDbEntity
  8
2
100
AcDbLine
 10
-433.528446
 20
344.149035
 30
0.0
 11
-436.128446
 21
344.149035
 31
0.0
  0
LINE
  5
32E
100
AcDbEntity
  8
2
100
AcDbLine
 10
-454.528446
 20
344.149035
 30
0.0
 11
-458.428446
 21
344.149035
 31
0.0
  0
LINE
  5
32F
100
AcDbEntity
  8
2
100
AcDbLine
 10
-478.328446
 20
344.149035
 30
0.0
 11
-483.128446
 21
344.149035
 31
0.0
  0
LINE
  5
330
100
AcDbEntity
  8
2
100
AcDbLine
 10
-504.528446
 20
344.149035
 30
0.0
 11
-508.628446
 21
344.149035
 31
0.0
  0
LINE
  5
331
100
AcDbEntity
  8
2
100
AcDbLine
 10
-528.428446
 20
344.149035
 30
0.0
 11
-532.528446
 21
344.149035
 31
0.0
  0
LINE
  5
332
100
AcDbEntity
  8
2
100
AcDbLine
 10
-551.328446
 20
344.149035
 30
0.0
 11
-554.228446
 21
344.149035
 31
0.0
  0
LINE
  5
333
100
AcDbEntity
  8
2
100
AcDbLine
 10
-568.628446
 20
344.149035
 30
0.0
 11
-571.128446
 21
344.149035
 31
0.0
  0
LINE
  5
334
100
AcDbEntity
  8
2
100
AcDbLine
 10
-583.028446
 20
344.149035
 30
0.0
 11
-584.928446
 21
344.149035
 31
0.0
  0
LINE
  5
335
100
AcDbEntity
  8
2
100
AcDbLine
 10
-511.828446
 20
353.149035
 30
0.0
 11
-475.828446
 21
353.149035
 31
0.0
  0
ARC
  5
336
100
AcDbEntity
  8
2
100
AcDbCircle
 10
-399.528446
 20
348.349035
 30
0.0
 40
4.2
100
AcDbArc
 50
221.945518
 51
307.267545
  0
ARC
  5
337
100
AcDbEntity
  8
2
100
AcDbCircle
 10
-407.028446
 20
340.349035
 30
0.0
 40
11.9
100
AcDbArc
 50
30.020559
 51
77.925147
  0
ARC
  5
338
100
AcDbEntity
  8
2
100
AcDbCircle
 10
-404.928446
 20
349.149035
 30
0.0
 40
3.0
100
AcDbArc
 50
90.0
 51
113.288889
  0
LINE
  5
339
100
AcDbEntity
  8
2
100
AcDbLine
 10
-577.528446
 20
336.149035
 30
0.0
 11
-408.628446
 21
336.149035
 31
0.0
  0
LINE
  5
33A
100
AcDbEntity
  8
2
100
AcDbLine
 10
-501.828446
 20
370.649035
 30
0.0
 11
-501.828446
 21
366.149035
 31
0.0
  0
LINE
  5
33B
100
AcDbEntity
  8
2
100
AcDbLine
 10
-485.828446
 20
366.149035
 30
0.0
 11
-485.828446
 21
370.649035
 31
0.0
  0
LINE
  5
33C
100
AcDbEntity
  8
2
100
AcDbLine
 10
-689.328446
 20
47.849035
 30
0.0
 11
-689.328446
 21
61.849035
 31
0.0
  0
LINE
  5
33D
100
AcDbEntity
  8
2
100
AcDbLine
 10
-558.820754
 20
60.849035
 30
0.0
 11
-689.328446
 21
60.849035
 31
0.0
  0
LINE
  5
33E
100
AcDbEntity
  8
2
100
AcDbLine
 10
-546.506715
 20
221.849035
 30
0.0
 11
-731.328446
 21
221.849035
 31
0.0
  0
LINE
  5
33F
100
AcDbEntity
  8
2
100
AcDbLine
 10
-782.379458
 20
62.849035
 30
0.0
 11
-561.089133
 21
62.849035
 31
0.0
  0
CIRCLE
  5
340
100
AcDbEntity
  8
2
100
AcDbCircle
 10
-493.828446
 20
136.849035
 30
0.0
 40
100.0
  0
CIRCLE
  5
341
100
AcDbEntity
  8
2
100
AcDbCircle
 10
-493.828446
 20
136.849035
 30
0.0
 40
92.0
  0
LINE
  5
342
100
AcDbEntity
  8
2
100
AcDbLine
 10
38.771554
 20
221.849035
 30
0.0
 11
178.771554
 21
221.849035
 31
0.0
  0
LINE
  5
343
100
AcDbEntity
  8
2
100
AcDbLine
 10
8.771554
 20
62.849035
 30
0.0
 11
8.771554
 21
210.865326
 31
0.0
  0
LINE
  5
344
100
AcDbEntity
  8
2
100
AcDbLine
 10
198.771554
 20
171.849035
 30
0.0
 11
25.771554
 21
171.849035
 31
0.0
  0
LINE
  5
345
100
AcDbEntity
  8
2
100
AcDbLine
 10
178.771554
 20
186.849035
 30
0.0
 11
198.771554
 21
186.849035
 31
0.0
  0
LINE
  5
346
100
AcDbEntity
  8
2
100
AcDbLine
 10
10.771554
 20
60.849035
 30
0.0
 11
206.771554
 21
60.849035
 31
0.0
  0
LINE
  5
347
100
AcDbEntity
  8
2
100
AcDbLine
 10
8.771554
 20
136.849035
 30
0.0
 11
221.771554
 21
136.849035
 31
0.0
  0
LINE
  5
348
100
AcDbEntity
  8
2
100
AcDbLine
 10
10.771554
 20
60.849035
 30
0.0
 11
10.771554
 21
61.849035
 31
0.0
  0
LINE
  5
349
100
AcDbEntity
  8
2
100
AcDbLine
 10
-100.728446
 20
150.849035
 30
0.0
 11
-100.728446
 21
122.849035
 31
0.0
  0
LINE
  5
34A
100
AcDbEntity
  8
2
100
AcDbLine
 10
-100.728446
 20
122.849035
 30
0.0
 11
-102.728446
 21
120.849035
 31
0.0
  0
LINE
  5
34B
100
AcDbEntity
  8
2
100
AcDbLine
 10
-111.728446
 20
120.849035
 30
0.0
 11
-102.728446
 21
120.849035
 31
0.0
  0
ARC
  5
34C
100
AcDbEntity
  8
2
100
AcDbCircle
 10
-111.728446
 20
118.849035
 30
0.0
 40
2.0
100
AcDbArc
 50
90.0
 51
180.0
  0
LINE
  5
34D
100
AcDbEntity
  8
2
100
AcDbLine
 10
-115.728446
 20
116.849035
 30
0.0
 11
-116.188722
 21
116.849035
 31
0.0
  0
ARC
  5
34E
100
AcDbEntity
  8
2
100
AcDbCircle
 10
-115.728446
 20
118.849035
 30
0.0
 40
2.0
100
AcDbArc
 50
270.0
 51
0.0
  0
LINE
  5
34F
100
AcDbEntity
  8
2
100
AcDbLine
 10
-100.728446
 20
150.849035
 30
0.0
 11
-102.728446
 21
152.849035
 31
0.0
  0
LINE
  5
350
100
AcDbEntity
  8
2
100
AcDbLine
 10
-111.728446
 20
152.849035
 30
0.0
 11
-102.728446
 21
152.849035
 31
0.0
  0
ARC
  5
351
100
AcDbEntity
  8
2
100
AcDbCircle
 10
-111.728446
 20
154.849035
 30
0.0
 40
2.0
100
AcDbArc
 50
180.0
 51
270.0
  0
LINE
  5
352
100
AcDbEntity
  8
2
100
AcDbLine
 10
-115.728446
 20
156.849035
 30
0.0
 11
-116.188722
 21
156.849035
 31
0.0
  0
ARC
  5
353
100
AcDbEntity
  8
2
100
AcDbCircle
 10
-115.728446
 20
154.849035
 30
0.0
 40
2.0
100
AcDbArc
 50
0.0
 51
90.0
  0
LINE
  5
354
100
AcDbEntity
  8
2
100
AcDbLine
 10
-102.728446
 20
152.849035
 30
0.0
 11
-102.728446
 21
120.849035
 31
0.0
  0
LINE
  5
355
100
AcDbEntity
  8
2
100
AcDbLine
 10
-113.728446
 20
119.849035
 30
0.0
 11
-113.728446
 21
154.149035
 31
0.0
  0
LINE
  5
356
100
AcDbEntity
  8
2
100
AcDbLine
 10
-96.228446
 20
144.849035
 30
0.0
 11
-100.728446
 21
144.849035
 31
0.0
  0
LINE
  5
357
100
AcDbEntity
  8
2
100
AcDbLine
 10
-100.728446
 20
128.849035
 30
0.0
 11
-96.228446
 21
128.849035
 31
0.0
  0
CIRCLE
  5
358
100
AcDbEntity
  8
2
100
AcDbCircle
 10
133.771554
 20
201.849035
 30
0.0
 40
13.0
  0
LINE
  5
359
100
AcDbEntity
  8
2
100
AcDbLine
 10
126.266
 20
214.849035
 30
0.0
 11
118.760447
 21
201.849035
 31
0.0
  0
LINE
  5
35A
100
AcDbEntity
  8
2
100
AcDbLine
 10
141.277107
 20
214.849035
 30
0.0
 11
126.266
 21
214.849035
 31
0.0
  0
LINE
  5
35B
100
AcDbEntity
  8
2
100
AcDbLine
 10
148.782661
 20
201.849035
 30
0.0
 11
141.277107
 21
214.849035
 31
0.0
  0
LINE
  5
35C
100
AcDbEntity
  8
2
100
AcDbLine
 10
141.277107
 20
188.849035
 30
0.0
 11
148.782661
 21
201.849035
 31
0.0
  0
LINE
  5
35D
100
AcDbEntity
  8
2
100
AcDbLine
 10
126.266
 20
188.849035
 30
0.0
 11
141.277107
 21
188.849035
 31
0.0
  0
LINE
  5
35E
100
AcDbEntity
  8
2
100
AcDbLine
 10
118.760447
 20
201.849035
 30
0.0
 11
126.266
 21
188.849035
 31
0.0
  0
CIRCLE
  5
35F
100
AcDbEntity
  8
2
100
AcDbCircle
 10
83.771554
 20
201.849035
 30
0.0
 40
13.0
  0
LINE
  5
360
100
AcDbEntity
  8
2
100
AcDbLine
 10
76.266
 20
214.849035
 30
0.0
 11
68.760447
 21
201.849035
 31
0.0
  0
LINE
  5
361
100
AcDbEntity
  8
2
100
AcDbLine
 10
91.277107
 20
214.849035
 30
0.0
 11
76.266
 21
214.849035
 31
0.0
  0
LINE
  5
362
100
AcDbEntity
  8
2
100
AcDbLine
 10
98.782661
 20
201.849035
 30
0.0
 11
91.277107
 21
214.849035
 31
0.0
  0
LINE
  5
363
100
AcDbEntity
  8
2
100
AcDbLine
 10
91.277107
 20
188.849035
 30
0.0
 11
98.782661
 21
201.849035
 31
0.0
  0
LINE
  5
364
100
AcDbEntity
  8
2
100
AcDbLine
 10
76.266
 20
188.849035
 30
0.0
 11
91.277107
 21
188.849035
 31
0.0
  0
LINE
  5
365
100
AcDbEntity
  8
2
100
AcDbLine
 10
68.760447
 20
201.849035
 30
0.0
 11
76.266
 21
188.849035
 31
0.0
  0
LINE
  5
366
100
AcDbEntity
  8
2
100
AcDbLine
 10
-457.328446
 20
613.649035
 30
0.0
 11
-457.328446
 21
587.649035
 31
0.0
  0
LINE
  5
367
100
AcDbEntity
  8
2
100
AcDbLine
 10
-462.328446
 20
615.660142
 30
0.0
 11
-462.328446
 21
585.637928
 31
0.0
  0
LINE
  5
368
100
AcDbEntity
  8
2
100
AcDbLine
 10
-458.48956
 20
585.637928
 30
0.0
 11
-462.328446
 21
585.637928
 31
0.0
  0
LINE
  5
369
100
AcDbEntity
  8
2
100
AcDbLine
 10
-458.48956
 20
593.143482
 30
0.0
 11
-462.328446
 21
593.143482
 31
0.0
  0
LINE
  5
36A
100
AcDbEntity
  8
2
100
AcDbLine
 10
-458.48956
 20
608.154589
 30
0.0
 11
-462.328446
 21
608.154589
 31
0.0
  0
LINE
  5
36B
100
AcDbEntity
  8
2
100
AcDbLine
 10
-458.48956
 20
615.660142
 30
0.0
 11
-462.328446
 21
615.660142
 31
0.0
  0
LINE
  5
36C
100
AcDbEntity
  8
2
100
AcDbLine
 10
-457.328446
 20
587.649035
 30
0.0
 11
-458.48956
 21
585.637928
 31
0.0
  0
LINE
  5
36D
100
AcDbEntity
  8
2
100
AcDbLine
 10
-457.328446
 20
613.649035
 30
0.0
 11
-458.48956
 21
615.660142
 31
0.0
  0
ARC
  5
36E
100
AcDbEntity
  8
2
100
AcDbCircle
 10
-482.167333
 20
600.649035
 30
0.0
 40
24.838887
100
AcDbArc
 50
342.412046
 51
17.587954
  0
ARC
  5
36F
100
AcDbEntity
  8
2
100
AcDbCircle
 10
-463.973582
 20
589.390705
 30
0.0
 40
6.645136
100
AcDbArc
 50
325.615736
 51
34.384264
  0
ARC
  5
370
100
AcDbEntity
  8
2
100
AcDbCircle
 10
-463.973582
 20
611.907365
 30
0.0
 40
6.645136
100
AcDbArc
 50
325.615736
 51
34.384264
  0
LINE
  5
371
100
AcDbEntity
  8
2
100
AcDbLine
 10
-462.328446
 20
609.649035
 30
0.0
 11
-465.328446
 21
609.649035
 31
0.0
  0
LINE
  5
372
100
AcDbEntity
  8
2
100
AcDbLine
 10
-465.328446
 20
591.649035
 30
0.0
 11
-462.328446
 21
591.649035
 31
0.0
  0
LINE
  5
373
100
AcDbEntity
  8
2
100
AcDbLine
 10
-457.328446
 20
563.649035
 30
0.0
 11
-457.328446
 21
537.649035
 31
0.0
  0
LINE
  5
374
100
AcDbEntity
  8
2
100
AcDbLine
 10
-462.328446
 20
565.660142
 30
0.0
 11
-462.328446
 21
535.637928
 31
0.0
  0
LINE
  5
375
100
AcDbEntity
  8
2
100
AcDbLine
 10
-458.48956
 20
535.637928
 30
0.0
 11
-462.328446
 21
535.637928
 31
0.0
  0
LINE
  5
376
100
AcDbEntity
  8
2
100
AcDbLine
 10
-458.48956
 20
543.143482
 30
0.0
 11
-462.328446
 21
543.143482
 31
0.0
  0
LINE
  5
377
100
AcDbEntity
  8
2
100
AcDbLine
 10
-458.48956
 20
558.154589
 30
0.0
 11
-462.328446
 21
558.154589
 31
0.0
  0
LINE
  5
378
100
AcDbEntity
  8
2
100
AcDbLine
 10
-458.48956
 20
565.660142
 30
0.0
 11
-462.328446
 21
565.660142
 31
0.0
  0
LINE
  5
379
100
AcDbEntity
  8
2
100
AcDbLine
 10
-457.328446
 20
537.649035
 30
0.0
 11
-458.48956
 21
535.637928
 31
0.0
  0
LINE
  5
37A
100
AcDbEntity
  8
2
100
AcDbLine
 10
-457.328446
 20
563.649035
 30
0.0
 11
-458.48956
 21
565.660142
 31
0.0
  0
ARC
  5
37B
100
AcDbEntity
  8
2
100
AcDbCircle
 10
-482.167333
 20
550.649035
 30
0.0
 40
24.838887
100
AcDbArc
 50
342.412046
 51
17.587954
  0
ARC
  5
37C
100
AcDbEntity
  8
2
100
AcDbCircle
 10
-463.973582
 20
539.390705
 30
0.0
 40
6.645136
100
AcDbArc
 50
325.615736
 51
34.384264
  0
ARC
  5
37D
100
AcDbEntity
  8
2
100
AcDbCircle
 10
-463.973582
 20
561.907365
 30
0.0
 40
6.645136
100
AcDbArc
 50
325.615736
 51
34.384264
  0
LINE
  5
37E
100
AcDbEntity
  8
2
100
AcDbLine
 10
-462.328446
 20
559.649035
 30
0.0
 11
-465.328446
 21
559.649035
 31
0.0
  0
LINE
  5
37F
100
AcDbEntity
  8
2
100
AcDbLine
 10
-465.328446
 20
541.649035
 30
0.0
 11
-462.328446
 21
541.649035
 31
0.0
  0
ARC
  5
380
100
AcDbEntity
  8
2
100
AcDbCircle
 10
-401.820487
 20
344.156995
 30
0.0
 40
7.992041
100
AcDbArc
 50
279.335119
 51
90.0
  0
ARC
  5
381
100
AcDbEntity
  8
2
100
AcDbCircle
 10
-397.590726
 20
345.802422
 30
0.0
 40
1.0
100
AcDbArc
 50
307.267545
 51
30.020559
  0
ARC
  5
382
100
AcDbEntity
  8
2
100
AcDbCircle
 10
-407.458798
 20
355.027583
 30
0.0
 40
3.4
100
AcDbArc
 50
266.638278
 51
293.288889
  0
ARC
  5
383
100
AcDbEntity
  8
2
100
AcDbCircle
 10
-405.166661
 20
349.052124
 30
0.0
 40
3.0
100
AcDbArc
 50
77.925147
 51
110.986403
  0
ARC
  5
384
100
AcDbEntity
  8
2
100
AcDbCircle
 10
-401.908545
 20
346.21008
 30
0.0
 40
1.0
100
AcDbArc
 50
191.678445
 51
221.945518
  0
ARC
  5
385
100
AcDbEntity
  8
2
100
AcDbCircle
 10
-410.428446
 20
344.449035
 30
0.0
 40
7.7
100
AcDbArc
 50
11.678445
 51
90.0
  0
ARC
  5
386
100
AcDbEntity
  8
2
100
AcDbCircle
 10
-407.016823
 20
346.544201
 30
0.0
 40
2.0
100
AcDbArc
 50
286.000716
 51
39.814743
  0
ARC
  5
387
100
AcDbEntity
  8
2
100
AcDbCircle
 10
-414.258739
 20
347.161407
 30
0.0
 40
2.0
100
AcDbArc
 50
206.844811
 51
244.256542
  0
ARC
  5
388
100
AcDbEntity
  8
2
100
AcDbCircle
 10
-412.474412
 20
348.919415
 30
0.0
 40
3.0
100
AcDbArc
 50
74.699906
 51
117.185481
  0
ARC
  5
389
100
AcDbEntity
  8
2
100
AcDbCircle
 10
-423.629962
 20
347.149035
 30
0.0
 40
5.0
100
AcDbArc
 50
62.733956
 51
90.0
  0
ARC
  5
38A
100
AcDbEntity
  8
2
100
AcDbCircle
 10
-431.200075
 20
347.03711
 30
0.0
 40
2.0
100
AcDbArc
 50
187.53278
 51
251.56195
  0
ARC
  5
38B
100
AcDbEntity
  8
2
100
AcDbCircle
 10
-421.546497
 20
346.662097
 30
0.0
 40
2.0
100
AcDbArc
 50
283.988737
 51
43.012702
  0
ARC
  5
38C
100
AcDbEntity
  8
2
100
AcDbCircle
 10
-427.051285
 20
348.922359
 30
0.0
 40
3.0
100
AcDbArc
 50
73.688203
 51
114.449096
  0
ARC
  5
38D
100
AcDbEntity
  8
2
100
AcDbCircle
 10
-438.928446
 20
347.149035
 30
0.0
 40
5.0
100
AcDbArc
 50
67.380135
 51
90.0
  0
ARC
  5
38E
100
AcDbEntity
  8
2
100
AcDbCircle
 10
-439.245258
 20
346.954322
 30
0.0
 40
2.0
100
AcDbArc
 50
284.161069
 51
31.500458
  0
ARC
  5
38F
100
AcDbEntity
  8
2
100
AcDbCircle
 10
-452.735814
 20
347.092298
 30
0.0
 40
2.0
100
AcDbArc
 50
182.459196
 51
254.666975
  0
ARC
  5
390
100
AcDbEntity
  8
2
100
AcDbCircle
 10
-442.895181
 20
347.149035
 30
0.0
 40
5.0
100
AcDbArc
 50
90.0
 51
110.899028
  0
ARC
  5
391
100
AcDbEntity
  8
2
100
AcDbCircle
 10
-443.559023
 20
349.03647
 30
0.0
 40
3.0
100
AcDbArc
 50
74.573378
 51
111.045359
  0
ARC
  5
392
100
AcDbEntity
  8
2
100
AcDbCircle
 10
-458.975144
 20
348.149035
 30
0.0
 40
4.0
100
AcDbArc
 50
68.621499
 51
90.0
  0
ARC
  5
393
100
AcDbEntity
  8
2
100
AcDbCircle
 10
-458.928446
 20
349.149035
 30
0.0
 40
3.0
100
AcDbArc
 50
53.130102
 51
90.0
  0
ARC
  5
394
100
AcDbEntity
  8
2
100
AcDbCircle
 10
-476.748189
 20
347.106141
 30
0.0
 40
2.0
100
AcDbArc
 50
171.124411
 51
257.489802
  0
ARC
  5
395
100
AcDbEntity
  8
2
100
AcDbCircle
 10
-461.416651
 20
347.039222
 30
0.0
 40
2.0
100
AcDbArc
 50
282.010034
 51
27.791668
  0
ARC
  5
396
100
AcDbEntity
  8
2
100
AcDbCircle
 10
-463.488546
 20
350.149035
 30
0.0
 40
2.0
100
AcDbArc
 50
90.0
 51
112.510479
  0
ARC
  5
397
100
AcDbEntity
  8
2
100
AcDbCircle
 10
-464.058841
 20
349.922395
 30
0.0
 40
2.0
100
AcDbArc
 50
57.213701
 51
110.836076
  0
ARC
  5
398
100
AcDbEntity
  8
2
100
AcDbCircle
 10
-480.818971
 20
350.149035
 30
0.0
 40
2.0
100
AcDbArc
 50
14.477512
 51
90.0
  0
ARC
  5
399
100
AcDbEntity
  8
2
100
AcDbCircle
 10
-479.76495
 20
349.149035
 30
0.0
 40
3.0
100
AcDbArc
 50
68.013597
 51
90.0
  0
ARC
  5
39A
100
AcDbEntity
  8
2
100
AcDbCircle
 10
-485.563668
 20
347.116099
 30
0.0
 40
2.0
100
AcDbArc
 50
283.347693
 51
12.984112
  0
ARC
  5
39B
100
AcDbEntity
  8
2
100
AcDbCircle
 10
-502.209271
 20
347.143838
 30
0.0
 40
2.0
100
AcDbArc
 50
166.803615
 51
256.46135
  0
ARC
  5
39C
100
AcDbEntity
  8
2
100
AcDbCircle
 10
-486.621308
 20
349.751923
 30
0.0
 40
2.0
100
AcDbArc
 50
30.742694
 51
107.400637
  0
ARC
  5
39D
100
AcDbEntity
  8
2
100
AcDbCircle
 10
-485.281517
 20
349.149035
 30
0.0
 40
3.0
100
AcDbArc
 50
90.0
 51
109.90826
  0
ARC
  5
39E
100
AcDbEntity
  8
2
100
AcDbCircle
 10
-502.198034
 20
350.149035
 30
0.0
 40
2.0
100
AcDbArc
 50
69.678608
 51
90.0
  0
ARC
  5
39F
100
AcDbEntity
  8
2
100
AcDbCircle
 10
-500.621271
 20
348.585684
 30
0.0
 40
3.0
100
AcDbArc
 50
74.298213
 51
152.801464
  0
LINE
  5
3A0
100
AcDbEntity
  8
2
100
AcDbLine
 10
-502.198034
 20
352.149035
 30
0.0
 11
-507.891942
 21
352.149035
 31
0.0
  0
LINE
  5
3A1
100
AcDbEntity
  8
2
100
AcDbLine
 10
-576.128446
 20
352.149035
 30
0.0
 11
-577.228446
 21
352.149035
 31
0.0
  0
LINE
  5
3A2
100
AcDbEntity
  8
2
100
AcDbLine
 10
-582.728446
 20
352.149035
 30
0.0
 11
-585.836406
 21
352.149035
 31
0.0
  0
LINE
  5
3A3
100
AcDbEntity
  8
2
100
AcDbLine
 10
-564.128446
 20
352.149035
 30
0.0
 11
-561.528446
 21
352.149035
 31
0.0
  0
LINE
  5
3A4
100
AcDbEntity
  8
2
100
AcDbLine
 10
-548.728446
 20
352.149035
 30
0.0
 11
-544.728446
 21
352.149035
 31
0.0
  0
LINE
  5
3A5
100
AcDbEntity
  8
2
100
AcDbLine
 10
-528.628446
 20
352.149035
 30
0.0
 11
-524.168347
 21
352.149035
 31
0.0
  0
ARC
  5
3A6
100
AcDbEntity
  8
2
100
AcDbCircle
 10
-518.728446
 20
382.349035
 30
0.0
 40
38.1
100
AcDbArc
 50
257.989966
 51
282.510198
  0
ARC
  5
3A7
100
AcDbEntity
  8
2
100
AcDbCircle
 10
-516.128446
 20
369.549035
 30
0.0
 40
19.0
100
AcDbArc
 50
247.489521
 51
291.986403
  0
ARC
  5
3A8
100
AcDbEntity
  8
2
100
AcDbCircle
 10
-519.428446
 20
343.449035
 30
0.0
 40
9.7
100
AcDbArc
 50
122.786299
 51
152.208332
  0
ARC
  5
3A9
100
AcDbEntity
  8
2
100
AcDbCircle
 10
-501.028446
 20
348.649035
 30
0.0
 40
8.0
100
AcDbArc
 50
165.522488
 51
188.875589
  0
ARC
  5
3AA
100
AcDbEntity
  8
2
100
AcDbCircle
 10
-541.928446
 20
372.649035
 30
0.0
 40
28.5
100
AcDbArc
 50
255.838931
 51
285.333025
  0
ARC
  5
3AB
100
AcDbEntity
  8
2
100
AcDbCircle
 10
-536.628446
 20
368.449035
 30
0.0
 40
17.8
100
AcDbArc
 50
249.100972
 51
291.378501
  0
ARC
  5
3AC
100
AcDbEntity
  8
2
100
AcDbCircle
 10
-542.528446
 20
343.349035
 30
0.0
 40
8.9
100
AcDbArc
 50
105.426622
 51
148.499542
  0
ARC
  5
3AD
100
AcDbEntity
  8
2
100
AcDbCircle
 10
-526.928446
 20
346.749035
 30
0.0
 40
6.0
100
AcDbArc
 50
126.869898
 51
177.540804
  0
ARC
  5
3AE
100
AcDbEntity
  8
2
100
AcDbCircle
 10
-561.928446
 20
363.449035
 30
0.0
 40
19.3
100
AcDbArc
 50
256.011263
 51
288.43805
  0
ARC
  5
3AF
100
AcDbEntity
  8
2
100
AcDbCircle
 10
-554.728446
 20
361.849035
 30
0.0
 40
11.2
100
AcDbArc
 50
244.391695
 51
284.005872
  0
ARC
  5
3B0
100
AcDbEntity
  8
2
100
AcDbCircle
 10
-561.528446
 20
347.149035
 30
0.0
 40
5.0
100
AcDbArc
 50
66.931267
 51
90.0
  0
ARC
  5
3B1
100
AcDbEntity
  8
2
100
AcDbCircle
 10
-557.628446
 20
338.749035
 30
0.0
 40
13.6
100
AcDbArc
 50
106.311797
 51
136.987298
  0
ARC
  5
3B2
100
AcDbEntity
  8
2
100
AcDbCircle
 10
-548.228446
 20
345.949035
 30
0.0
 40
6.3
100
AcDbArc
 50
112.619865
 51
172.46722
  0
ARC
  5
3B3
100
AcDbEntity
  8
2
100
AcDbCircle
 10
-577.828446
 20
356.349035
 30
0.0
 40
12.2
100
AcDbArc
 50
253.999284
 51
295.743458
  0
ARC
  5
3B4
100
AcDbEntity
  8
2
100
AcDbCircle
 10
-569.928446
 20
359.149035
 30
0.0
 40
8.5
100
AcDbArc
 50
242.677778
 51
288.916988
  0
ARC
  5
3B5
100
AcDbEntity
  8
2
100
AcDbCircle
 10
-576.128446
 20
347.149035
 30
0.0
 40
5.0
100
AcDbArc
 50
62.677778
 51
90.0
  0
ARC
  5
3B6
100
AcDbEntity
  8
2
100
AcDbCircle
 10
-572.728446
 20
339.949035
 30
0.0
 40
12.3
100
AcDbArc
 50
105.300094
 51
140.185257
  0
ARC
  5
3B7
100
AcDbEntity
  8
2
100
AcDbCircle
 10
-560.728446
 20
340.749035
 30
0.0
 40
12.2
100
AcDbArc
 50
117.266044
 51
153.155189
  0
ARC
  5
3B8
100
AcDbEntity
  8
2
100
AcDbCircle
 10
-588.128446
 20
348.349035
 30
0.0
 40
4.2
100
AcDbArc
 50
232.732455
 51
318.054482
  0
ARC
  5
3B9
100
AcDbEntity
  8
2
100
AcDbCircle
 10
-580.628446
 20
340.349035
 30
0.0
 40
11.9
100
AcDbArc
 50
102.074853
 51
149.979441
  0
ARC
  5
3BA
100
AcDbEntity
  8
2
100
AcDbCircle
 10
-582.728446
 20
349.149035
 30
0.0
 40
3.0
100
AcDbArc
 50
66.711111
 51
90.0
  0
ARC
  5
3BB
100
AcDbEntity
  8
2
100
AcDbCircle
 10
-585.836406
 20
344.156995
 30
0.0
 40
7.992041
100
AcDbArc
 50
90.0
 51
260.664881
  0
ARC
  5
3BC
100
AcDbEntity
  8
2
100
AcDbCircle
 10
-590.066167
 20
345.802422
 30
0.0
 40
1.0
100
AcDbArc
 50
149.979441
 51
232.732455
  0
ARC
  5
3BD
100
AcDbEntity
  8
2
100
AcDbCircle
 10
-580.198095
 20
355.027583
 30
0.0
 40
3.4
100
AcDbArc
 50
246.711111
 51
273.361722
  0
ARC
  5
3BE
100
AcDbEntity
  8
2
100
AcDbCircle
 10
-582.490232
 20
349.052124
 30
0.0
 40
3.0
100
AcDbArc
 50
69.013597
 51
102.074853
  0
ARC
  5
3BF
100
AcDbEntity
  8
2
100
AcDbCircle
 10
-577.228446
 20
344.449035
 30
0.0
 40
7.7
100
AcDbArc
 50
90.0
 51
168.321555
  0
ARC
  5
3C0
100
AcDbEntity
  8
2
100
AcDbCircle
 10
-580.64007
 20
346.544201
 30
0.0
 40
2.0
100
AcDbArc
 50
140.185257
 51
253.999284
  0
ARC
  5
3C1
100
AcDbEntity
  8
2
100
AcDbCircle
 10
-573.398154
 20
347.161407
 30
0.0
 40
2.0
100
AcDbArc
 50
295.743458
 51
333.155189
  0
ARC
  5
3C2
100
AcDbEntity
  8
2
100
AcDbCircle
 10
-575.18248
 20
348.919415
 30
0.0
 40
3.0
100
AcDbArc
 50
62.814519
 51
105.300094
  0
ARC
  5
3C3
100
AcDbEntity
  8
2
100
AcDbCircle
 10
-564.026931
 20
347.149035
 30
0.0
 40
5.0
100
AcDbArc
 50
90.0
 51
117.266044
  0
ARC
  5
3C4
100
AcDbEntity
  8
2
100
AcDbCircle
 10
-556.456818
 20
347.03711
 30
0.0
 40
2.0
100
AcDbArc
 50
288.43805
 51
352.46722
  0
ARC
  5
3C5
100
AcDbEntity
  8
2
100
AcDbCircle
 10
-566.110395
 20
346.662097
 30
0.0
 40
2.0
100
AcDbArc
 50
136.987298
 51
256.011263
  0
ARC
  5
3C6
100
AcDbEntity
  8
2
100
AcDbCircle
 10
-560.605608
 20
348.922359
 30
0.0
 40
3.0
100
AcDbArc
 50
65.550904
 51
106.311797
  0
ARC
  5
3C7
100
AcDbEntity
  8
2
100
AcDbCircle
 10
-548.728446
 20
347.149035
 30
0.0
 40
5.0
100
AcDbArc
 50
90.0
 51
112.619865
  0
ARC
  5
3C8
100
AcDbEntity
  8
2
100
AcDbCircle
 10
-548.411635
 20
346.954322
 30
0.0
 40
2.0
100
AcDbArc
 50
148.499542
 51
255.838931
  0
ARC
  5
3C9
100
AcDbEntity
  8
2
100
AcDbCircle
 10
-534.921079
 20
347.092298
 30
0.0
 40
2.0
100
AcDbArc
 50
285.333025
 51
357.540804
  0
ARC
  5
3CA
100
AcDbEntity
  8
2
100
AcDbCircle
 10
-544.761711
 20
347.149035
 30
0.0
 40
5.0
100
AcDbArc
 50
69.100972
 51
90.0
  0
ARC
  5
3CB
100
AcDbEntity
  8
2
100
AcDbCircle
 10
-544.09787
 20
349.03647
 30
0.0
 40
3.0
100
AcDbArc
 50
68.954641
 51
105.426622
  0
ARC
  5
3CC
100
AcDbEntity
  8
2
100
AcDbCircle
 10
-528.681749
 20
348.149035
 30
0.0
 40
4.0
100
AcDbArc
 50
90.0
 51
111.378501
  0
ARC
  5
3CD
100
AcDbEntity
  8
2
100
AcDbCircle
 10
-528.728446
 20
349.149035
 30
0.0
 40
3.0
100
AcDbArc
 50
90.0
 51
126.869898
  0
ARC
  5
3CE
100
AcDbEntity
  8
2
100
AcDbCircle
 10
-510.908703
 20
347.106141
 30
0.0
 40
2.0
100
AcDbArc
 50
282.510198
 51
8.875589
  0
ARC
  5
3CF
100
AcDbEntity
  8
2
100
AcDbCircle
 10
-526.240242
 20
347.039222
 30
0.0
 40
2.0
100
AcDbArc
 50
152.208332
 51
257.989966
  0
ARC
  5
3D0
100
AcDbEntity
  8
2
100
AcDbCircle
 10
-524.168347
 20
350.149035
 30
0.0
 40
2.0
100
AcDbArc
 50
67.489521
 51
90.0
  0
ARC
  5
3D1
100
AcDbEntity
  8
2
100
AcDbCircle
 10
-523.598052
 20
349.922395
 30
0.0
 40
2.0
100
AcDbArc
 50
69.163924
 51
122.786299
  0
ARC
  5
3D2
100
AcDbEntity
  8
2
100
AcDbCircle
 10
-506.837921
 20
350.149035
 30
0.0
 40
2.0
100
AcDbArc
 50
90.0
 51
165.522488
  0
ARC
  5
3D3
100
AcDbEntity
  8
2
100
AcDbCircle
 10
-507.891942
 20
349.149035
 30
0.0
 40
3.0
100
AcDbArc
 50
90.0
 51
111.986403
  0
LINE
  5
3D4
100
AcDbEntity
  8
2
100
AcDbLine
 10
-136.728446
 20
171.404124
 30
0.0
 11
-136.728446
 21
102.293946
 31
0.0
  0
LINE
  5
3D5
100
AcDbEntity
  8
2
100
AcDbLine
 10
-114.728446
 20
128.302106
 30
0.0
 11
-114.728446
 21
122.785539
 31
0.0
  0
LINE
  5
3D6
100
AcDbEntity
  8
2
100
AcDbLine
 10
-114.728446
 20
106.449035
 30
0.0
 11
-114.728446
 21
101.995733
 31
0.0
  0
LINE
  5
3D7
100
AcDbEntity
  8
2
100
AcDbLine
 10
-114.728446
 20
85.91577
 30
0.0
 11
-114.728446
 21
81.949035
 31
0.0
  0
LINE
  5
3D8
100
AcDbEntity
  8
2
100
AcDbLine
 10
-114.728446
 20
69.149035
 30
0.0
 11
-114.728446
 21
66.650551
 31
0.0
  0
LINE
  5
3D9
100
AcDbEntity
  8
2
100
AcDbLine
 10
-114.728446
 20
54.549035
 30
0.0
 11
-114.728446
 21
53.449035
 31
0.0
  0
LINE
  5
3DA
100
AcDbEntity
  8
2
100
AcDbLine
 10
-114.728446
 20
47.949035
 30
0.0
 11
-114.728446
 21
44.841076
 31
0.0
  0
ARC
  5
3DB
100
AcDbEntity
  8
2
100
AcDbCircle
 10
362.771554
 20
149.049035
 30
0.0
 40
500.0
100
AcDbArc
 50
170.664881
 51
177.437441
  0
ARC
  5
3DC
100
AcDbEntity
  8
2
100
AcDbCircle
 10
362.771554
 20
124.649035
 30
0.0
 40
500.0
100
AcDbArc
 50
182.562559
 51
189.335119
  0
ARC
  5
3DD
100
AcDbEntity
  8
2
100
AcDbCircle
 10
-84.928446
 20
136.849035
 30
0.0
 40
37.8
100
AcDbArc
 50
166.46135
 51
193.347693
  0
ARC
  5
3DE
100
AcDbEntity
  8
2
100
AcDbCircle
 10
-94.128446
 20
136.849035
 30
0.0
 40
22.1
100
AcDbArc
 50
159.678608
 51
199.90826
  0
ARC
  5
3DF
100
AcDbEntity
  8
2
100
AcDbCircle
 10
-121.828446
 20
137.549035
 30
0.0
 40
11.2
100
AcDbArc
 50
282.984112
 51
300.742694
  0
ARC
  5
3E0
100
AcDbEntity
  8
2
100
AcDbCircle
 10
-121.628446
 20
137.149035
 30
0.0
 40
10.3
100
AcDbArc
 50
62.801464
 51
76.803615
  0
LINE
  5
3E1
100
AcDbEntity
  8
2
100
AcDbLine
 10
-114.728446
 20
66.549035
 30
0.0
 11
-114.728446
 21
69.149035
 31
0.0
  0
LINE
  5
3E2
100
AcDbEntity
  8
2
100
AcDbLine
 10
-114.728446
 20
82.149035
 30
0.0
 11
-114.728446
 21
85.949035
 31
0.0
  0
LINE
  5
3E3
100
AcDbEntity
  8
2
100
AcDbLine
 10
-114.728446
 20
102.049035
 30
0.0
 11
-114.728446
 21
106.509135
 31
0.0
  0
ARC
  5
3E4
100
AcDbEntity
  8
2
100
AcDbCircle
 10
-84.528446
 20
111.949035
 30
0.0
 40
38.1
100
AcDbArc
 50
167.489802
 51
192.010034
  0
ARC
  5
3E5
100
AcDbEntity
  8
2
100
AcDbCircle
 10
-97.328446
 20
114.549035
 30
0.0
 40
19.0
100
AcDbArc
 50
158.013597
 51
202.510479
  0
ARC
  5
3E6
100
AcDbEntity
  8
2
100
AcDbCircle
 10
-123.428446
 20
111.249035
 30
0.0
 40
9.7
100
AcDbArc
 50
297.791668
 51
327.213701
  0
ARC
  5
3E7
100
AcDbEntity
  8
2
100
AcDbCircle
 10
-118.228446
 20
129.649035
 30
0.0
 40
8.0
100
AcDbArc
 50
261.124411
 51
284.477512
  0
ARC
  5
3E8
100
AcDbEntity
  8
2
100
AcDbCircle
 10
-94.228446
 20
88.749035
 30
0.0
 40
28.5
100
AcDbArc
 50
164.666975
 51
194.161069
  0
ARC
  5
3E9
100
AcDbEntity
  8
2
100
AcDbCircle
 10
-98.428446
 20
94.049035
 30
0.0
 40
17.8
100
AcDbArc
 50
158.621499
 51
200.899028
  0
ARC
  5
3EA
100
AcDbEntity
  8
2
100
AcDbCircle
 10
-123.528446
 20
88.149035
 30
0.0
 40
8.9
100
AcDbArc
 50
301.500458
 51
344.573378
  0
ARC
  5
3EB
100
AcDbEntity
  8
2
100
AcDbCircle
 10
-120.128446
 20
103.749035
 30
0.0
 40
6.0
100
AcDbArc
 50
272.459196
 51
323.130102
  0
ARC
  5
3EC
100
AcDbEntity
  8
2
100
AcDbCircle
 10
-103.428446
 20
68.749035
 30
0.0
 40
19.3
100
AcDbArc
 50
161.56195
 51
193.988737
  0
ARC
  5
3ED
100
AcDbEntity
  8
2
100
AcDbCircle
 10
-105.028446
 20
75.949035
 30
0.0
 40
11.2
100
AcDbArc
 50
165.994128
 51
205.608305
  0
ARC
  5
3EE
100
AcDbEntity
  8
2
100
AcDbCircle
 10
-119.728446
 20
69.149035
 30
0.0
 40
5.0
100
AcDbArc
 50
0.0
 51
23.068733
  0
ARC
  5
3EF
100
AcDbEntity
  8
2
100
AcDbCircle
 10
-128.128446
 20
73.049035
 30
0.0
 40
13.6
100
AcDbArc
 50
313.012702
 51
343.688203
  0
ARC
  5
3F0
100
AcDbEntity
  8
2
100
AcDbCircle
 10
-120.928446
 20
82.449035
 30
0.0
 40
6.3
100
AcDbArc
 50
277.53278
 51
337.380135
  0
ARC
  5
3F1
100
AcDbEntity
  8
2
100
AcDbCircle
 10
-110.528446
 20
52.849035
 30
0.0
 40
12.2
100
AcDbArc
 50
154.256542
 51
196.000716
  0
ARC
  5
3F2
100
AcDbEntity
  8
2
100
AcDbCircle
 10
-107.728446
 20
60.749035
 30
0.0
 40
8.5
100
AcDbArc
 50
161.083012
 51
207.322222
  0
ARC
  5
3F3
100
AcDbEntity
  8
2
100
AcDbCircle
 10
-119.728446
 20
54.549035
 30
0.0
 40
5.0
100
AcDbArc
 50
0.0
 51
27.322222
  0
ARC
  5
3F4
100
AcDbEntity
  8
2
100
AcDbCircle
 10
-126.928446
 20
57.949035
 30
0.0
 40
12.3
100
AcDbArc
 50
309.814743
 51
344.699906
  0
ARC
  5
3F5
100
AcDbEntity
  8
2
100
AcDbCircle
 10
-126.128446
 20
69.949035
 30
0.0
 40
12.2
100
AcDbArc
 50
296.844811
 51
332.733956
  0
LINE
  5
3F6
100
AcDbEntity
  8
2
100
AcDbLine
 10
-122.728446
 20
45.249035
 30
0.0
 11
-122.728446
 21
47.349035
 31
0.0
  0
LINE
  5
3F7
100
AcDbEntity
  8
2
100
AcDbLine
 10
-122.728446
 20
58.249035
 30
0.0
 11
-122.728446
 21
61.349035
 31
0.0
  0
LINE
  5
3F8
100
AcDbEntity
  8
2
100
AcDbLine
 10
-122.728446
 20
76.549035
 30
0.0
 11
-122.728446
 21
79.149035
 31
0.0
  0
LINE
  5
3F9
100
AcDbEntity
  8
2
100
AcDbLine
 10
-122.728446
 20
97.549035
 30
0.0
 11
-122.728446
 21
101.449035
 31
0.0
  0
LINE
  5
3FA
100
AcDbEntity
  8
2
100
AcDbLine
 10
-122.728446
 20
121.349035
 30
0.0
 11
-122.728446
 21
126.149035
 31
0.0
  0
LINE
  5
3FB
100
AcDbEntity
  8
2
100
AcDbLine
 10
-122.728446
 20
147.549035
 30
0.0
 11
-122.728446
 21
151.649035
 31
0.0
  0
LINE
  5
3FC
100
AcDbEntity
  8
2
100
AcDbLine
 10
-122.728446
 20
171.449035
 30
0.0
 11
-122.728446
 21
175.549035
 31
0.0
  0
LINE
  5
3FD
100
AcDbEntity
  8
2
100
AcDbLine
 10
-122.728446
 20
194.349035
 30
0.0
 11
-122.728446
 21
197.249035
 31
0.0
  0
LINE
  5
3FE
100
AcDbEntity
  8
2
100
AcDbLine
 10
-122.728446
 20
211.649035
 30
0.0
 11
-122.728446
 21
214.149035
 31
0.0
  0
LINE
  5
3FF
100
AcDbEntity
  8
2
100
AcDbLine
 10
-122.728446
 20
226.049035
 30
0.0
 11
-122.728446
 21
227.949035
 31
0.0
  0
ARC
  5
400
100
AcDbEntity
  8
2
100
AcDbCircle
 10
-118.528446
 20
42.549035
 30
0.0
 40
4.2
100
AcDbArc
 50
131.945518
 51
217.267545
  0
ARC
  5
401
100
AcDbEntity
  8
2
100
AcDbCircle
 10
-126.528446
 20
50.049035
 30
0.0
 40
11.9
100
AcDbArc
 50
300.020559
 51
347.925147
  0
ARC
  5
402
100
AcDbEntity
  8
2
100
AcDbCircle
 10
-117.728446
 20
47.949035
 30
0.0
 40
3.0
100
AcDbArc
 50
0.0
 51
23.288889
  0
LINE
  5
403
100
AcDbEntity
  8
2
100
AcDbLine
 10
-130.728446
 20
220.549035
 30
0.0
 11
-130.728446
 21
51.649035
 31
0.0
  0
ARC
  5
404
100
AcDbEntity
  8
2
100
AcDbCircle
 10
-122.720487
 20
44.841076
 30
0.0
 40
7.992041
100
AcDbArc
 50
189.335119
 51
360.0
  0
ARC
  5
405
100
AcDbEntity
  8
2
100
AcDbCircle
 10
-121.07506
 20
40.611315
 30
0.0
 40
1.0
100
AcDbArc
 50
217.267545
 51
300.020559
  0
ARC
  5
406
100
AcDbEntity
  8
2
100
AcDbCircle
 10
-111.849899
 20
50.479387
 30
0.0
 40
3.4
100
AcDbArc
 50
176.638278
 51
203.288889
  0
ARC
  5
407
100
AcDbEntity
  8
2
100
AcDbCircle
 10
-117.825358
 20
48.18725
 30
0.0
 40
3.0
100
AcDbArc
 50
347.925147
 51
20.986403
  0
ARC
  5
408
100
AcDbEntity
  8
2
100
AcDbCircle
 10
-120.667402
 20
44.929134
 30
0.0
 40
1.0
100
AcDbArc
 50
101.678445
 51
131.945518
  0
ARC
  5
409
100
AcDbEntity
  8
2
100
AcDbCircle
 10
-122.428446
 20
53.449035
 30
0.0
 40
7.7
100
AcDbArc
 50
281.678445
 51
360.0
  0
ARC
  5
40A
100
AcDbEntity
  8
2
100
AcDbCircle
 10
-120.333281
 20
50.037412
 30
0.0
 40
2.0
100
AcDbArc
 50
196.000716
 51
309.814743
  0
ARC
  5
40B
100
AcDbEntity
  8
2
100
AcDbCircle
 10
-119.716074
 20
57.279328
 30
0.0
 40
2.0
100
AcDbArc
 50
116.844811
 51
154.256542
  0
ARC
  5
40C
100
AcDbEntity
  8
2
100
AcDbCircle
 10
-117.958066
 20
55.495001
 30
0.0
 40
3.0
100
AcDbArc
 50
344.699906
 51
27.185481
  0
ARC
  5
40D
100
AcDbEntity
  8
2
100
AcDbCircle
 10
-119.728446
 20
66.650551
 30
0.0
 40
5.0
100
AcDbArc
 50
332.733956
 51
360.0
  0
ARC
  5
40E
100
AcDbEntity
  8
2
100
AcDbCircle
 10
-119.840371
 20
74.220664
 30
0.0
 40
2.0
100
AcDbArc
 50
97.53278
 51
161.56195
  0
ARC
  5
40F
100
AcDbEntity
  8
2
100
AcDbCircle
 10
-120.215385
 20
64.567086
 30
0.0
 40
2.0
100
AcDbArc
 50
193.988737
 51
313.012702
  0
ARC
  5
410
100
AcDbEntity
  8
2
100
AcDbCircle
 10
-117.955123
 20
70.071873
 30
0.0
 40
3.0
100
AcDbArc
 50
343.688203
 51
24.449096
  0
ARC
  5
411
100
AcDbEntity
  8
2
100
AcDbCircle
 10
-119.728446
 20
81.949035
 30
0.0
 40
5.0
100
AcDbArc
 50
337.380135
 51
360.0
  0
ARC
  5
412
100
AcDbEntity
  8
2
100
AcDbCircle
 10
-119.923159
 20
82.265847
 30
0.0
 40
2.0
100
AcDbArc
 50
194.161069
 51
301.500458
  0
ARC
  5
413
100
AcDbEntity
  8
2
100
AcDbCircle
 10
-119.785183
 20
95.756403
 30
0.0
 40
2.0
100
AcDbArc
 50
92.459196
 51
164.666975
  0
ARC
  5
414
100
AcDbEntity
  8
2
100
AcDbCircle
 10
-119.728446
 20
85.91577
 30
0.0
 40
5.0
100
AcDbArc
 50
0.0
 51
20.899028
  0
ARC
  5
415
100
AcDbEntity
  8
2
100
AcDbCircle
 10
-117.841012
 20
86.579611
 30
0.0
 40
3.0
100
AcDbArc
 50
344.573378
 51
21.045359
  0
ARC
  5
416
100
AcDbEntity
  8
2
100
AcDbCircle
 10
-118.728446
 20
101.995733
 30
0.0
 40
4.0
100
AcDbArc
 50
338.621499
 51
360.0
  0
ARC
  5
417
100
AcDbEntity
  8
2
100
AcDbCircle
 10
-117.728446
 20
101.949035
 30
0.0
 40
3.0
100
AcDbArc
 50
323.130102
 51
360.0
  0
ARC
  5
418
100
AcDbEntity
  8
2
100
AcDbCircle
 10
-119.771341
 20
119.768778
 30
0.0
 40
2.0
100
AcDbArc
 50
81.124411
 51
167.489802
  0
ARC
  5
419
100
AcDbEntity
  8
2
100
AcDbCircle
 10
-119.83826
 20
104.43724
 30
0.0
 40
2.0
100
AcDbArc
 50
192.010034
 51
297.791668
  0
ARC
  5
41A
100
AcDbEntity
  8
2
100
AcDbCircle
 10
-116.728446
 20
106.509135
 30
0.0
 40
2.0
100
AcDbArc
 50
0.0
 51
22.510479
  0
ARC
  5
41B
100
AcDbEntity
  8
2
100
AcDbCircle
 10
-116.955086
 20
107.07943
 30
0.0
 40
2.0
100
AcDbArc
 50
327.213701
 51
20.836076
  0
ARC
  5
41C
100
AcDbEntity
  8
2
100
AcDbCircle
 10
-116.728446
 20
123.83956
 30
0.0
 40
2.0
100
AcDbArc
 50
284.477512
 51
360.0
  0
ARC
  5
41D
100
AcDbEntity
  8
2
100
AcDbCircle
 10
-117.728446
 20
122.785539
 30
0.0
 40
3.0
100
AcDbArc
 50
338.013597
 51
360.0
  0
ARC
  5
41E
100
AcDbEntity
  8
2
100
AcDbCircle
 10
-119.761383
 20
128.584257
 30
0.0
 40
2.0
100
AcDbArc
 50
193.347693
 51
282.984112
  0
ARC
  5
41F
100
AcDbEntity
  8
2
100
AcDbCircle
 10
-119.733644
 20
145.22986
 30
0.0
 40
2.0
100
AcDbArc
 50
76.803615
 51
166.46135
  0
ARC
  5
420
100
AcDbEntity
  8
2
100
AcDbCircle
 10
-117.125558
 20
129.641897
 30
0.0
 40
2.0
100
AcDbArc
 50
300.742694
 51
17.400637
  0
ARC
  5
421
100
AcDbEntity
  8
2
100
AcDbCircle
 10
-117.728446
 20
128.302106
 30
0.0
 40
3.0
100
AcDbArc
 50
0.0
 51
19.90826
  0
ARC
  5
422
100
AcDbEntity
  8
2
100
AcDbCircle
 10
-116.728446
 20
145.218623
 30
0.0
 40
2.0
100
AcDbArc
 50
339.678608
 51
360.0
  0
ARC
  5
423
100
AcDbEntity
  8
2
100
AcDbCircle
 10
-118.291797
 20
143.64186
 30
0.0
 40
3.0
100
AcDbArc
 50
344.298213
 51
62.801464
  0
LINE
  5
424
100
AcDbEntity
  8
2
100
AcDbLine
 10
-114.728446
 20
145.218623
 30
0.0
 11
-114.728446
 21
150.912531
 31
0.0
  0
LINE
  5
425
100
AcDbEntity
  8
2
100
AcDbLine
 10
-114.728446
 20
167.249035
 30
0.0
 11
-114.728446
 21
171.702338
 31
0.0
  0
LINE
  5
426
100
AcDbEntity
  8
2
100
AcDbLine
 10
-114.728446
 20
187.7823
 30
0.0
 11
-114.728446
 21
191.749035
 31
0.0
  0
LINE
  5
427
100
AcDbEntity
  8
2
100
AcDbLine
 10
-114.728446
 20
204.549035
 30
0.0
 11
-114.728446
 21
207.04752
 31
0.0
  0
LINE
  5
428
100
AcDbEntity
  8
2
100
AcDbLine
 10
-114.728446
 20
219.149035
 30
0.0
 11
-114.728446
 21
220.249035
 31
0.0
  0
LINE
  5
429
100
AcDbEntity
  8
2
100
AcDbLine
 10
-114.728446
 20
225.749035
 30
0.0
 11
-114.728446
 21
228.856995
 31
0.0
  0
LINE
  5
42A
100
AcDbEntity
  8
2
100
AcDbLine
 10
-114.728446
 20
207.149035
 30
0.0
 11
-114.728446
 21
204.549035
 31
0.0
  0
LINE
  5
42B
100
AcDbEntity
  8
2
100
AcDbLine
 10
-114.728446
 20
191.549035
 30
0.0
 11
-114.728446
 21
187.749035
 31
0.0
  0
LINE
  5
42C
100
AcDbEntity
  8
2
100
AcDbLine
 10
-114.728446
 20
171.649035
 30
0.0
 11
-114.728446
 21
167.188936
 31
0.0
  0
ARC
  5
42D
100
AcDbEntity
  8
2
100
AcDbCircle
 10
-84.528446
 20
161.749035
 30
0.0
 40
38.1
100
AcDbArc
 50
167.989966
 51
192.510198
  0
ARC
  5
42E
100
AcDbEntity
  8
2
100
AcDbCircle
 10
-97.328446
 20
159.149035
 30
0.0
 40
19.0
100
AcDbArc
 50
157.489521
 51
201.986403
  0
ARC
  5
42F
100
AcDbEntity
  8
2
100
AcDbCircle
 10
-123.428446
 20
162.449035
 30
0.0
 40
9.7
100
AcDbArc
 50
32.786299
 51
62.208332
  0
ARC
  5
430
100
AcDbEntity
  8
2
100
AcDbCircle
 10
-118.228446
 20
144.049035
 30
0.0
 40
8.0
100
AcDbArc
 50
75.522488
 51
98.875589
  0
ARC
  5
431
100
AcDbEntity
  8
2
100
AcDbCircle
 10
-94.228446
 20
184.949035
 30
0.0
 40
28.5
100
AcDbArc
 50
165.838931
 51
195.333025
  0
ARC
  5
432
100
AcDbEntity
  8
2
100
AcDbCircle
 10
-98.428446
 20
179.649035
 30
0.0
 40
17.8
100
AcDbArc
 50
159.100972
 51
201.378501
  0
ARC
  5
433
100
AcDbEntity
  8
2
100
AcDbCircle
 10
-123.528446
 20
185.549035
 30
0.0
 40
8.9
100
AcDbArc
 50
15.426622
 51
58.499542
  0
ARC
  5
434
100
AcDbEntity
  8
2
100
AcDbCircle
 10
-120.128446
 20
169.949035
 30
0.0
 40
6.0
100
AcDbArc
 50
36.869898
 51
87.540804
  0
ARC
  5
435
100
AcDbEntity
  8
2
100
AcDbCircle
 10
-103.428446
 20
204.949035
 30
0.0
 40
19.3
100
AcDbArc
 50
166.011263
 51
198.43805
  0
ARC
  5
436
100
AcDbEntity
  8
2
100
AcDbCircle
 10
-105.028446
 20
197.749035
 30
0.0
 40
11.2
100
AcDbArc
 50
154.391695
 51
194.005872
  0
ARC
  5
437
100
AcDbEntity
  8
2
100
AcDbCircle
 10
-119.728446
 20
204.549035
 30
0.0
 40
5.0
100
AcDbArc
 50
336.931267
 51
360.0
  0
ARC
  5
438
100
AcDbEntity
  8
2
100
AcDbCircle
 10
-128.128446
 20
200.649035
 30
0.0
 40
13.6
100
AcDbArc
 50
16.311797
 51
46.987298
  0
ARC
  5
439
100
AcDbEntity
  8
2
100
AcDbCircle
 10
-120.928446
 20
191.249035
 30
0.0
 40
6.3
100
AcDbArc
 50
22.619865
 51
82.46722
  0
ARC
  5
43A
100
AcDbEntity
  8
2
100
AcDbCircle
 10
-110.528446
 20
220.849035
 30
0.0
 40
12.2
100
AcDbArc
 50
163.999284
 51
205.743458
  0
ARC
  5
43B
100
AcDbEntity
  8
2
100
AcDbCircle
 10
-107.728446
 20
212.949035
 30
0.0
 40
8.5
100
AcDbArc
 50
152.677778
 51
198.916988
  0
ARC
  5
43C
100
AcDbEntity
  8
2
100
AcDbCircle
 10
-119.728446
 20
219.149035
 30
0.0
 40
5.0
100
AcDbArc
 50
332.677778
 51
360.0
  0
ARC
  5
43D
100
AcDbEntity
  8
2
100
AcDbCircle
 10
-126.928446
 20
215.749035
 30
0.0
 40
12.3
100
AcDbArc
 50
15.300094
 51
50.185257
  0
ARC
  5
43E
100
AcDbEntity
  8
2
100
AcDbCircle
 10
-126.128446
 20
203.749035
 30
0.0
 40
12.2
100
AcDbArc
 50
27.266044
 51
63.155189
  0
ARC
  5
43F
100
AcDbEntity
  8
2
100
AcDbCircle
 10
-118.528446
 20
231.149035
 30
0.0
 40
4.2
100
AcDbArc
 50
142.732455
 51
228.054482
  0
ARC
  5
440
100
AcDbEntity
  8
2
100
AcDbCircle
 10
-126.528446
 20
223.649035
 30
0.0
 40
11.9
100
AcDbArc
 50
12.074853
 51
59.979441
  0
ARC
  5
441
100
AcDbEntity
  8
2
100
AcDbCircle
 10
-117.728446
 20
225.749035
 30
0.0
 40
3.0
100
AcDbArc
 50
336.711111
 51
360.0
  0
ARC
  5
442
100
AcDbEntity
  8
2
100
AcDbCircle
 10
-122.720487
 20
228.856995
 30
0.0
 40
7.992041
100
AcDbArc
 50
0.0
 51
170.664881
  0
ARC
  5
443
100
AcDbEntity
  8
2
100
AcDbCircle
 10
-121.07506
 20
233.086756
 30
0.0
 40
1.0
100
AcDbArc
 50
59.979441
 51
142.732455
  0
ARC
  5
444
100
AcDbEntity
  8
2
100
AcDbCircle
 10
-111.849899
 20
223.218684
 30
0.0
 40
3.4
100
AcDbArc
 50
156.711111
 51
183.361722
  0
ARC
  5
445
100
AcDbEntity
  8
2
100
AcDbCircle
 10
-117.825358
 20
225.510821
 30
0.0
 40
3.0
100
AcDbArc
 50
339.013597
 51
12.074853
  0
ARC
  5
446
100
AcDbEntity
  8
2
100
AcDbCircle
 10
-122.428446
 20
220.249035
 30
0.0
 40
7.7
100
AcDbArc
 50
0.0
 51
78.321555
  0
ARC
  5
447
100
AcDbEntity
  8
2
100
AcDbCircle
 10
-120.333281
 20
223.660659
 30
0.0
 40
2.0
100
AcDbArc
 50
50.185257
 51
163.999284
  0
ARC
  5
448
100
AcDbEntity
  8
2
100
AcDbCircle
 10
-119.716074
 20
216.418743
 30
0.0
 40
2.0
100
AcDbArc
 50
205.743458
 51
243.155189
  0
ARC
  5
449
100
AcDbEntity
  8
2
100
AcDbCircle
 10
-117.958066
 20
218.203069
 30
0.0
 40
3.0
100
AcDbArc
 50
332.814519
 51
15.300094
  0
ARC
  5
44A
100
AcDbEntity
  8
2
100
AcDbCircle
 10
-119.728446
 20
207.04752
 30
0.0
 40
5.0
100
AcDbArc
 50
0.0
 51
27.266044
  0
ARC
  5
44B
100
AcDbEntity
  8
2
100
AcDbCircle
 10
-119.840371
 20
199.477406
 30
0.0
 40
2.0
100
AcDbArc
 50
198.43805
 51
262.46722
  0
ARC
  5
44C
100
AcDbEntity
  8
2
100
AcDbCircle
 10
-120.215385
 20
209.130984
 30
0.0
 40
2.0
100
AcDbArc
 50
46.987298
 51
166.011263
  0
ARC
  5
44D
100
AcDbEntity
  8
2
100
AcDbCircle
 10
-117.955123
 20
203.626197
 30
0.0
 40
3.0
100
AcDbArc
 50
335.550904
 51
16.311797
  0
ARC
  5
44E
100
AcDbEntity
  8
2
100
AcDbCircle
 10
-119.728446
 20
191.749035
 30
0.0
 40
5.0
100
AcDbArc
 50
0.0
 51
22.619865
  0
ARC
  5
44F
100
AcDbEntity
  8
2
100
AcDbCircle
 10
-119.923159
 20
191.432224
 30
0.0
 40
2.0
100
AcDbArc
 50
58.499542
 51
165.838931
  0
ARC
  5
450
100
AcDbEntity
  8
2
100
AcDbCircle
 10
-119.785183
 20
177.941667
 30
0.0
 40
2.0
100
AcDbArc
 50
195.333025
 51
267.540804
  0
ARC
  5
451
100
AcDbEntity
  8
2
100
AcDbCircle
 10
-119.728446
 20
187.7823
 30
0.0
 40
5.0
100
AcDbArc
 50
339.100972
 51
360.0
  0
ARC
  5
452
100
AcDbEntity
  8
2
100
AcDbCircle
 10
-117.841012
 20
187.118459
 30
0.0
 40
3.0
100
AcDbArc
 50
338.954641
 51
15.426622
  0
ARC
  5
453
100
AcDbEntity
  8
2
100
AcDbCircle
 10
-118.728446
 20
171.702338
 30
0.0
 40
4.0
100
AcDbArc
 50
0.0
 51
21.378501
  0
ARC
  5
454
100
AcDbEntity
  8
2
100
AcDbCircle
 10
-117.728446
 20
171.749035
 30
0.0
 40
3.0
100
AcDbArc
 50
0.0
 51
36.869898
  0
ARC
  5
455
100
AcDbEntity
  8
2
100
AcDbCircle
 10
-119.771341
 20
153.929292
 30
0.0
 40
2.0
100
AcDbArc
 50
192.510198
 51
278.875589
  0
ARC
  5
456
100
AcDbEntity
  8
2
100
AcDbCircle
 10
-119.83826
 20
169.260831
 30
0.0
 40
2.0
100
AcDbArc
 50
62.208332
 51
167.989966
  0
ARC
  5
457
100
AcDbEntity
  8
2
100
AcDbCircle
 10
-116.728446
 20
167.188936
 30
0.0
 40
2.0
100
AcDbArc
 50
337.489521
 51
360.0
  0
ARC
  5
458
100
AcDbEntity
  8
2
100
AcDbCircle
 10
-116.955086
 20
166.618641
 30
0.0
 40
2.0
100
AcDbArc
 50
339.163924
 51
32.786299
  0
ARC
  5
459
100
AcDbEntity
  8
2
100
AcDbCircle
 10
-116.728446
 20
149.85851
 30
0.0
 40
2.0
100
AcDbArc
 50
0.0
 51
75.522488
  0
ARC
  5
45A
100
AcDbEntity
  8
2
100
AcDbCircle
 10
-117.728446
 20
150.912531
 30
0.0
 40
3.0
100
AcDbArc
 50
0.0
 51
21.986403
  0
ARC
  5
45B
100
AcDbEntity
  8
2
100
AcDbCircle
 10
-686.328446
 20
47.849035
 30
0.0
 40
3.0
100
AcDbArc
 50
180.0
 51
270.0
  0
LINE
  5
45C
100
AcDbEntity
  8
2
100
AcDbLine
 10
-662.328446
 20
41.849035
 30
0.0
 11
-662.328446
 21
38.849035
 31
0.0
  0
LINE
  5
45D
100
AcDbEntity
  8
2
100
AcDbLine
 10
-522.328446
 20
40.996284
 30
0.0
 11
-522.328446
 21
38.849035
 31
0.0
  0
LINE
  5
45E
100
AcDbEntity
  8
2
100
AcDbLine
 10
-686.328446
 20
44.849035
 30
0.0
 11
-533.020282
 21
44.849035
 31
0.0
  0
LINE
  5
45F
100
AcDbEntity
  8
2
100
AcDbLine
 10
-454.63661
 20
44.849035
 30
0.0
 11
-453.328446
 21
44.849035
 31
0.0
  0
LINE
  5
460
100
AcDbEntity
  8
2
100
AcDbLine
 10
-594.328446
 20
256.349035
 30
0.0
 11
-594.328446
 21
248.049035
 31
0.0
  0
LINE
  5
461
100
AcDbEntity
  8
2
100
AcDbLine
 10
-590.328446
 20
256.349035
 30
0.0
 11
-590.328446
 21
248.049035
 31
0.0
  0
CIRCLE
  5
462
100
AcDbEntity
  8
2
100
AcDbCircle
 10
-592.328446
 20
575.649035
 30
0.0
 40
42.5
  0
LINE
  5
463
100
AcDbEntity
  8
2
100
AcDbLine
 10
-622.750642
 20
583.149035
 30
0.0
 11
-601.813399
 21
583.149035
 31
0.0
  0
LINE
  5
464
100
AcDbEntity
  8
2
100
AcDbLine
 10
-622.750642
 20
568.149035
 30
0.0
 11
-601.813399
 21
568.149035
 31
0.0
  0
LINE
  5
465
100
AcDbEntity
  8
2
100
AcDbLine
 10
-582.843494
 20
568.149035
 30
0.0
 11
-561.906251
 21
568.149035
 31
0.0
  0
LINE
  5
466
100
AcDbEntity
  8
2
100
AcDbLine
 10
-590.328446
 20
553.62656
 30
0.0
 11
-590.328446
 21
551.482943
 31
0.0
  0
LINE
  5
467
100
AcDbEntity
  8
2
100
AcDbLine
 10
-594.328446
 20
553.62656
 30
0.0
 11
-594.328446
 21
551.482943
 31
0.0
  0
LINE
  5
468
100
AcDbEntity
  8
2
100
AcDbLine
 10
-590.328446
 20
597.67151
 30
0.0
 11
-590.328446
 21
599.815127
 31
0.0
  0
LINE
  5
469
100
AcDbEntity
  8
2
100
AcDbLine
 10
-594.328446
 20
597.67151
 30
0.0
 11
-594.328446
 21
599.815127
 31
0.0
  0
LINE
  5
46A
100
AcDbEntity
  8
2
100
AcDbLine
 10
-582.843494
 20
583.149035
 30
0.0
 11
-561.906251
 21
583.149035
 31
0.0
  0
ARC
  5
46B
100
AcDbEntity
  8
2
100
AcDbCircle
 10
-592.328446
 20
234.849035
 30
0.0
 40
34.0
100
AcDbArc
 50
22.844739
 51
157.155261
  0
CIRCLE
  5
46C
100
AcDbEntity
  8
2
100
AcDbCircle
 10
-592.328446
 20
575.649035
 30
0.0
 40
31.33305
  0
ARC
  5
46D
100
AcDbEntity
  8
2
100
AcDbCircle
 10
-629.753056
 20
575.975884
 30
0.0
 40
45.0
100
AcDbArc
 50
12.236103
 51
30.645688
  0
ARC
  5
46E
100
AcDbEntity
  8
2
100
AcDbCircle
 10
-554.903837
 20
575.975884
 30
0.0
 40
45.0
100
AcDbArc
 50
149.354312
 51
167.763897
  0
ARC
  5
46F
100
AcDbEntity
  8
2
100
AcDbCircle
 10
-592.328446
 20
598.149035
 30
0.0
 40
1.5
100
AcDbArc
 50
30.645688
 51
149.354312
  0
ARC
  5
470
100
AcDbEntity
  8
2
100
AcDbCircle
 10
-582.843494
 20
586.149035
 30
0.0
 40
3.0
100
AcDbArc
 50
192.236103
 51
270.0
  0
ARC
  5
471
100
AcDbEntity
  8
2
100
AcDbCircle
 10
-601.813399
 20
586.149035
 30
0.0
 40
3.0
100
AcDbArc
 50
270.0
 51
347.763897
  0
ARC
  5
472
100
AcDbEntity
  8
2
100
AcDbCircle
 10
-629.753056
 20
575.322186
 30
0.0
 40
45.0
100
AcDbArc
 50
329.354312
 51
347.763897
  0
ARC
  5
473
100
AcDbEntity
  8
2
100
AcDbCircle
 10
-554.903837
 20
575.322186
 30
0.0
 40
45.0
100
AcDbArc
 50
192.236103
 51
210.645688
  0
ARC
  5
474
100
AcDbEntity
  8
2
100
AcDbCircle
 10
-592.328446
 20
553.149035
 30
0.0
 40
1.5
100
AcDbArc
 50
210.645688
 51
329.354312
  0
ARC
  5
475
100
AcDbEntity
  8
2
100
AcDbCircle
 10
-582.843494
 20
565.149035
 30
0.0
 40
3.0
100
AcDbArc
 50
90.0
 51
167.763897
  0
ARC
  5
476
100
AcDbEntity
  8
2
100
AcDbCircle
 10
-601.813399
 20
565.149035
 30
0.0
 40
3.0
100
AcDbArc
 50
12.236103
 51
90.0
  0
ARC
  5
477
100
AcDbEntity
  8
2
100
AcDbCircle
 10
-592.328446
 20
575.649035
 30
0.0
 40
24.248711
100
AcDbArc
 50
18.016736
 51
161.983264
  0
ARC
  5
478
100
AcDbEntity
  8
2
100
AcDbCircle
 10
-592.328446
 20
575.649035
 30
0.0
 40
24.248711
100
AcDbArc
 50
198.016736
 51
341.983264
  0
ARC
  5
479
100
AcDbEntity
  8
2
100
AcDbCircle
 10
108.771554
 20
234.849035
 30
0.0
 40
34.0
100
AcDbArc
 50
45.099128
 51
134.900872
  0
LINE
  5
47A
100
AcDbEntity
  8
2
100
AcDbLine
 10
116.271549
 20
266.454521
 30
0.0
 11
116.271554
 21
248.049035
 31
0.0
  0
LINE
  5
47B
100
AcDbEntity
  8
2
100
AcDbLine
 10
101.271554
 20
266.454521
 30
0.0
 11
101.271554
 21
248.049035
 31
0.0
  0
LINE
  5
47C
100
AcDbEntity
  8
2
100
AcDbLine
 10
84.771554
 20
258.932224
 30
0.0
 11
84.771554
 21
257.206137
 31
0.0
  0
LINE
  5
47D
100
AcDbEntity
  8
2
100
AcDbLine
 10
132.771554
 20
258.932224
 30
0.0
 11
132.771554
 21
257.206137
 31
0.0
  0
ARC
  5
47E
100
AcDbEntity
  8
2
100
AcDbCircle
 10
-592.328446
 20
233.349035
 30
0.0
 40
28.0
100
AcDbArc
 50
34.712682
 51
81.884254
  0
ARC
  5
47F
100
AcDbEntity
  8
2
100
AcDbCircle
 10
-592.328446
 20
233.349035
 30
0.0
 40
28.0
100
AcDbArc
 50
98.115746
 51
145.287318
  0
ARC
  5
480
100
AcDbEntity
  8
2
100
AcDbCircle
 10
108.771554
 20
236.849035
 30
0.0
 40
31.0
100
AcDbArc
 50
28.453097
 51
48.922243
  0
ARC
  5
481
100
AcDbEntity
  8
2
100
AcDbCircle
 10
108.771554
 20
236.849035
 30
0.0
 40
31.0
100
AcDbArc
 50
131.077757
 51
151.546903
  0
ARC
  5
482
100
AcDbEntity
  8
2
100
AcDbCircle
 10
108.771554
 20
233.349035
 30
0.0
 40
28.0
100
AcDbArc
 50
105.536794
 51
145.287318
  0
ARC
  5
483
100
AcDbEntity
  8
2
100
AcDbCircle
 10
108.771554
 20
233.349035
 30
0.0
 40
28.0
100
AcDbArc
 50
34.712682
 51
74.463206
  0
ARC
  5
484
100
AcDbEntity
  8
2
100
AcDbCircle
 10
-593.328446
 20
256.349035
 30
0.0
 40
1.0
100
AcDbArc
 50
90.0
 51
180.0
  0
ARC
  5
485
100
AcDbEntity
  8
2
100
AcDbCircle
 10
-591.328446
 20
256.349035
 30
0.0
 40
1.0
100
AcDbArc
 50
0.0
 51
90.0
  0
LINE
  5
486
100
AcDbEntity
  8
2
100
AcDbLine
 10
-593.328446
 20
257.349035
 30
0.0
 11
-592.96368
 21
257.34904
 31
0.0
  0
LINE
  5
487
100
AcDbEntity
  8
2
100
AcDbLine
 10
-591.69298
 20
257.349149
 30
0.0
 11
-591.328446
 21
257.349035
 31
0.0
  0
LINE
  5
488
100
AcDbEntity
  8
2
100
AcDbLine
 10
-601.144114
 20
553.059568
 30
0.0
 11
-599.145245
 21
557.885265
 31
0.0
  0
LINE
  5
489
100
AcDbEntity
  8
2
100
AcDbLine
 10
-584.587769
 20
593.030122
 30
0.0
 11
-582.588899
 21
597.855819
 31
0.0
  0
LINE
  5
48A
100
AcDbEntity
  8
2
100
AcDbLine
 10
-602.067993
 20
553.442252
 30
0.0
 11
-600.069124
 21
558.267949
 31
0.0
  0
LINE
  5
48B
100
AcDbEntity
  8
2
100
AcDbLine
 10
-585.511648
 20
593.412805
 30
0.0
 11
-583.512779
 21
598.238502
 31
0.0
  0
LINE
  5
48C
100
AcDbEntity
  8
2
100
AcDbLine
 10
-609.117676
 20
558.152699
 30
0.0
 11
-605.424247
 21
561.846128
 31
0.0
  0
LINE
  5
48D
100
AcDbEntity
  8
2
100
AcDbLine
 10
-578.525539
 20
588.744836
 30
0.0
 11
-574.83211
 21
592.438265
 31
0.0
  0
LINE
  5
48E
100
AcDbEntity
  8
2
100
AcDbLine
 10
-609.824782
 20
558.859806
 30
0.0
 11
-606.131354
 21
562.553234
 31
0.0
  0
LINE
  5
48F
100
AcDbEntity
  8
2
100
AcDbLine
 10
-579.232646
 20
589.451943
 30
0.0
 11
-575.539217
 21
593.145371
 31
0.0
  0
LINE
  5
490
100
AcDbEntity
  8
2
100
AcDbLine
 10
-614.53523
 20
565.909488
 30
0.0
 11
-609.709533
 21
567.908357
 31
0.0
  0
LINE
  5
491
100
AcDbEntity
  8
2
100
AcDbLine
 10
-572.915282
 20
583.149035
 30
0.0
 11
-569.73898
 21
584.464703
 31
0.0
  0
LINE
  5
492
100
AcDbEntity
  8
2
100
AcDbLine
 10
-614.917913
 20
566.833368
 30
0.0
 11
-611.741611
 21
568.149035
 31
0.0
  0
LINE
  5
493
100
AcDbEntity
  8
2
100
AcDbLine
 10
-574.94736
 20
583.389713
 30
0.0
 11
-570.121663
 21
585.388582
 31
0.0
  0
ARC
  5
494
100
AcDbEntity
  8
2
100
AcDbCircle
 10
-599.607184
 20
558.076607
 30
0.0
 40
0.5
100
AcDbArc
 50
337.5
 51
157.5
  0
ARC
  5
495
100
AcDbEntity
  8
2
100
AcDbCircle
 10
-605.777801
 20
562.199681
 30
0.0
 40
0.5
100
AcDbArc
 50
315.0
 51
135.0
  0
ARC
  5
496
100
AcDbEntity
  8
2
100
AcDbCircle
 10
-609.900875
 20
568.370297
 30
0.0
 40
0.5
100
AcDbArc
 50
292.5
 51
333.734975
  0
ARC
  5
497
100
AcDbEntity
  8
2
100
AcDbCircle
 10
-585.049708
 20
593.221463
 30
0.0
 40
0.5
100
AcDbArc
 50
157.5
 51
337.5
  0
ARC
  5
498
100
AcDbEntity
  8
2
100
AcDbCircle
 10
-578.879092
 20
589.098389
 30
0.0
 40
0.5
100
AcDbArc
 50
135.0
 51
315.0
  0
ARC
  5
499
100
AcDbEntity
  8
2
100
AcDbCircle
 10
-574.756018
 20
582.927773
 30
0.0
 40
0.5
100
AcDbArc
 50
112.5
 51
153.734975
  0
LINE
  5
49A
100
AcDbEntity
  8
2
100
AcDbLine
 10
-575.527082
 20
566.795341
 30
0.0
 11
-573.505036
 21
565.957782
 31
0.0
  0
ARC
  5
49B
100
AcDbEntity
  8
2
100
AcDbCircle
 10
-574.857331
 20
568.412262
 30
0.0
 40
1.750143
100
AcDbArc
 50
188.650293
 51
247.5
  0
ARC
  5
49C
100
AcDbEntity
  8
2
100
AcDbCircle
 10
-572.835286
 20
567.574704
 30
0.0
 40
1.750143
100
AcDbArc
 50
247.5
 51
19.157293
  0
LINE
  5
49D
100
AcDbEntity
  8
2
100
AcDbLine
 10
-609.129811
 20
584.502729
 30
0.0
 11
-611.151856
 21
585.340288
 31
0.0
  0
ARC
  5
49E
100
AcDbEntity
  8
2
100
AcDbCircle
 10
-609.799562
 20
582.885808
 30
0.0
 40
1.750143
100
AcDbArc
 50
8.650293
 51
67.5
  0
ARC
  5
49F
100
AcDbEntity
  8
2
100
AcDbCircle
 10
-611.821607
 20
583.723367
 30
0.0
 40
1.750143
100
AcDbArc
 50
67.5
 51
199.157293
  0
ARC
  5
4A0
100
AcDbEntity
  8
2
100
AcDbCircle
 10
-556.928051
 20
237.614665
 30
0.0
 40
45.274917
100
AcDbArc
 50
159.10214
 51
166.675437
  0
ARC
  5
4A1
100
AcDbEntity
  8
2
100
AcDbCircle
 10
-557.851931
 20
237.614665
 30
0.0
 40
45.274917
100
AcDbArc
 50
158.681079
 51
166.675437
  0
ARC
  5
4A2
100
AcDbEntity
  8
2
100
AcDbCircle
 10
-599.627283
 20
253.918088
 30
0.0
 40
0.430947
100
AcDbArc
 50
339.10214
 51
158.681079
  0
ARC
  5
4A3
100
AcDbEntity
  8
2
100
AcDbCircle
 10
-580.898517
 20
235.847783
 30
0.0
 40
30.472934
100
AcDbArc
 50
143.677597
 51
156.39704
  0
ARC
  5
4A4
100
AcDbEntity
  8
2
100
AcDbCircle
 10
-581.605624
 20
235.847783
 30
0.0
 40
30.472934
100
AcDbArc
 50
142.882669
 51
156.39704
  0
ARC
  5
4A5
100
AcDbEntity
  8
2
100
AcDbCircle
 10
-605.678798
 20
254.065631
 30
0.0
 40
0.283404
100
AcDbArc
 50
323.677597
 51
142.882669
  0
ARC
  5
4A6
100
AcDbEntity
  8
2
100
AcDbCircle
 10
-589.654105
 20
234.080902
 30
0.0
 40
28.197761
100
AcDbArc
 50
134.711482
 51
150.306296
  0
ARC
  5
4A7
100
AcDbEntity
  8
2
100
AcDbCircle
 10
-590.036789
 20
234.080902
 30
0.0
 40
28.197761
100
AcDbArc
 50
134.156238
 51
150.306296
  0
ARC
  5
4A8
100
AcDbEntity
  8
2
100
AcDbCircle
 10
-609.586521
 20
254.215078
 30
0.0
 40
0.133957
100
AcDbArc
 50
314.711482
 51
134.156238
  0
ARC
  5
4A9
100
AcDbEntity
  8
2
100
AcDbCircle
 10
73.371159
 20
237.614665
 30
0.0
 40
45.274917
100
AcDbArc
 50
13.324563
 51
18.638604
  0
ARC
  5
4AA
100
AcDbEntity
  8
2
100
AcDbCircle
 10
74.295038
 20
237.614665
 30
0.0
 40
45.274917
100
AcDbArc
 50
13.324563
 51
21.318921
  0
ARC
  5
4AB
100
AcDbEntity
  8
2
100
AcDbCircle
 10
116.070391
 20
253.918088
 30
0.0
 40
0.430947
100
AcDbArc
 50
21.318921
 51
62.173379
  0
ARC
  5
4AC
100
AcDbEntity
  8
2
100
AcDbCircle
 10
97.341625
 20
235.847783
 30
0.0
 40
30.472934
100
AcDbArc
 50
23.60296
 51
36.322403
  0
ARC
  5
4AD
100
AcDbEntity
  8
2
100
AcDbCircle
 10
98.048732
 20
235.847783
 30
0.0
 40
30.472934
100
AcDbArc
 50
23.60296
 51
37.117331
  0
ARC
  5
4AE
100
AcDbEntity
  8
2
100
AcDbCircle
 10
122.121906
 20
254.065631
 30
0.0
 40
0.283404
100
AcDbArc
 50
37.117331
 51
216.322403
  0
ARC
  5
4AF
100
AcDbEntity
  8
2
100
AcDbCircle
 10
106.097212
 20
234.080902
 30
0.0
 40
28.197761
100
AcDbArc
 50
29.693704
 51
45.288518
  0
ARC
  5
4B0
100
AcDbEntity
  8
2
100
AcDbCircle
 10
106.479896
 20
234.080902
 30
0.0
 40
28.197761
100
AcDbArc
 50
29.693704
 51
45.843762
  0
ARC
  5
4B1
100
AcDbEntity
  8
2
100
AcDbCircle
 10
126.029628
 20
254.215078
 30
0.0
 40
0.133957
100
AcDbArc
 50
45.843762
 51
225.288518
  0
LINE
  5
4B2
100
AcDbEntity
  8
2
100
AcDbLine
 10
66.271554
 20
248.049035
 30
0.0
 11
151.271554
 21
248.049035
 31
0.0
  0
LINE
  5
4B3
100
AcDbEntity
  8
2
100
AcDbLine
 10
-549.828446
 20
248.049035
 30
0.0
 11
-634.828446
 21
248.049035
 31
0.0
  0
ARC
  5
4B4
100
AcDbEntity
  8
2
100
AcDbCircle
 10
-592.328446
 20
234.849035
 30
0.0
 40
33.162479
100
AcDbArc
 50
104.962752
 51
150.128593
  0
ARC
  5
4B5
100
AcDbEntity
  8
2
100
AcDbCircle
 10
-586.773898
 20
266.838898
 30
0.0
 40
10.0
100
AcDbArc
 50
202.238154
 51
227.992896
  0
ARC
  5
4B6
100
AcDbEntity
  8
2
100
AcDbCircle
 10
-600.116128
 20
263.988821
 30
0.0
 40
3.0
100
AcDbArc
 50
42.388379
 51
104.962752
  0
ARC
  5
4B7
100
AcDbEntity
  8
2
100
AcDbCircle
 10
-605.286273
 20
259.269753
 30
0.0
 40
10.0
100
AcDbArc
 50
22.238154
 51
42.388379
  0
ARC
  5
4B8
100
AcDbEntity
  8
2
100
AcDbCircle
 10
-597.882995
 20
266.838898
 30
0.0
 40
10.0
100
AcDbArc
 50
312.007104
 51
337.761846
  0
ARC
  5
4B9
100
AcDbEntity
  8
2
100
AcDbCircle
 10
-579.37062
 20
259.269753
 30
0.0
 40
10.0
100
AcDbArc
 50
137.611621
 51
157.761846
  0
ARC
  5
4BA
100
AcDbEntity
  8
2
100
AcDbCircle
 10
-584.540764
 20
263.988821
 30
0.0
 40
3.0
100
AcDbArc
 50
75.037248
 51
137.611621
  0
ARC
  5
4BB
100
AcDbEntity
  8
2
100
AcDbCircle
 10
-592.328446
 20
234.849035
 30
0.0
 40
33.162479
100
AcDbArc
 50
29.871407
 51
75.037248
  0
ARC
  5
4BC
100
AcDbEntity
  8
2
100
AcDbCircle
 10
-592.328446
 20
260.671485
 30
0.0
 40
1.7
100
AcDbArc
 50
227.992896
 51
312.007104
  0
ARC
  5
4BD
100
AcDbEntity
  8
2
100
AcDbCircle
 10
-591.853555
 20
234.0265
 30
0.0
 40
32.849358
100
AcDbArc
 50
105.470231
 51
147.621493
  0
ARC
  5
4BE
100
AcDbEntity
  8
2
100
AcDbCircle
 10
-585.819946
 20
266.947396
 30
0.0
 40
12.0
100
AcDbArc
 50
200.135943
 51
231.694293
  0
ARC
  5
4BF
100
AcDbEntity
  8
2
100
AcDbCircle
 10
-602.719758
 20
260.750918
 30
0.0
 40
6.0
100
AcDbArc
 50
20.135943
 51
48.747449
  0
ARC
  5
4C0
100
AcDbEntity
  8
2
100
AcDbCircle
 10
-600.082241
 20
263.75816
 30
0.0
 40
2.0
100
AcDbArc
 50
48.747449
 51
105.470231
  0
ARC
  5
4C1
100
AcDbEntity
  8
2
100
AcDbCircle
 10
-598.836947
 20
266.947396
 30
0.0
 40
12.0
100
AcDbArc
 50
308.305707
 51
339.864057
  0
ARC
  5
4C2
100
AcDbEntity
  8
2
100
AcDbCircle
 10
-581.937134
 20
260.750918
 30
0.0
 40
6.0
100
AcDbArc
 50
131.252551
 51
159.864057
  0
ARC
  5
4C3
100
AcDbEntity
  8
2
100
AcDbCircle
 10
-584.574651
 20
263.75816
 30
0.0
 40
2.0
100
AcDbArc
 50
74.529769
 51
131.252551
  0
ARC
  5
4C4
100
AcDbEntity
  8
2
100
AcDbCircle
 10
-592.803337
 20
234.0265
 30
0.0
 40
32.849358
100
AcDbArc
 50
32.378507
 51
74.529769
  0
ARC
  5
4C5
100
AcDbEntity
  8
2
100
AcDbCircle
 10
-592.328446
 20
258.707892
 30
0.0
 40
1.5
100
AcDbArc
 50
231.694293
 51
308.305707
  0
ARC
  5
4C6
100
AcDbEntity
  8
2
100
AcDbCircle
 10
100.487765
 20
255.528067
 30
0.0
 40
11.430139
100
AcDbArc
 50
88.512215
 51
112.714662
  0
ARC
  5
4C7
100
AcDbEntity
  8
2
100
AcDbCircle
 10
100.771554
 20
266.454521
 30
0.0
 40
0.5
100
AcDbArc
 50
0.0
 51
88.512215
  0
ARC
  5
4C8
100
AcDbEntity
  8
2
100
AcDbCircle
 10
111.607927
 20
228.963562
 30
0.0
 40
40.228245
100
AcDbArc
 50
112.714662
 51
131.843847
  0
ARC
  5
4C9
100
AcDbEntity
  8
2
100
AcDbCircle
 10
101.977768
 20
248.63209
 30
0.0
 40
17.127052
100
AcDbArc
 50
93.791923
 51
118.737001
  0
ARC
  5
4CA
100
AcDbEntity
  8
2
100
AcDbCircle
 10
100.871554
 20
265.322523
 30
0.0
 40
0.4
100
AcDbArc
 50
0.0
 51
93.791923
  0
ARC
  5
4CB
100
AcDbEntity
  8
2
100
AcDbCircle
 10
115.690117
 20
223.624325
 30
0.0
 40
45.647515
100
AcDbArc
 50
118.737001
 51
132.635576
  0
ARC
  5
4CC
100
AcDbEntity
  8
2
100
AcDbCircle
 10
115.56534
 20
248.63209
 30
0.0
 40
17.127052
100
AcDbArc
 50
61.262999
 51
86.208077
  0
ARC
  5
4CD
100
AcDbEntity
  8
2
100
AcDbCircle
 10
101.85299
 20
223.624325
 30
0.0
 40
45.647515
100
AcDbArc
 50
47.364424
 51
61.262999
  0
ARC
  5
4CE
100
AcDbEntity
  8
2
100
AcDbCircle
 10
116.671554
 20
265.322523
 30
0.0
 40
0.4
100
AcDbArc
 50
86.208077
 51
180.0
  0
ARC
  5
4CF
100
AcDbEntity
  8
2
100
AcDbCircle
 10
116.771554
 20
266.454521
 30
0.0
 40
0.5
100
AcDbArc
 50
91.487785
 51
180.0
  0
ARC
  5
4D0
100
AcDbEntity
  8
2
100
AcDbCircle
 10
117.055342
 20
255.528067
 30
0.0
 40
11.430139
100
AcDbArc
 50
67.285338
 51
91.487785
  0
ARC
  5
4D1
100
AcDbEntity
  8
2
100
AcDbCircle
 10
105.93518
 20
228.963562
 30
0.0
 40
40.228245
100
AcDbArc
 50
48.156153
 51
67.285338
  0
ARC
  5
4D2
100
AcDbEntity
  8
2
  6
CENTER
 62
     2
100
AcDbCircle
 10
-592.328446
 20
575.649035
 30
0.0
 40
37.5
100
AcDbArc
 50
126.361503
 51
143.885033
  0
ARC
  5
4D3
100
AcDbEntity
  8
2
  6
CENTER
 62
     2
100
AcDbCircle
 10
-592.328446
 20
575.649035
 30
0.0
 40
37.5
100
AcDbArc
 50
216.93331
 51
233.416879
  0
ARC
  5
4D4
100
AcDbEntity
  8
2
  6
CENTER
 62
     2
100
AcDbCircle
 10
-592.328446
 20
575.649035
 30
0.0
 40
37.5
100
AcDbArc
 50
306.278748
 51
323.822644
  0
ARC
  5
4D5
100
AcDbEntity
  8
2
  6
CENTER
 62
     2
100
AcDbCircle
 10
-592.328446
 20
575.649035
 30
0.0
 40
37.5
100
AcDbArc
 50
36.280641
 51
53.737219
  0
LINE
  5
4D6
100
AcDbEntity
  8
2
  6
CENTER
 62
     2
100
AcDbLine
 10
-623.167733
 20
544.809749
 30
0.0
 11
-615.117133
 21
552.860349
 31
0.0
  0
LINE
  5
4D7
100
AcDbEntity
  8
2
  6
CENTER
 62
     2
100
AcDbLine
 10
-569.937593
 20
598.039889
 30
0.0
 11
-561.39122
 21
606.586262
 31
0.0
  0
LINE
  5
4D8
100
AcDbEntity
  8
2
  6
CENTER
 62
     2
100
AcDbLine
 10
-623.222066
 20
606.542655
 30
0.0
 11
-614.871073
 21
598.191662
 31
0.0
  0
LINE
  5
4D9
100
AcDbEntity
  8
2
  6
CENTER
 62
     2
100
AcDbLine
 10
-569.756363
 20
553.076951
 30
0.0
 11
-561.625299
 21
544.945888
 31
0.0
  0
LINE
  5
4DA
100
AcDbEntity
  8
2
  6
CENTER
 62
     2
100
AcDbLine
 10
135.288058
 20
239.193853
 30
0.0
 11
135.288058
 21
254.805311
 31
0.0
  0
LINE
  5
4DB
100
AcDbEntity
  8
2
  6
CENTER
 62
     2
100
AcDbLine
 10
82.255049
 20
239.193853
 30
0.0
 11
82.255049
 21
256.199201
 31
0.0
  0
LINE
  5
4DC
100
AcDbEntity
  8
2
  6
CENTER
 62
     2
100
AcDbLine
 10
-618.844951
 20
254.764482
 30
0.0
 11
-618.844951
 21
238.344057
 31
0.0
  0
LINE
  5
4DD
100
AcDbEntity
  8
2
  6
CENTER
 62
     2
100
AcDbLine
 10
-565.811942
 20
255.194337
 30
0.0
 11
-565.811942
 21
238.344057
 31
0.0
  0
CIRCLE
  5
4DE
100
AcDbEntity
  8
2
100
AcDbCircle
 10
-565.811942
 20
549.132531
 30
0.0
 40
3.5
  0
CIRCLE
  5
4DF
100
AcDbEntity
  8
2
100
AcDbCircle
 10
-565.811942
 20
602.16554
 30
0.0
 40
3.5
  0
CIRCLE
  5
4E0
100
AcDbEntity
  8
2
100
AcDbCircle
 10
-618.844951
 20
549.132531
 30
0.0
 40
3.5
  0
CIRCLE
  5
4E1
100
AcDbEntity
  8
2
100
AcDbCircle
 10
-618.844951
 20
602.16554
 30
0.0
 40
3.5
  0
LINE
  5
4E2
100
AcDbEntity
  8
2
100
AcDbLine
 10
-562.011942
 20
249.049035
 30
0.0
 11
-569.611942
 21
249.049035
 31
0.0
  0
LINE
  5
4E3
100
AcDbEntity
  8
2
100
AcDbLine
 10
-562.011942
 20
249.049035
 30
0.0
 11
-562.011942
 21
248.049035
 31
0.0
  0
LINE
  5
4E4
100
AcDbEntity
  8
2
100
AcDbLine
 10
-569.611942
 20
249.049035
 30
0.0
 11
-569.611942
 21
248.049035
 31
0.0
  0
LINE
  5
4E5
100
AcDbEntity
  8
2
100
AcDbLine
 10
-562.311942
 20
250.02806
 30
0.0
 11
-562.311942
 21
249.049035
 31
0.0
  0
LINE
  5
4E6
100
AcDbEntity
  8
2
100
AcDbLine
 10
-569.311942
 20
250.02806
 30
0.0
 11
-569.311942
 21
249.049035
 31
0.0
  0
ARC
  5
4E7
100
AcDbEntity
  8
2
100
AcDbCircle
 10
-565.811942
 20
242.649035
 30
0.0
 40
9.0
100
AcDbArc
 50
73.39845
 51
106.60155
  0
ARC
  5
4E8
100
AcDbEntity
  8
2
100
AcDbCircle
 10
-563.611942
 20
250.02806
 30
0.0
 40
1.3
100
AcDbArc
 50
0.0
 51
73.39845
  0
ARC
  5
4E9
100
AcDbEntity
  8
2
100
AcDbCircle
 10
-568.011942
 20
250.02806
 30
0.0
 40
1.3
100
AcDbArc
 50
106.60155
 51
180.0
  0
LINE
  5
4EA
100
AcDbEntity
  8
2
100
AcDbLine
 10
-615.044951
 20
249.049035
 30
0.0
 11
-622.644951
 21
249.049035
 31
0.0
  0
LINE
  5
4EB
100
AcDbEntity
  8
2
100
AcDbLine
 10
-615.044951
 20
249.049035
 30
0.0
 11
-615.044951
 21
248.049035
 31
0.0
  0
LINE
  5
4EC
100
AcDbEntity
  8
2
100
AcDbLine
 10
-622.644951
 20
249.049035
 30
0.0
 11
-622.644951
 21
248.049035
 31
0.0
  0
LINE
  5
4ED
100
AcDbEntity
  8
2
100
AcDbLine
 10
-615.344951
 20
250.02806
 30
0.0
 11
-615.344951
 21
249.049035
 31
0.0
  0
LINE
  5
4EE
100
AcDbEntity
  8
2
100
AcDbLine
 10
-622.344951
 20
250.02806
 30
0.0
 11
-622.344951
 21
249.049035
 31
0.0
  0
ARC
  5
4EF
100
AcDbEntity
  8
2
100
AcDbCircle
 10
-618.844951
 20
242.649035
 30
0.0
 40
9.0
100
AcDbArc
 50
73.39845
 51
106.60155
  0
ARC
  5
4F0
100
AcDbEntity
  8
2
100
AcDbCircle
 10
-616.644951
 20
250.02806
 30
0.0
 40
1.3
100
AcDbArc
 50
0.0
 51
73.39845
  0
ARC
  5
4F1
100
AcDbEntity
  8
2
100
AcDbCircle
 10
-621.044951
 20
250.02806
 30
0.0
 40
1.3
100
AcDbArc
 50
106.60155
 51
180.0
  0
LINE
  5
4F2
100
AcDbEntity
  8
2
100
AcDbLine
 10
86.055049
 20
249.049035
 30
0.0
 11
78.455049
 21
249.049035
 31
0.0
  0
LINE
  5
4F3
100
AcDbEntity
  8
2
100
AcDbLine
 10
86.055049
 20
249.049035
 30
0.0
 11
86.055049
 21
248.049035
 31
0.0
  0
LINE
  5
4F4
100
AcDbEntity
  8
2
100
AcDbLine
 10
78.455049
 20
249.049035
 30
0.0
 11
78.455049
 21
248.049035
 31
0.0
  0
LINE
  5
4F5
100
AcDbEntity
  8
2
100
AcDbLine
 10
85.755049
 20
250.02806
 30
0.0
 11
85.755049
 21
249.049035
 31
0.0
  0
LINE
  5
4F6
100
AcDbEntity
  8
2
100
AcDbLine
 10
78.755049
 20
250.02806
 30
0.0
 11
78.755049
 21
249.049035
 31
0.0
  0
ARC
  5
4F7
100
AcDbEntity
  8
2
100
AcDbCircle
 10
82.255049
 20
242.649035
 30
0.0
 40
9.0
100
AcDbArc
 50
73.39845
 51
106.60155
  0
ARC
  5
4F8
100
AcDbEntity
  8
2
100
AcDbCircle
 10
84.455049
 20
250.02806
 30
0.0
 40
1.3
100
AcDbArc
 50
0.0
 51
73.39845
  0
ARC
  5
4F9
100
AcDbEntity
  8
2
100
AcDbCircle
 10
80.055049
 20
250.02806
 30
0.0
 40
1.3
100
AcDbArc
 50
106.60155
 51
180.0
  0
LINE
  5
4FA
100
AcDbEntity
  8
2
100
AcDbLine
 10
139.088058
 20
249.049035
 30
0.0
 11
131.488058
 21
249.049035
 31
0.0
  0
LINE
  5
4FB
100
AcDbEntity
  8
2
100
AcDbLine
 10
139.088058
 20
249.049035
 30
0.0
 11
139.088058
 21
248.049035
 31
0.0
  0
LINE
  5
4FC
100
AcDbEntity
  8
2
100
AcDbLine
 10
131.488058
 20
249.049035
 30
0.0
 11
131.488058
 21
248.049035
 31
0.0
  0
LINE
  5
4FD
100
AcDbEntity
  8
2
100
AcDbLine
 10
138.788058
 20
250.02806
 30
0.0
 11
138.788058
 21
249.049035
 31
0.0
  0
LINE
  5
4FE
100
AcDbEntity
  8
2
100
AcDbLine
 10
131.788058
 20
250.02806
 30
0.0
 11
131.788058
 21
249.049035
 31
0.0
  0
ARC
  5
4FF
100
AcDbEntity
  8
2
100
AcDbCircle
 10
135.288058
 20
242.649035
 30
0.0
 40
9.0
100
AcDbArc
 50
73.39845
 51
106.60155
  0
ARC
  5
500
100
AcDbEntity
  8
2
100
AcDbCircle
 10
137.488058
 20
250.02806
 30
0.0
 40
1.3
100
AcDbArc
 50
0.0
 51
73.39845
  0
ARC
  5
501
100
AcDbEntity
  8
2
100
AcDbCircle
 10
133.088058
 20
250.02806
 30
0.0
 40
1.3
100
AcDbArc
 50
106.60155
 51
180.0
  0
ARC
  5
502
100
AcDbEntity
  8
2
100
AcDbCircle
 10
-430.328446
 20
484.649035
 30
0.0
 40
3.0
100
AcDbArc
 50
360.0
 51
90.0
  0
LINE
  5
503
100
AcDbEntity
  8
2
100
AcDbLine
 10
-448.328446
 20
660.649035
 30
0.0
 11
-448.328446
 21
492.649035
 31
0.0
  0
LINE
  5
504
100
AcDbEntity
  8
2
100
AcDbLine
 10
-464.511777
 20
487.649035
 30
0.0
 11
-521.725416
 21
487.649035
 31
0.0
  0
LINE
  5
505
100
AcDbEntity
  8
2
100
AcDbLine
 10
-430.328446
 20
487.649035
 30
0.0
 11
-451.850297
 21
487.649035
 31
0.0
  0
LINE
  5
506
100
AcDbEntity
  8
2
100
AcDbLine
 10
-427.328446
 20
467.649035
 30
0.0
 11
-427.328446
 21
484.649035
 31
0.0
  0
LINE
  5
507
100
AcDbEntity
  8
2
100
AcDbLine
 10
-427.328446
 20
475.649035
 30
0.0
 11
-815.328446
 21
475.649035
 31
0.0
  0
LINE
  5
508
100
AcDbEntity
  8
2
100
AcDbLine
 10
-536.931477
 20
487.649035
 30
0.0
 11
-669.049729
 21
487.649035
 31
0.0
  0
LINE
  5
509
100
AcDbEntity
  8
2
100
AcDbLine
 10
-815.328446
 20
467.649035
 30
0.0
 11
-815.328446
 21
660.649035
 31
0.0
  0
LINE
  5
50A
100
AcDbEntity
  8
2
100
AcDbLine
 10
-731.328446
 20
512.649035
 30
0.0
 11
-731.328446
 21
638.649035
 31
0.0
  0
LINE
  5
50B
100
AcDbEntity
  8
2
100
AcDbLine
 10
-737.067405
 20
645.649035
 30
0.0
 11
-474.328446
 21
645.649035
 31
0.0
  0
LINE
  5
50C
100
AcDbEntity
  8
2
100
AcDbLine
 10
-467.328446
 20
638.649035
 30
0.0
 11
-467.328446
 21
490.649035
 31
0.0
  0
ARC
  5
50D
100
AcDbEntity
  8
2
100
AcDbCircle
 10
-724.328446
 20
638.649035
 30
0.0
 40
7.0
100
AcDbArc
 50
90.0
 51
180.0
  0
ARC
  5
50E
100
AcDbEntity
  8
2
100
AcDbCircle
 10
-724.328446
 20
512.649035
 30
0.0
 40
7.0
100
AcDbArc
 50
180.0
 51
270.0
  0
ARC
  5
50F
100
AcDbEntity
  8
2
100
AcDbCircle
 10
-474.328446
 20
638.649035
 30
0.0
 40
7.0
100
AcDbArc
 50
0.0
 51
90.0
  0
ARC
  5
510
100
AcDbEntity
  8
2
100
AcDbCircle
 10
-474.328446
 20
512.649035
 30
0.0
 40
7.0
100
AcDbArc
 50
270.0
 51
360.0
  0
ARC
  5
511
100
AcDbEntity
  8
2
100
AcDbCircle
 10
-690.328446
 20
61.849035
 30
0.0
 40
1.0
100
AcDbArc
 50
0.0
 51
90.0
  0
ARC
  5
512
100
AcDbEntity
  8
2
100
AcDbCircle
 10
-635.328446
 20
136.849035
 30
0.0
 40
180.0
100
AcDbArc
 50
170.0242
 51
198.428986
  0
ARC
  5
513
100
AcDbEntity
  8
2
100
AcDbCircle
 10
-782.379458
 20
87.849035
 30
0.0
 40
25.0
100
AcDbArc
 50
198.428986
 51
270.0
  0
LINE
  5
514
100
AcDbEntity
  8
2
100
AcDbLine
 10
-789.728915
 20
188.639129
 30
0.0
 11
-567.783573
 21
204.159059
 31
0.0
  0
ARC
  5
515
100
AcDbEntity
  8
2
100
AcDbCircle
 10
-787.985003
 20
163.700028
 30
0.0
 40
25.0
100
AcDbArc
 50
94.0
 51
170.0242
  0
LINE
  5
516
100
AcDbEntity
  8
2
100
AcDbLine
 10
-731.328446
 20
221.849035
 30
0.0
 11
-737.764144
 21
204.167101
 31
0.0
  0
ARC
  5
517
100
AcDbEntity
  8
2
100
AcDbCircle
 10
-756.557997
 20
211.007503
 30
0.0
 40
20.0
100
AcDbArc
 50
274.0
 51
340.0
  0
LINE
  5
518
100
AcDbEntity
  8
2
100
AcDbLine
 10
-800.328446
 20
675.649035
 30
0.0
 11
-463.328446
 21
675.649035
 31
0.0
  0
CIRCLE
  5
519
100
AcDbEntity
  8
2
100
AcDbCircle
 10
-529.328446
 20
490.649035
 30
0.0
 40
7.099784
  0
ARC
  5
51A
100
AcDbEntity
  8
2
100
AcDbCircle
 10
-521.725416
 20
485.649035
 30
0.0
 40
2.0
100
AcDbArc
 50
90.0
 51
146.66978
  0
ARC
  5
51B
100
AcDbEntity
  8
2
100
AcDbCircle
 10
-536.931477
 20
485.649035
 30
0.0
 40
2.0
100
AcDbArc
 50
33.33022
 51
90.0
  0
CIRCLE
  5
51C
100
AcDbEntity
  8
2
100
AcDbCircle
 10
-529.328446
 20
490.649035
 30
0.0
 40
6.0
  0
CIRCLE
  5
51D
100
AcDbEntity
  8
2
100
AcDbCircle
 10
-676.328446
 20
490.649035
 30
0.0
 40
6.0
  0
LINE
  5
51E
100
AcDbEntity
  8
2
100
AcDbLine
 10
-684.328446
 20
502.649035
 30
0.0
 11
-684.328446
 21
490.649035
 31
0.0
  0
ARC
  5
51F
100
AcDbEntity
  8
2
100
AcDbCircle
 10
-681.328446
 20
502.649035
 30
0.0
 40
3.0
100
AcDbArc
 50
90.0
 51
180.0
  0
ARC
  5
520
100
AcDbEntity
  8
2
100
AcDbCircle
 10
-681.328446
 20
490.649035
 30
0.0
 40
3.0
100
AcDbArc
 50
180.0
 51
235.972242
  0
CIRCLE
  5
521
100
AcDbEntity
  8
2
100
AcDbCircle
 10
-676.328446
 20
490.649035
 30
0.0
 40
6.830613
  0
ARC
  5
522
100
AcDbEntity
  8
2
100
AcDbCircle
 10
-669.049729
 20
485.649035
 30
0.0
 40
2.0
100
AcDbArc
 50
90.0
 51
145.513495
  0
ARC
  5
523
100
AcDbEntity
  8
2
100
AcDbCircle
 10
-684.126419
 20
486.505202
 30
0.0
 40
2.0
100
AcDbArc
 50
27.986121
 51
55.972242
  0
CIRCLE
  5
524
100
AcDbEntity
  8
2
100
AcDbCircle
 10
-458.328446
 20
490.649035
 30
0.0
 40
6.0
  0
CIRCLE
  5
525
100
AcDbEntity
  8
2
100
AcDbCircle
 10
-458.328446
 20
490.649035
 30
0.0
 40
6.183301
  0
ARC
  5
526
100
AcDbEntity
  8
2
100
AcDbCircle
 10
-451.850297
 20
485.649035
 30
0.0
 40
2.0
100
AcDbArc
 50
90.0
 51
142.33813
  0
ARC
  5
527
100
AcDbEntity
  8
2
100
AcDbCircle
 10
-464.328446
 20
490.649035
 30
0.0
 40
3.0
100
AcDbArc
 50
180.0
 51
264.293054
  0
ARC
  5
528
100
AcDbEntity
  8
2
100
AcDbCircle
 10
-464.825648
 20
485.673818
 30
0.0
 40
2.0
100
AcDbArc
 50
37.443005
 51
84.293054
  0
ARC
  5
529
100
AcDbEntity
  8
2
100
AcDbCircle
 10
-443.328446
 20
492.649035
 30
0.0
 40
5.0
100
AcDbArc
 50
180.0
 51
270.0
  0
LINE
  5
52A
100
AcDbEntity
  8
2
100
AcDbLine
 10
-458.328446
 20
581.649035
 30
0.0
 11
-450.328446
 21
581.649035
 31
0.0
  0
LINE
  5
52B
100
AcDbEntity
  8
2
100
AcDbLine
 10
-458.328446
 20
569.649035
 30
0.0
 11
-450.328446
 21
569.649035
 31
0.0
  0
ARC
  5
52C
100
AcDbEntity
  8
2
100
AcDbCircle
 10
-458.328446
 20
575.649035
 30
0.0
 40
6.0
100
AcDbArc
 50
90.0
 51
270.0
  0
ARC
  5
52D
100
AcDbEntity
  8
2
100
AcDbCircle
 10
-450.328446
 20
567.649035
 30
0.0
 40
2.0
100
AcDbArc
 50
0.0
 51
90.0
  0
ARC
  5
52E
100
AcDbEntity
  8
2
100
AcDbCircle
 10
-450.328446
 20
583.649035
 30
0.0
 40
2.0
100
AcDbArc
 50
270.0
 51
0.0
  0
ARC
  5
52F
100
AcDbEntity
  8
2
100
AcDbCircle
 10
-463.328446
 20
660.649035
 30
0.0
 40
15.0
100
AcDbArc
 50
0.0
 51
90.0
  0
LINE
  5
530
100
AcDbEntity
  8
2
100
AcDbLine
 10
-462.328446
 20
655.649035
 30
0.0
 11
-450.328446
 21
655.649035
 31
0.0
  0
LINE
  5
531
100
AcDbEntity
  8
2
100
AcDbLine
 10
-468.328446
 20
661.649035
 30
0.0
 11
-468.328446
 21
673.649035
 31
0.0
  0
ARC
  5
532
100
AcDbEntity
  8
2
100
AcDbCircle
 10
-462.328446
 20
661.649035
 30
0.0
 40
6.0
100
AcDbArc
 50
180.0
 51
270.0
  0
ARC
  5
533
100
AcDbEntity
  8
2
100
AcDbCircle
 10
-450.328446
 20
653.649035
 30
0.0
 40
2.0
100
AcDbArc
 50
0.0
 51
90.0
  0
ARC
  5
534
100
AcDbEntity
  8
2
100
AcDbCircle
 10
-470.328446
 20
673.649035
 30
0.0
 40
2.0
100
AcDbArc
 50
0.0
 51
90.0
  0
LINE
  5
535
100
AcDbEntity
  8
2
100
AcDbLine
 10
-523.328446
 20
665.649035
 30
0.0
 11
-523.328446
 21
673.649035
 31
0.0
  0
LINE
  5
536
100
AcDbEntity
  8
2
100
AcDbLine
 10
-535.328446
 20
665.649035
 30
0.0
 11
-535.328446
 21
673.649035
 31
0.0
  0
ARC
  5
537
100
AcDbEntity
  8
2
100
AcDbCircle
 10
-529.328446
 20
665.649035
 30
0.0
 40
6.0
100
AcDbArc
 50
180.0
 51
360.0
  0
ARC
  5
538
100
AcDbEntity
  8
2
100
AcDbCircle
 10
-521.328446
 20
673.649035
 30
0.0
 40
2.0
100
AcDbArc
 50
90.0
 51
180.0
  0
ARC
  5
539
100
AcDbEntity
  8
2
100
AcDbCircle
 10
-537.328446
 20
673.649035
 30
0.0
 40
2.0
100
AcDbArc
 50
0.0
 51
90.0
  0
LINE
  5
53A
100
AcDbEntity
  8
2
100
AcDbLine
 10
-670.328446
 20
665.649035
 30
0.0
 11
-670.328446
 21
673.649035
 31
0.0
  0
LINE
  5
53B
100
AcDbEntity
  8
2
100
AcDbLine
 10
-682.328446
 20
665.649035
 30
0.0
 11
-682.328446
 21
673.649035
 31
0.0
  0
ARC
  5
53C
100
AcDbEntity
  8
2
100
AcDbCircle
 10
-676.328446
 20
665.649035
 30
0.0
 40
6.0
100
AcDbArc
 50
180.0
 51
360.0
  0
ARC
  5
53D
100
AcDbEntity
  8
2
100
AcDbCircle
 10
-668.328446
 20
673.649035
 30
0.0
 40
2.0
100
AcDbArc
 50
90.0
 51
180.0
  0
ARC
  5
53E
100
AcDbEntity
  8
2
100
AcDbCircle
 10
-684.328446
 20
673.649035
 30
0.0
 40
2.0
100
AcDbArc
 50
0.0
 51
90.0
  0
ARC
  5
53F
100
AcDbEntity
  8
2
100
AcDbCircle
 10
-699.328446
 20
660.649035
 30
0.0
 40
15.0
100
AcDbArc
 50
360.0
 51
90.0
  0
ARC
  5
540
100
AcDbEntity
  8
2
100
AcDbCircle
 10
-800.328446
 20
660.649035
 30
0.0
 40
15.0
100
AcDbArc
 50
90.0
 51
180.0
  0
LINE
  5
541
100
AcDbEntity
  8
2
100
AcDbLine
 10
-795.328446
 20
661.649035
 30
0.0
 11
-795.328446
 21
673.649035
 31
0.0
  0
LINE
  5
542
100
AcDbEntity
  8
2
100
AcDbLine
 10
-801.328446
 20
655.649035
 30
0.0
 11
-811.137333
 21
655.649035
 31
0.0
  0
ARC
  5
543
100
AcDbEntity
  8
2
100
AcDbCircle
 10
-801.328446
 20
661.649035
 30
0.0
 40
6.0
100
AcDbArc
 50
270.0
 51
360.0
  0
ARC
  5
544
100
AcDbEntity
  8
2
100
AcDbCircle
 10
-793.328446
 20
673.649035
 30
0.0
 40
2.0
100
AcDbArc
 50
90.0
 51
180.0
  0
LINE
  5
545
100
AcDbEntity
  8
2
100
AcDbLine
 10
-806.328446
 20
581.649035
 30
0.0
 11
-811.137333
 21
581.649035
 31
0.0
  0
LINE
  5
546
100
AcDbEntity
  8
2
100
AcDbLine
 10
-806.328446
 20
569.649035
 30
0.0
 11
-811.137333
 21
569.649035
 31
0.0
  0
ARC
  5
547
100
AcDbEntity
  8
2
100
AcDbCircle
 10
-806.328446
 20
575.649035
 30
0.0
 40
6.0
100
AcDbArc
 50
270.0
 51
90.0
  0
LINE
  5
548
100
AcDbEntity
  8
2
100
AcDbLine
 10
-806.328446
 20
502.649035
 30
0.0
 11
-811.137333
 21
502.649035
 31
0.0
  0
LINE
  5
549
100
AcDbEntity
  8
2
100
AcDbLine
 10
-806.328446
 20
490.649035
 30
0.0
 11
-811.137333
 21
490.649035
 31
0.0
  0
ARC
  5
54A
100
AcDbEntity
  8
2
100
AcDbCircle
 10
-806.328446
 20
496.649035
 30
0.0
 40
6.0
100
AcDbArc
 50
270.0
 51
90.0
  0
LINE
  5
54B
100
AcDbEntity
  8
2
100
AcDbLine
 10
-744.067405
 20
512.649035
 30
0.0
 11
-744.067405
 21
638.649035
 31
0.0
  0
ARC
  5
54C
100
AcDbEntity
  8
2
100
AcDbCircle
 10
-737.067405
 20
638.649035
 30
0.0
 40
7.0
100
AcDbArc
 50
90.0
 51
180.0
  0
LINE
  5
54D
100
AcDbEntity
  8
2
100
AcDbLine
 10
-811.328446
 20
505.649035
 30
0.0
 11
-474.328446
 21
505.649035
 31
0.0
  0
ARC
  5
54E
100
AcDbEntity
  8
2
100
AcDbCircle
 10
-811.137333
 20
504.649035
 30
0.0
 40
2.0
100
AcDbArc
 50
180.0
 51
270.0
  0
ARC
  5
54F
100
AcDbEntity
  8
2
100
AcDbCircle
 10
-811.137333
 20
488.649035
 30
0.0
 40
2.0
100
AcDbArc
 50
90.0
 51
180.0
  0
ARC
  5
550
100
AcDbEntity
  8
2
100
AcDbCircle
 10
-811.137333
 20
583.649035
 30
0.0
 40
2.0
100
AcDbArc
 50
180.0
 51
270.0
  0
ARC
  5
551
100
AcDbEntity
  8
2
100
AcDbCircle
 10
-811.137333
 20
567.649035
 30
0.0
 40
2.0
100
AcDbArc
 50
90.0
 51
180.0
  0
ARC
  5
552
100
AcDbEntity
  8
2
100
AcDbCircle
 10
-811.137333
 20
653.649035
 30
0.0
 40
2.0
100
AcDbArc
 50
90.0
 51
180.0
  0
LINE
  5
553
100
AcDbEntity
  8
2
100
AcDbLine
 10
-813.137333
 20
490.649035
 30
0.0
 11
-813.137333
 21
502.649035
 31
0.0
  0
LINE
  5
554
100
AcDbEntity
  8
2
100
AcDbLine
 10
-813.137333
 20
569.649035
 30
0.0
 11
-813.137333
 21
581.649035
 31
0.0
  0
ARC
  5
555
100
AcDbEntity
  8
2
100
AcDbCircle
 10
-737.067405
 20
512.649035
 30
0.0
 40
7.0
100
AcDbArc
 50
180.0
 51
270.0
  0
ARC
  5
556
100
AcDbEntity
  8
2
100
AcDbCircle
 10
-465.828446
 20
583.149035
 30
0.0
 40
0.5
100
AcDbArc
 50
270.0
 51
360.0
  0
ARC
  5
557
100
AcDbEntity
  8
2
100
AcDbCircle
 10
-466.828446
 20
582.149035
 30
0.0
 40
0.5
100
AcDbArc
 50
90.0
 51
180.0
  0
ARC
  5
558
100
AcDbEntity
  8
2
100
AcDbCircle
 10
-465.828446
 20
618.149035
 30
0.0
 40
0.5
100
AcDbArc
 50
0.0
 51
90.0
  0
ARC
  5
559
100
AcDbEntity
  8
2
100
AcDbCircle
 10
-466.828446
 20
619.149035
 30
0.0
 40
0.5
100
AcDbArc
 50
180.0
 51
270.0
  0
ARC
  5
55A
100
AcDbEntity
  8
2
100
AcDbCircle
 10
-465.828446
 20
568.149035
 30
0.0
 40
0.5
100
AcDbArc
 50
360.0
 51
90.0
  0
ARC
  5
55B
100
AcDbEntity
  8
2
100
AcDbCircle
 10
-466.828446
 20
569.149035
 30
0.0
 40
0.5
100
AcDbArc
 50
180.0
 51
270.0
  0
ARC
  5
55C
100
AcDbEntity
  8
2
100
AcDbCircle
 10
-465.828446
 20
533.149035
 30
0.0
 40
0.5
100
AcDbArc
 50
270.0
 51
360.0
  0
ARC
  5
55D
100
AcDbEntity
  8
2
100
AcDbCircle
 10
-466.828446
 20
532.149035
 30
0.0
 40
0.5
100
AcDbArc
 50
90.0
 51
180.0
  0
LINE
  5
55E
100
AcDbEntity
  8
2
100
AcDbLine
 10
-656.328446
 20
688.649035
 30
0.0
 11
-628.328446
 21
688.649035
 31
0.0
  0
LINE
  5
55F
100
AcDbEntity
  8
2
100
AcDbLine
 10
-556.328446
 20
688.649035
 30
0.0
 11
-528.328446
 21
688.649035
 31
0.0
  0
ARC
  5
560
100
AcDbEntity
  8
2
100
AcDbCircle
 10
-528.328446
 20
687.649035
 30
0.0
 40
1.0
100
AcDbArc
 50
0.0
 51
90.0
  0
ARC
  5
561
100
AcDbEntity
  8
2
100
AcDbCircle
 10
-556.328446
 20
687.649035
 30
0.0
 40
1.0
100
AcDbArc
 50
90.0
 51
180.0
  0
ARC
  5
562
100
AcDbEntity
  8
2
100
AcDbCircle
 10
-628.328446
 20
687.649035
 30
0.0
 40
1.0
100
AcDbArc
 50
0.0
 51
90.0
  0
ARC
  5
563
100
AcDbEntity
  8
2
100
AcDbCircle
 10
-656.328446
 20
687.649035
 30
0.0
 40
1.0
100
AcDbArc
 50
90.0
 51
180.0
  0
LINE
  5
564
100
AcDbEntity
  8
2
100
AcDbLine
 10
-524.328446
 20
683.649035
 30
0.0
 11
-503.483147
 21
683.649035
 31
0.0
  0
LINE
  5
565
100
AcDbEntity
  8
2
100
AcDbLine
 10
-681.173746
 20
683.649035
 30
0.0
 11
-660.328446
 21
683.649035
 31
0.0
  0
LINE
  5
566
100
AcDbEntity
  8
2
100
AcDbLine
 10
-624.328446
 20
683.649035
 30
0.0
 11
-560.328446
 21
683.649035
 31
0.0
  0
ARC
  5
567
100
AcDbEntity
  8
2
100
AcDbCircle
 10
-524.328446
 20
686.649035
 30
0.0
 40
3.0
100
AcDbArc
 50
180.0
 51
270.0
  0
ARC
  5
568
100
AcDbEntity
  8
2
100
AcDbCircle
 10
-560.328446
 20
686.649035
 30
0.0
 40
3.0
100
AcDbArc
 50
270.0
 51
360.0
  0
ARC
  5
569
100
AcDbEntity
  8
2
100
AcDbCircle
 10
-624.328446
 20
686.649035
 30
0.0
 40
3.0
100
AcDbArc
 50
180.0
 51
270.0
  0
ARC
  5
56A
100
AcDbEntity
  8
2
100
AcDbCircle
 10
-660.328446
 20
686.649035
 30
0.0
 40
3.0
100
AcDbArc
 50
270.0
 51
360.0
  0
LINE
  5
56B
100
AcDbEntity
  8
2
100
AcDbLine
 10
-682.905797
 20
682.649035
 30
0.0
 11
-686.081223
 21
677.149035
 31
0.0
  0
ARC
  5
56C
100
AcDbEntity
  8
2
100
AcDbCircle
 10
-681.173746
 20
681.649035
 30
0.0
 40
2.0
100
AcDbArc
 50
90.0
 51
150.0
  0
ARC
  5
56D
100
AcDbEntity
  8
2
100
AcDbCircle
 10
-688.679299
 20
678.649035
 30
0.0
 40
3.0
100
AcDbArc
 50
270.0
 51
330.0
  0
LINE
  5
56E
100
AcDbEntity
  8
2
100
AcDbLine
 10
-501.751096
 20
682.649035
 30
0.0
 11
-498.57567
 21
677.149035
 31
0.0
  0
ARC
  5
56F
100
AcDbEntity
  8
2
100
AcDbCircle
 10
-503.483147
 20
681.649035
 30
0.0
 40
2.0
100
AcDbArc
 50
30.0
 51
90.0
  0
ARC
  5
570
100
AcDbEntity
  8
2
100
AcDbCircle
 10
-495.977593
 20
678.649035
 30
0.0
 40
3.0
100
AcDbArc
 50
210.0
 51
270.0
  0
LINE
  5
571
100
AcDbEntity
  8
2
100
AcDbLine
 10
-527.328446
 20
687.649035
 30
0.0
 11
-527.328446
 21
686.649035
 31
0.0
  0
LINE
  5
572
100
AcDbEntity
  8
2
100
AcDbLine
 10
-557.328446
 20
687.649035
 30
0.0
 11
-557.328446
 21
686.649035
 31
0.0
  0
LINE
  5
573
100
AcDbEntity
  8
2
100
AcDbLine
 10
-627.328446
 20
687.649035
 30
0.0
 11
-627.328446
 21
686.649035
 31
0.0
  0
LINE
  5
574
100
AcDbEntity
  8
2
100
AcDbLine
 10
-657.328446
 20
687.649035
 30
0.0
 11
-657.328446
 21
686.649035
 31
0.0
  0
LINE
  5
575
100
AcDbEntity
  8
2
100
AcDbLine
 10
-556.178446
 20
688.649035
 30
0.0
 11
-556.178446
 21
700.292262
 31
0.0
  0
LINE
  5
576
100
AcDbEntity
  8
2
100
AcDbLine
 10
-556.178446
 20
700.292262
 30
0.0
 11
-553.828446
 21
701.649035
 31
0.0
  0
LINE
  5
577
100
AcDbEntity
  8
2
100
AcDbLine
 10
-553.828446
 20
701.649035
 30
0.0
 11
-542.328446
 21
701.649035
 31
0.0
  0
LINE
  5
578
100
AcDbEntity
  8
2
100
AcDbLine
 10
-549.253446
 20
688.649035
 30
0.0
 11
-549.253446
 21
700.292262
 31
0.0
  0
ARC
  5
579
100
AcDbEntity
  8
2
100
AcDbCircle
 10
-552.715946
 20
695.841101
 30
0.0
 40
5.639303
100
AcDbArc
 50
52.121121
 51
127.878879
  0
ARC
  5
57A
100
AcDbEntity
  8
2
100
AcDbCircle
 10
-542.328446
 20
680.705404
 30
0.0
 40
20.775
100
AcDbArc
 50
90.0
 51
109.471221
  0
LINE
  5
57B
100
AcDbEntity
  8
2
100
AcDbLine
 10
-528.478446
 20
688.649035
 30
0.0
 11
-528.478446
 21
700.292262
 31
0.0
  0
LINE
  5
57C
100
AcDbEntity
  8
2
100
AcDbLine
 10
-528.478446
 20
700.292262
 30
0.0
 11
-530.828446
 21
701.649035
 31
0.0
  0
LINE
  5
57D
100
AcDbEntity
  8
2
100
AcDbLine
 10
-530.828446
 20
701.649035
 30
0.0
 11
-542.328446
 21
701.649035
 31
0.0
  0
LINE
  5
57E
100
AcDbEntity
  8
2
100
AcDbLine
 10
-535.403446
 20
688.649035
 30
0.0
 11
-535.403446
 21
700.292262
 31
0.0
  0
ARC
  5
57F
100
AcDbEntity
  8
2
100
AcDbCircle
 10
-531.940946
 20
695.841101
 30
0.0
 40
5.639303
100
AcDbArc
 50
52.121121
 51
127.878879
  0
ARC
  5
580
100
AcDbEntity
  8
2
100
AcDbCircle
 10
-542.328446
 20
680.705404
 30
0.0
 40
20.775
100
AcDbArc
 50
70.528779
 51
90.0
  0
LINE
  5
581
100
AcDbEntity
  8
2
100
AcDbLine
 10
-656.178446
 20
688.649035
 30
0.0
 11
-656.178446
 21
700.292262
 31
0.0
  0
LINE
  5
582
100
AcDbEntity
  8
2
100
AcDbLine
 10
-656.178446
 20
700.292262
 30
0.0
 11
-653.828446
 21
701.649035
 31
0.0
  0
LINE
  5
583
100
AcDbEntity
  8
2
100
AcDbLine
 10
-653.828446
 20
701.649035
 30
0.0
 11
-642.328446
 21
701.649035
 31
0.0
  0
LINE
  5
584
100
AcDbEntity
  8
2
100
AcDbLine
 10
-649.253446
 20
688.649035
 30
0.0
 11
-649.253446
 21
700.292262
 31
0.0
  0
ARC
  5
585
100
AcDbEntity
  8
2
100
AcDbCircle
 10
-652.715946
 20
695.841101
 30
0.0
 40
5.639303
100
AcDbArc
 50
52.121121
 51
127.878879
  0
ARC
  5
586
100
AcDbEntity
  8
2
100
AcDbCircle
 10
-642.328446
 20
680.705404
 30
0.0
 40
20.775
100
AcDbArc
 50
90.0
 51
109.471221
  0
LINE
  5
587
100
AcDbEntity
  8
2
100
AcDbLine
 10
-628.478446
 20
688.649035
 30
0.0
 11
-628.478446
 21
700.292262
 31
0.0
  0
LINE
  5
588
100
AcDbEntity
  8
2
100
AcDbLine
 10
-628.478446
 20
700.292262
 30
0.0
 11
-630.828446
 21
701.649035
 31
0.0
  0
LINE
  5
589
100
AcDbEntity
  8
2
100
AcDbLine
 10
-630.828446
 20
701.649035
 30
0.0
 11
-642.328446
 21
701.649035
 31
0.0
  0
LINE
  5
58A
100
AcDbEntity
  8
2
100
AcDbLine
 10
-635.403446
 20
688.649035
 30
0.0
 11
-635.403446
 21
700.292262
 31
0.0
  0
ARC
  5
58B
100
AcDbEntity
  8
2
100
AcDbCircle
 10
-631.940946
 20
695.841101
 30
0.0
 40
5.639303
100
AcDbArc
 50
52.121121
 51
127.878879
  0
ARC
  5
58C
100
AcDbEntity
  8
2
100
AcDbCircle
 10
-642.328446
 20
680.705404
 30
0.0
 40
20.775
100
AcDbArc
 50
70.528779
 51
90.0
  0
LINE
  5
58D
100
AcDbEntity
  8
2
100
AcDbLine
 10
-535.410946
 20
711.649035
 30
0.0
 11
-534.328446
 21
710.566535
 31
0.0
  0
LINE
  5
58E
100
AcDbEntity
  8
2
100
AcDbLine
 10
-534.328446
 20
710.566535
 30
0.0
 11
-534.328446
 21
701.649035
 31
0.0
  0
LINE
  5
58F
100
AcDbEntity
  8
2
 62
     2
100
AcDbLine
 10
-535.410946
 20
711.649035
 30
0.0
 11
-535.410946
 21
701.649035
 31
0.0
  0
LINE
  5
590
100
AcDbEntity
  8
2
100
AcDbLine
 10
-535.410946
 20
711.649035
 30
0.0
 11
-549.245946
 21
711.649035
 31
0.0
  0
LINE
  5
591
100
AcDbEntity
  8
2
100
AcDbLine
 10
-549.245946
 20
711.649035
 30
0.0
 11
-550.328446
 21
710.566535
 31
0.0
  0
LINE
  5
592
100
AcDbEntity
  8
2
100
AcDbLine
 10
-550.328446
 20
710.566535
 30
0.0
 11
-550.328446
 21
701.649035
 31
0.0
  0
LINE
  5
593
100
AcDbEntity
  8
2
100
AcDbLine
 10
-550.328446
 20
710.566535
 30
0.0
 11
-534.328446
 21
710.566535
 31
0.0
  0
LINE
  5
594
100
AcDbEntity
  8
2
 62
     2
100
AcDbLine
 10
-549.245946
 20
711.649035
 30
0.0
 11
-549.245946
 21
701.649035
 31
0.0
  0
LINE
  5
595
100
AcDbEntity
  8
2
100
AcDbLine
 10
-635.410946
 20
711.649035
 30
0.0
 11
-634.328446
 21
710.566535
 31
0.0
  0
LINE
  5
596
100
AcDbEntity
  8
2
100
AcDbLine
 10
-634.328446
 20
710.566535
 30
0.0
 11
-634.328446
 21
701.649035
 31
0.0
  0
LINE
  5
597
100
AcDbEntity
  8
2
 62
     2
100
AcDbLine
 10
-635.410946
 20
711.649035
 30
0.0
 11
-635.410946
 21
701.649035
 31
0.0
  0
LINE
  5
598
100
AcDbEntity
  8
2
100
AcDbLine
 10
-635.410946
 20
711.649035
 30
0.0
 11
-649.245946
 21
711.649035
 31
0.0
  0
LINE
  5
599
100
AcDbEntity
  8
2
100
AcDbLine
 10
-649.245946
 20
711.649035
 30
0.0
 11
-650.328446
 21
710.566535
 31
0.0
  0
LINE
  5
59A
100
AcDbEntity
  8
2
100
AcDbLine
 10
-650.328446
 20
710.566535
 30
0.0
 11
-650.328446
 21
701.649035
 31
0.0
  0
LINE
  5
59B
100
AcDbEntity
  8
2
100
AcDbLine
 10
-650.328446
 20
710.566535
 30
0.0
 11
-634.328446
 21
710.566535
 31
0.0
  0
LINE
  5
59C
100
AcDbEntity
  8
2
 62
     2
100
AcDbLine
 10
-649.245946
 20
711.649035
 30
0.0
 11
-649.245946
 21
701.649035
 31
0.0
  0
LINE
  5
59D
100
AcDbEntity
  8
2
100
AcDbLine
 10
-474.328446
 20
631.649035
 30
0.0
 11
-469.328446
 21
631.649035
 31
0.0
  0
LINE
  5
59E
100
AcDbEntity
  8
2
100
AcDbLine
 10
-474.328446
 20
519.649035
 30
0.0
 11
-469.328446
 21
519.649035
 31
0.0
  0
LINE
  5
59F
100
AcDbEntity
  8
2
100
AcDbLine
 10
-724.328446
 20
519.649035
 30
0.0
 11
-729.328446
 21
519.649035
 31
0.0
  0
LINE
  5
5A0
100
AcDbEntity
  8
2
100
AcDbLine
 10
-724.328446
 20
631.649035
 30
0.0
 11
-729.328446
 21
631.649035
 31
0.0
  0
LINE
  5
5A1
100
AcDbEntity
  8
2
100
AcDbLine
 10
-481.328446
 20
638.649035
 30
0.0
 11
-481.328446
 21
643.649035
 31
0.0
  0
LINE
  5
5A2
100
AcDbEntity
  8
2
100
AcDbLine
 10
-592.328446
 20
638.649035
 30
0.0
 11
-592.328446
 21
643.649035
 31
0.0
  0
LINE
  5
5A3
100
AcDbEntity
  8
2
100
AcDbLine
 10
-606.328446
 20
638.649035
 30
0.0
 11
-606.328446
 21
643.649035
 31
0.0
  0
LINE
  5
5A4
100
AcDbEntity
  8
2
100
AcDbLine
 10
-717.328446
 20
638.649035
 30
0.0
 11
-717.328446
 21
643.649035
 31
0.0
  0
LINE
  5
5A5
100
AcDbEntity
  8
2
100
AcDbLine
 10
-717.328446
 20
512.649035
 30
0.0
 11
-717.328446
 21
507.649035
 31
0.0
  0
LINE
  5
5A6
100
AcDbEntity
  8
2
100
AcDbLine
 10
-606.328446
 20
512.649035
 30
0.0
 11
-606.328446
 21
507.649035
 31
0.0
  0
LINE
  5
5A7
100
AcDbEntity
  8
2
100
AcDbLine
 10
-592.328446
 20
512.649035
 30
0.0
 11
-592.328446
 21
507.649035
 31
0.0
  0
LINE
  5
5A8
100
AcDbEntity
  8
2
100
AcDbLine
 10
-481.328446
 20
512.649035
 30
0.0
 11
-481.328446
 21
507.649035
 31
0.0
  0
ARC
  5
5A9
100
AcDbEntity
  8
2
100
AcDbCircle
 10
-474.328446
 20
638.649035
 30
0.0
 40
7.0
100
AcDbArc
 50
180.0
 51
270.0
  0
ARC
  5
5AA
100
AcDbEntity
  8
2
100
AcDbCircle
 10
-469.328446
 20
629.649035
 30
0.0
 40
2.0
100
AcDbArc
 50
0.0
 51
90.0
  0
ARC
  5
5AB
100
AcDbEntity
  8
2
100
AcDbCircle
 10
-483.328446
 20
643.649035
 30
0.0
 40
2.0
100
AcDbArc
 50
0.0
 51
90.0
  0
ARC
  5
5AC
100
AcDbEntity
  8
2
100
AcDbCircle
 10
-599.328446
 20
638.649035
 30
0.0
 40
7.0
100
AcDbArc
 50
180.0
 51
360.0
  0
ARC
  5
5AD
100
AcDbEntity
  8
2
100
AcDbCircle
 10
-608.328446
 20
643.649035
 30
0.0
 40
2.0
100
AcDbArc
 50
0.0
 51
90.0
  0
ARC
  5
5AE
100
AcDbEntity
  8
2
100
AcDbCircle
 10
-590.328446
 20
643.649035
 30
0.0
 40
2.0
100
AcDbArc
 50
90.0
 51
180.0
  0
ARC
  5
5AF
100
AcDbEntity
  8
2
100
AcDbCircle
 10
-724.328446
 20
638.649035
 30
0.0
 40
7.0
100
AcDbArc
 50
270.0
 51
360.0
  0
ARC
  5
5B0
100
AcDbEntity
  8
2
100
AcDbCircle
 10
-715.328446
 20
643.649035
 30
0.0
 40
2.0
100
AcDbArc
 50
90.0
 51
180.0
  0
ARC
  5
5B1
100
AcDbEntity
  8
2
100
AcDbCircle
 10
-729.328446
 20
629.649035
 30
0.0
 40
2.0
100
AcDbArc
 50
90.0
 51
180.0
  0
ARC
  5
5B2
100
AcDbEntity
  8
2
100
AcDbCircle
 10
-724.328446
 20
512.649035
 30
0.0
 40
7.0
100
AcDbArc
 50
0.0
 51
90.0
  0
ARC
  5
5B3
100
AcDbEntity
  8
2
100
AcDbCircle
 10
-715.328446
 20
507.649035
 30
0.0
 40
2.0
100
AcDbArc
 50
180.0
 51
270.0
  0
ARC
  5
5B4
100
AcDbEntity
  8
2
100
AcDbCircle
 10
-729.328446
 20
521.649035
 30
0.0
 40
2.0
100
AcDbArc
 50
180.0
 51
270.0
  0
ARC
  5
5B5
100
AcDbEntity
  8
2
100
AcDbCircle
 10
-599.328446
 20
512.649035
 30
0.0
 40
7.0
100
AcDbArc
 50
360.0
 51
180.0
  0
ARC
  5
5B6
100
AcDbEntity
  8
2
100
AcDbCircle
 10
-608.328446
 20
507.649035
 30
0.0
 40
2.0
100
AcDbArc
 50
270.0
 51
360.0
  0
ARC
  5
5B7
100
AcDbEntity
  8
2
100
AcDbCircle
 10
-590.328446
 20
507.649035
 30
0.0
 40
2.0
100
AcDbArc
 50
180.0
 51
270.0
  0
ARC
  5
5B8
100
AcDbEntity
  8
2
100
AcDbCircle
 10
-474.328446
 20
512.649035
 30
0.0
 40
7.0
100
AcDbArc
 50
90.0
 51
180.0
  0
ARC
  5
5B9
100
AcDbEntity
  8
2
100
AcDbCircle
 10
-469.328446
 20
521.649035
 30
0.0
 40
2.0
100
AcDbArc
 50
270.0
 51
360.0
  0
ARC
  5
5BA
100
AcDbEntity
  8
2
100
AcDbCircle
 10
-483.328446
 20
507.649035
 30
0.0
 40
2.0
100
AcDbArc
 50
270.0
 51
360.0
  0
LINE
  5
5BB
100
AcDbEntity
  8
2
100
AcDbLine
 10
-473.222432
 20
241.849035
 30
0.0
 11
-722.367855
 21
241.849035
 31
0.0
  0
LINE
  5
5BC
100
AcDbEntity
  8
2
100
AcDbLine
 10
-537.417436
 20
226.849035
 30
0.0
 11
-730.828446
 21
226.849035
 31
0.0
  0
LINE
  5
5BD
100
AcDbEntity
  8
2
100
AcDbLine
 10
-731.328446
 20
221.849035
 30
0.0
 11
-731.328446
 21
226.849035
 31
0.0
  0
LINE
  5
5BE
100
AcDbEntity
  8
2
100
AcDbLine
 10
-731.328446
 20
226.849035
 30
0.0
 11
-727.066318
 21
238.559136
 31
0.0
  0
LINE
  5
5BF
100
AcDbEntity
  8
2
100
AcDbLine
 10
-467.90423
 20
233.43027
 30
0.0
 11
-468.241459
 21
237.284814
 31
0.0
  0
LINE
  5
5C0
100
AcDbEntity
  8
2
100
AcDbLine
 10
-468.640776
 20
522.649035
 30
0.0
 11
-468.640776
 21
628.649035
 31
0.0
  0
LINE
  5
5C1
100
AcDbEntity
  8
2
100
AcDbLine
 10
-725.868893
 20
522.649035
 30
0.0
 11
-725.868893
 21
628.649035
 31
0.0
  0
ARC
  5
5C2
100
AcDbEntity
  8
2
100
AcDbCircle
 10
-722.367855
 20
236.849035
 30
0.0
 40
5.0
100
AcDbArc
 50
90.0
 51
160.0
  0
ARC
  5
5C3
100
AcDbEntity
  8
2
100
AcDbCircle
 10
-473.222432
 20
236.849035
 30
0.0
 40
5.0
100
AcDbArc
 50
5.0
 51
90.0
  0
LINE
  5
5C4
100
AcDbEntity
  8
2
100
AcDbLine
 10
-717.328446
 20
236.849035
 30
0.0
 11
-717.328446
 21
227.349035
 31
0.0
  0
LINE
  5
5C5
100
AcDbEntity
  8
2
100
AcDbLine
 10
-606.328446
 20
236.849035
 30
0.0
 11
-606.328446
 21
227.349035
 31
0.0
  0
LINE
  5
5C6
100
AcDbEntity
  8
2
100
AcDbLine
 10
-592.328446
 20
236.849035
 30
0.0
 11
-592.328446
 21
227.349035
 31
0.0
  0
LINE
  5
5C7
100
AcDbEntity
  8
2
100
AcDbLine
 10
-481.328446
 20
236.849035
 30
0.0
 11
-481.328446
 21
236.064709
 31
0.0
  0
ARC
  5
5C8
100
AcDbEntity
  8
2
100
AcDbCircle
 10
-712.328446
 20
236.849035
 30
0.0
 40
5.0
100
AcDbArc
 50
90.0
 51
180.0
  0
ARC
  5
5C9
100
AcDbEntity
  8
2
100
AcDbCircle
 10
-611.328446
 20
236.849035
 30
0.0
 40
5.0
100
AcDbArc
 50
360.0
 51
90.0
  0
ARC
  5
5CA
100
AcDbEntity
  8
2
100
AcDbCircle
 10
-587.328446
 20
236.849035
 30
0.0
 40
5.0
100
AcDbArc
 50
90.0
 51
180.0
  0
ARC
  5
5CB
100
AcDbEntity
  8
2
100
AcDbCircle
 10
-486.328446
 20
236.849035
 30
0.0
 40
5.0
100
AcDbArc
 50
0.0
 51
90.0
  0
ARC
  5
5CC
100
AcDbEntity
  8
2
100
AcDbCircle
 10
-717.828446
 20
227.349035
 30
0.0
 40
0.5
100
AcDbArc
 50
270.0
 51
360.0
  0
ARC
  5
5CD
100
AcDbEntity
  8
2
100
AcDbCircle
 10
-605.828446
 20
227.349035
 30
0.0
 40
0.5
100
AcDbArc
 50
180.0
 51
270.0
  0
ARC
  5
5CE
100
AcDbEntity
  8
2
100
AcDbCircle
 10
-592.828446
 20
227.349035
 30
0.0
 40
0.5
100
AcDbArc
 50
270.0
 51
360.0
  0
ARC
  5
5CF
100
AcDbEntity
  8
2
100
AcDbCircle
 10
-730.828446
 20
226.349035
 30
0.0
 40
0.5
100
AcDbArc
 50
90.0
 51
180.0
  0
LINE
  5
5D0
100
AcDbEntity
  8
2
100
AcDbLine
 10
-549.828446
 20
246.849035
 30
0.0
 11
-634.828446
 21
246.849035
 31
0.0
  0
LINE
  5
5D1
100
AcDbEntity
  8
2
100
AcDbLine
 10
-634.828446
 20
248.049035
 30
0.0
 11
-634.828446
 21
244.849035
 31
0.0
  0
LINE
  5
5D2
100
AcDbEntity
  8
2
100
AcDbLine
 10
-549.828446
 20
248.049035
 30
0.0
 11
-549.828446
 21
244.849035
 31
0.0
  0
ARC
  5
5D3
100
AcDbEntity
  8
2
100
AcDbCircle
 10
-546.828446
 20
244.849035
 30
0.0
 40
3.0
100
AcDbArc
 50
180.0
 51
270.0
  0
ARC
  5
5D4
100
AcDbEntity
  8
2
100
AcDbCircle
 10
-637.828446
 20
244.849035
 30
0.0
 40
3.0
100
AcDbArc
 50
270.0
 51
360.0
  0
LINE
  5
5D5
100
AcDbEntity
  8
2
100
AcDbLine
 10
-429.328446
 20
465.649035
 30
0.0
 11
-813.328446
 21
465.649035
 31
0.0
  0
LINE
  5
5D6
100
AcDbEntity
  8
2
100
AcDbLine
 10
-437.805329
 20
450.649035
 30
0.0
 11
-804.848542
 21
450.649035
 31
0.0
  0
LINE
  5
5D7
100
AcDbEntity
  8
2
100
AcDbLine
 10
-439.524079
 20
417.649035
 30
0.0
 11
-782.724484
 21
417.649035
 31
0.0
  0
ARC
  5
5D8
100
AcDbEntity
  8
2
100
AcDbCircle
 10
-742.328446
 20
121.849035
 30
0.0
 40
45.0
100
AcDbArc
 50
96.908613
 51
270.0
  0
LINE
  5
5D9
100
AcDbEntity
  8
2
100
AcDbLine
 10
-788.520039
 20
422.096121
 30
0.0
 11
-795.574973
 21
448.425492
 31
0.0
  0
ARC
  5
5DA
100
AcDbEntity
  8
2
100
AcDbCircle
 10
-787.985003
 20
163.700028
 30
0.0
 40
21.0
100
AcDbArc
 50
94.0
 51
170.0242
  0
ARC
  5
5DB
100
AcDbEntity
  8
2
100
AcDbCircle
 10
-782.379458
 20
87.849035
 30
0.0
 40
21.0
100
AcDbArc
 50
198.428986
 51
270.0
  0
ARC
  5
5DC
100
AcDbEntity
  8
2
100
AcDbCircle
 10
-782.724484
 20
423.649035
 30
0.0
 40
6.0
100
AcDbArc
 50
195.0
 51
270.0
  0
LINE
  5
5DD
100
AcDbEntity
  8
2
100
AcDbLine
 10
-431.427195
 20
463.753061
 30
0.0
 11
-433.5322
 21
423.336958
 31
0.0
  0
ARC
  5
5DE
100
AcDbEntity
  8
2
100
AcDbCircle
 10
-439.524079
 20
423.649035
 30
0.0
 40
6.0
100
AcDbArc
 50
270.0
 51
357.018539
  0
ARC
  5
5DF
100
AcDbEntity
  8
2
100
AcDbCircle
 10
-742.328446
 20
121.849035
 30
0.0
 40
53.842323
100
AcDbArc
 50
95.26735
 51
271.641263
  0
LINE
  5
5E0
100
AcDbEntity
  8
2
100
AcDbLine
 10
-811.229116
 20
463.753707
 30
0.0
 11
-810.840319
 21
456.33502
 31
0.0
  0
ARC
  5
5E1
100
AcDbEntity
  8
2
100
AcDbCircle
 10
-804.848542
 20
456.649035
 30
0.0
 40
6.0
100
AcDbArc
 50
183.0
 51
270.0
  0
ARC
  5
5E2
100
AcDbEntity
  8
2
100
AcDbCircle
 10
-798.472751
 20
447.649035
 30
0.0
 40
3.0
100
AcDbArc
 50
15.0
 51
90.0
  0
ARC
  5
5E3
100
AcDbEntity
  8
2
100
AcDbCircle
 10
-813.226375
 20
463.649035
 30
0.0
 40
2.0
100
AcDbArc
 50
3.0
 51
90.0
  0
ARC
  5
5E4
100
AcDbEntity
  8
2
100
AcDbCircle
 10
-813.328446
 20
467.649035
 30
0.0
 40
2.0
100
AcDbArc
 50
180.0
 51
270.0
  0
ARC
  5
5E5
100
AcDbEntity
  8
2
100
AcDbCircle
 10
-437.805329
 20
456.649035
 30
0.0
 40
6.0
100
AcDbArc
 50
270.0
 51
357.018539
  0
ARC
  5
5E6
100
AcDbEntity
  8
2
100
AcDbCircle
 10
-429.429902
 20
463.649035
 30
0.0
 40
2.0
100
AcDbArc
 50
90.0
 51
177.018539
  0
ARC
  5
5E7
100
AcDbEntity
  8
2
100
AcDbCircle
 10
-429.328446
 20
467.649035
 30
0.0
 40
2.0
100
AcDbArc
 50
270.0
 51
0.0
  0
LINE
  5
5E8
100
AcDbEntity
  8
2
100
AcDbLine
 10
-471.345745
 20
383.649035
 30
0.0
 11
-516.311147
 21
383.649035
 31
0.0
  0
LINE
  5
5E9
100
AcDbEntity
  8
2
100
AcDbLine
 10
-476.726375
 20
370.649035
 30
0.0
 11
-510.930517
 21
370.649035
 31
0.0
  0
LINE
  5
5EA
100
AcDbEntity
  8
2
100
AcDbLine
 10
-519.265571
 20
386.128091
 30
0.0
 11
-523.366482
 21
409.385517
 31
0.0
  0
LINE
  5
5EB
100
AcDbEntity
  8
2
100
AcDbLine
 10
-468.391322
 20
386.128091
 30
0.0
 11
-464.29041
 21
409.385517
 31
0.0
  0
LINE
  5
5EC
100
AcDbEntity
  8
2
100
AcDbLine
 10
-474.729116
 20
372.544363
 30
0.0
 11
-474.246475
 21
381.753707
 31
0.0
  0
LINE
  5
5ED
100
AcDbEntity
  8
2
100
AcDbLine
 10
-512.927776
 20
372.544363
 30
0.0
 11
-513.410418
 21
381.753707
 31
0.0
  0
ARC
  5
5EE
100
AcDbEntity
  8
2
100
AcDbCircle
 10
-471.345745
 20
386.649035
 30
0.0
 40
3.0
100
AcDbArc
 50
270.0
 51
350.0
  0
ARC
  5
5EF
100
AcDbEntity
  8
2
100
AcDbCircle
 10
-516.311147
 20
386.649035
 30
0.0
 40
3.0
100
AcDbArc
 50
190.0
 51
270.0
  0
ARC
  5
5F0
100
AcDbEntity
  8
2
100
AcDbCircle
 10
-472.249216
 20
381.649035
 30
0.0
 40
2.0
100
AcDbArc
 50
90.0
 51
177.0
  0
ARC
  5
5F1
100
AcDbEntity
  8
2
100
AcDbCircle
 10
-515.407677
 20
381.649035
 30
0.0
 40
2.0
100
AcDbArc
 50
3.0
 51
90.0
  0
ARC
  5
5F2
100
AcDbEntity
  8
2
100
AcDbCircle
 10
-476.726375
 20
372.649035
 30
0.0
 40
2.0
100
AcDbArc
 50
270.0
 51
357.0
  0
ARC
  5
5F3
100
AcDbEntity
  8
2
100
AcDbCircle
 10
-510.930517
 20
372.649035
 30
0.0
 40
2.0
100
AcDbArc
 50
183.0
 51
270.0
  0
ARC
  5
5F4
100
AcDbEntity
  8
2
100
AcDbCircle
 10
-454.442333
 20
407.649035
 30
0.0
 40
10.0
100
AcDbArc
 50
90.0
 51
170.0
  0
ARC
  5
5F5
100
AcDbEntity
  8
2
100
AcDbCircle
 10
-533.21456
 20
407.649035
 30
0.0
 40
10.0
100
AcDbArc
 50
10.0
 51
90.0
  0
ARC
  5
5F6
100
AcDbEntity
  8
2
100
AcDbCircle
 10
-635.328446
 20
136.849035
 30
0.0
 40
176.0
100
AcDbArc
 50
170.0242
 51
180.828003
  0
ARC
  5
5F7
100
AcDbEntity
  8
2
100
AcDbCircle
 10
-635.328446
 20
136.849035
 30
0.0
 40
176.0
100
AcDbArc
 50
188.476216
 51
198.428986
  0
ARC
  5
5F8
100
AcDbEntity
  8
2
100
AcDbCircle
 10
-806.328446
 20
122.849035
 30
0.0
 40
8.5
100
AcDbArc
 50
270.0
 51
90.0
  0
LINE
  5
5F9
100
AcDbEntity
  8
2
100
AcDbLine
 10
-806.328446
 20
131.349035
 30
0.0
 11
-808.310382
 21
131.349035
 31
0.0
  0
LINE
  5
5FA
100
AcDbEntity
  8
2
100
AcDbLine
 10
-806.328446
 20
114.349035
 30
0.0
 11
-806.438791
 21
114.349035
 31
0.0
  0
ARC
  5
5FB
100
AcDbEntity
  8
2
100
AcDbCircle
 10
-808.310382
 20
134.349035
 30
0.0
 40
3.0
100
AcDbArc
 50
180.828003
 51
270.0
  0
ARC
  5
5FC
100
AcDbEntity
  8
2
100
AcDbCircle
 10
-806.438791
 20
111.349035
 30
0.0
 40
3.0
100
AcDbArc
 50
90.0
 51
188.476216
  0
LINE
  5
5FD
100
AcDbEntity
  8
2
100
AcDbLine
 10
-683.828446
 20
186.849035
 30
0.0
 11
-683.828446
 21
189.237098
 31
0.0
  0
LINE
  5
5FE
100
AcDbEntity
  8
2
100
AcDbLine
 10
-700.828446
 20
186.849035
 30
0.0
 11
-700.828446
 21
187.628781
 31
0.0
  0
ARC
  5
5FF
100
AcDbEntity
  8
2
100
AcDbCircle
 10
-692.328446
 20
186.849035
 30
0.0
 40
8.5
100
AcDbArc
 50
180.0
 51
360.0
  0
LINE
  5
600
100
AcDbEntity
  8
2
100
AcDbLine
 10
-789.449889
 20
184.648873
 30
0.0
 11
-704.037716
 21
190.621474
 31
0.0
  0
ARC
  5
601
100
AcDbEntity
  8
2
100
AcDbCircle
 10
-680.828446
 20
189.237098
 30
0.0
 40
3.0
100
AcDbArc
 50
94.0
 51
180.0
  0
ARC
  5
602
100
AcDbEntity
  8
2
100
AcDbCircle
 10
-703.828446
 20
187.628781
 30
0.0
 40
3.0
100
AcDbArc
 50
0.0
 51
94.0
  0
LINE
  5
603
100
AcDbEntity
  8
2
100
AcDbLine
 10
-747.271342
 20
175.463992
 30
0.0
 11
-697.440415
 21
180.058028
 31
0.0
  0
LINE
  5
604
100
AcDbEntity
  8
2
100
AcDbLine
 10
-681.037716
 20
192.22979
 30
0.0
 11
-571.452488
 21
199.892736
 31
0.0
  0
LINE
  5
605
100
AcDbEntity
  8
2
100
AcDbLine
 10
-686.061037
 20
181.107121
 30
0.0
 11
-577.843775
 21
191.083938
 31
0.0
  0
LINE
  5
606
100
AcDbEntity
  8
2
100
AcDbLine
 10
-747.74132
 20
166.522302
 30
0.0
 11
-580.464752
 21
186.790506
 31
0.0
  0
ARC
  5
607
100
AcDbEntity
  8
2
100
AcDbCircle
 10
-568.828446
 20
69.849035
 30
0.0
 40
3.0
100
AcDbArc
 50
270.0
 51
323.537161
  0
LINE
  5
608
100
AcDbEntity
  8
2
100
AcDbLine
 10
-740.78632
 20
68.028801
 30
0.0
 11
-679.82935
 21
69.775418
 31
0.0
  0
LINE
  5
609
100
AcDbEntity
  8
2
100
AcDbLine
 10
-662.828446
 20
70.26255
 30
0.0
 11
-570.710059
 21
72.902044
 31
0.0
  0
LINE
  5
60A
100
AcDbEntity
  8
2
100
AcDbLine
 10
-679.828446
 20
70.849035
 30
0.0
 11
-679.828446
 21
69.849035
 31
0.0
  0
LINE
  5
60B
100
AcDbEntity
  8
2
100
AcDbLine
 10
-662.828446
 20
70.849035
 30
0.0
 11
-662.828446
 21
69.849035
 31
0.0
  0
ARC
  5
60C
100
AcDbEntity
  8
2
100
AcDbCircle
 10
-671.328446
 20
70.849035
 30
0.0
 40
8.5
100
AcDbArc
 50
0.0
 51
180.0
  0
LINE
  5
60D
100
AcDbEntity
  8
2
100
AcDbLine
 10
-742.328446
 20
76.849035
 30
0.0
 11
-677.349244
 21
76.849035
 31
0.0
  0
LINE
  5
60E
100
AcDbEntity
  8
2
100
AcDbLine
 10
-665.307649
 20
76.849035
 30
0.0
 11
-573.828446
 21
76.849035
 31
0.0
  0
LINE
  5
60F
100
AcDbEntity
  8
2
100
AcDbLine
 10
-782.379458
 20
66.849035
 30
0.0
 11
-682.828446
 21
66.849035
 31
0.0
  0
LINE
  5
610
100
AcDbEntity
  8
2
100
AcDbLine
 10
-659.828446
 20
66.849035
 30
0.0
 11
-568.828446
 21
66.849035
 31
0.0
  0
ARC
  5
611
100
AcDbEntity
  8
2
100
AcDbCircle
 10
-659.828446
 20
69.849035
 30
0.0
 40
3.0
100
AcDbArc
 50
180.0
 51
270.0
  0
ARC
  5
612
100
AcDbEntity
  8
2
100
AcDbCircle
 10
-682.828446
 20
69.849035
 30
0.0
 40
3.0
100
AcDbArc
 50
270.0
 51
0.0
  0
LINE
  5
613
100
AcDbEntity
  8
2
100
AcDbLine
 10
-456.828446
 20
451.149035
 30
0.0
 11
-456.828446
 21
465.149035
 31
0.0
  0
LINE
  5
614
100
AcDbEntity
  8
2
100
AcDbLine
 10
-437.103176
 20
451.282022
 30
0.0
 11
-437.103176
 21
465.149035
 31
0.0
  0
ARC
  5
615
100
AcDbEntity
  8
2
100
AcDbCircle
 10
-457.328446
 20
451.149035
 30
0.0
 40
0.5
100
AcDbArc
 50
270.0
 51
360.0
  0
ARC
  5
616
100
AcDbEntity
  8
2
100
AcDbCircle
 10
-456.328446
 20
465.149035
 30
0.0
 40
0.5
100
AcDbArc
 50
90.0
 51
180.0
  0
ARC
  5
617
100
AcDbEntity
  8
2
100
AcDbCircle
 10
-437.603176
 20
465.149035
 30
0.0
 40
0.5
100
AcDbArc
 50
0.0
 51
90.0
  0
ARC
  5
618
100
AcDbEntity
  8
2
100
AcDbCircle
 10
-436.603176
 20
451.282022
 30
0.0
 40
0.5
100
AcDbArc
 50
180.0
 51
282.625246
  0
LINE
  5
619
100
AcDbEntity
  8
2
100
AcDbLine
 10
151.771554
 20
201.849035
 30
0.0
 11
151.771554
 21
173.849035
 31
0.0
  0
LINE
  5
61A
100
AcDbEntity
  8
2
100
AcDbLine
 10
115.771554
 20
201.849035
 30
0.0
 11
115.771554
 21
173.849035
 31
0.0
  0
LINE
  5
61B
100
AcDbEntity
  8
2
100
AcDbLine
 10
101.771554
 20
201.849035
 30
0.0
 11
101.771554
 21
173.849035
 31
0.0
  0
LINE
  5
61C
100
AcDbEntity
  8
2
100
AcDbLine
 10
65.771554
 20
201.849035
 30
0.0
 11
65.771554
 21
173.849035
 31
0.0
  0
ARC
  5
61D
100
AcDbEntity
  8
2
100
AcDbCircle
 10
133.771554
 20
201.849035
 30
0.0
 40
18.0
100
AcDbArc
 50
0.0
 51
180.0
  0
ARC
  5
61E
100
AcDbEntity
  8
2
100
AcDbCircle
 10
83.771554
 20
201.849035
 30
0.0
 40
18.0
100
AcDbArc
 50
0.0
 51
180.0
  0
ARC
  5
61F
100
AcDbEntity
  8
2
100
AcDbCircle
 10
153.771554
 20
173.849035
 30
0.0
 40
2.0
100
AcDbArc
 50
180.0
 51
270.0
  0
ARC
  5
620
100
AcDbEntity
  8
2
100
AcDbCircle
 10
113.771554
 20
173.849035
 30
0.0
 40
2.0
100
AcDbArc
 50
270.0
 51
0.0
  0
ARC
  5
621
100
AcDbEntity
  8
2
100
AcDbCircle
 10
103.771554
 20
173.849035
 30
0.0
 40
2.0
100
AcDbArc
 50
180.0
 51
270.0
  0
ARC
  5
622
100
AcDbEntity
  8
2
100
AcDbCircle
 10
63.771554
 20
173.849035
 30
0.0
 40
2.0
100
AcDbArc
 50
270.0
 51
360.0
  0
LINE
  5
623
100
AcDbEntity
  8
2
100
AcDbLine
 10
208.771554
 20
176.849035
 30
0.0
 11
208.771554
 21
136.849035
 31
0.0
  0
ARC
  5
624
100
AcDbEntity
  8
2
100
AcDbCircle
 10
198.771554
 20
176.849035
 30
0.0
 40
10.0
100
AcDbArc
 50
0.0
 51
90.0
  0
ARC
  5
625
100
AcDbEntity
  8
2
100
AcDbCircle
 10
198.771554
 20
161.849035
 30
0.0
 40
10.0
100
AcDbArc
 50
0.0
 51
90.0
  0
LINE
  5
626
100
AcDbEntity
  8
2
100
AcDbLine
 10
103.271554
 20
164.849035
 30
0.0
 11
114.271554
 21
164.849035
 31
0.0
  0
LINE
  5
627
100
AcDbEntity
  8
2
100
AcDbLine
 10
189.271554
 20
164.849035
 30
0.0
 11
206.708808
 21
164.849035
 31
0.0
  0
LINE
  5
628
100
AcDbEntity
  8
2
100
AcDbLine
 10
188.771554
 20
171.349035
 30
0.0
 11
188.771554
 21
165.349035
 31
0.0
  0
LINE
  5
629
100
AcDbEntity
  8
2
100
AcDbLine
 10
114.771554
 20
169.849035
 30
0.0
 11
114.771554
 21
165.349035
 31
0.0
  0
LINE
  5
62A
100
AcDbEntity
  8
2
100
AcDbLine
 10
102.771554
 20
169.849035
 30
0.0
 11
102.771554
 21
165.349035
 31
0.0
  0
ARC
  5
62B
100
AcDbEntity
  8
2
100
AcDbCircle
 10
114.271554
 20
165.349035
 30
0.0
 40
0.5
100
AcDbArc
 50
270.0
 51
360.0
  0
ARC
  5
62C
100
AcDbEntity
  8
2
100
AcDbCircle
 10
103.271554
 20
165.349035
 30
0.0
 40
0.5
100
AcDbArc
 50
180.0
 51
270.0
  0
ARC
  5
62D
100
AcDbEntity
  8
2
100
AcDbCircle
 10
116.771554
 20
169.849035
 30
0.0
 40
2.0
100
AcDbArc
 50
90.0
 51
180.0
  0
ARC
  5
62E
100
AcDbEntity
  8
2
100
AcDbCircle
 10
100.771554
 20
169.849035
 30
0.0
 40
2.0
100
AcDbArc
 50
0.0
 51
90.0
  0
ARC
  5
62F
100
AcDbEntity
  8
2
100
AcDbCircle
 10
189.271554
 20
165.349035
 30
0.0
 40
0.5
100
AcDbArc
 50
180.0
 51
270.0
  0
ARC
  5
630
100
AcDbEntity
  8
2
100
AcDbCircle
 10
188.271554
 20
171.349035
 30
0.0
 40
0.5
100
AcDbArc
 50
0.0
 51
90.0
  0
ARC
  5
631
100
AcDbEntity
  8
2
100
AcDbCircle
 10
206.708808
 20
162.849035
 30
0.0
 40
2.0
100
AcDbArc
 50
7.180756
 51
90.0
  0
LINE
  5
632
100
AcDbEntity
  8
2
100
AcDbLine
 10
20.771554
 20
64.849035
 30
0.0
 11
20.771554
 21
207.865326
 31
0.0
  0
LINE
  5
633
100
AcDbEntity
  8
2
100
AcDbLine
 10
0.771554
 20
210.865326
 30
0.0
 11
17.771554
 21
210.865326
 31
0.0
  0
LINE
  5
634
100
AcDbEntity
  8
2
100
AcDbLine
 10
0.771554
 20
62.849035
 30
0.0
 11
18.771554
 21
62.849035
 31
0.0
  0
ARC
  5
635
100
AcDbEntity
  8
2
100
AcDbCircle
 10
17.771554
 20
207.865326
 30
0.0
 40
3.0
100
AcDbArc
 50
0.0
 51
90.0
  0
ARC
  5
636
100
AcDbEntity
  8
2
100
AcDbCircle
 10
25.771554
 20
176.849035
 30
0.0
 40
5.0
100
AcDbArc
 50
180.0
 51
270.0
  0
ARC
  5
637
100
AcDbEntity
  8
2
100
AcDbCircle
 10
18.771554
 20
64.849035
 30
0.0
 40
2.0
100
AcDbArc
 50
270.0
 51
360.0
  0
LINE
  5
638
100
AcDbEntity
  8
2
100
AcDbLine
 10
178.771554
 20
226.849035
 30
0.0
 11
178.771554
 21
176.849035
 31
0.0
  0
LINE
  5
639
100
AcDbEntity
  8
2
100
AcDbLine
 10
38.771554
 20
226.849035
 30
0.0
 11
38.771554
 21
189.849035
 31
0.0
  0
ARC
  5
63A
100
AcDbEntity
  8
2
100
AcDbCircle
 10
183.771554
 20
176.849035
 30
0.0
 40
5.0
100
AcDbArc
 50
180.0
 51
270.0
  0
LINE
  5
63B
100
AcDbEntity
  8
2
100
AcDbLine
 10
23.771554
 20
184.849035
 30
0.0
 11
33.771554
 21
184.849035
 31
0.0
  0
ARC
  5
63C
100
AcDbEntity
  8
2
100
AcDbCircle
 10
33.771554
 20
189.849035
 30
0.0
 40
5.0
100
AcDbArc
 50
270.0
 51
360.0
  0
ARC
  5
63D
100
AcDbEntity
  8
2
100
AcDbCircle
 10
23.771554
 20
187.849035
 30
0.0
 40
3.0
100
AcDbArc
 50
180.0
 51
270.0
  0
LINE
  5
63E
100
AcDbEntity
  8
2
100
AcDbLine
 10
20.771554
 20
196.009448
 30
0.0
 11
35.771554
 21
196.009448
 31
0.0
  0
ARC
  5
63F
100
AcDbEntity
  8
2
100
AcDbCircle
 10
35.771554
 20
199.009448
 30
0.0
 40
3.0
100
AcDbArc
 50
270.0
 51
360.0
  0
ARC
  5
640
100
AcDbEntity
  8
2
100
AcDbCircle
 10
9.771554
 20
61.849035
 30
0.0
 40
1.0
100
AcDbArc
 50
0.0
 51
90.0
  0
LINE
  5
641
100
AcDbEntity
  8
2
100
AcDbLine
 10
221.771554
 20
136.849035
 30
0.0
 11
221.771554
 21
102.849035
 31
0.0
  0
LINE
  5
642
100
AcDbEntity
  8
2
100
AcDbLine
 10
210.772592
 20
101.849035
 30
0.0
 11
220.771554
 21
101.849035
 31
0.0
  0
ARC
  5
643
100
AcDbEntity
  8
2
100
AcDbCircle
 10
220.771554
 20
102.849035
 30
0.0
 40
1.0
100
AcDbArc
 50
270.0
 51
360.0
  0
LINE
  5
644
100
AcDbEntity
  8
2
100
AcDbLine
 10
208.771554
 20
136.849035
 30
0.0
 11
206.771554
 21
60.849035
 31
0.0
  0
ARC
  5
645
100
AcDbEntity
  8
2
100
AcDbCircle
 10
210.772592
 20
98.849035
 30
0.0
 40
3.0
100
AcDbArc
 50
90.0
 51
178.492564
  0
LINE
  5
646
100
AcDbEntity
  8
2
100
AcDbLine
 10
216.771554
 20
136.849035
 30
0.0
 11
216.771554
 21
104.849035
 31
0.0
  0
ARC
  5
647
100
AcDbEntity
  8
2
100
AcDbCircle
 10
213.771554
 20
104.849035
 30
0.0
 40
3.0
100
AcDbArc
 50
270.0
 51
360.0
  0
LINE
  5
648
100
AcDbEntity
  8
2
100
AcDbLine
 10
221.771554
 20
128.849035
 30
0.0
 11
234.771554
 21
128.849035
 31
0.0
  0
LINE
  5
649
100
AcDbEntity
  8
2
100
AcDbLine
 10
221.771554
 20
116.849035
 30
0.0
 11
233.414781
 21
116.849035
 31
0.0
  0
ARC
  5
64A
100
AcDbEntity
  8
2
100
AcDbCircle
 10
220.826395
 20
122.849035
 30
0.0
 40
13.945159
100
AcDbArc
 50
334.516139
 51
25.483861
  0
LINE
  5
64B
100
AcDbEntity
  8
2
100
AcDbLine
 10
221.771554
 20
104.849035
 30
0.0
 11
234.771554
 21
104.849035
 31
0.0
  0
LINE
  5
64C
100
AcDbEntity
  8
2
100
AcDbLine
 10
234.771554
 20
104.849035
 30
0.0
 11
234.771554
 21
128.849035
 31
0.0
  0
ARC
  5
64D
100
AcDbEntity
  8
2
100
AcDbCircle
 10
220.826395
 20
110.849035
 30
0.0
 40
13.945159
100
AcDbArc
 50
334.516139
 51
25.483861
  0
LINE
  5
64E
100
AcDbEntity
  8
2
100
AcDbLine
 10
244.771554
 20
109.931535
 30
0.0
 11
243.689054
 21
108.849035
 31
0.0
  0
LINE
  5
64F
100
AcDbEntity
  8
2
100
AcDbLine
 10
243.689054
 20
108.849035
 30
0.0
 11
234.771554
 21
108.849035
 31
0.0
  0
LINE
  5
650
100
AcDbEntity
  8
2
 62
     2
100
AcDbLine
 10
244.771554
 20
109.931535
 30
0.0
 11
234.771554
 21
109.931535
 31
0.0
  0
LINE
  5
651
100
AcDbEntity
  8
2
100
AcDbLine
 10
244.771554
 20
109.931535
 30
0.0
 11
244.771554
 21
123.766535
 31
0.0
  0
LINE
  5
652
100
AcDbEntity
  8
2
100
AcDbLine
 10
244.771554
 20
123.766535
 30
0.0
 11
243.689054
 21
124.849035
 31
0.0
  0
LINE
  5
653
100
AcDbEntity
  8
2
100
AcDbLine
 10
243.689054
 20
124.849035
 30
0.0
 11
234.771554
 21
124.849035
 31
0.0
  0
LINE
  5
654
100
AcDbEntity
  8
2
100
AcDbLine
 10
243.689054
 20
124.849035
 30
0.0
 11
243.689054
 21
108.849035
 31
0.0
  0
LINE
  5
655
100
AcDbEntity
  8
2
 62
     2
100
AcDbLine
 10
244.771554
 20
123.766535
 30
0.0
 11
234.771554
 21
123.766535
 31
0.0
  0
LINE
  5
656
100
AcDbEntity
  8
2
100
AcDbLine
 10
39.271554
 20
226.849035
 30
0.0
 11
178.271554
 21
226.849035
 31
0.0
  0
LINE
  5
657
100
AcDbEntity
  8
2
100
AcDbLine
 10
44.665539
 20
241.849035
 30
0.0
 11
172.877568
 21
241.849035
 31
0.0
  0
LINE
  5
658
100
AcDbEntity
  8
2
100
AcDbLine
 10
66.271554
 20
246.849035
 30
0.0
 11
151.271554
 21
246.849035
 31
0.0
  0
LINE
  5
659
100
AcDbEntity
  8
2
100
AcDbLine
 10
178.771554
 20
226.849035
 30
0.0
 11
177.858541
 21
237.284814
 31
0.0
  0
LINE
  5
65A
100
AcDbEntity
  8
2
100
AcDbLine
 10
38.771554
 20
226.849035
 30
0.0
 11
39.684566
 21
237.284814
 31
0.0
  0
ARC
  5
65B
100
AcDbEntity
  8
2
100
AcDbCircle
 10
172.877568
 20
236.849035
 30
0.0
 40
5.0
100
AcDbArc
 50
5.0
 51
90.0
  0
ARC
  5
65C
100
AcDbEntity
  8
2
100
AcDbCircle
 10
44.665539
 20
236.849035
 30
0.0
 40
5.0
100
AcDbArc
 50
90.0
 51
175.0
  0
LINE
  5
65D
100
AcDbEntity
  8
2
100
AcDbLine
 10
151.271554
 20
248.049035
 30
0.0
 11
151.271554
 21
244.849035
 31
0.0
  0
LINE
  5
65E
100
AcDbEntity
  8
2
100
AcDbLine
 10
66.271554
 20
248.049035
 30
0.0
 11
66.271554
 21
244.849035
 31
0.0
  0
ARC
  5
65F
100
AcDbEntity
  8
2
100
AcDbCircle
 10
154.271554
 20
244.849035
 30
0.0
 40
3.0
100
AcDbArc
 50
180.0
 51
270.0
  0
ARC
  5
660
100
AcDbEntity
  8
2
100
AcDbCircle
 10
63.271554
 20
244.849035
 30
0.0
 40
3.0
100
AcDbArc
 50
270.0
 51
360.0
  0
LINE
  5
661
100
AcDbEntity
  8
2
100
AcDbLine
 10
164.771554
 20
236.849035
 30
0.0
 11
164.771554
 21
227.349035
 31
0.0
  0
LINE
  5
662
100
AcDbEntity
  8
2
100
AcDbLine
 10
52.771554
 20
236.849035
 30
0.0
 11
52.771554
 21
227.349035
 31
0.0
  0
ARC
  5
663
100
AcDbEntity
  8
2
100
AcDbCircle
 10
159.771554
 20
236.849035
 30
0.0
 40
5.0
100
AcDbArc
 50
360.0
 51
90.0
  0
ARC
  5
664
100
AcDbEntity
  8
2
100
AcDbCircle
 10
57.771554
 20
236.849035
 30
0.0
 40
5.0
100
AcDbArc
 50
90.0
 51
180.0
  0
ARC
  5
665
100
AcDbEntity
  8
2
100
AcDbCircle
 10
165.271554
 20
227.349035
 30
0.0
 40
0.5
100
AcDbArc
 50
180.0
 51
270.0
  0
ARC
  5
666
100
AcDbEntity
  8
2
100
AcDbCircle
 10
52.271554
 20
227.349035
 30
0.0
 40
0.5
100
AcDbArc
 50
270.0
 51
360.0
  0
ARC
  5
667
100
AcDbEntity
  8
2
100
AcDbCircle
 10
178.271554
 20
226.349035
 30
0.0
 40
0.5
100
AcDbArc
 50
0.0
 51
90.0
  0
ARC
  5
668
100
AcDbEntity
  8
2
100
AcDbCircle
 10
39.271554
 20
226.349035
 30
0.0
 40
0.5
100
AcDbArc
 50
90.0
 51
180.0
  0
LINE
  5
669
100
AcDbEntity
  8
2
100
AcDbLine
 10
-714.328446
 20
644.337035
 30
0.0
 11
-606.450507
 21
644.337035
 31
0.0
  0
LINE
  5
66A
100
AcDbEntity
  8
2
100
AcDbLine
 10
-592.206386
 20
644.337035
 30
0.0
 11
-484.328446
 21
644.337035
 31
0.0
  0
LINE
  5
66B
100
AcDbEntity
  8
2
100
AcDbLine
 10
-714.328446
 20
506.961035
 30
0.0
 11
-606.450507
 21
506.961035
 31
0.0
  0
LINE
  5
66C
100
AcDbEntity
  8
2
100
AcDbLine
 10
-592.206386
 20
506.961035
 30
0.0
 11
-484.328446
 21
506.961035
 31
0.0
  0
LINE
  5
66D
100
AcDbEntity
  8
2
100
AcDbLine
 10
-1.228446
 20
64.849035
 30
0.0
 11
-1.228446
 21
208.865326
 31
0.0
  0
LINE
  5
66E
100
AcDbEntity
  8
2
100
AcDbLine
 10
-16.228446
 20
73.328939
 30
0.0
 11
-16.228446
 21
200.385422
 31
0.0
  0
LINE
  5
66F
100
AcDbEntity
  8
2
100
AcDbLine
 10
-49.228446
 20
81.452997
 30
0.0
 11
-49.228446
 21
191.153403
 31
0.0
  0
ARC
  5
670
100
AcDbEntity
  8
2
100
AcDbCircle
 10
0.771554
 20
208.865326
 30
0.0
 40
2.0
100
AcDbArc
 50
90.0
 51
180.0
  0
ARC
  5
671
100
AcDbEntity
  8
2
100
AcDbCircle
 10
0.771554
 20
64.849035
 30
0.0
 40
2.0
100
AcDbArc
 50
180.0
 51
270.0
  0
LINE
  5
672
100
AcDbEntity
  8
2
100
AcDbLine
 10
-43.540523
 20
197.145281
 30
0.0
 11
-19.012896
 21
198.422762
 31
0.0
  0
LINE
  5
673
100
AcDbEntity
  8
2
100
AcDbLine
 10
-3.123774
 20
206.765996
 30
0.0
 11
-10.542462
 21
206.377199
 31
0.0
  0
ARC
  5
674
100
AcDbEntity
  8
2
100
AcDbCircle
 10
-43.228446
 20
191.153403
 30
0.0
 40
6.0
100
AcDbArc
 50
92.981461
 51
180.0
  0
ARC
  5
675
100
AcDbEntity
  8
2
100
AcDbCircle
 10
-10.228446
 20
200.385422
 30
0.0
 40
6.0
100
AcDbArc
 50
93.0
 51
180.0
  0
ARC
  5
676
100
AcDbEntity
  8
2
100
AcDbCircle
 10
-19.168935
 20
201.418701
 30
0.0
 40
3.0
100
AcDbArc
 50
272.981461
 51
353.407404
  0
ARC
  5
677
100
AcDbEntity
  8
2
100
AcDbCircle
 10
-3.228446
 20
208.763255
 30
0.0
 40
2.0
100
AcDbArc
 50
273.0
 51
360.0
  0
LINE
  5
678
100
AcDbEntity
  8
2
100
AcDbLine
 10
-44.781361
 20
75.657442
 30
0.0
 11
-18.336986
 21
68.571693
 31
0.0
  0
LINE
  5
679
100
AcDbEntity
  8
2
100
AcDbLine
 10
-3.123774
 20
66.948365
 30
0.0
 11
-10.542462
 21
67.337162
 31
0.0
  0
ARC
  5
67A
100
AcDbEntity
  8
2
100
AcDbCircle
 10
-43.228446
 20
81.452997
 30
0.0
 40
6.0
100
AcDbArc
 50
180.0
 51
255.0
  0
ARC
  5
67B
100
AcDbEntity
  8
2
100
AcDbCircle
 10
-10.228446
 20
73.328939
 30
0.0
 40
6.0
100
AcDbArc
 50
180.0
 51
267.0
  0
ARC
  5
67C
100
AcDbEntity
  8
2
100
AcDbCircle
 10
-3.228446
 20
64.951106
 30
0.0
 40
2.0
100
AcDbArc
 50
0.0
 51
87.0
  0
ARC
  5
67D
100
AcDbEntity
  8
2
100
AcDbCircle
 10
-8.566834
 20
105.0344
 30
0.0
 40
37.748972
100
AcDbArc
 50
255.0
 51
267.0
  0
LINE
  5
67E
100
AcDbEntity
  8
2
100
AcDbLine
 10
-18.121975
 20
75.205029
 30
0.0
 11
-43.54511
 21
76.548666
 31
0.0
  0
ARC
  5
67F
100
AcDbEntity
  8
2
100
AcDbCircle
 10
-43.228446
 20
82.540303
 30
0.0
 40
6.0
100
AcDbArc
 50
180.0
 51
266.974679
  0
LINE
  5
680
100
AcDbEntity
  8
2
100
AcDbLine
 10
-16.228446
 20
184.349035
 30
0.0
 11
-1.228446
 21
184.349035
 31
0.0
  0
LINE
  5
681
100
AcDbEntity
  8
2
100
AcDbLine
 10
-16.228446
 20
87.349035
 30
0.0
 11
-1.228446
 21
87.349035
 31
0.0
  0
LINE
  5
682
100
AcDbEntity
  8
2
100
AcDbLine
 10
-12.256651
 20
67.682136
 30
0.0
 11
-1.228446
 21
67.682136
 31
0.0
  0
ARC
  5
683
100
AcDbEntity
  8
2
100
AcDbCircle
 10
-18.227529
 20
73.207817
 30
0.0
 40
2.0
100
AcDbArc
 50
0.86751
 51
86.974679
  0
LINE
  5
684
100
AcDbEntity
  8
2
100
AcDbLine
 10
-14.879886
 20
204.175424
 30
0.0
 11
-1.228446
 21
204.175424
 31
0.0
  0
LINE
  5
685
100
AcDbEntity
  8
2
100
AcDbLine
 10
-96.228446
 20
119.746964
 30
0.0
 11
-96.228446
 21
153.951106
 31
0.0
  0
LINE
  5
686
100
AcDbEntity
  8
2
100
AcDbLine
 10
-83.228446
 20
114.366334
 30
0.0
 11
-83.228446
 21
159.331736
 31
0.0
  0
LINE
  5
687
100
AcDbEntity
  8
2
100
AcDbLine
 10
-80.749391
 20
162.28616
 30
0.0
 11
-57.491965
 21
166.387071
 31
0.0
  0
LINE
  5
688
100
AcDbEntity
  8
2
100
AcDbLine
 10
-80.749391
 20
111.411911
 30
0.0
 11
-57.491965
 21
107.310999
 31
0.0
  0
LINE
  5
689
100
AcDbEntity
  8
2
100
AcDbLine
 10
-94.333118
 20
155.948365
 30
0.0
 11
-85.123774
 21
156.431006
 31
0.0
  0
LINE
  5
68A
100
AcDbEntity
  8
2
100
AcDbLine
 10
-94.333118
 20
117.749705
 30
0.0
 11
-85.123774
 21
117.267064
 31
0.0
  0
ARC
  5
68B
100
AcDbEntity
  8
2
100
AcDbCircle
 10
-80.228446
 20
159.331736
 30
0.0
 40
3.0
100
AcDbArc
 50
100.0
 51
180.0
  0
ARC
  5
68C
100
AcDbEntity
  8
2
100
AcDbCircle
 10
-80.228446
 20
114.366334
 30
0.0
 40
3.0
100
AcDbArc
 50
180.0
 51
260.0
  0
ARC
  5
68D
100
AcDbEntity
  8
2
100
AcDbCircle
 10
-94.228446
 20
153.951106
 30
0.0
 40
2.0
100
AcDbArc
 50
93.0
 51
180.0
  0
ARC
  5
68E
100
AcDbEntity
  8
2
100
AcDbCircle
 10
-94.228446
 20
119.746964
 30
0.0
 40
2.0
100
AcDbArc
 50
180.0
 51
267.0
  0
ARC
  5
68F
100
AcDbEntity
  8
2
100
AcDbCircle
 10
-85.228446
 20
115.269805
 30
0.0
 40
2.0
100
AcDbArc
 50
0.0
 51
87.0
  0
ARC
  5
690
100
AcDbEntity
  8
2
100
AcDbCircle
 10
-85.228446
 20
158.428266
 30
0.0
 40
2.0
100
AcDbArc
 50
273.0
 51
360.0
  0
LINE
  5
691
100
AcDbEntity
  8
2
100
AcDbLine
 10
-548.828446
 20
450.649035
 30
0.0
 11
-548.828446
 21
465.649035
 31
0.0
  0
LINE
  5
692
100
AcDbEntity
  8
2
100
AcDbLine
 10
-565.828446
 20
450.649035
 30
0.0
 11
-565.828446
 21
465.649035
 31
0.0
  0
LINE
  5
693
100
AcDbEntity
  8
2
100
AcDbLine
 10
-683.828446
 20
450.649035
 30
0.0
 11
-683.828446
 21
465.649035
 31
0.0
  0
LINE
  5
694
100
AcDbEntity
  8
2
100
AcDbLine
 10
-700.828446
 20
450.649035
 30
0.0
 11
-700.828446
 21
465.649035
 31
0.0
  0
LINE
  5
695
100
AcDbEntity
  8
2
100
AcDbLine
 10
-564.516681
 20
450.649035
 30
0.0
 11
-560.943032
 21
417.649035
 31
0.0
  0
LINE
  5
696
100
AcDbEntity
  8
2
100
AcDbLine
 10
-551.981135
 20
417.649035
 30
0.0
 11
-549.431973
 21
450.649035
 31
0.0
  0
LINE
  5
697
100
AcDbEntity
  8
2
100
AcDbLine
 10
-697.440415
 20
446.472724
 30
0.0
 11
-697.440415
 21
450.649035
 31
0.0
  0
LINE
  5
698
100
AcDbEntity
  8
2
100
AcDbLine
 10
-686.061037
 20
446.472724
 30
0.0
 11
-686.061037
 21
450.649035
 31
0.0
  0
ARC
  5
699
100
AcDbEntity
  8
2
100
AcDbCircle
 10
-691.750726
 20
446.472724
 30
0.0
 40
5.689689
100
AcDbArc
 50
180.0
 51
360.0
  0
ARC
  5
69A
100
AcDbEntity
  8
2
100
AcDbCircle
 10
-665.328446
 20
41.849035
 30
0.0
 40
3.0
100
AcDbArc
 50
0.0
 51
90.0
  0
ARC
  5
69B
100
AcDbEntity
  8
2
100
AcDbCircle
 10
-453.328446
 20
47.849035
 30
0.0
 40
3.0
100
AcDbArc
 50
270.0
 51
337.371859
  0
LINE
  5
69C
100
AcDbEntity
  8
2
100
AcDbLine
 10
13.771554
 20
44.849035
 30
0.0
 11
203.771554
 21
44.849035
 31
0.0
  0
LINE
  5
69D
100
AcDbEntity
  8
2
100
AcDbLine
 10
10.771554
 20
60.849035
 30
0.0
 11
10.771554
 21
47.849035
 31
0.0
  0
LINE
  5
69E
100
AcDbEntity
  8
2
100
AcDbLine
 10
206.771554
 20
60.849035
 30
0.0
 11
206.771554
 21
47.849035
 31
0.0
  0
LINE
  5
69F
100
AcDbEntity
  8
2
100
AcDbLine
 10
38.771554
 20
41.849035
 30
0.0
 11
38.771554
 21
38.849035
 31
0.0
  0
LINE
  5
6A0
100
AcDbEntity
  8
2
100
AcDbLine
 10
178.771554
 20
41.849035
 30
0.0
 11
178.771554
 21
38.849035
 31
0.0
  0
ARC
  5
6A1
100
AcDbEntity
  8
2
100
AcDbCircle
 10
181.771554
 20
41.849035
 30
0.0
 40
3.0
100
AcDbArc
 50
90.0
 51
180.0
  0
ARC
  5
6A2
100
AcDbEntity
  8
2
100
AcDbCircle
 10
35.771554
 20
41.849035
 30
0.0
 40
3.0
100
AcDbArc
 50
0.0
 51
90.0
  0
ARC
  5
6A3
100
AcDbEntity
  8
2
100
AcDbCircle
 10
203.771554
 20
47.849035
 30
0.0
 40
3.0
100
AcDbArc
 50
270.0
 51
360.0
  0
ARC
  5
6A4
100
AcDbEntity
  8
2
100
AcDbCircle
 10
13.771554
 20
47.849035
 30
0.0
 40
3.0
100
AcDbArc
 50
180.0
 51
270.0
  0
LINE
  5
6A5
100
AcDbEntity
  8
2
100
AcDbLine
 10
187.771554
 20
53.849035
 30
0.0
 11
206.271554
 21
53.849035
 31
0.0
  0
LINE
  5
6A6
100
AcDbEntity
  8
2
100
AcDbLine
 10
11.271554
 20
53.849035
 30
0.0
 11
25.771554
 21
53.849035
 31
0.0
  0
LINE
  5
6A7
100
AcDbEntity
  8
2
100
AcDbLine
 10
101.771554
 20
53.849035
 30
0.0
 11
115.771554
 21
53.849035
 31
0.0
  0
LINE
  5
6A8
100
AcDbEntity
  8
2
100
AcDbLine
 10
187.271554
 20
53.349035
 30
0.0
 11
187.271554
 21
45.849035
 31
0.0
  0
LINE
  5
6A9
100
AcDbEntity
  8
2
100
AcDbLine
 10
26.271554
 20
53.349035
 30
0.0
 11
26.271554
 21
45.849035
 31
0.0
  0
LINE
  5
6AA
100
AcDbEntity
  8
2
100
AcDbLine
 10
101.271554
 20
53.349035
 30
0.0
 11
101.271554
 21
45.849035
 31
0.0
  0
LINE
  5
6AB
100
AcDbEntity
  8
2
100
AcDbLine
 10
116.271554
 20
53.349035
 30
0.0
 11
116.271554
 21
45.849035
 31
0.0
  0
ARC
  5
6AC
100
AcDbEntity
  8
2
100
AcDbCircle
 10
101.771554
 20
53.349035
 30
0.0
 40
0.5
100
AcDbArc
 50
90.0
 51
180.0
  0
ARC
  5
6AD
100
AcDbEntity
  8
2
100
AcDbCircle
 10
115.771554
 20
53.349035
 30
0.0
 40
0.5
100
AcDbArc
 50
360.0
 51
90.0
  0
ARC
  5
6AE
100
AcDbEntity
  8
2
100
AcDbCircle
 10
187.771554
 20
53.349035
 30
0.0
 40
0.5
100
AcDbArc
 50
90.0
 51
180.0
  0
ARC
  5
6AF
100
AcDbEntity
  8
2
100
AcDbCircle
 10
25.771554
 20
53.349035
 30
0.0
 40
0.5
100
AcDbArc
 50
0.0
 51
90.0
  0
ARC
  5
6B0
100
AcDbEntity
  8
2
100
AcDbCircle
 10
206.271554
 20
54.349035
 30
0.0
 40
0.5
100
AcDbArc
 50
270.0
 51
0.0
  0
ARC
  5
6B1
100
AcDbEntity
  8
2
100
AcDbCircle
 10
11.271554
 20
54.349035
 30
0.0
 40
0.5
100
AcDbArc
 50
180.0
 51
270.0
  0
ARC
  5
6B2
100
AcDbEntity
  8
2
100
AcDbCircle
 10
186.271554
 20
45.849035
 30
0.0
 40
1.0
100
AcDbArc
 50
270.0
 51
360.0
  0
ARC
  5
6B3
100
AcDbEntity
  8
2
100
AcDbCircle
 10
27.271554
 20
45.849035
 30
0.0
 40
1.0
100
AcDbArc
 50
180.0
 51
270.0
  0
ARC
  5
6B4
100
AcDbEntity
  8
2
100
AcDbCircle
 10
100.271554
 20
45.849035
 30
0.0
 40
1.0
100
AcDbArc
 50
270.0
 51
360.0
  0
ARC
  5
6B5
100
AcDbEntity
  8
2
100
AcDbCircle
 10
117.271554
 20
45.849035
 30
0.0
 40
1.0
100
AcDbArc
 50
180.0
 51
270.0
  0
LINE
  5
6B6
100
AcDbEntity
  8
2
100
AcDbLine
 10
-674.328446
 20
53.849035
 30
0.0
 11
-688.828446
 21
53.849035
 31
0.0
  0
LINE
  5
6B7
100
AcDbEntity
  8
2
100
AcDbLine
 10
-673.828446
 20
53.349035
 30
0.0
 11
-673.828446
 21
45.849035
 31
0.0
  0
LINE
  5
6B8
100
AcDbEntity
  8
2
100
AcDbLine
 10
-549.828446
 20
53.349035
 30
0.0
 11
-549.828446
 21
45.849035
 31
0.0
  0
ARC
  5
6B9
100
AcDbEntity
  8
2
100
AcDbCircle
 10
-549.328446
 20
53.349035
 30
0.0
 40
0.5
100
AcDbArc
 50
114.645458
 51
180.0
  0
ARC
  5
6BA
100
AcDbEntity
  8
2
100
AcDbCircle
 10
-550.828446
 20
45.849035
 30
0.0
 40
1.0
100
AcDbArc
 50
270.0
 51
0.0
  0
ARC
  5
6BB
100
AcDbEntity
  8
2
100
AcDbCircle
 10
-672.828446
 20
45.849035
 30
0.0
 40
1.0
100
AcDbArc
 50
180.0
 51
270.0
  0
ARC
  5
6BC
100
AcDbEntity
  8
2
100
AcDbCircle
 10
-688.828446
 20
54.349035
 30
0.0
 40
0.5
100
AcDbArc
 50
180.0
 51
270.0
  0
ARC
  5
6BD
100
AcDbEntity
  8
2
100
AcDbCircle
 10
-674.328446
 20
53.349035
 30
0.0
 40
0.5
100
AcDbArc
 50
0.0
 51
90.0
  0
CIRCLE
  5
6BE
100
AcDbEntity
  8
2
100
AcDbCircle
 10
-493.828446
 20
136.849035
 30
0.0
 40
32.5
  0
LINE
  5
6BF
100
AcDbEntity
  8
2
  6
CENTER
 62
     2
100
AcDbLine
 10
-458.328446
 20
567.105811
 30
0.0
 11
-458.328446
 21
584.192259
 31
0.0
  0
LINE
  5
6C0
100
AcDbEntity
  8
2
  6
CENTER
 62
     2
100
AcDbLine
 10
-462.328446
 20
653.105811
 30
0.0
 11
-462.328446
 21
670.192259
 31
0.0
  0
LINE
  5
6C1
100
AcDbEntity
  8
2
  6
CENTER
 62
     2
100
AcDbLine
 10
-454.511177
 20
661.649035
 30
0.0
 11
-470.87167
 21
661.649035
 31
0.0
  0
LINE
  5
6C2
100
AcDbEntity
  8
2
  6
CENTER
 62
     2
100
AcDbLine
 10
-458.328446
 20
482.105811
 30
0.0
 11
-458.328446
 21
499.192259
 31
0.0
  0
LINE
  5
6C3
100
AcDbEntity
  8
2
  6
CENTER
 62
     2
100
AcDbLine
 10
-449.785222
 20
490.649035
 30
0.0
 11
-466.87167
 21
490.649035
 31
0.0
  0
LINE
  5
6C4
100
AcDbEntity
  8
2
  6
CENTER
 62
     2
100
AcDbLine
 10
-529.328446
 20
657.105811
 30
0.0
 11
-529.328446
 21
674.192259
 31
0.0
  0
LINE
  5
6C5
100
AcDbEntity
  8
2
  6
CENTER
 62
     2
100
AcDbLine
 10
-520.785222
 20
665.649035
 30
0.0
 11
-537.87167
 21
665.649035
 31
0.0
  0
LINE
  5
6C6
100
AcDbEntity
  8
2
  6
CENTER
 62
     2
100
AcDbLine
 10
-676.328446
 20
657.105811
 30
0.0
 11
-676.328446
 21
672.996468
 31
0.0
  0
LINE
  5
6C7
100
AcDbEntity
  8
2
  6
CENTER
 62
     2
100
AcDbLine
 10
-667.785222
 20
665.649035
 30
0.0
 11
-684.87167
 21
665.649035
 31
0.0
  0
LINE
  5
6C8
100
AcDbEntity
  8
2
  6
CENTER
 62
     2
100
AcDbLine
 10
-801.328446
 20
653.105811
 30
0.0
 11
-801.328446
 21
670.192259
 31
0.0
  0
LINE
  5
6C9
100
AcDbEntity
  8
2
  6
CENTER
 62
     2
100
AcDbLine
 10
-792.785222
 20
661.649035
 30
0.0
 11
-809.87167
 21
661.649035
 31
0.0
  0
LINE
  5
6CA
100
AcDbEntity
  8
2
  6
CENTER
 62
     2
100
AcDbLine
 10
-806.328446
 20
567.105811
 30
0.0
 11
-806.328446
 21
584.192259
 31
0.0
  0
LINE
  5
6CB
100
AcDbEntity
  8
2
  6
CENTER
 62
     2
100
AcDbLine
 10
-806.328446
 20
488.105811
 30
0.0
 11
-806.328446
 21
505.192259
 31
0.0
  0
LINE
  5
6CC
100
AcDbEntity
  8
2
  6
CENTER
 62
     2
100
AcDbLine
 10
-797.785222
 20
496.649035
 30
0.0
 11
-814.87167
 21
496.649035
 31
0.0
  0
LINE
  5
6CD
100
AcDbEntity
  8
2
  6
CENTER
 62
     2
100
AcDbLine
 10
-676.328446
 20
482.105811
 30
0.0
 11
-676.328446
 21
499.192259
 31
0.0
  0
LINE
  5
6CE
100
AcDbEntity
  8
2
  6
CENTER
 62
     2
100
AcDbLine
 10
-667.785222
 20
490.649035
 30
0.0
 11
-684.87167
 21
490.649035
 31
0.0
  0
LINE
  5
6CF
100
AcDbEntity
  8
2
  6
CENTER
 62
     2
100
AcDbLine
 10
-529.328446
 20
482.105811
 30
0.0
 11
-529.328446
 21
499.192259
 31
0.0
  0
LINE
  5
6D0
100
AcDbEntity
  8
2
  6
CENTER
 62
     2
100
AcDbLine
 10
-520.785222
 20
490.649035
 30
0.0
 11
-537.87167
 21
490.649035
 31
0.0
  0
LINE
  5
6D1
100
AcDbEntity
  8
2
  6
CENTER
 62
     2
100
AcDbLine
 10
-479.392841
 20
600.649035
 30
0.0
 11
-445.19303
 21
600.649035
 31
0.0
  0
LINE
  5
6D2
100
AcDbEntity
  8
2
  6
CENTER
 62
     2
100
AcDbLine
 10
-479.392841
 20
550.649035
 30
0.0
 11
-445.19303
 21
550.649035
 31
0.0
  0
LINE
  5
6D3
100
AcDbEntity
  8
2
  6
CENTER
 62
     2
100
AcDbLine
 10
-493.828446
 20
687.490395
 30
0.0
 11
-493.828446
 21
312.908627
 31
0.0
  0
LINE
  5
6D4
100
AcDbEntity
  8
2
  6
CENTER
 62
     2
100
AcDbLine
 10
-642.328446
 20
721.222269
 30
0.0
 11
-642.328446
 21
666.775011
 31
0.0
  0
LINE
  5
6D5
100
AcDbEntity
  8
2
  6
CENTER
 62
     2
100
AcDbLine
 10
-542.328446
 20
721.222269
 30
0.0
 11
-542.328446
 21
666.775011
 31
0.0
  0
LINE
  5
6D6
100
AcDbEntity
  8
2
  6
CENTER
 62
     2
100
AcDbLine
 10
-474.328446
 20
630.037629
 30
0.0
 11
-474.328446
 21
647.260441
 31
0.0
  0
LINE
  5
6D7
100
AcDbEntity
  8
2
  6
CENTER
 62
     2
100
AcDbLine
 10
-465.71704
 20
638.649035
 30
0.0
 11
-482.939852
 21
638.649035
 31
0.0
  0
LINE
  5
6D8
100
AcDbEntity
  8
2
  6
CENTER
 62
     2
100
AcDbLine
 10
-474.328446
 20
521.260441
 30
0.0
 11
-474.328446
 21
504.037629
 31
0.0
  0
LINE
  5
6D9
100
AcDbEntity
  8
2
  6
CENTER
 62
     2
100
AcDbLine
 10
-465.71704
 20
512.649035
 30
0.0
 11
-482.939852
 21
512.649035
 31
0.0
  0
LINE
  5
6DA
100
AcDbEntity
  8
2
  6
CENTER
 62
     2
100
AcDbLine
 10
-724.328446
 20
630.037629
 30
0.0
 11
-724.328446
 21
647.260441
 31
0.0
  0
LINE
  5
6DB
100
AcDbEntity
  8
2
  6
CENTER
 62
     2
100
AcDbLine
 10
-732.939852
 20
638.649035
 30
0.0
 11
-715.71704
 21
638.649035
 31
0.0
  0
LINE
  5
6DC
100
AcDbEntity
  8
2
  6
CENTER
 62
     2
100
AcDbLine
 10
-724.328446
 20
521.260441
 30
0.0
 11
-724.328446
 21
504.037629
 31
0.0
  0
LINE
  5
6DD
100
AcDbEntity
  8
2
  6
CENTER
 62
     2
100
AcDbLine
 10
-732.939852
 20
512.649035
 30
0.0
 11
-715.71704
 21
512.649035
 31
0.0
  0
LINE
  5
6DE
100
AcDbEntity
  8
2
  6
CENTER
 62
     2
100
AcDbLine
 10
-599.328446
 20
630.037629
 30
0.0
 11
-599.328446
 21
647.260441
 31
0.0
  0
LINE
  5
6DF
100
AcDbEntity
  8
2
  6
CENTER
 62
     2
100
AcDbLine
 10
-590.71704
 20
638.649035
 30
0.0
 11
-607.939852
 21
638.649035
 31
0.0
  0
LINE
  5
6E0
100
AcDbEntity
  8
2
  6
CENTER
 62
     2
100
AcDbLine
 10
-599.328446
 20
521.260441
 30
0.0
 11
-599.328446
 21
504.037629
 31
0.0
  0
LINE
  5
6E1
100
AcDbEntity
  8
2
  6
CENTER
 62
     2
100
AcDbLine
 10
-590.71704
 20
512.649035
 30
0.0
 11
-607.939852
 21
512.649035
 31
0.0
  0
LINE
  5
6E2
100
AcDbEntity
  8
2
  6
CENTER
 62
     2
100
AcDbLine
 10
-832.561
 20
136.849035
 30
0.0
 11
-375.591885
 21
136.849035
 31
0.0
  0
LINE
  5
6E3
100
AcDbEntity
  8
2
  6
CENTER
 62
     2
100
AcDbLine
 10
-493.828446
 20
256.710225
 30
0.0
 11
-493.828446
 21
23.509092
 31
0.0
  0
LINE
  5
6E4
100
AcDbEntity
  8
2
  6
CENTER
 62
     2
100
AcDbLine
 10
58.173742
 20
201.849035
 30
0.0
 11
161.044478
 21
201.849035
 31
0.0
  0
LINE
  5
6E5
100
AcDbEntity
  8
2
  6
CENTER
 62
     2
100
AcDbLine
 10
133.771554
 20
224.985283
 30
0.0
 11
133.771554
 21
163.115869
 31
0.0
  0
LINE
  5
6E6
100
AcDbEntity
  8
2
  6
CENTER
 62
     2
100
AcDbLine
 10
83.771554
 20
224.985283
 30
0.0
 11
83.771554
 21
163.115869
 31
0.0
  0
LINE
  5
6E7
100
AcDbEntity
  8
2
  6
CENTER
 62
     2
100
AcDbLine
 10
-158.927919
 20
136.849035
 30
0.0
 11
8.771554
 21
136.849035
 31
0.0
  0
LINE
  5
6E8
100
AcDbEntity
  8
2
  6
CENTER
 62
     2
100
AcDbLine
 10
-702.144557
 20
186.849035
 30
0.0
 11
-681.872584
 21
186.849035
 31
0.0
  0
LINE
  5
6E9
100
AcDbEntity
  8
2
  6
CENTER
 62
     2
100
AcDbLine
 10
-692.328446
 20
198.781943
 30
0.0
 11
-692.328446
 21
175.055701
 31
0.0
  0
LINE
  5
6EA
100
AcDbEntity
  8
2
  6
CENTER
 62
     2
100
AcDbLine
 10
-818.868129
 20
122.849035
 30
0.0
 11
-794.241481
 21
122.849035
 31
0.0
  0
LINE
  5
6EB
100
AcDbEntity
  8
2
  6
CENTER
 62
     2
100
AcDbLine
 10
-806.328446
 20
134.618796
 30
0.0
 11
-806.328446
 21
109.518638
 31
0.0
  0
LINE
  5
6EC
100
AcDbEntity
  8
2
  6
CENTER
 62
     2
100
AcDbLine
 10
-671.328446
 20
84.41854
 30
0.0
 11
-671.328446
 21
56.47692
 31
0.0
  0
LINE
  5
6ED
100
AcDbEntity
  8
2
  6
CENTER
 62
     2
100
AcDbLine
 10
-682.947871
 20
70.849035
 30
0.0
 11
-658.321193
 21
70.849035
 31
0.0
  0
LINE
  5
6EE
100
AcDbEntity
  8
2
  6
CENTER
 62
     2
100
AcDbLine
 10
-724.328446
 20
244.508857
 30
0.0
 11
-724.328446
 21
215.375495
 31
0.0
  0
LINE
  5
6EF
100
AcDbEntity
  8
2
  6
CENTER
 62
     2
100
AcDbLine
 10
-599.328446
 20
244.508857
 30
0.0
 11
-599.328446
 21
215.375495
 31
0.0
  0
LINE
  5
6F0
100
AcDbEntity
  8
2
  6
CENTER
 62
     2
100
AcDbLine
 10
-692.328446
 20
442.497568
 30
0.0
 11
-692.328446
 21
479.494814
 31
0.0
  0
LINE
  5
6F1
100
AcDbEntity
  8
2
  6
CENTER
 62
     2
100
AcDbLine
 10
-557.328446
 20
442.497568
 30
0.0
 11
-557.328446
 21
479.494814
 31
0.0
  0
LINE
  5
6F2
100
AcDbEntity
  8
2
  6
CENTER
 62
     2
100
AcDbLine
 10
-448.328446
 20
442.497568
 30
0.0
 11
-448.328446
 21
479.494814
 31
0.0
  0
LINE
  5
6F3
100
AcDbEntity
  8
2
  6
CENTER
 62
     2
100
AcDbLine
 10
194.771554
 20
177.8908
 30
0.0
 11
194.771554
 21
157.537223
 31
0.0
  0
LINE
  5
6F4
100
AcDbEntity
  8
2
  6
CENTER
 62
     2
100
AcDbLine
 10
184.277922
 20
116.849035
 30
0.0
 11
221.771554
 21
116.849035
 31
0.0
  0
LINE
  5
6F5
100
AcDbEntity
  8
2
  6
CENTER
 62
     2
100
AcDbLine
 10
233.414781
 20
116.849035
 30
0.0
 11
256.668456
 21
116.849035
 31
0.0
  0
LINE
  5
6F6
100
AcDbEntity
  8
2
  6
CENTER
 62
     2
100
AcDbLine
 10
171.771554
 20
246.537223
 30
0.0
 11
171.771554
 21
217.79119
 31
0.0
  0
LINE
  5
6F7
100
AcDbEntity
  8
2
  6
CENTER
 62
     2
100
AcDbLine
 10
45.771554
 20
246.537223
 30
0.0
 11
45.771554
 21
217.79119
 31
0.0
  0
LINE
  5
6F8
100
AcDbEntity
  8
2
  6
CENTER
 62
     2
100
AcDbLine
 10
-26.089937
 20
192.849035
 30
0.0
 11
14.472853
 21
192.849035
 31
0.0
  0
LINE
  5
6F9
100
AcDbEntity
  8
2
  6
CENTER
 62
     2
100
AcDbLine
 10
-26.089937
 20
78.849035
 30
0.0
 11
14.472853
 21
78.849035
 31
0.0
  0
LINE
  5
6FA
100
AcDbEntity
  8
2
  6
CENTER
 62
     2
100
AcDbLine
 10
18.771554
 20
64.774894
 30
0.0
 11
18.771554
 21
39.872184
 31
0.0
  0
LINE
  5
6FB
100
AcDbEntity
  8
2
  6
CENTER
 62
     2
100
AcDbLine
 10
194.771554
 20
64.774894
 30
0.0
 11
194.771554
 21
39.872184
 31
0.0
  0
LINE
  5
6FC
100
AcDbEntity
  8
2
  6
CENTER
 62
     2
100
AcDbLine
 10
-681.328446
 20
64.532981
 30
0.0
 11
-681.328446
 21
40.313865
 31
0.0
  0
LINE
  5
6FD
100
AcDbEntity
  8
2
  6
CENTER
 62
     2
100
AcDbLine
 10
-542.328446
 20
62.849035
 30
0.0
 11
-542.328446
 21
40.313865
 31
0.0
  0
ARC
  5
6FE
100
AcDbEntity
  8
2
100
AcDbCircle
 10
-493.828446
 20
136.849035
 30
0.0
 40
22.2
100
AcDbArc
 50
20.571635
 51
163.0
  0
ARC
  5
6FF
100
AcDbEntity
  8
2
100
AcDbCircle
 10
-489.928446
 20
136.849035
 30
0.0
 40
18.2
100
AcDbArc
 50
25.014065
 51
166.591995
  0
LINE
  5
700
100
AcDbEntity
  8
2
100
AcDbLine
 10
-475.718401
 20
143.933044
 30
0.0
 11
-473.435533
 21
144.544736
 31
0.0
  0
LINE
  5
701
100
AcDbEntity
  8
2
100
AcDbLine
 10
-473.04406
 20
144.649631
 30
0.0
 11
-470.433849
 21
145.349035
 31
0.0
  0
LINE
  5
702
100
AcDbEntity
  8
2
100
AcDbLine
 10
-471.628446
 20
136.849035
 30
0.0
 11
-475.718401
 21
143.933044
 31
0.0
  0
LINE
  5
703
100
AcDbEntity
  8
2
100
AcDbLine
 10
-471.628446
 20
136.849035
 30
0.0
 11
-470.433849
 21
145.349035
 31
0.0
  0
LINE
  5
704
100
AcDbEntity
  8
2
100
AcDbLine
 10
-507.632378
 20
141.069321
 30
0.0
 11
-515.058412
 21
143.339687
 31
0.0
  0
CIRCLE
  5
705
100
AcDbEntity
  8
2
100
AcDbCircle
 10
-529.328446
 20
490.649035
 30
0.0
 40
5.0
  0
CIRCLE
  5
706
100
AcDbEntity
  8
2
100
AcDbCircle
 10
-529.328446
 20
490.649035
 30
0.0
 40
4.30718
  0
CIRCLE
  5
707
100
AcDbEntity
  8
2
100
AcDbCircle
 10
-676.328446
 20
490.649035
 30
0.0
 40
5.0
  0
CIRCLE
  5
708
100
AcDbEntity
  8
2
100
AcDbCircle
 10
-676.328446
 20
490.649035
 30
0.0
 40
4.30718
  0
CIRCLE
  5
709
100
AcDbEntity
  8
2
100
AcDbCircle
 10
-458.328446
 20
490.649035
 30
0.0
 40
5.0
  0
CIRCLE
  5
70A
100
AcDbEntity
  8
2
100
AcDbCircle
 10
-458.328446
 20
490.649035
 30
0.0
 40
4.30718
  0
CIRCLE
  5
70B
100
AcDbEntity
  8
2
100
AcDbCircle
 10
-458.328446
 20
575.649035
 30
0.0
 40
5.0
  0
CIRCLE
  5
70C
100
AcDbEntity
  8
2
100
AcDbCircle
 10
-458.328446
 20
575.649035
 30
0.0
 40
4.30718
  0
CIRCLE
  5
70D
100
AcDbEntity
  8
2
100
AcDbCircle
 10
-462.328446
 20
661.649035
 30
0.0
 40
5.0
  0
CIRCLE
  5
70E
100
AcDbEntity
  8
2
100
AcDbCircle
 10
-462.328446
 20
661.649035
 30
0.0
 40
4.30718
  0
CIRCLE
  5
70F
100
AcDbEntity
  8
2
100
AcDbCircle
 10
-529.328446
 20
665.649035
 30
0.0
 40
5.0
  0
CIRCLE
  5
710
100
AcDbEntity
  8
2
100
AcDbCircle
 10
-529.328446
 20
665.649035
 30
0.0
 40
4.30718
  0
CIRCLE
  5
711
100
AcDbEntity
  8
2
100
AcDbCircle
 10
-676.328446
 20
665.649035
 30
0.0
 40
5.0
  0
CIRCLE
  5
712
100
AcDbEntity
  8
2
100
AcDbCircle
 10
-676.328446
 20
665.649035
 30
0.0
 40
4.30718
  0
CIRCLE
  5
713
100
AcDbEntity
  8
2
100
AcDbCircle
 10
-801.328446
 20
661.649035
 30
0.0
 40
5.0
  0
CIRCLE
  5
714
100
AcDbEntity
  8
2
100
AcDbCircle
 10
-801.328446
 20
661.649035
 30
0.0
 40
4.30718
  0
CIRCLE
  5
715
100
AcDbEntity
  8
2
100
AcDbCircle
 10
-806.328446
 20
575.649035
 30
0.0
 40
5.0
  0
CIRCLE
  5
716
100
AcDbEntity
  8
2
100
AcDbCircle
 10
-806.328446
 20
575.649035
 30
0.0
 40
4.30718
  0
CIRCLE
  5
717
100
AcDbEntity
  8
2
100
AcDbCircle
 10
-806.328446
 20
496.649035
 30
0.0
 40
5.0
  0
CIRCLE
  5
718
100
AcDbEntity
  8
2
100
AcDbCircle
 10
-806.328446
 20
496.649035
 30
0.0
 40
4.30718
  0
CIRCLE
  5
719
100
AcDbEntity
  8
2
100
AcDbCircle
 10
-474.328446
 20
512.649035
 30
0.0
 40
5.75
  0
CIRCLE
  5
71A
100
AcDbEntity
  8
2
100
AcDbCircle
 10
-474.328446
 20
512.649035
 30
0.0
 40
5.25
  0
CIRCLE
  5
71B
100
AcDbEntity
  8
2
100
AcDbCircle
 10
-474.328446
 20
638.649035
 30
0.0
 40
5.75
  0
CIRCLE
  5
71C
100
AcDbEntity
  8
2
100
AcDbCircle
 10
-474.328446
 20
638.649035
 30
0.0
 40
5.25
  0
CIRCLE
  5
71D
100
AcDbEntity
  8
2
100
AcDbCircle
 10
-599.328446
 20
512.649035
 30
0.0
 40
5.75
  0
CIRCLE
  5
71E
100
AcDbEntity
  8
2
100
AcDbCircle
 10
-599.328446
 20
512.649035
 30
0.0
 40
5.25
  0
CIRCLE
  5
71F
100
AcDbEntity
  8
2
100
AcDbCircle
 10
-599.328446
 20
638.649035
 30
0.0
 40
5.75
  0
CIRCLE
  5
720
100
AcDbEntity
  8
2
100
AcDbCircle
 10
-599.328446
 20
638.649035
 30
0.0
 40
5.25
  0
CIRCLE
  5
721
100
AcDbEntity
  8
2
100
AcDbCircle
 10
-724.328446
 20
512.649035
 30
0.0
 40
5.75
  0
CIRCLE
  5
722
100
AcDbEntity
  8
2
100
AcDbCircle
 10
-724.328446
 20
512.649035
 30
0.0
 40
5.25
  0
CIRCLE
  5
723
100
AcDbEntity
  8
2
100
AcDbCircle
 10
-724.328446
 20
638.649035
 30
0.0
 40
5.75
  0
CIRCLE
  5
724
100
AcDbEntity
  8
2
100
AcDbCircle
 10
-724.328446
 20
638.649035
 30
0.0
 40
5.25
  0
LINE
  5
725
100
AcDbEntity
  8
2
100
AcDbLine
 10
-605.078446
 20
228.349035
 30
0.0
 11
-605.078446
 21
226.849035
 31
0.0
  0
LINE
  5
726
100
AcDbEntity
  8
2
100
AcDbLine
 10
-593.578446
 20
228.349035
 30
0.0
 11
-593.578446
 21
226.849035
 31
0.0
  0
LINE
  5
727
100
AcDbEntity
  8
2
100
AcDbLine
 10
-593.578446
 20
228.349035
 30
0.0
 11
-605.078446
 21
228.349035
 31
0.0
  0
LINE
  5
728
100
AcDbEntity
  8
2
100
AcDbLine
 10
-604.578446
 20
229.876051
 30
0.0
 11
-604.578446
 21
228.349035
 31
0.0
  0
LINE
  5
729
100
AcDbEntity
  8
2
100
AcDbLine
 10
-594.078446
 20
229.876051
 30
0.0
 11
-594.078446
 21
228.349035
 31
0.0
  0
ARC
  5
72A
100
AcDbEntity
  8
2
100
AcDbCircle
 10
-599.328446
 20
218.249035
 30
0.0
 40
14.0
100
AcDbArc
 50
73.927141
 51
106.072859
  0
ARC
  5
72B
100
AcDbEntity
  8
2
100
AcDbCircle
 10
-595.978446
 20
229.876051
 30
0.0
 40
1.9
100
AcDbArc
 50
0.0
 51
73.927141
  0
ARC
  5
72C
100
AcDbEntity
  8
2
100
AcDbCircle
 10
-602.678446
 20
229.876051
 30
0.0
 40
1.9
100
AcDbArc
 50
106.072859
 51
180.0
  0
LINE
  5
72D
100
AcDbEntity
  8
2
100
AcDbLine
 10
-730.078446
 20
228.349035
 30
0.0
 11
-730.078446
 21
226.849035
 31
0.0
  0
LINE
  5
72E
100
AcDbEntity
  8
2
100
AcDbLine
 10
-718.578446
 20
228.349035
 30
0.0
 11
-718.578446
 21
226.849035
 31
0.0
  0
LINE
  5
72F
100
AcDbEntity
  8
2
100
AcDbLine
 10
-718.578446
 20
228.349035
 30
0.0
 11
-730.078446
 21
228.349035
 31
0.0
  0
LINE
  5
730
100
AcDbEntity
  8
2
100
AcDbLine
 10
-729.578446
 20
229.876051
 30
0.0
 11
-729.578446
 21
228.349035
 31
0.0
  0
LINE
  5
731
100
AcDbEntity
  8
2
100
AcDbLine
 10
-719.078446
 20
229.876051
 30
0.0
 11
-719.078446
 21
228.349035
 31
0.0
  0
ARC
  5
732
100
AcDbEntity
  8
2
100
AcDbCircle
 10
-724.328446
 20
218.249035
 30
0.0
 40
14.0
100
AcDbArc
 50
73.927141
 51
106.072859
  0
ARC
  5
733
100
AcDbEntity
  8
2
100
AcDbCircle
 10
-720.978446
 20
229.876051
 30
0.0
 40
1.9
100
AcDbArc
 50
0.0
 51
73.927141
  0
ARC
  5
734
100
AcDbEntity
  8
2
100
AcDbCircle
 10
-727.678446
 20
229.876051
 30
0.0
 40
1.9
100
AcDbArc
 50
106.072859
 51
180.0
  0
LINE
  5
735
100
AcDbEntity
  8
2
100
AcDbLine
 10
189.771554
 20
164.849035
 30
0.0
 11
189.771554
 21
170.449035
 31
0.0
  0
LINE
  5
736
100
AcDbEntity
  8
2
100
AcDbLine
 10
189.771554
 20
170.449035
 30
0.0
 11
190.464374
 21
170.849035
 31
0.0
  0
LINE
  5
737
100
AcDbEntity
  8
2
100
AcDbLine
 10
190.464374
 20
170.849035
 30
0.0
 11
199.078733
 21
170.849035
 31
0.0
  0
LINE
  5
738
100
AcDbEntity
  8
2
100
AcDbLine
 10
199.771554
 20
170.449035
 30
0.0
 11
189.771554
 21
170.449035
 31
0.0
  0
LINE
  5
739
100
AcDbEntity
  8
2
100
AcDbLine
 10
199.771554
 20
164.849035
 30
0.0
 11
199.771554
 21
170.449035
 31
0.0
  0
LINE
  5
73A
100
AcDbEntity
  8
2
100
AcDbLine
 10
199.771554
 20
170.449035
 30
0.0
 11
199.078733
 21
170.849035
 31
0.0
  0
LINE
  5
73B
100
AcDbEntity
  8
2
100
AcDbLine
 10
103.771554
 20
164.849035
 30
0.0
 11
103.771554
 21
170.449035
 31
0.0
  0
LINE
  5
73C
100
AcDbEntity
  8
2
100
AcDbLine
 10
103.771554
 20
170.449035
 30
0.0
 11
104.464374
 21
170.849035
 31
0.0
  0
LINE
  5
73D
100
AcDbEntity
  8
2
100
AcDbLine
 10
104.464374
 20
170.849035
 30
0.0
 11
113.078733
 21
170.849035
 31
0.0
  0
LINE
  5
73E
100
AcDbEntity
  8
2
100
AcDbLine
 10
113.771554
 20
170.449035
 30
0.0
 11
103.771554
 21
170.449035
 31
0.0
  0
LINE
  5
73F
100
AcDbEntity
  8
2
100
AcDbLine
 10
113.771554
 20
164.849035
 30
0.0
 11
113.771554
 21
170.449035
 31
0.0
  0
LINE
  5
740
100
AcDbEntity
  8
2
100
AcDbLine
 10
113.771554
 20
170.449035
 30
0.0
 11
113.078733
 21
170.849035
 31
0.0
  0
LINE
  5
741
100
AcDbEntity
  8
2
100
AcDbLine
 10
40.021554
 20
228.349035
 30
0.0
 11
40.021554
 21
226.849035
 31
0.0
  0
LINE
  5
742
100
AcDbEntity
  8
2
100
AcDbLine
 10
51.521554
 20
228.349035
 30
0.0
 11
51.521554
 21
226.849035
 31
0.0
  0
LINE
  5
743
100
AcDbEntity
  8
2
100
AcDbLine
 10
51.521554
 20
228.349035
 30
0.0
 11
40.021554
 21
228.349035
 31
0.0
  0
LINE
  5
744
100
AcDbEntity
  8
2
100
AcDbLine
 10
40.521554
 20
229.876051
 30
0.0
 11
40.521554
 21
228.349035
 31
0.0
  0
LINE
  5
745
100
AcDbEntity
  8
2
100
AcDbLine
 10
51.021554
 20
229.876051
 30
0.0
 11
51.021554
 21
228.349035
 31
0.0
  0
ARC
  5
746
100
AcDbEntity
  8
2
100
AcDbCircle
 10
45.771554
 20
218.249035
 30
0.0
 40
14.0
100
AcDbArc
 50
73.927141
 51
106.072859
  0
ARC
  5
747
100
AcDbEntity
  8
2
100
AcDbCircle
 10
49.121554
 20
229.876051
 30
0.0
 40
1.9
100
AcDbArc
 50
0.0
 51
73.927141
  0
ARC
  5
748
100
AcDbEntity
  8
2
100
AcDbCircle
 10
42.421554
 20
229.876051
 30
0.0
 40
1.9
100
AcDbArc
 50
106.072859
 51
180.0
  0
LINE
  5
749
100
AcDbEntity
  8
2
100
AcDbLine
 10
177.521554
 20
228.349035
 30
0.0
 11
177.521554
 21
226.849035
 31
0.0
  0
LINE
  5
74A
100
AcDbEntity
  8
2
100
AcDbLine
 10
166.021554
 20
228.349035
 30
0.0
 11
166.021554
 21
226.849035
 31
0.0
  0
LINE
  5
74B
100
AcDbEntity
  8
2
100
AcDbLine
 10
166.021554
 20
228.349035
 30
0.0
 11
177.521554
 21
228.349035
 31
0.0
  0
LINE
  5
74C
100
AcDbEntity
  8
2
100
AcDbLine
 10
177.021554
 20
229.876051
 30
0.0
 11
177.021554
 21
228.349035
 31
0.0
  0
LINE
  5
74D
100
AcDbEntity
  8
2
100
AcDbLine
 10
166.521554
 20
229.876051
 30
0.0
 11
166.521554
 21
228.349035
 31
0.0
  0
ARC
  5
74E
100
AcDbEntity
  8
2
100
AcDbCircle
 10
171.771554
 20
218.249035
 30
0.0
 40
14.0
100
AcDbArc
 50
73.927141
 51
106.072859
  0
ARC
  5
74F
100
AcDbEntity
  8
2
100
AcDbCircle
 10
168.421554
 20
229.876051
 30
0.0
 40
1.9
100
AcDbArc
 50
106.072859
 51
180.0
  0
ARC
  5
750
100
AcDbEntity
  8
2
100
AcDbCircle
 10
175.121554
 20
229.876051
 30
0.0
 40
1.9
100
AcDbArc
 50
0.0
 51
73.927141
  0
LINE
  5
751
100
AcDbEntity
  8
2
100
AcDbLine
 10
-3.228446
 20
185.599035
 30
0.0
 11
-3.228446
 21
200.099035
 31
0.0
  0
LINE
  5
752
100
AcDbEntity
  8
2
100
AcDbLine
 10
-3.228446
 20
200.099035
 30
0.0
 11
-1.228446
 21
200.099035
 31
0.0
  0
LINE
  5
753
100
AcDbEntity
  8
2
100
AcDbLine
 10
-3.228446
 20
185.599035
 30
0.0
 11
-1.228446
 21
185.599035
 31
0.0
  0
LINE
  5
754
100
AcDbEntity
  8
2
100
AcDbLine
 10
-5.186495
 20
199.849035
 30
0.0
 11
-3.228446
 21
199.849035
 31
0.0
  0
LINE
  5
755
100
AcDbEntity
  8
2
100
AcDbLine
 10
-5.186495
 20
185.849035
 30
0.0
 11
-3.228446
 21
185.849035
 31
0.0
  0
ARC
  5
756
100
AcDbEntity
  8
2
100
AcDbCircle
 10
9.571554
 20
192.849035
 30
0.0
 40
18.0
100
AcDbArc
 50
163.39845
 51
196.60155
  0
ARC
  5
757
100
AcDbEntity
  8
2
100
AcDbCircle
 10
-5.186495
 20
197.249035
 30
0.0
 40
2.6
100
AcDbArc
 50
90.0
 51
163.39845
  0
ARC
  5
758
100
AcDbEntity
  8
2
100
AcDbCircle
 10
-5.186495
 20
188.449035
 30
0.0
 40
2.6
100
AcDbArc
 50
196.60155
 51
270.0
  0
LINE
  5
759
100
AcDbEntity
  8
2
100
AcDbLine
 10
-3.228446
 20
71.599035
 30
0.0
 11
-3.228446
 21
86.099035
 31
0.0
  0
LINE
  5
75A
100
AcDbEntity
  8
2
100
AcDbLine
 10
-3.228446
 20
86.099035
 30
0.0
 11
-1.228446
 21
86.099035
 31
0.0
  0
LINE
  5
75B
100
AcDbEntity
  8
2
100
AcDbLine
 10
-3.228446
 20
71.599035
 30
0.0
 11
-1.228446
 21
71.599035
 31
0.0
  0
LINE
  5
75C
100
AcDbEntity
  8
2
100
AcDbLine
 10
-5.186495
 20
85.849035
 30
0.0
 11
-3.228446
 21
85.849035
 31
0.0
  0
LINE
  5
75D
100
AcDbEntity
  8
2
100
AcDbLine
 10
-5.186495
 20
71.849035
 30
0.0
 11
-3.228446
 21
71.849035
 31
0.0
  0
ARC
  5
75E
100
AcDbEntity
  8
2
100
AcDbCircle
 10
9.571554
 20
78.849035
 30
0.0
 40
18.0
100
AcDbArc
 50
163.39845
 51
196.60155
  0
ARC
  5
75F
100
AcDbEntity
  8
2
100
AcDbCircle
 10
-5.186495
 20
83.249035
 30
0.0
 40
2.6
100
AcDbArc
 50
90.0
 51
163.39845
  0
ARC
  5
760
100
AcDbEntity
  8
2
100
AcDbCircle
 10
-5.186495
 20
74.449035
 30
0.0
 40
2.6
100
AcDbArc
 50
196.60155
 51
270.0
  0
LINE
  5
761
100
AcDbEntity
  8
2
100
AcDbLine
 10
-441.078446
 20
463.649035
 30
0.0
 11
-455.578446
 21
463.649035
 31
0.0
  0
LINE
  5
762
100
AcDbEntity
  8
2
100
AcDbLine
 10
-455.578446
 20
463.649035
 30
0.0
 11
-455.578446
 21
465.649035
 31
0.0
  0
LINE
  5
763
100
AcDbEntity
  8
2
100
AcDbLine
 10
-441.078446
 20
463.649035
 30
0.0
 11
-441.078446
 21
465.649035
 31
0.0
  0
LINE
  5
764
100
AcDbEntity
  8
2
100
AcDbLine
 10
-455.328446
 20
461.690987
 30
0.0
 11
-455.328446
 21
463.649035
 31
0.0
  0
LINE
  5
765
100
AcDbEntity
  8
2
100
AcDbLine
 10
-441.328446
 20
461.690987
 30
0.0
 11
-441.328446
 21
463.649035
 31
0.0
  0
ARC
  5
766
100
AcDbEntity
  8
2
100
AcDbCircle
 10
-448.328446
 20
476.449035
 30
0.0
 40
18.0
100
AcDbArc
 50
253.39845
 51
286.60155
  0
ARC
  5
767
100
AcDbEntity
  8
2
100
AcDbCircle
 10
-452.728446
 20
461.690987
 30
0.0
 40
2.6
100
AcDbArc
 50
180.0
 51
253.39845
  0
ARC
  5
768
100
AcDbEntity
  8
2
100
AcDbCircle
 10
-443.928446
 20
461.690987
 30
0.0
 40
2.6
100
AcDbArc
 50
286.60155
 51
360.0
  0
LINE
  5
769
100
AcDbEntity
  8
2
100
AcDbLine
 10
-550.078446
 20
463.649035
 30
0.0
 11
-564.578446
 21
463.649035
 31
0.0
  0
LINE
  5
76A
100
AcDbEntity
  8
2
100
AcDbLine
 10
-564.578446
 20
463.649035
 30
0.0
 11
-564.578446
 21
465.649035
 31
0.0
  0
LINE
  5
76B
100
AcDbEntity
  8
2
100
AcDbLine
 10
-550.078446
 20
463.649035
 30
0.0
 11
-550.078446
 21
465.649035
 31
0.0
  0
LINE
  5
76C
100
AcDbEntity
  8
2
100
AcDbLine
 10
-564.328446
 20
461.690987
 30
0.0
 11
-564.328446
 21
463.649035
 31
0.0
  0
LINE
  5
76D
100
AcDbEntity
  8
2
100
AcDbLine
 10
-550.328446
 20
461.690987
 30
0.0
 11
-550.328446
 21
463.649035
 31
0.0
  0
ARC
  5
76E
100
AcDbEntity
  8
2
100
AcDbCircle
 10
-557.328446
 20
476.449035
 30
0.0
 40
18.0
100
AcDbArc
 50
253.39845
 51
286.60155
  0
ARC
  5
76F
100
AcDbEntity
  8
2
100
AcDbCircle
 10
-561.728446
 20
461.690987
 30
0.0
 40
2.6
100
AcDbArc
 50
180.0
 51
253.39845
  0
ARC
  5
770
100
AcDbEntity
  8
2
100
AcDbCircle
 10
-552.928446
 20
461.690987
 30
0.0
 40
2.6
100
AcDbArc
 50
286.60155
 51
360.0
  0
LINE
  5
771
100
AcDbEntity
  8
2
100
AcDbLine
 10
-685.078446
 20
463.649035
 30
0.0
 11
-699.578446
 21
463.649035
 31
0.0
  0
LINE
  5
772
100
AcDbEntity
  8
2
100
AcDbLine
 10
-699.578446
 20
463.649035
 30
0.0
 11
-699.578446
 21
465.649035
 31
0.0
  0
LINE
  5
773
100
AcDbEntity
  8
2
100
AcDbLine
 10
-685.078446
 20
463.649035
 30
0.0
 11
-685.078446
 21
465.649035
 31
0.0
  0
LINE
  5
774
100
AcDbEntity
  8
2
100
AcDbLine
 10
-699.328446
 20
461.690987
 30
0.0
 11
-699.328446
 21
463.649035
 31
0.0
  0
LINE
  5
775
100
AcDbEntity
  8
2
100
AcDbLine
 10
-685.328446
 20
461.690987
 30
0.0
 11
-685.328446
 21
463.649035
 31
0.0
  0
ARC
  5
776
100
AcDbEntity
  8
2
100
AcDbCircle
 10
-692.328446
 20
476.449035
 30
0.0
 40
18.0
100
AcDbArc
 50
253.39845
 51
286.60155
  0
ARC
  5
777
100
AcDbEntity
  8
2
100
AcDbCircle
 10
-696.728446
 20
461.690987
 30
0.0
 40
2.6
100
AcDbArc
 50
180.0
 51
253.39845
  0
ARC
  5
778
100
AcDbEntity
  8
2
100
AcDbCircle
 10
-687.928446
 20
461.690987
 30
0.0
 40
2.6
100
AcDbArc
 50
286.60155
 51
360.0
  0
LINE
  5
779
100
AcDbEntity
  8
2
100
AcDbLine
 10
-674.828446
 20
53.849035
 30
0.0
 11
-674.828446
 21
46.349035
 31
0.0
  0
LINE
  5
77A
100
AcDbEntity
  8
2
100
AcDbLine
 10
-674.828446
 20
46.349035
 30
0.0
 11
-675.694472
 21
45.849035
 31
0.0
  0
LINE
  5
77B
100
AcDbEntity
  8
2
100
AcDbLine
 10
-687.828446
 20
53.849035
 30
0.0
 11
-687.828446
 21
46.349035
 31
0.0
  0
LINE
  5
77C
100
AcDbEntity
  8
2
100
AcDbLine
 10
-687.828446
 20
46.349035
 30
0.0
 11
-686.962421
 21
45.849035
 31
0.0
  0
LINE
  5
77D
100
AcDbEntity
  8
2
100
AcDbLine
 10
-686.962421
 20
45.849035
 30
0.0
 11
-675.694472
 21
45.849035
 31
0.0
  0
LINE
  5
77E
100
AcDbEntity
  8
2
100
AcDbLine
 10
-674.828446
 20
46.349035
 30
0.0
 11
-687.828446
 21
46.349035
 31
0.0
  0
LINE
  5
77F
100
AcDbEntity
  8
2
100
AcDbLine
 10
-536.070736
 20
46.209149
 30
0.0
 11
-536.694472
 21
45.849035
 31
0.0
  0
LINE
  5
780
100
AcDbEntity
  8
2
100
AcDbLine
 10
-548.828446
 20
53.33257
 30
0.0
 11
-548.828446
 21
46.349035
 31
0.0
  0
LINE
  5
781
100
AcDbEntity
  8
2
100
AcDbLine
 10
-548.828446
 20
46.349035
 30
0.0
 11
-547.962421
 21
45.849035
 31
0.0
  0
LINE
  5
782
100
AcDbEntity
  8
2
100
AcDbLine
 10
-547.962421
 20
45.849035
 30
0.0
 11
-536.694472
 21
45.849035
 31
0.0
  0
LINE
  5
783
100
AcDbEntity
  8
2
100
AcDbLine
 10
-536.369603
 20
46.349035
 30
0.0
 11
-548.828446
 21
46.349035
 31
0.0
  0
LINE
  5
784
100
AcDbEntity
  8
2
100
AcDbLine
 10
25.271554
 20
53.849035
 30
0.0
 11
25.271554
 21
46.349035
 31
0.0
  0
LINE
  5
785
100
AcDbEntity
  8
2
100
AcDbLine
 10
25.271554
 20
46.349035
 30
0.0
 11
24.405528
 21
45.849035
 31
0.0
  0
LINE
  5
786
100
AcDbEntity
  8
2
100
AcDbLine
 10
12.271554
 20
53.849035
 30
0.0
 11
12.271554
 21
46.349035
 31
0.0
  0
LINE
  5
787
100
AcDbEntity
  8
2
100
AcDbLine
 10
12.271554
 20
46.349035
 30
0.0
 11
13.137579
 21
45.849035
 31
0.0
  0
LINE
  5
788
100
AcDbEntity
  8
2
100
AcDbLine
 10
13.137579
 20
45.849035
 30
0.0
 11
24.405528
 21
45.849035
 31
0.0
  0
LINE
  5
789
100
AcDbEntity
  8
2
100
AcDbLine
 10
25.271554
 20
46.349035
 30
0.0
 11
12.271554
 21
46.349035
 31
0.0
  0
LINE
  5
78A
100
AcDbEntity
  8
2
100
AcDbLine
 10
115.271554
 20
53.849035
 30
0.0
 11
115.271554
 21
46.349035
 31
0.0
  0
LINE
  5
78B
100
AcDbEntity
  8
2
100
AcDbLine
 10
115.271554
 20
46.349035
 30
0.0
 11
114.405528
 21
45.849035
 31
0.0
  0
LINE
  5
78C
100
AcDbEntity
  8
2
100
AcDbLine
 10
102.271554
 20
53.849035
 30
0.0
 11
102.271554
 21
46.349035
 31
0.0
  0
LINE
  5
78D
100
AcDbEntity
  8
2
100
AcDbLine
 10
102.271554
 20
46.349035
 30
0.0
 11
103.137579
 21
45.849035
 31
0.0
  0
LINE
  5
78E
100
AcDbEntity
  8
2
100
AcDbLine
 10
103.137579
 20
45.849035
 30
0.0
 11
114.405528
 21
45.849035
 31
0.0
  0
LINE
  5
78F
100
AcDbEntity
  8
2
100
AcDbLine
 10
115.271554
 20
46.349035
 30
0.0
 11
102.271554
 21
46.349035
 31
0.0
  0
LINE
  5
790
100
AcDbEntity
  8
2
100
AcDbLine
 10
201.271554
 20
53.849035
 30
0.0
 11
201.271554
 21
46.349035
 31
0.0
  0
LINE
  5
791
100
AcDbEntity
  8
2
100
AcDbLine
 10
201.271554
 20
46.349035
 30
0.0
 11
200.405528
 21
45.849035
 31
0.0
  0
LINE
  5
792
100
AcDbEntity
  8
2
100
AcDbLine
 10
188.271554
 20
53.849035
 30
0.0
 11
188.271554
 21
46.349035
 31
0.0
  0
LINE
  5
793
100
AcDbEntity
  8
2
100
AcDbLine
 10
188.271554
 20
46.349035
 30
0.0
 11
189.137579
 21
45.849035
 31
0.0
  0
LINE
  5
794
100
AcDbEntity
  8
2
100
AcDbLine
 10
189.137579
 20
45.849035
 30
0.0
 11
200.405528
 21
45.849035
 31
0.0
  0
LINE
  5
795
100
AcDbEntity
  8
2
100
AcDbLine
 10
201.271554
 20
46.349035
 30
0.0
 11
188.271554
 21
46.349035
 31
0.0
  0
CIRCLE
  5
796
100
AcDbEntity
  8
2
100
AcDbCircle
 10
-692.328446
 20
186.849035
 30
0.0
 40
7.25
  0
CIRCLE
  5
797
100
AcDbEntity
  8
2
100
AcDbCircle
 10
-692.328446
 20
186.849035
 30
0.0
 40
7.0
  0
CIRCLE
  5
798
100
AcDbEntity
  8
2
100
AcDbCircle
 10
-671.328446
 20
70.849035
 30
0.0
 40
7.25
  0
CIRCLE
  5
799
100
AcDbEntity
  8
2
100
AcDbCircle
 10
-671.328446
 20
70.849035
 30
0.0
 40
7.0
  0
CIRCLE
  5
79A
100
AcDbEntity
  8
2
100
AcDbCircle
 10
-806.328446
 20
122.849035
 30
0.0
 40
7.25
  0
CIRCLE
  5
79B
100
AcDbEntity
  8
2
100
AcDbCircle
 10
-806.328446
 20
122.849035
 30
0.0
 40
7.0
  0
LINE
  5
79C
100
AcDbEntity
  8
2
100
AcDbLine
 10
-811.223631
 20
463.649035
 30
0.0
 11
-813.578446
 21
463.649035
 31
0.0
  0
LINE
  5
79D
100
AcDbEntity
  8
2
100
AcDbLine
 10
-813.578446
 20
463.649035
 30
0.0
 11
-813.578446
 21
465.649035
 31
0.0
  0
LINE
  5
79E
100
AcDbEntity
  8
2
100
AcDbLine
 10
-813.328446
 20
461.690987
 30
0.0
 11
-813.328446
 21
463.649035
 31
0.0
  0
ARC
  5
79F
100
AcDbEntity
  8
2
100
AcDbCircle
 10
-806.328446
 20
476.449035
 30
0.0
 40
18.0
100
AcDbArc
 50
253.39845
 51
255.013153
  0
ARC
  5
7A0
100
AcDbEntity
  8
2
100
AcDbCircle
 10
-810.728446
 20
461.690987
 30
0.0
 40
2.6
100
AcDbArc
 50
180.0
 51
253.39845
  0
LINE
  5
7A1
100
AcDbEntity
  8
2
100
AcDbLine
 10
-729.828446
 20
139.349035
 30
0.0
 11
-729.828446
 21
121.849035
 31
0.0
  0
LINE
  5
7A2
100
AcDbEntity
  8
2
100
AcDbLine
 10
-729.828446
 20
139.349035
 30
0.0
 11
-694.828446
 21
139.349035
 31
0.0
  0
LINE
  5
7A3
100
AcDbEntity
  8
2
100
AcDbLine
 10
-729.828446
 20
121.849035
 30
0.0
 11
-694.828446
 21
139.349035
 31
0.0
  0
LINE
  5
7A4
100
AcDbEntity
  8
2
100
AcDbLine
 10
-718.16178
 20
139.349035
 30
0.0
 11
-718.16178
 21
104.349035
 31
0.0
  0
LINE
  5
7A5
100
AcDbEntity
  8
2
100
AcDbLine
 10
-706.495113
 20
127.682369
 30
0.0
 11
-729.828446
 21
127.682369
 31
0.0
  0
LINE
  5
7A6
100
AcDbEntity
  8
2
100
AcDbLine
 10
-706.495113
 20
133.515702
 30
0.0
 11
-729.828446
 21
133.515702
 31
0.0
  0
LINE
  5
7A7
100
AcDbEntity
  8
2
100
AcDbLine
 10
-706.495113
 20
139.349035
 30
0.0
 11
-729.828446
 21
127.682369
 31
0.0
  0
LINE
  5
7A8
100
AcDbEntity
  8
2
100
AcDbLine
 10
-718.16178
 20
139.349035
 30
0.0
 11
-729.828446
 21
133.515702
 31
0.0
  0
LINE
  5
7A9
100
AcDbEntity
  8
2
100
AcDbLine
 10
-706.495113
 20
104.349035
 30
0.0
 11
-706.495113
 21
127.682369
 31
0.0
  0
LINE
  5
7AA
100
AcDbEntity
  8
2
100
AcDbLine
 10
-706.495113
 20
133.515702
 30
0.0
 11
-706.495113
 21
139.349035
 31
0.0
  0
LINE
  5
7AB
100
AcDbEntity
  8
2
100
AcDbLine
 10
-718.16178
 20
104.349035
 30
0.0
 11
-706.495113
 21
104.349035
 31
0.0
  0
ARC
  5
7AC
100
AcDbEntity
  8
2
100
AcDbCircle
 10
-59.228446
 20
176.235149
 30
0.0
 40
10.0
100
AcDbArc
 50
280.0
 51
360.0
  0
ARC
  5
7AD
100
AcDbEntity
  8
2
100
AcDbCircle
 10
-59.228446
 20
97.462922
 30
0.0
 40
10.0
100
AcDbArc
 50
0.0
 51
80.0
  0
LINE
  5
7AE
100
AcDbEntity
  8
2
100
AcDbLine
 10
-809.156873
 20
120.020608
 30
0.0
 11
-803.500019
 21
125.677462
 31
0.0
  0
LINE
  5
7AF
100
AcDbEntity
  8
2
100
AcDbLine
 10
-803.500019
 20
120.020608
 30
0.0
 11
-809.156873
 21
125.677462
 31
0.0
  0
LINE
  5
7B0
100
AcDbEntity
  8
2
100
AcDbLine
 10
-695.156873
 20
184.020608
 30
0.0
 11
-689.500019
 21
189.677462
 31
0.0
  0
LINE
  5
7B1
100
AcDbEntity
  8
2
100
AcDbLine
 10
-689.500019
 20
184.020608
 30
0.0
 11
-695.156873
 21
189.677462
 31
0.0
  0
LINE
  5
7B2
100
AcDbEntity
  8
2
100
AcDbLine
 10
-674.156873
 20
68.020608
 30
0.0
 11
-668.500019
 21
73.677462
 31
0.0
  0
LINE
  5
7B3
100
AcDbEntity
  8
2
100
AcDbLine
 10
-668.500019
 20
68.020608
 30
0.0
 11
-674.156873
 21
73.677462
 31
0.0
  0
LINE
  5
7B4
100
AcDbEntity
  8
2
100
AcDbLine
 10
-476.449767
 20
636.527715
 30
0.0
 11
-472.207126
 21
640.770356
 31
0.0
  0
LINE
  5
7B5
100
AcDbEntity
  8
2
100
AcDbLine
 10
-472.207126
 20
636.527715
 30
0.0
 11
-476.449767
 21
640.770356
 31
0.0
  0
LINE
  5
7B6
100
AcDbEntity
  8
2
100
AcDbLine
 10
-476.449767
 20
510.527715
 30
0.0
 11
-472.207126
 21
514.770356
 31
0.0
  0
LINE
  5
7B7
100
AcDbEntity
  8
2
100
AcDbLine
 10
-472.207126
 20
510.527715
 30
0.0
 11
-476.449767
 21
514.770356
 31
0.0
  0
LINE
  5
7B8
100
AcDbEntity
  8
2
100
AcDbLine
 10
-601.449767
 20
636.527715
 30
0.0
 11
-597.207126
 21
640.770356
 31
0.0
  0
LINE
  5
7B9
100
AcDbEntity
  8
2
100
AcDbLine
 10
-597.207126
 20
636.527715
 30
0.0
 11
-601.449767
 21
640.770356
 31
0.0
  0
LINE
  5
7BA
100
AcDbEntity
  8
2
100
AcDbLine
 10
-726.449767
 20
636.527715
 30
0.0
 11
-722.207126
 21
640.770356
 31
0.0
  0
LINE
  5
7BB
100
AcDbEntity
  8
2
100
AcDbLine
 10
-722.207126
 20
636.527715
 30
0.0
 11
-726.449767
 21
640.770356
 31
0.0
  0
LINE
  5
7BC
100
AcDbEntity
  8
2
100
AcDbLine
 10
-601.449767
 20
510.527715
 30
0.0
 11
-597.207126
 21
514.770356
 31
0.0
  0
LINE
  5
7BD
100
AcDbEntity
  8
2
100
AcDbLine
 10
-597.207126
 20
510.527715
 30
0.0
 11
-601.449767
 21
514.770356
 31
0.0
  0
LINE
  5
7BE
100
AcDbEntity
  8
2
100
AcDbLine
 10
-726.449767
 20
510.527715
 30
0.0
 11
-722.207126
 21
514.770356
 31
0.0
  0
LINE
  5
7BF
100
AcDbEntity
  8
2
100
AcDbLine
 10
-722.207126
 20
510.527715
 30
0.0
 11
-726.449767
 21
514.770356
 31
0.0
  0
LINE
  5
7C0
100
AcDbEntity
  8
2
100
AcDbLine
 10
-567.911942
 20
602.16554
 30
0.0
 11
-563.711942
 21
602.16554
 31
0.0
  0
LINE
  5
7C1
100
AcDbEntity
  8
2
100
AcDbLine
 10
-565.811942
 20
600.06554
 30
0.0
 11
-565.811942
 21
604.26554
 31
0.0
  0
LINE
  5
7C2
100
AcDbEntity
  8
2
100
AcDbLine
 10
-620.944951
 20
602.16554
 30
0.0
 11
-616.744951
 21
602.16554
 31
0.0
  0
LINE
  5
7C3
100
AcDbEntity
  8
2
100
AcDbLine
 10
-618.844951
 20
600.06554
 30
0.0
 11
-618.844951
 21
604.26554
 31
0.0
  0
LINE
  5
7C4
100
AcDbEntity
  8
2
100
AcDbLine
 10
-567.911942
 20
549.132531
 30
0.0
 11
-563.711942
 21
549.132531
 31
0.0
  0
LINE
  5
7C5
100
AcDbEntity
  8
2
100
AcDbLine
 10
-565.811942
 20
547.032531
 30
0.0
 11
-565.811942
 21
551.232531
 31
0.0
  0
LINE
  5
7C6
100
AcDbEntity
  8
2
100
AcDbLine
 10
-620.944951
 20
549.132531
 30
0.0
 11
-616.744951
 21
549.132531
 31
0.0
  0
LINE
  5
7C7
100
AcDbEntity
  8
2
100
AcDbLine
 10
-618.844951
 20
547.032531
 30
0.0
 11
-618.844951
 21
551.232531
 31
0.0
  0
LINE
  5
7C8
100
AcDbEntity
  8
2
100
AcDbLine
 10
-464.828446
 20
660.20566
 30
0.0
 11
-464.828446
 21
663.092411
 31
0.0
  0
LINE
  5
7C9
100
AcDbEntity
  8
2
100
AcDbLine
 10
-459.828446
 20
660.20566
 30
0.0
 11
-459.828446
 21
663.092411
 31
0.0
  0
LINE
  5
7CA
100
AcDbEntity
  8
2
100
AcDbLine
 10
-462.328446
 20
658.762284
 30
0.0
 11
-464.828446
 21
660.20566
 31
0.0
  0
LINE
  5
7CB
100
AcDbEntity
  8
2
100
AcDbLine
 10
-459.828446
 20
663.092411
 30
0.0
 11
-462.328446
 21
664.535787
 31
0.0
  0
LINE
  5
7CC
100
AcDbEntity
  8
2
100
AcDbLine
 10
-459.828446
 20
660.20566
 30
0.0
 11
-462.328446
 21
658.762284
 31
0.0
  0
LINE
  5
7CD
100
AcDbEntity
  8
2
100
AcDbLine
 10
-462.328446
 20
664.535787
 30
0.0
 11
-464.828446
 21
663.092411
 31
0.0
  0
LINE
  5
7CE
100
AcDbEntity
  8
2
100
AcDbLine
 10
-531.828446
 20
664.20566
 30
0.0
 11
-531.828446
 21
667.092411
 31
0.0
  0
LINE
  5
7CF
100
AcDbEntity
  8
2
100
AcDbLine
 10
-526.828446
 20
664.20566
 30
0.0
 11
-526.828446
 21
667.092411
 31
0.0
  0
LINE
  5
7D0
100
AcDbEntity
  8
2
100
AcDbLine
 10
-529.328446
 20
662.762284
 30
0.0
 11
-531.828446
 21
664.20566
 31
0.0
  0
LINE
  5
7D1
100
AcDbEntity
  8
2
100
AcDbLine
 10
-526.828446
 20
667.092411
 30
0.0
 11
-529.328446
 21
668.535787
 31
0.0
  0
LINE
  5
7D2
100
AcDbEntity
  8
2
100
AcDbLine
 10
-526.828446
 20
664.20566
 30
0.0
 11
-529.328446
 21
662.762284
 31
0.0
  0
LINE
  5
7D3
100
AcDbEntity
  8
2
100
AcDbLine
 10
-529.328446
 20
668.535787
 30
0.0
 11
-531.828446
 21
667.092411
 31
0.0
  0
LINE
  5
7D4
100
AcDbEntity
  8
2
100
AcDbLine
 10
-460.828446
 20
574.20566
 30
0.0
 11
-460.828446
 21
577.092411
 31
0.0
  0
LINE
  5
7D5
100
AcDbEntity
  8
2
100
AcDbLine
 10
-455.828446
 20
574.20566
 30
0.0
 11
-455.828446
 21
577.092411
 31
0.0
  0
LINE
  5
7D6
100
AcDbEntity
  8
2
100
AcDbLine
 10
-458.328446
 20
572.762284
 30
0.0
 11
-460.828446
 21
574.20566
 31
0.0
  0
LINE
  5
7D7
100
AcDbEntity
  8
2
100
AcDbLine
 10
-455.828446
 20
577.092411
 30
0.0
 11
-458.328446
 21
578.535787
 31
0.0
  0
LINE
  5
7D8
100
AcDbEntity
  8
2
100
AcDbLine
 10
-455.828446
 20
574.20566
 30
0.0
 11
-458.328446
 21
572.762284
 31
0.0
  0
LINE
  5
7D9
100
AcDbEntity
  8
2
100
AcDbLine
 10
-458.328446
 20
578.535787
 30
0.0
 11
-460.828446
 21
577.092411
 31
0.0
  0
LINE
  5
7DA
100
AcDbEntity
  8
2
100
AcDbLine
 10
-460.828446
 20
489.20566
 30
0.0
 11
-460.828446
 21
492.092411
 31
0.0
  0
LINE
  5
7DB
100
AcDbEntity
  8
2
100
AcDbLine
 10
-455.828446
 20
489.20566
 30
0.0
 11
-455.828446
 21
492.092411
 31
0.0
  0
LINE
  5
7DC
100
AcDbEntity
  8
2
100
AcDbLine
 10
-458.328446
 20
487.762284
 30
0.0
 11
-460.828446
 21
489.20566
 31
0.0
  0
LINE
  5
7DD
100
AcDbEntity
  8
2
100
AcDbLine
 10
-455.828446
 20
492.092411
 30
0.0
 11
-458.328446
 21
493.535787
 31
0.0
  0
LINE
  5
7DE
100
AcDbEntity
  8
2
100
AcDbLine
 10
-455.828446
 20
489.20566
 30
0.0
 11
-458.328446
 21
487.762284
 31
0.0
  0
LINE
  5
7DF
100
AcDbEntity
  8
2
100
AcDbLine
 10
-458.328446
 20
493.535787
 30
0.0
 11
-460.828446
 21
492.092411
 31
0.0
  0
LINE
  5
7E0
100
AcDbEntity
  8
2
100
AcDbLine
 10
-531.828446
 20
489.20566
 30
0.0
 11
-531.828446
 21
492.092411
 31
0.0
  0
LINE
  5
7E1
100
AcDbEntity
  8
2
100
AcDbLine
 10
-526.828446
 20
489.20566
 30
0.0
 11
-526.828446
 21
492.092411
 31
0.0
  0
LINE
  5
7E2
100
AcDbEntity
  8
2
100
AcDbLine
 10
-529.328446
 20
487.762284
 30
0.0
 11
-531.828446
 21
489.20566
 31
0.0
  0
LINE
  5
7E3
100
AcDbEntity
  8
2
100
AcDbLine
 10
-526.828446
 20
492.092411
 30
0.0
 11
-529.328446
 21
493.535787
 31
0.0
  0
LINE
  5
7E4
100
AcDbEntity
  8
2
100
AcDbLine
 10
-526.828446
 20
489.20566
 30
0.0
 11
-529.328446
 21
487.762284
 31
0.0
  0
LINE
  5
7E5
100
AcDbEntity
  8
2
100
AcDbLine
 10
-529.328446
 20
493.535787
 30
0.0
 11
-531.828446
 21
492.092411
 31
0.0
  0
LINE
  5
7E6
100
AcDbEntity
  8
2
100
AcDbLine
 10
-678.828446
 20
664.20566
 30
0.0
 11
-678.828446
 21
667.092411
 31
0.0
  0
LINE
  5
7E7
100
AcDbEntity
  8
2
100
AcDbLine
 10
-673.828446
 20
664.20566
 30
0.0
 11
-673.828446
 21
667.092411
 31
0.0
  0
LINE
  5
7E8
100
AcDbEntity
  8
2
100
AcDbLine
 10
-676.328446
 20
662.762284
 30
0.0
 11
-678.828446
 21
664.20566
 31
0.0
  0
LINE
  5
7E9
100
AcDbEntity
  8
2
100
AcDbLine
 10
-673.828446
 20
667.092411
 30
0.0
 11
-676.328446
 21
668.535787
 31
0.0
  0
LINE
  5
7EA
100
AcDbEntity
  8
2
100
AcDbLine
 10
-673.828446
 20
664.20566
 30
0.0
 11
-676.328446
 21
662.762284
 31
0.0
  0
LINE
  5
7EB
100
AcDbEntity
  8
2
100
AcDbLine
 10
-676.328446
 20
668.535787
 30
0.0
 11
-678.828446
 21
667.092411
 31
0.0
  0
LINE
  5
7EC
100
AcDbEntity
  8
2
100
AcDbLine
 10
-678.828446
 20
489.20566
 30
0.0
 11
-678.828446
 21
492.092411
 31
0.0
  0
LINE
  5
7ED
100
AcDbEntity
  8
2
100
AcDbLine
 10
-673.828446
 20
489.20566
 30
0.0
 11
-673.828446
 21
492.092411
 31
0.0
  0
LINE
  5
7EE
100
AcDbEntity
  8
2
100
AcDbLine
 10
-676.328446
 20
487.762284
 30
0.0
 11
-678.828446
 21
489.20566
 31
0.0
  0
LINE
  5
7EF
100
AcDbEntity
  8
2
100
AcDbLine
 10
-673.828446
 20
492.092411
 30
0.0
 11
-676.328446
 21
493.535787
 31
0.0
  0
LINE
  5
7F0
100
AcDbEntity
  8
2
100
AcDbLine
 10
-673.828446
 20
489.20566
 30
0.0
 11
-676.328446
 21
487.762284
 31
0.0
  0
LINE
  5
7F1
100
AcDbEntity
  8
2
100
AcDbLine
 10
-676.328446
 20
493.535787
 30
0.0
 11
-678.828446
 21
492.092411
 31
0.0
  0
LINE
  5
7F2
100
AcDbEntity
  8
2
100
AcDbLine
 10
-803.828446
 20
660.20566
 30
0.0
 11
-803.828446
 21
663.092411
 31
0.0
  0
LINE
  5
7F3
100
AcDbEntity
  8
2
100
AcDbLine
 10
-798.828446
 20
660.20566
 30
0.0
 11
-798.828446
 21
663.092411
 31
0.0
  0
LINE
  5
7F4
100
AcDbEntity
  8
2
100
AcDbLine
 10
-801.328446
 20
658.762284
 30
0.0
 11
-803.828446
 21
660.20566
 31
0.0
  0
LINE
  5
7F5
100
AcDbEntity
  8
2
100
AcDbLine
 10
-798.828446
 20
663.092411
 30
0.0
 11
-801.328446
 21
664.535787
 31
0.0
  0
LINE
  5
7F6
100
AcDbEntity
  8
2
100
AcDbLine
 10
-798.828446
 20
660.20566
 30
0.0
 11
-801.328446
 21
658.762284
 31
0.0
  0
LINE
  5
7F7
100
AcDbEntity
  8
2
100
AcDbLine
 10
-801.328446
 20
664.535787
 30
0.0
 11
-803.828446
 21
663.092411
 31
0.0
  0
LINE
  5
7F8
100
AcDbEntity
  8
2
100
AcDbLine
 10
-808.828446
 20
574.20566
 30
0.0
 11
-808.828446
 21
577.092411
 31
0.0
  0
LINE
  5
7F9
100
AcDbEntity
  8
2
100
AcDbLine
 10
-803.828446
 20
574.20566
 30
0.0
 11
-803.828446
 21
577.092411
 31
0.0
  0
LINE
  5
7FA
100
AcDbEntity
  8
2
100
AcDbLine
 10
-806.328446
 20
572.762284
 30
0.0
 11
-808.828446
 21
574.20566
 31
0.0
  0
LINE
  5
7FB
100
AcDbEntity
  8
2
100
AcDbLine
 10
-803.828446
 20
577.092411
 30
0.0
 11
-806.328446
 21
578.535787
 31
0.0
  0
LINE
  5
7FC
100
AcDbEntity
  8
2
100
AcDbLine
 10
-803.828446
 20
574.20566
 30
0.0
 11
-806.328446
 21
572.762284
 31
0.0
  0
LINE
  5
7FD
100
AcDbEntity
  8
2
100
AcDbLine
 10
-806.328446
 20
578.535787
 30
0.0
 11
-808.828446
 21
577.092411
 31
0.0
  0
LINE
  5
7FE
100
AcDbEntity
  8
2
100
AcDbLine
 10
-808.828446
 20
495.20566
 30
0.0
 11
-808.828446
 21
498.092411
 31
0.0
  0
LINE
  5
7FF
100
AcDbEntity
  8
2
100
AcDbLine
 10
-803.828446
 20
495.20566
 30
0.0
 11
-803.828446
 21
498.092411
 31
0.0
  0
LINE
  5
800
100
AcDbEntity
  8
2
100
AcDbLine
 10
-806.328446
 20
493.762284
 30
0.0
 11
-808.828446
 21
495.20566
 31
0.0
  0
LINE
  5
801
100
AcDbEntity
  8
2
100
AcDbLine
 10
-803.828446
 20
498.092411
 30
0.0
 11
-806.328446
 21
499.535787
 31
0.0
  0
LINE
  5
802
100
AcDbEntity
  8
2
100
AcDbLine
 10
-803.828446
 20
495.20566
 30
0.0
 11
-806.328446
 21
493.762284
 31
0.0
  0
LINE
  5
803
100
AcDbEntity
  8
2
100
AcDbLine
 10
-806.328446
 20
499.535787
 30
0.0
 11
-808.828446
 21
498.092411
 31
0.0
  0
TEXT
  5
804
100
AcDbEntity
  8
2
100
AcDbText
 10
-586.908961
 20
552.635362
 30
0.0
 40
7.6
  1
Ｓ
 50
22.5
 72
     5
 11
-581.291773
 21
554.962077
 31
0.0
100
AcDbText
  0
TEXT
  5
805
100
AcDbEntity
  8
2
100
AcDbText
 10
-597.747932
 20
598.662709
 30
0.0
 40
7.6
  1
Ｓ
 50
202.5
 72
     5
 11
-603.365119
 21
596.335994
 31
0.0
100
AcDbText
  0
TEXT
  5
806
100
AcDbEntity
  8
2
100
AcDbText
 10
-586.083513
 20
247.256452
 30
0.0
 40
7.6
  1
Ｓ
 50
31.641
 72
     5
 11
-580.907295
 21
250.445992
 31
0.0
100
AcDbText
  0
TEXT
  5
807
100
AcDbEntity
  8
2
100
AcDbText
 10
-475.108027
 20
135.831242
 30
0.0
 40
9.0
  1
Ｓ
 50
253.0
 72
     5
 11
-477.213103
 21
128.945847
 31
0.0
100
AcDbText
  0
LINE
  5
808
100
AcDbEntity
  8
3
100
AcDbLine
 10
-513.728195
 20
38.849035
 30
0.0
 11
-672.828446
 21
38.849035
 31
0.0
  0
LINE
  5
809
100
AcDbEntity
  8
3
100
AcDbLine
 10
-515.828446
 20
-151.150965
 30
0.0
 11
-668.828446
 21
-151.150965
 31
0.0
  0
LINE
  5
80A
100
AcDbEntity
  8
3
100
AcDbLine
 10
21.271554
 20
38.849035
 30
0.0
 11
196.271554
 21
38.849035
 31
0.0
  0
LINE
  5
80B
100
AcDbEntity
  8
3
100
AcDbLine
 10
33.771554
 20
31.849035
 30
0.0
 11
183.771554
 21
31.849035
 31
0.0
  0
LINE
  5
80C
100
AcDbEntity
  8
3
100
AcDbLine
 10
33.771554
 20
-151.150965
 30
0.0
 11
183.771554
 21
-151.150965
 31
0.0
  0
LINE
  5
80D
100
AcDbEntity
  8
3
100
AcDbLine
 10
-515.828446
 20
-139.150965
 30
0.0
 11
-668.828446
 21
-139.150965
 31
0.0
  0
LINE
  5
80E
100
AcDbEntity
  8
3
100
AcDbLine
 10
-684.828446
 20
31.849035
 30
0.0
 11
-684.828446
 21
-135.150965
 31
0.0
  0
LINE
  5
80F
100
AcDbEntity
  8
3
100
AcDbLine
 10
-499.828446
 20
31.849035
 30
0.0
 11
-499.828446
 21
-135.150965
 31
0.0
  0
LINE
  5
810
100
AcDbEntity
  8
3
100
AcDbLine
 10
-511.828446
 20
38.482374
 30
0.0
 11
-511.828446
 21
-135.150965
 31
0.0
  0
LINE
  5
811
100
AcDbEntity
  8
3
100
AcDbLine
 10
-672.828446
 20
38.849035
 30
0.0
 11
-672.828446
 21
-135.150965
 31
0.0
  0
LINE
  5
812
100
AcDbEntity
  8
3
100
AcDbLine
 10
-511.828446
 20
23.849035
 30
0.0
 11
-672.828446
 21
23.849035
 31
0.0
  0
LINE
  5
813
100
AcDbEntity
  8
3
100
AcDbLine
 10
-684.828446
 20
31.849035
 30
0.0
 11
-672.828446
 21
31.849035
 31
0.0
  0
LINE
  5
814
100
AcDbEntity
  8
3
100
AcDbLine
 10
-511.828446
 20
31.849035
 30
0.0
 11
-499.828446
 21
31.849035
 31
0.0
  0
ARC
  5
815
100
AcDbEntity
  8
3
100
AcDbCircle
 10
-515.828446
 20
-135.150965
 30
0.0
 40
4.0
100
AcDbArc
 50
270.0
 51
360.0
  0
ARC
  5
816
100
AcDbEntity
  8
3
100
AcDbCircle
 10
-668.828446
 20
-135.150965
 30
0.0
 40
4.0
100
AcDbArc
 50
180.0
 51
270.0
  0
ARC
  5
817
100
AcDbEntity
  8
3
100
AcDbCircle
 10
-515.828446
 20
-135.150965
 30
0.0
 40
16.0
100
AcDbArc
 50
270.0
 51
360.0
  0
ARC
  5
818
100
AcDbEntity
  8
3
100
AcDbCircle
 10
-668.828446
 20
-135.150965
 30
0.0
 40
16.0
100
AcDbArc
 50
180.0
 51
270.0
  0
LINE
  5
819
100
AcDbEntity
  8
3
100
AcDbLine
 10
-511.38095
 20
38.401538
 30
0.0
 11
-504.828446
 21
31.849035
 31
0.0
  0
LINE
  5
81A
100
AcDbEntity
  8
3
100
AcDbLine
 10
-672.828446
 20
38.849035
 30
0.0
 11
-679.828446
 21
31.849035
 31
0.0
  0
LINE
  5
81B
100
AcDbEntity
  8
3
100
AcDbLine
 10
-511.828446
 20
16.849035
 30
0.0
 11
-518.828446
 21
23.849035
 31
0.0
  0
LINE
  5
81C
100
AcDbEntity
  8
3
100
AcDbLine
 10
-672.828446
 20
16.849035
 30
0.0
 11
-665.828446
 21
23.849035
 31
0.0
  0
LINE
  5
81D
100
AcDbEntity
  8
3
100
AcDbLine
 10
-523.828446
 20
38.849035
 30
0.0
 11
-523.828446
 21
23.849035
 31
0.0
  0
LINE
  5
81E
100
AcDbEntity
  8
3
100
AcDbLine
 10
-660.828446
 20
38.849035
 30
0.0
 11
-660.828446
 21
23.849035
 31
0.0
  0
LINE
  5
81F
100
AcDbEntity
  8
3
100
AcDbLine
 10
21.271554
 20
38.849035
 30
0.0
 11
21.271554
 21
23.849035
 31
0.0
  0
LINE
  5
820
100
AcDbEntity
  8
3
100
AcDbLine
 10
196.271554
 20
38.849035
 30
0.0
 11
196.271554
 21
23.849035
 31
0.0
  0
LINE
  5
821
100
AcDbEntity
  8
3
100
AcDbLine
 10
33.771554
 20
31.849035
 30
0.0
 11
33.771554
 21
-151.150965
 31
0.0
  0
LINE
  5
822
100
AcDbEntity
  8
3
100
AcDbLine
 10
183.771554
 20
31.849035
 30
0.0
 11
183.771554
 21
-151.150965
 31
0.0
  0
LINE
  5
823
100
AcDbEntity
  8
3
100
AcDbLine
 10
21.271554
 20
23.849035
 30
0.0
 11
33.771554
 21
23.849035
 31
0.0
  0
LINE
  5
824
100
AcDbEntity
  8
3
100
AcDbLine
 10
183.771554
 20
23.849035
 30
0.0
 11
196.271554
 21
23.849035
 31
0.0
  0
LINE
  5
825
100
AcDbEntity
  8
3
100
AcDbLine
 10
184.271554
 20
38.849035
 30
0.0
 11
184.271554
 21
23.849035
 31
0.0
  0
LINE
  5
826
100
AcDbEntity
  8
3
100
AcDbLine
 10
33.271554
 20
38.849035
 30
0.0
 11
33.271554
 21
23.849035
 31
0.0
  0
LINE
  5
827
100
AcDbEntity
  8
3
100
AcDbLine
 10
-561.328446
 20
-105.150965
 30
0.0
 11
-623.328446
 21
-105.150965
 31
0.0
  0
LINE
  5
828
100
AcDbEntity
  8
3
100
AcDbLine
 10
-560.328446
 20
-30.150965
 30
0.0
 11
-624.328446
 21
-30.150965
 31
0.0
  0
LINE
  5
829
100
AcDbEntity
  8
3
100
AcDbLine
 10
-624.328446
 20
-30.150965
 30
0.0
 11
-624.328446
 21
-104.150965
 31
0.0
  0
LINE
  5
82A
100
AcDbEntity
  8
3
100
AcDbLine
 10
-560.328446
 20
-30.150965
 30
0.0
 11
-560.328446
 21
-104.150965
 31
0.0
  0
LINE
  5
82B
100
AcDbEntity
  8
3
100
AcDbLine
 10
-560.328446
 20
-104.150965
 30
0.0
 11
-561.328446
 21
-105.150965
 31
0.0
  0
LINE
  5
82C
100
AcDbEntity
  8
3
100
AcDbLine
 10
-623.328446
 20
-105.150965
 30
0.0
 11
-624.328446
 21
-104.150965
 31
0.0
  0
LINE
  5
82D
100
AcDbEntity
  8
3
100
AcDbLine
 10
-560.328446
 20
-104.150965
 30
0.0
 11
-624.328446
 21
-104.150965
 31
0.0
  0
LINE
  5
82E
100
AcDbEntity
  8
3
100
AcDbLine
 10
-571.328446
 20
-25.150965
 30
0.0
 11
-571.328446
 21
23.849035
 31
0.0
  0
LINE
  5
82F
100
AcDbEntity
  8
3
100
AcDbLine
 10
-613.328446
 20
-25.150965
 30
0.0
 11
-613.328446
 21
23.849035
 31
0.0
  0
LINE
  5
830
100
AcDbEntity
  8
3
100
AcDbLine
 10
-571.328446
 20
-25.150965
 30
0.0
 11
-566.328446
 21
-30.150965
 31
0.0
  0
LINE
  5
831
100
AcDbEntity
  8
3
100
AcDbLine
 10
-613.328446
 20
-25.150965
 30
0.0
 11
-618.328446
 21
-30.150965
 31
0.0
  0
LINE
  5
832
100
AcDbEntity
  8
3
100
AcDbLine
 10
-571.328446
 20
-25.150965
 30
0.0
 11
-613.328446
 21
-25.150965
 31
0.0
  0
DIMENSION
  5
833
100
AcDbEntity
  8
5
100
AcDbDimension
  2
*D0
 10
-203.550545
 20
36.849035
 30
0.0
 11
-234.270544
 21
128.929035
 31
0.0
 70
     1
  1
%%c200
100
AcDbAlignedDimension
 13
-122.720487
 23
236.849035
 33
0.0
 14
-122.720487
 24
36.849035
 34
0.0
 50
90.0
  0
DIMENSION
  5
834
100
AcDbEntity
  8
5
100
AcDbDimension
  2
*D1
 10
-427.328446
 20
747.525604
 30
0.0
 11
-509.828446
 21
760.425604
 31
0.0
  1
165
100
AcDbAlignedDimension
 13
-592.328446
 23
712.897562
 33
0.0
 14
-427.328446
 24
484.649035
 34
0.0
100
AcDbRotatedDimension
  0
DIMENSION
  5
835
100
AcDbEntity
  8
5
100
AcDbDimension
  2
*D2
 10
-592.328446
 20
747.525604
 30
0.0
 11
-703.828446
 21
760.425604
 31
0.0
  1
223
100
AcDbAlignedDimension
 13
-815.328446
 23
660.649035
 33
0.0
 14
-592.328446
 24
712.897562
 34
0.0
100
AcDbRotatedDimension
  0
DIMENSION
  5
836
100
AcDbEntity
  8
5
100
AcDbDimension
  2
*D3
 10
312.278824
 20
38.849035
 30
0.0
 11
288.488824
 21
-57.140965
 31
0.0
  1
190
100
AcDbAlignedDimension
 13
183.771554
 23
-151.150965
 33
0.0
 14
196.271554
 24
38.849035
 34
0.0
 50
90.0
100
AcDbRotatedDimension
  0
DIMENSION
  5
837
100
AcDbEntity
  8
5
100
AcDbDimension
  2
*D4
 10
312.278824
 20
268.849035
 30
0.0
 11
288.488824
 21
152.859035
 31
0.0
  1
230
100
AcDbAlignedDimension
 13
196.271554
 23
38.849035
 33
0.0
 14
108.771554
 24
268.849035
 34
0.0
 50
90.0
100
AcDbRotatedDimension
  0
DIMENSION
  5
838
100
AcDbEntity
  8
5
100
AcDbDimension
  2
*D5
 10
312.278824
 20
-151.150965
 30
0.0
 11
288.488824
 21
-307.140965
 31
0.0
  1
310
100
AcDbAlignedDimension
 13
189.892464
 23
-461.150965
 33
0.0
 14
183.771554
 24
-151.150965
 34
0.0
 50
90.0
100
AcDbRotatedDimension
  0
DIMENSION
  5
839
100
AcDbEntity
  8
5
100
AcDbDimension
  2
*D6
 10
312.278824
 20
-461.150965
 30
0.0
 11
288.488824
 21
-584.890965
 31
0.0
  1
246
100
AcDbAlignedDimension
 13
136.271554
 23
-706.650965
 33
0.0
 14
189.892464
 24
-461.150965
 34
0.0
 50
90.0
100
AcDbRotatedDimension
  0
DIMENSION
  5
83A
100
AcDbEntity
  8
5
100
AcDbDimension
  2
*D7
 10
108.771554
 20
-752.473389
 30
0.0
 11
45.911554
 21
-739.573389
 31
0.0
  1
34
100
AcDbAlignedDimension
 13
74.771554
 23
-645.150965
 33
0.0
 14
108.771554
 24
-733.493906
 34
0.0
100
AcDbRotatedDimension
  0
DIMENSION
  5
83B
100
AcDbEntity
  8
5
100
AcDbDimension
  2
*D8
 10
154.771554
 20
-799.449463
 30
0.0
 11
114.771554
 21
-786.549463
 31
0.0
  1
80
100
AcDbAlignedDimension
 13
74.771554
 23
-645.150965
 33
0.0
 14
154.771554
 24
-645.150965
 34
0.0
100
AcDbRotatedDimension
  0
DIMENSION
  5
83C
100
AcDbEntity
  8
5
100
AcDbDimension
  2
*D9
 10
-309.322151
 20
711.649035
 30
0.0
 11
-333.112151
 21
642.659035
 31
0.0
  1
136
100
AcDbAlignedDimension
 13
-349.880097
 23
575.649035
 33
0.0
 14
-535.410946
 24
711.649035
 34
0.0
 50
90.0
100
AcDbRotatedDimension
  0
DIMENSION
  5
83D
100
AcDbEntity
  8
5
100
AcDbDimension
  2
*D10
 10
-309.322151
 20
575.649035
 30
0.0
 11
-346.972151
 21
438.049035
 31
0.0
  1
245.5
100
AcDbAlignedDimension
 13
-459.273357
 23
330.149035
 33
0.0
 14
-349.880097
 24
575.649035
 34
0.0
 50
90.0
100
AcDbRotatedDimension
  0
TEXT
  5
83E
100
AcDbEntity
  8
5
100
AcDbText
 10
578.571625
 20
373.413712
 30
0.0
 40
30.0
  1
駆動部・・・４Ｉ－３型 
 72
     5
 11
902.571625
 21
373.413712
 31
0.0
100
AcDbText
  0
LINE
  5
83F
100
AcDbEntity
  8
18
100
AcDbLine
 10
352.771554
 20
-461.150965
 30
0.0
 11
532.771554
 21
-461.150965
 31
0.0
  0
LINE
  5
840
100
AcDbEntity
  8
18
100
AcDbLine
 10
352.771554
 20
-461.150965
 30
0.0
 11
412.771554
 21
-445.074013
 31
0.0
  0
LINE
  5
841
100
AcDbEntity
  8
18
100
AcDbLine
 10
412.771554
 20
-445.074013
 30
0.0
 11
412.771554
 21
-477.227916
 31
0.0
  0
LINE
  5
842
100
AcDbEntity
  8
18
100
AcDbLine
 10
352.771554
 20
-461.150965
 30
0.0
 11
412.771554
 21
-477.227916
 31
0.0
  0
LINE
  5
843
100
AcDbEntity
  8
18
100
AcDbLine
 10
412.042007
 20
690.555588
 30
0.0
 11
412.042007
 21
480.555588
 31
0.0
  0
LINE
  5
844
100
AcDbEntity
  8
18
100
AcDbLine
 10
1084.042007
 20
540.555588
 30
0.0
 11
412.042007
 21
540.555588
 31
0.0
  0
LINE
  5
845
100
AcDbEntity
  8
18
100
AcDbLine
 10
1084.042007
 20
510.555588
 30
0.0
 11
412.042007
 21
510.555588
 31
0.0
  0
LINE
  5
846
100
AcDbEntity
  8
18
100
AcDbLine
 10
1084.042007
 20
480.555588
 30
0.0
 11
412.042007
 21
480.555588
 31
0.0
  0
LINE
  5
847
100
AcDbEntity
  8
18
100
AcDbLine
 10
580.042007
 20
690.555588
 30
0.0
 11
580.042007
 21
510.555588
 31
0.0
  0
LINE
  5
848
100
AcDbEntity
  8
18
100
AcDbLine
 10
748.042007
 20
690.555588
 30
0.0
 11
748.042007
 21
510.555588
 31
0.0
  0
LINE
  5
849
100
AcDbEntity
  8
18
100
AcDbLine
 10
916.042007
 20
690.555588
 30
0.0
 11
916.042007
 21
510.555588
 31
0.0
  0
LINE
  5
84A
100
AcDbEntity
  8
18
100
AcDbLine
 10
1084.042007
 20
690.555588
 30
0.0
 11
1084.042007
 21
480.555588
 31
0.0
  0
LINE
  5
84B
100
AcDbEntity
  8
18
100
AcDbLine
 10
412.042007
 20
690.555588
 30
0.0
 11
1084.042007
 21
690.555588
 31
0.0
  0
POLYLINE
  5
84C
100
AcDbEntity
  8
18
 62
     2
100
AcDb2dPolyline
 66
     1
 10
0.0
 20
0.0
 30
0.0
  0
VERTEX
  5
97F
100
AcDbEntity
  8
18
 62
     2
100
AcDbVertex
100
AcDb2dVertex
 10
489.860973
 20
629.043182
 30
0.0
  0
VERTEX
  5
980
100
AcDbEntity
  8
18
 62
     2
100
AcDbVertex
100
AcDb2dVertex
 10
489.860973
 20
656.271338
 30
0.0
  0
SEQEND
  5
981
100
AcDbEntity
  8
18
 62
     2
  0
LINE
  5
850
100
AcDbEntity
  8
18
 62
     2
100
AcDbLine
 10
489.860973
 20
640.634292
 30
0.0
 11
486.755145
 21
640.634292
 31
0.0
  0
LINE
  5
851
100
AcDbEntity
  8
18
 62
     2
100
AcDbLine
 10
486.755145
 20
640.634292
 30
0.0
 11
489.860973
 21
629.043182
 31
0.0
  0
LINE
  5
852
100
AcDbEntity
  8
18
 62
     2
100
AcDbLine
 10
489.860973
 20
629.043182
 30
0.0
 11
492.966802
 21
640.634292
 31
0.0
  0
LINE
  5
853
100
AcDbEntity
  8
18
 62
     2
100
AcDbLine
 10
492.966802
 20
640.634292
 30
0.0
 11
489.860973
 21
640.634292
 31
0.0
  0
LINE
  5
854
100
AcDbEntity
  8
18
  6
CENTER
 62
     2
100
AcDbLine
 10
540.640166
 20
589.945725
 30
0.0
 11
435.028162
 21
589.945725
 31
0.0
  0
LINE
  5
855
100
AcDbEntity
  8
18
  6
CENTER
 62
     2
100
AcDbLine
 10
489.044956
 20
562.669163
 30
0.0
 11
489.044956
 21
620.511834
 31
0.0
  0
LINE
  5
856
100
AcDbEntity
  8
18
100
AcDbLine
 10
531.284956
 20
571.465725
 30
0.0
 11
452.084956
 21
571.465725
 31
0.0
  0
LINE
  5
857
100
AcDbEntity
  8
18
100
AcDbLine
 10
531.284956
 20
608.425725
 30
0.0
 11
452.084956
 21
608.425725
 31
0.0
  0
LINE
  5
858
100
AcDbEntity
  8
18
100
AcDbLine
 10
531.284956
 20
571.465725
 30
0.0
 11
531.284956
 21
613.705725
 31
0.0
  0
LINE
  5
859
100
AcDbEntity
  8
18
100
AcDbLine
 10
457.364956
 20
571.465725
 30
0.0
 11
457.364956
 21
608.425725
 31
0.0
  0
LINE
  5
85A
100
AcDbEntity
  8
18
100
AcDbLine
 10
531.284956
 20
613.705725
 30
0.0
 11
460.884956
 21
613.705725
 31
0.0
  0
LINE
  5
85B
100
AcDbEntity
  8
18
100
AcDbLine
 10
452.084956
 20
571.465725
 30
0.0
 11
452.084956
 21
608.425725
 31
0.0
  0
LINE
  5
85C
100
AcDbEntity
  8
18
100
AcDbLine
 10
460.884956
 20
608.425725
 30
0.0
 11
460.884956
 21
613.705725
 31
0.0
  0
LINE
  5
85D
100
AcDbEntity
  8
18
100
AcDbLine
 10
507.524956
 20
574.105725
 30
0.0
 11
507.524956
 21
605.785725
 31
0.0
  0
LINE
  5
85E
100
AcDbEntity
  8
18
100
AcDbLine
 10
462.644956
 20
574.105725
 30
0.0
 11
462.644956
 21
605.785725
 31
0.0
  0
LINE
  5
85F
100
AcDbEntity
  8
18
100
AcDbLine
 10
507.524956
 20
574.105725
 30
0.0
 11
462.644956
 21
574.105725
 31
0.0
  0
LINE
  5
860
100
AcDbEntity
  8
18
100
AcDbLine
 10
507.524956
 20
605.785725
 30
0.0
 11
462.644956
 21
605.785725
 31
0.0
  0
CIRCLE
  5
861
100
AcDbEntity
  8
18
100
AcDbCircle
 10
489.044956
 20
589.945725
 30
0.0
 40
6.336
  0
LINE
  5
862
100
AcDbEntity
  8
18
  6
DASHED
100
AcDbLine
 10
518.084956
 20
579.385725
 30
0.0
 11
460.004956
 21
579.385725
 31
0.0
  0
LINE
  5
863
100
AcDbEntity
  8
18
  6
DASHED
100
AcDbLine
 10
518.084956
 20
600.505725
 30
0.0
 11
460.004956
 21
600.505725
 31
0.0
  0
LINE
  5
864
100
AcDbEntity
  8
18
  6
DASHED
100
AcDbLine
 10
460.004956
 20
579.385725
 30
0.0
 11
460.004956
 21
600.505725
 31
0.0
  0
LINE
  5
865
100
AcDbEntity
  8
18
  6
DASHED
100
AcDbLine
 10
518.084956
 20
579.385725
 30
0.0
 11
518.084956
 21
600.505725
 31
0.0
  0
LINE
  5
866
100
AcDbEntity
  8
18
  6
CENTER
 62
     2
100
AcDbLine
 10
474.964956
 20
610.938642
 30
0.0
 11
474.964956
 21
633.703657
 31
0.0
  0
LINE
  5
867
100
AcDbEntity
  8
18
100
AcDbLine
 10
474.965271
 20
621.625725
 30
0.0
 11
485.297916
 21
621.625725
 31
0.0
  0
LINE
  5
868
100
AcDbEntity
  8
18
100
AcDbLine
 10
485.297916
 20
621.625725
 30
0.0
 11
485.297916
 21
624.265725
 31
0.0
  0
LINE
  5
869
100
AcDbEntity
  8
18
100
AcDbLine
 10
474.965271
 20
624.265725
 30
0.0
 11
485.297916
 21
624.265725
 31
0.0
  0
LINE
  5
86A
100
AcDbEntity
  8
18
100
AcDbLine
 10
464.632626
 20
621.625725
 30
0.0
 11
464.632626
 21
624.265725
 31
0.0
  0
LINE
  5
86B
100
AcDbEntity
  8
18
100
AcDbLine
 10
483.408941
 20
613.705725
 30
0.0
 11
479.715785
 21
621.625725
 31
0.0
  0
LINE
  5
86C
100
AcDbEntity
  8
18
100
AcDbLine
 10
466.521601
 20
613.705725
 30
0.0
 11
470.214758
 21
621.625725
 31
0.0
  0
LINE
  5
86D
100
AcDbEntity
  8
18
100
AcDbLine
 10
474.965271
 20
621.625725
 30
0.0
 11
464.632626
 21
621.625725
 31
0.0
  0
LINE
  5
86E
100
AcDbEntity
  8
18
100
AcDbLine
 10
474.965271
 20
624.265725
 30
0.0
 11
464.632626
 21
624.265725
 31
0.0
  0
LINE
  5
86F
100
AcDbEntity
  8
18
  6
CENTER
 62
     2
100
AcDbLine
 10
629.138948
 20
609.941807
 30
0.0
 11
703.722604
 21
609.941807
 31
0.0
  0
LINE
  5
870
100
AcDbEntity
  8
18
100
AcDbLine
 10
695.722007
 20
624.022122
 30
0.0
 11
695.722007
 21
634.354767
 31
0.0
  0
LINE
  5
871
100
AcDbEntity
  8
18
100
AcDbLine
 10
695.722007
 20
634.354767
 30
0.0
 11
698.362007
 21
634.354767
 31
0.0
  0
LINE
  5
872
100
AcDbEntity
  8
18
100
AcDbLine
 10
698.362007
 20
624.022122
 30
0.0
 11
698.362007
 21
634.354767
 31
0.0
  0
LINE
  5
873
100
AcDbEntity
  8
18
100
AcDbLine
 10
695.722007
 20
613.689477
 30
0.0
 11
698.362007
 21
613.689477
 31
0.0
  0
LINE
  5
874
100
AcDbEntity
  8
18
  6
CENTER
 62
     2
100
AcDbLine
 10
664.042007
 20
654.35054
 30
0.0
 11
664.042007
 21
561.414445
 31
0.0
  0
LINE
  5
875
100
AcDbEntity
  8
18
100
AcDbLine
 10
645.562007
 20
567.701807
 30
0.0
 11
645.562007
 21
646.901807
 31
0.0
  0
LINE
  5
876
100
AcDbEntity
  8
18
100
AcDbLine
 10
682.522007
 20
567.701807
 30
0.0
 11
682.522007
 21
646.901807
 31
0.0
  0
LINE
  5
877
100
AcDbEntity
  8
18
100
AcDbLine
 10
645.562007
 20
567.701807
 30
0.0
 11
687.802007
 21
567.701807
 31
0.0
  0
LINE
  5
878
100
AcDbEntity
  8
18
100
AcDbLine
 10
645.562007
 20
641.621807
 30
0.0
 11
682.522007
 21
641.621807
 31
0.0
  0
LINE
  5
879
100
AcDbEntity
  8
18
100
AcDbLine
 10
687.802007
 20
567.701807
 30
0.0
 11
687.802007
 21
638.101807
 31
0.0
  0
LINE
  5
87A
100
AcDbEntity
  8
18
100
AcDbLine
 10
645.562007
 20
646.901807
 30
0.0
 11
682.522007
 21
646.901807
 31
0.0
  0
LINE
  5
87B
100
AcDbEntity
  8
18
100
AcDbLine
 10
682.522007
 20
638.101807
 30
0.0
 11
687.802007
 21
638.101807
 31
0.0
  0
LINE
  5
87C
100
AcDbEntity
  8
18
100
AcDbLine
 10
648.202007
 20
591.461807
 30
0.0
 11
679.882007
 21
591.461807
 31
0.0
  0
LINE
  5
87D
100
AcDbEntity
  8
18
100
AcDbLine
 10
648.202007
 20
636.341807
 30
0.0
 11
679.882007
 21
636.341807
 31
0.0
  0
LINE
  5
87E
100
AcDbEntity
  8
18
100
AcDbLine
 10
648.202007
 20
591.461807
 30
0.0
 11
648.202007
 21
636.341807
 31
0.0
  0
LINE
  5
87F
100
AcDbEntity
  8
18
100
AcDbLine
 10
679.882007
 20
591.461807
 30
0.0
 11
679.882007
 21
636.341807
 31
0.0
  0
CIRCLE
  5
880
100
AcDbEntity
  8
18
100
AcDbCircle
 10
664.042007
 20
609.941807
 30
0.0
 40
6.336
  0
LINE
  5
881
100
AcDbEntity
  8
18
100
AcDbLine
 10
635.002007
 20
620.501807
 30
0.0
 11
635.002007
 21
599.381807
 31
0.0
  0
LINE
  5
882
100
AcDbEntity
  8
18
  6
CENTER
 62
     2
100
AcDbLine
 10
685.034924
 20
624.021807
 30
0.0
 11
709.335263
 21
624.021807
 31
0.0
  0
LINE
  5
883
100
AcDbEntity
  8
18
100
AcDbLine
 10
635.002007
 20
620.501807
 30
0.0
 11
645.562007
 21
620.501807
 31
0.0
  0
LINE
  5
884
100
AcDbEntity
  8
18
100
AcDbLine
 10
687.802007
 20
599.381807
 30
0.0
 11
693.082007
 21
599.381807
 31
0.0
  0
LINE
  5
885
100
AcDbEntity
  8
18
100
AcDbLine
 10
635.002007
 20
599.381807
 30
0.0
 11
645.562007
 21
599.381807
 31
0.0
  0
LINE
  5
886
100
AcDbEntity
  8
18
  6
DASHED
100
AcDbLine
 10
645.562007
 20
599.381807
 30
0.0
 11
687.802007
 21
599.381807
 31
0.0
  0
LINE
  5
887
100
AcDbEntity
  8
18
100
AcDbLine
 10
693.082007
 20
611.049162
 30
0.0
 11
693.082007
 21
599.381807
 31
0.0
  0
LINE
  5
888
100
AcDbEntity
  8
18
  6
DASHED
100
AcDbLine
 10
645.562007
 20
620.501807
 30
0.0
 11
687.802007
 21
620.501807
 31
0.0
  0
LINE
  5
889
100
AcDbEntity
  8
18
  6
DASHED
100
AcDbLine
 10
687.802007
 20
620.501807
 30
0.0
 11
692.370017
 21
620.501807
 31
0.0
  0
LINE
  5
88A
100
AcDbEntity
  8
18
  6
DASHED
100
AcDbLine
 10
692.370017
 20
620.501807
 30
0.0
 11
693.082007
 21
620.501807
 31
0.0
  0
LINE
  5
88B
100
AcDbEntity
  8
18
100
AcDbLine
 10
687.802007
 20
632.465792
 30
0.0
 11
695.722007
 21
628.772635
 31
0.0
  0
LINE
  5
88C
100
AcDbEntity
  8
18
100
AcDbLine
 10
687.802007
 20
615.578451
 30
0.0
 11
695.722007
 21
619.271608
 31
0.0
  0
LINE
  5
88D
100
AcDbEntity
  8
18
100
AcDbLine
 10
695.722007
 20
624.022122
 30
0.0
 11
695.722007
 21
613.689477
 31
0.0
  0
LINE
  5
88E
100
AcDbEntity
  8
18
100
AcDbLine
 10
698.362007
 20
624.022122
 30
0.0
 11
698.362007
 21
613.689477
 31
0.0
  0
LINE
  5
88F
100
AcDbEntity
  8
18
  6
DASHED
100
AcDbLine
 10
693.082007
 20
620.501807
 30
0.0
 11
693.082007
 21
618.040556
 31
0.0
  0
LINE
  5
890
100
AcDbEntity
  8
18
100
AcDbLine
 10
693.082007
 20
618.920556
 30
0.0
 11
693.082007
 21
618.856782
 31
0.0
  0
LINE
  5
891
100
AcDbEntity
  8
18
100
AcDbLine
 10
693.082007
 20
618.040556
 30
0.0
 11
693.082007
 21
610.334407
 31
0.0
  0
LINE
  5
892
100
AcDbEntity
  8
18
  6
CENTER
 62
     2
100
AcDbLine
 10
780.446797
 20
609.941807
 30
0.0
 11
886.058802
 21
609.941807
 31
0.0
  0
LINE
  5
893
100
AcDbEntity
  8
18
  6
CENTER
 62
     2
100
AcDbLine
 10
832.042007
 20
637.218369
 30
0.0
 11
832.042007
 21
579.375698
 31
0.0
  0
LINE
  5
894
100
AcDbEntity
  8
18
100
AcDbLine
 10
789.802007
 20
628.421807
 30
0.0
 11
869.002007
 21
628.421807
 31
0.0
  0
LINE
  5
895
100
AcDbEntity
  8
18
100
AcDbLine
 10
789.802007
 20
591.461807
 30
0.0
 11
869.002007
 21
591.461807
 31
0.0
  0
LINE
  5
896
100
AcDbEntity
  8
18
100
AcDbLine
 10
789.802007
 20
628.421807
 30
0.0
 11
789.802007
 21
586.181807
 31
0.0
  0
LINE
  5
897
100
AcDbEntity
  8
18
100
AcDbLine
 10
863.722007
 20
628.421807
 30
0.0
 11
863.722007
 21
591.461807
 31
0.0
  0
LINE
  5
898
100
AcDbEntity
  8
18
100
AcDbLine
 10
789.802007
 20
586.181807
 30
0.0
 11
860.202007
 21
586.181807
 31
0.0
  0
LINE
  5
899
100
AcDbEntity
  8
18
100
AcDbLine
 10
869.002007
 20
628.421807
 30
0.0
 11
869.002007
 21
591.461807
 31
0.0
  0
LINE
  5
89A
100
AcDbEntity
  8
18
100
AcDbLine
 10
860.202007
 20
591.461807
 30
0.0
 11
860.202007
 21
586.181807
 31
0.0
  0
LINE
  5
89B
100
AcDbEntity
  8
18
100
AcDbLine
 10
813.562007
 20
625.781807
 30
0.0
 11
813.562007
 21
594.101807
 31
0.0
  0
LINE
  5
89C
100
AcDbEntity
  8
18
100
AcDbLine
 10
858.442007
 20
625.781807
 30
0.0
 11
858.442007
 21
594.101807
 31
0.0
  0
LINE
  5
89D
100
AcDbEntity
  8
18
100
AcDbLine
 10
813.562007
 20
625.781807
 30
0.0
 11
858.442007
 21
625.781807
 31
0.0
  0
LINE
  5
89E
100
AcDbEntity
  8
18
100
AcDbLine
 10
813.562007
 20
594.101807
 30
0.0
 11
858.442007
 21
594.101807
 31
0.0
  0
CIRCLE
  5
89F
100
AcDbEntity
  8
18
100
AcDbCircle
 10
832.042007
 20
609.941807
 30
0.0
 40
6.336
  0
LINE
  5
8A0
100
AcDbEntity
  8
18
  6
DASHED
100
AcDbLine
 10
803.002007
 20
620.501807
 30
0.0
 11
861.082007
 21
620.501807
 31
0.0
  0
LINE
  5
8A1
100
AcDbEntity
  8
18
  6
DASHED
100
AcDbLine
 10
803.002007
 20
599.381807
 30
0.0
 11
861.082007
 21
599.381807
 31
0.0
  0
LINE
  5
8A2
100
AcDbEntity
  8
18
  6
DASHED
100
AcDbLine
 10
861.082007
 20
620.501807
 30
0.0
 11
861.082007
 21
599.381807
 31
0.0
  0
LINE
  5
8A3
100
AcDbEntity
  8
18
  6
DASHED
100
AcDbLine
 10
803.002007
 20
620.501807
 30
0.0
 11
803.002007
 21
599.381807
 31
0.0
  0
LINE
  5
8A4
100
AcDbEntity
  8
18
  6
CENTER
 62
     2
100
AcDbLine
 10
846.122007
 20
588.94889
 30
0.0
 11
846.122007
 21
566.183875
 31
0.0
  0
LINE
  5
8A5
100
AcDbEntity
  8
18
100
AcDbLine
 10
846.121692
 20
578.261807
 30
0.0
 11
835.789047
 21
578.261807
 31
0.0
  0
LINE
  5
8A6
100
AcDbEntity
  8
18
100
AcDbLine
 10
835.789047
 20
578.261807
 30
0.0
 11
835.789047
 21
575.621807
 31
0.0
  0
LINE
  5
8A7
100
AcDbEntity
  8
18
100
AcDbLine
 10
846.121692
 20
575.621807
 30
0.0
 11
835.789047
 21
575.621807
 31
0.0
  0
LINE
  5
8A8
100
AcDbEntity
  8
18
100
AcDbLine
 10
856.454337
 20
578.261807
 30
0.0
 11
856.454337
 21
575.621807
 31
0.0
  0
LINE
  5
8A9
100
AcDbEntity
  8
18
100
AcDbLine
 10
837.678022
 20
586.181807
 30
0.0
 11
841.371179
 21
578.261807
 31
0.0
  0
LINE
  5
8AA
100
AcDbEntity
  8
18
100
AcDbLine
 10
854.565363
 20
586.181807
 30
0.0
 11
850.872206
 21
578.261807
 31
0.0
  0
LINE
  5
8AB
100
AcDbEntity
  8
18
100
AcDbLine
 10
846.121692
 20
578.261807
 30
0.0
 11
856.454337
 21
578.261807
 31
0.0
  0
LINE
  5
8AC
100
AcDbEntity
  8
18
100
AcDbLine
 10
846.121692
 20
575.621807
 30
0.0
 11
856.454337
 21
575.621807
 31
0.0
  0
LINE
  5
8AD
100
AcDbEntity
  8
18
  6
CENTER
 62
     2
100
AcDbLine
 10
1034.945067
 20
609.941807
 30
0.0
 11
960.361411
 21
609.941807
 31
0.0
  0
LINE
  5
8AE
100
AcDbEntity
  8
18
100
AcDbLine
 10
968.362007
 20
595.861492
 30
0.0
 11
968.362007
 21
585.528847
 31
0.0
  0
LINE
  5
8AF
100
AcDbEntity
  8
18
100
AcDbLine
 10
968.362007
 20
585.528847
 30
0.0
 11
965.722007
 21
585.528847
 31
0.0
  0
LINE
  5
8B0
100
AcDbEntity
  8
18
100
AcDbLine
 10
965.722007
 20
595.861492
 30
0.0
 11
965.722007
 21
585.528847
 31
0.0
  0
LINE
  5
8B1
100
AcDbEntity
  8
18
100
AcDbLine
 10
968.362007
 20
606.194137
 30
0.0
 11
965.722007
 21
606.194137
 31
0.0
  0
LINE
  5
8B2
100
AcDbEntity
  8
18
  6
CENTER
 62
     2
100
AcDbLine
 10
1000.042007
 20
565.533073
 30
0.0
 11
1000.042007
 21
658.469169
 31
0.0
  0
LINE
  5
8B3
100
AcDbEntity
  8
18
100
AcDbLine
 10
1018.522007
 20
652.181807
 30
0.0
 11
1018.522007
 21
572.981807
 31
0.0
  0
LINE
  5
8B4
100
AcDbEntity
  8
18
100
AcDbLine
 10
981.562007
 20
652.181807
 30
0.0
 11
981.562007
 21
572.981807
 31
0.0
  0
LINE
  5
8B5
100
AcDbEntity
  8
18
100
AcDbLine
 10
1018.522007
 20
652.181807
 30
0.0
 11
976.282007
 21
652.181807
 31
0.0
  0
LINE
  5
8B6
100
AcDbEntity
  8
18
100
AcDbLine
 10
1018.522007
 20
578.261807
 30
0.0
 11
981.562007
 21
578.261807
 31
0.0
  0
LINE
  5
8B7
100
AcDbEntity
  8
18
100
AcDbLine
 10
976.282007
 20
652.181807
 30
0.0
 11
976.282007
 21
581.781807
 31
0.0
  0
LINE
  5
8B8
100
AcDbEntity
  8
18
100
AcDbLine
 10
1018.522007
 20
572.981807
 30
0.0
 11
981.562007
 21
572.981807
 31
0.0
  0
LINE
  5
8B9
100
AcDbEntity
  8
18
100
AcDbLine
 10
981.562007
 20
581.781807
 30
0.0
 11
976.282007
 21
581.781807
 31
0.0
  0
LINE
  5
8BA
100
AcDbEntity
  8
18
100
AcDbLine
 10
1015.882007
 20
628.421807
 30
0.0
 11
984.202007
 21
628.421807
 31
0.0
  0
LINE
  5
8BB
100
AcDbEntity
  8
18
100
AcDbLine
 10
1015.882007
 20
583.541807
 30
0.0
 11
984.202007
 21
583.541807
 31
0.0
  0
LINE
  5
8BC
100
AcDbEntity
  8
18
100
AcDbLine
 10
1015.882007
 20
628.421807
 30
0.0
 11
1015.882007
 21
583.541807
 31
0.0
  0
LINE
  5
8BD
100
AcDbEntity
  8
18
100
AcDbLine
 10
984.202007
 20
628.421807
 30
0.0
 11
984.202007
 21
583.541807
 31
0.0
  0
CIRCLE
  5
8BE
100
AcDbEntity
  8
18
100
AcDbCircle
 10
1000.042007
 20
609.941807
 30
0.0
 40
6.336
  0
LINE
  5
8BF
100
AcDbEntity
  8
18
100
AcDbLine
 10
1029.082007
 20
599.381807
 30
0.0
 11
1029.082007
 21
620.501807
 31
0.0
  0
LINE
  5
8C0
100
AcDbEntity
  8
18
  6
CENTER
 62
     2
100
AcDbLine
 10
979.049091
 20
595.861807
 30
0.0
 11
954.748752
 21
595.861807
 31
0.0
  0
LINE
  5
8C1
100
AcDbEntity
  8
18
100
AcDbLine
 10
1029.082007
 20
599.381807
 30
0.0
 11
1018.522007
 21
599.381807
 31
0.0
  0
LINE
  5
8C2
100
AcDbEntity
  8
18
100
AcDbLine
 10
976.282007
 20
620.501807
 30
0.0
 11
971.002007
 21
620.501807
 31
0.0
  0
LINE
  5
8C3
100
AcDbEntity
  8
18
100
AcDbLine
 10
1029.082007
 20
620.501807
 30
0.0
 11
1018.522007
 21
620.501807
 31
0.0
  0
LINE
  5
8C4
100
AcDbEntity
  8
18
  6
DASHED
100
AcDbLine
 10
1018.522007
 20
620.501807
 30
0.0
 11
976.282007
 21
620.501807
 31
0.0
  0
LINE
  5
8C5
100
AcDbEntity
  8
18
100
AcDbLine
 10
971.002007
 20
608.834452
 30
0.0
 11
971.002007
 21
620.501807
 31
0.0
  0
LINE
  5
8C6
100
AcDbEntity
  8
18
  6
DASHED
100
AcDbLine
 10
1018.522007
 20
599.381807
 30
0.0
 11
976.282007
 21
599.381807
 31
0.0
  0
LINE
  5
8C7
100
AcDbEntity
  8
18
  6
DASHED
100
AcDbLine
 10
976.282007
 20
599.381807
 30
0.0
 11
971.713998
 21
599.381807
 31
0.0
  0
LINE
  5
8C8
100
AcDbEntity
  8
18
  6
DASHED
100
AcDbLine
 10
971.713998
 20
599.381807
 30
0.0
 11
971.002007
 21
599.381807
 31
0.0
  0
LINE
  5
8C9
100
AcDbEntity
  8
18
100
AcDbLine
 10
976.282007
 20
587.417821
 30
0.0
 11
968.362007
 21
591.110978
 31
0.0
  0
LINE
  5
8CA
100
AcDbEntity
  8
18
100
AcDbLine
 10
976.282007
 20
604.305162
 30
0.0
 11
968.362007
 21
600.612005
 31
0.0
  0
LINE
  5
8CB
100
AcDbEntity
  8
18
100
AcDbLine
 10
968.362007
 20
595.861492
 30
0.0
 11
968.362007
 21
606.194137
 31
0.0
  0
LINE
  5
8CC
100
AcDbEntity
  8
18
100
AcDbLine
 10
965.722007
 20
595.861492
 30
0.0
 11
965.722007
 21
606.194137
 31
0.0
  0
LINE
  5
8CD
100
AcDbEntity
  8
18
  6
DASHED
100
AcDbLine
 10
971.002007
 20
599.381807
 30
0.0
 11
971.002007
 21
601.843057
 31
0.0
  0
LINE
  5
8CE
100
AcDbEntity
  8
18
100
AcDbLine
 10
971.002007
 20
600.963057
 30
0.0
 11
971.002007
 21
601.026832
 31
0.0
  0
LINE
  5
8CF
100
AcDbEntity
  8
18
100
AcDbLine
 10
971.002007
 20
601.843057
 30
0.0
 11
971.002007
 21
609.549207
 31
0.0
  0
TEXT
  5
8D0
100
AcDbEntity
  8
18
100
AcDbText
 10
733.794754
 20
-799.63147
 30
0.0
 40
18.0
  1
１
 72
     5
 11
748.194754
 21
-799.63147
 31
0.0
100
AcDbText
  0
TEXT
  5
8D1
100
AcDbEntity
  8
18
100
AcDbText
 10
428.83046
 20
-450.665085
 30
0.0
 40
30.0
  1
高圧側
 72
     5
 11
512.83046
 21
-450.665085
 31
0.0
100
AcDbText
  0
TEXT
  5
8D2
100
AcDbEntity
  8
18
100
AcDbText
 10
484.826431
 20
517.622864
 30
0.0
 40
18.0
  1
Ａ
 72
     5
 11
499.226431
 21
517.622864
 31
0.0
100
AcDbText
  0
TEXT
  5
8D3
100
AcDbEntity
  8
18
100
AcDbText
 10
652.754745
 20
517.141937
 30
0.0
 40
18.0
  1
Ｂ
 72
     5
 11
667.154745
 21
517.141937
 31
0.0
100
AcDbText
  0
TEXT
  5
8D4
100
AcDbEntity
  8
18
100
AcDbText
 10
820.826431
 20
517.622864
 30
0.0
 40
18.0
  1
Ｃ
 72
     5
 11
835.226431
 21
517.622864
 31
0.0
100
AcDbText
  0
TEXT
  5
8D5
100
AcDbEntity
  8
18
100
AcDbText
 10
651.792938
 20
486.981417
 30
0.0
 40
18.0
  1
アクチュエ－タ取付方向
 72
     5
 11
846.192938
 21
486.981417
 31
0.0
100
AcDbText
  0
TEXT
  5
8D6
100
AcDbEntity
  8
18
100
AcDbText
 10
443.096375
 20
546.829285
 30
0.0
 40
15.0
  1
弁棒側　低圧側
 72
     5
 11
545.096375
 21
546.829285
 31
0.0
100
AcDbText
  0
TEXT
  5
8D7
100
AcDbEntity
  8
18
100
AcDbText
 10
428.718338
 20
666.263443
 30
0.0
 40
15.0
  1
フラット側　高圧側
 72
     5
 11
560.718338
 21
666.263443
 31
0.0
100
AcDbText
  0
TEXT
  5
8D8
100
AcDbEntity
  8
18
100
AcDbText
 10
988.826431
 20
517.622864
 30
0.0
 40
18.0
  1
Ｄ
 72
     5
 11
1003.226431
 21
517.622864
 31
0.0
100
AcDbText
  0
TEXT
  5
8D9
100
AcDbEntity
  8
18
100
AcDbText
 10
757.785461
 20
-822.100616
 30
0.0
 40
18.0
  1
６
 72
     5
 11
772.185461
 21
-822.100616
 31
0.0
100
AcDbText
  0
TEXT
  5
8DA
100
AcDbEntity
  8
18
100
AcDbText
 10
733.125443
 20
-738.211578
 30
0.0
 40
18.0
  1
３０２Ｙ－４ＩＣＳ　３００Ａ
 72
     5
 11
981.525443
 21
-738.211578
 31
0.0
100
AcDbText
  0
TEXT
  5
8DB
100
AcDbEntity
  8
18
100
AcDbText
 10
733.125443
 20
-762.211578
 30
0.0
 40
18.0
  1
標準仕様
 72
     5
 11
801.525443
 21
-762.211578
 31
0.0
100
AcDbText
  0
TEXT
  5
8DC
100
AcDbEntity
  8
18
100
AcDbText
 10
1081.874451
 20
-761.511292
 30
0.0
 40
13.5
  1
′９９．１２．　２
 72
     5
 11
1200.674451
 21
-761.511292
 31
0.0
100
AcDbText
  0
TEXT
  5
8DD
100
AcDbEntity
  8
18
100
AcDbText
 10
921.6
 20
-816.0
 30
0.0
 40
30.0
  1
Ｄ３－０２０３０
 72
     5
 11
1155.6
 21
-816.0
 31
0.0
100
AcDbText
  0
LINE
  5
8DE
100
AcDbEntity
  8
20
 62
     3
100
AcDbLine
 10
-1080.0
 20
-831.0
 30
0.0
 11
1200.0
 21
-831.0
 31
0.0
  0
LINE
  5
8DF
100
AcDbEntity
  8
20
 62
     3
100
AcDbLine
 10
-1080.0
 20
792.0
 30
0.0
 11
1200.0
 21
792.0
 31
0.0
  0
LINE
  5
8E0
100
AcDbEntity
  8
20
 62
     3
100
AcDbLine
 10
-1080.0
 20
792.0
 30
0.0
 11
-1080.0
 21
-831.0
 31
0.0
  0
LINE
  5
8E1
100
AcDbEntity
  8
20
 62
     3
100
AcDbLine
 10
1200.0
 20
792.0
 30
0.0
 11
1200.0
 21
-831.0
 31
0.0
  0
LINE
  5
8E2
100
AcDbEntity
  8
20
 62
     3
100
AcDbLine
 10
360.0
 20
-831.0
 30
0.0
 11
360.0
 21
-711.0
 31
0.0
  0
LINE
  5
8E3
100
AcDbEntity
  8
20
 62
     3
100
AcDbLine
 10
642.0
 20
-831.0
 30
0.0
 11
642.0
 21
-711.0
 31
0.0
  0
LINE
  5
8E4
100
AcDbEntity
  8
20
100
AcDbLine
 10
642.0
 20
-771.0
 30
0.0
 11
1200.0
 21
-771.0
 31
0.0
  0
LINE
  5
8E5
100
AcDbEntity
  8
20
 62
     3
100
AcDbLine
 10
360.0
 20
-711.0
 30
0.0
 11
1200.0
 21
-711.0
 31
0.0
  0
LINE
  5
8E6
100
AcDbEntity
  8
20
100
AcDbLine
 10
1080.0
 20
-771.0
 30
0.0
 11
1080.0
 21
-711.0
 31
0.0
  0
LINE
  5
8E7
100
AcDbEntity
  8
20
100
AcDbLine
 10
1080.0
 20
-741.0
 30
0.0
 11
1200.0
 21
-741.0
 31
0.0
  0
LINE
  5
8E8
100
AcDbEntity
  8
20
100
AcDbLine
 10
726.0
 20
-831.0
 30
0.0
 11
726.0
 21
-711.0
 31
0.0
  0
LINE
  5
8E9
100
AcDbEntity
  8
20
100
AcDbLine
 10
786.0
 20
-831.0
 30
0.0
 11
786.0
 21
-771.0
 31
0.0
  0
LINE
  5
8EA
100
AcDbEntity
  8
20
100
AcDbLine
 10
906.0
 20
-831.0
 30
0.0
 11
906.0
 21
-771.0
 31
0.0
  0
LINE
  5
8EB
100
AcDbEntity
  8
20
100
AcDbLine
 10
742.370487
 20
-814.629513
 30
0.0
 11
767.389744
 21
-789.610256
 31
0.0
  0
TEXT
  5
8EC
100
AcDbEntity
  8
20
100
AcDbText
 10
789.199974
 20
-794.981506
 30
0.0
 40
10.8
  1
ＤＲＡＷＩＮＧ　ＮＯ．
 72
     5
 11
905.839974
 21
-794.981506
 31
0.0
100
AcDbText
  0
TEXT
  5
8ED
100
AcDbEntity
  8
20
100
AcDbText
 10
801.0
 20
-819.0
 30
0.0
 40
18.0
  1
図　　　番
 72
     5
 11
887.4
 21
-819.0
 31
0.0
100
AcDbText
  0
TEXT
  5
8EE
100
AcDbEntity
  8
20
100
AcDbText
 10
1116.0
 20
-732.0
 30
0.0
 40
12.0
  1
ＤＡＴＥ
 72
     5
 11
1161.6
 21
-732.0
 31
0.0
100
AcDbText
  0
TEXT
  5
8EF
100
AcDbEntity
  8
20
100
AcDbText
 10
654.006426
 20
-797.766174
 30
0.0
 40
12.0
  1
ＳＣＡＬＥ
 72
     5
 11
711.606426
 21
-797.766174
 31
0.0
100
AcDbText
  0
TEXT
  5
8F0
100
AcDbEntity
  8
20
100
AcDbText
 10
648.0
 20
-819.0
 30
0.0
 40
18.0
  1
尺　　度
 72
     5
 11
716.4
 21
-819.0
 31
0.0
100
AcDbText
  0
TEXT
  5
8F1
100
AcDbEntity
  8
20
100
AcDbText
 10
645.006426
 20
-734.975308
 30
0.0
 40
12.0
  1
ＦＩＧ．ＮＯ．
 72
     5
 11
726.606426
 21
-734.975308
 31
0.0
100
AcDbText
  0
TEXT
  5
8F2
100
AcDbEntity
  8
20
100
AcDbText
 10
648.0
 20
-759.0
 30
0.0
 40
18.0
  1
名　　称
 72
     5
 11
716.4
 21
-759.0
 31
0.0
100
AcDbText
  0
TEXT
  5
8F3
100
AcDbEntity
  8
20
100
AcDbText
 10
363.39315
 20
-758.821518
 30
0.0
 40
13.8
  1
ＴＯＭＯＥ　ＶＡＬＶＥ　ＣＯ．，ＬＴＤ．
 72
     5
 11
636.63315
 21
-758.821518
 31
0.0
100
AcDbText
  0
TEXT
  5
8F4
100
AcDbEntity
  8
20
100
AcDbText
 10
405.0
 20
-799.738861
 30
0.0
 40
24.0
  1
巴バルブ株式会社
 72
     5
 11
592.2
 21
-799.738861
 31
0.0
100
AcDbText
  0
ENDSEC
  0
SECTION
  2
OBJECTS
  0
DICTIONARY
  5
979
100
AcDbDictionary
  3
ACAD_GROUP
350
97A
  3
ACAD_MLINESTYLE
350
97B
  0
DICTIONARY
  5
97A
102
{ACAD_REACTORS
330
979
102
}
100
AcDbDictionary
  0
DICTIONARY
  5
97B
102
{ACAD_REACTORS
330
979
102
}
100
AcDbDictionary
  3
STANDARD
350
97C
  0
MLINESTYLE
  5
97C
102
{ACAD_REACTORS
330
97B
102
}
100
AcDbMlineStyle
  2
STANDARD
 70
     0
  3

 62
     0
 51
90.0
 52
90.0
 71
     2
 49
0.5
 62
   256
  6
BYLAYER
 49
-0.5
 62
   256
  6
BYLAYER
  0
ENDSEC
  0
EOF
