  0
SECTION
  2
HEADER
  9
$ACADVER
  1
AC1012
  9
$DWGCODEPAGE
  3
ansi_932
  9
$INSBASE
 10
0.0
 20
0.0
 30
0.0
  9
$EXTMIN
 10
-840.0
 20
-594.0
 30
1.000000E+20
  9
$EXTMAX
 10
840.0
 20
594.0
 30
-1.000000E+20
  9
$LIMMIN
 10
-840.0
 20
-594.0
  9
$LIMMAX
 10
840.0
 20
594.0
  9
$ORTHOMODE
 70
     0
  9
$REGENMODE
 70
     1
  9
$FILLMODE
 70
     1
  9
$QTEXTMODE
 70
     0
  9
$MIRRTEXT
 70
     1
  9
$DRAGMODE
 70
     2
  9
$LTSCALE
 40
1.0
  9
$OSMODE
 70
     0
  9
$ATTMODE
 70
     1
  9
$TEXTSIZE
 40
0.2
  9
$TRACEWID
 40
0.05
  9
$TEXTSTYLE
  7
STANDARD
  9
$CLAYER
  8
0
  9
$CELTYPE
  6
CONTINUOUS
  9
$CECOLOR
 62
   256
  9
$CELTSCALE
 40
1.0
  9
$DELOBJ
 70
     1
  9
$DISPSILH
 70
     0
  9
$DIMSCALE
 40
4.0
  9
$DIMASZ
 40
0.18
  9
$DIMEXO
 40
0.0625
  9
$DIMDLI
 40
0.38
  9
$DIMRND
 40
0.0
  9
$DIMDLE
 40
0.0
  9
$DIMEXE
 40
0.18
  9
$DIMTP
 40
0.0
  9
$DIMTM
 40
0.0
  9
$DIMTXT
 40
0.18
  9
$DIMCEN
 40
0.09
  9
$DIMTSZ
 40
0.0
  9
$DIMTOL
 70
     0
  9
$DIMLIM
 70
     0
  9
$DIMTIH
 70
     1
  9
$DIMTOH
 70
     1
  9
$DIMSE1
 70
     0
  9
$DIMSE2
 70
     0
  9
$DIMTAD
 70
     1
  9
$DIMZIN
 70
     0
  9
$DIMBLK
  1

  9
$DIMASO
 70
     1
  9
$DIMSHO
 70
     1
  9
$DIMPOST
  1

  9
$DIMAPOST
  1

  9
$DIMALT
 70
     0
  9
$DIMALTD
 70
     2
  9
$DIMALTF
 40
25.4
  9
$DIMLFAC
 40
1.0
  9
$DIMTOFL
 70
     0
  9
$DIMTVP
 40
0.0
  9
$DIMTIX
 70
     0
  9
$DIMSOXD
 70
     0
  9
$DIMSAH
 70
     0
  9
$DIMBLK1
  1

  9
$DIMBLK2
  1

  9
$DIMSTYLE
  2
STANDARD
  9
$DIMCLRD
 70
     0
  9
$DIMCLRE
 70
     0
  9
$DIMCLRT
 70
     0
  9
$DIMTFAC
 40
1.0
  9
$DIMGAP
 40
0.09
  9
$DIMJUST
 70
     0
  9
$DIMSD1
 70
     0
  9
$DIMSD2
 70
     0
  9
$DIMTOLJ
 70
     1
  9
$DIMTZIN
 70
     0
  9
$DIMALTZ
 70
     0
  9
$DIMALTTZ
 70
     0
  9
$DIMFIT
 70
     3
  9
$DIMUPT
 70
     0
  9
$DIMUNIT
 70
     2
  9
$DIMDEC
 70
     4
  9
$DIMTDEC
 70
     4
  9
$DIMALTU
 70
     2
  9
$DIMALTTD
 70
     2
  9
$DIMTXSTY
  7
STANDARD
  9
$DIMAUNIT
 70
     0
  9
$LUNITS
 70
     2
  9
$LUPREC
 70
     4
  9
$SKETCHINC
 40
0.1
  9
$FILLETRAD
 40
0.0
  9
$AUNITS
 70
     0
  9
$AUPREC
 70
     0
  9
$MENU
  1
acad
  9
$ELEVATION
 40
0.0
  9
$PELEVATION
 40
0.0
  9
$THICKNESS
 40
0.0
  9
$LIMCHECK
 70
     0
  9
$BLIPMODE
 70
     1
  9
$CHAMFERA
 40
0.0
  9
$CHAMFERB
 40
0.0
  9
$CHAMFERC
 40
0.0
  9
$CHAMFERD
 40
0.0
  9
$SKPOLY
 70
     0
  9
$TDCREATE
 40
2451016.000000000
  9
$TDUPDATE
 40
0.000000000
  9
$TDINDWG
 40
0.0000000000
  9
$TDUSRTIMER
 40
0.0000000000
  9
$USRTIMER
 70
     1
  9
$ANGBASE
 50
0.0
  9
$ANGDIR
 70
     0
  9
$PDMODE
 70
     0
  9
$PDSIZE
 40
0.0
  9
$PLINEWID
 40
0.0
  9
$COORDS
 70
     0
  9
$SPLFRAME
 70
     0
  9
$SPLINETYPE
 70
     6
  9
$SPLINESEGS
 70
     8
  9
$ATTDIA
 70
     0
  9
$ATTREQ
 70
     1
  9
$HANDLING
 70
     1
  9
$HANDSEED
  5
78E
  9
$SURFTAB1
 70
     6
  9
$SURFTAB2
 70
     6
  9
$SURFTYPE
 70
     6
  9
$SURFU
 70
     6
  9
$SURFV
 70
     6
  9
$UCSNAME
  2

  9
$UCSORG
 10
0.0
 20
0.0
 30
0.0
  9
$UCSXDIR
 10
1.0
 20
0.0
 30
0.0
  9
$UCSYDIR
 10
0.0
 20
1.0
 30
0.0
  9
$PUCSNAME
  2

  9
$PUCSORG
 10
0.0
 20
0.0
 30
0.0
  9
$PUCSXDIR
 10
1.0
 20
0.0
 30
0.0
  9
$PUCSYDIR
 10
0.0
 20
1.0
 30
0.0
  9
$USERI1
 70
     0
  9
$USERI2
 70
     0
  9
$USERI3
 70
     0
  9
$USERI4
 70
     0
  9
$USERI5
 70
     0
  9
$USERR1
 40
0.0
  9
$USERR2
 40
0.0
  9
$USERR3
 40
0.0
  9
$USERR4
 40
0.0
  9
$USERR5
 40
0.0
  9
$WORLDVIEW
 70
     1
  9
$SHADEDGE
 70
     3
  9
$SHADEDIF
 70
    70
  9
$TILEMODE
 70
     1
  9
$MAXACTVP
 70
    16
  9
$PINSBASE
 10
0.0
 20
0.0
 30
0.0
  9
$PLIMCHECK
 70
     0
  9
$PEXTMIN
 10
1.000000E+20
 20
1.000000E+20
 30
1.000000E+20
  9
$PEXTMAX
 10
-1.000000E+20
 20
-1.000000E+20
 30
-1.000000E+20
  9
$PLIMMIN
 10
0.0
 20
0.0
  9
$PLIMMAX
 10
12.0
 20
9.0
  9
$UNITMODE
 70
     0
  9
$VISRETAIN
 70
     0
  9
$PLINEGEN
 70
     1
  9
$PSLTSCALE
 70
     0
  9
$TREEDEPTH
 70
  3020
  9
$PICKSTYLE
 70
     1
  9
$CMLSTYLE
  2
STANDARD
  9
$CMLJUST
 70
     0
  9
$CMLSCALE
 40
1.0
  9
$SAVEIMAGES
 70
     0
  0
ENDSEC
  0
SECTION
  2
CLASSES
  0
CLASS
  1
LWPOLYLINE
  2
AcDbPolyline
  3
"AutoCAD"
 90
    32768
280
     0
281
     1
  0
CLASS
  1
IMAGE
  2
AcDbRasterImage
  3
ISM
 90
    32895
280
     0
281
     1
  0
CLASS
  1
OLE2FRAME
  2
AcDbOle2Frame
  3
""
 90
    32768
280
     0
281
     1
  0
CLASS
  1
HATCH
  2
AcDbHatch
  3
"ACAD_SEDONA"
 90
    32768
280
     0
281
     1
  0
CLASS
  1
DICTIONARYVAR
  2
AcDbDictionaryVar
  3
"AutoCAD"
 90
    32768
280
     0
281
     0
  0
CLASS
  1
RASTERVARIABLES
  2
AcDbRasterVariables
  3
ISM
 90
    32768
280
     0
281
     0
  0
CLASS
  1
IMAGEDEF
  2
AcDbRasterImageDef
  3
ISM
 90
    32768
280
     0
281
     0
  0
CLASS
  1
IMAGEDEF_REACTOR
  2
AcDbRasterImageDefReactor
  3
ISM
 90
    32769
280
     0
281
     0
  0
CLASS
  1
IDBUFFER
  2
AcDbIdBuffer
  3
"Acad"
 90
    32768
280
     0
281
     0
  0
CLASS
  1
SPATIAL_FILTER
  2
AcDbSpatialFilter
  3
"Acad"
 90
    32768
280
     0
281
     0
  0
CLASS
  1
XRECORD
  2
AcDbXrecord
  3
"<Built In>"
 90
    32768
280
     0
281
     0
  0
CLASS
  1
SORTENTSTABLE
  2
AcDbSortentsTable
  3
"AutoCAD"
 90
    32768
280
     0
281
     0
  0
CLASS
  1
LAYER_INDEX
  2
AcDbLayerIndex
  3
"Acad"
 90
    32768
280
     0
281
     0
  0
CLASS
  1
SPATIAL_INDEX
  2
AcDbSpatialIndex
  3
"Acad"
 90
    32768
280
     0
281
     0
  0
CLASS
  1
OBJECT_PTR
  2
CAseDLPNTableRecord
  3
"ASE-LPNTableRecord"
 90
    32769
280
     0
281
     0
  0
CLASS
  1
LAYOUT
  2
AcDbLayout
  3
"AutoCAD 2000"
 90
    32768
280
     0
281
     0
  0
CLASS
  1
PLOTSETTINGS
  2
AcDbPlotSettings
  3
"AutoCAD 2000"
 90
    32768
280
     0
281
     0
  0
CLASS
  1
ACDBDICTIONARYWDFLT
  2
AcDbDictionaryWithDefault
  3
"AutoCAD 2000"
 90
    32768
280
     0
281
     0
  0
CLASS
  1
ACDBPLACEHOLDER
  2
AcDbPlaceHolder
  3
"AutoCAD 2000"
 90
    32768
280
     0
281
     0
  0
CLASS
  1
VBA_PROJECT
  2
AcDbVbaProject
  3
"acadvba"
 90
    32768
280
     0
281
     0
  0
CLASS
  1
WIPEOUT
  2
AcDbWipeout
  3
WipeOut|AutoCAD Express Tool|expresstools@autodesk.com
 90
    32895
280
     0
281
     1
  0
CLASS
  1
WIPEOUTVARIABLES
  2
AcDbWipeoutVariables
  3
WipeOut|AutoCAD Express Tool|expresstools@autodesk.com
 90
    32768
280
     0
281
     0
  0
CLASS
  1
RTEXT
  2
RText
  3
RText|AutoCAD Express Tool|expresstools@autodesk.com
 90
    32768
280
     0
281
     1
  0
CLASS
  1
ARCALIGNEDTEXT
  2
AcDbArcAlignedText
  3
ATEXT|AutoCAD Express Tool|expresstools@autodesk.com
 90
    32768
280
     0
281
     1
  0
ENDSEC
  0
SECTION
  2
TABLES
  0
TABLE
  2
VPORT
  5
6
100
AcDbSymbolTable
 70
     1
  0
VPORT
  5
1B
100
AcDbSymbolTableRecord
100
AcDbViewportTableRecord
  2
*ACTIVE
 70
     0
 10
0.0
 20
0.0
 11
1.0
 21
1.0
 12
0.0
 22
0.0
 13
0.0
 23
0.0
 14
1.0
 24
1.0
 15
0.0
 25
0.0
 16
0.0
 26
0.0
 36
1.0
 17
0.0
 27
0.0
 37
0.0
 40
1188.0
 41
1.414141
 42
50.0
 43
0.0
 44
0.0
 50
0.0
 51
0.0
 71
     0
 72
   500
 73
     1
 74
     1
 75
     0
 76
     0
 77
     0
 78
     0
  0
ENDTAB
  0
TABLE
  2
LTYPE
  5
3
100
AcDbSymbolTable
 70
     9
  0
LTYPE
  5
C
100
AcDbSymbolTableRecord
100
AcDbLinetypeTableRecord
  2
BYBLOCK
 70
    64
  3

 72
    65
 73
     0
 40
0.0
  0
LTYPE
  5
D
100
AcDbSymbolTableRecord
100
AcDbLinetypeTableRecord
  2
BYLAYER
 70
    64
  3

 72
    65
 73
     0
 40
0.0
  0
LTYPE
  5
E
100
AcDbSymbolTableRecord
100
AcDbLinetypeTableRecord
  2
CONTINUOUS
 70
     0
  3
Solid line
 72
    65
 73
     0
 40
0.0
  0
LTYPE
  5
F
100
AcDbSymbolTableRecord
100
AcDbLinetypeTableRecord
  2
DASHED
 70
     0
  3
__ __ __ __ __ __ __ __ __ __ __ __ __ __ __
 72
    65
 73
     2
 40
2.0
 49
1.2
 74
     0
 49
-0.8
 74
     0
  0
LTYPE
  5
10
100
AcDbSymbolTableRecord
100
AcDbLinetypeTableRecord
  2
CENTER
 70
     0
  3
____ _ ____ _ ____ _ ____ _ ____ _ ____ _ ____
 72
    65
 73
     4
 40
12.0
 49
9.0
 74
     0
 49
-1.0
 74
     0
 49
1.0
 74
     0
 49
-1.0
 74
     0
  0
LTYPE
  5
11
100
AcDbSymbolTableRecord
100
AcDbLinetypeTableRecord
  2
HIDDEN
 70
     0
  3
_ _ _ _ _ _ _ _ _ _ _ _ _ _ _ _ _ _ _ _ _ _ _
 72
    65
 73
     2
 40
3.2
 49
2.4
 74
     0
 49
-0.8
 74
     0
  0
LTYPE
  5
12
100
AcDbSymbolTableRecord
100
AcDbLinetypeTableRecord
  2
PHANTOM
 70
     0
  3
_____ _ _ _____ _ _ _____ _ _ _____ _ _ _____
 72
    65
 73
     6
 40
13.5
 49
9.0
 74
     0
 49
-1.0
 74
     0
 49
1.0
 74
     0
 49
-0.5
 74
     0
 49
1.0
 74
     0
 49
-1.0
 74
     0
  0
LTYPE
  5
13
100
AcDbSymbolTableRecord
100
AcDbLinetypeTableRecord
  2
DOT
 70
     0
  3
...............................................
 72
    65
 73
     2
 40
1.0
 49
0.5
 74
     0
 49
-0.5
 74
     0
  0
LTYPE
  5
14
100
AcDbSymbolTableRecord
100
AcDbLinetypeTableRecord
  2
DASHDOT
 70
     0
  3
__ . __ . __ . __ . __ . __ . __ . __ . __ . __
 72
    65
 73
     4
 40
8.0
 49
5.0
 74
     0
 49
-1.0
 74
     0
 49
1.0
 74
     0
 49
-1.0
 74
     0
  0
ENDTAB
  0
TABLE
  2
LAYER
  5
1
100
AcDbSymbolTable
 70
     6
  0
LAYER
  5
15
100
AcDbSymbolTableRecord
100
AcDbLayerTableRecord
  2
0
 70
     0
 62
     7
  6
CONTINUOUS
  0
LAYER
  5
16
100
AcDbSymbolTableRecord
100
AcDbLayerTableRecord
  2
1
 70
     0
 62
     7
  6
CONTINUOUS
  0
LAYER
  5
17
100
AcDbSymbolTableRecord
100
AcDbLayerTableRecord
  2
2
 70
     0
 62
     7
  6
CONTINUOUS
  0
LAYER
  5
18
100
AcDbSymbolTableRecord
100
AcDbLayerTableRecord
  2
5
 70
     0
 62
     7
  6
CONTINUOUS
  0
LAYER
  5
19
100
AcDbSymbolTableRecord
100
AcDbLayerTableRecord
  2
18
 70
     0
 62
     7
  6
CONTINUOUS
  0
LAYER
  5
1A
100
AcDbSymbolTableRecord
100
AcDbLayerTableRecord
  2
20
 70
     0
 62
     7
  6
CONTINUOUS
  0
ENDTAB
  0
TABLE
  2
STYLE
  5
2
100
AcDbSymbolTable
 70
     1
  0
STYLE
  5
1D
100
AcDbSymbolTableRecord
100
AcDbTextStyleTableRecord
  2
STANDARD
 70
    64
 40
0.0
 41
1.0
 50
0.0
 71
     0
 42
1.0
  3
txt
  4
BIGFONT
  0
ENDTAB
  0
TABLE
  2
VIEW
  5
4
100
AcDbSymbolTable
 70
     0
  0
ENDTAB
  0
TABLE
  2
UCS
  5
5
100
AcDbSymbolTable
 70
     0
  0
ENDTAB
  0
TABLE
  2
APPID
  5
7
100
AcDbSymbolTable
 70
     1
  0
APPID
  5
1C
100
AcDbSymbolTableRecord
100
AcDbRegAppTableRecord
  2
ACAD
 70
     0
  0
ENDTAB
  0
TABLE
  2
DIMSTYLE
  5
8
100
AcDbSymbolTable
 70
     1
  0
DIMSTYLE
105
2D
100
AcDbSymbolTableRecord
100
AcDbDimStyleTableRecord
  2
STANDARD
 70
     0
  3

  4

  5

  6

  7

 40
4.0
 41
0.18
 42
0.0625
 43
0.38
 44
0.18
 45
0.0
 46
0.0
 47
0.0
 48
0.0
 71
     0
 72
     0
 73
     1
 74
     1
 75
     0
 76
     0
 77
     1
 78
     0
140
0.18
141
0.09
142
0.0
143
25.4
144
1.0
145
0.0
146
1.0
147
0.09
170
     0
171
     2
172
     0
173
     0
174
     0
175
     0
176
     0
177
     0
178
     0
270
     2
271
     4
272
     4
273
     2
274
     2
275
     0
280
     0
281
     0
282
     0
283
     1
284
     0
285
     0
286
     0
287
     3
288
     0
340
1D
  0
ENDTAB
  0
TABLE
  2
BLOCK_RECORD
  5
28
100
AcDbSymbolTable
 70
     8
  0
BLOCK_RECORD
  5
26
100
AcDbSymbolTableRecord
100
AcDbBlockTableRecord
  2
*MODEL_SPACE
  0
BLOCK_RECORD
  5
27
100
AcDbSymbolTableRecord
100
AcDbBlockTableRecord
  2
*PAPER_SPACE
  0
BLOCK_RECORD
  5
1E
100
AcDbSymbolTableRecord
100
AcDbBlockTableRecord
  2
*D0
  0
BLOCK_RECORD
  5
1F
100
AcDbSymbolTableRecord
100
AcDbBlockTableRecord
  2
*D1
  0
BLOCK_RECORD
  5
20
100
AcDbSymbolTableRecord
100
AcDbBlockTableRecord
  2
*D2
  0
BLOCK_RECORD
  5
21
100
AcDbSymbolTableRecord
100
AcDbBlockTableRecord
  2
*D3
  0
BLOCK_RECORD
  5
22
100
AcDbSymbolTableRecord
100
AcDbBlockTableRecord
  2
*D4
  0
BLOCK_RECORD
  5
23
100
AcDbSymbolTableRecord
100
AcDbBlockTableRecord
  2
*D5
  0
BLOCK_RECORD
  5
24
100
AcDbSymbolTableRecord
100
AcDbBlockTableRecord
  2
*D6
  0
BLOCK_RECORD
  5
25
100
AcDbSymbolTableRecord
100
AcDbBlockTableRecord
  2
*D7
  0
ENDTAB
  0
ENDSEC
  0
SECTION
  2
BLOCKS
  0
BLOCK
  5
29
100
AcDbEntity
  8
0
100
AcDbBlockBegin
  2
*MODEL_SPACE
 70
     0
 10
0.0
 20
0.0
 30
0.0
  3
*MODEL_SPACE
  1

  0
ENDBLK
  5
2A
100
AcDbEntity
  8
0
100
AcDbBlockEnd
  0
BLOCK
  5
2B
100
AcDbEntity
 67
     1
  8
0
100
AcDbBlockBegin
  2
*PAPER_SPACE
 70
     0
 10
0.0
 20
0.0
 30
0.0
  3
*PAPER_SPACE
  1

  0
ENDBLK
  5
2C
100
AcDbEntity
 67
     1
  8
0
100
AcDbBlockEnd
  0
BLOCK
  5
727
100
AcDbEntity
  8
5
100
AcDbBlockBegin
  2
*D0
 70
     1
 10
0.0
 20
0.0
 30
0.0
  3
*D0
  1

  0
TEXT
  5
728
100
AcDbEntity
  8
5
 62
     2
100
AcDbText
 10
159.040718
 20
-495.997711
 30
0.0
 40
13.2
  1
60
 41
1.4
 72
     5
 11
173.824718
 21
-495.997711
 31
0.0
100
AcDbText
  0
LINE
  5
729
100
AcDbEntity
  8
5
 62
     2
100
AcDbLine
 10
138.280718
 20
-352.168989
 30
0.0
 11
138.280718
 21
-501.997711
 31
0.0
  0
LINE
  5
72A
100
AcDbEntity
  8
5
 62
     2
100
AcDbLine
 10
138.280718
 20
-497.997711
 30
0.0
 11
146.008125
 21
-500.068264
 31
0.0
  0
LINE
  5
72B
100
AcDbEntity
  8
5
 62
     2
100
AcDbLine
 10
138.280718
 20
-497.997711
 30
0.0
 11
146.008125
 21
-495.927159
 31
0.0
  0
LINE
  5
72C
100
AcDbEntity
  8
5
 62
     2
100
AcDbLine
 10
146.008125
 20
-500.068264
 30
0.0
 11
146.008125
 21
-495.927159
 31
0.0
  0
LINE
  5
72D
100
AcDbEntity
  8
5
 62
     2
100
AcDbLine
 10
138.280718
 20
-497.997711
 30
0.0
 11
198.280718
 21
-497.997711
 31
0.0
  0
LINE
  5
72E
100
AcDbEntity
  8
5
 62
     2
100
AcDbLine
 10
198.280718
 20
-497.997711
 30
0.0
 11
190.553312
 21
-495.927159
 31
0.0
  0
LINE
  5
72F
100
AcDbEntity
  8
5
 62
     2
100
AcDbLine
 10
198.280718
 20
-497.997711
 30
0.0
 11
190.553312
 21
-500.068264
 31
0.0
  0
LINE
  5
730
100
AcDbEntity
  8
5
 62
     2
100
AcDbLine
 10
190.553312
 20
-495.927159
 30
0.0
 11
190.553312
 21
-500.068264
 31
0.0
  0
LINE
  5
731
100
AcDbEntity
  8
5
 62
     2
100
AcDbLine
 10
198.280718
 20
-352.168989
 30
0.0
 11
198.280718
 21
-501.997711
 31
0.0
  0
ENDBLK
  5
732
100
AcDbEntity
  8
5
100
AcDbBlockEnd
  0
BLOCK
  5
733
100
AcDbEntity
  8
5
100
AcDbBlockBegin
  2
*D1
 70
     1
 10
0.0
 20
0.0
 30
0.0
  3
*D1
  1

  0
TEXT
  5
734
100
AcDbEntity
  8
5
 62
     2
100
AcDbText
 10
40.952251
 20
-127.028989
 30
0.0
 40
13.2
  1
220
 50
90.0
 41
1.4
 72
     5
 11
40.952251
 21
-103.004989
 31
0.0
100
AcDbText
  0
LINE
  5
735
100
AcDbEntity
  8
5
 62
     2
100
AcDbLine
 10
109.006721
 20
-223.168989
 30
0.0
 11
38.952251
 21
-223.168989
 31
0.0
  0
LINE
  5
736
100
AcDbEntity
  8
5
 62
     2
100
AcDbLine
 10
42.952251
 20
-223.168989
 30
0.0
 11
45.022804
 21
-215.441582
 31
0.0
  0
LINE
  5
737
100
AcDbEntity
  8
5
 62
     2
100
AcDbLine
 10
42.952251
 20
-223.168989
 30
0.0
 11
40.881699
 21
-215.441582
 31
0.0
  0
LINE
  5
738
100
AcDbEntity
  8
5
 62
     2
100
AcDbLine
 10
45.022804
 20
-215.441582
 30
0.0
 11
40.881699
 21
-215.441582
 31
0.0
  0
LINE
  5
739
100
AcDbEntity
  8
5
 62
     2
100
AcDbLine
 10
42.952251
 20
-223.168989
 30
0.0
 11
42.952251
 21
-3.168989
 31
0.0
  0
LINE
  5
73A
100
AcDbEntity
  8
5
 62
     2
100
AcDbLine
 10
42.952251
 20
-3.168989
 30
0.0
 11
40.881699
 21
-10.896396
 31
0.0
  0
LINE
  5
73B
100
AcDbEntity
  8
5
 62
     2
100
AcDbLine
 10
42.952251
 20
-3.168989
 30
0.0
 11
45.022804
 21
-10.896396
 31
0.0
  0
LINE
  5
73C
100
AcDbEntity
  8
5
 62
     2
100
AcDbLine
 10
40.881699
 20
-10.896396
 30
0.0
 11
45.022804
 21
-10.896396
 31
0.0
  0
LINE
  5
73D
100
AcDbEntity
  8
5
 62
     2
100
AcDbLine
 10
113.280718
 20
-3.168989
 30
0.0
 11
38.952251
 21
-3.168989
 31
0.0
  0
ENDBLK
  5
73E
100
AcDbEntity
  8
5
100
AcDbBlockEnd
  0
BLOCK
  5
73F
100
AcDbEntity
  8
5
100
AcDbBlockBegin
  2
*D2
 70
     1
 10
0.0
 20
0.0
 30
0.0
  3
*D2
  1

  0
TEXT
  5
740
100
AcDbEntity
  8
5
 62
     2
100
AcDbText
 10
40.952251
 20
-347.028989
 30
0.0
 40
13.2
  1
220
 50
90.0
 41
1.4
 72
     5
 11
40.952251
 21
-323.004989
 31
0.0
100
AcDbText
  0
LINE
  5
741
100
AcDbEntity
  8
5
 62
     2
100
AcDbLine
 10
138.780718
 20
-443.168989
 30
0.0
 11
38.952251
 21
-443.168989
 31
0.0
  0
LINE
  5
742
100
AcDbEntity
  8
5
 62
     2
100
AcDbLine
 10
42.952251
 20
-443.168989
 30
0.0
 11
45.022804
 21
-435.441582
 31
0.0
  0
LINE
  5
743
100
AcDbEntity
  8
5
 62
     2
100
AcDbLine
 10
42.952251
 20
-443.168989
 30
0.0
 11
40.881699
 21
-435.441582
 31
0.0
  0
LINE
  5
744
100
AcDbEntity
  8
5
 62
     2
100
AcDbLine
 10
45.022804
 20
-435.441582
 30
0.0
 11
40.881699
 21
-435.441582
 31
0.0
  0
LINE
  5
745
100
AcDbEntity
  8
5
 62
     2
100
AcDbLine
 10
42.952251
 20
-443.168989
 30
0.0
 11
42.952251
 21
-223.168989
 31
0.0
  0
LINE
  5
746
100
AcDbEntity
  8
5
 62
     2
100
AcDbLine
 10
42.952251
 20
-223.168989
 30
0.0
 11
40.881699
 21
-230.896396
 31
0.0
  0
LINE
  5
747
100
AcDbEntity
  8
5
 62
     2
100
AcDbLine
 10
42.952251
 20
-223.168989
 30
0.0
 11
45.022804
 21
-230.896396
 31
0.0
  0
LINE
  5
748
100
AcDbEntity
  8
5
 62
     2
100
AcDbLine
 10
40.881699
 20
-230.896396
 30
0.0
 11
45.022804
 21
-230.896396
 31
0.0
  0
LINE
  5
749
100
AcDbEntity
  8
5
 62
     2
100
AcDbLine
 10
109.006721
 20
-223.168989
 30
0.0
 11
38.952251
 21
-223.168989
 31
0.0
  0
ENDBLK
  5
74A
100
AcDbEntity
  8
5
100
AcDbBlockEnd
  0
BLOCK
  5
74B
100
AcDbEntity
  8
5
100
AcDbBlockBegin
  2
*D3
 70
     1
 10
0.0
 20
0.0
 30
0.0
  3
*D3
  1

  0
TEXT
  5
74C
100
AcDbEntity
  8
5
 62
     2
100
AcDbText
 10
-58.360023
 20
19.851011
 30
0.0
 40
13.2
  1
%%c200
 50
90.0
 41
1.4
 72
     5
 11
-58.360024
 21
53.115011
 31
0.0
100
AcDbText
  0
LINE
  5
74D
100
AcDbEntity
  8
5
 62
     2
100
AcDbLine
 10
-132.026506
 20
138.331011
 30
0.0
 11
-52.360023
 21
138.331011
 31
0.0
  0
LINE
  5
74E
100
AcDbEntity
  8
5
 62
     2
100
AcDbLine
 10
-56.360023
 20
138.331011
 30
0.0
 11
-58.430576
 21
130.603604
 31
0.0
  0
LINE
  5
74F
100
AcDbEntity
  8
5
 62
     2
100
AcDbLine
 10
-56.360023
 20
138.331011
 30
0.0
 11
-54.289471
 21
130.603604
 31
0.0
  0
LINE
  5
750
100
AcDbEntity
  8
5
 62
     2
100
AcDbLine
 10
-58.430576
 20
130.603604
 30
0.0
 11
-54.289471
 21
130.603604
 31
0.0
  0
LINE
  5
751
100
AcDbEntity
  8
5
 62
     2
100
AcDbLine
 10
-56.360023
 20
138.331011
 30
0.0
 11
-56.360023
 21
-61.668989
 31
0.0
  0
LINE
  5
752
100
AcDbEntity
  8
5
 62
     2
100
AcDbLine
 10
-56.360023
 20
-61.668989
 30
0.0
 11
-54.289471
 21
-53.941582
 31
0.0
  0
LINE
  5
753
100
AcDbEntity
  8
5
 62
     2
100
AcDbLine
 10
-56.360023
 20
-61.668989
 30
0.0
 11
-58.430576
 21
-53.941582
 31
0.0
  0
LINE
  5
754
100
AcDbEntity
  8
5
 62
     2
100
AcDbLine
 10
-54.289471
 20
-53.941582
 30
0.0
 11
-58.430576
 21
-53.941582
 31
0.0
  0
LINE
  5
755
100
AcDbEntity
  8
5
 62
     2
100
AcDbLine
 10
-132.026506
 20
-61.668989
 30
0.0
 11
-52.360023
 21
-61.668989
 31
0.0
  0
ENDBLK
  5
756
100
AcDbEntity
  8
5
100
AcDbBlockEnd
  0
BLOCK
  5
757
100
AcDbEntity
  8
5
100
AcDbBlockBegin
  2
*D4
 70
     1
 10
0.0
 20
0.0
 30
0.0
  3
*D4
  1

  0
TEXT
  5
758
100
AcDbEntity
  8
5
 62
     2
100
AcDbText
 10
40.952252
 20
48.331011
 30
0.0
 40
13.2
  1
41.5
 50
90.0
 41
1.4
 72
     5
 11
40.952252
 21
81.595011
 31
0.0
100
AcDbText
  0
LINE
  5
759
100
AcDbEntity
  8
5
 62
     2
100
AcDbLine
 10
113.280718
 20
-3.168989
 30
0.0
 11
38.952251
 21
-3.168989
 31
0.0
  0
LINE
  5
75A
100
AcDbEntity
  8
5
 62
     2
100
AcDbLine
 10
42.952251
 20
-3.168989
 30
0.0
 11
40.881699
 21
-10.896396
 31
0.0
  0
LINE
  5
75B
100
AcDbEntity
  8
5
 62
     2
100
AcDbLine
 10
42.952251
 20
-3.168989
 30
0.0
 11
45.022804
 21
-10.896396
 31
0.0
  0
LINE
  5
75C
100
AcDbEntity
  8
5
 62
     2
100
AcDbLine
 10
40.881699
 20
-10.896396
 30
0.0
 11
45.022804
 21
-10.896396
 31
0.0
  0
LINE
  5
75D
100
AcDbEntity
  8
5
 62
     2
100
AcDbLine
 10
42.952251
 20
-23.168989
 30
0.0
 11
42.952251
 21
87.291011
 31
0.0
  0
LINE
  5
75E
100
AcDbEntity
  8
5
 62
     2
100
AcDbLine
 10
42.952251
 20
38.331011
 30
0.0
 11
45.022804
 21
46.058418
 31
0.0
  0
LINE
  5
75F
100
AcDbEntity
  8
5
 62
     2
100
AcDbLine
 10
42.952251
 20
38.331011
 30
0.0
 11
40.881699
 21
46.058418
 31
0.0
  0
LINE
  5
760
100
AcDbEntity
  8
5
 62
     2
100
AcDbLine
 10
45.022804
 20
46.058418
 30
0.0
 11
40.881699
 21
46.058418
 31
0.0
  0
LINE
  5
761
100
AcDbEntity
  8
5
 62
     2
100
AcDbLine
 10
77.91556
 20
38.331011
 30
0.0
 11
38.952251
 21
38.331011
 31
0.0
  0
ENDBLK
  5
762
100
AcDbEntity
  8
5
100
AcDbBlockEnd
  0
BLOCK
  5
763
100
AcDbEntity
  8
5
100
AcDbBlockBegin
  2
*D5
 70
     1
 10
0.0
 20
0.0
 30
0.0
  3
*D5
  1

  0
TEXT
  5
764
100
AcDbEntity
  8
5
 62
     2
100
AcDbText
 10
-58.360023
 20
311.133715
 30
0.0
 40
13.2
  1
67
 50
90.0
 41
1.4
 72
     5
 11
-58.360024
 21
325.917715
 31
0.0
100
AcDbText
  0
LINE
  5
765
100
AcDbEntity
  8
5
 62
     2
100
AcDbLine
 10
-129.654492
 20
286.873715
 30
0.0
 11
-52.360023
 21
286.873715
 31
0.0
  0
LINE
  5
766
100
AcDbEntity
  8
5
 62
     2
100
AcDbLine
 10
-56.360023
 20
286.873715
 30
0.0
 11
-54.289471
 21
294.601121
 31
0.0
  0
LINE
  5
767
100
AcDbEntity
  8
5
 62
     2
100
AcDbLine
 10
-56.360023
 20
286.873715
 30
0.0
 11
-58.430576
 21
294.601121
 31
0.0
  0
LINE
  5
768
100
AcDbEntity
  8
5
 62
     2
100
AcDbLine
 10
-54.289471
 20
294.601121
 30
0.0
 11
-58.430576
 21
294.601121
 31
0.0
  0
LINE
  5
769
100
AcDbEntity
  8
5
 62
     2
100
AcDbLine
 10
-56.360023
 20
286.873715
 30
0.0
 11
-56.360023
 21
353.873715
 31
0.0
  0
LINE
  5
76A
100
AcDbEntity
  8
5
 62
     2
100
AcDbLine
 10
-56.360023
 20
353.873715
 30
0.0
 11
-58.430576
 21
346.146308
 31
0.0
  0
LINE
  5
76B
100
AcDbEntity
  8
5
 62
     2
100
AcDbLine
 10
-56.360023
 20
353.873715
 30
0.0
 11
-54.289471
 21
346.146308
 31
0.0
  0
LINE
  5
76C
100
AcDbEntity
  8
5
 62
     2
100
AcDbLine
 10
-58.430576
 20
346.146308
 30
0.0
 11
-54.289471
 21
346.146308
 31
0.0
  0
LINE
  5
76D
100
AcDbEntity
  8
5
 62
     2
100
AcDbLine
 10
-98.605735
 20
353.873715
 30
0.0
 11
-52.360023
 21
353.873715
 31
0.0
  0
ENDBLK
  5
76E
100
AcDbEntity
  8
5
100
AcDbBlockEnd
  0
BLOCK
  5
76F
100
AcDbEntity
  8
5
100
AcDbBlockBegin
  2
*D6
 70
     1
 10
0.0
 20
0.0
 30
0.0
  3
*D6
  1

  0
TEXT
  5
770
100
AcDbEntity
  8
5
 62
     2
100
AcDbText
 10
-58.360023
 20
240.133715
 30
0.0
 40
13.2
  1
75
 50
90.0
 41
1.4
 72
     5
 11
-58.360024
 21
254.917715
 31
0.0
100
AcDbText
  0
LINE
  5
771
100
AcDbEntity
  8
5
 62
     2
100
AcDbLine
 10
-281.838506
 20
211.873715
 30
0.0
 11
-52.360023
 21
211.873715
 31
0.0
  0
LINE
  5
772
100
AcDbEntity
  8
5
 62
     2
100
AcDbLine
 10
-56.360023
 20
211.873715
 30
0.0
 11
-54.289471
 21
219.601121
 31
0.0
  0
LINE
  5
773
100
AcDbEntity
  8
5
 62
     2
100
AcDbLine
 10
-56.360023
 20
211.873715
 30
0.0
 11
-58.430576
 21
219.601121
 31
0.0
  0
LINE
  5
774
100
AcDbEntity
  8
5
 62
     2
100
AcDbLine
 10
-54.289471
 20
219.601121
 30
0.0
 11
-58.430576
 21
219.601121
 31
0.0
  0
LINE
  5
775
100
AcDbEntity
  8
5
 62
     2
100
AcDbLine
 10
-56.360023
 20
211.873715
 30
0.0
 11
-56.360023
 21
286.873715
 31
0.0
  0
LINE
  5
776
100
AcDbEntity
  8
5
 62
     2
100
AcDbLine
 10
-56.360023
 20
286.873715
 30
0.0
 11
-58.430576
 21
279.146308
 31
0.0
  0
LINE
  5
777
100
AcDbEntity
  8
5
 62
     2
100
AcDbLine
 10
-56.360023
 20
286.873715
 30
0.0
 11
-54.289471
 21
279.146308
 31
0.0
  0
LINE
  5
778
100
AcDbEntity
  8
5
 62
     2
100
AcDbLine
 10
-58.430576
 20
279.146308
 30
0.0
 11
-54.289471
 21
279.146308
 31
0.0
  0
LINE
  5
779
100
AcDbEntity
  8
5
 62
     2
100
AcDbLine
 10
-129.654492
 20
286.873715
 30
0.0
 11
-52.360023
 21
286.873715
 31
0.0
  0
ENDBLK
  5
77A
100
AcDbEntity
  8
5
100
AcDbBlockEnd
  0
BLOCK
  5
77B
100
AcDbEntity
  8
5
100
AcDbBlockBegin
  2
*D7
 70
     1
 10
0.0
 20
0.0
 30
0.0
  3
*D7
  1

  0
TEXT
  5
77C
100
AcDbEntity
  8
5
 62
     2
100
AcDbText
 10
-227.886506
 20
482.497803
 30
0.0
 40
13.2
  1
198
 41
1.4
 72
     5
 11
-203.862506
 21
482.497803
 31
0.0
100
AcDbText
  0
LINE
  5
77D
100
AcDbEntity
  8
5
 62
     2
100
AcDbLine
 10
-313.026506
 20
401.497082
 30
0.0
 11
-313.026506
 21
484.497803
 31
0.0
  0
LINE
  5
77E
100
AcDbEntity
  8
5
 62
     2
100
AcDbLine
 10
-313.026506
 20
480.497803
 30
0.0
 11
-305.299099
 21
478.42725
 31
0.0
  0
LINE
  5
77F
100
AcDbEntity
  8
5
 62
     2
100
AcDbLine
 10
-313.026506
 20
480.497803
 30
0.0
 11
-305.299099
 21
482.568355
 31
0.0
  0
LINE
  5
780
100
AcDbEntity
  8
5
 62
     2
100
AcDbLine
 10
-305.299099
 20
478.42725
 30
0.0
 11
-305.299099
 21
482.568355
 31
0.0
  0
LINE
  5
781
100
AcDbEntity
  8
5
 62
     2
100
AcDbLine
 10
-313.026506
 20
480.497803
 30
0.0
 11
-115.026506
 21
480.497803
 31
0.0
  0
LINE
  5
782
100
AcDbEntity
  8
5
 62
     2
100
AcDbLine
 10
-115.026506
 20
480.497803
 30
0.0
 11
-122.753913
 21
482.568355
 31
0.0
  0
LINE
  5
783
100
AcDbEntity
  8
5
 62
     2
100
AcDbLine
 10
-115.026506
 20
480.497803
 30
0.0
 11
-122.753913
 21
478.42725
 31
0.0
  0
LINE
  5
784
100
AcDbEntity
  8
5
 62
     2
100
AcDbLine
 10
-122.753913
 20
482.568355
 30
0.0
 11
-122.753913
 21
478.42725
 31
0.0
  0
LINE
  5
785
100
AcDbEntity
  8
5
 62
     2
100
AcDbLine
 10
-115.026506
 20
364.123715
 30
0.0
 11
-115.026506
 21
484.497803
 31
0.0
  0
ENDBLK
  5
786
100
AcDbEntity
  8
5
100
AcDbBlockEnd
  0
ENDSEC
  0
SECTION
  2
ENTITIES
  0
ARC
  5
2E
100
AcDbEntity
  8
1
100
AcDbCircle
 10
166.137861
 20
-35.411846
 30
0.0
 40
2.857143
100
AcDbArc
 50
180.0
 51
270.0
  0
ARC
  5
2F
100
AcDbEntity
  8
1
100
AcDbCircle
 10
168.723575
 20
-32.426132
 30
0.0
 40
2.857143
100
AcDbArc
 50
0.0
 51
90.0
  0
ARC
  5
30
100
AcDbEntity
  8
1
100
AcDbCircle
 10
166.10929
 20
-33.69756
 30
0.0
 40
1.428571
100
AcDbArc
 50
90.0
 51
180.0
  0
ARC
  5
31
100
AcDbEntity
  8
1
100
AcDbCircle
 10
168.752147
 20
-34.140418
 30
0.0
 40
1.428571
100
AcDbArc
 50
270.0
 51
0.0
  0
LINE
  5
32
100
AcDbEntity
  8
1
100
AcDbLine
 10
170.180718
 20
-41.668989
 30
0.0
 11
163.280718
 21
-41.368989
 31
0.0
  0
LINE
  5
33
100
AcDbEntity
  8
1
100
AcDbLine
 10
170.180718
 20
-46.368989
 30
0.0
 11
163.280718
 21
-46.668989
 31
0.0
  0
LINE
  5
34
100
AcDbEntity
  8
1
100
AcDbLine
 10
170.180718
 20
-41.668989
 30
0.0
 11
163.280718
 21
-42.954703
 31
0.0
  0
LINE
  5
35
100
AcDbEntity
  8
1
100
AcDbLine
 10
166.60929
 20
-44.018989
 30
0.0
 11
171.580718
 21
-44.945342
 31
0.0
  0
LINE
  5
36
100
AcDbEntity
  8
1
100
AcDbLine
 10
171.580718
 20
-39.268989
 30
0.0
 11
171.580718
 21
-43.092636
 31
0.0
  0
LINE
  5
37
100
AcDbEntity
  8
1
100
AcDbLine
 10
163.280718
 20
-42.954703
 30
0.0
 11
163.280718
 21
-45.083275
 31
0.0
  0
ARC
  5
38
100
AcDbEntity
  8
1
100
AcDbCircle
 10
166.137861
 20
-55.611846
 30
0.0
 40
2.857143
100
AcDbArc
 50
180.0
 51
270.0
  0
ARC
  5
39
100
AcDbEntity
  8
1
100
AcDbCircle
 10
166.10929
 20
-54.340418
 30
0.0
 40
1.428571
100
AcDbArc
 50
180.0
 51
270.0
  0
LINE
  5
3A
100
AcDbEntity
  8
1
100
AcDbLine
 10
168.752147
 20
-52.468989
 30
0.0
 11
166.10929
 21
-52.468989
 31
0.0
  0
ARC
  5
3B
100
AcDbEntity
  8
1
100
AcDbCircle
 10
168.723575
 20
-52.626132
 30
0.0
 40
2.857143
100
AcDbArc
 50
0.0
 51
90.0
  0
LINE
  5
3C
100
AcDbEntity
  8
1
100
AcDbLine
 10
168.723575
 20
-49.768989
 30
0.0
 11
166.137861
 21
-49.768989
 31
0.0
  0
LINE
  5
3D
100
AcDbEntity
  8
1
100
AcDbLine
 10
163.280718
 20
-46.668989
 30
0.0
 11
163.280718
 21
-49.368989
 31
0.0
  0
LINE
  5
3E
100
AcDbEntity
  8
1
100
AcDbLine
 10
163.480718
 20
-59.168989
 30
0.0
 11
163.480718
 21
-65.668989
 31
0.0
  0
LINE
  5
3F
100
AcDbEntity
  8
1
100
AcDbLine
 10
166.680718
 20
-61.868989
 30
0.0
 11
166.680718
 21
-65.668989
 31
0.0
  0
LINE
  5
40
100
AcDbEntity
  8
1
100
AcDbLine
 10
168.180718
 20
-61.868989
 30
0.0
 11
168.180718
 21
-65.668989
 31
0.0
  0
LINE
  5
41
100
AcDbEntity
  8
1
100
AcDbLine
 10
164.980718
 20
-61.868989
 30
0.0
 11
166.680718
 21
-61.868989
 31
0.0
  0
LINE
  5
42
100
AcDbEntity
  8
1
100
AcDbLine
 10
168.180718
 20
-61.868989
 30
0.0
 11
169.880718
 21
-61.868989
 31
0.0
  0
LINE
  5
43
100
AcDbEntity
  8
1
100
AcDbLine
 10
169.880718
 20
-26.168989
 30
0.0
 11
169.880718
 21
-28.868989
 31
0.0
  0
LINE
  5
44
100
AcDbEntity
  8
1
100
AcDbLine
 10
168.180718
 20
-22.668989
 30
0.0
 11
173.280718
 21
-33.168989
 31
0.0
  0
LINE
  5
45
100
AcDbEntity
  8
1
100
AcDbLine
 10
168.180718
 20
-22.668989
 30
0.0
 11
173.280718
 21
-22.668989
 31
0.0
  0
LINE
  5
46
100
AcDbEntity
  8
1
100
AcDbLine
 10
169.880718
 20
-28.868989
 30
0.0
 11
163.280718
 21
-28.868989
 31
0.0
  0
LINE
  5
47
100
AcDbEntity
  8
1
100
AcDbLine
 10
168.723575
 20
-29.568989
 30
0.0
 11
166.137861
 21
-29.568989
 31
0.0
  0
LINE
  5
48
100
AcDbEntity
  8
1
100
AcDbLine
 10
168.723575
 20
-38.268989
 30
0.0
 11
166.137861
 21
-38.268989
 31
0.0
  0
LINE
  5
49
100
AcDbEntity
  8
1
100
AcDbLine
 10
168.752147
 20
-32.268989
 30
0.0
 11
166.10929
 21
-32.268989
 31
0.0
  0
LINE
  5
4A
100
AcDbEntity
  8
1
100
AcDbLine
 10
168.752147
 20
-35.568989
 30
0.0
 11
166.10929
 21
-35.568989
 31
0.0
  0
ARC
  5
4B
100
AcDbEntity
  8
1
100
AcDbCircle
 10
166.137861
 20
-32.426132
 30
0.0
 40
2.857143
100
AcDbArc
 50
90.0
 51
180.0
  0
ARC
  5
4C
100
AcDbEntity
  8
1
100
AcDbCircle
 10
168.723575
 20
-35.411846
 30
0.0
 40
2.857143
100
AcDbArc
 50
270.0
 51
360.0
  0
ARC
  5
4D
100
AcDbEntity
  8
1
100
AcDbCircle
 10
166.10929
 20
-34.140418
 30
0.0
 40
1.428571
100
AcDbArc
 50
180.0
 51
270.0
  0
ARC
  5
4E
100
AcDbEntity
  8
1
100
AcDbCircle
 10
168.752147
 20
-33.69756
 30
0.0
 40
1.428571
100
AcDbArc
 50
360.0
 51
90.0
  0
LINE
  5
4F
100
AcDbEntity
  8
1
100
AcDbLine
 10
163.280718
 20
-26.168989
 30
0.0
 11
163.280718
 21
-28.868989
 31
0.0
  0
LINE
  5
50
100
AcDbEntity
  8
1
100
AcDbLine
 10
171.580718
 20
-39.268989
 30
0.0
 11
163.280718
 21
-38.668989
 31
0.0
  0
LINE
  5
51
100
AcDbEntity
  8
1
100
AcDbLine
 10
171.580718
 20
-48.768989
 30
0.0
 11
163.280718
 21
-49.368989
 31
0.0
  0
LINE
  5
52
100
AcDbEntity
  8
1
100
AcDbLine
 10
170.180718
 20
-46.368989
 30
0.0
 11
163.280718
 21
-45.083275
 31
0.0
  0
LINE
  5
53
100
AcDbEntity
  8
1
100
AcDbLine
 10
166.60929
 20
-44.018989
 30
0.0
 11
171.580718
 21
-43.092636
 31
0.0
  0
LINE
  5
54
100
AcDbEntity
  8
1
100
AcDbLine
 10
171.580718
 20
-32.426132
 30
0.0
 11
171.580718
 21
-35.411846
 31
0.0
  0
LINE
  5
55
100
AcDbEntity
  8
1
100
AcDbLine
 10
163.280718
 20
-32.426132
 30
0.0
 11
163.280718
 21
-35.411846
 31
0.0
  0
LINE
  5
56
100
AcDbEntity
  8
1
100
AcDbLine
 10
163.280718
 20
-38.668989
 30
0.0
 11
163.280718
 21
-41.368989
 31
0.0
  0
ARC
  5
57
100
AcDbEntity
  8
1
100
AcDbCircle
 10
166.137861
 20
-52.626132
 30
0.0
 40
2.857143
100
AcDbArc
 50
90.0
 51
180.0
  0
LINE
  5
58
100
AcDbEntity
  8
1
100
AcDbLine
 10
168.752147
 20
-55.768989
 30
0.0
 11
166.10929
 21
-55.768989
 31
0.0
  0
ARC
  5
59
100
AcDbEntity
  8
1
100
AcDbCircle
 10
166.10929
 20
-53.89756
 30
0.0
 40
1.428571
100
AcDbArc
 50
90.0
 51
180.0
  0
ARC
  5
5A
100
AcDbEntity
  8
1
100
AcDbCircle
 10
168.752147
 20
-54.340418
 30
0.0
 40
1.428571
100
AcDbArc
 50
270.0
 51
360.0
  0
ARC
  5
5B
100
AcDbEntity
  8
1
100
AcDbCircle
 10
168.752147
 20
-53.89756
 30
0.0
 40
1.428571
100
AcDbArc
 50
0.0
 51
90.0
  0
ARC
  5
5C
100
AcDbEntity
  8
1
100
AcDbCircle
 10
168.723575
 20
-55.611846
 30
0.0
 40
2.857143
100
AcDbArc
 50
270.0
 51
360.0
  0
LINE
  5
5D
100
AcDbEntity
  8
1
100
AcDbLine
 10
168.723575
 20
-58.468989
 30
0.0
 11
166.137861
 21
-58.468989
 31
0.0
  0
LINE
  5
5E
100
AcDbEntity
  8
1
100
AcDbLine
 10
170.180718
 20
-34.140418
 30
0.0
 11
170.180718
 21
-33.69756
 31
0.0
  0
LINE
  5
5F
100
AcDbEntity
  8
1
100
AcDbLine
 10
164.680718
 20
-34.140418
 30
0.0
 11
164.680718
 21
-33.69756
 31
0.0
  0
LINE
  5
60
100
AcDbEntity
  8
1
100
AcDbLine
 10
170.180718
 20
-53.89756
 30
0.0
 11
170.180718
 21
-54.340418
 31
0.0
  0
LINE
  5
61
100
AcDbEntity
  8
1
100
AcDbLine
 10
171.580718
 20
-44.945342
 30
0.0
 11
171.580718
 21
-48.768989
 31
0.0
  0
LINE
  5
62
100
AcDbEntity
  8
1
100
AcDbLine
 10
171.580718
 20
-52.626132
 30
0.0
 11
171.580718
 21
-55.611846
 31
0.0
  0
LINE
  5
63
100
AcDbEntity
  8
1
100
AcDbLine
 10
163.280718
 20
-52.626132
 30
0.0
 11
163.280718
 21
-55.611846
 31
0.0
  0
LINE
  5
64
100
AcDbEntity
  8
1
100
AcDbLine
 10
171.380718
 20
-59.168989
 30
0.0
 11
163.480718
 21
-59.168989
 31
0.0
  0
LINE
  5
65
100
AcDbEntity
  8
1
100
AcDbLine
 10
171.380718
 20
-59.168989
 30
0.0
 11
171.380718
 21
-65.668989
 31
0.0
  0
LINE
  5
66
100
AcDbEntity
  8
1
100
AcDbLine
 10
164.980718
 20
-61.868989
 30
0.0
 11
164.980718
 21
-65.668989
 31
0.0
  0
LINE
  5
67
100
AcDbEntity
  8
1
100
AcDbLine
 10
169.880718
 20
-61.868989
 30
0.0
 11
169.880718
 21
-65.668989
 31
0.0
  0
LINE
  5
68
100
AcDbEntity
  8
1
100
AcDbLine
 10
169.880718
 20
-65.668989
 30
0.0
 11
171.380718
 21
-65.668989
 31
0.0
  0
LINE
  5
69
100
AcDbEntity
  8
1
100
AcDbLine
 10
163.480718
 20
-65.668989
 30
0.0
 11
164.980718
 21
-65.668989
 31
0.0
  0
LINE
  5
6A
100
AcDbEntity
  8
1
100
AcDbLine
 10
166.680718
 20
-65.668989
 30
0.0
 11
168.180718
 21
-65.668989
 31
0.0
  0
LINE
  5
6B
100
AcDbEntity
  8
1
100
AcDbLine
 10
169.880718
 20
-26.168989
 30
0.0
 11
163.280718
 21
-26.168989
 31
0.0
  0
LINE
  5
6C
100
AcDbEntity
  8
1
100
AcDbLine
 10
173.280718
 20
-22.668989
 30
0.0
 11
173.280718
 21
-33.168989
 31
0.0
  0
LINE
  5
6D
100
AcDbEntity
  8
1
100
AcDbLine
 10
164.680718
 20
-53.89756
 30
0.0
 11
164.680718
 21
-54.340418
 31
0.0
  0
LINE
  5
6E
100
AcDbEntity
  8
1
  6
CENTER
 62
     2
100
AcDbLine
 10
-494.064911
 20
-223.168989
 30
0.0
 11
-133.654492
 21
-223.168989
 31
0.0
  0
LINE
  5
6F
100
AcDbEntity
  8
1
  6
CENTER
 62
     2
100
AcDbLine
 10
-313.026506
 20
-462.39164
 30
0.0
 11
-313.026506
 21
111.455357
 31
0.0
  0
LINE
  5
70
100
AcDbEntity
  8
1
  6
CENTER
 62
     2
100
AcDbLine
 10
-494.064911
 20
286.873715
 30
0.0
 11
-133.654492
 21
286.873715
 31
0.0
  0
LINE
  5
71
100
AcDbEntity
  8
1
  6
CENTER
 62
     2
100
AcDbLine
 10
168.280718
 20
-462.39164
 30
0.0
 11
168.280718
 21
111.455357
 31
0.0
  0
LINE
  5
72
100
AcDbEntity
  8
1
  6
CENTER
 62
     2
100
AcDbLine
 10
113.006721
 20
-223.168989
 30
0.0
 11
229.707703
 21
-223.168989
 31
0.0
  0
LINE
  5
73
100
AcDbEntity
  8
1
100
AcDbLine
 10
-360.026506
 20
-17.168989
 30
0.0
 11
-266.026506
 21
-17.168989
 31
0.0
  0
LINE
  5
74
100
AcDbEntity
  8
1
100
AcDbLine
 10
-364.026506
 20
-3.168989
 30
0.0
 11
-364.026506
 21
-13.168989
 31
0.0
  0
LINE
  5
75
100
AcDbEntity
  8
1
100
AcDbLine
 10
-262.026506
 20
-3.168989
 30
0.0
 11
-262.026506
 21
-13.168989
 31
0.0
  0
ARC
  5
76
100
AcDbEntity
  8
1
100
AcDbCircle
 10
-266.026506
 20
-13.168989
 30
0.0
 40
4.0
100
AcDbArc
 50
270.0
 51
360.0
  0
ARC
  5
77
100
AcDbEntity
  8
1
100
AcDbCircle
 10
-360.026506
 20
-13.168989
 30
0.0
 40
4.0
100
AcDbArc
 50
180.0
 51
270.0
  0
LINE
  5
78
100
AcDbEntity
  8
1
  6
DASHED
100
AcDbLine
 10
-364.026506
 20
259.373715
 30
0.0
 11
-364.026506
 21
314.373715
 31
0.0
  0
LINE
  5
79
100
AcDbEntity
  8
1
  6
DASHED
100
AcDbLine
 10
-262.026506
 20
259.373715
 30
0.0
 11
-262.026506
 21
314.373715
 31
0.0
  0
LINE
  5
7A
100
AcDbEntity
  8
1
  6
DASHED
100
AcDbLine
 10
-340.526506
 20
337.873715
 30
0.0
 11
-285.526506
 21
337.873715
 31
0.0
  0
LINE
  5
7B
100
AcDbEntity
  8
1
  6
DASHED
100
AcDbLine
 10
-340.526506
 20
235.873715
 30
0.0
 11
-285.526506
 21
235.873715
 31
0.0
  0
ARC
  5
7C
100
AcDbEntity
  8
1
  6
DASHED
100
AcDbCircle
 10
-340.526506
 20
314.373715
 30
0.0
 40
23.5
100
AcDbArc
 50
90.0
 51
180.0
  0
ARC
  5
7D
100
AcDbEntity
  8
1
  6
DASHED
100
AcDbCircle
 10
-340.526506
 20
259.373715
 30
0.0
 40
23.5
100
AcDbArc
 50
180.0
 51
270.0
  0
ARC
  5
7E
100
AcDbEntity
  8
1
  6
DASHED
100
AcDbCircle
 10
-285.526506
 20
259.373715
 30
0.0
 40
23.5
100
AcDbArc
 50
270.0
 51
0.0
  0
ARC
  5
7F
100
AcDbEntity
  8
1
  6
DASHED
100
AcDbCircle
 10
-285.526506
 20
314.373715
 30
0.0
 40
23.5
100
AcDbArc
 50
0.0
 51
90.0
  0
CIRCLE
  5
80
100
AcDbEntity
  8
1
  6
DASHED
100
AcDbCircle
 10
-276.96406
 20
322.936161
 30
0.0
 40
5.5
  0
ARC
  5
81
100
AcDbEntity
  8
1
  6
CENTER
 62
     2
100
AcDbCircle
 10
-313.026506
 20
286.873715
 30
0.0
 40
51.0
100
AcDbArc
 50
32.430384
 51
57.806188
  0
LINE
  5
82
100
AcDbEntity
  8
1
  6
CENTER
 62
     2
100
AcDbLine
 10
-284.749059
 20
315.151162
 30
0.0
 11
-269.64169
 21
330.25853
 31
0.0
  0
CIRCLE
  5
83
100
AcDbEntity
  8
1
  6
DASHED
100
AcDbCircle
 10
-349.088952
 20
322.936161
 30
0.0
 40
5.5
  0
ARC
  5
84
100
AcDbEntity
  8
1
  6
CENTER
 62
     2
100
AcDbCircle
 10
-313.026506
 20
286.873715
 30
0.0
 40
51.0
100
AcDbArc
 50
122.430384
 51
147.806188
  0
LINE
  5
85
100
AcDbEntity
  8
1
  6
CENTER
 62
     2
100
AcDbLine
 10
-341.303953
 20
315.151162
 30
0.0
 11
-356.411322
 21
330.25853
 31
0.0
  0
CIRCLE
  5
86
100
AcDbEntity
  8
1
  6
DASHED
100
AcDbCircle
 10
-349.088952
 20
250.811269
 30
0.0
 40
5.5
  0
ARC
  5
87
100
AcDbEntity
  8
1
  6
CENTER
 62
     2
100
AcDbCircle
 10
-313.026506
 20
286.873715
 30
0.0
 40
51.0
100
AcDbArc
 50
212.430384
 51
237.806188
  0
LINE
  5
88
100
AcDbEntity
  8
1
  6
CENTER
 62
     2
100
AcDbLine
 10
-341.303953
 20
258.596267
 30
0.0
 11
-356.411322
 21
243.488899
 31
0.0
  0
CIRCLE
  5
89
100
AcDbEntity
  8
1
  6
DASHED
100
AcDbCircle
 10
-276.96406
 20
250.811269
 30
0.0
 40
5.5
  0
ARC
  5
8A
100
AcDbEntity
  8
1
  6
CENTER
 62
     2
100
AcDbCircle
 10
-313.026506
 20
286.873715
 30
0.0
 40
51.0
100
AcDbArc
 50
302.430384
 51
327.806188
  0
LINE
  5
8B
100
AcDbEntity
  8
1
  6
CENTER
 62
     2
100
AcDbLine
 10
-284.749059
 20
258.596267
 30
0.0
 11
-269.64169
 21
243.488899
 31
0.0
  0
LINE
  5
8C
100
AcDbEntity
  8
1
  6
CENTER
 62
     2
100
AcDbLine
 10
-276.96406
 20
6.189262
 30
0.0
 11
-276.96406
 21
-26.152122
 31
0.0
  0
LINE
  5
8D
100
AcDbEntity
  8
1
  6
CENTER
 62
     2
100
AcDbLine
 10
-349.088952
 20
6.189262
 30
0.0
 11
-349.088952
 21
-26.152122
 31
0.0
  0
LINE
  5
8E
100
AcDbEntity
  8
1
100
AcDbLine
 10
121.280718
 20
-17.168989
 30
0.0
 11
215.280718
 21
-17.168989
 31
0.0
  0
LINE
  5
8F
100
AcDbEntity
  8
1
100
AcDbLine
 10
117.280718
 20
-3.168989
 30
0.0
 11
117.280718
 21
-13.168989
 31
0.0
  0
LINE
  5
90
100
AcDbEntity
  8
1
100
AcDbLine
 10
219.280718
 20
-3.168989
 30
0.0
 11
219.280718
 21
-13.168989
 31
0.0
  0
ARC
  5
91
100
AcDbEntity
  8
1
100
AcDbCircle
 10
215.280718
 20
-13.168989
 30
0.0
 40
4.0
100
AcDbArc
 50
270.0
 51
360.0
  0
ARC
  5
92
100
AcDbEntity
  8
1
100
AcDbCircle
 10
121.280718
 20
-13.168989
 30
0.0
 40
4.0
100
AcDbArc
 50
180.0
 51
270.0
  0
LINE
  5
93
100
AcDbEntity
  8
1
  6
CENTER
 62
     2
100
AcDbLine
 10
204.343164
 20
6.189262
 30
0.0
 11
204.343164
 21
-26.152122
 31
0.0
  0
LINE
  5
94
100
AcDbEntity
  8
1
  6
CENTER
 62
     2
100
AcDbLine
 10
132.218272
 20
6.189262
 30
0.0
 11
132.218272
 21
-26.152122
 31
0.0
  0
TEXT
  5
95
100
AcDbEntity
  8
1
100
AcDbText
 10
157.780718
 20
-13.668989
 30
0.0
 40
7.0
  1
２００
 72
     5
 11
177.380718
 21
-13.668989
 31
0.0
100
AcDbText
  0
LINE
  5
96
100
AcDbEntity
  8
1
100
AcDbLine
 10
-343.026506
 20
-443.168989
 30
0.0
 11
-283.026506
 21
-443.168989
 31
0.0
  0
LINE
  5
97
100
AcDbEntity
  8
1
100
AcDbLine
 10
142.780718
 20
-443.168989
 30
0.0
 11
193.780718
 21
-443.168989
 31
0.0
  0
ARC
  5
98
100
AcDbEntity
  8
1
100
AcDbCircle
 10
-313.026506
 20
-223.168989
 30
0.0
 40
156.0
100
AcDbArc
 50
173.287748
 51
188.589298
  0
ARC
  5
99
100
AcDbEntity
  8
1
100
AcDbCircle
 10
-313.026506
 20
-223.168989
 30
0.0
 40
156.0
100
AcDbArc
 50
351.410702
 51
6.712252
  0
LINE
  5
9A
100
AcDbEntity
  8
1
100
AcDbLine
 10
-465.97094
 20
-203.168989
 30
0.0
 11
-446.221851
 21
-203.168989
 31
0.0
  0
LINE
  5
9B
100
AcDbEntity
  8
1
100
AcDbLine
 10
-179.831161
 20
-203.168989
 30
0.0
 11
-160.082072
 21
-203.168989
 31
0.0
  0
LINE
  5
9C
100
AcDbEntity
  8
1
100
AcDbLine
 10
-465.299287
 20
-248.168989
 30
0.0
 11
-445.298952
 21
-248.168989
 31
0.0
  0
LINE
  5
9D
100
AcDbEntity
  8
1
100
AcDbLine
 10
-180.75406
 20
-248.168989
 30
0.0
 11
-160.753724
 21
-248.168989
 31
0.0
  0
ARC
  5
9E
100
AcDbEntity
  8
1
100
AcDbCircle
 10
-160.082072
 20
-205.168989
 30
0.0
 40
2.0
100
AcDbArc
 50
6.712252
 51
90.0
  0
ARC
  5
9F
100
AcDbEntity
  8
1
100
AcDbCircle
 10
-160.753724
 20
-246.168989
 30
0.0
 40
2.0
100
AcDbArc
 50
270.0
 51
351.410702
  0
ARC
  5
A0
100
AcDbEntity
  8
1
100
AcDbCircle
 10
-465.299287
 20
-246.168989
 30
0.0
 40
2.0
100
AcDbArc
 50
188.589298
 51
270.0
  0
ARC
  5
A1
100
AcDbEntity
  8
1
100
AcDbCircle
 10
-465.97094
 20
-205.168989
 30
0.0
 40
2.0
100
AcDbArc
 50
90.0
 51
173.287748
  0
ARC
  5
A2
100
AcDbEntity
  8
1
100
AcDbCircle
 10
-179.831161
 20
-201.168989
 30
0.0
 40
2.0
100
AcDbArc
 50
189.378919
 51
270.0
  0
ARC
  5
A3
100
AcDbEntity
  8
1
100
AcDbCircle
 10
-180.75406
 20
-250.168989
 30
0.0
 40
2.0
100
AcDbArc
 50
90.0
 51
168.463041
  0
ARC
  5
A4
100
AcDbEntity
  8
1
100
AcDbCircle
 10
-445.298952
 20
-250.168989
 30
0.0
 40
2.0
100
AcDbArc
 50
11.536959
 51
90.0
  0
ARC
  5
A5
100
AcDbEntity
  8
1
100
AcDbCircle
 10
-446.221851
 20
-201.168989
 30
0.0
 40
2.0
100
AcDbArc
 50
270.0
 51
350.621081
  0
LINE
  5
A6
100
AcDbEntity
  8
1
100
AcDbLine
 10
-469.026506
 20
271.373715
 30
0.0
 11
-469.026506
 21
302.373715
 31
0.0
  0
LINE
  5
A7
100
AcDbEntity
  8
1
100
AcDbLine
 10
-459.026506
 20
312.373715
 30
0.0
 11
-447.112224
 21
312.373715
 31
0.0
  0
LINE
  5
A8
100
AcDbEntity
  8
1
100
AcDbLine
 10
-459.026506
 20
261.373715
 30
0.0
 11
-447.112224
 21
261.373715
 31
0.0
  0
ARC
  5
A9
100
AcDbEntity
  8
1
100
AcDbCircle
 10
-459.026506
 20
271.373715
 30
0.0
 40
10.0
100
AcDbArc
 50
180.0
 51
270.0
  0
ARC
  5
AA
100
AcDbEntity
  8
1
100
AcDbCircle
 10
-459.026506
 20
302.373715
 30
0.0
 40
10.0
100
AcDbArc
 50
90.0
 51
180.0
  0
ARC
  5
AB
100
AcDbEntity
  8
1
100
AcDbCircle
 10
-448.624582
 20
315.373715
 30
0.0
 40
3.0
100
AcDbArc
 50
270.0
 51
330.0
  0
ARC
  5
AC
100
AcDbEntity
  8
1
100
AcDbCircle
 10
-448.624582
 20
258.373715
 30
0.0
 40
3.0
100
AcDbArc
 50
30.0
 51
90.0
  0
LINE
  5
AD
100
AcDbEntity
  8
1
  6
CENTER
 62
     2
100
AcDbLine
 10
-463.640869
 20
298.873715
 30
0.0
 11
-443.010529
 21
298.873715
 31
0.0
  0
LINE
  5
AE
100
AcDbEntity
  8
1
  6
CENTER
 62
     2
100
AcDbLine
 10
-463.640869
 20
274.873715
 30
0.0
 11
-443.010529
 21
274.873715
 31
0.0
  0
CIRCLE
  5
AF
100
AcDbEntity
  8
1
100
AcDbCircle
 10
-454.026506
 20
298.873715
 30
0.0
 40
6.0
  0
CIRCLE
  5
B0
100
AcDbEntity
  8
1
 62
     2
100
AcDbCircle
 10
-454.026506
 20
298.873715
 30
0.0
 40
5.053
  0
CIRCLE
  5
B1
100
AcDbEntity
  8
1
100
AcDbCircle
 10
-454.026506
 20
274.873715
 30
0.0
 40
6.0
  0
CIRCLE
  5
B2
100
AcDbEntity
  8
1
 62
     2
100
AcDbCircle
 10
-454.026506
 20
274.873715
 30
0.0
 40
5.053
  0
LINE
  5
B3
100
AcDbEntity
  8
1
  6
CENTER
 62
     2
100
AcDbLine
 10
-454.026506
 20
264.632454
 30
0.0
 11
-454.026506
 21
284.315147
 31
0.0
  0
LINE
  5
B4
100
AcDbEntity
  8
1
  6
CENTER
 62
     2
100
AcDbLine
 10
-454.026506
 20
289.397331
 30
0.0
 11
-454.026506
 21
308.615807
 31
0.0
  0
ARC
  5
B5
100
AcDbEntity
  8
1
100
AcDbCircle
 10
-447.112224
 20
315.373715
 30
0.0
 40
3.0
100
AcDbArc
 50
270.0
 51
330.0
  0
ARC
  5
B6
100
AcDbEntity
  8
1
100
AcDbCircle
 10
-447.112224
 20
258.373715
 30
0.0
 40
3.0
100
AcDbArc
 50
30.0
 51
90.0
  0
LINE
  5
B7
100
AcDbEntity
  8
1
100
AcDbLine
 10
-467.739143
 20
271.373715
 30
0.0
 11
-467.739143
 21
302.373715
 31
0.0
  0
ARC
  5
B8
100
AcDbEntity
  8
1
100
AcDbCircle
 10
-457.739143
 20
302.373715
 30
0.0
 40
10.0
100
AcDbArc
 50
90.0
 51
180.0
  0
ARC
  5
B9
100
AcDbEntity
  8
1
100
AcDbCircle
 10
-457.739143
 20
271.373715
 30
0.0
 40
10.0
100
AcDbArc
 50
180.0
 51
270.0
  0
LINE
  5
BA
100
AcDbEntity
  8
1
100
AcDbLine
 10
-340.026506
 20
-25.168989
 30
0.0
 11
-340.026506
 21
-74.107326
 31
0.0
  0
LINE
  5
BB
100
AcDbEntity
  8
1
100
AcDbLine
 10
-286.026506
 20
-25.168989
 30
0.0
 11
-286.026506
 21
-74.107326
 31
0.0
  0
LINE
  5
BC
100
AcDbEntity
  8
1
100
AcDbLine
 10
-343.026506
 20
-380.618221
 30
0.0
 11
-343.026506
 21
-443.168989
 31
0.0
  0
LINE
  5
BD
100
AcDbEntity
  8
1
100
AcDbLine
 10
-283.026506
 20
-380.618221
 30
0.0
 11
-283.026506
 21
-443.168989
 31
0.0
  0
ARC
  5
BE
100
AcDbEntity
  8
1
100
AcDbCircle
 10
-278.026506
 20
-25.168989
 30
0.0
 40
8.0
100
AcDbArc
 50
90.0
 51
180.0
  0
ARC
  5
BF
100
AcDbEntity
  8
1
100
AcDbCircle
 10
-348.026506
 20
-25.168989
 30
0.0
 40
8.0
100
AcDbArc
 50
0.0
 51
90.0
  0
ARC
  5
C0
100
AcDbEntity
  8
1
100
AcDbCircle
 10
-179.063974
 20
-167.679891
 30
0.0
 40
17.0
100
AcDbArc
 50
166.923882
 51
238.076118
  0
ARC
  5
C1
100
AcDbEntity
  8
1
100
AcDbCircle
 10
-313.026506
 20
-223.168989
 30
0.0
 40
133.0
100
AcDbArc
 50
343.54805
 51
16.45195
  0
ARC
  5
C2
100
AcDbEntity
  8
1
100
AcDbCircle
 10
-179.063974
 20
-278.658087
 30
0.0
 40
17.0
100
AcDbArc
 50
121.923882
 51
193.076118
  0
ARC
  5
C3
100
AcDbEntity
  8
1
100
AcDbCircle
 10
-201.467592
 20
-162.476249
 30
0.0
 40
6.0
100
AcDbArc
 50
346.923882
 51
28.54805
  0
ARC
  5
C4
100
AcDbEntity
  8
1
100
AcDbCircle
 10
-191.226193
 20
-187.201172
 30
0.0
 40
6.0
100
AcDbArc
 50
16.45195
 51
58.076118
  0
ARC
  5
C5
100
AcDbEntity
  8
1
100
AcDbCircle
 10
-191.226193
 20
-259.136806
 30
0.0
 40
6.0
100
AcDbArc
 50
301.923882
 51
343.54805
  0
ARC
  5
C6
100
AcDbEntity
  8
1
100
AcDbCircle
 10
-201.467592
 20
-283.861729
 30
0.0
 40
6.0
100
AcDbArc
 50
331.45195
 51
13.076118
  0
ARC
  5
C7
100
AcDbEntity
  8
1
100
AcDbCircle
 10
-446.989038
 20
-167.679891
 30
0.0
 40
17.0
100
AcDbArc
 50
301.923882
 51
13.076118
  0
ARC
  5
C8
100
AcDbEntity
  8
1
100
AcDbCircle
 10
-313.026506
 20
-223.168989
 30
0.0
 40
133.0
100
AcDbArc
 50
163.54805
 51
196.45195
  0
ARC
  5
C9
100
AcDbEntity
  8
1
100
AcDbCircle
 10
-446.989038
 20
-278.658087
 30
0.0
 40
17.0
100
AcDbArc
 50
346.923882
 51
58.076118
  0
ARC
  5
CA
100
AcDbEntity
  8
1
100
AcDbCircle
 10
-434.826819
 20
-187.201172
 30
0.0
 40
6.0
100
AcDbArc
 50
121.923882
 51
163.54805
  0
ARC
  5
CB
100
AcDbEntity
  8
1
100
AcDbCircle
 10
-424.58542
 20
-162.476249
 30
0.0
 40
6.0
100
AcDbArc
 50
151.45195
 51
193.076118
  0
ARC
  5
CC
100
AcDbEntity
  8
1
100
AcDbCircle
 10
-434.826819
 20
-259.136806
 30
0.0
 40
6.0
100
AcDbArc
 50
196.45195
 51
238.076118
  0
ARC
  5
CD
100
AcDbEntity
  8
1
100
AcDbCircle
 10
-424.58542
 20
-283.861729
 30
0.0
 40
6.0
100
AcDbArc
 50
166.923882
 51
208.54805
  0
ARC
  5
CE
100
AcDbEntity
  8
1
100
AcDbCircle
 10
-313.026506
 20
-223.168989
 30
0.0
 40
133.0
100
AcDbArc
 50
299.106066
 51
331.45195
  0
ARC
  5
CF
100
AcDbEntity
  8
1
100
AcDbCircle
 10
-313.026506
 20
-223.168989
 30
0.0
 40
133.0
100
AcDbArc
 50
208.54805
 51
240.893934
  0
ARC
  5
D0
100
AcDbEntity
  8
1
100
AcDbCircle
 10
-313.026506
 20
-223.168989
 30
0.0
 40
133.0
100
AcDbArc
 50
253.54805
 51
286.45195
  0
ARC
  5
D1
100
AcDbEntity
  8
1
100
AcDbCircle
 10
-368.515604
 20
-357.131521
 30
0.0
 40
17.0
100
AcDbArc
 50
31.923882
 51
90.0
  0
ARC
  5
D2
100
AcDbEntity
  8
1
100
AcDbCircle
 10
-257.537408
 20
-357.131521
 30
0.0
 40
17.0
100
AcDbArc
 50
90.0
 51
148.076118
  0
ARC
  5
D3
100
AcDbEntity
  8
1
100
AcDbCircle
 10
-277.058689
 20
-344.969302
 30
0.0
 40
6.0
100
AcDbArc
 50
286.45195
 51
328.076118
  0
ARC
  5
D4
100
AcDbEntity
  8
1
100
AcDbCircle
 10
-348.994323
 20
-344.969302
 30
0.0
 40
6.0
100
AcDbArc
 50
211.923882
 51
253.54805
  0
ARC
  5
D5
100
AcDbEntity
  8
1
100
AcDbCircle
 10
-259.450825
 20
-93.825854
 30
0.0
 40
15.0
100
AcDbArc
 50
208.914695
 51
270.0
  0
ARC
  5
D6
100
AcDbEntity
  8
1
100
AcDbCircle
 10
-313.026506
 20
-223.168989
 30
0.0
 40
133.0
100
AcDbArc
 50
28.54805
 51
58.549972
  0
ARC
  5
D7
100
AcDbEntity
  8
1
100
AcDbCircle
 10
-313.026506
 20
-223.168989
 30
0.0
 40
133.0
100
AcDbArc
 50
79.568196
 51
100.431804
  0
ARC
  5
D8
100
AcDbEntity
  8
1
100
AcDbCircle
 10
-313.026506
 20
-223.168989
 30
0.0
 40
133.0
100
AcDbArc
 50
121.450028
 51
151.45195
  0
ARC
  5
D9
100
AcDbEntity
  8
1
100
AcDbCircle
 10
-366.602186
 20
-93.825854
 30
0.0
 40
15.0
100
AcDbArc
 50
270.0
 51
331.085305
  0
LINE
  5
DA
100
AcDbEntity
  8
1
100
AcDbLine
 10
-259.450825
 20
-108.825854
 30
0.0
 11
-246.763657
 21
-108.825854
 31
0.0
  0
LINE
  5
DB
100
AcDbEntity
  8
1
100
AcDbLine
 10
-366.602186
 20
-108.825854
 30
0.0
 11
-379.289355
 21
-108.825854
 31
0.0
  0
ARC
  5
DC
100
AcDbEntity
  8
1
100
AcDbCircle
 10
-379.289355
 20
-114.825854
 30
0.0
 40
6.0
100
AcDbArc
 50
90.0
 51
121.450028
  0
ARC
  5
DD
100
AcDbEntity
  8
1
100
AcDbCircle
 10
-246.763657
 20
-114.825854
 30
0.0
 40
6.0
100
AcDbArc
 50
58.549972
 51
90.0
  0
LINE
  5
DE
100
AcDbEntity
  8
1
100
AcDbLine
 10
-368.515604
 20
-340.131521
 30
0.0
 11
-374.802848
 21
-340.131521
 31
0.0
  0
LINE
  5
DF
100
AcDbEntity
  8
1
100
AcDbLine
 10
-257.537408
 20
-340.131521
 30
0.0
 11
-251.250164
 21
-340.131521
 31
0.0
  0
ARC
  5
E0
100
AcDbEntity
  8
1
100
AcDbCircle
 10
-374.802848
 20
-334.131521
 30
0.0
 40
6.0
100
AcDbArc
 50
240.893934
 51
270.0
  0
ARC
  5
E1
100
AcDbEntity
  8
1
100
AcDbCircle
 10
-251.250164
 20
-334.131521
 30
0.0
 40
6.0
100
AcDbArc
 50
270.0
 51
299.106066
  0
ARC
  5
E2
100
AcDbEntity
  8
1
100
AcDbCircle
 10
-378.026506
 20
-273.168989
 30
0.0
 40
242.0
100
AcDbArc
 50
55.064804
 51
64.692201
  0
ARC
  5
E3
100
AcDbEntity
  8
1
100
AcDbCircle
 10
-248.026506
 20
-273.168989
 30
0.0
 40
242.0
100
AcDbArc
 50
115.307799
 51
124.935196
  0
ARC
  5
E4
100
AcDbEntity
  8
1
100
AcDbCircle
 10
-266.026506
 20
-36.314603
 30
0.0
 40
20.0
100
AcDbArc
 50
180.0
 51
244.692201
  0
ARC
  5
E5
100
AcDbEntity
  8
1
100
AcDbCircle
 10
-360.026506
 20
-36.314603
 30
0.0
 40
20.0
100
AcDbArc
 50
295.307799
 51
360.0
  0
LINE
  5
E6
100
AcDbEntity
  8
1
100
AcDbLine
 10
-236.104361
 20
-82.449113
 30
0.0
 11
-237.170474
 21
-90.034901
 31
0.0
  0
LINE
  5
E7
100
AcDbEntity
  8
1
100
AcDbLine
 10
-389.94865
 20
-82.449113
 30
0.0
 11
-388.882538
 21
-90.034901
 31
0.0
  0
ARC
  5
E8
100
AcDbEntity
  8
1
100
AcDbCircle
 10
-244.026506
 20
-81.335728
 30
0.0
 40
8.0
100
AcDbArc
 50
352.0
 51
55.064804
  0
ARC
  5
E9
100
AcDbEntity
  8
1
100
AcDbCircle
 10
-382.026506
 20
-81.335728
 30
0.0
 40
8.0
100
AcDbArc
 50
124.935196
 51
188.0
  0
LINE
  5
EA
100
AcDbEntity
  8
1
100
AcDbLine
 10
-385.277804
 20
-98.026071
 30
0.0
 11
-387.391626
 21
-94.364823
 31
0.0
  0
LINE
  5
EB
100
AcDbEntity
  8
1
100
AcDbLine
 10
-240.775208
 20
-98.026071
 30
0.0
 11
-238.661386
 21
-94.364823
 31
0.0
  0
ARC
  5
EC
100
AcDbEntity
  8
1
100
AcDbCircle
 10
-376.999321
 20
-88.364823
 30
0.0
 40
12.0
100
AcDbArc
 50
188.0
 51
210.0
  0
ARC
  5
ED
100
AcDbEntity
  8
1
100
AcDbCircle
 10
-249.053691
 20
-88.364823
 30
0.0
 40
12.0
100
AcDbArc
 50
330.0
 51
352.0
  0
ARC
  5
EE
100
AcDbEntity
  8
1
100
AcDbCircle
 10
-230.382904
 20
-104.026071
 30
0.0
 40
12.0
100
AcDbArc
 50
150.0
 51
235.252851
  0
ARC
  5
EF
100
AcDbEntity
  8
1
100
AcDbCircle
 10
-395.670108
 20
-104.026071
 30
0.0
 40
12.0
100
AcDbArc
 50
304.747149
 51
30.0
  0
CIRCLE
  5
F0
100
AcDbEntity
  8
1
100
AcDbCircle
 10
-350.555267
 20
-83.109744
 30
0.0
 40
10.5
  0
LINE
  5
F1
100
AcDbEntity
  8
1
  6
CENTER
 62
     2
100
AcDbLine
 10
-354.917619
 20
-66.829226
 30
0.0
 11
-346.219798
 21
-99.289935
 31
0.0
  0
ARC
  5
F2
100
AcDbEntity
  8
1
  6
CENTER
 62
     2
100
AcDbCircle
 10
-313.026506
 20
-223.168989
 30
0.0
 40
145.0
100
AcDbArc
 50
98.461581
 51
111.50398
  0
ARC
  5
F3
100
AcDbEntity
  8
1
  6
CENTER
 62
     2
100
AcDbCircle
 10
-313.026506
 20
-223.168989
 30
0.0
 40
145.0
100
AcDbArc
 50
68.49602
 51
81.538419
  0
LINE
  5
F4
100
AcDbEntity
  8
1
  6
CENTER
 62
     2
100
AcDbLine
 10
-271.135393
 20
-66.829226
 30
0.0
 11
-279.833213
 21
-99.289935
 31
0.0
  0
CIRCLE
  5
F5
100
AcDbEntity
  8
1
100
AcDbCircle
 10
-275.497744
 20
-83.109744
 30
0.0
 40
10.5
  0
LINE
  5
F6
100
AcDbEntity
  8
1
100
AcDbLine
 10
-338.026506
 20
-81.571427
 30
0.0
 11
-338.026506
 21
-89.304522
 31
0.0
  0
LINE
  5
F7
100
AcDbEntity
  8
1
100
AcDbLine
 10
-288.026506
 20
-81.571427
 30
0.0
 11
-288.026506
 21
-89.304522
 31
0.0
  0
ARC
  5
F8
100
AcDbEntity
  8
1
100
AcDbCircle
 10
-275.497744
 20
-83.109744
 30
0.0
 40
15.0
100
AcDbArc
 50
223.496373
 51
263.615416
  0
ARC
  5
F9
100
AcDbEntity
  8
1
100
AcDbCircle
 10
-277.832977
 20
-103.9795
 30
0.0
 40
6.0
100
AcDbArc
 50
28.914695
 51
83.615416
  0
ARC
  5
FA
100
AcDbEntity
  8
1
100
AcDbCircle
 10
-282.026506
 20
-89.304522
 30
0.0
 40
6.0
100
AcDbArc
 50
180.0
 51
223.496373
  0
ARC
  5
FB
100
AcDbEntity
  8
1
100
AcDbCircle
 10
-290.031241
 20
-98.268157
 30
0.0
 40
6.0
100
AcDbArc
 50
46.205709
 51
79.568196
  0
ARC
  5
FC
100
AcDbEntity
  8
1
100
AcDbCircle
 10
-350.555267
 20
-83.109744
 30
0.0
 40
15.0
100
AcDbArc
 50
276.384584
 51
316.503627
  0
ARC
  5
FD
100
AcDbEntity
  8
1
100
AcDbCircle
 10
-344.026506
 20
-89.304522
 30
0.0
 40
6.0
100
AcDbArc
 50
316.503627
 51
360.0
  0
ARC
  5
FE
100
AcDbEntity
  8
1
100
AcDbCircle
 10
-348.220035
 20
-103.9795
 30
0.0
 40
6.0
100
AcDbArc
 50
96.384584
 51
151.085305
  0
ARC
  5
FF
100
AcDbEntity
  8
1
100
AcDbCircle
 10
-336.021771
 20
-98.268157
 30
0.0
 40
6.0
100
AcDbArc
 50
100.431804
 51
133.794291
  0
LINE
  5
100
100
AcDbEntity
  8
1
100
AcDbLine
 10
-316.026506
 20
-37.168989
 30
0.0
 11
-310.026506
 21
-37.168989
 31
0.0
  0
LINE
  5
101
100
AcDbEntity
  8
1
100
AcDbLine
 10
-316.026506
 20
-21.168989
 30
0.0
 11
-316.026506
 21
-34.168989
 31
0.0
  0
LINE
  5
102
100
AcDbEntity
  8
1
100
AcDbLine
 10
-310.026506
 20
-21.168989
 30
0.0
 11
-310.026506
 21
-34.168989
 31
0.0
  0
ARC
  5
103
100
AcDbEntity
  8
1
100
AcDbCircle
 10
-319.026506
 20
-34.168989
 30
0.0
 40
3.0
100
AcDbArc
 50
270.0
 51
360.0
  0
ARC
  5
104
100
AcDbEntity
  8
1
100
AcDbCircle
 10
-307.026506
 20
-34.168989
 30
0.0
 40
3.0
100
AcDbArc
 50
180.0
 51
270.0
  0
ARC
  5
105
100
AcDbEntity
  8
1
100
AcDbCircle
 10
-306.026506
 20
-21.168989
 30
0.0
 40
4.0
100
AcDbArc
 50
90.0
 51
180.0
  0
ARC
  5
106
100
AcDbEntity
  8
1
100
AcDbCircle
 10
-320.026506
 20
-21.168989
 30
0.0
 40
4.0
100
AcDbArc
 50
360.0
 51
90.0
  0
LINE
  5
107
100
AcDbEntity
  8
1
100
AcDbLine
 10
-339.026506
 20
-361.563353
 30
0.0
 11
-339.026506
 21
-368.498601
 31
0.0
  0
LINE
  5
108
100
AcDbEntity
  8
1
100
AcDbLine
 10
-287.026506
 20
-361.563353
 30
0.0
 11
-287.026506
 21
-368.498601
 31
0.0
  0
ARC
  5
109
100
AcDbEntity
  8
1
100
AcDbCircle
 10
-277.026506
 20
-361.563353
 30
0.0
 40
10.0
100
AcDbArc
 50
104.580989
 51
180.0
  0
ARC
  5
10A
100
AcDbEntity
  8
1
100
AcDbCircle
 10
-349.026506
 20
-361.563353
 30
0.0
 40
10.0
100
AcDbArc
 50
0.0
 51
75.419011
  0
LINE
  5
10B
100
AcDbEntity
  8
1
100
AcDbLine
 10
-285.630674
 20
-373.707916
 30
0.0
 11
-287.026506
 21
-368.498601
 31
0.0
  0
LINE
  5
10C
100
AcDbEntity
  8
1
100
AcDbLine
 10
-340.422337
 20
-373.707916
 30
0.0
 11
-339.026506
 21
-368.498601
 31
0.0
  0
ARC
  5
10D
100
AcDbEntity
  8
1
100
AcDbCircle
 10
-273.556602
 20
-370.472677
 30
0.0
 40
12.5
100
AcDbArc
 50
195.0
 51
263.47739
  0
ARC
  5
10E
100
AcDbEntity
  8
1
100
AcDbCircle
 10
-352.49641
 20
-370.472677
 30
0.0
 40
12.5
100
AcDbArc
 50
276.52261
 51
345.0
  0
LINE
  5
10F
100
AcDbEntity
  8
1
100
AcDbLine
 10
-286.026506
 20
-74.107326
 30
0.0
 11
-288.026506
 21
-81.571427
 31
0.0
  0
LINE
  5
110
100
AcDbEntity
  8
1
100
AcDbLine
 10
-340.026506
 20
-74.107326
 30
0.0
 11
-338.026506
 21
-81.571427
 31
0.0
  0
ARC
  5
111
100
AcDbEntity
  8
1
100
AcDbCircle
 10
-289.026506
 20
-380.618221
 30
0.0
 40
6.0
100
AcDbArc
 50
0.0
 51
33.257848
  0
ARC
  5
112
100
AcDbEntity
  8
1
100
AcDbCircle
 10
-337.026506
 20
-380.618221
 30
0.0
 40
6.0
100
AcDbArc
 50
146.742152
 51
180.0
  0
LINE
  5
113
100
AcDbEntity
  8
1
100
AcDbLine
 10
-266.365426
 20
-400.351495
 30
0.0
 11
-269.862559
 21
-387.300015
 31
0.0
  0
LINE
  5
114
100
AcDbEntity
  8
1
100
AcDbLine
 10
-359.687586
 20
-400.351495
 30
0.0
 11
-356.190453
 21
-387.300015
 31
0.0
  0
ARC
  5
115
100
AcDbEntity
  8
1
100
AcDbCircle
 10
-275.658114
 20
-388.852929
 30
0.0
 40
6.0
100
AcDbArc
 50
15.0
 51
83.47739
  0
ARC
  5
116
100
AcDbEntity
  8
1
100
AcDbCircle
 10
-350.394898
 20
-388.852929
 30
0.0
 40
6.0
100
AcDbArc
 50
96.52261
 51
165.0
  0
ARC
  5
117
100
AcDbEntity
  8
1
100
AcDbCircle
 10
-254.960222
 20
-431.76539
 30
0.0
 40
30.0
100
AcDbArc
 50
116.685025
 51
159.316013
  0
ARC
  5
118
100
AcDbEntity
  8
1
100
AcDbCircle
 10
-371.09279
 20
-431.76539
 30
0.0
 40
30.0
100
AcDbArc
 50
20.683987
 51
63.314975
  0
ARC
  5
119
100
AcDbEntity
  8
1
100
AcDbCircle
 10
-270.229129
 20
-401.386772
 30
0.0
 40
4.0
100
AcDbArc
 50
296.685025
 51
15.0
  0
ARC
  5
11A
100
AcDbEntity
  8
1
100
AcDbCircle
 10
-355.823883
 20
-401.386772
 30
0.0
 40
4.0
100
AcDbArc
 50
165.0
 51
243.314975
  0
LINE
  5
11B
100
AcDbEntity
  8
1
100
AcDbLine
 10
-283.026506
 20
-423.168989
 30
0.0
 11
-289.85921
 21
-361.563353
 31
0.0
  0
ARC
  5
11C
100
AcDbEntity
  8
1
100
AcDbCircle
 10
-281.91968
 20
-360.682777
 30
0.0
 40
7.988214
100
AcDbArc
 50
102.746287
 51
186.328831
  0
LINE
  5
11D
100
AcDbEntity
  8
1
100
AcDbLine
 10
-343.026506
 20
-423.168989
 30
0.0
 11
-336.193802
 21
-361.563353
 31
0.0
  0
ARC
  5
11E
100
AcDbEntity
  8
1
100
AcDbCircle
 10
-344.133332
 20
-360.682777
 30
0.0
 40
7.988214
100
AcDbArc
 50
353.671169
 51
77.253713
  0
LINE
  5
11F
100
AcDbEntity
  8
1
100
AcDbLine
 10
141.280718
 20
-90.168989
 30
0.0
 11
141.280718
 21
-356.168989
 31
0.0
  0
LINE
  5
120
100
AcDbEntity
  8
1
100
AcDbLine
 10
195.280718
 20
-90.168989
 30
0.0
 11
195.280718
 21
-356.168989
 31
0.0
  0
LINE
  5
121
100
AcDbEntity
  8
1
100
AcDbLine
 10
193.780718
 20
-443.168989
 30
0.0
 11
193.780718
 21
-355.489496
 31
0.0
  0
LINE
  5
122
100
AcDbEntity
  8
1
100
AcDbLine
 10
193.780718
 20
-89.392493
 30
0.0
 11
193.780718
 21
-25.168989
 31
0.0
  0
LINE
  5
123
100
AcDbEntity
  8
1
100
AcDbLine
 10
142.780718
 20
-443.168989
 30
0.0
 11
142.780718
 21
-355.489496
 31
0.0
  0
LINE
  5
124
100
AcDbEntity
  8
1
100
AcDbLine
 10
142.780718
 20
-89.392493
 30
0.0
 11
142.780718
 21
-25.168989
 31
0.0
  0
ARC
  5
125
100
AcDbEntity
  8
1
100
AcDbCircle
 10
196.780718
 20
-358.767065
 30
0.0
 40
3.0
100
AcDbArc
 50
120.0
 51
180.0
  0
ARC
  5
126
100
AcDbEntity
  8
1
100
AcDbCircle
 10
139.780718
 20
-358.767065
 30
0.0
 40
3.0
100
AcDbArc
 50
0.0
 51
60.0
  0
ARC
  5
127
100
AcDbEntity
  8
1
100
AcDbCircle
 10
196.780718
 20
-87.570913
 30
0.0
 40
3.0
100
AcDbArc
 50
180.0
 51
240.0
  0
ARC
  5
128
100
AcDbEntity
  8
1
100
AcDbCircle
 10
139.780718
 20
-87.570913
 30
0.0
 40
3.0
100
AcDbArc
 50
300.0
 51
360.0
  0
ARC
  5
129
100
AcDbEntity
  8
1
100
AcDbCircle
 10
201.780718
 20
-25.168989
 30
0.0
 40
8.0
100
AcDbArc
 50
90.0
 51
180.0
  0
ARC
  5
12A
100
AcDbEntity
  8
1
100
AcDbCircle
 10
134.780718
 20
-25.168989
 30
0.0
 40
8.0
100
AcDbArc
 50
0.0
 51
90.0
  0
ARC
  5
12B
100
AcDbEntity
  8
1
100
AcDbCircle
 10
222.489005
 20
-45.877276
 30
0.0
 40
30.0
100
AcDbArc
 50
106.874494
 51
163.125506
  0
ARC
  5
12C
100
AcDbEntity
  8
1
100
AcDbCircle
 10
114.072431
 20
-45.877276
 30
0.0
 40
30.0
100
AcDbArc
 50
16.874494
 51
73.125506
  0
ARC
  5
12D
100
AcDbEntity
  8
1
100
AcDbCircle
 10
-292.878878
 20
-24.650816
 30
0.0
 40
7.481827
100
AcDbArc
 50
90.0
 51
183.971346
  0
LINE
  5
12E
100
AcDbEntity
  8
1
100
AcDbLine
 10
-300.34274
 20
-25.168989
 30
0.0
 11
-296.085692
 21
-86.488291
 31
0.0
  0
ARC
  5
12F
100
AcDbEntity
  8
1
100
AcDbCircle
 10
-290.100099
 20
-86.072746
 30
0.0
 40
6.0
100
AcDbArc
 50
183.971346
 51
260.506357
  0
LINE
  5
130
100
AcDbEntity
  8
1
100
AcDbLine
 10
-325.710272
 20
-25.168989
 30
0.0
 11
-329.96732
 21
-86.488291
 31
0.0
  0
ARC
  5
131
100
AcDbEntity
  8
1
100
AcDbCircle
 10
-333.174134
 20
-24.650816
 30
0.0
 40
7.481827
100
AcDbArc
 50
356.028654
 51
90.0
  0
ARC
  5
132
100
AcDbEntity
  8
1
100
AcDbCircle
 10
-335.952913
 20
-86.072746
 30
0.0
 40
6.0
100
AcDbArc
 50
279.493643
 51
356.028654
  0
LINE
  5
133
100
AcDbEntity
  8
1
100
AcDbLine
 10
-444.514148
 20
259.873715
 30
0.0
 11
-444.514148
 21
266.494214
 31
0.0
  0
LINE
  5
134
100
AcDbEntity
  8
1
100
AcDbLine
 10
-444.514148
 20
307.253215
 30
0.0
 11
-444.514148
 21
313.873715
 31
0.0
  0
LINE
  5
135
100
AcDbEntity
  8
1
100
AcDbLine
 10
-421.923896
 20
278.768983
 30
0.0
 11
-421.923896
 21
294.978446
 31
0.0
  0
LINE
  5
136
100
AcDbEntity
  8
1
100
AcDbLine
 10
-441.182099
 20
303.309379
 30
0.0
 11
-426.921969
 21
300.8942
 31
0.0
  0
LINE
  5
137
100
AcDbEntity
  8
1
100
AcDbLine
 10
-441.182099
 20
270.43805
 30
0.0
 11
-426.921969
 21
272.85323
 31
0.0
  0
ARC
  5
138
100
AcDbEntity
  8
1
100
AcDbCircle
 10
-440.514148
 20
307.253215
 30
0.0
 40
4.0
100
AcDbArc
 50
180.0
 51
260.38727
  0
ARC
  5
139
100
AcDbEntity
  8
1
100
AcDbCircle
 10
-440.514148
 20
266.494214
 30
0.0
 40
4.0
100
AcDbArc
 50
99.61273
 51
180.0
  0
ARC
  5
13A
100
AcDbEntity
  8
1
100
AcDbCircle
 10
-427.923896
 20
278.768983
 30
0.0
 40
6.0
100
AcDbArc
 50
279.61273
 51
360.0
  0
ARC
  5
13B
100
AcDbEntity
  8
1
100
AcDbCircle
 10
-427.923896
 20
294.978446
 30
0.0
 40
6.0
100
AcDbArc
 50
0.0
 51
80.38727
  0
LINE
  5
13C
100
AcDbEntity
  8
1
100
AcDbLine
 10
-416.949554
 20
275.873715
 30
0.0
 11
-416.949554
 21
297.873715
 31
0.0
  0
LINE
  5
13D
100
AcDbEntity
  8
1
100
AcDbLine
 10
-419.52531
 20
275.873715
 30
0.0
 11
-419.52531
 21
297.873715
 31
0.0
  0
LINE
  5
13E
100
AcDbEntity
  8
1
100
AcDbLine
 10
-410.949554
 20
303.873715
 30
0.0
 11
-389.758557
 21
303.873715
 31
0.0
  0
LINE
  5
13F
100
AcDbEntity
  8
1
100
AcDbLine
 10
-410.949554
 20
269.873715
 30
0.0
 11
-380.957703
 21
269.873715
 31
0.0
  0
ARC
  5
140
100
AcDbEntity
  8
1
100
AcDbCircle
 10
-410.949554
 20
275.873715
 30
0.0
 40
6.0
100
AcDbArc
 50
180.0
 51
270.0
  0
ARC
  5
141
100
AcDbEntity
  8
1
100
AcDbCircle
 10
-410.949554
 20
297.873715
 30
0.0
 40
6.0
100
AcDbArc
 50
90.0
 51
180.0
  0
ARC
  5
142
100
AcDbEntity
  8
1
100
AcDbCircle
 10
-427.52531
 20
297.873715
 30
0.0
 40
8.0
100
AcDbArc
 50
0.0
 51
36.869898
  0
ARC
  5
143
100
AcDbEntity
  8
1
100
AcDbCircle
 10
-423.52531
 20
300.873715
 30
0.0
 40
3.0
100
AcDbArc
 50
36.869898
 51
90.0
  0
ARC
  5
144
100
AcDbEntity
  8
1
100
AcDbCircle
 10
-423.52531
 20
272.873715
 30
0.0
 40
3.0
100
AcDbArc
 50
270.0
 51
323.130102
  0
ARC
  5
145
100
AcDbEntity
  8
1
100
AcDbCircle
 10
-427.52531
 20
275.873715
 30
0.0
 40
8.0
100
AcDbArc
 50
323.130102
 51
360.0
  0
LINE
  5
146
100
AcDbEntity
  8
1
100
AcDbLine
 10
-421.923896
 20
300.047697
 30
0.0
 11
-419.826362
 21
300.047697
 31
0.0
  0
LINE
  5
147
100
AcDbEntity
  8
1
100
AcDbLine
 10
-421.923896
 20
273.699733
 30
0.0
 11
-419.826362
 21
273.699733
 31
0.0
  0
LINE
  5
148
100
AcDbEntity
  8
1
100
AcDbLine
 10
-392.625501
 20
279.699733
 30
0.0
 11
-392.625501
 21
294.047697
 31
0.0
  0
ARC
  5
149
100
AcDbEntity
  8
1
100
AcDbCircle
 10
-386.625501
 20
279.699733
 30
0.0
 40
6.0
100
AcDbArc
 50
180.0
 51
270.0
  0
ARC
  5
14A
100
AcDbEntity
  8
1
100
AcDbCircle
 10
-386.625501
 20
294.047697
 30
0.0
 40
6.0
100
AcDbArc
 50
90.0
 51
180.0
  0
LINE
  5
14B
100
AcDbEntity
  8
1
100
AcDbLine
 10
-392.625501
 20
300.047697
 30
0.0
 11
-410.949554
 21
302.929953
 31
0.0
  0
LINE
  5
14C
100
AcDbEntity
  8
1
100
AcDbLine
 10
-392.625501
 20
273.699733
 30
0.0
 11
-410.949554
 21
270.817476
 31
0.0
  0
LINE
  5
14D
100
AcDbEntity
  8
1
100
AcDbLine
 10
-430.58542
 20
259.873715
 30
0.0
 11
-430.58542
 21
269.873715
 31
0.0
  0
LINE
  5
14E
100
AcDbEntity
  8
1
100
AcDbLine
 10
-430.58542
 20
303.873715
 30
0.0
 11
-430.58542
 21
313.873715
 31
0.0
  0
LINE
  5
14F
100
AcDbEntity
  8
1
100
AcDbLine
 10
-439.849715
 20
259.873715
 30
0.0
 11
-439.849715
 21
269.873715
 31
0.0
  0
LINE
  5
150
100
AcDbEntity
  8
1
100
AcDbLine
 10
-439.849715
 20
303.873715
 30
0.0
 11
-439.849715
 21
313.873715
 31
0.0
  0
LINE
  5
151
100
AcDbEntity
  8
1
100
AcDbLine
 10
-441.182099
 20
303.873715
 30
0.0
 11
-439.849715
 21
303.873715
 31
0.0
  0
LINE
  5
152
100
AcDbEntity
  8
1
100
AcDbLine
 10
-430.58542
 20
303.873715
 30
0.0
 11
-423.52531
 21
303.873715
 31
0.0
  0
LINE
  5
153
100
AcDbEntity
  8
1
100
AcDbLine
 10
-441.182099
 20
269.873715
 30
0.0
 11
-439.849715
 21
269.873715
 31
0.0
  0
LINE
  5
154
100
AcDbEntity
  8
1
100
AcDbLine
 10
-430.58542
 20
269.873715
 30
0.0
 11
-423.52531
 21
269.873715
 31
0.0
  0
ARC
  5
155
100
AcDbEntity
  8
1
100
AcDbCircle
 10
-431.283086
 20
235.879177
 30
0.0
 40
35.05732
100
AcDbArc
 50
90.0
 51
104.144052
  0
ARC
  5
156
100
AcDbEntity
  8
1
100
AcDbCircle
 10
-430.339038
 20
270.436497
 30
0.0
 40
0.35
100
AcDbArc
 50
351.629764
 51
71.943463
  0
ARC
  5
157
100
AcDbEntity
  8
1
100
AcDbCircle
 10
-430.58542
 20
270.472749
 30
0.0
 40
0.599035
100
AcDbArc
 50
270.0
 51
351.629764
  0
ARC
  5
158
100
AcDbEntity
  8
1
100
AcDbCircle
 10
-431.283086
 20
267.540742
 30
0.0
 40
3.395755
100
AcDbArc
 50
71.943463
 51
90.0
  0
ARC
  5
159
100
AcDbEntity
  8
1
100
AcDbCircle
 10
-431.283086
 20
337.868252
 30
0.0
 40
35.05732
100
AcDbArc
 50
255.855948
 51
270.0
  0
ARC
  5
15A
100
AcDbEntity
  8
1
100
AcDbCircle
 10
-430.339038
 20
303.310932
 30
0.0
 40
0.35
100
AcDbArc
 50
288.056537
 51
8.370236
  0
ARC
  5
15B
100
AcDbEntity
  8
1
100
AcDbCircle
 10
-430.58542
 20
303.27468
 30
0.0
 40
0.599035
100
AcDbArc
 50
8.370236
 51
90.0
  0
ARC
  5
15C
100
AcDbEntity
  8
1
100
AcDbCircle
 10
-431.283086
 20
306.206687
 30
0.0
 40
3.395755
100
AcDbArc
 50
270.0
 51
288.056537
  0
LINE
  5
15D
100
AcDbEntity
  8
1
100
AcDbLine
 10
-380.957703
 20
259.873715
 30
0.0
 11
-380.957703
 21
269.873715
 31
0.0
  0
LINE
  5
15E
100
AcDbEntity
  8
1
100
AcDbLine
 10
-380.957703
 20
309.873715
 30
0.0
 11
-380.957703
 21
313.873715
 31
0.0
  0
ARC
  5
15F
100
AcDbEntity
  8
1
  6
DASHED
100
AcDbCircle
 10
-360.861935
 20
421.768325
 30
0.0
 40
119.595063
100
AcDbArc
 50
263.795846
 51
268.483736
  0
LINE
  5
160
100
AcDbEntity
  8
1
100
AcDbLine
 10
-390.026506
 20
304.873715
 30
0.0
 11
-390.026506
 21
307.873715
 31
0.0
  0
ARC
  5
161
100
AcDbEntity
  8
1
100
AcDbCircle
 10
-388.026506
 20
307.873715
 30
0.0
 40
2.0
100
AcDbArc
 50
90.0
 51
180.0
  0
ARC
  5
162
100
AcDbEntity
  8
1
100
AcDbCircle
 10
-388.026506
 20
304.873715
 30
0.0
 40
2.0
100
AcDbArc
 50
180.0
 51
270.0
  0
LINE
  5
163
100
AcDbEntity
  8
1
100
AcDbLine
 10
146.780718
 20
-203.168989
 30
0.0
 11
189.780718
 21
-203.168989
 31
0.0
  0
LINE
  5
164
100
AcDbEntity
  8
1
100
AcDbLine
 10
146.780718
 20
-248.168989
 30
0.0
 11
189.780718
 21
-248.168989
 31
0.0
  0
LINE
  5
165
100
AcDbEntity
  8
1
100
AcDbLine
 10
142.780718
 20
-207.168989
 30
0.0
 11
142.780718
 21
-244.168989
 31
0.0
  0
LINE
  5
166
100
AcDbEntity
  8
1
100
AcDbLine
 10
193.780718
 20
-207.168989
 30
0.0
 11
193.780718
 21
-244.168989
 31
0.0
  0
ARC
  5
167
100
AcDbEntity
  8
1
100
AcDbCircle
 10
146.780718
 20
-207.168989
 30
0.0
 40
4.0
100
AcDbArc
 50
90.0
 51
180.0
  0
ARC
  5
168
100
AcDbEntity
  8
1
100
AcDbCircle
 10
146.780718
 20
-244.168989
 30
0.0
 40
4.0
100
AcDbArc
 50
180.0
 51
270.0
  0
ARC
  5
169
100
AcDbEntity
  8
1
100
AcDbCircle
 10
189.780718
 20
-244.168989
 30
0.0
 40
4.0
100
AcDbArc
 50
270.0
 51
360.0
  0
ARC
  5
16A
100
AcDbEntity
  8
1
100
AcDbCircle
 10
189.780718
 20
-207.168989
 30
0.0
 40
4.0
100
AcDbArc
 50
0.0
 51
90.0
  0
LINE
  5
16B
100
AcDbEntity
  8
1
  6
CENTER
 62
     2
100
AcDbLine
 10
156.280718
 20
-194.614311
 30
0.0
 11
156.280718
 21
-254.776192
 31
0.0
  0
LINE
  5
16C
100
AcDbEntity
  8
1
  6
CENTER
 62
     2
100
AcDbLine
 10
180.280718
 20
-194.614311
 30
0.0
 11
180.280718
 21
-254.776192
 31
0.0
  0
LINE
  5
16D
100
AcDbEntity
  8
1
100
AcDbLine
 10
185.333718
 20
-201.168989
 30
0.0
 11
175.227718
 21
-201.168989
 31
0.0
  0
LINE
  5
16E
100
AcDbEntity
  8
1
100
AcDbLine
 10
185.333718
 20
-201.168989
 30
0.0
 11
186.280718
 21
-202.115989
 31
0.0
  0
LINE
  5
16F
100
AcDbEntity
  8
1
100
AcDbLine
 10
186.280718
 20
-202.115989
 30
0.0
 11
186.280718
 21
-203.168989
 31
0.0
  0
LINE
  5
170
100
AcDbEntity
  8
1
 62
     2
100
AcDbLine
 10
185.333718
 20
-201.168989
 30
0.0
 11
185.333718
 21
-203.168989
 31
0.0
  0
LINE
  5
171
100
AcDbEntity
  8
1
100
AcDbLine
 10
175.227718
 20
-201.168989
 30
0.0
 11
174.280718
 21
-202.115989
 31
0.0
  0
LINE
  5
172
100
AcDbEntity
  8
1
100
AcDbLine
 10
174.280718
 20
-202.115989
 30
0.0
 11
174.280718
 21
-203.168989
 31
0.0
  0
LINE
  5
173
100
AcDbEntity
  8
1
100
AcDbLine
 10
174.280718
 20
-202.115989
 30
0.0
 11
186.280718
 21
-202.115989
 31
0.0
  0
LINE
  5
174
100
AcDbEntity
  8
1
 62
     2
100
AcDbLine
 10
175.227718
 20
-201.168989
 30
0.0
 11
175.227718
 21
-203.168989
 31
0.0
  0
LINE
  5
175
100
AcDbEntity
  8
1
100
AcDbLine
 10
161.333718
 20
-201.168989
 30
0.0
 11
151.227718
 21
-201.168989
 31
0.0
  0
LINE
  5
176
100
AcDbEntity
  8
1
100
AcDbLine
 10
161.333718
 20
-201.168989
 30
0.0
 11
162.280718
 21
-202.115989
 31
0.0
  0
LINE
  5
177
100
AcDbEntity
  8
1
100
AcDbLine
 10
162.280718
 20
-202.115989
 30
0.0
 11
162.280718
 21
-203.168989
 31
0.0
  0
LINE
  5
178
100
AcDbEntity
  8
1
 62
     2
100
AcDbLine
 10
161.333718
 20
-201.168989
 30
0.0
 11
161.333718
 21
-203.168989
 31
0.0
  0
LINE
  5
179
100
AcDbEntity
  8
1
100
AcDbLine
 10
151.227718
 20
-201.168989
 30
0.0
 11
150.280718
 21
-202.115989
 31
0.0
  0
LINE
  5
17A
100
AcDbEntity
  8
1
100
AcDbLine
 10
150.280718
 20
-202.115989
 30
0.0
 11
150.280718
 21
-203.168989
 31
0.0
  0
LINE
  5
17B
100
AcDbEntity
  8
1
100
AcDbLine
 10
150.280718
 20
-202.115989
 30
0.0
 11
162.280718
 21
-202.115989
 31
0.0
  0
LINE
  5
17C
100
AcDbEntity
  8
1
 62
     2
100
AcDbLine
 10
151.227718
 20
-201.168989
 30
0.0
 11
151.227718
 21
-203.168989
 31
0.0
  0
LINE
  5
17D
100
AcDbEntity
  8
1
100
AcDbLine
 10
195.280718
 20
-223.168989
 30
0.0
 11
141.280718
 21
-223.168989
 31
0.0
  0
LINE
  5
17E
100
AcDbEntity
  8
1
100
AcDbLine
 10
157.280718
 20
-306.168989
 30
0.0
 11
179.280718
 21
-306.168989
 31
0.0
  0
LINE
  5
17F
100
AcDbEntity
  8
1
100
AcDbLine
 10
157.280718
 20
-300.168989
 30
0.0
 11
179.280718
 21
-300.168989
 31
0.0
  0
ARC
  5
180
100
AcDbEntity
  8
1
100
AcDbCircle
 10
179.280718
 20
-254.168989
 30
0.0
 40
6.0
100
AcDbArc
 50
0.0
 51
90.0
  0
ARC
  5
181
100
AcDbEntity
  8
1
100
AcDbCircle
 10
157.280718
 20
-254.168989
 30
0.0
 40
6.0
100
AcDbArc
 50
90.0
 51
180.0
  0
LINE
  5
182
100
AcDbEntity
  8
1
100
AcDbLine
 10
185.280718
 20
-340.131521
 30
0.0
 11
185.280718
 21
-310.168989
 31
0.0
  0
LINE
  5
183
100
AcDbEntity
  8
1
100
AcDbLine
 10
151.280718
 20
-340.131521
 30
0.0
 11
151.280718
 21
-310.168989
 31
0.0
  0
ARC
  5
184
100
AcDbEntity
  8
1
100
AcDbCircle
 10
179.280718
 20
-294.168989
 30
0.0
 40
6.0
100
AcDbArc
 50
270.0
 51
360.0
  0
ARC
  5
185
100
AcDbEntity
  8
1
100
AcDbCircle
 10
157.280718
 20
-294.168989
 30
0.0
 40
6.0
100
AcDbArc
 50
180.0
 51
270.0
  0
ARC
  5
186
100
AcDbEntity
  8
1
100
AcDbCircle
 10
157.280718
 20
-314.168989
 30
0.0
 40
8.0
100
AcDbArc
 50
90.0
 51
126.869898
  0
ARC
  5
187
100
AcDbEntity
  8
1
100
AcDbCircle
 10
154.280718
 20
-310.168989
 30
0.0
 40
3.0
100
AcDbArc
 50
126.869898
 51
180.0
  0
ARC
  5
188
100
AcDbEntity
  8
1
100
AcDbCircle
 10
179.280718
 20
-314.168989
 30
0.0
 40
8.0
100
AcDbArc
 50
53.130102
 51
90.0
  0
ARC
  5
189
100
AcDbEntity
  8
1
100
AcDbCircle
 10
182.280718
 20
-310.168989
 30
0.0
 40
3.0
100
AcDbArc
 50
0.0
 51
53.130102
  0
LINE
  5
18A
100
AcDbEntity
  8
1
100
AcDbLine
 10
181.4547
 20
-270.240418
 30
0.0
 11
181.4547
 21
-284.648328
 31
0.0
  0
LINE
  5
18B
100
AcDbEntity
  8
1
100
AcDbLine
 10
155.106736
 20
-270.240418
 30
0.0
 11
155.106736
 21
-284.648328
 31
0.0
  0
LINE
  5
18C
100
AcDbEntity
  8
1
100
AcDbLine
 10
161.106736
 20
-290.648328
 30
0.0
 11
175.4547
 21
-290.648328
 31
0.0
  0
LINE
  5
18D
100
AcDbEntity
  8
1
100
AcDbLine
 10
161.106736
 20
-264.240418
 30
0.0
 11
175.4547
 21
-264.240418
 31
0.0
  0
ARC
  5
18E
100
AcDbEntity
  8
1
100
AcDbCircle
 10
161.106736
 20
-284.648328
 30
0.0
 40
6.0
100
AcDbArc
 50
180.0
 51
270.0
  0
ARC
  5
18F
100
AcDbEntity
  8
1
100
AcDbCircle
 10
175.4547
 20
-284.648328
 30
0.0
 40
6.0
100
AcDbArc
 50
270.0
 51
360.0
  0
ARC
  5
190
100
AcDbEntity
  8
1
100
AcDbCircle
 10
175.4547
 20
-270.240418
 30
0.0
 40
6.0
100
AcDbArc
 50
0.0
 51
90.0
  0
ARC
  5
191
100
AcDbEntity
  8
1
100
AcDbCircle
 10
161.106736
 20
-270.240418
 30
0.0
 40
6.0
100
AcDbArc
 50
90.0
 51
180.0
  0
LINE
  5
192
100
AcDbEntity
  8
1
100
AcDbLine
 10
183.852338
 20
-254.168989
 30
0.0
 11
181.4547
 21
-264.240418
 31
0.0
  0
LINE
  5
193
100
AcDbEntity
  8
1
100
AcDbLine
 10
181.4547
 20
-290.648328
 30
0.0
 11
182.86953
 21
-294.168989
 31
0.0
  0
LINE
  5
194
100
AcDbEntity
  8
1
100
AcDbLine
 10
152.709098
 20
-254.168989
 30
0.0
 11
155.106736
 21
-264.240418
 31
0.0
  0
LINE
  5
195
100
AcDbEntity
  8
1
100
AcDbLine
 10
155.106736
 20
-290.648328
 30
0.0
 11
153.691907
 21
-294.168989
 31
0.0
  0
LINE
  5
196
100
AcDbEntity
  8
1
100
AcDbLine
 10
161.106736
 20
-309.192611
 30
0.0
 11
175.4547
 21
-309.192611
 31
0.0
  0
LINE
  5
197
100
AcDbEntity
  8
1
100
AcDbLine
 10
161.106736
 20
-330.418408
 30
0.0
 11
175.4547
 21
-330.418408
 31
0.0
  0
LINE
  5
198
100
AcDbEntity
  8
1
100
AcDbLine
 10
181.4547
 20
-313.192611
 30
0.0
 11
181.4547
 21
-324.418408
 31
0.0
  0
LINE
  5
199
100
AcDbEntity
  8
1
100
AcDbLine
 10
155.106736
 20
-313.192611
 30
0.0
 11
155.106736
 21
-324.418408
 31
0.0
  0
ARC
  5
19A
100
AcDbEntity
  8
1
100
AcDbCircle
 10
175.4547
 20
-317.192611
 30
0.0
 40
8.0
100
AcDbArc
 50
53.130102
 51
90.0
  0
ARC
  5
19B
100
AcDbEntity
  8
1
100
AcDbCircle
 10
178.4547
 20
-313.192611
 30
0.0
 40
3.0
100
AcDbArc
 50
0.0
 51
53.130102
  0
ARC
  5
19C
100
AcDbEntity
  8
1
100
AcDbCircle
 10
161.106736
 20
-317.192611
 30
0.0
 40
8.0
100
AcDbArc
 50
90.0
 51
126.869898
  0
ARC
  5
19D
100
AcDbEntity
  8
1
100
AcDbCircle
 10
158.106736
 20
-313.192611
 30
0.0
 40
3.0
100
AcDbArc
 50
126.869898
 51
180.0
  0
LINE
  5
19E
100
AcDbEntity
  8
1
100
AcDbLine
 10
182.843447
 20
-308.095114
 30
0.0
 11
181.4547
 21
-309.192611
 31
0.0
  0
LINE
  5
19F
100
AcDbEntity
  8
1
100
AcDbLine
 10
153.71799
 20
-308.095114
 30
0.0
 11
155.106736
 21
-309.192611
 31
0.0
  0
ARC
  5
1A0
100
AcDbEntity
  8
1
100
AcDbCircle
 10
196.780718
 20
-355.489496
 30
0.0
 40
3.0
100
AcDbArc
 50
120.0
 51
180.0
  0
ARC
  5
1A1
100
AcDbEntity
  8
1
100
AcDbCircle
 10
139.780718
 20
-355.489496
 30
0.0
 40
3.0
100
AcDbArc
 50
0.0
 51
60.0
  0
LINE
  5
1A2
100
AcDbEntity
  8
1
100
AcDbLine
 10
168.280718
 20
-351.885425
 30
0.0
 11
195.280718
 21
-352.891419
 31
0.0
  0
LINE
  5
1A3
100
AcDbEntity
  8
1
100
AcDbLine
 10
168.280718
 20
-351.885425
 30
0.0
 11
141.280718
 21
-352.891419
 31
0.0
  0
ARC
  5
1A4
100
AcDbEntity
  8
1
100
AcDbCircle
 10
179.67804
 20
-341.631507
 30
0.0
 40
10.671167
100
AcDbArc
 50
267.866202
 51
293.443464
  0
ARC
  5
1A5
100
AcDbEntity
  8
1
100
AcDbCircle
 10
156.883397
 20
-341.631507
 30
0.0
 40
10.671167
100
AcDbArc
 50
246.556536
 51
272.133798
  0
LINE
  5
1A6
100
AcDbEntity
  8
1
100
AcDbLine
 10
181.4547
 20
-330.418408
 30
0.0
 11
183.136231
 21
-340.131521
 31
0.0
  0
LINE
  5
1A7
100
AcDbEntity
  8
1
100
AcDbLine
 10
155.106736
 20
-330.418408
 30
0.0
 11
153.425205
 21
-340.131521
 31
0.0
  0
LINE
  5
1A8
100
AcDbEntity
  8
1
100
AcDbLine
 10
185.280718
 20
-294.168989
 30
0.0
 11
185.280718
 21
-284.519224
 31
0.0
  0
LINE
  5
1A9
100
AcDbEntity
  8
1
100
AcDbLine
 10
185.280718
 20
-263.229864
 30
0.0
 11
185.280718
 21
-254.168989
 31
0.0
  0
LINE
  5
1AA
100
AcDbEntity
  8
1
100
AcDbLine
 10
141.280718
 20
-284.519224
 30
0.0
 11
151.280718
 21
-284.519224
 31
0.0
  0
LINE
  5
1AB
100
AcDbEntity
  8
1
100
AcDbLine
 10
185.280718
 20
-284.519224
 30
0.0
 11
195.280718
 21
-284.519224
 31
0.0
  0
LINE
  5
1AC
100
AcDbEntity
  8
1
100
AcDbLine
 10
151.280718
 20
-294.168989
 30
0.0
 11
151.280718
 21
-284.519224
 31
0.0
  0
LINE
  5
1AD
100
AcDbEntity
  8
1
100
AcDbLine
 10
151.280718
 20
-263.229864
 30
0.0
 11
151.280718
 21
-254.168989
 31
0.0
  0
LINE
  5
1AE
100
AcDbEntity
  8
1
100
AcDbLine
 10
141.280718
 20
-263.229864
 30
0.0
 11
151.280718
 21
-263.229864
 31
0.0
  0
LINE
  5
1AF
100
AcDbEntity
  8
1
100
AcDbLine
 10
185.280718
 20
-263.229864
 30
0.0
 11
195.280718
 21
-263.229864
 31
0.0
  0
ARC
  5
1B0
100
AcDbEntity
  8
1
100
AcDbCircle
 10
222.204239
 20
-272.152468
 30
0.0
 40
37.986303
100
AcDbArc
 50
166.414858
 51
180.0
  0
ARC
  5
1B1
100
AcDbEntity
  8
1
100
AcDbCircle
 10
256.700359
 20
-272.152468
 30
0.0
 40
72.482424
100
AcDbArc
 50
180.0
 51
189.823712
  0
ARC
  5
1B2
100
AcDbEntity
  8
1
100
AcDbCircle
 10
79.861077
 20
-272.152468
 30
0.0
 40
72.482424
100
AcDbArc
 50
350.176288
 51
360.0
  0
ARC
  5
1B3
100
AcDbEntity
  8
1
100
AcDbCircle
 10
114.357198
 20
-272.152468
 30
0.0
 40
37.986303
100
AcDbArc
 50
0.0
 51
13.585142
  0
LINE
  5
1B4
100
AcDbEntity
  8
1
100
AcDbLine
 10
141.280718
 20
-340.131521
 30
0.0
 11
151.280718
 21
-340.131521
 31
0.0
  0
LINE
  5
1B5
100
AcDbEntity
  8
1
100
AcDbLine
 10
185.280718
 20
-340.131521
 30
0.0
 11
195.280718
 21
-340.131521
 31
0.0
  0
ARC
  5
1B6
100
AcDbEntity
  8
1
100
AcDbCircle
 10
219.275256
 20
-341.425569
 30
0.0
 40
35.05732
100
AcDbArc
 50
180.0
 51
192.722849
  0
ARC
  5
1B7
100
AcDbEntity
  8
1
100
AcDbCircle
 10
117.286181
 20
-341.425569
 30
0.0
 40
35.05732
100
AcDbArc
 50
347.277151
 51
360.0
  0
LINE
  5
1B8
100
AcDbEntity
  8
1
100
AcDbLine
 10
141.280718
 20
-349.992198
 30
0.0
 11
151.280718
 21
-349.992198
 31
0.0
  0
LINE
  5
1B9
100
AcDbEntity
  8
1
100
AcDbLine
 10
185.280718
 20
-349.992198
 30
0.0
 11
195.280718
 21
-349.992198
 31
0.0
  0
ARC
  5
1BA
100
AcDbEntity
  8
1
100
AcDbCircle
 10
183.127812
 20
-349.586896
 30
0.0
 40
2.0
100
AcDbArc
 50
293.443464
 51
12.722849
  0
ARC
  5
1BB
100
AcDbEntity
  8
1
100
AcDbCircle
 10
185.537146
 20
-341.425569
 30
0.0
 40
1.31921
100
AcDbArc
 50
101.208469
 51
180.0
  0
ARC
  5
1BC
100
AcDbEntity
  8
1
100
AcDbCircle
 10
153.433625
 20
-349.586896
 30
0.0
 40
2.0
100
AcDbArc
 50
167.277151
 51
246.556536
  0
ARC
  5
1BD
100
AcDbEntity
  8
1
100
AcDbCircle
 10
151.024291
 20
-341.425569
 30
0.0
 40
1.31921
100
AcDbArc
 50
0.0
 51
78.791531
  0
LINE
  5
1BE
100
AcDbEntity
  8
1
100
AcDbLine
 10
166.280718
 20
-382.891766
 30
0.0
 11
170.280718
 21
-382.891766
 31
0.0
  0
LINE
  5
1BF
100
AcDbEntity
  8
1
100
AcDbLine
 10
164.280718
 20
-421.168989
 30
0.0
 11
172.280718
 21
-421.168989
 31
0.0
  0
LINE
  5
1C0
100
AcDbEntity
  8
1
100
AcDbLine
 10
166.280718
 20
-404.960727
 30
0.0
 11
170.280718
 21
-404.960727
 31
0.0
  0
LINE
  5
1C1
100
AcDbEntity
  8
1
100
AcDbLine
 10
164.280718
 20
-382.631777
 30
0.0
 11
164.280718
 21
-417.168989
 31
0.0
  0
LINE
  5
1C2
100
AcDbEntity
  8
1
100
AcDbLine
 10
172.280718
 20
-382.631777
 30
0.0
 11
172.280718
 21
-417.168989
 31
0.0
  0
ARC
  5
1C3
100
AcDbEntity
  8
1
100
AcDbCircle
 10
176.280718
 20
-417.168989
 30
0.0
 40
4.0
100
AcDbArc
 50
180.0
 51
270.0
  0
ARC
  5
1C4
100
AcDbEntity
  8
1
100
AcDbCircle
 10
160.280718
 20
-417.168989
 30
0.0
 40
4.0
100
AcDbArc
 50
270.0
 51
360.0
  0
ARC
  5
1C5
100
AcDbEntity
  8
1
100
AcDbCircle
 10
160.280718
 20
-382.631777
 30
0.0
 40
4.0
100
AcDbArc
 50
0.0
 51
90.0
  0
ARC
  5
1C6
100
AcDbEntity
  8
1
100
AcDbCircle
 10
176.280718
 20
-382.631777
 30
0.0
 40
4.0
100
AcDbArc
 50
90.0
 51
180.0
  0
ARC
  5
1C7
100
AcDbEntity
  8
1
100
AcDbCircle
 10
170.280718
 20
-384.891766
 30
0.0
 40
2.0
100
AcDbArc
 50
0.0
 51
90.0
  0
ARC
  5
1C8
100
AcDbEntity
  8
1
100
AcDbCircle
 10
166.280718
 20
-384.891766
 30
0.0
 40
2.0
100
AcDbArc
 50
90.0
 51
180.0
  0
ARC
  5
1C9
100
AcDbEntity
  8
1
100
AcDbCircle
 10
170.280718
 20
-402.960727
 30
0.0
 40
2.0
100
AcDbArc
 50
270.0
 51
360.0
  0
ARC
  5
1CA
100
AcDbEntity
  8
1
100
AcDbCircle
 10
166.280718
 20
-402.960727
 30
0.0
 40
2.0
100
AcDbArc
 50
180.0
 51
270.0
  0
LINE
  5
1CB
100
AcDbEntity
  8
1
100
AcDbLine
 10
142.780718
 20
-378.631777
 30
0.0
 11
160.280718
 21
-378.631777
 31
0.0
  0
LINE
  5
1CC
100
AcDbEntity
  8
1
100
AcDbLine
 10
176.280718
 20
-378.631777
 30
0.0
 11
193.780718
 21
-378.631777
 31
0.0
  0
LINE
  5
1CD
100
AcDbEntity
  8
1
100
AcDbLine
 10
157.280718
 20
-140.168989
 30
0.0
 11
179.280718
 21
-140.168989
 31
0.0
  0
LINE
  5
1CE
100
AcDbEntity
  8
1
100
AcDbLine
 10
157.280718
 20
-146.168989
 30
0.0
 11
179.280718
 21
-146.168989
 31
0.0
  0
ARC
  5
1CF
100
AcDbEntity
  8
1
100
AcDbCircle
 10
179.280718
 20
-197.168989
 30
0.0
 40
6.0
100
AcDbArc
 50
318.189685
 51
360.0
  0
ARC
  5
1D0
100
AcDbEntity
  8
1
100
AcDbCircle
 10
157.280718
 20
-197.168989
 30
0.0
 40
6.0
100
AcDbArc
 50
180.0
 51
221.810315
  0
LINE
  5
1D1
100
AcDbEntity
  8
1
100
AcDbLine
 10
185.280718
 20
-117.886174
 30
0.0
 11
185.280718
 21
-136.168989
 31
0.0
  0
LINE
  5
1D2
100
AcDbEntity
  8
1
100
AcDbLine
 10
151.280718
 20
-108.825854
 30
0.0
 11
151.280718
 21
-136.168989
 31
0.0
  0
ARC
  5
1D3
100
AcDbEntity
  8
1
100
AcDbCircle
 10
179.280718
 20
-152.168989
 30
0.0
 40
6.0
100
AcDbArc
 50
0.0
 51
90.0
  0
ARC
  5
1D4
100
AcDbEntity
  8
1
100
AcDbCircle
 10
157.280718
 20
-152.168989
 30
0.0
 40
6.0
100
AcDbArc
 50
90.0
 51
180.0
  0
ARC
  5
1D5
100
AcDbEntity
  8
1
100
AcDbCircle
 10
157.280718
 20
-132.168989
 30
0.0
 40
8.0
100
AcDbArc
 50
233.130102
 51
270.0
  0
ARC
  5
1D6
100
AcDbEntity
  8
1
100
AcDbCircle
 10
154.280718
 20
-136.168989
 30
0.0
 40
3.0
100
AcDbArc
 50
180.0
 51
233.130102
  0
ARC
  5
1D7
100
AcDbEntity
  8
1
100
AcDbCircle
 10
179.280718
 20
-132.168989
 30
0.0
 40
8.0
100
AcDbArc
 50
270.0
 51
306.869898
  0
ARC
  5
1D8
100
AcDbEntity
  8
1
100
AcDbCircle
 10
182.280718
 20
-136.168989
 30
0.0
 40
3.0
100
AcDbArc
 50
306.869898
 51
360.0
  0
LINE
  5
1D9
100
AcDbEntity
  8
1
100
AcDbLine
 10
181.4547
 20
-180.204703
 30
0.0
 11
181.4547
 21
-161.68965
 31
0.0
  0
LINE
  5
1DA
100
AcDbEntity
  8
1
100
AcDbLine
 10
155.106736
 20
-180.204703
 30
0.0
 11
155.106736
 21
-161.68965
 31
0.0
  0
LINE
  5
1DB
100
AcDbEntity
  8
1
100
AcDbLine
 10
161.106736
 20
-155.68965
 30
0.0
 11
175.4547
 21
-155.68965
 31
0.0
  0
LINE
  5
1DC
100
AcDbEntity
  8
1
100
AcDbLine
 10
161.106736
 20
-186.204703
 30
0.0
 11
175.4547
 21
-186.204703
 31
0.0
  0
ARC
  5
1DD
100
AcDbEntity
  8
1
100
AcDbCircle
 10
161.106736
 20
-161.68965
 30
0.0
 40
6.0
100
AcDbArc
 50
90.0
 51
180.0
  0
ARC
  5
1DE
100
AcDbEntity
  8
1
100
AcDbCircle
 10
175.4547
 20
-161.68965
 30
0.0
 40
6.0
100
AcDbArc
 50
0.0
 51
90.0
  0
ARC
  5
1DF
100
AcDbEntity
  8
1
100
AcDbCircle
 10
175.4547
 20
-180.204703
 30
0.0
 40
6.0
100
AcDbArc
 50
270.0
 51
360.0
  0
ARC
  5
1E0
100
AcDbEntity
  8
1
100
AcDbCircle
 10
161.106736
 20
-180.204703
 30
0.0
 40
6.0
100
AcDbArc
 50
180.0
 51
270.0
  0
LINE
  5
1E1
100
AcDbEntity
  8
1
100
AcDbLine
 10
181.4547
 20
-155.68965
 30
0.0
 11
182.86953
 21
-152.168989
 31
0.0
  0
LINE
  5
1E2
100
AcDbEntity
  8
1
100
AcDbLine
 10
155.106736
 20
-155.68965
 30
0.0
 11
153.691907
 21
-152.168989
 31
0.0
  0
LINE
  5
1E3
100
AcDbEntity
  8
1
100
AcDbLine
 10
161.106736
 20
-137.145367
 30
0.0
 11
175.4547
 21
-137.145367
 31
0.0
  0
LINE
  5
1E4
100
AcDbEntity
  8
1
100
AcDbLine
 10
181.4547
 20
-133.145367
 30
0.0
 11
181.4547
 21
-122.34731
 31
0.0
  0
LINE
  5
1E5
100
AcDbEntity
  8
1
100
AcDbLine
 10
155.106736
 20
-133.145367
 30
0.0
 11
155.106736
 21
-122.34731
 31
0.0
  0
ARC
  5
1E6
100
AcDbEntity
  8
1
100
AcDbCircle
 10
175.4547
 20
-129.145367
 30
0.0
 40
8.0
100
AcDbArc
 50
270.0
 51
306.869898
  0
ARC
  5
1E7
100
AcDbEntity
  8
1
100
AcDbCircle
 10
178.4547
 20
-133.145367
 30
0.0
 40
3.0
100
AcDbArc
 50
306.869898
 51
360.0
  0
ARC
  5
1E8
100
AcDbEntity
  8
1
100
AcDbCircle
 10
161.106736
 20
-129.145367
 30
0.0
 40
8.0
100
AcDbArc
 50
233.130102
 51
270.0
  0
ARC
  5
1E9
100
AcDbEntity
  8
1
100
AcDbCircle
 10
158.106736
 20
-133.145367
 30
0.0
 40
3.0
100
AcDbArc
 50
180.0
 51
233.130102
  0
LINE
  5
1EA
100
AcDbEntity
  8
1
100
AcDbLine
 10
182.843447
 20
-138.242864
 30
0.0
 11
181.4547
 21
-137.145367
 31
0.0
  0
LINE
  5
1EB
100
AcDbEntity
  8
1
100
AcDbLine
 10
153.71799
 20
-138.242864
 30
0.0
 11
155.106736
 21
-137.145367
 31
0.0
  0
LINE
  5
1EC
100
AcDbEntity
  8
1
100
AcDbLine
 10
185.280718
 20
-152.168989
 30
0.0
 11
185.280718
 21
-161.818754
 31
0.0
  0
LINE
  5
1ED
100
AcDbEntity
  8
1
100
AcDbLine
 10
185.280718
 20
-183.108114
 30
0.0
 11
185.280718
 21
-197.168989
 31
0.0
  0
LINE
  5
1EE
100
AcDbEntity
  8
1
100
AcDbLine
 10
141.280718
 20
-161.818754
 30
0.0
 11
151.280718
 21
-161.818754
 31
0.0
  0
LINE
  5
1EF
100
AcDbEntity
  8
1
100
AcDbLine
 10
185.280718
 20
-161.818754
 30
0.0
 11
195.280718
 21
-161.818754
 31
0.0
  0
LINE
  5
1F0
100
AcDbEntity
  8
1
100
AcDbLine
 10
151.280718
 20
-152.168989
 30
0.0
 11
151.280718
 21
-161.818754
 31
0.0
  0
LINE
  5
1F1
100
AcDbEntity
  8
1
100
AcDbLine
 10
151.280718
 20
-183.108114
 30
0.0
 11
151.280718
 21
-197.168989
 31
0.0
  0
LINE
  5
1F2
100
AcDbEntity
  8
1
100
AcDbLine
 10
141.280718
 20
-183.108114
 30
0.0
 11
151.280718
 21
-183.108114
 31
0.0
  0
LINE
  5
1F3
100
AcDbEntity
  8
1
100
AcDbLine
 10
185.280718
 20
-183.108114
 30
0.0
 11
195.280718
 21
-183.108114
 31
0.0
  0
ARC
  5
1F4
100
AcDbEntity
  8
1
100
AcDbCircle
 10
222.204239
 20
-174.18551
 30
0.0
 40
37.986303
100
AcDbArc
 50
180.0
 51
193.585142
  0
ARC
  5
1F5
100
AcDbEntity
  8
1
100
AcDbCircle
 10
256.700359
 20
-174.18551
 30
0.0
 40
72.482424
100
AcDbArc
 50
170.176288
 51
180.0
  0
ARC
  5
1F6
100
AcDbEntity
  8
1
100
AcDbCircle
 10
79.861077
 20
-174.18551
 30
0.0
 40
72.482424
100
AcDbArc
 50
0.0
 51
9.823712
  0
ARC
  5
1F7
100
AcDbEntity
  8
1
100
AcDbCircle
 10
114.357198
 20
-174.18551
 30
0.0
 40
37.986303
100
AcDbArc
 50
346.414858
 51
360.0
  0
LINE
  5
1F8
100
AcDbEntity
  8
1
100
AcDbLine
 10
183.927516
 20
-197.168989
 30
0.0
 11
181.4547
 21
-186.204703
 31
0.0
  0
LINE
  5
1F9
100
AcDbEntity
  8
1
100
AcDbLine
 10
152.633921
 20
-197.168989
 30
0.0
 11
155.106736
 21
-186.204703
 31
0.0
  0
ARC
  5
1FA
100
AcDbEntity
  8
1
100
AcDbCircle
 10
196.780718
 20
-89.392493
 30
0.0
 40
3.0
100
AcDbArc
 50
180.0
 51
240.0
  0
ARC
  5
1FB
100
AcDbEntity
  8
1
100
AcDbCircle
 10
139.780718
 20
-89.392493
 30
0.0
 40
3.0
100
AcDbArc
 50
300.0
 51
360.0
  0
LINE
  5
1FC
100
AcDbEntity
  8
1
100
AcDbLine
 10
141.280718
 20
-108.825854
 30
0.0
 11
151.839364
 21
-108.825854
 31
0.0
  0
LINE
  5
1FD
100
AcDbEntity
  8
1
100
AcDbLine
 10
193.280718
 20
-108.825854
 30
0.0
 11
195.280718
 21
-108.825854
 31
0.0
  0
ARC
  5
1FE
100
AcDbEntity
  8
1
100
AcDbCircle
 10
151.839364
 20
-107.684047
 30
0.0
 40
1.141807
100
AcDbArc
 50
270.0
 51
0.0
  0
ARC
  5
1FF
100
AcDbEntity
  8
1
100
AcDbCircle
 10
124.650798
 20
-107.684047
 30
0.0
 40
28.330373
100
AcDbArc
 50
0.0
 51
14.131932
  0
LINE
  5
200
100
AcDbEntity
  8
1
100
AcDbLine
 10
141.280718
 20
-98.016712
 30
0.0
 11
152.905653
 21
-98.016712
 31
0.0
  0
LINE
  5
201
100
AcDbEntity
  8
1
100
AcDbLine
 10
193.280718
 20
-98.016712
 30
0.0
 11
195.280718
 21
-98.016712
 31
0.0
  0
LINE
  5
202
100
AcDbEntity
  8
1
100
AcDbLine
 10
157.280718
 20
-96.122659
 30
0.0
 11
182.280718
 21
-96.122659
 31
0.0
  0
ARC
  5
203
100
AcDbEntity
  8
1
100
AcDbCircle
 10
157.280718
 20
-102.122659
 30
0.0
 40
6.0
100
AcDbArc
 50
90.0
 51
139.470971
  0
ARC
  5
204
100
AcDbEntity
  8
1
100
AcDbCircle
 10
154.882653
 20
-100.072416
 30
0.0
 40
2.84497
100
AcDbArc
 50
139.470971
 51
194.131932
  0
LINE
  5
205
100
AcDbEntity
  8
1
100
AcDbLine
 10
161.106736
 20
-116.34731
 30
0.0
 11
175.4547
 21
-116.34731
 31
0.0
  0
ARC
  5
206
100
AcDbEntity
  8
1
100
AcDbCircle
 10
175.4547
 20
-122.34731
 30
0.0
 40
6.0
100
AcDbArc
 50
0.0
 51
90.0
  0
ARC
  5
207
100
AcDbEntity
  8
1
100
AcDbCircle
 10
161.106736
 20
-122.34731
 30
0.0
 40
6.0
100
AcDbArc
 50
90.0
 51
180.0
  0
ARC
  5
208
100
AcDbEntity
  8
1
100
AcDbCircle
 10
175.4547
 20
-324.418408
 30
0.0
 40
6.0
100
AcDbArc
 50
270.0
 51
360.0
  0
ARC
  5
209
100
AcDbEntity
  8
1
100
AcDbCircle
 10
161.106736
 20
-324.418408
 30
0.0
 40
6.0
100
AcDbArc
 50
180.0
 51
270.0
  0
LINE
  5
20A
100
AcDbEntity
  8
1
100
AcDbLine
 10
182.877579
 20
-108.825854
 30
0.0
 11
181.4547
 21
-116.34731
 31
0.0
  0
LINE
  5
20B
100
AcDbEntity
  8
1
100
AcDbLine
 10
155.106736
 20
-116.34731
 30
0.0
 11
153.683858
 21
-108.825854
 31
0.0
  0
ARC
  5
20C
100
AcDbEntity
  8
1
100
AcDbCircle
 10
188.428346
 20
-24.650816
 30
0.0
 40
7.481827
100
AcDbArc
 50
90.0
 51
183.971346
  0
LINE
  5
20D
100
AcDbEntity
  8
1
100
AcDbLine
 10
180.964485
 20
-25.168989
 30
0.0
 11
184.280718
 21
-72.936633
 31
0.0
  0
LINE
  5
20E
100
AcDbEntity
  8
1
100
AcDbLine
 10
155.596952
 20
-25.168989
 30
0.0
 11
152.199444
 21
-74.107326
 31
0.0
  0
ARC
  5
20F
100
AcDbEntity
  8
1
100
AcDbCircle
 10
148.133091
 20
-24.650816
 30
0.0
 40
7.481827
100
AcDbArc
 50
356.028654
 51
90.0
  0
LINE
  5
210
100
AcDbEntity
  8
1
100
AcDbLine
 10
152.199444
 20
-74.107326
 30
0.0
 11
184.280718
 21
-74.107326
 31
0.0
  0
LINE
  5
211
100
AcDbEntity
  8
1
100
AcDbLine
 10
151.181718
 20
-81.571427
 30
0.0
 11
184.280718
 21
-81.571427
 31
0.0
  0
LINE
  5
212
100
AcDbEntity
  8
1
100
AcDbLine
 10
152.199444
 20
-74.107326
 30
0.0
 11
151.181718
 21
-81.571427
 31
0.0
  0
LINE
  5
213
100
AcDbEntity
  8
1
100
AcDbLine
 10
151.181718
 20
-81.571427
 30
0.0
 11
150.954186
 21
-89.343339
 31
0.0
  0
ARC
  5
214
100
AcDbEntity
  8
1
100
AcDbCircle
 10
147.455685
 20
-89.240916
 30
0.0
 40
3.5
100
AcDbArc
 50
270.0
 51
358.323077
  0
LINE
  5
215
100
AcDbEntity
  8
1
100
AcDbLine
 10
142.780718
 20
-92.172841
 30
0.0
 11
146.039313
 21
-92.568807
 31
0.0
  0
LINE
  5
216
100
AcDbEntity
  8
1
100
AcDbLine
 10
184.280718
 20
-36.314603
 30
0.0
 11
191.280718
 21
-36.314603
 31
0.0
  0
LINE
  5
217
100
AcDbEntity
  8
1
100
AcDbLine
 10
141.280718
 20
-92.740916
 30
0.0
 11
182.280718
 21
-92.740916
 31
0.0
  0
LINE
  5
218
100
AcDbEntity
  8
1
100
AcDbLine
 10
193.280718
 20
-92.740916
 30
0.0
 11
195.280718
 21
-92.740916
 31
0.0
  0
LINE
  5
219
100
AcDbEntity
  8
1
100
AcDbLine
 10
191.280718
 20
-38.314603
 30
0.0
 11
191.280718
 21
-111.886174
 31
0.0
  0
LINE
  5
21A
100
AcDbEntity
  8
1
100
AcDbLine
 10
184.280718
 20
-38.314603
 30
0.0
 11
184.280718
 21
-127.454719
 31
0.0
  0
ARC
  5
21B
100
AcDbEntity
  8
1
100
AcDbCircle
 10
193.280718
 20
-38.314603
 30
0.0
 40
2.0
100
AcDbArc
 50
90.0
 51
180.0
  0
ARC
  5
21C
100
AcDbEntity
  8
1
100
AcDbCircle
 10
182.280718
 20
-38.314603
 30
0.0
 40
2.0
100
AcDbArc
 50
0.0
 51
90.0
  0
LINE
  5
21D
100
AcDbEntity
  8
1
100
AcDbLine
 10
189.280718
 20
-113.886174
 30
0.0
 11
195.280718
 21
-113.886174
 31
0.0
  0
ARC
  5
21E
100
AcDbEntity
  8
1
100
AcDbCircle
 10
193.280718
 20
-111.886174
 30
0.0
 40
2.0
100
AcDbArc
 50
180.0
 51
270.0
  0
ARC
  5
21F
100
AcDbEntity
  8
1
100
AcDbCircle
 10
189.280718
 20
-117.886174
 30
0.0
 40
4.0
100
AcDbArc
 50
90.0
 51
180.0
  0
ARC
  5
220
100
AcDbEntity
  8
1
100
AcDbCircle
 10
182.280718
 20
-127.454719
 30
0.0
 40
2.0
100
AcDbArc
 50
270.0
 51
360.0
  0
ARC
  5
221
100
AcDbEntity
  8
1
100
AcDbCircle
 10
193.280718
 20
-96.016712
 30
0.0
 40
2.0
100
AcDbArc
 50
180.0
 51
270.0
  0
ARC
  5
222
100
AcDbEntity
  8
1
100
AcDbCircle
 10
193.280718
 20
-90.740916
 30
0.0
 40
2.0
100
AcDbArc
 50
180.0
 51
270.0
  0
ARC
  5
223
100
AcDbEntity
  8
1
100
AcDbCircle
 10
182.280718
 20
-90.740916
 30
0.0
 40
2.0
100
AcDbArc
 50
270.0
 51
360.0
  0
ARC
  5
224
100
AcDbEntity
  8
1
100
AcDbCircle
 10
193.280718
 20
-106.825854
 30
0.0
 40
2.0
100
AcDbArc
 50
180.0
 51
270.0
  0
ARC
  5
225
100
AcDbEntity
  8
1
100
AcDbCircle
 10
182.280718
 20
-94.122659
 30
0.0
 40
2.0
100
AcDbArc
 50
270.0
 51
360.0
  0
LINE
  5
226
100
AcDbEntity
  8
1
100
AcDbLine
 10
186.280718
 20
-74.777326
 30
0.0
 11
189.280718
 21
-74.777326
 31
0.0
  0
LINE
  5
227
100
AcDbEntity
  8
1
100
AcDbLine
 10
186.280718
 20
-94.364823
 30
0.0
 11
189.280718
 21
-94.364823
 31
0.0
  0
ARC
  5
228
100
AcDbEntity
  8
1
100
AcDbCircle
 10
189.280718
 20
-76.777326
 30
0.0
 40
2.0
100
AcDbArc
 50
0.0
 51
90.0
  0
ARC
  5
229
100
AcDbEntity
  8
1
100
AcDbCircle
 10
186.280718
 20
-76.777326
 30
0.0
 40
2.0
100
AcDbArc
 50
90.0
 51
180.0
  0
ARC
  5
22A
100
AcDbEntity
  8
1
100
AcDbCircle
 10
189.280718
 20
-92.364823
 30
0.0
 40
2.0
100
AcDbArc
 50
270.0
 51
360.0
  0
ARC
  5
22B
100
AcDbEntity
  8
1
100
AcDbCircle
 10
186.280718
 20
-92.364823
 30
0.0
 40
2.0
100
AcDbArc
 50
180.0
 51
270.0
  0
LINE
  5
22C
100
AcDbEntity
  8
1
100
AcDbLine
 10
-448.973506
 20
-201.168989
 30
0.0
 11
-459.079506
 21
-201.168989
 31
0.0
  0
LINE
  5
22D
100
AcDbEntity
  8
1
100
AcDbLine
 10
-448.973506
 20
-201.168989
 30
0.0
 11
-448.026506
 21
-202.115989
 31
0.0
  0
LINE
  5
22E
100
AcDbEntity
  8
1
100
AcDbLine
 10
-448.026506
 20
-202.115989
 30
0.0
 11
-448.026506
 21
-203.168989
 31
0.0
  0
LINE
  5
22F
100
AcDbEntity
  8
1
 62
     2
100
AcDbLine
 10
-448.973506
 20
-201.168989
 30
0.0
 11
-448.973506
 21
-203.168989
 31
0.0
  0
LINE
  5
230
100
AcDbEntity
  8
1
100
AcDbLine
 10
-459.079506
 20
-201.168989
 30
0.0
 11
-460.026506
 21
-202.115989
 31
0.0
  0
LINE
  5
231
100
AcDbEntity
  8
1
100
AcDbLine
 10
-460.026506
 20
-202.115989
 30
0.0
 11
-460.026506
 21
-203.168989
 31
0.0
  0
LINE
  5
232
100
AcDbEntity
  8
1
100
AcDbLine
 10
-460.026506
 20
-202.115989
 30
0.0
 11
-448.026506
 21
-202.115989
 31
0.0
  0
LINE
  5
233
100
AcDbEntity
  8
1
 62
     2
100
AcDbLine
 10
-459.079506
 20
-201.168989
 30
0.0
 11
-459.079506
 21
-203.168989
 31
0.0
  0
LINE
  5
234
100
AcDbEntity
  8
1
100
AcDbLine
 10
-166.973506
 20
-201.168989
 30
0.0
 11
-177.079506
 21
-201.168989
 31
0.0
  0
LINE
  5
235
100
AcDbEntity
  8
1
100
AcDbLine
 10
-166.973506
 20
-201.168989
 30
0.0
 11
-166.026506
 21
-202.115989
 31
0.0
  0
LINE
  5
236
100
AcDbEntity
  8
1
100
AcDbLine
 10
-166.026506
 20
-202.115989
 30
0.0
 11
-166.026506
 21
-203.168989
 31
0.0
  0
LINE
  5
237
100
AcDbEntity
  8
1
 62
     2
100
AcDbLine
 10
-166.973506
 20
-201.168989
 30
0.0
 11
-166.973506
 21
-203.168989
 31
0.0
  0
LINE
  5
238
100
AcDbEntity
  8
1
100
AcDbLine
 10
-177.079506
 20
-201.168989
 30
0.0
 11
-178.026506
 21
-202.115989
 31
0.0
  0
LINE
  5
239
100
AcDbEntity
  8
1
100
AcDbLine
 10
-178.026506
 20
-202.115989
 30
0.0
 11
-178.026506
 21
-203.168989
 31
0.0
  0
LINE
  5
23A
100
AcDbEntity
  8
1
100
AcDbLine
 10
-178.026506
 20
-202.115989
 30
0.0
 11
-166.026506
 21
-202.115989
 31
0.0
  0
LINE
  5
23B
100
AcDbEntity
  8
1
 62
     2
100
AcDbLine
 10
-177.079506
 20
-201.168989
 30
0.0
 11
-177.079506
 21
-203.168989
 31
0.0
  0
LINE
  5
23C
100
AcDbEntity
  8
1
  6
CENTER
 62
     2
100
AcDbLine
 10
-454.026506
 20
-194.614311
 30
0.0
 11
-454.026506
 21
-254.776192
 31
0.0
  0
LINE
  5
23D
100
AcDbEntity
  8
1
  6
CENTER
 62
     2
100
AcDbLine
 10
-172.026506
 20
-194.614311
 30
0.0
 11
-172.026506
 21
-254.776192
 31
0.0
  0
LINE
  5
23E
100
AcDbEntity
  8
1
100
AcDbLine
 10
-157.026506
 20
271.373715
 30
0.0
 11
-157.026506
 21
302.373715
 31
0.0
  0
LINE
  5
23F
100
AcDbEntity
  8
1
100
AcDbLine
 10
-167.026506
 20
312.373715
 30
0.0
 11
-178.940788
 21
312.373715
 31
0.0
  0
LINE
  5
240
100
AcDbEntity
  8
1
100
AcDbLine
 10
-167.026506
 20
261.373715
 30
0.0
 11
-178.940788
 21
261.373715
 31
0.0
  0
ARC
  5
241
100
AcDbEntity
  8
1
100
AcDbCircle
 10
-177.42843
 20
315.373715
 30
0.0
 40
3.0
100
AcDbArc
 50
210.0
 51
270.0
  0
ARC
  5
242
100
AcDbEntity
  8
1
100
AcDbCircle
 10
-177.42843
 20
258.373715
 30
0.0
 40
3.0
100
AcDbArc
 50
90.0
 51
150.0
  0
LINE
  5
243
100
AcDbEntity
  8
1
  6
CENTER
 62
     2
100
AcDbLine
 10
-162.412143
 20
298.873715
 30
0.0
 11
-183.042483
 21
298.873715
 31
0.0
  0
LINE
  5
244
100
AcDbEntity
  8
1
  6
CENTER
 62
     2
100
AcDbLine
 10
-162.412143
 20
274.873715
 30
0.0
 11
-183.042483
 21
274.873715
 31
0.0
  0
CIRCLE
  5
245
100
AcDbEntity
  8
1
100
AcDbCircle
 10
-172.026506
 20
298.873715
 30
0.0
 40
6.0
  0
CIRCLE
  5
246
100
AcDbEntity
  8
1
 62
     2
100
AcDbCircle
 10
-172.026506
 20
298.873715
 30
0.0
 40
5.053
  0
CIRCLE
  5
247
100
AcDbEntity
  8
1
100
AcDbCircle
 10
-172.026506
 20
274.873715
 30
0.0
 40
6.0
  0
CIRCLE
  5
248
100
AcDbEntity
  8
1
 62
     2
100
AcDbCircle
 10
-172.026506
 20
274.873715
 30
0.0
 40
5.053
  0
LINE
  5
249
100
AcDbEntity
  8
1
  6
CENTER
 62
     2
100
AcDbLine
 10
-172.026506
 20
264.632454
 30
0.0
 11
-172.026506
 21
284.315147
 31
0.0
  0
LINE
  5
24A
100
AcDbEntity
  8
1
  6
CENTER
 62
     2
100
AcDbLine
 10
-172.026506
 20
289.397331
 30
0.0
 11
-172.026506
 21
308.615807
 31
0.0
  0
ARC
  5
24B
100
AcDbEntity
  8
1
100
AcDbCircle
 10
-178.940788
 20
315.373715
 30
0.0
 40
3.0
100
AcDbArc
 50
210.0
 51
270.0
  0
ARC
  5
24C
100
AcDbEntity
  8
1
100
AcDbCircle
 10
-178.940788
 20
258.373715
 30
0.0
 40
3.0
100
AcDbArc
 50
90.0
 51
150.0
  0
LINE
  5
24D
100
AcDbEntity
  8
1
100
AcDbLine
 10
-158.313869
 20
271.373715
 30
0.0
 11
-158.313869
 21
302.373715
 31
0.0
  0
LINE
  5
24E
100
AcDbEntity
  8
1
100
AcDbLine
 10
-181.538864
 20
259.873715
 30
0.0
 11
-181.538864
 21
266.494214
 31
0.0
  0
LINE
  5
24F
100
AcDbEntity
  8
1
100
AcDbLine
 10
-181.538864
 20
307.253215
 30
0.0
 11
-181.538864
 21
313.873715
 31
0.0
  0
LINE
  5
250
100
AcDbEntity
  8
1
100
AcDbLine
 10
-204.129116
 20
278.768983
 30
0.0
 11
-204.129116
 21
294.978446
 31
0.0
  0
LINE
  5
251
100
AcDbEntity
  8
1
100
AcDbLine
 10
-184.870913
 20
303.309379
 30
0.0
 11
-199.131043
 21
300.8942
 31
0.0
  0
LINE
  5
252
100
AcDbEntity
  8
1
100
AcDbLine
 10
-184.870913
 20
270.43805
 30
0.0
 11
-199.131043
 21
272.85323
 31
0.0
  0
ARC
  5
253
100
AcDbEntity
  8
1
100
AcDbCircle
 10
-185.538864
 20
307.253215
 30
0.0
 40
4.0
100
AcDbArc
 50
279.61273
 51
0.0
  0
ARC
  5
254
100
AcDbEntity
  8
1
100
AcDbCircle
 10
-185.538864
 20
266.494214
 30
0.0
 40
4.0
100
AcDbArc
 50
360.0
 51
80.38727
  0
ARC
  5
255
100
AcDbEntity
  8
1
100
AcDbCircle
 10
-198.129116
 20
278.768983
 30
0.0
 40
6.0
100
AcDbArc
 50
180.0
 51
260.38727
  0
ARC
  5
256
100
AcDbEntity
  8
1
100
AcDbCircle
 10
-198.129116
 20
294.978446
 30
0.0
 40
6.0
100
AcDbArc
 50
99.61273
 51
180.0
  0
LINE
  5
257
100
AcDbEntity
  8
1
100
AcDbLine
 10
-209.103457
 20
275.873715
 30
0.0
 11
-209.103457
 21
297.873715
 31
0.0
  0
LINE
  5
258
100
AcDbEntity
  8
1
100
AcDbLine
 10
-206.527702
 20
275.873715
 30
0.0
 11
-206.527702
 21
297.873715
 31
0.0
  0
LINE
  5
259
100
AcDbEntity
  8
1
100
AcDbLine
 10
-215.103457
 20
303.873715
 30
0.0
 11
-236.294455
 21
303.873715
 31
0.0
  0
LINE
  5
25A
100
AcDbEntity
  8
1
100
AcDbLine
 10
-215.103457
 20
269.873715
 30
0.0
 11
-245.095309
 21
269.873715
 31
0.0
  0
ARC
  5
25B
100
AcDbEntity
  8
1
100
AcDbCircle
 10
-215.103457
 20
275.873715
 30
0.0
 40
6.0
100
AcDbArc
 50
270.0
 51
0.0
  0
ARC
  5
25C
100
AcDbEntity
  8
1
100
AcDbCircle
 10
-215.103457
 20
297.873715
 30
0.0
 40
6.0
100
AcDbArc
 50
0.0
 51
90.0
  0
ARC
  5
25D
100
AcDbEntity
  8
1
100
AcDbCircle
 10
-198.527702
 20
297.873715
 30
0.0
 40
8.0
100
AcDbArc
 50
143.130102
 51
180.0
  0
ARC
  5
25E
100
AcDbEntity
  8
1
100
AcDbCircle
 10
-202.527702
 20
300.873715
 30
0.0
 40
3.0
100
AcDbArc
 50
90.0
 51
143.130102
  0
ARC
  5
25F
100
AcDbEntity
  8
1
100
AcDbCircle
 10
-202.527702
 20
272.873715
 30
0.0
 40
3.0
100
AcDbArc
 50
216.869898
 51
270.0
  0
ARC
  5
260
100
AcDbEntity
  8
1
100
AcDbCircle
 10
-198.527702
 20
275.873715
 30
0.0
 40
8.0
100
AcDbArc
 50
180.0
 51
216.869898
  0
LINE
  5
261
100
AcDbEntity
  8
1
100
AcDbLine
 10
-204.129116
 20
300.047697
 30
0.0
 11
-206.22665
 21
300.047697
 31
0.0
  0
LINE
  5
262
100
AcDbEntity
  8
1
100
AcDbLine
 10
-204.129116
 20
273.699733
 30
0.0
 11
-206.22665
 21
273.699733
 31
0.0
  0
LINE
  5
263
100
AcDbEntity
  8
1
100
AcDbLine
 10
-233.427511
 20
279.699733
 30
0.0
 11
-233.427511
 21
294.047697
 31
0.0
  0
ARC
  5
264
100
AcDbEntity
  8
1
100
AcDbCircle
 10
-239.427511
 20
279.699733
 30
0.0
 40
6.0
100
AcDbArc
 50
270.0
 51
360.0
  0
ARC
  5
265
100
AcDbEntity
  8
1
100
AcDbCircle
 10
-239.427511
 20
294.047697
 30
0.0
 40
6.0
100
AcDbArc
 50
0.0
 51
90.0
  0
LINE
  5
266
100
AcDbEntity
  8
1
100
AcDbLine
 10
-233.427511
 20
300.047697
 30
0.0
 11
-215.103457
 21
302.929953
 31
0.0
  0
LINE
  5
267
100
AcDbEntity
  8
1
100
AcDbLine
 10
-233.427511
 20
273.699733
 30
0.0
 11
-215.103457
 21
270.817476
 31
0.0
  0
LINE
  5
268
100
AcDbEntity
  8
1
100
AcDbLine
 10
-195.467592
 20
259.873715
 30
0.0
 11
-195.467592
 21
269.873715
 31
0.0
  0
LINE
  5
269
100
AcDbEntity
  8
1
100
AcDbLine
 10
-195.467592
 20
303.873715
 30
0.0
 11
-195.467592
 21
313.873715
 31
0.0
  0
LINE
  5
26A
100
AcDbEntity
  8
1
100
AcDbLine
 10
-186.203297
 20
259.873715
 30
0.0
 11
-186.203297
 21
269.873715
 31
0.0
  0
LINE
  5
26B
100
AcDbEntity
  8
1
100
AcDbLine
 10
-186.203297
 20
303.873715
 30
0.0
 11
-186.203297
 21
313.873715
 31
0.0
  0
LINE
  5
26C
100
AcDbEntity
  8
1
100
AcDbLine
 10
-184.870913
 20
303.873715
 30
0.0
 11
-186.203297
 21
303.873715
 31
0.0
  0
LINE
  5
26D
100
AcDbEntity
  8
1
100
AcDbLine
 10
-195.467592
 20
303.873715
 30
0.0
 11
-202.527702
 21
303.873715
 31
0.0
  0
LINE
  5
26E
100
AcDbEntity
  8
1
100
AcDbLine
 10
-184.870913
 20
269.873715
 30
0.0
 11
-186.203297
 21
269.873715
 31
0.0
  0
LINE
  5
26F
100
AcDbEntity
  8
1
100
AcDbLine
 10
-195.467592
 20
269.873715
 30
0.0
 11
-202.527702
 21
269.873715
 31
0.0
  0
ARC
  5
270
100
AcDbEntity
  8
1
100
AcDbCircle
 10
-194.769926
 20
235.879177
 30
0.0
 40
35.05732
100
AcDbArc
 50
75.855948
 51
90.0
  0
ARC
  5
271
100
AcDbEntity
  8
1
100
AcDbCircle
 10
-195.713974
 20
270.436497
 30
0.0
 40
0.35
100
AcDbArc
 50
108.056537
 51
188.370236
  0
ARC
  5
272
100
AcDbEntity
  8
1
100
AcDbCircle
 10
-195.467592
 20
270.472749
 30
0.0
 40
0.599035
100
AcDbArc
 50
188.370236
 51
270.0
  0
ARC
  5
273
100
AcDbEntity
  8
1
100
AcDbCircle
 10
-194.769926
 20
267.540742
 30
0.0
 40
3.395755
100
AcDbArc
 50
90.0
 51
108.056537
  0
ARC
  5
274
100
AcDbEntity
  8
1
100
AcDbCircle
 10
-194.769926
 20
337.868252
 30
0.0
 40
35.05732
100
AcDbArc
 50
270.0
 51
284.144052
  0
ARC
  5
275
100
AcDbEntity
  8
1
100
AcDbCircle
 10
-195.713974
 20
303.310932
 30
0.0
 40
0.35
100
AcDbArc
 50
171.629764
 51
251.943463
  0
ARC
  5
276
100
AcDbEntity
  8
1
100
AcDbCircle
 10
-195.467592
 20
303.27468
 30
0.0
 40
0.599035
100
AcDbArc
 50
90.0
 51
171.629764
  0
ARC
  5
277
100
AcDbEntity
  8
1
100
AcDbCircle
 10
-194.769926
 20
306.206687
 30
0.0
 40
3.395755
100
AcDbArc
 50
251.943463
 51
270.0
  0
LINE
  5
278
100
AcDbEntity
  8
1
100
AcDbLine
 10
-245.095309
 20
259.873715
 30
0.0
 11
-245.095309
 21
269.873715
 31
0.0
  0
LINE
  5
279
100
AcDbEntity
  8
1
100
AcDbLine
 10
-245.095309
 20
309.873715
 30
0.0
 11
-245.095309
 21
313.873715
 31
0.0
  0
ARC
  5
27A
100
AcDbEntity
  8
1
  6
DASHED
100
AcDbCircle
 10
-265.191077
 20
421.768325
 30
0.0
 40
119.595063
100
AcDbArc
 50
271.516264
 51
276.204154
  0
LINE
  5
27B
100
AcDbEntity
  8
1
100
AcDbLine
 10
-236.026506
 20
304.873715
 30
0.0
 11
-236.026506
 21
307.873715
 31
0.0
  0
ARC
  5
27C
100
AcDbEntity
  8
1
100
AcDbCircle
 10
-238.026506
 20
307.873715
 30
0.0
 40
2.0
100
AcDbArc
 50
0.0
 51
90.0
  0
ARC
  5
27D
100
AcDbEntity
  8
1
100
AcDbCircle
 10
-238.026506
 20
304.873715
 30
0.0
 40
2.0
100
AcDbArc
 50
270.0
 51
360.0
  0
LINE
  5
27E
100
AcDbEntity
  8
1
100
AcDbLine
 10
198.280718
 20
-98.168989
 30
0.0
 11
198.280718
 21
-348.168989
 31
0.0
  0
LINE
  5
27F
100
AcDbEntity
  8
1
100
AcDbLine
 10
138.280718
 20
-98.168989
 30
0.0
 11
138.280718
 21
-348.168989
 31
0.0
  0
LINE
  5
280
100
AcDbEntity
  8
1
100
AcDbLine
 10
138.280718
 20
-98.168989
 30
0.0
 11
141.280718
 21
-98.168989
 31
0.0
  0
LINE
  5
281
100
AcDbEntity
  8
1
100
AcDbLine
 10
195.280718
 20
-98.168989
 30
0.0
 11
198.280718
 21
-98.168989
 31
0.0
  0
LINE
  5
282
100
AcDbEntity
  8
1
100
AcDbLine
 10
138.280718
 20
-348.168989
 30
0.0
 11
141.280718
 21
-348.168989
 31
0.0
  0
LINE
  5
283
100
AcDbEntity
  8
1
100
AcDbLine
 10
195.280718
 20
-348.168989
 30
0.0
 11
198.280718
 21
-348.168989
 31
0.0
  0
LINE
  5
284
100
AcDbEntity
  8
1
100
AcDbLine
 10
-188.026506
 20
256.873715
 30
0.0
 11
-188.026506
 21
259.873715
 31
0.0
  0
LINE
  5
285
100
AcDbEntity
  8
1
100
AcDbLine
 10
-188.026506
 20
313.873715
 30
0.0
 11
-188.026506
 21
316.873715
 31
0.0
  0
LINE
  5
286
100
AcDbEntity
  8
1
100
AcDbLine
 10
-438.026506
 20
256.873715
 30
0.0
 11
-438.026506
 21
259.873715
 31
0.0
  0
LINE
  5
287
100
AcDbEntity
  8
1
100
AcDbLine
 10
-438.026506
 20
313.873715
 30
0.0
 11
-438.026506
 21
316.873715
 31
0.0
  0
LINE
  5
288
100
AcDbEntity
  8
1
100
AcDbLine
 10
-157.026506
 20
-223.168989
 30
0.0
 11
-188.026506
 21
-223.168989
 31
0.0
  0
LINE
  5
289
100
AcDbEntity
  8
1
100
AcDbLine
 10
-469.026506
 20
-223.168989
 30
0.0
 11
-438.026506
 21
-223.168989
 31
0.0
  0
LINE
  5
28A
100
AcDbEntity
  8
1
100
AcDbLine
 10
-438.026506
 20
316.873715
 30
0.0
 11
-371.708573
 21
316.873715
 31
0.0
  0
LINE
  5
28B
100
AcDbEntity
  8
1
  6
DASHED
100
AcDbLine
 10
-371.708573
 20
316.873715
 30
0.0
 11
-363.893149
 21
316.873715
 31
0.0
  0
LINE
  5
28C
100
AcDbEntity
  8
1
100
AcDbLine
 10
-446.026506
 20
313.873715
 30
0.0
 11
-372.237554
 21
313.873715
 31
0.0
  0
LINE
  5
28D
100
AcDbEntity
  8
1
  6
DASHED
100
AcDbLine
 10
-372.237554
 20
313.873715
 30
0.0
 11
-364.026506
 21
313.873715
 31
0.0
  0
LINE
  5
28E
100
AcDbEntity
  8
1
100
AcDbLine
 10
-388.026506
 20
309.873715
 30
0.0
 11
-372.942862
 21
309.873715
 31
0.0
  0
LINE
  5
28F
100
AcDbEntity
  8
1
  6
DASHED
100
AcDbLine
 10
-372.942862
 20
309.873715
 30
0.0
 11
-364.026506
 21
309.873715
 31
0.0
  0
LINE
  5
290
100
AcDbEntity
  8
1
100
AcDbLine
 10
-388.026506
 20
302.873715
 30
0.0
 11
-374.177151
 21
302.873715
 31
0.0
  0
LINE
  5
291
100
AcDbEntity
  8
1
  6
DASHED
100
AcDbLine
 10
-374.177151
 20
302.873715
 30
0.0
 11
-364.026506
 21
302.873715
 31
0.0
  0
LINE
  5
292
100
AcDbEntity
  8
1
100
AcDbLine
 10
-386.625501
 20
300.047697
 30
0.0
 11
-374.675454
 21
300.047697
 31
0.0
  0
LINE
  5
293
100
AcDbEntity
  8
1
  6
DASHED
100
AcDbLine
 10
-374.675454
 20
300.047697
 30
0.0
 11
-364.026506
 21
300.047697
 31
0.0
  0
LINE
  5
294
100
AcDbEntity
  8
1
100
AcDbLine
 10
-386.625501
 20
273.699733
 30
0.0
 11
-374.633699
 21
273.699733
 31
0.0
  0
LINE
  5
295
100
AcDbEntity
  8
1
  6
DASHED
100
AcDbLine
 10
-374.633699
 20
273.699733
 30
0.0
 11
-364.026506
 21
273.699733
 31
0.0
  0
ARC
  5
296
100
AcDbEntity
  8
1
  6
DASHED
100
AcDbCircle
 10
-360.861935
 20
151.979105
 30
0.0
 40
119.595063
100
AcDbArc
 50
91.516264
 51
96.285739
  0
ARC
  5
297
100
AcDbEntity
  8
1
100
AcDbCircle
 10
-360.861935
 20
151.979105
 30
0.0
 40
119.595063
100
AcDbArc
 50
96.285739
 51
99.673401
  0
LINE
  5
298
100
AcDbEntity
  8
1
100
AcDbLine
 10
-446.026506
 20
259.873715
 30
0.0
 11
-369.947504
 21
259.873715
 31
0.0
  0
LINE
  5
299
100
AcDbEntity
  8
1
  6
DASHED
100
AcDbLine
 10
-369.947504
 20
259.873715
 30
0.0
 11
-364.026506
 21
259.873715
 31
0.0
  0
LINE
  5
29A
100
AcDbEntity
  8
1
100
AcDbLine
 10
-438.026506
 20
256.873715
 30
0.0
 11
-368.425062
 21
256.873715
 31
0.0
  0
LINE
  5
29B
100
AcDbEntity
  8
1
  6
DASHED
100
AcDbLine
 10
-368.425062
 20
256.873715
 30
0.0
 11
-363.893149
 21
256.873715
 31
0.0
  0
LINE
  5
29C
100
AcDbEntity
  8
1
100
AcDbLine
 10
-188.026506
 20
316.873715
 30
0.0
 11
-254.344439
 21
316.873715
 31
0.0
  0
LINE
  5
29D
100
AcDbEntity
  8
1
  6
DASHED
100
AcDbLine
 10
-254.344439
 20
316.873715
 30
0.0
 11
-262.159863
 21
316.873715
 31
0.0
  0
LINE
  5
29E
100
AcDbEntity
  8
1
100
AcDbLine
 10
-180.026506
 20
313.873715
 30
0.0
 11
-253.815458
 21
313.873715
 31
0.0
  0
LINE
  5
29F
100
AcDbEntity
  8
1
  6
DASHED
100
AcDbLine
 10
-253.815458
 20
313.873715
 30
0.0
 11
-262.026506
 21
313.873715
 31
0.0
  0
LINE
  5
2A0
100
AcDbEntity
  8
1
100
AcDbLine
 10
-238.026506
 20
309.873715
 30
0.0
 11
-253.11015
 21
309.873715
 31
0.0
  0
LINE
  5
2A1
100
AcDbEntity
  8
1
  6
DASHED
100
AcDbLine
 10
-253.11015
 20
309.873715
 30
0.0
 11
-262.026506
 21
309.873715
 31
0.0
  0
LINE
  5
2A2
100
AcDbEntity
  8
1
100
AcDbLine
 10
-238.026506
 20
302.873715
 30
0.0
 11
-249.026506
 21
302.873715
 31
0.0
  0
LINE
  5
2A3
100
AcDbEntity
  8
1
  6
DASHED
100
AcDbLine
 10
-249.026506
 20
302.873715
 30
0.0
 11
-262.026506
 21
302.873715
 31
0.0
  0
LINE
  5
2A4
100
AcDbEntity
  8
1
100
AcDbLine
 10
-239.427511
 20
300.047697
 30
0.0
 11
-249.026506
 21
300.047697
 31
0.0
  0
LINE
  5
2A5
100
AcDbEntity
  8
1
  6
DASHED
100
AcDbLine
 10
-249.026506
 20
300.047697
 30
0.0
 11
-262.026506
 21
300.047697
 31
0.0
  0
LINE
  5
2A6
100
AcDbEntity
  8
1
100
AcDbLine
 10
-239.427511
 20
273.699733
 30
0.0
 11
-249.026506
 21
273.699733
 31
0.0
  0
LINE
  5
2A7
100
AcDbEntity
  8
1
  6
DASHED
100
AcDbLine
 10
-249.026506
 20
273.699733
 30
0.0
 11
-262.026506
 21
273.699733
 31
0.0
  0
ARC
  5
2A8
100
AcDbEntity
  8
1
100
AcDbCircle
 10
-265.191077
 20
151.979105
 30
0.0
 40
119.595063
100
AcDbArc
 50
80.326599
 51
82.232079
  0
ARC
  5
2A9
100
AcDbEntity
  8
1
  6
DASHED
100
AcDbCircle
 10
-265.191077
 20
151.979105
 30
0.0
 40
119.595063
100
AcDbArc
 50
82.232079
 51
88.483736
  0
LINE
  5
2AA
100
AcDbEntity
  8
1
100
AcDbLine
 10
-180.026506
 20
259.873715
 30
0.0
 11
-256.105508
 21
259.873715
 31
0.0
  0
LINE
  5
2AB
100
AcDbEntity
  8
1
  6
DASHED
100
AcDbLine
 10
-256.105508
 20
259.873715
 30
0.0
 11
-262.026506
 21
259.873715
 31
0.0
  0
LINE
  5
2AC
100
AcDbEntity
  8
1
100
AcDbLine
 10
-188.026506
 20
256.873715
 30
0.0
 11
-257.62795
 21
256.873715
 31
0.0
  0
LINE
  5
2AD
100
AcDbEntity
  8
1
  6
DASHED
100
AcDbLine
 10
-257.62795
 20
256.873715
 30
0.0
 11
-262.159863
 21
256.873715
 31
0.0
  0
ARC
  5
2AE
100
AcDbEntity
  8
1
100
AcDbCircle
 10
-167.026506
 20
302.373715
 30
0.0
 40
10.0
100
AcDbArc
 50
0.0
 51
90.000002
  0
ARC
  5
2AF
100
AcDbEntity
  8
1
100
AcDbCircle
 10
-168.313869
 20
302.373715
 30
0.0
 40
10.0
100
AcDbArc
 50
0.0
 51
90.000002
  0
ARC
  5
2B0
100
AcDbEntity
  8
1
100
AcDbCircle
 10
-167.026506
 20
271.373715
 30
0.0
 40
10.0
100
AcDbArc
 50
269.999998
 51
360.0
  0
ARC
  5
2B1
100
AcDbEntity
  8
1
100
AcDbCircle
 10
-168.313869
 20
271.373715
 30
0.0
 40
10.0
100
AcDbArc
 50
269.999998
 51
360.0
  0
CIRCLE
  5
2B2
100
AcDbEntity
  8
1
100
AcDbCircle
 10
-313.026506
 20
-223.168989
 30
0.0
 40
125.0
  0
CIRCLE
  5
2B3
100
AcDbEntity
  8
1
100
AcDbCircle
 10
-313.026506
 20
-223.168989
 30
0.0
 40
103.5
  0
LINE
  5
2B4
100
AcDbEntity
  8
1
100
AcDbLine
 10
-292.505411
 20
-127.853016
 30
0.0
 11
-333.547601
 21
-127.853016
 31
0.0
  0
ARC
  5
2B5
100
AcDbEntity
  8
1
100
AcDbCircle
 10
-313.026506
 20
-176.655883
 30
0.0
 40
52.941809
100
AcDbArc
 50
67.193756
 51
112.806244
  0
LINE
  5
2B6
100
AcDbEntity
  8
1
100
AcDbLine
 10
-292.505411
 20
-318.484962
 30
0.0
 11
-333.547601
 21
-318.484962
 31
0.0
  0
ARC
  5
2B7
100
AcDbEntity
  8
1
100
AcDbCircle
 10
-313.026506
 20
-269.682095
 30
0.0
 40
52.941809
100
AcDbArc
 50
247.193756
 51
292.806244
  0
ARC
  5
2B8
100
AcDbEntity
  8
1
100
AcDbCircle
 10
-313.026506
 20
-223.168989
 30
0.0
 40
97.5
100
AcDbArc
 50
102.150059
 51
257.849941
  0
ARC
  5
2B9
100
AcDbEntity
  8
1
100
AcDbCircle
 10
-313.026506
 20
-223.168989
 30
0.0
 40
97.5
100
AcDbArc
 50
282.150059
 51
77.849941
  0
ARC
  5
2BA
100
AcDbEntity
  8
1
100
AcDbCircle
 10
-313.026506
 20
-223.168989
 30
0.0
 40
98.5
100
AcDbArc
 50
98.480919
 51
261.519081
  0
ARC
  5
2BB
100
AcDbEntity
  8
1
100
AcDbCircle
 10
-313.026506
 20
-223.168989
 30
0.0
 40
98.5
100
AcDbArc
 50
278.480919
 51
81.519081
  0
ARC
  5
2BC
100
AcDbEntity
  8
1
100
AcDbCircle
 10
-313.026506
 20
-149.534871
 30
0.0
 40
20.487801
100
AcDbArc
 50
180.0
 51
360.0
  0
ARC
  5
2BD
100
AcDbEntity
  8
1
100
AcDbCircle
 10
-313.026506
 20
-296.803107
 30
0.0
 40
20.487801
100
AcDbArc
 50
0.0
 51
180.0
  0
LINE
  5
2BE
100
AcDbEntity
  8
1
100
AcDbLine
 10
-292.538705
 20
-316.568989
 30
0.0
 11
-292.538705
 21
-296.803107
 31
0.0
  0
LINE
  5
2BF
100
AcDbEntity
  8
1
100
AcDbLine
 10
-292.538705
 20
-149.534871
 30
0.0
 11
-292.538705
 21
-129.768989
 31
0.0
  0
LINE
  5
2C0
100
AcDbEntity
  8
1
100
AcDbLine
 10
-333.514307
 20
-316.568989
 30
0.0
 11
-333.514307
 21
-296.803107
 31
0.0
  0
LINE
  5
2C1
100
AcDbEntity
  8
1
100
AcDbLine
 10
-333.514307
 20
-149.534871
 30
0.0
 11
-333.514307
 21
-129.768989
 31
0.0
  0
CIRCLE
  5
2C2
100
AcDbEntity
  8
1
100
AcDbCircle
 10
-313.026506
 20
-223.168989
 30
0.0
 40
25.0
  0
LINE
  5
2C3
100
AcDbEntity
  8
1
100
AcDbLine
 10
-292.538705
 20
-129.768989
 30
0.0
 11
-333.514307
 21
-129.768989
 31
0.0
  0
ARC
  5
2C4
100
AcDbEntity
  8
1
100
AcDbCircle
 10
-293.020426
 20
-129.768989
 30
0.0
 40
0.481721
100
AcDbArc
 50
0.0
 51
77.910056
  0
LINE
  5
2C5
100
AcDbEntity
  8
1
100
AcDbLine
 10
-292.919531
 20
-129.297952
 30
0.0
 11
-333.133481
 21
-129.297952
 31
0.0
  0
ARC
  5
2C6
100
AcDbEntity
  8
1
100
AcDbCircle
 10
-333.032586
 20
-129.768989
 30
0.0
 40
0.481721
100
AcDbArc
 50
102.089944
 51
180.0
  0
LINE
  5
2C7
100
AcDbEntity
  8
1
100
AcDbLine
 10
-292.538705
 20
-316.568989
 30
0.0
 11
-333.514307
 21
-316.568989
 31
0.0
  0
ARC
  5
2C8
100
AcDbEntity
  8
1
100
AcDbCircle
 10
-313.026506
 20
-223.168989
 30
0.0
 40
96.000323
100
AcDbArc
 50
102.089944
 51
257.910056
  0
ARC
  5
2C9
100
AcDbEntity
  8
1
100
AcDbCircle
 10
-313.026506
 20
-223.168989
 30
0.0
 40
96.000323
100
AcDbArc
 50
282.089944
 51
77.910056
  0
ARC
  5
2CA
100
AcDbEntity
  8
1
100
AcDbCircle
 10
-293.020426
 20
-316.568989
 30
0.0
 40
0.481721
100
AcDbArc
 50
282.089944
 51
360.0
  0
ARC
  5
2CB
100
AcDbEntity
  8
1
100
AcDbCircle
 10
-333.032586
 20
-316.568989
 30
0.0
 40
0.481721
100
AcDbArc
 50
180.0
 51
257.910056
  0
LINE
  5
2CC
100
AcDbEntity
  8
1
100
AcDbLine
 10
-333.133481
 20
-317.040026
 30
0.0
 11
-292.919531
 21
-317.040026
 31
0.0
  0
ARC
  5
2CD
100
AcDbEntity
  8
2
100
AcDbCircle
 10
-320.31216
 20
356.659477
 30
0.0
 40
2.285695
100
AcDbArc
 50
270.0
 51
360.0
  0
ARC
  5
2CE
100
AcDbEntity
  8
2
100
AcDbCircle
 10
-322.700711
 20
358.728031
 30
0.0
 40
2.285695
100
AcDbArc
 50
90.0
 51
180.0
  0
ARC
  5
2CF
100
AcDbEntity
  8
2
100
AcDbCircle
 10
-321.683577
 20
356.63662
 30
0.0
 40
1.142848
100
AcDbArc
 50
180.0
 51
270.0
  0
ARC
  5
2D0
100
AcDbEntity
  8
2
100
AcDbCircle
 10
-321.329294
 20
358.750888
 30
0.0
 40
1.142848
100
AcDbArc
 50
0.0
 51
90.0
  0
LINE
  5
2D1
100
AcDbEntity
  8
2
100
AcDbLine
 10
-314.90649
 20
359.893735
 30
0.0
 11
-315.146488
 21
354.373781
 31
0.0
  0
LINE
  5
2D2
100
AcDbEntity
  8
2
100
AcDbLine
 10
-311.146522
 20
359.893735
 30
0.0
 11
-310.906524
 21
354.373781
 31
0.0
  0
LINE
  5
2D3
100
AcDbEntity
  8
2
100
AcDbLine
 10
-314.90649
 20
359.893735
 30
0.0
 11
-313.877927
 21
354.373781
 31
0.0
  0
LINE
  5
2D4
100
AcDbEntity
  8
2
100
AcDbLine
 10
-313.026506
 20
357.036616
 30
0.0
 11
-312.28543
 21
361.013726
 31
0.0
  0
LINE
  5
2D5
100
AcDbEntity
  8
2
100
AcDbLine
 10
-316.826474
 20
361.013726
 30
0.0
 11
-313.767582
 21
361.013726
 31
0.0
  0
LINE
  5
2D6
100
AcDbEntity
  8
2
100
AcDbLine
 10
-313.877927
 20
354.373781
 30
0.0
 11
-312.175084
 21
354.373781
 31
0.0
  0
ARC
  5
2D7
100
AcDbEntity
  8
2
100
AcDbCircle
 10
-303.352301
 20
356.659477
 30
0.0
 40
2.285695
100
AcDbArc
 50
270.0
 51
360.0
  0
ARC
  5
2D8
100
AcDbEntity
  8
2
100
AcDbCircle
 10
-304.369435
 20
356.63662
 30
0.0
 40
1.142848
100
AcDbArc
 50
270.0
 51
360.0
  0
LINE
  5
2D9
100
AcDbEntity
  8
2
100
AcDbLine
 10
-305.866566
 20
358.750888
 30
0.0
 11
-305.866566
 21
356.63662
 31
0.0
  0
ARC
  5
2DA
100
AcDbEntity
  8
2
100
AcDbCircle
 10
-305.740852
 20
358.728031
 30
0.0
 40
2.285695
100
AcDbArc
 50
90.0
 51
180.0
  0
LINE
  5
2DB
100
AcDbEntity
  8
2
100
AcDbLine
 10
-308.026548
 20
358.728031
 30
0.0
 11
-308.026548
 21
356.659477
 31
0.0
  0
LINE
  5
2DC
100
AcDbEntity
  8
2
100
AcDbLine
 10
-310.906524
 20
354.373781
 30
0.0
 11
-308.746542
 21
354.373781
 31
0.0
  0
LINE
  5
2DD
100
AcDbEntity
  8
2
100
AcDbLine
 10
-300.106614
 20
354.53378
 30
0.0
 11
-294.906657
 21
354.53378
 31
0.0
  0
LINE
  5
2DE
100
AcDbEntity
  8
2
100
AcDbLine
 10
-297.946632
 20
357.093759
 30
0.0
 11
-294.906657
 21
357.093759
 31
0.0
  0
LINE
  5
2DF
100
AcDbEntity
  8
2
100
AcDbLine
 10
-297.946632
 20
358.293749
 30
0.0
 11
-294.906657
 21
358.293749
 31
0.0
  0
LINE
  5
2E0
100
AcDbEntity
  8
2
100
AcDbLine
 10
-297.946632
 20
355.73377
 30
0.0
 11
-297.946632
 21
357.093759
 31
0.0
  0
LINE
  5
2E1
100
AcDbEntity
  8
2
100
AcDbLine
 10
-297.946632
 20
358.293749
 30
0.0
 11
-297.946632
 21
359.653737
 31
0.0
  0
LINE
  5
2E2
100
AcDbEntity
  8
2
100
AcDbLine
 10
-328.586376
 20
359.653737
 30
0.0
 11
-326.426394
 21
359.653737
 31
0.0
  0
LINE
  5
2E3
100
AcDbEntity
  8
2
100
AcDbLine
 10
-331.386353
 20
358.293749
 30
0.0
 11
-322.986423
 21
362.373715
 31
0.0
  0
LINE
  5
2E4
100
AcDbEntity
  8
2
100
AcDbLine
 10
-331.386353
 20
358.293749
 30
0.0
 11
-331.386353
 21
362.373715
 31
0.0
  0
LINE
  5
2E5
100
AcDbEntity
  8
2
100
AcDbLine
 10
-326.426394
 20
359.653737
 30
0.0
 11
-326.426394
 21
354.373781
 31
0.0
  0
LINE
  5
2E6
100
AcDbEntity
  8
2
100
AcDbLine
 10
-324.986406
 20
358.728031
 30
0.0
 11
-324.986406
 21
356.659477
 31
0.0
  0
LINE
  5
2E7
100
AcDbEntity
  8
2
100
AcDbLine
 10
-318.026464
 20
358.728031
 30
0.0
 11
-318.026464
 21
356.659477
 31
0.0
  0
LINE
  5
2E8
100
AcDbEntity
  8
2
100
AcDbLine
 10
-322.826424
 20
358.750888
 30
0.0
 11
-322.826424
 21
356.63662
 31
0.0
  0
LINE
  5
2E9
100
AcDbEntity
  8
2
100
AcDbLine
 10
-320.186446
 20
358.750888
 30
0.0
 11
-320.186446
 21
356.63662
 31
0.0
  0
ARC
  5
2EA
100
AcDbEntity
  8
2
100
AcDbCircle
 10
-322.700711
 20
356.659477
 30
0.0
 40
2.285695
100
AcDbArc
 50
180.0
 51
270.0
  0
ARC
  5
2EB
100
AcDbEntity
  8
2
100
AcDbCircle
 10
-320.31216
 20
358.728031
 30
0.0
 40
2.285695
100
AcDbArc
 50
360.0
 51
90.0
  0
ARC
  5
2EC
100
AcDbEntity
  8
2
100
AcDbCircle
 10
-321.329294
 20
356.63662
 30
0.0
 40
1.142848
100
AcDbArc
 50
270.0
 51
360.0
  0
ARC
  5
2ED
100
AcDbEntity
  8
2
100
AcDbCircle
 10
-321.683577
 20
358.750888
 30
0.0
 40
1.142848
100
AcDbArc
 50
90.0
 51
180.0
  0
LINE
  5
2EE
100
AcDbEntity
  8
2
100
AcDbLine
 10
-328.586376
 20
354.373781
 30
0.0
 11
-326.426394
 21
354.373781
 31
0.0
  0
LINE
  5
2EF
100
AcDbEntity
  8
2
100
AcDbLine
 10
-316.826474
 20
361.013726
 30
0.0
 11
-317.30647
 21
354.373781
 31
0.0
  0
LINE
  5
2F0
100
AcDbEntity
  8
2
100
AcDbLine
 10
-309.226538
 20
361.013726
 30
0.0
 11
-308.746542
 21
354.373781
 31
0.0
  0
LINE
  5
2F1
100
AcDbEntity
  8
2
100
AcDbLine
 10
-311.146522
 20
359.893735
 30
0.0
 11
-312.175084
 21
354.373781
 31
0.0
  0
LINE
  5
2F2
100
AcDbEntity
  8
2
100
AcDbLine
 10
-313.026506
 20
357.036616
 30
0.0
 11
-313.767582
 21
361.013726
 31
0.0
  0
LINE
  5
2F3
100
AcDbEntity
  8
2
100
AcDbLine
 10
-322.700711
 20
361.013726
 30
0.0
 11
-320.31216
 21
361.013726
 31
0.0
  0
LINE
  5
2F4
100
AcDbEntity
  8
2
100
AcDbLine
 10
-322.700711
 20
354.373781
 30
0.0
 11
-320.31216
 21
354.373781
 31
0.0
  0
LINE
  5
2F5
100
AcDbEntity
  8
2
100
AcDbLine
 10
-317.30647
 20
354.373781
 30
0.0
 11
-315.146488
 21
354.373781
 31
0.0
  0
ARC
  5
2F6
100
AcDbEntity
  8
2
100
AcDbCircle
 10
-305.740852
 20
356.659477
 30
0.0
 40
2.285695
100
AcDbArc
 50
180.0
 51
270.0
  0
LINE
  5
2F7
100
AcDbEntity
  8
2
100
AcDbLine
 10
-303.226588
 20
358.750888
 30
0.0
 11
-303.226588
 21
356.63662
 31
0.0
  0
ARC
  5
2F8
100
AcDbEntity
  8
2
100
AcDbCircle
 10
-304.723718
 20
356.63662
 30
0.0
 40
1.142848
100
AcDbArc
 50
180.0
 51
270.0
  0
ARC
  5
2F9
100
AcDbEntity
  8
2
100
AcDbCircle
 10
-304.369435
 20
358.750888
 30
0.0
 40
1.142848
100
AcDbArc
 50
0.0
 51
90.0
  0
ARC
  5
2FA
100
AcDbEntity
  8
2
100
AcDbCircle
 10
-304.723718
 20
358.750888
 30
0.0
 40
1.142848
100
AcDbArc
 50
90.0
 51
180.0
  0
ARC
  5
2FB
100
AcDbEntity
  8
2
100
AcDbCircle
 10
-303.352301
 20
358.728031
 30
0.0
 40
2.285695
100
AcDbArc
 50
360.0
 51
90.0
  0
LINE
  5
2FC
100
AcDbEntity
  8
2
100
AcDbLine
 10
-301.066606
 20
358.728031
 30
0.0
 11
-301.066606
 21
356.659477
 31
0.0
  0
LINE
  5
2FD
100
AcDbEntity
  8
2
100
AcDbLine
 10
-321.329294
 20
359.893735
 30
0.0
 11
-321.683577
 21
359.893735
 31
0.0
  0
LINE
  5
2FE
100
AcDbEntity
  8
2
100
AcDbLine
 10
-321.329294
 20
355.493772
 30
0.0
 11
-321.683577
 21
355.493772
 31
0.0
  0
LINE
  5
2FF
100
AcDbEntity
  8
2
100
AcDbLine
 10
-304.723718
 20
359.893735
 30
0.0
 11
-304.369435
 21
359.893735
 31
0.0
  0
LINE
  5
300
100
AcDbEntity
  8
2
100
AcDbLine
 10
-312.28543
 20
361.013726
 30
0.0
 11
-309.226538
 21
361.013726
 31
0.0
  0
LINE
  5
301
100
AcDbEntity
  8
2
100
AcDbLine
 10
-305.740852
 20
361.013726
 30
0.0
 11
-303.352301
 21
361.013726
 31
0.0
  0
LINE
  5
302
100
AcDbEntity
  8
2
100
AcDbLine
 10
-305.740852
 20
354.373781
 30
0.0
 11
-303.352301
 21
354.373781
 31
0.0
  0
LINE
  5
303
100
AcDbEntity
  8
2
100
AcDbLine
 10
-300.106614
 20
360.853727
 30
0.0
 11
-300.106614
 21
354.53378
 31
0.0
  0
LINE
  5
304
100
AcDbEntity
  8
2
100
AcDbLine
 10
-300.106614
 20
360.853727
 30
0.0
 11
-294.906657
 21
360.853727
 31
0.0
  0
LINE
  5
305
100
AcDbEntity
  8
2
100
AcDbLine
 10
-297.946632
 20
355.73377
 30
0.0
 11
-294.906657
 21
355.73377
 31
0.0
  0
LINE
  5
306
100
AcDbEntity
  8
2
100
AcDbLine
 10
-297.946632
 20
359.653737
 30
0.0
 11
-294.906657
 21
359.653737
 31
0.0
  0
LINE
  5
307
100
AcDbEntity
  8
2
100
AcDbLine
 10
-294.906657
 20
359.653737
 30
0.0
 11
-294.906657
 21
360.853727
 31
0.0
  0
LINE
  5
308
100
AcDbEntity
  8
2
100
AcDbLine
 10
-294.906657
 20
354.53378
 30
0.0
 11
-294.906657
 21
355.73377
 31
0.0
  0
LINE
  5
309
100
AcDbEntity
  8
2
100
AcDbLine
 10
-294.906657
 20
357.093759
 30
0.0
 11
-294.906657
 21
358.293749
 31
0.0
  0
LINE
  5
30A
100
AcDbEntity
  8
2
100
AcDbLine
 10
-328.586376
 20
359.653737
 30
0.0
 11
-328.586376
 21
354.373781
 31
0.0
  0
LINE
  5
30B
100
AcDbEntity
  8
2
100
AcDbLine
 10
-331.386353
 20
362.373715
 30
0.0
 11
-322.986423
 21
362.373715
 31
0.0
  0
LINE
  5
30C
100
AcDbEntity
  8
2
100
AcDbLine
 10
-304.723718
 20
355.493772
 30
0.0
 11
-304.369435
 21
355.493772
 31
0.0
  0
LINE
  5
30D
100
AcDbEntity
  8
2
100
AcDbLine
 10
-351.944487
 20
381.373715
 30
0.0
 11
-274.108525
 21
381.373715
 31
0.0
  0
LINE
  5
30E
100
AcDbEntity
  8
2
100
AcDbLine
 10
-355.026506
 20
229.373715
 30
0.0
 11
-271.026506
 21
229.373715
 31
0.0
  0
LINE
  5
30F
100
AcDbEntity
  8
2
100
AcDbLine
 10
-250.983618
 20
297.81355
 30
0.0
 11
-264.260448
 21
373.110196
 31
0.0
  0
LINE
  5
310
100
AcDbEntity
  8
2
100
AcDbLine
 10
-375.069394
 20
297.81355
 30
0.0
 11
-361.792564
 21
373.110196
 31
0.0
  0
ARC
  5
311
100
AcDbEntity
  8
2
100
AcDbCircle
 10
-313.026506
 20
286.873715
 30
0.0
 40
63.0
100
AcDbArc
 50
170.0
 51
220.541602
  0
ARC
  5
312
100
AcDbEntity
  8
2
100
AcDbCircle
 10
-313.026506
 20
286.873715
 30
0.0
 40
63.0
100
AcDbArc
 50
319.458398
 51
10.0
  0
ARC
  5
313
100
AcDbEntity
  8
2
100
AcDbCircle
 10
-351.944487
 20
371.373715
 30
0.0
 40
10.0
100
AcDbArc
 50
90.0
 51
170.0
  0
ARC
  5
314
100
AcDbEntity
  8
2
100
AcDbCircle
 10
-274.108525
 20
371.373715
 30
0.0
 40
10.0
100
AcDbArc
 50
10.0
 51
90.0
  0
LINE
  5
315
100
AcDbEntity
  8
2
100
AcDbLine
 10
-361.026506
 20
246.069303
 30
0.0
 11
-361.026506
 21
235.373715
 31
0.0
  0
LINE
  5
316
100
AcDbEntity
  8
2
100
AcDbLine
 10
-265.026506
 20
246.069303
 30
0.0
 11
-265.026506
 21
235.373715
 31
0.0
  0
ARC
  5
317
100
AcDbEntity
  8
2
100
AcDbCircle
 10
-271.026506
 20
235.373715
 30
0.0
 40
6.0
100
AcDbArc
 50
270.0
 51
360.0
  0
ARC
  5
318
100
AcDbEntity
  8
2
100
AcDbCircle
 10
-355.026506
 20
235.373715
 30
0.0
 40
6.0
100
AcDbArc
 50
180.0
 51
270.0
  0
LINE
  5
319
100
AcDbEntity
  8
2
100
AcDbLine
 10
-353.026506
 20
244.873715
 30
0.0
 11
-358.622558
 21
244.873715
 31
0.0
  0
LINE
  5
31A
100
AcDbEntity
  8
2
100
AcDbLine
 10
-280.526506
 20
237.373715
 30
0.0
 11
-280.526506
 21
232.373715
 31
0.0
  0
LINE
  5
31B
100
AcDbEntity
  8
2
100
AcDbLine
 10
-345.526506
 20
237.373715
 30
0.0
 11
-345.526506
 21
232.373715
 31
0.0
  0
ARC
  5
31C
100
AcDbEntity
  8
2
100
AcDbCircle
 10
-273.026506
 20
237.373715
 30
0.0
 40
7.5
100
AcDbArc
 50
90.0
 51
180.0
  0
ARC
  5
31D
100
AcDbEntity
  8
2
100
AcDbCircle
 10
-353.026506
 20
237.373715
 30
0.0
 40
7.5
100
AcDbArc
 50
0.0
 51
90.0
  0
LINE
  5
31E
100
AcDbEntity
  8
2
100
AcDbLine
 10
-280.026506
 20
372.373715
 30
0.0
 11
-280.026506
 21
378.373715
 31
0.0
  0
LINE
  5
31F
100
AcDbEntity
  8
2
100
AcDbLine
 10
-346.026506
 20
372.373715
 30
0.0
 11
-346.026506
 21
378.373715
 31
0.0
  0
LINE
  5
320
100
AcDbEntity
  8
2
100
AcDbLine
 10
-272.526506
 20
364.873715
 30
0.0
 11
-265.325433
 21
364.873715
 31
0.0
  0
LINE
  5
321
100
AcDbEntity
  8
2
100
AcDbLine
 10
-265.026506
 20
338.873715
 30
0.0
 11
-261.798893
 21
338.873715
 31
0.0
  0
LINE
  5
322
100
AcDbEntity
  8
2
100
AcDbLine
 10
-265.026506
 20
323.873715
 30
0.0
 11
-258.096027
 21
323.873715
 31
0.0
  0
LINE
  5
323
100
AcDbEntity
  8
2
100
AcDbLine
 10
-361.026506
 20
323.873715
 30
0.0
 11
-367.956985
 21
323.873715
 31
0.0
  0
LINE
  5
324
100
AcDbEntity
  8
2
100
AcDbLine
 10
-361.026506
 20
338.873715
 30
0.0
 11
-364.254119
 21
338.873715
 31
0.0
  0
LINE
  5
325
100
AcDbEntity
  8
2
100
AcDbLine
 10
-353.526506
 20
364.873715
 30
0.0
 11
-360.727579
 21
364.873715
 31
0.0
  0
ARC
  5
326
100
AcDbEntity
  8
2
100
AcDbCircle
 10
-272.526506
 20
372.373715
 30
0.0
 40
7.5
100
AcDbArc
 50
180.0
 51
270.0
  0
ARC
  5
327
100
AcDbEntity
  8
2
100
AcDbCircle
 10
-353.526506
 20
372.373715
 30
0.0
 40
7.5
100
AcDbArc
 50
270.0
 51
360.0
  0
ARC
  5
328
100
AcDbEntity
  8
2
100
AcDbCircle
 10
-361.026506
 20
331.373715
 30
0.0
 40
7.5
100
AcDbArc
 50
270.0
 51
90.0
  0
ARC
  5
329
100
AcDbEntity
  8
2
100
AcDbCircle
 10
-265.026506
 20
331.373715
 30
0.0
 40
7.5
100
AcDbArc
 50
90.0
 51
270.0
  0
LINE
  5
32A
100
AcDbEntity
  8
2
100
AcDbLine
 10
-273.026506
 20
244.873715
 30
0.0
 11
-267.430453
 21
244.873715
 31
0.0
  0
ARC
  5
32B
100
AcDbEntity
  8
2
100
AcDbCircle
 10
-265.325433
 20
361.873715
 30
0.0
 40
3.0
100
AcDbArc
 50
10.0
 51
90.0
  0
ARC
  5
32C
100
AcDbEntity
  8
2
100
AcDbCircle
 10
-283.026506
 20
378.373715
 30
0.0
 40
3.0
100
AcDbArc
 50
0.0
 51
90.0
  0
ARC
  5
32D
100
AcDbEntity
  8
2
100
AcDbCircle
 10
-343.026506
 20
378.373715
 30
0.0
 40
3.0
100
AcDbArc
 50
90.0
 51
180.0
  0
ARC
  5
32E
100
AcDbEntity
  8
2
100
AcDbCircle
 10
-360.727579
 20
361.873715
 30
0.0
 40
3.0
100
AcDbArc
 50
90.0
 51
170.0
  0
ARC
  5
32F
100
AcDbEntity
  8
2
100
AcDbCircle
 10
-364.254119
 20
341.873715
 30
0.0
 40
3.0
100
AcDbArc
 50
170.0
 51
270.0
  0
ARC
  5
330
100
AcDbEntity
  8
2
100
AcDbCircle
 10
-367.956985
 20
320.873715
 30
0.0
 40
3.0
100
AcDbArc
 50
90.0
 51
170.0
  0
ARC
  5
331
100
AcDbEntity
  8
2
100
AcDbCircle
 10
-258.096027
 20
320.873715
 30
0.0
 40
3.0
100
AcDbArc
 50
10.0
 51
90.0
  0
ARC
  5
332
100
AcDbEntity
  8
2
100
AcDbCircle
 10
-261.798893
 20
341.873715
 30
0.0
 40
3.0
100
AcDbArc
 50
270.0
 51
10.0
  0
ARC
  5
333
100
AcDbEntity
  8
2
100
AcDbCircle
 10
-283.526506
 20
232.373715
 30
0.0
 40
3.0
100
AcDbArc
 50
270.0
 51
0.0
  0
ARC
  5
334
100
AcDbEntity
  8
2
100
AcDbCircle
 10
-342.526506
 20
232.373715
 30
0.0
 40
3.0
100
AcDbArc
 50
180.0
 51
270.0
  0
ARC
  5
335
100
AcDbEntity
  8
2
100
AcDbCircle
 10
-267.430453
 20
247.873715
 30
0.0
 40
3.0
100
AcDbArc
 50
270.0
 51
319.458398
  0
ARC
  5
336
100
AcDbEntity
  8
2
100
AcDbCircle
 10
-358.622558
 20
247.873715
 30
0.0
 40
3.0
100
AcDbArc
 50
220.541602
 51
270.0
  0
LINE
  5
337
100
AcDbEntity
  8
2
100
AcDbLine
 10
-317.526506
 20
332.304981
 30
0.0
 11
-317.526506
 21
323.806085
 31
0.0
  0
LINE
  5
338
100
AcDbEntity
  8
2
100
AcDbLine
 10
-308.526506
 20
332.304981
 30
0.0
 11
-308.526506
 21
323.806085
 31
0.0
  0
LINE
  5
339
100
AcDbEntity
  8
2
100
AcDbLine
 10
-358.457773
 20
291.373715
 30
0.0
 11
-349.958877
 21
291.373715
 31
0.0
  0
LINE
  5
33A
100
AcDbEntity
  8
2
100
AcDbLine
 10
-276.094135
 20
291.373715
 30
0.0
 11
-267.595239
 21
291.373715
 31
0.0
  0
LINE
  5
33B
100
AcDbEntity
  8
2
100
AcDbLine
 10
-358.457773
 20
282.373715
 30
0.0
 11
-349.958877
 21
282.373715
 31
0.0
  0
LINE
  5
33C
100
AcDbEntity
  8
2
100
AcDbLine
 10
-276.094135
 20
282.373715
 30
0.0
 11
-267.595239
 21
282.373715
 31
0.0
  0
ARC
  5
33D
100
AcDbEntity
  8
2
100
AcDbCircle
 10
-313.026506
 20
286.873715
 30
0.0
 40
47.5
100
AcDbArc
 50
176.850294
 51
183.149706
  0
ARC
  5
33E
100
AcDbEntity
  8
2
100
AcDbCircle
 10
-313.026506
 20
286.873715
 30
0.0
 40
47.5
100
AcDbArc
 50
86.850294
 51
93.149706
  0
ARC
  5
33F
100
AcDbEntity
  8
2
100
AcDbCircle
 10
-313.026506
 20
286.873715
 30
0.0
 40
47.5
100
AcDbArc
 50
356.850294
 51
3.149706
  0
ARC
  5
340
100
AcDbEntity
  8
2
100
AcDbCircle
 10
-313.026506
 20
286.873715
 30
0.0
 40
47.5
100
AcDbArc
 50
20.651428
 51
24.348572
  0
LINE
  5
341
100
AcDbEntity
  8
2
100
AcDbLine
 10
-279.588084
 20
303.430343
 30
0.0
 11
-271.045174
 21
306.968932
 31
0.0
  0
LINE
  5
342
100
AcDbEntity
  8
2
100
AcDbLine
 10
-277.674667
 20
298.810945
 30
0.0
 11
-269.131757
 21
302.349535
 31
0.0
  0
ARC
  5
343
100
AcDbEntity
  8
2
100
AcDbCircle
 10
-270.662491
 20
306.045053
 30
0.0
 40
1.0
100
AcDbArc
 50
24.348572
 51
112.5
  0
ARC
  5
344
100
AcDbEntity
  8
2
100
AcDbCircle
 10
-269.51444
 20
303.273414
 30
0.0
 40
1.0
100
AcDbArc
 50
292.5
 51
20.651428
  0
ARC
  5
345
100
AcDbEntity
  8
2
100
AcDbCircle
 10
-280.353451
 20
305.278102
 30
0.0
 40
2.0
100
AcDbArc
 50
209.392103
 51
292.5
  0
ARC
  5
346
100
AcDbEntity
  8
2
100
AcDbCircle
 10
-276.9093
 20
296.963186
 30
0.0
 40
2.0
100
AcDbArc
 50
112.5
 51
195.607897
  0
ARC
  5
347
100
AcDbEntity
  8
2
100
AcDbCircle
 10
-276.094135
 20
293.373715
 30
0.0
 40
2.0
100
AcDbArc
 50
189.981683
 51
270.0
  0
ARC
  5
348
100
AcDbEntity
  8
2
100
AcDbCircle
 10
-276.094135
 20
280.373715
 30
0.0
 40
2.0
100
AcDbArc
 50
90.0
 51
170.018317
  0
ARC
  5
349
100
AcDbEntity
  8
2
100
AcDbCircle
 10
-267.595239
 20
289.373715
 30
0.0
 40
2.0
100
AcDbArc
 50
3.149706
 51
90.0
  0
ARC
  5
34A
100
AcDbEntity
  8
2
100
AcDbCircle
 10
-267.595239
 20
284.373715
 30
0.0
 40
2.0
100
AcDbArc
 50
270.0
 51
356.850294
  0
ARC
  5
34B
100
AcDbEntity
  8
2
100
AcDbCircle
 10
-310.526506
 20
332.304981
 30
0.0
 40
2.0
100
AcDbArc
 50
0.0
 51
86.850294
  0
ARC
  5
34C
100
AcDbEntity
  8
2
100
AcDbCircle
 10
-315.526506
 20
332.304981
 30
0.0
 40
2.0
100
AcDbArc
 50
93.149706
 51
180.0
  0
ARC
  5
34D
100
AcDbEntity
  8
2
100
AcDbCircle
 10
-358.457773
 20
289.373715
 30
0.0
 40
2.0
100
AcDbArc
 50
90.0
 51
176.850294
  0
ARC
  5
34E
100
AcDbEntity
  8
2
100
AcDbCircle
 10
-358.457773
 20
284.373715
 30
0.0
 40
2.0
100
AcDbArc
 50
183.149706
 51
270.0
  0
ARC
  5
34F
100
AcDbEntity
  8
2
100
AcDbCircle
 10
-349.958877
 20
280.373715
 30
0.0
 40
2.0
100
AcDbArc
 50
9.981683
 51
90.0
  0
ARC
  5
350
100
AcDbEntity
  8
2
100
AcDbCircle
 10
-349.958877
 20
293.373715
 30
0.0
 40
2.0
100
AcDbArc
 50
270.0
 51
350.018317
  0
ARC
  5
351
100
AcDbEntity
  8
2
100
AcDbCircle
 10
-313.026506
 20
286.873715
 30
0.0
 40
47.5
100
AcDbArc
 50
43.151428
 51
46.848572
  0
LINE
  5
352
100
AcDbEntity
  8
2
100
AcDbLine
 10
-288.46938
 20
314.966375
 30
0.0
 11
-281.930919
 21
321.504835
 31
0.0
  0
LINE
  5
353
100
AcDbEntity
  8
2
100
AcDbLine
 10
-284.933846
 20
311.430841
 30
0.0
 11
-278.395386
 21
317.969301
 31
0.0
  0
ARC
  5
354
100
AcDbEntity
  8
2
100
AcDbCircle
 10
-281.223813
 20
320.797728
 30
0.0
 40
1.0
100
AcDbArc
 50
46.848572
 51
135.0
  0
ARC
  5
355
100
AcDbEntity
  8
2
100
AcDbCircle
 10
-279.102492
 20
318.676408
 30
0.0
 40
1.0
100
AcDbArc
 50
315.0
 51
43.151428
  0
ARC
  5
356
100
AcDbEntity
  8
2
100
AcDbCircle
 10
-289.883593
 20
316.380588
 30
0.0
 40
2.0
100
AcDbArc
 50
231.892103
 51
315.0
  0
ARC
  5
357
100
AcDbEntity
  8
2
100
AcDbCircle
 10
-283.519632
 20
310.016627
 30
0.0
 40
2.0
100
AcDbArc
 50
135.0
 51
218.107897
  0
ARC
  5
358
100
AcDbEntity
  8
2
100
AcDbCircle
 10
-313.026506
 20
286.873715
 30
0.0
 40
47.5
100
AcDbArc
 50
65.651428
 51
69.348572
  0
LINE
  5
359
100
AcDbEntity
  8
2
100
AcDbLine
 10
-301.089275
 20
322.225554
 30
0.0
 11
-297.550686
 21
330.768464
 31
0.0
  0
LINE
  5
35A
100
AcDbEntity
  8
2
100
AcDbLine
 10
-296.469878
 20
320.312137
 30
0.0
 11
-292.931288
 21
328.855047
 31
0.0
  0
ARC
  5
35B
100
AcDbEntity
  8
2
100
AcDbCircle
 10
-296.626807
 20
330.38578
 30
0.0
 40
1.0
100
AcDbArc
 50
69.348572
 51
157.5
  0
ARC
  5
35C
100
AcDbEntity
  8
2
100
AcDbCircle
 10
-293.855168
 20
329.23773
 30
0.0
 40
1.0
100
AcDbArc
 50
337.5
 51
65.651428
  0
ARC
  5
35D
100
AcDbEntity
  8
2
100
AcDbCircle
 10
-302.937034
 20
322.990921
 30
0.0
 40
2.0
100
AcDbArc
 50
254.392103
 51
337.5
  0
ARC
  5
35E
100
AcDbEntity
  8
2
100
AcDbCircle
 10
-294.622119
 20
319.54677
 30
0.0
 40
2.0
100
AcDbArc
 50
157.5
 51
240.607897
  0
ARC
  5
35F
100
AcDbEntity
  8
2
100
AcDbCircle
 10
-313.026506
 20
286.873715
 30
0.0
 40
47.5
100
AcDbArc
 50
155.651428
 51
159.348572
  0
LINE
  5
360
100
AcDbEntity
  8
2
100
AcDbLine
 10
-346.464928
 20
303.430343
 30
0.0
 11
-355.007838
 21
306.968932
 31
0.0
  0
LINE
  5
361
100
AcDbEntity
  8
2
100
AcDbLine
 10
-348.378345
 20
298.810945
 30
0.0
 11
-356.921255
 21
302.349535
 31
0.0
  0
ARC
  5
362
100
AcDbEntity
  8
2
100
AcDbCircle
 10
-355.390521
 20
306.045053
 30
0.0
 40
1.0
100
AcDbArc
 50
67.5
 51
155.651428
  0
ARC
  5
363
100
AcDbEntity
  8
2
100
AcDbCircle
 10
-356.538572
 20
303.273414
 30
0.0
 40
1.0
100
AcDbArc
 50
159.348572
 51
247.5
  0
ARC
  5
364
100
AcDbEntity
  8
2
100
AcDbCircle
 10
-345.699561
 20
305.278102
 30
0.0
 40
2.0
100
AcDbArc
 50
247.5
 51
330.607897
  0
ARC
  5
365
100
AcDbEntity
  8
2
100
AcDbCircle
 10
-349.143712
 20
296.963186
 30
0.0
 40
2.0
100
AcDbArc
 50
344.392103
 51
67.5
  0
ARC
  5
366
100
AcDbEntity
  8
2
100
AcDbCircle
 10
-313.026506
 20
286.873715
 30
0.0
 40
47.5
100
AcDbArc
 50
133.151428
 51
136.848572
  0
LINE
  5
367
100
AcDbEntity
  8
2
100
AcDbLine
 10
-337.583632
 20
314.966375
 30
0.0
 11
-344.122092
 21
321.504835
 31
0.0
  0
LINE
  5
368
100
AcDbEntity
  8
2
100
AcDbLine
 10
-341.119166
 20
311.430841
 30
0.0
 11
-347.657626
 21
317.969301
 31
0.0
  0
ARC
  5
369
100
AcDbEntity
  8
2
100
AcDbCircle
 10
-344.829199
 20
320.797728
 30
0.0
 40
1.0
100
AcDbArc
 50
45.0
 51
133.151428
  0
ARC
  5
36A
100
AcDbEntity
  8
2
100
AcDbCircle
 10
-346.95052
 20
318.676408
 30
0.0
 40
1.0
100
AcDbArc
 50
136.848572
 51
225.0
  0
ARC
  5
36B
100
AcDbEntity
  8
2
100
AcDbCircle
 10
-336.169419
 20
316.380588
 30
0.0
 40
2.0
100
AcDbArc
 50
225.0
 51
308.107897
  0
ARC
  5
36C
100
AcDbEntity
  8
2
100
AcDbCircle
 10
-342.53338
 20
310.016627
 30
0.0
 40
2.0
100
AcDbArc
 50
321.892103
 51
45.0
  0
ARC
  5
36D
100
AcDbEntity
  8
2
100
AcDbCircle
 10
-313.026506
 20
286.873715
 30
0.0
 40
47.5
100
AcDbArc
 50
110.651428
 51
114.348572
  0
LINE
  5
36E
100
AcDbEntity
  8
2
100
AcDbLine
 10
-324.963737
 20
322.225554
 30
0.0
 11
-328.502326
 21
330.768464
 31
0.0
  0
LINE
  5
36F
100
AcDbEntity
  8
2
100
AcDbLine
 10
-329.583134
 20
320.312137
 30
0.0
 11
-333.121724
 21
328.855047
 31
0.0
  0
ARC
  5
370
100
AcDbEntity
  8
2
100
AcDbCircle
 10
-329.426205
 20
330.38578
 30
0.0
 40
1.0
100
AcDbArc
 50
22.5
 51
110.651428
  0
ARC
  5
371
100
AcDbEntity
  8
2
100
AcDbCircle
 10
-332.197844
 20
329.23773
 30
0.0
 40
1.0
100
AcDbArc
 50
114.348572
 51
202.5
  0
ARC
  5
372
100
AcDbEntity
  8
2
100
AcDbCircle
 10
-323.115978
 20
322.990921
 30
0.0
 40
2.0
100
AcDbArc
 50
202.5
 51
285.607897
  0
ARC
  5
373
100
AcDbEntity
  8
2
100
AcDbCircle
 10
-331.430893
 20
319.54677
 30
0.0
 40
2.0
100
AcDbArc
 50
299.392103
 51
22.5
  0
ARC
  5
374
100
AcDbEntity
  8
2
100
AcDbCircle
 10
-306.526506
 20
323.806085
 30
0.0
 40
2.0
100
AcDbArc
 50
180.0
 51
260.018317
  0
ARC
  5
375
100
AcDbEntity
  8
2
100
AcDbCircle
 10
-319.526506
 20
323.806085
 30
0.0
 40
2.0
100
AcDbArc
 50
279.981683
 51
360.0
  0
TEXT
  5
376
100
AcDbEntity
  8
2
100
AcDbText
 10
-316.026506
 20
335.873715
 30
0.0
 40
6.0
  1
Ｏ
 72
     5
 11
-311.226506
 21
335.873715
 31
0.0
100
AcDbText
  0
TEXT
  5
377
100
AcDbEntity
  8
2
100
AcDbText
 10
-264.026506
 20
289.873715
 30
0.0
 40
6.0
  1
Ｓ
 50
270.0
 72
     5
 11
-264.026506
 21
285.073715
 31
0.0
100
AcDbText
  0
TEXT
  5
378
100
AcDbEntity
  8
2
100
AcDbText
 10
-362.026506
 20
283.873715
 30
0.0
 40
6.0
  1
Ｓ
 50
90.0
 72
     5
 11
-362.026506
 21
288.673715
 31
0.0
100
AcDbText
  0
ARC
  5
379
100
AcDbEntity
  8
2
100
AcDbCircle
 10
-313.026506
 20
286.873715
 30
0.0
 40
38.5
100
AcDbArc
 50
9.235561
 51
16.12063
  0
ARC
  5
37A
100
AcDbEntity
  8
2
100
AcDbCircle
 10
-313.026506
 20
286.873715
 30
0.0
 40
38.5
100
AcDbArc
 50
28.87937
 51
38.62063
  0
ARC
  5
37B
100
AcDbEntity
  8
2
100
AcDbCircle
 10
-313.026506
 20
286.873715
 30
0.0
 40
38.5
100
AcDbArc
 50
51.37937
 51
61.12063
  0
ARC
  5
37C
100
AcDbEntity
  8
2
100
AcDbCircle
 10
-313.026506
 20
286.873715
 30
0.0
 40
38.5
100
AcDbArc
 50
73.87937
 51
80.764439
  0
ARC
  5
37D
100
AcDbEntity
  8
2
100
AcDbCircle
 10
-313.026506
 20
286.873715
 30
0.0
 40
38.5
100
AcDbArc
 50
99.235561
 51
106.12063
  0
ARC
  5
37E
100
AcDbEntity
  8
2
100
AcDbCircle
 10
-313.026506
 20
286.873715
 30
0.0
 40
38.5
100
AcDbArc
 50
118.87937
 51
128.62063
  0
ARC
  5
37F
100
AcDbEntity
  8
2
100
AcDbCircle
 10
-313.026506
 20
286.873715
 30
0.0
 40
38.5
100
AcDbArc
 50
141.37937
 51
151.12063
  0
ARC
  5
380
100
AcDbEntity
  8
2
100
AcDbCircle
 10
-313.026506
 20
286.873715
 30
0.0
 40
38.5
100
AcDbArc
 50
163.87937
 51
170.764439
  0
ARC
  5
381
100
AcDbEntity
  8
2
100
AcDbCircle
 10
-313.026506
 20
286.873715
 30
0.0
 40
38.5
100
AcDbArc
 50
189.235561
 51
350.764439
  0
ARC
  5
382
100
AcDbEntity
  8
2
100
AcDbCircle
 10
-273.051514
 20
280.373715
 30
0.0
 40
2.0
100
AcDbArc
 50
90.0
 51
170.764439
  0
ARC
  5
383
100
AcDbEntity
  8
2
100
AcDbCircle
 10
-273.051514
 20
293.373715
 30
0.0
 40
2.0
100
AcDbArc
 50
189.235561
 51
270.0
  0
ARC
  5
384
100
AcDbEntity
  8
2
100
AcDbCircle
 10
-353.001498
 20
293.373715
 30
0.0
 40
2.0
100
AcDbArc
 50
270.0
 51
350.764439
  0
ARC
  5
385
100
AcDbEntity
  8
2
100
AcDbCircle
 10
-353.001498
 20
280.373715
 30
0.0
 40
2.0
100
AcDbArc
 50
9.235561
 51
90.0
  0
ARC
  5
386
100
AcDbEntity
  8
2
100
AcDbCircle
 10
-319.526506
 20
326.848707
 30
0.0
 40
2.0
100
AcDbArc
 50
279.235561
 51
360.0
  0
ARC
  5
387
100
AcDbEntity
  8
2
100
AcDbCircle
 10
-306.526506
 20
326.848707
 30
0.0
 40
2.0
100
AcDbArc
 50
180.0
 51
260.764439
  0
ARC
  5
388
100
AcDbEntity
  8
2
100
AcDbCircle
 10
-301.781253
 20
325.781224
 30
0.0
 40
2.0
100
AcDbArc
 50
253.87937
 51
337.5
  0
ARC
  5
389
100
AcDbEntity
  8
2
100
AcDbCircle
 10
-293.466337
 20
322.337073
 30
0.0
 40
2.0
100
AcDbArc
 50
157.5
 51
241.12063
  0
ARC
  5
38A
100
AcDbEntity
  8
2
100
AcDbCircle
 10
-287.747988
 20
318.516194
 30
0.0
 40
2.0
100
AcDbArc
 50
231.37937
 51
315.0
  0
ARC
  5
38B
100
AcDbEntity
  8
2
100
AcDbCircle
 10
-281.384026
 20
312.152233
 30
0.0
 40
2.0
100
AcDbArc
 50
135.0
 51
218.62063
  0
ARC
  5
38C
100
AcDbEntity
  8
2
100
AcDbCircle
 10
-277.563148
 20
306.433884
 30
0.0
 40
2.0
100
AcDbArc
 50
208.87937
 51
292.5
  0
ARC
  5
38D
100
AcDbEntity
  8
2
100
AcDbCircle
 10
-274.118997
 20
298.118968
 30
0.0
 40
2.0
100
AcDbArc
 50
112.5
 51
196.12063
  0
ARC
  5
38E
100
AcDbEntity
  8
2
100
AcDbCircle
 10
-332.586675
 20
322.337073
 30
0.0
 40
2.0
100
AcDbArc
 50
298.87937
 51
22.5
  0
ARC
  5
38F
100
AcDbEntity
  8
2
100
AcDbCircle
 10
-324.271759
 20
325.781224
 30
0.0
 40
2.0
100
AcDbArc
 50
202.5
 51
286.12063
  0
ARC
  5
390
100
AcDbEntity
  8
2
100
AcDbCircle
 10
-338.305024
 20
318.516194
 30
0.0
 40
2.0
100
AcDbArc
 50
225.0
 51
308.62063
  0
ARC
  5
391
100
AcDbEntity
  8
2
100
AcDbCircle
 10
-344.668985
 20
312.152233
 30
0.0
 40
2.0
100
AcDbArc
 50
321.37937
 51
45.0
  0
ARC
  5
392
100
AcDbEntity
  8
2
100
AcDbCircle
 10
-348.489864
 20
306.433884
 30
0.0
 40
2.0
100
AcDbArc
 50
247.5
 51
331.12063
  0
ARC
  5
393
100
AcDbEntity
  8
2
100
AcDbCircle
 10
-351.934015
 20
298.118968
 30
0.0
 40
2.0
100
AcDbArc
 50
343.87937
 51
67.5
  0
LINE
  5
394
100
AcDbEntity
  8
2
100
AcDbLine
 10
-376.026506
 20
58.631011
 30
0.0
 11
-250.026506
 21
58.631011
 31
0.0
  0
LINE
  5
395
100
AcDbEntity
  8
2
100
AcDbLine
 10
-376.026506
 20
64.631011
 30
0.0
 11
-250.026506
 21
64.631011
 31
0.0
  0
LINE
  5
396
100
AcDbEntity
  8
2
100
AcDbLine
 10
-360.526506
 20
71.631011
 30
0.0
 11
-265.526506
 21
71.631011
 31
0.0
  0
LINE
  5
397
100
AcDbEntity
  8
2
100
AcDbLine
 10
-250.026506
 20
64.631011
 30
0.0
 11
-250.026506
 21
57.831011
 31
0.0
  0
LINE
  5
398
100
AcDbEntity
  8
2
100
AcDbLine
 10
-376.026506
 20
64.631011
 30
0.0
 11
-376.026506
 21
28.331011
 31
0.0
  0
LINE
  5
399
100
AcDbEntity
  8
2
100
AcDbLine
 10
-250.026506
 20
64.631011
 30
0.0
 11
-256.954709
 21
68.631011
 31
0.0
  0
LINE
  5
39A
100
AcDbEntity
  8
2
100
AcDbLine
 10
-376.026506
 20
64.631011
 30
0.0
 11
-369.098303
 21
68.631011
 31
0.0
  0
ARC
  5
39B
100
AcDbEntity
  8
2
100
AcDbCircle
 10
-313.026506
 20
286.873715
 30
0.0
 40
56.071797
100
AcDbArc
 50
170.0
 51
230.927385
  0
ARC
  5
39C
100
AcDbEntity
  8
2
100
AcDbCircle
 10
-313.026506
 20
286.873715
 30
0.0
 40
56.071797
100
AcDbArc
 50
309.072615
 51
10.0
  0
LINE
  5
39D
100
AcDbEntity
  8
2
100
AcDbLine
 10
-269.843216
 20
364.873715
 30
0.0
 11
-265.258084
 21
338.870139
 31
0.0
  0
LINE
  5
39E
100
AcDbEntity
  8
2
100
AcDbLine
 10
-262.61381
 20
323.873715
 30
0.0
 11
-257.806566
 21
296.61048
 31
0.0
  0
LINE
  5
39F
100
AcDbEntity
  8
2
100
AcDbLine
 10
-368.246446
 20
296.61048
 30
0.0
 11
-363.439202
 21
323.873715
 31
0.0
  0
LINE
  5
3A0
100
AcDbEntity
  8
2
100
AcDbLine
 10
-360.794928
 20
338.870139
 30
0.0
 11
-356.209796
 21
364.873715
 31
0.0
  0
ARC
  5
3A1
100
AcDbEntity
  8
2
100
AcDbCircle
 10
-272.838216
 20
237.373715
 30
0.0
 40
7.68829
100
AcDbArc
 50
129.072615
 51
180.0
  0
ARC
  5
3A2
100
AcDbEntity
  8
2
100
AcDbCircle
 10
-353.214796
 20
237.373715
 30
0.0
 40
7.68829
100
AcDbArc
 50
0.0
 51
50.927385
  0
LINE
  5
3A3
100
AcDbEntity
  8
2
100
AcDbLine
 10
-265.526506
 20
71.631011
 30
0.0
 11
-265.526506
 21
68.631011
 31
0.0
  0
LINE
  5
3A4
100
AcDbEntity
  8
2
100
AcDbLine
 10
-360.526506
 20
71.631011
 30
0.0
 11
-360.526506
 21
68.631011
 31
0.0
  0
LINE
  5
3A5
100
AcDbEntity
  8
2
100
AcDbLine
 10
-275.900485
 20
69.732845
 30
0.0
 11
-277.812872
 21
71.631011
 31
0.0
  0
LINE
  5
3A6
100
AcDbEntity
  8
2
100
AcDbLine
 10
-350.152526
 20
69.732845
 30
0.0
 11
-348.24014
 21
71.631011
 31
0.0
  0
LINE
  5
3A7
100
AcDbEntity
  8
2
100
AcDbLine
 10
-280.526506
 20
67.631011
 30
0.0
 11
-280.526506
 21
65.631011
 31
0.0
  0
LINE
  5
3A8
100
AcDbEntity
  8
2
100
AcDbLine
 10
-345.526506
 20
67.631011
 30
0.0
 11
-345.526506
 21
65.631011
 31
0.0
  0
ARC
  5
3A9
100
AcDbEntity
  8
2
100
AcDbCircle
 10
-279.526506
 20
65.631011
 30
0.0
 40
1.0
100
AcDbArc
 50
180.0
 51
270.0
  0
ARC
  5
3AA
100
AcDbEntity
  8
2
100
AcDbCircle
 10
-281.526506
 20
67.631011
 30
0.0
 40
1.0
100
AcDbArc
 50
0.0
 51
90.0
  0
ARC
  5
3AB
100
AcDbEntity
  8
2
100
AcDbCircle
 10
-346.526506
 20
65.631011
 30
0.0
 40
1.0
100
AcDbArc
 50
270.0
 51
360.0
  0
ARC
  5
3AC
100
AcDbEntity
  8
2
100
AcDbCircle
 10
-344.526506
 20
67.631011
 30
0.0
 40
1.0
100
AcDbArc
 50
90.0
 51
180.0
  0
LINE
  5
3AD
100
AcDbEntity
  8
2
100
AcDbLine
 10
-265.026506
 20
62.631011
 30
0.0
 11
-265.026506
 21
-3.168989
 31
0.0
  0
LINE
  5
3AE
100
AcDbEntity
  8
2
100
AcDbLine
 10
-361.026506
 20
62.631011
 30
0.0
 11
-361.026506
 21
-3.168989
 31
0.0
  0
ARC
  5
3AF
100
AcDbEntity
  8
2
100
AcDbCircle
 10
-267.026506
 20
62.631011
 30
0.0
 40
2.0
100
AcDbArc
 50
0.0
 51
90.0
  0
ARC
  5
3B0
100
AcDbEntity
  8
2
100
AcDbCircle
 10
-359.026506
 20
62.631011
 30
0.0
 40
2.0
100
AcDbArc
 50
90.0
 51
180.0
  0
LINE
  5
3B1
100
AcDbEntity
  8
2
100
AcDbLine
 10
262.780718
 20
58.631011
 30
0.0
 11
110.780718
 21
58.631011
 31
0.0
  0
LINE
  5
3B2
100
AcDbEntity
  8
2
100
AcDbLine
 10
262.780718
 20
64.631011
 30
0.0
 11
110.780718
 21
64.631011
 31
0.0
  0
LINE
  5
3B3
100
AcDbEntity
  8
2
100
AcDbLine
 10
215.780718
 20
71.631011
 30
0.0
 11
132.780718
 21
71.631011
 31
0.0
  0
LINE
  5
3B4
100
AcDbEntity
  8
2
100
AcDbLine
 10
262.780718
 20
64.631011
 30
0.0
 11
262.780718
 21
38.331011
 31
0.0
  0
LINE
  5
3B5
100
AcDbEntity
  8
2
100
AcDbLine
 10
110.780718
 20
64.631011
 30
0.0
 11
110.780718
 21
28.331011
 31
0.0
  0
LINE
  5
3B6
100
AcDbEntity
  8
2
100
AcDbLine
 10
262.780718
 20
64.631011
 30
0.0
 11
259.030718
 21
66.796075
 31
0.0
  0
LINE
  5
3B7
100
AcDbEntity
  8
2
100
AcDbLine
 10
110.780718
 20
64.631011
 30
0.0
 11
112.680718
 21
65.727977
 31
0.0
  0
LINE
  5
3B8
100
AcDbEntity
  8
2
100
AcDbLine
 10
-280.026506
 20
374.445511
 30
0.0
 11
-346.026506
 21
374.445511
 31
0.0
  0
LINE
  5
3B9
100
AcDbEntity
  8
2
100
AcDbLine
 10
-280.526506
 20
236.301918
 30
0.0
 11
-345.526506
 21
236.301918
 31
0.0
  0
LINE
  5
3BA
100
AcDbEntity
  8
2
100
AcDbLine
 10
132.780718
 20
71.631011
 30
0.0
 11
129.780718
 21
68.631011
 31
0.0
  0
LINE
  5
3BB
100
AcDbEntity
  8
2
100
AcDbLine
 10
215.780718
 20
71.631011
 30
0.0
 11
215.780718
 21
69.705805
 31
0.0
  0
LINE
  5
3BC
100
AcDbEntity
  8
2
100
AcDbLine
 10
211.147464
 20
71.631011
 30
0.0
 11
211.147464
 21
69.935416
 31
0.0
  0
LINE
  5
3BD
100
AcDbEntity
  8
2
100
AcDbLine
 10
212.792784
 20
71.631011
 30
0.0
 11
212.792784
 21
70.031006
 31
0.0
  0
LINE
  5
3BE
100
AcDbEntity
  8
2
100
AcDbLine
 10
203.204732
 20
71.631011
 30
0.0
 11
203.204732
 21
68.631011
 31
0.0
  0
LINE
  5
3BF
100
AcDbEntity
  8
2
100
AcDbLine
 10
188.452056
 20
71.631011
 30
0.0
 11
188.452056
 21
68.631011
 31
0.0
  0
LINE
  5
3C0
100
AcDbEntity
  8
2
100
AcDbLine
 10
172.780718
 20
71.631011
 30
0.0
 11
172.780718
 21
68.631011
 31
0.0
  0
LINE
  5
3C1
100
AcDbEntity
  8
2
100
AcDbLine
 10
163.780718
 20
71.631011
 30
0.0
 11
163.780718
 21
68.631011
 31
0.0
  0
LINE
  5
3C2
100
AcDbEntity
  8
2
100
AcDbLine
 10
200.053971
 20
71.631011
 30
0.0
 11
200.053971
 21
68.631011
 31
0.0
  0
LINE
  5
3C3
100
AcDbEntity
  8
2
100
AcDbLine
 10
184.123289
 20
71.631011
 30
0.0
 11
184.123289
 21
68.631011
 31
0.0
  0
LINE
  5
3C4
100
AcDbEntity
  8
2
100
AcDbLine
 10
193.679107
 20
68.631011
 30
0.0
 11
191.552919
 21
71.631011
 31
0.0
  0
LINE
  5
3C5
100
AcDbEntity
  8
2
100
AcDbLine
 10
180.673237
 20
68.631011
 30
0.0
 11
179.522553
 21
71.631011
 31
0.0
  0
LINE
  5
3C6
100
AcDbEntity
  8
2
100
AcDbLine
 10
205.280718
 20
68.631011
 30
0.0
 11
205.280718
 21
64.631011
 31
0.0
  0
LINE
  5
3C7
100
AcDbEntity
  8
2
100
AcDbLine
 10
220.280718
 20
68.631011
 30
0.0
 11
220.280718
 21
64.631011
 31
0.0
  0
LINE
  5
3C8
100
AcDbEntity
  8
2
100
AcDbLine
 10
246.280718
 20
68.631011
 30
0.0
 11
246.280718
 21
64.631011
 31
0.0
  0
LINE
  5
3C9
100
AcDbEntity
  8
2
100
AcDbLine
 10
126.280718
 20
67.517762
 30
0.0
 11
126.280718
 21
64.631011
 31
0.0
  0
ARC
  5
3CA
100
AcDbEntity
  8
2
100
AcDbCircle
 10
124.084019
 20
65.131011
 30
0.0
 40
3.5
100
AcDbArc
 50
57.27406
 51
90.0
  0
ARC
  5
3CB
100
AcDbEntity
  8
2
100
AcDbCircle
 10
125.617813
 20
67.517762
 30
0.0
 40
0.662906
100
AcDbArc
 50
0.0
 51
57.27406
  0
LINE
  5
3CC
100
AcDbEntity
  8
2
100
AcDbLine
 10
-376.026506
 20
57.831011
 30
0.0
 11
-249.026506
 21
57.831011
 31
0.0
  0
LINE
  5
3CD
100
AcDbEntity
  8
2
100
AcDbLine
 10
107.780718
 20
57.831011
 30
0.0
 11
262.780718
 21
57.831011
 31
0.0
  0
LINE
  5
3CE
100
AcDbEntity
  8
2
100
AcDbLine
 10
-364.026506
 20
-3.168989
 30
0.0
 11
-262.026506
 21
-3.168989
 31
0.0
  0
LINE
  5
3CF
100
AcDbEntity
  8
2
100
AcDbLine
 10
248.191186
 20
14.049952
 30
0.0
 11
219.280718
 21
-1.322016
 31
0.0
  0
ARC
  5
3D0
100
AcDbEntity
  8
2
100
AcDbCircle
 10
235.280718
 20
38.331011
 30
0.0
 40
27.5
100
AcDbArc
 50
298.0
 51
360.0
  0
LINE
  5
3D1
100
AcDbEntity
  8
2
100
AcDbLine
 10
219.280718
 20
-1.322016
 30
0.0
 11
219.280718
 21
-3.168989
 31
0.0
  0
LINE
  5
3D2
100
AcDbEntity
  8
2
100
AcDbLine
 10
219.280718
 20
-1.322016
 30
0.0
 11
130.476718
 21
-1.322016
 31
0.0
  0
LINE
  5
3D3
100
AcDbEntity
  8
2
100
AcDbLine
 10
-364.026506
 20
-3.168989
 30
0.0
 11
-364.026506
 21
-1.322016
 31
0.0
  0
LINE
  5
3D4
100
AcDbEntity
  8
2
100
AcDbLine
 10
-262.026506
 20
-3.168989
 30
0.0
 11
-262.026506
 21
-1.322016
 31
0.0
  0
LINE
  5
3D5
100
AcDbEntity
  8
2
100
AcDbLine
 10
-252.226878
 20
22.893703
 30
0.0
 11
-262.026506
 21
-1.322016
 31
0.0
  0
LINE
  5
3D6
100
AcDbEntity
  8
2
100
AcDbLine
 10
-364.026506
 20
-1.322016
 30
0.0
 11
-376.026506
 21
28.331011
 31
0.0
  0
LINE
  5
3D7
100
AcDbEntity
  8
2
100
AcDbLine
 10
127.476718
 20
64.631011
 30
0.0
 11
127.476718
 21
1.677984
 31
0.0
  0
LINE
  5
3D8
100
AcDbEntity
  8
2
100
AcDbLine
 10
110.780718
 20
28.331011
 30
0.0
 11
117.280718
 21
-3.168989
 31
0.0
  0
ARC
  5
3D9
100
AcDbEntity
  8
2
100
AcDbCircle
 10
130.476718
 20
1.677984
 30
0.0
 40
3.0
100
AcDbArc
 50
180.0
 51
270.0
  0
LINE
  5
3DA
100
AcDbEntity
  8
2
100
AcDbLine
 10
-346.026506
 20
38.331011
 30
0.0
 11
-346.026506
 21
57.831011
 31
0.0
  0
LINE
  5
3DB
100
AcDbEntity
  8
2
100
AcDbLine
 10
-280.026506
 20
38.331011
 30
0.0
 11
-280.026506
 21
57.831011
 31
0.0
  0
LINE
  5
3DC
100
AcDbEntity
  8
2
100
AcDbLine
 10
-290.026506
 20
28.331011
 30
0.0
 11
-336.026506
 21
28.331011
 31
0.0
  0
ARC
  5
3DD
100
AcDbEntity
  8
2
100
AcDbCircle
 10
-290.026506
 20
38.331011
 30
0.0
 40
10.0
100
AcDbArc
 50
270.0
 51
360.0
  0
ARC
  5
3DE
100
AcDbEntity
  8
2
100
AcDbCircle
 10
-336.026506
 20
38.331011
 30
0.0
 40
10.0
100
AcDbArc
 50
180.0
 51
270.0
  0
LINE
  5
3DF
100
AcDbEntity
  8
2
100
AcDbLine
 10
107.780718
 20
57.831011
 30
0.0
 11
107.780718
 21
29.331011
 31
0.0
  0
LINE
  5
3E0
100
AcDbEntity
  8
2
100
AcDbLine
 10
109.965999
 20
28.331011
 30
0.0
 11
108.780718
 21
28.331011
 31
0.0
  0
ARC
  5
3E1
100
AcDbEntity
  8
2
100
AcDbCircle
 10
108.780718
 20
29.331011
 30
0.0
 40
1.0
100
AcDbArc
 50
180.0
 51
270.0
  0
ARC
  5
3E2
100
AcDbEntity
  8
2
100
AcDbCircle
 10
109.965999
 20
27.331011
 30
0.0
 40
1.0
100
AcDbArc
 50
11.659293
 51
90.0
  0
LINE
  5
3E3
100
AcDbEntity
  8
2
100
AcDbLine
 10
-346.026506
 20
226.373715
 30
0.0
 11
-280.026506
 21
226.373715
 31
0.0
  0
LINE
  5
3E4
100
AcDbEntity
  8
2
100
AcDbLine
 10
-280.026506
 20
226.373715
 30
0.0
 11
-280.026506
 21
229.373715
 31
0.0
  0
LINE
  5
3E5
100
AcDbEntity
  8
2
100
AcDbLine
 10
-346.026506
 20
226.373715
 30
0.0
 11
-346.026506
 21
229.373715
 31
0.0
  0
LINE
  5
3E6
100
AcDbEntity
  8
2
100
AcDbLine
 10
-364.026506
 20
-1.322016
 30
0.0
 11
-361.026506
 21
-1.322016
 31
0.0
  0
LINE
  5
3E7
100
AcDbEntity
  8
2
100
AcDbLine
 10
-262.026506
 20
-1.322016
 30
0.0
 11
-265.026506
 21
-1.322016
 31
0.0
  0
LINE
  5
3E8
100
AcDbEntity
  8
2
100
AcDbLine
 10
147.280718
 20
23.831011
 30
0.0
 11
185.280718
 21
23.831011
 31
0.0
  0
LINE
  5
3E9
100
AcDbEntity
  8
2
100
AcDbLine
 10
188.280718
 20
57.831011
 30
0.0
 11
188.280718
 21
26.831011
 31
0.0
  0
LINE
  5
3EA
100
AcDbEntity
  8
2
100
AcDbLine
 10
144.280718
 20
57.831011
 30
0.0
 11
144.280718
 21
26.831011
 31
0.0
  0
ARC
  5
3EB
100
AcDbEntity
  8
2
100
AcDbCircle
 10
185.280718
 20
26.831011
 30
0.0
 40
3.0
100
AcDbArc
 50
270.0
 51
360.0
  0
ARC
  5
3EC
100
AcDbEntity
  8
2
100
AcDbCircle
 10
147.280718
 20
26.831011
 30
0.0
 40
3.0
100
AcDbArc
 50
180.0
 51
270.0
  0
LINE
  5
3ED
100
AcDbEntity
  8
2
100
AcDbLine
 10
217.280718
 20
57.831011
 30
0.0
 11
217.280718
 21
36.722007
 31
0.0
  0
LINE
  5
3EE
100
AcDbEntity
  8
2
100
AcDbLine
 10
253.280718
 20
57.831011
 30
0.0
 11
253.280718
 21
36.722007
 31
0.0
  0
LINE
  5
3EF
100
AcDbEntity
  8
2
100
AcDbLine
 10
240.423019
 20
22.202656
 30
0.0
 11
250.423019
 21
30.593652
 31
0.0
  0
LINE
  5
3F0
100
AcDbEntity
  8
2
100
AcDbLine
 10
230.138417
 20
22.202656
 30
0.0
 11
220.138417
 21
30.593652
 31
0.0
  0
ARC
  5
3F1
100
AcDbEntity
  8
2
100
AcDbCircle
 10
235.280718
 20
28.331011
 30
0.0
 40
8.0
100
AcDbArc
 50
230.0
 51
310.0
  0
ARC
  5
3F2
100
AcDbEntity
  8
2
100
AcDbCircle
 10
225.280718
 20
36.722007
 30
0.0
 40
8.0
100
AcDbArc
 50
180.0
 51
230.0
  0
ARC
  5
3F3
100
AcDbEntity
  8
2
100
AcDbCircle
 10
245.280718
 20
36.722007
 30
0.0
 40
8.0
100
AcDbArc
 50
310.0
 51
0.0
  0
CIRCLE
  5
3F4
100
AcDbEntity
  8
2
100
AcDbCircle
 10
235.280718
 20
38.331011
 30
0.0
 40
10.0
  0
CIRCLE
  5
3F5
100
AcDbEntity
  8
2
100
AcDbCircle
 10
235.280718
 20
38.331011
 30
0.0
 40
8.0
  0
LINE
  5
3F6
100
AcDbEntity
  8
2
100
AcDbLine
 10
-249.026506
 20
264.373715
 30
0.0
 11
-249.026506
 21
305.373715
 31
0.0
  0
LINE
  5
3F7
100
AcDbEntity
  8
2
100
AcDbLine
 10
-251.32252
 20
306.873715
 30
0.0
 11
-250.526506
 21
306.873715
 31
0.0
  0
LINE
  5
3F8
100
AcDbEntity
  8
2
100
AcDbLine
 10
-253.781253
 20
262.873715
 30
0.0
 11
-250.526506
 21
262.873715
 31
0.0
  0
ARC
  5
3F9
100
AcDbEntity
  8
2
100
AcDbCircle
 10
-250.526506
 20
305.373715
 30
0.0
 40
1.5
100
AcDbArc
 50
0.0
 51
90.0
  0
ARC
  5
3FA
100
AcDbEntity
  8
2
100
AcDbCircle
 10
-250.526506
 20
264.373715
 30
0.0
 40
1.5
100
AcDbArc
 50
270.0
 51
360.0
  0
ARC
  5
3FB
100
AcDbEntity
  8
2
100
AcDbCircle
 10
-251.32252
 20
308.373715
 30
0.0
 40
1.5
100
AcDbArc
 50
190.0
 51
270.0
  0
ARC
  5
3FC
100
AcDbEntity
  8
2
100
AcDbCircle
 10
-253.781253
 20
261.373715
 30
0.0
 40
1.5
100
AcDbArc
 50
90.0
 51
156.712268
  0
LINE
  5
3FD
100
AcDbEntity
  8
2
100
AcDbLine
 10
-250.526506
 20
23.831011
 30
0.0
 11
-253.277042
 21
23.831011
 31
0.0
  0
LINE
  5
3FE
100
AcDbEntity
  8
2
100
AcDbLine
 10
-249.026506
 20
57.831011
 30
0.0
 11
-249.026506
 21
25.331011
 31
0.0
  0
LINE
  5
3FF
100
AcDbEntity
  8
2
100
AcDbLine
 10
-254.777042
 20
57.831011
 30
0.0
 11
-254.777042
 21
23.831011
 31
0.0
  0
ARC
  5
400
100
AcDbEntity
  8
2
100
AcDbCircle
 10
-250.526506
 20
25.331011
 30
0.0
 40
1.5
100
AcDbArc
 50
270.0
 51
360.0
  0
ARC
  5
401
100
AcDbEntity
  8
2
100
AcDbCircle
 10
-250.836419
 20
22.331011
 30
0.0
 40
1.5
100
AcDbArc
 50
90.0
 51
157.967784
  0
ARC
  5
402
100
AcDbEntity
  8
2
100
AcDbCircle
 10
-253.277042
 20
22.331011
 30
0.0
 40
1.5
100
AcDbArc
 50
90.0
 51
180.0
  0
LINE
  5
403
100
AcDbEntity
  8
2
100
AcDbLine
 10
-253.026506
 20
337.373715
 30
0.0
 11
-253.026506
 21
370.373715
 31
0.0
  0
LINE
  5
404
100
AcDbEntity
  8
2
100
AcDbLine
 10
-373.026506
 20
337.373715
 30
0.0
 11
-373.026506
 21
370.373715
 31
0.0
  0
LINE
  5
405
100
AcDbEntity
  8
2
100
AcDbLine
 10
-371.526506
 20
371.873715
 30
0.0
 11
-363.269238
 21
371.873715
 31
0.0
  0
LINE
  5
406
100
AcDbEntity
  8
2
100
AcDbLine
 10
-262.783774
 20
371.873715
 30
0.0
 11
-254.526506
 21
371.873715
 31
0.0
  0
LINE
  5
407
100
AcDbEntity
  8
2
100
AcDbLine
 10
-371.526506
 20
335.873715
 30
0.0
 11
-370.145991
 21
335.873715
 31
0.0
  0
LINE
  5
408
100
AcDbEntity
  8
2
100
AcDbLine
 10
-255.907021
 20
335.873715
 30
0.0
 11
-254.526506
 21
335.873715
 31
0.0
  0
ARC
  5
409
100
AcDbEntity
  8
2
100
AcDbCircle
 10
-254.526506
 20
370.373715
 30
0.0
 40
1.5
100
AcDbArc
 50
0.0
 51
90.0
  0
ARC
  5
40A
100
AcDbEntity
  8
2
100
AcDbCircle
 10
-254.526506
 20
337.373715
 30
0.0
 40
1.5
100
AcDbArc
 50
270.0
 51
360.0
  0
ARC
  5
40B
100
AcDbEntity
  8
2
100
AcDbCircle
 10
-371.526506
 20
337.373715
 30
0.0
 40
1.5
100
AcDbArc
 50
180.0
 51
270.0
  0
ARC
  5
40C
100
AcDbEntity
  8
2
100
AcDbCircle
 10
-371.526506
 20
370.373715
 30
0.0
 40
1.5
100
AcDbArc
 50
90.0
 51
180.0
  0
ARC
  5
40D
100
AcDbEntity
  8
2
100
AcDbCircle
 10
-262.783774
 20
373.373715
 30
0.0
 40
1.5
100
AcDbArc
 50
190.01541
 51
270.0
  0
ARC
  5
40E
100
AcDbEntity
  8
2
100
AcDbCircle
 10
-363.269238
 20
373.373715
 30
0.0
 40
1.5
100
AcDbArc
 50
270.0
 51
349.98459
  0
ARC
  5
40F
100
AcDbEntity
  8
2
100
AcDbCircle
 10
-370.145991
 20
334.373715
 30
0.0
 40
1.5
100
AcDbArc
 50
350.0
 51
90.0
  0
ARC
  5
410
100
AcDbEntity
  8
2
100
AcDbCircle
 10
-255.907021
 20
334.373715
 30
0.0
 40
1.5
100
AcDbArc
 50
90.0
 51
190.0
  0
LINE
  5
411
100
AcDbEntity
  8
2
100
AcDbLine
 10
-343.526506
 20
72.331011
 30
0.0
 11
-282.526506
 21
72.331011
 31
0.0
  0
LINE
  5
412
100
AcDbEntity
  8
2
100
AcDbLine
 10
-286.526506
 20
71.631011
 30
0.0
 11
-286.526506
 21
72.331011
 31
0.0
  0
LINE
  5
413
100
AcDbEntity
  8
2
100
AcDbLine
 10
-339.526506
 20
71.631011
 30
0.0
 11
-339.526506
 21
72.331011
 31
0.0
  0
LINE
  5
414
100
AcDbEntity
  8
2
100
AcDbLine
 10
-348.526506
 20
72.831011
 30
0.0
 11
-273.026506
 21
72.831011
 31
0.0
  0
LINE
  5
415
100
AcDbEntity
  8
2
100
AcDbLine
 10
-343.526506
 20
72.331011
 30
0.0
 11
-343.526506
 21
72.831011
 31
0.0
  0
LINE
  5
416
100
AcDbEntity
  8
2
100
AcDbLine
 10
-282.526506
 20
72.331011
 30
0.0
 11
-282.526506
 21
72.831011
 31
0.0
  0
LINE
  5
417
100
AcDbEntity
  8
2
100
AcDbLine
 10
-343.526506
 20
98.831011
 30
0.0
 11
-285.572139
 21
98.831011
 31
0.0
  0
LINE
  5
418
100
AcDbEntity
  8
2
100
AcDbLine
 10
-346.526506
 20
78.831011
 30
0.0
 11
-279.752578
 21
78.831011
 31
0.0
  0
LINE
  5
419
100
AcDbEntity
  8
2
100
AcDbLine
 10
-346.466751
 20
290.873715
 30
0.0
 11
-277.026506
 21
290.873715
 31
0.0
  0
LINE
  5
41A
100
AcDbEntity
  8
2
100
AcDbLine
 10
-346.466751
 20
282.873715
 30
0.0
 11
-277.026506
 21
282.873715
 31
0.0
  0
ARC
  5
41B
100
AcDbEntity
  8
2
100
AcDbCircle
 10
-346.466751
 20
288.873715
 30
0.0
 40
2.0
100
AcDbArc
 50
90.0
 51
176.577321
  0
ARC
  5
41C
100
AcDbEntity
  8
2
100
AcDbCircle
 10
-346.466751
 20
284.873715
 30
0.0
 40
2.0
100
AcDbArc
 50
183.422679
 51
270.0
  0
ARC
  5
41D
100
AcDbEntity
  8
2
100
AcDbCircle
 10
-277.026506
 20
286.873715
 30
0.0
 40
4.0
100
AcDbArc
 50
270.0
 51
90.0
  0
ARC
  5
41E
100
AcDbEntity
  8
2
100
AcDbCircle
 10
-313.026506
 20
286.873715
 30
0.0
 40
35.5
100
AcDbArc
 50
9.068722
 51
350.931278
  0
ARC
  5
41F
100
AcDbEntity
  8
2
100
AcDbCircle
 10
-275.995256
 20
280.963002
 30
0.0
 40
2.0
100
AcDbArc
 50
99.896853
 51
170.931278
  0
ARC
  5
420
100
AcDbEntity
  8
2
100
AcDbCircle
 10
-275.995256
 20
292.784427
 30
0.0
 40
2.0
100
AcDbArc
 50
189.068722
 51
260.103147
  0
LINE
  5
421
100
AcDbEntity
  8
2
100
AcDbLine
 10
-273.026506
 20
72.831011
 30
0.0
 11
-273.026506
 21
87.499473
 31
0.0
  0
LINE
  5
422
100
AcDbEntity
  8
2
100
AcDbLine
 10
-274.812568
 20
91.329695
 30
0.0
 11
-282.358201
 21
97.661233
 31
0.0
  0
LINE
  5
423
100
AcDbEntity
  8
2
100
AcDbLine
 10
-348.526506
 20
72.831011
 30
0.0
 11
-348.526506
 21
93.831011
 31
0.0
  0
ARC
  5
424
100
AcDbEntity
  8
2
100
AcDbCircle
 10
-343.526506
 20
93.831011
 30
0.0
 40
5.0
100
AcDbArc
 50
90.0
 51
180.0
  0
ARC
  5
425
100
AcDbEntity
  8
2
100
AcDbCircle
 10
-346.526506
 20
76.831011
 30
0.0
 40
2.0
100
AcDbArc
 50
90.0
 51
180.0
  0
ARC
  5
426
100
AcDbEntity
  8
2
100
AcDbCircle
 10
-278.026506
 20
87.499473
 30
0.0
 40
5.0
100
AcDbArc
 50
0.0
 51
50.0
  0
ARC
  5
427
100
AcDbEntity
  8
2
100
AcDbCircle
 10
-285.572139
 20
93.831011
 30
0.0
 40
5.0
100
AcDbArc
 50
50.0
 51
90.0
  0
LINE
  5
428
100
AcDbEntity
  8
2
100
AcDbLine
 10
-277.752578
 20
76.831011
 30
0.0
 11
-277.752578
 21
72.831011
 31
0.0
  0
ARC
  5
429
100
AcDbEntity
  8
2
100
AcDbCircle
 10
-279.752578
 20
76.831011
 30
0.0
 40
2.0
100
AcDbArc
 50
0.0
 51
90.0
  0
LINE
  5
42A
100
AcDbEntity
  8
2
100
AcDbLine
 10
123.762681
 20
68.631011
 30
0.0
 11
207.798756
 21
68.631011
 31
0.0
  0
LINE
  5
42B
100
AcDbEntity
  8
2
100
AcDbLine
 10
217.762681
 20
68.631011
 30
0.0
 11
248.798756
 21
68.631011
 31
0.0
  0
LINE
  5
42C
100
AcDbEntity
  8
2
100
AcDbLine
 10
137.780718
 20
72.331011
 30
0.0
 11
198.780718
 21
72.331011
 31
0.0
  0
LINE
  5
42D
100
AcDbEntity
  8
2
100
AcDbLine
 10
194.780718
 20
71.631011
 30
0.0
 11
194.780718
 21
72.331011
 31
0.0
  0
LINE
  5
42E
100
AcDbEntity
  8
2
100
AcDbLine
 10
141.780718
 20
71.631011
 30
0.0
 11
141.780718
 21
72.331011
 31
0.0
  0
LINE
  5
42F
100
AcDbEntity
  8
2
100
AcDbLine
 10
132.780718
 20
72.831011
 30
0.0
 11
203.780718
 21
72.831011
 31
0.0
  0
LINE
  5
430
100
AcDbEntity
  8
2
100
AcDbLine
 10
137.780718
 20
72.831011
 30
0.0
 11
137.780718
 21
72.331011
 31
0.0
  0
LINE
  5
431
100
AcDbEntity
  8
2
100
AcDbLine
 10
198.780718
 20
72.831011
 30
0.0
 11
198.780718
 21
72.331011
 31
0.0
  0
LINE
  5
432
100
AcDbEntity
  8
2
100
AcDbLine
 10
166.280718
 20
98.831011
 30
0.0
 11
170.280718
 21
98.831011
 31
0.0
  0
LINE
  5
433
100
AcDbEntity
  8
2
100
AcDbLine
 10
132.780718
 20
76.831011
 30
0.0
 11
132.780718
 21
72.831011
 31
0.0
  0
LINE
  5
434
100
AcDbEntity
  8
2
100
AcDbLine
 10
203.780718
 20
76.831011
 30
0.0
 11
203.780718
 21
72.831011
 31
0.0
  0
ARC
  5
435
100
AcDbEntity
  8
2
100
AcDbCircle
 10
201.780718
 20
76.831011
 30
0.0
 40
2.0
100
AcDbArc
 50
0.0
 51
90.0
  0
ARC
  5
436
100
AcDbEntity
  8
2
100
AcDbCircle
 10
134.780718
 20
76.831011
 30
0.0
 40
2.0
100
AcDbArc
 50
90.0
 51
180.0
  0
LINE
  5
437
100
AcDbEntity
  8
2
100
AcDbLine
 10
164.280718
 20
96.831011
 30
0.0
 11
164.280718
 21
72.831011
 31
0.0
  0
LINE
  5
438
100
AcDbEntity
  8
2
100
AcDbLine
 10
172.280718
 20
96.831011
 30
0.0
 11
172.280718
 21
72.831011
 31
0.0
  0
ARC
  5
439
100
AcDbEntity
  8
2
100
AcDbCircle
 10
170.280718
 20
96.831011
 30
0.0
 40
2.0
100
AcDbArc
 50
0.0
 51
90.0
  0
ARC
  5
43A
100
AcDbEntity
  8
2
100
AcDbCircle
 10
166.280718
 20
96.831011
 30
0.0
 40
2.0
100
AcDbArc
 50
90.0
 51
180.0
  0
LINE
  5
43B
100
AcDbEntity
  8
2
100
AcDbLine
 10
134.780718
 20
78.831011
 30
0.0
 11
162.280718
 21
78.831011
 31
0.0
  0
LINE
  5
43C
100
AcDbEntity
  8
2
100
AcDbLine
 10
174.280718
 20
78.831011
 30
0.0
 11
201.780718
 21
78.831011
 31
0.0
  0
ARC
  5
43D
100
AcDbEntity
  8
2
100
AcDbCircle
 10
174.280718
 20
80.831011
 30
0.0
 40
2.0
100
AcDbArc
 50
180.0
 51
270.0
  0
ARC
  5
43E
100
AcDbEntity
  8
2
100
AcDbCircle
 10
162.280718
 20
80.831011
 30
0.0
 40
2.0
100
AcDbArc
 50
270.0
 51
360.0
  0
ARC
  5
43F
100
AcDbEntity
  8
2
100
AcDbCircle
 10
168.280718
 20
85.831011
 30
0.0
 40
4.0
100
AcDbArc
 50
0.0
 51
180.0
  0
LINE
  5
440
100
AcDbEntity
  8
2
100
AcDbLine
 10
-283.752288
 20
282.873715
 30
0.0
 11
-283.752288
 21
290.873715
 31
0.0
  0
LINE
  5
441
100
AcDbEntity
  8
2
100
AcDbLine
 10
-268.044543
 20
68.631011
 30
0.0
 11
-256.954709
 21
68.631011
 31
0.0
  0
LINE
  5
442
100
AcDbEntity
  8
2
100
AcDbLine
 10
-369.098303
 20
68.631011
 30
0.0
 11
-358.008469
 21
68.631011
 31
0.0
  0
LINE
  5
443
100
AcDbEntity
  8
2
100
AcDbLine
 10
-348.044543
 20
68.631011
 30
0.0
 11
-278.008469
 21
68.631011
 31
0.0
  0
LINE
  5
444
100
AcDbEntity
  8
2
100
AcDbLine
 10
-125.026506
 20
442.873715
 30
0.0
 11
-125.026506
 21
264.873715
 31
0.0
  0
ARC
  5
445
100
AcDbEntity
  8
2
100
AcDbCircle
 10
-136.026506
 20
442.873715
 30
0.0
 40
11.0
100
AcDbArc
 50
0.0
 51
180.0
  0
ARC
  5
446
100
AcDbEntity
  8
2
100
AcDbCircle
 10
-136.477775
 20
284.757534
 30
0.0
 40
79.570307
100
AcDbArc
 50
91.907508
 51
97.294014
  0
ARC
  5
447
100
AcDbEntity
  8
2
100
AcDbCircle
 10
-136.477775
 20
422.989895
 30
0.0
 40
79.570307
100
AcDbArc
 50
262.705986
 51
268.092492
  0
LINE
  5
448
100
AcDbEntity
  8
2
100
AcDbLine
 10
-136.026506
 20
346.462019
 30
0.0
 11
-136.026506
 21
361.28541
 31
0.0
  0
ARC
  5
449
100
AcDbEntity
  8
2
100
AcDbCircle
 10
-139.026506
 20
361.28541
 30
0.0
 40
3.0
100
AcDbArc
 50
0.0
 51
91.907508
  0
ARC
  5
44A
100
AcDbEntity
  8
2
100
AcDbCircle
 10
-139.026506
 20
346.462019
 30
0.0
 40
3.0
100
AcDbArc
 50
268.092492
 51
360.0
  0
ARC
  5
44B
100
AcDbEntity
  8
2
100
AcDbCircle
 10
-146.515181
 20
344.570681
 30
0.0
 40
0.511325
100
AcDbArc
 50
106.739333
 51
262.705986
  0
ARC
  5
44C
100
AcDbEntity
  8
2
100
AcDbCircle
 10
-146.515181
 20
363.176748
 30
0.0
 40
0.511325
100
AcDbArc
 50
97.294014
 51
253.260667
  0
LINE
  5
44D
100
AcDbEntity
  8
2
100
AcDbLine
 10
-144.526506
 20
347.933214
 30
0.0
 11
-144.526506
 21
359.814216
 31
0.0
  0
ARC
  5
44E
100
AcDbEntity
  8
2
100
AcDbCircle
 10
-147.526506
 20
359.814216
 30
0.0
 40
3.0
100
AcDbArc
 50
0.0
 51
73.260667
  0
ARC
  5
44F
100
AcDbEntity
  8
2
100
AcDbCircle
 10
-147.526506
 20
347.933214
 30
0.0
 40
3.0
100
AcDbArc
 50
286.739333
 51
360.0
  0
ARC
  5
450
100
AcDbEntity
  8
2
100
AcDbCircle
 10
-136.424165
 20
365.61254
 30
0.0
 40
24.10125
100
AcDbArc
 50
97.084118
 51
112.377644
  0
ARC
  5
451
100
AcDbEntity
  8
2
100
AcDbCircle
 10
-136.471595
 20
316.114804
 30
0.0
 40
53.404212
100
AcDbArc
 50
92.596184
 51
100.675608
  0
LINE
  5
452
100
AcDbEntity
  8
2
100
AcDbLine
 10
-136.026506
 20
372.461122
 30
0.0
 11
-136.026506
 21
386.552707
 31
0.0
  0
ARC
  5
453
100
AcDbEntity
  8
2
100
AcDbCircle
 10
-139.026506
 20
386.552707
 30
0.0
 40
3.0
100
AcDbArc
 50
0.0
 51
97.084118
  0
ARC
  5
454
100
AcDbEntity
  8
2
100
AcDbCircle
 10
-139.026506
 20
372.461122
 30
0.0
 40
3.0
100
AcDbArc
 50
272.596184
 51
360.0
  0
ARC
  5
455
100
AcDbEntity
  8
2
100
AcDbCircle
 10
-144.722637
 20
385.768462
 30
0.0
 40
2.303869
100
AcDbArc
 50
112.377644
 51
238.085987
  0
ARC
  5
456
100
AcDbEntity
  8
2
100
AcDbCircle
 10
-146.214145
 20
367.796382
 30
0.0
 40
0.812361
100
AcDbArc
 50
100.675608
 51
180.0
  0
LINE
  5
457
100
AcDbEntity
  8
2
100
AcDbLine
 10
-147.026506
 20
334.873715
 30
0.0
 11
-147.026506
 21
372.873715
 31
0.0
  0
LINE
  5
458
100
AcDbEntity
  8
2
100
AcDbLine
 10
-144.526506
 20
371.37574
 30
0.0
 11
-144.526506
 21
385.636678
 31
0.0
  0
ARC
  5
459
100
AcDbEntity
  8
2
100
AcDbCircle
 10
-147.526506
 20
381.266313
 30
0.0
 40
3.0
100
AcDbArc
 50
0.0
 51
58.085987
  0
ARC
  5
45A
100
AcDbEntity
  8
2
100
AcDbCircle
 10
-147.526506
 20
371.37574
 30
0.0
 40
3.0
100
AcDbArc
 50
290.135311
 51
360.0
  0
ARC
  5
45B
100
AcDbEntity
  8
2
100
AcDbCircle
 10
-136.325128
 20
396.958233
 30
0.0
 40
15.696848
100
AcDbArc
 50
102.284128
 51
123.145156
  0
ARC
  5
45C
100
AcDbEntity
  8
2
100
AcDbCircle
 10
-136.40728
 20
373.068325
 30
0.0
 40
21.482429
100
AcDbArc
 50
96.14148
 51
114.857013
  0
LINE
  5
45D
100
AcDbEntity
  8
2
100
AcDbLine
 10
-136.026506
 20
397.410243
 30
0.0
 11
-136.026506
 21
409.364381
 31
0.0
  0
ARC
  5
45E
100
AcDbEntity
  8
2
100
AcDbCircle
 10
-139.026506
 20
409.364381
 30
0.0
 40
3.0
100
AcDbArc
 50
0.0
 51
102.284128
  0
ARC
  5
45F
100
AcDbEntity
  8
2
100
AcDbCircle
 10
-139.026506
 20
397.410243
 30
0.0
 40
3.0
100
AcDbArc
 50
276.14148
 51
360.0
  0
ARC
  5
460
100
AcDbEntity
  8
2
100
AcDbCircle
 10
-144.285213
 20
390.073276
 30
0.0
 40
2.741293
100
AcDbArc
 50
114.857013
 51
180.0
  0
ARC
  5
461
100
AcDbEntity
  8
2
100
AcDbCircle
 10
-142.351396
 20
406.186602
 30
0.0
 40
4.67511
100
AcDbArc
 50
123.145156
 51
227.602374
  0
LINE
  5
462
100
AcDbEntity
  8
2
100
AcDbLine
 10
-144.526506
 20
392.95734
 30
0.0
 11
-144.526506
 21
407.297198
 31
0.0
  0
ARC
  5
463
100
AcDbEntity
  8
2
100
AcDbCircle
 10
-147.526506
 20
400.518661
 30
0.0
 40
3.0
100
AcDbArc
 50
0.0
 51
47.602374
  0
LINE
  5
464
100
AcDbEntity
  8
2
100
AcDbLine
 10
-147.026506
 20
385.768462
 30
0.0
 11
-147.026506
 21
390.073276
 31
0.0
  0
ARC
  5
465
100
AcDbEntity
  8
2
100
AcDbCircle
 10
-136.207203
 20
418.816236
 30
0.0
 40
12.773353
100
AcDbArc
 50
103.047521
 51
130.343373
  0
ARC
  5
466
100
AcDbEntity
  8
2
100
AcDbCircle
 10
-136.302063
 20
401.929666
 30
0.0
 40
14.878639
100
AcDbArc
 50
98.765186
 51
124.843294
  0
LINE
  5
467
100
AcDbEntity
  8
2
100
AcDbLine
 10
-136.026506
 20
419.599504
 30
0.0
 11
-136.026506
 21
428.824363
 31
0.0
  0
ARC
  5
468
100
AcDbEntity
  8
2
100
AcDbCircle
 10
-139.026506
 20
419.599504
 30
0.0
 40
3.0
100
AcDbArc
 50
278.765186
 51
360.0
  0
ARC
  5
469
100
AcDbEntity
  8
2
100
AcDbCircle
 10
-138.526506
 20
428.824363
 30
0.0
 40
2.5
100
AcDbArc
 50
0.0
 51
103.047521
  0
ARC
  5
46A
100
AcDbEntity
  8
2
100
AcDbCircle
 10
-139.794466
 20
423.039705
 30
0.0
 40
7.23204
100
AcDbArc
 50
130.343373
 51
220.9161
  0
ARC
  5
46B
100
AcDbEntity
  8
2
100
AcDbCircle
 10
-141.838851
 20
409.883229
 30
0.0
 40
5.187654
100
AcDbArc
 50
124.843294
 51
180.0
  0
LINE
  5
46C
100
AcDbEntity
  8
2
100
AcDbLine
 10
-147.026506
 20
406.186602
 30
0.0
 11
-147.026506
 21
409.883229
 31
0.0
  0
LINE
  5
46D
100
AcDbEntity
  8
2
100
AcDbLine
 10
-144.526506
 20
414.328556
 30
0.0
 11
-144.526506
 21
424.843755
 31
0.0
  0
ARC
  5
46E
100
AcDbEntity
  8
2
100
AcDbCircle
 10
-147.526506
 20
416.338198
 30
0.0
 40
3.0
100
AcDbArc
 50
0.0
 51
40.9161
  0
LINE
  5
46F
100
AcDbEntity
  8
2
100
AcDbLine
 10
-136.026506
 20
437.091639
 30
0.0
 11
-136.026506
 21
442.397695
 31
0.0
  0
LINE
  5
470
100
AcDbEntity
  8
2
100
AcDbLine
 10
-136.026506
 20
449.515975
 30
0.0
 11
-136.026506
 21
450.421814
 31
0.0
  0
ARC
  5
471
100
AcDbEntity
  8
2
100
AcDbCircle
 10
-136.101986
 20
433.678454
 30
0.0
 40
11.550053
100
AcDbArc
 50
105.539411
 51
134.747415
  0
ARC
  5
472
100
AcDbEntity
  8
2
100
AcDbCircle
 10
-136.184138
 20
422.337003
 30
0.0
 40
12.43941
100
AcDbArc
 50
99.020695
 51
131.426334
  0
ARC
  5
473
100
AcDbEntity
  8
2
100
AcDbCircle
 10
-138.526506
 20
442.397695
 30
0.0
 40
2.5
100
AcDbArc
 50
0.0
 51
105.539411
  0
ARC
  5
474
100
AcDbEntity
  8
2
100
AcDbCircle
 10
-138.526506
 20
437.091639
 30
0.0
 40
2.5
100
AcDbArc
 50
279.020695
 51
360.0
  0
ARC
  5
475
100
AcDbEntity
  8
2
100
AcDbCircle
 10
-139.307276
 20
425.876227
 30
0.0
 40
7.71923
100
AcDbArc
 50
131.426334
 51
180.0
  0
ARC
  5
476
100
AcDbEntity
  8
2
100
AcDbCircle
 10
-137.589619
 20
435.17926
 30
0.0
 40
9.436887
100
AcDbArc
 50
134.747415
 51
211.319694
  0
LINE
  5
477
100
AcDbEntity
  8
2
100
AcDbLine
 10
-147.026506
 20
423.039705
 30
0.0
 11
-147.026506
 21
425.876227
 31
0.0
  0
LINE
  5
478
100
AcDbEntity
  8
2
100
AcDbLine
 10
-144.526506
 20
431.563595
 30
0.0
 11
-144.526506
 21
436.98465
 31
0.0
  0
ARC
  5
479
100
AcDbEntity
  8
2
100
AcDbCircle
 10
-136.037671
 20
441.572637
 30
0.0
 40
11.069917
100
AcDbArc
 50
102.666639
 51
136.904828
  0
ARC
  5
47A
100
AcDbEntity
  8
2
100
AcDbCircle
 10
-136.085102
 20
435.822294
 30
0.0
 40
11.409614
100
AcDbArc
 50
100.108874
 51
135.345864
  0
ARC
  5
47B
100
AcDbEntity
  8
2
100
AcDbCircle
 10
-138.526506
 20
449.515975
 30
0.0
 40
2.5
100
AcDbArc
 50
280.108874
 51
360.0
  0
ARC
  5
47C
100
AcDbEntity
  8
2
100
AcDbCircle
 10
-138.026506
 20
450.421814
 30
0.0
 40
2.0
100
AcDbArc
 50
0.0
 51
102.666639
  0
ARC
  5
47D
100
AcDbEntity
  8
2
100
AcDbCircle
 10
-136.257139
 20
441.777977
 30
0.0
 40
10.769367
100
AcDbArc
 50
136.904828
 51
193.238025
  0
ARC
  5
47E
100
AcDbEntity
  8
2
100
AcDbCircle
 10
-137.239028
 20
436.962373
 30
0.0
 40
9.787478
100
AcDbArc
 50
135.345864
 51
180.0
  0
LINE
  5
47F
100
AcDbEntity
  8
2
100
AcDbLine
 10
-147.026506
 20
435.17926
 30
0.0
 11
-147.026506
 21
436.962373
 31
0.0
  0
LINE
  5
480
100
AcDbEntity
  8
2
100
AcDbLine
 10
-147.026506
 20
441.777977
 30
0.0
 11
-147.026506
 21
442.873715
 31
0.0
  0
ARC
  5
481
100
AcDbEntity
  8
2
100
AcDbCircle
 10
-136.026506
 20
357.338
 30
0.0
 40
19.035714
100
AcDbArc
 50
116.52121
 51
125.300248
  0
ARC
  5
482
100
AcDbEntity
  8
2
100
AcDbCircle
 10
-136.026506
 20
350.409429
 30
0.0
 40
19.035714
100
AcDbArc
 50
234.699752
 51
243.47879
  0
ARC
  5
483
100
AcDbEntity
  8
2
100
AcDbCircle
 10
-136.026506
 20
264.873715
 30
0.0
 40
11.0
100
AcDbArc
 50
180.0
 51
360.0
  0
ARC
  5
484
100
AcDbEntity
  8
2
100
AcDbCircle
 10
-136.424165
 20
342.134889
 30
0.0
 40
24.10125
100
AcDbArc
 50
247.622356
 51
262.915882
  0
ARC
  5
485
100
AcDbEntity
  8
2
100
AcDbCircle
 10
-136.471595
 20
391.632625
 30
0.0
 40
53.404212
100
AcDbArc
 50
259.324392
 51
267.403816
  0
LINE
  5
486
100
AcDbEntity
  8
2
100
AcDbLine
 10
-136.026506
 20
335.286307
 30
0.0
 11
-136.026506
 21
321.194722
 31
0.0
  0
ARC
  5
487
100
AcDbEntity
  8
2
100
AcDbCircle
 10
-139.026506
 20
321.194722
 30
0.0
 40
3.0
100
AcDbArc
 50
262.915882
 51
360.0
  0
ARC
  5
488
100
AcDbEntity
  8
2
100
AcDbCircle
 10
-139.026506
 20
335.286307
 30
0.0
 40
3.0
100
AcDbArc
 50
0.0
 51
87.403816
  0
ARC
  5
489
100
AcDbEntity
  8
2
100
AcDbCircle
 10
-144.722637
 20
321.978967
 30
0.0
 40
2.303869
100
AcDbArc
 50
121.914013
 51
247.622356
  0
ARC
  5
48A
100
AcDbEntity
  8
2
100
AcDbCircle
 10
-146.214145
 20
339.951047
 30
0.0
 40
0.812361
100
AcDbArc
 50
180.0
 51
259.324392
  0
LINE
  5
48B
100
AcDbEntity
  8
2
100
AcDbLine
 10
-144.526506
 20
336.371689
 30
0.0
 11
-144.526506
 21
322.110752
 31
0.0
  0
ARC
  5
48C
100
AcDbEntity
  8
2
100
AcDbCircle
 10
-147.526506
 20
326.481116
 30
0.0
 40
3.0
100
AcDbArc
 50
301.914013
 51
360.0
  0
ARC
  5
48D
100
AcDbEntity
  8
2
100
AcDbCircle
 10
-147.526506
 20
336.371689
 30
0.0
 40
3.0
100
AcDbArc
 50
0.0
 51
69.864689
  0
ARC
  5
48E
100
AcDbEntity
  8
2
100
AcDbCircle
 10
-136.325128
 20
310.789196
 30
0.0
 40
15.696848
100
AcDbArc
 50
236.854844
 51
257.715872
  0
ARC
  5
48F
100
AcDbEntity
  8
2
100
AcDbCircle
 10
-136.40728
 20
334.679104
 30
0.0
 40
21.482429
100
AcDbArc
 50
245.142987
 51
263.85852
  0
LINE
  5
490
100
AcDbEntity
  8
2
100
AcDbLine
 10
-136.026506
 20
310.337186
 30
0.0
 11
-136.026506
 21
298.383049
 31
0.0
  0
ARC
  5
491
100
AcDbEntity
  8
2
100
AcDbCircle
 10
-139.026506
 20
298.383049
 30
0.0
 40
3.0
100
AcDbArc
 50
257.715872
 51
360.0
  0
ARC
  5
492
100
AcDbEntity
  8
2
100
AcDbCircle
 10
-139.026506
 20
310.337186
 30
0.0
 40
3.0
100
AcDbArc
 50
0.0
 51
83.85852
  0
ARC
  5
493
100
AcDbEntity
  8
2
100
AcDbCircle
 10
-144.285213
 20
317.674153
 30
0.0
 40
2.741293
100
AcDbArc
 50
180.0
 51
245.142987
  0
ARC
  5
494
100
AcDbEntity
  8
2
100
AcDbCircle
 10
-142.351396
 20
301.560827
 30
0.0
 40
4.67511
100
AcDbArc
 50
132.397626
 51
236.854844
  0
LINE
  5
495
100
AcDbEntity
  8
2
100
AcDbLine
 10
-144.526506
 20
314.790089
 30
0.0
 11
-144.526506
 21
300.450232
 31
0.0
  0
ARC
  5
496
100
AcDbEntity
  8
2
100
AcDbCircle
 10
-147.526506
 20
307.228768
 30
0.0
 40
3.0
100
AcDbArc
 50
312.397626
 51
360.0
  0
LINE
  5
497
100
AcDbEntity
  8
2
100
AcDbLine
 10
-147.026506
 20
321.978967
 30
0.0
 11
-147.026506
 21
317.674153
 31
0.0
  0
ARC
  5
498
100
AcDbEntity
  8
2
100
AcDbCircle
 10
-136.207203
 20
288.931194
 30
0.0
 40
12.773353
100
AcDbArc
 50
229.656627
 51
256.952479
  0
ARC
  5
499
100
AcDbEntity
  8
2
100
AcDbCircle
 10
-136.302063
 20
305.817763
 30
0.0
 40
14.878639
100
AcDbArc
 50
235.156706
 51
261.234814
  0
LINE
  5
49A
100
AcDbEntity
  8
2
100
AcDbLine
 10
-136.026506
 20
288.147925
 30
0.0
 11
-136.026506
 21
278.923066
 31
0.0
  0
ARC
  5
49B
100
AcDbEntity
  8
2
100
AcDbCircle
 10
-139.026506
 20
288.147925
 30
0.0
 40
3.0
100
AcDbArc
 50
0.0
 51
81.234814
  0
ARC
  5
49C
100
AcDbEntity
  8
2
100
AcDbCircle
 10
-138.526506
 20
278.923066
 30
0.0
 40
2.5
100
AcDbArc
 50
256.952479
 51
360.0
  0
ARC
  5
49D
100
AcDbEntity
  8
2
100
AcDbCircle
 10
-139.794466
 20
284.707724
 30
0.0
 40
7.23204
100
AcDbArc
 50
139.0839
 51
229.656627
  0
ARC
  5
49E
100
AcDbEntity
  8
2
100
AcDbCircle
 10
-141.838851
 20
297.8642
 30
0.0
 40
5.187654
100
AcDbArc
 50
180.0
 51
235.156706
  0
LINE
  5
49F
100
AcDbEntity
  8
2
100
AcDbLine
 10
-147.026506
 20
301.560827
 30
0.0
 11
-147.026506
 21
297.8642
 31
0.0
  0
LINE
  5
4A0
100
AcDbEntity
  8
2
100
AcDbLine
 10
-144.526506
 20
293.418874
 30
0.0
 11
-144.526506
 21
282.903675
 31
0.0
  0
ARC
  5
4A1
100
AcDbEntity
  8
2
100
AcDbCircle
 10
-147.526506
 20
291.409232
 30
0.0
 40
3.0
100
AcDbArc
 50
319.0839
 51
360.0
  0
LINE
  5
4A2
100
AcDbEntity
  8
2
100
AcDbLine
 10
-136.026506
 20
270.65579
 30
0.0
 11
-136.026506
 21
265.349734
 31
0.0
  0
LINE
  5
4A3
100
AcDbEntity
  8
2
100
AcDbLine
 10
-136.026506
 20
258.231454
 30
0.0
 11
-136.026506
 21
257.325615
 31
0.0
  0
ARC
  5
4A4
100
AcDbEntity
  8
2
100
AcDbCircle
 10
-136.101986
 20
274.068976
 30
0.0
 40
11.550053
100
AcDbArc
 50
225.252585
 51
254.460589
  0
ARC
  5
4A5
100
AcDbEntity
  8
2
100
AcDbCircle
 10
-136.184138
 20
285.410426
 30
0.0
 40
12.43941
100
AcDbArc
 50
228.573666
 51
260.979305
  0
ARC
  5
4A6
100
AcDbEntity
  8
2
100
AcDbCircle
 10
-138.526506
 20
265.349734
 30
0.0
 40
2.5
100
AcDbArc
 50
254.460589
 51
360.0
  0
ARC
  5
4A7
100
AcDbEntity
  8
2
100
AcDbCircle
 10
-138.526506
 20
270.65579
 30
0.0
 40
2.5
100
AcDbArc
 50
0.0
 51
80.979305
  0
ARC
  5
4A8
100
AcDbEntity
  8
2
100
AcDbCircle
 10
-139.307276
 20
281.871202
 30
0.0
 40
7.71923
100
AcDbArc
 50
180.0
 51
228.573666
  0
ARC
  5
4A9
100
AcDbEntity
  8
2
100
AcDbCircle
 10
-137.589619
 20
272.568169
 30
0.0
 40
9.436887
100
AcDbArc
 50
148.680306
 51
225.252585
  0
LINE
  5
4AA
100
AcDbEntity
  8
2
100
AcDbLine
 10
-147.026506
 20
284.707724
 30
0.0
 11
-147.026506
 21
281.871202
 31
0.0
  0
LINE
  5
4AB
100
AcDbEntity
  8
2
100
AcDbLine
 10
-144.526506
 20
276.183835
 30
0.0
 11
-144.526506
 21
270.762779
 31
0.0
  0
ARC
  5
4AC
100
AcDbEntity
  8
2
100
AcDbCircle
 10
-136.037671
 20
266.174792
 30
0.0
 40
11.069917
100
AcDbArc
 50
223.095172
 51
257.333361
  0
ARC
  5
4AD
100
AcDbEntity
  8
2
100
AcDbCircle
 10
-136.085102
 20
271.925136
 30
0.0
 40
11.409614
100
AcDbArc
 50
224.654136
 51
259.891126
  0
ARC
  5
4AE
100
AcDbEntity
  8
2
100
AcDbCircle
 10
-138.526506
 20
258.231454
 30
0.0
 40
2.5
100
AcDbArc
 50
0.0
 51
79.891126
  0
ARC
  5
4AF
100
AcDbEntity
  8
2
100
AcDbCircle
 10
-138.026506
 20
257.325615
 30
0.0
 40
2.0
100
AcDbArc
 50
257.333361
 51
360.0
  0
ARC
  5
4B0
100
AcDbEntity
  8
2
100
AcDbCircle
 10
-136.257139
 20
265.969452
 30
0.0
 40
10.769367
100
AcDbArc
 50
166.761975
 51
223.095172
  0
ARC
  5
4B1
100
AcDbEntity
  8
2
100
AcDbCircle
 10
-137.239028
 20
270.785057
 30
0.0
 40
9.787478
100
AcDbArc
 50
180.0
 51
224.654136
  0
LINE
  5
4B2
100
AcDbEntity
  8
2
100
AcDbLine
 10
-147.026506
 20
272.568169
 30
0.0
 11
-147.026506
 21
270.785057
 31
0.0
  0
LINE
  5
4B3
100
AcDbEntity
  8
2
100
AcDbLine
 10
-147.026506
 20
265.969452
 30
0.0
 11
-147.026506
 21
264.873715
 31
0.0
  0
LINE
  5
4B4
100
AcDbEntity
  8
2
100
AcDbLine
 10
-123.026506
 20
373.873715
 30
0.0
 11
-123.026506
 21
333.873715
 31
0.0
  0
LINE
  5
4B5
100
AcDbEntity
  8
2
100
AcDbLine
 10
-125.026506
 20
373.873715
 30
0.0
 11
-122.526506
 21
373.873715
 31
0.0
  0
LINE
  5
4B6
100
AcDbEntity
  8
2
100
AcDbLine
 10
-125.026506
 20
333.873715
 30
0.0
 11
-122.526506
 21
333.873715
 31
0.0
  0
LINE
  5
4B7
100
AcDbEntity
  8
2
100
AcDbLine
 10
-122.526506
 20
373.873715
 30
0.0
 11
-122.526506
 21
333.873715
 31
0.0
  0
LINE
  5
4B8
100
AcDbEntity
  8
2
100
AcDbLine
 10
-120.526506
 20
361.373715
 30
0.0
 11
-115.748194
 21
361.373715
 31
0.0
  0
LINE
  5
4B9
100
AcDbEntity
  8
2
100
AcDbLine
 10
-115.748194
 20
361.373715
 30
0.0
 11
-115.026506
 21
360.123715
 31
0.0
  0
LINE
  5
4BA
100
AcDbEntity
  8
2
100
AcDbLine
 10
-120.526506
 20
357.623715
 30
0.0
 11
-115.748194
 21
357.623715
 31
0.0
  0
ARC
  5
4BB
100
AcDbEntity
  8
2
100
AcDbCircle
 10
-118.15857
 20
359.498715
 30
0.0
 40
3.053774
100
AcDbArc
 50
322.121121
 51
37.878879
  0
ARC
  5
4BC
100
AcDbEntity
  8
2
100
AcDbCircle
 10
-126.354796
 20
353.873715
 30
0.0
 40
11.25
100
AcDbArc
 50
340.528779
 51
19.471221
  0
LINE
  5
4BD
100
AcDbEntity
  8
2
100
AcDbLine
 10
-120.526506
 20
346.373715
 30
0.0
 11
-115.748194
 21
346.373715
 31
0.0
  0
LINE
  5
4BE
100
AcDbEntity
  8
2
100
AcDbLine
 10
-115.748194
 20
346.373715
 30
0.0
 11
-115.026506
 21
347.623715
 31
0.0
  0
LINE
  5
4BF
100
AcDbEntity
  8
2
100
AcDbLine
 10
-115.026506
 20
347.623715
 30
0.0
 11
-115.026506
 21
360.123715
 31
0.0
  0
LINE
  5
4C0
100
AcDbEntity
  8
2
100
AcDbLine
 10
-120.526506
 20
350.123715
 30
0.0
 11
-115.748194
 21
350.123715
 31
0.0
  0
ARC
  5
4C1
100
AcDbEntity
  8
2
100
AcDbCircle
 10
-118.15857
 20
348.248715
 30
0.0
 40
3.053774
100
AcDbArc
 50
322.121121
 51
37.878879
  0
LINE
  5
4C2
100
AcDbEntity
  8
2
100
AcDbLine
 10
-122.526506
 20
361.573715
 30
0.0
 11
-120.526506
 21
361.573715
 31
0.0
  0
LINE
  5
4C3
100
AcDbEntity
  8
2
100
AcDbLine
 10
-120.526506
 20
361.573715
 30
0.0
 11
-120.526506
 21
346.173715
 31
0.0
  0
LINE
  5
4C4
100
AcDbEntity
  8
2
100
AcDbLine
 10
-120.526506
 20
346.173715
 30
0.0
 11
-122.526506
 21
346.173715
 31
0.0
  0
LINE
  5
4C5
100
AcDbEntity
  8
2
100
AcDbLine
 10
-120.526506
 20
353.873715
 30
0.0
 11
-122.526506
 21
353.373715
 31
0.0
  0
LINE
  5
4C6
100
AcDbEntity
  8
2
100
AcDbLine
 10
-122.526506
 20
353.873715
 30
0.0
 11
-120.526506
 21
354.373715
 31
0.0
  0
LINE
  5
4C7
100
AcDbEntity
  8
2
100
AcDbLine
 10
-253.026506
 20
345.873715
 30
0.0
 11
-147.026506
 21
345.873715
 31
0.0
  0
LINE
  5
4C8
100
AcDbEntity
  8
2
100
AcDbLine
 10
-253.026506
 20
361.873715
 30
0.0
 11
-147.026506
 21
361.873715
 31
0.0
  0
LINE
  5
4C9
100
AcDbEntity
  8
2
100
AcDbLine
 10
-249.026506
 20
46.331011
 30
0.0
 11
-147.026506
 21
46.331011
 31
0.0
  0
LINE
  5
4CA
100
AcDbEntity
  8
2
100
AcDbLine
 10
-249.026506
 20
30.331011
 30
0.0
 11
-147.026506
 21
30.331011
 31
0.0
  0
LINE
  5
4CB
100
AcDbEntity
  8
2
100
AcDbLine
 10
-125.026506
 20
127.331011
 30
0.0
 11
-125.026506
 21
-50.668989
 31
0.0
  0
ARC
  5
4CC
100
AcDbEntity
  8
2
100
AcDbCircle
 10
-136.026506
 20
127.331011
 30
0.0
 40
11.0
100
AcDbArc
 50
0.0
 51
180.0
  0
ARC
  5
4CD
100
AcDbEntity
  8
2
100
AcDbCircle
 10
-136.477775
 20
-30.78517
 30
0.0
 40
79.570307
100
AcDbArc
 50
91.907508
 51
97.294014
  0
ARC
  5
4CE
100
AcDbEntity
  8
2
100
AcDbCircle
 10
-136.477775
 20
107.447192
 30
0.0
 40
79.570307
100
AcDbArc
 50
262.705986
 51
268.092492
  0
LINE
  5
4CF
100
AcDbEntity
  8
2
100
AcDbLine
 10
-136.026506
 20
30.919316
 30
0.0
 11
-136.026506
 21
45.742707
 31
0.0
  0
ARC
  5
4D0
100
AcDbEntity
  8
2
100
AcDbCircle
 10
-139.026506
 20
45.742707
 30
0.0
 40
3.0
100
AcDbArc
 50
0.0
 51
91.907508
  0
ARC
  5
4D1
100
AcDbEntity
  8
2
100
AcDbCircle
 10
-139.026506
 20
30.919316
 30
0.0
 40
3.0
100
AcDbArc
 50
268.092492
 51
360.0
  0
ARC
  5
4D2
100
AcDbEntity
  8
2
100
AcDbCircle
 10
-146.515181
 20
29.027978
 30
0.0
 40
0.511325
100
AcDbArc
 50
106.739333
 51
262.705986
  0
ARC
  5
4D3
100
AcDbEntity
  8
2
100
AcDbCircle
 10
-146.515181
 20
47.634044
 30
0.0
 40
0.511325
100
AcDbArc
 50
97.294014
 51
253.260667
  0
LINE
  5
4D4
100
AcDbEntity
  8
2
100
AcDbLine
 10
-144.526506
 20
32.39051
 30
0.0
 11
-144.526506
 21
44.271512
 31
0.0
  0
ARC
  5
4D5
100
AcDbEntity
  8
2
100
AcDbCircle
 10
-147.526506
 20
44.271512
 30
0.0
 40
3.0
100
AcDbArc
 50
0.0
 51
73.260667
  0
ARC
  5
4D6
100
AcDbEntity
  8
2
100
AcDbCircle
 10
-147.526506
 20
32.39051
 30
0.0
 40
3.0
100
AcDbArc
 50
286.739333
 51
360.0
  0
ARC
  5
4D7
100
AcDbEntity
  8
2
100
AcDbCircle
 10
-136.424165
 20
50.069837
 30
0.0
 40
24.10125
100
AcDbArc
 50
97.084118
 51
112.377644
  0
ARC
  5
4D8
100
AcDbEntity
  8
2
100
AcDbCircle
 10
-136.471595
 20
0.572101
 30
0.0
 40
53.404212
100
AcDbArc
 50
92.596184
 51
100.675608
  0
LINE
  5
4D9
100
AcDbEntity
  8
2
100
AcDbLine
 10
-136.026506
 20
56.918418
 30
0.0
 11
-136.026506
 21
71.010003
 31
0.0
  0
ARC
  5
4DA
100
AcDbEntity
  8
2
100
AcDbCircle
 10
-139.026506
 20
71.010003
 30
0.0
 40
3.0
100
AcDbArc
 50
0.0
 51
97.084118
  0
ARC
  5
4DB
100
AcDbEntity
  8
2
100
AcDbCircle
 10
-139.026506
 20
56.918418
 30
0.0
 40
3.0
100
AcDbArc
 50
272.596184
 51
360.0
  0
ARC
  5
4DC
100
AcDbEntity
  8
2
100
AcDbCircle
 10
-144.722637
 20
70.225759
 30
0.0
 40
2.303869
100
AcDbArc
 50
112.377644
 51
238.085987
  0
ARC
  5
4DD
100
AcDbEntity
  8
2
100
AcDbCircle
 10
-146.214145
 20
52.253678
 30
0.0
 40
0.812361
100
AcDbArc
 50
100.675608
 51
180.0
  0
LINE
  5
4DE
100
AcDbEntity
  8
2
100
AcDbLine
 10
-147.026506
 20
19.331011
 30
0.0
 11
-147.026506
 21
57.331011
 31
0.0
  0
LINE
  5
4DF
100
AcDbEntity
  8
2
100
AcDbLine
 10
-144.526506
 20
55.833037
 30
0.0
 11
-144.526506
 21
70.093974
 31
0.0
  0
ARC
  5
4E0
100
AcDbEntity
  8
2
100
AcDbCircle
 10
-147.526506
 20
65.72361
 30
0.0
 40
3.0
100
AcDbArc
 50
0.0
 51
58.085987
  0
ARC
  5
4E1
100
AcDbEntity
  8
2
100
AcDbCircle
 10
-147.526506
 20
55.833037
 30
0.0
 40
3.0
100
AcDbArc
 50
290.135311
 51
360.0
  0
ARC
  5
4E2
100
AcDbEntity
  8
2
100
AcDbCircle
 10
-136.325128
 20
81.415529
 30
0.0
 40
15.696848
100
AcDbArc
 50
102.284128
 51
123.145156
  0
ARC
  5
4E3
100
AcDbEntity
  8
2
100
AcDbCircle
 10
-136.40728
 20
57.525622
 30
0.0
 40
21.482429
100
AcDbArc
 50
96.14148
 51
114.857013
  0
LINE
  5
4E4
100
AcDbEntity
  8
2
100
AcDbLine
 10
-136.026506
 20
81.867539
 30
0.0
 11
-136.026506
 21
93.821677
 31
0.0
  0
ARC
  5
4E5
100
AcDbEntity
  8
2
100
AcDbCircle
 10
-139.026506
 20
93.821677
 30
0.0
 40
3.0
100
AcDbArc
 50
0.0
 51
102.284128
  0
ARC
  5
4E6
100
AcDbEntity
  8
2
100
AcDbCircle
 10
-139.026506
 20
81.867539
 30
0.0
 40
3.0
100
AcDbArc
 50
276.14148
 51
360.0
  0
ARC
  5
4E7
100
AcDbEntity
  8
2
100
AcDbCircle
 10
-144.285213
 20
74.530572
 30
0.0
 40
2.741293
100
AcDbArc
 50
114.857013
 51
180.0
  0
ARC
  5
4E8
100
AcDbEntity
  8
2
100
AcDbCircle
 10
-142.351396
 20
90.643899
 30
0.0
 40
4.67511
100
AcDbArc
 50
123.145156
 51
227.602374
  0
LINE
  5
4E9
100
AcDbEntity
  8
2
100
AcDbLine
 10
-144.526506
 20
77.414636
 30
0.0
 11
-144.526506
 21
91.754494
 31
0.0
  0
ARC
  5
4EA
100
AcDbEntity
  8
2
100
AcDbCircle
 10
-147.526506
 20
84.975958
 30
0.0
 40
3.0
100
AcDbArc
 50
0.0
 51
47.602374
  0
LINE
  5
4EB
100
AcDbEntity
  8
2
100
AcDbLine
 10
-147.026506
 20
70.225759
 30
0.0
 11
-147.026506
 21
74.530572
 31
0.0
  0
ARC
  5
4EC
100
AcDbEntity
  8
2
100
AcDbCircle
 10
-136.207203
 20
103.273532
 30
0.0
 40
12.773353
100
AcDbArc
 50
103.047521
 51
130.343373
  0
ARC
  5
4ED
100
AcDbEntity
  8
2
100
AcDbCircle
 10
-136.302063
 20
86.386963
 30
0.0
 40
14.878639
100
AcDbArc
 50
98.765186
 51
124.843294
  0
LINE
  5
4EE
100
AcDbEntity
  8
2
100
AcDbLine
 10
-136.026506
 20
104.0568
 30
0.0
 11
-136.026506
 21
113.28166
 31
0.0
  0
ARC
  5
4EF
100
AcDbEntity
  8
2
100
AcDbCircle
 10
-139.026506
 20
104.0568
 30
0.0
 40
3.0
100
AcDbArc
 50
278.765186
 51
360.0
  0
ARC
  5
4F0
100
AcDbEntity
  8
2
100
AcDbCircle
 10
-138.526506
 20
113.28166
 30
0.0
 40
2.5
100
AcDbArc
 50
0.0
 51
103.047521
  0
ARC
  5
4F1
100
AcDbEntity
  8
2
100
AcDbCircle
 10
-139.794466
 20
107.497002
 30
0.0
 40
7.23204
100
AcDbArc
 50
130.343373
 51
220.9161
  0
ARC
  5
4F2
100
AcDbEntity
  8
2
100
AcDbCircle
 10
-141.838851
 20
94.340526
 30
0.0
 40
5.187654
100
AcDbArc
 50
124.843294
 51
180.0
  0
LINE
  5
4F3
100
AcDbEntity
  8
2
100
AcDbLine
 10
-147.026506
 20
90.643899
 30
0.0
 11
-147.026506
 21
94.340526
 31
0.0
  0
LINE
  5
4F4
100
AcDbEntity
  8
2
100
AcDbLine
 10
-144.526506
 20
98.785852
 30
0.0
 11
-144.526506
 21
109.301051
 31
0.0
  0
ARC
  5
4F5
100
AcDbEntity
  8
2
100
AcDbCircle
 10
-147.526506
 20
100.795494
 30
0.0
 40
3.0
100
AcDbArc
 50
0.0
 51
40.9161
  0
LINE
  5
4F6
100
AcDbEntity
  8
2
100
AcDbLine
 10
-136.026506
 20
121.548935
 30
0.0
 11
-136.026506
 21
126.854991
 31
0.0
  0
LINE
  5
4F7
100
AcDbEntity
  8
2
100
AcDbLine
 10
-136.026506
 20
133.973271
 30
0.0
 11
-136.026506
 21
134.879111
 31
0.0
  0
ARC
  5
4F8
100
AcDbEntity
  8
2
100
AcDbCircle
 10
-136.101986
 20
118.13575
 30
0.0
 40
11.550053
100
AcDbArc
 50
105.539411
 51
134.747415
  0
ARC
  5
4F9
100
AcDbEntity
  8
2
100
AcDbCircle
 10
-136.184138
 20
106.794299
 30
0.0
 40
12.43941
100
AcDbArc
 50
99.020695
 51
131.426334
  0
ARC
  5
4FA
100
AcDbEntity
  8
2
100
AcDbCircle
 10
-138.526506
 20
126.854991
 30
0.0
 40
2.5
100
AcDbArc
 50
0.0
 51
105.539411
  0
ARC
  5
4FB
100
AcDbEntity
  8
2
100
AcDbCircle
 10
-138.526506
 20
121.548935
 30
0.0
 40
2.5
100
AcDbArc
 50
279.020695
 51
360.0
  0
ARC
  5
4FC
100
AcDbEntity
  8
2
100
AcDbCircle
 10
-139.307276
 20
110.333524
 30
0.0
 40
7.71923
100
AcDbArc
 50
131.426334
 51
180.0
  0
ARC
  5
4FD
100
AcDbEntity
  8
2
100
AcDbCircle
 10
-137.589619
 20
119.636557
 30
0.0
 40
9.436887
100
AcDbArc
 50
134.747415
 51
211.319694
  0
LINE
  5
4FE
100
AcDbEntity
  8
2
100
AcDbLine
 10
-147.026506
 20
107.497002
 30
0.0
 11
-147.026506
 21
110.333524
 31
0.0
  0
LINE
  5
4FF
100
AcDbEntity
  8
2
100
AcDbLine
 10
-144.526506
 20
116.020891
 30
0.0
 11
-144.526506
 21
121.441947
 31
0.0
  0
ARC
  5
500
100
AcDbEntity
  8
2
100
AcDbCircle
 10
-136.037671
 20
126.029933
 30
0.0
 40
11.069917
100
AcDbArc
 50
102.666639
 51
136.904828
  0
ARC
  5
501
100
AcDbEntity
  8
2
100
AcDbCircle
 10
-136.085102
 20
120.27959
 30
0.0
 40
11.409614
100
AcDbArc
 50
100.108874
 51
135.345864
  0
ARC
  5
502
100
AcDbEntity
  8
2
100
AcDbCircle
 10
-138.526506
 20
133.973271
 30
0.0
 40
2.5
100
AcDbArc
 50
280.108874
 51
360.0
  0
ARC
  5
503
100
AcDbEntity
  8
2
100
AcDbCircle
 10
-138.026506
 20
134.879111
 30
0.0
 40
2.0
100
AcDbArc
 50
0.0
 51
102.666639
  0
ARC
  5
504
100
AcDbEntity
  8
2
100
AcDbCircle
 10
-136.257139
 20
126.235273
 30
0.0
 40
10.769367
100
AcDbArc
 50
136.904828
 51
193.238025
  0
ARC
  5
505
100
AcDbEntity
  8
2
100
AcDbCircle
 10
-137.239028
 20
121.419669
 30
0.0
 40
9.787478
100
AcDbArc
 50
135.345864
 51
180.0
  0
LINE
  5
506
100
AcDbEntity
  8
2
100
AcDbLine
 10
-147.026506
 20
119.636557
 30
0.0
 11
-147.026506
 21
121.419669
 31
0.0
  0
LINE
  5
507
100
AcDbEntity
  8
2
100
AcDbLine
 10
-147.026506
 20
126.235273
 30
0.0
 11
-147.026506
 21
127.331011
 31
0.0
  0
ARC
  5
508
100
AcDbEntity
  8
2
100
AcDbCircle
 10
-136.026506
 20
41.795297
 30
0.0
 40
19.035714
100
AcDbArc
 50
116.52121
 51
125.300248
  0
ARC
  5
509
100
AcDbEntity
  8
2
100
AcDbCircle
 10
-136.026506
 20
34.866725
 30
0.0
 40
19.035714
100
AcDbArc
 50
234.699752
 51
243.47879
  0
ARC
  5
50A
100
AcDbEntity
  8
2
100
AcDbCircle
 10
-136.424165
 20
26.592185
 30
0.0
 40
24.10125
100
AcDbArc
 50
247.622356
 51
262.915882
  0
ARC
  5
50B
100
AcDbEntity
  8
2
100
AcDbCircle
 10
-136.471595
 20
76.089922
 30
0.0
 40
53.404212
100
AcDbArc
 50
259.324392
 51
267.403816
  0
LINE
  5
50C
100
AcDbEntity
  8
2
100
AcDbLine
 10
-136.026506
 20
19.743604
 30
0.0
 11
-136.026506
 21
5.652019
 31
0.0
  0
ARC
  5
50D
100
AcDbEntity
  8
2
100
AcDbCircle
 10
-139.026506
 20
5.652019
 30
0.0
 40
3.0
100
AcDbArc
 50
262.915882
 51
360.0
  0
ARC
  5
50E
100
AcDbEntity
  8
2
100
AcDbCircle
 10
-139.026506
 20
19.743604
 30
0.0
 40
3.0
100
AcDbArc
 50
0.0
 51
87.403816
  0
ARC
  5
50F
100
AcDbEntity
  8
2
100
AcDbCircle
 10
-144.722637
 20
6.436264
 30
0.0
 40
2.303869
100
AcDbArc
 50
121.914013
 51
247.622356
  0
ARC
  5
510
100
AcDbEntity
  8
2
100
AcDbCircle
 10
-146.214145
 20
24.408344
 30
0.0
 40
0.812361
100
AcDbArc
 50
180.0
 51
259.324392
  0
LINE
  5
511
100
AcDbEntity
  8
2
100
AcDbLine
 10
-144.526506
 20
20.828986
 30
0.0
 11
-144.526506
 21
6.568048
 31
0.0
  0
ARC
  5
512
100
AcDbEntity
  8
2
100
AcDbCircle
 10
-147.526506
 20
10.938412
 30
0.0
 40
3.0
100
AcDbArc
 50
301.914013
 51
360.0
  0
ARC
  5
513
100
AcDbEntity
  8
2
100
AcDbCircle
 10
-147.526506
 20
20.828986
 30
0.0
 40
3.0
100
AcDbArc
 50
0.0
 51
69.864689
  0
ARC
  5
514
100
AcDbEntity
  8
2
100
AcDbCircle
 10
-136.325128
 20
-4.753507
 30
0.0
 40
15.696848
100
AcDbArc
 50
236.854844
 51
257.715872
  0
ARC
  5
515
100
AcDbEntity
  8
2
100
AcDbCircle
 10
-136.40728
 20
19.136401
 30
0.0
 40
21.482429
100
AcDbArc
 50
245.142987
 51
263.85852
  0
LINE
  5
516
100
AcDbEntity
  8
2
100
AcDbLine
 10
-136.026506
 20
-5.205517
 30
0.0
 11
-136.026506
 21
-17.159655
 31
0.0
  0
ARC
  5
517
100
AcDbEntity
  8
2
100
AcDbCircle
 10
-139.026506
 20
-17.159655
 30
0.0
 40
3.0
100
AcDbArc
 50
257.715872
 51
360.0
  0
ARC
  5
518
100
AcDbEntity
  8
2
100
AcDbCircle
 10
-139.026506
 20
-5.205517
 30
0.0
 40
3.0
100
AcDbArc
 50
0.0
 51
83.85852
  0
ARC
  5
519
100
AcDbEntity
  8
2
100
AcDbCircle
 10
-144.285213
 20
2.13145
 30
0.0
 40
2.741293
100
AcDbArc
 50
180.0
 51
245.142987
  0
ARC
  5
51A
100
AcDbEntity
  8
2
100
AcDbCircle
 10
-142.351396
 20
-13.981876
 30
0.0
 40
4.67511
100
AcDbArc
 50
132.397626
 51
236.854844
  0
LINE
  5
51B
100
AcDbEntity
  8
2
100
AcDbLine
 10
-144.526506
 20
-0.752614
 30
0.0
 11
-144.526506
 21
-15.092472
 31
0.0
  0
ARC
  5
51C
100
AcDbEntity
  8
2
100
AcDbCircle
 10
-147.526506
 20
-8.313936
 30
0.0
 40
3.0
100
AcDbArc
 50
312.397626
 51
360.0
  0
LINE
  5
51D
100
AcDbEntity
  8
2
100
AcDbLine
 10
-147.026506
 20
6.436264
 30
0.0
 11
-147.026506
 21
2.13145
 31
0.0
  0
ARC
  5
51E
100
AcDbEntity
  8
2
100
AcDbCircle
 10
-136.207203
 20
-26.61151
 30
0.0
 40
12.773353
100
AcDbArc
 50
229.656627
 51
256.952479
  0
ARC
  5
51F
100
AcDbEntity
  8
2
100
AcDbCircle
 10
-136.302063
 20
-9.724941
 30
0.0
 40
14.878639
100
AcDbArc
 50
235.156706
 51
261.234814
  0
LINE
  5
520
100
AcDbEntity
  8
2
100
AcDbLine
 10
-136.026506
 20
-27.394778
 30
0.0
 11
-136.026506
 21
-36.619638
 31
0.0
  0
ARC
  5
521
100
AcDbEntity
  8
2
100
AcDbCircle
 10
-139.026506
 20
-27.394778
 30
0.0
 40
3.0
100
AcDbArc
 50
0.0
 51
81.234814
  0
ARC
  5
522
100
AcDbEntity
  8
2
100
AcDbCircle
 10
-138.526506
 20
-36.619638
 30
0.0
 40
2.5
100
AcDbArc
 50
256.952479
 51
360.0
  0
ARC
  5
523
100
AcDbEntity
  8
2
100
AcDbCircle
 10
-139.794466
 20
-30.83498
 30
0.0
 40
7.23204
100
AcDbArc
 50
139.0839
 51
229.656627
  0
ARC
  5
524
100
AcDbEntity
  8
2
100
AcDbCircle
 10
-141.838851
 20
-17.678504
 30
0.0
 40
5.187654
100
AcDbArc
 50
180.0
 51
235.156706
  0
LINE
  5
525
100
AcDbEntity
  8
2
100
AcDbLine
 10
-147.026506
 20
-13.981876
 30
0.0
 11
-147.026506
 21
-17.678504
 31
0.0
  0
LINE
  5
526
100
AcDbEntity
  8
2
100
AcDbLine
 10
-144.526506
 20
-22.12383
 30
0.0
 11
-144.526506
 21
-32.639029
 31
0.0
  0
ARC
  5
527
100
AcDbEntity
  8
2
100
AcDbCircle
 10
-147.526506
 20
-24.133472
 30
0.0
 40
3.0
100
AcDbArc
 50
319.0839
 51
360.0
  0
ARC
  5
528
100
AcDbEntity
  8
2
100
AcDbCircle
 10
-136.184138
 20
-30.132277
 30
0.0
 40
12.43941
100
AcDbArc
 50
228.573666
 51
260.979305
  0
ARC
  5
529
100
AcDbEntity
  8
2
100
AcDbCircle
 10
-139.307276
 20
-33.671501
 30
0.0
 40
7.71923
100
AcDbArc
 50
180.0
 51
228.573666
  0
ARC
  5
52A
100
AcDbEntity
  8
2
100
AcDbCircle
 10
-137.589619
 20
-42.974535
 30
0.0
 40
9.436887
100
AcDbArc
 50
148.680306
 51
225.252585
  0
LINE
  5
52B
100
AcDbEntity
  8
2
100
AcDbLine
 10
-147.026506
 20
-30.83498
 30
0.0
 11
-147.026506
 21
-33.671501
 31
0.0
  0
LINE
  5
52C
100
AcDbEntity
  8
2
100
AcDbLine
 10
-144.526506
 20
-39.358869
 30
0.0
 11
-144.526506
 21
-44.779924
 31
0.0
  0
LINE
  5
52D
100
AcDbEntity
  8
2
100
AcDbLine
 10
-123.026506
 20
58.331011
 30
0.0
 11
-123.026506
 21
18.331011
 31
0.0
  0
LINE
  5
52E
100
AcDbEntity
  8
2
100
AcDbLine
 10
-125.026506
 20
58.331011
 30
0.0
 11
-122.526506
 21
58.331011
 31
0.0
  0
LINE
  5
52F
100
AcDbEntity
  8
2
100
AcDbLine
 10
-125.026506
 20
18.331011
 30
0.0
 11
-122.526506
 21
18.331011
 31
0.0
  0
LINE
  5
530
100
AcDbEntity
  8
2
100
AcDbLine
 10
-122.526506
 20
58.331011
 30
0.0
 11
-122.526506
 21
18.331011
 31
0.0
  0
LINE
  5
531
100
AcDbEntity
  8
2
100
AcDbLine
 10
-120.526506
 20
44.831011
 30
0.0
 11
-115.026506
 21
44.831011
 31
0.0
  0
ARC
  5
532
100
AcDbEntity
  8
2
100
AcDbCircle
 10
-122.705265
 20
41.581011
 30
0.0
 40
7.678759
100
AcDbArc
 50
334.96034
 51
25.03966
  0
LINE
  5
533
100
AcDbEntity
  8
2
100
AcDbLine
 10
-120.526506
 20
31.831011
 30
0.0
 11
-115.026506
 21
31.831011
 31
0.0
  0
LINE
  5
534
100
AcDbEntity
  8
2
100
AcDbLine
 10
-115.026506
 20
31.831011
 30
0.0
 11
-115.026506
 21
44.831011
 31
0.0
  0
LINE
  5
535
100
AcDbEntity
  8
2
100
AcDbLine
 10
-120.526506
 20
38.331011
 30
0.0
 11
-115.748194
 21
38.331011
 31
0.0
  0
ARC
  5
536
100
AcDbEntity
  8
2
100
AcDbCircle
 10
-122.705265
 20
35.081011
 30
0.0
 40
7.678759
100
AcDbArc
 50
334.96034
 51
25.03966
  0
LINE
  5
537
100
AcDbEntity
  8
2
100
AcDbLine
 10
-122.526506
 20
46.031011
 30
0.0
 11
-120.526506
 21
46.031011
 31
0.0
  0
LINE
  5
538
100
AcDbEntity
  8
2
100
AcDbLine
 10
-120.526506
 20
46.031011
 30
0.0
 11
-120.526506
 21
30.631011
 31
0.0
  0
LINE
  5
539
100
AcDbEntity
  8
2
100
AcDbLine
 10
-120.526506
 20
30.631011
 30
0.0
 11
-122.526506
 21
30.631011
 31
0.0
  0
ARC
  5
53A
100
AcDbEntity
  8
2
100
AcDbCircle
 10
-136.026506
 20
-50.668989
 30
0.0
 40
11.0
100
AcDbArc
 50
180.0
 51
360.0
  0
LINE
  5
53B
100
AcDbEntity
  8
2
100
AcDbLine
 10
-136.026506
 20
-44.886913
 30
0.0
 11
-136.026506
 21
-50.192969
 31
0.0
  0
LINE
  5
53C
100
AcDbEntity
  8
2
100
AcDbLine
 10
-136.026506
 20
-57.311249
 30
0.0
 11
-136.026506
 21
-58.217088
 31
0.0
  0
ARC
  5
53D
100
AcDbEntity
  8
2
100
AcDbCircle
 10
-136.101986
 20
-41.473728
 30
0.0
 40
11.550053
100
AcDbArc
 50
225.252585
 51
254.460589
  0
ARC
  5
53E
100
AcDbEntity
  8
2
100
AcDbCircle
 10
-138.526506
 20
-50.192969
 30
0.0
 40
2.5
100
AcDbArc
 50
254.460589
 51
360.0
  0
ARC
  5
53F
100
AcDbEntity
  8
2
100
AcDbCircle
 10
-138.526506
 20
-44.886913
 30
0.0
 40
2.5
100
AcDbArc
 50
0.0
 51
80.979305
  0
ARC
  5
540
100
AcDbEntity
  8
2
100
AcDbCircle
 10
-136.037671
 20
-49.367911
 30
0.0
 40
11.069917
100
AcDbArc
 50
223.095172
 51
257.333361
  0
ARC
  5
541
100
AcDbEntity
  8
2
100
AcDbCircle
 10
-136.085102
 20
-43.617568
 30
0.0
 40
11.409614
100
AcDbArc
 50
224.654136
 51
259.891126
  0
ARC
  5
542
100
AcDbEntity
  8
2
100
AcDbCircle
 10
-138.526506
 20
-57.311249
 30
0.0
 40
2.5
100
AcDbArc
 50
0.0
 51
79.891126
  0
ARC
  5
543
100
AcDbEntity
  8
2
100
AcDbCircle
 10
-138.026506
 20
-58.217088
 30
0.0
 40
2.0
100
AcDbArc
 50
257.333361
 51
360.0
  0
ARC
  5
544
100
AcDbEntity
  8
2
100
AcDbCircle
 10
-136.257139
 20
-49.573251
 30
0.0
 40
10.769367
100
AcDbArc
 50
166.761975
 51
223.095172
  0
ARC
  5
545
100
AcDbEntity
  8
2
100
AcDbCircle
 10
-137.239028
 20
-44.757647
 30
0.0
 40
9.787478
100
AcDbArc
 50
180.0
 51
224.654136
  0
LINE
  5
546
100
AcDbEntity
  8
2
100
AcDbLine
 10
-147.026506
 20
-42.974535
 30
0.0
 11
-147.026506
 21
-44.757647
 31
0.0
  0
LINE
  5
547
100
AcDbEntity
  8
2
100
AcDbLine
 10
-147.026506
 20
-49.573251
 30
0.0
 11
-147.026506
 21
-50.668989
 31
0.0
  0
CIRCLE
  5
548
100
AcDbEntity
  8
2
  6
PHANTOM
 62
     2
100
AcDbCircle
 10
235.280718
 20
38.331011
 30
0.0
 40
100.0
  0
LINE
  5
549
100
AcDbEntity
  8
2
  6
PHANTOM
 62
     2
100
AcDbLine
 10
246.513964
 20
108.687504
 30
0.0
 11
248.194227
 21
59.240657
 31
0.0
  0
LINE
  5
54A
100
AcDbEntity
  8
2
  6
PHANTOM
 62
     2
100
AcDbLine
 10
224.047472
 20
108.687504
 30
0.0
 11
222.36721
 21
59.240657
 31
0.0
  0
LINE
  5
54B
100
AcDbEntity
  8
2
  6
PHANTOM
 62
     2
100
AcDbLine
 10
179.966831
 20
-6.575512
 30
0.0
 11
223.629188
 21
16.692762
 31
0.0
  0
LINE
  5
54C
100
AcDbEntity
  8
2
  6
PHANTOM
 62
     2
100
AcDbLine
 10
168.733585
 20
12.881041
 30
0.0
 11
210.71568
 21
39.059615
 31
0.0
  0
LINE
  5
54D
100
AcDbEntity
  8
2
  6
PHANTOM
 62
     2
100
AcDbLine
 10
290.594606
 20
-6.575512
 30
0.0
 11
246.932248
 21
16.692762
 31
0.0
  0
LINE
  5
54E
100
AcDbEntity
  8
2
  6
PHANTOM
 62
     2
100
AcDbLine
 10
301.827852
 20
12.881041
 30
0.0
 11
259.845757
 21
39.059615
 31
0.0
  0
ARC
  5
54F
100
AcDbEntity
  8
2
  6
PHANTOM
 62
     2
100
AcDbCircle
 10
235.280718
 20
38.331011
 30
0.0
 40
78.0
100
AcDbArc
 50
223.341798
 51
316.658202
  0
ARC
  5
550
100
AcDbEntity
  8
2
  6
PHANTOM
 62
     2
100
AcDbCircle
 10
235.280718
 20
38.331011
 30
0.0
 40
22.5
100
AcDbArc
 50
131.110398
 51
168.889602
  0
ARC
  5
551
100
AcDbEntity
  8
2
  6
PHANTOM
 62
     2
100
AcDbCircle
 10
235.280718
 20
38.331011
 30
0.0
 40
22.5
100
AcDbArc
 50
251.110398
 51
288.889602
  0
ARC
  5
552
100
AcDbEntity
  8
2
  6
PHANTOM
 62
     2
100
AcDbCircle
 10
235.280718
 20
38.331011
 30
0.0
 40
22.5
100
AcDbArc
 50
11.110398
 51
48.889602
  0
ARC
  5
553
100
AcDbEntity
  8
2
  6
PHANTOM
 62
     2
100
AcDbCircle
 10
253.691054
 20
59.427445
 30
0.0
 40
5.5
100
AcDbArc
 50
181.94623
 51
228.889602
  0
ARC
  5
554
100
AcDbEntity
  8
2
  6
PHANTOM
 62
     2
100
AcDbCircle
 10
252.010791
 20
108.874293
 30
0.0
 40
5.5
100
AcDbArc
 50
76.658202
 51
181.94623
  0
ARC
  5
555
100
AcDbEntity
  8
2
  6
PHANTOM
 62
     2
100
AcDbCircle
 10
218.550645
 20
108.874293
 30
0.0
 40
5.5
100
AcDbArc
 50
358.05377
 51
103.341798
  0
ARC
  5
556
100
AcDbEntity
  8
2
  6
PHANTOM
 62
     2
100
AcDbCircle
 10
216.870383
 20
59.427445
 30
0.0
 40
5.5
100
AcDbArc
 50
311.110398
 51
358.05377
  0
ARC
  5
557
100
AcDbEntity
  8
2
  6
PHANTOM
 62
     2
100
AcDbCircle
 10
207.805502
 20
43.726612
 30
0.0
 40
5.5
100
AcDbArc
 50
301.94623
 51
348.889602
  0
ARC
  5
558
100
AcDbEntity
  8
2
  6
PHANTOM
 62
     2
100
AcDbCircle
 10
226.215838
 20
11.838976
 30
0.0
 40
5.5
100
AcDbArc
 50
71.110398
 51
118.05377
  0
ARC
  5
559
100
AcDbEntity
  8
2
  6
PHANTOM
 62
     2
100
AcDbCircle
 10
244.345598
 20
11.838976
 30
0.0
 40
5.5
100
AcDbArc
 50
61.94623
 51
108.889602
  0
ARC
  5
55A
100
AcDbEntity
  8
2
  6
PHANTOM
 62
     2
100
AcDbCircle
 10
262.755934
 20
43.726612
 30
0.0
 40
5.5
100
AcDbArc
 50
191.110398
 51
238.05377
  0
ARC
  5
55B
100
AcDbEntity
  8
2
  6
PHANTOM
 62
     2
100
AcDbCircle
 10
304.738029
 20
17.548038
 30
0.0
 40
5.5
100
AcDbArc
 50
238.05377
 51
343.341798
  0
ARC
  5
55C
100
AcDbEntity
  8
2
  6
PHANTOM
 62
     2
100
AcDbCircle
 10
288.007956
 20
-11.429298
 30
0.0
 40
5.5
100
AcDbArc
 50
316.658202
 51
61.94623
  0
ARC
  5
55D
100
AcDbEntity
  8
2
  6
PHANTOM
 62
     2
100
AcDbCircle
 10
182.55348
 20
-11.429298
 30
0.0
 40
5.5
100
AcDbArc
 50
118.05377
 51
223.341798
  0
ARC
  5
55E
100
AcDbEntity
  8
2
  6
PHANTOM
 62
     2
100
AcDbCircle
 10
165.823407
 20
17.548038
 30
0.0
 40
5.5
100
AcDbArc
 50
196.658202
 51
301.94623
  0
CIRCLE
  5
55F
100
AcDbEntity
  8
2
  6
PHANTOM
 62
     2
100
AcDbCircle
 10
235.280718
 20
38.331011
 30
0.0
 40
20.0
  0
ARC
  5
560
100
AcDbEntity
  8
2
  6
PHANTOM
 62
     2
100
AcDbCircle
 10
235.280718
 20
38.331011
 30
0.0
 40
78.0
100
AcDbArc
 50
321.8928
 51
338.1072
  0
ARC
  5
561
100
AcDbEntity
  8
2
  6
PHANTOM
 62
     2
100
AcDbCircle
 10
235.280718
 20
38.331011
 30
0.0
 40
78.0
100
AcDbArc
 50
343.341798
 51
76.658202
  0
ARC
  5
562
100
AcDbEntity
  8
2
  6
PHANTOM
 62
     2
100
AcDbCircle
 10
235.280718
 20
38.331011
 30
0.0
 40
78.0
100
AcDbArc
 50
81.8928
 51
98.1072
  0
ARC
  5
563
100
AcDbEntity
  8
2
  6
PHANTOM
 62
     2
100
AcDbCircle
 10
235.280718
 20
38.331011
 30
0.0
 40
78.0
100
AcDbArc
 50
103.341798
 51
196.658202
  0
ARC
  5
564
100
AcDbEntity
  8
2
  6
PHANTOM
 62
     2
100
AcDbCircle
 10
235.280718
 20
38.331011
 30
0.0
 40
78.0
100
AcDbArc
 50
201.8928
 51
218.1072
  0
CIRCLE
  5
565
100
AcDbEntity
  8
2
100
AcDbCircle
 10
-313.026506
 20
309.373715
 30
0.0
 40
3.5
  0
LINE
  5
566
100
AcDbEntity
  8
2
100
AcDbLine
 10
-315.126506
 20
308.873715
 30
0.0
 11
-315.126506
 21
309.873715
 31
0.0
  0
LINE
  5
567
100
AcDbEntity
  8
2
100
AcDbLine
 10
-310.926506
 20
308.873715
 30
0.0
 11
-310.926506
 21
309.873715
 31
0.0
  0
LINE
  5
568
100
AcDbEntity
  8
2
100
AcDbLine
 10
-313.526506
 20
311.473715
 30
0.0
 11
-312.526506
 21
311.473715
 31
0.0
  0
LINE
  5
569
100
AcDbEntity
  8
2
100
AcDbLine
 10
-313.526506
 20
307.273715
 30
0.0
 11
-312.526506
 21
307.273715
 31
0.0
  0
LINE
  5
56A
100
AcDbEntity
  8
2
100
AcDbLine
 10
-315.126506
 20
309.873715
 30
0.0
 11
-314.526506
 21
309.873715
 31
0.0
  0
LINE
  5
56B
100
AcDbEntity
  8
2
100
AcDbLine
 10
-311.526506
 20
309.873715
 30
0.0
 11
-310.926506
 21
309.873715
 31
0.0
  0
LINE
  5
56C
100
AcDbEntity
  8
2
100
AcDbLine
 10
-313.526506
 20
307.273715
 30
0.0
 11
-313.526506
 21
307.873715
 31
0.0
  0
LINE
  5
56D
100
AcDbEntity
  8
2
100
AcDbLine
 10
-313.526506
 20
310.873715
 30
0.0
 11
-313.526506
 21
311.473715
 31
0.0
  0
LINE
  5
56E
100
AcDbEntity
  8
2
100
AcDbLine
 10
-315.126506
 20
308.873715
 30
0.0
 11
-314.526506
 21
308.873715
 31
0.0
  0
LINE
  5
56F
100
AcDbEntity
  8
2
100
AcDbLine
 10
-311.526506
 20
308.873715
 30
0.0
 11
-310.926506
 21
308.873715
 31
0.0
  0
LINE
  5
570
100
AcDbEntity
  8
2
100
AcDbLine
 10
-312.526506
 20
307.273715
 30
0.0
 11
-312.526506
 21
307.873715
 31
0.0
  0
LINE
  5
571
100
AcDbEntity
  8
2
100
AcDbLine
 10
-312.526506
 20
310.873715
 30
0.0
 11
-312.526506
 21
311.473715
 31
0.0
  0
ARC
  5
572
100
AcDbEntity
  8
2
100
AcDbCircle
 10
-311.526506
 20
307.873715
 30
0.0
 40
1.0
100
AcDbArc
 50
90.0
 51
180.0
  0
ARC
  5
573
100
AcDbEntity
  8
2
100
AcDbCircle
 10
-314.526506
 20
307.873715
 30
0.0
 40
1.0
100
AcDbArc
 50
0.0
 51
90.0
  0
ARC
  5
574
100
AcDbEntity
  8
2
100
AcDbCircle
 10
-314.526506
 20
310.873715
 30
0.0
 40
1.0
100
AcDbArc
 50
270.0
 51
360.0
  0
ARC
  5
575
100
AcDbEntity
  8
2
100
AcDbCircle
 10
-311.526506
 20
310.873715
 30
0.0
 40
1.0
100
AcDbArc
 50
180.0
 51
270.0
  0
LINE
  5
576
100
AcDbEntity
  8
2
100
AcDbLine
 10
-316.526506
 20
78.831011
 30
0.0
 11
-316.526506
 21
79.810035
 31
0.0
  0
LINE
  5
577
100
AcDbEntity
  8
2
100
AcDbLine
 10
-309.526506
 20
78.831011
 30
0.0
 11
-309.526506
 21
79.810035
 31
0.0
  0
ARC
  5
578
100
AcDbEntity
  8
2
100
AcDbCircle
 10
-313.026506
 20
72.431011
 30
0.0
 40
9.0
100
AcDbArc
 50
73.39845
 51
106.60155
  0
ARC
  5
579
100
AcDbEntity
  8
2
100
AcDbCircle
 10
-310.826506
 20
79.810035
 30
0.0
 40
1.3
100
AcDbArc
 50
0.0
 51
73.39845
  0
ARC
  5
57A
100
AcDbEntity
  8
2
100
AcDbCircle
 10
-315.226506
 20
79.810035
 30
0.0
 40
1.3
100
AcDbArc
 50
106.60155
 51
180.0
  0
LINE
  5
57B
100
AcDbEntity
  8
2
100
AcDbLine
 10
187.280718
 20
78.831011
 30
0.0
 11
187.280718
 21
79.810035
 31
0.0
  0
LINE
  5
57C
100
AcDbEntity
  8
2
100
AcDbLine
 10
194.280718
 20
78.831011
 30
0.0
 11
194.280718
 21
79.810035
 31
0.0
  0
ARC
  5
57D
100
AcDbEntity
  8
2
100
AcDbCircle
 10
190.780718
 20
72.431011
 30
0.0
 40
9.0
100
AcDbArc
 50
73.39845
 51
106.60155
  0
ARC
  5
57E
100
AcDbEntity
  8
2
100
AcDbCircle
 10
192.980718
 20
79.810035
 30
0.0
 40
1.3
100
AcDbArc
 50
0.0
 51
73.39845
  0
ARC
  5
57F
100
AcDbEntity
  8
2
100
AcDbCircle
 10
188.580718
 20
79.810035
 30
0.0
 40
1.3
100
AcDbArc
 50
106.60155
 51
180.0
  0
CIRCLE
  5
580
100
AcDbEntity
  8
2
100
AcDbCircle
 10
-273.026506
 20
237.373715
 30
0.0
 40
6.1
  0
CIRCLE
  5
581
100
AcDbEntity
  8
2
100
AcDbCircle
 10
-273.026506
 20
237.373715
 30
0.0
 40
5.25
  0
LINE
  5
582
100
AcDbEntity
  8
2
100
AcDbLine
 10
-269.926506
 20
236.773715
 30
0.0
 11
-269.926506
 21
237.973715
 31
0.0
  0
LINE
  5
583
100
AcDbEntity
  8
2
100
AcDbLine
 10
-276.126506
 20
236.773715
 30
0.0
 11
-276.126506
 21
237.973715
 31
0.0
  0
LINE
  5
584
100
AcDbEntity
  8
2
100
AcDbLine
 10
-273.626506
 20
240.473715
 30
0.0
 11
-272.426506
 21
240.473715
 31
0.0
  0
LINE
  5
585
100
AcDbEntity
  8
2
100
AcDbLine
 10
-273.626506
 20
234.273715
 30
0.0
 11
-272.426506
 21
234.273715
 31
0.0
  0
LINE
  5
586
100
AcDbEntity
  8
2
100
AcDbLine
 10
-276.126506
 20
237.973715
 30
0.0
 11
-274.826506
 21
237.973715
 31
0.0
  0
LINE
  5
587
100
AcDbEntity
  8
2
100
AcDbLine
 10
-271.226506
 20
237.973715
 30
0.0
 11
-269.926506
 21
237.973715
 31
0.0
  0
LINE
  5
588
100
AcDbEntity
  8
2
100
AcDbLine
 10
-276.126506
 20
236.773715
 30
0.0
 11
-274.826506
 21
236.773715
 31
0.0
  0
LINE
  5
589
100
AcDbEntity
  8
2
100
AcDbLine
 10
-271.226506
 20
236.773715
 30
0.0
 11
-269.926506
 21
236.773715
 31
0.0
  0
LINE
  5
58A
100
AcDbEntity
  8
2
100
AcDbLine
 10
-273.626506
 20
234.273715
 30
0.0
 11
-273.626506
 21
235.573715
 31
0.0
  0
LINE
  5
58B
100
AcDbEntity
  8
2
100
AcDbLine
 10
-273.626506
 20
239.173715
 30
0.0
 11
-273.626506
 21
240.473715
 31
0.0
  0
LINE
  5
58C
100
AcDbEntity
  8
2
100
AcDbLine
 10
-272.426506
 20
234.273715
 30
0.0
 11
-272.426506
 21
235.573715
 31
0.0
  0
LINE
  5
58D
100
AcDbEntity
  8
2
100
AcDbLine
 10
-272.426506
 20
239.173715
 30
0.0
 11
-272.426506
 21
240.473715
 31
0.0
  0
ARC
  5
58E
100
AcDbEntity
  8
2
100
AcDbCircle
 10
-271.226506
 20
239.173715
 30
0.0
 40
1.2
100
AcDbArc
 50
180.0
 51
270.0
  0
ARC
  5
58F
100
AcDbEntity
  8
2
100
AcDbCircle
 10
-274.826506
 20
239.173715
 30
0.0
 40
1.2
100
AcDbArc
 50
270.0
 51
360.0
  0
ARC
  5
590
100
AcDbEntity
  8
2
100
AcDbCircle
 10
-274.826506
 20
235.573715
 30
0.0
 40
1.2
100
AcDbArc
 50
360.0
 51
90.0
  0
ARC
  5
591
100
AcDbEntity
  8
2
100
AcDbCircle
 10
-271.226506
 20
235.573715
 30
0.0
 40
1.2
100
AcDbArc
 50
90.0
 51
180.0
  0
CIRCLE
  5
592
100
AcDbEntity
  8
2
100
AcDbCircle
 10
-353.026506
 20
237.373715
 30
0.0
 40
6.1
  0
CIRCLE
  5
593
100
AcDbEntity
  8
2
100
AcDbCircle
 10
-353.026506
 20
237.373715
 30
0.0
 40
5.25
  0
LINE
  5
594
100
AcDbEntity
  8
2
100
AcDbLine
 10
-349.926506
 20
236.773715
 30
0.0
 11
-349.926506
 21
237.973715
 31
0.0
  0
LINE
  5
595
100
AcDbEntity
  8
2
100
AcDbLine
 10
-356.126506
 20
236.773715
 30
0.0
 11
-356.126506
 21
237.973715
 31
0.0
  0
LINE
  5
596
100
AcDbEntity
  8
2
100
AcDbLine
 10
-353.626506
 20
240.473715
 30
0.0
 11
-352.426506
 21
240.473715
 31
0.0
  0
LINE
  5
597
100
AcDbEntity
  8
2
100
AcDbLine
 10
-353.626506
 20
234.273715
 30
0.0
 11
-352.426506
 21
234.273715
 31
0.0
  0
LINE
  5
598
100
AcDbEntity
  8
2
100
AcDbLine
 10
-356.126506
 20
237.973715
 30
0.0
 11
-354.826506
 21
237.973715
 31
0.0
  0
LINE
  5
599
100
AcDbEntity
  8
2
100
AcDbLine
 10
-351.226506
 20
237.973715
 30
0.0
 11
-349.926506
 21
237.973715
 31
0.0
  0
LINE
  5
59A
100
AcDbEntity
  8
2
100
AcDbLine
 10
-356.126506
 20
236.773715
 30
0.0
 11
-354.826506
 21
236.773715
 31
0.0
  0
LINE
  5
59B
100
AcDbEntity
  8
2
100
AcDbLine
 10
-351.226506
 20
236.773715
 30
0.0
 11
-349.926506
 21
236.773715
 31
0.0
  0
LINE
  5
59C
100
AcDbEntity
  8
2
100
AcDbLine
 10
-353.626506
 20
234.273715
 30
0.0
 11
-353.626506
 21
235.573715
 31
0.0
  0
LINE
  5
59D
100
AcDbEntity
  8
2
100
AcDbLine
 10
-353.626506
 20
239.173715
 30
0.0
 11
-353.626506
 21
240.473715
 31
0.0
  0
LINE
  5
59E
100
AcDbEntity
  8
2
100
AcDbLine
 10
-352.426506
 20
234.273715
 30
0.0
 11
-352.426506
 21
235.573715
 31
0.0
  0
LINE
  5
59F
100
AcDbEntity
  8
2
100
AcDbLine
 10
-352.426506
 20
239.173715
 30
0.0
 11
-352.426506
 21
240.473715
 31
0.0
  0
ARC
  5
5A0
100
AcDbEntity
  8
2
100
AcDbCircle
 10
-351.226506
 20
239.173715
 30
0.0
 40
1.2
100
AcDbArc
 50
180.0
 51
270.0
  0
ARC
  5
5A1
100
AcDbEntity
  8
2
100
AcDbCircle
 10
-354.826506
 20
239.173715
 30
0.0
 40
1.2
100
AcDbArc
 50
270.0
 51
360.0
  0
ARC
  5
5A2
100
AcDbEntity
  8
2
100
AcDbCircle
 10
-354.826506
 20
235.573715
 30
0.0
 40
1.2
100
AcDbArc
 50
360.0
 51
90.0
  0
ARC
  5
5A3
100
AcDbEntity
  8
2
100
AcDbCircle
 10
-351.226506
 20
235.573715
 30
0.0
 40
1.2
100
AcDbArc
 50
90.0
 51
180.0
  0
CIRCLE
  5
5A4
100
AcDbEntity
  8
2
100
AcDbCircle
 10
-265.026506
 20
331.373715
 30
0.0
 40
6.1
  0
CIRCLE
  5
5A5
100
AcDbEntity
  8
2
100
AcDbCircle
 10
-265.026506
 20
331.373715
 30
0.0
 40
5.25
  0
LINE
  5
5A6
100
AcDbEntity
  8
2
100
AcDbLine
 10
-261.926506
 20
330.773715
 30
0.0
 11
-261.926506
 21
331.973715
 31
0.0
  0
LINE
  5
5A7
100
AcDbEntity
  8
2
100
AcDbLine
 10
-268.126506
 20
330.773715
 30
0.0
 11
-268.126506
 21
331.973715
 31
0.0
  0
LINE
  5
5A8
100
AcDbEntity
  8
2
100
AcDbLine
 10
-265.626506
 20
334.473715
 30
0.0
 11
-264.426506
 21
334.473715
 31
0.0
  0
LINE
  5
5A9
100
AcDbEntity
  8
2
100
AcDbLine
 10
-265.626506
 20
328.273715
 30
0.0
 11
-264.426506
 21
328.273715
 31
0.0
  0
LINE
  5
5AA
100
AcDbEntity
  8
2
100
AcDbLine
 10
-268.126506
 20
331.973715
 30
0.0
 11
-266.826506
 21
331.973715
 31
0.0
  0
LINE
  5
5AB
100
AcDbEntity
  8
2
100
AcDbLine
 10
-263.226506
 20
331.973715
 30
0.0
 11
-261.926506
 21
331.973715
 31
0.0
  0
LINE
  5
5AC
100
AcDbEntity
  8
2
100
AcDbLine
 10
-268.126506
 20
330.773715
 30
0.0
 11
-266.826506
 21
330.773715
 31
0.0
  0
LINE
  5
5AD
100
AcDbEntity
  8
2
100
AcDbLine
 10
-263.226506
 20
330.773715
 30
0.0
 11
-261.926506
 21
330.773715
 31
0.0
  0
LINE
  5
5AE
100
AcDbEntity
  8
2
100
AcDbLine
 10
-265.626506
 20
328.273715
 30
0.0
 11
-265.626506
 21
329.573715
 31
0.0
  0
LINE
  5
5AF
100
AcDbEntity
  8
2
100
AcDbLine
 10
-265.626506
 20
333.173715
 30
0.0
 11
-265.626506
 21
334.473715
 31
0.0
  0
LINE
  5
5B0
100
AcDbEntity
  8
2
100
AcDbLine
 10
-264.426506
 20
328.273715
 30
0.0
 11
-264.426506
 21
329.573715
 31
0.0
  0
LINE
  5
5B1
100
AcDbEntity
  8
2
100
AcDbLine
 10
-264.426506
 20
333.173715
 30
0.0
 11
-264.426506
 21
334.473715
 31
0.0
  0
ARC
  5
5B2
100
AcDbEntity
  8
2
100
AcDbCircle
 10
-263.226506
 20
333.173715
 30
0.0
 40
1.2
100
AcDbArc
 50
180.0
 51
270.0
  0
ARC
  5
5B3
100
AcDbEntity
  8
2
100
AcDbCircle
 10
-266.826506
 20
333.173715
 30
0.0
 40
1.2
100
AcDbArc
 50
270.0
 51
360.0
  0
ARC
  5
5B4
100
AcDbEntity
  8
2
100
AcDbCircle
 10
-266.826506
 20
329.573715
 30
0.0
 40
1.2
100
AcDbArc
 50
360.0
 51
90.0
  0
ARC
  5
5B5
100
AcDbEntity
  8
2
100
AcDbCircle
 10
-263.226506
 20
329.573715
 30
0.0
 40
1.2
100
AcDbArc
 50
90.0
 51
180.0
  0
CIRCLE
  5
5B6
100
AcDbEntity
  8
2
100
AcDbCircle
 10
-361.026506
 20
331.373715
 30
0.0
 40
6.1
  0
CIRCLE
  5
5B7
100
AcDbEntity
  8
2
100
AcDbCircle
 10
-361.026506
 20
331.373715
 30
0.0
 40
5.25
  0
LINE
  5
5B8
100
AcDbEntity
  8
2
100
AcDbLine
 10
-357.926506
 20
330.773715
 30
0.0
 11
-357.926506
 21
331.973715
 31
0.0
  0
LINE
  5
5B9
100
AcDbEntity
  8
2
100
AcDbLine
 10
-364.126506
 20
330.773715
 30
0.0
 11
-364.126506
 21
331.973715
 31
0.0
  0
LINE
  5
5BA
100
AcDbEntity
  8
2
100
AcDbLine
 10
-361.626506
 20
334.473715
 30
0.0
 11
-360.426506
 21
334.473715
 31
0.0
  0
LINE
  5
5BB
100
AcDbEntity
  8
2
100
AcDbLine
 10
-361.626506
 20
328.273715
 30
0.0
 11
-360.426506
 21
328.273715
 31
0.0
  0
LINE
  5
5BC
100
AcDbEntity
  8
2
100
AcDbLine
 10
-364.126506
 20
331.973715
 30
0.0
 11
-362.826506
 21
331.973715
 31
0.0
  0
LINE
  5
5BD
100
AcDbEntity
  8
2
100
AcDbLine
 10
-359.226506
 20
331.973715
 30
0.0
 11
-357.926506
 21
331.973715
 31
0.0
  0
LINE
  5
5BE
100
AcDbEntity
  8
2
100
AcDbLine
 10
-364.126506
 20
330.773715
 30
0.0
 11
-362.826506
 21
330.773715
 31
0.0
  0
LINE
  5
5BF
100
AcDbEntity
  8
2
100
AcDbLine
 10
-359.226506
 20
330.773715
 30
0.0
 11
-357.926506
 21
330.773715
 31
0.0
  0
LINE
  5
5C0
100
AcDbEntity
  8
2
100
AcDbLine
 10
-361.626506
 20
328.273715
 30
0.0
 11
-361.626506
 21
329.573715
 31
0.0
  0
LINE
  5
5C1
100
AcDbEntity
  8
2
100
AcDbLine
 10
-361.626506
 20
333.173715
 30
0.0
 11
-361.626506
 21
334.473715
 31
0.0
  0
LINE
  5
5C2
100
AcDbEntity
  8
2
100
AcDbLine
 10
-360.426506
 20
328.273715
 30
0.0
 11
-360.426506
 21
329.573715
 31
0.0
  0
LINE
  5
5C3
100
AcDbEntity
  8
2
100
AcDbLine
 10
-360.426506
 20
333.173715
 30
0.0
 11
-360.426506
 21
334.473715
 31
0.0
  0
ARC
  5
5C4
100
AcDbEntity
  8
2
100
AcDbCircle
 10
-359.226506
 20
333.173715
 30
0.0
 40
1.2
100
AcDbArc
 50
180.0
 51
270.0
  0
ARC
  5
5C5
100
AcDbEntity
  8
2
100
AcDbCircle
 10
-362.826506
 20
333.173715
 30
0.0
 40
1.2
100
AcDbArc
 50
270.0
 51
360.0
  0
ARC
  5
5C6
100
AcDbEntity
  8
2
100
AcDbCircle
 10
-362.826506
 20
329.573715
 30
0.0
 40
1.2
100
AcDbArc
 50
360.0
 51
90.0
  0
ARC
  5
5C7
100
AcDbEntity
  8
2
100
AcDbCircle
 10
-359.226506
 20
329.573715
 30
0.0
 40
1.2
100
AcDbArc
 50
90.0
 51
180.0
  0
CIRCLE
  5
5C8
100
AcDbEntity
  8
2
100
AcDbCircle
 10
-272.526506
 20
372.373715
 30
0.0
 40
6.1
  0
CIRCLE
  5
5C9
100
AcDbEntity
  8
2
100
AcDbCircle
 10
-272.526506
 20
372.373715
 30
0.0
 40
5.25
  0
LINE
  5
5CA
100
AcDbEntity
  8
2
100
AcDbLine
 10
-269.426506
 20
371.773715
 30
0.0
 11
-269.426506
 21
372.973715
 31
0.0
  0
LINE
  5
5CB
100
AcDbEntity
  8
2
100
AcDbLine
 10
-275.626506
 20
371.773715
 30
0.0
 11
-275.626506
 21
372.973715
 31
0.0
  0
LINE
  5
5CC
100
AcDbEntity
  8
2
100
AcDbLine
 10
-273.126506
 20
375.473715
 30
0.0
 11
-271.926506
 21
375.473715
 31
0.0
  0
LINE
  5
5CD
100
AcDbEntity
  8
2
100
AcDbLine
 10
-273.126506
 20
369.273715
 30
0.0
 11
-271.926506
 21
369.273715
 31
0.0
  0
LINE
  5
5CE
100
AcDbEntity
  8
2
100
AcDbLine
 10
-275.626506
 20
372.973715
 30
0.0
 11
-274.326506
 21
372.973715
 31
0.0
  0
LINE
  5
5CF
100
AcDbEntity
  8
2
100
AcDbLine
 10
-270.726506
 20
372.973715
 30
0.0
 11
-269.426506
 21
372.973715
 31
0.0
  0
LINE
  5
5D0
100
AcDbEntity
  8
2
100
AcDbLine
 10
-275.626506
 20
371.773715
 30
0.0
 11
-274.326506
 21
371.773715
 31
0.0
  0
LINE
  5
5D1
100
AcDbEntity
  8
2
100
AcDbLine
 10
-270.726506
 20
371.773715
 30
0.0
 11
-269.426506
 21
371.773715
 31
0.0
  0
LINE
  5
5D2
100
AcDbEntity
  8
2
100
AcDbLine
 10
-273.126506
 20
369.273715
 30
0.0
 11
-273.126506
 21
370.573715
 31
0.0
  0
LINE
  5
5D3
100
AcDbEntity
  8
2
100
AcDbLine
 10
-273.126506
 20
374.173715
 30
0.0
 11
-273.126506
 21
375.473715
 31
0.0
  0
LINE
  5
5D4
100
AcDbEntity
  8
2
100
AcDbLine
 10
-271.926506
 20
369.273715
 30
0.0
 11
-271.926506
 21
370.573715
 31
0.0
  0
LINE
  5
5D5
100
AcDbEntity
  8
2
100
AcDbLine
 10
-271.926506
 20
374.173715
 30
0.0
 11
-271.926506
 21
375.473715
 31
0.0
  0
ARC
  5
5D6
100
AcDbEntity
  8
2
100
AcDbCircle
 10
-270.726506
 20
374.173715
 30
0.0
 40
1.2
100
AcDbArc
 50
180.0
 51
270.0
  0
ARC
  5
5D7
100
AcDbEntity
  8
2
100
AcDbCircle
 10
-274.326506
 20
374.173715
 30
0.0
 40
1.2
100
AcDbArc
 50
270.0
 51
360.0
  0
ARC
  5
5D8
100
AcDbEntity
  8
2
100
AcDbCircle
 10
-274.326506
 20
370.573715
 30
0.0
 40
1.2
100
AcDbArc
 50
360.0
 51
90.0
  0
ARC
  5
5D9
100
AcDbEntity
  8
2
100
AcDbCircle
 10
-270.726506
 20
370.573715
 30
0.0
 40
1.2
100
AcDbArc
 50
90.0
 51
180.0
  0
CIRCLE
  5
5DA
100
AcDbEntity
  8
2
100
AcDbCircle
 10
-353.526506
 20
372.373715
 30
0.0
 40
6.1
  0
CIRCLE
  5
5DB
100
AcDbEntity
  8
2
100
AcDbCircle
 10
-353.526506
 20
372.373715
 30
0.0
 40
5.25
  0
LINE
  5
5DC
100
AcDbEntity
  8
2
100
AcDbLine
 10
-350.426506
 20
371.773715
 30
0.0
 11
-350.426506
 21
372.973715
 31
0.0
  0
LINE
  5
5DD
100
AcDbEntity
  8
2
100
AcDbLine
 10
-356.626506
 20
371.773715
 30
0.0
 11
-356.626506
 21
372.973715
 31
0.0
  0
LINE
  5
5DE
100
AcDbEntity
  8
2
100
AcDbLine
 10
-354.126506
 20
375.473715
 30
0.0
 11
-352.926506
 21
375.473715
 31
0.0
  0
LINE
  5
5DF
100
AcDbEntity
  8
2
100
AcDbLine
 10
-354.126506
 20
369.273715
 30
0.0
 11
-352.926506
 21
369.273715
 31
0.0
  0
LINE
  5
5E0
100
AcDbEntity
  8
2
100
AcDbLine
 10
-356.626506
 20
372.973715
 30
0.0
 11
-355.326506
 21
372.973715
 31
0.0
  0
LINE
  5
5E1
100
AcDbEntity
  8
2
100
AcDbLine
 10
-351.726506
 20
372.973715
 30
0.0
 11
-350.426506
 21
372.973715
 31
0.0
  0
LINE
  5
5E2
100
AcDbEntity
  8
2
100
AcDbLine
 10
-356.626506
 20
371.773715
 30
0.0
 11
-355.326506
 21
371.773715
 31
0.0
  0
LINE
  5
5E3
100
AcDbEntity
  8
2
100
AcDbLine
 10
-351.726506
 20
371.773715
 30
0.0
 11
-350.426506
 21
371.773715
 31
0.0
  0
LINE
  5
5E4
100
AcDbEntity
  8
2
100
AcDbLine
 10
-354.126506
 20
369.273715
 30
0.0
 11
-354.126506
 21
370.573715
 31
0.0
  0
LINE
  5
5E5
100
AcDbEntity
  8
2
100
AcDbLine
 10
-354.126506
 20
374.173715
 30
0.0
 11
-354.126506
 21
375.473715
 31
0.0
  0
LINE
  5
5E6
100
AcDbEntity
  8
2
100
AcDbLine
 10
-352.926506
 20
369.273715
 30
0.0
 11
-352.926506
 21
370.573715
 31
0.0
  0
LINE
  5
5E7
100
AcDbEntity
  8
2
100
AcDbLine
 10
-352.926506
 20
374.173715
 30
0.0
 11
-352.926506
 21
375.473715
 31
0.0
  0
ARC
  5
5E8
100
AcDbEntity
  8
2
100
AcDbCircle
 10
-351.726506
 20
374.173715
 30
0.0
 40
1.2
100
AcDbArc
 50
180.0
 51
270.0
  0
ARC
  5
5E9
100
AcDbEntity
  8
2
100
AcDbCircle
 10
-355.326506
 20
374.173715
 30
0.0
 40
1.2
100
AcDbArc
 50
270.0
 51
360.0
  0
ARC
  5
5EA
100
AcDbEntity
  8
2
100
AcDbCircle
 10
-355.326506
 20
370.573715
 30
0.0
 40
1.2
100
AcDbArc
 50
360.0
 51
90.0
  0
ARC
  5
5EB
100
AcDbEntity
  8
2
100
AcDbCircle
 10
-351.726506
 20
370.573715
 30
0.0
 40
1.2
100
AcDbArc
 50
90.0
 51
180.0
  0
LINE
  5
5EC
100
AcDbEntity
  8
2
100
AcDbLine
 10
-279.126506
 20
66.131011
 30
0.0
 11
-266.926506
 21
66.131011
 31
0.0
  0
LINE
  5
5ED
100
AcDbEntity
  8
2
100
AcDbLine
 10
-279.126506
 20
66.131011
 30
0.0
 11
-279.126506
 21
64.631011
 31
0.0
  0
LINE
  5
5EE
100
AcDbEntity
  8
2
100
AcDbLine
 10
-266.926506
 20
66.131011
 30
0.0
 11
-266.926506
 21
64.631011
 31
0.0
  0
LINE
  5
5EF
100
AcDbEntity
  8
2
100
AcDbLine
 10
-278.276506
 20
67.658027
 30
0.0
 11
-278.276506
 21
66.131011
 31
0.0
  0
LINE
  5
5F0
100
AcDbEntity
  8
2
100
AcDbLine
 10
-267.776506
 20
67.658027
 30
0.0
 11
-267.776506
 21
66.131011
 31
0.0
  0
ARC
  5
5F1
100
AcDbEntity
  8
2
100
AcDbCircle
 10
-273.026506
 20
56.031011
 30
0.0
 40
14.0
100
AcDbArc
 50
73.927141
 51
106.072859
  0
ARC
  5
5F2
100
AcDbEntity
  8
2
100
AcDbCircle
 10
-269.676506
 20
67.658027
 30
0.0
 40
1.9
100
AcDbArc
 50
0.0
 51
73.927141
  0
ARC
  5
5F3
100
AcDbEntity
  8
2
100
AcDbCircle
 10
-276.376506
 20
67.658027
 30
0.0
 40
1.9
100
AcDbArc
 50
106.072859
 51
180.0
  0
CIRCLE
  5
5F4
100
AcDbEntity
  8
2
100
AcDbCircle
 10
-313.026506
 20
264.373715
 30
0.0
 40
3.5
  0
LINE
  5
5F5
100
AcDbEntity
  8
2
100
AcDbLine
 10
-315.126506
 20
264.873715
 30
0.0
 11
-315.126506
 21
263.873715
 31
0.0
  0
LINE
  5
5F6
100
AcDbEntity
  8
2
100
AcDbLine
 10
-310.926506
 20
264.873715
 30
0.0
 11
-310.926506
 21
263.873715
 31
0.0
  0
LINE
  5
5F7
100
AcDbEntity
  8
2
100
AcDbLine
 10
-313.526506
 20
262.273715
 30
0.0
 11
-312.526506
 21
262.273715
 31
0.0
  0
LINE
  5
5F8
100
AcDbEntity
  8
2
100
AcDbLine
 10
-313.526506
 20
266.473715
 30
0.0
 11
-312.526506
 21
266.473715
 31
0.0
  0
LINE
  5
5F9
100
AcDbEntity
  8
2
100
AcDbLine
 10
-315.126506
 20
263.873715
 30
0.0
 11
-314.526506
 21
263.873715
 31
0.0
  0
LINE
  5
5FA
100
AcDbEntity
  8
2
100
AcDbLine
 10
-311.526506
 20
263.873715
 30
0.0
 11
-310.926506
 21
263.873715
 31
0.0
  0
LINE
  5
5FB
100
AcDbEntity
  8
2
100
AcDbLine
 10
-313.526506
 20
266.473715
 30
0.0
 11
-313.526506
 21
265.873715
 31
0.0
  0
LINE
  5
5FC
100
AcDbEntity
  8
2
100
AcDbLine
 10
-313.526506
 20
262.873715
 30
0.0
 11
-313.526506
 21
262.273715
 31
0.0
  0
LINE
  5
5FD
100
AcDbEntity
  8
2
100
AcDbLine
 10
-315.126506
 20
264.873715
 30
0.0
 11
-314.526506
 21
264.873715
 31
0.0
  0
LINE
  5
5FE
100
AcDbEntity
  8
2
100
AcDbLine
 10
-311.526506
 20
264.873715
 30
0.0
 11
-310.926506
 21
264.873715
 31
0.0
  0
LINE
  5
5FF
100
AcDbEntity
  8
2
100
AcDbLine
 10
-312.526506
 20
266.473715
 30
0.0
 11
-312.526506
 21
265.873715
 31
0.0
  0
LINE
  5
600
100
AcDbEntity
  8
2
100
AcDbLine
 10
-312.526506
 20
262.873715
 30
0.0
 11
-312.526506
 21
262.273715
 31
0.0
  0
ARC
  5
601
100
AcDbEntity
  8
2
100
AcDbCircle
 10
-311.526506
 20
265.873715
 30
0.0
 40
1.0
100
AcDbArc
 50
180.0
 51
270.0
  0
ARC
  5
602
100
AcDbEntity
  8
2
100
AcDbCircle
 10
-314.526506
 20
265.873715
 30
0.0
 40
1.0
100
AcDbArc
 50
270.0
 51
360.0
  0
ARC
  5
603
100
AcDbEntity
  8
2
100
AcDbCircle
 10
-314.526506
 20
262.873715
 30
0.0
 40
1.0
100
AcDbArc
 50
0.0
 51
90.0
  0
ARC
  5
604
100
AcDbEntity
  8
2
100
AcDbCircle
 10
-311.526506
 20
262.873715
 30
0.0
 40
1.0
100
AcDbArc
 50
90.0
 51
180.0
  0
ARC
  5
605
100
AcDbEntity
  8
2
100
AcDbCircle
 10
-265.026506
 20
56.031011
 30
0.0
 40
14.0
100
AcDbArc
 50
73.927141
 51
92.046713
  0
ARC
  5
606
100
AcDbEntity
  8
2
100
AcDbCircle
 10
-261.676506
 20
67.658027
 30
0.0
 40
1.9
100
AcDbArc
 50
30.803602
 51
73.927141
  0
LINE
  5
607
100
AcDbEntity
  8
2
100
AcDbLine
 10
-346.926506
 20
66.131011
 30
0.0
 11
-359.126506
 21
66.131011
 31
0.0
  0
LINE
  5
608
100
AcDbEntity
  8
2
100
AcDbLine
 10
-346.926506
 20
66.131011
 30
0.0
 11
-346.926506
 21
64.631011
 31
0.0
  0
LINE
  5
609
100
AcDbEntity
  8
2
100
AcDbLine
 10
-359.126506
 20
66.131011
 30
0.0
 11
-359.126506
 21
64.631011
 31
0.0
  0
LINE
  5
60A
100
AcDbEntity
  8
2
100
AcDbLine
 10
-347.776506
 20
67.658027
 30
0.0
 11
-347.776506
 21
66.131011
 31
0.0
  0
LINE
  5
60B
100
AcDbEntity
  8
2
100
AcDbLine
 10
-358.276506
 20
67.658027
 30
0.0
 11
-358.276506
 21
66.131011
 31
0.0
  0
ARC
  5
60C
100
AcDbEntity
  8
2
100
AcDbCircle
 10
-353.026506
 20
56.031011
 30
0.0
 40
14.0
100
AcDbArc
 50
73.927141
 51
106.072859
  0
ARC
  5
60D
100
AcDbEntity
  8
2
100
AcDbCircle
 10
-356.376506
 20
67.658027
 30
0.0
 40
1.9
100
AcDbArc
 50
106.072859
 51
180.0
  0
ARC
  5
60E
100
AcDbEntity
  8
2
100
AcDbCircle
 10
-349.676506
 20
67.658027
 30
0.0
 40
1.9
100
AcDbArc
 50
0.0
 51
73.927141
  0
ARC
  5
60F
100
AcDbEntity
  8
2
100
AcDbCircle
 10
-361.026506
 20
56.031011
 30
0.0
 40
14.0
100
AcDbArc
 50
87.953287
 51
106.072859
  0
ARC
  5
610
100
AcDbEntity
  8
2
100
AcDbCircle
 10
-364.376506
 20
67.658027
 30
0.0
 40
1.9
100
AcDbArc
 50
106.072859
 51
149.196398
  0
LINE
  5
611
100
AcDbEntity
  8
2
100
AcDbLine
 10
112.680718
 20
66.131011
 30
0.0
 11
124.880718
 21
66.131011
 31
0.0
  0
LINE
  5
612
100
AcDbEntity
  8
2
100
AcDbLine
 10
112.680718
 20
66.131011
 30
0.0
 11
112.680718
 21
64.631011
 31
0.0
  0
LINE
  5
613
100
AcDbEntity
  8
2
100
AcDbLine
 10
124.880718
 20
66.131011
 30
0.0
 11
124.880718
 21
64.631011
 31
0.0
  0
LINE
  5
614
100
AcDbEntity
  8
2
100
AcDbLine
 10
113.530718
 20
67.658027
 30
0.0
 11
113.530718
 21
66.131011
 31
0.0
  0
LINE
  5
615
100
AcDbEntity
  8
2
100
AcDbLine
 10
124.030718
 20
67.658027
 30
0.0
 11
124.030718
 21
66.131011
 31
0.0
  0
ARC
  5
616
100
AcDbEntity
  8
2
100
AcDbCircle
 10
118.780718
 20
56.031011
 30
0.0
 40
14.0
100
AcDbArc
 50
73.927141
 51
106.072859
  0
ARC
  5
617
100
AcDbEntity
  8
2
100
AcDbCircle
 10
122.130718
 20
67.658027
 30
0.0
 40
1.9
100
AcDbArc
 50
0.0
 51
73.927141
  0
ARC
  5
618
100
AcDbEntity
  8
2
100
AcDbCircle
 10
115.430718
 20
67.658027
 30
0.0
 40
1.9
100
AcDbArc
 50
106.072859
 51
180.0
  0
LINE
  5
619
100
AcDbEntity
  8
2
100
AcDbLine
 10
206.680718
 20
66.131011
 30
0.0
 11
218.880718
 21
66.131011
 31
0.0
  0
LINE
  5
61A
100
AcDbEntity
  8
2
100
AcDbLine
 10
206.680718
 20
66.131011
 30
0.0
 11
206.680718
 21
64.631011
 31
0.0
  0
LINE
  5
61B
100
AcDbEntity
  8
2
100
AcDbLine
 10
218.880718
 20
66.131011
 30
0.0
 11
218.880718
 21
64.631011
 31
0.0
  0
LINE
  5
61C
100
AcDbEntity
  8
2
100
AcDbLine
 10
207.530718
 20
67.658027
 30
0.0
 11
207.530718
 21
66.131011
 31
0.0
  0
LINE
  5
61D
100
AcDbEntity
  8
2
100
AcDbLine
 10
218.030718
 20
67.658027
 30
0.0
 11
218.030718
 21
66.131011
 31
0.0
  0
ARC
  5
61E
100
AcDbEntity
  8
2
100
AcDbCircle
 10
212.780718
 20
56.031011
 30
0.0
 40
14.0
100
AcDbArc
 50
73.927141
 51
106.072859
  0
ARC
  5
61F
100
AcDbEntity
  8
2
100
AcDbCircle
 10
216.130718
 20
67.658027
 30
0.0
 40
1.9
100
AcDbArc
 50
0.0
 51
73.927141
  0
ARC
  5
620
100
AcDbEntity
  8
2
100
AcDbCircle
 10
209.430718
 20
67.658027
 30
0.0
 40
1.9
100
AcDbArc
 50
106.072859
 51
180.0
  0
LINE
  5
621
100
AcDbEntity
  8
2
100
AcDbLine
 10
247.680718
 20
66.131011
 30
0.0
 11
259.880718
 21
66.131011
 31
0.0
  0
LINE
  5
622
100
AcDbEntity
  8
2
100
AcDbLine
 10
247.680718
 20
66.131011
 30
0.0
 11
247.680718
 21
64.631011
 31
0.0
  0
LINE
  5
623
100
AcDbEntity
  8
2
100
AcDbLine
 10
259.880718
 20
66.131011
 30
0.0
 11
259.880718
 21
64.631011
 31
0.0
  0
LINE
  5
624
100
AcDbEntity
  8
2
100
AcDbLine
 10
248.530718
 20
67.658027
 30
0.0
 11
248.530718
 21
66.131011
 31
0.0
  0
LINE
  5
625
100
AcDbEntity
  8
2
100
AcDbLine
 10
259.030718
 20
67.658027
 30
0.0
 11
259.030718
 21
66.131011
 31
0.0
  0
ARC
  5
626
100
AcDbEntity
  8
2
100
AcDbCircle
 10
253.780718
 20
56.031011
 30
0.0
 40
14.0
100
AcDbArc
 50
73.927141
 51
106.072859
  0
ARC
  5
627
100
AcDbEntity
  8
2
100
AcDbCircle
 10
257.130718
 20
67.658027
 30
0.0
 40
1.9
100
AcDbArc
 50
0.0
 51
73.927141
  0
ARC
  5
628
100
AcDbEntity
  8
2
100
AcDbCircle
 10
250.430718
 20
67.658027
 30
0.0
 40
1.9
100
AcDbArc
 50
106.072859
 51
180.0
  0
LINE
  5
629
100
AcDbEntity
  8
2
100
AcDbLine
 10
149.280718
 20
78.831011
 30
0.0
 11
149.280718
 21
79.810035
 31
0.0
  0
LINE
  5
62A
100
AcDbEntity
  8
2
100
AcDbLine
 10
142.280718
 20
78.831011
 30
0.0
 11
142.280718
 21
79.810035
 31
0.0
  0
ARC
  5
62B
100
AcDbEntity
  8
2
100
AcDbCircle
 10
145.780718
 20
72.431011
 30
0.0
 40
9.0
100
AcDbArc
 50
73.39845
 51
106.60155
  0
ARC
  5
62C
100
AcDbEntity
  8
2
100
AcDbCircle
 10
143.580718
 20
79.810035
 30
0.0
 40
1.3
100
AcDbArc
 50
106.60155
 51
180.0
  0
ARC
  5
62D
100
AcDbEntity
  8
2
100
AcDbCircle
 10
147.980718
 20
79.810035
 30
0.0
 40
1.3
100
AcDbArc
 50
0.0
 51
73.39845
  0
CIRCLE
  5
62E
100
AcDbEntity
  8
2
 62
     2
100
AcDbCircle
 10
-290.026506
 20
38.331011
 30
0.0
 40
4.188
  0
CIRCLE
  5
62F
100
AcDbEntity
  8
2
100
AcDbCircle
 10
-290.026506
 20
38.331011
 30
0.0
 40
8.25
  0
CIRCLE
  5
630
100
AcDbEntity
  8
2
100
AcDbCircle
 10
-290.026506
 20
38.331011
 30
0.0
 40
5.0
  0
LINE
  5
631
100
AcDbEntity
  8
2
100
AcDbLine
 10
-294.933983
 20
46.831011
 30
0.0
 11
-285.119029
 21
46.831011
 31
0.0
  0
LINE
  5
632
100
AcDbEntity
  8
2
100
AcDbLine
 10
-294.933983
 20
29.831011
 30
0.0
 11
-285.119029
 21
29.831011
 31
0.0
  0
LINE
  5
633
100
AcDbEntity
  8
2
100
AcDbLine
 10
-299.841461
 20
38.331011
 30
0.0
 11
-294.933983
 21
46.831011
 31
0.0
  0
LINE
  5
634
100
AcDbEntity
  8
2
100
AcDbLine
 10
-285.119029
 20
29.831011
 30
0.0
 11
-280.211551
 21
38.331011
 31
0.0
  0
LINE
  5
635
100
AcDbEntity
  8
2
100
AcDbLine
 10
-294.933983
 20
29.831011
 30
0.0
 11
-299.841461
 21
38.331011
 31
0.0
  0
LINE
  5
636
100
AcDbEntity
  8
2
100
AcDbLine
 10
-280.211551
 20
38.331011
 30
0.0
 11
-285.119029
 21
46.831011
 31
0.0
  0
LINE
  5
637
100
AcDbEntity
  8
2
100
AcDbLine
 10
-292.526506
 20
36.887635
 30
0.0
 11
-292.526506
 21
39.774387
 31
0.0
  0
LINE
  5
638
100
AcDbEntity
  8
2
100
AcDbLine
 10
-287.526506
 20
36.887635
 30
0.0
 11
-287.526506
 21
39.774387
 31
0.0
  0
LINE
  5
639
100
AcDbEntity
  8
2
100
AcDbLine
 10
-287.526506
 20
39.774387
 30
0.0
 11
-290.026506
 21
41.217762
 31
0.0
  0
LINE
  5
63A
100
AcDbEntity
  8
2
100
AcDbLine
 10
-290.026506
 20
35.44426
 30
0.0
 11
-292.526506
 21
36.887635
 31
0.0
  0
LINE
  5
63B
100
AcDbEntity
  8
2
100
AcDbLine
 10
-287.526506
 20
36.887635
 30
0.0
 11
-290.026506
 21
35.44426
 31
0.0
  0
LINE
  5
63C
100
AcDbEntity
  8
2
100
AcDbLine
 10
-290.026506
 20
41.217762
 30
0.0
 11
-292.526506
 21
39.774387
 31
0.0
  0
CIRCLE
  5
63D
100
AcDbEntity
  8
2
 62
     2
100
AcDbCircle
 10
-336.026506
 20
38.331011
 30
0.0
 40
4.188
  0
CIRCLE
  5
63E
100
AcDbEntity
  8
2
100
AcDbCircle
 10
-336.026506
 20
38.331011
 30
0.0
 40
8.25
  0
CIRCLE
  5
63F
100
AcDbEntity
  8
2
100
AcDbCircle
 10
-336.026506
 20
38.331011
 30
0.0
 40
5.0
  0
LINE
  5
640
100
AcDbEntity
  8
2
100
AcDbLine
 10
-331.119029
 20
46.831011
 30
0.0
 11
-340.933983
 21
46.831011
 31
0.0
  0
LINE
  5
641
100
AcDbEntity
  8
2
100
AcDbLine
 10
-331.119029
 20
29.831011
 30
0.0
 11
-340.933983
 21
29.831011
 31
0.0
  0
LINE
  5
642
100
AcDbEntity
  8
2
100
AcDbLine
 10
-326.211551
 20
38.331011
 30
0.0
 11
-331.119029
 21
46.831011
 31
0.0
  0
LINE
  5
643
100
AcDbEntity
  8
2
100
AcDbLine
 10
-340.933983
 20
29.831011
 30
0.0
 11
-345.841461
 21
38.331011
 31
0.0
  0
LINE
  5
644
100
AcDbEntity
  8
2
100
AcDbLine
 10
-331.119029
 20
29.831011
 30
0.0
 11
-326.211551
 21
38.331011
 31
0.0
  0
LINE
  5
645
100
AcDbEntity
  8
2
100
AcDbLine
 10
-345.841461
 20
38.331011
 30
0.0
 11
-340.933983
 21
46.831011
 31
0.0
  0
LINE
  5
646
100
AcDbEntity
  8
2
100
AcDbLine
 10
-333.526506
 20
36.887635
 30
0.0
 11
-333.526506
 21
39.774387
 31
0.0
  0
LINE
  5
647
100
AcDbEntity
  8
2
100
AcDbLine
 10
-338.526506
 20
36.887635
 30
0.0
 11
-338.526506
 21
39.774387
 31
0.0
  0
LINE
  5
648
100
AcDbEntity
  8
2
100
AcDbLine
 10
-338.526506
 20
39.774387
 30
0.0
 11
-336.026506
 21
41.217762
 31
0.0
  0
LINE
  5
649
100
AcDbEntity
  8
2
100
AcDbLine
 10
-336.026506
 20
35.44426
 30
0.0
 11
-333.526506
 21
36.887635
 31
0.0
  0
LINE
  5
64A
100
AcDbEntity
  8
2
100
AcDbLine
 10
-338.526506
 20
36.887635
 30
0.0
 11
-336.026506
 21
35.44426
 31
0.0
  0
LINE
  5
64B
100
AcDbEntity
  8
2
100
AcDbLine
 10
-336.026506
 20
41.217762
 30
0.0
 11
-333.526506
 21
39.774387
 31
0.0
  0
LINE
  5
64C
100
AcDbEntity
  8
2
100
AcDbLine
 10
-280.226506
 20
225.478822
 30
0.0
 11
-280.226506
 21
221.268608
 31
0.0
  0
LINE
  5
64D
100
AcDbEntity
  8
2
100
AcDbLine
 10
-280.226506
 20
221.268608
 30
0.0
 11
-281.776506
 21
220.373715
 31
0.0
  0
LINE
  5
64E
100
AcDbEntity
  8
2
100
AcDbLine
 10
-285.126506
 20
225.478822
 30
0.0
 11
-285.126506
 21
221.268608
 31
0.0
  0
ARC
  5
64F
100
AcDbEntity
  8
2
100
AcDbCircle
 10
-282.676506
 20
224.418166
 30
0.0
 40
3.990265
100
AcDbArc
 50
232.121121
 51
307.878879
  0
ARC
  5
650
100
AcDbEntity
  8
2
100
AcDbCircle
 10
-290.026506
 20
235.127901
 30
0.0
 40
14.7
100
AcDbArc
 50
250.528777
 51
289.471219
  0
LINE
  5
651
100
AcDbEntity
  8
2
100
AcDbLine
 10
-299.826506
 20
225.478822
 30
0.0
 11
-299.826506
 21
221.268608
 31
0.0
  0
LINE
  5
652
100
AcDbEntity
  8
2
100
AcDbLine
 10
-299.826506
 20
221.268608
 30
0.0
 11
-298.276506
 21
220.373715
 31
0.0
  0
LINE
  5
653
100
AcDbEntity
  8
2
100
AcDbLine
 10
-298.276506
 20
220.373715
 30
0.0
 11
-281.776506
 21
220.373715
 31
0.0
  0
LINE
  5
654
100
AcDbEntity
  8
2
100
AcDbLine
 10
-294.926506
 20
225.478822
 30
0.0
 11
-294.926506
 21
221.268608
 31
0.0
  0
ARC
  5
655
100
AcDbEntity
  8
2
100
AcDbCircle
 10
-297.376506
 20
224.418166
 30
0.0
 40
3.990265
100
AcDbArc
 50
232.121121
 51
307.878879
  0
ARC
  5
656
100
AcDbEntity
  8
2
100
AcDbCircle
 10
-282.676506
 20
222.329264
 30
0.0
 40
3.990265
100
AcDbArc
 50
52.121121
 51
127.878879
  0
ARC
  5
657
100
AcDbEntity
  8
2
100
AcDbCircle
 10
-290.026506
 20
211.619529
 30
0.0
 40
14.7
100
AcDbArc
 50
70.528781
 51
109.471223
  0
ARC
  5
658
100
AcDbEntity
  8
2
100
AcDbCircle
 10
-297.376506
 20
222.329264
 30
0.0
 40
3.990265
100
AcDbArc
 50
52.121121
 51
127.878879
  0
LINE
  5
659
100
AcDbEntity
  8
2
100
AcDbLine
 10
-299.826506
 20
225.478822
 30
0.0
 11
-298.276506
 21
226.373715
 31
0.0
  0
LINE
  5
65A
100
AcDbEntity
  8
2
100
AcDbLine
 10
-280.226506
 20
225.478822
 30
0.0
 11
-281.776506
 21
226.373715
 31
0.0
  0
LINE
  5
65B
100
AcDbEntity
  8
2
100
AcDbLine
 10
-294.214506
 20
211.873715
 30
0.0
 11
-295.026506
 21
212.685715
 31
0.0
  0
LINE
  5
65C
100
AcDbEntity
  8
2
100
AcDbLine
 10
-295.026506
 20
212.685715
 30
0.0
 11
-295.026506
 21
220.373715
 31
0.0
  0
LINE
  5
65D
100
AcDbEntity
  8
2
 62
     2
100
AcDbLine
 10
-294.214506
 20
211.873715
 30
0.0
 11
-294.214506
 21
220.373715
 31
0.0
  0
LINE
  5
65E
100
AcDbEntity
  8
2
100
AcDbLine
 10
-285.838506
 20
211.873715
 30
0.0
 11
-294.214506
 21
211.873715
 31
0.0
  0
LINE
  5
65F
100
AcDbEntity
  8
2
100
AcDbLine
 10
-285.838506
 20
211.873715
 30
0.0
 11
-285.026506
 21
212.685715
 31
0.0
  0
LINE
  5
660
100
AcDbEntity
  8
2
100
AcDbLine
 10
-285.026506
 20
212.685715
 30
0.0
 11
-285.026506
 21
220.373715
 31
0.0
  0
LINE
  5
661
100
AcDbEntity
  8
2
100
AcDbLine
 10
-285.026506
 20
212.685715
 30
0.0
 11
-295.026506
 21
212.685715
 31
0.0
  0
LINE
  5
662
100
AcDbEntity
  8
2
 62
     2
100
AcDbLine
 10
-285.838506
 20
211.873715
 30
0.0
 11
-285.838506
 21
220.373715
 31
0.0
  0
LINE
  5
663
100
AcDbEntity
  8
2
100
AcDbLine
 10
-345.826506
 20
221.268608
 30
0.0
 11
-344.276506
 21
220.373715
 31
0.0
  0
LINE
  5
664
100
AcDbEntity
  8
2
100
AcDbLine
 10
-340.926506
 20
225.478822
 30
0.0
 11
-340.926506
 21
221.268608
 31
0.0
  0
ARC
  5
665
100
AcDbEntity
  8
2
100
AcDbCircle
 10
-343.376506
 20
224.418166
 30
0.0
 40
3.990265
100
AcDbArc
 50
232.121121
 51
307.878879
  0
ARC
  5
666
100
AcDbEntity
  8
2
100
AcDbCircle
 10
-336.026506
 20
235.127901
 30
0.0
 40
14.7
100
AcDbArc
 50
250.528781
 51
289.471223
  0
LINE
  5
667
100
AcDbEntity
  8
2
100
AcDbLine
 10
-326.226506
 20
225.478822
 30
0.0
 11
-326.226506
 21
221.268608
 31
0.0
  0
LINE
  5
668
100
AcDbEntity
  8
2
100
AcDbLine
 10
-326.226506
 20
221.268608
 30
0.0
 11
-327.776506
 21
220.373715
 31
0.0
  0
LINE
  5
669
100
AcDbEntity
  8
2
100
AcDbLine
 10
-327.776506
 20
220.373715
 30
0.0
 11
-344.276506
 21
220.373715
 31
0.0
  0
LINE
  5
66A
100
AcDbEntity
  8
2
100
AcDbLine
 10
-331.126506
 20
225.478822
 30
0.0
 11
-331.126506
 21
221.268608
 31
0.0
  0
ARC
  5
66B
100
AcDbEntity
  8
2
100
AcDbCircle
 10
-328.676506
 20
224.418166
 30
0.0
 40
3.990265
100
AcDbArc
 50
232.121121
 51
307.878879
  0
ARC
  5
66C
100
AcDbEntity
  8
2
100
AcDbCircle
 10
-343.376506
 20
222.329264
 30
0.0
 40
3.990265
100
AcDbArc
 50
52.121121
 51
127.878879
  0
ARC
  5
66D
100
AcDbEntity
  8
2
100
AcDbCircle
 10
-336.026506
 20
211.619529
 30
0.0
 40
14.7
100
AcDbArc
 50
70.528777
 51
109.471219
  0
ARC
  5
66E
100
AcDbEntity
  8
2
100
AcDbCircle
 10
-328.676506
 20
222.329264
 30
0.0
 40
3.990265
100
AcDbArc
 50
52.121121
 51
127.878879
  0
LINE
  5
66F
100
AcDbEntity
  8
2
100
AcDbLine
 10
-326.226506
 20
225.478822
 30
0.0
 11
-327.776506
 21
226.373715
 31
0.0
  0
LINE
  5
670
100
AcDbEntity
  8
2
100
AcDbLine
 10
-345.826506
 20
225.478822
 30
0.0
 11
-344.276506
 21
226.373715
 31
0.0
  0
LINE
  5
671
100
AcDbEntity
  8
2
100
AcDbLine
 10
-331.838506
 20
211.873715
 30
0.0
 11
-331.026506
 21
212.685715
 31
0.0
  0
LINE
  5
672
100
AcDbEntity
  8
2
100
AcDbLine
 10
-331.026506
 20
212.685715
 30
0.0
 11
-331.026506
 21
220.373715
 31
0.0
  0
LINE
  5
673
100
AcDbEntity
  8
2
 62
     2
100
AcDbLine
 10
-331.838506
 20
211.873715
 30
0.0
 11
-331.838506
 21
220.373715
 31
0.0
  0
LINE
  5
674
100
AcDbEntity
  8
2
100
AcDbLine
 10
-340.214506
 20
211.873715
 30
0.0
 11
-331.838506
 21
211.873715
 31
0.0
  0
LINE
  5
675
100
AcDbEntity
  8
2
100
AcDbLine
 10
-340.214506
 20
211.873715
 30
0.0
 11
-341.026506
 21
212.685715
 31
0.0
  0
LINE
  5
676
100
AcDbEntity
  8
2
100
AcDbLine
 10
-341.026506
 20
212.685715
 30
0.0
 11
-341.026506
 21
220.373715
 31
0.0
  0
LINE
  5
677
100
AcDbEntity
  8
2
100
AcDbLine
 10
-341.026506
 20
212.685715
 30
0.0
 11
-331.026506
 21
212.685715
 31
0.0
  0
LINE
  5
678
100
AcDbEntity
  8
2
 62
     2
100
AcDbLine
 10
-340.214506
 20
211.873715
 30
0.0
 11
-340.214506
 21
220.373715
 31
0.0
  0
LINE
  5
679
100
AcDbEntity
  8
2
100
AcDbLine
 10
-345.826506
 20
225.478822
 30
0.0
 11
-345.826506
 21
221.268608
 31
0.0
  0
LINE
  5
67A
100
AcDbEntity
  8
2
100
AcDbLine
 10
107.780718
 20
29.831011
 30
0.0
 11
101.780718
 21
29.831011
 31
0.0
  0
LINE
  5
67B
100
AcDbEntity
  8
2
100
AcDbLine
 10
101.780718
 20
29.831011
 30
0.0
 11
101.780718
 21
46.831011
 31
0.0
  0
ARC
  5
67C
100
AcDbEntity
  8
2
100
AcDbCircle
 10
112.320154
 20
34.081011
 30
0.0
 40
10.539436
100
AcDbArc
 50
156.218654
 51
203.781346
  0
LINE
  5
67D
100
AcDbEntity
  8
2
100
AcDbLine
 10
107.780718
 20
46.831011
 30
0.0
 11
101.780718
 21
46.831011
 31
0.0
  0
ARC
  5
67E
100
AcDbEntity
  8
2
100
AcDbCircle
 10
112.320154
 20
42.581011
 30
0.0
 40
10.539436
100
AcDbArc
 50
156.218654
 51
203.781346
  0
ARC
  5
67F
100
AcDbEntity
  8
2
100
AcDbCircle
 10
97.241282
 20
42.581011
 30
0.0
 40
10.539436
100
AcDbArc
 50
336.218654
 51
23.781346
  0
ARC
  5
680
100
AcDbEntity
  8
2
100
AcDbCircle
 10
97.241282
 20
34.081011
 30
0.0
 40
10.539436
100
AcDbArc
 50
336.218654
 51
23.781346
  0
LINE
  5
681
100
AcDbEntity
  8
2
100
AcDbLine
 10
102.675611
 20
38.331011
 30
0.0
 11
106.885825
 21
38.331011
 31
0.0
  0
LINE
  5
682
100
AcDbEntity
  8
2
100
AcDbLine
 10
93.280718
 20
42.519011
 30
0.0
 11
94.092718
 21
43.331011
 31
0.0
  0
LINE
  5
683
100
AcDbEntity
  8
2
100
AcDbLine
 10
94.092718
 20
43.331011
 30
0.0
 11
101.780718
 21
43.331011
 31
0.0
  0
LINE
  5
684
100
AcDbEntity
  8
2
 62
     2
100
AcDbLine
 10
93.280718
 20
42.519011
 30
0.0
 11
101.780718
 21
42.519011
 31
0.0
  0
LINE
  5
685
100
AcDbEntity
  8
2
100
AcDbLine
 10
93.280718
 20
34.143011
 30
0.0
 11
93.280718
 21
42.519011
 31
0.0
  0
LINE
  5
686
100
AcDbEntity
  8
2
100
AcDbLine
 10
93.280718
 20
34.143011
 30
0.0
 11
94.092718
 21
33.331011
 31
0.0
  0
LINE
  5
687
100
AcDbEntity
  8
2
100
AcDbLine
 10
94.092718
 20
33.331011
 30
0.0
 11
101.780718
 21
33.331011
 31
0.0
  0
LINE
  5
688
100
AcDbEntity
  8
2
100
AcDbLine
 10
94.092718
 20
33.331011
 30
0.0
 11
94.092718
 21
43.331011
 31
0.0
  0
LINE
  5
689
100
AcDbEntity
  8
2
 62
     2
100
AcDbLine
 10
93.280718
 20
34.143011
 30
0.0
 11
101.780718
 21
34.143011
 31
0.0
  0
LINE
  5
68A
100
AcDbEntity
  8
2
  6
CENTER
 62
     2
100
AcDbLine
 10
190.780718
 20
66.141237
 30
0.0
 11
190.780718
 21
84.714982
 31
0.0
  0
LINE
  5
68B
100
AcDbEntity
  8
2
  6
CENTER
 62
     2
100
AcDbLine
 10
-319.526506
 20
309.373715
 30
0.0
 11
-306.526506
 21
309.373715
 31
0.0
  0
LINE
  5
68C
100
AcDbEntity
  8
2
  6
CENTER
 62
     2
100
AcDbLine
 10
-363.526506
 20
237.373715
 30
0.0
 11
-342.526506
 21
237.373715
 31
0.0
  0
LINE
  5
68D
100
AcDbEntity
  8
2
  6
CENTER
 62
     2
100
AcDbLine
 10
-353.026506
 20
226.873715
 30
0.0
 11
-353.026506
 21
247.873715
 31
0.0
  0
LINE
  5
68E
100
AcDbEntity
  8
2
  6
CENTER
 62
     2
100
AcDbLine
 10
-283.526506
 20
237.373715
 30
0.0
 11
-262.526506
 21
237.373715
 31
0.0
  0
LINE
  5
68F
100
AcDbEntity
  8
2
  6
CENTER
 62
     2
100
AcDbLine
 10
-273.026506
 20
226.873715
 30
0.0
 11
-273.026506
 21
247.873715
 31
0.0
  0
LINE
  5
690
100
AcDbEntity
  8
2
  6
CENTER
 62
     2
100
AcDbLine
 10
-364.026506
 20
372.373715
 30
0.0
 11
-343.026506
 21
372.373715
 31
0.0
  0
LINE
  5
691
100
AcDbEntity
  8
2
  6
CENTER
 62
     2
100
AcDbLine
 10
-353.526506
 20
361.873715
 30
0.0
 11
-353.526506
 21
382.873715
 31
0.0
  0
LINE
  5
692
100
AcDbEntity
  8
2
  6
CENTER
 62
     2
100
AcDbLine
 10
-371.526506
 20
331.373715
 30
0.0
 11
-350.526506
 21
331.373715
 31
0.0
  0
LINE
  5
693
100
AcDbEntity
  8
2
  6
CENTER
 62
     2
100
AcDbLine
 10
-361.026506
 20
320.873715
 30
0.0
 11
-361.026506
 21
341.873715
 31
0.0
  0
LINE
  5
694
100
AcDbEntity
  8
2
  6
CENTER
 62
     2
100
AcDbLine
 10
-275.526506
 20
331.373715
 30
0.0
 11
-254.526506
 21
331.373715
 31
0.0
  0
LINE
  5
695
100
AcDbEntity
  8
2
  6
CENTER
 62
     2
100
AcDbLine
 10
-265.026506
 20
320.873715
 30
0.0
 11
-265.026506
 21
341.873715
 31
0.0
  0
LINE
  5
696
100
AcDbEntity
  8
2
  6
CENTER
 62
     2
100
AcDbLine
 10
-283.026506
 20
372.373715
 30
0.0
 11
-262.026506
 21
372.373715
 31
0.0
  0
LINE
  5
697
100
AcDbEntity
  8
2
  6
CENTER
 62
     2
100
AcDbLine
 10
-272.526506
 20
361.873715
 30
0.0
 11
-272.526506
 21
382.873715
 31
0.0
  0
LINE
  5
698
100
AcDbEntity
  8
2
  6
CENTER
 62
     2
100
AcDbLine
 10
-388.711412
 20
38.331011
 30
0.0
 11
-102.605735
 21
38.331011
 31
0.0
  0
LINE
  5
699
100
AcDbEntity
  8
2
  6
CENTER
 62
     2
100
AcDbLine
 10
-313.026506
 20
209.520554
 30
0.0
 11
-313.026506
 21
397.497082
 31
0.0
  0
LINE
  5
69A
100
AcDbEntity
  8
2
  6
CENTER
 62
     2
100
AcDbLine
 10
-273.026506
 20
72.831011
 30
0.0
 11
-273.026506
 21
49.055224
 31
0.0
  0
LINE
  5
69B
100
AcDbEntity
  8
2
  6
CENTER
 62
     2
100
AcDbLine
 10
253.780718
 20
76.222506
 30
0.0
 11
253.780718
 21
49.055224
 31
0.0
  0
LINE
  5
69C
100
AcDbEntity
  8
2
  6
CENTER
 62
     2
100
AcDbLine
 10
212.780718
 20
76.222506
 30
0.0
 11
212.780718
 21
49.055224
 31
0.0
  0
LINE
  5
69D
100
AcDbEntity
  8
2
  6
CENTER
 62
     2
100
AcDbLine
 10
118.780718
 20
76.222506
 30
0.0
 11
118.780718
 21
49.055224
 31
0.0
  0
LINE
  5
69E
100
AcDbEntity
  8
2
  6
CENTER
 62
     2
100
AcDbLine
 10
81.91556
 20
38.331011
 30
0.0
 11
350.280718
 21
38.331011
 31
0.0
  0
LINE
  5
69F
100
AcDbEntity
  8
2
  6
CENTER
 62
     2
100
AcDbLine
 10
235.280718
 20
153.331011
 30
0.0
 11
235.280718
 21
-76.668989
 31
0.0
  0
LINE
  5
6A0
100
AcDbEntity
  8
2
  6
CENTER
 62
     2
100
AcDbLine
 10
-290.026506
 20
25.331011
 30
0.0
 11
-290.026506
 21
51.331011
 31
0.0
  0
LINE
  5
6A1
100
AcDbEntity
  8
2
  6
CENTER
 62
     2
100
AcDbLine
 10
-290.026506
 20
204.666695
 30
0.0
 11
-290.026506
 21
240.256497
 31
0.0
  0
LINE
  5
6A2
100
AcDbEntity
  8
2
  6
CENTER
 62
     2
100
AcDbLine
 10
-386.603471
 20
353.873715
 30
0.0
 11
-102.605735
 21
353.873715
 31
0.0
  0
LINE
  5
6A3
100
AcDbEntity
  8
2
  6
CENTER
 62
     2
100
AcDbLine
 10
-319.526506
 20
264.373715
 30
0.0
 11
-306.526506
 21
264.373715
 31
0.0
  0
LINE
  5
6A4
100
AcDbEntity
  8
2
  6
CENTER
 62
     2
100
AcDbLine
 10
-265.026506
 20
76.222506
 30
0.0
 11
-265.026506
 21
62.631011
 31
0.0
  0
LINE
  5
6A5
100
AcDbEntity
  8
2
  6
CENTER
 62
     2
100
AcDbLine
 10
-353.026506
 20
76.222506
 30
0.0
 11
-353.026506
 21
49.055224
 31
0.0
  0
LINE
  5
6A6
100
AcDbEntity
  8
2
  6
CENTER
 62
     2
100
AcDbLine
 10
-361.026506
 20
76.222506
 30
0.0
 11
-361.026506
 21
62.631011
 31
0.0
  0
LINE
  5
6A7
100
AcDbEntity
  8
2
  6
CENTER
 62
     2
100
AcDbLine
 10
145.780718
 20
66.141237
 30
0.0
 11
145.780718
 21
84.714982
 31
0.0
  0
LINE
  5
6A8
100
AcDbEntity
  8
2
  6
CENTER
 62
     2
100
AcDbLine
 10
-336.026506
 20
25.331011
 30
0.0
 11
-336.026506
 21
51.331011
 31
0.0
  0
LINE
  5
6A9
100
AcDbEntity
  8
2
  6
CENTER
 62
     2
100
AcDbLine
 10
-336.026506
 20
204.666695
 30
0.0
 11
-336.026506
 21
240.256497
 31
0.0
  0
TEXT
  5
6AA
100
AcDbEntity
  8
2
100
AcDbText
 10
-315.426506
 20
243.573715
 30
0.0
 40
4.8
  1
Ａ
 72
     5
 11
-311.586506
 21
243.573715
 31
0.0
100
AcDbText
  0
LINE
  5
6AB
100
AcDbEntity
  8
2
100
AcDbLine
 10
117.280718
 20
-3.168989
 30
0.0
 11
219.280718
 21
-3.168989
 31
0.0
  0
DIMENSION
  5
6AC
100
AcDbEntity
  8
5
100
AcDbDimension
  2
*D0
 10
198.280718
 20
-497.997711
 30
0.0
 11
168.280718
 21
-489.397711
 31
0.0
  1
60
100
AcDbAlignedDimension
 13
138.280718
 23
-348.168989
 33
0.0
 14
198.280718
 24
-348.168989
 34
0.0
100
AcDbRotatedDimension
  0
DIMENSION
  5
6AD
100
AcDbEntity
  8
5
100
AcDbDimension
  2
*D1
 10
42.952251
 20
-3.168989
 30
0.0
 11
27.092252
 21
-113.828989
 31
0.0
  1
220
100
AcDbAlignedDimension
 13
113.006721
 23
-223.168989
 33
0.0
 14
117.280718
 24
-3.168989
 34
0.0
 50
90.0
100
AcDbRotatedDimension
  0
DIMENSION
  5
6AE
100
AcDbEntity
  8
5
100
AcDbDimension
  2
*D2
 10
42.952251
 20
-223.168989
 30
0.0
 11
27.092252
 21
-333.828989
 31
0.0
  1
220
100
AcDbAlignedDimension
 13
142.780718
 23
-443.168989
 33
0.0
 14
113.006721
 24
-223.168989
 34
0.0
 50
90.0
100
AcDbRotatedDimension
  0
DIMENSION
  5
6AF
100
AcDbEntity
  8
5
100
AcDbDimension
  2
*D3
 10
-56.360023
 20
-61.668989
 30
0.0
 11
-76.840023
 21
33.051011
 31
0.0
 70
     1
  1
%%c200
100
AcDbAlignedDimension
 13
-136.026506
 23
138.331011
 33
0.0
 14
-136.026506
 24
-61.668989
 34
0.0
 50
90.0
  0
DIMENSION
  5
6B0
100
AcDbEntity
  8
5
100
AcDbDimension
  2
*D4
 10
42.952251
 20
38.331011
 30
0.0
 11
22.472252
 21
61.531011
 31
0.0
  1
41.5
100
AcDbAlignedDimension
 13
117.280718
 23
-3.168989
 33
0.0
 14
81.91556
 24
38.331011
 34
0.0
 50
90.0
100
AcDbRotatedDimension
  0
DIMENSION
  5
6B1
100
AcDbEntity
  8
5
100
AcDbDimension
  2
*D5
 10
-56.360023
 20
353.873715
 30
0.0
 11
-67.600023
 21
324.333715
 31
0.0
  1
67
100
AcDbAlignedDimension
 13
-133.654492
 23
286.873715
 33
0.0
 14
-102.605735
 24
353.873715
 34
0.0
 50
90.0
100
AcDbRotatedDimension
  0
DIMENSION
  5
6B2
100
AcDbEntity
  8
5
100
AcDbDimension
  2
*D6
 10
-56.360023
 20
286.873715
 30
0.0
 11
-67.600023
 21
253.333715
 31
0.0
  1
75
100
AcDbAlignedDimension
 13
-285.838506
 23
211.873715
 33
0.0
 14
-133.654492
 24
286.873715
 34
0.0
 50
90.0
100
AcDbRotatedDimension
  0
DIMENSION
  5
6B3
100
AcDbEntity
  8
5
100
AcDbDimension
  2
*D7
 10
-115.026506
 20
480.497803
 30
0.0
 11
-214.026506
 21
489.097803
 31
0.0
  1
198
100
AcDbAlignedDimension
 13
-313.026506
 23
397.497082
 33
0.0
 14
-115.026506
 24
360.123715
 34
0.0
100
AcDbRotatedDimension
  0
TEXT
  5
6B4
100
AcDbEntity
  8
18
100
AcDbText
 10
488.578522
 20
-533.055969
 30
0.0
 40
12.0
  1
１
 72
     5
 11
498.178522
 21
-533.055969
 31
0.0
100
AcDbText
  0
TEXT
  5
6B5
100
AcDbEntity
  8
18
100
AcDbText
 10
491.416962
 20
-508.141052
 30
0.0
 40
12.0
  1
標準仕様
 72
     5
 11
537.016962
 21
-508.141052
 31
0.0
100
AcDbText
  0
TEXT
  5
6B6
100
AcDbEntity
  8
18
100
AcDbText
 10
506.164917
 20
-548.404053
 30
0.0
 40
12.0
  1
４
 72
     5
 11
515.764917
 21
-548.404053
 31
0.0
100
AcDbText
  0
TEXT
  5
6B7
100
AcDbEntity
  8
18
100
AcDbText
 10
491.416962
 20
-492.141052
 30
0.0
 40
12.0
  1
８４７Ｔ－２ＵＡＳ　２００Ａ
 72
     5
 11
657.016962
 21
-492.141052
 31
0.0
100
AcDbText
  0
TEXT
  5
6B8
100
AcDbEntity
  8
18
100
AcDbText
 10
614.4
 20
-544.0
 30
0.0
 40
20.0
  1
Ｄ３－０２４６８
 72
     5
 11
770.4
 21
-544.0
 31
0.0
100
AcDbText
  0
LINE
  5
6B9
100
AcDbEntity
  8
18
100
AcDbLine
 10
486.196304
 20
-272.862473
 30
0.0
 11
686.196304
 21
-272.862473
 31
0.0
  0
LINE
  5
6BA
100
AcDbEntity
  8
18
100
AcDbLine
 10
486.196304
 20
-352.862473
 30
0.0
 11
686.196304
 21
-352.862473
 31
0.0
  0
LINE
  5
6BB
100
AcDbEntity
  8
18
100
AcDbLine
 10
486.196304
 20
-372.862473
 30
0.0
 11
686.196304
 21
-372.862473
 31
0.0
  0
LINE
  5
6BC
100
AcDbEntity
  8
18
100
AcDbLine
 10
486.196304
 20
-392.862473
 30
0.0
 11
686.196304
 21
-392.862473
 31
0.0
  0
LINE
  5
6BD
100
AcDbEntity
  8
18
100
AcDbLine
 10
486.196304
 20
-272.862473
 30
0.0
 11
486.196304
 21
-392.862473
 31
0.0
  0
LINE
  5
6BE
100
AcDbEntity
  8
18
100
AcDbLine
 10
586.196304
 20
-272.862473
 30
0.0
 11
586.196304
 21
-372.862473
 31
0.0
  0
LINE
  5
6BF
100
AcDbEntity
  8
18
100
AcDbLine
 10
686.196304
 20
-272.862473
 30
0.0
 11
686.196304
 21
-392.862473
 31
0.0
  0
TEXT
  5
6C0
100
AcDbEntity
  8
18
100
AcDbText
 10
526.719254
 20
-368.150955
 30
0.0
 40
12.0
  1
Ａ
 72
     5
 11
536.319254
 21
-368.150955
 31
0.0
100
AcDbText
  0
TEXT
  5
6C1
100
AcDbEntity
  8
18
100
AcDbText
 10
502.16481
 20
-386.997009
 30
0.0
 40
10.0
  1
ＡＣＴＵＡＴＯＲ　ＰＯＳＩＴＩＯＮ
 72
     5
 11
670.16481
 21
-386.997009
 31
0.0
100
AcDbText
  0
TEXT
  5
6C2
100
AcDbEntity
  8
18
100
AcDbText
 10
626.719254
 20
-368.150955
 30
0.0
 40
12.0
  1
Ｂ
 72
     5
 11
636.319254
 21
-368.150955
 31
0.0
100
AcDbText
  0
LINE
  5
6C3
100
AcDbEntity
  8
18
  6
CENTER
 62
     2
100
AcDbLine
 10
495.83208
 20
-317.073116
 30
0.0
 11
559.886647
 21
-317.073116
 31
0.0
  0
LINE
  5
6C4
100
AcDbEntity
  8
18
  6
CENTER
 62
     2
100
AcDbLine
 10
528.330957
 20
-293.410542
 30
0.0
 11
528.330957
 21
-333.488634
 31
0.0
  0
LINE
  5
6C5
100
AcDbEntity
  8
18
100
AcDbLine
 10
556.410957
 20
-308.433116
 30
0.0
 11
556.410957
 21
-325.713116
 31
0.0
  0
LINE
  5
6C6
100
AcDbEntity
  8
18
100
AcDbLine
 10
500.250957
 20
-308.433116
 30
0.0
 11
500.250957
 21
-325.713116
 31
0.0
  0
LINE
  5
6C7
100
AcDbEntity
  8
18
100
AcDbLine
 10
500.250957
 20
-308.433116
 30
0.0
 11
516.42302
 21
-308.433116
 31
0.0
  0
LINE
  5
6C8
100
AcDbEntity
  8
18
100
AcDbLine
 10
540.238894
 20
-308.433116
 30
0.0
 11
556.410957
 21
-308.433116
 31
0.0
  0
LINE
  5
6C9
100
AcDbEntity
  8
18
100
AcDbLine
 10
500.250957
 20
-325.713116
 30
0.0
 11
520.368968
 21
-325.713116
 31
0.0
  0
LINE
  5
6CA
100
AcDbEntity
  8
18
100
AcDbLine
 10
536.292946
 20
-325.713116
 30
0.0
 11
556.410957
 21
-325.713116
 31
0.0
  0
TEXT
  5
6CB
100
AcDbEntity
  8
18
100
AcDbText
 10
525.600818
 20
-310.870553
 30
0.0
 40
5.4
  1
O
 72
     5
 11
529.920818
 21
-310.870553
 31
0.0
100
AcDbText
  0
TEXT
  5
6CC
100
AcDbEntity
  8
18
100
AcDbText
 10
539.511792
 20
-319.713588
 30
0.0
 40
5.4
  1
S
 50
90.0
 72
     5
 11
539.511792
 21
-315.393588
 31
0.0
100
AcDbText
  0
LINE
  5
6CD
100
AcDbEntity
  8
18
100
AcDbLine
 10
536.269203
 20
-299.608141
 30
0.0
 11
520.392711
 21
-299.608141
 31
0.0
  0
ARC
  5
6CE
100
AcDbEntity
  8
18
100
AcDbCircle
 10
536.269203
 20
-302.148501
 30
0.0
 40
2.54036
100
AcDbArc
 50
5.0
 51
90.0
  0
ARC
  5
6CF
100
AcDbEntity
  8
18
100
AcDbCircle
 10
520.392711
 20
-302.148501
 30
0.0
 40
2.54036
100
AcDbArc
 50
90.0
 51
175.0
  0
ARC
  5
6D0
100
AcDbEntity
  8
18
100
AcDbCircle
 10
528.330957
 20
-317.073116
 30
0.0
 40
11.749165
100
AcDbArc
 50
175.000003
 51
256.648816
  0
ARC
  5
6D1
100
AcDbEntity
  8
18
100
AcDbCircle
 10
528.330957
 20
-317.073116
 30
0.0
 40
11.749165
100
AcDbArc
 50
283.351184
 51
5.0
  0
LINE
  5
6D2
100
AcDbEntity
  8
18
100
AcDbLine
 10
516.42302
 20
-309.452036
 30
0.0
 11
516.42302
 21
-300.184141
 31
0.0
  0
LINE
  5
6D3
100
AcDbEntity
  8
18
100
AcDbLine
 10
540.238894
 20
-300.184141
 30
0.0
 11
540.238894
 21
-309.452036
 31
0.0
  0
LINE
  5
6D4
100
AcDbEntity
  8
18
100
AcDbLine
 10
516.42302
 20
-309.452036
 30
0.0
 11
517.20367
 21
-309.452036
 31
0.0
  0
LINE
  5
6D5
100
AcDbEntity
  8
18
100
AcDbLine
 10
539.458244
 20
-309.452036
 30
0.0
 11
540.238894
 21
-309.452036
 31
0.0
  0
LINE
  5
6D6
100
AcDbEntity
  8
18
100
AcDbLine
 10
531.044063
 20
-328.504735
 30
0.0
 11
525.617851
 21
-328.504735
 31
0.0
  0
LINE
  5
6D7
100
AcDbEntity
  8
18
100
AcDbLine
 10
540.238894
 20
-303.736226
 30
0.0
 11
571.834622
 21
-303.736226
 31
0.0
  0
LINE
  5
6D8
100
AcDbEntity
  8
18
100
AcDbLine
 10
540.238894
 20
-307.546766
 30
0.0
 11
571.834622
 21
-307.546766
 31
0.0
  0
ARC
  5
6D9
100
AcDbEntity
  8
18
100
AcDbCircle
 10
574.216209
 20
-319.137158
 30
0.0
 40
2.381587
100
AcDbArc
 50
180.0
 51
360.0
  0
ARC
  5
6DA
100
AcDbEntity
  8
18
100
AcDbCircle
 10
574.216209
 20
-292.145833
 30
0.0
 40
2.381587
100
AcDbArc
 50
0.0
 51
180.0
  0
LINE
  5
6DB
100
AcDbEntity
  8
18
100
AcDbLine
 10
571.834622
 20
-292.443866
 30
0.0
 11
571.834622
 21
-292.145833
 31
0.0
  0
LINE
  5
6DC
100
AcDbEntity
  8
18
100
AcDbLine
 10
576.597797
 20
-305.641496
 30
0.0
 11
576.597797
 21
-292.145833
 31
0.0
  0
LINE
  5
6DD
100
AcDbEntity
  8
18
100
AcDbLine
 10
571.834622
 20
-318.839125
 30
0.0
 11
571.834622
 21
-319.137158
 31
0.0
  0
LINE
  5
6DE
100
AcDbEntity
  8
18
100
AcDbLine
 10
576.597797
 20
-305.641496
 30
0.0
 11
576.597797
 21
-319.137158
 31
0.0
  0
LINE
  5
6DF
100
AcDbEntity
  8
18
100
AcDbLine
 10
522.364663
 20
-317.708206
 30
0.0
 11
534.297251
 21
-317.708206
 31
0.0
  0
LINE
  5
6E0
100
AcDbEntity
  8
18
100
AcDbLine
 10
522.364663
 20
-316.438026
 30
0.0
 11
534.297251
 21
-316.438026
 31
0.0
  0
LINE
  5
6E1
100
AcDbEntity
  8
18
100
AcDbLine
 10
538.799897
 20
-301.927094
 30
0.0
 11
540.035413
 21
-316.049108
 31
0.0
  0
LINE
  5
6E2
100
AcDbEntity
  8
18
100
AcDbLine
 10
516.626501
 20
-316.049108
 30
0.0
 11
517.862017
 21
-301.927094
 31
0.0
  0
LINE
  5
6E3
100
AcDbEntity
  8
18
100
AcDbLine
 10
571.834622
 20
-305.641496
 30
0.0
 11
571.834622
 21
-292.145833
 31
0.0
  0
LINE
  5
6E4
100
AcDbEntity
  8
18
100
AcDbLine
 10
571.834622
 20
-305.641496
 30
0.0
 11
571.834622
 21
-319.137158
 31
0.0
  0
LINE
  5
6E5
100
AcDbEntity
  8
18
100
AcDbLine
 10
540.238894
 20
-300.184141
 30
0.0
 11
537.880017
 21
-300.184141
 31
0.0
  0
LINE
  5
6E6
100
AcDbEntity
  8
18
100
AcDbLine
 10
518.781898
 20
-300.184141
 30
0.0
 11
516.42302
 21
-300.184141
 31
0.0
  0
CIRCLE
  5
6E7
100
AcDbEntity
  8
18
100
AcDbCircle
 10
528.330957
 20
-317.073116
 30
0.0
 40
6.0
  0
TEXT
  5
6E8
100
AcDbEntity
  8
18
100
AcDbText
 10
522.550123
 20
-319.713588
 30
0.0
 40
5.4
  1
S
 50
90.0
 72
     5
 11
522.550123
 21
-315.393588
 31
0.0
100
AcDbText
  0
LINE
  5
6E9
100
AcDbEntity
  8
18
  6
CENTER
 62
     2
100
AcDbLine
 10
602.706287
 20
-296.821071
 30
0.0
 11
666.760853
 21
-296.821071
 31
0.0
  0
LINE
  5
6EA
100
AcDbEntity
  8
18
  6
CENTER
 62
     2
100
AcDbLine
 10
635.205164
 20
-280.086182
 30
0.0
 11
635.205164
 21
-313.23659
 31
0.0
  0
LINE
  5
6EB
100
AcDbEntity
  8
18
100
AcDbLine
 10
663.285164
 20
-288.181071
 30
0.0
 11
663.285164
 21
-305.461071
 31
0.0
  0
LINE
  5
6EC
100
AcDbEntity
  8
18
100
AcDbLine
 10
607.125164
 20
-288.181071
 30
0.0
 11
607.125164
 21
-305.461071
 31
0.0
  0
LINE
  5
6ED
100
AcDbEntity
  8
18
100
AcDbLine
 10
607.125164
 20
-288.181071
 30
0.0
 11
627.243174
 21
-288.181071
 31
0.0
  0
LINE
  5
6EE
100
AcDbEntity
  8
18
100
AcDbLine
 10
652.571288
 20
-288.181071
 30
0.0
 11
663.285164
 21
-288.181071
 31
0.0
  0
LINE
  5
6EF
100
AcDbEntity
  8
18
100
AcDbLine
 10
607.125164
 20
-305.461071
 30
0.0
 11
627.243174
 21
-305.461071
 31
0.0
  0
LINE
  5
6F0
100
AcDbEntity
  8
18
100
AcDbLine
 10
652.571288
 20
-305.461071
 30
0.0
 11
663.285164
 21
-305.461071
 31
0.0
  0
LINE
  5
6F1
100
AcDbEntity
  8
18
100
AcDbLine
 10
652.670138
 20
-304.759317
 30
0.0
 11
652.670138
 21
-288.882824
 31
0.0
  0
ARC
  5
6F2
100
AcDbEntity
  8
18
100
AcDbCircle
 10
650.129778
 20
-304.759317
 30
0.0
 40
2.54036
100
AcDbArc
 50
275.0
 51
360.0
  0
ARC
  5
6F3
100
AcDbEntity
  8
18
100
AcDbCircle
 10
650.129778
 20
-288.882824
 30
0.0
 40
2.54036
100
AcDbArc
 50
0.0
 51
85.0
  0
ARC
  5
6F4
100
AcDbEntity
  8
18
100
AcDbCircle
 10
635.205164
 20
-296.821071
 30
0.0
 40
11.749165
100
AcDbArc
 50
85.000003
 51
166.648816
  0
ARC
  5
6F5
100
AcDbEntity
  8
18
100
AcDbCircle
 10
635.205164
 20
-296.821071
 30
0.0
 40
11.749165
100
AcDbArc
 50
193.351184
 51
275.0
  0
LINE
  5
6F6
100
AcDbEntity
  8
18
100
AcDbLine
 10
642.826243
 20
-284.913133
 30
0.0
 11
652.094138
 21
-284.913133
 31
0.0
  0
LINE
  5
6F7
100
AcDbEntity
  8
18
100
AcDbLine
 10
652.094138
 20
-308.729008
 30
0.0
 11
642.826243
 21
-308.729008
 31
0.0
  0
LINE
  5
6F8
100
AcDbEntity
  8
18
100
AcDbLine
 10
642.826243
 20
-307.948358
 30
0.0
 11
642.826243
 21
-308.729008
 31
0.0
  0
LINE
  5
6F9
100
AcDbEntity
  8
18
100
AcDbLine
 10
642.826243
 20
-284.913133
 30
0.0
 11
642.826243
 21
-285.693784
 31
0.0
  0
LINE
  5
6FA
100
AcDbEntity
  8
18
100
AcDbLine
 10
623.773544
 20
-299.534177
 30
0.0
 11
623.773544
 21
-294.107965
 31
0.0
  0
LINE
  5
6FB
100
AcDbEntity
  8
18
100
AcDbLine
 10
648.542053
 20
-308.729008
 30
0.0
 11
648.542053
 21
-340.324735
 31
0.0
  0
LINE
  5
6FC
100
AcDbEntity
  8
18
100
AcDbLine
 10
644.731513
 20
-308.729008
 30
0.0
 11
644.731513
 21
-340.324735
 31
0.0
  0
ARC
  5
6FD
100
AcDbEntity
  8
18
100
AcDbCircle
 10
633.141121
 20
-342.706323
 30
0.0
 40
2.381587
100
AcDbArc
 50
90.0
 51
270.0
  0
ARC
  5
6FE
100
AcDbEntity
  8
18
100
AcDbCircle
 10
660.132446
 20
-342.706323
 30
0.0
 40
2.381587
100
AcDbArc
 50
270.0
 51
90.0
  0
LINE
  5
6FF
100
AcDbEntity
  8
18
100
AcDbLine
 10
659.834413
 20
-340.324735
 30
0.0
 11
660.132446
 21
-340.324735
 31
0.0
  0
LINE
  5
700
100
AcDbEntity
  8
18
100
AcDbLine
 10
646.636783
 20
-345.08791
 30
0.0
 11
660.132446
 21
-345.08791
 31
0.0
  0
LINE
  5
701
100
AcDbEntity
  8
18
100
AcDbLine
 10
633.439154
 20
-340.324735
 30
0.0
 11
633.141121
 21
-340.324735
 31
0.0
  0
LINE
  5
702
100
AcDbEntity
  8
18
100
AcDbLine
 10
646.636783
 20
-345.08791
 30
0.0
 11
633.141121
 21
-345.08791
 31
0.0
  0
LINE
  5
703
100
AcDbEntity
  8
18
100
AcDbLine
 10
634.570074
 20
-290.854777
 30
0.0
 11
634.570074
 21
-302.787365
 31
0.0
  0
LINE
  5
704
100
AcDbEntity
  8
18
100
AcDbLine
 10
635.840254
 20
-290.854777
 30
0.0
 11
635.840254
 21
-302.787365
 31
0.0
  0
LINE
  5
705
100
AcDbEntity
  8
18
100
AcDbLine
 10
650.351185
 20
-307.29001
 30
0.0
 11
636.229171
 21
-308.525527
 31
0.0
  0
LINE
  5
706
100
AcDbEntity
  8
18
100
AcDbLine
 10
650.351185
 20
-286.352131
 30
0.0
 11
636.229171
 21
-285.116615
 31
0.0
  0
LINE
  5
707
100
AcDbEntity
  8
18
100
AcDbLine
 10
646.636783
 20
-340.324735
 30
0.0
 11
660.132446
 21
-340.324735
 31
0.0
  0
LINE
  5
708
100
AcDbEntity
  8
18
100
AcDbLine
 10
646.636783
 20
-340.324735
 30
0.0
 11
633.141121
 21
-340.324735
 31
0.0
  0
LINE
  5
709
100
AcDbEntity
  8
18
100
AcDbLine
 10
652.094138
 20
-308.729008
 30
0.0
 11
652.094138
 21
-306.37013
 31
0.0
  0
LINE
  5
70A
100
AcDbEntity
  8
18
100
AcDbLine
 10
652.094138
 20
-287.272011
 30
0.0
 11
652.094138
 21
-284.913133
 31
0.0
  0
CIRCLE
  5
70B
100
AcDbEntity
  8
18
100
AcDbCircle
 10
635.205164
 20
-296.821071
 30
0.0
 40
6.0
  0
TEXT
  5
70C
100
AcDbEntity
  8
18
100
AcDbText
 10
641.407726
 20
-294.090932
 30
0.0
 40
5.4
  1
Ｓ
 50
270.0
 72
     5
 11
641.407726
 21
-298.410932
 31
0.0
100
AcDbText
  0
TEXT
  5
70D
100
AcDbEntity
  8
18
100
AcDbText
 10
632.564691
 20
-291.040236
 30
0.0
 40
5.4
  1
Ｏ
 72
     5
 11
636.884691
 21
-291.040236
 31
0.0
100
AcDbText
  0
TEXT
  5
70E
100
AcDbEntity
  8
18
100
AcDbText
 10
632.564691
 20
-308.001905
 30
0.0
 40
5.4
  1
Ｏ
 50
360.0
 72
     5
 11
636.884691
 21
-308.001905
 31
0.0
100
AcDbText
  0
TEXT
  5
70F
100
AcDbEntity
  8
18
100
AcDbText
 10
720.632446
 20
-507.543213
 30
0.0
 40
8.0
  1
２０００．１０．１０
 72
     5
 11
799.032446
 21
-507.543213
 31
0.0
100
AcDbText
  0
LINE
  5
710
100
AcDbEntity
  8
20
 62
     3
100
AcDbLine
 10
-720.0
 20
-554.0
 30
0.0
 11
800.0
 21
-554.0
 31
0.0
  0
LINE
  5
711
100
AcDbEntity
  8
20
 62
     3
100
AcDbLine
 10
-720.0
 20
528.0
 30
0.0
 11
800.0
 21
528.0
 31
0.0
  0
LINE
  5
712
100
AcDbEntity
  8
20
 62
     3
100
AcDbLine
 10
-720.0
 20
528.0
 30
0.0
 11
-720.0
 21
-554.0
 31
0.0
  0
LINE
  5
713
100
AcDbEntity
  8
20
 62
     3
100
AcDbLine
 10
800.0
 20
528.0
 30
0.0
 11
800.0
 21
-554.0
 31
0.0
  0
LINE
  5
714
100
AcDbEntity
  8
20
 62
     3
100
AcDbLine
 10
240.0
 20
-554.0
 30
0.0
 11
240.0
 21
-474.0
 31
0.0
  0
LINE
  5
715
100
AcDbEntity
  8
20
 62
     3
100
AcDbLine
 10
428.0
 20
-554.0
 30
0.0
 11
428.0
 21
-474.0
 31
0.0
  0
LINE
  5
716
100
AcDbEntity
  8
20
100
AcDbLine
 10
428.0
 20
-514.0
 30
0.0
 11
800.0
 21
-514.0
 31
0.0
  0
LINE
  5
717
100
AcDbEntity
  8
20
 62
     3
100
AcDbLine
 10
240.0
 20
-474.0
 30
0.0
 11
800.0
 21
-474.0
 31
0.0
  0
LINE
  5
718
100
AcDbEntity
  8
20
100
AcDbLine
 10
720.0
 20
-514.0
 30
0.0
 11
720.0
 21
-474.0
 31
0.0
  0
LINE
  5
719
100
AcDbEntity
  8
20
100
AcDbLine
 10
720.0
 20
-494.0
 30
0.0
 11
800.0
 21
-494.0
 31
0.0
  0
LINE
  5
71A
100
AcDbEntity
  8
20
100
AcDbLine
 10
484.0
 20
-554.0
 30
0.0
 11
484.0
 21
-474.0
 31
0.0
  0
LINE
  5
71B
100
AcDbEntity
  8
20
100
AcDbLine
 10
524.0
 20
-554.0
 30
0.0
 11
524.0
 21
-514.0
 31
0.0
  0
LINE
  5
71C
100
AcDbEntity
  8
20
100
AcDbLine
 10
604.0
 20
-554.0
 30
0.0
 11
604.0
 21
-514.0
 31
0.0
  0
LINE
  5
71D
100
AcDbEntity
  8
20
100
AcDbLine
 10
494.913658
 20
-543.086342
 30
0.0
 11
511.593163
 21
-526.406837
 31
0.0
  0
TEXT
  5
71E
100
AcDbEntity
  8
20
100
AcDbText
 10
526.133316
 20
-529.987671
 30
0.0
 40
7.2
  1
ＤＲＡＷＩＮＧ　ＮＯ．
 72
     5
 11
603.893316
 21
-529.987671
 31
0.0
100
AcDbText
  0
TEXT
  5
71F
100
AcDbEntity
  8
20
100
AcDbText
 10
534.0
 20
-546.0
 30
0.0
 40
12.0
  1
図　　　番
 72
     5
 11
591.6
 21
-546.0
 31
0.0
100
AcDbText
  0
TEXT
  5
720
100
AcDbEntity
  8
20
100
AcDbText
 10
744.0
 20
-488.0
 30
0.0
 40
8.0
  1
ＤＡＴＥ
 72
     5
 11
774.4
 21
-488.0
 31
0.0
100
AcDbText
  0
TEXT
  5
721
100
AcDbEntity
  8
20
100
AcDbText
 10
436.004284
 20
-531.844116
 30
0.0
 40
8.0
  1
ＳＣＡＬＥ
 72
     5
 11
474.404284
 21
-531.844116
 31
0.0
100
AcDbText
  0
TEXT
  5
722
100
AcDbEntity
  8
20
100
AcDbText
 10
432.0
 20
-546.0
 30
0.0
 40
12.0
  1
尺　　度
 72
     5
 11
477.6
 21
-546.0
 31
0.0
100
AcDbText
  0
TEXT
  5
723
100
AcDbEntity
  8
20
100
AcDbText
 10
430.004284
 20
-489.983539
 30
0.0
 40
8.0
  1
ＦＩＧ．ＮＯ．
 72
     5
 11
484.404284
 21
-489.983539
 31
0.0
100
AcDbText
  0
TEXT
  5
724
100
AcDbEntity
  8
20
100
AcDbText
 10
432.0
 20
-506.0
 30
0.0
 40
12.0
  1
名　　称
 72
     5
 11
477.6
 21
-506.0
 31
0.0
100
AcDbText
  0
TEXT
  5
725
100
AcDbEntity
  8
20
100
AcDbText
 10
242.2621
 20
-505.881012
 30
0.0
 40
9.2
  1
ＴＯＭＯＥ　ＶＡＬＶＥ　ＣＯ．，ＬＴＤ．
 72
     5
 11
424.4221
 21
-505.881012
 31
0.0
100
AcDbText
  0
TEXT
  5
726
100
AcDbEntity
  8
20
100
AcDbText
 10
270.0
 20
-533.159241
 30
0.0
 40
16.0
  1
巴バルブ株式会社
 72
     5
 11
394.8
 21
-533.159241
 31
0.0
100
AcDbText
  0
ENDSEC
  0
SECTION
  2
OBJECTS
  0
DICTIONARY
  5
787
100
AcDbDictionary
  3
ACAD_GROUP
350
788
  3
ACAD_MLINESTYLE
350
789
  0
DICTIONARY
  5
788
102
{ACAD_REACTORS
330
787
102
}
100
AcDbDictionary
  0
DICTIONARY
  5
789
102
{ACAD_REACTORS
330
787
102
}
100
AcDbDictionary
  3
STANDARD
350
78A
  0
MLINESTYLE
  5
78A
102
{ACAD_REACTORS
330
789
102
}
100
AcDbMlineStyle
  2
STANDARD
 70
     0
  3

 62
     0
 51
90.0
 52
90.0
 71
     2
 49
0.5
 62
   256
  6
BYLAYER
 49
-0.5
 62
   256
  6
BYLAYER
  0
ENDSEC
  0
EOF
