  0
SECTION
  2
HEADER
  9
$LIMMAX
 10
420.000000
 20
297.000000
  9
$LIMMIN
 10
-420.000000
 20
-297.000000
  9
$EXTMAX
 10
420.000000
 20
297.000000
  9
$EXTMIN
 10
-420.000000
 20
-297.000000
  9
$DIMLFAC
 40
1.000000
  9
$DIMALTF
 40
25.400000
  9
$DIMSCALE
 40
2.000000
  9
$DIMTAD
 70
1
  9
$DIMTIH
 70
1
  9
$DIMTOH
 70
1
  9
$TDCREATE
 40
2450473.000000
  9
$TDUPDATE
 40
2452041.000000
999
3106
  0
ENDSEC
  0
SECTION
  2
TABLES
  0
TABLE
  2
LTYPE
 70
7
  0
LTYPE
  2
CONTINUOUS
 70
0
  3
Solid line
 72
65
 73
0
 40
0.000000
  0
LTYPE
  2
DASHED
 70
0
  3
__ __ __ __ __ __ __ __ __ __ __ __ __ __ __
 72
65
 73
2
 40
2.000000
 49
1.200000
 49
-0.800000
  0
LTYPE
  2
CENTER
 70
0
  3
____ _ ____ _ ____ _ ____ _ ____ _ ____ _ ____
 72
65
 73
4
 40
12.000000
 49
9.000000
 49
-1.000000
 49
1.000000
 49
-1.000000
  0
LTYPE
  2
HIDDEN
 70
0
  3
_ _ _ _ _ _ _ _ _ _ _ _ _ _ _ _ _ _ _ _ _ _ _
 72
65
 73
2
 40
3.200000
 49
2.400000
 49
-0.800000
  0
LTYPE
  2
PHANTOM
 70
0
  3
_____ _ _ _____ _ _ _____ _ _ _____ _ _ _____
 72
65
 73
6
 40
13.500000
 49
9.000000
 49
-1.000000
 49
1.000000
 49
-0.500000
 49
1.000000
 49
-1.000000
  0
LTYPE
  2
DOT
 70
0
  3
...............................................
 72
65
 73
2
 40
1.000000
 49
0.500000
 49
-0.500000
  0
LTYPE
  2
DASHDOT
 70
0
  3
__ . __ . __ . __ . __ . __ . __ . __ . __ . __
 72
65
 73
4
 40
8.000000
 49
5.000000
 49
-1.000000
 49
1.000000
 49
-1.000000
  0
ENDTAB
  0
TABLE
  2
LAYER
 70
6
  0
LAYER
  2
0
 70
0
 62
7
  6
CONTINUOUS
  0
LAYER
  2
1
 70
0
 62
7
  6
CONTINUOUS
  0
LAYER
  2
2
 70
0
 62
7
  6
CONTINUOUS
  0
LAYER
  2
5
 70
0
 62
7
  6
CONTINUOUS
  0
LAYER
  2
18
 70
0
 62
7
  6
CONTINUOUS
  0
LAYER
  2
20
 70
0
 62
7
  6
CONTINUOUS
  0
ENDTAB
  0
TABLE
  2
STYLE
 70
1
  0
STYLE
  2
STANDARD
 70
64
 40
0.000000
 41
1.000000
 50
0.000000
 71
0
 42
1.000000
  3
txt
  4
BIGFONT
  0
ENDTAB
  0
ENDSEC
  0
SECTION
  2
BLOCKS
  0
BLOCK
  8
5
  2
*D0
 70
1
 10
0.000000
 20
0.000000
  0
TEXT
  8
5
 10
-5.864883
 20
-3.375516
 40
6.600000
  1
24
 50
90.000000
 62
2
 41
1.400000
  0
LINE
  8
5
 62
2
 10
29.649359
 20
-10.755516
 11
-6.864883
 21
-10.755516
  0
LINE
  8
5
 62
2
 10
-4.864883
 20
-10.755516
 11
-3.829607
 21
-6.891813
  0
LINE
  8
5
 62
2
 10
-4.864883
 20
-10.755516
 11
-5.900160
 21
-6.891813
  0
LINE
  8
5
 62
2
 10
-3.829607
 20
-6.891813
 11
-5.900160
 21
-6.891813
  0
LINE
  8
5
 62
2
 10
-4.864883
 20
-10.755516
 11
-4.864883
 21
13.244484
  0
LINE
  8
5
 62
2
 10
-4.864883
 20
13.244484
 11
-5.900160
 21
9.380781
  0
LINE
  8
5
 62
2
 10
-4.864883
 20
13.244484
 11
-3.829607
 21
9.380781
  0
LINE
  8
5
 62
2
 10
-5.900160
 20
9.380781
 11
-3.829607
 21
9.380781
  0
LINE
  8
5
 62
2
 10
22.479799
 20
13.244484
 11
-6.864883
 21
13.244484
  0
ENDBLK
  8
5
  0
BLOCK
  8
5
  2
*D1
 70
1
 10
0.000000
 20
0.000000
  0
TEXT
  8
5
 10
-77.092659
 20
6.314484
 40
6.600000
  1
%%c70
 50
90.000000
 62
2
 41
1.400000
  0
LINE
  8
5
 62
2
 10
-109.850641
 20
48.244484
 11
-74.092659
 21
48.244484
  0
LINE
  8
5
 62
2
 10
-76.092659
 20
48.244484
 11
-77.127935
 21
44.380781
  0
LINE
  8
5
 62
2
 10
-76.092659
 20
48.244484
 11
-75.057383
 21
44.380781
  0
LINE
  8
5
 62
2
 10
-77.127935
 20
44.380781
 11
-75.057383
 21
44.380781
  0
LINE
  8
5
 62
2
 10
-76.092659
 20
48.244484
 11
-76.092659
 21
-21.755516
  0
LINE
  8
5
 62
2
 10
-76.092659
 20
-21.755516
 11
-75.057383
 21
-17.891813
  0
LINE
  8
5
 62
2
 10
-76.092659
 20
-21.755516
 11
-77.127935
 21
-17.891813
  0
LINE
  8
5
 62
2
 10
-75.057383
 20
-17.891813
 11
-77.127935
 21
-17.891813
  0
LINE
  8
5
 62
2
 10
-109.850641
 20
-21.755516
 11
-74.092659
 21
-21.755516
  0
ENDBLK
  8
5
  0
BLOCK
  8
5
  2
*D2
 70
1
 10
0.000000
 20
0.000000
  0
TEXT
  8
5
 10
-156.470641
 20
224.778763
 40
6.600000
  1
83
 50
0.000000
 62
2
 41
1.400000
  0
LINE
  8
5
 62
2
 10
-193.350641
 20
197.902495
 11
-193.350641
 21
225.778763
  0
LINE
  8
5
 62
2
 10
-193.350641
 20
223.778763
 11
-189.486938
 21
222.743487
  0
LINE
  8
5
 62
2
 10
-193.350641
 20
223.778763
 11
-189.486938
 21
224.814039
  0
LINE
  8
5
 62
2
 10
-189.486938
 20
222.743487
 11
-189.486938
 21
224.814039
  0
LINE
  8
5
 62
2
 10
-193.350641
 20
223.778763
 11
-110.350641
 21
223.778763
  0
LINE
  8
5
 62
2
 10
-110.350641
 20
223.778763
 11
-114.214345
 21
224.814039
  0
LINE
  8
5
 62
2
 10
-110.350641
 20
223.778763
 11
-114.214345
 21
222.743487
  0
LINE
  8
5
 62
2
 10
-114.214345
 20
224.814039
 11
-114.214345
 21
222.743487
  0
LINE
  8
5
 62
2
 10
-110.350641
 20
200.058521
 11
-110.350641
 21
225.778763
  0
ENDBLK
  8
5
  0
BLOCK
  8
5
  2
*D3
 70
1
 10
0.000000
 20
0.000000
  0
TEXT
  8
5
 10
-77.092659
 20
149.622823
 40
6.600000
  1
28
 50
90.000000
 62
2
 41
1.400000
  0
LINE
  8
5
 62
2
 10
-127.919632
 20
140.242823
 11
-74.092659
 21
140.242823
  0
LINE
  8
5
 62
2
 10
-76.092659
 20
140.242823
 11
-75.057383
 21
144.106526
  0
LINE
  8
5
 62
2
 10
-76.092659
 20
140.242823
 11
-77.127935
 21
144.106526
  0
LINE
  8
5
 62
2
 10
-75.057383
 20
144.106526
 11
-77.127935
 21
144.106526
  0
LINE
  8
5
 62
2
 10
-76.092659
 20
140.242823
 11
-76.092659
 21
168.242823
  0
LINE
  8
5
 62
2
 10
-76.092659
 20
168.242823
 11
-77.127935
 21
164.379119
  0
LINE
  8
5
 62
2
 10
-76.092659
 20
168.242823
 11
-75.057383
 21
164.379119
  0
LINE
  8
5
 62
2
 10
-77.127935
 20
164.379119
 11
-75.057383
 21
164.379119
  0
LINE
  8
5
 62
2
 10
-100.746653
 20
168.242823
 11
-74.092659
 21
168.242823
  0
ENDBLK
  8
5
  0
BLOCK
  8
5
  2
*D4
 70
1
 10
0.000000
 20
0.000000
  0
TEXT
  8
5
 10
-77.092659
 20
118.122823
 40
6.600000
  1
35
 50
90.000000
 62
2
 41
1.400000
  0
LINE
  8
5
 62
2
 10
-166.350641
 20
105.242823
 11
-74.092659
 21
105.242823
  0
LINE
  8
5
 62
2
 10
-76.092659
 20
105.242823
 11
-75.057383
 21
109.106526
  0
LINE
  8
5
 62
2
 10
-76.092659
 20
105.242823
 11
-77.127935
 21
109.106526
  0
LINE
  8
5
 62
2
 10
-75.057383
 20
109.106526
 11
-77.127935
 21
109.106526
  0
LINE
  8
5
 62
2
 10
-76.092659
 20
105.242823
 11
-76.092659
 21
140.242823
  0
LINE
  8
5
 62
2
 10
-76.092659
 20
140.242823
 11
-77.127935
 21
136.379119
  0
LINE
  8
5
 62
2
 10
-76.092659
 20
140.242823
 11
-75.057383
 21
136.379119
  0
LINE
  8
5
 62
2
 10
-77.127935
 20
136.379119
 11
-75.057383
 21
136.379119
  0
LINE
  8
5
 62
2
 10
-127.919632
 20
140.242823
 11
-74.092659
 21
140.242823
  0
ENDBLK
  8
5
  0
BLOCK
  8
5
  2
*D5
 70
1
 10
0.000000
 20
0.000000
  0
TEXT
  8
5
 10
-5.864883
 20
-86.685516
 40
6.600000
  1
138
 50
90.000000
 62
2
 41
1.400000
  0
LINE
  8
5
 62
2
 10
31.175802
 20
-148.755516
 11
-6.864883
 21
-148.755516
  0
LINE
  8
5
 62
2
 10
-4.864883
 20
-148.755516
 11
-3.829607
 21
-144.891813
  0
LINE
  8
5
 62
2
 10
-4.864883
 20
-148.755516
 11
-5.900160
 21
-144.891813
  0
LINE
  8
5
 62
2
 10
-3.829607
 20
-144.891813
 11
-5.900160
 21
-144.891813
  0
LINE
  8
5
 62
2
 10
-4.864883
 20
-148.755516
 11
-4.864883
 21
-10.755516
  0
LINE
  8
5
 62
2
 10
-4.864883
 20
-10.755516
 11
-5.900160
 21
-14.619219
  0
LINE
  8
5
 62
2
 10
-4.864883
 20
-10.755516
 11
-3.829607
 21
-14.619219
  0
LINE
  8
5
 62
2
 10
-5.900160
 20
-14.619219
 11
-3.829607
 21
-14.619219
  0
LINE
  8
5
 62
2
 10
29.649359
 20
-10.755516
 11
-6.864883
 21
-10.755516
  0
ENDBLK
  8
5
  0
BLOCK
  8
5
  2
*D6
 70
1
 10
0.000000
 20
0.000000
  0
TEXT
  8
5
 10
-5.864883
 20
-187.275516
 40
6.600000
  1
68
 50
90.000000
 62
2
 41
1.400000
  0
LINE
  8
5
 62
2
 10
49.405219
 20
-216.555516
 11
-6.864883
 21
-216.555516
  0
LINE
  8
5
 62
2
 10
-4.864883
 20
-216.555516
 11
-3.829607
 21
-212.691813
  0
LINE
  8
5
 62
2
 10
-4.864883
 20
-216.555516
 11
-5.900160
 21
-212.691813
  0
LINE
  8
5
 62
2
 10
-3.829607
 20
-212.691813
 11
-5.900160
 21
-212.691813
  0
LINE
  8
5
 62
2
 10
-4.864883
 20
-216.555516
 11
-4.864883
 21
-148.755516
  0
LINE
  8
5
 62
2
 10
-4.864883
 20
-148.755516
 11
-5.900160
 21
-152.619219
  0
LINE
  8
5
 62
2
 10
-4.864883
 20
-148.755516
 11
-3.829607
 21
-152.619219
  0
LINE
  8
5
 62
2
 10
-5.900160
 20
-152.619219
 11
-3.829607
 21
-152.619219
  0
LINE
  8
5
 62
2
 10
31.175802
 20
-148.755516
 11
-6.864883
 21
-148.755516
  0
ENDBLK
  8
5
  0
BLOCK
  8
5
  2
*D7
 70
1
 10
0.000000
 20
0.000000
  0
TEXT
  8
5
 10
62.029359
 20
-245.535904
 40
6.600000
  1
43
 50
0.000000
 62
2
 41
1.400000
  0
LINE
  8
5
 62
2
 10
45.149359
 20
-198.255516
 11
45.149359
 21
-248.535904
  0
LINE
  8
5
 62
2
 10
45.149359
 20
-246.535904
 11
49.013062
 21
-247.571180
  0
LINE
  8
5
 62
2
 10
45.149359
 20
-246.535904
 11
49.013062
 21
-245.500628
  0
LINE
  8
5
 62
2
 10
49.013062
 20
-247.571180
 11
49.013062
 21
-245.500628
  0
LINE
  8
5
 62
2
 10
45.149359
 20
-246.535904
 11
88.149359
 21
-246.535904
  0
LINE
  8
5
 62
2
 10
88.149359
 20
-246.535904
 11
84.285655
 21
-245.500628
  0
LINE
  8
5
 62
2
 10
88.149359
 20
-246.535904
 11
84.285655
 21
-247.571180
  0
LINE
  8
5
 62
2
 10
84.285655
 20
-245.500628
 11
84.285655
 21
-247.571180
  0
LINE
  8
5
 62
2
 10
88.149359
 20
-200.755516
 11
88.149359
 21
-248.535904
  0
ENDBLK
  8
5
  0
ENDSEC
  0
SECTION
  2
ENTITIES
  0
LINE
  8
1
  6
CENTER
 62
2
 10
66.649359
 20
52.846763
 11
66.649359
 21
-227.584797
  0
LINE
  8
1
  6
DASHED
 10
-218.350641
 20
175.242823
 11
-168.350641
 21
175.242823
  0
LINE
  8
1
  6
DASHED
 10
-218.350641
 20
105.242823
 11
-168.350641
 21
105.242823
  0
LINE
  8
1
  6
DASHED
 10
-228.350641
 20
115.242823
 11
-228.350641
 21
165.242823
  0
LINE
  8
1
  6
DASHED
 10
-158.350641
 20
115.242823
 11
-158.350641
 21
165.242823
  0
ARC
  8
1
  6
DASHED
 10
-218.350641
 20
115.242823
 40
10.000000
 50
180.000000
 51
270.000000
  0
ARC
  8
1
  6
DASHED
 10
-168.350641
 20
115.242823
 40
10.000000
 50
270.000000
 51
0.000000
  0
ARC
  8
1
  6
DASHED
 10
-168.350641
 20
165.242823
 40
10.000000
 50
0.000000
 51
90.000000
  0
ARC
  8
1
  6
DASHED
 10
-218.350641
 20
165.242823
 40
10.000000
 50
90.000000
 51
180.000000
  0
CIRCLE
  8
1
  6
DASHED
 10
-168.600641
 20
164.992823
 40
4.500000
  0
CIRCLE
  8
1
  6
DASHED
 10
-168.600641
 20
115.492823
 40
4.500000
  0
CIRCLE
  8
1
  6
DASHED
 10
-218.100641
 20
115.492823
 40
4.500000
  0
CIRCLE
  8
1
  6
DASHED
 10
-218.100641
 20
164.992823
 40
4.500000
  0
LINE
  8
1
  6
CENTER
 62
2
 10
-177.100641
 20
164.992823
 11
-160.100641
 21
164.992823
  0
LINE
  8
1
  6
CENTER
 62
2
 10
-168.600641
 20
156.492823
 11
-168.600641
 21
173.492823
  0
LINE
  8
1
  6
CENTER
 62
2
 10
-209.600641
 20
164.992823
 11
-226.600641
 21
164.992823
  0
LINE
  8
1
  6
CENTER
 62
2
 10
-218.100641
 20
156.492823
 11
-218.100641
 21
173.492823
  0
LINE
  8
1
  6
CENTER
 62
2
 10
-177.100641
 20
115.492823
 11
-160.100641
 21
115.492823
  0
LINE
  8
1
  6
CENTER
 62
2
 10
-168.600641
 20
123.992823
 11
-168.600641
 21
106.992823
  0
LINE
  8
1
  6
CENTER
 62
2
 10
-209.600641
 20
115.492823
 11
-226.600641
 21
115.492823
  0
LINE
  8
1
  6
CENTER
 62
2
 10
-218.100641
 20
123.992823
 11
-218.100641
 21
106.992823
  0
LINE
  8
1
  6
CENTER
 62
2
 10
-129.919632
 20
140.242823
 11
-256.781651
 21
140.242823
  0
LINE
  8
1
 10
-158.350641
 20
150.742823
 11
-157.329305
 21
150.742823
  0
LINE
  8
1
 10
-158.350641
 20
129.742823
 11
-157.329305
 21
129.742823
  0
LINE
  8
1
 10
-143.350641
 20
161.742823
 11
-158.350641
 21
161.742823
  0
LINE
  8
1
 10
-145.850641
 20
118.742823
 11
-158.350641
 21
118.742823
  0
LINE
  8
1
 10
-142.350641
 20
157.642823
 11
-142.350641
 21
160.742823
  0
LINE
  8
1
 10
-142.350641
 20
157.642823
 11
-158.350641
 21
157.642823
  0
LINE
  8
1
 10
-142.350641
 20
157.642823
 11
-143.627098
 21
157.300797
  0
LINE
  8
1
 10
-145.850641
 20
156.705000
 11
-158.350641
 21
156.705000
  0
LINE
  8
1
 10
-143.350641
 20
161.742823
 11
-142.350641
 21
160.742823
  0
LINE
  8
1
 10
-142.350641
 20
160.742823
 11
-158.350641
 21
160.742823
  0
LINE
  8
1
 10
-149.829305
 20
133.742823
 11
-149.829305
 21
146.742823
  0
LINE
  8
1
 10
-152.329305
 20
134.742823
 11
-152.329305
 21
145.742823
  0
ARC
  8
1
 10
-157.329305
 20
134.742823
 40
5.000000
 50
270.000000
 51
360.000000
  0
ARC
  8
1
 10
-157.329305
 20
145.742823
 40
5.000000
 50
0.000000
 51
90.000000
  0
LINE
  8
1
 10
-145.850641
 20
118.742823
 11
-145.850641
 21
127.428432
  0
LINE
  8
1
 10
-145.850641
 20
153.057213
 11
-145.850641
 21
154.403019
  0
ARC
  8
1
 10
-145.829305
 20
146.742823
 40
4.000000
 50
115.570376
 51
180.000000
  0
ARC
  8
1
 10
-145.829305
 20
133.742823
 40
4.000000
 50
180.000000
 51
244.429624
  0
ARC
  8
1
 10
-148.850641
 20
153.057213
 40
3.000000
 50
295.570376
 51
360.000000
  0
ARC
  8
1
 10
-148.850641
 20
127.428432
 40
3.000000
 50
0.000000
 51
64.429624
  0
ARC
  8
1
 10
-142.850641
 20
154.403019
 40
3.000000
 50
105.000000
 51
180.000000
  0
LINE
  8
1
 10
-157.329305
 20
149.346909
 11
-158.350641
 21
149.061769
  0
LINE
  8
1
 10
-157.329305
 20
131.138736
 11
-158.350641
 21
131.423876
  0
LINE
  8
1
 10
-152.950641
 20
162.842823
 11
-158.350641
 21
162.842823
  0
LINE
  8
1
 10
-151.850641
 20
161.742823
 11
-152.950641
 21
162.842823
  0
LINE
  8
1
 10
-152.950641
 20
117.642823
 11
-158.350641
 21
117.642823
  0
LINE
  8
1
 10
-151.850641
 20
118.742823
 11
-152.950641
 21
117.642823
  0
LINE
  8
1
  6
CENTER
 62
2
 10
-129.919632
 20
-148.755516
 11
-256.781651
 21
-148.755516
  0
LINE
  8
1
  6
CENTER
 62
2
 10
33.175802
 20
-148.755516
 11
97.929396
 21
-148.755516
  0
LINE
  8
1
  6
CENTER
 62
2
 10
-193.350641
 20
-227.584797
 11
-193.350641
 21
52.846763
  0
LINE
  8
1
 10
-228.350641
 20
-18.755516
 11
-228.350641
 21
-10.755516
  0
LINE
  8
1
 10
-158.350641
 20
-18.755516
 11
-158.350641
 21
-10.755516
  0
LINE
  8
1
 10
-207.350641
 20
-207.755516
 11
-179.350641
 21
-207.755516
  0
LINE
  8
1
 10
-207.454240
 20
-212.555516
 11
-195.254240
 21
-212.555516
  0
LINE
  8
1
 10
-195.604240
 20
-212.555516
 11
-195.604240
 21
-216.064768
  0
LINE
  8
1
 10
-195.604240
 20
-216.064768
 11
-196.454240
 21
-216.555516
  0
LINE
  8
1
 10
-198.479240
 20
-212.555516
 11
-198.479240
 21
-216.064768
  0
ARC
  8
1
 10
-197.041740
 20
-214.216813
 40
2.341227
 50
232.121121
 51
307.878879
  0
ARC
  8
1
 10
-201.354240
 20
-207.933040
 40
8.625000
 50
250.528777
 51
289.471219
  0
LINE
  8
1
 10
-207.104240
 20
-212.555516
 11
-207.104240
 21
-216.064768
  0
LINE
  8
1
 10
-207.104240
 20
-216.064768
 11
-206.254240
 21
-216.555516
  0
LINE
  8
1
 10
-206.254240
 20
-216.555516
 11
-196.454240
 21
-216.555516
  0
LINE
  8
1
 10
-204.229240
 20
-212.555516
 11
-204.229240
 21
-216.064768
  0
ARC
  8
1
 10
-205.666740
 20
-214.216813
 40
2.341227
 50
232.121121
 51
307.878879
  0
LINE
  8
1
 10
-195.254240
 20
-211.055516
 11
-195.254240
 21
-212.555516
  0
LINE
  8
1
 10
-207.454240
 20
-212.555516
 11
-207.454240
 21
-211.055516
  0
LINE
  8
1
 10
-201.354240
 20
-212.555516
 11
-201.854240
 21
-211.055516
  0
LINE
  8
1
 10
-201.354240
 20
-211.055516
 11
-200.854240
 21
-212.555516
  0
LINE
  8
1
 10
-207.854240
 20
-211.055516
 11
-178.847042
 21
-211.055516
  0
LINE
  8
1
  6
CENTER
 62
2
 10
-201.354240
 20
-200.735361
 11
-201.354240
 21
-220.637818
  0
LINE
  8
1
 10
31.649359
 20
-18.755516
 11
31.649359
 21
-10.755516
  0
LINE
  8
1
 10
101.649359
 20
-18.755516
 11
101.649359
 21
-10.755516
  0
LINE
  8
1
 10
50.399359
 20
-207.755516
 11
82.899359
 21
-207.755516
  0
LINE
  8
1
 10
81.893499
 20
-212.555516
 11
81.893499
 21
-216.555516
  0
LINE
  8
1
 10
76.893499
 20
-212.555516
 11
76.893499
 21
-216.064768
  0
ARC
  8
1
 10
79.393499
 20
-209.942308
 40
6.613208
 50
247.788205
 51
292.211795
  0
LINE
  8
1
 10
71.893499
 20
-212.555516
 11
71.893499
 21
-216.555516
  0
LINE
  8
1
 10
71.893499
 20
-216.555516
 11
81.893499
 21
-216.555516
  0
ARC
  8
1
 10
74.393499
 20
-209.942308
 40
6.613208
 50
247.788205
 51
292.211795
  0
LINE
  8
1
 10
82.993499
 20
-211.055516
 11
82.993499
 21
-212.555516
  0
LINE
  8
1
 10
82.993499
 20
-212.555516
 11
70.793499
 21
-212.555516
  0
LINE
  8
1
 10
70.793499
 20
-212.555516
 11
70.793499
 21
-211.055516
  0
LINE
  8
1
 10
49.905219
 20
-211.055516
 11
83.393499
 21
-211.055516
  0
LINE
  8
1
  6
CENTER
 62
2
 10
-185.347042
 20
-200.735361
 11
-185.347042
 21
-220.637818
  0
LINE
  8
1
 10
-191.447042
 20
-212.555516
 11
-179.247042
 21
-212.555516
  0
LINE
  8
1
 10
-179.597042
 20
-212.555516
 11
-179.597042
 21
-216.064768
  0
LINE
  8
1
 10
-179.597042
 20
-216.064768
 11
-180.447042
 21
-216.555516
  0
LINE
  8
1
 10
-182.472042
 20
-212.555516
 11
-182.472042
 21
-216.064768
  0
ARC
  8
1
 10
-181.034542
 20
-214.216813
 40
2.341227
 50
232.121121
 51
307.878879
  0
ARC
  8
1
 10
-185.347042
 20
-207.933040
 40
8.625000
 50
250.528777
 51
289.471219
  0
LINE
  8
1
 10
-191.097042
 20
-212.555516
 11
-191.097042
 21
-216.064768
  0
LINE
  8
1
 10
-191.097042
 20
-216.064768
 11
-190.247042
 21
-216.555516
  0
LINE
  8
1
 10
-190.247042
 20
-216.555516
 11
-180.447042
 21
-216.555516
  0
LINE
  8
1
 10
-188.222042
 20
-212.555516
 11
-188.222042
 21
-216.064768
  0
ARC
  8
1
 10
-189.659542
 20
-214.216813
 40
2.341227
 50
232.121121
 51
307.878879
  0
LINE
  8
1
 10
-179.247042
 20
-211.055516
 11
-179.247042
 21
-212.555516
  0
LINE
  8
1
 10
-191.447042
 20
-212.555516
 11
-191.447042
 21
-211.055516
  0
LINE
  8
1
 10
-185.347042
 20
-212.555516
 11
-185.847042
 21
-211.055516
  0
LINE
  8
1
 10
-185.347042
 20
-211.055516
 11
-184.847042
 21
-212.555516
  0
LINE
  8
1
  6
CENTER
 62
2
 10
76.893499
 20
-220.637818
 11
76.893499
 21
-200.735361
  0
LINE
  8
1
 10
82.393499
 20
-208.755516
 11
82.393499
 21
-207.755516
  0
LINE
  8
1
 10
83.393499
 20
-211.055516
 11
83.393499
 21
-208.755516
  0
LINE
  8
1
 10
49.905219
 20
-208.755516
 11
83.393499
 21
-208.755516
  0
LINE
  8
1
 10
50.905219
 20
-208.755516
 11
50.905219
 21
-207.755516
  0
LINE
  8
1
 10
49.905219
 20
-211.055516
 11
49.905219
 21
-208.755516
  0
LINE
  8
1
 10
89.249359
 20
-108.355516
 11
89.249359
 21
-189.155516
  0
LINE
  8
1
 10
88.149359
 20
-107.255516
 11
89.249359
 21
-108.355516
  0
LINE
  8
1
 10
88.149359
 20
-190.255516
 11
89.249359
 21
-189.155516
  0
LINE
  8
1
 10
45.149359
 20
-190.255516
 11
44.049359
 21
-189.155516
  0
LINE
  8
1
 10
-225.799379
 20
-21.755516
 11
-160.901904
 21
-21.755516
  0
ARC
  8
1
 10
-161.350641
 20
-18.755516
 40
3.000000
 50
270.000000
 51
360.000000
  0
ARC
  8
1
 10
-225.350641
 20
-18.755516
 40
3.000000
 50
180.000000
 51
270.000000
  0
LINE
  8
1
 10
-199.589114
 20
-28.305699
 11
-204.543733
 21
-99.160049
  0
LINE
  8
1
 10
-187.112169
 20
-28.305699
 11
-182.157550
 21
-99.160049
  0
ARC
  8
1
 10
-209.531553
 20
-98.811266
 40
5.000000
 50
287.951260
 51
356.000000
  0
LINE
  8
1
 10
-178.324736
 20
-29.239616
 11
-177.323022
 21
-86.627776
  0
LINE
  8
1
 10
-177.083980
 20
-100.322490
 11
-177.017134
 21
-104.152080
  0
ARC
  8
1
 10
-170.350641
 20
-93.355516
 40
9.000000
 50
146.200947
 51
215.799053
  0
ARC
  8
1
 10
-216.350641
 20
-93.355516
 40
9.000000
 50
324.200947
 51
33.799053
  0
LINE
  8
1
 10
-209.684148
 20
-104.152080
 11
-209.617302
 21
-100.322490
  0
LINE
  8
1
 10
-209.378260
 20
-86.627776
 11
-208.376546
 21
-29.239616
  0
ARC
  8
1
 10
-180.322565
 20
-86.680134
 40
3.000000
 50
326.200947
 51
1.000000
  0
ARC
  8
1
 10
-180.083523
 20
-100.374847
 40
3.000000
 50
1.000000
 51
35.799053
  0
ARC
  8
1
 10
-206.617759
 20
-100.374847
 40
3.000000
 50
144.200947
 51
179.000000
  0
ARC
  8
1
 10
-206.378717
 20
-86.680134
 40
3.000000
 50
179.000000
 51
213.799053
  0
LINE
  8
1
 10
-176.350641
 20
-25.755516
 11
-176.350641
 21
-24.755516
  0
LINE
  8
1
 10
-200.392272
 20
-24.755516
 11
-200.392272
 21
-25.755516
  0
LINE
  8
1
 10
-186.309011
 20
-24.755516
 11
-186.309011
 21
-25.755516
  0
LINE
  8
1
 10
-210.350641
 20
-25.755516
 11
-210.350641
 21
-24.755516
  0
ARC
  8
1
 10
-173.350641
 20
-24.755516
 40
3.000000
 50
160.528779
 51
180.000000
  0
ARC
  8
1
 10
-183.309011
 20
-24.755516
 40
3.000000
 50
90.000000
 51
180.000000
  0
ARC
  8
1
 10
-203.392272
 20
-24.755516
 40
3.000000
 50
0.000000
 51
90.000000
  0
ARC
  8
1
 10
-213.350641
 20
-24.755516
 40
3.000000
 50
0.000000
 51
90.000000
  0
ARC
  8
1
 10
-208.350641
 20
-25.755516
 40
2.000000
 50
180.000000
 51
239.575661
  0
ARC
  8
1
 10
-178.350641
 20
-25.755516
 40
2.000000
 50
300.424339
 51
360.000000
  0
ARC
  8
1
 10
-176.325041
 20
-29.204711
 40
2.000000
 50
120.424339
 51
181.000000
  0
ARC
  8
1
 10
-210.376242
 20
-29.204711
 40
2.000000
 50
359.000000
 51
59.575661
  0
LINE
  8
1
 10
-213.850641
 20
-27.755516
 11
-211.403463
 21
-27.755516
  0
ARC
  8
1
 10
-188.309011
 20
-25.755516
 40
2.000000
 50
322.938827
 51
360.000000
  0
ARC
  8
1
 10
-198.392272
 20
-25.755516
 40
2.000000
 50
180.000000
 51
217.061173
  0
ARC
  8
1
 10
-185.117041
 20
-28.166186
 40
2.000000
 50
142.938827
 51
184.000000
  0
ARC
  8
1
 10
-201.584242
 20
-28.166186
 40
2.000000
 50
356.000000
 51
37.061173
  0
LINE
  8
1
 10
-186.309011
 20
-27.755516
 11
-178.350641
 21
-27.755516
  0
LINE
  8
1
 10
-208.350641
 20
-27.755516
 11
-200.392272
 21
-27.755516
  0
LINE
  8
1
 10
-199.550641
 20
-27.755516
 11
-187.150641
 21
-27.755516
  0
ARC
  8
1
 10
-175.297819
 20
-30.755516
 40
3.000000
 50
105.546972
 51
181.000000
  0
ARC
  8
1
 10
-211.403463
 20
-30.755516
 40
3.000000
 50
359.000000
 51
90.000000
  0
ARC
  8
1
 10
-219.850641
 20
-24.755516
 40
3.000000
 50
0.000000
 51
90.000000
  0
ARC
  8
1
 10
-213.850641
 20
-24.755516
 40
3.000000
 50
180.000000
 51
270.000000
  0
LINE
  8
1
 10
-207.350641
 20
-207.755516
 11
-207.350641
 21
-197.696808
  0
LINE
  8
1
 10
-179.350641
 20
-207.755516
 11
-179.350641
 21
-197.696808
  0
ARC
  8
1
 10
-212.350641
 20
-197.696808
 40
5.000000
 50
0.000000
 51
68.782780
  0
ARC
  8
1
 10
-193.350641
 20
-148.755516
 40
51.000000
 50
108.601701
 51
254.067196
  0
ARC
  8
1
 10
-193.350641
 20
-148.755516
 40
51.000000
 50
285.932804
 51
71.398299
  0
CIRCLE
  8
1
 10
-193.350641
 20
-148.755516
 40
47.500000
  0
ARC
  8
1
 10
-174.350641
 20
-197.696808
 40
5.000000
 50
111.217220
 51
180.000000
  0
CIRCLE
  8
1
 10
-193.350641
 20
-148.755516
 40
40.400000
  0
CIRCLE
  8
1
 10
-193.350641
 20
-148.755516
 40
41.500000
  0
CIRCLE
  8
1
 10
-193.350641
 20
-148.755516
 40
32.000000
  0
LINE
  8
1
 10
-206.854240
 20
-207.755516
 11
-206.854240
 21
-208.755516
  0
LINE
  8
1
 10
-207.854240
 20
-208.755516
 11
-178.847042
 21
-208.755516
  0
LINE
  8
1
 10
-207.854240
 20
-208.755516
 11
-207.854240
 21
-211.055516
  0
LINE
  8
1
 10
-179.847042
 20
-207.755516
 11
-179.847042
 21
-208.755516
  0
LINE
  8
1
 10
-178.847042
 20
-208.755516
 11
-178.847042
 21
-211.055516
  0
LINE
  8
1
 10
99.098096
 20
-21.755516
 11
34.200621
 21
-21.755516
  0
ARC
  8
1
 10
98.649359
 20
-18.755516
 40
3.000000
 50
270.000000
 51
360.000000
  0
ARC
  8
1
 10
34.649359
 20
-18.755516
 40
3.000000
 50
180.000000
 51
270.000000
  0
LINE
  8
1
 10
51.649359
 20
-98.567861
 11
51.649359
 21
-29.219618
  0
LINE
  8
1
 10
81.649359
 20
-93.996389
 11
81.649359
 21
-29.219618
  0
LINE
  8
1
 10
49.649359
 20
-25.755516
 11
49.649359
 21
-24.755516
  0
LINE
  8
1
 10
83.649359
 20
-25.755516
 11
83.649359
 21
-24.755516
  0
ARC
  8
1
 10
86.649359
 20
-24.755516
 40
3.000000
 50
90.000000
 51
180.000000
  0
ARC
  8
1
 10
46.649359
 20
-24.755516
 40
3.000000
 50
0.000000
 51
19.471221
  0
ARC
  8
1
 10
81.649359
 20
-25.755516
 40
2.000000
 50
300.000000
 51
0.000000
  0
ARC
  8
1
 10
51.649359
 20
-25.755516
 40
2.000000
 50
180.000000
 51
240.000000
  0
ARC
  8
1
 10
83.649359
 20
-29.219618
 40
2.000000
 50
120.000000
 51
180.000000
  0
ARC
  8
1
 10
49.649359
 20
-29.219618
 40
2.000000
 50
0.000000
 51
60.000000
  0
LINE
  8
1
 10
45.149359
 20
-101.255516
 11
46.649359
 21
-101.255516
  0
LINE
  8
1
 10
45.149359
 20
-196.255516
 11
47.399359
 21
-196.255516
  0
LINE
  8
1
 10
83.049359
 20
-199.755516
 11
87.149359
 21
-199.755516
  0
LINE
  8
1
 10
83.049359
 20
-97.755516
 11
87.149359
 21
-97.755516
  0
LINE
  8
1
 10
88.149359
 20
-98.755516
 11
87.149359
 21
-97.755516
  0
LINE
  8
1
 10
87.149359
 20
-199.755516
 11
88.149359
 21
-198.755516
  0
ARC
  8
1
 10
46.649359
 20
-96.255516
 40
5.000000
 50
270.000000
 51
360.000000
  0
ARC
  8
1
 10
86.649359
 20
-92.755516
 40
5.000000
 50
180.000000
 51
223.945520
  0
LINE
  8
1
 10
83.049359
 20
-98.996389
 11
83.049359
 21
-96.225386
  0
LINE
  8
1
 10
50.399359
 20
-207.755516
 11
50.399359
 21
-196.035732
  0
LINE
  8
1
 10
82.899359
 20
-207.755516
 11
82.899359
 21
-202.796316
  0
ARC
  8
1
 10
47.399359
 20
-199.255516
 40
3.000000
 50
0.000000
 51
90.000000
  0
ARC
  8
1
 10
85.899359
 20
-202.755516
 40
3.000000
 50
161.805128
 51
180.000000
  0
LINE
  8
1
 10
83.049359
 20
-199.124157
 11
83.049359
 21
-201.818766
  0
LINE
  8
1
 10
88.149359
 20
-198.755516
 11
88.149359
 21
-98.755516
  0
LINE
  8
1
 10
45.149359
 20
-101.255516
 11
45.149359
 21
-196.255516
  0
ARC
  8
1
 10
-177.169730
 20
-98.811266
 40
5.000000
 50
184.000000
 51
252.048740
  0
LINE
  8
1
 10
44.049359
 20
-108.355516
 11
44.049359
 21
-189.155516
  0
LINE
  8
1
 10
45.149359
 20
-107.255516
 11
44.049359
 21
-108.355516
  0
LINE
  8
1
 10
51.405219
 20
-212.555516
 11
51.405219
 21
-216.555516
  0
LINE
  8
1
 10
56.405219
 20
-212.555516
 11
56.405219
 21
-216.064768
  0
ARC
  8
1
 10
53.905219
 20
-209.942308
 40
6.613208
 50
247.788205
 51
292.211795
  0
LINE
  8
1
 10
61.405219
 20
-212.555516
 11
61.405219
 21
-216.555516
  0
LINE
  8
1
 10
61.405219
 20
-216.555516
 11
51.405219
 21
-216.555516
  0
ARC
  8
1
 10
58.905219
 20
-209.942308
 40
6.613208
 50
247.788205
 51
292.211795
  0
LINE
  8
1
 10
50.305219
 20
-211.055516
 11
50.305219
 21
-212.555516
  0
LINE
  8
1
 10
50.305219
 20
-212.555516
 11
62.505219
 21
-212.555516
  0
LINE
  8
1
 10
62.505219
 20
-212.555516
 11
62.505219
 21
-211.055516
  0
LINE
  8
1
  6
CENTER
 62
2
 10
56.405219
 20
-220.637818
 11
56.405219
 21
-200.735361
  0
LINE
  8
1
 10
59.607728
 20
-24.755516
 11
59.607728
 21
-25.755516
  0
LINE
  8
1
 10
73.690989
 20
-24.755516
 11
73.690989
 21
-25.755516
  0
ARC
  8
1
 10
76.690989
 20
-24.755516
 40
3.000000
 50
90.000000
 51
180.000000
  0
ARC
  8
1
 10
56.607728
 20
-24.755516
 40
3.000000
 50
0.000000
 51
90.000000
  0
ARC
  8
1
 10
71.690989
 20
-25.755516
 40
2.000000
 50
322.938827
 51
360.000000
  0
ARC
  8
1
 10
61.607728
 20
-25.755516
 40
2.000000
 50
180.000000
 51
217.061173
  0
ARC
  8
1
 10
74.882959
 20
-28.166186
 40
2.000000
 50
142.938827
 51
184.000000
  0
ARC
  8
1
 10
58.415758
 20
-28.166186
 40
2.000000
 50
356.000000
 51
37.061173
  0
LINE
  8
1
 10
73.690989
 20
-27.755516
 11
81.649359
 21
-27.755516
  0
LINE
  8
1
 10
51.649359
 20
-27.755516
 11
59.607728
 21
-27.755516
  0
LINE
  8
1
 10
62.649359
 20
-27.755516
 11
70.649359
 21
-27.755516
  0
LINE
  8
1
 10
62.649359
 20
-25.755516
 11
62.649359
 21
-23.755516
  0
LINE
  8
1
 10
70.649359
 20
-25.755516
 11
70.649359
 21
-23.755516
  0
ARC
  8
1
 10
72.649359
 20
-23.755516
 40
2.000000
 50
90.000000
 51
180.000000
  0
ARC
  8
1
 10
60.649359
 20
-23.755516
 40
2.000000
 50
0.000000
 51
90.000000
  0
ARC
  8
1
 10
60.649359
 20
-25.755516
 40
2.000000
 50
270.000000
 51
360.000000
  0
ARC
  8
1
 10
72.649359
 20
-25.755516
 40
2.000000
 50
180.000000
 51
270.000000
  0
ARC
  8
1
 10
46.649359
 20
-98.567861
 40
5.000000
 50
270.000000
 51
0.000000
  0
LINE
  8
1
 10
51.649359
 20
-103.567861
 11
54.334368
 21
-104.021507
  0
LINE
  8
1
 10
-228.350641
 20
150.742823
 11
-229.371977
 21
150.742823
  0
LINE
  8
1
 10
-228.350641
 20
129.742823
 11
-229.371977
 21
129.742823
  0
LINE
  8
1
 10
-243.350641
 20
161.742823
 11
-228.350641
 21
161.742823
  0
LINE
  8
1
 10
-240.850641
 20
118.742823
 11
-228.350641
 21
118.742823
  0
LINE
  8
1
 10
-244.350641
 20
157.642823
 11
-244.350641
 21
160.742823
  0
LINE
  8
1
 10
-244.350641
 20
157.642823
 11
-228.350641
 21
157.642823
  0
LINE
  8
1
 10
-244.350641
 20
157.642823
 11
-243.074184
 21
157.300797
  0
LINE
  8
1
 10
-240.850641
 20
156.705000
 11
-228.350641
 21
156.705000
  0
LINE
  8
1
 10
-243.350641
 20
161.742823
 11
-244.350641
 21
160.742823
  0
LINE
  8
1
 10
-244.350641
 20
160.742823
 11
-228.350641
 21
160.742823
  0
LINE
  8
1
 10
-236.871977
 20
133.742823
 11
-236.871977
 21
146.742823
  0
LINE
  8
1
 10
-234.371977
 20
134.742823
 11
-234.371977
 21
145.742823
  0
ARC
  8
1
 10
-229.371977
 20
134.742823
 40
5.000000
 50
180.000000
 51
270.000000
  0
ARC
  8
1
 10
-229.371977
 20
145.742823
 40
5.000000
 50
90.000000
 51
180.000000
  0
LINE
  8
1
 10
-240.850641
 20
118.742823
 11
-240.850641
 21
127.428432
  0
LINE
  8
1
 10
-240.850641
 20
153.057213
 11
-240.850641
 21
154.403019
  0
ARC
  8
1
 10
-240.871977
 20
146.742823
 40
4.000000
 50
0.000000
 51
64.429624
  0
ARC
  8
1
 10
-240.871977
 20
133.742823
 40
4.000000
 50
295.570376
 51
360.000000
  0
ARC
  8
1
 10
-237.850641
 20
153.057213
 40
3.000000
 50
180.000000
 51
244.429624
  0
ARC
  8
1
 10
-237.850641
 20
127.428432
 40
3.000000
 50
115.570376
 51
180.000000
  0
ARC
  8
1
 10
-243.850641
 20
154.403019
 40
3.000000
 50
0.000000
 51
75.000000
  0
LINE
  8
1
 10
-229.371977
 20
149.346909
 11
-228.350641
 21
149.061769
  0
LINE
  8
1
 10
-229.371977
 20
131.138736
 11
-228.350641
 21
131.423876
  0
LINE
  8
1
 10
-233.750641
 20
162.842823
 11
-228.350641
 21
162.842823
  0
LINE
  8
1
 10
-234.850641
 20
161.742823
 11
-233.750641
 21
162.842823
  0
LINE
  8
1
 10
-233.750641
 20
117.642823
 11
-228.350641
 21
117.642823
  0
LINE
  8
1
 10
-234.850641
 20
118.742823
 11
-233.750641
 21
117.642823
  0
LINE
  8
1
 10
77.149359
 20
-137.753379
 11
77.149359
 21
-159.757653
  0
LINE
  8
1
 10
77.149359
 20
-122.755516
 11
77.149359
 21
-107.152080
  0
LINE
  8
1
 10
74.871791
 20
-141.866756
 11
74.871791
 21
-155.644276
  0
LINE
  8
1
 10
74.871791
 20
-120.082047
 11
74.871791
 21
-117.415620
  0
LINE
  8
1
 10
58.426927
 20
-120.082047
 11
58.426927
 21
-117.415620
  0
LINE
  8
1
 10
56.149359
 20
-137.753379
 11
56.149359
 21
-159.757653
  0
LINE
  8
1
 10
56.149359
 20
-122.755516
 11
56.149359
 21
-107.152080
  0
LINE
  8
1
 10
58.426927
 20
-155.644276
 11
58.426927
 21
-141.866756
  0
LINE
  8
1
 10
72.887831
 20
-28.305699
 11
77.037100
 21
-87.643012
  0
LINE
  8
1
 10
77.852744
 20
-99.307255
 11
78.153546
 21
-103.608921
  0
LINE
  8
1
 10
55.145172
 20
-103.608921
 11
55.445974
 21
-99.307255
  0
LINE
  8
1
 10
56.261617
 20
-87.643012
 11
60.410886
 21
-28.305699
  0
LINE
  8
1
 10
81.649359
 20
-103.567861
 11
78.964350
 21
-104.021507
  0
LINE
  8
1
 10
84.049359
 20
-197.796316
 11
84.049359
 21
-100.581286
  0
LINE
  8
1
 10
83.111537
 20
-193.035732
 11
83.111537
 21
-101.152960
  0
ARC
  8
1
 10
86.649359
 20
-93.996389
 40
5.000000
 50
180.000000
 51
223.945520
  0
LINE
  8
1
 10
84.049359
 20
-100.581286
 11
83.111537
 21
-101.152960
  0
LINE
  8
1
 10
83.049359
 20
-98.996389
 11
84.049359
 21
-100.581286
  0
ARC
  8
1
 10
87.899359
 20
-202.796316
 40
5.000000
 50
165.930132
 51
180.000000
  0
ARC
  8
1
 10
47.399359
 20
-196.035732
 40
3.000000
 50
0.000000
 51
90.000000
  0
LINE
  8
1
 10
83.111537
 20
-193.035732
 11
84.049359
 21
-197.796316
  0
LINE
  8
1
 10
83.049359
 20
-199.124157
 11
84.049359
 21
-197.796316
  0
LINE
  8
1
 10
87.149359
 20
-199.755516
 11
87.149359
 21
-97.755516
  0
LINE
  8
1
 10
77.149359
 20
-174.755516
 11
77.149359
 21
-190.035732
  0
LINE
  8
1
 10
74.871791
 20
-177.428986
 11
74.871791
 21
-181.156066
  0
LINE
  8
1
 10
58.426927
 20
-177.428986
 11
58.426927
 21
-181.156066
  0
LINE
  8
1
 10
56.149359
 20
-174.755516
 11
56.149359
 21
-190.035732
  0
LINE
  8
1
 10
80.149359
 20
-193.035732
 11
83.111537
 21
-193.035732
  0
LINE
  8
1
 10
50.399359
 20
-193.035732
 11
53.149359
 21
-193.035732
  0
LINE
  8
1
 10
61.149359
 20
-132.753379
 11
72.149359
 21
-132.753379
  0
LINE
  8
1
 10
61.149359
 20
-127.755516
 11
72.149359
 21
-127.755516
  0
LINE
  8
1
 10
62.426927
 20
-124.082047
 11
70.871791
 21
-124.082047
  0
LINE
  8
1
 10
62.426927
 20
-113.415620
 11
70.871791
 21
-113.415620
  0
LINE
  8
1
 10
62.426927
 20
-137.866756
 11
70.871791
 21
-137.866756
  0
ARC
  8
1
 10
61.149359
 20
-137.753379
 40
5.000000
 50
90.000000
 51
180.000000
  0
ARC
  8
1
 10
72.149359
 20
-137.753379
 40
5.000000
 50
360.000000
 51
90.000000
  0
ARC
  8
1
 10
72.149359
 20
-122.755516
 40
5.000000
 50
270.000000
 51
0.000000
  0
ARC
  8
1
 10
61.149359
 20
-122.755516
 40
5.000000
 50
180.000000
 51
270.000000
  0
ARC
  8
1
 10
70.871791
 20
-120.082047
 40
4.000000
 50
270.000000
 51
360.000000
  0
ARC
  8
1
 10
62.426927
 20
-120.082047
 40
4.000000
 50
180.000000
 51
270.000000
  0
ARC
  8
1
 10
62.426927
 20
-141.866756
 40
4.000000
 50
90.000000
 51
180.000000
  0
ARC
  8
1
 10
70.871791
 20
-141.866756
 40
4.000000
 50
0.000000
 51
90.000000
  0
ARC
  8
1
 10
70.871791
 20
-117.415620
 40
4.000000
 50
0.000000
 51
90.000000
  0
ARC
  8
1
 10
62.426927
 20
-117.415620
 40
4.000000
 50
90.000000
 51
180.000000
  0
LINE
  8
1
 10
75.466710
 20
-125.041587
 11
74.464952
 21
-123.425860
  0
LINE
  8
1
 10
75.625126
 20
-136.175440
 11
74.871791
 21
-137.866756
  0
LINE
  8
1
 10
57.832007
 20
-125.041587
 11
58.833766
 21
-123.425860
  0
LINE
  8
1
 10
57.673592
 20
-136.175440
 11
58.426927
 21
-137.866756
  0
LINE
  8
1
 10
61.149359
 20
-164.757653
 11
72.149359
 21
-164.757653
  0
LINE
  8
1
 10
62.426927
 20
-159.644276
 11
70.871791
 21
-159.644276
  0
ARC
  8
1
 10
61.149359
 20
-159.757653
 40
5.000000
 50
180.000000
 51
270.000000
  0
ARC
  8
1
 10
72.149359
 20
-159.757653
 40
5.000000
 50
270.000000
 51
0.000000
  0
ARC
  8
1
 10
62.426927
 20
-155.644276
 40
4.000000
 50
180.000000
 51
270.000000
  0
ARC
  8
1
 10
70.871791
 20
-155.644276
 40
4.000000
 50
270.000000
 51
360.000000
  0
LINE
  8
1
 10
75.625126
 20
-161.335592
 11
74.871791
 21
-159.644276
  0
LINE
  8
1
 10
57.673592
 20
-161.335592
 11
58.426927
 21
-159.644276
  0
ARC
  8
1
 10
63.039357
 20
-93.355516
 40
8.863998
 50
139.874697
 51
180.000000
  0
ARC
  8
1
 10
70.259361
 20
-93.355516
 40
8.863998
 50
360.000000
 51
40.125303
  0
ARC
  8
1
 10
64.548663
 20
-93.355516
 40
14.574696
 50
335.898078
 51
360.000000
  0
ARC
  8
1
 10
68.750054
 20
-93.355516
 40
14.574696
 50
180.000000
 51
204.101922
  0
LINE
  8
1
 10
56.261617
 20
-87.643012
 11
77.037100
 21
-87.643012
  0
LINE
  8
1
 10
55.445974
 20
-99.307255
 11
77.852744
 21
-99.307255
  0
ARC
  8
1
 10
53.149359
 20
-107.152080
 40
3.000000
 50
0.000000
 51
33.755368
  0
ARC
  8
1
 10
80.149359
 20
-107.152080
 40
3.000000
 50
146.244632
 51
180.000000
  0
ARC
  8
1
 10
75.160853
 20
-103.818191
 40
3.000000
 50
326.244632
 51
4.000000
  0
ARC
  8
1
 10
58.137864
 20
-103.818191
 40
3.000000
 50
176.000000
 51
213.755368
  0
LINE
  8
1
 10
61.149359
 20
-169.755516
 11
72.149359
 21
-169.755516
  0
LINE
  8
1
 10
62.426927
 20
-173.428986
 11
70.871791
 21
-173.428986
  0
ARC
  8
1
 10
72.149359
 20
-174.755516
 40
5.000000
 50
360.000000
 51
90.000000
  0
ARC
  8
1
 10
61.149359
 20
-174.755516
 40
5.000000
 50
90.000000
 51
180.000000
  0
ARC
  8
1
 10
70.871791
 20
-177.428986
 40
4.000000
 50
0.000000
 51
90.000000
  0
ARC
  8
1
 10
62.426927
 20
-177.428986
 40
4.000000
 50
90.000000
 51
180.000000
  0
LINE
  8
1
 10
75.466710
 20
-172.469445
 11
74.464952
 21
-174.085172
  0
LINE
  8
1
 10
57.832007
 20
-172.469445
 11
58.833766
 21
-174.085172
  0
LINE
  8
1
 10
62.426927
 20
-185.156066
 11
70.871791
 21
-185.156066
  0
ARC
  8
1
 10
70.871791
 20
-181.156066
 40
4.000000
 50
270.000000
 51
360.000000
  0
ARC
  8
1
 10
62.426927
 20
-181.156066
 40
4.000000
 50
180.000000
 51
270.000000
  0
ARC
  8
1
 10
80.149359
 20
-190.035732
 40
3.000000
 50
180.000000
 51
270.000000
  0
ARC
  8
1
 10
53.149359
 20
-190.035732
 40
3.000000
 50
270.000000
 51
360.000000
  0
LINE
  8
1
 10
76.282228
 20
-190.035732
 11
74.871791
 21
-185.156066
  0
LINE
  8
1
 10
58.426927
 20
-185.156066
 11
57.016490
 21
-190.035732
  0
LINE
  8
1
 10
76.441606
 20
-107.152080
 11
74.871791
 21
-113.415620
  0
LINE
  8
1
 10
56.857111
 20
-107.152080
 11
58.426927
 21
-113.415620
  0
ARC
  8
1
 10
-193.350641
 20
-149.845516
 40
26.940000
 50
112.496191
 51
124.587869
  0
ARC
  8
1
 10
-193.350641
 20
-148.755516
 40
26.050000
 50
125.948931
 51
234.051069
  0
ARC
  8
1
 10
-193.350641
 20
-147.665516
 40
26.940000
 50
235.412131
 51
247.503809
  0
ARC
  8
1
 10
-196.496342
 20
-148.755516
 40
24.854299
 50
106.748122
 51
253.251878
  0
ARC
  8
1
 10
-193.350641
 20
-149.845516
 40
26.940000
 50
55.412131
 51
67.503809
  0
ARC
  8
1
 10
-193.350641
 20
-148.755516
 40
26.050000
 50
305.948931
 51
54.051069
  0
ARC
  8
1
 10
-193.350641
 20
-147.665516
 40
26.940000
 50
292.496191
 51
304.587869
  0
LINE
  8
1
 10
-183.042804
 20
-124.955516
 11
-203.658478
 21
-124.955516
  0
ARC
  8
1
 10
-190.204941
 20
-148.755516
 40
24.854299
 50
286.748122
 51
73.251878
  0
LINE
  8
1
 10
-183.042804
 20
-172.555516
 11
-203.658478
 21
-172.555516
  0
LINE
  8
1
 10
-202.718138
 20
-129.196307
 11
-202.718138
 21
-144.446115
  0
LINE
  8
1
 10
-183.983144
 20
-129.196307
 11
-183.983144
 21
-144.446115
  0
LINE
  8
1
 10
-185.983144
 20
-147.910217
 11
-187.999819
 21
-149.074544
  0
LINE
  8
1
 10
-200.718138
 20
-147.910217
 11
-198.701463
 21
-149.074544
  0
ARC
  8
1
 10
-187.983144
 20
-144.446115
 40
4.000000
 50
300.000000
 51
0.000000
  0
ARC
  8
1
 10
-198.718138
 20
-144.446115
 40
4.000000
 50
180.000000
 51
240.000000
  0
LINE
  8
1
 10
-190.250641
 20
-150.363211
 11
-190.250641
 21
-128.156469
  0
LINE
  8
1
 10
-196.450641
 20
-150.363211
 11
-196.450641
 21
-128.156469
  0
ARC
  8
1
 10
-193.350641
 20
-148.755516
 40
3.100000
 50
180.000000
 51
360.000000
  0
ARC
  8
1
 10
-193.350641
 20
-139.806648
 40
10.701644
 50
240.000000
 51
253.161494
  0
ARC
  8
1
 10
-193.350641
 20
-139.806648
 40
10.701644
 50
286.838506
 51
300.000000
  0
LINE
  8
1
 10
-200.718138
 20
-146.755516
 11
-196.450641
 21
-146.755516
  0
LINE
  8
1
 10
-190.250641
 20
-146.755516
 11
-185.983144
 21
-146.755516
  0
CIRCLE
  8
1
 10
-193.350641
 20
-148.755516
 40
1.750000
  0
ARC
  8
1
 10
-193.350641
 20
-120.128681
 40
8.605543
 50
248.885499
 51
291.114501
  0
LINE
  8
1
 10
-202.718138
 20
-128.156469
 11
-196.450641
 21
-128.156469
  0
ARC
  8
1
 10
-200.850641
 20
-126.498157
 40
3.000000
 50
149.055097
 51
180.000000
  0
ARC
  8
1
 10
-202.070265
 20
-126.498157
 40
1.780376
 50
180.000000
 51
225.538820
  0
ARC
  8
1
 10
-204.718138
 20
-129.196307
 40
2.000000
 50
0.000000
 51
45.538820
  0
LINE
  8
1
 10
-183.983144
 20
-128.156469
 11
-190.250641
 21
-128.156469
  0
LINE
  8
1
 10
-183.729321
 20
-126.498157
 11
-202.971962
 21
-126.498157
  0
ARC
  8
1
 10
-181.983144
 20
-129.196307
 40
2.000000
 50
134.461180
 51
180.000000
  0
ARC
  8
1
 10
-184.631018
 20
-126.498157
 40
1.780376
 50
314.461180
 51
360.000000
  0
ARC
  8
1
 10
-185.850641
 20
-171.012875
 40
3.000000
 50
329.055097
 51
60.000000
  0
ARC
  8
1
 10
-200.850641
 20
-171.012875
 40
3.000000
 50
120.000000
 51
210.944903
  0
LINE
  8
1
 10
-184.350641
 20
-168.414799
 11
-186.819552
 21
-166.989373
  0
LINE
  8
1
 10
-202.350641
 20
-168.414799
 11
-199.881730
 21
-166.989373
  0
ARC
  8
1
 10
-193.350641
 20
-178.301551
 40
13.062178
 50
60.000000
 51
120.000000
  0
ARC
  8
1
 10
-193.350641
 20
-148.755516
 40
24.657359
 50
115.202418
 51
244.797582
  0
ARC
  8
1
 10
-193.350641
 20
-148.755516
 40
24.657359
 50
295.202418
 51
64.797582
  0
LINE
  8
1
 10
-183.729321
 20
-171.012875
 11
-202.971962
 21
-171.012875
  0
ARC
  8
1
 10
-193.350641
 20
-150.363211
 40
3.100000
 50
180.000000
 51
360.000000
  0
ARC
  8
1
 10
-185.850641
 20
-126.498157
 40
3.000000
 50
0.000000
 51
30.944903
  0
LINE
  8
2
  6
CENTER
 62
2
 10
-168.601904
 20
-35.359936
 11
-168.601904
 21
-2.963518
  0
LINE
  8
2
  6
CENTER
 62
2
 10
41.900621
 20
-35.359936
 11
41.900621
 21
-2.963518
  0
LINE
  8
2
 10
-176.101904
 20
-23.755516
 11
-176.101904
 21
-28.533828
  0
LINE
  8
2
 10
-176.101904
 20
-28.533828
 11
-174.851904
 21
-29.255516
  0
LINE
  8
2
 10
-172.351904
 20
-23.755516
 11
-172.351904
 21
-28.533828
  0
ARC
  8
2
 10
-174.226904
 20
-26.123452
 40
3.053774
 50
232.121121
 51
307.878879
  0
ARC
  8
2
 10
-168.601904
 20
-17.927227
 40
11.250000
 50
250.528781
 51
289.471223
  0
LINE
  8
2
 10
-161.101904
 20
-23.755516
 11
-161.101904
 21
-28.533828
  0
LINE
  8
2
 10
-161.101904
 20
-28.533828
 11
-162.351904
 21
-29.255516
  0
LINE
  8
2
 10
-162.351904
 20
-29.255516
 11
-174.851904
 21
-29.255516
  0
LINE
  8
2
 10
-164.851904
 20
-23.755516
 11
-164.851904
 21
-28.533828
  0
ARC
  8
2
 10
-162.976904
 20
-26.123452
 40
3.053774
 50
232.121121
 51
307.878879
  0
LINE
  8
2
 10
-176.301904
 20
-21.755516
 11
-176.301904
 21
-23.755516
  0
LINE
  8
2
 10
-176.301904
 20
-23.755516
 11
-160.901904
 21
-23.755516
  0
LINE
  8
2
 10
-160.901904
 20
-23.755516
 11
-160.901904
 21
-21.755516
  0
LINE
  8
2
 10
-168.601904
 20
-23.755516
 11
-168.101904
 21
-21.755516
  0
LINE
  8
2
 10
-168.601904
 20
-21.755516
 11
-169.101904
 21
-23.755516
  0
LINE
  8
2
 10
34.200621
 20
-21.755516
 11
34.200621
 21
-23.755516
  0
LINE
  8
2
 10
34.200621
 20
-23.755516
 11
49.600621
 21
-23.755516
  0
LINE
  8
2
 10
49.600621
 20
-23.755516
 11
49.600621
 21
-21.755516
  0
LINE
  8
2
 10
35.400621
 20
-23.755516
 11
35.400621
 21
-29.255516
  0
LINE
  8
2
 10
41.900621
 20
-23.755516
 11
41.900621
 21
-28.533828
  0
ARC
  8
2
 10
38.650621
 20
-21.576758
 40
7.678759
 50
244.960340
 51
295.039660
  0
LINE
  8
2
 10
48.400621
 20
-23.755516
 11
48.400621
 21
-29.255516
  0
LINE
  8
2
 10
48.400621
 20
-29.255516
 11
35.400621
 21
-29.255516
  0
ARC
  8
2
 10
45.150621
 20
-21.576758
 40
7.678759
 50
244.960340
 51
295.039660
  0
CIRCLE
  8
2
 10
-193.350641
 20
140.242823
 40
11.000000
  0
CIRCLE
  8
2
 10
-193.350641
 20
140.242823
 40
10.000000
  0
ARC
  8
2
 10
-193.350641
 20
140.242823
 40
18.000000
 50
16.127620
 51
73.872380
  0
ARC
  8
2
 10
-193.350641
 20
140.242823
 40
18.000000
 50
106.127620
 51
343.872380
  0
LINE
  8
2
 10
-198.350641
 20
157.534439
 11
-198.350641
 21
166.242823
  0
LINE
  8
2
 10
-188.350641
 20
157.534439
 11
-188.350641
 21
166.242823
  0
LINE
  8
2
 10
-176.059025
 20
145.242823
 11
-167.350641
 21
145.242823
  0
LINE
  8
2
 10
-176.059025
 20
135.242823
 11
-167.350641
 21
135.242823
  0
LINE
  8
2
 10
-196.350641
 20
168.242823
 11
-190.350641
 21
168.242823
  0
LINE
  8
2
 10
-165.350641
 20
137.242823
 11
-165.350641
 21
143.242823
  0
ARC
  8
2
 10
-167.350641
 20
143.242823
 40
2.000000
 50
0.000000
 51
90.000000
  0
ARC
  8
2
 10
-167.350641
 20
137.242823
 40
2.000000
 50
270.000000
 51
360.000000
  0
ARC
  8
2
 10
-190.350641
 20
166.242823
 40
2.000000
 50
0.000000
 51
90.000000
  0
ARC
  8
2
 10
-196.350641
 20
166.242823
 40
2.000000
 50
90.000000
 51
180.000000
  0
ARC
  8
2
 10
-193.350641
 20
140.242823
 40
18.000000
 50
88.314587
 51
91.685413
  0
ARC
  8
2
 10
-193.350641
 20
140.242823
 40
18.000000
 50
358.314587
 51
1.685413
  0
LINE
  8
2
 10
-183.033987
 20
147.353846
 11
-180.434233
 21
148.854815
  0
LINE
  8
2
 10
-182.033987
 20
145.621795
 11
-179.434233
 21
147.122764
  0
LINE
  8
2
 10
-187.971669
 20
151.559476
 11
-186.470700
 21
154.159230
  0
LINE
  8
2
 10
-186.239618
 20
150.559476
 11
-184.738649
 21
153.159230
  0
ARC
  8
2
 10
-193.350641
 20
140.242823
 40
16.000000
 50
58.151428
 51
61.848572
  0
ARC
  8
2
 10
-193.350641
 20
140.242823
 40
16.000000
 50
28.151428
 51
31.848572
  0
ARC
  8
2
 10
-193.350641
 20
140.242823
 40
12.000000
 50
357.795772
 51
2.204228
  0
ARC
  8
2
 10
-193.350641
 20
140.242823
 40
12.000000
 50
27.707557
 51
32.292443
  0
ARC
  8
2
 10
-193.350641
 20
140.242823
 40
12.000000
 50
57.707557
 51
62.292443
  0
ARC
  8
2
 10
-193.350641
 20
140.242823
 40
12.000000
 50
87.795772
 51
92.204228
  0
LINE
  8
2
 10
-194.850641
 20
153.233204
 11
-194.850641
 21
157.235468
  0
LINE
  8
2
 10
-191.850641
 20
153.233204
 11
-191.850641
 21
157.235468
  0
LINE
  8
2
 10
-180.360260
 20
141.742823
 11
-176.357996
 21
141.742823
  0
LINE
  8
2
 10
-180.360260
 20
138.742823
 11
-176.357996
 21
138.742823
  0
ARC
  8
2
 10
-180.360260
 20
140.742823
 40
1.000000
 50
90.000000
 51
182.204228
  0
ARC
  8
2
 10
-180.360260
 20
139.742823
 40
1.000000
 50
177.795772
 51
270.000000
  0
ARC
  8
2
 10
-176.357996
 20
139.742823
 40
1.000000
 50
270.000000
 51
358.314587
  0
ARC
  8
2
 10
-176.357996
 20
140.742823
 40
1.000000
 50
1.685413
 51
90.000000
  0
ARC
  8
2
 10
-192.850641
 20
157.235468
 40
1.000000
 50
0.000000
 51
88.314587
  0
ARC
  8
2
 10
-193.850641
 20
157.235468
 40
1.000000
 50
91.685413
 51
180.000000
  0
ARC
  8
2
 10
-193.850641
 20
153.233204
 40
1.000000
 50
180.000000
 51
272.204228
  0
ARC
  8
2
 10
-192.850641
 20
153.233204
 40
1.000000
 50
267.795772
 51
360.000000
  0
ARC
  8
2
 10
-182.283987
 20
146.054808
 40
0.500000
 50
207.707557
 51
300.000000
  0
ARC
  8
2
 10
-182.783987
 20
146.920833
 40
0.500000
 50
120.000000
 51
212.292443
  0
ARC
  8
2
 10
-179.684233
 20
147.555777
 40
0.500000
 50
300.000000
 51
28.151428
  0
ARC
  8
2
 10
-180.184233
 20
148.421802
 40
0.500000
 50
31.848572
 51
120.000000
  0
ARC
  8
2
 10
-186.672631
 20
150.809476
 40
0.500000
 50
237.707557
 51
330.000000
  0
ARC
  8
2
 10
-187.538656
 20
151.309476
 40
0.500000
 50
150.000000
 51
242.292443
  0
ARC
  8
2
 10
-186.037687
 20
153.909230
 40
0.500000
 50
61.848572
 51
150.000000
  0
ARC
  8
2
 10
-185.171662
 20
153.409230
 40
0.500000
 50
330.000000
 51
58.151428
  0
ARC
  8
2
 10
-193.350641
 20
140.242823
 40
17.000000
 50
13.608961
 51
76.391039
  0
ARC
  8
2
 10
-193.350641
 20
140.242823
 40
17.000000
 50
103.608961
 51
346.391039
  0
LINE
  8
2
 10
-189.350641
 20
156.765534
 11
-189.350641
 21
166.242823
  0
LINE
  8
2
 10
-196.350641
 20
167.242823
 11
-190.350641
 21
167.242823
  0
LINE
  8
2
 10
-197.350641
 20
156.765534
 11
-197.350641
 21
166.242823
  0
LINE
  8
2
 10
-176.827930
 20
144.242823
 11
-167.350641
 21
144.242823
  0
LINE
  8
2
 10
-166.350641
 20
137.242823
 11
-166.350641
 21
143.242823
  0
LINE
  8
2
 10
-176.827930
 20
136.242823
 11
-167.350641
 21
136.242823
  0
ARC
  8
2
 10
-167.350641
 20
143.242823
 40
1.000000
 50
0.000000
 51
90.000000
  0
ARC
  8
2
 10
-167.350641
 20
137.242823
 40
1.000000
 50
270.000000
 51
0.000000
  0
ARC
  8
2
 10
-190.350641
 20
166.242823
 40
1.000000
 50
0.000000
 51
90.000000
  0
ARC
  8
2
 10
-196.350641
 20
166.242823
 40
1.000000
 50
90.000000
 51
180.000000
  0
LINE
  8
2
 10
-188.350641
 20
157.534439
 11
-189.350641
 21
156.765534
  0
LINE
  8
2
 10
-197.350641
 20
156.765534
 11
-198.350641
 21
157.534439
  0
LINE
  8
2
 10
-176.827930
 20
144.242823
 11
-176.059025
 21
145.242823
  0
LINE
  8
2
 10
-176.827930
 20
136.242823
 11
-176.059025
 21
135.242823
  0
LINE
  8
2
 10
-202.515793
 20
144.242823
 11
-189.007971
 21
144.242823
  0
LINE
  8
2
 10
-202.515793
 20
136.242823
 11
-189.007971
 21
136.242823
  0
LINE
  8
2
 10
-183.378806
 20
139.492823
 11
-189.007971
 21
136.242823
  0
LINE
  8
2
 10
-183.378806
 20
140.992823
 11
-189.007971
 21
144.242823
  0
LINE
  8
2
 10
-202.091276
 20
143.992823
 11
-189.496862
 21
143.992823
  0
LINE
  8
2
 10
-202.091276
 20
136.492823
 11
-189.496862
 21
136.492823
  0
ARC
  8
2
 10
-193.350641
 20
140.242823
 40
9.511109
 50
156.779186
 51
203.220814
  0
ARC
  8
2
 10
-193.350641
 20
140.242823
 40
9.511109
 50
356.952608
 51
3.047392
  0
LINE
  8
2
 10
-202.091276
 20
143.992823
 11
-202.515793
 21
144.242823
  0
LINE
  8
2
 10
-202.091276
 20
136.492823
 11
-202.515793
 21
136.242823
  0
LINE
  8
2
 10
-189.496862
 20
143.992823
 11
-183.852982
 21
140.748452
  0
LINE
  8
2
 10
-183.852982
 20
139.737193
 11
-189.496862
 21
136.492823
  0
LINE
  8
2
 10
-183.852982
 20
140.748452
 11
-183.378806
 21
140.992823
  0
LINE
  8
2
 10
-183.852982
 20
139.737193
 11
-183.378806
 21
139.492823
  0
LINE
  8
2
 10
-189.496862
 20
136.492823
 11
-189.007971
 21
136.242823
  0
LINE
  8
2
 10
-189.496862
 20
143.992823
 11
-189.007971
 21
144.242823
  0
LINE
  8
2
  6
CENTER
 62
2
 10
-181.473308
 20
152.120156
 11
-172.092170
 21
161.501294
  0
LINE
  8
2
  6
CENTER
 62
2
 10
-205.227974
 20
152.120156
 11
-214.609112
 21
161.501294
  0
LINE
  8
2
  6
CENTER
 62
2
 10
-205.227974
 20
128.365489
 11
-214.609112
 21
118.984352
  0
ARC
  8
2
 10
-199.541849
 20
172.685162
 40
1.942340
 50
270.000000
 51
360.000000
  0
ARC
  8
2
 10
-201.571594
 20
174.442980
 40
1.942340
 50
90.000000
 51
180.000000
  0
ARC
  8
2
 10
-200.707253
 20
172.665739
 40
0.971170
 50
180.000000
 51
270.000000
  0
ARC
  8
2
 10
-200.406190
 20
174.462403
 40
0.971170
 50
0.000000
 51
90.000000
  0
LINE
  8
2
 10
-194.948216
 20
175.433573
 11
-195.152161
 21
170.742823
  0
LINE
  8
2
 10
-191.753067
 20
175.433573
 11
-191.549121
 21
170.742823
  0
LINE
  8
2
 10
-194.948216
 20
175.433573
 11
-194.074163
 21
170.742823
  0
LINE
  8
2
 10
-193.350641
 20
173.005648
 11
-192.720889
 21
176.385319
  0
LINE
  8
2
 10
-196.579781
 20
176.385319
 11
-193.980394
 21
176.385319
  0
LINE
  8
2
 10
-194.074163
 20
170.742823
 11
-192.627120
 21
170.742823
  0
ARC
  8
2
 10
-185.129688
 20
172.685162
 40
1.942340
 50
270.000000
 51
360.000000
  0
ARC
  8
2
 10
-185.994030
 20
172.665739
 40
0.971170
 50
270.000000
 51
360.000000
  0
LINE
  8
2
 10
-187.266262
 20
174.462403
 11
-187.266262
 21
172.665739
  0
ARC
  8
2
 10
-187.159433
 20
174.442980
 40
1.942340
 50
90.000000
 51
180.000000
  0
LINE
  8
2
 10
-189.101773
 20
174.442980
 11
-189.101773
 21
172.685162
  0
LINE
  8
2
 10
-191.549121
 20
170.742823
 11
-189.713610
 21
170.742823
  0
LINE
  8
2
 10
-182.371566
 20
170.878786
 11
-177.952743
 21
170.878786
  0
LINE
  8
2
 10
-180.536055
 20
173.054207
 11
-177.952743
 21
173.054207
  0
LINE
  8
2
 10
-180.536055
 20
174.073935
 11
-177.952743
 21
174.073935
  0
LINE
  8
2
 10
-180.536055
 20
171.898515
 11
-180.536055
 21
173.054207
  0
LINE
  8
2
 10
-180.536055
 20
174.073935
 11
-180.536055
 21
175.229627
  0
LINE
  8
2
 10
-206.573119
 20
175.229627
 11
-204.737608
 21
175.229627
  0
LINE
  8
2
 10
-208.952485
 20
174.073935
 11
-201.814387
 21
177.541011
  0
LINE
  8
2
 10
-208.952485
 20
174.073935
 11
-208.952485
 21
177.541011
  0
LINE
  8
2
 10
-204.737608
 20
175.229627
 11
-204.737608
 21
170.742823
  0
LINE
  8
2
 10
-203.513934
 20
174.442980
 11
-203.513934
 21
172.685162
  0
LINE
  8
2
 10
-197.599509
 20
174.442980
 11
-197.599509
 21
172.685162
  0
LINE
  8
2
 10
-201.678423
 20
174.462403
 11
-201.678423
 21
172.665739
  0
LINE
  8
2
 10
-199.435020
 20
174.462403
 11
-199.435020
 21
172.665739
  0
ARC
  8
2
 10
-201.571594
 20
172.685162
 40
1.942340
 50
180.000000
 51
270.000000
  0
ARC
  8
2
 10
-199.541849
 20
174.442980
 40
1.942340
 50
360.000000
 51
90.000000
  0
ARC
  8
2
 10
-200.406190
 20
172.665739
 40
0.971170
 50
270.000000
 51
360.000000
  0
ARC
  8
2
 10
-200.707253
 20
174.462403
 40
0.971170
 50
90.000000
 51
180.000000
  0
LINE
  8
2
 10
-206.573119
 20
170.742823
 11
-204.737608
 21
170.742823
  0
LINE
  8
2
 10
-196.579781
 20
176.385319
 11
-196.987672
 21
170.742823
  0
LINE
  8
2
 10
-190.121501
 20
176.385319
 11
-189.713610
 21
170.742823
  0
LINE
  8
2
 10
-191.753067
 20
175.433573
 11
-192.627120
 21
170.742823
  0
LINE
  8
2
 10
-193.350641
 20
173.005648
 11
-193.980394
 21
176.385319
  0
LINE
  8
2
 10
-201.571594
 20
176.385319
 11
-199.541849
 21
176.385319
  0
LINE
  8
2
 10
-201.571594
 20
170.742823
 11
-199.541849
 21
170.742823
  0
LINE
  8
2
 10
-196.987672
 20
170.742823
 11
-195.152161
 21
170.742823
  0
ARC
  8
2
 10
-187.159433
 20
172.685162
 40
1.942340
 50
180.000000
 51
270.000000
  0
LINE
  8
2
 10
-185.022860
 20
174.462403
 11
-185.022860
 21
172.665739
  0
ARC
  8
2
 10
-186.295092
 20
172.665739
 40
0.971170
 50
180.000000
 51
270.000000
  0
ARC
  8
2
 10
-185.994030
 20
174.462403
 40
0.971170
 50
0.000000
 51
90.000000
  0
ARC
  8
2
 10
-186.295092
 20
174.462403
 40
0.971170
 50
90.000000
 51
180.000000
  0
ARC
  8
2
 10
-185.129688
 20
174.442980
 40
1.942340
 50
360.000000
 51
90.000000
  0
LINE
  8
2
 10
-183.187349
 20
174.442980
 11
-183.187349
 21
172.685162
  0
LINE
  8
2
 10
-200.406190
 20
175.433573
 11
-200.707253
 21
175.433573
  0
LINE
  8
2
 10
-200.406190
 20
171.694569
 11
-200.707253
 21
171.694569
  0
LINE
  8
2
 10
-186.295092
 20
175.433573
 11
-185.994030
 21
175.433573
  0
LINE
  8
2
 10
-192.720889
 20
176.385319
 11
-190.121501
 21
176.385319
  0
LINE
  8
2
 10
-187.159433
 20
176.385319
 11
-185.129688
 21
176.385319
  0
LINE
  8
2
 10
-187.159433
 20
170.742823
 11
-185.129688
 21
170.742823
  0
LINE
  8
2
 10
-182.371566
 20
176.249356
 11
-182.371566
 21
170.878786
  0
LINE
  8
2
 10
-182.371566
 20
176.249356
 11
-177.952743
 21
176.249356
  0
LINE
  8
2
 10
-180.536055
 20
171.898515
 11
-177.952743
 21
171.898515
  0
LINE
  8
2
 10
-180.536055
 20
175.229627
 11
-177.952743
 21
175.229627
  0
LINE
  8
2
 10
-177.952743
 20
175.229627
 11
-177.952743
 21
176.249356
  0
LINE
  8
2
 10
-177.952743
 20
170.878786
 11
-177.952743
 21
171.898515
  0
LINE
  8
2
 10
-177.952743
 20
173.054207
 11
-177.952743
 21
174.073935
  0
LINE
  8
2
 10
-206.573119
 20
175.229627
 11
-206.573119
 21
170.742823
  0
LINE
  8
2
 10
-208.952485
 20
177.541011
 11
-201.814387
 21
177.541011
  0
LINE
  8
2
 10
-186.295092
 20
171.694569
 11
-185.994030
 21
171.694569
  0
LINE
  8
2
 10
-110.350641
 20
198.058521
 11
-110.350641
 21
138.427124
  0
LINE
  8
2
 10
-111.850641
 20
199.558521
 11
-114.350641
 21
199.558521
  0
LINE
  8
2
 10
-111.850641
 20
136.927124
 11
-114.350641
 21
136.927124
  0
ARC
  8
2
 10
-111.850641
 20
198.058521
 40
1.500000
 50
0.000000
 51
90.000000
  0
ARC
  8
2
 10
-111.850641
 20
138.427124
 40
1.500000
 50
270.000000
 51
360.000000
  0
LINE
  8
2
 10
-132.350641
 20
174.742823
 11
-132.350641
 21
161.742823
  0
LINE
  8
2
 10
-130.350641
 20
176.742823
 11
-116.350641
 21
176.742823
  0
LINE
  8
2
 10
-130.350641
 20
159.742823
 11
-116.350641
 21
159.742823
  0
ARC
  8
2
 10
-130.350641
 20
174.742823
 40
2.000000
 50
90.000000
 51
180.000000
  0
ARC
  8
2
 10
-130.350641
 20
161.742823
 40
2.000000
 50
180.000000
 51
270.000000
  0
LINE
  8
2
 10
-118.350641
 20
195.558521
 11
-118.350641
 21
192.082318
  0
ARC
  8
2
 10
-114.350641
 20
195.558521
 40
4.000000
 50
90.000000
 51
180.000000
  0
ARC
  8
2
 10
-114.350641
 20
192.082318
 40
4.000000
 50
180.000000
 51
244.623066
  0
ARC
  8
2
 10
-117.350641
 20
185.757763
 40
3.000000
 50
0.000000
 51
64.623066
  0
LINE
  8
2
 10
-111.850641
 20
189.961522
 11
-114.350641
 21
189.961522
  0
ARC
  8
2
 10
-114.350641
 20
193.961522
 40
4.000000
 50
180.000000
 51
270.000000
  0
ARC
  8
2
 10
-116.350641
 20
178.742823
 40
2.000000
 50
270.000000
 51
360.000000
  0
ARC
  8
2
 10
-116.350641
 20
157.742823
 40
2.000000
 50
0.000000
 51
90.000000
  0
LINE
  8
2
 10
-118.350641
 20
171.846614
 11
-118.350641
 21
164.639032
  0
ARC
  8
2
 10
-114.350641
 20
171.846614
 40
4.000000
 50
115.376934
 51
180.000000
  0
ARC
  8
2
 10
-114.350641
 20
164.639032
 40
4.000000
 50
180.000000
 51
244.623066
  0
ARC
  8
2
 10
-117.350641
 20
178.171169
 40
3.000000
 50
295.376934
 51
360.000000
  0
ARC
  8
2
 10
-117.350641
 20
158.314476
 40
3.000000
 50
0.000000
 51
64.623066
  0
LINE
  8
2
 10
-114.350641
 20
150.727882
 11
-114.350641
 21
158.314476
  0
LINE
  8
2
 10
-114.350641
 20
178.171169
 11
-114.350641
 21
185.757763
  0
LINE
  8
2
 10
-111.850641
 20
175.635900
 11
-114.350641
 21
175.635900
  0
LINE
  8
2
 10
-111.850641
 20
160.849745
 11
-114.350641
 21
160.849745
  0
ARC
  8
2
 10
-114.350641
 20
171.635900
 40
4.000000
 50
90.000000
 51
180.000000
  0
ARC
  8
2
 10
-114.350641
 20
164.849745
 40
4.000000
 50
180.000000
 51
270.000000
  0
ARC
  8
2
 10
-111.850641
 20
174.135900
 40
1.500000
 50
360.000000
 51
90.000000
  0
ARC
  8
2
 10
-111.850641
 20
162.349745
 40
1.500000
 50
270.000000
 51
0.000000
  0
LINE
  8
2
 10
-118.350641
 20
140.927124
 11
-118.350641
 21
144.403327
  0
ARC
  8
2
 10
-114.350641
 20
140.927124
 40
4.000000
 50
180.000000
 51
270.000000
  0
ARC
  8
2
 10
-114.350641
 20
144.403327
 40
4.000000
 50
115.376934
 51
180.000000
  0
ARC
  8
2
 10
-117.350641
 20
150.727882
 40
3.000000
 50
295.376934
 51
360.000000
  0
LINE
  8
2
 10
-111.850641
 20
146.524123
 11
-114.350641
 21
146.524123
  0
ARC
  8
2
 10
-114.350641
 20
142.524123
 40
4.000000
 50
90.000000
 51
180.000000
  0
LINE
  8
2
 10
-222.350641
 20
187.242823
 11
-164.350641
 21
187.242823
  0
LINE
  8
2
 10
-218.350641
 20
105.242823
 11
-168.350641
 21
105.242823
  0
LINE
  8
2
 10
-228.350641
 20
115.242823
 11
-228.350641
 21
181.242823
  0
LINE
  8
2
 10
-158.350641
 20
115.242823
 11
-158.350641
 21
181.242823
  0
LINE
  8
2
 10
-222.350641
 20
118.242823
 11
-164.350641
 21
118.242823
  0
ARC
  8
2
 10
-222.350641
 20
181.242823
 40
6.000000
 50
90.000000
 51
180.000000
  0
ARC
  8
2
 10
-164.350641
 20
181.242823
 40
6.000000
 50
0.000000
 51
90.000000
  0
ARC
  8
2
 10
-164.350641
 20
124.242823
 40
6.000000
 50
270.000000
 51
0.000000
  0
ARC
  8
2
 10
-222.350641
 20
124.242823
 40
6.000000
 50
180.000000
 51
270.000000
  0
ARC
  8
2
 10
-168.350641
 20
115.242823
 40
10.000000
 50
270.000000
 51
360.000000
  0
ARC
  8
2
 10
-218.350641
 20
115.242823
 40
10.000000
 50
180.000000
 51
270.000000
  0
CIRCLE
  8
2
 10
-177.087185
 20
156.506278
 40
4.000000
  0
CIRCLE
  8
2
 10
-209.614097
 20
156.506278
 40
4.000000
  0
CIRCLE
  8
2
 10
-209.614097
 20
123.979367
 40
4.000000
  0
CIRCLE
  8
2
 10
-177.087185
 20
156.506278
 40
1.000000
  0
CIRCLE
  8
2
 10
-209.614097
 20
156.506278
 40
1.000000
  0
CIRCLE
  8
2
 10
-209.614097
 20
123.979367
 40
1.000000
  0
LINE
  8
2
 10
-223.350641
 20
175.242823
 11
-221.350641
 21
175.242823
  0
LINE
  8
2
 10
-165.350641
 20
175.242823
 11
-163.350641
 21
175.242823
  0
LINE
  8
2
 10
-216.350641
 20
123.242823
 11
-216.350641
 21
125.242823
  0
LINE
  8
2
 10
-216.350641
 20
180.242823
 11
-216.350641
 21
182.242823
  0
LINE
  8
2
 10
-170.350641
 20
123.242823
 11
-170.350641
 21
125.242823
  0
LINE
  8
2
 10
-170.350641
 20
180.242823
 11
-170.350641
 21
182.242823
  0
LINE
  8
2
 10
-223.350641
 20
130.242823
 11
-221.350641
 21
130.242823
  0
LINE
  8
2
 10
-165.350641
 20
130.242823
 11
-163.350641
 21
130.242823
  0
ARC
  8
2
 10
-165.350641
 20
125.242823
 40
5.000000
 50
90.000000
 51
180.000000
  0
ARC
  8
2
 10
-165.350641
 20
180.242823
 40
5.000000
 50
180.000000
 51
270.000000
  0
ARC
  8
2
 10
-221.350641
 20
180.242823
 40
5.000000
 50
270.000000
 51
360.000000
  0
ARC
  8
2
 10
-221.350641
 20
125.242823
 40
5.000000
 50
0.000000
 51
90.000000
  0
ARC
  8
2
 10
-163.350641
 20
170.242823
 40
5.000000
 50
0.000000
 51
90.000000
  0
ARC
  8
2
 10
-175.350641
 20
182.242823
 40
5.000000
 50
0.000000
 51
90.000000
  0
ARC
  8
2
 10
-211.350641
 20
182.242823
 40
5.000000
 50
90.000000
 51
180.000000
  0
ARC
  8
2
 10
-223.350641
 20
170.242823
 40
5.000000
 50
90.000000
 51
180.000000
  0
ARC
  8
2
 10
-223.350641
 20
135.242823
 40
5.000000
 50
180.000000
 51
270.000000
  0
ARC
  8
2
 10
-211.350641
 20
123.242823
 40
5.000000
 50
180.000000
 51
270.000000
  0
ARC
  8
2
 10
-175.350641
 20
123.242823
 40
5.000000
 50
270.000000
 51
360.000000
  0
ARC
  8
2
 10
-163.350641
 20
135.242823
 40
5.000000
 50
270.000000
 51
360.000000
  0
CIRCLE
  8
2
 10
-164.350641
 20
124.242823
 40
4.250000
  0
CIRCLE
  8
2
 10
-164.350641
 20
124.242823
 40
3.730385
  0
LINE
  8
2
 10
-166.350641
 20
123.088122
 11
-166.350641
 21
125.397523
  0
LINE
  8
2
 10
-162.350641
 20
123.088122
 11
-162.350641
 21
125.397523
  0
LINE
  8
2
 10
-164.350641
 20
121.933421
 11
-166.350641
 21
123.088122
  0
LINE
  8
2
 10
-162.350641
 20
125.397523
 11
-164.350641
 21
126.552224
  0
LINE
  8
2
 10
-162.350641
 20
123.088122
 11
-164.350641
 21
121.933421
  0
LINE
  8
2
 10
-164.350641
 20
126.552224
 11
-166.350641
 21
125.397523
  0
CIRCLE
  8
2
 10
-222.350641
 20
124.242823
 40
4.250000
  0
CIRCLE
  8
2
 10
-222.350641
 20
124.242823
 40
3.730385
  0
LINE
  8
2
 10
-220.350641
 20
123.088122
 11
-220.350641
 21
125.397523
  0
LINE
  8
2
 10
-224.350641
 20
123.088122
 11
-224.350641
 21
125.397523
  0
LINE
  8
2
 10
-222.350641
 20
121.933421
 11
-220.350641
 21
123.088122
  0
LINE
  8
2
 10
-224.350641
 20
125.397523
 11
-222.350641
 21
126.552224
  0
LINE
  8
2
 10
-224.350641
 20
123.088122
 11
-222.350641
 21
121.933421
  0
LINE
  8
2
 10
-222.350641
 20
126.552224
 11
-220.350641
 21
125.397523
  0
CIRCLE
  8
2
 10
-164.350641
 20
181.242823
 40
4.250000
  0
CIRCLE
  8
2
 10
-164.350641
 20
181.242823
 40
3.730385
  0
LINE
  8
2
 10
-166.350641
 20
180.088122
 11
-166.350641
 21
182.397523
  0
LINE
  8
2
 10
-162.350641
 20
180.088122
 11
-162.350641
 21
182.397523
  0
LINE
  8
2
 10
-164.350641
 20
178.933421
 11
-166.350641
 21
180.088122
  0
LINE
  8
2
 10
-162.350641
 20
182.397523
 11
-164.350641
 21
183.552224
  0
LINE
  8
2
 10
-162.350641
 20
180.088122
 11
-164.350641
 21
178.933421
  0
LINE
  8
2
 10
-164.350641
 20
183.552224
 11
-166.350641
 21
182.397523
  0
CIRCLE
  8
2
 10
-222.350641
 20
181.242823
 40
4.250000
  0
CIRCLE
  8
2
 10
-222.350641
 20
181.242823
 40
3.730385
  0
LINE
  8
2
 10
-220.350641
 20
180.088122
 11
-220.350641
 21
182.397523
  0
LINE
  8
2
 10
-224.350641
 20
180.088122
 11
-224.350641
 21
182.397523
  0
LINE
  8
2
 10
-222.350641
 20
178.933421
 11
-220.350641
 21
180.088122
  0
LINE
  8
2
 10
-224.350641
 20
182.397523
 11
-222.350641
 21
183.552224
  0
LINE
  8
2
 10
-224.350641
 20
180.088122
 11
-222.350641
 21
178.933421
  0
LINE
  8
2
 10
-222.350641
 20
183.552224
 11
-220.350641
 21
182.397523
  0
LINE
  8
2
 10
-208.850641
 20
180.242823
 11
-177.850641
 21
180.242823
  0
LINE
  8
2
 10
-210.850641
 20
172.742823
 11
-210.850641
 21
178.242823
  0
LINE
  8
2
 10
-175.850641
 20
172.742823
 11
-175.850641
 21
178.242823
  0
ARC
  8
2
 10
-177.850641
 20
178.242823
 40
2.000000
 50
0.000000
 51
90.000000
  0
ARC
  8
2
 10
-208.850641
 20
178.242823
 40
2.000000
 50
90.000000
 51
180.000000
  0
LINE
  8
2
 10
-182.809641
 20
108.742823
 11
-183.350641
 21
109.283823
  0
LINE
  8
2
 10
-183.350641
 20
109.283823
 11
-183.350641
 21
113.242823
  0
LINE
  8
2
 10
-183.350641
 20
109.283823
 11
-177.350641
 21
109.283823
  0
LINE
  8
2
 62
2
 10
-182.809641
 20
108.742823
 11
-182.809641
 21
113.242823
  0
LINE
  8
2
 10
-177.891641
 20
108.742823
 11
-182.809641
 21
108.742823
  0
LINE
  8
2
 10
-177.891641
 20
108.742823
 11
-177.350641
 21
109.283823
  0
LINE
  8
2
 10
-177.350641
 20
109.283823
 11
-177.350641
 21
113.242823
  0
LINE
  8
2
 62
2
 10
-177.891641
 20
108.742823
 11
-177.891641
 21
113.242823
  0
LINE
  8
2
 10
-174.600641
 20
118.242823
 11
-174.600641
 21
113.733570
  0
LINE
  8
2
 10
-174.600641
 20
113.733570
 11
-175.450641
 21
113.242823
  0
LINE
  8
2
 10
-175.450641
 20
113.242823
 11
-185.250641
 21
113.242823
  0
LINE
  8
2
 10
-177.475641
 20
118.242823
 11
-177.475641
 21
113.733570
  0
ARC
  8
2
 10
-176.038141
 20
115.581525
 40
2.341227
 50
232.121121
 51
307.878879
  0
LINE
  8
2
 10
-186.100641
 20
118.242823
 11
-186.100641
 21
113.733570
  0
LINE
  8
2
 10
-186.100641
 20
113.733570
 11
-185.250641
 21
113.242823
  0
LINE
  8
2
 10
-183.225641
 20
118.242823
 11
-183.225641
 21
113.733570
  0
ARC
  8
2
 10
-184.663141
 20
115.581525
 40
2.341227
 50
232.121121
 51
307.878879
  0
ARC
  8
2
 10
-180.350641
 20
121.865298
 40
8.625000
 50
250.528777
 51
289.471219
  0
LINE
  8
2
 10
-158.350641
 20
172.742823
 11
-132.350641
 21
172.742823
  0
LINE
  8
2
 10
-158.350641
 20
163.742823
 11
-132.350641
 21
163.742823
  0
LINE
  8
2
  6
CENTER
 62
2
 10
-193.350641
 20
95.441138
 11
-193.350641
 21
195.902495
  0
LINE
  8
2
  6
CENTER
 62
2
 10
-233.582048
 20
168.242823
 11
-102.746653
 21
168.242823
  0
ARC
  8
2
  6
CENTER
 62
2
 10
-193.350641
 20
140.242823
 40
23.000000
 50
28.920753
 51
61.696907
  0
ARC
  8
2
  6
CENTER
 62
2
 10
-193.350641
 20
140.242823
 40
23.000000
 50
118.920753
 51
151.696907
  0
ARC
  8
2
  6
CENTER
 62
2
 10
-193.350641
 20
140.242823
 40
23.000000
 50
208.920753
 51
241.696907
  0
LINE
  8
2
  6
CENTER
 62
2
 10
-164.350641
 20
116.241454
 11
-164.350641
 21
132.283210
  0
LINE
  8
2
  6
CENTER
 62
2
 10
-172.268419
 20
124.242823
 11
-156.620554
 21
124.242823
  0
LINE
  8
2
  6
CENTER
 62
2
 10
-222.350641
 20
116.241454
 11
-222.350641
 21
132.283210
  0
LINE
  8
2
  6
CENTER
 62
2
 10
-214.432863
 20
124.242823
 11
-230.080729
 21
124.242823
  0
LINE
  8
2
  6
CENTER
 62
2
 10
-164.350641
 20
173.241454
 11
-164.350641
 21
189.283210
  0
LINE
  8
2
  6
CENTER
 62
2
 10
-172.268419
 20
181.242823
 11
-156.620554
 21
181.242823
  0
LINE
  8
2
  6
CENTER
 62
2
 10
-222.350641
 20
173.241454
 11
-222.350641
 21
189.283210
  0
LINE
  8
2
  6
CENTER
 62
2
 10
-214.432863
 20
181.242823
 11
-230.080729
 21
181.242823
  0
LINE
  8
2
  6
CENTER
 62
2
 10
-180.350641
 20
103.814887
 11
-180.350641
 21
123.384032
  0
LINE
  8
2
 10
-202.861750
 20
43.744484
 11
-183.839532
 21
43.744484
  0
LINE
  8
2
 10
-203.350641
 20
29.744484
 11
-183.350641
 21
29.744484
  0
LINE
  8
2
 10
-182.350641
 20
28.744484
 11
-183.350641
 21
29.744484
  0
LINE
  8
2
 10
-204.350641
 20
28.744484
 11
-203.350641
 21
29.744484
  0
LINE
  8
2
 10
-183.350641
 20
29.744484
 11
-183.839532
 21
43.744484
  0
LINE
  8
2
 10
-203.350641
 20
29.744484
 11
-202.861750
 21
43.744484
  0
LINE
  8
2
 10
-202.091276
 20
43.744484
 11
-202.515793
 21
29.744484
  0
LINE
  8
2
 10
-189.007971
 20
29.744484
 11
-189.496862
 21
43.744484
  0
CIRCLE
  8
2
 62
2
 10
-180.350641
 20
18.244484
 40
2.459000
  0
CIRCLE
  8
2
 10
-180.350641
 20
18.244484
 40
3.000000
  0
LINE
  8
2
 10
-178.850641
 20
17.378458
 11
-178.850641
 21
19.110509
  0
LINE
  8
2
 10
-181.850641
 20
17.378458
 11
-181.850641
 21
19.110509
  0
LINE
  8
2
 10
-180.350641
 20
16.512433
 11
-181.850641
 21
17.378458
  0
LINE
  8
2
 10
-178.850641
 20
19.110509
 11
-180.350641
 21
19.976535
  0
LINE
  8
2
 10
-180.350641
 20
19.976535
 11
-181.850641
 21
19.110509
  0
LINE
  8
2
 10
-178.850641
 20
17.378458
 11
-180.350641
 21
16.512433
  0
LINE
  8
2
  6
CENTER
 62
2
 10
-180.350641
 20
10.951194
 11
-180.350641
 21
25.736083
  0
LINE
  8
2
  6
CENTER
 62
2
 10
-188.057070
 20
18.244484
 11
-173.006716
 21
18.244484
  0
LINE
  8
2
  6
CENTER
 62
2
 10
-218.099379
 20
-35.359936
 11
-218.099379
 21
-2.963518
  0
LINE
  8
2
 10
-111.850641
 20
48.244484
 11
-114.350641
 21
48.244484
  0
ARC
  8
2
 10
-111.850641
 20
46.744484
 40
1.500000
 50
0.000000
 51
90.000000
  0
ARC
  8
2
 10
-114.350641
 20
44.244484
 40
4.000000
 50
90.000000
 51
180.000000
  0
LINE
  8
2
 10
-132.350641
 20
19.744484
 11
-132.350641
 21
6.744484
  0
LINE
  8
2
 10
-130.350641
 20
21.744484
 11
-117.133071
 21
21.744484
  0
LINE
  8
2
 10
-130.350641
 20
4.744484
 11
-117.133071
 21
4.744484
  0
ARC
  8
2
 10
-130.350641
 20
6.744484
 40
2.000000
 50
180.000000
 51
270.000000
  0
ARC
  8
2
 10
-130.350641
 20
19.744484
 40
2.000000
 50
90.000000
 51
180.000000
  0
LINE
  8
2
 10
-118.350641
 20
41.296453
 11
-118.350641
 21
44.244484
  0
ARC
  8
2
 10
-117.350641
 20
36.697911
 40
3.000000
 50
0.000000
 51
82.036169
  0
ARC
  8
2
 10
-116.707318
 20
41.296453
 40
1.643323
 50
90.000000
 51
262.036169
  0
LINE
  8
2
 10
-116.707318
 20
42.939775
 11
-111.850641
 21
42.939775
  0
LINE
  8
2
 10
-111.850641
 20
34.494484
 11
-114.350641
 21
34.494484
  0
LINE
  8
2
 10
-118.350641
 20
30.494484
 11
-118.350641
 21
24.618172
  0
LINE
  8
2
 10
-114.350641
 20
36.697911
 11
-114.350641
 21
34.494484
  0
ARC
  8
2
 10
-114.350641
 20
30.494484
 40
4.000000
 50
90.000000
 51
180.000000
  0
ARC
  8
2
 10
-114.350641
 20
24.618172
 40
4.000000
 50
180.000000
 51
244.623066
  0
ARC
  8
2
 10
-117.350641
 20
18.293617
 40
3.000000
 50
0.000000
 51
64.623066
  0
ARC
  8
2
 10
-111.850641
 20
32.994484
 40
1.500000
 50
0.000000
 51
90.000000
  0
LINE
  8
2
 10
-110.350641
 20
-20.255516
 11
-110.350641
 21
46.744484
  0
LINE
  8
2
 10
-111.850641
 20
-21.755516
 11
-114.350641
 21
-21.755516
  0
ARC
  8
2
 10
-111.850641
 20
-20.255516
 40
1.500000
 50
270.000000
 51
360.000000
  0
ARC
  8
2
 10
-114.350641
 20
-17.755516
 40
4.000000
 50
180.000000
 51
270.000000
  0
LINE
  8
2
 10
-118.350641
 20
-14.807485
 11
-118.350641
 21
-17.755516
  0
ARC
  8
2
 10
-117.350641
 20
-10.208943
 40
3.000000
 50
277.963831
 51
360.000000
  0
ARC
  8
2
 10
-116.707318
 20
-14.807485
 40
1.643323
 50
97.963831
 51
270.000000
  0
LINE
  8
2
 10
-116.707318
 20
-16.450808
 11
-111.850641
 21
-16.450808
  0
LINE
  8
2
 10
-111.850641
 20
-8.005516
 11
-114.350641
 21
-8.005516
  0
LINE
  8
2
 10
-118.350641
 20
-4.005516
 11
-118.350641
 21
1.870796
  0
LINE
  8
2
 10
-114.350641
 20
-10.208943
 11
-114.350641
 21
-8.005516
  0
LINE
  8
2
 10
-114.350641
 20
8.195351
 11
-114.350641
 21
18.293617
  0
ARC
  8
2
 10
-114.350641
 20
-4.005516
 40
4.000000
 50
180.000000
 51
270.000000
  0
ARC
  8
2
 10
-114.350641
 20
1.870796
 40
4.000000
 50
115.376934
 51
180.000000
  0
ARC
  8
2
 10
-117.350641
 20
8.195351
 40
3.000000
 50
295.376934
 51
360.000000
  0
ARC
  8
2
 10
-111.850641
 20
-6.505516
 40
1.500000
 50
270.000000
 51
360.000000
  0
LINE
  8
2
 10
-111.850641
 20
21.515385
 11
-114.350641
 21
21.515385
  0
ARC
  8
2
 10
-114.350641
 20
25.515385
 40
4.000000
 50
180.000000
 51
270.000000
  0
LINE
  8
2
 10
-111.850641
 20
4.973582
 11
-114.350641
 21
4.973582
  0
ARC
  8
2
 10
-114.350641
 20
0.973582
 40
4.000000
 50
90.000000
 51
180.000000
  0
ARC
  8
2
 10
-111.850641
 20
3.473582
 40
1.500000
 50
360.000000
 51
90.000000
  0
ARC
  8
2
 10
-111.850641
 20
23.015385
 40
1.500000
 50
270.000000
 51
360.000000
  0
LINE
  8
2
 10
-228.350641
 20
-10.755516
 11
-158.350641
 21
-10.755516
  0
LINE
  8
2
 10
-228.350641
 20
-10.755516
 11
-228.350641
 21
24.744484
  0
LINE
  8
2
 10
-158.350641
 20
-10.755516
 11
-158.350641
 21
24.744484
  0
LINE
  8
2
 10
-223.350641
 20
8.244484
 11
-163.350641
 21
8.244484
  0
ARC
  8
2
 10
-163.350641
 20
3.244484
 40
5.000000
 50
0.000000
 51
90.000000
  0
ARC
  8
2
 10
-223.350641
 20
3.244484
 40
5.000000
 50
90.000000
 51
180.000000
  0
ARC
  8
2
 10
-161.350641
 20
24.744484
 40
3.000000
 50
0.000000
 51
90.000000
  0
ARC
  8
2
 10
-225.350641
 20
24.744484
 40
3.000000
 50
90.000000
 51
180.000000
  0
LINE
  8
2
 10
-158.350641
 20
13.244484
 11
-228.350641
 21
13.244484
  0
CIRCLE
  8
2
 10
-180.350641
 20
18.244484
 40
4.900000
  0
LINE
  8
2
 10
-183.237393
 20
23.244484
 11
-177.463890
 21
23.244484
  0
LINE
  8
2
 10
-186.124144
 20
18.244484
 11
-183.237393
 21
23.244484
  0
LINE
  8
2
 10
-183.237393
 20
13.244484
 11
-186.124144
 21
18.244484
  0
LINE
  8
2
 10
-177.463890
 20
23.244484
 11
-174.577139
 21
18.244484
  0
LINE
  8
2
 10
-174.577139
 20
18.244484
 11
-177.463890
 21
13.244484
  0
LINE
  8
2
 10
-216.350641
 20
19.244484
 11
-216.350641
 21
25.744484
  0
LINE
  8
2
 10
-170.350641
 20
19.244484
 11
-170.350641
 21
25.744484
  0
LINE
  8
2
 10
-227.350641
 20
18.244484
 11
-211.350641
 21
18.244484
  0
LINE
  8
2
 10
-174.577139
 20
18.244484
 11
-159.350641
 21
18.244484
  0
ARC
  8
2
 10
-169.350641
 20
19.244484
 40
1.000000
 50
180.000000
 51
270.000000
  0
ARC
  8
2
 10
-217.350641
 20
19.244484
 40
1.000000
 50
270.000000
 51
360.000000
  0
ARC
  8
2
 10
-159.350641
 20
17.244484
 40
1.000000
 50
0.000000
 51
90.000000
  0
ARC
  8
2
 10
-227.350641
 20
17.244484
 40
1.000000
 50
90.000000
 51
180.000000
  0
ARC
  8
2
 10
-172.350641
 20
25.744484
 40
2.000000
 50
0.000000
 51
90.000000
  0
ARC
  8
2
 10
-214.350641
 20
25.744484
 40
2.000000
 50
90.000000
 51
180.000000
  0
LINE
  8
2
 10
-166.350641
 20
28.744484
 11
-205.614097
 21
28.744484
  0
LINE
  8
2
 10
-166.350641
 20
28.744484
 11
-165.350641
 21
27.744484
  0
LINE
  8
2
 10
-176.827930
 20
28.744484
 11
-176.059025
 21
27.744484
  0
LINE
  8
2
 10
-206.114097
 20
30.744484
 11
-213.114097
 21
30.744484
  0
LINE
  8
2
 10
-213.614097
 20
30.244484
 11
-213.614097
 21
28.244484
  0
LINE
  8
2
 10
-205.614097
 20
30.244484
 11
-205.614097
 21
28.244484
  0
ARC
  8
2
 10
-213.114097
 20
30.244484
 40
0.500000
 50
90.000000
 51
180.000000
  0
ARC
  8
2
 10
-206.114097
 20
30.244484
 40
0.500000
 50
0.000000
 51
90.000000
  0
ARC
  8
2
 10
-214.114097
 20
28.244484
 40
0.500000
 50
270.000000
 51
360.000000
  0
ARC
  8
2
 10
-205.114097
 20
28.244484
 40
0.500000
 50
180.000000
 51
270.000000
  0
LINE
  8
2
 10
-180.587185
 20
30.744484
 11
-173.587185
 21
30.744484
  0
LINE
  8
2
 10
-173.087185
 20
30.244484
 11
-173.087185
 21
28.744484
  0
LINE
  8
2
 10
-181.087185
 20
30.244484
 11
-181.087185
 21
28.744484
  0
ARC
  8
2
 10
-173.587185
 20
30.244484
 40
0.500000
 50
0.000000
 51
90.000000
  0
ARC
  8
2
 10
-180.587185
 20
30.244484
 40
0.500000
 50
90.000000
 51
180.000000
  0
LINE
  8
2
 10
-218.100641
 20
18.244484
 11
-218.100641
 21
22.944484
  0
LINE
  8
2
 10
-218.100641
 20
22.944484
 11
-218.620256
 21
23.244484
  0
LINE
  8
2
 10
-218.100641
 20
22.944484
 11
-226.600641
 21
22.944484
  0
LINE
  8
2
 10
-226.600641
 20
18.244484
 11
-226.600641
 21
22.944484
  0
LINE
  8
2
 10
-226.600641
 20
22.944484
 11
-226.081026
 21
23.244484
  0
LINE
  8
2
 10
-226.081026
 20
23.244484
 11
-218.620256
 21
23.244484
  0
LINE
  8
2
 10
-168.600641
 20
18.244484
 11
-168.600641
 21
22.944484
  0
LINE
  8
2
 10
-168.600641
 20
22.944484
 11
-168.081026
 21
23.244484
  0
LINE
  8
2
 10
-168.600641
 20
22.944484
 11
-160.100641
 21
22.944484
  0
LINE
  8
2
 10
-160.100641
 20
18.244484
 11
-160.100641
 21
22.944484
  0
LINE
  8
2
 10
-160.100641
 20
22.944484
 11
-160.620256
 21
23.244484
  0
LINE
  8
2
 10
-160.620256
 20
23.244484
 11
-168.081026
 21
23.244484
  0
ARC
  8
2
 10
-209.614097
 20
56.275745
 40
28.810291
 50
262.019314
 51
277.980686
  0
LINE
  8
2
 10
-225.350641
 20
27.744484
 11
-214.114097
 21
27.744484
  0
LINE
  8
2
 10
-205.114097
 20
27.744484
 11
-161.350641
 21
27.744484
  0
LINE
  8
2
 10
-158.350641
 20
17.744484
 11
-132.350641
 21
17.744484
  0
LINE
  8
2
 10
-158.350641
 20
8.744484
 11
-132.350641
 21
8.744484
  0
LINE
  8
2
  6
CENTER
 62
2
 10
-102.746653
 20
13.244484
 11
-238.616884
 21
13.244484
  0
LINE
  8
2
  6
CENTER
 62
2
 10
-209.614097
 20
33.022933
 11
-209.614097
 21
25.622184
  0
LINE
  8
2
  6
CENTER
 62
2
 10
-177.087185
 20
33.022933
 11
-177.087185
 21
25.622184
  0
LINE
  8
2
  6
CENTER
 62
2
 10
-164.350641
 20
11.351203
 11
-164.350641
 21
26.186622
  0
LINE
  8
2
  6
CENTER
 62
2
 10
-222.350641
 20
11.351203
 11
-222.350641
 21
26.186622
  0
LINE
  8
2
 10
62.899359
 20
43.744484
 11
70.399359
 21
43.744484
  0
LINE
  8
2
 10
56.649359
 20
29.744484
 11
76.649359
 21
29.744484
  0
LINE
  8
2
 10
55.649359
 20
28.744484
 11
56.649359
 21
29.744484
  0
LINE
  8
2
 10
76.649359
 20
29.744484
 11
77.649359
 21
28.744484
  0
LINE
  8
2
 10
70.399359
 20
43.744484
 11
70.649359
 21
29.744484
  0
LINE
  8
2
 10
62.899359
 20
43.744484
 11
62.649359
 21
29.744484
  0
LINE
  8
2
 10
65.899359
 20
29.744484
 11
66.149359
 21
43.744484
  0
LINE
  8
2
 10
67.399359
 20
29.744484
 11
67.149359
 21
43.744484
  0
LINE
  8
2
  6
CENTER
 62
2
 10
91.398096
 20
-35.359936
 11
91.398096
 21
-2.963518
  0
ARC
  8
2
  6
PHANTOM
 62
2
 10
115.462087
 20
49.293187
 40
15.000000
 50
202.330113
 51
277.669887
  0
ARC
  8
2
  6
PHANTOM
 62
2
 10
73.836630
 20
49.293187
 40
15.000000
 50
262.330113
 51
337.669887
  0
ARC
  8
2
  6
PHANTOM
 62
2
 10
53.023902
 20
13.244484
 40
15.000000
 50
322.330113
 51
37.669887
  0
ARC
  8
2
  6
PHANTOM
 62
2
 10
73.836630
 20
-22.804220
 40
15.000000
 50
22.330113
 51
97.669887
  0
ARC
  8
2
  6
PHANTOM
 62
2
 10
115.462087
 20
-22.804220
 40
15.000000
 50
82.330113
 51
157.669887
  0
ARC
  8
2
  6
PHANTOM
 62
2
 10
136.274816
 20
13.244484
 40
15.000000
 50
142.330113
 51
217.669887
  0
ARC
  8
2
  6
PHANTOM
 62
2
 10
118.465057
 20
26.994484
 40
7.500000
 50
322.330113
 51
97.669887
  0
ARC
  8
2
  6
PHANTOM
 62
2
 10
94.649359
 20
40.744484
 40
7.500000
 50
22.330113
 51
157.669887
  0
ARC
  8
2
  6
PHANTOM
 62
2
 10
70.833660
 20
26.994484
 40
7.500000
 50
82.330113
 51
217.669887
  0
ARC
  8
2
  6
PHANTOM
 62
2
 10
70.833660
 20
-0.505516
 40
7.500000
 50
142.330113
 51
277.669887
  0
ARC
  8
2
  6
PHANTOM
 62
2
 10
94.649359
 20
-14.255516
 40
7.500000
 50
202.330113
 51
337.669887
  0
ARC
  8
2
  6
PHANTOM
 62
2
 10
118.465057
 20
-0.505516
 40
7.500000
 50
262.330113
 51
37.669887
  0
LINE
  8
2
 10
31.649359
 20
-10.755516
 11
101.649359
 21
-10.755516
  0
LINE
  8
2
 10
31.649359
 20
3.244484
 11
31.649359
 21
-10.755516
  0
LINE
  8
2
 10
36.649359
 20
8.244484
 11
50.649359
 21
8.244484
  0
LINE
  8
2
 10
101.649359
 20
-3.255516
 11
101.649359
 21
-10.755516
  0
LINE
  8
2
 10
44.649359
 20
24.744484
 11
44.649359
 21
11.244484
  0
LINE
  8
2
 10
105.649359
 20
27.744484
 11
47.649359
 21
27.744484
  0
ARC
  8
2
 10
47.649359
 20
24.744484
 40
3.000000
 50
90.000000
 51
180.000000
  0
LINE
  8
2
 10
106.649359
 20
26.744484
 11
106.649359
 21
26.205965
  0
ARC
  8
2
 10
105.649359
 20
26.744484
 40
1.000000
 50
0.000000
 51
90.000000
  0
ARC
  8
2
 10
107.649359
 20
26.205965
 40
1.000000
 50
180.000000
 51
236.743569
  0
LINE
  8
2
 10
108.649359
 20
-0.255516
 11
91.649359
 21
-0.255516
  0
LINE
  8
2
 10
113.649359
 20
13.244484
 11
113.649359
 21
4.744484
  0
ARC
  8
2
 10
108.649359
 20
4.744484
 40
5.000000
 50
270.000000
 51
360.000000
  0
ARC
  8
2
 10
104.649359
 20
-3.255516
 40
3.000000
 50
90.000000
 51
180.000000
  0
ARC
  8
2
 10
36.649359
 20
3.244484
 40
5.000000
 50
90.000000
 51
180.000000
  0
ARC
  8
2
 10
41.649359
 20
11.244484
 40
3.000000
 50
270.000000
 51
360.000000
  0
LINE
  8
2
 10
44.649359
 20
13.244484
 11
113.649359
 21
13.244484
  0
LINE
  8
2
 10
94.649359
 20
27.744484
 11
93.649359
 21
28.744484
  0
LINE
  8
2
 10
49.649359
 20
28.744484
 11
48.649359
 21
27.744484
  0
LINE
  8
2
 10
71.649359
 20
27.744484
 11
70.649359
 21
28.744484
  0
LINE
  8
2
 10
62.649359
 20
28.744484
 11
61.649359
 21
27.744484
  0
LINE
  8
2
 10
53.885903
 20
30.744484
 11
46.885903
 21
30.744484
  0
LINE
  8
2
 10
46.385903
 20
30.244484
 11
46.385903
 21
27.767764
  0
LINE
  8
2
 10
54.385903
 20
30.244484
 11
54.385903
 21
28.744484
  0
ARC
  8
2
 10
46.885903
 20
30.244484
 40
0.500000
 50
90.000000
 51
180.000000
  0
ARC
  8
2
 10
53.885903
 20
30.244484
 40
0.500000
 50
0.000000
 51
90.000000
  0
LINE
  8
2
 10
79.412815
 20
30.744484
 11
86.412815
 21
30.744484
  0
LINE
  8
2
 10
86.912815
 20
30.244484
 11
86.912815
 21
28.244484
  0
LINE
  8
2
 10
78.912815
 20
30.244484
 11
78.912815
 21
28.244484
  0
ARC
  8
2
 10
86.412815
 20
30.244484
 40
0.500000
 50
0.000000
 51
90.000000
  0
ARC
  8
2
 10
79.412815
 20
30.244484
 40
0.500000
 50
90.000000
 51
180.000000
  0
ARC
  8
2
 10
87.412815
 20
28.244484
 40
0.500000
 50
180.000000
 51
270.000000
  0
ARC
  8
2
 10
78.412815
 20
28.244484
 40
0.500000
 50
270.000000
 51
360.000000
  0
LINE
  8
2
 10
49.649359
 20
28.744484
 11
78.912815
 21
28.744484
  0
LINE
  8
2
 10
86.912815
 20
28.744484
 11
93.649359
 21
28.744484
  0
ARC
  8
2
 10
45.885903
 20
27.767764
 40
0.500000
 50
300.254682
 51
360.000000
  0
LINE
  8
2
 10
56.649359
 20
25.744484
 11
56.649359
 21
19.244484
  0
LINE
  8
2
 10
101.649359
 20
21.744484
 11
101.649359
 21
19.244484
  0
ARC
  8
2
 10
95.649359
 20
21.744484
 40
6.000000
 50
0.000000
 51
90.000000
  0
LINE
  8
2
 10
96.649359
 20
18.244484
 11
112.043156
 21
18.244484
  0
ARC
  8
2
 10
102.649359
 20
19.244484
 40
1.000000
 50
180.000000
 51
270.000000
  0
ARC
  8
2
 10
112.043156
 20
17.244484
 40
1.000000
 50
17.235285
 51
90.000000
  0
LINE
  8
2
 10
45.649359
 20
18.244484
 11
61.649359
 21
18.244484
  0
ARC
  8
2
 10
45.649359
 20
17.244484
 40
1.000000
 50
90.000000
 51
180.000000
  0
ARC
  8
2
 10
55.649359
 20
19.244484
 40
1.000000
 50
270.000000
 51
360.000000
  0
ARC
  8
2
 10
58.649359
 20
25.744484
 40
2.000000
 50
90.000000
 51
180.000000
  0
LINE
  8
2
 10
103.399359
 20
18.244484
 11
103.399359
 21
22.944484
  0
LINE
  8
2
 10
103.399359
 20
22.944484
 11
103.918974
 21
23.244484
  0
LINE
  8
2
 10
103.918974
 20
23.244484
 11
111.379744
 21
23.244484
  0
LINE
  8
2
 10
111.899359
 20
18.244484
 11
111.899359
 21
22.944484
  0
LINE
  8
2
 10
111.899359
 20
22.944484
 11
111.379744
 21
23.244484
  0
LINE
  8
2
 10
111.899359
 20
22.944484
 11
103.399359
 21
22.944484
  0
LINE
  8
2
 10
46.399359
 20
18.244484
 11
46.399359
 21
22.944484
  0
LINE
  8
2
 10
46.399359
 20
22.944484
 11
46.918974
 21
23.244484
  0
LINE
  8
2
 10
46.918974
 20
23.244484
 11
54.379744
 21
23.244484
  0
LINE
  8
2
 10
54.899359
 20
18.244484
 11
54.899359
 21
22.944484
  0
LINE
  8
2
 10
54.899359
 20
22.944484
 11
54.379744
 21
23.244484
  0
LINE
  8
2
 10
54.899359
 20
22.944484
 11
46.399359
 21
22.944484
  0
ARC
  8
2
 10
99.149359
 20
13.244484
 40
14.500000
 50
0.000000
 51
28.440718
  0
ARC
  8
2
 10
99.149359
 20
13.244484
 40
14.500000
 50
43.602819
 51
90.000000
  0
LINE
  8
2
 10
35.149359
 20
20.703484
 11
35.149359
 21
15.785484
  0
LINE
  8
2
 10
35.149359
 20
20.703484
 11
35.690359
 21
21.244484
  0
LINE
  8
2
 10
35.690359
 20
21.244484
 11
39.649359
 21
21.244484
  0
LINE
  8
2
 10
35.690359
 20
21.244484
 11
35.690359
 21
15.244484
  0
LINE
  8
2
 62
2
 10
35.149359
 20
20.703484
 11
39.649359
 21
20.703484
  0
LINE
  8
2
 10
35.149359
 20
15.785484
 11
35.690359
 21
15.244484
  0
LINE
  8
2
 10
35.690359
 20
15.244484
 11
39.649359
 21
15.244484
  0
LINE
  8
2
 62
2
 10
35.149359
 20
15.785484
 11
39.649359
 21
15.785484
  0
LINE
  8
2
 10
44.649359
 20
13.244484
 11
39.649359
 21
13.244484
  0
LINE
  8
2
 10
39.649359
 20
13.244484
 11
39.649359
 21
23.244484
  0
ARC
  8
2
 10
46.262566
 20
15.744484
 40
6.613208
 50
157.788205
 51
202.211795
  0
LINE
  8
2
 10
44.649359
 20
23.244484
 11
39.649359
 21
23.244484
  0
LINE
  8
2
 10
44.649359
 20
18.244484
 11
40.140106
 21
18.244484
  0
ARC
  8
2
 10
46.262566
 20
20.744484
 40
6.613208
 50
157.788205
 51
202.211795
  0
CIRCLE
  8
2
 10
94.649359
 20
13.244484
 40
4.500000
  0
LINE
  8
2
  6
CENTER
 62
2
 10
135.819409
 20
13.244484
 11
24.479799
 21
13.244484
  0
LINE
  8
2
  6
CENTER
 62
2
 10
94.649359
 20
54.414534
 11
94.649359
 21
-27.925567
  0
LINE
  8
2
  6
CENTER
 62
2
 10
45.649359
 20
18.244484
 11
30.874109
 21
18.244484
  0
LINE
  8
2
  6
CENTER
 62
2
 10
50.385903
 20
33.022933
 11
50.385903
 21
25.622184
  0
LINE
  8
2
  6
CENTER
 62
2
 10
82.912815
 20
33.022933
 11
82.912815
 21
25.622184
  0
LINE
  8
2
  6
CENTER
 62
2
 10
107.649359
 20
26.186622
 11
107.649359
 21
11.351203
  0
LINE
  8
2
  6
CENTER
 62
2
 10
50.649359
 20
26.186622
 11
50.649359
 21
11.351203
  0
TEXT
  8
2
 10
-174.850641
 20
143.742823
 40
7.000000
  1
Ｓ
 50
270.000000
  0
TEXT
  8
2
 10
-196.850641
 20
158.742823
 40
7.000000
  1
Ｏ
 50
0.000000
  0
LINE
  8
2
 10
-225.599379
 20
-23.755516
 11
-225.599379
 21
-28.533828
  0
LINE
  8
2
 10
-225.599379
 20
-28.533828
 11
-224.349379
 21
-29.255516
  0
LINE
  8
2
 10
-221.849379
 20
-23.755516
 11
-221.849379
 21
-28.533828
  0
ARC
  8
2
 10
-223.724379
 20
-26.123452
 40
3.053774
 50
232.121121
 51
307.878879
  0
ARC
  8
2
 10
-218.099379
 20
-17.927227
 40
11.250000
 50
250.528781
 51
289.471223
  0
LINE
  8
2
 10
-210.599379
 20
-27.865283
 11
-210.599379
 21
-28.533828
  0
LINE
  8
2
 10
-210.599379
 20
-28.533828
 11
-211.849379
 21
-29.255516
  0
LINE
  8
2
 10
-211.849379
 20
-29.255516
 11
-224.349379
 21
-29.255516
  0
LINE
  8
2
 10
-214.349379
 20
-27.713769
 11
-214.349379
 21
-28.533828
  0
ARC
  8
2
 10
-212.474379
 20
-26.123452
 40
3.053774
 50
232.121121
 51
307.878879
  0
LINE
  8
2
 10
-225.799379
 20
-21.755516
 11
-225.799379
 21
-23.755516
  0
LINE
  8
2
 10
-225.799379
 20
-23.755516
 11
-217.022214
 21
-23.755516
  0
LINE
  8
2
 10
83.820932
 20
-23.755516
 11
99.098096
 21
-23.755516
  0
LINE
  8
2
 10
99.098096
 20
-23.755516
 11
99.098096
 21
-21.755516
  0
LINE
  8
2
 10
84.898096
 20
-23.755516
 11
84.898096
 21
-29.255516
  0
LINE
  8
2
 10
91.398096
 20
-23.755516
 11
91.398096
 21
-28.533828
  0
ARC
  8
2
 10
88.148096
 20
-21.576758
 40
7.678759
 50
244.960340
 51
295.039660
  0
LINE
  8
2
 10
97.898096
 20
-23.755516
 11
97.898096
 21
-29.255516
  0
LINE
  8
2
 10
97.898096
 20
-29.255516
 11
84.898096
 21
-29.255516
  0
ARC
  8
2
 10
94.648096
 20
-21.576758
 40
7.678759
 50
244.960340
 51
295.039660
  0
DIMENSION
  8
5
  2
*D0
 10
-4.864883
 20
13.244484
 11
-10.484883
 21
3.224484
 70
0
  1
24
 13
31.649359
 23
-10.755516
 14
24.479799
 24
13.244484
 50
90.000000
  0
DIMENSION
  8
5
  2
*D1
 10
-76.092659
 20
-21.755516
 11
-84.022659
 21
12.914484
 70
1
  1
%%c70
 13
-111.850641
 23
48.244484
 14
-111.850641
 24
-21.755516
 50
270.000000
  0
DIMENSION
  8
5
  2
*D2
 10
-110.350641
 20
223.778763
 11
-151.850641
 21
228.078763
 70
0
  1
83
 13
-193.350641
 23
195.902495
 14
-110.350641
 24
198.058521
 50
0.000000
  0
DIMENSION
  8
5
  2
*D3
 10
-76.092659
 20
168.242823
 11
-81.712659
 21
156.222823
 70
0
  1
28
 13
-129.919632
 23
140.242823
 14
-102.746653
 24
168.242823
 50
90.000000
  0
DIMENSION
  8
5
  2
*D4
 10
-76.092659
 20
140.242823
 11
-81.712659
 21
124.722823
 70
0
  1
35
 13
-168.350641
 23
105.242823
 14
-129.919632
 24
140.242823
 50
90.000000
  0
DIMENSION
  8
5
  2
*D5
 10
-4.864883
 20
-10.755516
 11
-12.794883
 21
-80.085516
 70
0
  1
138
 13
33.175802
 23
-148.755516
 14
31.649359
 24
-10.755516
 50
90.000000
  0
DIMENSION
  8
5
  2
*D6
 10
-4.864883
 20
-148.755516
 11
-10.484883
 21
-180.675516
 70
0
  1
68
 13
51.405219
 23
-216.555516
 14
33.175802
 24
-148.755516
 50
90.000000
  0
DIMENSION
  8
5
  2
*D7
 10
88.149359
 20
-246.535904
 11
66.649359
 21
-242.235904
 70
0
  1
43
 13
45.149359
 23
-196.255516
 14
88.149359
 24
-198.755516
 50
0.000000
  0
LINE
  8
18
 10
243.098152
 20
-136.431236
 11
343.098152
 21
-136.431236
  0
LINE
  8
18
 10
243.098152
 20
-176.431236
 11
343.098152
 21
-176.431236
  0
LINE
  8
18
 10
243.098152
 20
-186.431236
 11
343.098152
 21
-186.431236
  0
LINE
  8
18
 10
243.098152
 20
-196.431236
 11
343.098152
 21
-196.431236
  0
LINE
  8
18
 10
243.098152
 20
-136.431236
 11
243.098152
 21
-196.431236
  0
LINE
  8
18
 10
293.098152
 20
-136.431236
 11
293.098152
 21
-186.431236
  0
LINE
  8
18
 10
343.098152
 20
-136.431236
 11
343.098152
 21
-196.431236
  0
LINE
  8
18
  6
CENTER
 62
2
 10
250.914742
 20
-163.586777
 11
280.736214
 21
-163.586777
  0
LINE
  8
18
  6
CENTER
 62
2
 10
265.960518
 20
-150.713860
 11
265.960518
 21
-171.186554
  0
LINE
  8
18
 10
278.960518
 20
-159.986777
 11
278.960518
 21
-167.186777
  0
LINE
  8
18
 10
252.960518
 20
-159.986777
 11
252.960518
 21
-167.186777
  0
LINE
  8
18
 10
261.353995
 20
-152.586777
 11
270.567040
 21
-152.586777
  0
LINE
  8
18
 10
271.283528
 20
-156.586777
 11
283.107002
 21
-156.586777
  0
LINE
  8
18
 10
283.107002
 20
-149.786777
 11
283.107002
 21
-161.386777
  0
LINE
  8
18
 10
285.507002
 20
-149.786777
 11
285.507002
 21
-161.386777
  0
LINE
  8
18
 10
271.108550
 20
-154.586777
 11
283.107002
 21
-154.586777
  0
LINE
  8
18
 10
253.360518
 20
-159.586777
 11
260.287554
 21
-159.586777
  0
LINE
  8
18
 10
271.633482
 20
-159.586777
 11
278.560518
 21
-159.586777
  0
LINE
  8
18
 10
253.360518
 20
-167.586777
 11
260.710518
 21
-167.586777
  0
LINE
  8
18
 10
271.210518
 20
-167.586777
 11
278.560518
 21
-167.586777
  0
LINE
  8
18
 10
263.225559
 20
-162.986777
 11
268.695477
 21
-162.986777
  0
LINE
  8
18
 10
263.225559
 20
-164.186777
 11
268.695477
 21
-164.186777
  0
ARC
  8
18
 10
284.307002
 20
-149.786777
 40
1.200000
 50
0.000000
 51
180.000000
  0
ARC
  8
18
 10
284.307002
 20
-161.386777
 40
1.200000
 50
180.000000
 51
360.000000
  0
LINE
  8
18
 10
259.983350
 20
-163.063842
 11
260.955517
 21
-152.951914
  0
LINE
  8
18
 10
271.937686
 20
-163.063842
 11
270.965518
 21
-152.951914
  0
ARC
  8
18
 10
261.353995
 20
-152.986777
 40
0.400000
 50
90.000000
 51
175.000000
  0
ARC
  8
18
 10
270.567040
 20
-152.986777
 40
0.400000
 50
5.000000
 51
90.000000
  0
ARC
  8
18
 10
253.360518
 20
-159.986777
 40
0.400000
 50
90.000000
 51
180.000000
  0
ARC
  8
18
 10
253.360518
 20
-167.186777
 40
0.400000
 50
180.000000
 51
270.000000
  0
ARC
  8
18
 10
278.560518
 20
-159.986777
 40
0.400000
 50
0.000000
 51
90.000000
  0
ARC
  8
18
 10
278.560518
 20
-167.186777
 40
0.400000
 50
270.000000
 51
360.000000
  0
LINE
  8
18
  6
CENTER
 62
2
 10
315.960518
 20
-141.240761
 11
315.960518
 21
-160.088753
  0
LINE
  8
18
  6
CENTER
 62
2
 10
329.833435
 20
-150.586777
 11
301.055275
 21
-150.586777
  0
LINE
  8
18
 10
326.960518
 20
-145.980254
 11
326.960518
 21
-155.193299
  0
LINE
  8
18
 10
322.960518
 20
-155.909786
 11
322.960518
 21
-167.733261
  0
LINE
  8
18
 10
329.760518
 20
-167.733261
 11
318.160518
 21
-167.733261
  0
LINE
  8
18
 10
329.760518
 20
-170.133261
 11
318.160518
 21
-170.133261
  0
LINE
  8
18
 10
324.960518
 20
-155.734809
 11
324.960518
 21
-167.733261
  0
LINE
  8
18
 10
316.560518
 20
-147.851818
 11
316.560518
 21
-153.321736
  0
LINE
  8
18
 10
315.360518
 20
-147.851818
 11
315.360518
 21
-153.321736
  0
ARC
  8
18
 10
329.760518
 20
-168.933261
 40
1.200000
 50
270.000000
 51
90.000000
  0
ARC
  8
18
 10
318.160518
 20
-168.933261
 40
1.200000
 50
90.000000
 51
270.000000
  0
LINE
  8
18
 10
316.483452
 20
-144.609609
 11
326.595380
 21
-145.581776
  0
LINE
  8
18
 10
316.483452
 20
-156.563945
 11
326.595380
 21
-155.591777
  0
ARC
  8
18
 10
326.560518
 20
-145.980254
 40
0.400000
 50
0.000000
 51
85.000000
  0
ARC
  8
18
 10
326.560518
 20
-155.193299
 40
0.400000
 50
275.000000
 51
360.000000
  0
LINE
  8
18
 10
303.360518
 20
-146.586777
 11
309.960518
 21
-146.586777
  0
LINE
  8
18
 10
303.360518
 20
-154.586777
 11
309.960518
 21
-154.586777
  0
LINE
  8
18
 10
326.960518
 20
-154.586777
 11
328.560518
 21
-154.586777
  0
LINE
  8
18
 10
326.960518
 20
-146.586777
 11
328.560518
 21
-146.586777
  0
LINE
  8
18
 10
328.960518
 20
-146.986777
 11
328.960518
 21
-154.186777
  0
LINE
  8
18
 10
302.960518
 20
-146.986777
 11
302.960518
 21
-154.186777
  0
ARC
  8
18
 10
303.360518
 20
-146.986777
 40
0.400000
 50
90.000000
 51
180.000000
  0
ARC
  8
18
 10
303.360518
 20
-154.186777
 40
0.400000
 50
180.000000
 51
270.000000
  0
ARC
  8
18
 10
328.560518
 20
-154.186777
 40
0.400000
 50
270.000000
 51
360.000000
  0
ARC
  8
18
 10
328.560518
 20
-146.986777
 40
0.400000
 50
0.000000
 51
90.000000
  0
CIRCLE
  8
18
 10
265.960518
 20
-163.586777
 40
2.800000
  0
CIRCLE
  8
18
 10
315.960518
 20
-150.586777
 40
2.800000
  0
LINE
  8
18
 10
261.960518
 20
-169.586777
 11
269.960518
 21
-169.586777
  0
LINE
  8
18
 10
270.936128
 20
-168.806289
 11
271.814176
 21
-164.903850
  0
LINE
  8
18
 10
260.984908
 20
-168.806289
 11
260.106859
 21
-164.903850
  0
ARC
  8
18
 10
269.960518
 20
-168.586777
 40
1.000000
 50
270.000000
 51
347.319617
  0
ARC
  8
18
 10
261.960518
 20
-168.586777
 40
1.000000
 50
192.680383
 51
270.000000
  0
ARC
  8
18
 10
265.960518
 20
-163.586777
 40
6.000000
 50
175.000000
 51
192.680383
  0
ARC
  8
18
 10
265.960518
 20
-163.586777
 40
6.000000
 50
347.319617
 51
5.000000
  0
LINE
  8
18
 10
310.741006
 20
-145.611167
 11
314.643445
 21
-144.733118
  0
LINE
  8
18
 10
310.741006
 20
-155.562386
 11
314.643445
 21
-156.440435
  0
ARC
  8
18
 10
310.960518
 20
-146.586777
 40
1.000000
 50
102.680383
 51
180.000000
  0
ARC
  8
18
 10
310.960518
 20
-154.586777
 40
1.000000
 50
180.000000
 51
257.319617
  0
LINE
  8
18
 10
309.960518
 20
-154.586777
 11
309.960518
 21
-146.586777
  0
ARC
  8
18
 10
315.960518
 20
-150.586777
 40
6.000000
 50
85.000000
 51
102.680383
  0
ARC
  8
18
 10
315.960518
 20
-150.586777
 40
6.000000
 50
257.319617
 51
275.000000
  0
TEXT
  8
18
 10
244.289261
 20
-266.527985
 40
6.000000
  1
１
 50
0.000000
  0
TEXT
  8
18
 10
253.082458
 20
-274.202026
 40
6.000000
  1
２
 50
0.000000
  0
TEXT
  8
18
 10
263.359627
 20
-184.075478
 40
6.000000
  1
Ａ
 50
0.000000
  0
TEXT
  8
18
 10
251.082405
 20
-193.498505
 40
5.000000
  1
ＡＣＴＵＡＴＯＲ　ＰＯＳＩＴＩＯＮ
 50
0.000000
  0
TEXT
  8
18
 10
313.359627
 20
-184.075478
 40
6.000000
  1
Ｂ
 50
0.000000
  0
TEXT
  8
18
 10
263.174342
 20
-160.548553
 40
3.000000
  1
Ｏ
 50
0.000000
  0
TEXT
  8
18
 10
271.736830
 20
-166.309218
 40
3.000000
  1
Ｓ
 50
90.000000
  0
TEXT
  8
18
 10
318.798741
 20
-147.800601
 40
3.000000
  1
Ｏ
 50
270.000000
  0
TEXT
  8
18
 10
313.238077
 20
-156.363089
 40
3.000000
  1
Ｓ
 50
0.000000
  0
TEXT
  8
18
 10
245.708481
 20
-246.070526
 40
6.000000
  1
７３２Ｐ－２ＩＡＳ　５０Ａ
 50
0.000000
  0
TEXT
  8
18
 10
245.708481
 20
-254.070526
 40
6.000000
  1
標準仕様　ＪＩＳ　２０Ｋ
 50
0.000000
  0
TEXT
  8
18
 10
360.316223
 20
-253.771606
 40
4.000000
  1
２０００．１１．１１
 50
0.000000
  0
TEXT
  8
18
 10
307.200000
 20
-272.000000
 40
10.000000
  1
Ｄ３－０２５０１
 50
0.000000
  0
LINE
  8
20
 62
3
 10
-360.000000
 20
-277.000000
 11
400.000000
 21
-277.000000
  0
LINE
  8
20
 62
3
 10
-360.000000
 20
264.000000
 11
400.000000
 21
264.000000
  0
LINE
  8
20
 62
3
 10
-360.000000
 20
264.000000
 11
-360.000000
 21
-277.000000
  0
LINE
  8
20
 62
3
 10
400.000000
 20
264.000000
 11
400.000000
 21
-277.000000
  0
LINE
  8
20
 62
3
 10
120.000000
 20
-277.000000
 11
120.000000
 21
-237.000000
  0
LINE
  8
20
 62
3
 10
214.000000
 20
-277.000000
 11
214.000000
 21
-237.000000
  0
LINE
  8
20
 10
214.000000
 20
-257.000000
 11
400.000000
 21
-257.000000
  0
LINE
  8
20
 62
3
 10
120.000000
 20
-237.000000
 11
400.000000
 21
-237.000000
  0
LINE
  8
20
 10
360.000000
 20
-257.000000
 11
360.000000
 21
-237.000000
  0
LINE
  8
20
 10
360.000000
 20
-247.000000
 11
400.000000
 21
-247.000000
  0
LINE
  8
20
 10
242.000000
 20
-277.000000
 11
242.000000
 21
-237.000000
  0
LINE
  8
20
 10
262.000000
 20
-277.000000
 11
262.000000
 21
-257.000000
  0
LINE
  8
20
 10
302.000000
 20
-277.000000
 11
302.000000
 21
-257.000000
  0
LINE
  8
20
 10
247.456829
 20
-271.543171
 11
255.796581
 21
-263.203419
  0
TEXT
  8
20
 10
263.066658
 20
-264.993835
 40
3.600000
  1
ＤＲＡＷＩＮＧ　ＮＯ．
 50
0.000000
  0
TEXT
  8
20
 10
267.000000
 20
-273.000000
 40
6.000000
  1
図　　　番
 50
0.000000
  0
TEXT
  8
20
 10
372.000000
 20
-244.000000
 40
4.000000
  1
ＤＡＴＥ
 50
0.000000
  0
TEXT
  8
20
 10
218.002142
 20
-265.922058
 40
4.000000
  1
ＳＣＡＬＥ
 50
0.000000
  0
TEXT
  8
20
 10
216.000000
 20
-273.000000
 40
6.000000
  1
尺　　度
 50
0.000000
  0
TEXT
  8
20
 10
215.002142
 20
-244.991769
 40
4.000000
  1
ＦＩＧ．ＮＯ．
 50
0.000000
  0
TEXT
  8
20
 10
216.000000
 20
-253.000000
 40
6.000000
  1
名　　称
 50
0.000000
  0
TEXT
  8
20
 10
121.131050
 20
-252.940506
 40
4.600000
  1
ＴＯＭＯＥ　ＶＡＬＶＥ　ＣＯ．，ＬＴＤ．
 50
0.000000
  0
TEXT
  8
20
 10
135.000000
 20
-266.579620
 40
8.000000
  1
巴バルブ株式会社
 50
0.000000
  0
ENDSEC
  0
EOF
