  0
SECTION
  2
HEADER
  9
$LIMMAX
 10
420.000000
 20
297.000000
  9
$LIMMIN
 10
-420.000000
 20
-297.000000
  9
$EXTMAX
 10
420.000000
 20
297.000000
  9
$EXTMIN
 10
-420.000000
 20
-297.000000
  9
$DIMLFAC
 40
1.000000
  9
$DIMALTF
 40
25.400000
  9
$DIMSCALE
 40
2.000000
  9
$DIMTAD
 70
1
  9
$DIMTIH
 70
1
  9
$DIMTOH
 70
1
  9
$TDCREATE
 40
2450473.000000
  9
$TDUPDATE
 40
2452041.000000
999
3106
  0
ENDSEC
  0
SECTION
  2
TABLES
  0
TABLE
  2
LTYPE
 70
7
  0
LTYPE
  2
CONTINUOUS
 70
0
  3
Solid line
 72
65
 73
0
 40
0.000000
  0
LTYPE
  2
DASHED
 70
0
  3
__ __ __ __ __ __ __ __ __ __ __ __ __ __ __
 72
65
 73
2
 40
2.000000
 49
1.200000
 49
-0.800000
  0
LTYPE
  2
CENTER
 70
0
  3
____ _ ____ _ ____ _ ____ _ ____ _ ____ _ ____
 72
65
 73
4
 40
12.000000
 49
9.000000
 49
-1.000000
 49
1.000000
 49
-1.000000
  0
LTYPE
  2
HIDDEN
 70
0
  3
_ _ _ _ _ _ _ _ _ _ _ _ _ _ _ _ _ _ _ _ _ _ _
 72
65
 73
2
 40
3.200000
 49
2.400000
 49
-0.800000
  0
LTYPE
  2
PHANTOM
 70
0
  3
_____ _ _ _____ _ _ _____ _ _ _____ _ _ _____
 72
65
 73
6
 40
13.500000
 49
9.000000
 49
-1.000000
 49
1.000000
 49
-0.500000
 49
1.000000
 49
-1.000000
  0
LTYPE
  2
DOT
 70
0
  3
...............................................
 72
65
 73
2
 40
1.000000
 49
0.500000
 49
-0.500000
  0
LTYPE
  2
DASHDOT
 70
0
  3
__ . __ . __ . __ . __ . __ . __ . __ . __ . __
 72
65
 73
4
 40
8.000000
 49
5.000000
 49
-1.000000
 49
1.000000
 49
-1.000000
  0
ENDTAB
  0
TABLE
  2
LAYER
 70
6
  0
LAYER
  2
0
 70
0
 62
7
  6
CONTINUOUS
  0
LAYER
  2
1
 70
0
 62
7
  6
CONTINUOUS
  0
LAYER
  2
2
 70
0
 62
7
  6
CONTINUOUS
  0
LAYER
  2
5
 70
0
 62
7
  6
CONTINUOUS
  0
LAYER
  2
18
 70
0
 62
7
  6
CONTINUOUS
  0
LAYER
  2
20
 70
0
 62
7
  6
CONTINUOUS
  0
ENDTAB
  0
TABLE
  2
STYLE
 70
1
  0
STYLE
  2
STANDARD
 70
64
 40
0.000000
 41
1.000000
 50
0.000000
 71
0
 42
1.000000
  3
txt
  4
BIGFONT
  0
ENDTAB
  0
ENDSEC
  0
SECTION
  2
BLOCKS
  0
BLOCK
  8
5
  2
*D0
 70
1
 10
0.000000
 20
0.000000
  0
TEXT
  8
5
 10
-5.864883
 20
14.624484
 40
6.600000
  1
24
 50
90.000000
 62
2
 41
1.400000
  0
LINE
  8
5
 62
2
 10
29.649359
 20
7.244484
 11
-6.864883
 21
7.244484
  0
LINE
  8
5
 62
2
 10
-4.864883
 20
7.244484
 11
-3.829607
 21
11.108187
  0
LINE
  8
5
 62
2
 10
-4.864883
 20
7.244484
 11
-5.900160
 21
11.108187
  0
LINE
  8
5
 62
2
 10
-3.829607
 20
11.108187
 11
-5.900160
 21
11.108187
  0
LINE
  8
5
 62
2
 10
-4.864883
 20
7.244484
 11
-4.864883
 21
31.244484
  0
LINE
  8
5
 62
2
 10
-4.864883
 20
31.244484
 11
-5.900160
 21
27.380781
  0
LINE
  8
5
 62
2
 10
-4.864883
 20
31.244484
 11
-3.829607
 21
27.380781
  0
LINE
  8
5
 62
2
 10
-5.900160
 20
27.380781
 11
-3.829607
 21
27.380781
  0
LINE
  8
5
 62
2
 10
22.479799
 20
31.244484
 11
-6.864883
 21
31.244484
  0
ENDBLK
  8
5
  0
BLOCK
  8
5
  2
*D1
 70
1
 10
0.000000
 20
0.000000
  0
TEXT
  8
5
 10
-77.092659
 20
24.314484
 40
6.600000
  1
%%c70
 50
90.000000
 62
2
 41
1.400000
  0
LINE
  8
5
 62
2
 10
-109.850641
 20
66.244484
 11
-74.092659
 21
66.244484
  0
LINE
  8
5
 62
2
 10
-76.092659
 20
66.244484
 11
-77.127935
 21
62.380781
  0
LINE
  8
5
 62
2
 10
-76.092659
 20
66.244484
 11
-75.057383
 21
62.380781
  0
LINE
  8
5
 62
2
 10
-77.127935
 20
62.380781
 11
-75.057383
 21
62.380781
  0
LINE
  8
5
 62
2
 10
-76.092659
 20
66.244484
 11
-76.092659
 21
-3.755516
  0
LINE
  8
5
 62
2
 10
-76.092659
 20
-3.755516
 11
-75.057383
 21
0.108187
  0
LINE
  8
5
 62
2
 10
-76.092659
 20
-3.755516
 11
-77.127935
 21
0.108187
  0
LINE
  8
5
 62
2
 10
-75.057383
 20
0.108187
 11
-77.127935
 21
0.108187
  0
LINE
  8
5
 62
2
 10
-109.850641
 20
-3.755516
 11
-74.092659
 21
-3.755516
  0
ENDBLK
  8
5
  0
BLOCK
  8
5
  2
*D2
 70
1
 10
0.000000
 20
0.000000
  0
TEXT
  8
5
 10
-156.470641
 20
242.778763
 40
6.600000
  1
83
 50
0.000000
 62
2
 41
1.400000
  0
LINE
  8
5
 62
2
 10
-193.350641
 20
215.902495
 11
-193.350641
 21
243.778763
  0
LINE
  8
5
 62
2
 10
-193.350641
 20
241.778763
 11
-189.486938
 21
240.743487
  0
LINE
  8
5
 62
2
 10
-193.350641
 20
241.778763
 11
-189.486938
 21
242.814039
  0
LINE
  8
5
 62
2
 10
-189.486938
 20
240.743487
 11
-189.486938
 21
242.814039
  0
LINE
  8
5
 62
2
 10
-193.350641
 20
241.778763
 11
-110.350641
 21
241.778763
  0
LINE
  8
5
 62
2
 10
-110.350641
 20
241.778763
 11
-114.214345
 21
242.814039
  0
LINE
  8
5
 62
2
 10
-110.350641
 20
241.778763
 11
-114.214345
 21
240.743487
  0
LINE
  8
5
 62
2
 10
-114.214345
 20
242.814039
 11
-114.214345
 21
240.743487
  0
LINE
  8
5
 62
2
 10
-110.350641
 20
218.058521
 11
-110.350641
 21
243.778763
  0
ENDBLK
  8
5
  0
BLOCK
  8
5
  2
*D3
 70
1
 10
0.000000
 20
0.000000
  0
TEXT
  8
5
 10
-77.092659
 20
167.622823
 40
6.600000
  1
28
 50
90.000000
 62
2
 41
1.400000
  0
LINE
  8
5
 62
2
 10
-116.637840
 20
158.242823
 11
-74.092659
 21
158.242823
  0
LINE
  8
5
 62
2
 10
-76.092659
 20
158.242823
 11
-75.057383
 21
162.106526
  0
LINE
  8
5
 62
2
 10
-76.092659
 20
158.242823
 11
-77.127935
 21
162.106526
  0
LINE
  8
5
 62
2
 10
-75.057383
 20
162.106526
 11
-77.127935
 21
162.106526
  0
LINE
  8
5
 62
2
 10
-76.092659
 20
158.242823
 11
-76.092659
 21
186.242823
  0
LINE
  8
5
 62
2
 10
-76.092659
 20
186.242823
 11
-77.127935
 21
182.379119
  0
LINE
  8
5
 62
2
 10
-76.092659
 20
186.242823
 11
-75.057383
 21
182.379119
  0
LINE
  8
5
 62
2
 10
-77.127935
 20
182.379119
 11
-75.057383
 21
182.379119
  0
LINE
  8
5
 62
2
 10
-100.746653
 20
186.242823
 11
-74.092659
 21
186.242823
  0
ENDBLK
  8
5
  0
BLOCK
  8
5
  2
*D4
 70
1
 10
0.000000
 20
0.000000
  0
TEXT
  8
5
 10
-77.092659
 20
136.122823
 40
6.600000
  1
35
 50
90.000000
 62
2
 41
1.400000
  0
LINE
  8
5
 62
2
 10
-166.350641
 20
123.242823
 11
-74.092659
 21
123.242823
  0
LINE
  8
5
 62
2
 10
-76.092659
 20
123.242823
 11
-75.057383
 21
127.106526
  0
LINE
  8
5
 62
2
 10
-76.092659
 20
123.242823
 11
-77.127935
 21
127.106526
  0
LINE
  8
5
 62
2
 10
-75.057383
 20
127.106526
 11
-77.127935
 21
127.106526
  0
LINE
  8
5
 62
2
 10
-76.092659
 20
123.242823
 11
-76.092659
 21
158.242823
  0
LINE
  8
5
 62
2
 10
-76.092659
 20
158.242823
 11
-77.127935
 21
154.379119
  0
LINE
  8
5
 62
2
 10
-76.092659
 20
158.242823
 11
-75.057383
 21
154.379119
  0
LINE
  8
5
 62
2
 10
-77.127935
 20
154.379119
 11
-75.057383
 21
154.379119
  0
LINE
  8
5
 62
2
 10
-116.637840
 20
158.242823
 11
-74.092659
 21
158.242823
  0
ENDBLK
  8
5
  0
BLOCK
  8
5
  2
*D5
 70
1
 10
0.000000
 20
0.000000
  0
TEXT
  8
5
 10
-5.864883
 20
-75.185516
 40
6.600000
  1
151
 50
90.000000
 62
2
 41
1.400000
  0
LINE
  8
5
 62
2
 10
27.243649
 20
-143.755516
 11
-6.864883
 21
-143.755516
  0
LINE
  8
5
 62
2
 10
-4.864883
 20
-143.755516
 11
-3.829607
 21
-139.891813
  0
LINE
  8
5
 62
2
 10
-4.864883
 20
-143.755516
 11
-5.900160
 21
-139.891813
  0
LINE
  8
5
 62
2
 10
-3.829607
 20
-139.891813
 11
-5.900160
 21
-139.891813
  0
LINE
  8
5
 62
2
 10
-4.864883
 20
-143.755516
 11
-4.864883
 21
7.244484
  0
LINE
  8
5
 62
2
 10
-4.864883
 20
7.244484
 11
-5.900160
 21
3.380781
  0
LINE
  8
5
 62
2
 10
-4.864883
 20
7.244484
 11
-3.829607
 21
3.380781
  0
LINE
  8
5
 62
2
 10
-5.900160
 20
3.380781
 11
-3.829607
 21
3.380781
  0
LINE
  8
5
 62
2
 10
29.649359
 20
7.244484
 11
-6.864883
 21
7.244484
  0
ENDBLK
  8
5
  0
BLOCK
  8
5
  2
*D6
 70
1
 10
0.000000
 20
0.000000
  0
TEXT
  8
5
 10
-5.864883
 20
-187.775516
 40
6.600000
  1
79
 50
90.000000
 62
2
 41
1.400000
  0
LINE
  8
5
 62
2
 10
52.664464
 20
-222.555516
 11
-6.864883
 21
-222.555516
  0
LINE
  8
5
 62
2
 10
-4.864883
 20
-222.555516
 11
-3.829607
 21
-218.691813
  0
LINE
  8
5
 62
2
 10
-4.864883
 20
-222.555516
 11
-5.900160
 21
-218.691813
  0
LINE
  8
5
 62
2
 10
-3.829607
 20
-218.691813
 11
-5.900160
 21
-218.691813
  0
LINE
  8
5
 62
2
 10
-4.864883
 20
-222.555516
 11
-4.864883
 21
-143.755516
  0
LINE
  8
5
 62
2
 10
-4.864883
 20
-143.755516
 11
-5.900160
 21
-147.619219
  0
LINE
  8
5
 62
2
 10
-4.864883
 20
-143.755516
 11
-3.829607
 21
-147.619219
  0
LINE
  8
5
 62
2
 10
-5.900160
 20
-147.619219
 11
-3.829607
 21
-147.619219
  0
LINE
  8
5
 62
2
 10
27.243649
 20
-143.755516
 11
-6.864883
 21
-143.755516
  0
ENDBLK
  8
5
  0
BLOCK
  8
5
  2
*D7
 70
1
 10
0.000000
 20
0.000000
  0
TEXT
  8
5
 10
62.029359
 20
-251.020020
 40
6.600000
  1
46
 50
0.000000
 62
2
 41
1.400000
  0
LINE
  8
5
 62
2
 10
43.649359
 20
-203.255516
 11
43.649359
 21
-254.020020
  0
LINE
  8
5
 62
2
 10
43.649359
 20
-252.020020
 11
47.513062
 21
-253.055296
  0
LINE
  8
5
 62
2
 10
43.649359
 20
-252.020020
 11
47.513062
 21
-250.984743
  0
LINE
  8
5
 62
2
 10
47.513062
 20
-253.055296
 11
47.513062
 21
-250.984743
  0
LINE
  8
5
 62
2
 10
43.649359
 20
-252.020020
 11
89.649359
 21
-252.020020
  0
LINE
  8
5
 62
2
 10
89.649359
 20
-252.020020
 11
85.785655
 21
-250.984743
  0
LINE
  8
5
 62
2
 10
89.649359
 20
-252.020020
 11
85.785655
 21
-253.055296
  0
LINE
  8
5
 62
2
 10
85.785655
 20
-250.984743
 11
85.785655
 21
-253.055296
  0
LINE
  8
5
 62
2
 10
89.649359
 20
-205.755516
 11
89.649359
 21
-254.020020
  0
ENDBLK
  8
5
  0
ENDSEC
  0
SECTION
  2
ENTITIES
  0
LINE
  8
1
  6
CENTER
 62
2
 10
66.649359
 20
70.846763
 11
66.649359
 21
-232.687769
  0
LINE
  8
1
  6
DASHED
 10
-218.350641
 20
193.242823
 11
-168.350641
 21
193.242823
  0
LINE
  8
1
  6
DASHED
 10
-218.350641
 20
123.242823
 11
-168.350641
 21
123.242823
  0
LINE
  8
1
  6
DASHED
 10
-228.350641
 20
133.242823
 11
-228.350641
 21
183.242823
  0
LINE
  8
1
  6
DASHED
 10
-158.350641
 20
133.242823
 11
-158.350641
 21
183.242823
  0
ARC
  8
1
  6
DASHED
 10
-218.350641
 20
133.242823
 40
10.000000
 50
180.000000
 51
270.000000
  0
ARC
  8
1
  6
DASHED
 10
-168.350641
 20
133.242823
 40
10.000000
 50
270.000000
 51
0.000000
  0
ARC
  8
1
  6
DASHED
 10
-168.350641
 20
183.242823
 40
10.000000
 50
0.000000
 51
90.000000
  0
ARC
  8
1
  6
DASHED
 10
-218.350641
 20
183.242823
 40
10.000000
 50
90.000000
 51
180.000000
  0
CIRCLE
  8
1
  6
DASHED
 10
-168.600641
 20
182.992823
 40
4.500000
  0
CIRCLE
  8
1
  6
DASHED
 10
-168.600641
 20
133.492823
 40
4.500000
  0
CIRCLE
  8
1
  6
DASHED
 10
-218.100641
 20
133.492823
 40
4.500000
  0
CIRCLE
  8
1
  6
DASHED
 10
-218.100641
 20
182.992823
 40
4.500000
  0
LINE
  8
1
  6
CENTER
 62
2
 10
-177.100641
 20
182.992823
 11
-160.100641
 21
182.992823
  0
LINE
  8
1
  6
CENTER
 62
2
 10
-168.600641
 20
174.492823
 11
-168.600641
 21
191.492823
  0
LINE
  8
1
  6
CENTER
 62
2
 10
-209.600641
 20
182.992823
 11
-226.600641
 21
182.992823
  0
LINE
  8
1
  6
CENTER
 62
2
 10
-218.100641
 20
174.492823
 11
-218.100641
 21
191.492823
  0
LINE
  8
1
  6
CENTER
 62
2
 10
-177.100641
 20
133.492823
 11
-160.100641
 21
133.492823
  0
LINE
  8
1
  6
CENTER
 62
2
 10
-168.600641
 20
141.992823
 11
-168.600641
 21
124.992823
  0
LINE
  8
1
  6
CENTER
 62
2
 10
-209.600641
 20
133.492823
 11
-226.600641
 21
133.492823
  0
LINE
  8
1
  6
CENTER
 62
2
 10
-218.100641
 20
141.992823
 11
-218.100641
 21
124.992823
  0
LINE
  8
1
  6
CENTER
 62
2
 10
-118.637840
 20
158.242823
 11
-268.063442
 21
158.242823
  0
LINE
  8
1
 10
-158.350641
 20
170.742823
 11
-149.623888
 21
170.742823
  0
LINE
  8
1
 10
-158.350641
 20
145.742823
 11
-149.623888
 21
145.742823
  0
LINE
  8
1
 10
-133.350641
 20
181.242823
 11
-158.350641
 21
181.242823
  0
LINE
  8
1
 10
-135.850641
 20
135.242823
 11
-158.350641
 21
135.242823
  0
LINE
  8
1
 10
-132.350641
 20
176.642823
 11
-158.350641
 21
176.642823
  0
LINE
  8
1
 10
-132.350641
 20
176.642823
 11
-132.350641
 21
180.242823
  0
LINE
  8
1
 10
-132.350641
 20
176.642823
 11
-133.627098
 21
176.300797
  0
LINE
  8
1
 10
-132.350641
 20
180.242823
 11
-133.350641
 21
181.242823
  0
LINE
  8
1
 10
-132.350641
 20
180.242823
 11
-158.350641
 21
180.242823
  0
LINE
  8
1
 10
-135.850641
 20
175.705000
 11
-158.350641
 21
175.705000
  0
LINE
  8
1
 10
-135.850641
 20
135.242823
 11
-135.850641
 21
143.471461
  0
LINE
  8
1
 10
-135.850641
 20
173.014184
 11
-135.850641
 21
173.403019
  0
LINE
  8
1
 10
-141.123888
 20
150.992420
 11
-141.123888
 21
165.493225
  0
LINE
  8
1
 10
-143.623888
 20
151.742823
 11
-143.623888
 21
164.742823
  0
LINE
  8
1
 10
-156.010984
 20
153.958213
 11
-156.010984
 21
162.527432
  0
ARC
  8
1
 10
-149.623888
 20
164.742823
 40
6.000000
 50
0.000000
 51
90.000000
  0
ARC
  8
1
 10
-149.623888
 20
151.742823
 40
6.000000
 50
270.000000
 51
360.000000
  0
ARC
  8
1
 10
-136.123888
 20
165.493225
 40
5.000000
 50
109.928314
 51
180.000000
  0
ARC
  8
1
 10
-136.123888
 20
150.992420
 40
5.000000
 50
180.000000
 51
250.071686
  0
ARC
  8
1
 10
-138.850641
 20
143.471461
 40
3.000000
 50
0.000000
 51
70.071686
  0
ARC
  8
1
 10
-138.850641
 20
173.014184
 40
3.000000
 50
289.928314
 51
360.000000
  0
ARC
  8
1
 10
-132.850641
 20
173.403019
 40
3.000000
 50
105.000000
 51
180.000000
  0
LINE
  8
1
 10
-156.010984
 20
167.527432
 11
-149.623888
 21
169.185368
  0
ARC
  8
1
 10
-161.010984
 20
162.527432
 40
5.000000
 50
0.000000
 51
57.854674
  0
ARC
  8
1
 10
-161.010984
 20
153.958213
 40
5.000000
 50
302.145326
 51
360.000000
  0
LINE
  8
1
 10
-156.010984
 20
148.958213
 11
-149.623888
 21
147.300277
  0
LINE
  8
1
  6
DASHED
 10
-143.450641
 20
182.342823
 11
-158.350641
 21
182.342823
  0
LINE
  8
1
 10
-143.450641
 20
134.142823
 11
-158.350641
 21
134.142823
  0
LINE
  8
1
 10
-142.350641
 20
135.242823
 11
-143.450641
 21
134.142823
  0
LINE
  8
1
 10
-228.350641
 20
170.742823
 11
-237.077395
 21
170.742823
  0
LINE
  8
1
 10
-228.350641
 20
145.742823
 11
-237.077395
 21
145.742823
  0
LINE
  8
1
 10
-253.350641
 20
181.242823
 11
-228.350641
 21
181.242823
  0
LINE
  8
1
 10
-250.850641
 20
135.242823
 11
-228.350641
 21
135.242823
  0
LINE
  8
1
 10
-254.350641
 20
176.642823
 11
-228.350641
 21
176.642823
  0
LINE
  8
1
 10
-254.350641
 20
176.642823
 11
-254.350641
 21
180.242823
  0
LINE
  8
1
 10
-254.350641
 20
176.642823
 11
-253.074184
 21
176.300797
  0
LINE
  8
1
 10
-254.350641
 20
180.242823
 11
-253.350641
 21
181.242823
  0
LINE
  8
1
 10
-254.350641
 20
180.242823
 11
-228.350641
 21
180.242823
  0
LINE
  8
1
 10
-250.850641
 20
175.705000
 11
-228.350641
 21
175.705000
  0
LINE
  8
1
 10
-250.850641
 20
135.242823
 11
-250.850641
 21
143.471461
  0
LINE
  8
1
 10
-250.850641
 20
173.014184
 11
-250.850641
 21
173.403019
  0
LINE
  8
1
 10
-245.577395
 20
150.992420
 11
-245.577395
 21
165.493225
  0
LINE
  8
1
 10
-243.077395
 20
151.742823
 11
-243.077395
 21
164.742823
  0
LINE
  8
1
 10
-230.690298
 20
153.958213
 11
-230.690298
 21
162.527432
  0
ARC
  8
1
 10
-237.077395
 20
164.742823
 40
6.000000
 50
90.000000
 51
180.000000
  0
ARC
  8
1
 10
-237.077395
 20
151.742823
 40
6.000000
 50
180.000000
 51
270.000000
  0
ARC
  8
1
 10
-250.577395
 20
165.493225
 40
5.000000
 50
0.000000
 51
70.071686
  0
ARC
  8
1
 10
-250.577395
 20
150.992420
 40
5.000000
 50
289.928314
 51
360.000000
  0
ARC
  8
1
 10
-247.850641
 20
143.471461
 40
3.000000
 50
109.928314
 51
180.000000
  0
ARC
  8
1
 10
-247.850641
 20
173.014184
 40
3.000000
 50
180.000000
 51
250.071686
  0
ARC
  8
1
 10
-253.850641
 20
173.403019
 40
3.000000
 50
0.000000
 51
75.000000
  0
LINE
  8
1
 10
-230.690298
 20
167.527432
 11
-237.077395
 21
169.185368
  0
ARC
  8
1
 10
-225.690298
 20
162.527432
 40
5.000000
 50
122.145326
 51
180.000000
  0
ARC
  8
1
 10
-225.690298
 20
153.958213
 40
5.000000
 50
180.000000
 51
237.854674
  0
LINE
  8
1
 10
-230.690298
 20
148.958213
 11
-237.077395
 21
147.300277
  0
LINE
  8
1
 10
-243.250641
 20
182.342823
 11
-228.350641
 21
182.342823
  0
LINE
  8
1
 10
-244.350641
 20
181.242823
 11
-243.250641
 21
182.342823
  0
LINE
  8
1
 10
-243.250641
 20
134.142823
 11
-228.350641
 21
134.142823
  0
LINE
  8
1
 10
-244.350641
 20
135.242823
 11
-243.250641
 21
134.142823
  0
LINE
  8
1
  6
CENTER
 62
2
 10
-118.637840
 20
-143.755516
 11
-268.063442
 21
-143.755516
  0
LINE
  8
1
  6
CENTER
 62
2
 10
29.243649
 20
-143.755516
 11
103.252026
 21
-143.755516
  0
LINE
  8
1
  6
CENTER
 62
2
 10
-193.350641
 20
-232.687769
 11
-193.350641
 21
70.846763
  0
LINE
  8
1
 10
-210.414730
 20
-218.555516
 11
-198.214730
 21
-218.555516
  0
LINE
  8
1
 10
-198.564730
 20
-218.555516
 11
-198.564730
 21
-222.064768
  0
LINE
  8
1
 10
-198.564730
 20
-222.064768
 11
-199.414730
 21
-222.555516
  0
LINE
  8
1
 10
-201.439730
 20
-218.555516
 11
-201.439730
 21
-222.064768
  0
ARC
  8
1
 10
-200.002230
 20
-220.216813
 40
2.341227
 50
232.121121
 51
307.878879
  0
ARC
  8
1
 10
-204.314730
 20
-213.933040
 40
8.625000
 50
250.528777
 51
289.471219
  0
LINE
  8
1
 10
-210.064730
 20
-218.555516
 11
-210.064730
 21
-222.064768
  0
LINE
  8
1
 10
-210.064730
 20
-222.064768
 11
-209.214730
 21
-222.555516
  0
LINE
  8
1
 10
-209.214730
 20
-222.555516
 11
-199.414730
 21
-222.555516
  0
LINE
  8
1
 10
-207.189730
 20
-218.555516
 11
-207.189730
 21
-222.064768
  0
ARC
  8
1
 10
-208.627230
 20
-220.216813
 40
2.341227
 50
232.121121
 51
307.878879
  0
LINE
  8
1
 10
-198.214730
 20
-217.055516
 11
-198.214730
 21
-218.555516
  0
LINE
  8
1
 10
-210.414730
 20
-218.555516
 11
-210.414730
 21
-217.055516
  0
LINE
  8
1
 10
-204.314730
 20
-218.555516
 11
-204.814730
 21
-217.055516
  0
LINE
  8
1
 10
-204.314730
 20
-217.055516
 11
-203.814730
 21
-218.555516
  0
LINE
  8
1
 10
78.634254
 20
-218.555516
 11
78.634254
 21
-222.555516
  0
LINE
  8
1
 10
73.634254
 20
-218.555516
 11
73.634254
 21
-222.064768
  0
ARC
  8
1
 10
76.134254
 20
-215.942308
 40
6.613208
 50
247.788205
 51
292.211795
  0
LINE
  8
1
 10
68.634254
 20
-218.555516
 11
68.634254
 21
-222.555516
  0
LINE
  8
1
 10
68.634254
 20
-222.555516
 11
78.634254
 21
-222.555516
  0
ARC
  8
1
 10
71.134254
 20
-215.942308
 40
6.613208
 50
247.788205
 51
292.211795
  0
LINE
  8
1
 10
79.734254
 20
-217.055516
 11
79.734254
 21
-218.555516
  0
LINE
  8
1
 10
79.734254
 20
-218.555516
 11
67.534254
 21
-218.555516
  0
LINE
  8
1
 10
67.534254
 20
-218.555516
 11
67.534254
 21
-217.055516
  0
LINE
  8
1
 10
-158.350641
 20
-0.755516
 11
-158.350641
 21
7.244484
  0
LINE
  8
1
 10
-228.350641
 20
-0.755516
 11
-228.350641
 21
7.244484
  0
LINE
  8
1
 10
-210.350641
 20
-213.755516
 11
-176.350641
 21
-213.755516
  0
LINE
  8
1
  6
CENTER
 62
2
 10
-204.314730
 20
-206.735361
 11
-204.314730
 21
-226.637818
  0
LINE
  8
1
 10
-210.814730
 20
-217.055516
 11
-175.886552
 21
-217.055516
  0
LINE
  8
1
 10
101.649359
 20
-0.755516
 11
101.649359
 21
7.244484
  0
LINE
  8
1
 10
31.649359
 20
-0.755516
 11
31.649359
 21
7.244484
  0
LINE
  8
1
 10
53.649359
 20
-213.755516
 11
79.649359
 21
-213.755516
  0
LINE
  8
1
 10
53.164464
 20
-217.055516
 11
80.134254
 21
-217.055516
  0
LINE
  8
1
  6
CENTER
 62
2
 10
-182.386552
 20
-206.735361
 11
-182.386552
 21
-226.637818
  0
LINE
  8
1
 10
-188.486552
 20
-218.555516
 11
-176.286552
 21
-218.555516
  0
LINE
  8
1
 10
-176.636552
 20
-218.555516
 11
-176.636552
 21
-222.064768
  0
LINE
  8
1
 10
-176.636552
 20
-222.064768
 11
-177.486552
 21
-222.555516
  0
LINE
  8
1
 10
-179.511552
 20
-218.555516
 11
-179.511552
 21
-222.064768
  0
ARC
  8
1
 10
-178.074052
 20
-220.216813
 40
2.341227
 50
232.121121
 51
307.878879
  0
ARC
  8
1
 10
-182.386552
 20
-213.933040
 40
8.625000
 50
250.528777
 51
289.471219
  0
LINE
  8
1
 10
-188.136552
 20
-218.555516
 11
-188.136552
 21
-222.064768
  0
LINE
  8
1
 10
-188.136552
 20
-222.064768
 11
-187.286552
 21
-222.555516
  0
LINE
  8
1
 10
-187.286552
 20
-222.555516
 11
-177.486552
 21
-222.555516
  0
LINE
  8
1
 10
-185.261552
 20
-218.555516
 11
-185.261552
 21
-222.064768
  0
ARC
  8
1
 10
-186.699052
 20
-220.216813
 40
2.341227
 50
232.121121
 51
307.878879
  0
LINE
  8
1
 10
-176.286552
 20
-217.055516
 11
-176.286552
 21
-218.555516
  0
LINE
  8
1
 10
-188.486552
 20
-218.555516
 11
-188.486552
 21
-217.055516
  0
LINE
  8
1
 10
-182.386552
 20
-218.555516
 11
-182.886552
 21
-217.055516
  0
LINE
  8
1
 10
-182.386552
 20
-217.055516
 11
-181.886552
 21
-218.555516
  0
CIRCLE
  8
1
 10
-193.350641
 20
-143.755516
 40
39.000000
  0
CIRCLE
  8
1
 10
-193.350641
 20
-143.755516
 40
49.900000
  0
CIRCLE
  8
1
 10
-193.350641
 20
-143.755516
 40
51.000000
  0
LINE
  8
1
 10
90.749359
 20
-93.855516
 11
90.749359
 21
-193.655516
  0
LINE
  8
1
 10
89.649359
 20
-92.755516
 11
90.749359
 21
-93.855516
  0
LINE
  8
1
 10
43.649359
 20
-92.755516
 11
42.549359
 21
-93.855516
  0
LINE
  8
1
 10
89.649359
 20
-194.755516
 11
90.749359
 21
-193.655516
  0
LINE
  8
1
 10
42.549359
 20
-193.655516
 11
42.549359
 21
-93.855516
  0
LINE
  8
1
 10
43.649359
 20
-194.755516
 11
42.549359
 21
-193.655516
  0
LINE
  8
1
 10
-225.799379
 20
-3.755516
 11
-160.901904
 21
-3.755516
  0
ARC
  8
1
 10
-161.350641
 20
-0.755516
 40
3.000000
 50
270.000000
 51
360.000000
  0
ARC
  8
1
 10
-225.350641
 20
-0.755516
 40
3.000000
 50
180.000000
 51
270.000000
  0
LINE
  8
1
 10
-208.376546
 20
-11.239616
 11
-209.727523
 21
-88.637028
  0
LINE
  8
1
 10
-199.589114
 20
-10.305699
 11
-204.677968
 21
-83.079701
  0
LINE
  8
1
 10
-187.112169
 20
-10.305699
 11
-182.023315
 21
-83.079701
  0
LINE
  8
1
 10
-176.350641
 20
-7.755516
 11
-176.350641
 21
-6.755516
  0
LINE
  8
1
 10
-200.392272
 20
-6.755516
 11
-200.392272
 21
-7.755516
  0
LINE
  8
1
 10
-186.309011
 20
-6.755516
 11
-186.309011
 21
-7.755516
  0
LINE
  8
1
 10
-210.350641
 20
-7.755516
 11
-210.350641
 21
-6.755516
  0
ARC
  8
1
 10
-183.309011
 20
-6.755516
 40
3.000000
 50
90.000000
 51
180.000000
  0
ARC
  8
1
 10
-173.350641
 20
-6.755516
 40
3.000000
 50
160.528779
 51
180.000000
  0
ARC
  8
1
 10
-203.392272
 20
-6.755516
 40
3.000000
 50
360.000000
 51
90.000000
  0
ARC
  8
1
 10
-213.350641
 20
-6.755516
 40
3.000000
 50
0.000000
 51
90.000000
  0
ARC
  8
1
 10
-178.350641
 20
-7.755516
 40
2.000000
 50
300.424339
 51
360.000000
  0
ARC
  8
1
 10
-188.309011
 20
-7.755516
 40
2.000000
 50
322.938827
 51
360.000000
  0
ARC
  8
1
 10
-198.392272
 20
-7.755516
 40
2.000000
 50
180.000000
 51
217.061173
  0
ARC
  8
1
 10
-208.350641
 20
-7.755516
 40
2.000000
 50
180.000000
 51
239.575661
  0
ARC
  8
1
 10
-176.325041
 20
-11.204711
 40
2.000000
 50
120.424339
 51
181.000000
  0
ARC
  8
1
 10
-185.117041
 20
-10.166186
 40
2.000000
 50
142.938827
 51
184.000000
  0
ARC
  8
1
 10
-201.584242
 20
-10.166186
 40
2.000000
 50
356.000000
 51
37.061173
  0
ARC
  8
1
 10
-210.376242
 20
-11.204711
 40
2.000000
 50
359.000000
 51
59.575661
  0
LINE
  8
1
 10
-186.309011
 20
-9.755516
 11
-178.350641
 21
-9.755516
  0
LINE
  8
1
 10
-199.550641
 20
-9.755516
 11
-187.150641
 21
-9.755516
  0
LINE
  8
1
 10
-213.850641
 20
-9.755516
 11
-211.403463
 21
-9.755516
  0
LINE
  8
1
 10
-208.350641
 20
-9.755516
 11
-200.392272
 21
-9.755516
  0
ARC
  8
1
 10
-219.850641
 20
-6.755516
 40
3.000000
 50
0.000000
 51
90.000000
  0
ARC
  8
1
 10
-175.297819
 20
-12.755516
 40
3.000000
 50
105.546972
 51
181.000000
  0
ARC
  8
1
 10
-211.403463
 20
-12.755516
 40
3.000000
 50
359.000000
 51
90.000000
  0
ARC
  8
1
 10
-213.850641
 20
-6.755516
 40
3.000000
 50
180.000000
 51
270.000000
  0
ARC
  8
1
 10
-210.663352
 20
-82.661163
 40
6.000000
 50
285.821489
 51
356.000000
  0
LINE
  8
1
 10
-173.855956
 20
-59.730687
 11
-172.088116
 21
-60.204378
  0
LINE
  8
1
 10
-174.718445
 20
-75.273416
 11
-170.125298
 21
-64.184578
  0
ARC
  8
1
 10
-172.561861
 20
-54.901058
 40
5.000000
 50
181.000000
 51
255.000000
  0
ARC
  8
1
 10
-147.002059
 20
-86.753919
 40
30.000000
 50
157.500000
 51
181.000000
  0
ARC
  8
1
 10
-172.851978
 20
-63.055151
 40
2.951337
 50
337.500000
 51
75.000000
  0
LINE
  8
1
 10
-212.845326
 20
-59.730687
 11
-214.613167
 21
-60.204378
  0
LINE
  8
1
 10
-211.982837
 20
-75.273416
 11
-216.575984
 21
-64.184578
  0
ARC
  8
1
 10
-214.139421
 20
-54.901058
 40
5.000000
 50
285.000000
 51
359.000000
  0
ARC
  8
1
 10
-239.699223
 20
-86.753919
 40
30.000000
 50
359.000000
 51
22.500000
  0
ARC
  8
1
 10
-213.849304
 20
-63.055151
 40
2.951337
 50
105.000000
 51
202.500000
  0
LINE
  8
1
 10
-178.324736
 20
-11.239616
 11
-176.973759
 21
-88.637028
  0
LINE
  8
1
 10
-210.350641
 20
-213.755516
 11
-210.350641
 21
-198.685016
  0
LINE
  8
1
 10
-176.350641
 20
-213.755516
 11
-176.350641
 21
-198.685016
  0
CIRCLE
  8
1
 10
-193.350641
 20
-143.755516
 40
57.500000
  0
ARC
  8
1
 10
-193.350641
 20
-143.755516
 40
61.000000
 50
105.595812
 51
253.818053
  0
ARC
  8
1
 10
-193.350641
 20
-143.755516
 40
61.000000
 50
286.181947
 51
74.404188
  0
LINE
  8
1
 10
-209.814730
 20
-213.755516
 11
-209.814730
 21
-214.755516
  0
LINE
  8
1
 10
-210.814730
 20
-214.755516
 11
-175.886552
 21
-214.755516
  0
LINE
  8
1
 10
-210.814730
 20
-214.755516
 11
-210.814730
 21
-217.055516
  0
LINE
  8
1
 10
-176.886552
 20
-213.755516
 11
-176.886552
 21
-214.755516
  0
LINE
  8
1
 10
-175.886552
 20
-214.755516
 11
-175.886552
 21
-217.055516
  0
LINE
  8
1
 10
99.098096
 20
-3.755516
 11
34.200621
 21
-3.755516
  0
ARC
  8
1
 10
98.649359
 20
-0.755516
 40
3.000000
 50
270.000000
 51
360.000000
  0
ARC
  8
1
 10
34.649359
 20
-0.755516
 40
3.000000
 50
180.000000
 51
270.000000
  0
LINE
  8
1
 10
51.649359
 20
-81.444469
 11
51.649359
 21
-11.219618
  0
LINE
  8
1
 10
81.649359
 20
-77.826340
 11
81.649359
 21
-11.219618
  0
LINE
  8
1
 10
83.649359
 20
-7.755516
 11
83.649359
 21
-6.755516
  0
LINE
  8
1
 10
49.649359
 20
-7.755516
 11
49.649359
 21
-6.755516
  0
ARC
  8
1
 10
86.649359
 20
-6.755516
 40
3.000000
 50
90.000000
 51
180.000000
  0
ARC
  8
1
 10
46.649359
 20
-6.755516
 40
3.000000
 50
0.000000
 51
19.471221
  0
ARC
  8
1
 10
81.649359
 20
-7.755516
 40
2.000000
 50
300.000000
 51
360.000000
  0
ARC
  8
1
 10
51.649359
 20
-7.755516
 40
2.000000
 50
180.000000
 51
240.000000
  0
ARC
  8
1
 10
83.649359
 20
-11.219618
 40
2.000000
 50
120.000000
 51
180.000000
  0
ARC
  8
1
 10
49.649359
 20
-11.219618
 40
2.000000
 50
0.000000
 51
60.000000
  0
LINE
  8
1
 10
43.649359
 20
-86.255516
 11
45.649359
 21
-86.255516
  0
LINE
  8
1
 10
43.649359
 20
-201.255516
 11
48.649359
 21
-201.255516
  0
LINE
  8
1
 10
84.649359
 20
-204.755516
 11
88.649359
 21
-204.755516
  0
LINE
  8
1
 10
84.049359
 20
-82.755516
 11
88.649359
 21
-82.755516
  0
LINE
  8
1
 10
88.649359
 20
-82.755516
 11
89.649359
 21
-83.755516
  0
LINE
  8
1
 10
88.649359
 20
-204.755516
 11
89.649359
 21
-203.755516
  0
ARC
  8
1
 10
45.649359
 20
-80.255516
 40
6.000000
 50
270.000000
 51
360.000000
  0
ARC
  8
1
 10
87.649359
 20
-76.755516
 40
6.000000
 50
180.000000
 51
233.130102
  0
LINE
  8
1
 10
53.649359
 20
-213.755516
 11
53.649359
 21
-200.343329
  0
LINE
  8
1
 10
79.649359
 20
-213.755516
 11
79.649359
 21
-200.343329
  0
ARC
  8
1
 10
48.649359
 20
-206.255516
 40
5.000000
 50
0.000000
 51
90.000000
  0
ARC
  8
1
 10
84.649359
 20
-209.755516
 40
5.000000
 50
90.000000
 51
180.000000
  0
LINE
  8
1
 10
84.049359
 20
-83.826340
 11
84.049359
 21
-81.555516
  0
LINE
  8
1
  6
CENTER
 62
2
 10
73.634254
 20
-226.637818
 11
73.634254
 21
-206.735361
  0
LINE
  8
1
 10
53.164464
 20
-214.755516
 11
80.134254
 21
-214.755516
  0
LINE
  8
1
 10
79.134254
 20
-213.755516
 11
79.134254
 21
-214.755516
  0
LINE
  8
1
 10
80.134254
 20
-217.055516
 11
80.134254
 21
-214.755516
  0
LINE
  8
1
 10
54.164464
 20
-213.755516
 11
54.164464
 21
-214.755516
  0
LINE
  8
1
 10
53.164464
 20
-217.055516
 11
53.164464
 21
-214.755516
  0
LINE
  8
1
 10
89.649359
 20
-83.755516
 11
89.649359
 21
-203.755516
  0
LINE
  8
1
 10
43.649359
 20
-201.255516
 11
43.649359
 21
-86.255516
  0
LINE
  8
1
 10
54.664464
 20
-218.555516
 11
54.664464
 21
-222.555516
  0
LINE
  8
1
 10
59.664464
 20
-218.555516
 11
59.664464
 21
-222.064768
  0
ARC
  8
1
 10
57.164464
 20
-215.942308
 40
6.613208
 50
247.788205
 51
292.211795
  0
LINE
  8
1
 10
64.664464
 20
-218.555516
 11
64.664464
 21
-222.555516
  0
LINE
  8
1
 10
64.664464
 20
-222.555516
 11
54.664464
 21
-222.555516
  0
ARC
  8
1
 10
62.164464
 20
-215.942308
 40
6.613208
 50
247.788205
 51
292.211795
  0
LINE
  8
1
 10
53.564464
 20
-217.055516
 11
53.564464
 21
-218.555516
  0
LINE
  8
1
 10
53.564464
 20
-218.555516
 11
65.764464
 21
-218.555516
  0
LINE
  8
1
 10
65.764464
 20
-218.555516
 11
65.764464
 21
-217.055516
  0
LINE
  8
1
  6
CENTER
 62
2
 10
59.664464
 20
-226.637818
 11
59.664464
 21
-206.735361
  0
LINE
  8
1
 10
60.410886
 20
-10.305699
 11
55.070532
 21
-86.676318
  0
LINE
  8
1
 10
72.887831
 20
-10.305699
 11
78.228185
 21
-86.676318
  0
LINE
  8
1
 10
59.607728
 20
-6.755516
 11
59.607728
 21
-7.755516
  0
LINE
  8
1
 10
73.690989
 20
-6.755516
 11
73.690989
 21
-7.755516
  0
ARC
  8
1
 10
76.690989
 20
-6.755516
 40
3.000000
 50
90.000000
 51
180.000000
  0
ARC
  8
1
 10
56.607728
 20
-6.755516
 40
3.000000
 50
360.000000
 51
90.000000
  0
ARC
  8
1
 10
71.690989
 20
-7.755516
 40
2.000000
 50
322.938827
 51
360.000000
  0
ARC
  8
1
 10
61.607728
 20
-7.755516
 40
2.000000
 50
180.000000
 51
217.061173
  0
ARC
  8
1
 10
74.882959
 20
-10.166186
 40
2.000000
 50
142.938827
 51
184.000000
  0
ARC
  8
1
 10
58.415758
 20
-10.166186
 40
2.000000
 50
356.000000
 51
37.061173
  0
LINE
  8
1
 10
73.690989
 20
-9.755516
 11
81.649359
 21
-9.755516
  0
LINE
  8
1
 10
62.649359
 20
-9.755516
 11
70.649359
 21
-9.755516
  0
LINE
  8
1
 10
51.649359
 20
-9.755516
 11
59.607728
 21
-9.755516
  0
LINE
  8
1
 10
62.649359
 20
-7.755516
 11
62.649359
 21
-5.755516
  0
LINE
  8
1
 10
70.649359
 20
-7.755516
 11
70.649359
 21
-5.755516
  0
ARC
  8
1
 10
72.649359
 20
-5.755516
 40
2.000000
 50
90.000000
 51
180.000000
  0
ARC
  8
1
 10
60.649359
 20
-5.755516
 40
2.000000
 50
0.000000
 51
90.000000
  0
ARC
  8
1
 10
60.649359
 20
-7.755516
 40
2.000000
 50
270.000000
 51
360.000000
  0
ARC
  8
1
 10
72.649359
 20
-7.755516
 40
2.000000
 50
180.000000
 51
270.000000
  0
ARC
  8
1
 10
45.649359
 20
-81.444469
 40
6.000000
 50
270.000000
 51
0.000000
  0
LINE
  8
1
 10
50.540100
 20
-87.041659
 11
53.492137
 21
-88.113646
  0
LINE
  8
1
 10
85.049359
 20
-85.173572
 11
85.049359
 21
-202.338790
  0
LINE
  8
1
 10
84.111537
 20
-85.659519
 11
84.111537
 21
-198.685016
  0
LINE
  8
1
 10
79.149359
 20
-128.755516
 11
79.149359
 21
-158.755516
  0
LINE
  8
1
 10
79.149359
 20
-111.755516
 11
79.149359
 21
-89.673246
  0
LINE
  8
1
 10
54.149359
 20
-111.755516
 11
54.149359
 21
-89.673246
  0
LINE
  8
1
 10
57.364749
 20
-109.242003
 11
57.364749
 21
-106.391544
  0
LINE
  8
1
 10
75.933968
 20
-135.339675
 11
75.933968
 21
-152.171358
  0
LINE
  8
1
 10
75.933968
 20
-109.242003
 11
75.933968
 21
-106.391544
  0
LINE
  8
1
 10
79.149359
 20
-175.755516
 11
79.149359
 21
-197.945413
  0
LINE
  8
1
 10
54.149359
 20
-158.755516
 11
54.149359
 21
-128.755516
  0
LINE
  8
1
 10
54.149359
 20
-175.755516
 11
54.149359
 21
-197.945413
  0
LINE
  8
1
 10
57.364749
 20
-152.171358
 11
57.364749
 21
-135.339675
  0
LINE
  8
1
 10
57.364749
 20
-178.269030
 11
57.364749
 21
-180.960374
  0
LINE
  8
1
 10
75.933968
 20
-178.269030
 11
75.933968
 21
-180.960374
  0
LINE
  8
1
 10
62.364749
 20
-185.960374
 11
70.933968
 21
-185.960374
  0
ARC
  8
1
 10
62.364749
 20
-180.960374
 40
5.000000
 50
180.000000
 51
270.000000
  0
ARC
  8
1
 10
70.933968
 20
-180.960374
 40
5.000000
 50
270.000000
 51
360.000000
  0
LINE
  8
1
 10
84.649359
 20
-202.338790
 11
85.049359
 21
-202.338790
  0
ARC
  8
1
 10
48.649359
 20
-203.685016
 40
5.000000
 50
360.000000
 51
90.000000
  0
ARC
  8
1
 10
84.649359
 20
-207.338790
 40
5.000000
 50
90.000000
 51
180.000000
  0
ARC
  8
1
 10
76.649359
 20
-200.343329
 40
3.000000
 50
0.000000
 51
23.556464
  0
ARC
  8
1
 10
56.649359
 20
-200.343329
 40
3.000000
 50
156.443536
 51
180.000000
  0
ARC
  8
1
 10
82.149359
 20
-197.945413
 40
3.000000
 50
180.000000
 51
203.556464
  0
ARC
  8
1
 10
51.149359
 20
-197.945413
 40
3.000000
 50
336.443536
 51
360.000000
  0
LINE
  8
1
 10
78.485198
 20
-196.056656
 11
75.933968
 21
-185.960374
  0
LINE
  8
1
 10
54.813519
 20
-196.056656
 11
57.364749
 21
-185.960374
  0
LINE
  8
1
 10
67.399359
 20
-210.755516
 11
76.649359
 21
-210.755516
  0
ARC
  8
1
 10
67.399359
 20
-199.245100
 40
11.510417
 50
227.677480
 51
270.000000
  0
ARC
  8
1
 10
76.649359
 20
-207.755516
 40
3.000000
 50
270.000000
 51
360.000000
  0
LINE
  8
1
 10
79.649359
 20
-198.685016
 11
84.111537
 21
-198.685016
  0
LINE
  8
1
 10
84.111537
 20
-198.685016
 11
85.049359
 21
-202.338790
  0
LINE
  8
1
 10
60.149359
 20
-122.755516
 11
73.149359
 21
-122.755516
  0
LINE
  8
1
 10
60.149359
 20
-117.755516
 11
73.149359
 21
-117.755516
  0
LINE
  8
1
 10
63.364749
 20
-129.339675
 11
69.933968
 21
-129.339675
  0
LINE
  8
1
 10
62.364749
 20
-114.242003
 11
70.933968
 21
-114.242003
  0
LINE
  8
1
 10
62.364749
 20
-101.391544
 11
70.933968
 21
-101.391544
  0
ARC
  8
1
 10
60.149359
 20
-128.755516
 40
6.000000
 50
90.000000
 51
180.000000
  0
ARC
  8
1
 10
73.149359
 20
-128.755516
 40
6.000000
 50
360.000000
 51
90.000000
  0
ARC
  8
1
 10
73.149359
 20
-111.755516
 40
6.000000
 50
270.000000
 51
0.000000
  0
ARC
  8
1
 10
60.149359
 20
-111.755516
 40
6.000000
 50
180.000000
 51
270.000000
  0
ARC
  8
1
 10
63.364749
 20
-135.339675
 40
6.000000
 50
90.000000
 51
180.000000
  0
ARC
  8
1
 10
69.933968
 20
-135.339675
 40
6.000000
 50
360.000000
 51
90.000000
  0
ARC
  8
1
 10
70.933968
 20
-109.242003
 40
5.000000
 50
270.000000
 51
0.000000
  0
ARC
  8
1
 10
62.364749
 20
-109.242003
 40
5.000000
 50
180.000000
 51
270.000000
  0
ARC
  8
1
 10
62.364749
 20
-106.391544
 40
5.000000
 50
90.000000
 51
180.000000
  0
ARC
  8
1
 10
70.933968
 20
-106.391544
 40
5.000000
 50
0.000000
 51
90.000000
  0
LINE
  8
1
 10
75.391983
 20
-113.649765
 11
76.730777
 21
-115.112690
  0
LINE
  8
1
 10
77.078757
 20
-126.995489
 11
75.505688
 21
-130.216665
  0
LINE
  8
1
 10
57.906735
 20
-113.649765
 11
56.567940
 21
-115.112690
  0
LINE
  8
1
 10
56.219960
 20
-126.995489
 11
57.793029
 21
-130.216665
  0
ARC
  8
1
 10
87.649359
 20
-77.826340
 40
6.000000
 50
180.000000
 51
233.130102
  0
LINE
  8
1
 10
84.049359
 20
-83.826340
 11
85.049359
 21
-85.173572
  0
LINE
  8
1
 10
79.382168
 20
-88.110117
 11
82.802664
 21
-86.337733
  0
LINE
  8
1
 10
84.111537
 20
-85.659519
 11
85.049359
 21
-85.173572
  0
ARC
  8
1
 10
81.220877
 20
-86.467049
 40
3.000000
 50
184.000000
 51
212.300937
  0
ARC
  8
1
 10
52.077840
 20
-86.467049
 40
3.000000
 50
327.699063
 51
356.000000
  0
ARC
  8
1
 10
76.149359
 20
-89.673246
 40
3.000000
 50
0.000000
 51
32.300937
  0
ARC
  8
1
 10
57.149359
 20
-89.673246
 40
3.000000
 50
147.699063
 51
180.000000
  0
LINE
  8
1
 10
64.149359
 20
-54.988320
 11
69.149359
 21
-54.988320
  0
LINE
  8
1
 10
66.149359
 20
-60.204378
 11
67.149359
 21
-60.204378
  0
LINE
  8
1
 10
65.149359
 20
-64.184578
 11
68.149359
 21
-64.184578
  0
LINE
  8
1
 10
64.149359
 20
-87.277491
 11
69.149359
 21
-87.277491
  0
LINE
  8
1
 10
64.149359
 20
-84.277491
 11
64.149359
 21
-57.988320
  0
LINE
  8
1
 10
69.149359
 20
-84.277491
 11
69.149359
 21
-57.988320
  0
ARC
  8
1
 10
72.149359
 20
-57.988320
 40
3.000000
 50
90.000000
 51
180.000000
  0
ARC
  8
1
 10
61.149359
 20
-57.988320
 40
3.000000
 50
0.000000
 51
90.000000
  0
ARC
  8
1
 10
72.149359
 20
-84.277491
 40
3.000000
 50
180.000000
 51
270.000000
  0
ARC
  8
1
 10
61.149359
 20
-84.277491
 40
3.000000
 50
270.000000
 51
360.000000
  0
ARC
  8
1
 10
67.149359
 20
-62.204378
 40
2.000000
 50
0.000000
 51
90.000000
  0
ARC
  8
1
 10
66.149359
 20
-62.204378
 40
2.000000
 50
90.000000
 51
180.000000
  0
LINE
  8
1
 10
60.149359
 20
-164.755516
 11
73.149359
 21
-164.755516
  0
LINE
  8
1
 10
60.149359
 20
-169.755516
 11
73.149359
 21
-169.755516
  0
LINE
  8
1
 10
63.364749
 20
-158.171358
 11
69.933968
 21
-158.171358
  0
LINE
  8
1
 10
62.364749
 20
-173.269030
 11
70.933968
 21
-173.269030
  0
ARC
  8
1
 10
60.149359
 20
-158.755516
 40
6.000000
 50
180.000000
 51
270.000000
  0
ARC
  8
1
 10
73.149359
 20
-158.755516
 40
6.000000
 50
270.000000
 51
0.000000
  0
ARC
  8
1
 10
73.149359
 20
-175.755516
 40
6.000000
 50
360.000000
 51
90.000000
  0
ARC
  8
1
 10
60.149359
 20
-175.755516
 40
6.000000
 50
90.000000
 51
180.000000
  0
ARC
  8
1
 10
63.364749
 20
-152.171358
 40
6.000000
 50
180.000000
 51
270.000000
  0
ARC
  8
1
 10
69.933968
 20
-152.171358
 40
6.000000
 50
270.000000
 51
0.000000
  0
ARC
  8
1
 10
70.933968
 20
-178.269030
 40
5.000000
 50
360.000000
 51
90.000000
  0
ARC
  8
1
 10
62.364749
 20
-178.269030
 40
5.000000
 50
90.000000
 51
180.000000
  0
LINE
  8
1
 10
75.391983
 20
-173.861267
 11
76.730777
 21
-172.398343
  0
LINE
  8
1
 10
77.078757
 20
-160.515543
 11
75.505688
 21
-157.294368
  0
LINE
  8
1
 10
57.906735
 20
-173.861267
 11
56.567940
 21
-172.398343
  0
LINE
  8
1
 10
56.219960
 20
-160.515543
 11
57.793029
 21
-157.294368
  0
ARC
  8
1
 10
-176.037930
 20
-82.661163
 40
6.000000
 50
184.000000
 51
254.178511
  0
LINE
  8
1
 10
-142.350641
 20
181.242823
 11
-142.850641
 21
181.742823
  0
LINE
  8
1
  6
DASHED
 10
-142.850641
 20
181.742823
 11
-143.450641
 21
182.342823
  0
LINE
  8
1
 10
88.649359
 20
-82.755516
 11
88.649359
 21
-204.755516
  0
ARC
  8
1
 10
-193.350641
 20
-144.835516
 40
33.540000
 50
108.101637
 51
124.892605
  0
ARC
  8
1
 10
-193.350641
 20
-143.755516
 40
32.660000
 50
125.976489
 51
234.023511
  0
ARC
  8
1
 10
-193.350641
 20
-142.675516
 40
33.540000
 50
235.107395
 51
251.898363
  0
ARC
  8
1
 10
-196.244119
 20
-143.755516
 40
31.706522
 50
103.733866
 51
256.266134
  0
ARC
  8
1
 10
-193.350641
 20
-144.835516
 40
33.540000
 50
55.107395
 51
71.898363
  0
ARC
  8
1
 10
-193.350641
 20
-143.755516
 40
32.660000
 50
305.976489
 51
54.023511
  0
ARC
  8
1
 10
-193.350641
 20
-142.675516
 40
33.540000
 50
288.101637
 51
304.892605
  0
ARC
  8
1
 10
-190.457164
 20
-143.755516
 40
31.706522
 50
283.733866
 51
76.266134
  0
LINE
  8
1
 10
-182.929643
 20
-112.955516
 11
-203.771639
 21
-112.955516
  0
LINE
  8
1
 10
-182.929643
 20
-174.555516
 11
-203.771639
 21
-174.555516
  0
LINE
  8
1
 10
-203.597592
 20
-114.912370
 11
-203.597592
 21
-135.868765
  0
LINE
  8
1
 10
-183.103690
 20
-114.912370
 11
-183.103690
 21
-135.868765
  0
CIRCLE
  8
1
 10
-193.350641
 20
-143.755516
 40
1.750000
  0
LINE
  8
1
 10
-197.933217
 20
-114.912370
 11
-197.933217
 21
-138.178166
  0
LINE
  8
1
 10
-188.768066
 20
-114.912370
 11
-188.768066
 21
-138.178166
  0
ARC
  8
1
 10
-193.350641
 20
-127.150955
 40
11.941498
 50
247.433705
 51
292.566295
  0
ARC
  8
1
 10
-193.350641
 20
-112.266619
 40
5.291503
 50
210.000000
 51
330.000000
  0
LINE
  8
1
 10
-188.768066
 20
-114.912370
 11
-184.290874
 21
-114.912370
  0
ARC
  8
1
 10
-198.828235
 20
-114.912370
 40
4.769357
 50
155.776487
 51
180.000000
  0
ARC
  8
1
 10
-187.873047
 20
-114.912370
 40
4.769357
 50
360.000000
 51
24.223513
  0
LINE
  8
1
 10
-197.933217
 20
-114.912370
 11
-202.410409
 21
-114.912370
  0
ARC
  8
1
 10
-187.873047
 20
-172.598662
 40
4.769357
 50
335.776487
 51
45.000000
  0
ARC
  8
1
 10
-198.828235
 20
-172.598662
 40
4.769357
 50
135.000000
 51
204.223513
  0
LINE
  8
1
 10
-184.500603
 20
-169.226217
 11
-187.263732
 21
-166.463088
  0
LINE
  8
1
 10
-202.200680
 20
-169.226217
 11
-199.437550
 21
-166.463088
  0
ARC
  8
1
 10
-193.350641
 20
-172.549997
 40
8.608189
 50
45.000000
 51
135.000000
  0
LINE
  8
1
 10
-185.103690
 20
-139.332866
 11
-189.749194
 21
-142.014949
  0
LINE
  8
1
 10
-201.597592
 20
-139.332866
 11
-196.952089
 21
-142.014949
  0
ARC
  8
1
 10
-187.103690
 20
-135.868765
 40
4.000000
 50
300.000000
 51
0.000000
  0
ARC
  8
1
 10
-199.597592
 20
-135.868765
 40
4.000000
 50
180.000000
 51
240.000000
  0
LINE
  8
1
 10
-188.768066
 20
-138.178166
 11
-185.103690
 21
-138.178166
  0
LINE
  8
1
 10
-197.933217
 20
-138.178166
 11
-201.597592
 21
-138.178166
  0
ARC
  8
1
 10
-193.350641
 20
-143.755516
 40
4.000000
 50
146.485382
 51
33.514618
  0
LINE
  8
1
 10
-196.685621
 20
-141.546917
 11
-190.015661
 21
-141.546917
  0
ARC
  8
1
 10
-193.350641
 20
-143.755516
 40
30.907359
 50
109.341019
 51
250.658981
  0
ARC
  8
1
 10
-193.350641
 20
-143.755516
 40
30.907359
 50
289.341019
 51
70.658981
  0
LINE
  8
1
 10
-184.290874
 20
-172.598662
 11
-202.410409
 21
-172.598662
  0
LINE
  8
2
  6
CENTER
 62
2
 10
-168.601904
 20
-17.359936
 11
-168.601904
 21
15.036482
  0
LINE
  8
2
  6
CENTER
 62
2
 10
41.900621
 20
-17.359936
 11
41.900621
 21
15.036482
  0
LINE
  8
2
 10
-176.101904
 20
-5.755516
 11
-176.101904
 21
-10.533828
  0
LINE
  8
2
 10
-176.101904
 20
-10.533828
 11
-174.851904
 21
-11.255516
  0
LINE
  8
2
 10
-172.351904
 20
-5.755516
 11
-172.351904
 21
-10.533828
  0
ARC
  8
2
 10
-174.226904
 20
-8.123452
 40
3.053774
 50
232.121121
 51
307.878879
  0
ARC
  8
2
 10
-168.601904
 20
0.072773
 40
11.250000
 50
250.528781
 51
289.471223
  0
LINE
  8
2
 10
-161.101904
 20
-5.755516
 11
-161.101904
 21
-10.533828
  0
LINE
  8
2
 10
-161.101904
 20
-10.533828
 11
-162.351904
 21
-11.255516
  0
LINE
  8
2
 10
-162.351904
 20
-11.255516
 11
-174.851904
 21
-11.255516
  0
LINE
  8
2
 10
-164.851904
 20
-5.755516
 11
-164.851904
 21
-10.533828
  0
ARC
  8
2
 10
-162.976904
 20
-8.123452
 40
3.053774
 50
232.121121
 51
307.878879
  0
LINE
  8
2
 10
-176.301904
 20
-3.755516
 11
-176.301904
 21
-5.755516
  0
LINE
  8
2
 10
-176.301904
 20
-5.755516
 11
-160.901904
 21
-5.755516
  0
LINE
  8
2
 10
-160.901904
 20
-5.755516
 11
-160.901904
 21
-3.755516
  0
LINE
  8
2
 10
-168.601904
 20
-5.755516
 11
-168.101904
 21
-3.755516
  0
LINE
  8
2
 10
-168.601904
 20
-3.755516
 11
-169.101904
 21
-5.755516
  0
LINE
  8
2
 10
34.200621
 20
-3.755516
 11
34.200621
 21
-5.755516
  0
LINE
  8
2
 10
34.200621
 20
-5.755516
 11
49.600621
 21
-5.755516
  0
LINE
  8
2
 10
49.600621
 20
-5.755516
 11
49.600621
 21
-3.755516
  0
LINE
  8
2
 10
35.400621
 20
-5.755516
 11
35.400621
 21
-11.255516
  0
LINE
  8
2
 10
41.900621
 20
-5.755516
 11
41.900621
 21
-10.533828
  0
ARC
  8
2
 10
38.650621
 20
-3.576758
 40
7.678759
 50
244.960340
 51
295.039660
  0
LINE
  8
2
 10
48.400621
 20
-5.755516
 11
48.400621
 21
-11.255516
  0
LINE
  8
2
 10
48.400621
 20
-11.255516
 11
35.400621
 21
-11.255516
  0
ARC
  8
2
 10
45.150621
 20
-3.576758
 40
7.678759
 50
244.960340
 51
295.039660
  0
CIRCLE
  8
2
 10
-193.350641
 20
158.242823
 40
11.000000
  0
CIRCLE
  8
2
 10
-193.350641
 20
158.242823
 40
10.000000
  0
ARC
  8
2
 10
-193.350641
 20
158.242823
 40
18.000000
 50
16.127620
 51
73.872380
  0
ARC
  8
2
 10
-193.350641
 20
158.242823
 40
18.000000
 50
106.127620
 51
343.872380
  0
LINE
  8
2
 10
-198.350641
 20
175.534439
 11
-198.350641
 21
184.242823
  0
LINE
  8
2
 10
-188.350641
 20
175.534439
 11
-188.350641
 21
184.242823
  0
LINE
  8
2
 10
-176.059025
 20
163.242823
 11
-167.350641
 21
163.242823
  0
LINE
  8
2
 10
-176.059025
 20
153.242823
 11
-167.350641
 21
153.242823
  0
LINE
  8
2
 10
-196.350641
 20
186.242823
 11
-190.350641
 21
186.242823
  0
LINE
  8
2
 10
-165.350641
 20
155.242823
 11
-165.350641
 21
161.242823
  0
ARC
  8
2
 10
-167.350641
 20
161.242823
 40
2.000000
 50
0.000000
 51
90.000000
  0
ARC
  8
2
 10
-167.350641
 20
155.242823
 40
2.000000
 50
270.000000
 51
360.000000
  0
ARC
  8
2
 10
-190.350641
 20
184.242823
 40
2.000000
 50
0.000000
 51
90.000000
  0
ARC
  8
2
 10
-196.350641
 20
184.242823
 40
2.000000
 50
90.000000
 51
180.000000
  0
ARC
  8
2
 10
-193.350641
 20
158.242823
 40
18.000000
 50
88.314587
 51
91.685413
  0
ARC
  8
2
 10
-193.350641
 20
158.242823
 40
18.000000
 50
358.314587
 51
1.685413
  0
LINE
  8
2
 10
-183.033987
 20
165.353846
 11
-180.434233
 21
166.854815
  0
LINE
  8
2
 10
-182.033987
 20
163.621795
 11
-179.434233
 21
165.122764
  0
LINE
  8
2
 10
-187.971669
 20
169.559476
 11
-186.470700
 21
172.159230
  0
LINE
  8
2
 10
-186.239618
 20
168.559476
 11
-184.738649
 21
171.159230
  0
ARC
  8
2
 10
-193.350641
 20
158.242823
 40
16.000000
 50
58.151428
 51
61.848572
  0
ARC
  8
2
 10
-193.350641
 20
158.242823
 40
16.000000
 50
28.151428
 51
31.848572
  0
ARC
  8
2
 10
-193.350641
 20
158.242823
 40
12.000000
 50
357.795772
 51
2.204228
  0
ARC
  8
2
 10
-193.350641
 20
158.242823
 40
12.000000
 50
27.707557
 51
32.292443
  0
ARC
  8
2
 10
-193.350641
 20
158.242823
 40
12.000000
 50
57.707557
 51
62.292443
  0
ARC
  8
2
 10
-193.350641
 20
158.242823
 40
12.000000
 50
87.795772
 51
92.204228
  0
LINE
  8
2
 10
-194.850641
 20
171.233204
 11
-194.850641
 21
175.235468
  0
LINE
  8
2
 10
-191.850641
 20
171.233204
 11
-191.850641
 21
175.235468
  0
LINE
  8
2
 10
-180.360260
 20
159.742823
 11
-176.357996
 21
159.742823
  0
LINE
  8
2
 10
-180.360260
 20
156.742823
 11
-176.357996
 21
156.742823
  0
ARC
  8
2
 10
-180.360260
 20
158.742823
 40
1.000000
 50
90.000000
 51
182.204228
  0
ARC
  8
2
 10
-180.360260
 20
157.742823
 40
1.000000
 50
177.795772
 51
270.000000
  0
ARC
  8
2
 10
-176.357996
 20
157.742823
 40
1.000000
 50
270.000000
 51
358.314587
  0
ARC
  8
2
 10
-176.357996
 20
158.742823
 40
1.000000
 50
1.685413
 51
90.000000
  0
ARC
  8
2
 10
-192.850641
 20
175.235468
 40
1.000000
 50
0.000000
 51
88.314587
  0
ARC
  8
2
 10
-193.850641
 20
175.235468
 40
1.000000
 50
91.685413
 51
180.000000
  0
ARC
  8
2
 10
-193.850641
 20
171.233204
 40
1.000000
 50
180.000000
 51
272.204228
  0
ARC
  8
2
 10
-192.850641
 20
171.233204
 40
1.000000
 50
267.795772
 51
360.000000
  0
ARC
  8
2
 10
-182.283987
 20
164.054808
 40
0.500000
 50
207.707557
 51
300.000000
  0
ARC
  8
2
 10
-182.783987
 20
164.920833
 40
0.500000
 50
120.000000
 51
212.292443
  0
ARC
  8
2
 10
-179.684233
 20
165.555777
 40
0.500000
 50
300.000000
 51
28.151428
  0
ARC
  8
2
 10
-180.184233
 20
166.421802
 40
0.500000
 50
31.848572
 51
120.000000
  0
ARC
  8
2
 10
-186.672631
 20
168.809476
 40
0.500000
 50
237.707557
 51
330.000000
  0
ARC
  8
2
 10
-187.538656
 20
169.309476
 40
0.500000
 50
150.000000
 51
242.292443
  0
ARC
  8
2
 10
-186.037687
 20
171.909230
 40
0.500000
 50
61.848572
 51
150.000000
  0
ARC
  8
2
 10
-185.171662
 20
171.409230
 40
0.500000
 50
330.000000
 51
58.151428
  0
ARC
  8
2
 10
-193.350641
 20
158.242823
 40
17.000000
 50
13.608961
 51
76.391039
  0
ARC
  8
2
 10
-193.350641
 20
158.242823
 40
17.000000
 50
103.608961
 51
346.391039
  0
LINE
  8
2
 10
-189.350641
 20
174.765534
 11
-189.350641
 21
184.242823
  0
LINE
  8
2
 10
-196.350641
 20
185.242823
 11
-190.350641
 21
185.242823
  0
LINE
  8
2
 10
-197.350641
 20
174.765534
 11
-197.350641
 21
184.242823
  0
LINE
  8
2
 10
-176.827930
 20
162.242823
 11
-167.350641
 21
162.242823
  0
LINE
  8
2
 10
-166.350641
 20
155.242823
 11
-166.350641
 21
161.242823
  0
LINE
  8
2
 10
-176.827930
 20
154.242823
 11
-167.350641
 21
154.242823
  0
ARC
  8
2
 10
-167.350641
 20
161.242823
 40
1.000000
 50
0.000000
 51
90.000000
  0
ARC
  8
2
 10
-167.350641
 20
155.242823
 40
1.000000
 50
270.000000
 51
0.000000
  0
ARC
  8
2
 10
-190.350641
 20
184.242823
 40
1.000000
 50
0.000000
 51
90.000000
  0
ARC
  8
2
 10
-196.350641
 20
184.242823
 40
1.000000
 50
90.000000
 51
180.000000
  0
LINE
  8
2
 10
-188.350641
 20
175.534439
 11
-189.350641
 21
174.765534
  0
LINE
  8
2
 10
-197.350641
 20
174.765534
 11
-198.350641
 21
175.534439
  0
LINE
  8
2
 10
-176.827930
 20
162.242823
 11
-176.059025
 21
163.242823
  0
LINE
  8
2
 10
-176.827930
 20
154.242823
 11
-176.059025
 21
153.242823
  0
LINE
  8
2
 10
-202.515793
 20
162.242823
 11
-189.007971
 21
162.242823
  0
LINE
  8
2
 10
-202.515793
 20
154.242823
 11
-189.007971
 21
154.242823
  0
LINE
  8
2
 10
-183.378806
 20
157.492823
 11
-189.007971
 21
154.242823
  0
LINE
  8
2
 10
-183.378806
 20
158.992823
 11
-189.007971
 21
162.242823
  0
LINE
  8
2
 10
-202.091276
 20
161.992823
 11
-189.496862
 21
161.992823
  0
LINE
  8
2
 10
-202.091276
 20
154.492823
 11
-189.496862
 21
154.492823
  0
ARC
  8
2
 10
-193.350641
 20
158.242823
 40
9.511109
 50
156.779186
 51
203.220814
  0
ARC
  8
2
 10
-193.350641
 20
158.242823
 40
9.511109
 50
356.952608
 51
3.047392
  0
LINE
  8
2
 10
-202.091276
 20
161.992823
 11
-202.515793
 21
162.242823
  0
LINE
  8
2
 10
-202.091276
 20
154.492823
 11
-202.515793
 21
154.242823
  0
LINE
  8
2
 10
-189.496862
 20
161.992823
 11
-183.852982
 21
158.748452
  0
LINE
  8
2
 10
-183.852982
 20
157.737193
 11
-189.496862
 21
154.492823
  0
LINE
  8
2
 10
-183.852982
 20
158.748452
 11
-183.378806
 21
158.992823
  0
LINE
  8
2
 10
-183.852982
 20
157.737193
 11
-183.378806
 21
157.492823
  0
LINE
  8
2
 10
-189.496862
 20
154.492823
 11
-189.007971
 21
154.242823
  0
LINE
  8
2
 10
-189.496862
 20
161.992823
 11
-189.007971
 21
162.242823
  0
LINE
  8
2
  6
CENTER
 62
2
 10
-181.473308
 20
170.120156
 11
-172.092170
 21
179.501294
  0
LINE
  8
2
  6
CENTER
 62
2
 10
-205.227974
 20
170.120156
 11
-214.609112
 21
179.501294
  0
LINE
  8
2
  6
CENTER
 62
2
 10
-205.227974
 20
146.365489
 11
-214.609112
 21
136.984352
  0
ARC
  8
2
 10
-199.541849
 20
190.685162
 40
1.942340
 50
270.000000
 51
360.000000
  0
ARC
  8
2
 10
-201.571594
 20
192.442980
 40
1.942340
 50
90.000000
 51
180.000000
  0
ARC
  8
2
 10
-200.707253
 20
190.665739
 40
0.971170
 50
180.000000
 51
270.000000
  0
ARC
  8
2
 10
-200.406190
 20
192.462403
 40
0.971170
 50
0.000000
 51
90.000000
  0
LINE
  8
2
 10
-194.948216
 20
193.433573
 11
-195.152161
 21
188.742823
  0
LINE
  8
2
 10
-191.753067
 20
193.433573
 11
-191.549121
 21
188.742823
  0
LINE
  8
2
 10
-194.948216
 20
193.433573
 11
-194.074163
 21
188.742823
  0
LINE
  8
2
 10
-193.350641
 20
191.005648
 11
-192.720889
 21
194.385319
  0
LINE
  8
2
 10
-196.579781
 20
194.385319
 11
-193.980394
 21
194.385319
  0
LINE
  8
2
 10
-194.074163
 20
188.742823
 11
-192.627120
 21
188.742823
  0
ARC
  8
2
 10
-185.129688
 20
190.685162
 40
1.942340
 50
270.000000
 51
360.000000
  0
ARC
  8
2
 10
-185.994030
 20
190.665739
 40
0.971170
 50
270.000000
 51
360.000000
  0
LINE
  8
2
 10
-187.266262
 20
192.462403
 11
-187.266262
 21
190.665739
  0
ARC
  8
2
 10
-187.159433
 20
192.442980
 40
1.942340
 50
90.000000
 51
180.000000
  0
LINE
  8
2
 10
-189.101773
 20
192.442980
 11
-189.101773
 21
190.685162
  0
LINE
  8
2
 10
-191.549121
 20
188.742823
 11
-189.713610
 21
188.742823
  0
LINE
  8
2
 10
-182.371566
 20
188.878786
 11
-177.952743
 21
188.878786
  0
LINE
  8
2
 10
-180.536055
 20
191.054207
 11
-177.952743
 21
191.054207
  0
LINE
  8
2
 10
-180.536055
 20
192.073935
 11
-177.952743
 21
192.073935
  0
LINE
  8
2
 10
-180.536055
 20
189.898515
 11
-180.536055
 21
191.054207
  0
LINE
  8
2
 10
-180.536055
 20
192.073935
 11
-180.536055
 21
193.229627
  0
LINE
  8
2
 10
-206.573119
 20
193.229627
 11
-204.737608
 21
193.229627
  0
LINE
  8
2
 10
-208.952485
 20
192.073935
 11
-201.814387
 21
195.541011
  0
LINE
  8
2
 10
-208.952485
 20
192.073935
 11
-208.952485
 21
195.541011
  0
LINE
  8
2
 10
-204.737608
 20
193.229627
 11
-204.737608
 21
188.742823
  0
LINE
  8
2
 10
-203.513934
 20
192.442980
 11
-203.513934
 21
190.685162
  0
LINE
  8
2
 10
-197.599509
 20
192.442980
 11
-197.599509
 21
190.685162
  0
LINE
  8
2
 10
-201.678423
 20
192.462403
 11
-201.678423
 21
190.665739
  0
LINE
  8
2
 10
-199.435020
 20
192.462403
 11
-199.435020
 21
190.665739
  0
ARC
  8
2
 10
-201.571594
 20
190.685162
 40
1.942340
 50
180.000000
 51
270.000000
  0
ARC
  8
2
 10
-199.541849
 20
192.442980
 40
1.942340
 50
360.000000
 51
90.000000
  0
ARC
  8
2
 10
-200.406190
 20
190.665739
 40
0.971170
 50
270.000000
 51
360.000000
  0
ARC
  8
2
 10
-200.707253
 20
192.462403
 40
0.971170
 50
90.000000
 51
180.000000
  0
LINE
  8
2
 10
-206.573119
 20
188.742823
 11
-204.737608
 21
188.742823
  0
LINE
  8
2
 10
-196.579781
 20
194.385319
 11
-196.987672
 21
188.742823
  0
LINE
  8
2
 10
-190.121501
 20
194.385319
 11
-189.713610
 21
188.742823
  0
LINE
  8
2
 10
-191.753067
 20
193.433573
 11
-192.627120
 21
188.742823
  0
LINE
  8
2
 10
-193.350641
 20
191.005648
 11
-193.980394
 21
194.385319
  0
LINE
  8
2
 10
-201.571594
 20
194.385319
 11
-199.541849
 21
194.385319
  0
LINE
  8
2
 10
-201.571594
 20
188.742823
 11
-199.541849
 21
188.742823
  0
LINE
  8
2
 10
-196.987672
 20
188.742823
 11
-195.152161
 21
188.742823
  0
ARC
  8
2
 10
-187.159433
 20
190.685162
 40
1.942340
 50
180.000000
 51
270.000000
  0
LINE
  8
2
 10
-185.022860
 20
192.462403
 11
-185.022860
 21
190.665739
  0
ARC
  8
2
 10
-186.295092
 20
190.665739
 40
0.971170
 50
180.000000
 51
270.000000
  0
ARC
  8
2
 10
-185.994030
 20
192.462403
 40
0.971170
 50
0.000000
 51
90.000000
  0
ARC
  8
2
 10
-186.295092
 20
192.462403
 40
0.971170
 50
90.000000
 51
180.000000
  0
ARC
  8
2
 10
-185.129688
 20
192.442980
 40
1.942340
 50
360.000000
 51
90.000000
  0
LINE
  8
2
 10
-183.187349
 20
192.442980
 11
-183.187349
 21
190.685162
  0
LINE
  8
2
 10
-200.406190
 20
193.433573
 11
-200.707253
 21
193.433573
  0
LINE
  8
2
 10
-200.406190
 20
189.694569
 11
-200.707253
 21
189.694569
  0
LINE
  8
2
 10
-186.295092
 20
193.433573
 11
-185.994030
 21
193.433573
  0
LINE
  8
2
 10
-192.720889
 20
194.385319
 11
-190.121501
 21
194.385319
  0
LINE
  8
2
 10
-187.159433
 20
194.385319
 11
-185.129688
 21
194.385319
  0
LINE
  8
2
 10
-187.159433
 20
188.742823
 11
-185.129688
 21
188.742823
  0
LINE
  8
2
 10
-182.371566
 20
194.249356
 11
-182.371566
 21
188.878786
  0
LINE
  8
2
 10
-182.371566
 20
194.249356
 11
-177.952743
 21
194.249356
  0
LINE
  8
2
 10
-180.536055
 20
189.898515
 11
-177.952743
 21
189.898515
  0
LINE
  8
2
 10
-180.536055
 20
193.229627
 11
-177.952743
 21
193.229627
  0
LINE
  8
2
 10
-177.952743
 20
193.229627
 11
-177.952743
 21
194.249356
  0
LINE
  8
2
 10
-177.952743
 20
188.878786
 11
-177.952743
 21
189.898515
  0
LINE
  8
2
 10
-177.952743
 20
191.054207
 11
-177.952743
 21
192.073935
  0
LINE
  8
2
 10
-206.573119
 20
193.229627
 11
-206.573119
 21
188.742823
  0
LINE
  8
2
 10
-208.952485
 20
195.541011
 11
-201.814387
 21
195.541011
  0
LINE
  8
2
 10
-186.295092
 20
189.694569
 11
-185.994030
 21
189.694569
  0
LINE
  8
2
 10
-110.350641
 20
216.058521
 11
-110.350641
 21
156.427124
  0
LINE
  8
2
 10
-111.850641
 20
217.558521
 11
-114.350641
 21
217.558521
  0
LINE
  8
2
 10
-111.850641
 20
154.927124
 11
-114.350641
 21
154.927124
  0
ARC
  8
2
 10
-111.850641
 20
216.058521
 40
1.500000
 50
0.000000
 51
90.000000
  0
ARC
  8
2
 10
-111.850641
 20
156.427124
 40
1.500000
 50
270.000000
 51
360.000000
  0
LINE
  8
2
 10
-132.350641
 20
192.742823
 11
-132.350641
 21
179.742823
  0
LINE
  8
2
 10
-130.350641
 20
194.742823
 11
-116.350641
 21
194.742823
  0
LINE
  8
2
 10
-130.350641
 20
177.742823
 11
-116.350641
 21
177.742823
  0
ARC
  8
2
 10
-130.350641
 20
192.742823
 40
2.000000
 50
90.000000
 51
180.000000
  0
ARC
  8
2
 10
-130.350641
 20
179.742823
 40
2.000000
 50
180.000000
 51
270.000000
  0
LINE
  8
2
 10
-118.350641
 20
213.558521
 11
-118.350641
 21
210.082318
  0
ARC
  8
2
 10
-114.350641
 20
213.558521
 40
4.000000
 50
90.000000
 51
180.000000
  0
ARC
  8
2
 10
-114.350641
 20
210.082318
 40
4.000000
 50
180.000000
 51
244.623066
  0
ARC
  8
2
 10
-117.350641
 20
203.757763
 40
3.000000
 50
0.000000
 51
64.623066
  0
LINE
  8
2
 10
-111.850641
 20
207.961522
 11
-114.350641
 21
207.961522
  0
ARC
  8
2
 10
-114.350641
 20
211.961522
 40
4.000000
 50
180.000000
 51
270.000000
  0
ARC
  8
2
 10
-116.350641
 20
196.742823
 40
2.000000
 50
270.000000
 51
360.000000
  0
ARC
  8
2
 10
-116.350641
 20
175.742823
 40
2.000000
 50
0.000000
 51
90.000000
  0
LINE
  8
2
 10
-118.350641
 20
189.846614
 11
-118.350641
 21
182.639032
  0
ARC
  8
2
 10
-114.350641
 20
189.846614
 40
4.000000
 50
115.376934
 51
180.000000
  0
ARC
  8
2
 10
-114.350641
 20
182.639032
 40
4.000000
 50
180.000000
 51
244.623066
  0
ARC
  8
2
 10
-117.350641
 20
196.171169
 40
3.000000
 50
295.376934
 51
360.000000
  0
ARC
  8
2
 10
-117.350641
 20
176.314476
 40
3.000000
 50
0.000000
 51
64.623066
  0
LINE
  8
2
 10
-114.350641
 20
168.727882
 11
-114.350641
 21
176.314476
  0
LINE
  8
2
 10
-114.350641
 20
196.171169
 11
-114.350641
 21
203.757763
  0
LINE
  8
2
 10
-111.850641
 20
193.635900
 11
-114.350641
 21
193.635900
  0
LINE
  8
2
 10
-111.850641
 20
178.849745
 11
-114.350641
 21
178.849745
  0
ARC
  8
2
 10
-114.350641
 20
189.635900
 40
4.000000
 50
90.000000
 51
180.000000
  0
ARC
  8
2
 10
-114.350641
 20
182.849745
 40
4.000000
 50
180.000000
 51
270.000000
  0
ARC
  8
2
 10
-111.850641
 20
192.135900
 40
1.500000
 50
360.000000
 51
90.000000
  0
ARC
  8
2
 10
-111.850641
 20
180.349745
 40
1.500000
 50
270.000000
 51
0.000000
  0
LINE
  8
2
 10
-118.350641
 20
158.927124
 11
-118.350641
 21
162.403327
  0
ARC
  8
2
 10
-114.350641
 20
158.927124
 40
4.000000
 50
180.000000
 51
270.000000
  0
ARC
  8
2
 10
-114.350641
 20
162.403327
 40
4.000000
 50
115.376934
 51
180.000000
  0
ARC
  8
2
 10
-117.350641
 20
168.727882
 40
3.000000
 50
295.376934
 51
360.000000
  0
LINE
  8
2
 10
-111.850641
 20
164.524123
 11
-114.350641
 21
164.524123
  0
ARC
  8
2
 10
-114.350641
 20
160.524123
 40
4.000000
 50
90.000000
 51
180.000000
  0
LINE
  8
2
 10
-222.350641
 20
205.242823
 11
-164.350641
 21
205.242823
  0
LINE
  8
2
 10
-218.350641
 20
123.242823
 11
-168.350641
 21
123.242823
  0
LINE
  8
2
 10
-228.350641
 20
133.242823
 11
-228.350641
 21
199.242823
  0
LINE
  8
2
 10
-158.350641
 20
133.242823
 11
-158.350641
 21
199.242823
  0
LINE
  8
2
 10
-222.350641
 20
136.242823
 11
-164.350641
 21
136.242823
  0
ARC
  8
2
 10
-222.350641
 20
199.242823
 40
6.000000
 50
90.000000
 51
180.000000
  0
ARC
  8
2
 10
-164.350641
 20
199.242823
 40
6.000000
 50
0.000000
 51
90.000000
  0
ARC
  8
2
 10
-164.350641
 20
142.242823
 40
6.000000
 50
270.000000
 51
0.000000
  0
ARC
  8
2
 10
-222.350641
 20
142.242823
 40
6.000000
 50
180.000000
 51
270.000000
  0
ARC
  8
2
 10
-168.350641
 20
133.242823
 40
10.000000
 50
270.000000
 51
360.000000
  0
ARC
  8
2
 10
-218.350641
 20
133.242823
 40
10.000000
 50
180.000000
 51
270.000000
  0
CIRCLE
  8
2
 10
-177.087185
 20
174.506278
 40
4.000000
  0
CIRCLE
  8
2
 10
-209.614097
 20
174.506278
 40
4.000000
  0
CIRCLE
  8
2
 10
-209.614097
 20
141.979367
 40
4.000000
  0
CIRCLE
  8
2
 10
-177.087185
 20
174.506278
 40
1.000000
  0
CIRCLE
  8
2
 10
-209.614097
 20
174.506278
 40
1.000000
  0
CIRCLE
  8
2
 10
-209.614097
 20
141.979367
 40
1.000000
  0
LINE
  8
2
 10
-223.350641
 20
193.242823
 11
-221.350641
 21
193.242823
  0
LINE
  8
2
 10
-165.350641
 20
193.242823
 11
-163.350641
 21
193.242823
  0
LINE
  8
2
 10
-216.350641
 20
141.242823
 11
-216.350641
 21
143.242823
  0
LINE
  8
2
 10
-216.350641
 20
198.242823
 11
-216.350641
 21
200.242823
  0
LINE
  8
2
 10
-170.350641
 20
141.242823
 11
-170.350641
 21
143.242823
  0
LINE
  8
2
 10
-170.350641
 20
198.242823
 11
-170.350641
 21
200.242823
  0
LINE
  8
2
 10
-223.350641
 20
148.242823
 11
-221.350641
 21
148.242823
  0
LINE
  8
2
 10
-165.350641
 20
148.242823
 11
-163.350641
 21
148.242823
  0
ARC
  8
2
 10
-165.350641
 20
143.242823
 40
5.000000
 50
90.000000
 51
180.000000
  0
ARC
  8
2
 10
-165.350641
 20
198.242823
 40
5.000000
 50
180.000000
 51
270.000000
  0
ARC
  8
2
 10
-221.350641
 20
198.242823
 40
5.000000
 50
270.000000
 51
360.000000
  0
ARC
  8
2
 10
-221.350641
 20
143.242823
 40
5.000000
 50
0.000000
 51
90.000000
  0
ARC
  8
2
 10
-163.350641
 20
188.242823
 40
5.000000
 50
0.000000
 51
90.000000
  0
ARC
  8
2
 10
-175.350641
 20
200.242823
 40
5.000000
 50
0.000000
 51
90.000000
  0
ARC
  8
2
 10
-211.350641
 20
200.242823
 40
5.000000
 50
90.000000
 51
180.000000
  0
ARC
  8
2
 10
-223.350641
 20
188.242823
 40
5.000000
 50
90.000000
 51
180.000000
  0
ARC
  8
2
 10
-223.350641
 20
153.242823
 40
5.000000
 50
180.000000
 51
270.000000
  0
ARC
  8
2
 10
-211.350641
 20
141.242823
 40
5.000000
 50
180.000000
 51
270.000000
  0
ARC
  8
2
 10
-175.350641
 20
141.242823
 40
5.000000
 50
270.000000
 51
360.000000
  0
ARC
  8
2
 10
-163.350641
 20
153.242823
 40
5.000000
 50
270.000000
 51
360.000000
  0
CIRCLE
  8
2
 10
-164.350641
 20
142.242823
 40
4.250000
  0
CIRCLE
  8
2
 10
-164.350641
 20
142.242823
 40
3.730385
  0
LINE
  8
2
 10
-166.350641
 20
141.088122
 11
-166.350641
 21
143.397523
  0
LINE
  8
2
 10
-162.350641
 20
141.088122
 11
-162.350641
 21
143.397523
  0
LINE
  8
2
 10
-164.350641
 20
139.933421
 11
-166.350641
 21
141.088122
  0
LINE
  8
2
 10
-162.350641
 20
143.397523
 11
-164.350641
 21
144.552224
  0
LINE
  8
2
 10
-162.350641
 20
141.088122
 11
-164.350641
 21
139.933421
  0
LINE
  8
2
 10
-164.350641
 20
144.552224
 11
-166.350641
 21
143.397523
  0
CIRCLE
  8
2
 10
-222.350641
 20
142.242823
 40
4.250000
  0
CIRCLE
  8
2
 10
-222.350641
 20
142.242823
 40
3.730385
  0
LINE
  8
2
 10
-220.350641
 20
141.088122
 11
-220.350641
 21
143.397523
  0
LINE
  8
2
 10
-224.350641
 20
141.088122
 11
-224.350641
 21
143.397523
  0
LINE
  8
2
 10
-222.350641
 20
139.933421
 11
-220.350641
 21
141.088122
  0
LINE
  8
2
 10
-224.350641
 20
143.397523
 11
-222.350641
 21
144.552224
  0
LINE
  8
2
 10
-224.350641
 20
141.088122
 11
-222.350641
 21
139.933421
  0
LINE
  8
2
 10
-222.350641
 20
144.552224
 11
-220.350641
 21
143.397523
  0
CIRCLE
  8
2
 10
-164.350641
 20
199.242823
 40
4.250000
  0
CIRCLE
  8
2
 10
-164.350641
 20
199.242823
 40
3.730385
  0
LINE
  8
2
 10
-166.350641
 20
198.088122
 11
-166.350641
 21
200.397523
  0
LINE
  8
2
 10
-162.350641
 20
198.088122
 11
-162.350641
 21
200.397523
  0
LINE
  8
2
 10
-164.350641
 20
196.933421
 11
-166.350641
 21
198.088122
  0
LINE
  8
2
 10
-162.350641
 20
200.397523
 11
-164.350641
 21
201.552224
  0
LINE
  8
2
 10
-162.350641
 20
198.088122
 11
-164.350641
 21
196.933421
  0
LINE
  8
2
 10
-164.350641
 20
201.552224
 11
-166.350641
 21
200.397523
  0
CIRCLE
  8
2
 10
-222.350641
 20
199.242823
 40
4.250000
  0
CIRCLE
  8
2
 10
-222.350641
 20
199.242823
 40
3.730385
  0
LINE
  8
2
 10
-220.350641
 20
198.088122
 11
-220.350641
 21
200.397523
  0
LINE
  8
2
 10
-224.350641
 20
198.088122
 11
-224.350641
 21
200.397523
  0
LINE
  8
2
 10
-222.350641
 20
196.933421
 11
-220.350641
 21
198.088122
  0
LINE
  8
2
 10
-224.350641
 20
200.397523
 11
-222.350641
 21
201.552224
  0
LINE
  8
2
 10
-224.350641
 20
198.088122
 11
-222.350641
 21
196.933421
  0
LINE
  8
2
 10
-222.350641
 20
201.552224
 11
-220.350641
 21
200.397523
  0
LINE
  8
2
 10
-208.850641
 20
198.242823
 11
-177.850641
 21
198.242823
  0
LINE
  8
2
 10
-210.850641
 20
190.742823
 11
-210.850641
 21
196.242823
  0
LINE
  8
2
 10
-175.850641
 20
190.742823
 11
-175.850641
 21
196.242823
  0
ARC
  8
2
 10
-177.850641
 20
196.242823
 40
2.000000
 50
0.000000
 51
90.000000
  0
ARC
  8
2
 10
-208.850641
 20
196.242823
 40
2.000000
 50
90.000000
 51
180.000000
  0
LINE
  8
2
 10
-182.809641
 20
126.742823
 11
-183.350641
 21
127.283823
  0
LINE
  8
2
 10
-183.350641
 20
127.283823
 11
-183.350641
 21
131.242823
  0
LINE
  8
2
 10
-183.350641
 20
127.283823
 11
-177.350641
 21
127.283823
  0
LINE
  8
2
 62
2
 10
-182.809641
 20
126.742823
 11
-182.809641
 21
131.242823
  0
LINE
  8
2
 10
-177.891641
 20
126.742823
 11
-182.809641
 21
126.742823
  0
LINE
  8
2
 10
-177.891641
 20
126.742823
 11
-177.350641
 21
127.283823
  0
LINE
  8
2
 10
-177.350641
 20
127.283823
 11
-177.350641
 21
131.242823
  0
LINE
  8
2
 62
2
 10
-177.891641
 20
126.742823
 11
-177.891641
 21
131.242823
  0
LINE
  8
2
 10
-174.600641
 20
136.242823
 11
-174.600641
 21
131.733570
  0
LINE
  8
2
 10
-174.600641
 20
131.733570
 11
-175.450641
 21
131.242823
  0
LINE
  8
2
 10
-175.450641
 20
131.242823
 11
-185.250641
 21
131.242823
  0
LINE
  8
2
 10
-177.475641
 20
136.242823
 11
-177.475641
 21
131.733570
  0
ARC
  8
2
 10
-176.038141
 20
133.581525
 40
2.341227
 50
232.121121
 51
307.878879
  0
LINE
  8
2
 10
-186.100641
 20
136.242823
 11
-186.100641
 21
131.733570
  0
LINE
  8
2
 10
-186.100641
 20
131.733570
 11
-185.250641
 21
131.242823
  0
LINE
  8
2
 10
-183.225641
 20
136.242823
 11
-183.225641
 21
131.733570
  0
ARC
  8
2
 10
-184.663141
 20
133.581525
 40
2.341227
 50
232.121121
 51
307.878879
  0
ARC
  8
2
 10
-180.350641
 20
139.865298
 40
8.625000
 50
250.528777
 51
289.471219
  0
LINE
  8
2
 10
-158.350641
 20
190.742823
 11
-132.350641
 21
190.742823
  0
LINE
  8
2
 10
-158.350641
 20
181.742823
 11
-132.350641
 21
181.742823
  0
LINE
  8
2
  6
CENTER
 62
2
 10
-193.350641
 20
113.441138
 11
-193.350641
 21
213.902495
  0
LINE
  8
2
  6
CENTER
 62
2
 10
-233.582048
 20
186.242823
 11
-102.746653
 21
186.242823
  0
ARC
  8
2
  6
CENTER
 62
2
 10
-193.350641
 20
158.242823
 40
23.000000
 50
28.920753
 51
61.696907
  0
ARC
  8
2
  6
CENTER
 62
2
 10
-193.350641
 20
158.242823
 40
23.000000
 50
118.920753
 51
151.696907
  0
ARC
  8
2
  6
CENTER
 62
2
 10
-193.350641
 20
158.242823
 40
23.000000
 50
208.920753
 51
241.696907
  0
LINE
  8
2
  6
CENTER
 62
2
 10
-164.350641
 20
134.241454
 11
-164.350641
 21
150.283210
  0
LINE
  8
2
  6
CENTER
 62
2
 10
-172.268419
 20
142.242823
 11
-156.620554
 21
142.242823
  0
LINE
  8
2
  6
CENTER
 62
2
 10
-222.350641
 20
134.241454
 11
-222.350641
 21
150.283210
  0
LINE
  8
2
  6
CENTER
 62
2
 10
-214.432863
 20
142.242823
 11
-230.080729
 21
142.242823
  0
LINE
  8
2
  6
CENTER
 62
2
 10
-164.350641
 20
191.241454
 11
-164.350641
 21
207.283210
  0
LINE
  8
2
  6
CENTER
 62
2
 10
-172.268419
 20
199.242823
 11
-156.620554
 21
199.242823
  0
LINE
  8
2
  6
CENTER
 62
2
 10
-222.350641
 20
191.241454
 11
-222.350641
 21
207.283210
  0
LINE
  8
2
  6
CENTER
 62
2
 10
-214.432863
 20
199.242823
 11
-230.080729
 21
199.242823
  0
LINE
  8
2
  6
CENTER
 62
2
 10
-180.350641
 20
121.814887
 11
-180.350641
 21
141.384032
  0
LINE
  8
2
 10
-202.861750
 20
61.744484
 11
-183.839532
 21
61.744484
  0
LINE
  8
2
 10
-203.350641
 20
47.744484
 11
-183.350641
 21
47.744484
  0
LINE
  8
2
 10
-182.350641
 20
46.744484
 11
-183.350641
 21
47.744484
  0
LINE
  8
2
 10
-204.350641
 20
46.744484
 11
-203.350641
 21
47.744484
  0
LINE
  8
2
 10
-183.350641
 20
47.744484
 11
-183.839532
 21
61.744484
  0
LINE
  8
2
 10
-203.350641
 20
47.744484
 11
-202.861750
 21
61.744484
  0
LINE
  8
2
 10
-202.091276
 20
61.744484
 11
-202.515793
 21
47.744484
  0
LINE
  8
2
 10
-189.007971
 20
47.744484
 11
-189.496862
 21
61.744484
  0
CIRCLE
  8
2
 62
2
 10
-180.350641
 20
36.244484
 40
2.459000
  0
CIRCLE
  8
2
 10
-180.350641
 20
36.244484
 40
3.000000
  0
LINE
  8
2
 10
-178.850641
 20
35.378458
 11
-178.850641
 21
37.110509
  0
LINE
  8
2
 10
-181.850641
 20
35.378458
 11
-181.850641
 21
37.110509
  0
LINE
  8
2
 10
-180.350641
 20
34.512433
 11
-181.850641
 21
35.378458
  0
LINE
  8
2
 10
-178.850641
 20
37.110509
 11
-180.350641
 21
37.976535
  0
LINE
  8
2
 10
-180.350641
 20
37.976535
 11
-181.850641
 21
37.110509
  0
LINE
  8
2
 10
-178.850641
 20
35.378458
 11
-180.350641
 21
34.512433
  0
LINE
  8
2
  6
CENTER
 62
2
 10
-180.350641
 20
28.951194
 11
-180.350641
 21
43.736083
  0
LINE
  8
2
  6
CENTER
 62
2
 10
-188.057070
 20
36.244484
 11
-173.006716
 21
36.244484
  0
LINE
  8
2
  6
CENTER
 62
2
 10
-218.099379
 20
-17.359936
 11
-218.099379
 21
15.036482
  0
LINE
  8
2
 10
-111.850641
 20
66.244484
 11
-114.350641
 21
66.244484
  0
ARC
  8
2
 10
-111.850641
 20
64.744484
 40
1.500000
 50
0.000000
 51
90.000000
  0
ARC
  8
2
 10
-114.350641
 20
62.244484
 40
4.000000
 50
90.000000
 51
180.000000
  0
LINE
  8
2
 10
-132.350641
 20
37.744484
 11
-132.350641
 21
24.744484
  0
LINE
  8
2
 10
-130.350641
 20
39.744484
 11
-117.133071
 21
39.744484
  0
LINE
  8
2
 10
-130.350641
 20
22.744484
 11
-117.133071
 21
22.744484
  0
ARC
  8
2
 10
-130.350641
 20
24.744484
 40
2.000000
 50
180.000000
 51
270.000000
  0
ARC
  8
2
 10
-130.350641
 20
37.744484
 40
2.000000
 50
90.000000
 51
180.000000
  0
LINE
  8
2
 10
-118.350641
 20
59.296453
 11
-118.350641
 21
62.244484
  0
ARC
  8
2
 10
-117.350641
 20
54.697911
 40
3.000000
 50
0.000000
 51
82.036169
  0
ARC
  8
2
 10
-116.707318
 20
59.296453
 40
1.643323
 50
90.000000
 51
262.036169
  0
LINE
  8
2
 10
-116.707318
 20
60.939775
 11
-111.850641
 21
60.939775
  0
LINE
  8
2
 10
-111.850641
 20
52.494484
 11
-114.350641
 21
52.494484
  0
LINE
  8
2
 10
-118.350641
 20
48.494484
 11
-118.350641
 21
42.618172
  0
LINE
  8
2
 10
-114.350641
 20
54.697911
 11
-114.350641
 21
52.494484
  0
ARC
  8
2
 10
-114.350641
 20
48.494484
 40
4.000000
 50
90.000000
 51
180.000000
  0
ARC
  8
2
 10
-114.350641
 20
42.618172
 40
4.000000
 50
180.000000
 51
244.623066
  0
ARC
  8
2
 10
-117.350641
 20
36.293617
 40
3.000000
 50
0.000000
 51
64.623066
  0
ARC
  8
2
 10
-111.850641
 20
50.994484
 40
1.500000
 50
0.000000
 51
90.000000
  0
LINE
  8
2
 10
-110.350641
 20
-2.255516
 11
-110.350641
 21
64.744484
  0
LINE
  8
2
 10
-111.850641
 20
-3.755516
 11
-114.350641
 21
-3.755516
  0
ARC
  8
2
 10
-111.850641
 20
-2.255516
 40
1.500000
 50
270.000000
 51
360.000000
  0
ARC
  8
2
 10
-114.350641
 20
0.244484
 40
4.000000
 50
180.000000
 51
270.000000
  0
LINE
  8
2
 10
-118.350641
 20
3.192515
 11
-118.350641
 21
0.244484
  0
ARC
  8
2
 10
-117.350641
 20
7.791057
 40
3.000000
 50
277.963831
 51
360.000000
  0
ARC
  8
2
 10
-116.707318
 20
3.192515
 40
1.643323
 50
97.963831
 51
270.000000
  0
LINE
  8
2
 10
-116.707318
 20
1.549192
 11
-111.850641
 21
1.549192
  0
LINE
  8
2
 10
-111.850641
 20
9.994484
 11
-114.350641
 21
9.994484
  0
LINE
  8
2
 10
-118.350641
 20
13.994484
 11
-118.350641
 21
19.870796
  0
LINE
  8
2
 10
-114.350641
 20
7.791057
 11
-114.350641
 21
9.994484
  0
LINE
  8
2
 10
-114.350641
 20
26.195351
 11
-114.350641
 21
36.293617
  0
ARC
  8
2
 10
-114.350641
 20
13.994484
 40
4.000000
 50
180.000000
 51
270.000000
  0
ARC
  8
2
 10
-114.350641
 20
19.870796
 40
4.000000
 50
115.376934
 51
180.000000
  0
ARC
  8
2
 10
-117.350641
 20
26.195351
 40
3.000000
 50
295.376934
 51
360.000000
  0
ARC
  8
2
 10
-111.850641
 20
11.494484
 40
1.500000
 50
270.000000
 51
360.000000
  0
LINE
  8
2
 10
-111.850641
 20
39.515385
 11
-114.350641
 21
39.515385
  0
ARC
  8
2
 10
-114.350641
 20
43.515385
 40
4.000000
 50
180.000000
 51
270.000000
  0
LINE
  8
2
 10
-111.850641
 20
22.973582
 11
-114.350641
 21
22.973582
  0
ARC
  8
2
 10
-114.350641
 20
18.973582
 40
4.000000
 50
90.000000
 51
180.000000
  0
ARC
  8
2
 10
-111.850641
 20
21.473582
 40
1.500000
 50
360.000000
 51
90.000000
  0
ARC
  8
2
 10
-111.850641
 20
41.015385
 40
1.500000
 50
270.000000
 51
360.000000
  0
LINE
  8
2
 10
-228.350641
 20
7.244484
 11
-158.350641
 21
7.244484
  0
LINE
  8
2
 10
-228.350641
 20
7.244484
 11
-228.350641
 21
42.744484
  0
LINE
  8
2
 10
-158.350641
 20
7.244484
 11
-158.350641
 21
42.744484
  0
LINE
  8
2
 10
-223.350641
 20
26.244484
 11
-163.350641
 21
26.244484
  0
ARC
  8
2
 10
-163.350641
 20
21.244484
 40
5.000000
 50
0.000000
 51
90.000000
  0
ARC
  8
2
 10
-223.350641
 20
21.244484
 40
5.000000
 50
90.000000
 51
180.000000
  0
ARC
  8
2
 10
-161.350641
 20
42.744484
 40
3.000000
 50
0.000000
 51
90.000000
  0
ARC
  8
2
 10
-225.350641
 20
42.744484
 40
3.000000
 50
90.000000
 51
180.000000
  0
LINE
  8
2
 10
-158.350641
 20
31.244484
 11
-228.350641
 21
31.244484
  0
CIRCLE
  8
2
 10
-180.350641
 20
36.244484
 40
4.900000
  0
LINE
  8
2
 10
-183.237393
 20
41.244484
 11
-177.463890
 21
41.244484
  0
LINE
  8
2
 10
-186.124144
 20
36.244484
 11
-183.237393
 21
41.244484
  0
LINE
  8
2
 10
-183.237393
 20
31.244484
 11
-186.124144
 21
36.244484
  0
LINE
  8
2
 10
-177.463890
 20
41.244484
 11
-174.577139
 21
36.244484
  0
LINE
  8
2
 10
-174.577139
 20
36.244484
 11
-177.463890
 21
31.244484
  0
LINE
  8
2
 10
-216.350641
 20
37.244484
 11
-216.350641
 21
43.744484
  0
LINE
  8
2
 10
-170.350641
 20
37.244484
 11
-170.350641
 21
43.744484
  0
LINE
  8
2
 10
-227.350641
 20
36.244484
 11
-211.350641
 21
36.244484
  0
LINE
  8
2
 10
-174.577139
 20
36.244484
 11
-159.350641
 21
36.244484
  0
ARC
  8
2
 10
-169.350641
 20
37.244484
 40
1.000000
 50
180.000000
 51
270.000000
  0
ARC
  8
2
 10
-217.350641
 20
37.244484
 40
1.000000
 50
270.000000
 51
360.000000
  0
ARC
  8
2
 10
-159.350641
 20
35.244484
 40
1.000000
 50
0.000000
 51
90.000000
  0
ARC
  8
2
 10
-227.350641
 20
35.244484
 40
1.000000
 50
90.000000
 51
180.000000
  0
ARC
  8
2
 10
-172.350641
 20
43.744484
 40
2.000000
 50
0.000000
 51
90.000000
  0
ARC
  8
2
 10
-214.350641
 20
43.744484
 40
2.000000
 50
90.000000
 51
180.000000
  0
LINE
  8
2
 10
-166.350641
 20
46.744484
 11
-205.614097
 21
46.744484
  0
LINE
  8
2
 10
-166.350641
 20
46.744484
 11
-165.350641
 21
45.744484
  0
LINE
  8
2
 10
-176.827930
 20
46.744484
 11
-176.059025
 21
45.744484
  0
LINE
  8
2
 10
-206.114097
 20
48.744484
 11
-213.114097
 21
48.744484
  0
LINE
  8
2
 10
-213.614097
 20
48.244484
 11
-213.614097
 21
46.244484
  0
LINE
  8
2
 10
-205.614097
 20
48.244484
 11
-205.614097
 21
46.244484
  0
ARC
  8
2
 10
-213.114097
 20
48.244484
 40
0.500000
 50
90.000000
 51
180.000000
  0
ARC
  8
2
 10
-206.114097
 20
48.244484
 40
0.500000
 50
0.000000
 51
90.000000
  0
ARC
  8
2
 10
-214.114097
 20
46.244484
 40
0.500000
 50
270.000000
 51
360.000000
  0
ARC
  8
2
 10
-205.114097
 20
46.244484
 40
0.500000
 50
180.000000
 51
270.000000
  0
LINE
  8
2
 10
-180.587185
 20
48.744484
 11
-173.587185
 21
48.744484
  0
LINE
  8
2
 10
-173.087185
 20
48.244484
 11
-173.087185
 21
46.744484
  0
LINE
  8
2
 10
-181.087185
 20
48.244484
 11
-181.087185
 21
46.744484
  0
ARC
  8
2
 10
-173.587185
 20
48.244484
 40
0.500000
 50
0.000000
 51
90.000000
  0
ARC
  8
2
 10
-180.587185
 20
48.244484
 40
0.500000
 50
90.000000
 51
180.000000
  0
LINE
  8
2
 10
-218.100641
 20
36.244484
 11
-218.100641
 21
40.944484
  0
LINE
  8
2
 10
-218.100641
 20
40.944484
 11
-218.620256
 21
41.244484
  0
LINE
  8
2
 10
-218.100641
 20
40.944484
 11
-226.600641
 21
40.944484
  0
LINE
  8
2
 10
-226.600641
 20
36.244484
 11
-226.600641
 21
40.944484
  0
LINE
  8
2
 10
-226.600641
 20
40.944484
 11
-226.081026
 21
41.244484
  0
LINE
  8
2
 10
-226.081026
 20
41.244484
 11
-218.620256
 21
41.244484
  0
LINE
  8
2
 10
-168.600641
 20
36.244484
 11
-168.600641
 21
40.944484
  0
LINE
  8
2
 10
-168.600641
 20
40.944484
 11
-168.081026
 21
41.244484
  0
LINE
  8
2
 10
-168.600641
 20
40.944484
 11
-160.100641
 21
40.944484
  0
LINE
  8
2
 10
-160.100641
 20
36.244484
 11
-160.100641
 21
40.944484
  0
LINE
  8
2
 10
-160.100641
 20
40.944484
 11
-160.620256
 21
41.244484
  0
LINE
  8
2
 10
-160.620256
 20
41.244484
 11
-168.081026
 21
41.244484
  0
ARC
  8
2
 10
-209.614097
 20
74.275745
 40
28.810291
 50
262.019314
 51
277.980686
  0
LINE
  8
2
 10
-225.350641
 20
45.744484
 11
-214.114097
 21
45.744484
  0
LINE
  8
2
 10
-205.114097
 20
45.744484
 11
-161.350641
 21
45.744484
  0
LINE
  8
2
 10
-158.350641
 20
35.744484
 11
-132.350641
 21
35.744484
  0
LINE
  8
2
 10
-158.350641
 20
26.744484
 11
-132.350641
 21
26.744484
  0
LINE
  8
2
  6
CENTER
 62
2
 10
-102.746653
 20
31.244484
 11
-238.616884
 21
31.244484
  0
LINE
  8
2
  6
CENTER
 62
2
 10
-209.614097
 20
51.022933
 11
-209.614097
 21
43.622184
  0
LINE
  8
2
  6
CENTER
 62
2
 10
-177.087185
 20
51.022933
 11
-177.087185
 21
43.622184
  0
LINE
  8
2
  6
CENTER
 62
2
 10
-164.350641
 20
29.351203
 11
-164.350641
 21
44.186622
  0
LINE
  8
2
  6
CENTER
 62
2
 10
-222.350641
 20
29.351203
 11
-222.350641
 21
44.186622
  0
LINE
  8
2
 10
62.899359
 20
61.744484
 11
70.399359
 21
61.744484
  0
LINE
  8
2
 10
56.649359
 20
47.744484
 11
76.649359
 21
47.744484
  0
LINE
  8
2
 10
55.649359
 20
46.744484
 11
56.649359
 21
47.744484
  0
LINE
  8
2
 10
76.649359
 20
47.744484
 11
77.649359
 21
46.744484
  0
LINE
  8
2
 10
70.399359
 20
61.744484
 11
70.649359
 21
47.744484
  0
LINE
  8
2
 10
62.899359
 20
61.744484
 11
62.649359
 21
47.744484
  0
LINE
  8
2
 10
65.899359
 20
47.744484
 11
66.149359
 21
61.744484
  0
LINE
  8
2
 10
67.399359
 20
47.744484
 11
67.149359
 21
61.744484
  0
LINE
  8
2
  6
CENTER
 62
2
 10
91.398096
 20
-17.359936
 11
91.398096
 21
15.036482
  0
ARC
  8
2
  6
PHANTOM
 62
2
 10
115.462087
 20
67.293187
 40
15.000000
 50
202.330113
 51
277.669887
  0
ARC
  8
2
  6
PHANTOM
 62
2
 10
73.836630
 20
67.293187
 40
15.000000
 50
262.330113
 51
337.669887
  0
ARC
  8
2
  6
PHANTOM
 62
2
 10
53.023902
 20
31.244484
 40
15.000000
 50
322.330113
 51
37.669887
  0
ARC
  8
2
  6
PHANTOM
 62
2
 10
73.836630
 20
-4.804220
 40
15.000000
 50
22.330113
 51
97.669887
  0
ARC
  8
2
  6
PHANTOM
 62
2
 10
115.462087
 20
-4.804220
 40
15.000000
 50
82.330113
 51
157.669887
  0
ARC
  8
2
  6
PHANTOM
 62
2
 10
136.274816
 20
31.244484
 40
15.000000
 50
142.330113
 51
217.669887
  0
ARC
  8
2
  6
PHANTOM
 62
2
 10
118.465057
 20
44.994484
 40
7.500000
 50
322.330113
 51
97.669887
  0
ARC
  8
2
  6
PHANTOM
 62
2
 10
94.649359
 20
58.744484
 40
7.500000
 50
22.330113
 51
157.669887
  0
ARC
  8
2
  6
PHANTOM
 62
2
 10
70.833660
 20
44.994484
 40
7.500000
 50
82.330113
 51
217.669887
  0
ARC
  8
2
  6
PHANTOM
 62
2
 10
70.833660
 20
17.494484
 40
7.500000
 50
142.330113
 51
277.669887
  0
ARC
  8
2
  6
PHANTOM
 62
2
 10
94.649359
 20
3.744484
 40
7.500000
 50
202.330113
 51
337.669887
  0
ARC
  8
2
  6
PHANTOM
 62
2
 10
118.465057
 20
17.494484
 40
7.500000
 50
262.330113
 51
37.669887
  0
LINE
  8
2
 10
31.649359
 20
7.244484
 11
101.649359
 21
7.244484
  0
LINE
  8
2
 10
31.649359
 20
21.244484
 11
31.649359
 21
7.244484
  0
LINE
  8
2
 10
36.649359
 20
26.244484
 11
50.649359
 21
26.244484
  0
LINE
  8
2
 10
101.649359
 20
14.744484
 11
101.649359
 21
7.244484
  0
LINE
  8
2
 10
44.649359
 20
42.744484
 11
44.649359
 21
29.244484
  0
LINE
  8
2
 10
105.649359
 20
45.744484
 11
47.649359
 21
45.744484
  0
ARC
  8
2
 10
47.649359
 20
42.744484
 40
3.000000
 50
90.000000
 51
180.000000
  0
LINE
  8
2
 10
106.649359
 20
44.744484
 11
106.649359
 21
44.205965
  0
ARC
  8
2
 10
105.649359
 20
44.744484
 40
1.000000
 50
0.000000
 51
90.000000
  0
ARC
  8
2
 10
107.649359
 20
44.205965
 40
1.000000
 50
180.000000
 51
236.743569
  0
LINE
  8
2
 10
108.649359
 20
17.744484
 11
91.649359
 21
17.744484
  0
LINE
  8
2
 10
113.649359
 20
31.244484
 11
113.649359
 21
22.744484
  0
ARC
  8
2
 10
108.649359
 20
22.744484
 40
5.000000
 50
270.000000
 51
360.000000
  0
ARC
  8
2
 10
104.649359
 20
14.744484
 40
3.000000
 50
90.000000
 51
180.000000
  0
ARC
  8
2
 10
36.649359
 20
21.244484
 40
5.000000
 50
90.000000
 51
180.000000
  0
ARC
  8
2
 10
41.649359
 20
29.244484
 40
3.000000
 50
270.000000
 51
360.000000
  0
LINE
  8
2
 10
44.649359
 20
31.244484
 11
113.649359
 21
31.244484
  0
LINE
  8
2
 10
94.649359
 20
45.744484
 11
93.649359
 21
46.744484
  0
LINE
  8
2
 10
49.649359
 20
46.744484
 11
48.649359
 21
45.744484
  0
LINE
  8
2
 10
71.649359
 20
45.744484
 11
70.649359
 21
46.744484
  0
LINE
  8
2
 10
62.649359
 20
46.744484
 11
61.649359
 21
45.744484
  0
LINE
  8
2
 10
53.885903
 20
48.744484
 11
46.885903
 21
48.744484
  0
LINE
  8
2
 10
46.385903
 20
48.244484
 11
46.385903
 21
45.767764
  0
LINE
  8
2
 10
54.385903
 20
48.244484
 11
54.385903
 21
46.744484
  0
ARC
  8
2
 10
46.885903
 20
48.244484
 40
0.500000
 50
90.000000
 51
180.000000
  0
ARC
  8
2
 10
53.885903
 20
48.244484
 40
0.500000
 50
0.000000
 51
90.000000
  0
LINE
  8
2
 10
79.412815
 20
48.744484
 11
86.412815
 21
48.744484
  0
LINE
  8
2
 10
86.912815
 20
48.244484
 11
86.912815
 21
46.244484
  0
LINE
  8
2
 10
78.912815
 20
48.244484
 11
78.912815
 21
46.244484
  0
ARC
  8
2
 10
86.412815
 20
48.244484
 40
0.500000
 50
0.000000
 51
90.000000
  0
ARC
  8
2
 10
79.412815
 20
48.244484
 40
0.500000
 50
90.000000
 51
180.000000
  0
ARC
  8
2
 10
87.412815
 20
46.244484
 40
0.500000
 50
180.000000
 51
270.000000
  0
ARC
  8
2
 10
78.412815
 20
46.244484
 40
0.500000
 50
270.000000
 51
360.000000
  0
LINE
  8
2
 10
49.649359
 20
46.744484
 11
78.912815
 21
46.744484
  0
LINE
  8
2
 10
86.912815
 20
46.744484
 11
93.649359
 21
46.744484
  0
ARC
  8
2
 10
45.885903
 20
45.767764
 40
0.500000
 50
300.254682
 51
360.000000
  0
LINE
  8
2
 10
56.649359
 20
43.744484
 11
56.649359
 21
37.244484
  0
LINE
  8
2
 10
101.649359
 20
39.744484
 11
101.649359
 21
37.244484
  0
ARC
  8
2
 10
95.649359
 20
39.744484
 40
6.000000
 50
0.000000
 51
90.000000
  0
LINE
  8
2
 10
96.649359
 20
36.244484
 11
112.043156
 21
36.244484
  0
ARC
  8
2
 10
102.649359
 20
37.244484
 40
1.000000
 50
180.000000
 51
270.000000
  0
ARC
  8
2
 10
112.043156
 20
35.244484
 40
1.000000
 50
17.235285
 51
90.000000
  0
LINE
  8
2
 10
45.649359
 20
36.244484
 11
61.649359
 21
36.244484
  0
ARC
  8
2
 10
45.649359
 20
35.244484
 40
1.000000
 50
90.000000
 51
180.000000
  0
ARC
  8
2
 10
55.649359
 20
37.244484
 40
1.000000
 50
270.000000
 51
360.000000
  0
ARC
  8
2
 10
58.649359
 20
43.744484
 40
2.000000
 50
90.000000
 51
180.000000
  0
LINE
  8
2
 10
103.399359
 20
36.244484
 11
103.399359
 21
40.944484
  0
LINE
  8
2
 10
103.399359
 20
40.944484
 11
103.918974
 21
41.244484
  0
LINE
  8
2
 10
103.918974
 20
41.244484
 11
111.379744
 21
41.244484
  0
LINE
  8
2
 10
111.899359
 20
36.244484
 11
111.899359
 21
40.944484
  0
LINE
  8
2
 10
111.899359
 20
40.944484
 11
111.379744
 21
41.244484
  0
LINE
  8
2
 10
111.899359
 20
40.944484
 11
103.399359
 21
40.944484
  0
LINE
  8
2
 10
46.399359
 20
36.244484
 11
46.399359
 21
40.944484
  0
LINE
  8
2
 10
46.399359
 20
40.944484
 11
46.918974
 21
41.244484
  0
LINE
  8
2
 10
46.918974
 20
41.244484
 11
54.379744
 21
41.244484
  0
LINE
  8
2
 10
54.899359
 20
36.244484
 11
54.899359
 21
40.944484
  0
LINE
  8
2
 10
54.899359
 20
40.944484
 11
54.379744
 21
41.244484
  0
LINE
  8
2
 10
54.899359
 20
40.944484
 11
46.399359
 21
40.944484
  0
ARC
  8
2
 10
99.149359
 20
31.244484
 40
14.500000
 50
0.000000
 51
28.440718
  0
ARC
  8
2
 10
99.149359
 20
31.244484
 40
14.500000
 50
43.602819
 51
90.000000
  0
LINE
  8
2
 10
35.149359
 20
38.703484
 11
35.149359
 21
33.785484
  0
LINE
  8
2
 10
35.149359
 20
38.703484
 11
35.690359
 21
39.244484
  0
LINE
  8
2
 10
35.690359
 20
39.244484
 11
39.649359
 21
39.244484
  0
LINE
  8
2
 10
35.690359
 20
39.244484
 11
35.690359
 21
33.244484
  0
LINE
  8
2
 62
2
 10
35.149359
 20
38.703484
 11
39.649359
 21
38.703484
  0
LINE
  8
2
 10
35.149359
 20
33.785484
 11
35.690359
 21
33.244484
  0
LINE
  8
2
 10
35.690359
 20
33.244484
 11
39.649359
 21
33.244484
  0
LINE
  8
2
 62
2
 10
35.149359
 20
33.785484
 11
39.649359
 21
33.785484
  0
LINE
  8
2
 10
44.649359
 20
31.244484
 11
39.649359
 21
31.244484
  0
LINE
  8
2
 10
39.649359
 20
31.244484
 11
39.649359
 21
41.244484
  0
ARC
  8
2
 10
46.262566
 20
33.744484
 40
6.613208
 50
157.788205
 51
202.211795
  0
LINE
  8
2
 10
44.649359
 20
41.244484
 11
39.649359
 21
41.244484
  0
LINE
  8
2
 10
44.649359
 20
36.244484
 11
40.140106
 21
36.244484
  0
ARC
  8
2
 10
46.262566
 20
38.744484
 40
6.613208
 50
157.788205
 51
202.211795
  0
CIRCLE
  8
2
 10
94.649359
 20
31.244484
 40
4.500000
  0
LINE
  8
2
  6
CENTER
 62
2
 10
135.819409
 20
31.244484
 11
24.479799
 21
31.244484
  0
LINE
  8
2
  6
CENTER
 62
2
 10
94.649359
 20
72.414534
 11
94.649359
 21
-9.925567
  0
LINE
  8
2
  6
CENTER
 62
2
 10
45.649359
 20
36.244484
 11
30.874109
 21
36.244484
  0
LINE
  8
2
  6
CENTER
 62
2
 10
50.385903
 20
51.022933
 11
50.385903
 21
43.622184
  0
LINE
  8
2
  6
CENTER
 62
2
 10
82.912815
 20
51.022933
 11
82.912815
 21
43.622184
  0
LINE
  8
2
  6
CENTER
 62
2
 10
107.649359
 20
44.186622
 11
107.649359
 21
29.351203
  0
LINE
  8
2
  6
CENTER
 62
2
 10
50.649359
 20
44.186622
 11
50.649359
 21
29.351203
  0
TEXT
  8
2
 10
-174.850641
 20
161.742823
 40
7.000000
  1
Ｓ
 50
270.000000
  0
TEXT
  8
2
 10
-196.850641
 20
176.742823
 40
7.000000
  1
Ｏ
 50
0.000000
  0
LINE
  8
2
 10
-225.599379
 20
-5.755516
 11
-225.599379
 21
-10.533828
  0
LINE
  8
2
 10
-225.599379
 20
-10.533828
 11
-224.349379
 21
-11.255516
  0
LINE
  8
2
 10
-221.849379
 20
-5.755516
 11
-221.849379
 21
-10.533828
  0
ARC
  8
2
 10
-223.724379
 20
-8.123452
 40
3.053774
 50
232.121121
 51
307.878879
  0
ARC
  8
2
 10
-218.099379
 20
0.072773
 40
11.250000
 50
250.528781
 51
289.471223
  0
LINE
  8
2
 10
-210.599379
 20
-9.865283
 11
-210.599379
 21
-10.533828
  0
LINE
  8
2
 10
-210.599379
 20
-10.533828
 11
-211.849379
 21
-11.255516
  0
LINE
  8
2
 10
-211.849379
 20
-11.255516
 11
-224.349379
 21
-11.255516
  0
LINE
  8
2
 10
-214.349379
 20
-9.713769
 11
-214.349379
 21
-10.533828
  0
ARC
  8
2
 10
-212.474379
 20
-8.123452
 40
3.053774
 50
232.121121
 51
307.878879
  0
LINE
  8
2
 10
-225.799379
 20
-3.755516
 11
-225.799379
 21
-5.755516
  0
LINE
  8
2
 10
-225.799379
 20
-5.755516
 11
-217.022214
 21
-5.755516
  0
LINE
  8
2
 10
83.820932
 20
-5.755516
 11
99.098096
 21
-5.755516
  0
LINE
  8
2
 10
99.098096
 20
-5.755516
 11
99.098096
 21
-3.755516
  0
LINE
  8
2
 10
84.898096
 20
-5.755516
 11
84.898096
 21
-11.255516
  0
LINE
  8
2
 10
91.398096
 20
-5.755516
 11
91.398096
 21
-10.533828
  0
ARC
  8
2
 10
88.148096
 20
-3.576758
 40
7.678759
 50
244.960340
 51
295.039660
  0
LINE
  8
2
 10
97.898096
 20
-5.755516
 11
97.898096
 21
-11.255516
  0
LINE
  8
2
 10
97.898096
 20
-11.255516
 11
84.898096
 21
-11.255516
  0
ARC
  8
2
 10
94.648096
 20
-3.576758
 40
7.678759
 50
244.960340
 51
295.039660
  0
DIMENSION
  8
5
  2
*D0
 10
-4.864883
 20
31.244484
 11
-10.484883
 21
21.224484
 70
0
  1
24
 13
31.649359
 23
7.244484
 14
24.479799
 24
31.244484
 50
90.000000
  0
DIMENSION
  8
5
  2
*D1
 10
-76.092659
 20
-3.755516
 11
-84.022659
 21
30.914484
 70
1
  1
%%c70
 13
-111.850641
 23
66.244484
 14
-111.850641
 24
-3.755516
 50
270.000000
  0
DIMENSION
  8
5
  2
*D2
 10
-110.350641
 20
241.778763
 11
-151.850641
 21
246.078763
 70
0
  1
83
 13
-193.350641
 23
213.902495
 14
-110.350641
 24
216.058521
 50
0.000000
  0
DIMENSION
  8
5
  2
*D3
 10
-76.092659
 20
186.242823
 11
-81.712659
 21
174.222823
 70
0
  1
28
 13
-118.637840
 23
158.242823
 14
-102.746653
 24
186.242823
 50
90.000000
  0
DIMENSION
  8
5
  2
*D4
 10
-76.092659
 20
158.242823
 11
-81.712659
 21
142.722823
 70
0
  1
35
 13
-168.350641
 23
123.242823
 14
-118.637840
 24
158.242823
 50
90.000000
  0
DIMENSION
  8
5
  2
*D5
 10
-4.864883
 20
7.244484
 11
-12.794883
 21
-68.585516
 70
0
  1
151
 13
29.243649
 23
-143.755516
 14
31.649359
 24
7.244484
 50
90.000000
  0
DIMENSION
  8
5
  2
*D6
 10
-4.864883
 20
-143.755516
 11
-10.484883
 21
-181.175516
 70
0
  1
79
 13
54.664464
 23
-222.555516
 14
29.243649
 24
-143.755516
 50
90.000000
  0
DIMENSION
  8
5
  2
*D7
 10
89.649359
 20
-252.020020
 11
66.649359
 21
-247.720020
 70
0
  1
46
 13
43.649359
 23
-201.255516
 14
89.649359
 24
-203.755516
 50
0.000000
  0
LINE
  8
18
 10
243.098152
 20
-136.431236
 11
343.098152
 21
-136.431236
  0
LINE
  8
18
 10
243.098152
 20
-176.431236
 11
343.098152
 21
-176.431236
  0
LINE
  8
18
 10
243.098152
 20
-186.431236
 11
343.098152
 21
-186.431236
  0
LINE
  8
18
 10
243.098152
 20
-196.431236
 11
343.098152
 21
-196.431236
  0
LINE
  8
18
 10
243.098152
 20
-136.431236
 11
243.098152
 21
-196.431236
  0
LINE
  8
18
 10
293.098152
 20
-136.431236
 11
293.098152
 21
-186.431236
  0
LINE
  8
18
 10
343.098152
 20
-136.431236
 11
343.098152
 21
-196.431236
  0
LINE
  8
18
  6
CENTER
 62
2
 10
250.914742
 20
-163.586777
 11
280.736214
 21
-163.586777
  0
LINE
  8
18
  6
CENTER
 62
2
 10
265.960518
 20
-150.713860
 11
265.960518
 21
-171.186554
  0
LINE
  8
18
 10
278.960518
 20
-159.986777
 11
278.960518
 21
-167.186777
  0
LINE
  8
18
 10
252.960518
 20
-159.986777
 11
252.960518
 21
-167.186777
  0
LINE
  8
18
 10
261.353995
 20
-152.586777
 11
270.567040
 21
-152.586777
  0
LINE
  8
18
 10
271.283528
 20
-156.586777
 11
283.107002
 21
-156.586777
  0
LINE
  8
18
 10
283.107002
 20
-149.786777
 11
283.107002
 21
-161.386777
  0
LINE
  8
18
 10
285.507002
 20
-149.786777
 11
285.507002
 21
-161.386777
  0
LINE
  8
18
 10
271.108550
 20
-154.586777
 11
283.107002
 21
-154.586777
  0
LINE
  8
18
 10
253.360518
 20
-159.586777
 11
260.287554
 21
-159.586777
  0
LINE
  8
18
 10
271.633482
 20
-159.586777
 11
278.560518
 21
-159.586777
  0
LINE
  8
18
 10
253.360518
 20
-167.586777
 11
260.710518
 21
-167.586777
  0
LINE
  8
18
 10
271.210518
 20
-167.586777
 11
278.560518
 21
-167.586777
  0
LINE
  8
18
 10
263.225559
 20
-162.986777
 11
268.695477
 21
-162.986777
  0
LINE
  8
18
 10
263.225559
 20
-164.186777
 11
268.695477
 21
-164.186777
  0
ARC
  8
18
 10
284.307002
 20
-149.786777
 40
1.200000
 50
0.000000
 51
180.000000
  0
ARC
  8
18
 10
284.307002
 20
-161.386777
 40
1.200000
 50
180.000000
 51
360.000000
  0
LINE
  8
18
 10
259.983350
 20
-163.063842
 11
260.955517
 21
-152.951914
  0
LINE
  8
18
 10
271.937686
 20
-163.063842
 11
270.965518
 21
-152.951914
  0
ARC
  8
18
 10
261.353995
 20
-152.986777
 40
0.400000
 50
90.000000
 51
175.000000
  0
ARC
  8
18
 10
270.567040
 20
-152.986777
 40
0.400000
 50
5.000000
 51
90.000000
  0
ARC
  8
18
 10
253.360518
 20
-159.986777
 40
0.400000
 50
90.000000
 51
180.000000
  0
ARC
  8
18
 10
253.360518
 20
-167.186777
 40
0.400000
 50
180.000000
 51
270.000000
  0
ARC
  8
18
 10
278.560518
 20
-159.986777
 40
0.400000
 50
0.000000
 51
90.000000
  0
ARC
  8
18
 10
278.560518
 20
-167.186777
 40
0.400000
 50
270.000000
 51
360.000000
  0
LINE
  8
18
  6
CENTER
 62
2
 10
315.960518
 20
-141.240761
 11
315.960518
 21
-160.088753
  0
LINE
  8
18
  6
CENTER
 62
2
 10
329.833435
 20
-150.586777
 11
301.055275
 21
-150.586777
  0
LINE
  8
18
 10
326.960518
 20
-145.980254
 11
326.960518
 21
-155.193299
  0
LINE
  8
18
 10
322.960518
 20
-155.909786
 11
322.960518
 21
-167.733261
  0
LINE
  8
18
 10
329.760518
 20
-167.733261
 11
318.160518
 21
-167.733261
  0
LINE
  8
18
 10
329.760518
 20
-170.133261
 11
318.160518
 21
-170.133261
  0
LINE
  8
18
 10
324.960518
 20
-155.734809
 11
324.960518
 21
-167.733261
  0
LINE
  8
18
 10
316.560518
 20
-147.851818
 11
316.560518
 21
-153.321736
  0
LINE
  8
18
 10
315.360518
 20
-147.851818
 11
315.360518
 21
-153.321736
  0
ARC
  8
18
 10
329.760518
 20
-168.933261
 40
1.200000
 50
270.000000
 51
90.000000
  0
ARC
  8
18
 10
318.160518
 20
-168.933261
 40
1.200000
 50
90.000000
 51
270.000000
  0
LINE
  8
18
 10
316.483452
 20
-144.609609
 11
326.595380
 21
-145.581776
  0
LINE
  8
18
 10
316.483452
 20
-156.563945
 11
326.595380
 21
-155.591777
  0
ARC
  8
18
 10
326.560518
 20
-145.980254
 40
0.400000
 50
0.000000
 51
85.000000
  0
ARC
  8
18
 10
326.560518
 20
-155.193299
 40
0.400000
 50
275.000000
 51
360.000000
  0
LINE
  8
18
 10
303.360518
 20
-146.586777
 11
309.960518
 21
-146.586777
  0
LINE
  8
18
 10
303.360518
 20
-154.586777
 11
309.960518
 21
-154.586777
  0
LINE
  8
18
 10
326.960518
 20
-154.586777
 11
328.560518
 21
-154.586777
  0
LINE
  8
18
 10
326.960518
 20
-146.586777
 11
328.560518
 21
-146.586777
  0
LINE
  8
18
 10
328.960518
 20
-146.986777
 11
328.960518
 21
-154.186777
  0
LINE
  8
18
 10
302.960518
 20
-146.986777
 11
302.960518
 21
-154.186777
  0
ARC
  8
18
 10
303.360518
 20
-146.986777
 40
0.400000
 50
90.000000
 51
180.000000
  0
ARC
  8
18
 10
303.360518
 20
-154.186777
 40
0.400000
 50
180.000000
 51
270.000000
  0
ARC
  8
18
 10
328.560518
 20
-154.186777
 40
0.400000
 50
270.000000
 51
360.000000
  0
ARC
  8
18
 10
328.560518
 20
-146.986777
 40
0.400000
 50
0.000000
 51
90.000000
  0
CIRCLE
  8
18
 10
265.960518
 20
-163.586777
 40
2.800000
  0
CIRCLE
  8
18
 10
315.960518
 20
-150.586777
 40
2.800000
  0
LINE
  8
18
 10
261.960518
 20
-169.586777
 11
269.960518
 21
-169.586777
  0
LINE
  8
18
 10
270.936128
 20
-168.806289
 11
271.814176
 21
-164.903850
  0
LINE
  8
18
 10
260.984908
 20
-168.806289
 11
260.106859
 21
-164.903850
  0
ARC
  8
18
 10
269.960518
 20
-168.586777
 40
1.000000
 50
270.000000
 51
347.319617
  0
ARC
  8
18
 10
261.960518
 20
-168.586777
 40
1.000000
 50
192.680383
 51
270.000000
  0
ARC
  8
18
 10
265.960518
 20
-163.586777
 40
6.000000
 50
175.000000
 51
192.680383
  0
ARC
  8
18
 10
265.960518
 20
-163.586777
 40
6.000000
 50
347.319617
 51
5.000000
  0
LINE
  8
18
 10
310.741006
 20
-145.611167
 11
314.643445
 21
-144.733118
  0
LINE
  8
18
 10
310.741006
 20
-155.562386
 11
314.643445
 21
-156.440435
  0
ARC
  8
18
 10
310.960518
 20
-146.586777
 40
1.000000
 50
102.680383
 51
180.000000
  0
ARC
  8
18
 10
310.960518
 20
-154.586777
 40
1.000000
 50
180.000000
 51
257.319617
  0
LINE
  8
18
 10
309.960518
 20
-154.586777
 11
309.960518
 21
-146.586777
  0
ARC
  8
18
 10
315.960518
 20
-150.586777
 40
6.000000
 50
85.000000
 51
102.680383
  0
ARC
  8
18
 10
315.960518
 20
-150.586777
 40
6.000000
 50
257.319617
 51
275.000000
  0
TEXT
  8
18
 10
244.289261
 20
-266.527985
 40
6.000000
  1
１
 50
0.000000
  0
TEXT
  8
18
 10
253.082458
 20
-274.202026
 40
6.000000
  1
２
 50
0.000000
  0
TEXT
  8
18
 10
263.359627
 20
-184.075478
 40
6.000000
  1
Ａ
 50
0.000000
  0
TEXT
  8
18
 10
251.082405
 20
-193.498505
 40
5.000000
  1
ＡＣＴＵＡＴＯＲ　ＰＯＳＩＴＩＯＮ
 50
0.000000
  0
TEXT
  8
18
 10
313.359627
 20
-184.075478
 40
6.000000
  1
Ｂ
 50
0.000000
  0
TEXT
  8
18
 10
263.174342
 20
-160.548553
 40
3.000000
  1
Ｏ
 50
0.000000
  0
TEXT
  8
18
 10
271.736830
 20
-166.309218
 40
3.000000
  1
Ｓ
 50
90.000000
  0
TEXT
  8
18
 10
318.798741
 20
-147.800601
 40
3.000000
  1
Ｏ
 50
270.000000
  0
TEXT
  8
18
 10
313.238077
 20
-156.363089
 40
3.000000
  1
Ｓ
 50
0.000000
  0
TEXT
  8
18
 10
245.708481
 20
-246.070526
 40
6.000000
  1
７３２Ｐ－２ＩＡＳ　６５Ａ
 50
0.000000
  0
TEXT
  8
18
 10
245.708481
 20
-254.070526
 40
6.000000
  1
標準仕様　ＪＩＳ　２０Ｋ
 50
0.000000
  0
TEXT
  8
18
 10
360.316223
 20
-253.771606
 40
4.000000
  1
２０００．１１．１１
 50
0.000000
  0
TEXT
  8
18
 10
307.200000
 20
-272.000000
 40
10.000000
  1
Ｄ３－０２５０２
 50
0.000000
  0
LINE
  8
20
 62
3
 10
-360.000000
 20
-277.000000
 11
400.000000
 21
-277.000000
  0
LINE
  8
20
 62
3
 10
-360.000000
 20
264.000000
 11
400.000000
 21
264.000000
  0
LINE
  8
20
 62
3
 10
-360.000000
 20
264.000000
 11
-360.000000
 21
-277.000000
  0
LINE
  8
20
 62
3
 10
400.000000
 20
264.000000
 11
400.000000
 21
-277.000000
  0
LINE
  8
20
 62
3
 10
120.000000
 20
-277.000000
 11
120.000000
 21
-237.000000
  0
LINE
  8
20
 62
3
 10
214.000000
 20
-277.000000
 11
214.000000
 21
-237.000000
  0
LINE
  8
20
 10
214.000000
 20
-257.000000
 11
400.000000
 21
-257.000000
  0
LINE
  8
20
 62
3
 10
120.000000
 20
-237.000000
 11
400.000000
 21
-237.000000
  0
LINE
  8
20
 10
360.000000
 20
-257.000000
 11
360.000000
 21
-237.000000
  0
LINE
  8
20
 10
360.000000
 20
-247.000000
 11
400.000000
 21
-247.000000
  0
LINE
  8
20
 10
242.000000
 20
-277.000000
 11
242.000000
 21
-237.000000
  0
LINE
  8
20
 10
262.000000
 20
-277.000000
 11
262.000000
 21
-257.000000
  0
LINE
  8
20
 10
302.000000
 20
-277.000000
 11
302.000000
 21
-257.000000
  0
LINE
  8
20
 10
247.456829
 20
-271.543171
 11
255.796581
 21
-263.203419
  0
TEXT
  8
20
 10
263.066658
 20
-264.993835
 40
3.600000
  1
ＤＲＡＷＩＮＧ　ＮＯ．
 50
0.000000
  0
TEXT
  8
20
 10
267.000000
 20
-273.000000
 40
6.000000
  1
図　　　番
 50
0.000000
  0
TEXT
  8
20
 10
372.000000
 20
-244.000000
 40
4.000000
  1
ＤＡＴＥ
 50
0.000000
  0
TEXT
  8
20
 10
218.002142
 20
-265.922058
 40
4.000000
  1
ＳＣＡＬＥ
 50
0.000000
  0
TEXT
  8
20
 10
216.000000
 20
-273.000000
 40
6.000000
  1
尺　　度
 50
0.000000
  0
TEXT
  8
20
 10
215.002142
 20
-244.991769
 40
4.000000
  1
ＦＩＧ．ＮＯ．
 50
0.000000
  0
TEXT
  8
20
 10
216.000000
 20
-253.000000
 40
6.000000
  1
名　　称
 50
0.000000
  0
TEXT
  8
20
 10
121.131050
 20
-252.940506
 40
4.600000
  1
ＴＯＭＯＥ　ＶＡＬＶＥ　ＣＯ．，ＬＴＤ．
 50
0.000000
  0
TEXT
  8
20
 10
135.000000
 20
-266.579620
 40
8.000000
  1
巴バルブ株式会社
 50
0.000000
  0
ENDSEC
  0
EOF
