  0
SECTION
  2
HEADER
  9
$ACADVER
  1
AC1012
  9
$DWGCODEPAGE
  3
ansi_932
  9
$INSBASE
 10
0.0
 20
0.0
 30
0.0
  9
$EXTMIN
 10
-840.0
 20
-594.0
 30
1.000000E+20
  9
$EXTMAX
 10
840.0
 20
594.0
 30
-1.000000E+20
  9
$LIMMIN
 10
-840.0
 20
-594.0
  9
$LIMMAX
 10
840.0
 20
594.0
  9
$ORTHOMODE
 70
     0
  9
$REGENMODE
 70
     1
  9
$FILLMODE
 70
     1
  9
$QTEXTMODE
 70
     0
  9
$MIRRTEXT
 70
     1
  9
$DRAGMODE
 70
     2
  9
$LTSCALE
 40
1.0
  9
$OSMODE
 70
     0
  9
$ATTMODE
 70
     1
  9
$TEXTSIZE
 40
0.2
  9
$TRACEWID
 40
0.05
  9
$TEXTSTYLE
  7
STANDARD
  9
$CLAYER
  8
0
  9
$CELTYPE
  6
CONTINUOUS
  9
$CECOLOR
 62
   256
  9
$CELTSCALE
 40
1.0
  9
$DELOBJ
 70
     1
  9
$DISPSILH
 70
     0
  9
$DIMSCALE
 40
4.0
  9
$DIMASZ
 40
0.18
  9
$DIMEXO
 40
0.0625
  9
$DIMDLI
 40
0.38
  9
$DIMRND
 40
0.0
  9
$DIMDLE
 40
0.0
  9
$DIMEXE
 40
0.18
  9
$DIMTP
 40
0.0
  9
$DIMTM
 40
0.0
  9
$DIMTXT
 40
0.18
  9
$DIMCEN
 40
0.09
  9
$DIMTSZ
 40
0.0
  9
$DIMTOL
 70
     0
  9
$DIMLIM
 70
     0
  9
$DIMTIH
 70
     1
  9
$DIMTOH
 70
     1
  9
$DIMSE1
 70
     0
  9
$DIMSE2
 70
     0
  9
$DIMTAD
 70
     1
  9
$DIMZIN
 70
     0
  9
$DIMBLK
  1

  9
$DIMASO
 70
     1
  9
$DIMSHO
 70
     1
  9
$DIMPOST
  1

  9
$DIMAPOST
  1

  9
$DIMALT
 70
     0
  9
$DIMALTD
 70
     2
  9
$DIMALTF
 40
25.4
  9
$DIMLFAC
 40
1.0
  9
$DIMTOFL
 70
     0
  9
$DIMTVP
 40
0.0
  9
$DIMTIX
 70
     0
  9
$DIMSOXD
 70
     0
  9
$DIMSAH
 70
     0
  9
$DIMBLK1
  1

  9
$DIMBLK2
  1

  9
$DIMSTYLE
  2
STANDARD
  9
$DIMCLRD
 70
     0
  9
$DIMCLRE
 70
     0
  9
$DIMCLRT
 70
     0
  9
$DIMTFAC
 40
1.0
  9
$DIMGAP
 40
0.09
  9
$DIMJUST
 70
     0
  9
$DIMSD1
 70
     0
  9
$DIMSD2
 70
     0
  9
$DIMTOLJ
 70
     1
  9
$DIMTZIN
 70
     0
  9
$DIMALTZ
 70
     0
  9
$DIMALTTZ
 70
     0
  9
$DIMFIT
 70
     3
  9
$DIMUPT
 70
     0
  9
$DIMUNIT
 70
     2
  9
$DIMDEC
 70
     4
  9
$DIMTDEC
 70
     4
  9
$DIMALTU
 70
     2
  9
$DIMALTTD
 70
     2
  9
$DIMTXSTY
  7
STANDARD
  9
$DIMAUNIT
 70
     0
  9
$LUNITS
 70
     2
  9
$LUPREC
 70
     4
  9
$SKETCHINC
 40
0.1
  9
$FILLETRAD
 40
0.0
  9
$AUNITS
 70
     0
  9
$AUPREC
 70
     0
  9
$MENU
  1
acad
  9
$ELEVATION
 40
0.0
  9
$PELEVATION
 40
0.0
  9
$THICKNESS
 40
0.0
  9
$LIMCHECK
 70
     0
  9
$BLIPMODE
 70
     1
  9
$CHAMFERA
 40
0.0
  9
$CHAMFERB
 40
0.0
  9
$CHAMFERC
 40
0.0
  9
$CHAMFERD
 40
0.0
  9
$SKPOLY
 70
     0
  9
$TDCREATE
 40
2450541.000000000
  9
$TDUPDATE
 40
0.000000000
  9
$TDINDWG
 40
0.0000000000
  9
$TDUSRTIMER
 40
0.0000000000
  9
$USRTIMER
 70
     1
  9
$ANGBASE
 50
0.0
  9
$ANGDIR
 70
     0
  9
$PDMODE
 70
     0
  9
$PDSIZE
 40
0.0
  9
$PLINEWID
 40
0.0
  9
$COORDS
 70
     0
  9
$SPLFRAME
 70
     0
  9
$SPLINETYPE
 70
     6
  9
$SPLINESEGS
 70
     8
  9
$ATTDIA
 70
     0
  9
$ATTREQ
 70
     1
  9
$HANDLING
 70
     1
  9
$HANDSEED
  5
8A4
  9
$SURFTAB1
 70
     6
  9
$SURFTAB2
 70
     6
  9
$SURFTYPE
 70
     6
  9
$SURFU
 70
     6
  9
$SURFV
 70
     6
  9
$UCSNAME
  2

  9
$UCSORG
 10
0.0
 20
0.0
 30
0.0
  9
$UCSXDIR
 10
1.0
 20
0.0
 30
0.0
  9
$UCSYDIR
 10
0.0
 20
1.0
 30
0.0
  9
$PUCSNAME
  2

  9
$PUCSORG
 10
0.0
 20
0.0
 30
0.0
  9
$PUCSXDIR
 10
1.0
 20
0.0
 30
0.0
  9
$PUCSYDIR
 10
0.0
 20
1.0
 30
0.0
  9
$USERI1
 70
     0
  9
$USERI2
 70
     0
  9
$USERI3
 70
     0
  9
$USERI4
 70
     0
  9
$USERI5
 70
     0
  9
$USERR1
 40
0.0
  9
$USERR2
 40
0.0
  9
$USERR3
 40
0.0
  9
$USERR4
 40
0.0
  9
$USERR5
 40
0.0
  9
$WORLDVIEW
 70
     1
  9
$SHADEDGE
 70
     3
  9
$SHADEDIF
 70
    70
  9
$TILEMODE
 70
     1
  9
$MAXACTVP
 70
    16
  9
$PINSBASE
 10
0.0
 20
0.0
 30
0.0
  9
$PLIMCHECK
 70
     0
  9
$PEXTMIN
 10
1.000000E+20
 20
1.000000E+20
 30
1.000000E+20
  9
$PEXTMAX
 10
-1.000000E+20
 20
-1.000000E+20
 30
-1.000000E+20
  9
$PLIMMIN
 10
0.0
 20
0.0
  9
$PLIMMAX
 10
12.0
 20
9.0
  9
$UNITMODE
 70
     0
  9
$VISRETAIN
 70
     0
  9
$PLINEGEN
 70
     1
  9
$PSLTSCALE
 70
     0
  9
$TREEDEPTH
 70
  3020
  9
$PICKSTYLE
 70
     1
  9
$CMLSTYLE
  2
STANDARD
  9
$CMLJUST
 70
     0
  9
$CMLSCALE
 40
1.0
  9
$SAVEIMAGES
 70
     0
  0
ENDSEC
  0
SECTION
  2
CLASSES
  0
CLASS
  1
LWPOLYLINE
  2
AcDbPolyline
  3
"AutoCAD"
 90
    32768
280
     0
281
     1
  0
CLASS
  1
IMAGE
  2
AcDbRasterImage
  3
ISM
 90
    32895
280
     0
281
     1
  0
CLASS
  1
OLE2FRAME
  2
AcDbOle2Frame
  3
""
 90
    32768
280
     0
281
     1
  0
CLASS
  1
HATCH
  2
AcDbHatch
  3
"ACAD_SEDONA"
 90
    32768
280
     0
281
     1
  0
CLASS
  1
DICTIONARYVAR
  2
AcDbDictionaryVar
  3
"AutoCAD"
 90
    32768
280
     0
281
     0
  0
CLASS
  1
RASTERVARIABLES
  2
AcDbRasterVariables
  3
ISM
 90
    32768
280
     0
281
     0
  0
CLASS
  1
IMAGEDEF
  2
AcDbRasterImageDef
  3
ISM
 90
    32768
280
     0
281
     0
  0
CLASS
  1
IMAGEDEF_REACTOR
  2
AcDbRasterImageDefReactor
  3
ISM
 90
    32769
280
     0
281
     0
  0
CLASS
  1
IDBUFFER
  2
AcDbIdBuffer
  3
"Acad"
 90
    32768
280
     0
281
     0
  0
CLASS
  1
SPATIAL_FILTER
  2
AcDbSpatialFilter
  3
"Acad"
 90
    32768
280
     0
281
     0
  0
CLASS
  1
XRECORD
  2
AcDbXrecord
  3
"<Built In>"
 90
    32768
280
     0
281
     0
  0
CLASS
  1
SORTENTSTABLE
  2
AcDbSortentsTable
  3
"AutoCAD"
 90
    32768
280
     0
281
     0
  0
CLASS
  1
LAYER_INDEX
  2
AcDbLayerIndex
  3
"Acad"
 90
    32768
280
     0
281
     0
  0
CLASS
  1
SPATIAL_INDEX
  2
AcDbSpatialIndex
  3
"Acad"
 90
    32768
280
     0
281
     0
  0
CLASS
  1
OBJECT_PTR
  2
CAseDLPNTableRecord
  3
"ASE-LPNTableRecord"
 90
    32769
280
     0
281
     0
  0
CLASS
  1
LAYOUT
  2
AcDbLayout
  3
"AutoCAD 2000"
 90
    32768
280
     0
281
     0
  0
CLASS
  1
PLOTSETTINGS
  2
AcDbPlotSettings
  3
"AutoCAD 2000"
 90
    32768
280
     0
281
     0
  0
CLASS
  1
ACDBDICTIONARYWDFLT
  2
AcDbDictionaryWithDefault
  3
"AutoCAD 2000"
 90
    32768
280
     0
281
     0
  0
CLASS
  1
ACDBPLACEHOLDER
  2
AcDbPlaceHolder
  3
"AutoCAD 2000"
 90
    32768
280
     0
281
     0
  0
CLASS
  1
VBA_PROJECT
  2
AcDbVbaProject
  3
"acadvba"
 90
    32768
280
     0
281
     0
  0
CLASS
  1
WIPEOUT
  2
AcDbWipeout
  3
WipeOut|AutoCAD Express Tool|expresstools@autodesk.com
 90
    32895
280
     0
281
     1
  0
CLASS
  1
WIPEOUTVARIABLES
  2
AcDbWipeoutVariables
  3
WipeOut|AutoCAD Express Tool|expresstools@autodesk.com
 90
    32768
280
     0
281
     0
  0
CLASS
  1
RTEXT
  2
RText
  3
RText|AutoCAD Express Tool|expresstools@autodesk.com
 90
    32768
280
     0
281
     1
  0
CLASS
  1
ARCALIGNEDTEXT
  2
AcDbArcAlignedText
  3
ATEXT|AutoCAD Express Tool|expresstools@autodesk.com
 90
    32768
280
     0
281
     1
  0
ENDSEC
  0
SECTION
  2
TABLES
  0
TABLE
  2
VPORT
  5
6
100
AcDbSymbolTable
 70
     1
  0
VPORT
  5
1C
100
AcDbSymbolTableRecord
100
AcDbViewportTableRecord
  2
*ACTIVE
 70
     0
 10
0.0
 20
0.0
 11
1.0
 21
1.0
 12
0.0
 22
0.0
 13
0.0
 23
0.0
 14
1.0
 24
1.0
 15
0.0
 25
0.0
 16
0.0
 26
0.0
 36
1.0
 17
0.0
 27
0.0
 37
0.0
 40
1188.0
 41
1.414141
 42
50.0
 43
0.0
 44
0.0
 50
0.0
 51
0.0
 71
     0
 72
   500
 73
     1
 74
     1
 75
     0
 76
     0
 77
     0
 78
     0
  0
ENDTAB
  0
TABLE
  2
LTYPE
  5
3
100
AcDbSymbolTable
 70
     9
  0
LTYPE
  5
C
100
AcDbSymbolTableRecord
100
AcDbLinetypeTableRecord
  2
BYBLOCK
 70
    64
  3

 72
    65
 73
     0
 40
0.0
  0
LTYPE
  5
D
100
AcDbSymbolTableRecord
100
AcDbLinetypeTableRecord
  2
BYLAYER
 70
    64
  3

 72
    65
 73
     0
 40
0.0
  0
LTYPE
  5
E
100
AcDbSymbolTableRecord
100
AcDbLinetypeTableRecord
  2
CONTINUOUS
 70
     0
  3
Solid line
 72
    65
 73
     0
 40
0.0
  0
LTYPE
  5
F
100
AcDbSymbolTableRecord
100
AcDbLinetypeTableRecord
  2
DASHED
 70
     0
  3
__ __ __ __ __ __ __ __ __ __ __ __ __ __ __
 72
    65
 73
     2
 40
2.0
 49
1.2
 74
     0
 49
-0.8
 74
     0
  0
LTYPE
  5
10
100
AcDbSymbolTableRecord
100
AcDbLinetypeTableRecord
  2
CENTER
 70
     0
  3
____ _ ____ _ ____ _ ____ _ ____ _ ____ _ ____
 72
    65
 73
     4
 40
12.0
 49
9.0
 74
     0
 49
-1.0
 74
     0
 49
1.0
 74
     0
 49
-1.0
 74
     0
  0
LTYPE
  5
11
100
AcDbSymbolTableRecord
100
AcDbLinetypeTableRecord
  2
HIDDEN
 70
     0
  3
_ _ _ _ _ _ _ _ _ _ _ _ _ _ _ _ _ _ _ _ _ _ _
 72
    65
 73
     2
 40
3.2
 49
2.4
 74
     0
 49
-0.8
 74
     0
  0
LTYPE
  5
12
100
AcDbSymbolTableRecord
100
AcDbLinetypeTableRecord
  2
PHANTOM
 70
     0
  3
_____ _ _ _____ _ _ _____ _ _ _____ _ _ _____
 72
    65
 73
     6
 40
13.5
 49
9.0
 74
     0
 49
-1.0
 74
     0
 49
1.0
 74
     0
 49
-0.5
 74
     0
 49
1.0
 74
     0
 49
-1.0
 74
     0
  0
LTYPE
  5
13
100
AcDbSymbolTableRecord
100
AcDbLinetypeTableRecord
  2
DOT
 70
     0
  3
...............................................
 72
    65
 73
     2
 40
1.0
 49
0.5
 74
     0
 49
-0.5
 74
     0
  0
LTYPE
  5
14
100
AcDbSymbolTableRecord
100
AcDbLinetypeTableRecord
  2
DASHDOT
 70
     0
  3
__ . __ . __ . __ . __ . __ . __ . __ . __ . __
 72
    65
 73
     4
 40
8.0
 49
5.0
 74
     0
 49
-1.0
 74
     0
 49
1.0
 74
     0
 49
-1.0
 74
     0
  0
ENDTAB
  0
TABLE
  2
LAYER
  5
1
100
AcDbSymbolTable
 70
     7
  0
LAYER
  5
15
100
AcDbSymbolTableRecord
100
AcDbLayerTableRecord
  2
0
 70
     0
 62
     7
  6
CONTINUOUS
  0
LAYER
  5
16
100
AcDbSymbolTableRecord
100
AcDbLayerTableRecord
  2
1
 70
     0
 62
     7
  6
CONTINUOUS
  0
LAYER
  5
17
100
AcDbSymbolTableRecord
100
AcDbLayerTableRecord
  2
2
 70
     0
 62
     7
  6
CONTINUOUS
  0
LAYER
  5
18
100
AcDbSymbolTableRecord
100
AcDbLayerTableRecord
  2
3
 70
     0
 62
     7
  6
CONTINUOUS
  0
LAYER
  5
19
100
AcDbSymbolTableRecord
100
AcDbLayerTableRecord
  2
5
 70
     0
 62
     7
  6
CONTINUOUS
  0
LAYER
  5
1A
100
AcDbSymbolTableRecord
100
AcDbLayerTableRecord
  2
18
 70
     0
 62
     7
  6
CONTINUOUS
  0
LAYER
  5
1B
100
AcDbSymbolTableRecord
100
AcDbLayerTableRecord
  2
20
 70
     0
 62
     7
  6
CONTINUOUS
  0
ENDTAB
  0
TABLE
  2
STYLE
  5
2
100
AcDbSymbolTable
 70
     1
  0
STYLE
  5
1E
100
AcDbSymbolTableRecord
100
AcDbTextStyleTableRecord
  2
STANDARD
 70
    64
 40
0.0
 41
1.0
 50
0.0
 71
     0
 42
1.0
  3
txt
  4
BIGFONT
  0
ENDTAB
  0
TABLE
  2
VIEW
  5
4
100
AcDbSymbolTable
 70
     0
  0
ENDTAB
  0
TABLE
  2
UCS
  5
5
100
AcDbSymbolTable
 70
     0
  0
ENDTAB
  0
TABLE
  2
APPID
  5
7
100
AcDbSymbolTable
 70
     1
  0
APPID
  5
1D
100
AcDbSymbolTableRecord
100
AcDbRegAppTableRecord
  2
ACAD
 70
     0
  0
ENDTAB
  0
TABLE
  2
DIMSTYLE
  5
8
100
AcDbSymbolTable
 70
     1
  0
DIMSTYLE
105
30
100
AcDbSymbolTableRecord
100
AcDbDimStyleTableRecord
  2
STANDARD
 70
     0
  3

  4

  5

  6

  7

 40
4.0
 41
0.18
 42
0.0625
 43
0.38
 44
0.18
 45
0.0
 46
0.0
 47
0.0
 48
0.0
 71
     0
 72
     0
 73
     1
 74
     1
 75
     0
 76
     0
 77
     1
 78
     0
140
0.18
141
0.09
142
0.0
143
25.4
144
1.0
145
0.0
146
1.0
147
0.09
170
     0
171
     2
172
     0
173
     0
174
     0
175
     0
176
     0
177
     0
178
     0
270
     2
271
     4
272
     4
273
     2
274
     2
275
     0
280
     0
281
     0
282
     0
283
     1
284
     0
285
     0
286
     0
287
     3
288
     0
340
1E
  0
ENDTAB
  0
TABLE
  2
BLOCK_RECORD
  5
2B
100
AcDbSymbolTable
 70
    10
  0
BLOCK_RECORD
  5
29
100
AcDbSymbolTableRecord
100
AcDbBlockTableRecord
  2
*MODEL_SPACE
  0
BLOCK_RECORD
  5
2A
100
AcDbSymbolTableRecord
100
AcDbBlockTableRecord
  2
*PAPER_SPACE
  0
BLOCK_RECORD
  5
1F
100
AcDbSymbolTableRecord
100
AcDbBlockTableRecord
  2
*D0
  0
BLOCK_RECORD
  5
20
100
AcDbSymbolTableRecord
100
AcDbBlockTableRecord
  2
*D1
  0
BLOCK_RECORD
  5
21
100
AcDbSymbolTableRecord
100
AcDbBlockTableRecord
  2
*D2
  0
BLOCK_RECORD
  5
22
100
AcDbSymbolTableRecord
100
AcDbBlockTableRecord
  2
*D3
  0
BLOCK_RECORD
  5
23
100
AcDbSymbolTableRecord
100
AcDbBlockTableRecord
  2
*D4
  0
BLOCK_RECORD
  5
24
100
AcDbSymbolTableRecord
100
AcDbBlockTableRecord
  2
*D5
  0
BLOCK_RECORD
  5
25
100
AcDbSymbolTableRecord
100
AcDbBlockTableRecord
  2
*D6
  0
BLOCK_RECORD
  5
26
100
AcDbSymbolTableRecord
100
AcDbBlockTableRecord
  2
*D7
  0
BLOCK_RECORD
  5
27
100
AcDbSymbolTableRecord
100
AcDbBlockTableRecord
  2
*D8
  0
BLOCK_RECORD
  5
28
100
AcDbSymbolTableRecord
100
AcDbBlockTableRecord
  2
*D9
  0
ENDTAB
  0
ENDSEC
  0
SECTION
  2
BLOCKS
  0
BLOCK
  5
2C
100
AcDbEntity
  8
0
100
AcDbBlockBegin
  2
*MODEL_SPACE
 70
     0
 10
0.0
 20
0.0
 30
0.0
  3
*MODEL_SPACE
  1

  0
ENDBLK
  5
2D
100
AcDbEntity
  8
0
100
AcDbBlockEnd
  0
BLOCK
  5
2E
100
AcDbEntity
 67
     1
  8
0
100
AcDbBlockBegin
  2
*PAPER_SPACE
 70
     0
 10
0.0
 20
0.0
 30
0.0
  3
*PAPER_SPACE
  1

  0
ENDBLK
  5
2F
100
AcDbEntity
 67
     1
  8
0
100
AcDbBlockEnd
  0
BLOCK
  5
822
100
AcDbEntity
  8
5
100
AcDbBlockBegin
  2
*D0
 70
     1
 10
0.0
 20
0.0
 30
0.0
  3
*D0
  1

  0
TEXT
  5
823
100
AcDbEntity
  8
5
 62
     2
100
AcDbText
 10
158.774369
 20
-514.97699
 30
0.0
 40
13.2
  1
57
 41
1.4
 72
     5
 11
173.558369
 21
-514.97699
 31
0.0
100
AcDbText
  0
LINE
  5
824
100
AcDbEntity
  8
5
 62
     2
100
AcDbLine
 10
139.514369
 20
-390.933977
 30
0.0
 11
139.514369
 21
-520.97699
 31
0.0
  0
LINE
  5
825
100
AcDbEntity
  8
5
 62
     2
100
AcDbLine
 10
139.514369
 20
-516.97699
 30
0.0
 11
147.241776
 21
-519.047542
 31
0.0
  0
LINE
  5
826
100
AcDbEntity
  8
5
 62
     2
100
AcDbLine
 10
139.514369
 20
-516.97699
 30
0.0
 11
147.241776
 21
-514.906437
 31
0.0
  0
LINE
  5
827
100
AcDbEntity
  8
5
 62
     2
100
AcDbLine
 10
147.241776
 20
-519.047542
 30
0.0
 11
147.241776
 21
-514.906437
 31
0.0
  0
LINE
  5
828
100
AcDbEntity
  8
5
 62
     2
100
AcDbLine
 10
139.514369
 20
-516.97699
 30
0.0
 11
196.514369
 21
-516.97699
 31
0.0
  0
LINE
  5
829
100
AcDbEntity
  8
5
 62
     2
100
AcDbLine
 10
196.514369
 20
-516.97699
 30
0.0
 11
188.786962
 21
-514.906437
 31
0.0
  0
LINE
  5
82A
100
AcDbEntity
  8
5
 62
     2
100
AcDbLine
 10
196.514369
 20
-516.97699
 30
0.0
 11
188.786962
 21
-519.047542
 31
0.0
  0
LINE
  5
82B
100
AcDbEntity
  8
5
 62
     2
100
AcDbLine
 10
188.786962
 20
-514.906437
 30
0.0
 11
188.786962
 21
-519.047542
 31
0.0
  0
LINE
  5
82C
100
AcDbEntity
  8
5
 62
     2
100
AcDbLine
 10
196.514369
 20
-390.933977
 30
0.0
 11
196.514369
 21
-520.97699
 31
0.0
  0
ENDBLK
  5
82D
100
AcDbEntity
  8
5
100
AcDbBlockEnd
  0
BLOCK
  5
82E
100
AcDbEntity
  8
5
100
AcDbBlockBegin
  2
*D1
 70
     1
 10
0.0
 20
0.0
 30
0.0
  3
*D1
  1

  0
TEXT
  5
82F
100
AcDbEntity
  8
5
 62
     2
100
AcDbText
 10
111.034369
 20
-479.000977
 30
0.0
 40
13.2
  1
23
 41
1.4
 72
     5
 11
125.818369
 21
-479.000977
 31
0.0
100
AcDbText
  0
LINE
  5
830
100
AcDbEntity
  8
5
 62
     2
100
AcDbLine
 10
139.514369
 20
-390.933977
 30
0.0
 11
139.514369
 21
-485.000977
 31
0.0
  0
LINE
  5
831
100
AcDbEntity
  8
5
 62
     2
100
AcDbLine
 10
139.514369
 20
-481.000977
 30
0.0
 11
131.786962
 21
-478.930424
 31
0.0
  0
LINE
  5
832
100
AcDbEntity
  8
5
 62
     2
100
AcDbLine
 10
139.514369
 20
-481.000977
 30
0.0
 11
131.786962
 21
-483.071529
 31
0.0
  0
LINE
  5
833
100
AcDbEntity
  8
5
 62
     2
100
AcDbLine
 10
131.786962
 20
-478.930424
 30
0.0
 11
131.786962
 21
-483.071529
 31
0.0
  0
LINE
  5
834
100
AcDbEntity
  8
5
 62
     2
100
AcDbLine
 10
109.034369
 20
-481.000977
 30
0.0
 11
182.514369
 21
-481.000977
 31
0.0
  0
LINE
  5
835
100
AcDbEntity
  8
5
 62
     2
100
AcDbLine
 10
162.514369
 20
-481.000977
 30
0.0
 11
170.241776
 21
-483.071529
 31
0.0
  0
LINE
  5
836
100
AcDbEntity
  8
5
 62
     2
100
AcDbLine
 10
162.514369
 20
-481.000977
 30
0.0
 11
170.241776
 21
-478.930424
 31
0.0
  0
LINE
  5
837
100
AcDbEntity
  8
5
 62
     2
100
AcDbLine
 10
170.241776
 20
-483.071529
 30
0.0
 11
170.241776
 21
-478.930424
 31
0.0
  0
LINE
  5
838
100
AcDbEntity
  8
5
 62
     2
100
AcDbLine
 10
162.514369
 20
-463.406569
 30
0.0
 11
162.514369
 21
-485.000977
 31
0.0
  0
ENDBLK
  5
839
100
AcDbEntity
  8
5
100
AcDbBlockEnd
  0
BLOCK
  5
83A
100
AcDbEntity
  8
5
100
AcDbBlockBegin
  2
*D2
 70
     1
 10
0.0
 20
0.0
 30
0.0
  3
*D2
  1

  0
TEXT
  5
83B
100
AcDbEntity
  8
5
 62
     2
100
AcDbText
 10
48.191565
 20
-191.793976
 30
0.0
 40
13.2
  1
205
 50
90.0
 41
1.4
 72
     5
 11
48.191565
 21
-167.769977
 31
0.0
100
AcDbText
  0
LINE
  5
83C
100
AcDbEntity
  8
5
 62
     2
100
AcDbLine
 10
112.780032
 20
-280.433977
 30
0.0
 11
46.191565
 21
-280.433977
 31
0.0
  0
LINE
  5
83D
100
AcDbEntity
  8
5
 62
     2
100
AcDbLine
 10
50.191565
 20
-280.433977
 30
0.0
 11
52.262117
 21
-272.70657
 31
0.0
  0
LINE
  5
83E
100
AcDbEntity
  8
5
 62
     2
100
AcDbLine
 10
50.191565
 20
-280.433977
 30
0.0
 11
48.121012
 21
-272.70657
 31
0.0
  0
LINE
  5
83F
100
AcDbEntity
  8
5
 62
     2
100
AcDbLine
 10
52.262117
 20
-272.70657
 30
0.0
 11
48.121012
 21
-272.70657
 31
0.0
  0
LINE
  5
840
100
AcDbEntity
  8
5
 62
     2
100
AcDbLine
 10
50.191565
 20
-280.433977
 30
0.0
 11
50.191565
 21
-75.433977
 31
0.0
  0
LINE
  5
841
100
AcDbEntity
  8
5
 62
     2
100
AcDbLine
 10
50.191565
 20
-75.433977
 30
0.0
 11
48.121012
 21
-83.161383
 31
0.0
  0
LINE
  5
842
100
AcDbEntity
  8
5
 62
     2
100
AcDbLine
 10
50.191565
 20
-75.433977
 30
0.0
 11
52.262117
 21
-83.161383
 31
0.0
  0
LINE
  5
843
100
AcDbEntity
  8
5
 62
     2
100
AcDbLine
 10
48.121012
 20
-83.161383
 30
0.0
 11
52.262117
 21
-83.161383
 31
0.0
  0
LINE
  5
844
100
AcDbEntity
  8
5
 62
     2
100
AcDbLine
 10
96.014369
 20
-75.433977
 30
0.0
 11
46.191565
 21
-75.433977
 31
0.0
  0
ENDBLK
  5
845
100
AcDbEntity
  8
5
100
AcDbBlockEnd
  0
BLOCK
  5
846
100
AcDbEntity
  8
5
100
AcDbBlockBegin
  2
*D3
 70
     1
 10
0.0
 20
0.0
 30
0.0
  3
*D3
  1

  0
TEXT
  5
847
100
AcDbEntity
  8
5
 62
     2
100
AcDbText
 10
-330.735631
 20
484.891083
 30
0.0
 40
13.2
  1
222.5
 41
1.4
 72
     5
 11
-288.231631
 21
484.891083
 31
0.0
100
AcDbText
  0
LINE
  5
848
100
AcDbEntity
  8
5
 62
     2
100
AcDbLine
 10
-418.885631
 20
421.60306
 30
0.0
 11
-418.885631
 21
486.891083
 31
0.0
  0
LINE
  5
849
100
AcDbEntity
  8
5
 62
     2
100
AcDbLine
 10
-418.885631
 20
482.891083
 30
0.0
 11
-411.158224
 21
480.82053
 31
0.0
  0
LINE
  5
84A
100
AcDbEntity
  8
5
 62
     2
100
AcDbLine
 10
-418.885631
 20
482.891083
 30
0.0
 11
-411.158224
 21
484.961635
 31
0.0
  0
LINE
  5
84B
100
AcDbEntity
  8
5
 62
     2
100
AcDbLine
 10
-411.158224
 20
480.82053
 30
0.0
 11
-411.158224
 21
484.961635
 31
0.0
  0
LINE
  5
84C
100
AcDbEntity
  8
5
 62
     2
100
AcDbLine
 10
-418.885631
 20
482.891083
 30
0.0
 11
-196.385631
 21
482.891083
 31
0.0
  0
LINE
  5
84D
100
AcDbEntity
  8
5
 62
     2
100
AcDbLine
 10
-196.385631
 20
482.891083
 30
0.0
 11
-204.113038
 21
484.961635
 31
0.0
  0
LINE
  5
84E
100
AcDbEntity
  8
5
 62
     2
100
AcDbLine
 10
-196.385631
 20
482.891083
 30
0.0
 11
-204.113038
 21
480.82053
 31
0.0
  0
LINE
  5
84F
100
AcDbEntity
  8
5
 62
     2
100
AcDbLine
 10
-204.113038
 20
484.961635
 30
0.0
 11
-204.113038
 21
480.82053
 31
0.0
  0
LINE
  5
850
100
AcDbEntity
  8
5
 62
     2
100
AcDbLine
 10
-196.385631
 20
371.516023
 30
0.0
 11
-196.385631
 21
486.891083
 31
0.0
  0
ENDBLK
  5
851
100
AcDbEntity
  8
5
100
AcDbBlockEnd
  0
BLOCK
  5
852
100
AcDbEntity
  8
5
100
AcDbBlockBegin
  2
*D4
 70
     1
 10
0.0
 20
0.0
 30
0.0
  3
*D4
  1

  0
TEXT
  5
853
100
AcDbEntity
  8
5
 62
     2
100
AcDbText
 10
-139.377594
 20
299.036024
 30
0.0
 40
13.2
  1
87.5
 50
90.0
 41
1.4
 72
     5
 11
-139.377594
 21
332.300023
 31
0.0
100
AcDbText
  0
LINE
  5
854
100
AcDbEntity
  8
5
 62
     2
100
AcDbLine
 10
-276.09908
 20
273.766023
 30
0.0
 11
-133.377594
 21
273.766023
 31
0.0
  0
LINE
  5
855
100
AcDbEntity
  8
5
 62
     2
100
AcDbLine
 10
-137.377594
 20
273.766023
 30
0.0
 11
-135.307042
 21
281.49343
 31
0.0
  0
LINE
  5
856
100
AcDbEntity
  8
5
 62
     2
100
AcDbLine
 10
-137.377594
 20
273.766023
 30
0.0
 11
-139.448146
 21
281.49343
 31
0.0
  0
LINE
  5
857
100
AcDbEntity
  8
5
 62
     2
100
AcDbLine
 10
-135.307042
 20
281.49343
 30
0.0
 11
-139.448146
 21
281.49343
 31
0.0
  0
LINE
  5
858
100
AcDbEntity
  8
5
 62
     2
100
AcDbLine
 10
-137.377594
 20
273.766023
 30
0.0
 11
-137.377594
 21
361.266023
 31
0.0
  0
LINE
  5
859
100
AcDbEntity
  8
5
 62
     2
100
AcDbLine
 10
-137.377594
 20
361.266023
 30
0.0
 11
-139.448146
 21
353.538617
 31
0.0
  0
LINE
  5
85A
100
AcDbEntity
  8
5
 62
     2
100
AcDbLine
 10
-137.377594
 20
361.266023
 30
0.0
 11
-135.307042
 21
353.538617
 31
0.0
  0
LINE
  5
85B
100
AcDbEntity
  8
5
 62
     2
100
AcDbLine
 10
-139.448146
 20
353.538617
 30
0.0
 11
-135.307042
 21
353.538617
 31
0.0
  0
LINE
  5
85C
100
AcDbEntity
  8
5
 62
     2
100
AcDbLine
 10
-173.642967
 20
361.266023
 30
0.0
 11
-133.377594
 21
361.266023
 31
0.0
  0
ENDBLK
  5
85D
100
AcDbEntity
  8
5
100
AcDbBlockEnd
  0
BLOCK
  5
85E
100
AcDbEntity
  8
5
100
AcDbBlockBegin
  2
*D5
 70
     1
 10
0.0
 20
0.0
 30
0.0
  3
*D5
  1

  0
TEXT
  5
85F
100
AcDbEntity
  8
5
 62
     2
100
AcDbText
 10
-139.377594
 20
219.526024
 30
0.0
 40
13.2
  1
90
 50
90.0
 41
1.4
 72
     5
 11
-139.377594
 21
234.310023
 31
0.0
100
AcDbText
  0
LINE
  5
860
100
AcDbEntity
  8
5
 62
     2
100
AcDbLine
 10
-381.832631
 20
183.766023
 30
0.0
 11
-133.377594
 21
183.766023
 31
0.0
  0
LINE
  5
861
100
AcDbEntity
  8
5
 62
     2
100
AcDbLine
 10
-137.377594
 20
183.766023
 30
0.0
 11
-135.307042
 21
191.49343
 31
0.0
  0
LINE
  5
862
100
AcDbEntity
  8
5
 62
     2
100
AcDbLine
 10
-137.377594
 20
183.766023
 30
0.0
 11
-139.448146
 21
191.49343
 31
0.0
  0
LINE
  5
863
100
AcDbEntity
  8
5
 62
     2
100
AcDbLine
 10
-135.307042
 20
191.49343
 30
0.0
 11
-139.448146
 21
191.49343
 31
0.0
  0
LINE
  5
864
100
AcDbEntity
  8
5
 62
     2
100
AcDbLine
 10
-137.377594
 20
183.766023
 30
0.0
 11
-137.377594
 21
273.766023
 31
0.0
  0
LINE
  5
865
100
AcDbEntity
  8
5
 62
     2
100
AcDbLine
 10
-137.377594
 20
273.766023
 30
0.0
 11
-139.448146
 21
266.038617
 31
0.0
  0
LINE
  5
866
100
AcDbEntity
  8
5
 62
     2
100
AcDbLine
 10
-137.377594
 20
273.766023
 30
0.0
 11
-135.307042
 21
266.038617
 31
0.0
  0
LINE
  5
867
100
AcDbEntity
  8
5
 62
     2
100
AcDbLine
 10
-139.448146
 20
266.038617
 30
0.0
 11
-135.307042
 21
266.038617
 31
0.0
  0
LINE
  5
868
100
AcDbEntity
  8
5
 62
     2
100
AcDbLine
 10
-276.09908
 20
273.766023
 30
0.0
 11
-133.377594
 21
273.766023
 31
0.0
  0
ENDBLK
  5
869
100
AcDbEntity
  8
5
100
AcDbBlockEnd
  0
BLOCK
  5
86A
100
AcDbEntity
  8
5
100
AcDbBlockBegin
  2
*D6
 70
     1
 10
0.0
 20
0.0
 30
0.0
  3
*D6
  1

  0
TEXT
  5
86B
100
AcDbEntity
  8
5
 62
     2
100
AcDbText
 10
-139.377594
 20
-16.413976
 30
0.0
 40
13.2
  1
%%c200
 50
90.0
 41
1.4
 72
     5
 11
-139.377594
 21
16.850023
 31
0.0
100
AcDbText
  0
LINE
  5
86C
100
AcDbEntity
  8
5
 62
     2
100
AcDbLine
 10
-213.385631
 20
102.066023
 30
0.0
 11
-133.377594
 21
102.066023
 31
0.0
  0
LINE
  5
86D
100
AcDbEntity
  8
5
 62
     2
100
AcDbLine
 10
-137.377594
 20
102.066023
 30
0.0
 11
-139.448146
 21
94.338617
 31
0.0
  0
LINE
  5
86E
100
AcDbEntity
  8
5
 62
     2
100
AcDbLine
 10
-137.377594
 20
102.066023
 30
0.0
 11
-135.307042
 21
94.338617
 31
0.0
  0
LINE
  5
86F
100
AcDbEntity
  8
5
 62
     2
100
AcDbLine
 10
-139.448146
 20
94.338617
 30
0.0
 11
-135.307042
 21
94.338617
 31
0.0
  0
LINE
  5
870
100
AcDbEntity
  8
5
 62
     2
100
AcDbLine
 10
-137.377594
 20
102.066023
 30
0.0
 11
-137.377594
 21
-97.933977
 31
0.0
  0
LINE
  5
871
100
AcDbEntity
  8
5
 62
     2
100
AcDbLine
 10
-137.377594
 20
-97.933977
 30
0.0
 11
-135.307042
 21
-90.20657
 31
0.0
  0
LINE
  5
872
100
AcDbEntity
  8
5
 62
     2
100
AcDbLine
 10
-137.377594
 20
-97.933977
 30
0.0
 11
-139.448146
 21
-90.20657
 31
0.0
  0
LINE
  5
873
100
AcDbEntity
  8
5
 62
     2
100
AcDbLine
 10
-135.307042
 20
-90.20657
 30
0.0
 11
-139.448146
 21
-90.20657
 31
0.0
  0
LINE
  5
874
100
AcDbEntity
  8
5
 62
     2
100
AcDbLine
 10
-213.385631
 20
-97.933977
 30
0.0
 11
-133.377594
 21
-97.933977
 31
0.0
  0
ENDBLK
  5
875
100
AcDbEntity
  8
5
100
AcDbBlockEnd
  0
BLOCK
  5
876
100
AcDbEntity
  8
5
100
AcDbBlockBegin
  2
*D7
 70
     1
 10
0.0
 20
0.0
 30
0.0
  3
*D7
  1

  0
TEXT
  5
877
100
AcDbEntity
  8
5
 62
     2
100
AcDbText
 10
-5.997696
 20
-31.173976
 30
0.0
 40
13.2
  1
48
 50
90.0
 41
1.4
 72
     5
 11
-5.997696
 21
-16.389977
 31
0.0
100
AcDbText
  0
LINE
  5
878
100
AcDbEntity
  8
5
 62
     2
100
AcDbLine
 10
88.514369
 20
-45.933977
 30
0.0
 11
-7.997696
 21
-45.933977
 31
0.0
  0
LINE
  5
879
100
AcDbEntity
  8
5
 62
     2
100
AcDbLine
 10
-3.997696
 20
-45.933977
 30
0.0
 11
-1.927144
 21
-38.20657
 31
0.0
  0
LINE
  5
87A
100
AcDbEntity
  8
5
 62
     2
100
AcDbLine
 10
-3.997696
 20
-45.933977
 30
0.0
 11
-6.068248
 21
-38.20657
 31
0.0
  0
LINE
  5
87B
100
AcDbEntity
  8
5
 62
     2
100
AcDbLine
 10
-1.927144
 20
-38.20657
 30
0.0
 11
-6.068248
 21
-38.20657
 31
0.0
  0
LINE
  5
87C
100
AcDbEntity
  8
5
 62
     2
100
AcDbLine
 10
-3.997696
 20
-45.933977
 30
0.0
 11
-3.997696
 21
2.066023
 31
0.0
  0
LINE
  5
87D
100
AcDbEntity
  8
5
 62
     2
100
AcDbLine
 10
-3.997696
 20
2.066023
 30
0.0
 11
-6.068248
 21
-5.661383
 31
0.0
  0
LINE
  5
87E
100
AcDbEntity
  8
5
 62
     2
100
AcDbLine
 10
-3.997696
 20
2.066023
 30
0.0
 11
-1.927144
 21
-5.661383
 31
0.0
  0
LINE
  5
87F
100
AcDbEntity
  8
5
 62
     2
100
AcDbLine
 10
-6.068248
 20
-5.661383
 30
0.0
 11
-1.927144
 21
-5.661383
 31
0.0
  0
LINE
  5
880
100
AcDbEntity
  8
5
 62
     2
100
AcDbLine
 10
56.36169
 20
2.066023
 30
0.0
 11
-7.997696
 21
2.066023
 31
0.0
  0
ENDBLK
  5
881
100
AcDbEntity
  8
5
100
AcDbBlockEnd
  0
BLOCK
  5
882
100
AcDbEntity
  8
5
100
AcDbBlockBegin
  2
*D8
 70
     1
 10
0.0
 20
0.0
 30
0.0
  3
*D8
  1

  0
TEXT
  5
883
100
AcDbEntity
  8
5
 62
     2
100
AcDbText
 10
-5.997696
 20
-122.393976
 30
0.0
 40
13.2
  1
29.5
 50
90.0
 41
1.4
 72
     5
 11
-5.997696
 21
-89.129976
 31
0.0
100
AcDbText
  0
LINE
  5
884
100
AcDbEntity
  8
5
 62
     2
100
AcDbLine
 10
96.014369
 20
-75.433977
 30
0.0
 11
-7.997696
 21
-75.433977
 31
0.0
  0
LINE
  5
885
100
AcDbEntity
  8
5
 62
     2
100
AcDbLine
 10
-3.997696
 20
-75.433977
 30
0.0
 11
-6.068248
 21
-83.161383
 31
0.0
  0
LINE
  5
886
100
AcDbEntity
  8
5
 62
     2
100
AcDbLine
 10
-3.997696
 20
-75.433977
 30
0.0
 11
-1.927144
 21
-83.161383
 31
0.0
  0
LINE
  5
887
100
AcDbEntity
  8
5
 62
     2
100
AcDbLine
 10
-6.068248
 20
-83.161383
 30
0.0
 11
-1.927144
 21
-83.161383
 31
0.0
  0
LINE
  5
888
100
AcDbEntity
  8
5
 62
     2
100
AcDbLine
 10
-3.997696
 20
-124.393976
 30
0.0
 11
-3.997696
 21
-25.933977
 31
0.0
  0
LINE
  5
889
100
AcDbEntity
  8
5
 62
     2
100
AcDbLine
 10
-3.997696
 20
-45.933977
 30
0.0
 11
-1.927144
 21
-38.20657
 31
0.0
  0
LINE
  5
88A
100
AcDbEntity
  8
5
 62
     2
100
AcDbLine
 10
-3.997696
 20
-45.933977
 30
0.0
 11
-6.068248
 21
-38.20657
 31
0.0
  0
LINE
  5
88B
100
AcDbEntity
  8
5
 62
     2
100
AcDbLine
 10
-1.927144
 20
-38.20657
 30
0.0
 11
-6.068248
 21
-38.20657
 31
0.0
  0
LINE
  5
88C
100
AcDbEntity
  8
5
 62
     2
100
AcDbLine
 10
88.514369
 20
-45.933977
 30
0.0
 11
-7.997696
 21
-45.933977
 31
0.0
  0
ENDBLK
  5
88D
100
AcDbEntity
  8
5
100
AcDbBlockEnd
  0
BLOCK
  5
88E
100
AcDbEntity
  8
5
100
AcDbBlockBegin
  2
*D9
 70
     1
 10
0.0
 20
0.0
 30
0.0
  3
*D9
  1

  0
TEXT
  5
88F
100
AcDbEntity
  8
5
 62
     2
100
AcDbText
 10
48.191564
 20
-412.753976
 30
0.0
 40
13.2
  1
163（概略）
 50
90.0
 41
1.4
 72
     5
 11
48.191564
 21
-314.809977
 31
0.0
100
AcDbText
  0
LINE
  5
890
100
AcDbEntity
  8
5
 62
     2
100
AcDbLine
 10
138.514369
 20
-443.433977
 30
0.0
 11
46.191565
 21
-443.433977
 31
0.0
  0
LINE
  5
891
100
AcDbEntity
  8
5
 62
     2
100
AcDbLine
 10
50.191565
 20
-443.433977
 30
0.0
 11
52.262117
 21
-435.70657
 31
0.0
  0
LINE
  5
892
100
AcDbEntity
  8
5
 62
     2
100
AcDbLine
 10
50.191565
 20
-443.433977
 30
0.0
 11
48.121012
 21
-435.70657
 31
0.0
  0
LINE
  5
893
100
AcDbEntity
  8
5
 62
     2
100
AcDbLine
 10
52.262117
 20
-435.70657
 30
0.0
 11
48.121012
 21
-435.70657
 31
0.0
  0
LINE
  5
894
100
AcDbEntity
  8
5
 62
     2
100
AcDbLine
 10
50.191565
 20
-443.433977
 30
0.0
 11
50.191565
 21
-280.433977
 31
0.0
  0
LINE
  5
895
100
AcDbEntity
  8
5
 62
     2
100
AcDbLine
 10
50.191565
 20
-280.433977
 30
0.0
 11
48.121012
 21
-288.161383
 31
0.0
  0
LINE
  5
896
100
AcDbEntity
  8
5
 62
     2
100
AcDbLine
 10
50.191565
 20
-280.433977
 30
0.0
 11
52.262117
 21
-288.161383
 31
0.0
  0
LINE
  5
897
100
AcDbEntity
  8
5
 62
     2
100
AcDbLine
 10
48.121012
 20
-288.161383
 30
0.0
 11
52.262117
 21
-288.161383
 31
0.0
  0
LINE
  5
898
100
AcDbEntity
  8
5
 62
     2
100
AcDbLine
 10
112.780032
 20
-280.433977
 30
0.0
 11
46.191565
 21
-280.433977
 31
0.0
  0
ENDBLK
  5
899
100
AcDbEntity
  8
5
100
AcDbBlockEnd
  0
ENDSEC
  0
SECTION
  2
ENTITIES
  0
LINE
  5
31
100
AcDbEntity
  8
1
  6
CENTER
 62
     2
100
AcDbLine
 10
-560.16673
 20
273.766023
 30
0.0
 11
-280.09908
 21
273.766023
 31
0.0
  0
LINE
  5
32
100
AcDbEntity
  8
1
  6
CENTER
 62
     2
100
AcDbLine
 10
-560.16673
 20
-280.433977
 30
0.0
 11
-280.09908
 21
-280.433977
 31
0.0
  0
LINE
  5
33
100
AcDbEntity
  8
1
  6
CENTER
 62
     2
100
AcDbLine
 10
116.780032
 20
-280.433977
 30
0.0
 11
222.86262
 21
-280.433977
 31
0.0
  0
LINE
  5
34
100
AcDbEntity
  8
1
  6
CENTER
 62
     2
100
AcDbLine
 10
162.514369
 20
-459.406569
 30
0.0
 11
162.514369
 21
89.539108
 31
0.0
  0
LINE
  5
35
100
AcDbEntity
  8
1
100
AcDbLine
 10
-481.385631
 20
-75.433977
 30
0.0
 11
-356.385631
 21
-75.433977
 31
0.0
  0
LINE
  5
36
100
AcDbEntity
  8
1
100
AcDbLine
 10
-448.485631
 20
-430.433977
 30
0.0
 11
-393.485631
 21
-430.433977
 31
0.0
  0
LINE
  5
37
100
AcDbEntity
  8
1
100
AcDbLine
 10
-477.385631
 20
-90.433977
 30
0.0
 11
-360.385631
 21
-90.433977
 31
0.0
  0
LINE
  5
38
100
AcDbEntity
  8
1
100
AcDbLine
 10
-481.385631
 20
-75.433977
 30
0.0
 11
-481.385631
 21
-86.433977
 31
0.0
  0
LINE
  5
39
100
AcDbEntity
  8
1
100
AcDbLine
 10
-356.385631
 20
-75.433977
 30
0.0
 11
-356.385631
 21
-86.433977
 31
0.0
  0
ARC
  5
3A
100
AcDbEntity
  8
1
100
AcDbCircle
 10
-360.385631
 20
-86.433977
 30
0.0
 40
4.0
100
AcDbArc
 50
270.0
 51
360.0
  0
ARC
  5
3B
100
AcDbEntity
  8
1
100
AcDbCircle
 10
-477.385631
 20
-86.433977
 30
0.0
 40
4.0
100
AcDbArc
 50
180.0
 51
270.0
  0
ARC
  5
3C
100
AcDbEntity
  8
1
100
AcDbCircle
 10
-389.485631
 20
-98.433977
 30
0.0
 40
8.0
100
AcDbArc
 50
90.0
 51
180.0
  0
ARC
  5
3D
100
AcDbEntity
  8
1
100
AcDbCircle
 10
-452.485631
 20
-98.433977
 30
0.0
 40
8.0
100
AcDbArc
 50
0.0
 51
90.0
  0
ARC
  5
3E
100
AcDbEntity
  8
1
100
AcDbCircle
 10
-392.485631
 20
-172.637873
 30
0.0
 40
5.0
100
AcDbArc
 50
180.0
 51
255.19054
  0
ARC
  5
3F
100
AcDbEntity
  8
1
100
AcDbCircle
 10
-449.485631
 20
-172.637873
 30
0.0
 40
5.0
100
AcDbArc
 50
284.80946
 51
360.0
  0
ARC
  5
40
100
AcDbEntity
  8
1
100
AcDbCircle
 10
-366.196655
 20
-120.433977
 30
0.0
 40
30.0
100
AcDbArc
 50
90.0
 51
128.739425
  0
ARC
  5
41
100
AcDbEntity
  8
1
100
AcDbCircle
 10
-397.485631
 20
-81.433977
 30
0.0
 40
20.0
100
AcDbArc
 50
281.536959
 51
308.739425
  0
ARC
  5
42
100
AcDbEntity
  8
1
100
AcDbCircle
 10
-475.774607
 20
-120.433977
 30
0.0
 40
30.0
100
AcDbArc
 50
51.260575
 51
90.0
  0
ARC
  5
43
100
AcDbEntity
  8
1
100
AcDbCircle
 10
-444.485631
 20
-81.433977
 30
0.0
 40
20.0
100
AcDbArc
 50
231.260575
 51
258.463041
  0
ARC
  5
44
100
AcDbEntity
  8
1
100
AcDbCircle
 10
-392.485631
 20
-105.928874
 30
0.0
 40
5.0
100
AcDbArc
 50
101.536959
 51
180.0
  0
ARC
  5
45
100
AcDbEntity
  8
1
100
AcDbCircle
 10
-449.485631
 20
-105.928874
 30
0.0
 40
5.0
100
AcDbArc
 50
0.0
 51
78.463041
  0
LINE
  5
46
100
AcDbEntity
  8
1
100
AcDbLine
 10
196.514369
 20
-173.933977
 30
0.0
 11
196.514369
 21
-386.933977
 31
0.0
  0
LINE
  5
47
100
AcDbEntity
  8
1
100
AcDbLine
 10
139.514369
 20
-173.933977
 30
0.0
 11
139.514369
 21
-386.933977
 31
0.0
  0
LINE
  5
48
100
AcDbEntity
  8
1
100
AcDbLine
 10
188.514369
 20
-173.933977
 30
0.0
 11
196.514369
 21
-173.933977
 31
0.0
  0
LINE
  5
49
100
AcDbEntity
  8
1
100
AcDbLine
 10
188.514369
 20
-386.933977
 30
0.0
 11
196.514369
 21
-386.933977
 31
0.0
  0
LINE
  5
4A
100
AcDbEntity
  8
1
100
AcDbLine
 10
100.014369
 20
-75.433977
 30
0.0
 11
225.014369
 21
-75.433977
 31
0.0
  0
LINE
  5
4B
100
AcDbEntity
  8
1
100
AcDbLine
 10
141.514369
 20
-430.433977
 30
0.0
 11
183.514369
 21
-430.433977
 31
0.0
  0
LINE
  5
4C
100
AcDbEntity
  8
1
100
AcDbLine
 10
104.014369
 20
-90.433977
 30
0.0
 11
221.014369
 21
-90.433977
 31
0.0
  0
LINE
  5
4D
100
AcDbEntity
  8
1
100
AcDbLine
 10
100.014369
 20
-75.433977
 30
0.0
 11
100.014369
 21
-86.433977
 31
0.0
  0
LINE
  5
4E
100
AcDbEntity
  8
1
100
AcDbLine
 10
225.014369
 20
-75.433977
 30
0.0
 11
225.014369
 21
-86.433977
 31
0.0
  0
ARC
  5
4F
100
AcDbEntity
  8
1
100
AcDbCircle
 10
104.014369
 20
-86.433977
 30
0.0
 40
4.0
100
AcDbArc
 50
180.0
 51
270.0
  0
ARC
  5
50
100
AcDbEntity
  8
1
100
AcDbCircle
 10
221.014369
 20
-86.433977
 30
0.0
 40
4.0
100
AcDbArc
 50
270.0
 51
360.0
  0
LINE
  5
51
100
AcDbEntity
  8
1
100
AcDbLine
 10
141.514369
 20
-165.433977
 30
0.0
 11
142.514369
 21
-165.433977
 31
0.0
  0
LINE
  5
52
100
AcDbEntity
  8
1
100
AcDbLine
 10
141.514369
 20
-395.433977
 30
0.0
 11
142.514369
 21
-395.433977
 31
0.0
  0
LINE
  5
53
100
AcDbEntity
  8
1
100
AcDbLine
 10
183.514369
 20
-437.933977
 30
0.0
 11
183.514369
 21
-388.396174
 31
0.0
  0
LINE
  5
54
100
AcDbEntity
  8
1
100
AcDbLine
 10
183.514369
 20
-172.471779
 30
0.0
 11
183.514369
 21
-98.433977
 31
0.0
  0
LINE
  5
55
100
AcDbEntity
  8
1
100
AcDbLine
 10
141.514369
 20
-437.933977
 30
0.0
 11
141.514369
 21
-395.433977
 31
0.0
  0
LINE
  5
56
100
AcDbEntity
  8
1
100
AcDbLine
 10
141.514369
 20
-165.433977
 30
0.0
 11
141.514369
 21
-98.433977
 31
0.0
  0
ARC
  5
57
100
AcDbEntity
  8
1
100
AcDbCircle
 10
191.514369
 20
-98.433977
 30
0.0
 40
8.0
100
AcDbArc
 50
90.0
 51
180.0
  0
ARC
  5
58
100
AcDbEntity
  8
1
100
AcDbCircle
 10
133.514369
 20
-98.433977
 30
0.0
 40
8.0
100
AcDbArc
 50
0.0
 51
90.0
  0
LINE
  5
59
100
AcDbEntity
  8
1
100
AcDbLine
 10
142.514369
 20
-172.207793
 30
0.0
 11
142.514369
 21
-165.433977
 31
0.0
  0
ARC
  5
5A
100
AcDbEntity
  8
1
100
AcDbCircle
 10
139.514369
 20
-170.933977
 30
0.0
 40
3.0
100
AcDbArc
 50
270.0
 51
360.0
  0
LINE
  5
5B
100
AcDbEntity
  8
1
100
AcDbLine
 10
142.514369
 20
-395.433977
 30
0.0
 11
142.514369
 21
-388.66016
 31
0.0
  0
ARC
  5
5C
100
AcDbEntity
  8
1
100
AcDbCircle
 10
139.514369
 20
-389.933977
 30
0.0
 40
3.0
100
AcDbArc
 50
0.0
 51
90.0
  0
ARC
  5
5D
100
AcDbEntity
  8
1
100
AcDbCircle
 10
188.514369
 20
-168.933977
 30
0.0
 40
5.0
100
AcDbArc
 50
180.0
 51
270.0
  0
ARC
  5
5E
100
AcDbEntity
  8
1
100
AcDbCircle
 10
188.514369
 20
-391.933977
 30
0.0
 40
5.0
100
AcDbArc
 50
90.0
 51
180.0
  0
ARC
  5
5F
100
AcDbEntity
  8
1
100
AcDbCircle
 10
213.514369
 20
-120.433977
 30
0.0
 40
30.0
100
AcDbArc
 50
90.0
 51
180.0
  0
ARC
  5
60
100
AcDbEntity
  8
1
100
AcDbCircle
 10
111.514369
 20
-120.433977
 30
0.0
 40
30.0
100
AcDbArc
 50
0.0
 51
90.0
  0
LINE
  5
61
100
AcDbEntity
  8
1
100
AcDbLine
 10
-414.885631
 20
-120.433977
 30
0.0
 11
-422.885631
 21
-120.433977
 31
0.0
  0
LINE
  5
62
100
AcDbEntity
  8
1
100
AcDbLine
 10
158.514369
 20
-105.928874
 30
0.0
 11
166.514369
 21
-105.928874
 31
0.0
  0
LINE
  5
63
100
AcDbEntity
  8
1
100
AcDbLine
 10
158.514369
 20
-94.433977
 30
0.0
 11
158.514369
 21
-101.928874
 31
0.0
  0
LINE
  5
64
100
AcDbEntity
  8
1
100
AcDbLine
 10
166.514369
 20
-94.433977
 30
0.0
 11
166.514369
 21
-101.928874
 31
0.0
  0
ARC
  5
65
100
AcDbEntity
  8
1
100
AcDbCircle
 10
170.514369
 20
-94.433977
 30
0.0
 40
4.0
100
AcDbArc
 50
90.0
 51
180.0
  0
ARC
  5
66
100
AcDbEntity
  8
1
100
AcDbCircle
 10
154.514369
 20
-94.433977
 30
0.0
 40
4.0
100
AcDbArc
 50
0.0
 51
90.0
  0
ARC
  5
67
100
AcDbEntity
  8
1
100
AcDbCircle
 10
154.514369
 20
-101.928874
 30
0.0
 40
4.0
100
AcDbArc
 50
270.0
 51
0.0
  0
ARC
  5
68
100
AcDbEntity
  8
1
100
AcDbCircle
 10
170.514369
 20
-101.928874
 30
0.0
 40
4.0
100
AcDbArc
 50
180.0
 51
270.0
  0
LINE
  5
69
100
AcDbEntity
  8
1
100
AcDbLine
 10
-422.885631
 20
-94.433977
 30
0.0
 11
-422.885631
 21
-116.433977
 31
0.0
  0
LINE
  5
6A
100
AcDbEntity
  8
1
100
AcDbLine
 10
-414.885631
 20
-94.433977
 30
0.0
 11
-414.885631
 21
-116.433977
 31
0.0
  0
ARC
  5
6B
100
AcDbEntity
  8
1
100
AcDbCircle
 10
-410.885631
 20
-94.433977
 30
0.0
 40
4.0
100
AcDbArc
 50
90.0
 51
180.0
  0
ARC
  5
6C
100
AcDbEntity
  8
1
100
AcDbCircle
 10
-426.885631
 20
-94.433977
 30
0.0
 40
4.0
100
AcDbArc
 50
0.0
 51
90.0
  0
ARC
  5
6D
100
AcDbEntity
  8
1
100
AcDbCircle
 10
-426.885631
 20
-116.433977
 30
0.0
 40
4.0
100
AcDbArc
 50
270.0
 51
0.0
  0
ARC
  5
6E
100
AcDbEntity
  8
1
100
AcDbCircle
 10
-410.885631
 20
-116.433977
 30
0.0
 40
4.0
100
AcDbArc
 50
180.0
 51
270.0
  0
LINE
  5
6F
100
AcDbEntity
  8
1
100
AcDbLine
 10
-444.485631
 20
-398.285249
 30
0.0
 11
-444.485631
 21
-388.23008
 31
0.0
  0
LINE
  5
70
100
AcDbEntity
  8
1
100
AcDbLine
 10
-397.485631
 20
-398.285249
 30
0.0
 11
-397.485631
 21
-388.23008
 31
0.0
  0
LINE
  5
71
100
AcDbEntity
  8
1
100
AcDbLine
 10
-448.485631
 20
-437.933977
 30
0.0
 11
-448.485631
 21
-420.079621
 31
0.0
  0
LINE
  5
72
100
AcDbEntity
  8
1
100
AcDbLine
 10
-393.485631
 20
-437.933977
 30
0.0
 11
-393.485631
 21
-420.079621
 31
0.0
  0
ARC
  5
73
100
AcDbEntity
  8
1
100
AcDbCircle
 10
-392.485631
 20
-388.23008
 30
0.0
 40
5.0
100
AcDbArc
 50
104.80946
 51
180.0
  0
ARC
  5
74
100
AcDbEntity
  8
1
100
AcDbCircle
 10
-449.485631
 20
-388.23008
 30
0.0
 40
5.0
100
AcDbArc
 50
0.0
 51
75.19054
  0
LINE
  5
75
100
AcDbEntity
  8
1
100
AcDbLine
 10
141.514369
 20
-418.433977
 30
0.0
 11
183.514369
 21
-418.433977
 31
0.0
  0
LINE
  5
76
100
AcDbEntity
  8
1
  6
CENTER
 62
     2
100
AcDbLine
 10
-441.985631
 20
-448.509047
 30
0.0
 11
-441.985631
 21
-421.741438
 31
0.0
  0
LINE
  5
77
100
AcDbEntity
  8
1
  6
CENTER
 62
     2
100
AcDbLine
 10
-399.985631
 20
-448.509047
 30
0.0
 11
-399.985631
 21
-421.741438
 31
0.0
  0
LINE
  5
78
100
AcDbEntity
  8
1
  6
CENTER
 62
     2
100
AcDbLine
 10
147.514369
 20
-421.741438
 30
0.0
 11
147.514369
 21
-448.509047
 31
0.0
  0
LINE
  5
79
100
AcDbEntity
  8
1
  6
CENTER
 62
     2
100
AcDbLine
 10
177.514369
 20
-421.741438
 30
0.0
 11
177.514369
 21
-448.509047
 31
0.0
  0
LINE
  5
7A
100
AcDbEntity
  8
1
100
AcDbLine
 10
-432.870796
 20
-165.433977
 30
0.0
 11
-409.100466
 21
-165.433977
 31
0.0
  0
LINE
  5
7B
100
AcDbEntity
  8
1
100
AcDbLine
 10
-407.100466
 20
-167.433977
 30
0.0
 11
-407.100466
 21
-172.243676
 31
0.0
  0
LINE
  5
7C
100
AcDbEntity
  8
1
100
AcDbLine
 10
-434.870796
 20
-167.433977
 30
0.0
 11
-434.870796
 21
-172.243676
 31
0.0
  0
ARC
  5
7D
100
AcDbEntity
  8
1
100
AcDbCircle
 10
-409.100466
 20
-167.433977
 30
0.0
 40
2.0
100
AcDbArc
 50
0.0
 51
90.0
  0
ARC
  5
7E
100
AcDbEntity
  8
1
100
AcDbCircle
 10
-432.870796
 20
-167.433977
 30
0.0
 40
2.0
100
AcDbArc
 50
90.0
 51
180.0
  0
ARC
  5
7F
100
AcDbEntity
  8
1
100
AcDbCircle
 10
-404.100466
 20
-172.243676
 30
0.0
 40
3.0
100
AcDbArc
 50
180.0
 51
261.129458
  0
ARC
  5
80
100
AcDbEntity
  8
1
100
AcDbCircle
 10
-437.870796
 20
-172.243676
 30
0.0
 40
3.0
100
AcDbArc
 50
278.870542
 51
360.0
  0
LINE
  5
81
100
AcDbEntity
  8
1
100
AcDbLine
 10
-432.870796
 20
-395.433977
 30
0.0
 11
-409.100466
 21
-395.433977
 31
0.0
  0
LINE
  5
82
100
AcDbEntity
  8
1
100
AcDbLine
 10
-407.100466
 20
-393.433977
 30
0.0
 11
-407.100466
 21
-388.624277
 31
0.0
  0
LINE
  5
83
100
AcDbEntity
  8
1
100
AcDbLine
 10
-434.870796
 20
-393.433977
 30
0.0
 11
-434.870796
 21
-388.624277
 31
0.0
  0
ARC
  5
84
100
AcDbEntity
  8
1
100
AcDbCircle
 10
-409.100466
 20
-393.433977
 30
0.0
 40
2.0
100
AcDbArc
 50
270.0
 51
360.0
  0
ARC
  5
85
100
AcDbEntity
  8
1
100
AcDbCircle
 10
-432.870796
 20
-393.433977
 30
0.0
 40
2.0
100
AcDbArc
 50
180.0
 51
270.0
  0
ARC
  5
86
100
AcDbEntity
  8
1
100
AcDbCircle
 10
-404.100466
 20
-388.624277
 30
0.0
 40
3.0
100
AcDbArc
 50
98.870542
 51
180.0
  0
ARC
  5
87
100
AcDbEntity
  8
1
100
AcDbCircle
 10
-437.870796
 20
-388.624277
 30
0.0
 40
3.0
100
AcDbArc
 50
0.0
 51
81.129458
  0
ARC
  5
88
100
AcDbEntity
  8
1
100
AcDbCircle
 10
188.514369
 20
-172.471779
 30
0.0
 40
5.0
100
AcDbArc
 50
180.0
 51
270.0
  0
ARC
  5
89
100
AcDbEntity
  8
1
100
AcDbCircle
 10
139.514369
 20
-172.207793
 30
0.0
 40
3.0
100
AcDbArc
 50
270.0
 51
360.0
  0
ARC
  5
8A
100
AcDbEntity
  8
1
100
AcDbCircle
 10
188.514369
 20
-388.396174
 30
0.0
 40
5.0
100
AcDbArc
 50
90.0
 51
180.0
  0
ARC
  5
8B
100
AcDbEntity
  8
1
100
AcDbCircle
 10
139.514369
 20
-388.66016
 30
0.0
 40
3.0
100
AcDbArc
 50
0.0
 51
90.0
  0
ARC
  5
8C
100
AcDbEntity
  8
1
100
AcDbCircle
 10
-317.049184
 20
-237.38209
 30
0.0
 40
9.0
100
AcDbArc
 50
172.573565
 51
232.426435
  0
LINE
  5
8D
100
AcDbEntity
  8
1
100
AcDbLine
 10
-531.670996
 20
-245.433977
 30
0.0
 11
-522.33635
 21
-245.433977
 31
0.0
  0
LINE
  5
8E
100
AcDbEntity
  8
1
100
AcDbLine
 10
-319.634912
 20
-245.433977
 30
0.0
 11
-310.300266
 21
-245.433977
 31
0.0
  0
LINE
  5
8F
100
AcDbEntity
  8
1
100
AcDbLine
 10
-531.670996
 20
-315.433977
 30
0.0
 11
-522.33635
 21
-315.433977
 31
0.0
  0
LINE
  5
90
100
AcDbEntity
  8
1
100
AcDbLine
 10
-319.634912
 20
-315.433977
 30
0.0
 11
-310.300266
 21
-315.433977
 31
0.0
  0
ARC
  5
91
100
AcDbEntity
  8
1
100
AcDbCircle
 10
-335.889805
 20
-234.926281
 30
0.0
 40
10.0
100
AcDbArc
 50
352.573565
 51
28.137058
  0
ARC
  5
92
100
AcDbEntity
  8
1
100
AcDbCircle
 10
-328.634995
 20
-252.440941
 30
0.0
 40
10.0
100
AcDbArc
 50
16.862942
 51
52.426435
  0
ARC
  5
93
100
AcDbEntity
  8
1
100
AcDbCircle
 10
-377.933745
 20
-176.497529
 30
0.0
 40
9.0
100
AcDbArc
 50
217.573565
 51
277.426435
  0
ARC
  5
94
100
AcDbEntity
  8
1
100
AcDbCircle
 10
-464.037517
 20
-176.497529
 30
0.0
 40
9.0
100
AcDbArc
 50
262.573565
 51
322.426435
  0
ARC
  5
95
100
AcDbEntity
  8
1
100
AcDbCircle
 10
-420.985631
 20
-280.433977
 30
0.0
 40
106.5
100
AcDbArc
 50
28.137058
 51
61.862942
  0
ARC
  5
96
100
AcDbEntity
  8
1
100
AcDbCircle
 10
-420.985631
 20
-280.433977
 30
0.0
 40
106.5
100
AcDbArc
 50
73.137058
 51
106.862942
  0
ARC
  5
97
100
AcDbEntity
  8
1
100
AcDbCircle
 10
-375.477936
 20
-195.33815
 30
0.0
 40
10.0
100
AcDbArc
 50
61.862942
 51
97.426435
  0
ARC
  5
98
100
AcDbEntity
  8
1
100
AcDbCircle
 10
-466.493326
 20
-195.33815
 30
0.0
 40
10.0
100
AcDbArc
 50
82.573565
 51
118.137058
  0
ARC
  5
99
100
AcDbEntity
  8
1
100
AcDbCircle
 10
-392.992595
 20
-188.083341
 30
0.0
 40
10.0
100
AcDbArc
 50
37.573565
 51
73.137058
  0
ARC
  5
9A
100
AcDbEntity
  8
1
100
AcDbCircle
 10
-448.978667
 20
-188.083341
 30
0.0
 40
10.0
100
AcDbArc
 50
106.862942
 51
142.426435
  0
ARC
  5
9B
100
AcDbEntity
  8
1
100
AcDbCircle
 10
-380.985631
 20
-179.083257
 30
0.0
 40
5.0
100
AcDbArc
 50
180.0
 51
220.273133
  0
ARC
  5
9C
100
AcDbEntity
  8
1
100
AcDbCircle
 10
-460.985631
 20
-179.083257
 30
0.0
 40
5.0
100
AcDbArc
 50
319.726867
 51
360.0
  0
ARC
  5
9D
100
AcDbEntity
  8
1
100
AcDbCircle
 10
-319.634912
 20
-240.433977
 30
0.0
 40
5.0
100
AcDbArc
 50
229.726867
 51
270.0
  0
ARC
  5
9E
100
AcDbEntity
  8
1
100
AcDbCircle
 10
-420.985631
 20
-280.433977
 30
0.0
 40
106.5
100
AcDbArc
 50
343.137058
 51
16.862942
  0
ARC
  5
9F
100
AcDbEntity
  8
1
100
AcDbCircle
 10
-317.049184
 20
-323.485863
 30
0.0
 40
9.0
100
AcDbArc
 50
127.573565
 51
187.426435
  0
ARC
  5
A0
100
AcDbEntity
  8
1
100
AcDbCircle
 10
-335.889805
 20
-325.941672
 30
0.0
 40
10.0
100
AcDbArc
 50
331.862942
 51
7.426435
  0
ARC
  5
A1
100
AcDbEntity
  8
1
100
AcDbCircle
 10
-328.634995
 20
-308.427012
 30
0.0
 40
10.0
100
AcDbArc
 50
307.573565
 51
343.137058
  0
ARC
  5
A2
100
AcDbEntity
  8
1
100
AcDbCircle
 10
-319.634912
 20
-320.433977
 30
0.0
 40
5.0
100
AcDbArc
 50
90.0
 51
130.273133
  0
ARC
  5
A3
100
AcDbEntity
  8
1
100
AcDbCircle
 10
-420.985631
 20
-280.433977
 30
0.0
 40
106.5
100
AcDbArc
 50
118.137058
 51
151.862942
  0
ARC
  5
A4
100
AcDbEntity
  8
1
100
AcDbCircle
 10
-524.922078
 20
-237.38209
 30
0.0
 40
9.0
100
AcDbArc
 50
307.573565
 51
7.426435
  0
ARC
  5
A5
100
AcDbEntity
  8
1
100
AcDbCircle
 10
-506.081457
 20
-234.926281
 30
0.0
 40
10.0
100
AcDbArc
 50
151.862942
 51
187.426435
  0
ARC
  5
A6
100
AcDbEntity
  8
1
100
AcDbCircle
 10
-513.336267
 20
-252.440941
 30
0.0
 40
10.0
100
AcDbArc
 50
127.573565
 51
163.137058
  0
ARC
  5
A7
100
AcDbEntity
  8
1
100
AcDbCircle
 10
-522.33635
 20
-240.433977
 30
0.0
 40
5.0
100
AcDbArc
 50
270.0
 51
310.273133
  0
ARC
  5
A8
100
AcDbEntity
  8
1
100
AcDbCircle
 10
-420.985631
 20
-280.433977
 30
0.0
 40
106.5
100
AcDbArc
 50
163.137058
 51
196.862942
  0
ARC
  5
A9
100
AcDbEntity
  8
1
100
AcDbCircle
 10
-524.922078
 20
-323.485863
 30
0.0
 40
9.0
100
AcDbArc
 50
352.573565
 51
52.426435
  0
ARC
  5
AA
100
AcDbEntity
  8
1
100
AcDbCircle
 10
-506.081457
 20
-325.941672
 30
0.0
 40
10.0
100
AcDbArc
 50
172.573565
 51
208.137058
  0
ARC
  5
AB
100
AcDbEntity
  8
1
100
AcDbCircle
 10
-513.336267
 20
-308.427012
 30
0.0
 40
10.0
100
AcDbArc
 50
196.862942
 51
232.426435
  0
ARC
  5
AC
100
AcDbEntity
  8
1
100
AcDbCircle
 10
-522.33635
 20
-320.433977
 30
0.0
 40
5.0
100
AcDbArc
 50
49.726867
 51
90.0
  0
LINE
  5
AD
100
AcDbEntity
  8
1
100
AcDbLine
 10
-455.985631
 20
-389.400021
 30
0.0
 11
-455.985631
 21
-381.784696
 31
0.0
  0
LINE
  5
AE
100
AcDbEntity
  8
1
100
AcDbLine
 10
-385.985631
 20
-389.400021
 30
0.0
 11
-385.985631
 21
-381.784696
 31
0.0
  0
ARC
  5
AF
100
AcDbEntity
  8
1
100
AcDbCircle
 10
-420.985631
 20
-280.433977
 30
0.0
 40
106.5
100
AcDbArc
 50
298.137058
 51
331.862942
  0
ARC
  5
B0
100
AcDbEntity
  8
1
100
AcDbCircle
 10
-377.933745
 20
-384.370424
 30
0.0
 40
9.0
100
AcDbArc
 50
82.573565
 51
142.426435
  0
ARC
  5
B1
100
AcDbEntity
  8
1
100
AcDbCircle
 10
-420.985631
 20
-280.433977
 30
0.0
 40
106.5
100
AcDbArc
 50
208.137058
 51
241.862942
  0
ARC
  5
B2
100
AcDbEntity
  8
1
100
AcDbCircle
 10
-420.985631
 20
-280.433977
 30
0.0
 40
106.5
100
AcDbArc
 50
253.137058
 51
286.862942
  0
ARC
  5
B3
100
AcDbEntity
  8
1
100
AcDbCircle
 10
-464.037517
 20
-384.370424
 30
0.0
 40
9.0
100
AcDbArc
 50
37.573565
 51
97.426435
  0
ARC
  5
B4
100
AcDbEntity
  8
1
100
AcDbCircle
 10
-375.477936
 20
-365.529803
 30
0.0
 40
10.0
100
AcDbArc
 50
262.573565
 51
298.137058
  0
ARC
  5
B5
100
AcDbEntity
  8
1
100
AcDbCircle
 10
-392.992595
 20
-372.784612
 30
0.0
 40
10.0
100
AcDbArc
 50
286.862942
 51
322.426435
  0
ARC
  5
B6
100
AcDbEntity
  8
1
100
AcDbCircle
 10
-466.493326
 20
-365.529803
 30
0.0
 40
10.0
100
AcDbArc
 50
241.862942
 51
277.426435
  0
ARC
  5
B7
100
AcDbEntity
  8
1
100
AcDbCircle
 10
-448.978667
 20
-372.784612
 30
0.0
 40
10.0
100
AcDbArc
 50
217.573565
 51
253.137058
  0
ARC
  5
B8
100
AcDbEntity
  8
1
100
AcDbCircle
 10
-460.985631
 20
-381.784696
 30
0.0
 40
5.0
100
AcDbArc
 50
0.0
 51
40.273133
  0
ARC
  5
B9
100
AcDbEntity
  8
1
100
AcDbCircle
 10
-380.985631
 20
-381.784696
 30
0.0
 40
5.0
100
AcDbArc
 50
139.726867
 51
180.0
  0
LINE
  5
BA
100
AcDbEntity
  8
1
100
AcDbLine
 10
-307.629293
 20
-255.402183
 30
0.0
 11
-311.583849
 21
-257.685347
 31
0.0
  0
LINE
  5
BB
100
AcDbEntity
  8
1
100
AcDbLine
 10
-534.341969
 20
-305.46577
 30
0.0
 11
-530.387413
 21
-303.182606
 31
0.0
  0
LINE
  5
BC
100
AcDbEntity
  8
1
100
AcDbLine
 10
-534.341969
 20
-255.402183
 30
0.0
 11
-530.387413
 21
-257.685347
 31
0.0
  0
LINE
  5
BD
100
AcDbEntity
  8
1
100
AcDbLine
 10
-307.629293
 20
-305.46577
 30
0.0
 11
-311.583849
 21
-303.182606
 31
0.0
  0
ARC
  5
BE
100
AcDbEntity
  8
1
100
AcDbCircle
 10
-420.985631
 20
-280.433977
 30
0.0
 40
117.5
100
AcDbArc
 50
163.39845
 51
166.60155
  0
ARC
  5
BF
100
AcDbEntity
  8
1
100
AcDbCircle
 10
-420.985631
 20
-280.433977
 30
0.0
 40
117.5
100
AcDbArc
 50
193.39845
 51
196.60155
  0
ARC
  5
C0
100
AcDbEntity
  8
1
100
AcDbCircle
 10
-420.985631
 20
-280.433977
 30
0.0
 40
117.5
100
AcDbArc
 50
343.39845
 51
346.60155
  0
ARC
  5
C1
100
AcDbEntity
  8
1
100
AcDbCircle
 10
-420.985631
 20
-280.433977
 30
0.0
 40
117.5
100
AcDbArc
 50
13.39845
 51
16.60155
  0
ARC
  5
C2
100
AcDbEntity
  8
1
100
AcDbCircle
 10
-310.300266
 20
-247.433977
 30
0.0
 40
2.0
100
AcDbArc
 50
16.60155
 51
90.0
  0
ARC
  5
C3
100
AcDbEntity
  8
1
100
AcDbCircle
 10
-308.629293
 20
-253.670132
 30
0.0
 40
2.0
100
AcDbArc
 50
300.0
 51
13.39845
  0
ARC
  5
C4
100
AcDbEntity
  8
1
100
AcDbCircle
 10
-308.629293
 20
-307.197821
 30
0.0
 40
2.0
100
AcDbArc
 50
346.60155
 51
60.0
  0
ARC
  5
C5
100
AcDbEntity
  8
1
100
AcDbCircle
 10
-310.300266
 20
-313.433977
 30
0.0
 40
2.0
100
AcDbArc
 50
270.0
 51
343.39845
  0
ARC
  5
C6
100
AcDbEntity
  8
1
100
AcDbCircle
 10
-307.583849
 20
-264.61355
 30
0.0
 40
8.0
100
AcDbArc
 50
120.0
 51
187.941946
  0
ARC
  5
C7
100
AcDbEntity
  8
1
100
AcDbCircle
 10
-307.583849
 20
-296.254403
 30
0.0
 40
8.0
100
AcDbArc
 50
172.058054
 51
240.0
  0
ARC
  5
C8
100
AcDbEntity
  8
1
100
AcDbCircle
 10
-534.387413
 20
-264.61355
 30
0.0
 40
8.0
100
AcDbArc
 50
352.058054
 51
60.0
  0
ARC
  5
C9
100
AcDbEntity
  8
1
100
AcDbCircle
 10
-534.387413
 20
-296.254403
 30
0.0
 40
8.0
100
AcDbArc
 50
300.0
 51
7.941946
  0
ARC
  5
CA
100
AcDbEntity
  8
1
100
AcDbCircle
 10
-533.341969
 20
-307.197821
 30
0.0
 40
2.0
100
AcDbArc
 50
120.0
 51
193.39845
  0
ARC
  5
CB
100
AcDbEntity
  8
1
100
AcDbCircle
 10
-531.670996
 20
-313.433977
 30
0.0
 40
2.0
100
AcDbArc
 50
196.60155
 51
270.0
  0
ARC
  5
CC
100
AcDbEntity
  8
1
100
AcDbCircle
 10
-533.341969
 20
-253.670132
 30
0.0
 40
2.0
100
AcDbArc
 50
166.60155
 51
240.0
  0
ARC
  5
CD
100
AcDbEntity
  8
1
100
AcDbCircle
 10
-531.670996
 20
-247.433977
 30
0.0
 40
2.0
100
AcDbArc
 50
90.0
 51
163.39845
  0
LINE
  5
CE
100
AcDbEntity
  8
1
100
AcDbLine
 10
-385.985631
 20
-179.083257
 30
0.0
 11
-385.985631
 21
-171.467932
 31
0.0
  0
LINE
  5
CF
100
AcDbEntity
  8
1
100
AcDbLine
 10
-455.985631
 20
-179.083257
 30
0.0
 11
-455.985631
 21
-171.467932
 31
0.0
  0
ARC
  5
D0
100
AcDbEntity
  8
1
100
AcDbCircle
 10
-386.04506
 20
-150.03399
 30
0.0
 40
10.5
100
AcDbArc
 50
108.587137
 51
160.219808
  0
ARC
  5
D1
100
AcDbEntity
  8
1
100
AcDbCircle
 10
-455.926202
 20
-150.03399
 30
0.0
 40
10.5
100
AcDbArc
 50
19.780192
 51
71.412863
  0
ARC
  5
D2
100
AcDbEntity
  8
1
100
AcDbCircle
 10
-390.985631
 20
-135.34247
 30
0.0
 40
5.0
100
AcDbArc
 50
288.587137
 51
76.506601
  0
ARC
  5
D3
100
AcDbEntity
  8
1
100
AcDbCircle
 10
-450.985631
 20
-135.34247
 30
0.0
 40
5.0
100
AcDbArc
 50
103.493399
 51
251.412863
  0
ARC
  5
D4
100
AcDbEntity
  8
1
100
AcDbCircle
 10
-387.485631
 20
-120.756518
 30
0.0
 40
10.0
100
AcDbArc
 50
180.0
 51
256.506601
  0
ARC
  5
D5
100
AcDbEntity
  8
1
100
AcDbCircle
 10
-454.485631
 20
-120.756518
 30
0.0
 40
10.0
100
AcDbArc
 50
283.493399
 51
360.0
  0
LINE
  5
D6
100
AcDbEntity
  8
1
100
AcDbLine
 10
-397.485631
 20
-172.637873
 30
0.0
 11
-397.485631
 21
-162.582704
 31
0.0
  0
LINE
  5
D7
100
AcDbEntity
  8
1
100
AcDbLine
 10
-397.485631
 20
-147.144534
 30
0.0
 11
-397.485631
 21
-98.433977
 31
0.0
  0
LINE
  5
D8
100
AcDbEntity
  8
1
100
AcDbLine
 10
-444.485631
 20
-172.637873
 30
0.0
 11
-444.485631
 21
-162.582704
 31
0.0
  0
LINE
  5
D9
100
AcDbEntity
  8
1
100
AcDbLine
 10
-444.485631
 20
-147.144534
 30
0.0
 11
-444.485631
 21
-98.433977
 31
0.0
  0
ARC
  5
DA
100
AcDbEntity
  8
1
100
AcDbCircle
 10
-387.339155
 20
-154.863619
 30
0.0
 40
12.0
100
AcDbArc
 50
135.686801
 51
257.613888
  0
ARC
  5
DB
100
AcDbEntity
  8
1
100
AcDbCircle
 10
-454.632107
 20
-154.863619
 30
0.0
 40
12.0
100
AcDbArc
 50
282.386112
 51
44.313199
  0
ARC
  5
DC
100
AcDbEntity
  8
1
100
AcDbCircle
 10
-390.985631
 20
-171.467932
 30
0.0
 40
5.0
100
AcDbArc
 50
0.0
 51
77.613888
  0
ARC
  5
DD
100
AcDbEntity
  8
1
100
AcDbCircle
 10
-450.985631
 20
-171.467932
 30
0.0
 40
5.0
100
AcDbArc
 50
102.386112
 51
180.0
  0
ARC
  5
DE
100
AcDbEntity
  8
1
100
AcDbCircle
 10
-402.485631
 20
-162.582704
 30
0.0
 40
5.0
100
AcDbArc
 50
0.0
 51
27.004714
  0
ARC
  5
DF
100
AcDbEntity
  8
1
100
AcDbCircle
 10
-402.485631
 20
-147.144534
 30
0.0
 40
5.0
100
AcDbArc
 50
332.995286
 51
360.0
  0
ARC
  5
E0
100
AcDbEntity
  8
1
100
AcDbCircle
 10
-439.485631
 20
-147.144534
 30
0.0
 40
5.0
100
AcDbArc
 50
180.0
 51
207.004714
  0
ARC
  5
E1
100
AcDbEntity
  8
1
100
AcDbCircle
 10
-439.485631
 20
-162.582704
 30
0.0
 40
5.0
100
AcDbArc
 50
152.995286
 51
180.0
  0
ARC
  5
E2
100
AcDbEntity
  8
1
100
AcDbCircle
 10
-387.339155
 20
-406.004334
 30
0.0
 40
12.0
100
AcDbArc
 50
102.386112
 51
224.313199
  0
ARC
  5
E3
100
AcDbEntity
  8
1
100
AcDbCircle
 10
-454.632107
 20
-406.004334
 30
0.0
 40
12.0
100
AcDbArc
 50
315.686801
 51
77.613888
  0
ARC
  5
E4
100
AcDbEntity
  8
1
100
AcDbCircle
 10
-450.985631
 20
-389.400021
 30
0.0
 40
5.0
100
AcDbArc
 50
180.0
 51
257.613888
  0
ARC
  5
E5
100
AcDbEntity
  8
1
100
AcDbCircle
 10
-390.985631
 20
-389.400021
 30
0.0
 40
5.0
100
AcDbArc
 50
282.386112
 51
360.0
  0
ARC
  5
E6
100
AcDbEntity
  8
1
100
AcDbCircle
 10
-386.04506
 20
-410.833963
 30
0.0
 40
10.5
100
AcDbArc
 50
199.780192
 51
216.619214
  0
ARC
  5
E7
100
AcDbEntity
  8
1
100
AcDbCircle
 10
-455.926202
 20
-410.833963
 30
0.0
 40
10.5
100
AcDbArc
 50
323.380786
 51
340.219808
  0
ARC
  5
E8
100
AcDbEntity
  8
1
100
AcDbCircle
 10
-398.485631
 20
-420.079621
 30
0.0
 40
5.0
100
AcDbArc
 50
0.0
 51
36.619214
  0
ARC
  5
E9
100
AcDbEntity
  8
1
100
AcDbCircle
 10
-443.485631
 20
-420.079621
 30
0.0
 40
5.0
100
AcDbArc
 50
143.380786
 51
180.0
  0
ARC
  5
EA
100
AcDbEntity
  8
1
100
AcDbCircle
 10
-402.485631
 20
-398.285249
 30
0.0
 40
5.0
100
AcDbArc
 50
332.995286
 51
360.0
  0
ARC
  5
EB
100
AcDbEntity
  8
1
100
AcDbCircle
 10
-439.485631
 20
-398.285249
 30
0.0
 40
5.0
100
AcDbArc
 50
180.0
 51
207.004714
  0
CIRCLE
  5
EC
100
AcDbEntity
  8
1
100
AcDbCircle
 10
-420.985631
 20
-280.433977
 30
0.0
 40
81.5
  0
LINE
  5
ED
100
AcDbEntity
  8
1
  6
DASHED
100
AcDbLine
 10
-448.985631
 20
336.266023
 30
0.0
 11
-388.785631
 21
336.266023
 31
0.0
  0
LINE
  5
EE
100
AcDbEntity
  8
1
  6
DASHED
100
AcDbLine
 10
-448.985631
 20
211.266023
 30
0.0
 11
-388.785631
 21
211.266023
 31
0.0
  0
LINE
  5
EF
100
AcDbEntity
  8
1
  6
DASHED
100
AcDbLine
 10
-481.385631
 20
243.666023
 30
0.0
 11
-481.385631
 21
303.866023
 31
0.0
  0
LINE
  5
F0
100
AcDbEntity
  8
1
  6
DASHED
100
AcDbLine
 10
-356.385631
 20
243.666023
 30
0.0
 11
-356.385631
 21
303.866023
 31
0.0
  0
ARC
  5
F1
100
AcDbEntity
  8
1
  6
DASHED
100
AcDbCircle
 10
-448.985631
 20
303.866023
 30
0.0
 40
32.4
100
AcDbArc
 50
90.0
 51
180.0
  0
ARC
  5
F2
100
AcDbEntity
  8
1
  6
DASHED
100
AcDbCircle
 10
-388.785631
 20
303.866023
 30
0.0
 40
32.4
100
AcDbArc
 50
360.0
 51
90.0
  0
ARC
  5
F3
100
AcDbEntity
  8
1
  6
DASHED
100
AcDbCircle
 10
-388.785631
 20
243.666023
 30
0.0
 40
32.4
100
AcDbArc
 50
270.0
 51
360.0
  0
ARC
  5
F4
100
AcDbEntity
  8
1
  6
DASHED
100
AcDbCircle
 10
-448.985631
 20
243.666023
 30
0.0
 40
32.4
100
AcDbArc
 50
180.0
 51
270.0
  0
LINE
  5
F5
100
AcDbEntity
  8
1
100
AcDbLine
 10
176.804369
 20
-75.433977
 30
0.0
 11
176.804369
 21
-68.933977
 31
0.0
  0
LINE
  5
F6
100
AcDbEntity
  8
1
100
AcDbLine
 10
148.224369
 20
-75.433977
 30
0.0
 11
148.224369
 21
-68.933977
 31
0.0
  0
LINE
  5
F7
100
AcDbEntity
  8
1
  6
CENTER
 62
     2
100
AcDbLine
 10
-374.690631
 20
304.691716
 30
0.0
 11
-374.690631
 21
331.650426
 31
0.0
  0
LINE
  5
F8
100
AcDbEntity
  8
1
  6
CENTER
 62
     2
100
AcDbLine
 10
-387.978848
 20
317.961023
 30
0.0
 11
-361.396161
 21
317.961023
 31
0.0
  0
CIRCLE
  5
F9
100
AcDbEntity
  8
1
  6
DASHED
100
AcDbCircle
 10
-374.690631
 20
317.961023
 30
0.0
 40
6.5
  0
LINE
  5
FA
100
AcDbEntity
  8
1
  6
CENTER
 62
     2
100
AcDbLine
 10
-463.080631
 20
304.691716
 30
0.0
 11
-463.080631
 21
331.650426
 31
0.0
  0
LINE
  5
FB
100
AcDbEntity
  8
1
  6
CENTER
 62
     2
100
AcDbLine
 10
-449.792413
 20
317.961023
 30
0.0
 11
-476.375101
 21
317.961023
 31
0.0
  0
CIRCLE
  5
FC
100
AcDbEntity
  8
1
  6
DASHED
100
AcDbCircle
 10
-463.080631
 20
317.961023
 30
0.0
 40
6.5
  0
LINE
  5
FD
100
AcDbEntity
  8
1
  6
CENTER
 62
     2
100
AcDbLine
 10
-374.690631
 20
242.840331
 30
0.0
 11
-374.690631
 21
215.881621
 31
0.0
  0
LINE
  5
FE
100
AcDbEntity
  8
1
  6
CENTER
 62
     2
100
AcDbLine
 10
-387.978848
 20
229.571023
 30
0.0
 11
-361.396161
 21
229.571023
 31
0.0
  0
CIRCLE
  5
FF
100
AcDbEntity
  8
1
  6
DASHED
100
AcDbCircle
 10
-374.690631
 20
229.571023
 30
0.0
 40
6.5
  0
LINE
  5
100
100
AcDbEntity
  8
1
  6
CENTER
 62
     2
100
AcDbLine
 10
-463.080631
 20
242.840331
 30
0.0
 11
-463.080631
 21
215.881621
 31
0.0
  0
LINE
  5
101
100
AcDbEntity
  8
1
  6
CENTER
 62
     2
100
AcDbLine
 10
-449.792413
 20
229.571023
 30
0.0
 11
-476.375101
 21
229.571023
 31
0.0
  0
CIRCLE
  5
102
100
AcDbEntity
  8
1
  6
DASHED
100
AcDbCircle
 10
-463.080631
 20
229.571023
 30
0.0
 40
6.5
  0
LINE
  5
103
100
AcDbEntity
  8
1
  6
CENTER
 62
     2
100
AcDbLine
 10
-374.690631
 20
-35.641834
 30
0.0
 11
-374.690631
 21
-101.697386
 31
0.0
  0
LINE
  5
104
100
AcDbEntity
  8
1
  6
CENTER
 62
     2
100
AcDbLine
 10
-463.080631
 20
-35.641834
 30
0.0
 11
-463.080631
 21
-101.697386
 31
0.0
  0
LINE
  5
105
100
AcDbEntity
  8
1
  6
CENTER
 62
     2
100
AcDbLine
 10
206.709369
 20
-35.641834
 30
0.0
 11
206.709369
 21
-101.697386
 31
0.0
  0
LINE
  5
106
100
AcDbEntity
  8
1
  6
CENTER
 62
     2
100
AcDbLine
 10
118.319369
 20
-35.641834
 30
0.0
 11
118.319369
 21
-101.697386
 31
0.0
  0
LINE
  5
107
100
AcDbEntity
  8
1
100
AcDbLine
 10
-510.931448
 20
274.210921
 30
0.0
 11
-510.931448
 21
276.321126
 31
0.0
  0
LINE
  5
108
100
AcDbEntity
  8
1
100
AcDbLine
 10
-527.097398
 20
262.766023
 30
0.0
 11
-527.097398
 21
287.766023
 31
0.0
  0
LINE
  5
109
100
AcDbEntity
  8
1
100
AcDbLine
 10
-523.950168
 20
286.632284
 30
0.0
 11
-516.220134
 21
283.847664
 31
0.0
  0
LINE
  5
10A
100
AcDbEntity
  8
1
100
AcDbLine
 10
-516.220134
 20
266.684383
 30
0.0
 11
-524.453055
 21
263.718605
 31
0.0
  0
ARC
  5
10B
100
AcDbEntity
  8
1
100
AcDbCircle
 10
-523.097398
 20
259.955336
 30
0.0
 40
4.0
100
AcDbArc
 50
109.810741
 51
180.0
  0
ARC
  5
10C
100
AcDbEntity
  8
1
100
AcDbCircle
 10
-518.931448
 20
276.321126
 30
0.0
 40
8.0
100
AcDbArc
 50
360.0
 51
70.189259
  0
ARC
  5
10D
100
AcDbEntity
  8
1
100
AcDbCircle
 10
-518.931448
 20
274.210921
 30
0.0
 40
8.0
100
AcDbArc
 50
289.810741
 51
360.0
  0
LINE
  5
10E
100
AcDbEntity
  8
1
100
AcDbLine
 10
-524.453055
 20
262.766023
 30
0.0
 11
-521.690576
 21
262.766023
 31
0.0
  0
LINE
  5
10F
100
AcDbEntity
  8
1
100
AcDbLine
 10
151.514369
 20
-185.363655
 30
0.0
 11
139.514369
 21
-185.363655
 31
0.0
  0
LINE
  5
110
100
AcDbEntity
  8
1
100
AcDbLine
 10
176.514369
 20
-185.363655
 30
0.0
 11
196.514369
 21
-185.363655
 31
0.0
  0
ARC
  5
111
100
AcDbEntity
  8
1
100
AcDbCircle
 10
128.985249
 20
-240.826241
 30
0.0
 40
23.621031
100
AcDbArc
 50
0.0
 51
17.489166
  0
ARC
  5
112
100
AcDbEntity
  8
1
100
AcDbCircle
 10
140.814486
 20
-240.826241
 30
0.0
 40
11.791794
100
AcDbArc
 50
335.148597
 51
360.0
  0
ARC
  5
113
100
AcDbEntity
  8
1
100
AcDbCircle
 10
199.043489
 20
-240.826241
 30
0.0
 40
23.621031
100
AcDbArc
 50
162.510834
 51
180.0
  0
ARC
  5
114
100
AcDbEntity
  8
1
100
AcDbCircle
 10
187.214253
 20
-240.826241
 30
0.0
 40
11.791794
100
AcDbArc
 50
180.0
 51
196.873049
  0
LINE
  5
115
100
AcDbEntity
  8
1
100
AcDbLine
 10
139.514369
 20
-233.72752
 30
0.0
 11
151.514369
 21
-233.72752
 31
0.0
  0
LINE
  5
116
100
AcDbEntity
  8
1
100
AcDbLine
 10
176.514369
 20
-233.72752
 30
0.0
 11
196.514369
 21
-233.72752
 31
0.0
  0
LINE
  5
117
100
AcDbEntity
  8
1
100
AcDbLine
 10
139.514369
 20
-245.781935
 30
0.0
 11
151.514369
 21
-245.781935
 31
0.0
  0
LINE
  5
118
100
AcDbEntity
  8
1
100
AcDbLine
 10
190.514369
 20
-245.781935
 30
0.0
 11
196.514369
 21
-245.781935
 31
0.0
  0
LINE
  5
119
100
AcDbEntity
  8
1
100
AcDbLine
 10
157.514369
 20
-270.433977
 30
0.0
 11
170.514369
 21
-270.433977
 31
0.0
  0
LINE
  5
11A
100
AcDbEntity
  8
1
100
AcDbLine
 10
161.337893
 20
-258.988479
 30
0.0
 11
166.690845
 21
-258.988479
 31
0.0
  0
ARC
  5
11B
100
AcDbEntity
  8
1
100
AcDbCircle
 10
157.514369
 20
-264.433977
 30
0.0
 40
6.0
100
AcDbArc
 50
180.0
 51
270.0
  0
ARC
  5
11C
100
AcDbEntity
  8
1
100
AcDbCircle
 10
170.514369
 20
-264.433977
 30
0.0
 40
6.0
100
AcDbArc
 50
270.0
 51
347.634031
  0
ARC
  5
11D
100
AcDbEntity
  8
1
100
AcDbCircle
 10
166.690845
 20
-254.988479
 30
0.0
 40
4.0
100
AcDbArc
 50
270.0
 51
360.0
  0
ARC
  5
11E
100
AcDbEntity
  8
1
100
AcDbCircle
 10
161.337893
 20
-254.988479
 30
0.0
 40
4.0
100
AcDbArc
 50
180.0
 51
270.0
  0
LINE
  5
11F
100
AcDbEntity
  8
1
100
AcDbLine
 10
170.690845
 20
-258.988479
 30
0.0
 11
173.46154
 21
-264.433977
 31
0.0
  0
LINE
  5
120
100
AcDbEntity
  8
1
100
AcDbLine
 10
157.337893
 20
-258.988479
 30
0.0
 11
154.567198
 21
-264.433977
 31
0.0
  0
LINE
  5
121
100
AcDbEntity
  8
1
100
AcDbLine
 10
161.337893
 20
-202.496502
 30
0.0
 11
166.690845
 21
-202.496502
 31
0.0
  0
ARC
  5
122
100
AcDbEntity
  8
1
100
AcDbCircle
 10
166.690845
 20
-206.496502
 30
0.0
 40
4.0
100
AcDbArc
 50
0.0
 51
90.0
  0
ARC
  5
123
100
AcDbEntity
  8
1
100
AcDbCircle
 10
161.337893
 20
-206.496502
 30
0.0
 40
4.0
100
AcDbArc
 50
90.0
 51
180.0
  0
LINE
  5
124
100
AcDbEntity
  8
1
100
AcDbLine
 10
170.690845
 20
-206.496502
 30
0.0
 11
170.690845
 21
-254.988479
 31
0.0
  0
LINE
  5
125
100
AcDbEntity
  8
1
100
AcDbLine
 10
157.337893
 20
-206.496502
 30
0.0
 11
157.337893
 21
-254.988479
 31
0.0
  0
ARC
  5
126
100
AcDbEntity
  8
1
100
AcDbCircle
 10
151.921196
 20
-184.812445
 30
0.0
 40
0.685084
100
AcDbArc
 50
233.570424
 51
360.0
  0
ARC
  5
127
100
AcDbEntity
  8
1
100
AcDbCircle
 10
176.107543
 20
-184.812445
 30
0.0
 40
0.685084
100
AcDbArc
 50
180.0
 51
306.429576
  0
LINE
  5
128
100
AcDbEntity
  8
1
100
AcDbLine
 10
176.514369
 20
-233.72752
 30
0.0
 11
176.514369
 21
-185.363655
 31
0.0
  0
LINE
  5
129
100
AcDbEntity
  8
1
100
AcDbLine
 10
151.514369
 20
-264.433977
 30
0.0
 11
151.514369
 21
-245.781935
 31
0.0
  0
LINE
  5
12A
100
AcDbEntity
  8
1
100
AcDbLine
 10
151.514369
 20
-233.72752
 30
0.0
 11
151.514369
 21
-185.363655
 31
0.0
  0
LINE
  5
12B
100
AcDbEntity
  8
1
100
AcDbLine
 10
151.514369
 20
-375.504298
 30
0.0
 11
139.514369
 21
-375.504298
 31
0.0
  0
LINE
  5
12C
100
AcDbEntity
  8
1
100
AcDbLine
 10
176.514369
 20
-375.504298
 30
0.0
 11
196.514369
 21
-375.504298
 31
0.0
  0
ARC
  5
12D
100
AcDbEntity
  8
1
100
AcDbCircle
 10
128.985249
 20
-320.041712
 30
0.0
 40
23.621031
100
AcDbArc
 50
342.510834
 51
360.0
  0
ARC
  5
12E
100
AcDbEntity
  8
1
100
AcDbCircle
 10
140.814486
 20
-320.041712
 30
0.0
 40
11.791794
100
AcDbArc
 50
0.0
 51
24.851403
  0
ARC
  5
12F
100
AcDbEntity
  8
1
100
AcDbCircle
 10
199.043489
 20
-320.041712
 30
0.0
 40
23.621031
100
AcDbArc
 50
180.0
 51
197.489166
  0
ARC
  5
130
100
AcDbEntity
  8
1
100
AcDbCircle
 10
187.214253
 20
-320.041712
 30
0.0
 40
11.791794
100
AcDbArc
 50
163.126951
 51
180.0
  0
LINE
  5
131
100
AcDbEntity
  8
1
100
AcDbLine
 10
139.514369
 20
-327.140433
 30
0.0
 11
151.514369
 21
-327.140433
 31
0.0
  0
LINE
  5
132
100
AcDbEntity
  8
1
100
AcDbLine
 10
176.514369
 20
-327.140433
 30
0.0
 11
196.514369
 21
-327.140433
 31
0.0
  0
LINE
  5
133
100
AcDbEntity
  8
1
100
AcDbLine
 10
139.514369
 20
-315.086018
 30
0.0
 11
151.514369
 21
-315.086018
 31
0.0
  0
LINE
  5
134
100
AcDbEntity
  8
1
100
AcDbLine
 10
190.514369
 20
-315.086018
 30
0.0
 11
196.514369
 21
-315.086018
 31
0.0
  0
LINE
  5
135
100
AcDbEntity
  8
1
100
AcDbLine
 10
157.514369
 20
-290.433977
 30
0.0
 11
170.514369
 21
-290.433977
 31
0.0
  0
LINE
  5
136
100
AcDbEntity
  8
1
100
AcDbLine
 10
161.337893
 20
-301.879474
 30
0.0
 11
166.690845
 21
-301.879474
 31
0.0
  0
ARC
  5
137
100
AcDbEntity
  8
1
100
AcDbCircle
 10
157.514369
 20
-296.433977
 30
0.0
 40
6.0
100
AcDbArc
 50
90.0
 51
180.0
  0
ARC
  5
138
100
AcDbEntity
  8
1
100
AcDbCircle
 10
170.514369
 20
-296.433977
 30
0.0
 40
6.0
100
AcDbArc
 50
12.365969
 51
90.0
  0
ARC
  5
139
100
AcDbEntity
  8
1
100
AcDbCircle
 10
166.690845
 20
-305.879474
 30
0.0
 40
4.0
100
AcDbArc
 50
0.0
 51
90.0
  0
ARC
  5
13A
100
AcDbEntity
  8
1
100
AcDbCircle
 10
161.337893
 20
-305.879474
 30
0.0
 40
4.0
100
AcDbArc
 50
90.0
 51
180.0
  0
LINE
  5
13B
100
AcDbEntity
  8
1
100
AcDbLine
 10
170.690845
 20
-301.879474
 30
0.0
 11
173.46154
 21
-296.433977
 31
0.0
  0
LINE
  5
13C
100
AcDbEntity
  8
1
100
AcDbLine
 10
157.337893
 20
-301.879474
 30
0.0
 11
154.567198
 21
-296.433977
 31
0.0
  0
LINE
  5
13D
100
AcDbEntity
  8
1
100
AcDbLine
 10
161.337893
 20
-358.371451
 30
0.0
 11
166.690845
 21
-358.371451
 31
0.0
  0
ARC
  5
13E
100
AcDbEntity
  8
1
100
AcDbCircle
 10
166.690845
 20
-354.371451
 30
0.0
 40
4.0
100
AcDbArc
 50
270.0
 51
360.0
  0
ARC
  5
13F
100
AcDbEntity
  8
1
100
AcDbCircle
 10
161.337893
 20
-354.371451
 30
0.0
 40
4.0
100
AcDbArc
 50
180.0
 51
270.0
  0
LINE
  5
140
100
AcDbEntity
  8
1
100
AcDbLine
 10
170.690845
 20
-354.371451
 30
0.0
 11
170.690845
 21
-305.879474
 31
0.0
  0
LINE
  5
141
100
AcDbEntity
  8
1
100
AcDbLine
 10
157.337893
 20
-354.371451
 30
0.0
 11
157.337893
 21
-305.879474
 31
0.0
  0
LINE
  5
142
100
AcDbEntity
  8
1
100
AcDbLine
 10
176.514369
 20
-327.140433
 30
0.0
 11
176.514369
 21
-375.504298
 31
0.0
  0
LINE
  5
143
100
AcDbEntity
  8
1
100
AcDbLine
 10
151.514369
 20
-296.433977
 30
0.0
 11
151.514369
 21
-315.086018
 31
0.0
  0
LINE
  5
144
100
AcDbEntity
  8
1
100
AcDbLine
 10
151.514369
 20
-327.140433
 30
0.0
 11
151.514369
 21
-375.504298
 31
0.0
  0
LINE
  5
145
100
AcDbEntity
  8
1
100
AcDbLine
 10
-516.081457
 20
250.766023
 30
0.0
 11
-516.081457
 21
262.766023
 31
0.0
  0
LINE
  5
146
100
AcDbEntity
  8
1
100
AcDbLine
 10
-521.690576
 20
250.766023
 30
0.0
 11
-521.690576
 21
262.766023
 31
0.0
  0
ARC
  5
147
100
AcDbEntity
  8
1
100
AcDbCircle
 10
-516.607163
 20
251.479007
 30
0.0
 40
12.378927
100
AcDbArc
 50
90.0
 51
114.245712
  0
ARC
  5
148
100
AcDbEntity
  8
1
100
AcDbCircle
 10
-516.607163
 20
263.17285
 30
0.0
 40
0.685084
100
AcDbArc
 50
323.570424
 51
90.0
  0
LINE
  5
149
100
AcDbEntity
  8
1
100
AcDbLine
 10
-516.081457
 20
307.766023
 30
0.0
 11
-516.081457
 21
287.766023
 31
0.0
  0
LINE
  5
14A
100
AcDbEntity
  8
1
100
AcDbLine
 10
-521.690576
 20
307.766023
 30
0.0
 11
-521.690576
 21
298.794673
 31
0.0
  0
ARC
  5
14B
100
AcDbEntity
  8
1
100
AcDbCircle
 10
-516.607163
 20
299.05304
 30
0.0
 40
12.378927
100
AcDbArc
 50
250.540764
 51
270.0
  0
ARC
  5
14C
100
AcDbEntity
  8
1
100
AcDbCircle
 10
-516.607163
 20
287.359197
 30
0.0
 40
0.685084
100
AcDbArc
 50
270.0
 51
36.429576
  0
LINE
  5
14D
100
AcDbEntity
  8
1
100
AcDbLine
 10
-527.485631
 20
250.766023
 30
0.0
 11
-527.485631
 21
288.226688
 31
0.0
  0
LINE
  5
14E
100
AcDbEntity
  8
1
100
AcDbLine
 10
-527.485631
 20
298.766023
 30
0.0
 11
-527.485631
 21
307.766023
 31
0.0
  0
LINE
  5
14F
100
AcDbEntity
  8
1
100
AcDbLine
 10
-331.039814
 20
274.210921
 30
0.0
 11
-331.039814
 21
276.321126
 31
0.0
  0
LINE
  5
150
100
AcDbEntity
  8
1
100
AcDbLine
 10
-314.873864
 20
262.766023
 30
0.0
 11
-314.873864
 21
287.766023
 31
0.0
  0
LINE
  5
151
100
AcDbEntity
  8
1
100
AcDbLine
 10
-318.021094
 20
286.632284
 30
0.0
 11
-325.751128
 21
283.847664
 31
0.0
  0
LINE
  5
152
100
AcDbEntity
  8
1
100
AcDbLine
 10
-325.751128
 20
266.684383
 30
0.0
 11
-317.518206
 21
263.718605
 31
0.0
  0
ARC
  5
153
100
AcDbEntity
  8
1
100
AcDbCircle
 10
-318.873864
 20
259.955336
 30
0.0
 40
4.0
100
AcDbArc
 50
0.0
 51
70.189259
  0
ARC
  5
154
100
AcDbEntity
  8
1
100
AcDbCircle
 10
-323.039814
 20
276.321126
 30
0.0
 40
8.0
100
AcDbArc
 50
109.810741
 51
180.0
  0
ARC
  5
155
100
AcDbEntity
  8
1
100
AcDbCircle
 10
-323.039814
 20
274.210921
 30
0.0
 40
8.0
100
AcDbArc
 50
180.0
 51
250.189259
  0
LINE
  5
156
100
AcDbEntity
  8
1
100
AcDbLine
 10
-317.518206
 20
262.766023
 30
0.0
 11
-320.280685
 21
262.766023
 31
0.0
  0
LINE
  5
157
100
AcDbEntity
  8
1
100
AcDbLine
 10
-325.889805
 20
250.766023
 30
0.0
 11
-325.889805
 21
262.766023
 31
0.0
  0
LINE
  5
158
100
AcDbEntity
  8
1
100
AcDbLine
 10
-320.280685
 20
250.766023
 30
0.0
 11
-320.280685
 21
262.766023
 31
0.0
  0
ARC
  5
159
100
AcDbEntity
  8
1
100
AcDbCircle
 10
-325.364099
 20
251.479007
 30
0.0
 40
12.378927
100
AcDbArc
 50
65.754288
 51
90.0
  0
ARC
  5
15A
100
AcDbEntity
  8
1
100
AcDbCircle
 10
-325.364099
 20
263.17285
 30
0.0
 40
0.685084
100
AcDbArc
 50
90.0
 51
216.429576
  0
LINE
  5
15B
100
AcDbEntity
  8
1
100
AcDbLine
 10
-325.889805
 20
307.766023
 30
0.0
 11
-325.889805
 21
287.766023
 31
0.0
  0
LINE
  5
15C
100
AcDbEntity
  8
1
100
AcDbLine
 10
-320.280685
 20
307.766023
 30
0.0
 11
-320.280685
 21
298.794673
 31
0.0
  0
ARC
  5
15D
100
AcDbEntity
  8
1
100
AcDbCircle
 10
-325.364099
 20
299.05304
 30
0.0
 40
12.378927
100
AcDbArc
 50
270.0
 51
289.459236
  0
ARC
  5
15E
100
AcDbEntity
  8
1
100
AcDbCircle
 10
-325.364099
 20
287.359197
 30
0.0
 40
0.685084
100
AcDbArc
 50
143.570424
 51
270.0
  0
LINE
  5
15F
100
AcDbEntity
  8
1
100
AcDbLine
 10
-314.485631
 20
250.766023
 30
0.0
 11
-314.485631
 21
288.226688
 31
0.0
  0
LINE
  5
160
100
AcDbEntity
  8
1
100
AcDbLine
 10
-314.485631
 20
298.766023
 30
0.0
 11
-314.485631
 21
307.766023
 31
0.0
  0
LINE
  5
161
100
AcDbEntity
  8
1
100
AcDbLine
 10
-533.341969
 20
298.766023
 30
0.0
 11
-522.10419
 21
298.766023
 31
0.0
  0
LINE
  5
162
100
AcDbEntity
  8
1
100
AcDbLine
 10
-519.10419
 20
287.766023
 30
0.0
 11
-519.10419
 21
298.766023
 31
0.0
  0
ARC
  5
163
100
AcDbEntity
  8
1
100
AcDbCircle
 10
-522.10419
 20
301.766023
 30
0.0
 40
3.0
100
AcDbArc
 50
270.0
 51
360.0
  0
LINE
  5
164
100
AcDbEntity
  8
1
100
AcDbLine
 10
-533.151802
 20
293.891487
 30
0.0
 11
-533.151802
 21
296.766023
 31
0.0
  0
LINE
  5
165
100
AcDbEntity
  8
1
100
AcDbLine
 10
-535.341969
 20
293.70773
 30
0.0
 11
-535.341969
 21
296.766023
 31
0.0
  0
ARC
  5
166
100
AcDbEntity
  8
1
100
AcDbCircle
 10
-533.341969
 20
296.766023
 30
0.0
 40
2.0
100
AcDbArc
 50
90.0
 51
180.0
  0
ARC
  5
167
100
AcDbEntity
  8
1
100
AcDbCircle
 10
-531.151802
 20
296.766023
 30
0.0
 40
2.0
100
AcDbArc
 50
90.0
 51
180.0
  0
LINE
  5
168
100
AcDbEntity
  8
1
100
AcDbLine
 10
-520.73103
 20
287.381213
 30
0.0
 11
-531.151211
 21
291.062851
 31
0.0
  0
LINE
  5
169
100
AcDbEntity
  8
1
100
AcDbLine
 10
-523.950168
 20
286.632284
 30
0.0
 11
-533.575279
 21
290.972964
 31
0.0
  0
ARC
  5
16A
100
AcDbEntity
  8
1
100
AcDbCircle
 10
-530.151802
 20
293.891487
 30
0.0
 40
3.0
100
AcDbArc
 50
180.0
 51
250.540764
  0
ARC
  5
16B
100
AcDbEntity
  8
1
100
AcDbCircle
 10
-532.341969
 20
293.70773
 30
0.0
 40
3.0
100
AcDbArc
 50
180.0
 51
245.725839
  0
LINE
  5
16C
100
AcDbEntity
  8
1
100
AcDbLine
 10
-308.629293
 20
298.766023
 30
0.0
 11
-319.867072
 21
298.766023
 31
0.0
  0
LINE
  5
16D
100
AcDbEntity
  8
1
100
AcDbLine
 10
-322.867072
 20
287.766023
 30
0.0
 11
-322.867072
 21
298.766023
 31
0.0
  0
ARC
  5
16E
100
AcDbEntity
  8
1
100
AcDbCircle
 10
-319.867072
 20
301.766023
 30
0.0
 40
3.0
100
AcDbArc
 50
180.0
 51
270.0
  0
LINE
  5
16F
100
AcDbEntity
  8
1
100
AcDbLine
 10
-308.81946
 20
293.891487
 30
0.0
 11
-308.81946
 21
296.766023
 31
0.0
  0
LINE
  5
170
100
AcDbEntity
  8
1
100
AcDbLine
 10
-306.629293
 20
293.70773
 30
0.0
 11
-306.629293
 21
296.766023
 31
0.0
  0
ARC
  5
171
100
AcDbEntity
  8
1
100
AcDbCircle
 10
-308.629293
 20
296.766023
 30
0.0
 40
2.0
100
AcDbArc
 50
0.0
 51
90.0
  0
ARC
  5
172
100
AcDbEntity
  8
1
100
AcDbCircle
 10
-310.81946
 20
296.766023
 30
0.0
 40
2.0
100
AcDbArc
 50
0.0
 51
90.0
  0
LINE
  5
173
100
AcDbEntity
  8
1
100
AcDbLine
 10
-321.240232
 20
287.381213
 30
0.0
 11
-310.820051
 21
291.062851
 31
0.0
  0
LINE
  5
174
100
AcDbEntity
  8
1
100
AcDbLine
 10
-318.021094
 20
286.632284
 30
0.0
 11
-308.395983
 21
290.972964
 31
0.0
  0
ARC
  5
175
100
AcDbEntity
  8
1
100
AcDbCircle
 10
-311.81946
 20
293.891487
 30
0.0
 40
3.0
100
AcDbArc
 50
289.459236
 51
360.0
  0
ARC
  5
176
100
AcDbEntity
  8
1
100
AcDbCircle
 10
-309.629293
 20
293.70773
 30
0.0
 40
3.0
100
AcDbArc
 50
294.274161
 51
360.0
  0
LINE
  5
177
100
AcDbEntity
  8
1
100
AcDbLine
 10
187.514369
 20
-247.248834
 30
0.0
 11
187.514369
 21
-262.718908
 31
0.0
  0
LINE
  5
178
100
AcDbEntity
  8
1
100
AcDbLine
 10
180.518369
 20
-247.433977
 30
0.0
 11
180.518369
 21
-252.66178
 31
0.0
  0
LINE
  5
179
100
AcDbEntity
  8
1
100
AcDbLine
 10
177.528015
 20
-244.248834
 30
0.0
 11
187.514369
 21
-244.248834
 31
0.0
  0
LINE
  5
17A
100
AcDbEntity
  8
1
100
AcDbLine
 10
176.514369
 20
-265.718908
 30
0.0
 11
187.514369
 21
-265.718908
 31
0.0
  0
LINE
  5
17B
100
AcDbEntity
  8
1
100
AcDbLine
 10
182.518369
 20
-245.433977
 30
0.0
 11
185.514369
 21
-245.433977
 31
0.0
  0
LINE
  5
17C
100
AcDbEntity
  8
1
100
AcDbLine
 10
182.518369
 20
-254.66178
 30
0.0
 11
185.514369
 21
-254.66178
 31
0.0
  0
ARC
  5
17D
100
AcDbEntity
  8
1
100
AcDbCircle
 10
185.514369
 20
-247.433977
 30
0.0
 40
2.0
100
AcDbArc
 50
0.0
 51
90.0
  0
ARC
  5
17E
100
AcDbEntity
  8
1
100
AcDbCircle
 10
182.518369
 20
-247.433977
 30
0.0
 40
2.0
100
AcDbArc
 50
90.0
 51
180.0
  0
ARC
  5
17F
100
AcDbEntity
  8
1
100
AcDbCircle
 10
182.518369
 20
-252.66178
 30
0.0
 40
2.0
100
AcDbArc
 50
180.0
 51
270.0
  0
ARC
  5
180
100
AcDbEntity
  8
1
100
AcDbCircle
 10
185.514369
 20
-252.66178
 30
0.0
 40
2.0
100
AcDbArc
 50
270.0
 51
360.0
  0
ARC
  5
181
100
AcDbEntity
  8
1
100
AcDbCircle
 10
190.514369
 20
-247.248834
 30
0.0
 40
3.0
100
AcDbArc
 50
90.0
 51
180.0
  0
LINE
  5
182
100
AcDbEntity
  8
1
100
AcDbLine
 10
180.518369
 20
-245.433977
 30
0.0
 11
177.528015
 21
-245.433977
 31
0.0
  0
ARC
  5
183
100
AcDbEntity
  8
1
100
AcDbCircle
 10
177.528015
 20
-243.764169
 30
0.0
 40
1.669807
100
AcDbArc
 50
196.873049
 51
270.0
  0
ARC
  5
184
100
AcDbEntity
  8
1
100
AcDbCircle
 10
190.514369
 20
-262.718908
 30
0.0
 40
3.0
100
AcDbArc
 50
180.0
 51
270.0
  0
LINE
  5
185
100
AcDbEntity
  8
1
100
AcDbLine
 10
180.518369
 20
-254.66178
 30
0.0
 11
176.375167
 21
-265.718908
 31
0.0
  0
LINE
  5
186
100
AcDbEntity
  8
1
100
AcDbLine
 10
187.514369
 20
-313.619119
 30
0.0
 11
187.514369
 21
-298.149045
 31
0.0
  0
LINE
  5
187
100
AcDbEntity
  8
1
100
AcDbLine
 10
180.518369
 20
-313.433977
 30
0.0
 11
180.518369
 21
-308.206173
 31
0.0
  0
LINE
  5
188
100
AcDbEntity
  8
1
100
AcDbLine
 10
177.528015
 20
-316.619119
 30
0.0
 11
187.514369
 21
-316.619119
 31
0.0
  0
LINE
  5
189
100
AcDbEntity
  8
1
100
AcDbLine
 10
176.514369
 20
-295.149045
 30
0.0
 11
187.514369
 21
-295.149045
 31
0.0
  0
LINE
  5
18A
100
AcDbEntity
  8
1
100
AcDbLine
 10
182.518369
 20
-315.433977
 30
0.0
 11
185.514369
 21
-315.433977
 31
0.0
  0
LINE
  5
18B
100
AcDbEntity
  8
1
100
AcDbLine
 10
182.518369
 20
-306.206173
 30
0.0
 11
185.514369
 21
-306.206173
 31
0.0
  0
ARC
  5
18C
100
AcDbEntity
  8
1
100
AcDbCircle
 10
185.514369
 20
-313.433977
 30
0.0
 40
2.0
100
AcDbArc
 50
270.0
 51
360.0
  0
ARC
  5
18D
100
AcDbEntity
  8
1
100
AcDbCircle
 10
182.518369
 20
-313.433977
 30
0.0
 40
2.0
100
AcDbArc
 50
180.0
 51
270.0
  0
ARC
  5
18E
100
AcDbEntity
  8
1
100
AcDbCircle
 10
182.518369
 20
-308.206173
 30
0.0
 40
2.0
100
AcDbArc
 50
90.0
 51
180.0
  0
ARC
  5
18F
100
AcDbEntity
  8
1
100
AcDbCircle
 10
185.514369
 20
-308.206173
 30
0.0
 40
2.0
100
AcDbArc
 50
0.0
 51
90.0
  0
ARC
  5
190
100
AcDbEntity
  8
1
100
AcDbCircle
 10
190.514369
 20
-313.619119
 30
0.0
 40
3.0
100
AcDbArc
 50
180.0
 51
270.0
  0
LINE
  5
191
100
AcDbEntity
  8
1
100
AcDbLine
 10
180.518369
 20
-315.433977
 30
0.0
 11
177.528015
 21
-315.433977
 31
0.0
  0
ARC
  5
192
100
AcDbEntity
  8
1
100
AcDbCircle
 10
177.528015
 20
-317.103784
 30
0.0
 40
1.669807
100
AcDbArc
 50
90.0
 51
163.126951
  0
ARC
  5
193
100
AcDbEntity
  8
1
100
AcDbCircle
 10
190.514369
 20
-298.149045
 30
0.0
 40
3.0
100
AcDbArc
 50
90.0
 51
180.0
  0
LINE
  5
194
100
AcDbEntity
  8
1
100
AcDbLine
 10
180.518369
 20
-306.206173
 30
0.0
 11
176.375167
 21
-295.149045
 31
0.0
  0
LINE
  5
195
100
AcDbEntity
  8
1
100
AcDbLine
 10
152.60628
 20
-186.468575
 30
0.0
 11
152.60628
 21
-184.812445
 31
0.0
  0
LINE
  5
196
100
AcDbEntity
  8
1
100
AcDbLine
 10
175.422458
 20
-186.468575
 30
0.0
 11
175.422458
 21
-184.812445
 31
0.0
  0
LINE
  5
197
100
AcDbEntity
  8
1
100
AcDbLine
 10
175.041478
 20
-188.907948
 30
0.0
 11
170.690845
 21
-202.496502
 31
0.0
  0
LINE
  5
198
100
AcDbEntity
  8
1
100
AcDbLine
 10
175.041478
 20
-187.718012
 30
0.0
 11
152.98726
 21
-187.718012
 31
0.0
  0
LINE
  5
199
100
AcDbEntity
  8
1
100
AcDbLine
 10
152.98726
 20
-188.907948
 30
0.0
 11
157.337893
 21
-202.496502
 31
0.0
  0
ARC
  5
19A
100
AcDbEntity
  8
1
100
AcDbCircle
 10
167.422458
 20
-186.468575
 30
0.0
 40
8.0
100
AcDbArc
 50
342.246549
 51
360.0
  0
ARC
  5
19B
100
AcDbEntity
  8
1
100
AcDbCircle
 10
160.60628
 20
-186.468575
 30
0.0
 40
8.0
100
AcDbArc
 50
180.0
 51
197.753451
  0
ARC
  5
19C
100
AcDbEntity
  8
1
100
AcDbCircle
 10
151.921196
 20
-376.055508
 30
0.0
 40
0.685084
100
AcDbArc
 50
0.0
 51
126.429576
  0
ARC
  5
19D
100
AcDbEntity
  8
1
100
AcDbCircle
 10
176.107543
 20
-376.055508
 30
0.0
 40
0.685084
100
AcDbArc
 50
53.570424
 51
180.0
  0
LINE
  5
19E
100
AcDbEntity
  8
1
100
AcDbLine
 10
152.60628
 20
-374.399378
 30
0.0
 11
152.60628
 21
-376.055508
 31
0.0
  0
LINE
  5
19F
100
AcDbEntity
  8
1
100
AcDbLine
 10
175.422458
 20
-374.399378
 30
0.0
 11
175.422458
 21
-376.055508
 31
0.0
  0
LINE
  5
1A0
100
AcDbEntity
  8
1
100
AcDbLine
 10
175.041478
 20
-371.960005
 30
0.0
 11
170.690845
 21
-358.371451
 31
0.0
  0
LINE
  5
1A1
100
AcDbEntity
  8
1
100
AcDbLine
 10
175.041478
 20
-373.149941
 30
0.0
 11
152.98726
 21
-373.149941
 31
0.0
  0
LINE
  5
1A2
100
AcDbEntity
  8
1
100
AcDbLine
 10
152.98726
 20
-371.960005
 30
0.0
 11
157.337893
 21
-358.371451
 31
0.0
  0
ARC
  5
1A3
100
AcDbEntity
  8
1
100
AcDbCircle
 10
167.422458
 20
-374.399378
 30
0.0
 40
8.0
100
AcDbArc
 50
0.0
 51
17.753451
  0
ARC
  5
1A4
100
AcDbEntity
  8
1
100
AcDbCircle
 10
160.60628
 20
-374.399378
 30
0.0
 40
8.0
100
AcDbArc
 50
162.246549
 51
180.0
  0
ARC
  5
1A5
100
AcDbEntity
  8
1
100
AcDbCircle
 10
169.331176
 20
-154.863619
 30
0.0
 40
6.406952
100
AcDbArc
 50
276.528221
 51
83.471779
  0
ARC
  5
1A6
100
AcDbEntity
  8
1
100
AcDbCircle
 10
155.697562
 20
-154.863619
 30
0.0
 40
6.406952
100
AcDbArc
 50
96.528221
 51
263.471779
  0
ARC
  5
1A7
100
AcDbEntity
  8
1
100
AcDbCircle
 10
169.331176
 20
-406.004334
 30
0.0
 40
6.406952
100
AcDbArc
 50
0.0
 51
83.471779
  0
ARC
  5
1A8
100
AcDbEntity
  8
1
100
AcDbCircle
 10
155.697562
 20
-406.004334
 30
0.0
 40
6.406952
100
AcDbArc
 50
96.528221
 51
180.0
  0
LINE
  5
1A9
100
AcDbEntity
  8
1
100
AcDbLine
 10
158.514369
 20
-120.756518
 30
0.0
 11
166.514369
 21
-120.756518
 31
0.0
  0
LINE
  5
1AA
100
AcDbEntity
  8
1
100
AcDbLine
 10
158.514369
 20
-182.315418
 30
0.0
 11
166.514369
 21
-182.315418
 31
0.0
  0
ARC
  5
1AB
100
AcDbEntity
  8
1
100
AcDbCircle
 10
170.514369
 20
-124.756518
 30
0.0
 40
4.0
100
AcDbArc
 50
90.0
 51
180.0
  0
ARC
  5
1AC
100
AcDbEntity
  8
1
100
AcDbCircle
 10
154.514369
 20
-124.756518
 30
0.0
 40
4.0
100
AcDbArc
 50
0.0
 51
90.0
  0
ARC
  5
1AD
100
AcDbEntity
  8
1
100
AcDbCircle
 10
170.514369
 20
-178.315418
 30
0.0
 40
4.0
100
AcDbArc
 50
180.0
 51
270.0
  0
ARC
  5
1AE
100
AcDbEntity
  8
1
100
AcDbCircle
 10
154.514369
 20
-178.315418
 30
0.0
 40
4.0
100
AcDbArc
 50
270.0
 51
360.0
  0
LINE
  5
1AF
100
AcDbEntity
  8
1
100
AcDbLine
 10
166.514369
 20
-178.315418
 30
0.0
 11
166.514369
 21
-165.203092
 31
0.0
  0
LINE
  5
1B0
100
AcDbEntity
  8
1
100
AcDbLine
 10
166.514369
 20
-144.524147
 30
0.0
 11
166.514369
 21
-124.756518
 31
0.0
  0
LINE
  5
1B1
100
AcDbEntity
  8
1
100
AcDbLine
 10
158.514369
 20
-178.315418
 30
0.0
 11
158.514369
 21
-165.203092
 31
0.0
  0
LINE
  5
1B2
100
AcDbEntity
  8
1
100
AcDbLine
 10
158.514369
 20
-144.524147
 30
0.0
 11
158.514369
 21
-124.756518
 31
0.0
  0
ARC
  5
1B3
100
AcDbEntity
  8
1
100
AcDbCircle
 10
170.514369
 20
-144.524147
 30
0.0
 40
4.0
100
AcDbArc
 50
180.0
 51
263.471779
  0
ARC
  5
1B4
100
AcDbEntity
  8
1
100
AcDbCircle
 10
154.514369
 20
-144.524147
 30
0.0
 40
4.0
100
AcDbArc
 50
276.528221
 51
360.0
  0
ARC
  5
1B5
100
AcDbEntity
  8
1
100
AcDbCircle
 10
154.514369
 20
-165.203092
 30
0.0
 40
4.0
100
AcDbArc
 50
0.0
 51
83.471779
  0
ARC
  5
1B6
100
AcDbEntity
  8
1
100
AcDbCircle
 10
170.514369
 20
-165.203092
 30
0.0
 40
4.0
100
AcDbArc
 50
96.528221
 51
180.0
  0
LINE
  5
1B7
100
AcDbEntity
  8
1
100
AcDbLine
 10
160.514369
 20
-130.480486
 30
0.0
 11
164.514369
 21
-130.480486
 31
0.0
  0
LINE
  5
1B8
100
AcDbEntity
  8
1
100
AcDbLine
 10
160.514369
 20
-140.08167
 30
0.0
 11
164.514369
 21
-140.08167
 31
0.0
  0
ARC
  5
1B9
100
AcDbEntity
  8
1
100
AcDbCircle
 10
164.514369
 20
-132.480486
 30
0.0
 40
2.0
100
AcDbArc
 50
0.0
 51
90.0
  0
ARC
  5
1BA
100
AcDbEntity
  8
1
100
AcDbCircle
 10
160.514369
 20
-132.480486
 30
0.0
 40
2.0
100
AcDbArc
 50
90.0
 51
180.0
  0
ARC
  5
1BB
100
AcDbEntity
  8
1
100
AcDbCircle
 10
160.514369
 20
-138.08167
 30
0.0
 40
2.0
100
AcDbArc
 50
180.0
 51
270.0
  0
ARC
  5
1BC
100
AcDbEntity
  8
1
100
AcDbCircle
 10
164.514369
 20
-138.08167
 30
0.0
 40
2.0
100
AcDbArc
 50
270.0
 51
360.0
  0
LINE
  5
1BD
100
AcDbEntity
  8
1
100
AcDbLine
 10
160.514369
 20
-146.480657
 30
0.0
 11
164.514369
 21
-146.480657
 31
0.0
  0
LINE
  5
1BE
100
AcDbEntity
  8
1
100
AcDbLine
 10
160.514369
 20
-166.584311
 30
0.0
 11
164.514369
 21
-166.584311
 31
0.0
  0
ARC
  5
1BF
100
AcDbEntity
  8
1
100
AcDbCircle
 10
164.514369
 20
-168.584311
 30
0.0
 40
2.0
100
AcDbArc
 50
360.0
 51
90.0
  0
ARC
  5
1C0
100
AcDbEntity
  8
1
100
AcDbCircle
 10
160.514369
 20
-168.584311
 30
0.0
 40
2.0
100
AcDbArc
 50
90.0
 51
180.0
  0
LINE
  5
1C1
100
AcDbEntity
  8
1
100
AcDbLine
 10
142.514369
 20
-177.471779
 30
0.0
 11
154.514369
 21
-177.471779
 31
0.0
  0
LINE
  5
1C2
100
AcDbEntity
  8
1
100
AcDbLine
 10
170.514369
 20
-177.471779
 30
0.0
 11
183.514369
 21
-177.471779
 31
0.0
  0
LINE
  5
1C3
100
AcDbEntity
  8
1
100
AcDbLine
 10
139.514369
 20
-179.729031
 30
0.0
 11
154.514369
 21
-179.729031
 31
0.0
  0
LINE
  5
1C4
100
AcDbEntity
  8
1
100
AcDbLine
 10
170.514369
 20
-179.729031
 30
0.0
 11
196.514369
 21
-179.729031
 31
0.0
  0
ARC
  5
1C5
100
AcDbEntity
  8
1
100
AcDbCircle
 10
170.514369
 20
-173.471779
 30
0.0
 40
4.0
100
AcDbArc
 50
180.0
 51
270.0
  0
ARC
  5
1C6
100
AcDbEntity
  8
1
100
AcDbCircle
 10
170.514369
 20
-175.729031
 30
0.0
 40
4.0
100
AcDbArc
 50
180.0
 51
270.0
  0
ARC
  5
1C7
100
AcDbEntity
  8
1
100
AcDbCircle
 10
154.514369
 20
-173.471779
 30
0.0
 40
4.0
100
AcDbArc
 50
270.0
 51
360.0
  0
ARC
  5
1C8
100
AcDbEntity
  8
1
100
AcDbCircle
 10
154.514369
 20
-175.729031
 30
0.0
 40
4.0
100
AcDbArc
 50
270.0
 51
360.0
  0
LINE
  5
1C9
100
AcDbEntity
  8
1
100
AcDbLine
 10
175.738127
 20
-411.387296
 30
0.0
 11
175.738127
 21
-406.004334
 31
0.0
  0
LINE
  5
1CA
100
AcDbEntity
  8
1
100
AcDbLine
 10
149.290611
 20
-411.387296
 30
0.0
 11
149.290611
 21
-406.004334
 31
0.0
  0
LINE
  5
1CB
100
AcDbEntity
  8
1
100
AcDbLine
 10
141.514369
 20
-414.387296
 30
0.0
 11
146.290611
 21
-414.387296
 31
0.0
  0
LINE
  5
1CC
100
AcDbEntity
  8
1
100
AcDbLine
 10
178.738127
 20
-414.387296
 30
0.0
 11
183.514369
 21
-414.387296
 31
0.0
  0
ARC
  5
1CD
100
AcDbEntity
  8
1
100
AcDbCircle
 10
146.290611
 20
-411.387296
 30
0.0
 40
3.0
100
AcDbArc
 50
270.0
 51
360.0
  0
ARC
  5
1CE
100
AcDbEntity
  8
1
100
AcDbCircle
 10
178.738127
 20
-411.387296
 30
0.0
 40
3.0
100
AcDbArc
 50
180.0
 51
270.0
  0
LINE
  5
1CF
100
AcDbEntity
  8
1
100
AcDbLine
 10
158.514369
 20
-378.552535
 30
0.0
 11
166.514369
 21
-378.552535
 31
0.0
  0
ARC
  5
1D0
100
AcDbEntity
  8
1
100
AcDbCircle
 10
170.514369
 20
-382.552535
 30
0.0
 40
4.0
100
AcDbArc
 50
90.0
 51
180.0
  0
ARC
  5
1D1
100
AcDbEntity
  8
1
100
AcDbCircle
 10
154.514369
 20
-382.552535
 30
0.0
 40
4.0
100
AcDbArc
 50
0.0
 51
90.0
  0
LINE
  5
1D2
100
AcDbEntity
  8
1
100
AcDbLine
 10
166.514369
 20
-382.552535
 30
0.0
 11
166.514369
 21
-395.664861
 31
0.0
  0
LINE
  5
1D3
100
AcDbEntity
  8
1
100
AcDbLine
 10
158.514369
 20
-382.552535
 30
0.0
 11
158.514369
 21
-395.664861
 31
0.0
  0
LINE
  5
1D4
100
AcDbEntity
  8
1
100
AcDbLine
 10
160.514369
 20
-394.283642
 30
0.0
 11
164.514369
 21
-394.283642
 31
0.0
  0
ARC
  5
1D5
100
AcDbEntity
  8
1
100
AcDbCircle
 10
164.514369
 20
-392.283642
 30
0.0
 40
2.0
100
AcDbArc
 50
270.0
 51
0.0
  0
ARC
  5
1D6
100
AcDbEntity
  8
1
100
AcDbCircle
 10
160.514369
 20
-392.283642
 30
0.0
 40
2.0
100
AcDbArc
 50
180.0
 51
270.0
  0
ARC
  5
1D7
100
AcDbEntity
  8
1
100
AcDbCircle
 10
170.514369
 20
-395.664861
 30
0.0
 40
4.0
100
AcDbArc
 50
180.0
 51
263.471779
  0
ARC
  5
1D8
100
AcDbEntity
  8
1
100
AcDbCircle
 10
154.514369
 20
-395.664861
 30
0.0
 40
4.0
100
AcDbArc
 50
276.528221
 51
360.0
  0
LINE
  5
1D9
100
AcDbEntity
  8
1
100
AcDbLine
 10
139.514369
 20
-381.138922
 30
0.0
 11
154.514369
 21
-381.138922
 31
0.0
  0
LINE
  5
1DA
100
AcDbEntity
  8
1
100
AcDbLine
 10
170.514369
 20
-381.138922
 30
0.0
 11
196.514369
 21
-381.138922
 31
0.0
  0
LINE
  5
1DB
100
AcDbEntity
  8
1
100
AcDbLine
 10
142.514369
 20
-383.396174
 30
0.0
 11
154.514369
 21
-383.396174
 31
0.0
  0
LINE
  5
1DC
100
AcDbEntity
  8
1
100
AcDbLine
 10
170.514369
 20
-383.396174
 30
0.0
 11
183.514369
 21
-383.396174
 31
0.0
  0
ARC
  5
1DD
100
AcDbEntity
  8
1
100
AcDbCircle
 10
170.514369
 20
-387.396174
 30
0.0
 40
4.0
100
AcDbArc
 50
90.0
 51
180.0
  0
ARC
  5
1DE
100
AcDbEntity
  8
1
100
AcDbCircle
 10
170.514369
 20
-385.138922
 30
0.0
 40
4.0
100
AcDbArc
 50
90.0
 51
180.0
  0
ARC
  5
1DF
100
AcDbEntity
  8
1
100
AcDbCircle
 10
154.514369
 20
-387.396174
 30
0.0
 40
4.0
100
AcDbArc
 50
0.0
 51
90.0
  0
ARC
  5
1E0
100
AcDbEntity
  8
1
100
AcDbCircle
 10
154.514369
 20
-385.138922
 30
0.0
 40
4.0
100
AcDbArc
 50
0.0
 51
90.0
  0
LINE
  5
1E1
100
AcDbEntity
  8
1
100
AcDbLine
 10
141.514369
 20
-431.933977
 30
0.0
 11
183.514369
 21
-431.933977
 31
0.0
  0
LINE
  5
1E2
100
AcDbEntity
  8
1
100
AcDbLine
 10
-448.485631
 20
-431.933977
 30
0.0
 11
-393.485631
 21
-431.933977
 31
0.0
  0
LINE
  5
1E3
100
AcDbEntity
  8
1
100
AcDbLine
 10
141.414369
 20
-437.933977
 30
0.0
 11
183.614369
 21
-437.933977
 31
0.0
  0
LINE
  5
1E4
100
AcDbEntity
  8
1
100
AcDbLine
 10
-448.485631
 20
-437.933977
 30
0.0
 11
-393.485631
 21
-437.933977
 31
0.0
  0
LINE
  5
1E5
100
AcDbEntity
  8
1
100
AcDbLine
 10
-436.235631
 20
-439.433977
 30
0.0
 11
-436.235631
 21
-442.943229
 31
0.0
  0
LINE
  5
1E6
100
AcDbEntity
  8
1
100
AcDbLine
 10
-436.235631
 20
-442.943229
 30
0.0
 11
-437.085631
 21
-443.433977
 31
0.0
  0
LINE
  5
1E7
100
AcDbEntity
  8
1
100
AcDbLine
 10
-439.110631
 20
-439.433977
 30
0.0
 11
-439.110631
 21
-442.943229
 31
0.0
  0
ARC
  5
1E8
100
AcDbEntity
  8
1
100
AcDbCircle
 10
-437.673131
 20
-441.095274
 30
0.0
 40
2.341227
100
AcDbArc
 50
232.121121
 51
307.878879
  0
ARC
  5
1E9
100
AcDbEntity
  8
1
100
AcDbCircle
 10
-441.985631
 20
-434.811501
 30
0.0
 40
8.625
100
AcDbArc
 50
250.528777
 51
289.471219
  0
LINE
  5
1EA
100
AcDbEntity
  8
1
100
AcDbLine
 10
-447.735631
 20
-439.433977
 30
0.0
 11
-447.735631
 21
-442.943229
 31
0.0
  0
LINE
  5
1EB
100
AcDbEntity
  8
1
100
AcDbLine
 10
-447.735631
 20
-442.943229
 30
0.0
 11
-446.885631
 21
-443.433977
 31
0.0
  0
LINE
  5
1EC
100
AcDbEntity
  8
1
100
AcDbLine
 10
-446.885631
 20
-443.433977
 30
0.0
 11
-437.085631
 21
-443.433977
 31
0.0
  0
LINE
  5
1ED
100
AcDbEntity
  8
1
100
AcDbLine
 10
-444.860631
 20
-439.433977
 30
0.0
 11
-444.860631
 21
-442.943229
 31
0.0
  0
ARC
  5
1EE
100
AcDbEntity
  8
1
100
AcDbCircle
 10
-446.298131
 20
-441.095274
 30
0.0
 40
2.341227
100
AcDbArc
 50
232.121121
 51
307.878879
  0
LINE
  5
1EF
100
AcDbEntity
  8
1
100
AcDbLine
 10
-435.885631
 20
-437.933977
 30
0.0
 11
-435.885631
 21
-439.433977
 31
0.0
  0
LINE
  5
1F0
100
AcDbEntity
  8
1
100
AcDbLine
 10
-435.885631
 20
-439.433977
 30
0.0
 11
-448.085631
 21
-439.433977
 31
0.0
  0
LINE
  5
1F1
100
AcDbEntity
  8
1
100
AcDbLine
 10
-448.085631
 20
-439.433977
 30
0.0
 11
-448.085631
 21
-437.933977
 31
0.0
  0
LINE
  5
1F2
100
AcDbEntity
  8
1
100
AcDbLine
 10
-441.985631
 20
-439.433977
 30
0.0
 11
-442.485631
 21
-437.933977
 31
0.0
  0
LINE
  5
1F3
100
AcDbEntity
  8
1
100
AcDbLine
 10
-441.985631
 20
-437.933977
 30
0.0
 11
-441.485631
 21
-439.433977
 31
0.0
  0
LINE
  5
1F4
100
AcDbEntity
  8
1
100
AcDbLine
 10
-394.235631
 20
-439.433977
 30
0.0
 11
-394.235631
 21
-442.943229
 31
0.0
  0
LINE
  5
1F5
100
AcDbEntity
  8
1
100
AcDbLine
 10
-394.235631
 20
-442.943229
 30
0.0
 11
-395.085631
 21
-443.433977
 31
0.0
  0
LINE
  5
1F6
100
AcDbEntity
  8
1
100
AcDbLine
 10
-397.110631
 20
-439.433977
 30
0.0
 11
-397.110631
 21
-442.943229
 31
0.0
  0
ARC
  5
1F7
100
AcDbEntity
  8
1
100
AcDbCircle
 10
-395.673131
 20
-441.095274
 30
0.0
 40
2.341227
100
AcDbArc
 50
232.121121
 51
307.878879
  0
ARC
  5
1F8
100
AcDbEntity
  8
1
100
AcDbCircle
 10
-399.985631
 20
-434.811501
 30
0.0
 40
8.625
100
AcDbArc
 50
250.528777
 51
289.471219
  0
LINE
  5
1F9
100
AcDbEntity
  8
1
100
AcDbLine
 10
-405.735631
 20
-439.433977
 30
0.0
 11
-405.735631
 21
-442.943229
 31
0.0
  0
LINE
  5
1FA
100
AcDbEntity
  8
1
100
AcDbLine
 10
-405.735631
 20
-442.943229
 30
0.0
 11
-404.885631
 21
-443.433977
 31
0.0
  0
LINE
  5
1FB
100
AcDbEntity
  8
1
100
AcDbLine
 10
-404.885631
 20
-443.433977
 30
0.0
 11
-395.085631
 21
-443.433977
 31
0.0
  0
LINE
  5
1FC
100
AcDbEntity
  8
1
100
AcDbLine
 10
-402.860631
 20
-439.433977
 30
0.0
 11
-402.860631
 21
-442.943229
 31
0.0
  0
ARC
  5
1FD
100
AcDbEntity
  8
1
100
AcDbCircle
 10
-404.298131
 20
-441.095274
 30
0.0
 40
2.341227
100
AcDbArc
 50
232.121121
 51
307.878879
  0
LINE
  5
1FE
100
AcDbEntity
  8
1
100
AcDbLine
 10
-393.885631
 20
-437.933977
 30
0.0
 11
-393.885631
 21
-439.433977
 31
0.0
  0
LINE
  5
1FF
100
AcDbEntity
  8
1
100
AcDbLine
 10
-393.885631
 20
-439.433977
 30
0.0
 11
-406.085631
 21
-439.433977
 31
0.0
  0
LINE
  5
200
100
AcDbEntity
  8
1
100
AcDbLine
 10
-406.085631
 20
-439.433977
 30
0.0
 11
-406.085631
 21
-437.933977
 31
0.0
  0
LINE
  5
201
100
AcDbEntity
  8
1
100
AcDbLine
 10
-399.985631
 20
-439.433977
 30
0.0
 11
-400.485631
 21
-437.933977
 31
0.0
  0
LINE
  5
202
100
AcDbEntity
  8
1
100
AcDbLine
 10
-399.985631
 20
-437.933977
 30
0.0
 11
-399.485631
 21
-439.433977
 31
0.0
  0
LINE
  5
203
100
AcDbEntity
  8
1
100
AcDbLine
 10
182.514369
 20
-439.433977
 30
0.0
 11
182.514369
 21
-443.433977
 31
0.0
  0
ARC
  5
204
100
AcDbEntity
  8
1
100
AcDbCircle
 10
180.014369
 20
-436.820769
 30
0.0
 40
6.613208
100
AcDbArc
 50
247.788205
 51
292.211795
  0
LINE
  5
205
100
AcDbEntity
  8
1
100
AcDbLine
 10
172.514369
 20
-439.433977
 30
0.0
 11
172.514369
 21
-443.433977
 31
0.0
  0
LINE
  5
206
100
AcDbEntity
  8
1
100
AcDbLine
 10
172.514369
 20
-443.433977
 30
0.0
 11
182.514369
 21
-443.433977
 31
0.0
  0
LINE
  5
207
100
AcDbEntity
  8
1
100
AcDbLine
 10
177.514369
 20
-439.433977
 30
0.0
 11
177.514369
 21
-442.943229
 31
0.0
  0
ARC
  5
208
100
AcDbEntity
  8
1
100
AcDbCircle
 10
175.014369
 20
-436.820769
 30
0.0
 40
6.613208
100
AcDbArc
 50
247.788205
 51
292.211795
  0
LINE
  5
209
100
AcDbEntity
  8
1
100
AcDbLine
 10
183.614369
 20
-437.933977
 30
0.0
 11
183.614369
 21
-439.433977
 31
0.0
  0
LINE
  5
20A
100
AcDbEntity
  8
1
100
AcDbLine
 10
183.614369
 20
-439.433977
 30
0.0
 11
171.414369
 21
-439.433977
 31
0.0
  0
LINE
  5
20B
100
AcDbEntity
  8
1
100
AcDbLine
 10
171.414369
 20
-439.433977
 30
0.0
 11
171.414369
 21
-437.933977
 31
0.0
  0
LINE
  5
20C
100
AcDbEntity
  8
1
100
AcDbLine
 10
142.514369
 20
-439.433977
 30
0.0
 11
142.514369
 21
-443.433977
 31
0.0
  0
ARC
  5
20D
100
AcDbEntity
  8
1
100
AcDbCircle
 10
145.014369
 20
-436.820769
 30
0.0
 40
6.613208
100
AcDbArc
 50
247.788205
 51
292.211795
  0
LINE
  5
20E
100
AcDbEntity
  8
1
100
AcDbLine
 10
152.514369
 20
-439.433977
 30
0.0
 11
152.514369
 21
-443.433977
 31
0.0
  0
LINE
  5
20F
100
AcDbEntity
  8
1
100
AcDbLine
 10
152.514369
 20
-443.433977
 30
0.0
 11
142.514369
 21
-443.433977
 31
0.0
  0
LINE
  5
210
100
AcDbEntity
  8
1
100
AcDbLine
 10
147.514369
 20
-439.433977
 30
0.0
 11
147.514369
 21
-442.943229
 31
0.0
  0
ARC
  5
211
100
AcDbEntity
  8
1
100
AcDbCircle
 10
150.014369
 20
-436.820769
 30
0.0
 40
6.613208
100
AcDbArc
 50
247.788205
 51
292.211795
  0
LINE
  5
212
100
AcDbEntity
  8
1
100
AcDbLine
 10
141.414369
 20
-437.933977
 30
0.0
 11
141.414369
 21
-439.433977
 31
0.0
  0
LINE
  5
213
100
AcDbEntity
  8
1
100
AcDbLine
 10
141.414369
 20
-439.433977
 30
0.0
 11
153.614369
 21
-439.433977
 31
0.0
  0
LINE
  5
214
100
AcDbEntity
  8
1
100
AcDbLine
 10
153.614369
 20
-439.433977
 30
0.0
 11
153.614369
 21
-437.933977
 31
0.0
  0
LINE
  5
215
100
AcDbEntity
  8
1
100
AcDbLine
 10
-440.485631
 20
-206.254195
 30
0.0
 11
-440.976965
 21
-205.403179
 31
0.0
  0
ARC
  5
216
100
AcDbEntity
  8
1
100
AcDbCircle
 10
-445.307092
 20
-207.903179
 30
0.0
 40
5.0
100
AcDbArc
 50
30.0
 51
108.537641
  0
ARC
  5
217
100
AcDbEntity
  8
1
100
AcDbCircle
 10
-441.84239
 20
-206.254195
 30
0.0
 40
1.356759
100
AcDbArc
 50
285.704125
 51
360.0
  0
LINE
  5
218
100
AcDbEntity
  8
1
100
AcDbLine
 10
-440.485631
 20
-354.613758
 30
0.0
 11
-440.976965
 21
-355.464774
 31
0.0
  0
ARC
  5
219
100
AcDbEntity
  8
1
100
AcDbCircle
 10
-445.307092
 20
-352.964774
 30
0.0
 40
5.0
100
AcDbArc
 50
251.462359
 51
330.0
  0
ARC
  5
21A
100
AcDbEntity
  8
1
100
AcDbCircle
 10
-441.84239
 20
-354.613758
 30
0.0
 40
1.356759
100
AcDbArc
 50
0.0
 51
74.295875
  0
ARC
  5
21B
100
AcDbEntity
  8
1
100
AcDbCircle
 10
-420.985631
 20
-280.433977
 30
0.0
 40
75.699353
100
AcDbArc
 50
105.704125
 51
254.295875
  0
ARC
  5
21C
100
AcDbEntity
  8
1
100
AcDbCircle
 10
-420.985631
 20
-280.433977
 30
0.0
 40
75.699353
100
AcDbArc
 50
284.882328
 51
75.117672
  0
ARC
  5
21D
100
AcDbEntity
  8
1
100
AcDbCircle
 10
-420.985631
 20
-280.433977
 30
0.0
 40
74.179782
100
AcDbArc
 50
105.240715
 51
254.759285
  0
ARC
  5
21E
100
AcDbEntity
  8
1
100
AcDbCircle
 10
-420.985631
 20
-280.433977
 30
0.0
 40
74.179782
100
AcDbArc
 50
285.240715
 51
74.759285
  0
LINE
  5
21F
100
AcDbEntity
  8
1
100
AcDbLine
 10
-438.485631
 20
-235.433977
 30
0.0
 11
-402.485631
 21
-235.433977
 31
0.0
  0
LINE
  5
220
100
AcDbEntity
  8
1
100
AcDbLine
 10
-440.485631
 20
-233.433977
 30
0.0
 11
-440.485631
 21
-202.721365
 31
0.0
  0
LINE
  5
221
100
AcDbEntity
  8
1
100
AcDbLine
 10
-400.485631
 20
-213.433977
 30
0.0
 11
-400.485631
 21
-347.433977
 31
0.0
  0
ARC
  5
222
100
AcDbEntity
  8
1
100
AcDbCircle
 10
-438.485631
 20
-233.433977
 30
0.0
 40
2.0
100
AcDbArc
 50
180.0
 51
270.0
  0
ARC
  5
223
100
AcDbEntity
  8
1
100
AcDbCircle
 10
-402.485631
 20
-233.433977
 30
0.0
 40
2.0
100
AcDbArc
 50
270.0
 51
360.0
  0
LINE
  5
224
100
AcDbEntity
  8
1
100
AcDbLine
 10
-401.485631
 20
-210.788225
 30
0.0
 11
-401.485631
 21
-207.433977
 31
0.0
  0
LINE
  5
225
100
AcDbEntity
  8
1
100
AcDbLine
 10
-412.485631
 20
-202.721365
 30
0.0
 11
-440.485631
 21
-202.721365
 31
0.0
  0
ARC
  5
226
100
AcDbEntity
  8
1
100
AcDbCircle
 10
-419.485631
 20
-280.433977
 30
0.0
 40
80.5
100
AcDbArc
 50
98.141305
 51
105.121665
  0
ARC
  5
227
100
AcDbEntity
  8
1
100
AcDbCircle
 10
-418.885631
 20
18.090204
 30
0.0
 40
219.164241
100
AcDbArc
 50
266.861288
 51
271.67338
  0
LINE
  5
228
100
AcDbEntity
  8
1
100
AcDbLine
 10
-412.485631
 20
-207.433977
 30
0.0
 11
-412.485631
 21
-200.980571
 31
0.0
  0
LINE
  5
229
100
AcDbEntity
  8
1
100
AcDbLine
 10
-412.485631
 20
-207.433977
 30
0.0
 11
-401.485631
 21
-207.433977
 31
0.0
  0
ARC
  5
22A
100
AcDbEntity
  8
1
100
AcDbCircle
 10
-418.885631
 20
-301.539147
 30
0.0
 40
96.860632
100
AcDbArc
 50
82.939482
 51
83.479123
  0
LINE
  5
22B
100
AcDbEntity
  8
1
100
AcDbLine
 10
-406.97975
 20
-205.413021
 30
0.0
 11
-406.97975
 21
-206.133977
 31
0.0
  0
LINE
  5
22C
100
AcDbEntity
  8
1
100
AcDbLine
 10
-407.885631
 20
-206.133977
 30
0.0
 11
-406.97975
 21
-206.133977
 31
0.0
  0
LINE
  5
22D
100
AcDbEntity
  8
1
100
AcDbLine
 10
-407.885631
 20
-199.993688
 30
0.0
 11
-407.885631
 21
-207.433977
 31
0.0
  0
LINE
  5
22E
100
AcDbEntity
  8
1
100
AcDbLine
 10
-429.885631
 20
-200.797814
 30
0.0
 11
-429.885631
 21
-199.421385
 31
0.0
  0
LINE
  5
22F
100
AcDbEntity
  8
1
100
AcDbLine
 10
-401.543409
 20
-206.238972
 30
0.0
 11
-401.543409
 21
-207.433977
 31
0.0
  0
ARC
  5
230
100
AcDbEntity
  8
1
100
AcDbCircle
 10
-415.775109
 20
-281.607061
 30
0.0
 40
76.7
100
AcDbArc
 50
79.306788
 51
83.415281
  0
LINE
  5
231
100
AcDbEntity
  8
1
100
AcDbLine
 10
-418.985631
 20
-211.433977
 30
0.0
 11
-402.485631
 21
-211.433977
 31
0.0
  0
ARC
  5
232
100
AcDbEntity
  8
1
100
AcDbCircle
 10
-402.485631
 20
-213.433977
 30
0.0
 40
2.0
100
AcDbArc
 50
0.0
 51
90.0
  0
ARC
  5
233
100
AcDbEntity
  8
1
100
AcDbCircle
 10
-399.485631
 20
-210.788225
 30
0.0
 40
2.0
100
AcDbArc
 50
180.0
 51
221.409622
  0
ARC
  5
234
100
AcDbEntity
  8
1
100
AcDbCircle
 10
-418.985631
 20
-209.433977
 30
0.0
 40
2.0
100
AcDbArc
 50
180.0
 51
270.0
  0
LINE
  5
235
100
AcDbEntity
  8
1
  6
CENTER
 62
     2
100
AcDbLine
 10
-437.090207
 20
-227.433977
 30
0.0
 11
-422.472989
 21
-227.433977
 31
0.0
  0
LINE
  5
236
100
AcDbEntity
  8
1
100
AcDbLine
 10
-431.985631
 20
-219.433977
 30
0.0
 11
-422.985631
 21
-219.433977
 31
0.0
  0
ARC
  5
237
100
AcDbEntity
  8
1
100
AcDbCircle
 10
-431.985631
 20
-227.433977
 30
0.0
 40
8.0
100
AcDbArc
 50
90.0
 51
270.0
  0
ARC
  5
238
100
AcDbEntity
  8
1
100
AcDbCircle
 10
-422.985631
 20
-217.433977
 30
0.0
 40
2.0
100
AcDbArc
 50
270.0
 51
360.0
  0
LINE
  5
239
100
AcDbEntity
  8
1
100
AcDbLine
 10
-414.661076
 20
-213.433977
 30
0.0
 11
-414.661076
 21
-233.433977
 31
0.0
  0
ARC
  5
23A
100
AcDbEntity
  8
1
100
AcDbCircle
 10
-416.661076
 20
-233.433977
 30
0.0
 40
2.0
100
AcDbArc
 50
270.0
 51
360.0
  0
ARC
  5
23B
100
AcDbEntity
  8
1
100
AcDbCircle
 10
-416.661076
 20
-213.433977
 30
0.0
 40
2.0
100
AcDbArc
 50
0.0
 51
90.0
  0
LINE
  5
23C
100
AcDbEntity
  8
1
100
AcDbLine
 10
-438.485631
 20
-325.433977
 30
0.0
 11
-402.485631
 21
-325.433977
 31
0.0
  0
LINE
  5
23D
100
AcDbEntity
  8
1
100
AcDbLine
 10
-440.485631
 20
-327.433977
 30
0.0
 11
-440.485631
 21
-358.146588
 31
0.0
  0
ARC
  5
23E
100
AcDbEntity
  8
1
100
AcDbCircle
 10
-438.485631
 20
-327.433977
 30
0.0
 40
2.0
100
AcDbArc
 50
90.0
 51
180.0
  0
ARC
  5
23F
100
AcDbEntity
  8
1
100
AcDbCircle
 10
-402.485631
 20
-327.433977
 30
0.0
 40
2.0
100
AcDbArc
 50
0.0
 51
90.0
  0
LINE
  5
240
100
AcDbEntity
  8
1
100
AcDbLine
 10
-401.485631
 20
-350.079728
 30
0.0
 11
-401.485631
 21
-353.433977
 31
0.0
  0
LINE
  5
241
100
AcDbEntity
  8
1
100
AcDbLine
 10
-412.485631
 20
-358.146588
 30
0.0
 11
-440.485631
 21
-358.146588
 31
0.0
  0
ARC
  5
242
100
AcDbEntity
  8
1
100
AcDbCircle
 10
-419.485631
 20
-280.433977
 30
0.0
 40
80.5
100
AcDbArc
 50
254.878335
 51
261.858695
  0
ARC
  5
243
100
AcDbEntity
  8
1
100
AcDbCircle
 10
-418.885631
 20
-578.958157
 30
0.0
 40
219.164241
100
AcDbArc
 50
88.32662
 51
93.138712
  0
LINE
  5
244
100
AcDbEntity
  8
1
100
AcDbLine
 10
-412.485631
 20
-353.433977
 30
0.0
 11
-412.485631
 21
-359.887382
 31
0.0
  0
LINE
  5
245
100
AcDbEntity
  8
1
100
AcDbLine
 10
-412.485631
 20
-353.433977
 30
0.0
 11
-401.485631
 21
-353.433977
 31
0.0
  0
ARC
  5
246
100
AcDbEntity
  8
1
100
AcDbCircle
 10
-418.885631
 20
-259.328806
 30
0.0
 40
96.860632
100
AcDbArc
 50
276.520877
 51
277.060518
  0
LINE
  5
247
100
AcDbEntity
  8
1
100
AcDbLine
 10
-406.97975
 20
-355.454932
 30
0.0
 11
-406.97975
 21
-354.733977
 31
0.0
  0
LINE
  5
248
100
AcDbEntity
  8
1
100
AcDbLine
 10
-407.885631
 20
-354.733977
 30
0.0
 11
-406.97975
 21
-354.733977
 31
0.0
  0
LINE
  5
249
100
AcDbEntity
  8
1
100
AcDbLine
 10
-407.885631
 20
-360.874265
 30
0.0
 11
-407.885631
 21
-353.433977
 31
0.0
  0
LINE
  5
24A
100
AcDbEntity
  8
1
100
AcDbLine
 10
-429.885631
 20
-360.070139
 30
0.0
 11
-429.885631
 21
-361.446568
 31
0.0
  0
LINE
  5
24B
100
AcDbEntity
  8
1
100
AcDbLine
 10
-401.543409
 20
-354.628981
 30
0.0
 11
-401.543409
 21
-353.433977
 31
0.0
  0
ARC
  5
24C
100
AcDbEntity
  8
1
100
AcDbCircle
 10
-415.775109
 20
-279.260892
 30
0.0
 40
76.7
100
AcDbArc
 50
276.584719
 51
280.693212
  0
LINE
  5
24D
100
AcDbEntity
  8
1
100
AcDbLine
 10
-418.985631
 20
-349.433977
 30
0.0
 11
-402.485631
 21
-349.433977
 31
0.0
  0
ARC
  5
24E
100
AcDbEntity
  8
1
100
AcDbCircle
 10
-402.485631
 20
-347.433977
 30
0.0
 40
2.0
100
AcDbArc
 50
270.0
 51
360.0
  0
ARC
  5
24F
100
AcDbEntity
  8
1
100
AcDbCircle
 10
-399.485631
 20
-350.079728
 30
0.0
 40
2.0
100
AcDbArc
 50
138.590378
 51
180.0
  0
ARC
  5
250
100
AcDbEntity
  8
1
100
AcDbCircle
 10
-418.985631
 20
-351.433977
 30
0.0
 40
2.0
100
AcDbArc
 50
90.0
 51
180.0
  0
LINE
  5
251
100
AcDbEntity
  8
1
  6
CENTER
 62
     2
100
AcDbLine
 10
-426.008862
 20
-333.433977
 30
0.0
 11
-411.730069
 21
-333.433977
 31
0.0
  0
LINE
  5
252
100
AcDbEntity
  8
1
100
AcDbLine
 10
-431.985631
 20
-341.433977
 30
0.0
 11
-422.985631
 21
-341.433977
 31
0.0
  0
ARC
  5
253
100
AcDbEntity
  8
1
100
AcDbCircle
 10
-431.985631
 20
-333.433977
 30
0.0
 40
8.0
100
AcDbArc
 50
90.0
 51
270.0
  0
ARC
  5
254
100
AcDbEntity
  8
1
100
AcDbCircle
 10
-422.985631
 20
-343.433977
 30
0.0
 40
2.0
100
AcDbArc
 50
0.0
 51
90.0
  0
LINE
  5
255
100
AcDbEntity
  8
1
100
AcDbLine
 10
-414.661076
 20
-347.433977
 30
0.0
 11
-414.661076
 21
-327.433977
 31
0.0
  0
ARC
  5
256
100
AcDbEntity
  8
1
100
AcDbCircle
 10
-416.661076
 20
-327.433977
 30
0.0
 40
2.0
100
AcDbArc
 50
0.0
 51
90.0
  0
ARC
  5
257
100
AcDbEntity
  8
1
100
AcDbCircle
 10
-416.661076
 20
-347.433977
 30
0.0
 40
2.0
100
AcDbArc
 50
270.0
 51
360.0
  0
LINE
  5
258
100
AcDbEntity
  8
1
100
AcDbLine
 10
-435.485631
 20
-323.433977
 30
0.0
 11
-435.485631
 21
-237.433977
 31
0.0
  0
LINE
  5
259
100
AcDbEntity
  8
1
100
AcDbLine
 10
-406.485631
 20
-323.433977
 30
0.0
 11
-406.485631
 21
-237.433977
 31
0.0
  0
LINE
  5
25A
100
AcDbEntity
  8
1
100
AcDbLine
 10
-441.485631
 20
-325.433977
 30
0.0
 11
-441.485631
 21
-235.433977
 31
0.0
  0
ARC
  5
25B
100
AcDbEntity
  8
1
100
AcDbCircle
 10
-408.485631
 20
-237.433977
 30
0.0
 40
2.0
100
AcDbArc
 50
0.0
 51
72.542397
  0
ARC
  5
25C
100
AcDbEntity
  8
1
100
AcDbCircle
 10
-433.485631
 20
-237.433977
 30
0.0
 40
2.0
100
AcDbArc
 50
90.0
 51
180.0
  0
ARC
  5
25D
100
AcDbEntity
  8
1
100
AcDbCircle
 10
-398.485631
 20
-237.433977
 30
0.0
 40
2.0
100
AcDbArc
 50
90.0
 51
180.0
  0
ARC
  5
25E
100
AcDbEntity
  8
1
100
AcDbCircle
 10
-398.485631
 20
-323.433977
 30
0.0
 40
2.0
100
AcDbArc
 50
180.0
 51
270.0
  0
ARC
  5
25F
100
AcDbEntity
  8
1
100
AcDbCircle
 10
-408.485631
 20
-323.433977
 30
0.0
 40
2.0
100
AcDbArc
 50
287.457603
 51
360.0
  0
ARC
  5
260
100
AcDbEntity
  8
1
100
AcDbCircle
 10
-433.485631
 20
-323.433977
 30
0.0
 40
2.0
100
AcDbArc
 50
180.0
 51
270.0
  0
ARC
  5
261
100
AcDbEntity
  8
1
100
AcDbCircle
 10
-443.485631
 20
-237.433977
 30
0.0
 40
2.0
100
AcDbArc
 50
0.0
 51
90.0
  0
ARC
  5
262
100
AcDbEntity
  8
1
100
AcDbCircle
 10
-443.485631
 20
-323.433977
 30
0.0
 40
2.0
100
AcDbArc
 50
270.0
 51
360.0
  0
ARC
  5
263
100
AcDbEntity
  8
1
100
AcDbCircle
 10
-398.485631
 20
-220.519454
 30
0.0
 40
2.0
100
AcDbArc
 50
69.417086
 51
180.0
  0
ARC
  5
264
100
AcDbEntity
  8
1
100
AcDbCircle
 10
-442.485631
 20
-220.153383
 30
0.0
 40
2.0
100
AcDbArc
 50
0.0
 51
109.629557
  0
ARC
  5
265
100
AcDbEntity
  8
1
100
AcDbCircle
 10
-442.485631
 20
-340.71457
 30
0.0
 40
2.0
100
AcDbArc
 50
250.370443
 51
360.0
  0
ARC
  5
266
100
AcDbEntity
  8
1
100
AcDbCircle
 10
-398.485631
 20
-340.348499
 30
0.0
 40
2.0
100
AcDbArc
 50
180.0
 51
290.582914
  0
LINE
  5
267
100
AcDbEntity
  8
1
100
AcDbLine
 10
-398.485631
 20
-229.433977
 30
0.0
 11
-385.110849
 21
-229.433977
 31
0.0
  0
LINE
  5
268
100
AcDbEntity
  8
1
100
AcDbLine
 10
-442.485631
 20
-229.433977
 30
0.0
 11
-456.860413
 21
-229.433977
 31
0.0
  0
LINE
  5
269
100
AcDbEntity
  8
1
100
AcDbLine
 10
-442.485631
 20
-331.433977
 30
0.0
 11
-456.860413
 21
-331.433977
 31
0.0
  0
LINE
  5
26A
100
AcDbEntity
  8
1
100
AcDbLine
 10
-398.485631
 20
-331.433977
 30
0.0
 11
-385.110849
 21
-331.433977
 31
0.0
  0
ARC
  5
26B
100
AcDbEntity
  8
1
100
AcDbCircle
 10
-420.985631
 20
-280.433977
 30
0.0
 40
66.0
100
AcDbArc
 50
55.906609
 51
69.417086
  0
ARC
  5
26C
100
AcDbEntity
  8
1
100
AcDbCircle
 10
-420.985631
 20
-280.433977
 30
0.0
 40
66.0
100
AcDbArc
 50
290.582914
 51
304.093391
  0
ARC
  5
26D
100
AcDbEntity
  8
1
100
AcDbCircle
 10
-420.985631
 20
-280.433977
 30
0.0
 40
66.0
100
AcDbArc
 50
235.906609
 51
250.370443
  0
ARC
  5
26E
100
AcDbEntity
  8
1
100
AcDbCircle
 10
-420.985631
 20
-280.433977
 30
0.0
 40
66.0
100
AcDbArc
 50
109.629557
 51
124.093391
  0
ARC
  5
26F
100
AcDbEntity
  8
1
100
AcDbCircle
 10
-373.583099
 20
-237.433977
 30
0.0
 40
2.0
100
AcDbArc
 50
42.211944
 51
90.0
  0
ARC
  5
270
100
AcDbEntity
  8
1
100
AcDbCircle
 10
-385.110849
 20
-227.433977
 30
0.0
 40
2.0
100
AcDbArc
 50
270.0
 51
55.906609
  0
ARC
  5
271
100
AcDbEntity
  8
1
100
AcDbCircle
 10
-456.860413
 20
-227.433977
 30
0.0
 40
2.0
100
AcDbArc
 50
124.093391
 51
270.0
  0
ARC
  5
272
100
AcDbEntity
  8
1
100
AcDbCircle
 10
-468.388162
 20
-237.433977
 30
0.0
 40
2.0
100
AcDbArc
 50
90.0
 51
137.788056
  0
ARC
  5
273
100
AcDbEntity
  8
1
100
AcDbCircle
 10
-456.860413
 20
-333.433977
 30
0.0
 40
2.0
100
AcDbArc
 50
90.0
 51
235.906609
  0
ARC
  5
274
100
AcDbEntity
  8
1
100
AcDbCircle
 10
-385.110849
 20
-333.433977
 30
0.0
 40
2.0
100
AcDbArc
 50
304.093391
 51
90.0
  0
ARC
  5
275
100
AcDbEntity
  8
1
100
AcDbCircle
 10
-398.485631
 20
-333.433977
 30
0.0
 40
2.0
100
AcDbArc
 50
90.0
 51
180.0
  0
ARC
  5
276
100
AcDbEntity
  8
1
100
AcDbCircle
 10
-442.485631
 20
-333.433977
 30
0.0
 40
2.0
100
AcDbArc
 50
360.0
 51
90.0
  0
ARC
  5
277
100
AcDbEntity
  8
1
100
AcDbCircle
 10
-442.485631
 20
-227.433977
 30
0.0
 40
2.0
100
AcDbArc
 50
270.0
 51
360.0
  0
ARC
  5
278
100
AcDbEntity
  8
1
100
AcDbCircle
 10
-398.485631
 20
-227.433977
 30
0.0
 40
2.0
100
AcDbArc
 50
180.0
 51
270.0
  0
LINE
  5
279
100
AcDbEntity
  8
1
100
AcDbLine
 10
-433.485631
 20
-277.433977
 30
0.0
 11
-429.885631
 21
-277.433977
 31
0.0
  0
LINE
  5
27A
100
AcDbEntity
  8
1
100
AcDbLine
 10
-433.485631
 20
-260.433977
 30
0.0
 11
-429.885631
 21
-260.433977
 31
0.0
  0
LINE
  5
27B
100
AcDbEntity
  8
1
100
AcDbLine
 10
-433.485631
 20
-254.433977
 30
0.0
 11
-429.885631
 21
-254.433977
 31
0.0
  0
LINE
  5
27C
100
AcDbEntity
  8
1
100
AcDbLine
 10
-482.402241
 20
-260.433977
 30
0.0
 11
-467.485631
 21
-260.433977
 31
0.0
  0
LINE
  5
27D
100
AcDbEntity
  8
1
100
AcDbLine
 10
-457.485631
 20
-260.433977
 30
0.0
 11
-443.485631
 21
-260.433977
 31
0.0
  0
LINE
  5
27E
100
AcDbEntity
  8
1
100
AcDbLine
 10
-484.790019
 20
-277.433977
 30
0.0
 11
-467.485631
 21
-277.433977
 31
0.0
  0
LINE
  5
27F
100
AcDbEntity
  8
1
100
AcDbLine
 10
-457.485631
 20
-277.433977
 30
0.0
 11
-443.485631
 21
-277.433977
 31
0.0
  0
LINE
  5
280
100
AcDbEntity
  8
1
100
AcDbLine
 10
-398.485631
 20
-277.433977
 30
0.0
 11
-384.485631
 21
-277.433977
 31
0.0
  0
LINE
  5
281
100
AcDbEntity
  8
1
100
AcDbLine
 10
-374.485631
 20
-277.433977
 30
0.0
 11
-357.181242
 21
-277.433977
 31
0.0
  0
LINE
  5
282
100
AcDbEntity
  8
1
100
AcDbLine
 10
-398.485631
 20
-260.433977
 30
0.0
 11
-384.485631
 21
-260.433977
 31
0.0
  0
LINE
  5
283
100
AcDbEntity
  8
1
100
AcDbLine
 10
-374.485631
 20
-260.433977
 30
0.0
 11
-359.569021
 21
-260.433977
 31
0.0
  0
LINE
  5
284
100
AcDbEntity
  8
1
100
AcDbLine
 10
-398.485631
 20
-254.433977
 30
0.0
 11
-384.485631
 21
-254.433977
 31
0.0
  0
LINE
  5
285
100
AcDbEntity
  8
1
100
AcDbLine
 10
-374.485631
 20
-254.433977
 30
0.0
 11
-363.435653
 21
-254.433977
 31
0.0
  0
LINE
  5
286
100
AcDbEntity
  8
1
100
AcDbLine
 10
-478.535609
 20
-254.433977
 30
0.0
 11
-467.485631
 21
-254.433977
 31
0.0
  0
LINE
  5
287
100
AcDbEntity
  8
1
100
AcDbLine
 10
-457.485631
 20
-254.433977
 30
0.0
 11
-443.485631
 21
-254.433977
 31
0.0
  0
LINE
  5
288
100
AcDbEntity
  8
1
100
AcDbLine
 10
-459.485631
 20
-275.433977
 30
0.0
 11
-459.485631
 21
-262.433977
 31
0.0
  0
LINE
  5
289
100
AcDbEntity
  8
1
100
AcDbLine
 10
-459.485631
 20
-252.433977
 30
0.0
 11
-459.485631
 21
-237.433977
 31
0.0
  0
LINE
  5
28A
100
AcDbEntity
  8
1
100
AcDbLine
 10
-465.485631
 20
-275.433977
 30
0.0
 11
-465.485631
 21
-262.433977
 31
0.0
  0
LINE
  5
28B
100
AcDbEntity
  8
1
100
AcDbLine
 10
-465.485631
 20
-252.433977
 30
0.0
 11
-465.485631
 21
-237.433977
 31
0.0
  0
LINE
  5
28C
100
AcDbEntity
  8
1
100
AcDbLine
 10
-382.485631
 20
-275.433977
 30
0.0
 11
-382.485631
 21
-262.433977
 31
0.0
  0
LINE
  5
28D
100
AcDbEntity
  8
1
100
AcDbLine
 10
-382.485631
 20
-252.433977
 30
0.0
 11
-382.485631
 21
-237.433977
 31
0.0
  0
LINE
  5
28E
100
AcDbEntity
  8
1
100
AcDbLine
 10
-376.485631
 20
-275.433977
 30
0.0
 11
-376.485631
 21
-262.433977
 31
0.0
  0
LINE
  5
28F
100
AcDbEntity
  8
1
100
AcDbLine
 10
-376.485631
 20
-252.433977
 30
0.0
 11
-376.485631
 21
-237.433977
 31
0.0
  0
ARC
  5
290
100
AcDbEntity
  8
1
100
AcDbCircle
 10
-420.985631
 20
-280.433977
 30
0.0
 40
66.0
100
AcDbArc
 50
25.94448
 51
42.211944
  0
ARC
  5
291
100
AcDbEntity
  8
1
100
AcDbCircle
 10
-420.985631
 20
-280.433977
 30
0.0
 40
66.0
100
AcDbArc
 50
137.788056
 51
154.05552
  0
ARC
  5
292
100
AcDbEntity
  8
1
100
AcDbCircle
 10
-420.985631
 20
-280.433977
 30
0.0
 40
66.0
100
AcDbArc
 50
4.480799
 51
16.334823
  0
ARC
  5
293
100
AcDbEntity
  8
1
100
AcDbCircle
 10
-420.985631
 20
-280.433977
 30
0.0
 40
66.0
100
AcDbArc
 50
163.665177
 51
175.519201
  0
LINE
  5
294
100
AcDbEntity
  8
1
100
AcDbLine
 10
-398.485631
 20
-235.433977
 30
0.0
 11
-384.485631
 21
-235.433977
 31
0.0
  0
LINE
  5
295
100
AcDbEntity
  8
1
100
AcDbLine
 10
-374.485631
 20
-235.433977
 30
0.0
 11
-373.583099
 21
-235.433977
 31
0.0
  0
LINE
  5
296
100
AcDbEntity
  8
1
100
AcDbLine
 10
-468.388162
 20
-235.433977
 30
0.0
 11
-467.485631
 21
-235.433977
 31
0.0
  0
LINE
  5
297
100
AcDbEntity
  8
1
100
AcDbLine
 10
-457.485631
 20
-235.433977
 30
0.0
 11
-443.485631
 21
-235.433977
 31
0.0
  0
ARC
  5
298
100
AcDbEntity
  8
1
100
AcDbCircle
 10
-384.485631
 20
-275.433977
 30
0.0
 40
2.0
100
AcDbArc
 50
270.0
 51
360.0
  0
ARC
  5
299
100
AcDbEntity
  8
1
100
AcDbCircle
 10
-384.485631
 20
-262.433977
 30
0.0
 40
2.0
100
AcDbArc
 50
360.0
 51
90.0
  0
ARC
  5
29A
100
AcDbEntity
  8
1
100
AcDbCircle
 10
-384.485631
 20
-252.433977
 30
0.0
 40
2.0
100
AcDbArc
 50
270.0
 51
0.0
  0
ARC
  5
29B
100
AcDbEntity
  8
1
100
AcDbCircle
 10
-374.485631
 20
-252.433977
 30
0.0
 40
2.0
100
AcDbArc
 50
180.0
 51
270.0
  0
ARC
  5
29C
100
AcDbEntity
  8
1
100
AcDbCircle
 10
-374.485631
 20
-262.433977
 30
0.0
 40
2.0
100
AcDbArc
 50
90.0
 51
180.0
  0
ARC
  5
29D
100
AcDbEntity
  8
1
100
AcDbCircle
 10
-374.485631
 20
-275.433977
 30
0.0
 40
2.0
100
AcDbArc
 50
180.0
 51
270.0
  0
ARC
  5
29E
100
AcDbEntity
  8
1
100
AcDbCircle
 10
-467.485631
 20
-252.433977
 30
0.0
 40
2.0
100
AcDbArc
 50
270.0
 51
360.0
  0
ARC
  5
29F
100
AcDbEntity
  8
1
100
AcDbCircle
 10
-467.485631
 20
-262.433977
 30
0.0
 40
2.0
100
AcDbArc
 50
0.0
 51
90.0
  0
ARC
  5
2A0
100
AcDbEntity
  8
1
100
AcDbCircle
 10
-457.485631
 20
-262.433977
 30
0.0
 40
2.0
100
AcDbArc
 50
90.0
 51
180.0
  0
ARC
  5
2A1
100
AcDbEntity
  8
1
100
AcDbCircle
 10
-457.485631
 20
-252.433977
 30
0.0
 40
2.0
100
AcDbArc
 50
180.0
 51
270.0
  0
ARC
  5
2A2
100
AcDbEntity
  8
1
100
AcDbCircle
 10
-457.485631
 20
-275.433977
 30
0.0
 40
2.0
100
AcDbArc
 50
180.0
 51
270.0
  0
ARC
  5
2A3
100
AcDbEntity
  8
1
100
AcDbCircle
 10
-467.485631
 20
-275.433977
 30
0.0
 40
2.0
100
AcDbArc
 50
270.0
 51
360.0
  0
ARC
  5
2A4
100
AcDbEntity
  8
1
100
AcDbCircle
 10
-384.485631
 20
-237.433977
 30
0.0
 40
2.0
100
AcDbArc
 50
0.0
 51
90.0
  0
ARC
  5
2A5
100
AcDbEntity
  8
1
100
AcDbCircle
 10
-374.485631
 20
-237.433977
 30
0.0
 40
2.0
100
AcDbArc
 50
90.0
 51
180.0
  0
ARC
  5
2A6
100
AcDbEntity
  8
1
100
AcDbCircle
 10
-457.485631
 20
-237.433977
 30
0.0
 40
2.0
100
AcDbArc
 50
90.0
 51
180.0
  0
ARC
  5
2A7
100
AcDbEntity
  8
1
100
AcDbCircle
 10
-467.485631
 20
-237.433977
 30
0.0
 40
2.0
100
AcDbArc
 50
0.0
 51
90.0
  0
ARC
  5
2A8
100
AcDbEntity
  8
1
100
AcDbCircle
 10
-363.435653
 20
-252.433977
 30
0.0
 40
2.0
100
AcDbArc
 50
270.0
 51
25.94448
  0
ARC
  5
2A9
100
AcDbEntity
  8
1
100
AcDbCircle
 10
-359.569021
 20
-262.433977
 30
0.0
 40
2.0
100
AcDbArc
 50
16.334823
 51
90.0
  0
ARC
  5
2AA
100
AcDbEntity
  8
1
100
AcDbCircle
 10
-357.181242
 20
-275.433977
 30
0.0
 40
2.0
100
AcDbArc
 50
270.0
 51
4.480799
  0
ARC
  5
2AB
100
AcDbEntity
  8
1
100
AcDbCircle
 10
-484.790019
 20
-275.433977
 30
0.0
 40
2.0
100
AcDbArc
 50
175.519201
 51
270.0
  0
ARC
  5
2AC
100
AcDbEntity
  8
1
100
AcDbCircle
 10
-482.402241
 20
-262.433977
 30
0.0
 40
2.0
100
AcDbArc
 50
90.0
 51
163.665177
  0
ARC
  5
2AD
100
AcDbEntity
  8
1
100
AcDbCircle
 10
-478.535609
 20
-252.433977
 30
0.0
 40
2.0
100
AcDbArc
 50
154.05552
 51
270.0
  0
ARC
  5
2AE
100
AcDbEntity
  8
1
100
AcDbCircle
 10
-398.485631
 20
-252.433977
 30
0.0
 40
2.0
100
AcDbArc
 50
180.0
 51
270.0
  0
ARC
  5
2AF
100
AcDbEntity
  8
1
100
AcDbCircle
 10
-398.485631
 20
-262.433977
 30
0.0
 40
2.0
100
AcDbArc
 50
90.0
 51
180.0
  0
ARC
  5
2B0
100
AcDbEntity
  8
1
100
AcDbCircle
 10
-398.485631
 20
-275.433977
 30
0.0
 40
2.0
100
AcDbArc
 50
180.0
 51
270.0
  0
ARC
  5
2B1
100
AcDbEntity
  8
1
100
AcDbCircle
 10
-408.485631
 20
-275.433977
 30
0.0
 40
2.0
100
AcDbArc
 50
287.457603
 51
360.0
  0
ARC
  5
2B2
100
AcDbEntity
  8
1
100
AcDbCircle
 10
-408.485631
 20
-262.433977
 30
0.0
 40
2.0
100
AcDbArc
 50
0.0
 51
72.542397
  0
ARC
  5
2B3
100
AcDbEntity
  8
1
100
AcDbCircle
 10
-408.485631
 20
-252.433977
 30
0.0
 40
2.0
100
AcDbArc
 50
287.457603
 51
360.0
  0
ARC
  5
2B4
100
AcDbEntity
  8
1
100
AcDbCircle
 10
-433.485631
 20
-252.433977
 30
0.0
 40
2.0
100
AcDbArc
 50
180.0
 51
270.0
  0
ARC
  5
2B5
100
AcDbEntity
  8
1
100
AcDbCircle
 10
-433.485631
 20
-262.433977
 30
0.0
 40
2.0
100
AcDbArc
 50
90.0
 51
180.0
  0
ARC
  5
2B6
100
AcDbEntity
  8
1
100
AcDbCircle
 10
-433.485631
 20
-275.433977
 30
0.0
 40
2.0
100
AcDbArc
 50
180.0
 51
270.0
  0
ARC
  5
2B7
100
AcDbEntity
  8
1
100
AcDbCircle
 10
-443.485631
 20
-275.433977
 30
0.0
 40
2.0
100
AcDbArc
 50
270.0
 51
0.0
  0
ARC
  5
2B8
100
AcDbEntity
  8
1
100
AcDbCircle
 10
-443.485631
 20
-262.433977
 30
0.0
 40
2.0
100
AcDbArc
 50
0.0
 51
90.0
  0
ARC
  5
2B9
100
AcDbEntity
  8
1
100
AcDbCircle
 10
-443.485631
 20
-252.433977
 30
0.0
 40
2.0
100
AcDbArc
 50
270.0
 51
0.0
  0
ARC
  5
2BA
100
AcDbEntity
  8
1
100
AcDbCircle
 10
-373.583099
 20
-323.433977
 30
0.0
 40
2.0
100
AcDbArc
 50
270.0
 51
317.788056
  0
ARC
  5
2BB
100
AcDbEntity
  8
1
100
AcDbCircle
 10
-468.388162
 20
-323.433977
 30
0.0
 40
2.0
100
AcDbArc
 50
222.211944
 51
270.0
  0
LINE
  5
2BC
100
AcDbEntity
  8
1
100
AcDbLine
 10
-433.485631
 20
-283.433977
 30
0.0
 11
-429.885631
 21
-283.433977
 31
0.0
  0
LINE
  5
2BD
100
AcDbEntity
  8
1
100
AcDbLine
 10
-433.485631
 20
-300.433977
 30
0.0
 11
-429.885631
 21
-300.433977
 31
0.0
  0
LINE
  5
2BE
100
AcDbEntity
  8
1
100
AcDbLine
 10
-433.485631
 20
-306.433977
 30
0.0
 11
-429.885631
 21
-306.433977
 31
0.0
  0
LINE
  5
2BF
100
AcDbEntity
  8
1
100
AcDbLine
 10
-482.402241
 20
-300.433977
 30
0.0
 11
-467.485631
 21
-300.433977
 31
0.0
  0
LINE
  5
2C0
100
AcDbEntity
  8
1
100
AcDbLine
 10
-457.485631
 20
-300.433977
 30
0.0
 11
-443.485631
 21
-300.433977
 31
0.0
  0
LINE
  5
2C1
100
AcDbEntity
  8
1
100
AcDbLine
 10
-484.790019
 20
-283.433977
 30
0.0
 11
-467.485631
 21
-283.433977
 31
0.0
  0
LINE
  5
2C2
100
AcDbEntity
  8
1
100
AcDbLine
 10
-457.485631
 20
-283.433977
 30
0.0
 11
-443.485631
 21
-283.433977
 31
0.0
  0
LINE
  5
2C3
100
AcDbEntity
  8
1
100
AcDbLine
 10
-398.485631
 20
-283.433977
 30
0.0
 11
-384.485631
 21
-283.433977
 31
0.0
  0
LINE
  5
2C4
100
AcDbEntity
  8
1
100
AcDbLine
 10
-374.485631
 20
-283.433977
 30
0.0
 11
-357.181242
 21
-283.433977
 31
0.0
  0
LINE
  5
2C5
100
AcDbEntity
  8
1
100
AcDbLine
 10
-398.485631
 20
-300.433977
 30
0.0
 11
-384.485631
 21
-300.433977
 31
0.0
  0
LINE
  5
2C6
100
AcDbEntity
  8
1
100
AcDbLine
 10
-374.485631
 20
-300.433977
 30
0.0
 11
-359.569021
 21
-300.433977
 31
0.0
  0
LINE
  5
2C7
100
AcDbEntity
  8
1
100
AcDbLine
 10
-398.485631
 20
-306.433977
 30
0.0
 11
-384.485631
 21
-306.433977
 31
0.0
  0
LINE
  5
2C8
100
AcDbEntity
  8
1
100
AcDbLine
 10
-374.485631
 20
-306.433977
 30
0.0
 11
-363.435653
 21
-306.433977
 31
0.0
  0
LINE
  5
2C9
100
AcDbEntity
  8
1
100
AcDbLine
 10
-478.535609
 20
-306.433977
 30
0.0
 11
-467.485631
 21
-306.433977
 31
0.0
  0
LINE
  5
2CA
100
AcDbEntity
  8
1
100
AcDbLine
 10
-457.485631
 20
-306.433977
 30
0.0
 11
-443.485631
 21
-306.433977
 31
0.0
  0
LINE
  5
2CB
100
AcDbEntity
  8
1
100
AcDbLine
 10
-459.485631
 20
-285.433977
 30
0.0
 11
-459.485631
 21
-298.433977
 31
0.0
  0
LINE
  5
2CC
100
AcDbEntity
  8
1
100
AcDbLine
 10
-459.485631
 20
-308.433977
 30
0.0
 11
-459.485631
 21
-323.433977
 31
0.0
  0
LINE
  5
2CD
100
AcDbEntity
  8
1
100
AcDbLine
 10
-465.485631
 20
-285.433977
 30
0.0
 11
-465.485631
 21
-298.433977
 31
0.0
  0
LINE
  5
2CE
100
AcDbEntity
  8
1
100
AcDbLine
 10
-465.485631
 20
-308.433977
 30
0.0
 11
-465.485631
 21
-323.433977
 31
0.0
  0
LINE
  5
2CF
100
AcDbEntity
  8
1
100
AcDbLine
 10
-382.485631
 20
-285.433977
 30
0.0
 11
-382.485631
 21
-298.433977
 31
0.0
  0
LINE
  5
2D0
100
AcDbEntity
  8
1
100
AcDbLine
 10
-382.485631
 20
-308.433977
 30
0.0
 11
-382.485631
 21
-323.433977
 31
0.0
  0
LINE
  5
2D1
100
AcDbEntity
  8
1
100
AcDbLine
 10
-376.485631
 20
-285.433977
 30
0.0
 11
-376.485631
 21
-298.433977
 31
0.0
  0
LINE
  5
2D2
100
AcDbEntity
  8
1
100
AcDbLine
 10
-376.485631
 20
-308.433977
 30
0.0
 11
-376.485631
 21
-323.433977
 31
0.0
  0
ARC
  5
2D3
100
AcDbEntity
  8
1
100
AcDbCircle
 10
-420.985631
 20
-280.433977
 30
0.0
 40
66.0
100
AcDbArc
 50
317.788056
 51
334.05552
  0
ARC
  5
2D4
100
AcDbEntity
  8
1
100
AcDbCircle
 10
-420.985631
 20
-280.433977
 30
0.0
 40
66.0
100
AcDbArc
 50
205.94448
 51
222.211944
  0
ARC
  5
2D5
100
AcDbEntity
  8
1
100
AcDbCircle
 10
-420.985631
 20
-280.433977
 30
0.0
 40
66.0
100
AcDbArc
 50
343.665177
 51
355.519201
  0
ARC
  5
2D6
100
AcDbEntity
  8
1
100
AcDbCircle
 10
-420.985631
 20
-280.433977
 30
0.0
 40
66.0
100
AcDbArc
 50
184.480799
 51
196.334823
  0
LINE
  5
2D7
100
AcDbEntity
  8
1
100
AcDbLine
 10
-398.485631
 20
-325.433977
 30
0.0
 11
-384.485631
 21
-325.433977
 31
0.0
  0
LINE
  5
2D8
100
AcDbEntity
  8
1
100
AcDbLine
 10
-374.485631
 20
-325.433977
 30
0.0
 11
-373.583099
 21
-325.433977
 31
0.0
  0
LINE
  5
2D9
100
AcDbEntity
  8
1
100
AcDbLine
 10
-468.388162
 20
-325.433977
 30
0.0
 11
-467.485631
 21
-325.433977
 31
0.0
  0
LINE
  5
2DA
100
AcDbEntity
  8
1
100
AcDbLine
 10
-457.485631
 20
-325.433977
 30
0.0
 11
-443.485631
 21
-325.433977
 31
0.0
  0
ARC
  5
2DB
100
AcDbEntity
  8
1
100
AcDbCircle
 10
-384.485631
 20
-285.433977
 30
0.0
 40
2.0
100
AcDbArc
 50
0.0
 51
90.0
  0
ARC
  5
2DC
100
AcDbEntity
  8
1
100
AcDbCircle
 10
-384.485631
 20
-298.433977
 30
0.0
 40
2.0
100
AcDbArc
 50
270.0
 51
0.0
  0
ARC
  5
2DD
100
AcDbEntity
  8
1
100
AcDbCircle
 10
-384.485631
 20
-308.433977
 30
0.0
 40
2.0
100
AcDbArc
 50
360.0
 51
90.0
  0
ARC
  5
2DE
100
AcDbEntity
  8
1
100
AcDbCircle
 10
-374.485631
 20
-308.433977
 30
0.0
 40
2.0
100
AcDbArc
 50
90.0
 51
180.0
  0
ARC
  5
2DF
100
AcDbEntity
  8
1
100
AcDbCircle
 10
-374.485631
 20
-298.433977
 30
0.0
 40
2.0
100
AcDbArc
 50
180.0
 51
270.0
  0
ARC
  5
2E0
100
AcDbEntity
  8
1
100
AcDbCircle
 10
-374.485631
 20
-285.433977
 30
0.0
 40
2.0
100
AcDbArc
 50
90.0
 51
180.0
  0
ARC
  5
2E1
100
AcDbEntity
  8
1
100
AcDbCircle
 10
-467.485631
 20
-308.433977
 30
0.0
 40
2.0
100
AcDbArc
 50
0.0
 51
90.0
  0
ARC
  5
2E2
100
AcDbEntity
  8
1
100
AcDbCircle
 10
-467.485631
 20
-298.433977
 30
0.0
 40
2.0
100
AcDbArc
 50
270.0
 51
360.0
  0
ARC
  5
2E3
100
AcDbEntity
  8
1
100
AcDbCircle
 10
-457.485631
 20
-298.433977
 30
0.0
 40
2.0
100
AcDbArc
 50
180.0
 51
270.0
  0
ARC
  5
2E4
100
AcDbEntity
  8
1
100
AcDbCircle
 10
-457.485631
 20
-308.433977
 30
0.0
 40
2.0
100
AcDbArc
 50
90.0
 51
180.0
  0
ARC
  5
2E5
100
AcDbEntity
  8
1
100
AcDbCircle
 10
-457.485631
 20
-285.433977
 30
0.0
 40
2.0
100
AcDbArc
 50
90.0
 51
180.0
  0
ARC
  5
2E6
100
AcDbEntity
  8
1
100
AcDbCircle
 10
-467.485631
 20
-285.433977
 30
0.0
 40
2.0
100
AcDbArc
 50
0.0
 51
90.0
  0
ARC
  5
2E7
100
AcDbEntity
  8
1
100
AcDbCircle
 10
-384.485631
 20
-323.433977
 30
0.0
 40
2.0
100
AcDbArc
 50
270.0
 51
360.0
  0
ARC
  5
2E8
100
AcDbEntity
  8
1
100
AcDbCircle
 10
-374.485631
 20
-323.433977
 30
0.0
 40
2.0
100
AcDbArc
 50
180.0
 51
270.0
  0
ARC
  5
2E9
100
AcDbEntity
  8
1
100
AcDbCircle
 10
-457.485631
 20
-323.433977
 30
0.0
 40
2.0
100
AcDbArc
 50
180.0
 51
270.0
  0
ARC
  5
2EA
100
AcDbEntity
  8
1
100
AcDbCircle
 10
-467.485631
 20
-323.433977
 30
0.0
 40
2.0
100
AcDbArc
 50
270.0
 51
360.0
  0
ARC
  5
2EB
100
AcDbEntity
  8
1
100
AcDbCircle
 10
-363.435653
 20
-308.433977
 30
0.0
 40
2.0
100
AcDbArc
 50
334.05552
 51
90.0
  0
ARC
  5
2EC
100
AcDbEntity
  8
1
100
AcDbCircle
 10
-359.569021
 20
-298.433977
 30
0.0
 40
2.0
100
AcDbArc
 50
270.0
 51
343.665177
  0
ARC
  5
2ED
100
AcDbEntity
  8
1
100
AcDbCircle
 10
-357.181242
 20
-285.433977
 30
0.0
 40
2.0
100
AcDbArc
 50
355.519201
 51
90.0
  0
ARC
  5
2EE
100
AcDbEntity
  8
1
100
AcDbCircle
 10
-484.790019
 20
-285.433977
 30
0.0
 40
2.0
100
AcDbArc
 50
90.0
 51
184.480799
  0
ARC
  5
2EF
100
AcDbEntity
  8
1
100
AcDbCircle
 10
-482.402241
 20
-298.433977
 30
0.0
 40
2.0
100
AcDbArc
 50
196.334823
 51
270.0
  0
ARC
  5
2F0
100
AcDbEntity
  8
1
100
AcDbCircle
 10
-478.535609
 20
-308.433977
 30
0.0
 40
2.0
100
AcDbArc
 50
90.0
 51
205.94448
  0
ARC
  5
2F1
100
AcDbEntity
  8
1
100
AcDbCircle
 10
-398.485631
 20
-308.433977
 30
0.0
 40
2.0
100
AcDbArc
 50
90.0
 51
180.0
  0
ARC
  5
2F2
100
AcDbEntity
  8
1
100
AcDbCircle
 10
-398.485631
 20
-298.433977
 30
0.0
 40
2.0
100
AcDbArc
 50
180.0
 51
270.0
  0
ARC
  5
2F3
100
AcDbEntity
  8
1
100
AcDbCircle
 10
-398.485631
 20
-285.433977
 30
0.0
 40
2.0
100
AcDbArc
 50
90.0
 51
180.0
  0
ARC
  5
2F4
100
AcDbEntity
  8
1
100
AcDbCircle
 10
-408.485631
 20
-285.433977
 30
0.0
 40
2.0
100
AcDbArc
 50
0.0
 51
72.542397
  0
ARC
  5
2F5
100
AcDbEntity
  8
1
100
AcDbCircle
 10
-408.485631
 20
-298.433977
 30
0.0
 40
2.0
100
AcDbArc
 50
287.457603
 51
360.0
  0
ARC
  5
2F6
100
AcDbEntity
  8
1
100
AcDbCircle
 10
-408.485631
 20
-308.433977
 30
0.0
 40
2.0
100
AcDbArc
 50
0.0
 51
72.542397
  0
ARC
  5
2F7
100
AcDbEntity
  8
1
100
AcDbCircle
 10
-433.485631
 20
-308.433977
 30
0.0
 40
2.0
100
AcDbArc
 50
90.0
 51
180.0
  0
ARC
  5
2F8
100
AcDbEntity
  8
1
100
AcDbCircle
 10
-433.485631
 20
-298.433977
 30
0.0
 40
2.0
100
AcDbArc
 50
180.0
 51
270.0
  0
ARC
  5
2F9
100
AcDbEntity
  8
1
100
AcDbCircle
 10
-433.485631
 20
-285.433977
 30
0.0
 40
2.0
100
AcDbArc
 50
90.0
 51
180.0
  0
ARC
  5
2FA
100
AcDbEntity
  8
1
100
AcDbCircle
 10
-443.485631
 20
-285.433977
 30
0.0
 40
2.0
100
AcDbArc
 50
360.0
 51
90.0
  0
ARC
  5
2FB
100
AcDbEntity
  8
1
100
AcDbCircle
 10
-443.485631
 20
-298.433977
 30
0.0
 40
2.0
100
AcDbArc
 50
270.0
 51
360.0
  0
ARC
  5
2FC
100
AcDbEntity
  8
1
100
AcDbCircle
 10
-443.485631
 20
-308.433977
 30
0.0
 40
2.0
100
AcDbArc
 50
360.0
 51
90.0
  0
ARC
  5
2FD
100
AcDbEntity
  8
1
100
AcDbCircle
 10
-420.985631
 20
-280.433977
 30
0.0
 40
70.0
100
AcDbArc
 50
106.174962
 51
253.825038
  0
ARC
  5
2FE
100
AcDbEntity
  8
1
100
AcDbCircle
 10
-420.985631
 20
-280.433977
 30
0.0
 40
70.0
100
AcDbArc
 50
287.029087
 51
72.970913
  0
ARC
  5
2FF
100
AcDbEntity
  8
1
100
AcDbCircle
 10
-420.985631
 20
-280.433977
 30
0.0
 40
71.58902
100
AcDbArc
 50
105.806425
 51
254.193575
  0
ARC
  5
300
100
AcDbEntity
  8
1
100
AcDbCircle
 10
-420.985631
 20
-280.433977
 30
0.0
 40
71.58902
100
AcDbArc
 50
285.950048
 51
74.049952
  0
ARC
  5
301
100
AcDbEntity
  8
1
100
AcDbCircle
 10
-420.985631
 20
-280.433977
 30
0.0
 40
73.279619
100
AcDbArc
 50
105.432563
 51
254.567437
  0
ARC
  5
302
100
AcDbEntity
  8
1
100
AcDbCircle
 10
-420.985631
 20
-280.433977
 30
0.0
 40
73.279619
100
AcDbArc
 50
285.432563
 51
74.567437
  0
LINE
  5
303
100
AcDbEntity
  8
1
100
AcDbLine
 10
-407.885631
 20
-325.433977
 30
0.0
 11
-407.885631
 21
-235.433977
 31
0.0
  0
LINE
  5
304
100
AcDbEntity
  8
1
100
AcDbLine
 10
-429.885631
 20
-325.433977
 30
0.0
 11
-429.885631
 21
-235.433977
 31
0.0
  0
LINE
  5
305
100
AcDbEntity
  8
1
  6
CENTER
 62
     2
100
AcDbLine
 10
-429.885631
 20
-234.349257
 30
0.0
 11
-429.885631
 21
-220.71852
 31
0.0
  0
CIRCLE
  5
306
100
AcDbEntity
  8
1
100
AcDbCircle
 10
-429.885631
 20
-227.433977
 30
0.0
 40
3.5175
  0
CIRCLE
  5
307
100
AcDbEntity
  8
1
 62
     2
100
AcDbCircle
 10
-429.885631
 20
-227.433977
 30
0.0
 40
2.5
  0
CIRCLE
  5
308
100
AcDbEntity
  8
1
100
AcDbCircle
 10
-429.885631
 20
-227.433977
 30
0.0
 40
2.067
  0
CIRCLE
  5
309
100
AcDbEntity
  8
1
100
AcDbCircle
 10
-429.885631
 20
-227.433977
 30
0.0
 40
2.65
  0
CIRCLE
  5
30A
100
AcDbEntity
  8
1
100
AcDbCircle
 10
-418.885631
 20
-333.433977
 30
0.0
 40
3.5175
  0
CIRCLE
  5
30B
100
AcDbEntity
  8
1
 62
     2
100
AcDbCircle
 10
-418.885631
 20
-333.433977
 30
0.0
 40
2.5
  0
CIRCLE
  5
30C
100
AcDbEntity
  8
1
100
AcDbCircle
 10
-418.885631
 20
-333.433977
 30
0.0
 40
2.067
  0
CIRCLE
  5
30D
100
AcDbEntity
  8
1
100
AcDbCircle
 10
-418.885631
 20
-333.433977
 30
0.0
 40
2.65
  0
LINE
  5
30E
100
AcDbEntity
  8
1
  6
CENTER
 62
     2
100
AcDbLine
 10
-420.985631
 20
-443.663499
 30
0.0
 11
-420.985631
 21
-84.386408
 31
0.0
  0
LINE
  5
30F
100
AcDbEntity
  8
1
  6
CENTER
 62
     2
100
AcDbLine
 10
-420.985631
 20
205.562276
 30
0.0
 11
-420.985631
 21
342.03998
 31
0.0
  0
ARC
  5
310
100
AcDbEntity
  8
1
100
AcDbCircle
 10
-439.485631
 20
-235.433977
 30
0.0
 40
2.0
100
AcDbArc
 50
138.590378
 51
180.0
  0
ARC
  5
311
100
AcDbEntity
  8
1
100
AcDbCircle
 10
-442.485631
 20
-232.788225
 30
0.0
 40
2.0
100
AcDbArc
 50
318.590378
 51
360.0
  0
ARC
  5
312
100
AcDbEntity
  8
1
100
AcDbCircle
 10
-439.485631
 20
-325.433977
 30
0.0
 40
2.0
100
AcDbArc
 50
180.0
 51
221.409622
  0
ARC
  5
313
100
AcDbEntity
  8
1
100
AcDbCircle
 10
-442.485631
 20
-328.079728
 30
0.0
 40
2.0
100
AcDbArc
 50
0.0
 51
41.409622
  0
LINE
  5
314
100
AcDbEntity
  8
1
  6
CENTER
 62
     2
100
AcDbLine
 10
-418.885631
 20
89.539108
 30
0.0
 11
-418.885631
 21
-459.406569
 31
0.0
  0
LINE
  5
315
100
AcDbEntity
  8
1
100
AcDbLine
 10
-516.081457
 20
287.766023
 30
0.0
 11
-500.871359
 21
287.766023
 31
0.0
  0
LINE
  5
316
100
AcDbEntity
  8
1
  6
DASHED
100
AcDbLine
 10
-500.871359
 20
287.766023
 30
0.0
 11
-481.385631
 21
287.766023
 31
0.0
  0
LINE
  5
317
100
AcDbEntity
  8
1
100
AcDbLine
 10
-510.931448
 20
281.9425
 30
0.0
 11
-501.483436
 21
281.9425
 31
0.0
  0
LINE
  5
318
100
AcDbEntity
  8
1
  6
DASHED
100
AcDbLine
 10
-501.483436
 20
281.9425
 30
0.0
 11
-481.385631
 21
281.9425
 31
0.0
  0
LINE
  5
319
100
AcDbEntity
  8
1
100
AcDbLine
 10
-314.485631
 20
307.766023
 30
0.0
 11
-334.885631
 21
307.766023
 31
0.0
  0
LINE
  5
31A
100
AcDbEntity
  8
1
  6
DASHED
100
AcDbLine
 10
-334.885631
 20
307.766023
 30
0.0
 11
-356.62121
 21
307.766023
 31
0.0
  0
LINE
  5
31B
100
AcDbEntity
  8
1
100
AcDbLine
 10
-325.889805
 20
287.766023
 30
0.0
 11
-334.885631
 21
287.766023
 31
0.0
  0
LINE
  5
31C
100
AcDbEntity
  8
1
  6
DASHED
100
AcDbLine
 10
-334.885631
 20
287.766023
 30
0.0
 11
-356.385631
 21
287.766023
 31
0.0
  0
LINE
  5
31D
100
AcDbEntity
  8
1
100
AcDbLine
 10
-331.039814
 20
281.9425
 30
0.0
 11
-334.885631
 21
281.9425
 31
0.0
  0
LINE
  5
31E
100
AcDbEntity
  8
1
  6
DASHED
100
AcDbLine
 10
-334.885631
 20
281.9425
 30
0.0
 11
-356.385631
 21
281.9425
 31
0.0
  0
LINE
  5
31F
100
AcDbEntity
  8
1
100
AcDbLine
 10
-331.039814
 20
268.589547
 30
0.0
 11
-334.885631
 21
268.589547
 31
0.0
  0
LINE
  5
320
100
AcDbEntity
  8
1
  6
DASHED
100
AcDbLine
 10
-334.885631
 20
268.589547
 30
0.0
 11
-356.385631
 21
268.589547
 31
0.0
  0
LINE
  5
321
100
AcDbEntity
  8
1
100
AcDbLine
 10
-439.885631
 20
-62.933977
 30
0.0
 11
-397.885631
 21
-62.933977
 31
0.0
  0
LINE
  5
322
100
AcDbEntity
  8
1
100
AcDbLine
 10
-439.885631
 20
-68.933977
 30
0.0
 11
-439.885631
 21
-62.933977
 31
0.0
  0
LINE
  5
323
100
AcDbEntity
  8
1
100
AcDbLine
 10
-397.885631
 20
-68.933977
 30
0.0
 11
-397.885631
 21
-62.933977
 31
0.0
  0
LINE
  5
324
100
AcDbEntity
  8
1
100
AcDbLine
 10
-404.595631
 20
-75.433977
 30
0.0
 11
-404.595631
 21
-68.933977
 31
0.0
  0
LINE
  5
325
100
AcDbEntity
  8
1
100
AcDbLine
 10
-433.175631
 20
-75.433977
 30
0.0
 11
-433.175631
 21
-68.933977
 31
0.0
  0
LINE
  5
326
100
AcDbEntity
  8
1
100
AcDbLine
 10
-426.385631
 20
-62.933977
 30
0.0
 11
-426.385631
 21
-57.155664
 31
0.0
  0
LINE
  5
327
100
AcDbEntity
  8
1
100
AcDbLine
 10
-426.385631
 20
-57.155664
 30
0.0
 11
-425.135631
 21
-56.433977
 31
0.0
  0
LINE
  5
328
100
AcDbEntity
  8
1
100
AcDbLine
 10
-425.135631
 20
-56.433977
 30
0.0
 11
-412.635631
 21
-56.433977
 31
0.0
  0
LINE
  5
329
100
AcDbEntity
  8
1
100
AcDbLine
 10
-422.635631
 20
-62.933977
 30
0.0
 11
-422.635631
 21
-57.155664
 31
0.0
  0
ARC
  5
32A
100
AcDbEntity
  8
1
100
AcDbCircle
 10
-424.510631
 20
-59.56604
 30
0.0
 40
3.053774
100
AcDbArc
 50
52.121121
 51
127.878879
  0
LINE
  5
32B
100
AcDbEntity
  8
1
100
AcDbLine
 10
-411.385631
 20
-62.933977
 30
0.0
 11
-411.385631
 21
-57.155664
 31
0.0
  0
LINE
  5
32C
100
AcDbEntity
  8
1
100
AcDbLine
 10
-411.385631
 20
-57.155664
 30
0.0
 11
-412.635631
 21
-56.433977
 31
0.0
  0
LINE
  5
32D
100
AcDbEntity
  8
1
100
AcDbLine
 10
-415.135631
 20
-62.933977
 30
0.0
 11
-415.135631
 21
-57.155664
 31
0.0
  0
ARC
  5
32E
100
AcDbEntity
  8
1
100
AcDbCircle
 10
-413.260631
 20
-59.56604
 30
0.0
 40
3.053774
100
AcDbArc
 50
52.121121
 51
127.878879
  0
ARC
  5
32F
100
AcDbEntity
  8
1
100
AcDbCircle
 10
-418.885631
 20
-67.762266
 30
0.0
 40
11.25
100
AcDbArc
 50
70.528781
 51
109.471223
  0
LINE
  5
330
100
AcDbEntity
  8
1
 62
     2
100
AcDbLine
 10
-415.562131
 20
-55.433977
 30
0.0
 11
-415.562131
 21
-56.433977
 31
0.0
  0
LINE
  5
331
100
AcDbEntity
  8
1
 62
     2
100
AcDbLine
 10
-415.426831
 20
-68.933977
 30
0.0
 11
-414.885631
 21
-70.933977
 31
0.0
  0
LINE
  5
332
100
AcDbEntity
  8
1
 62
     2
100
AcDbLine
 10
-414.885631
 20
-72.933977
 30
0.0
 11
-415.562131
 21
-75.433977
 31
0.0
  0
LINE
  5
333
100
AcDbEntity
  8
1
 62
     2
100
AcDbLine
 10
-422.209131
 20
-55.433977
 30
0.0
 11
-422.209131
 21
-56.433977
 31
0.0
  0
LINE
  5
334
100
AcDbEntity
  8
1
 62
     2
100
AcDbLine
 10
-422.344431
 20
-68.933977
 30
0.0
 11
-422.885631
 21
-70.933977
 31
0.0
  0
LINE
  5
335
100
AcDbEntity
  8
1
 62
     2
100
AcDbLine
 10
-422.885631
 20
-72.933977
 30
0.0
 11
-422.209131
 21
-75.433977
 31
0.0
  0
LINE
  5
336
100
AcDbEntity
  8
1
100
AcDbLine
 10
-414.885631
 20
-75.433977
 30
0.0
 11
-414.885631
 21
-68.933977
 31
0.0
  0
LINE
  5
337
100
AcDbEntity
  8
1
100
AcDbLine
 10
-414.885631
 20
-56.433977
 30
0.0
 11
-414.885631
 21
-55.433977
 31
0.0
  0
LINE
  5
338
100
AcDbEntity
  8
1
100
AcDbLine
 10
-422.885631
 20
-75.433977
 30
0.0
 11
-422.885631
 21
-68.933977
 31
0.0
  0
LINE
  5
339
100
AcDbEntity
  8
1
100
AcDbLine
 10
-422.885631
 20
-56.433977
 30
0.0
 11
-422.885631
 21
-55.433977
 31
0.0
  0
LINE
  5
33A
100
AcDbEntity
  8
1
100
AcDbLine
 10
-407.885631
 20
-62.933977
 30
0.0
 11
-407.885631
 21
-55.433977
 31
0.0
  0
LINE
  5
33B
100
AcDbEntity
  8
1
100
AcDbLine
 10
-429.885631
 20
-62.933977
 30
0.0
 11
-429.885631
 21
-55.433977
 31
0.0
  0
LINE
  5
33C
100
AcDbEntity
  8
1
100
AcDbLine
 10
-397.885631
 20
-68.933977
 30
0.0
 11
-439.885631
 21
-68.933977
 31
0.0
  0
LINE
  5
33D
100
AcDbEntity
  8
1
100
AcDbLine
 10
142.514369
 20
-68.933977
 30
0.0
 11
182.514369
 21
-68.933977
 31
0.0
  0
LINE
  5
33E
100
AcDbEntity
  8
1
100
AcDbLine
 10
-527.485631
 20
307.766023
 30
0.0
 11
-498.769274
 21
307.766023
 31
0.0
  0
LINE
  5
33F
100
AcDbEntity
  8
1
  6
DASHED
100
AcDbLine
 10
-498.769274
 20
307.766023
 30
0.0
 11
-481.150052
 21
307.766023
 31
0.0
  0
LINE
  5
340
100
AcDbEntity
  8
1
100
AcDbLine
 10
-510.931448
 20
268.589547
 30
0.0
 11
-501.724053
 21
268.589547
 31
0.0
  0
LINE
  5
341
100
AcDbEntity
  8
1
  6
DASHED
100
AcDbLine
 10
-501.724053
 20
268.589547
 30
0.0
 11
-481.385631
 21
268.589547
 31
0.0
  0
LINE
  5
342
100
AcDbEntity
  8
1
100
AcDbLine
 10
-516.081457
 20
262.766023
 30
0.0
 11
-501.153486
 21
262.766023
 31
0.0
  0
LINE
  5
343
100
AcDbEntity
  8
1
  6
DASHED
100
AcDbLine
 10
-501.153486
 20
262.766023
 30
0.0
 11
-481.385631
 21
262.766023
 31
0.0
  0
LINE
  5
344
100
AcDbEntity
  8
1
100
AcDbLine
 10
-527.485631
 20
250.766023
 30
0.0
 11
-498.635239
 21
250.766023
 31
0.0
  0
LINE
  5
345
100
AcDbEntity
  8
1
  6
DASHED
100
AcDbLine
 10
-498.635239
 20
250.766023
 30
0.0
 11
-481.385631
 21
250.766023
 31
0.0
  0
LINE
  5
346
100
AcDbEntity
  8
1
100
AcDbLine
 10
-325.889805
 20
262.766023
 30
0.0
 11
-336.617776
 21
262.766023
 31
0.0
  0
LINE
  5
347
100
AcDbEntity
  8
1
  6
DASHED
100
AcDbLine
 10
-336.617776
 20
262.766023
 30
0.0
 11
-356.385631
 21
262.766023
 31
0.0
  0
LINE
  5
348
100
AcDbEntity
  8
1
100
AcDbLine
 10
-314.485631
 20
250.766023
 30
0.0
 11
-339.136023
 21
250.766023
 31
0.0
  0
LINE
  5
349
100
AcDbEntity
  8
1
  6
DASHED
100
AcDbLine
 10
-339.136023
 20
250.766023
 30
0.0
 11
-356.385631
 21
250.766023
 31
0.0
  0
LINE
  5
34A
100
AcDbEntity
  8
2
100
AcDbLine
 10
-488.885631
 20
-45.933977
 30
0.0
 11
-348.885631
 21
-45.933977
 31
0.0
  0
LINE
  5
34B
100
AcDbEntity
  8
2
100
AcDbLine
 10
92.514369
 20
-45.933977
 30
0.0
 11
232.514369
 21
-45.933977
 31
0.0
  0
LINE
  5
34C
100
AcDbEntity
  8
2
100
AcDbLine
 10
-336.340314
 20
282.441886
 30
0.0
 11
-346.745275
 21
381.438479
 31
0.0
  0
LINE
  5
34D
100
AcDbEntity
  8
2
100
AcDbLine
 10
-501.430948
 20
282.441886
 30
0.0
 11
-491.025987
 21
381.438479
 31
0.0
  0
LINE
  5
34E
100
AcDbEntity
  8
2
100
AcDbLine
 10
-475.113637
 20
395.766023
 30
0.0
 11
-362.657625
 21
395.766023
 31
0.0
  0
ARC
  5
34F
100
AcDbEntity
  8
2
100
AcDbCircle
 10
-362.657625
 20
379.766023
 30
0.0
 40
16.0
100
AcDbArc
 50
6.0
 51
90.0
  0
ARC
  5
350
100
AcDbEntity
  8
2
100
AcDbCircle
 10
-475.113637
 20
379.766023
 30
0.0
 40
16.0
100
AcDbArc
 50
90.0
 51
174.0
  0
ARC
  5
351
100
AcDbEntity
  8
2
100
AcDbCircle
 10
-418.885631
 20
273.766023
 30
0.0
 40
83.0
100
AcDbArc
 50
174.0
 51
210.851886
  0
ARC
  5
352
100
AcDbEntity
  8
2
100
AcDbCircle
 10
-418.885631
 20
273.766023
 30
0.0
 40
83.0
100
AcDbArc
 50
329.148114
 51
6.0
  0
ARC
  5
353
100
AcDbEntity
  8
2
100
AcDbCircle
 10
-430.724818
 20
364.480387
 30
0.0
 40
3.714255
100
AcDbArc
 50
270.0
 51
360.0
  0
ARC
  5
354
100
AcDbEntity
  8
2
100
AcDbCircle
 10
-434.606214
 20
367.841787
 30
0.0
 40
3.714255
100
AcDbArc
 50
90.0
 51
180.0
  0
ARC
  5
355
100
AcDbEntity
  8
2
100
AcDbCircle
 10
-432.953371
 20
364.443244
 30
0.0
 40
1.857127
100
AcDbArc
 50
180.0
 51
270.0
  0
ARC
  5
356
100
AcDbEntity
  8
2
100
AcDbCircle
 10
-432.377661
 20
367.87893
 30
0.0
 40
1.857127
100
AcDbArc
 50
0.0
 51
90.0
  0
LINE
  5
357
100
AcDbEntity
  8
2
100
AcDbLine
 10
-421.940605
 20
369.736057
 30
0.0
 11
-422.330602
 21
360.766132
 31
0.0
  0
LINE
  5
358
100
AcDbEntity
  8
2
100
AcDbLine
 10
-415.830656
 20
369.736057
 30
0.0
 11
-415.44066
 21
360.766132
 31
0.0
  0
LINE
  5
359
100
AcDbEntity
  8
2
100
AcDbLine
 10
-421.940605
 20
369.736057
 30
0.0
 11
-420.269191
 21
360.766132
 31
0.0
  0
LINE
  5
35A
100
AcDbEntity
  8
2
100
AcDbLine
 10
-418.885631
 20
365.093239
 30
0.0
 11
-417.681382
 21
371.556042
 31
0.0
  0
LINE
  5
35B
100
AcDbEntity
  8
2
100
AcDbLine
 10
-425.060579
 20
371.556042
 30
0.0
 11
-420.08988
 21
371.556042
 31
0.0
  0
LINE
  5
35C
100
AcDbEntity
  8
2
100
AcDbLine
 10
-420.269191
 20
360.766132
 30
0.0
 11
-417.502071
 21
360.766132
 31
0.0
  0
ARC
  5
35D
100
AcDbEntity
  8
2
100
AcDbCircle
 10
-403.165048
 20
364.480387
 30
0.0
 40
3.714255
100
AcDbArc
 50
270.0
 51
360.0
  0
ARC
  5
35E
100
AcDbEntity
  8
2
100
AcDbCircle
 10
-404.817891
 20
364.443244
 30
0.0
 40
1.857127
100
AcDbArc
 50
270.0
 51
360.0
  0
LINE
  5
35F
100
AcDbEntity
  8
2
100
AcDbLine
 10
-407.250728
 20
367.87893
 30
0.0
 11
-407.250728
 21
364.443244
 31
0.0
  0
ARC
  5
360
100
AcDbEntity
  8
2
100
AcDbCircle
 10
-407.046444
 20
367.841787
 30
0.0
 40
3.714255
100
AcDbArc
 50
90.0
 51
180.0
  0
LINE
  5
361
100
AcDbEntity
  8
2
100
AcDbLine
 10
-410.760699
 20
367.841787
 30
0.0
 11
-410.760699
 21
364.480387
 31
0.0
  0
LINE
  5
362
100
AcDbEntity
  8
2
100
AcDbLine
 10
-415.44066
 20
360.766132
 30
0.0
 11
-411.930689
 21
360.766132
 31
0.0
  0
LINE
  5
363
100
AcDbEntity
  8
2
100
AcDbLine
 10
-397.890806
 20
361.02613
 30
0.0
 11
-389.440876
 21
361.02613
 31
0.0
  0
LINE
  5
364
100
AcDbEntity
  8
2
100
AcDbLine
 10
-394.380835
 20
365.186095
 30
0.0
 11
-389.440876
 21
365.186095
 31
0.0
  0
LINE
  5
365
100
AcDbEntity
  8
2
100
AcDbLine
 10
-394.380835
 20
367.136079
 30
0.0
 11
-389.440876
 21
367.136079
 31
0.0
  0
LINE
  5
366
100
AcDbEntity
  8
2
100
AcDbLine
 10
-394.380835
 20
362.976113
 30
0.0
 11
-394.380835
 21
365.186095
 31
0.0
  0
LINE
  5
367
100
AcDbEntity
  8
2
100
AcDbLine
 10
-394.380835
 20
367.136079
 30
0.0
 11
-394.380835
 21
369.34606
 31
0.0
  0
LINE
  5
368
100
AcDbEntity
  8
2
100
AcDbLine
 10
-444.17042
 20
369.34606
 30
0.0
 11
-440.660449
 21
369.34606
 31
0.0
  0
LINE
  5
369
100
AcDbEntity
  8
2
100
AcDbLine
 10
-448.720382
 20
367.136079
 30
0.0
 11
-435.070496
 21
373.766023
 31
0.0
  0
LINE
  5
36A
100
AcDbEntity
  8
2
100
AcDbLine
 10
-448.720382
 20
367.136079
 30
0.0
 11
-448.720382
 21
373.766023
 31
0.0
  0
LINE
  5
36B
100
AcDbEntity
  8
2
100
AcDbLine
 10
-440.660449
 20
369.34606
 30
0.0
 11
-440.660449
 21
360.766132
 31
0.0
  0
LINE
  5
36C
100
AcDbEntity
  8
2
100
AcDbLine
 10
-438.320469
 20
367.841787
 30
0.0
 11
-438.320469
 21
364.480387
 31
0.0
  0
LINE
  5
36D
100
AcDbEntity
  8
2
100
AcDbLine
 10
-427.010563
 20
367.841787
 30
0.0
 11
-427.010563
 21
364.480387
 31
0.0
  0
LINE
  5
36E
100
AcDbEntity
  8
2
100
AcDbLine
 10
-434.810498
 20
367.87893
 30
0.0
 11
-434.810498
 21
364.443244
 31
0.0
  0
LINE
  5
36F
100
AcDbEntity
  8
2
100
AcDbLine
 10
-430.520534
 20
367.87893
 30
0.0
 11
-430.520534
 21
364.443244
 31
0.0
  0
ARC
  5
370
100
AcDbEntity
  8
2
100
AcDbCircle
 10
-434.606214
 20
364.480387
 30
0.0
 40
3.714255
100
AcDbArc
 50
180.0
 51
270.0
  0
ARC
  5
371
100
AcDbEntity
  8
2
100
AcDbCircle
 10
-430.724818
 20
367.841787
 30
0.0
 40
3.714255
100
AcDbArc
 50
360.0
 51
90.0
  0
ARC
  5
372
100
AcDbEntity
  8
2
100
AcDbCircle
 10
-432.377661
 20
364.443244
 30
0.0
 40
1.857127
100
AcDbArc
 50
270.0
 51
360.0
  0
ARC
  5
373
100
AcDbEntity
  8
2
100
AcDbCircle
 10
-432.953371
 20
367.87893
 30
0.0
 40
1.857127
100
AcDbArc
 50
90.0
 51
180.0
  0
LINE
  5
374
100
AcDbEntity
  8
2
100
AcDbLine
 10
-444.17042
 20
360.766132
 30
0.0
 11
-440.660449
 21
360.766132
 31
0.0
  0
LINE
  5
375
100
AcDbEntity
  8
2
100
AcDbLine
 10
-425.060579
 20
371.556042
 30
0.0
 11
-425.840573
 21
360.766132
 31
0.0
  0
LINE
  5
376
100
AcDbEntity
  8
2
100
AcDbLine
 10
-412.710682
 20
371.556042
 30
0.0
 11
-411.930689
 21
360.766132
 31
0.0
  0
LINE
  5
377
100
AcDbEntity
  8
2
100
AcDbLine
 10
-415.830656
 20
369.736057
 30
0.0
 11
-417.502071
 21
360.766132
 31
0.0
  0
LINE
  5
378
100
AcDbEntity
  8
2
100
AcDbLine
 10
-418.885631
 20
365.093239
 30
0.0
 11
-420.08988
 21
371.556042
 31
0.0
  0
LINE
  5
379
100
AcDbEntity
  8
2
100
AcDbLine
 10
-434.606214
 20
371.556042
 30
0.0
 11
-430.724818
 21
371.556042
 31
0.0
  0
LINE
  5
37A
100
AcDbEntity
  8
2
100
AcDbLine
 10
-434.606214
 20
360.766132
 30
0.0
 11
-430.724818
 21
360.766132
 31
0.0
  0
LINE
  5
37B
100
AcDbEntity
  8
2
100
AcDbLine
 10
-425.840573
 20
360.766132
 30
0.0
 11
-422.330602
 21
360.766132
 31
0.0
  0
ARC
  5
37C
100
AcDbEntity
  8
2
100
AcDbCircle
 10
-407.046444
 20
364.480387
 30
0.0
 40
3.714255
100
AcDbArc
 50
180.0
 51
270.0
  0
LINE
  5
37D
100
AcDbEntity
  8
2
100
AcDbLine
 10
-402.960764
 20
367.87893
 30
0.0
 11
-402.960764
 21
364.443244
 31
0.0
  0
ARC
  5
37E
100
AcDbEntity
  8
2
100
AcDbCircle
 10
-405.3936
 20
364.443244
 30
0.0
 40
1.857127
100
AcDbArc
 50
180.0
 51
270.0
  0
ARC
  5
37F
100
AcDbEntity
  8
2
100
AcDbCircle
 10
-404.817891
 20
367.87893
 30
0.0
 40
1.857127
100
AcDbArc
 50
0.0
 51
90.0
  0
ARC
  5
380
100
AcDbEntity
  8
2
100
AcDbCircle
 10
-405.3936
 20
367.87893
 30
0.0
 40
1.857127
100
AcDbArc
 50
90.0
 51
180.0
  0
ARC
  5
381
100
AcDbEntity
  8
2
100
AcDbCircle
 10
-403.165048
 20
367.841787
 30
0.0
 40
3.714255
100
AcDbArc
 50
360.0
 51
90.0
  0
LINE
  5
382
100
AcDbEntity
  8
2
100
AcDbLine
 10
-399.450793
 20
367.841787
 30
0.0
 11
-399.450793
 21
364.480387
 31
0.0
  0
LINE
  5
383
100
AcDbEntity
  8
2
100
AcDbLine
 10
-432.377661
 20
369.736057
 30
0.0
 11
-432.953371
 21
369.736057
 31
0.0
  0
LINE
  5
384
100
AcDbEntity
  8
2
100
AcDbLine
 10
-432.377661
 20
362.586117
 30
0.0
 11
-432.953371
 21
362.586117
 31
0.0
  0
LINE
  5
385
100
AcDbEntity
  8
2
100
AcDbLine
 10
-405.3936
 20
369.736057
 30
0.0
 11
-404.817891
 21
369.736057
 31
0.0
  0
LINE
  5
386
100
AcDbEntity
  8
2
100
AcDbLine
 10
-417.681382
 20
371.556042
 30
0.0
 11
-412.710682
 21
371.556042
 31
0.0
  0
LINE
  5
387
100
AcDbEntity
  8
2
100
AcDbLine
 10
-407.046444
 20
371.556042
 30
0.0
 11
-403.165048
 21
371.556042
 31
0.0
  0
LINE
  5
388
100
AcDbEntity
  8
2
100
AcDbLine
 10
-407.046444
 20
360.766132
 30
0.0
 11
-403.165048
 21
360.766132
 31
0.0
  0
LINE
  5
389
100
AcDbEntity
  8
2
100
AcDbLine
 10
-397.890806
 20
371.296044
 30
0.0
 11
-397.890806
 21
361.02613
 31
0.0
  0
LINE
  5
38A
100
AcDbEntity
  8
2
100
AcDbLine
 10
-397.890806
 20
371.296044
 30
0.0
 11
-389.440876
 21
371.296044
 31
0.0
  0
LINE
  5
38B
100
AcDbEntity
  8
2
100
AcDbLine
 10
-394.380835
 20
362.976113
 30
0.0
 11
-389.440876
 21
362.976113
 31
0.0
  0
LINE
  5
38C
100
AcDbEntity
  8
2
100
AcDbLine
 10
-394.380835
 20
369.34606
 30
0.0
 11
-389.440876
 21
369.34606
 31
0.0
  0
LINE
  5
38D
100
AcDbEntity
  8
2
100
AcDbLine
 10
-389.440876
 20
369.34606
 30
0.0
 11
-389.440876
 21
371.296044
 31
0.0
  0
LINE
  5
38E
100
AcDbEntity
  8
2
100
AcDbLine
 10
-389.440876
 20
361.02613
 30
0.0
 11
-389.440876
 21
362.976113
 31
0.0
  0
LINE
  5
38F
100
AcDbEntity
  8
2
100
AcDbLine
 10
-389.440876
 20
365.186095
 30
0.0
 11
-389.440876
 21
367.136079
 31
0.0
  0
LINE
  5
390
100
AcDbEntity
  8
2
100
AcDbLine
 10
-444.17042
 20
369.34606
 30
0.0
 11
-444.17042
 21
360.766132
 31
0.0
  0
LINE
  5
391
100
AcDbEntity
  8
2
100
AcDbLine
 10
-448.720382
 20
373.766023
 30
0.0
 11
-435.070496
 21
373.766023
 31
0.0
  0
LINE
  5
392
100
AcDbEntity
  8
2
100
AcDbLine
 10
-405.3936
 20
362.586117
 30
0.0
 11
-404.817891
 21
362.586117
 31
0.0
  0
LINE
  5
393
100
AcDbEntity
  8
2
100
AcDbLine
 10
-461.135631
 20
201.766023
 30
0.0
 11
-376.635631
 21
201.766023
 31
0.0
  0
ARC
  5
394
100
AcDbEntity
  8
2
100
AcDbCircle
 10
-461.135631
 20
229.516023
 30
0.0
 40
27.75
100
AcDbArc
 50
180.0
 51
270.0
  0
ARC
  5
395
100
AcDbEntity
  8
2
100
AcDbCircle
 10
-376.635631
 20
229.516023
 30
0.0
 40
27.75
100
AcDbArc
 50
270.0
 51
360.0
  0
LINE
  5
396
100
AcDbEntity
  8
2
100
AcDbLine
 10
-474.885631
 20
228.766023
 30
0.0
 11
-485.848307
 21
228.766023
 31
0.0
  0
LINE
  5
397
100
AcDbEntity
  8
2
100
AcDbLine
 10
-362.885631
 20
228.766023
 30
0.0
 11
-351.922955
 21
228.766023
 31
0.0
  0
LINE
  5
398
100
AcDbEntity
  8
2
100
AcDbLine
 10
-372.885631
 20
218.766023
 30
0.0
 11
-372.885631
 21
206.766023
 31
0.0
  0
LINE
  5
399
100
AcDbEntity
  8
2
100
AcDbLine
 10
-464.885631
 20
218.766023
 30
0.0
 11
-464.885631
 21
206.766023
 31
0.0
  0
ARC
  5
39A
100
AcDbEntity
  8
2
100
AcDbCircle
 10
-362.885631
 20
218.766023
 30
0.0
 40
10.0
100
AcDbArc
 50
90.0
 51
180.0
  0
ARC
  5
39B
100
AcDbEntity
  8
2
100
AcDbCircle
 10
-474.885631
 20
218.766023
 30
0.0
 40
10.0
100
AcDbArc
 50
0.0
 51
90.0
  0
LINE
  5
39C
100
AcDbEntity
  8
2
100
AcDbLine
 10
-477.885631
 20
374.266023
 30
0.0
 11
-487.277822
 21
374.266023
 31
0.0
  0
LINE
  5
39D
100
AcDbEntity
  8
2
100
AcDbLine
 10
-488.885631
 20
332.766023
 30
0.0
 11
-490.588606
 21
332.766023
 31
0.0
  0
LINE
  5
39E
100
AcDbEntity
  8
2
100
AcDbLine
 10
-488.885631
 20
312.766023
 30
0.0
 11
-493.741733
 21
312.766023
 31
0.0
  0
LINE
  5
39F
100
AcDbEntity
  8
2
100
AcDbLine
 10
-348.885631
 20
312.766023
 30
0.0
 11
-344.029529
 21
312.766023
 31
0.0
  0
LINE
  5
3A0
100
AcDbEntity
  8
2
100
AcDbLine
 10
-348.885631
 20
332.766023
 30
0.0
 11
-347.182656
 21
332.766023
 31
0.0
  0
LINE
  5
3A1
100
AcDbEntity
  8
2
100
AcDbLine
 10
-359.885631
 20
374.266023
 30
0.0
 11
-350.49344
 21
374.266023
 31
0.0
  0
LINE
  5
3A2
100
AcDbEntity
  8
2
100
AcDbLine
 10
-369.885631
 20
384.266023
 30
0.0
 11
-369.885631
 21
390.766023
 31
0.0
  0
LINE
  5
3A3
100
AcDbEntity
  8
2
100
AcDbLine
 10
-467.885631
 20
384.266023
 30
0.0
 11
-467.885631
 21
390.766023
 31
0.0
  0
ARC
  5
3A4
100
AcDbEntity
  8
2
100
AcDbCircle
 10
-359.885631
 20
384.266023
 30
0.0
 40
10.0
100
AcDbArc
 50
180.0
 51
270.0
  0
ARC
  5
3A5
100
AcDbEntity
  8
2
100
AcDbCircle
 10
-477.885631
 20
384.266023
 30
0.0
 40
10.0
100
AcDbArc
 50
270.0
 51
360.0
  0
ARC
  5
3A6
100
AcDbEntity
  8
2
100
AcDbCircle
 10
-488.885631
 20
322.766023
 30
0.0
 40
10.0
100
AcDbArc
 50
270.0
 51
90.0
  0
ARC
  5
3A7
100
AcDbEntity
  8
2
100
AcDbCircle
 10
-348.885631
 20
322.766023
 30
0.0
 40
10.0
100
AcDbArc
 50
90.0
 51
270.0
  0
ARC
  5
3A8
100
AcDbEntity
  8
2
100
AcDbCircle
 10
-374.885631
 20
390.766023
 30
0.0
 40
5.0
100
AcDbArc
 50
0.0
 51
90.0
  0
ARC
  5
3A9
100
AcDbEntity
  8
2
100
AcDbCircle
 10
-350.49344
 20
369.266023
 30
0.0
 40
5.0
100
AcDbArc
 50
6.0
 51
90.0
  0
ARC
  5
3AA
100
AcDbEntity
  8
2
100
AcDbCircle
 10
-347.182656
 20
337.766023
 30
0.0
 40
5.0
100
AcDbArc
 50
270.0
 51
6.0
  0
ARC
  5
3AB
100
AcDbEntity
  8
2
100
AcDbCircle
 10
-344.029529
 20
307.766023
 30
0.0
 40
5.0
100
AcDbArc
 50
6.0
 51
90.0
  0
ARC
  5
3AC
100
AcDbEntity
  8
2
100
AcDbCircle
 10
-377.885631
 20
206.766023
 30
0.0
 40
5.0
100
AcDbArc
 50
270.0
 51
360.0
  0
ARC
  5
3AD
100
AcDbEntity
  8
2
100
AcDbCircle
 10
-459.885631
 20
206.766023
 30
0.0
 40
5.0
100
AcDbArc
 50
180.0
 51
270.0
  0
ARC
  5
3AE
100
AcDbEntity
  8
2
100
AcDbCircle
 10
-493.741733
 20
307.766023
 30
0.0
 40
5.0
100
AcDbArc
 50
90.0
 51
174.0
  0
ARC
  5
3AF
100
AcDbEntity
  8
2
100
AcDbCircle
 10
-490.588606
 20
337.766023
 30
0.0
 40
5.0
100
AcDbArc
 50
174.0
 51
270.0
  0
ARC
  5
3B0
100
AcDbEntity
  8
2
100
AcDbCircle
 10
-487.277822
 20
369.266023
 30
0.0
 40
5.0
100
AcDbArc
 50
90.0
 51
174.0
  0
ARC
  5
3B1
100
AcDbEntity
  8
2
100
AcDbCircle
 10
-462.885631
 20
390.766023
 30
0.0
 40
5.0
100
AcDbArc
 50
90.0
 51
180.0
  0
ARC
  5
3B2
100
AcDbEntity
  8
2
100
AcDbCircle
 10
-351.922955
 20
233.766023
 30
0.0
 40
5.0
100
AcDbArc
 50
270.0
 51
329.148114
  0
ARC
  5
3B3
100
AcDbEntity
  8
2
100
AcDbCircle
 10
-485.848307
 20
233.766023
 30
0.0
 40
5.0
100
AcDbArc
 50
210.851886
 51
270.0
  0
LINE
  5
3B4
100
AcDbEntity
  8
2
100
AcDbLine
 10
-348.885631
 20
229.516023
 30
0.0
 11
-348.885631
 21
229.79429
 31
0.0
  0
LINE
  5
3B5
100
AcDbEntity
  8
2
100
AcDbLine
 10
-488.885631
 20
229.516023
 30
0.0
 11
-488.885631
 21
229.79429
 31
0.0
  0
LINE
  5
3B6
100
AcDbEntity
  8
2
100
AcDbLine
 10
-423.385631
 20
312.727543
 30
0.0
 11
-423.385631
 21
320.699487
 31
0.0
  0
LINE
  5
3B7
100
AcDbEntity
  8
2
100
AcDbLine
 10
-414.385631
 20
312.727543
 30
0.0
 11
-414.385631
 21
320.699487
 31
0.0
  0
LINE
  5
3B8
100
AcDbEntity
  8
2
100
AcDbLine
 10
-465.819094
 20
278.266023
 30
0.0
 11
-457.84715
 21
278.266023
 31
0.0
  0
LINE
  5
3B9
100
AcDbEntity
  8
2
100
AcDbLine
 10
-379.924111
 20
278.266023
 30
0.0
 11
-371.952167
 21
278.266023
 31
0.0
  0
LINE
  5
3BA
100
AcDbEntity
  8
2
100
AcDbLine
 10
-465.819094
 20
269.266023
 30
0.0
 11
-457.84715
 21
269.266023
 31
0.0
  0
LINE
  5
3BB
100
AcDbEntity
  8
2
100
AcDbLine
 10
-379.924111
 20
269.266023
 30
0.0
 11
-371.952167
 21
269.266023
 31
0.0
  0
ARC
  5
3BC
100
AcDbEntity
  8
2
100
AcDbCircle
 10
-418.885631
 20
273.766023
 30
0.0
 40
49.0
100
AcDbArc
 50
176.950913
 51
183.049087
  0
ARC
  5
3BD
100
AcDbEntity
  8
2
100
AcDbCircle
 10
-418.885631
 20
273.766023
 30
0.0
 40
49.0
100
AcDbArc
 50
86.950913
 51
93.049087
  0
ARC
  5
3BE
100
AcDbEntity
  8
2
100
AcDbCircle
 10
-418.885631
 20
273.766023
 30
0.0
 40
49.0
100
AcDbArc
 50
356.950913
 51
3.049087
  0
ARC
  5
3BF
100
AcDbEntity
  8
2
100
AcDbCircle
 10
-418.885631
 20
273.766023
 30
0.0
 40
49.0
100
AcDbArc
 50
21.890459
 51
23.109541
  0
ARC
  5
3C0
100
AcDbEntity
  8
2
100
AcDbCircle
 10
-371.952167
 20
276.266023
 30
0.0
 40
2.0
100
AcDbArc
 50
3.049087
 51
90.0
  0
ARC
  5
3C1
100
AcDbEntity
  8
2
100
AcDbCircle
 10
-371.952167
 20
271.266023
 30
0.0
 40
2.0
100
AcDbArc
 50
270.0
 51
356.950913
  0
ARC
  5
3C2
100
AcDbEntity
  8
2
100
AcDbCircle
 10
-416.385631
 20
320.699487
 30
0.0
 40
2.0
100
AcDbArc
 50
0.0
 51
86.950913
  0
ARC
  5
3C3
100
AcDbEntity
  8
2
100
AcDbCircle
 10
-421.385631
 20
320.699487
 30
0.0
 40
2.0
100
AcDbArc
 50
93.049087
 51
180.0
  0
ARC
  5
3C4
100
AcDbEntity
  8
2
100
AcDbCircle
 10
-465.819094
 20
276.266023
 30
0.0
 40
2.0
100
AcDbArc
 50
90.0
 51
176.950913
  0
ARC
  5
3C5
100
AcDbEntity
  8
2
100
AcDbCircle
 10
-465.819094
 20
271.266023
 30
0.0
 40
2.0
100
AcDbArc
 50
183.049087
 51
270.0
  0
ARC
  5
3C6
100
AcDbEntity
  8
2
100
AcDbCircle
 10
-379.924111
 20
267.266023
 30
0.0
 40
2.0
100
AcDbArc
 50
90.0
 51
170.528502
  0
ARC
  5
3C7
100
AcDbEntity
  8
2
100
AcDbCircle
 10
-379.924111
 20
280.266023
 30
0.0
 40
2.0
100
AcDbArc
 50
189.471498
 51
270.0
  0
ARC
  5
3C8
100
AcDbEntity
  8
2
100
AcDbCircle
 10
-457.84715
 20
280.266023
 30
0.0
 40
2.0
100
AcDbArc
 50
270.0
 51
350.528502
  0
ARC
  5
3C9
100
AcDbEntity
  8
2
100
AcDbCircle
 10
-457.84715
 20
267.266023
 30
0.0
 40
2.0
100
AcDbArc
 50
9.471498
 51
90.0
  0
ARC
  5
3CA
100
AcDbEntity
  8
2
100
AcDbCircle
 10
-412.385631
 20
312.727543
 30
0.0
 40
2.0
100
AcDbArc
 50
180.0
 51
260.528502
  0
ARC
  5
3CB
100
AcDbEntity
  8
2
100
AcDbCircle
 10
-425.385631
 20
312.727543
 30
0.0
 40
2.0
100
AcDbArc
 50
279.471498
 51
360.0
  0
LINE
  5
3CC
100
AcDbEntity
  8
2
100
AcDbLine
 10
-383.586689
 20
291.093305
 30
0.0
 11
-376.422459
 21
294.060826
 31
0.0
  0
LINE
  5
3CD
100
AcDbEntity
  8
2
100
AcDbLine
 10
-381.673271
 20
286.473907
 30
0.0
 11
-374.509041
 21
289.441428
 31
0.0
  0
ARC
  5
3CE
100
AcDbEntity
  8
2
100
AcDbCircle
 10
-384.352055
 20
292.941064
 30
0.0
 40
2.0
100
AcDbArc
 50
209.04157
 51
292.5
  0
ARC
  5
3CF
100
AcDbEntity
  8
2
100
AcDbCircle
 10
-380.907905
 20
284.626148
 30
0.0
 40
2.0
100
AcDbArc
 50
112.5
 51
195.95843
  0
ARC
  5
3D0
100
AcDbEntity
  8
2
100
AcDbCircle
 10
-375.274408
 20
291.289187
 30
0.0
 40
2.0
100
AcDbArc
 50
292.5
 51
21.890459
  0
ARC
  5
3D1
100
AcDbEntity
  8
2
100
AcDbCircle
 10
-375.657092
 20
292.213067
 30
0.0
 40
2.0
100
AcDbArc
 50
23.109541
 51
112.5
  0
ARC
  5
3D2
100
AcDbEntity
  8
2
100
AcDbCircle
 10
-418.885631
 20
273.766023
 30
0.0
 40
49.0
100
AcDbArc
 50
44.390459
 51
45.609541
  0
LINE
  5
3D3
100
AcDbEntity
  8
2
100
AcDbLine
 10
-392.904524
 20
303.282664
 30
0.0
 11
-387.42126
 21
308.765929
 31
0.0
  0
LINE
  5
3D4
100
AcDbEntity
  8
2
100
AcDbLine
 10
-389.36899
 20
299.74713
 30
0.0
 11
-383.885726
 21
305.230395
 31
0.0
  0
ARC
  5
3D5
100
AcDbEntity
  8
2
100
AcDbCircle
 10
-394.318738
 20
304.696878
 30
0.0
 40
2.0
100
AcDbArc
 50
231.54157
 51
315.0
  0
ARC
  5
3D6
100
AcDbEntity
  8
2
100
AcDbCircle
 10
-387.954777
 20
298.332917
 30
0.0
 40
2.0
100
AcDbArc
 50
135.0
 51
218.45843
  0
ARC
  5
3D7
100
AcDbEntity
  8
2
100
AcDbCircle
 10
-385.299939
 20
306.644608
 30
0.0
 40
2.0
100
AcDbArc
 50
315.0
 51
44.390459
  0
ARC
  5
3D8
100
AcDbEntity
  8
2
100
AcDbCircle
 10
-386.007046
 20
307.351715
 30
0.0
 40
2.0
100
AcDbArc
 50
45.609541
 51
135.0
  0
ARC
  5
3D9
100
AcDbEntity
  8
2
100
AcDbCircle
 10
-418.885631
 20
273.766023
 30
0.0
 40
49.0
100
AcDbArc
 50
66.890459
 51
68.109541
  0
LINE
  5
3DA
100
AcDbEntity
  8
2
100
AcDbLine
 10
-406.177747
 20
310.978383
 30
0.0
 11
-403.210226
 21
318.142613
 31
0.0
  0
LINE
  5
3DB
100
AcDbEntity
  8
2
100
AcDbLine
 10
-401.55835
 20
309.064966
 30
0.0
 11
-398.590829
 21
316.229196
 31
0.0
  0
ARC
  5
3DC
100
AcDbEntity
  8
2
100
AcDbCircle
 10
-408.025506
 20
311.74375
 30
0.0
 40
2.0
100
AcDbArc
 50
254.04157
 51
337.5
  0
ARC
  5
3DD
100
AcDbEntity
  8
2
100
AcDbCircle
 10
-399.710591
 20
308.299599
 30
0.0
 40
2.0
100
AcDbArc
 50
157.5
 51
240.95843
  0
ARC
  5
3DE
100
AcDbEntity
  8
2
100
AcDbCircle
 10
-400.438588
 20
316.994563
 30
0.0
 40
2.0
100
AcDbArc
 50
337.5
 51
66.890459
  0
ARC
  5
3DF
100
AcDbEntity
  8
2
100
AcDbCircle
 10
-401.362467
 20
317.377246
 30
0.0
 40
2.0
100
AcDbArc
 50
68.109541
 51
157.5
  0
ARC
  5
3E0
100
AcDbEntity
  8
2
100
AcDbCircle
 10
-418.885631
 20
273.766023
 30
0.0
 40
49.0
100
AcDbArc
 50
156.890459
 51
158.109541
  0
LINE
  5
3E1
100
AcDbEntity
  8
2
100
AcDbLine
 10
-454.184573
 20
291.093305
 30
0.0
 11
-461.348803
 21
294.060826
 31
0.0
  0
LINE
  5
3E2
100
AcDbEntity
  8
2
100
AcDbLine
 10
-456.09799
 20
286.473907
 30
0.0
 11
-463.26222
 21
289.441428
 31
0.0
  0
ARC
  5
3E3
100
AcDbEntity
  8
2
100
AcDbCircle
 10
-453.419206
 20
292.941064
 30
0.0
 40
2.0
100
AcDbArc
 50
247.5
 51
330.95843
  0
ARC
  5
3E4
100
AcDbEntity
  8
2
100
AcDbCircle
 10
-456.863357
 20
284.626148
 30
0.0
 40
2.0
100
AcDbArc
 50
344.04157
 51
67.5
  0
ARC
  5
3E5
100
AcDbEntity
  8
2
100
AcDbCircle
 10
-462.496853
 20
291.289187
 30
0.0
 40
2.0
100
AcDbArc
 50
158.109541
 51
247.5
  0
ARC
  5
3E6
100
AcDbEntity
  8
2
100
AcDbCircle
 10
-462.11417
 20
292.213067
 30
0.0
 40
2.0
100
AcDbArc
 50
67.5
 51
156.890459
  0
ARC
  5
3E7
100
AcDbEntity
  8
2
100
AcDbCircle
 10
-418.885631
 20
273.766023
 30
0.0
 40
49.0
100
AcDbArc
 50
134.390459
 51
135.609541
  0
LINE
  5
3E8
100
AcDbEntity
  8
2
100
AcDbLine
 10
-444.866738
 20
303.282664
 30
0.0
 11
-450.350002
 21
308.765929
 31
0.0
  0
LINE
  5
3E9
100
AcDbEntity
  8
2
100
AcDbLine
 10
-448.402272
 20
299.74713
 30
0.0
 11
-453.885536
 21
305.230395
 31
0.0
  0
ARC
  5
3EA
100
AcDbEntity
  8
2
100
AcDbCircle
 10
-443.452524
 20
304.696878
 30
0.0
 40
2.0
100
AcDbArc
 50
225.0
 51
308.45843
  0
ARC
  5
3EB
100
AcDbEntity
  8
2
100
AcDbCircle
 10
-449.816485
 20
298.332917
 30
0.0
 40
2.0
100
AcDbArc
 50
321.54157
 51
45.0
  0
ARC
  5
3EC
100
AcDbEntity
  8
2
100
AcDbCircle
 10
-452.471322
 20
306.644608
 30
0.0
 40
2.0
100
AcDbArc
 50
135.609541
 51
225.0
  0
ARC
  5
3ED
100
AcDbEntity
  8
2
100
AcDbCircle
 10
-451.764216
 20
307.351715
 30
0.0
 40
2.0
100
AcDbArc
 50
45.0
 51
134.390459
  0
ARC
  5
3EE
100
AcDbEntity
  8
2
100
AcDbCircle
 10
-418.885631
 20
273.766023
 30
0.0
 40
49.0
100
AcDbArc
 50
111.890459
 51
113.109541
  0
LINE
  5
3EF
100
AcDbEntity
  8
2
100
AcDbLine
 10
-431.593514
 20
310.978383
 30
0.0
 11
-434.561036
 21
318.142613
 31
0.0
  0
LINE
  5
3F0
100
AcDbEntity
  8
2
100
AcDbLine
 10
-436.212912
 20
309.064966
 30
0.0
 11
-439.180433
 21
316.229196
 31
0.0
  0
ARC
  5
3F1
100
AcDbEntity
  8
2
100
AcDbCircle
 10
-429.745755
 20
311.74375
 30
0.0
 40
2.0
100
AcDbArc
 50
202.5
 51
285.95843
  0
ARC
  5
3F2
100
AcDbEntity
  8
2
100
AcDbCircle
 10
-438.060671
 20
308.299599
 30
0.0
 40
2.0
100
AcDbArc
 50
299.04157
 51
22.5
  0
ARC
  5
3F3
100
AcDbEntity
  8
2
100
AcDbCircle
 10
-437.332674
 20
316.994563
 30
0.0
 40
2.0
100
AcDbArc
 50
113.109541
 51
202.5
  0
ARC
  5
3F4
100
AcDbEntity
  8
2
100
AcDbCircle
 10
-436.408795
 20
317.377246
 30
0.0
 40
2.0
100
AcDbArc
 50
22.5
 51
111.890459
  0
ARC
  5
3F5
100
AcDbEntity
  8
2
100
AcDbCircle
 10
-418.885631
 20
273.766023
 30
0.0
 40
40.5
100
AcDbArc
 50
8.797411
 51
16.421995
  0
ARC
  5
3F6
100
AcDbEntity
  8
2
100
AcDbCircle
 10
-418.885631
 20
273.766023
 30
0.0
 40
40.5
100
AcDbArc
 50
28.578005
 51
38.921995
  0
ARC
  5
3F7
100
AcDbEntity
  8
2
100
AcDbCircle
 10
-418.885631
 20
273.766023
 30
0.0
 40
40.5
100
AcDbArc
 50
51.078005
 51
61.421995
  0
ARC
  5
3F8
100
AcDbEntity
  8
2
100
AcDbCircle
 10
-418.885631
 20
273.766023
 30
0.0
 40
40.5
100
AcDbArc
 50
73.578005
 51
81.202589
  0
ARC
  5
3F9
100
AcDbEntity
  8
2
100
AcDbCircle
 10
-418.885631
 20
273.766023
 30
0.0
 40
40.5
100
AcDbArc
 50
98.797411
 51
106.421995
  0
ARC
  5
3FA
100
AcDbEntity
  8
2
100
AcDbCircle
 10
-418.885631
 20
273.766023
 30
0.0
 40
40.5
100
AcDbArc
 50
118.578005
 51
128.921995
  0
ARC
  5
3FB
100
AcDbEntity
  8
2
100
AcDbCircle
 10
-418.885631
 20
273.766023
 30
0.0
 40
40.5
100
AcDbArc
 50
141.078005
 51
151.421995
  0
ARC
  5
3FC
100
AcDbEntity
  8
2
100
AcDbCircle
 10
-418.885631
 20
273.766023
 30
0.0
 40
40.5
100
AcDbArc
 50
163.578005
 51
171.202589
  0
ARC
  5
3FD
100
AcDbEntity
  8
2
100
AcDbCircle
 10
-418.885631
 20
273.766023
 30
0.0
 40
40.5
100
AcDbArc
 50
188.797411
 51
351.202589
  0
ARC
  5
3FE
100
AcDbEntity
  8
2
100
AcDbCircle
 10
-376.885631
 20
267.266023
 30
0.0
 40
2.0
100
AcDbArc
 50
90.0
 51
171.202589
  0
ARC
  5
3FF
100
AcDbEntity
  8
2
100
AcDbCircle
 10
-376.885631
 20
280.266023
 30
0.0
 40
2.0
100
AcDbArc
 50
188.797411
 51
270.0
  0
ARC
  5
400
100
AcDbEntity
  8
2
100
AcDbCircle
 10
-378.119396
 20
285.781186
 30
0.0
 40
2.0
100
AcDbArc
 50
112.5
 51
196.421995
  0
ARC
  5
401
100
AcDbEntity
  8
2
100
AcDbCircle
 10
-381.563547
 20
294.096102
 30
0.0
 40
2.0
100
AcDbArc
 50
208.578005
 51
292.5
  0
ARC
  5
402
100
AcDbEntity
  8
2
100
AcDbCircle
 10
-385.820545
 20
300.467149
 30
0.0
 40
2.0
100
AcDbArc
 50
135.0
 51
218.921995
  0
ARC
  5
403
100
AcDbEntity
  8
2
100
AcDbCircle
 10
-392.184506
 20
306.83111
 30
0.0
 40
2.0
100
AcDbArc
 50
231.078005
 51
315.0
  0
ARC
  5
404
100
AcDbEntity
  8
2
100
AcDbCircle
 10
-398.555553
 20
311.088107
 30
0.0
 40
2.0
100
AcDbArc
 50
157.5
 51
241.421995
  0
ARC
  5
405
100
AcDbEntity
  8
2
100
AcDbCircle
 10
-406.870469
 20
314.532258
 30
0.0
 40
2.0
100
AcDbArc
 50
253.578005
 51
337.5
  0
ARC
  5
406
100
AcDbEntity
  8
2
100
AcDbCircle
 10
-412.385631
 20
315.766023
 30
0.0
 40
2.0
100
AcDbArc
 50
180.0
 51
261.202589
  0
ARC
  5
407
100
AcDbEntity
  8
2
100
AcDbCircle
 10
-425.385631
 20
315.766023
 30
0.0
 40
2.0
100
AcDbArc
 50
278.797411
 51
360.0
  0
ARC
  5
408
100
AcDbEntity
  8
2
100
AcDbCircle
 10
-430.900793
 20
314.532258
 30
0.0
 40
2.0
100
AcDbArc
 50
202.5
 51
286.421995
  0
ARC
  5
409
100
AcDbEntity
  8
2
100
AcDbCircle
 10
-439.215709
 20
311.088107
 30
0.0
 40
2.0
100
AcDbArc
 50
298.578005
 51
22.5
  0
ARC
  5
40A
100
AcDbEntity
  8
2
100
AcDbCircle
 10
-445.586756
 20
306.83111
 30
0.0
 40
2.0
100
AcDbArc
 50
225.0
 51
308.921995
  0
ARC
  5
40B
100
AcDbEntity
  8
2
100
AcDbCircle
 10
-451.950717
 20
300.467149
 30
0.0
 40
2.0
100
AcDbArc
 50
321.078005
 51
45.0
  0
ARC
  5
40C
100
AcDbEntity
  8
2
100
AcDbCircle
 10
-456.207715
 20
294.096102
 30
0.0
 40
2.0
100
AcDbArc
 50
247.5
 51
331.421995
  0
ARC
  5
40D
100
AcDbEntity
  8
2
100
AcDbCircle
 10
-459.651865
 20
285.781186
 30
0.0
 40
2.0
100
AcDbArc
 50
343.578005
 51
67.5
  0
ARC
  5
40E
100
AcDbEntity
  8
2
100
AcDbCircle
 10
-460.885631
 20
280.266023
 30
0.0
 40
2.0
100
AcDbArc
 50
270.0
 51
351.202589
  0
ARC
  5
40F
100
AcDbEntity
  8
2
100
AcDbCircle
 10
-460.885631
 20
267.266023
 30
0.0
 40
2.0
100
AcDbArc
 50
8.797411
 51
90.0
  0
TEXT
  5
410
100
AcDbEntity
  8
2
100
AcDbText
 10
-421.885631
 20
323.766023
 30
0.0
 40
6.0
  1
Ｏ
 72
     5
 11
-417.085631
 21
323.766023
 31
0.0
100
AcDbText
  0
TEXT
  5
411
100
AcDbEntity
  8
2
100
AcDbText
 10
-422.635631
 20
225.266023
 30
0.0
 40
7.5
  1
Ａ
 72
     5
 11
-416.635631
 21
225.266023
 31
0.0
100
AcDbText
  0
TEXT
  5
412
100
AcDbEntity
  8
2
100
AcDbText
 10
-368.885631
 20
276.766023
 30
0.0
 40
6.0
  1
Ｓ
 50
270.0
 72
     5
 11
-368.885631
 21
271.966023
 31
0.0
100
AcDbText
  0
TEXT
  5
413
100
AcDbEntity
  8
2
100
AcDbText
 10
-468.885631
 20
270.766023
 30
0.0
 40
6.0
  1
Ｓ
 50
90.0
 72
     5
 11
-468.885631
 21
275.566023
 31
0.0
100
AcDbText
  0
LINE
  5
414
100
AcDbEntity
  8
2
100
AcDbLine
 10
-501.885631
 20
27.066023
 30
0.0
 11
-335.885631
 21
27.066023
 31
0.0
  0
LINE
  5
415
100
AcDbEntity
  8
2
100
AcDbLine
 10
-501.885631
 20
34.066023
 30
0.0
 11
-335.885631
 21
34.066023
 31
0.0
  0
LINE
  5
416
100
AcDbEntity
  8
2
100
AcDbLine
 10
-467.885631
 20
42.066023
 30
0.0
 11
-369.885631
 21
42.066023
 31
0.0
  0
LINE
  5
417
100
AcDbEntity
  8
2
100
AcDbLine
 10
-501.885631
 20
34.066023
 30
0.0
 11
-501.885631
 21
-12.933977
 31
0.0
  0
LINE
  5
418
100
AcDbEntity
  8
2
100
AcDbLine
 10
-335.885631
 20
34.066023
 30
0.0
 11
-335.885631
 21
26.066023
 31
0.0
  0
LINE
  5
419
100
AcDbEntity
  8
2
100
AcDbLine
 10
-335.885631
 20
34.066023
 30
0.0
 11
-344.545885
 21
39.066023
 31
0.0
  0
LINE
  5
41A
100
AcDbEntity
  8
2
100
AcDbLine
 10
-501.885631
 20
34.066023
 30
0.0
 11
-493.225377
 21
39.066023
 31
0.0
  0
LINE
  5
41B
100
AcDbEntity
  8
2
100
AcDbLine
 10
-354.699376
 20
374.266023
 30
0.0
 11
-350.326582
 21
332.661662
 31
0.0
  0
LINE
  5
41C
100
AcDbEntity
  8
2
100
AcDbLine
 10
-348.235466
 20
312.766023
 30
0.0
 11
-344.953126
 21
281.536643
 31
0.0
  0
LINE
  5
41D
100
AcDbEntity
  8
2
100
AcDbLine
 10
-492.818136
 20
281.536643
 30
0.0
 11
-489.535796
 21
312.766023
 31
0.0
  0
LINE
  5
41E
100
AcDbEntity
  8
2
100
AcDbLine
 10
-487.44468
 20
332.661662
 30
0.0
 11
-483.071885
 21
374.266023
 31
0.0
  0
ARC
  5
41F
100
AcDbEntity
  8
2
100
AcDbCircle
 10
-418.885631
 20
273.766023
 30
0.0
 40
74.339746
100
AcDbArc
 50
174.0
 51
217.252516
  0
ARC
  5
420
100
AcDbEntity
  8
2
100
AcDbCircle
 10
-418.885631
 20
273.766023
 30
0.0
 40
74.339746
100
AcDbArc
 50
322.747484
 51
6.0
  0
LINE
  5
421
100
AcDbEntity
  8
2
100
AcDbLine
 10
-369.885631
 20
39.066023
 30
0.0
 11
-369.885631
 21
42.066023
 31
0.0
  0
LINE
  5
422
100
AcDbEntity
  8
2
100
AcDbLine
 10
-467.885631
 20
39.066023
 30
0.0
 11
-467.885631
 21
42.066023
 31
0.0
  0
LINE
  5
423
100
AcDbEntity
  8
2
100
AcDbLine
 10
-378.636407
 20
39.066023
 30
0.0
 11
-381.65661
 21
42.066023
 31
0.0
  0
LINE
  5
424
100
AcDbEntity
  8
2
100
AcDbLine
 10
-459.134855
 20
39.066023
 30
0.0
 11
-456.114652
 21
42.066023
 31
0.0
  0
LINE
  5
425
100
AcDbEntity
  8
2
100
AcDbLine
 10
-348.885631
 20
32.066023
 30
0.0
 11
-348.885631
 21
-45.933977
 31
0.0
  0
ARC
  5
426
100
AcDbEntity
  8
2
100
AcDbCircle
 10
-350.885631
 20
32.066023
 30
0.0
 40
2.0
100
AcDbArc
 50
0.0
 51
90.0
  0
LINE
  5
427
100
AcDbEntity
  8
2
100
AcDbLine
 10
-488.885631
 20
32.066023
 30
0.0
 11
-488.885631
 21
-45.933977
 31
0.0
  0
ARC
  5
428
100
AcDbEntity
  8
2
100
AcDbCircle
 10
-486.885631
 20
32.066023
 30
0.0
 40
2.0
100
AcDbArc
 50
90.0
 51
180.0
  0
LINE
  5
429
100
AcDbEntity
  8
2
100
AcDbLine
 10
-372.885631
 20
37.066023
 30
0.0
 11
-372.885631
 21
36.066023
 31
0.0
  0
LINE
  5
42A
100
AcDbEntity
  8
2
100
AcDbLine
 10
-464.885631
 20
37.066023
 30
0.0
 11
-464.885631
 21
36.066023
 31
0.0
  0
ARC
  5
42B
100
AcDbEntity
  8
2
100
AcDbCircle
 10
-374.885631
 20
37.066023
 30
0.0
 40
2.0
100
AcDbArc
 50
0.0
 51
90.0
  0
ARC
  5
42C
100
AcDbEntity
  8
2
100
AcDbCircle
 10
-462.885631
 20
37.066023
 30
0.0
 40
2.0
100
AcDbArc
 50
90.0
 51
180.0
  0
ARC
  5
42D
100
AcDbEntity
  8
2
100
AcDbCircle
 10
-466.885631
 20
36.066023
 30
0.0
 40
2.0
100
AcDbArc
 50
270.0
 51
360.0
  0
ARC
  5
42E
100
AcDbEntity
  8
2
100
AcDbCircle
 10
-370.885631
 20
36.066023
 30
0.0
 40
2.0
100
AcDbArc
 50
180.0
 51
270.0
  0
LINE
  5
42F
100
AcDbEntity
  8
2
100
AcDbLine
 10
-349.143248
 20
34.066023
 30
0.0
 11
-355.885631
 21
37.255488
 31
0.0
  0
LINE
  5
430
100
AcDbEntity
  8
2
100
AcDbLine
 10
-488.628014
 20
34.066023
 30
0.0
 11
-481.885631
 21
37.255488
 31
0.0
  0
LINE
  5
431
100
AcDbEntity
  8
2
100
AcDbLine
 10
284.514369
 20
27.066023
 30
0.0
 11
90.514369
 21
27.066023
 31
0.0
  0
LINE
  5
432
100
AcDbEntity
  8
2
100
AcDbLine
 10
284.514369
 20
34.066023
 30
0.0
 11
90.514369
 21
34.066023
 31
0.0
  0
LINE
  5
433
100
AcDbEntity
  8
2
100
AcDbLine
 10
211.514369
 20
42.066023
 30
0.0
 11
125.014369
 21
42.066023
 31
0.0
  0
LINE
  5
434
100
AcDbEntity
  8
2
100
AcDbLine
 10
284.514369
 20
34.066023
 30
0.0
 11
284.514369
 21
2.066023
 31
0.0
  0
LINE
  5
435
100
AcDbEntity
  8
2
100
AcDbLine
 10
90.514369
 20
34.066023
 30
0.0
 11
90.514369
 21
-12.933977
 31
0.0
  0
LINE
  5
436
100
AcDbEntity
  8
2
100
AcDbLine
 10
284.514369
 20
34.066023
 30
0.0
 11
280.014369
 21
36.6641
 31
0.0
  0
LINE
  5
437
100
AcDbEntity
  8
2
100
AcDbLine
 10
90.514369
 20
34.066023
 30
0.0
 11
99.174623
 21
39.066023
 31
0.0
  0
LINE
  5
438
100
AcDbEntity
  8
2
100
AcDbLine
 10
-369.885631
 20
387.105769
 30
0.0
 11
-467.885631
 21
387.105769
 31
0.0
  0
LINE
  5
439
100
AcDbEntity
  8
2
100
AcDbLine
 10
-372.885631
 20
210.426278
 30
0.0
 11
-464.885631
 21
210.426278
 31
0.0
  0
LINE
  5
43A
100
AcDbEntity
  8
2
100
AcDbLine
 10
211.514369
 20
42.066023
 30
0.0
 11
211.514369
 21
41.266023
 31
0.0
  0
LINE
  5
43B
100
AcDbEntity
  8
2
100
AcDbLine
 10
125.014369
 20
42.066023
 30
0.0
 11
122.014369
 21
39.066023
 31
0.0
  0
LINE
  5
43C
100
AcDbEntity
  8
2
100
AcDbLine
 10
208.125592
 20
42.066023
 30
0.0
 11
208.125592
 21
40.944151
 31
0.0
  0
LINE
  5
43D
100
AcDbEntity
  8
2
100
AcDbLine
 10
198.100061
 20
42.066023
 30
0.0
 11
198.100061
 21
39.066023
 31
0.0
  0
LINE
  5
43E
100
AcDbEntity
  8
2
100
AcDbLine
 10
182.961412
 20
42.066023
 30
0.0
 11
182.961412
 21
39.066023
 31
0.0
  0
LINE
  5
43F
100
AcDbEntity
  8
2
100
AcDbLine
 10
206.768798
 20
42.066023
 30
0.0
 11
206.768798
 21
40.62919
 31
0.0
  0
LINE
  5
440
100
AcDbEntity
  8
2
100
AcDbLine
 10
195.349709
 20
42.066023
 30
0.0
 11
195.349709
 21
39.066023
 31
0.0
  0
LINE
  5
441
100
AcDbEntity
  8
2
100
AcDbLine
 10
178.931737
 20
42.066023
 30
0.0
 11
178.931737
 21
39.066023
 31
0.0
  0
LINE
  5
442
100
AcDbEntity
  8
2
100
AcDbLine
 10
167.014369
 20
42.066023
 30
0.0
 11
167.014369
 21
39.066023
 31
0.0
  0
LINE
  5
443
100
AcDbEntity
  8
2
100
AcDbLine
 10
158.014369
 20
42.066023
 30
0.0
 11
158.014369
 21
39.066023
 31
0.0
  0
LINE
  5
444
100
AcDbEntity
  8
2
100
AcDbLine
 10
198.903427
 20
39.066023
 30
0.0
 11
198.100061
 21
39.93379
 31
0.0
  0
LINE
  5
445
100
AcDbEntity
  8
2
100
AcDbLine
 10
189.329814
 20
39.066023
 30
0.0
 11
187.204115
 21
42.066023
 31
0.0
  0
LINE
  5
446
100
AcDbEntity
  8
2
100
AcDbLine
 10
175.673793
 20
39.066023
 30
0.0
 11
174.523373
 21
42.066023
 31
0.0
  0
LINE
  5
447
100
AcDbEntity
  8
2
100
AcDbLine
 10
263.014369
 20
39.066023
 30
0.0
 11
263.014369
 21
34.066023
 31
0.0
  0
LINE
  5
448
100
AcDbEntity
  8
2
100
AcDbLine
 10
118.542636
 20
34.066023
 30
0.0
 11
118.542636
 21
-39.160899
 31
0.0
  0
LINE
  5
449
100
AcDbEntity
  8
2
100
AcDbLine
 10
117.514369
 20
39.066023
 30
0.0
 11
117.514369
 21
34.066023
 31
0.0
  0
LINE
  5
44A
100
AcDbEntity
  8
2
100
AcDbLine
 10
201.514369
 20
39.066023
 30
0.0
 11
201.514369
 21
34.066023
 31
0.0
  0
LINE
  5
44B
100
AcDbEntity
  8
2
100
AcDbLine
 10
221.514369
 20
39.066023
 30
0.0
 11
221.514369
 21
34.066023
 31
0.0
  0
LINE
  5
44C
100
AcDbEntity
  8
2
100
AcDbLine
 10
-501.885631
 20
26.066023
 30
0.0
 11
-334.885631
 21
26.066023
 31
0.0
  0
LINE
  5
44D
100
AcDbEntity
  8
2
100
AcDbLine
 10
88.514369
 20
26.066023
 30
0.0
 11
284.514369
 21
26.066023
 31
0.0
  0
LINE
  5
44E
100
AcDbEntity
  8
2
100
AcDbLine
 10
232.514369
 20
-44.160899
 30
0.0
 11
232.514369
 21
-45.933977
 31
0.0
  0
LINE
  5
44F
100
AcDbEntity
  8
2
100
AcDbLine
 10
264.594699
 20
-29.201595
 30
0.0
 11
232.514369
 21
-44.160899
 31
0.0
  0
ARC
  5
450
100
AcDbEntity
  8
2
100
AcDbCircle
 10
250.014369
 20
2.066023
 30
0.0
 40
34.5
100
AcDbArc
 50
295.0
 51
360.0
  0
LINE
  5
451
100
AcDbEntity
  8
2
100
AcDbLine
 10
90.514369
 20
-12.933977
 30
0.0
 11
92.514369
 21
-45.933977
 31
0.0
  0
LINE
  5
452
100
AcDbEntity
  8
2
100
AcDbLine
 10
232.514369
 20
-44.160899
 30
0.0
 11
123.542636
 21
-44.160899
 31
0.0
  0
ARC
  5
453
100
AcDbEntity
  8
2
100
AcDbCircle
 10
123.542636
 20
-39.160899
 30
0.0
 40
5.0
100
AcDbArc
 50
180.0
 51
270.0
  0
LINE
  5
454
100
AcDbEntity
  8
2
100
AcDbLine
 10
197.514369
 20
26.066023
 30
0.0
 11
197.514369
 21
-4.933977
 31
0.0
  0
LINE
  5
455
100
AcDbEntity
  8
2
100
AcDbLine
 10
153.514369
 20
26.066023
 30
0.0
 11
153.514369
 21
-4.933977
 31
0.0
  0
LINE
  5
456
100
AcDbEntity
  8
2
100
AcDbLine
 10
156.514369
 20
-7.933977
 30
0.0
 11
194.514369
 21
-7.933977
 31
0.0
  0
ARC
  5
457
100
AcDbEntity
  8
2
100
AcDbCircle
 10
194.514369
 20
-4.933977
 30
0.0
 40
3.0
100
AcDbArc
 50
270.0
 51
360.0
  0
ARC
  5
458
100
AcDbEntity
  8
2
100
AcDbCircle
 10
156.514369
 20
-4.933977
 30
0.0
 40
3.0
100
AcDbArc
 50
180.0
 51
270.0
  0
LINE
  5
459
100
AcDbEntity
  8
2
100
AcDbLine
 10
221.014369
 20
26.066023
 30
0.0
 11
221.014369
 21
1.880978
 31
0.0
  0
LINE
  5
45A
100
AcDbEntity
  8
2
100
AcDbLine
 10
279.014369
 20
26.066023
 30
0.0
 11
279.014369
 21
1.880978
 31
0.0
  0
LINE
  5
45B
100
AcDbEntity
  8
2
100
AcDbLine
 10
256.014369
 20
-18.326281
 30
0.0
 11
273.014369
 21
-8.511327
 31
0.0
  0
LINE
  5
45C
100
AcDbEntity
  8
2
100
AcDbLine
 10
244.014369
 20
-18.326281
 30
0.0
 11
227.014369
 21
-8.511327
 31
0.0
  0
ARC
  5
45D
100
AcDbEntity
  8
2
100
AcDbCircle
 10
250.014369
 20
-7.933977
 30
0.0
 40
12.0
100
AcDbArc
 50
240.0
 51
300.0
  0
ARC
  5
45E
100
AcDbEntity
  8
2
100
AcDbCircle
 10
267.014369
 20
1.880978
 30
0.0
 40
12.0
100
AcDbArc
 50
300.0
 51
0.0
  0
ARC
  5
45F
100
AcDbEntity
  8
2
100
AcDbCircle
 10
233.014369
 20
1.880978
 30
0.0
 40
12.0
100
AcDbArc
 50
180.0
 51
240.0
  0
CIRCLE
  5
460
100
AcDbEntity
  8
2
100
AcDbCircle
 10
250.014369
 20
2.066023
 30
0.0
 40
13.0
  0
CIRCLE
  5
461
100
AcDbEntity
  8
2
100
AcDbCircle
 10
250.014369
 20
2.066023
 30
0.0
 40
11.0
  0
LINE
  5
462
100
AcDbEntity
  8
2
100
AcDbLine
 10
88.514369
 20
26.066023
 30
0.0
 11
88.514369
 21
-8.933977
 31
0.0
  0
ARC
  5
463
100
AcDbEntity
  8
2
100
AcDbCircle
 10
89.514369
 20
-8.933977
 30
0.0
 40
1.0
100
AcDbArc
 50
180.0
 51
270.0
  0
ARC
  5
464
100
AcDbEntity
  8
2
100
AcDbCircle
 10
89.514369
 20
-10.933977
 30
0.0
 40
1.0
100
AcDbArc
 50
0.0
 51
90.0
  0
LINE
  5
465
100
AcDbEntity
  8
2
100
AcDbLine
 10
-335.885631
 20
-12.933977
 30
0.0
 11
-348.885631
 21
-44.160899
 31
0.0
  0
LINE
  5
466
100
AcDbEntity
  8
2
100
AcDbLine
 10
-501.885631
 20
-12.933977
 30
0.0
 11
-488.885631
 21
-44.160899
 31
0.0
  0
LINE
  5
467
100
AcDbEntity
  8
2
100
AcDbLine
 10
-378.885631
 20
2.066023
 30
0.0
 11
-378.885631
 21
26.066023
 31
0.0
  0
LINE
  5
468
100
AcDbEntity
  8
2
100
AcDbLine
 10
-458.885631
 20
2.066023
 30
0.0
 11
-458.885631
 21
26.066023
 31
0.0
  0
LINE
  5
469
100
AcDbEntity
  8
2
100
AcDbLine
 10
-446.885631
 20
-9.933977
 30
0.0
 11
-390.885631
 21
-9.933977
 31
0.0
  0
ARC
  5
46A
100
AcDbEntity
  8
2
100
AcDbCircle
 10
-446.885631
 20
2.066023
 30
0.0
 40
12.0
100
AcDbArc
 50
180.0
 51
270.0
  0
ARC
  5
46B
100
AcDbEntity
  8
2
100
AcDbCircle
 10
-390.885631
 20
2.066023
 30
0.0
 40
12.0
100
AcDbArc
 50
270.0
 51
360.0
  0
LINE
  5
46C
100
AcDbEntity
  8
2
100
AcDbLine
 10
-458.885631
 20
199.766023
 30
0.0
 11
-378.885631
 21
199.766023
 31
0.0
  0
LINE
  5
46D
100
AcDbEntity
  8
2
100
AcDbLine
 10
-378.885631
 20
199.766023
 30
0.0
 11
-378.885631
 21
201.766023
 31
0.0
  0
LINE
  5
46E
100
AcDbEntity
  8
2
100
AcDbLine
 10
-458.885631
 20
199.766023
 30
0.0
 11
-458.885631
 21
201.766023
 31
0.0
  0
LINE
  5
46F
100
AcDbEntity
  8
2
100
AcDbLine
 10
-334.885631
 20
265.766023
 30
0.0
 11
-334.885631
 21
307.766023
 31
0.0
  0
LINE
  5
470
100
AcDbEntity
  8
2
100
AcDbLine
 10
-338.206688
 20
308.766023
 30
0.0
 11
-335.885631
 21
308.766023
 31
0.0
  0
ARC
  5
471
100
AcDbEntity
  8
2
100
AcDbCircle
 10
-338.206688
 20
309.766023
 30
0.0
 40
1.0
100
AcDbArc
 50
186.0
 51
270.0
  0
ARC
  5
472
100
AcDbEntity
  8
2
100
AcDbCircle
 10
-335.885631
 20
307.766023
 30
0.0
 40
1.0
100
AcDbArc
 50
0.0
 51
90.0
  0
ARC
  5
473
100
AcDbEntity
  8
2
100
AcDbCircle
 10
-335.885631
 20
265.766023
 30
0.0
 40
1.0
100
AcDbArc
 50
281.76106
 51
360.0
  0
ARC
  5
474
100
AcDbEntity
  8
2
100
AcDbCircle
 10
-335.477969
 20
263.808011
 30
0.0
 40
1.0
100
AcDbArc
 50
101.76106
 51
173.191703
  0
LINE
  5
475
100
AcDbEntity
  8
2
100
AcDbLine
 10
-336.375026
 20
26.066023
 30
0.0
 11
-336.375026
 21
-7.933977
 31
0.0
  0
LINE
  5
476
100
AcDbEntity
  8
2
100
AcDbLine
 10
-334.885631
 20
-7.933977
 30
0.0
 11
-334.885631
 21
26.066023
 31
0.0
  0
LINE
  5
477
100
AcDbEntity
  8
2
100
AcDbLine
 10
-335.375026
 20
-7.933977
 30
0.0
 11
-334.885631
 21
-7.933977
 31
0.0
  0
ARC
  5
478
100
AcDbEntity
  8
2
100
AcDbCircle
 10
-335.375026
 20
-8.933977
 30
0.0
 40
1.0
100
AcDbArc
 50
90.0
 51
180.0
  0
LINE
  5
479
100
AcDbEntity
  8
2
100
AcDbLine
 10
-335.885631
 20
-8.933977
 30
0.0
 11
-335.885631
 21
-12.933977
 31
0.0
  0
ARC
  5
47A
100
AcDbEntity
  8
2
100
AcDbCircle
 10
-334.885631
 20
-8.933977
 30
0.0
 40
1.0
100
AcDbArc
 50
90.0
 51
180.0
  0
LINE
  5
47B
100
AcDbEntity
  8
2
100
AcDbLine
 10
-340.885631
 20
333.266023
 30
0.0
 11
-340.885631
 21
387.266023
 31
0.0
  0
LINE
  5
47C
100
AcDbEntity
  8
2
100
AcDbLine
 10
-496.885631
 20
333.266023
 30
0.0
 11
-496.885631
 21
387.266023
 31
0.0
  0
LINE
  5
47D
100
AcDbEntity
  8
2
100
AcDbLine
 10
-493.885631
 20
390.266023
 30
0.0
 11
-488.483379
 21
390.266023
 31
0.0
  0
LINE
  5
47E
100
AcDbEntity
  8
2
100
AcDbLine
 10
-349.287883
 20
390.266023
 30
0.0
 11
-343.885631
 21
390.266023
 31
0.0
  0
ARC
  5
47F
100
AcDbEntity
  8
2
100
AcDbCircle
 10
-343.885631
 20
387.266023
 30
0.0
 40
3.0
100
AcDbArc
 50
0.0
 51
90.0
  0
ARC
  5
480
100
AcDbEntity
  8
2
100
AcDbCircle
 10
-493.885631
 20
387.266023
 30
0.0
 40
3.0
100
AcDbArc
 50
90.0
 51
180.0
  0
ARC
  5
481
100
AcDbEntity
  8
2
100
AcDbCircle
 10
-341.885631
 20
333.266023
 30
0.0
 40
1.0
100
AcDbArc
 50
312.954832
 51
0.0
  0
ARC
  5
482
100
AcDbEntity
  8
2
100
AcDbCircle
 10
-340.522788
 20
331.802241
 30
0.0
 40
1.0
100
AcDbArc
 50
132.954832
 51
186.0
  0
ARC
  5
483
100
AcDbEntity
  8
2
100
AcDbCircle
 10
-495.885631
 20
333.266023
 30
0.0
 40
1.0
100
AcDbArc
 50
180.0
 51
227.045168
  0
ARC
  5
484
100
AcDbEntity
  8
2
100
AcDbCircle
 10
-497.248474
 20
331.802241
 30
0.0
 40
1.0
100
AcDbArc
 50
354.0
 51
47.045168
  0
ARC
  5
485
100
AcDbEntity
  8
2
100
AcDbCircle
 10
-349.287883
 20
393.266023
 30
0.0
 40
3.0
100
AcDbArc
 50
225.277754
 51
270.0
  0
ARC
  5
486
100
AcDbEntity
  8
2
100
AcDbCircle
 10
-488.483379
 20
393.266023
 30
0.0
 40
3.0
100
AcDbArc
 50
270.0
 51
314.722246
  0
LINE
  5
487
100
AcDbEntity
  8
2
100
AcDbLine
 10
-454.329248
 20
277.766023
 30
0.0
 11
-381.385631
 21
277.766023
 31
0.0
  0
LINE
  5
488
100
AcDbEntity
  8
2
100
AcDbLine
 10
-454.329248
 20
269.766023
 30
0.0
 11
-381.385631
 21
269.766023
 31
0.0
  0
ARC
  5
489
100
AcDbEntity
  8
2
100
AcDbCircle
 10
-454.329248
 20
275.766023
 30
0.0
 40
2.0
100
AcDbArc
 50
90.0
 51
176.770359
  0
ARC
  5
48A
100
AcDbEntity
  8
2
100
AcDbCircle
 10
-454.329248
 20
271.766023
 30
0.0
 40
2.0
100
AcDbArc
 50
183.229641
 51
270.0
  0
ARC
  5
48B
100
AcDbEntity
  8
2
100
AcDbCircle
 10
-381.385631
 20
273.766023
 30
0.0
 40
4.0
100
AcDbArc
 50
270.0
 51
90.0
  0
ARC
  5
48C
100
AcDbEntity
  8
2
100
AcDbCircle
 10
-418.885631
 20
273.766023
 30
0.0
 40
37.5
100
AcDbArc
 50
8.428982
 51
351.571018
  0
ARC
  5
48D
100
AcDbEntity
  8
2
100
AcDbCircle
 10
-379.812298
 20
279.556069
 30
0.0
 40
2.0
100
AcDbArc
 50
188.428982
 51
254.798038
  0
ARC
  5
48E
100
AcDbEntity
  8
2
100
AcDbCircle
 10
-379.812298
 20
267.975978
 30
0.0
 40
2.0
100
AcDbArc
 50
105.201962
 51
171.571018
  0
LINE
  5
48F
100
AcDbEntity
  8
2
100
AcDbLine
 10
-450.385631
 20
43.066023
 30
0.0
 11
-387.385631
 21
43.066023
 31
0.0
  0
LINE
  5
490
100
AcDbEntity
  8
2
100
AcDbLine
 10
-456.385631
 20
43.566023
 30
0.0
 11
-377.385631
 21
43.566023
 31
0.0
  0
LINE
  5
491
100
AcDbEntity
  8
2
100
AcDbLine
 10
-450.385631
 20
43.066023
 30
0.0
 11
-450.385631
 21
43.566023
 31
0.0
  0
LINE
  5
492
100
AcDbEntity
  8
2
100
AcDbLine
 10
-387.385631
 20
43.066023
 30
0.0
 11
-387.385631
 21
43.566023
 31
0.0
  0
LINE
  5
493
100
AcDbEntity
  8
2
100
AcDbLine
 10
-391.385631
 20
42.066023
 30
0.0
 11
-391.385631
 21
43.066023
 31
0.0
  0
LINE
  5
494
100
AcDbEntity
  8
2
100
AcDbLine
 10
-446.385631
 20
42.066023
 30
0.0
 11
-446.385631
 21
43.066023
 31
0.0
  0
LINE
  5
495
100
AcDbEntity
  8
2
100
AcDbLine
 10
-451.385631
 20
69.566023
 30
0.0
 11
-389.931264
 21
69.566023
 31
0.0
  0
LINE
  5
496
100
AcDbEntity
  8
2
100
AcDbLine
 10
-454.385631
 20
49.566023
 30
0.0
 11
-383.599575
 21
49.566023
 31
0.0
  0
LINE
  5
497
100
AcDbEntity
  8
2
100
AcDbLine
 10
-456.385631
 20
43.566023
 30
0.0
 11
-456.385631
 21
64.566023
 31
0.0
  0
LINE
  5
498
100
AcDbEntity
  8
2
100
AcDbLine
 10
-377.385631
 20
43.566023
 30
0.0
 11
-377.385631
 21
58.234485
 31
0.0
  0
ARC
  5
499
100
AcDbEntity
  8
2
100
AcDbCircle
 10
-451.385631
 20
64.566023
 30
0.0
 40
5.0
100
AcDbArc
 50
90.0
 51
180.0
  0
ARC
  5
49A
100
AcDbEntity
  8
2
100
AcDbCircle
 10
-454.385631
 20
47.566023
 30
0.0
 40
2.0
100
AcDbArc
 50
90.0
 51
180.0
  0
LINE
  5
49B
100
AcDbEntity
  8
2
100
AcDbLine
 10
-379.171693
 20
62.064707
 30
0.0
 11
-386.717326
 21
68.396246
 31
0.0
  0
ARC
  5
49C
100
AcDbEntity
  8
2
100
AcDbCircle
 10
-382.385631
 20
58.234485
 30
0.0
 40
5.0
100
AcDbArc
 50
0.0
 51
50.0
  0
ARC
  5
49D
100
AcDbEntity
  8
2
100
AcDbCircle
 10
-389.931264
 20
64.566023
 30
0.0
 40
5.0
100
AcDbArc
 50
50.0
 51
90.0
  0
LINE
  5
49E
100
AcDbEntity
  8
2
100
AcDbLine
 10
-388.111413
 20
269.766023
 30
0.0
 11
-388.111413
 21
277.766023
 31
0.0
  0
LINE
  5
49F
100
AcDbEntity
  8
2
100
AcDbLine
 10
-381.599575
 20
47.566023
 30
0.0
 11
-381.599575
 21
43.566023
 31
0.0
  0
ARC
  5
4A0
100
AcDbEntity
  8
2
100
AcDbCircle
 10
-383.599575
 20
47.566023
 30
0.0
 40
2.0
100
AcDbArc
 50
0.0
 51
90.0
  0
LINE
  5
4A1
100
AcDbEntity
  8
2
100
AcDbLine
 10
131.014369
 20
43.066023
 30
0.0
 11
194.014369
 21
43.066023
 31
0.0
  0
LINE
  5
4A2
100
AcDbEntity
  8
2
100
AcDbLine
 10
190.014369
 20
42.066023
 30
0.0
 11
190.014369
 21
43.066023
 31
0.0
  0
LINE
  5
4A3
100
AcDbEntity
  8
2
100
AcDbLine
 10
135.014369
 20
42.066023
 30
0.0
 11
135.014369
 21
43.066023
 31
0.0
  0
LINE
  5
4A4
100
AcDbEntity
  8
2
100
AcDbLine
 10
125.014369
 20
43.566023
 30
0.0
 11
200.014369
 21
43.566023
 31
0.0
  0
LINE
  5
4A5
100
AcDbEntity
  8
2
100
AcDbLine
 10
131.014369
 20
43.566023
 30
0.0
 11
131.014369
 21
43.066023
 31
0.0
  0
LINE
  5
4A6
100
AcDbEntity
  8
2
100
AcDbLine
 10
194.014369
 20
43.566023
 30
0.0
 11
194.014369
 21
43.066023
 31
0.0
  0
LINE
  5
4A7
100
AcDbEntity
  8
2
100
AcDbLine
 10
160.514369
 20
69.566023
 30
0.0
 11
164.514369
 21
69.566023
 31
0.0
  0
LINE
  5
4A8
100
AcDbEntity
  8
2
100
AcDbLine
 10
125.014369
 20
47.566023
 30
0.0
 11
125.014369
 21
43.566023
 31
0.0
  0
LINE
  5
4A9
100
AcDbEntity
  8
2
100
AcDbLine
 10
200.014369
 20
47.566023
 30
0.0
 11
200.014369
 21
43.566023
 31
0.0
  0
ARC
  5
4AA
100
AcDbEntity
  8
2
100
AcDbCircle
 10
198.014369
 20
47.566023
 30
0.0
 40
2.0
100
AcDbArc
 50
0.0
 51
90.0
  0
ARC
  5
4AB
100
AcDbEntity
  8
2
100
AcDbCircle
 10
127.014369
 20
47.566023
 30
0.0
 40
2.0
100
AcDbArc
 50
90.0
 51
180.0
  0
LINE
  5
4AC
100
AcDbEntity
  8
2
100
AcDbLine
 10
158.514369
 20
67.566023
 30
0.0
 11
158.514369
 21
43.566023
 31
0.0
  0
LINE
  5
4AD
100
AcDbEntity
  8
2
100
AcDbLine
 10
166.514369
 20
67.566023
 30
0.0
 11
166.514369
 21
43.566023
 31
0.0
  0
ARC
  5
4AE
100
AcDbEntity
  8
2
100
AcDbCircle
 10
164.514369
 20
67.566023
 30
0.0
 40
2.0
100
AcDbArc
 50
0.0
 51
90.0
  0
ARC
  5
4AF
100
AcDbEntity
  8
2
100
AcDbCircle
 10
160.514369
 20
67.566023
 30
0.0
 40
2.0
100
AcDbArc
 50
90.0
 51
180.0
  0
LINE
  5
4B0
100
AcDbEntity
  8
2
100
AcDbLine
 10
127.014369
 20
49.566023
 30
0.0
 11
156.514369
 21
49.566023
 31
0.0
  0
LINE
  5
4B1
100
AcDbEntity
  8
2
100
AcDbLine
 10
168.514369
 20
49.566023
 30
0.0
 11
198.014369
 21
49.566023
 31
0.0
  0
ARC
  5
4B2
100
AcDbEntity
  8
2
100
AcDbCircle
 10
168.514369
 20
51.566023
 30
0.0
 40
2.0
100
AcDbArc
 50
180.0
 51
270.0
  0
ARC
  5
4B3
100
AcDbEntity
  8
2
100
AcDbCircle
 10
156.514369
 20
51.566023
 30
0.0
 40
2.0
100
AcDbArc
 50
270.0
 51
0.0
  0
ARC
  5
4B4
100
AcDbEntity
  8
2
100
AcDbCircle
 10
162.514369
 20
56.566023
 30
0.0
 40
4.0
100
AcDbArc
 50
0.0
 51
180.0
  0
LINE
  5
4B5
100
AcDbEntity
  8
2
100
AcDbLine
 10
-356.103544
 20
39.066023
 30
0.0
 11
-344.545885
 21
39.066023
 31
0.0
  0
LINE
  5
4B6
100
AcDbEntity
  8
2
100
AcDbLine
 10
-493.225377
 20
39.066023
 30
0.0
 11
-481.667718
 21
39.066023
 31
0.0
  0
LINE
  5
4B7
100
AcDbEntity
  8
2
100
AcDbLine
 10
-468.103544
 20
39.066023
 30
0.0
 11
-369.667718
 21
39.066023
 31
0.0
  0
LINE
  5
4B8
100
AcDbEntity
  8
2
100
AcDbLine
 10
99.174623
 20
39.066023
 30
0.0
 11
100.732282
 21
39.066023
 31
0.0
  0
LINE
  5
4B9
100
AcDbEntity
  8
2
100
AcDbLine
 10
114.296456
 20
39.066023
 30
0.0
 11
204.732282
 21
39.066023
 31
0.0
  0
LINE
  5
4BA
100
AcDbEntity
  8
2
100
AcDbLine
 10
218.296456
 20
39.066023
 30
0.0
 11
266.232282
 21
39.066023
 31
0.0
  0
LINE
  5
4BB
100
AcDbEntity
  8
2
100
AcDbLine
 10
-340.885631
 20
372.266023
 30
0.0
 11
-228.385631
 21
372.266023
 31
0.0
  0
LINE
  5
4BC
100
AcDbEntity
  8
2
100
AcDbLine
 10
-340.885631
 20
350.266023
 30
0.0
 11
-228.385631
 21
350.266023
 31
0.0
  0
LINE
  5
4BD
100
AcDbEntity
  8
2
100
AcDbLine
 10
-334.885631
 20
13.066023
 30
0.0
 11
-228.385631
 21
13.066023
 31
0.0
  0
LINE
  5
4BE
100
AcDbEntity
  8
2
100
AcDbLine
 10
-335.885631
 20
-8.933977
 30
0.0
 11
-228.385631
 21
-8.933977
 31
0.0
  0
LINE
  5
4BF
100
AcDbEntity
  8
2
100
AcDbLine
 10
-206.385631
 20
450.266023
 30
0.0
 11
-206.385631
 21
272.266023
 31
0.0
  0
ARC
  5
4C0
100
AcDbEntity
  8
2
100
AcDbCircle
 10
-217.385631
 20
450.266023
 30
0.0
 40
11.0
100
AcDbArc
 50
0.0
 51
180.0
  0
ARC
  5
4C1
100
AcDbEntity
  8
2
100
AcDbCircle
 10
-217.8369
 20
292.149843
 30
0.0
 40
79.570307
100
AcDbArc
 50
91.907508
 51
97.294014
  0
ARC
  5
4C2
100
AcDbEntity
  8
2
100
AcDbCircle
 10
-217.8369
 20
430.382204
 30
0.0
 40
79.570307
100
AcDbArc
 50
262.705986
 51
268.092492
  0
LINE
  5
4C3
100
AcDbEntity
  8
2
100
AcDbLine
 10
-217.385631
 20
353.854328
 30
0.0
 11
-217.385631
 21
368.677719
 31
0.0
  0
ARC
  5
4C4
100
AcDbEntity
  8
2
100
AcDbCircle
 10
-220.385631
 20
368.677719
 30
0.0
 40
3.0
100
AcDbArc
 50
0.0
 51
91.907508
  0
ARC
  5
4C5
100
AcDbEntity
  8
2
100
AcDbCircle
 10
-220.385631
 20
353.854328
 30
0.0
 40
3.0
100
AcDbArc
 50
268.092492
 51
360.0
  0
ARC
  5
4C6
100
AcDbEntity
  8
2
100
AcDbCircle
 10
-227.874306
 20
351.96299
 30
0.0
 40
0.511325
100
AcDbArc
 50
106.739333
 51
262.705986
  0
ARC
  5
4C7
100
AcDbEntity
  8
2
100
AcDbCircle
 10
-227.874306
 20
370.569057
 30
0.0
 40
0.511325
100
AcDbArc
 50
97.294014
 51
253.260667
  0
LINE
  5
4C8
100
AcDbEntity
  8
2
100
AcDbLine
 10
-225.885631
 20
355.325523
 30
0.0
 11
-225.885631
 21
367.206524
 31
0.0
  0
ARC
  5
4C9
100
AcDbEntity
  8
2
100
AcDbCircle
 10
-228.885631
 20
367.206524
 30
0.0
 40
3.0
100
AcDbArc
 50
0.0
 51
73.260667
  0
ARC
  5
4CA
100
AcDbEntity
  8
2
100
AcDbCircle
 10
-228.885631
 20
355.325523
 30
0.0
 40
3.0
100
AcDbArc
 50
286.739333
 51
360.0
  0
ARC
  5
4CB
100
AcDbEntity
  8
2
100
AcDbCircle
 10
-217.78329
 20
373.004849
 30
0.0
 40
24.10125
100
AcDbArc
 50
97.084118
 51
112.377644
  0
ARC
  5
4CC
100
AcDbEntity
  8
2
100
AcDbCircle
 10
-217.83072
 20
323.507113
 30
0.0
 40
53.404212
100
AcDbArc
 50
92.596184
 51
100.675608
  0
LINE
  5
4CD
100
AcDbEntity
  8
2
100
AcDbLine
 10
-217.385631
 20
379.853431
 30
0.0
 11
-217.385631
 21
393.945016
 31
0.0
  0
ARC
  5
4CE
100
AcDbEntity
  8
2
100
AcDbCircle
 10
-220.385631
 20
393.945016
 30
0.0
 40
3.0
100
AcDbArc
 50
0.0
 51
97.084118
  0
ARC
  5
4CF
100
AcDbEntity
  8
2
100
AcDbCircle
 10
-220.385631
 20
379.853431
 30
0.0
 40
3.0
100
AcDbArc
 50
272.596184
 51
360.0
  0
ARC
  5
4D0
100
AcDbEntity
  8
2
100
AcDbCircle
 10
-226.081762
 20
393.160771
 30
0.0
 40
2.303869
100
AcDbArc
 50
112.377644
 51
238.085987
  0
ARC
  5
4D1
100
AcDbEntity
  8
2
100
AcDbCircle
 10
-227.57327
 20
375.188691
 30
0.0
 40
0.812361
100
AcDbArc
 50
100.675608
 51
180.0
  0
LINE
  5
4D2
100
AcDbEntity
  8
2
100
AcDbLine
 10
-228.385631
 20
342.266023
 30
0.0
 11
-228.385631
 21
380.266023
 31
0.0
  0
LINE
  5
4D3
100
AcDbEntity
  8
2
100
AcDbLine
 10
-225.885631
 20
378.768049
 30
0.0
 11
-225.885631
 21
393.028986
 31
0.0
  0
ARC
  5
4D4
100
AcDbEntity
  8
2
100
AcDbCircle
 10
-228.885631
 20
388.658622
 30
0.0
 40
3.0
100
AcDbArc
 50
0.0
 51
58.085987
  0
ARC
  5
4D5
100
AcDbEntity
  8
2
100
AcDbCircle
 10
-228.885631
 20
378.768049
 30
0.0
 40
3.0
100
AcDbArc
 50
290.135311
 51
360.0
  0
ARC
  5
4D6
100
AcDbEntity
  8
2
100
AcDbCircle
 10
-217.684253
 20
404.350542
 30
0.0
 40
15.696848
100
AcDbArc
 50
102.284128
 51
123.145156
  0
ARC
  5
4D7
100
AcDbEntity
  8
2
100
AcDbCircle
 10
-217.766405
 20
380.460634
 30
0.0
 40
21.482429
100
AcDbArc
 50
96.14148
 51
114.857013
  0
LINE
  5
4D8
100
AcDbEntity
  8
2
100
AcDbLine
 10
-217.385631
 20
404.802552
 30
0.0
 11
-217.385631
 21
416.75669
 31
0.0
  0
ARC
  5
4D9
100
AcDbEntity
  8
2
100
AcDbCircle
 10
-220.385631
 20
416.75669
 30
0.0
 40
3.0
100
AcDbArc
 50
0.0
 51
102.284128
  0
ARC
  5
4DA
100
AcDbEntity
  8
2
100
AcDbCircle
 10
-220.385631
 20
404.802552
 30
0.0
 40
3.0
100
AcDbArc
 50
276.14148
 51
360.0
  0
ARC
  5
4DB
100
AcDbEntity
  8
2
100
AcDbCircle
 10
-225.644338
 20
397.465585
 30
0.0
 40
2.741293
100
AcDbArc
 50
114.857013
 51
180.0
  0
ARC
  5
4DC
100
AcDbEntity
  8
2
100
AcDbCircle
 10
-223.710521
 20
413.578911
 30
0.0
 40
4.67511
100
AcDbArc
 50
123.145156
 51
227.602374
  0
LINE
  5
4DD
100
AcDbEntity
  8
2
100
AcDbLine
 10
-225.885631
 20
400.349649
 30
0.0
 11
-225.885631
 21
414.689507
 31
0.0
  0
ARC
  5
4DE
100
AcDbEntity
  8
2
100
AcDbCircle
 10
-228.885631
 20
407.91097
 30
0.0
 40
3.0
100
AcDbArc
 50
0.0
 51
47.602374
  0
LINE
  5
4DF
100
AcDbEntity
  8
2
100
AcDbLine
 10
-228.385631
 20
393.160771
 30
0.0
 11
-228.385631
 21
397.465585
 31
0.0
  0
ARC
  5
4E0
100
AcDbEntity
  8
2
100
AcDbCircle
 10
-217.566328
 20
426.208545
 30
0.0
 40
12.773353
100
AcDbArc
 50
103.047521
 51
130.343373
  0
ARC
  5
4E1
100
AcDbEntity
  8
2
100
AcDbCircle
 10
-217.661188
 20
409.321975
 30
0.0
 40
14.878639
100
AcDbArc
 50
98.765186
 51
124.843294
  0
LINE
  5
4E2
100
AcDbEntity
  8
2
100
AcDbLine
 10
-217.385631
 20
426.991813
 30
0.0
 11
-217.385631
 21
436.216672
 31
0.0
  0
ARC
  5
4E3
100
AcDbEntity
  8
2
100
AcDbCircle
 10
-220.385631
 20
426.991813
 30
0.0
 40
3.0
100
AcDbArc
 50
278.765186
 51
360.0
  0
ARC
  5
4E4
100
AcDbEntity
  8
2
100
AcDbCircle
 10
-219.885631
 20
436.216672
 30
0.0
 40
2.5
100
AcDbArc
 50
0.0
 51
103.047521
  0
ARC
  5
4E5
100
AcDbEntity
  8
2
100
AcDbCircle
 10
-221.153591
 20
430.432014
 30
0.0
 40
7.23204
100
AcDbArc
 50
130.343373
 51
220.9161
  0
ARC
  5
4E6
100
AcDbEntity
  8
2
100
AcDbCircle
 10
-223.197976
 20
417.275538
 30
0.0
 40
5.187654
100
AcDbArc
 50
124.843294
 51
180.0
  0
LINE
  5
4E7
100
AcDbEntity
  8
2
100
AcDbLine
 10
-228.385631
 20
413.578911
 30
0.0
 11
-228.385631
 21
417.275538
 31
0.0
  0
LINE
  5
4E8
100
AcDbEntity
  8
2
100
AcDbLine
 10
-225.885631
 20
421.720864
 30
0.0
 11
-225.885631
 21
432.236063
 31
0.0
  0
ARC
  5
4E9
100
AcDbEntity
  8
2
100
AcDbCircle
 10
-228.885631
 20
423.730507
 30
0.0
 40
3.0
100
AcDbArc
 50
0.0
 51
40.9161
  0
LINE
  5
4EA
100
AcDbEntity
  8
2
100
AcDbLine
 10
-217.385631
 20
444.483948
 30
0.0
 11
-217.385631
 21
449.790004
 31
0.0
  0
LINE
  5
4EB
100
AcDbEntity
  8
2
100
AcDbLine
 10
-217.385631
 20
456.908284
 30
0.0
 11
-217.385631
 21
457.814123
 31
0.0
  0
ARC
  5
4EC
100
AcDbEntity
  8
2
100
AcDbCircle
 10
-217.461111
 20
441.070762
 30
0.0
 40
11.550053
100
AcDbArc
 50
105.539411
 51
134.747415
  0
ARC
  5
4ED
100
AcDbEntity
  8
2
100
AcDbCircle
 10
-217.543263
 20
429.729312
 30
0.0
 40
12.43941
100
AcDbArc
 50
99.020695
 51
131.426334
  0
ARC
  5
4EE
100
AcDbEntity
  8
2
100
AcDbCircle
 10
-219.885631
 20
449.790004
 30
0.0
 40
2.5
100
AcDbArc
 50
0.0
 51
105.539411
  0
ARC
  5
4EF
100
AcDbEntity
  8
2
100
AcDbCircle
 10
-219.885631
 20
444.483948
 30
0.0
 40
2.5
100
AcDbArc
 50
279.020695
 51
360.0
  0
ARC
  5
4F0
100
AcDbEntity
  8
2
100
AcDbCircle
 10
-220.666401
 20
433.268536
 30
0.0
 40
7.71923
100
AcDbArc
 50
131.426334
 51
180.0
  0
ARC
  5
4F1
100
AcDbEntity
  8
2
100
AcDbCircle
 10
-218.948744
 20
442.571569
 30
0.0
 40
9.436887
100
AcDbArc
 50
134.747415
 51
211.319694
  0
LINE
  5
4F2
100
AcDbEntity
  8
2
100
AcDbLine
 10
-228.385631
 20
430.432014
 30
0.0
 11
-228.385631
 21
433.268536
 31
0.0
  0
LINE
  5
4F3
100
AcDbEntity
  8
2
100
AcDbLine
 10
-225.885631
 20
438.955904
 30
0.0
 11
-225.885631
 21
444.376959
 31
0.0
  0
ARC
  5
4F4
100
AcDbEntity
  8
2
100
AcDbCircle
 10
-217.396796
 20
448.964946
 30
0.0
 40
11.069917
100
AcDbArc
 50
102.666639
 51
136.904828
  0
ARC
  5
4F5
100
AcDbEntity
  8
2
100
AcDbCircle
 10
-217.444227
 20
443.214602
 30
0.0
 40
11.409614
100
AcDbArc
 50
100.108874
 51
135.345864
  0
ARC
  5
4F6
100
AcDbEntity
  8
2
100
AcDbCircle
 10
-219.885631
 20
456.908284
 30
0.0
 40
2.5
100
AcDbArc
 50
280.108874
 51
360.0
  0
ARC
  5
4F7
100
AcDbEntity
  8
2
100
AcDbCircle
 10
-219.385631
 20
457.814123
 30
0.0
 40
2.0
100
AcDbArc
 50
0.0
 51
102.666639
  0
ARC
  5
4F8
100
AcDbEntity
  8
2
100
AcDbCircle
 10
-217.616264
 20
449.170286
 30
0.0
 40
10.769367
100
AcDbArc
 50
136.904828
 51
193.238025
  0
ARC
  5
4F9
100
AcDbEntity
  8
2
100
AcDbCircle
 10
-218.598153
 20
444.354681
 30
0.0
 40
9.787478
100
AcDbArc
 50
135.345864
 51
180.0
  0
LINE
  5
4FA
100
AcDbEntity
  8
2
100
AcDbLine
 10
-228.385631
 20
442.571569
 30
0.0
 11
-228.385631
 21
444.354681
 31
0.0
  0
LINE
  5
4FB
100
AcDbEntity
  8
2
100
AcDbLine
 10
-228.385631
 20
449.170286
 30
0.0
 11
-228.385631
 21
450.266023
 31
0.0
  0
ARC
  5
4FC
100
AcDbEntity
  8
2
100
AcDbCircle
 10
-217.385631
 20
364.730309
 30
0.0
 40
19.035714
100
AcDbArc
 50
116.52121
 51
125.300248
  0
ARC
  5
4FD
100
AcDbEntity
  8
2
100
AcDbCircle
 10
-217.385631
 20
357.801738
 30
0.0
 40
19.035714
100
AcDbArc
 50
234.699752
 51
243.47879
  0
ARC
  5
4FE
100
AcDbEntity
  8
2
100
AcDbCircle
 10
-217.385631
 20
272.266023
 30
0.0
 40
11.0
100
AcDbArc
 50
180.0
 51
360.0
  0
ARC
  5
4FF
100
AcDbEntity
  8
2
100
AcDbCircle
 10
-217.78329
 20
349.527198
 30
0.0
 40
24.10125
100
AcDbArc
 50
247.622356
 51
262.915882
  0
ARC
  5
500
100
AcDbEntity
  8
2
100
AcDbCircle
 10
-217.83072
 20
399.024934
 30
0.0
 40
53.404212
100
AcDbArc
 50
259.324392
 51
267.403816
  0
LINE
  5
501
100
AcDbEntity
  8
2
100
AcDbLine
 10
-217.385631
 20
342.678616
 30
0.0
 11
-217.385631
 21
328.587031
 31
0.0
  0
ARC
  5
502
100
AcDbEntity
  8
2
100
AcDbCircle
 10
-220.385631
 20
328.587031
 30
0.0
 40
3.0
100
AcDbArc
 50
262.915882
 51
360.0
  0
ARC
  5
503
100
AcDbEntity
  8
2
100
AcDbCircle
 10
-220.385631
 20
342.678616
 30
0.0
 40
3.0
100
AcDbArc
 50
0.0
 51
87.403816
  0
ARC
  5
504
100
AcDbEntity
  8
2
100
AcDbCircle
 10
-226.081762
 20
329.371276
 30
0.0
 40
2.303869
100
AcDbArc
 50
121.914013
 51
247.622356
  0
ARC
  5
505
100
AcDbEntity
  8
2
100
AcDbCircle
 10
-227.57327
 20
347.343356
 30
0.0
 40
0.812361
100
AcDbArc
 50
180.0
 51
259.324392
  0
LINE
  5
506
100
AcDbEntity
  8
2
100
AcDbLine
 10
-225.885631
 20
343.763998
 30
0.0
 11
-225.885631
 21
329.503061
 31
0.0
  0
ARC
  5
507
100
AcDbEntity
  8
2
100
AcDbCircle
 10
-228.885631
 20
333.873425
 30
0.0
 40
3.0
100
AcDbArc
 50
301.914013
 51
360.0
  0
ARC
  5
508
100
AcDbEntity
  8
2
100
AcDbCircle
 10
-228.885631
 20
343.763998
 30
0.0
 40
3.0
100
AcDbArc
 50
0.0
 51
69.864689
  0
ARC
  5
509
100
AcDbEntity
  8
2
100
AcDbCircle
 10
-217.684253
 20
318.181505
 30
0.0
 40
15.696848
100
AcDbArc
 50
236.854844
 51
257.715872
  0
ARC
  5
50A
100
AcDbEntity
  8
2
100
AcDbCircle
 10
-217.766405
 20
342.071413
 30
0.0
 40
21.482429
100
AcDbArc
 50
245.142987
 51
263.85852
  0
LINE
  5
50B
100
AcDbEntity
  8
2
100
AcDbLine
 10
-217.385631
 20
317.729495
 30
0.0
 11
-217.385631
 21
305.775357
 31
0.0
  0
ARC
  5
50C
100
AcDbEntity
  8
2
100
AcDbCircle
 10
-220.385631
 20
305.775357
 30
0.0
 40
3.0
100
AcDbArc
 50
257.715872
 51
360.0
  0
ARC
  5
50D
100
AcDbEntity
  8
2
100
AcDbCircle
 10
-220.385631
 20
317.729495
 30
0.0
 40
3.0
100
AcDbArc
 50
0.0
 51
83.85852
  0
ARC
  5
50E
100
AcDbEntity
  8
2
100
AcDbCircle
 10
-225.644338
 20
325.066462
 30
0.0
 40
2.741293
100
AcDbArc
 50
180.0
 51
245.142987
  0
ARC
  5
50F
100
AcDbEntity
  8
2
100
AcDbCircle
 10
-223.710521
 20
308.953136
 30
0.0
 40
4.67511
100
AcDbArc
 50
132.397626
 51
236.854844
  0
LINE
  5
510
100
AcDbEntity
  8
2
100
AcDbLine
 10
-225.885631
 20
322.182398
 30
0.0
 11
-225.885631
 21
307.84254
 31
0.0
  0
ARC
  5
511
100
AcDbEntity
  8
2
100
AcDbCircle
 10
-228.885631
 20
314.621077
 30
0.0
 40
3.0
100
AcDbArc
 50
312.397626
 51
360.0
  0
LINE
  5
512
100
AcDbEntity
  8
2
100
AcDbLine
 10
-228.385631
 20
329.371276
 30
0.0
 11
-228.385631
 21
325.066462
 31
0.0
  0
ARC
  5
513
100
AcDbEntity
  8
2
100
AcDbCircle
 10
-217.566328
 20
296.323502
 30
0.0
 40
12.773353
100
AcDbArc
 50
229.656627
 51
256.952479
  0
ARC
  5
514
100
AcDbEntity
  8
2
100
AcDbCircle
 10
-217.661188
 20
313.210072
 30
0.0
 40
14.878639
100
AcDbArc
 50
235.156706
 51
261.234814
  0
LINE
  5
515
100
AcDbEntity
  8
2
100
AcDbLine
 10
-217.385631
 20
295.540234
 30
0.0
 11
-217.385631
 21
286.315375
 31
0.0
  0
ARC
  5
516
100
AcDbEntity
  8
2
100
AcDbCircle
 10
-220.385631
 20
295.540234
 30
0.0
 40
3.0
100
AcDbArc
 50
0.0
 51
81.234814
  0
ARC
  5
517
100
AcDbEntity
  8
2
100
AcDbCircle
 10
-219.885631
 20
286.315375
 30
0.0
 40
2.5
100
AcDbArc
 50
256.952479
 51
360.0
  0
ARC
  5
518
100
AcDbEntity
  8
2
100
AcDbCircle
 10
-221.153591
 20
292.100033
 30
0.0
 40
7.23204
100
AcDbArc
 50
139.0839
 51
229.656627
  0
ARC
  5
519
100
AcDbEntity
  8
2
100
AcDbCircle
 10
-223.197976
 20
305.256509
 30
0.0
 40
5.187654
100
AcDbArc
 50
180.0
 51
235.156706
  0
LINE
  5
51A
100
AcDbEntity
  8
2
100
AcDbLine
 10
-228.385631
 20
308.953136
 30
0.0
 11
-228.385631
 21
305.256509
 31
0.0
  0
LINE
  5
51B
100
AcDbEntity
  8
2
100
AcDbLine
 10
-225.885631
 20
300.811183
 30
0.0
 11
-225.885631
 21
290.295984
 31
0.0
  0
ARC
  5
51C
100
AcDbEntity
  8
2
100
AcDbCircle
 10
-228.885631
 20
298.80154
 30
0.0
 40
3.0
100
AcDbArc
 50
319.0839
 51
360.0
  0
LINE
  5
51D
100
AcDbEntity
  8
2
100
AcDbLine
 10
-217.385631
 20
278.048099
 30
0.0
 11
-217.385631
 21
272.742043
 31
0.0
  0
LINE
  5
51E
100
AcDbEntity
  8
2
100
AcDbLine
 10
-217.385631
 20
265.623763
 30
0.0
 11
-217.385631
 21
264.717924
 31
0.0
  0
ARC
  5
51F
100
AcDbEntity
  8
2
100
AcDbCircle
 10
-217.461111
 20
281.461285
 30
0.0
 40
11.550053
100
AcDbArc
 50
225.252585
 51
254.460589
  0
ARC
  5
520
100
AcDbEntity
  8
2
100
AcDbCircle
 10
-217.543263
 20
292.802735
 30
0.0
 40
12.43941
100
AcDbArc
 50
228.573666
 51
260.979305
  0
ARC
  5
521
100
AcDbEntity
  8
2
100
AcDbCircle
 10
-219.885631
 20
272.742043
 30
0.0
 40
2.5
100
AcDbArc
 50
254.460589
 51
360.0
  0
ARC
  5
522
100
AcDbEntity
  8
2
100
AcDbCircle
 10
-219.885631
 20
278.048099
 30
0.0
 40
2.5
100
AcDbArc
 50
0.0
 51
80.979305
  0
ARC
  5
523
100
AcDbEntity
  8
2
100
AcDbCircle
 10
-220.666401
 20
289.263511
 30
0.0
 40
7.71923
100
AcDbArc
 50
180.0
 51
228.573666
  0
ARC
  5
524
100
AcDbEntity
  8
2
100
AcDbCircle
 10
-218.948744
 20
279.960478
 30
0.0
 40
9.436887
100
AcDbArc
 50
148.680306
 51
225.252585
  0
LINE
  5
525
100
AcDbEntity
  8
2
100
AcDbLine
 10
-228.385631
 20
292.100033
 30
0.0
 11
-228.385631
 21
289.263511
 31
0.0
  0
LINE
  5
526
100
AcDbEntity
  8
2
100
AcDbLine
 10
-225.885631
 20
283.576143
 30
0.0
 11
-225.885631
 21
278.155088
 31
0.0
  0
ARC
  5
527
100
AcDbEntity
  8
2
100
AcDbCircle
 10
-217.396796
 20
273.567101
 30
0.0
 40
11.069917
100
AcDbArc
 50
223.095172
 51
257.333361
  0
ARC
  5
528
100
AcDbEntity
  8
2
100
AcDbCircle
 10
-217.444227
 20
279.317445
 30
0.0
 40
11.409614
100
AcDbArc
 50
224.654136
 51
259.891126
  0
ARC
  5
529
100
AcDbEntity
  8
2
100
AcDbCircle
 10
-219.885631
 20
265.623763
 30
0.0
 40
2.5
100
AcDbArc
 50
0.0
 51
79.891126
  0
ARC
  5
52A
100
AcDbEntity
  8
2
100
AcDbCircle
 10
-219.385631
 20
264.717924
 30
0.0
 40
2.0
100
AcDbArc
 50
257.333361
 51
360.0
  0
ARC
  5
52B
100
AcDbEntity
  8
2
100
AcDbCircle
 10
-217.616264
 20
273.361761
 30
0.0
 40
10.769367
100
AcDbArc
 50
166.761975
 51
223.095172
  0
ARC
  5
52C
100
AcDbEntity
  8
2
100
AcDbCircle
 10
-218.598153
 20
278.177366
 30
0.0
 40
9.787478
100
AcDbArc
 50
180.0
 51
224.654136
  0
LINE
  5
52D
100
AcDbEntity
  8
2
100
AcDbLine
 10
-228.385631
 20
279.960478
 30
0.0
 11
-228.385631
 21
278.177366
 31
0.0
  0
LINE
  5
52E
100
AcDbEntity
  8
2
100
AcDbLine
 10
-228.385631
 20
273.361761
 30
0.0
 11
-228.385631
 21
272.266023
 31
0.0
  0
LINE
  5
52F
100
AcDbEntity
  8
2
100
AcDbLine
 10
-204.385631
 20
381.266023
 30
0.0
 11
-204.385631
 21
341.266023
 31
0.0
  0
LINE
  5
530
100
AcDbEntity
  8
2
100
AcDbLine
 10
-206.385631
 20
381.266023
 30
0.0
 11
-203.885631
 21
381.266023
 31
0.0
  0
LINE
  5
531
100
AcDbEntity
  8
2
100
AcDbLine
 10
-206.385631
 20
341.266023
 30
0.0
 11
-203.885631
 21
341.266023
 31
0.0
  0
LINE
  5
532
100
AcDbEntity
  8
2
100
AcDbLine
 10
-203.885631
 20
381.266023
 30
0.0
 11
-203.885631
 21
341.266023
 31
0.0
  0
LINE
  5
533
100
AcDbEntity
  8
2
100
AcDbLine
 10
-201.885631
 20
368.766023
 30
0.0
 11
-197.107319
 21
368.766023
 31
0.0
  0
LINE
  5
534
100
AcDbEntity
  8
2
100
AcDbLine
 10
-197.107319
 20
368.766023
 30
0.0
 11
-196.385631
 21
367.516023
 31
0.0
  0
LINE
  5
535
100
AcDbEntity
  8
2
100
AcDbLine
 10
-201.885631
 20
365.016023
 30
0.0
 11
-197.107319
 21
365.016023
 31
0.0
  0
ARC
  5
536
100
AcDbEntity
  8
2
100
AcDbCircle
 10
-199.517695
 20
366.891023
 30
0.0
 40
3.053774
100
AcDbArc
 50
322.121121
 51
37.878879
  0
ARC
  5
537
100
AcDbEntity
  8
2
100
AcDbCircle
 10
-207.71392
 20
361.266023
 30
0.0
 40
11.25
100
AcDbArc
 50
340.528779
 51
19.471221
  0
LINE
  5
538
100
AcDbEntity
  8
2
100
AcDbLine
 10
-201.885631
 20
353.766023
 30
0.0
 11
-197.107319
 21
353.766023
 31
0.0
  0
LINE
  5
539
100
AcDbEntity
  8
2
100
AcDbLine
 10
-197.107319
 20
353.766023
 30
0.0
 11
-196.385631
 21
355.016023
 31
0.0
  0
LINE
  5
53A
100
AcDbEntity
  8
2
100
AcDbLine
 10
-196.385631
 20
355.016023
 30
0.0
 11
-196.385631
 21
367.516023
 31
0.0
  0
LINE
  5
53B
100
AcDbEntity
  8
2
100
AcDbLine
 10
-201.885631
 20
357.516023
 30
0.0
 11
-197.107319
 21
357.516023
 31
0.0
  0
ARC
  5
53C
100
AcDbEntity
  8
2
100
AcDbCircle
 10
-199.517695
 20
355.641023
 30
0.0
 40
3.053774
100
AcDbArc
 50
322.121121
 51
37.878879
  0
LINE
  5
53D
100
AcDbEntity
  8
2
100
AcDbLine
 10
-203.885631
 20
368.966023
 30
0.0
 11
-201.885631
 21
368.966023
 31
0.0
  0
LINE
  5
53E
100
AcDbEntity
  8
2
100
AcDbLine
 10
-201.885631
 20
368.966023
 30
0.0
 11
-201.885631
 21
353.566023
 31
0.0
  0
LINE
  5
53F
100
AcDbEntity
  8
2
100
AcDbLine
 10
-201.885631
 20
353.566023
 30
0.0
 11
-203.885631
 21
353.566023
 31
0.0
  0
LINE
  5
540
100
AcDbEntity
  8
2
100
AcDbLine
 10
-201.885631
 20
361.266023
 30
0.0
 11
-203.885631
 21
360.766023
 31
0.0
  0
LINE
  5
541
100
AcDbEntity
  8
2
100
AcDbLine
 10
-203.885631
 20
361.266023
 30
0.0
 11
-201.885631
 21
361.766023
 31
0.0
  0
LINE
  5
542
100
AcDbEntity
  8
2
100
AcDbLine
 10
-206.385631
 20
91.066023
 30
0.0
 11
-206.385631
 21
-86.933977
 31
0.0
  0
ARC
  5
543
100
AcDbEntity
  8
2
100
AcDbCircle
 10
-217.385631
 20
91.066023
 30
0.0
 40
11.0
100
AcDbArc
 50
0.0
 51
180.0
  0
ARC
  5
544
100
AcDbEntity
  8
2
100
AcDbCircle
 10
-217.8369
 20
-67.050157
 30
0.0
 40
79.570307
100
AcDbArc
 50
91.907508
 51
97.294014
  0
ARC
  5
545
100
AcDbEntity
  8
2
100
AcDbCircle
 10
-217.8369
 20
71.182204
 30
0.0
 40
79.570307
100
AcDbArc
 50
262.705986
 51
268.092492
  0
LINE
  5
546
100
AcDbEntity
  8
2
100
AcDbLine
 10
-217.385631
 20
-5.345672
 30
0.0
 11
-217.385631
 21
9.477719
 31
0.0
  0
ARC
  5
547
100
AcDbEntity
  8
2
100
AcDbCircle
 10
-220.385631
 20
9.477719
 30
0.0
 40
3.0
100
AcDbArc
 50
0.0
 51
91.907508
  0
ARC
  5
548
100
AcDbEntity
  8
2
100
AcDbCircle
 10
-220.385631
 20
-5.345672
 30
0.0
 40
3.0
100
AcDbArc
 50
268.092492
 51
360.0
  0
ARC
  5
549
100
AcDbEntity
  8
2
100
AcDbCircle
 10
-227.874306
 20
-7.23701
 30
0.0
 40
0.511325
100
AcDbArc
 50
106.739333
 51
262.705986
  0
ARC
  5
54A
100
AcDbEntity
  8
2
100
AcDbCircle
 10
-227.874306
 20
11.369057
 30
0.0
 40
0.511325
100
AcDbArc
 50
97.294014
 51
253.260667
  0
LINE
  5
54B
100
AcDbEntity
  8
2
100
AcDbLine
 10
-225.885631
 20
-3.874477
 30
0.0
 11
-225.885631
 21
8.006524
 31
0.0
  0
ARC
  5
54C
100
AcDbEntity
  8
2
100
AcDbCircle
 10
-228.885631
 20
8.006524
 30
0.0
 40
3.0
100
AcDbArc
 50
0.0
 51
73.260667
  0
ARC
  5
54D
100
AcDbEntity
  8
2
100
AcDbCircle
 10
-228.885631
 20
-3.874477
 30
0.0
 40
3.0
100
AcDbArc
 50
286.739333
 51
360.0
  0
ARC
  5
54E
100
AcDbEntity
  8
2
100
AcDbCircle
 10
-217.78329
 20
13.804849
 30
0.0
 40
24.10125
100
AcDbArc
 50
97.084118
 51
112.377644
  0
ARC
  5
54F
100
AcDbEntity
  8
2
100
AcDbCircle
 10
-217.83072
 20
-35.692887
 30
0.0
 40
53.404212
100
AcDbArc
 50
92.596184
 51
100.675608
  0
LINE
  5
550
100
AcDbEntity
  8
2
100
AcDbLine
 10
-217.385631
 20
20.653431
 30
0.0
 11
-217.385631
 21
34.745016
 31
0.0
  0
ARC
  5
551
100
AcDbEntity
  8
2
100
AcDbCircle
 10
-220.385631
 20
34.745016
 30
0.0
 40
3.0
100
AcDbArc
 50
0.0
 51
97.084118
  0
ARC
  5
552
100
AcDbEntity
  8
2
100
AcDbCircle
 10
-220.385631
 20
20.653431
 30
0.0
 40
3.0
100
AcDbArc
 50
272.596184
 51
360.0
  0
ARC
  5
553
100
AcDbEntity
  8
2
100
AcDbCircle
 10
-226.081762
 20
33.960771
 30
0.0
 40
2.303869
100
AcDbArc
 50
112.377644
 51
238.085987
  0
ARC
  5
554
100
AcDbEntity
  8
2
100
AcDbCircle
 10
-227.57327
 20
15.988691
 30
0.0
 40
0.812361
100
AcDbArc
 50
100.675608
 51
180.0
  0
LINE
  5
555
100
AcDbEntity
  8
2
100
AcDbLine
 10
-228.385631
 20
-16.933977
 30
0.0
 11
-228.385631
 21
21.066023
 31
0.0
  0
LINE
  5
556
100
AcDbEntity
  8
2
100
AcDbLine
 10
-225.885631
 20
19.568049
 30
0.0
 11
-225.885631
 21
33.828986
 31
0.0
  0
ARC
  5
557
100
AcDbEntity
  8
2
100
AcDbCircle
 10
-228.885631
 20
29.458622
 30
0.0
 40
3.0
100
AcDbArc
 50
0.0
 51
58.085987
  0
ARC
  5
558
100
AcDbEntity
  8
2
100
AcDbCircle
 10
-228.885631
 20
19.568049
 30
0.0
 40
3.0
100
AcDbArc
 50
290.135311
 51
360.0
  0
ARC
  5
559
100
AcDbEntity
  8
2
100
AcDbCircle
 10
-217.684253
 20
45.150542
 30
0.0
 40
15.696848
100
AcDbArc
 50
102.284128
 51
123.145156
  0
ARC
  5
55A
100
AcDbEntity
  8
2
100
AcDbCircle
 10
-217.766405
 20
21.260634
 30
0.0
 40
21.482429
100
AcDbArc
 50
96.14148
 51
114.857013
  0
LINE
  5
55B
100
AcDbEntity
  8
2
100
AcDbLine
 10
-217.385631
 20
45.602552
 30
0.0
 11
-217.385631
 21
57.55669
 31
0.0
  0
ARC
  5
55C
100
AcDbEntity
  8
2
100
AcDbCircle
 10
-220.385631
 20
57.55669
 30
0.0
 40
3.0
100
AcDbArc
 50
0.0
 51
102.284128
  0
ARC
  5
55D
100
AcDbEntity
  8
2
100
AcDbCircle
 10
-220.385631
 20
45.602552
 30
0.0
 40
3.0
100
AcDbArc
 50
276.14148
 51
360.0
  0
ARC
  5
55E
100
AcDbEntity
  8
2
100
AcDbCircle
 10
-225.644338
 20
38.265585
 30
0.0
 40
2.741293
100
AcDbArc
 50
114.857013
 51
180.0
  0
ARC
  5
55F
100
AcDbEntity
  8
2
100
AcDbCircle
 10
-223.710521
 20
54.378911
 30
0.0
 40
4.67511
100
AcDbArc
 50
123.145156
 51
227.602374
  0
LINE
  5
560
100
AcDbEntity
  8
2
100
AcDbLine
 10
-225.885631
 20
41.149649
 30
0.0
 11
-225.885631
 21
55.489507
 31
0.0
  0
ARC
  5
561
100
AcDbEntity
  8
2
100
AcDbCircle
 10
-228.885631
 20
48.71097
 30
0.0
 40
3.0
100
AcDbArc
 50
0.0
 51
47.602374
  0
LINE
  5
562
100
AcDbEntity
  8
2
100
AcDbLine
 10
-228.385631
 20
33.960771
 30
0.0
 11
-228.385631
 21
38.265585
 31
0.0
  0
ARC
  5
563
100
AcDbEntity
  8
2
100
AcDbCircle
 10
-217.566328
 20
67.008545
 30
0.0
 40
12.773353
100
AcDbArc
 50
103.047521
 51
130.343373
  0
ARC
  5
564
100
AcDbEntity
  8
2
100
AcDbCircle
 10
-217.661188
 20
50.121975
 30
0.0
 40
14.878639
100
AcDbArc
 50
98.765186
 51
124.843294
  0
LINE
  5
565
100
AcDbEntity
  8
2
100
AcDbLine
 10
-217.385631
 20
67.791813
 30
0.0
 11
-217.385631
 21
77.016672
 31
0.0
  0
ARC
  5
566
100
AcDbEntity
  8
2
100
AcDbCircle
 10
-220.385631
 20
67.791813
 30
0.0
 40
3.0
100
AcDbArc
 50
278.765186
 51
360.0
  0
ARC
  5
567
100
AcDbEntity
  8
2
100
AcDbCircle
 10
-219.885631
 20
77.016672
 30
0.0
 40
2.5
100
AcDbArc
 50
0.0
 51
103.047521
  0
ARC
  5
568
100
AcDbEntity
  8
2
100
AcDbCircle
 10
-221.153591
 20
71.232014
 30
0.0
 40
7.23204
100
AcDbArc
 50
130.343373
 51
220.9161
  0
ARC
  5
569
100
AcDbEntity
  8
2
100
AcDbCircle
 10
-223.197976
 20
58.075538
 30
0.0
 40
5.187654
100
AcDbArc
 50
124.843294
 51
180.0
  0
LINE
  5
56A
100
AcDbEntity
  8
2
100
AcDbLine
 10
-228.385631
 20
54.378911
 30
0.0
 11
-228.385631
 21
58.075538
 31
0.0
  0
LINE
  5
56B
100
AcDbEntity
  8
2
100
AcDbLine
 10
-225.885631
 20
62.520864
 30
0.0
 11
-225.885631
 21
73.036063
 31
0.0
  0
ARC
  5
56C
100
AcDbEntity
  8
2
100
AcDbCircle
 10
-228.885631
 20
64.530507
 30
0.0
 40
3.0
100
AcDbArc
 50
0.0
 51
40.9161
  0
LINE
  5
56D
100
AcDbEntity
  8
2
100
AcDbLine
 10
-217.385631
 20
85.283948
 30
0.0
 11
-217.385631
 21
90.590004
 31
0.0
  0
LINE
  5
56E
100
AcDbEntity
  8
2
100
AcDbLine
 10
-217.385631
 20
97.708284
 30
0.0
 11
-217.385631
 21
98.614123
 31
0.0
  0
ARC
  5
56F
100
AcDbEntity
  8
2
100
AcDbCircle
 10
-217.461111
 20
81.870762
 30
0.0
 40
11.550053
100
AcDbArc
 50
105.539411
 51
134.747415
  0
ARC
  5
570
100
AcDbEntity
  8
2
100
AcDbCircle
 10
-217.543263
 20
70.529312
 30
0.0
 40
12.43941
100
AcDbArc
 50
99.020695
 51
131.426334
  0
ARC
  5
571
100
AcDbEntity
  8
2
100
AcDbCircle
 10
-219.885631
 20
90.590004
 30
0.0
 40
2.5
100
AcDbArc
 50
0.0
 51
105.539411
  0
ARC
  5
572
100
AcDbEntity
  8
2
100
AcDbCircle
 10
-219.885631
 20
85.283948
 30
0.0
 40
2.5
100
AcDbArc
 50
279.020695
 51
360.0
  0
ARC
  5
573
100
AcDbEntity
  8
2
100
AcDbCircle
 10
-220.666401
 20
74.068536
 30
0.0
 40
7.71923
100
AcDbArc
 50
131.426334
 51
180.0
  0
ARC
  5
574
100
AcDbEntity
  8
2
100
AcDbCircle
 10
-218.948744
 20
83.371569
 30
0.0
 40
9.436887
100
AcDbArc
 50
134.747415
 51
211.319694
  0
LINE
  5
575
100
AcDbEntity
  8
2
100
AcDbLine
 10
-228.385631
 20
71.232014
 30
0.0
 11
-228.385631
 21
74.068536
 31
0.0
  0
LINE
  5
576
100
AcDbEntity
  8
2
100
AcDbLine
 10
-225.885631
 20
79.755904
 30
0.0
 11
-225.885631
 21
85.176959
 31
0.0
  0
ARC
  5
577
100
AcDbEntity
  8
2
100
AcDbCircle
 10
-217.396796
 20
89.764946
 30
0.0
 40
11.069917
100
AcDbArc
 50
102.666639
 51
136.904828
  0
ARC
  5
578
100
AcDbEntity
  8
2
100
AcDbCircle
 10
-217.444227
 20
84.014602
 30
0.0
 40
11.409614
100
AcDbArc
 50
100.108874
 51
135.345864
  0
ARC
  5
579
100
AcDbEntity
  8
2
100
AcDbCircle
 10
-219.885631
 20
97.708284
 30
0.0
 40
2.5
100
AcDbArc
 50
280.108874
 51
360.0
  0
ARC
  5
57A
100
AcDbEntity
  8
2
100
AcDbCircle
 10
-219.385631
 20
98.614123
 30
0.0
 40
2.0
100
AcDbArc
 50
0.0
 51
102.666639
  0
ARC
  5
57B
100
AcDbEntity
  8
2
100
AcDbCircle
 10
-217.616264
 20
89.970286
 30
0.0
 40
10.769367
100
AcDbArc
 50
136.904828
 51
193.238025
  0
ARC
  5
57C
100
AcDbEntity
  8
2
100
AcDbCircle
 10
-218.598153
 20
85.154681
 30
0.0
 40
9.787478
100
AcDbArc
 50
135.345864
 51
180.0
  0
LINE
  5
57D
100
AcDbEntity
  8
2
100
AcDbLine
 10
-228.385631
 20
83.371569
 30
0.0
 11
-228.385631
 21
85.154681
 31
0.0
  0
LINE
  5
57E
100
AcDbEntity
  8
2
100
AcDbLine
 10
-228.385631
 20
89.970286
 30
0.0
 11
-228.385631
 21
91.066023
 31
0.0
  0
ARC
  5
57F
100
AcDbEntity
  8
2
100
AcDbCircle
 10
-217.385631
 20
5.530309
 30
0.0
 40
19.035714
100
AcDbArc
 50
116.52121
 51
125.300248
  0
ARC
  5
580
100
AcDbEntity
  8
2
100
AcDbCircle
 10
-217.385631
 20
-1.398262
 30
0.0
 40
19.035714
100
AcDbArc
 50
234.699752
 51
243.47879
  0
ARC
  5
581
100
AcDbEntity
  8
2
100
AcDbCircle
 10
-217.78329
 20
-9.672802
 30
0.0
 40
24.10125
100
AcDbArc
 50
247.622356
 51
262.915882
  0
ARC
  5
582
100
AcDbEntity
  8
2
100
AcDbCircle
 10
-217.83072
 20
39.824934
 30
0.0
 40
53.404212
100
AcDbArc
 50
259.324392
 51
267.403816
  0
LINE
  5
583
100
AcDbEntity
  8
2
100
AcDbLine
 10
-217.385631
 20
-16.521384
 30
0.0
 11
-217.385631
 21
-30.612969
 31
0.0
  0
ARC
  5
584
100
AcDbEntity
  8
2
100
AcDbCircle
 10
-220.385631
 20
-30.612969
 30
0.0
 40
3.0
100
AcDbArc
 50
262.915882
 51
360.0
  0
ARC
  5
585
100
AcDbEntity
  8
2
100
AcDbCircle
 10
-220.385631
 20
-16.521384
 30
0.0
 40
3.0
100
AcDbArc
 50
0.0
 51
87.403816
  0
ARC
  5
586
100
AcDbEntity
  8
2
100
AcDbCircle
 10
-226.081762
 20
-29.828724
 30
0.0
 40
2.303869
100
AcDbArc
 50
121.914013
 51
247.622356
  0
ARC
  5
587
100
AcDbEntity
  8
2
100
AcDbCircle
 10
-227.57327
 20
-11.856644
 30
0.0
 40
0.812361
100
AcDbArc
 50
180.0
 51
259.324392
  0
LINE
  5
588
100
AcDbEntity
  8
2
100
AcDbLine
 10
-225.885631
 20
-15.436002
 30
0.0
 11
-225.885631
 21
-29.696939
 31
0.0
  0
ARC
  5
589
100
AcDbEntity
  8
2
100
AcDbCircle
 10
-228.885631
 20
-25.326575
 30
0.0
 40
3.0
100
AcDbArc
 50
301.914013
 51
360.0
  0
ARC
  5
58A
100
AcDbEntity
  8
2
100
AcDbCircle
 10
-228.885631
 20
-15.436002
 30
0.0
 40
3.0
100
AcDbArc
 50
0.0
 51
69.864689
  0
ARC
  5
58B
100
AcDbEntity
  8
2
100
AcDbCircle
 10
-217.684253
 20
-41.018495
 30
0.0
 40
15.696848
100
AcDbArc
 50
236.854844
 51
257.715872
  0
ARC
  5
58C
100
AcDbEntity
  8
2
100
AcDbCircle
 10
-217.766405
 20
-17.128587
 30
0.0
 40
21.482429
100
AcDbArc
 50
245.142987
 51
263.85852
  0
LINE
  5
58D
100
AcDbEntity
  8
2
100
AcDbLine
 10
-217.385631
 20
-41.470505
 30
0.0
 11
-217.385631
 21
-53.424643
 31
0.0
  0
ARC
  5
58E
100
AcDbEntity
  8
2
100
AcDbCircle
 10
-220.385631
 20
-53.424643
 30
0.0
 40
3.0
100
AcDbArc
 50
257.715872
 51
360.0
  0
ARC
  5
58F
100
AcDbEntity
  8
2
100
AcDbCircle
 10
-220.385631
 20
-41.470505
 30
0.0
 40
3.0
100
AcDbArc
 50
0.0
 51
83.85852
  0
ARC
  5
590
100
AcDbEntity
  8
2
100
AcDbCircle
 10
-225.644338
 20
-34.133538
 30
0.0
 40
2.741293
100
AcDbArc
 50
180.0
 51
245.142987
  0
ARC
  5
591
100
AcDbEntity
  8
2
100
AcDbCircle
 10
-223.710521
 20
-50.246864
 30
0.0
 40
4.67511
100
AcDbArc
 50
132.397626
 51
236.854844
  0
LINE
  5
592
100
AcDbEntity
  8
2
100
AcDbLine
 10
-225.885631
 20
-37.017602
 30
0.0
 11
-225.885631
 21
-51.35746
 31
0.0
  0
ARC
  5
593
100
AcDbEntity
  8
2
100
AcDbCircle
 10
-228.885631
 20
-44.578923
 30
0.0
 40
3.0
100
AcDbArc
 50
312.397626
 51
360.0
  0
LINE
  5
594
100
AcDbEntity
  8
2
100
AcDbLine
 10
-228.385631
 20
-29.828724
 30
0.0
 11
-228.385631
 21
-34.133538
 31
0.0
  0
ARC
  5
595
100
AcDbEntity
  8
2
100
AcDbCircle
 10
-217.566328
 20
-62.876498
 30
0.0
 40
12.773353
100
AcDbArc
 50
229.656627
 51
256.952479
  0
ARC
  5
596
100
AcDbEntity
  8
2
100
AcDbCircle
 10
-217.661188
 20
-45.989928
 30
0.0
 40
14.878639
100
AcDbArc
 50
235.156706
 51
261.234814
  0
LINE
  5
597
100
AcDbEntity
  8
2
100
AcDbLine
 10
-217.385631
 20
-63.659766
 30
0.0
 11
-217.385631
 21
-72.884625
 31
0.0
  0
ARC
  5
598
100
AcDbEntity
  8
2
100
AcDbCircle
 10
-220.385631
 20
-63.659766
 30
0.0
 40
3.0
100
AcDbArc
 50
0.0
 51
81.234814
  0
ARC
  5
599
100
AcDbEntity
  8
2
100
AcDbCircle
 10
-219.885631
 20
-72.884625
 30
0.0
 40
2.5
100
AcDbArc
 50
256.952479
 51
360.0
  0
ARC
  5
59A
100
AcDbEntity
  8
2
100
AcDbCircle
 10
-221.153591
 20
-67.099967
 30
0.0
 40
7.23204
100
AcDbArc
 50
139.0839
 51
229.656627
  0
ARC
  5
59B
100
AcDbEntity
  8
2
100
AcDbCircle
 10
-223.197976
 20
-53.943491
 30
0.0
 40
5.187654
100
AcDbArc
 50
180.0
 51
235.156706
  0
LINE
  5
59C
100
AcDbEntity
  8
2
100
AcDbLine
 10
-228.385631
 20
-50.246864
 30
0.0
 11
-228.385631
 21
-53.943491
 31
0.0
  0
LINE
  5
59D
100
AcDbEntity
  8
2
100
AcDbLine
 10
-225.885631
 20
-58.388817
 30
0.0
 11
-225.885631
 21
-68.904016
 31
0.0
  0
ARC
  5
59E
100
AcDbEntity
  8
2
100
AcDbCircle
 10
-228.885631
 20
-60.39846
 30
0.0
 40
3.0
100
AcDbArc
 50
319.0839
 51
360.0
  0
ARC
  5
59F
100
AcDbEntity
  8
2
100
AcDbCircle
 10
-217.543263
 20
-66.397265
 30
0.0
 40
12.43941
100
AcDbArc
 50
228.573666
 51
260.979305
  0
ARC
  5
5A0
100
AcDbEntity
  8
2
100
AcDbCircle
 10
-220.666401
 20
-69.936489
 30
0.0
 40
7.71923
100
AcDbArc
 50
180.0
 51
228.573666
  0
ARC
  5
5A1
100
AcDbEntity
  8
2
100
AcDbCircle
 10
-218.948744
 20
-79.239522
 30
0.0
 40
9.436887
100
AcDbArc
 50
148.680306
 51
225.252585
  0
LINE
  5
5A2
100
AcDbEntity
  8
2
100
AcDbLine
 10
-228.385631
 20
-67.099967
 30
0.0
 11
-228.385631
 21
-69.936489
 31
0.0
  0
LINE
  5
5A3
100
AcDbEntity
  8
2
100
AcDbLine
 10
-225.885631
 20
-75.623857
 30
0.0
 11
-225.885631
 21
-81.044912
 31
0.0
  0
LINE
  5
5A4
100
AcDbEntity
  8
2
100
AcDbLine
 10
-204.385631
 20
22.066023
 30
0.0
 11
-204.385631
 21
-17.933977
 31
0.0
  0
LINE
  5
5A5
100
AcDbEntity
  8
2
100
AcDbLine
 10
-206.385631
 20
22.066023
 30
0.0
 11
-203.885631
 21
22.066023
 31
0.0
  0
LINE
  5
5A6
100
AcDbEntity
  8
2
100
AcDbLine
 10
-206.385631
 20
-17.933977
 30
0.0
 11
-203.885631
 21
-17.933977
 31
0.0
  0
LINE
  5
5A7
100
AcDbEntity
  8
2
100
AcDbLine
 10
-203.885631
 20
22.066023
 30
0.0
 11
-203.885631
 21
-17.933977
 31
0.0
  0
LINE
  5
5A8
100
AcDbEntity
  8
2
100
AcDbLine
 10
-201.885631
 20
8.566023
 30
0.0
 11
-196.385631
 21
8.566023
 31
0.0
  0
ARC
  5
5A9
100
AcDbEntity
  8
2
100
AcDbCircle
 10
-204.064389
 20
5.316023
 30
0.0
 40
7.678759
100
AcDbArc
 50
334.96034
 51
25.03966
  0
LINE
  5
5AA
100
AcDbEntity
  8
2
100
AcDbLine
 10
-201.885631
 20
-4.433977
 30
0.0
 11
-196.385631
 21
-4.433977
 31
0.0
  0
LINE
  5
5AB
100
AcDbEntity
  8
2
100
AcDbLine
 10
-196.385631
 20
-4.433977
 30
0.0
 11
-196.385631
 21
8.566023
 31
0.0
  0
LINE
  5
5AC
100
AcDbEntity
  8
2
100
AcDbLine
 10
-201.885631
 20
2.066023
 30
0.0
 11
-197.107319
 21
2.066023
 31
0.0
  0
ARC
  5
5AD
100
AcDbEntity
  8
2
100
AcDbCircle
 10
-204.064389
 20
-1.183977
 30
0.0
 40
7.678759
100
AcDbArc
 50
334.96034
 51
25.03966
  0
LINE
  5
5AE
100
AcDbEntity
  8
2
100
AcDbLine
 10
-203.885631
 20
9.766023
 30
0.0
 11
-201.885631
 21
9.766023
 31
0.0
  0
LINE
  5
5AF
100
AcDbEntity
  8
2
100
AcDbLine
 10
-201.885631
 20
9.766023
 30
0.0
 11
-201.885631
 21
-5.633977
 31
0.0
  0
LINE
  5
5B0
100
AcDbEntity
  8
2
100
AcDbLine
 10
-201.885631
 20
-5.633977
 30
0.0
 11
-203.885631
 21
-5.633977
 31
0.0
  0
ARC
  5
5B1
100
AcDbEntity
  8
2
100
AcDbCircle
 10
-217.385631
 20
-86.933977
 30
0.0
 40
11.0
100
AcDbArc
 50
180.0
 51
360.0
  0
LINE
  5
5B2
100
AcDbEntity
  8
2
100
AcDbLine
 10
-217.385631
 20
-81.151901
 30
0.0
 11
-217.385631
 21
-86.457957
 31
0.0
  0
LINE
  5
5B3
100
AcDbEntity
  8
2
100
AcDbLine
 10
-217.385631
 20
-93.576237
 30
0.0
 11
-217.385631
 21
-94.482076
 31
0.0
  0
ARC
  5
5B4
100
AcDbEntity
  8
2
100
AcDbCircle
 10
-217.461111
 20
-77.738715
 30
0.0
 40
11.550053
100
AcDbArc
 50
225.252585
 51
254.460589
  0
ARC
  5
5B5
100
AcDbEntity
  8
2
100
AcDbCircle
 10
-219.885631
 20
-86.457957
 30
0.0
 40
2.5
100
AcDbArc
 50
254.460589
 51
360.0
  0
ARC
  5
5B6
100
AcDbEntity
  8
2
100
AcDbCircle
 10
-219.885631
 20
-81.151901
 30
0.0
 40
2.5
100
AcDbArc
 50
0.0
 51
80.979305
  0
ARC
  5
5B7
100
AcDbEntity
  8
2
100
AcDbCircle
 10
-217.396796
 20
-85.632899
 30
0.0
 40
11.069917
100
AcDbArc
 50
223.095172
 51
257.333361
  0
ARC
  5
5B8
100
AcDbEntity
  8
2
100
AcDbCircle
 10
-217.444227
 20
-79.882555
 30
0.0
 40
11.409614
100
AcDbArc
 50
224.654136
 51
259.891126
  0
ARC
  5
5B9
100
AcDbEntity
  8
2
100
AcDbCircle
 10
-219.885631
 20
-93.576237
 30
0.0
 40
2.5
100
AcDbArc
 50
0.0
 51
79.891126
  0
ARC
  5
5BA
100
AcDbEntity
  8
2
100
AcDbCircle
 10
-219.385631
 20
-94.482076
 30
0.0
 40
2.0
100
AcDbArc
 50
257.333361
 51
360.0
  0
ARC
  5
5BB
100
AcDbEntity
  8
2
100
AcDbCircle
 10
-217.616264
 20
-85.838239
 30
0.0
 40
10.769367
100
AcDbArc
 50
166.761975
 51
223.095172
  0
ARC
  5
5BC
100
AcDbEntity
  8
2
100
AcDbCircle
 10
-218.598153
 20
-81.022634
 30
0.0
 40
9.787478
100
AcDbArc
 50
180.0
 51
224.654136
  0
LINE
  5
5BD
100
AcDbEntity
  8
2
100
AcDbLine
 10
-228.385631
 20
-79.239522
 30
0.0
 11
-228.385631
 21
-81.022634
 31
0.0
  0
LINE
  5
5BE
100
AcDbEntity
  8
2
100
AcDbLine
 10
-228.385631
 20
-85.838239
 30
0.0
 11
-228.385631
 21
-86.933977
 31
0.0
  0
CIRCLE
  5
5BF
100
AcDbEntity
  8
2
  6
PHANTOM
 62
     2
100
AcDbCircle
 10
250.014369
 20
2.066023
 30
0.0
 40
100.0
  0
LINE
  5
5C0
100
AcDbEntity
  8
2
  6
PHANTOM
 62
     2
100
AcDbLine
 10
261.247615
 20
72.422517
 30
0.0
 11
262.927878
 21
22.975669
 31
0.0
  0
LINE
  5
5C1
100
AcDbEntity
  8
2
  6
PHANTOM
 62
     2
100
AcDbLine
 10
238.781123
 20
72.422517
 30
0.0
 11
237.100861
 21
22.975669
 31
0.0
  0
LINE
  5
5C2
100
AcDbEntity
  8
2
  6
PHANTOM
 62
     2
100
AcDbLine
 10
194.700481
 20
-42.840499
 30
0.0
 11
238.362839
 21
-19.572226
 31
0.0
  0
LINE
  5
5C3
100
AcDbEntity
  8
2
  6
PHANTOM
 62
     2
100
AcDbLine
 10
183.467236
 20
-23.383947
 30
0.0
 11
225.449331
 21
2.794627
 31
0.0
  0
LINE
  5
5C4
100
AcDbEntity
  8
2
  6
PHANTOM
 62
     2
100
AcDbLine
 10
305.328257
 20
-42.840499
 30
0.0
 11
261.665899
 21
-19.572226
 31
0.0
  0
LINE
  5
5C5
100
AcDbEntity
  8
2
  6
PHANTOM
 62
     2
100
AcDbLine
 10
316.561503
 20
-23.383947
 30
0.0
 11
274.579408
 21
2.794627
 31
0.0
  0
ARC
  5
5C6
100
AcDbEntity
  8
2
  6
PHANTOM
 62
     2
100
AcDbCircle
 10
250.014369
 20
2.066023
 30
0.0
 40
78.0
100
AcDbArc
 50
223.341798
 51
316.658202
  0
ARC
  5
5C7
100
AcDbEntity
  8
2
  6
PHANTOM
 62
     2
100
AcDbCircle
 10
250.014369
 20
2.066023
 30
0.0
 40
22.5
100
AcDbArc
 50
131.110398
 51
168.889602
  0
ARC
  5
5C8
100
AcDbEntity
  8
2
  6
PHANTOM
 62
     2
100
AcDbCircle
 10
250.014369
 20
2.066023
 30
0.0
 40
22.5
100
AcDbArc
 50
251.110398
 51
288.889602
  0
ARC
  5
5C9
100
AcDbEntity
  8
2
  6
PHANTOM
 62
     2
100
AcDbCircle
 10
250.014369
 20
2.066023
 30
0.0
 40
22.5
100
AcDbArc
 50
11.110398
 51
48.889602
  0
ARC
  5
5CA
100
AcDbEntity
  8
2
  6
PHANTOM
 62
     2
100
AcDbCircle
 10
268.424705
 20
23.162458
 30
0.0
 40
5.5
100
AcDbArc
 50
181.94623
 51
228.889602
  0
ARC
  5
5CB
100
AcDbEntity
  8
2
  6
PHANTOM
 62
     2
100
AcDbCircle
 10
266.744442
 20
72.609306
 30
0.0
 40
5.5
100
AcDbArc
 50
76.658202
 51
181.94623
  0
ARC
  5
5CC
100
AcDbEntity
  8
2
  6
PHANTOM
 62
     2
100
AcDbCircle
 10
233.284296
 20
72.609306
 30
0.0
 40
5.5
100
AcDbArc
 50
358.05377
 51
103.341798
  0
ARC
  5
5CD
100
AcDbEntity
  8
2
  6
PHANTOM
 62
     2
100
AcDbCircle
 10
231.604033
 20
23.162458
 30
0.0
 40
5.5
100
AcDbArc
 50
311.110398
 51
358.05377
  0
ARC
  5
5CE
100
AcDbEntity
  8
2
  6
PHANTOM
 62
     2
100
AcDbCircle
 10
222.539153
 20
7.461625
 30
0.0
 40
5.5
100
AcDbArc
 50
301.94623
 51
348.889602
  0
ARC
  5
5CF
100
AcDbEntity
  8
2
  6
PHANTOM
 62
     2
100
AcDbCircle
 10
240.949489
 20
-24.426012
 30
0.0
 40
5.5
100
AcDbArc
 50
71.110398
 51
118.05377
  0
ARC
  5
5D0
100
AcDbEntity
  8
2
  6
PHANTOM
 62
     2
100
AcDbCircle
 10
259.079249
 20
-24.426012
 30
0.0
 40
5.5
100
AcDbArc
 50
61.94623
 51
108.889602
  0
ARC
  5
5D1
100
AcDbEntity
  8
2
  6
PHANTOM
 62
     2
100
AcDbCircle
 10
277.489585
 20
7.461625
 30
0.0
 40
5.5
100
AcDbArc
 50
191.110398
 51
238.05377
  0
ARC
  5
5D2
100
AcDbEntity
  8
2
  6
PHANTOM
 62
     2
100
AcDbCircle
 10
319.47168
 20
-18.716949
 30
0.0
 40
5.5
100
AcDbArc
 50
238.05377
 51
343.341798
  0
ARC
  5
5D3
100
AcDbEntity
  8
2
  6
PHANTOM
 62
     2
100
AcDbCircle
 10
302.741607
 20
-47.694286
 30
0.0
 40
5.5
100
AcDbArc
 50
316.658202
 51
61.94623
  0
ARC
  5
5D4
100
AcDbEntity
  8
2
  6
PHANTOM
 62
     2
100
AcDbCircle
 10
197.287131
 20
-47.694286
 30
0.0
 40
5.5
100
AcDbArc
 50
118.05377
 51
223.341798
  0
ARC
  5
5D5
100
AcDbEntity
  8
2
  6
PHANTOM
 62
     2
100
AcDbCircle
 10
180.557058
 20
-18.716949
 30
0.0
 40
5.5
100
AcDbArc
 50
196.658202
 51
301.94623
  0
CIRCLE
  5
5D6
100
AcDbEntity
  8
2
  6
PHANTOM
 62
     2
100
AcDbCircle
 10
250.014369
 20
2.066023
 30
0.0
 40
20.0
  0
ARC
  5
5D7
100
AcDbEntity
  8
2
  6
PHANTOM
 62
     2
100
AcDbCircle
 10
250.014369
 20
2.066023
 30
0.0
 40
78.0
100
AcDbArc
 50
321.8928
 51
338.1072
  0
ARC
  5
5D8
100
AcDbEntity
  8
2
  6
PHANTOM
 62
     2
100
AcDbCircle
 10
250.014369
 20
2.066023
 30
0.0
 40
78.0
100
AcDbArc
 50
343.341798
 51
76.658202
  0
ARC
  5
5D9
100
AcDbEntity
  8
2
  6
PHANTOM
 62
     2
100
AcDbCircle
 10
250.014369
 20
2.066023
 30
0.0
 40
78.0
100
AcDbArc
 50
81.8928
 51
98.1072
  0
ARC
  5
5DA
100
AcDbEntity
  8
2
  6
PHANTOM
 62
     2
100
AcDbCircle
 10
250.014369
 20
2.066023
 30
0.0
 40
78.0
100
AcDbArc
 50
103.341798
 51
196.658202
  0
ARC
  5
5DB
100
AcDbEntity
  8
2
  6
PHANTOM
 62
     2
100
AcDbCircle
 10
250.014369
 20
2.066023
 30
0.0
 40
78.0
100
AcDbArc
 50
201.8928
 51
218.1072
  0
CIRCLE
  5
5DC
100
AcDbEntity
  8
2
100
AcDbCircle
 10
-435.149087
 20
290.029479
 30
0.0
 40
3.5
  0
LINE
  5
5DD
100
AcDbEntity
  8
2
100
AcDbLine
 10
-437.249087
 20
289.529479
 30
0.0
 11
-437.249087
 21
290.529479
 31
0.0
  0
LINE
  5
5DE
100
AcDbEntity
  8
2
100
AcDbLine
 10
-433.049087
 20
289.529479
 30
0.0
 11
-433.049087
 21
290.529479
 31
0.0
  0
LINE
  5
5DF
100
AcDbEntity
  8
2
100
AcDbLine
 10
-435.649087
 20
292.129479
 30
0.0
 11
-434.649087
 21
292.129479
 31
0.0
  0
LINE
  5
5E0
100
AcDbEntity
  8
2
100
AcDbLine
 10
-435.649087
 20
287.929479
 30
0.0
 11
-434.649087
 21
287.929479
 31
0.0
  0
LINE
  5
5E1
100
AcDbEntity
  8
2
100
AcDbLine
 10
-437.249087
 20
290.529479
 30
0.0
 11
-436.649087
 21
290.529479
 31
0.0
  0
LINE
  5
5E2
100
AcDbEntity
  8
2
100
AcDbLine
 10
-433.649087
 20
290.529479
 30
0.0
 11
-433.049087
 21
290.529479
 31
0.0
  0
LINE
  5
5E3
100
AcDbEntity
  8
2
100
AcDbLine
 10
-435.649087
 20
287.929479
 30
0.0
 11
-435.649087
 21
288.529479
 31
0.0
  0
LINE
  5
5E4
100
AcDbEntity
  8
2
100
AcDbLine
 10
-435.649087
 20
291.529479
 30
0.0
 11
-435.649087
 21
292.129479
 31
0.0
  0
LINE
  5
5E5
100
AcDbEntity
  8
2
100
AcDbLine
 10
-437.249087
 20
289.529479
 30
0.0
 11
-436.649087
 21
289.529479
 31
0.0
  0
LINE
  5
5E6
100
AcDbEntity
  8
2
100
AcDbLine
 10
-433.649087
 20
289.529479
 30
0.0
 11
-433.049087
 21
289.529479
 31
0.0
  0
LINE
  5
5E7
100
AcDbEntity
  8
2
100
AcDbLine
 10
-434.649087
 20
287.929479
 30
0.0
 11
-434.649087
 21
288.529479
 31
0.0
  0
LINE
  5
5E8
100
AcDbEntity
  8
2
100
AcDbLine
 10
-434.649087
 20
291.529479
 30
0.0
 11
-434.649087
 21
292.129479
 31
0.0
  0
ARC
  5
5E9
100
AcDbEntity
  8
2
100
AcDbCircle
 10
-433.649087
 20
288.529479
 30
0.0
 40
1.0
100
AcDbArc
 50
90.0
 51
180.0
  0
ARC
  5
5EA
100
AcDbEntity
  8
2
100
AcDbCircle
 10
-436.649087
 20
288.529479
 30
0.0
 40
1.0
100
AcDbArc
 50
0.0
 51
90.0
  0
ARC
  5
5EB
100
AcDbEntity
  8
2
100
AcDbCircle
 10
-436.649087
 20
291.529479
 30
0.0
 40
1.0
100
AcDbArc
 50
270.0
 51
360.0
  0
ARC
  5
5EC
100
AcDbEntity
  8
2
100
AcDbCircle
 10
-433.649087
 20
291.529479
 30
0.0
 40
1.0
100
AcDbArc
 50
180.0
 51
270.0
  0
LINE
  5
5ED
100
AcDbEntity
  8
2
100
AcDbLine
 10
-406.122175
 20
49.566023
 30
0.0
 11
-406.122175
 21
50.545048
 31
0.0
  0
LINE
  5
5EE
100
AcDbEntity
  8
2
100
AcDbLine
 10
-399.122175
 20
49.566023
 30
0.0
 11
-399.122175
 21
50.545048
 31
0.0
  0
ARC
  5
5EF
100
AcDbEntity
  8
2
100
AcDbCircle
 10
-402.622175
 20
43.166023
 30
0.0
 40
9.0
100
AcDbArc
 50
73.39845
 51
106.60155
  0
ARC
  5
5F0
100
AcDbEntity
  8
2
100
AcDbCircle
 10
-400.422175
 20
50.545048
 30
0.0
 40
1.3
100
AcDbArc
 50
0.0
 51
73.39845
  0
ARC
  5
5F1
100
AcDbEntity
  8
2
100
AcDbCircle
 10
-404.822175
 20
50.545048
 30
0.0
 40
1.3
100
AcDbArc
 50
106.60155
 51
180.0
  0
CIRCLE
  5
5F2
100
AcDbEntity
  8
2
 62
     2
100
AcDbCircle
 10
-390.885631
 20
2.066023
 30
0.0
 40
5.053
  0
CIRCLE
  5
5F3
100
AcDbEntity
  8
2
100
AcDbCircle
 10
-390.885631
 20
2.066023
 30
0.0
 40
9.0
  0
CIRCLE
  5
5F4
100
AcDbEntity
  8
2
100
AcDbCircle
 10
-390.885631
 20
2.066023
 30
0.0
 40
6.0
  0
LINE
  5
5F5
100
AcDbEntity
  8
2
100
AcDbLine
 10
-396.370458
 20
11.566023
 30
0.0
 11
-385.400803
 21
11.566023
 31
0.0
  0
LINE
  5
5F6
100
AcDbEntity
  8
2
100
AcDbLine
 10
-396.370458
 20
-7.433977
 30
0.0
 11
-385.400803
 21
-7.433977
 31
0.0
  0
LINE
  5
5F7
100
AcDbEntity
  8
2
100
AcDbLine
 10
-401.855286
 20
2.066023
 30
0.0
 11
-396.370458
 21
11.566023
 31
0.0
  0
LINE
  5
5F8
100
AcDbEntity
  8
2
100
AcDbLine
 10
-385.400803
 20
-7.433977
 30
0.0
 11
-379.915976
 21
2.066023
 31
0.0
  0
LINE
  5
5F9
100
AcDbEntity
  8
2
100
AcDbLine
 10
-396.370458
 20
-7.433977
 30
0.0
 11
-401.855286
 21
2.066023
 31
0.0
  0
LINE
  5
5FA
100
AcDbEntity
  8
2
100
AcDbLine
 10
-379.915976
 20
2.066023
 30
0.0
 11
-385.400803
 21
11.566023
 31
0.0
  0
LINE
  5
5FB
100
AcDbEntity
  8
2
100
AcDbLine
 10
-393.885631
 20
0.333973
 30
0.0
 11
-393.885631
 21
3.798074
 31
0.0
  0
LINE
  5
5FC
100
AcDbEntity
  8
2
100
AcDbLine
 10
-387.885631
 20
0.333973
 30
0.0
 11
-387.885631
 21
3.798074
 31
0.0
  0
LINE
  5
5FD
100
AcDbEntity
  8
2
100
AcDbLine
 10
-387.885631
 20
3.798074
 30
0.0
 11
-390.885631
 21
5.530125
 31
0.0
  0
LINE
  5
5FE
100
AcDbEntity
  8
2
100
AcDbLine
 10
-390.885631
 20
-1.398078
 30
0.0
 11
-393.885631
 21
0.333973
 31
0.0
  0
LINE
  5
5FF
100
AcDbEntity
  8
2
100
AcDbLine
 10
-387.885631
 20
0.333973
 30
0.0
 11
-390.885631
 21
-1.398078
 31
0.0
  0
LINE
  5
600
100
AcDbEntity
  8
2
100
AcDbLine
 10
-390.885631
 20
5.530125
 30
0.0
 11
-393.885631
 21
3.798074
 31
0.0
  0
CIRCLE
  5
601
100
AcDbEntity
  8
2
 62
     2
100
AcDbCircle
 10
-446.885631
 20
2.066023
 30
0.0
 40
5.053
  0
CIRCLE
  5
602
100
AcDbEntity
  8
2
100
AcDbCircle
 10
-446.885631
 20
2.066023
 30
0.0
 40
9.0
  0
CIRCLE
  5
603
100
AcDbEntity
  8
2
100
AcDbCircle
 10
-446.885631
 20
2.066023
 30
0.0
 40
6.0
  0
LINE
  5
604
100
AcDbEntity
  8
2
100
AcDbLine
 10
-441.400803
 20
11.566023
 30
0.0
 11
-452.370458
 21
11.566023
 31
0.0
  0
LINE
  5
605
100
AcDbEntity
  8
2
100
AcDbLine
 10
-441.400803
 20
-7.433977
 30
0.0
 11
-452.370458
 21
-7.433977
 31
0.0
  0
LINE
  5
606
100
AcDbEntity
  8
2
100
AcDbLine
 10
-435.915976
 20
2.066023
 30
0.0
 11
-441.400803
 21
11.566023
 31
0.0
  0
LINE
  5
607
100
AcDbEntity
  8
2
100
AcDbLine
 10
-452.370458
 20
-7.433977
 30
0.0
 11
-457.855286
 21
2.066023
 31
0.0
  0
LINE
  5
608
100
AcDbEntity
  8
2
100
AcDbLine
 10
-441.400803
 20
-7.433977
 30
0.0
 11
-435.915976
 21
2.066023
 31
0.0
  0
LINE
  5
609
100
AcDbEntity
  8
2
100
AcDbLine
 10
-457.855286
 20
2.066023
 30
0.0
 11
-452.370458
 21
11.566023
 31
0.0
  0
LINE
  5
60A
100
AcDbEntity
  8
2
100
AcDbLine
 10
-443.885631
 20
0.333973
 30
0.0
 11
-443.885631
 21
3.798074
 31
0.0
  0
LINE
  5
60B
100
AcDbEntity
  8
2
100
AcDbLine
 10
-449.885631
 20
0.333973
 30
0.0
 11
-449.885631
 21
3.798074
 31
0.0
  0
LINE
  5
60C
100
AcDbEntity
  8
2
100
AcDbLine
 10
-449.885631
 20
3.798074
 30
0.0
 11
-446.885631
 21
5.530125
 31
0.0
  0
LINE
  5
60D
100
AcDbEntity
  8
2
100
AcDbLine
 10
-446.885631
 20
-1.398078
 30
0.0
 11
-443.885631
 21
0.333973
 31
0.0
  0
LINE
  5
60E
100
AcDbEntity
  8
2
100
AcDbLine
 10
-449.885631
 20
0.333973
 30
0.0
 11
-446.885631
 21
-1.398078
 31
0.0
  0
LINE
  5
60F
100
AcDbEntity
  8
2
100
AcDbLine
 10
-446.885631
 20
5.530125
 30
0.0
 11
-443.885631
 21
3.798074
 31
0.0
  0
LINE
  5
610
100
AcDbEntity
  8
2
100
AcDbLine
 10
-379.935631
 20
198.64019
 30
0.0
 11
-379.935631
 21
193.891857
 31
0.0
  0
LINE
  5
611
100
AcDbEntity
  8
2
100
AcDbLine
 10
-379.935631
 20
193.891857
 30
0.0
 11
-381.885631
 21
192.766023
 31
0.0
  0
LINE
  5
612
100
AcDbEntity
  8
2
100
AcDbLine
 10
-385.410631
 20
198.64019
 30
0.0
 11
-385.410631
 21
193.891857
 31
0.0
  0
ARC
  5
613
100
AcDbEntity
  8
2
100
AcDbCircle
 10
-382.673131
 20
197.411006
 30
0.0
 40
4.458511
100
AcDbArc
 50
232.121121
 51
307.878879
  0
ARC
  5
614
100
AcDbEntity
  8
2
100
AcDbCircle
 10
-390.885631
 20
209.377495
 30
0.0
 40
16.425
100
AcDbArc
 50
250.528777
 51
289.471219
  0
LINE
  5
615
100
AcDbEntity
  8
2
100
AcDbLine
 10
-401.835631
 20
198.64019
 30
0.0
 11
-401.835631
 21
193.891857
 31
0.0
  0
LINE
  5
616
100
AcDbEntity
  8
2
100
AcDbLine
 10
-401.835631
 20
193.891857
 30
0.0
 11
-399.885631
 21
192.766023
 31
0.0
  0
LINE
  5
617
100
AcDbEntity
  8
2
100
AcDbLine
 10
-399.885631
 20
192.766023
 30
0.0
 11
-381.885631
 21
192.766023
 31
0.0
  0
LINE
  5
618
100
AcDbEntity
  8
2
100
AcDbLine
 10
-396.360631
 20
198.64019
 30
0.0
 11
-396.360631
 21
193.891857
 31
0.0
  0
ARC
  5
619
100
AcDbEntity
  8
2
100
AcDbCircle
 10
-399.098131
 20
197.411006
 30
0.0
 40
4.458511
100
AcDbArc
 50
232.121121
 51
307.878879
  0
ARC
  5
61A
100
AcDbEntity
  8
2
100
AcDbCircle
 10
-382.673131
 20
195.121041
 30
0.0
 40
4.458511
100
AcDbArc
 50
52.121121
 51
127.878879
  0
ARC
  5
61B
100
AcDbEntity
  8
2
100
AcDbCircle
 10
-390.885631
 20
183.154552
 30
0.0
 40
16.425
100
AcDbArc
 50
70.528781
 51
109.471223
  0
ARC
  5
61C
100
AcDbEntity
  8
2
100
AcDbCircle
 10
-399.098131
 20
195.121041
 30
0.0
 40
4.458511
100
AcDbArc
 50
52.121121
 51
127.878879
  0
LINE
  5
61D
100
AcDbEntity
  8
2
100
AcDbLine
 10
-401.835631
 20
198.64019
 30
0.0
 11
-399.885631
 21
199.766023
 31
0.0
  0
LINE
  5
61E
100
AcDbEntity
  8
2
100
AcDbLine
 10
-379.935631
 20
198.64019
 30
0.0
 11
-381.885631
 21
199.766023
 31
0.0
  0
LINE
  5
61F
100
AcDbEntity
  8
2
100
AcDbLine
 10
-395.938631
 20
183.766023
 30
0.0
 11
-385.832631
 21
183.766023
 31
0.0
  0
LINE
  5
620
100
AcDbEntity
  8
2
100
AcDbLine
 10
-395.938631
 20
183.766023
 30
0.0
 11
-396.885631
 21
184.713023
 31
0.0
  0
LINE
  5
621
100
AcDbEntity
  8
2
100
AcDbLine
 10
-396.885631
 20
184.713023
 30
0.0
 11
-396.885631
 21
192.766023
 31
0.0
  0
LINE
  5
622
100
AcDbEntity
  8
2
 62
     2
100
AcDbLine
 10
-395.938631
 20
183.766023
 30
0.0
 11
-395.938631
 21
192.766023
 31
0.0
  0
LINE
  5
623
100
AcDbEntity
  8
2
100
AcDbLine
 10
-385.832631
 20
183.766023
 30
0.0
 11
-384.885631
 21
184.713023
 31
0.0
  0
LINE
  5
624
100
AcDbEntity
  8
2
100
AcDbLine
 10
-384.885631
 20
184.713023
 30
0.0
 11
-384.885631
 21
192.766023
 31
0.0
  0
LINE
  5
625
100
AcDbEntity
  8
2
100
AcDbLine
 10
-384.885631
 20
184.713023
 30
0.0
 11
-396.885631
 21
184.713023
 31
0.0
  0
LINE
  5
626
100
AcDbEntity
  8
2
 62
     2
100
AcDbLine
 10
-385.832631
 20
183.766023
 30
0.0
 11
-385.832631
 21
192.766023
 31
0.0
  0
LINE
  5
627
100
AcDbEntity
  8
2
100
AcDbLine
 10
-457.835631
 20
198.64019
 30
0.0
 11
-457.835631
 21
193.891857
 31
0.0
  0
LINE
  5
628
100
AcDbEntity
  8
2
100
AcDbLine
 10
-457.835631
 20
193.891857
 30
0.0
 11
-455.885631
 21
192.766023
 31
0.0
  0
LINE
  5
629
100
AcDbEntity
  8
2
100
AcDbLine
 10
-452.360631
 20
198.64019
 30
0.0
 11
-452.360631
 21
193.891857
 31
0.0
  0
ARC
  5
62A
100
AcDbEntity
  8
2
100
AcDbCircle
 10
-455.098131
 20
197.411006
 30
0.0
 40
4.458511
100
AcDbArc
 50
232.121121
 51
307.878879
  0
ARC
  5
62B
100
AcDbEntity
  8
2
100
AcDbCircle
 10
-446.885631
 20
209.377495
 30
0.0
 40
16.425
100
AcDbArc
 50
250.528781
 51
289.471223
  0
LINE
  5
62C
100
AcDbEntity
  8
2
100
AcDbLine
 10
-435.935631
 20
198.64019
 30
0.0
 11
-435.935631
 21
193.891857
 31
0.0
  0
LINE
  5
62D
100
AcDbEntity
  8
2
100
AcDbLine
 10
-435.935631
 20
193.891857
 30
0.0
 11
-437.885631
 21
192.766023
 31
0.0
  0
LINE
  5
62E
100
AcDbEntity
  8
2
100
AcDbLine
 10
-437.885631
 20
192.766023
 30
0.0
 11
-455.885631
 21
192.766023
 31
0.0
  0
LINE
  5
62F
100
AcDbEntity
  8
2
100
AcDbLine
 10
-441.410631
 20
198.64019
 30
0.0
 11
-441.410631
 21
193.891857
 31
0.0
  0
ARC
  5
630
100
AcDbEntity
  8
2
100
AcDbCircle
 10
-438.673131
 20
197.411006
 30
0.0
 40
4.458511
100
AcDbArc
 50
232.121121
 51
307.878879
  0
ARC
  5
631
100
AcDbEntity
  8
2
100
AcDbCircle
 10
-455.098131
 20
195.121041
 30
0.0
 40
4.458511
100
AcDbArc
 50
52.121121
 51
127.878879
  0
ARC
  5
632
100
AcDbEntity
  8
2
100
AcDbCircle
 10
-446.885631
 20
183.154552
 30
0.0
 40
16.425
100
AcDbArc
 50
70.528777
 51
109.471219
  0
ARC
  5
633
100
AcDbEntity
  8
2
100
AcDbCircle
 10
-438.673131
 20
195.121041
 30
0.0
 40
4.458511
100
AcDbArc
 50
52.121121
 51
127.878879
  0
LINE
  5
634
100
AcDbEntity
  8
2
100
AcDbLine
 10
-435.935631
 20
198.64019
 30
0.0
 11
-437.885631
 21
199.766023
 31
0.0
  0
LINE
  5
635
100
AcDbEntity
  8
2
100
AcDbLine
 10
-457.835631
 20
198.64019
 30
0.0
 11
-455.885631
 21
199.766023
 31
0.0
  0
LINE
  5
636
100
AcDbEntity
  8
2
100
AcDbLine
 10
-441.832631
 20
183.766023
 30
0.0
 11
-451.938631
 21
183.766023
 31
0.0
  0
LINE
  5
637
100
AcDbEntity
  8
2
100
AcDbLine
 10
-441.832631
 20
183.766023
 30
0.0
 11
-440.885631
 21
184.713023
 31
0.0
  0
LINE
  5
638
100
AcDbEntity
  8
2
100
AcDbLine
 10
-440.885631
 20
184.713023
 30
0.0
 11
-440.885631
 21
192.766023
 31
0.0
  0
LINE
  5
639
100
AcDbEntity
  8
2
 62
     2
100
AcDbLine
 10
-441.832631
 20
183.766023
 30
0.0
 11
-441.832631
 21
192.766023
 31
0.0
  0
LINE
  5
63A
100
AcDbEntity
  8
2
100
AcDbLine
 10
-451.938631
 20
183.766023
 30
0.0
 11
-452.885631
 21
184.713023
 31
0.0
  0
LINE
  5
63B
100
AcDbEntity
  8
2
100
AcDbLine
 10
-452.885631
 20
184.713023
 30
0.0
 11
-452.885631
 21
192.766023
 31
0.0
  0
LINE
  5
63C
100
AcDbEntity
  8
2
100
AcDbLine
 10
-452.885631
 20
184.713023
 30
0.0
 11
-440.885631
 21
184.713023
 31
0.0
  0
LINE
  5
63D
100
AcDbEntity
  8
2
 62
     2
100
AcDbLine
 10
-451.938631
 20
183.766023
 30
0.0
 11
-451.938631
 21
192.766023
 31
0.0
  0
LINE
  5
63E
100
AcDbEntity
  8
2
100
AcDbLine
 10
88.514369
 20
-7.433977
 30
0.0
 11
81.514369
 21
-7.433977
 31
0.0
  0
LINE
  5
63F
100
AcDbEntity
  8
2
100
AcDbLine
 10
81.514369
 20
-7.433977
 30
0.0
 11
81.514369
 21
11.566023
 31
0.0
  0
ARC
  5
640
100
AcDbEntity
  8
2
100
AcDbCircle
 10
92.097644
 20
-2.683977
 30
0.0
 40
10.583275
100
AcDbArc
 50
153.331909
 51
206.668091
  0
LINE
  5
641
100
AcDbEntity
  8
2
100
AcDbLine
 10
88.514369
 20
11.566023
 30
0.0
 11
81.514369
 21
11.566023
 31
0.0
  0
ARC
  5
642
100
AcDbEntity
  8
2
100
AcDbCircle
 10
92.097644
 20
6.816023
 30
0.0
 40
10.583275
100
AcDbArc
 50
153.331909
 51
206.668091
  0
ARC
  5
643
100
AcDbEntity
  8
2
100
AcDbCircle
 10
77.931095
 20
6.816023
 30
0.0
 40
10.583275
100
AcDbArc
 50
333.331909
 51
26.668091
  0
ARC
  5
644
100
AcDbEntity
  8
2
100
AcDbCircle
 10
77.931095
 20
-2.683977
 30
0.0
 40
10.583275
100
AcDbArc
 50
333.331909
 51
26.668091
  0
LINE
  5
645
100
AcDbEntity
  8
2
100
AcDbLine
 10
82.640202
 20
2.066023
 30
0.0
 11
87.388536
 21
2.066023
 31
0.0
  0
LINE
  5
646
100
AcDbEntity
  8
2
100
AcDbLine
 10
72.514369
 20
7.119023
 30
0.0
 11
72.514369
 21
-2.986977
 31
0.0
  0
LINE
  5
647
100
AcDbEntity
  8
2
100
AcDbLine
 10
72.514369
 20
7.119023
 30
0.0
 11
73.461369
 21
8.066023
 31
0.0
  0
LINE
  5
648
100
AcDbEntity
  8
2
100
AcDbLine
 10
73.461369
 20
8.066023
 30
0.0
 11
81.514369
 21
8.066023
 31
0.0
  0
LINE
  5
649
100
AcDbEntity
  8
2
 62
     2
100
AcDbLine
 10
72.514369
 20
7.119023
 30
0.0
 11
81.514369
 21
7.119023
 31
0.0
  0
LINE
  5
64A
100
AcDbEntity
  8
2
100
AcDbLine
 10
72.514369
 20
-2.986977
 30
0.0
 11
73.461369
 21
-3.933977
 31
0.0
  0
LINE
  5
64B
100
AcDbEntity
  8
2
100
AcDbLine
 10
73.461369
 20
-3.933977
 30
0.0
 11
81.514369
 21
-3.933977
 31
0.0
  0
LINE
  5
64C
100
AcDbEntity
  8
2
100
AcDbLine
 10
73.461369
 20
-3.933977
 30
0.0
 11
73.461369
 21
8.066023
 31
0.0
  0
LINE
  5
64D
100
AcDbEntity
  8
2
 62
     2
100
AcDbLine
 10
72.514369
 20
-2.986977
 30
0.0
 11
81.514369
 21
-2.986977
 31
0.0
  0
CIRCLE
  5
64E
100
AcDbEntity
  8
2
100
AcDbCircle
 10
-362.885631
 20
218.766023
 30
0.0
 40
7.7
  0
CIRCLE
  5
64F
100
AcDbEntity
  8
2
100
AcDbCircle
 10
-362.885631
 20
218.766023
 30
0.0
 40
7.0
  0
LINE
  5
650
100
AcDbEntity
  8
2
100
AcDbLine
 10
-359.035631
 20
218.066023
 30
0.0
 11
-359.035631
 21
219.466023
 31
0.0
  0
LINE
  5
651
100
AcDbEntity
  8
2
100
AcDbLine
 10
-366.735631
 20
218.066023
 30
0.0
 11
-366.735631
 21
219.466023
 31
0.0
  0
LINE
  5
652
100
AcDbEntity
  8
2
100
AcDbLine
 10
-363.585631
 20
222.616023
 30
0.0
 11
-362.185631
 21
222.616023
 31
0.0
  0
LINE
  5
653
100
AcDbEntity
  8
2
100
AcDbLine
 10
-363.585631
 20
214.916023
 30
0.0
 11
-362.185631
 21
214.916023
 31
0.0
  0
LINE
  5
654
100
AcDbEntity
  8
2
100
AcDbLine
 10
-362.185631
 20
214.916023
 30
0.0
 11
-362.185631
 21
216.666023
 31
0.0
  0
LINE
  5
655
100
AcDbEntity
  8
2
100
AcDbLine
 10
-362.185631
 20
220.866023
 30
0.0
 11
-362.185631
 21
222.616023
 31
0.0
  0
LINE
  5
656
100
AcDbEntity
  8
2
100
AcDbLine
 10
-366.735631
 20
218.066023
 30
0.0
 11
-364.985631
 21
218.066023
 31
0.0
  0
LINE
  5
657
100
AcDbEntity
  8
2
100
AcDbLine
 10
-360.785631
 20
218.066023
 30
0.0
 11
-359.035631
 21
218.066023
 31
0.0
  0
LINE
  5
658
100
AcDbEntity
  8
2
100
AcDbLine
 10
-363.585631
 20
214.916023
 30
0.0
 11
-363.585631
 21
216.666023
 31
0.0
  0
LINE
  5
659
100
AcDbEntity
  8
2
100
AcDbLine
 10
-363.585631
 20
220.866023
 30
0.0
 11
-363.585631
 21
222.616023
 31
0.0
  0
LINE
  5
65A
100
AcDbEntity
  8
2
100
AcDbLine
 10
-366.735631
 20
219.466023
 30
0.0
 11
-364.985631
 21
219.466023
 31
0.0
  0
LINE
  5
65B
100
AcDbEntity
  8
2
100
AcDbLine
 10
-360.785631
 20
219.466023
 30
0.0
 11
-359.035631
 21
219.466023
 31
0.0
  0
ARC
  5
65C
100
AcDbEntity
  8
2
100
AcDbCircle
 10
-360.785631
 20
220.866023
 30
0.0
 40
1.4
100
AcDbArc
 50
180.0
 51
270.0
  0
ARC
  5
65D
100
AcDbEntity
  8
2
100
AcDbCircle
 10
-364.985631
 20
220.866023
 30
0.0
 40
1.4
100
AcDbArc
 50
270.0
 51
360.0
  0
ARC
  5
65E
100
AcDbEntity
  8
2
100
AcDbCircle
 10
-364.985631
 20
216.666023
 30
0.0
 40
1.4
100
AcDbArc
 50
0.0
 51
90.0
  0
ARC
  5
65F
100
AcDbEntity
  8
2
100
AcDbCircle
 10
-360.785631
 20
216.666023
 30
0.0
 40
1.4
100
AcDbArc
 50
90.0
 51
180.0
  0
LINE
  5
660
100
AcDbEntity
  8
2
100
AcDbLine
 10
-370.585631
 20
36.066023
 30
0.0
 11
-355.185631
 21
36.066023
 31
0.0
  0
LINE
  5
661
100
AcDbEntity
  8
2
100
AcDbLine
 10
-370.585631
 20
36.066023
 30
0.0
 11
-370.585631
 21
34.066023
 31
0.0
  0
LINE
  5
662
100
AcDbEntity
  8
2
100
AcDbLine
 10
-355.185631
 20
36.066023
 30
0.0
 11
-355.185631
 21
34.066023
 31
0.0
  0
LINE
  5
663
100
AcDbEntity
  8
2
100
AcDbLine
 10
-369.885631
 20
38.024072
 30
0.0
 11
-369.885631
 21
36.066023
 31
0.0
  0
LINE
  5
664
100
AcDbEntity
  8
2
100
AcDbLine
 10
-355.885631
 20
38.024072
 30
0.0
 11
-355.885631
 21
36.066023
 31
0.0
  0
ARC
  5
665
100
AcDbEntity
  8
2
100
AcDbCircle
 10
-362.885631
 20
23.266023
 30
0.0
 40
18.0
100
AcDbArc
 50
73.39845
 51
106.60155
  0
ARC
  5
666
100
AcDbEntity
  8
2
100
AcDbCircle
 10
-358.485631
 20
38.024072
 30
0.0
 40
2.6
100
AcDbArc
 50
0.0
 51
73.39845
  0
ARC
  5
667
100
AcDbEntity
  8
2
100
AcDbCircle
 10
-367.285631
 20
38.024072
 30
0.0
 40
2.6
100
AcDbArc
 50
106.60155
 51
180.0
  0
CIRCLE
  5
668
100
AcDbEntity
  8
2
100
AcDbCircle
 10
-474.885631
 20
218.766023
 30
0.0
 40
7.7
  0
CIRCLE
  5
669
100
AcDbEntity
  8
2
100
AcDbCircle
 10
-474.885631
 20
218.766023
 30
0.0
 40
7.0
  0
LINE
  5
66A
100
AcDbEntity
  8
2
100
AcDbLine
 10
-471.035631
 20
218.066023
 30
0.0
 11
-471.035631
 21
219.466023
 31
0.0
  0
LINE
  5
66B
100
AcDbEntity
  8
2
100
AcDbLine
 10
-478.735631
 20
218.066023
 30
0.0
 11
-478.735631
 21
219.466023
 31
0.0
  0
LINE
  5
66C
100
AcDbEntity
  8
2
100
AcDbLine
 10
-475.585631
 20
222.616023
 30
0.0
 11
-474.185631
 21
222.616023
 31
0.0
  0
LINE
  5
66D
100
AcDbEntity
  8
2
100
AcDbLine
 10
-475.585631
 20
214.916023
 30
0.0
 11
-474.185631
 21
214.916023
 31
0.0
  0
LINE
  5
66E
100
AcDbEntity
  8
2
100
AcDbLine
 10
-474.185631
 20
214.916023
 30
0.0
 11
-474.185631
 21
216.666023
 31
0.0
  0
LINE
  5
66F
100
AcDbEntity
  8
2
100
AcDbLine
 10
-474.185631
 20
220.866023
 30
0.0
 11
-474.185631
 21
222.616023
 31
0.0
  0
LINE
  5
670
100
AcDbEntity
  8
2
100
AcDbLine
 10
-478.735631
 20
218.066023
 30
0.0
 11
-476.985631
 21
218.066023
 31
0.0
  0
LINE
  5
671
100
AcDbEntity
  8
2
100
AcDbLine
 10
-472.785631
 20
218.066023
 30
0.0
 11
-471.035631
 21
218.066023
 31
0.0
  0
LINE
  5
672
100
AcDbEntity
  8
2
100
AcDbLine
 10
-475.585631
 20
214.916023
 30
0.0
 11
-475.585631
 21
216.666023
 31
0.0
  0
LINE
  5
673
100
AcDbEntity
  8
2
100
AcDbLine
 10
-475.585631
 20
220.866023
 30
0.0
 11
-475.585631
 21
222.616023
 31
0.0
  0
LINE
  5
674
100
AcDbEntity
  8
2
100
AcDbLine
 10
-478.735631
 20
219.466023
 30
0.0
 11
-476.985631
 21
219.466023
 31
0.0
  0
LINE
  5
675
100
AcDbEntity
  8
2
100
AcDbLine
 10
-472.785631
 20
219.466023
 30
0.0
 11
-471.035631
 21
219.466023
 31
0.0
  0
ARC
  5
676
100
AcDbEntity
  8
2
100
AcDbCircle
 10
-472.785631
 20
220.866023
 30
0.0
 40
1.4
100
AcDbArc
 50
180.0
 51
270.0
  0
ARC
  5
677
100
AcDbEntity
  8
2
100
AcDbCircle
 10
-476.985631
 20
220.866023
 30
0.0
 40
1.4
100
AcDbArc
 50
270.0
 51
360.0
  0
ARC
  5
678
100
AcDbEntity
  8
2
100
AcDbCircle
 10
-476.985631
 20
216.666023
 30
0.0
 40
1.4
100
AcDbArc
 50
0.0
 51
90.0
  0
ARC
  5
679
100
AcDbEntity
  8
2
100
AcDbCircle
 10
-472.785631
 20
216.666023
 30
0.0
 40
1.4
100
AcDbArc
 50
90.0
 51
180.0
  0
CIRCLE
  5
67A
100
AcDbEntity
  8
2
100
AcDbCircle
 10
-348.885631
 20
322.766023
 30
0.0
 40
7.7
  0
CIRCLE
  5
67B
100
AcDbEntity
  8
2
100
AcDbCircle
 10
-348.885631
 20
322.766023
 30
0.0
 40
7.0
  0
LINE
  5
67C
100
AcDbEntity
  8
2
100
AcDbLine
 10
-345.035631
 20
322.066023
 30
0.0
 11
-345.035631
 21
323.466023
 31
0.0
  0
LINE
  5
67D
100
AcDbEntity
  8
2
100
AcDbLine
 10
-352.735631
 20
322.066023
 30
0.0
 11
-352.735631
 21
323.466023
 31
0.0
  0
LINE
  5
67E
100
AcDbEntity
  8
2
100
AcDbLine
 10
-349.585631
 20
326.616023
 30
0.0
 11
-348.185631
 21
326.616023
 31
0.0
  0
LINE
  5
67F
100
AcDbEntity
  8
2
100
AcDbLine
 10
-349.585631
 20
318.916023
 30
0.0
 11
-348.185631
 21
318.916023
 31
0.0
  0
LINE
  5
680
100
AcDbEntity
  8
2
100
AcDbLine
 10
-348.185631
 20
318.916023
 30
0.0
 11
-348.185631
 21
320.666023
 31
0.0
  0
LINE
  5
681
100
AcDbEntity
  8
2
100
AcDbLine
 10
-348.185631
 20
324.866023
 30
0.0
 11
-348.185631
 21
326.616023
 31
0.0
  0
LINE
  5
682
100
AcDbEntity
  8
2
100
AcDbLine
 10
-352.735631
 20
322.066023
 30
0.0
 11
-350.985631
 21
322.066023
 31
0.0
  0
LINE
  5
683
100
AcDbEntity
  8
2
100
AcDbLine
 10
-346.785631
 20
322.066023
 30
0.0
 11
-345.035631
 21
322.066023
 31
0.0
  0
LINE
  5
684
100
AcDbEntity
  8
2
100
AcDbLine
 10
-349.585631
 20
318.916023
 30
0.0
 11
-349.585631
 21
320.666023
 31
0.0
  0
LINE
  5
685
100
AcDbEntity
  8
2
100
AcDbLine
 10
-349.585631
 20
324.866023
 30
0.0
 11
-349.585631
 21
326.616023
 31
0.0
  0
LINE
  5
686
100
AcDbEntity
  8
2
100
AcDbLine
 10
-352.735631
 20
323.466023
 30
0.0
 11
-350.985631
 21
323.466023
 31
0.0
  0
LINE
  5
687
100
AcDbEntity
  8
2
100
AcDbLine
 10
-346.785631
 20
323.466023
 30
0.0
 11
-345.035631
 21
323.466023
 31
0.0
  0
ARC
  5
688
100
AcDbEntity
  8
2
100
AcDbCircle
 10
-346.785631
 20
324.866023
 30
0.0
 40
1.4
100
AcDbArc
 50
180.0
 51
270.0
  0
ARC
  5
689
100
AcDbEntity
  8
2
100
AcDbCircle
 10
-350.985631
 20
324.866023
 30
0.0
 40
1.4
100
AcDbArc
 50
270.0
 51
360.0
  0
ARC
  5
68A
100
AcDbEntity
  8
2
100
AcDbCircle
 10
-350.985631
 20
320.666023
 30
0.0
 40
1.4
100
AcDbArc
 50
0.0
 51
90.0
  0
ARC
  5
68B
100
AcDbEntity
  8
2
100
AcDbCircle
 10
-346.785631
 20
320.666023
 30
0.0
 40
1.4
100
AcDbArc
 50
90.0
 51
180.0
  0
CIRCLE
  5
68C
100
AcDbEntity
  8
2
100
AcDbCircle
 10
-488.885631
 20
322.766023
 30
0.0
 40
7.7
  0
CIRCLE
  5
68D
100
AcDbEntity
  8
2
100
AcDbCircle
 10
-488.885631
 20
322.766023
 30
0.0
 40
7.0
  0
LINE
  5
68E
100
AcDbEntity
  8
2
100
AcDbLine
 10
-485.035631
 20
322.066023
 30
0.0
 11
-485.035631
 21
323.466023
 31
0.0
  0
LINE
  5
68F
100
AcDbEntity
  8
2
100
AcDbLine
 10
-492.735631
 20
322.066023
 30
0.0
 11
-492.735631
 21
323.466023
 31
0.0
  0
LINE
  5
690
100
AcDbEntity
  8
2
100
AcDbLine
 10
-489.585631
 20
326.616023
 30
0.0
 11
-488.185631
 21
326.616023
 31
0.0
  0
LINE
  5
691
100
AcDbEntity
  8
2
100
AcDbLine
 10
-489.585631
 20
318.916023
 30
0.0
 11
-488.185631
 21
318.916023
 31
0.0
  0
LINE
  5
692
100
AcDbEntity
  8
2
100
AcDbLine
 10
-488.185631
 20
318.916023
 30
0.0
 11
-488.185631
 21
320.666023
 31
0.0
  0
LINE
  5
693
100
AcDbEntity
  8
2
100
AcDbLine
 10
-488.185631
 20
324.866023
 30
0.0
 11
-488.185631
 21
326.616023
 31
0.0
  0
LINE
  5
694
100
AcDbEntity
  8
2
100
AcDbLine
 10
-492.735631
 20
322.066023
 30
0.0
 11
-490.985631
 21
322.066023
 31
0.0
  0
LINE
  5
695
100
AcDbEntity
  8
2
100
AcDbLine
 10
-486.785631
 20
322.066023
 30
0.0
 11
-485.035631
 21
322.066023
 31
0.0
  0
LINE
  5
696
100
AcDbEntity
  8
2
100
AcDbLine
 10
-489.585631
 20
318.916023
 30
0.0
 11
-489.585631
 21
320.666023
 31
0.0
  0
LINE
  5
697
100
AcDbEntity
  8
2
100
AcDbLine
 10
-489.585631
 20
324.866023
 30
0.0
 11
-489.585631
 21
326.616023
 31
0.0
  0
LINE
  5
698
100
AcDbEntity
  8
2
100
AcDbLine
 10
-492.735631
 20
323.466023
 30
0.0
 11
-490.985631
 21
323.466023
 31
0.0
  0
LINE
  5
699
100
AcDbEntity
  8
2
100
AcDbLine
 10
-486.785631
 20
323.466023
 30
0.0
 11
-485.035631
 21
323.466023
 31
0.0
  0
ARC
  5
69A
100
AcDbEntity
  8
2
100
AcDbCircle
 10
-486.785631
 20
324.866023
 30
0.0
 40
1.4
100
AcDbArc
 50
180.0
 51
270.0
  0
ARC
  5
69B
100
AcDbEntity
  8
2
100
AcDbCircle
 10
-490.985631
 20
324.866023
 30
0.0
 40
1.4
100
AcDbArc
 50
270.0
 51
360.0
  0
ARC
  5
69C
100
AcDbEntity
  8
2
100
AcDbCircle
 10
-490.985631
 20
320.666023
 30
0.0
 40
1.4
100
AcDbArc
 50
0.0
 51
90.0
  0
ARC
  5
69D
100
AcDbEntity
  8
2
100
AcDbCircle
 10
-486.785631
 20
320.666023
 30
0.0
 40
1.4
100
AcDbArc
 50
90.0
 51
180.0
  0
CIRCLE
  5
69E
100
AcDbEntity
  8
2
100
AcDbCircle
 10
-359.885631
 20
384.266023
 30
0.0
 40
7.7
  0
CIRCLE
  5
69F
100
AcDbEntity
  8
2
100
AcDbCircle
 10
-359.885631
 20
384.266023
 30
0.0
 40
7.0
  0
LINE
  5
6A0
100
AcDbEntity
  8
2
100
AcDbLine
 10
-356.035631
 20
383.566023
 30
0.0
 11
-356.035631
 21
384.966023
 31
0.0
  0
LINE
  5
6A1
100
AcDbEntity
  8
2
100
AcDbLine
 10
-363.735631
 20
383.566023
 30
0.0
 11
-363.735631
 21
384.966023
 31
0.0
  0
LINE
  5
6A2
100
AcDbEntity
  8
2
100
AcDbLine
 10
-360.585631
 20
388.116023
 30
0.0
 11
-359.185631
 21
388.116023
 31
0.0
  0
LINE
  5
6A3
100
AcDbEntity
  8
2
100
AcDbLine
 10
-360.585631
 20
380.416023
 30
0.0
 11
-359.185631
 21
380.416023
 31
0.0
  0
LINE
  5
6A4
100
AcDbEntity
  8
2
100
AcDbLine
 10
-359.185631
 20
380.416023
 30
0.0
 11
-359.185631
 21
382.166023
 31
0.0
  0
LINE
  5
6A5
100
AcDbEntity
  8
2
100
AcDbLine
 10
-359.185631
 20
386.366023
 30
0.0
 11
-359.185631
 21
388.116023
 31
0.0
  0
LINE
  5
6A6
100
AcDbEntity
  8
2
100
AcDbLine
 10
-363.735631
 20
383.566023
 30
0.0
 11
-361.985631
 21
383.566023
 31
0.0
  0
LINE
  5
6A7
100
AcDbEntity
  8
2
100
AcDbLine
 10
-357.785631
 20
383.566023
 30
0.0
 11
-356.035631
 21
383.566023
 31
0.0
  0
LINE
  5
6A8
100
AcDbEntity
  8
2
100
AcDbLine
 10
-360.585631
 20
380.416023
 30
0.0
 11
-360.585631
 21
382.166023
 31
0.0
  0
LINE
  5
6A9
100
AcDbEntity
  8
2
100
AcDbLine
 10
-360.585631
 20
386.366023
 30
0.0
 11
-360.585631
 21
388.116023
 31
0.0
  0
LINE
  5
6AA
100
AcDbEntity
  8
2
100
AcDbLine
 10
-363.735631
 20
384.966023
 30
0.0
 11
-361.985631
 21
384.966023
 31
0.0
  0
LINE
  5
6AB
100
AcDbEntity
  8
2
100
AcDbLine
 10
-357.785631
 20
384.966023
 30
0.0
 11
-356.035631
 21
384.966023
 31
0.0
  0
ARC
  5
6AC
100
AcDbEntity
  8
2
100
AcDbCircle
 10
-357.785631
 20
386.366023
 30
0.0
 40
1.4
100
AcDbArc
 50
180.0
 51
270.0
  0
ARC
  5
6AD
100
AcDbEntity
  8
2
100
AcDbCircle
 10
-361.985631
 20
386.366023
 30
0.0
 40
1.4
100
AcDbArc
 50
270.0
 51
360.0
  0
ARC
  5
6AE
100
AcDbEntity
  8
2
100
AcDbCircle
 10
-361.985631
 20
382.166023
 30
0.0
 40
1.4
100
AcDbArc
 50
0.0
 51
90.0
  0
ARC
  5
6AF
100
AcDbEntity
  8
2
100
AcDbCircle
 10
-357.785631
 20
382.166023
 30
0.0
 40
1.4
100
AcDbArc
 50
90.0
 51
180.0
  0
CIRCLE
  5
6B0
100
AcDbEntity
  8
2
100
AcDbCircle
 10
-477.885631
 20
384.266023
 30
0.0
 40
7.7
  0
CIRCLE
  5
6B1
100
AcDbEntity
  8
2
100
AcDbCircle
 10
-477.885631
 20
384.266023
 30
0.0
 40
7.0
  0
LINE
  5
6B2
100
AcDbEntity
  8
2
100
AcDbLine
 10
-474.035631
 20
383.566023
 30
0.0
 11
-474.035631
 21
384.966023
 31
0.0
  0
LINE
  5
6B3
100
AcDbEntity
  8
2
100
AcDbLine
 10
-481.735631
 20
383.566023
 30
0.0
 11
-481.735631
 21
384.966023
 31
0.0
  0
LINE
  5
6B4
100
AcDbEntity
  8
2
100
AcDbLine
 10
-478.585631
 20
388.116023
 30
0.0
 11
-477.185631
 21
388.116023
 31
0.0
  0
LINE
  5
6B5
100
AcDbEntity
  8
2
100
AcDbLine
 10
-478.585631
 20
380.416023
 30
0.0
 11
-477.185631
 21
380.416023
 31
0.0
  0
LINE
  5
6B6
100
AcDbEntity
  8
2
100
AcDbLine
 10
-477.185631
 20
380.416023
 30
0.0
 11
-477.185631
 21
382.166023
 31
0.0
  0
LINE
  5
6B7
100
AcDbEntity
  8
2
100
AcDbLine
 10
-477.185631
 20
386.366023
 30
0.0
 11
-477.185631
 21
388.116023
 31
0.0
  0
LINE
  5
6B8
100
AcDbEntity
  8
2
100
AcDbLine
 10
-481.735631
 20
383.566023
 30
0.0
 11
-479.985631
 21
383.566023
 31
0.0
  0
LINE
  5
6B9
100
AcDbEntity
  8
2
100
AcDbLine
 10
-475.785631
 20
383.566023
 30
0.0
 11
-474.035631
 21
383.566023
 31
0.0
  0
LINE
  5
6BA
100
AcDbEntity
  8
2
100
AcDbLine
 10
-478.585631
 20
380.416023
 30
0.0
 11
-478.585631
 21
382.166023
 31
0.0
  0
LINE
  5
6BB
100
AcDbEntity
  8
2
100
AcDbLine
 10
-478.585631
 20
386.366023
 30
0.0
 11
-478.585631
 21
388.116023
 31
0.0
  0
LINE
  5
6BC
100
AcDbEntity
  8
2
100
AcDbLine
 10
-481.735631
 20
384.966023
 30
0.0
 11
-479.985631
 21
384.966023
 31
0.0
  0
LINE
  5
6BD
100
AcDbEntity
  8
2
100
AcDbLine
 10
-475.785631
 20
384.966023
 30
0.0
 11
-474.035631
 21
384.966023
 31
0.0
  0
ARC
  5
6BE
100
AcDbEntity
  8
2
100
AcDbCircle
 10
-475.785631
 20
386.366023
 30
0.0
 40
1.4
100
AcDbArc
 50
180.0
 51
270.0
  0
ARC
  5
6BF
100
AcDbEntity
  8
2
100
AcDbCircle
 10
-479.985631
 20
386.366023
 30
0.0
 40
1.4
100
AcDbArc
 50
270.0
 51
360.0
  0
ARC
  5
6C0
100
AcDbEntity
  8
2
100
AcDbCircle
 10
-479.985631
 20
382.166023
 30
0.0
 40
1.4
100
AcDbArc
 50
0.0
 51
90.0
  0
ARC
  5
6C1
100
AcDbEntity
  8
2
100
AcDbCircle
 10
-475.785631
 20
382.166023
 30
0.0
 40
1.4
100
AcDbArc
 50
90.0
 51
180.0
  0
LINE
  5
6C2
100
AcDbEntity
  8
2
100
AcDbLine
 10
-341.885631
 20
38.024072
 30
0.0
 11
-341.885631
 21
37.530125
 31
0.0
  0
ARC
  5
6C3
100
AcDbEntity
  8
2
100
AcDbCircle
 10
-348.885631
 20
23.266023
 30
0.0
 40
18.0
100
AcDbArc
 50
73.39845
 51
106.60155
  0
ARC
  5
6C4
100
AcDbEntity
  8
2
100
AcDbCircle
 10
-344.485631
 20
38.024072
 30
0.0
 40
2.6
100
AcDbArc
 50
0.0
 51
73.39845
  0
ARC
  5
6C5
100
AcDbEntity
  8
2
100
AcDbCircle
 10
-353.285631
 20
38.024072
 30
0.0
 40
2.6
100
AcDbArc
 50
106.60155
 51
156.374895
  0
LINE
  5
6C6
100
AcDbEntity
  8
2
100
AcDbLine
 10
99.814369
 20
36.066023
 30
0.0
 11
115.214369
 21
36.066023
 31
0.0
  0
LINE
  5
6C7
100
AcDbEntity
  8
2
100
AcDbLine
 10
99.814369
 20
36.066023
 30
0.0
 11
99.814369
 21
34.066023
 31
0.0
  0
LINE
  5
6C8
100
AcDbEntity
  8
2
100
AcDbLine
 10
115.214369
 20
36.066023
 30
0.0
 11
115.214369
 21
34.066023
 31
0.0
  0
LINE
  5
6C9
100
AcDbEntity
  8
2
100
AcDbLine
 10
100.514369
 20
38.024072
 30
0.0
 11
100.514369
 21
36.066023
 31
0.0
  0
LINE
  5
6CA
100
AcDbEntity
  8
2
100
AcDbLine
 10
114.514369
 20
38.024072
 30
0.0
 11
114.514369
 21
36.066023
 31
0.0
  0
ARC
  5
6CB
100
AcDbEntity
  8
2
100
AcDbCircle
 10
107.514369
 20
23.266023
 30
0.0
 40
18.0
100
AcDbArc
 50
73.39845
 51
106.60155
  0
ARC
  5
6CC
100
AcDbEntity
  8
2
100
AcDbCircle
 10
111.914369
 20
38.024072
 30
0.0
 40
2.6
100
AcDbArc
 50
0.0
 51
73.39845
  0
ARC
  5
6CD
100
AcDbEntity
  8
2
100
AcDbCircle
 10
103.114369
 20
38.024072
 30
0.0
 40
2.6
100
AcDbArc
 50
106.60155
 51
180.0
  0
LINE
  5
6CE
100
AcDbEntity
  8
2
100
AcDbLine
 10
203.814369
 20
36.066023
 30
0.0
 11
219.214369
 21
36.066023
 31
0.0
  0
LINE
  5
6CF
100
AcDbEntity
  8
2
100
AcDbLine
 10
203.814369
 20
36.066023
 30
0.0
 11
203.814369
 21
34.066023
 31
0.0
  0
LINE
  5
6D0
100
AcDbEntity
  8
2
100
AcDbLine
 10
219.214369
 20
36.066023
 30
0.0
 11
219.214369
 21
34.066023
 31
0.0
  0
LINE
  5
6D1
100
AcDbEntity
  8
2
100
AcDbLine
 10
204.514369
 20
38.024072
 30
0.0
 11
204.514369
 21
36.066023
 31
0.0
  0
LINE
  5
6D2
100
AcDbEntity
  8
2
100
AcDbLine
 10
218.514369
 20
38.024072
 30
0.0
 11
218.514369
 21
36.066023
 31
0.0
  0
ARC
  5
6D3
100
AcDbEntity
  8
2
100
AcDbCircle
 10
211.514369
 20
23.266023
 30
0.0
 40
18.0
100
AcDbArc
 50
73.39845
 51
106.60155
  0
ARC
  5
6D4
100
AcDbEntity
  8
2
100
AcDbCircle
 10
215.914369
 20
38.024072
 30
0.0
 40
2.6
100
AcDbArc
 50
0.0
 51
73.39845
  0
ARC
  5
6D5
100
AcDbEntity
  8
2
100
AcDbCircle
 10
207.114369
 20
38.024072
 30
0.0
 40
2.6
100
AcDbArc
 50
106.60155
 51
180.0
  0
LINE
  5
6D6
100
AcDbEntity
  8
2
100
AcDbLine
 10
265.314369
 20
36.066023
 30
0.0
 11
280.714369
 21
36.066023
 31
0.0
  0
LINE
  5
6D7
100
AcDbEntity
  8
2
100
AcDbLine
 10
265.314369
 20
36.066023
 30
0.0
 11
265.314369
 21
34.066023
 31
0.0
  0
LINE
  5
6D8
100
AcDbEntity
  8
2
100
AcDbLine
 10
280.714369
 20
36.066023
 30
0.0
 11
280.714369
 21
34.066023
 31
0.0
  0
LINE
  5
6D9
100
AcDbEntity
  8
2
100
AcDbLine
 10
266.014369
 20
38.024072
 30
0.0
 11
266.014369
 21
36.066023
 31
0.0
  0
LINE
  5
6DA
100
AcDbEntity
  8
2
100
AcDbLine
 10
280.014369
 20
38.024072
 30
0.0
 11
280.014369
 21
36.066023
 31
0.0
  0
ARC
  5
6DB
100
AcDbEntity
  8
2
100
AcDbCircle
 10
273.014369
 20
23.266023
 30
0.0
 40
18.0
100
AcDbArc
 50
73.39845
 51
106.60155
  0
ARC
  5
6DC
100
AcDbEntity
  8
2
100
AcDbCircle
 10
277.414369
 20
38.024072
 30
0.0
 40
2.6
100
AcDbArc
 50
0.0
 51
73.39845
  0
ARC
  5
6DD
100
AcDbEntity
  8
2
100
AcDbCircle
 10
268.614369
 20
38.024072
 30
0.0
 40
2.6
100
AcDbArc
 50
106.60155
 51
180.0
  0
LINE
  5
6DE
100
AcDbEntity
  8
2
100
AcDbLine
 10
-467.185631
 20
36.066023
 30
0.0
 11
-482.585631
 21
36.066023
 31
0.0
  0
LINE
  5
6DF
100
AcDbEntity
  8
2
100
AcDbLine
 10
-467.185631
 20
36.066023
 30
0.0
 11
-467.185631
 21
34.066023
 31
0.0
  0
LINE
  5
6E0
100
AcDbEntity
  8
2
100
AcDbLine
 10
-482.585631
 20
36.066023
 30
0.0
 11
-482.585631
 21
34.066023
 31
0.0
  0
LINE
  5
6E1
100
AcDbEntity
  8
2
100
AcDbLine
 10
-467.885631
 20
38.024072
 30
0.0
 11
-467.885631
 21
36.066023
 31
0.0
  0
LINE
  5
6E2
100
AcDbEntity
  8
2
100
AcDbLine
 10
-481.885631
 20
38.024072
 30
0.0
 11
-481.885631
 21
36.066023
 31
0.0
  0
ARC
  5
6E3
100
AcDbEntity
  8
2
100
AcDbCircle
 10
-474.885631
 20
23.266023
 30
0.0
 40
18.0
100
AcDbArc
 50
73.39845
 51
106.60155
  0
ARC
  5
6E4
100
AcDbEntity
  8
2
100
AcDbCircle
 10
-479.285631
 20
38.024072
 30
0.0
 40
2.6
100
AcDbArc
 50
106.60155
 51
180.0
  0
ARC
  5
6E5
100
AcDbEntity
  8
2
100
AcDbCircle
 10
-470.485631
 20
38.024072
 30
0.0
 40
2.6
100
AcDbArc
 50
0.0
 51
73.39845
  0
LINE
  5
6E6
100
AcDbEntity
  8
2
100
AcDbLine
 10
-495.885631
 20
38.024072
 30
0.0
 11
-495.885631
 21
37.530125
 31
0.0
  0
ARC
  5
6E7
100
AcDbEntity
  8
2
100
AcDbCircle
 10
-488.885631
 20
23.266023
 30
0.0
 40
18.0
100
AcDbArc
 50
73.39845
 51
106.60155
  0
ARC
  5
6E8
100
AcDbEntity
  8
2
100
AcDbCircle
 10
-493.285631
 20
38.024072
 30
0.0
 40
2.6
100
AcDbArc
 50
106.60155
 51
180.0
  0
ARC
  5
6E9
100
AcDbEntity
  8
2
100
AcDbCircle
 10
-484.485631
 20
38.024072
 30
0.0
 40
2.6
100
AcDbArc
 50
23.625105
 51
73.39845
  0
CIRCLE
  5
6EA
100
AcDbEntity
  8
2
100
AcDbCircle
 10
-402.622175
 20
257.502568
 30
0.0
 40
3.5
  0
LINE
  5
6EB
100
AcDbEntity
  8
2
100
AcDbLine
 10
-403.122175
 20
255.402568
 30
0.0
 11
-402.122175
 21
255.402568
 31
0.0
  0
LINE
  5
6EC
100
AcDbEntity
  8
2
100
AcDbLine
 10
-403.122175
 20
259.602568
 30
0.0
 11
-402.122175
 21
259.602568
 31
0.0
  0
LINE
  5
6ED
100
AcDbEntity
  8
2
100
AcDbLine
 10
-400.522175
 20
257.002568
 30
0.0
 11
-400.522175
 21
258.002568
 31
0.0
  0
LINE
  5
6EE
100
AcDbEntity
  8
2
100
AcDbLine
 10
-404.722175
 20
257.002568
 30
0.0
 11
-404.722175
 21
258.002568
 31
0.0
  0
LINE
  5
6EF
100
AcDbEntity
  8
2
100
AcDbLine
 10
-402.122175
 20
255.402568
 30
0.0
 11
-402.122175
 21
256.002568
 31
0.0
  0
LINE
  5
6F0
100
AcDbEntity
  8
2
100
AcDbLine
 10
-402.122175
 20
259.002568
 30
0.0
 11
-402.122175
 21
259.602568
 31
0.0
  0
LINE
  5
6F1
100
AcDbEntity
  8
2
100
AcDbLine
 10
-404.722175
 20
257.002568
 30
0.0
 11
-404.122175
 21
257.002568
 31
0.0
  0
LINE
  5
6F2
100
AcDbEntity
  8
2
100
AcDbLine
 10
-401.122175
 20
257.002568
 30
0.0
 11
-400.522175
 21
257.002568
 31
0.0
  0
LINE
  5
6F3
100
AcDbEntity
  8
2
100
AcDbLine
 10
-403.122175
 20
255.402568
 30
0.0
 11
-403.122175
 21
256.002568
 31
0.0
  0
LINE
  5
6F4
100
AcDbEntity
  8
2
100
AcDbLine
 10
-403.122175
 20
259.002568
 30
0.0
 11
-403.122175
 21
259.602568
 31
0.0
  0
LINE
  5
6F5
100
AcDbEntity
  8
2
100
AcDbLine
 10
-404.722175
 20
258.002568
 30
0.0
 11
-404.122175
 21
258.002568
 31
0.0
  0
LINE
  5
6F6
100
AcDbEntity
  8
2
100
AcDbLine
 10
-401.122175
 20
258.002568
 30
0.0
 11
-400.522175
 21
258.002568
 31
0.0
  0
ARC
  5
6F7
100
AcDbEntity
  8
2
100
AcDbCircle
 10
-404.122175
 20
259.002568
 30
0.0
 40
1.0
100
AcDbArc
 50
270.0
 51
360.0
  0
ARC
  5
6F8
100
AcDbEntity
  8
2
100
AcDbCircle
 10
-404.122175
 20
256.002568
 30
0.0
 40
1.0
100
AcDbArc
 50
0.0
 51
90.0
  0
ARC
  5
6F9
100
AcDbEntity
  8
2
100
AcDbCircle
 10
-401.122175
 20
256.002568
 30
0.0
 40
1.0
100
AcDbArc
 50
90.0
 51
180.0
  0
ARC
  5
6FA
100
AcDbEntity
  8
2
100
AcDbCircle
 10
-401.122175
 20
259.002568
 30
0.0
 40
1.0
100
AcDbArc
 50
180.0
 51
270.0
  0
LINE
  5
6FB
100
AcDbEntity
  8
2
100
AcDbLine
 10
175.277825
 20
49.566023
 30
0.0
 11
175.277825
 21
50.545048
 31
0.0
  0
LINE
  5
6FC
100
AcDbEntity
  8
2
100
AcDbLine
 10
182.277825
 20
49.566023
 30
0.0
 11
182.277825
 21
50.545048
 31
0.0
  0
ARC
  5
6FD
100
AcDbEntity
  8
2
100
AcDbCircle
 10
178.777825
 20
43.166023
 30
0.0
 40
9.0
100
AcDbArc
 50
73.39845
 51
106.60155
  0
ARC
  5
6FE
100
AcDbEntity
  8
2
100
AcDbCircle
 10
180.977825
 20
50.545048
 30
0.0
 40
1.3
100
AcDbArc
 50
0.0
 51
73.39845
  0
ARC
  5
6FF
100
AcDbEntity
  8
2
100
AcDbCircle
 10
176.577825
 20
50.545048
 30
0.0
 40
1.3
100
AcDbArc
 50
106.60155
 51
180.0
  0
LINE
  5
700
100
AcDbEntity
  8
2
100
AcDbLine
 10
149.750913
 20
49.566023
 30
0.0
 11
149.750913
 21
50.545048
 31
0.0
  0
LINE
  5
701
100
AcDbEntity
  8
2
100
AcDbLine
 10
142.750913
 20
49.566023
 30
0.0
 11
142.750913
 21
50.545048
 31
0.0
  0
ARC
  5
702
100
AcDbEntity
  8
2
100
AcDbCircle
 10
146.250913
 20
43.166023
 30
0.0
 40
9.0
100
AcDbArc
 50
73.39845
 51
106.60155
  0
ARC
  5
703
100
AcDbEntity
  8
2
100
AcDbCircle
 10
144.050913
 20
50.545048
 30
0.0
 40
1.3
100
AcDbArc
 50
106.60155
 51
180.0
  0
ARC
  5
704
100
AcDbEntity
  8
2
100
AcDbCircle
 10
148.450913
 20
50.545048
 30
0.0
 40
1.3
100
AcDbArc
 50
0.0
 51
73.39845
  0
LINE
  5
705
100
AcDbEntity
  8
2
  6
CENTER
 62
     2
100
AcDbLine
 10
-418.885631
 20
161.479139
 30
0.0
 11
-418.885631
 21
417.60306
 31
0.0
  0
LINE
  5
706
100
AcDbEntity
  8
2
  6
CENTER
 62
     2
100
AcDbLine
 10
-375.885631
 20
218.766023
 30
0.0
 11
-349.885631
 21
218.766023
 31
0.0
  0
LINE
  5
707
100
AcDbEntity
  8
2
  6
CENTER
 62
     2
100
AcDbLine
 10
-362.885631
 20
205.766023
 30
0.0
 11
-362.885631
 21
231.766023
 31
0.0
  0
LINE
  5
708
100
AcDbEntity
  8
2
  6
CENTER
 62
     2
100
AcDbLine
 10
-487.885631
 20
218.766023
 30
0.0
 11
-461.885631
 21
218.766023
 31
0.0
  0
LINE
  5
709
100
AcDbEntity
  8
2
  6
CENTER
 62
     2
100
AcDbLine
 10
-474.885631
 20
205.766023
 30
0.0
 11
-474.885631
 21
231.766023
 31
0.0
  0
LINE
  5
70A
100
AcDbEntity
  8
2
  6
CENTER
 62
     2
100
AcDbLine
 10
-490.885631
 20
384.266023
 30
0.0
 11
-464.885631
 21
384.266023
 31
0.0
  0
LINE
  5
70B
100
AcDbEntity
  8
2
  6
CENTER
 62
     2
100
AcDbLine
 10
-477.885631
 20
371.266023
 30
0.0
 11
-477.885631
 21
397.266023
 31
0.0
  0
LINE
  5
70C
100
AcDbEntity
  8
2
  6
CENTER
 62
     2
100
AcDbLine
 10
-372.885631
 20
384.266023
 30
0.0
 11
-346.885631
 21
384.266023
 31
0.0
  0
LINE
  5
70D
100
AcDbEntity
  8
2
  6
CENTER
 62
     2
100
AcDbLine
 10
-359.885631
 20
371.266023
 30
0.0
 11
-359.885631
 21
397.266023
 31
0.0
  0
LINE
  5
70E
100
AcDbEntity
  8
2
  6
CENTER
 62
     2
100
AcDbLine
 10
-361.885631
 20
322.766023
 30
0.0
 11
-335.885631
 21
322.766023
 31
0.0
  0
LINE
  5
70F
100
AcDbEntity
  8
2
  6
CENTER
 62
     2
100
AcDbLine
 10
-348.885631
 20
309.766023
 30
0.0
 11
-348.885631
 21
335.766023
 31
0.0
  0
LINE
  5
710
100
AcDbEntity
  8
2
  6
CENTER
 62
     2
100
AcDbLine
 10
-501.885631
 20
322.766023
 30
0.0
 11
-475.885631
 21
322.766023
 31
0.0
  0
LINE
  5
711
100
AcDbEntity
  8
2
  6
CENTER
 62
     2
100
AcDbLine
 10
-488.885631
 20
309.766023
 30
0.0
 11
-488.885631
 21
335.766023
 31
0.0
  0
LINE
  5
712
100
AcDbEntity
  8
2
  6
CENTER
 62
     2
100
AcDbLine
 10
-526.370921
 20
2.066023
 30
0.0
 11
-177.642967
 21
2.066023
 31
0.0
  0
LINE
  5
713
100
AcDbEntity
  8
2
  6
CENTER
 62
     2
100
AcDbLine
 10
-362.885631
 20
48.661788
 30
0.0
 11
-362.885631
 21
15.375258
 31
0.0
  0
LINE
  5
714
100
AcDbEntity
  8
2
  6
CENTER
 62
     2
100
AcDbLine
 10
-348.885631
 20
48.661788
 30
0.0
 11
-348.885631
 21
32.066023
 31
0.0
  0
LINE
  5
715
100
AcDbEntity
  8
2
  6
CENTER
 62
     2
100
AcDbLine
 10
273.014369
 20
48.661788
 30
0.0
 11
273.014369
 21
15.375258
 31
0.0
  0
LINE
  5
716
100
AcDbEntity
  8
2
  6
CENTER
 62
     2
100
AcDbLine
 10
211.514369
 20
48.661788
 30
0.0
 11
211.514369
 21
15.375258
 31
0.0
  0
LINE
  5
717
100
AcDbEntity
  8
2
  6
CENTER
 62
     2
100
AcDbLine
 10
107.514369
 20
48.661788
 30
0.0
 11
107.514369
 21
15.375258
 31
0.0
  0
LINE
  5
718
100
AcDbEntity
  8
2
  6
CENTER
 62
     2
100
AcDbLine
 10
60.36169
 20
2.066023
 30
0.0
 11
368.014369
 21
2.066023
 31
0.0
  0
LINE
  5
719
100
AcDbEntity
  8
2
  6
CENTER
 62
     2
100
AcDbLine
 10
250.014369
 20
120.066023
 30
0.0
 11
250.014369
 21
-115.933977
 31
0.0
  0
LINE
  5
71A
100
AcDbEntity
  8
2
  6
CENTER
 62
     2
100
AcDbLine
 10
-390.885631
 20
-12.933977
 30
0.0
 11
-390.885631
 21
17.066023
 31
0.0
  0
LINE
  5
71B
100
AcDbEntity
  8
2
  6
CENTER
 62
     2
100
AcDbLine
 10
-390.885631
 20
176.285509
 30
0.0
 11
-390.885631
 21
214.694887
 31
0.0
  0
LINE
  5
71C
100
AcDbEntity
  8
2
  6
CENTER
 62
     2
100
AcDbLine
 10
-446.885631
 20
176.285509
 30
0.0
 11
-446.885631
 21
214.694887
 31
0.0
  0
LINE
  5
71D
100
AcDbEntity
  8
2
  6
CENTER
 62
     2
100
AcDbLine
 10
-513.455089
 20
361.266023
 30
0.0
 11
-177.642967
 21
361.266023
 31
0.0
  0
LINE
  5
71E
100
AcDbEntity
  8
2
  6
CENTER
 62
     2
100
AcDbLine
 10
-430.552893
 20
285.433285
 30
0.0
 11
-439.745281
 21
294.625674
 31
0.0
  0
LINE
  5
71F
100
AcDbEntity
  8
2
  6
CENTER
 62
     2
100
AcDbLine
 10
-446.885631
 20
-12.933977
 30
0.0
 11
-446.885631
 21
17.066023
 31
0.0
  0
LINE
  5
720
100
AcDbEntity
  8
2
  6
CENTER
 62
     2
100
AcDbLine
 10
-474.885631
 20
48.661788
 30
0.0
 11
-474.885631
 21
15.375258
 31
0.0
  0
LINE
  5
721
100
AcDbEntity
  8
2
  6
CENTER
 62
     2
100
AcDbLine
 10
-488.885631
 20
48.661788
 30
0.0
 11
-488.885631
 21
32.066023
 31
0.0
  0
ARC
  5
722
100
AcDbEntity
  8
2
  6
CENTER
 62
     2
100
AcDbCircle
 10
-418.885631
 20
273.766023
 30
0.0
 40
23.0
100
AcDbArc
 50
118.753339
 51
151.246661
  0
LINE
  5
723
100
AcDbEntity
  8
2
  6
CENTER
 62
     2
100
AcDbLine
 10
-407.218369
 20
262.098762
 30
0.0
 11
-398.025981
 21
252.906373
 31
0.0
  0
ARC
  5
724
100
AcDbEntity
  8
2
  6
CENTER
 62
     2
100
AcDbCircle
 10
-418.885631
 20
273.766023
 30
0.0
 40
23.0
100
AcDbArc
 50
298.753339
 51
331.246661
  0
LINE
  5
725
100
AcDbEntity
  8
2
  6
CENTER
 62
     2
100
AcDbLine
 10
-402.622175
 20
57.510146
 30
0.0
 11
-402.622175
 21
36.336608
 31
0.0
  0
LINE
  5
726
100
AcDbEntity
  8
2
  6
CENTER
 62
     2
100
AcDbLine
 10
178.777825
 20
57.510146
 30
0.0
 11
178.777825
 21
36.336608
 31
0.0
  0
LINE
  5
727
100
AcDbEntity
  8
2
  6
CENTER
 62
     2
100
AcDbLine
 10
146.250913
 20
57.510146
 30
0.0
 11
146.250913
 21
36.336608
 31
0.0
  0
LINE
  5
728
100
AcDbEntity
  8
3
100
AcDbLine
 10
-356.385631
 20
-47.433977
 30
0.0
 11
-481.385631
 21
-47.433977
 31
0.0
  0
LINE
  5
729
100
AcDbEntity
  8
3
100
AcDbLine
 10
100.014369
 20
-47.433977
 30
0.0
 11
225.014369
 21
-47.433977
 31
0.0
  0
LINE
  5
72A
100
AcDbEntity
  8
3
100
AcDbLine
 10
-481.385631
 20
-75.433977
 30
0.0
 11
-481.385631
 21
-45.933977
 31
0.0
  0
LINE
  5
72B
100
AcDbEntity
  8
3
100
AcDbLine
 10
-356.385631
 20
-75.433977
 30
0.0
 11
-356.385631
 21
-45.933977
 31
0.0
  0
LINE
  5
72C
100
AcDbEntity
  8
3
100
AcDbLine
 10
-448.885631
 20
-75.433977
 30
0.0
 11
-448.885631
 21
-57.433977
 31
0.0
  0
LINE
  5
72D
100
AcDbEntity
  8
3
100
AcDbLine
 10
-388.885631
 20
-75.433977
 30
0.0
 11
-388.885631
 21
-57.433977
 31
0.0
  0
LINE
  5
72E
100
AcDbEntity
  8
3
100
AcDbLine
 10
-376.465988
 20
-55.433977
 30
0.0
 11
-461.305274
 21
-55.433977
 31
0.0
  0
ARC
  5
72F
100
AcDbEntity
  8
3
100
AcDbCircle
 10
-390.885631
 20
-57.433977
 30
0.0
 40
2.0
100
AcDbArc
 50
0.0
 51
90.0
  0
ARC
  5
730
100
AcDbEntity
  8
3
100
AcDbCircle
 10
-446.885631
 20
-57.433977
 30
0.0
 40
2.0
100
AcDbArc
 50
90.0
 51
180.0
  0
ARC
  5
731
100
AcDbEntity
  8
3
100
AcDbCircle
 10
-376.465988
 20
-57.433977
 30
0.0
 40
2.0
100
AcDbArc
 50
0.0
 51
90.0
  0
ARC
  5
732
100
AcDbEntity
  8
3
100
AcDbCircle
 10
-461.305274
 20
-57.433977
 30
0.0
 40
2.0
100
AcDbArc
 50
90.0
 51
180.0
  0
LINE
  5
733
100
AcDbEntity
  8
3
100
AcDbLine
 10
100.014369
 20
-45.933977
 30
0.0
 11
100.014369
 21
-55.433977
 31
0.0
  0
LINE
  5
734
100
AcDbEntity
  8
3
100
AcDbLine
 10
225.014369
 20
-45.933977
 30
0.0
 11
225.014369
 21
-55.433977
 31
0.0
  0
LINE
  5
735
100
AcDbEntity
  8
3
100
AcDbLine
 10
142.514369
 20
-65.433977
 30
0.0
 11
142.514369
 21
-75.433977
 31
0.0
  0
LINE
  5
736
100
AcDbEntity
  8
3
100
AcDbLine
 10
182.514369
 20
-65.433977
 30
0.0
 11
182.514369
 21
-75.433977
 31
0.0
  0
LINE
  5
737
100
AcDbEntity
  8
3
100
AcDbLine
 10
134.514369
 20
-63.433977
 30
0.0
 11
190.514369
 21
-63.433977
 31
0.0
  0
ARC
  5
738
100
AcDbEntity
  8
3
100
AcDbCircle
 10
180.514369
 20
-65.433977
 30
0.0
 40
2.0
100
AcDbArc
 50
0.0
 51
90.0
  0
ARC
  5
739
100
AcDbEntity
  8
3
100
AcDbCircle
 10
144.514369
 20
-65.433977
 30
0.0
 40
2.0
100
AcDbArc
 50
90.0
 51
180.0
  0
ARC
  5
73A
100
AcDbEntity
  8
3
100
AcDbCircle
 10
190.514369
 20
-65.433977
 30
0.0
 40
2.0
100
AcDbArc
 50
0.0
 51
90.0
  0
ARC
  5
73B
100
AcDbEntity
  8
3
100
AcDbCircle
 10
134.514369
 20
-65.433977
 30
0.0
 40
2.0
100
AcDbArc
 50
90.0
 51
180.0
  0
LINE
  5
73C
100
AcDbEntity
  8
3
100
AcDbLine
 10
222.7079
 20
-57.433977
 30
0.0
 11
222.7079
 21
-75.433977
 31
0.0
  0
LINE
  5
73D
100
AcDbEntity
  8
3
100
AcDbLine
 10
102.320838
 20
-57.433977
 30
0.0
 11
102.320838
 21
-75.433977
 31
0.0
  0
ARC
  5
73E
100
AcDbEntity
  8
3
100
AcDbCircle
 10
224.7079
 20
-57.433977
 30
0.0
 40
2.0
100
AcDbArc
 50
90.0
 51
180.0
  0
ARC
  5
73F
100
AcDbEntity
  8
3
100
AcDbCircle
 10
100.320838
 20
-57.433977
 30
0.0
 40
2.0
100
AcDbArc
 50
0.0
 51
90.0
  0
LINE
  5
740
100
AcDbEntity
  8
3
100
AcDbLine
 10
100.014369
 20
-55.433977
 30
0.0
 11
101.350511
 21
-55.433977
 31
0.0
  0
LINE
  5
741
100
AcDbEntity
  8
3
100
AcDbLine
 10
223.678227
 20
-55.433977
 30
0.0
 11
225.014369
 21
-55.433977
 31
0.0
  0
ARC
  5
742
100
AcDbEntity
  8
3
100
AcDbCircle
 10
223.678227
 20
-57.433977
 30
0.0
 40
2.0
100
AcDbArc
 50
90.0
 51
180.0
  0
ARC
  5
743
100
AcDbEntity
  8
3
100
AcDbCircle
 10
101.350511
 20
-57.433977
 30
0.0
 40
2.0
100
AcDbArc
 50
0.0
 51
90.0
  0
LINE
  5
744
100
AcDbEntity
  8
3
100
AcDbLine
 10
-356.385631
 20
-45.933977
 30
0.0
 11
-481.385631
 21
-45.933977
 31
0.0
  0
LINE
  5
745
100
AcDbEntity
  8
3
100
AcDbLine
 10
100.014369
 20
-45.933977
 30
0.0
 11
225.014369
 21
-45.933977
 31
0.0
  0
DIMENSION
  5
746
100
AcDbEntity
  8
5
100
AcDbDimension
  2
*D0
 10
196.514369
 20
-516.97699
 30
0.0
 11
168.014369
 21
-508.37699
 31
0.0
  1
57
100
AcDbAlignedDimension
 13
139.514369
 23
-386.933977
 33
0.0
 14
196.514369
 24
-386.933977
 34
0.0
100
AcDbRotatedDimension
  0
DIMENSION
  5
747
100
AcDbEntity
  8
5
100
AcDbDimension
  2
*D1
 10
162.514369
 20
-481.000977
 30
0.0
 11
120.274369
 21
-472.400977
 31
0.0
  1
23
100
AcDbAlignedDimension
 13
139.514369
 23
-386.933977
 33
0.0
 14
162.514369
 24
-459.406569
 34
0.0
100
AcDbRotatedDimension
  0
DIMENSION
  5
748
100
AcDbEntity
  8
5
100
AcDbDimension
  2
*D2
 10
50.191565
 20
-75.433977
 30
0.0
 11
34.331565
 21
-178.593976
 31
0.0
  1
205
100
AcDbAlignedDimension
 13
116.780032
 23
-280.433977
 33
0.0
 14
100.014369
 24
-75.433977
 34
0.0
 50
90.0
100
AcDbRotatedDimension
  0
DIMENSION
  5
749
100
AcDbEntity
  8
5
100
AcDbDimension
  2
*D3
 10
-196.385631
 20
482.891083
 30
0.0
 11
-307.635631
 21
491.491083
 31
0.0
  1
222.5
100
AcDbAlignedDimension
 13
-418.885631
 23
417.60306
 33
0.0
 14
-196.385631
 24
367.516023
 34
0.0
100
AcDbRotatedDimension
  0
DIMENSION
  5
74A
100
AcDbEntity
  8
5
100
AcDbDimension
  2
*D4
 10
-137.377594
 20
361.266023
 30
0.0
 11
-157.857594
 21
312.236024
 31
0.0
  1
87.5
100
AcDbAlignedDimension
 13
-280.09908
 23
273.766023
 33
0.0
 14
-177.642967
 24
361.266023
 34
0.0
 50
90.0
100
AcDbRotatedDimension
  0
DIMENSION
  5
74B
100
AcDbEntity
  8
5
100
AcDbDimension
  2
*D5
 10
-137.377594
 20
273.766023
 30
0.0
 11
-148.617594
 21
232.726023
 31
0.0
  1
90
100
AcDbAlignedDimension
 13
-385.832631
 23
183.766023
 33
0.0
 14
-280.09908
 24
273.766023
 34
0.0
 50
90.0
100
AcDbRotatedDimension
  0
DIMENSION
  5
74C
100
AcDbEntity
  8
5
100
AcDbDimension
  2
*D6
 10
-137.377594
 20
-97.933977
 30
0.0
 11
-157.857594
 21
-3.213976
 31
0.0
 70
     1
  1
%%c200
100
AcDbAlignedDimension
 13
-217.385631
 23
102.066023
 33
0.0
 14
-217.385631
 24
-97.933977
 34
0.0
 50
90.0
  0
DIMENSION
  5
74D
100
AcDbEntity
  8
5
100
AcDbDimension
  2
*D7
 10
-3.997696
 20
2.066023
 30
0.0
 11
-15.237696
 21
-17.973977
 31
0.0
  1
48
100
AcDbAlignedDimension
 13
92.514369
 23
-45.933977
 33
0.0
 14
60.36169
 24
2.066023
 34
0.0
 50
90.0
100
AcDbRotatedDimension
  0
DIMENSION
  5
74E
100
AcDbEntity
  8
5
100
AcDbDimension
  2
*D8
 10
-3.997696
 20
-45.933977
 30
0.0
 11
-24.477696
 21
-109.193976
 31
0.0
  1
29.5
100
AcDbAlignedDimension
 13
100.014369
 23
-75.433977
 33
0.0
 14
92.514369
 24
-45.933977
 34
0.0
 50
90.0
100
AcDbRotatedDimension
  0
DIMENSION
  5
74F
100
AcDbEntity
  8
5
100
AcDbDimension
  2
*D9
 10
50.191565
 20
-280.433977
 30
0.0
 11
-2.628435
 21
-399.553976
 31
0.0
  1
163（概略）
100
AcDbAlignedDimension
 13
142.514369
 23
-443.433977
 33
0.0
 14
116.780032
 24
-280.433977
 34
0.0
 50
90.0
100
AcDbRotatedDimension
  0
LINE
  5
750
100
AcDbEntity
  8
18
100
AcDbLine
 10
252.514369
 20
-280.433977
 30
0.0
 11
372.514369
 21
-280.433977
 31
0.0
  0
LINE
  5
751
100
AcDbEntity
  8
18
100
AcDbLine
 10
252.514369
 20
-280.433977
 30
0.0
 11
292.514369
 21
-269.716009
 31
0.0
  0
LINE
  5
752
100
AcDbEntity
  8
18
100
AcDbLine
 10
292.514369
 20
-269.716009
 30
0.0
 11
292.514369
 21
-291.151944
 31
0.0
  0
LINE
  5
753
100
AcDbEntity
  8
18
100
AcDbLine
 10
252.514369
 20
-280.433977
 30
0.0
 11
292.514369
 21
-291.151944
 31
0.0
  0
TEXT
  5
754
100
AcDbEntity
  8
18
100
AcDbText
 10
489.196503
 20
-533.087646
 30
0.0
 40
12.0
  1
１
 72
     5
 11
498.796503
 21
-533.087646
 31
0.0
100
AcDbText
  0
TEXT
  5
755
100
AcDbEntity
  8
18
100
AcDbText
 10
488.750295
 20
-508.141052
 30
0.0
 40
12.0
  1
標準仕様
 72
     5
 11
534.350295
 21
-508.141052
 31
0.0
100
AcDbText
  0
TEXT
  5
756
100
AcDbEntity
  8
18
100
AcDbText
 10
303.220306
 20
-273.44339
 30
0.0
 40
20.0
  1
高圧側
 72
     5
 11
359.220306
 21
-273.44339
 31
0.0
100
AcDbText
  0
TEXT
  5
757
100
AcDbEntity
  8
18
100
AcDbText
 10
505.190308
 20
-548.067078
 30
0.0
 40
12.0
  1
４
 72
     5
 11
514.790308
 21
-548.067078
 31
0.0
100
AcDbText
  0
LINE
  5
758
100
AcDbEntity
  8
18
100
AcDbLine
 10
274.694672
 20
460.370392
 30
0.0
 11
274.694672
 21
320.370392
 31
0.0
  0
LINE
  5
759
100
AcDbEntity
  8
18
100
AcDbLine
 10
722.694672
 20
360.370392
 30
0.0
 11
274.694672
 21
360.370392
 31
0.0
  0
LINE
  5
75A
100
AcDbEntity
  8
18
100
AcDbLine
 10
722.694672
 20
340.370392
 30
0.0
 11
274.694672
 21
340.370392
 31
0.0
  0
LINE
  5
75B
100
AcDbEntity
  8
18
100
AcDbLine
 10
722.694672
 20
320.370392
 30
0.0
 11
274.694672
 21
320.370392
 31
0.0
  0
LINE
  5
75C
100
AcDbEntity
  8
18
100
AcDbLine
 10
386.694672
 20
460.370392
 30
0.0
 11
386.694672
 21
340.370392
 31
0.0
  0
LINE
  5
75D
100
AcDbEntity
  8
18
100
AcDbLine
 10
498.694672
 20
460.370392
 30
0.0
 11
498.694672
 21
340.370392
 31
0.0
  0
LINE
  5
75E
100
AcDbEntity
  8
18
100
AcDbLine
 10
610.694672
 20
460.370392
 30
0.0
 11
610.694672
 21
340.370392
 31
0.0
  0
LINE
  5
75F
100
AcDbEntity
  8
18
100
AcDbLine
 10
722.694672
 20
460.370392
 30
0.0
 11
722.694672
 21
320.370392
 31
0.0
  0
LINE
  5
760
100
AcDbEntity
  8
18
100
AcDbLine
 10
274.694672
 20
460.370392
 30
0.0
 11
722.694672
 21
460.370392
 31
0.0
  0
POLYLINE
  5
761
100
AcDbEntity
  8
18
 62
     2
100
AcDb2dPolyline
 66
     1
 10
0.0
 20
0.0
 30
0.0
  0
VERTEX
  5
8A0
100
AcDbEntity
  8
18
 62
     2
100
AcDbVertex
100
AcDb2dVertex
 10
326.573982
 20
419.362122
 30
0.0
  0
VERTEX
  5
8A1
100
AcDbEntity
  8
18
 62
     2
100
AcDbVertex
100
AcDb2dVertex
 10
326.573982
 20
437.514225
 30
0.0
  0
SEQEND
  5
8A2
100
AcDbEntity
  8
18
 62
     2
  0
LINE
  5
765
100
AcDbEntity
  8
18
 62
     2
100
AcDbLine
 10
326.573982
 20
427.089528
 30
0.0
 11
324.50343
 21
427.089528
 31
0.0
  0
LINE
  5
766
100
AcDbEntity
  8
18
 62
     2
100
AcDbLine
 10
324.50343
 20
427.089528
 30
0.0
 11
326.573982
 21
419.362122
 31
0.0
  0
LINE
  5
767
100
AcDbEntity
  8
18
 62
     2
100
AcDbLine
 10
326.573982
 20
419.362122
 30
0.0
 11
328.644535
 21
427.089528
 31
0.0
  0
LINE
  5
768
100
AcDbEntity
  8
18
 62
     2
100
AcDbLine
 10
328.644535
 20
427.089528
 30
0.0
 11
326.573982
 21
427.089528
 31
0.0
  0
TEXT
  5
769
100
AcDbEntity
  8
18
100
AcDbText
 10
323.217621
 20
345.081909
 30
0.0
 40
12.0
  1
Ａ
 72
     5
 11
332.817621
 21
345.081909
 31
0.0
100
AcDbText
  0
TEXT
  5
76A
100
AcDbEntity
  8
18
100
AcDbText
 10
435.16983
 20
344.761292
 30
0.0
 40
12.0
  1
Ｂ
 72
     5
 11
444.76983
 21
344.761292
 31
0.0
100
AcDbText
  0
TEXT
  5
76B
100
AcDbEntity
  8
18
100
AcDbText
 10
547.217621
 20
345.081909
 30
0.0
 40
12.0
  1
Ｃ
 72
     5
 11
556.817621
 21
345.081909
 31
0.0
100
AcDbText
  0
TEXT
  5
76C
100
AcDbEntity
  8
18
100
AcDbText
 10
434.528625
 20
324.654278
 30
0.0
 40
12.0
  1
アクチュエ－タ取付方向
 72
     5
 11
564.128625
 21
324.654278
 31
0.0
100
AcDbText
  0
TEXT
  5
76D
100
AcDbEntity
  8
18
100
AcDbText
 10
295.397583
 20
364.552856
 30
0.0
 40
10.0
  1
弁棒側　低圧側
 72
     5
 11
363.397583
 21
364.552856
 31
0.0
100
AcDbText
  0
TEXT
  5
76E
100
AcDbEntity
  8
18
100
AcDbText
 10
285.812225
 20
444.175629
 30
0.0
 40
10.0
  1
フラット側　高圧側
 72
     5
 11
373.812225
 21
444.175629
 31
0.0
100
AcDbText
  0
TEXT
  5
76F
100
AcDbEntity
  8
18
100
AcDbText
 10
659.217621
 20
345.081909
 30
0.0
 40
12.0
  1
Ｄ
 72
     5
 11
668.817621
 21
345.081909
 31
0.0
100
AcDbText
  0
TEXT
  5
770
100
AcDbEntity
  8
18
100
AcDbText
 10
720.632446
 20
-507.543213
 30
0.0
 40
8.0
  1
２０００．１０．１８
 72
     5
 11
799.032446
 21
-507.543213
 31
0.0
100
AcDbText
  0
LINE
  5
771
100
AcDbEntity
  8
18
  6
CENTER
 62
     2
100
AcDbLine
 10
694.769073
 20
410.532769
 30
0.0
 11
638.401054
 21
410.532769
 31
0.0
  0
LINE
  5
772
100
AcDbEntity
  8
18
  6
CENTER
 62
     2
100
AcDbLine
 10
666.170061
 20
395.806066
 30
0.0
 11
666.170061
 21
424.978425
 31
0.0
  0
LINE
  5
773
100
AcDbEntity
  8
18
100
AcDbLine
 10
641.459661
 20
402.929569
 30
0.0
 11
641.459661
 21
418.135969
 31
0.0
  0
LINE
  5
774
100
AcDbEntity
  8
18
100
AcDbLine
 10
690.880461
 20
402.929569
 30
0.0
 11
690.880461
 21
418.135969
 31
0.0
  0
LINE
  5
775
100
AcDbEntity
  8
18
100
AcDbLine
 10
690.880461
 20
402.929569
 30
0.0
 11
673.176612
 21
402.929569
 31
0.0
  0
LINE
  5
776
100
AcDbEntity
  8
18
100
AcDbLine
 10
650.887871
 20
402.929569
 30
0.0
 11
641.459661
 21
402.929569
 31
0.0
  0
LINE
  5
777
100
AcDbEntity
  8
18
100
AcDbLine
 10
690.880461
 20
418.135969
 30
0.0
 11
673.176612
 21
418.135969
 31
0.0
  0
LINE
  5
778
100
AcDbEntity
  8
18
100
AcDbLine
 10
650.887871
 20
418.135969
 30
0.0
 11
641.459661
 21
418.135969
 31
0.0
  0
LINE
  5
779
100
AcDbEntity
  8
18
100
AcDbLine
 10
650.800883
 20
417.518426
 30
0.0
 11
650.800883
 21
403.547112
 31
0.0
  0
ARC
  5
77A
100
AcDbEntity
  8
18
100
AcDbCircle
 10
653.0364
 20
417.518426
 30
0.0
 40
2.235517
100
AcDbArc
 50
95.0
 51
180.0
  0
ARC
  5
77B
100
AcDbEntity
  8
18
100
AcDbCircle
 10
653.0364
 20
403.547112
 30
0.0
 40
2.235517
100
AcDbArc
 50
180.0
 51
265.0
  0
ARC
  5
77C
100
AcDbEntity
  8
18
100
AcDbCircle
 10
666.170061
 20
410.532769
 30
0.0
 40
10.339265
100
AcDbArc
 50
265.000003
 51
346.648816
  0
ARC
  5
77D
100
AcDbEntity
  8
18
100
AcDbCircle
 10
666.170061
 20
410.532769
 30
0.0
 40
10.339265
100
AcDbArc
 50
13.351184
 51
95.0
  0
LINE
  5
77E
100
AcDbEntity
  8
18
100
AcDbLine
 10
659.463511
 20
400.053784
 30
0.0
 11
651.307763
 21
400.053784
 31
0.0
  0
LINE
  5
77F
100
AcDbEntity
  8
18
100
AcDbLine
 10
651.307763
 20
421.011754
 30
0.0
 11
659.463511
 21
421.011754
 31
0.0
  0
LINE
  5
780
100
AcDbEntity
  8
18
100
AcDbLine
 10
659.463511
 20
420.324781
 30
0.0
 11
659.463511
 21
421.011754
 31
0.0
  0
LINE
  5
781
100
AcDbEntity
  8
18
100
AcDbLine
 10
659.463511
 20
400.053784
 30
0.0
 11
659.463511
 21
400.740757
 31
0.0
  0
LINE
  5
782
100
AcDbEntity
  8
18
100
AcDbLine
 10
676.229886
 20
412.920302
 30
0.0
 11
676.229886
 21
408.145236
 31
0.0
  0
LINE
  5
783
100
AcDbEntity
  8
18
100
AcDbLine
 10
654.433598
 20
421.011754
 30
0.0
 11
654.433598
 21
448.815994
 31
0.0
  0
LINE
  5
784
100
AcDbEntity
  8
18
100
AcDbLine
 10
657.786873
 20
421.011754
 30
0.0
 11
657.786873
 21
448.815994
 31
0.0
  0
ARC
  5
785
100
AcDbEntity
  8
18
100
AcDbCircle
 10
667.986418
 20
450.911791
 30
0.0
 40
2.095797
100
AcDbArc
 50
270.0
 51
90.0
  0
ARC
  5
786
100
AcDbEntity
  8
18
100
AcDbCircle
 10
644.234053
 20
450.911791
 30
0.0
 40
2.095797
100
AcDbArc
 50
90.0
 51
270.0
  0
LINE
  5
787
100
AcDbEntity
  8
18
100
AcDbLine
 10
644.496321
 20
448.815994
 30
0.0
 11
644.234053
 21
448.815994
 31
0.0
  0
LINE
  5
788
100
AcDbEntity
  8
18
100
AcDbLine
 10
656.110235
 20
453.007588
 30
0.0
 11
644.234053
 21
453.007588
 31
0.0
  0
LINE
  5
789
100
AcDbEntity
  8
18
100
AcDbLine
 10
667.724149
 20
448.815994
 30
0.0
 11
667.986418
 21
448.815994
 31
0.0
  0
LINE
  5
78A
100
AcDbEntity
  8
18
100
AcDbLine
 10
656.110235
 20
453.007588
 30
0.0
 11
667.986418
 21
453.007588
 31
0.0
  0
LINE
  5
78B
100
AcDbEntity
  8
18
100
AcDbLine
 10
666.72894
 20
405.28243
 30
0.0
 11
666.72894
 21
415.783107
 31
0.0
  0
LINE
  5
78C
100
AcDbEntity
  8
18
100
AcDbLine
 10
665.611182
 20
405.28243
 30
0.0
 11
665.611182
 21
415.783107
 31
0.0
  0
LINE
  5
78D
100
AcDbEntity
  8
18
100
AcDbLine
 10
652.841562
 20
419.745436
 30
0.0
 11
665.268935
 21
420.83269
 31
0.0
  0
LINE
  5
78E
100
AcDbEntity
  8
18
100
AcDbLine
 10
652.841562
 20
401.320102
 30
0.0
 11
665.268935
 21
400.232848
 31
0.0
  0
LINE
  5
78F
100
AcDbEntity
  8
18
100
AcDbLine
 10
656.110235
 20
448.815994
 30
0.0
 11
644.234053
 21
448.815994
 31
0.0
  0
LINE
  5
790
100
AcDbEntity
  8
18
100
AcDbLine
 10
656.110235
 20
448.815994
 30
0.0
 11
667.986418
 21
448.815994
 31
0.0
  0
LINE
  5
791
100
AcDbEntity
  8
18
100
AcDbLine
 10
651.307763
 20
421.011754
 30
0.0
 11
651.307763
 21
418.935941
 31
0.0
  0
LINE
  5
792
100
AcDbEntity
  8
18
100
AcDbLine
 10
651.307763
 20
402.129597
 30
0.0
 11
651.307763
 21
400.053784
 31
0.0
  0
CIRCLE
  5
793
100
AcDbEntity
  8
18
100
AcDbCircle
 10
666.170061
 20
410.532769
 30
0.0
 40
5.28
  0
TEXT
  5
794
100
AcDbEntity
  8
18
100
AcDbText
 10
660.711806
 20
408.130246
 30
0.0
 40
4.752
  1
Ｓ
 50
90.0
 72
     5
 11
660.711806
 21
411.931846
 31
0.0
100
AcDbText
  0
TEXT
  5
795
100
AcDbEntity
  8
18
100
AcDbText
 10
668.493677
 20
405.445635
 30
0.0
 40
4.752
  1
Ｏ
 50
180.0
 72
     5
 11
664.692077
 21
405.445635
 31
0.0
100
AcDbText
  0
TEXT
  5
796
100
AcDbEntity
  8
18
100
AcDbText
 10
668.493677
 20
420.371903
 30
0.0
 40
4.752
  1
Ｏ
 50
180.0
 72
     5
 11
664.692077
 21
420.371903
 31
0.0
100
AcDbText
  0
LINE
  5
797
100
AcDbEntity
  8
18
  6
CENTER
 62
     2
100
AcDbLine
 10
584.421766
 20
410.532769
 30
0.0
 11
528.053747
 21
410.532769
 31
0.0
  0
LINE
  5
798
100
AcDbEntity
  8
18
  6
CENTER
 62
     2
100
AcDbLine
 10
555.822754
 20
389.709704
 30
0.0
 11
555.822754
 21
424.978425
 31
0.0
  0
LINE
  5
799
100
AcDbEntity
  8
18
100
AcDbLine
 10
531.112354
 20
402.929569
 30
0.0
 11
531.112354
 21
418.135969
 31
0.0
  0
LINE
  5
79A
100
AcDbEntity
  8
18
100
AcDbLine
 10
580.533154
 20
402.929569
 30
0.0
 11
580.533154
 21
418.135969
 31
0.0
  0
LINE
  5
79B
100
AcDbEntity
  8
18
100
AcDbLine
 10
580.533154
 20
402.929569
 30
0.0
 11
566.301739
 21
402.929569
 31
0.0
  0
LINE
  5
79C
100
AcDbEntity
  8
18
100
AcDbLine
 10
545.343769
 20
402.929569
 30
0.0
 11
531.112354
 21
402.929569
 31
0.0
  0
LINE
  5
79D
100
AcDbEntity
  8
18
100
AcDbLine
 10
580.533154
 20
418.135969
 30
0.0
 11
562.829305
 21
418.135969
 31
0.0
  0
LINE
  5
79E
100
AcDbEntity
  8
18
100
AcDbLine
 10
548.816203
 20
418.135969
 30
0.0
 11
531.112354
 21
418.135969
 31
0.0
  0
TEXT
  5
79F
100
AcDbEntity
  8
18
100
AcDbText
 10
558.225276
 20
405.074514
 30
0.0
 40
4.752
  1
O
 50
180.0
 72
     5
 11
554.423676
 21
405.074514
 31
0.0
100
AcDbText
  0
TEXT
  5
7A0
100
AcDbEntity
  8
18
100
AcDbText
 10
545.98362
 20
412.856385
 30
0.0
 40
4.752
  1
S
 50
270.0
 72
     5
 11
545.98362
 21
409.054785
 31
0.0
100
AcDbText
  0
LINE
  5
7A1
100
AcDbEntity
  8
18
100
AcDbLine
 10
548.837097
 20
395.163591
 30
0.0
 11
562.808411
 21
395.163591
 31
0.0
  0
ARC
  5
7A2
100
AcDbEntity
  8
18
100
AcDbCircle
 10
548.837097
 20
397.399108
 30
0.0
 40
2.235517
100
AcDbArc
 50
185.0
 51
270.0
  0
ARC
  5
7A3
100
AcDbEntity
  8
18
100
AcDbCircle
 10
562.808411
 20
397.399108
 30
0.0
 40
2.235517
100
AcDbArc
 50
270.0
 51
355.0
  0
ARC
  5
7A4
100
AcDbEntity
  8
18
100
AcDbCircle
 10
555.822754
 20
410.532769
 30
0.0
 40
10.339265
100
AcDbArc
 50
355.000003
 51
76.648816
  0
ARC
  5
7A5
100
AcDbEntity
  8
18
100
AcDbCircle
 10
555.822754
 20
410.532769
 30
0.0
 40
10.339265
100
AcDbArc
 50
103.351184
 51
185.0
  0
LINE
  5
7A6
100
AcDbEntity
  8
18
100
AcDbLine
 10
566.301739
 20
403.826219
 30
0.0
 11
566.301739
 21
395.670471
 31
0.0
  0
LINE
  5
7A7
100
AcDbEntity
  8
18
100
AcDbLine
 10
545.343769
 20
395.670471
 30
0.0
 11
545.343769
 21
403.826219
 31
0.0
  0
LINE
  5
7A8
100
AcDbEntity
  8
18
100
AcDbLine
 10
566.301739
 20
403.826219
 30
0.0
 11
565.614766
 21
403.826219
 31
0.0
  0
LINE
  5
7A9
100
AcDbEntity
  8
18
100
AcDbLine
 10
546.030742
 20
403.826219
 30
0.0
 11
545.343769
 21
403.826219
 31
0.0
  0
LINE
  5
7AA
100
AcDbEntity
  8
18
100
AcDbLine
 10
553.435221
 20
420.592594
 30
0.0
 11
558.210287
 21
420.592594
 31
0.0
  0
LINE
  5
7AB
100
AcDbEntity
  8
18
100
AcDbLine
 10
545.343769
 20
398.796306
 30
0.0
 11
517.539529
 21
398.796306
 31
0.0
  0
LINE
  5
7AC
100
AcDbEntity
  8
18
100
AcDbLine
 10
545.343769
 20
402.149581
 30
0.0
 11
517.539529
 21
402.149581
 31
0.0
  0
ARC
  5
7AD
100
AcDbEntity
  8
18
100
AcDbCircle
 10
515.443732
 20
412.349126
 30
0.0
 40
2.095797
100
AcDbArc
 50
0.0
 51
180.0
  0
ARC
  5
7AE
100
AcDbEntity
  8
18
100
AcDbCircle
 10
515.443732
 20
388.596761
 30
0.0
 40
2.095797
100
AcDbArc
 50
180.0
 51
360.0
  0
LINE
  5
7AF
100
AcDbEntity
  8
18
100
AcDbLine
 10
517.539529
 20
388.859029
 30
0.0
 11
517.539529
 21
388.596761
 31
0.0
  0
LINE
  5
7B0
100
AcDbEntity
  8
18
100
AcDbLine
 10
513.347935
 20
400.472943
 30
0.0
 11
513.347935
 21
388.596761
 31
0.0
  0
LINE
  5
7B1
100
AcDbEntity
  8
18
100
AcDbLine
 10
517.539529
 20
412.086857
 30
0.0
 11
517.539529
 21
412.349126
 31
0.0
  0
LINE
  5
7B2
100
AcDbEntity
  8
18
100
AcDbLine
 10
513.347935
 20
400.472943
 30
0.0
 11
513.347935
 21
412.349126
 31
0.0
  0
LINE
  5
7B3
100
AcDbEntity
  8
18
100
AcDbLine
 10
561.073092
 20
411.091648
 30
0.0
 11
550.572415
 21
411.091648
 31
0.0
  0
LINE
  5
7B4
100
AcDbEntity
  8
18
100
AcDbLine
 10
561.073092
 20
409.97389
 30
0.0
 11
550.572415
 21
409.97389
 31
0.0
  0
LINE
  5
7B5
100
AcDbEntity
  8
18
100
AcDbLine
 10
546.610087
 20
397.20427
 30
0.0
 11
545.522833
 21
409.631643
 31
0.0
  0
LINE
  5
7B6
100
AcDbEntity
  8
18
100
AcDbLine
 10
566.122675
 20
409.631643
 30
0.0
 11
565.035421
 21
397.20427
 31
0.0
  0
LINE
  5
7B7
100
AcDbEntity
  8
18
100
AcDbLine
 10
517.539529
 20
400.472943
 30
0.0
 11
517.539529
 21
388.596761
 31
0.0
  0
LINE
  5
7B8
100
AcDbEntity
  8
18
100
AcDbLine
 10
517.539529
 20
400.472943
 30
0.0
 11
517.539529
 21
412.349126
 31
0.0
  0
LINE
  5
7B9
100
AcDbEntity
  8
18
100
AcDbLine
 10
545.343769
 20
395.670471
 30
0.0
 11
547.419582
 21
395.670471
 31
0.0
  0
LINE
  5
7BA
100
AcDbEntity
  8
18
100
AcDbLine
 10
564.225926
 20
395.670471
 30
0.0
 11
566.301739
 21
395.670471
 31
0.0
  0
CIRCLE
  5
7BB
100
AcDbEntity
  8
18
100
AcDbCircle
 10
555.822754
 20
410.532769
 30
0.0
 40
5.28
  0
TEXT
  5
7BC
100
AcDbEntity
  8
18
100
AcDbText
 10
560.909888
 20
412.856385
 30
0.0
 40
4.752
  1
S
 50
270.0
 72
     5
 11
560.909888
 21
409.054785
 31
0.0
100
AcDbText
  0
LINE
  5
7BD
100
AcDbEntity
  8
18
  6
CENTER
 62
     2
100
AcDbLine
 10
410.886357
 20
410.532769
 30
0.0
 11
467.254375
 21
410.532769
 31
0.0
  0
LINE
  5
7BE
100
AcDbEntity
  8
18
  6
CENTER
 62
     2
100
AcDbLine
 10
439.485368
 20
425.259471
 30
0.0
 11
439.485368
 21
396.087112
 31
0.0
  0
LINE
  5
7BF
100
AcDbEntity
  8
18
100
AcDbLine
 10
464.195768
 20
418.135969
 30
0.0
 11
464.195768
 21
402.929569
 31
0.0
  0
LINE
  5
7C0
100
AcDbEntity
  8
18
100
AcDbLine
 10
414.774968
 20
418.135969
 30
0.0
 11
414.774968
 21
402.929569
 31
0.0
  0
LINE
  5
7C1
100
AcDbEntity
  8
18
100
AcDbLine
 10
414.774968
 20
418.135969
 30
0.0
 11
432.478818
 21
418.135969
 31
0.0
  0
LINE
  5
7C2
100
AcDbEntity
  8
18
100
AcDbLine
 10
454.767558
 20
418.135969
 30
0.0
 11
464.195768
 21
418.135969
 31
0.0
  0
LINE
  5
7C3
100
AcDbEntity
  8
18
100
AcDbLine
 10
414.774968
 20
402.929569
 30
0.0
 11
432.478818
 21
402.929569
 31
0.0
  0
LINE
  5
7C4
100
AcDbEntity
  8
18
100
AcDbLine
 10
454.767558
 20
402.929569
 30
0.0
 11
464.195768
 21
402.929569
 31
0.0
  0
LINE
  5
7C5
100
AcDbEntity
  8
18
100
AcDbLine
 10
454.854546
 20
403.547112
 30
0.0
 11
454.854546
 21
417.518426
 31
0.0
  0
ARC
  5
7C6
100
AcDbEntity
  8
18
100
AcDbCircle
 10
452.61903
 20
403.547112
 30
0.0
 40
2.235517
100
AcDbArc
 50
275.0
 51
360.0
  0
ARC
  5
7C7
100
AcDbEntity
  8
18
100
AcDbCircle
 10
452.61903
 20
417.518426
 30
0.0
 40
2.235517
100
AcDbArc
 50
0.0
 51
85.0
  0
ARC
  5
7C8
100
AcDbEntity
  8
18
100
AcDbCircle
 10
439.485368
 20
410.532769
 30
0.0
 40
10.339265
100
AcDbArc
 50
85.000003
 51
166.648816
  0
ARC
  5
7C9
100
AcDbEntity
  8
18
100
AcDbCircle
 10
439.485368
 20
410.532769
 30
0.0
 40
10.339265
100
AcDbArc
 50
193.351184
 51
275.0
  0
LINE
  5
7CA
100
AcDbEntity
  8
18
100
AcDbLine
 10
446.191919
 20
421.011754
 30
0.0
 11
454.347666
 21
421.011754
 31
0.0
  0
LINE
  5
7CB
100
AcDbEntity
  8
18
100
AcDbLine
 10
454.347666
 20
400.053784
 30
0.0
 11
446.191919
 21
400.053784
 31
0.0
  0
LINE
  5
7CC
100
AcDbEntity
  8
18
100
AcDbLine
 10
446.191919
 20
400.740757
 30
0.0
 11
446.191919
 21
400.053784
 31
0.0
  0
LINE
  5
7CD
100
AcDbEntity
  8
18
100
AcDbLine
 10
446.191919
 20
421.011754
 30
0.0
 11
446.191919
 21
420.324781
 31
0.0
  0
LINE
  5
7CE
100
AcDbEntity
  8
18
100
AcDbLine
 10
429.425543
 20
408.145236
 30
0.0
 11
429.425543
 21
412.920302
 31
0.0
  0
LINE
  5
7CF
100
AcDbEntity
  8
18
100
AcDbLine
 10
451.221832
 20
400.053784
 30
0.0
 11
451.221832
 21
372.249544
 31
0.0
  0
LINE
  5
7D0
100
AcDbEntity
  8
18
100
AcDbLine
 10
447.868556
 20
400.053784
 30
0.0
 11
447.868556
 21
372.249544
 31
0.0
  0
ARC
  5
7D1
100
AcDbEntity
  8
18
100
AcDbCircle
 10
437.669011
 20
370.153747
 30
0.0
 40
2.095797
100
AcDbArc
 50
90.0
 51
270.0
  0
ARC
  5
7D2
100
AcDbEntity
  8
18
100
AcDbCircle
 10
461.421377
 20
370.153747
 30
0.0
 40
2.095797
100
AcDbArc
 50
270.0
 51
90.0
  0
LINE
  5
7D3
100
AcDbEntity
  8
18
100
AcDbLine
 10
461.159108
 20
372.249544
 30
0.0
 11
461.421377
 21
372.249544
 31
0.0
  0
LINE
  5
7D4
100
AcDbEntity
  8
18
100
AcDbLine
 10
449.545194
 20
368.05795
 30
0.0
 11
461.421377
 21
368.05795
 31
0.0
  0
LINE
  5
7D5
100
AcDbEntity
  8
18
100
AcDbLine
 10
437.93128
 20
372.249544
 30
0.0
 11
437.669011
 21
372.249544
 31
0.0
  0
LINE
  5
7D6
100
AcDbEntity
  8
18
100
AcDbLine
 10
449.545194
 20
368.05795
 30
0.0
 11
437.669011
 21
368.05795
 31
0.0
  0
LINE
  5
7D7
100
AcDbEntity
  8
18
100
AcDbLine
 10
438.926489
 20
415.783107
 30
0.0
 11
438.926489
 21
405.28243
 31
0.0
  0
LINE
  5
7D8
100
AcDbEntity
  8
18
100
AcDbLine
 10
440.044248
 20
415.783107
 30
0.0
 11
440.044248
 21
405.28243
 31
0.0
  0
LINE
  5
7D9
100
AcDbEntity
  8
18
100
AcDbLine
 10
452.813868
 20
401.320102
 30
0.0
 11
440.386495
 21
400.232848
 31
0.0
  0
LINE
  5
7DA
100
AcDbEntity
  8
18
100
AcDbLine
 10
452.813868
 20
419.745436
 30
0.0
 11
440.386495
 21
420.83269
 31
0.0
  0
LINE
  5
7DB
100
AcDbEntity
  8
18
100
AcDbLine
 10
449.545194
 20
372.249544
 30
0.0
 11
461.421377
 21
372.249544
 31
0.0
  0
LINE
  5
7DC
100
AcDbEntity
  8
18
100
AcDbLine
 10
449.545194
 20
372.249544
 30
0.0
 11
437.669011
 21
372.249544
 31
0.0
  0
LINE
  5
7DD
100
AcDbEntity
  8
18
100
AcDbLine
 10
454.347666
 20
400.053784
 30
0.0
 11
454.347666
 21
402.129597
 31
0.0
  0
LINE
  5
7DE
100
AcDbEntity
  8
18
100
AcDbLine
 10
454.347666
 20
418.935941
 30
0.0
 11
454.347666
 21
421.011754
 31
0.0
  0
CIRCLE
  5
7DF
100
AcDbEntity
  8
18
100
AcDbCircle
 10
439.485368
 20
410.532769
 30
0.0
 40
5.28
  0
TEXT
  5
7E0
100
AcDbEntity
  8
18
100
AcDbText
 10
444.943623
 20
412.935291
 30
0.0
 40
4.752
  1
Ｓ
 50
270.0
 72
     5
 11
444.943623
 21
409.133691
 31
0.0
100
AcDbText
  0
TEXT
  5
7E1
100
AcDbEntity
  8
18
100
AcDbText
 10
437.161752
 20
415.619903
 30
0.0
 40
4.752
  1
Ｏ
 72
     5
 11
440.963352
 21
415.619903
 31
0.0
100
AcDbText
  0
TEXT
  5
7E2
100
AcDbEntity
  8
18
100
AcDbText
 10
437.161752
 20
400.693635
 30
0.0
 40
4.752
  1
Ｏ
 50
360.0
 72
     5
 11
440.963352
 21
400.693635
 31
0.0
100
AcDbText
  0
LINE
  5
7E3
100
AcDbEntity
  8
18
  6
CENTER
 62
     2
100
AcDbLine
 10
298.038311
 20
394.754296
 30
0.0
 11
354.40633
 21
394.754296
 31
0.0
  0
LINE
  5
7E4
100
AcDbEntity
  8
18
100
AcDbLine
 10
351.347723
 20
402.357496
 30
0.0
 11
351.347723
 21
387.151096
 31
0.0
  0
LINE
  5
7E5
100
AcDbEntity
  8
18
100
AcDbLine
 10
337.116308
 20
402.357496
 30
0.0
 11
351.347723
 21
402.357496
 31
0.0
  0
LINE
  5
7E6
100
AcDbEntity
  8
18
100
AcDbLine
 10
333.643874
 20
387.151096
 30
0.0
 11
351.347723
 21
387.151096
 31
0.0
  0
LINE
  5
7E7
100
AcDbEntity
  8
18
100
AcDbLine
 10
337.116308
 20
406.490759
 30
0.0
 11
364.920548
 21
406.490759
 31
0.0
  0
LINE
  5
7E8
100
AcDbEntity
  8
18
100
AcDbLine
 10
337.116308
 20
403.137484
 30
0.0
 11
364.920548
 21
403.137484
 31
0.0
  0
ARC
  5
7E9
100
AcDbEntity
  8
18
100
AcDbCircle
 10
367.016345
 20
392.937939
 30
0.0
 40
2.095797
100
AcDbArc
 50
180.0
 51
360.0
  0
ARC
  5
7EA
100
AcDbEntity
  8
18
100
AcDbCircle
 10
367.016345
 20
416.690305
 30
0.0
 40
2.095797
100
AcDbArc
 50
0.0
 51
180.0
  0
LINE
  5
7EB
100
AcDbEntity
  8
18
100
AcDbLine
 10
364.920548
 20
416.428036
 30
0.0
 11
364.920548
 21
416.690305
 31
0.0
  0
LINE
  5
7EC
100
AcDbEntity
  8
18
100
AcDbLine
 10
369.112142
 20
404.814122
 30
0.0
 11
369.112142
 21
416.690305
 31
0.0
  0
LINE
  5
7ED
100
AcDbEntity
  8
18
100
AcDbLine
 10
364.920548
 20
393.200208
 30
0.0
 11
364.920548
 21
392.937939
 31
0.0
  0
LINE
  5
7EE
100
AcDbEntity
  8
18
100
AcDbLine
 10
369.112142
 20
404.814122
 30
0.0
 11
369.112142
 21
392.937939
 31
0.0
  0
LINE
  5
7EF
100
AcDbEntity
  8
18
100
AcDbLine
 10
364.920548
 20
404.814122
 30
0.0
 11
364.920548
 21
416.690305
 31
0.0
  0
LINE
  5
7F0
100
AcDbEntity
  8
18
100
AcDbLine
 10
364.920548
 20
404.814122
 30
0.0
 11
364.920548
 21
392.937939
 31
0.0
  0
LINE
  5
7F1
100
AcDbEntity
  8
18
  6
CENTER
 62
     2
100
AcDbLine
 10
326.637323
 20
415.577361
 30
0.0
 11
326.637323
 21
380.30864
 31
0.0
  0
LINE
  5
7F2
100
AcDbEntity
  8
18
100
AcDbLine
 10
301.926923
 20
402.357496
 30
0.0
 11
301.926923
 21
387.151096
 31
0.0
  0
LINE
  5
7F3
100
AcDbEntity
  8
18
100
AcDbLine
 10
301.926923
 20
402.357496
 30
0.0
 11
316.158338
 21
402.357496
 31
0.0
  0
LINE
  5
7F4
100
AcDbEntity
  8
18
100
AcDbLine
 10
301.926923
 20
387.151096
 30
0.0
 11
319.630772
 21
387.151096
 31
0.0
  0
TEXT
  5
7F5
100
AcDbEntity
  8
18
100
AcDbText
 10
324.234801
 20
400.212551
 30
0.0
 40
4.752
  1
O
 72
     5
 11
328.036401
 21
400.212551
 31
0.0
100
AcDbText
  0
TEXT
  5
7F6
100
AcDbEntity
  8
18
100
AcDbText
 10
336.476457
 20
392.43068
 30
0.0
 40
4.752
  1
S
 50
90.0
 72
     5
 11
336.476457
 21
396.23228
 31
0.0
100
AcDbText
  0
LINE
  5
7F7
100
AcDbEntity
  8
18
100
AcDbLine
 10
333.62298
 20
410.123474
 30
0.0
 11
319.651666
 21
410.123474
 31
0.0
  0
ARC
  5
7F8
100
AcDbEntity
  8
18
100
AcDbCircle
 10
333.62298
 20
407.887957
 30
0.0
 40
2.235517
100
AcDbArc
 50
5.0
 51
90.0
  0
ARC
  5
7F9
100
AcDbEntity
  8
18
100
AcDbCircle
 10
319.651666
 20
407.887957
 30
0.0
 40
2.235517
100
AcDbArc
 50
90.0
 51
175.0
  0
ARC
  5
7FA
100
AcDbEntity
  8
18
100
AcDbCircle
 10
326.637323
 20
394.754296
 30
0.0
 40
10.339265
100
AcDbArc
 50
175.000003
 51
256.648816
  0
ARC
  5
7FB
100
AcDbEntity
  8
18
100
AcDbCircle
 10
326.637323
 20
394.754296
 30
0.0
 40
10.339265
100
AcDbArc
 50
283.351184
 51
5.0
  0
LINE
  5
7FC
100
AcDbEntity
  8
18
100
AcDbLine
 10
316.158338
 20
401.460847
 30
0.0
 11
316.158338
 21
409.616594
 31
0.0
  0
LINE
  5
7FD
100
AcDbEntity
  8
18
100
AcDbLine
 10
337.116308
 20
409.616594
 30
0.0
 11
337.116308
 21
401.460847
 31
0.0
  0
LINE
  5
7FE
100
AcDbEntity
  8
18
100
AcDbLine
 10
316.158338
 20
401.460847
 30
0.0
 11
316.845311
 21
401.460847
 31
0.0
  0
LINE
  5
7FF
100
AcDbEntity
  8
18
100
AcDbLine
 10
336.429335
 20
401.460847
 30
0.0
 11
337.116308
 21
401.460847
 31
0.0
  0
LINE
  5
800
100
AcDbEntity
  8
18
100
AcDbLine
 10
329.024856
 20
384.694471
 30
0.0
 11
324.24979
 21
384.694471
 31
0.0
  0
LINE
  5
801
100
AcDbEntity
  8
18
100
AcDbLine
 10
321.386985
 20
394.195417
 30
0.0
 11
331.887661
 21
394.195417
 31
0.0
  0
LINE
  5
802
100
AcDbEntity
  8
18
100
AcDbLine
 10
321.386985
 20
395.313175
 30
0.0
 11
331.887661
 21
395.313175
 31
0.0
  0
LINE
  5
803
100
AcDbEntity
  8
18
100
AcDbLine
 10
335.84999
 20
408.082795
 30
0.0
 11
336.937244
 21
395.655423
 31
0.0
  0
LINE
  5
804
100
AcDbEntity
  8
18
100
AcDbLine
 10
316.337402
 20
395.655423
 30
0.0
 11
317.424656
 21
408.082795
 31
0.0
  0
LINE
  5
805
100
AcDbEntity
  8
18
100
AcDbLine
 10
337.116308
 20
409.616594
 30
0.0
 11
335.040495
 21
409.616594
 31
0.0
  0
LINE
  5
806
100
AcDbEntity
  8
18
100
AcDbLine
 10
318.234151
 20
409.616594
 30
0.0
 11
316.158338
 21
409.616594
 31
0.0
  0
CIRCLE
  5
807
100
AcDbEntity
  8
18
100
AcDbCircle
 10
326.637323
 20
394.754296
 30
0.0
 40
5.28
  0
TEXT
  5
808
100
AcDbEntity
  8
18
100
AcDbText
 10
321.550189
 20
392.43068
 30
0.0
 40
4.752
  1
S
 50
90.0
 72
     5
 11
321.550189
 21
396.23228
 31
0.0
100
AcDbText
  0
TEXT
  5
809
100
AcDbEntity
  8
18
100
AcDbText
 10
488.750295
 20
-492.141052
 30
0.0
 40
12.0
  1
３０２Ｙ－２ＵＡＳ　１５０Ａ
 72
     5
 11
654.350295
 21
-492.141052
 31
0.0
100
AcDbText
  0
TEXT
  5
80A
100
AcDbEntity
  8
18
100
AcDbText
 10
614.4
 20
-544.0
 30
0.0
 40
20.0
  1
Ｄ３－０２５９０
 72
     5
 11
770.4
 21
-544.0
 31
0.0
100
AcDbText
  0
LINE
  5
80B
100
AcDbEntity
  8
20
 62
     3
100
AcDbLine
 10
-720.0
 20
-554.0
 30
0.0
 11
800.0
 21
-554.0
 31
0.0
  0
LINE
  5
80C
100
AcDbEntity
  8
20
 62
     3
100
AcDbLine
 10
-720.0
 20
528.0
 30
0.0
 11
800.0
 21
528.0
 31
0.0
  0
LINE
  5
80D
100
AcDbEntity
  8
20
 62
     3
100
AcDbLine
 10
-720.0
 20
528.0
 30
0.0
 11
-720.0
 21
-554.0
 31
0.0
  0
LINE
  5
80E
100
AcDbEntity
  8
20
 62
     3
100
AcDbLine
 10
800.0
 20
528.0
 30
0.0
 11
800.0
 21
-554.0
 31
0.0
  0
LINE
  5
80F
100
AcDbEntity
  8
20
 62
     3
100
AcDbLine
 10
240.0
 20
-554.0
 30
0.0
 11
240.0
 21
-474.0
 31
0.0
  0
LINE
  5
810
100
AcDbEntity
  8
20
 62
     3
100
AcDbLine
 10
428.0
 20
-554.0
 30
0.0
 11
428.0
 21
-474.0
 31
0.0
  0
LINE
  5
811
100
AcDbEntity
  8
20
100
AcDbLine
 10
428.0
 20
-514.0
 30
0.0
 11
800.0
 21
-514.0
 31
0.0
  0
LINE
  5
812
100
AcDbEntity
  8
20
 62
     3
100
AcDbLine
 10
240.0
 20
-474.0
 30
0.0
 11
800.0
 21
-474.0
 31
0.0
  0
LINE
  5
813
100
AcDbEntity
  8
20
100
AcDbLine
 10
720.0
 20
-514.0
 30
0.0
 11
720.0
 21
-474.0
 31
0.0
  0
LINE
  5
814
100
AcDbEntity
  8
20
100
AcDbLine
 10
720.0
 20
-494.0
 30
0.0
 11
800.0
 21
-494.0
 31
0.0
  0
LINE
  5
815
100
AcDbEntity
  8
20
100
AcDbLine
 10
484.0
 20
-554.0
 30
0.0
 11
484.0
 21
-474.0
 31
0.0
  0
LINE
  5
816
100
AcDbEntity
  8
20
100
AcDbLine
 10
524.0
 20
-554.0
 30
0.0
 11
524.0
 21
-514.0
 31
0.0
  0
LINE
  5
817
100
AcDbEntity
  8
20
100
AcDbLine
 10
604.0
 20
-554.0
 30
0.0
 11
604.0
 21
-514.0
 31
0.0
  0
LINE
  5
818
100
AcDbEntity
  8
20
100
AcDbLine
 10
494.913658
 20
-543.086342
 30
0.0
 11
511.593163
 21
-526.406837
 31
0.0
  0
TEXT
  5
819
100
AcDbEntity
  8
20
100
AcDbText
 10
526.133316
 20
-529.987671
 30
0.0
 40
7.2
  1
ＤＲＡＷＩＮＧ　ＮＯ．
 72
     5
 11
603.893316
 21
-529.987671
 31
0.0
100
AcDbText
  0
TEXT
  5
81A
100
AcDbEntity
  8
20
100
AcDbText
 10
534.0
 20
-546.0
 30
0.0
 40
12.0
  1
図　　　番
 72
     5
 11
591.6
 21
-546.0
 31
0.0
100
AcDbText
  0
TEXT
  5
81B
100
AcDbEntity
  8
20
100
AcDbText
 10
744.0
 20
-488.0
 30
0.0
 40
8.0
  1
ＤＡＴＥ
 72
     5
 11
774.4
 21
-488.0
 31
0.0
100
AcDbText
  0
TEXT
  5
81C
100
AcDbEntity
  8
20
100
AcDbText
 10
436.004284
 20
-531.844116
 30
0.0
 40
8.0
  1
ＳＣＡＬＥ
 72
     5
 11
474.404284
 21
-531.844116
 31
0.0
100
AcDbText
  0
TEXT
  5
81D
100
AcDbEntity
  8
20
100
AcDbText
 10
432.0
 20
-546.0
 30
0.0
 40
12.0
  1
尺　　度
 72
     5
 11
477.6
 21
-546.0
 31
0.0
100
AcDbText
  0
TEXT
  5
81E
100
AcDbEntity
  8
20
100
AcDbText
 10
430.004284
 20
-489.983539
 30
0.0
 40
8.0
  1
ＦＩＧ．ＮＯ．
 72
     5
 11
484.404284
 21
-489.983539
 31
0.0
100
AcDbText
  0
TEXT
  5
81F
100
AcDbEntity
  8
20
100
AcDbText
 10
432.0
 20
-506.0
 30
0.0
 40
12.0
  1
名　　称
 72
     5
 11
477.6
 21
-506.0
 31
0.0
100
AcDbText
  0
TEXT
  5
820
100
AcDbEntity
  8
20
100
AcDbText
 10
242.2621
 20
-505.881012
 30
0.0
 40
9.2
  1
ＴＯＭＯＥ　ＶＡＬＶＥ　ＣＯ．，ＬＴＤ．
 72
     5
 11
424.4221
 21
-505.881012
 31
0.0
100
AcDbText
  0
TEXT
  5
821
100
AcDbEntity
  8
20
100
AcDbText
 10
270.0
 20
-533.159241
 30
0.0
 40
16.0
  1
巴バルブ株式会社
 72
     5
 11
394.8
 21
-533.159241
 31
0.0
100
AcDbText
  0
ENDSEC
  0
SECTION
  2
OBJECTS
  0
DICTIONARY
  5
89A
100
AcDbDictionary
  3
ACAD_GROUP
350
89B
  3
ACAD_MLINESTYLE
350
89C
  0
DICTIONARY
  5
89B
102
{ACAD_REACTORS
330
89A
102
}
100
AcDbDictionary
  0
DICTIONARY
  5
89C
102
{ACAD_REACTORS
330
89A
102
}
100
AcDbDictionary
  3
STANDARD
350
89D
  0
MLINESTYLE
  5
89D
102
{ACAD_REACTORS
330
89C
102
}
100
AcDbMlineStyle
  2
STANDARD
 70
     0
  3

 62
     0
 51
90.0
 52
90.0
 71
     2
 49
0.5
 62
   256
  6
BYLAYER
 49
-0.5
 62
   256
  6
BYLAYER
  0
ENDSEC
  0
EOF
