  0
SECTION
  2
HEADER
  9
$LIMMAX
 10
420.000000
 20
297.000000
  9
$LIMMIN
 10
-420.000000
 20
-297.000000
  9
$EXTMAX
 10
420.000000
 20
297.000000
  9
$EXTMIN
 10
-420.000000
 20
-297.000000
  9
$DIMLFAC
 40
1.000000
  9
$DIMALTF
 40
25.400000
  9
$DIMSCALE
 40
2.000000
  9
$DIMTAD
 70
1
  9
$DIMTIH
 70
1
  9
$DIMTOH
 70
1
  9
$TDCREATE
 40
2450473.000000
  9
$TDUPDATE
 40
2452041.000000
999
3106
  0
ENDSEC
  0
SECTION
  2
TABLES
  0
TABLE
  2
LTYPE
 70
7
  0
LTYPE
  2
CONTINUOUS
 70
0
  3
Solid line
 72
65
 73
0
 40
0.000000
  0
LTYPE
  2
DASHED
 70
0
  3
__ __ __ __ __ __ __ __ __ __ __ __ __ __ __
 72
65
 73
2
 40
2.000000
 49
1.200000
 49
-0.800000
  0
LTYPE
  2
CENTER
 70
0
  3
____ _ ____ _ ____ _ ____ _ ____ _ ____ _ ____
 72
65
 73
4
 40
12.000000
 49
9.000000
 49
-1.000000
 49
1.000000
 49
-1.000000
  0
LTYPE
  2
HIDDEN
 70
0
  3
_ _ _ _ _ _ _ _ _ _ _ _ _ _ _ _ _ _ _ _ _ _ _
 72
65
 73
2
 40
3.200000
 49
2.400000
 49
-0.800000
  0
LTYPE
  2
PHANTOM
 70
0
  3
_____ _ _ _____ _ _ _____ _ _ _____ _ _ _____
 72
65
 73
6
 40
13.500000
 49
9.000000
 49
-1.000000
 49
1.000000
 49
-0.500000
 49
1.000000
 49
-1.000000
  0
LTYPE
  2
DOT
 70
0
  3
...............................................
 72
65
 73
2
 40
1.000000
 49
0.500000
 49
-0.500000
  0
LTYPE
  2
DASHDOT
 70
0
  3
__ . __ . __ . __ . __ . __ . __ . __ . __ . __
 72
65
 73
4
 40
8.000000
 49
5.000000
 49
-1.000000
 49
1.000000
 49
-1.000000
  0
ENDTAB
  0
TABLE
  2
LAYER
 70
6
  0
LAYER
  2
0
 70
0
 62
7
  6
CONTINUOUS
  0
LAYER
  2
1
 70
0
 62
7
  6
CONTINUOUS
  0
LAYER
  2
2
 70
0
 62
7
  6
CONTINUOUS
  0
LAYER
  2
5
 70
0
 62
7
  6
CONTINUOUS
  0
LAYER
  2
18
 70
0
 62
7
  6
CONTINUOUS
  0
LAYER
  2
20
 70
0
 62
7
  6
CONTINUOUS
  0
ENDTAB
  0
TABLE
  2
STYLE
 70
1
  0
STYLE
  2
STANDARD
 70
64
 40
0.000000
 41
1.000000
 50
0.000000
 71
0
 42
1.000000
  3
txt
  4
BIGFONT
  0
ENDTAB
  0
ENDSEC
  0
SECTION
  2
BLOCKS
  0
BLOCK
  8
5
  2
*D0
 70
1
 10
0.000000
 20
0.000000
  0
TEXT
  8
5
 10
-5.864883
 20
-3.375516
 40
6.600000
  1
24
 50
90.000000
 62
2
 41
1.400000
  0
LINE
  8
5
 62
2
 10
29.649359
 20
-10.755516
 11
-6.864883
 21
-10.755516
  0
LINE
  8
5
 62
2
 10
-4.864883
 20
-10.755516
 11
-3.829607
 21
-6.891813
  0
LINE
  8
5
 62
2
 10
-4.864883
 20
-10.755516
 11
-5.900160
 21
-6.891813
  0
LINE
  8
5
 62
2
 10
-3.829607
 20
-6.891813
 11
-5.900160
 21
-6.891813
  0
LINE
  8
5
 62
2
 10
-4.864883
 20
-10.755516
 11
-4.864883
 21
13.244484
  0
LINE
  8
5
 62
2
 10
-4.864883
 20
13.244484
 11
-5.900160
 21
9.380781
  0
LINE
  8
5
 62
2
 10
-4.864883
 20
13.244484
 11
-3.829607
 21
9.380781
  0
LINE
  8
5
 62
2
 10
-5.900160
 20
9.380781
 11
-3.829607
 21
9.380781
  0
LINE
  8
5
 62
2
 10
22.479799
 20
13.244484
 11
-6.864883
 21
13.244484
  0
ENDBLK
  8
5
  0
BLOCK
  8
5
  2
*D1
 70
1
 10
0.000000
 20
0.000000
  0
TEXT
  8
5
 10
-77.092659
 20
6.314484
 40
6.600000
  1
%%c70
 50
90.000000
 62
2
 41
1.400000
  0
LINE
  8
5
 62
2
 10
-109.850641
 20
48.244484
 11
-74.092659
 21
48.244484
  0
LINE
  8
5
 62
2
 10
-76.092659
 20
48.244484
 11
-77.127935
 21
44.380781
  0
LINE
  8
5
 62
2
 10
-76.092659
 20
48.244484
 11
-75.057383
 21
44.380781
  0
LINE
  8
5
 62
2
 10
-77.127935
 20
44.380781
 11
-75.057383
 21
44.380781
  0
LINE
  8
5
 62
2
 10
-76.092659
 20
48.244484
 11
-76.092659
 21
-21.755516
  0
LINE
  8
5
 62
2
 10
-76.092659
 20
-21.755516
 11
-75.057383
 21
-17.891813
  0
LINE
  8
5
 62
2
 10
-76.092659
 20
-21.755516
 11
-77.127935
 21
-17.891813
  0
LINE
  8
5
 62
2
 10
-75.057383
 20
-17.891813
 11
-77.127935
 21
-17.891813
  0
LINE
  8
5
 62
2
 10
-109.850641
 20
-21.755516
 11
-74.092659
 21
-21.755516
  0
ENDBLK
  8
5
  0
BLOCK
  8
5
  2
*D2
 70
1
 10
0.000000
 20
0.000000
  0
TEXT
  8
5
 10
-156.470641
 20
224.778763
 40
6.600000
  1
83
 50
0.000000
 62
2
 41
1.400000
  0
LINE
  8
5
 62
2
 10
-193.350641
 20
197.902495
 11
-193.350641
 21
225.778763
  0
LINE
  8
5
 62
2
 10
-193.350641
 20
223.778763
 11
-189.486938
 21
222.743487
  0
LINE
  8
5
 62
2
 10
-193.350641
 20
223.778763
 11
-189.486938
 21
224.814039
  0
LINE
  8
5
 62
2
 10
-189.486938
 20
222.743487
 11
-189.486938
 21
224.814039
  0
LINE
  8
5
 62
2
 10
-193.350641
 20
223.778763
 11
-110.350641
 21
223.778763
  0
LINE
  8
5
 62
2
 10
-110.350641
 20
223.778763
 11
-114.214345
 21
224.814039
  0
LINE
  8
5
 62
2
 10
-110.350641
 20
223.778763
 11
-114.214345
 21
222.743487
  0
LINE
  8
5
 62
2
 10
-114.214345
 20
224.814039
 11
-114.214345
 21
222.743487
  0
LINE
  8
5
 62
2
 10
-110.350641
 20
200.058521
 11
-110.350641
 21
225.778763
  0
ENDBLK
  8
5
  0
BLOCK
  8
5
  2
*D3
 70
1
 10
0.000000
 20
0.000000
  0
TEXT
  8
5
 10
-5.864883
 20
-83.685516
 40
6.600000
  1
132
 50
90.000000
 62
2
 41
1.400000
  0
LINE
  8
5
 62
2
 10
31.175802
 20
-142.755516
 11
-6.864883
 21
-142.755516
  0
LINE
  8
5
 62
2
 10
-4.864883
 20
-142.755516
 11
-3.829607
 21
-138.891813
  0
LINE
  8
5
 62
2
 10
-4.864883
 20
-142.755516
 11
-5.900160
 21
-138.891813
  0
LINE
  8
5
 62
2
 10
-3.829607
 20
-138.891813
 11
-5.900160
 21
-138.891813
  0
LINE
  8
5
 62
2
 10
-4.864883
 20
-142.755516
 11
-4.864883
 21
-10.755516
  0
LINE
  8
5
 62
2
 10
-4.864883
 20
-10.755516
 11
-5.900160
 21
-14.619219
  0
LINE
  8
5
 62
2
 10
-4.864883
 20
-10.755516
 11
-3.829607
 21
-14.619219
  0
LINE
  8
5
 62
2
 10
-5.900160
 20
-14.619219
 11
-3.829607
 21
-14.619219
  0
LINE
  8
5
 62
2
 10
29.649359
 20
-10.755516
 11
-6.864883
 21
-10.755516
  0
ENDBLK
  8
5
  0
BLOCK
  8
5
  2
*D4
 70
1
 10
0.000000
 20
0.000000
  0
TEXT
  8
5
 10
-5.864883
 20
-177.325516
 40
6.600000
  1
60
 50
90.000000
 62
2
 41
1.400000
  0
LINE
  8
5
 62
2
 10
59.649359
 20
-202.655516
 11
-6.864883
 21
-202.655516
  0
LINE
  8
5
 62
2
 10
-4.864883
 20
-202.655516
 11
-3.829607
 21
-198.791813
  0
LINE
  8
5
 62
2
 10
-4.864883
 20
-202.655516
 11
-5.900160
 21
-198.791813
  0
LINE
  8
5
 62
2
 10
-3.829607
 20
-198.791813
 11
-5.900160
 21
-198.791813
  0
LINE
  8
5
 62
2
 10
-4.864883
 20
-202.655516
 11
-4.864883
 21
-142.755516
  0
LINE
  8
5
 62
2
 10
-4.864883
 20
-142.755516
 11
-5.900160
 21
-146.619219
  0
LINE
  8
5
 62
2
 10
-4.864883
 20
-142.755516
 11
-3.829607
 21
-146.619219
  0
LINE
  8
5
 62
2
 10
-5.900160
 20
-146.619219
 11
-3.829607
 21
-146.619219
  0
LINE
  8
5
 62
2
 10
31.175802
 20
-142.755516
 11
-6.864883
 21
-142.755516
  0
ENDBLK
  8
5
  0
BLOCK
  8
5
  2
*D5
 70
1
 10
0.000000
 20
0.000000
  0
TEXT
  8
5
 10
62.029359
 20
-225.640945
 40
6.600000
  1
35
 50
0.000000
 62
2
 41
1.400000
  0
LINE
  8
5
 62
2
 10
49.149359
 20
-183.755516
 11
49.149359
 21
-228.640945
  0
LINE
  8
5
 62
2
 10
49.149359
 20
-226.640945
 11
53.013062
 21
-227.676222
  0
LINE
  8
5
 62
2
 10
49.149359
 20
-226.640945
 11
53.013062
 21
-225.605669
  0
LINE
  8
5
 62
2
 10
53.013062
 20
-227.676222
 11
53.013062
 21
-225.605669
  0
LINE
  8
5
 62
2
 10
49.149359
 20
-226.640945
 11
84.149359
 21
-226.640945
  0
LINE
  8
5
 62
2
 10
84.149359
 20
-226.640945
 11
80.285655
 21
-225.605669
  0
LINE
  8
5
 62
2
 10
84.149359
 20
-226.640945
 11
80.285655
 21
-227.676222
  0
LINE
  8
5
 62
2
 10
80.285655
 20
-225.605669
 11
80.285655
 21
-227.676222
  0
LINE
  8
5
 62
2
 10
84.149359
 20
-183.755516
 11
84.149359
 21
-228.640945
  0
ENDBLK
  8
5
  0
BLOCK
  8
5
  2
*D6
 70
1
 10
0.000000
 20
0.000000
  0
TEXT
  8
5
 10
-77.092659
 20
149.622823
 40
6.600000
  1
28
 50
90.000000
 62
2
 41
1.400000
  0
LINE
  8
5
 62
2
 10
-137.595762
 20
140.242823
 11
-74.092659
 21
140.242823
  0
LINE
  8
5
 62
2
 10
-76.092659
 20
140.242823
 11
-75.057383
 21
144.106526
  0
LINE
  8
5
 62
2
 10
-76.092659
 20
140.242823
 11
-77.127935
 21
144.106526
  0
LINE
  8
5
 62
2
 10
-75.057383
 20
144.106526
 11
-77.127935
 21
144.106526
  0
LINE
  8
5
 62
2
 10
-76.092659
 20
140.242823
 11
-76.092659
 21
168.242823
  0
LINE
  8
5
 62
2
 10
-76.092659
 20
168.242823
 11
-77.127935
 21
164.379119
  0
LINE
  8
5
 62
2
 10
-76.092659
 20
168.242823
 11
-75.057383
 21
164.379119
  0
LINE
  8
5
 62
2
 10
-77.127935
 20
164.379119
 11
-75.057383
 21
164.379119
  0
LINE
  8
5
 62
2
 10
-100.746653
 20
168.242823
 11
-74.092659
 21
168.242823
  0
ENDBLK
  8
5
  0
BLOCK
  8
5
  2
*D7
 70
1
 10
0.000000
 20
0.000000
  0
TEXT
  8
5
 10
-77.092659
 20
118.122823
 40
6.600000
  1
35
 50
90.000000
 62
2
 41
1.400000
  0
LINE
  8
5
 62
2
 10
-166.350641
 20
105.242823
 11
-74.092659
 21
105.242823
  0
LINE
  8
5
 62
2
 10
-76.092659
 20
105.242823
 11
-75.057383
 21
109.106526
  0
LINE
  8
5
 62
2
 10
-76.092659
 20
105.242823
 11
-77.127935
 21
109.106526
  0
LINE
  8
5
 62
2
 10
-75.057383
 20
109.106526
 11
-77.127935
 21
109.106526
  0
LINE
  8
5
 62
2
 10
-76.092659
 20
105.242823
 11
-76.092659
 21
140.242823
  0
LINE
  8
5
 62
2
 10
-76.092659
 20
140.242823
 11
-77.127935
 21
136.379119
  0
LINE
  8
5
 62
2
 10
-76.092659
 20
140.242823
 11
-75.057383
 21
136.379119
  0
LINE
  8
5
 62
2
 10
-77.127935
 20
136.379119
 11
-75.057383
 21
136.379119
  0
LINE
  8
5
 62
2
 10
-137.595762
 20
140.242823
 11
-74.092659
 21
140.242823
  0
ENDBLK
  8
5
  0
ENDSEC
  0
SECTION
  2
ENTITIES
  0
LINE
  8
1
  6
DASHED
 10
-218.350641
 20
175.242823
 11
-168.350641
 21
175.242823
  0
LINE
  8
1
  6
DASHED
 10
-218.350641
 20
105.242823
 11
-168.350641
 21
105.242823
  0
LINE
  8
1
  6
DASHED
 10
-228.350641
 20
115.242823
 11
-228.350641
 21
165.242823
  0
LINE
  8
1
  6
DASHED
 10
-158.350641
 20
115.242823
 11
-158.350641
 21
165.242823
  0
ARC
  8
1
  6
DASHED
 10
-218.350641
 20
115.242823
 40
10.000000
 50
180.000000
 51
270.000000
  0
ARC
  8
1
  6
DASHED
 10
-168.350641
 20
115.242823
 40
10.000000
 50
270.000000
 51
0.000000
  0
ARC
  8
1
  6
DASHED
 10
-168.350641
 20
165.242823
 40
10.000000
 50
0.000000
 51
90.000000
  0
ARC
  8
1
  6
DASHED
 10
-218.350641
 20
165.242823
 40
10.000000
 50
90.000000
 51
180.000000
  0
CIRCLE
  8
1
  6
DASHED
 10
-168.600641
 20
164.992823
 40
4.500000
  0
CIRCLE
  8
1
  6
DASHED
 10
-168.600641
 20
115.492823
 40
4.500000
  0
CIRCLE
  8
1
  6
DASHED
 10
-218.100641
 20
115.492823
 40
4.500000
  0
CIRCLE
  8
1
  6
DASHED
 10
-218.100641
 20
164.992823
 40
4.500000
  0
LINE
  8
1
  6
CENTER
 62
2
 10
-177.100641
 20
164.992823
 11
-160.100641
 21
164.992823
  0
LINE
  8
1
  6
CENTER
 62
2
 10
-168.600641
 20
156.492823
 11
-168.600641
 21
173.492823
  0
LINE
  8
1
  6
CENTER
 62
2
 10
-209.600641
 20
164.992823
 11
-226.600641
 21
164.992823
  0
LINE
  8
1
  6
CENTER
 62
2
 10
-218.100641
 20
156.492823
 11
-218.100641
 21
173.492823
  0
LINE
  8
1
  6
CENTER
 62
2
 10
-177.100641
 20
115.492823
 11
-160.100641
 21
115.492823
  0
LINE
  8
1
  6
CENTER
 62
2
 10
-168.600641
 20
123.992823
 11
-168.600641
 21
106.992823
  0
LINE
  8
1
  6
CENTER
 62
2
 10
-209.600641
 20
115.492823
 11
-226.600641
 21
115.492823
  0
LINE
  8
1
  6
CENTER
 62
2
 10
-218.100641
 20
123.992823
 11
-218.100641
 21
106.992823
  0
LINE
  8
1
  6
CENTER
 62
2
 10
-139.595762
 20
140.242823
 11
-245.541239
 21
140.242823
  0
LINE
  8
1
  6
CENTER
 62
2
 10
-193.350641
 20
52.846763
 11
-193.350641
 21
-210.606890
  0
LINE
  8
1
  6
CENTER
 62
2
 10
33.175802
 20
-142.755516
 11
97.929396
 21
-142.755516
  0
LINE
  8
1
  6
CENTER
 62
2
 10
66.649359
 20
-210.606890
 11
66.649359
 21
52.846763
  0
LINE
  8
1
  6
CENTER
 62
2
 10
-245.541239
 20
-142.755516
 11
-139.595762
 21
-142.755516
  0
LINE
  8
1
 10
-186.450641
 20
-198.655516
 11
-174.250641
 21
-198.655516
  0
LINE
  8
1
 10
-174.600641
 20
-198.655516
 11
-174.600641
 21
-202.164768
  0
LINE
  8
1
 10
-174.600641
 20
-202.164768
 11
-175.450641
 21
-202.655516
  0
LINE
  8
1
 10
-177.475641
 20
-198.655516
 11
-177.475641
 21
-202.164768
  0
ARC
  8
1
 10
-176.038141
 20
-200.316813
 40
2.341227
 50
232.121121
 51
307.878879
  0
ARC
  8
1
 10
-180.350641
 20
-194.033040
 40
8.625000
 50
250.528777
 51
289.471219
  0
LINE
  8
1
 10
-186.100641
 20
-198.655516
 11
-186.100641
 21
-202.164768
  0
LINE
  8
1
 10
-186.100641
 20
-202.164768
 11
-185.250641
 21
-202.655516
  0
LINE
  8
1
 10
-185.250641
 20
-202.655516
 11
-175.450641
 21
-202.655516
  0
LINE
  8
1
 10
-183.225641
 20
-198.655516
 11
-183.225641
 21
-202.164768
  0
ARC
  8
1
 10
-184.663141
 20
-200.316813
 40
2.341227
 50
232.121121
 51
307.878879
  0
LINE
  8
1
 10
-174.250641
 20
-197.155516
 11
-174.250641
 21
-198.655516
  0
LINE
  8
1
 10
-186.450641
 20
-198.655516
 11
-186.450641
 21
-197.155516
  0
LINE
  8
1
 10
-180.350641
 20
-198.655516
 11
-180.850641
 21
-197.155516
  0
LINE
  8
1
 10
-180.350641
 20
-197.155516
 11
-179.850641
 21
-198.655516
  0
LINE
  8
1
 10
-212.450641
 20
-198.655516
 11
-200.250641
 21
-198.655516
  0
LINE
  8
1
 10
-200.600641
 20
-198.655516
 11
-200.600641
 21
-202.164768
  0
LINE
  8
1
 10
-200.600641
 20
-202.164768
 11
-201.450641
 21
-202.655516
  0
LINE
  8
1
 10
-203.475641
 20
-198.655516
 11
-203.475641
 21
-202.164768
  0
ARC
  8
1
 10
-202.038141
 20
-200.316813
 40
2.341227
 50
232.121121
 51
307.878879
  0
ARC
  8
1
 10
-206.350641
 20
-194.033040
 40
8.625000
 50
250.528777
 51
289.471219
  0
LINE
  8
1
 10
-212.100641
 20
-198.655516
 11
-212.100641
 21
-202.164768
  0
LINE
  8
1
 10
-212.100641
 20
-202.164768
 11
-211.250641
 21
-202.655516
  0
LINE
  8
1
 10
-211.250641
 20
-202.655516
 11
-201.450641
 21
-202.655516
  0
LINE
  8
1
 10
-209.225641
 20
-198.655516
 11
-209.225641
 21
-202.164768
  0
ARC
  8
1
 10
-210.663141
 20
-200.316813
 40
2.341227
 50
232.121121
 51
307.878879
  0
LINE
  8
1
 10
-200.250641
 20
-197.155516
 11
-200.250641
 21
-198.655516
  0
LINE
  8
1
 10
-212.450641
 20
-198.655516
 11
-212.450641
 21
-197.155516
  0
LINE
  8
1
 10
-206.350641
 20
-198.655516
 11
-206.850641
 21
-197.155516
  0
LINE
  8
1
 10
-206.350641
 20
-197.155516
 11
-205.850641
 21
-198.655516
  0
LINE
  8
1
  6
CENTER
 62
2
 10
-180.350641
 20
-187.735361
 11
-180.350641
 21
-206.737818
  0
ARC
  8
1
 10
-172.154489
 20
-194.272887
 40
3.000000
 50
105.000000
 51
180.000000
  0
ARC
  8
1
 10
-214.546794
 20
-194.272887
 40
3.000000
 50
360.000000
 51
75.000000
  0
LINE
  8
1
 10
-212.350641
 20
-195.555516
 11
-174.350641
 21
-195.555516
  0
LINE
  8
1
 10
-212.450641
 20
-197.155516
 11
-174.250641
 21
-197.155516
  0
LINE
  8
1
  6
CENTER
 62
2
 10
-206.350641
 20
-187.735361
 11
-206.350641
 21
-206.737818
  0
LINE
  8
1
 10
71.649359
 20
-198.655516
 11
71.649359
 21
-202.655516
  0
LINE
  8
1
 10
66.649359
 20
-198.655516
 11
66.649359
 21
-202.164768
  0
ARC
  8
1
 10
69.149359
 20
-196.042308
 40
6.613208
 50
247.788205
 51
292.211795
  0
LINE
  8
1
 10
61.649359
 20
-198.655516
 11
61.649359
 21
-202.655516
  0
LINE
  8
1
 10
61.649359
 20
-202.655516
 11
71.649359
 21
-202.655516
  0
ARC
  8
1
 10
64.149359
 20
-196.042308
 40
6.613208
 50
247.788205
 51
292.211795
  0
LINE
  8
1
 10
72.749359
 20
-197.155516
 11
72.749359
 21
-198.655516
  0
LINE
  8
1
 10
72.749359
 20
-198.655516
 11
60.549359
 21
-198.655516
  0
LINE
  8
1
 10
60.549359
 20
-198.655516
 11
60.549359
 21
-197.155516
  0
LINE
  8
1
 10
53.649359
 20
-195.555516
 11
79.649359
 21
-195.555516
  0
LINE
  8
1
 10
53.649359
 20
-197.155516
 11
79.649359
 21
-197.155516
  0
LINE
  8
1
 10
72.005859
 20
-114.399016
 11
72.005859
 21
-112.183084
  0
LINE
  8
1
 10
72.005859
 20
-175.399016
 11
72.005859
 21
-171.112016
  0
LINE
  8
1
 10
61.292859
 20
-175.399016
 11
61.292859
 21
-171.112016
  0
ARC
  8
1
 10
68.169359
 20
-128.751482
 40
3.836500
 50
0.000000
 51
90.000000
  0
ARC
  8
1
 10
65.129359
 20
-128.751482
 40
3.836500
 50
90.000000
 51
180.000000
  0
ARC
  8
1
 10
65.129359
 20
-156.759551
 40
3.836500
 50
180.000000
 51
270.000000
  0
ARC
  8
1
 10
68.169359
 20
-156.759551
 40
3.836500
 50
270.000000
 51
360.000000
  0
LINE
  8
1
 10
65.129359
 20
-160.596051
 11
68.169359
 21
-160.596051
  0
LINE
  8
1
 10
65.129359
 20
-124.914982
 11
68.169359
 21
-124.914982
  0
LINE
  8
1
 10
72.005859
 20
-156.759551
 11
72.005859
 21
-128.751482
  0
LINE
  8
1
 10
61.292859
 20
-156.759551
 11
61.292859
 21
-128.751482
  0
LINE
  8
1
 10
73.427304
 20
-120.167238
 11
72.005859
 21
-124.914982
  0
LINE
  8
1
 10
59.871413
 20
-120.167238
 11
61.292859
 21
-124.914982
  0
LINE
  8
1
 10
72.005859
 20
-160.596051
 11
73.427304
 21
-165.343794
  0
LINE
  8
1
 10
61.292859
 20
-160.596051
 11
59.871413
 21
-165.343794
  0
ARC
  8
1
 10
71.649359
 20
-114.399016
 40
0.356500
 50
270.000000
 51
360.000000
  0
ARC
  8
1
 10
71.649359
 20
-109.826584
 40
2.000000
 50
180.000000
 51
270.000000
  0
ARC
  8
1
 10
61.649359
 20
-109.826584
 40
2.000000
 50
270.000000
 51
0.000000
  0
LINE
  8
1
 10
74.212941
 20
-101.277721
 11
72.005859
 21
-111.826584
  0
LINE
  8
1
 10
59.085776
 20
-101.277721
 11
61.292859
 21
-111.826584
  0
ARC
  8
1
 10
71.649359
 20
-112.183084
 40
0.356500
 50
0.000000
 51
90.000000
  0
ARC
  8
1
 10
61.649359
 20
-112.183084
 40
0.356500
 50
90.000000
 51
180.000000
  0
ARC
  8
1
 10
61.649359
 20
-114.399016
 40
0.356500
 50
180.000000
 51
270.000000
  0
LINE
  8
1
 10
61.292859
 20
-114.399016
 11
61.292859
 21
-112.183084
  0
ARC
  8
1
 10
71.649359
 20
-177.755516
 40
2.000000
 50
90.000000
 51
180.000000
  0
ARC
  8
1
 10
61.649359
 20
-177.755516
 40
2.000000
 50
0.000000
 51
90.000000
  0
LINE
  8
1
 10
74.702474
 20
-179.556978
 11
72.005859
 21
-175.755516
  0
LINE
  8
1
 10
58.596244
 20
-179.556978
 11
61.292859
 21
-175.755516
  0
ARC
  8
1
 10
71.649359
 20
-171.112016
 40
0.356500
 50
0.000000
 51
90.000000
  0
ARC
  8
1
 10
71.649359
 20
-175.399016
 40
0.356500
 50
270.000000
 51
360.000000
  0
ARC
  8
1
 10
61.649359
 20
-175.399016
 40
0.356500
 50
180.000000
 51
270.000000
  0
ARC
  8
1
 10
61.649359
 20
-171.112016
 40
0.356500
 50
90.000000
 51
180.000000
  0
LINE
  8
1
 10
84.949359
 20
-174.255516
 11
84.949359
 21
-111.255516
  0
LINE
  8
1
 10
48.349359
 20
-174.255516
 11
48.349359
 21
-111.255516
  0
LINE
  8
1
 10
84.949359
 20
-111.255516
 11
84.347315
 21
-108.997854
  0
LINE
  8
1
 10
48.349359
 20
-111.255516
 11
48.951402
 21
-108.997854
  0
ARC
  8
1
 10
83.381080
 20
-109.255516
 40
1.000000
 50
14.931417
 51
39.800466
  0
ARC
  8
1
 10
49.917637
 20
-109.255516
 40
1.000000
 50
140.199534
 51
165.068583
  0
LINE
  8
1
 10
84.949359
 20
-174.255516
 11
84.347315
 21
-176.513179
  0
LINE
  8
1
 10
48.349359
 20
-174.255516
 11
48.951402
 21
-176.513179
  0
ARC
  8
1
 10
83.381080
 20
-176.255516
 40
1.000000
 50
320.199534
 51
345.068583
  0
ARC
  8
1
 10
49.917637
 20
-176.255516
 40
1.000000
 50
194.931417
 51
219.800466
  0
LINE
  8
1
 10
-225.799379
 20
-22.755516
 11
-160.901904
 21
-22.755516
  0
LINE
  8
1
 10
-228.350641
 20
-18.755516
 11
-228.350641
 21
-10.755516
  0
LINE
  8
1
 10
-158.350641
 20
-18.755516
 11
-158.350641
 21
-10.755516
  0
LINE
  8
1
 10
-179.350641
 20
-98.892092
 11
-179.350641
 21
-27.755516
  0
LINE
  8
1
 10
-207.350641
 20
-98.892092
 11
-207.350641
 21
-27.755516
  0
ARC
  8
1
 10
-224.350641
 20
-18.755516
 40
4.000000
 50
180.000000
 51
270.000000
  0
ARC
  8
1
 10
-162.350641
 20
-18.755516
 40
4.000000
 50
270.000000
 51
360.000000
  0
ARC
  8
1
 10
-174.350641
 20
-27.755516
 40
5.000000
 50
112.970214
 51
180.000000
  0
ARC
  8
1
 10
-212.350641
 20
-27.755516
 40
5.000000
 50
0.000000
 51
90.000000
  0
CIRCLE
  8
1
 10
-193.350641
 20
-142.755516
 40
40.000000
  0
ARC
  8
1
 10
-217.350641
 20
-98.892092
 40
10.000000
 50
298.685402
 51
360.000000
  0
ARC
  8
1
 10
-169.350641
 20
-98.892092
 40
10.000000
 50
180.000000
 51
241.314598
  0
ARC
  8
1
 10
-161.350641
 20
-40.732777
 40
18.000000
 50
142.585164
 51
180.000000
  0
ARC
  8
1
 10
-225.350641
 20
-40.732777
 40
18.000000
 50
0.000000
 51
87.394749
  0
LINE
  8
1
 10
-190.350641
 20
-40.732777
 11
-196.350641
 21
-40.732777
  0
LINE
  8
1
 10
-196.350641
 20
-38.732777
 11
-196.350641
 21
-24.755516
  0
LINE
  8
1
 10
-190.350641
 20
-38.732777
 11
-190.350641
 21
-24.755516
  0
ARC
  8
1
 10
-188.350641
 20
-24.755516
 40
2.000000
 50
90.000000
 51
180.000000
  0
ARC
  8
1
 10
-198.350641
 20
-24.755516
 40
2.000000
 50
0.000000
 51
90.000000
  0
ARC
  8
1
 10
-198.350641
 20
-38.732777
 40
2.000000
 50
270.000000
 51
360.000000
  0
ARC
  8
1
 10
-188.350641
 20
-38.732777
 40
2.000000
 50
180.000000
 51
270.000000
  0
ARC
  8
1
 10
-193.350641
 20
-152.755516
 40
75.000000
 50
60.464828
 51
73.599314
  0
ARC
  8
1
 10
-193.350641
 20
-152.755516
 40
75.000000
 50
106.400686
 51
119.535172
  0
LINE
  8
1
 10
-232.350641
 20
-91.460567
 11
-232.350641
 21
-90.981735
  0
LINE
  8
1
 10
-154.350641
 20
-91.460567
 11
-154.350641
 21
-90.981735
  0
ARC
  8
1
 10
-217.350641
 20
-71.214116
 40
10.000000
 50
286.400686
 51
360.000000
  0
ARC
  8
1
 10
-169.350641
 20
-71.214116
 40
10.000000
 50
180.000000
 51
253.599314
  0
LINE
  8
1
 10
-159.422359
 20
-96.356468
 11
-161.465825
 21
-97.707114
  0
LINE
  8
1
 10
-165.071245
 20
-102.162712
 11
-166.744945
 21
-106.428709
  0
LINE
  8
1
 10
-221.630038
 20
-102.162712
 11
-219.956337
 21
-106.428709
  0
LINE
  8
1
 10
-227.278924
 20
-96.356468
 11
-225.235457
 21
-97.707114
  0
ARC
  8
1
 10
-159.763069
 20
-109.167944
 40
7.500000
 50
158.578178
 51
225.000000
  0
ARC
  8
1
 10
-226.938213
 20
-109.167944
 40
7.500000
 50
315.000000
 51
21.421822
  0
ARC
  8
1
 10
-156.227535
 20
-105.632410
 40
9.500000
 50
123.463041
 51
158.578178
  0
ARC
  8
1
 10
-154.459768
 20
-103.864643
 40
9.000000
 50
107.415439
 51
123.463041
  0
ARC
  8
1
 10
-230.473747
 20
-105.632410
 40
9.500000
 50
21.421822
 51
56.536959
  0
ARC
  8
1
 10
-232.241514
 20
-103.864643
 40
9.000000
 50
56.536959
 51
72.584561
  0
ARC
  8
1
 10
-158.350641
 20
-91.460567
 40
4.000000
 50
287.415439
 51
360.000000
  0
ARC
  8
1
 10
-228.350641
 20
-91.460567
 40
4.000000
 50
180.000000
 51
252.584561
  0
ARC
  8
1
 10
-228.350641
 20
-90.981735
 40
4.000000
 50
119.535172
 51
180.000000
  0
ARC
  8
1
 10
-158.350641
 20
-90.981735
 40
4.000000
 50
0.000000
 51
60.464828
  0
LINE
  8
1
 10
-212.350641
 20
-194.755516
 11
-174.350641
 21
-194.755516
  0
ARC
  8
1
 10
-169.350641
 20
-180.821249
 40
5.000000
 50
122.230953
 51
180.000000
  0
ARC
  8
1
 10
-217.350641
 20
-180.821249
 40
5.000000
 50
0.000000
 51
57.769047
  0
LINE
  8
1
 10
-209.350641
 20
-191.755516
 11
-177.350641
 21
-191.755516
  0
ARC
  8
1
 10
-177.350641
 20
-188.755516
 40
3.000000
 50
270.000000
 51
360.000000
  0
ARC
  8
1
 10
-209.350641
 20
-188.755516
 40
3.000000
 50
180.000000
 51
270.000000
  0
LINE
  8
1
 10
-172.930946
 20
-191.375110
 11
-165.972388
 21
-189.510570
  0
LINE
  8
1
 10
-213.770337
 20
-191.375110
 11
-220.728895
 21
-189.510570
  0
ARC
  8
1
 10
-171.350641
 20
-194.057497
 40
3.000000
 50
105.000000
 51
180.000000
  0
ARC
  8
1
 10
-215.350641
 20
-194.057497
 40
3.000000
 50
360.000000
 51
75.000000
  0
LINE
  8
1
 10
-166.744945
 20
-179.082323
 11
-165.071245
 21
-183.348320
  0
LINE
  8
1
 10
-219.956337
 20
-179.082323
 11
-221.630038
 21
-183.348320
  0
ARC
  8
1
 10
-159.763069
 20
-176.343088
 40
7.500000
 50
135.000000
 51
201.421822
  0
ARC
  8
1
 10
-226.938213
 20
-176.343088
 40
7.500000
 50
338.578178
 51
45.000000
  0
ARC
  8
1
 10
-156.227535
 20
-179.878622
 40
9.500000
 50
201.421822
 51
210.574239
  0
ARC
  8
1
 10
-230.473747
 20
-179.878622
 40
9.500000
 50
329.425761
 51
338.578178
  0
ARC
  8
1
 10
-167.850641
 20
-186.745456
 40
4.000000
 50
0.000000
 51
30.574239
  0
ARC
  8
1
 10
-218.850641
 20
-186.745456
 40
4.000000
 50
149.425761
 51
180.000000
  0
ARC
  8
1
 10
-166.713298
 20
-186.745456
 40
2.862657
 50
285.000000
 51
360.000000
  0
ARC
  8
1
 10
-219.987985
 20
-186.745456
 40
2.862657
 50
180.000000
 51
255.000000
  0
LINE
  8
1
 10
-174.350641
 20
-197.155516
 11
-174.350641
 21
-194.057497
  0
LINE
  8
1
 10
-174.350641
 20
-188.755516
 11
-174.350641
 21
-180.821249
  0
LINE
  8
1
 10
-212.350641
 20
-197.155516
 11
-212.350641
 21
-194.057497
  0
LINE
  8
1
 10
-212.350641
 20
-188.755516
 11
-212.350641
 21
-180.821249
  0
LINE
  8
1
 10
34.200621
 20
-22.755516
 11
99.098096
 21
-22.755516
  0
LINE
  8
1
 10
31.649359
 20
-18.755516
 11
31.649359
 21
-10.755516
  0
LINE
  8
1
 10
101.649359
 20
-18.755516
 11
101.649359
 21
-10.755516
  0
LINE
  8
1
 10
80.649359
 20
-104.706737
 11
80.649359
 21
-27.755516
  0
LINE
  8
1
 10
52.649359
 20
-104.706737
 11
52.649359
 21
-27.755516
  0
ARC
  8
1
 10
35.649359
 20
-18.755516
 40
4.000000
 50
180.000000
 51
270.000000
  0
ARC
  8
1
 10
97.649359
 20
-18.755516
 40
4.000000
 50
270.000000
 51
360.000000
  0
ARC
  8
1
 10
85.649359
 20
-27.755516
 40
5.000000
 50
90.000000
 51
180.000000
  0
ARC
  8
1
 10
47.649359
 20
-27.755516
 40
5.000000
 50
0.000000
 51
67.029786
  0
ARC
  8
1
 10
98.649359
 20
-40.732777
 40
18.000000
 50
92.605251
 51
180.000000
  0
ARC
  8
1
 10
34.649359
 20
-40.732777
 40
18.000000
 50
0.000000
 51
40.185528
  0
LINE
  8
1
 10
69.649359
 20
-40.732777
 11
63.649359
 21
-40.732777
  0
LINE
  8
1
 10
63.649359
 20
-38.732777
 11
63.649359
 21
-24.755516
  0
LINE
  8
1
 10
69.649359
 20
-38.732777
 11
69.649359
 21
-24.755516
  0
ARC
  8
1
 10
71.649359
 20
-24.755516
 40
2.000000
 50
90.000000
 51
180.000000
  0
ARC
  8
1
 10
61.649359
 20
-24.755516
 40
2.000000
 50
0.000000
 51
90.000000
  0
ARC
  8
1
 10
61.649359
 20
-38.732777
 40
2.000000
 50
270.000000
 51
360.000000
  0
ARC
  8
1
 10
71.649359
 20
-38.732777
 40
2.000000
 50
180.000000
 51
270.000000
  0
LINE
  8
1
 10
49.149359
 20
-181.755516
 11
49.149359
 21
-103.755516
  0
LINE
  8
1
 10
84.149359
 20
-181.755516
 11
84.149359
 21
-103.755516
  0
LINE
  8
1
 10
49.149359
 20
-103.755516
 11
50.149359
 21
-102.755516
  0
LINE
  8
1
 10
84.149359
 20
-103.755516
 11
83.149359
 21
-102.755516
  0
LINE
  8
1
 10
84.149359
 20
-181.755516
 11
83.149359
 21
-182.755516
  0
LINE
  8
1
 10
50.149359
 20
-182.755516
 11
49.149359
 21
-181.755516
  0
LINE
  8
1
 10
83.149359
 20
-102.755516
 11
83.149359
 21
-182.755516
  0
LINE
  8
1
 10
50.149359
 20
-102.755516
 11
50.149359
 21
-182.755516
  0
ARC
  8
1
 10
83.649359
 20
-99.797476
 40
3.000000
 50
180.000000
 51
260.405932
  0
ARC
  8
1
 10
49.649359
 20
-99.797476
 40
3.000000
 50
279.594068
 51
360.000000
  0
ARC
  8
1
 10
83.649359
 20
-104.706737
 40
3.000000
 50
180.000000
 51
260.405932
  0
ARC
  8
1
 10
49.649359
 20
-104.706737
 40
3.000000
 50
279.594068
 51
360.000000
  0
LINE
  8
1
 10
53.649359
 20
-194.755516
 11
79.649359
 21
-194.755516
  0
LINE
  8
1
 10
53.649359
 20
-197.155516
 11
53.649359
 21
-179.591723
  0
LINE
  8
1
 10
79.649359
 20
-197.155516
 11
79.649359
 21
-179.591723
  0
ARC
  8
1
 10
82.649359
 20
-185.755516
 40
3.000000
 50
90.000000
 51
180.000000
  0
ARC
  8
1
 10
50.649359
 20
-185.755516
 40
3.000000
 50
0.000000
 51
90.000000
  0
ARC
  8
1
 10
82.649359
 20
-179.591723
 40
3.000000
 50
90.000000
 51
180.000000
  0
ARC
  8
1
 10
50.649359
 20
-179.591723
 40
3.000000
 50
0.000000
 51
90.000000
  0
LINE
  8
1
 10
50.149359
 20
-182.755516
 11
50.649359
 21
-182.755516
  0
LINE
  8
1
 10
82.649359
 20
-182.755516
 11
83.149359
 21
-182.755516
  0
LINE
  8
1
 10
63.649359
 20
-194.272887
 11
69.649359
 21
-194.272887
  0
LINE
  8
1
 10
63.649359
 20
-191.272887
 11
63.649359
 21
-172.755516
  0
LINE
  8
1
 10
69.649359
 20
-191.272887
 11
69.649359
 21
-172.755516
  0
ARC
  8
1
 10
72.649359
 20
-191.272887
 40
3.000000
 50
180.000000
 51
270.000000
  0
ARC
  8
1
 10
60.649359
 20
-191.272887
 40
3.000000
 50
270.000000
 51
360.000000
  0
LINE
  8
1
 10
63.649359
 20
-71.214116
 11
69.649359
 21
-71.214116
  0
LINE
  8
1
 10
63.649359
 20
-112.755516
 11
63.649359
 21
-74.214116
  0
LINE
  8
1
 10
69.649359
 20
-112.755516
 11
69.649359
 21
-74.214116
  0
ARC
  8
1
 10
72.649359
 20
-74.214116
 40
3.000000
 50
90.000000
 51
180.000000
  0
ARC
  8
1
 10
60.649359
 20
-74.214116
 40
3.000000
 50
0.000000
 51
90.000000
  0
LINE
  8
1
 10
65.649359
 20
-87.501522
 11
67.649359
 21
-87.501522
  0
LINE
  8
1
 10
65.649359
 20
-95.277206
 11
67.649359
 21
-95.277206
  0
ARC
  8
1
 10
67.649359
 20
-89.501522
 40
2.000000
 50
0.000000
 51
90.000000
  0
ARC
  8
1
 10
67.649359
 20
-93.277206
 40
2.000000
 50
270.000000
 51
360.000000
  0
ARC
  8
1
 10
65.649359
 20
-89.501522
 40
2.000000
 50
90.000000
 51
180.000000
  0
ARC
  8
1
 10
65.649359
 20
-93.277206
 40
2.000000
 50
180.000000
 51
270.000000
  0
LINE
  8
1
 10
65.649359
 20
-189.510570
 11
67.649359
 21
-189.510570
  0
ARC
  8
1
 10
67.649359
 20
-187.510570
 40
2.000000
 50
270.000000
 51
360.000000
  0
ARC
  8
1
 10
65.649359
 20
-187.510570
 40
2.000000
 50
180.000000
 51
270.000000
  0
LINE
  8
1
 10
64.149359
 20
-117.755516
 11
69.149359
 21
-117.755516
  0
LINE
  8
1
 10
64.149359
 20
-167.755516
 11
69.149359
 21
-167.755516
  0
LINE
  8
1
 10
63.649359
 20
-114.755516
 11
69.649359
 21
-114.755516
  0
LINE
  8
1
 10
63.649359
 20
-170.755516
 11
69.649359
 21
-170.755516
  0
LINE
  8
1
 10
59.149359
 20
-162.755516
 11
59.149359
 21
-122.755516
  0
LINE
  8
1
 10
74.149359
 20
-162.755516
 11
74.149359
 21
-122.755516
  0
ARC
  8
1
 10
69.149359
 20
-122.755516
 40
5.000000
 50
0.000000
 51
90.000000
  0
ARC
  8
1
 10
64.149359
 20
-122.755516
 40
5.000000
 50
90.000000
 51
180.000000
  0
ARC
  8
1
 10
64.149359
 20
-162.755516
 40
5.000000
 50
180.000000
 51
270.000000
  0
ARC
  8
1
 10
69.149359
 20
-162.755516
 40
5.000000
 50
270.000000
 51
360.000000
  0
LINE
  8
1
 10
74.149359
 20
-177.821249
 11
74.149359
 21
-173.255516
  0
LINE
  8
1
 10
74.149359
 20
-112.255516
 11
74.149359
 21
-101.892092
  0
LINE
  8
1
 10
59.149359
 20
-177.821249
 11
59.149359
 21
-173.255516
  0
LINE
  8
1
 10
59.149359
 20
-112.255516
 11
59.149359
 21
-101.892092
  0
ARC
  8
1
 10
71.649359
 20
-112.755516
 40
2.000000
 50
180.000000
 51
270.000000
  0
ARC
  8
1
 10
61.649359
 20
-112.755516
 40
2.000000
 50
270.000000
 51
360.000000
  0
ARC
  8
1
 10
71.649359
 20
-112.255516
 40
2.500000
 50
270.000000
 51
360.000000
  0
ARC
  8
1
 10
61.649359
 20
-112.255516
 40
2.500000
 50
180.000000
 51
270.000000
  0
ARC
  8
1
 10
71.649359
 20
-173.255516
 40
2.500000
 50
0.000000
 51
90.000000
  0
ARC
  8
1
 10
61.649359
 20
-173.255516
 40
2.500000
 50
90.000000
 51
180.000000
  0
ARC
  8
1
 10
71.649359
 20
-172.755516
 40
2.000000
 50
90.000000
 51
180.000000
  0
ARC
  8
1
 10
61.649359
 20
-172.755516
 40
2.000000
 50
0.000000
 51
90.000000
  0
LINE
  8
1
 10
52.649359
 20
-107.664777
 11
56.149359
 21
-107.664777
  0
LINE
  8
1
 10
77.149359
 20
-107.664777
 11
80.649359
 21
-107.664777
  0
LINE
  8
1
 10
53.649359
 20
-176.591723
 11
56.149359
 21
-176.591723
  0
LINE
  8
1
 10
77.149359
 20
-176.591723
 11
79.649359
 21
-176.591723
  0
ARC
  8
1
 10
77.149359
 20
-173.591723
 40
3.000000
 50
180.000000
 51
270.000000
  0
ARC
  8
1
 10
56.149359
 20
-173.591723
 40
3.000000
 50
270.000000
 51
360.000000
  0
ARC
  8
1
 10
77.149359
 20
-177.821249
 40
3.000000
 50
180.000000
 51
270.000000
  0
ARC
  8
1
 10
56.149359
 20
-177.821249
 40
3.000000
 50
270.000000
 51
360.000000
  0
ARC
  8
1
 10
77.149359
 20
-101.892092
 40
3.000000
 50
90.000000
 51
180.000000
  0
ARC
  8
1
 10
56.149359
 20
-101.892092
 40
3.000000
 50
0.000000
 51
90.000000
  0
ARC
  8
1
 10
56.149359
 20
-110.664777
 40
3.000000
 50
0.000000
 51
90.000000
  0
ARC
  8
1
 10
77.149359
 20
-110.664777
 40
3.000000
 50
90.000000
 51
180.000000
  0
LINE
  8
1
 10
-154.350641
 20
157.742823
 11
-158.350641
 21
157.742823
  0
LINE
  8
1
 10
-154.350641
 20
122.742823
 11
-158.350641
 21
122.742823
  0
LINE
  8
1
 10
-153.350641
 20
156.742823
 11
-154.350641
 21
157.742823
  0
LINE
  8
1
 10
-153.350641
 20
123.742823
 11
-154.350641
 21
122.742823
  0
LINE
  8
1
 10
-153.350641
 20
156.742823
 11
-158.350641
 21
156.742823
  0
LINE
  8
1
 10
-153.350641
 20
123.742823
 11
-158.350641
 21
123.742823
  0
LINE
  8
1
 10
-155.144361
 20
147.742823
 11
-158.350641
 21
147.742823
  0
LINE
  8
1
 10
-155.144361
 20
132.742823
 11
-158.350641
 21
132.742823
  0
LINE
  8
1
 10
-153.350641
 20
123.742823
 11
-153.350641
 21
128.906188
  0
LINE
  8
1
 10
-153.350641
 20
151.579457
 11
-153.350641
 21
156.742823
  0
LINE
  8
1
 10
-157.056546
 20
146.749828
 11
-157.644736
 21
146.592223
  0
LINE
  8
1
 10
-157.056546
 20
133.735817
 11
-157.644736
 21
133.893422
  0
ARC
  8
1
 10
-158.350641
 20
151.579457
 40
5.000000
 50
285.000000
 51
0.000000
  0
ARC
  8
1
 10
-158.350641
 20
128.906188
 40
5.000000
 50
0.000000
 51
75.000000
  0
ARC
  8
1
 10
-156.350641
 20
138.723051
 40
5.000000
 50
246.421822
 51
255.000000
  0
ARC
  8
1
 10
-156.350641
 20
141.762594
 40
5.000000
 50
105.000000
 51
113.578178
  0
CIRCLE
  8
1
 10
-193.350641
 20
-142.755516
 40
39.000000
  0
LINE
  8
1
 10
-154.350641
 20
139.242823
 11
-154.350641
 21
141.242823
  0
LINE
  8
1
 10
-156.350641
 20
143.242823
 11
-158.350641
 21
143.242823
  0
LINE
  8
1
 10
-156.350641
 20
137.242823
 11
-158.350641
 21
137.242823
  0
ARC
  8
1
 10
-156.350641
 20
141.242823
 40
2.000000
 50
0.000000
 51
90.000000
  0
ARC
  8
1
 10
-156.350641
 20
139.242823
 40
2.000000
 50
270.000000
 51
360.000000
  0
LINE
  8
1
 10
-232.350641
 20
157.742823
 11
-228.350641
 21
157.742823
  0
LINE
  8
1
 10
-232.350641
 20
122.742823
 11
-228.350641
 21
122.742823
  0
LINE
  8
1
 10
-233.350641
 20
156.742823
 11
-232.350641
 21
157.742823
  0
LINE
  8
1
 10
-233.350641
 20
123.742823
 11
-232.350641
 21
122.742823
  0
LINE
  8
1
 10
-233.350641
 20
156.742823
 11
-228.350641
 21
156.742823
  0
LINE
  8
1
 10
-233.350641
 20
123.742823
 11
-228.350641
 21
123.742823
  0
LINE
  8
1
 10
-231.556921
 20
147.742823
 11
-228.350641
 21
147.742823
  0
LINE
  8
1
 10
-231.556921
 20
132.742823
 11
-228.350641
 21
132.742823
  0
LINE
  8
1
 10
-233.350641
 20
123.742823
 11
-233.350641
 21
128.906188
  0
LINE
  8
1
 10
-233.350641
 20
151.579457
 11
-233.350641
 21
156.742823
  0
LINE
  8
1
 10
-229.644736
 20
146.749828
 11
-229.056546
 21
146.592223
  0
LINE
  8
1
 10
-229.644736
 20
133.735817
 11
-229.056546
 21
133.893422
  0
ARC
  8
1
 10
-228.350641
 20
151.579457
 40
5.000000
 50
180.000000
 51
255.000000
  0
ARC
  8
1
 10
-228.350641
 20
128.906188
 40
5.000000
 50
105.000000
 51
180.000000
  0
ARC
  8
1
 10
-230.350641
 20
138.723051
 40
5.000000
 50
285.000000
 51
293.578178
  0
ARC
  8
1
 10
-230.350641
 20
141.762594
 40
5.000000
 50
66.421822
 51
75.000000
  0
LINE
  8
1
 10
-232.350641
 20
139.242823
 11
-232.350641
 21
141.242823
  0
LINE
  8
1
 10
-230.350641
 20
143.242823
 11
-228.350641
 21
143.242823
  0
LINE
  8
1
 10
-230.350641
 20
137.242823
 11
-228.350641
 21
137.242823
  0
ARC
  8
1
 10
-230.350641
 20
141.242823
 40
2.000000
 50
90.000000
 51
180.000000
  0
ARC
  8
1
 10
-230.350641
 20
139.242823
 40
2.000000
 50
180.000000
 51
270.000000
  0
ARC
  8
1
 10
-193.350641
 20
-142.755516
 40
18.847539
 50
129.545285
 51
230.454715
  0
ARC
  8
1
 10
-193.350641
 20
-142.755516
 40
18.847539
 50
309.545285
 51
50.454715
  0
ARC
  8
1
 10
-190.666365
 20
-156.857658
 40
8.000000
 50
336.328807
 51
341.536959
  0
ARC
  8
1
 10
-196.034918
 20
-156.857658
 40
8.000000
 50
198.463041
 51
203.671193
  0
LINE
  8
1
 10
-184.423724
 20
-155.843046
 11
-188.704163
 21
-153.371734
  0
LINE
  8
1
 10
-202.277558
 20
-155.843046
 11
-197.997120
 21
-153.371734
  0
ARC
  8
1
 10
-193.350641
 20
-161.419671
 40
9.292957
 50
60.000000
 51
120.000000
  0
ARC
  8
1
 10
-185.923724
 20
-158.441123
 40
3.000000
 50
341.536959
 51
60.000000
  0
ARC
  8
1
 10
-200.777558
 20
-158.441123
 40
3.000000
 50
120.000000
 51
198.463041
  0
LINE
  8
1
 10
-184.423724
 20
-156.745059
 11
-202.277558
 21
-156.745059
  0
LINE
  8
1
 10
-183.078140
 20
-159.239966
 11
-203.623143
 21
-159.239966
  0
LINE
  8
1
 10
-183.193685
 20
-128.653374
 11
-203.507597
 21
-128.653374
  0
ARC
  8
1
 10
-190.666365
 20
-128.653374
 40
8.000000
 50
21.457743
 51
23.671193
  0
ARC
  8
1
 10
-196.034918
 20
-128.653374
 40
8.000000
 50
156.328807
 51
158.542257
  0
LINE
  8
1
 10
-184.287635
 20
-132.935643
 11
-202.413648
 21
-132.935643
  0
LINE
  8
1
 10
-184.287635
 20
-134.033423
 11
-184.287635
 21
-137.211393
  0
LINE
  8
1
 10
-202.413648
 20
-134.033423
 11
-202.413648
 21
-137.211393
  0
LINE
  8
1
 10
-183.193685
 20
-130.046188
 11
-183.898939
 21
-131.908980
  0
LINE
  8
1
 10
-203.507597
 20
-130.046188
 11
-202.802343
 21
-131.908980
  0
ARC
  8
1
 10
-178.287635
 20
-134.033423
 40
6.000000
 50
159.263303
 51
180.000000
  0
ARC
  8
1
 10
-197.896293
 20
-127.921744
 40
6.000000
 50
158.542257
 51
200.736697
  0
ARC
  8
1
 10
-208.413648
 20
-134.033423
 40
6.000000
 50
0.000000
 51
20.736697
  0
LINE
  8
1
 10
-185.339916
 20
-140.605516
 11
-201.361367
 21
-140.605516
  0
ARC
  8
1
 10
-193.350641
 20
-129.259835
 40
14.521108
 50
248.932898
 51
291.067102
  0
ARC
  8
1
 10
-190.287635
 20
-137.211393
 40
6.000000
 50
291.067102
 51
360.000000
  0
ARC
  8
1
 10
-196.413648
 20
-137.211393
 40
6.000000
 50
180.000000
 51
248.932898
  0
LINE
  8
1
 10
-185.350641
 20
-124.425213
 11
-201.350641
 21
-124.425213
  0
ARC
  8
1
 10
-188.804990
 20
-127.921744
 40
6.000000
 50
339.263303
 51
21.457743
  0
ARC
  8
1
 10
-193.350641
 20
-142.755516
 40
20.000000
 50
113.578178
 51
246.421822
  0
ARC
  8
1
 10
-193.350641
 20
-142.755516
 40
20.000000
 50
293.578178
 51
66.421822
  0
LINE
  8
1
 10
-201.350641
 20
-161.085819
 11
-185.350641
 21
-161.085819
  0
CIRCLE
  8
1
 10
-193.350641
 20
-142.755516
 40
34.500000
  0
CIRCLE
  8
1
 10
-193.350641
 20
-142.755516
 40
31.500000
  0
CIRCLE
  8
1
 10
-193.350641
 20
-142.755516
 40
25.000000
  0
CIRCLE
  8
1
 10
-193.350641
 20
-142.755516
 40
22.550000
  0
ARC
  8
1
 10
76.649359
 20
-188.755516
 40
3.000000
 50
270.000000
 51
360.000000
  0
ARC
  8
1
 10
56.649359
 20
-188.755516
 40
3.000000
 50
180.000000
 51
270.000000
  0
LINE
  8
1
 10
56.649359
 20
-191.755516
 11
60.649359
 21
-191.755516
  0
LINE
  8
1
 10
72.649359
 20
-191.755516
 11
76.649359
 21
-191.755516
  0
ARC
  8
1
 10
72.649359
 20
-188.755516
 40
3.000000
 50
180.000000
 51
270.000000
  0
ARC
  8
1
 10
60.649359
 20
-188.755516
 40
3.000000
 50
270.000000
 51
360.000000
  0
LINE
  8
2
  6
CENTER
 62
2
 10
-168.601904
 20
-36.359936
 11
-168.601904
 21
-2.963518
  0
LINE
  8
2
  6
CENTER
 62
2
 10
41.900621
 20
-36.359936
 11
41.900621
 21
-2.963518
  0
LINE
  8
2
 10
-176.101904
 20
-24.755516
 11
-176.101904
 21
-29.533828
  0
LINE
  8
2
 10
-176.101904
 20
-29.533828
 11
-174.851904
 21
-30.255516
  0
LINE
  8
2
 10
-172.351904
 20
-24.755516
 11
-172.351904
 21
-29.533828
  0
ARC
  8
2
 10
-174.226904
 20
-27.123452
 40
3.053774
 50
232.121121
 51
307.878879
  0
ARC
  8
2
 10
-168.601904
 20
-18.927227
 40
11.250000
 50
250.528781
 51
289.471223
  0
LINE
  8
2
 10
-161.101904
 20
-24.755516
 11
-161.101904
 21
-29.533828
  0
LINE
  8
2
 10
-161.101904
 20
-29.533828
 11
-162.351904
 21
-30.255516
  0
LINE
  8
2
 10
-162.351904
 20
-30.255516
 11
-174.851904
 21
-30.255516
  0
LINE
  8
2
 10
-164.851904
 20
-24.755516
 11
-164.851904
 21
-29.533828
  0
ARC
  8
2
 10
-162.976904
 20
-27.123452
 40
3.053774
 50
232.121121
 51
307.878879
  0
LINE
  8
2
 10
-176.301904
 20
-22.755516
 11
-176.301904
 21
-24.755516
  0
LINE
  8
2
 10
-176.301904
 20
-24.755516
 11
-160.901904
 21
-24.755516
  0
LINE
  8
2
 10
-160.901904
 20
-24.755516
 11
-160.901904
 21
-22.755516
  0
LINE
  8
2
 10
-168.601904
 20
-24.755516
 11
-168.101904
 21
-22.755516
  0
LINE
  8
2
 10
-168.601904
 20
-22.755516
 11
-169.101904
 21
-24.755516
  0
LINE
  8
2
 10
34.200621
 20
-22.755516
 11
34.200621
 21
-24.755516
  0
LINE
  8
2
 10
34.200621
 20
-24.755516
 11
49.600621
 21
-24.755516
  0
LINE
  8
2
 10
49.600621
 20
-24.755516
 11
49.600621
 21
-22.755516
  0
LINE
  8
2
 10
35.400621
 20
-24.755516
 11
35.400621
 21
-30.255516
  0
LINE
  8
2
 10
41.900621
 20
-24.755516
 11
41.900621
 21
-29.533828
  0
ARC
  8
2
 10
38.650621
 20
-22.576758
 40
7.678759
 50
244.960340
 51
295.039660
  0
LINE
  8
2
 10
48.400621
 20
-24.755516
 11
48.400621
 21
-30.255516
  0
LINE
  8
2
 10
48.400621
 20
-30.255516
 11
35.400621
 21
-30.255516
  0
ARC
  8
2
 10
45.150621
 20
-22.576758
 40
7.678759
 50
244.960340
 51
295.039660
  0
CIRCLE
  8
2
 10
-193.350641
 20
140.242823
 40
11.000000
  0
CIRCLE
  8
2
 10
-193.350641
 20
140.242823
 40
10.000000
  0
ARC
  8
2
 10
-193.350641
 20
140.242823
 40
18.000000
 50
16.127620
 51
73.872380
  0
ARC
  8
2
 10
-193.350641
 20
140.242823
 40
18.000000
 50
106.127620
 51
343.872380
  0
LINE
  8
2
 10
-198.350641
 20
157.534439
 11
-198.350641
 21
166.242823
  0
LINE
  8
2
 10
-188.350641
 20
157.534439
 11
-188.350641
 21
166.242823
  0
LINE
  8
2
 10
-176.059025
 20
145.242823
 11
-167.350641
 21
145.242823
  0
LINE
  8
2
 10
-176.059025
 20
135.242823
 11
-167.350641
 21
135.242823
  0
LINE
  8
2
 10
-196.350641
 20
168.242823
 11
-190.350641
 21
168.242823
  0
LINE
  8
2
 10
-165.350641
 20
137.242823
 11
-165.350641
 21
143.242823
  0
ARC
  8
2
 10
-167.350641
 20
143.242823
 40
2.000000
 50
0.000000
 51
90.000000
  0
ARC
  8
2
 10
-167.350641
 20
137.242823
 40
2.000000
 50
270.000000
 51
360.000000
  0
ARC
  8
2
 10
-190.350641
 20
166.242823
 40
2.000000
 50
0.000000
 51
90.000000
  0
ARC
  8
2
 10
-196.350641
 20
166.242823
 40
2.000000
 50
90.000000
 51
180.000000
  0
ARC
  8
2
 10
-193.350641
 20
140.242823
 40
18.000000
 50
88.314587
 51
91.685413
  0
ARC
  8
2
 10
-193.350641
 20
140.242823
 40
18.000000
 50
358.314587
 51
1.685413
  0
LINE
  8
2
 10
-183.033987
 20
147.353846
 11
-180.434233
 21
148.854815
  0
LINE
  8
2
 10
-182.033987
 20
145.621795
 11
-179.434233
 21
147.122764
  0
LINE
  8
2
 10
-187.971669
 20
151.559476
 11
-186.470700
 21
154.159230
  0
LINE
  8
2
 10
-186.239618
 20
150.559476
 11
-184.738649
 21
153.159230
  0
ARC
  8
2
 10
-193.350641
 20
140.242823
 40
16.000000
 50
58.151428
 51
61.848572
  0
ARC
  8
2
 10
-193.350641
 20
140.242823
 40
16.000000
 50
28.151428
 51
31.848572
  0
ARC
  8
2
 10
-193.350641
 20
140.242823
 40
12.000000
 50
357.795772
 51
2.204228
  0
ARC
  8
2
 10
-193.350641
 20
140.242823
 40
12.000000
 50
27.707557
 51
32.292443
  0
ARC
  8
2
 10
-193.350641
 20
140.242823
 40
12.000000
 50
57.707557
 51
62.292443
  0
ARC
  8
2
 10
-193.350641
 20
140.242823
 40
12.000000
 50
87.795772
 51
92.204228
  0
LINE
  8
2
 10
-194.850641
 20
153.233204
 11
-194.850641
 21
157.235468
  0
LINE
  8
2
 10
-191.850641
 20
153.233204
 11
-191.850641
 21
157.235468
  0
LINE
  8
2
 10
-180.360260
 20
141.742823
 11
-176.357996
 21
141.742823
  0
LINE
  8
2
 10
-180.360260
 20
138.742823
 11
-176.357996
 21
138.742823
  0
ARC
  8
2
 10
-180.360260
 20
140.742823
 40
1.000000
 50
90.000000
 51
182.204228
  0
ARC
  8
2
 10
-180.360260
 20
139.742823
 40
1.000000
 50
177.795772
 51
270.000000
  0
ARC
  8
2
 10
-176.357996
 20
139.742823
 40
1.000000
 50
270.000000
 51
358.314587
  0
ARC
  8
2
 10
-176.357996
 20
140.742823
 40
1.000000
 50
1.685413
 51
90.000000
  0
ARC
  8
2
 10
-192.850641
 20
157.235468
 40
1.000000
 50
0.000000
 51
88.314587
  0
ARC
  8
2
 10
-193.850641
 20
157.235468
 40
1.000000
 50
91.685413
 51
180.000000
  0
ARC
  8
2
 10
-193.850641
 20
153.233204
 40
1.000000
 50
180.000000
 51
272.204228
  0
ARC
  8
2
 10
-192.850641
 20
153.233204
 40
1.000000
 50
267.795772
 51
360.000000
  0
ARC
  8
2
 10
-182.283987
 20
146.054808
 40
0.500000
 50
207.707557
 51
300.000000
  0
ARC
  8
2
 10
-182.783987
 20
146.920833
 40
0.500000
 50
120.000000
 51
212.292443
  0
ARC
  8
2
 10
-179.684233
 20
147.555777
 40
0.500000
 50
300.000000
 51
28.151428
  0
ARC
  8
2
 10
-180.184233
 20
148.421802
 40
0.500000
 50
31.848572
 51
120.000000
  0
ARC
  8
2
 10
-186.672631
 20
150.809476
 40
0.500000
 50
237.707557
 51
330.000000
  0
ARC
  8
2
 10
-187.538656
 20
151.309476
 40
0.500000
 50
150.000000
 51
242.292443
  0
ARC
  8
2
 10
-186.037687
 20
153.909230
 40
0.500000
 50
61.848572
 51
150.000000
  0
ARC
  8
2
 10
-185.171662
 20
153.409230
 40
0.500000
 50
330.000000
 51
58.151428
  0
ARC
  8
2
 10
-193.350641
 20
140.242823
 40
17.000000
 50
13.608961
 51
76.391039
  0
ARC
  8
2
 10
-193.350641
 20
140.242823
 40
17.000000
 50
103.608961
 51
346.391039
  0
LINE
  8
2
 10
-189.350641
 20
156.765534
 11
-189.350641
 21
166.242823
  0
LINE
  8
2
 10
-196.350641
 20
167.242823
 11
-190.350641
 21
167.242823
  0
LINE
  8
2
 10
-197.350641
 20
156.765534
 11
-197.350641
 21
166.242823
  0
LINE
  8
2
 10
-176.827930
 20
144.242823
 11
-167.350641
 21
144.242823
  0
LINE
  8
2
 10
-166.350641
 20
137.242823
 11
-166.350641
 21
143.242823
  0
LINE
  8
2
 10
-176.827930
 20
136.242823
 11
-167.350641
 21
136.242823
  0
ARC
  8
2
 10
-167.350641
 20
143.242823
 40
1.000000
 50
0.000000
 51
90.000000
  0
ARC
  8
2
 10
-167.350641
 20
137.242823
 40
1.000000
 50
270.000000
 51
0.000000
  0
ARC
  8
2
 10
-190.350641
 20
166.242823
 40
1.000000
 50
0.000000
 51
90.000000
  0
ARC
  8
2
 10
-196.350641
 20
166.242823
 40
1.000000
 50
90.000000
 51
180.000000
  0
LINE
  8
2
 10
-188.350641
 20
157.534439
 11
-189.350641
 21
156.765534
  0
LINE
  8
2
 10
-197.350641
 20
156.765534
 11
-198.350641
 21
157.534439
  0
LINE
  8
2
 10
-176.827930
 20
144.242823
 11
-176.059025
 21
145.242823
  0
LINE
  8
2
 10
-176.827930
 20
136.242823
 11
-176.059025
 21
135.242823
  0
LINE
  8
2
 10
-202.515793
 20
144.242823
 11
-189.007971
 21
144.242823
  0
LINE
  8
2
 10
-202.515793
 20
136.242823
 11
-189.007971
 21
136.242823
  0
LINE
  8
2
 10
-183.378806
 20
139.492823
 11
-189.007971
 21
136.242823
  0
LINE
  8
2
 10
-183.378806
 20
140.992823
 11
-189.007971
 21
144.242823
  0
LINE
  8
2
 10
-202.091276
 20
143.992823
 11
-189.496862
 21
143.992823
  0
LINE
  8
2
 10
-202.091276
 20
136.492823
 11
-189.496862
 21
136.492823
  0
ARC
  8
2
 10
-193.350641
 20
140.242823
 40
9.511109
 50
156.779186
 51
203.220814
  0
ARC
  8
2
 10
-193.350641
 20
140.242823
 40
9.511109
 50
356.952608
 51
3.047392
  0
LINE
  8
2
 10
-202.091276
 20
143.992823
 11
-202.515793
 21
144.242823
  0
LINE
  8
2
 10
-202.091276
 20
136.492823
 11
-202.515793
 21
136.242823
  0
LINE
  8
2
 10
-189.496862
 20
143.992823
 11
-183.852982
 21
140.748452
  0
LINE
  8
2
 10
-183.852982
 20
139.737193
 11
-189.496862
 21
136.492823
  0
LINE
  8
2
 10
-183.852982
 20
140.748452
 11
-183.378806
 21
140.992823
  0
LINE
  8
2
 10
-183.852982
 20
139.737193
 11
-183.378806
 21
139.492823
  0
LINE
  8
2
 10
-189.496862
 20
136.492823
 11
-189.007971
 21
136.242823
  0
LINE
  8
2
 10
-189.496862
 20
143.992823
 11
-189.007971
 21
144.242823
  0
LINE
  8
2
  6
CENTER
 62
2
 10
-181.473308
 20
152.120156
 11
-172.092170
 21
161.501294
  0
LINE
  8
2
  6
CENTER
 62
2
 10
-205.227974
 20
152.120156
 11
-214.609112
 21
161.501294
  0
LINE
  8
2
  6
CENTER
 62
2
 10
-205.227974
 20
128.365489
 11
-214.609112
 21
118.984352
  0
ARC
  8
2
 10
-199.541849
 20
172.685162
 40
1.942340
 50
270.000000
 51
360.000000
  0
ARC
  8
2
 10
-201.571594
 20
174.442980
 40
1.942340
 50
90.000000
 51
180.000000
  0
ARC
  8
2
 10
-200.707253
 20
172.665739
 40
0.971170
 50
180.000000
 51
270.000000
  0
ARC
  8
2
 10
-200.406190
 20
174.462403
 40
0.971170
 50
0.000000
 51
90.000000
  0
LINE
  8
2
 10
-194.948216
 20
175.433573
 11
-195.152161
 21
170.742823
  0
LINE
  8
2
 10
-191.753067
 20
175.433573
 11
-191.549121
 21
170.742823
  0
LINE
  8
2
 10
-194.948216
 20
175.433573
 11
-194.074163
 21
170.742823
  0
LINE
  8
2
 10
-193.350641
 20
173.005648
 11
-192.720889
 21
176.385319
  0
LINE
  8
2
 10
-196.579781
 20
176.385319
 11
-193.980394
 21
176.385319
  0
LINE
  8
2
 10
-194.074163
 20
170.742823
 11
-192.627120
 21
170.742823
  0
ARC
  8
2
 10
-185.129688
 20
172.685162
 40
1.942340
 50
270.000000
 51
360.000000
  0
ARC
  8
2
 10
-185.994030
 20
172.665739
 40
0.971170
 50
270.000000
 51
360.000000
  0
LINE
  8
2
 10
-187.266262
 20
174.462403
 11
-187.266262
 21
172.665739
  0
ARC
  8
2
 10
-187.159433
 20
174.442980
 40
1.942340
 50
90.000000
 51
180.000000
  0
LINE
  8
2
 10
-189.101773
 20
174.442980
 11
-189.101773
 21
172.685162
  0
LINE
  8
2
 10
-191.549121
 20
170.742823
 11
-189.713610
 21
170.742823
  0
LINE
  8
2
 10
-182.371566
 20
170.878786
 11
-177.952743
 21
170.878786
  0
LINE
  8
2
 10
-180.536055
 20
173.054207
 11
-177.952743
 21
173.054207
  0
LINE
  8
2
 10
-180.536055
 20
174.073935
 11
-177.952743
 21
174.073935
  0
LINE
  8
2
 10
-180.536055
 20
171.898515
 11
-180.536055
 21
173.054207
  0
LINE
  8
2
 10
-180.536055
 20
174.073935
 11
-180.536055
 21
175.229627
  0
LINE
  8
2
 10
-206.573119
 20
175.229627
 11
-204.737608
 21
175.229627
  0
LINE
  8
2
 10
-208.952485
 20
174.073935
 11
-201.814387
 21
177.541011
  0
LINE
  8
2
 10
-208.952485
 20
174.073935
 11
-208.952485
 21
177.541011
  0
LINE
  8
2
 10
-204.737608
 20
175.229627
 11
-204.737608
 21
170.742823
  0
LINE
  8
2
 10
-203.513934
 20
174.442980
 11
-203.513934
 21
172.685162
  0
LINE
  8
2
 10
-197.599509
 20
174.442980
 11
-197.599509
 21
172.685162
  0
LINE
  8
2
 10
-201.678423
 20
174.462403
 11
-201.678423
 21
172.665739
  0
LINE
  8
2
 10
-199.435020
 20
174.462403
 11
-199.435020
 21
172.665739
  0
ARC
  8
2
 10
-201.571594
 20
172.685162
 40
1.942340
 50
180.000000
 51
270.000000
  0
ARC
  8
2
 10
-199.541849
 20
174.442980
 40
1.942340
 50
360.000000
 51
90.000000
  0
ARC
  8
2
 10
-200.406190
 20
172.665739
 40
0.971170
 50
270.000000
 51
360.000000
  0
ARC
  8
2
 10
-200.707253
 20
174.462403
 40
0.971170
 50
90.000000
 51
180.000000
  0
LINE
  8
2
 10
-206.573119
 20
170.742823
 11
-204.737608
 21
170.742823
  0
LINE
  8
2
 10
-196.579781
 20
176.385319
 11
-196.987672
 21
170.742823
  0
LINE
  8
2
 10
-190.121501
 20
176.385319
 11
-189.713610
 21
170.742823
  0
LINE
  8
2
 10
-191.753067
 20
175.433573
 11
-192.627120
 21
170.742823
  0
LINE
  8
2
 10
-193.350641
 20
173.005648
 11
-193.980394
 21
176.385319
  0
LINE
  8
2
 10
-201.571594
 20
176.385319
 11
-199.541849
 21
176.385319
  0
LINE
  8
2
 10
-201.571594
 20
170.742823
 11
-199.541849
 21
170.742823
  0
LINE
  8
2
 10
-196.987672
 20
170.742823
 11
-195.152161
 21
170.742823
  0
ARC
  8
2
 10
-187.159433
 20
172.685162
 40
1.942340
 50
180.000000
 51
270.000000
  0
LINE
  8
2
 10
-185.022860
 20
174.462403
 11
-185.022860
 21
172.665739
  0
ARC
  8
2
 10
-186.295092
 20
172.665739
 40
0.971170
 50
180.000000
 51
270.000000
  0
ARC
  8
2
 10
-185.994030
 20
174.462403
 40
0.971170
 50
0.000000
 51
90.000000
  0
ARC
  8
2
 10
-186.295092
 20
174.462403
 40
0.971170
 50
90.000000
 51
180.000000
  0
ARC
  8
2
 10
-185.129688
 20
174.442980
 40
1.942340
 50
360.000000
 51
90.000000
  0
LINE
  8
2
 10
-183.187349
 20
174.442980
 11
-183.187349
 21
172.685162
  0
LINE
  8
2
 10
-200.406190
 20
175.433573
 11
-200.707253
 21
175.433573
  0
LINE
  8
2
 10
-200.406190
 20
171.694569
 11
-200.707253
 21
171.694569
  0
LINE
  8
2
 10
-186.295092
 20
175.433573
 11
-185.994030
 21
175.433573
  0
LINE
  8
2
 10
-192.720889
 20
176.385319
 11
-190.121501
 21
176.385319
  0
LINE
  8
2
 10
-187.159433
 20
176.385319
 11
-185.129688
 21
176.385319
  0
LINE
  8
2
 10
-187.159433
 20
170.742823
 11
-185.129688
 21
170.742823
  0
LINE
  8
2
 10
-182.371566
 20
176.249356
 11
-182.371566
 21
170.878786
  0
LINE
  8
2
 10
-182.371566
 20
176.249356
 11
-177.952743
 21
176.249356
  0
LINE
  8
2
 10
-180.536055
 20
171.898515
 11
-177.952743
 21
171.898515
  0
LINE
  8
2
 10
-180.536055
 20
175.229627
 11
-177.952743
 21
175.229627
  0
LINE
  8
2
 10
-177.952743
 20
175.229627
 11
-177.952743
 21
176.249356
  0
LINE
  8
2
 10
-177.952743
 20
170.878786
 11
-177.952743
 21
171.898515
  0
LINE
  8
2
 10
-177.952743
 20
173.054207
 11
-177.952743
 21
174.073935
  0
LINE
  8
2
 10
-206.573119
 20
175.229627
 11
-206.573119
 21
170.742823
  0
LINE
  8
2
 10
-208.952485
 20
177.541011
 11
-201.814387
 21
177.541011
  0
LINE
  8
2
 10
-186.295092
 20
171.694569
 11
-185.994030
 21
171.694569
  0
LINE
  8
2
 10
-110.350641
 20
198.058521
 11
-110.350641
 21
138.427124
  0
LINE
  8
2
 10
-111.850641
 20
199.558521
 11
-114.350641
 21
199.558521
  0
LINE
  8
2
 10
-111.850641
 20
136.927124
 11
-114.350641
 21
136.927124
  0
ARC
  8
2
 10
-111.850641
 20
198.058521
 40
1.500000
 50
0.000000
 51
90.000000
  0
ARC
  8
2
 10
-111.850641
 20
138.427124
 40
1.500000
 50
270.000000
 51
360.000000
  0
LINE
  8
2
 10
-132.350641
 20
174.742823
 11
-132.350641
 21
161.742823
  0
LINE
  8
2
 10
-130.350641
 20
176.742823
 11
-116.350641
 21
176.742823
  0
LINE
  8
2
 10
-130.350641
 20
159.742823
 11
-116.350641
 21
159.742823
  0
ARC
  8
2
 10
-130.350641
 20
174.742823
 40
2.000000
 50
90.000000
 51
180.000000
  0
ARC
  8
2
 10
-130.350641
 20
161.742823
 40
2.000000
 50
180.000000
 51
270.000000
  0
LINE
  8
2
 10
-118.350641
 20
195.558521
 11
-118.350641
 21
192.082318
  0
ARC
  8
2
 10
-114.350641
 20
195.558521
 40
4.000000
 50
90.000000
 51
180.000000
  0
ARC
  8
2
 10
-114.350641
 20
192.082318
 40
4.000000
 50
180.000000
 51
244.623066
  0
ARC
  8
2
 10
-117.350641
 20
185.757763
 40
3.000000
 50
0.000000
 51
64.623066
  0
LINE
  8
2
 10
-111.850641
 20
189.961522
 11
-114.350641
 21
189.961522
  0
ARC
  8
2
 10
-114.350641
 20
193.961522
 40
4.000000
 50
180.000000
 51
270.000000
  0
ARC
  8
2
 10
-116.350641
 20
178.742823
 40
2.000000
 50
270.000000
 51
360.000000
  0
ARC
  8
2
 10
-116.350641
 20
157.742823
 40
2.000000
 50
0.000000
 51
90.000000
  0
LINE
  8
2
 10
-118.350641
 20
171.846614
 11
-118.350641
 21
164.639032
  0
ARC
  8
2
 10
-114.350641
 20
171.846614
 40
4.000000
 50
115.376934
 51
180.000000
  0
ARC
  8
2
 10
-114.350641
 20
164.639032
 40
4.000000
 50
180.000000
 51
244.623066
  0
ARC
  8
2
 10
-117.350641
 20
178.171169
 40
3.000000
 50
295.376934
 51
360.000000
  0
ARC
  8
2
 10
-117.350641
 20
158.314476
 40
3.000000
 50
0.000000
 51
64.623066
  0
LINE
  8
2
 10
-114.350641
 20
150.727882
 11
-114.350641
 21
158.314476
  0
LINE
  8
2
 10
-114.350641
 20
178.171169
 11
-114.350641
 21
185.757763
  0
LINE
  8
2
 10
-111.850641
 20
175.635900
 11
-114.350641
 21
175.635900
  0
LINE
  8
2
 10
-111.850641
 20
160.849745
 11
-114.350641
 21
160.849745
  0
ARC
  8
2
 10
-114.350641
 20
171.635900
 40
4.000000
 50
90.000000
 51
180.000000
  0
ARC
  8
2
 10
-114.350641
 20
164.849745
 40
4.000000
 50
180.000000
 51
270.000000
  0
ARC
  8
2
 10
-111.850641
 20
174.135900
 40
1.500000
 50
360.000000
 51
90.000000
  0
ARC
  8
2
 10
-111.850641
 20
162.349745
 40
1.500000
 50
270.000000
 51
0.000000
  0
LINE
  8
2
 10
-118.350641
 20
140.927124
 11
-118.350641
 21
144.403327
  0
ARC
  8
2
 10
-114.350641
 20
140.927124
 40
4.000000
 50
180.000000
 51
270.000000
  0
ARC
  8
2
 10
-114.350641
 20
144.403327
 40
4.000000
 50
115.376934
 51
180.000000
  0
ARC
  8
2
 10
-117.350641
 20
150.727882
 40
3.000000
 50
295.376934
 51
360.000000
  0
LINE
  8
2
 10
-111.850641
 20
146.524123
 11
-114.350641
 21
146.524123
  0
ARC
  8
2
 10
-114.350641
 20
142.524123
 40
4.000000
 50
90.000000
 51
180.000000
  0
LINE
  8
2
 10
-222.350641
 20
187.242823
 11
-164.350641
 21
187.242823
  0
LINE
  8
2
 10
-218.350641
 20
105.242823
 11
-168.350641
 21
105.242823
  0
LINE
  8
2
 10
-228.350641
 20
115.242823
 11
-228.350641
 21
181.242823
  0
LINE
  8
2
 10
-158.350641
 20
115.242823
 11
-158.350641
 21
181.242823
  0
LINE
  8
2
 10
-222.350641
 20
118.242823
 11
-164.350641
 21
118.242823
  0
ARC
  8
2
 10
-222.350641
 20
181.242823
 40
6.000000
 50
90.000000
 51
180.000000
  0
ARC
  8
2
 10
-164.350641
 20
181.242823
 40
6.000000
 50
0.000000
 51
90.000000
  0
ARC
  8
2
 10
-164.350641
 20
124.242823
 40
6.000000
 50
270.000000
 51
0.000000
  0
ARC
  8
2
 10
-222.350641
 20
124.242823
 40
6.000000
 50
180.000000
 51
270.000000
  0
ARC
  8
2
 10
-168.350641
 20
115.242823
 40
10.000000
 50
270.000000
 51
360.000000
  0
ARC
  8
2
 10
-218.350641
 20
115.242823
 40
10.000000
 50
180.000000
 51
270.000000
  0
CIRCLE
  8
2
 10
-177.087185
 20
156.506278
 40
4.000000
  0
CIRCLE
  8
2
 10
-209.614097
 20
156.506278
 40
4.000000
  0
CIRCLE
  8
2
 10
-209.614097
 20
123.979367
 40
4.000000
  0
CIRCLE
  8
2
 10
-177.087185
 20
156.506278
 40
1.000000
  0
CIRCLE
  8
2
 10
-209.614097
 20
156.506278
 40
1.000000
  0
CIRCLE
  8
2
 10
-209.614097
 20
123.979367
 40
1.000000
  0
LINE
  8
2
 10
-223.350641
 20
175.242823
 11
-221.350641
 21
175.242823
  0
LINE
  8
2
 10
-165.350641
 20
175.242823
 11
-163.350641
 21
175.242823
  0
LINE
  8
2
 10
-216.350641
 20
123.242823
 11
-216.350641
 21
125.242823
  0
LINE
  8
2
 10
-216.350641
 20
180.242823
 11
-216.350641
 21
182.242823
  0
LINE
  8
2
 10
-170.350641
 20
123.242823
 11
-170.350641
 21
125.242823
  0
LINE
  8
2
 10
-170.350641
 20
180.242823
 11
-170.350641
 21
182.242823
  0
LINE
  8
2
 10
-223.350641
 20
130.242823
 11
-221.350641
 21
130.242823
  0
LINE
  8
2
 10
-165.350641
 20
130.242823
 11
-163.350641
 21
130.242823
  0
ARC
  8
2
 10
-165.350641
 20
125.242823
 40
5.000000
 50
90.000000
 51
180.000000
  0
ARC
  8
2
 10
-165.350641
 20
180.242823
 40
5.000000
 50
180.000000
 51
270.000000
  0
ARC
  8
2
 10
-221.350641
 20
180.242823
 40
5.000000
 50
270.000000
 51
360.000000
  0
ARC
  8
2
 10
-221.350641
 20
125.242823
 40
5.000000
 50
0.000000
 51
90.000000
  0
ARC
  8
2
 10
-163.350641
 20
170.242823
 40
5.000000
 50
0.000000
 51
90.000000
  0
ARC
  8
2
 10
-175.350641
 20
182.242823
 40
5.000000
 50
0.000000
 51
90.000000
  0
ARC
  8
2
 10
-211.350641
 20
182.242823
 40
5.000000
 50
90.000000
 51
180.000000
  0
ARC
  8
2
 10
-223.350641
 20
170.242823
 40
5.000000
 50
90.000000
 51
180.000000
  0
ARC
  8
2
 10
-223.350641
 20
135.242823
 40
5.000000
 50
180.000000
 51
270.000000
  0
ARC
  8
2
 10
-211.350641
 20
123.242823
 40
5.000000
 50
180.000000
 51
270.000000
  0
ARC
  8
2
 10
-175.350641
 20
123.242823
 40
5.000000
 50
270.000000
 51
360.000000
  0
ARC
  8
2
 10
-163.350641
 20
135.242823
 40
5.000000
 50
270.000000
 51
360.000000
  0
CIRCLE
  8
2
 10
-164.350641
 20
124.242823
 40
4.250000
  0
CIRCLE
  8
2
 10
-164.350641
 20
124.242823
 40
3.730385
  0
LINE
  8
2
 10
-166.350641
 20
123.088122
 11
-166.350641
 21
125.397523
  0
LINE
  8
2
 10
-162.350641
 20
123.088122
 11
-162.350641
 21
125.397523
  0
LINE
  8
2
 10
-164.350641
 20
121.933421
 11
-166.350641
 21
123.088122
  0
LINE
  8
2
 10
-162.350641
 20
125.397523
 11
-164.350641
 21
126.552224
  0
LINE
  8
2
 10
-162.350641
 20
123.088122
 11
-164.350641
 21
121.933421
  0
LINE
  8
2
 10
-164.350641
 20
126.552224
 11
-166.350641
 21
125.397523
  0
CIRCLE
  8
2
 10
-222.350641
 20
124.242823
 40
4.250000
  0
CIRCLE
  8
2
 10
-222.350641
 20
124.242823
 40
3.730385
  0
LINE
  8
2
 10
-220.350641
 20
123.088122
 11
-220.350641
 21
125.397523
  0
LINE
  8
2
 10
-224.350641
 20
123.088122
 11
-224.350641
 21
125.397523
  0
LINE
  8
2
 10
-222.350641
 20
121.933421
 11
-220.350641
 21
123.088122
  0
LINE
  8
2
 10
-224.350641
 20
125.397523
 11
-222.350641
 21
126.552224
  0
LINE
  8
2
 10
-224.350641
 20
123.088122
 11
-222.350641
 21
121.933421
  0
LINE
  8
2
 10
-222.350641
 20
126.552224
 11
-220.350641
 21
125.397523
  0
CIRCLE
  8
2
 10
-164.350641
 20
181.242823
 40
4.250000
  0
CIRCLE
  8
2
 10
-164.350641
 20
181.242823
 40
3.730385
  0
LINE
  8
2
 10
-166.350641
 20
180.088122
 11
-166.350641
 21
182.397523
  0
LINE
  8
2
 10
-162.350641
 20
180.088122
 11
-162.350641
 21
182.397523
  0
LINE
  8
2
 10
-164.350641
 20
178.933421
 11
-166.350641
 21
180.088122
  0
LINE
  8
2
 10
-162.350641
 20
182.397523
 11
-164.350641
 21
183.552224
  0
LINE
  8
2
 10
-162.350641
 20
180.088122
 11
-164.350641
 21
178.933421
  0
LINE
  8
2
 10
-164.350641
 20
183.552224
 11
-166.350641
 21
182.397523
  0
CIRCLE
  8
2
 10
-222.350641
 20
181.242823
 40
4.250000
  0
CIRCLE
  8
2
 10
-222.350641
 20
181.242823
 40
3.730385
  0
LINE
  8
2
 10
-220.350641
 20
180.088122
 11
-220.350641
 21
182.397523
  0
LINE
  8
2
 10
-224.350641
 20
180.088122
 11
-224.350641
 21
182.397523
  0
LINE
  8
2
 10
-222.350641
 20
178.933421
 11
-220.350641
 21
180.088122
  0
LINE
  8
2
 10
-224.350641
 20
182.397523
 11
-222.350641
 21
183.552224
  0
LINE
  8
2
 10
-224.350641
 20
180.088122
 11
-222.350641
 21
178.933421
  0
LINE
  8
2
 10
-222.350641
 20
183.552224
 11
-220.350641
 21
182.397523
  0
LINE
  8
2
 10
-208.850641
 20
180.242823
 11
-177.850641
 21
180.242823
  0
LINE
  8
2
 10
-210.850641
 20
172.742823
 11
-210.850641
 21
178.242823
  0
LINE
  8
2
 10
-175.850641
 20
172.742823
 11
-175.850641
 21
178.242823
  0
ARC
  8
2
 10
-177.850641
 20
178.242823
 40
2.000000
 50
0.000000
 51
90.000000
  0
ARC
  8
2
 10
-208.850641
 20
178.242823
 40
2.000000
 50
90.000000
 51
180.000000
  0
LINE
  8
2
 10
-182.809641
 20
108.742823
 11
-183.350641
 21
109.283823
  0
LINE
  8
2
 10
-183.350641
 20
109.283823
 11
-183.350641
 21
113.242823
  0
LINE
  8
2
 10
-183.350641
 20
109.283823
 11
-177.350641
 21
109.283823
  0
LINE
  8
2
 62
2
 10
-182.809641
 20
108.742823
 11
-182.809641
 21
113.242823
  0
LINE
  8
2
 10
-177.891641
 20
108.742823
 11
-182.809641
 21
108.742823
  0
LINE
  8
2
 10
-177.891641
 20
108.742823
 11
-177.350641
 21
109.283823
  0
LINE
  8
2
 10
-177.350641
 20
109.283823
 11
-177.350641
 21
113.242823
  0
LINE
  8
2
 62
2
 10
-177.891641
 20
108.742823
 11
-177.891641
 21
113.242823
  0
LINE
  8
2
 10
-174.600641
 20
118.242823
 11
-174.600641
 21
113.733570
  0
LINE
  8
2
 10
-174.600641
 20
113.733570
 11
-175.450641
 21
113.242823
  0
LINE
  8
2
 10
-175.450641
 20
113.242823
 11
-185.250641
 21
113.242823
  0
LINE
  8
2
 10
-177.475641
 20
118.242823
 11
-177.475641
 21
113.733570
  0
ARC
  8
2
 10
-176.038141
 20
115.581525
 40
2.341227
 50
232.121121
 51
307.878879
  0
LINE
  8
2
 10
-186.100641
 20
118.242823
 11
-186.100641
 21
113.733570
  0
LINE
  8
2
 10
-186.100641
 20
113.733570
 11
-185.250641
 21
113.242823
  0
LINE
  8
2
 10
-183.225641
 20
118.242823
 11
-183.225641
 21
113.733570
  0
ARC
  8
2
 10
-184.663141
 20
115.581525
 40
2.341227
 50
232.121121
 51
307.878879
  0
ARC
  8
2
 10
-180.350641
 20
121.865298
 40
8.625000
 50
250.528777
 51
289.471219
  0
LINE
  8
2
 10
-158.350641
 20
172.742823
 11
-132.350641
 21
172.742823
  0
LINE
  8
2
 10
-158.350641
 20
163.742823
 11
-132.350641
 21
163.742823
  0
LINE
  8
2
  6
CENTER
 62
2
 10
-193.350641
 20
95.441138
 11
-193.350641
 21
195.902495
  0
LINE
  8
2
  6
CENTER
 62
2
 10
-233.582048
 20
168.242823
 11
-102.746653
 21
168.242823
  0
ARC
  8
2
  6
CENTER
 62
2
 10
-193.350641
 20
140.242823
 40
23.000000
 50
28.920753
 51
61.696907
  0
ARC
  8
2
  6
CENTER
 62
2
 10
-193.350641
 20
140.242823
 40
23.000000
 50
118.920753
 51
151.696907
  0
ARC
  8
2
  6
CENTER
 62
2
 10
-193.350641
 20
140.242823
 40
23.000000
 50
208.920753
 51
241.696907
  0
LINE
  8
2
  6
CENTER
 62
2
 10
-164.350641
 20
116.241454
 11
-164.350641
 21
132.283210
  0
LINE
  8
2
  6
CENTER
 62
2
 10
-172.268419
 20
124.242823
 11
-156.620554
 21
124.242823
  0
LINE
  8
2
  6
CENTER
 62
2
 10
-222.350641
 20
116.241454
 11
-222.350641
 21
132.283210
  0
LINE
  8
2
  6
CENTER
 62
2
 10
-214.432863
 20
124.242823
 11
-230.080729
 21
124.242823
  0
LINE
  8
2
  6
CENTER
 62
2
 10
-164.350641
 20
173.241454
 11
-164.350641
 21
189.283210
  0
LINE
  8
2
  6
CENTER
 62
2
 10
-172.268419
 20
181.242823
 11
-156.620554
 21
181.242823
  0
LINE
  8
2
  6
CENTER
 62
2
 10
-222.350641
 20
173.241454
 11
-222.350641
 21
189.283210
  0
LINE
  8
2
  6
CENTER
 62
2
 10
-214.432863
 20
181.242823
 11
-230.080729
 21
181.242823
  0
LINE
  8
2
  6
CENTER
 62
2
 10
-180.350641
 20
103.814887
 11
-180.350641
 21
123.384032
  0
LINE
  8
2
 10
-202.861750
 20
43.744484
 11
-183.839532
 21
43.744484
  0
LINE
  8
2
 10
-203.350641
 20
29.744484
 11
-183.350641
 21
29.744484
  0
LINE
  8
2
 10
-182.350641
 20
28.744484
 11
-183.350641
 21
29.744484
  0
LINE
  8
2
 10
-204.350641
 20
28.744484
 11
-203.350641
 21
29.744484
  0
LINE
  8
2
 10
-183.350641
 20
29.744484
 11
-183.839532
 21
43.744484
  0
LINE
  8
2
 10
-203.350641
 20
29.744484
 11
-202.861750
 21
43.744484
  0
LINE
  8
2
 10
-202.091276
 20
43.744484
 11
-202.515793
 21
29.744484
  0
LINE
  8
2
 10
-189.007971
 20
29.744484
 11
-189.496862
 21
43.744484
  0
CIRCLE
  8
2
 62
2
 10
-180.350641
 20
18.244484
 40
2.459000
  0
CIRCLE
  8
2
 10
-180.350641
 20
18.244484
 40
3.000000
  0
LINE
  8
2
 10
-178.850641
 20
17.378458
 11
-178.850641
 21
19.110509
  0
LINE
  8
2
 10
-181.850641
 20
17.378458
 11
-181.850641
 21
19.110509
  0
LINE
  8
2
 10
-180.350641
 20
16.512433
 11
-181.850641
 21
17.378458
  0
LINE
  8
2
 10
-178.850641
 20
19.110509
 11
-180.350641
 21
19.976535
  0
LINE
  8
2
 10
-180.350641
 20
19.976535
 11
-181.850641
 21
19.110509
  0
LINE
  8
2
 10
-178.850641
 20
17.378458
 11
-180.350641
 21
16.512433
  0
LINE
  8
2
  6
CENTER
 62
2
 10
-180.350641
 20
10.951194
 11
-180.350641
 21
25.736083
  0
LINE
  8
2
  6
CENTER
 62
2
 10
-188.057070
 20
18.244484
 11
-173.006716
 21
18.244484
  0
LINE
  8
2
  6
CENTER
 62
2
 10
-218.099379
 20
-36.359936
 11
-218.099379
 21
-2.963518
  0
LINE
  8
2
 10
-111.850641
 20
48.244484
 11
-114.350641
 21
48.244484
  0
ARC
  8
2
 10
-111.850641
 20
46.744484
 40
1.500000
 50
0.000000
 51
90.000000
  0
ARC
  8
2
 10
-114.350641
 20
44.244484
 40
4.000000
 50
90.000000
 51
180.000000
  0
LINE
  8
2
 10
-132.350641
 20
19.744484
 11
-132.350641
 21
6.744484
  0
LINE
  8
2
 10
-130.350641
 20
21.744484
 11
-117.133071
 21
21.744484
  0
LINE
  8
2
 10
-130.350641
 20
4.744484
 11
-117.133071
 21
4.744484
  0
ARC
  8
2
 10
-130.350641
 20
6.744484
 40
2.000000
 50
180.000000
 51
270.000000
  0
ARC
  8
2
 10
-130.350641
 20
19.744484
 40
2.000000
 50
90.000000
 51
180.000000
  0
LINE
  8
2
 10
-118.350641
 20
41.296453
 11
-118.350641
 21
44.244484
  0
ARC
  8
2
 10
-117.350641
 20
36.697911
 40
3.000000
 50
0.000000
 51
82.036169
  0
ARC
  8
2
 10
-116.707318
 20
41.296453
 40
1.643323
 50
90.000000
 51
262.036169
  0
LINE
  8
2
 10
-116.707318
 20
42.939775
 11
-111.850641
 21
42.939775
  0
LINE
  8
2
 10
-111.850641
 20
34.494484
 11
-114.350641
 21
34.494484
  0
LINE
  8
2
 10
-118.350641
 20
30.494484
 11
-118.350641
 21
24.618172
  0
LINE
  8
2
 10
-114.350641
 20
36.697911
 11
-114.350641
 21
34.494484
  0
ARC
  8
2
 10
-114.350641
 20
30.494484
 40
4.000000
 50
90.000000
 51
180.000000
  0
ARC
  8
2
 10
-114.350641
 20
24.618172
 40
4.000000
 50
180.000000
 51
244.623066
  0
ARC
  8
2
 10
-117.350641
 20
18.293617
 40
3.000000
 50
0.000000
 51
64.623066
  0
ARC
  8
2
 10
-111.850641
 20
32.994484
 40
1.500000
 50
0.000000
 51
90.000000
  0
LINE
  8
2
 10
-110.350641
 20
-20.255516
 11
-110.350641
 21
46.744484
  0
LINE
  8
2
 10
-111.850641
 20
-21.755516
 11
-114.350641
 21
-21.755516
  0
ARC
  8
2
 10
-111.850641
 20
-20.255516
 40
1.500000
 50
270.000000
 51
360.000000
  0
ARC
  8
2
 10
-114.350641
 20
-17.755516
 40
4.000000
 50
180.000000
 51
270.000000
  0
LINE
  8
2
 10
-118.350641
 20
-14.807485
 11
-118.350641
 21
-17.755516
  0
ARC
  8
2
 10
-117.350641
 20
-10.208943
 40
3.000000
 50
277.963831
 51
360.000000
  0
ARC
  8
2
 10
-116.707318
 20
-14.807485
 40
1.643323
 50
97.963831
 51
270.000000
  0
LINE
  8
2
 10
-116.707318
 20
-16.450808
 11
-111.850641
 21
-16.450808
  0
LINE
  8
2
 10
-111.850641
 20
-8.005516
 11
-114.350641
 21
-8.005516
  0
LINE
  8
2
 10
-118.350641
 20
-4.005516
 11
-118.350641
 21
1.870796
  0
LINE
  8
2
 10
-114.350641
 20
-10.208943
 11
-114.350641
 21
-8.005516
  0
LINE
  8
2
 10
-114.350641
 20
8.195351
 11
-114.350641
 21
18.293617
  0
ARC
  8
2
 10
-114.350641
 20
-4.005516
 40
4.000000
 50
180.000000
 51
270.000000
  0
ARC
  8
2
 10
-114.350641
 20
1.870796
 40
4.000000
 50
115.376934
 51
180.000000
  0
ARC
  8
2
 10
-117.350641
 20
8.195351
 40
3.000000
 50
295.376934
 51
360.000000
  0
ARC
  8
2
 10
-111.850641
 20
-6.505516
 40
1.500000
 50
270.000000
 51
360.000000
  0
LINE
  8
2
 10
-111.850641
 20
21.515385
 11
-114.350641
 21
21.515385
  0
ARC
  8
2
 10
-114.350641
 20
25.515385
 40
4.000000
 50
180.000000
 51
270.000000
  0
LINE
  8
2
 10
-111.850641
 20
4.973582
 11
-114.350641
 21
4.973582
  0
ARC
  8
2
 10
-114.350641
 20
0.973582
 40
4.000000
 50
90.000000
 51
180.000000
  0
ARC
  8
2
 10
-111.850641
 20
3.473582
 40
1.500000
 50
360.000000
 51
90.000000
  0
ARC
  8
2
 10
-111.850641
 20
23.015385
 40
1.500000
 50
270.000000
 51
360.000000
  0
LINE
  8
2
 10
-228.350641
 20
-10.755516
 11
-158.350641
 21
-10.755516
  0
LINE
  8
2
 10
-228.350641
 20
-10.755516
 11
-228.350641
 21
24.744484
  0
LINE
  8
2
 10
-158.350641
 20
-10.755516
 11
-158.350641
 21
24.744484
  0
LINE
  8
2
 10
-223.350641
 20
8.244484
 11
-163.350641
 21
8.244484
  0
ARC
  8
2
 10
-163.350641
 20
3.244484
 40
5.000000
 50
0.000000
 51
90.000000
  0
ARC
  8
2
 10
-223.350641
 20
3.244484
 40
5.000000
 50
90.000000
 51
180.000000
  0
ARC
  8
2
 10
-161.350641
 20
24.744484
 40
3.000000
 50
0.000000
 51
90.000000
  0
ARC
  8
2
 10
-225.350641
 20
24.744484
 40
3.000000
 50
90.000000
 51
180.000000
  0
LINE
  8
2
 10
-158.350641
 20
13.244484
 11
-228.350641
 21
13.244484
  0
CIRCLE
  8
2
 10
-180.350641
 20
18.244484
 40
4.900000
  0
LINE
  8
2
 10
-183.237393
 20
23.244484
 11
-177.463890
 21
23.244484
  0
LINE
  8
2
 10
-186.124144
 20
18.244484
 11
-183.237393
 21
23.244484
  0
LINE
  8
2
 10
-183.237393
 20
13.244484
 11
-186.124144
 21
18.244484
  0
LINE
  8
2
 10
-177.463890
 20
23.244484
 11
-174.577139
 21
18.244484
  0
LINE
  8
2
 10
-174.577139
 20
18.244484
 11
-177.463890
 21
13.244484
  0
LINE
  8
2
 10
-216.350641
 20
19.244484
 11
-216.350641
 21
25.744484
  0
LINE
  8
2
 10
-170.350641
 20
19.244484
 11
-170.350641
 21
25.744484
  0
LINE
  8
2
 10
-227.350641
 20
18.244484
 11
-211.350641
 21
18.244484
  0
LINE
  8
2
 10
-174.577139
 20
18.244484
 11
-159.350641
 21
18.244484
  0
ARC
  8
2
 10
-169.350641
 20
19.244484
 40
1.000000
 50
180.000000
 51
270.000000
  0
ARC
  8
2
 10
-217.350641
 20
19.244484
 40
1.000000
 50
270.000000
 51
360.000000
  0
ARC
  8
2
 10
-159.350641
 20
17.244484
 40
1.000000
 50
0.000000
 51
90.000000
  0
ARC
  8
2
 10
-227.350641
 20
17.244484
 40
1.000000
 50
90.000000
 51
180.000000
  0
ARC
  8
2
 10
-172.350641
 20
25.744484
 40
2.000000
 50
0.000000
 51
90.000000
  0
ARC
  8
2
 10
-214.350641
 20
25.744484
 40
2.000000
 50
90.000000
 51
180.000000
  0
LINE
  8
2
 10
-166.350641
 20
28.744484
 11
-205.614097
 21
28.744484
  0
LINE
  8
2
 10
-166.350641
 20
28.744484
 11
-165.350641
 21
27.744484
  0
LINE
  8
2
 10
-176.827930
 20
28.744484
 11
-176.059025
 21
27.744484
  0
LINE
  8
2
 10
-206.114097
 20
30.744484
 11
-213.114097
 21
30.744484
  0
LINE
  8
2
 10
-213.614097
 20
30.244484
 11
-213.614097
 21
28.244484
  0
LINE
  8
2
 10
-205.614097
 20
30.244484
 11
-205.614097
 21
28.244484
  0
ARC
  8
2
 10
-213.114097
 20
30.244484
 40
0.500000
 50
90.000000
 51
180.000000
  0
ARC
  8
2
 10
-206.114097
 20
30.244484
 40
0.500000
 50
0.000000
 51
90.000000
  0
ARC
  8
2
 10
-214.114097
 20
28.244484
 40
0.500000
 50
270.000000
 51
360.000000
  0
ARC
  8
2
 10
-205.114097
 20
28.244484
 40
0.500000
 50
180.000000
 51
270.000000
  0
LINE
  8
2
 10
-180.587185
 20
30.744484
 11
-173.587185
 21
30.744484
  0
LINE
  8
2
 10
-173.087185
 20
30.244484
 11
-173.087185
 21
28.744484
  0
LINE
  8
2
 10
-181.087185
 20
30.244484
 11
-181.087185
 21
28.744484
  0
ARC
  8
2
 10
-173.587185
 20
30.244484
 40
0.500000
 50
0.000000
 51
90.000000
  0
ARC
  8
2
 10
-180.587185
 20
30.244484
 40
0.500000
 50
90.000000
 51
180.000000
  0
LINE
  8
2
 10
-218.100641
 20
18.244484
 11
-218.100641
 21
22.944484
  0
LINE
  8
2
 10
-218.100641
 20
22.944484
 11
-218.620256
 21
23.244484
  0
LINE
  8
2
 10
-218.100641
 20
22.944484
 11
-226.600641
 21
22.944484
  0
LINE
  8
2
 10
-226.600641
 20
18.244484
 11
-226.600641
 21
22.944484
  0
LINE
  8
2
 10
-226.600641
 20
22.944484
 11
-226.081026
 21
23.244484
  0
LINE
  8
2
 10
-226.081026
 20
23.244484
 11
-218.620256
 21
23.244484
  0
LINE
  8
2
 10
-168.600641
 20
18.244484
 11
-168.600641
 21
22.944484
  0
LINE
  8
2
 10
-168.600641
 20
22.944484
 11
-168.081026
 21
23.244484
  0
LINE
  8
2
 10
-168.600641
 20
22.944484
 11
-160.100641
 21
22.944484
  0
LINE
  8
2
 10
-160.100641
 20
18.244484
 11
-160.100641
 21
22.944484
  0
LINE
  8
2
 10
-160.100641
 20
22.944484
 11
-160.620256
 21
23.244484
  0
LINE
  8
2
 10
-160.620256
 20
23.244484
 11
-168.081026
 21
23.244484
  0
ARC
  8
2
 10
-209.614097
 20
56.275745
 40
28.810291
 50
262.019314
 51
277.980686
  0
LINE
  8
2
 10
-225.350641
 20
27.744484
 11
-214.114097
 21
27.744484
  0
LINE
  8
2
 10
-205.114097
 20
27.744484
 11
-161.350641
 21
27.744484
  0
LINE
  8
2
 10
-158.350641
 20
17.744484
 11
-132.350641
 21
17.744484
  0
LINE
  8
2
 10
-158.350641
 20
8.744484
 11
-132.350641
 21
8.744484
  0
LINE
  8
2
  6
CENTER
 62
2
 10
-102.746653
 20
13.244484
 11
-238.616884
 21
13.244484
  0
LINE
  8
2
  6
CENTER
 62
2
 10
-209.614097
 20
33.022933
 11
-209.614097
 21
25.622184
  0
LINE
  8
2
  6
CENTER
 62
2
 10
-177.087185
 20
33.022933
 11
-177.087185
 21
25.622184
  0
LINE
  8
2
  6
CENTER
 62
2
 10
-164.350641
 20
11.351203
 11
-164.350641
 21
26.186622
  0
LINE
  8
2
  6
CENTER
 62
2
 10
-222.350641
 20
11.351203
 11
-222.350641
 21
26.186622
  0
LINE
  8
2
 10
62.899359
 20
43.744484
 11
70.399359
 21
43.744484
  0
LINE
  8
2
 10
56.649359
 20
29.744484
 11
76.649359
 21
29.744484
  0
LINE
  8
2
 10
55.649359
 20
28.744484
 11
56.649359
 21
29.744484
  0
LINE
  8
2
 10
76.649359
 20
29.744484
 11
77.649359
 21
28.744484
  0
LINE
  8
2
 10
70.399359
 20
43.744484
 11
70.649359
 21
29.744484
  0
LINE
  8
2
 10
62.899359
 20
43.744484
 11
62.649359
 21
29.744484
  0
LINE
  8
2
 10
65.899359
 20
29.744484
 11
66.149359
 21
43.744484
  0
LINE
  8
2
 10
67.399359
 20
29.744484
 11
67.149359
 21
43.744484
  0
LINE
  8
2
  6
CENTER
 62
2
 10
91.398096
 20
-36.359936
 11
91.398096
 21
-2.963518
  0
ARC
  8
2
  6
PHANTOM
 62
2
 10
115.462087
 20
49.293187
 40
15.000000
 50
202.330113
 51
277.669887
  0
ARC
  8
2
  6
PHANTOM
 62
2
 10
73.836630
 20
49.293187
 40
15.000000
 50
262.330113
 51
337.669887
  0
ARC
  8
2
  6
PHANTOM
 62
2
 10
53.023902
 20
13.244484
 40
15.000000
 50
322.330113
 51
37.669887
  0
ARC
  8
2
  6
PHANTOM
 62
2
 10
73.836630
 20
-22.804220
 40
15.000000
 50
22.330113
 51
97.669887
  0
ARC
  8
2
  6
PHANTOM
 62
2
 10
115.462087
 20
-22.804220
 40
15.000000
 50
82.330113
 51
157.669887
  0
ARC
  8
2
  6
PHANTOM
 62
2
 10
136.274816
 20
13.244484
 40
15.000000
 50
142.330113
 51
217.669887
  0
ARC
  8
2
  6
PHANTOM
 62
2
 10
118.465057
 20
26.994484
 40
7.500000
 50
322.330113
 51
97.669887
  0
ARC
  8
2
  6
PHANTOM
 62
2
 10
94.649359
 20
40.744484
 40
7.500000
 50
22.330113
 51
157.669887
  0
ARC
  8
2
  6
PHANTOM
 62
2
 10
70.833660
 20
26.994484
 40
7.500000
 50
82.330113
 51
217.669887
  0
ARC
  8
2
  6
PHANTOM
 62
2
 10
70.833660
 20
-0.505516
 40
7.500000
 50
142.330113
 51
277.669887
  0
ARC
  8
2
  6
PHANTOM
 62
2
 10
94.649359
 20
-14.255516
 40
7.500000
 50
202.330113
 51
337.669887
  0
ARC
  8
2
  6
PHANTOM
 62
2
 10
118.465057
 20
-0.505516
 40
7.500000
 50
262.330113
 51
37.669887
  0
LINE
  8
2
 10
31.649359
 20
-10.755516
 11
101.649359
 21
-10.755516
  0
LINE
  8
2
 10
31.649359
 20
3.244484
 11
31.649359
 21
-10.755516
  0
LINE
  8
2
 10
36.649359
 20
8.244484
 11
50.649359
 21
8.244484
  0
LINE
  8
2
 10
101.649359
 20
-3.255516
 11
101.649359
 21
-10.755516
  0
LINE
  8
2
 10
44.649359
 20
24.744484
 11
44.649359
 21
11.244484
  0
LINE
  8
2
 10
105.649359
 20
27.744484
 11
47.649359
 21
27.744484
  0
ARC
  8
2
 10
47.649359
 20
24.744484
 40
3.000000
 50
90.000000
 51
180.000000
  0
LINE
  8
2
 10
106.649359
 20
26.744484
 11
106.649359
 21
26.205965
  0
ARC
  8
2
 10
105.649359
 20
26.744484
 40
1.000000
 50
0.000000
 51
90.000000
  0
ARC
  8
2
 10
107.649359
 20
26.205965
 40
1.000000
 50
180.000000
 51
236.743569
  0
LINE
  8
2
 10
108.649359
 20
-0.255516
 11
91.649359
 21
-0.255516
  0
LINE
  8
2
 10
113.649359
 20
13.244484
 11
113.649359
 21
4.744484
  0
ARC
  8
2
 10
108.649359
 20
4.744484
 40
5.000000
 50
270.000000
 51
360.000000
  0
ARC
  8
2
 10
104.649359
 20
-3.255516
 40
3.000000
 50
90.000000
 51
180.000000
  0
ARC
  8
2
 10
36.649359
 20
3.244484
 40
5.000000
 50
90.000000
 51
180.000000
  0
ARC
  8
2
 10
41.649359
 20
11.244484
 40
3.000000
 50
270.000000
 51
360.000000
  0
LINE
  8
2
 10
44.649359
 20
13.244484
 11
113.649359
 21
13.244484
  0
LINE
  8
2
 10
94.649359
 20
27.744484
 11
93.649359
 21
28.744484
  0
LINE
  8
2
 10
49.649359
 20
28.744484
 11
48.649359
 21
27.744484
  0
LINE
  8
2
 10
71.649359
 20
27.744484
 11
70.649359
 21
28.744484
  0
LINE
  8
2
 10
62.649359
 20
28.744484
 11
61.649359
 21
27.744484
  0
LINE
  8
2
 10
53.885903
 20
30.744484
 11
46.885903
 21
30.744484
  0
LINE
  8
2
 10
46.385903
 20
30.244484
 11
46.385903
 21
27.767764
  0
LINE
  8
2
 10
54.385903
 20
30.244484
 11
54.385903
 21
28.744484
  0
ARC
  8
2
 10
46.885903
 20
30.244484
 40
0.500000
 50
90.000000
 51
180.000000
  0
ARC
  8
2
 10
53.885903
 20
30.244484
 40
0.500000
 50
0.000000
 51
90.000000
  0
LINE
  8
2
 10
79.412815
 20
30.744484
 11
86.412815
 21
30.744484
  0
LINE
  8
2
 10
86.912815
 20
30.244484
 11
86.912815
 21
28.244484
  0
LINE
  8
2
 10
78.912815
 20
30.244484
 11
78.912815
 21
28.244484
  0
ARC
  8
2
 10
86.412815
 20
30.244484
 40
0.500000
 50
0.000000
 51
90.000000
  0
ARC
  8
2
 10
79.412815
 20
30.244484
 40
0.500000
 50
90.000000
 51
180.000000
  0
ARC
  8
2
 10
87.412815
 20
28.244484
 40
0.500000
 50
180.000000
 51
270.000000
  0
ARC
  8
2
 10
78.412815
 20
28.244484
 40
0.500000
 50
270.000000
 51
360.000000
  0
LINE
  8
2
 10
49.649359
 20
28.744484
 11
78.912815
 21
28.744484
  0
LINE
  8
2
 10
86.912815
 20
28.744484
 11
93.649359
 21
28.744484
  0
ARC
  8
2
 10
45.885903
 20
27.767764
 40
0.500000
 50
300.254682
 51
360.000000
  0
LINE
  8
2
 10
56.649359
 20
25.744484
 11
56.649359
 21
19.244484
  0
LINE
  8
2
 10
101.649359
 20
21.744484
 11
101.649359
 21
19.244484
  0
ARC
  8
2
 10
95.649359
 20
21.744484
 40
6.000000
 50
0.000000
 51
90.000000
  0
LINE
  8
2
 10
96.649359
 20
18.244484
 11
112.043156
 21
18.244484
  0
ARC
  8
2
 10
102.649359
 20
19.244484
 40
1.000000
 50
180.000000
 51
270.000000
  0
ARC
  8
2
 10
112.043156
 20
17.244484
 40
1.000000
 50
17.235285
 51
90.000000
  0
LINE
  8
2
 10
45.649359
 20
18.244484
 11
61.649359
 21
18.244484
  0
ARC
  8
2
 10
45.649359
 20
17.244484
 40
1.000000
 50
90.000000
 51
180.000000
  0
ARC
  8
2
 10
55.649359
 20
19.244484
 40
1.000000
 50
270.000000
 51
360.000000
  0
ARC
  8
2
 10
58.649359
 20
25.744484
 40
2.000000
 50
90.000000
 51
180.000000
  0
LINE
  8
2
 10
103.399359
 20
18.244484
 11
103.399359
 21
22.944484
  0
LINE
  8
2
 10
103.399359
 20
22.944484
 11
103.918974
 21
23.244484
  0
LINE
  8
2
 10
103.918974
 20
23.244484
 11
111.379744
 21
23.244484
  0
LINE
  8
2
 10
111.899359
 20
18.244484
 11
111.899359
 21
22.944484
  0
LINE
  8
2
 10
111.899359
 20
22.944484
 11
111.379744
 21
23.244484
  0
LINE
  8
2
 10
111.899359
 20
22.944484
 11
103.399359
 21
22.944484
  0
LINE
  8
2
 10
46.399359
 20
18.244484
 11
46.399359
 21
22.944484
  0
LINE
  8
2
 10
46.399359
 20
22.944484
 11
46.918974
 21
23.244484
  0
LINE
  8
2
 10
46.918974
 20
23.244484
 11
54.379744
 21
23.244484
  0
LINE
  8
2
 10
54.899359
 20
18.244484
 11
54.899359
 21
22.944484
  0
LINE
  8
2
 10
54.899359
 20
22.944484
 11
54.379744
 21
23.244484
  0
LINE
  8
2
 10
54.899359
 20
22.944484
 11
46.399359
 21
22.944484
  0
ARC
  8
2
 10
99.149359
 20
13.244484
 40
14.500000
 50
0.000000
 51
28.440718
  0
ARC
  8
2
 10
99.149359
 20
13.244484
 40
14.500000
 50
43.602819
 51
90.000000
  0
LINE
  8
2
 10
35.149359
 20
20.703484
 11
35.149359
 21
15.785484
  0
LINE
  8
2
 10
35.149359
 20
20.703484
 11
35.690359
 21
21.244484
  0
LINE
  8
2
 10
35.690359
 20
21.244484
 11
39.649359
 21
21.244484
  0
LINE
  8
2
 10
35.690359
 20
21.244484
 11
35.690359
 21
15.244484
  0
LINE
  8
2
 62
2
 10
35.149359
 20
20.703484
 11
39.649359
 21
20.703484
  0
LINE
  8
2
 10
35.149359
 20
15.785484
 11
35.690359
 21
15.244484
  0
LINE
  8
2
 10
35.690359
 20
15.244484
 11
39.649359
 21
15.244484
  0
LINE
  8
2
 62
2
 10
35.149359
 20
15.785484
 11
39.649359
 21
15.785484
  0
LINE
  8
2
 10
44.649359
 20
13.244484
 11
39.649359
 21
13.244484
  0
LINE
  8
2
 10
39.649359
 20
13.244484
 11
39.649359
 21
23.244484
  0
ARC
  8
2
 10
46.262566
 20
15.744484
 40
6.613208
 50
157.788205
 51
202.211795
  0
LINE
  8
2
 10
44.649359
 20
23.244484
 11
39.649359
 21
23.244484
  0
LINE
  8
2
 10
44.649359
 20
18.244484
 11
40.140106
 21
18.244484
  0
ARC
  8
2
 10
46.262566
 20
20.744484
 40
6.613208
 50
157.788205
 51
202.211795
  0
CIRCLE
  8
2
 10
94.649359
 20
13.244484
 40
4.500000
  0
LINE
  8
2
  6
CENTER
 62
2
 10
135.819409
 20
13.244484
 11
24.479799
 21
13.244484
  0
LINE
  8
2
  6
CENTER
 62
2
 10
94.649359
 20
54.414534
 11
94.649359
 21
-27.925567
  0
LINE
  8
2
  6
CENTER
 62
2
 10
45.649359
 20
18.244484
 11
30.874109
 21
18.244484
  0
LINE
  8
2
  6
CENTER
 62
2
 10
50.385903
 20
33.022933
 11
50.385903
 21
25.622184
  0
LINE
  8
2
  6
CENTER
 62
2
 10
82.912815
 20
33.022933
 11
82.912815
 21
25.622184
  0
LINE
  8
2
  6
CENTER
 62
2
 10
107.649359
 20
26.186622
 11
107.649359
 21
11.351203
  0
LINE
  8
2
  6
CENTER
 62
2
 10
50.649359
 20
26.186622
 11
50.649359
 21
11.351203
  0
TEXT
  8
2
 10
-174.850641
 20
143.742823
 40
7.000000
  1
Ｓ
 50
270.000000
  0
TEXT
  8
2
 10
-196.850641
 20
158.742823
 40
7.000000
  1
Ｏ
 50
0.000000
  0
LINE
  8
2
 10
-225.599379
 20
-24.755516
 11
-225.599379
 21
-29.533828
  0
LINE
  8
2
 10
-225.599379
 20
-29.533828
 11
-224.349379
 21
-30.255516
  0
LINE
  8
2
 10
-221.849379
 20
-24.755516
 11
-221.849379
 21
-29.533828
  0
ARC
  8
2
 10
-223.724379
 20
-27.123452
 40
3.053774
 50
232.121121
 51
307.878879
  0
ARC
  8
2
 10
-218.099379
 20
-18.927227
 40
11.250000
 50
250.528781
 51
289.471223
  0
LINE
  8
2
 10
-211.054010
 20
-29.796310
 11
-211.849379
 21
-30.255516
  0
LINE
  8
2
 10
-211.849379
 20
-30.255516
 11
-224.349379
 21
-30.255516
  0
LINE
  8
2
 10
-214.349379
 20
-26.485945
 11
-214.349379
 21
-29.533828
  0
ARC
  8
2
 10
-212.474379
 20
-27.123452
 40
3.053774
 50
232.121121
 51
298.069977
  0
LINE
  8
2
 10
-225.799379
 20
-22.755516
 11
-225.799379
 21
-24.755516
  0
LINE
  8
2
 10
-225.799379
 20
-24.755516
 11
-217.060458
 21
-24.755516
  0
LINE
  8
2
 10
90.359176
 20
-24.755516
 11
99.098096
 21
-24.755516
  0
LINE
  8
2
 10
99.098096
 20
-24.755516
 11
99.098096
 21
-22.755516
  0
LINE
  8
2
 10
84.898096
 20
-29.118012
 11
84.898096
 21
-30.255516
  0
LINE
  8
2
 10
91.398096
 20
-24.755516
 11
91.398096
 21
-29.533828
  0
ARC
  8
2
 10
88.148096
 20
-22.576758
 40
7.678759
 50
244.960340
 51
295.039660
  0
LINE
  8
2
 10
97.898096
 20
-24.755516
 11
97.898096
 21
-30.255516
  0
LINE
  8
2
 10
97.898096
 20
-30.255516
 11
84.898096
 21
-30.255516
  0
ARC
  8
2
 10
94.648096
 20
-22.576758
 40
7.678759
 50
244.960340
 51
295.039660
  0
DIMENSION
  8
5
  2
*D0
 10
-4.864883
 20
13.244484
 11
-10.484883
 21
3.224484
 70
0
  1
24
 13
31.649359
 23
-10.755516
 14
24.479799
 24
13.244484
 50
90.000000
  0
DIMENSION
  8
5
  2
*D1
 10
-76.092659
 20
-21.755516
 11
-84.022659
 21
12.914484
 70
1
  1
%%c70
 13
-111.850641
 23
48.244484
 14
-111.850641
 24
-21.755516
 50
270.000000
  0
DIMENSION
  8
5
  2
*D2
 10
-110.350641
 20
223.778763
 11
-151.850641
 21
228.078763
 70
0
  1
83
 13
-193.350641
 23
195.902495
 14
-110.350641
 24
198.058521
 50
0.000000
  0
DIMENSION
  8
5
  2
*D3
 10
-4.864883
 20
-10.755516
 11
-12.794883
 21
-77.085516
 70
0
  1
132
 13
33.175802
 23
-142.755516
 14
31.649359
 24
-10.755516
 50
90.000000
  0
DIMENSION
  8
5
  2
*D4
 10
-4.864883
 20
-142.755516
 11
-10.484883
 21
-170.725516
 70
0
  1
60
 13
61.649359
 23
-202.655516
 14
33.175802
 24
-142.755516
 50
90.000000
  0
DIMENSION
  8
5
  2
*D5
 10
84.149359
 20
-226.640945
 11
66.649359
 21
-222.340945
 70
0
  1
35
 13
49.149359
 23
-181.755516
 14
84.149359
 24
-181.755516
 50
0.000000
  0
DIMENSION
  8
5
  2
*D6
 10
-76.092659
 20
168.242823
 11
-81.712659
 21
156.222823
 70
0
  1
28
 13
-139.595762
 23
140.242823
 14
-102.746653
 24
168.242823
 50
90.000000
  0
DIMENSION
  8
5
  2
*D7
 10
-76.092659
 20
140.242823
 11
-81.712659
 21
124.722823
 70
0
  1
35
 13
-168.350641
 23
105.242823
 14
-139.595762
 24
140.242823
 50
90.000000
  0
LINE
  8
18
 10
243.098152
 20
-136.431236
 11
343.098152
 21
-136.431236
  0
LINE
  8
18
 10
243.098152
 20
-176.431236
 11
343.098152
 21
-176.431236
  0
LINE
  8
18
 10
243.098152
 20
-186.431236
 11
343.098152
 21
-186.431236
  0
LINE
  8
18
 10
243.098152
 20
-196.431236
 11
343.098152
 21
-196.431236
  0
LINE
  8
18
 10
243.098152
 20
-136.431236
 11
243.098152
 21
-196.431236
  0
LINE
  8
18
 10
293.098152
 20
-136.431236
 11
293.098152
 21
-186.431236
  0
LINE
  8
18
 10
343.098152
 20
-136.431236
 11
343.098152
 21
-196.431236
  0
LINE
  8
18
  6
CENTER
 62
2
 10
250.914742
 20
-163.586777
 11
280.736214
 21
-163.586777
  0
LINE
  8
18
  6
CENTER
 62
2
 10
265.960518
 20
-150.713860
 11
265.960518
 21
-171.186554
  0
LINE
  8
18
 10
278.960518
 20
-159.986777
 11
278.960518
 21
-167.186777
  0
LINE
  8
18
 10
252.960518
 20
-159.986777
 11
252.960518
 21
-167.186777
  0
LINE
  8
18
 10
261.353995
 20
-152.586777
 11
270.567040
 21
-152.586777
  0
LINE
  8
18
 10
271.283528
 20
-156.586777
 11
283.107002
 21
-156.586777
  0
LINE
  8
18
 10
283.107002
 20
-149.786777
 11
283.107002
 21
-161.386777
  0
LINE
  8
18
 10
285.507002
 20
-149.786777
 11
285.507002
 21
-161.386777
  0
LINE
  8
18
 10
271.108550
 20
-154.586777
 11
283.107002
 21
-154.586777
  0
LINE
  8
18
 10
253.360518
 20
-159.586777
 11
260.287554
 21
-159.586777
  0
LINE
  8
18
 10
271.633482
 20
-159.586777
 11
278.560518
 21
-159.586777
  0
LINE
  8
18
 10
253.360518
 20
-167.586777
 11
260.710518
 21
-167.586777
  0
LINE
  8
18
 10
271.210518
 20
-167.586777
 11
278.560518
 21
-167.586777
  0
LINE
  8
18
 10
263.225559
 20
-162.986777
 11
268.695477
 21
-162.986777
  0
LINE
  8
18
 10
263.225559
 20
-164.186777
 11
268.695477
 21
-164.186777
  0
ARC
  8
18
 10
284.307002
 20
-149.786777
 40
1.200000
 50
0.000000
 51
180.000000
  0
ARC
  8
18
 10
284.307002
 20
-161.386777
 40
1.200000
 50
180.000000
 51
360.000000
  0
LINE
  8
18
 10
259.983350
 20
-163.063842
 11
260.955517
 21
-152.951914
  0
LINE
  8
18
 10
271.937686
 20
-163.063842
 11
270.965518
 21
-152.951914
  0
ARC
  8
18
 10
261.353995
 20
-152.986777
 40
0.400000
 50
90.000000
 51
175.000000
  0
ARC
  8
18
 10
270.567040
 20
-152.986777
 40
0.400000
 50
5.000000
 51
90.000000
  0
ARC
  8
18
 10
253.360518
 20
-159.986777
 40
0.400000
 50
90.000000
 51
180.000000
  0
ARC
  8
18
 10
253.360518
 20
-167.186777
 40
0.400000
 50
180.000000
 51
270.000000
  0
ARC
  8
18
 10
278.560518
 20
-159.986777
 40
0.400000
 50
0.000000
 51
90.000000
  0
ARC
  8
18
 10
278.560518
 20
-167.186777
 40
0.400000
 50
270.000000
 51
360.000000
  0
LINE
  8
18
  6
CENTER
 62
2
 10
315.960518
 20
-141.240761
 11
315.960518
 21
-160.088753
  0
LINE
  8
18
  6
CENTER
 62
2
 10
329.833435
 20
-150.586777
 11
301.055275
 21
-150.586777
  0
LINE
  8
18
 10
326.960518
 20
-145.980254
 11
326.960518
 21
-155.193299
  0
LINE
  8
18
 10
322.960518
 20
-155.909786
 11
322.960518
 21
-167.733261
  0
LINE
  8
18
 10
329.760518
 20
-167.733261
 11
318.160518
 21
-167.733261
  0
LINE
  8
18
 10
329.760518
 20
-170.133261
 11
318.160518
 21
-170.133261
  0
LINE
  8
18
 10
324.960518
 20
-155.734809
 11
324.960518
 21
-167.733261
  0
LINE
  8
18
 10
316.560518
 20
-147.851818
 11
316.560518
 21
-153.321736
  0
LINE
  8
18
 10
315.360518
 20
-147.851818
 11
315.360518
 21
-153.321736
  0
ARC
  8
18
 10
329.760518
 20
-168.933261
 40
1.200000
 50
270.000000
 51
90.000000
  0
ARC
  8
18
 10
318.160518
 20
-168.933261
 40
1.200000
 50
90.000000
 51
270.000000
  0
LINE
  8
18
 10
316.483452
 20
-144.609609
 11
326.595380
 21
-145.581776
  0
LINE
  8
18
 10
316.483452
 20
-156.563945
 11
326.595380
 21
-155.591777
  0
ARC
  8
18
 10
326.560518
 20
-145.980254
 40
0.400000
 50
0.000000
 51
85.000000
  0
ARC
  8
18
 10
326.560518
 20
-155.193299
 40
0.400000
 50
275.000000
 51
360.000000
  0
LINE
  8
18
 10
303.360518
 20
-146.586777
 11
309.960518
 21
-146.586777
  0
LINE
  8
18
 10
303.360518
 20
-154.586777
 11
309.960518
 21
-154.586777
  0
LINE
  8
18
 10
326.960518
 20
-154.586777
 11
328.560518
 21
-154.586777
  0
LINE
  8
18
 10
326.960518
 20
-146.586777
 11
328.560518
 21
-146.586777
  0
LINE
  8
18
 10
328.960518
 20
-146.986777
 11
328.960518
 21
-154.186777
  0
LINE
  8
18
 10
302.960518
 20
-146.986777
 11
302.960518
 21
-154.186777
  0
ARC
  8
18
 10
303.360518
 20
-146.986777
 40
0.400000
 50
90.000000
 51
180.000000
  0
ARC
  8
18
 10
303.360518
 20
-154.186777
 40
0.400000
 50
180.000000
 51
270.000000
  0
ARC
  8
18
 10
328.560518
 20
-154.186777
 40
0.400000
 50
270.000000
 51
360.000000
  0
ARC
  8
18
 10
328.560518
 20
-146.986777
 40
0.400000
 50
0.000000
 51
90.000000
  0
CIRCLE
  8
18
 10
265.960518
 20
-163.586777
 40
2.800000
  0
CIRCLE
  8
18
 10
315.960518
 20
-150.586777
 40
2.800000
  0
LINE
  8
18
 10
261.960518
 20
-169.586777
 11
269.960518
 21
-169.586777
  0
LINE
  8
18
 10
270.936128
 20
-168.806289
 11
271.814176
 21
-164.903850
  0
LINE
  8
18
 10
260.984908
 20
-168.806289
 11
260.106859
 21
-164.903850
  0
ARC
  8
18
 10
269.960518
 20
-168.586777
 40
1.000000
 50
270.000000
 51
347.319617
  0
ARC
  8
18
 10
261.960518
 20
-168.586777
 40
1.000000
 50
192.680383
 51
270.000000
  0
ARC
  8
18
 10
265.960518
 20
-163.586777
 40
6.000000
 50
175.000000
 51
192.680383
  0
ARC
  8
18
 10
265.960518
 20
-163.586777
 40
6.000000
 50
347.319617
 51
5.000000
  0
LINE
  8
18
 10
310.741006
 20
-145.611167
 11
314.643445
 21
-144.733118
  0
LINE
  8
18
 10
310.741006
 20
-155.562386
 11
314.643445
 21
-156.440435
  0
ARC
  8
18
 10
310.960518
 20
-146.586777
 40
1.000000
 50
102.680383
 51
180.000000
  0
ARC
  8
18
 10
310.960518
 20
-154.586777
 40
1.000000
 50
180.000000
 51
257.319617
  0
LINE
  8
18
 10
309.960518
 20
-154.586777
 11
309.960518
 21
-146.586777
  0
ARC
  8
18
 10
315.960518
 20
-150.586777
 40
6.000000
 50
85.000000
 51
102.680383
  0
ARC
  8
18
 10
315.960518
 20
-150.586777
 40
6.000000
 50
257.319617
 51
275.000000
  0
TEXT
  8
18
 10
244.289261
 20
-266.527985
 40
6.000000
  1
１
 50
0.000000
  0
TEXT
  8
18
 10
253.082458
 20
-274.202026
 40
6.000000
  1
２
 50
0.000000
  0
TEXT
  8
18
 10
263.359627
 20
-184.075478
 40
6.000000
  1
Ａ
 50
0.000000
  0
TEXT
  8
18
 10
251.082405
 20
-193.498505
 40
5.000000
  1
ＡＣＴＵＡＴＯＲ　ＰＯＳＩＴＩＯＮ
 50
0.000000
  0
TEXT
  8
18
 10
313.359627
 20
-184.075478
 40
6.000000
  1
Ｂ
 50
0.000000
  0
TEXT
  8
18
 10
263.174342
 20
-160.548553
 40
3.000000
  1
Ｏ
 50
0.000000
  0
TEXT
  8
18
 10
271.736830
 20
-166.309218
 40
3.000000
  1
Ｓ
 50
90.000000
  0
TEXT
  8
18
 10
318.798741
 20
-147.800601
 40
3.000000
  1
Ｏ
 50
270.000000
  0
TEXT
  8
18
 10
313.238077
 20
-156.363089
 40
3.000000
  1
Ｓ
 50
0.000000
  0
TEXT
  8
18
 10
360.316223
 20
-253.771606
 40
4.000000
  1
２０００．１１．１４
 50
0.000000
  0
TEXT
  8
18
 10
307.200000
 20
-272.000000
 40
10.000000
  1
Ｄ３－０２６１９
 50
0.000000
  0
TEXT
  8
18
 10
245.708481
 20
-246.070526
 40
6.000000
  1
７００Ｇ－２ＩＡＳ　４０Ａ
 50
0.000000
  0
TEXT
  8
18
 10
245.708481
 20
-254.070526
 40
6.000000
  1
標準仕様　ＪＩＳ　５，１０Ｋ
 50
0.000000
  0
LINE
  8
20
 62
3
 10
-360.000000
 20
-277.000000
 11
400.000000
 21
-277.000000
  0
LINE
  8
20
 62
3
 10
-360.000000
 20
264.000000
 11
400.000000
 21
264.000000
  0
LINE
  8
20
 62
3
 10
-360.000000
 20
264.000000
 11
-360.000000
 21
-277.000000
  0
LINE
  8
20
 62
3
 10
400.000000
 20
264.000000
 11
400.000000
 21
-277.000000
  0
LINE
  8
20
 62
3
 10
120.000000
 20
-277.000000
 11
120.000000
 21
-237.000000
  0
LINE
  8
20
 62
3
 10
214.000000
 20
-277.000000
 11
214.000000
 21
-237.000000
  0
LINE
  8
20
 10
214.000000
 20
-257.000000
 11
400.000000
 21
-257.000000
  0
LINE
  8
20
 62
3
 10
120.000000
 20
-237.000000
 11
400.000000
 21
-237.000000
  0
LINE
  8
20
 10
360.000000
 20
-257.000000
 11
360.000000
 21
-237.000000
  0
LINE
  8
20
 10
360.000000
 20
-247.000000
 11
400.000000
 21
-247.000000
  0
LINE
  8
20
 10
242.000000
 20
-277.000000
 11
242.000000
 21
-237.000000
  0
LINE
  8
20
 10
262.000000
 20
-277.000000
 11
262.000000
 21
-257.000000
  0
LINE
  8
20
 10
302.000000
 20
-277.000000
 11
302.000000
 21
-257.000000
  0
LINE
  8
20
 10
247.456829
 20
-271.543171
 11
255.796581
 21
-263.203419
  0
TEXT
  8
20
 10
263.066658
 20
-264.993835
 40
3.600000
  1
ＤＲＡＷＩＮＧ　ＮＯ．
 50
0.000000
  0
TEXT
  8
20
 10
267.000000
 20
-273.000000
 40
6.000000
  1
図　　　番
 50
0.000000
  0
TEXT
  8
20
 10
372.000000
 20
-244.000000
 40
4.000000
  1
ＤＡＴＥ
 50
0.000000
  0
TEXT
  8
20
 10
218.002142
 20
-265.922058
 40
4.000000
  1
ＳＣＡＬＥ
 50
0.000000
  0
TEXT
  8
20
 10
216.000000
 20
-273.000000
 40
6.000000
  1
尺　　度
 50
0.000000
  0
TEXT
  8
20
 10
215.002142
 20
-244.991769
 40
4.000000
  1
ＦＩＧ．ＮＯ．
 50
0.000000
  0
TEXT
  8
20
 10
216.000000
 20
-253.000000
 40
6.000000
  1
名　　称
 50
0.000000
  0
TEXT
  8
20
 10
121.131050
 20
-252.940506
 40
4.600000
  1
ＴＯＭＯＥ　ＶＡＬＶＥ　ＣＯ．，ＬＴＤ．
 50
0.000000
  0
TEXT
  8
20
 10
135.000000
 20
-266.579620
 40
8.000000
  1
巴バルブ株式会社
 50
0.000000
  0
ENDSEC
  0
EOF
