  0
SECTION
  2
HEADER
  9
$ACADVER
  1
AC1012
  9
$DWGCODEPAGE
  3
ansi_932
  9
$INSBASE
 10
0.0
 20
0.0
 30
0.0
  9
$EXTMIN
 10
-1260.0
 20
-891.0
 30
1.000000E+20
  9
$EXTMAX
 10
1260.0
 20
891.0
 30
-1.000000E+20
  9
$LIMMIN
 10
-1260.0
 20
-891.0
  9
$LIMMAX
 10
1260.0
 20
891.0
  9
$ORTHOMODE
 70
     0
  9
$REGENMODE
 70
     1
  9
$FILLMODE
 70
     1
  9
$QTEXTMODE
 70
     0
  9
$MIRRTEXT
 70
     1
  9
$DRAGMODE
 70
     2
  9
$LTSCALE
 40
1.0
  9
$OSMODE
 70
     0
  9
$ATTMODE
 70
     1
  9
$TEXTSIZE
 40
0.2
  9
$TRACEWID
 40
0.05
  9
$TEXTSTYLE
  7
STANDARD
  9
$CLAYER
  8
0
  9
$CELTYPE
  6
CONTINUOUS
  9
$CECOLOR
 62
   256
  9
$CELTSCALE
 40
1.0
  9
$DELOBJ
 70
     1
  9
$DISPSILH
 70
     0
  9
$DIMSCALE
 40
6.0
  9
$DIMASZ
 40
0.18
  9
$DIMEXO
 40
0.0625
  9
$DIMDLI
 40
0.38
  9
$DIMRND
 40
0.0
  9
$DIMDLE
 40
0.0
  9
$DIMEXE
 40
0.18
  9
$DIMTP
 40
0.0
  9
$DIMTM
 40
0.0
  9
$DIMTXT
 40
0.18
  9
$DIMCEN
 40
0.09
  9
$DIMTSZ
 40
0.0
  9
$DIMTOL
 70
     0
  9
$DIMLIM
 70
     0
  9
$DIMTIH
 70
     1
  9
$DIMTOH
 70
     1
  9
$DIMSE1
 70
     0
  9
$DIMSE2
 70
     0
  9
$DIMTAD
 70
     1
  9
$DIMZIN
 70
     0
  9
$DIMBLK
  1

  9
$DIMASO
 70
     1
  9
$DIMSHO
 70
     1
  9
$DIMPOST
  1

  9
$DIMAPOST
  1

  9
$DIMALT
 70
     0
  9
$DIMALTD
 70
     2
  9
$DIMALTF
 40
25.4
  9
$DIMLFAC
 40
1.0
  9
$DIMTOFL
 70
     0
  9
$DIMTVP
 40
0.0
  9
$DIMTIX
 70
     0
  9
$DIMSOXD
 70
     0
  9
$DIMSAH
 70
     0
  9
$DIMBLK1
  1

  9
$DIMBLK2
  1

  9
$DIMSTYLE
  2
STANDARD
  9
$DIMCLRD
 70
     0
  9
$DIMCLRE
 70
     0
  9
$DIMCLRT
 70
     0
  9
$DIMTFAC
 40
1.0
  9
$DIMGAP
 40
0.09
  9
$DIMJUST
 70
     0
  9
$DIMSD1
 70
     0
  9
$DIMSD2
 70
     0
  9
$DIMTOLJ
 70
     1
  9
$DIMTZIN
 70
     0
  9
$DIMALTZ
 70
     0
  9
$DIMALTTZ
 70
     0
  9
$DIMFIT
 70
     3
  9
$DIMUPT
 70
     0
  9
$DIMUNIT
 70
     2
  9
$DIMDEC
 70
     4
  9
$DIMTDEC
 70
     4
  9
$DIMALTU
 70
     2
  9
$DIMALTTD
 70
     2
  9
$DIMTXSTY
  7
STANDARD
  9
$DIMAUNIT
 70
     0
  9
$LUNITS
 70
     2
  9
$LUPREC
 70
     4
  9
$SKETCHINC
 40
0.1
  9
$FILLETRAD
 40
0.0
  9
$AUNITS
 70
     0
  9
$AUPREC
 70
     0
  9
$MENU
  1
acad
  9
$ELEVATION
 40
0.0
  9
$PELEVATION
 40
0.0
  9
$THICKNESS
 40
0.0
  9
$LIMCHECK
 70
     0
  9
$BLIPMODE
 70
     1
  9
$CHAMFERA
 40
0.0
  9
$CHAMFERB
 40
0.0
  9
$CHAMFERC
 40
0.0
  9
$CHAMFERD
 40
0.0
  9
$SKPOLY
 70
     0
  9
$TDCREATE
 40
2451484.000000000
  9
$TDUPDATE
 40
0.000000000
  9
$TDINDWG
 40
0.0000000000
  9
$TDUSRTIMER
 40
0.0000000000
  9
$USRTIMER
 70
     1
  9
$ANGBASE
 50
0.0
  9
$ANGDIR
 70
     0
  9
$PDMODE
 70
     0
  9
$PDSIZE
 40
0.0
  9
$PLINEWID
 40
0.0
  9
$COORDS
 70
     0
  9
$SPLFRAME
 70
     0
  9
$SPLINETYPE
 70
     6
  9
$SPLINESEGS
 70
     8
  9
$ATTDIA
 70
     0
  9
$ATTREQ
 70
     1
  9
$HANDLING
 70
     1
  9
$HANDSEED
  5
981
  9
$SURFTAB1
 70
     6
  9
$SURFTAB2
 70
     6
  9
$SURFTYPE
 70
     6
  9
$SURFU
 70
     6
  9
$SURFV
 70
     6
  9
$UCSNAME
  2

  9
$UCSORG
 10
0.0
 20
0.0
 30
0.0
  9
$UCSXDIR
 10
1.0
 20
0.0
 30
0.0
  9
$UCSYDIR
 10
0.0
 20
1.0
 30
0.0
  9
$PUCSNAME
  2

  9
$PUCSORG
 10
0.0
 20
0.0
 30
0.0
  9
$PUCSXDIR
 10
1.0
 20
0.0
 30
0.0
  9
$PUCSYDIR
 10
0.0
 20
1.0
 30
0.0
  9
$USERI1
 70
     0
  9
$USERI2
 70
     0
  9
$USERI3
 70
     0
  9
$USERI4
 70
     0
  9
$USERI5
 70
     0
  9
$USERR1
 40
0.0
  9
$USERR2
 40
0.0
  9
$USERR3
 40
0.0
  9
$USERR4
 40
0.0
  9
$USERR5
 40
0.0
  9
$WORLDVIEW
 70
     1
  9
$SHADEDGE
 70
     3
  9
$SHADEDIF
 70
    70
  9
$TILEMODE
 70
     1
  9
$MAXACTVP
 70
    16
  9
$PINSBASE
 10
0.0
 20
0.0
 30
0.0
  9
$PLIMCHECK
 70
     0
  9
$PEXTMIN
 10
1.000000E+20
 20
1.000000E+20
 30
1.000000E+20
  9
$PEXTMAX
 10
-1.000000E+20
 20
-1.000000E+20
 30
-1.000000E+20
  9
$PLIMMIN
 10
0.0
 20
0.0
  9
$PLIMMAX
 10
12.0
 20
9.0
  9
$UNITMODE
 70
     0
  9
$VISRETAIN
 70
     0
  9
$PLINEGEN
 70
     1
  9
$PSLTSCALE
 70
     0
  9
$TREEDEPTH
 70
  3020
  9
$PICKSTYLE
 70
     1
  9
$CMLSTYLE
  2
STANDARD
  9
$CMLJUST
 70
     0
  9
$CMLSCALE
 40
1.0
  9
$SAVEIMAGES
 70
     0
  0
ENDSEC
  0
SECTION
  2
CLASSES
  0
CLASS
  1
LWPOLYLINE
  2
AcDbPolyline
  3
"AutoCAD"
 90
    32768
280
     0
281
     1
  0
CLASS
  1
IMAGE
  2
AcDbRasterImage
  3
ISM
 90
    32895
280
     0
281
     1
  0
CLASS
  1
OLE2FRAME
  2
AcDbOle2Frame
  3
""
 90
    32768
280
     0
281
     1
  0
CLASS
  1
HATCH
  2
AcDbHatch
  3
"ACAD_SEDONA"
 90
    32768
280
     0
281
     1
  0
CLASS
  1
DICTIONARYVAR
  2
AcDbDictionaryVar
  3
"AutoCAD"
 90
    32768
280
     0
281
     0
  0
CLASS
  1
RASTERVARIABLES
  2
AcDbRasterVariables
  3
ISM
 90
    32768
280
     0
281
     0
  0
CLASS
  1
IMAGEDEF
  2
AcDbRasterImageDef
  3
ISM
 90
    32768
280
     0
281
     0
  0
CLASS
  1
IMAGEDEF_REACTOR
  2
AcDbRasterImageDefReactor
  3
ISM
 90
    32769
280
     0
281
     0
  0
CLASS
  1
IDBUFFER
  2
AcDbIdBuffer
  3
"Acad"
 90
    32768
280
     0
281
     0
  0
CLASS
  1
SPATIAL_FILTER
  2
AcDbSpatialFilter
  3
"Acad"
 90
    32768
280
     0
281
     0
  0
CLASS
  1
XRECORD
  2
AcDbXrecord
  3
"<Built In>"
 90
    32768
280
     0
281
     0
  0
CLASS
  1
SORTENTSTABLE
  2
AcDbSortentsTable
  3
"AutoCAD"
 90
    32768
280
     0
281
     0
  0
CLASS
  1
LAYER_INDEX
  2
AcDbLayerIndex
  3
"Acad"
 90
    32768
280
     0
281
     0
  0
CLASS
  1
SPATIAL_INDEX
  2
AcDbSpatialIndex
  3
"Acad"
 90
    32768
280
     0
281
     0
  0
CLASS
  1
OBJECT_PTR
  2
CAseDLPNTableRecord
  3
"ASE-LPNTableRecord"
 90
    32769
280
     0
281
     0
  0
CLASS
  1
LAYOUT
  2
AcDbLayout
  3
"AutoCAD 2000"
 90
    32768
280
     0
281
     0
  0
CLASS
  1
PLOTSETTINGS
  2
AcDbPlotSettings
  3
"AutoCAD 2000"
 90
    32768
280
     0
281
     0
  0
CLASS
  1
ACDBDICTIONARYWDFLT
  2
AcDbDictionaryWithDefault
  3
"AutoCAD 2000"
 90
    32768
280
     0
281
     0
  0
CLASS
  1
ACDBPLACEHOLDER
  2
AcDbPlaceHolder
  3
"AutoCAD 2000"
 90
    32768
280
     0
281
     0
  0
CLASS
  1
VBA_PROJECT
  2
AcDbVbaProject
  3
"acadvba"
 90
    32768
280
     0
281
     0
  0
CLASS
  1
WIPEOUT
  2
AcDbWipeout
  3
WipeOut|AutoCAD Express Tool|expresstools@autodesk.com
 90
    32895
280
     0
281
     1
  0
CLASS
  1
WIPEOUTVARIABLES
  2
AcDbWipeoutVariables
  3
WipeOut|AutoCAD Express Tool|expresstools@autodesk.com
 90
    32768
280
     0
281
     0
  0
CLASS
  1
RTEXT
  2
RText
  3
RText|AutoCAD Express Tool|expresstools@autodesk.com
 90
    32768
280
     0
281
     1
  0
CLASS
  1
ARCALIGNEDTEXT
  2
AcDbArcAlignedText
  3
ATEXT|AutoCAD Express Tool|expresstools@autodesk.com
 90
    32768
280
     0
281
     1
  0
ENDSEC
  0
SECTION
  2
TABLES
  0
TABLE
  2
VPORT
  5
6
100
AcDbSymbolTable
 70
     1
  0
VPORT
  5
1C
100
AcDbSymbolTableRecord
100
AcDbViewportTableRecord
  2
*ACTIVE
 70
     0
 10
0.0
 20
0.0
 11
1.0
 21
1.0
 12
0.0
 22
0.0
 13
0.0
 23
0.0
 14
1.0
 24
1.0
 15
0.0
 25
0.0
 16
0.0
 26
0.0
 36
1.0
 17
0.0
 27
0.0
 37
0.0
 40
1782.0
 41
1.414141
 42
50.0
 43
0.0
 44
0.0
 50
0.0
 51
0.0
 71
     0
 72
   500
 73
     1
 74
     1
 75
     0
 76
     0
 77
     0
 78
     0
  0
ENDTAB
  0
TABLE
  2
LTYPE
  5
3
100
AcDbSymbolTable
 70
     9
  0
LTYPE
  5
C
100
AcDbSymbolTableRecord
100
AcDbLinetypeTableRecord
  2
BYBLOCK
 70
    64
  3

 72
    65
 73
     0
 40
0.0
  0
LTYPE
  5
D
100
AcDbSymbolTableRecord
100
AcDbLinetypeTableRecord
  2
BYLAYER
 70
    64
  3

 72
    65
 73
     0
 40
0.0
  0
LTYPE
  5
E
100
AcDbSymbolTableRecord
100
AcDbLinetypeTableRecord
  2
CONTINUOUS
 70
     0
  3
Solid line
 72
    65
 73
     0
 40
0.0
  0
LTYPE
  5
F
100
AcDbSymbolTableRecord
100
AcDbLinetypeTableRecord
  2
DASHED
 70
     0
  3
__ __ __ __ __ __ __ __ __ __ __ __ __ __ __
 72
    65
 73
     2
 40
2.0
 49
1.2
 74
     0
 49
-0.8
 74
     0
  0
LTYPE
  5
10
100
AcDbSymbolTableRecord
100
AcDbLinetypeTableRecord
  2
CENTER
 70
     0
  3
____ _ ____ _ ____ _ ____ _ ____ _ ____ _ ____
 72
    65
 73
     4
 40
12.0
 49
9.0
 74
     0
 49
-1.0
 74
     0
 49
1.0
 74
     0
 49
-1.0
 74
     0
  0
LTYPE
  5
11
100
AcDbSymbolTableRecord
100
AcDbLinetypeTableRecord
  2
HIDDEN
 70
     0
  3
_ _ _ _ _ _ _ _ _ _ _ _ _ _ _ _ _ _ _ _ _ _ _
 72
    65
 73
     2
 40
3.2
 49
2.4
 74
     0
 49
-0.8
 74
     0
  0
LTYPE
  5
12
100
AcDbSymbolTableRecord
100
AcDbLinetypeTableRecord
  2
PHANTOM
 70
     0
  3
_____ _ _ _____ _ _ _____ _ _ _____ _ _ _____
 72
    65
 73
     6
 40
13.5
 49
9.0
 74
     0
 49
-1.0
 74
     0
 49
1.0
 74
     0
 49
-0.5
 74
     0
 49
1.0
 74
     0
 49
-1.0
 74
     0
  0
LTYPE
  5
13
100
AcDbSymbolTableRecord
100
AcDbLinetypeTableRecord
  2
DOT
 70
     0
  3
...............................................
 72
    65
 73
     2
 40
1.0
 49
0.5
 74
     0
 49
-0.5
 74
     0
  0
LTYPE
  5
14
100
AcDbSymbolTableRecord
100
AcDbLinetypeTableRecord
  2
DASHDOT
 70
     0
  3
__ . __ . __ . __ . __ . __ . __ . __ . __ . __
 72
    65
 73
     4
 40
8.0
 49
5.0
 74
     0
 49
-1.0
 74
     0
 49
1.0
 74
     0
 49
-1.0
 74
     0
  0
ENDTAB
  0
TABLE
  2
LAYER
  5
1
100
AcDbSymbolTable
 70
     7
  0
LAYER
  5
15
100
AcDbSymbolTableRecord
100
AcDbLayerTableRecord
  2
0
 70
     0
 62
     7
  6
CONTINUOUS
  0
LAYER
  5
16
100
AcDbSymbolTableRecord
100
AcDbLayerTableRecord
  2
1
 70
     0
 62
     7
  6
CONTINUOUS
  0
LAYER
  5
17
100
AcDbSymbolTableRecord
100
AcDbLayerTableRecord
  2
2
 70
     0
 62
     7
  6
CONTINUOUS
  0
LAYER
  5
18
100
AcDbSymbolTableRecord
100
AcDbLayerTableRecord
  2
3
 70
     0
 62
     7
  6
CONTINUOUS
  0
LAYER
  5
19
100
AcDbSymbolTableRecord
100
AcDbLayerTableRecord
  2
5
 70
     0
 62
     7
  6
CONTINUOUS
  0
LAYER
  5
1A
100
AcDbSymbolTableRecord
100
AcDbLayerTableRecord
  2
18
 70
     0
 62
     7
  6
CONTINUOUS
  0
LAYER
  5
1B
100
AcDbSymbolTableRecord
100
AcDbLayerTableRecord
  2
20
 70
     0
 62
     7
  6
CONTINUOUS
  0
ENDTAB
  0
TABLE
  2
STYLE
  5
2
100
AcDbSymbolTable
 70
     1
  0
STYLE
  5
1E
100
AcDbSymbolTableRecord
100
AcDbTextStyleTableRecord
  2
STANDARD
 70
    64
 40
0.0
 41
1.0
 50
0.0
 71
     0
 42
1.0
  3
txt
  4
BIGFONT
  0
ENDTAB
  0
TABLE
  2
VIEW
  5
4
100
AcDbSymbolTable
 70
     0
  0
ENDTAB
  0
TABLE
  2
UCS
  5
5
100
AcDbSymbolTable
 70
     0
  0
ENDTAB
  0
TABLE
  2
APPID
  5
7
100
AcDbSymbolTable
 70
     1
  0
APPID
  5
1D
100
AcDbSymbolTableRecord
100
AcDbRegAppTableRecord
  2
ACAD
 70
     0
  0
ENDTAB
  0
TABLE
  2
DIMSTYLE
  5
8
100
AcDbSymbolTable
 70
     1
  0
DIMSTYLE
105
31
100
AcDbSymbolTableRecord
100
AcDbDimStyleTableRecord
  2
STANDARD
 70
     0
  3

  4

  5

  6

  7

 40
6.0
 41
0.18
 42
0.0625
 43
0.38
 44
0.18
 45
0.0
 46
0.0
 47
0.0
 48
0.0
 71
     0
 72
     0
 73
     1
 74
     1
 75
     0
 76
     0
 77
     1
 78
     0
140
0.18
141
0.09
142
0.0
143
25.4
144
1.0
145
0.0
146
1.0
147
0.09
170
     0
171
     2
172
     0
173
     0
174
     0
175
     0
176
     0
177
     0
178
     0
270
     2
271
     4
272
     4
273
     2
274
     2
275
     0
280
     0
281
     0
282
     0
283
     1
284
     0
285
     0
286
     0
287
     3
288
     0
340
1E
  0
ENDTAB
  0
TABLE
  2
BLOCK_RECORD
  5
2C
100
AcDbSymbolTable
 70
    11
  0
BLOCK_RECORD
  5
2A
100
AcDbSymbolTableRecord
100
AcDbBlockTableRecord
  2
*MODEL_SPACE
  0
BLOCK_RECORD
  5
2B
100
AcDbSymbolTableRecord
100
AcDbBlockTableRecord
  2
*PAPER_SPACE
  0
BLOCK_RECORD
  5
1F
100
AcDbSymbolTableRecord
100
AcDbBlockTableRecord
  2
*D0
  0
BLOCK_RECORD
  5
20
100
AcDbSymbolTableRecord
100
AcDbBlockTableRecord
  2
*D1
  0
BLOCK_RECORD
  5
21
100
AcDbSymbolTableRecord
100
AcDbBlockTableRecord
  2
*D2
  0
BLOCK_RECORD
  5
22
100
AcDbSymbolTableRecord
100
AcDbBlockTableRecord
  2
*D3
  0
BLOCK_RECORD
  5
23
100
AcDbSymbolTableRecord
100
AcDbBlockTableRecord
  2
*D4
  0
BLOCK_RECORD
  5
24
100
AcDbSymbolTableRecord
100
AcDbBlockTableRecord
  2
*D5
  0
BLOCK_RECORD
  5
25
100
AcDbSymbolTableRecord
100
AcDbBlockTableRecord
  2
*D6
  0
BLOCK_RECORD
  5
26
100
AcDbSymbolTableRecord
100
AcDbBlockTableRecord
  2
*D7
  0
BLOCK_RECORD
  5
27
100
AcDbSymbolTableRecord
100
AcDbBlockTableRecord
  2
*D8
  0
BLOCK_RECORD
  5
28
100
AcDbSymbolTableRecord
100
AcDbBlockTableRecord
  2
*D9
  0
BLOCK_RECORD
  5
29
100
AcDbSymbolTableRecord
100
AcDbBlockTableRecord
  2
*D10
  0
ENDTAB
  0
ENDSEC
  0
SECTION
  2
BLOCKS
  0
BLOCK
  5
2D
100
AcDbEntity
  8
0
100
AcDbBlockBegin
  2
*MODEL_SPACE
 70
     0
 10
0.0
 20
0.0
 30
0.0
  3
*MODEL_SPACE
  1

  0
ENDBLK
  5
2E
100
AcDbEntity
  8
0
100
AcDbBlockEnd
  0
BLOCK
  5
2F
100
AcDbEntity
 67
     1
  8
0
100
AcDbBlockBegin
  2
*PAPER_SPACE
 70
     0
 10
0.0
 20
0.0
 30
0.0
  3
*PAPER_SPACE
  1

  0
ENDBLK
  5
30
100
AcDbEntity
 67
     1
  8
0
100
AcDbBlockEnd
  0
BLOCK
  5
8F3
100
AcDbEntity
  8
5
100
AcDbBlockBegin
  2
*D0
 70
     1
 10
0.0
 20
0.0
 30
0.0
  3
*D0
  1

  0
TEXT
  5
8F4
100
AcDbEntity
  8
5
 62
     2
100
AcDbText
 10
-332.868446
 20
704.48291
 30
0.0
 40
19.8
  1
381
 41
1.4
 72
     5
 11
-296.832447
 21
704.48291
 31
0.0
100
AcDbText
  0
LINE
  5
8F5
100
AcDbEntity
  8
5
 62
     2
100
AcDbLine
 10
-502.328446
 20
651.55659
 30
0.0
 11
-502.328446
 21
707.48291
 31
0.0
  0
LINE
  5
8F6
100
AcDbEntity
  8
5
 62
     2
100
AcDbLine
 10
-502.328446
 20
701.48291
 30
0.0
 11
-490.737336
 21
698.377082
 31
0.0
  0
LINE
  5
8F7
100
AcDbEntity
  8
5
 62
     2
100
AcDbLine
 10
-502.328446
 20
701.48291
 30
0.0
 11
-490.737336
 21
704.588739
 31
0.0
  0
LINE
  5
8F8
100
AcDbEntity
  8
5
 62
     2
100
AcDbLine
 10
-490.737336
 20
698.377082
 30
0.0
 11
-490.737336
 21
704.588739
 31
0.0
  0
LINE
  5
8F9
100
AcDbEntity
  8
5
 62
     2
100
AcDbLine
 10
-502.328446
 20
701.48291
 30
0.0
 11
-121.828446
 21
701.48291
 31
0.0
  0
LINE
  5
8FA
100
AcDbEntity
  8
5
 62
     2
100
AcDbLine
 10
-121.828446
 20
701.48291
 30
0.0
 11
-133.419556
 21
704.588739
 31
0.0
  0
LINE
  5
8FB
100
AcDbEntity
  8
5
 62
     2
100
AcDbLine
 10
-121.828446
 20
701.48291
 30
0.0
 11
-133.419556
 21
698.377082
 31
0.0
  0
LINE
  5
8FC
100
AcDbEntity
  8
5
 62
     2
100
AcDbLine
 10
-133.419556
 20
704.588739
 30
0.0
 11
-133.419556
 21
698.377082
 31
0.0
  0
LINE
  5
8FD
100
AcDbEntity
  8
5
 62
     2
100
AcDbLine
 10
-121.828446
 20
574.018273
 30
0.0
 11
-121.828446
 21
707.48291
 31
0.0
  0
ENDBLK
  5
8FE
100
AcDbEntity
  8
5
100
AcDbBlockEnd
  0
BLOCK
  5
8FF
100
AcDbEntity
  8
5
100
AcDbBlockBegin
  2
*D1
 70
     1
 10
0.0
 20
0.0
 30
0.0
  3
*D1
  1

  0
TEXT
  5
900
100
AcDbEntity
  8
5
 62
     2
100
AcDbText
 10
-519.368446
 20
748.99379
 30
0.0
 40
19.8
  1
754
 41
1.4
 72
     5
 11
-483.332447
 21
748.99379
 31
0.0
100
AcDbText
  0
LINE
  5
901
100
AcDbEntity
  8
5
 62
     2
100
AcDbLine
 10
-875.328446
 20
628.559273
 30
0.0
 11
-875.328446
 21
751.99379
 31
0.0
  0
LINE
  5
902
100
AcDbEntity
  8
5
 62
     2
100
AcDbLine
 10
-875.328446
 20
745.99379
 30
0.0
 11
-863.737336
 21
742.887961
 31
0.0
  0
LINE
  5
903
100
AcDbEntity
  8
5
 62
     2
100
AcDbLine
 10
-875.328446
 20
745.99379
 30
0.0
 11
-863.737336
 21
749.099618
 31
0.0
  0
LINE
  5
904
100
AcDbEntity
  8
5
 62
     2
100
AcDbLine
 10
-863.737336
 20
742.887961
 30
0.0
 11
-863.737336
 21
749.099618
 31
0.0
  0
LINE
  5
905
100
AcDbEntity
  8
5
 62
     2
100
AcDbLine
 10
-875.328446
 20
745.99379
 30
0.0
 11
-121.828446
 21
745.99379
 31
0.0
  0
LINE
  5
906
100
AcDbEntity
  8
5
 62
     2
100
AcDbLine
 10
-121.828446
 20
745.99379
 30
0.0
 11
-133.419556
 21
749.099618
 31
0.0
  0
LINE
  5
907
100
AcDbEntity
  8
5
 62
     2
100
AcDbLine
 10
-121.828446
 20
745.99379
 30
0.0
 11
-133.419556
 21
742.887961
 31
0.0
  0
LINE
  5
908
100
AcDbEntity
  8
5
 62
     2
100
AcDbLine
 10
-133.419556
 20
749.099618
 30
0.0
 11
-133.419556
 21
742.887961
 31
0.0
  0
LINE
  5
909
100
AcDbEntity
  8
5
 62
     2
100
AcDbLine
 10
-121.828446
 20
574.018273
 30
0.0
 11
-121.828446
 21
751.99379
 31
0.0
  0
ENDBLK
  5
90A
100
AcDbEntity
  8
5
100
AcDbBlockEnd
  0
BLOCK
  5
90B
100
AcDbEntity
  8
5
100
AcDbBlockBegin
  2
*D2
 70
     1
 10
0.0
 20
0.0
 30
0.0
  3
*D2
  1

  0
TEXT
  5
90C
100
AcDbEntity
  8
5
 62
     2
100
AcDbText
 10
44.747166
 20
-70.940964
 30
0.0
 40
19.8
  1
190
 50
90.0
 41
1.4
 72
     5
 11
44.747166
 21
-34.904965
 31
0.0
100
AcDbText
  0
LINE
  5
90D
100
AcDbEntity
  8
5
 62
     2
100
AcDbLine
 10
147.771554
 20
-145.150965
 30
0.0
 11
41.747166
 21
-145.150965
 31
0.0
  0
LINE
  5
90E
100
AcDbEntity
  8
5
 62
     2
100
AcDbLine
 10
47.747166
 20
-145.150965
 30
0.0
 11
50.852994
 21
-133.559855
 31
0.0
  0
LINE
  5
90F
100
AcDbEntity
  8
5
 62
     2
100
AcDbLine
 10
47.747166
 20
-145.150965
 30
0.0
 11
44.641337
 21
-133.559855
 31
0.0
  0
LINE
  5
910
100
AcDbEntity
  8
5
 62
     2
100
AcDbLine
 10
50.852994
 20
-133.559855
 30
0.0
 11
44.641337
 21
-133.559855
 31
0.0
  0
LINE
  5
911
100
AcDbEntity
  8
5
 62
     2
100
AcDbLine
 10
47.747166
 20
-145.150965
 30
0.0
 11
47.747166
 21
44.849035
 31
0.0
  0
LINE
  5
912
100
AcDbEntity
  8
5
 62
     2
100
AcDbLine
 10
47.747166
 20
44.849035
 30
0.0
 11
44.641337
 21
33.257925
 31
0.0
  0
LINE
  5
913
100
AcDbEntity
  8
5
 62
     2
100
AcDbLine
 10
47.747166
 20
44.849035
 30
0.0
 11
50.852994
 21
33.257925
 31
0.0
  0
LINE
  5
914
100
AcDbEntity
  8
5
 62
     2
100
AcDbLine
 10
44.641337
 20
33.257925
 30
0.0
 11
50.852994
 21
33.257925
 31
0.0
  0
LINE
  5
915
100
AcDbEntity
  8
5
 62
     2
100
AcDbLine
 10
122.771554
 20
44.849035
 30
0.0
 11
41.747166
 21
44.849035
 31
0.0
  0
ENDBLK
  5
916
100
AcDbEntity
  8
5
100
AcDbBlockEnd
  0
BLOCK
  5
917
100
AcDbEntity
  8
5
100
AcDbBlockBegin
  2
*D3
 70
     1
 10
0.0
 20
0.0
 30
0.0
  3
*D3
  1

  0
TEXT
  5
918
100
AcDbEntity
  8
5
 62
     2
100
AcDbText
 10
44.747166
 20
141.059036
 30
0.0
 40
19.8
  1
234
 50
90.0
 41
1.4
 72
     5
 11
44.747166
 21
177.095035
 31
0.0
100
AcDbText
  0
LINE
  5
919
100
AcDbEntity
  8
5
 62
     2
100
AcDbLine
 10
122.771554
 20
44.849035
 30
0.0
 11
41.747166
 21
44.849035
 31
0.0
  0
LINE
  5
91A
100
AcDbEntity
  8
5
 62
     2
100
AcDbLine
 10
47.747166
 20
44.849035
 30
0.0
 11
50.852994
 21
56.440145
 31
0.0
  0
LINE
  5
91B
100
AcDbEntity
  8
5
 62
     2
100
AcDbLine
 10
47.747166
 20
44.849035
 30
0.0
 11
44.641337
 21
56.440145
 31
0.0
  0
LINE
  5
91C
100
AcDbEntity
  8
5
 62
     2
100
AcDbLine
 10
50.852994
 20
56.440145
 30
0.0
 11
44.641337
 21
56.440145
 31
0.0
  0
LINE
  5
91D
100
AcDbEntity
  8
5
 62
     2
100
AcDbLine
 10
47.747166
 20
44.849035
 30
0.0
 11
47.747166
 21
278.849035
 31
0.0
  0
LINE
  5
91E
100
AcDbEntity
  8
5
 62
     2
100
AcDbLine
 10
47.747166
 20
278.849035
 30
0.0
 11
44.641337
 21
267.257925
 31
0.0
  0
LINE
  5
91F
100
AcDbEntity
  8
5
 62
     2
100
AcDbLine
 10
47.747166
 20
278.849035
 30
0.0
 11
50.852994
 21
267.257925
 31
0.0
  0
LINE
  5
920
100
AcDbEntity
  8
5
 62
     2
100
AcDbLine
 10
44.641337
 20
267.257925
 30
0.0
 11
50.852994
 21
267.257925
 31
0.0
  0
LINE
  5
921
100
AcDbEntity
  8
5
 62
     2
100
AcDbLine
 10
205.771554
 20
278.849035
 30
0.0
 11
41.747166
 21
278.849035
 31
0.0
  0
ENDBLK
  5
922
100
AcDbEntity
  8
5
100
AcDbBlockEnd
  0
BLOCK
  5
923
100
AcDbEntity
  8
5
100
AcDbBlockBegin
  2
*D4
 70
     1
 10
0.0
 20
0.0
 30
0.0
  3
*D4
  1

  0
TEXT
  5
924
100
AcDbEntity
  8
5
 62
     2
100
AcDbText
 10
245.911554
 20
328.85685
 30
0.0
 40
19.8
  1
62
 41
1.4
 72
     5
 11
268.087554
 21
328.85685
 31
0.0
100
AcDbText
  0
LINE
  5
925
100
AcDbEntity
  8
5
 62
     2
100
AcDbLine
 10
228.771554
 20
308.771498
 30
0.0
 11
228.771554
 21
331.85685
 31
0.0
  0
LINE
  5
926
100
AcDbEntity
  8
5
 62
     2
100
AcDbLine
 10
228.771554
 20
325.85685
 30
0.0
 11
240.362664
 21
322.751021
 31
0.0
  0
LINE
  5
927
100
AcDbEntity
  8
5
 62
     2
100
AcDbLine
 10
228.771554
 20
325.85685
 30
0.0
 11
240.362664
 21
328.962678
 31
0.0
  0
LINE
  5
928
100
AcDbEntity
  8
5
 62
     2
100
AcDbLine
 10
240.362664
 20
322.751021
 30
0.0
 11
240.362664
 21
328.962678
 31
0.0
  0
LINE
  5
929
100
AcDbEntity
  8
5
 62
     2
100
AcDbLine
 10
228.771554
 20
325.85685
 30
0.0
 11
290.771554
 21
325.85685
 31
0.0
  0
LINE
  5
92A
100
AcDbEntity
  8
5
 62
     2
100
AcDbLine
 10
290.771554
 20
325.85685
 30
0.0
 11
279.180444
 21
328.962678
 31
0.0
  0
LINE
  5
92B
100
AcDbEntity
  8
5
 62
     2
100
AcDbLine
 10
290.771554
 20
325.85685
 30
0.0
 11
279.180444
 21
322.751021
 31
0.0
  0
LINE
  5
92C
100
AcDbEntity
  8
5
 62
     2
100
AcDbLine
 10
279.180444
 20
328.962678
 30
0.0
 11
279.180444
 21
322.751021
 31
0.0
  0
LINE
  5
92D
100
AcDbEntity
  8
5
 62
     2
100
AcDbLine
 10
290.771554
 20
250.349035
 30
0.0
 11
290.771554
 21
331.85685
 31
0.0
  0
ENDBLK
  5
92E
100
AcDbEntity
  8
5
100
AcDbBlockEnd
  0
BLOCK
  5
92F
100
AcDbEntity
  8
5
100
AcDbBlockBegin
  2
*D5
 70
     1
 10
0.0
 20
0.0
 30
0.0
  3
*D5
  1

  0
TEXT
  5
930
100
AcDbEntity
  8
5
 62
     2
100
AcDbText
 10
157.981554
 20
376.413712
 30
0.0
 40
19.8
  1
100
 41
1.4
 72
     5
 11
194.017553
 21
376.413712
 31
0.0
100
AcDbText
  0
LINE
  5
931
100
AcDbEntity
  8
5
 62
     2
100
AcDbLine
 10
128.771554
 20
73.849035
 30
0.0
 11
128.771554
 21
379.413712
 31
0.0
  0
LINE
  5
932
100
AcDbEntity
  8
5
 62
     2
100
AcDbLine
 10
128.771554
 20
373.413712
 30
0.0
 11
140.362664
 21
370.307883
 31
0.0
  0
LINE
  5
933
100
AcDbEntity
  8
5
 62
     2
100
AcDbLine
 10
128.771554
 20
373.413712
 30
0.0
 11
140.362664
 21
376.51954
 31
0.0
  0
LINE
  5
934
100
AcDbEntity
  8
5
 62
     2
100
AcDbLine
 10
140.362664
 20
370.307883
 30
0.0
 11
140.362664
 21
376.51954
 31
0.0
  0
LINE
  5
935
100
AcDbEntity
  8
5
 62
     2
100
AcDbLine
 10
128.771554
 20
373.413712
 30
0.0
 11
228.771554
 21
373.413712
 31
0.0
  0
LINE
  5
936
100
AcDbEntity
  8
5
 62
     2
100
AcDbLine
 10
228.771554
 20
373.413712
 30
0.0
 11
217.180444
 21
376.51954
 31
0.0
  0
LINE
  5
937
100
AcDbEntity
  8
5
 62
     2
100
AcDbLine
 10
228.771554
 20
373.413712
 30
0.0
 11
217.180444
 21
370.307883
 31
0.0
  0
LINE
  5
938
100
AcDbEntity
  8
5
 62
     2
100
AcDbLine
 10
217.180444
 20
376.51954
 30
0.0
 11
217.180444
 21
370.307883
 31
0.0
  0
LINE
  5
939
100
AcDbEntity
  8
5
 62
     2
100
AcDbLine
 10
228.771554
 20
308.771498
 30
0.0
 11
228.771554
 21
379.413712
 31
0.0
  0
ENDBLK
  5
93A
100
AcDbEntity
  8
5
100
AcDbBlockEnd
  0
BLOCK
  5
93B
100
AcDbEntity
  8
5
100
AcDbBlockBegin
  2
*D6
 70
     1
 10
0.0
 20
0.0
 30
0.0
  3
*D6
  1

  0
TEXT
  5
93C
100
AcDbEntity
  8
5
 62
     2
100
AcDbText
 10
291.481554
 20
376.413712
 30
0.0
 40
19.8
  1
167
 41
1.4
 72
     5
 11
327.517553
 21
376.413712
 31
0.0
100
AcDbText
  0
LINE
  5
93D
100
AcDbEntity
  8
5
 62
     2
100
AcDbLine
 10
228.771554
 20
308.771498
 30
0.0
 11
228.771554
 21
379.413712
 31
0.0
  0
LINE
  5
93E
100
AcDbEntity
  8
5
 62
     2
100
AcDbLine
 10
228.771554
 20
373.413712
 30
0.0
 11
240.362664
 21
370.307883
 31
0.0
  0
LINE
  5
93F
100
AcDbEntity
  8
5
 62
     2
100
AcDbLine
 10
228.771554
 20
373.413712
 30
0.0
 11
240.362664
 21
376.51954
 31
0.0
  0
LINE
  5
940
100
AcDbEntity
  8
5
 62
     2
100
AcDbLine
 10
240.362664
 20
370.307883
 30
0.0
 11
240.362664
 21
376.51954
 31
0.0
  0
LINE
  5
941
100
AcDbEntity
  8
5
 62
     2
100
AcDbLine
 10
228.771554
 20
373.413712
 30
0.0
 11
395.771554
 21
373.413712
 31
0.0
  0
LINE
  5
942
100
AcDbEntity
  8
5
 62
     2
100
AcDbLine
 10
395.771554
 20
373.413712
 30
0.0
 11
384.180444
 21
376.51954
 31
0.0
  0
LINE
  5
943
100
AcDbEntity
  8
5
 62
     2
100
AcDbLine
 10
395.771554
 20
373.413712
 30
0.0
 11
384.180444
 21
370.307883
 31
0.0
  0
LINE
  5
944
100
AcDbEntity
  8
5
 62
     2
100
AcDbLine
 10
384.180444
 20
376.51954
 30
0.0
 11
384.180444
 21
370.307883
 31
0.0
  0
LINE
  5
945
100
AcDbEntity
  8
5
 62
     2
100
AcDbLine
 10
395.771554
 20
149.849035
 30
0.0
 11
395.771554
 21
379.413712
 31
0.0
  0
ENDBLK
  5
946
100
AcDbEntity
  8
5
100
AcDbBlockEnd
  0
BLOCK
  5
947
100
AcDbEntity
  8
5
100
AcDbBlockBegin
  2
*D7
 70
     1
 10
0.0
 20
0.0
 30
0.0
  3
*D7
  1

  0
TEXT
  5
948
100
AcDbEntity
  8
5
 62
     2
100
AcDbText
 10
44.747166
 20
-320.940964
 30
0.0
 40
19.8
  1
310
 50
90.0
 41
1.4
 72
     5
 11
44.747166
 21
-284.904965
 31
0.0
100
AcDbText
  0
LINE
  5
949
100
AcDbEntity
  8
5
 62
     2
100
AcDbLine
 10
148.545785
 20
-455.150965
 30
0.0
 11
41.747166
 21
-455.150965
 31
0.0
  0
LINE
  5
94A
100
AcDbEntity
  8
5
 62
     2
100
AcDbLine
 10
47.747166
 20
-455.150965
 30
0.0
 11
50.852994
 21
-443.559855
 31
0.0
  0
LINE
  5
94B
100
AcDbEntity
  8
5
 62
     2
100
AcDbLine
 10
47.747166
 20
-455.150965
 30
0.0
 11
44.641337
 21
-443.559855
 31
0.0
  0
LINE
  5
94C
100
AcDbEntity
  8
5
 62
     2
100
AcDbLine
 10
50.852994
 20
-443.559855
 30
0.0
 11
44.641337
 21
-443.559855
 31
0.0
  0
LINE
  5
94D
100
AcDbEntity
  8
5
 62
     2
100
AcDbLine
 10
47.747166
 20
-455.150965
 30
0.0
 11
47.747166
 21
-145.150965
 31
0.0
  0
LINE
  5
94E
100
AcDbEntity
  8
5
 62
     2
100
AcDbLine
 10
47.747166
 20
-145.150965
 30
0.0
 11
44.641337
 21
-156.742075
 31
0.0
  0
LINE
  5
94F
100
AcDbEntity
  8
5
 62
     2
100
AcDbLine
 10
47.747166
 20
-145.150965
 30
0.0
 11
50.852994
 21
-156.742075
 31
0.0
  0
LINE
  5
950
100
AcDbEntity
  8
5
 62
     2
100
AcDbLine
 10
44.641337
 20
-156.742075
 30
0.0
 11
50.852994
 21
-156.742075
 31
0.0
  0
LINE
  5
951
100
AcDbEntity
  8
5
 62
     2
100
AcDbLine
 10
147.771554
 20
-145.150965
 30
0.0
 11
41.747166
 21
-145.150965
 31
0.0
  0
ENDBLK
  5
952
100
AcDbEntity
  8
5
100
AcDbBlockEnd
  0
BLOCK
  5
953
100
AcDbEntity
  8
5
100
AcDbBlockBegin
  2
*D8
 70
     1
 10
0.0
 20
0.0
 30
0.0
  3
*D8
  1

  0
TEXT
  5
954
100
AcDbEntity
  8
5
 62
     2
100
AcDbText
 10
44.747166
 20
-598.690964
 30
0.0
 40
19.8
  1
246
 50
90.0
 41
1.4
 72
     5
 11
44.747166
 21
-562.654965
 31
0.0
100
AcDbText
  0
LINE
  5
955
100
AcDbEntity
  8
5
 62
     2
100
AcDbLine
 10
195.271554
 20
-700.650965
 30
0.0
 11
41.747166
 21
-700.650965
 31
0.0
  0
LINE
  5
956
100
AcDbEntity
  8
5
 62
     2
100
AcDbLine
 10
47.747166
 20
-700.650965
 30
0.0
 11
50.852994
 21
-689.059855
 31
0.0
  0
LINE
  5
957
100
AcDbEntity
  8
5
 62
     2
100
AcDbLine
 10
47.747166
 20
-700.650965
 30
0.0
 11
44.641337
 21
-689.059855
 31
0.0
  0
LINE
  5
958
100
AcDbEntity
  8
5
 62
     2
100
AcDbLine
 10
50.852994
 20
-689.059855
 30
0.0
 11
44.641337
 21
-689.059855
 31
0.0
  0
LINE
  5
959
100
AcDbEntity
  8
5
 62
     2
100
AcDbLine
 10
47.747166
 20
-700.650965
 30
0.0
 11
47.747166
 21
-455.150965
 31
0.0
  0
LINE
  5
95A
100
AcDbEntity
  8
5
 62
     2
100
AcDbLine
 10
47.747166
 20
-455.150965
 30
0.0
 11
44.641337
 21
-466.742075
 31
0.0
  0
LINE
  5
95B
100
AcDbEntity
  8
5
 62
     2
100
AcDbLine
 10
47.747166
 20
-455.150965
 30
0.0
 11
50.852994
 21
-466.742075
 31
0.0
  0
LINE
  5
95C
100
AcDbEntity
  8
5
 62
     2
100
AcDbLine
 10
44.641337
 20
-466.742075
 30
0.0
 11
50.852994
 21
-466.742075
 31
0.0
  0
LINE
  5
95D
100
AcDbEntity
  8
5
 62
     2
100
AcDbLine
 10
148.545785
 20
-455.150965
 30
0.0
 11
41.747166
 21
-455.150965
 31
0.0
  0
ENDBLK
  5
95E
100
AcDbEntity
  8
5
100
AcDbBlockEnd
  0
BLOCK
  5
95F
100
AcDbEntity
  8
5
100
AcDbBlockBegin
  2
*D9
 70
     1
 10
0.0
 20
0.0
 30
0.0
  3
*D9
  1

  0
TEXT
  5
960
100
AcDbEntity
  8
5
 62
     2
100
AcDbText
 10
152.051554
 20
-748.841034
 30
0.0
 40
19.8
  1
34
 41
1.4
 72
     5
 11
174.227554
 21
-748.841034
 31
0.0
100
AcDbText
  0
LINE
  5
961
100
AcDbEntity
  8
5
 62
     2
100
AcDbLine
 10
194.771554
 20
-645.150965
 30
0.0
 11
194.771554
 21
-757.841034
 31
0.0
  0
LINE
  5
962
100
AcDbEntity
  8
5
 62
     2
100
AcDbLine
 10
194.771554
 20
-751.841034
 30
0.0
 11
183.180444
 21
-748.735205
 31
0.0
  0
LINE
  5
963
100
AcDbEntity
  8
5
 62
     2
100
AcDbLine
 10
194.771554
 20
-751.841034
 30
0.0
 11
183.180444
 21
-754.946862
 31
0.0
  0
LINE
  5
964
100
AcDbEntity
  8
5
 62
     2
100
AcDbLine
 10
183.180444
 20
-748.735205
 30
0.0
 11
183.180444
 21
-754.946862
 31
0.0
  0
LINE
  5
965
100
AcDbEntity
  8
5
 62
     2
100
AcDbLine
 10
149.051554
 20
-751.841034
 30
0.0
 11
258.771554
 21
-751.841034
 31
0.0
  0
LINE
  5
966
100
AcDbEntity
  8
5
 62
     2
100
AcDbLine
 10
228.771554
 20
-751.841034
 30
0.0
 11
240.362664
 21
-754.946862
 31
0.0
  0
LINE
  5
967
100
AcDbEntity
  8
5
 62
     2
100
AcDbLine
 10
228.771554
 20
-751.841034
 30
0.0
 11
240.362664
 21
-748.735205
 31
0.0
  0
LINE
  5
968
100
AcDbEntity
  8
5
 62
     2
100
AcDbLine
 10
240.362664
 20
-754.946862
 30
0.0
 11
240.362664
 21
-748.735205
 31
0.0
  0
LINE
  5
969
100
AcDbEntity
  8
5
 62
     2
100
AcDbLine
 10
228.771554
 20
-733.493906
 30
0.0
 11
228.771554
 21
-757.841034
 31
0.0
  0
ENDBLK
  5
96A
100
AcDbEntity
  8
5
100
AcDbBlockEnd
  0
BLOCK
  5
96B
100
AcDbEntity
  8
5
100
AcDbBlockBegin
  2
*D10
 70
     1
 10
0.0
 20
0.0
 30
0.0
  3
*D10
  1

  0
TEXT
  5
96C
100
AcDbEntity
  8
5
 62
     2
100
AcDbText
 10
220.911554
 20
-796.549164
 30
0.0
 40
19.8
  1
80
 41
1.4
 72
     5
 11
243.087554
 21
-796.549164
 31
0.0
100
AcDbText
  0
LINE
  5
96D
100
AcDbEntity
  8
5
 62
     2
100
AcDbLine
 10
194.771554
 20
-645.150965
 30
0.0
 11
194.771554
 21
-805.549164
 31
0.0
  0
LINE
  5
96E
100
AcDbEntity
  8
5
 62
     2
100
AcDbLine
 10
194.771554
 20
-799.549164
 30
0.0
 11
206.362664
 21
-802.654992
 31
0.0
  0
LINE
  5
96F
100
AcDbEntity
  8
5
 62
     2
100
AcDbLine
 10
194.771554
 20
-799.549164
 30
0.0
 11
206.362664
 21
-796.443335
 31
0.0
  0
LINE
  5
970
100
AcDbEntity
  8
5
 62
     2
100
AcDbLine
 10
206.362664
 20
-802.654992
 30
0.0
 11
206.362664
 21
-796.443335
 31
0.0
  0
LINE
  5
971
100
AcDbEntity
  8
5
 62
     2
100
AcDbLine
 10
194.771554
 20
-799.549164
 30
0.0
 11
274.771554
 21
-799.549164
 31
0.0
  0
LINE
  5
972
100
AcDbEntity
  8
5
 62
     2
100
AcDbLine
 10
274.771554
 20
-799.549164
 30
0.0
 11
263.180444
 21
-796.443335
 31
0.0
  0
LINE
  5
973
100
AcDbEntity
  8
5
 62
     2
100
AcDbLine
 10
274.771554
 20
-799.549164
 30
0.0
 11
263.180444
 21
-802.654992
 31
0.0
  0
LINE
  5
974
100
AcDbEntity
  8
5
 62
     2
100
AcDbLine
 10
263.180444
 20
-796.443335
 30
0.0
 11
263.180444
 21
-802.654992
 31
0.0
  0
LINE
  5
975
100
AcDbEntity
  8
5
 62
     2
100
AcDbLine
 10
274.771554
 20
-645.150965
 30
0.0
 11
274.771554
 21
-805.549164
 31
0.0
  0
ENDBLK
  5
976
100
AcDbEntity
  8
5
100
AcDbBlockEnd
  0
ENDSEC
  0
SECTION
  2
ENTITIES
  0
LINE
  5
32
100
AcDbEntity
  8
1
  6
CENTER
 62
     2
100
AcDbLine
 10
228.771554
 20
302.771498
 30
0.0
 11
228.771554
 21
-727.493906
 31
0.0
  0
LINE
  5
33
100
AcDbEntity
  8
1
  6
CENTER
 62
     2
100
AcDbLine
 10
-502.328446
 20
300.949035
 30
0.0
 11
-502.328446
 21
-712.978876
 31
0.0
  0
LINE
  5
34
100
AcDbEntity
  8
1
  6
CENTER
 62
     2
100
AcDbLine
 10
-504.828446
 20
-727.493906
 30
0.0
 11
-504.828446
 21
-153.219095
 31
0.0
  0
LINE
  5
35
100
AcDbEntity
  8
1
  6
CENTER
 62
     2
100
AcDbLine
 10
-504.828446
 20
413.951381
 30
0.0
 11
-504.828446
 21
579.09753
 31
0.0
  0
LINE
  5
36
100
AcDbEntity
  8
1
  6
CENTER
 62
     2
100
AcDbLine
 10
-259.880097
 20
-455.150965
 30
0.0
 11
-752.665894
 21
-455.150965
 31
0.0
  0
LINE
  5
37
100
AcDbEntity
  8
1
  6
CENTER
 62
     2
100
AcDbLine
 10
154.545785
 20
-455.150965
 30
0.0
 11
309.892464
 21
-455.150965
 31
0.0
  0
CIRCLE
  5
38
100
AcDbEntity
  8
1
100
AcDbCircle
 10
-504.828446
 20
-455.150965
 30
0.0
 40
184.0
  0
LINE
  5
39
100
AcDbEntity
  8
1
100
AcDbLine
 10
-474.828446
 20
-685.150965
 30
0.0
 11
-534.828446
 21
-685.150965
 31
0.0
  0
LINE
  5
3A
100
AcDbEntity
  8
1
100
AcDbLine
 10
-437.328446
 20
-163.150965
 30
0.0
 11
-567.328446
 21
-163.150965
 31
0.0
  0
LINE
  5
3B
100
AcDbEntity
  8
1
100
AcDbLine
 10
-572.328446
 20
-158.150965
 30
0.0
 11
-572.328446
 21
-145.150965
 31
0.0
  0
LINE
  5
3C
100
AcDbEntity
  8
1
100
AcDbLine
 10
-432.328446
 20
-158.150965
 30
0.0
 11
-432.328446
 21
-145.150965
 31
0.0
  0
ARC
  5
3D
100
AcDbEntity
  8
1
100
AcDbCircle
 10
-437.328446
 20
-158.150965
 30
0.0
 40
5.0
100
AcDbArc
 50
270.0
 51
360.0
  0
ARC
  5
3E
100
AcDbEntity
  8
1
100
AcDbCircle
 10
-567.328446
 20
-158.150965
 30
0.0
 40
5.0
100
AcDbArc
 50
180.0
 51
270.0
  0
LINE
  5
3F
100
AcDbEntity
  8
1
100
AcDbLine
 10
-283.871505
 20
-438.058537
 30
0.0
 11
-311.125105
 21
-443.372792
 31
0.0
  0
LINE
  5
40
100
AcDbEntity
  8
1
100
AcDbLine
 10
-283.871505
 20
-472.243393
 30
0.0
 11
-311.125105
 21
-466.929138
 31
0.0
  0
LINE
  5
41
100
AcDbEntity
  8
1
100
AcDbLine
 10
-725.785387
 20
-438.058537
 30
0.0
 11
-698.531788
 21
-443.372792
 31
0.0
  0
LINE
  5
42
100
AcDbEntity
  8
1
100
AcDbLine
 10
-725.785387
 20
-472.243393
 30
0.0
 11
-698.531788
 21
-466.929138
 31
0.0
  0
LINE
  5
43
100
AcDbEntity
  8
1
100
AcDbLine
 10
-724.828446
 20
-428.150965
 30
0.0
 11
-696.909159
 21
-428.150965
 31
0.0
  0
LINE
  5
44
100
AcDbEntity
  8
1
100
AcDbLine
 10
-312.747734
 20
-428.150965
 30
0.0
 11
-284.828446
 21
-428.150965
 31
0.0
  0
LINE
  5
45
100
AcDbEntity
  8
1
100
AcDbLine
 10
-724.828446
 20
-482.150965
 30
0.0
 11
-696.909159
 21
-482.150965
 31
0.0
  0
LINE
  5
46
100
AcDbEntity
  8
1
100
AcDbLine
 10
-312.747734
 20
-482.150965
 30
0.0
 11
-284.828446
 21
-482.150965
 31
0.0
  0
ARC
  5
47
100
AcDbEntity
  8
1
100
AcDbCircle
 10
-308.828446
 20
-455.150965
 30
0.0
 40
12.0
100
AcDbArc
 50
101.03381
 51
258.96619
  0
ARC
  5
48
100
AcDbEntity
  8
1
100
AcDbCircle
 10
-284.828446
 20
-433.150965
 30
0.0
 40
5.0
100
AcDbArc
 50
281.03381
 51
90.0
  0
ARC
  5
49
100
AcDbEntity
  8
1
100
AcDbCircle
 10
-284.828446
 20
-477.150965
 30
0.0
 40
5.0
100
AcDbArc
 50
270.0
 51
78.96619
  0
ARC
  5
4A
100
AcDbEntity
  8
1
100
AcDbCircle
 10
-724.828446
 20
-477.150965
 30
0.0
 40
5.0
100
AcDbArc
 50
101.03381
 51
270.0
  0
ARC
  5
4B
100
AcDbEntity
  8
1
100
AcDbCircle
 10
-700.828446
 20
-455.150965
 30
0.0
 40
12.0
100
AcDbArc
 50
281.03381
 51
78.96619
  0
ARC
  5
4C
100
AcDbEntity
  8
1
100
AcDbCircle
 10
-724.828446
 20
-433.150965
 30
0.0
 40
5.0
100
AcDbArc
 50
90.0
 51
258.96619
  0
ARC
  5
4D
100
AcDbEntity
  8
1
100
AcDbCircle
 10
-312.747734
 20
-416.150965
 30
0.0
 40
12.0
100
AcDbArc
 50
191.477295
 51
270.0
  0
ARC
  5
4E
100
AcDbEntity
  8
1
100
AcDbCircle
 10
-312.747734
 20
-494.150965
 30
0.0
 40
12.0
100
AcDbArc
 50
90.0
 51
168.522705
  0
ARC
  5
4F
100
AcDbEntity
  8
1
100
AcDbCircle
 10
-696.909159
 20
-494.150965
 30
0.0
 40
12.0
100
AcDbArc
 50
11.477295
 51
90.0
  0
ARC
  5
50
100
AcDbEntity
  8
1
100
AcDbCircle
 10
-696.909159
 20
-416.150965
 30
0.0
 40
12.0
100
AcDbArc
 50
270.0
 51
348.522705
  0
LINE
  5
51
100
AcDbEntity
  8
1
100
AcDbLine
 10
-709.828446
 20
-366.150965
 30
0.0
 11
-672.801659
 21
-366.150965
 31
0.0
  0
LINE
  5
52
100
AcDbEntity
  8
1
100
AcDbLine
 10
-336.855234
 20
-366.150965
 30
0.0
 11
-299.828446
 21
-366.150965
 31
0.0
  0
LINE
  5
53
100
AcDbEntity
  8
1
100
AcDbLine
 10
-709.828446
 20
-544.150965
 30
0.0
 11
-672.801659
 21
-544.150965
 31
0.0
  0
LINE
  5
54
100
AcDbEntity
  8
1
100
AcDbLine
 10
-336.855234
 20
-544.150965
 30
0.0
 11
-299.828446
 21
-544.150965
 31
0.0
  0
ARC
  5
55
100
AcDbEntity
  8
1
100
AcDbCircle
 10
-336.855234
 20
-354.150965
 30
0.0
 40
12.0
100
AcDbArc
 50
211.017919
 51
270.0
  0
ARC
  5
56
100
AcDbEntity
  8
1
100
AcDbCircle
 10
-672.801659
 20
-354.150965
 30
0.0
 40
12.0
100
AcDbArc
 50
270.0
 51
328.982081
  0
ARC
  5
57
100
AcDbEntity
  8
1
100
AcDbCircle
 10
-672.801659
 20
-556.150965
 30
0.0
 40
12.0
100
AcDbArc
 50
31.017919
 51
90.0
  0
ARC
  5
58
100
AcDbEntity
  8
1
100
AcDbCircle
 10
-336.855234
 20
-556.150965
 30
0.0
 40
12.0
100
AcDbArc
 50
90.0
 51
148.982081
  0
ARC
  5
59
100
AcDbEntity
  8
1
100
AcDbCircle
 10
-299.828446
 20
-376.150965
 30
0.0
 40
10.0
100
AcDbArc
 50
290.263338
 51
90.0
  0
ARC
  5
5A
100
AcDbEntity
  8
1
100
AcDbCircle
 10
-316.47291
 20
-404.681251
 30
0.0
 40
11.0
100
AcDbArc
 50
110.263338
 51
195.0
  0
LINE
  5
5B
100
AcDbEntity
  8
1
100
AcDbLine
 10
-320.2826
 20
-394.362033
 30
0.0
 11
-315.81355
 21
-392.712131
 31
0.0
  0
LINE
  5
5C
100
AcDbEntity
  8
1
100
AcDbLine
 10
-306.068545
 20
-389.114431
 30
0.0
 11
-296.365092
 21
-385.532072
 31
0.0
  0
ARC
  5
5D
100
AcDbEntity
  8
1
100
AcDbCircle
 10
-306.813652
 20
-402.093061
 30
0.0
 40
13.0
100
AcDbArc
 50
86.714237
 51
133.812439
  0
ARC
  5
5E
100
AcDbEntity
  8
1
100
AcDbCircle
 10
-299.828446
 20
-534.150965
 30
0.0
 40
10.0
100
AcDbArc
 50
270.0
 51
69.736662
  0
ARC
  5
5F
100
AcDbEntity
  8
1
100
AcDbCircle
 10
-316.47291
 20
-505.620679
 30
0.0
 40
11.0
100
AcDbArc
 50
165.0
 51
249.736662
  0
LINE
  5
60
100
AcDbEntity
  8
1
100
AcDbLine
 10
-320.2826
 20
-515.939897
 30
0.0
 11
-315.81355
 21
-517.589798
 31
0.0
  0
LINE
  5
61
100
AcDbEntity
  8
1
100
AcDbLine
 10
-306.068545
 20
-521.187498
 30
0.0
 11
-296.365092
 21
-524.769857
 31
0.0
  0
ARC
  5
62
100
AcDbEntity
  8
1
100
AcDbCircle
 10
-306.813652
 20
-508.208869
 30
0.0
 40
13.0
100
AcDbArc
 50
226.187561
 51
273.285763
  0
ARC
  5
63
100
AcDbEntity
  8
1
100
AcDbCircle
 10
-709.828446
 20
-534.150965
 30
0.0
 40
10.0
100
AcDbArc
 50
110.263338
 51
270.0
  0
ARC
  5
64
100
AcDbEntity
  8
1
100
AcDbCircle
 10
-693.183982
 20
-505.620679
 30
0.0
 40
11.0
100
AcDbArc
 50
290.263338
 51
15.0
  0
ARC
  5
65
100
AcDbEntity
  8
1
100
AcDbCircle
 10
-702.843241
 20
-508.208869
 30
0.0
 40
13.0
100
AcDbArc
 50
266.714237
 51
313.812439
  0
LINE
  5
66
100
AcDbEntity
  8
1
100
AcDbLine
 10
-713.291801
 20
-524.769857
 30
0.0
 11
-703.588348
 21
-521.187498
 31
0.0
  0
LINE
  5
67
100
AcDbEntity
  8
1
100
AcDbLine
 10
-693.843343
 20
-517.589798
 30
0.0
 11
-689.374293
 21
-515.939897
 31
0.0
  0
ARC
  5
68
100
AcDbEntity
  8
1
100
AcDbCircle
 10
-709.828446
 20
-376.150965
 30
0.0
 40
10.0
100
AcDbArc
 50
90.0
 51
249.736662
  0
ARC
  5
69
100
AcDbEntity
  8
1
100
AcDbCircle
 10
-702.843241
 20
-402.093061
 30
0.0
 40
13.0
100
AcDbArc
 50
46.187561
 51
93.285763
  0
ARC
  5
6A
100
AcDbEntity
  8
1
100
AcDbCircle
 10
-693.183982
 20
-404.681251
 30
0.0
 40
11.0
100
AcDbArc
 50
345.0
 51
69.736662
  0
LINE
  5
6B
100
AcDbEntity
  8
1
100
AcDbLine
 10
-713.291801
 20
-385.532072
 30
0.0
 11
-703.588348
 21
-389.114431
 31
0.0
  0
LINE
  5
6C
100
AcDbEntity
  8
1
100
AcDbLine
 10
-693.843343
 20
-392.712131
 30
0.0
 11
-689.374293
 21
-394.362033
 31
0.0
  0
LINE
  5
6D
100
AcDbEntity
  8
1
100
AcDbLine
 10
-536.828446
 20
-222.312812
 30
0.0
 11
-536.828446
 21
-173.150965
 31
0.0
  0
LINE
  5
6E
100
AcDbEntity
  8
1
100
AcDbLine
 10
-472.828446
 20
-222.312812
 30
0.0
 11
-472.828446
 21
-173.150965
 31
0.0
  0
ARC
  5
6F
100
AcDbEntity
  8
1
100
AcDbCircle
 10
-462.828446
 20
-173.150965
 30
0.0
 40
10.0
100
AcDbArc
 50
90.0
 51
180.0
  0
ARC
  5
70
100
AcDbEntity
  8
1
100
AcDbCircle
 10
-546.828446
 20
-173.150965
 30
0.0
 40
10.0
100
AcDbArc
 50
0.0
 51
90.0
  0
ARC
  5
71
100
AcDbEntity
  8
1
100
AcDbCircle
 10
-462.828446
 20
-192.066767
 30
0.0
 40
10.0
100
AcDbArc
 50
180.0
 51
270.0
  0
ARC
  5
72
100
AcDbEntity
  8
1
100
AcDbCircle
 10
-462.828446
 20
-210.066767
 30
0.0
 40
8.0
100
AcDbArc
 50
274.763105
 51
90.0
  0
ARC
  5
73
100
AcDbEntity
  8
1
100
AcDbCircle
 10
-546.828446
 20
-210.066767
 30
0.0
 40
8.0
100
AcDbArc
 50
90.0
 51
265.236895
  0
ARC
  5
74
100
AcDbEntity
  8
1
100
AcDbCircle
 10
-546.828446
 20
-192.066767
 30
0.0
 40
10.0
100
AcDbArc
 50
270.0
 51
360.0
  0
LINE
  5
75
100
AcDbEntity
  8
1
100
AcDbLine
 10
-476.835579
 20
-233.983884
 30
0.0
 11
-476.835579
 21
-238.772664
 31
0.0
  0
LINE
  5
76
100
AcDbEntity
  8
1
100
AcDbLine
 10
-532.821314
 20
-233.983884
 30
0.0
 11
-532.821314
 21
-238.772664
 31
0.0
  0
ARC
  5
77
100
AcDbEntity
  8
1
100
AcDbCircle
 10
-460.835579
 20
-233.983884
 30
0.0
 40
16.0
100
AcDbArc
 50
94.763105
 51
180.0
  0
ARC
  5
78
100
AcDbEntity
  8
1
100
AcDbCircle
 10
-548.821314
 20
-233.983884
 30
0.0
 40
16.0
100
AcDbArc
 50
0.0
 51
85.236895
  0
ARC
  5
79
100
AcDbEntity
  8
1
100
AcDbCircle
 10
-462.884027
 20
-244.282129
 30
0.0
 40
15.0
100
AcDbArc
 50
158.450945
 51
205.619898
  0
ARC
  5
7A
100
AcDbEntity
  8
1
100
AcDbCircle
 10
-546.772866
 20
-244.282129
 30
0.0
 40
15.0
100
AcDbArc
 50
334.380102
 51
21.549055
  0
ARC
  5
7B
100
AcDbEntity
  8
1
100
AcDbCircle
 10
-465.810382
 20
-258.993909
 30
0.0
 40
12.0
100
AcDbArc
 50
152.489795
 51
257.931204
  0
ARC
  5
7C
100
AcDbEntity
  8
1
100
AcDbCircle
 10
-543.846511
 20
-258.993909
 30
0.0
 40
12.0
100
AcDbArc
 50
282.068796
 51
27.510205
  0
ARC
  5
7D
100
AcDbEntity
  8
1
100
AcDbCircle
 10
-470.828446
 20
-282.463443
 30
0.0
 40
12.0
100
AcDbArc
 50
41.742421
 51
77.931204
  0
ARC
  5
7E
100
AcDbEntity
  8
1
100
AcDbCircle
 10
-538.828446
 20
-282.463443
 30
0.0
 40
12.0
100
AcDbArc
 50
102.068796
 51
138.257579
  0
ARC
  5
7F
100
AcDbEntity
  8
1
100
AcDbCircle
 10
-454.413247
 20
-267.816217
 30
0.0
 40
10.0
100
AcDbArc
 50
221.742421
 51
254.937523
  0
ARC
  5
80
100
AcDbEntity
  8
1
100
AcDbCircle
 10
-555.243646
 20
-267.816217
 30
0.0
 40
10.0
100
AcDbArc
 50
285.062477
 51
318.257579
  0
ARC
  5
81
100
AcDbEntity
  8
1
100
AcDbCircle
 10
-479.114311
 20
-252.06531
 30
0.0
 40
3.0
100
AcDbArc
 50
332.489795
 51
25.619898
  0
ARC
  5
82
100
AcDbEntity
  8
1
100
AcDbCircle
 10
-530.542582
 20
-252.06531
 30
0.0
 40
3.0
100
AcDbArc
 50
154.380102
 51
207.510205
  0
ARC
  5
83
100
AcDbEntity
  8
1
100
AcDbCircle
 10
-475.828446
 20
-222.312812
 30
0.0
 40
3.0
100
AcDbArc
 50
322.101325
 51
360.0
  0
ARC
  5
84
100
AcDbEntity
  8
1
100
AcDbCircle
 10
-533.828446
 20
-222.312812
 30
0.0
 40
3.0
100
AcDbArc
 50
180.0
 51
217.898675
  0
LINE
  5
85
100
AcDbEntity
  8
1
  6
CENTER
 62
     2
100
AcDbLine
 10
-551.828446
 20
-178.758303
 30
0.0
 11
-551.828446
 21
-119.184711
 31
0.0
  0
LINE
  5
86
100
AcDbEntity
  8
1
  6
CENTER
 62
     2
100
AcDbLine
 10
-452.828446
 20
-178.758303
 30
0.0
 11
-452.828446
 21
-119.184711
 31
0.0
  0
LINE
  5
87
100
AcDbEntity
  8
1
100
AcDbLine
 10
-533.328446
 20
-685.150965
 30
0.0
 11
-533.328446
 21
-672.671686
 31
0.0
  0
LINE
  5
88
100
AcDbEntity
  8
1
100
AcDbLine
 10
-476.328446
 20
-685.150965
 30
0.0
 11
-476.328446
 21
-672.671686
 31
0.0
  0
ARC
  5
89
100
AcDbEntity
  8
1
100
AcDbCircle
 10
-462.884027
 20
-666.0198
 30
0.0
 40
15.0
100
AcDbArc
 50
154.380102
 51
206.324794
  0
ARC
  5
8A
100
AcDbEntity
  8
1
100
AcDbCircle
 10
-465.810382
 20
-651.308021
 30
0.0
 40
12.0
100
AcDbArc
 50
102.068796
 51
207.510205
  0
ARC
  5
8B
100
AcDbEntity
  8
1
100
AcDbCircle
 10
-470.828446
 20
-627.838487
 30
0.0
 40
12.0
100
AcDbArc
 50
282.068796
 51
318.257579
  0
ARC
  5
8C
100
AcDbEntity
  8
1
100
AcDbCircle
 10
-479.114311
 20
-658.23662
 30
0.0
 40
3.0
100
AcDbArc
 50
334.380102
 51
27.510205
  0
ARC
  5
8D
100
AcDbEntity
  8
1
100
AcDbCircle
 10
-546.772866
 20
-666.0198
 30
0.0
 40
15.0
100
AcDbArc
 50
333.675206
 51
25.619898
  0
ARC
  5
8E
100
AcDbEntity
  8
1
100
AcDbCircle
 10
-543.846511
 20
-651.308021
 30
0.0
 40
12.0
100
AcDbArc
 50
332.489795
 51
77.931204
  0
ARC
  5
8F
100
AcDbEntity
  8
1
100
AcDbCircle
 10
-530.542582
 20
-658.23662
 30
0.0
 40
3.0
100
AcDbArc
 50
152.489795
 51
205.619898
  0
ARC
  5
90
100
AcDbEntity
  8
1
100
AcDbCircle
 10
-454.413247
 20
-642.485712
 30
0.0
 40
10.0
100
AcDbArc
 50
105.062477
 51
138.257579
  0
ARC
  5
91
100
AcDbEntity
  8
1
100
AcDbCircle
 10
-538.828446
 20
-627.838487
 30
0.0
 40
12.0
100
AcDbArc
 50
221.742421
 51
257.931204
  0
ARC
  5
92
100
AcDbEntity
  8
1
100
AcDbCircle
 10
-555.243646
 20
-642.485712
 30
0.0
 40
10.0
100
AcDbArc
 50
41.742421
 51
74.937523
  0
LINE
  5
93
100
AcDbEntity
  8
1
  6
CENTER
 62
     2
100
AcDbLine
 10
-525.828446
 20
-708.334223
 30
0.0
 11
-525.828446
 21
-673.579645
 31
0.0
  0
LINE
  5
94
100
AcDbEntity
  8
1
  6
CENTER
 62
     2
100
AcDbLine
 10
-483.828446
 20
-708.334223
 30
0.0
 11
-483.828446
 21
-673.579645
 31
0.0
  0
LINE
  5
95
100
AcDbEntity
  8
1
100
AcDbLine
 10
274.771554
 20
-271.150965
 30
0.0
 11
274.771554
 21
-639.150965
 31
0.0
  0
LINE
  5
96
100
AcDbEntity
  8
1
100
AcDbLine
 10
194.771554
 20
-271.150965
 30
0.0
 11
194.771554
 21
-639.150965
 31
0.0
  0
LINE
  5
97
100
AcDbEntity
  8
1
100
AcDbLine
 10
272.771554
 20
-271.150965
 30
0.0
 11
274.771554
 21
-271.150965
 31
0.0
  0
LINE
  5
98
100
AcDbEntity
  8
1
100
AcDbLine
 10
270.771554
 20
-639.150965
 30
0.0
 11
274.771554
 21
-639.150965
 31
0.0
  0
LINE
  5
99
100
AcDbEntity
  8
1
  6
DASHED
100
AcDbLine
 10
-544.528446
 20
567.371273
 30
0.0
 11
-460.128446
 21
567.371273
 31
0.0
  0
LINE
  5
9A
100
AcDbEntity
  8
1
  6
DASHED
100
AcDbLine
 10
-544.528446
 20
427.371273
 30
0.0
 11
-460.128446
 21
427.371273
 31
0.0
  0
LINE
  5
9B
100
AcDbEntity
  8
1
  6
DASHED
100
AcDbLine
 10
-572.328446
 20
455.171273
 30
0.0
 11
-572.328446
 21
539.571273
 31
0.0
  0
LINE
  5
9C
100
AcDbEntity
  8
1
  6
DASHED
100
AcDbLine
 10
-432.328446
 20
455.171273
 30
0.0
 11
-432.328446
 21
539.571273
 31
0.0
  0
ARC
  5
9D
100
AcDbEntity
  8
1
  6
DASHED
100
AcDbCircle
 10
-544.528446
 20
539.571273
 30
0.0
 40
27.8
100
AcDbArc
 50
90.0
 51
180.0
  0
ARC
  5
9E
100
AcDbEntity
  8
1
  6
DASHED
100
AcDbCircle
 10
-544.528446
 20
455.171273
 30
0.0
 40
27.8
100
AcDbArc
 50
180.0
 51
270.0
  0
ARC
  5
9F
100
AcDbEntity
  8
1
  6
DASHED
100
AcDbCircle
 10
-460.128446
 20
455.171273
 30
0.0
 40
27.8
100
AcDbArc
 50
270.0
 51
0.0
  0
ARC
  5
A0
100
AcDbEntity
  8
1
  6
DASHED
100
AcDbCircle
 10
-460.128446
 20
539.571273
 30
0.0
 40
27.8
100
AcDbArc
 50
360.0
 51
90.0
  0
CIRCLE
  5
A1
100
AcDbEntity
  8
1
  6
DASHED
100
AcDbCircle
 10
-452.828446
 20
546.871273
 30
0.0
 40
9.5
  0
CIRCLE
  5
A2
100
AcDbEntity
  8
1
  6
DASHED
100
AcDbCircle
 10
-551.828446
 20
546.871273
 30
0.0
 40
9.5
  0
CIRCLE
  5
A3
100
AcDbEntity
  8
1
  6
DASHED
100
AcDbCircle
 10
-551.828446
 20
447.871273
 30
0.0
 40
9.5
  0
CIRCLE
  5
A4
100
AcDbEntity
  8
1
  6
DASHED
100
AcDbCircle
 10
-452.828446
 20
447.871273
 30
0.0
 40
9.5
  0
LINE
  5
A5
100
AcDbEntity
  8
1
  6
CENTER
 62
     2
100
AcDbLine
 10
-470.696165
 20
546.871273
 30
0.0
 11
-436.181577
 21
546.871273
 31
0.0
  0
LINE
  5
A6
100
AcDbEntity
  8
1
  6
CENTER
 62
     2
100
AcDbLine
 10
-452.828446
 20
529.439083
 30
0.0
 11
-452.828446
 21
563.464931
 31
0.0
  0
LINE
  5
A7
100
AcDbEntity
  8
1
  6
CENTER
 62
     2
100
AcDbLine
 10
-568.949552
 20
546.871273
 30
0.0
 11
-535.190702
 21
546.871273
 31
0.0
  0
LINE
  5
A8
100
AcDbEntity
  8
1
  6
CENTER
 62
     2
100
AcDbLine
 10
-551.828446
 20
529.439083
 30
0.0
 11
-551.828446
 21
563.464931
 31
0.0
  0
LINE
  5
A9
100
AcDbEntity
  8
1
  6
CENTER
 62
     2
100
AcDbLine
 10
-568.949552
 20
447.871273
 30
0.0
 11
-535.190702
 21
447.871273
 31
0.0
  0
LINE
  5
AA
100
AcDbEntity
  8
1
  6
CENTER
 62
     2
100
AcDbLine
 10
-551.828446
 20
431.394252
 30
0.0
 11
-551.828446
 21
464.915981
 31
0.0
  0
LINE
  5
AB
100
AcDbEntity
  8
1
  6
CENTER
 62
     2
100
AcDbLine
 10
-470.696165
 20
447.871273
 30
0.0
 11
-436.181577
 21
447.871273
 31
0.0
  0
LINE
  5
AC
100
AcDbEntity
  8
1
  6
CENTER
 62
     2
100
AcDbLine
 10
-452.828446
 20
431.394252
 30
0.0
 11
-452.828446
 21
464.915981
 31
0.0
  0
LINE
  5
AD
100
AcDbEntity
  8
1
  6
DASHED
100
AcDbLine
 10
-688.828446
 20
543.371273
 30
0.0
 11
-572.06751
 21
543.371273
 31
0.0
  0
LINE
  5
AE
100
AcDbEntity
  8
1
  6
DASHED
100
AcDbLine
 10
-688.295065
 20
513.371273
 30
0.0
 11
-680.948072
 21
510.882018
 31
0.0
  0
LINE
  5
AF
100
AcDbEntity
  8
1
100
AcDbLine
 10
-680.948072
 20
485.860527
 30
0.0
 11
-684.899538
 21
484.52172
 31
0.0
  0
ARC
  5
B0
100
AcDbEntity
  8
1
  6
DASHED
100
AcDbCircle
 10
-682.552545
 20
506.146443
 30
0.0
 40
5.0
100
AcDbArc
 50
0.0
 51
71.282965
  0
ARC
  5
B1
100
AcDbEntity
  8
1
100
AcDbCircle
 10
-682.552545
 20
490.596102
 30
0.0
 40
5.0
100
AcDbArc
 50
288.717035
 51
360.0
  0
ARC
  5
B2
100
AcDbEntity
  8
1
100
AcDbCircle
 10
-683.295065
 20
479.786146
 30
0.0
 40
5.0
100
AcDbArc
 50
108.717035
 51
180.0
  0
LINE
  5
B3
100
AcDbEntity
  8
1
  6
DASHED
100
AcDbLine
 10
-572.328446
 20
509.73157
 30
0.0
 11
-677.552545
 21
509.73157
 31
0.0
  0
LINE
  5
B4
100
AcDbEntity
  8
1
  6
DASHED
100
AcDbLine
 10
-688.828446
 20
535.371273
 30
0.0
 11
-688.828446
 21
543.371273
 31
0.0
  0
LINE
  5
B5
100
AcDbEntity
  8
1
  6
DASHED
100
AcDbLine
 10
-684.899538
 20
513.371273
 30
0.0
 11
-682.558798
 21
513.371273
 31
0.0
  0
LINE
  5
B6
100
AcDbEntity
  8
1
  6
DASHED
100
AcDbLine
 10
-662.517584
 20
513.371273
 30
0.0
 11
-572.328446
 21
513.371273
 31
0.0
  0
LINE
  5
B7
100
AcDbEntity
  8
1
  6
DASHED
100
AcDbLine
 10
-729.828446
 20
527.288421
 30
0.0
 11
-729.828446
 21
532.871273
 31
0.0
  0
ARC
  5
B8
100
AcDbEntity
  8
1
  6
DASHED
100
AcDbCircle
 10
-727.328446
 20
532.871273
 30
0.0
 40
2.5
100
AcDbArc
 50
90.0
 51
180.0
  0
ARC
  5
B9
100
AcDbEntity
  8
1
  6
DASHED
100
AcDbCircle
 10
-689.149115
 20
539.371273
 30
0.0
 40
4.0
100
AcDbArc
 50
270.0
 51
360.0
  0
LINE
  5
BA
100
AcDbEntity
  8
1
  6
DASHED
100
AcDbLine
 10
-685.149115
 20
513.371273
 30
0.0
 11
-727.976916
 21
524.873988
 31
0.0
  0
ARC
  5
BB
100
AcDbEntity
  8
1
  6
DASHED
100
AcDbCircle
 10
-727.328446
 20
527.288421
 30
0.0
 40
2.5
100
AcDbArc
 50
180.0
 51
254.966254
  0
LINE
  5
BC
100
AcDbEntity
  8
1
  6
DASHED
100
AcDbLine
 10
-685.149115
 20
513.371273
 30
0.0
 11
-685.149115
 21
514.931457
 31
0.0
  0
LINE
  5
BD
100
AcDbEntity
  8
1
  6
DASHED
100
AcDbLine
 10
-728.017204
 20
524.88517
 30
0.0
 11
-689.100133
 21
513.73176
 31
0.0
  0
ARC
  5
BE
100
AcDbEntity
  8
1
  6
DASHED
100
AcDbCircle
 10
-689.203446
 20
513.371273
 30
0.0
 40
0.375
100
AcDbArc
 50
0.0
 51
74.008
  0
LINE
  5
BF
100
AcDbEntity
  8
1
  6
DASHED
100
AcDbLine
 10
-719.828446
 20
527.402026
 30
0.0
 11
-719.828446
 21
532.871273
 31
0.0
  0
LINE
  5
C0
100
AcDbEntity
  8
1
  6
DASHED
100
AcDbLine
 10
-662.517584
 20
513.371273
 30
0.0
 11
-662.517584
 21
535.371273
 31
0.0
  0
LINE
  5
C1
100
AcDbEntity
  8
1
  6
DASHED
100
AcDbLine
 10
-727.328446
 20
535.371273
 30
0.0
 11
-666.517584
 21
535.371273
 31
0.0
  0
ARC
  5
C2
100
AcDbEntity
  8
1
  6
DASHED
100
AcDbCircle
 10
-717.328446
 20
532.871273
 30
0.0
 40
2.5
100
AcDbArc
 50
90.0
 51
180.0
  0
LINE
  5
C3
100
AcDbEntity
  8
1
  6
DASHED
100
AcDbLine
 10
-662.517584
 20
513.371273
 30
0.0
 11
-717.840797
 21
524.95509
 31
0.0
  0
ARC
  5
C4
100
AcDbEntity
  8
1
  6
DASHED
100
AcDbCircle
 10
-717.328446
 20
527.402026
 30
0.0
 40
2.5
100
AcDbArc
 50
180.0
 51
258.174007
  0
ARC
  5
C5
100
AcDbEntity
  8
1
  6
DASHED
100
AcDbCircle
 10
-666.517584
 20
539.371273
 30
0.0
 40
4.0
100
AcDbArc
 50
270.0
 51
360.0
  0
LINE
  5
C6
100
AcDbEntity
  8
1
  6
DASHED
100
AcDbLine
 10
-718.06058
 20
525.011633
 30
0.0
 11
-682.449032
 21
514.104471
 31
0.0
  0
ARC
  5
C7
100
AcDbEntity
  8
1
  6
DASHED
100
AcDbCircle
 10
-682.558798
 20
513.746088
 30
0.0
 40
0.374816
100
AcDbArc
 50
270.0
 51
72.971138
  0
LINE
  5
C8
100
AcDbEntity
  8
1
  6
DASHED
100
AcDbLine
 10
-320.828446
 20
543.371273
 30
0.0
 11
-432.589383
 21
543.371273
 31
0.0
  0
LINE
  5
C9
100
AcDbEntity
  8
1
  6
DASHED
100
AcDbLine
 10
-321.361828
 20
513.371273
 30
0.0
 11
-328.708821
 21
510.882018
 31
0.0
  0
LINE
  5
CA
100
AcDbEntity
  8
1
100
AcDbLine
 10
-328.708821
 20
485.860527
 30
0.0
 11
-324.757355
 21
484.52172
 31
0.0
  0
ARC
  5
CB
100
AcDbEntity
  8
1
  6
DASHED
100
AcDbCircle
 10
-327.104348
 20
506.146443
 30
0.0
 40
5.0
100
AcDbArc
 50
108.717035
 51
180.0
  0
ARC
  5
CC
100
AcDbEntity
  8
1
100
AcDbCircle
 10
-327.104348
 20
490.596102
 30
0.0
 40
5.0
100
AcDbArc
 50
180.0
 51
251.282965
  0
ARC
  5
CD
100
AcDbEntity
  8
1
100
AcDbCircle
 10
-326.361828
 20
479.786146
 30
0.0
 40
5.0
100
AcDbArc
 50
360.0
 51
71.282965
  0
LINE
  5
CE
100
AcDbEntity
  8
1
  6
DASHED
100
AcDbLine
 10
-432.328446
 20
509.73157
 30
0.0
 11
-332.104348
 21
509.73157
 31
0.0
  0
LINE
  5
CF
100
AcDbEntity
  8
1
  6
DASHED
100
AcDbLine
 10
-320.828446
 20
535.371273
 30
0.0
 11
-320.828446
 21
543.371273
 31
0.0
  0
LINE
  5
D0
100
AcDbEntity
  8
1
  6
DASHED
100
AcDbLine
 10
-324.757355
 20
513.371273
 30
0.0
 11
-327.098094
 21
513.371273
 31
0.0
  0
LINE
  5
D1
100
AcDbEntity
  8
1
  6
DASHED
100
AcDbLine
 10
-347.139308
 20
513.371273
 30
0.0
 11
-432.328446
 21
513.371273
 31
0.0
  0
LINE
  5
D2
100
AcDbEntity
  8
1
  6
DASHED
100
AcDbLine
 10
-279.828446
 20
527.288421
 30
0.0
 11
-279.828446
 21
532.871273
 31
0.0
  0
ARC
  5
D3
100
AcDbEntity
  8
1
  6
DASHED
100
AcDbCircle
 10
-282.328446
 20
532.871273
 30
0.0
 40
2.5
100
AcDbArc
 50
360.0
 51
90.0
  0
ARC
  5
D4
100
AcDbEntity
  8
1
  6
DASHED
100
AcDbCircle
 10
-320.507778
 20
539.371273
 30
0.0
 40
4.0
100
AcDbArc
 50
180.0
 51
270.0
  0
LINE
  5
D5
100
AcDbEntity
  8
1
  6
DASHED
100
AcDbLine
 10
-324.507778
 20
513.371273
 30
0.0
 11
-281.679977
 21
524.873988
 31
0.0
  0
ARC
  5
D6
100
AcDbEntity
  8
1
  6
DASHED
100
AcDbCircle
 10
-282.328446
 20
527.288421
 30
0.0
 40
2.5
100
AcDbArc
 50
285.033746
 51
360.0
  0
LINE
  5
D7
100
AcDbEntity
  8
1
  6
DASHED
100
AcDbLine
 10
-324.507778
 20
513.371273
 30
0.0
 11
-324.507778
 21
514.931457
 31
0.0
  0
LINE
  5
D8
100
AcDbEntity
  8
1
  6
DASHED
100
AcDbLine
 10
-281.639689
 20
524.88517
 30
0.0
 11
-320.55676
 21
513.73176
 31
0.0
  0
ARC
  5
D9
100
AcDbEntity
  8
1
  6
DASHED
100
AcDbCircle
 10
-320.453446
 20
513.371273
 30
0.0
 40
0.375
100
AcDbArc
 50
105.992
 51
180.0
  0
LINE
  5
DA
100
AcDbEntity
  8
1
  6
DASHED
100
AcDbLine
 10
-289.828446
 20
527.402026
 30
0.0
 11
-289.828446
 21
532.871273
 31
0.0
  0
LINE
  5
DB
100
AcDbEntity
  8
1
  6
DASHED
100
AcDbLine
 10
-347.139308
 20
513.371273
 30
0.0
 11
-347.139308
 21
535.371273
 31
0.0
  0
LINE
  5
DC
100
AcDbEntity
  8
1
  6
DASHED
100
AcDbLine
 10
-282.328446
 20
535.371273
 30
0.0
 11
-343.139308
 21
535.371273
 31
0.0
  0
ARC
  5
DD
100
AcDbEntity
  8
1
  6
DASHED
100
AcDbCircle
 10
-292.328446
 20
532.871273
 30
0.0
 40
2.5
100
AcDbArc
 50
360.0
 51
90.0
  0
LINE
  5
DE
100
AcDbEntity
  8
1
  6
DASHED
100
AcDbLine
 10
-347.139308
 20
513.371273
 30
0.0
 11
-291.816096
 21
524.95509
 31
0.0
  0
ARC
  5
DF
100
AcDbEntity
  8
1
  6
DASHED
100
AcDbCircle
 10
-292.328446
 20
527.402026
 30
0.0
 40
2.5
100
AcDbArc
 50
281.825993
 51
360.0
  0
ARC
  5
E0
100
AcDbEntity
  8
1
  6
DASHED
100
AcDbCircle
 10
-343.139308
 20
539.371273
 30
0.0
 40
4.0
100
AcDbArc
 50
180.0
 51
270.0
  0
LINE
  5
E1
100
AcDbEntity
  8
1
  6
DASHED
100
AcDbLine
 10
-291.596313
 20
525.011633
 30
0.0
 11
-327.20786
 21
514.104471
 31
0.0
  0
ARC
  5
E2
100
AcDbEntity
  8
1
  6
DASHED
100
AcDbCircle
 10
-327.098094
 20
513.746088
 30
0.0
 40
0.374816
100
AcDbArc
 50
107.028862
 51
270.0
  0
LINE
  5
E3
100
AcDbEntity
  8
1
100
AcDbLine
 10
225.411256
 20
-434.117998
 30
0.0
 11
234.131851
 21
-434.117998
 31
0.0
  0
LINE
  5
E4
100
AcDbEntity
  8
1
100
AcDbLine
 10
225.411256
 20
-476.183932
 30
0.0
 11
234.131851
 21
-476.183932
 31
0.0
  0
LINE
  5
E5
100
AcDbEntity
  8
1
100
AcDbLine
 10
222.771554
 20
-441.150965
 30
0.0
 11
236.771554
 21
-441.150965
 31
0.0
  0
LINE
  5
E6
100
AcDbEntity
  8
1
100
AcDbLine
 10
222.771554
 20
-469.150965
 30
0.0
 11
236.771554
 21
-469.150965
 31
0.0
  0
ARC
  5
E7
100
AcDbEntity
  8
1
100
AcDbCircle
 10
236.771554
 20
-433.150965
 30
0.0
 40
8.0
100
AcDbArc
 50
270.0
 51
360.0
  0
ARC
  5
E8
100
AcDbEntity
  8
1
100
AcDbCircle
 10
222.771554
 20
-433.150965
 30
0.0
 40
8.0
100
AcDbArc
 50
180.0
 51
270.0
  0
ARC
  5
E9
100
AcDbEntity
  8
1
100
AcDbCircle
 10
222.771554
 20
-477.150965
 30
0.0
 40
8.0
100
AcDbArc
 50
90.0
 51
180.0
  0
ARC
  5
EA
100
AcDbEntity
  8
1
100
AcDbCircle
 10
236.771554
 20
-477.150965
 30
0.0
 40
8.0
100
AcDbArc
 50
0.0
 51
90.0
  0
ARC
  5
EB
100
AcDbEntity
  8
1
100
AcDbCircle
 10
234.131851
 20
-483.183932
 30
0.0
 40
7.0
100
AcDbArc
 50
0.0
 51
90.0
  0
ARC
  5
EC
100
AcDbEntity
  8
1
100
AcDbCircle
 10
225.411256
 20
-483.183932
 30
0.0
 40
7.0
100
AcDbArc
 50
90.0
 51
180.0
  0
ARC
  5
ED
100
AcDbEntity
  8
1
100
AcDbCircle
 10
225.411256
 20
-427.117998
 30
0.0
 40
7.0
100
AcDbArc
 50
180.0
 51
270.0
  0
ARC
  5
EE
100
AcDbEntity
  8
1
100
AcDbCircle
 10
234.131851
 20
-427.117998
 30
0.0
 40
7.0
100
AcDbArc
 50
270.0
 51
360.0
  0
LINE
  5
EF
100
AcDbEntity
  8
1
100
AcDbLine
 10
241.131851
 20
-434.117998
 30
0.0
 11
242.183953
 21
-436.150965
 31
0.0
  0
LINE
  5
F0
100
AcDbEntity
  8
1
100
AcDbLine
 10
218.411256
 20
-434.117998
 30
0.0
 11
217.359155
 21
-436.150965
 31
0.0
  0
LINE
  5
F1
100
AcDbEntity
  8
1
100
AcDbLine
 10
241.131851
 20
-476.183932
 30
0.0
 11
242.183953
 21
-474.150965
 31
0.0
  0
LINE
  5
F2
100
AcDbEntity
  8
1
100
AcDbLine
 10
218.411256
 20
-476.183932
 30
0.0
 11
217.359155
 21
-474.150965
 31
0.0
  0
LINE
  5
F3
100
AcDbEntity
  8
1
100
AcDbLine
 10
241.131851
 20
-620.94432
 30
0.0
 11
241.131851
 21
-483.183932
 31
0.0
  0
LINE
  5
F4
100
AcDbEntity
  8
1
100
AcDbLine
 10
241.131851
 20
-427.117998
 30
0.0
 11
241.131851
 21
-289.35761
 31
0.0
  0
LINE
  5
F5
100
AcDbEntity
  8
1
100
AcDbLine
 10
218.411256
 20
-620.94432
 30
0.0
 11
218.411256
 21
-483.183932
 31
0.0
  0
LINE
  5
F6
100
AcDbEntity
  8
1
100
AcDbLine
 10
218.411256
 20
-427.117998
 30
0.0
 11
218.411256
 21
-289.35761
 31
0.0
  0
LINE
  5
F7
100
AcDbEntity
  8
1
100
AcDbLine
 10
214.771554
 20
-630.067747
 30
0.0
 11
214.771554
 21
-477.150965
 31
0.0
  0
LINE
  5
F8
100
AcDbEntity
  8
1
100
AcDbLine
 10
214.771554
 20
-433.150965
 30
0.0
 11
214.771554
 21
-280.234183
 31
0.0
  0
LINE
  5
F9
100
AcDbEntity
  8
1
100
AcDbLine
 10
222.183744
 20
-289.35761
 30
0.0
 11
237.359364
 21
-289.35761
 31
0.0
  0
LINE
  5
FA
100
AcDbEntity
  8
1
100
AcDbLine
 10
222.183744
 20
-620.94432
 30
0.0
 11
237.359364
 21
-620.94432
 31
0.0
  0
LINE
  5
FB
100
AcDbEntity
  8
1
100
AcDbLine
 10
243.736078
 20
-280.234183
 30
0.0
 11
242.167327
 21
-285.730014
 31
0.0
  0
LINE
  5
FC
100
AcDbEntity
  8
1
100
AcDbLine
 10
215.807029
 20
-280.234183
 30
0.0
 11
217.375781
 21
-285.730014
 31
0.0
  0
LINE
  5
FD
100
AcDbEntity
  8
1
100
AcDbLine
 10
242.167327
 20
-624.571916
 30
0.0
 11
243.736078
 21
-630.067747
 31
0.0
  0
LINE
  5
FE
100
AcDbEntity
  8
1
100
AcDbLine
 10
217.375781
 20
-624.571916
 30
0.0
 11
215.807029
 21
-630.067747
 31
0.0
  0
LINE
  5
FF
100
AcDbEntity
  8
1
100
AcDbLine
 10
244.771554
 20
-360.334638
 30
0.0
 11
244.771554
 21
-280.234183
 31
0.0
  0
LINE
  5
100
100
AcDbEntity
  8
1
100
AcDbLine
 10
244.771554
 20
-448.566689
 30
0.0
 11
244.771554
 21
-433.150965
 31
0.0
  0
LINE
  5
101
100
AcDbEntity
  8
1
100
AcDbLine
 10
244.771554
 20
-418.53872
 30
0.0
 11
244.771554
 21
-407.52826
 31
0.0
  0
LINE
  5
102
100
AcDbEntity
  8
1
100
AcDbLine
 10
244.771554
 20
-549.967291
 30
0.0
 11
244.771554
 21
-630.067747
 31
0.0
  0
LINE
  5
103
100
AcDbEntity
  8
1
100
AcDbLine
 10
244.771554
 20
-461.735241
 30
0.0
 11
244.771554
 21
-477.150965
 31
0.0
  0
LINE
  5
104
100
AcDbEntity
  8
1
100
AcDbLine
 10
244.771554
 20
-491.76321
 30
0.0
 11
244.771554
 21
-502.773669
 31
0.0
  0
LINE
  5
105
100
AcDbEntity
  8
1
100
AcDbLine
 10
247.928687
 20
-360.334638
 30
0.0
 11
266.771554
 21
-360.334638
 31
0.0
  0
LINE
  5
106
100
AcDbEntity
  8
1
100
AcDbLine
 10
245.301405
 20
-407.52826
 30
0.0
 11
266.771554
 21
-407.52826
 31
0.0
  0
LINE
  5
107
100
AcDbEntity
  8
1
100
AcDbLine
 10
259.271554
 20
-385.532072
 30
0.0
 11
264.271554
 21
-385.532072
 31
0.0
  0
LINE
  5
108
100
AcDbEntity
  8
1
100
AcDbLine
 10
266.771554
 20
-451.150965
 30
0.0
 11
266.771554
 21
-422.53872
 31
0.0
  0
LINE
  5
109
100
AcDbEntity
  8
1
100
AcDbLine
 10
266.771554
 20
-403.52826
 30
0.0
 11
266.771554
 21
-364.334638
 31
0.0
  0
LINE
  5
10A
100
AcDbEntity
  8
1
100
AcDbLine
 10
256.771554
 20
-435.558537
 30
0.0
 11
256.771554
 21
-430.650965
 31
0.0
  0
LINE
  5
10B
100
AcDbEntity
  8
1
100
AcDbLine
 10
256.771554
 20
-383.032072
 30
0.0
 11
256.771554
 21
-368.650965
 31
0.0
  0
ARC
  5
10C
100
AcDbEntity
  8
1
100
AcDbCircle
 10
264.271554
 20
-368.650965
 30
0.0
 40
2.5
100
AcDbArc
 50
0.0
 51
90.0
  0
ARC
  5
10D
100
AcDbEntity
  8
1
100
AcDbCircle
 10
259.271554
 20
-368.650965
 30
0.0
 40
2.5
100
AcDbArc
 50
90.0
 51
180.0
  0
ARC
  5
10E
100
AcDbEntity
  8
1
100
AcDbCircle
 10
259.271554
 20
-383.032072
 30
0.0
 40
2.5
100
AcDbArc
 50
180.0
 51
270.0
  0
ARC
  5
10F
100
AcDbEntity
  8
1
100
AcDbCircle
 10
264.271554
 20
-383.032072
 30
0.0
 40
2.5
100
AcDbArc
 50
270.0
 51
360.0
  0
ARC
  5
110
100
AcDbEntity
  8
1
100
AcDbCircle
 10
270.771554
 20
-364.334638
 30
0.0
 40
4.0
100
AcDbArc
 50
90.0
 51
180.0
  0
ARC
  5
111
100
AcDbEntity
  8
1
100
AcDbCircle
 10
270.771554
 20
-403.52826
 30
0.0
 40
4.0
100
AcDbArc
 50
180.0
 51
270.0
  0
LINE
  5
112
100
AcDbEntity
  8
1
100
AcDbLine
 10
256.771554
 20
-385.532072
 30
0.0
 11
245.301405
 21
-405.538771
 31
0.0
  0
ARC
  5
113
100
AcDbEntity
  8
1
100
AcDbCircle
 10
248.771554
 20
-407.52826
 30
0.0
 40
4.0
100
AcDbArc
 50
150.173688
 51
180.0
  0
LINE
  5
114
100
AcDbEntity
  8
1
100
AcDbLine
 10
247.928687
 20
-549.967291
 30
0.0
 11
266.771554
 21
-549.967291
 31
0.0
  0
LINE
  5
115
100
AcDbEntity
  8
1
100
AcDbLine
 10
245.301405
 20
-502.773669
 30
0.0
 11
266.771554
 21
-502.773669
 31
0.0
  0
LINE
  5
116
100
AcDbEntity
  8
1
100
AcDbLine
 10
259.271554
 20
-524.769857
 30
0.0
 11
264.271554
 21
-524.769857
 31
0.0
  0
LINE
  5
117
100
AcDbEntity
  8
1
100
AcDbLine
 10
266.771554
 20
-459.150965
 30
0.0
 11
266.771554
 21
-487.76321
 31
0.0
  0
LINE
  5
118
100
AcDbEntity
  8
1
100
AcDbLine
 10
266.771554
 20
-506.773669
 30
0.0
 11
266.771554
 21
-545.967291
 31
0.0
  0
LINE
  5
119
100
AcDbEntity
  8
1
100
AcDbLine
 10
256.771554
 20
-474.743393
 30
0.0
 11
256.771554
 21
-479.650965
 31
0.0
  0
LINE
  5
11A
100
AcDbEntity
  8
1
100
AcDbLine
 10
256.771554
 20
-527.269857
 30
0.0
 11
256.771554
 21
-541.650965
 31
0.0
  0
ARC
  5
11B
100
AcDbEntity
  8
1
100
AcDbCircle
 10
264.271554
 20
-541.650965
 30
0.0
 40
2.5
100
AcDbArc
 50
270.0
 51
0.0
  0
ARC
  5
11C
100
AcDbEntity
  8
1
100
AcDbCircle
 10
259.271554
 20
-541.650965
 30
0.0
 40
2.5
100
AcDbArc
 50
180.0
 51
270.0
  0
ARC
  5
11D
100
AcDbEntity
  8
1
100
AcDbCircle
 10
259.271554
 20
-527.269857
 30
0.0
 40
2.5
100
AcDbArc
 50
90.0
 51
180.0
  0
ARC
  5
11E
100
AcDbEntity
  8
1
100
AcDbCircle
 10
264.271554
 20
-527.269857
 30
0.0
 40
2.5
100
AcDbArc
 50
0.0
 51
90.0
  0
ARC
  5
11F
100
AcDbEntity
  8
1
100
AcDbCircle
 10
270.771554
 20
-545.967291
 30
0.0
 40
4.0
100
AcDbArc
 50
180.0
 51
270.0
  0
ARC
  5
120
100
AcDbEntity
  8
1
100
AcDbCircle
 10
270.771554
 20
-506.773669
 30
0.0
 40
4.0
100
AcDbArc
 50
90.0
 51
180.0
  0
LINE
  5
121
100
AcDbEntity
  8
1
100
AcDbLine
 10
256.771554
 20
-524.769857
 30
0.0
 11
245.301405
 21
-504.763159
 31
0.0
  0
ARC
  5
122
100
AcDbEntity
  8
1
100
AcDbCircle
 10
248.771554
 20
-502.773669
 30
0.0
 40
4.0
100
AcDbArc
 50
180.0
 51
209.826312
  0
LINE
  5
123
100
AcDbEntity
  8
1
100
AcDbLine
 10
246.677013
 20
-418.53872
 30
0.0
 11
266.771554
 21
-418.53872
 31
0.0
  0
LINE
  5
124
100
AcDbEntity
  8
1
100
AcDbLine
 10
259.271554
 20
-438.058537
 30
0.0
 11
264.271554
 21
-438.058537
 31
0.0
  0
ARC
  5
125
100
AcDbEntity
  8
1
100
AcDbCircle
 10
264.271554
 20
-430.650965
 30
0.0
 40
2.5
100
AcDbArc
 50
0.0
 51
90.0
  0
ARC
  5
126
100
AcDbEntity
  8
1
100
AcDbCircle
 10
259.271554
 20
-430.650965
 30
0.0
 40
2.5
100
AcDbArc
 50
90.0
 51
180.0
  0
ARC
  5
127
100
AcDbEntity
  8
1
100
AcDbCircle
 10
259.271554
 20
-435.558537
 30
0.0
 40
2.5
100
AcDbArc
 50
180.0
 51
270.0
  0
ARC
  5
128
100
AcDbEntity
  8
1
100
AcDbCircle
 10
264.271554
 20
-435.558537
 30
0.0
 40
2.5
100
AcDbArc
 50
270.0
 51
360.0
  0
ARC
  5
129
100
AcDbEntity
  8
1
100
AcDbCircle
 10
270.771554
 20
-422.53872
 30
0.0
 40
4.0
100
AcDbArc
 50
90.0
 51
180.0
  0
ARC
  5
12A
100
AcDbEntity
  8
1
100
AcDbCircle
 10
270.771554
 20
-451.150965
 30
0.0
 40
4.0
100
AcDbArc
 50
180.0
 51
270.0
  0
LINE
  5
12B
100
AcDbEntity
  8
1
100
AcDbLine
 10
246.677013
 20
-491.76321
 30
0.0
 11
266.771554
 21
-491.76321
 31
0.0
  0
LINE
  5
12C
100
AcDbEntity
  8
1
100
AcDbLine
 10
259.271554
 20
-472.243393
 30
0.0
 11
264.271554
 21
-472.243393
 31
0.0
  0
ARC
  5
12D
100
AcDbEntity
  8
1
100
AcDbCircle
 10
264.271554
 20
-479.650965
 30
0.0
 40
2.5
100
AcDbArc
 50
270.0
 51
0.0
  0
ARC
  5
12E
100
AcDbEntity
  8
1
100
AcDbCircle
 10
259.271554
 20
-479.650965
 30
0.0
 40
2.5
100
AcDbArc
 50
180.0
 51
270.0
  0
ARC
  5
12F
100
AcDbEntity
  8
1
100
AcDbCircle
 10
259.271554
 20
-474.743393
 30
0.0
 40
2.5
100
AcDbArc
 50
90.0
 51
180.0
  0
ARC
  5
130
100
AcDbEntity
  8
1
100
AcDbCircle
 10
264.271554
 20
-474.743393
 30
0.0
 40
2.5
100
AcDbArc
 50
0.0
 51
90.0
  0
ARC
  5
131
100
AcDbEntity
  8
1
100
AcDbCircle
 10
270.771554
 20
-487.76321
 30
0.0
 40
4.0
100
AcDbArc
 50
180.0
 51
270.0
  0
ARC
  5
132
100
AcDbEntity
  8
1
100
AcDbCircle
 10
270.771554
 20
-459.150965
 30
0.0
 40
4.0
100
AcDbArc
 50
90.0
 51
180.0
  0
ARC
  5
133
100
AcDbEntity
  8
1
100
AcDbCircle
 10
254.383799
 20
-418.53872
 30
0.0
 40
9.612245
100
AcDbArc
 50
180.0
 51
270.0
  0
ARC
  5
134
100
AcDbEntity
  8
1
100
AcDbCircle
 10
254.383799
 20
-491.76321
 30
0.0
 40
9.612245
100
AcDbArc
 50
90.0
 51
180.0
  0
ARC
  5
135
100
AcDbEntity
  8
1
100
AcDbCircle
 10
250.58788
 20
-360.334638
 30
0.0
 40
5.816327
100
AcDbArc
 50
180.0
 51
270.0
  0
ARC
  5
136
100
AcDbEntity
  8
1
100
AcDbCircle
 10
250.58788
 20
-549.967291
 30
0.0
 40
5.816327
100
AcDbArc
 50
90.0
 51
180.0
  0
LINE
  5
137
100
AcDbEntity
  8
1
100
AcDbLine
 10
247.300834
 20
-461.735241
 30
0.0
 11
256.771554
 21
-472.243393
 31
0.0
  0
LINE
  5
138
100
AcDbEntity
  8
1
100
AcDbLine
 10
256.771554
 20
-438.058537
 30
0.0
 11
247.300834
 21
-448.566689
 31
0.0
  0
ARC
  5
139
100
AcDbEntity
  8
1
100
AcDbCircle
 10
254.606358
 20
-455.150965
 30
0.0
 40
9.834804
100
AcDbArc
 50
137.972497
 51
222.027503
  0
LINE
  5
13A
100
AcDbEntity
  8
1
100
AcDbLine
 10
250.58788
 20
-366.150965
 30
0.0
 11
256.771554
 21
-366.150965
 31
0.0
  0
LINE
  5
13B
100
AcDbEntity
  8
1
100
AcDbLine
 10
259.271554
 20
-366.150965
 30
0.0
 11
264.271554
 21
-366.150965
 31
0.0
  0
LINE
  5
13C
100
AcDbEntity
  8
1
100
AcDbLine
 10
254.383799
 20
-428.150965
 30
0.0
 11
256.771554
 21
-428.150965
 31
0.0
  0
LINE
  5
13D
100
AcDbEntity
  8
1
100
AcDbLine
 10
259.271554
 20
-428.150965
 30
0.0
 11
264.271554
 21
-428.150965
 31
0.0
  0
LINE
  5
13E
100
AcDbEntity
  8
1
100
AcDbLine
 10
254.383799
 20
-482.150965
 30
0.0
 11
256.771554
 21
-482.150965
 31
0.0
  0
LINE
  5
13F
100
AcDbEntity
  8
1
100
AcDbLine
 10
259.271554
 20
-482.150965
 30
0.0
 11
264.271554
 21
-482.150965
 31
0.0
  0
LINE
  5
140
100
AcDbEntity
  8
1
100
AcDbLine
 10
250.58788
 20
-544.150965
 30
0.0
 11
256.771554
 21
-544.150965
 31
0.0
  0
LINE
  5
141
100
AcDbEntity
  8
1
100
AcDbLine
 10
259.271554
 20
-544.150965
 30
0.0
 11
264.271554
 21
-544.150965
 31
0.0
  0
LINE
  5
142
100
AcDbEntity
  8
1
100
AcDbLine
 10
198.771554
 20
-685.150965
 30
0.0
 11
258.771554
 21
-685.150965
 31
0.0
  0
LINE
  5
143
100
AcDbEntity
  8
1
100
AcDbLine
 10
158.771554
 20
-145.150965
 30
0.0
 11
158.771554
 21
-158.150965
 31
0.0
  0
LINE
  5
144
100
AcDbEntity
  8
1
100
AcDbLine
 10
298.771554
 20
-145.150965
 30
0.0
 11
298.771554
 21
-158.150965
 31
0.0
  0
LINE
  5
145
100
AcDbEntity
  8
1
100
AcDbLine
 10
163.771554
 20
-163.150965
 30
0.0
 11
293.771554
 21
-163.150965
 31
0.0
  0
ARC
  5
146
100
AcDbEntity
  8
1
100
AcDbCircle
 10
163.771554
 20
-158.150965
 30
0.0
 40
5.0
100
AcDbArc
 50
180.0
 51
270.0
  0
ARC
  5
147
100
AcDbEntity
  8
1
100
AcDbCircle
 10
293.771554
 20
-158.150965
 30
0.0
 40
5.0
100
AcDbArc
 50
270.0
 51
360.0
  0
LINE
  5
148
100
AcDbEntity
  8
1
100
AcDbLine
 10
260.771554
 20
-173.150965
 30
0.0
 11
260.771554
 21
-264.606587
 31
0.0
  0
LINE
  5
149
100
AcDbEntity
  8
1
100
AcDbLine
 10
196.771554
 20
-173.150965
 30
0.0
 11
196.771554
 21
-192.686863
 31
0.0
  0
LINE
  5
14A
100
AcDbEntity
  8
1
100
AcDbLine
 10
198.771554
 20
-196.150965
 30
0.0
 11
198.771554
 21
-272.606587
 31
0.0
  0
ARC
  5
14B
100
AcDbEntity
  8
1
100
AcDbCircle
 10
270.771554
 20
-173.150965
 30
0.0
 40
10.0
100
AcDbArc
 50
90.0
 51
180.0
  0
ARC
  5
14C
100
AcDbEntity
  8
1
100
AcDbCircle
 10
186.771554
 20
-173.150965
 30
0.0
 40
10.0
100
AcDbArc
 50
0.0
 51
90.0
  0
ARC
  5
14D
100
AcDbEntity
  8
1
100
AcDbCircle
 10
295.771554
 20
-198.100933
 30
0.0
 40
35.0
100
AcDbArc
 50
92.865984
 51
180.0
  0
ARC
  5
14E
100
AcDbEntity
  8
1
100
AcDbCircle
 10
196.771554
 20
-196.150965
 30
0.0
 40
2.0
100
AcDbArc
 50
0.0
 51
60.0
  0
ARC
  5
14F
100
AcDbEntity
  8
1
100
AcDbCircle
 10
198.771554
 20
-192.686863
 30
0.0
 40
2.0
100
AcDbArc
 50
180.0
 51
240.0
  0
ARC
  5
150
100
AcDbEntity
  8
1
100
AcDbCircle
 10
162.172483
 20
-198.118989
 30
0.0
 40
35.0
100
AcDbArc
 50
8.442351
 51
87.708889
  0
LINE
  5
151
100
AcDbEntity
  8
1
100
AcDbLine
 10
-472.828446
 20
-196.150965
 30
0.0
 11
-536.828446
 21
-196.150965
 31
0.0
  0
LINE
  5
152
100
AcDbEntity
  8
1
100
AcDbLine
 10
-507.328446
 20
-187.980492
 30
0.0
 11
-507.328446
 21
-168.150965
 31
0.0
  0
LINE
  5
153
100
AcDbEntity
  8
1
100
AcDbLine
 10
-497.328446
 20
-187.980492
 30
0.0
 11
-497.328446
 21
-168.150965
 31
0.0
  0
ARC
  5
154
100
AcDbEntity
  8
1
100
AcDbCircle
 10
-492.328446
 20
-168.150965
 30
0.0
 40
5.0
100
AcDbArc
 50
90.0
 51
180.0
  0
ARC
  5
155
100
AcDbEntity
  8
1
100
AcDbCircle
 10
-512.328446
 20
-168.150965
 30
0.0
 40
5.0
100
AcDbArc
 50
0.0
 51
90.0
  0
ARC
  5
156
100
AcDbEntity
  8
1
100
AcDbCircle
 10
-492.328446
 20
-187.980492
 30
0.0
 40
5.0
100
AcDbArc
 50
180.0
 51
270.0
  0
ARC
  5
157
100
AcDbEntity
  8
1
100
AcDbCircle
 10
-512.328446
 20
-187.980492
 30
0.0
 40
5.0
100
AcDbArc
 50
270.0
 51
0.0
  0
LINE
  5
158
100
AcDbEntity
  8
1
100
AcDbLine
 10
-492.328446
 20
-192.980492
 30
0.0
 11
-472.828446
 21
-192.980492
 31
0.0
  0
LINE
  5
159
100
AcDbEntity
  8
1
100
AcDbLine
 10
-536.828446
 20
-192.980492
 30
0.0
 11
-512.328446
 21
-192.980492
 31
0.0
  0
LINE
  5
15A
100
AcDbEntity
  8
1
100
AcDbLine
 10
-507.328446
 20
-192.980492
 30
0.0
 11
-497.328446
 21
-192.980492
 31
0.0
  0
ARC
  5
15B
100
AcDbEntity
  8
1
100
AcDbCircle
 10
272.771554
 20
-259.150965
 30
0.0
 40
12.0
100
AcDbArc
 50
180.0
 51
270.0
  0
ARC
  5
15C
100
AcDbEntity
  8
1
100
AcDbCircle
 10
194.771554
 20
-267.150965
 30
0.0
 40
4.0
100
AcDbArc
 50
270.0
 51
360.0
  0
ARC
  5
15D
100
AcDbEntity
  8
1
100
AcDbCircle
 10
194.771554
 20
-272.606587
 30
0.0
 40
4.0
100
AcDbArc
 50
270.0
 51
360.0
  0
ARC
  5
15E
100
AcDbEntity
  8
1
100
AcDbCircle
 10
272.771554
 20
-264.606587
 30
0.0
 40
12.0
100
AcDbArc
 50
180.0
 51
270.0
  0
LINE
  5
15F
100
AcDbEntity
  8
1
100
AcDbLine
 10
198.771554
 20
-238.772664
 30
0.0
 11
260.771554
 21
-238.772664
 31
0.0
  0
LINE
  5
160
100
AcDbEntity
  8
1
100
AcDbLine
 10
198.771554
 20
-252.140501
 30
0.0
 11
260.771554
 21
-252.140501
 31
0.0
  0
LINE
  5
161
100
AcDbEntity
  8
1
100
AcDbLine
 10
198.771554
 20
-270.728676
 30
0.0
 11
260.771554
 21
-270.728676
 31
0.0
  0
LINE
  5
162
100
AcDbEntity
  8
1
100
AcDbLine
 10
226.271554
 20
-202.066767
 30
0.0
 11
231.271554
 21
-202.066767
 31
0.0
  0
LINE
  5
163
100
AcDbEntity
  8
1
100
AcDbLine
 10
226.271554
 20
-218.039139
 30
0.0
 11
231.271554
 21
-218.039139
 31
0.0
  0
LINE
  5
164
100
AcDbEntity
  8
1
100
AcDbLine
 10
223.771554
 20
-192.066767
 30
0.0
 11
233.771554
 21
-192.066767
 31
0.0
  0
LINE
  5
165
100
AcDbEntity
  8
1
100
AcDbLine
 10
223.771554
 20
-197.066767
 30
0.0
 11
223.771554
 21
-218.392797
 31
0.0
  0
LINE
  5
166
100
AcDbEntity
  8
1
100
AcDbLine
 10
233.771554
 20
-197.066767
 30
0.0
 11
233.771554
 21
-218.392797
 31
0.0
  0
ARC
  5
167
100
AcDbEntity
  8
1
100
AcDbCircle
 10
238.771554
 20
-197.066767
 30
0.0
 40
5.0
100
AcDbArc
 50
90.0
 51
180.0
  0
ARC
  5
168
100
AcDbEntity
  8
1
100
AcDbCircle
 10
218.771554
 20
-197.066767
 30
0.0
 40
5.0
100
AcDbArc
 50
0.0
 51
90.0
  0
ARC
  5
169
100
AcDbEntity
  8
1
100
AcDbCircle
 10
238.771554
 20
-218.392797
 30
0.0
 40
5.0
100
AcDbArc
 50
180.0
 51
270.0
  0
ARC
  5
16A
100
AcDbEntity
  8
1
100
AcDbCircle
 10
218.771554
 20
-218.392797
 30
0.0
 40
5.0
100
AcDbArc
 50
270.0
 51
360.0
  0
ARC
  5
16B
100
AcDbEntity
  8
1
100
AcDbCircle
 10
231.271554
 20
-204.566767
 30
0.0
 40
2.5
100
AcDbArc
 50
0.0
 51
90.0
  0
ARC
  5
16C
100
AcDbEntity
  8
1
100
AcDbCircle
 10
231.271554
 20
-215.539139
 30
0.0
 40
2.5
100
AcDbArc
 50
270.0
 51
360.0
  0
ARC
  5
16D
100
AcDbEntity
  8
1
100
AcDbCircle
 10
226.271554
 20
-215.539139
 30
0.0
 40
2.5
100
AcDbArc
 50
180.0
 51
270.0
  0
ARC
  5
16E
100
AcDbEntity
  8
1
100
AcDbCircle
 10
226.271554
 20
-204.566767
 30
0.0
 40
2.5
100
AcDbArc
 50
90.0
 51
180.0
  0
LINE
  5
16F
100
AcDbEntity
  8
1
100
AcDbLine
 10
238.771554
 20
-223.392797
 30
0.0
 11
260.771554
 21
-223.392797
 31
0.0
  0
LINE
  5
170
100
AcDbEntity
  8
1
100
AcDbLine
 10
198.771554
 20
-223.392797
 30
0.0
 11
218.771554
 21
-223.392797
 31
0.0
  0
LINE
  5
171
100
AcDbEntity
  8
1
100
AcDbLine
 10
223.771554
 20
-223.392797
 30
0.0
 11
233.771554
 21
-223.392797
 31
0.0
  0
LINE
  5
172
100
AcDbEntity
  8
1
100
AcDbLine
 10
198.771554
 20
-637.695343
 30
0.0
 11
198.771554
 21
-693.150965
 31
0.0
  0
LINE
  5
173
100
AcDbEntity
  8
1
100
AcDbLine
 10
258.771554
 20
-645.695343
 30
0.0
 11
258.771554
 21
-693.150965
 31
0.0
  0
ARC
  5
174
100
AcDbEntity
  8
1
100
AcDbCircle
 10
270.771554
 20
-651.150965
 30
0.0
 40
12.0
100
AcDbArc
 50
90.0
 51
180.0
  0
ARC
  5
175
100
AcDbEntity
  8
1
100
AcDbCircle
 10
194.771554
 20
-643.150965
 30
0.0
 40
4.0
100
AcDbArc
 50
0.0
 51
90.0
  0
ARC
  5
176
100
AcDbEntity
  8
1
100
AcDbCircle
 10
194.771554
 20
-637.695343
 30
0.0
 40
4.0
100
AcDbArc
 50
0.0
 51
90.0
  0
ARC
  5
177
100
AcDbEntity
  8
1
100
AcDbCircle
 10
270.771554
 20
-645.695343
 30
0.0
 40
12.0
100
AcDbArc
 50
90.0
 51
180.0
  0
LINE
  5
178
100
AcDbEntity
  8
1
100
AcDbLine
 10
198.771554
 20
-672.671686
 30
0.0
 11
258.771554
 21
-672.671686
 31
0.0
  0
LINE
  5
179
100
AcDbEntity
  8
1
100
AcDbLine
 10
198.771554
 20
-658.161429
 30
0.0
 11
258.771554
 21
-658.161429
 31
0.0
  0
LINE
  5
17A
100
AcDbEntity
  8
1
100
AcDbLine
 10
198.771554
 20
-639.573254
 30
0.0
 11
258.771554
 21
-639.573254
 31
0.0
  0
LINE
  5
17B
100
AcDbEntity
  8
1
100
AcDbLine
 10
198.771554
 20
-276.606587
 30
0.0
 11
210.999066
 21
-276.606587
 31
0.0
  0
LINE
  5
17C
100
AcDbEntity
  8
1
100
AcDbLine
 10
248.544041
 20
-276.606587
 30
0.0
 11
260.771554
 21
-276.606587
 31
0.0
  0
ARC
  5
17D
100
AcDbEntity
  8
1
100
AcDbCircle
 10
248.544041
 20
-281.606587
 30
0.0
 40
5.0
100
AcDbArc
 50
90.0
 51
164.068926
  0
ARC
  5
17E
100
AcDbEntity
  8
1
100
AcDbCircle
 10
210.999066
 20
-281.606587
 30
0.0
 40
5.0
100
AcDbArc
 50
15.931074
 51
90.0
  0
ARC
  5
17F
100
AcDbEntity
  8
1
100
AcDbCircle
 10
237.359364
 20
-284.35761
 30
0.0
 40
5.0
100
AcDbArc
 50
270.0
 51
344.068926
  0
ARC
  5
180
100
AcDbEntity
  8
1
100
AcDbCircle
 10
222.183744
 20
-284.35761
 30
0.0
 40
5.0
100
AcDbArc
 50
195.931074
 51
270.0
  0
ARC
  5
181
100
AcDbEntity
  8
1
100
AcDbCircle
 10
248.544041
 20
-628.695343
 30
0.0
 40
5.0
100
AcDbArc
 50
195.931074
 51
270.0
  0
ARC
  5
182
100
AcDbEntity
  8
1
100
AcDbCircle
 10
210.999066
 20
-628.695343
 30
0.0
 40
5.0
100
AcDbArc
 50
270.0
 51
344.068926
  0
ARC
  5
183
100
AcDbEntity
  8
1
100
AcDbCircle
 10
222.183744
 20
-625.94432
 30
0.0
 40
5.0
100
AcDbArc
 50
90.0
 51
164.068926
  0
ARC
  5
184
100
AcDbEntity
  8
1
100
AcDbCircle
 10
237.359364
 20
-625.94432
 30
0.0
 40
5.0
100
AcDbArc
 50
15.931074
 51
90.0
  0
LINE
  5
185
100
AcDbEntity
  8
1
100
AcDbLine
 10
198.771554
 20
-633.695343
 30
0.0
 11
210.999066
 21
-633.695343
 31
0.0
  0
LINE
  5
186
100
AcDbEntity
  8
1
100
AcDbLine
 10
248.544041
 20
-633.695343
 30
0.0
 11
258.771554
 21
-633.695343
 31
0.0
  0
LINE
  5
187
100
AcDbEntity
  8
1
  6
CENTER
 62
     2
100
AcDbLine
 10
278.271554
 20
-178.758303
 30
0.0
 11
278.271554
 21
-125.76314
 31
0.0
  0
LINE
  5
188
100
AcDbEntity
  8
1
  6
CENTER
 62
     2
100
AcDbLine
 10
179.271554
 20
-178.758303
 30
0.0
 11
179.271554
 21
-125.76314
 31
0.0
  0
LINE
  5
189
100
AcDbEntity
  8
1
  6
CENTER
 62
     2
100
AcDbLine
 10
207.771554
 20
-673.579645
 30
0.0
 11
207.771554
 21
-708.334223
 31
0.0
  0
LINE
  5
18A
100
AcDbEntity
  8
1
  6
CENTER
 62
     2
100
AcDbLine
 10
249.771554
 20
-673.579645
 30
0.0
 11
249.771554
 21
-708.334223
 31
0.0
  0
LINE
  5
18B
100
AcDbEntity
  8
1
100
AcDbLine
 10
-474.828446
 20
-687.150965
 30
0.0
 11
-534.828446
 21
-687.150965
 31
0.0
  0
LINE
  5
18C
100
AcDbEntity
  8
1
100
AcDbLine
 10
-474.828446
 20
-693.150965
 30
0.0
 11
-534.828446
 21
-693.150965
 31
0.0
  0
LINE
  5
18D
100
AcDbEntity
  8
1
100
AcDbLine
 10
-534.828446
 20
-693.150965
 30
0.0
 11
-534.828446
 21
-685.150965
 31
0.0
  0
LINE
  5
18E
100
AcDbEntity
  8
1
100
AcDbLine
 10
-474.828446
 20
-693.150965
 30
0.0
 11
-474.828446
 21
-685.150965
 31
0.0
  0
LINE
  5
18F
100
AcDbEntity
  8
1
100
AcDbLine
 10
198.771554
 20
-687.150965
 30
0.0
 11
258.771554
 21
-687.150965
 31
0.0
  0
LINE
  5
190
100
AcDbEntity
  8
1
100
AcDbLine
 10
198.771554
 20
-693.150965
 30
0.0
 11
258.771554
 21
-693.150965
 31
0.0
  0
LINE
  5
191
100
AcDbEntity
  8
1
100
AcDbLine
 10
-476.328446
 20
-695.150965
 30
0.0
 11
-476.328446
 21
-699.929277
 31
0.0
  0
LINE
  5
192
100
AcDbEntity
  8
1
100
AcDbLine
 10
-476.328446
 20
-699.929277
 30
0.0
 11
-477.578446
 21
-700.650965
 31
0.0
  0
LINE
  5
193
100
AcDbEntity
  8
1
100
AcDbLine
 10
-480.078446
 20
-695.150965
 30
0.0
 11
-480.078446
 21
-699.929277
 31
0.0
  0
ARC
  5
194
100
AcDbEntity
  8
1
100
AcDbCircle
 10
-478.203446
 20
-697.518901
 30
0.0
 40
3.053774
100
AcDbArc
 50
232.121121
 51
307.878879
  0
ARC
  5
195
100
AcDbEntity
  8
1
100
AcDbCircle
 10
-483.828446
 20
-689.322675
 30
0.0
 40
11.25
100
AcDbArc
 50
250.528777
 51
289.471219
  0
LINE
  5
196
100
AcDbEntity
  8
1
100
AcDbLine
 10
-491.328446
 20
-695.150965
 30
0.0
 11
-491.328446
 21
-699.929277
 31
0.0
  0
LINE
  5
197
100
AcDbEntity
  8
1
100
AcDbLine
 10
-491.328446
 20
-699.929277
 30
0.0
 11
-490.078446
 21
-700.650965
 31
0.0
  0
LINE
  5
198
100
AcDbEntity
  8
1
100
AcDbLine
 10
-490.078446
 20
-700.650965
 30
0.0
 11
-477.578446
 21
-700.650965
 31
0.0
  0
LINE
  5
199
100
AcDbEntity
  8
1
100
AcDbLine
 10
-487.578446
 20
-695.150965
 30
0.0
 11
-487.578446
 21
-699.929277
 31
0.0
  0
ARC
  5
19A
100
AcDbEntity
  8
1
100
AcDbCircle
 10
-489.453446
 20
-697.518901
 30
0.0
 40
3.053774
100
AcDbArc
 50
232.121121
 51
307.878879
  0
LINE
  5
19B
100
AcDbEntity
  8
1
100
AcDbLine
 10
-476.128446
 20
-693.150965
 30
0.0
 11
-476.128446
 21
-695.150965
 31
0.0
  0
LINE
  5
19C
100
AcDbEntity
  8
1
100
AcDbLine
 10
-476.128446
 20
-695.150965
 30
0.0
 11
-491.528446
 21
-695.150965
 31
0.0
  0
LINE
  5
19D
100
AcDbEntity
  8
1
100
AcDbLine
 10
-491.528446
 20
-695.150965
 30
0.0
 11
-491.528446
 21
-693.150965
 31
0.0
  0
LINE
  5
19E
100
AcDbEntity
  8
1
100
AcDbLine
 10
-483.828446
 20
-695.150965
 30
0.0
 11
-484.328446
 21
-693.150965
 31
0.0
  0
LINE
  5
19F
100
AcDbEntity
  8
1
100
AcDbLine
 10
-483.828446
 20
-693.150965
 30
0.0
 11
-483.328446
 21
-695.150965
 31
0.0
  0
LINE
  5
1A0
100
AcDbEntity
  8
1
100
AcDbLine
 10
-518.328446
 20
-695.150965
 30
0.0
 11
-518.328446
 21
-699.929277
 31
0.0
  0
LINE
  5
1A1
100
AcDbEntity
  8
1
100
AcDbLine
 10
-518.328446
 20
-699.929277
 30
0.0
 11
-519.578446
 21
-700.650965
 31
0.0
  0
LINE
  5
1A2
100
AcDbEntity
  8
1
100
AcDbLine
 10
-522.078446
 20
-695.150965
 30
0.0
 11
-522.078446
 21
-699.929277
 31
0.0
  0
ARC
  5
1A3
100
AcDbEntity
  8
1
100
AcDbCircle
 10
-520.203446
 20
-697.518901
 30
0.0
 40
3.053774
100
AcDbArc
 50
232.121121
 51
307.878879
  0
ARC
  5
1A4
100
AcDbEntity
  8
1
100
AcDbCircle
 10
-525.828446
 20
-689.322675
 30
0.0
 40
11.25
100
AcDbArc
 50
250.528777
 51
289.471219
  0
LINE
  5
1A5
100
AcDbEntity
  8
1
100
AcDbLine
 10
-533.328446
 20
-695.150965
 30
0.0
 11
-533.328446
 21
-699.929277
 31
0.0
  0
LINE
  5
1A6
100
AcDbEntity
  8
1
100
AcDbLine
 10
-533.328446
 20
-699.929277
 30
0.0
 11
-532.078446
 21
-700.650965
 31
0.0
  0
LINE
  5
1A7
100
AcDbEntity
  8
1
100
AcDbLine
 10
-532.078446
 20
-700.650965
 30
0.0
 11
-519.578446
 21
-700.650965
 31
0.0
  0
LINE
  5
1A8
100
AcDbEntity
  8
1
100
AcDbLine
 10
-529.578446
 20
-695.150965
 30
0.0
 11
-529.578446
 21
-699.929277
 31
0.0
  0
ARC
  5
1A9
100
AcDbEntity
  8
1
100
AcDbCircle
 10
-531.453446
 20
-697.518901
 30
0.0
 40
3.053774
100
AcDbArc
 50
232.121121
 51
307.878879
  0
LINE
  5
1AA
100
AcDbEntity
  8
1
100
AcDbLine
 10
-518.128446
 20
-693.150965
 30
0.0
 11
-518.128446
 21
-695.150965
 31
0.0
  0
LINE
  5
1AB
100
AcDbEntity
  8
1
100
AcDbLine
 10
-518.128446
 20
-695.150965
 30
0.0
 11
-533.528446
 21
-695.150965
 31
0.0
  0
LINE
  5
1AC
100
AcDbEntity
  8
1
100
AcDbLine
 10
-533.528446
 20
-695.150965
 30
0.0
 11
-533.528446
 21
-693.150965
 31
0.0
  0
LINE
  5
1AD
100
AcDbEntity
  8
1
100
AcDbLine
 10
-525.828446
 20
-695.150965
 30
0.0
 11
-526.328446
 21
-693.150965
 31
0.0
  0
LINE
  5
1AE
100
AcDbEntity
  8
1
100
AcDbLine
 10
-525.828446
 20
-693.150965
 30
0.0
 11
-525.328446
 21
-695.150965
 31
0.0
  0
LINE
  5
1AF
100
AcDbEntity
  8
1
100
AcDbLine
 10
256.271554
 20
-695.150965
 30
0.0
 11
256.271554
 21
-700.650965
 31
0.0
  0
ARC
  5
1B0
100
AcDbEntity
  8
1
100
AcDbCircle
 10
253.021554
 20
-692.972206
 30
0.0
 40
7.678759
100
AcDbArc
 50
244.96034
 51
295.03966
  0
LINE
  5
1B1
100
AcDbEntity
  8
1
100
AcDbLine
 10
243.271554
 20
-695.150965
 30
0.0
 11
243.271554
 21
-700.650965
 31
0.0
  0
LINE
  5
1B2
100
AcDbEntity
  8
1
100
AcDbLine
 10
243.271554
 20
-700.650965
 30
0.0
 11
256.271554
 21
-700.650965
 31
0.0
  0
LINE
  5
1B3
100
AcDbEntity
  8
1
100
AcDbLine
 10
249.771554
 20
-695.150965
 30
0.0
 11
249.771554
 21
-699.929277
 31
0.0
  0
ARC
  5
1B4
100
AcDbEntity
  8
1
100
AcDbCircle
 10
246.521554
 20
-692.972206
 30
0.0
 40
7.678759
100
AcDbArc
 50
244.96034
 51
295.03966
  0
LINE
  5
1B5
100
AcDbEntity
  8
1
100
AcDbLine
 10
257.471554
 20
-693.150965
 30
0.0
 11
257.471554
 21
-695.150965
 31
0.0
  0
LINE
  5
1B6
100
AcDbEntity
  8
1
100
AcDbLine
 10
257.471554
 20
-695.150965
 30
0.0
 11
242.071554
 21
-695.150965
 31
0.0
  0
LINE
  5
1B7
100
AcDbEntity
  8
1
100
AcDbLine
 10
242.071554
 20
-695.150965
 30
0.0
 11
242.071554
 21
-693.150965
 31
0.0
  0
LINE
  5
1B8
100
AcDbEntity
  8
1
100
AcDbLine
 10
214.271554
 20
-695.150965
 30
0.0
 11
214.271554
 21
-700.650965
 31
0.0
  0
ARC
  5
1B9
100
AcDbEntity
  8
1
100
AcDbCircle
 10
211.021554
 20
-692.972206
 30
0.0
 40
7.678759
100
AcDbArc
 50
244.96034
 51
295.03966
  0
LINE
  5
1BA
100
AcDbEntity
  8
1
100
AcDbLine
 10
201.271554
 20
-695.150965
 30
0.0
 11
201.271554
 21
-700.650965
 31
0.0
  0
LINE
  5
1BB
100
AcDbEntity
  8
1
100
AcDbLine
 10
201.271554
 20
-700.650965
 30
0.0
 11
214.271554
 21
-700.650965
 31
0.0
  0
LINE
  5
1BC
100
AcDbEntity
  8
1
100
AcDbLine
 10
207.771554
 20
-695.150965
 30
0.0
 11
207.771554
 21
-699.929277
 31
0.0
  0
ARC
  5
1BD
100
AcDbEntity
  8
1
100
AcDbCircle
 10
204.521554
 20
-692.972206
 30
0.0
 40
7.678759
100
AcDbArc
 50
244.96034
 51
295.03966
  0
LINE
  5
1BE
100
AcDbEntity
  8
1
100
AcDbLine
 10
215.471554
 20
-693.150965
 30
0.0
 11
215.471554
 21
-695.150965
 31
0.0
  0
LINE
  5
1BF
100
AcDbEntity
  8
1
100
AcDbLine
 10
215.471554
 20
-695.150965
 30
0.0
 11
200.071554
 21
-695.150965
 31
0.0
  0
LINE
  5
1C0
100
AcDbEntity
  8
1
100
AcDbLine
 10
200.071554
 20
-695.150965
 30
0.0
 11
200.071554
 21
-693.150965
 31
0.0
  0
CIRCLE
  5
1C1
100
AcDbEntity
  8
1
100
AcDbCircle
 10
-506.278446
 20
-455.150965
 30
0.0
 40
157.5
  0
LINE
  5
1C2
100
AcDbEntity
  8
1
100
AcDbLine
 10
-512.128446
 20
-126.550965
 30
0.0
 11
-512.128446
 21
-119.445858
 31
0.0
  0
LINE
  5
1C3
100
AcDbEntity
  8
1
100
AcDbLine
 10
-512.128446
 20
-119.445858
 30
0.0
 11
-510.578446
 21
-118.550965
 31
0.0
  0
LINE
  5
1C4
100
AcDbEntity
  8
1
100
AcDbLine
 10
-510.578446
 20
-118.550965
 30
0.0
 11
-494.078446
 21
-118.550965
 31
0.0
  0
LINE
  5
1C5
100
AcDbEntity
  8
1
100
AcDbLine
 10
-507.228446
 20
-126.550965
 30
0.0
 11
-507.228446
 21
-119.445858
 31
0.0
  0
ARC
  5
1C6
100
AcDbEntity
  8
1
100
AcDbCircle
 10
-509.678446
 20
-122.595416
 30
0.0
 40
3.990265
100
AcDbArc
 50
52.121121
 51
127.878879
  0
LINE
  5
1C7
100
AcDbEntity
  8
1
100
AcDbLine
 10
-492.528446
 20
-126.550965
 30
0.0
 11
-492.528446
 21
-119.445858
 31
0.0
  0
LINE
  5
1C8
100
AcDbEntity
  8
1
100
AcDbLine
 10
-492.528446
 20
-119.445858
 30
0.0
 11
-494.078446
 21
-118.550965
 31
0.0
  0
LINE
  5
1C9
100
AcDbEntity
  8
1
100
AcDbLine
 10
-497.428446
 20
-126.550965
 30
0.0
 11
-497.428446
 21
-119.445858
 31
0.0
  0
ARC
  5
1CA
100
AcDbEntity
  8
1
100
AcDbCircle
 10
-494.978446
 20
-122.595416
 30
0.0
 40
3.990265
100
AcDbArc
 50
52.121121
 51
127.878879
  0
ARC
  5
1CB
100
AcDbEntity
  8
1
100
AcDbCircle
 10
-502.328446
 20
-133.305151
 30
0.0
 40
14.7
100
AcDbArc
 50
70.528781
 51
109.471223
  0
LINE
  5
1CC
100
AcDbEntity
  8
1
100
AcDbLine
 10
-502.328446
 20
-115.650965
 30
0.0
 11
-497.328446
 21
-115.650965
 31
0.0
  0
ARC
  5
1CD
100
AcDbEntity
  8
1
100
AcDbCircle
 10
-502.328446
 20
-123.234298
 30
0.0
 40
9.083333
100
AcDbArc
 50
56.601512
 51
123.398491
  0
LINE
  5
1CE
100
AcDbEntity
  8
1
 62
     2
100
AcDbLine
 10
-498.140446
 20
-115.17405
 30
0.0
 11
-498.140446
 21
-118.550965
 31
0.0
  0
LINE
  5
1CF
100
AcDbEntity
  8
1
100
AcDbLine
 10
-502.328446
 20
-115.650965
 30
0.0
 11
-507.328446
 21
-115.650965
 31
0.0
  0
LINE
  5
1D0
100
AcDbEntity
  8
1
 62
     2
100
AcDbLine
 10
-506.516446
 20
-115.17405
 30
0.0
 11
-506.516446
 21
-118.550965
 31
0.0
  0
LINE
  5
1D1
100
AcDbEntity
  8
1
100
AcDbLine
 10
-497.328446
 20
-118.550965
 30
0.0
 11
-497.328446
 21
-115.650965
 31
0.0
  0
LINE
  5
1D2
100
AcDbEntity
  8
1
100
AcDbLine
 10
-507.328446
 20
-118.550965
 30
0.0
 11
-507.328446
 21
-115.650965
 31
0.0
  0
LINE
  5
1D3
100
AcDbEntity
  8
1
100
AcDbLine
 10
-474.828446
 20
-126.550965
 30
0.0
 11
-529.828446
 21
-126.550965
 31
0.0
  0
LINE
  5
1D4
100
AcDbEntity
  8
1
100
AcDbLine
 10
-474.828446
 20
-126.550965
 30
0.0
 11
-474.828446
 21
-133.150965
 31
0.0
  0
LINE
  5
1D5
100
AcDbEntity
  8
1
100
AcDbLine
 10
-529.828446
 20
-126.550965
 30
0.0
 11
-529.828446
 21
-133.150965
 31
0.0
  0
LINE
  5
1D6
100
AcDbEntity
  8
1
100
AcDbLine
 10
-519.828446
 20
-126.550965
 30
0.0
 11
-519.828446
 21
-99.150965
 31
0.0
  0
LINE
  5
1D7
100
AcDbEntity
  8
1
100
AcDbLine
 10
-481.828446
 20
-104.150965
 30
0.0
 11
-484.828446
 21
-104.150965
 31
0.0
  0
LINE
  5
1D8
100
AcDbEntity
  8
1
100
AcDbLine
 10
-481.828446
 20
-104.150965
 30
0.0
 11
-481.828446
 21
-99.150965
 31
0.0
  0
LINE
  5
1D9
100
AcDbEntity
  8
1
100
AcDbLine
 10
-484.828446
 20
-126.550965
 30
0.0
 11
-484.828446
 21
-104.150965
 31
0.0
  0
ARC
  5
1DA
100
AcDbEntity
  8
1
100
AcDbCircle
 10
-468.057937
 20
-99.150965
 30
0.0
 40
17.5
100
AcDbArc
 50
180.0
 51
196.60155
  0
LINE
  5
1DB
100
AcDbEntity
  8
1
100
AcDbLine
 10
-536.278446
 20
-307.1611
 30
0.0
 11
-536.719723
 21
-306.396787
 31
0.0
  0
ARC
  5
1DC
100
AcDbEntity
  8
1
100
AcDbCircle
 10
-543.647926
 20
-310.396787
 30
0.0
 40
8.0
100
AcDbArc
 50
30.0
 51
104.475327
  0
ARC
  5
1DD
100
AcDbEntity
  8
1
100
AcDbCircle
 10
-514.530937
 20
-305.87891
 30
0.0
 40
8.0
100
AcDbArc
 50
131.467012
 51
143.913952
  0
ARC
  5
1DE
100
AcDbEntity
  8
1
100
AcDbCircle
 10
-537.213973
 20
-307.1611
 30
0.0
 40
0.935527
100
AcDbArc
 50
281.806986
 51
360.0
  0
ARC
  5
1DF
100
AcDbEntity
  8
1
100
AcDbCircle
 10
-506.278446
 20
-455.150965
 30
0.0
 40
151.0
100
AcDbArc
 50
100.68623
 51
101.459516
  0
LINE
  5
1E0
100
AcDbEntity
  8
1
100
AcDbLine
 10
-536.278446
 20
-603.140829
 30
0.0
 11
-536.719723
 21
-603.905143
 31
0.0
  0
ARC
  5
1E1
100
AcDbEntity
  8
1
100
AcDbCircle
 10
-543.647926
 20
-599.905143
 30
0.0
 40
8.0
100
AcDbArc
 50
255.524673
 51
330.0
  0
ARC
  5
1E2
100
AcDbEntity
  8
1
100
AcDbCircle
 10
-514.530937
 20
-604.42302
 30
0.0
 40
8.0
100
AcDbArc
 50
216.086048
 51
228.532988
  0
ARC
  5
1E3
100
AcDbEntity
  8
1
100
AcDbCircle
 10
-537.213973
 20
-603.140829
 30
0.0
 40
0.935527
100
AcDbArc
 50
360.0
 51
78.193014
  0
ARC
  5
1E4
100
AcDbEntity
  8
1
100
AcDbCircle
 10
-506.278446
 20
-455.150965
 30
0.0
 40
151.0
100
AcDbArc
 50
258.540484
 51
259.31377
  0
ARC
  5
1E5
100
AcDbEntity
  8
1
100
AcDbCircle
 10
-506.278446
 20
-455.150965
 30
0.0
 40
150.25312
100
AcDbArc
 50
101.806986
 51
258.193014
  0
ARC
  5
1E6
100
AcDbEntity
  8
1
100
AcDbCircle
 10
-506.278446
 20
-455.150965
 30
0.0
 40
150.25312
100
AcDbArc
 50
280.712221
 51
79.287779
  0
ARC
  5
1E7
100
AcDbEntity
  8
1
100
AcDbCircle
 10
-506.278446
 20
-455.150965
 30
0.0
 40
148.566483
100
AcDbArc
 50
100.863381
 51
259.136619
  0
ARC
  5
1E8
100
AcDbEntity
  8
1
100
AcDbCircle
 10
-506.278446
 20
-455.150965
 30
0.0
 40
148.566483
100
AcDbArc
 50
280.863381
 51
79.136619
  0
LINE
  5
1E9
100
AcDbEntity
  8
1
100
AcDbLine
 10
-531.278446
 20
-362.650965
 30
0.0
 11
-475.278446
 21
-362.650965
 31
0.0
  0
LINE
  5
1EA
100
AcDbEntity
  8
1
100
AcDbLine
 10
-531.278446
 20
-547.650965
 30
0.0
 11
-475.278446
 21
-547.650965
 31
0.0
  0
LINE
  5
1EB
100
AcDbEntity
  8
1
100
AcDbLine
 10
-534.278446
 20
-606.832027
 30
0.0
 11
-534.278446
 21
-550.650965
 31
0.0
  0
LINE
  5
1EC
100
AcDbEntity
  8
1
100
AcDbLine
 10
-534.278446
 20
-359.650965
 30
0.0
 11
-534.278446
 21
-303.282601
 31
0.0
  0
ARC
  5
1ED
100
AcDbEntity
  8
1
100
AcDbCircle
 10
-531.278446
 20
-359.650965
 30
0.0
 40
3.0
100
AcDbArc
 50
180.0
 51
270.0
  0
ARC
  5
1EE
100
AcDbEntity
  8
1
100
AcDbCircle
 10
-475.278446
 20
-359.650965
 30
0.0
 40
3.0
100
AcDbArc
 50
270.0
 51
0.0
  0
ARC
  5
1EF
100
AcDbEntity
  8
1
100
AcDbCircle
 10
-475.278446
 20
-550.650965
 30
0.0
 40
3.0
100
AcDbArc
 50
0.0
 51
90.0
  0
ARC
  5
1F0
100
AcDbEntity
  8
1
100
AcDbCircle
 10
-531.278446
 20
-550.650965
 30
0.0
 40
3.0
100
AcDbArc
 50
90.0
 51
180.0
  0
LINE
  5
1F1
100
AcDbEntity
  8
1
100
AcDbLine
 10
-635.088384
 20
-451.150965
 30
0.0
 11
-377.468509
 21
-451.150965
 31
0.0
  0
LINE
  5
1F2
100
AcDbEntity
  8
1
100
AcDbLine
 10
-635.088384
 20
-459.150965
 30
0.0
 11
-377.468509
 21
-459.150965
 31
0.0
  0
ARC
  5
1F3
100
AcDbEntity
  8
1
100
AcDbCircle
 10
-377.468509
 20
-462.150965
 30
0.0
 40
3.0
100
AcDbArc
 50
356.889399
 51
90.0
  0
ARC
  5
1F4
100
AcDbEntity
  8
1
100
AcDbCircle
 10
-377.468509
 20
-448.150965
 30
0.0
 40
3.0
100
AcDbArc
 50
270.0
 51
3.110601
  0
ARC
  5
1F5
100
AcDbEntity
  8
1
100
AcDbCircle
 10
-635.088384
 20
-462.150965
 30
0.0
 40
3.0
100
AcDbArc
 50
90.0
 51
183.110601
  0
ARC
  5
1F6
100
AcDbEntity
  8
1
100
AcDbCircle
 10
-635.088384
 20
-448.150965
 30
0.0
 40
3.0
100
AcDbArc
 50
176.889399
 51
270.0
  0
ARC
  5
1F7
100
AcDbEntity
  8
1
100
AcDbCircle
 10
-506.278446
 20
-455.150965
 30
0.0
 40
132.0
100
AcDbArc
 50
358.263498
 51
1.736502
  0
ARC
  5
1F8
100
AcDbEntity
  8
1
100
AcDbCircle
 10
-506.278446
 20
-455.150965
 30
0.0
 40
132.0
100
AcDbArc
 50
178.263498
 51
181.736502
  0
LINE
  5
1F9
100
AcDbEntity
  8
1
100
AcDbLine
 10
-480.278446
 20
-544.650965
 30
0.0
 11
-480.278446
 21
-462.150965
 31
0.0
  0
LINE
  5
1FA
100
AcDbEntity
  8
1
100
AcDbLine
 10
-480.278446
 20
-448.150965
 30
0.0
 11
-480.278446
 21
-365.650965
 31
0.0
  0
LINE
  5
1FB
100
AcDbEntity
  8
1
100
AcDbLine
 10
-472.278446
 20
-596.108405
 30
0.0
 11
-472.278446
 21
-462.150965
 31
0.0
  0
LINE
  5
1FC
100
AcDbEntity
  8
1
100
AcDbLine
 10
-472.278446
 20
-448.150965
 30
0.0
 11
-472.278446
 21
-314.193524
 31
0.0
  0
LINE
  5
1FD
100
AcDbEntity
  8
1
100
AcDbLine
 10
-532.278446
 20
-544.650965
 30
0.0
 11
-532.278446
 21
-462.150965
 31
0.0
  0
LINE
  5
1FE
100
AcDbEntity
  8
1
100
AcDbLine
 10
-532.278446
 20
-448.150965
 30
0.0
 11
-532.278446
 21
-365.650965
 31
0.0
  0
LINE
  5
1FF
100
AcDbEntity
  8
1
100
AcDbLine
 10
-540.278446
 20
-547.650965
 30
0.0
 11
-540.278446
 21
-462.150965
 31
0.0
  0
ARC
  5
200
100
AcDbEntity
  8
1
100
AcDbCircle
 10
-483.278446
 20
-448.150965
 30
0.0
 40
3.0
100
AcDbArc
 50
270.0
 51
360.0
  0
ARC
  5
201
100
AcDbEntity
  8
1
100
AcDbCircle
 10
-469.278446
 20
-448.150965
 30
0.0
 40
3.0
100
AcDbArc
 50
180.0
 51
270.0
  0
ARC
  5
202
100
AcDbEntity
  8
1
100
AcDbCircle
 10
-469.278446
 20
-462.150965
 30
0.0
 40
3.0
100
AcDbArc
 50
90.0
 51
180.0
  0
ARC
  5
203
100
AcDbEntity
  8
1
100
AcDbCircle
 10
-483.278446
 20
-462.150965
 30
0.0
 40
3.0
100
AcDbArc
 50
0.0
 51
90.0
  0
ARC
  5
204
100
AcDbEntity
  8
1
100
AcDbCircle
 10
-529.278446
 20
-462.150965
 30
0.0
 40
3.0
100
AcDbArc
 50
90.0
 51
180.0
  0
ARC
  5
205
100
AcDbEntity
  8
1
100
AcDbCircle
 10
-529.278446
 20
-448.150965
 30
0.0
 40
3.0
100
AcDbArc
 50
180.0
 51
270.0
  0
ARC
  5
206
100
AcDbEntity
  8
1
100
AcDbCircle
 10
-543.278446
 20
-448.150965
 30
0.0
 40
3.0
100
AcDbArc
 50
270.0
 51
360.0
  0
ARC
  5
207
100
AcDbEntity
  8
1
100
AcDbCircle
 10
-543.278446
 20
-462.150965
 30
0.0
 40
3.0
100
AcDbArc
 50
0.0
 51
90.0
  0
ARC
  5
208
100
AcDbEntity
  8
1
100
AcDbCircle
 10
-529.278446
 20
-365.650965
 30
0.0
 40
3.0
100
AcDbArc
 50
90.0
 51
180.0
  0
ARC
  5
209
100
AcDbEntity
  8
1
100
AcDbCircle
 10
-483.278446
 20
-365.650965
 30
0.0
 40
3.0
100
AcDbArc
 50
0.0
 51
90.0
  0
ARC
  5
20A
100
AcDbEntity
  8
1
100
AcDbCircle
 10
-483.278446
 20
-544.650965
 30
0.0
 40
3.0
100
AcDbArc
 50
270.0
 51
360.0
  0
ARC
  5
20B
100
AcDbEntity
  8
1
100
AcDbCircle
 10
-529.278446
 20
-544.650965
 30
0.0
 40
3.0
100
AcDbArc
 50
180.0
 51
270.0
  0
ARC
  5
20C
100
AcDbEntity
  8
1
100
AcDbCircle
 10
-537.278446
 20
-362.650965
 30
0.0
 40
3.0
100
AcDbArc
 50
90.0
 51
180.0
  0
ARC
  5
20D
100
AcDbEntity
  8
1
100
AcDbCircle
 10
-537.278446
 20
-356.650965
 30
0.0
 40
3.0
100
AcDbArc
 50
270.0
 51
360.0
  0
ARC
  5
20E
100
AcDbEntity
  8
1
100
AcDbCircle
 10
-537.278446
 20
-547.650965
 30
0.0
 40
3.0
100
AcDbArc
 50
180.0
 51
270.0
  0
ARC
  5
20F
100
AcDbEntity
  8
1
100
AcDbCircle
 10
-537.278446
 20
-553.650965
 30
0.0
 40
3.0
100
AcDbArc
 50
0.0
 51
90.0
  0
ARC
  5
210
100
AcDbEntity
  8
1
100
AcDbCircle
 10
-483.278446
 20
-414.150965
 30
0.0
 40
3.0
100
AcDbArc
 50
0.0
 51
90.0
  0
ARC
  5
211
100
AcDbEntity
  8
1
100
AcDbCircle
 10
-483.278446
 20
-400.150965
 30
0.0
 40
3.0
100
AcDbArc
 50
270.0
 51
360.0
  0
ARC
  5
212
100
AcDbEntity
  8
1
100
AcDbCircle
 10
-529.278446
 20
-400.150965
 30
0.0
 40
3.0
100
AcDbArc
 50
180.0
 51
270.0
  0
ARC
  5
213
100
AcDbEntity
  8
1
100
AcDbCircle
 10
-529.278446
 20
-414.150965
 30
0.0
 40
3.0
100
AcDbArc
 50
90.0
 51
180.0
  0
ARC
  5
214
100
AcDbEntity
  8
1
100
AcDbCircle
 10
-483.278446
 20
-496.150965
 30
0.0
 40
3.0
100
AcDbArc
 50
270.0
 51
360.0
  0
ARC
  5
215
100
AcDbEntity
  8
1
100
AcDbCircle
 10
-483.278446
 20
-510.150965
 30
0.0
 40
3.0
100
AcDbArc
 50
0.0
 51
90.0
  0
ARC
  5
216
100
AcDbEntity
  8
1
100
AcDbCircle
 10
-529.278446
 20
-510.150965
 30
0.0
 40
3.0
100
AcDbArc
 50
90.0
 51
180.0
  0
ARC
  5
217
100
AcDbEntity
  8
1
100
AcDbCircle
 10
-529.278446
 20
-496.150965
 30
0.0
 40
3.0
100
AcDbArc
 50
180.0
 51
270.0
  0
LINE
  5
218
100
AcDbEntity
  8
1
100
AcDbLine
 10
-469.278446
 20
-354.650965
 30
0.0
 11
-429.28007
 21
-354.650965
 31
0.0
  0
LINE
  5
219
100
AcDbEntity
  8
1
100
AcDbLine
 10
-417.278446
 20
-448.150965
 30
0.0
 11
-417.278446
 21
-414.150965
 31
0.0
  0
LINE
  5
21A
100
AcDbEntity
  8
1
100
AcDbLine
 10
-417.278446
 20
-400.150965
 30
0.0
 11
-417.278446
 21
-365.650965
 31
0.0
  0
LINE
  5
21B
100
AcDbEntity
  8
1
100
AcDbLine
 10
-425.278446
 20
-448.150965
 30
0.0
 11
-425.278446
 21
-414.150965
 31
0.0
  0
LINE
  5
21C
100
AcDbEntity
  8
1
100
AcDbLine
 10
-425.278446
 20
-400.150965
 30
0.0
 11
-425.278446
 21
-365.650965
 31
0.0
  0
LINE
  5
21D
100
AcDbEntity
  8
1
100
AcDbLine
 10
-469.278446
 20
-411.150965
 30
0.0
 11
-428.278446
 21
-411.150965
 31
0.0
  0
LINE
  5
21E
100
AcDbEntity
  8
1
100
AcDbLine
 10
-414.278446
 20
-411.150965
 30
0.0
 11
-383.967368
 21
-411.150965
 31
0.0
  0
LINE
  5
21F
100
AcDbEntity
  8
1
100
AcDbLine
 10
-469.278446
 20
-403.150965
 30
0.0
 11
-428.278446
 21
-403.150965
 31
0.0
  0
LINE
  5
220
100
AcDbEntity
  8
1
100
AcDbLine
 10
-414.278446
 20
-403.150965
 30
0.0
 11
-389.590829
 21
-403.150965
 31
0.0
  0
ARC
  5
221
100
AcDbEntity
  8
1
100
AcDbCircle
 10
-506.278446
 20
-455.150965
 30
0.0
 40
132.0
100
AcDbArc
 50
3.110601
 51
18.53171
  0
ARC
  5
222
100
AcDbEntity
  8
1
100
AcDbCircle
 10
-506.278446
 20
-455.150965
 30
0.0
 40
132.0
100
AcDbArc
 50
25.236561
 51
43.931546
  0
ARC
  5
223
100
AcDbEntity
  8
1
100
AcDbCircle
 10
-506.278446
 20
-455.150965
 30
0.0
 40
132.0
100
AcDbArc
 50
53.352756
 51
73.332229
  0
LINE
  5
224
100
AcDbEntity
  8
1
100
AcDbLine
 10
-469.278446
 20
-362.650965
 30
0.0
 11
-428.278446
 21
-362.650965
 31
0.0
  0
LINE
  5
225
100
AcDbEntity
  8
1
100
AcDbLine
 10
-414.278446
 20
-362.650965
 30
0.0
 11
-413.376616
 21
-362.650965
 31
0.0
  0
ARC
  5
226
100
AcDbEntity
  8
1
100
AcDbCircle
 10
-428.278446
 20
-414.150965
 30
0.0
 40
3.0
100
AcDbArc
 50
0.0
 51
90.0
  0
ARC
  5
227
100
AcDbEntity
  8
1
100
AcDbCircle
 10
-428.278446
 20
-400.150965
 30
0.0
 40
3.0
100
AcDbArc
 50
270.0
 51
360.0
  0
ARC
  5
228
100
AcDbEntity
  8
1
100
AcDbCircle
 10
-414.278446
 20
-400.150965
 30
0.0
 40
3.0
100
AcDbArc
 50
180.0
 51
270.0
  0
ARC
  5
229
100
AcDbEntity
  8
1
100
AcDbCircle
 10
-414.278446
 20
-414.150965
 30
0.0
 40
3.0
100
AcDbArc
 50
90.0
 51
180.0
  0
ARC
  5
22A
100
AcDbEntity
  8
1
100
AcDbCircle
 10
-383.967368
 20
-414.150965
 30
0.0
 40
3.0
100
AcDbArc
 50
18.53171
 51
90.0
  0
ARC
  5
22B
100
AcDbEntity
  8
1
100
AcDbCircle
 10
-389.590829
 20
-400.150965
 30
0.0
 40
3.0
100
AcDbArc
 50
270.0
 51
25.236561
  0
ARC
  5
22C
100
AcDbEntity
  8
1
100
AcDbCircle
 10
-413.376616
 20
-365.650965
 30
0.0
 40
3.0
100
AcDbArc
 50
43.931546
 51
90.0
  0
ARC
  5
22D
100
AcDbEntity
  8
1
100
AcDbCircle
 10
-414.278446
 20
-365.650965
 30
0.0
 40
3.0
100
AcDbArc
 50
90.0
 51
180.0
  0
ARC
  5
22E
100
AcDbEntity
  8
1
100
AcDbCircle
 10
-428.278446
 20
-365.650965
 30
0.0
 40
3.0
100
AcDbArc
 50
0.0
 51
90.0
  0
ARC
  5
22F
100
AcDbEntity
  8
1
100
AcDbCircle
 10
-429.28007
 20
-351.650965
 30
0.0
 40
3.0
100
AcDbArc
 50
270.0
 51
53.352756
  0
ARC
  5
230
100
AcDbEntity
  8
1
100
AcDbCircle
 10
-414.278446
 20
-448.150965
 30
0.0
 40
3.0
100
AcDbArc
 50
180.0
 51
270.0
  0
ARC
  5
231
100
AcDbEntity
  8
1
100
AcDbCircle
 10
-428.278446
 20
-448.150965
 30
0.0
 40
3.0
100
AcDbArc
 50
270.0
 51
0.0
  0
ARC
  5
232
100
AcDbEntity
  8
1
100
AcDbCircle
 10
-469.278446
 20
-414.150965
 30
0.0
 40
3.0
100
AcDbArc
 50
90.0
 51
180.0
  0
ARC
  5
233
100
AcDbEntity
  8
1
100
AcDbCircle
 10
-469.278446
 20
-400.150965
 30
0.0
 40
3.0
100
AcDbArc
 50
180.0
 51
270.0
  0
ARC
  5
234
100
AcDbEntity
  8
1
100
AcDbCircle
 10
-469.278446
 20
-365.650965
 30
0.0
 40
3.0
100
AcDbArc
 50
90.0
 51
180.0
  0
ARC
  5
235
100
AcDbEntity
  8
1
100
AcDbCircle
 10
-469.278446
 20
-351.650965
 30
0.0
 40
3.0
100
AcDbArc
 50
180.0
 51
270.0
  0
ARC
  5
236
100
AcDbEntity
  8
1
100
AcDbCircle
 10
-469.278446
 20
-331.571031
 30
0.0
 40
3.0
100
AcDbArc
 50
73.332229
 51
180.0
  0
LINE
  5
237
100
AcDbEntity
  8
1
100
AcDbLine
 10
-469.278446
 20
-555.650965
 30
0.0
 11
-429.28007
 21
-555.650965
 31
0.0
  0
LINE
  5
238
100
AcDbEntity
  8
1
100
AcDbLine
 10
-417.278446
 20
-462.150965
 30
0.0
 11
-417.278446
 21
-496.150965
 31
0.0
  0
LINE
  5
239
100
AcDbEntity
  8
1
100
AcDbLine
 10
-417.278446
 20
-510.150965
 30
0.0
 11
-417.278446
 21
-544.650965
 31
0.0
  0
LINE
  5
23A
100
AcDbEntity
  8
1
100
AcDbLine
 10
-425.278446
 20
-462.150965
 30
0.0
 11
-425.278446
 21
-496.150965
 31
0.0
  0
LINE
  5
23B
100
AcDbEntity
  8
1
100
AcDbLine
 10
-425.278446
 20
-510.150965
 30
0.0
 11
-425.278446
 21
-544.650965
 31
0.0
  0
LINE
  5
23C
100
AcDbEntity
  8
1
100
AcDbLine
 10
-469.278446
 20
-499.150965
 30
0.0
 11
-428.278446
 21
-499.150965
 31
0.0
  0
LINE
  5
23D
100
AcDbEntity
  8
1
100
AcDbLine
 10
-414.278446
 20
-499.150965
 30
0.0
 11
-383.967368
 21
-499.150965
 31
0.0
  0
LINE
  5
23E
100
AcDbEntity
  8
1
100
AcDbLine
 10
-469.278446
 20
-507.150965
 30
0.0
 11
-428.278446
 21
-507.150965
 31
0.0
  0
LINE
  5
23F
100
AcDbEntity
  8
1
100
AcDbLine
 10
-414.278446
 20
-507.150965
 30
0.0
 11
-389.590829
 21
-507.150965
 31
0.0
  0
ARC
  5
240
100
AcDbEntity
  8
1
100
AcDbCircle
 10
-506.278446
 20
-455.150965
 30
0.0
 40
132.0
100
AcDbArc
 50
341.46829
 51
356.889399
  0
ARC
  5
241
100
AcDbEntity
  8
1
100
AcDbCircle
 10
-506.278446
 20
-455.150965
 30
0.0
 40
132.0
100
AcDbArc
 50
316.068454
 51
334.763439
  0
ARC
  5
242
100
AcDbEntity
  8
1
100
AcDbCircle
 10
-506.278446
 20
-455.150965
 30
0.0
 40
132.0
100
AcDbArc
 50
286.667771
 51
306.647244
  0
LINE
  5
243
100
AcDbEntity
  8
1
100
AcDbLine
 10
-469.278446
 20
-547.650965
 30
0.0
 11
-428.278446
 21
-547.650965
 31
0.0
  0
LINE
  5
244
100
AcDbEntity
  8
1
100
AcDbLine
 10
-414.278446
 20
-547.650965
 30
0.0
 11
-413.376616
 21
-547.650965
 31
0.0
  0
ARC
  5
245
100
AcDbEntity
  8
1
100
AcDbCircle
 10
-428.278446
 20
-496.150965
 30
0.0
 40
3.0
100
AcDbArc
 50
270.0
 51
360.0
  0
ARC
  5
246
100
AcDbEntity
  8
1
100
AcDbCircle
 10
-428.278446
 20
-510.150965
 30
0.0
 40
3.0
100
AcDbArc
 50
0.0
 51
90.0
  0
ARC
  5
247
100
AcDbEntity
  8
1
100
AcDbCircle
 10
-414.278446
 20
-510.150965
 30
0.0
 40
3.0
100
AcDbArc
 50
90.0
 51
180.0
  0
ARC
  5
248
100
AcDbEntity
  8
1
100
AcDbCircle
 10
-414.278446
 20
-496.150965
 30
0.0
 40
3.0
100
AcDbArc
 50
180.0
 51
270.0
  0
ARC
  5
249
100
AcDbEntity
  8
1
100
AcDbCircle
 10
-383.967368
 20
-496.150965
 30
0.0
 40
3.0
100
AcDbArc
 50
270.0
 51
341.46829
  0
ARC
  5
24A
100
AcDbEntity
  8
1
100
AcDbCircle
 10
-389.590829
 20
-510.150965
 30
0.0
 40
3.0
100
AcDbArc
 50
334.763439
 51
90.0
  0
ARC
  5
24B
100
AcDbEntity
  8
1
100
AcDbCircle
 10
-413.376616
 20
-544.650965
 30
0.0
 40
3.0
100
AcDbArc
 50
270.0
 51
316.068454
  0
ARC
  5
24C
100
AcDbEntity
  8
1
100
AcDbCircle
 10
-414.278446
 20
-544.650965
 30
0.0
 40
3.0
100
AcDbArc
 50
180.0
 51
270.0
  0
ARC
  5
24D
100
AcDbEntity
  8
1
100
AcDbCircle
 10
-428.278446
 20
-544.650965
 30
0.0
 40
3.0
100
AcDbArc
 50
270.0
 51
360.0
  0
ARC
  5
24E
100
AcDbEntity
  8
1
100
AcDbCircle
 10
-429.28007
 20
-558.650965
 30
0.0
 40
3.0
100
AcDbArc
 50
306.647244
 51
90.0
  0
ARC
  5
24F
100
AcDbEntity
  8
1
100
AcDbCircle
 10
-414.278446
 20
-462.150965
 30
0.0
 40
3.0
100
AcDbArc
 50
90.0
 51
180.0
  0
ARC
  5
250
100
AcDbEntity
  8
1
100
AcDbCircle
 10
-428.278446
 20
-462.150965
 30
0.0
 40
3.0
100
AcDbArc
 50
360.0
 51
90.0
  0
ARC
  5
251
100
AcDbEntity
  8
1
100
AcDbCircle
 10
-469.278446
 20
-496.150965
 30
0.0
 40
3.0
100
AcDbArc
 50
180.0
 51
270.0
  0
ARC
  5
252
100
AcDbEntity
  8
1
100
AcDbCircle
 10
-469.278446
 20
-510.150965
 30
0.0
 40
3.0
100
AcDbArc
 50
90.0
 51
180.0
  0
ARC
  5
253
100
AcDbEntity
  8
1
100
AcDbCircle
 10
-469.278446
 20
-544.650965
 30
0.0
 40
3.0
100
AcDbArc
 50
180.0
 51
270.0
  0
ARC
  5
254
100
AcDbEntity
  8
1
100
AcDbCircle
 10
-469.278446
 20
-558.650965
 30
0.0
 40
3.0
100
AcDbArc
 50
90.0
 51
180.0
  0
ARC
  5
255
100
AcDbEntity
  8
1
100
AcDbCircle
 10
-469.278446
 20
-578.730898
 30
0.0
 40
3.0
100
AcDbArc
 50
180.0
 51
286.667771
  0
LINE
  5
256
100
AcDbEntity
  8
1
100
AcDbLine
 10
-543.278446
 20
-354.650965
 30
0.0
 11
-583.276823
 21
-354.650965
 31
0.0
  0
LINE
  5
257
100
AcDbEntity
  8
1
100
AcDbLine
 10
-595.278446
 20
-448.150965
 30
0.0
 11
-595.278446
 21
-414.150965
 31
0.0
  0
LINE
  5
258
100
AcDbEntity
  8
1
100
AcDbLine
 10
-595.278446
 20
-400.150965
 30
0.0
 11
-595.278446
 21
-365.650965
 31
0.0
  0
LINE
  5
259
100
AcDbEntity
  8
1
100
AcDbLine
 10
-587.278446
 20
-448.150965
 30
0.0
 11
-587.278446
 21
-414.150965
 31
0.0
  0
LINE
  5
25A
100
AcDbEntity
  8
1
100
AcDbLine
 10
-587.278446
 20
-400.150965
 30
0.0
 11
-587.278446
 21
-365.650965
 31
0.0
  0
LINE
  5
25B
100
AcDbEntity
  8
1
100
AcDbLine
 10
-543.278446
 20
-411.150965
 30
0.0
 11
-584.278446
 21
-411.150965
 31
0.0
  0
LINE
  5
25C
100
AcDbEntity
  8
1
100
AcDbLine
 10
-598.278446
 20
-411.150965
 30
0.0
 11
-628.589525
 21
-411.150965
 31
0.0
  0
LINE
  5
25D
100
AcDbEntity
  8
1
100
AcDbLine
 10
-543.278446
 20
-403.150965
 30
0.0
 11
-584.278446
 21
-403.150965
 31
0.0
  0
LINE
  5
25E
100
AcDbEntity
  8
1
100
AcDbLine
 10
-598.278446
 20
-403.150965
 30
0.0
 11
-622.966064
 21
-403.150965
 31
0.0
  0
ARC
  5
25F
100
AcDbEntity
  8
1
100
AcDbCircle
 10
-506.278446
 20
-455.150965
 30
0.0
 40
132.0
100
AcDbArc
 50
161.46829
 51
176.889399
  0
ARC
  5
260
100
AcDbEntity
  8
1
100
AcDbCircle
 10
-506.278446
 20
-455.150965
 30
0.0
 40
132.0
100
AcDbArc
 50
136.068454
 51
154.763439
  0
ARC
  5
261
100
AcDbEntity
  8
1
100
AcDbCircle
 10
-506.278446
 20
-455.150965
 30
0.0
 40
132.0
100
AcDbArc
 50
106.667771
 51
126.647244
  0
LINE
  5
262
100
AcDbEntity
  8
1
100
AcDbLine
 10
-543.278446
 20
-362.650965
 30
0.0
 11
-584.278446
 21
-362.650965
 31
0.0
  0
LINE
  5
263
100
AcDbEntity
  8
1
100
AcDbLine
 10
-598.278446
 20
-362.650965
 30
0.0
 11
-599.180276
 21
-362.650965
 31
0.0
  0
ARC
  5
264
100
AcDbEntity
  8
1
100
AcDbCircle
 10
-584.278446
 20
-414.150965
 30
0.0
 40
3.0
100
AcDbArc
 50
90.0
 51
180.0
  0
ARC
  5
265
100
AcDbEntity
  8
1
100
AcDbCircle
 10
-584.278446
 20
-400.150965
 30
0.0
 40
3.0
100
AcDbArc
 50
180.0
 51
270.0
  0
ARC
  5
266
100
AcDbEntity
  8
1
100
AcDbCircle
 10
-598.278446
 20
-400.150965
 30
0.0
 40
3.0
100
AcDbArc
 50
270.0
 51
360.0
  0
ARC
  5
267
100
AcDbEntity
  8
1
100
AcDbCircle
 10
-598.278446
 20
-414.150965
 30
0.0
 40
3.0
100
AcDbArc
 50
360.0
 51
90.0
  0
ARC
  5
268
100
AcDbEntity
  8
1
100
AcDbCircle
 10
-628.589525
 20
-414.150965
 30
0.0
 40
3.0
100
AcDbArc
 50
90.0
 51
161.46829
  0
ARC
  5
269
100
AcDbEntity
  8
1
100
AcDbCircle
 10
-622.966064
 20
-400.150965
 30
0.0
 40
3.0
100
AcDbArc
 50
154.763439
 51
270.0
  0
ARC
  5
26A
100
AcDbEntity
  8
1
100
AcDbCircle
 10
-599.180276
 20
-365.650965
 30
0.0
 40
3.0
100
AcDbArc
 50
90.0
 51
136.068454
  0
ARC
  5
26B
100
AcDbEntity
  8
1
100
AcDbCircle
 10
-598.278446
 20
-365.650965
 30
0.0
 40
3.0
100
AcDbArc
 50
0.0
 51
90.0
  0
ARC
  5
26C
100
AcDbEntity
  8
1
100
AcDbCircle
 10
-584.278446
 20
-365.650965
 30
0.0
 40
3.0
100
AcDbArc
 50
90.0
 51
180.0
  0
ARC
  5
26D
100
AcDbEntity
  8
1
100
AcDbCircle
 10
-583.276823
 20
-351.650965
 30
0.0
 40
3.0
100
AcDbArc
 50
126.647244
 51
270.0
  0
ARC
  5
26E
100
AcDbEntity
  8
1
100
AcDbCircle
 10
-598.278446
 20
-448.150965
 30
0.0
 40
3.0
100
AcDbArc
 50
270.0
 51
0.0
  0
ARC
  5
26F
100
AcDbEntity
  8
1
100
AcDbCircle
 10
-584.278446
 20
-448.150965
 30
0.0
 40
3.0
100
AcDbArc
 50
180.0
 51
270.0
  0
ARC
  5
270
100
AcDbEntity
  8
1
100
AcDbCircle
 10
-543.278446
 20
-414.150965
 30
0.0
 40
3.0
100
AcDbArc
 50
0.0
 51
90.0
  0
ARC
  5
271
100
AcDbEntity
  8
1
100
AcDbCircle
 10
-543.278446
 20
-400.150965
 30
0.0
 40
3.0
100
AcDbArc
 50
270.0
 51
360.0
  0
ARC
  5
272
100
AcDbEntity
  8
1
100
AcDbCircle
 10
-543.278446
 20
-331.571031
 30
0.0
 40
3.0
100
AcDbArc
 50
0.0
 51
106.667771
  0
ARC
  5
273
100
AcDbEntity
  8
1
100
AcDbCircle
 10
-543.278446
 20
-365.650965
 30
0.0
 40
3.0
100
AcDbArc
 50
0.0
 51
90.0
  0
ARC
  5
274
100
AcDbEntity
  8
1
100
AcDbCircle
 10
-543.278446
 20
-351.650965
 30
0.0
 40
3.0
100
AcDbArc
 50
270.0
 51
0.0
  0
LINE
  5
275
100
AcDbEntity
  8
1
100
AcDbLine
 10
-540.278446
 20
-448.150965
 30
0.0
 11
-540.278446
 21
-362.650965
 31
0.0
  0
LINE
  5
276
100
AcDbEntity
  8
1
100
AcDbLine
 10
-540.278446
 20
-351.650965
 30
0.0
 11
-540.278446
 21
-331.571031
 31
0.0
  0
LINE
  5
277
100
AcDbEntity
  8
1
100
AcDbLine
 10
-543.278446
 20
-555.650965
 30
0.0
 11
-583.276823
 21
-555.650965
 31
0.0
  0
LINE
  5
278
100
AcDbEntity
  8
1
100
AcDbLine
 10
-595.278446
 20
-462.150965
 30
0.0
 11
-595.278446
 21
-496.150965
 31
0.0
  0
LINE
  5
279
100
AcDbEntity
  8
1
100
AcDbLine
 10
-595.278446
 20
-510.150965
 30
0.0
 11
-595.278446
 21
-544.650965
 31
0.0
  0
LINE
  5
27A
100
AcDbEntity
  8
1
100
AcDbLine
 10
-587.278446
 20
-462.150965
 30
0.0
 11
-587.278446
 21
-496.150965
 31
0.0
  0
LINE
  5
27B
100
AcDbEntity
  8
1
100
AcDbLine
 10
-587.278446
 20
-510.150965
 30
0.0
 11
-587.278446
 21
-544.650965
 31
0.0
  0
LINE
  5
27C
100
AcDbEntity
  8
1
100
AcDbLine
 10
-543.278446
 20
-499.150965
 30
0.0
 11
-584.278446
 21
-499.150965
 31
0.0
  0
LINE
  5
27D
100
AcDbEntity
  8
1
100
AcDbLine
 10
-598.278446
 20
-499.150965
 30
0.0
 11
-628.589525
 21
-499.150965
 31
0.0
  0
LINE
  5
27E
100
AcDbEntity
  8
1
100
AcDbLine
 10
-543.278446
 20
-507.150965
 30
0.0
 11
-584.278446
 21
-507.150965
 31
0.0
  0
LINE
  5
27F
100
AcDbEntity
  8
1
100
AcDbLine
 10
-598.278446
 20
-507.150965
 30
0.0
 11
-622.966064
 21
-507.150965
 31
0.0
  0
ARC
  5
280
100
AcDbEntity
  8
1
100
AcDbCircle
 10
-506.278446
 20
-455.150965
 30
0.0
 40
132.0
100
AcDbArc
 50
183.110601
 51
198.53171
  0
ARC
  5
281
100
AcDbEntity
  8
1
100
AcDbCircle
 10
-506.278446
 20
-455.150965
 30
0.0
 40
132.0
100
AcDbArc
 50
205.236561
 51
223.931546
  0
ARC
  5
282
100
AcDbEntity
  8
1
100
AcDbCircle
 10
-506.278446
 20
-455.150965
 30
0.0
 40
132.0
100
AcDbArc
 50
233.352756
 51
253.332229
  0
LINE
  5
283
100
AcDbEntity
  8
1
100
AcDbLine
 10
-543.278446
 20
-547.650965
 30
0.0
 11
-584.278446
 21
-547.650965
 31
0.0
  0
LINE
  5
284
100
AcDbEntity
  8
1
100
AcDbLine
 10
-598.278446
 20
-547.650965
 30
0.0
 11
-599.180276
 21
-547.650965
 31
0.0
  0
ARC
  5
285
100
AcDbEntity
  8
1
100
AcDbCircle
 10
-584.278446
 20
-496.150965
 30
0.0
 40
3.0
100
AcDbArc
 50
180.0
 51
270.0
  0
ARC
  5
286
100
AcDbEntity
  8
1
100
AcDbCircle
 10
-584.278446
 20
-510.150965
 30
0.0
 40
3.0
100
AcDbArc
 50
90.0
 51
180.0
  0
ARC
  5
287
100
AcDbEntity
  8
1
100
AcDbCircle
 10
-598.278446
 20
-510.150965
 30
0.0
 40
3.0
100
AcDbArc
 50
0.0
 51
90.0
  0
ARC
  5
288
100
AcDbEntity
  8
1
100
AcDbCircle
 10
-598.278446
 20
-496.150965
 30
0.0
 40
3.0
100
AcDbArc
 50
270.0
 51
0.0
  0
ARC
  5
289
100
AcDbEntity
  8
1
100
AcDbCircle
 10
-628.589525
 20
-496.150965
 30
0.0
 40
3.0
100
AcDbArc
 50
198.53171
 51
270.0
  0
ARC
  5
28A
100
AcDbEntity
  8
1
100
AcDbCircle
 10
-622.966064
 20
-510.150965
 30
0.0
 40
3.0
100
AcDbArc
 50
90.0
 51
205.236561
  0
ARC
  5
28B
100
AcDbEntity
  8
1
100
AcDbCircle
 10
-599.180276
 20
-544.650965
 30
0.0
 40
3.0
100
AcDbArc
 50
223.931546
 51
270.0
  0
ARC
  5
28C
100
AcDbEntity
  8
1
100
AcDbCircle
 10
-598.278446
 20
-544.650965
 30
0.0
 40
3.0
100
AcDbArc
 50
270.0
 51
360.0
  0
ARC
  5
28D
100
AcDbEntity
  8
1
100
AcDbCircle
 10
-584.278446
 20
-544.650965
 30
0.0
 40
3.0
100
AcDbArc
 50
180.0
 51
270.0
  0
ARC
  5
28E
100
AcDbEntity
  8
1
100
AcDbCircle
 10
-583.276823
 20
-558.650965
 30
0.0
 40
3.0
100
AcDbArc
 50
90.0
 51
233.352756
  0
ARC
  5
28F
100
AcDbEntity
  8
1
100
AcDbCircle
 10
-598.278446
 20
-462.150965
 30
0.0
 40
3.0
100
AcDbArc
 50
360.0
 51
90.0
  0
ARC
  5
290
100
AcDbEntity
  8
1
100
AcDbCircle
 10
-584.278446
 20
-462.150965
 30
0.0
 40
3.0
100
AcDbArc
 50
90.0
 51
180.0
  0
ARC
  5
291
100
AcDbEntity
  8
1
100
AcDbCircle
 10
-543.278446
 20
-496.150965
 30
0.0
 40
3.0
100
AcDbArc
 50
270.0
 51
360.0
  0
ARC
  5
292
100
AcDbEntity
  8
1
100
AcDbCircle
 10
-543.278446
 20
-510.150965
 30
0.0
 40
3.0
100
AcDbArc
 50
0.0
 51
90.0
  0
ARC
  5
293
100
AcDbEntity
  8
1
100
AcDbCircle
 10
-543.278446
 20
-578.730898
 30
0.0
 40
3.0
100
AcDbArc
 50
253.332229
 51
360.0
  0
ARC
  5
294
100
AcDbEntity
  8
1
100
AcDbCircle
 10
-543.278446
 20
-544.650965
 30
0.0
 40
3.0
100
AcDbArc
 50
270.0
 51
360.0
  0
ARC
  5
295
100
AcDbEntity
  8
1
100
AcDbCircle
 10
-543.278446
 20
-558.650965
 30
0.0
 40
3.0
100
AcDbArc
 50
360.0
 51
90.0
  0
LINE
  5
296
100
AcDbEntity
  8
1
100
AcDbLine
 10
-540.278446
 20
-558.650965
 30
0.0
 11
-540.278446
 21
-578.730898
 31
0.0
  0
LINE
  5
297
100
AcDbEntity
  8
1
100
AcDbLine
 10
-486.991145
 20
-317.193524
 30
0.0
 11
-486.991145
 21
-359.650965
 31
0.0
  0
ARC
  5
298
100
AcDbEntity
  8
1
100
AcDbCircle
 10
-483.991145
 20
-359.650965
 30
0.0
 40
3.0
100
AcDbArc
 50
180.0
 51
270.0
  0
ARC
  5
299
100
AcDbEntity
  8
1
100
AcDbCircle
 10
-506.278446
 20
-455.150965
 30
0.0
 40
145.0
100
AcDbArc
 50
76.438865
 51
78.866046
  0
LINE
  5
29A
100
AcDbEntity
  8
1
100
AcDbLine
 10
-478.278446
 20
-312.880096
 30
0.0
 11
-478.278446
 21
-308.150965
 31
0.0
  0
LINE
  5
29B
100
AcDbEntity
  8
1
100
AcDbLine
 10
-478.278446
 20
-312.880096
 30
0.0
 11
-503.278446
 21
-312.880096
 31
0.0
  0
LINE
  5
29C
100
AcDbEntity
  8
1
100
AcDbLine
 10
-472.278446
 20
-314.193524
 30
0.0
 11
-483.991145
 21
-314.193524
 31
0.0
  0
ARC
  5
29D
100
AcDbEntity
  8
1
100
AcDbCircle
 10
-483.991145
 20
-317.193524
 30
0.0
 40
3.0
100
AcDbArc
 50
90.0
 51
180.0
  0
ARC
  5
29E
100
AcDbEntity
  8
1
100
AcDbCircle
 10
-503.278446
 20
-309.880096
 30
0.0
 40
3.0
100
AcDbArc
 50
180.0
 51
270.0
  0
LINE
  5
29F
100
AcDbEntity
  8
1
100
AcDbLine
 10
-519.778446
 20
-338.650965
 30
0.0
 11
-509.278446
 21
-338.650965
 31
0.0
  0
ARC
  5
2A0
100
AcDbEntity
  8
1
100
AcDbCircle
 10
-519.778446
 20
-350.650965
 30
0.0
 40
12.0
100
AcDbArc
 50
90.0
 51
270.0
  0
ARC
  5
2A1
100
AcDbEntity
  8
1
100
AcDbCircle
 10
-509.278446
 20
-335.650965
 30
0.0
 40
3.0
100
AcDbArc
 50
270.0
 51
360.0
  0
CIRCLE
  5
2A2
100
AcDbEntity
  8
1
100
AcDbCircle
 10
-519.828446
 20
-350.638965
 30
0.0
 40
6.025
  0
CIRCLE
  5
2A3
100
AcDbEntity
  8
1
100
AcDbCircle
 10
-519.828446
 20
-350.638965
 30
0.0
 40
4.2
  0
CIRCLE
  5
2A4
100
AcDbEntity
  8
1
 62
     2
100
AcDbCircle
 10
-519.828446
 20
-350.638965
 30
0.0
 40
4.0
  0
CIRCLE
  5
2A5
100
AcDbEntity
  8
1
100
AcDbCircle
 10
-519.828446
 20
-350.638965
 30
0.0
 40
3.3235
  0
CIRCLE
  5
2A6
100
AcDbEntity
  8
1
100
AcDbCircle
 10
-502.328446
 20
-559.662965
 30
0.0
 40
6.025
  0
CIRCLE
  5
2A7
100
AcDbEntity
  8
1
100
AcDbCircle
 10
-502.328446
 20
-559.662965
 30
0.0
 40
4.2
  0
CIRCLE
  5
2A8
100
AcDbEntity
  8
1
 62
     2
100
AcDbCircle
 10
-502.328446
 20
-559.662965
 30
0.0
 40
4.0
  0
CIRCLE
  5
2A9
100
AcDbEntity
  8
1
100
AcDbCircle
 10
-502.328446
 20
-559.662965
 30
0.0
 40
3.3235
  0
LINE
  5
2AA
100
AcDbEntity
  8
1
100
AcDbLine
 10
-534.278446
 20
-303.282601
 30
0.0
 11
-502.328446
 21
-303.282601
 31
0.0
  0
ARC
  5
2AB
100
AcDbEntity
  8
1
100
AcDbCircle
 10
-483.828446
 20
316.705596
 30
0.0
 40
618.960199
100
AcDbArc
 50
266.572949
 51
268.287241
  0
ARC
  5
2AC
100
AcDbEntity
  8
1
100
AcDbCircle
 10
-503.278446
 20
-455.150965
 30
0.0
 40
155.0
100
AcDbArc
 50
96.501303
 51
101.536959
  0
LINE
  5
2AD
100
AcDbEntity
  8
1
100
AcDbLine
 10
-502.328446
 20
-301.978069
 30
0.0
 11
-502.328446
 21
-308.150965
 31
0.0
  0
LINE
  5
2AE
100
AcDbEntity
  8
1
100
AcDbLine
 10
-502.328446
 20
-308.150965
 30
0.0
 11
-478.278446
 21
-308.150965
 31
0.0
  0
LINE
  5
2AF
100
AcDbEntity
  8
1
100
AcDbLine
 10
-478.349966
 20
-306.756131
 30
0.0
 11
-478.349966
 21
-308.150965
 31
0.0
  0
LINE
  5
2B0
100
AcDbEntity
  8
1
100
AcDbLine
 10
-483.936872
 20
-305.812976
 30
0.0
 11
-483.936872
 21
-308.150965
 31
0.0
  0
ARC
  5
2B1
100
AcDbEntity
  8
1
100
AcDbCircle
 10
-506.274455
 20
-455.151626
 30
0.0
 40
151.0
100
AcDbArc
 50
79.342926
 51
81.492955
  0
ARC
  5
2B2
100
AcDbEntity
  8
1
100
AcDbCircle
 10
-483.936872
 20
170.326988
 30
0.0
 40
476.139963
100
AcDbArc
 50
269.892713
 51
270.0
  0
LINE
  5
2B3
100
AcDbEntity
  8
1
100
AcDbLine
 10
-519.828446
 20
-301.206799
 30
0.0
 11
-519.828446
 21
-298.234912
 31
0.0
  0
LINE
  5
2B4
100
AcDbEntity
  8
1
100
AcDbLine
 10
-484.828446
 20
-308.150965
 30
0.0
 11
-484.828446
 21
-299.118444
 31
0.0
  0
LINE
  5
2B5
100
AcDbEntity
  8
1
100
AcDbLine
 10
-486.991145
 20
-593.108405
 30
0.0
 11
-486.991145
 21
-550.650965
 31
0.0
  0
ARC
  5
2B6
100
AcDbEntity
  8
1
100
AcDbCircle
 10
-483.991145
 20
-550.650965
 30
0.0
 40
3.0
100
AcDbArc
 50
90.0
 51
180.0
  0
ARC
  5
2B7
100
AcDbEntity
  8
1
100
AcDbCircle
 10
-506.278446
 20
-455.150965
 30
0.0
 40
145.0
100
AcDbArc
 50
281.133954
 51
283.561135
  0
LINE
  5
2B8
100
AcDbEntity
  8
1
100
AcDbLine
 10
-478.278446
 20
-597.421833
 30
0.0
 11
-478.278446
 21
-602.150965
 31
0.0
  0
LINE
  5
2B9
100
AcDbEntity
  8
1
100
AcDbLine
 10
-478.278446
 20
-597.421833
 30
0.0
 11
-503.278446
 21
-597.421833
 31
0.0
  0
LINE
  5
2BA
100
AcDbEntity
  8
1
100
AcDbLine
 10
-472.278446
 20
-596.108405
 30
0.0
 11
-483.991145
 21
-596.108405
 31
0.0
  0
ARC
  5
2BB
100
AcDbEntity
  8
1
100
AcDbCircle
 10
-483.991145
 20
-593.108405
 30
0.0
 40
3.0
100
AcDbArc
 50
180.0
 51
270.0
  0
ARC
  5
2BC
100
AcDbEntity
  8
1
100
AcDbCircle
 10
-503.278446
 20
-600.421833
 30
0.0
 40
3.0
100
AcDbArc
 50
90.0
 51
180.0
  0
LINE
  5
2BD
100
AcDbEntity
  8
1
100
AcDbLine
 10
-519.778446
 20
-571.650965
 30
0.0
 11
-509.278446
 21
-571.650965
 31
0.0
  0
ARC
  5
2BE
100
AcDbEntity
  8
1
100
AcDbCircle
 10
-519.778446
 20
-559.650965
 30
0.0
 40
12.0
100
AcDbArc
 50
90.0
 51
270.0
  0
ARC
  5
2BF
100
AcDbEntity
  8
1
100
AcDbCircle
 10
-509.278446
 20
-574.650965
 30
0.0
 40
3.0
100
AcDbArc
 50
0.0
 51
90.0
  0
LINE
  5
2C0
100
AcDbEntity
  8
1
100
AcDbLine
 10
-534.278446
 20
-607.019329
 30
0.0
 11
-502.328446
 21
-607.019329
 31
0.0
  0
ARC
  5
2C1
100
AcDbEntity
  8
1
100
AcDbCircle
 10
-483.828446
 20
-1227.007526
 30
0.0
 40
618.960199
100
AcDbArc
 50
91.712759
 51
93.427051
  0
ARC
  5
2C2
100
AcDbEntity
  8
1
100
AcDbCircle
 10
-503.278446
 20
-455.150965
 30
0.0
 40
155.0
100
AcDbArc
 50
258.463041
 51
263.498697
  0
LINE
  5
2C3
100
AcDbEntity
  8
1
100
AcDbLine
 10
-502.328446
 20
-608.32386
 30
0.0
 11
-502.328446
 21
-602.150965
 31
0.0
  0
LINE
  5
2C4
100
AcDbEntity
  8
1
100
AcDbLine
 10
-502.328446
 20
-602.150965
 30
0.0
 11
-478.278446
 21
-602.150965
 31
0.0
  0
LINE
  5
2C5
100
AcDbEntity
  8
1
100
AcDbLine
 10
-478.349966
 20
-603.545799
 30
0.0
 11
-478.349966
 21
-602.150965
 31
0.0
  0
LINE
  5
2C6
100
AcDbEntity
  8
1
100
AcDbLine
 10
-483.936872
 20
-604.488954
 30
0.0
 11
-483.936872
 21
-602.150965
 31
0.0
  0
ARC
  5
2C7
100
AcDbEntity
  8
1
100
AcDbCircle
 10
-506.274455
 20
-455.150304
 30
0.0
 40
151.0
100
AcDbArc
 50
278.507045
 51
280.657074
  0
ARC
  5
2C8
100
AcDbEntity
  8
1
100
AcDbCircle
 10
-483.936872
 20
-1080.628917
 30
0.0
 40
476.139963
100
AcDbArc
 50
90.0
 51
90.107287
  0
LINE
  5
2C9
100
AcDbEntity
  8
1
100
AcDbLine
 10
-519.828446
 20
-609.095131
 30
0.0
 11
-519.828446
 21
-612.067017
 31
0.0
  0
LINE
  5
2CA
100
AcDbEntity
  8
1
100
AcDbLine
 10
-484.828446
 20
-602.150965
 30
0.0
 11
-484.828446
 21
-611.183485
 31
0.0
  0
ARC
  5
2CB
100
AcDbEntity
  8
1
100
AcDbCircle
 10
-506.278446
 20
-455.150965
 30
0.0
 40
140.0
100
AcDbArc
 50
101.536959
 51
258.463041
  0
ARC
  5
2CC
100
AcDbEntity
  8
1
100
AcDbCircle
 10
-506.278446
 20
-455.150965
 30
0.0
 40
140.0
100
AcDbArc
 50
284.055233
 51
75.944767
  0
LINE
  5
2CD
100
AcDbEntity
  8
1
100
AcDbLine
 10
-519.828446
 20
-547.650965
 30
0.0
 11
-519.828446
 21
-459.150965
 31
0.0
  0
LINE
  5
2CE
100
AcDbEntity
  8
1
100
AcDbLine
 10
-519.828446
 20
-451.150965
 30
0.0
 11
-519.828446
 21
-362.650965
 31
0.0
  0
LINE
  5
2CF
100
AcDbEntity
  8
1
100
AcDbLine
 10
-484.828446
 20
-547.650965
 30
0.0
 11
-484.828446
 21
-459.150965
 31
0.0
  0
LINE
  5
2D0
100
AcDbEntity
  8
1
100
AcDbLine
 10
-484.828446
 20
-451.150965
 30
0.0
 11
-484.828446
 21
-362.650965
 31
0.0
  0
LINE
  5
2D1
100
AcDbEntity
  8
1
100
AcDbLine
 10
-529.278446
 20
-403.150965
 30
0.0
 11
-519.828446
 21
-403.150965
 31
0.0
  0
LINE
  5
2D2
100
AcDbEntity
  8
1
100
AcDbLine
 10
-484.828446
 20
-403.150965
 30
0.0
 11
-483.278446
 21
-403.150965
 31
0.0
  0
LINE
  5
2D3
100
AcDbEntity
  8
1
100
AcDbLine
 10
-529.278446
 20
-411.150965
 30
0.0
 11
-519.828446
 21
-411.150965
 31
0.0
  0
LINE
  5
2D4
100
AcDbEntity
  8
1
100
AcDbLine
 10
-484.828446
 20
-411.150965
 30
0.0
 11
-483.278446
 21
-411.150965
 31
0.0
  0
LINE
  5
2D5
100
AcDbEntity
  8
1
100
AcDbLine
 10
-529.278446
 20
-499.150965
 30
0.0
 11
-519.828446
 21
-499.150965
 31
0.0
  0
LINE
  5
2D6
100
AcDbEntity
  8
1
100
AcDbLine
 10
-484.828446
 20
-499.150965
 30
0.0
 11
-483.278446
 21
-499.150965
 31
0.0
  0
LINE
  5
2D7
100
AcDbEntity
  8
1
100
AcDbLine
 10
-529.278446
 20
-507.150965
 30
0.0
 11
-519.828446
 21
-507.150965
 31
0.0
  0
LINE
  5
2D8
100
AcDbEntity
  8
1
100
AcDbLine
 10
-484.828446
 20
-507.150965
 30
0.0
 11
-483.278446
 21
-507.150965
 31
0.0
  0
ARC
  5
2D9
100
AcDbEntity
  8
1
100
AcDbCircle
 10
-506.278446
 20
-455.150965
 30
0.0
 40
144.27633
100
AcDbArc
 50
101.190519
 51
258.809481
  0
ARC
  5
2DA
100
AcDbEntity
  8
1
100
AcDbCircle
 10
-506.278446
 20
-455.150965
 30
0.0
 40
144.27633
100
AcDbArc
 50
283.630465
 51
76.369535
  0
ARC
  5
2DB
100
AcDbEntity
  8
1
100
AcDbCircle
 10
-506.278446
 20
-455.150965
 30
0.0
 40
145.812228
100
AcDbArc
 50
101.071147
 51
258.928853
  0
ARC
  5
2DC
100
AcDbEntity
  8
1
100
AcDbCircle
 10
-506.278446
 20
-455.150965
 30
0.0
 40
145.812228
100
AcDbArc
 50
281.071147
 51
78.928853
  0
LINE
  5
2DD
100
AcDbEntity
  8
1
  6
CENTER
 62
     2
100
AcDbLine
 10
-530.730236
 20
-350.638965
 30
0.0
 11
-508.398022
 21
-350.638965
 31
0.0
  0
LINE
  5
2DE
100
AcDbEntity
  8
1
  6
CENTER
 62
     2
100
AcDbLine
 10
-519.828446
 20
-361.70999
 30
0.0
 11
-519.828446
 21
-340.309109
 31
0.0
  0
LINE
  5
2DF
100
AcDbEntity
  8
1
  6
CENTER
 62
     2
100
AcDbLine
 10
-513.230236
 20
-559.662965
 30
0.0
 11
-490.898022
 21
-559.662965
 31
0.0
  0
LINE
  5
2E0
100
AcDbEntity
  8
1
100
AcDbLine
 10
-320.828446
 20
463.371273
 30
0.0
 11
-320.828446
 21
492.371273
 31
0.0
  0
LINE
  5
2E1
100
AcDbEntity
  8
1
  6
DASHED
100
AcDbLine
 10
-320.828446
 20
492.371273
 30
0.0
 11
-320.828446
 21
513.371273
 31
0.0
  0
LINE
  5
2E2
100
AcDbEntity
  8
1
100
AcDbLine
 10
-321.361828
 20
483.371273
 30
0.0
 11
-321.361828
 21
492.371273
 31
0.0
  0
LINE
  5
2E3
100
AcDbEntity
  8
1
  6
DASHED
100
AcDbLine
 10
-321.361828
 20
492.371273
 30
0.0
 11
-321.361828
 21
513.371273
 31
0.0
  0
LINE
  5
2E4
100
AcDbEntity
  8
1
100
AcDbLine
 10
-332.104348
 20
490.596102
 30
0.0
 11
-332.104348
 21
492.371273
 31
0.0
  0
LINE
  5
2E5
100
AcDbEntity
  8
1
  6
DASHED
100
AcDbLine
 10
-332.104348
 20
492.371273
 30
0.0
 11
-332.104348
 21
506.146443
 31
0.0
  0
LINE
  5
2E6
100
AcDbEntity
  8
1
  6
DASHED
100
AcDbLine
 10
-432.328446
 20
487.010975
 30
0.0
 11
-402.866573
 21
487.010975
 31
0.0
  0
LINE
  5
2E7
100
AcDbEntity
  8
1
100
AcDbLine
 10
-402.866573
 20
487.010975
 30
0.0
 11
-332.104348
 21
487.010975
 31
0.0
  0
LINE
  5
2E8
100
AcDbEntity
  8
1
100
AcDbLine
 10
-324.757355
 20
483.371273
 30
0.0
 11
-403.313296
 21
483.371273
 31
0.0
  0
LINE
  5
2E9
100
AcDbEntity
  8
1
  6
DASHED
100
AcDbLine
 10
-403.313296
 20
483.371273
 30
0.0
 11
-432.328446
 21
483.371273
 31
0.0
  0
LINE
  5
2EA
100
AcDbEntity
  8
1
100
AcDbLine
 10
-320.828446
 20
463.371273
 30
0.0
 11
-408.285903
 21
463.371273
 31
0.0
  0
LINE
  5
2EB
100
AcDbEntity
  8
1
  6
DASHED
100
AcDbLine
 10
-408.285903
 20
463.371273
 30
0.0
 11
-432.328446
 21
463.371273
 31
0.0
  0
LINE
  5
2EC
100
AcDbEntity
  8
1
100
AcDbLine
 10
-688.295065
 20
483.371273
 30
0.0
 11
-688.295065
 21
492.371273
 31
0.0
  0
LINE
  5
2ED
100
AcDbEntity
  8
1
  6
DASHED
100
AcDbLine
 10
-688.295065
 20
492.371273
 30
0.0
 11
-688.295065
 21
513.371273
 31
0.0
  0
LINE
  5
2EE
100
AcDbEntity
  8
1
100
AcDbLine
 10
-688.828446
 20
463.371273
 30
0.0
 11
-688.828446
 21
492.371273
 31
0.0
  0
LINE
  5
2EF
100
AcDbEntity
  8
1
  6
DASHED
100
AcDbLine
 10
-688.828446
 20
492.371273
 30
0.0
 11
-688.828446
 21
513.371273
 31
0.0
  0
LINE
  5
2F0
100
AcDbEntity
  8
1
100
AcDbLine
 10
-677.552545
 20
490.596102
 30
0.0
 11
-677.552545
 21
492.371273
 31
0.0
  0
LINE
  5
2F1
100
AcDbEntity
  8
1
  6
DASHED
100
AcDbLine
 10
-677.552545
 20
492.371273
 30
0.0
 11
-677.552545
 21
506.146443
 31
0.0
  0
LINE
  5
2F2
100
AcDbEntity
  8
1
  6
DASHED
100
AcDbLine
 10
-572.328446
 20
487.010975
 30
0.0
 11
-601.79032
 21
487.010975
 31
0.0
  0
LINE
  5
2F3
100
AcDbEntity
  8
1
100
AcDbLine
 10
-601.79032
 20
487.010975
 30
0.0
 11
-677.552545
 21
487.010975
 31
0.0
  0
LINE
  5
2F4
100
AcDbEntity
  8
1
100
AcDbLine
 10
-684.899538
 20
483.371273
 30
0.0
 11
-601.343597
 21
483.371273
 31
0.0
  0
LINE
  5
2F5
100
AcDbEntity
  8
1
  6
DASHED
100
AcDbLine
 10
-601.343597
 20
483.371273
 30
0.0
 11
-572.328446
 21
483.371273
 31
0.0
  0
LINE
  5
2F6
100
AcDbEntity
  8
1
100
AcDbLine
 10
-688.828446
 20
463.371273
 30
0.0
 11
-596.37099
 21
463.371273
 31
0.0
  0
LINE
  5
2F7
100
AcDbEntity
  8
1
  6
DASHED
100
AcDbLine
 10
-596.37099
 20
463.371273
 30
0.0
 11
-572.328446
 21
463.371273
 31
0.0
  0
LINE
  5
2F8
100
AcDbEntity
  8
2
  6
CENTER
 62
     2
100
AcDbLine
 10
-502.328446
 20
373.650111
 30
0.0
 11
-502.328446
 21
645.55659
 31
0.0
  0
LINE
  5
2F9
100
AcDbEntity
  8
2
  6
CENTER
 62
     2
100
AcDbLine
 10
-756.306015
 20
497.371273
 30
0.0
 11
-252.314781
 21
497.371273
 31
0.0
  0
ARC
  5
2FA
100
AcDbEntity
  8
2
100
AcDbCircle
 10
-502.328446
 20
497.371273
 30
0.0
 40
100.0
100
AcDbArc
 50
185.744445
 51
354.255556
  0
LINE
  5
2FB
100
AcDbEntity
  8
2
100
AcDbLine
 10
-527.328446
 20
444.371273
 30
0.0
 11
-477.328446
 21
444.371273
 31
0.0
  0
LINE
  5
2FC
100
AcDbEntity
  8
2
100
AcDbLine
 10
-392.328446
 20
487.371273
 30
0.0
 11
-392.328446
 21
631.371273
 31
0.0
  0
LINE
  5
2FD
100
AcDbEntity
  8
2
100
AcDbLine
 10
-418.328446
 20
631.371273
 30
0.0
 11
-392.328446
 21
631.371273
 31
0.0
  0
LINE
  5
2FE
100
AcDbEntity
  8
2
100
AcDbLine
 10
-392.328446
 20
487.371273
 30
0.0
 11
-418.328446
 21
487.371273
 31
0.0
  0
LINE
  5
2FF
100
AcDbEntity
  8
2
100
AcDbLine
 10
-477.328446
 20
440.171273
 30
0.0
 11
-477.328446
 21
454.070002
 31
0.0
  0
LINE
  5
300
100
AcDbEntity
  8
2
100
AcDbLine
 10
-612.328446
 20
487.371273
 30
0.0
 11
-612.328446
 21
631.371273
 31
0.0
  0
LINE
  5
301
100
AcDbEntity
  8
2
100
AcDbLine
 10
-586.328446
 20
631.371273
 30
0.0
 11
-612.328446
 21
631.371273
 31
0.0
  0
LINE
  5
302
100
AcDbEntity
  8
2
100
AcDbLine
 10
-612.328446
 20
487.371273
 30
0.0
 11
-586.328446
 21
487.371273
 31
0.0
  0
LINE
  5
303
100
AcDbEntity
  8
2
100
AcDbLine
 10
-527.328446
 20
440.171273
 30
0.0
 11
-527.328446
 21
454.070002
 31
0.0
  0
LINE
  5
304
100
AcDbEntity
  8
2
  6
CENTER
 62
     2
100
AcDbLine
 10
-418.328446
 20
519.571273
 30
0.0
 11
-418.328446
 21
539.971273
 31
0.0
  0
LINE
  5
305
100
AcDbEntity
  8
2
  6
CENTER
 62
     2
100
AcDbLine
 10
-418.328446
 20
556.471273
 30
0.0
 11
-418.328446
 21
574.471273
 31
0.0
  0
LINE
  5
306
100
AcDbEntity
  8
2
  6
CENTER
 62
     2
100
AcDbLine
 10
-586.328446
 20
574.471273
 30
0.0
 11
-586.328446
 21
556.471273
 31
0.0
  0
LINE
  5
307
100
AcDbEntity
  8
2
  6
CENTER
 62
     2
100
AcDbLine
 10
-586.328446
 20
540.471273
 30
0.0
 11
-586.328446
 21
519.571273
 31
0.0
  0
LINE
  5
308
100
AcDbEntity
  8
2
  6
CENTER
 62
     2
100
AcDbLine
 10
-594.928446
 20
529.371273
 30
0.0
 11
-575.728446
 21
529.371273
 31
0.0
  0
LINE
  5
309
100
AcDbEntity
  8
2
  6
CENTER
 62
     2
100
AcDbLine
 10
-594.928446
 20
565.371273
 30
0.0
 11
-575.728446
 21
565.371273
 31
0.0
  0
LINE
  5
30A
100
AcDbEntity
  8
2
  6
CENTER
 62
     2
100
AcDbLine
 10
-428.728446
 20
529.371273
 30
0.0
 11
-407.828446
 21
529.371273
 31
0.0
  0
LINE
  5
30B
100
AcDbEntity
  8
2
  6
CENTER
 62
     2
100
AcDbLine
 10
-428.728446
 20
565.371273
 30
0.0
 11
-407.828446
 21
565.371273
 31
0.0
  0
CIRCLE
  5
30C
100
AcDbEntity
  8
2
100
AcDbCircle
 10
-586.328446
 20
529.371273
 30
0.0
 40
2.4
  0
CIRCLE
  5
30D
100
AcDbEntity
  8
2
 62
     2
100
AcDbCircle
 10
-586.328446
 20
529.371273
 30
0.0
 40
3.0
  0
CIRCLE
  5
30E
100
AcDbEntity
  8
2
100
AcDbCircle
 10
-586.328446
 20
565.371273
 30
0.0
 40
2.4
  0
CIRCLE
  5
30F
100
AcDbEntity
  8
2
 62
     2
100
AcDbCircle
 10
-586.328446
 20
565.371273
 30
0.0
 40
3.0
  0
CIRCLE
  5
310
100
AcDbEntity
  8
2
100
AcDbCircle
 10
-418.328446
 20
565.371273
 30
0.0
 40
2.4
  0
CIRCLE
  5
311
100
AcDbEntity
  8
2
 62
     2
100
AcDbCircle
 10
-418.328446
 20
565.371273
 30
0.0
 40
3.0
  0
CIRCLE
  5
312
100
AcDbEntity
  8
2
100
AcDbCircle
 10
-418.328446
 20
529.371273
 30
0.0
 40
2.4
  0
CIRCLE
  5
313
100
AcDbEntity
  8
2
 62
     2
100
AcDbCircle
 10
-418.328446
 20
529.371273
 30
0.0
 40
3.0
  0
LINE
  5
314
100
AcDbEntity
  8
2
100
AcDbLine
 10
-527.328446
 20
443.371273
 30
0.0
 11
-477.328446
 21
443.371273
 31
0.0
  0
LINE
  5
315
100
AcDbEntity
  8
2
100
AcDbLine
 10
-477.328446
 20
440.171273
 30
0.0
 11
-527.328446
 21
440.171273
 31
0.0
  0
LINE
  5
316
100
AcDbEntity
  8
2
  6
CENTER
 62
     2
100
AcDbLine
 10
-484.328446
 20
431.171273
 30
0.0
 11
-484.328446
 21
447.971273
 31
0.0
  0
LINE
  5
317
100
AcDbEntity
  8
2
  6
CENTER
 62
     2
100
AcDbLine
 10
-520.328446
 20
431.171273
 30
0.0
 11
-520.328446
 21
447.971273
 31
0.0
  0
LINE
  5
318
100
AcDbEntity
  8
2
100
AcDbLine
 10
-420.328446
 20
629.371273
 30
0.0
 11
-420.328446
 21
572.079476
 31
0.0
  0
LINE
  5
319
100
AcDbEntity
  8
2
100
AcDbLine
 10
-420.328446
 20
558.663069
 30
0.0
 11
-420.328446
 21
536.071273
 31
0.0
  0
LINE
  5
31A
100
AcDbEntity
  8
2
100
AcDbLine
 10
-420.328446
 20
522.671273
 30
0.0
 11
-420.328446
 21
489.371273
 31
0.0
  0
LINE
  5
31B
100
AcDbEntity
  8
2
100
AcDbLine
 10
-584.328446
 20
489.371273
 30
0.0
 11
-584.328446
 21
522.671273
 31
0.0
  0
LINE
  5
31C
100
AcDbEntity
  8
2
100
AcDbLine
 10
-584.328446
 20
536.071273
 30
0.0
 11
-584.328446
 21
558.663069
 31
0.0
  0
LINE
  5
31D
100
AcDbEntity
  8
2
100
AcDbLine
 10
-584.328446
 20
572.079476
 30
0.0
 11
-584.328446
 21
629.371273
 31
0.0
  0
CIRCLE
  5
31E
100
AcDbEntity
  8
2
100
AcDbCircle
 10
-586.328446
 20
529.371273
 30
0.0
 40
7.0
  0
CIRCLE
  5
31F
100
AcDbEntity
  8
2
100
AcDbCircle
 10
-586.328446
 20
565.371273
 30
0.0
 40
7.0
  0
CIRCLE
  5
320
100
AcDbEntity
  8
2
100
AcDbCircle
 10
-418.328446
 20
565.371273
 30
0.0
 40
7.0
  0
CIRCLE
  5
321
100
AcDbEntity
  8
2
100
AcDbCircle
 10
-418.328446
 20
529.371273
 30
0.0
 40
7.0
  0
CIRCLE
  5
322
100
AcDbEntity
  8
2
100
AcDbCircle
 10
-502.328446
 20
497.371273
 30
0.0
 40
3.3
  0
CIRCLE
  5
323
100
AcDbEntity
  8
2
 62
     2
100
AcDbCircle
 10
-502.328446
 20
497.371273
 30
0.0
 40
4.0
  0
LINE
  5
324
100
AcDbEntity
  8
2
  6
CENTER
 62
     2
100
AcDbLine
 10
-404.128446
 20
502.371273
 30
0.0
 11
-118.211524
 21
502.371273
 31
0.0
  0
LINE
  5
325
100
AcDbEntity
  8
2
  6
CENTER
 62
     2
100
AcDbLine
 10
-404.128446
 20
616.371273
 30
0.0
 11
-117.75376
 21
616.371273
 31
0.0
  0
LINE
  5
326
100
AcDbEntity
  8
2
100
AcDbLine
 10
-367.328446
 20
492.371273
 30
0.0
 11
-172.328446
 21
492.371273
 31
0.0
  0
LINE
  5
327
100
AcDbEntity
  8
2
100
AcDbLine
 10
-367.328446
 20
626.371273
 30
0.0
 11
-172.328446
 21
626.371273
 31
0.0
  0
LINE
  5
328
100
AcDbEntity
  8
2
100
AcDbLine
 10
-367.328446
 20
628.871273
 30
0.0
 11
-367.328446
 21
623.371273
 31
0.0
  0
LINE
  5
329
100
AcDbEntity
  8
2
100
AcDbLine
 10
-367.328446
 20
609.371273
 30
0.0
 11
-367.328446
 21
509.371273
 31
0.0
  0
LINE
  5
32A
100
AcDbEntity
  8
2
100
AcDbLine
 10
-367.328446
 20
495.371273
 30
0.0
 11
-367.328446
 21
489.871273
 31
0.0
  0
LINE
  5
32B
100
AcDbEntity
  8
2
100
AcDbLine
 10
-367.328446
 20
489.871273
 30
0.0
 11
-392.328446
 21
489.871273
 31
0.0
  0
LINE
  5
32C
100
AcDbEntity
  8
2
  6
CENTER
 62
     2
100
AcDbLine
 10
-379.828446
 20
621.871273
 30
0.0
 11
-379.828446
 21
667.271273
 31
0.0
  0
LINE
  5
32D
100
AcDbEntity
  8
2
100
AcDbLine
 10
-172.328446
 20
489.871273
 30
0.0
 11
-172.328446
 21
628.871273
 31
0.0
  0
LINE
  5
32E
100
AcDbEntity
  8
2
100
AcDbLine
 10
-137.328446
 20
631.371273
 30
0.0
 11
-171.328446
 21
631.371273
 31
0.0
  0
LINE
  5
32F
100
AcDbEntity
  8
2
100
AcDbLine
 10
-156.328446
 20
629.371273
 30
0.0
 11
-156.328446
 21
489.371273
 31
0.0
  0
LINE
  5
330
100
AcDbEntity
  8
2
100
AcDbLine
 10
-137.328446
 20
631.371273
 30
0.0
 11
-137.328446
 21
623.371273
 31
0.0
  0
LINE
  5
331
100
AcDbEntity
  8
2
100
AcDbLine
 10
-152.328446
 20
539.371273
 30
0.0
 11
-152.328446
 21
579.371273
 31
0.0
  0
LINE
  5
332
100
AcDbEntity
  8
2
100
AcDbLine
 10
-137.328446
 20
487.371273
 30
0.0
 11
-171.328446
 21
487.371273
 31
0.0
  0
LINE
  5
333
100
AcDbEntity
  8
2
100
AcDbLine
 10
-137.328446
 20
487.371273
 30
0.0
 11
-137.328446
 21
495.371273
 31
0.0
  0
LINE
  5
334
100
AcDbEntity
  8
2
100
AcDbLine
 10
-392.328446
 20
495.371273
 30
0.0
 11
-172.328446
 21
495.371273
 31
0.0
  0
LINE
  5
335
100
AcDbEntity
  8
2
100
AcDbLine
 10
-392.328446
 20
509.371273
 30
0.0
 11
-172.328446
 21
509.371273
 31
0.0
  0
LINE
  5
336
100
AcDbEntity
  8
2
100
AcDbLine
 10
-392.328446
 20
623.371273
 30
0.0
 11
-172.328446
 21
623.371273
 31
0.0
  0
LINE
  5
337
100
AcDbEntity
  8
2
100
AcDbLine
 10
-392.328446
 20
609.371273
 30
0.0
 11
-172.328446
 21
609.371273
 31
0.0
  0
ARC
  5
338
100
AcDbEntity
  8
2
100
AcDbCircle
 10
-502.328446
 20
497.371273
 30
0.0
 40
16.1
100
AcDbArc
 50
278.847864
 51
351.152136
  0
ARC
  5
339
100
AcDbEntity
  8
2
100
AcDbCircle
 10
-502.328446
 20
497.371273
 30
0.0
 40
16.1
100
AcDbArc
 50
228.560856
 51
261.152136
  0
ARC
  5
33A
100
AcDbEntity
  8
2
100
AcDbCircle
 10
-502.328446
 20
497.371273
 30
0.0
 40
16.1
100
AcDbArc
 50
188.847864
 51
221.439144
  0
ARC
  5
33B
100
AcDbEntity
  8
2
100
AcDbCircle
 10
-502.328446
 20
497.371273
 30
0.0
 40
16.1
100
AcDbArc
 50
98.847864
 51
171.152136
  0
ARC
  5
33C
100
AcDbEntity
  8
2
100
AcDbCircle
 10
-502.328446
 20
497.371273
 30
0.0
 40
16.1
100
AcDbArc
 50
8.847864
 51
81.152136
  0
LINE
  5
33D
100
AcDbEntity
  8
2
  6
CENTER
 62
     2
100
AcDbLine
 10
-155.328446
 20
667.271273
 30
0.0
 11
-155.328446
 21
624.371273
 31
0.0
  0
LINE
  5
33E
100
AcDbEntity
  8
2
  6
CENTER
 62
     2
100
AcDbLine
 10
-896.036765
 20
133.849035
 30
0.0
 11
-102.248877
 21
133.849035
 31
0.0
  0
LINE
  5
33F
100
AcDbEntity
  8
2
  6
CENTER
 62
     2
100
AcDbLine
 10
412.196682
 20
133.849035
 30
0.0
 11
135.041134
 21
133.849035
 31
0.0
  0
LINE
  5
340
100
AcDbEntity
  8
2
100
AcDbLine
 10
-404.328446
 20
69.849035
 30
0.0
 11
-600.328446
 21
69.849035
 31
0.0
  0
LINE
  5
341
100
AcDbEntity
  8
2
100
AcDbLine
 10
-612.328446
 20
205.849035
 30
0.0
 11
-612.328446
 21
61.849035
 31
0.0
  0
LINE
  5
342
100
AcDbEntity
  8
2
100
AcDbLine
 10
-392.328446
 20
205.849035
 30
0.0
 11
-392.328446
 21
61.849035
 31
0.0
  0
LINE
  5
343
100
AcDbEntity
  8
2
100
AcDbLine
 10
-420.328446
 20
203.849035
 30
0.0
 11
-420.328446
 21
74.849035
 31
0.0
  0
LINE
  5
344
100
AcDbEntity
  8
2
100
AcDbLine
 10
-584.328446
 20
203.849035
 30
0.0
 11
-584.328446
 21
74.849035
 31
0.0
  0
LINE
  5
345
100
AcDbEntity
  8
2
100
AcDbLine
 10
-612.328446
 20
205.849035
 30
0.0
 11
-586.328446
 21
205.849035
 31
0.0
  0
LINE
  5
346
100
AcDbEntity
  8
2
100
AcDbLine
 10
-418.328446
 20
205.849035
 30
0.0
 11
-392.328446
 21
205.849035
 31
0.0
  0
ARC
  5
347
100
AcDbEntity
  8
2
100
AcDbCircle
 10
-406.328446
 20
210.849035
 30
0.0
 40
5.0
100
AcDbArc
 50
180.0
 51
270.0
  0
LINE
  5
348
100
AcDbEntity
  8
2
100
AcDbLine
 10
-612.328446
 20
61.849035
 30
0.0
 11
-608.328446
 21
61.849035
 31
0.0
  0
LINE
  5
349
100
AcDbEntity
  8
2
100
AcDbLine
 10
-532.328446
 20
214.849035
 30
0.0
 11
-472.328446
 21
214.849035
 31
0.0
  0
LINE
  5
34A
100
AcDbEntity
  8
2
100
AcDbLine
 10
-578.912248
 20
200.849035
 30
0.0
 11
-425.744645
 21
200.849035
 31
0.0
  0
ARC
  5
34B
100
AcDbEntity
  8
2
100
AcDbCircle
 10
-430.328446
 20
205.849035
 30
0.0
 40
5.0
100
AcDbArc
 50
270.0
 51
360.0
  0
LINE
  5
34C
100
AcDbEntity
  8
2
  6
CENTER
 62
     2
100
AcDbLine
 10
-418.328446
 20
234.158805
 30
0.0
 11
-418.328446
 21
195.973876
 31
0.0
  0
LINE
  5
34D
100
AcDbEntity
  8
2
  6
CENTER
 62
     2
100
AcDbLine
 10
-586.328446
 20
235.049035
 30
0.0
 11
-586.328446
 21
194.071227
 31
0.0
  0
LINE
  5
34E
100
AcDbEntity
  8
2
100
AcDbLine
 10
-532.328446
 20
214.849035
 30
0.0
 11
-533.917722
 21
205.810028
 31
0.0
  0
LINE
  5
34F
100
AcDbEntity
  8
2
100
AcDbLine
 10
-472.328446
 20
214.849035
 30
0.0
 11
-470.73917
 21
205.810028
 31
0.0
  0
LINE
  5
350
100
AcDbEntity
  8
2
100
AcDbLine
 10
-425.328446
 20
221.849035
 30
0.0
 11
-411.328446
 21
221.849035
 31
0.0
  0
LINE
  5
351
100
AcDbEntity
  8
2
100
AcDbLine
 10
-425.328446
 20
221.849035
 30
0.0
 11
-425.328446
 21
205.849035
 31
0.0
  0
LINE
  5
352
100
AcDbEntity
  8
2
100
AcDbLine
 10
-411.328446
 20
221.849035
 30
0.0
 11
-411.328446
 21
210.849035
 31
0.0
  0
ARC
  5
353
100
AcDbEntity
  8
2
100
AcDbCircle
 10
-598.328446
 20
210.849035
 30
0.0
 40
5.0
100
AcDbArc
 50
270.0
 51
360.0
  0
ARC
  5
354
100
AcDbEntity
  8
2
100
AcDbCircle
 10
-574.328446
 20
205.849035
 30
0.0
 40
5.0
100
AcDbArc
 50
180.0
 51
270.0
  0
LINE
  5
355
100
AcDbEntity
  8
2
100
AcDbLine
 10
-579.328446
 20
221.849035
 30
0.0
 11
-593.328446
 21
221.849035
 31
0.0
  0
LINE
  5
356
100
AcDbEntity
  8
2
100
AcDbLine
 10
-579.328446
 20
221.849035
 30
0.0
 11
-579.328446
 21
205.849035
 31
0.0
  0
LINE
  5
357
100
AcDbEntity
  8
2
100
AcDbLine
 10
-593.328446
 20
221.849035
 30
0.0
 11
-593.328446
 21
210.849035
 31
0.0
  0
LINE
  5
358
100
AcDbEntity
  8
2
100
AcDbLine
 10
-540.512213
 20
228.849035
 30
0.0
 11
-465.119554
 21
228.849035
 31
0.0
  0
LINE
  5
359
100
AcDbEntity
  8
2
100
AcDbLine
 10
-522.328446
 20
228.849035
 30
0.0
 11
-522.328446
 21
214.849035
 31
0.0
  0
LINE
  5
35A
100
AcDbEntity
  8
2
100
AcDbLine
 10
-482.328446
 20
228.849035
 30
0.0
 11
-482.328446
 21
214.849035
 31
0.0
  0
LINE
  5
35B
100
AcDbEntity
  8
2
100
AcDbLine
 10
-637.328446
 20
64.349035
 30
0.0
 11
-637.328446
 21
69.849035
 31
0.0
  0
LINE
  5
35C
100
AcDbEntity
  8
2
100
AcDbLine
 10
-637.328446
 20
83.849035
 30
0.0
 11
-637.328446
 21
183.849035
 31
0.0
  0
LINE
  5
35D
100
AcDbEntity
  8
2
100
AcDbLine
 10
-637.328446
 20
197.849035
 30
0.0
 11
-637.328446
 21
203.349035
 31
0.0
  0
LINE
  5
35E
100
AcDbEntity
  8
2
100
AcDbLine
 10
-637.328446
 20
203.349035
 30
0.0
 11
-612.328446
 21
203.349035
 31
0.0
  0
LINE
  5
35F
100
AcDbEntity
  8
2
100
AcDbLine
 10
-367.328446
 20
200.849035
 30
0.0
 11
-172.328446
 21
200.849035
 31
0.0
  0
LINE
  5
360
100
AcDbEntity
  8
2
100
AcDbLine
 10
-396.328446
 20
61.849035
 30
0.0
 11
-392.328446
 21
61.849035
 31
0.0
  0
LINE
  5
361
100
AcDbEntity
  8
2
100
AcDbLine
 10
-172.328446
 20
203.349035
 30
0.0
 11
-172.328446
 21
64.349035
 31
0.0
  0
LINE
  5
362
100
AcDbEntity
  8
2
100
AcDbLine
 10
-156.328446
 20
61.849035
 30
0.0
 11
-171.328446
 21
61.849035
 31
0.0
  0
LINE
  5
363
100
AcDbEntity
  8
2
100
AcDbLine
 10
-156.328446
 20
205.849035
 30
0.0
 11
-171.328446
 21
205.849035
 31
0.0
  0
LINE
  5
364
100
AcDbEntity
  8
2
100
AcDbLine
 10
-392.328446
 20
197.849035
 30
0.0
 11
-172.328446
 21
197.849035
 31
0.0
  0
LINE
  5
365
100
AcDbEntity
  8
2
100
AcDbLine
 10
-392.328446
 20
183.849035
 30
0.0
 11
-172.328446
 21
183.849035
 31
0.0
  0
LINE
  5
366
100
AcDbEntity
  8
2
100
AcDbLine
 10
-392.328446
 20
69.849035
 30
0.0
 11
-172.328446
 21
69.849035
 31
0.0
  0
LINE
  5
367
100
AcDbEntity
  8
2
100
AcDbLine
 10
-392.328446
 20
83.849035
 30
0.0
 11
-172.328446
 21
83.849035
 31
0.0
  0
LINE
  5
368
100
AcDbEntity
  8
2
100
AcDbLine
 10
-540.512213
 20
232.049035
 30
0.0
 11
-465.119554
 21
232.049035
 31
0.0
  0
LINE
  5
369
100
AcDbEntity
  8
2
  6
CENTER
 62
     2
100
AcDbLine
 10
290.771554
 20
244.349035
 30
0.0
 11
290.771554
 21
51.049035
 31
0.0
  0
LINE
  5
36A
100
AcDbEntity
  8
2
100
AcDbLine
 10
347.771554
 20
205.849035
 30
0.0
 11
233.771554
 21
205.849035
 31
0.0
  0
ARC
  5
36B
100
AcDbEntity
  8
2
100
AcDbCircle
 10
284.771554
 20
210.849035
 30
0.0
 40
5.0
100
AcDbArc
 50
270.0
 51
360.0
  0
ARC
  5
36C
100
AcDbEntity
  8
2
100
AcDbCircle
 10
308.771554
 20
210.849035
 30
0.0
 40
5.0
100
AcDbArc
 50
180.0
 51
270.0
  0
ARC
  5
36D
100
AcDbEntity
  8
2
100
AcDbCircle
 10
347.771554
 20
190.849035
 30
0.0
 40
15.0
100
AcDbArc
 50
0.0
 51
90.0
  0
LINE
  5
36E
100
AcDbEntity
  8
2
100
AcDbLine
 10
218.771554
 20
190.849035
 30
0.0
 11
218.771554
 21
75.849035
 31
0.0
  0
ARC
  5
36F
100
AcDbEntity
  8
2
100
AcDbCircle
 10
233.771554
 20
76.849035
 30
0.0
 40
15.0
100
AcDbArc
 50
180.0
 51
270.0
  0
ARC
  5
370
100
AcDbEntity
  8
2
100
AcDbCircle
 10
233.771554
 20
190.849035
 30
0.0
 40
15.0
100
AcDbArc
 50
90.0
 51
180.0
  0
LINE
  5
371
100
AcDbEntity
  8
2
100
AcDbLine
 10
233.771554
 20
61.849035
 30
0.0
 11
347.771554
 21
61.849035
 31
0.0
  0
ARC
  5
372
100
AcDbEntity
  8
2
100
AcDbCircle
 10
347.771554
 20
76.849035
 30
0.0
 40
15.0
100
AcDbArc
 50
270.0
 51
360.0
  0
LINE
  5
373
100
AcDbEntity
  8
2
100
AcDbLine
 10
362.771554
 20
76.849035
 30
0.0
 11
362.771554
 21
190.849035
 31
0.0
  0
LINE
  5
374
100
AcDbEntity
  8
2
100
AcDbLine
 10
265.980446
 20
228.849035
 30
0.0
 11
190.587787
 21
228.849035
 31
0.0
  0
LINE
  5
375
100
AcDbEntity
  8
2
100
AcDbLine
 10
248.771554
 20
228.849035
 30
0.0
 11
248.771554
 21
214.849035
 31
0.0
  0
LINE
  5
376
100
AcDbEntity
  8
2
100
AcDbLine
 10
208.771554
 20
228.849035
 30
0.0
 11
208.771554
 21
214.849035
 31
0.0
  0
LINE
  5
377
100
AcDbEntity
  8
2
100
AcDbLine
 10
183.771554
 20
170.849035
 30
0.0
 11
183.771554
 21
184.849035
 31
0.0
  0
LINE
  5
378
100
AcDbEntity
  8
2
100
AcDbLine
 10
253.771554
 20
214.849035
 30
0.0
 11
198.771554
 21
214.849035
 31
0.0
  0
LINE
  5
379
100
AcDbEntity
  8
2
100
AcDbLine
 10
222.571554
 20
200.849035
 30
0.0
 11
199.771554
 21
200.849035
 31
0.0
  0
LINE
  5
37A
100
AcDbEntity
  8
2
100
AcDbLine
 10
130.771554
 20
69.849035
 30
0.0
 11
212.771554
 21
69.849035
 31
0.0
  0
LINE
  5
37B
100
AcDbEntity
  8
2
  6
CENTER
 62
     2
100
AcDbLine
 10
260.771554
 20
228.849035
 30
0.0
 11
260.771554
 21
194.549035
 31
0.0
  0
LINE
  5
37C
100
AcDbEntity
  8
2
  6
CENTER
 62
     2
100
AcDbLine
 10
296.771554
 20
194.549035
 30
0.0
 11
296.771554
 21
230.949035
 31
0.0
  0
LINE
  5
37D
100
AcDbEntity
  8
2
100
AcDbLine
 10
303.771554
 20
221.849035
 30
0.0
 11
289.771554
 21
221.849035
 31
0.0
  0
LINE
  5
37E
100
AcDbEntity
  8
2
100
AcDbLine
 10
303.771554
 20
221.849035
 30
0.0
 11
303.771554
 21
210.849035
 31
0.0
  0
LINE
  5
37F
100
AcDbEntity
  8
2
100
AcDbLine
 10
289.771554
 20
221.849035
 30
0.0
 11
289.771554
 21
210.849035
 31
0.0
  0
ARC
  5
380
100
AcDbEntity
  8
2
100
AcDbCircle
 10
248.771554
 20
210.849035
 30
0.0
 40
5.0
100
AcDbArc
 50
270.0
 51
360.0
  0
ARC
  5
381
100
AcDbEntity
  8
2
100
AcDbCircle
 10
272.771554
 20
210.849035
 30
0.0
 40
5.0
100
AcDbArc
 50
180.0
 51
270.0
  0
LINE
  5
382
100
AcDbEntity
  8
2
100
AcDbLine
 10
267.771554
 20
221.849035
 30
0.0
 11
253.771554
 21
221.849035
 31
0.0
  0
LINE
  5
383
100
AcDbEntity
  8
2
100
AcDbLine
 10
267.771554
 20
221.849035
 30
0.0
 11
267.771554
 21
210.849035
 31
0.0
  0
LINE
  5
384
100
AcDbEntity
  8
2
100
AcDbLine
 10
253.771554
 20
221.849035
 30
0.0
 11
253.771554
 21
210.849035
 31
0.0
  0
LINE
  5
385
100
AcDbEntity
  8
2
100
AcDbLine
 10
128.771554
 20
67.849035
 30
0.0
 11
128.771554
 21
44.849035
 31
0.0
  0
LINE
  5
386
100
AcDbEntity
  8
2
100
AcDbLine
 10
328.771554
 20
44.849035
 30
0.0
 11
328.771554
 21
61.849035
 31
0.0
  0
LINE
  5
387
100
AcDbEntity
  8
2
  6
CENTER
 62
     2
100
AcDbLine
 10
362.771554
 20
190.849035
 30
0.0
 11
330.671554
 21
190.849035
 31
0.0
  0
LINE
  5
388
100
AcDbEntity
  8
2
  6
CENTER
 62
     2
100
AcDbLine
 10
249.871554
 20
190.849035
 30
0.0
 11
213.671554
 21
190.849035
 31
0.0
  0
LINE
  5
389
100
AcDbEntity
  8
2
  6
CENTER
 62
     2
100
AcDbLine
 10
362.971554
 20
76.849035
 30
0.0
 11
331.171554
 21
76.849035
 31
0.0
  0
LINE
  5
38A
100
AcDbEntity
  8
2
  6
CENTER
 62
     2
100
AcDbLine
 10
252.871554
 20
76.849035
 30
0.0
 11
213.671554
 21
76.849035
 31
0.0
  0
LINE
  5
38B
100
AcDbEntity
  8
2
  6
CENTER
 62
     2
100
AcDbLine
 10
347.771554
 20
206.349035
 30
0.0
 11
347.771554
 21
172.649035
 31
0.0
  0
LINE
  5
38C
100
AcDbEntity
  8
2
  6
CENTER
 62
     2
100
AcDbLine
 10
347.771554
 20
93.649035
 30
0.0
 11
347.771554
 21
59.922286
 31
0.0
  0
LINE
  5
38D
100
AcDbEntity
  8
2
  6
CENTER
 62
     2
100
AcDbLine
 10
233.771554
 20
203.549035
 30
0.0
 11
233.771554
 21
173.749035
 31
0.0
  0
LINE
  5
38E
100
AcDbEntity
  8
2
  6
CENTER
 62
     2
100
AcDbLine
 10
233.771554
 20
95.349035
 30
0.0
 11
233.771554
 21
59.922286
 31
0.0
  0
CIRCLE
  5
38F
100
AcDbEntity
  8
2
100
AcDbCircle
 10
347.771554
 20
190.849035
 30
0.0
 40
10.5
  0
CIRCLE
  5
390
100
AcDbEntity
  8
2
100
AcDbCircle
 10
347.771554
 20
190.849035
 30
0.0
 40
7.0
  0
CIRCLE
  5
391
100
AcDbEntity
  8
2
 62
     2
100
AcDbCircle
 10
347.771554
 20
190.849035
 30
0.0
 40
6.0
  0
CIRCLE
  5
392
100
AcDbEntity
  8
2
100
AcDbCircle
 10
347.771554
 20
76.849035
 30
0.0
 40
10.5
  0
CIRCLE
  5
393
100
AcDbEntity
  8
2
100
AcDbCircle
 10
347.771554
 20
76.849035
 30
0.0
 40
7.0
  0
CIRCLE
  5
394
100
AcDbEntity
  8
2
 62
     2
100
AcDbCircle
 10
347.771554
 20
76.849035
 30
0.0
 40
6.0
  0
CIRCLE
  5
395
100
AcDbEntity
  8
2
100
AcDbCircle
 10
233.771554
 20
76.849035
 30
0.0
 40
10.5
  0
CIRCLE
  5
396
100
AcDbEntity
  8
2
100
AcDbCircle
 10
233.771554
 20
76.849035
 30
0.0
 40
7.0
  0
CIRCLE
  5
397
100
AcDbEntity
  8
2
 62
     2
100
AcDbCircle
 10
233.771554
 20
76.849035
 30
0.0
 40
6.0
  0
CIRCLE
  5
398
100
AcDbEntity
  8
2
100
AcDbCircle
 10
233.771554
 20
190.849035
 30
0.0
 40
10.5
  0
CIRCLE
  5
399
100
AcDbEntity
  8
2
100
AcDbCircle
 10
233.771554
 20
190.849035
 30
0.0
 40
7.0
  0
CIRCLE
  5
39A
100
AcDbEntity
  8
2
 62
     2
100
AcDbCircle
 10
233.771554
 20
190.849035
 30
0.0
 40
6.0
  0
CIRCLE
  5
39B
100
AcDbEntity
  8
2
100
AcDbCircle
 10
290.771554
 20
133.849035
 30
0.0
 40
20.0
  0
LINE
  5
39C
100
AcDbEntity
  8
2
100
AcDbLine
 10
218.771554
 20
151.849035
 30
0.0
 11
233.528913
 21
151.849035
 31
0.0
  0
LINE
  5
39D
100
AcDbEntity
  8
2
100
AcDbLine
 10
234.771554
 20
150.970356
 30
0.0
 11
234.771554
 21
116.727715
 31
0.0
  0
LINE
  5
39E
100
AcDbEntity
  8
2
100
AcDbLine
 10
233.528913
 20
115.849035
 30
0.0
 11
218.771554
 21
115.849035
 31
0.0
  0
LINE
  5
39F
100
AcDbEntity
  8
2
100
AcDbLine
 10
250.650233
 20
135.970356
 30
0.0
 11
235.650233
 21
150.970356
 31
0.0
  0
LINE
  5
3A0
100
AcDbEntity
  8
2
100
AcDbLine
 10
250.650233
 20
131.727715
 30
0.0
 11
235.650233
 21
116.727715
 31
0.0
  0
LINE
  5
3A1
100
AcDbEntity
  8
2
100
AcDbLine
 10
362.771554
 20
105.849035
 30
0.0
 11
348.014194
 21
105.849035
 31
0.0
  0
LINE
  5
3A2
100
AcDbEntity
  8
2
100
AcDbLine
 10
346.771554
 20
106.727715
 30
0.0
 11
346.771554
 21
140.970356
 31
0.0
  0
LINE
  5
3A3
100
AcDbEntity
  8
2
100
AcDbLine
 10
348.014194
 20
141.849035
 30
0.0
 11
362.771554
 21
141.849035
 31
0.0
  0
LINE
  5
3A4
100
AcDbEntity
  8
2
100
AcDbLine
 10
330.892874
 20
121.727715
 30
0.0
 11
345.892874
 21
106.727715
 31
0.0
  0
LINE
  5
3A5
100
AcDbEntity
  8
2
100
AcDbLine
 10
330.892874
 20
125.970356
 30
0.0
 11
345.892874
 21
140.970356
 31
0.0
  0
LINE
  5
3A6
100
AcDbEntity
  8
2
  6
CENTER
 62
     2
100
AcDbLine
 10
401.947781
 20
143.849035
 30
0.0
 11
355.971554
 21
143.849035
 31
0.0
  0
LINE
  5
3A7
100
AcDbEntity
  8
2
100
AcDbLine
 10
190.587787
 20
232.049035
 30
0.0
 11
265.980446
 21
232.049035
 31
0.0
  0
LINE
  5
3A8
100
AcDbEntity
  8
2
100
AcDbLine
 10
-602.328446
 20
44.849035
 30
0.0
 11
-402.328446
 21
44.849035
 31
0.0
  0
LINE
  5
3A9
100
AcDbEntity
  8
2
100
AcDbLine
 10
328.771554
 20
44.849035
 30
0.0
 11
128.771554
 21
44.849035
 31
0.0
  0
LINE
  5
3AA
100
AcDbEntity
  8
2
100
AcDbLine
 10
-392.328446
 20
203.349035
 30
0.0
 11
-367.328446
 21
203.349035
 31
0.0
  0
LINE
  5
3AB
100
AcDbEntity
  8
2
100
AcDbLine
 10
-367.328446
 20
203.349035
 30
0.0
 11
-367.328446
 21
197.849035
 31
0.0
  0
LINE
  5
3AC
100
AcDbEntity
  8
2
100
AcDbLine
 10
-367.328446
 20
183.849035
 30
0.0
 11
-367.328446
 21
83.849035
 31
0.0
  0
LINE
  5
3AD
100
AcDbEntity
  8
2
100
AcDbLine
 10
-367.328446
 20
69.849035
 30
0.0
 11
-367.328446
 21
64.349035
 31
0.0
  0
LINE
  5
3AE
100
AcDbEntity
  8
2
100
AcDbLine
 10
-172.328446
 20
66.849035
 30
0.0
 11
-367.328446
 21
66.849035
 31
0.0
  0
LINE
  5
3AF
100
AcDbEntity
  8
2
  6
CENTER
 62
     2
100
AcDbLine
 10
-155.328446
 20
492.3348
 30
0.0
 11
-155.328446
 21
399.938499
 31
0.0
  0
ARC
  5
3B0
100
AcDbEntity
  8
2
100
AcDbCircle
 10
-589.328446
 20
74.849035
 30
0.0
 40
5.0
100
AcDbArc
 50
270.0
 51
360.0
  0
ARC
  5
3B1
100
AcDbEntity
  8
2
100
AcDbCircle
 10
-415.328446
 20
74.849035
 30
0.0
 40
5.0
100
AcDbArc
 50
180.0
 51
270.0
  0
LINE
  5
3B2
100
AcDbEntity
  8
2
100
AcDbLine
 10
-527.328446
 20
159.849035
 30
0.0
 11
-527.328446
 21
74.849035
 31
0.0
  0
LINE
  5
3B3
100
AcDbEntity
  8
2
100
AcDbLine
 10
-477.328446
 20
159.849035
 30
0.0
 11
-477.328446
 21
74.849035
 31
0.0
  0
LINE
  5
3B4
100
AcDbEntity
  8
2
100
AcDbLine
 10
-482.328446
 20
164.849035
 30
0.0
 11
-522.328446
 21
164.849035
 31
0.0
  0
ARC
  5
3B5
100
AcDbEntity
  8
2
100
AcDbCircle
 10
-522.328446
 20
159.849035
 30
0.0
 40
5.0
100
AcDbArc
 50
90.0
 51
180.0
  0
ARC
  5
3B6
100
AcDbEntity
  8
2
100
AcDbCircle
 10
-482.328446
 20
159.849035
 30
0.0
 40
5.0
100
AcDbArc
 50
0.0
 51
90.0
  0
ARC
  5
3B7
100
AcDbEntity
  8
2
100
AcDbCircle
 10
-532.328446
 20
74.849035
 30
0.0
 40
5.0
100
AcDbArc
 50
270.0
 51
360.0
  0
ARC
  5
3B8
100
AcDbEntity
  8
2
100
AcDbCircle
 10
-472.328446
 20
74.849035
 30
0.0
 40
5.0
100
AcDbArc
 50
180.0
 51
270.0
  0
CIRCLE
  5
3B9
100
AcDbEntity
  8
2
100
AcDbCircle
 10
-484.328446
 20
157.849035
 30
0.0
 40
4.9
  0
CIRCLE
  5
3BA
100
AcDbEntity
  8
2
100
AcDbCircle
 10
-484.328446
 20
157.849035
 30
0.0
 40
6.1
  0
LINE
  5
3BB
100
AcDbEntity
  8
2
  6
CENTER
 62
     2
100
AcDbLine
 10
-520.328446
 20
98.232039
 30
0.0
 11
-520.328446
 21
119.673247
 31
0.0
  0
LINE
  5
3BC
100
AcDbEntity
  8
2
  6
CENTER
 62
     2
100
AcDbLine
 10
-520.328446
 20
147.318816
 30
0.0
 11
-520.328446
 21
167.519209
 31
0.0
  0
LINE
  5
3BD
100
AcDbEntity
  8
2
  6
CENTER
 62
     2
100
AcDbLine
 10
-531.390677
 20
109.849035
 30
0.0
 11
-508.797171
 21
109.849035
 31
0.0
  0
LINE
  5
3BE
100
AcDbEntity
  8
2
  6
CENTER
 62
     2
100
AcDbLine
 10
-495.244361
 20
109.849035
 30
0.0
 11
-473.448584
 21
109.849035
 31
0.0
  0
LINE
  5
3BF
100
AcDbEntity
  8
2
  6
CENTER
 62
     2
100
AcDbLine
 10
-484.328446
 20
98.054717
 30
0.0
 11
-484.328446
 21
119.673247
 31
0.0
  0
LINE
  5
3C0
100
AcDbEntity
  8
2
  6
CENTER
 62
     2
100
AcDbLine
 10
-484.328446
 20
147.318816
 30
0.0
 11
-484.328446
 21
167.785079
 31
0.0
  0
LINE
  5
3C1
100
AcDbEntity
  8
2
  6
CENTER
 62
     2
100
AcDbLine
 10
-529.529349
 20
157.849035
 30
0.0
 11
-508.797171
 21
157.849035
 31
0.0
  0
LINE
  5
3C2
100
AcDbEntity
  8
2
  6
CENTER
 62
     2
100
AcDbLine
 10
-495.244361
 20
157.849035
 30
0.0
 11
-473.005408
 21
157.849035
 31
0.0
  0
LINE
  5
3C3
100
AcDbEntity
  8
2
  6
CENTER
 62
     2
100
AcDbLine
 10
319.371365
 20
123.849035
 30
0.0
 11
401.298672
 21
123.849035
 31
0.0
  0
LINE
  5
3C4
100
AcDbEntity
  8
2
100
AcDbLine
 10
-482.328446
 20
102.849035
 30
0.0
 11
-522.328446
 21
102.849035
 31
0.0
  0
ARC
  5
3C5
100
AcDbEntity
  8
2
100
AcDbCircle
 10
-522.328446
 20
107.849035
 30
0.0
 40
5.0
100
AcDbArc
 50
180.0
 51
270.0
  0
ARC
  5
3C6
100
AcDbEntity
  8
2
100
AcDbCircle
 10
-482.328446
 20
107.849035
 30
0.0
 40
5.0
100
AcDbArc
 50
270.0
 51
360.0
  0
LINE
  5
3C7
100
AcDbEntity
  8
2
100
AcDbLine
 10
-512.983816
 20
485.301761
 30
0.0
 11
-516.802192
 21
481.483385
 31
0.0
  0
LINE
  5
3C8
100
AcDbEntity
  8
2
100
AcDbLine
 10
-514.397958
 20
486.715903
 30
0.0
 11
-518.216334
 21
482.897527
 31
0.0
  0
LINE
  5
3C9
100
AcDbEntity
  8
2
100
AcDbLine
 10
-511.483697
 20
481.145026
 30
0.0
 11
-513.266658
 21
479.362064
 31
0.0
  0
LINE
  5
3CA
100
AcDbEntity
  8
2
100
AcDbLine
 10
-518.554693
 20
488.216022
 30
0.0
 11
-520.337655
 21
486.433061
 31
0.0
  0
LINE
  5
3CB
100
AcDbEntity
  8
2
100
AcDbLine
 10
-520.337655
 20
485.018847
 30
0.0
 11
-518.216334
 21
482.897527
 31
0.0
  0
LINE
  5
3CC
100
AcDbEntity
  8
2
100
AcDbLine
 10
-516.802192
 20
481.483385
 30
0.0
 11
-514.680872
 21
479.362064
 31
0.0
  0
ARC
  5
3CD
100
AcDbEntity
  8
2
100
AcDbCircle
 10
-501.528446
 20
498.171273
 30
0.0
 40
19.0
100
AcDbArc
 50
242.457451
 51
207.542549
  0
ARC
  5
3CE
100
AcDbEntity
  8
2
100
AcDbCircle
 10
-510.77659
 20
480.437919
 30
0.0
 40
1.0
100
AcDbArc
 50
62.457451
 51
135.0
  0
ARC
  5
3CF
100
AcDbEntity
  8
2
100
AcDbCircle
 10
-513.973765
 20
480.069171
 30
0.0
 40
1.0
100
AcDbArc
 50
225.0
 51
315.0
  0
ARC
  5
3D0
100
AcDbEntity
  8
2
100
AcDbCircle
 10
-519.630548
 20
485.725954
 30
0.0
 40
1.0
100
AcDbArc
 50
135.0
 51
225.0
  0
ARC
  5
3D1
100
AcDbEntity
  8
2
100
AcDbCircle
 10
-519.2618
 20
488.923129
 30
0.0
 40
1.0
100
AcDbArc
 50
315.0
 51
27.542549
  0
CIRCLE
  5
3D2
100
AcDbEntity
  8
2
100
AcDbCircle
 10
-513.549501
 20
481.907649
 30
0.0
 40
1.25
  0
CIRCLE
  5
3D3
100
AcDbEntity
  8
2
100
AcDbCircle
 10
-517.79207
 20
486.150218
 30
0.0
 40
1.25
  0
LINE
  5
3D4
100
AcDbEntity
  8
2
100
AcDbLine
 10
-520.324243
 20
497.760252
 30
0.0
 11
-502.717426
 21
515.367069
 31
0.0
  0
LINE
  5
3D5
100
AcDbEntity
  8
2
100
AcDbLine
 10
-501.939467
 20
479.375476
 30
0.0
 11
-484.33265
 21
496.982293
 31
0.0
  0
LINE
  5
3D6
100
AcDbEntity
  8
2
100
AcDbLine
 10
-501.939467
 20
515.367069
 30
0.0
 11
-484.33265
 21
497.760252
 31
0.0
  0
LINE
  5
3D7
100
AcDbEntity
  8
2
100
AcDbLine
 10
-520.324243
 20
496.982293
 30
0.0
 11
-502.717426
 21
479.375476
 31
0.0
  0
ARC
  5
3D8
100
AcDbEntity
  8
2
100
AcDbCircle
 10
-502.328446
 20
497.371273
 30
0.0
 40
18.0
100
AcDbArc
 50
358.761743
 51
1.238257
  0
ARC
  5
3D9
100
AcDbEntity
  8
2
100
AcDbCircle
 10
-502.328446
 20
497.371273
 30
0.0
 40
18.0
100
AcDbArc
 50
268.761743
 51
271.238257
  0
ARC
  5
3DA
100
AcDbEntity
  8
2
100
AcDbCircle
 10
-502.328446
 20
497.371273
 30
0.0
 40
18.0
100
AcDbArc
 50
88.761743
 51
91.238257
  0
ARC
  5
3DB
100
AcDbEntity
  8
2
100
AcDbCircle
 10
-502.328446
 20
497.371273
 30
0.0
 40
18.0
100
AcDbArc
 50
178.761743
 51
181.238257
  0
LINE
  5
3DC
100
AcDbEntity
  8
2
100
AcDbLine
 10
-502.328446
 20
514.341835
 30
0.0
 11
-485.357884
 21
497.371273
 31
0.0
  0
LINE
  5
3DD
100
AcDbEntity
  8
2
100
AcDbLine
 10
-519.299009
 20
497.371273
 30
0.0
 11
-502.328446
 21
514.341835
 31
0.0
  0
LINE
  5
3DE
100
AcDbEntity
  8
2
100
AcDbLine
 10
-519.299009
 20
497.371273
 30
0.0
 11
-502.328446
 21
480.40071
 31
0.0
  0
LINE
  5
3DF
100
AcDbEntity
  8
2
100
AcDbLine
 10
-502.328446
 20
480.40071
 30
0.0
 11
-485.357884
 21
497.371273
 31
0.0
  0
ARC
  5
3E0
100
AcDbEntity
  8
2
100
AcDbCircle
 10
-502.328446
 20
497.371273
 30
0.0
 40
45.0
100
AcDbArc
 50
240.0
 51
300.0
  0
LINE
  5
3E1
100
AcDbEntity
  8
2
100
AcDbLine
 10
-479.828446
 20
458.400129
 30
0.0
 11
-426.98439
 21
488.90966
 31
0.0
  0
ARC
  5
3E2
100
AcDbEntity
  8
2
100
AcDbCircle
 10
-467.328446
 20
454.070002
 30
0.0
 40
10.0
100
AcDbArc
 50
120.0
 51
180.0
  0
ARC
  5
3E3
100
AcDbEntity
  8
2
100
AcDbCircle
 10
-537.328446
 20
454.070002
 30
0.0
 40
10.0
100
AcDbArc
 50
0.0
 51
60.0
  0
LINE
  5
3E4
100
AcDbEntity
  8
2
  6
CENTER
 62
     2
100
AcDbLine
 10
-536.634725
 20
479.35165
 30
0.0
 11
-520.53668
 21
463.253604
 31
0.0
  0
LINE
  5
3E5
100
AcDbEntity
  8
2
100
AcDbLine
 10
-540.512213
 20
473.329642
 30
0.0
 11
-526.370077
 21
459.187506
 31
0.0
  0
ARC
  5
3E6
100
AcDbEntity
  8
2
100
AcDbCircle
 10
-418.328446
 20
629.371273
 30
0.0
 40
2.0
100
AcDbArc
 50
90.0
 51
180.0
  0
ARC
  5
3E7
100
AcDbEntity
  8
2
100
AcDbCircle
 10
-586.328446
 20
629.371273
 30
0.0
 40
2.0
100
AcDbArc
 50
0.0
 51
90.0
  0
ARC
  5
3E8
100
AcDbEntity
  8
2
100
AcDbCircle
 10
-586.328446
 20
489.371273
 30
0.0
 40
2.0
100
AcDbArc
 50
270.0
 51
360.0
  0
ARC
  5
3E9
100
AcDbEntity
  8
2
100
AcDbCircle
 10
-418.328446
 20
489.371273
 30
0.0
 40
2.0
100
AcDbArc
 50
180.0
 51
270.0
  0
ARC
  5
3EA
100
AcDbEntity
  8
2
100
AcDbCircle
 10
-502.328446
 20
497.371273
 30
0.0
 40
130.0
100
AcDbArc
 50
67.668355
 51
112.331645
  0
ARC
  5
3EB
100
AcDbEntity
  8
2
100
AcDbCircle
 10
-580.672503
 20
483.713507
 30
0.0
 40
6.0
100
AcDbArc
 50
60.0
 51
134.990773
  0
ARC
  5
3EC
100
AcDbEntity
  8
2
100
AcDbCircle
 10
-423.98439
 20
483.713507
 30
0.0
 40
6.0
100
AcDbArc
 50
45.009227
 51
120.0
  0
LINE
  5
3ED
100
AcDbEntity
  8
2
100
AcDbLine
 10
-569.357884
 20
615.371273
 30
0.0
 11
-563.123183
 21
615.371273
 31
0.0
  0
LINE
  5
3EE
100
AcDbEntity
  8
2
100
AcDbLine
 10
-441.53371
 20
615.371273
 30
0.0
 11
-435.299009
 21
615.371273
 31
0.0
  0
ARC
  5
3EF
100
AcDbEntity
  8
2
100
AcDbCircle
 10
-441.53371
 20
645.371273
 30
0.0
 40
30.0
100
AcDbArc
 50
247.668355
 51
270.0
  0
ARC
  5
3F0
100
AcDbEntity
  8
2
100
AcDbCircle
 10
-563.123183
 20
645.371273
 30
0.0
 40
30.0
100
AcDbArc
 50
270.0
 51
292.331645
  0
ARC
  5
3F1
100
AcDbEntity
  8
2
100
AcDbCircle
 10
-435.299009
 20
630.371273
 30
0.0
 40
15.0
100
AcDbArc
 50
270.0
 51
356.627713
  0
ARC
  5
3F2
100
AcDbEntity
  8
2
100
AcDbCircle
 10
-569.357884
 20
630.371273
 30
0.0
 40
15.0
100
AcDbArc
 50
183.372287
 51
270.0
  0
LINE
  5
3F3
100
AcDbEntity
  8
2
100
AcDbLine
 10
-540.512213
 20
473.329642
 30
0.0
 11
-530.624499
 21
483.217355
 31
0.0
  0
LINE
  5
3F4
100
AcDbEntity
  8
2
100
AcDbLine
 10
-526.370077
 20
459.187506
 30
0.0
 11
-516.482364
 21
469.075219
 31
0.0
  0
ARC
  5
3F5
100
AcDbEntity
  8
2
100
AcDbCircle
 10
-502.328446
 20
497.371273
 30
0.0
 40
27.0
100
AcDbArc
 50
255.949723
 51
345.328066
  0
ARC
  5
3F6
100
AcDbEntity
  8
2
100
AcDbCircle
 10
-502.328446
 20
497.371273
 30
0.0
 40
27.0
100
AcDbArc
 50
104.671934
 51
194.050277
  0
ARC
  5
3F7
100
AcDbEntity
  8
2
100
AcDbCircle
 10
-536.281354
 20
488.874209
 30
0.0
 40
8.0
100
AcDbArc
 50
315.0
 51
14.050277
  0
ARC
  5
3F8
100
AcDbEntity
  8
2
100
AcDbCircle
 10
-510.82551
 20
463.418365
 30
0.0
 40
8.0
100
AcDbArc
 50
75.949723
 51
135.0
  0
LINE
  5
3F9
100
AcDbEntity
  8
2
  6
CENTER
 62
     2
100
AcDbLine
 10
-535.752922
 20
471.017864
 30
0.0
 11
-528.236336
 21
478.534451
 31
0.0
  0
LINE
  5
3FA
100
AcDbEntity
  8
2
  6
CENTER
 62
     2
100
AcDbLine
 10
-528.556542
 20
464.072109
 30
0.0
 11
-521.603722
 21
471.024929
 31
0.0
  0
LINE
  5
3FB
100
AcDbEntity
  8
2
100
AcDbLine
 10
-466.99948
 20
534.531253
 30
0.0
 11
-509.167117
 21
523.490855
 31
0.0
  0
LINE
  5
3FC
100
AcDbEntity
  8
2
100
AcDbLine
 10
-465.168466
 20
532.700239
 30
0.0
 11
-476.208864
 21
490.532602
 31
0.0
  0
ARC
  5
3FD
100
AcDbEntity
  8
2
100
AcDbCircle
 10
-466.619554
 20
533.080165
 30
0.0
 40
1.5
100
AcDbArc
 50
345.328066
 51
104.671934
  0
CIRCLE
  5
3FE
100
AcDbEntity
  8
2
100
AcDbCircle
 10
-532.026931
 20
474.743856
 30
0.0
 40
2.75
  0
CIRCLE
  5
3FF
100
AcDbEntity
  8
2
100
AcDbCircle
 10
-524.955863
 20
467.672788
 30
0.0
 40
2.75
  0
ARC
  5
400
100
AcDbEntity
  8
2
100
AcDbCircle
 10
-502.328446
 20
497.371273
 30
0.0
 40
32.5
100
AcDbArc
 50
70.849772
 51
207.079787
  0
ARC
  5
401
100
AcDbEntity
  8
2
100
AcDbCircle
 10
-502.328446
 20
497.371273
 30
0.0
 40
32.5
100
AcDbArc
 50
242.920213
 51
19.150228
  0
ARC
  5
402
100
AcDbEntity
  8
2
100
AcDbCircle
 10
-502.328446
 20
497.371273
 30
0.0
 40
30.0
100
AcDbArc
 50
78.830001
 51
205.109757
  0
ARC
  5
403
100
AcDbEntity
  8
2
100
AcDbCircle
 10
-502.328446
 20
497.371273
 30
0.0
 40
30.0
100
AcDbArc
 50
244.890243
 51
11.169999
  0
LINE
  5
404
100
AcDbEntity
  8
2
100
AcDbLine
 10
-577.672503
 20
488.90966
 30
0.0
 11
-526.613029
 21
459.430459
 31
0.0
  0
LINE
  5
405
100
AcDbEntity
  8
2
100
AcDbLine
 10
-526.304978
 20
459.252605
 30
0.0
 11
-524.828446
 21
458.400129
 31
0.0
  0
LINE
  5
406
100
AcDbEntity
  8
2
100
AcDbLine
 10
-538.187092
 20
524.3927
 30
0.0
 11
-552.585406
 21
535.242608
 31
0.0
  0
LINE
  5
407
100
AcDbEntity
  8
2
100
AcDbLine
 10
-466.469801
 20
524.3927
 30
0.0
 11
-452.071487
 21
535.242608
 31
0.0
  0
ARC
  5
408
100
AcDbEntity
  8
2
100
AcDbCircle
 10
-502.328446
 20
497.371273
 30
0.0
 40
66.0
100
AcDbArc
 50
39.729403
 51
140.270597
  0
ARC
  5
409
100
AcDbEntity
  8
2
100
AcDbCircle
 10
-502.328446
 20
497.371273
 30
0.0
 40
42.0
100
AcDbArc
 50
54.677135
 51
139.177446
  0
ARC
  5
40A
100
AcDbEntity
  8
2
100
AcDbCircle
 10
-453.876932
 20
537.638514
 30
0.0
 40
3.0
100
AcDbArc
 50
307.0
 51
39.729403
  0
ARC
  5
40B
100
AcDbEntity
  8
2
100
AcDbCircle
 10
-550.779961
 20
537.638514
 30
0.0
 40
3.0
100
AcDbArc
 50
140.270597
 51
233.0
  0
ARC
  5
40C
100
AcDbEntity
  8
2
100
AcDbCircle
 10
-536.381647
 20
526.788607
 30
0.0
 40
3.0
100
AcDbArc
 50
233.0
 51
319.177446
  0
ARC
  5
40D
100
AcDbEntity
  8
2
100
AcDbCircle
 10
-468.275246
 20
526.788607
 30
0.0
 40
3.0
100
AcDbArc
 50
285.507994
 51
307.0
  0
LINE
  5
40E
100
AcDbEntity
  8
2
100
AcDbLine
 10
-469.308569
 20
533.926683
 30
0.0
 11
-461.316253
 21
541.919
 31
0.0
  0
LINE
  5
40F
100
AcDbEntity
  8
2
100
AcDbLine
 10
-465.773035
 20
530.39115
 30
0.0
 11
-457.780719
 21
538.383466
 31
0.0
  0
LINE
  5
410
100
AcDbEntity
  8
2
100
AcDbLine
 10
-534.148252
 20
532.726612
 30
0.0
 11
-543.34064
 21
541.919
 31
0.0
  0
LINE
  5
411
100
AcDbEntity
  8
2
100
AcDbLine
 10
-537.683785
 20
529.191078
 30
0.0
 11
-546.876174
 21
538.383466
 31
0.0
  0
ARC
  5
412
100
AcDbEntity
  8
2
100
AcDbCircle
 10
-459.548486
 20
540.151233
 30
0.0
 40
2.5
100
AcDbArc
 50
315.0
 51
135.0
  0
ARC
  5
413
100
AcDbEntity
  8
2
100
AcDbCircle
 10
-535.916018
 20
530.958845
 30
0.0
 40
2.5
100
AcDbArc
 50
225.0
 51
45.0
  0
ARC
  5
414
100
AcDbEntity
  8
2
100
AcDbCircle
 10
-545.108407
 20
540.151233
 30
0.0
 40
2.5
100
AcDbArc
 50
45.0
 51
225.0
  0
LINE
  5
415
100
AcDbEntity
  8
2
100
AcDbLine
 10
-477.279408
 20
537.757479
 30
0.0
 11
-470.779408
 21
549.015809
 31
0.0
  0
LINE
  5
416
100
AcDbEntity
  8
2
100
AcDbLine
 10
-479.877484
 20
539.257479
 30
0.0
 11
-473.377484
 21
550.515809
 31
0.0
  0
LINE
  5
417
100
AcDbEntity
  8
2
100
AcDbLine
 10
-491.48343
 20
543.640978
 30
0.0
 11
-488.118783
 21
556.198014
 31
0.0
  0
LINE
  5
418
100
AcDbEntity
  8
2
100
AcDbLine
 10
-488.585653
 20
542.864521
 30
0.0
 11
-485.221005
 21
555.421556
 31
0.0
  0
LINE
  5
419
100
AcDbEntity
  8
2
100
AcDbLine
 10
-503.828446
 20
544.871273
 30
0.0
 11
-503.828446
 21
557.871273
 31
0.0
  0
LINE
  5
41A
100
AcDbEntity
  8
2
100
AcDbLine
 10
-500.828446
 20
544.871273
 30
0.0
 11
-500.828446
 21
557.871273
 31
0.0
  0
LINE
  5
41B
100
AcDbEntity
  8
2
100
AcDbLine
 10
-516.07124
 20
542.864521
 30
0.0
 11
-519.435887
 21
555.421556
 31
0.0
  0
LINE
  5
41C
100
AcDbEntity
  8
2
100
AcDbLine
 10
-513.173462
 20
543.640978
 30
0.0
 11
-516.53811
 21
556.198014
 31
0.0
  0
LINE
  5
41D
100
AcDbEntity
  8
2
100
AcDbLine
 10
-527.377484
 20
537.757479
 30
0.0
 11
-533.877484
 21
549.015809
 31
0.0
  0
LINE
  5
41E
100
AcDbEntity
  8
2
100
AcDbLine
 10
-524.779408
 20
539.257479
 30
0.0
 11
-531.279408
 21
550.515809
 31
0.0
  0
ARC
  5
41F
100
AcDbEntity
  8
2
100
AcDbCircle
 10
-526.078446
 20
538.507479
 30
0.0
 40
1.5
100
AcDbArc
 50
210.0
 51
30.0
  0
ARC
  5
420
100
AcDbEntity
  8
2
100
AcDbCircle
 10
-532.578446
 20
549.765809
 30
0.0
 40
1.5
100
AcDbArc
 50
30.0
 51
210.0
  0
ARC
  5
421
100
AcDbEntity
  8
2
100
AcDbCircle
 10
-514.622351
 20
543.252749
 30
0.0
 40
1.5
100
AcDbArc
 50
195.0
 51
15.0
  0
ARC
  5
422
100
AcDbEntity
  8
2
100
AcDbCircle
 10
-517.986999
 20
555.809785
 30
0.0
 40
1.5
100
AcDbArc
 50
15.0
 51
195.0
  0
ARC
  5
423
100
AcDbEntity
  8
2
100
AcDbCircle
 10
-502.328446
 20
544.871273
 30
0.0
 40
1.5
100
AcDbArc
 50
180.0
 51
360.0
  0
ARC
  5
424
100
AcDbEntity
  8
2
100
AcDbCircle
 10
-490.034542
 20
543.252749
 30
0.0
 40
1.5
100
AcDbArc
 50
165.0
 51
345.0
  0
ARC
  5
425
100
AcDbEntity
  8
2
100
AcDbCircle
 10
-478.578446
 20
538.507479
 30
0.0
 40
1.5
100
AcDbArc
 50
150.0
 51
330.0
  0
ARC
  5
426
100
AcDbEntity
  8
2
100
AcDbCircle
 10
-472.078446
 20
549.765809
 30
0.0
 40
1.5
100
AcDbArc
 50
330.0
 51
150.0
  0
ARC
  5
427
100
AcDbEntity
  8
2
100
AcDbCircle
 10
-486.669894
 20
555.809785
 30
0.0
 40
1.5
100
AcDbArc
 50
345.0
 51
165.0
  0
ARC
  5
428
100
AcDbEntity
  8
2
100
AcDbCircle
 10
-502.328446
 20
557.871273
 30
0.0
 40
1.5
100
AcDbArc
 50
0.0
 51
180.0
  0
LINE
  5
429
100
AcDbEntity
  8
2
100
AcDbLine
 10
-392.328446
 20
628.871273
 30
0.0
 11
-367.328446
 21
628.871273
 31
0.0
  0
LINE
  5
42A
100
AcDbEntity
  8
2
100
AcDbLine
 10
-391.328446
 20
631.371273
 30
0.0
 11
-368.328446
 21
631.371273
 31
0.0
  0
LINE
  5
42B
100
AcDbEntity
  8
2
100
AcDbLine
 10
-391.328446
 20
628.871273
 30
0.0
 11
-391.328446
 21
631.371273
 31
0.0
  0
LINE
  5
42C
100
AcDbEntity
  8
2
100
AcDbLine
 10
-368.328446
 20
628.871273
 30
0.0
 11
-368.328446
 21
631.371273
 31
0.0
  0
LINE
  5
42D
100
AcDbEntity
  8
2
100
AcDbLine
 10
-171.328446
 20
487.371273
 30
0.0
 11
-171.328446
 21
631.371273
 31
0.0
  0
LINE
  5
42E
100
AcDbEntity
  8
2
100
AcDbLine
 10
-172.328446
 20
628.871273
 30
0.0
 11
-171.328446
 21
628.871273
 31
0.0
  0
LINE
  5
42F
100
AcDbEntity
  8
2
100
AcDbLine
 10
-172.328446
 20
489.871273
 30
0.0
 11
-171.328446
 21
489.871273
 31
0.0
  0
ARC
  5
430
100
AcDbEntity
  8
2
100
AcDbCircle
 10
-158.328446
 20
629.371273
 30
0.0
 40
2.0
100
AcDbArc
 50
0.0
 51
90.0
  0
ARC
  5
431
100
AcDbEntity
  8
2
100
AcDbCircle
 10
-158.328446
 20
489.371273
 30
0.0
 40
2.0
100
AcDbArc
 50
270.0
 51
360.0
  0
ARC
  5
432
100
AcDbEntity
  8
2
100
AcDbCircle
 10
-153.328446
 20
523.613913
 30
0.0
 40
3.0
100
AcDbArc
 50
180.0
 51
225.0
  0
ARC
  5
433
100
AcDbEntity
  8
2
100
AcDbCircle
 10
-153.328446
 20
595.128632
 30
0.0
 40
3.0
100
AcDbArc
 50
135.0
 51
180.0
  0
LINE
  5
434
100
AcDbEntity
  8
2
100
AcDbLine
 10
-153.328446
 20
579.371273
 30
0.0
 11
-152.328446
 21
579.371273
 31
0.0
  0
LINE
  5
435
100
AcDbEntity
  8
2
100
AcDbLine
 10
-153.328446
 20
539.371273
 30
0.0
 11
-152.328446
 21
539.371273
 31
0.0
  0
ARC
  5
436
100
AcDbEntity
  8
2
100
AcDbCircle
 10
-153.328446
 20
582.371273
 30
0.0
 40
3.0
100
AcDbArc
 50
180.0
 51
270.0
  0
ARC
  5
437
100
AcDbEntity
  8
2
100
AcDbCircle
 10
-153.328446
 20
536.371273
 30
0.0
 40
3.0
100
AcDbArc
 50
90.0
 51
180.0
  0
LINE
  5
438
100
AcDbEntity
  8
2
100
AcDbLine
 10
-156.328446
 20
629.071273
 30
0.0
 11
-146.598617
 21
629.071273
 31
0.0
  0
LINE
  5
439
100
AcDbEntity
  8
2
100
AcDbLine
 10
-146.598617
 20
629.071273
 30
0.0
 11
-145.328446
 21
626.871273
 31
0.0
  0
LINE
  5
43A
100
AcDbEntity
  8
2
100
AcDbLine
 10
-145.328446
 20
626.871273
 30
0.0
 11
-145.328446
 21
605.871273
 31
0.0
  0
LINE
  5
43B
100
AcDbEntity
  8
2
100
AcDbLine
 10
-156.328446
 20
622.721273
 30
0.0
 11
-146.598617
 21
622.721273
 31
0.0
  0
ARC
  5
43C
100
AcDbEntity
  8
2
100
AcDbCircle
 10
-150.680187
 20
625.896273
 30
0.0
 40
5.171058
100
AcDbArc
 50
322.121121
 51
37.878879
  0
LINE
  5
43D
100
AcDbEntity
  8
2
100
AcDbLine
 10
-156.328446
 20
603.671273
 30
0.0
 11
-146.598617
 21
603.671273
 31
0.0
  0
LINE
  5
43E
100
AcDbEntity
  8
2
100
AcDbLine
 10
-146.598617
 20
603.671273
 30
0.0
 11
-145.328446
 21
605.871273
 31
0.0
  0
LINE
  5
43F
100
AcDbEntity
  8
2
100
AcDbLine
 10
-156.328446
 20
610.021273
 30
0.0
 11
-146.598617
 21
610.021273
 31
0.0
  0
ARC
  5
440
100
AcDbEntity
  8
2
100
AcDbCircle
 10
-150.680187
 20
606.846273
 30
0.0
 40
5.171058
100
AcDbArc
 50
322.121121
 51
37.878879
  0
ARC
  5
441
100
AcDbEntity
  8
2
100
AcDbCircle
 10
-164.559129
 20
616.371273
 30
0.0
 40
19.05
100
AcDbArc
 50
340.528779
 51
19.471221
  0
LINE
  5
442
100
AcDbEntity
  8
2
100
AcDbLine
 10
-156.328446
 20
515.071273
 30
0.0
 11
-146.598617
 21
515.071273
 31
0.0
  0
LINE
  5
443
100
AcDbEntity
  8
2
100
AcDbLine
 10
-146.598617
 20
515.071273
 30
0.0
 11
-145.328446
 21
512.871273
 31
0.0
  0
LINE
  5
444
100
AcDbEntity
  8
2
100
AcDbLine
 10
-145.328446
 20
512.871273
 30
0.0
 11
-145.328446
 21
491.871273
 31
0.0
  0
LINE
  5
445
100
AcDbEntity
  8
2
100
AcDbLine
 10
-156.328446
 20
508.721273
 30
0.0
 11
-146.598617
 21
508.721273
 31
0.0
  0
ARC
  5
446
100
AcDbEntity
  8
2
100
AcDbCircle
 10
-150.680187
 20
511.896273
 30
0.0
 40
5.171058
100
AcDbArc
 50
322.121121
 51
37.878879
  0
LINE
  5
447
100
AcDbEntity
  8
2
100
AcDbLine
 10
-156.328446
 20
489.671273
 30
0.0
 11
-146.598617
 21
489.671273
 31
0.0
  0
LINE
  5
448
100
AcDbEntity
  8
2
100
AcDbLine
 10
-146.598617
 20
489.671273
 30
0.0
 11
-145.328446
 21
491.871273
 31
0.0
  0
LINE
  5
449
100
AcDbEntity
  8
2
100
AcDbLine
 10
-156.328446
 20
496.021273
 30
0.0
 11
-146.598617
 21
496.021273
 31
0.0
  0
ARC
  5
44A
100
AcDbEntity
  8
2
100
AcDbCircle
 10
-150.680187
 20
492.846273
 30
0.0
 40
5.171058
100
AcDbArc
 50
322.121121
 51
37.878879
  0
ARC
  5
44B
100
AcDbEntity
  8
2
100
AcDbCircle
 10
-164.559129
 20
502.371273
 30
0.0
 40
19.05
100
AcDbArc
 50
340.528779
 51
19.471221
  0
LINE
  5
44C
100
AcDbEntity
  8
2
100
AcDbLine
 10
-155.449767
 20
597.249952
 30
0.0
 11
-149.028446
 21
603.671273
 31
0.0
  0
LINE
  5
44D
100
AcDbEntity
  8
2
100
AcDbLine
 10
-145.328446
 20
607.371273
 30
0.0
 11
-143.328446
 21
609.371273
 31
0.0
  0
LINE
  5
44E
100
AcDbEntity
  8
2
100
AcDbLine
 10
-155.449767
 20
521.492593
 30
0.0
 11
-149.028446
 21
515.071273
 31
0.0
  0
LINE
  5
44F
100
AcDbEntity
  8
2
100
AcDbLine
 10
-145.328446
 20
511.371273
 30
0.0
 11
-143.328446
 21
509.371273
 31
0.0
  0
LINE
  5
450
100
AcDbEntity
  8
2
100
AcDbLine
 10
-145.328446
 20
623.371273
 30
0.0
 11
-130.140446
 21
623.371273
 31
0.0
  0
LINE
  5
451
100
AcDbEntity
  8
2
100
AcDbLine
 10
-145.328446
 20
609.371273
 30
0.0
 11
-130.140446
 21
609.371273
 31
0.0
  0
LINE
  5
452
100
AcDbEntity
  8
2
100
AcDbLine
 10
-129.328446
 20
622.559273
 30
0.0
 11
-129.328446
 21
610.183273
 31
0.0
  0
LINE
  5
453
100
AcDbEntity
  8
2
 62
     2
100
AcDbLine
 10
-145.328446
 20
622.559273
 30
0.0
 11
-129.328446
 21
622.559273
 31
0.0
  0
LINE
  5
454
100
AcDbEntity
  8
2
 62
     2
100
AcDbLine
 10
-145.328446
 20
610.183273
 30
0.0
 11
-129.328446
 21
610.183273
 31
0.0
  0
LINE
  5
455
100
AcDbEntity
  8
2
100
AcDbLine
 10
-129.328446
 20
622.559273
 30
0.0
 11
-130.140446
 21
623.371273
 31
0.0
  0
LINE
  5
456
100
AcDbEntity
  8
2
100
AcDbLine
 10
-129.328446
 20
610.183273
 30
0.0
 11
-130.140446
 21
609.371273
 31
0.0
  0
LINE
  5
457
100
AcDbEntity
  8
2
100
AcDbLine
 10
-130.140446
 20
623.371273
 30
0.0
 11
-130.140446
 21
609.371273
 31
0.0
  0
LINE
  5
458
100
AcDbEntity
  8
2
100
AcDbLine
 10
-145.328446
 20
509.371273
 30
0.0
 11
-130.140446
 21
509.371273
 31
0.0
  0
LINE
  5
459
100
AcDbEntity
  8
2
100
AcDbLine
 10
-145.328446
 20
495.371273
 30
0.0
 11
-130.140446
 21
495.371273
 31
0.0
  0
LINE
  5
45A
100
AcDbEntity
  8
2
100
AcDbLine
 10
-129.328446
 20
508.559273
 30
0.0
 11
-129.328446
 21
496.183273
 31
0.0
  0
LINE
  5
45B
100
AcDbEntity
  8
2
 62
     2
100
AcDbLine
 10
-145.328446
 20
508.559273
 30
0.0
 11
-129.328446
 21
508.559273
 31
0.0
  0
LINE
  5
45C
100
AcDbEntity
  8
2
 62
     2
100
AcDbLine
 10
-145.328446
 20
496.183273
 30
0.0
 11
-129.328446
 21
496.183273
 31
0.0
  0
LINE
  5
45D
100
AcDbEntity
  8
2
100
AcDbLine
 10
-129.328446
 20
508.559273
 30
0.0
 11
-130.140446
 21
509.371273
 31
0.0
  0
LINE
  5
45E
100
AcDbEntity
  8
2
100
AcDbLine
 10
-129.328446
 20
496.183273
 30
0.0
 11
-130.140446
 21
495.371273
 31
0.0
  0
LINE
  5
45F
100
AcDbEntity
  8
2
100
AcDbLine
 10
-130.140446
 20
509.371273
 30
0.0
 11
-130.140446
 21
495.371273
 31
0.0
  0
LINE
  5
460
100
AcDbEntity
  8
2
100
AcDbLine
 10
-148.328446
 20
578.371273
 30
0.0
 11
-148.328446
 21
540.371273
 31
0.0
  0
LINE
  5
461
100
AcDbEntity
  8
2
100
AcDbLine
 10
-152.328446
 20
578.371273
 30
0.0
 11
-148.328446
 21
578.371273
 31
0.0
  0
LINE
  5
462
100
AcDbEntity
  8
2
100
AcDbLine
 10
-152.328446
 20
540.371273
 30
0.0
 11
-148.328446
 21
540.371273
 31
0.0
  0
LINE
  5
463
100
AcDbEntity
  8
2
100
AcDbLine
 10
-121.828446
 20
550.724273
 30
0.0
 11
-121.828446
 21
568.018273
 31
0.0
  0
LINE
  5
464
100
AcDbEntity
  8
2
100
AcDbLine
 10
-132.328446
 20
569.371273
 30
0.0
 11
-123.181446
 21
569.371273
 31
0.0
  0
LINE
  5
465
100
AcDbEntity
  8
2
100
AcDbLine
 10
-132.328446
 20
549.371273
 30
0.0
 11
-123.181446
 21
549.371273
 31
0.0
  0
LINE
  5
466
100
AcDbEntity
  8
2
 62
     2
100
AcDbLine
 10
-132.328446
 20
550.724273
 30
0.0
 11
-121.828446
 21
550.724273
 31
0.0
  0
LINE
  5
467
100
AcDbEntity
  8
2
 62
     2
100
AcDbLine
 10
-132.328446
 20
568.018273
 30
0.0
 11
-121.828446
 21
568.018273
 31
0.0
  0
LINE
  5
468
100
AcDbEntity
  8
2
100
AcDbLine
 10
-121.828446
 20
568.018273
 30
0.0
 11
-123.181446
 21
569.371273
 31
0.0
  0
LINE
  5
469
100
AcDbEntity
  8
2
100
AcDbLine
 10
-121.828446
 20
550.724273
 30
0.0
 11
-123.181446
 21
549.371273
 31
0.0
  0
LINE
  5
46A
100
AcDbEntity
  8
2
100
AcDbLine
 10
-123.181446
 20
569.371273
 30
0.0
 11
-123.181446
 21
549.371273
 31
0.0
  0
LINE
  5
46B
100
AcDbEntity
  8
2
  6
CENTER
 62
     2
100
AcDbLine
 10
383.647198
 20
105.92008
 30
0.0
 11
383.647198
 21
160.765334
 31
0.0
  0
LINE
  5
46C
100
AcDbEntity
  8
2
100
AcDbLine
 10
389.709376
 20
113.349035
 30
0.0
 11
377.58502
 21
113.349035
 31
0.0
  0
LINE
  5
46D
100
AcDbEntity
  8
2
100
AcDbLine
 10
389.709376
 20
134.349035
 30
0.0
 11
377.58502
 21
134.349035
 31
0.0
  0
LINE
  5
46E
100
AcDbEntity
  8
2
100
AcDbLine
 10
389.709376
 20
113.349035
 30
0.0
 11
395.771554
 21
123.849035
 31
0.0
  0
LINE
  5
46F
100
AcDbEntity
  8
2
100
AcDbLine
 10
376.43032
 20
132.349035
 30
0.0
 11
377.58502
 21
134.349035
 31
0.0
  0
LINE
  5
470
100
AcDbEntity
  8
2
100
AcDbLine
 10
395.771554
 20
123.849035
 30
0.0
 11
389.709376
 21
134.349035
 31
0.0
  0
LINE
  5
471
100
AcDbEntity
  8
2
100
AcDbLine
 10
376.43032
 20
115.349035
 30
0.0
 11
377.58502
 21
113.349035
 31
0.0
  0
LINE
  5
472
100
AcDbEntity
  8
2
100
AcDbLine
 10
370.147198
 20
132.344644
 30
0.0
 11
362.771554
 21
132.114155
 31
0.0
  0
LINE
  5
473
100
AcDbEntity
  8
2
100
AcDbLine
 10
368.57972
 20
132.29566
 30
0.0
 11
368.57972
 21
115.40241
 31
0.0
  0
LINE
  5
474
100
AcDbEntity
  8
2
 62
     2
100
AcDbLine
 10
370.147198
 20
132.344644
 30
0.0
 11
368.57972
 21
131.43966
 31
0.0
  0
LINE
  5
475
100
AcDbEntity
  8
2
 62
     2
100
AcDbLine
 10
368.57972
 20
131.43966
 30
0.0
 11
362.771554
 21
131.258155
 31
0.0
  0
LINE
  5
476
100
AcDbEntity
  8
2
100
AcDbLine
 10
370.147198
 20
115.353427
 30
0.0
 11
362.771554
 21
115.583915
 31
0.0
  0
LINE
  5
477
100
AcDbEntity
  8
2
 62
     2
100
AcDbLine
 10
370.147198
 20
115.353427
 30
0.0
 11
368.57972
 21
116.25841
 31
0.0
  0
LINE
  5
478
100
AcDbEntity
  8
2
 62
     2
100
AcDbLine
 10
368.57972
 20
116.25841
 30
0.0
 11
362.771554
 21
116.439915
 31
0.0
  0
LINE
  5
479
100
AcDbEntity
  8
2
100
AcDbLine
 10
390.147198
 20
115.349035
 30
0.0
 11
370.147198
 21
115.349035
 31
0.0
  0
LINE
  5
47A
100
AcDbEntity
  8
2
100
AcDbLine
 10
390.147198
 20
132.349035
 30
0.0
 11
370.147198
 21
132.349035
 31
0.0
  0
LINE
  5
47B
100
AcDbEntity
  8
2
100
AcDbLine
 10
370.147198
 20
132.349035
 30
0.0
 11
370.147198
 21
115.349035
 31
0.0
  0
LINE
  5
47C
100
AcDbEntity
  8
2
100
AcDbLine
 10
376.147198
 20
115.349035
 30
0.0
 11
376.147198
 21
118.37181
 31
0.0
  0
LINE
  5
47D
100
AcDbEntity
  8
2
100
AcDbLine
 10
376.147198
 20
129.326261
 30
0.0
 11
376.147198
 21
132.349035
 31
0.0
  0
ARC
  5
47E
100
AcDbEntity
  8
2
100
AcDbCircle
 10
383.647198
 20
123.849035
 30
0.0
 40
8.5
100
AcDbArc
 50
319.880833
 51
40.119167
  0
LINE
  5
47F
100
AcDbEntity
  8
2
100
AcDbLine
 10
390.147198
 20
132.349035
 30
0.0
 11
390.147198
 21
129.326261
 31
0.0
  0
LINE
  5
480
100
AcDbEntity
  8
2
100
AcDbLine
 10
390.147198
 20
118.37181
 30
0.0
 11
390.147198
 21
115.349035
 31
0.0
  0
LINE
  5
481
100
AcDbEntity
  8
2
100
AcDbLine
 10
390.147198
 20
118.37181
 30
0.0
 11
376.147198
 21
118.37181
 31
0.0
  0
LINE
  5
482
100
AcDbEntity
  8
2
100
AcDbLine
 10
390.147198
 20
129.326261
 30
0.0
 11
376.147198
 21
129.326261
 31
0.0
  0
ARC
  5
483
100
AcDbEntity
  8
2
100
AcDbCircle
 10
383.647198
 20
123.849035
 30
0.0
 40
10.5
100
AcDbArc
 50
234.049432
 51
305.950568
  0
ARC
  5
484
100
AcDbEntity
  8
2
100
AcDbCircle
 10
383.647198
 20
123.849035
 30
0.0
 40
10.5
100
AcDbArc
 50
308.24662
 51
51.75338
  0
ARC
  5
485
100
AcDbEntity
  8
2
100
AcDbCircle
 10
383.647198
 20
123.849035
 30
0.0
 40
10.5
100
AcDbArc
 50
54.049432
 51
125.950568
  0
LINE
  5
486
100
AcDbEntity
  8
2
100
AcDbLine
 10
213.654076
 20
142.344644
 30
0.0
 11
218.771554
 21
142.184723
 31
0.0
  0
LINE
  5
487
100
AcDbEntity
  8
2
 62
     2
100
AcDbLine
 10
213.654076
 20
142.344644
 30
0.0
 11
215.221554
 21
141.43966
 31
0.0
  0
LINE
  5
488
100
AcDbEntity
  8
2
 62
     2
100
AcDbLine
 10
215.221554
 20
141.43966
 30
0.0
 11
218.771554
 21
141.328723
 31
0.0
  0
LINE
  5
489
100
AcDbEntity
  8
2
100
AcDbLine
 10
213.654076
 20
125.353427
 30
0.0
 11
218.771554
 21
125.513348
 31
0.0
  0
LINE
  5
48A
100
AcDbEntity
  8
2
100
AcDbLine
 10
215.221554
 20
125.40241
 30
0.0
 11
215.221554
 21
142.29566
 31
0.0
  0
LINE
  5
48B
100
AcDbEntity
  8
2
 62
     2
100
AcDbLine
 10
213.654076
 20
125.353427
 30
0.0
 11
215.221554
 21
126.25841
 31
0.0
  0
LINE
  5
48C
100
AcDbEntity
  8
2
 62
     2
100
AcDbLine
 10
215.221554
 20
126.25841
 30
0.0
 11
218.771554
 21
126.369348
 31
0.0
  0
LINE
  5
48D
100
AcDbEntity
  8
2
100
AcDbLine
 10
208.889031
 20
142.344644
 30
0.0
 11
203.771554
 21
142.184723
 31
0.0
  0
LINE
  5
48E
100
AcDbEntity
  8
2
 62
     2
100
AcDbLine
 10
208.889031
 20
142.344644
 30
0.0
 11
207.321554
 21
141.43966
 31
0.0
  0
LINE
  5
48F
100
AcDbEntity
  8
2
 62
     2
100
AcDbLine
 10
207.321554
 20
141.43966
 30
0.0
 11
203.771554
 21
141.328723
 31
0.0
  0
LINE
  5
490
100
AcDbEntity
  8
2
100
AcDbLine
 10
208.889031
 20
125.353427
 30
0.0
 11
203.771554
 21
125.513348
 31
0.0
  0
LINE
  5
491
100
AcDbEntity
  8
2
100
AcDbLine
 10
207.321554
 20
125.40241
 30
0.0
 11
207.321554
 21
142.29566
 31
0.0
  0
LINE
  5
492
100
AcDbEntity
  8
2
 62
     2
100
AcDbLine
 10
208.889031
 20
125.353427
 30
0.0
 11
207.321554
 21
126.25841
 31
0.0
  0
LINE
  5
493
100
AcDbEntity
  8
2
 62
     2
100
AcDbLine
 10
207.321554
 20
126.25841
 30
0.0
 11
203.771554
 21
126.369348
 31
0.0
  0
LINE
  5
494
100
AcDbEntity
  8
2
100
AcDbLine
 10
208.889031
 20
142.344644
 30
0.0
 11
213.654076
 21
142.344644
 31
0.0
  0
LINE
  5
495
100
AcDbEntity
  8
2
100
AcDbLine
 10
208.889031
 20
125.353427
 30
0.0
 11
213.654076
 21
125.353427
 31
0.0
  0
LINE
  5
496
100
AcDbEntity
  8
2
100
AcDbLine
 10
-163.824055
 20
482.253795
 30
0.0
 11
-163.664134
 21
487.371273
 31
0.0
  0
LINE
  5
497
100
AcDbEntity
  8
2
 62
     2
100
AcDbLine
 10
-163.824055
 20
482.253795
 30
0.0
 11
-162.919071
 21
483.821273
 31
0.0
  0
LINE
  5
498
100
AcDbEntity
  8
2
 62
     2
100
AcDbLine
 10
-162.919071
 20
483.821273
 30
0.0
 11
-162.808134
 21
487.371273
 31
0.0
  0
LINE
  5
499
100
AcDbEntity
  8
2
100
AcDbLine
 10
-146.832838
 20
482.253795
 30
0.0
 11
-146.992759
 21
487.371273
 31
0.0
  0
LINE
  5
49A
100
AcDbEntity
  8
2
100
AcDbLine
 10
-146.881821
 20
483.821273
 30
0.0
 11
-163.775071
 21
483.821273
 31
0.0
  0
LINE
  5
49B
100
AcDbEntity
  8
2
 62
     2
100
AcDbLine
 10
-146.832838
 20
482.253795
 30
0.0
 11
-147.737821
 21
483.821273
 31
0.0
  0
LINE
  5
49C
100
AcDbEntity
  8
2
 62
     2
100
AcDbLine
 10
-147.737821
 20
483.821273
 30
0.0
 11
-147.848759
 21
487.371273
 31
0.0
  0
LINE
  5
49D
100
AcDbEntity
  8
2
100
AcDbLine
 10
-163.824055
 20
477.48875
 30
0.0
 11
-163.664134
 21
472.371273
 31
0.0
  0
LINE
  5
49E
100
AcDbEntity
  8
2
 62
     2
100
AcDbLine
 10
-163.824055
 20
477.48875
 30
0.0
 11
-162.919071
 21
475.921273
 31
0.0
  0
LINE
  5
49F
100
AcDbEntity
  8
2
 62
     2
100
AcDbLine
 10
-162.919071
 20
475.921273
 30
0.0
 11
-162.808134
 21
472.371273
 31
0.0
  0
LINE
  5
4A0
100
AcDbEntity
  8
2
100
AcDbLine
 10
-146.832838
 20
477.48875
 30
0.0
 11
-146.992759
 21
472.371273
 31
0.0
  0
LINE
  5
4A1
100
AcDbEntity
  8
2
100
AcDbLine
 10
-146.881821
 20
475.921273
 30
0.0
 11
-163.775071
 21
475.921273
 31
0.0
  0
LINE
  5
4A2
100
AcDbEntity
  8
2
 62
     2
100
AcDbLine
 10
-146.832838
 20
477.48875
 30
0.0
 11
-147.737821
 21
475.921273
 31
0.0
  0
LINE
  5
4A3
100
AcDbEntity
  8
2
 62
     2
100
AcDbLine
 10
-147.737821
 20
475.921273
 30
0.0
 11
-147.848759
 21
472.371273
 31
0.0
  0
LINE
  5
4A4
100
AcDbEntity
  8
2
100
AcDbLine
 10
-163.824055
 20
477.48875
 30
0.0
 11
-163.824055
 21
482.253795
 31
0.0
  0
LINE
  5
4A5
100
AcDbEntity
  8
2
100
AcDbLine
 10
-146.832838
 20
477.48875
 30
0.0
 11
-146.832838
 21
482.253795
 31
0.0
  0
LINE
  5
4A6
100
AcDbEntity
  8
2
100
AcDbLine
 10
-163.824055
 20
638.74675
 30
0.0
 11
-163.593571
 21
631.371273
 31
0.0
  0
LINE
  5
4A7
100
AcDbEntity
  8
2
100
AcDbLine
 10
-163.775071
 20
637.179273
 30
0.0
 11
-146.881821
 21
637.179273
 31
0.0
  0
LINE
  5
4A8
100
AcDbEntity
  8
2
 62
     2
100
AcDbLine
 10
-163.824055
 20
638.74675
 30
0.0
 11
-162.919071
 21
637.179273
 31
0.0
  0
LINE
  5
4A9
100
AcDbEntity
  8
2
 62
     2
100
AcDbLine
 10
-162.919071
 20
637.179273
 30
0.0
 11
-162.737571
 21
631.371273
 31
0.0
  0
LINE
  5
4AA
100
AcDbEntity
  8
2
100
AcDbLine
 10
-146.832838
 20
638.74675
 30
0.0
 11
-147.063321
 21
631.371273
 31
0.0
  0
LINE
  5
4AB
100
AcDbEntity
  8
2
 62
     2
100
AcDbLine
 10
-146.832838
 20
638.74675
 30
0.0
 11
-147.737821
 21
637.179273
 31
0.0
  0
LINE
  5
4AC
100
AcDbEntity
  8
2
 62
     2
100
AcDbLine
 10
-147.737821
 20
637.179273
 30
0.0
 11
-147.919321
 21
631.371273
 31
0.0
  0
LINE
  5
4AD
100
AcDbEntity
  8
2
100
AcDbLine
 10
-163.828446
 20
638.74675
 30
0.0
 11
-146.828446
 21
638.74675
 31
0.0
  0
LINE
  5
4AE
100
AcDbEntity
  8
2
100
AcDbLine
 10
-146.828446
 20
657.74675
 30
0.0
 11
-146.828446
 21
638.74675
 31
0.0
  0
LINE
  5
4AF
100
AcDbEntity
  8
2
100
AcDbLine
 10
-163.828446
 20
642.24675
 30
0.0
 11
-163.828446
 21
638.74675
 31
0.0
  0
LINE
  5
4B0
100
AcDbEntity
  8
2
100
AcDbLine
 10
-168.828446
 20
660.74675
 30
0.0
 11
-149.828446
 21
660.74675
 31
0.0
  0
LINE
  5
4B1
100
AcDbEntity
  8
2
100
AcDbLine
 10
-168.828446
 20
643.74675
 30
0.0
 11
-165.328446
 21
643.74675
 31
0.0
  0
LINE
  5
4B2
100
AcDbEntity
  8
2
  6
CENTER
 62
     2
100
AcDbLine
 10
-245.877238
 20
652.24675
 30
0.0
 11
-138.490287
 21
652.24675
 31
0.0
  0
ARC
  5
4B3
100
AcDbEntity
  8
2
100
AcDbCircle
 10
-149.828446
 20
657.74675
 30
0.0
 40
3.0
100
AcDbArc
 50
0.0
 51
90.0
  0
ARC
  5
4B4
100
AcDbEntity
  8
2
100
AcDbCircle
 10
-165.328446
 20
642.24675
 30
0.0
 40
1.5
100
AcDbArc
 50
0.0
 51
90.0
  0
LINE
  5
4B5
100
AcDbEntity
  8
2
100
AcDbLine
 10
-168.828446
 20
660.74675
 30
0.0
 11
-168.828446
 21
643.74675
 31
0.0
  0
LINE
  5
4B6
100
AcDbEntity
  8
2
100
AcDbLine
 10
-161.828446
 20
658.74675
 30
0.0
 11
-151.828446
 21
658.74675
 31
0.0
  0
LINE
  5
4B7
100
AcDbEntity
  8
2
100
AcDbLine
 10
-149.828446
 20
656.74675
 30
0.0
 11
-149.828446
 21
646.74675
 31
0.0
  0
LINE
  5
4B8
100
AcDbEntity
  8
2
100
AcDbLine
 10
-160.828446
 20
644.74675
 30
0.0
 11
-151.828446
 21
644.74675
 31
0.0
  0
LINE
  5
4B9
100
AcDbEntity
  8
2
100
AcDbLine
 10
-163.828446
 20
656.74675
 30
0.0
 11
-163.828446
 21
647.74675
 31
0.0
  0
ARC
  5
4BA
100
AcDbEntity
  8
2
100
AcDbCircle
 10
-151.828446
 20
656.74675
 30
0.0
 40
2.0
100
AcDbArc
 50
0.0
 51
90.0
  0
ARC
  5
4BB
100
AcDbEntity
  8
2
100
AcDbCircle
 10
-151.828446
 20
646.74675
 30
0.0
 40
2.0
100
AcDbArc
 50
270.0
 51
360.0
  0
ARC
  5
4BC
100
AcDbEntity
  8
2
100
AcDbCircle
 10
-161.828446
 20
656.74675
 30
0.0
 40
2.0
100
AcDbArc
 50
90.0
 51
180.0
  0
ARC
  5
4BD
100
AcDbEntity
  8
2
100
AcDbCircle
 10
-163.828446
 20
644.74675
 30
0.0
 40
3.0
100
AcDbArc
 50
0.0
 51
90.0
  0
LINE
  5
4BE
100
AcDbEntity
  8
2
100
AcDbLine
 10
-173.828446
 20
661.340017
 30
0.0
 11
-173.828446
 21
643.153484
 31
0.0
  0
LINE
  5
4BF
100
AcDbEntity
  8
2
100
AcDbLine
 10
-189.828446
 20
661.340017
 30
0.0
 11
-189.828446
 21
643.153484
 31
0.0
  0
LINE
  5
4C0
100
AcDbEntity
  8
2
100
AcDbLine
 10
-173.828446
 20
660.57775
 30
0.0
 11
-168.828446
 21
660.57775
 31
0.0
  0
LINE
  5
4C1
100
AcDbEntity
  8
2
100
AcDbLine
 10
-173.828446
 20
643.91575
 30
0.0
 11
-168.828446
 21
643.91575
 31
0.0
  0
LINE
  5
4C2
100
AcDbEntity
  8
2
 62
     2
100
AcDbLine
 10
-173.828446
 20
659.72175
 30
0.0
 11
-170.311082
 21
659.72175
 31
0.0
  0
LINE
  5
4C3
100
AcDbEntity
  8
2
 62
     2
100
AcDbLine
 10
-173.828446
 20
644.77175
 30
0.0
 11
-170.311082
 21
644.77175
 31
0.0
  0
LINE
  5
4C4
100
AcDbEntity
  8
2
 62
     2
100
AcDbLine
 10
-168.828446
 20
660.57775
 30
0.0
 11
-170.311082
 21
659.72175
 31
0.0
  0
LINE
  5
4C5
100
AcDbEntity
  8
2
 62
     2
100
AcDbLine
 10
-168.828446
 20
643.91575
 30
0.0
 11
-170.311082
 21
644.77175
 31
0.0
  0
LINE
  5
4C6
100
AcDbEntity
  8
2
100
AcDbLine
 10
-170.311082
 20
660.57775
 30
0.0
 11
-170.311082
 21
643.91575
 31
0.0
  0
LINE
  5
4C7
100
AcDbEntity
  8
2
100
AcDbLine
 10
-188.328446
 20
664.371106
 30
0.0
 11
-175.328446
 21
664.371106
 31
0.0
  0
LINE
  5
4C8
100
AcDbEntity
  8
2
100
AcDbLine
 10
-188.328446
 20
658.308928
 30
0.0
 11
-175.328446
 21
658.308928
 31
0.0
  0
LINE
  5
4C9
100
AcDbEntity
  8
2
100
AcDbLine
 10
-188.328446
 20
646.184572
 30
0.0
 11
-175.328446
 21
646.184572
 31
0.0
  0
LINE
  5
4CA
100
AcDbEntity
  8
2
100
AcDbLine
 10
-188.328446
 20
640.122395
 30
0.0
 11
-175.328446
 21
640.122395
 31
0.0
  0
ARC
  5
4CB
100
AcDbEntity
  8
2
100
AcDbCircle
 10
-186.015946
 20
661.340017
 30
0.0
 40
3.8125
100
AcDbArc
 50
127.340993
 51
232.659007
  0
ARC
  5
4CC
100
AcDbEntity
  8
2
100
AcDbCircle
 10
-186.015946
 20
643.153484
 30
0.0
 40
3.8125
100
AcDbArc
 50
127.340993
 51
232.659007
  0
ARC
  5
4CD
100
AcDbEntity
  8
2
100
AcDbCircle
 10
-177.640946
 20
661.340017
 30
0.0
 40
3.8125
100
AcDbArc
 50
307.340993
 51
52.659007
  0
ARC
  5
4CE
100
AcDbEntity
  8
2
100
AcDbCircle
 10
-177.640946
 20
643.153484
 30
0.0
 40
3.8125
100
AcDbArc
 50
307.340993
 51
52.659007
  0
ARC
  5
4CF
100
AcDbEntity
  8
2
100
AcDbCircle
 10
-176.828446
 20
652.24675
 30
0.0
 40
13.0
100
AcDbArc
 50
152.204228
 51
207.795772
  0
ARC
  5
4D0
100
AcDbEntity
  8
2
100
AcDbCircle
 10
-186.828446
 20
652.24675
 30
0.0
 40
13.0
100
AcDbArc
 50
332.204228
 51
27.795772
  0
LINE
  5
4D1
100
AcDbEntity
  8
2
100
AcDbLine
 10
-235.328446
 20
657.24675
 30
0.0
 11
-189.828446
 21
657.24675
 31
0.0
  0
LINE
  5
4D2
100
AcDbEntity
  8
2
100
AcDbLine
 10
-235.328446
 20
647.24675
 30
0.0
 11
-189.828446
 21
647.24675
 31
0.0
  0
LINE
  5
4D3
100
AcDbEntity
  8
2
100
AcDbLine
 10
-388.324055
 20
638.74675
 30
0.0
 11
-388.093571
 21
631.371273
 31
0.0
  0
LINE
  5
4D4
100
AcDbEntity
  8
2
100
AcDbLine
 10
-388.275071
 20
637.179273
 30
0.0
 11
-371.381821
 21
637.179273
 31
0.0
  0
LINE
  5
4D5
100
AcDbEntity
  8
2
 62
     2
100
AcDbLine
 10
-388.324055
 20
638.74675
 30
0.0
 11
-387.419071
 21
637.179273
 31
0.0
  0
LINE
  5
4D6
100
AcDbEntity
  8
2
 62
     2
100
AcDbLine
 10
-387.419071
 20
637.179273
 30
0.0
 11
-387.237571
 21
631.371273
 31
0.0
  0
LINE
  5
4D7
100
AcDbEntity
  8
2
100
AcDbLine
 10
-371.332838
 20
638.74675
 30
0.0
 11
-371.563321
 21
631.371273
 31
0.0
  0
LINE
  5
4D8
100
AcDbEntity
  8
2
 62
     2
100
AcDbLine
 10
-371.332838
 20
638.74675
 30
0.0
 11
-372.237821
 21
637.179273
 31
0.0
  0
LINE
  5
4D9
100
AcDbEntity
  8
2
 62
     2
100
AcDbLine
 10
-372.237821
 20
637.179273
 30
0.0
 11
-372.419321
 21
631.371273
 31
0.0
  0
LINE
  5
4DA
100
AcDbEntity
  8
2
100
AcDbLine
 10
-388.328446
 20
638.74675
 30
0.0
 11
-371.328446
 21
638.74675
 31
0.0
  0
LINE
  5
4DB
100
AcDbEntity
  8
2
100
AcDbLine
 10
-371.328446
 20
657.74675
 30
0.0
 11
-371.328446
 21
638.74675
 31
0.0
  0
LINE
  5
4DC
100
AcDbEntity
  8
2
100
AcDbLine
 10
-388.328446
 20
642.24675
 30
0.0
 11
-388.328446
 21
638.74675
 31
0.0
  0
LINE
  5
4DD
100
AcDbEntity
  8
2
100
AcDbLine
 10
-393.328446
 20
660.74675
 30
0.0
 11
-374.328446
 21
660.74675
 31
0.0
  0
LINE
  5
4DE
100
AcDbEntity
  8
2
100
AcDbLine
 10
-393.328446
 20
643.74675
 30
0.0
 11
-389.828446
 21
643.74675
 31
0.0
  0
LINE
  5
4DF
100
AcDbEntity
  8
2
  6
CENTER
 62
     2
100
AcDbLine
 10
-471.826667
 20
652.24675
 30
0.0
 11
-362.990287
 21
652.24675
 31
0.0
  0
ARC
  5
4E0
100
AcDbEntity
  8
2
100
AcDbCircle
 10
-374.328446
 20
657.74675
 30
0.0
 40
3.0
100
AcDbArc
 50
0.0
 51
90.0
  0
ARC
  5
4E1
100
AcDbEntity
  8
2
100
AcDbCircle
 10
-389.828446
 20
642.24675
 30
0.0
 40
1.5
100
AcDbArc
 50
0.0
 51
90.0
  0
LINE
  5
4E2
100
AcDbEntity
  8
2
100
AcDbLine
 10
-393.328446
 20
660.74675
 30
0.0
 11
-393.328446
 21
643.74675
 31
0.0
  0
LINE
  5
4E3
100
AcDbEntity
  8
2
100
AcDbLine
 10
-386.328446
 20
658.74675
 30
0.0
 11
-376.328446
 21
658.74675
 31
0.0
  0
LINE
  5
4E4
100
AcDbEntity
  8
2
100
AcDbLine
 10
-374.328446
 20
656.74675
 30
0.0
 11
-374.328446
 21
646.74675
 31
0.0
  0
LINE
  5
4E5
100
AcDbEntity
  8
2
100
AcDbLine
 10
-385.328446
 20
644.74675
 30
0.0
 11
-376.328446
 21
644.74675
 31
0.0
  0
LINE
  5
4E6
100
AcDbEntity
  8
2
100
AcDbLine
 10
-388.328446
 20
656.74675
 30
0.0
 11
-388.328446
 21
647.74675
 31
0.0
  0
ARC
  5
4E7
100
AcDbEntity
  8
2
100
AcDbCircle
 10
-376.328446
 20
656.74675
 30
0.0
 40
2.0
100
AcDbArc
 50
0.0
 51
90.0
  0
ARC
  5
4E8
100
AcDbEntity
  8
2
100
AcDbCircle
 10
-376.328446
 20
646.74675
 30
0.0
 40
2.0
100
AcDbArc
 50
270.0
 51
360.0
  0
ARC
  5
4E9
100
AcDbEntity
  8
2
100
AcDbCircle
 10
-386.328446
 20
656.74675
 30
0.0
 40
2.0
100
AcDbArc
 50
90.0
 51
180.0
  0
ARC
  5
4EA
100
AcDbEntity
  8
2
100
AcDbCircle
 10
-388.328446
 20
644.74675
 30
0.0
 40
3.0
100
AcDbArc
 50
0.0
 51
90.0
  0
LINE
  5
4EB
100
AcDbEntity
  8
2
100
AcDbLine
 10
-398.328446
 20
661.340017
 30
0.0
 11
-398.328446
 21
643.153484
 31
0.0
  0
LINE
  5
4EC
100
AcDbEntity
  8
2
100
AcDbLine
 10
-414.328446
 20
661.340017
 30
0.0
 11
-414.328446
 21
643.153484
 31
0.0
  0
LINE
  5
4ED
100
AcDbEntity
  8
2
100
AcDbLine
 10
-398.328446
 20
660.57775
 30
0.0
 11
-393.328446
 21
660.57775
 31
0.0
  0
LINE
  5
4EE
100
AcDbEntity
  8
2
100
AcDbLine
 10
-398.328446
 20
643.91575
 30
0.0
 11
-393.328446
 21
643.91575
 31
0.0
  0
LINE
  5
4EF
100
AcDbEntity
  8
2
 62
     2
100
AcDbLine
 10
-398.328446
 20
659.72175
 30
0.0
 11
-394.811082
 21
659.72175
 31
0.0
  0
LINE
  5
4F0
100
AcDbEntity
  8
2
 62
     2
100
AcDbLine
 10
-398.328446
 20
644.77175
 30
0.0
 11
-394.811082
 21
644.77175
 31
0.0
  0
LINE
  5
4F1
100
AcDbEntity
  8
2
 62
     2
100
AcDbLine
 10
-393.328446
 20
660.57775
 30
0.0
 11
-394.811082
 21
659.72175
 31
0.0
  0
LINE
  5
4F2
100
AcDbEntity
  8
2
 62
     2
100
AcDbLine
 10
-393.328446
 20
643.91575
 30
0.0
 11
-394.811082
 21
644.77175
 31
0.0
  0
LINE
  5
4F3
100
AcDbEntity
  8
2
100
AcDbLine
 10
-394.811082
 20
660.57775
 30
0.0
 11
-394.811082
 21
643.91575
 31
0.0
  0
LINE
  5
4F4
100
AcDbEntity
  8
2
100
AcDbLine
 10
-412.828446
 20
664.371106
 30
0.0
 11
-399.828446
 21
664.371106
 31
0.0
  0
LINE
  5
4F5
100
AcDbEntity
  8
2
100
AcDbLine
 10
-412.828446
 20
658.308928
 30
0.0
 11
-399.828446
 21
658.308928
 31
0.0
  0
LINE
  5
4F6
100
AcDbEntity
  8
2
100
AcDbLine
 10
-412.828446
 20
646.184572
 30
0.0
 11
-399.828446
 21
646.184572
 31
0.0
  0
LINE
  5
4F7
100
AcDbEntity
  8
2
100
AcDbLine
 10
-412.828446
 20
640.122395
 30
0.0
 11
-399.828446
 21
640.122395
 31
0.0
  0
ARC
  5
4F8
100
AcDbEntity
  8
2
100
AcDbCircle
 10
-410.515946
 20
661.340017
 30
0.0
 40
3.8125
100
AcDbArc
 50
127.340993
 51
232.659007
  0
ARC
  5
4F9
100
AcDbEntity
  8
2
100
AcDbCircle
 10
-410.515946
 20
643.153484
 30
0.0
 40
3.8125
100
AcDbArc
 50
127.340993
 51
232.659007
  0
ARC
  5
4FA
100
AcDbEntity
  8
2
100
AcDbCircle
 10
-402.140946
 20
661.340017
 30
0.0
 40
3.8125
100
AcDbArc
 50
307.340993
 51
52.659007
  0
ARC
  5
4FB
100
AcDbEntity
  8
2
100
AcDbCircle
 10
-402.140946
 20
643.153484
 30
0.0
 40
3.8125
100
AcDbArc
 50
307.340993
 51
52.659007
  0
ARC
  5
4FC
100
AcDbEntity
  8
2
100
AcDbCircle
 10
-401.328446
 20
652.24675
 30
0.0
 40
13.0
100
AcDbArc
 50
152.204228
 51
207.795772
  0
ARC
  5
4FD
100
AcDbEntity
  8
2
100
AcDbCircle
 10
-411.328446
 20
652.24675
 30
0.0
 40
13.0
100
AcDbArc
 50
332.204228
 51
27.795772
  0
LINE
  5
4FE
100
AcDbEntity
  8
2
100
AcDbLine
 10
-459.828446
 20
657.24675
 30
0.0
 11
-414.328446
 21
657.24675
 31
0.0
  0
LINE
  5
4FF
100
AcDbEntity
  8
2
100
AcDbLine
 10
-459.828446
 20
647.24675
 30
0.0
 11
-414.328446
 21
647.24675
 31
0.0
  0
LINE
  5
500
100
AcDbEntity
  8
2
  6
CENTER
 62
     2
100
AcDbLine
 10
-600.528446
 20
502.371273
 30
0.0
 11
-886.445369
 21
502.371273
 31
0.0
  0
LINE
  5
501
100
AcDbEntity
  8
2
  6
CENTER
 62
     2
100
AcDbLine
 10
-600.528446
 20
616.371273
 30
0.0
 11
-886.903132
 21
616.371273
 31
0.0
  0
LINE
  5
502
100
AcDbEntity
  8
2
100
AcDbLine
 10
-637.328446
 20
492.371273
 30
0.0
 11
-832.328446
 21
492.371273
 31
0.0
  0
LINE
  5
503
100
AcDbEntity
  8
2
100
AcDbLine
 10
-637.328446
 20
626.371273
 30
0.0
 11
-832.328446
 21
626.371273
 31
0.0
  0
LINE
  5
504
100
AcDbEntity
  8
2
100
AcDbLine
 10
-637.328446
 20
628.871273
 30
0.0
 11
-637.328446
 21
623.371273
 31
0.0
  0
LINE
  5
505
100
AcDbEntity
  8
2
100
AcDbLine
 10
-637.328446
 20
609.371273
 30
0.0
 11
-637.328446
 21
509.371273
 31
0.0
  0
LINE
  5
506
100
AcDbEntity
  8
2
100
AcDbLine
 10
-637.328446
 20
495.371273
 30
0.0
 11
-637.328446
 21
489.871273
 31
0.0
  0
LINE
  5
507
100
AcDbEntity
  8
2
100
AcDbLine
 10
-637.328446
 20
489.871273
 30
0.0
 11
-612.328446
 21
489.871273
 31
0.0
  0
LINE
  5
508
100
AcDbEntity
  8
2
  6
CENTER
 62
     2
100
AcDbLine
 10
-624.828446
 20
621.871273
 30
0.0
 11
-624.828446
 21
667.271273
 31
0.0
  0
LINE
  5
509
100
AcDbEntity
  8
2
100
AcDbLine
 10
-832.328446
 20
489.871273
 30
0.0
 11
-832.328446
 21
628.871273
 31
0.0
  0
LINE
  5
50A
100
AcDbEntity
  8
2
100
AcDbLine
 10
-867.328446
 20
631.371273
 30
0.0
 11
-833.328446
 21
631.371273
 31
0.0
  0
LINE
  5
50B
100
AcDbEntity
  8
2
100
AcDbLine
 10
-848.328446
 20
629.371273
 30
0.0
 11
-848.328446
 21
489.371273
 31
0.0
  0
LINE
  5
50C
100
AcDbEntity
  8
2
100
AcDbLine
 10
-867.328446
 20
631.371273
 30
0.0
 11
-867.328446
 21
623.371273
 31
0.0
  0
LINE
  5
50D
100
AcDbEntity
  8
2
100
AcDbLine
 10
-852.328446
 20
539.371273
 30
0.0
 11
-852.328446
 21
579.371273
 31
0.0
  0
LINE
  5
50E
100
AcDbEntity
  8
2
100
AcDbLine
 10
-867.328446
 20
487.371273
 30
0.0
 11
-833.328446
 21
487.371273
 31
0.0
  0
LINE
  5
50F
100
AcDbEntity
  8
2
100
AcDbLine
 10
-867.328446
 20
487.371273
 30
0.0
 11
-867.328446
 21
495.371273
 31
0.0
  0
LINE
  5
510
100
AcDbEntity
  8
2
100
AcDbLine
 10
-612.328446
 20
495.371273
 30
0.0
 11
-832.328446
 21
495.371273
 31
0.0
  0
LINE
  5
511
100
AcDbEntity
  8
2
100
AcDbLine
 10
-612.328446
 20
509.371273
 30
0.0
 11
-832.328446
 21
509.371273
 31
0.0
  0
LINE
  5
512
100
AcDbEntity
  8
2
100
AcDbLine
 10
-612.328446
 20
623.371273
 30
0.0
 11
-832.328446
 21
623.371273
 31
0.0
  0
LINE
  5
513
100
AcDbEntity
  8
2
100
AcDbLine
 10
-612.328446
 20
609.371273
 30
0.0
 11
-832.328446
 21
609.371273
 31
0.0
  0
LINE
  5
514
100
AcDbEntity
  8
2
  6
CENTER
 62
     2
100
AcDbLine
 10
-849.328446
 20
667.271273
 30
0.0
 11
-849.328446
 21
624.371273
 31
0.0
  0
LINE
  5
515
100
AcDbEntity
  8
2
  6
CENTER
 62
     2
100
AcDbLine
 10
-849.328446
 20
492.3348
 30
0.0
 11
-849.328446
 21
399.938499
 31
0.0
  0
LINE
  5
516
100
AcDbEntity
  8
2
100
AcDbLine
 10
-612.328446
 20
628.871273
 30
0.0
 11
-637.328446
 21
628.871273
 31
0.0
  0
LINE
  5
517
100
AcDbEntity
  8
2
100
AcDbLine
 10
-613.328446
 20
631.371273
 30
0.0
 11
-636.328446
 21
631.371273
 31
0.0
  0
LINE
  5
518
100
AcDbEntity
  8
2
100
AcDbLine
 10
-636.328446
 20
628.871273
 30
0.0
 11
-636.328446
 21
631.371273
 31
0.0
  0
LINE
  5
519
100
AcDbEntity
  8
2
100
AcDbLine
 10
-833.328446
 20
487.371273
 30
0.0
 11
-833.328446
 21
631.371273
 31
0.0
  0
LINE
  5
51A
100
AcDbEntity
  8
2
100
AcDbLine
 10
-832.328446
 20
628.871273
 30
0.0
 11
-833.328446
 21
628.871273
 31
0.0
  0
LINE
  5
51B
100
AcDbEntity
  8
2
100
AcDbLine
 10
-832.328446
 20
489.871273
 30
0.0
 11
-833.328446
 21
489.871273
 31
0.0
  0
ARC
  5
51C
100
AcDbEntity
  8
2
100
AcDbCircle
 10
-846.328446
 20
629.371273
 30
0.0
 40
2.0
100
AcDbArc
 50
90.0
 51
180.0
  0
ARC
  5
51D
100
AcDbEntity
  8
2
100
AcDbCircle
 10
-846.328446
 20
489.371273
 30
0.0
 40
2.0
100
AcDbArc
 50
180.0
 51
270.0
  0
ARC
  5
51E
100
AcDbEntity
  8
2
100
AcDbCircle
 10
-851.328446
 20
523.613913
 30
0.0
 40
3.0
100
AcDbArc
 50
315.0
 51
360.0
  0
ARC
  5
51F
100
AcDbEntity
  8
2
100
AcDbCircle
 10
-851.328446
 20
595.128632
 30
0.0
 40
3.0
100
AcDbArc
 50
0.0
 51
45.0
  0
LINE
  5
520
100
AcDbEntity
  8
2
100
AcDbLine
 10
-851.328446
 20
579.371273
 30
0.0
 11
-852.328446
 21
579.371273
 31
0.0
  0
LINE
  5
521
100
AcDbEntity
  8
2
100
AcDbLine
 10
-851.328446
 20
539.371273
 30
0.0
 11
-852.328446
 21
539.371273
 31
0.0
  0
ARC
  5
522
100
AcDbEntity
  8
2
100
AcDbCircle
 10
-851.328446
 20
582.371273
 30
0.0
 40
3.0
100
AcDbArc
 50
270.0
 51
360.0
  0
ARC
  5
523
100
AcDbEntity
  8
2
100
AcDbCircle
 10
-851.328446
 20
536.371273
 30
0.0
 40
3.0
100
AcDbArc
 50
0.0
 51
90.0
  0
LINE
  5
524
100
AcDbEntity
  8
2
100
AcDbLine
 10
-848.328446
 20
629.071273
 30
0.0
 11
-858.058276
 21
629.071273
 31
0.0
  0
LINE
  5
525
100
AcDbEntity
  8
2
100
AcDbLine
 10
-858.058276
 20
629.071273
 30
0.0
 11
-859.328446
 21
626.871273
 31
0.0
  0
LINE
  5
526
100
AcDbEntity
  8
2
100
AcDbLine
 10
-859.328446
 20
626.871273
 30
0.0
 11
-859.328446
 21
605.871273
 31
0.0
  0
LINE
  5
527
100
AcDbEntity
  8
2
100
AcDbLine
 10
-848.328446
 20
622.721273
 30
0.0
 11
-858.058276
 21
622.721273
 31
0.0
  0
ARC
  5
528
100
AcDbEntity
  8
2
100
AcDbCircle
 10
-853.976706
 20
625.896273
 30
0.0
 40
5.171058
100
AcDbArc
 50
142.121121
 51
217.878879
  0
LINE
  5
529
100
AcDbEntity
  8
2
100
AcDbLine
 10
-848.328446
 20
603.671273
 30
0.0
 11
-858.058276
 21
603.671273
 31
0.0
  0
LINE
  5
52A
100
AcDbEntity
  8
2
100
AcDbLine
 10
-858.058276
 20
603.671273
 30
0.0
 11
-859.328446
 21
605.871273
 31
0.0
  0
LINE
  5
52B
100
AcDbEntity
  8
2
100
AcDbLine
 10
-848.328446
 20
610.021273
 30
0.0
 11
-858.058276
 21
610.021273
 31
0.0
  0
ARC
  5
52C
100
AcDbEntity
  8
2
100
AcDbCircle
 10
-853.976706
 20
606.846273
 30
0.0
 40
5.171058
100
AcDbArc
 50
142.121121
 51
217.878879
  0
ARC
  5
52D
100
AcDbEntity
  8
2
100
AcDbCircle
 10
-840.097764
 20
616.371273
 30
0.0
 40
19.05
100
AcDbArc
 50
160.528782
 51
199.471218
  0
LINE
  5
52E
100
AcDbEntity
  8
2
100
AcDbLine
 10
-848.328446
 20
515.071273
 30
0.0
 11
-858.058276
 21
515.071273
 31
0.0
  0
LINE
  5
52F
100
AcDbEntity
  8
2
100
AcDbLine
 10
-858.058276
 20
515.071273
 30
0.0
 11
-859.328446
 21
512.871273
 31
0.0
  0
LINE
  5
530
100
AcDbEntity
  8
2
100
AcDbLine
 10
-848.328446
 20
508.721273
 30
0.0
 11
-858.058276
 21
508.721273
 31
0.0
  0
ARC
  5
531
100
AcDbEntity
  8
2
100
AcDbCircle
 10
-853.976706
 20
511.896273
 30
0.0
 40
5.171058
100
AcDbArc
 50
142.121121
 51
217.878879
  0
ARC
  5
532
100
AcDbEntity
  8
2
100
AcDbCircle
 10
-840.097764
 20
502.371273
 30
0.0
 40
19.05
100
AcDbArc
 50
160.528782
 51
199.471218
  0
LINE
  5
533
100
AcDbEntity
  8
2
100
AcDbLine
 10
-848.328446
 20
489.671273
 30
0.0
 11
-858.058276
 21
489.671273
 31
0.0
  0
LINE
  5
534
100
AcDbEntity
  8
2
100
AcDbLine
 10
-858.058276
 20
489.671273
 30
0.0
 11
-859.328446
 21
491.871273
 31
0.0
  0
LINE
  5
535
100
AcDbEntity
  8
2
100
AcDbLine
 10
-859.328446
 20
491.871273
 30
0.0
 11
-859.328446
 21
512.871273
 31
0.0
  0
LINE
  5
536
100
AcDbEntity
  8
2
100
AcDbLine
 10
-848.328446
 20
496.021273
 30
0.0
 11
-858.058276
 21
496.021273
 31
0.0
  0
ARC
  5
537
100
AcDbEntity
  8
2
100
AcDbCircle
 10
-853.976706
 20
492.846273
 30
0.0
 40
5.171058
100
AcDbArc
 50
142.121121
 51
217.878879
  0
LINE
  5
538
100
AcDbEntity
  8
2
100
AcDbLine
 10
-849.207126
 20
597.249952
 30
0.0
 11
-855.628446
 21
603.671273
 31
0.0
  0
LINE
  5
539
100
AcDbEntity
  8
2
100
AcDbLine
 10
-859.328446
 20
607.371273
 30
0.0
 11
-861.328446
 21
609.371273
 31
0.0
  0
LINE
  5
53A
100
AcDbEntity
  8
2
100
AcDbLine
 10
-849.207126
 20
521.492593
 30
0.0
 11
-855.628446
 21
515.071273
 31
0.0
  0
LINE
  5
53B
100
AcDbEntity
  8
2
100
AcDbLine
 10
-859.328446
 20
511.371273
 30
0.0
 11
-861.328446
 21
509.371273
 31
0.0
  0
LINE
  5
53C
100
AcDbEntity
  8
2
100
AcDbLine
 10
-859.328446
 20
623.371273
 30
0.0
 11
-874.516446
 21
623.371273
 31
0.0
  0
LINE
  5
53D
100
AcDbEntity
  8
2
100
AcDbLine
 10
-859.328446
 20
609.371273
 30
0.0
 11
-874.516446
 21
609.371273
 31
0.0
  0
LINE
  5
53E
100
AcDbEntity
  8
2
100
AcDbLine
 10
-875.328446
 20
622.559273
 30
0.0
 11
-875.328446
 21
610.183273
 31
0.0
  0
LINE
  5
53F
100
AcDbEntity
  8
2
 62
     2
100
AcDbLine
 10
-859.328446
 20
622.559273
 30
0.0
 11
-875.328446
 21
622.559273
 31
0.0
  0
LINE
  5
540
100
AcDbEntity
  8
2
 62
     2
100
AcDbLine
 10
-859.328446
 20
610.183273
 30
0.0
 11
-875.328446
 21
610.183273
 31
0.0
  0
LINE
  5
541
100
AcDbEntity
  8
2
100
AcDbLine
 10
-875.328446
 20
622.559273
 30
0.0
 11
-874.516446
 21
623.371273
 31
0.0
  0
LINE
  5
542
100
AcDbEntity
  8
2
100
AcDbLine
 10
-875.328446
 20
610.183273
 30
0.0
 11
-874.516446
 21
609.371273
 31
0.0
  0
LINE
  5
543
100
AcDbEntity
  8
2
100
AcDbLine
 10
-874.516446
 20
623.371273
 30
0.0
 11
-874.516446
 21
609.371273
 31
0.0
  0
LINE
  5
544
100
AcDbEntity
  8
2
100
AcDbLine
 10
-859.328446
 20
509.371273
 30
0.0
 11
-874.516446
 21
509.371273
 31
0.0
  0
LINE
  5
545
100
AcDbEntity
  8
2
100
AcDbLine
 10
-859.328446
 20
495.371273
 30
0.0
 11
-874.516446
 21
495.371273
 31
0.0
  0
LINE
  5
546
100
AcDbEntity
  8
2
100
AcDbLine
 10
-875.328446
 20
508.559273
 30
0.0
 11
-875.328446
 21
496.183273
 31
0.0
  0
LINE
  5
547
100
AcDbEntity
  8
2
 62
     2
100
AcDbLine
 10
-859.328446
 20
508.559273
 30
0.0
 11
-875.328446
 21
508.559273
 31
0.0
  0
LINE
  5
548
100
AcDbEntity
  8
2
 62
     2
100
AcDbLine
 10
-859.328446
 20
496.183273
 30
0.0
 11
-875.328446
 21
496.183273
 31
0.0
  0
LINE
  5
549
100
AcDbEntity
  8
2
100
AcDbLine
 10
-875.328446
 20
508.559273
 30
0.0
 11
-874.516446
 21
509.371273
 31
0.0
  0
LINE
  5
54A
100
AcDbEntity
  8
2
100
AcDbLine
 10
-875.328446
 20
496.183273
 30
0.0
 11
-874.516446
 21
495.371273
 31
0.0
  0
LINE
  5
54B
100
AcDbEntity
  8
2
100
AcDbLine
 10
-874.516446
 20
509.371273
 30
0.0
 11
-874.516446
 21
495.371273
 31
0.0
  0
LINE
  5
54C
100
AcDbEntity
  8
2
100
AcDbLine
 10
-840.832838
 20
482.253795
 30
0.0
 11
-840.992759
 21
487.371273
 31
0.0
  0
LINE
  5
54D
100
AcDbEntity
  8
2
 62
     2
100
AcDbLine
 10
-840.832838
 20
482.253795
 30
0.0
 11
-841.737821
 21
483.821273
 31
0.0
  0
LINE
  5
54E
100
AcDbEntity
  8
2
 62
     2
100
AcDbLine
 10
-841.737821
 20
483.821273
 30
0.0
 11
-841.848759
 21
487.371273
 31
0.0
  0
LINE
  5
54F
100
AcDbEntity
  8
2
100
AcDbLine
 10
-857.824055
 20
482.253795
 30
0.0
 11
-857.664134
 21
487.371273
 31
0.0
  0
LINE
  5
550
100
AcDbEntity
  8
2
100
AcDbLine
 10
-857.775071
 20
483.821273
 30
0.0
 11
-840.881821
 21
483.821273
 31
0.0
  0
LINE
  5
551
100
AcDbEntity
  8
2
 62
     2
100
AcDbLine
 10
-857.824055
 20
482.253795
 30
0.0
 11
-856.919071
 21
483.821273
 31
0.0
  0
LINE
  5
552
100
AcDbEntity
  8
2
 62
     2
100
AcDbLine
 10
-856.919071
 20
483.821273
 30
0.0
 11
-856.808134
 21
487.371273
 31
0.0
  0
LINE
  5
553
100
AcDbEntity
  8
2
100
AcDbLine
 10
-840.832838
 20
477.48875
 30
0.0
 11
-840.992759
 21
472.371273
 31
0.0
  0
LINE
  5
554
100
AcDbEntity
  8
2
 62
     2
100
AcDbLine
 10
-840.832838
 20
477.48875
 30
0.0
 11
-841.737821
 21
475.921273
 31
0.0
  0
LINE
  5
555
100
AcDbEntity
  8
2
 62
     2
100
AcDbLine
 10
-841.737821
 20
475.921273
 30
0.0
 11
-841.848759
 21
472.371273
 31
0.0
  0
LINE
  5
556
100
AcDbEntity
  8
2
100
AcDbLine
 10
-857.824055
 20
477.48875
 30
0.0
 11
-857.664134
 21
472.371273
 31
0.0
  0
LINE
  5
557
100
AcDbEntity
  8
2
100
AcDbLine
 10
-857.775071
 20
475.921273
 30
0.0
 11
-840.881821
 21
475.921273
 31
0.0
  0
LINE
  5
558
100
AcDbEntity
  8
2
 62
     2
100
AcDbLine
 10
-857.824055
 20
477.48875
 30
0.0
 11
-856.919071
 21
475.921273
 31
0.0
  0
LINE
  5
559
100
AcDbEntity
  8
2
 62
     2
100
AcDbLine
 10
-856.919071
 20
475.921273
 30
0.0
 11
-856.808134
 21
472.371273
 31
0.0
  0
LINE
  5
55A
100
AcDbEntity
  8
2
100
AcDbLine
 10
-840.832838
 20
477.48875
 30
0.0
 11
-840.832838
 21
482.253795
 31
0.0
  0
LINE
  5
55B
100
AcDbEntity
  8
2
100
AcDbLine
 10
-857.824055
 20
477.48875
 30
0.0
 11
-857.824055
 21
482.253795
 31
0.0
  0
LINE
  5
55C
100
AcDbEntity
  8
2
100
AcDbLine
 10
-840.832838
 20
638.74675
 30
0.0
 11
-841.063321
 21
631.371273
 31
0.0
  0
LINE
  5
55D
100
AcDbEntity
  8
2
100
AcDbLine
 10
-840.881821
 20
637.179273
 30
0.0
 11
-857.775071
 21
637.179273
 31
0.0
  0
LINE
  5
55E
100
AcDbEntity
  8
2
 62
     2
100
AcDbLine
 10
-840.832838
 20
638.74675
 30
0.0
 11
-841.737821
 21
637.179273
 31
0.0
  0
LINE
  5
55F
100
AcDbEntity
  8
2
 62
     2
100
AcDbLine
 10
-841.737821
 20
637.179273
 30
0.0
 11
-841.919321
 21
631.371273
 31
0.0
  0
LINE
  5
560
100
AcDbEntity
  8
2
100
AcDbLine
 10
-857.824055
 20
638.74675
 30
0.0
 11
-857.593571
 21
631.371273
 31
0.0
  0
LINE
  5
561
100
AcDbEntity
  8
2
 62
     2
100
AcDbLine
 10
-857.824055
 20
638.74675
 30
0.0
 11
-856.919071
 21
637.179273
 31
0.0
  0
LINE
  5
562
100
AcDbEntity
  8
2
 62
     2
100
AcDbLine
 10
-856.919071
 20
637.179273
 30
0.0
 11
-856.737571
 21
631.371273
 31
0.0
  0
LINE
  5
563
100
AcDbEntity
  8
2
100
AcDbLine
 10
-840.828446
 20
638.74675
 30
0.0
 11
-857.828446
 21
638.74675
 31
0.0
  0
LINE
  5
564
100
AcDbEntity
  8
2
100
AcDbLine
 10
-857.828446
 20
657.74675
 30
0.0
 11
-857.828446
 21
638.74675
 31
0.0
  0
LINE
  5
565
100
AcDbEntity
  8
2
100
AcDbLine
 10
-840.828446
 20
642.24675
 30
0.0
 11
-840.828446
 21
638.74675
 31
0.0
  0
LINE
  5
566
100
AcDbEntity
  8
2
100
AcDbLine
 10
-835.828446
 20
660.74675
 30
0.0
 11
-854.828446
 21
660.74675
 31
0.0
  0
LINE
  5
567
100
AcDbEntity
  8
2
100
AcDbLine
 10
-835.828446
 20
643.74675
 30
0.0
 11
-839.328446
 21
643.74675
 31
0.0
  0
LINE
  5
568
100
AcDbEntity
  8
2
  6
CENTER
 62
     2
100
AcDbLine
 10
-757.243033
 20
652.24675
 30
0.0
 11
-866.166606
 21
652.24675
 31
0.0
  0
ARC
  5
569
100
AcDbEntity
  8
2
100
AcDbCircle
 10
-854.828446
 20
657.74675
 30
0.0
 40
3.0
100
AcDbArc
 50
90.0
 51
180.0
  0
ARC
  5
56A
100
AcDbEntity
  8
2
100
AcDbCircle
 10
-839.328446
 20
642.24675
 30
0.0
 40
1.5
100
AcDbArc
 50
90.0
 51
180.0
  0
LINE
  5
56B
100
AcDbEntity
  8
2
100
AcDbLine
 10
-835.828446
 20
660.74675
 30
0.0
 11
-835.828446
 21
643.74675
 31
0.0
  0
LINE
  5
56C
100
AcDbEntity
  8
2
100
AcDbLine
 10
-842.828446
 20
658.74675
 30
0.0
 11
-852.828446
 21
658.74675
 31
0.0
  0
LINE
  5
56D
100
AcDbEntity
  8
2
100
AcDbLine
 10
-854.828446
 20
656.74675
 30
0.0
 11
-854.828446
 21
646.74675
 31
0.0
  0
LINE
  5
56E
100
AcDbEntity
  8
2
100
AcDbLine
 10
-843.828446
 20
644.74675
 30
0.0
 11
-852.828446
 21
644.74675
 31
0.0
  0
LINE
  5
56F
100
AcDbEntity
  8
2
100
AcDbLine
 10
-840.828446
 20
656.74675
 30
0.0
 11
-840.828446
 21
647.74675
 31
0.0
  0
ARC
  5
570
100
AcDbEntity
  8
2
100
AcDbCircle
 10
-852.828446
 20
656.74675
 30
0.0
 40
2.0
100
AcDbArc
 50
90.0
 51
180.0
  0
ARC
  5
571
100
AcDbEntity
  8
2
100
AcDbCircle
 10
-852.828446
 20
646.74675
 30
0.0
 40
2.0
100
AcDbArc
 50
180.0
 51
270.0
  0
ARC
  5
572
100
AcDbEntity
  8
2
100
AcDbCircle
 10
-842.828446
 20
656.74675
 30
0.0
 40
2.0
100
AcDbArc
 50
0.0
 51
90.0
  0
ARC
  5
573
100
AcDbEntity
  8
2
100
AcDbCircle
 10
-840.828446
 20
644.74675
 30
0.0
 40
3.0
100
AcDbArc
 50
90.0
 51
180.0
  0
LINE
  5
574
100
AcDbEntity
  8
2
100
AcDbLine
 10
-830.828446
 20
661.340017
 30
0.0
 11
-830.828446
 21
643.153484
 31
0.0
  0
LINE
  5
575
100
AcDbEntity
  8
2
100
AcDbLine
 10
-814.828446
 20
661.340017
 30
0.0
 11
-814.828446
 21
643.153484
 31
0.0
  0
LINE
  5
576
100
AcDbEntity
  8
2
100
AcDbLine
 10
-830.828446
 20
660.57775
 30
0.0
 11
-835.828446
 21
660.57775
 31
0.0
  0
LINE
  5
577
100
AcDbEntity
  8
2
100
AcDbLine
 10
-830.828446
 20
643.91575
 30
0.0
 11
-835.828446
 21
643.91575
 31
0.0
  0
LINE
  5
578
100
AcDbEntity
  8
2
 62
     2
100
AcDbLine
 10
-830.828446
 20
659.72175
 30
0.0
 11
-834.345811
 21
659.72175
 31
0.0
  0
LINE
  5
579
100
AcDbEntity
  8
2
 62
     2
100
AcDbLine
 10
-830.828446
 20
644.77175
 30
0.0
 11
-834.345811
 21
644.77175
 31
0.0
  0
LINE
  5
57A
100
AcDbEntity
  8
2
 62
     2
100
AcDbLine
 10
-835.828446
 20
660.57775
 30
0.0
 11
-834.345811
 21
659.72175
 31
0.0
  0
LINE
  5
57B
100
AcDbEntity
  8
2
 62
     2
100
AcDbLine
 10
-835.828446
 20
643.91575
 30
0.0
 11
-834.345811
 21
644.77175
 31
0.0
  0
LINE
  5
57C
100
AcDbEntity
  8
2
100
AcDbLine
 10
-834.345811
 20
660.57775
 30
0.0
 11
-834.345811
 21
643.91575
 31
0.0
  0
LINE
  5
57D
100
AcDbEntity
  8
2
100
AcDbLine
 10
-816.328446
 20
664.371106
 30
0.0
 11
-829.328446
 21
664.371106
 31
0.0
  0
LINE
  5
57E
100
AcDbEntity
  8
2
100
AcDbLine
 10
-816.328446
 20
658.308928
 30
0.0
 11
-829.328446
 21
658.308928
 31
0.0
  0
LINE
  5
57F
100
AcDbEntity
  8
2
100
AcDbLine
 10
-816.328446
 20
646.184572
 30
0.0
 11
-829.328446
 21
646.184572
 31
0.0
  0
LINE
  5
580
100
AcDbEntity
  8
2
100
AcDbLine
 10
-816.328446
 20
640.122395
 30
0.0
 11
-829.328446
 21
640.122395
 31
0.0
  0
ARC
  5
581
100
AcDbEntity
  8
2
100
AcDbCircle
 10
-818.640946
 20
661.340017
 30
0.0
 40
3.8125
100
AcDbArc
 50
307.340993
 51
52.659007
  0
ARC
  5
582
100
AcDbEntity
  8
2
100
AcDbCircle
 10
-818.640946
 20
643.153484
 30
0.0
 40
3.8125
100
AcDbArc
 50
307.340993
 51
52.659007
  0
ARC
  5
583
100
AcDbEntity
  8
2
100
AcDbCircle
 10
-827.015946
 20
661.340017
 30
0.0
 40
3.8125
100
AcDbArc
 50
127.340993
 51
232.659007
  0
ARC
  5
584
100
AcDbEntity
  8
2
100
AcDbCircle
 10
-827.015946
 20
643.153484
 30
0.0
 40
3.8125
100
AcDbArc
 50
127.340993
 51
232.659007
  0
ARC
  5
585
100
AcDbEntity
  8
2
100
AcDbCircle
 10
-827.828446
 20
652.24675
 30
0.0
 40
13.0
100
AcDbArc
 50
332.204228
 51
27.795772
  0
ARC
  5
586
100
AcDbEntity
  8
2
100
AcDbCircle
 10
-817.828446
 20
652.24675
 30
0.0
 40
13.0
100
AcDbArc
 50
152.204228
 51
207.795772
  0
LINE
  5
587
100
AcDbEntity
  8
2
100
AcDbLine
 10
-769.328446
 20
657.24675
 30
0.0
 11
-814.828446
 21
657.24675
 31
0.0
  0
LINE
  5
588
100
AcDbEntity
  8
2
100
AcDbLine
 10
-769.328446
 20
647.24675
 30
0.0
 11
-814.828446
 21
647.24675
 31
0.0
  0
LINE
  5
589
100
AcDbEntity
  8
2
100
AcDbLine
 10
-616.332838
 20
638.74675
 30
0.0
 11
-616.563321
 21
631.371273
 31
0.0
  0
LINE
  5
58A
100
AcDbEntity
  8
2
100
AcDbLine
 10
-616.381821
 20
637.179273
 30
0.0
 11
-633.275071
 21
637.179273
 31
0.0
  0
LINE
  5
58B
100
AcDbEntity
  8
2
 62
     2
100
AcDbLine
 10
-616.332838
 20
638.74675
 30
0.0
 11
-617.237821
 21
637.179273
 31
0.0
  0
LINE
  5
58C
100
AcDbEntity
  8
2
100
AcDbLine
 10
-633.324055
 20
638.74675
 30
0.0
 11
-633.093571
 21
631.371273
 31
0.0
  0
LINE
  5
58D
100
AcDbEntity
  8
2
 62
     2
100
AcDbLine
 10
-633.324055
 20
638.74675
 30
0.0
 11
-632.419071
 21
637.179273
 31
0.0
  0
LINE
  5
58E
100
AcDbEntity
  8
2
 62
     2
100
AcDbLine
 10
-632.419071
 20
637.179273
 30
0.0
 11
-632.237571
 21
631.371273
 31
0.0
  0
LINE
  5
58F
100
AcDbEntity
  8
2
100
AcDbLine
 10
-616.328446
 20
638.74675
 30
0.0
 11
-633.328446
 21
638.74675
 31
0.0
  0
LINE
  5
590
100
AcDbEntity
  8
2
100
AcDbLine
 10
-633.328446
 20
657.74675
 30
0.0
 11
-633.328446
 21
638.74675
 31
0.0
  0
LINE
  5
591
100
AcDbEntity
  8
2
100
AcDbLine
 10
-616.328446
 20
642.24675
 30
0.0
 11
-616.328446
 21
638.74675
 31
0.0
  0
LINE
  5
592
100
AcDbEntity
  8
2
100
AcDbLine
 10
-611.328446
 20
660.74675
 30
0.0
 11
-630.328446
 21
660.74675
 31
0.0
  0
LINE
  5
593
100
AcDbEntity
  8
2
100
AcDbLine
 10
-611.328446
 20
643.74675
 30
0.0
 11
-614.828446
 21
643.74675
 31
0.0
  0
LINE
  5
594
100
AcDbEntity
  8
2
  6
CENTER
 62
     2
100
AcDbLine
 10
-532.120017
 20
652.24675
 30
0.0
 11
-641.666606
 21
652.24675
 31
0.0
  0
ARC
  5
595
100
AcDbEntity
  8
2
100
AcDbCircle
 10
-630.328446
 20
657.74675
 30
0.0
 40
3.0
100
AcDbArc
 50
90.0
 51
180.0
  0
ARC
  5
596
100
AcDbEntity
  8
2
100
AcDbCircle
 10
-614.828446
 20
642.24675
 30
0.0
 40
1.5
100
AcDbArc
 50
90.0
 51
180.0
  0
LINE
  5
597
100
AcDbEntity
  8
2
100
AcDbLine
 10
-611.328446
 20
660.74675
 30
0.0
 11
-611.328446
 21
643.74675
 31
0.0
  0
LINE
  5
598
100
AcDbEntity
  8
2
100
AcDbLine
 10
-618.328446
 20
658.74675
 30
0.0
 11
-628.328446
 21
658.74675
 31
0.0
  0
LINE
  5
599
100
AcDbEntity
  8
2
100
AcDbLine
 10
-630.328446
 20
656.74675
 30
0.0
 11
-630.328446
 21
646.74675
 31
0.0
  0
LINE
  5
59A
100
AcDbEntity
  8
2
100
AcDbLine
 10
-619.328446
 20
644.74675
 30
0.0
 11
-628.328446
 21
644.74675
 31
0.0
  0
LINE
  5
59B
100
AcDbEntity
  8
2
100
AcDbLine
 10
-616.328446
 20
656.74675
 30
0.0
 11
-616.328446
 21
647.74675
 31
0.0
  0
ARC
  5
59C
100
AcDbEntity
  8
2
100
AcDbCircle
 10
-628.328446
 20
656.74675
 30
0.0
 40
2.0
100
AcDbArc
 50
90.0
 51
180.0
  0
ARC
  5
59D
100
AcDbEntity
  8
2
100
AcDbCircle
 10
-628.328446
 20
646.74675
 30
0.0
 40
2.0
100
AcDbArc
 50
180.0
 51
270.0
  0
ARC
  5
59E
100
AcDbEntity
  8
2
100
AcDbCircle
 10
-618.328446
 20
656.74675
 30
0.0
 40
2.0
100
AcDbArc
 50
0.0
 51
90.0
  0
ARC
  5
59F
100
AcDbEntity
  8
2
100
AcDbCircle
 10
-616.328446
 20
644.74675
 30
0.0
 40
3.0
100
AcDbArc
 50
90.0
 51
180.0
  0
LINE
  5
5A0
100
AcDbEntity
  8
2
100
AcDbLine
 10
-606.328446
 20
661.340017
 30
0.0
 11
-606.328446
 21
643.153484
 31
0.0
  0
LINE
  5
5A1
100
AcDbEntity
  8
2
100
AcDbLine
 10
-590.328446
 20
661.340017
 30
0.0
 11
-590.328446
 21
643.153484
 31
0.0
  0
LINE
  5
5A2
100
AcDbEntity
  8
2
100
AcDbLine
 10
-606.328446
 20
660.57775
 30
0.0
 11
-611.328446
 21
660.57775
 31
0.0
  0
LINE
  5
5A3
100
AcDbEntity
  8
2
100
AcDbLine
 10
-606.328446
 20
643.91575
 30
0.0
 11
-611.328446
 21
643.91575
 31
0.0
  0
LINE
  5
5A4
100
AcDbEntity
  8
2
 62
     2
100
AcDbLine
 10
-606.328446
 20
659.72175
 30
0.0
 11
-609.845811
 21
659.72175
 31
0.0
  0
LINE
  5
5A5
100
AcDbEntity
  8
2
 62
     2
100
AcDbLine
 10
-606.328446
 20
644.77175
 30
0.0
 11
-609.845811
 21
644.77175
 31
0.0
  0
LINE
  5
5A6
100
AcDbEntity
  8
2
 62
     2
100
AcDbLine
 10
-611.328446
 20
660.57775
 30
0.0
 11
-609.845811
 21
659.72175
 31
0.0
  0
LINE
  5
5A7
100
AcDbEntity
  8
2
 62
     2
100
AcDbLine
 10
-611.328446
 20
643.91575
 30
0.0
 11
-609.845811
 21
644.77175
 31
0.0
  0
LINE
  5
5A8
100
AcDbEntity
  8
2
100
AcDbLine
 10
-609.845811
 20
660.57775
 30
0.0
 11
-609.845811
 21
643.91575
 31
0.0
  0
LINE
  5
5A9
100
AcDbEntity
  8
2
100
AcDbLine
 10
-591.828446
 20
664.371106
 30
0.0
 11
-604.828446
 21
664.371106
 31
0.0
  0
LINE
  5
5AA
100
AcDbEntity
  8
2
100
AcDbLine
 10
-591.828446
 20
658.308928
 30
0.0
 11
-604.828446
 21
658.308928
 31
0.0
  0
LINE
  5
5AB
100
AcDbEntity
  8
2
100
AcDbLine
 10
-591.828446
 20
646.184572
 30
0.0
 11
-604.828446
 21
646.184572
 31
0.0
  0
LINE
  5
5AC
100
AcDbEntity
  8
2
100
AcDbLine
 10
-591.828446
 20
640.122395
 30
0.0
 11
-604.828446
 21
640.122395
 31
0.0
  0
ARC
  5
5AD
100
AcDbEntity
  8
2
100
AcDbCircle
 10
-594.140946
 20
661.340017
 30
0.0
 40
3.8125
100
AcDbArc
 50
307.340993
 51
52.659007
  0
ARC
  5
5AE
100
AcDbEntity
  8
2
100
AcDbCircle
 10
-594.140946
 20
643.153484
 30
0.0
 40
3.8125
100
AcDbArc
 50
307.340993
 51
52.659007
  0
ARC
  5
5AF
100
AcDbEntity
  8
2
100
AcDbCircle
 10
-602.515946
 20
661.340017
 30
0.0
 40
3.8125
100
AcDbArc
 50
127.340993
 51
232.659007
  0
ARC
  5
5B0
100
AcDbEntity
  8
2
100
AcDbCircle
 10
-602.515946
 20
643.153484
 30
0.0
 40
3.8125
100
AcDbArc
 50
127.340993
 51
232.659007
  0
ARC
  5
5B1
100
AcDbEntity
  8
2
100
AcDbCircle
 10
-603.328446
 20
652.24675
 30
0.0
 40
13.0
100
AcDbArc
 50
332.204228
 51
27.795772
  0
ARC
  5
5B2
100
AcDbEntity
  8
2
100
AcDbCircle
 10
-593.328446
 20
652.24675
 30
0.0
 40
13.0
100
AcDbArc
 50
152.204228
 51
207.795772
  0
LINE
  5
5B3
100
AcDbEntity
  8
2
100
AcDbLine
 10
-544.828446
 20
657.24675
 30
0.0
 11
-590.328446
 21
657.24675
 31
0.0
  0
LINE
  5
5B4
100
AcDbEntity
  8
2
100
AcDbLine
 10
-544.828446
 20
647.24675
 30
0.0
 11
-590.328446
 21
647.24675
 31
0.0
  0
LINE
  5
5B5
100
AcDbEntity
  8
2
100
AcDbLine
 10
-613.328446
 20
628.871273
 30
0.0
 11
-613.328446
 21
631.371273
 31
0.0
  0
LINE
  5
5B6
100
AcDbEntity
  8
2
  6
CENTER
 62
     2
100
AcDbLine
 10
-562.432523
 20
59.310393
 30
0.0
 11
-562.432523
 21
13.777435
 31
0.0
  0
LINE
  5
5B7
100
AcDbEntity
  8
2
  6
CENTER
 62
     2
100
AcDbLine
 10
-442.22437
 20
57.890822
 30
0.0
 11
-442.22437
 21
13.777435
 31
0.0
  0
LINE
  5
5B8
100
AcDbEntity
  8
2
  6
CENTER
 62
     2
100
AcDbLine
 10
168.667477
 20
59.310393
 30
0.0
 11
168.667477
 21
13.777435
 31
0.0
  0
LINE
  5
5B9
100
AcDbEntity
  8
2
  6
CENTER
 62
     2
100
AcDbLine
 10
288.87563
 20
57.890822
 30
0.0
 11
288.87563
 21
13.777435
 31
0.0
  0
ARC
  5
5BA
100
AcDbEntity
  8
2
100
AcDbCircle
 10
-418.328446
 20
203.849035
 30
0.0
 40
2.0
100
AcDbArc
 50
90.0
 51
180.0
  0
ARC
  5
5BB
100
AcDbEntity
  8
2
100
AcDbCircle
 10
-425.744645
 20
206.849035
 30
0.0
 40
6.0
100
AcDbArc
 50
270.0
 51
337.975687
  0
ARC
  5
5BC
100
AcDbEntity
  8
2
100
AcDbCircle
 10
-586.328446
 20
203.849035
 30
0.0
 40
2.0
100
AcDbArc
 50
0.0
 51
90.0
  0
ARC
  5
5BD
100
AcDbEntity
  8
2
100
AcDbCircle
 10
-578.912248
 20
206.849035
 30
0.0
 40
6.0
100
AcDbArc
 50
202.024313
 51
270.0
  0
LINE
  5
5BE
100
AcDbEntity
  8
2
100
AcDbLine
 10
-637.328446
 20
64.349035
 30
0.0
 11
-612.328446
 21
64.349035
 31
0.0
  0
LINE
  5
5BF
100
AcDbEntity
  8
2
100
AcDbLine
 10
-392.328446
 20
64.349035
 30
0.0
 11
-367.328446
 21
64.349035
 31
0.0
  0
LINE
  5
5C0
100
AcDbEntity
  8
2
100
AcDbLine
 10
-148.328446
 20
574.371273
 30
0.0
 11
-132.328446
 21
574.371273
 31
0.0
  0
ARC
  5
5C1
100
AcDbEntity
  8
2
100
AcDbCircle
 10
-150.534569
 20
566.871273
 30
0.0
 40
18.206122
100
AcDbArc
 50
335.672652
 51
24.327348
  0
LINE
  5
5C2
100
AcDbEntity
  8
2
100
AcDbLine
 10
-148.328446
 20
544.371273
 30
0.0
 11
-132.328446
 21
544.371273
 31
0.0
  0
LINE
  5
5C3
100
AcDbEntity
  8
2
100
AcDbLine
 10
-132.328446
 20
544.371273
 30
0.0
 11
-132.328446
 21
574.371273
 31
0.0
  0
LINE
  5
5C4
100
AcDbEntity
  8
2
100
AcDbLine
 10
-148.328446
 20
559.371273
 30
0.0
 11
-133.945027
 21
559.371273
 31
0.0
  0
ARC
  5
5C5
100
AcDbEntity
  8
2
100
AcDbCircle
 10
-150.534569
 20
551.871273
 30
0.0
 40
18.206122
100
AcDbArc
 50
335.672652
 51
24.327348
  0
LINE
  5
5C6
100
AcDbEntity
  8
2
  6
CENTER
 62
     2
100
AcDbLine
 10
-104.476478
 20
559.371273
 30
0.0
 11
-896.036765
 21
559.371273
 31
0.0
  0
LINE
  5
5C7
100
AcDbEntity
  8
2
100
AcDbLine
 10
-171.328446
 20
205.849035
 30
0.0
 11
-171.328446
 21
61.849035
 31
0.0
  0
LINE
  5
5C8
100
AcDbEntity
  8
2
100
AcDbLine
 10
-172.328446
 20
203.349035
 30
0.0
 11
-171.328446
 21
203.349035
 31
0.0
  0
LINE
  5
5C9
100
AcDbEntity
  8
2
100
AcDbLine
 10
-172.328446
 20
64.349035
 30
0.0
 11
-171.328446
 21
64.349035
 31
0.0
  0
LINE
  5
5CA
100
AcDbEntity
  8
2
100
AcDbLine
 10
-156.328446
 20
201.849035
 30
0.0
 11
-145.328446
 21
201.849035
 31
0.0
  0
ARC
  5
5CB
100
AcDbEntity
  8
2
100
AcDbCircle
 10
-157.871381
 20
196.349035
 30
0.0
 40
12.542935
100
AcDbArc
 50
333.992176
 51
26.007824
  0
LINE
  5
5CC
100
AcDbEntity
  8
2
100
AcDbLine
 10
-156.328446
 20
179.849035
 30
0.0
 11
-145.328446
 21
179.849035
 31
0.0
  0
LINE
  5
5CD
100
AcDbEntity
  8
2
100
AcDbLine
 10
-145.328446
 20
179.849035
 30
0.0
 11
-145.328446
 21
201.849035
 31
0.0
  0
LINE
  5
5CE
100
AcDbEntity
  8
2
100
AcDbLine
 10
-156.328446
 20
190.849035
 30
0.0
 11
-146.598617
 21
190.849035
 31
0.0
  0
ARC
  5
5CF
100
AcDbEntity
  8
2
100
AcDbCircle
 10
-157.871381
 20
185.349035
 30
0.0
 40
12.542935
100
AcDbArc
 50
333.992176
 51
26.007824
  0
LINE
  5
5D0
100
AcDbEntity
  8
2
100
AcDbLine
 10
-156.328446
 20
87.849035
 30
0.0
 11
-145.328446
 21
87.849035
 31
0.0
  0
ARC
  5
5D1
100
AcDbEntity
  8
2
100
AcDbCircle
 10
-157.871381
 20
82.349035
 30
0.0
 40
12.542935
100
AcDbArc
 50
333.992176
 51
26.007824
  0
LINE
  5
5D2
100
AcDbEntity
  8
2
100
AcDbLine
 10
-156.328446
 20
65.849035
 30
0.0
 11
-145.328446
 21
65.849035
 31
0.0
  0
LINE
  5
5D3
100
AcDbEntity
  8
2
100
AcDbLine
 10
-145.328446
 20
65.849035
 30
0.0
 11
-145.328446
 21
87.849035
 31
0.0
  0
LINE
  5
5D4
100
AcDbEntity
  8
2
100
AcDbLine
 10
-156.328446
 20
76.849035
 30
0.0
 11
-146.598617
 21
76.849035
 31
0.0
  0
ARC
  5
5D5
100
AcDbEntity
  8
2
100
AcDbCircle
 10
-157.871381
 20
71.349035
 30
0.0
 40
12.542935
100
AcDbArc
 50
333.992176
 51
26.007824
  0
LINE
  5
5D6
100
AcDbEntity
  8
2
  6
CENTER
 62
     2
100
AcDbLine
 10
-115.52761
 20
190.849035
 30
0.0
 11
-403.528446
 21
190.849035
 31
0.0
  0
LINE
  5
5D7
100
AcDbEntity
  8
2
  6
CENTER
 62
     2
100
AcDbLine
 10
-114.262885
 20
76.849035
 30
0.0
 11
-403.528446
 21
76.849035
 31
0.0
  0
LINE
  5
5D8
100
AcDbEntity
  8
2
100
AcDbLine
 10
-145.328446
 20
197.849035
 30
0.0
 11
-130.140446
 21
197.849035
 31
0.0
  0
LINE
  5
5D9
100
AcDbEntity
  8
2
100
AcDbLine
 10
-145.328446
 20
183.849035
 30
0.0
 11
-130.140446
 21
183.849035
 31
0.0
  0
LINE
  5
5DA
100
AcDbEntity
  8
2
100
AcDbLine
 10
-129.328446
 20
197.037035
 30
0.0
 11
-129.328446
 21
184.661035
 31
0.0
  0
LINE
  5
5DB
100
AcDbEntity
  8
2
 62
     2
100
AcDbLine
 10
-145.328446
 20
197.037035
 30
0.0
 11
-129.328446
 21
197.037035
 31
0.0
  0
LINE
  5
5DC
100
AcDbEntity
  8
2
 62
     2
100
AcDbLine
 10
-145.328446
 20
184.661035
 30
0.0
 11
-129.328446
 21
184.661035
 31
0.0
  0
LINE
  5
5DD
100
AcDbEntity
  8
2
100
AcDbLine
 10
-129.328446
 20
197.037035
 30
0.0
 11
-130.140446
 21
197.849035
 31
0.0
  0
LINE
  5
5DE
100
AcDbEntity
  8
2
100
AcDbLine
 10
-129.328446
 20
184.661035
 30
0.0
 11
-130.140446
 21
183.849035
 31
0.0
  0
LINE
  5
5DF
100
AcDbEntity
  8
2
100
AcDbLine
 10
-130.140446
 20
197.849035
 30
0.0
 11
-130.140446
 21
183.849035
 31
0.0
  0
LINE
  5
5E0
100
AcDbEntity
  8
2
100
AcDbLine
 10
-145.328446
 20
83.849035
 30
0.0
 11
-130.140446
 21
83.849035
 31
0.0
  0
LINE
  5
5E1
100
AcDbEntity
  8
2
100
AcDbLine
 10
-145.328446
 20
69.849035
 30
0.0
 11
-130.140446
 21
69.849035
 31
0.0
  0
LINE
  5
5E2
100
AcDbEntity
  8
2
100
AcDbLine
 10
-129.328446
 20
83.037035
 30
0.0
 11
-129.328446
 21
70.661035
 31
0.0
  0
LINE
  5
5E3
100
AcDbEntity
  8
2
 62
     2
100
AcDbLine
 10
-145.328446
 20
83.037035
 30
0.0
 11
-129.328446
 21
83.037035
 31
0.0
  0
LINE
  5
5E4
100
AcDbEntity
  8
2
 62
     2
100
AcDbLine
 10
-145.328446
 20
70.661035
 30
0.0
 11
-129.328446
 21
70.661035
 31
0.0
  0
LINE
  5
5E5
100
AcDbEntity
  8
2
100
AcDbLine
 10
-129.328446
 20
83.037035
 30
0.0
 11
-130.140446
 21
83.849035
 31
0.0
  0
LINE
  5
5E6
100
AcDbEntity
  8
2
100
AcDbLine
 10
-129.328446
 20
70.661035
 30
0.0
 11
-130.140446
 21
69.849035
 31
0.0
  0
LINE
  5
5E7
100
AcDbEntity
  8
2
100
AcDbLine
 10
-130.140446
 20
83.849035
 30
0.0
 11
-130.140446
 21
69.849035
 31
0.0
  0
LINE
  5
5E8
100
AcDbEntity
  8
2
100
AcDbLine
 10
-153.328446
 20
113.849035
 30
0.0
 11
-152.328446
 21
113.849035
 31
0.0
  0
ARC
  5
5E9
100
AcDbEntity
  8
2
100
AcDbCircle
 10
-153.328446
 20
110.849035
 30
0.0
 40
3.0
100
AcDbArc
 50
90.0
 51
120.693598
  0
LINE
  5
5EA
100
AcDbEntity
  8
2
100
AcDbLine
 10
-152.328446
 20
114.849035
 30
0.0
 11
-149.328277
 21
114.849035
 31
0.0
  0
LINE
  5
5EB
100
AcDbEntity
  8
2
100
AcDbLine
 10
-147.328446
 20
151.149035
 30
0.0
 11
-133.945027
 21
151.149035
 31
0.0
  0
LINE
  5
5EC
100
AcDbEntity
  8
2
100
AcDbLine
 10
-133.945027
 20
151.149035
 30
0.0
 11
-132.328446
 21
148.349035
 31
0.0
  0
LINE
  5
5ED
100
AcDbEntity
  8
2
100
AcDbLine
 10
-132.328446
 20
148.349035
 30
0.0
 11
-132.328446
 21
119.349035
 31
0.0
  0
LINE
  5
5EE
100
AcDbEntity
  8
2
100
AcDbLine
 10
-139.543089
 20
142.499035
 30
0.0
 11
-133.945027
 21
142.499035
 31
0.0
  0
ARC
  5
5EF
100
AcDbEntity
  8
2
100
AcDbCircle
 10
-139.504961
 20
146.824035
 30
0.0
 40
7.04404
100
AcDbArc
 50
322.121121
 51
37.878879
  0
LINE
  5
5F0
100
AcDbEntity
  8
2
100
AcDbLine
 10
-142.328446
 20
116.549035
 30
0.0
 11
-133.945027
 21
116.549035
 31
0.0
  0
LINE
  5
5F1
100
AcDbEntity
  8
2
100
AcDbLine
 10
-133.945027
 20
116.549035
 30
0.0
 11
-132.328446
 21
119.349035
 31
0.0
  0
LINE
  5
5F2
100
AcDbEntity
  8
2
100
AcDbLine
 10
-139.543089
 20
125.199035
 30
0.0
 11
-133.945027
 21
125.199035
 31
0.0
  0
ARC
  5
5F3
100
AcDbEntity
  8
2
100
AcDbCircle
 10
-139.504961
 20
120.874035
 30
0.0
 40
7.04404
100
AcDbArc
 50
322.121121
 51
37.878879
  0
ARC
  5
5F4
100
AcDbEntity
  8
2
100
AcDbCircle
 10
-158.410922
 20
133.849035
 30
0.0
 40
25.95
100
AcDbArc
 50
340.528779
 51
19.471221
  0
LINE
  5
5F5
100
AcDbEntity
  8
2
100
AcDbLine
 10
-121.828446
 20
125.202035
 30
0.0
 11
-121.828446
 21
142.496035
 31
0.0
  0
LINE
  5
5F6
100
AcDbEntity
  8
2
100
AcDbLine
 10
-132.328446
 20
143.849035
 30
0.0
 11
-123.181446
 21
143.849035
 31
0.0
  0
LINE
  5
5F7
100
AcDbEntity
  8
2
100
AcDbLine
 10
-132.328446
 20
123.849035
 30
0.0
 11
-123.181446
 21
123.849035
 31
0.0
  0
LINE
  5
5F8
100
AcDbEntity
  8
2
 62
     2
100
AcDbLine
 10
-132.328446
 20
125.202035
 30
0.0
 11
-121.828446
 21
125.202035
 31
0.0
  0
LINE
  5
5F9
100
AcDbEntity
  8
2
 62
     2
100
AcDbLine
 10
-132.328446
 20
142.496035
 30
0.0
 11
-121.828446
 21
142.496035
 31
0.0
  0
LINE
  5
5FA
100
AcDbEntity
  8
2
100
AcDbLine
 10
-121.828446
 20
142.496035
 30
0.0
 11
-123.181446
 21
143.849035
 31
0.0
  0
LINE
  5
5FB
100
AcDbEntity
  8
2
100
AcDbLine
 10
-121.828446
 20
125.202035
 30
0.0
 11
-123.181446
 21
123.849035
 31
0.0
  0
LINE
  5
5FC
100
AcDbEntity
  8
2
100
AcDbLine
 10
-123.181446
 20
143.849035
 30
0.0
 11
-123.181446
 21
123.849035
 31
0.0
  0
ARC
  5
5FD
100
AcDbEntity
  8
2
100
AcDbCircle
 10
-155.328446
 20
133.849035
 30
0.0
 40
18.0
100
AcDbArc
 50
316.238257
 51
63.6122
  0
LINE
  5
5FE
100
AcDbEntity
  8
2
100
AcDbLine
 10
-156.328446
 20
61.849035
 30
0.0
 11
-156.328446
 21
108.809067
 31
0.0
  0
LINE
  5
5FF
100
AcDbEntity
  8
2
100
AcDbLine
 10
-156.328446
 20
174.249035
 30
0.0
 11
-156.328446
 21
205.849035
 31
0.0
  0
ARC
  5
600
100
AcDbEntity
  8
2
100
AcDbCircle
 10
-148.328446
 20
108.809067
 30
0.0
 40
8.0
100
AcDbArc
 50
118.358118
 51
180.0
  0
LINE
  5
601
100
AcDbEntity
  8
2
100
AcDbLine
 10
-152.328446
 20
113.849035
 30
0.0
 11
-152.328446
 21
115.73727
 31
0.0
  0
ARC
  5
602
100
AcDbEntity
  8
2
100
AcDbCircle
 10
-148.328446
 20
98.809067
 30
0.0
 40
8.0
100
AcDbArc
 50
105.618498
 51
180.0
  0
ARC
  5
603
100
AcDbEntity
  8
2
100
AcDbCircle
 10
-155.328446
 20
123.849035
 30
0.0
 40
18.0
100
AcDbArc
 50
285.618498
 51
336.074054
  0
LINE
  5
604
100
AcDbEntity
  8
2
100
AcDbLine
 10
-637.328446
 20
200.849035
 30
0.0
 11
-832.328446
 21
200.849035
 31
0.0
  0
LINE
  5
605
100
AcDbEntity
  8
2
100
AcDbLine
 10
-832.328446
 20
203.349035
 30
0.0
 11
-832.328446
 21
64.349035
 31
0.0
  0
LINE
  5
606
100
AcDbEntity
  8
2
100
AcDbLine
 10
-848.328446
 20
61.849035
 30
0.0
 11
-833.328446
 21
61.849035
 31
0.0
  0
LINE
  5
607
100
AcDbEntity
  8
2
100
AcDbLine
 10
-848.328446
 20
205.849035
 30
0.0
 11
-833.328446
 21
205.849035
 31
0.0
  0
LINE
  5
608
100
AcDbEntity
  8
2
100
AcDbLine
 10
-612.328446
 20
197.849035
 30
0.0
 11
-832.328446
 21
197.849035
 31
0.0
  0
LINE
  5
609
100
AcDbEntity
  8
2
100
AcDbLine
 10
-612.328446
 20
183.849035
 30
0.0
 11
-832.328446
 21
183.849035
 31
0.0
  0
LINE
  5
60A
100
AcDbEntity
  8
2
100
AcDbLine
 10
-612.328446
 20
69.849035
 30
0.0
 11
-832.328446
 21
69.849035
 31
0.0
  0
LINE
  5
60B
100
AcDbEntity
  8
2
100
AcDbLine
 10
-612.328446
 20
83.849035
 30
0.0
 11
-832.328446
 21
83.849035
 31
0.0
  0
LINE
  5
60C
100
AcDbEntity
  8
2
100
AcDbLine
 10
-832.328446
 20
66.849035
 30
0.0
 11
-637.328446
 21
66.849035
 31
0.0
  0
LINE
  5
60D
100
AcDbEntity
  8
2
100
AcDbLine
 10
-833.328446
 20
205.849035
 30
0.0
 11
-833.328446
 21
61.849035
 31
0.0
  0
LINE
  5
60E
100
AcDbEntity
  8
2
100
AcDbLine
 10
-832.328446
 20
203.349035
 30
0.0
 11
-833.328446
 21
203.349035
 31
0.0
  0
LINE
  5
60F
100
AcDbEntity
  8
2
100
AcDbLine
 10
-832.328446
 20
64.349035
 30
0.0
 11
-833.328446
 21
64.349035
 31
0.0
  0
LINE
  5
610
100
AcDbEntity
  8
2
100
AcDbLine
 10
-848.328446
 20
201.849035
 30
0.0
 11
-859.328446
 21
201.849035
 31
0.0
  0
ARC
  5
611
100
AcDbEntity
  8
2
100
AcDbCircle
 10
-846.785512
 20
196.349035
 30
0.0
 40
12.542935
100
AcDbArc
 50
153.992176
 51
206.007824
  0
LINE
  5
612
100
AcDbEntity
  8
2
100
AcDbLine
 10
-848.328446
 20
179.849035
 30
0.0
 11
-859.328446
 21
179.849035
 31
0.0
  0
LINE
  5
613
100
AcDbEntity
  8
2
100
AcDbLine
 10
-859.328446
 20
179.849035
 30
0.0
 11
-859.328446
 21
201.849035
 31
0.0
  0
LINE
  5
614
100
AcDbEntity
  8
2
100
AcDbLine
 10
-848.328446
 20
190.849035
 30
0.0
 11
-858.058276
 21
190.849035
 31
0.0
  0
ARC
  5
615
100
AcDbEntity
  8
2
100
AcDbCircle
 10
-846.785512
 20
185.349035
 30
0.0
 40
12.542935
100
AcDbArc
 50
153.992176
 51
206.007824
  0
LINE
  5
616
100
AcDbEntity
  8
2
100
AcDbLine
 10
-848.328446
 20
87.849035
 30
0.0
 11
-859.328446
 21
87.849035
 31
0.0
  0
ARC
  5
617
100
AcDbEntity
  8
2
100
AcDbCircle
 10
-846.785512
 20
82.349035
 30
0.0
 40
12.542935
100
AcDbArc
 50
153.992176
 51
206.007824
  0
LINE
  5
618
100
AcDbEntity
  8
2
100
AcDbLine
 10
-848.328446
 20
65.849035
 30
0.0
 11
-859.328446
 21
65.849035
 31
0.0
  0
LINE
  5
619
100
AcDbEntity
  8
2
100
AcDbLine
 10
-859.328446
 20
65.849035
 30
0.0
 11
-859.328446
 21
87.849035
 31
0.0
  0
LINE
  5
61A
100
AcDbEntity
  8
2
100
AcDbLine
 10
-848.328446
 20
76.849035
 30
0.0
 11
-858.058276
 21
76.849035
 31
0.0
  0
ARC
  5
61B
100
AcDbEntity
  8
2
100
AcDbCircle
 10
-846.785512
 20
71.349035
 30
0.0
 40
12.542935
100
AcDbArc
 50
153.992176
 51
206.007824
  0
LINE
  5
61C
100
AcDbEntity
  8
2
  6
CENTER
 62
     2
100
AcDbLine
 10
-601.128446
 20
190.849035
 30
0.0
 11
-889.129283
 21
190.849035
 31
0.0
  0
LINE
  5
61D
100
AcDbEntity
  8
2
  6
CENTER
 62
     2
100
AcDbLine
 10
-890.394008
 20
76.849035
 30
0.0
 11
-601.128446
 21
76.849035
 31
0.0
  0
LINE
  5
61E
100
AcDbEntity
  8
2
100
AcDbLine
 10
-859.328446
 20
197.849035
 30
0.0
 11
-874.516446
 21
197.849035
 31
0.0
  0
LINE
  5
61F
100
AcDbEntity
  8
2
100
AcDbLine
 10
-859.328446
 20
183.849035
 30
0.0
 11
-874.516446
 21
183.849035
 31
0.0
  0
LINE
  5
620
100
AcDbEntity
  8
2
100
AcDbLine
 10
-875.328446
 20
197.037035
 30
0.0
 11
-875.328446
 21
184.661035
 31
0.0
  0
LINE
  5
621
100
AcDbEntity
  8
2
 62
     2
100
AcDbLine
 10
-859.328446
 20
197.037035
 30
0.0
 11
-875.328446
 21
197.037035
 31
0.0
  0
LINE
  5
622
100
AcDbEntity
  8
2
 62
     2
100
AcDbLine
 10
-859.328446
 20
184.661035
 30
0.0
 11
-875.328446
 21
184.661035
 31
0.0
  0
LINE
  5
623
100
AcDbEntity
  8
2
100
AcDbLine
 10
-875.328446
 20
197.037035
 30
0.0
 11
-874.516446
 21
197.849035
 31
0.0
  0
LINE
  5
624
100
AcDbEntity
  8
2
100
AcDbLine
 10
-875.328446
 20
184.661035
 30
0.0
 11
-874.516446
 21
183.849035
 31
0.0
  0
LINE
  5
625
100
AcDbEntity
  8
2
100
AcDbLine
 10
-874.516446
 20
197.849035
 30
0.0
 11
-874.516446
 21
183.849035
 31
0.0
  0
LINE
  5
626
100
AcDbEntity
  8
2
100
AcDbLine
 10
-859.328446
 20
83.849035
 30
0.0
 11
-874.516446
 21
83.849035
 31
0.0
  0
LINE
  5
627
100
AcDbEntity
  8
2
100
AcDbLine
 10
-859.328446
 20
69.849035
 30
0.0
 11
-874.516446
 21
69.849035
 31
0.0
  0
LINE
  5
628
100
AcDbEntity
  8
2
100
AcDbLine
 10
-875.328446
 20
83.037035
 30
0.0
 11
-875.328446
 21
70.661035
 31
0.0
  0
LINE
  5
629
100
AcDbEntity
  8
2
 62
     2
100
AcDbLine
 10
-859.328446
 20
83.037035
 30
0.0
 11
-875.328446
 21
83.037035
 31
0.0
  0
LINE
  5
62A
100
AcDbEntity
  8
2
 62
     2
100
AcDbLine
 10
-859.328446
 20
70.661035
 30
0.0
 11
-875.328446
 21
70.661035
 31
0.0
  0
LINE
  5
62B
100
AcDbEntity
  8
2
100
AcDbLine
 10
-875.328446
 20
83.037035
 30
0.0
 11
-874.516446
 21
83.849035
 31
0.0
  0
LINE
  5
62C
100
AcDbEntity
  8
2
100
AcDbLine
 10
-875.328446
 20
70.661035
 30
0.0
 11
-874.516446
 21
69.849035
 31
0.0
  0
LINE
  5
62D
100
AcDbEntity
  8
2
100
AcDbLine
 10
-874.516446
 20
83.849035
 30
0.0
 11
-874.516446
 21
69.849035
 31
0.0
  0
LINE
  5
62E
100
AcDbEntity
  8
2
100
AcDbLine
 10
-851.328446
 20
113.849035
 30
0.0
 11
-852.328446
 21
113.849035
 31
0.0
  0
ARC
  5
62F
100
AcDbEntity
  8
2
100
AcDbCircle
 10
-851.328446
 20
110.849035
 30
0.0
 40
3.0
100
AcDbArc
 50
59.306402
 51
90.0
  0
ARC
  5
630
100
AcDbEntity
  8
2
100
AcDbCircle
 10
-849.328446
 20
133.849035
 30
0.0
 40
18.0
100
AcDbArc
 50
116.3878
 51
223.761743
  0
LINE
  5
631
100
AcDbEntity
  8
2
100
AcDbLine
 10
-848.328446
 20
61.849035
 30
0.0
 11
-848.328446
 21
108.809067
 31
0.0
  0
LINE
  5
632
100
AcDbEntity
  8
2
100
AcDbLine
 10
-848.328446
 20
174.249035
 30
0.0
 11
-848.328446
 21
205.849035
 31
0.0
  0
ARC
  5
633
100
AcDbEntity
  8
2
100
AcDbCircle
 10
-856.328446
 20
108.809067
 30
0.0
 40
8.0
100
AcDbArc
 50
0.0
 51
61.641882
  0
LINE
  5
634
100
AcDbEntity
  8
2
100
AcDbLine
 10
-852.328446
 20
113.849035
 30
0.0
 11
-852.328446
 21
115.73727
 31
0.0
  0
ARC
  5
635
100
AcDbEntity
  8
2
100
AcDbCircle
 10
-849.328446
 20
143.849035
 30
0.0
 40
18.0
100
AcDbArc
 50
111.698813
 51
196.12762
  0
LINE
  5
636
100
AcDbEntity
  8
2
100
AcDbLine
 10
211.771554
 20
278.849035
 30
0.0
 11
245.771554
 21
278.849035
 31
0.0
  0
LINE
  5
637
100
AcDbEntity
  8
2
100
AcDbLine
 10
210.771554
 20
277.849035
 30
0.0
 11
210.771554
 21
233.649035
 31
0.0
  0
LINE
  5
638
100
AcDbEntity
  8
2
100
AcDbLine
 10
246.771554
 20
277.849035
 30
0.0
 11
246.771554
 21
233.649035
 31
0.0
  0
LINE
  5
639
100
AcDbEntity
  8
2
100
AcDbLine
 10
-520.630548
 20
233.649035
 30
0.0
 11
-482.528446
 21
233.649035
 31
0.0
  0
LINE
  5
63A
100
AcDbEntity
  8
2
100
AcDbLine
 10
211.771554
 20
278.849035
 30
0.0
 11
210.771554
 21
277.849035
 31
0.0
  0
LINE
  5
63B
100
AcDbEntity
  8
2
100
AcDbLine
 10
246.771554
 20
277.849035
 30
0.0
 11
245.771554
 21
278.849035
 31
0.0
  0
LINE
  5
63C
100
AcDbEntity
  8
2
100
AcDbLine
 10
246.771554
 20
277.849035
 30
0.0
 11
210.771554
 21
277.849035
 31
0.0
  0
LINE
  5
63D
100
AcDbEntity
  8
2
100
AcDbLine
 10
-465.119554
 20
232.049035
 30
0.0
 11
-465.119554
 21
228.849035
 31
0.0
  0
LINE
  5
63E
100
AcDbEntity
  8
2
100
AcDbLine
 10
-526.370077
 20
232.049035
 30
0.0
 11
-526.370077
 21
228.849035
 31
0.0
  0
LINE
  5
63F
100
AcDbEntity
  8
2
100
AcDbLine
 10
-540.512213
 20
232.049035
 30
0.0
 11
-540.512213
 21
228.849035
 31
0.0
  0
LINE
  5
640
100
AcDbEntity
  8
2
100
AcDbLine
 10
-482.528446
 20
233.649035
 30
0.0
 11
-482.528446
 21
232.049035
 31
0.0
  0
LINE
  5
641
100
AcDbEntity
  8
2
100
AcDbLine
 10
-516.802192
 20
233.649035
 30
0.0
 11
-516.802192
 21
232.049035
 31
0.0
  0
LINE
  5
642
100
AcDbEntity
  8
2
100
AcDbLine
 10
-518.216334
 20
233.649035
 30
0.0
 11
-518.216334
 21
232.049035
 31
0.0
  0
LINE
  5
643
100
AcDbEntity
  8
2
100
AcDbLine
 10
-520.630548
 20
233.649035
 30
0.0
 11
-520.630548
 21
232.049035
 31
0.0
  0
LINE
  5
644
100
AcDbEntity
  8
2
100
AcDbLine
 10
246.76735
 20
277.849035
 30
0.0
 11
246.76735
 21
233.649035
 31
0.0
  0
LINE
  5
645
100
AcDbEntity
  8
2
100
AcDbLine
 10
229.160533
 20
277.849035
 30
0.0
 11
229.160533
 21
233.649035
 31
0.0
  0
LINE
  5
646
100
AcDbEntity
  8
2
100
AcDbLine
 10
228.382574
 20
277.849035
 30
0.0
 11
228.382574
 21
233.649035
 31
0.0
  0
LINE
  5
647
100
AcDbEntity
  8
2
100
AcDbLine
 10
210.775757
 20
277.849035
 30
0.0
 11
210.775757
 21
233.649035
 31
0.0
  0
LINE
  5
648
100
AcDbEntity
  8
2
100
AcDbLine
 10
245.042601
 20
233.649035
 30
0.0
 11
229.160533
 21
277.849035
 31
0.0
  0
LINE
  5
649
100
AcDbEntity
  8
2
100
AcDbLine
 10
230.885283
 20
233.649035
 30
0.0
 11
246.76735
 21
277.849035
 31
0.0
  0
LINE
  5
64A
100
AcDbEntity
  8
2
100
AcDbLine
 10
228.382574
 20
277.849035
 30
0.0
 11
212.500506
 21
233.649035
 31
0.0
  0
LINE
  5
64B
100
AcDbEntity
  8
2
100
AcDbLine
 10
210.775757
 20
277.849035
 30
0.0
 11
226.657825
 21
233.649035
 31
0.0
  0
ARC
  5
64C
100
AcDbEntity
  8
2
100
AcDbCircle
 10
248.528913
 20
133.849035
 30
0.0
 40
3.0
100
AcDbArc
 50
315.0
 51
45.0
  0
ARC
  5
64D
100
AcDbEntity
  8
2
100
AcDbCircle
 10
333.014194
 20
123.849035
 30
0.0
 40
3.0
100
AcDbArc
 50
135.0
 51
225.0
  0
ARC
  5
64E
100
AcDbEntity
  8
2
100
AcDbCircle
 10
348.014194
 20
138.849035
 30
0.0
 40
3.0
100
AcDbArc
 50
90.0
 51
135.0
  0
ARC
  5
64F
100
AcDbEntity
  8
2
100
AcDbCircle
 10
348.014194
 20
108.849035
 30
0.0
 40
3.0
100
AcDbArc
 50
225.0
 51
270.0
  0
ARC
  5
650
100
AcDbEntity
  8
2
100
AcDbCircle
 10
233.528913
 20
118.849035
 30
0.0
 40
3.0
100
AcDbArc
 50
270.0
 51
315.0
  0
ARC
  5
651
100
AcDbEntity
  8
2
100
AcDbCircle
 10
233.528913
 20
148.849035
 30
0.0
 40
3.0
100
AcDbArc
 50
45.0
 51
90.0
  0
LINE
  5
652
100
AcDbEntity
  8
2
100
AcDbLine
 10
198.771554
 20
214.849035
 30
0.0
 11
197.177604
 21
205.922917
 31
0.0
  0
LINE
  5
653
100
AcDbEntity
  8
2
100
AcDbLine
 10
175.771554
 20
115.849035
 30
0.0
 11
175.771554
 21
75.849035
 31
0.0
  0
ARC
  5
654
100
AcDbEntity
  8
2
100
AcDbCircle
 10
169.771554
 20
75.849035
 30
0.0
 40
6.0
100
AcDbArc
 50
270.0
 51
360.0
  0
ARC
  5
655
100
AcDbEntity
  8
2
100
AcDbCircle
 10
212.771554
 20
75.849035
 30
0.0
 40
6.0
100
AcDbArc
 50
270.0
 51
360.0
  0
LINE
  5
656
100
AcDbEntity
  8
2
100
AcDbLine
 10
179.699757
 20
164.849035
 30
0.0
 11
188.130537
 21
164.849035
 31
0.0
  0
ARC
  5
657
100
AcDbEntity
  8
2
100
AcDbCircle
 10
177.771554
 20
170.849035
 30
0.0
 40
6.0
100
AcDbArc
 50
288.745628
 51
360.0
  0
LINE
  5
658
100
AcDbEntity
  8
2
100
AcDbLine
 10
174.771554
 20
115.849035
 30
0.0
 11
174.771554
 21
102.849035
 31
0.0
  0
LINE
  5
659
100
AcDbEntity
  8
2
100
AcDbLine
 10
171.571554
 20
115.849035
 30
0.0
 11
171.571554
 21
102.849035
 31
0.0
  0
LINE
  5
65A
100
AcDbEntity
  8
2
100
AcDbLine
 10
175.771554
 20
102.849035
 30
0.0
 11
171.571554
 21
102.849035
 31
0.0
  0
ARC
  5
65B
100
AcDbEntity
  8
2
100
AcDbCircle
 10
188.130537
 20
170.849035
 30
0.0
 40
6.0
100
AcDbArc
 50
270.0
 51
360.0
  0
LINE
  5
65C
100
AcDbEntity
  8
2
100
AcDbLine
 10
170.071554
 20
103.749035
 30
0.0
 11
170.071554
 21
115.849035
 31
0.0
  0
LINE
  5
65D
100
AcDbEntity
  8
2
100
AcDbLine
 10
170.071554
 20
104.849035
 30
0.0
 11
166.071554
 21
104.849035
 31
0.0
  0
LINE
  5
65E
100
AcDbEntity
  8
2
100
AcDbLine
 10
166.071554
 20
104.849035
 30
0.0
 11
166.071554
 21
113.343419
 31
0.0
  0
ARC
  5
65F
100
AcDbEntity
  8
2
100
AcDbCircle
 10
172.684761
 20
107.349035
 30
0.0
 40
6.613208
100
AcDbArc
 50
157.788205
 51
202.211795
  0
LINE
  5
660
100
AcDbEntity
  8
2
100
AcDbLine
 10
170.071554
 20
114.849035
 30
0.0
 11
168.271554
 21
114.849035
 31
0.0
  0
LINE
  5
661
100
AcDbEntity
  8
2
100
AcDbLine
 10
170.071554
 20
109.849035
 30
0.0
 11
166.562301
 21
109.849035
 31
0.0
  0
ARC
  5
662
100
AcDbEntity
  8
2
100
AcDbCircle
 10
172.684761
 20
112.349035
 30
0.0
 40
6.613208
100
AcDbArc
 50
171.250577
 51
202.211795
  0
LINE
  5
663
100
AcDbEntity
  8
2
100
AcDbLine
 10
171.571554
 20
103.749035
 30
0.0
 11
170.071554
 21
103.749035
 31
0.0
  0
LINE
  5
664
100
AcDbEntity
  8
2
  6
CENTER
 62
     2
100
AcDbLine
 10
184.507778
 20
109.849035
 30
0.0
 11
158.792904
 21
109.849035
 31
0.0
  0
LINE
  5
665
100
AcDbEntity
  8
2
100
AcDbLine
 10
210.469452
 20
233.649035
 30
0.0
 11
248.571554
 21
233.649035
 31
0.0
  0
LINE
  5
666
100
AcDbEntity
  8
2
100
AcDbLine
 10
-519.328446
 20
278.849035
 30
0.0
 11
-485.328446
 21
278.849035
 31
0.0
  0
LINE
  5
667
100
AcDbEntity
  8
2
100
AcDbLine
 10
-520.328446
 20
277.849035
 30
0.0
 11
-520.328446
 21
233.649035
 31
0.0
  0
LINE
  5
668
100
AcDbEntity
  8
2
100
AcDbLine
 10
-484.328446
 20
277.849035
 30
0.0
 11
-484.328446
 21
233.649035
 31
0.0
  0
LINE
  5
669
100
AcDbEntity
  8
2
100
AcDbLine
 10
-519.328446
 20
278.849035
 30
0.0
 11
-520.328446
 21
277.849035
 31
0.0
  0
LINE
  5
66A
100
AcDbEntity
  8
2
100
AcDbLine
 10
-484.328446
 20
277.849035
 30
0.0
 11
-485.328446
 21
278.849035
 31
0.0
  0
LINE
  5
66B
100
AcDbEntity
  8
2
100
AcDbLine
 10
-484.328446
 20
277.849035
 30
0.0
 11
-520.328446
 21
277.849035
 31
0.0
  0
LINE
  5
66C
100
AcDbEntity
  8
2
100
AcDbLine
 10
-484.33265
 20
277.849035
 30
0.0
 11
-484.33265
 21
233.649035
 31
0.0
  0
LINE
  5
66D
100
AcDbEntity
  8
2
100
AcDbLine
 10
-501.939467
 20
277.849035
 30
0.0
 11
-501.939467
 21
233.649035
 31
0.0
  0
LINE
  5
66E
100
AcDbEntity
  8
2
100
AcDbLine
 10
-502.717426
 20
277.849035
 30
0.0
 11
-502.717426
 21
233.649035
 31
0.0
  0
LINE
  5
66F
100
AcDbEntity
  8
2
100
AcDbLine
 10
-520.324243
 20
277.849035
 30
0.0
 11
-520.324243
 21
233.649035
 31
0.0
  0
LINE
  5
670
100
AcDbEntity
  8
2
100
AcDbLine
 10
-486.057399
 20
233.649035
 30
0.0
 11
-501.939467
 21
277.849035
 31
0.0
  0
LINE
  5
671
100
AcDbEntity
  8
2
100
AcDbLine
 10
-500.214717
 20
233.649035
 30
0.0
 11
-484.33265
 21
277.849035
 31
0.0
  0
LINE
  5
672
100
AcDbEntity
  8
2
100
AcDbLine
 10
-502.717426
 20
277.849035
 30
0.0
 11
-518.599494
 21
233.649035
 31
0.0
  0
LINE
  5
673
100
AcDbEntity
  8
2
100
AcDbLine
 10
-520.324243
 20
277.849035
 30
0.0
 11
-504.442175
 21
233.649035
 31
0.0
  0
ARC
  5
674
100
AcDbEntity
  8
2
100
AcDbCircle
 10
130.771554
 20
67.849035
 30
0.0
 40
2.0
100
AcDbArc
 50
90.0
 51
180.0
  0
LINE
  5
675
100
AcDbEntity
  8
2
100
AcDbLine
 10
389.709376
 20
154.349035
 30
0.0
 11
377.58502
 21
154.349035
 31
0.0
  0
LINE
  5
676
100
AcDbEntity
  8
2
100
AcDbLine
 10
389.998051
 20
133.849035
 30
0.0
 11
395.771554
 21
143.849035
 31
0.0
  0
LINE
  5
677
100
AcDbEntity
  8
2
100
AcDbLine
 10
376.43032
 20
152.349035
 30
0.0
 11
377.58502
 21
154.349035
 31
0.0
  0
LINE
  5
678
100
AcDbEntity
  8
2
100
AcDbLine
 10
395.771554
 20
143.849035
 30
0.0
 11
389.709376
 21
154.349035
 31
0.0
  0
LINE
  5
679
100
AcDbEntity
  8
2
100
AcDbLine
 10
376.43032
 20
135.349035
 30
0.0
 11
377.296345
 21
133.849035
 31
0.0
  0
LINE
  5
67A
100
AcDbEntity
  8
2
100
AcDbLine
 10
370.147198
 20
152.344644
 30
0.0
 11
362.771554
 21
152.114155
 31
0.0
  0
LINE
  5
67B
100
AcDbEntity
  8
2
100
AcDbLine
 10
368.57972
 20
152.29566
 30
0.0
 11
368.57972
 21
135.40241
 31
0.0
  0
LINE
  5
67C
100
AcDbEntity
  8
2
 62
     2
100
AcDbLine
 10
370.147198
 20
152.344644
 30
0.0
 11
368.57972
 21
151.43966
 31
0.0
  0
LINE
  5
67D
100
AcDbEntity
  8
2
 62
     2
100
AcDbLine
 10
368.57972
 20
151.43966
 30
0.0
 11
362.771554
 21
151.258155
 31
0.0
  0
LINE
  5
67E
100
AcDbEntity
  8
2
100
AcDbLine
 10
370.147198
 20
135.353427
 30
0.0
 11
362.771554
 21
135.583915
 31
0.0
  0
LINE
  5
67F
100
AcDbEntity
  8
2
 62
     2
100
AcDbLine
 10
370.147198
 20
135.353427
 30
0.0
 11
368.57972
 21
136.25841
 31
0.0
  0
LINE
  5
680
100
AcDbEntity
  8
2
 62
     2
100
AcDbLine
 10
368.57972
 20
136.25841
 30
0.0
 11
362.771554
 21
136.439915
 31
0.0
  0
LINE
  5
681
100
AcDbEntity
  8
2
100
AcDbLine
 10
390.147198
 20
135.349035
 30
0.0
 11
370.147198
 21
135.349035
 31
0.0
  0
LINE
  5
682
100
AcDbEntity
  8
2
100
AcDbLine
 10
390.147198
 20
152.349035
 30
0.0
 11
370.147198
 21
152.349035
 31
0.0
  0
LINE
  5
683
100
AcDbEntity
  8
2
100
AcDbLine
 10
370.147198
 20
152.349035
 30
0.0
 11
370.147198
 21
135.349035
 31
0.0
  0
LINE
  5
684
100
AcDbEntity
  8
2
100
AcDbLine
 10
376.147198
 20
135.349035
 30
0.0
 11
376.147198
 21
138.37181
 31
0.0
  0
LINE
  5
685
100
AcDbEntity
  8
2
100
AcDbLine
 10
376.147198
 20
149.326261
 30
0.0
 11
376.147198
 21
152.349035
 31
0.0
  0
ARC
  5
686
100
AcDbEntity
  8
2
100
AcDbCircle
 10
383.647198
 20
143.849035
 30
0.0
 40
8.5
100
AcDbArc
 50
319.880833
 51
40.119167
  0
LINE
  5
687
100
AcDbEntity
  8
2
100
AcDbLine
 10
390.147198
 20
152.349035
 30
0.0
 11
390.147198
 21
149.326261
 31
0.0
  0
LINE
  5
688
100
AcDbEntity
  8
2
100
AcDbLine
 10
390.147198
 20
138.37181
 30
0.0
 11
390.147198
 21
135.349035
 31
0.0
  0
LINE
  5
689
100
AcDbEntity
  8
2
100
AcDbLine
 10
390.147198
 20
138.37181
 30
0.0
 11
376.147198
 21
138.37181
 31
0.0
  0
LINE
  5
68A
100
AcDbEntity
  8
2
100
AcDbLine
 10
390.147198
 20
149.326261
 30
0.0
 11
376.147198
 21
149.326261
 31
0.0
  0
ARC
  5
68B
100
AcDbEntity
  8
2
100
AcDbCircle
 10
383.647198
 20
143.849035
 30
0.0
 40
10.5
100
AcDbArc
 50
308.24662
 51
51.75338
  0
ARC
  5
68C
100
AcDbEntity
  8
2
100
AcDbCircle
 10
383.647198
 20
143.849035
 30
0.0
 40
10.5
100
AcDbArc
 50
54.049432
 51
125.950568
  0
ARC
  5
68D
100
AcDbEntity
  8
2
100
AcDbCircle
 10
383.647198
 20
143.849035
 30
0.0
 40
10.5
100
AcDbArc
 50
234.049432
 51
244.791235
  0
ARC
  5
68E
100
AcDbEntity
  8
2
100
AcDbCircle
 10
383.647198
 20
143.849035
 30
0.0
 40
10.5
100
AcDbArc
 50
295.208765
 51
305.950568
  0
LINE
  5
68F
100
AcDbEntity
  8
2
100
AcDbLine
 10
265.980446
 20
232.049035
 30
0.0
 11
265.980446
 21
228.849035
 31
0.0
  0
LINE
  5
690
100
AcDbEntity
  8
2
100
AcDbLine
 10
190.587787
 20
232.049035
 30
0.0
 11
190.587787
 21
228.849035
 31
0.0
  0
LINE
  5
691
100
AcDbEntity
  8
2
100
AcDbLine
 10
248.571554
 20
233.649035
 30
0.0
 11
248.571554
 21
232.049035
 31
0.0
  0
LINE
  5
692
100
AcDbEntity
  8
2
100
AcDbLine
 10
210.469452
 20
233.649035
 30
0.0
 11
210.469452
 21
232.049035
 31
0.0
  0
CIRCLE
  5
693
100
AcDbEntity
  8
2
 62
     2
100
AcDbCircle
 10
290.771554
 20
133.849035
 30
0.0
 40
8.647
  0
CIRCLE
  5
694
100
AcDbEntity
  8
2
100
AcDbCircle
 10
290.771554
 20
133.849035
 30
0.0
 40
14.5
  0
CIRCLE
  5
695
100
AcDbEntity
  8
2
100
AcDbCircle
 10
290.771554
 20
133.849035
 30
0.0
 40
10.0
  0
ARC
  5
696
100
AcDbEntity
  8
2
100
AcDbCircle
 10
290.771554
 20
133.849035
 30
0.0
 40
16.9
100
AcDbArc
 50
152.569958
 51
207.430042
  0
ARC
  5
697
100
AcDbEntity
  8
2
100
AcDbCircle
 10
290.771554
 20
133.849035
 30
0.0
 40
16.9
100
AcDbArc
 50
92.569958
 51
147.430042
  0
ARC
  5
698
100
AcDbEntity
  8
2
100
AcDbCircle
 10
290.771554
 20
133.849035
 30
0.0
 40
16.9
100
AcDbArc
 50
32.569958
 51
87.430042
  0
ARC
  5
699
100
AcDbEntity
  8
2
100
AcDbCircle
 10
290.771554
 20
133.849035
 30
0.0
 40
16.9
100
AcDbArc
 50
332.569958
 51
27.430042
  0
ARC
  5
69A
100
AcDbEntity
  8
2
100
AcDbCircle
 10
290.771554
 20
133.849035
 30
0.0
 40
16.9
100
AcDbArc
 50
272.569958
 51
327.430042
  0
ARC
  5
69B
100
AcDbEntity
  8
2
100
AcDbCircle
 10
290.771554
 20
133.849035
 30
0.0
 40
16.9
100
AcDbArc
 50
212.569958
 51
267.430042
  0
LINE
  5
69C
100
AcDbEntity
  8
2
100
AcDbLine
 10
285.771554
 20
136.735787
 30
0.0
 11
285.771554
 21
130.962284
 31
0.0
  0
LINE
  5
69D
100
AcDbEntity
  8
2
100
AcDbLine
 10
295.771554
 20
136.735787
 30
0.0
 11
295.771554
 21
130.962284
 31
0.0
  0
LINE
  5
69E
100
AcDbEntity
  8
2
100
AcDbLine
 10
285.771554
 20
136.735787
 30
0.0
 11
290.771554
 21
139.622538
 31
0.0
  0
LINE
  5
69F
100
AcDbEntity
  8
2
100
AcDbLine
 10
290.771554
 20
128.075533
 30
0.0
 11
295.771554
 21
130.962284
 31
0.0
  0
LINE
  5
6A0
100
AcDbEntity
  8
2
100
AcDbLine
 10
290.771554
 20
139.622538
 30
0.0
 11
295.771554
 21
136.735787
 31
0.0
  0
LINE
  5
6A1
100
AcDbEntity
  8
2
100
AcDbLine
 10
290.771554
 20
128.075533
 30
0.0
 11
285.771554
 21
130.962284
 31
0.0
  0
LINE
  5
6A2
100
AcDbEntity
  8
2
 62
     2
100
AcDbLine
 10
-617.237821
 20
637.179273
 30
0.0
 11
-617.419321
 21
631.371273
 31
0.0
  0
LINE
  5
6A3
100
AcDbEntity
  8
2
100
AcDbLine
 10
-602.328446
 20
67.849035
 30
0.0
 11
-602.328446
 21
44.849035
 31
0.0
  0
LINE
  5
6A4
100
AcDbEntity
  8
2
100
AcDbLine
 10
-402.328446
 20
67.849035
 30
0.0
 11
-402.328446
 21
44.849035
 31
0.0
  0
ARC
  5
6A5
100
AcDbEntity
  8
2
100
AcDbCircle
 10
-404.328446
 20
67.849035
 30
0.0
 40
2.0
100
AcDbArc
 50
0.0
 51
90.0
  0
ARC
  5
6A6
100
AcDbEntity
  8
2
100
AcDbCircle
 10
-600.328446
 20
67.849035
 30
0.0
 40
2.0
100
AcDbArc
 50
90.0
 51
180.0
  0
ARC
  5
6A7
100
AcDbEntity
  8
2
100
AcDbCircle
 10
-396.328446
 20
55.849035
 30
0.0
 40
6.0
100
AcDbArc
 50
90.0
 51
180.0
  0
ARC
  5
6A8
100
AcDbEntity
  8
2
100
AcDbCircle
 10
-608.328446
 20
55.849035
 30
0.0
 40
6.0
100
AcDbArc
 50
360.0
 51
90.0
  0
ARC
  5
6A9
100
AcDbEntity
  8
2
100
AcDbCircle
 10
-539.827076
 20
206.849035
 30
0.0
 40
6.0
100
AcDbArc
 50
270.0
 51
350.027942
  0
ARC
  5
6AA
100
AcDbEntity
  8
2
100
AcDbCircle
 10
-464.829816
 20
206.849035
 30
0.0
 40
6.0
100
AcDbArc
 50
189.972058
 51
270.0
  0
LINE
  5
6AB
100
AcDbEntity
  8
2
100
AcDbLine
 10
-478.578446
 20
438.671273
 30
0.0
 11
-478.578446
 21
435.16202
 31
0.0
  0
LINE
  5
6AC
100
AcDbEntity
  8
2
100
AcDbLine
 10
-478.578446
 20
435.16202
 30
0.0
 11
-479.428446
 21
434.671273
 31
0.0
  0
LINE
  5
6AD
100
AcDbEntity
  8
2
100
AcDbLine
 10
-481.453446
 20
438.671273
 30
0.0
 11
-481.453446
 21
435.16202
 31
0.0
  0
ARC
  5
6AE
100
AcDbEntity
  8
2
100
AcDbCircle
 10
-480.015946
 20
437.009975
 30
0.0
 40
2.341227
100
AcDbArc
 50
232.121121
 51
307.878879
  0
ARC
  5
6AF
100
AcDbEntity
  8
2
100
AcDbCircle
 10
-484.328446
 20
443.293748
 30
0.0
 40
8.625
100
AcDbArc
 50
250.528777
 51
289.471219
  0
LINE
  5
6B0
100
AcDbEntity
  8
2
100
AcDbLine
 10
-490.078446
 20
438.671273
 30
0.0
 11
-490.078446
 21
435.16202
 31
0.0
  0
LINE
  5
6B1
100
AcDbEntity
  8
2
100
AcDbLine
 10
-490.078446
 20
435.16202
 30
0.0
 11
-489.228446
 21
434.671273
 31
0.0
  0
LINE
  5
6B2
100
AcDbEntity
  8
2
100
AcDbLine
 10
-489.228446
 20
434.671273
 30
0.0
 11
-479.428446
 21
434.671273
 31
0.0
  0
LINE
  5
6B3
100
AcDbEntity
  8
2
100
AcDbLine
 10
-487.203446
 20
438.671273
 30
0.0
 11
-487.203446
 21
435.16202
 31
0.0
  0
ARC
  5
6B4
100
AcDbEntity
  8
2
100
AcDbCircle
 10
-488.640946
 20
437.009975
 30
0.0
 40
2.341227
100
AcDbArc
 50
232.121121
 51
307.878879
  0
LINE
  5
6B5
100
AcDbEntity
  8
2
100
AcDbLine
 10
-478.228446
 20
440.171273
 30
0.0
 11
-478.228446
 21
438.671273
 31
0.0
  0
LINE
  5
6B6
100
AcDbEntity
  8
2
100
AcDbLine
 10
-478.228446
 20
438.671273
 30
0.0
 11
-490.428446
 21
438.671273
 31
0.0
  0
LINE
  5
6B7
100
AcDbEntity
  8
2
100
AcDbLine
 10
-490.428446
 20
438.671273
 30
0.0
 11
-490.428446
 21
440.171273
 31
0.0
  0
LINE
  5
6B8
100
AcDbEntity
  8
2
100
AcDbLine
 10
-484.328446
 20
438.671273
 30
0.0
 11
-484.828446
 21
440.171273
 31
0.0
  0
LINE
  5
6B9
100
AcDbEntity
  8
2
100
AcDbLine
 10
-484.328446
 20
440.171273
 30
0.0
 11
-483.828446
 21
438.671273
 31
0.0
  0
LINE
  5
6BA
100
AcDbEntity
  8
2
100
AcDbLine
 10
-514.578446
 20
438.671273
 30
0.0
 11
-514.578446
 21
435.16202
 31
0.0
  0
LINE
  5
6BB
100
AcDbEntity
  8
2
100
AcDbLine
 10
-514.578446
 20
435.16202
 30
0.0
 11
-515.428446
 21
434.671273
 31
0.0
  0
LINE
  5
6BC
100
AcDbEntity
  8
2
100
AcDbLine
 10
-517.453446
 20
438.671273
 30
0.0
 11
-517.453446
 21
435.16202
 31
0.0
  0
ARC
  5
6BD
100
AcDbEntity
  8
2
100
AcDbCircle
 10
-516.015946
 20
437.009975
 30
0.0
 40
2.341227
100
AcDbArc
 50
232.121121
 51
307.878879
  0
ARC
  5
6BE
100
AcDbEntity
  8
2
100
AcDbCircle
 10
-520.328446
 20
443.293748
 30
0.0
 40
8.625
100
AcDbArc
 50
250.528777
 51
289.471219
  0
LINE
  5
6BF
100
AcDbEntity
  8
2
100
AcDbLine
 10
-526.078446
 20
438.671273
 30
0.0
 11
-526.078446
 21
435.16202
 31
0.0
  0
LINE
  5
6C0
100
AcDbEntity
  8
2
100
AcDbLine
 10
-526.078446
 20
435.16202
 30
0.0
 11
-525.228446
 21
434.671273
 31
0.0
  0
LINE
  5
6C1
100
AcDbEntity
  8
2
100
AcDbLine
 10
-525.228446
 20
434.671273
 30
0.0
 11
-515.428446
 21
434.671273
 31
0.0
  0
LINE
  5
6C2
100
AcDbEntity
  8
2
100
AcDbLine
 10
-523.203446
 20
438.671273
 30
0.0
 11
-523.203446
 21
435.16202
 31
0.0
  0
ARC
  5
6C3
100
AcDbEntity
  8
2
100
AcDbCircle
 10
-524.640946
 20
437.009975
 30
0.0
 40
2.341227
100
AcDbArc
 50
232.121121
 51
307.878879
  0
LINE
  5
6C4
100
AcDbEntity
  8
2
100
AcDbLine
 10
-514.228446
 20
440.171273
 30
0.0
 11
-514.228446
 21
438.671273
 31
0.0
  0
LINE
  5
6C5
100
AcDbEntity
  8
2
100
AcDbLine
 10
-514.228446
 20
438.671273
 30
0.0
 11
-526.428446
 21
438.671273
 31
0.0
  0
LINE
  5
6C6
100
AcDbEntity
  8
2
100
AcDbLine
 10
-526.428446
 20
438.671273
 30
0.0
 11
-526.428446
 21
440.171273
 31
0.0
  0
LINE
  5
6C7
100
AcDbEntity
  8
2
100
AcDbLine
 10
-520.328446
 20
438.671273
 30
0.0
 11
-520.828446
 21
440.171273
 31
0.0
  0
LINE
  5
6C8
100
AcDbEntity
  8
2
100
AcDbLine
 10
-520.328446
 20
440.171273
 30
0.0
 11
-519.828446
 21
438.671273
 31
0.0
  0
LINE
  5
6C9
100
AcDbEntity
  8
2
100
AcDbLine
 10
-487.215198
 20
162.849035
 30
0.0
 11
-481.441695
 21
162.849035
 31
0.0
  0
LINE
  5
6CA
100
AcDbEntity
  8
2
100
AcDbLine
 10
-487.215198
 20
152.849035
 30
0.0
 11
-481.441695
 21
152.849035
 31
0.0
  0
LINE
  5
6CB
100
AcDbEntity
  8
2
100
AcDbLine
 10
-490.101949
 20
157.849035
 30
0.0
 11
-487.215198
 21
162.849035
 31
0.0
  0
LINE
  5
6CC
100
AcDbEntity
  8
2
100
AcDbLine
 10
-481.441695
 20
152.849035
 30
0.0
 11
-478.554944
 21
157.849035
 31
0.0
  0
LINE
  5
6CD
100
AcDbEntity
  8
2
100
AcDbLine
 10
-487.215198
 20
152.849035
 30
0.0
 11
-490.101949
 21
157.849035
 31
0.0
  0
LINE
  5
6CE
100
AcDbEntity
  8
2
100
AcDbLine
 10
-478.554944
 20
157.849035
 30
0.0
 11
-481.441695
 21
162.849035
 31
0.0
  0
CIRCLE
  5
6CF
100
AcDbEntity
  8
2
100
AcDbCircle
 10
-520.328446
 20
157.849035
 30
0.0
 40
4.9
  0
CIRCLE
  5
6D0
100
AcDbEntity
  8
2
100
AcDbCircle
 10
-520.328446
 20
157.849035
 30
0.0
 40
6.1
  0
LINE
  5
6D1
100
AcDbEntity
  8
2
100
AcDbLine
 10
-523.215198
 20
162.849035
 30
0.0
 11
-517.441695
 21
162.849035
 31
0.0
  0
LINE
  5
6D2
100
AcDbEntity
  8
2
100
AcDbLine
 10
-523.215198
 20
152.849035
 30
0.0
 11
-517.441695
 21
152.849035
 31
0.0
  0
LINE
  5
6D3
100
AcDbEntity
  8
2
100
AcDbLine
 10
-526.101949
 20
157.849035
 30
0.0
 11
-523.215198
 21
162.849035
 31
0.0
  0
LINE
  5
6D4
100
AcDbEntity
  8
2
100
AcDbLine
 10
-517.441695
 20
152.849035
 30
0.0
 11
-514.554944
 21
157.849035
 31
0.0
  0
LINE
  5
6D5
100
AcDbEntity
  8
2
100
AcDbLine
 10
-523.215198
 20
152.849035
 30
0.0
 11
-526.101949
 21
157.849035
 31
0.0
  0
LINE
  5
6D6
100
AcDbEntity
  8
2
100
AcDbLine
 10
-514.554944
 20
157.849035
 30
0.0
 11
-517.441695
 21
162.849035
 31
0.0
  0
CIRCLE
  5
6D7
100
AcDbEntity
  8
2
100
AcDbCircle
 10
-484.328446
 20
109.849035
 30
0.0
 40
4.9
  0
CIRCLE
  5
6D8
100
AcDbEntity
  8
2
100
AcDbCircle
 10
-484.328446
 20
109.849035
 30
0.0
 40
6.1
  0
LINE
  5
6D9
100
AcDbEntity
  8
2
100
AcDbLine
 10
-487.215198
 20
114.849035
 30
0.0
 11
-481.441695
 21
114.849035
 31
0.0
  0
LINE
  5
6DA
100
AcDbEntity
  8
2
100
AcDbLine
 10
-487.215198
 20
104.849035
 30
0.0
 11
-481.441695
 21
104.849035
 31
0.0
  0
LINE
  5
6DB
100
AcDbEntity
  8
2
100
AcDbLine
 10
-490.101949
 20
109.849035
 30
0.0
 11
-487.215198
 21
114.849035
 31
0.0
  0
LINE
  5
6DC
100
AcDbEntity
  8
2
100
AcDbLine
 10
-481.441695
 20
104.849035
 30
0.0
 11
-478.554944
 21
109.849035
 31
0.0
  0
LINE
  5
6DD
100
AcDbEntity
  8
2
100
AcDbLine
 10
-487.215198
 20
104.849035
 30
0.0
 11
-490.101949
 21
109.849035
 31
0.0
  0
LINE
  5
6DE
100
AcDbEntity
  8
2
100
AcDbLine
 10
-478.554944
 20
109.849035
 30
0.0
 11
-481.441695
 21
114.849035
 31
0.0
  0
CIRCLE
  5
6DF
100
AcDbEntity
  8
2
100
AcDbCircle
 10
-520.328446
 20
109.849035
 30
0.0
 40
4.9
  0
CIRCLE
  5
6E0
100
AcDbEntity
  8
2
100
AcDbCircle
 10
-520.328446
 20
109.849035
 30
0.0
 40
6.1
  0
LINE
  5
6E1
100
AcDbEntity
  8
2
100
AcDbLine
 10
-523.215198
 20
114.849035
 30
0.0
 11
-517.441695
 21
114.849035
 31
0.0
  0
LINE
  5
6E2
100
AcDbEntity
  8
2
100
AcDbLine
 10
-523.215198
 20
104.849035
 30
0.0
 11
-517.441695
 21
104.849035
 31
0.0
  0
LINE
  5
6E3
100
AcDbEntity
  8
2
100
AcDbLine
 10
-526.101949
 20
109.849035
 30
0.0
 11
-523.215198
 21
114.849035
 31
0.0
  0
LINE
  5
6E4
100
AcDbEntity
  8
2
100
AcDbLine
 10
-517.441695
 20
104.849035
 30
0.0
 11
-514.554944
 21
109.849035
 31
0.0
  0
LINE
  5
6E5
100
AcDbEntity
  8
2
100
AcDbLine
 10
-523.215198
 20
104.849035
 30
0.0
 11
-526.101949
 21
109.849035
 31
0.0
  0
LINE
  5
6E6
100
AcDbEntity
  8
2
100
AcDbLine
 10
-514.554944
 20
109.849035
 30
0.0
 11
-517.441695
 21
114.849035
 31
0.0
  0
LINE
  5
6E7
100
AcDbEntity
  8
2
100
AcDbLine
 10
275.771554
 20
142.509289
 30
0.0
 11
275.771554
 21
125.188781
 31
0.0
  0
LINE
  5
6E8
100
AcDbEntity
  8
2
100
AcDbLine
 10
305.771554
 20
142.509289
 30
0.0
 11
305.771554
 21
125.188781
 31
0.0
  0
LINE
  5
6E9
100
AcDbEntity
  8
2
100
AcDbLine
 10
290.771554
 20
151.169543
 30
0.0
 11
305.771554
 21
142.509289
 31
0.0
  0
LINE
  5
6EA
100
AcDbEntity
  8
2
100
AcDbLine
 10
275.771554
 20
125.188781
 30
0.0
 11
290.771554
 21
116.528527
 31
0.0
  0
LINE
  5
6EB
100
AcDbEntity
  8
2
100
AcDbLine
 10
290.771554
 20
116.528527
 30
0.0
 11
305.771554
 21
125.188781
 31
0.0
  0
LINE
  5
6EC
100
AcDbEntity
  8
2
100
AcDbLine
 10
275.771554
 20
142.509289
 30
0.0
 11
290.771554
 21
151.169543
 31
0.0
  0
LINE
  5
6ED
100
AcDbEntity
  8
2
100
AcDbLine
 10
354.122407
 20
201.849035
 30
0.0
 11
341.420701
 21
201.849035
 31
0.0
  0
LINE
  5
6EE
100
AcDbEntity
  8
2
100
AcDbLine
 10
354.122407
 20
179.849035
 30
0.0
 11
341.420701
 21
179.849035
 31
0.0
  0
LINE
  5
6EF
100
AcDbEntity
  8
2
100
AcDbLine
 10
341.420701
 20
201.849035
 30
0.0
 11
335.069848
 21
190.849035
 31
0.0
  0
LINE
  5
6F0
100
AcDbEntity
  8
2
100
AcDbLine
 10
360.47326
 20
190.849035
 30
0.0
 11
354.122407
 21
179.849035
 31
0.0
  0
LINE
  5
6F1
100
AcDbEntity
  8
2
100
AcDbLine
 10
335.069848
 20
190.849035
 30
0.0
 11
341.420701
 21
179.849035
 31
0.0
  0
LINE
  5
6F2
100
AcDbEntity
  8
2
100
AcDbLine
 10
354.122407
 20
201.849035
 30
0.0
 11
360.47326
 21
190.849035
 31
0.0
  0
LINE
  5
6F3
100
AcDbEntity
  8
2
100
AcDbLine
 10
240.122407
 20
201.849035
 30
0.0
 11
227.420701
 21
201.849035
 31
0.0
  0
LINE
  5
6F4
100
AcDbEntity
  8
2
100
AcDbLine
 10
240.122407
 20
179.849035
 30
0.0
 11
227.420701
 21
179.849035
 31
0.0
  0
LINE
  5
6F5
100
AcDbEntity
  8
2
100
AcDbLine
 10
227.420701
 20
201.849035
 30
0.0
 11
221.069848
 21
190.849035
 31
0.0
  0
LINE
  5
6F6
100
AcDbEntity
  8
2
100
AcDbLine
 10
246.47326
 20
190.849035
 30
0.0
 11
240.122407
 21
179.849035
 31
0.0
  0
LINE
  5
6F7
100
AcDbEntity
  8
2
100
AcDbLine
 10
221.069848
 20
190.849035
 30
0.0
 11
227.420701
 21
179.849035
 31
0.0
  0
LINE
  5
6F8
100
AcDbEntity
  8
2
100
AcDbLine
 10
240.122407
 20
201.849035
 30
0.0
 11
246.47326
 21
190.849035
 31
0.0
  0
LINE
  5
6F9
100
AcDbEntity
  8
2
100
AcDbLine
 10
240.122407
 20
87.849035
 30
0.0
 11
227.420701
 21
87.849035
 31
0.0
  0
LINE
  5
6FA
100
AcDbEntity
  8
2
100
AcDbLine
 10
240.122407
 20
65.849035
 30
0.0
 11
227.420701
 21
65.849035
 31
0.0
  0
LINE
  5
6FB
100
AcDbEntity
  8
2
100
AcDbLine
 10
227.420701
 20
87.849035
 30
0.0
 11
221.069848
 21
76.849035
 31
0.0
  0
LINE
  5
6FC
100
AcDbEntity
  8
2
100
AcDbLine
 10
246.47326
 20
76.849035
 30
0.0
 11
240.122407
 21
65.849035
 31
0.0
  0
LINE
  5
6FD
100
AcDbEntity
  8
2
100
AcDbLine
 10
221.069848
 20
76.849035
 30
0.0
 11
227.420701
 21
65.849035
 31
0.0
  0
LINE
  5
6FE
100
AcDbEntity
  8
2
100
AcDbLine
 10
240.122407
 20
87.849035
 30
0.0
 11
246.47326
 21
76.849035
 31
0.0
  0
LINE
  5
6FF
100
AcDbEntity
  8
2
100
AcDbLine
 10
354.122407
 20
87.849035
 30
0.0
 11
341.420701
 21
87.849035
 31
0.0
  0
LINE
  5
700
100
AcDbEntity
  8
2
100
AcDbLine
 10
354.122407
 20
65.849035
 30
0.0
 11
341.420701
 21
65.849035
 31
0.0
  0
LINE
  5
701
100
AcDbEntity
  8
2
100
AcDbLine
 10
341.420701
 20
87.849035
 30
0.0
 11
335.069848
 21
76.849035
 31
0.0
  0
LINE
  5
702
100
AcDbEntity
  8
2
100
AcDbLine
 10
360.47326
 20
76.849035
 30
0.0
 11
354.122407
 21
65.849035
 31
0.0
  0
LINE
  5
703
100
AcDbEntity
  8
2
100
AcDbLine
 10
335.069848
 20
76.849035
 30
0.0
 11
341.420701
 21
65.849035
 31
0.0
  0
LINE
  5
704
100
AcDbEntity
  8
2
100
AcDbLine
 10
354.122407
 20
87.849035
 30
0.0
 11
360.47326
 21
76.849035
 31
0.0
  0
ARC
  5
705
100
AcDbEntity
  8
2
100
AcDbCircle
 10
199.771554
 20
184.849035
 30
0.0
 40
16.0
100
AcDbArc
 50
90.0
 51
180.0
  0
ARC
  5
706
100
AcDbEntity
  8
2
100
AcDbCircle
 10
187.333328
 20
207.680823
 30
0.0
 40
10.0
100
AcDbArc
 50
298.580518
 51
349.875328
  0
LINE
  5
707
100
AcDbEntity
  8
2
  6
CENTER
 62
     2
100
AcDbLine
 10
172.771554
 20
182.57568
 30
0.0
 11
172.771554
 21
106.972778
 31
0.0
  0
LINE
  5
708
100
AcDbEntity
  8
2
100
AcDbLine
 10
179.699757
 20
166.149035
 30
0.0
 11
179.699757
 21
164.549035
 31
0.0
  0
LINE
  5
709
100
AcDbEntity
  8
2
100
AcDbLine
 10
169.307452
 20
166.149035
 30
0.0
 11
169.307452
 21
164.549035
 31
0.0
  0
LINE
  5
70A
100
AcDbEntity
  8
2
100
AcDbLine
 10
176.235655
 20
166.149035
 30
0.0
 11
176.235655
 21
164.549035
 31
0.0
  0
LINE
  5
70B
100
AcDbEntity
  8
2
100
AcDbLine
 10
165.84335
 20
166.149035
 30
0.0
 11
165.84335
 21
164.549035
 31
0.0
  0
LINE
  5
70C
100
AcDbEntity
  8
2
100
AcDbLine
 10
167.575401
 20
166.849035
 30
0.0
 11
177.967706
 21
166.849035
 31
0.0
  0
ARC
  5
70D
100
AcDbEntity
  8
2
100
AcDbCircle
 10
172.771554
 20
172.770464
 30
0.0
 40
8.921429
100
AcDbArc
 50
247.151859
 51
292.848141
  0
ARC
  5
70E
100
AcDbEntity
  8
2
100
AcDbCircle
 10
172.771554
 20
157.927607
 30
0.0
 40
8.921429
100
AcDbArc
 50
67.151859
 51
112.848141
  0
ARC
  5
70F
100
AcDbEntity
  8
2
100
AcDbCircle
 10
177.967706
 20
166.341892
 30
0.0
 40
2.492857
100
AcDbArc
 50
225.988281
 51
314.011719
  0
ARC
  5
710
100
AcDbEntity
  8
2
100
AcDbCircle
 10
177.967706
 20
164.356178
 30
0.0
 40
2.492857
100
AcDbArc
 50
45.988281
 51
134.011719
  0
ARC
  5
711
100
AcDbEntity
  8
2
100
AcDbCircle
 10
167.575401
 20
166.341892
 30
0.0
 40
2.492857
100
AcDbArc
 50
225.988281
 51
314.011719
  0
ARC
  5
712
100
AcDbEntity
  8
2
100
AcDbCircle
 10
167.575401
 20
164.356178
 30
0.0
 40
2.492857
100
AcDbArc
 50
45.988281
 51
134.011719
  0
LINE
  5
713
100
AcDbEntity
  8
2
100
AcDbLine
 10
176.171554
 20
167.249035
 30
0.0
 11
176.171554
 21
166.849035
 31
0.0
  0
LINE
  5
714
100
AcDbEntity
  8
2
100
AcDbLine
 10
169.371554
 20
167.249035
 30
0.0
 11
169.371554
 21
166.849035
 31
0.0
  0
LINE
  5
715
100
AcDbEntity
  8
2
100
AcDbLine
 10
147.771554
 20
115.849035
 30
0.0
 11
203.771554
 21
115.849035
 31
0.0
  0
LINE
  5
716
100
AcDbEntity
  8
2
100
AcDbLine
 10
148.771554
 20
146.849035
 30
0.0
 11
202.771554
 21
146.849035
 31
0.0
  0
LINE
  5
717
100
AcDbEntity
  8
2
100
AcDbLine
 10
147.771554
 20
145.849035
 30
0.0
 11
147.771554
 21
115.849035
 31
0.0
  0
LINE
  5
718
100
AcDbEntity
  8
2
100
AcDbLine
 10
203.771554
 20
145.849035
 30
0.0
 11
203.771554
 21
115.849035
 31
0.0
  0
LINE
  5
719
100
AcDbEntity
  8
2
100
AcDbLine
 10
202.771554
 20
146.849035
 30
0.0
 11
202.771554
 21
115.849035
 31
0.0
  0
LINE
  5
71A
100
AcDbEntity
  8
2
100
AcDbLine
 10
148.771554
 20
146.849035
 30
0.0
 11
148.771554
 21
115.849035
 31
0.0
  0
LINE
  5
71B
100
AcDbEntity
  8
2
100
AcDbLine
 10
148.771554
 20
145.349035
 30
0.0
 11
202.771554
 21
145.349035
 31
0.0
  0
LINE
  5
71C
100
AcDbEntity
  8
2
100
AcDbLine
 10
202.771554
 20
146.849035
 30
0.0
 11
203.771554
 21
145.849035
 31
0.0
  0
LINE
  5
71D
100
AcDbEntity
  8
2
100
AcDbLine
 10
147.771554
 20
145.849035
 30
0.0
 11
148.771554
 21
146.849035
 31
0.0
  0
LINE
  5
71E
100
AcDbEntity
  8
2
100
AcDbLine
 10
202.771554
 20
145.349035
 30
0.0
 11
203.771554
 21
145.849035
 31
0.0
  0
LINE
  5
71F
100
AcDbEntity
  8
2
100
AcDbLine
 10
148.771554
 20
145.349035
 30
0.0
 11
147.771554
 21
145.849035
 31
0.0
  0
LINE
  5
720
100
AcDbEntity
  8
2
100
AcDbLine
 10
150.271554
 20
117.849035
 30
0.0
 11
201.271554
 21
117.849035
 31
0.0
  0
LINE
  5
721
100
AcDbEntity
  8
2
100
AcDbLine
 10
201.271554
 20
120.649035
 30
0.0
 11
201.271554
 21
115.849035
 31
0.0
  0
LINE
  5
722
100
AcDbEntity
  8
2
100
AcDbLine
 10
195.771554
 20
120.649035
 30
0.0
 11
195.771554
 21
117.849035
 31
0.0
  0
LINE
  5
723
100
AcDbEntity
  8
2
100
AcDbLine
 10
155.771554
 20
120.649035
 30
0.0
 11
155.771554
 21
117.849035
 31
0.0
  0
LINE
  5
724
100
AcDbEntity
  8
2
100
AcDbLine
 10
150.271554
 20
120.649035
 30
0.0
 11
150.271554
 21
115.849035
 31
0.0
  0
ARC
  5
725
100
AcDbEntity
  8
2
100
AcDbCircle
 10
198.521554
 20
120.649035
 30
0.0
 40
2.75
100
AcDbArc
 50
0.0
 51
180.0
  0
ARC
  5
726
100
AcDbEntity
  8
2
100
AcDbCircle
 10
153.021554
 20
120.649035
 30
0.0
 40
2.75
100
AcDbArc
 50
0.0
 51
180.0
  0
LINE
  5
727
100
AcDbEntity
  8
2
100
AcDbLine
 10
189.271554
 20
117.849035
 30
0.0
 11
189.271554
 21
115.849035
 31
0.0
  0
LINE
  5
728
100
AcDbEntity
  8
2
100
AcDbLine
 10
162.271554
 20
117.849035
 30
0.0
 11
162.271554
 21
115.849035
 31
0.0
  0
LINE
  5
729
100
AcDbEntity
  8
2
100
AcDbLine
 10
184.271554
 20
117.849035
 30
0.0
 11
184.271554
 21
115.849035
 31
0.0
  0
LINE
  5
72A
100
AcDbEntity
  8
2
100
AcDbLine
 10
167.271554
 20
117.849035
 30
0.0
 11
167.271554
 21
115.849035
 31
0.0
  0
LINE
  5
72B
100
AcDbEntity
  8
2
100
AcDbLine
 10
183.271554
 20
114.870011
 30
0.0
 11
183.271554
 21
115.849035
 31
0.0
  0
LINE
  5
72C
100
AcDbEntity
  8
2
100
AcDbLine
 10
190.271554
 20
114.870011
 30
0.0
 11
190.271554
 21
115.849035
 31
0.0
  0
ARC
  5
72D
100
AcDbEntity
  8
2
100
AcDbCircle
 10
186.771554
 20
122.249035
 30
0.0
 40
9.0
100
AcDbArc
 50
253.39845
 51
286.60155
  0
ARC
  5
72E
100
AcDbEntity
  8
2
100
AcDbCircle
 10
188.971554
 20
114.870011
 30
0.0
 40
1.3
100
AcDbArc
 50
286.60155
 51
360.0
  0
ARC
  5
72F
100
AcDbEntity
  8
2
100
AcDbCircle
 10
184.571554
 20
114.870011
 30
0.0
 40
1.3
100
AcDbArc
 50
180.0
 51
253.39845
  0
LINE
  5
730
100
AcDbEntity
  8
2
100
AcDbLine
 10
188.771554
 20
117.849035
 30
0.0
 11
188.771554
 21
115.849035
 31
0.0
  0
LINE
  5
731
100
AcDbEntity
  8
2
100
AcDbLine
 10
188.771554
 20
117.249035
 30
0.0
 11
184.771554
 21
117.249035
 31
0.0
  0
LINE
  5
732
100
AcDbEntity
  8
2
 62
     2
100
AcDbLine
 10
188.392554
 20
117.849035
 30
0.0
 11
188.392554
 21
117.249035
 31
0.0
  0
LINE
  5
733
100
AcDbEntity
  8
2
 62
     2
100
AcDbLine
 10
188.392554
 20
117.249035
 30
0.0
 11
188.771554
 21
115.849035
 31
0.0
  0
LINE
  5
734
100
AcDbEntity
  8
2
100
AcDbLine
 10
184.771554
 20
117.849035
 30
0.0
 11
184.771554
 21
115.849035
 31
0.0
  0
LINE
  5
735
100
AcDbEntity
  8
2
 62
     2
100
AcDbLine
 10
185.150554
 20
117.849035
 30
0.0
 11
185.150554
 21
117.249035
 31
0.0
  0
LINE
  5
736
100
AcDbEntity
  8
2
 62
     2
100
AcDbLine
 10
185.150554
 20
117.249035
 30
0.0
 11
184.771554
 21
115.849035
 31
0.0
  0
LINE
  5
737
100
AcDbEntity
  8
2
100
AcDbLine
 10
161.271554
 20
114.870011
 30
0.0
 11
161.271554
 21
115.849035
 31
0.0
  0
LINE
  5
738
100
AcDbEntity
  8
2
100
AcDbLine
 10
168.271554
 20
114.870011
 30
0.0
 11
168.271554
 21
115.849035
 31
0.0
  0
ARC
  5
739
100
AcDbEntity
  8
2
100
AcDbCircle
 10
164.771554
 20
122.249035
 30
0.0
 40
9.0
100
AcDbArc
 50
253.39845
 51
286.60155
  0
ARC
  5
73A
100
AcDbEntity
  8
2
100
AcDbCircle
 10
166.971554
 20
114.870011
 30
0.0
 40
1.3
100
AcDbArc
 50
286.60155
 51
360.0
  0
ARC
  5
73B
100
AcDbEntity
  8
2
100
AcDbCircle
 10
162.571554
 20
114.870011
 30
0.0
 40
1.3
100
AcDbArc
 50
180.0
 51
253.39845
  0
LINE
  5
73C
100
AcDbEntity
  8
2
100
AcDbLine
 10
166.771554
 20
117.849035
 30
0.0
 11
166.771554
 21
115.849035
 31
0.0
  0
LINE
  5
73D
100
AcDbEntity
  8
2
100
AcDbLine
 10
166.771554
 20
117.249035
 30
0.0
 11
162.771554
 21
117.249035
 31
0.0
  0
LINE
  5
73E
100
AcDbEntity
  8
2
 62
     2
100
AcDbLine
 10
166.392554
 20
117.849035
 30
0.0
 11
166.392554
 21
117.249035
 31
0.0
  0
LINE
  5
73F
100
AcDbEntity
  8
2
 62
     2
100
AcDbLine
 10
166.392554
 20
117.249035
 30
0.0
 11
166.771554
 21
115.849035
 31
0.0
  0
LINE
  5
740
100
AcDbEntity
  8
2
100
AcDbLine
 10
162.771554
 20
117.849035
 30
0.0
 11
162.771554
 21
115.849035
 31
0.0
  0
LINE
  5
741
100
AcDbEntity
  8
2
 62
     2
100
AcDbLine
 10
163.150554
 20
117.849035
 30
0.0
 11
163.150554
 21
117.249035
 31
0.0
  0
LINE
  5
742
100
AcDbEntity
  8
2
 62
     2
100
AcDbLine
 10
163.150554
 20
117.249035
 30
0.0
 11
162.771554
 21
115.849035
 31
0.0
  0
LINE
  5
743
100
AcDbEntity
  8
2
100
AcDbLine
 10
164.771554
 20
153.849035
 30
0.0
 11
164.771554
 21
146.849035
 31
0.0
  0
LINE
  5
744
100
AcDbEntity
  8
2
100
AcDbLine
 10
180.771554
 20
153.849035
 30
0.0
 11
180.771554
 21
146.849035
 31
0.0
  0
LINE
  5
745
100
AcDbEntity
  8
2
100
AcDbLine
 10
164.771554
 20
153.849035
 30
0.0
 11
180.771554
 21
153.849035
 31
0.0
  0
LINE
  5
746
100
AcDbEntity
  8
2
100
AcDbLine
 10
166.771554
 20
163.849035
 30
0.0
 11
178.771554
 21
163.849035
 31
0.0
  0
LINE
  5
747
100
AcDbEntity
  8
2
100
AcDbLine
 10
178.771554
 20
163.849035
 30
0.0
 11
180.771554
 21
153.849035
 31
0.0
  0
LINE
  5
748
100
AcDbEntity
  8
2
100
AcDbLine
 10
166.771554
 20
163.849035
 30
0.0
 11
164.771554
 21
153.849035
 31
0.0
  0
LINE
  5
749
100
AcDbEntity
  8
2
100
AcDbLine
 10
167.771554
 20
173.749035
 30
0.0
 11
167.771554
 21
167.249035
 31
0.0
  0
LINE
  5
74A
100
AcDbEntity
  8
2
100
AcDbLine
 10
177.771554
 20
173.749035
 30
0.0
 11
177.771554
 21
167.249035
 31
0.0
  0
LINE
  5
74B
100
AcDbEntity
  8
2
100
AcDbLine
 10
167.771554
 20
167.249035
 30
0.0
 11
177.771554
 21
167.249035
 31
0.0
  0
LINE
  5
74C
100
AcDbEntity
  8
2
100
AcDbLine
 10
177.771554
 20
173.749035
 30
0.0
 11
177.271554
 21
174.249035
 31
0.0
  0
LINE
  5
74D
100
AcDbEntity
  8
2
100
AcDbLine
 10
167.771554
 20
173.749035
 30
0.0
 11
168.271554
 21
174.249035
 31
0.0
  0
LINE
  5
74E
100
AcDbEntity
  8
2
100
AcDbLine
 10
172.021554
 20
174.249035
 30
0.0
 11
172.021554
 21
172.749035
 31
0.0
  0
LINE
  5
74F
100
AcDbEntity
  8
2
100
AcDbLine
 10
173.521554
 20
174.249035
 30
0.0
 11
173.521554
 21
172.749035
 31
0.0
  0
LINE
  5
750
100
AcDbEntity
  8
2
100
AcDbLine
 10
172.021554
 20
172.749035
 30
0.0
 11
173.521554
 21
172.749035
 31
0.0
  0
LINE
  5
751
100
AcDbEntity
  8
2
100
AcDbLine
 10
168.271554
 20
174.249035
 30
0.0
 11
172.021554
 21
174.249035
 31
0.0
  0
LINE
  5
752
100
AcDbEntity
  8
2
100
AcDbLine
 10
173.521554
 20
174.249035
 30
0.0
 11
177.271554
 21
174.249035
 31
0.0
  0
LINE
  5
753
100
AcDbEntity
  8
2
100
AcDbLine
 10
177.771554
 20
173.749035
 30
0.0
 11
173.521554
 21
173.749035
 31
0.0
  0
LINE
  5
754
100
AcDbEntity
  8
2
100
AcDbLine
 10
167.771554
 20
173.749035
 30
0.0
 11
172.021554
 21
173.749035
 31
0.0
  0
LINE
  5
755
100
AcDbEntity
  8
2
  6
CENTER
 62
     2
100
AcDbLine
 10
-137.10082
 20
441.371273
 30
0.0
 11
-173.147216
 21
441.371273
 31
0.0
  0
LINE
  5
756
100
AcDbEntity
  8
2
100
AcDbLine
 10
-161.328446
 20
444.835374
 30
0.0
 11
-161.328446
 21
437.907171
 31
0.0
  0
LINE
  5
757
100
AcDbEntity
  8
2
100
AcDbLine
 10
-149.328446
 20
444.835374
 30
0.0
 11
-149.328446
 21
437.907171
 31
0.0
  0
LINE
  5
758
100
AcDbEntity
  8
2
100
AcDbLine
 10
-155.328446
 20
434.443069
 30
0.0
 11
-161.328446
 21
437.907171
 31
0.0
  0
LINE
  5
759
100
AcDbEntity
  8
2
100
AcDbLine
 10
-149.328446
 20
444.835374
 30
0.0
 11
-155.328446
 21
448.299476
 31
0.0
  0
LINE
  5
75A
100
AcDbEntity
  8
2
100
AcDbLine
 10
-155.328446
 20
448.299476
 30
0.0
 11
-161.328446
 21
444.835374
 31
0.0
  0
LINE
  5
75B
100
AcDbEntity
  8
2
100
AcDbLine
 10
-155.328446
 20
434.443069
 30
0.0
 11
-149.328446
 21
437.907171
 31
0.0
  0
CIRCLE
  5
75C
100
AcDbEntity
  8
2
100
AcDbCircle
 10
-155.328446
 20
441.371273
 30
0.0
 40
6.0
  0
LINE
  5
75D
100
AcDbEntity
  8
2
100
AcDbLine
 10
-168.328446
 20
471.371273
 30
0.0
 11
-168.328446
 21
417.371273
 31
0.0
  0
LINE
  5
75E
100
AcDbEntity
  8
2
100
AcDbLine
 10
-142.328446
 20
471.371273
 30
0.0
 11
-142.328446
 21
417.371273
 31
0.0
  0
LINE
  5
75F
100
AcDbEntity
  8
2
100
AcDbLine
 10
-143.328446
 20
416.371273
 30
0.0
 11
-167.328446
 21
416.371273
 31
0.0
  0
LINE
  5
760
100
AcDbEntity
  8
2
100
AcDbLine
 10
-143.328446
 20
472.371273
 30
0.0
 11
-167.328446
 21
472.371273
 31
0.0
  0
LINE
  5
761
100
AcDbEntity
  8
2
100
AcDbLine
 10
-166.828446
 20
471.371273
 30
0.0
 11
-166.828446
 21
417.371273
 31
0.0
  0
LINE
  5
762
100
AcDbEntity
  8
2
100
AcDbLine
 10
-143.828446
 20
471.371273
 30
0.0
 11
-143.828446
 21
417.371273
 31
0.0
  0
LINE
  5
763
100
AcDbEntity
  8
2
100
AcDbLine
 10
-142.328446
 20
471.371273
 30
0.0
 11
-168.328446
 21
471.371273
 31
0.0
  0
LINE
  5
764
100
AcDbEntity
  8
2
100
AcDbLine
 10
-142.328446
 20
417.371273
 30
0.0
 11
-168.328446
 21
417.371273
 31
0.0
  0
LINE
  5
765
100
AcDbEntity
  8
2
100
AcDbLine
 10
-168.328446
 20
471.371273
 30
0.0
 11
-167.328446
 21
472.371273
 31
0.0
  0
LINE
  5
766
100
AcDbEntity
  8
2
100
AcDbLine
 10
-168.328446
 20
417.371273
 30
0.0
 11
-167.328446
 21
416.371273
 31
0.0
  0
LINE
  5
767
100
AcDbEntity
  8
2
100
AcDbLine
 10
-143.328446
 20
416.371273
 30
0.0
 11
-142.328446
 21
417.371273
 31
0.0
  0
LINE
  5
768
100
AcDbEntity
  8
2
100
AcDbLine
 10
-142.328446
 20
471.371273
 30
0.0
 11
-143.328446
 21
472.371273
 31
0.0
  0
LINE
  5
769
100
AcDbEntity
  8
2
100
AcDbLine
 10
-166.828446
 20
471.371273
 30
0.0
 11
-167.328446
 21
472.371273
 31
0.0
  0
LINE
  5
76A
100
AcDbEntity
  8
2
100
AcDbLine
 10
-166.828446
 20
417.371273
 30
0.0
 11
-167.328446
 21
416.371273
 31
0.0
  0
LINE
  5
76B
100
AcDbEntity
  8
2
100
AcDbLine
 10
-143.828446
 20
417.371273
 30
0.0
 11
-143.328446
 21
416.371273
 31
0.0
  0
LINE
  5
76C
100
AcDbEntity
  8
2
100
AcDbLine
 10
-143.328446
 20
472.371273
 30
0.0
 11
-143.828446
 21
471.371273
 31
0.0
  0
CIRCLE
  5
76D
100
AcDbEntity
  8
2
100
AcDbCircle
 10
-155.328446
 20
441.371273
 30
0.0
 40
8.0
  0
LINE
  5
76E
100
AcDbEntity
  8
2
100
AcDbLine
 10
-150.55875
 20
439.871273
 30
0.0
 11
-160.098142
 21
439.871273
 31
0.0
  0
LINE
  5
76F
100
AcDbEntity
  8
2
100
AcDbLine
 10
-150.55875
 20
442.871273
 30
0.0
 11
-160.098142
 21
442.871273
 31
0.0
  0
CIRCLE
  5
770
100
AcDbEntity
  8
2
100
AcDbCircle
 10
-155.328446
 20
441.371273
 30
0.0
 40
5.0
  0
ARC
  5
771
100
AcDbEntity
  8
2
100
AcDbCircle
 10
-155.328446
 20
441.371273
 30
0.0
 40
4.5
100
AcDbArc
 50
199.471221
 51
340.528779
  0
ARC
  5
772
100
AcDbEntity
  8
2
100
AcDbCircle
 10
-155.328446
 20
441.371273
 30
0.0
 40
4.5
100
AcDbArc
 50
19.471221
 51
160.528779
  0
LINE
  5
773
100
AcDbEntity
  8
2
  6
CENTER
 62
     2
100
AcDbLine
 10
-831.10082
 20
441.371273
 30
0.0
 11
-867.147216
 21
441.371273
 31
0.0
  0
LINE
  5
774
100
AcDbEntity
  8
2
100
AcDbLine
 10
-855.328446
 20
444.835374
 30
0.0
 11
-855.328446
 21
437.907171
 31
0.0
  0
LINE
  5
775
100
AcDbEntity
  8
2
100
AcDbLine
 10
-843.328446
 20
444.835374
 30
0.0
 11
-843.328446
 21
437.907171
 31
0.0
  0
LINE
  5
776
100
AcDbEntity
  8
2
100
AcDbLine
 10
-849.328446
 20
434.443069
 30
0.0
 11
-855.328446
 21
437.907171
 31
0.0
  0
LINE
  5
777
100
AcDbEntity
  8
2
100
AcDbLine
 10
-843.328446
 20
444.835374
 30
0.0
 11
-849.328446
 21
448.299476
 31
0.0
  0
LINE
  5
778
100
AcDbEntity
  8
2
100
AcDbLine
 10
-849.328446
 20
448.299476
 30
0.0
 11
-855.328446
 21
444.835374
 31
0.0
  0
LINE
  5
779
100
AcDbEntity
  8
2
100
AcDbLine
 10
-849.328446
 20
434.443069
 30
0.0
 11
-843.328446
 21
437.907171
 31
0.0
  0
CIRCLE
  5
77A
100
AcDbEntity
  8
2
100
AcDbCircle
 10
-849.328446
 20
441.371273
 30
0.0
 40
6.0
  0
LINE
  5
77B
100
AcDbEntity
  8
2
100
AcDbLine
 10
-862.328446
 20
471.371273
 30
0.0
 11
-862.328446
 21
417.371273
 31
0.0
  0
LINE
  5
77C
100
AcDbEntity
  8
2
100
AcDbLine
 10
-836.328446
 20
471.371273
 30
0.0
 11
-836.328446
 21
417.371273
 31
0.0
  0
LINE
  5
77D
100
AcDbEntity
  8
2
100
AcDbLine
 10
-837.328446
 20
416.371273
 30
0.0
 11
-861.328446
 21
416.371273
 31
0.0
  0
LINE
  5
77E
100
AcDbEntity
  8
2
100
AcDbLine
 10
-837.328446
 20
472.371273
 30
0.0
 11
-861.328446
 21
472.371273
 31
0.0
  0
LINE
  5
77F
100
AcDbEntity
  8
2
100
AcDbLine
 10
-860.828446
 20
471.371273
 30
0.0
 11
-860.828446
 21
417.371273
 31
0.0
  0
LINE
  5
780
100
AcDbEntity
  8
2
100
AcDbLine
 10
-837.828446
 20
471.371273
 30
0.0
 11
-837.828446
 21
417.371273
 31
0.0
  0
LINE
  5
781
100
AcDbEntity
  8
2
100
AcDbLine
 10
-836.328446
 20
471.371273
 30
0.0
 11
-862.328446
 21
471.371273
 31
0.0
  0
LINE
  5
782
100
AcDbEntity
  8
2
100
AcDbLine
 10
-836.328446
 20
417.371273
 30
0.0
 11
-862.328446
 21
417.371273
 31
0.0
  0
LINE
  5
783
100
AcDbEntity
  8
2
100
AcDbLine
 10
-862.328446
 20
471.371273
 30
0.0
 11
-861.328446
 21
472.371273
 31
0.0
  0
LINE
  5
784
100
AcDbEntity
  8
2
100
AcDbLine
 10
-862.328446
 20
417.371273
 30
0.0
 11
-861.328446
 21
416.371273
 31
0.0
  0
LINE
  5
785
100
AcDbEntity
  8
2
100
AcDbLine
 10
-837.328446
 20
416.371273
 30
0.0
 11
-836.328446
 21
417.371273
 31
0.0
  0
LINE
  5
786
100
AcDbEntity
  8
2
100
AcDbLine
 10
-836.328446
 20
471.371273
 30
0.0
 11
-837.328446
 21
472.371273
 31
0.0
  0
LINE
  5
787
100
AcDbEntity
  8
2
100
AcDbLine
 10
-860.828446
 20
471.371273
 30
0.0
 11
-861.328446
 21
472.371273
 31
0.0
  0
LINE
  5
788
100
AcDbEntity
  8
2
100
AcDbLine
 10
-860.828446
 20
417.371273
 30
0.0
 11
-861.328446
 21
416.371273
 31
0.0
  0
LINE
  5
789
100
AcDbEntity
  8
2
100
AcDbLine
 10
-837.828446
 20
417.371273
 30
0.0
 11
-837.328446
 21
416.371273
 31
0.0
  0
LINE
  5
78A
100
AcDbEntity
  8
2
100
AcDbLine
 10
-837.328446
 20
472.371273
 30
0.0
 11
-837.828446
 21
471.371273
 31
0.0
  0
CIRCLE
  5
78B
100
AcDbEntity
  8
2
100
AcDbCircle
 10
-849.328446
 20
441.371273
 30
0.0
 40
8.0
  0
LINE
  5
78C
100
AcDbEntity
  8
2
100
AcDbLine
 10
-844.55875
 20
439.871273
 30
0.0
 11
-854.098142
 21
439.871273
 31
0.0
  0
LINE
  5
78D
100
AcDbEntity
  8
2
100
AcDbLine
 10
-844.55875
 20
442.871273
 30
0.0
 11
-854.098142
 21
442.871273
 31
0.0
  0
CIRCLE
  5
78E
100
AcDbEntity
  8
2
100
AcDbCircle
 10
-849.328446
 20
441.371273
 30
0.0
 40
5.0
  0
ARC
  5
78F
100
AcDbEntity
  8
2
100
AcDbCircle
 10
-849.328446
 20
441.371273
 30
0.0
 40
4.5
100
AcDbArc
 50
199.471221
 51
340.528779
  0
ARC
  5
790
100
AcDbEntity
  8
2
100
AcDbCircle
 10
-849.328446
 20
441.371273
 30
0.0
 40
4.5
100
AcDbArc
 50
19.471221
 51
160.528779
  0
LINE
  5
791
100
AcDbEntity
  8
2
100
AcDbLine
 10
-149.328446
 20
166.849035
 30
0.0
 11
-161.328446
 21
166.849035
 31
0.0
  0
LINE
  5
792
100
AcDbEntity
  8
2
100
AcDbLine
 10
-161.328446
 20
166.849035
 30
0.0
 11
-161.328446
 21
163.849035
 31
0.0
  0
LINE
  5
793
100
AcDbEntity
  8
2
100
AcDbLine
 10
-149.328446
 20
166.849035
 30
0.0
 11
-149.328446
 21
163.849035
 31
0.0
  0
ARC
  5
794
100
AcDbEntity
  8
2
100
AcDbCircle
 10
-158.328446
 20
170.627607
 30
0.0
 40
6.778571
100
AcDbArc
 50
243.731955
 51
296.268045
  0
ARC
  5
795
100
AcDbEntity
  8
2
100
AcDbCircle
 10
-158.328446
 20
160.070464
 30
0.0
 40
6.778571
100
AcDbArc
 50
63.731955
 51
116.268045
  0
ARC
  5
796
100
AcDbEntity
  8
2
100
AcDbCircle
 10
-152.328446
 20
160.070464
 30
0.0
 40
6.778571
100
AcDbArc
 50
63.731955
 51
116.268045
  0
ARC
  5
797
100
AcDbEntity
  8
2
100
AcDbCircle
 10
-152.328446
 20
170.627607
 30
0.0
 40
6.778571
100
AcDbArc
 50
243.731955
 51
296.268045
  0
LINE
  5
798
100
AcDbEntity
  8
2
100
AcDbLine
 10
-155.328446
 20
166.149035
 30
0.0
 11
-155.328446
 21
164.549035
 31
0.0
  0
LINE
  5
799
100
AcDbEntity
  8
2
100
AcDbLine
 10
-158.728446
 20
167.249035
 30
0.0
 11
-158.728446
 21
166.849035
 31
0.0
  0
LINE
  5
79A
100
AcDbEntity
  8
2
100
AcDbLine
 10
-151.928446
 20
167.249035
 30
0.0
 11
-151.928446
 21
166.849035
 31
0.0
  0
LINE
  5
79B
100
AcDbEntity
  8
2
100
AcDbLine
 10
-143.828446
 20
146.849035
 30
0.0
 11
-166.828446
 21
146.849035
 31
0.0
  0
LINE
  5
79C
100
AcDbEntity
  8
2
100
AcDbLine
 10
-142.328446
 20
115.849035
 30
0.0
 11
-168.328446
 21
115.849035
 31
0.0
  0
LINE
  5
79D
100
AcDbEntity
  8
2
100
AcDbLine
 10
-142.328446
 20
145.349035
 30
0.0
 11
-142.328446
 21
114.870011
 31
0.0
  0
LINE
  5
79E
100
AcDbEntity
  8
2
100
AcDbLine
 10
-168.328446
 20
145.349035
 30
0.0
 11
-168.328446
 21
114.870011
 31
0.0
  0
LINE
  5
79F
100
AcDbEntity
  8
2
100
AcDbLine
 10
-142.328446
 20
145.349035
 30
0.0
 11
-143.828446
 21
146.849035
 31
0.0
  0
LINE
  5
7A0
100
AcDbEntity
  8
2
100
AcDbLine
 10
-168.328446
 20
145.349035
 30
0.0
 11
-166.828446
 21
146.849035
 31
0.0
  0
LINE
  5
7A1
100
AcDbEntity
  8
2
100
AcDbLine
 10
-167.328446
 20
145.849035
 30
0.0
 11
-167.328446
 21
115.849035
 31
0.0
  0
LINE
  5
7A2
100
AcDbEntity
  8
2
100
AcDbLine
 10
-143.328446
 20
145.849035
 30
0.0
 11
-143.328446
 21
115.849035
 31
0.0
  0
LINE
  5
7A3
100
AcDbEntity
  8
2
100
AcDbLine
 10
-143.328446
 20
145.849035
 30
0.0
 11
-167.328446
 21
145.849035
 31
0.0
  0
LINE
  5
7A4
100
AcDbEntity
  8
2
100
AcDbLine
 10
-167.328446
 20
145.849035
 30
0.0
 11
-166.828446
 21
146.849035
 31
0.0
  0
LINE
  5
7A5
100
AcDbEntity
  8
2
100
AcDbLine
 10
-167.328446
 20
145.849035
 30
0.0
 11
-168.328446
 21
145.349035
 31
0.0
  0
LINE
  5
7A6
100
AcDbEntity
  8
2
100
AcDbLine
 10
-143.328446
 20
145.849035
 30
0.0
 11
-143.828446
 21
146.849035
 31
0.0
  0
LINE
  5
7A7
100
AcDbEntity
  8
2
100
AcDbLine
 10
-143.328446
 20
145.849035
 30
0.0
 11
-142.328446
 21
145.349035
 31
0.0
  0
LINE
  5
7A8
100
AcDbEntity
  8
2
100
AcDbLine
 10
-147.328446
 20
153.849035
 30
0.0
 11
-147.328446
 21
146.849035
 31
0.0
  0
LINE
  5
7A9
100
AcDbEntity
  8
2
100
AcDbLine
 10
-163.328446
 20
153.849035
 30
0.0
 11
-163.328446
 21
146.849035
 31
0.0
  0
LINE
  5
7AA
100
AcDbEntity
  8
2
100
AcDbLine
 10
-147.328446
 20
153.849035
 30
0.0
 11
-163.328446
 21
153.849035
 31
0.0
  0
LINE
  5
7AB
100
AcDbEntity
  8
2
100
AcDbLine
 10
-149.328446
 20
163.849035
 30
0.0
 11
-161.328446
 21
163.849035
 31
0.0
  0
LINE
  5
7AC
100
AcDbEntity
  8
2
100
AcDbLine
 10
-161.328446
 20
163.849035
 30
0.0
 11
-163.328446
 21
153.849035
 31
0.0
  0
LINE
  5
7AD
100
AcDbEntity
  8
2
100
AcDbLine
 10
-149.328446
 20
163.849035
 30
0.0
 11
-147.328446
 21
153.849035
 31
0.0
  0
LINE
  5
7AE
100
AcDbEntity
  8
2
100
AcDbLine
 10
-150.328446
 20
173.749035
 30
0.0
 11
-150.328446
 21
167.249035
 31
0.0
  0
LINE
  5
7AF
100
AcDbEntity
  8
2
100
AcDbLine
 10
-160.328446
 20
173.749035
 30
0.0
 11
-160.328446
 21
167.249035
 31
0.0
  0
LINE
  5
7B0
100
AcDbEntity
  8
2
100
AcDbLine
 10
-150.328446
 20
167.249035
 30
0.0
 11
-160.328446
 21
167.249035
 31
0.0
  0
LINE
  5
7B1
100
AcDbEntity
  8
2
100
AcDbLine
 10
-160.328446
 20
173.749035
 30
0.0
 11
-159.828446
 21
174.249035
 31
0.0
  0
LINE
  5
7B2
100
AcDbEntity
  8
2
100
AcDbLine
 10
-150.328446
 20
173.749035
 30
0.0
 11
-150.828446
 21
174.249035
 31
0.0
  0
LINE
  5
7B3
100
AcDbEntity
  8
2
100
AcDbLine
 10
-150.828446
 20
174.249035
 30
0.0
 11
-159.828446
 21
174.249035
 31
0.0
  0
LINE
  5
7B4
100
AcDbEntity
  8
2
100
AcDbLine
 10
-160.328446
 20
173.749035
 30
0.0
 11
-150.328446
 21
173.749035
 31
0.0
  0
LINE
  5
7B5
100
AcDbEntity
  8
2
  6
CENTER
 62
     2
100
AcDbLine
 10
-155.328446
 20
106.972778
 30
0.0
 11
-155.328446
 21
182.57568
 31
0.0
  0
CIRCLE
  5
7B6
100
AcDbEntity
  8
2
100
AcDbCircle
 10
-155.328446
 20
133.849035
 30
0.0
 40
7.475
  0
CIRCLE
  5
7B7
100
AcDbEntity
  8
2
 62
     2
100
AcDbCircle
 10
-155.328446
 20
133.849035
 30
0.0
 40
8.331
  0
LINE
  5
7B8
100
AcDbEntity
  8
2
100
AcDbLine
 10
-149.328446
 20
114.870011
 30
0.0
 11
-149.328446
 21
115.849035
 31
0.0
  0
ARC
  5
7B9
100
AcDbEntity
  8
2
100
AcDbCircle
 10
-145.828446
 20
122.249035
 30
0.0
 40
9.0
100
AcDbArc
 50
253.39845
 51
286.60155
  0
ARC
  5
7BA
100
AcDbEntity
  8
2
100
AcDbCircle
 10
-148.028446
 20
114.870011
 30
0.0
 40
1.3
100
AcDbArc
 50
180.0
 51
253.39845
  0
ARC
  5
7BB
100
AcDbEntity
  8
2
100
AcDbCircle
 10
-143.628446
 20
114.870011
 30
0.0
 40
1.3
100
AcDbArc
 50
286.60155
 51
360.0
  0
LINE
  5
7BC
100
AcDbEntity
  8
2
100
AcDbLine
 10
-161.328446
 20
114.870011
 30
0.0
 11
-161.328446
 21
115.849035
 31
0.0
  0
ARC
  5
7BD
100
AcDbEntity
  8
2
100
AcDbCircle
 10
-164.828446
 20
122.249035
 30
0.0
 40
9.0
100
AcDbArc
 50
253.39845
 51
286.60155
  0
ARC
  5
7BE
100
AcDbEntity
  8
2
100
AcDbCircle
 10
-162.628446
 20
114.870011
 30
0.0
 40
1.3
100
AcDbArc
 50
286.60155
 51
360.0
  0
ARC
  5
7BF
100
AcDbEntity
  8
2
100
AcDbCircle
 10
-167.028446
 20
114.870011
 30
0.0
 40
1.3
100
AcDbArc
 50
180.0
 51
253.39845
  0
CIRCLE
  5
7C0
100
AcDbEntity
  8
2
100
AcDbCircle
 10
-155.328446
 20
133.849035
 30
0.0
 40
5.5
  0
LINE
  5
7C1
100
AcDbEntity
  8
2
100
AcDbLine
 10
-149.920119
 20
132.849035
 30
0.0
 11
-160.736773
 21
132.849035
 31
0.0
  0
LINE
  5
7C2
100
AcDbEntity
  8
2
100
AcDbLine
 10
-153.328446
 20
132.849035
 30
0.0
 11
-153.328446
 21
129.849035
 31
0.0
  0
LINE
  5
7C3
100
AcDbEntity
  8
2
100
AcDbLine
 10
-157.328446
 20
132.849035
 30
0.0
 11
-157.328446
 21
129.849035
 31
0.0
  0
LINE
  5
7C4
100
AcDbEntity
  8
2
100
AcDbLine
 10
-153.328446
 20
129.849035
 30
0.0
 11
-157.328446
 21
129.849035
 31
0.0
  0
LINE
  5
7C5
100
AcDbEntity
  8
2
100
AcDbLine
 10
-843.328446
 20
166.849035
 30
0.0
 11
-855.328446
 21
166.849035
 31
0.0
  0
LINE
  5
7C6
100
AcDbEntity
  8
2
100
AcDbLine
 10
-855.328446
 20
166.849035
 30
0.0
 11
-855.328446
 21
163.849035
 31
0.0
  0
LINE
  5
7C7
100
AcDbEntity
  8
2
100
AcDbLine
 10
-843.328446
 20
166.849035
 30
0.0
 11
-843.328446
 21
163.849035
 31
0.0
  0
ARC
  5
7C8
100
AcDbEntity
  8
2
100
AcDbCircle
 10
-852.328446
 20
170.627607
 30
0.0
 40
6.778571
100
AcDbArc
 50
243.731955
 51
296.268045
  0
ARC
  5
7C9
100
AcDbEntity
  8
2
100
AcDbCircle
 10
-852.328446
 20
160.070464
 30
0.0
 40
6.778571
100
AcDbArc
 50
63.731955
 51
116.268045
  0
ARC
  5
7CA
100
AcDbEntity
  8
2
100
AcDbCircle
 10
-846.328446
 20
160.070464
 30
0.0
 40
6.778571
100
AcDbArc
 50
63.731955
 51
116.268045
  0
ARC
  5
7CB
100
AcDbEntity
  8
2
100
AcDbCircle
 10
-846.328446
 20
170.627607
 30
0.0
 40
6.778571
100
AcDbArc
 50
243.731955
 51
296.268045
  0
LINE
  5
7CC
100
AcDbEntity
  8
2
100
AcDbLine
 10
-849.328446
 20
166.149035
 30
0.0
 11
-849.328446
 21
164.549035
 31
0.0
  0
LINE
  5
7CD
100
AcDbEntity
  8
2
100
AcDbLine
 10
-852.728446
 20
167.249035
 30
0.0
 11
-852.728446
 21
166.849035
 31
0.0
  0
LINE
  5
7CE
100
AcDbEntity
  8
2
100
AcDbLine
 10
-845.928446
 20
167.249035
 30
0.0
 11
-845.928446
 21
166.849035
 31
0.0
  0
LINE
  5
7CF
100
AcDbEntity
  8
2
100
AcDbLine
 10
-837.828446
 20
146.849035
 30
0.0
 11
-860.828446
 21
146.849035
 31
0.0
  0
LINE
  5
7D0
100
AcDbEntity
  8
2
100
AcDbLine
 10
-836.328446
 20
115.849035
 30
0.0
 11
-862.328446
 21
115.849035
 31
0.0
  0
LINE
  5
7D1
100
AcDbEntity
  8
2
100
AcDbLine
 10
-836.328446
 20
145.349035
 30
0.0
 11
-836.328446
 21
114.870011
 31
0.0
  0
LINE
  5
7D2
100
AcDbEntity
  8
2
100
AcDbLine
 10
-862.328446
 20
145.349035
 30
0.0
 11
-862.328446
 21
114.870011
 31
0.0
  0
LINE
  5
7D3
100
AcDbEntity
  8
2
100
AcDbLine
 10
-836.328446
 20
145.349035
 30
0.0
 11
-837.828446
 21
146.849035
 31
0.0
  0
LINE
  5
7D4
100
AcDbEntity
  8
2
100
AcDbLine
 10
-862.328446
 20
145.349035
 30
0.0
 11
-860.828446
 21
146.849035
 31
0.0
  0
LINE
  5
7D5
100
AcDbEntity
  8
2
100
AcDbLine
 10
-861.328446
 20
145.849035
 30
0.0
 11
-861.328446
 21
115.849035
 31
0.0
  0
LINE
  5
7D6
100
AcDbEntity
  8
2
100
AcDbLine
 10
-837.328446
 20
145.849035
 30
0.0
 11
-837.328446
 21
115.849035
 31
0.0
  0
LINE
  5
7D7
100
AcDbEntity
  8
2
100
AcDbLine
 10
-837.328446
 20
145.849035
 30
0.0
 11
-861.328446
 21
145.849035
 31
0.0
  0
LINE
  5
7D8
100
AcDbEntity
  8
2
100
AcDbLine
 10
-861.328446
 20
145.849035
 30
0.0
 11
-860.828446
 21
146.849035
 31
0.0
  0
LINE
  5
7D9
100
AcDbEntity
  8
2
100
AcDbLine
 10
-861.328446
 20
145.849035
 30
0.0
 11
-862.328446
 21
145.349035
 31
0.0
  0
LINE
  5
7DA
100
AcDbEntity
  8
2
100
AcDbLine
 10
-837.328446
 20
145.849035
 30
0.0
 11
-837.828446
 21
146.849035
 31
0.0
  0
LINE
  5
7DB
100
AcDbEntity
  8
2
100
AcDbLine
 10
-837.328446
 20
145.849035
 30
0.0
 11
-836.328446
 21
145.349035
 31
0.0
  0
LINE
  5
7DC
100
AcDbEntity
  8
2
100
AcDbLine
 10
-841.328446
 20
153.849035
 30
0.0
 11
-841.328446
 21
146.849035
 31
0.0
  0
LINE
  5
7DD
100
AcDbEntity
  8
2
100
AcDbLine
 10
-857.328446
 20
153.849035
 30
0.0
 11
-857.328446
 21
146.849035
 31
0.0
  0
LINE
  5
7DE
100
AcDbEntity
  8
2
100
AcDbLine
 10
-841.328446
 20
153.849035
 30
0.0
 11
-857.328446
 21
153.849035
 31
0.0
  0
LINE
  5
7DF
100
AcDbEntity
  8
2
100
AcDbLine
 10
-843.328446
 20
163.849035
 30
0.0
 11
-855.328446
 21
163.849035
 31
0.0
  0
LINE
  5
7E0
100
AcDbEntity
  8
2
100
AcDbLine
 10
-855.328446
 20
163.849035
 30
0.0
 11
-857.328446
 21
153.849035
 31
0.0
  0
LINE
  5
7E1
100
AcDbEntity
  8
2
100
AcDbLine
 10
-843.328446
 20
163.849035
 30
0.0
 11
-841.328446
 21
153.849035
 31
0.0
  0
LINE
  5
7E2
100
AcDbEntity
  8
2
100
AcDbLine
 10
-844.328446
 20
173.749035
 30
0.0
 11
-844.328446
 21
167.249035
 31
0.0
  0
LINE
  5
7E3
100
AcDbEntity
  8
2
100
AcDbLine
 10
-854.328446
 20
173.749035
 30
0.0
 11
-854.328446
 21
167.249035
 31
0.0
  0
LINE
  5
7E4
100
AcDbEntity
  8
2
100
AcDbLine
 10
-844.328446
 20
167.249035
 30
0.0
 11
-854.328446
 21
167.249035
 31
0.0
  0
LINE
  5
7E5
100
AcDbEntity
  8
2
100
AcDbLine
 10
-854.328446
 20
173.749035
 30
0.0
 11
-853.828446
 21
174.249035
 31
0.0
  0
LINE
  5
7E6
100
AcDbEntity
  8
2
100
AcDbLine
 10
-844.328446
 20
173.749035
 30
0.0
 11
-844.828446
 21
174.249035
 31
0.0
  0
LINE
  5
7E7
100
AcDbEntity
  8
2
100
AcDbLine
 10
-844.828446
 20
174.249035
 30
0.0
 11
-853.828446
 21
174.249035
 31
0.0
  0
LINE
  5
7E8
100
AcDbEntity
  8
2
100
AcDbLine
 10
-854.328446
 20
173.749035
 30
0.0
 11
-844.328446
 21
173.749035
 31
0.0
  0
LINE
  5
7E9
100
AcDbEntity
  8
2
  6
CENTER
 62
     2
100
AcDbLine
 10
-849.328446
 20
106.972778
 30
0.0
 11
-849.328446
 21
182.57568
 31
0.0
  0
CIRCLE
  5
7EA
100
AcDbEntity
  8
2
100
AcDbCircle
 10
-849.328446
 20
133.849035
 30
0.0
 40
7.475
  0
CIRCLE
  5
7EB
100
AcDbEntity
  8
2
 62
     2
100
AcDbCircle
 10
-849.328446
 20
133.849035
 30
0.0
 40
8.331
  0
LINE
  5
7EC
100
AcDbEntity
  8
2
100
AcDbLine
 10
-843.328446
 20
114.870011
 30
0.0
 11
-843.328446
 21
115.849035
 31
0.0
  0
ARC
  5
7ED
100
AcDbEntity
  8
2
100
AcDbCircle
 10
-839.828446
 20
122.249035
 30
0.0
 40
9.0
100
AcDbArc
 50
253.39845
 51
286.60155
  0
ARC
  5
7EE
100
AcDbEntity
  8
2
100
AcDbCircle
 10
-842.028446
 20
114.870011
 30
0.0
 40
1.3
100
AcDbArc
 50
180.0
 51
253.39845
  0
ARC
  5
7EF
100
AcDbEntity
  8
2
100
AcDbCircle
 10
-837.628446
 20
114.870011
 30
0.0
 40
1.3
100
AcDbArc
 50
286.60155
 51
360.0
  0
LINE
  5
7F0
100
AcDbEntity
  8
2
100
AcDbLine
 10
-855.328446
 20
114.870011
 30
0.0
 11
-855.328446
 21
115.849035
 31
0.0
  0
ARC
  5
7F1
100
AcDbEntity
  8
2
100
AcDbCircle
 10
-858.828446
 20
122.249035
 30
0.0
 40
9.0
100
AcDbArc
 50
253.39845
 51
286.60155
  0
ARC
  5
7F2
100
AcDbEntity
  8
2
100
AcDbCircle
 10
-856.628446
 20
114.870011
 30
0.0
 40
1.3
100
AcDbArc
 50
286.60155
 51
360.0
  0
ARC
  5
7F3
100
AcDbEntity
  8
2
100
AcDbCircle
 10
-861.028446
 20
114.870011
 30
0.0
 40
1.3
100
AcDbArc
 50
180.0
 51
253.39845
  0
CIRCLE
  5
7F4
100
AcDbEntity
  8
2
100
AcDbCircle
 10
-849.328446
 20
133.849035
 30
0.0
 40
5.5
  0
LINE
  5
7F5
100
AcDbEntity
  8
2
100
AcDbLine
 10
-843.920119
 20
132.849035
 30
0.0
 11
-854.736773
 21
132.849035
 31
0.0
  0
LINE
  5
7F6
100
AcDbEntity
  8
2
100
AcDbLine
 10
-847.328446
 20
132.849035
 30
0.0
 11
-847.328446
 21
129.849035
 31
0.0
  0
LINE
  5
7F7
100
AcDbEntity
  8
2
100
AcDbLine
 10
-851.328446
 20
132.849035
 30
0.0
 11
-851.328446
 21
129.849035
 31
0.0
  0
LINE
  5
7F8
100
AcDbEntity
  8
2
100
AcDbLine
 10
-847.328446
 20
129.849035
 30
0.0
 11
-851.328446
 21
129.849035
 31
0.0
  0
ARC
  5
7F9
100
AcDbEntity
  8
2
100
AcDbCircle
 10
188.130537
 20
75.849035
 30
0.0
 40
6.0
100
AcDbArc
 50
270.0
 51
360.0
  0
LINE
  5
7FA
100
AcDbEntity
  8
2
100
AcDbLine
 10
194.130537
 20
75.849035
 30
0.0
 11
194.130537
 21
115.849035
 31
0.0
  0
LINE
  5
7FB
100
AcDbEntity
  8
2
100
AcDbLine
 10
194.130537
 20
146.849035
 30
0.0
 11
194.130537
 21
164.849035
 31
0.0
  0
TEXT
  5
7FC
100
AcDbEntity
  8
2
100
AcDbText
 10
-432.328446
 20
582.371273
 30
0.0
 40
14.0
  1
ＴＯＭＯＥＶＡＬＶＥ
 50
180.0
 72
     5
 11
-569.528446
 21
582.371272
 31
0.0
100
AcDbText
  0
TEXT
  5
7FD
100
AcDbEntity
  8
2
100
AcDbText
 10
-477.328446
 20
599.371273
 30
0.0
 40
10.0
  1
ＴＧ－１２
 50
180.0
 72
     5
 11
-525.328446
 21
599.371273
 31
0.0
100
AcDbText
  0
TEXT
  5
7FE
100
AcDbEntity
  8
2
100
AcDbText
 10
-457.366506
 20
551.404281
 30
0.0
 40
12.0
  1
Ｓ
 50
315.0
 72
     5
 11
-450.57828
 21
544.616056
 31
0.0
100
AcDbText
  0
TEXT
  5
7FF
100
AcDbEntity
  8
2
100
AcDbText
 10
-556.361455
 20
542.333213
 30
0.0
 40
12.0
  1
Ｏ
 50
45.0
 72
     5
 11
-549.57323
 21
549.121438
 31
0.0
100
AcDbText
  0
ARC
  5
800
100
AcDbEntity
  8
2
100
AcDbCircle
 10
-232.205947
 20
654.74675
 30
0.0
 40
4.0
100
AcDbArc
 50
141.317812
 51
218.682188
  0
ARC
  5
801
100
AcDbEntity
  8
2
100
AcDbCircle
 10
-238.450945
 20
649.74675
 30
0.0
 40
4.0
100
AcDbArc
 50
321.317812
 51
38.682188
  0
ARC
  5
802
100
AcDbEntity
  8
2
100
AcDbCircle
 10
-456.705947
 20
654.74675
 30
0.0
 40
4.0
100
AcDbArc
 50
141.317812
 51
218.682188
  0
ARC
  5
803
100
AcDbEntity
  8
2
100
AcDbCircle
 10
-462.950945
 20
649.74675
 30
0.0
 40
4.0
100
AcDbArc
 50
321.317812
 51
38.682188
  0
ARC
  5
804
100
AcDbEntity
  8
2
100
AcDbCircle
 10
-547.950945
 20
654.74675
 30
0.0
 40
4.0
100
AcDbArc
 50
321.317812
 51
38.682188
  0
ARC
  5
805
100
AcDbEntity
  8
2
100
AcDbCircle
 10
-541.705947
 20
649.74675
 30
0.0
 40
4.0
100
AcDbArc
 50
141.317812
 51
218.682188
  0
ARC
  5
806
100
AcDbEntity
  8
2
100
AcDbCircle
 10
-772.450945
 20
654.74675
 30
0.0
 40
4.0
100
AcDbArc
 50
321.317812
 51
38.682188
  0
ARC
  5
807
100
AcDbEntity
  8
2
100
AcDbCircle
 10
-766.205947
 20
649.74675
 30
0.0
 40
4.0
100
AcDbArc
 50
141.317812
 51
218.682188
  0
LINE
  5
808
100
AcDbEntity
  8
3
100
AcDbLine
 10
-425.828446
 20
-145.150965
 30
0.0
 11
-578.828446
 21
-145.150965
 31
0.0
  0
LINE
  5
809
100
AcDbEntity
  8
3
100
AcDbLine
 10
153.771554
 20
37.849035
 30
0.0
 11
303.771554
 21
37.849035
 31
0.0
  0
LINE
  5
80A
100
AcDbEntity
  8
3
100
AcDbLine
 10
153.771554
 20
-145.150965
 30
0.0
 11
303.771554
 21
-145.150965
 31
0.0
  0
LINE
  5
80B
100
AcDbEntity
  8
3
100
AcDbLine
 10
-425.828446
 20
-133.150965
 30
0.0
 11
-578.828446
 21
-133.150965
 31
0.0
  0
LINE
  5
80C
100
AcDbEntity
  8
3
100
AcDbLine
 10
-594.828446
 20
37.849035
 30
0.0
 11
-594.828446
 21
-129.150965
 31
0.0
  0
LINE
  5
80D
100
AcDbEntity
  8
3
100
AcDbLine
 10
-409.828446
 20
37.849035
 30
0.0
 11
-409.828446
 21
-129.150965
 31
0.0
  0
LINE
  5
80E
100
AcDbEntity
  8
3
100
AcDbLine
 10
-421.828446
 20
44.482374
 30
0.0
 11
-421.828446
 21
-129.150965
 31
0.0
  0
LINE
  5
80F
100
AcDbEntity
  8
3
100
AcDbLine
 10
-582.828446
 20
44.849035
 30
0.0
 11
-582.828446
 21
-129.150965
 31
0.0
  0
LINE
  5
810
100
AcDbEntity
  8
3
100
AcDbLine
 10
-421.828446
 20
29.849035
 30
0.0
 11
-582.828446
 21
29.849035
 31
0.0
  0
LINE
  5
811
100
AcDbEntity
  8
3
100
AcDbLine
 10
-594.828446
 20
37.849035
 30
0.0
 11
-582.828446
 21
37.849035
 31
0.0
  0
LINE
  5
812
100
AcDbEntity
  8
3
100
AcDbLine
 10
-421.828446
 20
37.849035
 30
0.0
 11
-409.828446
 21
37.849035
 31
0.0
  0
ARC
  5
813
100
AcDbEntity
  8
3
100
AcDbCircle
 10
-425.828446
 20
-129.150965
 30
0.0
 40
4.0
100
AcDbArc
 50
270.0
 51
360.0
  0
ARC
  5
814
100
AcDbEntity
  8
3
100
AcDbCircle
 10
-578.828446
 20
-129.150965
 30
0.0
 40
4.0
100
AcDbArc
 50
180.0
 51
270.0
  0
ARC
  5
815
100
AcDbEntity
  8
3
100
AcDbCircle
 10
-425.828446
 20
-129.150965
 30
0.0
 40
16.0
100
AcDbArc
 50
270.0
 51
360.0
  0
ARC
  5
816
100
AcDbEntity
  8
3
100
AcDbCircle
 10
-578.828446
 20
-129.150965
 30
0.0
 40
16.0
100
AcDbArc
 50
180.0
 51
270.0
  0
LINE
  5
817
100
AcDbEntity
  8
3
100
AcDbLine
 10
-421.38095
 20
44.401538
 30
0.0
 11
-414.828446
 21
37.849035
 31
0.0
  0
LINE
  5
818
100
AcDbEntity
  8
3
100
AcDbLine
 10
-582.828446
 20
44.849035
 30
0.0
 11
-589.828446
 21
37.849035
 31
0.0
  0
LINE
  5
819
100
AcDbEntity
  8
3
100
AcDbLine
 10
-421.828446
 20
22.849035
 30
0.0
 11
-428.828446
 21
29.849035
 31
0.0
  0
LINE
  5
81A
100
AcDbEntity
  8
3
100
AcDbLine
 10
-582.828446
 20
22.849035
 30
0.0
 11
-575.828446
 21
29.849035
 31
0.0
  0
LINE
  5
81B
100
AcDbEntity
  8
3
100
AcDbLine
 10
-433.828446
 20
44.849035
 30
0.0
 11
-433.828446
 21
29.849035
 31
0.0
  0
LINE
  5
81C
100
AcDbEntity
  8
3
100
AcDbLine
 10
-570.828446
 20
44.849035
 30
0.0
 11
-570.828446
 21
29.849035
 31
0.0
  0
LINE
  5
81D
100
AcDbEntity
  8
3
100
AcDbLine
 10
141.271554
 20
44.849035
 30
0.0
 11
141.271554
 21
29.849035
 31
0.0
  0
LINE
  5
81E
100
AcDbEntity
  8
3
100
AcDbLine
 10
316.271554
 20
44.849035
 30
0.0
 11
316.271554
 21
29.849035
 31
0.0
  0
LINE
  5
81F
100
AcDbEntity
  8
3
100
AcDbLine
 10
153.771554
 20
37.849035
 30
0.0
 11
153.771554
 21
-145.150965
 31
0.0
  0
LINE
  5
820
100
AcDbEntity
  8
3
100
AcDbLine
 10
303.771554
 20
37.849035
 30
0.0
 11
303.771554
 21
-145.150965
 31
0.0
  0
LINE
  5
821
100
AcDbEntity
  8
3
100
AcDbLine
 10
141.271554
 20
29.849035
 30
0.0
 11
153.771554
 21
29.849035
 31
0.0
  0
LINE
  5
822
100
AcDbEntity
  8
3
100
AcDbLine
 10
303.771554
 20
29.849035
 30
0.0
 11
316.271554
 21
29.849035
 31
0.0
  0
LINE
  5
823
100
AcDbEntity
  8
3
100
AcDbLine
 10
304.271554
 20
44.849035
 30
0.0
 11
304.271554
 21
29.849035
 31
0.0
  0
LINE
  5
824
100
AcDbEntity
  8
3
100
AcDbLine
 10
153.271554
 20
44.849035
 30
0.0
 11
153.271554
 21
29.849035
 31
0.0
  0
LINE
  5
825
100
AcDbEntity
  8
3
100
AcDbLine
 10
-471.328446
 20
-99.150965
 30
0.0
 11
-533.328446
 21
-99.150965
 31
0.0
  0
LINE
  5
826
100
AcDbEntity
  8
3
100
AcDbLine
 10
-470.328446
 20
-24.150965
 30
0.0
 11
-534.328446
 21
-24.150965
 31
0.0
  0
LINE
  5
827
100
AcDbEntity
  8
3
100
AcDbLine
 10
-534.328446
 20
-24.150965
 30
0.0
 11
-534.328446
 21
-98.150965
 31
0.0
  0
LINE
  5
828
100
AcDbEntity
  8
3
100
AcDbLine
 10
-470.328446
 20
-24.150965
 30
0.0
 11
-470.328446
 21
-98.150965
 31
0.0
  0
LINE
  5
829
100
AcDbEntity
  8
3
100
AcDbLine
 10
-470.328446
 20
-98.150965
 30
0.0
 11
-471.328446
 21
-99.150965
 31
0.0
  0
LINE
  5
82A
100
AcDbEntity
  8
3
100
AcDbLine
 10
-533.328446
 20
-99.150965
 30
0.0
 11
-534.328446
 21
-98.150965
 31
0.0
  0
LINE
  5
82B
100
AcDbEntity
  8
3
100
AcDbLine
 10
-470.328446
 20
-98.150965
 30
0.0
 11
-534.328446
 21
-98.150965
 31
0.0
  0
LINE
  5
82C
100
AcDbEntity
  8
3
100
AcDbLine
 10
-472.328446
 20
-19.150965
 30
0.0
 11
-472.328446
 21
29.849035
 31
0.0
  0
LINE
  5
82D
100
AcDbEntity
  8
3
100
AcDbLine
 10
-532.328446
 20
-19.150965
 30
0.0
 11
-532.328446
 21
29.849035
 31
0.0
  0
LINE
  5
82E
100
AcDbEntity
  8
3
100
AcDbLine
 10
-472.328446
 20
-19.150965
 30
0.0
 11
-532.328446
 21
-19.150965
 31
0.0
  0
LINE
  5
82F
100
AcDbEntity
  8
3
100
AcDbLine
 10
-472.328446
 20
-19.150965
 30
0.0
 11
-470.328446
 21
-24.150965
 31
0.0
  0
LINE
  5
830
100
AcDbEntity
  8
3
100
AcDbLine
 10
-532.328446
 20
-19.150965
 30
0.0
 11
-534.328446
 21
-24.150965
 31
0.0
  0
TEXT
  5
831
100
AcDbEntity
  8
5
100
AcDbText
 10
549.888931
 20
353.280876
 30
0.0
 40
36.0
  1
駆動部・・・ＴＧＡ－１２５
 72
     5
 11
1010.688931
 21
353.280876
 31
0.0
100
AcDbText
  0
DIMENSION
  5
832
100
AcDbEntity
  8
5
100
AcDbDimension
  2
*D0
 10
-121.828446
 20
701.48291
 30
0.0
 11
-312.078446
 21
714.38291
 31
0.0
  1
381
100
AcDbAlignedDimension
 13
-502.328446
 23
645.55659
 33
0.0
 14
-121.828446
 24
568.018273
 34
0.0
100
AcDbRotatedDimension
  0
DIMENSION
  5
833
100
AcDbEntity
  8
5
100
AcDbDimension
  2
*D1
 10
-121.828446
 20
745.99379
 30
0.0
 11
-498.578446
 21
758.89379
 31
0.0
  1
754
100
AcDbAlignedDimension
 13
-875.328446
 23
622.559273
 33
0.0
 14
-121.828446
 24
568.018273
 34
0.0
100
AcDbRotatedDimension
  0
DIMENSION
  5
834
100
AcDbEntity
  8
5
100
AcDbDimension
  2
*D2
 10
47.747166
 20
44.849035
 30
0.0
 11
23.957166
 21
-51.140965
 31
0.0
  1
190
100
AcDbAlignedDimension
 13
153.771554
 23
-145.150965
 33
0.0
 14
128.771554
 24
44.849035
 34
0.0
 50
90.0
100
AcDbRotatedDimension
  0
DIMENSION
  5
835
100
AcDbEntity
  8
5
100
AcDbDimension
  2
*D3
 10
47.747166
 20
278.849035
 30
0.0
 11
23.957166
 21
160.859035
 31
0.0
  1
234
100
AcDbAlignedDimension
 13
128.771554
 23
44.849035
 33
0.0
 14
211.771554
 24
278.849035
 34
0.0
 50
90.0
100
AcDbRotatedDimension
  0
DIMENSION
  5
836
100
AcDbEntity
  8
5
100
AcDbDimension
  2
*D4
 10
290.771554
 20
325.85685
 30
0.0
 11
259.771554
 21
338.75685
 31
0.0
  1
62
100
AcDbAlignedDimension
 13
228.771554
 23
302.771498
 33
0.0
 14
290.771554
 24
244.349035
 34
0.0
100
AcDbRotatedDimension
  0
DIMENSION
  5
837
100
AcDbEntity
  8
5
100
AcDbDimension
  2
*D5
 10
228.771554
 20
373.413712
 30
0.0
 11
178.771554
 21
386.313711
 31
0.0
  1
100
100
AcDbAlignedDimension
 13
128.771554
 23
67.849035
 33
0.0
 14
228.771554
 24
302.771498
 34
0.0
100
AcDbRotatedDimension
  0
DIMENSION
  5
838
100
AcDbEntity
  8
5
100
AcDbDimension
  2
*D6
 10
395.771554
 20
373.413712
 30
0.0
 11
312.271554
 21
386.313711
 31
0.0
  1
167
100
AcDbAlignedDimension
 13
228.771554
 23
302.771498
 33
0.0
 14
395.771554
 24
143.849035
 34
0.0
100
AcDbRotatedDimension
  0
DIMENSION
  5
839
100
AcDbEntity
  8
5
100
AcDbDimension
  2
*D7
 10
47.747166
 20
-145.150965
 30
0.0
 11
23.957166
 21
-301.140965
 31
0.0
  1
310
100
AcDbAlignedDimension
 13
154.545785
 23
-455.150965
 33
0.0
 14
153.771554
 24
-145.150965
 34
0.0
 50
90.0
100
AcDbRotatedDimension
  0
DIMENSION
  5
83A
100
AcDbEntity
  8
5
100
AcDbDimension
  2
*D8
 10
47.747166
 20
-455.150965
 30
0.0
 11
23.957166
 21
-578.890965
 31
0.0
  1
246
100
AcDbAlignedDimension
 13
201.271554
 23
-700.650965
 33
0.0
 14
154.545785
 24
-455.150965
 34
0.0
 50
90.0
100
AcDbRotatedDimension
  0
DIMENSION
  5
83B
100
AcDbEntity
  8
5
100
AcDbDimension
  2
*D9
 10
228.771554
 20
-751.841034
 30
0.0
 11
165.911554
 21
-738.941034
 31
0.0
  1
34
100
AcDbAlignedDimension
 13
194.771554
 23
-639.150965
 33
0.0
 14
228.771554
 24
-727.493906
 34
0.0
100
AcDbRotatedDimension
  0
DIMENSION
  5
83C
100
AcDbEntity
  8
5
100
AcDbDimension
  2
*D10
 10
274.771554
 20
-799.549164
 30
0.0
 11
234.771554
 21
-786.649164
 31
0.0
  1
80
100
AcDbAlignedDimension
 13
194.771554
 23
-639.150965
 33
0.0
 14
274.771554
 24
-639.150965
 34
0.0
100
AcDbRotatedDimension
  0
LINE
  5
83D
100
AcDbEntity
  8
18
100
AcDbLine
 10
361.41935
 20
-455.150965
 30
0.0
 11
541.41935
 21
-455.150965
 31
0.0
  0
LINE
  5
83E
100
AcDbEntity
  8
18
100
AcDbLine
 10
361.41935
 20
-455.150965
 30
0.0
 11
421.41935
 21
-439.074013
 31
0.0
  0
LINE
  5
83F
100
AcDbEntity
  8
18
100
AcDbLine
 10
421.41935
 20
-439.074013
 30
0.0
 11
421.41935
 21
-471.227916
 31
0.0
  0
LINE
  5
840
100
AcDbEntity
  8
18
100
AcDbLine
 10
361.41935
 20
-455.150965
 30
0.0
 11
421.41935
 21
-471.227916
 31
0.0
  0
TEXT
  5
841
100
AcDbEntity
  8
18
100
AcDbText
 10
733.794754
 20
-799.63147
 30
0.0
 40
18.0
  1
１
 72
     5
 11
748.194754
 21
-799.63147
 31
0.0
100
AcDbText
  0
TEXT
  5
842
100
AcDbEntity
  8
18
100
AcDbText
 10
437.478256
 20
-444.665085
 30
0.0
 40
30.0
  1
高圧側
 72
     5
 11
521.478256
 21
-444.665085
 31
0.0
100
AcDbText
  0
TEXT
  5
843
100
AcDbEntity
  8
18
100
AcDbText
 10
757.785461
 20
-822.100616
 30
0.0
 40
18.0
  1
６
 72
     5
 11
772.185461
 21
-822.100616
 31
0.0
100
AcDbText
  0
LINE
  5
844
100
AcDbEntity
  8
18
100
AcDbLine
 10
412.042007
 20
690.555588
 30
0.0
 11
412.042007
 21
480.555588
 31
0.0
  0
LINE
  5
845
100
AcDbEntity
  8
18
100
AcDbLine
 10
1084.042007
 20
540.555588
 30
0.0
 11
412.042007
 21
540.555588
 31
0.0
  0
LINE
  5
846
100
AcDbEntity
  8
18
100
AcDbLine
 10
1084.042007
 20
510.555588
 30
0.0
 11
412.042007
 21
510.555588
 31
0.0
  0
LINE
  5
847
100
AcDbEntity
  8
18
100
AcDbLine
 10
1084.042007
 20
480.555588
 30
0.0
 11
412.042007
 21
480.555588
 31
0.0
  0
LINE
  5
848
100
AcDbEntity
  8
18
100
AcDbLine
 10
580.042007
 20
690.555588
 30
0.0
 11
580.042007
 21
510.555588
 31
0.0
  0
LINE
  5
849
100
AcDbEntity
  8
18
100
AcDbLine
 10
748.042007
 20
690.555588
 30
0.0
 11
748.042007
 21
510.555588
 31
0.0
  0
LINE
  5
84A
100
AcDbEntity
  8
18
100
AcDbLine
 10
916.042007
 20
690.555588
 30
0.0
 11
916.042007
 21
510.555588
 31
0.0
  0
LINE
  5
84B
100
AcDbEntity
  8
18
100
AcDbLine
 10
1084.042007
 20
690.555588
 30
0.0
 11
1084.042007
 21
480.555588
 31
0.0
  0
LINE
  5
84C
100
AcDbEntity
  8
18
100
AcDbLine
 10
412.042007
 20
690.555588
 30
0.0
 11
1084.042007
 21
690.555588
 31
0.0
  0
TEXT
  5
84D
100
AcDbEntity
  8
18
100
AcDbText
 10
484.826431
 20
517.622864
 30
0.0
 40
18.0
  1
Ａ
 72
     5
 11
499.226431
 21
517.622864
 31
0.0
100
AcDbText
  0
TEXT
  5
84E
100
AcDbEntity
  8
18
100
AcDbText
 10
652.754745
 20
517.141937
 30
0.0
 40
18.0
  1
Ｂ
 72
     5
 11
667.154745
 21
517.141937
 31
0.0
100
AcDbText
  0
TEXT
  5
84F
100
AcDbEntity
  8
18
100
AcDbText
 10
820.826431
 20
517.622864
 30
0.0
 40
18.0
  1
Ｃ
 72
     5
 11
835.226431
 21
517.622864
 31
0.0
100
AcDbText
  0
TEXT
  5
850
100
AcDbEntity
  8
18
100
AcDbText
 10
651.792938
 20
486.981417
 30
0.0
 40
18.0
  1
アクチュエ－タ取付方向
 72
     5
 11
846.192938
 21
486.981417
 31
0.0
100
AcDbText
  0
TEXT
  5
851
100
AcDbEntity
  8
18
100
AcDbText
 10
443.096375
 20
546.829285
 30
0.0
 40
15.0
  1
弁棒側　低圧側
 72
     5
 11
545.096375
 21
546.829285
 31
0.0
100
AcDbText
  0
TEXT
  5
852
100
AcDbEntity
  8
18
100
AcDbText
 10
428.718338
 20
666.263443
 30
0.0
 40
15.0
  1
フラット側　高圧側
 72
     5
 11
560.718338
 21
666.263443
 31
0.0
100
AcDbText
  0
TEXT
  5
853
100
AcDbEntity
  8
18
100
AcDbText
 10
988.826431
 20
517.622864
 30
0.0
 40
18.0
  1
Ｄ
 72
     5
 11
1003.226431
 21
517.622864
 31
0.0
100
AcDbText
  0
LINE
  5
854
100
AcDbEntity
  8
18
  6
CENTER
 62
     2
100
AcDbLine
 10
507.528829
 20
597.802154
 30
0.0
 11
488.41457
 21
597.802152
 31
0.0
  0
LINE
  5
855
100
AcDbEntity
  8
18
  6
CENTER
 62
     2
100
AcDbLine
 10
497.289697
 20
573.683654
 30
0.0
 11
497.289697
 21
621.232309
 31
0.0
  0
LINE
  5
856
100
AcDbEntity
  8
18
100
AcDbLine
 10
468.121799
 20
588.079521
 30
0.0
 11
468.121799
 21
594.02113
 31
0.0
  0
LINE
  5
857
100
AcDbEntity
  8
18
100
AcDbLine
 10
526.457594
 20
588.079521
 30
0.0
 11
526.457594
 21
594.02113
 31
0.0
  0
LINE
  5
858
100
AcDbEntity
  8
18
  6
CENTER
 62
     2
100
AcDbLine
 10
555.511171
 20
605.904347
 30
0.0
 11
437.643081
 21
605.904347
 31
0.0
  0
LINE
  5
859
100
AcDbEntity
  8
18
100
AcDbLine
 10
551.304322
 20
617.787565
 30
0.0
 11
443.275072
 21
617.787565
 31
0.0
  0
LINE
  5
85A
100
AcDbEntity
  8
18
100
AcDbLine
 10
443.275072
 20
594.02113
 30
0.0
 11
443.275072
 21
617.787565
 31
0.0
  0
LINE
  5
85B
100
AcDbEntity
  8
18
100
AcDbLine
 10
551.304322
 20
594.02113
 30
0.0
 11
551.304322
 21
617.787565
 31
0.0
  0
LINE
  5
85C
100
AcDbEntity
  8
18
100
AcDbLine
 10
481.085309
 20
594.02113
 30
0.0
 11
481.085309
 21
617.787565
 31
0.0
  0
LINE
  5
85D
100
AcDbEntity
  8
18
100
AcDbLine
 10
513.494084
 20
594.02113
 30
0.0
 11
513.494084
 21
617.787565
 31
0.0
  0
LINE
  5
85E
100
AcDbEntity
  8
18
100
AcDbLine
 10
513.494084
 20
594.02113
 30
0.0
 11
501.008654
 21
589.443139
 31
0.0
  0
LINE
  5
85F
100
AcDbEntity
  8
18
100
AcDbLine
 10
493.570739
 20
589.443139
 30
0.0
 11
481.085309
 21
594.02113
 31
0.0
  0
ARC
  5
860
100
AcDbEntity
  8
18
100
AcDbCircle
 10
497.289697
 20
599.585749
 30
0.0
 40
10.802925
100
AcDbArc
 50
249.863697
 51
290.136303
  0
LINE
  5
861
100
AcDbEntity
  8
18
100
AcDbLine
 10
551.304322
 20
594.02113
 30
0.0
 11
513.494084
 21
594.02113
 31
0.0
  0
LINE
  5
862
100
AcDbEntity
  8
18
100
AcDbLine
 10
481.085309
 20
594.02113
 30
0.0
 11
443.275072
 21
594.02113
 31
0.0
  0
ARC
  5
863
100
AcDbEntity
  8
18
100
AcDbCircle
 10
497.289697
 20
597.802154
 30
0.0
 40
16.204388
100
AcDbArc
 50
194.149808
 51
345.850192
  0
LINE
  5
864
100
AcDbEntity
  8
18
100
AcDbLine
 10
526.457594
 20
588.079521
 30
0.0
 11
510.253207
 21
588.079521
 31
0.0
  0
LINE
  5
865
100
AcDbEntity
  8
18
100
AcDbLine
 10
484.326187
 20
588.079521
 30
0.0
 11
468.121799
 21
588.079521
 31
0.0
  0
LINE
  5
866
100
AcDbEntity
  8
18
100
AcDbLine
 10
503.018813
 20
603.53127
 30
0.0
 11
504.164636
 21
604.677093
 31
0.0
  0
LINE
  5
867
100
AcDbEntity
  8
18
100
AcDbLine
 10
491.56058
 20
603.53127
 30
0.0
 11
490.414757
 21
604.677093
 31
0.0
  0
ARC
  5
868
100
AcDbEntity
  8
18
100
AcDbCircle
 10
497.289697
 20
597.802154
 30
0.0
 40
8.102194
100
AcDbArc
 50
45.0
 51
135.0
  0
ARC
  5
869
100
AcDbEntity
  8
18
100
AcDbCircle
 10
497.289697
 20
597.802154
 30
0.0
 40
9.722633
100
AcDbArc
 50
45.0
 51
135.0
  0
LINE
  5
86A
100
AcDbEntity
  8
18
100
AcDbLine
 10
502.585419
 20
602.613466
 30
0.0
 11
499.725968
 21
596.636594
 31
0.0
  0
LINE
  5
86B
100
AcDbEntity
  8
18
100
AcDbLine
 10
502.079801
 20
603.117067
 30
0.0
 11
496.114407
 21
600.233747
 31
0.0
  0
ARC
  5
86C
100
AcDbEntity
  8
18
100
AcDbCircle
 10
497.289697
 20
597.802154
 30
0.0
 40
2.700731
100
AcDbArc
 50
115.796392
 51
334.432646
  0
ARC
  5
86D
100
AcDbEntity
  8
18
100
AcDbCircle
 10
502.244341
 20
602.776644
 30
0.0
 40
0.378102
100
AcDbArc
 50
334.432646
 51
115.796392
  0
LINE
  5
86E
100
AcDbEntity
  8
18
100
AcDbLine
 10
495.192695
 20
605.628272
 30
0.0
 11
494.773294
 21
607.193496
 31
0.0
  0
LINE
  5
86F
100
AcDbEntity
  8
18
100
AcDbLine
 10
499.386699
 20
605.628272
 30
0.0
 11
499.806099
 21
607.193496
 31
0.0
  0
LINE
  5
870
100
AcDbEntity
  8
18
  6
CENTER
 62
     2
100
AcDbLine
 10
625.225842
 20
614.155426
 30
0.0
 11
694.931997
 21
614.15488
 31
0.0
  0
LINE
  5
871
100
AcDbEntity
  8
18
  6
CENTER
 62
     2
100
AcDbLine
 10
660.95261
 20
623.977357
 30
0.0
 11
660.95261
 21
603.145882
 31
0.0
  0
LINE
  5
872
100
AcDbEntity
  8
18
100
AcDbLine
 10
690.120508
 20
623.878107
 30
0.0
 11
690.120508
 21
604.432285
 31
0.0
  0
LINE
  5
873
100
AcDbEntity
  8
18
100
AcDbLine
 10
631.784713
 20
623.878107
 30
0.0
 11
631.784713
 21
604.432742
 31
0.0
  0
LINE
  5
874
100
AcDbEntity
  8
18
  6
CENTER
 62
     2
100
AcDbLine
 10
669.054805
 20
555.934001
 30
0.0
 11
669.054805
 21
673.802091
 31
0.0
  0
LINE
  5
875
100
AcDbEntity
  8
18
100
AcDbLine
 10
680.938023
 20
560.140851
 30
0.0
 11
680.938023
 21
668.170101
 31
0.0
  0
LINE
  5
876
100
AcDbEntity
  8
18
100
AcDbLine
 10
657.171588
 20
668.170101
 30
0.0
 11
680.938023
 21
668.170101
 31
0.0
  0
LINE
  5
877
100
AcDbEntity
  8
18
100
AcDbLine
 10
657.171588
 20
560.140851
 30
0.0
 11
680.938023
 21
560.140851
 31
0.0
  0
LINE
  5
878
100
AcDbEntity
  8
18
100
AcDbLine
 10
657.171588
 20
630.359863
 30
0.0
 11
680.938023
 21
630.359863
 31
0.0
  0
LINE
  5
879
100
AcDbEntity
  8
18
100
AcDbLine
 10
657.171588
 20
597.951088
 30
0.0
 11
680.938023
 21
597.951088
 31
0.0
  0
LINE
  5
87A
100
AcDbEntity
  8
18
100
AcDbLine
 10
657.171588
 20
597.951088
 30
0.0
 11
652.593596
 21
610.436518
 31
0.0
  0
LINE
  5
87B
100
AcDbEntity
  8
18
100
AcDbLine
 10
652.593596
 20
617.874433
 30
0.0
 11
657.171588
 21
630.359863
 31
0.0
  0
ARC
  5
87C
100
AcDbEntity
  8
18
100
AcDbCircle
 10
662.736207
 20
614.155476
 30
0.0
 40
10.802925
100
AcDbArc
 50
159.863697
 51
200.136303
  0
LINE
  5
87D
100
AcDbEntity
  8
18
100
AcDbLine
 10
657.171588
 20
560.140851
 30
0.0
 11
657.171588
 21
597.951088
 31
0.0
  0
LINE
  5
87E
100
AcDbEntity
  8
18
100
AcDbLine
 10
657.171588
 20
630.359863
 30
0.0
 11
657.171588
 21
668.170101
 31
0.0
  0
ARC
  5
87F
100
AcDbEntity
  8
18
100
AcDbCircle
 10
660.952611
 20
614.155476
 30
0.0
 40
16.204388
100
AcDbArc
 50
104.149808
 51
255.850192
  0
LINE
  5
880
100
AcDbEntity
  8
18
100
AcDbLine
 10
631.784713
 20
623.878107
 30
0.0
 11
647.9891
 21
623.878107
 31
0.0
  0
LINE
  5
881
100
AcDbEntity
  8
18
100
AcDbLine
 10
680.938023
 20
623.878107
 30
0.0
 11
690.120508
 21
623.878107
 31
0.0
  0
LINE
  5
882
100
AcDbEntity
  8
18
100
AcDbLine
 10
666.681726
 20
608.426358
 30
0.0
 11
667.82755
 21
607.280535
 31
0.0
  0
ARC
  5
883
100
AcDbEntity
  8
18
100
AcDbCircle
 10
660.952282
 20
614.155146
 30
0.0
 40
8.102194
100
AcDbArc
 50
315.0
 51
45.0
  0
ARC
  5
884
100
AcDbEntity
  8
18
100
AcDbCircle
 10
660.952282
 20
614.155146
 30
0.0
 40
9.722633
100
AcDbArc
 50
315.0
 51
45.0
  0
LINE
  5
885
100
AcDbEntity
  8
18
100
AcDbLine
 10
665.763594
 20
608.859423
 30
0.0
 11
659.786722
 21
611.718874
 31
0.0
  0
LINE
  5
886
100
AcDbEntity
  8
18
100
AcDbLine
 10
666.267195
 20
609.365042
 30
0.0
 11
663.383875
 21
615.330435
 31
0.0
  0
ARC
  5
887
100
AcDbEntity
  8
18
100
AcDbCircle
 10
660.952282
 20
614.155146
 30
0.0
 40
2.700731
100
AcDbArc
 50
25.796392
 51
244.432646
  0
ARC
  5
888
100
AcDbEntity
  8
18
100
AcDbCircle
 10
665.926772
 20
609.200501
 30
0.0
 40
0.378102
100
AcDbArc
 50
244.432646
 51
25.796392
  0
LINE
  5
889
100
AcDbEntity
  8
18
100
AcDbLine
 10
668.7784
 20
616.252148
 30
0.0
 11
670.343624
 21
616.671549
 31
0.0
  0
LINE
  5
88A
100
AcDbEntity
  8
18
100
AcDbLine
 10
668.7784
 20
612.058144
 30
0.0
 11
670.343624
 21
611.638744
 31
0.0
  0
LINE
  5
88B
100
AcDbEntity
  8
18
100
AcDbLine
 10
631.784713
 20
604.432742
 30
0.0
 11
647.989272
 21
604.432615
 31
0.0
  0
LINE
  5
88C
100
AcDbEntity
  8
18
100
AcDbLine
 10
680.938023
 20
604.432357
 30
0.0
 11
690.120508
 21
604.432285
 31
0.0
  0
LINE
  5
88D
100
AcDbEntity
  8
18
100
AcDbLine
 10
666.681398
 20
619.884822
 30
0.0
 11
667.827221
 21
621.030645
 31
0.0
  0
LINE
  5
88E
100
AcDbEntity
  8
18
  6
CENTER
 62
     2
100
AcDbLine
 10
819.06905
 20
614.006541
 30
0.0
 11
838.183309
 21
614.006543
 31
0.0
  0
LINE
  5
88F
100
AcDbEntity
  8
18
  6
CENTER
 62
     2
100
AcDbLine
 10
829.308183
 20
638.125041
 30
0.0
 11
829.308183
 21
585.413143
 31
0.0
  0
LINE
  5
890
100
AcDbEntity
  8
18
100
AcDbLine
 10
858.47608
 20
623.729174
 30
0.0
 11
858.47608
 21
617.787565
 31
0.0
  0
LINE
  5
891
100
AcDbEntity
  8
18
100
AcDbLine
 10
800.140285
 20
623.729174
 30
0.0
 11
800.140285
 21
617.787565
 31
0.0
  0
LINE
  5
892
100
AcDbEntity
  8
18
  6
CENTER
 62
     2
100
AcDbLine
 10
771.086708
 20
605.904347
 30
0.0
 11
888.954798
 21
605.904347
 31
0.0
  0
LINE
  5
893
100
AcDbEntity
  8
18
100
AcDbLine
 10
775.293558
 20
594.02113
 30
0.0
 11
883.322808
 21
594.02113
 31
0.0
  0
LINE
  5
894
100
AcDbEntity
  8
18
100
AcDbLine
 10
883.322808
 20
617.787565
 30
0.0
 11
883.322808
 21
594.02113
 31
0.0
  0
LINE
  5
895
100
AcDbEntity
  8
18
100
AcDbLine
 10
775.293558
 20
617.787565
 30
0.0
 11
775.293558
 21
594.02113
 31
0.0
  0
LINE
  5
896
100
AcDbEntity
  8
18
100
AcDbLine
 10
845.51257
 20
617.787565
 30
0.0
 11
845.51257
 21
594.02113
 31
0.0
  0
LINE
  5
897
100
AcDbEntity
  8
18
100
AcDbLine
 10
813.103795
 20
617.787565
 30
0.0
 11
813.103795
 21
594.02113
 31
0.0
  0
LINE
  5
898
100
AcDbEntity
  8
18
100
AcDbLine
 10
813.103795
 20
617.787565
 30
0.0
 11
825.589226
 21
622.365556
 31
0.0
  0
LINE
  5
899
100
AcDbEntity
  8
18
100
AcDbLine
 10
833.02714
 20
622.365556
 30
0.0
 11
845.51257
 21
617.787565
 31
0.0
  0
ARC
  5
89A
100
AcDbEntity
  8
18
100
AcDbCircle
 10
829.308183
 20
612.222946
 30
0.0
 40
10.802925
100
AcDbArc
 50
69.863697
 51
110.136303
  0
LINE
  5
89B
100
AcDbEntity
  8
18
100
AcDbLine
 10
775.293558
 20
617.787565
 30
0.0
 11
813.103795
 21
617.787565
 31
0.0
  0
LINE
  5
89C
100
AcDbEntity
  8
18
100
AcDbLine
 10
845.51257
 20
617.787565
 30
0.0
 11
883.322808
 21
617.787565
 31
0.0
  0
ARC
  5
89D
100
AcDbEntity
  8
18
100
AcDbCircle
 10
829.308183
 20
614.006541
 30
0.0
 40
16.204388
100
AcDbArc
 50
14.149808
 51
165.850192
  0
LINE
  5
89E
100
AcDbEntity
  8
18
100
AcDbLine
 10
800.140285
 20
623.729174
 30
0.0
 11
816.344673
 21
623.729174
 31
0.0
  0
LINE
  5
89F
100
AcDbEntity
  8
18
100
AcDbLine
 10
842.271693
 20
623.729174
 30
0.0
 11
858.47608
 21
623.729174
 31
0.0
  0
LINE
  5
8A0
100
AcDbEntity
  8
18
100
AcDbLine
 10
823.579067
 20
608.277425
 30
0.0
 11
822.433243
 21
607.131602
 31
0.0
  0
LINE
  5
8A1
100
AcDbEntity
  8
18
100
AcDbLine
 10
835.037299
 20
608.277425
 30
0.0
 11
836.183122
 21
607.131602
 31
0.0
  0
ARC
  5
8A2
100
AcDbEntity
  8
18
100
AcDbCircle
 10
829.308183
 20
614.006541
 30
0.0
 40
8.102194
100
AcDbArc
 50
225.0
 51
315.0
  0
ARC
  5
8A3
100
AcDbEntity
  8
18
100
AcDbCircle
 10
829.308183
 20
614.006541
 30
0.0
 40
9.722633
100
AcDbArc
 50
225.0
 51
315.0
  0
LINE
  5
8A4
100
AcDbEntity
  8
18
100
AcDbLine
 10
824.01246
 20
609.195229
 30
0.0
 11
826.871911
 21
615.172101
 31
0.0
  0
LINE
  5
8A5
100
AcDbEntity
  8
18
100
AcDbLine
 10
824.518079
 20
608.691628
 30
0.0
 11
830.483472
 21
611.574948
 31
0.0
  0
ARC
  5
8A6
100
AcDbEntity
  8
18
100
AcDbCircle
 10
829.308183
 20
614.006541
 30
0.0
 40
2.700731
100
AcDbArc
 50
295.796392
 51
154.432646
  0
ARC
  5
8A7
100
AcDbEntity
  8
18
100
AcDbCircle
 10
824.353538
 20
609.032051
 30
0.0
 40
0.378102
100
AcDbArc
 50
154.432646
 51
295.796392
  0
LINE
  5
8A8
100
AcDbEntity
  8
18
100
AcDbLine
 10
831.405185
 20
606.180423
 30
0.0
 11
831.824585
 21
604.615199
 31
0.0
  0
LINE
  5
8A9
100
AcDbEntity
  8
18
100
AcDbLine
 10
827.211181
 20
606.180423
 30
0.0
 11
826.79178
 21
604.615199
 31
0.0
  0
LINE
  5
8AA
100
AcDbEntity
  8
18
  6
CENTER
 62
     2
100
AcDbLine
 10
1036.097669
 20
614.152208
 30
0.0
 11
966.391514
 21
614.152754
 31
0.0
  0
LINE
  5
8AB
100
AcDbEntity
  8
18
  6
CENTER
 62
     2
100
AcDbLine
 10
1000.370901
 20
604.330277
 30
0.0
 11
1000.370901
 21
625.161752
 31
0.0
  0
LINE
  5
8AC
100
AcDbEntity
  8
18
100
AcDbLine
 10
971.203003
 20
604.429527
 30
0.0
 11
971.203003
 21
623.875349
 31
0.0
  0
LINE
  5
8AD
100
AcDbEntity
  8
18
100
AcDbLine
 10
1029.538798
 20
604.429527
 30
0.0
 11
1029.538798
 21
623.874892
 31
0.0
  0
LINE
  5
8AE
100
AcDbEntity
  8
18
  6
CENTER
 62
     2
100
AcDbLine
 10
992.268706
 20
672.373633
 30
0.0
 11
992.268706
 21
554.505543
 31
0.0
  0
LINE
  5
8AF
100
AcDbEntity
  8
18
100
AcDbLine
 10
980.385489
 20
668.166783
 30
0.0
 11
980.385489
 21
560.137533
 31
0.0
  0
LINE
  5
8B0
100
AcDbEntity
  8
18
100
AcDbLine
 10
1004.151924
 20
560.137533
 30
0.0
 11
980.385489
 21
560.137533
 31
0.0
  0
LINE
  5
8B1
100
AcDbEntity
  8
18
100
AcDbLine
 10
1004.151924
 20
668.166783
 30
0.0
 11
980.385489
 21
668.166783
 31
0.0
  0
LINE
  5
8B2
100
AcDbEntity
  8
18
100
AcDbLine
 10
1004.151924
 20
597.947771
 30
0.0
 11
980.385489
 21
597.947771
 31
0.0
  0
LINE
  5
8B3
100
AcDbEntity
  8
18
100
AcDbLine
 10
1004.151924
 20
630.356546
 30
0.0
 11
980.385489
 21
630.356546
 31
0.0
  0
LINE
  5
8B4
100
AcDbEntity
  8
18
100
AcDbLine
 10
1004.151924
 20
630.356546
 30
0.0
 11
1008.729915
 21
617.871115
 31
0.0
  0
LINE
  5
8B5
100
AcDbEntity
  8
18
100
AcDbLine
 10
1008.729915
 20
610.433201
 30
0.0
 11
1004.151924
 21
597.947771
 31
0.0
  0
ARC
  5
8B6
100
AcDbEntity
  8
18
100
AcDbCircle
 10
998.587304
 20
614.152158
 30
0.0
 40
10.802925
100
AcDbArc
 50
339.863697
 51
20.136303
  0
LINE
  5
8B7
100
AcDbEntity
  8
18
100
AcDbLine
 10
1004.151924
 20
668.166783
 30
0.0
 11
1004.151924
 21
630.356546
 31
0.0
  0
LINE
  5
8B8
100
AcDbEntity
  8
18
100
AcDbLine
 10
1004.151924
 20
597.947771
 30
0.0
 11
1004.151924
 21
560.137533
 31
0.0
  0
ARC
  5
8B9
100
AcDbEntity
  8
18
100
AcDbCircle
 10
1000.3709
 20
614.152158
 30
0.0
 40
16.204388
100
AcDbArc
 50
284.149808
 51
75.850192
  0
LINE
  5
8BA
100
AcDbEntity
  8
18
100
AcDbLine
 10
1029.538798
 20
604.429527
 30
0.0
 11
1013.334411
 21
604.429527
 31
0.0
  0
LINE
  5
8BB
100
AcDbEntity
  8
18
100
AcDbLine
 10
980.385489
 20
604.429527
 30
0.0
 11
971.203003
 21
604.429527
 31
0.0
  0
LINE
  5
8BC
100
AcDbEntity
  8
18
100
AcDbLine
 10
994.641785
 20
619.881275
 30
0.0
 11
993.495962
 21
621.027099
 31
0.0
  0
ARC
  5
8BD
100
AcDbEntity
  8
18
100
AcDbCircle
 10
1000.371229
 20
614.152488
 30
0.0
 40
8.102194
100
AcDbArc
 50
135.0
 51
225.0
  0
ARC
  5
8BE
100
AcDbEntity
  8
18
100
AcDbCircle
 10
1000.371229
 20
614.152488
 30
0.0
 40
9.722633
100
AcDbArc
 50
135.0
 51
225.0
  0
LINE
  5
8BF
100
AcDbEntity
  8
18
100
AcDbLine
 10
995.559917
 20
619.448211
 30
0.0
 11
1001.536789
 21
616.588759
 31
0.0
  0
LINE
  5
8C0
100
AcDbEntity
  8
18
100
AcDbLine
 10
995.056316
 20
618.942592
 30
0.0
 11
997.939636
 21
612.977199
 31
0.0
  0
ARC
  5
8C1
100
AcDbEntity
  8
18
100
AcDbCircle
 10
1000.371229
 20
614.152488
 30
0.0
 40
2.700731
100
AcDbArc
 50
205.796392
 51
64.432646
  0
ARC
  5
8C2
100
AcDbEntity
  8
18
100
AcDbCircle
 10
995.396739
 20
619.107132
 30
0.0
 40
0.378102
100
AcDbArc
 50
64.432646
 51
205.796392
  0
LINE
  5
8C3
100
AcDbEntity
  8
18
100
AcDbLine
 10
992.545111
 20
612.055486
 30
0.0
 11
990.979887
 21
611.636085
 31
0.0
  0
LINE
  5
8C4
100
AcDbEntity
  8
18
100
AcDbLine
 10
992.545111
 20
616.24949
 30
0.0
 11
990.979887
 21
616.66889
 31
0.0
  0
LINE
  5
8C5
100
AcDbEntity
  8
18
100
AcDbLine
 10
1029.538798
 20
623.874892
 30
0.0
 11
1013.334239
 21
623.875019
 31
0.0
  0
LINE
  5
8C6
100
AcDbEntity
  8
18
100
AcDbLine
 10
980.385489
 20
623.875277
 30
0.0
 11
971.203003
 21
623.875349
 31
0.0
  0
LINE
  5
8C7
100
AcDbEntity
  8
18
100
AcDbLine
 10
994.642113
 20
608.422812
 30
0.0
 11
993.49629
 21
607.276989
 31
0.0
  0
POLYLINE
  5
8C8
100
AcDbEntity
  8
18
 62
     2
100
AcDb2dPolyline
 66
     1
 10
0.0
 20
0.0
 30
0.0
  0
VERTEX
  5
97D
100
AcDbEntity
  8
18
 62
     2
100
AcDbVertex
100
AcDb2dVertex
 10
497.428622
 20
624.070932
 30
0.0
  0
VERTEX
  5
97E
100
AcDbEntity
  8
18
 62
     2
100
AcDbVertex
100
AcDb2dVertex
 10
497.428622
 20
654.587358
 30
0.0
  0
SEQEND
  5
97F
100
AcDbEntity
  8
18
 62
     2
  0
LINE
  5
8CC
100
AcDbEntity
  8
18
 62
     2
100
AcDbLine
 10
497.428622
 20
635.662042
 30
0.0
 11
494.322794
 21
635.662042
 31
0.0
  0
LINE
  5
8CD
100
AcDbEntity
  8
18
 62
     2
100
AcDbLine
 10
494.322794
 20
635.662042
 30
0.0
 11
497.428622
 21
624.070932
 31
0.0
  0
LINE
  5
8CE
100
AcDbEntity
  8
18
 62
     2
100
AcDbLine
 10
497.428622
 20
624.070932
 30
0.0
 11
500.534451
 21
635.662042
 31
0.0
  0
LINE
  5
8CF
100
AcDbEntity
  8
18
 62
     2
100
AcDbLine
 10
500.534451
 20
635.662042
 30
0.0
 11
497.428622
 21
635.662042
 31
0.0
  0
TEXT
  5
8D0
100
AcDbEntity
  8
18
100
AcDbText
 10
510.640661
 20
608.843312
 30
0.0
 40
7.56
  1
Ｓ
 50
135.0
 72
     5
 11
506.364079
 21
613.119894
 31
0.0
100
AcDbText
  0
TEXT
  5
8D1
100
AcDbEntity
  8
18
100
AcDbText
 10
488.50232
 20
613.4069
 30
0.0
 40
7.56
  1
Ｏ
 50
225.0
 72
     5
 11
484.225738
 21
609.130318
 31
0.0
100
AcDbText
  0
TEXT
  5
8D2
100
AcDbEntity
  8
18
100
AcDbText
 10
672.62344
 20
600.174182
 30
0.0
 40
7.56
  1
Ｓ
 50
45.0
 72
     5
 11
676.900022
 21
604.450764
 31
0.0
100
AcDbText
  0
TEXT
  5
8D3
100
AcDbEntity
  8
18
100
AcDbText
 10
677.187028
 20
622.942523
 30
0.0
 40
7.56
  1
Ｏ
 50
135.0
 72
     5
 11
672.910446
 21
627.219105
 31
0.0
100
AcDbText
  0
TEXT
  5
8D4
100
AcDbEntity
  8
18
100
AcDbText
 10
815.957218
 20
602.965383
 30
0.0
 40
7.56
  1
Ｓ
 50
315.0
 72
     5
 11
820.2338
 21
598.688801
 31
0.0
100
AcDbText
  0
TEXT
  5
8D5
100
AcDbEntity
  8
18
100
AcDbText
 10
838.09556
 20
598.401795
 30
0.0
 40
7.56
  1
Ｏ
 50
45.0
 72
     5
 11
842.372142
 21
602.678377
 31
0.0
100
AcDbText
  0
TEXT
  5
8D6
100
AcDbEntity
  8
18
100
AcDbText
 10
988.700071
 20
628.133452
 30
0.0
 40
7.56
  1
Ｓ
 50
225.0
 72
     5
 11
984.423489
 21
623.85687
 31
0.0
100
AcDbText
  0
TEXT
  5
8D7
100
AcDbEntity
  8
18
100
AcDbText
 10
984.136483
 20
605.365111
 30
0.0
 40
7.56
  1
Ｏ
 50
315.0
 72
     5
 11
988.413065
 21
601.088529
 31
0.0
100
AcDbText
  0
TEXT
  5
8D8
100
AcDbEntity
  8
18
100
AcDbText
 10
1080.948669
 20
-761.314819
 30
0.0
 40
12.0
  1
２０００．１１．１５
 72
     5
 11
1198.548669
 21
-761.314819
 31
0.0
100
AcDbText
  0
TEXT
  5
8D9
100
AcDbEntity
  8
18
100
AcDbText
 10
733.125443
 20
-738.211578
 30
0.0
 40
18.0
  1
３０２Ｙ－３ＡＡＳ　３００Ａ
 72
     5
 11
981.525443
 21
-738.211578
 31
0.0
100
AcDbText
  0
TEXT
  5
8DA
100
AcDbEntity
  8
18
100
AcDbText
 10
921.6
 20
-816.0
 30
0.0
 40
30.0
  1
Ｄ３－０２６６３
 72
     5
 11
1155.6
 21
-816.0
 31
0.0
100
AcDbText
  0
TEXT
  5
8DB
100
AcDbEntity
  8
18
100
AcDbText
 10
733.125443
 20
-762.211578
 30
0.0
 40
18.0
  1
標準仕様、重負荷仕様
 72
     5
 11
909.525443
 21
-762.211578
 31
0.0
100
AcDbText
  0
LINE
  5
8DC
100
AcDbEntity
  8
20
 62
     3
100
AcDbLine
 10
-1080.0
 20
-831.0
 30
0.0
 11
1200.0
 21
-831.0
 31
0.0
  0
LINE
  5
8DD
100
AcDbEntity
  8
20
 62
     3
100
AcDbLine
 10
-1080.0
 20
792.0
 30
0.0
 11
1200.0
 21
792.0
 31
0.0
  0
LINE
  5
8DE
100
AcDbEntity
  8
20
 62
     3
100
AcDbLine
 10
-1080.0
 20
792.0
 30
0.0
 11
-1080.0
 21
-831.0
 31
0.0
  0
LINE
  5
8DF
100
AcDbEntity
  8
20
 62
     3
100
AcDbLine
 10
1200.0
 20
792.0
 30
0.0
 11
1200.0
 21
-831.0
 31
0.0
  0
LINE
  5
8E0
100
AcDbEntity
  8
20
 62
     3
100
AcDbLine
 10
360.0
 20
-831.0
 30
0.0
 11
360.0
 21
-711.0
 31
0.0
  0
LINE
  5
8E1
100
AcDbEntity
  8
20
 62
     3
100
AcDbLine
 10
642.0
 20
-831.0
 30
0.0
 11
642.0
 21
-711.0
 31
0.0
  0
LINE
  5
8E2
100
AcDbEntity
  8
20
100
AcDbLine
 10
642.0
 20
-771.0
 30
0.0
 11
1200.0
 21
-771.0
 31
0.0
  0
LINE
  5
8E3
100
AcDbEntity
  8
20
 62
     3
100
AcDbLine
 10
360.0
 20
-711.0
 30
0.0
 11
1200.0
 21
-711.0
 31
0.0
  0
LINE
  5
8E4
100
AcDbEntity
  8
20
100
AcDbLine
 10
1080.0
 20
-771.0
 30
0.0
 11
1080.0
 21
-711.0
 31
0.0
  0
LINE
  5
8E5
100
AcDbEntity
  8
20
100
AcDbLine
 10
1080.0
 20
-741.0
 30
0.0
 11
1200.0
 21
-741.0
 31
0.0
  0
LINE
  5
8E6
100
AcDbEntity
  8
20
100
AcDbLine
 10
726.0
 20
-831.0
 30
0.0
 11
726.0
 21
-711.0
 31
0.0
  0
LINE
  5
8E7
100
AcDbEntity
  8
20
100
AcDbLine
 10
786.0
 20
-831.0
 30
0.0
 11
786.0
 21
-771.0
 31
0.0
  0
LINE
  5
8E8
100
AcDbEntity
  8
20
100
AcDbLine
 10
906.0
 20
-831.0
 30
0.0
 11
906.0
 21
-771.0
 31
0.0
  0
LINE
  5
8E9
100
AcDbEntity
  8
20
100
AcDbLine
 10
742.370487
 20
-814.629513
 30
0.0
 11
767.389744
 21
-789.610256
 31
0.0
  0
TEXT
  5
8EA
100
AcDbEntity
  8
20
100
AcDbText
 10
789.199974
 20
-794.981506
 30
0.0
 40
10.8
  1
ＤＲＡＷＩＮＧ　ＮＯ．
 72
     5
 11
905.839974
 21
-794.981506
 31
0.0
100
AcDbText
  0
TEXT
  5
8EB
100
AcDbEntity
  8
20
100
AcDbText
 10
801.0
 20
-819.0
 30
0.0
 40
18.0
  1
図　　　番
 72
     5
 11
887.4
 21
-819.0
 31
0.0
100
AcDbText
  0
TEXT
  5
8EC
100
AcDbEntity
  8
20
100
AcDbText
 10
1116.0
 20
-732.0
 30
0.0
 40
12.0
  1
ＤＡＴＥ
 72
     5
 11
1161.6
 21
-732.0
 31
0.0
100
AcDbText
  0
TEXT
  5
8ED
100
AcDbEntity
  8
20
100
AcDbText
 10
654.006426
 20
-797.766174
 30
0.0
 40
12.0
  1
ＳＣＡＬＥ
 72
     5
 11
711.606426
 21
-797.766174
 31
0.0
100
AcDbText
  0
TEXT
  5
8EE
100
AcDbEntity
  8
20
100
AcDbText
 10
648.0
 20
-819.0
 30
0.0
 40
18.0
  1
尺　　度
 72
     5
 11
716.4
 21
-819.0
 31
0.0
100
AcDbText
  0
TEXT
  5
8EF
100
AcDbEntity
  8
20
100
AcDbText
 10
645.006426
 20
-734.975308
 30
0.0
 40
12.0
  1
ＦＩＧ．ＮＯ．
 72
     5
 11
726.606426
 21
-734.975308
 31
0.0
100
AcDbText
  0
TEXT
  5
8F0
100
AcDbEntity
  8
20
100
AcDbText
 10
648.0
 20
-759.0
 30
0.0
 40
18.0
  1
名　　称
 72
     5
 11
716.4
 21
-759.0
 31
0.0
100
AcDbText
  0
TEXT
  5
8F1
100
AcDbEntity
  8
20
100
AcDbText
 10
363.39315
 20
-758.821518
 30
0.0
 40
13.8
  1
ＴＯＭＯＥ　ＶＡＬＶＥ　ＣＯ．，ＬＴＤ．
 72
     5
 11
636.63315
 21
-758.821518
 31
0.0
100
AcDbText
  0
TEXT
  5
8F2
100
AcDbEntity
  8
20
100
AcDbText
 10
405.0
 20
-799.738861
 30
0.0
 40
24.0
  1
巴バルブ株式会社
 72
     5
 11
592.2
 21
-799.738861
 31
0.0
100
AcDbText
  0
ENDSEC
  0
SECTION
  2
OBJECTS
  0
DICTIONARY
  5
977
100
AcDbDictionary
  3
ACAD_GROUP
350
978
  3
ACAD_MLINESTYLE
350
979
  0
DICTIONARY
  5
978
102
{ACAD_REACTORS
330
977
102
}
100
AcDbDictionary
  0
DICTIONARY
  5
979
102
{ACAD_REACTORS
330
977
102
}
100
AcDbDictionary
  3
STANDARD
350
97A
  0
MLINESTYLE
  5
97A
102
{ACAD_REACTORS
330
979
102
}
100
AcDbMlineStyle
  2
STANDARD
 70
     0
  3

 62
     0
 51
90.0
 52
90.0
 71
     2
 49
0.5
 62
   256
  6
BYLAYER
 49
-0.5
 62
   256
  6
BYLAYER
  0
ENDSEC
  0
EOF
