  0
SECTION
  2
HEADER
  9
$ACADVER
  1
AC1012
  9
$DWGCODEPAGE
  3
ansi_932
  9
$INSBASE
 10
0.0
 20
0.0
 30
0.0
  9
$EXTMIN
 10
-840.0
 20
-594.0
 30
1.000000E+20
  9
$EXTMAX
 10
840.0
 20
594.0
 30
-1.000000E+20
  9
$LIMMIN
 10
-840.0
 20
-594.0
  9
$LIMMAX
 10
840.0
 20
594.0
  9
$ORTHOMODE
 70
     0
  9
$REGENMODE
 70
     1
  9
$FILLMODE
 70
     1
  9
$QTEXTMODE
 70
     0
  9
$MIRRTEXT
 70
     1
  9
$DRAGMODE
 70
     2
  9
$LTSCALE
 40
1.0
  9
$OSMODE
 70
     0
  9
$ATTMODE
 70
     1
  9
$TEXTSIZE
 40
0.2
  9
$TRACEWID
 40
0.05
  9
$TEXTSTYLE
  7
STANDARD
  9
$CLAYER
  8
0
  9
$CELTYPE
  6
CONTINUOUS
  9
$CECOLOR
 62
   256
  9
$CELTSCALE
 40
1.0
  9
$DELOBJ
 70
     1
  9
$DISPSILH
 70
     0
  9
$DIMSCALE
 40
4.0
  9
$DIMASZ
 40
0.18
  9
$DIMEXO
 40
0.0625
  9
$DIMDLI
 40
0.38
  9
$DIMRND
 40
0.0
  9
$DIMDLE
 40
0.0
  9
$DIMEXE
 40
0.18
  9
$DIMTP
 40
0.0
  9
$DIMTM
 40
0.0
  9
$DIMTXT
 40
0.18
  9
$DIMCEN
 40
0.09
  9
$DIMTSZ
 40
0.0
  9
$DIMTOL
 70
     0
  9
$DIMLIM
 70
     0
  9
$DIMTIH
 70
     1
  9
$DIMTOH
 70
     1
  9
$DIMSE1
 70
     0
  9
$DIMSE2
 70
     0
  9
$DIMTAD
 70
     1
  9
$DIMZIN
 70
     0
  9
$DIMBLK
  1

  9
$DIMASO
 70
     1
  9
$DIMSHO
 70
     1
  9
$DIMPOST
  1

  9
$DIMAPOST
  1

  9
$DIMALT
 70
     0
  9
$DIMALTD
 70
     2
  9
$DIMALTF
 40
25.4
  9
$DIMLFAC
 40
1.0
  9
$DIMTOFL
 70
     0
  9
$DIMTVP
 40
0.0
  9
$DIMTIX
 70
     0
  9
$DIMSOXD
 70
     0
  9
$DIMSAH
 70
     0
  9
$DIMBLK1
  1

  9
$DIMBLK2
  1

  9
$DIMSTYLE
  2
STANDARD
  9
$DIMCLRD
 70
     0
  9
$DIMCLRE
 70
     0
  9
$DIMCLRT
 70
     0
  9
$DIMTFAC
 40
1.0
  9
$DIMGAP
 40
0.09
  9
$DIMJUST
 70
     0
  9
$DIMSD1
 70
     0
  9
$DIMSD2
 70
     0
  9
$DIMTOLJ
 70
     1
  9
$DIMTZIN
 70
     0
  9
$DIMALTZ
 70
     0
  9
$DIMALTTZ
 70
     0
  9
$DIMFIT
 70
     3
  9
$DIMUPT
 70
     0
  9
$DIMUNIT
 70
     2
  9
$DIMDEC
 70
     4
  9
$DIMTDEC
 70
     4
  9
$DIMALTU
 70
     2
  9
$DIMALTTD
 70
     2
  9
$DIMTXSTY
  7
STANDARD
  9
$DIMAUNIT
 70
     0
  9
$LUNITS
 70
     2
  9
$LUPREC
 70
     4
  9
$SKETCHINC
 40
0.1
  9
$FILLETRAD
 40
0.0
  9
$AUNITS
 70
     0
  9
$AUPREC
 70
     0
  9
$MENU
  1
acad
  9
$ELEVATION
 40
0.0
  9
$PELEVATION
 40
0.0
  9
$THICKNESS
 40
0.0
  9
$LIMCHECK
 70
     0
  9
$BLIPMODE
 70
     1
  9
$CHAMFERA
 40
0.0
  9
$CHAMFERB
 40
0.0
  9
$CHAMFERC
 40
0.0
  9
$CHAMFERD
 40
0.0
  9
$SKPOLY
 70
     0
  9
$TDCREATE
 40
2451016.000000000
  9
$TDUPDATE
 40
0.000000000
  9
$TDINDWG
 40
0.0000000000
  9
$TDUSRTIMER
 40
0.0000000000
  9
$USRTIMER
 70
     1
  9
$ANGBASE
 50
0.0
  9
$ANGDIR
 70
     0
  9
$PDMODE
 70
     0
  9
$PDSIZE
 40
0.0
  9
$PLINEWID
 40
0.0
  9
$COORDS
 70
     0
  9
$SPLFRAME
 70
     0
  9
$SPLINETYPE
 70
     6
  9
$SPLINESEGS
 70
     8
  9
$ATTDIA
 70
     0
  9
$ATTREQ
 70
     1
  9
$HANDLING
 70
     1
  9
$HANDSEED
  5
752
  9
$SURFTAB1
 70
     6
  9
$SURFTAB2
 70
     6
  9
$SURFTYPE
 70
     6
  9
$SURFU
 70
     6
  9
$SURFV
 70
     6
  9
$UCSNAME
  2

  9
$UCSORG
 10
0.0
 20
0.0
 30
0.0
  9
$UCSXDIR
 10
1.0
 20
0.0
 30
0.0
  9
$UCSYDIR
 10
0.0
 20
1.0
 30
0.0
  9
$PUCSNAME
  2

  9
$PUCSORG
 10
0.0
 20
0.0
 30
0.0
  9
$PUCSXDIR
 10
1.0
 20
0.0
 30
0.0
  9
$PUCSYDIR
 10
0.0
 20
1.0
 30
0.0
  9
$USERI1
 70
     0
  9
$USERI2
 70
     0
  9
$USERI3
 70
     0
  9
$USERI4
 70
     0
  9
$USERI5
 70
     0
  9
$USERR1
 40
0.0
  9
$USERR2
 40
0.0
  9
$USERR3
 40
0.0
  9
$USERR4
 40
0.0
  9
$USERR5
 40
0.0
  9
$WORLDVIEW
 70
     1
  9
$SHADEDGE
 70
     3
  9
$SHADEDIF
 70
    70
  9
$TILEMODE
 70
     1
  9
$MAXACTVP
 70
    16
  9
$PINSBASE
 10
0.0
 20
0.0
 30
0.0
  9
$PLIMCHECK
 70
     0
  9
$PEXTMIN
 10
1.000000E+20
 20
1.000000E+20
 30
1.000000E+20
  9
$PEXTMAX
 10
-1.000000E+20
 20
-1.000000E+20
 30
-1.000000E+20
  9
$PLIMMIN
 10
0.0
 20
0.0
  9
$PLIMMAX
 10
12.0
 20
9.0
  9
$UNITMODE
 70
     0
  9
$VISRETAIN
 70
     0
  9
$PLINEGEN
 70
     1
  9
$PSLTSCALE
 70
     0
  9
$TREEDEPTH
 70
  3020
  9
$PICKSTYLE
 70
     1
  9
$CMLSTYLE
  2
STANDARD
  9
$CMLJUST
 70
     0
  9
$CMLSCALE
 40
1.0
  9
$SAVEIMAGES
 70
     0
  0
ENDSEC
  0
SECTION
  2
CLASSES
  0
CLASS
  1
LWPOLYLINE
  2
AcDbPolyline
  3
"AutoCAD"
 90
    32768
280
     0
281
     1
  0
CLASS
  1
IMAGE
  2
AcDbRasterImage
  3
ISM
 90
    32895
280
     0
281
     1
  0
CLASS
  1
OLE2FRAME
  2
AcDbOle2Frame
  3
""
 90
    32768
280
     0
281
     1
  0
CLASS
  1
HATCH
  2
AcDbHatch
  3
"ACAD_SEDONA"
 90
    32768
280
     0
281
     1
  0
CLASS
  1
DICTIONARYVAR
  2
AcDbDictionaryVar
  3
"AutoCAD"
 90
    32768
280
     0
281
     0
  0
CLASS
  1
RASTERVARIABLES
  2
AcDbRasterVariables
  3
ISM
 90
    32768
280
     0
281
     0
  0
CLASS
  1
IMAGEDEF
  2
AcDbRasterImageDef
  3
ISM
 90
    32768
280
     0
281
     0
  0
CLASS
  1
IMAGEDEF_REACTOR
  2
AcDbRasterImageDefReactor
  3
ISM
 90
    32769
280
     0
281
     0
  0
CLASS
  1
IDBUFFER
  2
AcDbIdBuffer
  3
"Acad"
 90
    32768
280
     0
281
     0
  0
CLASS
  1
SPATIAL_FILTER
  2
AcDbSpatialFilter
  3
"Acad"
 90
    32768
280
     0
281
     0
  0
CLASS
  1
XRECORD
  2
AcDbXrecord
  3
"<Built In>"
 90
    32768
280
     0
281
     0
  0
CLASS
  1
SORTENTSTABLE
  2
AcDbSortentsTable
  3
"AutoCAD"
 90
    32768
280
     0
281
     0
  0
CLASS
  1
LAYER_INDEX
  2
AcDbLayerIndex
  3
"Acad"
 90
    32768
280
     0
281
     0
  0
CLASS
  1
SPATIAL_INDEX
  2
AcDbSpatialIndex
  3
"Acad"
 90
    32768
280
     0
281
     0
  0
CLASS
  1
OBJECT_PTR
  2
CAseDLPNTableRecord
  3
"ASE-LPNTableRecord"
 90
    32769
280
     0
281
     0
  0
CLASS
  1
LAYOUT
  2
AcDbLayout
  3
"AutoCAD 2000"
 90
    32768
280
     0
281
     0
  0
CLASS
  1
PLOTSETTINGS
  2
AcDbPlotSettings
  3
"AutoCAD 2000"
 90
    32768
280
     0
281
     0
  0
CLASS
  1
ACDBDICTIONARYWDFLT
  2
AcDbDictionaryWithDefault
  3
"AutoCAD 2000"
 90
    32768
280
     0
281
     0
  0
CLASS
  1
ACDBPLACEHOLDER
  2
AcDbPlaceHolder
  3
"AutoCAD 2000"
 90
    32768
280
     0
281
     0
  0
CLASS
  1
VBA_PROJECT
  2
AcDbVbaProject
  3
"acadvba"
 90
    32768
280
     0
281
     0
  0
CLASS
  1
WIPEOUT
  2
AcDbWipeout
  3
WipeOut|AutoCAD Express Tool|expresstools@autodesk.com
 90
    32895
280
     0
281
     1
  0
CLASS
  1
WIPEOUTVARIABLES
  2
AcDbWipeoutVariables
  3
WipeOut|AutoCAD Express Tool|expresstools@autodesk.com
 90
    32768
280
     0
281
     0
  0
CLASS
  1
RTEXT
  2
RText
  3
RText|AutoCAD Express Tool|expresstools@autodesk.com
 90
    32768
280
     0
281
     1
  0
CLASS
  1
ARCALIGNEDTEXT
  2
AcDbArcAlignedText
  3
ATEXT|AutoCAD Express Tool|expresstools@autodesk.com
 90
    32768
280
     0
281
     1
  0
ENDSEC
  0
SECTION
  2
TABLES
  0
TABLE
  2
VPORT
  5
6
100
AcDbSymbolTable
 70
     1
  0
VPORT
  5
1B
100
AcDbSymbolTableRecord
100
AcDbViewportTableRecord
  2
*ACTIVE
 70
     0
 10
0.0
 20
0.0
 11
1.0
 21
1.0
 12
0.0
 22
0.0
 13
0.0
 23
0.0
 14
1.0
 24
1.0
 15
0.0
 25
0.0
 16
0.0
 26
0.0
 36
1.0
 17
0.0
 27
0.0
 37
0.0
 40
1188.0
 41
1.414141
 42
50.0
 43
0.0
 44
0.0
 50
0.0
 51
0.0
 71
     0
 72
   500
 73
     1
 74
     1
 75
     0
 76
     0
 77
     0
 78
     0
  0
ENDTAB
  0
TABLE
  2
LTYPE
  5
3
100
AcDbSymbolTable
 70
     9
  0
LTYPE
  5
C
100
AcDbSymbolTableRecord
100
AcDbLinetypeTableRecord
  2
BYBLOCK
 70
    64
  3

 72
    65
 73
     0
 40
0.0
  0
LTYPE
  5
D
100
AcDbSymbolTableRecord
100
AcDbLinetypeTableRecord
  2
BYLAYER
 70
    64
  3

 72
    65
 73
     0
 40
0.0
  0
LTYPE
  5
E
100
AcDbSymbolTableRecord
100
AcDbLinetypeTableRecord
  2
CONTINUOUS
 70
     0
  3
Solid line
 72
    65
 73
     0
 40
0.0
  0
LTYPE
  5
F
100
AcDbSymbolTableRecord
100
AcDbLinetypeTableRecord
  2
DASHED
 70
     0
  3
__ __ __ __ __ __ __ __ __ __ __ __ __ __ __
 72
    65
 73
     2
 40
2.0
 49
1.2
 74
     0
 49
-0.8
 74
     0
  0
LTYPE
  5
10
100
AcDbSymbolTableRecord
100
AcDbLinetypeTableRecord
  2
CENTER
 70
     0
  3
____ _ ____ _ ____ _ ____ _ ____ _ ____ _ ____
 72
    65
 73
     4
 40
12.0
 49
9.0
 74
     0
 49
-1.0
 74
     0
 49
1.0
 74
     0
 49
-1.0
 74
     0
  0
LTYPE
  5
11
100
AcDbSymbolTableRecord
100
AcDbLinetypeTableRecord
  2
HIDDEN
 70
     0
  3
_ _ _ _ _ _ _ _ _ _ _ _ _ _ _ _ _ _ _ _ _ _ _
 72
    65
 73
     2
 40
3.2
 49
2.4
 74
     0
 49
-0.8
 74
     0
  0
LTYPE
  5
12
100
AcDbSymbolTableRecord
100
AcDbLinetypeTableRecord
  2
PHANTOM
 70
     0
  3
_____ _ _ _____ _ _ _____ _ _ _____ _ _ _____
 72
    65
 73
     6
 40
13.5
 49
9.0
 74
     0
 49
-1.0
 74
     0
 49
1.0
 74
     0
 49
-0.5
 74
     0
 49
1.0
 74
     0
 49
-1.0
 74
     0
  0
LTYPE
  5
13
100
AcDbSymbolTableRecord
100
AcDbLinetypeTableRecord
  2
DOT
 70
     0
  3
...............................................
 72
    65
 73
     2
 40
1.0
 49
0.5
 74
     0
 49
-0.5
 74
     0
  0
LTYPE
  5
14
100
AcDbSymbolTableRecord
100
AcDbLinetypeTableRecord
  2
DASHDOT
 70
     0
  3
__ . __ . __ . __ . __ . __ . __ . __ . __ . __
 72
    65
 73
     4
 40
8.0
 49
5.0
 74
     0
 49
-1.0
 74
     0
 49
1.0
 74
     0
 49
-1.0
 74
     0
  0
ENDTAB
  0
TABLE
  2
LAYER
  5
1
100
AcDbSymbolTable
 70
     6
  0
LAYER
  5
15
100
AcDbSymbolTableRecord
100
AcDbLayerTableRecord
  2
0
 70
     0
 62
     7
  6
CONTINUOUS
  0
LAYER
  5
16
100
AcDbSymbolTableRecord
100
AcDbLayerTableRecord
  2
1
 70
     0
 62
     7
  6
CONTINUOUS
  0
LAYER
  5
17
100
AcDbSymbolTableRecord
100
AcDbLayerTableRecord
  2
2
 70
     0
 62
     7
  6
CONTINUOUS
  0
LAYER
  5
18
100
AcDbSymbolTableRecord
100
AcDbLayerTableRecord
  2
5
 70
     0
 62
     7
  6
CONTINUOUS
  0
LAYER
  5
19
100
AcDbSymbolTableRecord
100
AcDbLayerTableRecord
  2
18
 70
     0
 62
     7
  6
CONTINUOUS
  0
LAYER
  5
1A
100
AcDbSymbolTableRecord
100
AcDbLayerTableRecord
  2
20
 70
     0
 62
     7
  6
CONTINUOUS
  0
ENDTAB
  0
TABLE
  2
STYLE
  5
2
100
AcDbSymbolTable
 70
     1
  0
STYLE
  5
1D
100
AcDbSymbolTableRecord
100
AcDbTextStyleTableRecord
  2
STANDARD
 70
    64
 40
0.0
 41
1.0
 50
0.0
 71
     0
 42
1.0
  3
txt
  4
BIGFONT
  0
ENDTAB
  0
TABLE
  2
VIEW
  5
4
100
AcDbSymbolTable
 70
     0
  0
ENDTAB
  0
TABLE
  2
UCS
  5
5
100
AcDbSymbolTable
 70
     0
  0
ENDTAB
  0
TABLE
  2
APPID
  5
7
100
AcDbSymbolTable
 70
     1
  0
APPID
  5
1C
100
AcDbSymbolTableRecord
100
AcDbRegAppTableRecord
  2
ACAD
 70
     0
  0
ENDTAB
  0
TABLE
  2
DIMSTYLE
  5
8
100
AcDbSymbolTable
 70
     1
  0
DIMSTYLE
105
2D
100
AcDbSymbolTableRecord
100
AcDbDimStyleTableRecord
  2
STANDARD
 70
     0
  3

  4

  5

  6

  7

 40
4.0
 41
0.18
 42
0.0625
 43
0.38
 44
0.18
 45
0.0
 46
0.0
 47
0.0
 48
0.0
 71
     0
 72
     0
 73
     1
 74
     1
 75
     0
 76
     0
 77
     1
 78
     0
140
0.18
141
0.09
142
0.0
143
25.4
144
1.0
145
0.0
146
1.0
147
0.09
170
     0
171
     2
172
     0
173
     0
174
     0
175
     0
176
     0
177
     0
178
     0
270
     2
271
     4
272
     4
273
     2
274
     2
275
     0
280
     0
281
     0
282
     0
283
     1
284
     0
285
     0
286
     0
287
     3
288
     0
340
1D
  0
ENDTAB
  0
TABLE
  2
BLOCK_RECORD
  5
28
100
AcDbSymbolTable
 70
     8
  0
BLOCK_RECORD
  5
26
100
AcDbSymbolTableRecord
100
AcDbBlockTableRecord
  2
*MODEL_SPACE
  0
BLOCK_RECORD
  5
27
100
AcDbSymbolTableRecord
100
AcDbBlockTableRecord
  2
*PAPER_SPACE
  0
BLOCK_RECORD
  5
1E
100
AcDbSymbolTableRecord
100
AcDbBlockTableRecord
  2
*D0
  0
BLOCK_RECORD
  5
1F
100
AcDbSymbolTableRecord
100
AcDbBlockTableRecord
  2
*D1
  0
BLOCK_RECORD
  5
20
100
AcDbSymbolTableRecord
100
AcDbBlockTableRecord
  2
*D2
  0
BLOCK_RECORD
  5
21
100
AcDbSymbolTableRecord
100
AcDbBlockTableRecord
  2
*D3
  0
BLOCK_RECORD
  5
22
100
AcDbSymbolTableRecord
100
AcDbBlockTableRecord
  2
*D4
  0
BLOCK_RECORD
  5
23
100
AcDbSymbolTableRecord
100
AcDbBlockTableRecord
  2
*D5
  0
BLOCK_RECORD
  5
24
100
AcDbSymbolTableRecord
100
AcDbBlockTableRecord
  2
*D6
  0
BLOCK_RECORD
  5
25
100
AcDbSymbolTableRecord
100
AcDbBlockTableRecord
  2
*D7
  0
ENDTAB
  0
ENDSEC
  0
SECTION
  2
BLOCKS
  0
BLOCK
  5
29
100
AcDbEntity
  8
0
100
AcDbBlockBegin
  2
*MODEL_SPACE
 70
     0
 10
0.0
 20
0.0
 30
0.0
  3
*MODEL_SPACE
  1

  0
ENDBLK
  5
2A
100
AcDbEntity
  8
0
100
AcDbBlockEnd
  0
BLOCK
  5
2B
100
AcDbEntity
 67
     1
  8
0
100
AcDbBlockBegin
  2
*PAPER_SPACE
 70
     0
 10
0.0
 20
0.0
 30
0.0
  3
*PAPER_SPACE
  1

  0
ENDBLK
  5
2C
100
AcDbEntity
 67
     1
  8
0
100
AcDbBlockEnd
  0
BLOCK
  5
6EB
100
AcDbEntity
  8
5
100
AcDbBlockBegin
  2
*D0
 70
     1
 10
0.0
 20
0.0
 30
0.0
  3
*D0
  1

  0
TEXT
  5
6EC
100
AcDbEntity
  8
5
 62
     2
100
AcDbText
 10
-121.233925
 20
37.446623
 30
0.0
 40
13.2
  1
%%c200
 50
90.0
 41
1.4
 72
     5
 11
-121.233925
 21
70.710622
 31
0.0
100
AcDbText
  0
LINE
  5
6ED
100
AcDbEntity
  8
5
 62
     2
100
AcDbLine
 10
-194.900407
 20
155.926623
 30
0.0
 11
-115.233925
 21
155.926623
 31
0.0
  0
LINE
  5
6EE
100
AcDbEntity
  8
5
 62
     2
100
AcDbLine
 10
-119.233925
 20
155.926623
 30
0.0
 11
-121.304477
 21
148.199216
 31
0.0
  0
LINE
  5
6EF
100
AcDbEntity
  8
5
 62
     2
100
AcDbLine
 10
-119.233925
 20
155.926623
 30
0.0
 11
-117.163373
 21
148.199216
 31
0.0
  0
LINE
  5
6F0
100
AcDbEntity
  8
5
 62
     2
100
AcDbLine
 10
-121.304477
 20
148.199216
 30
0.0
 11
-117.163373
 21
148.199216
 31
0.0
  0
LINE
  5
6F1
100
AcDbEntity
  8
5
 62
     2
100
AcDbLine
 10
-119.233925
 20
155.926623
 30
0.0
 11
-119.233925
 21
-44.073377
 31
0.0
  0
LINE
  5
6F2
100
AcDbEntity
  8
5
 62
     2
100
AcDbLine
 10
-119.233925
 20
-44.073377
 30
0.0
 11
-117.163373
 21
-36.345971
 31
0.0
  0
LINE
  5
6F3
100
AcDbEntity
  8
5
 62
     2
100
AcDbLine
 10
-119.233925
 20
-44.073377
 30
0.0
 11
-121.304477
 21
-36.345971
 31
0.0
  0
LINE
  5
6F4
100
AcDbEntity
  8
5
 62
     2
100
AcDbLine
 10
-117.163373
 20
-36.345971
 30
0.0
 11
-121.304477
 21
-36.345971
 31
0.0
  0
LINE
  5
6F5
100
AcDbEntity
  8
5
 62
     2
100
AcDbLine
 10
-194.900407
 20
-44.073377
 30
0.0
 11
-115.233925
 21
-44.073377
 31
0.0
  0
ENDBLK
  5
6F6
100
AcDbEntity
  8
5
100
AcDbBlockEnd
  0
BLOCK
  5
6F7
100
AcDbEntity
  8
5
100
AcDbBlockBegin
  2
*D1
 70
     1
 10
0.0
 20
0.0
 30
0.0
  3
*D1
  1

  0
TEXT
  5
6F8
100
AcDbEntity
  8
5
 62
     2
100
AcDbText
 10
18.07835
 20
65.926623
 30
0.0
 40
13.2
  1
41.5
 50
90.0
 41
1.4
 72
     5
 11
18.07835
 21
99.190622
 31
0.0
100
AcDbText
  0
LINE
  5
6F9
100
AcDbEntity
  8
5
 62
     2
100
AcDbLine
 10
90.406817
 20
14.426623
 30
0.0
 11
16.07835
 21
14.426623
 31
0.0
  0
LINE
  5
6FA
100
AcDbEntity
  8
5
 62
     2
100
AcDbLine
 10
20.07835
 20
14.426623
 30
0.0
 11
18.007798
 21
6.699216
 31
0.0
  0
LINE
  5
6FB
100
AcDbEntity
  8
5
 62
     2
100
AcDbLine
 10
20.07835
 20
14.426623
 30
0.0
 11
22.148902
 21
6.699216
 31
0.0
  0
LINE
  5
6FC
100
AcDbEntity
  8
5
 62
     2
100
AcDbLine
 10
18.007798
 20
6.699216
 30
0.0
 11
22.148902
 21
6.699216
 31
0.0
  0
LINE
  5
6FD
100
AcDbEntity
  8
5
 62
     2
100
AcDbLine
 10
20.07835
 20
-5.573377
 30
0.0
 11
20.07835
 21
104.886622
 31
0.0
  0
LINE
  5
6FE
100
AcDbEntity
  8
5
 62
     2
100
AcDbLine
 10
20.07835
 20
55.926623
 30
0.0
 11
22.148902
 21
63.654029
 31
0.0
  0
LINE
  5
6FF
100
AcDbEntity
  8
5
 62
     2
100
AcDbLine
 10
20.07835
 20
55.926623
 30
0.0
 11
18.007798
 21
63.654029
 31
0.0
  0
LINE
  5
700
100
AcDbEntity
  8
5
 62
     2
100
AcDbLine
 10
22.148902
 20
63.654029
 30
0.0
 11
18.007798
 21
63.654029
 31
0.0
  0
LINE
  5
701
100
AcDbEntity
  8
5
 62
     2
100
AcDbLine
 10
55.041659
 20
55.926623
 30
0.0
 11
16.07835
 21
55.926623
 31
0.0
  0
ENDBLK
  5
702
100
AcDbEntity
  8
5
100
AcDbBlockEnd
  0
BLOCK
  5
703
100
AcDbEntity
  8
5
100
AcDbBlockBegin
  2
*D2
 70
     1
 10
0.0
 20
0.0
 30
0.0
  3
*D2
  1

  0
TEXT
  5
704
100
AcDbEntity
  8
5
 62
     2
100
AcDbText
 10
-290.760407
 20
500.093414
 30
0.0
 40
13.2
  1
198
 41
1.4
 72
     5
 11
-266.736407
 21
500.093414
 31
0.0
100
AcDbText
  0
LINE
  5
705
100
AcDbEntity
  8
5
 62
     2
100
AcDbLine
 10
-375.900407
 20
419.092694
 30
0.0
 11
-375.900407
 21
502.093414
 31
0.0
  0
LINE
  5
706
100
AcDbEntity
  8
5
 62
     2
100
AcDbLine
 10
-375.900407
 20
498.093414
 30
0.0
 11
-368.173001
 21
496.022862
 31
0.0
  0
LINE
  5
707
100
AcDbEntity
  8
5
 62
     2
100
AcDbLine
 10
-375.900407
 20
498.093414
 30
0.0
 11
-368.173001
 21
500.163967
 31
0.0
  0
LINE
  5
708
100
AcDbEntity
  8
5
 62
     2
100
AcDbLine
 10
-368.173001
 20
496.022862
 30
0.0
 11
-368.173001
 21
500.163967
 31
0.0
  0
LINE
  5
709
100
AcDbEntity
  8
5
 62
     2
100
AcDbLine
 10
-375.900407
 20
498.093414
 30
0.0
 11
-177.900407
 21
498.093414
 31
0.0
  0
LINE
  5
70A
100
AcDbEntity
  8
5
 62
     2
100
AcDbLine
 10
-177.900407
 20
498.093414
 30
0.0
 11
-185.627814
 21
500.163967
 31
0.0
  0
LINE
  5
70B
100
AcDbEntity
  8
5
 62
     2
100
AcDbLine
 10
-177.900407
 20
498.093414
 30
0.0
 11
-185.627814
 21
496.022862
 31
0.0
  0
LINE
  5
70C
100
AcDbEntity
  8
5
 62
     2
100
AcDbLine
 10
-185.627814
 20
500.163967
 30
0.0
 11
-185.627814
 21
496.022862
 31
0.0
  0
LINE
  5
70D
100
AcDbEntity
  8
5
 62
     2
100
AcDbLine
 10
-177.900407
 20
381.719326
 30
0.0
 11
-177.900407
 21
502.093414
 31
0.0
  0
ENDBLK
  5
70E
100
AcDbEntity
  8
5
100
AcDbBlockEnd
  0
BLOCK
  5
70F
100
AcDbEntity
  8
5
100
AcDbBlockBegin
  2
*D3
 70
     1
 10
0.0
 20
0.0
 30
0.0
  3
*D3
  1

  0
TEXT
  5
710
100
AcDbEntity
  8
5
 62
     2
100
AcDbText
 10
-121.233925
 20
328.729326
 30
0.0
 40
13.2
  1
67
 50
90.0
 41
1.4
 72
     5
 11
-121.233925
 21
343.513326
 31
0.0
100
AcDbText
  0
LINE
  5
711
100
AcDbEntity
  8
5
 62
     2
100
AcDbLine
 10
-149.952989
 20
304.469326
 30
0.0
 11
-115.233925
 21
304.469326
 31
0.0
  0
LINE
  5
712
100
AcDbEntity
  8
5
 62
     2
100
AcDbLine
 10
-119.233925
 20
304.469326
 30
0.0
 11
-117.163373
 21
312.196733
 31
0.0
  0
LINE
  5
713
100
AcDbEntity
  8
5
 62
     2
100
AcDbLine
 10
-119.233925
 20
304.469326
 30
0.0
 11
-121.304477
 21
312.196733
 31
0.0
  0
LINE
  5
714
100
AcDbEntity
  8
5
 62
     2
100
AcDbLine
 10
-117.163373
 20
312.196733
 30
0.0
 11
-121.304477
 21
312.196733
 31
0.0
  0
LINE
  5
715
100
AcDbEntity
  8
5
 62
     2
100
AcDbLine
 10
-119.233925
 20
304.469326
 30
0.0
 11
-119.233925
 21
371.469326
 31
0.0
  0
LINE
  5
716
100
AcDbEntity
  8
5
 62
     2
100
AcDbLine
 10
-119.233925
 20
371.469326
 30
0.0
 11
-121.304477
 21
363.74192
 31
0.0
  0
LINE
  5
717
100
AcDbEntity
  8
5
 62
     2
100
AcDbLine
 10
-119.233925
 20
371.469326
 30
0.0
 11
-117.163373
 21
363.74192
 31
0.0
  0
LINE
  5
718
100
AcDbEntity
  8
5
 62
     2
100
AcDbLine
 10
-121.304477
 20
363.74192
 30
0.0
 11
-117.163373
 21
363.74192
 31
0.0
  0
LINE
  5
719
100
AcDbEntity
  8
5
 62
     2
100
AcDbLine
 10
-161.479637
 20
371.469326
 30
0.0
 11
-115.233925
 21
371.469326
 31
0.0
  0
ENDBLK
  5
71A
100
AcDbEntity
  8
5
100
AcDbBlockEnd
  0
BLOCK
  5
71B
100
AcDbEntity
  8
5
100
AcDbBlockBegin
  2
*D4
 70
     1
 10
0.0
 20
0.0
 30
0.0
  3
*D4
  1

  0
TEXT
  5
71C
100
AcDbEntity
  8
5
 62
     2
100
AcDbText
 10
-121.233925
 20
257.729326
 30
0.0
 40
13.2
  1
75
 50
90.0
 41
1.4
 72
     5
 11
-121.233925
 21
272.513326
 31
0.0
100
AcDbText
  0
LINE
  5
71D
100
AcDbEntity
  8
5
 62
     2
100
AcDbLine
 10
-344.712407
 20
229.469326
 30
0.0
 11
-115.233925
 21
229.469326
 31
0.0
  0
LINE
  5
71E
100
AcDbEntity
  8
5
 62
     2
100
AcDbLine
 10
-119.233925
 20
229.469326
 30
0.0
 11
-117.163373
 21
237.196733
 31
0.0
  0
LINE
  5
71F
100
AcDbEntity
  8
5
 62
     2
100
AcDbLine
 10
-119.233925
 20
229.469326
 30
0.0
 11
-121.304477
 21
237.196733
 31
0.0
  0
LINE
  5
720
100
AcDbEntity
  8
5
 62
     2
100
AcDbLine
 10
-117.163373
 20
237.196733
 30
0.0
 11
-121.304477
 21
237.196733
 31
0.0
  0
LINE
  5
721
100
AcDbEntity
  8
5
 62
     2
100
AcDbLine
 10
-119.233925
 20
229.469326
 30
0.0
 11
-119.233925
 21
304.469326
 31
0.0
  0
LINE
  5
722
100
AcDbEntity
  8
5
 62
     2
100
AcDbLine
 10
-119.233925
 20
304.469326
 30
0.0
 11
-121.304477
 21
296.74192
 31
0.0
  0
LINE
  5
723
100
AcDbEntity
  8
5
 62
     2
100
AcDbLine
 10
-119.233925
 20
304.469326
 30
0.0
 11
-117.163373
 21
296.74192
 31
0.0
  0
LINE
  5
724
100
AcDbEntity
  8
5
 62
     2
100
AcDbLine
 10
-121.304477
 20
296.74192
 30
0.0
 11
-117.163373
 21
296.74192
 31
0.0
  0
LINE
  5
725
100
AcDbEntity
  8
5
 62
     2
100
AcDbLine
 10
-149.952989
 20
304.469326
 30
0.0
 11
-115.233925
 21
304.469326
 31
0.0
  0
ENDBLK
  5
726
100
AcDbEntity
  8
5
100
AcDbBlockEnd
  0
BLOCK
  5
727
100
AcDbEntity
  8
5
100
AcDbBlockBegin
  2
*D5
 70
     1
 10
0.0
 20
0.0
 30
0.0
  3
*D5
  1

  0
TEXT
  5
728
100
AcDbEntity
  8
5
 62
     2
100
AcDbText
 10
18.07835
 20
-389.433377
 30
0.0
 40
13.2
  1
260
 50
90.0
 41
1.4
 72
     5
 11
18.07835
 21
-365.409378
 31
0.0
100
AcDbText
  0
LINE
  5
729
100
AcDbEntity
  8
5
 62
     2
100
AcDbLine
 10
100.906817
 20
-505.573377
 30
0.0
 11
16.07835
 21
-505.573377
 31
0.0
  0
LINE
  5
72A
100
AcDbEntity
  8
5
 62
     2
100
AcDbLine
 10
20.07835
 20
-505.573377
 30
0.0
 11
22.148902
 21
-497.845971
 31
0.0
  0
LINE
  5
72B
100
AcDbEntity
  8
5
 62
     2
100
AcDbLine
 10
20.07835
 20
-505.573377
 30
0.0
 11
18.007798
 21
-497.845971
 31
0.0
  0
LINE
  5
72C
100
AcDbEntity
  8
5
 62
     2
100
AcDbLine
 10
22.148902
 20
-497.845971
 30
0.0
 11
18.007798
 21
-497.845971
 31
0.0
  0
LINE
  5
72D
100
AcDbEntity
  8
5
 62
     2
100
AcDbLine
 10
20.07835
 20
-505.573377
 30
0.0
 11
20.07835
 21
-245.573377
 31
0.0
  0
LINE
  5
72E
100
AcDbEntity
  8
5
 62
     2
100
AcDbLine
 10
20.07835
 20
-245.573377
 30
0.0
 11
18.007798
 21
-253.300784
 31
0.0
  0
LINE
  5
72F
100
AcDbEntity
  8
5
 62
     2
100
AcDbLine
 10
20.07835
 20
-245.573377
 30
0.0
 11
22.148902
 21
-253.300784
 31
0.0
  0
LINE
  5
730
100
AcDbEntity
  8
5
 62
     2
100
AcDbLine
 10
18.007798
 20
-253.300784
 30
0.0
 11
22.148902
 21
-253.300784
 31
0.0
  0
LINE
  5
731
100
AcDbEntity
  8
5
 62
     2
100
AcDbLine
 10
73.078425
 20
-245.573377
 30
0.0
 11
16.07835
 21
-245.573377
 31
0.0
  0
ENDBLK
  5
732
100
AcDbEntity
  8
5
100
AcDbBlockEnd
  0
BLOCK
  5
733
100
AcDbEntity
  8
5
100
AcDbBlockBegin
  2
*D6
 70
     1
 10
0.0
 20
0.0
 30
0.0
  3
*D6
  1

  0
TEXT
  5
734
100
AcDbEntity
  8
5
 62
     2
100
AcDbText
 10
18.07835
 20
-129.433377
 30
0.0
 40
13.2
  1
260
 50
90.0
 41
1.4
 72
     5
 11
18.07835
 21
-105.409378
 31
0.0
100
AcDbText
  0
LINE
  5
735
100
AcDbEntity
  8
5
 62
     2
100
AcDbLine
 10
73.078425
 20
-245.573377
 30
0.0
 11
16.07835
 21
-245.573377
 31
0.0
  0
LINE
  5
736
100
AcDbEntity
  8
5
 62
     2
100
AcDbLine
 10
20.07835
 20
-245.573377
 30
0.0
 11
22.148902
 21
-237.845971
 31
0.0
  0
LINE
  5
737
100
AcDbEntity
  8
5
 62
     2
100
AcDbLine
 10
20.07835
 20
-245.573377
 30
0.0
 11
18.007798
 21
-237.845971
 31
0.0
  0
LINE
  5
738
100
AcDbEntity
  8
5
 62
     2
100
AcDbLine
 10
22.148902
 20
-237.845971
 30
0.0
 11
18.007798
 21
-237.845971
 31
0.0
  0
LINE
  5
739
100
AcDbEntity
  8
5
 62
     2
100
AcDbLine
 10
20.07835
 20
-245.573377
 30
0.0
 11
20.07835
 21
14.426623
 31
0.0
  0
LINE
  5
73A
100
AcDbEntity
  8
5
 62
     2
100
AcDbLine
 10
20.07835
 20
14.426623
 30
0.0
 11
18.007798
 21
6.699216
 31
0.0
  0
LINE
  5
73B
100
AcDbEntity
  8
5
 62
     2
100
AcDbLine
 10
20.07835
 20
14.426623
 30
0.0
 11
22.148902
 21
6.699216
 31
0.0
  0
LINE
  5
73C
100
AcDbEntity
  8
5
 62
     2
100
AcDbLine
 10
18.007798
 20
6.699216
 30
0.0
 11
22.148902
 21
6.699216
 31
0.0
  0
LINE
  5
73D
100
AcDbEntity
  8
5
 62
     2
100
AcDbLine
 10
90.406817
 20
14.426623
 30
0.0
 11
16.07835
 21
14.426623
 31
0.0
  0
ENDBLK
  5
73E
100
AcDbEntity
  8
5
100
AcDbBlockEnd
  0
BLOCK
  5
73F
100
AcDbEntity
  8
5
100
AcDbBlockBegin
  2
*D7
 70
     1
 10
0.0
 20
0.0
 30
0.0
  3
*D7
  1

  0
TEXT
  5
740
100
AcDbEntity
  8
5
 62
     2
100
AcDbText
 10
82.926817
 20
-436.417206
 30
0.0
 40
13.2
  1
68
 41
1.4
 72
     5
 11
97.710817
 21
-436.417206
 31
0.0
100
AcDbText
  0
LINE
  5
741
100
AcDbEntity
  8
5
 62
     2
100
AcDbLine
 10
111.406817
 20
-404.573377
 30
0.0
 11
111.406817
 21
-442.417206
 31
0.0
  0
LINE
  5
742
100
AcDbEntity
  8
5
 62
     2
100
AcDbLine
 10
111.406817
 20
-438.417206
 30
0.0
 11
103.67941
 21
-436.346653
 31
0.0
  0
LINE
  5
743
100
AcDbEntity
  8
5
 62
     2
100
AcDbLine
 10
111.406817
 20
-438.417206
 30
0.0
 11
103.67941
 21
-440.487758
 31
0.0
  0
LINE
  5
744
100
AcDbEntity
  8
5
 62
     2
100
AcDbLine
 10
103.67941
 20
-436.346653
 30
0.0
 11
103.67941
 21
-440.487758
 31
0.0
  0
LINE
  5
745
100
AcDbEntity
  8
5
 62
     2
100
AcDbLine
 10
80.926817
 20
-438.417206
 30
0.0
 11
199.406817
 21
-438.417206
 31
0.0
  0
LINE
  5
746
100
AcDbEntity
  8
5
 62
     2
100
AcDbLine
 10
179.406817
 20
-438.417206
 30
0.0
 11
187.134224
 21
-440.487758
 31
0.0
  0
LINE
  5
747
100
AcDbEntity
  8
5
 62
     2
100
AcDbLine
 10
179.406817
 20
-438.417206
 30
0.0
 11
187.134224
 21
-436.346653
 31
0.0
  0
LINE
  5
748
100
AcDbEntity
  8
5
 62
     2
100
AcDbLine
 10
187.134224
 20
-440.487758
 30
0.0
 11
187.134224
 21
-436.346653
 31
0.0
  0
LINE
  5
749
100
AcDbEntity
  8
5
 62
     2
100
AcDbLine
 10
179.406817
 20
-404.573377
 30
0.0
 11
179.406817
 21
-442.417206
 31
0.0
  0
ENDBLK
  5
74A
100
AcDbEntity
  8
5
100
AcDbBlockEnd
  0
ENDSEC
  0
SECTION
  2
ENTITIES
  0
LINE
  5
2E
100
AcDbEntity
  8
1
  6
CENTER
 62
     2
100
AcDbLine
 10
-339.837961
 20
23.784874
 30
0.0
 11
-339.837961
 21
-8.556511
 31
0.0
  0
LINE
  5
2F
100
AcDbEntity
  8
1
  6
CENTER
 62
     2
100
AcDbLine
 10
-411.962853
 20
23.784874
 30
0.0
 11
-411.962853
 21
-8.556511
 31
0.0
  0
LINE
  5
30
100
AcDbEntity
  8
1
  6
CENTER
 62
     2
100
AcDbLine
 10
181.469263
 20
23.784874
 30
0.0
 11
181.469263
 21
-8.556511
 31
0.0
  0
LINE
  5
31
100
AcDbEntity
  8
1
  6
CENTER
 62
     2
100
AcDbLine
 10
109.344371
 20
23.784874
 30
0.0
 11
109.344371
 21
-8.556511
 31
0.0
  0
ARC
  5
32
100
AcDbEntity
  8
1
100
AcDbCircle
 10
-214.107831
 20
-202.221187
 30
0.0
 40
10.0
100
AcDbArc
 50
164.03807
 51
225.96193
  0
ARC
  5
33
100
AcDbEntity
  8
1
100
AcDbCircle
 10
-257.460021
 20
-127.132992
 30
0.0
 40
10.0
100
AcDbArc
 50
194.03807
 51
255.96193
  0
ARC
  5
34
100
AcDbEntity
  8
1
100
AcDbCircle
 10
-332.548217
 20
-83.780801
 30
0.0
 40
10.0
100
AcDbArc
 50
224.03807
 51
285.96193
  0
ARC
  5
35
100
AcDbEntity
  8
1
100
AcDbCircle
 10
-419.252597
 20
-83.780801
 30
0.0
 40
10.0
100
AcDbArc
 50
254.03807
 51
315.96193
  0
ARC
  5
36
100
AcDbEntity
  8
1
100
AcDbCircle
 10
-494.340793
 20
-127.132992
 30
0.0
 40
10.0
100
AcDbArc
 50
284.03807
 51
345.96193
  0
ARC
  5
37
100
AcDbEntity
  8
1
100
AcDbCircle
 10
-537.692983
 20
-202.221187
 30
0.0
 40
10.0
100
AcDbArc
 50
314.03807
 51
15.96193
  0
ARC
  5
38
100
AcDbEntity
  8
1
100
AcDbCircle
 10
-537.692983
 20
-288.925567
 30
0.0
 40
10.0
100
AcDbArc
 50
344.03807
 51
45.96193
  0
ARC
  5
39
100
AcDbEntity
  8
1
100
AcDbCircle
 10
-494.340793
 20
-364.013763
 30
0.0
 40
10.0
100
AcDbArc
 50
14.03807
 51
75.96193
  0
ARC
  5
3A
100
AcDbEntity
  8
1
100
AcDbCircle
 10
-419.252597
 20
-407.365953
 30
0.0
 40
10.0
100
AcDbArc
 50
44.03807
 51
105.96193
  0
ARC
  5
3B
100
AcDbEntity
  8
1
100
AcDbCircle
 10
-332.548217
 20
-407.365953
 30
0.0
 40
10.0
100
AcDbArc
 50
74.03807
 51
135.96193
  0
ARC
  5
3C
100
AcDbEntity
  8
1
100
AcDbCircle
 10
-257.460021
 20
-364.013763
 30
0.0
 40
10.0
100
AcDbArc
 50
104.03807
 51
165.96193
  0
ARC
  5
3D
100
AcDbEntity
  8
1
100
AcDbCircle
 10
-214.107831
 20
-288.925567
 30
0.0
 40
10.0
100
AcDbArc
 50
134.03807
 51
195.96193
  0
ARC
  5
3E
100
AcDbEntity
  8
1
100
AcDbCircle
 10
-375.900407
 20
-245.573377
 30
0.0
 40
160.0
100
AcDbArc
 50
18.063992
 51
41.936008
  0
ARC
  5
3F
100
AcDbEntity
  8
1
100
AcDbCircle
 10
-229.490946
 20
-197.82121
 30
0.0
 40
6.0
100
AcDbArc
 50
344.03807
 51
18.063992
  0
ARC
  5
40
100
AcDbEntity
  8
1
100
AcDbCircle
 10
-225.23001
 20
-213.723237
 30
0.0
 40
6.0
100
AcDbArc
 50
11.936008
 51
45.96193
  0
ARC
  5
41
100
AcDbEntity
  8
1
100
AcDbCircle
 10
-261.341086
 20
-142.655148
 30
0.0
 40
6.0
100
AcDbArc
 50
41.936008
 51
75.96193
  0
ARC
  5
42
100
AcDbEntity
  8
1
100
AcDbCircle
 10
-272.982178
 20
-131.014056
 30
0.0
 40
6.0
100
AcDbArc
 50
14.03807
 51
48.063992
  0
ARC
  5
43
100
AcDbEntity
  8
1
100
AcDbCircle
 10
-375.900407
 20
-245.573377
 30
0.0
 40
160.0
100
AcDbArc
 50
48.063992
 51
71.936008
  0
ARC
  5
44
100
AcDbEntity
  8
1
100
AcDbCircle
 10
-375.900407
 20
-245.573377
 30
0.0
 40
160.0
100
AcDbArc
 50
78.063992
 51
101.936008
  0
ARC
  5
45
100
AcDbEntity
  8
1
100
AcDbCircle
 10
-375.900407
 20
-245.573377
 30
0.0
 40
160.0
100
AcDbArc
 50
108.063992
 51
131.936008
  0
ARC
  5
46
100
AcDbEntity
  8
1
100
AcDbCircle
 10
-375.900407
 20
-245.573377
 30
0.0
 40
160.0
100
AcDbArc
 50
138.063992
 51
161.936008
  0
ARC
  5
47
100
AcDbEntity
  8
1
100
AcDbCircle
 10
-328.14824
 20
-99.163916
 30
0.0
 40
6.0
100
AcDbArc
 50
71.936008
 51
105.96193
  0
ARC
  5
48
100
AcDbEntity
  8
1
100
AcDbCircle
 10
-344.050266
 20
-94.90298
 30
0.0
 40
6.0
100
AcDbArc
 50
44.03807
 51
78.063992
  0
ARC
  5
49
100
AcDbEntity
  8
1
100
AcDbCircle
 10
-407.750548
 20
-94.90298
 30
0.0
 40
6.0
100
AcDbArc
 50
101.936008
 51
135.96193
  0
ARC
  5
4A
100
AcDbEntity
  8
1
100
AcDbCircle
 10
-423.652575
 20
-99.163916
 30
0.0
 40
6.0
100
AcDbArc
 50
74.03807
 51
108.063992
  0
ARC
  5
4B
100
AcDbEntity
  8
1
100
AcDbCircle
 10
-478.818637
 20
-131.014056
 30
0.0
 40
6.0
100
AcDbArc
 50
131.936008
 51
165.96193
  0
ARC
  5
4C
100
AcDbEntity
  8
1
100
AcDbCircle
 10
-490.459728
 20
-142.655148
 30
0.0
 40
6.0
100
AcDbArc
 50
104.03807
 51
138.063992
  0
ARC
  5
4D
100
AcDbEntity
  8
1
100
AcDbCircle
 10
-522.309869
 20
-197.82121
 30
0.0
 40
6.0
100
AcDbArc
 50
161.936008
 51
195.96193
  0
ARC
  5
4E
100
AcDbEntity
  8
1
100
AcDbCircle
 10
-526.570804
 20
-213.723237
 30
0.0
 40
6.0
100
AcDbArc
 50
134.03807
 51
168.063992
  0
ARC
  5
4F
100
AcDbEntity
  8
1
100
AcDbCircle
 10
-375.900407
 20
-245.573377
 30
0.0
 40
160.0
100
AcDbArc
 50
168.063992
 51
191.936008
  0
ARC
  5
50
100
AcDbEntity
  8
1
100
AcDbCircle
 10
-375.900407
 20
-245.573377
 30
0.0
 40
160.0
100
AcDbArc
 50
198.063992
 51
221.936008
  0
ARC
  5
51
100
AcDbEntity
  8
1
100
AcDbCircle
 10
-375.900407
 20
-245.573377
 30
0.0
 40
160.0
100
AcDbArc
 50
228.063992
 51
251.936008
  0
ARC
  5
52
100
AcDbEntity
  8
1
100
AcDbCircle
 10
-526.570804
 20
-277.423518
 30
0.0
 40
6.0
100
AcDbArc
 50
191.936008
 51
225.96193
  0
ARC
  5
53
100
AcDbEntity
  8
1
100
AcDbCircle
 10
-522.309869
 20
-293.325545
 30
0.0
 40
6.0
100
AcDbArc
 50
164.03807
 51
198.063992
  0
ARC
  5
54
100
AcDbEntity
  8
1
100
AcDbCircle
 10
-490.459728
 20
-348.491607
 30
0.0
 40
6.0
100
AcDbArc
 50
221.936008
 51
255.96193
  0
ARC
  5
55
100
AcDbEntity
  8
1
100
AcDbCircle
 10
-478.818637
 20
-360.132698
 30
0.0
 40
6.0
100
AcDbArc
 50
194.03807
 51
228.063992
  0
ARC
  5
56
100
AcDbEntity
  8
1
100
AcDbCircle
 10
-423.652575
 20
-391.982839
 30
0.0
 40
6.0
100
AcDbArc
 50
251.936008
 51
285.96193
  0
ARC
  5
57
100
AcDbEntity
  8
1
100
AcDbCircle
 10
-407.750548
 20
-396.243774
 30
0.0
 40
6.0
100
AcDbArc
 50
224.03807
 51
258.063992
  0
ARC
  5
58
100
AcDbEntity
  8
1
100
AcDbCircle
 10
-375.900407
 20
-245.573377
 30
0.0
 40
160.0
100
AcDbArc
 50
348.063992
 51
11.936008
  0
ARC
  5
59
100
AcDbEntity
  8
1
100
AcDbCircle
 10
-375.900407
 20
-245.573377
 30
0.0
 40
160.0
100
AcDbArc
 50
318.063992
 51
341.936008
  0
ARC
  5
5A
100
AcDbEntity
  8
1
100
AcDbCircle
 10
-375.900407
 20
-245.573377
 30
0.0
 40
160.0
100
AcDbArc
 50
258.063992
 51
281.936008
  0
ARC
  5
5B
100
AcDbEntity
  8
1
100
AcDbCircle
 10
-375.900407
 20
-245.573377
 30
0.0
 40
160.0
100
AcDbArc
 50
288.063992
 51
311.936008
  0
ARC
  5
5C
100
AcDbEntity
  8
1
100
AcDbCircle
 10
-225.23001
 20
-277.423518
 30
0.0
 40
6.0
100
AcDbArc
 50
314.03807
 51
348.063992
  0
ARC
  5
5D
100
AcDbEntity
  8
1
100
AcDbCircle
 10
-229.490946
 20
-293.325545
 30
0.0
 40
6.0
100
AcDbArc
 50
341.936008
 51
15.96193
  0
ARC
  5
5E
100
AcDbEntity
  8
1
100
AcDbCircle
 10
-261.341086
 20
-348.491607
 30
0.0
 40
6.0
100
AcDbArc
 50
284.03807
 51
318.063992
  0
ARC
  5
5F
100
AcDbEntity
  8
1
100
AcDbCircle
 10
-272.982178
 20
-360.132698
 30
0.0
 40
6.0
100
AcDbArc
 50
311.936008
 51
345.96193
  0
ARC
  5
60
100
AcDbEntity
  8
1
100
AcDbCircle
 10
-328.14824
 20
-391.982839
 30
0.0
 40
6.0
100
AcDbArc
 50
254.03807
 51
288.063992
  0
ARC
  5
61
100
AcDbEntity
  8
1
100
AcDbCircle
 10
-344.050266
 20
-396.243774
 30
0.0
 40
6.0
100
AcDbArc
 50
281.936008
 51
315.96193
  0
LINE
  5
62
100
AcDbEntity
  8
1
100
AcDbLine
 10
-423.900407
 20
0.426623
 30
0.0
 11
-327.900407
 21
0.426623
 31
0.0
  0
LINE
  5
63
100
AcDbEntity
  8
1
100
AcDbLine
 10
-426.900407
 20
3.426623
 30
0.0
 11
-426.900407
 21
14.426623
 31
0.0
  0
LINE
  5
64
100
AcDbEntity
  8
1
100
AcDbLine
 10
-324.900407
 20
3.426623
 30
0.0
 11
-324.900407
 21
14.426623
 31
0.0
  0
ARC
  5
65
100
AcDbEntity
  8
1
100
AcDbCircle
 10
-327.900407
 20
3.426623
 30
0.0
 40
3.0
100
AcDbArc
 50
270.0
 51
360.0
  0
ARC
  5
66
100
AcDbEntity
  8
1
100
AcDbCircle
 10
-423.900407
 20
3.426623
 30
0.0
 40
3.0
100
AcDbArc
 50
180.0
 51
270.0
  0
LINE
  5
67
100
AcDbEntity
  8
1
100
AcDbLine
 10
-412.900407
 20
-20.770961
 30
0.0
 11
-412.900407
 21
-4.573377
 31
0.0
  0
LINE
  5
68
100
AcDbEntity
  8
1
100
AcDbLine
 10
-338.900407
 20
-20.770961
 30
0.0
 11
-338.900407
 21
-4.573377
 31
0.0
  0
ARC
  5
69
100
AcDbEntity
  8
1
100
AcDbCircle
 10
-333.900407
 20
-4.573377
 30
0.0
 40
5.0
100
AcDbArc
 50
90.0
 51
180.0
  0
ARC
  5
6A
100
AcDbEntity
  8
1
100
AcDbCircle
 10
-417.900407
 20
-4.573377
 30
0.0
 40
5.0
100
AcDbArc
 50
0.0
 51
90.0
  0
LINE
  5
6B
100
AcDbEntity
  8
1
100
AcDbLine
 10
-403.900407
 20
-33.073377
 30
0.0
 11
-347.900407
 21
-33.073377
 31
0.0
  0
LINE
  5
6C
100
AcDbEntity
  8
1
100
AcDbLine
 10
-403.900407
 20
-80.132089
 30
0.0
 11
-403.900407
 21
-35.375793
 31
0.0
  0
LINE
  5
6D
100
AcDbEntity
  8
1
100
AcDbLine
 10
-347.900407
 20
-80.132089
 30
0.0
 11
-347.900407
 21
-35.375793
 31
0.0
  0
LINE
  5
6E
100
AcDbEntity
  8
1
100
AcDbLine
 10
-340.440642
 20
-24.78475
 30
0.0
 11
-346.360172
 21
-31.362005
 31
0.0
  0
LINE
  5
6F
100
AcDbEntity
  8
1
100
AcDbLine
 10
-411.360172
 20
-24.78475
 30
0.0
 11
-405.440642
 21
-31.362005
 31
0.0
  0
ARC
  5
70
100
AcDbEntity
  8
1
100
AcDbCircle
 10
-341.900407
 20
-35.375793
 30
0.0
 40
6.0
100
AcDbArc
 50
138.012788
 51
180.0
  0
ARC
  5
71
100
AcDbEntity
  8
1
100
AcDbCircle
 10
-344.900407
 20
-20.770961
 30
0.0
 40
6.0
100
AcDbArc
 50
318.012788
 51
360.0
  0
ARC
  5
72
100
AcDbEntity
  8
1
100
AcDbCircle
 10
-406.900407
 20
-20.770961
 30
0.0
 40
6.0
100
AcDbArc
 50
180.0
 51
221.987212
  0
ARC
  5
73
100
AcDbEntity
  8
1
100
AcDbCircle
 10
-409.900407
 20
-35.375793
 30
0.0
 40
6.0
100
AcDbArc
 50
0.0
 51
41.987212
  0
ARC
  5
74
100
AcDbEntity
  8
1
100
AcDbCircle
 10
-337.900407
 20
-80.132089
 30
0.0
 40
10.0
100
AcDbArc
 50
180.0
 51
247.395601
  0
ARC
  5
75
100
AcDbEntity
  8
1
100
AcDbCircle
 10
-413.900407
 20
-80.132089
 30
0.0
 40
10.0
100
AcDbArc
 50
292.604399
 51
360.0
  0
ARC
  5
76
100
AcDbEntity
  8
1
100
AcDbCircle
 10
-324.900407
 20
-13.306578
 30
0.0
 40
14.0
100
AcDbArc
 50
100.164249
 51
180.0
  0
ARC
  5
77
100
AcDbEntity
  8
1
100
AcDbCircle
 10
-426.900407
 20
-13.306578
 30
0.0
 40
14.0
100
AcDbArc
 50
0.0
 51
79.835751
  0
LINE
  5
78
100
AcDbEntity
  8
1
100
AcDbLine
 10
-370.900407
 20
-13.306578
 30
0.0
 11
-380.900407
 21
-13.306578
 31
0.0
  0
LINE
  5
79
100
AcDbEntity
  8
1
100
AcDbLine
 10
-380.900407
 20
-10.306578
 30
0.0
 11
-380.900407
 21
-2.573377
 31
0.0
  0
LINE
  5
7A
100
AcDbEntity
  8
1
100
AcDbLine
 10
-370.900407
 20
-10.306578
 30
0.0
 11
-370.900407
 21
-2.573377
 31
0.0
  0
ARC
  5
7B
100
AcDbEntity
  8
1
100
AcDbCircle
 10
-367.900407
 20
-2.573377
 30
0.0
 40
3.0
100
AcDbArc
 50
90.0
 51
180.0
  0
ARC
  5
7C
100
AcDbEntity
  8
1
100
AcDbCircle
 10
-383.900407
 20
-2.573377
 30
0.0
 40
3.0
100
AcDbArc
 50
0.0
 51
90.0
  0
ARC
  5
7D
100
AcDbEntity
  8
1
100
AcDbCircle
 10
-383.900407
 20
-10.306578
 30
0.0
 40
3.0
100
AcDbArc
 50
270.0
 51
360.0
  0
ARC
  5
7E
100
AcDbEntity
  8
1
100
AcDbCircle
 10
-367.900407
 20
-10.306578
 30
0.0
 40
3.0
100
AcDbArc
 50
180.0
 51
270.0
  0
LINE
  5
7F
100
AcDbEntity
  8
1
100
AcDbLine
 10
-391.226309
 20
-4.573377
 30
0.0
 11
-391.226309
 21
-20.164709
 31
0.0
  0
LINE
  5
80
100
AcDbEntity
  8
1
100
AcDbLine
 10
-360.574506
 20
-4.573377
 30
0.0
 11
-360.574506
 21
-20.164709
 31
0.0
  0
ARC
  5
81
100
AcDbEntity
  8
1
100
AcDbCircle
 10
-355.574506
 20
-4.573377
 30
0.0
 40
5.0
100
AcDbArc
 50
90.0
 51
180.0
  0
ARC
  5
82
100
AcDbEntity
  8
1
100
AcDbCircle
 10
-396.226309
 20
-4.573377
 30
0.0
 40
5.0
100
AcDbArc
 50
0.0
 51
90.0
  0
LINE
  5
83
100
AcDbEntity
  8
1
100
AcDbLine
 10
-393.509787
 20
-24.875066
 30
0.0
 11
-401.61693
 21
-31.271689
 31
0.0
  0
LINE
  5
84
100
AcDbEntity
  8
1
100
AcDbLine
 10
-350.183885
 20
-31.271689
 30
0.0
 11
-358.291028
 21
-24.875066
 31
0.0
  0
ARC
  5
85
100
AcDbEntity
  8
1
100
AcDbCircle
 10
-354.574506
 20
-20.164709
 30
0.0
 40
6.0
100
AcDbArc
 50
180.0
 51
231.72618
  0
ARC
  5
86
100
AcDbEntity
  8
1
100
AcDbCircle
 10
-397.226309
 20
-20.164709
 30
0.0
 40
6.0
100
AcDbArc
 50
308.27382
 51
360.0
  0
LINE
  5
87
100
AcDbEntity
  8
1
100
AcDbLine
 10
-358.291028
 20
-23.073377
 30
0.0
 11
-340.440642
 21
-23.073377
 31
0.0
  0
LINE
  5
88
100
AcDbEntity
  8
1
100
AcDbLine
 10
-411.360172
 20
-23.073377
 30
0.0
 11
-393.509787
 21
-23.073377
 31
0.0
  0
LINE
  5
89
100
AcDbEntity
  8
1
100
AcDbLine
 10
-391.226309
 20
-23.073377
 30
0.0
 11
-360.574506
 21
-23.073377
 31
0.0
  0
LINE
  5
8A
100
AcDbEntity
  8
1
100
AcDbLine
 10
-575.900407
 20
-272.573377
 30
0.0
 11
-575.900407
 21
-218.573377
 31
0.0
  0
LINE
  5
8B
100
AcDbEntity
  8
1
100
AcDbLine
 10
-572.900407
 20
-215.573377
 30
0.0
 11
-533.062744
 21
-215.573377
 31
0.0
  0
LINE
  5
8C
100
AcDbEntity
  8
1
100
AcDbLine
 10
-572.900407
 20
-275.573377
 30
0.0
 11
-533.062744
 21
-275.573377
 31
0.0
  0
ARC
  5
8D
100
AcDbEntity
  8
1
100
AcDbCircle
 10
-572.900407
 20
-218.573377
 30
0.0
 40
3.0
100
AcDbArc
 50
90.0
 51
180.0
  0
ARC
  5
8E
100
AcDbEntity
  8
1
100
AcDbCircle
 10
-572.900407
 20
-272.573377
 30
0.0
 40
3.0
100
AcDbArc
 50
180.0
 51
270.0
  0
LINE
  5
8F
100
AcDbEntity
  8
1
100
AcDbLine
 10
-575.900407
 20
-245.573377
 30
0.0
 11
-530.900407
 21
-245.573377
 31
0.0
  0
LINE
  5
90
100
AcDbEntity
  8
1
100
AcDbLine
 10
-175.900407
 20
-272.573377
 30
0.0
 11
-175.900407
 21
-218.573377
 31
0.0
  0
LINE
  5
91
100
AcDbEntity
  8
1
100
AcDbLine
 10
-178.900407
 20
-215.573377
 30
0.0
 11
-218.738071
 21
-215.573377
 31
0.0
  0
LINE
  5
92
100
AcDbEntity
  8
1
100
AcDbLine
 10
-178.900407
 20
-275.573377
 30
0.0
 11
-218.738071
 21
-275.573377
 31
0.0
  0
ARC
  5
93
100
AcDbEntity
  8
1
100
AcDbCircle
 10
-178.900407
 20
-218.573377
 30
0.0
 40
3.0
100
AcDbArc
 50
0.0
 51
90.0
  0
ARC
  5
94
100
AcDbEntity
  8
1
100
AcDbCircle
 10
-178.900407
 20
-272.573377
 30
0.0
 40
3.0
100
AcDbArc
 50
270.0
 51
360.0
  0
LINE
  5
95
100
AcDbEntity
  8
1
100
AcDbLine
 10
-175.900407
 20
-245.573377
 30
0.0
 11
-220.900407
 21
-245.573377
 31
0.0
  0
LINE
  5
96
100
AcDbEntity
  8
1
100
AcDbLine
 10
-416.400407
 20
-505.573377
 30
0.0
 11
-335.400407
 21
-505.573377
 31
0.0
  0
LINE
  5
97
100
AcDbEntity
  8
1
100
AcDbLine
 10
-412.900407
 20
-470.375793
 30
0.0
 11
-412.900407
 21
-482.830737
 31
0.0
  0
LINE
  5
98
100
AcDbEntity
  8
1
100
AcDbLine
 10
-338.900407
 20
-470.375793
 30
0.0
 11
-338.900407
 21
-482.830737
 31
0.0
  0
LINE
  5
99
100
AcDbEntity
  8
1
100
AcDbLine
 10
-403.900407
 20
-458.073377
 30
0.0
 11
-347.900407
 21
-458.073377
 31
0.0
  0
LINE
  5
9A
100
AcDbEntity
  8
1
100
AcDbLine
 10
-403.900407
 20
-411.014666
 30
0.0
 11
-403.900407
 21
-455.770961
 31
0.0
  0
LINE
  5
9B
100
AcDbEntity
  8
1
100
AcDbLine
 10
-347.900407
 20
-411.014666
 30
0.0
 11
-347.900407
 21
-455.770961
 31
0.0
  0
LINE
  5
9C
100
AcDbEntity
  8
1
100
AcDbLine
 10
-340.440642
 20
-466.362005
 30
0.0
 11
-346.360172
 21
-459.78475
 31
0.0
  0
LINE
  5
9D
100
AcDbEntity
  8
1
100
AcDbLine
 10
-411.360172
 20
-466.362005
 30
0.0
 11
-405.440642
 21
-459.78475
 31
0.0
  0
ARC
  5
9E
100
AcDbEntity
  8
1
100
AcDbCircle
 10
-341.900407
 20
-455.770961
 30
0.0
 40
6.0
100
AcDbArc
 50
180.0
 51
221.987212
  0
ARC
  5
9F
100
AcDbEntity
  8
1
100
AcDbCircle
 10
-344.900407
 20
-470.375793
 30
0.0
 40
6.0
100
AcDbArc
 50
0.0
 51
41.987212
  0
ARC
  5
A0
100
AcDbEntity
  8
1
100
AcDbCircle
 10
-406.900407
 20
-470.375793
 30
0.0
 40
6.0
100
AcDbArc
 50
138.012788
 51
180.0
  0
ARC
  5
A1
100
AcDbEntity
  8
1
100
AcDbCircle
 10
-409.900407
 20
-455.770961
 30
0.0
 40
6.0
100
AcDbArc
 50
318.012788
 51
360.0
  0
ARC
  5
A2
100
AcDbEntity
  8
1
100
AcDbCircle
 10
-337.900407
 20
-411.014666
 30
0.0
 40
10.0
100
AcDbArc
 50
112.604399
 51
180.0
  0
ARC
  5
A3
100
AcDbEntity
  8
1
100
AcDbCircle
 10
-413.900407
 20
-411.014666
 30
0.0
 40
10.0
100
AcDbArc
 50
0.0
 51
67.395601
  0
LINE
  5
A4
100
AcDbEntity
  8
1
100
AcDbLine
 10
-340.440642
 20
-468.073377
 30
0.0
 11
-411.360172
 21
-468.073377
 31
0.0
  0
LINE
  5
A5
100
AcDbEntity
  8
1
100
AcDbLine
 10
-415.521728
 20
-487.573377
 30
0.0
 11
-336.279087
 21
-487.573377
 31
0.0
  0
LINE
  5
A6
100
AcDbEntity
  8
1
100
AcDbLine
 10
-412.900407
 20
-484.073377
 30
0.0
 11
-338.900407
 21
-484.073377
 31
0.0
  0
LINE
  5
A7
100
AcDbEntity
  8
1
100
AcDbLine
 10
-416.400407
 20
-505.573377
 30
0.0
 11
-416.400407
 21
-488.816018
 31
0.0
  0
LINE
  5
A8
100
AcDbEntity
  8
1
100
AcDbLine
 10
-335.400407
 20
-505.573377
 30
0.0
 11
-335.400407
 21
-488.816018
 31
0.0
  0
LINE
  5
A9
100
AcDbEntity
  8
1
100
AcDbLine
 10
-338.021728
 20
-484.952057
 30
0.0
 11
-336.279087
 21
-486.694698
 31
0.0
  0
LINE
  5
AA
100
AcDbEntity
  8
1
100
AcDbLine
 10
-413.779087
 20
-484.952057
 30
0.0
 11
-415.521728
 21
-486.694698
 31
0.0
  0
ARC
  5
AB
100
AcDbEntity
  8
1
100
AcDbCircle
 10
-338.400407
 20
-488.816018
 30
0.0
 40
3.0
100
AcDbArc
 50
0.0
 51
45.0
  0
ARC
  5
AC
100
AcDbEntity
  8
1
100
AcDbCircle
 10
-335.900407
 20
-482.830737
 30
0.0
 40
3.0
100
AcDbArc
 50
180.0
 51
225.0
  0
ARC
  5
AD
100
AcDbEntity
  8
1
100
AcDbCircle
 10
-415.900407
 20
-482.830737
 30
0.0
 40
3.0
100
AcDbArc
 50
315.0
 51
360.0
  0
ARC
  5
AE
100
AcDbEntity
  8
1
100
AcDbCircle
 10
-413.400407
 20
-488.816018
 30
0.0
 40
3.0
100
AcDbArc
 50
135.0
 51
180.0
  0
LINE
  5
AF
100
AcDbEntity
  8
1
  6
DASHED
100
AcDbLine
 10
-426.900407
 20
277.469326
 30
0.0
 11
-426.900407
 21
331.469326
 31
0.0
  0
LINE
  5
B0
100
AcDbEntity
  8
1
  6
DASHED
100
AcDbLine
 10
-324.900407
 20
277.469326
 30
0.0
 11
-324.900407
 21
331.469326
 31
0.0
  0
LINE
  5
B1
100
AcDbEntity
  8
1
  6
DASHED
100
AcDbLine
 10
-402.900407
 20
355.469326
 30
0.0
 11
-348.900407
 21
355.469326
 31
0.0
  0
LINE
  5
B2
100
AcDbEntity
  8
1
  6
DASHED
100
AcDbLine
 10
-402.900407
 20
253.469326
 30
0.0
 11
-348.900407
 21
253.469326
 31
0.0
  0
ARC
  5
B3
100
AcDbEntity
  8
1
  6
DASHED
100
AcDbCircle
 10
-402.900407
 20
331.469326
 30
0.0
 40
24.0
100
AcDbArc
 50
90.0
 51
180.0
  0
ARC
  5
B4
100
AcDbEntity
  8
1
  6
DASHED
100
AcDbCircle
 10
-402.900407
 20
277.469326
 30
0.0
 40
24.0
100
AcDbArc
 50
180.0
 51
270.0
  0
ARC
  5
B5
100
AcDbEntity
  8
1
  6
DASHED
100
AcDbCircle
 10
-348.900407
 20
277.469326
 30
0.0
 40
24.0
100
AcDbArc
 50
270.0
 51
360.0
  0
ARC
  5
B6
100
AcDbEntity
  8
1
  6
DASHED
100
AcDbCircle
 10
-348.900407
 20
331.469326
 30
0.0
 40
24.0
100
AcDbArc
 50
0.0
 51
90.0
  0
CIRCLE
  5
B7
100
AcDbEntity
  8
1
  6
DASHED
100
AcDbCircle
 10
-339.837961
 20
340.531772
 30
0.0
 40
5.5
  0
CIRCLE
  5
B8
100
AcDbEntity
  8
1
  6
DASHED
100
AcDbCircle
 10
-411.962853
 20
340.531772
 30
0.0
 40
5.5
  0
CIRCLE
  5
B9
100
AcDbEntity
  8
1
  6
DASHED
100
AcDbCircle
 10
-339.837961
 20
268.40688
 30
0.0
 40
5.5
  0
CIRCLE
  5
BA
100
AcDbEntity
  8
1
  6
DASHED
100
AcDbCircle
 10
-411.962853
 20
268.40688
 30
0.0
 40
5.5
  0
LINE
  5
BB
100
AcDbEntity
  8
1
100
AcDbLine
 10
-255.173443
 20
288.469326
 30
0.0
 11
-255.173443
 21
320.469326
 31
0.0
  0
LINE
  5
BC
100
AcDbEntity
  8
1
100
AcDbLine
 10
-251.227947
 20
288.469326
 30
0.0
 11
-251.227947
 21
320.469326
 31
0.0
  0
LINE
  5
BD
100
AcDbEntity
  8
1
100
AcDbLine
 10
-308.644973
 20
323.469326
 30
0.0
 11
-268.293192
 21
323.469326
 31
0.0
  0
LINE
  5
BE
100
AcDbEntity
  8
1
100
AcDbLine
 10
-248.227947
 20
323.469326
 30
0.0
 11
-223.490946
 21
323.469326
 31
0.0
  0
LINE
  5
BF
100
AcDbEntity
  8
1
100
AcDbLine
 10
-275.900407
 20
299.12958
 30
0.0
 11
-275.900407
 21
309.809072
 31
0.0
  0
ARC
  5
C0
100
AcDbEntity
  8
1
100
AcDbCircle
 10
-280.900407
 20
309.809072
 30
0.0
 40
5.0
100
AcDbArc
 50
0.0
 51
90.0
  0
ARC
  5
C1
100
AcDbEntity
  8
1
100
AcDbCircle
 10
-280.900407
 20
299.12958
 30
0.0
 40
5.0
100
AcDbArc
 50
270.0
 51
360.0
  0
LINE
  5
C2
100
AcDbEntity
  8
1
100
AcDbLine
 10
-251.227947
 20
314.809072
 30
0.0
 11
-234.037798
 21
314.809072
 31
0.0
  0
LINE
  5
C3
100
AcDbEntity
  8
1
100
AcDbLine
 10
-251.227947
 20
294.12958
 30
0.0
 11
-234.037798
 21
294.12958
 31
0.0
  0
ARC
  5
C4
100
AcDbEntity
  8
1
100
AcDbCircle
 10
-258.173443
 20
320.469326
 30
0.0
 40
3.0
100
AcDbArc
 50
0.0
 51
75.01435
  0
ARC
  5
C5
100
AcDbEntity
  8
1
100
AcDbCircle
 10
-258.173443
 20
288.469326
 30
0.0
 40
3.0
100
AcDbArc
 50
284.98565
 51
360.0
  0
LINE
  5
C6
100
AcDbEntity
  8
1
100
AcDbLine
 10
-267.425898
 20
323.469326
 30
0.0
 11
-267.425898
 21
335.469326
 31
0.0
  0
LINE
  5
C7
100
AcDbEntity
  8
1
100
AcDbLine
 10
-258.285439
 20
323.469326
 30
0.0
 11
-258.285439
 21
335.469326
 31
0.0
  0
ARC
  5
C8
100
AcDbEntity
  8
1
100
AcDbCircle
 10
-264.531089
 20
325.650526
 30
0.0
 40
3.624575
100
AcDbArc
 50
228.020185
 51
270.0
  0
ARC
  5
C9
100
AcDbEntity
  8
1
100
AcDbCircle
 10
-264.531089
 20
336.260456
 30
0.0
 40
14.234506
100
AcDbArc
 50
270.0
 51
294.050446
  0
ARC
  5
CA
100
AcDbEntity
  8
1
100
AcDbCircle
 10
-257.914866
 20
321.435317
 30
0.0
 40
2.0
100
AcDbArc
 50
75.01435
 51
114.050446
  0
ARC
  5
CB
100
AcDbEntity
  8
1
100
AcDbCircle
 10
-268.293192
 20
321.469326
 30
0.0
 40
2.0
100
AcDbArc
 50
48.020185
 51
90.0
  0
LINE
  5
CC
100
AcDbEntity
  8
1
100
AcDbLine
 10
-267.425898
 20
285.469326
 30
0.0
 11
-267.425898
 21
273.469326
 31
0.0
  0
LINE
  5
CD
100
AcDbEntity
  8
1
100
AcDbLine
 10
-258.285439
 20
285.469326
 30
0.0
 11
-258.285439
 21
273.469326
 31
0.0
  0
ARC
  5
CE
100
AcDbEntity
  8
1
100
AcDbCircle
 10
-264.531089
 20
283.288126
 30
0.0
 40
3.624575
100
AcDbArc
 50
90.0
 51
131.979815
  0
ARC
  5
CF
100
AcDbEntity
  8
1
100
AcDbCircle
 10
-264.531089
 20
272.678196
 30
0.0
 40
14.234506
100
AcDbArc
 50
65.949554
 51
90.0
  0
ARC
  5
D0
100
AcDbEntity
  8
1
100
AcDbCircle
 10
-257.914866
 20
287.503336
 30
0.0
 40
2.0
100
AcDbArc
 50
245.949554
 51
284.98565
  0
ARC
  5
D1
100
AcDbEntity
  8
1
100
AcDbCircle
 10
-268.293192
 20
287.469326
 30
0.0
 40
2.0
100
AcDbArc
 50
270.0
 51
311.979815
  0
LINE
  5
D2
100
AcDbEntity
  8
1
100
AcDbLine
 10
-258.173443
 20
286.722803
 30
0.0
 11
-275.900407
 21
294.12958
 31
0.0
  0
LINE
  5
D3
100
AcDbEntity
  8
1
100
AcDbLine
 10
-258.173443
 20
322.21585
 30
0.0
 11
-275.900407
 21
314.809072
 31
0.0
  0
LINE
  5
D4
100
AcDbEntity
  8
1
100
AcDbLine
 10
-234.037798
 20
297.627864
 30
0.0
 11
-234.037798
 21
311.310789
 31
0.0
  0
LINE
  5
D5
100
AcDbEntity
  8
1
100
AcDbLine
 10
-175.900407
 20
289.469326
 30
0.0
 11
-175.900407
 21
319.469326
 31
0.0
  0
ARC
  5
D6
100
AcDbEntity
  8
1
100
AcDbCircle
 10
-185.900407
 20
319.469326
 30
0.0
 40
10.0
100
AcDbArc
 50
0.0
 51
90.0
  0
ARC
  5
D7
100
AcDbEntity
  8
1
100
AcDbCircle
 10
-185.900407
 20
289.469326
 30
0.0
 40
10.0
100
AcDbArc
 50
270.0
 51
360.0
  0
LINE
  5
D8
100
AcDbEntity
  8
1
100
AcDbLine
 10
-215.900407
 20
273.469326
 30
0.0
 11
-215.900407
 21
276.469326
 31
0.0
  0
LINE
  5
D9
100
AcDbEntity
  8
1
100
AcDbLine
 10
-215.900407
 20
332.469326
 30
0.0
 11
-215.900407
 21
335.469326
 31
0.0
  0
ARC
  5
DA
100
AcDbEntity
  8
1
100
AcDbCircle
 10
-212.900407
 20
332.469326
 30
0.0
 40
3.0
100
AcDbArc
 50
180.0
 51
270.0
  0
ARC
  5
DB
100
AcDbEntity
  8
1
100
AcDbCircle
 10
-212.900407
 20
276.469326
 30
0.0
 40
3.0
100
AcDbArc
 50
90.0
 51
180.0
  0
LINE
  5
DC
100
AcDbEntity
  8
1
100
AcDbLine
 10
-218.738071
 20
325.801515
 30
0.0
 11
-218.738071
 21
329.469326
 31
0.0
  0
ARC
  5
DD
100
AcDbEntity
  8
1
100
AcDbCircle
 10
-215.738071
 20
332.469326
 30
0.0
 40
3.0
100
AcDbArc
 50
180.0
 51
270.0
  0
ARC
  5
DE
100
AcDbEntity
  8
1
100
AcDbCircle
 10
-215.738071
 20
276.469326
 30
0.0
 40
3.0
100
AcDbArc
 50
90.0
 51
180.0
  0
ARC
  5
DF
100
AcDbEntity
  8
1
100
AcDbCircle
 10
-228.037798
 20
297.627864
 30
0.0
 40
6.0
100
AcDbArc
 50
180.0
 51
240.488413
  0
ARC
  5
E0
100
AcDbEntity
  8
1
100
AcDbCircle
 10
-228.037798
 20
311.310789
 30
0.0
 40
6.0
100
AcDbArc
 50
119.511587
 51
180.0
  0
LINE
  5
E1
100
AcDbEntity
  8
1
100
AcDbLine
 10
-230.993395
 20
316.532325
 30
0.0
 11
-220.767673
 21
322.320491
 31
0.0
  0
CIRCLE
  5
E2
100
AcDbEntity
  8
1
  6
DASHED
 62
     2
100
AcDbCircle
 10
-197.900407
 20
304.469326
 30
0.0
 40
10.0
  0
CIRCLE
  5
E3
100
AcDbEntity
  8
1
  6
DASHED
100
AcDbCircle
 10
-197.900407
 20
304.469326
 30
0.0
 40
8.647
  0
ARC
  5
E4
100
AcDbEntity
  8
1
100
AcDbCircle
 10
-222.738071
 20
325.801515
 30
0.0
 40
4.0
100
AcDbArc
 50
299.511587
 51
360.0
  0
LINE
  5
E5
100
AcDbEntity
  8
1
100
AcDbLine
 10
-248.227947
 20
285.469326
 30
0.0
 11
-223.490946
 21
285.469326
 31
0.0
  0
LINE
  5
E6
100
AcDbEntity
  8
1
100
AcDbLine
 10
-218.738071
 20
283.137137
 30
0.0
 11
-218.738071
 21
279.469326
 31
0.0
  0
LINE
  5
E7
100
AcDbEntity
  8
1
100
AcDbLine
 10
-230.993395
 20
292.406327
 30
0.0
 11
-220.767673
 21
286.618162
 31
0.0
  0
ARC
  5
E8
100
AcDbEntity
  8
1
100
AcDbCircle
 10
-222.738071
 20
283.137137
 30
0.0
 40
4.0
100
AcDbArc
 50
0.0
 51
60.488413
  0
LINE
  5
E9
100
AcDbEntity
  8
1
100
AcDbLine
 10
-223.490946
 20
323.469326
 30
0.0
 11
-223.490946
 21
335.469326
 31
0.0
  0
ARC
  5
EA
100
AcDbEntity
  8
1
100
AcDbCircle
 10
-223.76709
 20
322.366692
 30
0.0
 40
0.340742
100
AcDbArc
 50
180.0
 51
270.0
  0
ARC
  5
EB
100
AcDbEntity
  8
1
100
AcDbCircle
 10
-222.813954
 20
322.366692
 30
0.0
 40
1.293878
100
AcDbArc
 50
121.548964
 51
180.0
  0
LINE
  5
EC
100
AcDbEntity
  8
1
100
AcDbLine
 10
-219.805602
 20
323.469326
 30
0.0
 11
-219.805602
 21
335.469326
 31
0.0
  0
ARC
  5
ED
100
AcDbEntity
  8
1
100
AcDbCircle
 10
-223.76709
 20
328.183986
 30
0.0
 40
6.158035
100
AcDbArc
 50
270.0
 51
310.038619
  0
LINE
  5
EE
100
AcDbEntity
  8
1
100
AcDbLine
 10
-223.490946
 20
285.469326
 30
0.0
 11
-223.490946
 21
273.469326
 31
0.0
  0
ARC
  5
EF
100
AcDbEntity
  8
1
100
AcDbCircle
 10
-223.76709
 20
286.57196
 30
0.0
 40
0.340742
100
AcDbArc
 50
90.0
 51
180.0
  0
ARC
  5
F0
100
AcDbEntity
  8
1
100
AcDbCircle
 10
-222.813954
 20
286.57196
 30
0.0
 40
1.293878
100
AcDbArc
 50
180.0
 51
238.451036
  0
LINE
  5
F1
100
AcDbEntity
  8
1
100
AcDbLine
 10
-219.805602
 20
285.469326
 30
0.0
 11
-219.805602
 21
273.469326
 31
0.0
  0
ARC
  5
F2
100
AcDbEntity
  8
1
100
AcDbCircle
 10
-223.76709
 20
280.754667
 30
0.0
 40
6.158035
100
AcDbArc
 50
49.961381
 51
90.0
  0
CIRCLE
  5
F3
100
AcDbEntity
  8
1
100
AcDbCircle
 10
-421.840788
 20
-74.121543
 30
0.0
 40
12.5
  0
LINE
  5
F4
100
AcDbEntity
  8
1
100
AcDbLine
 10
-437.616458
 20
-92.520006
 30
0.0
 11
-442.645931
 21
-73.749758
 31
0.0
  0
ARC
  5
F5
100
AcDbEntity
  8
1
100
AcDbCircle
 10
-448.186892
 20
-91.707643
 30
0.0
 40
10.0
100
AcDbArc
 50
295.164249
 51
15.0
  0
LINE
  5
F6
100
AcDbEntity
  8
1
100
AcDbLine
 10
-423.327414
 20
-48.573377
 30
0.0
 11
-415.900407
 21
-48.573377
 31
0.0
  0
ARC
  5
F7
100
AcDbEntity
  8
1
100
AcDbCircle
 10
-423.327414
 20
-68.573377
 30
0.0
 40
20.0
100
AcDbArc
 50
90.0
 51
195.0
  0
ARC
  5
F8
100
AcDbEntity
  8
1
100
AcDbCircle
 10
-415.900407
 20
-36.573377
 30
0.0
 40
12.0
100
AcDbArc
 50
270.0
 51
360.0
  0
CIRCLE
  5
F9
100
AcDbEntity
  8
1
100
AcDbCircle
 10
-329.960027
 20
-74.121543
 30
0.0
 40
12.5
  0
LINE
  5
FA
100
AcDbEntity
  8
1
100
AcDbLine
 10
-314.184356
 20
-92.520006
 30
0.0
 11
-309.154884
 21
-73.749758
 31
0.0
  0
ARC
  5
FB
100
AcDbEntity
  8
1
100
AcDbCircle
 10
-303.613923
 20
-91.707643
 30
0.0
 40
10.0
100
AcDbArc
 50
165.0
 51
244.835751
  0
LINE
  5
FC
100
AcDbEntity
  8
1
100
AcDbLine
 10
-328.4734
 20
-48.573377
 30
0.0
 11
-335.900407
 21
-48.573377
 31
0.0
  0
ARC
  5
FD
100
AcDbEntity
  8
1
100
AcDbCircle
 10
-328.4734
 20
-68.573377
 30
0.0
 40
20.0
100
AcDbArc
 50
345.0
 51
90.0
  0
ARC
  5
FE
100
AcDbEntity
  8
1
100
AcDbCircle
 10
-335.900407
 20
-36.573377
 30
0.0
 40
12.0
100
AcDbArc
 50
180.0
 51
270.0
  0
LINE
  5
FF
100
AcDbEntity
  8
1
100
AcDbLine
 10
-308.4734
 20
324.469326
 30
0.0
 11
-308.4734
 21
328.469326
 31
0.0
  0
LINE
  5
100
100
AcDbEntity
  8
1
100
AcDbLine
 10
176.406817
 20
-85.573377
 30
0.0
 11
176.406817
 21
-405.573377
 31
0.0
  0
LINE
  5
101
100
AcDbEntity
  8
1
100
AcDbLine
 10
114.406817
 20
-85.573377
 30
0.0
 11
114.406817
 21
-405.573377
 31
0.0
  0
LINE
  5
102
100
AcDbEntity
  8
1
100
AcDbLine
 10
164.406817
 20
-197.544235
 30
0.0
 11
164.406817
 21
-150.573377
 31
0.0
  0
LINE
  5
103
100
AcDbEntity
  8
1
100
AcDbLine
 10
155.746563
 20
-203.154023
 30
0.0
 11
155.746563
 21
-165.334494
 31
0.0
  0
LINE
  5
104
100
AcDbEntity
  8
1
100
AcDbLine
 10
155.746563
 20
-133.992732
 30
0.0
 11
155.746563
 21
-109.37352
 31
0.0
  0
LINE
  5
105
100
AcDbEntity
  8
1
100
AcDbLine
 10
135.067071
 20
-203.154023
 30
0.0
 11
135.067071
 21
-165.334494
 31
0.0
  0
LINE
  5
106
100
AcDbEntity
  8
1
100
AcDbLine
 10
135.067071
 20
-133.992732
 30
0.0
 11
135.067071
 21
-109.37352
 31
0.0
  0
LINE
  5
107
100
AcDbEntity
  8
1
100
AcDbLine
 10
164.406817
 20
-137.098868
 30
0.0
 11
176.406817
 21
-137.098868
 31
0.0
  0
LINE
  5
108
100
AcDbEntity
  8
1
100
AcDbLine
 10
164.406817
 20
-127.958409
 30
0.0
 11
176.406817
 21
-127.958409
 31
0.0
  0
ARC
  5
109
100
AcDbEntity
  8
1
100
AcDbCircle
 10
166.588017
 20
-134.204059
 30
0.0
 40
3.624575
100
AcDbArc
 50
180.0
 51
221.121083
  0
ARC
  5
10A
100
AcDbEntity
  8
1
100
AcDbCircle
 10
177.197947
 20
-134.204059
 30
0.0
 40
14.234506
100
AcDbArc
 50
155.656712
 51
180.0
  0
LINE
  5
10B
100
AcDbEntity
  8
1
100
AcDbLine
 10
126.406817
 20
-137.098868
 30
0.0
 11
114.406817
 21
-137.098868
 31
0.0
  0
LINE
  5
10C
100
AcDbEntity
  8
1
100
AcDbLine
 10
126.406817
 20
-127.958409
 30
0.0
 11
114.406817
 21
-127.958409
 31
0.0
  0
ARC
  5
10D
100
AcDbEntity
  8
1
100
AcDbCircle
 10
124.225617
 20
-134.204059
 30
0.0
 40
3.624575
100
AcDbArc
 50
318.878917
 51
360.0
  0
ARC
  5
10E
100
AcDbEntity
  8
1
100
AcDbCircle
 10
113.615687
 20
-134.204059
 30
0.0
 40
14.234506
100
AcDbArc
 50
0.0
 51
24.343288
  0
LINE
  5
10F
100
AcDbEntity
  8
1
100
AcDbLine
 10
114.406817
 20
-85.573377
 30
0.0
 11
115.406817
 21
-85.573377
 31
0.0
  0
LINE
  5
110
100
AcDbEntity
  8
1
100
AcDbLine
 10
175.406817
 20
-85.573377
 30
0.0
 11
176.406817
 21
-85.573377
 31
0.0
  0
LINE
  5
111
100
AcDbEntity
  8
1
100
AcDbLine
 10
175.406817
 20
-93.163916
 30
0.0
 11
176.406817
 21
-93.163916
 31
0.0
  0
LINE
  5
112
100
AcDbEntity
  8
1
100
AcDbLine
 10
126.406817
 20
-93.163916
 30
0.0
 11
114.406817
 21
-93.163916
 31
0.0
  0
ARC
  5
113
100
AcDbEntity
  8
1
100
AcDbCircle
 10
127.509451
 20
-93.44006
 30
0.0
 40
0.340742
100
AcDbArc
 50
270.0
 51
360.0
  0
ARC
  5
114
100
AcDbEntity
  8
1
100
AcDbCircle
 10
127.509451
 20
-92.486924
 30
0.0
 40
1.293878
100
AcDbArc
 50
211.548964
 51
270.0
  0
ARC
  5
115
100
AcDbEntity
  8
1
100
AcDbCircle
 10
121.692157
 20
-93.44006
 30
0.0
 40
6.158035
100
AcDbArc
 50
0.0
 51
18.749153
  0
LINE
  5
116
100
AcDbEntity
  8
1
100
AcDbLine
 10
-443.327414
 20
324.469326
 30
0.0
 11
-443.327414
 21
328.469326
 31
0.0
  0
LINE
  5
117
100
AcDbEntity
  8
1
100
AcDbLine
 10
-496.627372
 20
288.469326
 30
0.0
 11
-496.627372
 21
320.469326
 31
0.0
  0
LINE
  5
118
100
AcDbEntity
  8
1
100
AcDbLine
 10
-500.572868
 20
288.469326
 30
0.0
 11
-500.572868
 21
320.469326
 31
0.0
  0
LINE
  5
119
100
AcDbEntity
  8
1
100
AcDbLine
 10
-443.155842
 20
323.469326
 30
0.0
 11
-483.507623
 21
323.469326
 31
0.0
  0
LINE
  5
11A
100
AcDbEntity
  8
1
100
AcDbLine
 10
-503.572868
 20
323.469326
 30
0.0
 11
-528.309869
 21
323.469326
 31
0.0
  0
LINE
  5
11B
100
AcDbEntity
  8
1
100
AcDbLine
 10
-475.900407
 20
299.12958
 30
0.0
 11
-475.900407
 21
309.809072
 31
0.0
  0
ARC
  5
11C
100
AcDbEntity
  8
1
100
AcDbCircle
 10
-470.900407
 20
309.809072
 30
0.0
 40
5.0
100
AcDbArc
 50
90.0
 51
180.0
  0
ARC
  5
11D
100
AcDbEntity
  8
1
100
AcDbCircle
 10
-470.900407
 20
299.12958
 30
0.0
 40
5.0
100
AcDbArc
 50
180.0
 51
270.0
  0
LINE
  5
11E
100
AcDbEntity
  8
1
100
AcDbLine
 10
-500.572868
 20
314.809072
 30
0.0
 11
-517.763017
 21
314.809072
 31
0.0
  0
LINE
  5
11F
100
AcDbEntity
  8
1
100
AcDbLine
 10
-500.572868
 20
294.12958
 30
0.0
 11
-517.763017
 21
294.12958
 31
0.0
  0
ARC
  5
120
100
AcDbEntity
  8
1
100
AcDbCircle
 10
-493.627372
 20
320.469326
 30
0.0
 40
3.0
100
AcDbArc
 50
104.98565
 51
180.0
  0
ARC
  5
121
100
AcDbEntity
  8
1
100
AcDbCircle
 10
-503.572868
 20
288.469326
 30
0.0
 40
3.0
100
AcDbArc
 50
270.0
 51
360.0
  0
ARC
  5
122
100
AcDbEntity
  8
1
100
AcDbCircle
 10
-503.572868
 20
320.469326
 30
0.0
 40
3.0
100
AcDbArc
 50
0.0
 51
90.0
  0
ARC
  5
123
100
AcDbEntity
  8
1
100
AcDbCircle
 10
-493.627372
 20
288.469326
 30
0.0
 40
3.0
100
AcDbArc
 50
180.0
 51
255.01435
  0
LINE
  5
124
100
AcDbEntity
  8
1
100
AcDbLine
 10
-484.374917
 20
323.469326
 30
0.0
 11
-484.374917
 21
335.469326
 31
0.0
  0
LINE
  5
125
100
AcDbEntity
  8
1
100
AcDbLine
 10
-493.515375
 20
323.469326
 30
0.0
 11
-493.515375
 21
335.469326
 31
0.0
  0
ARC
  5
126
100
AcDbEntity
  8
1
100
AcDbCircle
 10
-487.269725
 20
325.650526
 30
0.0
 40
3.624575
100
AcDbArc
 50
270.0
 51
311.979815
  0
ARC
  5
127
100
AcDbEntity
  8
1
100
AcDbCircle
 10
-487.269725
 20
336.260456
 30
0.0
 40
14.234506
100
AcDbArc
 50
245.949554
 51
270.0
  0
ARC
  5
128
100
AcDbEntity
  8
1
100
AcDbCircle
 10
-493.885949
 20
321.435317
 30
0.0
 40
2.0
100
AcDbArc
 50
65.949554
 51
104.98565
  0
ARC
  5
129
100
AcDbEntity
  8
1
100
AcDbCircle
 10
-483.507623
 20
321.469326
 30
0.0
 40
2.0
100
AcDbArc
 50
90.0
 51
131.979815
  0
LINE
  5
12A
100
AcDbEntity
  8
1
100
AcDbLine
 10
-484.374917
 20
285.469326
 30
0.0
 11
-484.374917
 21
273.469326
 31
0.0
  0
LINE
  5
12B
100
AcDbEntity
  8
1
100
AcDbLine
 10
-493.515375
 20
285.469326
 30
0.0
 11
-493.515375
 21
273.469326
 31
0.0
  0
ARC
  5
12C
100
AcDbEntity
  8
1
100
AcDbCircle
 10
-487.269725
 20
283.288126
 30
0.0
 40
3.624575
100
AcDbArc
 50
48.020185
 51
90.0
  0
ARC
  5
12D
100
AcDbEntity
  8
1
100
AcDbCircle
 10
-487.269725
 20
272.678196
 30
0.0
 40
14.234506
100
AcDbArc
 50
90.0
 51
114.050446
  0
ARC
  5
12E
100
AcDbEntity
  8
1
100
AcDbCircle
 10
-493.885949
 20
287.503336
 30
0.0
 40
2.0
100
AcDbArc
 50
255.01435
 51
294.050446
  0
ARC
  5
12F
100
AcDbEntity
  8
1
100
AcDbCircle
 10
-483.507623
 20
287.469326
 30
0.0
 40
2.0
100
AcDbArc
 50
228.020185
 51
270.0
  0
LINE
  5
130
100
AcDbEntity
  8
1
100
AcDbLine
 10
-493.627372
 20
286.722803
 30
0.0
 11
-475.900407
 21
294.12958
 31
0.0
  0
LINE
  5
131
100
AcDbEntity
  8
1
100
AcDbLine
 10
-493.627372
 20
322.21585
 30
0.0
 11
-475.900407
 21
314.809072
 31
0.0
  0
LINE
  5
132
100
AcDbEntity
  8
1
100
AcDbLine
 10
-517.763017
 20
297.627864
 30
0.0
 11
-517.763017
 21
311.310789
 31
0.0
  0
LINE
  5
133
100
AcDbEntity
  8
1
100
AcDbLine
 10
-575.900407
 20
289.469326
 30
0.0
 11
-575.900407
 21
319.469326
 31
0.0
  0
LINE
  5
134
100
AcDbEntity
  8
1
100
AcDbLine
 10
-536.062744
 20
329.469326
 30
0.0
 11
-565.900407
 21
329.469326
 31
0.0
  0
LINE
  5
135
100
AcDbEntity
  8
1
100
AcDbLine
 10
-536.062744
 20
279.469326
 30
0.0
 11
-565.900407
 21
279.469326
 31
0.0
  0
ARC
  5
136
100
AcDbEntity
  8
1
100
AcDbCircle
 10
-565.900407
 20
319.469326
 30
0.0
 40
10.0
100
AcDbArc
 50
90.0
 51
180.0
  0
ARC
  5
137
100
AcDbEntity
  8
1
100
AcDbCircle
 10
-565.900407
 20
289.469326
 30
0.0
 40
10.0
100
AcDbArc
 50
180.0
 51
270.0
  0
LINE
  5
138
100
AcDbEntity
  8
1
100
AcDbLine
 10
-535.900407
 20
273.469326
 30
0.0
 11
-535.900407
 21
276.469326
 31
0.0
  0
LINE
  5
139
100
AcDbEntity
  8
1
100
AcDbLine
 10
-535.900407
 20
332.469326
 30
0.0
 11
-535.900407
 21
335.469326
 31
0.0
  0
ARC
  5
13A
100
AcDbEntity
  8
1
100
AcDbCircle
 10
-538.900407
 20
332.469326
 30
0.0
 40
3.0
100
AcDbArc
 50
270.0
 51
360.0
  0
ARC
  5
13B
100
AcDbEntity
  8
1
100
AcDbCircle
 10
-538.900407
 20
276.469326
 30
0.0
 40
3.0
100
AcDbArc
 50
0.0
 51
90.0
  0
LINE
  5
13C
100
AcDbEntity
  8
1
100
AcDbLine
 10
-533.062744
 20
325.801515
 30
0.0
 11
-533.062744
 21
329.469326
 31
0.0
  0
ARC
  5
13D
100
AcDbEntity
  8
1
100
AcDbCircle
 10
-536.062744
 20
332.469326
 30
0.0
 40
3.0
100
AcDbArc
 50
270.0
 51
360.0
  0
ARC
  5
13E
100
AcDbEntity
  8
1
100
AcDbCircle
 10
-536.062744
 20
276.469326
 30
0.0
 40
3.0
100
AcDbArc
 50
0.0
 51
90.0
  0
ARC
  5
13F
100
AcDbEntity
  8
1
100
AcDbCircle
 10
-523.763017
 20
297.627864
 30
0.0
 40
6.0
100
AcDbArc
 50
299.511587
 51
0.0
  0
ARC
  5
140
100
AcDbEntity
  8
1
100
AcDbCircle
 10
-523.763017
 20
311.310789
 30
0.0
 40
6.0
100
AcDbArc
 50
360.0
 51
60.488413
  0
LINE
  5
141
100
AcDbEntity
  8
1
100
AcDbLine
 10
-520.80742
 20
316.532325
 30
0.0
 11
-531.033142
 21
322.320491
 31
0.0
  0
CIRCLE
  5
142
100
AcDbEntity
  8
1
 62
     2
100
AcDbCircle
 10
-553.900407
 20
304.469326
 30
0.0
 40
10.0
  0
CIRCLE
  5
143
100
AcDbEntity
  8
1
100
AcDbCircle
 10
-553.900407
 20
304.469326
 30
0.0
 40
8.647
  0
ARC
  5
144
100
AcDbEntity
  8
1
100
AcDbCircle
 10
-529.062744
 20
325.801515
 30
0.0
 40
4.0
100
AcDbArc
 50
180.0
 51
240.488413
  0
LINE
  5
145
100
AcDbEntity
  8
1
100
AcDbLine
 10
-503.572868
 20
285.469326
 30
0.0
 11
-528.309869
 21
285.469326
 31
0.0
  0
LINE
  5
146
100
AcDbEntity
  8
1
100
AcDbLine
 10
-533.062744
 20
283.137137
 30
0.0
 11
-533.062744
 21
279.469326
 31
0.0
  0
LINE
  5
147
100
AcDbEntity
  8
1
100
AcDbLine
 10
-520.80742
 20
292.406327
 30
0.0
 11
-531.033142
 21
286.618162
 31
0.0
  0
ARC
  5
148
100
AcDbEntity
  8
1
100
AcDbCircle
 10
-529.062744
 20
283.137137
 30
0.0
 40
4.0
100
AcDbArc
 50
119.511587
 51
180.0
  0
LINE
  5
149
100
AcDbEntity
  8
1
100
AcDbLine
 10
-528.309869
 20
323.469326
 30
0.0
 11
-528.309869
 21
335.469326
 31
0.0
  0
ARC
  5
14A
100
AcDbEntity
  8
1
100
AcDbCircle
 10
-528.033725
 20
322.366692
 30
0.0
 40
0.340742
100
AcDbArc
 50
270.0
 51
0.0
  0
ARC
  5
14B
100
AcDbEntity
  8
1
100
AcDbCircle
 10
-528.986861
 20
322.366692
 30
0.0
 40
1.293878
100
AcDbArc
 50
0.0
 51
58.451036
  0
LINE
  5
14C
100
AcDbEntity
  8
1
100
AcDbLine
 10
-531.995212
 20
323.469326
 30
0.0
 11
-531.995212
 21
335.469326
 31
0.0
  0
ARC
  5
14D
100
AcDbEntity
  8
1
100
AcDbCircle
 10
-528.033725
 20
328.183986
 30
0.0
 40
6.158035
100
AcDbArc
 50
229.961381
 51
270.0
  0
LINE
  5
14E
100
AcDbEntity
  8
1
100
AcDbLine
 10
-528.309869
 20
285.469326
 30
0.0
 11
-528.309869
 21
273.469326
 31
0.0
  0
ARC
  5
14F
100
AcDbEntity
  8
1
100
AcDbCircle
 10
-528.033725
 20
286.57196
 30
0.0
 40
0.340742
100
AcDbArc
 50
360.0
 51
90.0
  0
ARC
  5
150
100
AcDbEntity
  8
1
100
AcDbCircle
 10
-528.986861
 20
286.57196
 30
0.0
 40
1.293878
100
AcDbArc
 50
301.548964
 51
360.0
  0
LINE
  5
151
100
AcDbEntity
  8
1
100
AcDbLine
 10
-531.995212
 20
285.469326
 30
0.0
 11
-531.995212
 21
273.469326
 31
0.0
  0
ARC
  5
152
100
AcDbEntity
  8
1
100
AcDbCircle
 10
-528.033725
 20
280.754667
 30
0.0
 40
6.158035
100
AcDbArc
 50
90.0
 51
130.038619
  0
LINE
  5
153
100
AcDbEntity
  8
1
100
AcDbLine
 10
164.406817
 20
-127.51215
 30
0.0
 11
164.406817
 21
-103.041094
 31
0.0
  0
LINE
  5
154
100
AcDbEntity
  8
1
100
AcDbLine
 10
126.406817
 20
-127.51215
 30
0.0
 11
126.406817
 21
-93.163916
 31
0.0
  0
ARC
  5
155
100
AcDbEntity
  8
1
100
AcDbCircle
 10
128.406817
 20
-127.51215
 30
0.0
 40
2.0
100
AcDbArc
 50
180.0
 51
204.343288
  0
ARC
  5
156
100
AcDbEntity
  8
1
100
AcDbCircle
 10
162.406817
 20
-127.51215
 30
0.0
 40
2.0
100
AcDbArc
 50
335.656712
 51
360.0
  0
ARC
  5
157
100
AcDbEntity
  8
1
100
AcDbCircle
 10
161.406817
 20
-137.573377
 30
0.0
 40
3.0
100
AcDbArc
 50
270.0
 51
340.749553
  0
ARC
  5
158
100
AcDbEntity
  8
1
100
AcDbCircle
 10
129.406817
 20
-137.573377
 30
0.0
 40
3.0
100
AcDbArc
 50
199.250447
 51
270.0
  0
ARC
  5
159
100
AcDbEntity
  8
1
100
AcDbCircle
 10
162.350903
 20
-137.903075
 30
0.0
 40
2.0
100
AcDbArc
 50
340.749553
 51
41.121083
  0
ARC
  5
15A
100
AcDbEntity
  8
1
100
AcDbCircle
 10
128.462731
 20
-137.903075
 30
0.0
 40
2.0
100
AcDbArc
 50
138.878917
 51
199.250447
  0
ARC
  5
15B
100
AcDbEntity
  8
1
100
AcDbCircle
 10
160.406817
 20
-150.573377
 30
0.0
 40
4.0
100
AcDbArc
 50
0.0
 51
90.0
  0
ARC
  5
15C
100
AcDbEntity
  8
1
100
AcDbCircle
 10
130.406817
 20
-150.573377
 30
0.0
 40
4.0
100
AcDbArc
 50
90.0
 51
180.0
  0
ARC
  5
15D
100
AcDbEntity
  8
1
100
AcDbCircle
 10
-248.227947
 20
320.469326
 30
0.0
 40
3.0
100
AcDbArc
 50
90.0
 51
180.0
  0
ARC
  5
15E
100
AcDbEntity
  8
1
100
AcDbCircle
 10
-248.227947
 20
288.469326
 30
0.0
 40
3.0
100
AcDbArc
 50
180.0
 51
270.0
  0
LINE
  5
15F
100
AcDbEntity
  8
1
100
AcDbLine
 10
123.406817
 20
-215.573377
 30
0.0
 11
167.406817
 21
-215.573377
 31
0.0
  0
ARC
  5
160
100
AcDbEntity
  8
1
100
AcDbCircle
 10
167.406817
 20
-218.573377
 30
0.0
 40
3.0
100
AcDbArc
 50
0.0
 51
90.0
  0
ARC
  5
161
100
AcDbEntity
  8
1
100
AcDbCircle
 10
123.406817
 20
-218.573377
 30
0.0
 40
3.0
100
AcDbArc
 50
90.0
 51
180.0
  0
ARC
  5
162
100
AcDbEntity
  8
1
100
AcDbCircle
 10
159.406817
 20
-210.573377
 30
0.0
 40
5.0
100
AcDbArc
 50
270.0
 51
353.833694
  0
LINE
  5
163
100
AcDbEntity
  8
1
100
AcDbLine
 10
140.067071
 20
-208.154023
 30
0.0
 11
150.746563
 21
-208.154023
 31
0.0
  0
LINE
  5
164
100
AcDbEntity
  8
1
100
AcDbLine
 10
139.067071
 20
-161.334494
 30
0.0
 11
151.746563
 21
-161.334494
 31
0.0
  0
ARC
  5
165
100
AcDbEntity
  8
1
100
AcDbCircle
 10
140.067071
 20
-203.154023
 30
0.0
 40
5.0
100
AcDbArc
 50
180.0
 51
270.0
  0
ARC
  5
166
100
AcDbEntity
  8
1
100
AcDbCircle
 10
150.746563
 20
-203.154023
 30
0.0
 40
5.0
100
AcDbArc
 50
270.0
 51
360.0
  0
LINE
  5
167
100
AcDbEntity
  8
1
100
AcDbLine
 10
155.746563
 20
-208.154023
 30
0.0
 11
161.339673
 21
-212.945714
 31
0.0
  0
LINE
  5
168
100
AcDbEntity
  8
1
100
AcDbLine
 10
135.067071
 20
-208.154023
 30
0.0
 11
129.473961
 21
-212.945714
 31
0.0
  0
LINE
  5
169
100
AcDbEntity
  8
1
100
AcDbLine
 10
162.060042
 20
-150.573377
 30
0.0
 11
155.746563
 21
-161.334494
 31
0.0
  0
LINE
  5
16A
100
AcDbEntity
  8
1
100
AcDbLine
 10
128.753592
 20
-150.573377
 30
0.0
 11
135.067071
 21
-161.334494
 31
0.0
  0
LINE
  5
16B
100
AcDbEntity
  8
1
100
AcDbLine
 10
129.406817
 20
-140.573377
 30
0.0
 11
161.406817
 21
-140.573377
 31
0.0
  0
LINE
  5
16C
100
AcDbEntity
  8
1
100
AcDbLine
 10
130.406817
 20
-146.573377
 30
0.0
 11
160.406817
 21
-146.573377
 31
0.0
  0
LINE
  5
16D
100
AcDbEntity
  8
1
100
AcDbLine
 10
139.067071
 20
-137.992732
 30
0.0
 11
151.746563
 21
-137.992732
 31
0.0
  0
ARC
  5
16E
100
AcDbEntity
  8
1
100
AcDbCircle
 10
151.746563
 20
-165.334494
 30
0.0
 40
4.0
100
AcDbArc
 50
0.0
 51
90.0
  0
ARC
  5
16F
100
AcDbEntity
  8
1
100
AcDbCircle
 10
139.067071
 20
-165.334494
 30
0.0
 40
4.0
100
AcDbArc
 50
90.0
 51
180.0
  0
ARC
  5
170
100
AcDbEntity
  8
1
100
AcDbCircle
 10
139.067071
 20
-133.992732
 30
0.0
 40
4.0
100
AcDbArc
 50
180.0
 51
270.0
  0
ARC
  5
171
100
AcDbEntity
  8
1
100
AcDbCircle
 10
151.746563
 20
-133.992732
 30
0.0
 40
4.0
100
AcDbArc
 50
270.0
 51
360.0
  0
LINE
  5
172
100
AcDbEntity
  8
1
100
AcDbLine
 10
155.746563
 20
-137.992732
 30
0.0
 11
161.406817
 21
-139.679416
 31
0.0
  0
LINE
  5
173
100
AcDbEntity
  8
1
100
AcDbLine
 10
135.067071
 20
-137.992732
 30
0.0
 11
129.406817
 21
-139.679416
 31
0.0
  0
LINE
  5
174
100
AcDbEntity
  8
1
100
AcDbLine
 10
126.406817
 20
-197.544235
 30
0.0
 11
126.406817
 21
-150.573377
 31
0.0
  0
ARC
  5
175
100
AcDbEntity
  8
1
100
AcDbCircle
 10
131.406817
 20
-210.573377
 30
0.0
 40
5.0
100
AcDbArc
 50
186.166306
 51
270.0
  0
LINE
  5
176
100
AcDbEntity
  8
1
100
AcDbLine
 10
118.406817
 20
-35.558659
 30
0.0
 11
118.406817
 21
-86.478572
 31
0.0
  0
LINE
  5
177
100
AcDbEntity
  8
1
100
AcDbLine
 10
172.406817
 20
-35.558659
 30
0.0
 11
172.406817
 21
-97.758569
 31
0.0
  0
ARC
  5
178
100
AcDbEntity
  8
1
100
AcDbCircle
 10
175.406817
 20
-82.573377
 30
0.0
 40
3.0
100
AcDbArc
 50
180.0
 51
270.0
  0
ARC
  5
179
100
AcDbEntity
  8
1
100
AcDbCircle
 10
115.406817
 20
-82.573377
 30
0.0
 40
3.0
100
AcDbArc
 50
270.0
 51
360.0
  0
ARC
  5
17A
100
AcDbEntity
  8
1
100
AcDbCircle
 10
175.406817
 20
-86.478572
 30
0.0
 40
3.0
100
AcDbArc
 50
180.0
 51
270.0
  0
ARC
  5
17B
100
AcDbEntity
  8
1
100
AcDbCircle
 10
115.406817
 20
-86.478572
 30
0.0
 40
3.0
100
AcDbArc
 50
270.0
 51
360.0
  0
LINE
  5
17C
100
AcDbEntity
  8
1
100
AcDbLine
 10
97.406817
 20
0.426623
 30
0.0
 11
193.406817
 21
0.426623
 31
0.0
  0
LINE
  5
17D
100
AcDbEntity
  8
1
100
AcDbLine
 10
94.406817
 20
3.426623
 30
0.0
 11
94.406817
 21
14.426623
 31
0.0
  0
LINE
  5
17E
100
AcDbEntity
  8
1
100
AcDbLine
 10
196.406817
 20
3.426623
 30
0.0
 11
196.406817
 21
14.426623
 31
0.0
  0
ARC
  5
17F
100
AcDbEntity
  8
1
100
AcDbCircle
 10
193.406817
 20
3.426623
 30
0.0
 40
3.0
100
AcDbArc
 50
270.0
 51
360.0
  0
ARC
  5
180
100
AcDbEntity
  8
1
100
AcDbCircle
 10
97.406817
 20
3.426623
 30
0.0
 40
3.0
100
AcDbArc
 50
180.0
 51
270.0
  0
LINE
  5
181
100
AcDbEntity
  8
1
100
AcDbLine
 10
108.406817
 20
-20.588096
 30
0.0
 11
108.406817
 21
-4.573377
 31
0.0
  0
LINE
  5
182
100
AcDbEntity
  8
1
100
AcDbLine
 10
182.406817
 20
-20.588096
 30
0.0
 11
182.406817
 21
-4.573377
 31
0.0
  0
ARC
  5
183
100
AcDbEntity
  8
1
100
AcDbCircle
 10
187.406817
 20
-4.573377
 30
0.0
 40
5.0
100
AcDbArc
 50
90.0
 51
180.0
  0
ARC
  5
184
100
AcDbEntity
  8
1
100
AcDbCircle
 10
103.406817
 20
-4.573377
 30
0.0
 40
5.0
100
AcDbArc
 50
0.0
 51
90.0
  0
LINE
  5
185
100
AcDbEntity
  8
1
100
AcDbLine
 10
118.406817
 20
-33.073377
 30
0.0
 11
172.406817
 21
-33.073377
 31
0.0
  0
ARC
  5
186
100
AcDbEntity
  8
1
100
AcDbCircle
 10
196.406817
 20
-13.306578
 30
0.0
 40
14.0
100
AcDbArc
 50
100.164249
 51
180.0
  0
ARC
  5
187
100
AcDbEntity
  8
1
100
AcDbCircle
 10
94.406817
 20
-13.306578
 30
0.0
 40
14.0
100
AcDbArc
 50
0.0
 51
79.835751
  0
LINE
  5
188
100
AcDbEntity
  8
1
100
AcDbLine
 10
150.406817
 20
-13.306578
 30
0.0
 11
140.406817
 21
-13.306578
 31
0.0
  0
LINE
  5
189
100
AcDbEntity
  8
1
100
AcDbLine
 10
140.406817
 20
-10.306578
 30
0.0
 11
140.406817
 21
-2.573377
 31
0.0
  0
LINE
  5
18A
100
AcDbEntity
  8
1
100
AcDbLine
 10
150.406817
 20
-10.306578
 30
0.0
 11
150.406817
 21
-2.573377
 31
0.0
  0
ARC
  5
18B
100
AcDbEntity
  8
1
100
AcDbCircle
 10
153.406817
 20
-2.573377
 30
0.0
 40
3.0
100
AcDbArc
 50
90.0
 51
180.0
  0
ARC
  5
18C
100
AcDbEntity
  8
1
100
AcDbCircle
 10
137.406817
 20
-2.573377
 30
0.0
 40
3.0
100
AcDbArc
 50
0.0
 51
90.0
  0
ARC
  5
18D
100
AcDbEntity
  8
1
100
AcDbCircle
 10
137.406817
 20
-10.306578
 30
0.0
 40
3.0
100
AcDbArc
 50
270.0
 51
360.0
  0
ARC
  5
18E
100
AcDbEntity
  8
1
100
AcDbCircle
 10
153.406817
 20
-10.306578
 30
0.0
 40
3.0
100
AcDbArc
 50
180.0
 51
270.0
  0
LINE
  5
18F
100
AcDbEntity
  8
1
100
AcDbLine
 10
130.080915
 20
-4.573377
 30
0.0
 11
130.080915
 21
-20.164709
 31
0.0
  0
LINE
  5
190
100
AcDbEntity
  8
1
100
AcDbLine
 10
160.732719
 20
-4.573377
 30
0.0
 11
160.732719
 21
-20.312624
 31
0.0
  0
ARC
  5
191
100
AcDbEntity
  8
1
100
AcDbCircle
 10
165.732719
 20
-4.573377
 30
0.0
 40
5.0
100
AcDbArc
 50
90.0
 51
180.0
  0
ARC
  5
192
100
AcDbEntity
  8
1
100
AcDbCircle
 10
125.080915
 20
-4.573377
 30
0.0
 40
5.0
100
AcDbArc
 50
0.0
 51
90.0
  0
LINE
  5
193
100
AcDbEntity
  8
1
100
AcDbLine
 10
162.829404
 20
-23.073377
 30
0.0
 11
180.649458
 21
-23.073377
 31
0.0
  0
LINE
  5
194
100
AcDbEntity
  8
1
100
AcDbLine
 10
130.080915
 20
-23.073377
 30
0.0
 11
160.732719
 21
-23.073377
 31
0.0
  0
LINE
  5
195
100
AcDbEntity
  8
1
100
AcDbLine
 10
180.649458
 20
-24.830737
 30
0.0
 11
174.164176
 21
-31.316018
 31
0.0
  0
LINE
  5
196
100
AcDbEntity
  8
1
100
AcDbLine
 10
110.164176
 20
-24.830737
 30
0.0
 11
116.649458
 21
-31.316018
 31
0.0
  0
ARC
  5
197
100
AcDbEntity
  8
1
100
AcDbCircle
 10
176.406817
 20
-20.588096
 30
0.0
 40
6.0
100
AcDbArc
 50
315.0
 51
0.0
  0
ARC
  5
198
100
AcDbEntity
  8
1
100
AcDbCircle
 10
114.406817
 20
-20.588096
 30
0.0
 40
6.0
100
AcDbArc
 50
180.0
 51
225.0
  0
ARC
  5
199
100
AcDbEntity
  8
1
100
AcDbCircle
 10
112.406817
 20
-35.558659
 30
0.0
 40
6.0
100
AcDbArc
 50
0.0
 51
45.0
  0
ARC
  5
19A
100
AcDbEntity
  8
1
100
AcDbCircle
 10
178.406817
 20
-35.558659
 30
0.0
 40
6.0
100
AcDbArc
 50
135.0
 51
180.0
  0
LINE
  5
19B
100
AcDbEntity
  8
1
100
AcDbLine
 10
162.829404
 20
-24.869392
 30
0.0
 11
170.310132
 21
-31.277363
 31
0.0
  0
ARC
  5
19C
100
AcDbEntity
  8
1
100
AcDbCircle
 10
166.732719
 20
-20.312624
 30
0.0
 40
6.0
100
AcDbArc
 50
180.0
 51
229.416732
  0
LINE
  5
19D
100
AcDbEntity
  8
1
100
AcDbLine
 10
127.98423
 20
-23.073377
 30
0.0
 11
110.164176
 21
-23.073377
 31
0.0
  0
ARC
  5
19E
100
AcDbEntity
  8
1
100
AcDbCircle
 10
124.080915
 20
-20.312624
 30
0.0
 40
6.0
100
AcDbArc
 50
310.583268
 51
360.0
  0
LINE
  5
19F
100
AcDbEntity
  8
1
100
AcDbLine
 10
127.98423
 20
-24.869392
 30
0.0
 11
120.503502
 21
-31.277363
 31
0.0
  0
LINE
  5
1A0
100
AcDbEntity
  8
1
100
AcDbLine
 10
139.067071
 20
-105.37352
 30
0.0
 11
151.746563
 21
-105.37352
 31
0.0
  0
LINE
  5
1A1
100
AcDbEntity
  8
1
100
AcDbLine
 10
175.406817
 20
-89.478572
 30
0.0
 11
176.406817
 21
-89.478572
 31
0.0
  0
LINE
  5
1A2
100
AcDbEntity
  8
1
100
AcDbLine
 10
114.406817
 20
-89.478572
 30
0.0
 11
115.406817
 21
-89.478572
 31
0.0
  0
LINE
  5
1A3
100
AcDbEntity
  8
1
100
AcDbLine
 10
118.406817
 20
-89.478572
 30
0.0
 11
159.406817
 21
-89.478572
 31
0.0
  0
ARC
  5
1A4
100
AcDbEntity
  8
1
100
AcDbCircle
 10
151.746563
 20
-109.37352
 30
0.0
 40
4.0
100
AcDbArc
 50
0.0
 51
90.0
  0
ARC
  5
1A5
100
AcDbEntity
  8
1
100
AcDbCircle
 10
139.067071
 20
-109.37352
 30
0.0
 40
4.0
100
AcDbArc
 50
90.0
 51
180.0
  0
ARC
  5
1A6
100
AcDbEntity
  8
1
100
AcDbCircle
 10
128.943818
 20
-90.978572
 30
0.0
 40
1.5
100
AcDbArc
 50
90.0
 51
198.749153
  0
LINE
  5
1A7
100
AcDbEntity
  8
1
100
AcDbLine
 10
128.065535
 20
-92.297358
 30
0.0
 11
135.067071
 21
-105.37352
 31
0.0
  0
LINE
  5
1A8
100
AcDbEntity
  8
1
100
AcDbLine
 10
164.406817
 20
-197.953082
 30
0.0
 11
176.406817
 21
-197.953082
 31
0.0
  0
LINE
  5
1A9
100
AcDbEntity
  8
1
100
AcDbLine
 10
164.406817
 20
-210.43918
 30
0.0
 11
176.406817
 21
-210.43918
 31
0.0
  0
ARC
  5
1AA
100
AcDbEntity
  8
1
100
AcDbCircle
 10
179.969452
 20
-204.809378
 30
0.0
 40
17.006011
100
AcDbArc
 50
157.526568
 51
180.0
  0
ARC
  5
1AB
100
AcDbEntity
  8
1
100
AcDbCircle
 10
174.664487
 20
-204.809378
 30
0.0
 40
11.701046
100
AcDbArc
 50
180.0
 51
206.373283
  0
ARC
  5
1AC
100
AcDbEntity
  8
1
100
AcDbCircle
 10
162.406817
 20
-197.544235
 30
0.0
 40
2.0
100
AcDbArc
 50
337.526568
 51
360.0
  0
ARC
  5
1AD
100
AcDbEntity
  8
1
100
AcDbCircle
 10
162.38946
 20
-210.895622
 30
0.0
 40
2.0
100
AcDbArc
 50
353.833694
 51
26.373283
  0
LINE
  5
1AE
100
AcDbEntity
  8
1
100
AcDbLine
 10
126.406817
 20
-197.953082
 30
0.0
 11
114.406817
 21
-197.953082
 31
0.0
  0
LINE
  5
1AF
100
AcDbEntity
  8
1
100
AcDbLine
 10
126.406817
 20
-210.43918
 30
0.0
 11
114.406817
 21
-210.43918
 31
0.0
  0
ARC
  5
1B0
100
AcDbEntity
  8
1
100
AcDbCircle
 10
110.844182
 20
-204.809378
 30
0.0
 40
17.006011
100
AcDbArc
 50
0.0
 51
22.473432
  0
ARC
  5
1B1
100
AcDbEntity
  8
1
100
AcDbCircle
 10
116.149147
 20
-204.809378
 30
0.0
 40
11.701046
100
AcDbArc
 50
333.626717
 51
360.0
  0
ARC
  5
1B2
100
AcDbEntity
  8
1
100
AcDbCircle
 10
128.406817
 20
-197.544235
 30
0.0
 40
2.0
100
AcDbArc
 50
180.0
 51
202.473432
  0
ARC
  5
1B3
100
AcDbEntity
  8
1
100
AcDbCircle
 10
128.424174
 20
-210.895622
 30
0.0
 40
2.0
100
AcDbArc
 50
153.626717
 51
186.166306
  0
LINE
  5
1B4
100
AcDbEntity
  8
1
100
AcDbLine
 10
164.406817
 20
-293.602519
 30
0.0
 11
164.406817
 21
-340.573377
 31
0.0
  0
LINE
  5
1B5
100
AcDbEntity
  8
1
100
AcDbLine
 10
155.746563
 20
-287.992732
 30
0.0
 11
155.746563
 21
-325.81226
 31
0.0
  0
LINE
  5
1B6
100
AcDbEntity
  8
1
100
AcDbLine
 10
155.746563
 20
-357.154023
 30
0.0
 11
155.746563
 21
-381.773235
 31
0.0
  0
LINE
  5
1B7
100
AcDbEntity
  8
1
100
AcDbLine
 10
135.067071
 20
-287.992732
 30
0.0
 11
135.067071
 21
-325.81226
 31
0.0
  0
LINE
  5
1B8
100
AcDbEntity
  8
1
100
AcDbLine
 10
135.067071
 20
-357.154023
 30
0.0
 11
135.067071
 21
-381.773235
 31
0.0
  0
LINE
  5
1B9
100
AcDbEntity
  8
1
100
AcDbLine
 10
164.406817
 20
-354.047887
 30
0.0
 11
176.406817
 21
-354.047887
 31
0.0
  0
LINE
  5
1BA
100
AcDbEntity
  8
1
100
AcDbLine
 10
164.406817
 20
-363.188345
 30
0.0
 11
176.406817
 21
-363.188345
 31
0.0
  0
ARC
  5
1BB
100
AcDbEntity
  8
1
100
AcDbCircle
 10
166.588017
 20
-356.942695
 30
0.0
 40
3.624575
100
AcDbArc
 50
138.878917
 51
180.0
  0
ARC
  5
1BC
100
AcDbEntity
  8
1
100
AcDbCircle
 10
177.197947
 20
-356.942695
 30
0.0
 40
14.234506
100
AcDbArc
 50
180.0
 51
204.343288
  0
LINE
  5
1BD
100
AcDbEntity
  8
1
100
AcDbLine
 10
126.406817
 20
-354.047887
 30
0.0
 11
114.406817
 21
-354.047887
 31
0.0
  0
LINE
  5
1BE
100
AcDbEntity
  8
1
100
AcDbLine
 10
126.406817
 20
-363.188345
 30
0.0
 11
114.406817
 21
-363.188345
 31
0.0
  0
ARC
  5
1BF
100
AcDbEntity
  8
1
100
AcDbCircle
 10
124.225617
 20
-356.942695
 30
0.0
 40
3.624575
100
AcDbArc
 50
0.0
 51
41.121083
  0
ARC
  5
1C0
100
AcDbEntity
  8
1
100
AcDbCircle
 10
113.615687
 20
-356.942695
 30
0.0
 40
14.234506
100
AcDbArc
 50
335.656712
 51
360.0
  0
LINE
  5
1C1
100
AcDbEntity
  8
1
100
AcDbLine
 10
114.406817
 20
-405.573377
 30
0.0
 11
115.406817
 21
-405.573377
 31
0.0
  0
LINE
  5
1C2
100
AcDbEntity
  8
1
100
AcDbLine
 10
175.406817
 20
-405.573377
 30
0.0
 11
176.406817
 21
-405.573377
 31
0.0
  0
LINE
  5
1C3
100
AcDbEntity
  8
1
100
AcDbLine
 10
164.406817
 20
-397.982839
 30
0.0
 11
176.406817
 21
-397.982839
 31
0.0
  0
ARC
  5
1C4
100
AcDbEntity
  8
1
100
AcDbCircle
 10
163.304183
 20
-397.706695
 30
0.0
 40
0.340742
100
AcDbArc
 50
90.0
 51
180.0
  0
ARC
  5
1C5
100
AcDbEntity
  8
1
100
AcDbCircle
 10
163.304183
 20
-398.659831
 30
0.0
 40
1.293878
100
AcDbArc
 50
31.548964
 51
90.0
  0
ARC
  5
1C6
100
AcDbEntity
  8
1
100
AcDbCircle
 10
169.121477
 20
-397.706695
 30
0.0
 40
6.158035
100
AcDbArc
 50
180.0
 51
198.749153
  0
LINE
  5
1C7
100
AcDbEntity
  8
1
100
AcDbLine
 10
126.406817
 20
-397.982839
 30
0.0
 11
114.406817
 21
-397.982839
 31
0.0
  0
ARC
  5
1C8
100
AcDbEntity
  8
1
100
AcDbCircle
 10
127.509451
 20
-397.706695
 30
0.0
 40
0.340742
100
AcDbArc
 50
0.0
 51
90.0
  0
ARC
  5
1C9
100
AcDbEntity
  8
1
100
AcDbCircle
 10
127.509451
 20
-398.659831
 30
0.0
 40
1.293878
100
AcDbArc
 50
90.0
 51
148.451036
  0
ARC
  5
1CA
100
AcDbEntity
  8
1
100
AcDbCircle
 10
121.692157
 20
-397.706695
 30
0.0
 40
6.158035
100
AcDbArc
 50
341.250847
 51
360.0
  0
LINE
  5
1CB
100
AcDbEntity
  8
1
100
AcDbLine
 10
164.406817
 20
-363.634605
 30
0.0
 11
164.406817
 21
-397.982839
 31
0.0
  0
LINE
  5
1CC
100
AcDbEntity
  8
1
100
AcDbLine
 10
126.406817
 20
-363.634605
 30
0.0
 11
126.406817
 21
-397.982839
 31
0.0
  0
ARC
  5
1CD
100
AcDbEntity
  8
1
100
AcDbCircle
 10
128.406817
 20
-363.634605
 30
0.0
 40
2.0
100
AcDbArc
 50
155.656712
 51
180.0
  0
ARC
  5
1CE
100
AcDbEntity
  8
1
100
AcDbCircle
 10
162.406817
 20
-363.634605
 30
0.0
 40
2.0
100
AcDbArc
 50
0.0
 51
24.343288
  0
ARC
  5
1CF
100
AcDbEntity
  8
1
100
AcDbCircle
 10
161.406817
 20
-353.573377
 30
0.0
 40
3.0
100
AcDbArc
 50
19.250447
 51
90.0
  0
ARC
  5
1D0
100
AcDbEntity
  8
1
100
AcDbCircle
 10
129.406817
 20
-353.573377
 30
0.0
 40
3.0
100
AcDbArc
 50
90.0
 51
160.749553
  0
ARC
  5
1D1
100
AcDbEntity
  8
1
100
AcDbCircle
 10
162.350903
 20
-353.243679
 30
0.0
 40
2.0
100
AcDbArc
 50
318.878917
 51
19.250447
  0
ARC
  5
1D2
100
AcDbEntity
  8
1
100
AcDbCircle
 10
128.462731
 20
-353.243679
 30
0.0
 40
2.0
100
AcDbArc
 50
160.749553
 51
221.121083
  0
ARC
  5
1D3
100
AcDbEntity
  8
1
100
AcDbCircle
 10
160.406817
 20
-340.573377
 30
0.0
 40
4.0
100
AcDbArc
 50
270.0
 51
360.0
  0
ARC
  5
1D4
100
AcDbEntity
  8
1
100
AcDbCircle
 10
130.406817
 20
-340.573377
 30
0.0
 40
4.0
100
AcDbArc
 50
180.0
 51
270.0
  0
LINE
  5
1D5
100
AcDbEntity
  8
1
100
AcDbLine
 10
123.406817
 20
-275.573377
 30
0.0
 11
167.406817
 21
-275.573377
 31
0.0
  0
LINE
  5
1D6
100
AcDbEntity
  8
1
100
AcDbLine
 10
120.406817
 20
-272.573377
 30
0.0
 11
120.406817
 21
-218.573377
 31
0.0
  0
LINE
  5
1D7
100
AcDbEntity
  8
1
100
AcDbLine
 10
170.406817
 20
-272.573377
 30
0.0
 11
170.406817
 21
-218.573377
 31
0.0
  0
ARC
  5
1D8
100
AcDbEntity
  8
1
100
AcDbCircle
 10
167.406817
 20
-272.573377
 30
0.0
 40
3.0
100
AcDbArc
 50
270.0
 51
360.0
  0
ARC
  5
1D9
100
AcDbEntity
  8
1
100
AcDbCircle
 10
123.406817
 20
-272.573377
 30
0.0
 40
3.0
100
AcDbArc
 50
180.0
 51
270.0
  0
ARC
  5
1DA
100
AcDbEntity
  8
1
100
AcDbCircle
 10
159.406817
 20
-280.573377
 30
0.0
 40
5.0
100
AcDbArc
 50
6.166306
 51
90.0
  0
LINE
  5
1DB
100
AcDbEntity
  8
1
100
AcDbLine
 10
140.067071
 20
-282.992732
 30
0.0
 11
150.746563
 21
-282.992732
 31
0.0
  0
LINE
  5
1DC
100
AcDbEntity
  8
1
100
AcDbLine
 10
139.067071
 20
-329.81226
 30
0.0
 11
151.746563
 21
-329.81226
 31
0.0
  0
ARC
  5
1DD
100
AcDbEntity
  8
1
100
AcDbCircle
 10
140.067071
 20
-287.992732
 30
0.0
 40
5.0
100
AcDbArc
 50
90.0
 51
180.0
  0
ARC
  5
1DE
100
AcDbEntity
  8
1
100
AcDbCircle
 10
150.746563
 20
-287.992732
 30
0.0
 40
5.0
100
AcDbArc
 50
0.0
 51
90.0
  0
LINE
  5
1DF
100
AcDbEntity
  8
1
100
AcDbLine
 10
155.746563
 20
-282.992732
 30
0.0
 11
161.339673
 21
-278.201041
 31
0.0
  0
LINE
  5
1E0
100
AcDbEntity
  8
1
100
AcDbLine
 10
135.067071
 20
-282.992732
 30
0.0
 11
129.473961
 21
-278.201041
 31
0.0
  0
LINE
  5
1E1
100
AcDbEntity
  8
1
100
AcDbLine
 10
162.060042
 20
-340.573377
 30
0.0
 11
155.746563
 21
-329.81226
 31
0.0
  0
LINE
  5
1E2
100
AcDbEntity
  8
1
100
AcDbLine
 10
128.753592
 20
-340.573377
 30
0.0
 11
135.067071
 21
-329.81226
 31
0.0
  0
LINE
  5
1E3
100
AcDbEntity
  8
1
100
AcDbLine
 10
129.406817
 20
-350.573377
 30
0.0
 11
161.406817
 21
-350.573377
 31
0.0
  0
LINE
  5
1E4
100
AcDbEntity
  8
1
100
AcDbLine
 10
130.406817
 20
-344.573377
 30
0.0
 11
160.406817
 21
-344.573377
 31
0.0
  0
LINE
  5
1E5
100
AcDbEntity
  8
1
100
AcDbLine
 10
139.067071
 20
-353.154023
 30
0.0
 11
151.746563
 21
-353.154023
 31
0.0
  0
ARC
  5
1E6
100
AcDbEntity
  8
1
100
AcDbCircle
 10
151.746563
 20
-325.81226
 30
0.0
 40
4.0
100
AcDbArc
 50
270.0
 51
360.0
  0
ARC
  5
1E7
100
AcDbEntity
  8
1
100
AcDbCircle
 10
139.067071
 20
-325.81226
 30
0.0
 40
4.0
100
AcDbArc
 50
180.0
 51
270.0
  0
ARC
  5
1E8
100
AcDbEntity
  8
1
100
AcDbCircle
 10
139.067071
 20
-357.154023
 30
0.0
 40
4.0
100
AcDbArc
 50
90.0
 51
180.0
  0
ARC
  5
1E9
100
AcDbEntity
  8
1
100
AcDbCircle
 10
151.746563
 20
-357.154023
 30
0.0
 40
4.0
100
AcDbArc
 50
0.0
 51
90.0
  0
LINE
  5
1EA
100
AcDbEntity
  8
1
100
AcDbLine
 10
155.746563
 20
-353.154023
 30
0.0
 11
161.406817
 21
-351.467339
 31
0.0
  0
LINE
  5
1EB
100
AcDbEntity
  8
1
100
AcDbLine
 10
135.067071
 20
-353.154023
 30
0.0
 11
129.406817
 21
-351.467339
 31
0.0
  0
LINE
  5
1EC
100
AcDbEntity
  8
1
100
AcDbLine
 10
126.406817
 20
-293.602519
 30
0.0
 11
126.406817
 21
-340.573377
 31
0.0
  0
ARC
  5
1ED
100
AcDbEntity
  8
1
100
AcDbCircle
 10
131.406817
 20
-280.573377
 30
0.0
 40
5.0
100
AcDbArc
 50
90.0
 51
173.833694
  0
LINE
  5
1EE
100
AcDbEntity
  8
1
100
AcDbLine
 10
118.406817
 20
-455.588096
 30
0.0
 11
118.406817
 21
-404.668183
 31
0.0
  0
LINE
  5
1EF
100
AcDbEntity
  8
1
100
AcDbLine
 10
172.406817
 20
-455.588096
 30
0.0
 11
172.406817
 21
-404.668183
 31
0.0
  0
ARC
  5
1F0
100
AcDbEntity
  8
1
100
AcDbCircle
 10
175.406817
 20
-408.573377
 30
0.0
 40
3.0
100
AcDbArc
 50
90.0
 51
180.0
  0
ARC
  5
1F1
100
AcDbEntity
  8
1
100
AcDbCircle
 10
115.406817
 20
-408.573377
 30
0.0
 40
3.0
100
AcDbArc
 50
0.0
 51
90.0
  0
ARC
  5
1F2
100
AcDbEntity
  8
1
100
AcDbCircle
 10
175.406817
 20
-404.668183
 30
0.0
 40
3.0
100
AcDbArc
 50
90.0
 51
180.0
  0
ARC
  5
1F3
100
AcDbEntity
  8
1
100
AcDbCircle
 10
115.406817
 20
-404.668183
 30
0.0
 40
3.0
100
AcDbArc
 50
0.0
 51
90.0
  0
LINE
  5
1F4
100
AcDbEntity
  8
1
100
AcDbLine
 10
139.067071
 20
-385.773235
 30
0.0
 11
151.746563
 21
-385.773235
 31
0.0
  0
LINE
  5
1F5
100
AcDbEntity
  8
1
100
AcDbLine
 10
162.748099
 20
-398.849397
 30
0.0
 11
155.746563
 21
-385.773235
 31
0.0
  0
LINE
  5
1F6
100
AcDbEntity
  8
1
100
AcDbLine
 10
175.406817
 20
-401.668183
 30
0.0
 11
176.406817
 21
-401.668183
 31
0.0
  0
LINE
  5
1F7
100
AcDbEntity
  8
1
100
AcDbLine
 10
114.406817
 20
-401.668183
 30
0.0
 11
115.406817
 21
-401.668183
 31
0.0
  0
LINE
  5
1F8
100
AcDbEntity
  8
1
100
AcDbLine
 10
118.406817
 20
-401.668183
 30
0.0
 11
172.406817
 21
-401.668183
 31
0.0
  0
ARC
  5
1F9
100
AcDbEntity
  8
1
100
AcDbCircle
 10
151.746563
 20
-381.773235
 30
0.0
 40
4.0
100
AcDbArc
 50
270.0
 51
360.0
  0
ARC
  5
1FA
100
AcDbEntity
  8
1
100
AcDbCircle
 10
139.067071
 20
-381.773235
 30
0.0
 40
4.0
100
AcDbArc
 50
180.0
 51
270.0
  0
ARC
  5
1FB
100
AcDbEntity
  8
1
100
AcDbCircle
 10
161.869816
 20
-400.168183
 30
0.0
 40
1.5
100
AcDbArc
 50
270.0
 51
18.749153
  0
ARC
  5
1FC
100
AcDbEntity
  8
1
100
AcDbCircle
 10
128.943818
 20
-400.168183
 30
0.0
 40
1.5
100
AcDbArc
 50
161.250847
 51
270.0
  0
LINE
  5
1FD
100
AcDbEntity
  8
1
100
AcDbLine
 10
128.065535
 20
-398.849397
 30
0.0
 11
135.067071
 21
-385.773235
 31
0.0
  0
LINE
  5
1FE
100
AcDbEntity
  8
1
100
AcDbLine
 10
164.406817
 20
-293.193673
 30
0.0
 11
176.406817
 21
-293.193673
 31
0.0
  0
LINE
  5
1FF
100
AcDbEntity
  8
1
100
AcDbLine
 10
164.406817
 20
-280.707574
 30
0.0
 11
176.406817
 21
-280.707574
 31
0.0
  0
ARC
  5
200
100
AcDbEntity
  8
1
100
AcDbCircle
 10
179.969452
 20
-286.337377
 30
0.0
 40
17.006011
100
AcDbArc
 50
180.0
 51
202.473432
  0
ARC
  5
201
100
AcDbEntity
  8
1
100
AcDbCircle
 10
174.664487
 20
-286.337377
 30
0.0
 40
11.701046
100
AcDbArc
 50
153.626717
 51
180.0
  0
ARC
  5
202
100
AcDbEntity
  8
1
100
AcDbCircle
 10
162.406817
 20
-293.602519
 30
0.0
 40
2.0
100
AcDbArc
 50
0.0
 51
22.473432
  0
ARC
  5
203
100
AcDbEntity
  8
1
100
AcDbCircle
 10
162.38946
 20
-280.251133
 30
0.0
 40
2.0
100
AcDbArc
 50
333.626717
 51
6.166306
  0
LINE
  5
204
100
AcDbEntity
  8
1
100
AcDbLine
 10
126.406817
 20
-293.193673
 30
0.0
 11
114.406817
 21
-293.193673
 31
0.0
  0
LINE
  5
205
100
AcDbEntity
  8
1
100
AcDbLine
 10
126.406817
 20
-280.707574
 30
0.0
 11
114.406817
 21
-280.707574
 31
0.0
  0
ARC
  5
206
100
AcDbEntity
  8
1
100
AcDbCircle
 10
110.844182
 20
-286.337377
 30
0.0
 40
17.006011
100
AcDbArc
 50
337.526568
 51
360.0
  0
ARC
  5
207
100
AcDbEntity
  8
1
100
AcDbCircle
 10
116.149147
 20
-286.337377
 30
0.0
 40
11.701046
100
AcDbArc
 50
0.0
 51
26.373283
  0
ARC
  5
208
100
AcDbEntity
  8
1
100
AcDbCircle
 10
128.406817
 20
-293.602519
 30
0.0
 40
2.0
100
AcDbArc
 50
157.526568
 51
180.0
  0
ARC
  5
209
100
AcDbEntity
  8
1
100
AcDbCircle
 10
128.424174
 20
-280.251133
 30
0.0
 40
2.0
100
AcDbArc
 50
173.833694
 51
206.373283
  0
LINE
  5
20A
100
AcDbEntity
  8
1
100
AcDbLine
 10
176.406817
 20
-245.573377
 30
0.0
 11
114.406817
 21
-245.573377
 31
0.0
  0
LINE
  5
20B
100
AcDbEntity
  8
1
100
AcDbLine
 10
104.906817
 20
-505.573377
 30
0.0
 11
185.906817
 21
-505.573377
 31
0.0
  0
LINE
  5
20C
100
AcDbEntity
  8
1
100
AcDbLine
 10
108.406817
 20
-470.558659
 30
0.0
 11
108.406817
 21
-482.830737
 31
0.0
  0
LINE
  5
20D
100
AcDbEntity
  8
1
100
AcDbLine
 10
182.406817
 20
-470.558659
 30
0.0
 11
182.406817
 21
-482.830737
 31
0.0
  0
LINE
  5
20E
100
AcDbEntity
  8
1
100
AcDbLine
 10
118.406817
 20
-458.073377
 30
0.0
 11
172.406817
 21
-458.073377
 31
0.0
  0
LINE
  5
20F
100
AcDbEntity
  8
1
100
AcDbLine
 10
180.649458
 20
-468.073377
 30
0.0
 11
110.164176
 21
-468.073377
 31
0.0
  0
LINE
  5
210
100
AcDbEntity
  8
1
100
AcDbLine
 10
105.785497
 20
-487.573377
 30
0.0
 11
185.028137
 21
-487.573377
 31
0.0
  0
LINE
  5
211
100
AcDbEntity
  8
1
100
AcDbLine
 10
108.406817
 20
-484.073377
 30
0.0
 11
182.406817
 21
-484.073377
 31
0.0
  0
LINE
  5
212
100
AcDbEntity
  8
1
100
AcDbLine
 10
104.906817
 20
-505.573377
 30
0.0
 11
104.906817
 21
-488.816018
 31
0.0
  0
LINE
  5
213
100
AcDbEntity
  8
1
100
AcDbLine
 10
185.906817
 20
-505.573377
 30
0.0
 11
185.906817
 21
-488.816018
 31
0.0
  0
LINE
  5
214
100
AcDbEntity
  8
1
100
AcDbLine
 10
183.285497
 20
-484.952057
 30
0.0
 11
185.028137
 21
-486.694698
 31
0.0
  0
LINE
  5
215
100
AcDbEntity
  8
1
100
AcDbLine
 10
107.528137
 20
-484.952057
 30
0.0
 11
105.785497
 21
-486.694698
 31
0.0
  0
ARC
  5
216
100
AcDbEntity
  8
1
100
AcDbCircle
 10
182.906817
 20
-488.816018
 30
0.0
 40
3.0
100
AcDbArc
 50
0.0
 51
45.0
  0
ARC
  5
217
100
AcDbEntity
  8
1
100
AcDbCircle
 10
185.406817
 20
-482.830737
 30
0.0
 40
3.0
100
AcDbArc
 50
180.0
 51
225.0
  0
ARC
  5
218
100
AcDbEntity
  8
1
100
AcDbCircle
 10
105.406817
 20
-482.830737
 30
0.0
 40
3.0
100
AcDbArc
 50
315.0
 51
360.0
  0
ARC
  5
219
100
AcDbEntity
  8
1
100
AcDbCircle
 10
107.906817
 20
-488.816018
 30
0.0
 40
3.0
100
AcDbArc
 50
135.0
 51
180.0
  0
LINE
  5
21A
100
AcDbEntity
  8
1
100
AcDbLine
 10
174.164176
 20
-459.830737
 30
0.0
 11
180.649458
 21
-466.316018
 31
0.0
  0
LINE
  5
21B
100
AcDbEntity
  8
1
100
AcDbLine
 10
116.649458
 20
-459.830737
 30
0.0
 11
110.164176
 21
-466.316018
 31
0.0
  0
ARC
  5
21C
100
AcDbEntity
  8
1
100
AcDbCircle
 10
112.406817
 20
-455.588096
 30
0.0
 40
6.0
100
AcDbArc
 50
315.0
 51
360.0
  0
ARC
  5
21D
100
AcDbEntity
  8
1
100
AcDbCircle
 10
178.406817
 20
-455.588096
 30
0.0
 40
6.0
100
AcDbArc
 50
180.0
 51
225.0
  0
ARC
  5
21E
100
AcDbEntity
  8
1
100
AcDbCircle
 10
176.406817
 20
-470.558659
 30
0.0
 40
6.0
100
AcDbArc
 50
0.0
 51
45.0
  0
ARC
  5
21F
100
AcDbEntity
  8
1
100
AcDbCircle
 10
114.406817
 20
-470.558659
 30
0.0
 40
6.0
100
AcDbArc
 50
135.0
 51
180.0
  0
LINE
  5
220
100
AcDbEntity
  8
1
100
AcDbLine
 10
165.406817
 20
-48.573377
 30
0.0
 11
169.406817
 21
-48.573377
 31
0.0
  0
ARC
  5
221
100
AcDbEntity
  8
1
100
AcDbCircle
 10
-311.4734
 20
328.469326
 30
0.0
 40
3.0
100
AcDbArc
 50
0.0
 51
90.0
  0
ARC
  5
222
100
AcDbEntity
  8
1
100
AcDbCircle
 10
-311.4734
 20
324.469326
 30
0.0
 40
3.0
100
AcDbArc
 50
270.0
 51
0.0
  0
ARC
  5
223
100
AcDbEntity
  8
1
100
AcDbCircle
 10
-440.327414
 20
324.469326
 30
0.0
 40
3.0
100
AcDbArc
 50
180.0
 51
270.0
  0
ARC
  5
224
100
AcDbEntity
  8
1
100
AcDbCircle
 10
-440.327414
 20
328.469326
 30
0.0
 40
3.0
100
AcDbArc
 50
90.0
 51
180.0
  0
ARC
  5
225
100
AcDbEntity
  8
1
100
AcDbCircle
 10
169.406817
 20
-51.573377
 30
0.0
 40
3.0
100
AcDbArc
 50
0.0
 51
90.0
  0
ARC
  5
226
100
AcDbEntity
  8
1
100
AcDbCircle
 10
165.406817
 20
-51.573377
 30
0.0
 40
3.0
100
AcDbArc
 50
90.0
 51
180.0
  0
LINE
  5
227
100
AcDbEntity
  8
1
100
AcDbLine
 10
162.406817
 20
-36.573377
 30
0.0
 11
172.406817
 21
-36.573377
 31
0.0
  0
ARC
  5
228
100
AcDbEntity
  8
1
100
AcDbCircle
 10
159.406817
 20
-39.573377
 30
0.0
 40
3.0
100
AcDbArc
 50
360.0
 51
90.0
  0
LINE
  5
229
100
AcDbEntity
  8
1
100
AcDbLine
 10
162.406817
 20
-39.573377
 30
0.0
 11
162.406817
 21
-102.502956
 31
0.0
  0
LINE
  5
22A
100
AcDbEntity
  8
1
100
AcDbLine
 10
172.406817
 20
-100.758569
 30
0.0
 11
166.689342
 21
-100.758569
 31
0.0
  0
ARC
  5
22B
100
AcDbEntity
  8
1
100
AcDbCircle
 10
175.406817
 20
-97.758569
 30
0.0
 40
3.0
100
AcDbArc
 50
180.0
 51
270.0
  0
ARC
  5
22C
100
AcDbEntity
  8
1
100
AcDbCircle
 10
175.406817
 20
-90.163916
 30
0.0
 40
3.0
100
AcDbArc
 50
180.0
 51
270.0
  0
LINE
  5
22D
100
AcDbEntity
  8
1
100
AcDbLine
 10
162.406817
 20
-104.143196
 30
0.0
 11
163.245633
 21
-102.723657
 31
0.0
  0
LINE
  5
22E
100
AcDbEntity
  8
1
100
AcDbLine
 10
164.406817
 20
-73.749758
 30
0.0
 11
170.406817
 21
-73.749758
 31
0.0
  0
ARC
  5
22F
100
AcDbEntity
  8
1
100
AcDbCircle
 10
166.689342
 20
-104.758569
 30
0.0
 40
4.0
100
AcDbArc
 50
90.0
 51
149.420862
  0
ARC
  5
230
100
AcDbEntity
  8
1
100
AcDbCircle
 10
156.406817
 20
-102.502956
 30
0.0
 40
6.0
100
AcDbArc
 50
329.420862
 51
360.0
  0
ARC
  5
231
100
AcDbEntity
  8
1
100
AcDbCircle
 10
159.406817
 20
-86.478572
 30
0.0
 40
3.0
100
AcDbArc
 50
270.0
 51
360.0
  0
LINE
  5
232
100
AcDbEntity
  8
1
100
AcDbLine
 10
161.225698
 20
-92.297358
 30
0.0
 11
155.746563
 21
-105.37352
 31
0.0
  0
ARC
  5
233
100
AcDbEntity
  8
1
100
AcDbCircle
 10
-304.525098
 20
-95.108196
 30
0.0
 40
10.0
100
AcDbArc
 50
165.0
 51
196.749915
  0
ARC
  5
234
100
AcDbEntity
  8
1
100
AcDbCircle
 10
-447.275716
 20
-95.108196
 30
0.0
 40
10.0
100
AcDbArc
 50
343.250085
 51
15.0
  0
CIRCLE
  5
235
100
AcDbEntity
  8
1
100
AcDbCircle
 10
-375.900407
 20
-245.573377
 30
0.0
 40
155.0
  0
CIRCLE
  5
236
100
AcDbEntity
  8
1
100
AcDbCircle
 10
-375.900407
 20
-245.573377
 30
0.0
 40
129.753204
  0
LINE
  5
237
100
AcDbEntity
  8
1
100
AcDbLine
 10
-350.514986
 20
-124.455076
 30
0.0
 11
-401.285829
 21
-124.455076
 31
0.0
  0
LINE
  5
238
100
AcDbEntity
  8
1
100
AcDbLine
 10
-350.514986
 20
-366.691679
 30
0.0
 11
-401.285829
 21
-366.691679
 31
0.0
  0
ARC
  5
239
100
AcDbEntity
  8
1
100
AcDbCircle
 10
-375.900407
 20
-157.452441
 30
0.0
 40
41.632268
100
AcDbArc
 50
52.428318
 51
127.571682
  0
ARC
  5
23A
100
AcDbEntity
  8
1
100
AcDbCircle
 10
-375.900407
 20
-333.694314
 30
0.0
 40
41.632268
100
AcDbArc
 50
232.428318
 51
307.571682
  0
ARC
  5
23B
100
AcDbEntity
  8
1
100
AcDbCircle
 10
-375.900407
 20
-245.573377
 30
0.0
 40
123.75
100
AcDbArc
 50
101.837385
 51
258.162615
  0
ARC
  5
23C
100
AcDbEntity
  8
1
100
AcDbCircle
 10
-375.900407
 20
-245.573377
 30
0.0
 40
123.75
100
AcDbArc
 50
281.837385
 51
78.162615
  0
LINE
  5
23D
100
AcDbEntity
  8
1
100
AcDbLine
 10
-220.900407
 20
270.469326
 30
0.0
 11
-220.900407
 21
273.469326
 31
0.0
  0
LINE
  5
23E
100
AcDbEntity
  8
1
100
AcDbLine
 10
-220.900407
 20
335.469326
 30
0.0
 11
-220.900407
 21
338.469326
 31
0.0
  0
LINE
  5
23F
100
AcDbEntity
  8
1
100
AcDbLine
 10
-530.900407
 20
335.469326
 30
0.0
 11
-530.900407
 21
338.469326
 31
0.0
  0
LINE
  5
240
100
AcDbEntity
  8
1
100
AcDbLine
 10
-530.900407
 20
270.469326
 30
0.0
 11
-530.900407
 21
273.469326
 31
0.0
  0
LINE
  5
241
100
AcDbEntity
  8
1
100
AcDbLine
 10
179.406817
 20
-90.573377
 30
0.0
 11
179.406817
 21
-400.573377
 31
0.0
  0
LINE
  5
242
100
AcDbEntity
  8
1
100
AcDbLine
 10
111.406817
 20
-90.573377
 30
0.0
 11
111.406817
 21
-400.573377
 31
0.0
  0
LINE
  5
243
100
AcDbEntity
  8
1
100
AcDbLine
 10
111.406817
 20
-90.573377
 30
0.0
 11
114.406817
 21
-90.573377
 31
0.0
  0
LINE
  5
244
100
AcDbEntity
  8
1
100
AcDbLine
 10
176.406817
 20
-90.573377
 30
0.0
 11
179.406817
 21
-90.573377
 31
0.0
  0
LINE
  5
245
100
AcDbEntity
  8
1
100
AcDbLine
 10
111.406817
 20
-400.573377
 30
0.0
 11
114.406817
 21
-400.573377
 31
0.0
  0
LINE
  5
246
100
AcDbEntity
  8
1
100
AcDbLine
 10
176.406817
 20
-400.573377
 30
0.0
 11
179.406817
 21
-400.573377
 31
0.0
  0
LINE
  5
247
100
AcDbEntity
  8
1
  6
CENTER
 62
     2
100
AcDbLine
 10
-603.109483
 20
304.469326
 30
0.0
 11
-153.952989
 21
304.469326
 31
0.0
  0
LINE
  5
248
100
AcDbEntity
  8
1
  6
CENTER
 62
     2
100
AcDbLine
 10
145.406817
 20
-527.835378
 30
0.0
 11
145.406817
 21
129.050969
 31
0.0
  0
LINE
  5
249
100
AcDbEntity
  8
1
  6
CENTER
 62
     2
100
AcDbLine
 10
-375.900407
 20
-527.835378
 30
0.0
 11
-375.900407
 21
129.050969
 31
0.0
  0
LINE
  5
24A
100
AcDbEntity
  8
1
  6
CENTER
 62
     2
100
AcDbLine
 10
-603.109483
 20
-245.573377
 30
0.0
 11
-153.952989
 21
-245.573377
 31
0.0
  0
LINE
  5
24B
100
AcDbEntity
  8
1
  6
CENTER
 62
     2
100
AcDbLine
 10
77.078425
 20
-245.573377
 30
0.0
 11
203.764666
 21
-245.573377
 31
0.0
  0
LINE
  5
24C
100
AcDbEntity
  8
1
  6
CENTER
 62
     2
100
AcDbLine
 10
-348.676796
 20
331.692937
 30
0.0
 11
-330.999127
 21
349.370607
 31
0.0
  0
ARC
  5
24D
100
AcDbEntity
  8
1
  6
CENTER
 62
     2
100
AcDbCircle
 10
-375.900407
 20
304.469326
 30
0.0
 40
51.0
100
AcDbArc
 50
30.921527
 51
59.078473
  0
LINE
  5
24E
100
AcDbEntity
  8
1
  6
CENTER
 62
     2
100
AcDbLine
 10
-403.124018
 20
331.692937
 30
0.0
 11
-420.801688
 21
349.370607
 31
0.0
  0
ARC
  5
24F
100
AcDbEntity
  8
1
  6
CENTER
 62
     2
100
AcDbCircle
 10
-375.900407
 20
304.469326
 30
0.0
 40
51.0
100
AcDbArc
 50
120.921527
 51
149.078473
  0
ARC
  5
250
100
AcDbEntity
  8
1
  6
CENTER
 62
     2
100
AcDbCircle
 10
-375.900407
 20
304.469326
 30
0.0
 40
51.0
100
AcDbArc
 50
300.921527
 51
329.078473
  0
LINE
  5
251
100
AcDbEntity
  8
1
  6
CENTER
 62
     2
100
AcDbLine
 10
-348.676796
 20
277.245715
 30
0.0
 11
-330.999127
 21
259.568046
 31
0.0
  0
LINE
  5
252
100
AcDbEntity
  8
1
  6
CENTER
 62
     2
100
AcDbLine
 10
-403.124018
 20
277.245715
 30
0.0
 11
-420.801688
 21
259.568046
 31
0.0
  0
ARC
  5
253
100
AcDbEntity
  8
1
  6
CENTER
 62
     2
100
AcDbCircle
 10
-375.900407
 20
304.469326
 30
0.0
 40
51.0
100
AcDbArc
 50
210.921527
 51
239.078473
  0
LINE
  5
254
100
AcDbEntity
  8
1
  6
CENTER
 62
     2
100
AcDbLine
 10
-197.900407
 20
285.145565
 30
0.0
 11
-197.900407
 21
323.263119
 31
0.0
  0
LINE
  5
255
100
AcDbEntity
  8
1
  6
CENTER
 62
     2
100
AcDbLine
 10
-427.664216
 20
-52.388212
 30
0.0
 11
-416.017359
 21
-95.854874
 31
0.0
  0
ARC
  5
256
100
AcDbEntity
  8
1
  6
CENTER
 62
     2
100
AcDbCircle
 10
-375.900407
 20
-245.573377
 30
0.0
 40
177.5
100
AcDbArc
 50
97.732283
 51
112.267717
  0
LINE
  5
257
100
AcDbEntity
  8
1
  6
CENTER
 62
     2
100
AcDbLine
 10
-324.136598
 20
-52.388212
 30
0.0
 11
-335.783455
 21
-95.854874
 31
0.0
  0
ARC
  5
258
100
AcDbEntity
  8
1
  6
CENTER
 62
     2
100
AcDbCircle
 10
-375.900407
 20
-245.573377
 30
0.0
 40
177.5
100
AcDbArc
 50
67.732283
 51
82.267717
  0
LINE
  5
259
100
AcDbEntity
  8
1
  6
CENTER
 62
     2
100
AcDbLine
 10
-553.900407
 20
285.145565
 30
0.0
 11
-553.900407
 21
323.263119
 31
0.0
  0
LINE
  5
25A
100
AcDbEntity
  8
1
  6
CENTER
 62
     2
100
AcDbLine
 10
-197.900407
 20
-283.529188
 30
0.0
 11
-197.900407
 21
-207.624464
 31
0.0
  0
LINE
  5
25B
100
AcDbEntity
  8
1
  6
CENTER
 62
     2
100
AcDbLine
 10
-553.900407
 20
-283.529188
 30
0.0
 11
-553.900407
 21
-207.624464
 31
0.0
  0
CIRCLE
  5
25C
100
AcDbEntity
  8
1
100
AcDbCircle
 10
-375.900407
 20
-245.573377
 30
0.0
 40
119.25
  0
LINE
  5
25D
100
AcDbEntity
  8
1
100
AcDbLine
 10
-350.093432
 20
-129.149314
 30
0.0
 11
-357.084744
 21
-245.573377
 31
0.0
  0
LINE
  5
25E
100
AcDbEntity
  8
1
100
AcDbLine
 10
-350.093432
 20
-361.997441
 30
0.0
 11
-357.084744
 21
-245.573377
 31
0.0
  0
LINE
  5
25F
100
AcDbEntity
  8
1
100
AcDbLine
 10
-401.707383
 20
-129.149314
 30
0.0
 11
-394.71607
 21
-245.573377
 31
0.0
  0
LINE
  5
260
100
AcDbEntity
  8
1
100
AcDbLine
 10
-401.707383
 20
-361.997441
 30
0.0
 11
-394.71607
 21
-245.573377
 31
0.0
  0
LINE
  5
261
100
AcDbEntity
  8
1
100
AcDbLine
 10
-350.349314
 20
-124.489918
 30
0.0
 11
-350.093432
 21
-129.149314
 31
0.0
  0
LINE
  5
262
100
AcDbEntity
  8
1
100
AcDbLine
 10
-401.4515
 20
-124.489918
 30
0.0
 11
-401.707383
 21
-129.149314
 31
0.0
  0
LINE
  5
263
100
AcDbEntity
  8
1
100
AcDbLine
 10
-350.349314
 20
-366.656837
 30
0.0
 11
-350.093432
 21
-361.997441
 31
0.0
  0
LINE
  5
264
100
AcDbEntity
  8
1
100
AcDbLine
 10
-401.4515
 20
-366.656837
 30
0.0
 11
-401.707383
 21
-361.997441
 31
0.0
  0
ARC
  5
265
100
AcDbEntity
  8
1
100
AcDbCircle
 10
-375.900407
 20
-245.573377
 30
0.0
 40
121.613589
100
AcDbArc
 50
102.186754
 51
257.813246
  0
ARC
  5
266
100
AcDbEntity
  8
1
100
AcDbCircle
 10
-375.900407
 20
-245.573377
 30
0.0
 40
121.613589
100
AcDbArc
 50
282.186754
 51
77.813246
  0
LINE
  5
267
100
AcDbEntity
  8
1
100
AcDbLine
 10
-530.900407
 20
338.469326
 30
0.0
 11
-433.877167
 21
338.469326
 31
0.0
  0
LINE
  5
268
100
AcDbEntity
  8
1
  6
DASHED
100
AcDbLine
 10
-433.877167
 20
338.469326
 30
0.0
 11
-425.856888
 21
338.469326
 31
0.0
  0
LINE
  5
269
100
AcDbEntity
  8
1
100
AcDbLine
 10
-535.900407
 20
335.469326
 30
0.0
 11
-434.406147
 21
335.469326
 31
0.0
  0
LINE
  5
26A
100
AcDbEntity
  8
1
  6
DASHED
100
AcDbLine
 10
-434.406147
 20
335.469326
 30
0.0
 11
-426.564726
 21
335.469326
 31
0.0
  0
LINE
  5
26B
100
AcDbEntity
  8
1
100
AcDbLine
 10
-440.327414
 20
331.469326
 30
0.0
 11
-435.111455
 21
331.469326
 31
0.0
  0
LINE
  5
26C
100
AcDbEntity
  8
1
  6
DASHED
100
AcDbLine
 10
-435.111455
 20
331.469326
 30
0.0
 11
-426.900407
 21
331.469326
 31
0.0
  0
LINE
  5
26D
100
AcDbEntity
  8
1
  6
DASHED
100
AcDbLine
 10
-426.900407
 20
314.809072
 30
0.0
 11
-438.04612
 21
314.809072
 31
0.0
  0
LINE
  5
26E
100
AcDbEntity
  8
1
100
AcDbLine
 10
-438.04612
 20
314.809072
 30
0.0
 11
-470.900407
 21
314.809072
 31
0.0
  0
LINE
  5
26F
100
AcDbEntity
  8
1
  6
DASHED
100
AcDbLine
 10
-426.900407
 20
294.12958
 30
0.0
 11
-438.04612
 21
294.12958
 31
0.0
  0
LINE
  5
270
100
AcDbEntity
  8
1
100
AcDbLine
 10
-438.04612
 20
294.12958
 30
0.0
 11
-470.900407
 21
294.12958
 31
0.0
  0
LINE
  5
271
100
AcDbEntity
  8
1
  6
DASHED
100
AcDbLine
 10
-426.900407
 20
285.469326
 30
0.0
 11
-435.967037
 21
285.469326
 31
0.0
  0
LINE
  5
272
100
AcDbEntity
  8
1
100
AcDbLine
 10
-435.967037
 20
285.469326
 30
0.0
 11
-483.507623
 21
285.469326
 31
0.0
  0
LINE
  5
273
100
AcDbEntity
  8
1
100
AcDbLine
 10
-535.900407
 20
273.469326
 30
0.0
 11
-430.745644
 21
273.469326
 31
0.0
  0
LINE
  5
274
100
AcDbEntity
  8
1
  6
DASHED
100
AcDbLine
 10
-430.745644
 20
273.469326
 30
0.0
 11
-426.564726
 21
273.469326
 31
0.0
  0
LINE
  5
275
100
AcDbEntity
  8
1
100
AcDbLine
 10
-530.900407
 20
270.469326
 30
0.0
 11
-428.93813
 21
270.469326
 31
0.0
  0
LINE
  5
276
100
AcDbEntity
  8
1
  6
DASHED
100
AcDbLine
 10
-428.93813
 20
270.469326
 30
0.0
 11
-425.856888
 21
270.469326
 31
0.0
  0
LINE
  5
277
100
AcDbEntity
  8
1
100
AcDbLine
 10
-440.327414
 20
321.469326
 30
0.0
 11
-436.874725
 21
321.469326
 31
0.0
  0
LINE
  5
278
100
AcDbEntity
  8
1
  6
DASHED
100
AcDbLine
 10
-436.874725
 20
321.469326
 30
0.0
 11
-426.900407
 21
321.469326
 31
0.0
  0
LINE
  5
279
100
AcDbEntity
  8
1
100
AcDbLine
 10
-220.900407
 20
338.469326
 30
0.0
 11
-317.923648
 21
338.469326
 31
0.0
  0
LINE
  5
27A
100
AcDbEntity
  8
1
  6
DASHED
100
AcDbLine
 10
-317.923648
 20
338.469326
 30
0.0
 11
-325.943927
 21
338.469326
 31
0.0
  0
LINE
  5
27B
100
AcDbEntity
  8
1
100
AcDbLine
 10
-215.900407
 20
335.469326
 30
0.0
 11
-317.394667
 21
335.469326
 31
0.0
  0
LINE
  5
27C
100
AcDbEntity
  8
1
  6
DASHED
100
AcDbLine
 10
-317.394667
 20
335.469326
 30
0.0
 11
-325.236088
 21
335.469326
 31
0.0
  0
LINE
  5
27D
100
AcDbEntity
  8
1
100
AcDbLine
 10
-311.4734
 20
331.469326
 30
0.0
 11
-316.689359
 21
331.469326
 31
0.0
  0
LINE
  5
27E
100
AcDbEntity
  8
1
  6
DASHED
100
AcDbLine
 10
-316.689359
 20
331.469326
 30
0.0
 11
-324.900407
 21
331.469326
 31
0.0
  0
LINE
  5
27F
100
AcDbEntity
  8
1
100
AcDbLine
 10
-311.4734
 20
321.469326
 30
0.0
 11
-311.900407
 21
321.469326
 31
0.0
  0
LINE
  5
280
100
AcDbEntity
  8
1
  6
DASHED
100
AcDbLine
 10
-311.900407
 20
321.469326
 30
0.0
 11
-324.900407
 21
321.469326
 31
0.0
  0
LINE
  5
281
100
AcDbEntity
  8
1
  6
DASHED
100
AcDbLine
 10
-324.900407
 20
314.809072
 30
0.0
 11
-311.900407
 21
314.809072
 31
0.0
  0
LINE
  5
282
100
AcDbEntity
  8
1
100
AcDbLine
 10
-311.900407
 20
314.809072
 30
0.0
 11
-280.900407
 21
314.809072
 31
0.0
  0
LINE
  5
283
100
AcDbEntity
  8
1
  6
DASHED
100
AcDbLine
 10
-324.900407
 20
294.12958
 30
0.0
 11
-311.900407
 21
294.12958
 31
0.0
  0
LINE
  5
284
100
AcDbEntity
  8
1
100
AcDbLine
 10
-311.900407
 20
294.12958
 30
0.0
 11
-280.900407
 21
294.12958
 31
0.0
  0
LINE
  5
285
100
AcDbEntity
  8
1
  6
DASHED
100
AcDbLine
 10
-324.900407
 20
285.469326
 30
0.0
 11
-311.900407
 21
285.469326
 31
0.0
  0
LINE
  5
286
100
AcDbEntity
  8
1
100
AcDbLine
 10
-311.900407
 20
285.469326
 30
0.0
 11
-268.293192
 21
285.469326
 31
0.0
  0
LINE
  5
287
100
AcDbEntity
  8
1
100
AcDbLine
 10
-215.900407
 20
273.469326
 30
0.0
 11
-321.055171
 21
273.469326
 31
0.0
  0
LINE
  5
288
100
AcDbEntity
  8
1
  6
DASHED
100
AcDbLine
 10
-321.055171
 20
273.469326
 30
0.0
 11
-325.236088
 21
273.469326
 31
0.0
  0
LINE
  5
289
100
AcDbEntity
  8
1
100
AcDbLine
 10
-220.900407
 20
270.469326
 30
0.0
 11
-322.862685
 21
270.469326
 31
0.0
  0
LINE
  5
28A
100
AcDbEntity
  8
1
  6
DASHED
100
AcDbLine
 10
-322.862685
 20
270.469326
 30
0.0
 11
-325.943927
 21
270.469326
 31
0.0
  0
LINE
  5
28B
100
AcDbEntity
  8
1
100
AcDbLine
 10
-187.900407
 20
329.469326
 30
0.0
 11
-185.900407
 21
329.469326
 31
0.0
  0
LINE
  5
28C
100
AcDbEntity
  8
1
100
AcDbLine
 10
-215.738071
 20
329.469326
 30
0.0
 11
-207.400407
 21
329.469326
 31
0.0
  0
LINE
  5
28D
100
AcDbEntity
  8
1
  6
DASHED
100
AcDbLine
 10
-207.400407
 20
329.469326
 30
0.0
 11
-187.900407
 21
329.469326
 31
0.0
  0
LINE
  5
28E
100
AcDbEntity
  8
1
100
AcDbLine
 10
-188.317402
 20
279.469326
 30
0.0
 11
-185.900407
 21
279.469326
 31
0.0
  0
LINE
  5
28F
100
AcDbEntity
  8
1
100
AcDbLine
 10
-215.738071
 20
279.469326
 30
0.0
 11
-209.483413
 21
279.469326
 31
0.0
  0
LINE
  5
290
100
AcDbEntity
  8
1
  6
DASHED
100
AcDbLine
 10
-209.483413
 20
279.469326
 30
0.0
 11
-188.317402
 21
279.469326
 31
0.0
  0
ARC
  5
291
100
AcDbEntity
  8
2
100
AcDbCircle
 10
-383.186061
 20
374.255088
 30
0.0
 40
2.285695
100
AcDbArc
 50
270.0
 51
360.0
  0
ARC
  5
292
100
AcDbEntity
  8
2
100
AcDbCircle
 10
-385.574612
 20
376.323642
 30
0.0
 40
2.285695
100
AcDbArc
 50
90.0
 51
180.0
  0
ARC
  5
293
100
AcDbEntity
  8
2
100
AcDbCircle
 10
-384.557478
 20
374.232231
 30
0.0
 40
1.142848
100
AcDbArc
 50
180.0
 51
270.0
  0
ARC
  5
294
100
AcDbEntity
  8
2
100
AcDbCircle
 10
-384.203195
 20
376.346499
 30
0.0
 40
1.142848
100
AcDbArc
 50
0.0
 51
90.0
  0
LINE
  5
295
100
AcDbEntity
  8
2
100
AcDbLine
 10
-377.780392
 20
377.489347
 30
0.0
 11
-378.02039
 21
371.969393
 31
0.0
  0
LINE
  5
296
100
AcDbEntity
  8
2
100
AcDbLine
 10
-374.020423
 20
377.489347
 30
0.0
 11
-373.780425
 21
371.969393
 31
0.0
  0
LINE
  5
297
100
AcDbEntity
  8
2
100
AcDbLine
 10
-377.780392
 20
377.489347
 30
0.0
 11
-376.751829
 21
371.969393
 31
0.0
  0
LINE
  5
298
100
AcDbEntity
  8
2
100
AcDbLine
 10
-375.900407
 20
374.632228
 30
0.0
 11
-375.159331
 21
378.609338
 31
0.0
  0
LINE
  5
299
100
AcDbEntity
  8
2
100
AcDbLine
 10
-379.700376
 20
378.609338
 30
0.0
 11
-376.641484
 21
378.609338
 31
0.0
  0
LINE
  5
29A
100
AcDbEntity
  8
2
100
AcDbLine
 10
-376.751829
 20
371.969393
 30
0.0
 11
-375.048986
 21
371.969393
 31
0.0
  0
ARC
  5
29B
100
AcDbEntity
  8
2
100
AcDbCircle
 10
-366.226202
 20
374.255088
 30
0.0
 40
2.285695
100
AcDbArc
 50
270.0
 51
360.0
  0
ARC
  5
29C
100
AcDbEntity
  8
2
100
AcDbCircle
 10
-367.243337
 20
374.232231
 30
0.0
 40
1.142848
100
AcDbArc
 50
270.0
 51
360.0
  0
LINE
  5
29D
100
AcDbEntity
  8
2
100
AcDbLine
 10
-368.740467
 20
376.346499
 30
0.0
 11
-368.740467
 21
374.232231
 31
0.0
  0
ARC
  5
29E
100
AcDbEntity
  8
2
100
AcDbCircle
 10
-368.614754
 20
376.323642
 30
0.0
 40
2.285695
100
AcDbArc
 50
90.0
 51
180.0
  0
LINE
  5
29F
100
AcDbEntity
  8
2
100
AcDbLine
 10
-370.900449
 20
376.323642
 30
0.0
 11
-370.900449
 21
374.255088
 31
0.0
  0
LINE
  5
2A0
100
AcDbEntity
  8
2
100
AcDbLine
 10
-373.780425
 20
371.969393
 30
0.0
 11
-371.620443
 21
371.969393
 31
0.0
  0
LINE
  5
2A1
100
AcDbEntity
  8
2
100
AcDbLine
 10
-362.980515
 20
372.129392
 30
0.0
 11
-357.780558
 21
372.129392
 31
0.0
  0
LINE
  5
2A2
100
AcDbEntity
  8
2
100
AcDbLine
 10
-360.820533
 20
374.68937
 30
0.0
 11
-357.780558
 21
374.68937
 31
0.0
  0
LINE
  5
2A3
100
AcDbEntity
  8
2
100
AcDbLine
 10
-360.820533
 20
375.88936
 30
0.0
 11
-357.780558
 21
375.88936
 31
0.0
  0
LINE
  5
2A4
100
AcDbEntity
  8
2
100
AcDbLine
 10
-360.820533
 20
373.329382
 30
0.0
 11
-360.820533
 21
374.68937
 31
0.0
  0
LINE
  5
2A5
100
AcDbEntity
  8
2
100
AcDbLine
 10
-360.820533
 20
375.88936
 30
0.0
 11
-360.820533
 21
377.249349
 31
0.0
  0
LINE
  5
2A6
100
AcDbEntity
  8
2
100
AcDbLine
 10
-391.460278
 20
377.249349
 30
0.0
 11
-389.300296
 21
377.249349
 31
0.0
  0
LINE
  5
2A7
100
AcDbEntity
  8
2
100
AcDbLine
 10
-394.260254
 20
375.88936
 30
0.0
 11
-385.860324
 21
379.969326
 31
0.0
  0
LINE
  5
2A8
100
AcDbEntity
  8
2
100
AcDbLine
 10
-394.260254
 20
375.88936
 30
0.0
 11
-394.260254
 21
379.969326
 31
0.0
  0
LINE
  5
2A9
100
AcDbEntity
  8
2
100
AcDbLine
 10
-389.300296
 20
377.249349
 30
0.0
 11
-389.300296
 21
371.969393
 31
0.0
  0
LINE
  5
2AA
100
AcDbEntity
  8
2
100
AcDbLine
 10
-387.860308
 20
376.323642
 30
0.0
 11
-387.860308
 21
374.255088
 31
0.0
  0
LINE
  5
2AB
100
AcDbEntity
  8
2
100
AcDbLine
 10
-380.900366
 20
376.323642
 30
0.0
 11
-380.900366
 21
374.255088
 31
0.0
  0
LINE
  5
2AC
100
AcDbEntity
  8
2
100
AcDbLine
 10
-385.700326
 20
376.346499
 30
0.0
 11
-385.700326
 21
374.232231
 31
0.0
  0
LINE
  5
2AD
100
AcDbEntity
  8
2
100
AcDbLine
 10
-383.060348
 20
376.346499
 30
0.0
 11
-383.060348
 21
374.232231
 31
0.0
  0
ARC
  5
2AE
100
AcDbEntity
  8
2
100
AcDbCircle
 10
-385.574612
 20
374.255088
 30
0.0
 40
2.285695
100
AcDbArc
 50
180.0
 51
270.0
  0
ARC
  5
2AF
100
AcDbEntity
  8
2
100
AcDbCircle
 10
-383.186061
 20
376.323642
 30
0.0
 40
2.285695
100
AcDbArc
 50
360.0
 51
90.0
  0
ARC
  5
2B0
100
AcDbEntity
  8
2
100
AcDbCircle
 10
-384.203195
 20
374.232231
 30
0.0
 40
1.142848
100
AcDbArc
 50
270.0
 51
360.0
  0
ARC
  5
2B1
100
AcDbEntity
  8
2
100
AcDbCircle
 10
-384.557478
 20
376.346499
 30
0.0
 40
1.142848
100
AcDbArc
 50
90.0
 51
180.0
  0
LINE
  5
2B2
100
AcDbEntity
  8
2
100
AcDbLine
 10
-391.460278
 20
371.969393
 30
0.0
 11
-389.300296
 21
371.969393
 31
0.0
  0
LINE
  5
2B3
100
AcDbEntity
  8
2
100
AcDbLine
 10
-379.700376
 20
378.609338
 30
0.0
 11
-380.180372
 21
371.969393
 31
0.0
  0
LINE
  5
2B4
100
AcDbEntity
  8
2
100
AcDbLine
 10
-372.100439
 20
378.609338
 30
0.0
 11
-371.620443
 21
371.969393
 31
0.0
  0
LINE
  5
2B5
100
AcDbEntity
  8
2
100
AcDbLine
 10
-374.020423
 20
377.489347
 30
0.0
 11
-375.048986
 21
371.969393
 31
0.0
  0
LINE
  5
2B6
100
AcDbEntity
  8
2
100
AcDbLine
 10
-375.900407
 20
374.632228
 30
0.0
 11
-376.641484
 21
378.609338
 31
0.0
  0
LINE
  5
2B7
100
AcDbEntity
  8
2
100
AcDbLine
 10
-385.574612
 20
378.609338
 30
0.0
 11
-383.186061
 21
378.609338
 31
0.0
  0
LINE
  5
2B8
100
AcDbEntity
  8
2
100
AcDbLine
 10
-385.574612
 20
371.969393
 30
0.0
 11
-383.186061
 21
371.969393
 31
0.0
  0
LINE
  5
2B9
100
AcDbEntity
  8
2
100
AcDbLine
 10
-380.180372
 20
371.969393
 30
0.0
 11
-378.02039
 21
371.969393
 31
0.0
  0
ARC
  5
2BA
100
AcDbEntity
  8
2
100
AcDbCircle
 10
-368.614754
 20
374.255088
 30
0.0
 40
2.285695
100
AcDbArc
 50
180.0
 51
270.0
  0
LINE
  5
2BB
100
AcDbEntity
  8
2
100
AcDbLine
 10
-366.100489
 20
376.346499
 30
0.0
 11
-366.100489
 21
374.232231
 31
0.0
  0
ARC
  5
2BC
100
AcDbEntity
  8
2
100
AcDbCircle
 10
-367.597619
 20
374.232231
 30
0.0
 40
1.142848
100
AcDbArc
 50
180.0
 51
270.0
  0
ARC
  5
2BD
100
AcDbEntity
  8
2
100
AcDbCircle
 10
-367.243337
 20
376.346499
 30
0.0
 40
1.142848
100
AcDbArc
 50
0.0
 51
90.0
  0
ARC
  5
2BE
100
AcDbEntity
  8
2
100
AcDbCircle
 10
-367.597619
 20
376.346499
 30
0.0
 40
1.142848
100
AcDbArc
 50
90.0
 51
180.0
  0
ARC
  5
2BF
100
AcDbEntity
  8
2
100
AcDbCircle
 10
-366.226202
 20
376.323642
 30
0.0
 40
2.285695
100
AcDbArc
 50
360.0
 51
90.0
  0
LINE
  5
2C0
100
AcDbEntity
  8
2
100
AcDbLine
 10
-363.940507
 20
376.323642
 30
0.0
 11
-363.940507
 21
374.255088
 31
0.0
  0
LINE
  5
2C1
100
AcDbEntity
  8
2
100
AcDbLine
 10
-384.203195
 20
377.489347
 30
0.0
 11
-384.557478
 21
377.489347
 31
0.0
  0
LINE
  5
2C2
100
AcDbEntity
  8
2
100
AcDbLine
 10
-384.203195
 20
373.089384
 30
0.0
 11
-384.557478
 21
373.089384
 31
0.0
  0
LINE
  5
2C3
100
AcDbEntity
  8
2
100
AcDbLine
 10
-367.597619
 20
377.489347
 30
0.0
 11
-367.243337
 21
377.489347
 31
0.0
  0
LINE
  5
2C4
100
AcDbEntity
  8
2
100
AcDbLine
 10
-375.159331
 20
378.609338
 30
0.0
 11
-372.100439
 21
378.609338
 31
0.0
  0
LINE
  5
2C5
100
AcDbEntity
  8
2
100
AcDbLine
 10
-368.614754
 20
378.609338
 30
0.0
 11
-366.226202
 21
378.609338
 31
0.0
  0
LINE
  5
2C6
100
AcDbEntity
  8
2
100
AcDbLine
 10
-368.614754
 20
371.969393
 30
0.0
 11
-366.226202
 21
371.969393
 31
0.0
  0
LINE
  5
2C7
100
AcDbEntity
  8
2
100
AcDbLine
 10
-362.980515
 20
378.449339
 30
0.0
 11
-362.980515
 21
372.129392
 31
0.0
  0
LINE
  5
2C8
100
AcDbEntity
  8
2
100
AcDbLine
 10
-362.980515
 20
378.449339
 30
0.0
 11
-357.780558
 21
378.449339
 31
0.0
  0
LINE
  5
2C9
100
AcDbEntity
  8
2
100
AcDbLine
 10
-360.820533
 20
373.329382
 30
0.0
 11
-357.780558
 21
373.329382
 31
0.0
  0
LINE
  5
2CA
100
AcDbEntity
  8
2
100
AcDbLine
 10
-360.820533
 20
377.249349
 30
0.0
 11
-357.780558
 21
377.249349
 31
0.0
  0
LINE
  5
2CB
100
AcDbEntity
  8
2
100
AcDbLine
 10
-357.780558
 20
377.249349
 30
0.0
 11
-357.780558
 21
378.449339
 31
0.0
  0
LINE
  5
2CC
100
AcDbEntity
  8
2
100
AcDbLine
 10
-357.780558
 20
372.129392
 30
0.0
 11
-357.780558
 21
373.329382
 31
0.0
  0
LINE
  5
2CD
100
AcDbEntity
  8
2
100
AcDbLine
 10
-357.780558
 20
374.68937
 30
0.0
 11
-357.780558
 21
375.88936
 31
0.0
  0
LINE
  5
2CE
100
AcDbEntity
  8
2
100
AcDbLine
 10
-391.460278
 20
377.249349
 30
0.0
 11
-391.460278
 21
371.969393
 31
0.0
  0
LINE
  5
2CF
100
AcDbEntity
  8
2
100
AcDbLine
 10
-394.260254
 20
379.969326
 30
0.0
 11
-385.860324
 21
379.969326
 31
0.0
  0
LINE
  5
2D0
100
AcDbEntity
  8
2
100
AcDbLine
 10
-367.597619
 20
373.089384
 30
0.0
 11
-367.243337
 21
373.089384
 31
0.0
  0
LINE
  5
2D1
100
AcDbEntity
  8
2
100
AcDbLine
 10
-414.818388
 20
398.969326
 30
0.0
 11
-336.982427
 21
398.969326
 31
0.0
  0
LINE
  5
2D2
100
AcDbEntity
  8
2
100
AcDbLine
 10
-417.900407
 20
246.969326
 30
0.0
 11
-333.900407
 21
246.969326
 31
0.0
  0
LINE
  5
2D3
100
AcDbEntity
  8
2
100
AcDbLine
 10
-313.857519
 20
315.409161
 30
0.0
 11
-327.134349
 21
390.705808
 31
0.0
  0
LINE
  5
2D4
100
AcDbEntity
  8
2
100
AcDbLine
 10
-437.943296
 20
315.409161
 30
0.0
 11
-424.666465
 21
390.705808
 31
0.0
  0
ARC
  5
2D5
100
AcDbEntity
  8
2
100
AcDbCircle
 10
-375.900407
 20
304.469326
 30
0.0
 40
63.0
100
AcDbArc
 50
170.0
 51
220.541602
  0
ARC
  5
2D6
100
AcDbEntity
  8
2
100
AcDbCircle
 10
-375.900407
 20
304.469326
 30
0.0
 40
63.0
100
AcDbArc
 50
319.458398
 51
10.0
  0
ARC
  5
2D7
100
AcDbEntity
  8
2
100
AcDbCircle
 10
-414.818388
 20
388.969326
 30
0.0
 40
10.0
100
AcDbArc
 50
90.0
 51
170.0
  0
ARC
  5
2D8
100
AcDbEntity
  8
2
100
AcDbCircle
 10
-336.982427
 20
388.969326
 30
0.0
 40
10.0
100
AcDbArc
 50
10.0
 51
90.0
  0
LINE
  5
2D9
100
AcDbEntity
  8
2
100
AcDbLine
 10
-423.900407
 20
263.664915
 30
0.0
 11
-423.900407
 21
252.969326
 31
0.0
  0
LINE
  5
2DA
100
AcDbEntity
  8
2
100
AcDbLine
 10
-327.900407
 20
263.664915
 30
0.0
 11
-327.900407
 21
252.969326
 31
0.0
  0
ARC
  5
2DB
100
AcDbEntity
  8
2
100
AcDbCircle
 10
-333.900407
 20
252.969326
 30
0.0
 40
6.0
100
AcDbArc
 50
270.0
 51
360.0
  0
ARC
  5
2DC
100
AcDbEntity
  8
2
100
AcDbCircle
 10
-417.900407
 20
252.969326
 30
0.0
 40
6.0
100
AcDbArc
 50
180.0
 51
270.0
  0
LINE
  5
2DD
100
AcDbEntity
  8
2
100
AcDbLine
 10
-415.900407
 20
262.469326
 30
0.0
 11
-421.49646
 21
262.469326
 31
0.0
  0
LINE
  5
2DE
100
AcDbEntity
  8
2
100
AcDbLine
 10
-343.400407
 20
254.969326
 30
0.0
 11
-343.400407
 21
249.969326
 31
0.0
  0
LINE
  5
2DF
100
AcDbEntity
  8
2
100
AcDbLine
 10
-408.400407
 20
254.969326
 30
0.0
 11
-408.400407
 21
249.969326
 31
0.0
  0
ARC
  5
2E0
100
AcDbEntity
  8
2
100
AcDbCircle
 10
-335.900407
 20
254.969326
 30
0.0
 40
7.5
100
AcDbArc
 50
90.0
 51
180.0
  0
ARC
  5
2E1
100
AcDbEntity
  8
2
100
AcDbCircle
 10
-415.900407
 20
254.969326
 30
0.0
 40
7.5
100
AcDbArc
 50
0.0
 51
90.0
  0
LINE
  5
2E2
100
AcDbEntity
  8
2
100
AcDbLine
 10
-342.900407
 20
389.969326
 30
0.0
 11
-342.900407
 21
395.969326
 31
0.0
  0
LINE
  5
2E3
100
AcDbEntity
  8
2
100
AcDbLine
 10
-408.900407
 20
389.969326
 30
0.0
 11
-408.900407
 21
395.969326
 31
0.0
  0
LINE
  5
2E4
100
AcDbEntity
  8
2
100
AcDbLine
 10
-335.400407
 20
382.469326
 30
0.0
 11
-328.199334
 21
382.469326
 31
0.0
  0
LINE
  5
2E5
100
AcDbEntity
  8
2
100
AcDbLine
 10
-327.900407
 20
356.469326
 30
0.0
 11
-324.672795
 21
356.469326
 31
0.0
  0
LINE
  5
2E6
100
AcDbEntity
  8
2
100
AcDbLine
 10
-327.900407
 20
341.469326
 30
0.0
 11
-320.969928
 21
341.469326
 31
0.0
  0
LINE
  5
2E7
100
AcDbEntity
  8
2
100
AcDbLine
 10
-423.900407
 20
341.469326
 30
0.0
 11
-430.830887
 21
341.469326
 31
0.0
  0
LINE
  5
2E8
100
AcDbEntity
  8
2
100
AcDbLine
 10
-423.900407
 20
356.469326
 30
0.0
 11
-427.12802
 21
356.469326
 31
0.0
  0
LINE
  5
2E9
100
AcDbEntity
  8
2
100
AcDbLine
 10
-416.400407
 20
382.469326
 30
0.0
 11
-423.60148
 21
382.469326
 31
0.0
  0
ARC
  5
2EA
100
AcDbEntity
  8
2
100
AcDbCircle
 10
-335.400407
 20
389.969326
 30
0.0
 40
7.5
100
AcDbArc
 50
180.0
 51
270.0
  0
ARC
  5
2EB
100
AcDbEntity
  8
2
100
AcDbCircle
 10
-416.400407
 20
389.969326
 30
0.0
 40
7.5
100
AcDbArc
 50
270.0
 51
360.0
  0
ARC
  5
2EC
100
AcDbEntity
  8
2
100
AcDbCircle
 10
-423.900407
 20
348.969326
 30
0.0
 40
7.5
100
AcDbArc
 50
270.0
 51
90.0
  0
ARC
  5
2ED
100
AcDbEntity
  8
2
100
AcDbCircle
 10
-327.900407
 20
348.969326
 30
0.0
 40
7.5
100
AcDbArc
 50
90.0
 51
270.0
  0
LINE
  5
2EE
100
AcDbEntity
  8
2
100
AcDbLine
 10
-335.900407
 20
262.469326
 30
0.0
 11
-330.304355
 21
262.469326
 31
0.0
  0
ARC
  5
2EF
100
AcDbEntity
  8
2
100
AcDbCircle
 10
-328.199334
 20
379.469326
 30
0.0
 40
3.0
100
AcDbArc
 50
10.0
 51
90.0
  0
ARC
  5
2F0
100
AcDbEntity
  8
2
100
AcDbCircle
 10
-345.900407
 20
395.969326
 30
0.0
 40
3.0
100
AcDbArc
 50
0.0
 51
90.0
  0
ARC
  5
2F1
100
AcDbEntity
  8
2
100
AcDbCircle
 10
-405.900407
 20
395.969326
 30
0.0
 40
3.0
100
AcDbArc
 50
90.0
 51
180.0
  0
ARC
  5
2F2
100
AcDbEntity
  8
2
100
AcDbCircle
 10
-423.60148
 20
379.469326
 30
0.0
 40
3.0
100
AcDbArc
 50
90.0
 51
170.0
  0
ARC
  5
2F3
100
AcDbEntity
  8
2
100
AcDbCircle
 10
-427.12802
 20
359.469326
 30
0.0
 40
3.0
100
AcDbArc
 50
170.0
 51
270.0
  0
ARC
  5
2F4
100
AcDbEntity
  8
2
100
AcDbCircle
 10
-430.830887
 20
338.469326
 30
0.0
 40
3.0
100
AcDbArc
 50
90.0
 51
170.0
  0
ARC
  5
2F5
100
AcDbEntity
  8
2
100
AcDbCircle
 10
-320.969928
 20
338.469326
 30
0.0
 40
3.0
100
AcDbArc
 50
10.0
 51
90.0
  0
ARC
  5
2F6
100
AcDbEntity
  8
2
100
AcDbCircle
 10
-324.672795
 20
359.469326
 30
0.0
 40
3.0
100
AcDbArc
 50
270.0
 51
10.0
  0
ARC
  5
2F7
100
AcDbEntity
  8
2
100
AcDbCircle
 10
-346.400407
 20
249.969326
 30
0.0
 40
3.0
100
AcDbArc
 50
270.0
 51
0.0
  0
ARC
  5
2F8
100
AcDbEntity
  8
2
100
AcDbCircle
 10
-405.400407
 20
249.969326
 30
0.0
 40
3.0
100
AcDbArc
 50
180.0
 51
270.0
  0
ARC
  5
2F9
100
AcDbEntity
  8
2
100
AcDbCircle
 10
-330.304355
 20
265.469326
 30
0.0
 40
3.0
100
AcDbArc
 50
270.0
 51
319.458398
  0
ARC
  5
2FA
100
AcDbEntity
  8
2
100
AcDbCircle
 10
-421.49646
 20
265.469326
 30
0.0
 40
3.0
100
AcDbArc
 50
220.541602
 51
270.0
  0
LINE
  5
2FB
100
AcDbEntity
  8
2
100
AcDbLine
 10
-380.400407
 20
349.900593
 30
0.0
 11
-380.400407
 21
341.401697
 31
0.0
  0
LINE
  5
2FC
100
AcDbEntity
  8
2
100
AcDbLine
 10
-371.400407
 20
349.900593
 30
0.0
 11
-371.400407
 21
341.401697
 31
0.0
  0
LINE
  5
2FD
100
AcDbEntity
  8
2
100
AcDbLine
 10
-421.331674
 20
308.969326
 30
0.0
 11
-412.832778
 21
308.969326
 31
0.0
  0
LINE
  5
2FE
100
AcDbEntity
  8
2
100
AcDbLine
 10
-338.968037
 20
308.969326
 30
0.0
 11
-330.469141
 21
308.969326
 31
0.0
  0
LINE
  5
2FF
100
AcDbEntity
  8
2
100
AcDbLine
 10
-421.331674
 20
299.969326
 30
0.0
 11
-412.832778
 21
299.969326
 31
0.0
  0
LINE
  5
300
100
AcDbEntity
  8
2
100
AcDbLine
 10
-338.968037
 20
299.969326
 30
0.0
 11
-330.469141
 21
299.969326
 31
0.0
  0
ARC
  5
301
100
AcDbEntity
  8
2
100
AcDbCircle
 10
-375.900407
 20
304.469326
 30
0.0
 40
47.5
100
AcDbArc
 50
176.850294
 51
183.149706
  0
ARC
  5
302
100
AcDbEntity
  8
2
100
AcDbCircle
 10
-375.900407
 20
304.469326
 30
0.0
 40
47.5
100
AcDbArc
 50
86.850294
 51
93.149706
  0
ARC
  5
303
100
AcDbEntity
  8
2
100
AcDbCircle
 10
-375.900407
 20
304.469326
 30
0.0
 40
47.5
100
AcDbArc
 50
356.850294
 51
3.149706
  0
ARC
  5
304
100
AcDbEntity
  8
2
100
AcDbCircle
 10
-375.900407
 20
304.469326
 30
0.0
 40
47.5
100
AcDbArc
 50
20.651428
 51
24.348572
  0
LINE
  5
305
100
AcDbEntity
  8
2
100
AcDbLine
 10
-342.461985
 20
321.025955
 30
0.0
 11
-333.919075
 21
324.564544
 31
0.0
  0
LINE
  5
306
100
AcDbEntity
  8
2
100
AcDbLine
 10
-340.548568
 20
316.406557
 30
0.0
 11
-332.005658
 21
319.945146
 31
0.0
  0
ARC
  5
307
100
AcDbEntity
  8
2
100
AcDbCircle
 10
-333.536392
 20
323.640664
 30
0.0
 40
1.0
100
AcDbArc
 50
24.348572
 51
112.5
  0
ARC
  5
308
100
AcDbEntity
  8
2
100
AcDbCircle
 10
-332.388342
 20
320.869026
 30
0.0
 40
1.0
100
AcDbArc
 50
292.5
 51
20.651428
  0
ARC
  5
309
100
AcDbEntity
  8
2
100
AcDbCircle
 10
-343.227352
 20
322.873714
 30
0.0
 40
2.0
100
AcDbArc
 50
209.392103
 51
292.5
  0
ARC
  5
30A
100
AcDbEntity
  8
2
100
AcDbCircle
 10
-339.783201
 20
314.558798
 30
0.0
 40
2.0
100
AcDbArc
 50
112.5
 51
195.607897
  0
ARC
  5
30B
100
AcDbEntity
  8
2
100
AcDbCircle
 10
-338.968037
 20
310.969326
 30
0.0
 40
2.0
100
AcDbArc
 50
189.981683
 51
270.0
  0
ARC
  5
30C
100
AcDbEntity
  8
2
100
AcDbCircle
 10
-338.968037
 20
297.969326
 30
0.0
 40
2.0
100
AcDbArc
 50
90.0
 51
170.018317
  0
ARC
  5
30D
100
AcDbEntity
  8
2
100
AcDbCircle
 10
-330.469141
 20
306.969326
 30
0.0
 40
2.0
100
AcDbArc
 50
3.149706
 51
90.0
  0
ARC
  5
30E
100
AcDbEntity
  8
2
100
AcDbCircle
 10
-330.469141
 20
301.969326
 30
0.0
 40
2.0
100
AcDbArc
 50
270.0
 51
356.850294
  0
ARC
  5
30F
100
AcDbEntity
  8
2
100
AcDbCircle
 10
-373.400407
 20
349.900593
 30
0.0
 40
2.0
100
AcDbArc
 50
0.0
 51
86.850294
  0
ARC
  5
310
100
AcDbEntity
  8
2
100
AcDbCircle
 10
-378.400407
 20
349.900593
 30
0.0
 40
2.0
100
AcDbArc
 50
93.149706
 51
180.0
  0
ARC
  5
311
100
AcDbEntity
  8
2
100
AcDbCircle
 10
-421.331674
 20
306.969326
 30
0.0
 40
2.0
100
AcDbArc
 50
90.0
 51
176.850294
  0
ARC
  5
312
100
AcDbEntity
  8
2
100
AcDbCircle
 10
-421.331674
 20
301.969326
 30
0.0
 40
2.0
100
AcDbArc
 50
183.149706
 51
270.0
  0
ARC
  5
313
100
AcDbEntity
  8
2
100
AcDbCircle
 10
-412.832778
 20
297.969326
 30
0.0
 40
2.0
100
AcDbArc
 50
9.981683
 51
90.0
  0
ARC
  5
314
100
AcDbEntity
  8
2
100
AcDbCircle
 10
-412.832778
 20
310.969326
 30
0.0
 40
2.0
100
AcDbArc
 50
270.0
 51
350.018317
  0
ARC
  5
315
100
AcDbEntity
  8
2
100
AcDbCircle
 10
-375.900407
 20
304.469326
 30
0.0
 40
47.5
100
AcDbArc
 50
43.151428
 51
46.848572
  0
LINE
  5
316
100
AcDbEntity
  8
2
100
AcDbLine
 10
-351.343281
 20
332.561986
 30
0.0
 11
-344.804821
 21
339.100447
 31
0.0
  0
LINE
  5
317
100
AcDbEntity
  8
2
100
AcDbLine
 10
-347.807747
 20
329.026452
 30
0.0
 11
-341.269287
 21
335.564913
 31
0.0
  0
ARC
  5
318
100
AcDbEntity
  8
2
100
AcDbCircle
 10
-344.097714
 20
338.39334
 30
0.0
 40
1.0
100
AcDbArc
 50
46.848572
 51
135.0
  0
ARC
  5
319
100
AcDbEntity
  8
2
100
AcDbCircle
 10
-341.976394
 20
336.27202
 30
0.0
 40
1.0
100
AcDbArc
 50
315.0
 51
43.151428
  0
ARC
  5
31A
100
AcDbEntity
  8
2
100
AcDbCircle
 10
-352.757495
 20
333.9762
 30
0.0
 40
2.0
100
AcDbArc
 50
231.892103
 51
315.0
  0
ARC
  5
31B
100
AcDbEntity
  8
2
100
AcDbCircle
 10
-346.393534
 20
327.612239
 30
0.0
 40
2.0
100
AcDbArc
 50
135.0
 51
218.107897
  0
ARC
  5
31C
100
AcDbEntity
  8
2
100
AcDbCircle
 10
-375.900407
 20
304.469326
 30
0.0
 40
47.5
100
AcDbArc
 50
65.651428
 51
69.348572
  0
LINE
  5
31D
100
AcDbEntity
  8
2
100
AcDbLine
 10
-363.963177
 20
339.821165
 30
0.0
 11
-360.424587
 21
348.364075
 31
0.0
  0
LINE
  5
31E
100
AcDbEntity
  8
2
100
AcDbLine
 10
-359.343779
 20
337.907748
 30
0.0
 11
-355.80519
 21
346.450658
 31
0.0
  0
ARC
  5
31F
100
AcDbEntity
  8
2
100
AcDbCircle
 10
-359.500708
 20
347.981392
 30
0.0
 40
1.0
100
AcDbArc
 50
69.348572
 51
157.5
  0
ARC
  5
320
100
AcDbEntity
  8
2
100
AcDbCircle
 10
-356.729069
 20
346.833342
 30
0.0
 40
1.0
100
AcDbArc
 50
337.5
 51
65.651428
  0
ARC
  5
321
100
AcDbEntity
  8
2
100
AcDbCircle
 10
-365.810936
 20
340.586532
 30
0.0
 40
2.0
100
AcDbArc
 50
254.392103
 51
337.5
  0
ARC
  5
322
100
AcDbEntity
  8
2
100
AcDbCircle
 10
-357.49602
 20
337.142381
 30
0.0
 40
2.0
100
AcDbArc
 50
157.5
 51
240.607897
  0
ARC
  5
323
100
AcDbEntity
  8
2
100
AcDbCircle
 10
-375.900407
 20
304.469326
 30
0.0
 40
47.5
100
AcDbArc
 50
155.651428
 51
159.348572
  0
LINE
  5
324
100
AcDbEntity
  8
2
100
AcDbLine
 10
-409.338829
 20
321.025955
 30
0.0
 11
-417.881739
 21
324.564544
 31
0.0
  0
LINE
  5
325
100
AcDbEntity
  8
2
100
AcDbLine
 10
-411.252246
 20
316.406557
 30
0.0
 11
-419.795156
 21
319.945146
 31
0.0
  0
ARC
  5
326
100
AcDbEntity
  8
2
100
AcDbCircle
 10
-418.264423
 20
323.640664
 30
0.0
 40
1.0
100
AcDbArc
 50
67.5
 51
155.651428
  0
ARC
  5
327
100
AcDbEntity
  8
2
100
AcDbCircle
 10
-419.412473
 20
320.869026
 30
0.0
 40
1.0
100
AcDbArc
 50
159.348572
 51
247.5
  0
ARC
  5
328
100
AcDbEntity
  8
2
100
AcDbCircle
 10
-408.573462
 20
322.873714
 30
0.0
 40
2.0
100
AcDbArc
 50
247.5
 51
330.607897
  0
ARC
  5
329
100
AcDbEntity
  8
2
100
AcDbCircle
 10
-412.017613
 20
314.558798
 30
0.0
 40
2.0
100
AcDbArc
 50
344.392103
 51
67.5
  0
ARC
  5
32A
100
AcDbEntity
  8
2
100
AcDbCircle
 10
-375.900407
 20
304.469326
 30
0.0
 40
47.5
100
AcDbArc
 50
133.151428
 51
136.848572
  0
LINE
  5
32B
100
AcDbEntity
  8
2
100
AcDbLine
 10
-400.457534
 20
332.561986
 30
0.0
 11
-406.995994
 21
339.100447
 31
0.0
  0
LINE
  5
32C
100
AcDbEntity
  8
2
100
AcDbLine
 10
-403.993067
 20
329.026452
 30
0.0
 11
-410.531528
 21
335.564913
 31
0.0
  0
ARC
  5
32D
100
AcDbEntity
  8
2
100
AcDbCircle
 10
-407.703101
 20
338.39334
 30
0.0
 40
1.0
100
AcDbArc
 50
45.0
 51
133.151428
  0
ARC
  5
32E
100
AcDbEntity
  8
2
100
AcDbCircle
 10
-409.824421
 20
336.27202
 30
0.0
 40
1.0
100
AcDbArc
 50
136.848572
 51
225.0
  0
ARC
  5
32F
100
AcDbEntity
  8
2
100
AcDbCircle
 10
-399.04332
 20
333.9762
 30
0.0
 40
2.0
100
AcDbArc
 50
225.0
 51
308.107897
  0
ARC
  5
330
100
AcDbEntity
  8
2
100
AcDbCircle
 10
-405.407281
 20
327.612239
 30
0.0
 40
2.0
100
AcDbArc
 50
321.892103
 51
45.0
  0
ARC
  5
331
100
AcDbEntity
  8
2
100
AcDbCircle
 10
-375.900407
 20
304.469326
 30
0.0
 40
47.5
100
AcDbArc
 50
110.651428
 51
114.348572
  0
LINE
  5
332
100
AcDbEntity
  8
2
100
AcDbLine
 10
-387.837638
 20
339.821165
 30
0.0
 11
-391.376227
 21
348.364075
 31
0.0
  0
LINE
  5
333
100
AcDbEntity
  8
2
100
AcDbLine
 10
-392.457036
 20
337.907748
 30
0.0
 11
-395.995625
 21
346.450658
 31
0.0
  0
ARC
  5
334
100
AcDbEntity
  8
2
100
AcDbCircle
 10
-392.300107
 20
347.981392
 30
0.0
 40
1.0
100
AcDbArc
 50
22.5
 51
110.651428
  0
ARC
  5
335
100
AcDbEntity
  8
2
100
AcDbCircle
 10
-395.071745
 20
346.833342
 30
0.0
 40
1.0
100
AcDbArc
 50
114.348572
 51
202.5
  0
ARC
  5
336
100
AcDbEntity
  8
2
100
AcDbCircle
 10
-385.989879
 20
340.586532
 30
0.0
 40
2.0
100
AcDbArc
 50
202.5
 51
285.607897
  0
ARC
  5
337
100
AcDbEntity
  8
2
100
AcDbCircle
 10
-394.304795
 20
337.142381
 30
0.0
 40
2.0
100
AcDbArc
 50
299.392103
 51
22.5
  0
ARC
  5
338
100
AcDbEntity
  8
2
100
AcDbCircle
 10
-369.400407
 20
341.401697
 30
0.0
 40
2.0
100
AcDbArc
 50
180.0
 51
260.018317
  0
ARC
  5
339
100
AcDbEntity
  8
2
100
AcDbCircle
 10
-382.400407
 20
341.401697
 30
0.0
 40
2.0
100
AcDbArc
 50
279.981683
 51
360.0
  0
TEXT
  5
33A
100
AcDbEntity
  8
2
100
AcDbText
 10
-378.900407
 20
353.469326
 30
0.0
 40
6.0
  1
Ｏ
 72
     5
 11
-374.100407
 21
353.469326
 31
0.0
100
AcDbText
  0
TEXT
  5
33B
100
AcDbEntity
  8
2
100
AcDbText
 10
-326.900407
 20
307.469326
 30
0.0
 40
6.0
  1
Ｓ
 50
270.0
 72
     5
 11
-326.900407
 21
302.669326
 31
0.0
100
AcDbText
  0
TEXT
  5
33C
100
AcDbEntity
  8
2
100
AcDbText
 10
-424.900407
 20
301.469326
 30
0.0
 40
6.0
  1
Ｓ
 50
90.0
 72
     5
 11
-424.900407
 21
306.269326
 31
0.0
100
AcDbText
  0
ARC
  5
33D
100
AcDbEntity
  8
2
100
AcDbCircle
 10
-375.900407
 20
304.469326
 30
0.0
 40
38.5
100
AcDbArc
 50
9.235561
 51
16.12063
  0
ARC
  5
33E
100
AcDbEntity
  8
2
100
AcDbCircle
 10
-375.900407
 20
304.469326
 30
0.0
 40
38.5
100
AcDbArc
 50
28.87937
 51
38.62063
  0
ARC
  5
33F
100
AcDbEntity
  8
2
100
AcDbCircle
 10
-375.900407
 20
304.469326
 30
0.0
 40
38.5
100
AcDbArc
 50
51.37937
 51
61.12063
  0
ARC
  5
340
100
AcDbEntity
  8
2
100
AcDbCircle
 10
-375.900407
 20
304.469326
 30
0.0
 40
38.5
100
AcDbArc
 50
73.87937
 51
80.764439
  0
ARC
  5
341
100
AcDbEntity
  8
2
100
AcDbCircle
 10
-375.900407
 20
304.469326
 30
0.0
 40
38.5
100
AcDbArc
 50
99.235561
 51
106.12063
  0
ARC
  5
342
100
AcDbEntity
  8
2
100
AcDbCircle
 10
-375.900407
 20
304.469326
 30
0.0
 40
38.5
100
AcDbArc
 50
118.87937
 51
128.62063
  0
ARC
  5
343
100
AcDbEntity
  8
2
100
AcDbCircle
 10
-375.900407
 20
304.469326
 30
0.0
 40
38.5
100
AcDbArc
 50
141.37937
 51
151.12063
  0
ARC
  5
344
100
AcDbEntity
  8
2
100
AcDbCircle
 10
-375.900407
 20
304.469326
 30
0.0
 40
38.5
100
AcDbArc
 50
163.87937
 51
170.764439
  0
ARC
  5
345
100
AcDbEntity
  8
2
100
AcDbCircle
 10
-375.900407
 20
304.469326
 30
0.0
 40
38.5
100
AcDbArc
 50
189.235561
 51
350.764439
  0
ARC
  5
346
100
AcDbEntity
  8
2
100
AcDbCircle
 10
-335.925415
 20
297.969326
 30
0.0
 40
2.0
100
AcDbArc
 50
90.0
 51
170.764439
  0
ARC
  5
347
100
AcDbEntity
  8
2
100
AcDbCircle
 10
-335.925415
 20
310.969326
 30
0.0
 40
2.0
100
AcDbArc
 50
189.235561
 51
270.0
  0
ARC
  5
348
100
AcDbEntity
  8
2
100
AcDbCircle
 10
-415.875399
 20
310.969326
 30
0.0
 40
2.0
100
AcDbArc
 50
270.0
 51
350.764439
  0
ARC
  5
349
100
AcDbEntity
  8
2
100
AcDbCircle
 10
-415.875399
 20
297.969326
 30
0.0
 40
2.0
100
AcDbArc
 50
9.235561
 51
90.0
  0
ARC
  5
34A
100
AcDbEntity
  8
2
100
AcDbCircle
 10
-382.400407
 20
344.444318
 30
0.0
 40
2.0
100
AcDbArc
 50
279.235561
 51
360.0
  0
ARC
  5
34B
100
AcDbEntity
  8
2
100
AcDbCircle
 10
-369.400407
 20
344.444318
 30
0.0
 40
2.0
100
AcDbArc
 50
180.0
 51
260.764439
  0
ARC
  5
34C
100
AcDbEntity
  8
2
100
AcDbCircle
 10
-364.655154
 20
343.376836
 30
0.0
 40
2.0
100
AcDbArc
 50
253.87937
 51
337.5
  0
ARC
  5
34D
100
AcDbEntity
  8
2
100
AcDbCircle
 10
-356.340238
 20
339.932685
 30
0.0
 40
2.0
100
AcDbArc
 50
157.5
 51
241.12063
  0
ARC
  5
34E
100
AcDbEntity
  8
2
100
AcDbCircle
 10
-350.621889
 20
336.111806
 30
0.0
 40
2.0
100
AcDbArc
 50
231.37937
 51
315.0
  0
ARC
  5
34F
100
AcDbEntity
  8
2
100
AcDbCircle
 10
-344.257928
 20
329.747845
 30
0.0
 40
2.0
100
AcDbArc
 50
135.0
 51
218.62063
  0
ARC
  5
350
100
AcDbEntity
  8
2
100
AcDbCircle
 10
-340.437049
 20
324.029495
 30
0.0
 40
2.0
100
AcDbArc
 50
208.87937
 51
292.5
  0
ARC
  5
351
100
AcDbEntity
  8
2
100
AcDbCircle
 10
-336.992898
 20
315.714579
 30
0.0
 40
2.0
100
AcDbArc
 50
112.5
 51
196.12063
  0
ARC
  5
352
100
AcDbEntity
  8
2
100
AcDbCircle
 10
-395.460576
 20
339.932685
 30
0.0
 40
2.0
100
AcDbArc
 50
298.87937
 51
22.5
  0
ARC
  5
353
100
AcDbEntity
  8
2
100
AcDbCircle
 10
-387.14566
 20
343.376836
 30
0.0
 40
2.0
100
AcDbArc
 50
202.5
 51
286.12063
  0
ARC
  5
354
100
AcDbEntity
  8
2
100
AcDbCircle
 10
-401.178926
 20
336.111806
 30
0.0
 40
2.0
100
AcDbArc
 50
225.0
 51
308.62063
  0
ARC
  5
355
100
AcDbEntity
  8
2
100
AcDbCircle
 10
-407.542887
 20
329.747845
 30
0.0
 40
2.0
100
AcDbArc
 50
321.37937
 51
45.0
  0
ARC
  5
356
100
AcDbEntity
  8
2
100
AcDbCircle
 10
-411.363766
 20
324.029495
 30
0.0
 40
2.0
100
AcDbArc
 50
247.5
 51
331.12063
  0
ARC
  5
357
100
AcDbEntity
  8
2
100
AcDbCircle
 10
-414.807917
 20
315.714579
 30
0.0
 40
2.0
100
AcDbArc
 50
343.87937
 51
67.5
  0
LINE
  5
358
100
AcDbEntity
  8
2
100
AcDbLine
 10
-438.900407
 20
76.226623
 30
0.0
 11
-312.900407
 21
76.226623
 31
0.0
  0
LINE
  5
359
100
AcDbEntity
  8
2
100
AcDbLine
 10
-438.900407
 20
82.226623
 30
0.0
 11
-312.900407
 21
82.226623
 31
0.0
  0
LINE
  5
35A
100
AcDbEntity
  8
2
100
AcDbLine
 10
-423.400407
 20
89.226623
 30
0.0
 11
-328.400407
 21
89.226623
 31
0.0
  0
LINE
  5
35B
100
AcDbEntity
  8
2
100
AcDbLine
 10
-312.900407
 20
82.226623
 30
0.0
 11
-312.900407
 21
75.426623
 31
0.0
  0
LINE
  5
35C
100
AcDbEntity
  8
2
100
AcDbLine
 10
-438.900407
 20
82.226623
 30
0.0
 11
-438.900407
 21
45.926623
 31
0.0
  0
LINE
  5
35D
100
AcDbEntity
  8
2
100
AcDbLine
 10
-312.900407
 20
82.226623
 30
0.0
 11
-319.828611
 21
86.226623
 31
0.0
  0
LINE
  5
35E
100
AcDbEntity
  8
2
100
AcDbLine
 10
-438.900407
 20
82.226623
 30
0.0
 11
-431.972204
 21
86.226623
 31
0.0
  0
ARC
  5
35F
100
AcDbEntity
  8
2
100
AcDbCircle
 10
-375.900407
 20
304.469326
 30
0.0
 40
56.071797
100
AcDbArc
 50
170.0
 51
230.927385
  0
ARC
  5
360
100
AcDbEntity
  8
2
100
AcDbCircle
 10
-375.900407
 20
304.469326
 30
0.0
 40
56.071797
100
AcDbArc
 50
309.072615
 51
10.0
  0
LINE
  5
361
100
AcDbEntity
  8
2
100
AcDbLine
 10
-332.717117
 20
382.469326
 30
0.0
 11
-328.131985
 21
356.46575
 31
0.0
  0
LINE
  5
362
100
AcDbEntity
  8
2
100
AcDbLine
 10
-325.487711
 20
341.469326
 30
0.0
 11
-320.680467
 21
314.206092
 31
0.0
  0
LINE
  5
363
100
AcDbEntity
  8
2
100
AcDbLine
 10
-431.120347
 20
314.206092
 30
0.0
 11
-426.313104
 21
341.469326
 31
0.0
  0
LINE
  5
364
100
AcDbEntity
  8
2
100
AcDbLine
 10
-423.668829
 20
356.46575
 30
0.0
 11
-419.083697
 21
382.469326
 31
0.0
  0
ARC
  5
365
100
AcDbEntity
  8
2
100
AcDbCircle
 10
-335.712118
 20
254.969326
 30
0.0
 40
7.68829
100
AcDbArc
 50
129.072615
 51
180.0
  0
ARC
  5
366
100
AcDbEntity
  8
2
100
AcDbCircle
 10
-416.088697
 20
254.969326
 30
0.0
 40
7.68829
100
AcDbArc
 50
0.0
 51
50.927385
  0
LINE
  5
367
100
AcDbEntity
  8
2
100
AcDbLine
 10
-328.400407
 20
89.226623
 30
0.0
 11
-328.400407
 21
86.226623
 31
0.0
  0
LINE
  5
368
100
AcDbEntity
  8
2
100
AcDbLine
 10
-423.400407
 20
89.226623
 30
0.0
 11
-423.400407
 21
86.226623
 31
0.0
  0
LINE
  5
369
100
AcDbEntity
  8
2
100
AcDbLine
 10
-338.774387
 20
87.328456
 30
0.0
 11
-340.686774
 21
89.226623
 31
0.0
  0
LINE
  5
36A
100
AcDbEntity
  8
2
100
AcDbLine
 10
-413.026428
 20
87.328456
 30
0.0
 11
-411.114041
 21
89.226623
 31
0.0
  0
LINE
  5
36B
100
AcDbEntity
  8
2
100
AcDbLine
 10
-343.400407
 20
85.226623
 30
0.0
 11
-343.400407
 21
83.226623
 31
0.0
  0
LINE
  5
36C
100
AcDbEntity
  8
2
100
AcDbLine
 10
-408.400407
 20
85.226623
 30
0.0
 11
-408.400407
 21
83.226623
 31
0.0
  0
ARC
  5
36D
100
AcDbEntity
  8
2
100
AcDbCircle
 10
-342.400407
 20
83.226623
 30
0.0
 40
1.0
100
AcDbArc
 50
180.0
 51
270.0
  0
ARC
  5
36E
100
AcDbEntity
  8
2
100
AcDbCircle
 10
-344.400407
 20
85.226623
 30
0.0
 40
1.0
100
AcDbArc
 50
0.0
 51
90.0
  0
ARC
  5
36F
100
AcDbEntity
  8
2
100
AcDbCircle
 10
-409.400407
 20
83.226623
 30
0.0
 40
1.0
100
AcDbArc
 50
270.0
 51
360.0
  0
ARC
  5
370
100
AcDbEntity
  8
2
100
AcDbCircle
 10
-407.400407
 20
85.226623
 30
0.0
 40
1.0
100
AcDbArc
 50
90.0
 51
180.0
  0
LINE
  5
371
100
AcDbEntity
  8
2
100
AcDbLine
 10
-327.900407
 20
80.226623
 30
0.0
 11
-327.900407
 21
14.426623
 31
0.0
  0
LINE
  5
372
100
AcDbEntity
  8
2
100
AcDbLine
 10
-423.900407
 20
80.226623
 30
0.0
 11
-423.900407
 21
14.426623
 31
0.0
  0
ARC
  5
373
100
AcDbEntity
  8
2
100
AcDbCircle
 10
-329.900407
 20
80.226623
 30
0.0
 40
2.0
100
AcDbArc
 50
0.0
 51
90.0
  0
ARC
  5
374
100
AcDbEntity
  8
2
100
AcDbCircle
 10
-421.900407
 20
80.226623
 30
0.0
 40
2.0
100
AcDbArc
 50
90.0
 51
180.0
  0
LINE
  5
375
100
AcDbEntity
  8
2
100
AcDbLine
 10
239.906817
 20
76.226623
 30
0.0
 11
87.906817
 21
76.226623
 31
0.0
  0
LINE
  5
376
100
AcDbEntity
  8
2
100
AcDbLine
 10
239.906817
 20
82.226623
 30
0.0
 11
87.906817
 21
82.226623
 31
0.0
  0
LINE
  5
377
100
AcDbEntity
  8
2
100
AcDbLine
 10
192.906817
 20
89.226623
 30
0.0
 11
109.906817
 21
89.226623
 31
0.0
  0
LINE
  5
378
100
AcDbEntity
  8
2
100
AcDbLine
 10
239.906817
 20
82.226623
 30
0.0
 11
239.906817
 21
55.926623
 31
0.0
  0
LINE
  5
379
100
AcDbEntity
  8
2
100
AcDbLine
 10
87.906817
 20
82.226623
 30
0.0
 11
87.906817
 21
45.926623
 31
0.0
  0
LINE
  5
37A
100
AcDbEntity
  8
2
100
AcDbLine
 10
239.906817
 20
82.226623
 30
0.0
 11
236.156817
 21
84.391686
 31
0.0
  0
LINE
  5
37B
100
AcDbEntity
  8
2
100
AcDbLine
 10
87.906817
 20
82.226623
 30
0.0
 11
89.806817
 21
83.323588
 31
0.0
  0
LINE
  5
37C
100
AcDbEntity
  8
2
100
AcDbLine
 10
-342.900407
 20
392.041123
 30
0.0
 11
-408.900407
 21
392.041123
 31
0.0
  0
LINE
  5
37D
100
AcDbEntity
  8
2
100
AcDbLine
 10
-343.400407
 20
253.897529
 30
0.0
 11
-408.400407
 21
253.897529
 31
0.0
  0
LINE
  5
37E
100
AcDbEntity
  8
2
100
AcDbLine
 10
109.906817
 20
89.226623
 30
0.0
 11
106.906817
 21
86.226623
 31
0.0
  0
LINE
  5
37F
100
AcDbEntity
  8
2
100
AcDbLine
 10
192.906817
 20
89.226623
 30
0.0
 11
192.906817
 21
87.301417
 31
0.0
  0
LINE
  5
380
100
AcDbEntity
  8
2
100
AcDbLine
 10
188.273562
 20
89.226623
 30
0.0
 11
188.273562
 21
87.531028
 31
0.0
  0
LINE
  5
381
100
AcDbEntity
  8
2
100
AcDbLine
 10
189.918883
 20
89.226623
 30
0.0
 11
189.918883
 21
87.626617
 31
0.0
  0
LINE
  5
382
100
AcDbEntity
  8
2
100
AcDbLine
 10
180.330831
 20
89.226623
 30
0.0
 11
180.330831
 21
86.226623
 31
0.0
  0
LINE
  5
383
100
AcDbEntity
  8
2
100
AcDbLine
 10
165.578155
 20
89.226623
 30
0.0
 11
165.578155
 21
86.226623
 31
0.0
  0
LINE
  5
384
100
AcDbEntity
  8
2
100
AcDbLine
 10
149.906817
 20
89.226623
 30
0.0
 11
149.906817
 21
86.226623
 31
0.0
  0
LINE
  5
385
100
AcDbEntity
  8
2
100
AcDbLine
 10
140.906817
 20
89.226623
 30
0.0
 11
140.906817
 21
86.226623
 31
0.0
  0
LINE
  5
386
100
AcDbEntity
  8
2
100
AcDbLine
 10
177.18007
 20
89.226623
 30
0.0
 11
177.18007
 21
86.226623
 31
0.0
  0
LINE
  5
387
100
AcDbEntity
  8
2
100
AcDbLine
 10
161.249387
 20
89.226623
 30
0.0
 11
161.249387
 21
86.226623
 31
0.0
  0
LINE
  5
388
100
AcDbEntity
  8
2
100
AcDbLine
 10
170.805205
 20
86.226623
 30
0.0
 11
168.679018
 21
89.226623
 31
0.0
  0
LINE
  5
389
100
AcDbEntity
  8
2
100
AcDbLine
 10
157.799335
 20
86.226623
 30
0.0
 11
156.648651
 21
89.226623
 31
0.0
  0
LINE
  5
38A
100
AcDbEntity
  8
2
100
AcDbLine
 10
182.406817
 20
86.226623
 30
0.0
 11
182.406817
 21
82.226623
 31
0.0
  0
LINE
  5
38B
100
AcDbEntity
  8
2
100
AcDbLine
 10
197.406817
 20
86.226623
 30
0.0
 11
197.406817
 21
82.226623
 31
0.0
  0
LINE
  5
38C
100
AcDbEntity
  8
2
100
AcDbLine
 10
223.406817
 20
86.226623
 30
0.0
 11
223.406817
 21
82.226623
 31
0.0
  0
LINE
  5
38D
100
AcDbEntity
  8
2
100
AcDbLine
 10
103.406817
 20
85.113374
 30
0.0
 11
103.406817
 21
82.226623
 31
0.0
  0
ARC
  5
38E
100
AcDbEntity
  8
2
100
AcDbCircle
 10
101.210118
 20
82.726623
 30
0.0
 40
3.5
100
AcDbArc
 50
57.27406
 51
90.0
  0
ARC
  5
38F
100
AcDbEntity
  8
2
100
AcDbCircle
 10
102.743911
 20
85.113374
 30
0.0
 40
0.662906
100
AcDbArc
 50
0.0
 51
57.27406
  0
LINE
  5
390
100
AcDbEntity
  8
2
100
AcDbLine
 10
-438.900407
 20
75.426623
 30
0.0
 11
-311.900407
 21
75.426623
 31
0.0
  0
LINE
  5
391
100
AcDbEntity
  8
2
100
AcDbLine
 10
84.906817
 20
75.426623
 30
0.0
 11
239.906817
 21
75.426623
 31
0.0
  0
LINE
  5
392
100
AcDbEntity
  8
2
100
AcDbLine
 10
-426.900407
 20
14.426623
 30
0.0
 11
-324.900407
 21
14.426623
 31
0.0
  0
LINE
  5
393
100
AcDbEntity
  8
2
100
AcDbLine
 10
225.317285
 20
31.645564
 30
0.0
 11
196.406817
 21
16.273595
 31
0.0
  0
ARC
  5
394
100
AcDbEntity
  8
2
100
AcDbCircle
 10
212.406817
 20
55.926623
 30
0.0
 40
27.5
100
AcDbArc
 50
298.0
 51
360.0
  0
LINE
  5
395
100
AcDbEntity
  8
2
100
AcDbLine
 10
196.406817
 20
16.273595
 30
0.0
 11
196.406817
 21
14.426623
 31
0.0
  0
LINE
  5
396
100
AcDbEntity
  8
2
100
AcDbLine
 10
196.406817
 20
16.273595
 30
0.0
 11
107.602817
 21
16.273595
 31
0.0
  0
LINE
  5
397
100
AcDbEntity
  8
2
100
AcDbLine
 10
-426.900407
 20
14.426623
 30
0.0
 11
-426.900407
 21
16.273595
 31
0.0
  0
LINE
  5
398
100
AcDbEntity
  8
2
100
AcDbLine
 10
-324.900407
 20
14.426623
 30
0.0
 11
-324.900407
 21
16.273595
 31
0.0
  0
LINE
  5
399
100
AcDbEntity
  8
2
100
AcDbLine
 10
-315.10078
 20
40.489314
 30
0.0
 11
-324.900407
 21
16.273595
 31
0.0
  0
LINE
  5
39A
100
AcDbEntity
  8
2
100
AcDbLine
 10
-426.900407
 20
16.273595
 30
0.0
 11
-438.900407
 21
45.926623
 31
0.0
  0
LINE
  5
39B
100
AcDbEntity
  8
2
100
AcDbLine
 10
104.602817
 20
82.226623
 30
0.0
 11
104.602817
 21
19.273595
 31
0.0
  0
LINE
  5
39C
100
AcDbEntity
  8
2
100
AcDbLine
 10
87.906817
 20
45.926623
 30
0.0
 11
94.406817
 21
14.426623
 31
0.0
  0
ARC
  5
39D
100
AcDbEntity
  8
2
100
AcDbCircle
 10
107.602817
 20
19.273595
 30
0.0
 40
3.0
100
AcDbArc
 50
180.0
 51
270.0
  0
LINE
  5
39E
100
AcDbEntity
  8
2
100
AcDbLine
 10
-408.900407
 20
55.926623
 30
0.0
 11
-408.900407
 21
75.426623
 31
0.0
  0
LINE
  5
39F
100
AcDbEntity
  8
2
100
AcDbLine
 10
-342.900407
 20
55.926623
 30
0.0
 11
-342.900407
 21
75.426623
 31
0.0
  0
LINE
  5
3A0
100
AcDbEntity
  8
2
100
AcDbLine
 10
-352.900407
 20
45.926623
 30
0.0
 11
-398.900407
 21
45.926623
 31
0.0
  0
ARC
  5
3A1
100
AcDbEntity
  8
2
100
AcDbCircle
 10
-352.900407
 20
55.926623
 30
0.0
 40
10.0
100
AcDbArc
 50
270.0
 51
360.0
  0
ARC
  5
3A2
100
AcDbEntity
  8
2
100
AcDbCircle
 10
-398.900407
 20
55.926623
 30
0.0
 40
10.0
100
AcDbArc
 50
180.0
 51
270.0
  0
LINE
  5
3A3
100
AcDbEntity
  8
2
100
AcDbLine
 10
84.906817
 20
75.426623
 30
0.0
 11
84.906817
 21
46.926623
 31
0.0
  0
LINE
  5
3A4
100
AcDbEntity
  8
2
100
AcDbLine
 10
87.092098
 20
45.926623
 30
0.0
 11
85.906817
 21
45.926623
 31
0.0
  0
ARC
  5
3A5
100
AcDbEntity
  8
2
100
AcDbCircle
 10
85.906817
 20
46.926623
 30
0.0
 40
1.0
100
AcDbArc
 50
180.0
 51
270.0
  0
ARC
  5
3A6
100
AcDbEntity
  8
2
100
AcDbCircle
 10
87.092098
 20
44.926623
 30
0.0
 40
1.0
100
AcDbArc
 50
11.659293
 51
90.0
  0
LINE
  5
3A7
100
AcDbEntity
  8
2
100
AcDbLine
 10
-408.900407
 20
243.969326
 30
0.0
 11
-342.900407
 21
243.969326
 31
0.0
  0
LINE
  5
3A8
100
AcDbEntity
  8
2
100
AcDbLine
 10
-342.900407
 20
243.969326
 30
0.0
 11
-342.900407
 21
246.969326
 31
0.0
  0
LINE
  5
3A9
100
AcDbEntity
  8
2
100
AcDbLine
 10
-408.900407
 20
243.969326
 30
0.0
 11
-408.900407
 21
246.969326
 31
0.0
  0
LINE
  5
3AA
100
AcDbEntity
  8
2
100
AcDbLine
 10
-426.900407
 20
16.273595
 30
0.0
 11
-423.900407
 21
16.273595
 31
0.0
  0
LINE
  5
3AB
100
AcDbEntity
  8
2
100
AcDbLine
 10
-324.900407
 20
16.273595
 30
0.0
 11
-327.900407
 21
16.273595
 31
0.0
  0
LINE
  5
3AC
100
AcDbEntity
  8
2
100
AcDbLine
 10
124.406817
 20
41.426623
 30
0.0
 11
162.406817
 21
41.426623
 31
0.0
  0
LINE
  5
3AD
100
AcDbEntity
  8
2
100
AcDbLine
 10
165.406817
 20
75.426623
 30
0.0
 11
165.406817
 21
44.426623
 31
0.0
  0
LINE
  5
3AE
100
AcDbEntity
  8
2
100
AcDbLine
 10
121.406817
 20
75.426623
 30
0.0
 11
121.406817
 21
44.426623
 31
0.0
  0
ARC
  5
3AF
100
AcDbEntity
  8
2
100
AcDbCircle
 10
162.406817
 20
44.426623
 30
0.0
 40
3.0
100
AcDbArc
 50
270.0
 51
360.0
  0
ARC
  5
3B0
100
AcDbEntity
  8
2
100
AcDbCircle
 10
124.406817
 20
44.426623
 30
0.0
 40
3.0
100
AcDbArc
 50
180.0
 51
270.0
  0
LINE
  5
3B1
100
AcDbEntity
  8
2
100
AcDbLine
 10
194.406817
 20
75.426623
 30
0.0
 11
194.406817
 21
54.317619
 31
0.0
  0
LINE
  5
3B2
100
AcDbEntity
  8
2
100
AcDbLine
 10
230.406817
 20
75.426623
 30
0.0
 11
230.406817
 21
54.317619
 31
0.0
  0
LINE
  5
3B3
100
AcDbEntity
  8
2
100
AcDbLine
 10
217.549118
 20
39.798267
 30
0.0
 11
227.549118
 21
48.189263
 31
0.0
  0
LINE
  5
3B4
100
AcDbEntity
  8
2
100
AcDbLine
 10
207.264516
 20
39.798267
 30
0.0
 11
197.264516
 21
48.189263
 31
0.0
  0
ARC
  5
3B5
100
AcDbEntity
  8
2
100
AcDbCircle
 10
212.406817
 20
45.926623
 30
0.0
 40
8.0
100
AcDbArc
 50
230.0
 51
310.0
  0
ARC
  5
3B6
100
AcDbEntity
  8
2
100
AcDbCircle
 10
202.406817
 20
54.317619
 30
0.0
 40
8.0
100
AcDbArc
 50
180.0
 51
230.0
  0
ARC
  5
3B7
100
AcDbEntity
  8
2
100
AcDbCircle
 10
222.406817
 20
54.317619
 30
0.0
 40
8.0
100
AcDbArc
 50
310.0
 51
0.0
  0
CIRCLE
  5
3B8
100
AcDbEntity
  8
2
100
AcDbCircle
 10
212.406817
 20
55.926623
 30
0.0
 40
10.0
  0
CIRCLE
  5
3B9
100
AcDbEntity
  8
2
100
AcDbCircle
 10
212.406817
 20
55.926623
 30
0.0
 40
8.0
  0
LINE
  5
3BA
100
AcDbEntity
  8
2
100
AcDbLine
 10
-311.900407
 20
281.969326
 30
0.0
 11
-311.900407
 21
322.969326
 31
0.0
  0
LINE
  5
3BB
100
AcDbEntity
  8
2
100
AcDbLine
 10
-314.196421
 20
324.469326
 30
0.0
 11
-313.400407
 21
324.469326
 31
0.0
  0
LINE
  5
3BC
100
AcDbEntity
  8
2
100
AcDbLine
 10
-316.655154
 20
280.469326
 30
0.0
 11
-313.400407
 21
280.469326
 31
0.0
  0
ARC
  5
3BD
100
AcDbEntity
  8
2
100
AcDbCircle
 10
-313.400407
 20
322.969326
 30
0.0
 40
1.5
100
AcDbArc
 50
0.0
 51
90.0
  0
ARC
  5
3BE
100
AcDbEntity
  8
2
100
AcDbCircle
 10
-313.400407
 20
281.969326
 30
0.0
 40
1.5
100
AcDbArc
 50
270.0
 51
360.0
  0
ARC
  5
3BF
100
AcDbEntity
  8
2
100
AcDbCircle
 10
-314.196421
 20
325.969326
 30
0.0
 40
1.5
100
AcDbArc
 50
190.0
 51
270.0
  0
ARC
  5
3C0
100
AcDbEntity
  8
2
100
AcDbCircle
 10
-316.655154
 20
278.969326
 30
0.0
 40
1.5
100
AcDbArc
 50
90.0
 51
156.712268
  0
LINE
  5
3C1
100
AcDbEntity
  8
2
100
AcDbLine
 10
-313.400407
 20
41.426623
 30
0.0
 11
-316.150944
 21
41.426623
 31
0.0
  0
LINE
  5
3C2
100
AcDbEntity
  8
2
100
AcDbLine
 10
-311.900407
 20
75.426623
 30
0.0
 11
-311.900407
 21
42.926623
 31
0.0
  0
LINE
  5
3C3
100
AcDbEntity
  8
2
100
AcDbLine
 10
-317.650944
 20
75.426623
 30
0.0
 11
-317.650944
 21
41.426623
 31
0.0
  0
ARC
  5
3C4
100
AcDbEntity
  8
2
100
AcDbCircle
 10
-313.400407
 20
42.926623
 30
0.0
 40
1.5
100
AcDbArc
 50
270.0
 51
360.0
  0
ARC
  5
3C5
100
AcDbEntity
  8
2
100
AcDbCircle
 10
-313.71032
 20
39.926623
 30
0.0
 40
1.5
100
AcDbArc
 50
90.0
 51
157.967784
  0
ARC
  5
3C6
100
AcDbEntity
  8
2
100
AcDbCircle
 10
-316.150944
 20
39.926623
 30
0.0
 40
1.5
100
AcDbArc
 50
90.0
 51
180.0
  0
LINE
  5
3C7
100
AcDbEntity
  8
2
100
AcDbLine
 10
-315.900407
 20
354.969326
 30
0.0
 11
-315.900407
 21
387.969326
 31
0.0
  0
LINE
  5
3C8
100
AcDbEntity
  8
2
100
AcDbLine
 10
-435.900407
 20
354.969326
 30
0.0
 11
-435.900407
 21
387.969326
 31
0.0
  0
LINE
  5
3C9
100
AcDbEntity
  8
2
100
AcDbLine
 10
-434.400407
 20
389.469326
 30
0.0
 11
-426.14314
 21
389.469326
 31
0.0
  0
LINE
  5
3CA
100
AcDbEntity
  8
2
100
AcDbLine
 10
-325.657675
 20
389.469326
 30
0.0
 11
-317.400407
 21
389.469326
 31
0.0
  0
LINE
  5
3CB
100
AcDbEntity
  8
2
100
AcDbLine
 10
-434.400407
 20
353.469326
 30
0.0
 11
-433.019892
 21
353.469326
 31
0.0
  0
LINE
  5
3CC
100
AcDbEntity
  8
2
100
AcDbLine
 10
-318.780922
 20
353.469326
 30
0.0
 11
-317.400407
 21
353.469326
 31
0.0
  0
ARC
  5
3CD
100
AcDbEntity
  8
2
100
AcDbCircle
 10
-317.400407
 20
387.969326
 30
0.0
 40
1.5
100
AcDbArc
 50
0.0
 51
90.0
  0
ARC
  5
3CE
100
AcDbEntity
  8
2
100
AcDbCircle
 10
-317.400407
 20
354.969326
 30
0.0
 40
1.5
100
AcDbArc
 50
270.0
 51
360.0
  0
ARC
  5
3CF
100
AcDbEntity
  8
2
100
AcDbCircle
 10
-434.400407
 20
354.969326
 30
0.0
 40
1.5
100
AcDbArc
 50
180.0
 51
270.0
  0
ARC
  5
3D0
100
AcDbEntity
  8
2
100
AcDbCircle
 10
-434.400407
 20
387.969326
 30
0.0
 40
1.5
100
AcDbArc
 50
90.0
 51
180.0
  0
ARC
  5
3D1
100
AcDbEntity
  8
2
100
AcDbCircle
 10
-325.657675
 20
390.969326
 30
0.0
 40
1.5
100
AcDbArc
 50
190.01541
 51
270.0
  0
ARC
  5
3D2
100
AcDbEntity
  8
2
100
AcDbCircle
 10
-426.14314
 20
390.969326
 30
0.0
 40
1.5
100
AcDbArc
 50
270.0
 51
349.98459
  0
ARC
  5
3D3
100
AcDbEntity
  8
2
100
AcDbCircle
 10
-433.019892
 20
351.969326
 30
0.0
 40
1.5
100
AcDbArc
 50
350.0
 51
90.0
  0
ARC
  5
3D4
100
AcDbEntity
  8
2
100
AcDbCircle
 10
-318.780922
 20
351.969326
 30
0.0
 40
1.5
100
AcDbArc
 50
90.0
 51
190.0
  0
LINE
  5
3D5
100
AcDbEntity
  8
2
100
AcDbLine
 10
-406.400407
 20
89.926623
 30
0.0
 11
-345.400407
 21
89.926623
 31
0.0
  0
LINE
  5
3D6
100
AcDbEntity
  8
2
100
AcDbLine
 10
-349.400407
 20
89.226623
 30
0.0
 11
-349.400407
 21
89.926623
 31
0.0
  0
LINE
  5
3D7
100
AcDbEntity
  8
2
100
AcDbLine
 10
-402.400407
 20
89.226623
 30
0.0
 11
-402.400407
 21
89.926623
 31
0.0
  0
LINE
  5
3D8
100
AcDbEntity
  8
2
100
AcDbLine
 10
-411.400407
 20
90.426623
 30
0.0
 11
-335.900407
 21
90.426623
 31
0.0
  0
LINE
  5
3D9
100
AcDbEntity
  8
2
100
AcDbLine
 10
-406.400407
 20
89.926623
 30
0.0
 11
-406.400407
 21
90.426623
 31
0.0
  0
LINE
  5
3DA
100
AcDbEntity
  8
2
100
AcDbLine
 10
-345.400407
 20
89.926623
 30
0.0
 11
-345.400407
 21
90.426623
 31
0.0
  0
LINE
  5
3DB
100
AcDbEntity
  8
2
100
AcDbLine
 10
-406.400407
 20
116.426623
 30
0.0
 11
-348.446041
 21
116.426623
 31
0.0
  0
LINE
  5
3DC
100
AcDbEntity
  8
2
100
AcDbLine
 10
-409.400407
 20
96.426623
 30
0.0
 11
-342.626479
 21
96.426623
 31
0.0
  0
LINE
  5
3DD
100
AcDbEntity
  8
2
100
AcDbLine
 10
-409.340653
 20
308.469326
 30
0.0
 11
-339.900407
 21
308.469326
 31
0.0
  0
LINE
  5
3DE
100
AcDbEntity
  8
2
100
AcDbLine
 10
-409.340653
 20
300.469326
 30
0.0
 11
-339.900407
 21
300.469326
 31
0.0
  0
ARC
  5
3DF
100
AcDbEntity
  8
2
100
AcDbCircle
 10
-409.340653
 20
306.469326
 30
0.0
 40
2.0
100
AcDbArc
 50
90.0
 51
176.577321
  0
ARC
  5
3E0
100
AcDbEntity
  8
2
100
AcDbCircle
 10
-409.340653
 20
302.469326
 30
0.0
 40
2.0
100
AcDbArc
 50
183.422679
 51
270.0
  0
ARC
  5
3E1
100
AcDbEntity
  8
2
100
AcDbCircle
 10
-339.900407
 20
304.469326
 30
0.0
 40
4.0
100
AcDbArc
 50
270.0
 51
90.0
  0
ARC
  5
3E2
100
AcDbEntity
  8
2
100
AcDbCircle
 10
-375.900407
 20
304.469326
 30
0.0
 40
35.5
100
AcDbArc
 50
9.068722
 51
350.931278
  0
ARC
  5
3E3
100
AcDbEntity
  8
2
100
AcDbCircle
 10
-338.869157
 20
298.558614
 30
0.0
 40
2.0
100
AcDbArc
 50
99.896853
 51
170.931278
  0
ARC
  5
3E4
100
AcDbEntity
  8
2
100
AcDbCircle
 10
-338.869157
 20
310.380039
 30
0.0
 40
2.0
100
AcDbArc
 50
189.068722
 51
260.103147
  0
LINE
  5
3E5
100
AcDbEntity
  8
2
100
AcDbLine
 10
-335.900407
 20
90.426623
 30
0.0
 11
-335.900407
 21
105.095084
 31
0.0
  0
LINE
  5
3E6
100
AcDbEntity
  8
2
100
AcDbLine
 10
-337.686469
 20
108.925307
 30
0.0
 11
-345.232103
 21
115.256845
 31
0.0
  0
LINE
  5
3E7
100
AcDbEntity
  8
2
100
AcDbLine
 10
-411.400407
 20
90.426623
 30
0.0
 11
-411.400407
 21
111.426623
 31
0.0
  0
ARC
  5
3E8
100
AcDbEntity
  8
2
100
AcDbCircle
 10
-406.400407
 20
111.426623
 30
0.0
 40
5.0
100
AcDbArc
 50
90.0
 51
180.0
  0
ARC
  5
3E9
100
AcDbEntity
  8
2
100
AcDbCircle
 10
-409.400407
 20
94.426623
 30
0.0
 40
2.0
100
AcDbArc
 50
90.0
 51
180.0
  0
ARC
  5
3EA
100
AcDbEntity
  8
2
100
AcDbCircle
 10
-340.900407
 20
105.095084
 30
0.0
 40
5.0
100
AcDbArc
 50
0.0
 51
50.0
  0
ARC
  5
3EB
100
AcDbEntity
  8
2
100
AcDbCircle
 10
-348.446041
 20
111.426623
 30
0.0
 40
5.0
100
AcDbArc
 50
50.0
 51
90.0
  0
LINE
  5
3EC
100
AcDbEntity
  8
2
100
AcDbLine
 10
-340.626479
 20
94.426623
 30
0.0
 11
-340.626479
 21
90.426623
 31
0.0
  0
ARC
  5
3ED
100
AcDbEntity
  8
2
100
AcDbCircle
 10
-342.626479
 20
94.426623
 30
0.0
 40
2.0
100
AcDbArc
 50
0.0
 51
90.0
  0
LINE
  5
3EE
100
AcDbEntity
  8
2
100
AcDbLine
 10
100.88878
 20
86.226623
 30
0.0
 11
184.924854
 21
86.226623
 31
0.0
  0
LINE
  5
3EF
100
AcDbEntity
  8
2
100
AcDbLine
 10
194.88878
 20
86.226623
 30
0.0
 11
225.924854
 21
86.226623
 31
0.0
  0
LINE
  5
3F0
100
AcDbEntity
  8
2
100
AcDbLine
 10
114.906817
 20
89.926623
 30
0.0
 11
175.906817
 21
89.926623
 31
0.0
  0
LINE
  5
3F1
100
AcDbEntity
  8
2
100
AcDbLine
 10
171.906817
 20
89.226623
 30
0.0
 11
171.906817
 21
89.926623
 31
0.0
  0
LINE
  5
3F2
100
AcDbEntity
  8
2
100
AcDbLine
 10
118.906817
 20
89.226623
 30
0.0
 11
118.906817
 21
89.926623
 31
0.0
  0
LINE
  5
3F3
100
AcDbEntity
  8
2
100
AcDbLine
 10
109.906817
 20
90.426623
 30
0.0
 11
180.906817
 21
90.426623
 31
0.0
  0
LINE
  5
3F4
100
AcDbEntity
  8
2
100
AcDbLine
 10
114.906817
 20
90.426623
 30
0.0
 11
114.906817
 21
89.926623
 31
0.0
  0
LINE
  5
3F5
100
AcDbEntity
  8
2
100
AcDbLine
 10
175.906817
 20
90.426623
 30
0.0
 11
175.906817
 21
89.926623
 31
0.0
  0
LINE
  5
3F6
100
AcDbEntity
  8
2
100
AcDbLine
 10
143.406817
 20
116.426623
 30
0.0
 11
147.406817
 21
116.426623
 31
0.0
  0
LINE
  5
3F7
100
AcDbEntity
  8
2
100
AcDbLine
 10
109.906817
 20
94.426623
 30
0.0
 11
109.906817
 21
90.426623
 31
0.0
  0
LINE
  5
3F8
100
AcDbEntity
  8
2
100
AcDbLine
 10
180.906817
 20
94.426623
 30
0.0
 11
180.906817
 21
90.426623
 31
0.0
  0
ARC
  5
3F9
100
AcDbEntity
  8
2
100
AcDbCircle
 10
178.906817
 20
94.426623
 30
0.0
 40
2.0
100
AcDbArc
 50
0.0
 51
90.0
  0
ARC
  5
3FA
100
AcDbEntity
  8
2
100
AcDbCircle
 10
111.906817
 20
94.426623
 30
0.0
 40
2.0
100
AcDbArc
 50
90.0
 51
180.0
  0
LINE
  5
3FB
100
AcDbEntity
  8
2
100
AcDbLine
 10
141.406817
 20
114.426623
 30
0.0
 11
141.406817
 21
90.426623
 31
0.0
  0
LINE
  5
3FC
100
AcDbEntity
  8
2
100
AcDbLine
 10
149.406817
 20
114.426623
 30
0.0
 11
149.406817
 21
90.426623
 31
0.0
  0
ARC
  5
3FD
100
AcDbEntity
  8
2
100
AcDbCircle
 10
147.406817
 20
114.426623
 30
0.0
 40
2.0
100
AcDbArc
 50
0.0
 51
90.0
  0
ARC
  5
3FE
100
AcDbEntity
  8
2
100
AcDbCircle
 10
143.406817
 20
114.426623
 30
0.0
 40
2.0
100
AcDbArc
 50
90.0
 51
180.0
  0
LINE
  5
3FF
100
AcDbEntity
  8
2
100
AcDbLine
 10
111.906817
 20
96.426623
 30
0.0
 11
139.406817
 21
96.426623
 31
0.0
  0
LINE
  5
400
100
AcDbEntity
  8
2
100
AcDbLine
 10
151.406817
 20
96.426623
 30
0.0
 11
178.906817
 21
96.426623
 31
0.0
  0
ARC
  5
401
100
AcDbEntity
  8
2
100
AcDbCircle
 10
151.406817
 20
98.426623
 30
0.0
 40
2.0
100
AcDbArc
 50
180.0
 51
270.0
  0
ARC
  5
402
100
AcDbEntity
  8
2
100
AcDbCircle
 10
139.406817
 20
98.426623
 30
0.0
 40
2.0
100
AcDbArc
 50
270.0
 51
360.0
  0
ARC
  5
403
100
AcDbEntity
  8
2
100
AcDbCircle
 10
145.406817
 20
103.426623
 30
0.0
 40
4.0
100
AcDbArc
 50
0.0
 51
180.0
  0
LINE
  5
404
100
AcDbEntity
  8
2
100
AcDbLine
 10
-346.62619
 20
300.469326
 30
0.0
 11
-346.62619
 21
308.469326
 31
0.0
  0
LINE
  5
405
100
AcDbEntity
  8
2
100
AcDbLine
 10
-330.918445
 20
86.226623
 30
0.0
 11
-319.828611
 21
86.226623
 31
0.0
  0
LINE
  5
406
100
AcDbEntity
  8
2
100
AcDbLine
 10
-431.972204
 20
86.226623
 30
0.0
 11
-420.88237
 21
86.226623
 31
0.0
  0
LINE
  5
407
100
AcDbEntity
  8
2
100
AcDbLine
 10
-410.918445
 20
86.226623
 30
0.0
 11
-340.88237
 21
86.226623
 31
0.0
  0
LINE
  5
408
100
AcDbEntity
  8
2
100
AcDbLine
 10
-187.900407
 20
460.469326
 30
0.0
 11
-187.900407
 21
282.469326
 31
0.0
  0
ARC
  5
409
100
AcDbEntity
  8
2
100
AcDbCircle
 10
-198.900407
 20
460.469326
 30
0.0
 40
11.0
100
AcDbArc
 50
0.0
 51
180.0
  0
ARC
  5
40A
100
AcDbEntity
  8
2
100
AcDbCircle
 10
-199.351677
 20
302.353146
 30
0.0
 40
79.570307
100
AcDbArc
 50
91.907508
 51
97.294014
  0
ARC
  5
40B
100
AcDbEntity
  8
2
100
AcDbCircle
 10
-199.351677
 20
440.585507
 30
0.0
 40
79.570307
100
AcDbArc
 50
262.705986
 51
268.092492
  0
LINE
  5
40C
100
AcDbEntity
  8
2
100
AcDbLine
 10
-198.900407
 20
364.057631
 30
0.0
 11
-198.900407
 21
378.881022
 31
0.0
  0
ARC
  5
40D
100
AcDbEntity
  8
2
100
AcDbCircle
 10
-201.900407
 20
378.881022
 30
0.0
 40
3.0
100
AcDbArc
 50
0.0
 51
91.907508
  0
ARC
  5
40E
100
AcDbEntity
  8
2
100
AcDbCircle
 10
-201.900407
 20
364.057631
 30
0.0
 40
3.0
100
AcDbArc
 50
268.092492
 51
360.0
  0
ARC
  5
40F
100
AcDbEntity
  8
2
100
AcDbCircle
 10
-209.389083
 20
362.166293
 30
0.0
 40
0.511325
100
AcDbArc
 50
106.739333
 51
262.705986
  0
ARC
  5
410
100
AcDbEntity
  8
2
100
AcDbCircle
 10
-209.389083
 20
380.772359
 30
0.0
 40
0.511325
100
AcDbArc
 50
97.294014
 51
253.260667
  0
LINE
  5
411
100
AcDbEntity
  8
2
100
AcDbLine
 10
-207.400407
 20
365.528825
 30
0.0
 11
-207.400407
 21
377.409827
 31
0.0
  0
ARC
  5
412
100
AcDbEntity
  8
2
100
AcDbCircle
 10
-210.400407
 20
377.409827
 30
0.0
 40
3.0
100
AcDbArc
 50
0.0
 51
73.260667
  0
ARC
  5
413
100
AcDbEntity
  8
2
100
AcDbCircle
 10
-210.400407
 20
365.528825
 30
0.0
 40
3.0
100
AcDbArc
 50
286.739333
 51
360.0
  0
ARC
  5
414
100
AcDbEntity
  8
2
100
AcDbCircle
 10
-199.298066
 20
383.208152
 30
0.0
 40
24.10125
100
AcDbArc
 50
97.084118
 51
112.377644
  0
ARC
  5
415
100
AcDbEntity
  8
2
100
AcDbCircle
 10
-199.345496
 20
333.710416
 30
0.0
 40
53.404212
100
AcDbArc
 50
92.596184
 51
100.675608
  0
LINE
  5
416
100
AcDbEntity
  8
2
100
AcDbLine
 10
-198.900407
 20
390.056734
 30
0.0
 11
-198.900407
 21
404.148318
 31
0.0
  0
ARC
  5
417
100
AcDbEntity
  8
2
100
AcDbCircle
 10
-201.900407
 20
404.148318
 30
0.0
 40
3.0
100
AcDbArc
 50
0.0
 51
97.084118
  0
ARC
  5
418
100
AcDbEntity
  8
2
100
AcDbCircle
 10
-201.900407
 20
390.056734
 30
0.0
 40
3.0
100
AcDbArc
 50
272.596184
 51
360.0
  0
ARC
  5
419
100
AcDbEntity
  8
2
100
AcDbCircle
 10
-207.596538
 20
403.364074
 30
0.0
 40
2.303869
100
AcDbArc
 50
112.377644
 51
238.085987
  0
ARC
  5
41A
100
AcDbEntity
  8
2
100
AcDbCircle
 10
-209.088046
 20
385.391994
 30
0.0
 40
0.812361
100
AcDbArc
 50
100.675608
 51
180.0
  0
LINE
  5
41B
100
AcDbEntity
  8
2
100
AcDbLine
 10
-209.900407
 20
352.469326
 30
0.0
 11
-209.900407
 21
390.469326
 31
0.0
  0
LINE
  5
41C
100
AcDbEntity
  8
2
100
AcDbLine
 10
-207.400407
 20
388.971352
 30
0.0
 11
-207.400407
 21
403.232289
 31
0.0
  0
ARC
  5
41D
100
AcDbEntity
  8
2
100
AcDbCircle
 10
-210.400407
 20
398.861925
 30
0.0
 40
3.0
100
AcDbArc
 50
0.0
 51
58.085987
  0
ARC
  5
41E
100
AcDbEntity
  8
2
100
AcDbCircle
 10
-210.400407
 20
388.971352
 30
0.0
 40
3.0
100
AcDbArc
 50
290.135311
 51
360.0
  0
ARC
  5
41F
100
AcDbEntity
  8
2
100
AcDbCircle
 10
-199.19903
 20
414.553845
 30
0.0
 40
15.696848
100
AcDbArc
 50
102.284128
 51
123.145156
  0
ARC
  5
420
100
AcDbEntity
  8
2
100
AcDbCircle
 10
-199.281181
 20
390.663937
 30
0.0
 40
21.482429
100
AcDbArc
 50
96.14148
 51
114.857013
  0
LINE
  5
421
100
AcDbEntity
  8
2
100
AcDbLine
 10
-198.900407
 20
415.005855
 30
0.0
 11
-198.900407
 21
426.959992
 31
0.0
  0
ARC
  5
422
100
AcDbEntity
  8
2
100
AcDbCircle
 10
-201.900407
 20
426.959992
 30
0.0
 40
3.0
100
AcDbArc
 50
0.0
 51
102.284128
  0
ARC
  5
423
100
AcDbEntity
  8
2
100
AcDbCircle
 10
-201.900407
 20
415.005855
 30
0.0
 40
3.0
100
AcDbArc
 50
276.14148
 51
360.0
  0
ARC
  5
424
100
AcDbEntity
  8
2
100
AcDbCircle
 10
-207.159115
 20
407.668887
 30
0.0
 40
2.741293
100
AcDbArc
 50
114.857013
 51
180.0
  0
ARC
  5
425
100
AcDbEntity
  8
2
100
AcDbCircle
 10
-205.225297
 20
423.782214
 30
0.0
 40
4.67511
100
AcDbArc
 50
123.145156
 51
227.602374
  0
LINE
  5
426
100
AcDbEntity
  8
2
100
AcDbLine
 10
-207.400407
 20
410.552952
 30
0.0
 11
-207.400407
 21
424.892809
 31
0.0
  0
ARC
  5
427
100
AcDbEntity
  8
2
100
AcDbCircle
 10
-210.400407
 20
418.114273
 30
0.0
 40
3.0
100
AcDbArc
 50
0.0
 51
47.602374
  0
LINE
  5
428
100
AcDbEntity
  8
2
100
AcDbLine
 10
-209.900407
 20
403.364074
 30
0.0
 11
-209.900407
 21
407.668887
 31
0.0
  0
ARC
  5
429
100
AcDbEntity
  8
2
100
AcDbCircle
 10
-199.081104
 20
436.411847
 30
0.0
 40
12.773353
100
AcDbArc
 50
103.047521
 51
130.343373
  0
ARC
  5
42A
100
AcDbEntity
  8
2
100
AcDbCircle
 10
-199.175965
 20
419.525278
 30
0.0
 40
14.878639
100
AcDbArc
 50
98.765186
 51
124.843294
  0
LINE
  5
42B
100
AcDbEntity
  8
2
100
AcDbLine
 10
-198.900407
 20
437.195115
 30
0.0
 11
-198.900407
 21
446.419975
 31
0.0
  0
ARC
  5
42C
100
AcDbEntity
  8
2
100
AcDbCircle
 10
-201.900407
 20
437.195115
 30
0.0
 40
3.0
100
AcDbArc
 50
278.765186
 51
360.0
  0
ARC
  5
42D
100
AcDbEntity
  8
2
100
AcDbCircle
 10
-201.400407
 20
446.419975
 30
0.0
 40
2.5
100
AcDbArc
 50
0.0
 51
103.047521
  0
ARC
  5
42E
100
AcDbEntity
  8
2
100
AcDbCircle
 10
-202.668367
 20
440.635317
 30
0.0
 40
7.23204
100
AcDbArc
 50
130.343373
 51
220.9161
  0
ARC
  5
42F
100
AcDbEntity
  8
2
100
AcDbCircle
 10
-204.712753
 20
427.478841
 30
0.0
 40
5.187654
100
AcDbArc
 50
124.843294
 51
180.0
  0
LINE
  5
430
100
AcDbEntity
  8
2
100
AcDbLine
 10
-209.900407
 20
423.782214
 30
0.0
 11
-209.900407
 21
427.478841
 31
0.0
  0
LINE
  5
431
100
AcDbEntity
  8
2
100
AcDbLine
 10
-207.400407
 20
431.924167
 30
0.0
 11
-207.400407
 21
442.439366
 31
0.0
  0
ARC
  5
432
100
AcDbEntity
  8
2
100
AcDbCircle
 10
-210.400407
 20
433.933809
 30
0.0
 40
3.0
100
AcDbArc
 50
0.0
 51
40.9161
  0
LINE
  5
433
100
AcDbEntity
  8
2
100
AcDbLine
 10
-198.900407
 20
454.68725
 30
0.0
 11
-198.900407
 21
459.993307
 31
0.0
  0
LINE
  5
434
100
AcDbEntity
  8
2
100
AcDbLine
 10
-198.900407
 20
467.111587
 30
0.0
 11
-198.900407
 21
468.017426
 31
0.0
  0
ARC
  5
435
100
AcDbEntity
  8
2
100
AcDbCircle
 10
-198.975888
 20
451.274065
 30
0.0
 40
11.550053
100
AcDbArc
 50
105.539411
 51
134.747415
  0
ARC
  5
436
100
AcDbEntity
  8
2
100
AcDbCircle
 10
-199.058039
 20
439.932615
 30
0.0
 40
12.43941
100
AcDbArc
 50
99.020695
 51
131.426334
  0
ARC
  5
437
100
AcDbEntity
  8
2
100
AcDbCircle
 10
-201.400407
 20
459.993307
 30
0.0
 40
2.5
100
AcDbArc
 50
0.0
 51
105.539411
  0
ARC
  5
438
100
AcDbEntity
  8
2
100
AcDbCircle
 10
-201.400407
 20
454.68725
 30
0.0
 40
2.5
100
AcDbArc
 50
279.020695
 51
360.0
  0
ARC
  5
439
100
AcDbEntity
  8
2
100
AcDbCircle
 10
-202.181177
 20
443.471839
 30
0.0
 40
7.71923
100
AcDbArc
 50
131.426334
 51
180.0
  0
ARC
  5
43A
100
AcDbEntity
  8
2
100
AcDbCircle
 10
-200.46352
 20
452.774872
 30
0.0
 40
9.436887
100
AcDbArc
 50
134.747415
 51
211.319694
  0
LINE
  5
43B
100
AcDbEntity
  8
2
100
AcDbLine
 10
-209.900407
 20
440.635317
 30
0.0
 11
-209.900407
 21
443.471839
 31
0.0
  0
LINE
  5
43C
100
AcDbEntity
  8
2
100
AcDbLine
 10
-207.400407
 20
449.159206
 30
0.0
 11
-207.400407
 21
454.580262
 31
0.0
  0
ARC
  5
43D
100
AcDbEntity
  8
2
100
AcDbCircle
 10
-198.911573
 20
459.168249
 30
0.0
 40
11.069917
100
AcDbArc
 50
102.666639
 51
136.904828
  0
ARC
  5
43E
100
AcDbEntity
  8
2
100
AcDbCircle
 10
-198.959003
 20
453.417905
 30
0.0
 40
11.409614
100
AcDbArc
 50
100.108874
 51
135.345864
  0
ARC
  5
43F
100
AcDbEntity
  8
2
100
AcDbCircle
 10
-201.400407
 20
467.111587
 30
0.0
 40
2.5
100
AcDbArc
 50
280.108874
 51
360.0
  0
ARC
  5
440
100
AcDbEntity
  8
2
100
AcDbCircle
 10
-200.900407
 20
468.017426
 30
0.0
 40
2.0
100
AcDbArc
 50
0.0
 51
102.666639
  0
ARC
  5
441
100
AcDbEntity
  8
2
100
AcDbCircle
 10
-199.131041
 20
459.373589
 30
0.0
 40
10.769367
100
AcDbArc
 50
136.904828
 51
193.238025
  0
ARC
  5
442
100
AcDbEntity
  8
2
100
AcDbCircle
 10
-200.11293
 20
454.557984
 30
0.0
 40
9.787478
100
AcDbArc
 50
135.345864
 51
180.0
  0
LINE
  5
443
100
AcDbEntity
  8
2
100
AcDbLine
 10
-209.900407
 20
452.774872
 30
0.0
 11
-209.900407
 21
454.557984
 31
0.0
  0
LINE
  5
444
100
AcDbEntity
  8
2
100
AcDbLine
 10
-209.900407
 20
459.373589
 30
0.0
 11
-209.900407
 21
460.469326
 31
0.0
  0
ARC
  5
445
100
AcDbEntity
  8
2
100
AcDbCircle
 10
-198.900407
 20
374.933612
 30
0.0
 40
19.035714
100
AcDbArc
 50
116.52121
 51
125.300248
  0
ARC
  5
446
100
AcDbEntity
  8
2
100
AcDbCircle
 10
-198.900407
 20
368.005041
 30
0.0
 40
19.035714
100
AcDbArc
 50
234.699752
 51
243.47879
  0
ARC
  5
447
100
AcDbEntity
  8
2
100
AcDbCircle
 10
-198.900407
 20
282.469326
 30
0.0
 40
11.0
100
AcDbArc
 50
180.0
 51
360.0
  0
ARC
  5
448
100
AcDbEntity
  8
2
100
AcDbCircle
 10
-199.298066
 20
359.730501
 30
0.0
 40
24.10125
100
AcDbArc
 50
247.622356
 51
262.915882
  0
ARC
  5
449
100
AcDbEntity
  8
2
100
AcDbCircle
 10
-199.345496
 20
409.228237
 30
0.0
 40
53.404212
100
AcDbArc
 50
259.324392
 51
267.403816
  0
LINE
  5
44A
100
AcDbEntity
  8
2
100
AcDbLine
 10
-198.900407
 20
352.881919
 30
0.0
 11
-198.900407
 21
338.790334
 31
0.0
  0
ARC
  5
44B
100
AcDbEntity
  8
2
100
AcDbCircle
 10
-201.900407
 20
338.790334
 30
0.0
 40
3.0
100
AcDbArc
 50
262.915882
 51
360.0
  0
ARC
  5
44C
100
AcDbEntity
  8
2
100
AcDbCircle
 10
-201.900407
 20
352.881919
 30
0.0
 40
3.0
100
AcDbArc
 50
0.0
 51
87.403816
  0
ARC
  5
44D
100
AcDbEntity
  8
2
100
AcDbCircle
 10
-207.596538
 20
339.574579
 30
0.0
 40
2.303869
100
AcDbArc
 50
121.914013
 51
247.622356
  0
ARC
  5
44E
100
AcDbEntity
  8
2
100
AcDbCircle
 10
-209.088046
 20
357.546659
 30
0.0
 40
0.812361
100
AcDbArc
 50
180.0
 51
259.324392
  0
LINE
  5
44F
100
AcDbEntity
  8
2
100
AcDbLine
 10
-207.400407
 20
353.967301
 30
0.0
 11
-207.400407
 21
339.706363
 31
0.0
  0
ARC
  5
450
100
AcDbEntity
  8
2
100
AcDbCircle
 10
-210.400407
 20
344.076728
 30
0.0
 40
3.0
100
AcDbArc
 50
301.914013
 51
360.0
  0
ARC
  5
451
100
AcDbEntity
  8
2
100
AcDbCircle
 10
-210.400407
 20
353.967301
 30
0.0
 40
3.0
100
AcDbArc
 50
0.0
 51
69.864689
  0
ARC
  5
452
100
AcDbEntity
  8
2
100
AcDbCircle
 10
-199.19903
 20
328.384808
 30
0.0
 40
15.696848
100
AcDbArc
 50
236.854844
 51
257.715872
  0
ARC
  5
453
100
AcDbEntity
  8
2
100
AcDbCircle
 10
-199.281181
 20
352.274716
 30
0.0
 40
21.482429
100
AcDbArc
 50
245.142987
 51
263.85852
  0
LINE
  5
454
100
AcDbEntity
  8
2
100
AcDbLine
 10
-198.900407
 20
327.932798
 30
0.0
 11
-198.900407
 21
315.97866
 31
0.0
  0
ARC
  5
455
100
AcDbEntity
  8
2
100
AcDbCircle
 10
-201.900407
 20
315.97866
 30
0.0
 40
3.0
100
AcDbArc
 50
257.715872
 51
360.0
  0
ARC
  5
456
100
AcDbEntity
  8
2
100
AcDbCircle
 10
-201.900407
 20
327.932798
 30
0.0
 40
3.0
100
AcDbArc
 50
0.0
 51
83.85852
  0
ARC
  5
457
100
AcDbEntity
  8
2
100
AcDbCircle
 10
-207.159115
 20
335.269765
 30
0.0
 40
2.741293
100
AcDbArc
 50
180.0
 51
245.142987
  0
ARC
  5
458
100
AcDbEntity
  8
2
100
AcDbCircle
 10
-205.225297
 20
319.156439
 30
0.0
 40
4.67511
100
AcDbArc
 50
132.397626
 51
236.854844
  0
LINE
  5
459
100
AcDbEntity
  8
2
100
AcDbLine
 10
-207.400407
 20
332.385701
 30
0.0
 11
-207.400407
 21
318.045843
 31
0.0
  0
ARC
  5
45A
100
AcDbEntity
  8
2
100
AcDbCircle
 10
-210.400407
 20
324.82438
 30
0.0
 40
3.0
100
AcDbArc
 50
312.397626
 51
360.0
  0
LINE
  5
45B
100
AcDbEntity
  8
2
100
AcDbLine
 10
-209.900407
 20
339.574579
 30
0.0
 11
-209.900407
 21
335.269765
 31
0.0
  0
ARC
  5
45C
100
AcDbEntity
  8
2
100
AcDbCircle
 10
-199.081104
 20
306.526805
 30
0.0
 40
12.773353
100
AcDbArc
 50
229.656627
 51
256.952479
  0
ARC
  5
45D
100
AcDbEntity
  8
2
100
AcDbCircle
 10
-199.175965
 20
323.413375
 30
0.0
 40
14.878639
100
AcDbArc
 50
235.156706
 51
261.234814
  0
LINE
  5
45E
100
AcDbEntity
  8
2
100
AcDbLine
 10
-198.900407
 20
305.743537
 30
0.0
 11
-198.900407
 21
296.518677
 31
0.0
  0
ARC
  5
45F
100
AcDbEntity
  8
2
100
AcDbCircle
 10
-201.900407
 20
305.743537
 30
0.0
 40
3.0
100
AcDbArc
 50
0.0
 51
81.234814
  0
ARC
  5
460
100
AcDbEntity
  8
2
100
AcDbCircle
 10
-201.400407
 20
296.518677
 30
0.0
 40
2.5
100
AcDbArc
 50
256.952479
 51
360.0
  0
ARC
  5
461
100
AcDbEntity
  8
2
100
AcDbCircle
 10
-202.668367
 20
302.303336
 30
0.0
 40
7.23204
100
AcDbArc
 50
139.0839
 51
229.656627
  0
ARC
  5
462
100
AcDbEntity
  8
2
100
AcDbCircle
 10
-204.712753
 20
315.459811
 30
0.0
 40
5.187654
100
AcDbArc
 50
180.0
 51
235.156706
  0
LINE
  5
463
100
AcDbEntity
  8
2
100
AcDbLine
 10
-209.900407
 20
319.156439
 30
0.0
 11
-209.900407
 21
315.459811
 31
0.0
  0
LINE
  5
464
100
AcDbEntity
  8
2
100
AcDbLine
 10
-207.400407
 20
311.014485
 30
0.0
 11
-207.400407
 21
300.499286
 31
0.0
  0
ARC
  5
465
100
AcDbEntity
  8
2
100
AcDbCircle
 10
-210.400407
 20
309.004843
 30
0.0
 40
3.0
100
AcDbArc
 50
319.0839
 51
360.0
  0
LINE
  5
466
100
AcDbEntity
  8
2
100
AcDbLine
 10
-198.900407
 20
288.251402
 30
0.0
 11
-198.900407
 21
282.945346
 31
0.0
  0
LINE
  5
467
100
AcDbEntity
  8
2
100
AcDbLine
 10
-198.900407
 20
275.827066
 30
0.0
 11
-198.900407
 21
274.921227
 31
0.0
  0
ARC
  5
468
100
AcDbEntity
  8
2
100
AcDbCircle
 10
-198.975888
 20
291.664587
 30
0.0
 40
11.550053
100
AcDbArc
 50
225.252585
 51
254.460589
  0
ARC
  5
469
100
AcDbEntity
  8
2
100
AcDbCircle
 10
-199.058039
 20
303.006038
 30
0.0
 40
12.43941
100
AcDbArc
 50
228.573666
 51
260.979305
  0
ARC
  5
46A
100
AcDbEntity
  8
2
100
AcDbCircle
 10
-201.400407
 20
282.945346
 30
0.0
 40
2.5
100
AcDbArc
 50
254.460589
 51
360.0
  0
ARC
  5
46B
100
AcDbEntity
  8
2
100
AcDbCircle
 10
-201.400407
 20
288.251402
 30
0.0
 40
2.5
100
AcDbArc
 50
0.0
 51
80.979305
  0
ARC
  5
46C
100
AcDbEntity
  8
2
100
AcDbCircle
 10
-202.181177
 20
299.466814
 30
0.0
 40
7.71923
100
AcDbArc
 50
180.0
 51
228.573666
  0
ARC
  5
46D
100
AcDbEntity
  8
2
100
AcDbCircle
 10
-200.46352
 20
290.163781
 30
0.0
 40
9.436887
100
AcDbArc
 50
148.680306
 51
225.252585
  0
LINE
  5
46E
100
AcDbEntity
  8
2
100
AcDbLine
 10
-209.900407
 20
302.303336
 30
0.0
 11
-209.900407
 21
299.466814
 31
0.0
  0
LINE
  5
46F
100
AcDbEntity
  8
2
100
AcDbLine
 10
-207.400407
 20
293.779446
 30
0.0
 11
-207.400407
 21
288.358391
 31
0.0
  0
ARC
  5
470
100
AcDbEntity
  8
2
100
AcDbCircle
 10
-198.911573
 20
283.770404
 30
0.0
 40
11.069917
100
AcDbArc
 50
223.095172
 51
257.333361
  0
ARC
  5
471
100
AcDbEntity
  8
2
100
AcDbCircle
 10
-198.959003
 20
289.520747
 30
0.0
 40
11.409614
100
AcDbArc
 50
224.654136
 51
259.891126
  0
ARC
  5
472
100
AcDbEntity
  8
2
100
AcDbCircle
 10
-201.400407
 20
275.827066
 30
0.0
 40
2.5
100
AcDbArc
 50
0.0
 51
79.891126
  0
ARC
  5
473
100
AcDbEntity
  8
2
100
AcDbCircle
 10
-200.900407
 20
274.921227
 30
0.0
 40
2.0
100
AcDbArc
 50
257.333361
 51
360.0
  0
ARC
  5
474
100
AcDbEntity
  8
2
100
AcDbCircle
 10
-199.131041
 20
283.565064
 30
0.0
 40
10.769367
100
AcDbArc
 50
166.761975
 51
223.095172
  0
ARC
  5
475
100
AcDbEntity
  8
2
100
AcDbCircle
 10
-200.11293
 20
288.380668
 30
0.0
 40
9.787478
100
AcDbArc
 50
180.0
 51
224.654136
  0
LINE
  5
476
100
AcDbEntity
  8
2
100
AcDbLine
 10
-209.900407
 20
290.163781
 30
0.0
 11
-209.900407
 21
288.380668
 31
0.0
  0
LINE
  5
477
100
AcDbEntity
  8
2
100
AcDbLine
 10
-209.900407
 20
283.565064
 30
0.0
 11
-209.900407
 21
282.469326
 31
0.0
  0
LINE
  5
478
100
AcDbEntity
  8
2
100
AcDbLine
 10
-185.900407
 20
391.469326
 30
0.0
 11
-185.900407
 21
351.469326
 31
0.0
  0
LINE
  5
479
100
AcDbEntity
  8
2
100
AcDbLine
 10
-187.900407
 20
391.469326
 30
0.0
 11
-185.400407
 21
391.469326
 31
0.0
  0
LINE
  5
47A
100
AcDbEntity
  8
2
100
AcDbLine
 10
-187.900407
 20
351.469326
 30
0.0
 11
-185.400407
 21
351.469326
 31
0.0
  0
LINE
  5
47B
100
AcDbEntity
  8
2
100
AcDbLine
 10
-185.400407
 20
391.469326
 30
0.0
 11
-185.400407
 21
351.469326
 31
0.0
  0
LINE
  5
47C
100
AcDbEntity
  8
2
100
AcDbLine
 10
-183.400407
 20
378.969326
 30
0.0
 11
-178.622095
 21
378.969326
 31
0.0
  0
LINE
  5
47D
100
AcDbEntity
  8
2
100
AcDbLine
 10
-178.622095
 20
378.969326
 30
0.0
 11
-177.900407
 21
377.719326
 31
0.0
  0
LINE
  5
47E
100
AcDbEntity
  8
2
100
AcDbLine
 10
-183.400407
 20
375.219326
 30
0.0
 11
-178.622095
 21
375.219326
 31
0.0
  0
ARC
  5
47F
100
AcDbEntity
  8
2
100
AcDbCircle
 10
-181.032471
 20
377.094326
 30
0.0
 40
3.053774
100
AcDbArc
 50
322.121121
 51
37.878879
  0
ARC
  5
480
100
AcDbEntity
  8
2
100
AcDbCircle
 10
-189.228697
 20
371.469326
 30
0.0
 40
11.25
100
AcDbArc
 50
340.528779
 51
19.471221
  0
LINE
  5
481
100
AcDbEntity
  8
2
100
AcDbLine
 10
-183.400407
 20
363.969326
 30
0.0
 11
-178.622095
 21
363.969326
 31
0.0
  0
LINE
  5
482
100
AcDbEntity
  8
2
100
AcDbLine
 10
-178.622095
 20
363.969326
 30
0.0
 11
-177.900407
 21
365.219326
 31
0.0
  0
LINE
  5
483
100
AcDbEntity
  8
2
100
AcDbLine
 10
-177.900407
 20
365.219326
 30
0.0
 11
-177.900407
 21
377.719326
 31
0.0
  0
LINE
  5
484
100
AcDbEntity
  8
2
100
AcDbLine
 10
-183.400407
 20
367.719326
 30
0.0
 11
-178.622095
 21
367.719326
 31
0.0
  0
ARC
  5
485
100
AcDbEntity
  8
2
100
AcDbCircle
 10
-181.032471
 20
365.844326
 30
0.0
 40
3.053774
100
AcDbArc
 50
322.121121
 51
37.878879
  0
LINE
  5
486
100
AcDbEntity
  8
2
100
AcDbLine
 10
-185.400407
 20
379.169326
 30
0.0
 11
-183.400407
 21
379.169326
 31
0.0
  0
LINE
  5
487
100
AcDbEntity
  8
2
100
AcDbLine
 10
-183.400407
 20
379.169326
 30
0.0
 11
-183.400407
 21
363.769326
 31
0.0
  0
LINE
  5
488
100
AcDbEntity
  8
2
100
AcDbLine
 10
-183.400407
 20
363.769326
 30
0.0
 11
-185.400407
 21
363.769326
 31
0.0
  0
LINE
  5
489
100
AcDbEntity
  8
2
100
AcDbLine
 10
-183.400407
 20
371.469326
 30
0.0
 11
-185.400407
 21
370.969326
 31
0.0
  0
LINE
  5
48A
100
AcDbEntity
  8
2
100
AcDbLine
 10
-185.400407
 20
371.469326
 30
0.0
 11
-183.400407
 21
371.969326
 31
0.0
  0
LINE
  5
48B
100
AcDbEntity
  8
2
100
AcDbLine
 10
-315.900407
 20
363.469326
 30
0.0
 11
-209.900407
 21
363.469326
 31
0.0
  0
LINE
  5
48C
100
AcDbEntity
  8
2
100
AcDbLine
 10
-315.900407
 20
379.469326
 30
0.0
 11
-209.900407
 21
379.469326
 31
0.0
  0
LINE
  5
48D
100
AcDbEntity
  8
2
100
AcDbLine
 10
-311.900407
 20
63.926623
 30
0.0
 11
-209.900407
 21
63.926623
 31
0.0
  0
LINE
  5
48E
100
AcDbEntity
  8
2
100
AcDbLine
 10
-311.900407
 20
47.926623
 30
0.0
 11
-209.900407
 21
47.926623
 31
0.0
  0
LINE
  5
48F
100
AcDbEntity
  8
2
100
AcDbLine
 10
-187.900407
 20
144.926623
 30
0.0
 11
-187.900407
 21
-33.073377
 31
0.0
  0
ARC
  5
490
100
AcDbEntity
  8
2
100
AcDbCircle
 10
-198.900407
 20
144.926623
 30
0.0
 40
11.0
100
AcDbArc
 50
0.0
 51
180.0
  0
ARC
  5
491
100
AcDbEntity
  8
2
100
AcDbCircle
 10
-199.351677
 20
-13.189558
 30
0.0
 40
79.570307
100
AcDbArc
 50
91.907508
 51
97.294014
  0
ARC
  5
492
100
AcDbEntity
  8
2
100
AcDbCircle
 10
-199.351677
 20
125.042803
 30
0.0
 40
79.570307
100
AcDbArc
 50
262.705986
 51
268.092492
  0
LINE
  5
493
100
AcDbEntity
  8
2
100
AcDbLine
 10
-198.900407
 20
48.514927
 30
0.0
 11
-198.900407
 21
63.338318
 31
0.0
  0
ARC
  5
494
100
AcDbEntity
  8
2
100
AcDbCircle
 10
-201.900407
 20
63.338318
 30
0.0
 40
3.0
100
AcDbArc
 50
0.0
 51
91.907508
  0
ARC
  5
495
100
AcDbEntity
  8
2
100
AcDbCircle
 10
-201.900407
 20
48.514927
 30
0.0
 40
3.0
100
AcDbArc
 50
268.092492
 51
360.0
  0
ARC
  5
496
100
AcDbEntity
  8
2
100
AcDbCircle
 10
-209.389083
 20
46.623589
 30
0.0
 40
0.511325
100
AcDbArc
 50
106.739333
 51
262.705986
  0
ARC
  5
497
100
AcDbEntity
  8
2
100
AcDbCircle
 10
-209.389083
 20
65.229656
 30
0.0
 40
0.511325
100
AcDbArc
 50
97.294014
 51
253.260667
  0
LINE
  5
498
100
AcDbEntity
  8
2
100
AcDbLine
 10
-207.400407
 20
49.986122
 30
0.0
 11
-207.400407
 21
61.867124
 31
0.0
  0
ARC
  5
499
100
AcDbEntity
  8
2
100
AcDbCircle
 10
-210.400407
 20
61.867124
 30
0.0
 40
3.0
100
AcDbArc
 50
0.0
 51
73.260667
  0
ARC
  5
49A
100
AcDbEntity
  8
2
100
AcDbCircle
 10
-210.400407
 20
49.986122
 30
0.0
 40
3.0
100
AcDbArc
 50
286.739333
 51
360.0
  0
ARC
  5
49B
100
AcDbEntity
  8
2
100
AcDbCircle
 10
-199.298066
 20
67.665448
 30
0.0
 40
24.10125
100
AcDbArc
 50
97.084118
 51
112.377644
  0
ARC
  5
49C
100
AcDbEntity
  8
2
100
AcDbCircle
 10
-199.345496
 20
18.167712
 30
0.0
 40
53.404212
100
AcDbArc
 50
92.596184
 51
100.675608
  0
LINE
  5
49D
100
AcDbEntity
  8
2
100
AcDbLine
 10
-198.900407
 20
74.51403
 30
0.0
 11
-198.900407
 21
88.605615
 31
0.0
  0
ARC
  5
49E
100
AcDbEntity
  8
2
100
AcDbCircle
 10
-201.900407
 20
88.605615
 30
0.0
 40
3.0
100
AcDbArc
 50
0.0
 51
97.084118
  0
ARC
  5
49F
100
AcDbEntity
  8
2
100
AcDbCircle
 10
-201.900407
 20
74.51403
 30
0.0
 40
3.0
100
AcDbArc
 50
272.596184
 51
360.0
  0
ARC
  5
4A0
100
AcDbEntity
  8
2
100
AcDbCircle
 10
-207.596538
 20
87.82137
 30
0.0
 40
2.303869
100
AcDbArc
 50
112.377644
 51
238.085987
  0
ARC
  5
4A1
100
AcDbEntity
  8
2
100
AcDbCircle
 10
-209.088046
 20
69.84929
 30
0.0
 40
0.812361
100
AcDbArc
 50
100.675608
 51
180.0
  0
LINE
  5
4A2
100
AcDbEntity
  8
2
100
AcDbLine
 10
-209.900407
 20
36.926623
 30
0.0
 11
-209.900407
 21
74.926623
 31
0.0
  0
LINE
  5
4A3
100
AcDbEntity
  8
2
100
AcDbLine
 10
-207.400407
 20
73.428648
 30
0.0
 11
-207.400407
 21
87.689586
 31
0.0
  0
ARC
  5
4A4
100
AcDbEntity
  8
2
100
AcDbCircle
 10
-210.400407
 20
83.319221
 30
0.0
 40
3.0
100
AcDbArc
 50
0.0
 51
58.085987
  0
ARC
  5
4A5
100
AcDbEntity
  8
2
100
AcDbCircle
 10
-210.400407
 20
73.428648
 30
0.0
 40
3.0
100
AcDbArc
 50
290.135311
 51
360.0
  0
ARC
  5
4A6
100
AcDbEntity
  8
2
100
AcDbCircle
 10
-199.19903
 20
99.011141
 30
0.0
 40
15.696848
100
AcDbArc
 50
102.284128
 51
123.145156
  0
ARC
  5
4A7
100
AcDbEntity
  8
2
100
AcDbCircle
 10
-199.281181
 20
75.121233
 30
0.0
 40
21.482429
100
AcDbArc
 50
96.14148
 51
114.857013
  0
LINE
  5
4A8
100
AcDbEntity
  8
2
100
AcDbLine
 10
-198.900407
 20
99.463151
 30
0.0
 11
-198.900407
 21
111.417289
 31
0.0
  0
ARC
  5
4A9
100
AcDbEntity
  8
2
100
AcDbCircle
 10
-201.900407
 20
111.417289
 30
0.0
 40
3.0
100
AcDbArc
 50
0.0
 51
102.284128
  0
ARC
  5
4AA
100
AcDbEntity
  8
2
100
AcDbCircle
 10
-201.900407
 20
99.463151
 30
0.0
 40
3.0
100
AcDbArc
 50
276.14148
 51
360.0
  0
ARC
  5
4AB
100
AcDbEntity
  8
2
100
AcDbCircle
 10
-207.159115
 20
92.126184
 30
0.0
 40
2.741293
100
AcDbArc
 50
114.857013
 51
180.0
  0
ARC
  5
4AC
100
AcDbEntity
  8
2
100
AcDbCircle
 10
-205.225297
 20
108.23951
 30
0.0
 40
4.67511
100
AcDbArc
 50
123.145156
 51
227.602374
  0
LINE
  5
4AD
100
AcDbEntity
  8
2
100
AcDbLine
 10
-207.400407
 20
95.010248
 30
0.0
 11
-207.400407
 21
109.350106
 31
0.0
  0
ARC
  5
4AE
100
AcDbEntity
  8
2
100
AcDbCircle
 10
-210.400407
 20
102.571569
 30
0.0
 40
3.0
100
AcDbArc
 50
0.0
 51
47.602374
  0
LINE
  5
4AF
100
AcDbEntity
  8
2
100
AcDbLine
 10
-209.900407
 20
87.82137
 30
0.0
 11
-209.900407
 21
92.126184
 31
0.0
  0
ARC
  5
4B0
100
AcDbEntity
  8
2
100
AcDbCircle
 10
-199.081104
 20
120.869144
 30
0.0
 40
12.773353
100
AcDbArc
 50
103.047521
 51
130.343373
  0
ARC
  5
4B1
100
AcDbEntity
  8
2
100
AcDbCircle
 10
-199.175965
 20
103.982574
 30
0.0
 40
14.878639
100
AcDbArc
 50
98.765186
 51
124.843294
  0
LINE
  5
4B2
100
AcDbEntity
  8
2
100
AcDbLine
 10
-198.900407
 20
121.652412
 30
0.0
 11
-198.900407
 21
130.877271
 31
0.0
  0
ARC
  5
4B3
100
AcDbEntity
  8
2
100
AcDbCircle
 10
-201.900407
 20
121.652412
 30
0.0
 40
3.0
100
AcDbArc
 50
278.765186
 51
360.0
  0
ARC
  5
4B4
100
AcDbEntity
  8
2
100
AcDbCircle
 10
-201.400407
 20
130.877271
 30
0.0
 40
2.5
100
AcDbArc
 50
0.0
 51
103.047521
  0
ARC
  5
4B5
100
AcDbEntity
  8
2
100
AcDbCircle
 10
-202.668367
 20
125.092613
 30
0.0
 40
7.23204
100
AcDbArc
 50
130.343373
 51
220.9161
  0
ARC
  5
4B6
100
AcDbEntity
  8
2
100
AcDbCircle
 10
-204.712753
 20
111.936137
 30
0.0
 40
5.187654
100
AcDbArc
 50
124.843294
 51
180.0
  0
LINE
  5
4B7
100
AcDbEntity
  8
2
100
AcDbLine
 10
-209.900407
 20
108.23951
 30
0.0
 11
-209.900407
 21
111.936137
 31
0.0
  0
LINE
  5
4B8
100
AcDbEntity
  8
2
100
AcDbLine
 10
-207.400407
 20
116.381464
 30
0.0
 11
-207.400407
 21
126.896662
 31
0.0
  0
ARC
  5
4B9
100
AcDbEntity
  8
2
100
AcDbCircle
 10
-210.400407
 20
118.391106
 30
0.0
 40
3.0
100
AcDbArc
 50
0.0
 51
40.9161
  0
LINE
  5
4BA
100
AcDbEntity
  8
2
100
AcDbLine
 10
-198.900407
 20
139.144547
 30
0.0
 11
-198.900407
 21
144.450603
 31
0.0
  0
LINE
  5
4BB
100
AcDbEntity
  8
2
100
AcDbLine
 10
-198.900407
 20
151.568883
 30
0.0
 11
-198.900407
 21
152.474722
 31
0.0
  0
ARC
  5
4BC
100
AcDbEntity
  8
2
100
AcDbCircle
 10
-198.975888
 20
135.731362
 30
0.0
 40
11.550053
100
AcDbArc
 50
105.539411
 51
134.747415
  0
ARC
  5
4BD
100
AcDbEntity
  8
2
100
AcDbCircle
 10
-199.058039
 20
124.389911
 30
0.0
 40
12.43941
100
AcDbArc
 50
99.020695
 51
131.426334
  0
ARC
  5
4BE
100
AcDbEntity
  8
2
100
AcDbCircle
 10
-201.400407
 20
144.450603
 30
0.0
 40
2.5
100
AcDbArc
 50
0.0
 51
105.539411
  0
ARC
  5
4BF
100
AcDbEntity
  8
2
100
AcDbCircle
 10
-201.400407
 20
139.144547
 30
0.0
 40
2.5
100
AcDbArc
 50
279.020695
 51
360.0
  0
ARC
  5
4C0
100
AcDbEntity
  8
2
100
AcDbCircle
 10
-202.181177
 20
127.929135
 30
0.0
 40
7.71923
100
AcDbArc
 50
131.426334
 51
180.0
  0
ARC
  5
4C1
100
AcDbEntity
  8
2
100
AcDbCircle
 10
-200.46352
 20
137.232168
 30
0.0
 40
9.436887
100
AcDbArc
 50
134.747415
 51
211.319694
  0
LINE
  5
4C2
100
AcDbEntity
  8
2
100
AcDbLine
 10
-209.900407
 20
125.092613
 30
0.0
 11
-209.900407
 21
127.929135
 31
0.0
  0
LINE
  5
4C3
100
AcDbEntity
  8
2
100
AcDbLine
 10
-207.400407
 20
133.616503
 30
0.0
 11
-207.400407
 21
139.037558
 31
0.0
  0
ARC
  5
4C4
100
AcDbEntity
  8
2
100
AcDbCircle
 10
-198.911573
 20
143.625545
 30
0.0
 40
11.069917
100
AcDbArc
 50
102.666639
 51
136.904828
  0
ARC
  5
4C5
100
AcDbEntity
  8
2
100
AcDbCircle
 10
-198.959003
 20
137.875202
 30
0.0
 40
11.409614
100
AcDbArc
 50
100.108874
 51
135.345864
  0
ARC
  5
4C6
100
AcDbEntity
  8
2
100
AcDbCircle
 10
-201.400407
 20
151.568883
 30
0.0
 40
2.5
100
AcDbArc
 50
280.108874
 51
360.0
  0
ARC
  5
4C7
100
AcDbEntity
  8
2
100
AcDbCircle
 10
-200.900407
 20
152.474722
 30
0.0
 40
2.0
100
AcDbArc
 50
0.0
 51
102.666639
  0
ARC
  5
4C8
100
AcDbEntity
  8
2
100
AcDbCircle
 10
-199.131041
 20
143.830885
 30
0.0
 40
10.769367
100
AcDbArc
 50
136.904828
 51
193.238025
  0
ARC
  5
4C9
100
AcDbEntity
  8
2
100
AcDbCircle
 10
-200.11293
 20
139.015281
 30
0.0
 40
9.787478
100
AcDbArc
 50
135.345864
 51
180.0
  0
LINE
  5
4CA
100
AcDbEntity
  8
2
100
AcDbLine
 10
-209.900407
 20
137.232168
 30
0.0
 11
-209.900407
 21
139.015281
 31
0.0
  0
LINE
  5
4CB
100
AcDbEntity
  8
2
100
AcDbLine
 10
-209.900407
 20
143.830885
 30
0.0
 11
-209.900407
 21
144.926623
 31
0.0
  0
ARC
  5
4CC
100
AcDbEntity
  8
2
100
AcDbCircle
 10
-198.900407
 20
59.390908
 30
0.0
 40
19.035714
100
AcDbArc
 50
116.52121
 51
125.300248
  0
ARC
  5
4CD
100
AcDbEntity
  8
2
100
AcDbCircle
 10
-198.900407
 20
52.462337
 30
0.0
 40
19.035714
100
AcDbArc
 50
234.699752
 51
243.47879
  0
ARC
  5
4CE
100
AcDbEntity
  8
2
100
AcDbCircle
 10
-199.298066
 20
44.187797
 30
0.0
 40
24.10125
100
AcDbArc
 50
247.622356
 51
262.915882
  0
ARC
  5
4CF
100
AcDbEntity
  8
2
100
AcDbCircle
 10
-199.345496
 20
93.685533
 30
0.0
 40
53.404212
100
AcDbArc
 50
259.324392
 51
267.403816
  0
LINE
  5
4D0
100
AcDbEntity
  8
2
100
AcDbLine
 10
-198.900407
 20
37.339215
 30
0.0
 11
-198.900407
 21
23.24763
 31
0.0
  0
ARC
  5
4D1
100
AcDbEntity
  8
2
100
AcDbCircle
 10
-201.900407
 20
23.24763
 30
0.0
 40
3.0
100
AcDbArc
 50
262.915882
 51
360.0
  0
ARC
  5
4D2
100
AcDbEntity
  8
2
100
AcDbCircle
 10
-201.900407
 20
37.339215
 30
0.0
 40
3.0
100
AcDbArc
 50
0.0
 51
87.403816
  0
ARC
  5
4D3
100
AcDbEntity
  8
2
100
AcDbCircle
 10
-207.596538
 20
24.031875
 30
0.0
 40
2.303869
100
AcDbArc
 50
121.914013
 51
247.622356
  0
ARC
  5
4D4
100
AcDbEntity
  8
2
100
AcDbCircle
 10
-209.088046
 20
42.003955
 30
0.0
 40
0.812361
100
AcDbArc
 50
180.0
 51
259.324392
  0
LINE
  5
4D5
100
AcDbEntity
  8
2
100
AcDbLine
 10
-207.400407
 20
38.424597
 30
0.0
 11
-207.400407
 21
24.16366
 31
0.0
  0
ARC
  5
4D6
100
AcDbEntity
  8
2
100
AcDbCircle
 10
-210.400407
 20
28.534024
 30
0.0
 40
3.0
100
AcDbArc
 50
301.914013
 51
360.0
  0
ARC
  5
4D7
100
AcDbEntity
  8
2
100
AcDbCircle
 10
-210.400407
 20
38.424597
 30
0.0
 40
3.0
100
AcDbArc
 50
0.0
 51
69.864689
  0
ARC
  5
4D8
100
AcDbEntity
  8
2
100
AcDbCircle
 10
-199.19903
 20
12.842104
 30
0.0
 40
15.696848
100
AcDbArc
 50
236.854844
 51
257.715872
  0
ARC
  5
4D9
100
AcDbEntity
  8
2
100
AcDbCircle
 10
-199.281181
 20
36.732012
 30
0.0
 40
21.482429
100
AcDbArc
 50
245.142987
 51
263.85852
  0
LINE
  5
4DA
100
AcDbEntity
  8
2
100
AcDbLine
 10
-198.900407
 20
12.390094
 30
0.0
 11
-198.900407
 21
0.435957
 31
0.0
  0
ARC
  5
4DB
100
AcDbEntity
  8
2
100
AcDbCircle
 10
-201.900407
 20
0.435957
 30
0.0
 40
3.0
100
AcDbArc
 50
257.715872
 51
360.0
  0
ARC
  5
4DC
100
AcDbEntity
  8
2
100
AcDbCircle
 10
-201.900407
 20
12.390094
 30
0.0
 40
3.0
100
AcDbArc
 50
0.0
 51
83.85852
  0
ARC
  5
4DD
100
AcDbEntity
  8
2
100
AcDbCircle
 10
-207.159115
 20
19.727061
 30
0.0
 40
2.741293
100
AcDbArc
 50
180.0
 51
245.142987
  0
ARC
  5
4DE
100
AcDbEntity
  8
2
100
AcDbCircle
 10
-205.225297
 20
3.613735
 30
0.0
 40
4.67511
100
AcDbArc
 50
132.397626
 51
236.854844
  0
LINE
  5
4DF
100
AcDbEntity
  8
2
100
AcDbLine
 10
-207.400407
 20
16.842997
 30
0.0
 11
-207.400407
 21
2.503139
 31
0.0
  0
ARC
  5
4E0
100
AcDbEntity
  8
2
100
AcDbCircle
 10
-210.400407
 20
9.281676
 30
0.0
 40
3.0
100
AcDbArc
 50
312.397626
 51
360.0
  0
LINE
  5
4E1
100
AcDbEntity
  8
2
100
AcDbLine
 10
-209.900407
 20
24.031875
 30
0.0
 11
-209.900407
 21
19.727061
 31
0.0
  0
ARC
  5
4E2
100
AcDbEntity
  8
2
100
AcDbCircle
 10
-199.081104
 20
-9.015898
 30
0.0
 40
12.773353
100
AcDbArc
 50
229.656627
 51
256.952479
  0
ARC
  5
4E3
100
AcDbEntity
  8
2
100
AcDbCircle
 10
-199.175965
 20
7.870671
 30
0.0
 40
14.878639
100
AcDbArc
 50
235.156706
 51
261.234814
  0
LINE
  5
4E4
100
AcDbEntity
  8
2
100
AcDbLine
 10
-198.900407
 20
-9.799167
 30
0.0
 11
-198.900407
 21
-19.024026
 31
0.0
  0
ARC
  5
4E5
100
AcDbEntity
  8
2
100
AcDbCircle
 10
-201.900407
 20
-9.799167
 30
0.0
 40
3.0
100
AcDbArc
 50
0.0
 51
81.234814
  0
ARC
  5
4E6
100
AcDbEntity
  8
2
100
AcDbCircle
 10
-201.400407
 20
-19.024026
 30
0.0
 40
2.5
100
AcDbArc
 50
256.952479
 51
360.0
  0
ARC
  5
4E7
100
AcDbEntity
  8
2
100
AcDbCircle
 10
-202.668367
 20
-13.239368
 30
0.0
 40
7.23204
100
AcDbArc
 50
139.0839
 51
229.656627
  0
ARC
  5
4E8
100
AcDbEntity
  8
2
100
AcDbCircle
 10
-204.712753
 20
-0.082892
 30
0.0
 40
5.187654
100
AcDbArc
 50
180.0
 51
235.156706
  0
LINE
  5
4E9
100
AcDbEntity
  8
2
100
AcDbLine
 10
-209.900407
 20
3.613735
 30
0.0
 11
-209.900407
 21
-0.082892
 31
0.0
  0
LINE
  5
4EA
100
AcDbEntity
  8
2
100
AcDbLine
 10
-207.400407
 20
-4.528218
 30
0.0
 11
-207.400407
 21
-15.043417
 31
0.0
  0
ARC
  5
4EB
100
AcDbEntity
  8
2
100
AcDbCircle
 10
-210.400407
 20
-6.537861
 30
0.0
 40
3.0
100
AcDbArc
 50
319.0839
 51
360.0
  0
ARC
  5
4EC
100
AcDbEntity
  8
2
100
AcDbCircle
 10
-199.058039
 20
-12.536666
 30
0.0
 40
12.43941
100
AcDbArc
 50
228.573666
 51
260.979305
  0
ARC
  5
4ED
100
AcDbEntity
  8
2
100
AcDbCircle
 10
-202.181177
 20
-16.07589
 30
0.0
 40
7.71923
100
AcDbArc
 50
180.0
 51
228.573666
  0
ARC
  5
4EE
100
AcDbEntity
  8
2
100
AcDbCircle
 10
-200.46352
 20
-25.378923
 30
0.0
 40
9.436887
100
AcDbArc
 50
148.680306
 51
225.252585
  0
LINE
  5
4EF
100
AcDbEntity
  8
2
100
AcDbLine
 10
-209.900407
 20
-13.239368
 30
0.0
 11
-209.900407
 21
-16.07589
 31
0.0
  0
LINE
  5
4F0
100
AcDbEntity
  8
2
100
AcDbLine
 10
-207.400407
 20
-21.763257
 30
0.0
 11
-207.400407
 21
-27.184313
 31
0.0
  0
LINE
  5
4F1
100
AcDbEntity
  8
2
100
AcDbLine
 10
-185.900407
 20
75.926623
 30
0.0
 11
-185.900407
 21
35.926623
 31
0.0
  0
LINE
  5
4F2
100
AcDbEntity
  8
2
100
AcDbLine
 10
-187.900407
 20
75.926623
 30
0.0
 11
-185.400407
 21
75.926623
 31
0.0
  0
LINE
  5
4F3
100
AcDbEntity
  8
2
100
AcDbLine
 10
-187.900407
 20
35.926623
 30
0.0
 11
-185.400407
 21
35.926623
 31
0.0
  0
LINE
  5
4F4
100
AcDbEntity
  8
2
100
AcDbLine
 10
-185.400407
 20
75.926623
 30
0.0
 11
-185.400407
 21
35.926623
 31
0.0
  0
LINE
  5
4F5
100
AcDbEntity
  8
2
100
AcDbLine
 10
-183.400407
 20
62.426623
 30
0.0
 11
-177.900407
 21
62.426623
 31
0.0
  0
ARC
  5
4F6
100
AcDbEntity
  8
2
100
AcDbCircle
 10
-185.579166
 20
59.176623
 30
0.0
 40
7.678759
100
AcDbArc
 50
334.96034
 51
25.03966
  0
LINE
  5
4F7
100
AcDbEntity
  8
2
100
AcDbLine
 10
-183.400407
 20
49.426623
 30
0.0
 11
-177.900407
 21
49.426623
 31
0.0
  0
LINE
  5
4F8
100
AcDbEntity
  8
2
100
AcDbLine
 10
-177.900407
 20
49.426623
 30
0.0
 11
-177.900407
 21
62.426623
 31
0.0
  0
LINE
  5
4F9
100
AcDbEntity
  8
2
100
AcDbLine
 10
-183.400407
 20
55.926623
 30
0.0
 11
-178.622095
 21
55.926623
 31
0.0
  0
ARC
  5
4FA
100
AcDbEntity
  8
2
100
AcDbCircle
 10
-185.579166
 20
52.676623
 30
0.0
 40
7.678759
100
AcDbArc
 50
334.96034
 51
25.03966
  0
LINE
  5
4FB
100
AcDbEntity
  8
2
100
AcDbLine
 10
-185.400407
 20
63.626623
 30
0.0
 11
-183.400407
 21
63.626623
 31
0.0
  0
LINE
  5
4FC
100
AcDbEntity
  8
2
100
AcDbLine
 10
-183.400407
 20
63.626623
 30
0.0
 11
-183.400407
 21
48.226623
 31
0.0
  0
LINE
  5
4FD
100
AcDbEntity
  8
2
100
AcDbLine
 10
-183.400407
 20
48.226623
 30
0.0
 11
-185.400407
 21
48.226623
 31
0.0
  0
ARC
  5
4FE
100
AcDbEntity
  8
2
100
AcDbCircle
 10
-198.900407
 20
-33.073377
 30
0.0
 40
11.0
100
AcDbArc
 50
180.0
 51
360.0
  0
LINE
  5
4FF
100
AcDbEntity
  8
2
100
AcDbLine
 10
-198.900407
 20
-27.291302
 30
0.0
 11
-198.900407
 21
-32.597358
 31
0.0
  0
LINE
  5
500
100
AcDbEntity
  8
2
100
AcDbLine
 10
-198.900407
 20
-39.715638
 30
0.0
 11
-198.900407
 21
-40.621477
 31
0.0
  0
ARC
  5
501
100
AcDbEntity
  8
2
100
AcDbCircle
 10
-198.975888
 20
-23.878116
 30
0.0
 40
11.550053
100
AcDbArc
 50
225.252585
 51
254.460589
  0
ARC
  5
502
100
AcDbEntity
  8
2
100
AcDbCircle
 10
-201.400407
 20
-32.597358
 30
0.0
 40
2.5
100
AcDbArc
 50
254.460589
 51
360.0
  0
ARC
  5
503
100
AcDbEntity
  8
2
100
AcDbCircle
 10
-201.400407
 20
-27.291302
 30
0.0
 40
2.5
100
AcDbArc
 50
0.0
 51
80.979305
  0
ARC
  5
504
100
AcDbEntity
  8
2
100
AcDbCircle
 10
-198.911573
 20
-31.7723
 30
0.0
 40
11.069917
100
AcDbArc
 50
223.095172
 51
257.333361
  0
ARC
  5
505
100
AcDbEntity
  8
2
100
AcDbCircle
 10
-198.959003
 20
-26.021956
 30
0.0
 40
11.409614
100
AcDbArc
 50
224.654136
 51
259.891126
  0
ARC
  5
506
100
AcDbEntity
  8
2
100
AcDbCircle
 10
-201.400407
 20
-39.715638
 30
0.0
 40
2.5
100
AcDbArc
 50
0.0
 51
79.891126
  0
ARC
  5
507
100
AcDbEntity
  8
2
100
AcDbCircle
 10
-200.900407
 20
-40.621477
 30
0.0
 40
2.0
100
AcDbArc
 50
257.333361
 51
360.0
  0
ARC
  5
508
100
AcDbEntity
  8
2
100
AcDbCircle
 10
-199.131041
 20
-31.97764
 30
0.0
 40
10.769367
100
AcDbArc
 50
166.761975
 51
223.095172
  0
ARC
  5
509
100
AcDbEntity
  8
2
100
AcDbCircle
 10
-200.11293
 20
-27.162035
 30
0.0
 40
9.787478
100
AcDbArc
 50
180.0
 51
224.654136
  0
LINE
  5
50A
100
AcDbEntity
  8
2
100
AcDbLine
 10
-209.900407
 20
-25.378923
 30
0.0
 11
-209.900407
 21
-27.162035
 31
0.0
  0
LINE
  5
50B
100
AcDbEntity
  8
2
100
AcDbLine
 10
-209.900407
 20
-31.97764
 30
0.0
 11
-209.900407
 21
-33.073377
 31
0.0
  0
CIRCLE
  5
50C
100
AcDbEntity
  8
2
  6
PHANTOM
 62
     2
100
AcDbCircle
 10
212.406817
 20
55.926623
 30
0.0
 40
100.0
  0
LINE
  5
50D
100
AcDbEntity
  8
2
  6
PHANTOM
 62
     2
100
AcDbLine
 10
223.640063
 20
126.283116
 30
0.0
 11
225.320325
 21
76.836268
 31
0.0
  0
LINE
  5
50E
100
AcDbEntity
  8
2
  6
PHANTOM
 62
     2
100
AcDbLine
 10
201.173571
 20
126.283116
 30
0.0
 11
199.493309
 21
76.836268
 31
0.0
  0
LINE
  5
50F
100
AcDbEntity
  8
2
  6
PHANTOM
 62
     2
100
AcDbLine
 10
157.092929
 20
11.0201
 30
0.0
 11
200.755287
 21
34.288373
 31
0.0
  0
LINE
  5
510
100
AcDbEntity
  8
2
  6
PHANTOM
 62
     2
100
AcDbLine
 10
145.859683
 20
30.476652
 30
0.0
 11
187.841778
 21
56.655226
 31
0.0
  0
LINE
  5
511
100
AcDbEntity
  8
2
  6
PHANTOM
 62
     2
100
AcDbLine
 10
267.720705
 20
11.0201
 30
0.0
 11
224.058347
 21
34.288373
 31
0.0
  0
LINE
  5
512
100
AcDbEntity
  8
2
  6
PHANTOM
 62
     2
100
AcDbLine
 10
278.953951
 20
30.476652
 30
0.0
 11
236.971855
 21
56.655226
 31
0.0
  0
ARC
  5
513
100
AcDbEntity
  8
2
  6
PHANTOM
 62
     2
100
AcDbCircle
 10
212.406817
 20
55.926623
 30
0.0
 40
78.0
100
AcDbArc
 50
223.341798
 51
316.658202
  0
ARC
  5
514
100
AcDbEntity
  8
2
  6
PHANTOM
 62
     2
100
AcDbCircle
 10
212.406817
 20
55.926623
 30
0.0
 40
22.5
100
AcDbArc
 50
131.110398
 51
168.889602
  0
ARC
  5
515
100
AcDbEntity
  8
2
  6
PHANTOM
 62
     2
100
AcDbCircle
 10
212.406817
 20
55.926623
 30
0.0
 40
22.5
100
AcDbArc
 50
251.110398
 51
288.889602
  0
ARC
  5
516
100
AcDbEntity
  8
2
  6
PHANTOM
 62
     2
100
AcDbCircle
 10
212.406817
 20
55.926623
 30
0.0
 40
22.5
100
AcDbArc
 50
11.110398
 51
48.889602
  0
ARC
  5
517
100
AcDbEntity
  8
2
  6
PHANTOM
 62
     2
100
AcDbCircle
 10
230.817153
 20
77.023057
 30
0.0
 40
5.5
100
AcDbArc
 50
181.94623
 51
228.889602
  0
ARC
  5
518
100
AcDbEntity
  8
2
  6
PHANTOM
 62
     2
100
AcDbCircle
 10
229.13689
 20
126.469905
 30
0.0
 40
5.5
100
AcDbArc
 50
76.658202
 51
181.94623
  0
ARC
  5
519
100
AcDbEntity
  8
2
  6
PHANTOM
 62
     2
100
AcDbCircle
 10
195.676744
 20
126.469905
 30
0.0
 40
5.5
100
AcDbArc
 50
358.05377
 51
103.341798
  0
ARC
  5
51A
100
AcDbEntity
  8
2
  6
PHANTOM
 62
     2
100
AcDbCircle
 10
193.996481
 20
77.023057
 30
0.0
 40
5.5
100
AcDbArc
 50
311.110398
 51
358.05377
  0
ARC
  5
51B
100
AcDbEntity
  8
2
  6
PHANTOM
 62
     2
100
AcDbCircle
 10
184.931601
 20
61.322224
 30
0.0
 40
5.5
100
AcDbArc
 50
301.94623
 51
348.889602
  0
ARC
  5
51C
100
AcDbEntity
  8
2
  6
PHANTOM
 62
     2
100
AcDbCircle
 10
203.341937
 20
29.434587
 30
0.0
 40
5.5
100
AcDbArc
 50
71.110398
 51
118.05377
  0
ARC
  5
51D
100
AcDbEntity
  8
2
  6
PHANTOM
 62
     2
100
AcDbCircle
 10
221.471697
 20
29.434587
 30
0.0
 40
5.5
100
AcDbArc
 50
61.94623
 51
108.889602
  0
ARC
  5
51E
100
AcDbEntity
  8
2
  6
PHANTOM
 62
     2
100
AcDbCircle
 10
239.882033
 20
61.322224
 30
0.0
 40
5.5
100
AcDbArc
 50
191.110398
 51
238.05377
  0
ARC
  5
51F
100
AcDbEntity
  8
2
  6
PHANTOM
 62
     2
100
AcDbCircle
 10
281.864128
 20
35.14365
 30
0.0
 40
5.5
100
AcDbArc
 50
238.05377
 51
343.341798
  0
ARC
  5
520
100
AcDbEntity
  8
2
  6
PHANTOM
 62
     2
100
AcDbCircle
 10
265.134055
 20
6.166313
 30
0.0
 40
5.5
100
AcDbArc
 50
316.658202
 51
61.94623
  0
ARC
  5
521
100
AcDbEntity
  8
2
  6
PHANTOM
 62
     2
100
AcDbCircle
 10
159.679579
 20
6.166313
 30
0.0
 40
5.5
100
AcDbArc
 50
118.05377
 51
223.341798
  0
ARC
  5
522
100
AcDbEntity
  8
2
  6
PHANTOM
 62
     2
100
AcDbCircle
 10
142.949506
 20
35.14365
 30
0.0
 40
5.5
100
AcDbArc
 50
196.658202
 51
301.94623
  0
CIRCLE
  5
523
100
AcDbEntity
  8
2
  6
PHANTOM
 62
     2
100
AcDbCircle
 10
212.406817
 20
55.926623
 30
0.0
 40
20.0
  0
ARC
  5
524
100
AcDbEntity
  8
2
  6
PHANTOM
 62
     2
100
AcDbCircle
 10
212.406817
 20
55.926623
 30
0.0
 40
78.0
100
AcDbArc
 50
321.8928
 51
338.1072
  0
ARC
  5
525
100
AcDbEntity
  8
2
  6
PHANTOM
 62
     2
100
AcDbCircle
 10
212.406817
 20
55.926623
 30
0.0
 40
78.0
100
AcDbArc
 50
343.341798
 51
76.658202
  0
ARC
  5
526
100
AcDbEntity
  8
2
  6
PHANTOM
 62
     2
100
AcDbCircle
 10
212.406817
 20
55.926623
 30
0.0
 40
78.0
100
AcDbArc
 50
81.8928
 51
98.1072
  0
ARC
  5
527
100
AcDbEntity
  8
2
  6
PHANTOM
 62
     2
100
AcDbCircle
 10
212.406817
 20
55.926623
 30
0.0
 40
78.0
100
AcDbArc
 50
103.341798
 51
196.658202
  0
ARC
  5
528
100
AcDbEntity
  8
2
  6
PHANTOM
 62
     2
100
AcDbCircle
 10
212.406817
 20
55.926623
 30
0.0
 40
78.0
100
AcDbArc
 50
201.8928
 51
218.1072
  0
CIRCLE
  5
529
100
AcDbEntity
  8
2
100
AcDbCircle
 10
-375.900407
 20
326.969326
 30
0.0
 40
3.5
  0
LINE
  5
52A
100
AcDbEntity
  8
2
100
AcDbLine
 10
-378.000407
 20
326.469326
 30
0.0
 11
-378.000407
 21
327.469326
 31
0.0
  0
LINE
  5
52B
100
AcDbEntity
  8
2
100
AcDbLine
 10
-373.800407
 20
326.469326
 30
0.0
 11
-373.800407
 21
327.469326
 31
0.0
  0
LINE
  5
52C
100
AcDbEntity
  8
2
100
AcDbLine
 10
-376.400407
 20
329.069326
 30
0.0
 11
-375.400407
 21
329.069326
 31
0.0
  0
LINE
  5
52D
100
AcDbEntity
  8
2
100
AcDbLine
 10
-376.400407
 20
324.869326
 30
0.0
 11
-375.400407
 21
324.869326
 31
0.0
  0
LINE
  5
52E
100
AcDbEntity
  8
2
100
AcDbLine
 10
-378.000407
 20
327.469326
 30
0.0
 11
-377.400407
 21
327.469326
 31
0.0
  0
LINE
  5
52F
100
AcDbEntity
  8
2
100
AcDbLine
 10
-374.400407
 20
327.469326
 30
0.0
 11
-373.800407
 21
327.469326
 31
0.0
  0
LINE
  5
530
100
AcDbEntity
  8
2
100
AcDbLine
 10
-376.400407
 20
324.869326
 30
0.0
 11
-376.400407
 21
325.469326
 31
0.0
  0
LINE
  5
531
100
AcDbEntity
  8
2
100
AcDbLine
 10
-376.400407
 20
328.469326
 30
0.0
 11
-376.400407
 21
329.069326
 31
0.0
  0
LINE
  5
532
100
AcDbEntity
  8
2
100
AcDbLine
 10
-378.000407
 20
326.469326
 30
0.0
 11
-377.400407
 21
326.469326
 31
0.0
  0
LINE
  5
533
100
AcDbEntity
  8
2
100
AcDbLine
 10
-374.400407
 20
326.469326
 30
0.0
 11
-373.800407
 21
326.469326
 31
0.0
  0
LINE
  5
534
100
AcDbEntity
  8
2
100
AcDbLine
 10
-375.400407
 20
324.869326
 30
0.0
 11
-375.400407
 21
325.469326
 31
0.0
  0
LINE
  5
535
100
AcDbEntity
  8
2
100
AcDbLine
 10
-375.400407
 20
328.469326
 30
0.0
 11
-375.400407
 21
329.069326
 31
0.0
  0
ARC
  5
536
100
AcDbEntity
  8
2
100
AcDbCircle
 10
-374.400407
 20
325.469326
 30
0.0
 40
1.0
100
AcDbArc
 50
90.0
 51
180.0
  0
ARC
  5
537
100
AcDbEntity
  8
2
100
AcDbCircle
 10
-377.400407
 20
325.469326
 30
0.0
 40
1.0
100
AcDbArc
 50
0.0
 51
90.0
  0
ARC
  5
538
100
AcDbEntity
  8
2
100
AcDbCircle
 10
-377.400407
 20
328.469326
 30
0.0
 40
1.0
100
AcDbArc
 50
270.0
 51
360.0
  0
ARC
  5
539
100
AcDbEntity
  8
2
100
AcDbCircle
 10
-374.400407
 20
328.469326
 30
0.0
 40
1.0
100
AcDbArc
 50
180.0
 51
270.0
  0
LINE
  5
53A
100
AcDbEntity
  8
2
100
AcDbLine
 10
-379.400407
 20
96.426623
 30
0.0
 11
-379.400407
 21
97.405647
 31
0.0
  0
LINE
  5
53B
100
AcDbEntity
  8
2
100
AcDbLine
 10
-372.400407
 20
96.426623
 30
0.0
 11
-372.400407
 21
97.405647
 31
0.0
  0
ARC
  5
53C
100
AcDbEntity
  8
2
100
AcDbCircle
 10
-375.900407
 20
90.026623
 30
0.0
 40
9.0
100
AcDbArc
 50
73.39845
 51
106.60155
  0
ARC
  5
53D
100
AcDbEntity
  8
2
100
AcDbCircle
 10
-373.700407
 20
97.405647
 30
0.0
 40
1.3
100
AcDbArc
 50
0.0
 51
73.39845
  0
ARC
  5
53E
100
AcDbEntity
  8
2
100
AcDbCircle
 10
-378.100407
 20
97.405647
 30
0.0
 40
1.3
100
AcDbArc
 50
106.60155
 51
180.0
  0
LINE
  5
53F
100
AcDbEntity
  8
2
100
AcDbLine
 10
164.406817
 20
96.426623
 30
0.0
 11
164.406817
 21
97.405647
 31
0.0
  0
LINE
  5
540
100
AcDbEntity
  8
2
100
AcDbLine
 10
171.406817
 20
96.426623
 30
0.0
 11
171.406817
 21
97.405647
 31
0.0
  0
ARC
  5
541
100
AcDbEntity
  8
2
100
AcDbCircle
 10
167.906817
 20
90.026623
 30
0.0
 40
9.0
100
AcDbArc
 50
73.39845
 51
106.60155
  0
ARC
  5
542
100
AcDbEntity
  8
2
100
AcDbCircle
 10
170.106817
 20
97.405647
 30
0.0
 40
1.3
100
AcDbArc
 50
0.0
 51
73.39845
  0
ARC
  5
543
100
AcDbEntity
  8
2
100
AcDbCircle
 10
165.706817
 20
97.405647
 30
0.0
 40
1.3
100
AcDbArc
 50
106.60155
 51
180.0
  0
CIRCLE
  5
544
100
AcDbEntity
  8
2
100
AcDbCircle
 10
-335.900407
 20
254.969326
 30
0.0
 40
6.1
  0
CIRCLE
  5
545
100
AcDbEntity
  8
2
100
AcDbCircle
 10
-335.900407
 20
254.969326
 30
0.0
 40
5.25
  0
LINE
  5
546
100
AcDbEntity
  8
2
100
AcDbLine
 10
-332.800407
 20
254.369326
 30
0.0
 11
-332.800407
 21
255.569326
 31
0.0
  0
LINE
  5
547
100
AcDbEntity
  8
2
100
AcDbLine
 10
-339.000407
 20
254.369326
 30
0.0
 11
-339.000407
 21
255.569326
 31
0.0
  0
LINE
  5
548
100
AcDbEntity
  8
2
100
AcDbLine
 10
-336.500407
 20
258.069326
 30
0.0
 11
-335.300407
 21
258.069326
 31
0.0
  0
LINE
  5
549
100
AcDbEntity
  8
2
100
AcDbLine
 10
-336.500407
 20
251.869326
 30
0.0
 11
-335.300407
 21
251.869326
 31
0.0
  0
LINE
  5
54A
100
AcDbEntity
  8
2
100
AcDbLine
 10
-339.000407
 20
255.569326
 30
0.0
 11
-337.700407
 21
255.569326
 31
0.0
  0
LINE
  5
54B
100
AcDbEntity
  8
2
100
AcDbLine
 10
-334.100407
 20
255.569326
 30
0.0
 11
-332.800407
 21
255.569326
 31
0.0
  0
LINE
  5
54C
100
AcDbEntity
  8
2
100
AcDbLine
 10
-339.000407
 20
254.369326
 30
0.0
 11
-337.700407
 21
254.369326
 31
0.0
  0
LINE
  5
54D
100
AcDbEntity
  8
2
100
AcDbLine
 10
-334.100407
 20
254.369326
 30
0.0
 11
-332.800407
 21
254.369326
 31
0.0
  0
LINE
  5
54E
100
AcDbEntity
  8
2
100
AcDbLine
 10
-336.500407
 20
251.869326
 30
0.0
 11
-336.500407
 21
253.169326
 31
0.0
  0
LINE
  5
54F
100
AcDbEntity
  8
2
100
AcDbLine
 10
-336.500407
 20
256.769326
 30
0.0
 11
-336.500407
 21
258.069326
 31
0.0
  0
LINE
  5
550
100
AcDbEntity
  8
2
100
AcDbLine
 10
-335.300407
 20
251.869326
 30
0.0
 11
-335.300407
 21
253.169326
 31
0.0
  0
LINE
  5
551
100
AcDbEntity
  8
2
100
AcDbLine
 10
-335.300407
 20
256.769326
 30
0.0
 11
-335.300407
 21
258.069326
 31
0.0
  0
ARC
  5
552
100
AcDbEntity
  8
2
100
AcDbCircle
 10
-334.100407
 20
256.769326
 30
0.0
 40
1.2
100
AcDbArc
 50
180.0
 51
270.0
  0
ARC
  5
553
100
AcDbEntity
  8
2
100
AcDbCircle
 10
-337.700407
 20
256.769326
 30
0.0
 40
1.2
100
AcDbArc
 50
270.0
 51
360.0
  0
ARC
  5
554
100
AcDbEntity
  8
2
100
AcDbCircle
 10
-337.700407
 20
253.169326
 30
0.0
 40
1.2
100
AcDbArc
 50
360.0
 51
90.0
  0
ARC
  5
555
100
AcDbEntity
  8
2
100
AcDbCircle
 10
-334.100407
 20
253.169326
 30
0.0
 40
1.2
100
AcDbArc
 50
90.0
 51
180.0
  0
CIRCLE
  5
556
100
AcDbEntity
  8
2
100
AcDbCircle
 10
-415.900407
 20
254.969326
 30
0.0
 40
6.1
  0
CIRCLE
  5
557
100
AcDbEntity
  8
2
100
AcDbCircle
 10
-415.900407
 20
254.969326
 30
0.0
 40
5.25
  0
LINE
  5
558
100
AcDbEntity
  8
2
100
AcDbLine
 10
-412.800407
 20
254.369326
 30
0.0
 11
-412.800407
 21
255.569326
 31
0.0
  0
LINE
  5
559
100
AcDbEntity
  8
2
100
AcDbLine
 10
-419.000407
 20
254.369326
 30
0.0
 11
-419.000407
 21
255.569326
 31
0.0
  0
LINE
  5
55A
100
AcDbEntity
  8
2
100
AcDbLine
 10
-416.500407
 20
258.069326
 30
0.0
 11
-415.300407
 21
258.069326
 31
0.0
  0
LINE
  5
55B
100
AcDbEntity
  8
2
100
AcDbLine
 10
-416.500407
 20
251.869326
 30
0.0
 11
-415.300407
 21
251.869326
 31
0.0
  0
LINE
  5
55C
100
AcDbEntity
  8
2
100
AcDbLine
 10
-419.000407
 20
255.569326
 30
0.0
 11
-417.700407
 21
255.569326
 31
0.0
  0
LINE
  5
55D
100
AcDbEntity
  8
2
100
AcDbLine
 10
-414.100407
 20
255.569326
 30
0.0
 11
-412.800407
 21
255.569326
 31
0.0
  0
LINE
  5
55E
100
AcDbEntity
  8
2
100
AcDbLine
 10
-419.000407
 20
254.369326
 30
0.0
 11
-417.700407
 21
254.369326
 31
0.0
  0
LINE
  5
55F
100
AcDbEntity
  8
2
100
AcDbLine
 10
-414.100407
 20
254.369326
 30
0.0
 11
-412.800407
 21
254.369326
 31
0.0
  0
LINE
  5
560
100
AcDbEntity
  8
2
100
AcDbLine
 10
-416.500407
 20
251.869326
 30
0.0
 11
-416.500407
 21
253.169326
 31
0.0
  0
LINE
  5
561
100
AcDbEntity
  8
2
100
AcDbLine
 10
-416.500407
 20
256.769326
 30
0.0
 11
-416.500407
 21
258.069326
 31
0.0
  0
LINE
  5
562
100
AcDbEntity
  8
2
100
AcDbLine
 10
-415.300407
 20
251.869326
 30
0.0
 11
-415.300407
 21
253.169326
 31
0.0
  0
LINE
  5
563
100
AcDbEntity
  8
2
100
AcDbLine
 10
-415.300407
 20
256.769326
 30
0.0
 11
-415.300407
 21
258.069326
 31
0.0
  0
ARC
  5
564
100
AcDbEntity
  8
2
100
AcDbCircle
 10
-414.100407
 20
256.769326
 30
0.0
 40
1.2
100
AcDbArc
 50
180.0
 51
270.0
  0
ARC
  5
565
100
AcDbEntity
  8
2
100
AcDbCircle
 10
-417.700407
 20
256.769326
 30
0.0
 40
1.2
100
AcDbArc
 50
270.0
 51
360.0
  0
ARC
  5
566
100
AcDbEntity
  8
2
100
AcDbCircle
 10
-417.700407
 20
253.169326
 30
0.0
 40
1.2
100
AcDbArc
 50
360.0
 51
90.0
  0
ARC
  5
567
100
AcDbEntity
  8
2
100
AcDbCircle
 10
-414.100407
 20
253.169326
 30
0.0
 40
1.2
100
AcDbArc
 50
90.0
 51
180.0
  0
CIRCLE
  5
568
100
AcDbEntity
  8
2
100
AcDbCircle
 10
-327.900407
 20
348.969326
 30
0.0
 40
6.1
  0
CIRCLE
  5
569
100
AcDbEntity
  8
2
100
AcDbCircle
 10
-327.900407
 20
348.969326
 30
0.0
 40
5.25
  0
LINE
  5
56A
100
AcDbEntity
  8
2
100
AcDbLine
 10
-324.800407
 20
348.369326
 30
0.0
 11
-324.800407
 21
349.569326
 31
0.0
  0
LINE
  5
56B
100
AcDbEntity
  8
2
100
AcDbLine
 10
-331.000407
 20
348.369326
 30
0.0
 11
-331.000407
 21
349.569326
 31
0.0
  0
LINE
  5
56C
100
AcDbEntity
  8
2
100
AcDbLine
 10
-328.500407
 20
352.069326
 30
0.0
 11
-327.300407
 21
352.069326
 31
0.0
  0
LINE
  5
56D
100
AcDbEntity
  8
2
100
AcDbLine
 10
-328.500407
 20
345.869326
 30
0.0
 11
-327.300407
 21
345.869326
 31
0.0
  0
LINE
  5
56E
100
AcDbEntity
  8
2
100
AcDbLine
 10
-331.000407
 20
349.569326
 30
0.0
 11
-329.700407
 21
349.569326
 31
0.0
  0
LINE
  5
56F
100
AcDbEntity
  8
2
100
AcDbLine
 10
-326.100407
 20
349.569326
 30
0.0
 11
-324.800407
 21
349.569326
 31
0.0
  0
LINE
  5
570
100
AcDbEntity
  8
2
100
AcDbLine
 10
-331.000407
 20
348.369326
 30
0.0
 11
-329.700407
 21
348.369326
 31
0.0
  0
LINE
  5
571
100
AcDbEntity
  8
2
100
AcDbLine
 10
-326.100407
 20
348.369326
 30
0.0
 11
-324.800407
 21
348.369326
 31
0.0
  0
LINE
  5
572
100
AcDbEntity
  8
2
100
AcDbLine
 10
-328.500407
 20
345.869326
 30
0.0
 11
-328.500407
 21
347.169326
 31
0.0
  0
LINE
  5
573
100
AcDbEntity
  8
2
100
AcDbLine
 10
-328.500407
 20
350.769326
 30
0.0
 11
-328.500407
 21
352.069326
 31
0.0
  0
LINE
  5
574
100
AcDbEntity
  8
2
100
AcDbLine
 10
-327.300407
 20
345.869326
 30
0.0
 11
-327.300407
 21
347.169326
 31
0.0
  0
LINE
  5
575
100
AcDbEntity
  8
2
100
AcDbLine
 10
-327.300407
 20
350.769326
 30
0.0
 11
-327.300407
 21
352.069326
 31
0.0
  0
ARC
  5
576
100
AcDbEntity
  8
2
100
AcDbCircle
 10
-326.100407
 20
350.769326
 30
0.0
 40
1.2
100
AcDbArc
 50
180.0
 51
270.0
  0
ARC
  5
577
100
AcDbEntity
  8
2
100
AcDbCircle
 10
-329.700407
 20
350.769326
 30
0.0
 40
1.2
100
AcDbArc
 50
270.0
 51
360.0
  0
ARC
  5
578
100
AcDbEntity
  8
2
100
AcDbCircle
 10
-329.700407
 20
347.169326
 30
0.0
 40
1.2
100
AcDbArc
 50
360.0
 51
90.0
  0
ARC
  5
579
100
AcDbEntity
  8
2
100
AcDbCircle
 10
-326.100407
 20
347.169326
 30
0.0
 40
1.2
100
AcDbArc
 50
90.0
 51
180.0
  0
CIRCLE
  5
57A
100
AcDbEntity
  8
2
100
AcDbCircle
 10
-423.900407
 20
348.969326
 30
0.0
 40
6.1
  0
CIRCLE
  5
57B
100
AcDbEntity
  8
2
100
AcDbCircle
 10
-423.900407
 20
348.969326
 30
0.0
 40
5.25
  0
LINE
  5
57C
100
AcDbEntity
  8
2
100
AcDbLine
 10
-420.800407
 20
348.369326
 30
0.0
 11
-420.800407
 21
349.569326
 31
0.0
  0
LINE
  5
57D
100
AcDbEntity
  8
2
100
AcDbLine
 10
-427.000407
 20
348.369326
 30
0.0
 11
-427.000407
 21
349.569326
 31
0.0
  0
LINE
  5
57E
100
AcDbEntity
  8
2
100
AcDbLine
 10
-424.500407
 20
352.069326
 30
0.0
 11
-423.300407
 21
352.069326
 31
0.0
  0
LINE
  5
57F
100
AcDbEntity
  8
2
100
AcDbLine
 10
-424.500407
 20
345.869326
 30
0.0
 11
-423.300407
 21
345.869326
 31
0.0
  0
LINE
  5
580
100
AcDbEntity
  8
2
100
AcDbLine
 10
-427.000407
 20
349.569326
 30
0.0
 11
-425.700407
 21
349.569326
 31
0.0
  0
LINE
  5
581
100
AcDbEntity
  8
2
100
AcDbLine
 10
-422.100407
 20
349.569326
 30
0.0
 11
-420.800407
 21
349.569326
 31
0.0
  0
LINE
  5
582
100
AcDbEntity
  8
2
100
AcDbLine
 10
-427.000407
 20
348.369326
 30
0.0
 11
-425.700407
 21
348.369326
 31
0.0
  0
LINE
  5
583
100
AcDbEntity
  8
2
100
AcDbLine
 10
-422.100407
 20
348.369326
 30
0.0
 11
-420.800407
 21
348.369326
 31
0.0
  0
LINE
  5
584
100
AcDbEntity
  8
2
100
AcDbLine
 10
-424.500407
 20
345.869326
 30
0.0
 11
-424.500407
 21
347.169326
 31
0.0
  0
LINE
  5
585
100
AcDbEntity
  8
2
100
AcDbLine
 10
-424.500407
 20
350.769326
 30
0.0
 11
-424.500407
 21
352.069326
 31
0.0
  0
LINE
  5
586
100
AcDbEntity
  8
2
100
AcDbLine
 10
-423.300407
 20
345.869326
 30
0.0
 11
-423.300407
 21
347.169326
 31
0.0
  0
LINE
  5
587
100
AcDbEntity
  8
2
100
AcDbLine
 10
-423.300407
 20
350.769326
 30
0.0
 11
-423.300407
 21
352.069326
 31
0.0
  0
ARC
  5
588
100
AcDbEntity
  8
2
100
AcDbCircle
 10
-422.100407
 20
350.769326
 30
0.0
 40
1.2
100
AcDbArc
 50
180.0
 51
270.0
  0
ARC
  5
589
100
AcDbEntity
  8
2
100
AcDbCircle
 10
-425.700407
 20
350.769326
 30
0.0
 40
1.2
100
AcDbArc
 50
270.0
 51
360.0
  0
ARC
  5
58A
100
AcDbEntity
  8
2
100
AcDbCircle
 10
-425.700407
 20
347.169326
 30
0.0
 40
1.2
100
AcDbArc
 50
360.0
 51
90.0
  0
ARC
  5
58B
100
AcDbEntity
  8
2
100
AcDbCircle
 10
-422.100407
 20
347.169326
 30
0.0
 40
1.2
100
AcDbArc
 50
90.0
 51
180.0
  0
CIRCLE
  5
58C
100
AcDbEntity
  8
2
100
AcDbCircle
 10
-335.400407
 20
389.969326
 30
0.0
 40
6.1
  0
CIRCLE
  5
58D
100
AcDbEntity
  8
2
100
AcDbCircle
 10
-335.400407
 20
389.969326
 30
0.0
 40
5.25
  0
LINE
  5
58E
100
AcDbEntity
  8
2
100
AcDbLine
 10
-332.300407
 20
389.369326
 30
0.0
 11
-332.300407
 21
390.569326
 31
0.0
  0
LINE
  5
58F
100
AcDbEntity
  8
2
100
AcDbLine
 10
-338.500407
 20
389.369326
 30
0.0
 11
-338.500407
 21
390.569326
 31
0.0
  0
LINE
  5
590
100
AcDbEntity
  8
2
100
AcDbLine
 10
-336.000407
 20
393.069326
 30
0.0
 11
-334.800407
 21
393.069326
 31
0.0
  0
LINE
  5
591
100
AcDbEntity
  8
2
100
AcDbLine
 10
-336.000407
 20
386.869326
 30
0.0
 11
-334.800407
 21
386.869326
 31
0.0
  0
LINE
  5
592
100
AcDbEntity
  8
2
100
AcDbLine
 10
-338.500407
 20
390.569326
 30
0.0
 11
-337.200407
 21
390.569326
 31
0.0
  0
LINE
  5
593
100
AcDbEntity
  8
2
100
AcDbLine
 10
-333.600407
 20
390.569326
 30
0.0
 11
-332.300407
 21
390.569326
 31
0.0
  0
LINE
  5
594
100
AcDbEntity
  8
2
100
AcDbLine
 10
-338.500407
 20
389.369326
 30
0.0
 11
-337.200407
 21
389.369326
 31
0.0
  0
LINE
  5
595
100
AcDbEntity
  8
2
100
AcDbLine
 10
-333.600407
 20
389.369326
 30
0.0
 11
-332.300407
 21
389.369326
 31
0.0
  0
LINE
  5
596
100
AcDbEntity
  8
2
100
AcDbLine
 10
-336.000407
 20
386.869326
 30
0.0
 11
-336.000407
 21
388.169326
 31
0.0
  0
LINE
  5
597
100
AcDbEntity
  8
2
100
AcDbLine
 10
-336.000407
 20
391.769326
 30
0.0
 11
-336.000407
 21
393.069326
 31
0.0
  0
LINE
  5
598
100
AcDbEntity
  8
2
100
AcDbLine
 10
-334.800407
 20
386.869326
 30
0.0
 11
-334.800407
 21
388.169326
 31
0.0
  0
LINE
  5
599
100
AcDbEntity
  8
2
100
AcDbLine
 10
-334.800407
 20
391.769326
 30
0.0
 11
-334.800407
 21
393.069326
 31
0.0
  0
ARC
  5
59A
100
AcDbEntity
  8
2
100
AcDbCircle
 10
-333.600407
 20
391.769326
 30
0.0
 40
1.2
100
AcDbArc
 50
180.0
 51
270.0
  0
ARC
  5
59B
100
AcDbEntity
  8
2
100
AcDbCircle
 10
-337.200407
 20
391.769326
 30
0.0
 40
1.2
100
AcDbArc
 50
270.0
 51
360.0
  0
ARC
  5
59C
100
AcDbEntity
  8
2
100
AcDbCircle
 10
-337.200407
 20
388.169326
 30
0.0
 40
1.2
100
AcDbArc
 50
360.0
 51
90.0
  0
ARC
  5
59D
100
AcDbEntity
  8
2
100
AcDbCircle
 10
-333.600407
 20
388.169326
 30
0.0
 40
1.2
100
AcDbArc
 50
90.0
 51
180.0
  0
CIRCLE
  5
59E
100
AcDbEntity
  8
2
100
AcDbCircle
 10
-416.400407
 20
389.969326
 30
0.0
 40
6.1
  0
CIRCLE
  5
59F
100
AcDbEntity
  8
2
100
AcDbCircle
 10
-416.400407
 20
389.969326
 30
0.0
 40
5.25
  0
LINE
  5
5A0
100
AcDbEntity
  8
2
100
AcDbLine
 10
-413.300407
 20
389.369326
 30
0.0
 11
-413.300407
 21
390.569326
 31
0.0
  0
LINE
  5
5A1
100
AcDbEntity
  8
2
100
AcDbLine
 10
-419.500407
 20
389.369326
 30
0.0
 11
-419.500407
 21
390.569326
 31
0.0
  0
LINE
  5
5A2
100
AcDbEntity
  8
2
100
AcDbLine
 10
-417.000407
 20
393.069326
 30
0.0
 11
-415.800407
 21
393.069326
 31
0.0
  0
LINE
  5
5A3
100
AcDbEntity
  8
2
100
AcDbLine
 10
-417.000407
 20
386.869326
 30
0.0
 11
-415.800407
 21
386.869326
 31
0.0
  0
LINE
  5
5A4
100
AcDbEntity
  8
2
100
AcDbLine
 10
-419.500407
 20
390.569326
 30
0.0
 11
-418.200407
 21
390.569326
 31
0.0
  0
LINE
  5
5A5
100
AcDbEntity
  8
2
100
AcDbLine
 10
-414.600407
 20
390.569326
 30
0.0
 11
-413.300407
 21
390.569326
 31
0.0
  0
LINE
  5
5A6
100
AcDbEntity
  8
2
100
AcDbLine
 10
-419.500407
 20
389.369326
 30
0.0
 11
-418.200407
 21
389.369326
 31
0.0
  0
LINE
  5
5A7
100
AcDbEntity
  8
2
100
AcDbLine
 10
-414.600407
 20
389.369326
 30
0.0
 11
-413.300407
 21
389.369326
 31
0.0
  0
LINE
  5
5A8
100
AcDbEntity
  8
2
100
AcDbLine
 10
-417.000407
 20
386.869326
 30
0.0
 11
-417.000407
 21
388.169326
 31
0.0
  0
LINE
  5
5A9
100
AcDbEntity
  8
2
100
AcDbLine
 10
-417.000407
 20
391.769326
 30
0.0
 11
-417.000407
 21
393.069326
 31
0.0
  0
LINE
  5
5AA
100
AcDbEntity
  8
2
100
AcDbLine
 10
-415.800407
 20
386.869326
 30
0.0
 11
-415.800407
 21
388.169326
 31
0.0
  0
LINE
  5
5AB
100
AcDbEntity
  8
2
100
AcDbLine
 10
-415.800407
 20
391.769326
 30
0.0
 11
-415.800407
 21
393.069326
 31
0.0
  0
ARC
  5
5AC
100
AcDbEntity
  8
2
100
AcDbCircle
 10
-414.600407
 20
391.769326
 30
0.0
 40
1.2
100
AcDbArc
 50
180.0
 51
270.0
  0
ARC
  5
5AD
100
AcDbEntity
  8
2
100
AcDbCircle
 10
-418.200407
 20
391.769326
 30
0.0
 40
1.2
100
AcDbArc
 50
270.0
 51
360.0
  0
ARC
  5
5AE
100
AcDbEntity
  8
2
100
AcDbCircle
 10
-418.200407
 20
388.169326
 30
0.0
 40
1.2
100
AcDbArc
 50
360.0
 51
90.0
  0
ARC
  5
5AF
100
AcDbEntity
  8
2
100
AcDbCircle
 10
-414.600407
 20
388.169326
 30
0.0
 40
1.2
100
AcDbArc
 50
90.0
 51
180.0
  0
LINE
  5
5B0
100
AcDbEntity
  8
2
100
AcDbLine
 10
-342.000407
 20
83.726623
 30
0.0
 11
-329.800407
 21
83.726623
 31
0.0
  0
LINE
  5
5B1
100
AcDbEntity
  8
2
100
AcDbLine
 10
-342.000407
 20
83.726623
 30
0.0
 11
-342.000407
 21
82.226623
 31
0.0
  0
LINE
  5
5B2
100
AcDbEntity
  8
2
100
AcDbLine
 10
-329.800407
 20
83.726623
 30
0.0
 11
-329.800407
 21
82.226623
 31
0.0
  0
LINE
  5
5B3
100
AcDbEntity
  8
2
100
AcDbLine
 10
-341.150407
 20
85.253639
 30
0.0
 11
-341.150407
 21
83.726623
 31
0.0
  0
LINE
  5
5B4
100
AcDbEntity
  8
2
100
AcDbLine
 10
-330.650407
 20
85.253639
 30
0.0
 11
-330.650407
 21
83.726623
 31
0.0
  0
ARC
  5
5B5
100
AcDbEntity
  8
2
100
AcDbCircle
 10
-335.900407
 20
73.626623
 30
0.0
 40
14.0
100
AcDbArc
 50
73.927141
 51
106.072859
  0
ARC
  5
5B6
100
AcDbEntity
  8
2
100
AcDbCircle
 10
-332.550407
 20
85.253639
 30
0.0
 40
1.9
100
AcDbArc
 50
0.0
 51
73.927141
  0
ARC
  5
5B7
100
AcDbEntity
  8
2
100
AcDbCircle
 10
-339.250407
 20
85.253639
 30
0.0
 40
1.9
100
AcDbArc
 50
106.072859
 51
180.0
  0
CIRCLE
  5
5B8
100
AcDbEntity
  8
2
100
AcDbCircle
 10
-375.900407
 20
281.969326
 30
0.0
 40
3.5
  0
LINE
  5
5B9
100
AcDbEntity
  8
2
100
AcDbLine
 10
-378.000407
 20
282.469326
 30
0.0
 11
-378.000407
 21
281.469326
 31
0.0
  0
LINE
  5
5BA
100
AcDbEntity
  8
2
100
AcDbLine
 10
-373.800407
 20
282.469326
 30
0.0
 11
-373.800407
 21
281.469326
 31
0.0
  0
LINE
  5
5BB
100
AcDbEntity
  8
2
100
AcDbLine
 10
-376.400407
 20
279.869326
 30
0.0
 11
-375.400407
 21
279.869326
 31
0.0
  0
LINE
  5
5BC
100
AcDbEntity
  8
2
100
AcDbLine
 10
-376.400407
 20
284.069326
 30
0.0
 11
-375.400407
 21
284.069326
 31
0.0
  0
LINE
  5
5BD
100
AcDbEntity
  8
2
100
AcDbLine
 10
-378.000407
 20
281.469326
 30
0.0
 11
-377.400407
 21
281.469326
 31
0.0
  0
LINE
  5
5BE
100
AcDbEntity
  8
2
100
AcDbLine
 10
-374.400407
 20
281.469326
 30
0.0
 11
-373.800407
 21
281.469326
 31
0.0
  0
LINE
  5
5BF
100
AcDbEntity
  8
2
100
AcDbLine
 10
-376.400407
 20
284.069326
 30
0.0
 11
-376.400407
 21
283.469326
 31
0.0
  0
LINE
  5
5C0
100
AcDbEntity
  8
2
100
AcDbLine
 10
-376.400407
 20
280.469326
 30
0.0
 11
-376.400407
 21
279.869326
 31
0.0
  0
LINE
  5
5C1
100
AcDbEntity
  8
2
100
AcDbLine
 10
-378.000407
 20
282.469326
 30
0.0
 11
-377.400407
 21
282.469326
 31
0.0
  0
LINE
  5
5C2
100
AcDbEntity
  8
2
100
AcDbLine
 10
-374.400407
 20
282.469326
 30
0.0
 11
-373.800407
 21
282.469326
 31
0.0
  0
LINE
  5
5C3
100
AcDbEntity
  8
2
100
AcDbLine
 10
-375.400407
 20
284.069326
 30
0.0
 11
-375.400407
 21
283.469326
 31
0.0
  0
LINE
  5
5C4
100
AcDbEntity
  8
2
100
AcDbLine
 10
-375.400407
 20
280.469326
 30
0.0
 11
-375.400407
 21
279.869326
 31
0.0
  0
ARC
  5
5C5
100
AcDbEntity
  8
2
100
AcDbCircle
 10
-374.400407
 20
283.469326
 30
0.0
 40
1.0
100
AcDbArc
 50
180.0
 51
270.0
  0
ARC
  5
5C6
100
AcDbEntity
  8
2
100
AcDbCircle
 10
-377.400407
 20
283.469326
 30
0.0
 40
1.0
100
AcDbArc
 50
270.0
 51
360.0
  0
ARC
  5
5C7
100
AcDbEntity
  8
2
100
AcDbCircle
 10
-377.400407
 20
280.469326
 30
0.0
 40
1.0
100
AcDbArc
 50
0.0
 51
90.0
  0
ARC
  5
5C8
100
AcDbEntity
  8
2
100
AcDbCircle
 10
-374.400407
 20
280.469326
 30
0.0
 40
1.0
100
AcDbArc
 50
90.0
 51
180.0
  0
ARC
  5
5C9
100
AcDbEntity
  8
2
100
AcDbCircle
 10
-327.900407
 20
73.626623
 30
0.0
 40
14.0
100
AcDbArc
 50
73.927141
 51
92.046713
  0
ARC
  5
5CA
100
AcDbEntity
  8
2
100
AcDbCircle
 10
-324.550407
 20
85.253639
 30
0.0
 40
1.9
100
AcDbArc
 50
30.803602
 51
73.927141
  0
LINE
  5
5CB
100
AcDbEntity
  8
2
100
AcDbLine
 10
-409.800407
 20
83.726623
 30
0.0
 11
-422.000407
 21
83.726623
 31
0.0
  0
LINE
  5
5CC
100
AcDbEntity
  8
2
100
AcDbLine
 10
-409.800407
 20
83.726623
 30
0.0
 11
-409.800407
 21
82.226623
 31
0.0
  0
LINE
  5
5CD
100
AcDbEntity
  8
2
100
AcDbLine
 10
-422.000407
 20
83.726623
 30
0.0
 11
-422.000407
 21
82.226623
 31
0.0
  0
LINE
  5
5CE
100
AcDbEntity
  8
2
100
AcDbLine
 10
-410.650407
 20
85.253639
 30
0.0
 11
-410.650407
 21
83.726623
 31
0.0
  0
LINE
  5
5CF
100
AcDbEntity
  8
2
100
AcDbLine
 10
-421.150407
 20
85.253639
 30
0.0
 11
-421.150407
 21
83.726623
 31
0.0
  0
ARC
  5
5D0
100
AcDbEntity
  8
2
100
AcDbCircle
 10
-415.900407
 20
73.626623
 30
0.0
 40
14.0
100
AcDbArc
 50
73.927141
 51
106.072859
  0
ARC
  5
5D1
100
AcDbEntity
  8
2
100
AcDbCircle
 10
-419.250407
 20
85.253639
 30
0.0
 40
1.9
100
AcDbArc
 50
106.072859
 51
180.0
  0
ARC
  5
5D2
100
AcDbEntity
  8
2
100
AcDbCircle
 10
-412.550407
 20
85.253639
 30
0.0
 40
1.9
100
AcDbArc
 50
0.0
 51
73.927141
  0
ARC
  5
5D3
100
AcDbEntity
  8
2
100
AcDbCircle
 10
-423.900407
 20
73.626623
 30
0.0
 40
14.0
100
AcDbArc
 50
87.953287
 51
106.072859
  0
ARC
  5
5D4
100
AcDbEntity
  8
2
100
AcDbCircle
 10
-427.250407
 20
85.253639
 30
0.0
 40
1.9
100
AcDbArc
 50
106.072859
 51
149.196398
  0
LINE
  5
5D5
100
AcDbEntity
  8
2
100
AcDbLine
 10
89.806817
 20
83.726623
 30
0.0
 11
102.006817
 21
83.726623
 31
0.0
  0
LINE
  5
5D6
100
AcDbEntity
  8
2
100
AcDbLine
 10
89.806817
 20
83.726623
 30
0.0
 11
89.806817
 21
82.226623
 31
0.0
  0
LINE
  5
5D7
100
AcDbEntity
  8
2
100
AcDbLine
 10
102.006817
 20
83.726623
 30
0.0
 11
102.006817
 21
82.226623
 31
0.0
  0
LINE
  5
5D8
100
AcDbEntity
  8
2
100
AcDbLine
 10
90.656817
 20
85.253639
 30
0.0
 11
90.656817
 21
83.726623
 31
0.0
  0
LINE
  5
5D9
100
AcDbEntity
  8
2
100
AcDbLine
 10
101.156817
 20
85.253639
 30
0.0
 11
101.156817
 21
83.726623
 31
0.0
  0
ARC
  5
5DA
100
AcDbEntity
  8
2
100
AcDbCircle
 10
95.906817
 20
73.626623
 30
0.0
 40
14.0
100
AcDbArc
 50
73.927141
 51
106.072859
  0
ARC
  5
5DB
100
AcDbEntity
  8
2
100
AcDbCircle
 10
99.256817
 20
85.253639
 30
0.0
 40
1.9
100
AcDbArc
 50
0.0
 51
73.927141
  0
ARC
  5
5DC
100
AcDbEntity
  8
2
100
AcDbCircle
 10
92.556817
 20
85.253639
 30
0.0
 40
1.9
100
AcDbArc
 50
106.072859
 51
180.0
  0
LINE
  5
5DD
100
AcDbEntity
  8
2
100
AcDbLine
 10
183.806817
 20
83.726623
 30
0.0
 11
196.006817
 21
83.726623
 31
0.0
  0
LINE
  5
5DE
100
AcDbEntity
  8
2
100
AcDbLine
 10
183.806817
 20
83.726623
 30
0.0
 11
183.806817
 21
82.226623
 31
0.0
  0
LINE
  5
5DF
100
AcDbEntity
  8
2
100
AcDbLine
 10
196.006817
 20
83.726623
 30
0.0
 11
196.006817
 21
82.226623
 31
0.0
  0
LINE
  5
5E0
100
AcDbEntity
  8
2
100
AcDbLine
 10
184.656817
 20
85.253639
 30
0.0
 11
184.656817
 21
83.726623
 31
0.0
  0
LINE
  5
5E1
100
AcDbEntity
  8
2
100
AcDbLine
 10
195.156817
 20
85.253639
 30
0.0
 11
195.156817
 21
83.726623
 31
0.0
  0
ARC
  5
5E2
100
AcDbEntity
  8
2
100
AcDbCircle
 10
189.906817
 20
73.626623
 30
0.0
 40
14.0
100
AcDbArc
 50
73.927141
 51
106.072859
  0
ARC
  5
5E3
100
AcDbEntity
  8
2
100
AcDbCircle
 10
193.256817
 20
85.253639
 30
0.0
 40
1.9
100
AcDbArc
 50
0.0
 51
73.927141
  0
ARC
  5
5E4
100
AcDbEntity
  8
2
100
AcDbCircle
 10
186.556817
 20
85.253639
 30
0.0
 40
1.9
100
AcDbArc
 50
106.072859
 51
180.0
  0
LINE
  5
5E5
100
AcDbEntity
  8
2
100
AcDbLine
 10
224.806817
 20
83.726623
 30
0.0
 11
237.006817
 21
83.726623
 31
0.0
  0
LINE
  5
5E6
100
AcDbEntity
  8
2
100
AcDbLine
 10
224.806817
 20
83.726623
 30
0.0
 11
224.806817
 21
82.226623
 31
0.0
  0
LINE
  5
5E7
100
AcDbEntity
  8
2
100
AcDbLine
 10
237.006817
 20
83.726623
 30
0.0
 11
237.006817
 21
82.226623
 31
0.0
  0
LINE
  5
5E8
100
AcDbEntity
  8
2
100
AcDbLine
 10
225.656817
 20
85.253639
 30
0.0
 11
225.656817
 21
83.726623
 31
0.0
  0
LINE
  5
5E9
100
AcDbEntity
  8
2
100
AcDbLine
 10
236.156817
 20
85.253639
 30
0.0
 11
236.156817
 21
83.726623
 31
0.0
  0
ARC
  5
5EA
100
AcDbEntity
  8
2
100
AcDbCircle
 10
230.906817
 20
73.626623
 30
0.0
 40
14.0
100
AcDbArc
 50
73.927141
 51
106.072859
  0
ARC
  5
5EB
100
AcDbEntity
  8
2
100
AcDbCircle
 10
234.256817
 20
85.253639
 30
0.0
 40
1.9
100
AcDbArc
 50
0.0
 51
73.927141
  0
ARC
  5
5EC
100
AcDbEntity
  8
2
100
AcDbCircle
 10
227.556817
 20
85.253639
 30
0.0
 40
1.9
100
AcDbArc
 50
106.072859
 51
180.0
  0
LINE
  5
5ED
100
AcDbEntity
  8
2
100
AcDbLine
 10
126.406817
 20
96.426623
 30
0.0
 11
126.406817
 21
97.405647
 31
0.0
  0
LINE
  5
5EE
100
AcDbEntity
  8
2
100
AcDbLine
 10
119.406817
 20
96.426623
 30
0.0
 11
119.406817
 21
97.405647
 31
0.0
  0
ARC
  5
5EF
100
AcDbEntity
  8
2
100
AcDbCircle
 10
122.906817
 20
90.026623
 30
0.0
 40
9.0
100
AcDbArc
 50
73.39845
 51
106.60155
  0
ARC
  5
5F0
100
AcDbEntity
  8
2
100
AcDbCircle
 10
120.706817
 20
97.405647
 30
0.0
 40
1.3
100
AcDbArc
 50
106.60155
 51
180.0
  0
ARC
  5
5F1
100
AcDbEntity
  8
2
100
AcDbCircle
 10
125.106817
 20
97.405647
 30
0.0
 40
1.3
100
AcDbArc
 50
0.0
 51
73.39845
  0
CIRCLE
  5
5F2
100
AcDbEntity
  8
2
 62
     2
100
AcDbCircle
 10
-352.900407
 20
55.926623
 30
0.0
 40
4.188
  0
CIRCLE
  5
5F3
100
AcDbEntity
  8
2
100
AcDbCircle
 10
-352.900407
 20
55.926623
 30
0.0
 40
8.25
  0
CIRCLE
  5
5F4
100
AcDbEntity
  8
2
100
AcDbCircle
 10
-352.900407
 20
55.926623
 30
0.0
 40
5.0
  0
LINE
  5
5F5
100
AcDbEntity
  8
2
100
AcDbLine
 10
-357.807885
 20
64.426623
 30
0.0
 11
-347.99293
 21
64.426623
 31
0.0
  0
LINE
  5
5F6
100
AcDbEntity
  8
2
100
AcDbLine
 10
-357.807885
 20
47.426623
 30
0.0
 11
-347.99293
 21
47.426623
 31
0.0
  0
LINE
  5
5F7
100
AcDbEntity
  8
2
100
AcDbLine
 10
-362.715362
 20
55.926623
 30
0.0
 11
-357.807885
 21
64.426623
 31
0.0
  0
LINE
  5
5F8
100
AcDbEntity
  8
2
100
AcDbLine
 10
-347.99293
 20
47.426623
 30
0.0
 11
-343.085453
 21
55.926623
 31
0.0
  0
LINE
  5
5F9
100
AcDbEntity
  8
2
100
AcDbLine
 10
-357.807885
 20
47.426623
 30
0.0
 11
-362.715362
 21
55.926623
 31
0.0
  0
LINE
  5
5FA
100
AcDbEntity
  8
2
100
AcDbLine
 10
-343.085453
 20
55.926623
 30
0.0
 11
-347.99293
 21
64.426623
 31
0.0
  0
LINE
  5
5FB
100
AcDbEntity
  8
2
100
AcDbLine
 10
-355.400407
 20
54.483247
 30
0.0
 11
-355.400407
 21
57.369998
 31
0.0
  0
LINE
  5
5FC
100
AcDbEntity
  8
2
100
AcDbLine
 10
-350.400407
 20
54.483247
 30
0.0
 11
-350.400407
 21
57.369998
 31
0.0
  0
LINE
  5
5FD
100
AcDbEntity
  8
2
100
AcDbLine
 10
-350.400407
 20
57.369998
 30
0.0
 11
-352.900407
 21
58.813374
 31
0.0
  0
LINE
  5
5FE
100
AcDbEntity
  8
2
100
AcDbLine
 10
-352.900407
 20
53.039871
 30
0.0
 11
-355.400407
 21
54.483247
 31
0.0
  0
LINE
  5
5FF
100
AcDbEntity
  8
2
100
AcDbLine
 10
-350.400407
 20
54.483247
 30
0.0
 11
-352.900407
 21
53.039871
 31
0.0
  0
LINE
  5
600
100
AcDbEntity
  8
2
100
AcDbLine
 10
-352.900407
 20
58.813374
 30
0.0
 11
-355.400407
 21
57.369998
 31
0.0
  0
CIRCLE
  5
601
100
AcDbEntity
  8
2
 62
     2
100
AcDbCircle
 10
-398.900407
 20
55.926623
 30
0.0
 40
4.188
  0
CIRCLE
  5
602
100
AcDbEntity
  8
2
100
AcDbCircle
 10
-398.900407
 20
55.926623
 30
0.0
 40
8.25
  0
CIRCLE
  5
603
100
AcDbEntity
  8
2
100
AcDbCircle
 10
-398.900407
 20
55.926623
 30
0.0
 40
5.0
  0
LINE
  5
604
100
AcDbEntity
  8
2
100
AcDbLine
 10
-393.99293
 20
64.426623
 30
0.0
 11
-403.807885
 21
64.426623
 31
0.0
  0
LINE
  5
605
100
AcDbEntity
  8
2
100
AcDbLine
 10
-393.99293
 20
47.426623
 30
0.0
 11
-403.807885
 21
47.426623
 31
0.0
  0
LINE
  5
606
100
AcDbEntity
  8
2
100
AcDbLine
 10
-389.085453
 20
55.926623
 30
0.0
 11
-393.99293
 21
64.426623
 31
0.0
  0
LINE
  5
607
100
AcDbEntity
  8
2
100
AcDbLine
 10
-403.807885
 20
47.426623
 30
0.0
 11
-408.715362
 21
55.926623
 31
0.0
  0
LINE
  5
608
100
AcDbEntity
  8
2
100
AcDbLine
 10
-393.99293
 20
47.426623
 30
0.0
 11
-389.085453
 21
55.926623
 31
0.0
  0
LINE
  5
609
100
AcDbEntity
  8
2
100
AcDbLine
 10
-408.715362
 20
55.926623
 30
0.0
 11
-403.807885
 21
64.426623
 31
0.0
  0
LINE
  5
60A
100
AcDbEntity
  8
2
100
AcDbLine
 10
-396.400407
 20
54.483247
 30
0.0
 11
-396.400407
 21
57.369998
 31
0.0
  0
LINE
  5
60B
100
AcDbEntity
  8
2
100
AcDbLine
 10
-401.400407
 20
54.483247
 30
0.0
 11
-401.400407
 21
57.369998
 31
0.0
  0
LINE
  5
60C
100
AcDbEntity
  8
2
100
AcDbLine
 10
-401.400407
 20
57.369998
 30
0.0
 11
-398.900407
 21
58.813374
 31
0.0
  0
LINE
  5
60D
100
AcDbEntity
  8
2
100
AcDbLine
 10
-398.900407
 20
53.039871
 30
0.0
 11
-396.400407
 21
54.483247
 31
0.0
  0
LINE
  5
60E
100
AcDbEntity
  8
2
100
AcDbLine
 10
-401.400407
 20
54.483247
 30
0.0
 11
-398.900407
 21
53.039871
 31
0.0
  0
LINE
  5
60F
100
AcDbEntity
  8
2
100
AcDbLine
 10
-398.900407
 20
58.813374
 30
0.0
 11
-396.400407
 21
57.369998
 31
0.0
  0
LINE
  5
610
100
AcDbEntity
  8
2
100
AcDbLine
 10
-343.100407
 20
243.074433
 30
0.0
 11
-343.100407
 21
238.864219
 31
0.0
  0
LINE
  5
611
100
AcDbEntity
  8
2
100
AcDbLine
 10
-343.100407
 20
238.864219
 30
0.0
 11
-344.650407
 21
237.969326
 31
0.0
  0
LINE
  5
612
100
AcDbEntity
  8
2
100
AcDbLine
 10
-348.000407
 20
243.074433
 30
0.0
 11
-348.000407
 21
238.864219
 31
0.0
  0
ARC
  5
613
100
AcDbEntity
  8
2
100
AcDbCircle
 10
-345.550407
 20
242.013777
 30
0.0
 40
3.990265
100
AcDbArc
 50
232.121121
 51
307.878879
  0
ARC
  5
614
100
AcDbEntity
  8
2
100
AcDbCircle
 10
-352.900407
 20
252.723512
 30
0.0
 40
14.7
100
AcDbArc
 50
250.528777
 51
289.471219
  0
LINE
  5
615
100
AcDbEntity
  8
2
100
AcDbLine
 10
-362.700407
 20
243.074433
 30
0.0
 11
-362.700407
 21
238.864219
 31
0.0
  0
LINE
  5
616
100
AcDbEntity
  8
2
100
AcDbLine
 10
-362.700407
 20
238.864219
 30
0.0
 11
-361.150407
 21
237.969326
 31
0.0
  0
LINE
  5
617
100
AcDbEntity
  8
2
100
AcDbLine
 10
-361.150407
 20
237.969326
 30
0.0
 11
-344.650407
 21
237.969326
 31
0.0
  0
LINE
  5
618
100
AcDbEntity
  8
2
100
AcDbLine
 10
-357.800407
 20
243.074433
 30
0.0
 11
-357.800407
 21
238.864219
 31
0.0
  0
ARC
  5
619
100
AcDbEntity
  8
2
100
AcDbCircle
 10
-360.250407
 20
242.013777
 30
0.0
 40
3.990265
100
AcDbArc
 50
232.121121
 51
307.878879
  0
ARC
  5
61A
100
AcDbEntity
  8
2
100
AcDbCircle
 10
-345.550407
 20
239.924875
 30
0.0
 40
3.990265
100
AcDbArc
 50
52.121121
 51
127.878879
  0
ARC
  5
61B
100
AcDbEntity
  8
2
100
AcDbCircle
 10
-352.900407
 20
229.21514
 30
0.0
 40
14.7
100
AcDbArc
 50
70.528781
 51
109.471223
  0
ARC
  5
61C
100
AcDbEntity
  8
2
100
AcDbCircle
 10
-360.250407
 20
239.924875
 30
0.0
 40
3.990265
100
AcDbArc
 50
52.121121
 51
127.878879
  0
LINE
  5
61D
100
AcDbEntity
  8
2
100
AcDbLine
 10
-362.700407
 20
243.074433
 30
0.0
 11
-361.150407
 21
243.969326
 31
0.0
  0
LINE
  5
61E
100
AcDbEntity
  8
2
100
AcDbLine
 10
-343.100407
 20
243.074433
 30
0.0
 11
-344.650407
 21
243.969326
 31
0.0
  0
LINE
  5
61F
100
AcDbEntity
  8
2
100
AcDbLine
 10
-357.088407
 20
229.469326
 30
0.0
 11
-357.900407
 21
230.281326
 31
0.0
  0
LINE
  5
620
100
AcDbEntity
  8
2
100
AcDbLine
 10
-357.900407
 20
230.281326
 30
0.0
 11
-357.900407
 21
237.969326
 31
0.0
  0
LINE
  5
621
100
AcDbEntity
  8
2
 62
     2
100
AcDbLine
 10
-357.088407
 20
229.469326
 30
0.0
 11
-357.088407
 21
237.969326
 31
0.0
  0
LINE
  5
622
100
AcDbEntity
  8
2
100
AcDbLine
 10
-348.712407
 20
229.469326
 30
0.0
 11
-357.088407
 21
229.469326
 31
0.0
  0
LINE
  5
623
100
AcDbEntity
  8
2
100
AcDbLine
 10
-348.712407
 20
229.469326
 30
0.0
 11
-347.900407
 21
230.281326
 31
0.0
  0
LINE
  5
624
100
AcDbEntity
  8
2
100
AcDbLine
 10
-347.900407
 20
230.281326
 30
0.0
 11
-347.900407
 21
237.969326
 31
0.0
  0
LINE
  5
625
100
AcDbEntity
  8
2
100
AcDbLine
 10
-347.900407
 20
230.281326
 30
0.0
 11
-357.900407
 21
230.281326
 31
0.0
  0
LINE
  5
626
100
AcDbEntity
  8
2
 62
     2
100
AcDbLine
 10
-348.712407
 20
229.469326
 30
0.0
 11
-348.712407
 21
237.969326
 31
0.0
  0
LINE
  5
627
100
AcDbEntity
  8
2
100
AcDbLine
 10
-408.700407
 20
238.864219
 30
0.0
 11
-407.150407
 21
237.969326
 31
0.0
  0
LINE
  5
628
100
AcDbEntity
  8
2
100
AcDbLine
 10
-403.800407
 20
243.074433
 30
0.0
 11
-403.800407
 21
238.864219
 31
0.0
  0
ARC
  5
629
100
AcDbEntity
  8
2
100
AcDbCircle
 10
-406.250407
 20
242.013777
 30
0.0
 40
3.990265
100
AcDbArc
 50
232.121121
 51
307.878879
  0
ARC
  5
62A
100
AcDbEntity
  8
2
100
AcDbCircle
 10
-398.900407
 20
252.723512
 30
0.0
 40
14.7
100
AcDbArc
 50
250.528781
 51
289.471223
  0
LINE
  5
62B
100
AcDbEntity
  8
2
100
AcDbLine
 10
-389.100407
 20
243.074433
 30
0.0
 11
-389.100407
 21
238.864219
 31
0.0
  0
LINE
  5
62C
100
AcDbEntity
  8
2
100
AcDbLine
 10
-389.100407
 20
238.864219
 30
0.0
 11
-390.650407
 21
237.969326
 31
0.0
  0
LINE
  5
62D
100
AcDbEntity
  8
2
100
AcDbLine
 10
-390.650407
 20
237.969326
 30
0.0
 11
-407.150407
 21
237.969326
 31
0.0
  0
LINE
  5
62E
100
AcDbEntity
  8
2
100
AcDbLine
 10
-394.000407
 20
243.074433
 30
0.0
 11
-394.000407
 21
238.864219
 31
0.0
  0
ARC
  5
62F
100
AcDbEntity
  8
2
100
AcDbCircle
 10
-391.550407
 20
242.013777
 30
0.0
 40
3.990265
100
AcDbArc
 50
232.121121
 51
307.878879
  0
ARC
  5
630
100
AcDbEntity
  8
2
100
AcDbCircle
 10
-406.250407
 20
239.924875
 30
0.0
 40
3.990265
100
AcDbArc
 50
52.121121
 51
127.878879
  0
ARC
  5
631
100
AcDbEntity
  8
2
100
AcDbCircle
 10
-398.900407
 20
229.21514
 30
0.0
 40
14.7
100
AcDbArc
 50
70.528777
 51
109.471219
  0
ARC
  5
632
100
AcDbEntity
  8
2
100
AcDbCircle
 10
-391.550407
 20
239.924875
 30
0.0
 40
3.990265
100
AcDbArc
 50
52.121121
 51
127.878879
  0
LINE
  5
633
100
AcDbEntity
  8
2
100
AcDbLine
 10
-389.100407
 20
243.074433
 30
0.0
 11
-390.650407
 21
243.969326
 31
0.0
  0
LINE
  5
634
100
AcDbEntity
  8
2
100
AcDbLine
 10
-408.700407
 20
243.074433
 30
0.0
 11
-407.150407
 21
243.969326
 31
0.0
  0
LINE
  5
635
100
AcDbEntity
  8
2
100
AcDbLine
 10
-394.712407
 20
229.469326
 30
0.0
 11
-393.900407
 21
230.281326
 31
0.0
  0
LINE
  5
636
100
AcDbEntity
  8
2
100
AcDbLine
 10
-393.900407
 20
230.281326
 30
0.0
 11
-393.900407
 21
237.969326
 31
0.0
  0
LINE
  5
637
100
AcDbEntity
  8
2
 62
     2
100
AcDbLine
 10
-394.712407
 20
229.469326
 30
0.0
 11
-394.712407
 21
237.969326
 31
0.0
  0
LINE
  5
638
100
AcDbEntity
  8
2
100
AcDbLine
 10
-403.088407
 20
229.469326
 30
0.0
 11
-394.712407
 21
229.469326
 31
0.0
  0
LINE
  5
639
100
AcDbEntity
  8
2
100
AcDbLine
 10
-403.088407
 20
229.469326
 30
0.0
 11
-403.900407
 21
230.281326
 31
0.0
  0
LINE
  5
63A
100
AcDbEntity
  8
2
100
AcDbLine
 10
-403.900407
 20
230.281326
 30
0.0
 11
-403.900407
 21
237.969326
 31
0.0
  0
LINE
  5
63B
100
AcDbEntity
  8
2
100
AcDbLine
 10
-403.900407
 20
230.281326
 30
0.0
 11
-393.900407
 21
230.281326
 31
0.0
  0
LINE
  5
63C
100
AcDbEntity
  8
2
 62
     2
100
AcDbLine
 10
-403.088407
 20
229.469326
 30
0.0
 11
-403.088407
 21
237.969326
 31
0.0
  0
LINE
  5
63D
100
AcDbEntity
  8
2
100
AcDbLine
 10
-408.700407
 20
243.074433
 30
0.0
 11
-408.700407
 21
238.864219
 31
0.0
  0
LINE
  5
63E
100
AcDbEntity
  8
2
100
AcDbLine
 10
84.906817
 20
47.426623
 30
0.0
 11
78.906817
 21
47.426623
 31
0.0
  0
LINE
  5
63F
100
AcDbEntity
  8
2
100
AcDbLine
 10
78.906817
 20
47.426623
 30
0.0
 11
78.906817
 21
64.426623
 31
0.0
  0
ARC
  5
640
100
AcDbEntity
  8
2
100
AcDbCircle
 10
89.446253
 20
51.676623
 30
0.0
 40
10.539436
100
AcDbArc
 50
156.218654
 51
203.781346
  0
LINE
  5
641
100
AcDbEntity
  8
2
100
AcDbLine
 10
84.906817
 20
64.426623
 30
0.0
 11
78.906817
 21
64.426623
 31
0.0
  0
ARC
  5
642
100
AcDbEntity
  8
2
100
AcDbCircle
 10
89.446253
 20
60.176623
 30
0.0
 40
10.539436
100
AcDbArc
 50
156.218654
 51
203.781346
  0
ARC
  5
643
100
AcDbEntity
  8
2
100
AcDbCircle
 10
74.367381
 20
60.176623
 30
0.0
 40
10.539436
100
AcDbArc
 50
336.218654
 51
23.781346
  0
ARC
  5
644
100
AcDbEntity
  8
2
100
AcDbCircle
 10
74.367381
 20
51.676623
 30
0.0
 40
10.539436
100
AcDbArc
 50
336.218654
 51
23.781346
  0
LINE
  5
645
100
AcDbEntity
  8
2
100
AcDbLine
 10
79.80171
 20
55.926623
 30
0.0
 11
84.011924
 21
55.926623
 31
0.0
  0
LINE
  5
646
100
AcDbEntity
  8
2
100
AcDbLine
 10
70.406817
 20
60.114623
 30
0.0
 11
71.218817
 21
60.926623
 31
0.0
  0
LINE
  5
647
100
AcDbEntity
  8
2
100
AcDbLine
 10
71.218817
 20
60.926623
 30
0.0
 11
78.906817
 21
60.926623
 31
0.0
  0
LINE
  5
648
100
AcDbEntity
  8
2
 62
     2
100
AcDbLine
 10
70.406817
 20
60.114623
 30
0.0
 11
78.906817
 21
60.114623
 31
0.0
  0
LINE
  5
649
100
AcDbEntity
  8
2
100
AcDbLine
 10
70.406817
 20
51.738623
 30
0.0
 11
70.406817
 21
60.114623
 31
0.0
  0
LINE
  5
64A
100
AcDbEntity
  8
2
100
AcDbLine
 10
70.406817
 20
51.738623
 30
0.0
 11
71.218817
 21
50.926623
 31
0.0
  0
LINE
  5
64B
100
AcDbEntity
  8
2
100
AcDbLine
 10
71.218817
 20
50.926623
 30
0.0
 11
78.906817
 21
50.926623
 31
0.0
  0
LINE
  5
64C
100
AcDbEntity
  8
2
100
AcDbLine
 10
71.218817
 20
50.926623
 30
0.0
 11
71.218817
 21
60.926623
 31
0.0
  0
LINE
  5
64D
100
AcDbEntity
  8
2
 62
     2
100
AcDbLine
 10
70.406817
 20
51.738623
 30
0.0
 11
78.906817
 21
51.738623
 31
0.0
  0
LINE
  5
64E
100
AcDbEntity
  8
2
  6
CENTER
 62
     2
100
AcDbLine
 10
167.906817
 20
83.736849
 30
0.0
 11
167.906817
 21
102.310594
 31
0.0
  0
LINE
  5
64F
100
AcDbEntity
  8
2
  6
CENTER
 62
     2
100
AcDbLine
 10
-382.400407
 20
326.969326
 30
0.0
 11
-369.400407
 21
326.969326
 31
0.0
  0
LINE
  5
650
100
AcDbEntity
  8
2
  6
CENTER
 62
     2
100
AcDbLine
 10
-426.400407
 20
254.969326
 30
0.0
 11
-405.400407
 21
254.969326
 31
0.0
  0
LINE
  5
651
100
AcDbEntity
  8
2
  6
CENTER
 62
     2
100
AcDbLine
 10
-415.900407
 20
244.469326
 30
0.0
 11
-415.900407
 21
265.469326
 31
0.0
  0
LINE
  5
652
100
AcDbEntity
  8
2
  6
CENTER
 62
     2
100
AcDbLine
 10
-346.400407
 20
254.969326
 30
0.0
 11
-325.400407
 21
254.969326
 31
0.0
  0
LINE
  5
653
100
AcDbEntity
  8
2
  6
CENTER
 62
     2
100
AcDbLine
 10
-335.900407
 20
244.469326
 30
0.0
 11
-335.900407
 21
265.469326
 31
0.0
  0
LINE
  5
654
100
AcDbEntity
  8
2
  6
CENTER
 62
     2
100
AcDbLine
 10
-426.900407
 20
389.969326
 30
0.0
 11
-405.900407
 21
389.969326
 31
0.0
  0
LINE
  5
655
100
AcDbEntity
  8
2
  6
CENTER
 62
     2
100
AcDbLine
 10
-416.400407
 20
379.469326
 30
0.0
 11
-416.400407
 21
400.469326
 31
0.0
  0
LINE
  5
656
100
AcDbEntity
  8
2
  6
CENTER
 62
     2
100
AcDbLine
 10
-434.400407
 20
348.969326
 30
0.0
 11
-413.400407
 21
348.969326
 31
0.0
  0
LINE
  5
657
100
AcDbEntity
  8
2
  6
CENTER
 62
     2
100
AcDbLine
 10
-423.900407
 20
338.469326
 30
0.0
 11
-423.900407
 21
359.469326
 31
0.0
  0
LINE
  5
658
100
AcDbEntity
  8
2
  6
CENTER
 62
     2
100
AcDbLine
 10
-338.400407
 20
348.969326
 30
0.0
 11
-317.400407
 21
348.969326
 31
0.0
  0
LINE
  5
659
100
AcDbEntity
  8
2
  6
CENTER
 62
     2
100
AcDbLine
 10
-327.900407
 20
338.469326
 30
0.0
 11
-327.900407
 21
359.469326
 31
0.0
  0
LINE
  5
65A
100
AcDbEntity
  8
2
  6
CENTER
 62
     2
100
AcDbLine
 10
-345.900407
 20
389.969326
 30
0.0
 11
-324.900407
 21
389.969326
 31
0.0
  0
LINE
  5
65B
100
AcDbEntity
  8
2
  6
CENTER
 62
     2
100
AcDbLine
 10
-335.400407
 20
379.469326
 30
0.0
 11
-335.400407
 21
400.469326
 31
0.0
  0
LINE
  5
65C
100
AcDbEntity
  8
2
  6
CENTER
 62
     2
100
AcDbLine
 10
-451.585313
 20
55.926623
 30
0.0
 11
-165.479637
 21
55.926623
 31
0.0
  0
LINE
  5
65D
100
AcDbEntity
  8
2
  6
CENTER
 62
     2
100
AcDbLine
 10
-375.900407
 20
227.116165
 30
0.0
 11
-375.900407
 21
415.092694
 31
0.0
  0
LINE
  5
65E
100
AcDbEntity
  8
2
  6
CENTER
 62
     2
100
AcDbLine
 10
-335.900407
 20
90.426623
 30
0.0
 11
-335.900407
 21
66.650835
 31
0.0
  0
LINE
  5
65F
100
AcDbEntity
  8
2
  6
CENTER
 62
     2
100
AcDbLine
 10
230.906817
 20
93.818117
 30
0.0
 11
230.906817
 21
66.650835
 31
0.0
  0
LINE
  5
660
100
AcDbEntity
  8
2
  6
CENTER
 62
     2
100
AcDbLine
 10
189.906817
 20
93.818117
 30
0.0
 11
189.906817
 21
66.650835
 31
0.0
  0
LINE
  5
661
100
AcDbEntity
  8
2
  6
CENTER
 62
     2
100
AcDbLine
 10
95.906817
 20
93.818117
 30
0.0
 11
95.906817
 21
66.650835
 31
0.0
  0
LINE
  5
662
100
AcDbEntity
  8
2
  6
CENTER
 62
     2
100
AcDbLine
 10
59.041659
 20
55.926623
 30
0.0
 11
327.406817
 21
55.926623
 31
0.0
  0
LINE
  5
663
100
AcDbEntity
  8
2
  6
CENTER
 62
     2
100
AcDbLine
 10
212.406817
 20
170.926623
 30
0.0
 11
212.406817
 21
-59.073377
 31
0.0
  0
LINE
  5
664
100
AcDbEntity
  8
2
  6
CENTER
 62
     2
100
AcDbLine
 10
-352.900407
 20
42.926623
 30
0.0
 11
-352.900407
 21
68.926623
 31
0.0
  0
LINE
  5
665
100
AcDbEntity
  8
2
  6
CENTER
 62
     2
100
AcDbLine
 10
-352.900407
 20
222.262306
 30
0.0
 11
-352.900407
 21
257.852108
 31
0.0
  0
LINE
  5
666
100
AcDbEntity
  8
2
  6
CENTER
 62
     2
100
AcDbLine
 10
-449.477373
 20
371.469326
 30
0.0
 11
-165.479637
 21
371.469326
 31
0.0
  0
LINE
  5
667
100
AcDbEntity
  8
2
  6
CENTER
 62
     2
100
AcDbLine
 10
-382.400407
 20
281.969326
 30
0.0
 11
-369.400407
 21
281.969326
 31
0.0
  0
LINE
  5
668
100
AcDbEntity
  8
2
  6
CENTER
 62
     2
100
AcDbLine
 10
-327.900407
 20
93.818117
 30
0.0
 11
-327.900407
 21
80.226623
 31
0.0
  0
LINE
  5
669
100
AcDbEntity
  8
2
  6
CENTER
 62
     2
100
AcDbLine
 10
-415.900407
 20
93.818117
 30
0.0
 11
-415.900407
 21
66.650835
 31
0.0
  0
LINE
  5
66A
100
AcDbEntity
  8
2
  6
CENTER
 62
     2
100
AcDbLine
 10
-423.900407
 20
93.818117
 30
0.0
 11
-423.900407
 21
80.226623
 31
0.0
  0
LINE
  5
66B
100
AcDbEntity
  8
2
  6
CENTER
 62
     2
100
AcDbLine
 10
122.906817
 20
83.736849
 30
0.0
 11
122.906817
 21
102.310594
 31
0.0
  0
LINE
  5
66C
100
AcDbEntity
  8
2
  6
CENTER
 62
     2
100
AcDbLine
 10
-398.900407
 20
42.926623
 30
0.0
 11
-398.900407
 21
68.926623
 31
0.0
  0
LINE
  5
66D
100
AcDbEntity
  8
2
  6
CENTER
 62
     2
100
AcDbLine
 10
-398.900407
 20
222.262306
 30
0.0
 11
-398.900407
 21
257.852108
 31
0.0
  0
TEXT
  5
66E
100
AcDbEntity
  8
2
100
AcDbText
 10
-378.300407
 20
261.169326
 30
0.0
 40
4.8
  1
Ａ
 72
     5
 11
-374.460407
 21
261.169326
 31
0.0
100
AcDbText
  0
LINE
  5
66F
100
AcDbEntity
  8
2
100
AcDbLine
 10
94.406817
 20
14.426623
 30
0.0
 11
196.406817
 21
14.426623
 31
0.0
  0
DIMENSION
  5
670
100
AcDbEntity
  8
5
100
AcDbDimension
  2
*D0
 10
-119.233925
 20
-44.073377
 30
0.0
 11
-139.713925
 21
50.646623
 31
0.0
 70
     1
  1
%%c200
100
AcDbAlignedDimension
 13
-198.900407
 23
155.926623
 33
0.0
 14
-198.900407
 24
-44.073377
 34
0.0
 50
90.0
  0
DIMENSION
  5
671
100
AcDbEntity
  8
5
100
AcDbDimension
  2
*D1
 10
20.07835
 20
55.926623
 30
0.0
 11
-0.40165
 21
79.126622
 31
0.0
  1
41.5
100
AcDbAlignedDimension
 13
94.406817
 23
14.426623
 33
0.0
 14
59.041659
 24
55.926623
 34
0.0
 50
90.0
100
AcDbRotatedDimension
  0
DIMENSION
  5
672
100
AcDbEntity
  8
5
100
AcDbDimension
  2
*D2
 10
-177.900407
 20
498.093414
 30
0.0
 11
-276.900407
 21
506.693414
 31
0.0
  1
198
100
AcDbAlignedDimension
 13
-375.900407
 23
415.092694
 33
0.0
 14
-177.900407
 24
377.719326
 34
0.0
100
AcDbRotatedDimension
  0
DIMENSION
  5
673
100
AcDbEntity
  8
5
100
AcDbDimension
  2
*D3
 10
-119.233925
 20
371.469326
 30
0.0
 11
-130.473925
 21
341.929326
 31
0.0
  1
67
100
AcDbAlignedDimension
 13
-153.952989
 23
304.469326
 33
0.0
 14
-165.479637
 24
371.469326
 34
0.0
 50
90.0
100
AcDbRotatedDimension
  0
DIMENSION
  5
674
100
AcDbEntity
  8
5
100
AcDbDimension
  2
*D4
 10
-119.233925
 20
304.469326
 30
0.0
 11
-130.473925
 21
270.929326
 31
0.0
  1
75
100
AcDbAlignedDimension
 13
-348.712407
 23
229.469326
 33
0.0
 14
-153.952989
 24
304.469326
 34
0.0
 50
90.0
100
AcDbRotatedDimension
  0
DIMENSION
  5
675
100
AcDbEntity
  8
5
100
AcDbDimension
  2
*D5
 10
20.07835
 20
-245.573377
 30
0.0
 11
4.21835
 21
-376.233377
 31
0.0
  1
260
100
AcDbAlignedDimension
 13
104.906817
 23
-505.573377
 33
0.0
 14
77.078425
 24
-245.573377
 34
0.0
 50
90.0
100
AcDbRotatedDimension
  0
DIMENSION
  5
676
100
AcDbEntity
  8
5
100
AcDbDimension
  2
*D6
 10
20.07835
 20
14.426623
 30
0.0
 11
4.21835
 21
-116.233377
 31
0.0
  1
260
100
AcDbAlignedDimension
 13
77.078425
 23
-245.573377
 33
0.0
 14
94.406817
 24
14.426623
 34
0.0
 50
90.0
100
AcDbRotatedDimension
  0
DIMENSION
  5
677
100
AcDbEntity
  8
5
100
AcDbDimension
  2
*D7
 10
179.406817
 20
-438.417206
 30
0.0
 11
92.166817
 21
-429.817206
 31
0.0
  1
68
100
AcDbAlignedDimension
 13
111.406817
 23
-400.573377
 33
0.0
 14
179.406817
 24
-400.573377
 34
0.0
100
AcDbRotatedDimension
  0
TEXT
  5
678
100
AcDbEntity
  8
18
100
AcDbText
 10
488.578522
 20
-533.055969
 30
0.0
 40
12.0
  1
１
 72
     5
 11
498.178522
 21
-533.055969
 31
0.0
100
AcDbText
  0
TEXT
  5
679
100
AcDbEntity
  8
18
100
AcDbText
 10
491.416962
 20
-508.141052
 30
0.0
 40
12.0
  1
標準仕様
 72
     5
 11
537.016962
 21
-508.141052
 31
0.0
100
AcDbText
  0
TEXT
  5
67A
100
AcDbEntity
  8
18
100
AcDbText
 10
506.164917
 20
-548.404053
 30
0.0
 40
12.0
  1
４
 72
     5
 11
515.764917
 21
-548.404053
 31
0.0
100
AcDbText
  0
LINE
  5
67B
100
AcDbEntity
  8
18
100
AcDbLine
 10
486.196304
 20
-272.862473
 30
0.0
 11
686.196304
 21
-272.862473
 31
0.0
  0
LINE
  5
67C
100
AcDbEntity
  8
18
100
AcDbLine
 10
486.196304
 20
-352.862473
 30
0.0
 11
686.196304
 21
-352.862473
 31
0.0
  0
LINE
  5
67D
100
AcDbEntity
  8
18
100
AcDbLine
 10
486.196304
 20
-372.862473
 30
0.0
 11
686.196304
 21
-372.862473
 31
0.0
  0
LINE
  5
67E
100
AcDbEntity
  8
18
100
AcDbLine
 10
486.196304
 20
-392.862473
 30
0.0
 11
686.196304
 21
-392.862473
 31
0.0
  0
LINE
  5
67F
100
AcDbEntity
  8
18
100
AcDbLine
 10
486.196304
 20
-272.862473
 30
0.0
 11
486.196304
 21
-392.862473
 31
0.0
  0
LINE
  5
680
100
AcDbEntity
  8
18
100
AcDbLine
 10
586.196304
 20
-272.862473
 30
0.0
 11
586.196304
 21
-372.862473
 31
0.0
  0
LINE
  5
681
100
AcDbEntity
  8
18
100
AcDbLine
 10
686.196304
 20
-272.862473
 30
0.0
 11
686.196304
 21
-392.862473
 31
0.0
  0
TEXT
  5
682
100
AcDbEntity
  8
18
100
AcDbText
 10
526.719254
 20
-368.150955
 30
0.0
 40
12.0
  1
Ａ
 72
     5
 11
536.319254
 21
-368.150955
 31
0.0
100
AcDbText
  0
TEXT
  5
683
100
AcDbEntity
  8
18
100
AcDbText
 10
502.16481
 20
-386.997009
 30
0.0
 40
10.0
  1
ＡＣＴＵＡＴＯＲ　ＰＯＳＩＴＩＯＮ
 72
     5
 11
670.16481
 21
-386.997009
 31
0.0
100
AcDbText
  0
TEXT
  5
684
100
AcDbEntity
  8
18
100
AcDbText
 10
626.719254
 20
-368.150955
 30
0.0
 40
12.0
  1
Ｂ
 72
     5
 11
636.319254
 21
-368.150955
 31
0.0
100
AcDbText
  0
LINE
  5
685
100
AcDbEntity
  8
18
  6
CENTER
 62
     2
100
AcDbLine
 10
495.83208
 20
-317.073116
 30
0.0
 11
559.886647
 21
-317.073116
 31
0.0
  0
LINE
  5
686
100
AcDbEntity
  8
18
  6
CENTER
 62
     2
100
AcDbLine
 10
528.330957
 20
-293.410542
 30
0.0
 11
528.330957
 21
-333.488634
 31
0.0
  0
LINE
  5
687
100
AcDbEntity
  8
18
100
AcDbLine
 10
556.410957
 20
-308.433116
 30
0.0
 11
556.410957
 21
-325.713116
 31
0.0
  0
LINE
  5
688
100
AcDbEntity
  8
18
100
AcDbLine
 10
500.250957
 20
-308.433116
 30
0.0
 11
500.250957
 21
-325.713116
 31
0.0
  0
LINE
  5
689
100
AcDbEntity
  8
18
100
AcDbLine
 10
500.250957
 20
-308.433116
 30
0.0
 11
516.42302
 21
-308.433116
 31
0.0
  0
LINE
  5
68A
100
AcDbEntity
  8
18
100
AcDbLine
 10
540.238894
 20
-308.433116
 30
0.0
 11
556.410957
 21
-308.433116
 31
0.0
  0
LINE
  5
68B
100
AcDbEntity
  8
18
100
AcDbLine
 10
500.250957
 20
-325.713116
 30
0.0
 11
520.368968
 21
-325.713116
 31
0.0
  0
LINE
  5
68C
100
AcDbEntity
  8
18
100
AcDbLine
 10
536.292946
 20
-325.713116
 30
0.0
 11
556.410957
 21
-325.713116
 31
0.0
  0
TEXT
  5
68D
100
AcDbEntity
  8
18
100
AcDbText
 10
525.600818
 20
-310.870553
 30
0.0
 40
5.4
  1
O
 72
     5
 11
529.920818
 21
-310.870553
 31
0.0
100
AcDbText
  0
TEXT
  5
68E
100
AcDbEntity
  8
18
100
AcDbText
 10
539.511792
 20
-319.713588
 30
0.0
 40
5.4
  1
S
 50
90.0
 72
     5
 11
539.511792
 21
-315.393588
 31
0.0
100
AcDbText
  0
LINE
  5
68F
100
AcDbEntity
  8
18
100
AcDbLine
 10
536.269203
 20
-299.608141
 30
0.0
 11
520.392711
 21
-299.608141
 31
0.0
  0
ARC
  5
690
100
AcDbEntity
  8
18
100
AcDbCircle
 10
536.269203
 20
-302.148501
 30
0.0
 40
2.54036
100
AcDbArc
 50
5.0
 51
90.0
  0
ARC
  5
691
100
AcDbEntity
  8
18
100
AcDbCircle
 10
520.392711
 20
-302.148501
 30
0.0
 40
2.54036
100
AcDbArc
 50
90.0
 51
175.0
  0
ARC
  5
692
100
AcDbEntity
  8
18
100
AcDbCircle
 10
528.330957
 20
-317.073116
 30
0.0
 40
11.749165
100
AcDbArc
 50
175.000003
 51
256.648816
  0
ARC
  5
693
100
AcDbEntity
  8
18
100
AcDbCircle
 10
528.330957
 20
-317.073116
 30
0.0
 40
11.749165
100
AcDbArc
 50
283.351184
 51
5.0
  0
LINE
  5
694
100
AcDbEntity
  8
18
100
AcDbLine
 10
516.42302
 20
-309.452036
 30
0.0
 11
516.42302
 21
-300.184141
 31
0.0
  0
LINE
  5
695
100
AcDbEntity
  8
18
100
AcDbLine
 10
540.238894
 20
-300.184141
 30
0.0
 11
540.238894
 21
-309.452036
 31
0.0
  0
LINE
  5
696
100
AcDbEntity
  8
18
100
AcDbLine
 10
516.42302
 20
-309.452036
 30
0.0
 11
517.20367
 21
-309.452036
 31
0.0
  0
LINE
  5
697
100
AcDbEntity
  8
18
100
AcDbLine
 10
539.458244
 20
-309.452036
 30
0.0
 11
540.238894
 21
-309.452036
 31
0.0
  0
LINE
  5
698
100
AcDbEntity
  8
18
100
AcDbLine
 10
531.044063
 20
-328.504735
 30
0.0
 11
525.617851
 21
-328.504735
 31
0.0
  0
LINE
  5
699
100
AcDbEntity
  8
18
100
AcDbLine
 10
540.238894
 20
-303.736226
 30
0.0
 11
571.834622
 21
-303.736226
 31
0.0
  0
LINE
  5
69A
100
AcDbEntity
  8
18
100
AcDbLine
 10
540.238894
 20
-307.546766
 30
0.0
 11
571.834622
 21
-307.546766
 31
0.0
  0
ARC
  5
69B
100
AcDbEntity
  8
18
100
AcDbCircle
 10
574.216209
 20
-319.137158
 30
0.0
 40
2.381587
100
AcDbArc
 50
180.0
 51
360.0
  0
ARC
  5
69C
100
AcDbEntity
  8
18
100
AcDbCircle
 10
574.216209
 20
-292.145833
 30
0.0
 40
2.381587
100
AcDbArc
 50
0.0
 51
180.0
  0
LINE
  5
69D
100
AcDbEntity
  8
18
100
AcDbLine
 10
571.834622
 20
-292.443866
 30
0.0
 11
571.834622
 21
-292.145833
 31
0.0
  0
LINE
  5
69E
100
AcDbEntity
  8
18
100
AcDbLine
 10
576.597797
 20
-305.641496
 30
0.0
 11
576.597797
 21
-292.145833
 31
0.0
  0
LINE
  5
69F
100
AcDbEntity
  8
18
100
AcDbLine
 10
571.834622
 20
-318.839125
 30
0.0
 11
571.834622
 21
-319.137158
 31
0.0
  0
LINE
  5
6A0
100
AcDbEntity
  8
18
100
AcDbLine
 10
576.597797
 20
-305.641496
 30
0.0
 11
576.597797
 21
-319.137158
 31
0.0
  0
LINE
  5
6A1
100
AcDbEntity
  8
18
100
AcDbLine
 10
522.364663
 20
-317.708206
 30
0.0
 11
534.297251
 21
-317.708206
 31
0.0
  0
LINE
  5
6A2
100
AcDbEntity
  8
18
100
AcDbLine
 10
522.364663
 20
-316.438026
 30
0.0
 11
534.297251
 21
-316.438026
 31
0.0
  0
LINE
  5
6A3
100
AcDbEntity
  8
18
100
AcDbLine
 10
538.799897
 20
-301.927094
 30
0.0
 11
540.035413
 21
-316.049108
 31
0.0
  0
LINE
  5
6A4
100
AcDbEntity
  8
18
100
AcDbLine
 10
516.626501
 20
-316.049108
 30
0.0
 11
517.862017
 21
-301.927094
 31
0.0
  0
LINE
  5
6A5
100
AcDbEntity
  8
18
100
AcDbLine
 10
571.834622
 20
-305.641496
 30
0.0
 11
571.834622
 21
-292.145833
 31
0.0
  0
LINE
  5
6A6
100
AcDbEntity
  8
18
100
AcDbLine
 10
571.834622
 20
-305.641496
 30
0.0
 11
571.834622
 21
-319.137158
 31
0.0
  0
LINE
  5
6A7
100
AcDbEntity
  8
18
100
AcDbLine
 10
540.238894
 20
-300.184141
 30
0.0
 11
537.880017
 21
-300.184141
 31
0.0
  0
LINE
  5
6A8
100
AcDbEntity
  8
18
100
AcDbLine
 10
518.781898
 20
-300.184141
 30
0.0
 11
516.42302
 21
-300.184141
 31
0.0
  0
CIRCLE
  5
6A9
100
AcDbEntity
  8
18
100
AcDbCircle
 10
528.330957
 20
-317.073116
 30
0.0
 40
6.0
  0
TEXT
  5
6AA
100
AcDbEntity
  8
18
100
AcDbText
 10
522.550123
 20
-319.713588
 30
0.0
 40
5.4
  1
S
 50
90.0
 72
     5
 11
522.550123
 21
-315.393588
 31
0.0
100
AcDbText
  0
LINE
  5
6AB
100
AcDbEntity
  8
18
  6
CENTER
 62
     2
100
AcDbLine
 10
602.706287
 20
-296.821071
 30
0.0
 11
666.760853
 21
-296.821071
 31
0.0
  0
LINE
  5
6AC
100
AcDbEntity
  8
18
  6
CENTER
 62
     2
100
AcDbLine
 10
635.205164
 20
-280.086182
 30
0.0
 11
635.205164
 21
-313.23659
 31
0.0
  0
LINE
  5
6AD
100
AcDbEntity
  8
18
100
AcDbLine
 10
663.285164
 20
-288.181071
 30
0.0
 11
663.285164
 21
-305.461071
 31
0.0
  0
LINE
  5
6AE
100
AcDbEntity
  8
18
100
AcDbLine
 10
607.125164
 20
-288.181071
 30
0.0
 11
607.125164
 21
-305.461071
 31
0.0
  0
LINE
  5
6AF
100
AcDbEntity
  8
18
100
AcDbLine
 10
607.125164
 20
-288.181071
 30
0.0
 11
627.243174
 21
-288.181071
 31
0.0
  0
LINE
  5
6B0
100
AcDbEntity
  8
18
100
AcDbLine
 10
652.571288
 20
-288.181071
 30
0.0
 11
663.285164
 21
-288.181071
 31
0.0
  0
LINE
  5
6B1
100
AcDbEntity
  8
18
100
AcDbLine
 10
607.125164
 20
-305.461071
 30
0.0
 11
627.243174
 21
-305.461071
 31
0.0
  0
LINE
  5
6B2
100
AcDbEntity
  8
18
100
AcDbLine
 10
652.571288
 20
-305.461071
 30
0.0
 11
663.285164
 21
-305.461071
 31
0.0
  0
LINE
  5
6B3
100
AcDbEntity
  8
18
100
AcDbLine
 10
652.670138
 20
-304.759317
 30
0.0
 11
652.670138
 21
-288.882824
 31
0.0
  0
ARC
  5
6B4
100
AcDbEntity
  8
18
100
AcDbCircle
 10
650.129778
 20
-304.759317
 30
0.0
 40
2.54036
100
AcDbArc
 50
275.0
 51
360.0
  0
ARC
  5
6B5
100
AcDbEntity
  8
18
100
AcDbCircle
 10
650.129778
 20
-288.882824
 30
0.0
 40
2.54036
100
AcDbArc
 50
0.0
 51
85.0
  0
ARC
  5
6B6
100
AcDbEntity
  8
18
100
AcDbCircle
 10
635.205164
 20
-296.821071
 30
0.0
 40
11.749165
100
AcDbArc
 50
85.000003
 51
166.648816
  0
ARC
  5
6B7
100
AcDbEntity
  8
18
100
AcDbCircle
 10
635.205164
 20
-296.821071
 30
0.0
 40
11.749165
100
AcDbArc
 50
193.351184
 51
275.0
  0
LINE
  5
6B8
100
AcDbEntity
  8
18
100
AcDbLine
 10
642.826243
 20
-284.913133
 30
0.0
 11
652.094138
 21
-284.913133
 31
0.0
  0
LINE
  5
6B9
100
AcDbEntity
  8
18
100
AcDbLine
 10
652.094138
 20
-308.729008
 30
0.0
 11
642.826243
 21
-308.729008
 31
0.0
  0
LINE
  5
6BA
100
AcDbEntity
  8
18
100
AcDbLine
 10
642.826243
 20
-307.948358
 30
0.0
 11
642.826243
 21
-308.729008
 31
0.0
  0
LINE
  5
6BB
100
AcDbEntity
  8
18
100
AcDbLine
 10
642.826243
 20
-284.913133
 30
0.0
 11
642.826243
 21
-285.693784
 31
0.0
  0
LINE
  5
6BC
100
AcDbEntity
  8
18
100
AcDbLine
 10
623.773544
 20
-299.534177
 30
0.0
 11
623.773544
 21
-294.107965
 31
0.0
  0
LINE
  5
6BD
100
AcDbEntity
  8
18
100
AcDbLine
 10
648.542053
 20
-308.729008
 30
0.0
 11
648.542053
 21
-340.324735
 31
0.0
  0
LINE
  5
6BE
100
AcDbEntity
  8
18
100
AcDbLine
 10
644.731513
 20
-308.729008
 30
0.0
 11
644.731513
 21
-340.324735
 31
0.0
  0
ARC
  5
6BF
100
AcDbEntity
  8
18
100
AcDbCircle
 10
633.141121
 20
-342.706323
 30
0.0
 40
2.381587
100
AcDbArc
 50
90.0
 51
270.0
  0
ARC
  5
6C0
100
AcDbEntity
  8
18
100
AcDbCircle
 10
660.132446
 20
-342.706323
 30
0.0
 40
2.381587
100
AcDbArc
 50
270.0
 51
90.0
  0
LINE
  5
6C1
100
AcDbEntity
  8
18
100
AcDbLine
 10
659.834413
 20
-340.324735
 30
0.0
 11
660.132446
 21
-340.324735
 31
0.0
  0
LINE
  5
6C2
100
AcDbEntity
  8
18
100
AcDbLine
 10
646.636783
 20
-345.08791
 30
0.0
 11
660.132446
 21
-345.08791
 31
0.0
  0
LINE
  5
6C3
100
AcDbEntity
  8
18
100
AcDbLine
 10
633.439154
 20
-340.324735
 30
0.0
 11
633.141121
 21
-340.324735
 31
0.0
  0
LINE
  5
6C4
100
AcDbEntity
  8
18
100
AcDbLine
 10
646.636783
 20
-345.08791
 30
0.0
 11
633.141121
 21
-345.08791
 31
0.0
  0
LINE
  5
6C5
100
AcDbEntity
  8
18
100
AcDbLine
 10
634.570074
 20
-290.854777
 30
0.0
 11
634.570074
 21
-302.787365
 31
0.0
  0
LINE
  5
6C6
100
AcDbEntity
  8
18
100
AcDbLine
 10
635.840254
 20
-290.854777
 30
0.0
 11
635.840254
 21
-302.787365
 31
0.0
  0
LINE
  5
6C7
100
AcDbEntity
  8
18
100
AcDbLine
 10
650.351185
 20
-307.29001
 30
0.0
 11
636.229171
 21
-308.525527
 31
0.0
  0
LINE
  5
6C8
100
AcDbEntity
  8
18
100
AcDbLine
 10
650.351185
 20
-286.352131
 30
0.0
 11
636.229171
 21
-285.116615
 31
0.0
  0
LINE
  5
6C9
100
AcDbEntity
  8
18
100
AcDbLine
 10
646.636783
 20
-340.324735
 30
0.0
 11
660.132446
 21
-340.324735
 31
0.0
  0
LINE
  5
6CA
100
AcDbEntity
  8
18
100
AcDbLine
 10
646.636783
 20
-340.324735
 30
0.0
 11
633.141121
 21
-340.324735
 31
0.0
  0
LINE
  5
6CB
100
AcDbEntity
  8
18
100
AcDbLine
 10
652.094138
 20
-308.729008
 30
0.0
 11
652.094138
 21
-306.37013
 31
0.0
  0
LINE
  5
6CC
100
AcDbEntity
  8
18
100
AcDbLine
 10
652.094138
 20
-287.272011
 30
0.0
 11
652.094138
 21
-284.913133
 31
0.0
  0
CIRCLE
  5
6CD
100
AcDbEntity
  8
18
100
AcDbCircle
 10
635.205164
 20
-296.821071
 30
0.0
 40
6.0
  0
TEXT
  5
6CE
100
AcDbEntity
  8
18
100
AcDbText
 10
641.407726
 20
-294.090932
 30
0.0
 40
5.4
  1
Ｓ
 50
270.0
 72
     5
 11
641.407726
 21
-298.410932
 31
0.0
100
AcDbText
  0
TEXT
  5
6CF
100
AcDbEntity
  8
18
100
AcDbText
 10
632.564691
 20
-291.040236
 30
0.0
 40
5.4
  1
Ｏ
 72
     5
 11
636.884691
 21
-291.040236
 31
0.0
100
AcDbText
  0
TEXT
  5
6D0
100
AcDbEntity
  8
18
100
AcDbText
 10
632.564691
 20
-308.001905
 30
0.0
 40
5.4
  1
Ｏ
 50
360.0
 72
     5
 11
636.884691
 21
-308.001905
 31
0.0
100
AcDbText
  0
TEXT
  5
6D1
100
AcDbEntity
  8
18
100
AcDbText
 10
491.416962
 20
-492.141052
 30
0.0
 40
12.0
  1
８４７Ｔ－２ＵＡＳ　２５０Ａ
 72
     5
 11
657.016962
 21
-492.141052
 31
0.0
100
AcDbText
  0
TEXT
  5
6D2
100
AcDbEntity
  8
18
100
AcDbText
 10
720.632446
 20
-507.543213
 30
0.0
 40
8.0
  1
２００３．　２．　３
 72
     5
 11
799.032446
 21
-507.543213
 31
0.0
100
AcDbText
  0
TEXT
  5
6D3
100
AcDbEntity
  8
18
100
AcDbText
 10
614.4
 20
-544.0
 30
0.0
 40
20.0
  1
Ｄ３－０３２４２
 72
     5
 11
770.4
 21
-544.0
 31
0.0
100
AcDbText
  0
LINE
  5
6D4
100
AcDbEntity
  8
20
 62
     3
100
AcDbLine
 10
-720.0
 20
-554.0
 30
0.0
 11
800.0
 21
-554.0
 31
0.0
  0
LINE
  5
6D5
100
AcDbEntity
  8
20
 62
     3
100
AcDbLine
 10
-720.0
 20
528.0
 30
0.0
 11
800.0
 21
528.0
 31
0.0
  0
LINE
  5
6D6
100
AcDbEntity
  8
20
 62
     3
100
AcDbLine
 10
-720.0
 20
528.0
 30
0.0
 11
-720.0
 21
-554.0
 31
0.0
  0
LINE
  5
6D7
100
AcDbEntity
  8
20
 62
     3
100
AcDbLine
 10
800.0
 20
528.0
 30
0.0
 11
800.0
 21
-554.0
 31
0.0
  0
LINE
  5
6D8
100
AcDbEntity
  8
20
 62
     3
100
AcDbLine
 10
240.0
 20
-554.0
 30
0.0
 11
240.0
 21
-474.0
 31
0.0
  0
LINE
  5
6D9
100
AcDbEntity
  8
20
 62
     3
100
AcDbLine
 10
428.0
 20
-554.0
 30
0.0
 11
428.0
 21
-474.0
 31
0.0
  0
LINE
  5
6DA
100
AcDbEntity
  8
20
100
AcDbLine
 10
428.0
 20
-514.0
 30
0.0
 11
800.0
 21
-514.0
 31
0.0
  0
LINE
  5
6DB
100
AcDbEntity
  8
20
 62
     3
100
AcDbLine
 10
240.0
 20
-474.0
 30
0.0
 11
800.0
 21
-474.0
 31
0.0
  0
LINE
  5
6DC
100
AcDbEntity
  8
20
100
AcDbLine
 10
720.0
 20
-514.0
 30
0.0
 11
720.0
 21
-474.0
 31
0.0
  0
LINE
  5
6DD
100
AcDbEntity
  8
20
100
AcDbLine
 10
720.0
 20
-494.0
 30
0.0
 11
800.0
 21
-494.0
 31
0.0
  0
LINE
  5
6DE
100
AcDbEntity
  8
20
100
AcDbLine
 10
484.0
 20
-554.0
 30
0.0
 11
484.0
 21
-474.0
 31
0.0
  0
LINE
  5
6DF
100
AcDbEntity
  8
20
100
AcDbLine
 10
524.0
 20
-554.0
 30
0.0
 11
524.0
 21
-514.0
 31
0.0
  0
LINE
  5
6E0
100
AcDbEntity
  8
20
100
AcDbLine
 10
604.0
 20
-554.0
 30
0.0
 11
604.0
 21
-514.0
 31
0.0
  0
LINE
  5
6E1
100
AcDbEntity
  8
20
100
AcDbLine
 10
494.913658
 20
-543.086342
 30
0.0
 11
511.593163
 21
-526.406837
 31
0.0
  0
TEXT
  5
6E2
100
AcDbEntity
  8
20
100
AcDbText
 10
526.133316
 20
-529.987671
 30
0.0
 40
7.2
  1
ＤＲＡＷＩＮＧ　ＮＯ．
 72
     5
 11
603.893316
 21
-529.987671
 31
0.0
100
AcDbText
  0
TEXT
  5
6E3
100
AcDbEntity
  8
20
100
AcDbText
 10
534.0
 20
-546.0
 30
0.0
 40
12.0
  1
図　　　番
 72
     5
 11
591.6
 21
-546.0
 31
0.0
100
AcDbText
  0
TEXT
  5
6E4
100
AcDbEntity
  8
20
100
AcDbText
 10
744.0
 20
-488.0
 30
0.0
 40
8.0
  1
ＤＡＴＥ
 72
     5
 11
774.4
 21
-488.0
 31
0.0
100
AcDbText
  0
TEXT
  5
6E5
100
AcDbEntity
  8
20
100
AcDbText
 10
436.004284
 20
-531.844116
 30
0.0
 40
8.0
  1
ＳＣＡＬＥ
 72
     5
 11
474.404284
 21
-531.844116
 31
0.0
100
AcDbText
  0
TEXT
  5
6E6
100
AcDbEntity
  8
20
100
AcDbText
 10
432.0
 20
-546.0
 30
0.0
 40
12.0
  1
尺　　度
 72
     5
 11
477.6
 21
-546.0
 31
0.0
100
AcDbText
  0
TEXT
  5
6E7
100
AcDbEntity
  8
20
100
AcDbText
 10
430.004284
 20
-489.983539
 30
0.0
 40
8.0
  1
ＦＩＧ．ＮＯ．
 72
     5
 11
484.404284
 21
-489.983539
 31
0.0
100
AcDbText
  0
TEXT
  5
6E8
100
AcDbEntity
  8
20
100
AcDbText
 10
432.0
 20
-506.0
 30
0.0
 40
12.0
  1
名　　称
 72
     5
 11
477.6
 21
-506.0
 31
0.0
100
AcDbText
  0
TEXT
  5
6E9
100
AcDbEntity
  8
20
100
AcDbText
 10
242.2621
 20
-505.881012
 30
0.0
 40
9.2
  1
ＴＯＭＯＥ　ＶＡＬＶＥ　ＣＯ．，ＬＴＤ．
 72
     5
 11
424.4221
 21
-505.881012
 31
0.0
100
AcDbText
  0
TEXT
  5
6EA
100
AcDbEntity
  8
20
100
AcDbText
 10
270.0
 20
-533.159241
 30
0.0
 40
16.0
  1
巴バルブ株式会社
 72
     5
 11
394.8
 21
-533.159241
 31
0.0
100
AcDbText
  0
ENDSEC
  0
SECTION
  2
OBJECTS
  0
DICTIONARY
  5
74B
100
AcDbDictionary
  3
ACAD_GROUP
350
74C
  3
ACAD_MLINESTYLE
350
74D
  0
DICTIONARY
  5
74C
102
{ACAD_REACTORS
330
74B
102
}
100
AcDbDictionary
  0
DICTIONARY
  5
74D
102
{ACAD_REACTORS
330
74B
102
}
100
AcDbDictionary
  3
STANDARD
350
74E
  0
MLINESTYLE
  5
74E
102
{ACAD_REACTORS
330
74D
102
}
100
AcDbMlineStyle
  2
STANDARD
 70
     0
  3

 62
     0
 51
90.0
 52
90.0
 71
     2
 49
0.5
 62
   256
  6
BYLAYER
 49
-0.5
 62
   256
  6
BYLAYER
  0
ENDSEC
  0
EOF
