  0
SECTION
  2
HEADER
  9
$LIMMAX
 10
1050.000000
 20
742.500000
  9
$LIMMIN
 10
-1050.000000
 20
-742.500000
  9
$EXTMAX
 10
1050.000000
 20
742.500000
  9
$EXTMIN
 10
-1050.000000
 20
-742.500000
  9
$DIMLFAC
 40
1.000000
  9
$DIMALTF
 40
25.400000
  9
$DIMSCALE
 40
5.000000
  9
$DIMTAD
 70
1
  9
$DIMTIH
 70
1
  9
$DIMTOH
 70
1
  9
$TDCREATE
 40
2450269.000000
  9
$TDUPDATE
 40
2452674.000000
999
3106
  0
ENDSEC
  0
SECTION
  2
TABLES
  0
TABLE
  2
LTYPE
 70
7
  0
LTYPE
  2
CONTINUOUS
 70
0
  3
Solid line
 72
65
 73
0
 40
0.000000
  0
LTYPE
  2
DASHED
 70
0
  3
__ __ __ __ __ __ __ __ __ __ __ __ __ __ __
 72
65
 73
2
 40
2.000000
 49
1.200000
 49
-0.800000
  0
LTYPE
  2
CENTER
 70
0
  3
____ _ ____ _ ____ _ ____ _ ____ _ ____ _ ____
 72
65
 73
4
 40
12.000000
 49
9.000000
 49
-1.000000
 49
1.000000
 49
-1.000000
  0
LTYPE
  2
HIDDEN
 70
0
  3
_ _ _ _ _ _ _ _ _ _ _ _ _ _ _ _ _ _ _ _ _ _ _
 72
65
 73
2
 40
3.200000
 49
2.400000
 49
-0.800000
  0
LTYPE
  2
PHANTOM
 70
0
  3
_____ _ _ _____ _ _ _____ _ _ _____ _ _ _____
 72
65
 73
6
 40
13.500000
 49
9.000000
 49
-1.000000
 49
1.000000
 49
-0.500000
 49
1.000000
 49
-1.000000
  0
LTYPE
  2
DOT
 70
0
  3
...............................................
 72
65
 73
2
 40
1.000000
 49
0.500000
 49
-0.500000
  0
LTYPE
  2
DASHDOT
 70
0
  3
__ . __ . __ . __ . __ . __ . __ . __ . __ . __
 72
65
 73
4
 40
8.000000
 49
5.000000
 49
-1.000000
 49
1.000000
 49
-1.000000
  0
ENDTAB
  0
TABLE
  2
LAYER
 70
6
  0
LAYER
  2
0
 70
0
 62
7
  6
CONTINUOUS
  0
LAYER
  2
1
 70
0
 62
7
  6
CONTINUOUS
  0
LAYER
  2
2
 70
0
 62
7
  6
CONTINUOUS
  0
LAYER
  2
5
 70
0
 62
7
  6
CONTINUOUS
  0
LAYER
  2
18
 70
0
 62
7
  6
CONTINUOUS
  0
LAYER
  2
20
 70
0
 62
7
  6
CONTINUOUS
  0
ENDTAB
  0
TABLE
  2
STYLE
 70
1
  0
STYLE
  2
STANDARD
 70
64
 40
0.000000
 41
1.000000
 50
0.000000
 71
0
 42
1.000000
  3
txt
  4
BIGFONT
  0
ENDTAB
  0
ENDSEC
  0
SECTION
  2
BLOCKS
  0
BLOCK
  8
5
  2
*D0
 70
1
 10
0.000000
 20
0.000000
  0
TEXT
  8
5
 10
-407.742827
 20
575.066185
 40
16.500000
  1
222.5
 50
0.000000
 62
2
 41
1.400000
  0
LINE
  8
5
 62
2
 10
-490.117827
 20
504.906549
 11
-490.117827
 21
577.566185
  0
LINE
  8
5
 62
2
 10
-490.117827
 20
572.566185
 11
-480.458569
 21
569.977995
  0
LINE
  8
5
 62
2
 10
-490.117827
 20
572.566185
 11
-480.458569
 21
575.154375
  0
LINE
  8
5
 62
2
 10
-480.458569
 20
569.977995
 11
-480.458569
 21
575.154375
  0
LINE
  8
5
 62
2
 10
-490.117827
 20
572.566185
 11
-267.617827
 21
572.566185
  0
LINE
  8
5
 62
2
 10
-267.617827
 20
572.566185
 11
-277.277086
 21
575.154375
  0
LINE
  8
5
 62
2
 10
-267.617827
 20
572.566185
 11
-277.277086
 21
569.977995
  0
LINE
  8
5
 62
2
 10
-277.277086
 20
575.154375
 11
-277.277086
 21
569.977995
  0
LINE
  8
5
 62
2
 10
-267.617827
 20
454.819513
 11
-267.617827
 21
577.566185
  0
ENDBLK
  8
5
  0
BLOCK
  8
5
  2
*D1
 70
1
 10
0.000000
 20
0.000000
  0
TEXT
  8
5
 10
-178.248329
 20
20.469513
 40
16.500000
  1
%%c200
 50
90.000000
 62
2
 41
1.400000
  0
LINE
  8
5
 62
2
 10
-283.617827
 20
143.569513
 11
-170.748329
 21
143.569513
  0
LINE
  8
5
 62
2
 10
-175.748329
 20
143.569513
 11
-178.336520
 21
133.910254
  0
LINE
  8
5
 62
2
 10
-175.748329
 20
143.569513
 11
-173.160139
 21
133.910254
  0
LINE
  8
5
 62
2
 10
-178.336520
 20
133.910254
 11
-173.160139
 21
133.910254
  0
LINE
  8
5
 62
2
 10
-175.748329
 20
143.569513
 11
-175.748329
 21
-56.430487
  0
LINE
  8
5
 62
2
 10
-175.748329
 20
-56.430487
 11
-173.160139
 21
-46.771229
  0
LINE
  8
5
 62
2
 10
-175.748329
 20
-56.430487
 11
-178.336520
 21
-46.771229
  0
LINE
  8
5
 62
2
 10
-173.160139
 20
-46.771229
 11
-178.336520
 21
-46.771229
  0
LINE
  8
5
 62
2
 10
-283.617827
 20
-56.430487
 11
-170.748329
 21
-56.430487
  0
ENDBLK
  8
5
  0
BLOCK
  8
5
  2
*D2
 70
1
 10
0.000000
 20
0.000000
  0
TEXT
  8
5
 10
-16.831107
 20
8.019513
 40
16.500000
  1
48
 50
90.000000
 62
2
 41
1.400000
  0
LINE
  8
5
 62
2
 10
64.282173
 20
-4.430487
 11
-19.331107
 21
-4.430487
  0
LINE
  8
5
 62
2
 10
-14.331107
 20
-4.430487
 11
-11.742917
 21
5.228771
  0
LINE
  8
5
 62
2
 10
-14.331107
 20
-4.430487
 11
-16.919298
 21
5.228771
  0
LINE
  8
5
 62
2
 10
-11.742917
 20
5.228771
 11
-16.919298
 21
5.228771
  0
LINE
  8
5
 62
2
 10
-14.331107
 20
-4.430487
 11
-14.331107
 21
43.569513
  0
LINE
  8
5
 62
2
 10
-14.331107
 20
43.569513
 11
-16.919298
 21
33.910254
  0
LINE
  8
5
 62
2
 10
-14.331107
 20
43.569513
 11
-11.742917
 21
33.910254
  0
LINE
  8
5
 62
2
 10
-16.919298
 20
33.910254
 11
-11.742917
 21
33.910254
  0
LINE
  8
5
 62
2
 10
32.129493
 20
43.569513
 11
-19.331107
 21
43.569513
  0
ENDBLK
  8
5
  0
BLOCK
  8
5
  2
*D3
 70
1
 10
0.000000
 20
0.000000
  0
TEXT
  8
5
 10
-178.248329
 20
376.719513
 40
16.500000
  1
87.5
 50
90.000000
 62
2
 41
1.400000
  0
LINE
  8
5
 62
2
 10
-227.053374
 20
356.069513
 11
-170.748329
 21
356.069513
  0
LINE
  8
5
 62
2
 10
-175.748329
 20
356.069513
 11
-173.160139
 21
365.728771
  0
LINE
  8
5
 62
2
 10
-175.748329
 20
356.069513
 11
-178.336520
 21
365.728771
  0
LINE
  8
5
 62
2
 10
-173.160139
 20
365.728771
 11
-178.336520
 21
365.728771
  0
LINE
  8
5
 62
2
 10
-175.748329
 20
356.069513
 11
-175.748329
 21
443.569513
  0
LINE
  8
5
 62
2
 10
-175.748329
 20
443.569513
 11
-178.336520
 21
433.910254
  0
LINE
  8
5
 62
2
 10
-175.748329
 20
443.569513
 11
-173.160139
 21
433.910254
  0
LINE
  8
5
 62
2
 10
-178.336520
 20
433.910254
 11
-173.160139
 21
433.910254
  0
LINE
  8
5
 62
2
 10
-243.875163
 20
443.569513
 11
-170.748329
 21
443.569513
  0
ENDBLK
  8
5
  0
BLOCK
  8
5
  2
*D4
 70
1
 10
0.000000
 20
0.000000
  0
TEXT
  8
5
 10
-178.248329
 20
299.519513
 40
16.500000
  1
90
 50
90.000000
 62
2
 41
1.400000
  0
LINE
  8
5
 62
2
 10
-452.064827
 20
266.069513
 11
-170.748329
 21
266.069513
  0
LINE
  8
5
 62
2
 10
-175.748329
 20
266.069513
 11
-173.160139
 21
275.728771
  0
LINE
  8
5
 62
2
 10
-175.748329
 20
266.069513
 11
-178.336520
 21
275.728771
  0
LINE
  8
5
 62
2
 10
-173.160139
 20
275.728771
 11
-178.336520
 21
275.728771
  0
LINE
  8
5
 62
2
 10
-175.748329
 20
266.069513
 11
-175.748329
 21
356.069513
  0
LINE
  8
5
 62
2
 10
-175.748329
 20
356.069513
 11
-178.336520
 21
346.410254
  0
LINE
  8
5
 62
2
 10
-175.748329
 20
356.069513
 11
-173.160139
 21
346.410254
  0
LINE
  8
5
 62
2
 10
-178.336520
 20
346.410254
 11
-173.160139
 21
346.410254
  0
LINE
  8
5
 62
2
 10
-227.053374
 20
356.069513
 11
-170.748329
 21
356.069513
  0
ENDBLK
  8
5
  0
BLOCK
  8
5
  2
*D5
 70
1
 10
0.000000
 20
0.000000
  0
TEXT
  8
5
 10
-16.831107
 20
-467.255487
 40
16.500000
  1
297
 50
90.000000
 62
2
 41
1.400000
  0
LINE
  8
5
 62
2
 10
89.282173
 20
-598.430487
 11
-19.331107
 21
-598.430487
  0
LINE
  8
5
 62
2
 10
-14.331107
 20
-598.430487
 11
-11.742917
 21
-588.771229
  0
LINE
  8
5
 62
2
 10
-14.331107
 20
-598.430487
 11
-16.919298
 21
-588.771229
  0
LINE
  8
5
 62
2
 10
-11.742917
 20
-588.771229
 11
-16.919298
 21
-588.771229
  0
LINE
  8
5
 62
2
 10
-14.331107
 20
-598.430487
 11
-14.331107
 21
-301.430487
  0
LINE
  8
5
 62
2
 10
-14.331107
 20
-301.430487
 11
-16.919298
 21
-311.089746
  0
LINE
  8
5
 62
2
 10
-14.331107
 20
-301.430487
 11
-11.742917
 21
-311.089746
  0
LINE
  8
5
 62
2
 10
-16.919298
 20
-311.089746
 11
-11.742917
 21
-311.089746
  0
LINE
  8
5
 62
2
 10
40.147270
 20
-301.430487
 11
-19.331107
 21
-301.430487
  0
ENDBLK
  8
5
  0
BLOCK
  8
5
  2
*D6
 70
1
 10
0.000000
 20
0.000000
  0
TEXT
  8
5
 10
-16.831107
 20
-170.255487
 40
16.500000
  1
297
 50
90.000000
 62
2
 41
1.400000
  0
LINE
  8
5
 62
2
 10
40.147270
 20
-301.430487
 11
-19.331107
 21
-301.430487
  0
LINE
  8
5
 62
2
 10
-14.331107
 20
-301.430487
 11
-11.742917
 21
-291.771229
  0
LINE
  8
5
 62
2
 10
-14.331107
 20
-301.430487
 11
-16.919298
 21
-291.771229
  0
LINE
  8
5
 62
2
 10
-11.742917
 20
-291.771229
 11
-16.919298
 21
-291.771229
  0
LINE
  8
5
 62
2
 10
-14.331107
 20
-301.430487
 11
-14.331107
 21
-4.430487
  0
LINE
  8
5
 62
2
 10
-14.331107
 20
-4.430487
 11
-16.919298
 21
-14.089746
  0
LINE
  8
5
 62
2
 10
-14.331107
 20
-4.430487
 11
-11.742917
 21
-14.089746
  0
LINE
  8
5
 62
2
 10
-16.919298
 20
-14.089746
 11
-11.742917
 21
-14.089746
  0
LINE
  8
5
 62
2
 10
64.282173
 20
-4.430487
 11
-19.331107
 21
-4.430487
  0
ENDBLK
  8
5
  0
BLOCK
  8
5
  2
*D7
 70
1
 10
0.000000
 20
0.000000
  0
TEXT
  8
5
 10
64.682173
 20
-530.229416
 40
16.500000
  1
78
 50
0.000000
 62
2
 41
1.400000
  0
LINE
  8
5
 62
2
 10
100.282173
 20
-487.930487
 11
100.282173
 21
-537.729416
  0
LINE
  8
5
 62
2
 10
100.282173
 20
-532.729416
 11
90.622914
 21
-530.141225
  0
LINE
  8
5
 62
2
 10
100.282173
 20
-532.729416
 11
90.622914
 21
-535.317606
  0
LINE
  8
5
 62
2
 10
90.622914
 20
-530.141225
 11
90.622914
 21
-535.317606
  0
LINE
  8
5
 62
2
 10
62.182173
 20
-532.729416
 11
203.282173
 21
-532.729416
  0
LINE
  8
5
 62
2
 10
178.282173
 20
-532.729416
 11
187.941431
 21
-535.317606
  0
LINE
  8
5
 62
2
 10
178.282173
 20
-532.729416
 11
187.941431
 21
-530.141225
  0
LINE
  8
5
 62
2
 10
187.941431
 20
-535.317606
 11
187.941431
 21
-530.141225
  0
LINE
  8
5
 62
2
 10
178.282173
 20
-487.930487
 11
178.282173
 21
-537.729416
  0
ENDBLK
  8
5
  0
ENDSEC
  0
SECTION
  2
ENTITIES
  0
LINE
  8
1
  6
CENTER
 62
2
 10
-534.312827
 20
10.947999
 11
-534.312827
 21
-37.261025
  0
LINE
  8
1
  6
CENTER
 62
2
 10
-445.922827
 20
10.947999
 11
-445.922827
 21
-37.261025
  0
LINE
  8
1
  6
CENTER
 62
2
 10
95.087173
 20
10.947999
 11
95.087173
 21
-37.261025
  0
LINE
  8
1
  6
CENTER
 62
2
 10
183.477173
 20
10.947999
 11
183.477173
 21
-37.261025
  0
LINE
  8
1
  6
DASHED
 10
-552.617827
 20
325.569513
 11
-552.617827
 21
386.569513
  0
LINE
  8
1
  6
DASHED
 10
-427.617827
 20
325.569513
 11
-427.617827
 21
386.569513
  0
LINE
  8
1
  6
DASHED
 10
-520.617827
 20
418.569513
 11
-459.617827
 21
418.569513
  0
LINE
  8
1
  6
DASHED
 10
-520.617827
 20
293.569513
 11
-459.617827
 21
293.569513
  0
ARC
  8
1
  6
DASHED
 10
-459.617827
 20
386.569513
 40
32.000000
 50
0.000000
 51
90.000000
  0
ARC
  8
1
  6
DASHED
 10
-520.617827
 20
386.569513
 40
32.000000
 50
90.000000
 51
180.000000
  0
ARC
  8
1
  6
DASHED
 10
-520.617827
 20
325.569513
 40
32.000000
 50
180.000000
 51
270.000000
  0
ARC
  8
1
  6
DASHED
 10
-459.617827
 20
325.569513
 40
32.000000
 50
270.000000
 51
360.000000
  0
CIRCLE
  8
1
  6
DASHED
 10
-445.923654
 20
400.263686
 40
6.500000
  0
CIRCLE
  8
1
  6
DASHED
 10
-534.312001
 20
400.263686
 40
6.500000
  0
CIRCLE
  8
1
  6
DASHED
 10
-445.923654
 20
311.875339
 40
6.500000
  0
CIRCLE
  8
1
  6
DASHED
 10
-534.312001
 20
311.875339
 40
6.500000
  0
LINE
  8
1
 10
-548.617827
 20
-20.430487
 11
-431.617827
 21
-20.430487
  0
LINE
  8
1
 10
-552.617827
 20
-16.430487
 11
-552.617827
 21
-4.430487
  0
LINE
  8
1
 10
-427.617827
 20
-16.430487
 11
-427.617827
 21
-4.430487
  0
ARC
  8
1
 10
-548.617827
 20
-16.430487
 40
4.000000
 50
180.000000
 51
270.000000
  0
ARC
  8
1
 10
-431.617827
 20
-16.430487
 40
4.000000
 50
270.000000
 51
360.000000
  0
ARC
  8
1
 10
-301.762291
 20
-250.960774
 40
11.500000
 50
157.196334
 51
232.803666
  0
ARC
  8
1
 10
-352.232005
 20
-163.544665
 40
11.500000
 50
187.196334
 51
262.803666
  0
ARC
  8
1
 10
-439.648114
 20
-113.074951
 40
11.500000
 50
217.196334
 51
292.803666
  0
ARC
  8
1
 10
-540.587541
 20
-113.074951
 40
11.500000
 50
247.196334
 51
322.803666
  0
ARC
  8
1
 10
-628.003650
 20
-163.544665
 40
11.500000
 50
277.196334
 51
352.803666
  0
ARC
  8
1
 10
-678.473363
 20
-250.960774
 40
11.500000
 50
307.196334
 51
22.803666
  0
ARC
  8
1
 10
-678.473363
 20
-351.900201
 40
11.500000
 50
337.196334
 51
52.803666
  0
ARC
  8
1
 10
-628.003650
 20
-439.316310
 40
11.500000
 50
7.196334
 51
82.803666
  0
ARC
  8
1
 10
-540.587541
 20
-489.786024
 40
11.500000
 50
37.196334
 51
112.803666
  0
ARC
  8
1
 10
-439.648114
 20
-489.786024
 40
11.500000
 50
67.196334
 51
142.803666
  0
ARC
  8
1
 10
-352.232005
 20
-439.316310
 40
11.500000
 50
97.196334
 51
172.803666
  0
ARC
  8
1
 10
-301.762291
 20
-351.900201
 40
11.500000
 50
127.196334
 51
202.803666
  0
ARC
  8
1
 10
-490.117827
 20
-301.430487
 40
187.000000
 50
17.975973
 51
42.024027
  0
ARC
  8
1
 10
-354.173686
 20
-178.922567
 40
4.000000
 50
42.024027
 51
82.803666
  0
ARC
  8
1
 10
-367.609907
 20
-165.486346
 40
4.000000
 50
7.196334
 51
47.975973
  0
ARC
  8
1
 10
-316.050786
 20
-244.953368
 40
4.000000
 50
337.196334
 51
17.975973
  0
ARC
  8
1
 10
-311.132788
 20
-263.307587
 40
4.000000
 50
12.024027
 51
52.803666
  0
ARC
  8
1
 10
-490.117827
 20
-301.430487
 40
187.000000
 50
47.975973
 51
72.024027
  0
ARC
  8
1
 10
-490.117827
 20
-301.430487
 40
187.000000
 50
77.975973
 51
102.024027
  0
ARC
  8
1
 10
-433.640708
 20
-127.363446
 40
4.000000
 50
72.024027
 51
112.803666
  0
ARC
  8
1
 10
-451.994927
 20
-122.445448
 40
4.000000
 50
37.196334
 51
77.975973
  0
ARC
  8
1
 10
-528.240728
 20
-122.445448
 40
4.000000
 50
102.024027
 51
142.803666
  0
ARC
  8
1
 10
-546.594947
 20
-127.363446
 40
4.000000
 50
67.196334
 51
107.975973
  0
ARC
  8
1
 10
-490.117827
 20
-301.430487
 40
187.000000
 50
107.975973
 51
132.024027
  0
ARC
  8
1
 10
-490.117827
 20
-301.430487
 40
187.000000
 50
137.975973
 51
162.024027
  0
ARC
  8
1
 10
-669.102867
 20
-263.307587
 40
4.000000
 50
127.196334
 51
167.975973
  0
ARC
  8
1
 10
-664.184869
 20
-244.953368
 40
4.000000
 50
162.024027
 51
202.803666
  0
ARC
  8
1
 10
-626.061968
 20
-178.922567
 40
4.000000
 50
97.196334
 51
137.975973
  0
ARC
  8
1
 10
-612.625748
 20
-165.486346
 40
4.000000
 50
132.024027
 51
172.803666
  0
ARC
  8
1
 10
-490.117827
 20
-301.430487
 40
187.000000
 50
167.975973
 51
192.024027
  0
ARC
  8
1
 10
-490.117827
 20
-301.430487
 40
187.000000
 50
197.975973
 51
222.024027
  0
ARC
  8
1
 10
-664.184869
 20
-357.907607
 40
4.000000
 50
157.196334
 51
197.975973
  0
ARC
  8
1
 10
-669.102867
 20
-339.553388
 40
4.000000
 50
192.024027
 51
232.803666
  0
ARC
  8
1
 10
-626.061968
 20
-423.938408
 40
4.000000
 50
222.024027
 51
262.803666
  0
ARC
  8
1
 10
-612.625748
 20
-437.374628
 40
4.000000
 50
187.196334
 51
227.975973
  0
ARC
  8
1
 10
-490.117827
 20
-301.430487
 40
187.000000
 50
227.975973
 51
252.024027
  0
ARC
  8
1
 10
-490.117827
 20
-301.430487
 40
187.000000
 50
257.975973
 51
282.024027
  0
ARC
  8
1
 10
-451.994927
 20
-480.415527
 40
4.000000
 50
282.024027
 51
322.803666
  0
ARC
  8
1
 10
-433.640708
 20
-475.497529
 40
4.000000
 50
247.196334
 51
287.975973
  0
ARC
  8
1
 10
-528.240728
 20
-480.415527
 40
4.000000
 50
217.196334
 51
257.975973
  0
ARC
  8
1
 10
-546.594947
 20
-475.497529
 40
4.000000
 50
252.024027
 51
292.803666
  0
ARC
  8
1
 10
-490.117827
 20
-301.430487
 40
187.000000
 50
347.975973
 51
12.024027
  0
ARC
  8
1
 10
-490.117827
 20
-301.430487
 40
187.000000
 50
287.975973
 51
312.024027
  0
ARC
  8
1
 10
-490.117827
 20
-301.430487
 40
187.000000
 50
317.975973
 51
342.024027
  0
ARC
  8
1
 10
-311.132788
 20
-339.553388
 40
4.000000
 50
307.196334
 51
347.975973
  0
ARC
  8
1
 10
-316.050786
 20
-357.907607
 40
4.000000
 50
342.024027
 51
22.803666
  0
ARC
  8
1
 10
-354.173686
 20
-423.938408
 40
4.000000
 50
277.196334
 51
317.975973
  0
ARC
  8
1
 10
-367.609907
 20
-437.374628
 40
4.000000
 50
312.024027
 51
352.803666
  0
LINE
  8
1
 10
-525.117827
 20
-55.430487
 11
-455.117827
 21
-55.430487
  0
LINE
  8
1
 10
-525.117827
 20
-84.269839
 11
-525.117827
 21
-57.711683
  0
LINE
  8
1
 10
-455.117827
 20
-84.269839
 11
-455.117827
 21
-57.711683
  0
LINE
  8
1
 10
-533.117827
 20
-44.149291
 11
-533.117827
 21
-25.430487
  0
LINE
  8
1
 10
-447.117827
 20
-44.149291
 11
-447.117827
 21
-25.430487
  0
LINE
  8
1
 10
-448.633371
 20
-48.135475
 11
-453.602283
 21
-53.725500
  0
LINE
  8
1
 10
-531.602283
 20
-48.135475
 11
-526.633371
 21
-53.725500
  0
ARC
  8
1
 10
-449.117827
 20
-57.711683
 40
6.000000
 50
138.366461
 51
180.000000
  0
ARC
  8
1
 10
-531.117827
 20
-57.711683
 40
6.000000
 50
360.000000
 51
41.633539
  0
ARC
  8
1
 10
-527.117827
 20
-44.149291
 40
6.000000
 50
180.000000
 51
221.633539
  0
ARC
  8
1
 10
-453.117827
 20
-44.149291
 40
6.000000
 50
318.366461
 51
0.000000
  0
ARC
  8
1
 10
-431.117827
 20
-36.424236
 40
16.000000
 50
91.432544
 51
180.000000
  0
ARC
  8
1
 10
-549.117827
 20
-36.424236
 40
16.000000
 50
0.000000
 51
88.567456
  0
ARC
  8
1
 10
-442.117827
 20
-25.430487
 40
5.000000
 50
90.000000
 51
180.000000
  0
ARC
  8
1
 10
-538.117827
 20
-25.430487
 40
5.000000
 50
360.000000
 51
90.000000
  0
LINE
  8
1
 10
-485.117827
 20
-36.424236
 11
-495.117827
 21
-36.424236
  0
LINE
  8
1
 10
-495.117827
 20
-33.424236
 11
-495.117827
 21
-23.430487
  0
LINE
  8
1
 10
-485.117827
 20
-33.424236
 11
-485.117827
 21
-23.430487
  0
ARC
  8
1
 10
-482.117827
 20
-33.424236
 40
3.000000
 50
180.000000
 51
270.000000
  0
ARC
  8
1
 10
-482.117827
 20
-23.430487
 40
3.000000
 50
90.000000
 51
180.000000
  0
ARC
  8
1
 10
-498.117827
 20
-23.430487
 40
3.000000
 50
0.000000
 51
90.000000
  0
ARC
  8
1
 10
-498.117827
 20
-33.424236
 40
3.000000
 50
270.000000
 51
360.000000
  0
LINE
  8
1
 10
-472.306644
 20
-25.430487
 11
-472.306644
 21
-42.799362
  0
LINE
  8
1
 10
-507.929011
 20
-25.430487
 11
-507.929011
 21
-42.799362
  0
ARC
  8
1
 10
-467.306644
 20
-25.430487
 40
5.000000
 50
90.000000
 51
180.000000
  0
ARC
  8
1
 10
-512.929011
 20
-25.430487
 40
5.000000
 50
0.000000
 51
90.000000
  0
LINE
  8
1
 10
-469.089797
 20
-48.114817
 11
-458.374129
 21
-53.725500
  0
LINE
  8
1
 10
-511.145858
 20
-48.114817
 11
-521.861526
 21
-53.725500
  0
ARC
  8
1
 10
-466.306644
 20
-42.799362
 40
6.000000
 50
180.000000
 51
242.363614
  0
ARC
  8
1
 10
-513.929011
 20
-42.799362
 40
6.000000
 50
297.636386
 51
0.000000
  0
LINE
  8
1
 10
-469.089797
 20
-46.430487
 11
-448.633371
 21
-46.430487
  0
LINE
  8
1
 10
-531.602283
 20
-46.430487
 11
-511.145858
 21
-46.430487
  0
LINE
  8
1
 10
-507.929011
 20
-46.430487
 11
-472.306644
 21
-46.430487
  0
ARC
  8
1
 10
-451.117827
 20
-105.269839
 40
13.000000
 50
133.602819
 51
258.755276
  0
ARC
  8
1
 10
-529.117827
 20
-105.269839
 40
13.000000
 50
281.244724
 51
46.397181
  0
ARC
  8
1
 10
-471.117827
 20
-84.269839
 40
16.000000
 50
313.602819
 51
360.000000
  0
ARC
  8
1
 10
-509.117827
 20
-84.269839
 40
16.000000
 50
180.000000
 51
226.397181
  0
LINE
  8
1
 10
-559.829017
 20
-118.538853
 11
-565.315376
 21
-98.063482
  0
LINE
  8
1
 10
-545.996859
 20
-72.887102
 11
-531.117827
 21
-72.887102
  0
ARC
  8
1
 10
-545.996859
 20
-92.887102
 40
20.000000
 50
90.000000
 51
195.000000
  0
ARC
  8
1
 10
-531.117827
 20
-66.887102
 40
6.000000
 50
270.000000
 51
0.000000
  0
ARC
  8
1
 10
-569.488275
 20
-121.127043
 40
10.000000
 50
293.759326
 51
15.000000
  0
ARC
  8
1
 10
-449.117827
 20
-66.887102
 40
6.000000
 50
180.000000
 51
270.000000
  0
LINE
  8
1
 10
-434.238796
 20
-72.887102
 11
-449.117827
 21
-72.887102
  0
ARC
  8
1
 10
-434.238796
 20
-92.887102
 40
20.000000
 50
345.000000
 51
90.000000
  0
LINE
  8
1
 10
-420.406638
 20
-118.538853
 11
-414.920279
 21
-98.063482
  0
ARC
  8
1
 10
-410.747380
 20
-121.127043
 40
10.000000
 50
165.000000
 51
246.240674
  0
CIRCLE
  8
1
 10
-529.135892
 20
-105.273431
 40
12.000000
  0
CIRCLE
  8
1
 10
-451.099763
 20
-105.273431
 40
12.000000
  0
LINE
  8
1
 10
-535.117827
 20
-598.430487
 11
-445.117827
 21
-598.430487
  0
LINE
  8
1
 10
-525.117827
 20
-518.591136
 11
-525.117827
 21
-545.149291
  0
LINE
  8
1
 10
-455.117827
 20
-518.591136
 11
-455.117827
 21
-545.149291
  0
ARC
  8
1
 10
-451.117827
 20
-497.591136
 40
13.000000
 50
101.244724
 51
226.397181
  0
ARC
  8
1
 10
-529.117827
 20
-497.591136
 40
13.000000
 50
313.602819
 51
78.755276
  0
ARC
  8
1
 10
-471.117827
 20
-518.591136
 40
16.000000
 50
0.000000
 51
46.397181
  0
ARC
  8
1
 10
-509.117827
 20
-518.591136
 40
16.000000
 50
133.602819
 51
180.000000
  0
LINE
  8
1
 10
-531.602283
 20
-556.430487
 11
-448.633371
 21
-556.430487
  0
LINE
  8
1
 10
-525.117827
 20
-547.430487
 11
-455.117827
 21
-547.430487
  0
LINE
  8
1
 10
-533.117827
 20
-574.787847
 11
-533.117827
 21
-558.711683
  0
LINE
  8
1
 10
-447.117827
 20
-574.787847
 11
-447.117827
 21
-558.711683
  0
LINE
  8
1
 10
-453.602283
 20
-549.135475
 11
-448.633371
 21
-554.725500
  0
LINE
  8
1
 10
-526.633371
 20
-549.135475
 11
-531.602283
 21
-554.725500
  0
ARC
  8
1
 10
-449.117827
 20
-545.149291
 40
6.000000
 50
180.000000
 51
221.633539
  0
ARC
  8
1
 10
-453.117827
 20
-558.711683
 40
6.000000
 50
0.000000
 51
41.633539
  0
ARC
  8
1
 10
-531.117827
 20
-545.149291
 40
6.000000
 50
318.366461
 51
360.000000
  0
ARC
  8
1
 10
-527.117827
 20
-558.711683
 40
6.000000
 50
138.366461
 51
180.000000
  0
LINE
  8
1
 10
-535.117827
 20
-598.430487
 11
-535.117827
 21
-579.273128
  0
LINE
  8
1
 10
-445.117827
 20
-598.430487
 11
-445.117827
 21
-579.273128
  0
LINE
  8
1
 10
-534.239148
 20
-578.030487
 11
-445.996507
 21
-578.030487
  0
LINE
  8
1
 10
-533.117827
 20
-576.030487
 11
-447.117827
 21
-576.030487
  0
LINE
  8
1
 10
-446.239148
 20
-576.909167
 11
-445.996507
 21
-577.151808
  0
LINE
  8
1
 10
-533.996507
 20
-576.909167
 11
-534.239148
 21
-577.151808
  0
ARC
  8
1
 10
-444.117827
 20
-574.787847
 40
3.000000
 50
180.000000
 51
225.000000
  0
ARC
  8
1
 10
-448.117827
 20
-579.273128
 40
3.000000
 50
0.000000
 51
45.000000
  0
ARC
  8
1
 10
-536.117827
 20
-574.787847
 40
3.000000
 50
315.000000
 51
0.000000
  0
ARC
  8
1
 10
-532.117827
 20
-579.273128
 40
3.000000
 50
135.000000
 51
180.000000
  0
LINE
  8
1
 10
-713.617827
 20
-323.430487
 11
-713.617827
 21
-279.430487
  0
LINE
  8
1
 10
-710.617827
 20
-276.430487
 11
-678.043345
 21
-276.430487
  0
LINE
  8
1
 10
-710.617827
 20
-326.430487
 11
-678.043345
 21
-326.430487
  0
ARC
  8
1
 10
-710.617827
 20
-279.430487
 40
3.000000
 50
90.000000
 51
180.000000
  0
ARC
  8
1
 10
-710.617827
 20
-323.430487
 40
3.000000
 50
180.000000
 51
270.000000
  0
LINE
  8
1
 10
-713.617827
 20
-301.430487
 11
-671.617827
 21
-301.430487
  0
LINE
  8
1
 10
-266.617827
 20
-323.430487
 11
-266.617827
 21
-279.430487
  0
LINE
  8
1
 10
-269.617827
 20
-276.430487
 11
-302.192310
 21
-276.430487
  0
LINE
  8
1
 10
-269.617827
 20
-326.430487
 11
-302.192310
 21
-326.430487
  0
ARC
  8
1
 10
-269.617827
 20
-279.430487
 40
3.000000
 50
0.000000
 51
90.000000
  0
ARC
  8
1
 10
-269.617827
 20
-323.430487
 40
3.000000
 50
270.000000
 51
360.000000
  0
LINE
  8
1
 10
-266.617827
 20
-301.430487
 11
-308.617827
 21
-301.430487
  0
LINE
  8
1
 10
-266.617827
 20
335.069513
 11
-266.617827
 21
377.069513
  0
LINE
  8
1
 10
-301.796485
 20
323.069513
 11
-278.617827
 21
323.069513
  0
ARC
  8
1
 10
-278.617827
 20
335.069513
 40
12.000000
 50
270.000000
 51
360.000000
  0
ARC
  8
1
 10
-300.117827
 20
392.069513
 40
3.000000
 50
180.000000
 51
270.000000
  0
ARC
  8
1
 10
-300.117827
 20
320.069513
 40
3.000000
 50
90.000000
 51
180.000000
  0
ARC
  8
1
 10
-301.796485
 20
392.069513
 40
3.000000
 50
180.000000
 51
270.000000
  0
ARC
  8
1
 10
-301.796485
 20
320.069513
 40
3.000000
 50
90.000000
 51
180.000000
  0
LINE
  8
1
 10
-369.701882
 20
346.884467
 11
-369.701882
 21
365.254558
  0
LINE
  8
1
 10
-339.839707
 20
370.254558
 11
-321.966110
 21
370.254558
  0
LINE
  8
1
 10
-339.839707
 20
341.884467
 11
-321.966110
 21
341.884467
  0
ARC
  8
1
 10
-374.701882
 20
365.254558
 40
5.000000
 50
0.000000
 51
90.000000
  0
ARC
  8
1
 10
-374.701882
 20
346.884467
 40
5.000000
 50
270.000000
 51
360.000000
  0
LINE
  8
1
 10
-339.839707
 20
337.069513
 11
-339.839707
 21
375.069513
  0
LINE
  8
1
 10
-346.698861
 20
337.069513
 11
-346.698861
 21
375.069513
  0
LINE
  8
1
 10
-334.839707
 20
380.069513
 11
-312.050786
 21
380.069513
  0
LINE
  8
1
 10
-334.839707
 20
332.069513
 11
-312.050786
 21
332.069513
  0
ARC
  8
1
 10
-351.698861
 20
375.069513
 40
5.000000
 50
0.000000
 51
90.000000
  0
ARC
  8
1
 10
-351.698861
 20
337.069513
 40
5.000000
 50
270.000000
 51
360.000000
  0
ARC
  8
1
 10
-334.839707
 20
337.069513
 40
5.000000
 50
180.000000
 51
270.000000
  0
ARC
  8
1
 10
-334.839707
 20
375.069513
 40
5.000000
 50
90.000000
 51
180.000000
  0
LINE
  8
1
 10
-321.966110
 20
347.686595
 11
-321.966110
 21
364.452430
  0
LINE
  8
1
 10
-304.796485
 20
323.069513
 11
-304.796485
 21
329.168449
  0
LINE
  8
1
 10
-304.796485
 20
382.970577
 11
-304.796485
 21
389.069513
  0
LINE
  8
1
 10
-307.315077
 20
378.629768
 11
-316.928925
 21
373.134047
  0
LINE
  8
1
 10
-316.928925
 20
339.004978
 11
-307.315077
 21
333.509257
  0
ARC
  8
1
 10
-309.796485
 20
382.970577
 40
5.000000
 50
299.754289
 51
360.000000
  0
ARC
  8
1
 10
-309.796485
 20
329.168449
 40
5.000000
 50
360.000000
 51
60.245711
  0
ARC
  8
1
 10
-311.966110
 20
364.452430
 40
10.000000
 50
119.754289
 51
180.000000
  0
ARC
  8
1
 10
-311.966110
 20
347.686595
 40
10.000000
 50
180.000000
 51
240.245711
  0
LINE
  8
1
 10
-351.698861
 20
377.936107
 11
-369.701882
 21
370.254558
  0
LINE
  8
1
 10
-351.698861
 20
334.202918
 11
-369.701882
 21
341.884467
  0
ARC
  8
1
 10
-360.363733
 20
381.866100
 40
3.817313
 50
220.740630
 51
270.000000
  0
ARC
  8
1
 10
-360.363733
 20
395.174855
 40
17.126068
 50
270.000000
 51
296.254529
  0
ARC
  8
1
 10
-360.363733
 20
330.272925
 40
3.817313
 50
90.000000
 51
139.259370
  0
ARC
  8
1
 10
-364.771347
 20
378.069513
 40
2.000000
 50
40.740630
 51
90.000000
  0
ARC
  8
1
 10
-351.698861
 20
377.607732
 40
2.461780
 50
90.000000
 51
116.254529
  0
ARC
  8
1
 10
-364.771347
 20
334.069513
 40
2.000000
 50
270.000000
 51
319.259370
  0
ARC
  8
1
 10
-351.698861
 20
334.531293
 40
2.461780
 50
243.745471
 51
270.000000
  0
ARC
  8
1
 10
-360.363733
 20
316.964171
 40
17.126068
 50
63.745471
 51
90.000000
  0
LINE
  8
1
 10
-363.731841
 20
380.069513
 11
-363.731841
 21
392.069513
  0
LINE
  8
1
 10
-352.293365
 20
380.069513
 11
-352.293365
 21
392.069513
  0
LINE
  8
1
 10
-363.731841
 20
332.069513
 11
-363.731841
 21
320.069513
  0
LINE
  8
1
 10
-352.293365
 20
332.069513
 11
-352.293365
 21
320.069513
  0
LINE
  8
1
 10
-312.050786
 20
380.069513
 11
-312.050786
 21
392.069513
  0
LINE
  8
1
 10
-307.565348
 20
380.069513
 11
-307.565348
 21
392.069513
  0
ARC
  8
1
 10
-312.870438
 20
386.022978
 40
7.974192
 50
270.000000
 51
311.703999
  0
ARC
  8
1
 10
-311.561526
 20
378.440640
 40
1.700765
 50
106.718534
 51
180.000000
  0
ARC
  8
1
 10
-312.870438
 20
378.440640
 40
0.391853
 50
180.000000
 51
270.000000
  0
ARC
  8
1
 10
-311.561526
 20
333.698386
 40
1.700765
 50
180.000000
 51
253.281466
  0
ARC
  8
1
 10
-312.870438
 20
333.698386
 40
0.391853
 50
90.000000
 51
180.000000
  0
ARC
  8
1
 10
-312.870438
 20
326.116047
 40
7.974192
 50
48.296001
 51
90.000000
  0
LINE
  8
1
 10
-307.565348
 20
332.069513
 11
-307.565348
 21
320.069513
  0
LINE
  8
1
 10
-312.050786
 20
332.069513
 11
-312.050786
 21
320.069513
  0
CIRCLE
  8
1
  6
DASHED
 62
2
 10
-286.117827
 20
372.569513
 40
8.000000
  0
CIRCLE
  8
1
  6
DASHED
 10
-286.117827
 20
372.569513
 40
6.917500
  0
LINE
  8
1
  6
DASHED
 10
-414.238796
 20
380.069513
 11
-414.238796
 21
386.069513
  0
LINE
  8
1
  6
DASHED
 10
-427.715633
 20
389.069513
 11
-417.238796
 21
389.069513
  0
LINE
  8
1
  6
DASHED
 10
-427.617827
 20
377.069513
 11
-417.238796
 21
377.069513
  0
ARC
  8
1
  6
DASHED
 10
-417.238796
 20
386.069513
 40
3.000000
 50
0.000000
 51
90.000000
  0
ARC
  8
1
  6
DASHED
 10
-417.238796
 20
380.069513
 40
3.000000
 50
270.000000
 51
360.000000
  0
LINE
  8
1
 10
175.282173
 20
-114.430487
 11
175.282173
 21
-488.430487
  0
LINE
  8
1
 10
153.467218
 20
-263.374932
 11
153.467218
 21
-208.615266
  0
LINE
  8
1
 10
153.467218
 20
-173.133784
 11
153.467218
 21
-141.203371
  0
LINE
  8
1
 10
125.097127
 20
-263.374932
 11
125.097127
 21
-208.615266
  0
LINE
  8
1
 10
125.097127
 20
-173.133784
 11
125.097127
 21
-141.203371
  0
LINE
  8
1
 10
163.282173
 20
-163.011521
 11
163.282173
 21
-133.220938
  0
LINE
  8
1
 10
115.282173
 20
-163.011521
 11
115.282173
 21
-123.363446
  0
ARC
  8
1
 10
165.078760
 20
-171.676393
 40
3.817313
 50
180.000000
 51
226.055799
  0
ARC
  8
1
 10
178.387515
 20
-171.676393
 40
17.126068
 50
153.745471
 51
180.000000
  0
ARC
  8
1
 10
160.820393
 20
-163.011521
 40
2.461780
 50
333.745471
 51
360.000000
  0
ARC
  8
1
 10
117.743953
 20
-163.011521
 40
2.461780
 50
180.000000
 51
206.254529
  0
ARC
  8
1
 10
100.176831
 20
-171.676393
 40
17.126068
 50
0.000000
 51
26.254529
  0
LINE
  8
1
 10
163.282173
 20
-175.044501
 11
175.282173
 21
-175.044501
  0
LINE
  8
1
 10
163.282173
 20
-163.606025
 11
175.282173
 21
-163.606025
  0
LINE
  8
1
 10
115.282173
 20
-175.044501
 11
103.282173
 21
-175.044501
  0
LINE
  8
1
 10
115.282173
 20
-163.606025
 11
103.282173
 21
-163.606025
  0
ARC
  8
1
 10
116.911046
 20
-122.874186
 40
1.700765
 50
196.718534
 51
270.000000
  0
ARC
  8
1
 10
116.911046
 20
-124.183098
 40
0.391853
 50
270.000000
 51
360.000000
  0
ARC
  8
1
 10
109.328707
 20
-124.183098
 40
7.974192
 50
0.000000
 51
41.703999
  0
LINE
  8
1
 10
115.282173
 20
-118.878008
 11
103.282173
 21
-118.878008
  0
LINE
  8
1
 10
115.282173
 20
-123.363446
 11
103.282173
 21
-123.363446
  0
LINE
  8
1
 10
-713.617827
 20
335.069513
 11
-713.617827
 21
377.069513
  0
LINE
  8
1
 10
-678.439170
 20
389.069513
 11
-701.617827
 21
389.069513
  0
LINE
  8
1
 10
-678.439170
 20
323.069513
 11
-701.617827
 21
323.069513
  0
ARC
  8
1
 10
-701.617827
 20
377.069513
 40
12.000000
 50
90.000000
 51
180.000000
  0
ARC
  8
1
 10
-701.617827
 20
335.069513
 40
12.000000
 50
180.000000
 51
270.000000
  0
ARC
  8
1
 10
-680.117827
 20
392.069513
 40
3.000000
 50
270.000000
 51
360.000000
  0
ARC
  8
1
 10
-680.117827
 20
320.069513
 40
3.000000
 50
0.000000
 51
90.000000
  0
ARC
  8
1
 10
-678.439170
 20
392.069513
 40
3.000000
 50
270.000000
 51
360.000000
  0
ARC
  8
1
 10
-678.439170
 20
320.069513
 40
3.000000
 50
0.000000
 51
90.000000
  0
LINE
  8
1
 10
-610.533773
 20
346.884467
 11
-610.533773
 21
365.254558
  0
LINE
  8
1
 10
-640.395948
 20
370.254558
 11
-658.269545
 21
370.254558
  0
LINE
  8
1
 10
-640.395948
 20
341.884467
 11
-658.269545
 21
341.884467
  0
ARC
  8
1
 10
-605.533773
 20
365.254558
 40
5.000000
 50
90.000000
 51
180.000000
  0
ARC
  8
1
 10
-605.533773
 20
346.884467
 40
5.000000
 50
180.000000
 51
270.000000
  0
LINE
  8
1
 10
-640.395948
 20
337.069513
 11
-640.395948
 21
375.069513
  0
LINE
  8
1
 10
-633.536794
 20
337.069513
 11
-633.536794
 21
375.069513
  0
LINE
  8
1
 10
-645.395948
 20
380.069513
 11
-668.184869
 21
380.069513
  0
LINE
  8
1
 10
-645.395948
 20
332.069513
 11
-668.184869
 21
332.069513
  0
ARC
  8
1
 10
-628.536794
 20
375.069513
 40
5.000000
 50
90.000000
 51
180.000000
  0
ARC
  8
1
 10
-628.536794
 20
337.069513
 40
5.000000
 50
180.000000
 51
270.000000
  0
ARC
  8
1
 10
-645.395948
 20
337.069513
 40
5.000000
 50
270.000000
 51
0.000000
  0
ARC
  8
1
 10
-645.395948
 20
375.069513
 40
5.000000
 50
360.000000
 51
90.000000
  0
LINE
  8
1
 10
-658.269545
 20
347.686595
 11
-658.269545
 21
364.452430
  0
LINE
  8
1
 10
-675.439170
 20
323.069513
 11
-675.439170
 21
329.168449
  0
LINE
  8
1
 10
-675.439170
 20
382.970577
 11
-675.439170
 21
389.069513
  0
LINE
  8
1
 10
-672.920577
 20
378.629768
 11
-663.306730
 21
373.134047
  0
LINE
  8
1
 10
-663.306730
 20
339.004978
 11
-672.920577
 21
333.509257
  0
ARC
  8
1
 10
-670.439170
 20
382.970577
 40
5.000000
 50
180.000000
 51
240.245711
  0
ARC
  8
1
 10
-670.439170
 20
329.168449
 40
5.000000
 50
119.754289
 51
180.000000
  0
ARC
  8
1
 10
-668.269545
 20
364.452430
 40
10.000000
 50
0.000000
 51
60.245711
  0
ARC
  8
1
 10
-668.269545
 20
347.686595
 40
10.000000
 50
299.754289
 51
360.000000
  0
LINE
  8
1
 10
-628.536794
 20
377.936107
 11
-610.533773
 21
370.254558
  0
LINE
  8
1
 10
-628.536794
 20
334.202918
 11
-610.533773
 21
341.884467
  0
ARC
  8
1
 10
-619.871922
 20
381.866100
 40
3.817313
 50
270.000000
 51
319.259370
  0
ARC
  8
1
 10
-619.871922
 20
395.174855
 40
17.126068
 50
243.745471
 51
270.000000
  0
ARC
  8
1
 10
-619.871922
 20
330.272925
 40
3.817313
 50
40.740630
 51
90.000000
  0
ARC
  8
1
 10
-615.464308
 20
378.069513
 40
2.000000
 50
90.000000
 51
139.259370
  0
ARC
  8
1
 10
-628.536794
 20
377.607732
 40
2.461780
 50
63.745471
 51
90.000000
  0
ARC
  8
1
 10
-615.464308
 20
334.069513
 40
2.000000
 50
220.740630
 51
270.000000
  0
ARC
  8
1
 10
-628.536794
 20
334.531293
 40
2.461780
 50
270.000000
 51
296.254529
  0
ARC
  8
1
 10
-619.871922
 20
316.964171
 40
17.126068
 50
90.000000
 51
116.254529
  0
LINE
  8
1
 10
-616.503813
 20
380.069513
 11
-616.503813
 21
392.069513
  0
LINE
  8
1
 10
-627.942290
 20
380.069513
 11
-627.942290
 21
392.069513
  0
LINE
  8
1
 10
-616.503813
 20
332.069513
 11
-616.503813
 21
320.069513
  0
LINE
  8
1
 10
-627.942290
 20
332.069513
 11
-627.942290
 21
320.069513
  0
LINE
  8
1
 10
-668.184869
 20
380.069513
 11
-668.184869
 21
392.069513
  0
LINE
  8
1
 10
-672.670306
 20
380.069513
 11
-672.670306
 21
392.069513
  0
ARC
  8
1
 10
-667.365216
 20
386.022978
 40
7.974192
 50
228.296001
 51
270.000000
  0
ARC
  8
1
 10
-668.674129
 20
378.440640
 40
1.700765
 50
0.000000
 51
73.281466
  0
ARC
  8
1
 10
-667.365216
 20
378.440640
 40
0.391853
 50
270.000000
 51
360.000000
  0
ARC
  8
1
 10
-668.674129
 20
333.698386
 40
1.700765
 50
286.718534
 51
360.000000
  0
ARC
  8
1
 10
-667.365216
 20
333.698386
 40
0.391853
 50
0.000000
 51
90.000000
  0
ARC
  8
1
 10
-667.365216
 20
326.116047
 40
7.974192
 50
90.000000
 51
131.703999
  0
LINE
  8
1
 10
-672.670306
 20
332.069513
 11
-672.670306
 21
320.069513
  0
LINE
  8
1
 10
-668.184869
 20
332.069513
 11
-668.184869
 21
320.069513
  0
CIRCLE
  8
1
 62
2
 10
-694.117827
 20
372.569513
 40
8.000000
  0
CIRCLE
  8
1
 10
-694.117827
 20
372.569513
 40
6.917500
  0
CIRCLE
  8
1
 62
2
 10
-694.117827
 20
339.569513
 40
8.000000
  0
CIRCLE
  8
1
 10
-694.117827
 20
339.569513
 40
6.917500
  0
LINE
  8
1
  6
DASHED
 10
-565.996859
 20
380.069513
 11
-565.996859
 21
386.069513
  0
LINE
  8
1
  6
DASHED
 10
-552.520022
 20
389.069513
 11
-562.996859
 21
389.069513
  0
LINE
  8
1
  6
DASHED
 10
-552.617827
 20
377.069513
 11
-562.996859
 21
377.069513
  0
ARC
  8
1
  6
DASHED
 10
-562.996859
 20
386.069513
 40
3.000000
 50
90.000000
 51
180.000000
  0
ARC
  8
1
  6
DASHED
 10
-562.996859
 20
380.069513
 40
3.000000
 50
180.000000
 51
270.000000
  0
LINE
  8
1
 10
130.097127
 20
-203.615266
 11
148.467218
 21
-203.615266
  0
ARC
  8
1
 10
148.467218
 20
-208.615266
 40
5.000000
 50
360.000000
 51
90.000000
  0
ARC
  8
1
 10
130.097127
 20
-208.615266
 40
5.000000
 50
90.000000
 51
180.000000
  0
LINE
  8
1
 10
120.282173
 20
-191.430487
 11
158.282173
 21
-191.430487
  0
ARC
  8
1
 10
158.282173
 20
-196.430487
 40
5.000000
 50
0.000000
 51
90.000000
  0
ARC
  8
1
 10
120.282173
 20
-196.430487
 40
5.000000
 50
90.000000
 51
180.000000
  0
LINE
  8
1
 10
120.282173
 20
-181.430487
 11
158.282173
 21
-181.430487
  0
ARC
  8
1
 10
158.282173
 20
-176.430487
 40
5.000000
 50
270.000000
 51
360.000000
  0
ARC
  8
1
 10
120.282173
 20
-176.430487
 40
5.000000
 50
180.000000
 51
270.000000
  0
ARC
  8
1
 10
160.496723
 20
-176.430487
 40
2.785449
 50
0.000000
 51
46.055799
  0
ARC
  8
1
 10
118.067622
 20
-176.430487
 40
2.785449
 50
133.944201
 51
180.000000
  0
ARC
  8
1
 10
113.485586
 20
-171.676393
 40
3.817313
 50
313.944201
 51
360.000000
  0
LINE
  8
1
 10
130.097127
 20
-178.133784
 11
148.467218
 21
-178.133784
  0
ARC
  8
1
 10
148.467218
 20
-173.133784
 40
5.000000
 50
270.000000
 51
360.000000
  0
ARC
  8
1
 10
130.097127
 20
-173.133784
 40
5.000000
 50
180.000000
 51
270.000000
  0
LINE
  8
1
 10
159.254625
 20
-196.430487
 11
153.467218
 21
-203.615266
  0
LINE
  8
1
 10
158.282173
 20
-179.751059
 11
153.467218
 21
-178.133784
  0
LINE
  8
1
 10
120.282173
 20
-179.751059
 11
125.097127
 21
-178.133784
  0
LINE
  8
1
 10
119.309720
 20
-196.430487
 11
125.097127
 21
-203.615266
  0
LINE
  8
1
 10
103.282173
 20
-245.263994
 11
115.282173
 21
-245.263994
  0
LINE
  8
1
 10
103.282173
 20
-260.889244
 11
115.282173
 21
-260.889244
  0
ARC
  8
1
 10
97.679332
 20
-253.937193
 40
19.623567
 50
0.000000
 51
26.230197
  0
ARC
  8
1
 10
104.333709
 20
-253.937193
 40
12.969189
 50
327.585283
 51
360.000000
  0
LINE
  8
1
 10
115.282173
 20
-271.430487
 11
115.282173
 21
-260.889244
  0
LINE
  8
1
 10
115.282173
 20
-245.263994
 11
115.282173
 21
-196.430487
  0
ARC
  8
1
 10
180.885013
 20
-253.937193
 40
19.623567
 50
153.769803
 51
180.000000
  0
ARC
  8
1
 10
174.230636
 20
-253.937193
 40
12.969189
 50
180.000000
 51
212.414717
  0
LINE
  8
1
 10
175.282173
 20
-245.263994
 11
163.282173
 21
-245.263994
  0
LINE
  8
1
 10
175.282173
 20
-260.889244
 11
163.282173
 21
-260.889244
  0
LINE
  8
1
 10
163.282173
 20
-271.430487
 11
163.282173
 21
-260.889244
  0
LINE
  8
1
 10
163.282173
 20
-245.263994
 11
163.282173
 21
-196.430487
  0
LINE
  8
1
 10
130.097127
 20
-268.374932
 11
148.467218
 21
-268.374932
  0
ARC
  8
1
 10
130.097127
 20
-263.374932
 40
5.000000
 50
180.000000
 51
270.000000
  0
ARC
  8
1
 10
148.467218
 20
-263.374932
 40
5.000000
 50
270.000000
 51
0.000000
  0
LINE
  8
1
 10
109.282173
 20
-276.430487
 11
169.282173
 21
-276.430487
  0
LINE
  8
1
 10
106.282173
 20
-279.430487
 11
106.282173
 21
-323.430487
  0
LINE
  8
1
 10
172.282173
 20
-279.430487
 11
172.282173
 21
-323.430487
  0
ARC
  8
1
 10
169.282173
 20
-279.430487
 40
3.000000
 50
0.000000
 51
90.000000
  0
ARC
  8
1
 10
109.282173
 20
-279.430487
 40
3.000000
 50
90.000000
 51
180.000000
  0
ARC
  8
1
 10
158.282173
 20
-271.430487
 40
5.000000
 50
270.000000
 51
360.000000
  0
ARC
  8
1
 10
120.282173
 20
-271.430487
 40
5.000000
 50
180.000000
 51
270.000000
  0
LINE
  8
1
 10
153.467218
 20
-268.374932
 11
158.282173
 21
-272.326772
  0
LINE
  8
1
 10
125.097127
 20
-268.374932
 11
120.282173
 21
-272.326772
  0
LINE
  8
1
 10
80.782173
 20
-20.430487
 11
197.782173
 21
-20.430487
  0
LINE
  8
1
 10
76.782173
 20
-16.430487
 11
76.782173
 21
-4.430487
  0
LINE
  8
1
 10
201.782173
 20
-16.430487
 11
201.782173
 21
-4.430487
  0
ARC
  8
1
 10
80.782173
 20
-16.430487
 40
4.000000
 50
180.000000
 51
270.000000
  0
ARC
  8
1
 10
197.782173
 20
-16.430487
 40
4.000000
 50
270.000000
 51
360.000000
  0
LINE
  8
1
 10
96.282173
 20
-43.758313
 11
96.282173
 21
-25.430487
  0
LINE
  8
1
 10
182.282173
 20
-43.758313
 11
182.282173
 21
-25.430487
  0
ARC
  8
1
 10
198.282173
 20
-36.424236
 40
16.000000
 50
91.432544
 51
180.000000
  0
ARC
  8
1
 10
80.282173
 20
-36.424236
 40
16.000000
 50
0.000000
 51
88.567456
  0
ARC
  8
1
 10
187.282173
 20
-25.430487
 40
5.000000
 50
90.000000
 51
180.000000
  0
ARC
  8
1
 10
91.282173
 20
-25.430487
 40
5.000000
 50
360.000000
 51
90.000000
  0
LINE
  8
1
 10
144.282173
 20
-36.424236
 11
134.282173
 21
-36.424236
  0
LINE
  8
1
 10
134.282173
 20
-33.424236
 11
134.282173
 21
-23.430487
  0
LINE
  8
1
 10
144.282173
 20
-33.424236
 11
144.282173
 21
-23.430487
  0
ARC
  8
1
 10
147.282173
 20
-33.424236
 40
3.000000
 50
180.000000
 51
270.000000
  0
ARC
  8
1
 10
147.282173
 20
-23.430487
 40
3.000000
 50
90.000000
 51
180.000000
  0
ARC
  8
1
 10
131.282173
 20
-23.430487
 40
3.000000
 50
0.000000
 51
90.000000
  0
ARC
  8
1
 10
131.282173
 20
-33.424236
 40
3.000000
 50
270.000000
 51
360.000000
  0
LINE
  8
1
 10
157.093356
 20
-25.430487
 11
157.093356
 21
-43.011512
  0
LINE
  8
1
 10
121.470989
 20
-25.430487
 11
121.470989
 21
-43.011512
  0
ARC
  8
1
 10
162.093356
 20
-25.430487
 40
5.000000
 50
90.000000
 51
180.000000
  0
ARC
  8
1
 10
116.470989
 20
-25.430487
 40
5.000000
 50
0.000000
 51
90.000000
  0
LINE
  8
1
 10
160.034738
 20
-46.430487
 11
180.295961
 21
-46.430487
  0
LINE
  8
1
 10
98.268384
 20
-46.430487
 11
118.529608
 21
-46.430487
  0
LINE
  8
1
 10
121.470989
 20
-46.430487
 11
157.093356
 21
-46.430487
  0
LINE
  8
1
 10
106.282173
 20
-58.102662
 11
106.282173
 21
-115.020281
  0
LINE
  8
1
 10
172.282173
 20
-58.102662
 11
172.282173
 21
-127.279502
  0
LINE
  8
1
 10
106.282173
 20
-55.430487
 11
172.282173
 21
-55.430487
  0
LINE
  8
1
 10
180.295961
 20
-48.218078
 11
174.268384
 21
-53.642897
  0
LINE
  8
1
 10
98.268384
 20
-48.218078
 11
104.295961
 21
-53.642897
  0
ARC
  8
1
 10
178.282173
 20
-58.102662
 40
6.000000
 50
131.987212
 51
180.000000
  0
ARC
  8
1
 10
176.282173
 20
-43.758313
 40
6.000000
 50
311.987212
 51
360.000000
  0
ARC
  8
1
 10
100.282173
 20
-58.102662
 40
6.000000
 50
0.000000
 51
48.012788
  0
ARC
  8
1
 10
102.282173
 20
-43.758313
 40
6.000000
 50
180.000000
 51
228.012788
  0
LINE
  8
1
 10
160.034738
 20
-48.173377
 11
169.265352
 21
-53.642897
  0
LINE
  8
1
 10
118.529608
 20
-48.173377
 11
109.298993
 21
-53.642897
  0
ARC
  8
1
 10
163.093356
 20
-43.011512
 40
6.000000
 50
180.000000
 51
239.351511
  0
ARC
  8
1
 10
115.470989
 20
-43.011512
 40
6.000000
 50
300.648489
 51
360.000000
  0
ARC
  8
1
 10
175.282173
 20
-111.430487
 40
3.000000
 50
180.000000
 51
270.000000
  0
ARC
  8
1
 10
103.282173
 20
-111.430487
 40
3.000000
 50
270.000000
 51
0.000000
  0
ARC
  8
1
 10
103.282173
 20
-115.020281
 40
3.000000
 50
270.000000
 51
0.000000
  0
LINE
  8
1
 10
130.097127
 20
-136.203371
 11
148.467218
 21
-136.203371
  0
LINE
  8
1
 10
116.132330
 20
-119.595274
 11
125.097127
 21
-136.203371
  0
LINE
  8
1
 10
157.282173
 20
-118.020281
 11
106.282173
 21
-118.020281
  0
ARC
  8
1
 10
148.467218
 20
-141.203371
 40
5.000000
 50
0.000000
 51
90.000000
  0
ARC
  8
1
 10
130.097127
 20
-141.203371
 40
5.000000
 50
90.000000
 51
180.000000
  0
ARC
  8
1
 10
175.282173
 20
-127.279502
 40
3.000000
 50
180.000000
 51
270.000000
  0
ARC
  8
1
 10
175.282173
 20
-115.878008
 40
3.000000
 50
180.000000
 51
270.000000
  0
ARC
  8
1
 10
175.282173
 20
-120.363446
 40
3.000000
 50
180.000000
 51
270.000000
  0
LINE
  8
1
 10
160.282173
 20
-69.887102
 11
160.282173
 21
-133.698451
  0
LINE
  8
1
 10
163.282173
 20
-72.887102
 11
169.282173
 21
-72.887102
  0
ARC
  8
1
 10
169.282173
 20
-75.887102
 40
3.000000
 50
0.000000
 51
90.000000
  0
ARC
  8
1
 10
163.282173
 20
-75.887102
 40
3.000000
 50
90.000000
 51
180.000000
  0
LINE
  8
1
 10
160.282173
 20
-66.887102
 11
172.282173
 21
-66.887102
  0
ARC
  8
1
 10
157.282173
 20
-69.887102
 40
3.000000
 50
0.000000
 51
90.000000
  0
LINE
  8
1
 10
166.701189
 20
-130.279502
 11
175.282173
 21
-130.279502
  0
LINE
  8
1
 10
161.539292
 20
-133.220938
 11
160.282173
 21
-135.342561
  0
ARC
  8
1
 10
166.701189
 20
-136.279502
 40
6.000000
 50
90.000000
 51
149.352106
  0
ARC
  8
1
 10
157.282173
 20
-115.020281
 40
3.000000
 50
270.000000
 51
0.000000
  0
LINE
  8
1
 10
158.518394
 20
-122.726249
 11
153.467218
 21
-136.203371
  0
ARC
  8
1
 10
154.282173
 20
-133.698451
 40
6.000000
 50
329.352106
 51
360.000000
  0
LINE
  8
1
 10
103.282173
 20
-488.430487
 11
103.282173
 21
-114.430487
  0
LINE
  8
1
 10
153.467218
 20
-339.486043
 11
153.467218
 21
-394.245709
  0
LINE
  8
1
 10
153.467218
 20
-429.727191
 11
153.467218
 21
-461.657604
  0
LINE
  8
1
 10
125.097127
 20
-339.486043
 11
125.097127
 21
-394.245709
  0
LINE
  8
1
 10
125.097127
 20
-429.727191
 11
125.097127
 21
-461.657604
  0
LINE
  8
1
 10
115.282173
 20
-439.849454
 11
115.282173
 21
-479.497529
  0
ARC
  8
1
 10
165.078760
 20
-431.184582
 40
3.817313
 50
133.944201
 51
180.000000
  0
ARC
  8
1
 10
178.387515
 20
-431.184582
 40
17.126068
 50
180.000000
 51
206.254529
  0
ARC
  8
1
 10
160.820393
 20
-439.849454
 40
2.461780
 50
0.000000
 51
26.254529
  0
ARC
  8
1
 10
117.743953
 20
-439.849454
 40
2.461780
 50
153.745471
 51
180.000000
  0
ARC
  8
1
 10
100.176831
 20
-431.184582
 40
17.126068
 50
333.745471
 51
360.000000
  0
LINE
  8
1
 10
163.282173
 20
-427.816473
 11
175.282173
 21
-427.816473
  0
LINE
  8
1
 10
163.282173
 20
-439.254950
 11
175.282173
 21
-439.254950
  0
LINE
  8
1
 10
115.282173
 20
-427.816473
 11
103.282173
 21
-427.816473
  0
LINE
  8
1
 10
115.282173
 20
-439.254950
 11
103.282173
 21
-439.254950
  0
ARC
  8
1
 10
116.911046
 20
-479.986789
 40
1.700765
 50
90.000000
 51
163.281466
  0
ARC
  8
1
 10
116.911046
 20
-478.677877
 40
0.391853
 50
0.000000
 51
90.000000
  0
ARC
  8
1
 10
109.328707
 20
-478.677877
 40
7.974192
 50
318.296001
 51
360.000000
  0
LINE
  8
1
 10
115.282173
 20
-483.982966
 11
103.282173
 21
-483.982966
  0
LINE
  8
1
 10
115.282173
 20
-479.497529
 11
103.282173
 21
-479.497529
  0
LINE
  8
1
 10
130.097127
 20
-399.245709
 11
148.467218
 21
-399.245709
  0
ARC
  8
1
 10
148.467218
 20
-394.245709
 40
5.000000
 50
270.000000
 51
0.000000
  0
ARC
  8
1
 10
130.097127
 20
-394.245709
 40
5.000000
 50
180.000000
 51
270.000000
  0
LINE
  8
1
 10
120.282173
 20
-411.430487
 11
158.282173
 21
-411.430487
  0
ARC
  8
1
 10
158.282173
 20
-406.430487
 40
5.000000
 50
270.000000
 51
360.000000
  0
ARC
  8
1
 10
120.282173
 20
-406.430487
 40
5.000000
 50
180.000000
 51
270.000000
  0
LINE
  8
1
 10
120.282173
 20
-421.430487
 11
158.282173
 21
-421.430487
  0
ARC
  8
1
 10
158.282173
 20
-426.430487
 40
5.000000
 50
0.000000
 51
90.000000
  0
ARC
  8
1
 10
120.282173
 20
-426.430487
 40
5.000000
 50
90.000000
 51
180.000000
  0
ARC
  8
1
 10
160.496723
 20
-426.430487
 40
2.785449
 50
313.944201
 51
360.000000
  0
ARC
  8
1
 10
118.067622
 20
-426.430487
 40
2.785449
 50
180.000000
 51
226.055799
  0
ARC
  8
1
 10
113.485586
 20
-431.184582
 40
3.817313
 50
0.000000
 51
46.055799
  0
LINE
  8
1
 10
130.097127
 20
-424.727191
 11
148.467218
 21
-424.727191
  0
ARC
  8
1
 10
148.467218
 20
-429.727191
 40
5.000000
 50
0.000000
 51
90.000000
  0
ARC
  8
1
 10
130.097127
 20
-429.727191
 40
5.000000
 50
90.000000
 51
180.000000
  0
LINE
  8
1
 10
159.254625
 20
-406.430487
 11
153.467218
 21
-399.245709
  0
LINE
  8
1
 10
158.282173
 20
-423.109916
 11
153.467218
 21
-424.727191
  0
LINE
  8
1
 10
120.282173
 20
-423.109916
 11
125.097127
 21
-424.727191
  0
LINE
  8
1
 10
119.309720
 20
-406.430487
 11
125.097127
 21
-399.245709
  0
LINE
  8
1
 10
103.282173
 20
-357.596980
 11
115.282173
 21
-357.596980
  0
LINE
  8
1
 10
103.282173
 20
-341.971731
 11
115.282173
 21
-341.971731
  0
ARC
  8
1
 10
97.679332
 20
-348.923782
 40
19.623567
 50
333.769803
 51
360.000000
  0
ARC
  8
1
 10
104.333709
 20
-348.923782
 40
12.969189
 50
0.000000
 51
32.414717
  0
LINE
  8
1
 10
115.282173
 20
-331.430487
 11
115.282173
 21
-341.971731
  0
LINE
  8
1
 10
115.282173
 20
-357.596980
 11
115.282173
 21
-406.430487
  0
ARC
  8
1
 10
180.885013
 20
-348.923782
 40
19.623567
 50
180.000000
 51
206.230197
  0
ARC
  8
1
 10
174.230636
 20
-348.923782
 40
12.969189
 50
147.585283
 51
180.000000
  0
LINE
  8
1
 10
175.282173
 20
-357.596980
 11
163.282173
 21
-357.596980
  0
LINE
  8
1
 10
175.282173
 20
-341.971731
 11
163.282173
 21
-341.971731
  0
LINE
  8
1
 10
163.282173
 20
-331.430487
 11
163.282173
 21
-341.971731
  0
LINE
  8
1
 10
163.282173
 20
-357.596980
 11
163.282173
 21
-406.430487
  0
LINE
  8
1
 10
130.097127
 20
-334.486043
 11
148.467218
 21
-334.486043
  0
ARC
  8
1
 10
130.097127
 20
-339.486043
 40
5.000000
 50
90.000000
 51
180.000000
  0
ARC
  8
1
 10
148.467218
 20
-339.486043
 40
5.000000
 50
360.000000
 51
90.000000
  0
LINE
  8
1
 10
109.282173
 20
-326.430487
 11
169.282173
 21
-326.430487
  0
ARC
  8
1
 10
169.282173
 20
-323.430487
 40
3.000000
 50
270.000000
 51
360.000000
  0
ARC
  8
1
 10
109.282173
 20
-323.430487
 40
3.000000
 50
180.000000
 51
270.000000
  0
ARC
  8
1
 10
158.282173
 20
-331.430487
 40
5.000000
 50
0.000000
 51
90.000000
  0
ARC
  8
1
 10
120.282173
 20
-331.430487
 40
5.000000
 50
90.000000
 51
180.000000
  0
LINE
  8
1
 10
153.467218
 20
-334.486043
 11
158.282173
 21
-330.534203
  0
LINE
  8
1
 10
125.097127
 20
-334.486043
 11
120.282173
 21
-330.534203
  0
LINE
  8
1
 10
106.282173
 20
-544.758313
 11
106.282173
 21
-487.840694
  0
LINE
  8
1
 10
172.282173
 20
-544.758313
 11
172.282173
 21
-487.840694
  0
ARC
  8
1
 10
175.282173
 20
-491.430487
 40
3.000000
 50
90.000000
 51
180.000000
  0
ARC
  8
1
 10
103.282173
 20
-491.430487
 40
3.000000
 50
360.000000
 51
90.000000
  0
ARC
  8
1
 10
103.282173
 20
-487.840694
 40
3.000000
 50
360.000000
 51
90.000000
  0
LINE
  8
1
 10
130.097127
 20
-466.657604
 11
148.467218
 21
-466.657604
  0
LINE
  8
1
 10
116.132330
 20
-483.265700
 11
125.097127
 21
-466.657604
  0
LINE
  8
1
 10
172.282173
 20
-484.840694
 11
106.282173
 21
-484.840694
  0
ARC
  8
1
 10
148.467218
 20
-461.657604
 40
5.000000
 50
270.000000
 51
360.000000
  0
ARC
  8
1
 10
130.097127
 20
-461.657604
 40
5.000000
 50
180.000000
 51
270.000000
  0
ARC
  8
1
 10
175.282173
 20
-487.840694
 40
3.000000
 50
90.000000
 51
180.000000
  0
LINE
  8
1
 10
175.282173
 20
-301.430487
 11
103.282173
 21
-301.430487
  0
LINE
  8
1
 10
163.282173
 20
-439.849454
 11
163.282173
 21
-479.497529
  0
ARC
  8
1
 10
161.653300
 20
-479.986789
 40
1.700765
 50
16.718534
 51
90.000000
  0
ARC
  8
1
 10
161.653300
 20
-478.677877
 40
0.391853
 50
90.000000
 51
180.000000
  0
ARC
  8
1
 10
169.235638
 20
-478.677877
 40
7.974192
 50
180.000000
 51
221.703999
  0
LINE
  8
1
 10
163.282173
 20
-483.982966
 11
175.282173
 21
-483.982966
  0
LINE
  8
1
 10
163.282173
 20
-479.497529
 11
175.282173
 21
-479.497529
  0
LINE
  8
1
 10
162.432015
 20
-483.265700
 11
153.467218
 21
-466.657604
  0
LINE
  8
1
 10
118.282173
 20
-92.900522
 11
160.282173
 21
-92.900522
  0
ARC
  8
1
 10
119.056769
 20
-105.269839
 40
12.393547
 50
93.583322
 51
180.000000
  0
ARC
  8
1
 10
119.413665
 20
-105.269839
 40
12.750442
 50
180.000000
 51
270.000000
  0
LINE
  8
1
 10
118.282173
 20
-509.960453
 11
160.282173
 21
-509.960453
  0
ARC
  8
1
 10
119.056769
 20
-497.591136
 40
12.393547
 50
180.000000
 51
266.416678
  0
ARC
  8
1
 10
119.413665
 20
-497.591136
 40
12.750442
 50
90.000000
 51
180.000000
  0
LINE
  8
1
 10
157.282173
 20
-484.840694
 11
106.282173
 21
-484.840694
  0
ARC
  8
1
 10
159.507576
 20
-497.591136
 40
12.393547
 50
273.583322
 51
360.000000
  0
ARC
  8
1
 10
159.150681
 20
-497.591136
 40
12.750442
 50
0.000000
 51
90.000000
  0
LINE
  8
1
 10
94.282173
 20
-598.430487
 11
184.282173
 21
-598.430487
  0
LINE
  8
1
 10
94.282173
 20
-579.273128
 11
94.282173
 21
-598.430487
  0
LINE
  8
1
 10
184.282173
 20
-579.273128
 11
184.282173
 21
-598.430487
  0
LINE
  8
1
 10
95.160852
 20
-578.030487
 11
183.403493
 21
-578.030487
  0
LINE
  8
1
 10
96.282173
 20
-576.030487
 11
182.282173
 21
-576.030487
  0
LINE
  8
1
 10
96.282173
 20
-559.102662
 11
96.282173
 21
-574.787847
  0
LINE
  8
1
 10
182.282173
 20
-559.102662
 11
182.282173
 21
-574.787847
  0
LINE
  8
1
 10
183.160852
 20
-576.909167
 11
183.403493
 21
-577.151808
  0
LINE
  8
1
 10
95.403493
 20
-576.909167
 11
95.160852
 21
-577.151808
  0
ARC
  8
1
 10
185.282173
 20
-574.787847
 40
3.000000
 50
180.000000
 51
225.000000
  0
ARC
  8
1
 10
181.282173
 20
-579.273128
 40
3.000000
 50
0.000000
 51
45.000000
  0
ARC
  8
1
 10
93.282173
 20
-574.787847
 40
3.000000
 50
315.000000
 51
360.000000
  0
ARC
  8
1
 10
97.282173
 20
-579.273128
 40
3.000000
 50
135.000000
 51
180.000000
  0
LINE
  8
1
 10
98.268384
 20
-556.430487
 11
180.295961
 21
-556.430487
  0
LINE
  8
1
 10
106.282173
 20
-547.430487
 11
172.282173
 21
-547.430487
  0
LINE
  8
1
 10
174.268384
 20
-549.218078
 11
180.295961
 21
-554.642897
  0
LINE
  8
1
 10
104.295961
 20
-549.218078
 11
98.268384
 21
-554.642897
  0
ARC
  8
1
 10
178.282173
 20
-544.758313
 40
6.000000
 50
180.000000
 51
228.012788
  0
ARC
  8
1
 10
176.282173
 20
-559.102662
 40
6.000000
 50
360.000000
 51
48.012788
  0
ARC
  8
1
 10
100.282173
 20
-544.758313
 40
6.000000
 50
311.987212
 51
0.000000
  0
ARC
  8
1
 10
102.282173
 20
-559.102662
 40
6.000000
 50
131.987212
 51
180.000000
  0
ARC
  8
1
 10
-678.043345
 20
-273.430487
 40
3.000000
 50
270.000000
 51
351.525547
  0
ARC
  8
1
 10
-678.043345
 20
-329.430487
 40
3.000000
 50
8.474453
 51
90.000000
  0
ARC
  8
1
 10
-302.192310
 20
-273.430487
 40
3.000000
 50
188.474453
 51
270.000000
  0
ARC
  8
1
 10
-302.192310
 20
-329.430487
 40
3.000000
 50
90.000000
 51
171.525547
  0
LINE
  8
1
  6
CENTER
 62
2
 10
-752.874389
 20
356.069513
 11
-232.053374
 21
356.069513
  0
LINE
  8
1
  6
CENTER
 62
2
 10
139.282173
 20
-630.376937
 11
139.282173
 21
128.114892
  0
LINE
  8
1
  6
CENTER
 62
2
 10
-490.117827
 20
-630.376937
 11
-490.117827
 21
128.114892
  0
LINE
  8
1
  6
CENTER
 62
2
 10
-752.874389
 20
-301.430487
 11
-232.053374
 21
-301.430487
  0
LINE
  8
1
  6
CENTER
 62
2
 10
45.147270
 20
-301.430487
 11
224.317901
 21
-301.430487
  0
LINE
  8
1
  6
CENTER
 62
2
 10
-456.176702
 20
390.010638
 11
-435.670605
 21
410.516735
  0
ARC
  8
1
  6
CENTER
 62
2
 10
-490.117827
 20
356.069513
 40
62.500000
 50
31.677386
 51
58.322614
  0
LINE
  8
1
  6
CENTER
 62
2
 10
-524.058953
 20
390.010638
 11
-544.565049
 21
410.516735
  0
ARC
  8
1
  6
CENTER
 62
2
 10
-490.117827
 20
356.069513
 40
62.500000
 50
121.677386
 51
148.322614
  0
LINE
  8
1
  6
CENTER
 62
2
 10
-456.176702
 20
322.128387
 11
-435.670605
 21
301.622290
  0
ARC
  8
1
  6
CENTER
 62
2
 10
-490.117827
 20
356.069513
 40
62.500000
 50
301.677386
 51
328.322614
  0
LINE
  8
1
  6
CENTER
 62
2
 10
-524.058953
 20
322.128387
 11
-544.565049
 21
301.622290
  0
ARC
  8
1
  6
CENTER
 62
2
 10
-490.117827
 20
356.069513
 40
62.500000
 50
211.677386
 51
238.322614
  0
LINE
  8
1
  6
CENTER
 62
2
 10
-533.818059
 20
-81.734585
 11
-524.453724
 21
-128.812278
  0
ARC
  8
1
  6
CENTER
 62
2
 10
-490.117827
 20
-301.430487
 40
200.000000
 50
94.370374
 51
108.129626
  0
ARC
  8
1
  6
CENTER
 62
2
 10
-490.117827
 20
-301.430487
 40
200.000000
 50
71.870374
 51
85.629626
  0
LINE
  8
1
  6
CENTER
 62
2
 10
-446.417595
 20
-81.734585
 11
-455.781931
 21
-128.812278
  0
LINE
  8
1
  6
CENTER
 62
2
 10
-286.117827
 20
358.569513
 11
-286.117827
 21
386.569513
  0
LINE
  8
1
  6
CENTER
 62
2
 10
-300.117827
 20
372.569513
 11
-272.117827
 21
372.569513
  0
LINE
  8
1
  6
CENTER
 62
2
 10
-286.117827
 20
353.569513
 11
-286.117827
 21
325.569513
  0
LINE
  8
1
  6
CENTER
 62
2
 10
-300.117827
 20
339.569513
 11
-272.117827
 21
339.569513
  0
LINE
  8
1
  6
CENTER
 62
2
 10
-694.117827
 20
358.569513
 11
-694.117827
 21
386.569513
  0
LINE
  8
1
  6
CENTER
 62
2
 10
-680.117827
 20
372.569513
 11
-708.117827
 21
372.569513
  0
LINE
  8
1
  6
CENTER
 62
2
 10
-694.117827
 20
353.569513
 11
-694.117827
 21
325.569513
  0
LINE
  8
1
  6
CENTER
 62
2
 10
-680.117827
 20
339.569513
 11
-708.117827
 21
339.569513
  0
LINE
  8
1
  6
CENTER
 62
2
 10
-286.117827
 20
-269.522902
 11
-286.117827
 21
-334.303405
  0
LINE
  8
1
  6
CENTER
 62
2
 10
-694.117827
 20
-269.522902
 11
-694.117827
 21
-334.303405
  0
LINE
  8
1
  6
CENTER
 62
2
 10
155.782173
 20
-269.522902
 11
155.782173
 21
-334.303405
  0
LINE
  8
1
  6
CENTER
 62
2
 10
122.782173
 20
-269.522902
 11
122.782173
 21
-334.303405
  0
CIRCLE
  8
1
 10
-490.117827
 20
-301.430487
 40
181.500000
  0
CIRCLE
  8
1
 10
-490.117827
 20
-301.430487
 40
154.204653
  0
LINE
  8
1
 10
-462.182718
 20
-155.887127
 11
-518.052936
 21
-155.887127
  0
ARC
  8
1
 10
-490.117827
 20
-196.605780
 40
49.379945
 50
55.547856
 51
124.452144
  0
LINE
  8
1
 10
-462.182718
 20
-446.973848
 11
-518.052936
 21
-446.973848
  0
ARC
  8
1
 10
-490.117827
 20
-406.255195
 40
49.379945
 50
235.547856
 51
304.452144
  0
ARC
  8
1
 10
-490.117827
 20
-301.430487
 40
148.200000
 50
100.865026
 51
259.134974
  0
ARC
  8
1
 10
-490.117827
 20
-301.430487
 40
148.200000
 50
280.865026
 51
79.134974
  0
LINE
  8
1
 10
178.282173
 20
-119.930487
 11
178.282173
 21
-482.930487
  0
LINE
  8
1
 10
100.282173
 20
-482.930487
 11
100.282173
 21
-119.930487
  0
LINE
  8
1
 10
100.282173
 20
-119.930487
 11
103.282173
 21
-119.930487
  0
LINE
  8
1
 10
175.282173
 20
-119.930487
 11
178.282173
 21
-119.930487
  0
LINE
  8
1
 10
175.282173
 20
-482.930487
 11
178.282173
 21
-482.930487
  0
LINE
  8
1
 10
100.282173
 20
-482.930487
 11
103.282173
 21
-482.930487
  0
LINE
  8
1
 10
-308.617827
 20
317.069513
 11
-308.617827
 21
320.069513
  0
LINE
  8
1
 10
-308.617827
 20
392.069513
 11
-308.617827
 21
395.069513
  0
LINE
  8
1
 10
-671.617827
 20
392.069513
 11
-671.617827
 21
395.069513
  0
LINE
  8
1
 10
-671.617827
 20
317.069513
 11
-671.617827
 21
320.069513
  0
LINE
  8
1
 10
-461.579476
 20
-158.628001
 11
-469.169453
 21
-301.430487
  0
LINE
  8
1
 10
-518.656179
 20
-158.628001
 11
-511.066202
 21
-301.430487
  0
LINE
  8
1
 10
-461.579476
 20
-444.232974
 11
-469.169453
 21
-301.430487
  0
LINE
  8
1
 10
-518.656179
 20
-444.232974
 11
-511.066202
 21
-301.430487
  0
LINE
  8
1
 10
-469.391843
 20
-157.286735
 11
-510.843811
 21
-157.286735
  0
LINE
  8
1
 10
-469.391843
 20
-445.574239
 11
-510.843811
 21
-445.574239
  0
ARC
  8
1
 10
-490.117827
 20
-301.430487
 40
145.626192
 50
98.182302
 51
261.817698
  0
ARC
  8
1
 10
-490.117827
 20
-301.430487
 40
145.626192
 50
278.182302
 51
81.817698
  0
LINE
  8
1
 10
-462.320375
 20
-155.887127
 11
-461.579476
 21
-158.628001
  0
LINE
  8
1
 10
-517.915280
 20
-155.887127
 11
-518.656179
 21
-158.628001
  0
LINE
  8
1
 10
-462.320375
 20
-446.973848
 11
-461.579476
 21
-444.232974
  0
LINE
  8
1
 10
-517.915280
 20
-446.973848
 11
-518.656179
 21
-444.232974
  0
ARC
  8
1
 10
-490.117827
 20
-301.430487
 40
147.406270
 50
100.958016
 51
259.041984
  0
ARC
  8
1
 10
-490.117827
 20
-301.430487
 40
147.406270
 50
280.958016
 51
79.041984
  0
LINE
  8
1
  6
DASHED
 10
-551.468273
 20
395.069513
 11
-569.475949
 21
395.069513
  0
LINE
  8
1
 10
-569.475949
 20
395.069513
 11
-671.617827
 21
395.069513
  0
LINE
  8
1
  6
DASHED
 10
-552.141628
 20
392.069513
 11
-569.791262
 21
392.069513
  0
LINE
  8
1
 10
-569.791262
 20
392.069513
 11
-677.117827
 21
392.069513
  0
LINE
  8
1
  6
DASHED
 10
-565.996859
 20
380.069513
 11
-571.052513
 21
380.069513
  0
LINE
  8
1
 10
-571.052513
 20
380.069513
 11
-615.464308
 21
380.069513
  0
LINE
  8
1
  6
DASHED
 10
-552.617827
 20
370.254558
 11
-572.084106
 21
370.254558
  0
LINE
  8
1
 10
-572.084106
 20
370.254558
 11
-605.533773
 21
370.254558
  0
LINE
  8
1
  6
DASHED
 10
-552.617827
 20
341.884467
 11
-571.896703
 21
341.884467
  0
LINE
  8
1
 10
-571.896703
 20
341.884467
 11
-605.533773
 21
341.884467
  0
LINE
  8
1
  6
DASHED
 10
-552.617827
 20
332.069513
 11
-569.572217
 21
332.069513
  0
LINE
  8
1
 10
-569.572217
 20
332.069513
 11
-615.464308
 21
332.069513
  0
LINE
  8
1
  6
DASHED
 10
-552.141628
 20
320.069513
 11
-564.904190
 21
320.069513
  0
LINE
  8
1
 10
-564.904190
 20
320.069513
 11
-677.117827
 21
320.069513
  0
LINE
  8
1
  6
DASHED
 10
-551.468273
 20
317.069513
 11
-563.384464
 21
317.069513
  0
LINE
  8
1
 10
-563.384464
 20
317.069513
 11
-671.617827
 21
317.069513
  0
LINE
  8
1
  6
DASHED
 10
-428.767382
 20
395.069513
 11
-410.759705
 21
395.069513
  0
LINE
  8
1
 10
-410.759705
 20
395.069513
 11
-308.617827
 21
395.069513
  0
LINE
  8
1
  6
DASHED
 10
-428.094027
 20
392.069513
 11
-410.444393
 21
392.069513
  0
LINE
  8
1
 10
-410.444393
 20
392.069513
 11
-303.117827
 21
392.069513
  0
LINE
  8
1
  6
DASHED
 10
-414.238796
 20
380.069513
 11
-406.117827
 21
380.069513
  0
LINE
  8
1
 10
-406.117827
 20
380.069513
 11
-364.771347
 21
380.069513
  0
LINE
  8
1
  6
DASHED
 10
-427.617827
 20
370.254558
 11
-406.117827
 21
370.254558
  0
LINE
  8
1
 10
-406.117827
 20
370.254558
 11
-374.701882
 21
370.254558
  0
LINE
  8
1
  6
DASHED
 10
-427.617827
 20
341.884467
 11
-408.338952
 21
341.884467
  0
LINE
  8
1
 10
-408.338952
 20
341.884467
 11
-374.701882
 21
341.884467
  0
LINE
  8
1
  6
DASHED
 10
-427.617827
 20
332.069513
 11
-410.663438
 21
332.069513
  0
LINE
  8
1
 10
-410.663438
 20
332.069513
 11
-364.771347
 21
332.069513
  0
LINE
  8
1
  6
DASHED
 10
-428.094027
 20
320.069513
 11
-415.331465
 21
320.069513
  0
LINE
  8
1
 10
-415.331465
 20
320.069513
 11
-303.117827
 21
320.069513
  0
LINE
  8
1
  6
DASHED
 10
-428.767382
 20
317.069513
 11
-416.851191
 21
317.069513
  0
LINE
  8
1
 10
-416.851191
 20
317.069513
 11
-308.617827
 21
317.069513
  0
LINE
  8
1
 10
-301.796485
 20
389.069513
 11
-299.617827
 21
389.069513
  0
LINE
  8
1
  6
DASHED
 10
-299.617827
 20
389.069513
 11
-278.617827
 21
389.069513
  0
ARC
  8
1
 10
-278.617827
 20
377.069513
 40
12.000000
 50
0.000000
 51
85.219808
  0
ARC
  8
1
  6
DASHED
 10
-278.617827
 20
377.069513
 40
12.000000
 50
85.219808
 51
90.000000
  0
ARC
  8
1
  6
DASHED
 62
2
 10
-286.117827
 20
339.569513
 40
8.000000
 50
55.200922
 51
143.723722
  0
ARC
  8
1
 62
2
 10
-286.117827
 20
339.569513
 40
8.000000
 50
143.723722
 51
55.200922
  0
ARC
  8
1
  6
DASHED
 10
-286.117827
 20
339.569513
 40
6.917500
 50
58.180971
 51
140.743674
  0
ARC
  8
1
 10
-286.117827
 20
339.569513
 40
6.917500
 50
140.743674
 51
58.180971
  0
LINE
  8
2
 10
-407.572510
 20
364.745375
 11
-417.977471
 21
463.741968
  0
LINE
  8
2
 10
-572.663145
 20
364.745375
 11
-562.258183
 21
463.741968
  0
LINE
  8
2
 10
-546.345833
 20
478.069513
 11
-433.889822
 21
478.069513
  0
ARC
  8
2
 10
-433.889822
 20
462.069513
 40
16.000000
 50
6.000000
 51
90.000000
  0
ARC
  8
2
 10
-546.345833
 20
462.069513
 40
16.000000
 50
90.000000
 51
174.000000
  0
ARC
  8
2
 10
-490.117827
 20
356.069513
 40
83.000000
 50
174.000000
 51
210.851886
  0
ARC
  8
2
 10
-490.117827
 20
356.069513
 40
83.000000
 50
329.148114
 51
6.000000
  0
ARC
  8
2
 10
-501.957014
 20
446.783876
 40
3.714255
 50
270.000000
 51
360.000000
  0
ARC
  8
2
 10
-505.838411
 20
450.145276
 40
3.714255
 50
90.000000
 51
180.000000
  0
ARC
  8
2
 10
-504.185567
 20
446.746733
 40
1.857127
 50
180.000000
 51
270.000000
  0
ARC
  8
2
 10
-503.609858
 20
450.182419
 40
1.857127
 50
0.000000
 51
90.000000
  0
LINE
  8
2
 10
-493.172802
 20
452.039546
 11
-493.562799
 21
443.069621
  0
LINE
  8
2
 10
-487.062853
 20
452.039546
 11
-486.672856
 21
443.069621
  0
LINE
  8
2
 10
-493.172802
 20
452.039546
 11
-491.501387
 21
443.069621
  0
LINE
  8
2
 10
-490.117827
 20
447.396728
 11
-488.913578
 21
453.859531
  0
LINE
  8
2
 10
-496.292776
 20
453.859531
 11
-491.322076
 21
453.859531
  0
LINE
  8
2
 10
-491.501387
 20
443.069621
 11
-488.734267
 21
443.069621
  0
ARC
  8
2
 10
-474.397244
 20
446.783876
 40
3.714255
 50
270.000000
 51
360.000000
  0
ARC
  8
2
 10
-476.050087
 20
446.746733
 40
1.857127
 50
270.000000
 51
360.000000
  0
LINE
  8
2
 10
-478.482924
 20
450.182419
 11
-478.482924
 21
446.746733
  0
ARC
  8
2
 10
-478.278640
 20
450.145276
 40
3.714255
 50
90.000000
 51
180.000000
  0
LINE
  8
2
 10
-481.992895
 20
450.145276
 11
-481.992895
 21
446.783876
  0
LINE
  8
2
 10
-486.672856
 20
443.069621
 11
-483.162885
 21
443.069621
  0
LINE
  8
2
 10
-469.123002
 20
443.329619
 11
-460.673073
 21
443.329619
  0
LINE
  8
2
 10
-465.613032
 20
447.489584
 11
-460.673073
 21
447.489584
  0
LINE
  8
2
 10
-465.613032
 20
449.439568
 11
-460.673073
 21
449.439568
  0
LINE
  8
2
 10
-465.613032
 20
445.279602
 11
-465.613032
 21
447.489584
  0
LINE
  8
2
 10
-465.613032
 20
449.439568
 11
-465.613032
 21
451.649549
  0
LINE
  8
2
 10
-515.402617
 20
451.649549
 11
-511.892646
 21
451.649549
  0
LINE
  8
2
 10
-519.952579
 20
449.439568
 11
-506.302692
 21
456.069513
  0
LINE
  8
2
 10
-519.952579
 20
449.439568
 11
-519.952579
 21
456.069513
  0
LINE
  8
2
 10
-511.892646
 20
451.649549
 11
-511.892646
 21
443.069621
  0
LINE
  8
2
 10
-509.552665
 20
450.145276
 11
-509.552665
 21
446.783876
  0
LINE
  8
2
 10
-498.242760
 20
450.145276
 11
-498.242760
 21
446.783876
  0
LINE
  8
2
 10
-506.042695
 20
450.182419
 11
-506.042695
 21
446.746733
  0
LINE
  8
2
 10
-501.752730
 20
450.182419
 11
-501.752730
 21
446.746733
  0
ARC
  8
2
 10
-505.838411
 20
446.783876
 40
3.714255
 50
180.000000
 51
270.000000
  0
ARC
  8
2
 10
-501.957014
 20
450.145276
 40
3.714255
 50
360.000000
 51
90.000000
  0
ARC
  8
2
 10
-503.609858
 20
446.746733
 40
1.857127
 50
270.000000
 51
360.000000
  0
ARC
  8
2
 10
-504.185567
 20
450.182419
 40
1.857127
 50
90.000000
 51
180.000000
  0
LINE
  8
2
 10
-515.402617
 20
443.069621
 11
-511.892646
 21
443.069621
  0
LINE
  8
2
 10
-496.292776
 20
453.859531
 11
-497.072769
 21
443.069621
  0
LINE
  8
2
 10
-483.942879
 20
453.859531
 11
-483.162885
 21
443.069621
  0
LINE
  8
2
 10
-487.062853
 20
452.039546
 11
-488.734267
 21
443.069621
  0
LINE
  8
2
 10
-490.117827
 20
447.396728
 11
-491.322076
 21
453.859531
  0
LINE
  8
2
 10
-505.838411
 20
453.859531
 11
-501.957014
 21
453.859531
  0
LINE
  8
2
 10
-505.838411
 20
443.069621
 11
-501.957014
 21
443.069621
  0
LINE
  8
2
 10
-497.072769
 20
443.069621
 11
-493.562799
 21
443.069621
  0
ARC
  8
2
 10
-478.278640
 20
446.783876
 40
3.714255
 50
180.000000
 51
270.000000
  0
LINE
  8
2
 10
-474.192960
 20
450.182419
 11
-474.192960
 21
446.746733
  0
ARC
  8
2
 10
-476.625797
 20
446.746733
 40
1.857127
 50
180.000000
 51
270.000000
  0
ARC
  8
2
 10
-476.050087
 20
450.182419
 40
1.857127
 50
0.000000
 51
90.000000
  0
ARC
  8
2
 10
-476.625797
 20
450.182419
 40
1.857127
 50
90.000000
 51
180.000000
  0
ARC
  8
2
 10
-474.397244
 20
450.145276
 40
3.714255
 50
360.000000
 51
90.000000
  0
LINE
  8
2
 10
-470.682989
 20
450.145276
 11
-470.682989
 21
446.783876
  0
LINE
  8
2
 10
-503.609858
 20
452.039546
 11
-504.185567
 21
452.039546
  0
LINE
  8
2
 10
-503.609858
 20
444.889606
 11
-504.185567
 21
444.889606
  0
LINE
  8
2
 10
-476.625797
 20
452.039546
 11
-476.050087
 21
452.039546
  0
LINE
  8
2
 10
-488.913578
 20
453.859531
 11
-483.942879
 21
453.859531
  0
LINE
  8
2
 10
-478.278640
 20
453.859531
 11
-474.397244
 21
453.859531
  0
LINE
  8
2
 10
-478.278640
 20
443.069621
 11
-474.397244
 21
443.069621
  0
LINE
  8
2
 10
-469.123002
 20
453.599533
 11
-469.123002
 21
443.329619
  0
LINE
  8
2
 10
-469.123002
 20
453.599533
 11
-460.673073
 21
453.599533
  0
LINE
  8
2
 10
-465.613032
 20
445.279602
 11
-460.673073
 21
445.279602
  0
LINE
  8
2
 10
-465.613032
 20
451.649549
 11
-460.673073
 21
451.649549
  0
LINE
  8
2
 10
-460.673073
 20
451.649549
 11
-460.673073
 21
453.599533
  0
LINE
  8
2
 10
-460.673073
 20
443.329619
 11
-460.673073
 21
445.279602
  0
LINE
  8
2
 10
-460.673073
 20
447.489584
 11
-460.673073
 21
449.439568
  0
LINE
  8
2
 10
-515.402617
 20
451.649549
 11
-515.402617
 21
443.069621
  0
LINE
  8
2
 10
-519.952579
 20
456.069513
 11
-506.302692
 21
456.069513
  0
LINE
  8
2
 10
-476.625797
 20
444.889606
 11
-476.050087
 21
444.889606
  0
LINE
  8
2
 10
-532.367827
 20
284.069513
 11
-447.867827
 21
284.069513
  0
ARC
  8
2
 10
-532.367827
 20
311.819513
 40
27.750000
 50
180.000000
 51
270.000000
  0
ARC
  8
2
 10
-447.867827
 20
311.819513
 40
27.750000
 50
270.000000
 51
360.000000
  0
LINE
  8
2
 10
-546.117827
 20
311.069513
 11
-557.080504
 21
311.069513
  0
LINE
  8
2
 10
-434.117827
 20
311.069513
 11
-423.155151
 21
311.069513
  0
LINE
  8
2
 10
-444.117827
 20
301.069513
 11
-444.117827
 21
289.069513
  0
LINE
  8
2
 10
-536.117827
 20
301.069513
 11
-536.117827
 21
289.069513
  0
ARC
  8
2
 10
-434.117827
 20
301.069513
 40
10.000000
 50
90.000000
 51
180.000000
  0
ARC
  8
2
 10
-546.117827
 20
301.069513
 40
10.000000
 50
0.000000
 51
90.000000
  0
LINE
  8
2
 10
-549.117827
 20
456.569513
 11
-558.510019
 21
456.569513
  0
LINE
  8
2
 10
-560.117827
 20
415.069513
 11
-561.820802
 21
415.069513
  0
LINE
  8
2
 10
-560.117827
 20
395.069513
 11
-564.973929
 21
395.069513
  0
LINE
  8
2
 10
-420.117827
 20
395.069513
 11
-415.261726
 21
395.069513
  0
LINE
  8
2
 10
-420.117827
 20
415.069513
 11
-418.414853
 21
415.069513
  0
LINE
  8
2
 10
-431.117827
 20
456.569513
 11
-421.725636
 21
456.569513
  0
LINE
  8
2
 10
-441.117827
 20
466.569513
 11
-441.117827
 21
473.069513
  0
LINE
  8
2
 10
-539.117827
 20
466.569513
 11
-539.117827
 21
473.069513
  0
ARC
  8
2
 10
-431.117827
 20
466.569513
 40
10.000000
 50
180.000000
 51
270.000000
  0
ARC
  8
2
 10
-549.117827
 20
466.569513
 40
10.000000
 50
270.000000
 51
360.000000
  0
ARC
  8
2
 10
-560.117827
 20
405.069513
 40
10.000000
 50
270.000000
 51
90.000000
  0
ARC
  8
2
 10
-420.117827
 20
405.069513
 40
10.000000
 50
90.000000
 51
270.000000
  0
ARC
  8
2
 10
-446.117827
 20
473.069513
 40
5.000000
 50
0.000000
 51
90.000000
  0
ARC
  8
2
 10
-421.725636
 20
451.569513
 40
5.000000
 50
6.000000
 51
90.000000
  0
ARC
  8
2
 10
-418.414853
 20
420.069513
 40
5.000000
 50
270.000000
 51
6.000000
  0
ARC
  8
2
 10
-415.261726
 20
390.069513
 40
5.000000
 50
6.000000
 51
90.000000
  0
ARC
  8
2
 10
-449.117827
 20
289.069513
 40
5.000000
 50
270.000000
 51
360.000000
  0
ARC
  8
2
 10
-531.117827
 20
289.069513
 40
5.000000
 50
180.000000
 51
270.000000
  0
ARC
  8
2
 10
-564.973929
 20
390.069513
 40
5.000000
 50
90.000000
 51
174.000000
  0
ARC
  8
2
 10
-561.820802
 20
420.069513
 40
5.000000
 50
174.000000
 51
270.000000
  0
ARC
  8
2
 10
-558.510019
 20
451.569513
 40
5.000000
 50
90.000000
 51
174.000000
  0
ARC
  8
2
 10
-534.117827
 20
473.069513
 40
5.000000
 50
90.000000
 51
180.000000
  0
ARC
  8
2
 10
-423.155151
 20
316.069513
 40
5.000000
 50
270.000000
 51
329.148114
  0
ARC
  8
2
 10
-557.080504
 20
316.069513
 40
5.000000
 50
210.851886
 51
270.000000
  0
LINE
  8
2
 10
-420.117827
 20
311.819513
 11
-420.117827
 21
312.097779
  0
LINE
  8
2
 10
-560.117827
 20
311.819513
 11
-560.117827
 21
312.097779
  0
LINE
  8
2
 10
-494.617827
 20
395.031032
 11
-494.617827
 21
403.002976
  0
LINE
  8
2
 10
-485.617827
 20
395.031032
 11
-485.617827
 21
403.002976
  0
LINE
  8
2
 10
-537.051291
 20
360.569513
 11
-529.079347
 21
360.569513
  0
LINE
  8
2
 10
-451.156308
 20
360.569513
 11
-443.184364
 21
360.569513
  0
LINE
  8
2
 10
-537.051291
 20
351.569513
 11
-529.079347
 21
351.569513
  0
LINE
  8
2
 10
-451.156308
 20
351.569513
 11
-443.184364
 21
351.569513
  0
ARC
  8
2
 10
-490.117827
 20
356.069513
 40
49.000000
 50
176.950913
 51
183.049087
  0
ARC
  8
2
 10
-490.117827
 20
356.069513
 40
49.000000
 50
86.950913
 51
93.049087
  0
ARC
  8
2
 10
-490.117827
 20
356.069513
 40
49.000000
 50
356.950913
 51
3.049087
  0
ARC
  8
2
 10
-490.117827
 20
356.069513
 40
49.000000
 50
21.890459
 51
23.109541
  0
ARC
  8
2
 10
-443.184364
 20
358.569513
 40
2.000000
 50
3.049087
 51
90.000000
  0
ARC
  8
2
 10
-443.184364
 20
353.569513
 40
2.000000
 50
270.000000
 51
356.950913
  0
ARC
  8
2
 10
-487.617827
 20
403.002976
 40
2.000000
 50
0.000000
 51
86.950913
  0
ARC
  8
2
 10
-492.617827
 20
403.002976
 40
2.000000
 50
93.049087
 51
180.000000
  0
ARC
  8
2
 10
-537.051291
 20
358.569513
 40
2.000000
 50
90.000000
 51
176.950913
  0
ARC
  8
2
 10
-537.051291
 20
353.569513
 40
2.000000
 50
183.049087
 51
270.000000
  0
ARC
  8
2
 10
-451.156308
 20
349.569513
 40
2.000000
 50
90.000000
 51
170.528502
  0
ARC
  8
2
 10
-451.156308
 20
362.569513
 40
2.000000
 50
189.471498
 51
270.000000
  0
ARC
  8
2
 10
-529.079347
 20
362.569513
 40
2.000000
 50
270.000000
 51
350.528502
  0
ARC
  8
2
 10
-529.079347
 20
349.569513
 40
2.000000
 50
9.471498
 51
90.000000
  0
ARC
  8
2
 10
-483.617827
 20
395.031032
 40
2.000000
 50
180.000000
 51
260.528502
  0
ARC
  8
2
 10
-496.617827
 20
395.031032
 40
2.000000
 50
279.471498
 51
360.000000
  0
LINE
  8
2
 10
-454.818885
 20
373.396794
 11
-447.654655
 21
376.364315
  0
LINE
  8
2
 10
-452.905468
 20
368.777396
 11
-445.741238
 21
371.744917
  0
ARC
  8
2
 10
-455.584252
 20
375.244553
 40
2.000000
 50
209.041570
 51
292.500000
  0
ARC
  8
2
 10
-452.140101
 20
366.929637
 40
2.000000
 50
112.500000
 51
195.958430
  0
ARC
  8
2
 10
-446.506605
 20
373.592676
 40
2.000000
 50
292.500000
 51
21.890459
  0
ARC
  8
2
 10
-446.889288
 20
374.516556
 40
2.000000
 50
23.109541
 51
112.500000
  0
ARC
  8
2
 10
-490.117827
 20
356.069513
 40
49.000000
 50
44.390459
 51
45.609541
  0
LINE
  8
2
 10
-464.136720
 20
385.586153
 11
-458.653456
 21
391.069418
  0
LINE
  8
2
 10
-460.601187
 20
382.050619
 11
-455.117922
 21
387.533884
  0
ARC
  8
2
 10
-465.550934
 20
387.000367
 40
2.000000
 50
231.541570
 51
315.000000
  0
ARC
  8
2
 10
-459.186973
 20
380.636406
 40
2.000000
 50
135.000000
 51
218.458430
  0
ARC
  8
2
 10
-456.532136
 20
388.948097
 40
2.000000
 50
315.000000
 51
44.390459
  0
ARC
  8
2
 10
-457.239243
 20
389.655204
 40
2.000000
 50
45.609541
 51
135.000000
  0
ARC
  8
2
 10
-490.117827
 20
356.069513
 40
49.000000
 50
66.890459
 51
68.109541
  0
LINE
  8
2
 10
-477.409944
 20
393.281872
 11
-474.442423
 21
400.446102
  0
LINE
  8
2
 10
-472.790546
 20
391.368455
 11
-469.823025
 21
398.532685
  0
ARC
  8
2
 10
-479.257703
 20
394.047239
 40
2.000000
 50
254.041570
 51
337.500000
  0
ARC
  8
2
 10
-470.942787
 20
390.603088
 40
2.000000
 50
157.500000
 51
240.958430
  0
ARC
  8
2
 10
-471.670784
 20
399.298052
 40
2.000000
 50
337.500000
 51
66.890459
  0
ARC
  8
2
 10
-472.594664
 20
399.680735
 40
2.000000
 50
68.109541
 51
157.500000
  0
ARC
  8
2
 10
-490.117827
 20
356.069513
 40
49.000000
 50
156.890459
 51
158.109541
  0
LINE
  8
2
 10
-525.416770
 20
373.396794
 11
-532.581000
 21
376.364315
  0
LINE
  8
2
 10
-527.330187
 20
368.777396
 11
-534.494417
 21
371.744917
  0
ARC
  8
2
 10
-524.651403
 20
375.244553
 40
2.000000
 50
247.500000
 51
330.958430
  0
ARC
  8
2
 10
-528.095554
 20
366.929637
 40
2.000000
 50
344.041570
 51
67.500000
  0
ARC
  8
2
 10
-533.729050
 20
373.592676
 40
2.000000
 50
158.109541
 51
247.500000
  0
ARC
  8
2
 10
-533.346366
 20
374.516556
 40
2.000000
 50
67.500000
 51
156.890459
  0
ARC
  8
2
 10
-490.117827
 20
356.069513
 40
49.000000
 50
134.390459
 51
135.609541
  0
LINE
  8
2
 10
-516.098934
 20
385.586153
 11
-521.582198
 21
391.069418
  0
LINE
  8
2
 10
-519.634468
 20
382.050619
 11
-525.117732
 21
387.533884
  0
ARC
  8
2
 10
-514.684721
 20
387.000367
 40
2.000000
 50
225.000000
 51
308.458430
  0
ARC
  8
2
 10
-521.048682
 20
380.636406
 40
2.000000
 50
321.541570
 51
45.000000
  0
ARC
  8
2
 10
-523.703519
 20
388.948097
 40
2.000000
 50
135.609541
 51
225.000000
  0
ARC
  8
2
 10
-522.996412
 20
389.655204
 40
2.000000
 50
45.000000
 51
134.390459
  0
ARC
  8
2
 10
-490.117827
 20
356.069513
 40
49.000000
 50
111.890459
 51
113.109541
  0
LINE
  8
2
 10
-502.825711
 20
393.281872
 11
-505.793232
 21
400.446102
  0
LINE
  8
2
 10
-507.445108
 20
391.368455
 11
-510.412630
 21
398.532685
  0
ARC
  8
2
 10
-500.977952
 20
394.047239
 40
2.000000
 50
202.500000
 51
285.958430
  0
ARC
  8
2
 10
-509.292868
 20
390.603088
 40
2.000000
 50
299.041570
 51
22.500000
  0
ARC
  8
2
 10
-508.564871
 20
399.298052
 40
2.000000
 50
113.109541
 51
202.500000
  0
ARC
  8
2
 10
-507.640991
 20
399.680735
 40
2.000000
 50
22.500000
 51
111.890459
  0
ARC
  8
2
 10
-490.117827
 20
356.069513
 40
40.500000
 50
8.797411
 51
16.421995
  0
ARC
  8
2
 10
-490.117827
 20
356.069513
 40
40.500000
 50
28.578005
 51
38.921995
  0
ARC
  8
2
 10
-490.117827
 20
356.069513
 40
40.500000
 50
51.078005
 51
61.421995
  0
ARC
  8
2
 10
-490.117827
 20
356.069513
 40
40.500000
 50
73.578005
 51
81.202589
  0
ARC
  8
2
 10
-490.117827
 20
356.069513
 40
40.500000
 50
98.797411
 51
106.421995
  0
ARC
  8
2
 10
-490.117827
 20
356.069513
 40
40.500000
 50
118.578005
 51
128.921995
  0
ARC
  8
2
 10
-490.117827
 20
356.069513
 40
40.500000
 50
141.078005
 51
151.421995
  0
ARC
  8
2
 10
-490.117827
 20
356.069513
 40
40.500000
 50
163.578005
 51
171.202589
  0
ARC
  8
2
 10
-490.117827
 20
356.069513
 40
40.500000
 50
188.797411
 51
351.202589
  0
ARC
  8
2
 10
-448.117827
 20
349.569513
 40
2.000000
 50
90.000000
 51
171.202589
  0
ARC
  8
2
 10
-448.117827
 20
362.569513
 40
2.000000
 50
188.797411
 51
270.000000
  0
ARC
  8
2
 10
-449.351593
 20
368.084675
 40
2.000000
 50
112.500000
 51
196.421995
  0
ARC
  8
2
 10
-452.795744
 20
376.399591
 40
2.000000
 50
208.578005
 51
292.500000
  0
ARC
  8
2
 10
-457.052741
 20
382.770638
 40
2.000000
 50
135.000000
 51
218.921995
  0
ARC
  8
2
 10
-463.416702
 20
389.134599
 40
2.000000
 50
231.078005
 51
315.000000
  0
ARC
  8
2
 10
-469.787749
 20
393.391596
 40
2.000000
 50
157.500000
 51
241.421995
  0
ARC
  8
2
 10
-478.102665
 20
396.835747
 40
2.000000
 50
253.578005
 51
337.500000
  0
ARC
  8
2
 10
-483.617827
 20
398.069513
 40
2.000000
 50
180.000000
 51
261.202589
  0
ARC
  8
2
 10
-496.617827
 20
398.069513
 40
2.000000
 50
278.797411
 51
360.000000
  0
ARC
  8
2
 10
-502.132990
 20
396.835747
 40
2.000000
 50
202.500000
 51
286.421995
  0
ARC
  8
2
 10
-510.447905
 20
393.391596
 40
2.000000
 50
298.578005
 51
22.500000
  0
ARC
  8
2
 10
-516.818952
 20
389.134599
 40
2.000000
 50
225.000000
 51
308.921995
  0
ARC
  8
2
 10
-523.182913
 20
382.770638
 40
2.000000
 50
321.078005
 51
45.000000
  0
ARC
  8
2
 10
-527.439911
 20
376.399591
 40
2.000000
 50
247.500000
 51
331.421995
  0
ARC
  8
2
 10
-530.884062
 20
368.084675
 40
2.000000
 50
343.578005
 51
67.500000
  0
ARC
  8
2
 10
-532.117827
 20
362.569513
 40
2.000000
 50
270.000000
 51
351.202589
  0
ARC
  8
2
 10
-532.117827
 20
349.569513
 40
2.000000
 50
8.797411
 51
90.000000
  0
TEXT
  8
2
 10
-493.117827
 20
406.069513
 40
6.000000
  1
Ｏ
 50
0.000000
  0
TEXT
  8
2
 10
-493.867827
 20
307.569513
 40
7.500000
  1
Ａ
 50
0.000000
  0
TEXT
  8
2
 10
-440.117827
 20
359.069513
 40
6.000000
  1
Ｓ
 50
270.000000
  0
TEXT
  8
2
 10
-540.117827
 20
353.069513
 40
6.000000
  1
Ｓ
 50
90.000000
  0
LINE
  8
2
 10
-573.117827
 20
68.569513
 11
-407.117827
 21
68.569513
  0
LINE
  8
2
 10
-573.117827
 20
75.569513
 11
-407.117827
 21
75.569513
  0
LINE
  8
2
 10
-539.117827
 20
83.569513
 11
-441.117827
 21
83.569513
  0
LINE
  8
2
 10
-573.117827
 20
75.569513
 11
-573.117827
 21
28.569513
  0
LINE
  8
2
 10
-407.117827
 20
75.569513
 11
-407.117827
 21
67.569513
  0
LINE
  8
2
 10
-407.117827
 20
75.569513
 11
-415.778081
 21
80.569513
  0
LINE
  8
2
 10
-573.117827
 20
75.569513
 11
-564.457573
 21
80.569513
  0
LINE
  8
2
 10
-425.931573
 20
456.569513
 11
-421.558778
 21
414.965151
  0
LINE
  8
2
 10
-419.467662
 20
395.069513
 11
-416.185322
 21
363.840132
  0
LINE
  8
2
 10
-564.050332
 20
363.840132
 11
-560.767992
 21
395.069513
  0
LINE
  8
2
 10
-558.676876
 20
414.965151
 11
-554.304082
 21
456.569513
  0
ARC
  8
2
 10
-490.117827
 20
356.069513
 40
74.339746
 50
174.000000
 51
217.252516
  0
ARC
  8
2
 10
-490.117827
 20
356.069513
 40
74.339746
 50
322.747484
 51
6.000000
  0
LINE
  8
2
 10
-441.117827
 20
80.569513
 11
-441.117827
 21
83.569513
  0
LINE
  8
2
 10
-539.117827
 20
80.569513
 11
-539.117827
 21
83.569513
  0
LINE
  8
2
 10
-449.868604
 20
80.569513
 11
-452.888806
 21
83.569513
  0
LINE
  8
2
 10
-530.367051
 20
80.569513
 11
-527.346848
 21
83.569513
  0
LINE
  8
2
 10
-420.117827
 20
73.569513
 11
-420.117827
 21
-4.430487
  0
ARC
  8
2
 10
-422.117827
 20
73.569513
 40
2.000000
 50
0.000000
 51
90.000000
  0
LINE
  8
2
 10
-560.117827
 20
73.569513
 11
-560.117827
 21
-4.430487
  0
ARC
  8
2
 10
-558.117827
 20
73.569513
 40
2.000000
 50
90.000000
 51
180.000000
  0
LINE
  8
2
 10
-444.117827
 20
78.569513
 11
-444.117827
 21
77.569513
  0
LINE
  8
2
 10
-536.117827
 20
78.569513
 11
-536.117827
 21
77.569513
  0
ARC
  8
2
 10
-446.117827
 20
78.569513
 40
2.000000
 50
0.000000
 51
90.000000
  0
ARC
  8
2
 10
-534.117827
 20
78.569513
 40
2.000000
 50
90.000000
 51
180.000000
  0
ARC
  8
2
 10
-538.117827
 20
77.569513
 40
2.000000
 50
270.000000
 51
360.000000
  0
ARC
  8
2
 10
-442.117827
 20
77.569513
 40
2.000000
 50
180.000000
 51
270.000000
  0
LINE
  8
2
 10
-420.375444
 20
75.569513
 11
-427.117827
 21
78.758977
  0
LINE
  8
2
 10
-559.860210
 20
75.569513
 11
-553.117827
 21
78.758977
  0
LINE
  8
2
 10
261.282173
 20
68.569513
 11
67.282173
 21
68.569513
  0
LINE
  8
2
 10
261.282173
 20
75.569513
 11
67.282173
 21
75.569513
  0
LINE
  8
2
 10
188.282173
 20
83.569513
 11
101.782173
 21
83.569513
  0
LINE
  8
2
 10
261.282173
 20
75.569513
 11
261.282173
 21
43.569513
  0
LINE
  8
2
 10
67.282173
 20
75.569513
 11
67.282173
 21
28.569513
  0
LINE
  8
2
 10
261.282173
 20
75.569513
 11
256.782173
 21
78.167589
  0
LINE
  8
2
 10
67.282173
 20
75.569513
 11
75.942427
 21
80.569513
  0
LINE
  8
2
 10
-441.117827
 20
469.409259
 11
-539.117827
 21
469.409259
  0
LINE
  8
2
 10
-444.117827
 20
292.729767
 11
-536.117827
 21
292.729767
  0
LINE
  8
2
 10
188.282173
 20
83.569513
 11
188.282173
 21
82.769513
  0
LINE
  8
2
 10
101.782173
 20
83.569513
 11
98.782173
 21
80.569513
  0
LINE
  8
2
 10
184.893395
 20
83.569513
 11
184.893395
 21
82.447640
  0
LINE
  8
2
 10
174.867864
 20
83.569513
 11
174.867864
 21
80.569513
  0
LINE
  8
2
 10
159.729216
 20
83.569513
 11
159.729216
 21
80.569513
  0
LINE
  8
2
 10
183.536602
 20
83.569513
 11
183.536602
 21
82.132679
  0
LINE
  8
2
 10
172.117513
 20
83.569513
 11
172.117513
 21
80.569513
  0
LINE
  8
2
 10
155.699540
 20
83.569513
 11
155.699540
 21
80.569513
  0
LINE
  8
2
 10
143.782173
 20
83.569513
 11
143.782173
 21
80.569513
  0
LINE
  8
2
 10
134.782173
 20
83.569513
 11
134.782173
 21
80.569513
  0
LINE
  8
2
 10
175.671230
 20
80.569513
 11
174.867864
 21
81.437279
  0
LINE
  8
2
 10
166.097618
 20
80.569513
 11
163.971919
 21
83.569513
  0
LINE
  8
2
 10
152.441597
 20
80.569513
 11
151.291177
 21
83.569513
  0
LINE
  8
2
 10
239.782173
 20
80.569513
 11
239.782173
 21
75.569513
  0
LINE
  8
2
 10
95.310440
 20
75.569513
 11
95.310440
 21
2.342590
  0
LINE
  8
2
 10
94.282173
 20
80.569513
 11
94.282173
 21
75.569513
  0
LINE
  8
2
 10
178.282173
 20
80.569513
 11
178.282173
 21
75.569513
  0
LINE
  8
2
 10
198.282173
 20
80.569513
 11
198.282173
 21
75.569513
  0
LINE
  8
2
 10
-573.117827
 20
67.569513
 11
-406.117827
 21
67.569513
  0
LINE
  8
2
 10
65.282173
 20
67.569513
 11
261.282173
 21
67.569513
  0
LINE
  8
2
 10
-560.117827
 20
-4.430487
 11
-420.117827
 21
-4.430487
  0
LINE
  8
2
 10
69.282173
 20
-4.430487
 11
209.282173
 21
-4.430487
  0
LINE
  8
2
 10
209.282173
 20
-2.657410
 11
209.282173
 21
-4.430487
  0
LINE
  8
2
 10
241.362503
 20
12.301894
 11
209.282173
 21
-2.657410
  0
ARC
  8
2
 10
226.782173
 20
43.569513
 40
34.500000
 50
295.000000
 51
360.000000
  0
LINE
  8
2
 10
67.282173
 20
28.569513
 11
69.282173
 21
-4.430487
  0
LINE
  8
2
 10
209.282173
 20
-2.657410
 11
100.310440
 21
-2.657410
  0
ARC
  8
2
 10
100.310440
 20
2.342590
 40
5.000000
 50
180.000000
 51
270.000000
  0
LINE
  8
2
 10
174.282173
 20
67.569513
 11
174.282173
 21
36.569513
  0
LINE
  8
2
 10
130.282173
 20
67.569513
 11
130.282173
 21
36.569513
  0
LINE
  8
2
 10
133.282173
 20
33.569513
 11
171.282173
 21
33.569513
  0
ARC
  8
2
 10
171.282173
 20
36.569513
 40
3.000000
 50
270.000000
 51
360.000000
  0
ARC
  8
2
 10
133.282173
 20
36.569513
 40
3.000000
 50
180.000000
 51
270.000000
  0
LINE
  8
2
 10
197.782173
 20
67.569513
 11
197.782173
 21
43.384467
  0
LINE
  8
2
 10
255.782173
 20
67.569513
 11
255.782173
 21
43.384467
  0
LINE
  8
2
 10
232.782173
 20
23.177208
 11
249.782173
 21
32.992162
  0
LINE
  8
2
 10
220.782173
 20
23.177208
 11
203.782173
 21
32.992162
  0
ARC
  8
2
 10
226.782173
 20
33.569513
 40
12.000000
 50
240.000000
 51
300.000000
  0
ARC
  8
2
 10
243.782173
 20
43.384467
 40
12.000000
 50
300.000000
 51
0.000000
  0
ARC
  8
2
 10
209.782173
 20
43.384467
 40
12.000000
 50
180.000000
 51
240.000000
  0
CIRCLE
  8
2
 10
226.782173
 20
43.569513
 40
13.000000
  0
CIRCLE
  8
2
 10
226.782173
 20
43.569513
 40
11.000000
  0
LINE
  8
2
 10
65.282173
 20
67.569513
 11
65.282173
 21
32.569513
  0
ARC
  8
2
 10
66.282173
 20
32.569513
 40
1.000000
 50
180.000000
 51
270.000000
  0
ARC
  8
2
 10
66.282173
 20
30.569513
 40
1.000000
 50
0.000000
 51
90.000000
  0
LINE
  8
2
 10
-407.117827
 20
28.569513
 11
-420.117827
 21
-2.657410
  0
LINE
  8
2
 10
-573.117827
 20
28.569513
 11
-560.117827
 21
-2.657410
  0
LINE
  8
2
 10
-450.117827
 20
43.569513
 11
-450.117827
 21
67.569513
  0
LINE
  8
2
 10
-530.117827
 20
43.569513
 11
-530.117827
 21
67.569513
  0
LINE
  8
2
 10
-518.117827
 20
31.569513
 11
-462.117827
 21
31.569513
  0
ARC
  8
2
 10
-518.117827
 20
43.569513
 40
12.000000
 50
180.000000
 51
270.000000
  0
ARC
  8
2
 10
-462.117827
 20
43.569513
 40
12.000000
 50
270.000000
 51
360.000000
  0
LINE
  8
2
 10
-530.117827
 20
282.069513
 11
-450.117827
 21
282.069513
  0
LINE
  8
2
 10
-450.117827
 20
282.069513
 11
-450.117827
 21
284.069513
  0
LINE
  8
2
 10
-530.117827
 20
282.069513
 11
-530.117827
 21
284.069513
  0
LINE
  8
2
 10
-406.117827
 20
348.069513
 11
-406.117827
 21
390.069513
  0
LINE
  8
2
 10
-409.438884
 20
391.069513
 11
-407.117827
 21
391.069513
  0
ARC
  8
2
 10
-409.438884
 20
392.069513
 40
1.000000
 50
186.000000
 51
270.000000
  0
ARC
  8
2
 10
-407.117827
 20
390.069513
 40
1.000000
 50
0.000000
 51
90.000000
  0
ARC
  8
2
 10
-407.117827
 20
348.069513
 40
1.000000
 50
281.761060
 51
360.000000
  0
ARC
  8
2
 10
-406.710166
 20
346.111500
 40
1.000000
 50
101.761060
 51
173.191703
  0
LINE
  8
2
 10
-407.607222
 20
67.569513
 11
-407.607222
 21
33.569513
  0
LINE
  8
2
 10
-406.117827
 20
33.569513
 11
-406.117827
 21
67.569513
  0
LINE
  8
2
 10
-406.607222
 20
33.569513
 11
-406.117827
 21
33.569513
  0
ARC
  8
2
 10
-406.607222
 20
32.569513
 40
1.000000
 50
90.000000
 51
180.000000
  0
LINE
  8
2
 10
-407.117827
 20
32.569513
 11
-407.117827
 21
28.569513
  0
ARC
  8
2
 10
-406.117827
 20
32.569513
 40
1.000000
 50
90.000000
 51
180.000000
  0
LINE
  8
2
 10
-412.117827
 20
415.569513
 11
-412.117827
 21
469.569513
  0
LINE
  8
2
 10
-568.117827
 20
415.569513
 11
-568.117827
 21
469.569513
  0
LINE
  8
2
 10
-565.117827
 20
472.569513
 11
-559.715575
 21
472.569513
  0
LINE
  8
2
 10
-420.520080
 20
472.569513
 11
-415.117827
 21
472.569513
  0
ARC
  8
2
 10
-415.117827
 20
469.569513
 40
3.000000
 50
0.000000
 51
90.000000
  0
ARC
  8
2
 10
-565.117827
 20
469.569513
 40
3.000000
 50
90.000000
 51
180.000000
  0
ARC
  8
2
 10
-413.117827
 20
415.569513
 40
1.000000
 50
312.954832
 51
0.000000
  0
ARC
  8
2
 10
-411.754984
 20
414.105730
 40
1.000000
 50
132.954832
 51
186.000000
  0
ARC
  8
2
 10
-567.117827
 20
415.569513
 40
1.000000
 50
180.000000
 51
227.045168
  0
ARC
  8
2
 10
-568.480671
 20
414.105730
 40
1.000000
 50
354.000000
 51
47.045168
  0
ARC
  8
2
 10
-420.520080
 20
475.569513
 40
3.000000
 50
225.277754
 51
270.000000
  0
ARC
  8
2
 10
-559.715575
 20
475.569513
 40
3.000000
 50
270.000000
 51
314.722246
  0
LINE
  8
2
 10
-525.561445
 20
360.069513
 11
-452.617827
 21
360.069513
  0
LINE
  8
2
 10
-525.561445
 20
352.069513
 11
-452.617827
 21
352.069513
  0
ARC
  8
2
 10
-525.561445
 20
358.069513
 40
2.000000
 50
90.000000
 51
176.770359
  0
ARC
  8
2
 10
-525.561445
 20
354.069513
 40
2.000000
 50
183.229641
 51
270.000000
  0
ARC
  8
2
 10
-452.617827
 20
356.069513
 40
4.000000
 50
270.000000
 51
90.000000
  0
ARC
  8
2
 10
-490.117827
 20
356.069513
 40
37.500000
 50
8.428982
 51
351.571018
  0
ARC
  8
2
 10
-451.044494
 20
361.859558
 40
2.000000
 50
188.428982
 51
254.798038
  0
ARC
  8
2
 10
-451.044494
 20
350.279467
 40
2.000000
 50
105.201962
 51
171.571018
  0
LINE
  8
2
 10
-521.617827
 20
84.569513
 11
-458.617827
 21
84.569513
  0
LINE
  8
2
 10
-527.617827
 20
85.069513
 11
-448.617827
 21
85.069513
  0
LINE
  8
2
 10
-521.617827
 20
84.569513
 11
-521.617827
 21
85.069513
  0
LINE
  8
2
 10
-458.617827
 20
84.569513
 11
-458.617827
 21
85.069513
  0
LINE
  8
2
 10
-462.617827
 20
83.569513
 11
-462.617827
 21
84.569513
  0
LINE
  8
2
 10
-517.617827
 20
83.569513
 11
-517.617827
 21
84.569513
  0
LINE
  8
2
 10
-522.617827
 20
111.069513
 11
-461.163461
 21
111.069513
  0
LINE
  8
2
 10
-525.617827
 20
91.069513
 11
-454.831771
 21
91.069513
  0
LINE
  8
2
 10
-527.617827
 20
85.069513
 11
-527.617827
 21
106.069513
  0
LINE
  8
2
 10
-448.617827
 20
85.069513
 11
-448.617827
 21
99.737974
  0
ARC
  8
2
 10
-522.617827
 20
106.069513
 40
5.000000
 50
90.000000
 51
180.000000
  0
ARC
  8
2
 10
-525.617827
 20
89.069513
 40
2.000000
 50
90.000000
 51
180.000000
  0
LINE
  8
2
 10
-450.403889
 20
103.568197
 11
-457.949523
 21
109.899735
  0
ARC
  8
2
 10
-453.617827
 20
99.737974
 40
5.000000
 50
0.000000
 51
50.000000
  0
ARC
  8
2
 10
-461.163461
 20
106.069513
 40
5.000000
 50
50.000000
 51
90.000000
  0
LINE
  8
2
 10
-459.343610
 20
352.069513
 11
-459.343610
 21
360.069513
  0
LINE
  8
2
 10
-452.831771
 20
89.069513
 11
-452.831771
 21
85.069513
  0
ARC
  8
2
 10
-454.831771
 20
89.069513
 40
2.000000
 50
0.000000
 51
90.000000
  0
LINE
  8
2
 10
107.782173
 20
84.569513
 11
170.782173
 21
84.569513
  0
LINE
  8
2
 10
166.782173
 20
83.569513
 11
166.782173
 21
84.569513
  0
LINE
  8
2
 10
111.782173
 20
83.569513
 11
111.782173
 21
84.569513
  0
LINE
  8
2
 10
101.782173
 20
85.069513
 11
176.782173
 21
85.069513
  0
LINE
  8
2
 10
107.782173
 20
85.069513
 11
107.782173
 21
84.569513
  0
LINE
  8
2
 10
170.782173
 20
85.069513
 11
170.782173
 21
84.569513
  0
LINE
  8
2
 10
137.282173
 20
111.069513
 11
141.282173
 21
111.069513
  0
LINE
  8
2
 10
101.782173
 20
89.069513
 11
101.782173
 21
85.069513
  0
LINE
  8
2
 10
176.782173
 20
89.069513
 11
176.782173
 21
85.069513
  0
ARC
  8
2
 10
174.782173
 20
89.069513
 40
2.000000
 50
0.000000
 51
90.000000
  0
ARC
  8
2
 10
103.782173
 20
89.069513
 40
2.000000
 50
90.000000
 51
180.000000
  0
LINE
  8
2
 10
135.282173
 20
109.069513
 11
135.282173
 21
85.069513
  0
LINE
  8
2
 10
143.282173
 20
109.069513
 11
143.282173
 21
85.069513
  0
ARC
  8
2
 10
141.282173
 20
109.069513
 40
2.000000
 50
0.000000
 51
90.000000
  0
ARC
  8
2
 10
137.282173
 20
109.069513
 40
2.000000
 50
90.000000
 51
180.000000
  0
LINE
  8
2
 10
103.782173
 20
91.069513
 11
133.282173
 21
91.069513
  0
LINE
  8
2
 10
145.282173
 20
91.069513
 11
174.782173
 21
91.069513
  0
ARC
  8
2
 10
145.282173
 20
93.069513
 40
2.000000
 50
180.000000
 51
270.000000
  0
ARC
  8
2
 10
133.282173
 20
93.069513
 40
2.000000
 50
270.000000
 51
0.000000
  0
ARC
  8
2
 10
139.282173
 20
98.069513
 40
4.000000
 50
0.000000
 51
180.000000
  0
LINE
  8
2
 10
-427.335741
 20
80.569513
 11
-415.778081
 21
80.569513
  0
LINE
  8
2
 10
-564.457573
 20
80.569513
 11
-552.899914
 21
80.569513
  0
LINE
  8
2
 10
-539.335741
 20
80.569513
 11
-440.899914
 21
80.569513
  0
LINE
  8
2
 10
75.942427
 20
80.569513
 11
77.500086
 21
80.569513
  0
LINE
  8
2
 10
91.064259
 20
80.569513
 11
181.500086
 21
80.569513
  0
LINE
  8
2
 10
195.064259
 20
80.569513
 11
243.000086
 21
80.569513
  0
LINE
  8
2
 10
-412.117827
 20
454.569513
 11
-299.617827
 21
454.569513
  0
LINE
  8
2
 10
-412.117827
 20
432.569513
 11
-299.617827
 21
432.569513
  0
LINE
  8
2
 10
-406.117827
 20
54.569513
 11
-299.617827
 21
54.569513
  0
LINE
  8
2
 10
-407.117827
 20
32.569513
 11
-299.617827
 21
32.569513
  0
LINE
  8
2
 10
-277.617827
 20
532.569513
 11
-277.617827
 21
354.569513
  0
ARC
  8
2
 10
-288.617827
 20
532.569513
 40
11.000000
 50
0.000000
 51
180.000000
  0
ARC
  8
2
 10
-289.069097
 20
374.453332
 40
79.570307
 50
91.907508
 51
97.294014
  0
ARC
  8
2
 10
-289.069097
 20
512.685693
 40
79.570307
 50
262.705986
 51
268.092492
  0
LINE
  8
2
 10
-288.617827
 20
436.157817
 11
-288.617827
 21
450.981208
  0
ARC
  8
2
 10
-291.617827
 20
450.981208
 40
3.000000
 50
0.000000
 51
91.907508
  0
ARC
  8
2
 10
-291.617827
 20
436.157817
 40
3.000000
 50
268.092492
 51
360.000000
  0
ARC
  8
2
 10
-299.106503
 20
434.266479
 40
0.511325
 50
106.739333
 51
262.705986
  0
ARC
  8
2
 10
-299.106503
 20
452.872546
 40
0.511325
 50
97.294014
 51
253.260667
  0
LINE
  8
2
 10
-297.117827
 20
437.629012
 11
-297.117827
 21
449.510014
  0
ARC
  8
2
 10
-300.117827
 20
449.510014
 40
3.000000
 50
0.000000
 51
73.260667
  0
ARC
  8
2
 10
-300.117827
 20
437.629012
 40
3.000000
 50
286.739333
 51
360.000000
  0
ARC
  8
2
 10
-289.015486
 20
455.308338
 40
24.101250
 50
97.084118
 51
112.377644
  0
ARC
  8
2
 10
-289.062916
 20
405.810602
 40
53.404212
 50
92.596184
 51
100.675608
  0
LINE
  8
2
 10
-288.617827
 20
462.156920
 11
-288.617827
 21
476.248505
  0
ARC
  8
2
 10
-291.617827
 20
476.248505
 40
3.000000
 50
0.000000
 51
97.084118
  0
ARC
  8
2
 10
-291.617827
 20
462.156920
 40
3.000000
 50
272.596184
 51
360.000000
  0
ARC
  8
2
 10
-297.313959
 20
475.464260
 40
2.303869
 50
112.377644
 51
238.085987
  0
ARC
  8
2
 10
-298.805466
 20
457.492180
 40
0.812361
 50
100.675608
 51
180.000000
  0
LINE
  8
2
 10
-299.617827
 20
424.569513
 11
-299.617827
 21
462.569513
  0
LINE
  8
2
 10
-297.117827
 20
461.071538
 11
-297.117827
 21
475.332475
  0
ARC
  8
2
 10
-300.117827
 20
470.962111
 40
3.000000
 50
0.000000
 51
58.085987
  0
ARC
  8
2
 10
-300.117827
 20
461.071538
 40
3.000000
 50
290.135311
 51
360.000000
  0
ARC
  8
2
 10
-288.916450
 20
486.654031
 40
15.696848
 50
102.284128
 51
123.145156
  0
ARC
  8
2
 10
-288.998601
 20
462.764123
 40
21.482429
 50
96.141480
 51
114.857013
  0
LINE
  8
2
 10
-288.617827
 20
487.106041
 11
-288.617827
 21
499.060179
  0
ARC
  8
2
 10
-291.617827
 20
499.060179
 40
3.000000
 50
0.000000
 51
102.284128
  0
ARC
  8
2
 10
-291.617827
 20
487.106041
 40
3.000000
 50
276.141480
 51
360.000000
  0
ARC
  8
2
 10
-296.876535
 20
479.769074
 40
2.741293
 50
114.857013
 51
180.000000
  0
ARC
  8
2
 10
-294.942717
 20
495.882400
 40
4.675110
 50
123.145156
 51
227.602374
  0
LINE
  8
2
 10
-297.117827
 20
482.653138
 11
-297.117827
 21
496.992996
  0
ARC
  8
2
 10
-300.117827
 20
490.214459
 40
3.000000
 50
0.000000
 51
47.602374
  0
LINE
  8
2
 10
-299.617827
 20
475.464260
 11
-299.617827
 21
479.769074
  0
ARC
  8
2
 10
-288.798524
 20
508.512034
 40
12.773353
 50
103.047521
 51
130.343373
  0
ARC
  8
2
 10
-288.893385
 20
491.625464
 40
14.878639
 50
98.765186
 51
124.843294
  0
LINE
  8
2
 10
-288.617827
 20
509.295302
 11
-288.617827
 21
518.520161
  0
ARC
  8
2
 10
-291.617827
 20
509.295302
 40
3.000000
 50
278.765186
 51
360.000000
  0
ARC
  8
2
 10
-291.117827
 20
518.520161
 40
2.500000
 50
0.000000
 51
103.047521
  0
ARC
  8
2
 10
-292.385787
 20
512.735503
 40
7.232040
 50
130.343373
 51
220.916100
  0
ARC
  8
2
 10
-294.430173
 20
499.579027
 40
5.187654
 50
124.843294
 51
180.000000
  0
LINE
  8
2
 10
-299.617827
 20
495.882400
 11
-299.617827
 21
499.579027
  0
LINE
  8
2
 10
-297.117827
 20
504.024354
 11
-297.117827
 21
514.539552
  0
ARC
  8
2
 10
-300.117827
 20
506.033996
 40
3.000000
 50
0.000000
 51
40.916100
  0
LINE
  8
2
 10
-288.617827
 20
526.787437
 11
-288.617827
 21
532.093493
  0
LINE
  8
2
 10
-288.617827
 20
539.211773
 11
-288.617827
 21
540.117612
  0
ARC
  8
2
 10
-288.693308
 20
523.374252
 40
11.550053
 50
105.539411
 51
134.747415
  0
ARC
  8
2
 10
-288.775459
 20
512.032801
 40
12.439410
 50
99.020695
 51
131.426334
  0
ARC
  8
2
 10
-291.117827
 20
532.093493
 40
2.500000
 50
0.000000
 51
105.539411
  0
ARC
  8
2
 10
-291.117827
 20
526.787437
 40
2.500000
 50
279.020695
 51
360.000000
  0
ARC
  8
2
 10
-291.898597
 20
515.572025
 40
7.719230
 50
131.426334
 51
180.000000
  0
ARC
  8
2
 10
-290.180940
 20
524.875058
 40
9.436887
 50
134.747415
 51
211.319694
  0
LINE
  8
2
 10
-299.617827
 20
512.735503
 11
-299.617827
 21
515.572025
  0
LINE
  8
2
 10
-297.117827
 20
521.259393
 11
-297.117827
 21
526.680448
  0
ARC
  8
2
 10
-288.628993
 20
531.268435
 40
11.069917
 50
102.666639
 51
136.904828
  0
ARC
  8
2
 10
-288.676423
 20
525.518092
 40
11.409614
 50
100.108874
 51
135.345864
  0
ARC
  8
2
 10
-291.117827
 20
539.211773
 40
2.500000
 50
280.108874
 51
360.000000
  0
ARC
  8
2
 10
-290.617827
 20
540.117612
 40
2.000000
 50
0.000000
 51
102.666639
  0
ARC
  8
2
 10
-288.848461
 20
531.473775
 40
10.769367
 50
136.904828
 51
193.238025
  0
ARC
  8
2
 10
-289.830350
 20
526.658171
 40
9.787478
 50
135.345864
 51
180.000000
  0
LINE
  8
2
 10
-299.617827
 20
524.875058
 11
-299.617827
 21
526.658171
  0
LINE
  8
2
 10
-299.617827
 20
531.473775
 11
-299.617827
 21
532.569513
  0
ARC
  8
2
 10
-288.617827
 20
447.033798
 40
19.035714
 50
116.521210
 51
125.300248
  0
ARC
  8
2
 10
-288.617827
 20
440.105227
 40
19.035714
 50
234.699752
 51
243.478790
  0
ARC
  8
2
 10
-288.617827
 20
354.569513
 40
11.000000
 50
180.000000
 51
360.000000
  0
ARC
  8
2
 10
-289.015486
 20
431.830687
 40
24.101250
 50
247.622356
 51
262.915882
  0
ARC
  8
2
 10
-289.062916
 20
481.328423
 40
53.404212
 50
259.324392
 51
267.403816
  0
LINE
  8
2
 10
-288.617827
 20
424.982105
 11
-288.617827
 21
410.890520
  0
ARC
  8
2
 10
-291.617827
 20
410.890520
 40
3.000000
 50
262.915882
 51
360.000000
  0
ARC
  8
2
 10
-291.617827
 20
424.982105
 40
3.000000
 50
0.000000
 51
87.403816
  0
ARC
  8
2
 10
-297.313959
 20
411.674765
 40
2.303869
 50
121.914013
 51
247.622356
  0
ARC
  8
2
 10
-298.805466
 20
429.646845
 40
0.812361
 50
180.000000
 51
259.324392
  0
LINE
  8
2
 10
-297.117827
 20
426.067487
 11
-297.117827
 21
411.806550
  0
ARC
  8
2
 10
-300.117827
 20
416.176914
 40
3.000000
 50
301.914013
 51
360.000000
  0
ARC
  8
2
 10
-300.117827
 20
426.067487
 40
3.000000
 50
0.000000
 51
69.864689
  0
ARC
  8
2
 10
-288.916450
 20
400.484994
 40
15.696848
 50
236.854844
 51
257.715872
  0
ARC
  8
2
 10
-288.998601
 20
424.374902
 40
21.482429
 50
245.142987
 51
263.858520
  0
LINE
  8
2
 10
-288.617827
 20
400.032984
 11
-288.617827
 21
388.078847
  0
ARC
  8
2
 10
-291.617827
 20
388.078847
 40
3.000000
 50
257.715872
 51
360.000000
  0
ARC
  8
2
 10
-291.617827
 20
400.032984
 40
3.000000
 50
0.000000
 51
83.858520
  0
ARC
  8
2
 10
-296.876535
 20
407.369951
 40
2.741293
 50
180.000000
 51
245.142987
  0
ARC
  8
2
 10
-294.942717
 20
391.256625
 40
4.675110
 50
132.397626
 51
236.854844
  0
LINE
  8
2
 10
-297.117827
 20
404.485887
 11
-297.117827
 21
390.146029
  0
ARC
  8
2
 10
-300.117827
 20
396.924566
 40
3.000000
 50
312.397626
 51
360.000000
  0
LINE
  8
2
 10
-299.617827
 20
411.674765
 11
-299.617827
 21
407.369951
  0
ARC
  8
2
 10
-288.798524
 20
378.626992
 40
12.773353
 50
229.656627
 51
256.952479
  0
ARC
  8
2
 10
-288.893385
 20
395.513561
 40
14.878639
 50
235.156706
 51
261.234814
  0
LINE
  8
2
 10
-288.617827
 20
377.843723
 11
-288.617827
 21
368.618864
  0
ARC
  8
2
 10
-291.617827
 20
377.843723
 40
3.000000
 50
0.000000
 51
81.234814
  0
ARC
  8
2
 10
-291.117827
 20
368.618864
 40
2.500000
 50
256.952479
 51
360.000000
  0
ARC
  8
2
 10
-292.385787
 20
374.403522
 40
7.232040
 50
139.083900
 51
229.656627
  0
ARC
  8
2
 10
-294.430173
 20
387.559998
 40
5.187654
 50
180.000000
 51
235.156706
  0
LINE
  8
2
 10
-299.617827
 20
391.256625
 11
-299.617827
 21
387.559998
  0
LINE
  8
2
 10
-297.117827
 20
383.114672
 11
-297.117827
 21
372.599473
  0
ARC
  8
2
 10
-300.117827
 20
381.105029
 40
3.000000
 50
319.083900
 51
360.000000
  0
LINE
  8
2
 10
-288.617827
 20
360.351588
 11
-288.617827
 21
355.045532
  0
LINE
  8
2
 10
-288.617827
 20
347.927252
 11
-288.617827
 21
347.021413
  0
ARC
  8
2
 10
-288.693308
 20
363.764774
 40
11.550053
 50
225.252585
 51
254.460589
  0
ARC
  8
2
 10
-288.775459
 20
375.106224
 40
12.439410
 50
228.573666
 51
260.979305
  0
ARC
  8
2
 10
-291.117827
 20
355.045532
 40
2.500000
 50
254.460589
 51
360.000000
  0
ARC
  8
2
 10
-291.117827
 20
360.351588
 40
2.500000
 50
0.000000
 51
80.979305
  0
ARC
  8
2
 10
-291.898597
 20
371.567000
 40
7.719230
 50
180.000000
 51
228.573666
  0
ARC
  8
2
 10
-290.180940
 20
362.263967
 40
9.436887
 50
148.680306
 51
225.252585
  0
LINE
  8
2
 10
-299.617827
 20
374.403522
 11
-299.617827
 21
371.567000
  0
LINE
  8
2
 10
-297.117827
 20
365.879633
 11
-297.117827
 21
360.458577
  0
ARC
  8
2
 10
-288.628993
 20
355.870590
 40
11.069917
 50
223.095172
 51
257.333361
  0
ARC
  8
2
 10
-288.676423
 20
361.620934
 40
11.409614
 50
224.654136
 51
259.891126
  0
ARC
  8
2
 10
-291.117827
 20
347.927252
 40
2.500000
 50
0.000000
 51
79.891126
  0
ARC
  8
2
 10
-290.617827
 20
347.021413
 40
2.000000
 50
257.333361
 51
360.000000
  0
ARC
  8
2
 10
-288.848461
 20
355.665250
 40
10.769367
 50
166.761975
 51
223.095172
  0
ARC
  8
2
 10
-289.830350
 20
360.480855
 40
9.787478
 50
180.000000
 51
224.654136
  0
LINE
  8
2
 10
-299.617827
 20
362.263967
 11
-299.617827
 21
360.480855
  0
LINE
  8
2
 10
-299.617827
 20
355.665250
 11
-299.617827
 21
354.569513
  0
LINE
  8
2
 10
-275.617827
 20
463.569513
 11
-275.617827
 21
423.569513
  0
LINE
  8
2
 10
-277.617827
 20
463.569513
 11
-275.117827
 21
463.569513
  0
LINE
  8
2
 10
-277.617827
 20
423.569513
 11
-275.117827
 21
423.569513
  0
LINE
  8
2
 10
-275.117827
 20
463.569513
 11
-275.117827
 21
423.569513
  0
LINE
  8
2
 10
-273.117827
 20
451.069513
 11
-268.339515
 21
451.069513
  0
LINE
  8
2
 10
-268.339515
 20
451.069513
 11
-267.617827
 21
449.819513
  0
LINE
  8
2
 10
-273.117827
 20
447.319513
 11
-268.339515
 21
447.319513
  0
ARC
  8
2
 10
-270.749891
 20
449.194513
 40
3.053774
 50
322.121121
 51
37.878879
  0
ARC
  8
2
 10
-278.946117
 20
443.569513
 40
11.250000
 50
340.528779
 51
19.471221
  0
LINE
  8
2
 10
-273.117827
 20
436.069513
 11
-268.339515
 21
436.069513
  0
LINE
  8
2
 10
-268.339515
 20
436.069513
 11
-267.617827
 21
437.319513
  0
LINE
  8
2
 10
-267.617827
 20
437.319513
 11
-267.617827
 21
449.819513
  0
LINE
  8
2
 10
-273.117827
 20
439.819513
 11
-268.339515
 21
439.819513
  0
ARC
  8
2
 10
-270.749891
 20
437.944513
 40
3.053774
 50
322.121121
 51
37.878879
  0
LINE
  8
2
 10
-275.117827
 20
451.269513
 11
-273.117827
 21
451.269513
  0
LINE
  8
2
 10
-273.117827
 20
451.269513
 11
-273.117827
 21
435.869513
  0
LINE
  8
2
 10
-273.117827
 20
435.869513
 11
-275.117827
 21
435.869513
  0
LINE
  8
2
 10
-273.117827
 20
443.569513
 11
-275.117827
 21
443.069513
  0
LINE
  8
2
 10
-275.117827
 20
443.569513
 11
-273.117827
 21
444.069513
  0
LINE
  8
2
 10
-277.617827
 20
132.569513
 11
-277.617827
 21
-45.430487
  0
ARC
  8
2
 10
-288.617827
 20
132.569513
 40
11.000000
 50
0.000000
 51
180.000000
  0
ARC
  8
2
 10
-289.069097
 20
-25.546668
 40
79.570307
 50
91.907508
 51
97.294014
  0
ARC
  8
2
 10
-289.069097
 20
112.685693
 40
79.570307
 50
262.705986
 51
268.092492
  0
LINE
  8
2
 10
-288.617827
 20
36.157817
 11
-288.617827
 21
50.981208
  0
ARC
  8
2
 10
-291.617827
 20
50.981208
 40
3.000000
 50
0.000000
 51
91.907508
  0
ARC
  8
2
 10
-291.617827
 20
36.157817
 40
3.000000
 50
268.092492
 51
360.000000
  0
ARC
  8
2
 10
-299.106503
 20
34.266479
 40
0.511325
 50
106.739333
 51
262.705986
  0
ARC
  8
2
 10
-299.106503
 20
52.872546
 40
0.511325
 50
97.294014
 51
253.260667
  0
LINE
  8
2
 10
-297.117827
 20
37.629012
 11
-297.117827
 21
49.510014
  0
ARC
  8
2
 10
-300.117827
 20
49.510014
 40
3.000000
 50
0.000000
 51
73.260667
  0
ARC
  8
2
 10
-300.117827
 20
37.629012
 40
3.000000
 50
286.739333
 51
360.000000
  0
ARC
  8
2
 10
-289.015486
 20
55.308338
 40
24.101250
 50
97.084118
 51
112.377644
  0
ARC
  8
2
 10
-289.062916
 20
5.810602
 40
53.404212
 50
92.596184
 51
100.675608
  0
LINE
  8
2
 10
-288.617827
 20
62.156920
 11
-288.617827
 21
76.248505
  0
ARC
  8
2
 10
-291.617827
 20
76.248505
 40
3.000000
 50
0.000000
 51
97.084118
  0
ARC
  8
2
 10
-291.617827
 20
62.156920
 40
3.000000
 50
272.596184
 51
360.000000
  0
ARC
  8
2
 10
-297.313959
 20
75.464260
 40
2.303869
 50
112.377644
 51
238.085987
  0
ARC
  8
2
 10
-298.805466
 20
57.492180
 40
0.812361
 50
100.675608
 51
180.000000
  0
LINE
  8
2
 10
-299.617827
 20
24.569513
 11
-299.617827
 21
62.569513
  0
LINE
  8
2
 10
-297.117827
 20
61.071538
 11
-297.117827
 21
75.332475
  0
ARC
  8
2
 10
-300.117827
 20
70.962111
 40
3.000000
 50
0.000000
 51
58.085987
  0
ARC
  8
2
 10
-300.117827
 20
61.071538
 40
3.000000
 50
290.135311
 51
360.000000
  0
ARC
  8
2
 10
-288.916450
 20
86.654031
 40
15.696848
 50
102.284128
 51
123.145156
  0
ARC
  8
2
 10
-288.998601
 20
62.764123
 40
21.482429
 50
96.141480
 51
114.857013
  0
LINE
  8
2
 10
-288.617827
 20
87.106041
 11
-288.617827
 21
99.060179
  0
ARC
  8
2
 10
-291.617827
 20
99.060179
 40
3.000000
 50
0.000000
 51
102.284128
  0
ARC
  8
2
 10
-291.617827
 20
87.106041
 40
3.000000
 50
276.141480
 51
360.000000
  0
ARC
  8
2
 10
-296.876535
 20
79.769074
 40
2.741293
 50
114.857013
 51
180.000000
  0
ARC
  8
2
 10
-294.942717
 20
95.882400
 40
4.675110
 50
123.145156
 51
227.602374
  0
LINE
  8
2
 10
-297.117827
 20
82.653138
 11
-297.117827
 21
96.992996
  0
ARC
  8
2
 10
-300.117827
 20
90.214459
 40
3.000000
 50
0.000000
 51
47.602374
  0
LINE
  8
2
 10
-299.617827
 20
75.464260
 11
-299.617827
 21
79.769074
  0
ARC
  8
2
 10
-288.798524
 20
108.512034
 40
12.773353
 50
103.047521
 51
130.343373
  0
ARC
  8
2
 10
-288.893385
 20
91.625464
 40
14.878639
 50
98.765186
 51
124.843294
  0
LINE
  8
2
 10
-288.617827
 20
109.295302
 11
-288.617827
 21
118.520161
  0
ARC
  8
2
 10
-291.617827
 20
109.295302
 40
3.000000
 50
278.765186
 51
360.000000
  0
ARC
  8
2
 10
-291.117827
 20
118.520161
 40
2.500000
 50
0.000000
 51
103.047521
  0
ARC
  8
2
 10
-292.385787
 20
112.735503
 40
7.232040
 50
130.343373
 51
220.916100
  0
ARC
  8
2
 10
-294.430173
 20
99.579027
 40
5.187654
 50
124.843294
 51
180.000000
  0
LINE
  8
2
 10
-299.617827
 20
95.882400
 11
-299.617827
 21
99.579027
  0
LINE
  8
2
 10
-297.117827
 20
104.024354
 11
-297.117827
 21
114.539552
  0
ARC
  8
2
 10
-300.117827
 20
106.033996
 40
3.000000
 50
0.000000
 51
40.916100
  0
LINE
  8
2
 10
-288.617827
 20
126.787437
 11
-288.617827
 21
132.093493
  0
LINE
  8
2
 10
-288.617827
 20
139.211773
 11
-288.617827
 21
140.117612
  0
ARC
  8
2
 10
-288.693308
 20
123.374252
 40
11.550053
 50
105.539411
 51
134.747415
  0
ARC
  8
2
 10
-288.775459
 20
112.032801
 40
12.439410
 50
99.020695
 51
131.426334
  0
ARC
  8
2
 10
-291.117827
 20
132.093493
 40
2.500000
 50
0.000000
 51
105.539411
  0
ARC
  8
2
 10
-291.117827
 20
126.787437
 40
2.500000
 50
279.020695
 51
360.000000
  0
ARC
  8
2
 10
-291.898597
 20
115.572025
 40
7.719230
 50
131.426334
 51
180.000000
  0
ARC
  8
2
 10
-290.180940
 20
124.875058
 40
9.436887
 50
134.747415
 51
211.319694
  0
LINE
  8
2
 10
-299.617827
 20
112.735503
 11
-299.617827
 21
115.572025
  0
LINE
  8
2
 10
-297.117827
 20
121.259393
 11
-297.117827
 21
126.680448
  0
ARC
  8
2
 10
-288.628993
 20
131.268435
 40
11.069917
 50
102.666639
 51
136.904828
  0
ARC
  8
2
 10
-288.676423
 20
125.518092
 40
11.409614
 50
100.108874
 51
135.345864
  0
ARC
  8
2
 10
-291.117827
 20
139.211773
 40
2.500000
 50
280.108874
 51
360.000000
  0
ARC
  8
2
 10
-290.617827
 20
140.117612
 40
2.000000
 50
0.000000
 51
102.666639
  0
ARC
  8
2
 10
-288.848461
 20
131.473775
 40
10.769367
 50
136.904828
 51
193.238025
  0
ARC
  8
2
 10
-289.830350
 20
126.658171
 40
9.787478
 50
135.345864
 51
180.000000
  0
LINE
  8
2
 10
-299.617827
 20
124.875058
 11
-299.617827
 21
126.658171
  0
LINE
  8
2
 10
-299.617827
 20
131.473775
 11
-299.617827
 21
132.569513
  0
ARC
  8
2
 10
-288.617827
 20
47.033798
 40
19.035714
 50
116.521210
 51
125.300248
  0
ARC
  8
2
 10
-288.617827
 20
40.105227
 40
19.035714
 50
234.699752
 51
243.478790
  0
ARC
  8
2
 10
-289.015486
 20
31.830687
 40
24.101250
 50
247.622356
 51
262.915882
  0
ARC
  8
2
 10
-289.062916
 20
81.328423
 40
53.404212
 50
259.324392
 51
267.403816
  0
LINE
  8
2
 10
-288.617827
 20
24.982105
 11
-288.617827
 21
10.890520
  0
ARC
  8
2
 10
-291.617827
 20
10.890520
 40
3.000000
 50
262.915882
 51
360.000000
  0
ARC
  8
2
 10
-291.617827
 20
24.982105
 40
3.000000
 50
0.000000
 51
87.403816
  0
ARC
  8
2
 10
-297.313959
 20
11.674765
 40
2.303869
 50
121.914013
 51
247.622356
  0
ARC
  8
2
 10
-298.805466
 20
29.646845
 40
0.812361
 50
180.000000
 51
259.324392
  0
LINE
  8
2
 10
-297.117827
 20
26.067487
 11
-297.117827
 21
11.806550
  0
ARC
  8
2
 10
-300.117827
 20
16.176914
 40
3.000000
 50
301.914013
 51
360.000000
  0
ARC
  8
2
 10
-300.117827
 20
26.067487
 40
3.000000
 50
0.000000
 51
69.864689
  0
ARC
  8
2
 10
-288.916450
 20
0.484994
 40
15.696848
 50
236.854844
 51
257.715872
  0
ARC
  8
2
 10
-288.998601
 20
24.374902
 40
21.482429
 50
245.142987
 51
263.858520
  0
LINE
  8
2
 10
-288.617827
 20
0.032984
 11
-288.617827
 21
-11.921153
  0
ARC
  8
2
 10
-291.617827
 20
-11.921153
 40
3.000000
 50
257.715872
 51
360.000000
  0
ARC
  8
2
 10
-291.617827
 20
0.032984
 40
3.000000
 50
0.000000
 51
83.858520
  0
ARC
  8
2
 10
-296.876535
 20
7.369951
 40
2.741293
 50
180.000000
 51
245.142987
  0
ARC
  8
2
 10
-294.942717
 20
-8.743375
 40
4.675110
 50
132.397626
 51
236.854844
  0
LINE
  8
2
 10
-297.117827
 20
4.485887
 11
-297.117827
 21
-9.853971
  0
ARC
  8
2
 10
-300.117827
 20
-3.075434
 40
3.000000
 50
312.397626
 51
360.000000
  0
LINE
  8
2
 10
-299.617827
 20
11.674765
 11
-299.617827
 21
7.369951
  0
ARC
  8
2
 10
-288.798524
 20
-21.373008
 40
12.773353
 50
229.656627
 51
256.952479
  0
ARC
  8
2
 10
-288.893385
 20
-4.486439
 40
14.878639
 50
235.156706
 51
261.234814
  0
LINE
  8
2
 10
-288.617827
 20
-22.156277
 11
-288.617827
 21
-31.381136
  0
ARC
  8
2
 10
-291.617827
 20
-22.156277
 40
3.000000
 50
0.000000
 51
81.234814
  0
ARC
  8
2
 10
-291.117827
 20
-31.381136
 40
2.500000
 50
256.952479
 51
360.000000
  0
ARC
  8
2
 10
-292.385787
 20
-25.596478
 40
7.232040
 50
139.083900
 51
229.656627
  0
ARC
  8
2
 10
-294.430173
 20
-12.440002
 40
5.187654
 50
180.000000
 51
235.156706
  0
LINE
  8
2
 10
-299.617827
 20
-8.743375
 11
-299.617827
 21
-12.440002
  0
LINE
  8
2
 10
-297.117827
 20
-16.885328
 11
-297.117827
 21
-27.400527
  0
ARC
  8
2
 10
-300.117827
 20
-18.894971
 40
3.000000
 50
319.083900
 51
360.000000
  0
ARC
  8
2
 10
-288.775459
 20
-24.893776
 40
12.439410
 50
228.573666
 51
260.979305
  0
ARC
  8
2
 10
-291.898597
 20
-28.433000
 40
7.719230
 50
180.000000
 51
228.573666
  0
ARC
  8
2
 10
-290.180940
 20
-37.736033
 40
9.436887
 50
148.680306
 51
225.252585
  0
LINE
  8
2
 10
-299.617827
 20
-25.596478
 11
-299.617827
 21
-28.433000
  0
LINE
  8
2
 10
-297.117827
 20
-34.120367
 11
-297.117827
 21
-39.541423
  0
LINE
  8
2
 10
-275.617827
 20
63.569513
 11
-275.617827
 21
23.569513
  0
LINE
  8
2
 10
-277.617827
 20
63.569513
 11
-275.117827
 21
63.569513
  0
LINE
  8
2
 10
-277.617827
 20
23.569513
 11
-275.117827
 21
23.569513
  0
LINE
  8
2
 10
-275.117827
 20
63.569513
 11
-275.117827
 21
23.569513
  0
LINE
  8
2
 10
-273.117827
 20
50.069513
 11
-267.617827
 21
50.069513
  0
ARC
  8
2
 10
-275.296586
 20
46.819513
 40
7.678759
 50
334.960340
 51
25.039660
  0
LINE
  8
2
 10
-273.117827
 20
37.069513
 11
-267.617827
 21
37.069513
  0
LINE
  8
2
 10
-267.617827
 20
37.069513
 11
-267.617827
 21
50.069513
  0
LINE
  8
2
 10
-273.117827
 20
43.569513
 11
-268.339515
 21
43.569513
  0
ARC
  8
2
 10
-275.296586
 20
40.319513
 40
7.678759
 50
334.960340
 51
25.039660
  0
LINE
  8
2
 10
-275.117827
 20
51.269513
 11
-273.117827
 21
51.269513
  0
LINE
  8
2
 10
-273.117827
 20
51.269513
 11
-273.117827
 21
35.869513
  0
LINE
  8
2
 10
-273.117827
 20
35.869513
 11
-275.117827
 21
35.869513
  0
ARC
  8
2
 10
-288.617827
 20
-45.430487
 40
11.000000
 50
180.000000
 51
360.000000
  0
LINE
  8
2
 10
-288.617827
 20
-39.648412
 11
-288.617827
 21
-44.954468
  0
LINE
  8
2
 10
-288.617827
 20
-52.072748
 11
-288.617827
 21
-52.978587
  0
ARC
  8
2
 10
-288.693308
 20
-36.235226
 40
11.550053
 50
225.252585
 51
254.460589
  0
ARC
  8
2
 10
-291.117827
 20
-44.954468
 40
2.500000
 50
254.460589
 51
360.000000
  0
ARC
  8
2
 10
-291.117827
 20
-39.648412
 40
2.500000
 50
0.000000
 51
80.979305
  0
ARC
  8
2
 10
-288.628993
 20
-44.129410
 40
11.069917
 50
223.095172
 51
257.333361
  0
ARC
  8
2
 10
-288.676423
 20
-38.379066
 40
11.409614
 50
224.654136
 51
259.891126
  0
ARC
  8
2
 10
-291.117827
 20
-52.072748
 40
2.500000
 50
0.000000
 51
79.891126
  0
ARC
  8
2
 10
-290.617827
 20
-52.978587
 40
2.000000
 50
257.333361
 51
360.000000
  0
ARC
  8
2
 10
-288.848461
 20
-44.334750
 40
10.769367
 50
166.761975
 51
223.095172
  0
ARC
  8
2
 10
-289.830350
 20
-39.519145
 40
9.787478
 50
180.000000
 51
224.654136
  0
LINE
  8
2
 10
-299.617827
 20
-37.736033
 11
-299.617827
 21
-39.519145
  0
LINE
  8
2
 10
-299.617827
 20
-44.334750
 11
-299.617827
 21
-45.430487
  0
CIRCLE
  8
2
  6
PHANTOM
 62
2
 10
226.782173
 20
43.569513
 40
100.000000
  0
LINE
  8
2
  6
PHANTOM
 62
2
 10
238.015419
 20
113.926006
 11
239.695681
 21
64.479158
  0
LINE
  8
2
  6
PHANTOM
 62
2
 10
215.548927
 20
113.926006
 11
213.868664
 21
64.479158
  0
LINE
  8
2
  6
PHANTOM
 62
2
 10
171.468285
 20
-1.337010
 11
215.130643
 21
21.931263
  0
LINE
  8
2
  6
PHANTOM
 62
2
 10
160.235039
 20
18.119542
 11
202.217134
 21
44.298116
  0
LINE
  8
2
  6
PHANTOM
 62
2
 10
282.096060
 20
-1.337010
 11
238.433703
 21
21.931263
  0
LINE
  8
2
  6
PHANTOM
 62
2
 10
293.329306
 20
18.119542
 11
251.347211
 21
44.298116
  0
ARC
  8
2
  6
PHANTOM
 62
2
 10
226.782173
 20
43.569513
 40
78.000000
 50
223.341798
 51
316.658202
  0
ARC
  8
2
  6
PHANTOM
 62
2
 10
226.782173
 20
43.569513
 40
22.500000
 50
131.110398
 51
168.889602
  0
ARC
  8
2
  6
PHANTOM
 62
2
 10
226.782173
 20
43.569513
 40
22.500000
 50
251.110398
 51
288.889602
  0
ARC
  8
2
  6
PHANTOM
 62
2
 10
226.782173
 20
43.569513
 40
22.500000
 50
11.110398
 51
48.889602
  0
ARC
  8
2
  6
PHANTOM
 62
2
 10
245.192508
 20
64.665947
 40
5.500000
 50
181.946230
 51
228.889602
  0
ARC
  8
2
  6
PHANTOM
 62
2
 10
243.512246
 20
114.112795
 40
5.500000
 50
76.658202
 51
181.946230
  0
ARC
  8
2
  6
PHANTOM
 62
2
 10
210.052100
 20
114.112795
 40
5.500000
 50
358.053770
 51
103.341798
  0
ARC
  8
2
  6
PHANTOM
 62
2
 10
208.371837
 20
64.665947
 40
5.500000
 50
311.110398
 51
358.053770
  0
ARC
  8
2
  6
PHANTOM
 62
2
 10
199.306957
 20
48.965114
 40
5.500000
 50
301.946230
 51
348.889602
  0
ARC
  8
2
  6
PHANTOM
 62
2
 10
217.717292
 20
17.077477
 40
5.500000
 50
71.110398
 51
118.053770
  0
ARC
  8
2
  6
PHANTOM
 62
2
 10
235.847053
 20
17.077477
 40
5.500000
 50
61.946230
 51
108.889602
  0
ARC
  8
2
  6
PHANTOM
 62
2
 10
254.257389
 20
48.965114
 40
5.500000
 50
191.110398
 51
238.053770
  0
ARC
  8
2
  6
PHANTOM
 62
2
 10
296.239484
 20
22.786540
 40
5.500000
 50
238.053770
 51
343.341798
  0
ARC
  8
2
  6
PHANTOM
 62
2
 10
279.509410
 20
-6.190797
 40
5.500000
 50
316.658202
 51
61.946230
  0
ARC
  8
2
  6
PHANTOM
 62
2
 10
174.054935
 20
-6.190797
 40
5.500000
 50
118.053770
 51
223.341798
  0
ARC
  8
2
  6
PHANTOM
 62
2
 10
157.324862
 20
22.786540
 40
5.500000
 50
196.658202
 51
301.946230
  0
CIRCLE
  8
2
  6
PHANTOM
 62
2
 10
226.782173
 20
43.569513
 40
20.000000
  0
ARC
  8
2
  6
PHANTOM
 62
2
 10
226.782173
 20
43.569513
 40
78.000000
 50
321.892800
 51
338.107200
  0
ARC
  8
2
  6
PHANTOM
 62
2
 10
226.782173
 20
43.569513
 40
78.000000
 50
343.341798
 51
76.658202
  0
ARC
  8
2
  6
PHANTOM
 62
2
 10
226.782173
 20
43.569513
 40
78.000000
 50
81.892800
 51
98.107200
  0
ARC
  8
2
  6
PHANTOM
 62
2
 10
226.782173
 20
43.569513
 40
78.000000
 50
103.341798
 51
196.658202
  0
ARC
  8
2
  6
PHANTOM
 62
2
 10
226.782173
 20
43.569513
 40
78.000000
 50
201.892800
 51
218.107200
  0
CIRCLE
  8
2
 10
-506.381283
 20
372.332969
 40
3.500000
  0
LINE
  8
2
 10
-508.481283
 20
371.832969
 11
-508.481283
 21
372.832969
  0
LINE
  8
2
 10
-504.281283
 20
371.832969
 11
-504.281283
 21
372.832969
  0
LINE
  8
2
 10
-506.881283
 20
374.432969
 11
-505.881283
 21
374.432969
  0
LINE
  8
2
 10
-506.881283
 20
370.232969
 11
-505.881283
 21
370.232969
  0
LINE
  8
2
 10
-508.481283
 20
372.832969
 11
-507.881283
 21
372.832969
  0
LINE
  8
2
 10
-504.881283
 20
372.832969
 11
-504.281283
 21
372.832969
  0
LINE
  8
2
 10
-506.881283
 20
370.232969
 11
-506.881283
 21
370.832969
  0
LINE
  8
2
 10
-506.881283
 20
373.832969
 11
-506.881283
 21
374.432969
  0
LINE
  8
2
 10
-508.481283
 20
371.832969
 11
-507.881283
 21
371.832969
  0
LINE
  8
2
 10
-504.881283
 20
371.832969
 11
-504.281283
 21
371.832969
  0
LINE
  8
2
 10
-505.881283
 20
370.232969
 11
-505.881283
 21
370.832969
  0
LINE
  8
2
 10
-505.881283
 20
373.832969
 11
-505.881283
 21
374.432969
  0
ARC
  8
2
 10
-504.881283
 20
370.832969
 40
1.000000
 50
90.000000
 51
180.000000
  0
ARC
  8
2
 10
-507.881283
 20
370.832969
 40
1.000000
 50
0.000000
 51
90.000000
  0
ARC
  8
2
 10
-507.881283
 20
373.832969
 40
1.000000
 50
270.000000
 51
360.000000
  0
ARC
  8
2
 10
-504.881283
 20
373.832969
 40
1.000000
 50
180.000000
 51
270.000000
  0
LINE
  8
2
 10
-477.354371
 20
91.069513
 11
-477.354371
 21
92.048537
  0
LINE
  8
2
 10
-470.354371
 20
91.069513
 11
-470.354371
 21
92.048537
  0
ARC
  8
2
 10
-473.854371
 20
84.669513
 40
9.000000
 50
73.398450
 51
106.601550
  0
ARC
  8
2
 10
-471.654371
 20
92.048537
 40
1.300000
 50
0.000000
 51
73.398450
  0
ARC
  8
2
 10
-476.054371
 20
92.048537
 40
1.300000
 50
106.601550
 51
180.000000
  0
CIRCLE
  8
2
 62
2
 10
-462.117827
 20
43.569513
 40
5.053000
  0
CIRCLE
  8
2
 10
-462.117827
 20
43.569513
 40
9.000000
  0
CIRCLE
  8
2
 10
-462.117827
 20
43.569513
 40
6.000000
  0
LINE
  8
2
 10
-467.602655
 20
53.069513
 11
-456.633000
 21
53.069513
  0
LINE
  8
2
 10
-467.602655
 20
34.069513
 11
-456.633000
 21
34.069513
  0
LINE
  8
2
 10
-473.087482
 20
43.569513
 11
-467.602655
 21
53.069513
  0
LINE
  8
2
 10
-456.633000
 20
34.069513
 11
-451.148172
 21
43.569513
  0
LINE
  8
2
 10
-467.602655
 20
34.069513
 11
-473.087482
 21
43.569513
  0
LINE
  8
2
 10
-451.148172
 20
43.569513
 11
-456.633000
 21
53.069513
  0
LINE
  8
2
 10
-465.117827
 20
41.837462
 11
-465.117827
 21
45.301563
  0
LINE
  8
2
 10
-459.117827
 20
41.837462
 11
-459.117827
 21
45.301563
  0
LINE
  8
2
 10
-459.117827
 20
45.301563
 11
-462.117827
 21
47.033614
  0
LINE
  8
2
 10
-462.117827
 20
40.105411
 11
-465.117827
 21
41.837462
  0
LINE
  8
2
 10
-459.117827
 20
41.837462
 11
-462.117827
 21
40.105411
  0
LINE
  8
2
 10
-462.117827
 20
47.033614
 11
-465.117827
 21
45.301563
  0
CIRCLE
  8
2
 62
2
 10
-518.117827
 20
43.569513
 40
5.053000
  0
CIRCLE
  8
2
 10
-518.117827
 20
43.569513
 40
9.000000
  0
CIRCLE
  8
2
 10
-518.117827
 20
43.569513
 40
6.000000
  0
LINE
  8
2
 10
-512.633000
 20
53.069513
 11
-523.602655
 21
53.069513
  0
LINE
  8
2
 10
-512.633000
 20
34.069513
 11
-523.602655
 21
34.069513
  0
LINE
  8
2
 10
-507.148172
 20
43.569513
 11
-512.633000
 21
53.069513
  0
LINE
  8
2
 10
-523.602655
 20
34.069513
 11
-529.087482
 21
43.569513
  0
LINE
  8
2
 10
-512.633000
 20
34.069513
 11
-507.148172
 21
43.569513
  0
LINE
  8
2
 10
-529.087482
 20
43.569513
 11
-523.602655
 21
53.069513
  0
LINE
  8
2
 10
-515.117827
 20
41.837462
 11
-515.117827
 21
45.301563
  0
LINE
  8
2
 10
-521.117827
 20
41.837462
 11
-521.117827
 21
45.301563
  0
LINE
  8
2
 10
-521.117827
 20
45.301563
 11
-518.117827
 21
47.033614
  0
LINE
  8
2
 10
-518.117827
 20
40.105411
 11
-515.117827
 21
41.837462
  0
LINE
  8
2
 10
-521.117827
 20
41.837462
 11
-518.117827
 21
40.105411
  0
LINE
  8
2
 10
-518.117827
 20
47.033614
 11
-515.117827
 21
45.301563
  0
LINE
  8
2
 10
-451.167827
 20
280.943680
 11
-451.167827
 21
276.195346
  0
LINE
  8
2
 10
-451.167827
 20
276.195346
 11
-453.117827
 21
275.069513
  0
LINE
  8
2
 10
-456.642827
 20
280.943680
 11
-456.642827
 21
276.195346
  0
ARC
  8
2
 10
-453.905327
 20
279.714495
 40
4.458511
 50
232.121121
 51
307.878879
  0
ARC
  8
2
 10
-462.117827
 20
291.680984
 40
16.425000
 50
250.528777
 51
289.471219
  0
LINE
  8
2
 10
-473.067827
 20
280.943680
 11
-473.067827
 21
276.195346
  0
LINE
  8
2
 10
-473.067827
 20
276.195346
 11
-471.117827
 21
275.069513
  0
LINE
  8
2
 10
-471.117827
 20
275.069513
 11
-453.117827
 21
275.069513
  0
LINE
  8
2
 10
-467.592827
 20
280.943680
 11
-467.592827
 21
276.195346
  0
ARC
  8
2
 10
-470.330327
 20
279.714495
 40
4.458511
 50
232.121121
 51
307.878879
  0
ARC
  8
2
 10
-453.905327
 20
277.424530
 40
4.458511
 50
52.121121
 51
127.878879
  0
ARC
  8
2
 10
-462.117827
 20
265.458041
 40
16.425000
 50
70.528781
 51
109.471223
  0
ARC
  8
2
 10
-470.330327
 20
277.424530
 40
4.458511
 50
52.121121
 51
127.878879
  0
LINE
  8
2
 10
-473.067827
 20
280.943680
 11
-471.117827
 21
282.069513
  0
LINE
  8
2
 10
-451.167827
 20
280.943680
 11
-453.117827
 21
282.069513
  0
LINE
  8
2
 10
-467.170827
 20
266.069513
 11
-457.064827
 21
266.069513
  0
LINE
  8
2
 10
-467.170827
 20
266.069513
 11
-468.117827
 21
267.016513
  0
LINE
  8
2
 10
-468.117827
 20
267.016513
 11
-468.117827
 21
275.069513
  0
LINE
  8
2
 62
2
 10
-467.170827
 20
266.069513
 11
-467.170827
 21
275.069513
  0
LINE
  8
2
 10
-457.064827
 20
266.069513
 11
-456.117827
 21
267.016513
  0
LINE
  8
2
 10
-456.117827
 20
267.016513
 11
-456.117827
 21
275.069513
  0
LINE
  8
2
 10
-456.117827
 20
267.016513
 11
-468.117827
 21
267.016513
  0
LINE
  8
2
 62
2
 10
-457.064827
 20
266.069513
 11
-457.064827
 21
275.069513
  0
LINE
  8
2
 10
-529.067827
 20
280.943680
 11
-529.067827
 21
276.195346
  0
LINE
  8
2
 10
-529.067827
 20
276.195346
 11
-527.117827
 21
275.069513
  0
LINE
  8
2
 10
-523.592827
 20
280.943680
 11
-523.592827
 21
276.195346
  0
ARC
  8
2
 10
-526.330327
 20
279.714495
 40
4.458511
 50
232.121121
 51
307.878879
  0
ARC
  8
2
 10
-518.117827
 20
291.680984
 40
16.425000
 50
250.528781
 51
289.471223
  0
LINE
  8
2
 10
-507.167827
 20
280.943680
 11
-507.167827
 21
276.195346
  0
LINE
  8
2
 10
-507.167827
 20
276.195346
 11
-509.117827
 21
275.069513
  0
LINE
  8
2
 10
-509.117827
 20
275.069513
 11
-527.117827
 21
275.069513
  0
LINE
  8
2
 10
-512.642827
 20
280.943680
 11
-512.642827
 21
276.195346
  0
ARC
  8
2
 10
-509.905327
 20
279.714495
 40
4.458511
 50
232.121121
 51
307.878879
  0
ARC
  8
2
 10
-526.330327
 20
277.424530
 40
4.458511
 50
52.121121
 51
127.878879
  0
ARC
  8
2
 10
-518.117827
 20
265.458041
 40
16.425000
 50
70.528777
 51
109.471219
  0
ARC
  8
2
 10
-509.905327
 20
277.424530
 40
4.458511
 50
52.121121
 51
127.878879
  0
LINE
  8
2
 10
-507.167827
 20
280.943680
 11
-509.117827
 21
282.069513
  0
LINE
  8
2
 10
-529.067827
 20
280.943680
 11
-527.117827
 21
282.069513
  0
LINE
  8
2
 10
-513.064827
 20
266.069513
 11
-523.170827
 21
266.069513
  0
LINE
  8
2
 10
-513.064827
 20
266.069513
 11
-512.117827
 21
267.016513
  0
LINE
  8
2
 10
-512.117827
 20
267.016513
 11
-512.117827
 21
275.069513
  0
LINE
  8
2
 62
2
 10
-513.064827
 20
266.069513
 11
-513.064827
 21
275.069513
  0
LINE
  8
2
 10
-523.170827
 20
266.069513
 11
-524.117827
 21
267.016513
  0
LINE
  8
2
 10
-524.117827
 20
267.016513
 11
-524.117827
 21
275.069513
  0
LINE
  8
2
 10
-524.117827
 20
267.016513
 11
-512.117827
 21
267.016513
  0
LINE
  8
2
 62
2
 10
-523.170827
 20
266.069513
 11
-523.170827
 21
275.069513
  0
LINE
  8
2
 10
65.282173
 20
34.069513
 11
58.282173
 21
34.069513
  0
LINE
  8
2
 10
58.282173
 20
34.069513
 11
58.282173
 21
53.069513
  0
ARC
  8
2
 10
68.865447
 20
38.819513
 40
10.583275
 50
153.331909
 51
206.668091
  0
LINE
  8
2
 10
65.282173
 20
53.069513
 11
58.282173
 21
53.069513
  0
ARC
  8
2
 10
68.865447
 20
48.319513
 40
10.583275
 50
153.331909
 51
206.668091
  0
ARC
  8
2
 10
54.698898
 20
48.319513
 40
10.583275
 50
333.331909
 51
26.668091
  0
ARC
  8
2
 10
54.698898
 20
38.819513
 40
10.583275
 50
333.331909
 51
26.668091
  0
LINE
  8
2
 10
59.408006
 20
43.569513
 11
64.156340
 21
43.569513
  0
LINE
  8
2
 10
49.282173
 20
48.622513
 11
49.282173
 21
38.516513
  0
LINE
  8
2
 10
49.282173
 20
48.622513
 11
50.229173
 21
49.569513
  0
LINE
  8
2
 10
50.229173
 20
49.569513
 11
58.282173
 21
49.569513
  0
LINE
  8
2
 62
2
 10
49.282173
 20
48.622513
 11
58.282173
 21
48.622513
  0
LINE
  8
2
 10
49.282173
 20
38.516513
 11
50.229173
 21
37.569513
  0
LINE
  8
2
 10
50.229173
 20
37.569513
 11
58.282173
 21
37.569513
  0
LINE
  8
2
 10
50.229173
 20
37.569513
 11
50.229173
 21
49.569513
  0
LINE
  8
2
 62
2
 10
49.282173
 20
38.516513
 11
58.282173
 21
38.516513
  0
CIRCLE
  8
2
 10
-434.117827
 20
301.069513
 40
7.700000
  0
CIRCLE
  8
2
 10
-434.117827
 20
301.069513
 40
7.000000
  0
LINE
  8
2
 10
-430.267827
 20
300.369513
 11
-430.267827
 21
301.769513
  0
LINE
  8
2
 10
-437.967827
 20
300.369513
 11
-437.967827
 21
301.769513
  0
LINE
  8
2
 10
-434.817827
 20
304.919513
 11
-433.417827
 21
304.919513
  0
LINE
  8
2
 10
-434.817827
 20
297.219513
 11
-433.417827
 21
297.219513
  0
LINE
  8
2
 10
-433.417827
 20
297.219513
 11
-433.417827
 21
298.969513
  0
LINE
  8
2
 10
-433.417827
 20
303.169513
 11
-433.417827
 21
304.919513
  0
LINE
  8
2
 10
-437.967827
 20
300.369513
 11
-436.217827
 21
300.369513
  0
LINE
  8
2
 10
-432.017827
 20
300.369513
 11
-430.267827
 21
300.369513
  0
LINE
  8
2
 10
-434.817827
 20
297.219513
 11
-434.817827
 21
298.969513
  0
LINE
  8
2
 10
-434.817827
 20
303.169513
 11
-434.817827
 21
304.919513
  0
LINE
  8
2
 10
-437.967827
 20
301.769513
 11
-436.217827
 21
301.769513
  0
LINE
  8
2
 10
-432.017827
 20
301.769513
 11
-430.267827
 21
301.769513
  0
ARC
  8
2
 10
-432.017827
 20
303.169513
 40
1.400000
 50
180.000000
 51
270.000000
  0
ARC
  8
2
 10
-436.217827
 20
303.169513
 40
1.400000
 50
270.000000
 51
360.000000
  0
ARC
  8
2
 10
-436.217827
 20
298.969513
 40
1.400000
 50
0.000000
 51
90.000000
  0
ARC
  8
2
 10
-432.017827
 20
298.969513
 40
1.400000
 50
90.000000
 51
180.000000
  0
LINE
  8
2
 10
-441.817827
 20
77.569513
 11
-426.417827
 21
77.569513
  0
LINE
  8
2
 10
-441.817827
 20
77.569513
 11
-441.817827
 21
75.569513
  0
LINE
  8
2
 10
-426.417827
 20
77.569513
 11
-426.417827
 21
75.569513
  0
LINE
  8
2
 10
-441.117827
 20
79.527561
 11
-441.117827
 21
77.569513
  0
LINE
  8
2
 10
-427.117827
 20
79.527561
 11
-427.117827
 21
77.569513
  0
ARC
  8
2
 10
-434.117827
 20
64.769513
 40
18.000000
 50
73.398450
 51
106.601550
  0
ARC
  8
2
 10
-429.717827
 20
79.527561
 40
2.600000
 50
0.000000
 51
73.398450
  0
ARC
  8
2
 10
-438.517827
 20
79.527561
 40
2.600000
 50
106.601550
 51
180.000000
  0
CIRCLE
  8
2
 10
-546.117827
 20
301.069513
 40
7.700000
  0
CIRCLE
  8
2
 10
-546.117827
 20
301.069513
 40
7.000000
  0
LINE
  8
2
 10
-542.267827
 20
300.369513
 11
-542.267827
 21
301.769513
  0
LINE
  8
2
 10
-549.967827
 20
300.369513
 11
-549.967827
 21
301.769513
  0
LINE
  8
2
 10
-546.817827
 20
304.919513
 11
-545.417827
 21
304.919513
  0
LINE
  8
2
 10
-546.817827
 20
297.219513
 11
-545.417827
 21
297.219513
  0
LINE
  8
2
 10
-545.417827
 20
297.219513
 11
-545.417827
 21
298.969513
  0
LINE
  8
2
 10
-545.417827
 20
303.169513
 11
-545.417827
 21
304.919513
  0
LINE
  8
2
 10
-549.967827
 20
300.369513
 11
-548.217827
 21
300.369513
  0
LINE
  8
2
 10
-544.017827
 20
300.369513
 11
-542.267827
 21
300.369513
  0
LINE
  8
2
 10
-546.817827
 20
297.219513
 11
-546.817827
 21
298.969513
  0
LINE
  8
2
 10
-546.817827
 20
303.169513
 11
-546.817827
 21
304.919513
  0
LINE
  8
2
 10
-549.967827
 20
301.769513
 11
-548.217827
 21
301.769513
  0
LINE
  8
2
 10
-544.017827
 20
301.769513
 11
-542.267827
 21
301.769513
  0
ARC
  8
2
 10
-544.017827
 20
303.169513
 40
1.400000
 50
180.000000
 51
270.000000
  0
ARC
  8
2
 10
-548.217827
 20
303.169513
 40
1.400000
 50
270.000000
 51
360.000000
  0
ARC
  8
2
 10
-548.217827
 20
298.969513
 40
1.400000
 50
0.000000
 51
90.000000
  0
ARC
  8
2
 10
-544.017827
 20
298.969513
 40
1.400000
 50
90.000000
 51
180.000000
  0
CIRCLE
  8
2
 10
-420.117827
 20
405.069513
 40
7.700000
  0
CIRCLE
  8
2
 10
-420.117827
 20
405.069513
 40
7.000000
  0
LINE
  8
2
 10
-416.267827
 20
404.369513
 11
-416.267827
 21
405.769513
  0
LINE
  8
2
 10
-423.967827
 20
404.369513
 11
-423.967827
 21
405.769513
  0
LINE
  8
2
 10
-420.817827
 20
408.919513
 11
-419.417827
 21
408.919513
  0
LINE
  8
2
 10
-420.817827
 20
401.219513
 11
-419.417827
 21
401.219513
  0
LINE
  8
2
 10
-419.417827
 20
401.219513
 11
-419.417827
 21
402.969513
  0
LINE
  8
2
 10
-419.417827
 20
407.169513
 11
-419.417827
 21
408.919513
  0
LINE
  8
2
 10
-423.967827
 20
404.369513
 11
-422.217827
 21
404.369513
  0
LINE
  8
2
 10
-418.017827
 20
404.369513
 11
-416.267827
 21
404.369513
  0
LINE
  8
2
 10
-420.817827
 20
401.219513
 11
-420.817827
 21
402.969513
  0
LINE
  8
2
 10
-420.817827
 20
407.169513
 11
-420.817827
 21
408.919513
  0
LINE
  8
2
 10
-423.967827
 20
405.769513
 11
-422.217827
 21
405.769513
  0
LINE
  8
2
 10
-418.017827
 20
405.769513
 11
-416.267827
 21
405.769513
  0
ARC
  8
2
 10
-418.017827
 20
407.169513
 40
1.400000
 50
180.000000
 51
270.000000
  0
ARC
  8
2
 10
-422.217827
 20
407.169513
 40
1.400000
 50
270.000000
 51
360.000000
  0
ARC
  8
2
 10
-422.217827
 20
402.969513
 40
1.400000
 50
0.000000
 51
90.000000
  0
ARC
  8
2
 10
-418.017827
 20
402.969513
 40
1.400000
 50
90.000000
 51
180.000000
  0
CIRCLE
  8
2
 10
-560.117827
 20
405.069513
 40
7.700000
  0
CIRCLE
  8
2
 10
-560.117827
 20
405.069513
 40
7.000000
  0
LINE
  8
2
 10
-556.267827
 20
404.369513
 11
-556.267827
 21
405.769513
  0
LINE
  8
2
 10
-563.967827
 20
404.369513
 11
-563.967827
 21
405.769513
  0
LINE
  8
2
 10
-560.817827
 20
408.919513
 11
-559.417827
 21
408.919513
  0
LINE
  8
2
 10
-560.817827
 20
401.219513
 11
-559.417827
 21
401.219513
  0
LINE
  8
2
 10
-559.417827
 20
401.219513
 11
-559.417827
 21
402.969513
  0
LINE
  8
2
 10
-559.417827
 20
407.169513
 11
-559.417827
 21
408.919513
  0
LINE
  8
2
 10
-563.967827
 20
404.369513
 11
-562.217827
 21
404.369513
  0
LINE
  8
2
 10
-558.017827
 20
404.369513
 11
-556.267827
 21
404.369513
  0
LINE
  8
2
 10
-560.817827
 20
401.219513
 11
-560.817827
 21
402.969513
  0
LINE
  8
2
 10
-560.817827
 20
407.169513
 11
-560.817827
 21
408.919513
  0
LINE
  8
2
 10
-563.967827
 20
405.769513
 11
-562.217827
 21
405.769513
  0
LINE
  8
2
 10
-558.017827
 20
405.769513
 11
-556.267827
 21
405.769513
  0
ARC
  8
2
 10
-558.017827
 20
407.169513
 40
1.400000
 50
180.000000
 51
270.000000
  0
ARC
  8
2
 10
-562.217827
 20
407.169513
 40
1.400000
 50
270.000000
 51
360.000000
  0
ARC
  8
2
 10
-562.217827
 20
402.969513
 40
1.400000
 50
0.000000
 51
90.000000
  0
ARC
  8
2
 10
-558.017827
 20
402.969513
 40
1.400000
 50
90.000000
 51
180.000000
  0
CIRCLE
  8
2
 10
-431.117827
 20
466.569513
 40
7.700000
  0
CIRCLE
  8
2
 10
-431.117827
 20
466.569513
 40
7.000000
  0
LINE
  8
2
 10
-427.267827
 20
465.869513
 11
-427.267827
 21
467.269513
  0
LINE
  8
2
 10
-434.967827
 20
465.869513
 11
-434.967827
 21
467.269513
  0
LINE
  8
2
 10
-431.817827
 20
470.419513
 11
-430.417827
 21
470.419513
  0
LINE
  8
2
 10
-431.817827
 20
462.719513
 11
-430.417827
 21
462.719513
  0
LINE
  8
2
 10
-430.417827
 20
462.719513
 11
-430.417827
 21
464.469513
  0
LINE
  8
2
 10
-430.417827
 20
468.669513
 11
-430.417827
 21
470.419513
  0
LINE
  8
2
 10
-434.967827
 20
465.869513
 11
-433.217827
 21
465.869513
  0
LINE
  8
2
 10
-429.017827
 20
465.869513
 11
-427.267827
 21
465.869513
  0
LINE
  8
2
 10
-431.817827
 20
462.719513
 11
-431.817827
 21
464.469513
  0
LINE
  8
2
 10
-431.817827
 20
468.669513
 11
-431.817827
 21
470.419513
  0
LINE
  8
2
 10
-434.967827
 20
467.269513
 11
-433.217827
 21
467.269513
  0
LINE
  8
2
 10
-429.017827
 20
467.269513
 11
-427.267827
 21
467.269513
  0
ARC
  8
2
 10
-429.017827
 20
468.669513
 40
1.400000
 50
180.000000
 51
270.000000
  0
ARC
  8
2
 10
-433.217827
 20
468.669513
 40
1.400000
 50
270.000000
 51
360.000000
  0
ARC
  8
2
 10
-433.217827
 20
464.469513
 40
1.400000
 50
0.000000
 51
90.000000
  0
ARC
  8
2
 10
-429.017827
 20
464.469513
 40
1.400000
 50
90.000000
 51
180.000000
  0
CIRCLE
  8
2
 10
-549.117827
 20
466.569513
 40
7.700000
  0
CIRCLE
  8
2
 10
-549.117827
 20
466.569513
 40
7.000000
  0
LINE
  8
2
 10
-545.267827
 20
465.869513
 11
-545.267827
 21
467.269513
  0
LINE
  8
2
 10
-552.967827
 20
465.869513
 11
-552.967827
 21
467.269513
  0
LINE
  8
2
 10
-549.817827
 20
470.419513
 11
-548.417827
 21
470.419513
  0
LINE
  8
2
 10
-549.817827
 20
462.719513
 11
-548.417827
 21
462.719513
  0
LINE
  8
2
 10
-548.417827
 20
462.719513
 11
-548.417827
 21
464.469513
  0
LINE
  8
2
 10
-548.417827
 20
468.669513
 11
-548.417827
 21
470.419513
  0
LINE
  8
2
 10
-552.967827
 20
465.869513
 11
-551.217827
 21
465.869513
  0
LINE
  8
2
 10
-547.017827
 20
465.869513
 11
-545.267827
 21
465.869513
  0
LINE
  8
2
 10
-549.817827
 20
462.719513
 11
-549.817827
 21
464.469513
  0
LINE
  8
2
 10
-549.817827
 20
468.669513
 11
-549.817827
 21
470.419513
  0
LINE
  8
2
 10
-552.967827
 20
467.269513
 11
-551.217827
 21
467.269513
  0
LINE
  8
2
 10
-547.017827
 20
467.269513
 11
-545.267827
 21
467.269513
  0
ARC
  8
2
 10
-547.017827
 20
468.669513
 40
1.400000
 50
180.000000
 51
270.000000
  0
ARC
  8
2
 10
-551.217827
 20
468.669513
 40
1.400000
 50
270.000000
 51
360.000000
  0
ARC
  8
2
 10
-551.217827
 20
464.469513
 40
1.400000
 50
0.000000
 51
90.000000
  0
ARC
  8
2
 10
-547.017827
 20
464.469513
 40
1.400000
 50
90.000000
 51
180.000000
  0
LINE
  8
2
 10
-413.117827
 20
79.527561
 11
-413.117827
 21
79.033614
  0
ARC
  8
2
 10
-420.117827
 20
64.769513
 40
18.000000
 50
73.398450
 51
106.601550
  0
ARC
  8
2
 10
-415.717827
 20
79.527561
 40
2.600000
 50
0.000000
 51
73.398450
  0
ARC
  8
2
 10
-424.517827
 20
79.527561
 40
2.600000
 50
106.601550
 51
156.374895
  0
LINE
  8
2
 10
76.582173
 20
77.569513
 11
91.982173
 21
77.569513
  0
LINE
  8
2
 10
76.582173
 20
77.569513
 11
76.582173
 21
75.569513
  0
LINE
  8
2
 10
91.982173
 20
77.569513
 11
91.982173
 21
75.569513
  0
LINE
  8
2
 10
77.282173
 20
79.527561
 11
77.282173
 21
77.569513
  0
LINE
  8
2
 10
91.282173
 20
79.527561
 11
91.282173
 21
77.569513
  0
ARC
  8
2
 10
84.282173
 20
64.769513
 40
18.000000
 50
73.398450
 51
106.601550
  0
ARC
  8
2
 10
88.682173
 20
79.527561
 40
2.600000
 50
0.000000
 51
73.398450
  0
ARC
  8
2
 10
79.882173
 20
79.527561
 40
2.600000
 50
106.601550
 51
180.000000
  0
LINE
  8
2
 10
180.582173
 20
77.569513
 11
195.982173
 21
77.569513
  0
LINE
  8
2
 10
180.582173
 20
77.569513
 11
180.582173
 21
75.569513
  0
LINE
  8
2
 10
195.982173
 20
77.569513
 11
195.982173
 21
75.569513
  0
LINE
  8
2
 10
181.282173
 20
79.527561
 11
181.282173
 21
77.569513
  0
LINE
  8
2
 10
195.282173
 20
79.527561
 11
195.282173
 21
77.569513
  0
ARC
  8
2
 10
188.282173
 20
64.769513
 40
18.000000
 50
73.398450
 51
106.601550
  0
ARC
  8
2
 10
192.682173
 20
79.527561
 40
2.600000
 50
0.000000
 51
73.398450
  0
ARC
  8
2
 10
183.882173
 20
79.527561
 40
2.600000
 50
106.601550
 51
180.000000
  0
LINE
  8
2
 10
242.082173
 20
77.569513
 11
257.482173
 21
77.569513
  0
LINE
  8
2
 10
242.082173
 20
77.569513
 11
242.082173
 21
75.569513
  0
LINE
  8
2
 10
257.482173
 20
77.569513
 11
257.482173
 21
75.569513
  0
LINE
  8
2
 10
242.782173
 20
79.527561
 11
242.782173
 21
77.569513
  0
LINE
  8
2
 10
256.782173
 20
79.527561
 11
256.782173
 21
77.569513
  0
ARC
  8
2
 10
249.782173
 20
64.769513
 40
18.000000
 50
73.398450
 51
106.601550
  0
ARC
  8
2
 10
254.182173
 20
79.527561
 40
2.600000
 50
0.000000
 51
73.398450
  0
ARC
  8
2
 10
245.382173
 20
79.527561
 40
2.600000
 50
106.601550
 51
180.000000
  0
LINE
  8
2
 10
-538.417827
 20
77.569513
 11
-553.817827
 21
77.569513
  0
LINE
  8
2
 10
-538.417827
 20
77.569513
 11
-538.417827
 21
75.569513
  0
LINE
  8
2
 10
-553.817827
 20
77.569513
 11
-553.817827
 21
75.569513
  0
LINE
  8
2
 10
-539.117827
 20
79.527561
 11
-539.117827
 21
77.569513
  0
LINE
  8
2
 10
-553.117827
 20
79.527561
 11
-553.117827
 21
77.569513
  0
ARC
  8
2
 10
-546.117827
 20
64.769513
 40
18.000000
 50
73.398450
 51
106.601550
  0
ARC
  8
2
 10
-550.517827
 20
79.527561
 40
2.600000
 50
106.601550
 51
180.000000
  0
ARC
  8
2
 10
-541.717827
 20
79.527561
 40
2.600000
 50
0.000000
 51
73.398450
  0
LINE
  8
2
 10
-567.117827
 20
79.527561
 11
-567.117827
 21
79.033614
  0
ARC
  8
2
 10
-560.117827
 20
64.769513
 40
18.000000
 50
73.398450
 51
106.601550
  0
ARC
  8
2
 10
-564.517827
 20
79.527561
 40
2.600000
 50
106.601550
 51
180.000000
  0
ARC
  8
2
 10
-555.717827
 20
79.527561
 40
2.600000
 50
23.625105
 51
73.398450
  0
CIRCLE
  8
2
 10
-473.854371
 20
339.806057
 40
3.500000
  0
LINE
  8
2
 10
-474.354371
 20
337.706057
 11
-473.354371
 21
337.706057
  0
LINE
  8
2
 10
-474.354371
 20
341.906057
 11
-473.354371
 21
341.906057
  0
LINE
  8
2
 10
-471.754371
 20
339.306057
 11
-471.754371
 21
340.306057
  0
LINE
  8
2
 10
-475.954371
 20
339.306057
 11
-475.954371
 21
340.306057
  0
LINE
  8
2
 10
-473.354371
 20
337.706057
 11
-473.354371
 21
338.306057
  0
LINE
  8
2
 10
-473.354371
 20
341.306057
 11
-473.354371
 21
341.906057
  0
LINE
  8
2
 10
-475.954371
 20
339.306057
 11
-475.354371
 21
339.306057
  0
LINE
  8
2
 10
-472.354371
 20
339.306057
 11
-471.754371
 21
339.306057
  0
LINE
  8
2
 10
-474.354371
 20
337.706057
 11
-474.354371
 21
338.306057
  0
LINE
  8
2
 10
-474.354371
 20
341.306057
 11
-474.354371
 21
341.906057
  0
LINE
  8
2
 10
-475.954371
 20
340.306057
 11
-475.354371
 21
340.306057
  0
LINE
  8
2
 10
-472.354371
 20
340.306057
 11
-471.754371
 21
340.306057
  0
ARC
  8
2
 10
-475.354371
 20
341.306057
 40
1.000000
 50
270.000000
 51
360.000000
  0
ARC
  8
2
 10
-475.354371
 20
338.306057
 40
1.000000
 50
0.000000
 51
90.000000
  0
ARC
  8
2
 10
-472.354371
 20
338.306057
 40
1.000000
 50
90.000000
 51
180.000000
  0
ARC
  8
2
 10
-472.354371
 20
341.306057
 40
1.000000
 50
180.000000
 51
270.000000
  0
LINE
  8
2
 10
152.045629
 20
91.069513
 11
152.045629
 21
92.048537
  0
LINE
  8
2
 10
159.045629
 20
91.069513
 11
159.045629
 21
92.048537
  0
ARC
  8
2
 10
155.545629
 20
84.669513
 40
9.000000
 50
73.398450
 51
106.601550
  0
ARC
  8
2
 10
157.745629
 20
92.048537
 40
1.300000
 50
0.000000
 51
73.398450
  0
ARC
  8
2
 10
153.345629
 20
92.048537
 40
1.300000
 50
106.601550
 51
180.000000
  0
LINE
  8
2
 10
126.518717
 20
91.069513
 11
126.518717
 21
92.048537
  0
LINE
  8
2
 10
119.518717
 20
91.069513
 11
119.518717
 21
92.048537
  0
ARC
  8
2
 10
123.018717
 20
84.669513
 40
9.000000
 50
73.398450
 51
106.601550
  0
ARC
  8
2
 10
120.818717
 20
92.048537
 40
1.300000
 50
106.601550
 51
180.000000
  0
ARC
  8
2
 10
125.218717
 20
92.048537
 40
1.300000
 50
0.000000
 51
73.398450
  0
LINE
  8
2
  6
CENTER
 62
2
 10
-490.117827
 20
253.970336
 11
-490.117827
 21
499.906549
  0
LINE
  8
2
  6
CENTER
 62
2
 10
-447.117827
 20
301.069513
 11
-421.117827
 21
301.069513
  0
LINE
  8
2
  6
CENTER
 62
2
 10
-434.117827
 20
288.069513
 11
-434.117827
 21
314.069513
  0
LINE
  8
2
  6
CENTER
 62
2
 10
-559.117827
 20
301.069513
 11
-533.117827
 21
301.069513
  0
LINE
  8
2
  6
CENTER
 62
2
 10
-546.117827
 20
288.069513
 11
-546.117827
 21
314.069513
  0
LINE
  8
2
  6
CENTER
 62
2
 10
-562.117827
 20
466.569513
 11
-536.117827
 21
466.569513
  0
LINE
  8
2
  6
CENTER
 62
2
 10
-549.117827
 20
453.569513
 11
-549.117827
 21
479.569513
  0
LINE
  8
2
  6
CENTER
 62
2
 10
-444.117827
 20
466.569513
 11
-418.117827
 21
466.569513
  0
LINE
  8
2
  6
CENTER
 62
2
 10
-431.117827
 20
453.569513
 11
-431.117827
 21
479.569513
  0
LINE
  8
2
  6
CENTER
 62
2
 10
-433.117827
 20
405.069513
 11
-407.117827
 21
405.069513
  0
LINE
  8
2
  6
CENTER
 62
2
 10
-420.117827
 20
392.069513
 11
-420.117827
 21
418.069513
  0
LINE
  8
2
  6
CENTER
 62
2
 10
-573.117827
 20
405.069513
 11
-547.117827
 21
405.069513
  0
LINE
  8
2
  6
CENTER
 62
2
 10
-560.117827
 20
392.069513
 11
-560.117827
 21
418.069513
  0
LINE
  8
2
  6
CENTER
 62
2
 10
-597.603118
 20
43.569513
 11
-248.875163
 21
43.569513
  0
LINE
  8
2
  6
CENTER
 62
2
 10
-434.117827
 20
90.165277
 11
-434.117827
 21
56.878747
  0
LINE
  8
2
  6
CENTER
 62
2
 10
-420.117827
 20
90.165277
 11
-420.117827
 21
73.569513
  0
LINE
  8
2
  6
CENTER
 62
2
 10
249.782173
 20
90.165277
 11
249.782173
 21
56.878747
  0
LINE
  8
2
  6
CENTER
 62
2
 10
188.282173
 20
90.165277
 11
188.282173
 21
56.878747
  0
LINE
  8
2
  6
CENTER
 62
2
 10
84.282173
 20
90.165277
 11
84.282173
 21
56.878747
  0
LINE
  8
2
  6
CENTER
 62
2
 10
37.129493
 20
43.569513
 11
344.782173
 21
43.569513
  0
LINE
  8
2
  6
CENTER
 62
2
 10
226.782173
 20
161.569513
 11
226.782173
 21
-74.430487
  0
LINE
  8
2
  6
CENTER
 62
2
 10
-462.117827
 20
28.569513
 11
-462.117827
 21
58.569513
  0
LINE
  8
2
  6
CENTER
 62
2
 10
-462.117827
 20
258.588998
 11
-462.117827
 21
296.998376
  0
LINE
  8
2
  6
CENTER
 62
2
 10
-518.117827
 20
258.588998
 11
-518.117827
 21
296.998376
  0
LINE
  8
2
  6
CENTER
 62
2
 10
-584.687285
 20
443.569513
 11
-248.875163
 21
443.569513
  0
LINE
  8
2
  6
CENTER
 62
2
 10
-501.785089
 20
367.736774
 11
-510.977477
 21
376.929163
  0
LINE
  8
2
  6
CENTER
 62
2
 10
-518.117827
 20
28.569513
 11
-518.117827
 21
58.569513
  0
LINE
  8
2
  6
CENTER
 62
2
 10
-546.117827
 20
90.165277
 11
-546.117827
 21
56.878747
  0
LINE
  8
2
  6
CENTER
 62
2
 10
-560.117827
 20
90.165277
 11
-560.117827
 21
73.569513
  0
ARC
  8
2
  6
CENTER
 62
2
 10
-490.117827
 20
356.069513
 40
23.000000
 50
118.753339
 51
151.246661
  0
LINE
  8
2
  6
CENTER
 62
2
 10
-478.450565
 20
344.402251
 11
-469.258177
 21
335.209863
  0
ARC
  8
2
  6
CENTER
 62
2
 10
-490.117827
 20
356.069513
 40
23.000000
 50
298.753339
 51
331.246661
  0
LINE
  8
2
  6
CENTER
 62
2
 10
-473.854371
 20
99.013635
 11
-473.854371
 21
77.840097
  0
LINE
  8
2
  6
CENTER
 62
2
 10
155.545629
 20
99.013635
 11
155.545629
 21
77.840097
  0
LINE
  8
2
  6
CENTER
 62
2
 10
123.018717
 20
99.013635
 11
123.018717
 21
77.840097
  0
DIMENSION
  8
5
  2
*D0
 10
-267.617827
 20
572.566185
 11
-378.867827
 21
583.316185
 70
0
  1
222.5
 13
-490.117827
 23
499.906549
 14
-267.617827
 24
449.819513
 50
0.000000
  0
DIMENSION
  8
5
  2
*D1
 10
-175.748329
 20
-56.430487
 11
-201.348329
 21
36.969513
 70
1
  1
%%c200
 13
-288.617827
 23
143.569513
 14
-288.617827
 24
-56.430487
 50
90.000000
  0
DIMENSION
  8
5
  2
*D2
 10
-14.331107
 20
43.569513
 11
-28.381107
 21
24.519513
 70
0
  1
48
 13
69.282173
 23
-4.430487
 14
37.129493
 24
43.569513
 50
90.000000
  0
DIMENSION
  8
5
  2
*D3
 10
-175.748329
 20
443.569513
 11
-201.348329
 21
393.219513
 70
0
  1
87.5
 13
-232.053374
 23
356.069513
 14
-248.875163
 24
443.569513
 50
90.000000
  0
DIMENSION
  8
5
  2
*D4
 10
-175.748329
 20
356.069513
 11
-189.798329
 21
316.019513
 70
0
  1
90
 13
-457.064827
 23
266.069513
 14
-232.053374
 24
356.069513
 50
90.000000
  0
DIMENSION
  8
5
  2
*D5
 10
-14.331107
 20
-301.430487
 11
-34.156107
 21
-450.755487
 70
0
  1
297
 13
94.282173
 23
-598.430487
 14
45.147270
 24
-301.430487
 50
90.000000
  0
DIMENSION
  8
5
  2
*D6
 10
-14.331107
 20
-4.430487
 11
-34.156107
 21
-153.755487
 70
0
  1
297
 13
45.147270
 23
-301.430487
 14
69.282173
 24
-4.430487
 50
90.000000
  0
DIMENSION
  8
5
  2
*D7
 10
178.282173
 20
-532.729416
 11
76.232173
 21
-521.979416
 70
0
  1
78
 13
100.282173
 23
-482.930487
 14
178.282173
 24
-482.930487
 50
0.000000
  0
TEXT
  8
18
 10
611.654968
 20
-665.526810
 40
15.000000
  1
１
 50
0.000000
  0
TEXT
  8
18
 10
631.417351
 20
-683.612137
 40
15.000000
  1
５
 50
0.000000
  0
LINE
  8
18
 10
607.745380
 20
-341.078091
 11
857.745380
 21
-341.078091
  0
LINE
  8
18
 10
607.745380
 20
-441.078091
 11
857.745380
 21
-441.078091
  0
LINE
  8
18
 10
607.745380
 20
-466.078091
 11
857.745380
 21
-466.078091
  0
LINE
  8
18
 10
607.745380
 20
-491.078091
 11
857.745380
 21
-491.078091
  0
LINE
  8
18
 10
607.745380
 20
-341.078091
 11
607.745380
 21
-491.078091
  0
LINE
  8
18
 10
732.745380
 20
-341.078091
 11
732.745380
 21
-466.078091
  0
LINE
  8
18
 10
857.745380
 20
-341.078091
 11
857.745380
 21
-491.078091
  0
TEXT
  8
18
 10
658.399067
 20
-460.188694
 40
15.000000
  1
Ａ
 50
0.000000
  0
TEXT
  8
18
 10
627.706013
 20
-483.746262
 40
12.500000
  1
ＡＣＴＵＡＴＯＲ　ＰＯＳＩＴＩＯＮ
 50
0.000000
  0
TEXT
  8
18
 10
783.399067
 20
-460.188694
 40
15.000000
  1
Ｂ
 50
0.000000
  0
LINE
  8
18
  6
CENTER
 62
2
 10
619.790100
 20
-396.341394
 11
699.858308
 21
-396.341394
  0
LINE
  8
18
  6
CENTER
 62
2
 10
660.413696
 20
-366.763177
 11
660.413696
 21
-416.860793
  0
LINE
  8
18
 10
695.513696
 20
-385.541394
 11
695.513696
 21
-407.141394
  0
LINE
  8
18
 10
625.313696
 20
-385.541394
 11
625.313696
 21
-407.141394
  0
LINE
  8
18
 10
625.313696
 20
-385.541394
 11
645.528775
 21
-385.541394
  0
LINE
  8
18
 10
675.298618
 20
-385.541394
 11
695.513696
 21
-385.541394
  0
LINE
  8
18
 10
625.313696
 20
-407.141394
 11
650.461210
 21
-407.141394
  0
LINE
  8
18
 10
670.366183
 20
-407.141394
 11
695.513696
 21
-407.141394
  0
TEXT
  8
18
 10
657.001022
 20
-388.588192
 40
6.750000
  1
O
 50
0.000000
  0
TEXT
  8
18
 10
674.389739
 20
-399.641985
 40
6.750000
  1
S
 50
90.000000
  0
LINE
  8
18
 10
670.336504
 20
-374.510176
 11
650.490888
 21
-374.510176
  0
ARC
  8
18
 10
670.336504
 20
-377.685626
 40
3.175450
 50
5.000000
 51
90.000000
  0
ARC
  8
18
 10
650.490888
 20
-377.685626
 40
3.175450
 50
90.000000
 51
175.000000
  0
ARC
  8
18
 10
660.413696
 20
-396.341394
 40
14.686456
 50
175.000003
 51
256.648816
  0
ARC
  8
18
 10
660.413696
 20
-396.341394
 40
14.686456
 50
283.351184
 51
5.000000
  0
LINE
  8
18
 10
645.528775
 20
-386.815045
 11
645.528775
 21
-375.230176
  0
LINE
  8
18
 10
675.298618
 20
-375.230176
 11
675.298618
 21
-386.815045
  0
LINE
  8
18
 10
645.528775
 20
-386.815045
 11
646.504588
 21
-386.815045
  0
LINE
  8
18
 10
674.322805
 20
-386.815045
 11
675.298618
 21
-386.815045
  0
LINE
  8
18
 10
663.805078
 20
-410.630919
 11
657.022314
 21
-410.630919
  0
LINE
  8
18
 10
675.298618
 20
-379.670282
 11
714.793277
 21
-379.670282
  0
LINE
  8
18
 10
675.298618
 20
-384.433457
 11
714.793277
 21
-384.433457
  0
ARC
  8
18
 10
717.770261
 20
-398.921448
 40
2.976984
 50
180.000000
 51
360.000000
  0
ARC
  8
18
 10
717.770261
 20
-365.182292
 40
2.976984
 50
0.000000
 51
180.000000
  0
LINE
  8
18
 10
714.793277
 20
-365.554833
 11
714.793277
 21
-365.182292
  0
LINE
  8
18
 10
720.747246
 20
-382.051870
 11
720.747246
 21
-365.182292
  0
LINE
  8
18
 10
714.793277
 20
-398.548907
 11
714.793277
 21
-398.921448
  0
LINE
  8
18
 10
720.747246
 20
-382.051870
 11
720.747246
 21
-398.921448
  0
LINE
  8
18
 10
652.955829
 20
-397.135257
 11
667.871563
 21
-397.135257
  0
LINE
  8
18
 10
652.955829
 20
-395.547532
 11
667.871563
 21
-395.547532
  0
LINE
  8
18
 10
673.499871
 20
-377.408867
 11
675.044266
 21
-395.061385
  0
LINE
  8
18
 10
645.783127
 20
-395.061385
 11
647.327522
 21
-377.408867
  0
LINE
  8
18
 10
714.793277
 20
-382.051870
 11
714.793277
 21
-365.182292
  0
LINE
  8
18
 10
714.793277
 20
-382.051870
 11
714.793277
 21
-398.921448
  0
LINE
  8
18
 10
675.298618
 20
-375.230176
 11
672.350021
 21
-375.230176
  0
LINE
  8
18
 10
648.477372
 20
-375.230176
 11
645.528775
 21
-375.230176
  0
CIRCLE
  8
18
 10
660.413696
 20
-396.341394
 40
7.500000
  0
TEXT
  8
18
 10
653.187653
 20
-399.641985
 40
6.750000
  1
S
 50
90.000000
  0
LINE
  8
18
  6
CENTER
 62
2
 10
753.382858
 20
-371.026339
 11
833.451067
 21
-371.026339
  0
LINE
  8
18
  6
CENTER
 62
2
 10
794.006454
 20
-350.107727
 11
794.006454
 21
-391.545737
  0
LINE
  8
18
 10
829.106454
 20
-360.226339
 11
829.106454
 21
-381.826339
  0
LINE
  8
18
 10
758.906454
 20
-360.226339
 11
758.906454
 21
-381.826339
  0
LINE
  8
18
 10
758.906454
 20
-360.226339
 11
784.053968
 21
-360.226339
  0
LINE
  8
18
 10
815.714110
 20
-360.226339
 11
829.106454
 21
-360.226339
  0
LINE
  8
18
 10
758.906454
 20
-381.826339
 11
784.053968
 21
-381.826339
  0
LINE
  8
18
 10
815.714110
 20
-381.826339
 11
829.106454
 21
-381.826339
  0
LINE
  8
18
 10
815.837673
 20
-380.949147
 11
815.837673
 21
-361.103531
  0
ARC
  8
18
 10
812.662223
 20
-380.949147
 40
3.175450
 50
275.000000
 51
360.000000
  0
ARC
  8
18
 10
812.662223
 20
-361.103531
 40
3.175450
 50
0.000000
 51
85.000000
  0
ARC
  8
18
 10
794.006454
 20
-371.026339
 40
14.686456
 50
85.000003
 51
166.648816
  0
ARC
  8
18
 10
794.006454
 20
-371.026339
 40
14.686456
 50
193.351184
 51
275.000000
  0
LINE
  8
18
 10
803.532804
 20
-356.141417
 11
815.117673
 21
-356.141417
  0
LINE
  8
18
 10
815.117673
 20
-385.911260
 11
803.532804
 21
-385.911260
  0
LINE
  8
18
 10
803.532804
 20
-384.935447
 11
803.532804
 21
-385.911260
  0
LINE
  8
18
 10
803.532804
 20
-356.141417
 11
803.532804
 21
-357.117230
  0
LINE
  8
18
 10
779.716930
 20
-374.417721
 11
779.716930
 21
-367.634957
  0
LINE
  8
18
 10
810.677567
 20
-385.911260
 11
810.677567
 21
-425.405919
  0
LINE
  8
18
 10
805.914392
 20
-385.911260
 11
805.914392
 21
-425.405919
  0
ARC
  8
18
 10
791.426401
 20
-428.382904
 40
2.976984
 50
90.000000
 51
270.000000
  0
ARC
  8
18
 10
825.165557
 20
-428.382904
 40
2.976984
 50
270.000000
 51
90.000000
  0
LINE
  8
18
 10
824.793016
 20
-425.405919
 11
825.165557
 21
-425.405919
  0
LINE
  8
18
 10
808.295979
 20
-431.359888
 11
825.165557
 21
-431.359888
  0
LINE
  8
18
 10
791.798942
 20
-425.405919
 11
791.426401
 21
-425.405919
  0
LINE
  8
18
 10
808.295979
 20
-431.359888
 11
791.426401
 21
-431.359888
  0
LINE
  8
18
 10
793.212592
 20
-363.568471
 11
793.212592
 21
-378.484206
  0
LINE
  8
18
 10
794.800317
 20
-363.568471
 11
794.800317
 21
-378.484206
  0
LINE
  8
18
 10
812.938982
 20
-384.112513
 11
795.286463
 21
-385.656908
  0
LINE
  8
18
 10
812.938982
 20
-357.940164
 11
795.286463
 21
-356.395769
  0
LINE
  8
18
 10
808.295979
 20
-425.405919
 11
825.165557
 21
-425.405919
  0
LINE
  8
18
 10
808.295979
 20
-425.405919
 11
791.426401
 21
-425.405919
  0
LINE
  8
18
 10
815.117673
 20
-385.911260
 11
815.117673
 21
-382.962663
  0
LINE
  8
18
 10
815.117673
 20
-359.090014
 11
815.117673
 21
-356.141417
  0
CIRCLE
  8
18
 10
794.006454
 20
-371.026339
 40
7.500000
  0
TEXT
  8
18
 10
801.759657
 20
-367.613665
 40
6.750000
  1
Ｓ
 50
270.000000
  0
TEXT
  8
18
 10
790.705863
 20
-363.800295
 40
6.750000
  1
Ｏ
 50
0.000000
  0
TEXT
  8
18
 10
790.705863
 20
-385.002382
 40
6.750000
  1
Ｏ
 50
360.000000
  0
TEXT
  8
18
 10
614.271202
 20
-635.176315
 40
15.000000
  1
標準仕様
 50
0.000000
  0
TEXT
  8
18
 10
614.271202
 20
-615.176315
 40
15.000000
  1
８４７Ｔ－２ＵＡＳ　３００Ａ
 50
0.000000
  0
TEXT
  8
18
 10
900.790558
 20
-634.429016
 40
10.000000
  1
２００３．　２．　３
 50
0.000000
  0
TEXT
  8
18
 10
768.000000
 20
-680.000000
 40
25.000000
  1
Ｄ３－０３２４３
 50
0.000000
  0
LINE
  8
20
 62
3
 10
-900.000000
 20
-692.500000
 11
1000.000000
 21
-692.500000
  0
LINE
  8
20
 62
3
 10
-900.000000
 20
660.000000
 11
1000.000000
 21
660.000000
  0
LINE
  8
20
 62
3
 10
-900.000000
 20
660.000000
 11
-900.000000
 21
-692.500000
  0
LINE
  8
20
 62
3
 10
1000.000000
 20
660.000000
 11
1000.000000
 21
-692.500000
  0
LINE
  8
20
 62
3
 10
300.000000
 20
-692.500000
 11
300.000000
 21
-592.500000
  0
LINE
  8
20
 62
3
 10
535.000000
 20
-692.500000
 11
535.000000
 21
-592.500000
  0
LINE
  8
20
 10
535.000000
 20
-642.500000
 11
1000.000000
 21
-642.500000
  0
LINE
  8
20
 62
3
 10
300.000000
 20
-592.500000
 11
1000.000000
 21
-592.500000
  0
LINE
  8
20
 10
900.000000
 20
-642.500000
 11
900.000000
 21
-592.500000
  0
LINE
  8
20
 10
900.000000
 20
-617.500000
 11
1000.000000
 21
-617.500000
  0
LINE
  8
20
 10
605.000000
 20
-692.500000
 11
605.000000
 21
-592.500000
  0
LINE
  8
20
 10
655.000000
 20
-692.500000
 11
655.000000
 21
-642.500000
  0
LINE
  8
20
 10
755.000000
 20
-692.500000
 11
755.000000
 21
-642.500000
  0
LINE
  8
20
 10
618.642073
 20
-678.857927
 11
639.491453
 21
-658.008547
  0
TEXT
  8
20
 10
657.666645
 20
-662.484589
 40
9.000000
  1
ＤＲＡＷＩＮＧ　ＮＯ．
 50
0.000000
  0
TEXT
  8
20
 10
667.500000
 20
-682.500000
 40
15.000000
  1
図　　　番
 50
0.000000
  0
TEXT
  8
20
 10
930.000000
 20
-610.000000
 40
10.000000
  1
ＤＡＴＥ
 50
0.000000
  0
TEXT
  8
20
 10
545.005355
 20
-664.805145
 40
10.000000
  1
ＳＣＡＬＥ
 50
0.000000
  0
TEXT
  8
20
 10
540.000000
 20
-682.500000
 40
15.000000
  1
尺　　度
 50
0.000000
  0
TEXT
  8
20
 10
537.505355
 20
-612.479424
 40
10.000000
  1
ＦＩＧ．ＮＯ．
 50
0.000000
  0
TEXT
  8
20
 10
540.000000
 20
-632.500000
 40
15.000000
  1
名　　称
 50
0.000000
  0
TEXT
  8
20
 10
302.827625
 20
-632.351265
 40
11.500000
  1
ＴＯＭＯＥ　ＶＡＬＶＥ　ＣＯ．，ＬＴＤ．
 50
0.000000
  0
TEXT
  8
20
 10
337.500000
 20
-666.449051
 40
20.000000
  1
巴バルブ株式会社
 50
0.000000
  0
ENDSEC
  0
EOF
