  0
SECTION
  2
HEADER
  9
$LIMMAX
 10
1050.000000
 20
742.500000
  9
$LIMMIN
 10
-1050.000000
 20
-742.500000
  9
$EXTMAX
 10
1050.000000
 20
742.500000
  9
$EXTMIN
 10
-1050.000000
 20
-742.500000
  9
$DIMLFAC
 40
1.000000
  9
$DIMALTF
 40
25.400000
  9
$DIMSCALE
 40
5.000000
  9
$DIMTAD
 70
1
  9
$DIMTIH
 70
1
  9
$DIMTOH
 70
1
  9
$TDCREATE
 40
2450242.000000
  9
$TDUPDATE
 40
2452674.000000
999
3106
  0
ENDSEC
  0
SECTION
  2
TABLES
  0
TABLE
  2
LTYPE
 70
7
  0
LTYPE
  2
CONTINUOUS
 70
0
  3
Solid line
 72
65
 73
0
 40
0.000000
  0
LTYPE
  2
DASHED
 70
0
  3
__ __ __ __ __ __ __ __ __ __ __ __ __ __ __
 72
65
 73
2
 40
2.000000
 49
1.200000
 49
-0.800000
  0
LTYPE
  2
CENTER
 70
0
  3
____ _ ____ _ ____ _ ____ _ ____ _ ____ _ ____
 72
65
 73
4
 40
12.000000
 49
9.000000
 49
-1.000000
 49
1.000000
 49
-1.000000
  0
LTYPE
  2
HIDDEN
 70
0
  3
_ _ _ _ _ _ _ _ _ _ _ _ _ _ _ _ _ _ _ _ _ _ _
 72
65
 73
2
 40
3.200000
 49
2.400000
 49
-0.800000
  0
LTYPE
  2
PHANTOM
 70
0
  3
_____ _ _ _____ _ _ _____ _ _ _____ _ _ _____
 72
65
 73
6
 40
13.500000
 49
9.000000
 49
-1.000000
 49
1.000000
 49
-0.500000
 49
1.000000
 49
-1.000000
  0
LTYPE
  2
DOT
 70
0
  3
...............................................
 72
65
 73
2
 40
1.000000
 49
0.500000
 49
-0.500000
  0
LTYPE
  2
DASHDOT
 70
0
  3
__ . __ . __ . __ . __ . __ . __ . __ . __ . __
 72
65
 73
4
 40
8.000000
 49
5.000000
 49
-1.000000
 49
1.000000
 49
-1.000000
  0
ENDTAB
  0
TABLE
  2
LAYER
 70
6
  0
LAYER
  2
0
 70
0
 62
7
  6
CONTINUOUS
  0
LAYER
  2
1
 70
0
 62
7
  6
CONTINUOUS
  0
LAYER
  2
2
 70
0
 62
7
  6
CONTINUOUS
  0
LAYER
  2
5
 70
0
 62
7
  6
CONTINUOUS
  0
LAYER
  2
18
 70
0
 62
7
  6
CONTINUOUS
  0
LAYER
  2
20
 70
0
 62
7
  6
CONTINUOUS
  0
ENDTAB
  0
TABLE
  2
STYLE
 70
1
  0
STYLE
  2
STANDARD
 70
64
 40
0.000000
 41
1.000000
 50
0.000000
 71
0
 42
1.000000
  3
txt
  4
BIGFONT
  0
ENDTAB
  0
ENDSEC
  0
SECTION
  2
BLOCKS
  0
BLOCK
  8
5
  2
*D0
 70
1
 10
0.000000
 20
0.000000
  0
TEXT
  8
5
 10
-464.863414
 20
630.264244
 40
16.500000
  1
165
 50
0.000000
 62
2
 41
1.400000
  0
LINE
  8
5
 62
2
 10
-530.038414
 20
603.502421
 11
-530.038414
 21
632.764244
  0
LINE
  8
5
 62
2
 10
-530.038414
 20
627.764244
 11
-520.379155
 21
625.176054
  0
LINE
  8
5
 62
2
 10
-530.038414
 20
627.764244
 11
-520.379155
 21
630.352435
  0
LINE
  8
5
 62
2
 10
-520.379155
 20
625.176054
 11
-520.379155
 21
630.352435
  0
LINE
  8
5
 62
2
 10
-530.038414
 20
627.764244
 11
-365.038414
 21
627.764244
  0
LINE
  8
5
 62
2
 10
-365.038414
 20
627.764244
 11
-374.697672
 21
630.352435
  0
LINE
  8
5
 62
2
 10
-365.038414
 20
627.764244
 11
-374.697672
 21
625.176054
  0
LINE
  8
5
 62
2
 10
-374.697672
 20
630.352435
 11
-374.697672
 21
625.176054
  0
LINE
  8
5
 62
2
 10
-365.038414
 20
375.253894
 11
-365.038414
 21
632.764244
  0
ENDBLK
  8
5
  0
BLOCK
  8
5
  2
*D1
 70
1
 10
0.000000
 20
0.000000
  0
TEXT
  8
5
 10
-658.863414
 20
630.264244
 40
16.500000
  1
223
 50
0.000000
 62
2
 41
1.400000
  0
LINE
  8
5
 62
2
 10
-753.038414
 20
551.253894
 11
-753.038414
 21
632.764244
  0
LINE
  8
5
 62
2
 10
-753.038414
 20
627.764244
 11
-743.379155
 21
625.176054
  0
LINE
  8
5
 62
2
 10
-753.038414
 20
627.764244
 11
-743.379155
 21
630.352435
  0
LINE
  8
5
 62
2
 10
-743.379155
 20
625.176054
 11
-743.379155
 21
630.352435
  0
LINE
  8
5
 62
2
 10
-753.038414
 20
627.764244
 11
-530.038414
 21
627.764244
  0
LINE
  8
5
 62
2
 10
-530.038414
 20
627.764244
 11
-539.697672
 21
630.352435
  0
LINE
  8
5
 62
2
 10
-530.038414
 20
627.764244
 11
-539.697672
 21
625.176054
  0
LINE
  8
5
 62
2
 10
-539.697672
 20
630.352435
 11
-539.697672
 21
625.176054
  0
LINE
  8
5
 62
2
 10
-530.038414
 20
603.502421
 11
-530.038414
 21
632.764244
  0
ENDBLK
  8
5
  0
BLOCK
  8
5
  2
*D2
 70
1
 10
0.000000
 20
0.000000
  0
TEXT
  8
5
 10
-220.146980
 20
10.553894
 40
16.500000
  1
%%c200
 50
90.000000
 62
2
 41
1.400000
  0
LINE
  8
5
 62
2
 10
-149.030454
 20
133.653894
 11
-222.646980
 21
133.653894
  0
LINE
  8
5
 62
2
 10
-217.646980
 20
133.653894
 11
-220.235171
 21
123.994636
  0
LINE
  8
5
 62
2
 10
-217.646980
 20
133.653894
 11
-215.058790
 21
123.994636
  0
LINE
  8
5
 62
2
 10
-220.235171
 20
123.994636
 11
-215.058790
 21
123.994636
  0
LINE
  8
5
 62
2
 10
-217.646980
 20
133.653894
 11
-217.646980
 21
-66.346106
  0
LINE
  8
5
 62
2
 10
-217.646980
 20
-66.346106
 11
-215.058790
 21
-56.686848
  0
LINE
  8
5
 62
2
 10
-217.646980
 20
-66.346106
 11
-220.235171
 21
-56.686848
  0
LINE
  8
5
 62
2
 10
-215.058790
 20
-56.686848
 11
-220.235171
 21
-56.686848
  0
LINE
  8
5
 62
2
 10
-149.030454
 20
-66.346106
 11
-222.646980
 21
-66.346106
  0
ENDBLK
  8
5
  0
BLOCK
  8
5
  2
*D3
 70
1
 10
0.000000
 20
0.000000
  0
TEXT
  8
5
 10
270.585365
 20
33.328894
 40
16.500000
  1
230
 50
90.000000
 62
2
 41
1.400000
  0
LINE
  8
5
 62
2
 10
162.461586
 20
-64.346106
 11
278.085365
 21
-64.346106
  0
LINE
  8
5
 62
2
 10
273.085365
 20
-64.346106
 11
275.673556
 21
-54.686848
  0
LINE
  8
5
 62
2
 10
273.085365
 20
-64.346106
 11
270.497175
 21
-54.686848
  0
LINE
  8
5
 62
2
 10
275.673556
 20
-54.686848
 11
270.497175
 21
-54.686848
  0
LINE
  8
5
 62
2
 10
273.085365
 20
-64.346106
 11
273.085365
 21
165.653894
  0
LINE
  8
5
 62
2
 10
273.085365
 20
165.653894
 11
270.497175
 21
155.994636
  0
LINE
  8
5
 62
2
 10
273.085365
 20
165.653894
 11
275.673556
 21
155.994636
  0
LINE
  8
5
 62
2
 10
270.497175
 20
155.994636
 11
275.673556
 21
155.994636
  0
LINE
  8
5
 62
2
 10
92.461586
 20
165.653894
 11
278.085365
 21
165.653894
  0
ENDBLK
  8
5
  0
BLOCK
  8
5
  2
*D4
 70
1
 10
0.000000
 20
0.000000
  0
TEXT
  8
5
 10
-247.734566
 20
309.628895
 40
16.500000
  1
245.5
 50
90.000000
 62
2
 41
1.400000
  0
LINE
  8
5
 62
2
 10
-391.983325
 20
215.753894
 11
-240.234566
 21
215.753894
  0
LINE
  8
5
 62
2
 10
-245.234566
 20
215.753894
 11
-242.646375
 21
225.413152
  0
LINE
  8
5
 62
2
 10
-245.234566
 20
215.753894
 11
-247.822756
 21
225.413152
  0
LINE
  8
5
 62
2
 10
-242.646375
 20
225.413152
 11
-247.822756
 21
225.413152
  0
LINE
  8
5
 62
2
 10
-245.234566
 20
215.753894
 11
-245.234566
 21
461.253894
  0
LINE
  8
5
 62
2
 10
-245.234566
 20
461.253894
 11
-247.822756
 21
451.594636
  0
LINE
  8
5
 62
2
 10
-245.234566
 20
461.253894
 11
-242.646375
 21
451.594636
  0
LINE
  8
5
 62
2
 10
-247.822756
 20
451.594636
 11
-242.646375
 21
451.594636
  0
LINE
  8
5
 62
2
 10
-266.973960
 20
461.253894
 11
-240.234566
 21
461.253894
  0
ENDBLK
  8
5
  0
BLOCK
  8
5
  2
*D5
 70
1
 10
0.000000
 20
0.000000
  0
TEXT
  8
5
 10
-247.734566
 20
511.928894
 40
16.500000
  1
136
 50
90.000000
 62
2
 41
1.400000
  0
LINE
  8
5
 62
2
 10
-266.973960
 20
461.253894
 11
-240.234566
 21
461.253894
  0
LINE
  8
5
 62
2
 10
-245.234566
 20
461.253894
 11
-242.646375
 21
470.913152
  0
LINE
  8
5
 62
2
 10
-245.234566
 20
461.253894
 11
-247.822756
 21
470.913152
  0
LINE
  8
5
 62
2
 10
-242.646375
 20
470.913152
 11
-247.822756
 21
470.913152
  0
LINE
  8
5
 62
2
 10
-245.234566
 20
461.253894
 11
-245.234566
 21
597.253894
  0
LINE
  8
5
 62
2
 10
-245.234566
 20
597.253894
 11
-247.822756
 21
587.594636
  0
LINE
  8
5
 62
2
 10
-245.234566
 20
597.253894
 11
-242.646375
 21
587.594636
  0
LINE
  8
5
 62
2
 10
-247.822756
 20
587.594636
 11
-242.646375
 21
587.594636
  0
LINE
  8
5
 62
2
 10
-468.120914
 20
597.253894
 11
-240.234566
 21
597.253894
  0
ENDBLK
  8
5
  0
BLOCK
  8
5
  2
*D6
 70
1
 10
0.000000
 20
0.000000
  0
TEXT
  8
5
 10
270.585365
 20
-527.171106
 40
16.500000
  1
297
 50
90.000000
 62
2
 41
1.400000
  0
LINE
  8
5
 62
2
 10
137.461586
 20
-658.346106
 11
278.085365
 21
-658.346106
  0
LINE
  8
5
 62
2
 10
273.085365
 20
-658.346106
 11
275.673556
 21
-648.686848
  0
LINE
  8
5
 62
2
 10
273.085365
 20
-658.346106
 11
270.497175
 21
-648.686848
  0
LINE
  8
5
 62
2
 10
275.673556
 20
-648.686848
 11
270.497175
 21
-648.686848
  0
LINE
  8
5
 62
2
 10
273.085365
 20
-658.346106
 11
273.085365
 21
-361.346106
  0
LINE
  8
5
 62
2
 10
273.085365
 20
-361.346106
 11
270.497175
 21
-371.005364
  0
LINE
  8
5
 62
2
 10
273.085365
 20
-361.346106
 11
275.673556
 21
-371.005364
  0
LINE
  8
5
 62
2
 10
270.497175
 20
-371.005364
 11
275.673556
 21
-371.005364
  0
LINE
  8
5
 62
2
 10
177.497315
 20
-361.346106
 11
278.085365
 21
-361.346106
  0
ENDBLK
  8
5
  0
BLOCK
  8
5
  2
*D7
 70
1
 10
0.000000
 20
0.000000
  0
TEXT
  8
5
 10
270.585365
 20
-230.171106
 40
16.500000
  1
297
 50
90.000000
 62
2
 41
1.400000
  0
LINE
  8
5
 62
2
 10
177.497315
 20
-361.346106
 11
278.085365
 21
-361.346106
  0
LINE
  8
5
 62
2
 10
273.085365
 20
-361.346106
 11
275.673556
 21
-351.686848
  0
LINE
  8
5
 62
2
 10
273.085365
 20
-361.346106
 11
270.497175
 21
-351.686848
  0
LINE
  8
5
 62
2
 10
275.673556
 20
-351.686848
 11
270.497175
 21
-351.686848
  0
LINE
  8
5
 62
2
 10
273.085365
 20
-361.346106
 11
273.085365
 21
-64.346106
  0
LINE
  8
5
 62
2
 10
273.085365
 20
-64.346106
 11
270.497175
 21
-74.005364
  0
LINE
  8
5
 62
2
 10
273.085365
 20
-64.346106
 11
275.673556
 21
-74.005364
  0
LINE
  8
5
 62
2
 10
270.497175
 20
-74.005364
 11
275.673556
 21
-74.005364
  0
LINE
  8
5
 62
2
 10
162.461586
 20
-64.346106
 11
278.085365
 21
-64.346106
  0
ENDBLK
  8
5
  0
BLOCK
  8
5
  2
*D8
 70
1
 10
0.000000
 20
0.000000
  0
TEXT
  8
5
 10
12.861587
 20
-593.544960
 40
16.500000
  1
78
 50
0.000000
 62
2
 41
1.400000
  0
LINE
  8
5
 62
2
 10
48.461586
 20
-547.846106
 11
48.461586
 21
-601.044960
  0
LINE
  8
5
 62
2
 10
48.461586
 20
-596.044960
 11
38.802328
 21
-593.456770
  0
LINE
  8
5
 62
2
 10
48.461586
 20
-596.044960
 11
38.802328
 21
-598.633150
  0
LINE
  8
5
 62
2
 10
38.802328
 20
-593.456770
 11
38.802328
 21
-598.633150
  0
LINE
  8
5
 62
2
 10
10.361587
 20
-596.044960
 11
151.461586
 21
-596.044960
  0
LINE
  8
5
 62
2
 10
126.461586
 20
-596.044960
 11
136.120845
 21
-598.633150
  0
LINE
  8
5
 62
2
 10
126.461586
 20
-596.044960
 11
136.120845
 21
-593.456770
  0
LINE
  8
5
 62
2
 10
136.120845
 20
-598.633150
 11
136.120845
 21
-593.456770
  0
LINE
  8
5
 62
2
 10
126.461586
 20
-547.846106
 11
126.461586
 21
-601.044960
  0
ENDBLK
  8
5
  0
ENDSEC
  0
SECTION
  2
ENTITIES
  0
LINE
  8
1
  6
DASHED
 10
-592.538414
 20
430.753894
 11
-592.538414
 21
491.753894
  0
LINE
  8
1
  6
DASHED
 10
-467.538414
 20
430.753894
 11
-467.538414
 21
491.753894
  0
LINE
  8
1
  6
DASHED
 10
-560.538414
 20
523.753894
 11
-499.538414
 21
523.753894
  0
LINE
  8
1
  6
DASHED
 10
-560.538414
 20
398.753894
 11
-499.538414
 21
398.753894
  0
ARC
  8
1
  6
DASHED
 10
-499.538414
 20
491.753894
 40
32.000000
 50
0.000000
 51
90.000000
  0
ARC
  8
1
  6
DASHED
 10
-560.538414
 20
491.753894
 40
32.000000
 50
90.000000
 51
180.000000
  0
ARC
  8
1
  6
DASHED
 10
-560.538414
 20
430.753894
 40
32.000000
 50
180.000000
 51
270.000000
  0
ARC
  8
1
  6
DASHED
 10
-499.538414
 20
430.753894
 40
32.000000
 50
270.000000
 51
360.000000
  0
CIRCLE
  8
1
  6
DASHED
 10
-485.844240
 20
505.448068
 40
6.500000
  0
CIRCLE
  8
1
  6
DASHED
 10
-574.232587
 20
505.448068
 40
6.500000
  0
CIRCLE
  8
1
  6
DASHED
 10
-485.844240
 20
417.059720
 40
6.500000
  0
CIRCLE
  8
1
  6
DASHED
 10
-574.232587
 20
417.059720
 40
6.500000
  0
LINE
  8
1
 10
-588.538414
 20
-80.346106
 11
-471.538414
 21
-80.346106
  0
LINE
  8
1
 10
-592.538414
 20
-76.346106
 11
-592.538414
 21
-64.346106
  0
LINE
  8
1
 10
-467.538414
 20
-76.346106
 11
-467.538414
 21
-64.346106
  0
ARC
  8
1
 10
-588.538414
 20
-76.346106
 40
4.000000
 50
180.000000
 51
270.000000
  0
ARC
  8
1
 10
-471.538414
 20
-76.346106
 40
4.000000
 50
270.000000
 51
360.000000
  0
ARC
  8
1
 10
-341.682877
 20
-310.876392
 40
11.500000
 50
157.196334
 51
232.803666
  0
ARC
  8
1
 10
-392.152591
 20
-223.460284
 40
11.500000
 50
187.196334
 51
262.803666
  0
ARC
  8
1
 10
-479.568700
 20
-172.990570
 40
11.500000
 50
217.196334
 51
292.803666
  0
ARC
  8
1
 10
-580.508127
 20
-172.990570
 40
11.500000
 50
247.196334
 51
322.803666
  0
ARC
  8
1
 10
-667.924236
 20
-223.460284
 40
11.500000
 50
277.196334
 51
352.803666
  0
ARC
  8
1
 10
-718.393950
 20
-310.876392
 40
11.500000
 50
307.196334
 51
22.803666
  0
ARC
  8
1
 10
-718.393950
 20
-411.815820
 40
11.500000
 50
337.196334
 51
52.803666
  0
ARC
  8
1
 10
-667.924236
 20
-499.231928
 40
11.500000
 50
7.196334
 51
82.803666
  0
ARC
  8
1
 10
-580.508127
 20
-549.701642
 40
11.500000
 50
37.196334
 51
112.803666
  0
ARC
  8
1
 10
-479.568700
 20
-549.701642
 40
11.500000
 50
67.196334
 51
142.803666
  0
ARC
  8
1
 10
-392.152591
 20
-499.231928
 40
11.500000
 50
97.196334
 51
172.803666
  0
ARC
  8
1
 10
-341.682877
 20
-411.815820
 40
11.500000
 50
127.196334
 51
202.803666
  0
ARC
  8
1
 10
-530.038414
 20
-361.346106
 40
187.000000
 50
17.975973
 51
42.024027
  0
ARC
  8
1
 10
-394.094272
 20
-238.838186
 40
4.000000
 50
42.024027
 51
82.803666
  0
ARC
  8
1
 10
-407.530493
 20
-225.401965
 40
4.000000
 50
7.196334
 51
47.975973
  0
ARC
  8
1
 10
-355.971372
 20
-304.868986
 40
4.000000
 50
337.196334
 51
17.975973
  0
ARC
  8
1
 10
-351.053374
 20
-323.223205
 40
4.000000
 50
12.024027
 51
52.803666
  0
ARC
  8
1
 10
-530.038414
 20
-361.346106
 40
187.000000
 50
47.975973
 51
72.024027
  0
ARC
  8
1
 10
-530.038414
 20
-361.346106
 40
187.000000
 50
77.975973
 51
102.024027
  0
ARC
  8
1
 10
-473.561294
 20
-187.279064
 40
4.000000
 50
72.024027
 51
112.803666
  0
ARC
  8
1
 10
-491.915513
 20
-182.361066
 40
4.000000
 50
37.196334
 51
77.975973
  0
ARC
  8
1
 10
-568.161314
 20
-182.361066
 40
4.000000
 50
102.024027
 51
142.803666
  0
ARC
  8
1
 10
-586.515533
 20
-187.279064
 40
4.000000
 50
67.196334
 51
107.975973
  0
ARC
  8
1
 10
-530.038414
 20
-361.346106
 40
187.000000
 50
107.975973
 51
132.024027
  0
ARC
  8
1
 10
-530.038414
 20
-361.346106
 40
187.000000
 50
137.975973
 51
162.024027
  0
ARC
  8
1
 10
-709.023453
 20
-323.223205
 40
4.000000
 50
127.196334
 51
167.975973
  0
ARC
  8
1
 10
-704.105455
 20
-304.868986
 40
4.000000
 50
162.024027
 51
202.803666
  0
ARC
  8
1
 10
-665.982555
 20
-238.838186
 40
4.000000
 50
97.196334
 51
137.975973
  0
ARC
  8
1
 10
-652.546334
 20
-225.401965
 40
4.000000
 50
132.024027
 51
172.803666
  0
ARC
  8
1
 10
-530.038414
 20
-361.346106
 40
187.000000
 50
167.975973
 51
192.024027
  0
ARC
  8
1
 10
-530.038414
 20
-361.346106
 40
187.000000
 50
197.975973
 51
222.024027
  0
ARC
  8
1
 10
-704.105455
 20
-417.823225
 40
4.000000
 50
157.196334
 51
197.975973
  0
ARC
  8
1
 10
-709.023453
 20
-399.469006
 40
4.000000
 50
192.024027
 51
232.803666
  0
ARC
  8
1
 10
-665.982555
 20
-483.854026
 40
4.000000
 50
222.024027
 51
262.803666
  0
ARC
  8
1
 10
-652.546334
 20
-497.290247
 40
4.000000
 50
187.196334
 51
227.975973
  0
ARC
  8
1
 10
-530.038414
 20
-361.346106
 40
187.000000
 50
227.975973
 51
252.024027
  0
ARC
  8
1
 10
-530.038414
 20
-361.346106
 40
187.000000
 50
257.975973
 51
282.024027
  0
ARC
  8
1
 10
-491.915513
 20
-540.331146
 40
4.000000
 50
282.024027
 51
322.803666
  0
ARC
  8
1
 10
-473.561294
 20
-535.413147
 40
4.000000
 50
247.196334
 51
287.975973
  0
ARC
  8
1
 10
-568.161314
 20
-540.331146
 40
4.000000
 50
217.196334
 51
257.975973
  0
ARC
  8
1
 10
-586.515533
 20
-535.413147
 40
4.000000
 50
252.024027
 51
292.803666
  0
ARC
  8
1
 10
-530.038414
 20
-361.346106
 40
187.000000
 50
347.975973
 51
12.024027
  0
ARC
  8
1
 10
-530.038414
 20
-361.346106
 40
187.000000
 50
287.975973
 51
312.024027
  0
ARC
  8
1
 10
-530.038414
 20
-361.346106
 40
187.000000
 50
317.975973
 51
342.024027
  0
ARC
  8
1
 10
-351.053374
 20
-399.469006
 40
4.000000
 50
307.196334
 51
347.975973
  0
ARC
  8
1
 10
-355.971372
 20
-417.823225
 40
4.000000
 50
342.024027
 51
22.803666
  0
ARC
  8
1
 10
-394.094272
 20
-483.854026
 40
4.000000
 50
277.196334
 51
317.975973
  0
ARC
  8
1
 10
-407.530493
 20
-497.290247
 40
4.000000
 50
312.024027
 51
352.803666
  0
LINE
  8
1
 10
-565.038414
 20
-115.346106
 11
-495.038414
 21
-115.346106
  0
LINE
  8
1
 10
-565.038414
 20
-144.185457
 11
-565.038414
 21
-117.627302
  0
LINE
  8
1
 10
-495.038414
 20
-144.185457
 11
-495.038414
 21
-117.627302
  0
LINE
  8
1
 10
-573.038414
 20
-104.064910
 11
-573.038414
 21
-85.346106
  0
LINE
  8
1
 10
-487.038414
 20
-104.064910
 11
-487.038414
 21
-85.346106
  0
LINE
  8
1
 10
-488.553958
 20
-108.051093
 11
-493.522869
 21
-113.641119
  0
LINE
  8
1
 10
-571.522869
 20
-108.051093
 11
-566.553958
 21
-113.641119
  0
ARC
  8
1
 10
-489.038414
 20
-117.627302
 40
6.000000
 50
138.366461
 51
180.000000
  0
ARC
  8
1
 10
-571.038414
 20
-117.627302
 40
6.000000
 50
360.000000
 51
41.633539
  0
ARC
  8
1
 10
-567.038414
 20
-104.064910
 40
6.000000
 50
180.000000
 51
221.633539
  0
ARC
  8
1
 10
-493.038414
 20
-104.064910
 40
6.000000
 50
318.366461
 51
0.000000
  0
ARC
  8
1
 10
-471.038414
 20
-96.339855
 40
16.000000
 50
91.432544
 51
180.000000
  0
ARC
  8
1
 10
-589.038414
 20
-96.339855
 40
16.000000
 50
0.000000
 51
88.567456
  0
ARC
  8
1
 10
-482.038414
 20
-85.346106
 40
5.000000
 50
90.000000
 51
180.000000
  0
ARC
  8
1
 10
-578.038414
 20
-85.346106
 40
5.000000
 50
360.000000
 51
90.000000
  0
LINE
  8
1
 10
-525.038414
 20
-96.339855
 11
-535.038414
 21
-96.339855
  0
LINE
  8
1
 10
-535.038414
 20
-93.339855
 11
-535.038414
 21
-83.346106
  0
LINE
  8
1
 10
-525.038414
 20
-93.339855
 11
-525.038414
 21
-83.346106
  0
ARC
  8
1
 10
-522.038414
 20
-93.339855
 40
3.000000
 50
180.000000
 51
270.000000
  0
ARC
  8
1
 10
-522.038414
 20
-83.346106
 40
3.000000
 50
90.000000
 51
180.000000
  0
ARC
  8
1
 10
-538.038414
 20
-83.346106
 40
3.000000
 50
0.000000
 51
90.000000
  0
ARC
  8
1
 10
-538.038414
 20
-93.339855
 40
3.000000
 50
270.000000
 51
360.000000
  0
LINE
  8
1
 10
-512.227230
 20
-85.346106
 11
-512.227230
 21
-102.714980
  0
LINE
  8
1
 10
-547.849597
 20
-85.346106
 11
-547.849597
 21
-102.714980
  0
ARC
  8
1
 10
-507.227230
 20
-85.346106
 40
5.000000
 50
90.000000
 51
180.000000
  0
ARC
  8
1
 10
-552.849597
 20
-85.346106
 40
5.000000
 50
0.000000
 51
90.000000
  0
LINE
  8
1
 10
-509.010383
 20
-108.030435
 11
-498.294715
 21
-113.641119
  0
LINE
  8
1
 10
-551.066444
 20
-108.030435
 11
-561.782112
 21
-113.641119
  0
ARC
  8
1
 10
-506.227230
 20
-102.714980
 40
6.000000
 50
180.000000
 51
242.363614
  0
ARC
  8
1
 10
-553.849597
 20
-102.714980
 40
6.000000
 50
297.636386
 51
0.000000
  0
LINE
  8
1
 10
-509.010383
 20
-106.346106
 11
-488.553958
 21
-106.346106
  0
LINE
  8
1
 10
-571.522869
 20
-106.346106
 11
-551.066444
 21
-106.346106
  0
LINE
  8
1
 10
-547.849597
 20
-106.346106
 11
-512.227230
 21
-106.346106
  0
ARC
  8
1
 10
-491.038414
 20
-165.185457
 40
13.000000
 50
133.602819
 51
258.755276
  0
ARC
  8
1
 10
-569.038414
 20
-165.185457
 40
13.000000
 50
281.244724
 51
46.397181
  0
ARC
  8
1
 10
-511.038414
 20
-144.185457
 40
16.000000
 50
313.602819
 51
360.000000
  0
ARC
  8
1
 10
-549.038414
 20
-144.185457
 40
16.000000
 50
180.000000
 51
226.397181
  0
LINE
  8
1
 10
-599.749603
 20
-178.454471
 11
-605.235962
 21
-157.979101
  0
LINE
  8
1
 10
-585.917445
 20
-132.802720
 11
-571.038414
 21
-132.802720
  0
ARC
  8
1
 10
-585.917445
 20
-152.802720
 40
20.000000
 50
90.000000
 51
195.000000
  0
ARC
  8
1
 10
-571.038414
 20
-126.802720
 40
6.000000
 50
270.000000
 51
0.000000
  0
ARC
  8
1
 10
-609.408861
 20
-181.042662
 40
10.000000
 50
293.759326
 51
15.000000
  0
ARC
  8
1
 10
-489.038414
 20
-126.802720
 40
6.000000
 50
180.000000
 51
270.000000
  0
LINE
  8
1
 10
-474.159382
 20
-132.802720
 11
-489.038414
 21
-132.802720
  0
ARC
  8
1
 10
-474.159382
 20
-152.802720
 40
20.000000
 50
345.000000
 51
90.000000
  0
LINE
  8
1
 10
-460.327224
 20
-178.454471
 11
-454.840865
 21
-157.979101
  0
ARC
  8
1
 10
-450.667966
 20
-181.042662
 40
10.000000
 50
165.000000
 51
246.240674
  0
CIRCLE
  8
1
 10
-569.056478
 20
-165.189050
 40
12.000000
  0
CIRCLE
  8
1
 10
-491.020349
 20
-165.189050
 40
12.000000
  0
LINE
  8
1
 10
-575.038414
 20
-658.346106
 11
-485.038414
 21
-658.346106
  0
LINE
  8
1
 10
-565.038414
 20
-578.506754
 11
-565.038414
 21
-605.064910
  0
LINE
  8
1
 10
-495.038414
 20
-578.506754
 11
-495.038414
 21
-605.064910
  0
ARC
  8
1
 10
-491.038414
 20
-557.506754
 40
13.000000
 50
101.244724
 51
226.397181
  0
ARC
  8
1
 10
-569.038414
 20
-557.506754
 40
13.000000
 50
313.602819
 51
78.755276
  0
ARC
  8
1
 10
-511.038414
 20
-578.506754
 40
16.000000
 50
0.000000
 51
46.397181
  0
ARC
  8
1
 10
-549.038414
 20
-578.506754
 40
16.000000
 50
133.602819
 51
180.000000
  0
LINE
  8
1
 10
-571.522869
 20
-616.346106
 11
-488.553958
 21
-616.346106
  0
LINE
  8
1
 10
-565.038414
 20
-607.346106
 11
-495.038414
 21
-607.346106
  0
LINE
  8
1
 10
-573.038414
 20
-634.703465
 11
-573.038414
 21
-618.627302
  0
LINE
  8
1
 10
-487.038414
 20
-634.703465
 11
-487.038414
 21
-618.627302
  0
LINE
  8
1
 10
-493.522869
 20
-609.051093
 11
-488.553958
 21
-614.641119
  0
LINE
  8
1
 10
-566.553958
 20
-609.051093
 11
-571.522869
 21
-614.641119
  0
ARC
  8
1
 10
-489.038414
 20
-605.064910
 40
6.000000
 50
180.000000
 51
221.633539
  0
ARC
  8
1
 10
-493.038414
 20
-618.627302
 40
6.000000
 50
0.000000
 51
41.633539
  0
ARC
  8
1
 10
-571.038414
 20
-605.064910
 40
6.000000
 50
318.366461
 51
360.000000
  0
ARC
  8
1
 10
-567.038414
 20
-618.627302
 40
6.000000
 50
138.366461
 51
180.000000
  0
LINE
  8
1
 10
-575.038414
 20
-658.346106
 11
-575.038414
 21
-639.188747
  0
LINE
  8
1
 10
-485.038414
 20
-658.346106
 11
-485.038414
 21
-639.188747
  0
LINE
  8
1
 10
-574.159734
 20
-637.946106
 11
-485.917093
 21
-637.946106
  0
LINE
  8
1
 10
-573.038414
 20
-635.946106
 11
-487.038414
 21
-635.946106
  0
LINE
  8
1
 10
-486.159734
 20
-636.824785
 11
-485.917093
 21
-637.067426
  0
LINE
  8
1
 10
-573.917093
 20
-636.824785
 11
-574.159734
 21
-637.067426
  0
ARC
  8
1
 10
-484.038414
 20
-634.703465
 40
3.000000
 50
180.000000
 51
225.000000
  0
ARC
  8
1
 10
-488.038414
 20
-639.188747
 40
3.000000
 50
0.000000
 51
45.000000
  0
ARC
  8
1
 10
-576.038414
 20
-634.703465
 40
3.000000
 50
315.000000
 51
0.000000
  0
ARC
  8
1
 10
-572.038414
 20
-639.188747
 40
3.000000
 50
135.000000
 51
180.000000
  0
LINE
  8
1
 10
-753.538414
 20
-383.346106
 11
-753.538414
 21
-339.346106
  0
LINE
  8
1
 10
-750.538414
 20
-336.346106
 11
-717.963931
 21
-336.346106
  0
LINE
  8
1
 10
-750.538414
 20
-386.346106
 11
-717.963931
 21
-386.346106
  0
ARC
  8
1
 10
-750.538414
 20
-339.346106
 40
3.000000
 50
90.000000
 51
180.000000
  0
ARC
  8
1
 10
-750.538414
 20
-383.346106
 40
3.000000
 50
180.000000
 51
270.000000
  0
LINE
  8
1
 10
-753.538414
 20
-361.346106
 11
-711.538414
 21
-361.346106
  0
LINE
  8
1
 10
-306.538414
 20
-383.346106
 11
-306.538414
 21
-339.346106
  0
LINE
  8
1
 10
-309.538414
 20
-336.346106
 11
-342.112896
 21
-336.346106
  0
LINE
  8
1
 10
-309.538414
 20
-386.346106
 11
-342.112896
 21
-386.346106
  0
ARC
  8
1
 10
-309.538414
 20
-339.346106
 40
3.000000
 50
0.000000
 51
90.000000
  0
ARC
  8
1
 10
-309.538414
 20
-383.346106
 40
3.000000
 50
270.000000
 51
360.000000
  0
LINE
  8
1
 10
-306.538414
 20
-361.346106
 11
-348.538414
 21
-361.346106
  0
LINE
  8
1
 10
-306.538414
 20
440.253894
 11
-306.538414
 21
482.253894
  0
LINE
  8
1
 10
-341.717071
 20
494.253894
 11
-318.538414
 21
494.253894
  0
LINE
  8
1
 10
-341.717071
 20
428.253894
 11
-318.538414
 21
428.253894
  0
ARC
  8
1
 10
-318.538414
 20
482.253894
 40
12.000000
 50
0.000000
 51
90.000000
  0
ARC
  8
1
 10
-318.538414
 20
440.253894
 40
12.000000
 50
270.000000
 51
360.000000
  0
ARC
  8
1
 10
-340.038414
 20
497.253894
 40
3.000000
 50
180.000000
 51
270.000000
  0
ARC
  8
1
 10
-340.038414
 20
425.253894
 40
3.000000
 50
90.000000
 51
180.000000
  0
ARC
  8
1
 10
-341.717071
 20
497.253894
 40
3.000000
 50
180.000000
 51
270.000000
  0
ARC
  8
1
 10
-341.717071
 20
425.253894
 40
3.000000
 50
90.000000
 51
180.000000
  0
LINE
  8
1
  6
DASHED
 10
-409.622468
 20
452.068849
 11
-409.622468
 21
470.438940
  0
LINE
  8
1
  6
DASHED
 10
-467.538414
 20
475.438940
 11
-414.622468
 21
475.438940
  0
LINE
  8
1
 10
-379.760293
 20
475.438940
 11
-361.886696
 21
475.438940
  0
LINE
  8
1
  6
DASHED
 10
-467.538414
 20
447.068849
 11
-414.622468
 21
447.068849
  0
LINE
  8
1
 10
-379.760293
 20
447.068849
 11
-361.886696
 21
447.068849
  0
ARC
  8
1
  6
DASHED
 10
-414.622468
 20
470.438940
 40
5.000000
 50
0.000000
 51
90.000000
  0
ARC
  8
1
  6
DASHED
 10
-414.622468
 20
452.068849
 40
5.000000
 50
270.000000
 51
360.000000
  0
LINE
  8
1
 10
-379.760293
 20
442.253894
 11
-379.760293
 21
480.253894
  0
LINE
  8
1
  6
DASHED
 10
-386.619447
 20
442.253894
 11
-386.619447
 21
480.253894
  0
LINE
  8
1
 10
-374.760293
 20
485.253894
 11
-351.971372
 21
485.253894
  0
LINE
  8
1
 10
-374.760293
 20
437.253894
 11
-351.971372
 21
437.253894
  0
ARC
  8
1
  6
DASHED
 10
-391.619447
 20
480.253894
 40
5.000000
 50
0.000000
 51
90.000000
  0
ARC
  8
1
  6
DASHED
 10
-391.619447
 20
442.253894
 40
5.000000
 50
270.000000
 51
360.000000
  0
ARC
  8
1
 10
-374.760293
 20
442.253894
 40
5.000000
 50
180.000000
 51
270.000000
  0
ARC
  8
1
 10
-374.760293
 20
480.253894
 40
5.000000
 50
90.000000
 51
180.000000
  0
LINE
  8
1
 10
-361.886696
 20
452.870977
 11
-361.886696
 21
469.636812
  0
LINE
  8
1
 10
-344.717071
 20
428.253894
 11
-344.717071
 21
434.352830
  0
LINE
  8
1
 10
-344.717071
 20
488.154958
 11
-344.717071
 21
494.253894
  0
LINE
  8
1
 10
-347.235664
 20
483.814150
 11
-356.849511
 21
478.318428
  0
LINE
  8
1
 10
-356.849511
 20
444.189360
 11
-347.235664
 21
438.693639
  0
ARC
  8
1
 10
-349.717071
 20
488.154958
 40
5.000000
 50
299.754289
 51
360.000000
  0
ARC
  8
1
 10
-349.717071
 20
434.352830
 40
5.000000
 50
360.000000
 51
60.245711
  0
ARC
  8
1
 10
-351.886696
 20
469.636812
 40
10.000000
 50
119.754289
 51
180.000000
  0
ARC
  8
1
 10
-351.886696
 20
452.870977
 40
10.000000
 50
180.000000
 51
240.245711
  0
LINE
  8
1
  6
DASHED
 10
-391.619447
 20
483.120489
 11
-409.622468
 21
475.438940
  0
LINE
  8
1
  6
DASHED
 10
-391.619447
 20
439.387300
 11
-409.622468
 21
447.068849
  0
ARC
  8
1
  6
DASHED
 10
-400.284319
 20
487.050481
 40
3.817313
 50
220.740630
 51
270.000000
  0
ARC
  8
1
  6
DASHED
 10
-400.284319
 20
500.359236
 40
17.126068
 50
270.000000
 51
296.254529
  0
LINE
  8
1
  6
DASHED
 10
-454.159382
 20
485.253894
 11
-404.691933
 21
485.253894
  0
ARC
  8
1
  6
DASHED
 10
-400.284319
 20
435.457307
 40
3.817313
 50
90.000000
 51
139.259370
  0
LINE
  8
1
  6
DASHED
 10
-467.538414
 20
437.253894
 11
-404.691933
 21
437.253894
  0
ARC
  8
1
  6
DASHED
 10
-404.691933
 20
483.253894
 40
2.000000
 50
40.740630
 51
90.000000
  0
ARC
  8
1
  6
DASHED
 10
-391.619447
 20
482.792114
 40
2.461780
 50
90.000000
 51
116.254529
  0
ARC
  8
1
  6
DASHED
 10
-404.691933
 20
439.253894
 40
2.000000
 50
270.000000
 51
319.259370
  0
ARC
  8
1
  6
DASHED
 10
-391.619447
 20
439.715674
 40
2.461780
 50
243.745471
 51
270.000000
  0
ARC
  8
1
  6
DASHED
 10
-400.284319
 20
422.148552
 40
17.126068
 50
63.745471
 51
90.000000
  0
LINE
  8
1
  6
DASHED
 10
-403.652427
 20
485.253894
 11
-403.652427
 21
497.253894
  0
LINE
  8
1
  6
DASHED
 10
-392.213951
 20
485.253894
 11
-392.213951
 21
497.253894
  0
LINE
  8
1
  6
DASHED
 10
-403.652427
 20
437.253894
 11
-403.652427
 21
425.253894
  0
LINE
  8
1
  6
DASHED
 10
-392.213951
 20
437.253894
 11
-392.213951
 21
425.253894
  0
LINE
  8
1
 10
-351.971372
 20
485.253894
 11
-351.971372
 21
497.253894
  0
LINE
  8
1
 10
-347.485934
 20
485.253894
 11
-347.485934
 21
497.253894
  0
ARC
  8
1
 10
-352.791024
 20
491.207360
 40
7.974192
 50
270.000000
 51
311.703999
  0
ARC
  8
1
 10
-351.482112
 20
483.625021
 40
1.700765
 50
106.718534
 51
180.000000
  0
ARC
  8
1
 10
-352.791024
 20
483.625021
 40
0.391853
 50
180.000000
 51
270.000000
  0
ARC
  8
1
 10
-351.482112
 20
438.882767
 40
1.700765
 50
180.000000
 51
253.281466
  0
ARC
  8
1
 10
-352.791024
 20
438.882767
 40
0.391853
 50
90.000000
 51
180.000000
  0
ARC
  8
1
 10
-352.791024
 20
431.300428
 40
7.974192
 50
48.296001
 51
90.000000
  0
LINE
  8
1
 10
-347.485934
 20
437.253894
 11
-347.485934
 21
425.253894
  0
LINE
  8
1
 10
-351.971372
 20
437.253894
 11
-351.971372
 21
425.253894
  0
CIRCLE
  8
1
 62
2
 10
-326.038414
 20
477.753894
 40
8.000000
  0
CIRCLE
  8
1
 10
-326.038414
 20
477.753894
 40
6.917500
  0
CIRCLE
  8
1
 62
2
 10
-326.038414
 20
444.753894
 40
8.000000
  0
CIRCLE
  8
1
 10
-326.038414
 20
444.753894
 40
6.917500
  0
LINE
  8
1
  6
DASHED
 10
-454.159382
 20
485.253894
 11
-454.159382
 21
491.253894
  0
LINE
  8
1
  6
DASHED
 10
-467.636219
 20
494.253894
 11
-457.159382
 21
494.253894
  0
LINE
  8
1
  6
DASHED
 10
-467.538414
 20
482.253894
 11
-457.159382
 21
482.253894
  0
ARC
  8
1
  6
DASHED
 10
-457.159382
 20
491.253894
 40
3.000000
 50
0.000000
 51
90.000000
  0
ARC
  8
1
  6
DASHED
 10
-457.159382
 20
485.253894
 40
3.000000
 50
270.000000
 51
360.000000
  0
LINE
  8
1
 10
123.461586
 20
-174.346106
 11
123.461586
 21
-548.346106
  0
LINE
  8
1
 10
101.646632
 20
-323.290550
 11
101.646632
 21
-268.530885
  0
LINE
  8
1
 10
101.646632
 20
-233.049403
 11
101.646632
 21
-201.118989
  0
LINE
  8
1
 10
73.276541
 20
-323.290550
 11
73.276541
 21
-268.530885
  0
LINE
  8
1
 10
73.276541
 20
-233.049403
 11
73.276541
 21
-201.118989
  0
LINE
  8
1
 10
111.461586
 20
-222.927139
 11
111.461586
 21
-193.136556
  0
LINE
  8
1
 10
63.461586
 20
-222.927139
 11
63.461586
 21
-183.279064
  0
ARC
  8
1
 10
113.258174
 20
-231.592011
 40
3.817313
 50
180.000000
 51
226.055799
  0
ARC
  8
1
 10
126.566929
 20
-231.592011
 40
17.126068
 50
153.745471
 51
180.000000
  0
ARC
  8
1
 10
108.999806
 20
-222.927139
 40
2.461780
 50
333.745471
 51
360.000000
  0
ARC
  8
1
 10
65.923367
 20
-222.927139
 40
2.461780
 50
180.000000
 51
206.254529
  0
ARC
  8
1
 10
48.356244
 20
-231.592011
 40
17.126068
 50
0.000000
 51
26.254529
  0
LINE
  8
1
 10
111.461586
 20
-234.960120
 11
123.461586
 21
-234.960120
  0
LINE
  8
1
 10
111.461586
 20
-223.521643
 11
123.461586
 21
-223.521643
  0
LINE
  8
1
 10
63.461586
 20
-234.960120
 11
51.461586
 21
-234.960120
  0
LINE
  8
1
 10
63.461586
 20
-223.521643
 11
51.461586
 21
-223.521643
  0
ARC
  8
1
 10
65.090459
 20
-182.789805
 40
1.700765
 50
196.718534
 51
270.000000
  0
ARC
  8
1
 10
65.090459
 20
-184.098717
 40
0.391853
 50
270.000000
 51
360.000000
  0
ARC
  8
1
 10
57.508121
 20
-184.098717
 40
7.974192
 50
0.000000
 51
41.703999
  0
LINE
  8
1
 10
63.461586
 20
-178.793627
 11
51.461586
 21
-178.793627
  0
LINE
  8
1
 10
63.461586
 20
-183.279064
 11
51.461586
 21
-183.279064
  0
LINE
  8
1
  6
DASHED
 10
-592.062214
 20
497.253894
 11
-717.038414
 21
497.253894
  0
LINE
  8
1
  6
DASHED
 10
-592.062214
 20
425.253894
 11
-717.038414
 21
425.253894
  0
LINE
  8
1
 10
-753.538414
 20
440.253894
 11
-753.538414
 21
482.253894
  0
LINE
  8
1
  6
DASHED
 10
-718.359756
 20
494.253894
 11
-741.538414
 21
494.253894
  0
LINE
  8
1
  6
DASHED
 10
-718.359756
 20
428.253894
 11
-741.538414
 21
428.253894
  0
ARC
  8
1
  6
DASHED
 10
-720.038414
 20
497.253894
 40
3.000000
 50
270.000000
 51
360.000000
  0
ARC
  8
1
  6
DASHED
 10
-720.038414
 20
425.253894
 40
3.000000
 50
0.000000
 51
90.000000
  0
ARC
  8
1
  6
DASHED
 10
-718.359756
 20
497.253894
 40
3.000000
 50
270.000000
 51
360.000000
  0
ARC
  8
1
  6
DASHED
 10
-718.359756
 20
425.253894
 40
3.000000
 50
0.000000
 51
90.000000
  0
LINE
  8
1
  6
DASHED
 10
-650.454359
 20
452.068849
 11
-650.454359
 21
470.438940
  0
LINE
  8
1
  6
DASHED
 10
-592.538414
 20
475.438940
 11
-645.454359
 21
475.438940
  0
LINE
  8
1
  6
DASHED
 10
-680.316534
 20
475.438940
 11
-698.190131
 21
475.438940
  0
LINE
  8
1
  6
DASHED
 10
-592.538414
 20
447.068849
 11
-645.454359
 21
447.068849
  0
LINE
  8
1
  6
DASHED
 10
-680.316534
 20
447.068849
 11
-698.190131
 21
447.068849
  0
ARC
  8
1
  6
DASHED
 10
-645.454359
 20
470.438940
 40
5.000000
 50
90.000000
 51
180.000000
  0
ARC
  8
1
  6
DASHED
 10
-645.454359
 20
452.068849
 40
5.000000
 50
180.000000
 51
270.000000
  0
LINE
  8
1
  6
DASHED
 10
-680.316534
 20
442.253894
 11
-680.316534
 21
480.253894
  0
LINE
  8
1
  6
DASHED
 10
-673.457380
 20
442.253894
 11
-673.457380
 21
480.253894
  0
LINE
  8
1
  6
DASHED
 10
-685.316534
 20
485.253894
 11
-708.105455
 21
485.253894
  0
LINE
  8
1
  6
DASHED
 10
-685.316534
 20
437.253894
 11
-708.105455
 21
437.253894
  0
ARC
  8
1
  6
DASHED
 10
-668.457380
 20
480.253894
 40
5.000000
 50
90.000000
 51
180.000000
  0
ARC
  8
1
  6
DASHED
 10
-668.457380
 20
442.253894
 40
5.000000
 50
180.000000
 51
270.000000
  0
ARC
  8
1
  6
DASHED
 10
-685.316534
 20
442.253894
 40
5.000000
 50
270.000000
 51
0.000000
  0
ARC
  8
1
  6
DASHED
 10
-685.316534
 20
480.253894
 40
5.000000
 50
360.000000
 51
90.000000
  0
LINE
  8
1
  6
DASHED
 10
-698.190131
 20
452.870977
 11
-698.190131
 21
469.636812
  0
LINE
  8
1
  6
DASHED
 10
-715.359756
 20
428.253894
 11
-715.359756
 21
434.352830
  0
LINE
  8
1
  6
DASHED
 10
-715.359756
 20
488.154958
 11
-715.359756
 21
494.253894
  0
LINE
  8
1
  6
DASHED
 10
-712.841164
 20
483.814150
 11
-703.227316
 21
478.318428
  0
LINE
  8
1
  6
DASHED
 10
-703.227316
 20
444.189360
 11
-712.841164
 21
438.693639
  0
ARC
  8
1
  6
DASHED
 10
-710.359756
 20
488.154958
 40
5.000000
 50
180.000000
 51
240.245711
  0
ARC
  8
1
  6
DASHED
 10
-710.359756
 20
434.352830
 40
5.000000
 50
119.754289
 51
180.000000
  0
ARC
  8
1
  6
DASHED
 10
-708.190131
 20
469.636812
 40
10.000000
 50
0.000000
 51
60.245711
  0
ARC
  8
1
  6
DASHED
 10
-708.190131
 20
452.870977
 40
10.000000
 50
299.754289
 51
360.000000
  0
LINE
  8
1
  6
DASHED
 10
-668.457380
 20
483.120489
 11
-650.454359
 21
475.438940
  0
LINE
  8
1
  6
DASHED
 10
-668.457380
 20
439.387300
 11
-650.454359
 21
447.068849
  0
ARC
  8
1
  6
DASHED
 10
-659.792508
 20
487.050481
 40
3.817313
 50
270.000000
 51
319.259370
  0
ARC
  8
1
  6
DASHED
 10
-659.792508
 20
500.359236
 40
17.126068
 50
243.745471
 51
270.000000
  0
LINE
  8
1
  6
DASHED
 10
-605.917445
 20
485.253894
 11
-655.384894
 21
485.253894
  0
ARC
  8
1
  6
DASHED
 10
-659.792508
 20
435.457307
 40
3.817313
 50
40.740630
 51
90.000000
  0
LINE
  8
1
  6
DASHED
 10
-592.538414
 20
437.253894
 11
-655.384894
 21
437.253894
  0
ARC
  8
1
  6
DASHED
 10
-655.384894
 20
483.253894
 40
2.000000
 50
90.000000
 51
139.259370
  0
ARC
  8
1
  6
DASHED
 10
-668.457380
 20
482.792114
 40
2.461780
 50
63.745471
 51
90.000000
  0
ARC
  8
1
  6
DASHED
 10
-655.384894
 20
439.253894
 40
2.000000
 50
220.740630
 51
270.000000
  0
ARC
  8
1
  6
DASHED
 10
-668.457380
 20
439.715674
 40
2.461780
 50
270.000000
 51
296.254529
  0
ARC
  8
1
  6
DASHED
 10
-659.792508
 20
422.148552
 40
17.126068
 50
90.000000
 51
116.254529
  0
LINE
  8
1
  6
DASHED
 10
-656.424400
 20
485.253894
 11
-656.424400
 21
497.253894
  0
LINE
  8
1
  6
DASHED
 10
-667.862876
 20
485.253894
 11
-667.862876
 21
497.253894
  0
LINE
  8
1
  6
DASHED
 10
-656.424400
 20
437.253894
 11
-656.424400
 21
425.253894
  0
LINE
  8
1
  6
DASHED
 10
-667.862876
 20
437.253894
 11
-667.862876
 21
425.253894
  0
LINE
  8
1
  6
DASHED
 10
-708.105455
 20
485.253894
 11
-708.105455
 21
497.253894
  0
LINE
  8
1
  6
DASHED
 10
-712.590893
 20
485.253894
 11
-712.590893
 21
497.253894
  0
ARC
  8
1
  6
DASHED
 10
-707.285803
 20
491.207360
 40
7.974192
 50
228.296001
 51
270.000000
  0
ARC
  8
1
  6
DASHED
 10
-708.594715
 20
483.625021
 40
1.700765
 50
0.000000
 51
73.281466
  0
ARC
  8
1
  6
DASHED
 10
-707.285803
 20
483.625021
 40
0.391853
 50
270.000000
 51
360.000000
  0
ARC
  8
1
  6
DASHED
 10
-708.594715
 20
438.882767
 40
1.700765
 50
286.718534
 51
360.000000
  0
ARC
  8
1
  6
DASHED
 10
-707.285803
 20
438.882767
 40
0.391853
 50
0.000000
 51
90.000000
  0
ARC
  8
1
  6
DASHED
 10
-707.285803
 20
431.300428
 40
7.974192
 50
90.000000
 51
131.703999
  0
LINE
  8
1
  6
DASHED
 10
-712.590893
 20
437.253894
 11
-712.590893
 21
425.253894
  0
LINE
  8
1
  6
DASHED
 10
-708.105455
 20
437.253894
 11
-708.105455
 21
425.253894
  0
CIRCLE
  8
1
  6
DASHED
 62
2
 10
-734.038414
 20
477.753894
 40
8.000000
  0
CIRCLE
  8
1
  6
DASHED
 10
-734.038414
 20
477.753894
 40
6.917500
  0
CIRCLE
  8
1
  6
DASHED
 62
2
 10
-734.038414
 20
444.753894
 40
8.000000
  0
CIRCLE
  8
1
  6
DASHED
 10
-734.038414
 20
444.753894
 40
6.917500
  0
LINE
  8
1
  6
DASHED
 10
-605.917445
 20
485.253894
 11
-605.917445
 21
491.253894
  0
LINE
  8
1
  6
DASHED
 10
-592.440608
 20
494.253894
 11
-602.917445
 21
494.253894
  0
LINE
  8
1
  6
DASHED
 10
-592.538414
 20
482.253894
 11
-602.917445
 21
482.253894
  0
ARC
  8
1
  6
DASHED
 10
-602.917445
 20
491.253894
 40
3.000000
 50
90.000000
 51
180.000000
  0
ARC
  8
1
  6
DASHED
 10
-602.917445
 20
485.253894
 40
3.000000
 50
180.000000
 51
270.000000
  0
LINE
  8
1
 10
78.276541
 20
-263.530885
 11
96.646632
 21
-263.530885
  0
ARC
  8
1
 10
96.646632
 20
-268.530885
 40
5.000000
 50
360.000000
 51
90.000000
  0
ARC
  8
1
 10
78.276541
 20
-268.530885
 40
5.000000
 50
90.000000
 51
180.000000
  0
LINE
  8
1
 10
68.461586
 20
-251.346106
 11
106.461586
 21
-251.346106
  0
ARC
  8
1
 10
106.461586
 20
-256.346106
 40
5.000000
 50
0.000000
 51
90.000000
  0
ARC
  8
1
 10
68.461586
 20
-256.346106
 40
5.000000
 50
90.000000
 51
180.000000
  0
LINE
  8
1
 10
68.461586
 20
-241.346106
 11
106.461586
 21
-241.346106
  0
ARC
  8
1
 10
106.461586
 20
-236.346106
 40
5.000000
 50
270.000000
 51
360.000000
  0
ARC
  8
1
 10
68.461586
 20
-236.346106
 40
5.000000
 50
180.000000
 51
270.000000
  0
ARC
  8
1
 10
108.676137
 20
-236.346106
 40
2.785449
 50
0.000000
 51
46.055799
  0
ARC
  8
1
 10
66.247036
 20
-236.346106
 40
2.785449
 50
133.944201
 51
180.000000
  0
ARC
  8
1
 10
61.664999
 20
-231.592011
 40
3.817313
 50
313.944201
 51
360.000000
  0
LINE
  8
1
 10
78.276541
 20
-238.049403
 11
96.646632
 21
-238.049403
  0
ARC
  8
1
 10
96.646632
 20
-233.049403
 40
5.000000
 50
270.000000
 51
360.000000
  0
ARC
  8
1
 10
78.276541
 20
-233.049403
 40
5.000000
 50
180.000000
 51
270.000000
  0
LINE
  8
1
 10
107.434039
 20
-256.346106
 11
101.646632
 21
-263.530885
  0
LINE
  8
1
 10
106.461586
 20
-239.666677
 11
101.646632
 21
-238.049403
  0
LINE
  8
1
 10
68.461586
 20
-239.666677
 11
73.276541
 21
-238.049403
  0
LINE
  8
1
 10
67.489134
 20
-256.346106
 11
73.276541
 21
-263.530885
  0
LINE
  8
1
 10
51.461586
 20
-305.179613
 11
63.461586
 21
-305.179613
  0
LINE
  8
1
 10
51.461586
 20
-320.804863
 11
63.461586
 21
-320.804863
  0
ARC
  8
1
 10
45.858746
 20
-313.852811
 40
19.623567
 50
0.000000
 51
26.230197
  0
ARC
  8
1
 10
52.513123
 20
-313.852811
 40
12.969189
 50
327.585283
 51
360.000000
  0
LINE
  8
1
 10
63.461586
 20
-331.346106
 11
63.461586
 21
-320.804863
  0
LINE
  8
1
 10
63.461586
 20
-305.179613
 11
63.461586
 21
-256.346106
  0
ARC
  8
1
 10
129.064427
 20
-313.852811
 40
19.623567
 50
153.769803
 51
180.000000
  0
ARC
  8
1
 10
122.410050
 20
-313.852811
 40
12.969189
 50
180.000000
 51
212.414717
  0
LINE
  8
1
 10
123.461586
 20
-305.179613
 11
111.461586
 21
-305.179613
  0
LINE
  8
1
 10
123.461586
 20
-320.804863
 11
111.461586
 21
-320.804863
  0
LINE
  8
1
 10
111.461586
 20
-331.346106
 11
111.461586
 21
-320.804863
  0
LINE
  8
1
 10
111.461586
 20
-305.179613
 11
111.461586
 21
-256.346106
  0
LINE
  8
1
 10
78.276541
 20
-328.290550
 11
96.646632
 21
-328.290550
  0
ARC
  8
1
 10
78.276541
 20
-323.290550
 40
5.000000
 50
180.000000
 51
270.000000
  0
ARC
  8
1
 10
96.646632
 20
-323.290550
 40
5.000000
 50
270.000000
 51
0.000000
  0
LINE
  8
1
 10
57.461586
 20
-336.346106
 11
117.461586
 21
-336.346106
  0
LINE
  8
1
 10
54.461586
 20
-339.346106
 11
54.461586
 21
-383.346106
  0
LINE
  8
1
 10
120.461586
 20
-339.346106
 11
120.461586
 21
-383.346106
  0
ARC
  8
1
 10
117.461586
 20
-339.346106
 40
3.000000
 50
0.000000
 51
90.000000
  0
ARC
  8
1
 10
57.461586
 20
-339.346106
 40
3.000000
 50
90.000000
 51
180.000000
  0
ARC
  8
1
 10
106.461586
 20
-331.346106
 40
5.000000
 50
270.000000
 51
360.000000
  0
ARC
  8
1
 10
68.461586
 20
-331.346106
 40
5.000000
 50
180.000000
 51
270.000000
  0
LINE
  8
1
 10
101.646632
 20
-328.290550
 11
106.461586
 21
-332.242391
  0
LINE
  8
1
 10
73.276541
 20
-328.290550
 11
68.461586
 21
-332.242391
  0
LINE
  8
1
 10
28.961586
 20
-80.346106
 11
145.961586
 21
-80.346106
  0
LINE
  8
1
 10
24.961586
 20
-76.346106
 11
24.961586
 21
-64.346106
  0
LINE
  8
1
 10
149.961586
 20
-76.346106
 11
149.961586
 21
-64.346106
  0
ARC
  8
1
 10
28.961586
 20
-76.346106
 40
4.000000
 50
180.000000
 51
270.000000
  0
ARC
  8
1
 10
145.961586
 20
-76.346106
 40
4.000000
 50
270.000000
 51
360.000000
  0
LINE
  8
1
 10
44.461586
 20
-103.673931
 11
44.461586
 21
-85.346106
  0
LINE
  8
1
 10
130.461586
 20
-103.673931
 11
130.461586
 21
-85.346106
  0
ARC
  8
1
 10
146.461586
 20
-96.339855
 40
16.000000
 50
91.432544
 51
180.000000
  0
ARC
  8
1
 10
28.461586
 20
-96.339855
 40
16.000000
 50
0.000000
 51
88.567456
  0
ARC
  8
1
 10
135.461586
 20
-85.346106
 40
5.000000
 50
90.000000
 51
180.000000
  0
ARC
  8
1
 10
39.461586
 20
-85.346106
 40
5.000000
 50
360.000000
 51
90.000000
  0
LINE
  8
1
 10
92.461586
 20
-96.339855
 11
82.461586
 21
-96.339855
  0
LINE
  8
1
 10
82.461586
 20
-93.339855
 11
82.461586
 21
-83.346106
  0
LINE
  8
1
 10
92.461586
 20
-93.339855
 11
92.461586
 21
-83.346106
  0
ARC
  8
1
 10
95.461586
 20
-93.339855
 40
3.000000
 50
180.000000
 51
270.000000
  0
ARC
  8
1
 10
95.461586
 20
-83.346106
 40
3.000000
 50
90.000000
 51
180.000000
  0
ARC
  8
1
 10
79.461586
 20
-83.346106
 40
3.000000
 50
0.000000
 51
90.000000
  0
ARC
  8
1
 10
79.461586
 20
-93.339855
 40
3.000000
 50
270.000000
 51
360.000000
  0
LINE
  8
1
 10
105.272770
 20
-85.346106
 11
105.272770
 21
-102.927130
  0
LINE
  8
1
 10
69.650403
 20
-85.346106
 11
69.650403
 21
-102.927130
  0
ARC
  8
1
 10
110.272770
 20
-85.346106
 40
5.000000
 50
90.000000
 51
180.000000
  0
ARC
  8
1
 10
64.650403
 20
-85.346106
 40
5.000000
 50
0.000000
 51
90.000000
  0
LINE
  8
1
 10
108.214152
 20
-106.346106
 11
128.475375
 21
-106.346106
  0
LINE
  8
1
 10
46.447798
 20
-106.346106
 11
66.709021
 21
-106.346106
  0
LINE
  8
1
 10
69.650403
 20
-106.346106
 11
105.272770
 21
-106.346106
  0
LINE
  8
1
 10
54.461586
 20
-118.018280
 11
54.461586
 21
-174.935900
  0
LINE
  8
1
 10
120.461586
 20
-118.018280
 11
120.461586
 21
-187.195121
  0
LINE
  8
1
 10
54.461586
 20
-115.346106
 11
120.461586
 21
-115.346106
  0
LINE
  8
1
 10
128.475375
 20
-108.133696
 11
122.447798
 21
-113.558515
  0
LINE
  8
1
 10
46.447798
 20
-108.133696
 11
52.475375
 21
-113.558515
  0
ARC
  8
1
 10
126.461586
 20
-118.018280
 40
6.000000
 50
131.987212
 51
180.000000
  0
ARC
  8
1
 10
124.461586
 20
-103.673931
 40
6.000000
 50
311.987212
 51
360.000000
  0
ARC
  8
1
 10
48.461586
 20
-118.018280
 40
6.000000
 50
0.000000
 51
48.012788
  0
ARC
  8
1
 10
50.461586
 20
-103.673931
 40
6.000000
 50
180.000000
 51
228.012788
  0
LINE
  8
1
 10
108.214152
 20
-108.088996
 11
117.444766
 21
-113.558515
  0
LINE
  8
1
 10
66.709021
 20
-108.088996
 11
57.478407
 21
-113.558515
  0
ARC
  8
1
 10
111.272770
 20
-102.927130
 40
6.000000
 50
180.000000
 51
239.351511
  0
ARC
  8
1
 10
63.650403
 20
-102.927130
 40
6.000000
 50
300.648489
 51
360.000000
  0
ARC
  8
1
 10
123.461586
 20
-171.346106
 40
3.000000
 50
180.000000
 51
270.000000
  0
ARC
  8
1
 10
51.461586
 20
-171.346106
 40
3.000000
 50
270.000000
 51
0.000000
  0
ARC
  8
1
 10
51.461586
 20
-174.935900
 40
3.000000
 50
270.000000
 51
0.000000
  0
LINE
  8
1
 10
78.276541
 20
-196.118989
 11
96.646632
 21
-196.118989
  0
LINE
  8
1
 10
64.311744
 20
-179.510893
 11
73.276541
 21
-196.118989
  0
LINE
  8
1
 10
105.461586
 20
-177.935900
 11
54.461586
 21
-177.935900
  0
ARC
  8
1
 10
96.646632
 20
-201.118989
 40
5.000000
 50
0.000000
 51
90.000000
  0
ARC
  8
1
 10
78.276541
 20
-201.118989
 40
5.000000
 50
90.000000
 51
180.000000
  0
ARC
  8
1
 10
123.461586
 20
-187.195121
 40
3.000000
 50
180.000000
 51
270.000000
  0
ARC
  8
1
 10
123.461586
 20
-175.793627
 40
3.000000
 50
180.000000
 51
270.000000
  0
ARC
  8
1
 10
123.461586
 20
-180.279064
 40
3.000000
 50
180.000000
 51
270.000000
  0
LINE
  8
1
 10
108.461586
 20
-129.802720
 11
108.461586
 21
-193.614070
  0
LINE
  8
1
 10
111.461586
 20
-132.802720
 11
117.461586
 21
-132.802720
  0
ARC
  8
1
 10
117.461586
 20
-135.802720
 40
3.000000
 50
0.000000
 51
90.000000
  0
ARC
  8
1
 10
111.461586
 20
-135.802720
 40
3.000000
 50
90.000000
 51
180.000000
  0
LINE
  8
1
 10
108.461586
 20
-126.802720
 11
120.461586
 21
-126.802720
  0
ARC
  8
1
 10
105.461586
 20
-129.802720
 40
3.000000
 50
0.000000
 51
90.000000
  0
LINE
  8
1
 10
114.880603
 20
-190.195121
 11
123.461586
 21
-190.195121
  0
LINE
  8
1
 10
109.718706
 20
-193.136556
 11
108.461586
 21
-195.258180
  0
ARC
  8
1
 10
114.880603
 20
-196.195121
 40
6.000000
 50
90.000000
 51
149.352106
  0
ARC
  8
1
 10
105.461586
 20
-174.935900
 40
3.000000
 50
270.000000
 51
0.000000
  0
LINE
  8
1
 10
106.697807
 20
-182.641867
 11
101.646632
 21
-196.118989
  0
ARC
  8
1
 10
102.461586
 20
-193.614070
 40
6.000000
 50
329.352106
 51
360.000000
  0
LINE
  8
1
 10
51.461586
 20
-548.346106
 11
51.461586
 21
-174.346106
  0
LINE
  8
1
 10
101.646632
 20
-399.401661
 11
101.646632
 21
-454.161327
  0
LINE
  8
1
 10
101.646632
 20
-489.642809
 11
101.646632
 21
-521.573222
  0
LINE
  8
1
 10
73.276541
 20
-399.401661
 11
73.276541
 21
-454.161327
  0
LINE
  8
1
 10
73.276541
 20
-489.642809
 11
73.276541
 21
-521.573222
  0
LINE
  8
1
 10
63.461586
 20
-499.765072
 11
63.461586
 21
-539.413147
  0
ARC
  8
1
 10
113.258174
 20
-491.100200
 40
3.817313
 50
133.944201
 51
180.000000
  0
ARC
  8
1
 10
126.566929
 20
-491.100200
 40
17.126068
 50
180.000000
 51
206.254529
  0
ARC
  8
1
 10
108.999806
 20
-499.765072
 40
2.461780
 50
0.000000
 51
26.254529
  0
ARC
  8
1
 10
65.923367
 20
-499.765072
 40
2.461780
 50
153.745471
 51
180.000000
  0
ARC
  8
1
 10
48.356244
 20
-491.100200
 40
17.126068
 50
333.745471
 51
360.000000
  0
LINE
  8
1
 10
111.461586
 20
-487.732092
 11
123.461586
 21
-487.732092
  0
LINE
  8
1
 10
111.461586
 20
-499.170569
 11
123.461586
 21
-499.170569
  0
LINE
  8
1
 10
63.461586
 20
-487.732092
 11
51.461586
 21
-487.732092
  0
LINE
  8
1
 10
63.461586
 20
-499.170569
 11
51.461586
 21
-499.170569
  0
ARC
  8
1
 10
65.090459
 20
-539.902407
 40
1.700765
 50
90.000000
 51
163.281466
  0
ARC
  8
1
 10
65.090459
 20
-538.593495
 40
0.391853
 50
0.000000
 51
90.000000
  0
ARC
  8
1
 10
57.508121
 20
-538.593495
 40
7.974192
 50
318.296001
 51
360.000000
  0
LINE
  8
1
 10
63.461586
 20
-543.898585
 11
51.461586
 21
-543.898585
  0
LINE
  8
1
 10
63.461586
 20
-539.413147
 11
51.461586
 21
-539.413147
  0
LINE
  8
1
 10
78.276541
 20
-459.161327
 11
96.646632
 21
-459.161327
  0
ARC
  8
1
 10
96.646632
 20
-454.161327
 40
5.000000
 50
270.000000
 51
0.000000
  0
ARC
  8
1
 10
78.276541
 20
-454.161327
 40
5.000000
 50
180.000000
 51
270.000000
  0
LINE
  8
1
 10
68.461586
 20
-471.346106
 11
106.461586
 21
-471.346106
  0
ARC
  8
1
 10
106.461586
 20
-466.346106
 40
5.000000
 50
270.000000
 51
360.000000
  0
ARC
  8
1
 10
68.461586
 20
-466.346106
 40
5.000000
 50
180.000000
 51
270.000000
  0
LINE
  8
1
 10
68.461586
 20
-481.346106
 11
106.461586
 21
-481.346106
  0
ARC
  8
1
 10
106.461586
 20
-486.346106
 40
5.000000
 50
0.000000
 51
90.000000
  0
ARC
  8
1
 10
68.461586
 20
-486.346106
 40
5.000000
 50
90.000000
 51
180.000000
  0
ARC
  8
1
 10
108.676137
 20
-486.346106
 40
2.785449
 50
313.944201
 51
360.000000
  0
ARC
  8
1
 10
66.247036
 20
-486.346106
 40
2.785449
 50
180.000000
 51
226.055799
  0
ARC
  8
1
 10
61.664999
 20
-491.100200
 40
3.817313
 50
0.000000
 51
46.055799
  0
LINE
  8
1
 10
78.276541
 20
-484.642809
 11
96.646632
 21
-484.642809
  0
ARC
  8
1
 10
96.646632
 20
-489.642809
 40
5.000000
 50
0.000000
 51
90.000000
  0
ARC
  8
1
 10
78.276541
 20
-489.642809
 40
5.000000
 50
90.000000
 51
180.000000
  0
LINE
  8
1
 10
107.434039
 20
-466.346106
 11
101.646632
 21
-459.161327
  0
LINE
  8
1
 10
106.461586
 20
-483.025535
 11
101.646632
 21
-484.642809
  0
LINE
  8
1
 10
68.461586
 20
-483.025535
 11
73.276541
 21
-484.642809
  0
LINE
  8
1
 10
67.489134
 20
-466.346106
 11
73.276541
 21
-459.161327
  0
LINE
  8
1
 10
51.461586
 20
-417.512599
 11
63.461586
 21
-417.512599
  0
LINE
  8
1
 10
51.461586
 20
-401.887349
 11
63.461586
 21
-401.887349
  0
ARC
  8
1
 10
45.858746
 20
-408.839401
 40
19.623567
 50
333.769803
 51
360.000000
  0
ARC
  8
1
 10
52.513123
 20
-408.839401
 40
12.969189
 50
0.000000
 51
32.414717
  0
LINE
  8
1
 10
63.461586
 20
-391.346106
 11
63.461586
 21
-401.887349
  0
LINE
  8
1
 10
63.461586
 20
-417.512599
 11
63.461586
 21
-466.346106
  0
ARC
  8
1
 10
129.064427
 20
-408.839401
 40
19.623567
 50
180.000000
 51
206.230197
  0
ARC
  8
1
 10
122.410050
 20
-408.839401
 40
12.969189
 50
147.585283
 51
180.000000
  0
LINE
  8
1
 10
123.461586
 20
-417.512599
 11
111.461586
 21
-417.512599
  0
LINE
  8
1
 10
123.461586
 20
-401.887349
 11
111.461586
 21
-401.887349
  0
LINE
  8
1
 10
111.461586
 20
-391.346106
 11
111.461586
 21
-401.887349
  0
LINE
  8
1
 10
111.461586
 20
-417.512599
 11
111.461586
 21
-466.346106
  0
LINE
  8
1
 10
78.276541
 20
-394.401661
 11
96.646632
 21
-394.401661
  0
ARC
  8
1
 10
78.276541
 20
-399.401661
 40
5.000000
 50
90.000000
 51
180.000000
  0
ARC
  8
1
 10
96.646632
 20
-399.401661
 40
5.000000
 50
360.000000
 51
90.000000
  0
LINE
  8
1
 10
57.461586
 20
-386.346106
 11
117.461586
 21
-386.346106
  0
ARC
  8
1
 10
117.461586
 20
-383.346106
 40
3.000000
 50
270.000000
 51
360.000000
  0
ARC
  8
1
 10
57.461586
 20
-383.346106
 40
3.000000
 50
180.000000
 51
270.000000
  0
ARC
  8
1
 10
106.461586
 20
-391.346106
 40
5.000000
 50
0.000000
 51
90.000000
  0
ARC
  8
1
 10
68.461586
 20
-391.346106
 40
5.000000
 50
90.000000
 51
180.000000
  0
LINE
  8
1
 10
101.646632
 20
-394.401661
 11
106.461586
 21
-390.449821
  0
LINE
  8
1
 10
73.276541
 20
-394.401661
 11
68.461586
 21
-390.449821
  0
LINE
  8
1
 10
54.461586
 20
-604.673931
 11
54.461586
 21
-547.756312
  0
LINE
  8
1
 10
120.461586
 20
-604.673931
 11
120.461586
 21
-547.756312
  0
ARC
  8
1
 10
123.461586
 20
-551.346106
 40
3.000000
 50
90.000000
 51
180.000000
  0
ARC
  8
1
 10
51.461586
 20
-551.346106
 40
3.000000
 50
360.000000
 51
90.000000
  0
ARC
  8
1
 10
51.461586
 20
-547.756312
 40
3.000000
 50
360.000000
 51
90.000000
  0
LINE
  8
1
 10
78.276541
 20
-526.573222
 11
96.646632
 21
-526.573222
  0
LINE
  8
1
 10
64.311744
 20
-543.181319
 11
73.276541
 21
-526.573222
  0
LINE
  8
1
 10
120.461586
 20
-544.756312
 11
54.461586
 21
-544.756312
  0
ARC
  8
1
 10
96.646632
 20
-521.573222
 40
5.000000
 50
270.000000
 51
360.000000
  0
ARC
  8
1
 10
78.276541
 20
-521.573222
 40
5.000000
 50
180.000000
 51
270.000000
  0
ARC
  8
1
 10
123.461586
 20
-547.756312
 40
3.000000
 50
90.000000
 51
180.000000
  0
LINE
  8
1
 10
123.461586
 20
-361.346106
 11
51.461586
 21
-361.346106
  0
LINE
  8
1
 10
111.461586
 20
-499.765072
 11
111.461586
 21
-539.413147
  0
ARC
  8
1
 10
109.832714
 20
-539.902407
 40
1.700765
 50
16.718534
 51
90.000000
  0
ARC
  8
1
 10
109.832714
 20
-538.593495
 40
0.391853
 50
90.000000
 51
180.000000
  0
ARC
  8
1
 10
117.415052
 20
-538.593495
 40
7.974192
 50
180.000000
 51
221.703999
  0
LINE
  8
1
 10
111.461586
 20
-543.898585
 11
123.461586
 21
-543.898585
  0
LINE
  8
1
 10
111.461586
 20
-539.413147
 11
123.461586
 21
-539.413147
  0
LINE
  8
1
 10
110.611429
 20
-543.181319
 11
101.646632
 21
-526.573222
  0
LINE
  8
1
 10
66.461586
 20
-152.816141
 11
108.461586
 21
-152.816141
  0
ARC
  8
1
 10
67.236183
 20
-165.185457
 40
12.393547
 50
93.583322
 51
180.000000
  0
ARC
  8
1
 10
67.593079
 20
-165.185457
 40
12.750442
 50
180.000000
 51
270.000000
  0
LINE
  8
1
 10
66.461586
 20
-569.876071
 11
108.461586
 21
-569.876071
  0
ARC
  8
1
 10
67.236183
 20
-557.506754
 40
12.393547
 50
180.000000
 51
266.416678
  0
ARC
  8
1
 10
67.593079
 20
-557.506754
 40
12.750442
 50
90.000000
 51
180.000000
  0
LINE
  8
1
 10
105.461586
 20
-544.756312
 11
54.461586
 21
-544.756312
  0
ARC
  8
1
 10
107.686990
 20
-557.506754
 40
12.393547
 50
273.583322
 51
360.000000
  0
ARC
  8
1
 10
107.330094
 20
-557.506754
 40
12.750442
 50
0.000000
 51
90.000000
  0
LINE
  8
1
 10
42.461586
 20
-658.346106
 11
132.461586
 21
-658.346106
  0
LINE
  8
1
 10
42.461586
 20
-639.188747
 11
42.461586
 21
-658.346106
  0
LINE
  8
1
 10
132.461586
 20
-639.188747
 11
132.461586
 21
-658.346106
  0
LINE
  8
1
 10
43.340266
 20
-637.946106
 11
131.582907
 21
-637.946106
  0
LINE
  8
1
 10
44.461586
 20
-635.946106
 11
130.461586
 21
-635.946106
  0
LINE
  8
1
 10
44.461586
 20
-619.018280
 11
44.461586
 21
-634.703465
  0
LINE
  8
1
 10
130.461586
 20
-619.018280
 11
130.461586
 21
-634.703465
  0
LINE
  8
1
 10
131.340266
 20
-636.824785
 11
131.582907
 21
-637.067426
  0
LINE
  8
1
 10
43.582907
 20
-636.824785
 11
43.340266
 21
-637.067426
  0
ARC
  8
1
 10
133.461586
 20
-634.703465
 40
3.000000
 50
180.000000
 51
225.000000
  0
ARC
  8
1
 10
129.461586
 20
-639.188747
 40
3.000000
 50
0.000000
 51
45.000000
  0
ARC
  8
1
 10
41.461586
 20
-634.703465
 40
3.000000
 50
315.000000
 51
360.000000
  0
ARC
  8
1
 10
45.461586
 20
-639.188747
 40
3.000000
 50
135.000000
 51
180.000000
  0
LINE
  8
1
 10
46.447798
 20
-616.346106
 11
128.475375
 21
-616.346106
  0
LINE
  8
1
 10
54.461586
 20
-607.346106
 11
120.461586
 21
-607.346106
  0
LINE
  8
1
 10
122.447798
 20
-609.133696
 11
128.475375
 21
-614.558515
  0
LINE
  8
1
 10
52.475375
 20
-609.133696
 11
46.447798
 21
-614.558515
  0
ARC
  8
1
 10
126.461586
 20
-604.673931
 40
6.000000
 50
180.000000
 51
228.012788
  0
ARC
  8
1
 10
124.461586
 20
-619.018280
 40
6.000000
 50
360.000000
 51
48.012788
  0
ARC
  8
1
 10
48.461586
 20
-604.673931
 40
6.000000
 50
311.987212
 51
0.000000
  0
ARC
  8
1
 10
50.461586
 20
-619.018280
 40
6.000000
 50
131.987212
 51
180.000000
  0
ARC
  8
1
 10
-717.963931
 20
-333.346106
 40
3.000000
 50
270.000000
 51
351.525547
  0
ARC
  8
1
 10
-717.963931
 20
-389.346106
 40
3.000000
 50
8.474453
 51
90.000000
  0
ARC
  8
1
 10
-342.112896
 20
-333.346106
 40
3.000000
 50
188.474453
 51
270.000000
  0
ARC
  8
1
 10
-342.112896
 20
-389.346106
 40
3.000000
 50
90.000000
 51
171.525547
  0
LINE
  8
1
  6
CENTER
 62
2
 10
-792.794975
 20
461.253894
 11
-271.973960
 21
461.253894
  0
LINE
  8
1
  6
CENTER
 62
2
 10
87.461586
 20
-674.523010
 11
87.461586
 21
174.916665
  0
LINE
  8
1
  6
CENTER
 62
2
 10
-530.038414
 20
-674.523010
 11
-530.038414
 21
174.916665
  0
LINE
  8
1
  6
CENTER
 62
2
 10
-792.794975
 20
-361.346106
 11
-271.973960
 21
-361.346106
  0
LINE
  8
1
  6
CENTER
 62
2
 10
-6.673316
 20
-361.346106
 11
172.497315
 21
-361.346106
  0
LINE
  8
1
  6
CENTER
 62
2
 10
-496.097288
 20
495.195020
 11
-475.591191
 21
515.701116
  0
ARC
  8
1
  6
CENTER
 62
2
 10
-530.038414
 20
461.253894
 40
62.500000
 50
31.677386
 51
58.322614
  0
LINE
  8
1
  6
CENTER
 62
2
 10
-563.979539
 20
495.195020
 11
-584.485636
 21
515.701116
  0
ARC
  8
1
  6
CENTER
 62
2
 10
-530.038414
 20
461.253894
 40
62.500000
 50
121.677386
 51
148.322614
  0
LINE
  8
1
  6
CENTER
 62
2
 10
-496.097288
 20
427.312769
 11
-475.591191
 21
406.806672
  0
ARC
  8
1
  6
CENTER
 62
2
 10
-530.038414
 20
461.253894
 40
62.500000
 50
301.677386
 51
328.322614
  0
LINE
  8
1
  6
CENTER
 62
2
 10
-563.979539
 20
427.312769
 11
-584.485636
 21
406.806672
  0
ARC
  8
1
  6
CENTER
 62
2
 10
-530.038414
 20
461.253894
 40
62.500000
 50
211.677386
 51
238.322614
  0
LINE
  8
1
  6
CENTER
 62
2
 10
-574.232587
 20
-48.710158
 11
-574.232587
 21
-97.464419
  0
LINE
  8
1
  6
CENTER
 62
2
 10
-485.844240
 20
-48.710158
 11
-485.844240
 21
-97.464419
  0
LINE
  8
1
  6
CENTER
 62
2
 10
-573.738646
 20
-141.650203
 11
-564.374310
 21
-188.727896
  0
ARC
  8
1
  6
CENTER
 62
2
 10
-530.038414
 20
-361.346106
 40
200.000000
 50
94.370374
 51
108.129626
  0
ARC
  8
1
  6
CENTER
 62
2
 10
-530.038414
 20
-361.346106
 40
200.000000
 50
71.870374
 51
85.629626
  0
LINE
  8
1
  6
CENTER
 62
2
 10
-486.338181
 20
-141.650203
 11
-495.702517
 21
-188.727896
  0
LINE
  8
1
  6
CENTER
 62
2
 10
-326.038414
 20
463.753894
 11
-326.038414
 21
491.753894
  0
LINE
  8
1
  6
CENTER
 62
2
 10
-340.038414
 20
477.753894
 11
-312.038414
 21
477.753894
  0
LINE
  8
1
  6
CENTER
 62
2
 10
-326.038414
 20
458.753894
 11
-326.038414
 21
430.753894
  0
LINE
  8
1
  6
CENTER
 62
2
 10
-340.038414
 20
444.753894
 11
-312.038414
 21
444.753894
  0
LINE
  8
1
  6
CENTER
 62
2
 10
-734.038414
 20
463.753894
 11
-734.038414
 21
491.753894
  0
LINE
  8
1
  6
CENTER
 62
2
 10
-720.038414
 20
477.753894
 11
-748.038414
 21
477.753894
  0
LINE
  8
1
  6
CENTER
 62
2
 10
-734.038414
 20
458.753894
 11
-734.038414
 21
430.753894
  0
LINE
  8
1
  6
CENTER
 62
2
 10
-720.038414
 20
444.753894
 11
-748.038414
 21
444.753894
  0
LINE
  8
1
  6
CENTER
 62
2
 10
43.267413
 20
-48.710158
 11
43.267413
 21
-97.464419
  0
LINE
  8
1
  6
CENTER
 62
2
 10
131.655760
 20
-48.710158
 11
131.655760
 21
-97.464419
  0
LINE
  8
1
  6
CENTER
 62
2
 10
-326.038414
 20
-329.438521
 11
-326.038414
 21
-394.219023
  0
LINE
  8
1
  6
CENTER
 62
2
 10
-734.038414
 20
-329.438521
 11
-734.038414
 21
-394.219023
  0
LINE
  8
1
  6
CENTER
 62
2
 10
103.961586
 20
-329.438521
 11
103.961586
 21
-394.219023
  0
LINE
  8
1
  6
CENTER
 62
2
 10
70.961586
 20
-329.438521
 11
70.961586
 21
-394.219023
  0
CIRCLE
  8
1
 10
-530.038414
 20
-361.346106
 40
181.500000
  0
CIRCLE
  8
1
 10
-530.038414
 20
-361.346106
 40
154.204653
  0
LINE
  8
1
 10
-502.103304
 20
-215.802746
 11
-557.973523
 21
-215.802746
  0
ARC
  8
1
 10
-530.038414
 20
-256.521399
 40
49.379945
 50
55.547856
 51
124.452144
  0
LINE
  8
1
 10
-502.103304
 20
-506.889466
 11
-557.973523
 21
-506.889466
  0
ARC
  8
1
 10
-530.038414
 20
-466.170813
 40
49.379945
 50
235.547856
 51
304.452144
  0
ARC
  8
1
 10
-530.038414
 20
-361.346106
 40
148.200000
 50
100.865026
 51
259.134974
  0
ARC
  8
1
 10
-530.038414
 20
-361.346106
 40
148.200000
 50
280.865026
 51
79.134974
  0
LINE
  8
1
 10
126.461586
 20
-179.846106
 11
126.461586
 21
-542.846106
  0
LINE
  8
1
 10
48.461586
 20
-542.846106
 11
48.461586
 21
-179.846106
  0
LINE
  8
1
 10
48.461586
 20
-179.846106
 11
51.461586
 21
-179.846106
  0
LINE
  8
1
 10
123.461586
 20
-179.846106
 11
126.461586
 21
-179.846106
  0
LINE
  8
1
 10
123.461586
 20
-542.846106
 11
126.461586
 21
-542.846106
  0
LINE
  8
1
 10
48.461586
 20
-542.846106
 11
51.461586
 21
-542.846106
  0
LINE
  8
1
 10
-348.538414
 20
422.253894
 11
-348.538414
 21
425.253894
  0
LINE
  8
1
 10
-348.538414
 20
497.253894
 11
-348.538414
 21
500.253894
  0
LINE
  8
1
  6
DASHED
 10
-591.388859
 20
500.253894
 11
-711.538414
 21
500.253894
  0
LINE
  8
1
  6
DASHED
 10
-711.538414
 20
497.253894
 11
-711.538414
 21
500.253894
  0
LINE
  8
1
  6
DASHED
 10
-591.388859
 20
422.253894
 11
-711.538414
 21
422.253894
  0
LINE
  8
1
  6
DASHED
 10
-711.538414
 20
422.253894
 11
-711.538414
 21
425.253894
  0
LINE
  8
1
 10
-501.500062
 20
-218.543619
 11
-509.090039
 21
-361.346106
  0
LINE
  8
1
 10
-558.576765
 20
-218.543619
 11
-550.986788
 21
-361.346106
  0
LINE
  8
1
 10
-501.500062
 20
-504.148592
 11
-509.090039
 21
-361.346106
  0
LINE
  8
1
 10
-558.576765
 20
-504.148592
 11
-550.986788
 21
-361.346106
  0
LINE
  8
1
 10
-509.312429
 20
-217.202354
 11
-550.764398
 21
-217.202354
  0
LINE
  8
1
 10
-509.312429
 20
-505.489858
 11
-550.764398
 21
-505.489858
  0
ARC
  8
1
 10
-530.038414
 20
-361.346106
 40
145.626192
 50
98.182302
 51
261.817698
  0
ARC
  8
1
 10
-530.038414
 20
-361.346106
 40
145.626192
 50
278.182302
 51
81.817698
  0
LINE
  8
1
 10
-502.240961
 20
-215.802746
 11
-501.500062
 21
-218.543619
  0
LINE
  8
1
 10
-557.835866
 20
-215.802746
 11
-558.576765
 21
-218.543619
  0
LINE
  8
1
 10
-502.240961
 20
-506.889466
 11
-501.500062
 21
-504.148592
  0
LINE
  8
1
 10
-557.835866
 20
-506.889466
 11
-558.576765
 21
-504.148592
  0
ARC
  8
1
 10
-530.038414
 20
-361.346106
 40
147.406270
 50
100.958016
 51
259.041984
  0
ARC
  8
1
 10
-530.038414
 20
-361.346106
 40
147.406270
 50
280.958016
 51
79.041984
  0
ARC
  8
1
  6
DASHED
 10
-741.538414
 20
482.253894
 40
12.000000
 50
90.000000
 51
163.402158
  0
ARC
  8
1
 10
-741.538414
 20
482.253894
 40
12.000000
 50
163.402158
 51
180.000000
  0
ARC
  8
1
 10
-741.538414
 20
440.253894
 40
12.000000
 50
180.000000
 51
196.597842
  0
ARC
  8
1
  6
DASHED
 10
-741.538414
 20
440.253894
 40
12.000000
 50
196.597842
 51
270.000000
  0
LINE
  8
1
  6
DASHED
 10
-468.687968
 20
500.253894
 11
-386.038414
 21
500.253894
  0
LINE
  8
1
 10
-386.038414
 20
500.253894
 11
-348.538414
 21
500.253894
  0
LINE
  8
1
  6
DASHED
 10
-468.014613
 20
497.253894
 11
-386.038414
 21
497.253894
  0
LINE
  8
1
 10
-386.038414
 20
497.253894
 11
-343.038414
 21
497.253894
  0
LINE
  8
1
  6
DASHED
 10
-468.014613
 20
425.253894
 11
-386.038414
 21
425.253894
  0
LINE
  8
1
 10
-386.038414
 20
425.253894
 11
-343.038414
 21
425.253894
  0
LINE
  8
1
  6
DASHED
 10
-468.687968
 20
422.253894
 11
-386.038414
 21
422.253894
  0
LINE
  8
1
 10
-386.038414
 20
422.253894
 11
-348.538414
 21
422.253894
  0
LINE
  8
2
 10
-622.038414
 20
531.253894
 11
-622.038414
 21
546.253894
  0
LINE
  8
2
 10
-403.038414
 20
503.753894
 11
-403.038414
 21
468.753894
  0
LINE
  8
2
 10
-403.538414
 20
468.253894
 11
-404.538414
 21
468.253894
  0
LINE
  8
2
 10
-404.538414
 20
504.253894
 11
-403.538414
 21
504.253894
  0
LINE
  8
2
 10
-403.038414
 20
418.753894
 11
-403.038414
 21
453.753894
  0
LINE
  8
2
 10
-403.538414
 20
454.253894
 11
-404.538414
 21
454.253894
  0
LINE
  8
2
 10
-404.538414
 20
418.253894
 11
-403.538414
 21
418.253894
  0
LINE
  8
2
 10
-417.538414
 20
251.753894
 11
-445.538414
 21
251.753894
  0
LINE
  8
2
 10
-445.538414
 20
251.753894
 11
-447.538414
 21
249.753894
  0
LINE
  8
2
 10
-447.538414
 20
240.753894
 11
-447.538414
 21
249.753894
  0
ARC
  8
2
 10
-449.538414
 20
240.753894
 40
2.000000
 50
270.000000
 51
360.000000
  0
LINE
  8
2
 10
-451.538414
 20
236.753894
 11
-451.538414
 21
236.293618
  0
LINE
  8
2
 10
-466.093502
 20
215.753894
 11
-396.983325
 21
215.753894
  0
LINE
  8
2
 10
-422.991484
 20
237.753894
 11
-417.474918
 21
237.753894
  0
LINE
  8
2
 10
-401.138414
 20
237.753894
 11
-396.685111
 21
237.753894
  0
LINE
  8
2
 10
-380.605148
 20
237.753894
 11
-376.638414
 21
237.753894
  0
LINE
  8
2
 10
-349.238414
 20
237.753894
 11
-348.138414
 21
237.753894
  0
LINE
  8
2
 10
-342.638414
 20
237.753894
 11
-339.530454
 21
237.753894
  0
ARC
  8
2
 10
-443.738414
 20
715.253894
 40
500.000000
 50
260.664881
 51
267.437441
  0
ARC
  8
2
 10
-449.538414
 20
236.753894
 40
2.000000
 50
90.000000
 51
180.000000
  0
LINE
  8
2
 10
-417.538414
 20
251.753894
 11
-415.538414
 21
249.753894
  0
LINE
  8
2
 10
-415.538414
 20
240.753894
 11
-415.538414
 21
249.753894
  0
ARC
  8
2
 10
-413.538414
 20
240.753894
 40
2.000000
 50
180.000000
 51
270.000000
  0
LINE
  8
2
 10
-411.538414
 20
236.753894
 11
-411.538414
 21
236.293618
  0
ARC
  8
2
 10
-419.338414
 20
715.253894
 40
500.000000
 50
272.562559
 51
279.335119
  0
ARC
  8
2
 10
-413.538414
 20
236.753894
 40
2.000000
 50
0.000000
 51
90.000000
  0
LINE
  8
2
 10
-415.538414
 20
249.753894
 11
-447.538414
 21
249.753894
  0
ARC
  8
2
 10
-431.538414
 20
267.553894
 40
37.800000
 50
256.461350
 51
283.347693
  0
ARC
  8
2
 10
-431.538414
 20
258.353894
 40
22.100000
 50
249.678608
 51
289.908260
  0
ARC
  8
2
 10
-432.238414
 20
230.653894
 40
11.200000
 50
12.984112
 51
30.742694
  0
ARC
  8
2
 10
-431.838414
 20
230.853894
 40
10.300000
 50
152.801464
 51
166.803615
  0
LINE
  8
2
 10
-361.339929
 20
237.753894
 11
-363.838414
 21
237.753894
  0
ARC
  8
2
 10
-406.638414
 20
267.953894
 40
38.100000
 50
257.489802
 51
282.010034
  0
ARC
  8
2
 10
-409.238414
 20
255.153894
 40
19.000000
 50
248.013597
 51
292.510479
  0
ARC
  8
2
 10
-405.938414
 20
229.053894
 40
9.700000
 50
27.791668
 51
57.213701
  0
ARC
  8
2
 10
-424.338414
 20
234.253894
 40
8.000000
 50
351.124411
 51
14.477512
  0
ARC
  8
2
 10
-383.438414
 20
258.253894
 40
28.500000
 50
254.666975
 51
284.161069
  0
ARC
  8
2
 10
-388.738414
 20
254.053894
 40
17.800000
 50
248.621499
 51
290.899028
  0
ARC
  8
2
 10
-382.838414
 20
228.953894
 40
8.900000
 50
31.500458
 51
74.573378
  0
ARC
  8
2
 10
-398.438414
 20
232.353894
 40
6.000000
 50
2.459196
 51
53.130102
  0
ARC
  8
2
 10
-363.438414
 20
249.053894
 40
19.300000
 50
251.561950
 51
283.988737
  0
ARC
  8
2
 10
-370.638414
 20
247.453894
 40
11.200000
 50
255.994128
 51
295.608305
  0
ARC
  8
2
 10
-363.838414
 20
232.753894
 40
5.000000
 50
90.000000
 51
113.068733
  0
ARC
  8
2
 10
-367.738414
 20
224.353894
 40
13.600000
 50
43.012702
 51
73.688203
  0
ARC
  8
2
 10
-377.138414
 20
231.553894
 40
6.300000
 50
7.532780
 51
67.380135
  0
ARC
  8
2
 10
-347.538414
 20
241.953894
 40
12.200000
 50
244.256542
 51
286.000716
  0
ARC
  8
2
 10
-355.438414
 20
244.753894
 40
8.500000
 50
251.083012
 51
297.322222
  0
ARC
  8
2
 10
-349.238414
 20
232.753894
 40
5.000000
 50
90.000000
 51
117.322222
  0
ARC
  8
2
 10
-352.638414
 20
225.553894
 40
12.300000
 50
39.814743
 51
74.699906
  0
ARC
  8
2
 10
-364.638414
 20
226.353894
 40
12.200000
 50
26.844811
 51
62.733956
  0
LINE
  8
2
 10
-339.938414
 20
229.753894
 11
-342.038414
 21
229.753894
  0
LINE
  8
2
 10
-352.938414
 20
229.753894
 11
-356.038414
 21
229.753894
  0
LINE
  8
2
 10
-371.238414
 20
229.753894
 11
-373.838414
 21
229.753894
  0
LINE
  8
2
 10
-392.238414
 20
229.753894
 11
-396.138414
 21
229.753894
  0
LINE
  8
2
 10
-416.038414
 20
229.753894
 11
-420.838414
 21
229.753894
  0
LINE
  8
2
 10
-442.238414
 20
229.753894
 11
-446.338414
 21
229.753894
  0
LINE
  8
2
 10
-466.138414
 20
229.753894
 11
-470.238414
 21
229.753894
  0
LINE
  8
2
 10
-489.038414
 20
229.753894
 11
-491.938414
 21
229.753894
  0
LINE
  8
2
 10
-506.338414
 20
229.753894
 11
-508.838414
 21
229.753894
  0
LINE
  8
2
 10
-520.738414
 20
229.753894
 11
-522.638414
 21
229.753894
  0
LINE
  8
2
 10
-449.538414
 20
238.753894
 11
-413.538414
 21
238.753894
  0
ARC
  8
2
 10
-337.238414
 20
233.953894
 40
4.200000
 50
221.945518
 51
307.267545
  0
ARC
  8
2
 10
-344.738414
 20
225.953894
 40
11.900000
 50
30.020559
 51
77.925147
  0
ARC
  8
2
 10
-342.638414
 20
234.753894
 40
3.000000
 50
90.000000
 51
113.288889
  0
LINE
  8
2
 10
-515.238414
 20
221.753894
 11
-346.338414
 21
221.753894
  0
LINE
  8
2
 10
-439.538414
 20
256.253894
 11
-439.538414
 21
251.753894
  0
LINE
  8
2
 10
-423.538414
 20
251.753894
 11
-423.538414
 21
256.253894
  0
LINE
  8
2
 10
-627.038414
 20
-55.346106
 11
-627.038414
 21
-41.346106
  0
LINE
  8
2
 10
-496.530721
 20
-42.346106
 11
-627.038414
 21
-42.346106
  0
LINE
  8
2
 10
-484.216682
 20
118.653894
 11
-669.038414
 21
118.653894
  0
LINE
  8
2
 10
-720.089425
 20
-40.346106
 11
-498.799100
 21
-40.346106
  0
CIRCLE
  8
2
 10
-431.538414
 20
33.653894
 40
100.000000
  0
CIRCLE
  8
2
 10
-431.538414
 20
33.653894
 40
92.000000
  0
LINE
  8
2
 10
17.461586
 20
118.653894
 11
157.461586
 21
118.653894
  0
LINE
  8
2
 10
-12.538414
 20
-40.346106
 11
-12.538414
 21
107.670185
  0
LINE
  8
2
 10
177.461586
 20
68.653894
 11
4.461586
 21
68.653894
  0
LINE
  8
2
 10
157.461586
 20
83.653894
 11
177.461586
 21
83.653894
  0
LINE
  8
2
 10
-10.538414
 20
-42.346106
 11
185.461586
 21
-42.346106
  0
LINE
  8
2
 10
-12.538414
 20
33.653894
 11
200.461586
 21
33.653894
  0
LINE
  8
2
 10
-10.538414
 20
-42.346106
 11
-10.538414
 21
-41.346106
  0
LINE
  8
2
 10
-122.038414
 20
47.653894
 11
-122.038414
 21
19.653894
  0
LINE
  8
2
 10
-122.038414
 20
19.653894
 11
-124.038414
 21
17.653894
  0
LINE
  8
2
 10
-133.038414
 20
17.653894
 11
-124.038414
 21
17.653894
  0
ARC
  8
2
 10
-133.038414
 20
15.653894
 40
2.000000
 50
90.000000
 51
180.000000
  0
LINE
  8
2
 10
-137.038414
 20
13.653894
 11
-137.498689
 21
13.653894
  0
ARC
  8
2
 10
-137.038414
 20
15.653894
 40
2.000000
 50
270.000000
 51
0.000000
  0
LINE
  8
2
 10
-122.038414
 20
47.653894
 11
-124.038414
 21
49.653894
  0
LINE
  8
2
 10
-133.038414
 20
49.653894
 11
-124.038414
 21
49.653894
  0
ARC
  8
2
 10
-133.038414
 20
51.653894
 40
2.000000
 50
180.000000
 51
270.000000
  0
LINE
  8
2
 10
-137.038414
 20
53.653894
 11
-137.498689
 21
53.653894
  0
ARC
  8
2
 10
-137.038414
 20
51.653894
 40
2.000000
 50
0.000000
 51
90.000000
  0
LINE
  8
2
 10
-124.038414
 20
49.653894
 11
-124.038414
 21
17.653894
  0
LINE
  8
2
 10
-135.038414
 20
16.653894
 11
-135.038414
 21
50.953894
  0
LINE
  8
2
 10
-117.538414
 20
41.653894
 11
-122.038414
 21
41.653894
  0
LINE
  8
2
 10
-122.038414
 20
25.653894
 11
-117.538414
 21
25.653894
  0
CIRCLE
  8
2
 10
112.461586
 20
98.653894
 40
13.000000
  0
LINE
  8
2
 10
104.956033
 20
111.653894
 11
97.450479
 21
98.653894
  0
LINE
  8
2
 10
119.967140
 20
111.653894
 11
104.956033
 21
111.653894
  0
LINE
  8
2
 10
127.472693
 20
98.653894
 11
119.967140
 21
111.653894
  0
LINE
  8
2
 10
119.967140
 20
85.653894
 11
127.472693
 21
98.653894
  0
LINE
  8
2
 10
104.956033
 20
85.653894
 11
119.967140
 21
85.653894
  0
LINE
  8
2
 10
97.450479
 20
98.653894
 11
104.956033
 21
85.653894
  0
CIRCLE
  8
2
 10
62.461586
 20
98.653894
 40
13.000000
  0
LINE
  8
2
 10
54.956033
 20
111.653894
 11
47.450479
 21
98.653894
  0
LINE
  8
2
 10
69.967140
 20
111.653894
 11
54.956033
 21
111.653894
  0
LINE
  8
2
 10
77.472693
 20
98.653894
 11
69.967140
 21
111.653894
  0
LINE
  8
2
 10
69.967140
 20
85.653894
 11
77.472693
 21
98.653894
  0
LINE
  8
2
 10
54.956033
 20
85.653894
 11
69.967140
 21
85.653894
  0
LINE
  8
2
 10
47.450479
 20
98.653894
 11
54.956033
 21
85.653894
  0
LINE
  8
2
 10
-395.038414
 20
499.253894
 11
-395.038414
 21
473.253894
  0
LINE
  8
2
 10
-400.038414
 20
501.265001
 11
-400.038414
 21
471.242787
  0
LINE
  8
2
 10
-396.199527
 20
471.242787
 11
-400.038414
 21
471.242787
  0
LINE
  8
2
 10
-396.199527
 20
478.748341
 11
-400.038414
 21
478.748341
  0
LINE
  8
2
 10
-396.199527
 20
493.759448
 11
-400.038414
 21
493.759448
  0
LINE
  8
2
 10
-396.199527
 20
501.265001
 11
-400.038414
 21
501.265001
  0
LINE
  8
2
 10
-395.038414
 20
473.253894
 11
-396.199527
 21
471.242787
  0
LINE
  8
2
 10
-395.038414
 20
499.253894
 11
-396.199527
 21
501.265001
  0
ARC
  8
2
 10
-419.877300
 20
486.253894
 40
24.838887
 50
342.412046
 51
17.587954
  0
ARC
  8
2
 10
-401.683549
 20
474.995564
 40
6.645136
 50
325.615736
 51
34.384264
  0
ARC
  8
2
 10
-401.683549
 20
497.512224
 40
6.645136
 50
325.615736
 51
34.384264
  0
LINE
  8
2
 10
-400.038414
 20
495.253894
 11
-403.038414
 21
495.253894
  0
LINE
  8
2
 10
-403.038414
 20
477.253894
 11
-400.038414
 21
477.253894
  0
LINE
  8
2
 10
-395.038414
 20
449.253894
 11
-395.038414
 21
423.253894
  0
LINE
  8
2
 10
-400.038414
 20
451.265001
 11
-400.038414
 21
421.242787
  0
LINE
  8
2
 10
-396.199527
 20
421.242787
 11
-400.038414
 21
421.242787
  0
LINE
  8
2
 10
-396.199527
 20
428.748341
 11
-400.038414
 21
428.748341
  0
LINE
  8
2
 10
-396.199527
 20
443.759448
 11
-400.038414
 21
443.759448
  0
LINE
  8
2
 10
-396.199527
 20
451.265001
 11
-400.038414
 21
451.265001
  0
LINE
  8
2
 10
-395.038414
 20
423.253894
 11
-396.199527
 21
421.242787
  0
LINE
  8
2
 10
-395.038414
 20
449.253894
 11
-396.199527
 21
451.265001
  0
ARC
  8
2
 10
-419.877300
 20
436.253894
 40
24.838887
 50
342.412046
 51
17.587954
  0
ARC
  8
2
 10
-401.683549
 20
424.995564
 40
6.645136
 50
325.615736
 51
34.384264
  0
ARC
  8
2
 10
-401.683549
 20
447.512224
 40
6.645136
 50
325.615736
 51
34.384264
  0
LINE
  8
2
 10
-400.038414
 20
445.253894
 11
-403.038414
 21
445.253894
  0
LINE
  8
2
 10
-403.038414
 20
427.253894
 11
-400.038414
 21
427.253894
  0
ARC
  8
2
 10
-339.530454
 20
229.761853
 40
7.992041
 50
279.335119
 51
90.000000
  0
ARC
  8
2
 10
-335.300693
 20
231.407281
 40
1.000000
 50
307.267545
 51
30.020559
  0
ARC
  8
2
 10
-345.168765
 20
240.632442
 40
3.400000
 50
266.638278
 51
293.288889
  0
ARC
  8
2
 10
-342.876628
 20
234.656983
 40
3.000000
 50
77.925147
 51
110.986403
  0
ARC
  8
2
 10
-339.618512
 20
231.814938
 40
1.000000
 50
191.678445
 51
221.945518
  0
ARC
  8
2
 10
-348.138414
 20
230.053894
 40
7.700000
 50
11.678445
 51
90.000000
  0
ARC
  8
2
 10
-344.726790
 20
232.149060
 40
2.000000
 50
286.000716
 51
39.814743
  0
ARC
  8
2
 10
-351.968706
 20
232.766266
 40
2.000000
 50
206.844811
 51
244.256542
  0
ARC
  8
2
 10
-350.184379
 20
234.524274
 40
3.000000
 50
74.699906
 51
117.185481
  0
ARC
  8
2
 10
-361.339929
 20
232.753894
 40
5.000000
 50
62.733956
 51
90.000000
  0
ARC
  8
2
 10
-368.910042
 20
232.641969
 40
2.000000
 50
187.532780
 51
251.561950
  0
ARC
  8
2
 10
-359.256465
 20
232.266956
 40
2.000000
 50
283.988737
 51
43.012702
  0
ARC
  8
2
 10
-364.761252
 20
234.527218
 40
3.000000
 50
73.688203
 51
114.449096
  0
ARC
  8
2
 10
-376.638414
 20
232.753894
 40
5.000000
 50
67.380135
 51
90.000000
  0
ARC
  8
2
 10
-376.955225
 20
232.559181
 40
2.000000
 50
284.161069
 51
31.500458
  0
ARC
  8
2
 10
-390.445781
 20
232.697157
 40
2.000000
 50
182.459196
 51
254.666975
  0
ARC
  8
2
 10
-380.605148
 20
232.753894
 40
5.000000
 50
90.000000
 51
110.899028
  0
ARC
  8
2
 10
-381.268990
 20
234.641328
 40
3.000000
 50
74.573378
 51
111.045359
  0
ARC
  8
2
 10
-396.685111
 20
233.753894
 40
4.000000
 50
68.621499
 51
90.000000
  0
ARC
  8
2
 10
-396.638414
 20
234.753894
 40
3.000000
 50
53.130102
 51
90.000000
  0
ARC
  8
2
 10
-414.458157
 20
232.711000
 40
2.000000
 50
171.124411
 51
257.489802
  0
ARC
  8
2
 10
-399.126618
 20
232.644081
 40
2.000000
 50
282.010034
 51
27.791668
  0
ARC
  8
2
 10
-401.198513
 20
235.753894
 40
2.000000
 50
90.000000
 51
112.510479
  0
ARC
  8
2
 10
-401.768808
 20
235.527254
 40
2.000000
 50
57.213701
 51
110.836076
  0
ARC
  8
2
 10
-418.528939
 20
235.753894
 40
2.000000
 50
14.477512
 51
90.000000
  0
ARC
  8
2
 10
-417.474918
 20
234.753894
 40
3.000000
 50
68.013597
 51
90.000000
  0
ARC
  8
2
 10
-423.273635
 20
232.720958
 40
2.000000
 50
283.347693
 51
12.984112
  0
ARC
  8
2
 10
-439.919238
 20
232.748697
 40
2.000000
 50
166.803615
 51
256.461350
  0
ARC
  8
2
 10
-424.331275
 20
235.356782
 40
2.000000
 50
30.742694
 51
107.400637
  0
ARC
  8
2
 10
-422.991484
 20
234.753894
 40
3.000000
 50
90.000000
 51
109.908260
  0
ARC
  8
2
 10
-439.908001
 20
235.753894
 40
2.000000
 50
69.678608
 51
90.000000
  0
ARC
  8
2
 10
-438.331238
 20
234.190543
 40
3.000000
 50
74.298213
 51
152.801464
  0
LINE
  8
2
 10
-439.908001
 20
237.753894
 11
-445.601909
 21
237.753894
  0
LINE
  8
2
 10
-513.838414
 20
237.753894
 11
-514.938414
 21
237.753894
  0
LINE
  8
2
 10
-520.438414
 20
237.753894
 11
-523.546373
 21
237.753894
  0
LINE
  8
2
 10
-501.838414
 20
237.753894
 11
-499.238414
 21
237.753894
  0
LINE
  8
2
 10
-486.438414
 20
237.753894
 11
-482.438414
 21
237.753894
  0
LINE
  8
2
 10
-466.338414
 20
237.753894
 11
-461.878314
 21
237.753894
  0
ARC
  8
2
 10
-456.438414
 20
267.953894
 40
38.100000
 50
257.989966
 51
282.510198
  0
ARC
  8
2
 10
-453.838414
 20
255.153894
 40
19.000000
 50
247.489521
 51
291.986403
  0
ARC
  8
2
 10
-457.138414
 20
229.053894
 40
9.700000
 50
122.786299
 51
152.208332
  0
ARC
  8
2
 10
-438.738414
 20
234.253894
 40
8.000000
 50
165.522488
 51
188.875589
  0
ARC
  8
2
 10
-479.638414
 20
258.253894
 40
28.500000
 50
255.838931
 51
285.333025
  0
ARC
  8
2
 10
-474.338414
 20
254.053894
 40
17.800000
 50
249.100972
 51
291.378501
  0
ARC
  8
2
 10
-480.238414
 20
228.953894
 40
8.900000
 50
105.426622
 51
148.499542
  0
ARC
  8
2
 10
-464.638414
 20
232.353894
 40
6.000000
 50
126.869898
 51
177.540804
  0
ARC
  8
2
 10
-499.638414
 20
249.053894
 40
19.300000
 50
256.011263
 51
288.438050
  0
ARC
  8
2
 10
-492.438414
 20
247.453894
 40
11.200000
 50
244.391695
 51
284.005872
  0
ARC
  8
2
 10
-499.238414
 20
232.753894
 40
5.000000
 50
66.931267
 51
90.000000
  0
ARC
  8
2
 10
-495.338414
 20
224.353894
 40
13.600000
 50
106.311797
 51
136.987298
  0
ARC
  8
2
 10
-485.938414
 20
231.553894
 40
6.300000
 50
112.619865
 51
172.467220
  0
ARC
  8
2
 10
-515.538414
 20
241.953894
 40
12.200000
 50
253.999284
 51
295.743458
  0
ARC
  8
2
 10
-507.638414
 20
244.753894
 40
8.500000
 50
242.677778
 51
288.916988
  0
ARC
  8
2
 10
-513.838414
 20
232.753894
 40
5.000000
 50
62.677778
 51
90.000000
  0
ARC
  8
2
 10
-510.438414
 20
225.553894
 40
12.300000
 50
105.300094
 51
140.185257
  0
ARC
  8
2
 10
-498.438414
 20
226.353894
 40
12.200000
 50
117.266044
 51
153.155189
  0
ARC
  8
2
 10
-525.838414
 20
233.953894
 40
4.200000
 50
232.732455
 51
318.054482
  0
ARC
  8
2
 10
-518.338414
 20
225.953894
 40
11.900000
 50
102.074853
 51
149.979441
  0
ARC
  8
2
 10
-520.438414
 20
234.753894
 40
3.000000
 50
66.711111
 51
90.000000
  0
ARC
  8
2
 10
-523.546373
 20
229.761853
 40
7.992041
 50
90.000000
 51
260.664881
  0
ARC
  8
2
 10
-527.776134
 20
231.407281
 40
1.000000
 50
149.979441
 51
232.732455
  0
ARC
  8
2
 10
-517.908062
 20
240.632442
 40
3.400000
 50
246.711111
 51
273.361722
  0
ARC
  8
2
 10
-520.200199
 20
234.656983
 40
3.000000
 50
69.013597
 51
102.074853
  0
ARC
  8
2
 10
-514.938414
 20
230.053894
 40
7.700000
 50
90.000000
 51
168.321555
  0
ARC
  8
2
 10
-518.350037
 20
232.149060
 40
2.000000
 50
140.185257
 51
253.999284
  0
ARC
  8
2
 10
-511.108121
 20
232.766266
 40
2.000000
 50
295.743458
 51
333.155189
  0
ARC
  8
2
 10
-512.892448
 20
234.524274
 40
3.000000
 50
62.814519
 51
105.300094
  0
ARC
  8
2
 10
-501.736898
 20
232.753894
 40
5.000000
 50
90.000000
 51
117.266044
  0
ARC
  8
2
 10
-494.166785
 20
232.641969
 40
2.000000
 50
288.438050
 51
352.467220
  0
ARC
  8
2
 10
-503.820362
 20
232.266956
 40
2.000000
 50
136.987298
 51
256.011263
  0
ARC
  8
2
 10
-498.315575
 20
234.527218
 40
3.000000
 50
65.550904
 51
106.311797
  0
ARC
  8
2
 10
-486.438414
 20
232.753894
 40
5.000000
 50
90.000000
 51
112.619865
  0
ARC
  8
2
 10
-486.121602
 20
232.559181
 40
2.000000
 50
148.499542
 51
255.838931
  0
ARC
  8
2
 10
-472.631046
 20
232.697157
 40
2.000000
 50
285.333025
 51
357.540804
  0
ARC
  8
2
 10
-482.471679
 20
232.753894
 40
5.000000
 50
69.100972
 51
90.000000
  0
ARC
  8
2
 10
-481.807837
 20
234.641328
 40
3.000000
 50
68.954641
 51
105.426622
  0
ARC
  8
2
 10
-466.391716
 20
233.753894
 40
4.000000
 50
90.000000
 51
111.378501
  0
ARC
  8
2
 10
-466.438414
 20
234.753894
 40
3.000000
 50
90.000000
 51
126.869898
  0
ARC
  8
2
 10
-448.618670
 20
232.711000
 40
2.000000
 50
282.510198
 51
8.875589
  0
ARC
  8
2
 10
-463.950209
 20
232.644081
 40
2.000000
 50
152.208332
 51
257.989966
  0
ARC
  8
2
 10
-461.878314
 20
235.753894
 40
2.000000
 50
67.489521
 51
90.000000
  0
ARC
  8
2
 10
-461.308019
 20
235.527254
 40
2.000000
 50
69.163924
 51
122.786299
  0
ARC
  8
2
 10
-444.547889
 20
235.753894
 40
2.000000
 50
90.000000
 51
165.522488
  0
ARC
  8
2
 10
-445.601909
 20
234.753894
 40
3.000000
 50
90.000000
 51
111.986403
  0
LINE
  8
2
 10
-158.038414
 20
68.208983
 11
-158.038414
 21
-0.901195
  0
LINE
  8
2
 10
-136.038414
 20
25.106965
 11
-136.038414
 21
19.590398
  0
LINE
  8
2
 10
-136.038414
 20
3.253894
 11
-136.038414
 21
-1.199408
  0
LINE
  8
2
 10
-136.038414
 20
-17.279371
 11
-136.038414
 21
-21.246106
  0
LINE
  8
2
 10
-136.038414
 20
-34.046106
 11
-136.038414
 21
-36.544590
  0
LINE
  8
2
 10
-136.038414
 20
-48.646106
 11
-136.038414
 21
-49.746106
  0
LINE
  8
2
 10
-136.038414
 20
-55.246106
 11
-136.038414
 21
-58.354065
  0
ARC
  8
2
 10
341.461586
 20
45.853894
 40
500.000000
 50
170.664881
 51
177.437441
  0
ARC
  8
2
 10
341.461586
 20
21.453894
 40
500.000000
 50
182.562559
 51
189.335119
  0
ARC
  8
2
 10
-106.238414
 20
33.653894
 40
37.800000
 50
166.461350
 51
193.347693
  0
ARC
  8
2
 10
-115.438414
 20
33.653894
 40
22.100000
 50
159.678608
 51
199.908260
  0
ARC
  8
2
 10
-143.138414
 20
34.353894
 40
11.200000
 50
282.984112
 51
300.742694
  0
ARC
  8
2
 10
-142.938414
 20
33.953894
 40
10.300000
 50
62.801464
 51
76.803615
  0
LINE
  8
2
 10
-136.038414
 20
-36.646106
 11
-136.038414
 21
-34.046106
  0
LINE
  8
2
 10
-136.038414
 20
-21.046106
 11
-136.038414
 21
-17.246106
  0
LINE
  8
2
 10
-136.038414
 20
-1.146106
 11
-136.038414
 21
3.313994
  0
ARC
  8
2
 10
-105.838414
 20
8.753894
 40
38.100000
 50
167.489802
 51
192.010034
  0
ARC
  8
2
 10
-118.638414
 20
11.353894
 40
19.000000
 50
158.013597
 51
202.510479
  0
ARC
  8
2
 10
-144.738414
 20
8.053894
 40
9.700000
 50
297.791668
 51
327.213701
  0
ARC
  8
2
 10
-139.538414
 20
26.453894
 40
8.000000
 50
261.124411
 51
284.477512
  0
ARC
  8
2
 10
-115.538414
 20
-14.446106
 40
28.500000
 50
164.666975
 51
194.161069
  0
ARC
  8
2
 10
-119.738414
 20
-9.146106
 40
17.800000
 50
158.621499
 51
200.899028
  0
ARC
  8
2
 10
-144.838414
 20
-15.046106
 40
8.900000
 50
301.500458
 51
344.573378
  0
ARC
  8
2
 10
-141.438414
 20
0.553894
 40
6.000000
 50
272.459196
 51
323.130102
  0
ARC
  8
2
 10
-124.738414
 20
-34.446106
 40
19.300000
 50
161.561950
 51
193.988737
  0
ARC
  8
2
 10
-126.338414
 20
-27.246106
 40
11.200000
 50
165.994128
 51
205.608305
  0
ARC
  8
2
 10
-141.038414
 20
-34.046106
 40
5.000000
 50
0.000000
 51
23.068733
  0
ARC
  8
2
 10
-149.438414
 20
-30.146106
 40
13.600000
 50
313.012702
 51
343.688203
  0
ARC
  8
2
 10
-142.238414
 20
-20.746106
 40
6.300000
 50
277.532780
 51
337.380135
  0
ARC
  8
2
 10
-131.838414
 20
-50.346106
 40
12.200000
 50
154.256542
 51
196.000716
  0
ARC
  8
2
 10
-129.038414
 20
-42.446106
 40
8.500000
 50
161.083012
 51
207.322222
  0
ARC
  8
2
 10
-141.038414
 20
-48.646106
 40
5.000000
 50
0.000000
 51
27.322222
  0
ARC
  8
2
 10
-148.238414
 20
-45.246106
 40
12.300000
 50
309.814743
 51
344.699906
  0
ARC
  8
2
 10
-147.438414
 20
-33.246106
 40
12.200000
 50
296.844811
 51
332.733956
  0
LINE
  8
2
 10
-144.038414
 20
-57.946106
 11
-144.038414
 21
-55.846106
  0
LINE
  8
2
 10
-144.038414
 20
-44.946106
 11
-144.038414
 21
-41.846106
  0
LINE
  8
2
 10
-144.038414
 20
-26.646106
 11
-144.038414
 21
-24.046106
  0
LINE
  8
2
 10
-144.038414
 20
-5.646106
 11
-144.038414
 21
-1.746106
  0
LINE
  8
2
 10
-144.038414
 20
18.153894
 11
-144.038414
 21
22.953894
  0
LINE
  8
2
 10
-144.038414
 20
44.353894
 11
-144.038414
 21
48.453894
  0
LINE
  8
2
 10
-144.038414
 20
68.253894
 11
-144.038414
 21
72.353894
  0
LINE
  8
2
 10
-144.038414
 20
91.153894
 11
-144.038414
 21
94.053894
  0
LINE
  8
2
 10
-144.038414
 20
108.453894
 11
-144.038414
 21
110.953894
  0
LINE
  8
2
 10
-144.038414
 20
122.853894
 11
-144.038414
 21
124.753894
  0
ARC
  8
2
 10
-139.838414
 20
-60.646106
 40
4.200000
 50
131.945518
 51
217.267545
  0
ARC
  8
2
 10
-147.838414
 20
-53.146106
 40
11.900000
 50
300.020559
 51
347.925147
  0
ARC
  8
2
 10
-139.038414
 20
-55.246106
 40
3.000000
 50
0.000000
 51
23.288889
  0
LINE
  8
2
 10
-152.038414
 20
117.353894
 11
-152.038414
 21
-51.546106
  0
ARC
  8
2
 10
-144.030454
 20
-58.354065
 40
7.992041
 50
189.335119
 51
360.000000
  0
ARC
  8
2
 10
-142.385027
 20
-62.583827
 40
1.000000
 50
217.267545
 51
300.020559
  0
ARC
  8
2
 10
-133.159866
 20
-52.715755
 40
3.400000
 50
176.638278
 51
203.288889
  0
ARC
  8
2
 10
-139.135325
 20
-55.007891
 40
3.000000
 50
347.925147
 51
20.986403
  0
ARC
  8
2
 10
-141.977369
 20
-58.266007
 40
1.000000
 50
101.678445
 51
131.945518
  0
ARC
  8
2
 10
-143.738414
 20
-49.746106
 40
7.700000
 50
281.678445
 51
360.000000
  0
ARC
  8
2
 10
-141.643248
 20
-53.157729
 40
2.000000
 50
196.000716
 51
309.814743
  0
ARC
  8
2
 10
-141.026041
 20
-45.915813
 40
2.000000
 50
116.844811
 51
154.256542
  0
ARC
  8
2
 10
-139.268034
 20
-47.700140
 40
3.000000
 50
344.699906
 51
27.185481
  0
ARC
  8
2
 10
-141.038414
 20
-36.544590
 40
5.000000
 50
332.733956
 51
360.000000
  0
ARC
  8
2
 10
-141.150338
 20
-28.974477
 40
2.000000
 50
97.532780
 51
161.561950
  0
ARC
  8
2
 10
-141.525352
 20
-38.628055
 40
2.000000
 50
193.988737
 51
313.012702
  0
ARC
  8
2
 10
-139.265090
 20
-33.123268
 40
3.000000
 50
343.688203
 51
24.449096
  0
ARC
  8
2
 10
-141.038414
 20
-21.246106
 40
5.000000
 50
337.380135
 51
360.000000
  0
ARC
  8
2
 10
-141.233126
 20
-20.929294
 40
2.000000
 50
194.161069
 51
301.500458
  0
ARC
  8
2
 10
-141.095150
 20
-7.438738
 40
2.000000
 50
92.459196
 51
164.666975
  0
ARC
  8
2
 10
-141.038414
 20
-17.279371
 40
5.000000
 50
0.000000
 51
20.899028
  0
ARC
  8
2
 10
-139.150979
 20
-16.615530
 40
3.000000
 50
344.573378
 51
21.045359
  0
ARC
  8
2
 10
-140.038414
 20
-1.199408
 40
4.000000
 50
338.621499
 51
360.000000
  0
ARC
  8
2
 10
-139.038414
 20
-1.246106
 40
3.000000
 50
323.130102
 51
360.000000
  0
ARC
  8
2
 10
-141.081308
 20
16.573637
 40
2.000000
 50
81.124411
 51
167.489802
  0
ARC
  8
2
 10
-141.148227
 20
1.242098
 40
2.000000
 50
192.010034
 51
297.791668
  0
ARC
  8
2
 10
-138.038414
 20
3.313994
 40
2.000000
 50
0.000000
 51
22.510479
  0
ARC
  8
2
 10
-138.265053
 20
3.884289
 40
2.000000
 50
327.213701
 51
20.836076
  0
ARC
  8
2
 10
-138.038414
 20
20.644419
 40
2.000000
 50
284.477512
 51
360.000000
  0
ARC
  8
2
 10
-139.038414
 20
19.590398
 40
3.000000
 50
338.013597
 51
360.000000
  0
ARC
  8
2
 10
-141.071350
 20
25.389116
 40
2.000000
 50
193.347693
 51
282.984112
  0
ARC
  8
2
 10
-141.043611
 20
42.034719
 40
2.000000
 50
76.803615
 51
166.461350
  0
ARC
  8
2
 10
-138.435525
 20
26.446755
 40
2.000000
 50
300.742694
 51
17.400637
  0
ARC
  8
2
 10
-139.038414
 20
25.106965
 40
3.000000
 50
0.000000
 51
19.908260
  0
ARC
  8
2
 10
-138.038414
 20
42.023482
 40
2.000000
 50
339.678608
 51
360.000000
  0
ARC
  8
2
 10
-139.601765
 20
40.446719
 40
3.000000
 50
344.298213
 51
62.801464
  0
LINE
  8
2
 10
-136.038414
 20
42.023482
 11
-136.038414
 21
47.717390
  0
LINE
  8
2
 10
-136.038414
 20
64.053894
 11
-136.038414
 21
68.507197
  0
LINE
  8
2
 10
-136.038414
 20
84.587159
 11
-136.038414
 21
88.553894
  0
LINE
  8
2
 10
-136.038414
 20
101.353894
 11
-136.038414
 21
103.852379
  0
LINE
  8
2
 10
-136.038414
 20
115.953894
 11
-136.038414
 21
117.053894
  0
LINE
  8
2
 10
-136.038414
 20
122.553894
 11
-136.038414
 21
125.661853
  0
LINE
  8
2
 10
-136.038414
 20
103.953894
 11
-136.038414
 21
101.353894
  0
LINE
  8
2
 10
-136.038414
 20
88.353894
 11
-136.038414
 21
84.553894
  0
LINE
  8
2
 10
-136.038414
 20
68.453894
 11
-136.038414
 21
63.993795
  0
ARC
  8
2
 10
-105.838414
 20
58.553894
 40
38.100000
 50
167.989966
 51
192.510198
  0
ARC
  8
2
 10
-118.638414
 20
55.953894
 40
19.000000
 50
157.489521
 51
201.986403
  0
ARC
  8
2
 10
-144.738414
 20
59.253894
 40
9.700000
 50
32.786299
 51
62.208332
  0
ARC
  8
2
 10
-139.538414
 20
40.853894
 40
8.000000
 50
75.522488
 51
98.875589
  0
ARC
  8
2
 10
-115.538414
 20
81.753894
 40
28.500000
 50
165.838931
 51
195.333025
  0
ARC
  8
2
 10
-119.738414
 20
76.453894
 40
17.800000
 50
159.100972
 51
201.378501
  0
ARC
  8
2
 10
-144.838414
 20
82.353894
 40
8.900000
 50
15.426622
 51
58.499542
  0
ARC
  8
2
 10
-141.438414
 20
66.753894
 40
6.000000
 50
36.869898
 51
87.540804
  0
ARC
  8
2
 10
-124.738414
 20
101.753894
 40
19.300000
 50
166.011263
 51
198.438050
  0
ARC
  8
2
 10
-126.338414
 20
94.553894
 40
11.200000
 50
154.391695
 51
194.005872
  0
ARC
  8
2
 10
-141.038414
 20
101.353894
 40
5.000000
 50
336.931267
 51
360.000000
  0
ARC
  8
2
 10
-149.438414
 20
97.453894
 40
13.600000
 50
16.311797
 51
46.987298
  0
ARC
  8
2
 10
-142.238414
 20
88.053894
 40
6.300000
 50
22.619865
 51
82.467220
  0
ARC
  8
2
 10
-131.838414
 20
117.653894
 40
12.200000
 50
163.999284
 51
205.743458
  0
ARC
  8
2
 10
-129.038414
 20
109.753894
 40
8.500000
 50
152.677778
 51
198.916988
  0
ARC
  8
2
 10
-141.038414
 20
115.953894
 40
5.000000
 50
332.677778
 51
360.000000
  0
ARC
  8
2
 10
-148.238414
 20
112.553894
 40
12.300000
 50
15.300094
 51
50.185257
  0
ARC
  8
2
 10
-147.438414
 20
100.553894
 40
12.200000
 50
27.266044
 51
63.155189
  0
ARC
  8
2
 10
-139.838414
 20
127.953894
 40
4.200000
 50
142.732455
 51
228.054482
  0
ARC
  8
2
 10
-147.838414
 20
120.453894
 40
11.900000
 50
12.074853
 51
59.979441
  0
ARC
  8
2
 10
-139.038414
 20
122.553894
 40
3.000000
 50
336.711111
 51
360.000000
  0
ARC
  8
2
 10
-144.030454
 20
125.661853
 40
7.992041
 50
0.000000
 51
170.664881
  0
ARC
  8
2
 10
-142.385027
 20
129.891615
 40
1.000000
 50
59.979441
 51
142.732455
  0
ARC
  8
2
 10
-133.159866
 20
120.023543
 40
3.400000
 50
156.711111
 51
183.361722
  0
ARC
  8
2
 10
-139.135325
 20
122.315680
 40
3.000000
 50
339.013597
 51
12.074853
  0
ARC
  8
2
 10
-143.738414
 20
117.053894
 40
7.700000
 50
0.000000
 51
78.321555
  0
ARC
  8
2
 10
-141.643248
 20
120.465518
 40
2.000000
 50
50.185257
 51
163.999284
  0
ARC
  8
2
 10
-141.026041
 20
113.223602
 40
2.000000
 50
205.743458
 51
243.155189
  0
ARC
  8
2
 10
-139.268034
 20
115.007928
 40
3.000000
 50
332.814519
 51
15.300094
  0
ARC
  8
2
 10
-141.038414
 20
103.852379
 40
5.000000
 50
0.000000
 51
27.266044
  0
ARC
  8
2
 10
-141.150338
 20
96.282265
 40
2.000000
 50
198.438050
 51
262.467220
  0
ARC
  8
2
 10
-141.525352
 20
105.935843
 40
2.000000
 50
46.987298
 51
166.011263
  0
ARC
  8
2
 10
-139.265090
 20
100.431056
 40
3.000000
 50
335.550904
 51
16.311797
  0
ARC
  8
2
 10
-141.038414
 20
88.553894
 40
5.000000
 50
0.000000
 51
22.619865
  0
ARC
  8
2
 10
-141.233126
 20
88.237082
 40
2.000000
 50
58.499542
 51
165.838931
  0
ARC
  8
2
 10
-141.095150
 20
74.746526
 40
2.000000
 50
195.333025
 51
267.540804
  0
ARC
  8
2
 10
-141.038414
 20
84.587159
 40
5.000000
 50
339.100972
 51
360.000000
  0
ARC
  8
2
 10
-139.150979
 20
83.923318
 40
3.000000
 50
338.954641
 51
15.426622
  0
ARC
  8
2
 10
-140.038414
 20
68.507197
 40
4.000000
 50
0.000000
 51
21.378501
  0
ARC
  8
2
 10
-139.038414
 20
68.553894
 40
3.000000
 50
0.000000
 51
36.869898
  0
ARC
  8
2
 10
-141.081308
 20
50.734151
 40
2.000000
 50
192.510198
 51
278.875589
  0
ARC
  8
2
 10
-141.148227
 20
66.065690
 40
2.000000
 50
62.208332
 51
167.989966
  0
ARC
  8
2
 10
-138.038414
 20
63.993795
 40
2.000000
 50
337.489521
 51
360.000000
  0
ARC
  8
2
 10
-138.265053
 20
63.423500
 40
2.000000
 50
339.163924
 51
32.786299
  0
ARC
  8
2
 10
-138.038414
 20
46.663369
 40
2.000000
 50
0.000000
 51
75.522488
  0
ARC
  8
2
 10
-139.038414
 20
47.717390
 40
3.000000
 50
0.000000
 51
21.986403
  0
ARC
  8
2
 10
-624.038414
 20
-55.346106
 40
3.000000
 50
180.000000
 51
270.000000
  0
LINE
  8
2
 10
-600.038414
 20
-61.346106
 11
-600.038414
 21
-64.346106
  0
LINE
  8
2
 10
-460.038414
 20
-62.198857
 11
-460.038414
 21
-64.346106
  0
LINE
  8
2
 10
-460.038414
 20
-64.346106
 11
-600.038414
 21
-64.346106
  0
LINE
  8
2
 10
-624.038414
 20
-58.346106
 11
-470.730249
 21
-58.346106
  0
LINE
  8
2
 10
-392.346578
 20
-58.346106
 11
-391.038414
 21
-58.346106
  0
LINE
  8
2
 10
-532.038414
 20
153.153894
 11
-532.038414
 21
144.853894
  0
LINE
  8
2
 10
-528.038414
 20
153.153894
 11
-528.038414
 21
144.853894
  0
CIRCLE
  8
2
 10
-530.038414
 20
461.253894
 40
42.500000
  0
LINE
  8
2
 10
-560.460609
 20
468.753894
 11
-539.523366
 21
468.753894
  0
LINE
  8
2
 10
-560.460609
 20
453.753894
 11
-539.523366
 21
453.753894
  0
LINE
  8
2
 10
-520.553461
 20
453.753894
 11
-499.616218
 21
453.753894
  0
LINE
  8
2
 10
-528.038414
 20
439.231419
 11
-528.038414
 21
437.087802
  0
LINE
  8
2
 10
-532.038414
 20
439.231419
 11
-532.038414
 21
437.087802
  0
LINE
  8
2
 10
-528.038414
 20
483.276369
 11
-528.038414
 21
485.419986
  0
LINE
  8
2
 10
-532.038414
 20
483.276369
 11
-532.038414
 21
485.419986
  0
LINE
  8
2
 10
-520.553461
 20
468.753894
 11
-499.616218
 21
468.753894
  0
ARC
  8
2
 10
-530.038414
 20
131.653894
 40
34.000000
 50
22.844739
 51
157.155261
  0
CIRCLE
  8
2
 10
-530.038414
 20
461.253894
 40
31.333050
  0
ARC
  8
2
 10
-567.463023
 20
461.580743
 40
45.000000
 50
12.236103
 51
30.645688
  0
ARC
  8
2
 10
-492.613804
 20
461.580743
 40
45.000000
 50
149.354312
 51
167.763897
  0
ARC
  8
2
 10
-530.038414
 20
483.753894
 40
1.500000
 50
30.645688
 51
149.354312
  0
ARC
  8
2
 10
-520.553461
 20
471.753894
 40
3.000000
 50
192.236103
 51
270.000000
  0
ARC
  8
2
 10
-539.523366
 20
471.753894
 40
3.000000
 50
270.000000
 51
347.763897
  0
ARC
  8
2
 10
-567.463023
 20
460.927045
 40
45.000000
 50
329.354312
 51
347.763897
  0
ARC
  8
2
 10
-492.613804
 20
460.927045
 40
45.000000
 50
192.236103
 51
210.645688
  0
ARC
  8
2
 10
-530.038414
 20
438.753894
 40
1.500000
 50
210.645688
 51
329.354312
  0
ARC
  8
2
 10
-520.553461
 20
450.753894
 40
3.000000
 50
90.000000
 51
167.763897
  0
ARC
  8
2
 10
-539.523366
 20
450.753894
 40
3.000000
 50
12.236103
 51
90.000000
  0
ARC
  8
2
 10
-530.038414
 20
461.253894
 40
24.248711
 50
18.016736
 51
161.983264
  0
ARC
  8
2
 10
-530.038414
 20
461.253894
 40
24.248711
 50
198.016736
 51
341.983264
  0
ARC
  8
2
 10
87.461586
 20
131.653894
 40
34.000000
 50
45.099128
 51
134.900872
  0
LINE
  8
2
 10
94.961581
 20
163.259380
 11
94.961586
 21
144.853894
  0
LINE
  8
2
 10
79.961586
 20
163.259380
 11
79.961586
 21
144.853894
  0
LINE
  8
2
 10
63.461586
 20
155.737083
 11
63.461586
 21
154.010996
  0
LINE
  8
2
 10
111.461586
 20
155.737083
 11
111.461586
 21
154.010996
  0
ARC
  8
2
 10
-530.038414
 20
130.153894
 40
28.000000
 50
34.712682
 51
81.884254
  0
ARC
  8
2
 10
-530.038414
 20
130.153894
 40
28.000000
 50
98.115746
 51
145.287318
  0
ARC
  8
2
 10
87.461586
 20
133.653894
 40
31.000000
 50
28.453097
 51
48.922243
  0
ARC
  8
2
 10
87.461586
 20
133.653894
 40
31.000000
 50
131.077757
 51
151.546903
  0
ARC
  8
2
 10
87.461586
 20
130.153894
 40
28.000000
 50
105.536794
 51
145.287318
  0
ARC
  8
2
 10
87.461586
 20
130.153894
 40
28.000000
 50
34.712682
 51
74.463206
  0
ARC
  8
2
 10
-531.038414
 20
153.153894
 40
1.000000
 50
90.000000
 51
180.000000
  0
ARC
  8
2
 10
-529.038414
 20
153.153894
 40
1.000000
 50
0.000000
 51
90.000000
  0
LINE
  8
2
 10
-531.038414
 20
154.153894
 11
-530.673647
 21
154.153899
  0
LINE
  8
2
 10
-529.402947
 20
154.154008
 11
-529.038414
 21
154.153894
  0
LINE
  8
2
 10
-538.854081
 20
438.664427
 11
-536.855212
 21
443.490124
  0
LINE
  8
2
 10
-522.297736
 20
478.634981
 11
-520.298867
 21
483.460677
  0
LINE
  8
2
 10
-539.777960
 20
439.047111
 11
-537.779091
 21
443.872808
  0
LINE
  8
2
 10
-523.221615
 20
479.017664
 11
-521.222746
 21
483.843361
  0
LINE
  8
2
 10
-546.827643
 20
443.757558
 11
-543.134214
 21
447.450987
  0
LINE
  8
2
 10
-516.235506
 20
474.349695
 11
-512.542077
 21
478.043124
  0
LINE
  8
2
 10
-547.534750
 20
444.464665
 11
-543.841321
 21
448.158093
  0
LINE
  8
2
 10
-516.942613
 20
475.056802
 11
-513.249184
 21
478.750230
  0
LINE
  8
2
 10
-552.245197
 20
451.514347
 11
-547.419500
 21
453.513216
  0
LINE
  8
2
 10
-510.625249
 20
468.753894
 11
-507.448947
 21
470.069562
  0
LINE
  8
2
 10
-552.627880
 20
452.438227
 11
-549.451578
 21
453.753894
  0
LINE
  8
2
 10
-512.657327
 20
468.994572
 11
-507.831630
 21
470.993441
  0
ARC
  8
2
 10
-537.317152
 20
443.681466
 40
0.500000
 50
337.500000
 51
157.500000
  0
ARC
  8
2
 10
-543.487768
 20
447.804540
 40
0.500000
 50
315.000000
 51
135.000000
  0
ARC
  8
2
 10
-547.610842
 20
453.975156
 40
0.500000
 50
292.500000
 51
333.734975
  0
ARC
  8
2
 10
-522.759675
 20
478.826322
 40
0.500000
 50
157.500000
 51
337.500000
  0
ARC
  8
2
 10
-516.589059
 20
474.703248
 40
0.500000
 50
135.000000
 51
315.000000
  0
ARC
  8
2
 10
-512.465985
 20
468.532632
 40
0.500000
 50
112.500000
 51
153.734975
  0
LINE
  8
2
 10
-513.237049
 20
452.400200
 11
-511.215004
 21
451.562641
  0
ARC
  8
2
 10
-512.567298
 20
454.017121
 40
1.750143
 50
188.650293
 51
247.500000
  0
ARC
  8
2
 10
-510.545253
 20
453.179563
 40
1.750143
 50
247.500000
 51
19.157293
  0
LINE
  8
2
 10
-546.839778
 20
470.107588
 11
-548.861823
 21
470.945147
  0
ARC
  8
2
 10
-547.509529
 20
468.490667
 40
1.750143
 50
8.650293
 51
67.500000
  0
ARC
  8
2
 10
-549.531574
 20
469.328226
 40
1.750143
 50
67.500000
 51
199.157293
  0
ARC
  8
2
 10
-494.638018
 20
134.419523
 40
45.274917
 50
159.102140
 51
166.675437
  0
ARC
  8
2
 10
-495.561898
 20
134.419523
 40
45.274917
 50
158.681079
 51
166.675437
  0
ARC
  8
2
 10
-537.337250
 20
150.722947
 40
0.430947
 50
339.102140
 51
158.681079
  0
ARC
  8
2
 10
-518.608485
 20
132.652642
 40
30.472934
 50
143.677597
 51
156.397040
  0
ARC
  8
2
 10
-519.315591
 20
132.652642
 40
30.472934
 50
142.882669
 51
156.397040
  0
ARC
  8
2
 10
-543.388766
 20
150.870490
 40
0.283404
 50
323.677597
 51
142.882669
  0
ARC
  8
2
 10
-527.364072
 20
130.885760
 40
28.197761
 50
134.711482
 51
150.306296
  0
ARC
  8
2
 10
-527.746756
 20
130.885760
 40
28.197761
 50
134.156238
 51
150.306296
  0
ARC
  8
2
 10
-547.296488
 20
151.019937
 40
0.133957
 50
314.711482
 51
134.156238
  0
ARC
  8
2
 10
52.061191
 20
134.419523
 40
45.274917
 50
13.324563
 51
18.638604
  0
ARC
  8
2
 10
52.985071
 20
134.419523
 40
45.274917
 50
13.324563
 51
21.318921
  0
ARC
  8
2
 10
94.760423
 20
150.722947
 40
0.430947
 50
21.318921
 51
62.173379
  0
ARC
  8
2
 10
76.031658
 20
132.652642
 40
30.472934
 50
23.602960
 51
36.322403
  0
ARC
  8
2
 10
76.738764
 20
132.652642
 40
30.472934
 50
23.602960
 51
37.117331
  0
ARC
  8
2
 10
100.811939
 20
150.870490
 40
0.283404
 50
37.117331
 51
216.322403
  0
ARC
  8
2
 10
84.787245
 20
130.885760
 40
28.197761
 50
29.693704
 51
45.288518
  0
ARC
  8
2
 10
85.169929
 20
130.885760
 40
28.197761
 50
29.693704
 51
45.843762
  0
ARC
  8
2
 10
104.719661
 20
151.019937
 40
0.133957
 50
45.843762
 51
225.288518
  0
LINE
  8
2
 10
44.961586
 20
144.853894
 11
129.961586
 21
144.853894
  0
LINE
  8
2
 10
-487.538414
 20
144.853894
 11
-572.538414
 21
144.853894
  0
ARC
  8
2
 10
-530.038414
 20
131.653894
 40
33.162479
 50
104.962752
 51
150.128593
  0
ARC
  8
2
 10
-524.483865
 20
163.643757
 40
10.000000
 50
202.238154
 51
227.992896
  0
ARC
  8
2
 10
-537.826095
 20
160.793680
 40
3.000000
 50
42.388379
 51
104.962752
  0
ARC
  8
2
 10
-542.996240
 20
156.074612
 40
10.000000
 50
22.238154
 51
42.388379
  0
ARC
  8
2
 10
-535.592962
 20
163.643757
 40
10.000000
 50
312.007104
 51
337.761846
  0
ARC
  8
2
 10
-517.080587
 20
156.074612
 40
10.000000
 50
137.611621
 51
157.761846
  0
ARC
  8
2
 10
-522.250732
 20
160.793680
 40
3.000000
 50
75.037248
 51
137.611621
  0
ARC
  8
2
 10
-530.038414
 20
131.653894
 40
33.162479
 50
29.871407
 51
75.037248
  0
ARC
  8
2
 10
-530.038414
 20
157.476344
 40
1.700000
 50
227.992896
 51
312.007104
  0
ARC
  8
2
 10
-529.563523
 20
130.831359
 40
32.849358
 50
105.470231
 51
147.621493
  0
ARC
  8
2
 10
-523.529913
 20
163.752255
 40
12.000000
 50
200.135943
 51
231.694293
  0
ARC
  8
2
 10
-540.429726
 20
157.555777
 40
6.000000
 50
20.135943
 51
48.747449
  0
ARC
  8
2
 10
-537.792209
 20
160.563019
 40
2.000000
 50
48.747449
 51
105.470231
  0
ARC
  8
2
 10
-536.546914
 20
163.752255
 40
12.000000
 50
308.305707
 51
339.864057
  0
ARC
  8
2
 10
-519.647101
 20
157.555777
 40
6.000000
 50
131.252551
 51
159.864057
  0
ARC
  8
2
 10
-522.284619
 20
160.563019
 40
2.000000
 50
74.529769
 51
131.252551
  0
ARC
  8
2
 10
-530.513304
 20
130.831359
 40
32.849358
 50
32.378507
 51
74.529769
  0
ARC
  8
2
 10
-530.038414
 20
155.512751
 40
1.500000
 50
231.694293
 51
308.305707
  0
ARC
  8
2
 10
79.177798
 20
152.332926
 40
11.430139
 50
88.512215
 51
112.714662
  0
ARC
  8
2
 10
79.461586
 20
163.259380
 40
0.500000
 50
0.000000
 51
88.512215
  0
ARC
  8
2
 10
90.297960
 20
125.768421
 40
40.228245
 50
112.714662
 51
131.843847
  0
ARC
  8
2
 10
80.667801
 20
145.436949
 40
17.127052
 50
93.791923
 51
118.737001
  0
ARC
  8
2
 10
79.561586
 20
162.127382
 40
0.400000
 50
0.000000
 51
93.791923
  0
ARC
  8
2
 10
94.380150
 20
120.429184
 40
45.647515
 50
118.737001
 51
132.635576
  0
ARC
  8
2
 10
94.255372
 20
145.436949
 40
17.127052
 50
61.262999
 51
86.208077
  0
ARC
  8
2
 10
80.543023
 20
120.429184
 40
45.647515
 50
47.364424
 51
61.262999
  0
ARC
  8
2
 10
95.361586
 20
162.127382
 40
0.400000
 50
86.208077
 51
180.000000
  0
ARC
  8
2
 10
95.461586
 20
163.259380
 40
0.500000
 50
91.487785
 51
180.000000
  0
ARC
  8
2
 10
95.745375
 20
152.332926
 40
11.430139
 50
67.285338
 51
91.487785
  0
ARC
  8
2
 10
84.625213
 20
125.768421
 40
40.228245
 50
48.156153
 51
67.285338
  0
ARC
  8
2
  6
CENTER
 62
2
 10
-530.038414
 20
461.253894
 40
37.500000
 50
126.361503
 51
143.885033
  0
ARC
  8
2
  6
CENTER
 62
2
 10
-530.038414
 20
461.253894
 40
37.500000
 50
216.933310
 51
233.416879
  0
ARC
  8
2
  6
CENTER
 62
2
 10
-530.038414
 20
461.253894
 40
37.500000
 50
306.278748
 51
323.822644
  0
ARC
  8
2
  6
CENTER
 62
2
 10
-530.038414
 20
461.253894
 40
37.500000
 50
36.280641
 51
53.737219
  0
LINE
  8
2
  6
CENTER
 62
2
 10
-560.877700
 20
430.414608
 11
-552.827100
 21
438.465208
  0
LINE
  8
2
  6
CENTER
 62
2
 10
-507.647560
 20
483.644748
 11
-499.101187
 21
492.191121
  0
LINE
  8
2
  6
CENTER
 62
2
 10
-560.932033
 20
492.147513
 11
-552.581041
 21
483.796521
  0
LINE
  8
2
  6
CENTER
 62
2
 10
-507.466330
 20
438.681810
 11
-499.335266
 21
430.550747
  0
LINE
  8
2
  6
CENTER
 62
2
 10
113.978091
 20
135.998712
 11
113.978091
 21
151.610170
  0
LINE
  8
2
  6
CENTER
 62
2
 10
60.945082
 20
135.998712
 11
60.945082
 21
153.004060
  0
LINE
  8
2
  6
CENTER
 62
2
 10
-556.554918
 20
151.569340
 11
-556.554918
 21
135.148915
  0
LINE
  8
2
  6
CENTER
 62
2
 10
-503.521909
 20
151.999196
 11
-503.521909
 21
135.148915
  0
CIRCLE
  8
2
 10
-503.521909
 20
434.737390
 40
3.500000
  0
CIRCLE
  8
2
 10
-503.521909
 20
487.770398
 40
3.500000
  0
CIRCLE
  8
2
 10
-556.554918
 20
434.737390
 40
3.500000
  0
CIRCLE
  8
2
 10
-556.554918
 20
487.770398
 40
3.500000
  0
LINE
  8
2
 10
-499.721909
 20
145.853894
 11
-507.321909
 21
145.853894
  0
LINE
  8
2
 10
-499.721909
 20
145.853894
 11
-499.721909
 21
144.853894
  0
LINE
  8
2
 10
-507.321909
 20
145.853894
 11
-507.321909
 21
144.853894
  0
LINE
  8
2
 10
-500.021909
 20
146.832918
 11
-500.021909
 21
145.853894
  0
LINE
  8
2
 10
-507.021909
 20
146.832918
 11
-507.021909
 21
145.853894
  0
ARC
  8
2
 10
-503.521909
 20
139.453894
 40
9.000000
 50
73.398450
 51
106.601550
  0
ARC
  8
2
 10
-501.321909
 20
146.832918
 40
1.300000
 50
0.000000
 51
73.398450
  0
ARC
  8
2
 10
-505.721909
 20
146.832918
 40
1.300000
 50
106.601550
 51
180.000000
  0
LINE
  8
2
 10
-552.754918
 20
145.853894
 11
-560.354918
 21
145.853894
  0
LINE
  8
2
 10
-552.754918
 20
145.853894
 11
-552.754918
 21
144.853894
  0
LINE
  8
2
 10
-560.354918
 20
145.853894
 11
-560.354918
 21
144.853894
  0
LINE
  8
2
 10
-553.054918
 20
146.832918
 11
-553.054918
 21
145.853894
  0
LINE
  8
2
 10
-560.054918
 20
146.832918
 11
-560.054918
 21
145.853894
  0
ARC
  8
2
 10
-556.554918
 20
139.453894
 40
9.000000
 50
73.398450
 51
106.601550
  0
ARC
  8
2
 10
-554.354918
 20
146.832918
 40
1.300000
 50
0.000000
 51
73.398450
  0
ARC
  8
2
 10
-558.754918
 20
146.832918
 40
1.300000
 50
106.601550
 51
180.000000
  0
LINE
  8
2
 10
64.745082
 20
145.853894
 11
57.145082
 21
145.853894
  0
LINE
  8
2
 10
64.745082
 20
145.853894
 11
64.745082
 21
144.853894
  0
LINE
  8
2
 10
57.145082
 20
145.853894
 11
57.145082
 21
144.853894
  0
LINE
  8
2
 10
64.445082
 20
146.832918
 11
64.445082
 21
145.853894
  0
LINE
  8
2
 10
57.445082
 20
146.832918
 11
57.445082
 21
145.853894
  0
ARC
  8
2
 10
60.945082
 20
139.453894
 40
9.000000
 50
73.398450
 51
106.601550
  0
ARC
  8
2
 10
63.145082
 20
146.832918
 40
1.300000
 50
0.000000
 51
73.398450
  0
ARC
  8
2
 10
58.745082
 20
146.832918
 40
1.300000
 50
106.601550
 51
180.000000
  0
LINE
  8
2
 10
117.778091
 20
145.853894
 11
110.178091
 21
145.853894
  0
LINE
  8
2
 10
117.778091
 20
145.853894
 11
117.778091
 21
144.853894
  0
LINE
  8
2
 10
110.178091
 20
145.853894
 11
110.178091
 21
144.853894
  0
LINE
  8
2
 10
117.478091
 20
146.832918
 11
117.478091
 21
145.853894
  0
LINE
  8
2
 10
110.478091
 20
146.832918
 11
110.478091
 21
145.853894
  0
ARC
  8
2
 10
113.978091
 20
139.453894
 40
9.000000
 50
73.398450
 51
106.601550
  0
ARC
  8
2
 10
116.178091
 20
146.832918
 40
1.300000
 50
0.000000
 51
73.398450
  0
ARC
  8
2
 10
111.778091
 20
146.832918
 40
1.300000
 50
106.601550
 51
180.000000
  0
ARC
  8
2
 10
-368.038414
 20
370.253894
 40
3.000000
 50
360.000000
 51
90.000000
  0
LINE
  8
2
 10
-386.038414
 20
546.253894
 11
-386.038414
 21
378.253894
  0
LINE
  8
2
 10
-402.221744
 20
373.253894
 11
-459.435383
 21
373.253894
  0
LINE
  8
2
 10
-368.038414
 20
373.253894
 11
-389.560264
 21
373.253894
  0
LINE
  8
2
 10
-365.038414
 20
353.253894
 11
-365.038414
 21
370.253894
  0
LINE
  8
2
 10
-365.038414
 20
361.253894
 11
-753.038414
 21
361.253894
  0
LINE
  8
2
 10
-474.641444
 20
373.253894
 11
-606.759696
 21
373.253894
  0
LINE
  8
2
 10
-753.038414
 20
353.253894
 11
-753.038414
 21
546.253894
  0
LINE
  8
2
 10
-669.038414
 20
398.253894
 11
-669.038414
 21
524.253894
  0
LINE
  8
2
 10
-674.777372
 20
531.253894
 11
-412.038414
 21
531.253894
  0
LINE
  8
2
 10
-405.038414
 20
524.253894
 11
-405.038414
 21
376.253894
  0
ARC
  8
2
 10
-662.038414
 20
524.253894
 40
7.000000
 50
90.000000
 51
180.000000
  0
ARC
  8
2
 10
-662.038414
 20
398.253894
 40
7.000000
 50
180.000000
 51
270.000000
  0
ARC
  8
2
 10
-412.038414
 20
524.253894
 40
7.000000
 50
0.000000
 51
90.000000
  0
ARC
  8
2
 10
-412.038414
 20
398.253894
 40
7.000000
 50
270.000000
 51
360.000000
  0
ARC
  8
2
 10
-628.038414
 20
-41.346106
 40
1.000000
 50
0.000000
 51
90.000000
  0
ARC
  8
2
 10
-573.038414
 20
33.653894
 40
180.000000
 50
170.024200
 51
198.428986
  0
ARC
  8
2
 10
-720.089425
 20
-15.346106
 40
25.000000
 50
198.428986
 51
270.000000
  0
LINE
  8
2
 10
-727.438882
 20
85.443988
 11
-505.493540
 21
100.963918
  0
ARC
  8
2
 10
-725.694970
 20
60.504887
 40
25.000000
 50
94.000000
 51
170.024200
  0
LINE
  8
2
 10
-669.038414
 20
118.653894
 11
-675.474111
 21
100.971959
  0
ARC
  8
2
 10
-694.267964
 20
107.812362
 40
20.000000
 50
274.000000
 51
340.000000
  0
LINE
  8
2
 10
-738.038414
 20
561.253894
 11
-401.038414
 21
561.253894
  0
CIRCLE
  8
2
 10
-467.038414
 20
376.253894
 40
7.099784
  0
ARC
  8
2
 10
-459.435383
 20
371.253894
 40
2.000000
 50
90.000000
 51
146.669780
  0
ARC
  8
2
 10
-474.641444
 20
371.253894
 40
2.000000
 50
33.330220
 51
90.000000
  0
CIRCLE
  8
2
 10
-467.038414
 20
376.253894
 40
6.000000
  0
CIRCLE
  8
2
 10
-614.038414
 20
376.253894
 40
6.000000
  0
LINE
  8
2
 10
-622.038414
 20
388.253894
 11
-622.038414
 21
376.253894
  0
ARC
  8
2
 10
-619.038414
 20
388.253894
 40
3.000000
 50
90.000000
 51
180.000000
  0
ARC
  8
2
 10
-619.038414
 20
376.253894
 40
3.000000
 50
180.000000
 51
235.972242
  0
CIRCLE
  8
2
 10
-614.038414
 20
376.253894
 40
6.830613
  0
ARC
  8
2
 10
-606.759696
 20
371.253894
 40
2.000000
 50
90.000000
 51
145.513495
  0
ARC
  8
2
 10
-621.836386
 20
372.110061
 40
2.000000
 50
27.986121
 51
55.972242
  0
CIRCLE
  8
2
 10
-396.038414
 20
376.253894
 40
6.000000
  0
CIRCLE
  8
2
 10
-396.038414
 20
376.253894
 40
6.183301
  0
ARC
  8
2
 10
-389.560264
 20
371.253894
 40
2.000000
 50
90.000000
 51
142.338130
  0
ARC
  8
2
 10
-402.038414
 20
376.253894
 40
3.000000
 50
180.000000
 51
264.293054
  0
ARC
  8
2
 10
-402.535615
 20
371.278677
 40
2.000000
 50
37.443005
 51
84.293054
  0
ARC
  8
2
 10
-381.038414
 20
378.253894
 40
5.000000
 50
180.000000
 51
270.000000
  0
LINE
  8
2
 10
-396.038414
 20
467.253894
 11
-388.038414
 21
467.253894
  0
LINE
  8
2
 10
-396.038414
 20
455.253894
 11
-388.038414
 21
455.253894
  0
ARC
  8
2
 10
-396.038414
 20
461.253894
 40
6.000000
 50
90.000000
 51
270.000000
  0
ARC
  8
2
 10
-388.038414
 20
453.253894
 40
2.000000
 50
0.000000
 51
90.000000
  0
ARC
  8
2
 10
-388.038414
 20
469.253894
 40
2.000000
 50
270.000000
 51
0.000000
  0
ARC
  8
2
 10
-401.038414
 20
546.253894
 40
15.000000
 50
0.000000
 51
90.000000
  0
LINE
  8
2
 10
-400.038414
 20
541.253894
 11
-388.038414
 21
541.253894
  0
LINE
  8
2
 10
-406.038414
 20
547.253894
 11
-406.038414
 21
559.253894
  0
ARC
  8
2
 10
-400.038414
 20
547.253894
 40
6.000000
 50
180.000000
 51
270.000000
  0
ARC
  8
2
 10
-388.038414
 20
539.253894
 40
2.000000
 50
0.000000
 51
90.000000
  0
ARC
  8
2
 10
-408.038414
 20
559.253894
 40
2.000000
 50
0.000000
 51
90.000000
  0
LINE
  8
2
 10
-461.038414
 20
551.253894
 11
-461.038414
 21
559.253894
  0
LINE
  8
2
 10
-473.038414
 20
551.253894
 11
-473.038414
 21
559.253894
  0
ARC
  8
2
 10
-467.038414
 20
551.253894
 40
6.000000
 50
180.000000
 51
360.000000
  0
ARC
  8
2
 10
-459.038414
 20
559.253894
 40
2.000000
 50
90.000000
 51
180.000000
  0
ARC
  8
2
 10
-475.038414
 20
559.253894
 40
2.000000
 50
0.000000
 51
90.000000
  0
LINE
  8
2
 10
-608.038414
 20
551.253894
 11
-608.038414
 21
559.253894
  0
LINE
  8
2
 10
-620.038414
 20
551.253894
 11
-620.038414
 21
559.253894
  0
ARC
  8
2
 10
-614.038414
 20
551.253894
 40
6.000000
 50
180.000000
 51
360.000000
  0
ARC
  8
2
 10
-606.038414
 20
559.253894
 40
2.000000
 50
90.000000
 51
180.000000
  0
ARC
  8
2
 10
-622.038414
 20
559.253894
 40
2.000000
 50
0.000000
 51
90.000000
  0
ARC
  8
2
 10
-637.038414
 20
546.253894
 40
15.000000
 50
360.000000
 51
90.000000
  0
ARC
  8
2
 10
-738.038414
 20
546.253894
 40
15.000000
 50
90.000000
 51
180.000000
  0
LINE
  8
2
 10
-733.038414
 20
547.253894
 11
-733.038414
 21
559.253894
  0
LINE
  8
2
 10
-739.038414
 20
541.253894
 11
-748.847300
 21
541.253894
  0
ARC
  8
2
 10
-739.038414
 20
547.253894
 40
6.000000
 50
270.000000
 51
360.000000
  0
ARC
  8
2
 10
-731.038414
 20
559.253894
 40
2.000000
 50
90.000000
 51
180.000000
  0
LINE
  8
2
 10
-744.038414
 20
467.253894
 11
-748.847300
 21
467.253894
  0
LINE
  8
2
 10
-744.038414
 20
455.253894
 11
-748.847300
 21
455.253894
  0
ARC
  8
2
 10
-744.038414
 20
461.253894
 40
6.000000
 50
270.000000
 51
90.000000
  0
LINE
  8
2
 10
-744.038414
 20
388.253894
 11
-748.847300
 21
388.253894
  0
LINE
  8
2
 10
-744.038414
 20
376.253894
 11
-748.847300
 21
376.253894
  0
ARC
  8
2
 10
-744.038414
 20
382.253894
 40
6.000000
 50
270.000000
 51
90.000000
  0
LINE
  8
2
 10
-681.777372
 20
398.253894
 11
-681.777372
 21
524.253894
  0
ARC
  8
2
 10
-674.777372
 20
524.253894
 40
7.000000
 50
90.000000
 51
180.000000
  0
LINE
  8
2
 10
-749.038414
 20
391.253894
 11
-412.038414
 21
391.253894
  0
ARC
  8
2
 10
-748.847300
 20
390.253894
 40
2.000000
 50
180.000000
 51
270.000000
  0
ARC
  8
2
 10
-748.847300
 20
374.253894
 40
2.000000
 50
90.000000
 51
180.000000
  0
ARC
  8
2
 10
-748.847300
 20
469.253894
 40
2.000000
 50
180.000000
 51
270.000000
  0
ARC
  8
2
 10
-748.847300
 20
453.253894
 40
2.000000
 50
90.000000
 51
180.000000
  0
ARC
  8
2
 10
-748.847300
 20
539.253894
 40
2.000000
 50
90.000000
 51
180.000000
  0
LINE
  8
2
 10
-750.847300
 20
376.253894
 11
-750.847300
 21
388.253894
  0
LINE
  8
2
 10
-750.847300
 20
455.253894
 11
-750.847300
 21
467.253894
  0
ARC
  8
2
 10
-674.777372
 20
398.253894
 40
7.000000
 50
180.000000
 51
270.000000
  0
ARC
  8
2
 10
-403.538414
 20
468.753894
 40
0.500000
 50
270.000000
 51
360.000000
  0
ARC
  8
2
 10
-404.538414
 20
467.753894
 40
0.500000
 50
90.000000
 51
180.000000
  0
ARC
  8
2
 10
-403.538414
 20
503.753894
 40
0.500000
 50
0.000000
 51
90.000000
  0
ARC
  8
2
 10
-404.538414
 20
504.753894
 40
0.500000
 50
180.000000
 51
270.000000
  0
ARC
  8
2
 10
-403.538414
 20
453.753894
 40
0.500000
 50
360.000000
 51
90.000000
  0
ARC
  8
2
 10
-404.538414
 20
454.753894
 40
0.500000
 50
180.000000
 51
270.000000
  0
ARC
  8
2
 10
-403.538414
 20
418.753894
 40
0.500000
 50
270.000000
 51
360.000000
  0
ARC
  8
2
 10
-404.538414
 20
417.753894
 40
0.500000
 50
90.000000
 51
180.000000
  0
LINE
  8
2
 10
-594.038414
 20
574.253894
 11
-566.038414
 21
574.253894
  0
LINE
  8
2
 10
-494.038414
 20
574.253894
 11
-466.038414
 21
574.253894
  0
ARC
  8
2
 10
-466.038414
 20
573.253894
 40
1.000000
 50
0.000000
 51
90.000000
  0
ARC
  8
2
 10
-494.038414
 20
573.253894
 40
1.000000
 50
90.000000
 51
180.000000
  0
ARC
  8
2
 10
-566.038414
 20
573.253894
 40
1.000000
 50
0.000000
 51
90.000000
  0
ARC
  8
2
 10
-594.038414
 20
573.253894
 40
1.000000
 50
90.000000
 51
180.000000
  0
LINE
  8
2
 10
-462.038414
 20
569.253894
 11
-441.193114
 21
569.253894
  0
LINE
  8
2
 10
-618.883713
 20
569.253894
 11
-598.038414
 21
569.253894
  0
LINE
  8
2
 10
-562.038414
 20
569.253894
 11
-498.038414
 21
569.253894
  0
ARC
  8
2
 10
-462.038414
 20
572.253894
 40
3.000000
 50
180.000000
 51
270.000000
  0
ARC
  8
2
 10
-498.038414
 20
572.253894
 40
3.000000
 50
270.000000
 51
360.000000
  0
ARC
  8
2
 10
-562.038414
 20
572.253894
 40
3.000000
 50
180.000000
 51
270.000000
  0
ARC
  8
2
 10
-598.038414
 20
572.253894
 40
3.000000
 50
270.000000
 51
360.000000
  0
LINE
  8
2
 10
-620.615764
 20
568.253894
 11
-623.791190
 21
562.753894
  0
ARC
  8
2
 10
-618.883713
 20
567.253894
 40
2.000000
 50
90.000000
 51
150.000000
  0
ARC
  8
2
 10
-626.389266
 20
564.253894
 40
3.000000
 50
270.000000
 51
330.000000
  0
LINE
  8
2
 10
-439.461063
 20
568.253894
 11
-436.285637
 21
562.753894
  0
ARC
  8
2
 10
-441.193114
 20
567.253894
 40
2.000000
 50
30.000000
 51
90.000000
  0
ARC
  8
2
 10
-433.687561
 20
564.253894
 40
3.000000
 50
210.000000
 51
270.000000
  0
LINE
  8
2
 10
-465.038414
 20
573.253894
 11
-465.038414
 21
572.253894
  0
LINE
  8
2
 10
-495.038414
 20
573.253894
 11
-495.038414
 21
572.253894
  0
LINE
  8
2
 10
-565.038414
 20
573.253894
 11
-565.038414
 21
572.253894
  0
LINE
  8
2
 10
-595.038414
 20
573.253894
 11
-595.038414
 21
572.253894
  0
LINE
  8
2
 10
-493.888414
 20
574.253894
 11
-493.888414
 21
585.897121
  0
LINE
  8
2
 10
-493.888414
 20
585.897121
 11
-491.538414
 21
587.253894
  0
LINE
  8
2
 10
-491.538414
 20
587.253894
 11
-480.038414
 21
587.253894
  0
LINE
  8
2
 10
-486.963414
 20
574.253894
 11
-486.963414
 21
585.897121
  0
ARC
  8
2
 10
-490.425914
 20
581.445960
 40
5.639303
 50
52.121121
 51
127.878879
  0
ARC
  8
2
 10
-480.038414
 20
566.310263
 40
20.775000
 50
90.000000
 51
109.471221
  0
LINE
  8
2
 10
-466.188414
 20
574.253894
 11
-466.188414
 21
585.897121
  0
LINE
  8
2
 10
-466.188414
 20
585.897121
 11
-468.538414
 21
587.253894
  0
LINE
  8
2
 10
-468.538414
 20
587.253894
 11
-480.038414
 21
587.253894
  0
LINE
  8
2
 10
-473.113414
 20
574.253894
 11
-473.113414
 21
585.897121
  0
ARC
  8
2
 10
-469.650914
 20
581.445960
 40
5.639303
 50
52.121121
 51
127.878879
  0
ARC
  8
2
 10
-480.038414
 20
566.310263
 40
20.775000
 50
70.528779
 51
90.000000
  0
LINE
  8
2
 10
-593.888414
 20
574.253894
 11
-593.888414
 21
585.897121
  0
LINE
  8
2
 10
-593.888414
 20
585.897121
 11
-591.538414
 21
587.253894
  0
LINE
  8
2
 10
-591.538414
 20
587.253894
 11
-580.038414
 21
587.253894
  0
LINE
  8
2
 10
-586.963414
 20
574.253894
 11
-586.963414
 21
585.897121
  0
ARC
  8
2
 10
-590.425914
 20
581.445960
 40
5.639303
 50
52.121121
 51
127.878879
  0
ARC
  8
2
 10
-580.038414
 20
566.310263
 40
20.775000
 50
90.000000
 51
109.471221
  0
LINE
  8
2
 10
-566.188414
 20
574.253894
 11
-566.188414
 21
585.897121
  0
LINE
  8
2
 10
-566.188414
 20
585.897121
 11
-568.538414
 21
587.253894
  0
LINE
  8
2
 10
-568.538414
 20
587.253894
 11
-580.038414
 21
587.253894
  0
LINE
  8
2
 10
-573.113414
 20
574.253894
 11
-573.113414
 21
585.897121
  0
ARC
  8
2
 10
-569.650914
 20
581.445960
 40
5.639303
 50
52.121121
 51
127.878879
  0
ARC
  8
2
 10
-580.038414
 20
566.310263
 40
20.775000
 50
70.528779
 51
90.000000
  0
LINE
  8
2
 10
-473.120914
 20
597.253894
 11
-472.038414
 21
596.171394
  0
LINE
  8
2
 10
-472.038414
 20
596.171394
 11
-472.038414
 21
587.253894
  0
LINE
  8
2
 62
2
 10
-473.120914
 20
597.253894
 11
-473.120914
 21
587.253894
  0
LINE
  8
2
 10
-473.120914
 20
597.253894
 11
-486.955914
 21
597.253894
  0
LINE
  8
2
 10
-486.955914
 20
597.253894
 11
-488.038414
 21
596.171394
  0
LINE
  8
2
 10
-488.038414
 20
596.171394
 11
-488.038414
 21
587.253894
  0
LINE
  8
2
 10
-488.038414
 20
596.171394
 11
-472.038414
 21
596.171394
  0
LINE
  8
2
 62
2
 10
-486.955914
 20
597.253894
 11
-486.955914
 21
587.253894
  0
LINE
  8
2
 10
-573.120914
 20
597.253894
 11
-572.038414
 21
596.171394
  0
LINE
  8
2
 10
-572.038414
 20
596.171394
 11
-572.038414
 21
587.253894
  0
LINE
  8
2
 62
2
 10
-573.120914
 20
597.253894
 11
-573.120914
 21
587.253894
  0
LINE
  8
2
 10
-573.120914
 20
597.253894
 11
-586.955914
 21
597.253894
  0
LINE
  8
2
 10
-586.955914
 20
597.253894
 11
-588.038414
 21
596.171394
  0
LINE
  8
2
 10
-588.038414
 20
596.171394
 11
-588.038414
 21
587.253894
  0
LINE
  8
2
 10
-588.038414
 20
596.171394
 11
-572.038414
 21
596.171394
  0
LINE
  8
2
 62
2
 10
-586.955914
 20
597.253894
 11
-586.955914
 21
587.253894
  0
LINE
  8
2
 10
-412.038414
 20
517.253894
 11
-407.038414
 21
517.253894
  0
LINE
  8
2
 10
-412.038414
 20
405.253894
 11
-407.038414
 21
405.253894
  0
LINE
  8
2
 10
-662.038414
 20
405.253894
 11
-667.038414
 21
405.253894
  0
LINE
  8
2
 10
-662.038414
 20
517.253894
 11
-667.038414
 21
517.253894
  0
LINE
  8
2
 10
-419.038414
 20
524.253894
 11
-419.038414
 21
529.253894
  0
LINE
  8
2
 10
-530.038414
 20
524.253894
 11
-530.038414
 21
529.253894
  0
LINE
  8
2
 10
-544.038414
 20
524.253894
 11
-544.038414
 21
529.253894
  0
LINE
  8
2
 10
-655.038414
 20
524.253894
 11
-655.038414
 21
529.253894
  0
LINE
  8
2
 10
-655.038414
 20
398.253894
 11
-655.038414
 21
393.253894
  0
LINE
  8
2
 10
-544.038414
 20
398.253894
 11
-544.038414
 21
393.253894
  0
LINE
  8
2
 10
-530.038414
 20
398.253894
 11
-530.038414
 21
393.253894
  0
LINE
  8
2
 10
-419.038414
 20
398.253894
 11
-419.038414
 21
393.253894
  0
ARC
  8
2
 10
-412.038414
 20
524.253894
 40
7.000000
 50
180.000000
 51
270.000000
  0
ARC
  8
2
 10
-407.038414
 20
515.253894
 40
2.000000
 50
0.000000
 51
90.000000
  0
ARC
  8
2
 10
-421.038414
 20
529.253894
 40
2.000000
 50
0.000000
 51
90.000000
  0
ARC
  8
2
 10
-537.038414
 20
524.253894
 40
7.000000
 50
180.000000
 51
360.000000
  0
ARC
  8
2
 10
-546.038414
 20
529.253894
 40
2.000000
 50
0.000000
 51
90.000000
  0
ARC
  8
2
 10
-528.038414
 20
529.253894
 40
2.000000
 50
90.000000
 51
180.000000
  0
ARC
  8
2
 10
-662.038414
 20
524.253894
 40
7.000000
 50
270.000000
 51
360.000000
  0
ARC
  8
2
 10
-653.038414
 20
529.253894
 40
2.000000
 50
90.000000
 51
180.000000
  0
ARC
  8
2
 10
-667.038414
 20
515.253894
 40
2.000000
 50
90.000000
 51
180.000000
  0
ARC
  8
2
 10
-662.038414
 20
398.253894
 40
7.000000
 50
0.000000
 51
90.000000
  0
ARC
  8
2
 10
-653.038414
 20
393.253894
 40
2.000000
 50
180.000000
 51
270.000000
  0
ARC
  8
2
 10
-667.038414
 20
407.253894
 40
2.000000
 50
180.000000
 51
270.000000
  0
ARC
  8
2
 10
-537.038414
 20
398.253894
 40
7.000000
 50
360.000000
 51
180.000000
  0
ARC
  8
2
 10
-546.038414
 20
393.253894
 40
2.000000
 50
270.000000
 51
360.000000
  0
ARC
  8
2
 10
-528.038414
 20
393.253894
 40
2.000000
 50
180.000000
 51
270.000000
  0
ARC
  8
2
 10
-412.038414
 20
398.253894
 40
7.000000
 50
90.000000
 51
180.000000
  0
ARC
  8
2
 10
-407.038414
 20
407.253894
 40
2.000000
 50
270.000000
 51
360.000000
  0
ARC
  8
2
 10
-421.038414
 20
393.253894
 40
2.000000
 50
270.000000
 51
360.000000
  0
LINE
  8
2
 10
-410.932399
 20
138.653894
 11
-660.077822
 21
138.653894
  0
LINE
  8
2
 10
-475.127403
 20
123.653894
 11
-668.538414
 21
123.653894
  0
LINE
  8
2
 10
-669.038414
 20
118.653894
 11
-669.038414
 21
123.653894
  0
LINE
  8
2
 10
-669.038414
 20
123.653894
 11
-664.776285
 21
135.363995
  0
LINE
  8
2
 10
-405.614197
 20
130.235129
 11
-405.951426
 21
134.089673
  0
LINE
  8
2
 10
-406.350743
 20
408.253894
 11
-406.350743
 21
514.253894
  0
LINE
  8
2
 10
-663.578860
 20
408.253894
 11
-663.578860
 21
514.253894
  0
ARC
  8
2
 10
-660.077822
 20
133.653894
 40
5.000000
 50
90.000000
 51
160.000000
  0
ARC
  8
2
 10
-410.932399
 20
133.653894
 40
5.000000
 50
5.000000
 51
90.000000
  0
LINE
  8
2
 10
-655.038414
 20
133.653894
 11
-655.038414
 21
124.153894
  0
LINE
  8
2
 10
-544.038414
 20
133.653894
 11
-544.038414
 21
124.153894
  0
LINE
  8
2
 10
-530.038414
 20
133.653894
 11
-530.038414
 21
124.153894
  0
LINE
  8
2
 10
-419.038414
 20
133.653894
 11
-419.038414
 21
132.869568
  0
ARC
  8
2
 10
-650.038414
 20
133.653894
 40
5.000000
 50
90.000000
 51
180.000000
  0
ARC
  8
2
 10
-549.038414
 20
133.653894
 40
5.000000
 50
360.000000
 51
90.000000
  0
ARC
  8
2
 10
-525.038414
 20
133.653894
 40
5.000000
 50
90.000000
 51
180.000000
  0
ARC
  8
2
 10
-424.038414
 20
133.653894
 40
5.000000
 50
0.000000
 51
90.000000
  0
ARC
  8
2
 10
-655.538414
 20
124.153894
 40
0.500000
 50
270.000000
 51
360.000000
  0
ARC
  8
2
 10
-543.538414
 20
124.153894
 40
0.500000
 50
180.000000
 51
270.000000
  0
ARC
  8
2
 10
-530.538414
 20
124.153894
 40
0.500000
 50
270.000000
 51
360.000000
  0
ARC
  8
2
 10
-668.538414
 20
123.153894
 40
0.500000
 50
90.000000
 51
180.000000
  0
LINE
  8
2
 10
-487.538414
 20
143.653894
 11
-572.538414
 21
143.653894
  0
LINE
  8
2
 10
-572.538414
 20
144.853894
 11
-572.538414
 21
141.653894
  0
LINE
  8
2
 10
-487.538414
 20
144.853894
 11
-487.538414
 21
141.653894
  0
ARC
  8
2
 10
-484.538414
 20
141.653894
 40
3.000000
 50
180.000000
 51
270.000000
  0
ARC
  8
2
 10
-575.538414
 20
141.653894
 40
3.000000
 50
270.000000
 51
360.000000
  0
LINE
  8
2
 10
-367.038414
 20
351.253894
 11
-751.038414
 21
351.253894
  0
LINE
  8
2
 10
-375.515296
 20
336.253894
 11
-742.558509
 21
336.253894
  0
LINE
  8
2
 10
-377.234046
 20
303.253894
 11
-720.434452
 21
303.253894
  0
ARC
  8
2
 10
-680.038414
 20
18.653894
 40
45.000000
 50
96.908613
 51
270.000000
  0
LINE
  8
2
 10
-726.230007
 20
307.700980
 11
-733.284940
 21
334.030351
  0
ARC
  8
2
 10
-725.694970
 20
60.504887
 40
21.000000
 50
94.000000
 51
170.024200
  0
ARC
  8
2
 10
-720.089425
 20
-15.346106
 40
21.000000
 50
198.428986
 51
270.000000
  0
ARC
  8
2
 10
-720.434452
 20
309.253894
 40
6.000000
 50
195.000000
 51
270.000000
  0
LINE
  8
2
 10
-369.137162
 20
349.357920
 11
-371.242168
 21
308.941817
  0
ARC
  8
2
 10
-377.234046
 20
309.253894
 40
6.000000
 50
270.000000
 51
357.018539
  0
ARC
  8
2
 10
-680.038414
 20
18.653894
 40
53.842323
 50
95.267350
 51
271.641263
  0
LINE
  8
2
 10
-748.939084
 20
349.358566
 11
-748.550287
 21
341.939878
  0
ARC
  8
2
 10
-742.558509
 20
342.253894
 40
6.000000
 50
183.000000
 51
270.000000
  0
ARC
  8
2
 10
-736.182718
 20
333.253894
 40
3.000000
 50
15.000000
 51
90.000000
  0
ARC
  8
2
 10
-750.936343
 20
349.253894
 40
2.000000
 50
3.000000
 51
90.000000
  0
ARC
  8
2
 10
-751.038414
 20
353.253894
 40
2.000000
 50
180.000000
 51
270.000000
  0
ARC
  8
2
 10
-375.515296
 20
342.253894
 40
6.000000
 50
270.000000
 51
357.018539
  0
ARC
  8
2
 10
-367.139869
 20
349.253894
 40
2.000000
 50
90.000000
 51
177.018539
  0
ARC
  8
2
 10
-367.038414
 20
353.253894
 40
2.000000
 50
270.000000
 51
0.000000
  0
LINE
  8
2
 10
-409.055712
 20
269.253894
 11
-454.021115
 21
269.253894
  0
LINE
  8
2
 10
-414.436343
 20
256.253894
 11
-448.640484
 21
256.253894
  0
LINE
  8
2
 10
-456.975538
 20
271.732950
 11
-461.076450
 21
294.990376
  0
LINE
  8
2
 10
-406.101289
 20
271.732950
 11
-402.000377
 21
294.990376
  0
LINE
  8
2
 10
-412.439084
 20
258.149222
 11
-411.956442
 21
267.358566
  0
LINE
  8
2
 10
-450.637743
 20
258.149222
 11
-451.120385
 21
267.358566
  0
ARC
  8
2
 10
-409.055712
 20
272.253894
 40
3.000000
 50
270.000000
 51
350.000000
  0
ARC
  8
2
 10
-454.021115
 20
272.253894
 40
3.000000
 50
190.000000
 51
270.000000
  0
ARC
  8
2
 10
-409.959183
 20
267.253894
 40
2.000000
 50
90.000000
 51
177.000000
  0
ARC
  8
2
 10
-453.117644
 20
267.253894
 40
2.000000
 50
3.000000
 51
90.000000
  0
ARC
  8
2
 10
-414.436343
 20
258.253894
 40
2.000000
 50
270.000000
 51
357.000000
  0
ARC
  8
2
 10
-448.640484
 20
258.253894
 40
2.000000
 50
183.000000
 51
270.000000
  0
ARC
  8
2
 10
-392.152300
 20
293.253894
 40
10.000000
 50
90.000000
 51
170.000000
  0
ARC
  8
2
 10
-470.924527
 20
293.253894
 40
10.000000
 50
10.000000
 51
90.000000
  0
ARC
  8
2
 10
-573.038414
 20
33.653894
 40
176.000000
 50
170.024200
 51
180.828003
  0
ARC
  8
2
 10
-573.038414
 20
33.653894
 40
176.000000
 50
188.476216
 51
198.428986
  0
ARC
  8
2
 10
-744.038414
 20
19.653894
 40
8.500000
 50
270.000000
 51
90.000000
  0
LINE
  8
2
 10
-744.038414
 20
28.153894
 11
-746.020349
 21
28.153894
  0
LINE
  8
2
 10
-744.038414
 20
11.153894
 11
-744.148758
 21
11.153894
  0
ARC
  8
2
 10
-746.020349
 20
31.153894
 40
3.000000
 50
180.828003
 51
270.000000
  0
ARC
  8
2
 10
-744.148758
 20
8.153894
 40
3.000000
 50
90.000000
 51
188.476216
  0
LINE
  8
2
 10
-621.538414
 20
83.653894
 11
-621.538414
 21
86.041957
  0
LINE
  8
2
 10
-638.538414
 20
83.653894
 11
-638.538414
 21
84.433640
  0
ARC
  8
2
 10
-630.038414
 20
83.653894
 40
8.500000
 50
180.000000
 51
360.000000
  0
LINE
  8
2
 10
-727.159856
 20
81.453732
 11
-641.747683
 21
87.426333
  0
ARC
  8
2
 10
-618.538414
 20
86.041957
 40
3.000000
 50
94.000000
 51
180.000000
  0
ARC
  8
2
 10
-641.538414
 20
84.433640
 40
3.000000
 50
0.000000
 51
94.000000
  0
LINE
  8
2
 10
-684.981309
 20
72.268851
 11
-635.150382
 21
76.862887
  0
LINE
  8
2
 10
-618.747683
 20
89.034649
 11
-509.162455
 21
96.697595
  0
LINE
  8
2
 10
-623.771004
 20
77.911980
 11
-515.553742
 21
87.888796
  0
LINE
  8
2
 10
-685.451287
 20
63.327161
 11
-518.174720
 21
83.595365
  0
ARC
  8
2
 10
-506.538414
 20
-33.346106
 40
3.000000
 50
270.000000
 51
323.537161
  0
LINE
  8
2
 10
-678.496287
 20
-35.166340
 11
-617.539317
 21
-33.419723
  0
LINE
  8
2
 10
-600.538414
 20
-32.932591
 11
-508.420026
 21
-30.293097
  0
LINE
  8
2
 10
-617.538414
 20
-32.346106
 11
-617.538414
 21
-33.346106
  0
LINE
  8
2
 10
-600.538414
 20
-32.346106
 11
-600.538414
 21
-33.346106
  0
ARC
  8
2
 10
-609.038414
 20
-32.346106
 40
8.500000
 50
0.000000
 51
180.000000
  0
LINE
  8
2
 10
-680.038414
 20
-26.346106
 11
-615.059211
 21
-26.346106
  0
LINE
  8
2
 10
-603.017616
 20
-26.346106
 11
-511.538414
 21
-26.346106
  0
LINE
  8
2
 10
-720.089425
 20
-36.346106
 11
-620.538414
 21
-36.346106
  0
LINE
  8
2
 10
-597.538414
 20
-36.346106
 11
-506.538414
 21
-36.346106
  0
ARC
  8
2
 10
-597.538414
 20
-33.346106
 40
3.000000
 50
180.000000
 51
270.000000
  0
ARC
  8
2
 10
-620.538414
 20
-33.346106
 40
3.000000
 50
270.000000
 51
0.000000
  0
LINE
  8
2
 10
-394.538414
 20
336.753894
 11
-394.538414
 21
350.753894
  0
LINE
  8
2
 10
-374.813143
 20
336.886881
 11
-374.813143
 21
350.753894
  0
ARC
  8
2
 10
-395.038414
 20
336.753894
 40
0.500000
 50
270.000000
 51
360.000000
  0
ARC
  8
2
 10
-394.038414
 20
350.753894
 40
0.500000
 50
90.000000
 51
180.000000
  0
ARC
  8
2
 10
-375.313143
 20
350.753894
 40
0.500000
 50
0.000000
 51
90.000000
  0
ARC
  8
2
 10
-374.313143
 20
336.886881
 40
0.500000
 50
180.000000
 51
282.625246
  0
LINE
  8
2
 10
130.461586
 20
98.653894
 11
130.461586
 21
70.653894
  0
LINE
  8
2
 10
94.461586
 20
98.653894
 11
94.461586
 21
70.653894
  0
LINE
  8
2
 10
80.461586
 20
98.653894
 11
80.461586
 21
70.653894
  0
LINE
  8
2
 10
44.461586
 20
98.653894
 11
44.461586
 21
70.653894
  0
ARC
  8
2
 10
112.461586
 20
98.653894
 40
18.000000
 50
0.000000
 51
180.000000
  0
ARC
  8
2
 10
62.461586
 20
98.653894
 40
18.000000
 50
0.000000
 51
180.000000
  0
ARC
  8
2
 10
132.461586
 20
70.653894
 40
2.000000
 50
180.000000
 51
270.000000
  0
ARC
  8
2
 10
92.461586
 20
70.653894
 40
2.000000
 50
270.000000
 51
0.000000
  0
ARC
  8
2
 10
82.461586
 20
70.653894
 40
2.000000
 50
180.000000
 51
270.000000
  0
ARC
  8
2
 10
42.461586
 20
70.653894
 40
2.000000
 50
270.000000
 51
360.000000
  0
LINE
  8
2
 10
187.461586
 20
73.653894
 11
187.461586
 21
33.653894
  0
ARC
  8
2
 10
177.461586
 20
73.653894
 40
10.000000
 50
0.000000
 51
90.000000
  0
ARC
  8
2
 10
177.461586
 20
58.653894
 40
10.000000
 50
0.000000
 51
90.000000
  0
LINE
  8
2
 10
81.961586
 20
61.653894
 11
92.961586
 21
61.653894
  0
LINE
  8
2
 10
167.961586
 20
61.653894
 11
185.398840
 21
61.653894
  0
LINE
  8
2
 10
167.461586
 20
68.153894
 11
167.461586
 21
62.153894
  0
LINE
  8
2
 10
93.461586
 20
66.653894
 11
93.461586
 21
62.153894
  0
LINE
  8
2
 10
81.461586
 20
66.653894
 11
81.461586
 21
62.153894
  0
ARC
  8
2
 10
92.961586
 20
62.153894
 40
0.500000
 50
270.000000
 51
360.000000
  0
ARC
  8
2
 10
81.961586
 20
62.153894
 40
0.500000
 50
180.000000
 51
270.000000
  0
ARC
  8
2
 10
95.461586
 20
66.653894
 40
2.000000
 50
90.000000
 51
180.000000
  0
ARC
  8
2
 10
79.461586
 20
66.653894
 40
2.000000
 50
0.000000
 51
90.000000
  0
ARC
  8
2
 10
167.961586
 20
62.153894
 40
0.500000
 50
180.000000
 51
270.000000
  0
ARC
  8
2
 10
166.961586
 20
68.153894
 40
0.500000
 50
0.000000
 51
90.000000
  0
ARC
  8
2
 10
185.398840
 20
59.653894
 40
2.000000
 50
7.180756
 51
90.000000
  0
LINE
  8
2
 10
-0.538414
 20
-38.346106
 11
-0.538414
 21
104.670185
  0
LINE
  8
2
 10
-20.538414
 20
107.670185
 11
-3.538414
 21
107.670185
  0
LINE
  8
2
 10
-20.538414
 20
-40.346106
 11
-2.538414
 21
-40.346106
  0
ARC
  8
2
 10
-3.538414
 20
104.670185
 40
3.000000
 50
0.000000
 51
90.000000
  0
ARC
  8
2
 10
4.461586
 20
73.653894
 40
5.000000
 50
180.000000
 51
270.000000
  0
ARC
  8
2
 10
-2.538414
 20
-38.346106
 40
2.000000
 50
270.000000
 51
360.000000
  0
LINE
  8
2
 10
157.461586
 20
123.653894
 11
157.461586
 21
73.653894
  0
LINE
  8
2
 10
17.461586
 20
123.653894
 11
17.461586
 21
86.653894
  0
ARC
  8
2
 10
162.461586
 20
73.653894
 40
5.000000
 50
180.000000
 51
270.000000
  0
LINE
  8
2
 10
2.461586
 20
81.653894
 11
12.461586
 21
81.653894
  0
ARC
  8
2
 10
12.461586
 20
86.653894
 40
5.000000
 50
270.000000
 51
360.000000
  0
ARC
  8
2
 10
2.461586
 20
84.653894
 40
3.000000
 50
180.000000
 51
270.000000
  0
LINE
  8
2
 10
-0.538414
 20
92.814307
 11
14.461586
 21
92.814307
  0
ARC
  8
2
 10
14.461586
 20
95.814307
 40
3.000000
 50
270.000000
 51
360.000000
  0
ARC
  8
2
 10
-11.538414
 20
-41.346106
 40
1.000000
 50
0.000000
 51
90.000000
  0
LINE
  8
2
 10
200.461586
 20
33.653894
 11
200.461586
 21
-0.346106
  0
LINE
  8
2
 10
189.462625
 20
-1.346106
 11
199.461586
 21
-1.346106
  0
ARC
  8
2
 10
199.461586
 20
-0.346106
 40
1.000000
 50
270.000000
 51
360.000000
  0
LINE
  8
2
 10
187.461586
 20
33.653894
 11
185.461586
 21
-42.346106
  0
ARC
  8
2
 10
189.462625
 20
-4.346106
 40
3.000000
 50
90.000000
 51
178.492564
  0
LINE
  8
2
 10
195.461586
 20
33.653894
 11
195.461586
 21
1.653894
  0
ARC
  8
2
 10
192.461586
 20
1.653894
 40
3.000000
 50
270.000000
 51
360.000000
  0
LINE
  8
2
 10
200.461586
 20
25.653894
 11
213.461586
 21
25.653894
  0
LINE
  8
2
 10
200.461586
 20
13.653894
 11
212.104813
 21
13.653894
  0
ARC
  8
2
 10
199.516428
 20
19.653894
 40
13.945159
 50
334.516139
 51
25.483861
  0
LINE
  8
2
 10
200.461586
 20
1.653894
 11
213.461586
 21
1.653894
  0
LINE
  8
2
 10
213.461586
 20
1.653894
 11
213.461586
 21
25.653894
  0
ARC
  8
2
 10
199.516428
 20
7.653894
 40
13.945159
 50
334.516139
 51
25.483861
  0
LINE
  8
2
 10
223.461586
 20
6.736394
 11
222.379086
 21
5.653894
  0
LINE
  8
2
 10
222.379086
 20
5.653894
 11
213.461586
 21
5.653894
  0
LINE
  8
2
 62
2
 10
223.461586
 20
6.736394
 11
213.461586
 21
6.736394
  0
LINE
  8
2
 10
223.461586
 20
6.736394
 11
223.461586
 21
20.571394
  0
LINE
  8
2
 10
223.461586
 20
20.571394
 11
222.379086
 21
21.653894
  0
LINE
  8
2
 10
222.379086
 20
21.653894
 11
213.461586
 21
21.653894
  0
LINE
  8
2
 10
222.379086
 20
21.653894
 11
222.379086
 21
5.653894
  0
LINE
  8
2
 62
2
 10
223.461586
 20
20.571394
 11
213.461586
 21
20.571394
  0
LINE
  8
2
 10
17.961586
 20
123.653894
 11
156.961586
 21
123.653894
  0
LINE
  8
2
 10
23.355572
 20
138.653894
 11
151.567601
 21
138.653894
  0
LINE
  8
2
 10
44.961586
 20
143.653894
 11
129.961586
 21
143.653894
  0
LINE
  8
2
 10
157.461586
 20
123.653894
 11
156.548574
 21
134.089673
  0
LINE
  8
2
 10
17.461586
 20
123.653894
 11
18.374599
 21
134.089673
  0
ARC
  8
2
 10
151.567601
 20
133.653894
 40
5.000000
 50
5.000000
 51
90.000000
  0
ARC
  8
2
 10
23.355572
 20
133.653894
 40
5.000000
 50
90.000000
 51
175.000000
  0
LINE
  8
2
 10
129.961586
 20
144.853894
 11
129.961586
 21
141.653894
  0
LINE
  8
2
 10
44.961586
 20
144.853894
 11
44.961586
 21
141.653894
  0
ARC
  8
2
 10
132.961586
 20
141.653894
 40
3.000000
 50
180.000000
 51
270.000000
  0
ARC
  8
2
 10
41.961586
 20
141.653894
 40
3.000000
 50
270.000000
 51
360.000000
  0
LINE
  8
2
 10
143.461586
 20
133.653894
 11
143.461586
 21
124.153894
  0
LINE
  8
2
 10
31.461586
 20
133.653894
 11
31.461586
 21
124.153894
  0
ARC
  8
2
 10
138.461586
 20
133.653894
 40
5.000000
 50
360.000000
 51
90.000000
  0
ARC
  8
2
 10
36.461586
 20
133.653894
 40
5.000000
 50
90.000000
 51
180.000000
  0
ARC
  8
2
 10
143.961586
 20
124.153894
 40
0.500000
 50
180.000000
 51
270.000000
  0
ARC
  8
2
 10
30.961586
 20
124.153894
 40
0.500000
 50
270.000000
 51
360.000000
  0
ARC
  8
2
 10
156.961586
 20
123.153894
 40
0.500000
 50
0.000000
 51
90.000000
  0
ARC
  8
2
 10
17.961586
 20
123.153894
 40
0.500000
 50
90.000000
 51
180.000000
  0
LINE
  8
2
 10
-652.038414
 20
529.941894
 11
-544.160474
 21
529.941894
  0
LINE
  8
2
 10
-529.916353
 20
529.941894
 11
-422.038414
 21
529.941894
  0
LINE
  8
2
 10
-652.038414
 20
392.565894
 11
-544.160474
 21
392.565894
  0
LINE
  8
2
 10
-529.916353
 20
392.565894
 11
-422.038414
 21
392.565894
  0
LINE
  8
2
 10
-22.538414
 20
-38.346106
 11
-22.538414
 21
105.670185
  0
LINE
  8
2
 10
-37.538414
 20
-29.866202
 11
-37.538414
 21
97.190281
  0
LINE
  8
2
 10
-70.538414
 20
-21.742144
 11
-70.538414
 21
87.958262
  0
ARC
  8
2
 10
-20.538414
 20
105.670185
 40
2.000000
 50
90.000000
 51
180.000000
  0
ARC
  8
2
 10
-20.538414
 20
-38.346106
 40
2.000000
 50
180.000000
 51
270.000000
  0
LINE
  8
2
 10
-64.850491
 20
93.950140
 11
-40.322864
 21
95.227621
  0
LINE
  8
2
 10
-24.433742
 20
103.570855
 11
-31.852429
 21
103.182058
  0
ARC
  8
2
 10
-64.538414
 20
87.958262
 40
6.000000
 50
92.981461
 51
180.000000
  0
ARC
  8
2
 10
-31.538414
 20
97.190281
 40
6.000000
 50
93.000000
 51
180.000000
  0
ARC
  8
2
 10
-40.478902
 20
98.223560
 40
3.000000
 50
272.981461
 51
353.407404
  0
ARC
  8
2
 10
-24.538414
 20
105.568114
 40
2.000000
 50
273.000000
 51
360.000000
  0
LINE
  8
2
 10
-66.091328
 20
-27.537699
 11
-39.646954
 21
-34.623448
  0
LINE
  8
2
 10
-24.433742
 20
-36.246776
 11
-31.852429
 21
-35.857979
  0
ARC
  8
2
 10
-64.538414
 20
-21.742144
 40
6.000000
 50
180.000000
 51
255.000000
  0
ARC
  8
2
 10
-31.538414
 20
-29.866202
 40
6.000000
 50
180.000000
 51
267.000000
  0
ARC
  8
2
 10
-24.538414
 20
-38.244035
 40
2.000000
 50
0.000000
 51
87.000000
  0
ARC
  8
2
 10
-29.876801
 20
1.839259
 40
37.748972
 50
255.000000
 51
267.000000
  0
LINE
  8
2
 10
-39.431942
 20
-27.990112
 11
-64.855077
 21
-26.646475
  0
ARC
  8
2
 10
-64.538414
 20
-20.654838
 40
6.000000
 50
180.000000
 51
266.974679
  0
LINE
  8
2
 10
-37.538414
 20
81.153894
 11
-22.538414
 21
81.153894
  0
LINE
  8
2
 10
-37.538414
 20
-15.846106
 11
-22.538414
 21
-15.846106
  0
LINE
  8
2
 10
-33.566618
 20
-35.513005
 11
-22.538414
 21
-35.513005
  0
ARC
  8
2
 10
-39.537497
 20
-29.987324
 40
2.000000
 50
0.867510
 51
86.974679
  0
LINE
  8
2
 10
-36.189853
 20
100.980283
 11
-22.538414
 21
100.980283
  0
LINE
  8
2
 10
-117.538414
 20
16.551823
 11
-117.538414
 21
50.755965
  0
LINE
  8
2
 10
-104.538414
 20
11.171193
 11
-104.538414
 21
56.136595
  0
LINE
  8
2
 10
-102.059358
 20
59.091019
 11
-78.801932
 21
63.191930
  0
LINE
  8
2
 10
-102.059358
 20
8.216770
 11
-78.801932
 21
4.115858
  0
LINE
  8
2
 10
-115.643085
 20
52.753224
 11
-106.433742
 21
53.235865
  0
LINE
  8
2
 10
-115.643085
 20
14.554564
 11
-106.433742
 21
14.071923
  0
ARC
  8
2
 10
-101.538414
 20
56.136595
 40
3.000000
 50
100.000000
 51
180.000000
  0
ARC
  8
2
 10
-101.538414
 20
11.171193
 40
3.000000
 50
180.000000
 51
260.000000
  0
ARC
  8
2
 10
-115.538414
 20
50.755965
 40
2.000000
 50
93.000000
 51
180.000000
  0
ARC
  8
2
 10
-115.538414
 20
16.551823
 40
2.000000
 50
180.000000
 51
267.000000
  0
ARC
  8
2
 10
-106.538414
 20
12.074664
 40
2.000000
 50
0.000000
 51
87.000000
  0
ARC
  8
2
 10
-106.538414
 20
55.233124
 40
2.000000
 50
273.000000
 51
360.000000
  0
LINE
  8
2
 10
-486.538414
 20
336.253894
 11
-486.538414
 21
351.253894
  0
LINE
  8
2
 10
-503.538414
 20
336.253894
 11
-503.538414
 21
351.253894
  0
LINE
  8
2
 10
-621.538414
 20
336.253894
 11
-621.538414
 21
351.253894
  0
LINE
  8
2
 10
-638.538414
 20
336.253894
 11
-638.538414
 21
351.253894
  0
LINE
  8
2
 10
-502.226648
 20
336.253894
 11
-498.652999
 21
303.253894
  0
LINE
  8
2
 10
-489.691102
 20
303.253894
 11
-487.141940
 21
336.253894
  0
LINE
  8
2
 10
-635.150382
 20
332.077583
 11
-635.150382
 21
336.253894
  0
LINE
  8
2
 10
-623.771004
 20
332.077583
 11
-623.771004
 21
336.253894
  0
ARC
  8
2
 10
-629.460693
 20
332.077583
 40
5.689689
 50
180.000000
 51
360.000000
  0
ARC
  8
2
 10
-603.038414
 20
-61.346106
 40
3.000000
 50
0.000000
 51
90.000000
  0
ARC
  8
2
 10
-391.038414
 20
-55.346106
 40
3.000000
 50
270.000000
 51
337.371859
  0
LINE
  8
2
 10
-7.538414
 20
-58.346106
 11
182.461586
 21
-58.346106
  0
LINE
  8
2
 10
-10.538414
 20
-42.346106
 11
-10.538414
 21
-55.346106
  0
LINE
  8
2
 10
185.461586
 20
-42.346106
 11
185.461586
 21
-55.346106
  0
LINE
  8
2
 10
17.461586
 20
-64.346106
 11
157.461586
 21
-64.346106
  0
LINE
  8
2
 10
17.461586
 20
-61.346106
 11
17.461586
 21
-64.346106
  0
LINE
  8
2
 10
157.461586
 20
-61.346106
 11
157.461586
 21
-64.346106
  0
ARC
  8
2
 10
160.461586
 20
-61.346106
 40
3.000000
 50
90.000000
 51
180.000000
  0
ARC
  8
2
 10
14.461586
 20
-61.346106
 40
3.000000
 50
0.000000
 51
90.000000
  0
ARC
  8
2
 10
182.461586
 20
-55.346106
 40
3.000000
 50
270.000000
 51
360.000000
  0
ARC
  8
2
 10
-7.538414
 20
-55.346106
 40
3.000000
 50
180.000000
 51
270.000000
  0
LINE
  8
2
 10
166.461586
 20
-49.346106
 11
184.961586
 21
-49.346106
  0
LINE
  8
2
 10
-10.038414
 20
-49.346106
 11
4.461586
 21
-49.346106
  0
LINE
  8
2
 10
80.461586
 20
-49.346106
 11
94.461586
 21
-49.346106
  0
LINE
  8
2
 10
165.961586
 20
-49.846106
 11
165.961586
 21
-57.346106
  0
LINE
  8
2
 10
4.961586
 20
-49.846106
 11
4.961586
 21
-57.346106
  0
LINE
  8
2
 10
79.961586
 20
-49.846106
 11
79.961586
 21
-57.346106
  0
LINE
  8
2
 10
94.961586
 20
-49.846106
 11
94.961586
 21
-57.346106
  0
ARC
  8
2
 10
80.461586
 20
-49.846106
 40
0.500000
 50
90.000000
 51
180.000000
  0
ARC
  8
2
 10
94.461586
 20
-49.846106
 40
0.500000
 50
360.000000
 51
90.000000
  0
ARC
  8
2
 10
166.461586
 20
-49.846106
 40
0.500000
 50
90.000000
 51
180.000000
  0
ARC
  8
2
 10
4.461586
 20
-49.846106
 40
0.500000
 50
0.000000
 51
90.000000
  0
ARC
  8
2
 10
184.961586
 20
-48.846106
 40
0.500000
 50
270.000000
 51
0.000000
  0
ARC
  8
2
 10
-10.038414
 20
-48.846106
 40
0.500000
 50
180.000000
 51
270.000000
  0
ARC
  8
2
 10
164.961586
 20
-57.346106
 40
1.000000
 50
270.000000
 51
360.000000
  0
ARC
  8
2
 10
5.961586
 20
-57.346106
 40
1.000000
 50
180.000000
 51
270.000000
  0
ARC
  8
2
 10
78.961586
 20
-57.346106
 40
1.000000
 50
270.000000
 51
360.000000
  0
ARC
  8
2
 10
95.961586
 20
-57.346106
 40
1.000000
 50
180.000000
 51
270.000000
  0
LINE
  8
2
 10
-612.038414
 20
-49.346106
 11
-626.538414
 21
-49.346106
  0
LINE
  8
2
 10
-611.538414
 20
-49.846106
 11
-611.538414
 21
-57.346106
  0
LINE
  8
2
 10
-487.538414
 20
-49.846106
 11
-487.538414
 21
-57.346106
  0
ARC
  8
2
 10
-487.038414
 20
-49.846106
 40
0.500000
 50
114.645458
 51
180.000000
  0
ARC
  8
2
 10
-488.538414
 20
-57.346106
 40
1.000000
 50
270.000000
 51
0.000000
  0
ARC
  8
2
 10
-610.538414
 20
-57.346106
 40
1.000000
 50
180.000000
 51
270.000000
  0
ARC
  8
2
 10
-626.538414
 20
-48.846106
 40
0.500000
 50
180.000000
 51
270.000000
  0
ARC
  8
2
 10
-612.038414
 20
-49.846106
 40
0.500000
 50
0.000000
 51
90.000000
  0
CIRCLE
  8
2
 10
-431.538414
 20
33.653894
 40
32.500000
  0
LINE
  8
2
  6
CENTER
 62
2
 10
-530.038414
 20
598.502421
 11
-530.038414
 21
352.256514
  0
LINE
  8
2
  6
CENTER
 62
2
 10
-396.038414
 20
452.710670
 11
-396.038414
 21
469.797118
  0
LINE
  8
2
  6
CENTER
 62
2
 10
-400.038414
 20
538.710670
 11
-400.038414
 21
555.797118
  0
LINE
  8
2
  6
CENTER
 62
2
 10
-392.221144
 20
547.253894
 11
-408.581637
 21
547.253894
  0
LINE
  8
2
  6
CENTER
 62
2
 10
-396.038414
 20
367.710670
 11
-396.038414
 21
384.797118
  0
LINE
  8
2
  6
CENTER
 62
2
 10
-387.495190
 20
376.253894
 11
-404.581637
 21
376.253894
  0
LINE
  8
2
  6
CENTER
 62
2
 10
-467.038414
 20
542.710670
 11
-467.038414
 21
559.797118
  0
LINE
  8
2
  6
CENTER
 62
2
 10
-458.495190
 20
551.253894
 11
-475.581637
 21
551.253894
  0
LINE
  8
2
  6
CENTER
 62
2
 10
-614.038414
 20
542.710670
 11
-614.038414
 21
558.601327
  0
LINE
  8
2
  6
CENTER
 62
2
 10
-605.495190
 20
551.253894
 11
-622.581637
 21
551.253894
  0
LINE
  8
2
  6
CENTER
 62
2
 10
-739.038414
 20
538.710670
 11
-739.038414
 21
555.797118
  0
LINE
  8
2
  6
CENTER
 62
2
 10
-730.495190
 20
547.253894
 11
-747.581637
 21
547.253894
  0
LINE
  8
2
  6
CENTER
 62
2
 10
-744.038414
 20
452.710670
 11
-744.038414
 21
469.797118
  0
LINE
  8
2
  6
CENTER
 62
2
 10
-744.038414
 20
373.710670
 11
-744.038414
 21
390.797118
  0
LINE
  8
2
  6
CENTER
 62
2
 10
-735.495190
 20
382.253894
 11
-752.581637
 21
382.253894
  0
LINE
  8
2
  6
CENTER
 62
2
 10
-614.038414
 20
367.710670
 11
-614.038414
 21
384.797118
  0
LINE
  8
2
  6
CENTER
 62
2
 10
-605.495190
 20
376.253894
 11
-622.581637
 21
376.253894
  0
LINE
  8
2
  6
CENTER
 62
2
 10
-467.038414
 20
367.710670
 11
-467.038414
 21
384.797118
  0
LINE
  8
2
  6
CENTER
 62
2
 10
-458.495190
 20
376.253894
 11
-475.581637
 21
376.253894
  0
LINE
  8
2
  6
CENTER
 62
2
 10
-417.102809
 20
486.253894
 11
-382.902997
 21
486.253894
  0
LINE
  8
2
  6
CENTER
 62
2
 10
-417.102809
 20
436.253894
 11
-382.902997
 21
436.253894
  0
LINE
  8
2
  6
CENTER
 62
2
 10
-431.538414
 20
573.095254
 11
-431.538414
 21
198.513486
  0
LINE
  8
2
  6
CENTER
 62
2
 10
-580.038414
 20
606.827128
 11
-580.038414
 21
552.379870
  0
LINE
  8
2
  6
CENTER
 62
2
 10
-480.038414
 20
606.827128
 11
-480.038414
 21
552.379870
  0
LINE
  8
2
  6
CENTER
 62
2
 10
-412.038414
 20
515.642488
 11
-412.038414
 21
532.865300
  0
LINE
  8
2
  6
CENTER
 62
2
 10
-403.427007
 20
524.253894
 11
-420.649820
 21
524.253894
  0
LINE
  8
2
  6
CENTER
 62
2
 10
-412.038414
 20
406.865300
 11
-412.038414
 21
389.642488
  0
LINE
  8
2
  6
CENTER
 62
2
 10
-403.427007
 20
398.253894
 11
-420.649820
 21
398.253894
  0
LINE
  8
2
  6
CENTER
 62
2
 10
-662.038414
 20
515.642488
 11
-662.038414
 21
532.865300
  0
LINE
  8
2
  6
CENTER
 62
2
 10
-670.649820
 20
524.253894
 11
-653.427007
 21
524.253894
  0
LINE
  8
2
  6
CENTER
 62
2
 10
-662.038414
 20
406.865300
 11
-662.038414
 21
389.642488
  0
LINE
  8
2
  6
CENTER
 62
2
 10
-670.649820
 20
398.253894
 11
-653.427007
 21
398.253894
  0
LINE
  8
2
  6
CENTER
 62
2
 10
-537.038414
 20
515.642488
 11
-537.038414
 21
532.865300
  0
LINE
  8
2
  6
CENTER
 62
2
 10
-528.427007
 20
524.253894
 11
-545.649820
 21
524.253894
  0
LINE
  8
2
  6
CENTER
 62
2
 10
-537.038414
 20
406.865300
 11
-537.038414
 21
389.642488
  0
LINE
  8
2
  6
CENTER
 62
2
 10
-528.427007
 20
398.253894
 11
-545.649820
 21
398.253894
  0
LINE
  8
2
  6
CENTER
 62
2
 10
-770.270967
 20
33.653894
 11
-313.301852
 21
33.653894
  0
LINE
  8
2
  6
CENTER
 62
2
 10
-431.538414
 20
153.515084
 11
-431.538414
 21
-79.686049
  0
LINE
  8
2
  6
CENTER
 62
2
 10
36.863775
 20
98.653894
 11
139.734511
 21
98.653894
  0
LINE
  8
2
  6
CENTER
 62
2
 10
112.461586
 20
121.790142
 11
112.461586
 21
59.920728
  0
LINE
  8
2
  6
CENTER
 62
2
 10
62.461586
 20
121.790142
 11
62.461586
 21
59.920728
  0
LINE
  8
2
  6
CENTER
 62
2
 10
-180.237886
 20
33.653894
 11
-12.538414
 21
33.653894
  0
LINE
  8
2
  6
CENTER
 62
2
 10
-639.854524
 20
83.653894
 11
-619.582551
 21
83.653894
  0
LINE
  8
2
  6
CENTER
 62
2
 10
-630.038414
 20
95.586802
 11
-630.038414
 21
71.860560
  0
LINE
  8
2
  6
CENTER
 62
2
 10
-756.578096
 20
19.653894
 11
-731.951448
 21
19.653894
  0
LINE
  8
2
  6
CENTER
 62
2
 10
-744.038414
 20
31.423655
 11
-744.038414
 21
6.323497
  0
LINE
  8
2
  6
CENTER
 62
2
 10
-609.038414
 20
-18.776601
 11
-609.038414
 21
-46.718221
  0
LINE
  8
2
  6
CENTER
 62
2
 10
-620.657838
 20
-32.346106
 11
-596.031160
 21
-32.346106
  0
LINE
  8
2
  6
CENTER
 62
2
 10
-662.038414
 20
141.313716
 11
-662.038414
 21
112.180354
  0
LINE
  8
2
  6
CENTER
 62
2
 10
-537.038414
 20
141.313716
 11
-537.038414
 21
112.180354
  0
LINE
  8
2
  6
CENTER
 62
2
 10
-630.038414
 20
328.102427
 11
-630.038414
 21
365.099673
  0
LINE
  8
2
  6
CENTER
 62
2
 10
-495.038414
 20
328.102427
 11
-495.038414
 21
365.099673
  0
LINE
  8
2
  6
CENTER
 62
2
 10
-386.038414
 20
328.102427
 11
-386.038414
 21
365.099673
  0
LINE
  8
2
  6
CENTER
 62
2
 10
173.461586
 20
74.695659
 11
173.461586
 21
54.342082
  0
LINE
  8
2
  6
CENTER
 62
2
 10
162.967955
 20
13.653894
 11
200.461586
 21
13.653894
  0
LINE
  8
2
  6
CENTER
 62
2
 10
212.104813
 20
13.653894
 11
235.358489
 21
13.653894
  0
LINE
  8
2
  6
CENTER
 62
2
 10
150.461586
 20
143.342082
 11
150.461586
 21
114.596049
  0
LINE
  8
2
  6
CENTER
 62
2
 10
24.461586
 20
143.342082
 11
24.461586
 21
114.596049
  0
LINE
  8
2
  6
CENTER
 62
2
 10
-47.399904
 20
89.653894
 11
-6.837114
 21
89.653894
  0
LINE
  8
2
  6
CENTER
 62
2
 10
-47.399904
 20
-24.346106
 11
-6.837114
 21
-24.346106
  0
LINE
  8
2
  6
CENTER
 62
2
 10
-2.538414
 20
-38.420247
 11
-2.538414
 21
-63.322957
  0
LINE
  8
2
  6
CENTER
 62
2
 10
173.461586
 20
-38.420247
 11
173.461586
 21
-63.322957
  0
LINE
  8
2
  6
CENTER
 62
2
 10
-619.038414
 20
-38.662160
 11
-619.038414
 21
-62.881276
  0
LINE
  8
2
  6
CENTER
 62
2
 10
-480.038414
 20
-40.346106
 11
-480.038414
 21
-62.881276
  0
ARC
  8
2
 10
-431.538414
 20
33.653894
 40
22.200000
 50
20.571635
 51
163.000000
  0
ARC
  8
2
 10
-427.638414
 20
33.653894
 40
18.200000
 50
25.014065
 51
166.591995
  0
LINE
  8
2
 10
-413.428368
 20
40.737903
 11
-411.145500
 21
41.349595
  0
LINE
  8
2
 10
-410.754028
 20
41.454490
 11
-408.143816
 21
42.153894
  0
LINE
  8
2
 10
-409.338414
 20
33.653894
 11
-413.428368
 21
40.737903
  0
LINE
  8
2
 10
-409.338414
 20
33.653894
 11
-408.143816
 21
42.153894
  0
LINE
  8
2
 10
-445.342345
 20
37.874180
 11
-452.768379
 21
40.144546
  0
CIRCLE
  8
2
 10
-467.038414
 20
376.253894
 40
5.000000
  0
CIRCLE
  8
2
 10
-467.038414
 20
376.253894
 40
4.307180
  0
CIRCLE
  8
2
 10
-614.038414
 20
376.253894
 40
5.000000
  0
CIRCLE
  8
2
 10
-614.038414
 20
376.253894
 40
4.307180
  0
CIRCLE
  8
2
 10
-396.038414
 20
376.253894
 40
5.000000
  0
CIRCLE
  8
2
 10
-396.038414
 20
376.253894
 40
4.307180
  0
CIRCLE
  8
2
 10
-396.038414
 20
461.253894
 40
5.000000
  0
CIRCLE
  8
2
 10
-396.038414
 20
461.253894
 40
4.307180
  0
CIRCLE
  8
2
 10
-400.038414
 20
547.253894
 40
5.000000
  0
CIRCLE
  8
2
 10
-400.038414
 20
547.253894
 40
4.307180
  0
CIRCLE
  8
2
 10
-467.038414
 20
551.253894
 40
5.000000
  0
CIRCLE
  8
2
 10
-467.038414
 20
551.253894
 40
4.307180
  0
CIRCLE
  8
2
 10
-614.038414
 20
551.253894
 40
5.000000
  0
CIRCLE
  8
2
 10
-614.038414
 20
551.253894
 40
4.307180
  0
CIRCLE
  8
2
 10
-739.038414
 20
547.253894
 40
5.000000
  0
CIRCLE
  8
2
 10
-739.038414
 20
547.253894
 40
4.307180
  0
CIRCLE
  8
2
 10
-744.038414
 20
461.253894
 40
5.000000
  0
CIRCLE
  8
2
 10
-744.038414
 20
461.253894
 40
4.307180
  0
CIRCLE
  8
2
 10
-744.038414
 20
382.253894
 40
5.000000
  0
CIRCLE
  8
2
 10
-744.038414
 20
382.253894
 40
4.307180
  0
CIRCLE
  8
2
 10
-412.038414
 20
398.253894
 40
5.750000
  0
CIRCLE
  8
2
 10
-412.038414
 20
398.253894
 40
5.250000
  0
CIRCLE
  8
2
 10
-412.038414
 20
524.253894
 40
5.750000
  0
CIRCLE
  8
2
 10
-412.038414
 20
524.253894
 40
5.250000
  0
CIRCLE
  8
2
 10
-537.038414
 20
398.253894
 40
5.750000
  0
CIRCLE
  8
2
 10
-537.038414
 20
398.253894
 40
5.250000
  0
CIRCLE
  8
2
 10
-537.038414
 20
524.253894
 40
5.750000
  0
CIRCLE
  8
2
 10
-537.038414
 20
524.253894
 40
5.250000
  0
CIRCLE
  8
2
 10
-662.038414
 20
398.253894
 40
5.750000
  0
CIRCLE
  8
2
 10
-662.038414
 20
398.253894
 40
5.250000
  0
CIRCLE
  8
2
 10
-662.038414
 20
524.253894
 40
5.750000
  0
CIRCLE
  8
2
 10
-662.038414
 20
524.253894
 40
5.250000
  0
LINE
  8
2
 10
-542.788414
 20
125.153894
 11
-542.788414
 21
123.653894
  0
LINE
  8
2
 10
-531.288414
 20
125.153894
 11
-531.288414
 21
123.653894
  0
LINE
  8
2
 10
-531.288414
 20
125.153894
 11
-542.788414
 21
125.153894
  0
LINE
  8
2
 10
-542.288414
 20
126.680910
 11
-542.288414
 21
125.153894
  0
LINE
  8
2
 10
-531.788414
 20
126.680910
 11
-531.788414
 21
125.153894
  0
ARC
  8
2
 10
-537.038414
 20
115.053894
 40
14.000000
 50
73.927141
 51
106.072859
  0
ARC
  8
2
 10
-533.688414
 20
126.680910
 40
1.900000
 50
0.000000
 51
73.927141
  0
ARC
  8
2
 10
-540.388414
 20
126.680910
 40
1.900000
 50
106.072859
 51
180.000000
  0
LINE
  8
2
 10
-667.788414
 20
125.153894
 11
-667.788414
 21
123.653894
  0
LINE
  8
2
 10
-656.288414
 20
125.153894
 11
-656.288414
 21
123.653894
  0
LINE
  8
2
 10
-656.288414
 20
125.153894
 11
-667.788414
 21
125.153894
  0
LINE
  8
2
 10
-667.288414
 20
126.680910
 11
-667.288414
 21
125.153894
  0
LINE
  8
2
 10
-656.788414
 20
126.680910
 11
-656.788414
 21
125.153894
  0
ARC
  8
2
 10
-662.038414
 20
115.053894
 40
14.000000
 50
73.927141
 51
106.072859
  0
ARC
  8
2
 10
-658.688414
 20
126.680910
 40
1.900000
 50
0.000000
 51
73.927141
  0
ARC
  8
2
 10
-665.388414
 20
126.680910
 40
1.900000
 50
106.072859
 51
180.000000
  0
LINE
  8
2
 10
168.461586
 20
61.653894
 11
168.461586
 21
67.253894
  0
LINE
  8
2
 10
168.461586
 20
67.253894
 11
169.154407
 21
67.653894
  0
LINE
  8
2
 10
169.154407
 20
67.653894
 11
177.768766
 21
67.653894
  0
LINE
  8
2
 10
178.461586
 20
67.253894
 11
168.461586
 21
67.253894
  0
LINE
  8
2
 10
178.461586
 20
61.653894
 11
178.461586
 21
67.253894
  0
LINE
  8
2
 10
178.461586
 20
67.253894
 11
177.768766
 21
67.653894
  0
LINE
  8
2
 10
82.461586
 20
61.653894
 11
82.461586
 21
67.253894
  0
LINE
  8
2
 10
82.461586
 20
67.253894
 11
83.154407
 21
67.653894
  0
LINE
  8
2
 10
83.154407
 20
67.653894
 11
91.768766
 21
67.653894
  0
LINE
  8
2
 10
92.461586
 20
67.253894
 11
82.461586
 21
67.253894
  0
LINE
  8
2
 10
92.461586
 20
61.653894
 11
92.461586
 21
67.253894
  0
LINE
  8
2
 10
92.461586
 20
67.253894
 11
91.768766
 21
67.653894
  0
LINE
  8
2
 10
18.711586
 20
125.153894
 11
18.711586
 21
123.653894
  0
LINE
  8
2
 10
30.211586
 20
125.153894
 11
30.211586
 21
123.653894
  0
LINE
  8
2
 10
30.211586
 20
125.153894
 11
18.711586
 21
125.153894
  0
LINE
  8
2
 10
19.211586
 20
126.680910
 11
19.211586
 21
125.153894
  0
LINE
  8
2
 10
29.711586
 20
126.680910
 11
29.711586
 21
125.153894
  0
ARC
  8
2
 10
24.461586
 20
115.053894
 40
14.000000
 50
73.927141
 51
106.072859
  0
ARC
  8
2
 10
27.811586
 20
126.680910
 40
1.900000
 50
0.000000
 51
73.927141
  0
ARC
  8
2
 10
21.111586
 20
126.680910
 40
1.900000
 50
106.072859
 51
180.000000
  0
LINE
  8
2
 10
156.211586
 20
125.153894
 11
156.211586
 21
123.653894
  0
LINE
  8
2
 10
144.711586
 20
125.153894
 11
144.711586
 21
123.653894
  0
LINE
  8
2
 10
144.711586
 20
125.153894
 11
156.211586
 21
125.153894
  0
LINE
  8
2
 10
155.711586
 20
126.680910
 11
155.711586
 21
125.153894
  0
LINE
  8
2
 10
145.211586
 20
126.680910
 11
145.211586
 21
125.153894
  0
ARC
  8
2
 10
150.461586
 20
115.053894
 40
14.000000
 50
73.927141
 51
106.072859
  0
ARC
  8
2
 10
147.111586
 20
126.680910
 40
1.900000
 50
106.072859
 51
180.000000
  0
ARC
  8
2
 10
153.811586
 20
126.680910
 40
1.900000
 50
0.000000
 51
73.927141
  0
LINE
  8
2
 10
-24.538414
 20
82.403894
 11
-24.538414
 21
96.903894
  0
LINE
  8
2
 10
-24.538414
 20
96.903894
 11
-22.538414
 21
96.903894
  0
LINE
  8
2
 10
-24.538414
 20
82.403894
 11
-22.538414
 21
82.403894
  0
LINE
  8
2
 10
-26.496462
 20
96.653894
 11
-24.538414
 21
96.653894
  0
LINE
  8
2
 10
-26.496462
 20
82.653894
 11
-24.538414
 21
82.653894
  0
ARC
  8
2
 10
-11.738414
 20
89.653894
 40
18.000000
 50
163.398450
 51
196.601550
  0
ARC
  8
2
 10
-26.496462
 20
94.053894
 40
2.600000
 50
90.000000
 51
163.398450
  0
ARC
  8
2
 10
-26.496462
 20
85.253894
 40
2.600000
 50
196.601550
 51
270.000000
  0
LINE
  8
2
 10
-24.538414
 20
-31.596106
 11
-24.538414
 21
-17.096106
  0
LINE
  8
2
 10
-24.538414
 20
-17.096106
 11
-22.538414
 21
-17.096106
  0
LINE
  8
2
 10
-24.538414
 20
-31.596106
 11
-22.538414
 21
-31.596106
  0
LINE
  8
2
 10
-26.496462
 20
-17.346106
 11
-24.538414
 21
-17.346106
  0
LINE
  8
2
 10
-26.496462
 20
-31.346106
 11
-24.538414
 21
-31.346106
  0
ARC
  8
2
 10
-11.738414
 20
-24.346106
 40
18.000000
 50
163.398450
 51
196.601550
  0
ARC
  8
2
 10
-26.496462
 20
-19.946106
 40
2.600000
 50
90.000000
 51
163.398450
  0
ARC
  8
2
 10
-26.496462
 20
-28.746106
 40
2.600000
 50
196.601550
 51
270.000000
  0
LINE
  8
2
 10
-378.788414
 20
349.253894
 11
-393.288414
 21
349.253894
  0
LINE
  8
2
 10
-393.288414
 20
349.253894
 11
-393.288414
 21
351.253894
  0
LINE
  8
2
 10
-378.788414
 20
349.253894
 11
-378.788414
 21
351.253894
  0
LINE
  8
2
 10
-393.038414
 20
347.295846
 11
-393.038414
 21
349.253894
  0
LINE
  8
2
 10
-379.038414
 20
347.295846
 11
-379.038414
 21
349.253894
  0
ARC
  8
2
 10
-386.038414
 20
362.053894
 40
18.000000
 50
253.398450
 51
286.601550
  0
ARC
  8
2
 10
-390.438414
 20
347.295846
 40
2.600000
 50
180.000000
 51
253.398450
  0
ARC
  8
2
 10
-381.638414
 20
347.295846
 40
2.600000
 50
286.601550
 51
360.000000
  0
LINE
  8
2
 10
-487.788414
 20
349.253894
 11
-502.288414
 21
349.253894
  0
LINE
  8
2
 10
-502.288414
 20
349.253894
 11
-502.288414
 21
351.253894
  0
LINE
  8
2
 10
-487.788414
 20
349.253894
 11
-487.788414
 21
351.253894
  0
LINE
  8
2
 10
-502.038414
 20
347.295846
 11
-502.038414
 21
349.253894
  0
LINE
  8
2
 10
-488.038414
 20
347.295846
 11
-488.038414
 21
349.253894
  0
ARC
  8
2
 10
-495.038414
 20
362.053894
 40
18.000000
 50
253.398450
 51
286.601550
  0
ARC
  8
2
 10
-499.438414
 20
347.295846
 40
2.600000
 50
180.000000
 51
253.398450
  0
ARC
  8
2
 10
-490.638414
 20
347.295846
 40
2.600000
 50
286.601550
 51
360.000000
  0
LINE
  8
2
 10
-622.788414
 20
349.253894
 11
-637.288414
 21
349.253894
  0
LINE
  8
2
 10
-637.288414
 20
349.253894
 11
-637.288414
 21
351.253894
  0
LINE
  8
2
 10
-622.788414
 20
349.253894
 11
-622.788414
 21
351.253894
  0
LINE
  8
2
 10
-637.038414
 20
347.295846
 11
-637.038414
 21
349.253894
  0
LINE
  8
2
 10
-623.038414
 20
347.295846
 11
-623.038414
 21
349.253894
  0
ARC
  8
2
 10
-630.038414
 20
362.053894
 40
18.000000
 50
253.398450
 51
286.601550
  0
ARC
  8
2
 10
-634.438414
 20
347.295846
 40
2.600000
 50
180.000000
 51
253.398450
  0
ARC
  8
2
 10
-625.638414
 20
347.295846
 40
2.600000
 50
286.601550
 51
360.000000
  0
LINE
  8
2
 10
-612.538414
 20
-49.346106
 11
-612.538414
 21
-56.846106
  0
LINE
  8
2
 10
-612.538414
 20
-56.846106
 11
-613.404439
 21
-57.346106
  0
LINE
  8
2
 10
-625.538414
 20
-49.346106
 11
-625.538414
 21
-56.846106
  0
LINE
  8
2
 10
-625.538414
 20
-56.846106
 11
-624.672388
 21
-57.346106
  0
LINE
  8
2
 10
-624.672388
 20
-57.346106
 11
-613.404439
 21
-57.346106
  0
LINE
  8
2
 10
-612.538414
 20
-56.846106
 11
-625.538414
 21
-56.846106
  0
LINE
  8
2
 10
-473.780703
 20
-56.985992
 11
-474.404439
 21
-57.346106
  0
LINE
  8
2
 10
-486.538414
 20
-49.862571
 11
-486.538414
 21
-56.846106
  0
LINE
  8
2
 10
-486.538414
 20
-56.846106
 11
-485.672388
 21
-57.346106
  0
LINE
  8
2
 10
-485.672388
 20
-57.346106
 11
-474.404439
 21
-57.346106
  0
LINE
  8
2
 10
-474.079570
 20
-56.846106
 11
-486.538414
 21
-56.846106
  0
LINE
  8
2
 10
3.961586
 20
-49.346106
 11
3.961586
 21
-56.846106
  0
LINE
  8
2
 10
3.961586
 20
-56.846106
 11
3.095561
 21
-57.346106
  0
LINE
  8
2
 10
-9.038414
 20
-49.346106
 11
-9.038414
 21
-56.846106
  0
LINE
  8
2
 10
-9.038414
 20
-56.846106
 11
-8.172388
 21
-57.346106
  0
LINE
  8
2
 10
-8.172388
 20
-57.346106
 11
3.095561
 21
-57.346106
  0
LINE
  8
2
 10
3.961586
 20
-56.846106
 11
-9.038414
 21
-56.846106
  0
LINE
  8
2
 10
93.961586
 20
-49.346106
 11
93.961586
 21
-56.846106
  0
LINE
  8
2
 10
93.961586
 20
-56.846106
 11
93.095561
 21
-57.346106
  0
LINE
  8
2
 10
80.961586
 20
-49.346106
 11
80.961586
 21
-56.846106
  0
LINE
  8
2
 10
80.961586
 20
-56.846106
 11
81.827612
 21
-57.346106
  0
LINE
  8
2
 10
81.827612
 20
-57.346106
 11
93.095561
 21
-57.346106
  0
LINE
  8
2
 10
93.961586
 20
-56.846106
 11
80.961586
 21
-56.846106
  0
LINE
  8
2
 10
179.961586
 20
-49.346106
 11
179.961586
 21
-56.846106
  0
LINE
  8
2
 10
179.961586
 20
-56.846106
 11
179.095561
 21
-57.346106
  0
LINE
  8
2
 10
166.961586
 20
-49.346106
 11
166.961586
 21
-56.846106
  0
LINE
  8
2
 10
166.961586
 20
-56.846106
 11
167.827612
 21
-57.346106
  0
LINE
  8
2
 10
167.827612
 20
-57.346106
 11
179.095561
 21
-57.346106
  0
LINE
  8
2
 10
179.961586
 20
-56.846106
 11
166.961586
 21
-56.846106
  0
CIRCLE
  8
2
 10
-630.038414
 20
83.653894
 40
7.250000
  0
CIRCLE
  8
2
 10
-630.038414
 20
83.653894
 40
7.000000
  0
CIRCLE
  8
2
 10
-609.038414
 20
-32.346106
 40
7.250000
  0
CIRCLE
  8
2
 10
-609.038414
 20
-32.346106
 40
7.000000
  0
CIRCLE
  8
2
 10
-744.038414
 20
19.653894
 40
7.250000
  0
CIRCLE
  8
2
 10
-744.038414
 20
19.653894
 40
7.000000
  0
LINE
  8
2
 10
-748.933598
 20
349.253894
 11
-751.288414
 21
349.253894
  0
LINE
  8
2
 10
-751.288414
 20
349.253894
 11
-751.288414
 21
351.253894
  0
LINE
  8
2
 10
-751.038414
 20
347.295846
 11
-751.038414
 21
349.253894
  0
ARC
  8
2
 10
-744.038414
 20
362.053894
 40
18.000000
 50
253.398450
 51
255.013153
  0
ARC
  8
2
 10
-748.438414
 20
347.295846
 40
2.600000
 50
180.000000
 51
253.398450
  0
LINE
  8
2
 10
-667.538414
 20
36.153894
 11
-667.538414
 21
18.653894
  0
LINE
  8
2
 10
-667.538414
 20
36.153894
 11
-632.538414
 21
36.153894
  0
LINE
  8
2
 10
-667.538414
 20
18.653894
 11
-632.538414
 21
36.153894
  0
LINE
  8
2
 10
-655.871747
 20
36.153894
 11
-655.871747
 21
1.153894
  0
LINE
  8
2
 10
-644.205080
 20
24.487228
 11
-667.538414
 21
24.487228
  0
LINE
  8
2
 10
-644.205080
 20
30.320561
 11
-667.538414
 21
30.320561
  0
LINE
  8
2
 10
-644.205080
 20
36.153894
 11
-667.538414
 21
24.487228
  0
LINE
  8
2
 10
-655.871747
 20
36.153894
 11
-667.538414
 21
30.320561
  0
LINE
  8
2
 10
-644.205080
 20
1.153894
 11
-644.205080
 21
24.487228
  0
LINE
  8
2
 10
-644.205080
 20
30.320561
 11
-644.205080
 21
36.153894
  0
LINE
  8
2
 10
-655.871747
 20
1.153894
 11
-644.205080
 21
1.153894
  0
ARC
  8
2
 10
-80.538414
 20
73.040008
 40
10.000000
 50
280.000000
 51
360.000000
  0
ARC
  8
2
 10
-80.538414
 20
-5.732219
 40
10.000000
 50
0.000000
 51
80.000000
  0
LINE
  8
2
 10
-746.866841
 20
16.825467
 11
-741.209986
 21
22.482321
  0
LINE
  8
2
 10
-741.209986
 20
16.825467
 11
-746.866841
 21
22.482321
  0
LINE
  8
2
 10
-632.866841
 20
80.825467
 11
-627.209986
 21
86.482321
  0
LINE
  8
2
 10
-627.209986
 20
80.825467
 11
-632.866841
 21
86.482321
  0
LINE
  8
2
 10
-611.866841
 20
-35.174533
 11
-606.209986
 21
-29.517679
  0
LINE
  8
2
 10
-606.209986
 20
-35.174533
 11
-611.866841
 21
-29.517679
  0
LINE
  8
2
 10
-414.159734
 20
522.132574
 11
-409.917093
 21
526.375215
  0
LINE
  8
2
 10
-409.917093
 20
522.132574
 11
-414.159734
 21
526.375215
  0
LINE
  8
2
 10
-414.159734
 20
396.132574
 11
-409.917093
 21
400.375215
  0
LINE
  8
2
 10
-409.917093
 20
396.132574
 11
-414.159734
 21
400.375215
  0
LINE
  8
2
 10
-539.159734
 20
522.132574
 11
-534.917093
 21
526.375215
  0
LINE
  8
2
 10
-534.917093
 20
522.132574
 11
-539.159734
 21
526.375215
  0
LINE
  8
2
 10
-664.159734
 20
522.132574
 11
-659.917093
 21
526.375215
  0
LINE
  8
2
 10
-659.917093
 20
522.132574
 11
-664.159734
 21
526.375215
  0
LINE
  8
2
 10
-539.159734
 20
396.132574
 11
-534.917093
 21
400.375215
  0
LINE
  8
2
 10
-534.917093
 20
396.132574
 11
-539.159734
 21
400.375215
  0
LINE
  8
2
 10
-664.159734
 20
396.132574
 11
-659.917093
 21
400.375215
  0
LINE
  8
2
 10
-659.917093
 20
396.132574
 11
-664.159734
 21
400.375215
  0
LINE
  8
2
 10
-505.621909
 20
487.770398
 11
-501.421909
 21
487.770398
  0
LINE
  8
2
 10
-503.521909
 20
485.670398
 11
-503.521909
 21
489.870398
  0
LINE
  8
2
 10
-558.654918
 20
487.770398
 11
-554.454918
 21
487.770398
  0
LINE
  8
2
 10
-556.554918
 20
485.670398
 11
-556.554918
 21
489.870398
  0
LINE
  8
2
 10
-505.621909
 20
434.737390
 11
-501.421909
 21
434.737390
  0
LINE
  8
2
 10
-503.521909
 20
432.637390
 11
-503.521909
 21
436.837390
  0
LINE
  8
2
 10
-558.654918
 20
434.737390
 11
-554.454918
 21
434.737390
  0
LINE
  8
2
 10
-556.554918
 20
432.637390
 11
-556.554918
 21
436.837390
  0
LINE
  8
2
 10
-402.538414
 20
545.810518
 11
-402.538414
 21
548.697270
  0
LINE
  8
2
 10
-397.538414
 20
545.810518
 11
-397.538414
 21
548.697270
  0
LINE
  8
2
 10
-397.538414
 20
548.697270
 11
-400.038414
 21
550.140646
  0
LINE
  8
2
 10
-400.038414
 20
544.367143
 11
-402.538414
 21
545.810518
  0
LINE
  8
2
 10
-397.538414
 20
545.810518
 11
-400.038414
 21
544.367143
  0
LINE
  8
2
 10
-400.038414
 20
550.140646
 11
-402.538414
 21
548.697270
  0
LINE
  8
2
 10
-469.538414
 20
549.810518
 11
-469.538414
 21
552.697270
  0
LINE
  8
2
 10
-464.538414
 20
549.810518
 11
-464.538414
 21
552.697270
  0
LINE
  8
2
 10
-464.538414
 20
552.697270
 11
-467.038414
 21
554.140646
  0
LINE
  8
2
 10
-467.038414
 20
548.367143
 11
-469.538414
 21
549.810518
  0
LINE
  8
2
 10
-464.538414
 20
549.810518
 11
-467.038414
 21
548.367143
  0
LINE
  8
2
 10
-467.038414
 20
554.140646
 11
-469.538414
 21
552.697270
  0
LINE
  8
2
 10
-616.538414
 20
549.810518
 11
-616.538414
 21
552.697270
  0
LINE
  8
2
 10
-611.538414
 20
549.810518
 11
-611.538414
 21
552.697270
  0
LINE
  8
2
 10
-611.538414
 20
552.697270
 11
-614.038414
 21
554.140646
  0
LINE
  8
2
 10
-614.038414
 20
548.367143
 11
-616.538414
 21
549.810518
  0
LINE
  8
2
 10
-611.538414
 20
549.810518
 11
-614.038414
 21
548.367143
  0
LINE
  8
2
 10
-614.038414
 20
554.140646
 11
-616.538414
 21
552.697270
  0
LINE
  8
2
 10
-741.538414
 20
545.810518
 11
-741.538414
 21
548.697270
  0
LINE
  8
2
 10
-736.538414
 20
545.810518
 11
-736.538414
 21
548.697270
  0
LINE
  8
2
 10
-736.538414
 20
548.697270
 11
-739.038414
 21
550.140646
  0
LINE
  8
2
 10
-739.038414
 20
544.367143
 11
-741.538414
 21
545.810518
  0
LINE
  8
2
 10
-736.538414
 20
545.810518
 11
-739.038414
 21
544.367143
  0
LINE
  8
2
 10
-739.038414
 20
550.140646
 11
-741.538414
 21
548.697270
  0
LINE
  8
2
 10
-746.538414
 20
459.810518
 11
-746.538414
 21
462.697270
  0
LINE
  8
2
 10
-741.538414
 20
459.810518
 11
-741.538414
 21
462.697270
  0
LINE
  8
2
 10
-741.538414
 20
462.697270
 11
-744.038414
 21
464.140646
  0
LINE
  8
2
 10
-744.038414
 20
458.367143
 11
-746.538414
 21
459.810518
  0
LINE
  8
2
 10
-741.538414
 20
459.810518
 11
-744.038414
 21
458.367143
  0
LINE
  8
2
 10
-744.038414
 20
464.140646
 11
-746.538414
 21
462.697270
  0
LINE
  8
2
 10
-746.538414
 20
380.810518
 11
-746.538414
 21
383.697270
  0
LINE
  8
2
 10
-741.538414
 20
380.810518
 11
-741.538414
 21
383.697270
  0
LINE
  8
2
 10
-741.538414
 20
383.697270
 11
-744.038414
 21
385.140646
  0
LINE
  8
2
 10
-744.038414
 20
379.367143
 11
-746.538414
 21
380.810518
  0
LINE
  8
2
 10
-741.538414
 20
380.810518
 11
-744.038414
 21
379.367143
  0
LINE
  8
2
 10
-744.038414
 20
385.140646
 11
-746.538414
 21
383.697270
  0
LINE
  8
2
 10
-616.538414
 20
374.810518
 11
-616.538414
 21
377.697270
  0
LINE
  8
2
 10
-611.538414
 20
374.810518
 11
-611.538414
 21
377.697270
  0
LINE
  8
2
 10
-611.538414
 20
377.697270
 11
-614.038414
 21
379.140646
  0
LINE
  8
2
 10
-614.038414
 20
373.367143
 11
-616.538414
 21
374.810518
  0
LINE
  8
2
 10
-611.538414
 20
374.810518
 11
-614.038414
 21
373.367143
  0
LINE
  8
2
 10
-614.038414
 20
379.140646
 11
-616.538414
 21
377.697270
  0
LINE
  8
2
 10
-469.538414
 20
374.810518
 11
-469.538414
 21
377.697270
  0
LINE
  8
2
 10
-464.538414
 20
374.810518
 11
-464.538414
 21
377.697270
  0
LINE
  8
2
 10
-464.538414
 20
377.697270
 11
-467.038414
 21
379.140646
  0
LINE
  8
2
 10
-467.038414
 20
373.367143
 11
-469.538414
 21
374.810518
  0
LINE
  8
2
 10
-464.538414
 20
374.810518
 11
-467.038414
 21
373.367143
  0
LINE
  8
2
 10
-467.038414
 20
379.140646
 11
-469.538414
 21
377.697270
  0
LINE
  8
2
 10
-398.538414
 20
374.810518
 11
-398.538414
 21
377.697270
  0
LINE
  8
2
 10
-393.538414
 20
374.810518
 11
-393.538414
 21
377.697270
  0
LINE
  8
2
 10
-393.538414
 20
377.697270
 11
-396.038414
 21
379.140646
  0
LINE
  8
2
 10
-396.038414
 20
373.367143
 11
-398.538414
 21
374.810518
  0
LINE
  8
2
 10
-393.538414
 20
374.810518
 11
-396.038414
 21
373.367143
  0
LINE
  8
2
 10
-396.038414
 20
379.140646
 11
-398.538414
 21
377.697270
  0
LINE
  8
2
 10
-398.538414
 20
459.810518
 11
-398.538414
 21
462.697270
  0
LINE
  8
2
 10
-393.538414
 20
459.810518
 11
-393.538414
 21
462.697270
  0
LINE
  8
2
 10
-393.538414
 20
462.697270
 11
-396.038414
 21
464.140646
  0
LINE
  8
2
 10
-396.038414
 20
458.367143
 11
-398.538414
 21
459.810518
  0
LINE
  8
2
 10
-393.538414
 20
459.810518
 11
-396.038414
 21
458.367143
  0
LINE
  8
2
 10
-396.038414
 20
464.140646
 11
-398.538414
 21
462.697270
  0
TEXT
  8
2
 10
-524.618928
 20
438.240220
 40
7.600000
  1
Ｓ
 50
22.500000
  0
TEXT
  8
2
 10
-535.457899
 20
484.267568
 40
7.600000
  1
Ｓ
 50
202.500000
  0
TEXT
  8
2
 10
-523.793481
 20
144.061311
 40
7.600000
  1
Ｓ
 50
31.641000
  0
TEXT
  8
2
 10
-412.817994
 20
32.636101
 40
9.000000
  1
Ｓ
 50
253.000000
  0
DIMENSION
  8
5
  2
*D0
 10
-365.038414
 20
627.764244
 11
-447.538414
 21
638.514244
 70
0
  1
165
 13
-530.038414
 23
598.502421
 14
-365.038414
 24
370.253894
 50
0.000000
  0
DIMENSION
  8
5
  2
*D1
 10
-530.038414
 20
627.764244
 11
-641.538414
 21
638.514244
 70
0
  1
223
 13
-753.038414
 23
546.253894
 14
-530.038414
 24
598.502421
 50
0.000000
  0
DIMENSION
  8
5
  2
*D2
 10
-217.646980
 20
-66.346106
 11
-243.246980
 21
27.053894
 70
1
  1
%%c200
 13
-144.030454
 23
133.653894
 14
-144.030454
 24
-66.346106
 50
90.000000
  0
DIMENSION
  8
5
  2
*D3
 10
273.085365
 20
165.653894
 11
253.260365
 21
49.828894
 70
0
  1
230
 13
157.461586
 23
-64.346106
 14
87.461586
 24
165.653894
 50
90.000000
  0
TEXT
  8
5
 10
540.649261
 20
-266.474857
 40
30.000000
  1
駆動部・・・４Ｉ－３型
 50
0.000000
  0
DIMENSION
  8
5
  2
*D4
 10
-245.234566
 20
461.253894
 11
-276.609565
 21
326.128894
 70
0
  1
245.5
 13
-396.983325
 23
215.753894
 14
-271.973960
 24
461.253894
 50
90.000000
  0
DIMENSION
  8
5
  2
*D5
 10
-245.234566
 20
597.253894
 11
-265.059565
 21
528.428894
 70
0
  1
136
 13
-271.973960
 23
461.253894
 14
-473.120914
 24
597.253894
 50
90.000000
  0
DIMENSION
  8
5
  2
*D6
 10
273.085365
 20
-361.346106
 11
253.260366
 21
-510.671106
 70
0
  1
297
 13
132.461586
 23
-658.346106
 14
172.497315
 24
-361.346106
 50
90.000000
  0
DIMENSION
  8
5
  2
*D7
 10
273.085365
 20
-64.346106
 11
253.260366
 21
-213.671106
 70
0
  1
297
 13
172.497315
 23
-361.346106
 14
157.461586
 24
-64.346106
 50
90.000000
  0
DIMENSION
  8
5
  2
*D8
 10
126.461586
 20
-596.044960
 11
24.411587
 21
-585.294960
 70
0
  1
78
 13
48.461586
 23
-542.846106
 14
126.461586
 24
-542.846106
 50
0.000000
  0
LINE
  8
18
 10
607.745380
 20
-341.078091
 11
857.745380
 21
-341.078091
  0
LINE
  8
18
 10
607.745380
 20
-441.078091
 11
857.745380
 21
-441.078091
  0
LINE
  8
18
 10
607.745380
 20
-466.078091
 11
857.745380
 21
-466.078091
  0
LINE
  8
18
 10
607.745380
 20
-491.078091
 11
857.745380
 21
-491.078091
  0
LINE
  8
18
 10
607.745380
 20
-341.078091
 11
607.745380
 21
-491.078091
  0
LINE
  8
18
 10
732.745380
 20
-341.078091
 11
732.745380
 21
-466.078091
  0
LINE
  8
18
 10
857.745380
 20
-341.078091
 11
857.745380
 21
-491.078091
  0
LINE
  8
18
  6
CENTER
 62
2
 10
619.714622
 20
-388.037186
 11
719.725990
 21
-388.037186
  0
LINE
  8
18
  6
CENTER
 62
2
 10
668.573723
 20
-362.207108
 11
668.573723
 21
-416.982365
  0
LINE
  8
18
 10
628.573723
 20
-370.537186
 11
703.573723
 21
-370.537186
  0
LINE
  8
18
 10
628.573723
 20
-405.537186
 11
703.573723
 21
-405.537186
  0
LINE
  8
18
 10
628.573723
 20
-370.537186
 11
628.573723
 21
-410.537186
  0
LINE
  8
18
 10
698.573723
 20
-370.537186
 11
698.573723
 21
-405.537186
  0
LINE
  8
18
 10
628.573723
 20
-410.537186
 11
695.240390
 21
-410.537186
  0
LINE
  8
18
 10
703.573723
 20
-370.537186
 11
703.573723
 21
-405.537186
  0
LINE
  8
18
 10
695.240390
 20
-405.537186
 11
695.240390
 21
-410.537186
  0
LINE
  8
18
 10
651.073723
 20
-373.037186
 11
651.073723
 21
-403.037186
  0
LINE
  8
18
 10
693.573723
 20
-373.037186
 11
693.573723
 21
-403.037186
  0
LINE
  8
18
 10
651.073723
 20
-373.037186
 11
693.573723
 21
-373.037186
  0
LINE
  8
18
 10
651.073723
 20
-403.037186
 11
693.573723
 21
-403.037186
  0
CIRCLE
  8
18
 10
668.573723
 20
-388.037186
 40
6.000000
  0
LINE
  8
18
  6
DASHED
 10
641.073723
 20
-378.037186
 11
696.073723
 21
-378.037186
  0
LINE
  8
18
  6
DASHED
 10
641.073723
 20
-398.037186
 11
696.073723
 21
-398.037186
  0
LINE
  8
18
  6
DASHED
 10
696.073723
 20
-378.037186
 11
696.073723
 21
-398.037186
  0
LINE
  8
18
  6
DASHED
 10
641.073723
 20
-378.037186
 11
641.073723
 21
-398.037186
  0
LINE
  8
18
  6
CENTER
 62
2
 10
760.204964
 20
-388.197975
 11
830.833426
 21
-388.197975
  0
LINE
  8
18
  6
CENTER
 62
2
 10
681.907056
 20
-407.916842
 11
681.907056
 21
-429.474621
  0
LINE
  8
18
 10
823.257103
 20
-374.864343
 11
823.257103
 21
-365.079642
  0
LINE
  8
18
 10
823.257103
 20
-365.079642
 11
825.757103
 21
-365.079642
  0
LINE
  8
18
 10
825.757103
 20
-374.864343
 11
825.757103
 21
-365.079642
  0
LINE
  8
18
 10
823.257103
 20
-384.649045
 11
825.757103
 21
-384.649045
  0
LINE
  8
18
  6
CENTER
 62
2
 10
793.257103
 20
-346.144250
 11
793.257103
 21
-434.151917
  0
LINE
  8
18
 10
775.757103
 20
-428.197975
 11
775.757103
 21
-353.197975
  0
LINE
  8
18
 10
810.757103
 20
-428.197975
 11
810.757103
 21
-353.197975
  0
LINE
  8
18
 10
775.757103
 20
-428.197975
 11
815.757103
 21
-428.197975
  0
LINE
  8
18
 10
775.757103
 20
-358.197975
 11
810.757103
 21
-358.197975
  0
LINE
  8
18
 10
815.757103
 20
-428.197975
 11
815.757103
 21
-361.531308
  0
LINE
  8
18
 10
775.757103
 20
-353.197975
 11
810.757103
 21
-353.197975
  0
LINE
  8
18
 10
810.757103
 20
-361.531308
 11
815.757103
 21
-361.531308
  0
LINE
  8
18
 10
778.257103
 20
-405.697975
 11
808.257103
 21
-405.697975
  0
LINE
  8
18
 10
778.257103
 20
-363.197975
 11
808.257103
 21
-363.197975
  0
LINE
  8
18
 10
778.257103
 20
-405.697975
 11
778.257103
 21
-363.197975
  0
LINE
  8
18
 10
808.257103
 20
-405.697975
 11
808.257103
 21
-363.197975
  0
CIRCLE
  8
18
 10
793.257103
 20
-388.197975
 40
6.000000
  0
LINE
  8
18
 10
765.757103
 20
-378.197975
 11
765.757103
 21
-398.197975
  0
LINE
  8
18
  6
CENTER
 62
2
 10
813.136759
 20
-374.864642
 11
836.148443
 21
-374.864642
  0
LINE
  8
18
 10
765.757103
 20
-378.197975
 11
775.757103
 21
-378.197975
  0
LINE
  8
18
 10
815.757103
 20
-398.197975
 11
820.757103
 21
-398.197975
  0
LINE
  8
18
 10
765.757103
 20
-398.197975
 11
775.757103
 21
-398.197975
  0
LINE
  8
18
  6
DASHED
 10
775.757103
 20
-398.197975
 11
815.757103
 21
-398.197975
  0
LINE
  8
18
 10
820.757103
 20
-387.149343
 11
820.757103
 21
-398.197975
  0
LINE
  8
18
  6
DASHED
 10
775.757103
 20
-378.197975
 11
815.757103
 21
-378.197975
  0
LINE
  8
18
  6
DASHED
 10
815.757103
 20
-378.197975
 11
820.082870
 21
-378.197975
  0
LINE
  8
18
  6
DASHED
 10
820.082870
 20
-378.197975
 11
820.757103
 21
-378.197975
  0
LINE
  8
18
 10
815.757103
 20
-366.868444
 11
823.257103
 21
-370.365751
  0
LINE
  8
18
 10
815.757103
 20
-382.860243
 11
823.257103
 21
-379.362936
  0
LINE
  8
18
 10
823.257103
 20
-374.864343
 11
823.257103
 21
-384.649045
  0
LINE
  8
18
 10
825.757103
 20
-374.864343
 11
825.757103
 21
-384.649045
  0
LINE
  8
18
 10
681.906758
 20
-418.037186
 11
672.122056
 21
-418.037186
  0
LINE
  8
18
 10
672.122056
 20
-418.037186
 11
672.122056
 21
-420.537186
  0
LINE
  8
18
 10
681.906758
 20
-420.537186
 11
672.122056
 21
-420.537186
  0
LINE
  8
18
 10
691.691460
 20
-418.037186
 11
691.691460
 21
-420.537186
  0
LINE
  8
18
 10
673.910858
 20
-410.537186
 11
677.408165
 21
-418.037186
  0
LINE
  8
18
 10
689.902658
 20
-410.537186
 11
686.405350
 21
-418.037186
  0
LINE
  8
18
 10
681.906758
 20
-418.037186
 11
691.691460
 21
-418.037186
  0
LINE
  8
18
 10
681.906758
 20
-420.537186
 11
691.691460
 21
-420.537186
  0
LINE
  8
18
  6
DASHED
 10
820.757103
 20
-378.197975
 11
820.757103
 21
-380.528705
  0
LINE
  8
18
 10
820.757103
 20
-379.695372
 11
820.757103
 21
-379.755764
  0
LINE
  8
18
 10
820.757103
 20
-380.528705
 11
820.757103
 21
-387.826195
  0
TEXT
  8
18
 10
612.750397
 20
-666.452103
 40
15.000000
  1
１
 50
0.000000
  0
TEXT
  8
18
 10
632.230072
 20
-684.727631
 40
15.000000
  1
５
 50
0.000000
  0
TEXT
  8
18
 10
627.706013
 20
-483.746262
 40
12.500000
  1
ＡＣＴＵＡＴＯＲ　ＰＯＳＩＴＩＯＮ
 50
0.000000
  0
TEXT
  8
18
 10
658.399067
 20
-460.188694
 40
15.000000
  1
Ａ
 50
0.000000
  0
TEXT
  8
18
 10
783.339329
 20
-460.589466
 40
15.000000
  1
Ｂ
 50
0.000000
  0
TEXT
  8
18
 10
614.271202
 20
-635.176315
 40
15.000000
  1
標準仕様
 50
0.000000
  0
TEXT
  8
18
 10
900.790558
 20
-634.429016
 40
10.000000
  1
２００３．　２．　３
 50
0.000000
  0
TEXT
  8
18
 10
768.000000
 20
-680.000000
 40
25.000000
  1
Ｄ３－０３２４９
 50
0.000000
  0
TEXT
  8
18
 10
614.271202
 20
-615.176315
 40
15.000000
  1
８４７Ｔ－４ＩＡＳ　３００Ａ
 50
0.000000
  0
LINE
  8
20
 62
3
 10
-900.000000
 20
-692.500000
 11
1000.000000
 21
-692.500000
  0
LINE
  8
20
 62
3
 10
-900.000000
 20
660.000000
 11
1000.000000
 21
660.000000
  0
LINE
  8
20
 62
3
 10
-900.000000
 20
660.000000
 11
-900.000000
 21
-692.500000
  0
LINE
  8
20
 62
3
 10
1000.000000
 20
660.000000
 11
1000.000000
 21
-692.500000
  0
LINE
  8
20
 62
3
 10
300.000000
 20
-692.500000
 11
300.000000
 21
-592.500000
  0
LINE
  8
20
 62
3
 10
535.000000
 20
-692.500000
 11
535.000000
 21
-592.500000
  0
LINE
  8
20
 10
535.000000
 20
-642.500000
 11
1000.000000
 21
-642.500000
  0
LINE
  8
20
 62
3
 10
300.000000
 20
-592.500000
 11
1000.000000
 21
-592.500000
  0
LINE
  8
20
 10
900.000000
 20
-642.500000
 11
900.000000
 21
-592.500000
  0
LINE
  8
20
 10
900.000000
 20
-617.500000
 11
1000.000000
 21
-617.500000
  0
LINE
  8
20
 10
605.000000
 20
-692.500000
 11
605.000000
 21
-592.500000
  0
LINE
  8
20
 10
655.000000
 20
-692.500000
 11
655.000000
 21
-642.500000
  0
LINE
  8
20
 10
755.000000
 20
-692.500000
 11
755.000000
 21
-642.500000
  0
LINE
  8
20
 10
618.642073
 20
-678.857927
 11
639.491453
 21
-658.008547
  0
TEXT
  8
20
 10
657.666645
 20
-662.484589
 40
9.000000
  1
ＤＲＡＷＩＮＧ　ＮＯ．
 50
0.000000
  0
TEXT
  8
20
 10
667.500000
 20
-682.500000
 40
15.000000
  1
図　　　番
 50
0.000000
  0
TEXT
  8
20
 10
930.000000
 20
-610.000000
 40
10.000000
  1
ＤＡＴＥ
 50
0.000000
  0
TEXT
  8
20
 10
545.005355
 20
-664.805145
 40
10.000000
  1
ＳＣＡＬＥ
 50
0.000000
  0
TEXT
  8
20
 10
540.000000
 20
-682.500000
 40
15.000000
  1
尺　　度
 50
0.000000
  0
TEXT
  8
20
 10
537.505355
 20
-612.479424
 40
10.000000
  1
ＦＩＧ．ＮＯ．
 50
0.000000
  0
TEXT
  8
20
 10
540.000000
 20
-632.500000
 40
15.000000
  1
名　　称
 50
0.000000
  0
TEXT
  8
20
 10
302.827625
 20
-632.351265
 40
11.500000
  1
ＴＯＭＯＥ　ＶＡＬＶＥ　ＣＯ．，ＬＴＤ．
 50
0.000000
  0
TEXT
  8
20
 10
337.500000
 20
-666.449051
 40
20.000000
  1
巴バルブ株式会社
 50
0.000000
  0
ENDSEC
  0
EOF
