  0
SECTION
  2
HEADER
  9
$LIMMAX
 10
1260.000000
 20
891.000000
  9
$LIMMIN
 10
-1260.000000
 20
-891.000000
  9
$EXTMAX
 10
1260.000000
 20
891.000000
  9
$EXTMIN
 10
-1260.000000
 20
-891.000000
  9
$DIMLFAC
 40
1.000000
  9
$DIMALTF
 40
25.400000
  9
$DIMSCALE
 40
6.000000
  9
$DIMTAD
 70
1
  9
$DIMTIH
 70
1
  9
$DIMTOH
 70
1
  9
$TDCREATE
 40
2450416.000000
  9
$TDUPDATE
 40
2452674.000000
999
3106
  0
ENDSEC
  0
SECTION
  2
TABLES
  0
TABLE
  2
LTYPE
 70
7
  0
LTYPE
  2
CONTINUOUS
 70
0
  3
Solid line
 72
65
 73
0
 40
0.000000
  0
LTYPE
  2
DASHED
 70
0
  3
__ __ __ __ __ __ __ __ __ __ __ __ __ __ __
 72
65
 73
2
 40
2.000000
 49
1.200000
 49
-0.800000
  0
LTYPE
  2
CENTER
 70
0
  3
____ _ ____ _ ____ _ ____ _ ____ _ ____ _ ____
 72
65
 73
4
 40
12.000000
 49
9.000000
 49
-1.000000
 49
1.000000
 49
-1.000000
  0
LTYPE
  2
HIDDEN
 70
0
  3
_ _ _ _ _ _ _ _ _ _ _ _ _ _ _ _ _ _ _ _ _ _ _
 72
65
 73
2
 40
3.200000
 49
2.400000
 49
-0.800000
  0
LTYPE
  2
PHANTOM
 70
0
  3
_____ _ _ _____ _ _ _____ _ _ _____ _ _ _____
 72
65
 73
6
 40
13.500000
 49
9.000000
 49
-1.000000
 49
1.000000
 49
-0.500000
 49
1.000000
 49
-1.000000
  0
LTYPE
  2
DOT
 70
0
  3
...............................................
 72
65
 73
2
 40
1.000000
 49
0.500000
 49
-0.500000
  0
LTYPE
  2
DASHDOT
 70
0
  3
__ . __ . __ . __ . __ . __ . __ . __ . __ . __
 72
65
 73
4
 40
8.000000
 49
5.000000
 49
-1.000000
 49
1.000000
 49
-1.000000
  0
ENDTAB
  0
TABLE
  2
LAYER
 70
7
  0
LAYER
  2
0
 70
0
 62
7
  6
CONTINUOUS
  0
LAYER
  2
1
 70
0
 62
7
  6
CONTINUOUS
  0
LAYER
  2
2
 70
0
 62
7
  6
CONTINUOUS
  0
LAYER
  2
3
 70
0
 62
7
  6
CONTINUOUS
  0
LAYER
  2
5
 70
0
 62
7
  6
CONTINUOUS
  0
LAYER
  2
18
 70
0
 62
7
  6
CONTINUOUS
  0
LAYER
  2
20
 70
0
 62
7
  6
CONTINUOUS
  0
ENDTAB
  0
TABLE
  2
STYLE
 70
1
  0
STYLE
  2
STANDARD
 70
64
 40
0.000000
 41
1.000000
 50
0.000000
 71
0
 42
1.000000
  3
txt
  4
BIGFONT
  0
ENDTAB
  0
ENDSEC
  0
SECTION
  2
BLOCKS
  0
BLOCK
  8
5
  2
*D0
 70
1
 10
0.000000
 20
0.000000
  0
TEXT
  8
5
 10
-506.598172
 20
711.194275
 40
19.800000
  1
165
 50
0.000000
 62
2
 41
1.400000
  0
LINE
  8
5
 62
2
 10
-568.308172
 20
673.565921
 11
-568.308172
 21
714.194275
  0
LINE
  8
5
 62
2
 10
-568.308172
 20
708.194275
 11
-556.717062
 21
705.088446
  0
LINE
  8
5
 62
2
 10
-568.308172
 20
708.194275
 11
-556.717062
 21
711.300103
  0
LINE
  8
5
 62
2
 10
-556.717062
 20
705.088446
 11
-556.717062
 21
711.300103
  0
LINE
  8
5
 62
2
 10
-568.308172
 20
708.194275
 11
-403.308172
 21
708.194275
  0
LINE
  8
5
 62
2
 10
-403.308172
 20
708.194275
 11
-414.899282
 21
711.300103
  0
LINE
  8
5
 62
2
 10
-403.308172
 20
708.194275
 11
-414.899282
 21
705.088446
  0
LINE
  8
5
 62
2
 10
-414.899282
 20
711.300103
 11
-414.899282
 21
705.088446
  0
LINE
  8
5
 62
2
 10
-403.308172
 20
445.317394
 11
-403.308172
 21
714.194275
  0
ENDBLK
  8
5
  0
BLOCK
  8
5
  2
*D1
 70
1
 10
0.000000
 20
0.000000
  0
TEXT
  8
5
 10
-700.598172
 20
711.194275
 40
19.800000
  1
223
 50
0.000000
 62
2
 41
1.400000
  0
LINE
  8
5
 62
2
 10
-791.308172
 20
621.317394
 11
-791.308172
 21
714.194275
  0
LINE
  8
5
 62
2
 10
-791.308172
 20
708.194275
 11
-779.717062
 21
705.088446
  0
LINE
  8
5
 62
2
 10
-791.308172
 20
708.194275
 11
-779.717062
 21
711.300103
  0
LINE
  8
5
 62
2
 10
-779.717062
 20
705.088446
 11
-779.717062
 21
711.300103
  0
LINE
  8
5
 62
2
 10
-791.308172
 20
708.194275
 11
-568.308172
 21
708.194275
  0
LINE
  8
5
 62
2
 10
-568.308172
 20
708.194275
 11
-579.899282
 21
711.300103
  0
LINE
  8
5
 62
2
 10
-568.308172
 20
708.194275
 11
-579.899282
 21
705.088446
  0
LINE
  8
5
 62
2
 10
-579.899282
 20
711.300103
 11
-579.899282
 21
705.088446
  0
LINE
  8
5
 62
2
 10
-568.308172
 20
673.565921
 11
-568.308172
 21
714.194275
  0
ENDBLK
  8
5
  0
BLOCK
  8
5
  2
*D2
 70
1
 10
0.000000
 20
0.000000
  0
TEXT
  8
5
 10
-198.916739
 20
-55.002606
 40
19.800000
  1
%%c200
 50
90.000000
 62
2
 41
1.400000
  0
LINE
  8
5
 62
2
 10
-128.300212
 20
72.717394
 11
-201.916739
 21
72.717394
  0
LINE
  8
5
 62
2
 10
-195.916739
 20
72.717394
 11
-199.022567
 21
61.126284
  0
LINE
  8
5
 62
2
 10
-195.916739
 20
72.717394
 11
-192.810910
 21
61.126284
  0
LINE
  8
5
 62
2
 10
-199.022567
 20
61.126284
 11
-192.810910
 21
61.126284
  0
LINE
  8
5
 62
2
 10
-195.916739
 20
72.717394
 11
-195.916739
 21
-127.282606
  0
LINE
  8
5
 62
2
 10
-195.916739
 20
-127.282606
 11
-192.810910
 21
-115.691496
  0
LINE
  8
5
 62
2
 10
-195.916739
 20
-127.282606
 11
-199.022567
 21
-115.691496
  0
LINE
  8
5
 62
2
 10
-192.810910
 20
-115.691496
 11
-199.022567
 21
-115.691496
  0
LINE
  8
5
 62
2
 10
-128.300212
 20
-127.282606
 11
-201.916739
 21
-127.282606
  0
ENDBLK
  8
5
  0
BLOCK
  8
5
  2
*D3
 70
1
 10
0.000000
 20
0.000000
  0
TEXT
  8
5
 10
301.838745
 20
-31.072606
 40
19.800000
  1
230
 50
90.000000
 62
2
 41
1.400000
  0
LINE
  8
5
 62
2
 10
185.191828
 20
-125.282606
 11
310.838745
 21
-125.282606
  0
LINE
  8
5
 62
2
 10
304.838745
 20
-125.282606
 11
307.944574
 21
-113.691496
  0
LINE
  8
5
 62
2
 10
304.838745
 20
-125.282606
 11
301.732917
 21
-113.691496
  0
LINE
  8
5
 62
2
 10
307.944574
 20
-113.691496
 11
301.732917
 21
-113.691496
  0
LINE
  8
5
 62
2
 10
304.838745
 20
-125.282606
 11
304.838745
 21
104.717394
  0
LINE
  8
5
 62
2
 10
304.838745
 20
104.717394
 11
301.732917
 21
93.126284
  0
LINE
  8
5
 62
2
 10
304.838745
 20
104.717394
 11
307.944574
 21
93.126284
  0
LINE
  8
5
 62
2
 10
301.732917
 20
93.126284
 11
307.944574
 21
93.126284
  0
LINE
  8
5
 62
2
 10
115.191828
 20
104.717394
 11
310.838745
 21
104.717394
  0
ENDBLK
  8
5
  0
BLOCK
  8
5
  2
*D4
 70
1
 10
0.000000
 20
0.000000
  0
TEXT
  8
5
 10
301.838745
 20
-611.072606
 40
19.800000
  1
260
 50
90.000000
 62
2
 41
1.400000
  0
LINE
  8
5
 62
2
 10
155.691828
 20
-720.282606
 11
310.838745
 21
-720.282606
  0
LINE
  8
5
 62
2
 10
304.838745
 20
-720.282606
 11
307.944574
 21
-708.691496
  0
LINE
  8
5
 62
2
 10
304.838745
 20
-720.282606
 11
301.732917
 21
-708.691496
  0
LINE
  8
5
 62
2
 10
307.944574
 20
-708.691496
 11
301.732917
 21
-708.691496
  0
LINE
  8
5
 62
2
 10
304.838745
 20
-720.282606
 11
304.838745
 21
-460.282606
  0
LINE
  8
5
 62
2
 10
304.838745
 20
-460.282606
 11
301.732917
 21
-471.873716
  0
LINE
  8
5
 62
2
 10
304.838745
 20
-460.282606
 11
307.944574
 21
-471.873716
  0
LINE
  8
5
 62
2
 10
301.732917
 20
-471.873716
 11
307.944574
 21
-471.873716
  0
LINE
  8
5
 62
2
 10
173.549677
 20
-460.282606
 11
310.838745
 21
-460.282606
  0
ENDBLK
  8
5
  0
BLOCK
  8
5
  2
*D5
 70
1
 10
0.000000
 20
0.000000
  0
TEXT
  8
5
 10
32.471829
 20
-658.042015
 40
19.800000
  1
68
 50
0.000000
 62
2
 41
1.400000
  0
LINE
  8
5
 62
2
 10
75.191828
 20
-621.282606
 11
75.191828
 21
-667.042015
  0
LINE
  8
5
 62
2
 10
75.191828
 20
-661.042015
 11
63.600718
 21
-657.936187
  0
LINE
  8
5
 62
2
 10
75.191828
 20
-661.042015
 11
63.600718
 21
-664.147844
  0
LINE
  8
5
 62
2
 10
63.600718
 20
-657.936187
 11
63.600718
 21
-664.147844
  0
LINE
  8
5
 62
2
 10
29.471829
 20
-661.042015
 11
173.191828
 21
-661.042015
  0
LINE
  8
5
 62
2
 10
143.191828
 20
-661.042015
 11
154.782938
 21
-664.147844
  0
LINE
  8
5
 62
2
 10
143.191828
 20
-661.042015
 11
154.782938
 21
-657.936187
  0
LINE
  8
5
 62
2
 10
154.782938
 20
-664.147844
 11
154.782938
 21
-657.936187
  0
LINE
  8
5
 62
2
 10
143.191828
 20
-621.282606
 11
143.191828
 21
-667.042015
  0
ENDBLK
  8
5
  0
BLOCK
  8
5
  2
*D6
 70
1
 10
0.000000
 20
0.000000
  0
TEXT
  8
5
 10
-297.281479
 20
577.527394
 40
19.800000
  1
136
 50
90.000000
 62
2
 41
1.400000
  0
LINE
  8
5
 62
2
 10
-340.360754
 20
530.317394
 11
-288.281479
 21
530.317394
  0
LINE
  8
5
 62
2
 10
-294.281479
 20
530.317394
 11
-291.175650
 21
541.908504
  0
LINE
  8
5
 62
2
 10
-294.281479
 20
530.317394
 11
-297.387307
 21
541.908504
  0
LINE
  8
5
 62
2
 10
-291.175650
 20
541.908504
 11
-297.387307
 21
541.908504
  0
LINE
  8
5
 62
2
 10
-294.281479
 20
530.317394
 11
-294.281479
 21
666.317394
  0
LINE
  8
5
 62
2
 10
-294.281479
 20
666.317394
 11
-297.387307
 21
654.726284
  0
LINE
  8
5
 62
2
 10
-294.281479
 20
666.317394
 11
-291.175650
 21
654.726284
  0
LINE
  8
5
 62
2
 10
-297.387307
 20
654.726284
 11
-291.175650
 21
654.726284
  0
LINE
  8
5
 62
2
 10
-505.390672
 20
666.317394
 11
-288.281479
 21
666.317394
  0
ENDBLK
  8
5
  0
BLOCK
  8
5
  2
*D7
 70
1
 10
0.000000
 20
0.000000
  0
TEXT
  8
5
 10
-297.281479
 20
372.917394
 40
19.800000
  1
245.5
 50
90.000000
 62
2
 41
1.400000
  0
LINE
  8
5
 62
2
 10
-429.253083
 20
284.817394
 11
-288.281479
 21
284.817394
  0
LINE
  8
5
 62
2
 10
-294.281479
 20
284.817394
 11
-291.175650
 21
296.408504
  0
LINE
  8
5
 62
2
 10
-294.281479
 20
284.817394
 11
-297.387307
 21
296.408504
  0
LINE
  8
5
 62
2
 10
-291.175650
 20
296.408504
 11
-297.387307
 21
296.408504
  0
LINE
  8
5
 62
2
 10
-294.281479
 20
284.817394
 11
-294.281479
 21
530.317394
  0
LINE
  8
5
 62
2
 10
-294.281479
 20
530.317394
 11
-297.387307
 21
518.726284
  0
LINE
  8
5
 62
2
 10
-294.281479
 20
530.317394
 11
-291.175650
 21
518.726284
  0
LINE
  8
5
 62
2
 10
-297.387307
 20
518.726284
 11
-291.175650
 21
518.726284
  0
LINE
  8
5
 62
2
 10
-340.360754
 20
530.317394
 11
-288.281479
 21
530.317394
  0
ENDBLK
  8
5
  0
BLOCK
  8
5
  2
*D8
 70
1
 10
0.000000
 20
0.000000
  0
TEXT
  8
5
 10
301.838745
 20
-349.182606
 40
18.000000
  1
260
 50
90.000000
 62
2
 41
1.400000
  0
LINE
  8
5
 62
2
 10
173.549677
 20
-460.282606
 11
310.838745
 21
-460.282606
  0
LINE
  8
5
 62
2
 10
304.838745
 20
-460.282606
 11
307.944574
 21
-448.691496
  0
LINE
  8
5
 62
2
 10
304.838745
 20
-460.282606
 11
301.732917
 21
-448.691496
  0
LINE
  8
5
 62
2
 10
307.944574
 20
-448.691496
 11
301.732917
 21
-448.691496
  0
LINE
  8
5
 62
2
 10
304.838745
 20
-460.282606
 11
304.838745
 21
-200.282606
  0
LINE
  8
5
 62
2
 10
304.838745
 20
-200.282606
 11
301.732917
 21
-211.873716
  0
LINE
  8
5
 62
2
 10
304.838745
 20
-200.282606
 11
307.944574
 21
-211.873716
  0
LINE
  8
5
 62
2
 10
301.732917
 20
-211.873716
 11
307.944574
 21
-211.873716
  0
LINE
  8
5
 62
2
 10
166.191828
 20
-200.282606
 11
310.838745
 21
-200.282606
  0
ENDBLK
  8
5
  0
BLOCK
  8
5
  2
*D9
 70
1
 10
0.000000
 20
0.000000
  0
TEXT
  8
5
 10
301.838745
 20
-175.382606
 40
18.000000
  1
75
 50
90.000000
 62
2
 41
1.400000
  0
LINE
  8
5
 62
2
 10
166.191828
 20
-200.282606
 11
310.838745
 21
-200.282606
  0
LINE
  8
5
 62
2
 10
304.838745
 20
-200.282606
 11
307.944574
 21
-188.691496
  0
LINE
  8
5
 62
2
 10
304.838745
 20
-200.282606
 11
301.732917
 21
-188.691496
  0
LINE
  8
5
 62
2
 10
307.944574
 20
-188.691496
 11
301.732917
 21
-188.691496
  0
LINE
  8
5
 62
2
 10
304.838745
 20
-200.282606
 11
304.838745
 21
-125.282606
  0
LINE
  8
5
 62
2
 10
304.838745
 20
-125.282606
 11
301.732917
 21
-136.873716
  0
LINE
  8
5
 62
2
 10
304.838745
 20
-125.282606
 11
307.944574
 21
-136.873716
  0
LINE
  8
5
 62
2
 10
301.732917
 20
-136.873716
 11
307.944574
 21
-136.873716
  0
LINE
  8
5
 62
2
 10
185.191828
 20
-125.282606
 11
310.838745
 21
-125.282606
  0
ENDBLK
  8
5
  0
ENDSEC
  0
SECTION
  2
ENTITIES
  0
ARC
  8
1
 10
-406.515596
 20
-416.930416
 40
10.000000
 50
164.038070
 51
225.961930
  0
ARC
  8
1
 10
-449.867786
 20
-341.842221
 40
10.000000
 50
194.038070
 51
255.961930
  0
ARC
  8
1
 10
-524.955982
 20
-298.490030
 40
10.000000
 50
224.038070
 51
285.961930
  0
ARC
  8
1
 10
-611.660362
 20
-298.490030
 40
10.000000
 50
254.038070
 51
315.961930
  0
ARC
  8
1
 10
-686.748558
 20
-341.842221
 40
10.000000
 50
284.038070
 51
345.961930
  0
ARC
  8
1
 10
-730.100748
 20
-416.930416
 40
10.000000
 50
314.038070
 51
15.961930
  0
ARC
  8
1
 10
-730.100748
 20
-503.634796
 40
10.000000
 50
344.038070
 51
45.961930
  0
ARC
  8
1
 10
-686.748558
 20
-578.722992
 40
10.000000
 50
14.038070
 51
75.961930
  0
ARC
  8
1
 10
-611.660362
 20
-622.075182
 40
10.000000
 50
44.038070
 51
105.961930
  0
ARC
  8
1
 10
-524.955982
 20
-622.075182
 40
10.000000
 50
74.038070
 51
135.961930
  0
ARC
  8
1
 10
-449.867786
 20
-578.722992
 40
10.000000
 50
104.038070
 51
165.961930
  0
ARC
  8
1
 10
-406.515596
 20
-503.634796
 40
10.000000
 50
134.038070
 51
195.961930
  0
ARC
  8
1
 10
-568.308172
 20
-460.282606
 40
160.000000
 50
18.063992
 51
41.936008
  0
ARC
  8
1
 10
-421.898710
 20
-412.530439
 40
6.000000
 50
344.038070
 51
18.063992
  0
ARC
  8
1
 10
-417.637775
 20
-428.432466
 40
6.000000
 50
11.936008
 51
45.961930
  0
ARC
  8
1
 10
-453.748851
 20
-357.364377
 40
6.000000
 50
41.936008
 51
75.961930
  0
ARC
  8
1
 10
-465.389942
 20
-345.723285
 40
6.000000
 50
14.038070
 51
48.063992
  0
ARC
  8
1
 10
-568.308172
 20
-460.282606
 40
160.000000
 50
48.063992
 51
71.936008
  0
ARC
  8
1
 10
-568.308172
 20
-460.282606
 40
160.000000
 50
78.063992
 51
101.936008
  0
ARC
  8
1
 10
-568.308172
 20
-460.282606
 40
160.000000
 50
108.063992
 51
131.936008
  0
ARC
  8
1
 10
-568.308172
 20
-460.282606
 40
160.000000
 50
138.063992
 51
161.936008
  0
ARC
  8
1
 10
-520.556004
 20
-313.873145
 40
6.000000
 50
71.936008
 51
105.961930
  0
ARC
  8
1
 10
-536.458031
 20
-309.612209
 40
6.000000
 50
44.038070
 51
78.063992
  0
ARC
  8
1
 10
-600.158313
 20
-309.612209
 40
6.000000
 50
101.936008
 51
135.961930
  0
ARC
  8
1
 10
-616.060339
 20
-313.873145
 40
6.000000
 50
74.038070
 51
108.063992
  0
ARC
  8
1
 10
-671.226401
 20
-345.723285
 40
6.000000
 50
131.936008
 51
165.961930
  0
ARC
  8
1
 10
-682.867493
 20
-357.364377
 40
6.000000
 50
104.038070
 51
138.063992
  0
ARC
  8
1
 10
-714.717634
 20
-412.530439
 40
6.000000
 50
161.936008
 51
195.961930
  0
ARC
  8
1
 10
-718.978569
 20
-428.432466
 40
6.000000
 50
134.038070
 51
168.063992
  0
ARC
  8
1
 10
-568.308172
 20
-460.282606
 40
160.000000
 50
168.063992
 51
191.936008
  0
ARC
  8
1
 10
-568.308172
 20
-460.282606
 40
160.000000
 50
198.063992
 51
221.936008
  0
ARC
  8
1
 10
-568.308172
 20
-460.282606
 40
160.000000
 50
228.063992
 51
251.936008
  0
ARC
  8
1
 10
-718.978569
 20
-492.132747
 40
6.000000
 50
191.936008
 51
225.961930
  0
ARC
  8
1
 10
-714.717634
 20
-508.034774
 40
6.000000
 50
164.038070
 51
198.063992
  0
ARC
  8
1
 10
-682.867493
 20
-563.200836
 40
6.000000
 50
221.936008
 51
255.961930
  0
ARC
  8
1
 10
-671.226401
 20
-574.841927
 40
6.000000
 50
194.038070
 51
228.063992
  0
ARC
  8
1
 10
-616.060339
 20
-606.692068
 40
6.000000
 50
251.936008
 51
285.961930
  0
ARC
  8
1
 10
-600.158313
 20
-610.953003
 40
6.000000
 50
224.038070
 51
258.063992
  0
ARC
  8
1
 10
-568.308172
 20
-460.282606
 40
160.000000
 50
348.063992
 51
11.936008
  0
ARC
  8
1
 10
-568.308172
 20
-460.282606
 40
160.000000
 50
318.063992
 51
341.936008
  0
ARC
  8
1
 10
-568.308172
 20
-460.282606
 40
160.000000
 50
258.063992
 51
281.936008
  0
ARC
  8
1
 10
-568.308172
 20
-460.282606
 40
160.000000
 50
288.063992
 51
311.936008
  0
ARC
  8
1
 10
-417.637775
 20
-492.132747
 40
6.000000
 50
314.038070
 51
348.063992
  0
ARC
  8
1
 10
-421.898710
 20
-508.034774
 40
6.000000
 50
341.936008
 51
15.961930
  0
ARC
  8
1
 10
-453.748851
 20
-563.200836
 40
6.000000
 50
284.038070
 51
318.063992
  0
ARC
  8
1
 10
-465.389942
 20
-574.841927
 40
6.000000
 50
311.936008
 51
345.961930
  0
ARC
  8
1
 10
-520.556004
 20
-606.692068
 40
6.000000
 50
254.038070
 51
288.063992
  0
ARC
  8
1
 10
-536.458031
 20
-610.953003
 40
6.000000
 50
281.936008
 51
315.961930
  0
LINE
  8
1
 10
-616.308172
 20
-214.282606
 11
-520.308172
 21
-214.282606
  0
LINE
  8
1
 10
-619.308172
 20
-211.282606
 11
-619.308172
 21
-200.282606
  0
LINE
  8
1
 10
-517.308172
 20
-211.282606
 11
-517.308172
 21
-200.282606
  0
ARC
  8
1
 10
-520.308172
 20
-211.282606
 40
3.000000
 50
270.000000
 51
360.000000
  0
ARC
  8
1
 10
-616.308172
 20
-211.282606
 40
3.000000
 50
180.000000
 51
270.000000
  0
LINE
  8
1
 10
-605.308172
 20
-235.480190
 11
-605.308172
 21
-219.282606
  0
LINE
  8
1
 10
-531.308172
 20
-235.480190
 11
-531.308172
 21
-219.282606
  0
ARC
  8
1
 10
-526.308172
 20
-219.282606
 40
5.000000
 50
90.000000
 51
180.000000
  0
ARC
  8
1
 10
-610.308172
 20
-219.282606
 40
5.000000
 50
0.000000
 51
90.000000
  0
LINE
  8
1
 10
-596.308172
 20
-247.782606
 11
-540.308172
 21
-247.782606
  0
LINE
  8
1
 10
-596.308172
 20
-294.841318
 11
-596.308172
 21
-250.085022
  0
LINE
  8
1
 10
-540.308172
 20
-294.841318
 11
-540.308172
 21
-250.085022
  0
LINE
  8
1
 10
-532.848407
 20
-239.493979
 11
-538.767937
 21
-246.071234
  0
LINE
  8
1
 10
-603.767937
 20
-239.493979
 11
-597.848407
 21
-246.071234
  0
ARC
  8
1
 10
-534.308172
 20
-250.085022
 40
6.000000
 50
138.012788
 51
180.000000
  0
ARC
  8
1
 10
-537.308172
 20
-235.480190
 40
6.000000
 50
318.012788
 51
360.000000
  0
ARC
  8
1
 10
-599.308172
 20
-235.480190
 40
6.000000
 50
180.000000
 51
221.987212
  0
ARC
  8
1
 10
-602.308172
 20
-250.085022
 40
6.000000
 50
0.000000
 51
41.987212
  0
ARC
  8
1
 10
-530.308172
 20
-294.841318
 40
10.000000
 50
180.000000
 51
247.395601
  0
ARC
  8
1
 10
-606.308172
 20
-294.841318
 40
10.000000
 50
292.604399
 51
360.000000
  0
ARC
  8
1
 10
-517.308172
 20
-228.015807
 40
14.000000
 50
100.164249
 51
180.000000
  0
ARC
  8
1
 10
-619.308172
 20
-228.015807
 40
14.000000
 50
0.000000
 51
79.835751
  0
LINE
  8
1
 10
-563.308172
 20
-228.015807
 11
-573.308172
 21
-228.015807
  0
LINE
  8
1
 10
-573.308172
 20
-225.015807
 11
-573.308172
 21
-217.282606
  0
LINE
  8
1
 10
-563.308172
 20
-225.015807
 11
-563.308172
 21
-217.282606
  0
ARC
  8
1
 10
-560.308172
 20
-217.282606
 40
3.000000
 50
90.000000
 51
180.000000
  0
ARC
  8
1
 10
-576.308172
 20
-217.282606
 40
3.000000
 50
0.000000
 51
90.000000
  0
ARC
  8
1
 10
-576.308172
 20
-225.015807
 40
3.000000
 50
270.000000
 51
360.000000
  0
ARC
  8
1
 10
-560.308172
 20
-225.015807
 40
3.000000
 50
180.000000
 51
270.000000
  0
LINE
  8
1
 10
-583.634074
 20
-219.282606
 11
-583.634074
 21
-234.873938
  0
LINE
  8
1
 10
-552.982270
 20
-219.282606
 11
-552.982270
 21
-234.873938
  0
ARC
  8
1
 10
-547.982270
 20
-219.282606
 40
5.000000
 50
90.000000
 51
180.000000
  0
ARC
  8
1
 10
-588.634074
 20
-219.282606
 40
5.000000
 50
0.000000
 51
90.000000
  0
LINE
  8
1
 10
-585.917551
 20
-239.584295
 11
-594.024694
 21
-245.980918
  0
LINE
  8
1
 10
-542.591649
 20
-245.980918
 11
-550.698792
 21
-239.584295
  0
ARC
  8
1
 10
-546.982270
 20
-234.873938
 40
6.000000
 50
180.000000
 51
231.726180
  0
ARC
  8
1
 10
-589.634074
 20
-234.873938
 40
6.000000
 50
308.273820
 51
360.000000
  0
LINE
  8
1
 10
-550.698792
 20
-237.782606
 11
-532.848407
 21
-237.782606
  0
LINE
  8
1
 10
-603.767937
 20
-237.782606
 11
-585.917551
 21
-237.782606
  0
LINE
  8
1
 10
-583.634074
 20
-237.782606
 11
-552.982270
 21
-237.782606
  0
LINE
  8
1
 10
-768.308172
 20
-487.282606
 11
-768.308172
 21
-433.282606
  0
LINE
  8
1
 10
-765.308172
 20
-430.282606
 11
-725.470508
 21
-430.282606
  0
LINE
  8
1
 10
-765.308172
 20
-490.282606
 11
-725.470508
 21
-490.282606
  0
ARC
  8
1
 10
-765.308172
 20
-433.282606
 40
3.000000
 50
90.000000
 51
180.000000
  0
ARC
  8
1
 10
-765.308172
 20
-487.282606
 40
3.000000
 50
180.000000
 51
270.000000
  0
LINE
  8
1
 10
-768.308172
 20
-460.282606
 11
-723.308172
 21
-460.282606
  0
LINE
  8
1
 10
-368.308172
 20
-487.282606
 11
-368.308172
 21
-433.282606
  0
LINE
  8
1
 10
-371.308172
 20
-430.282606
 11
-411.145835
 21
-430.282606
  0
LINE
  8
1
 10
-371.308172
 20
-490.282606
 11
-411.145835
 21
-490.282606
  0
ARC
  8
1
 10
-371.308172
 20
-433.282606
 40
3.000000
 50
0.000000
 51
90.000000
  0
ARC
  8
1
 10
-371.308172
 20
-487.282606
 40
3.000000
 50
270.000000
 51
360.000000
  0
LINE
  8
1
 10
-368.308172
 20
-460.282606
 11
-413.308172
 21
-460.282606
  0
LINE
  8
1
 10
-608.808172
 20
-720.282606
 11
-527.808172
 21
-720.282606
  0
LINE
  8
1
 10
-605.308172
 20
-685.085022
 11
-605.308172
 21
-697.539966
  0
LINE
  8
1
 10
-531.308172
 20
-685.085022
 11
-531.308172
 21
-697.539966
  0
LINE
  8
1
 10
-596.308172
 20
-672.782606
 11
-540.308172
 21
-672.782606
  0
LINE
  8
1
 10
-596.308172
 20
-625.723895
 11
-596.308172
 21
-670.480190
  0
LINE
  8
1
 10
-540.308172
 20
-625.723895
 11
-540.308172
 21
-670.480190
  0
LINE
  8
1
 10
-532.848407
 20
-681.071234
 11
-538.767937
 21
-674.493979
  0
LINE
  8
1
 10
-603.767937
 20
-681.071234
 11
-597.848407
 21
-674.493979
  0
ARC
  8
1
 10
-534.308172
 20
-670.480190
 40
6.000000
 50
180.000000
 51
221.987212
  0
ARC
  8
1
 10
-537.308172
 20
-685.085022
 40
6.000000
 50
0.000000
 51
41.987212
  0
ARC
  8
1
 10
-599.308172
 20
-685.085022
 40
6.000000
 50
138.012788
 51
180.000000
  0
ARC
  8
1
 10
-602.308172
 20
-670.480190
 40
6.000000
 50
318.012788
 51
360.000000
  0
ARC
  8
1
 10
-530.308172
 20
-625.723895
 40
10.000000
 50
112.604399
 51
180.000000
  0
ARC
  8
1
 10
-606.308172
 20
-625.723895
 40
10.000000
 50
0.000000
 51
67.395601
  0
LINE
  8
1
 10
-532.848407
 20
-682.782606
 11
-603.767937
 21
-682.782606
  0
LINE
  8
1
 10
-607.929492
 20
-702.282606
 11
-528.686851
 21
-702.282606
  0
LINE
  8
1
 10
-605.308172
 20
-698.782606
 11
-531.308172
 21
-698.782606
  0
LINE
  8
1
 10
-608.808172
 20
-720.282606
 11
-608.808172
 21
-703.525247
  0
LINE
  8
1
 10
-527.808172
 20
-720.282606
 11
-527.808172
 21
-703.525247
  0
LINE
  8
1
 10
-530.429492
 20
-699.661286
 11
-528.686851
 21
-701.403927
  0
LINE
  8
1
 10
-606.186851
 20
-699.661286
 11
-607.929492
 21
-701.403927
  0
ARC
  8
1
 10
-530.808172
 20
-703.525247
 40
3.000000
 50
0.000000
 51
45.000000
  0
ARC
  8
1
 10
-528.308172
 20
-697.539966
 40
3.000000
 50
180.000000
 51
225.000000
  0
ARC
  8
1
 10
-608.308172
 20
-697.539966
 40
3.000000
 50
315.000000
 51
360.000000
  0
ARC
  8
1
 10
-605.808172
 20
-703.525247
 40
3.000000
 50
135.000000
 51
180.000000
  0
LINE
  8
1
  6
DASHED
 10
-619.308172
 20
503.317394
 11
-619.308172
 21
557.317394
  0
LINE
  8
1
  6
DASHED
 10
-517.308172
 20
503.317394
 11
-517.308172
 21
557.317394
  0
LINE
  8
1
  6
DASHED
 10
-595.308172
 20
581.317394
 11
-541.308172
 21
581.317394
  0
LINE
  8
1
  6
DASHED
 10
-595.308172
 20
479.317394
 11
-541.308172
 21
479.317394
  0
ARC
  8
1
  6
DASHED
 10
-595.308172
 20
557.317394
 40
24.000000
 50
90.000000
 51
180.000000
  0
ARC
  8
1
  6
DASHED
 10
-595.308172
 20
503.317394
 40
24.000000
 50
180.000000
 51
270.000000
  0
ARC
  8
1
  6
DASHED
 10
-541.308172
 20
503.317394
 40
24.000000
 50
270.000000
 51
360.000000
  0
ARC
  8
1
  6
DASHED
 10
-541.308172
 20
557.317394
 40
24.000000
 50
0.000000
 51
90.000000
  0
CIRCLE
  8
1
  6
DASHED
 10
-532.245726
 20
566.379839
 40
5.500000
  0
CIRCLE
  8
1
  6
DASHED
 10
-604.370618
 20
566.379839
 40
5.500000
  0
CIRCLE
  8
1
  6
DASHED
 10
-532.245726
 20
494.254948
 40
5.500000
  0
CIRCLE
  8
1
  6
DASHED
 10
-604.370618
 20
494.254948
 40
5.500000
  0
LINE
  8
1
  6
DASHED
 10
-447.581207
 20
514.317394
 11
-447.581207
 21
546.317394
  0
LINE
  8
1
  6
DASHED
 10
-443.635711
 20
514.317394
 11
-443.635711
 21
546.317394
  0
LINE
  8
1
  6
DASHED
 10
-501.052738
 20
549.317394
 11
-460.700957
 21
549.317394
  0
LINE
  8
1
  6
DASHED
 10
-468.308172
 20
524.977648
 11
-468.308172
 21
535.657140
  0
ARC
  8
1
  6
DASHED
 10
-473.308172
 20
535.657140
 40
5.000000
 50
0.000000
 51
90.000000
  0
ARC
  8
1
  6
DASHED
 10
-473.308172
 20
524.977648
 40
5.000000
 50
270.000000
 51
360.000000
  0
LINE
  8
1
  6
DASHED
 10
-517.308172
 20
540.657140
 11
-473.308172
 21
540.657140
  0
LINE
  8
1
  6
DASHED
 10
-443.635711
 20
540.657140
 11
-426.445562
 21
540.657140
  0
LINE
  8
1
  6
DASHED
 10
-517.308172
 20
519.977648
 11
-473.308172
 21
519.977648
  0
LINE
  8
1
  6
DASHED
 10
-443.635711
 20
519.977648
 11
-426.445562
 21
519.977648
  0
ARC
  8
1
  6
DASHED
 10
-450.581207
 20
546.317394
 40
3.000000
 50
0.000000
 51
75.014350
  0
LINE
  8
1
  6
DASHED
 10
-517.308172
 20
511.317394
 11
-460.700957
 21
511.317394
  0
ARC
  8
1
  6
DASHED
 10
-450.581207
 20
514.317394
 40
3.000000
 50
284.985650
 51
360.000000
  0
LINE
  8
1
  6
DASHED
 10
-459.833662
 20
549.317394
 11
-459.833662
 21
561.317394
  0
LINE
  8
1
  6
DASHED
 10
-450.693204
 20
549.317394
 11
-450.693204
 21
561.317394
  0
ARC
  8
1
  6
DASHED
 10
-456.938854
 20
551.498593
 40
3.624575
 50
228.020185
 51
270.000000
  0
ARC
  8
1
  6
DASHED
 10
-456.938854
 20
562.108524
 40
14.234506
 50
270.000000
 51
294.050446
  0
ARC
  8
1
  6
DASHED
 10
-450.322630
 20
547.283384
 40
2.000000
 50
75.014350
 51
114.050446
  0
ARC
  8
1
  6
DASHED
 10
-460.700957
 20
547.317394
 40
2.000000
 50
48.020185
 51
90.000000
  0
LINE
  8
1
  6
DASHED
 10
-459.833662
 20
511.317394
 11
-459.833662
 21
499.317394
  0
LINE
  8
1
  6
DASHED
 10
-450.693204
 20
511.317394
 11
-450.693204
 21
499.317394
  0
ARC
  8
1
  6
DASHED
 10
-456.938854
 20
509.136194
 40
3.624575
 50
90.000000
 51
131.979815
  0
ARC
  8
1
  6
DASHED
 10
-456.938854
 20
498.526264
 40
14.234506
 50
65.949554
 51
90.000000
  0
ARC
  8
1
  6
DASHED
 10
-450.322630
 20
513.351403
 40
2.000000
 50
245.949554
 51
284.985650
  0
ARC
  8
1
  6
DASHED
 10
-460.700957
 20
513.317394
 40
2.000000
 50
270.000000
 51
311.979815
  0
LINE
  8
1
  6
DASHED
 10
-450.581207
 20
512.570870
 11
-468.308172
 21
519.977648
  0
LINE
  8
1
  6
DASHED
 10
-450.581207
 20
548.063917
 11
-468.308172
 21
540.657140
  0
LINE
  8
1
  6
DASHED
 10
-426.445562
 20
523.475931
 11
-426.445562
 21
537.158856
  0
LINE
  8
1
 10
-368.308172
 20
515.317394
 11
-368.308172
 21
545.317394
  0
LINE
  8
1
 10
-408.145835
 20
555.317394
 11
-378.308172
 21
555.317394
  0
LINE
  8
1
 10
-408.145835
 20
505.317394
 11
-378.308172
 21
505.317394
  0
ARC
  8
1
 10
-378.308172
 20
545.317394
 40
10.000000
 50
0.000000
 51
90.000000
  0
ARC
  8
1
 10
-378.308172
 20
515.317394
 40
10.000000
 50
270.000000
 51
360.000000
  0
LINE
  8
1
 10
-408.308172
 20
499.317394
 11
-408.308172
 21
502.317394
  0
LINE
  8
1
 10
-408.308172
 20
558.317394
 11
-408.308172
 21
561.317394
  0
ARC
  8
1
 10
-405.308172
 20
558.317394
 40
3.000000
 50
180.000000
 51
270.000000
  0
ARC
  8
1
 10
-405.308172
 20
502.317394
 40
3.000000
 50
90.000000
 51
180.000000
  0
LINE
  8
1
 10
-411.145835
 20
551.649583
 11
-411.145835
 21
555.317394
  0
ARC
  8
1
 10
-408.145835
 20
558.317394
 40
3.000000
 50
180.000000
 51
270.000000
  0
ARC
  8
1
 10
-408.145835
 20
502.317394
 40
3.000000
 50
90.000000
 51
180.000000
  0
LINE
  8
1
 10
-423.401160
 20
542.380393
 11
-413.175437
 21
548.168558
  0
CIRCLE
  8
1
 62
2
 10
-390.308172
 20
530.317394
 40
10.000000
  0
CIRCLE
  8
1
 10
-390.308172
 20
530.317394
 40
8.647000
  0
ARC
  8
1
 10
-415.145835
 20
551.649583
 40
4.000000
 50
299.511587
 51
360.000000
  0
LINE
  8
1
 10
-411.145835
 20
508.985205
 11
-411.145835
 21
505.317394
  0
LINE
  8
1
 10
-423.401160
 20
518.254395
 11
-413.175437
 21
512.466229
  0
ARC
  8
1
 10
-415.145835
 20
508.985205
 40
4.000000
 50
0.000000
 51
60.488413
  0
LINE
  8
1
 10
-415.898710
 20
549.317394
 11
-415.898710
 21
561.317394
  0
ARC
  8
1
 10
-416.174854
 20
548.214760
 40
0.340742
 50
180.000000
 51
270.000000
  0
ARC
  8
1
 10
-415.221718
 20
548.214760
 40
1.293878
 50
121.548964
 51
180.000000
  0
LINE
  8
1
 10
-412.213367
 20
549.317394
 11
-412.213367
 21
561.317394
  0
ARC
  8
1
 10
-416.174854
 20
554.032053
 40
6.158035
 50
270.000000
 51
310.038619
  0
LINE
  8
1
 10
-415.898710
 20
511.317394
 11
-415.898710
 21
499.317394
  0
ARC
  8
1
 10
-416.174854
 20
512.420028
 40
0.340742
 50
90.000000
 51
180.000000
  0
ARC
  8
1
 10
-415.221718
 20
512.420028
 40
1.293878
 50
180.000000
 51
238.451036
  0
LINE
  8
1
 10
-412.213367
 20
511.317394
 11
-412.213367
 21
499.317394
  0
ARC
  8
1
 10
-416.174854
 20
506.602734
 40
6.158035
 50
49.961381
 51
90.000000
  0
CIRCLE
  8
1
 10
-614.248552
 20
-288.830772
 40
12.500000
  0
LINE
  8
1
 10
-630.024223
 20
-307.229235
 11
-635.053695
 21
-288.458987
  0
ARC
  8
1
 10
-640.594656
 20
-306.416872
 40
10.000000
 50
295.164249
 51
15.000000
  0
LINE
  8
1
 10
-615.735179
 20
-263.282606
 11
-608.308172
 21
-263.282606
  0
ARC
  8
1
 10
-615.735179
 20
-283.282606
 40
20.000000
 50
90.000000
 51
195.000000
  0
ARC
  8
1
 10
-608.308172
 20
-251.282606
 40
12.000000
 50
270.000000
 51
360.000000
  0
CIRCLE
  8
1
 10
-522.367791
 20
-288.830772
 40
12.500000
  0
LINE
  8
1
 10
-506.592121
 20
-307.229235
 11
-501.562648
 21
-288.458987
  0
ARC
  8
1
 10
-496.021687
 20
-306.416872
 40
10.000000
 50
165.000000
 51
244.835751
  0
LINE
  8
1
 10
-520.881165
 20
-263.282606
 11
-528.308172
 21
-263.282606
  0
ARC
  8
1
 10
-520.881165
 20
-283.282606
 40
20.000000
 50
345.000000
 51
90.000000
  0
ARC
  8
1
 10
-528.308172
 20
-251.282606
 40
12.000000
 50
180.000000
 51
270.000000
  0
LINE
  8
1
  6
DASHED
 10
-500.881165
 20
550.317394
 11
-500.881165
 21
554.317394
  0
LINE
  8
1
  6
DASHED
 10
-503.881165
 20
557.317394
 11
-517.308172
 21
557.317394
  0
LINE
  8
1
  6
DASHED
 10
-503.881165
 20
547.317394
 11
-517.308172
 21
547.317394
  0
LINE
  8
1
 10
140.191828
 20
-300.282606
 11
140.191828
 21
-620.282606
  0
LINE
  8
1
 10
78.191828
 20
-300.282606
 11
78.191828
 21
-620.282606
  0
LINE
  8
1
 10
128.191828
 20
-412.253464
 11
128.191828
 21
-365.282606
  0
LINE
  8
1
 10
119.531574
 20
-417.863252
 11
119.531574
 21
-380.043723
  0
LINE
  8
1
 10
119.531574
 20
-348.701961
 11
119.531574
 21
-324.082749
  0
LINE
  8
1
 10
98.852082
 20
-417.863252
 11
98.852082
 21
-380.043723
  0
LINE
  8
1
 10
98.852082
 20
-348.701961
 11
98.852082
 21
-324.082749
  0
LINE
  8
1
 10
128.191828
 20
-351.808097
 11
140.191828
 21
-351.808097
  0
LINE
  8
1
 10
128.191828
 20
-342.667638
 11
140.191828
 21
-342.667638
  0
ARC
  8
1
 10
130.373028
 20
-348.913288
 40
3.624575
 50
180.000000
 51
221.121083
  0
ARC
  8
1
 10
140.982958
 20
-348.913288
 40
14.234506
 50
155.656712
 51
180.000000
  0
LINE
  8
1
 10
90.191828
 20
-351.808097
 11
78.191828
 21
-351.808097
  0
LINE
  8
1
 10
90.191828
 20
-342.667638
 11
78.191828
 21
-342.667638
  0
ARC
  8
1
 10
88.010628
 20
-348.913288
 40
3.624575
 50
318.878917
 51
360.000000
  0
ARC
  8
1
 10
77.400698
 20
-348.913288
 40
14.234506
 50
0.000000
 51
24.343288
  0
LINE
  8
1
 10
78.191828
 20
-300.282606
 11
79.191828
 21
-300.282606
  0
LINE
  8
1
 10
139.191828
 20
-300.282606
 11
140.191828
 21
-300.282606
  0
LINE
  8
1
 10
139.191828
 20
-307.873145
 11
140.191828
 21
-307.873145
  0
LINE
  8
1
 10
90.191828
 20
-307.873145
 11
78.191828
 21
-307.873145
  0
ARC
  8
1
 10
91.294462
 20
-308.149289
 40
0.340742
 50
270.000000
 51
360.000000
  0
ARC
  8
1
 10
91.294462
 20
-307.196153
 40
1.293878
 50
211.548964
 51
270.000000
  0
ARC
  8
1
 10
85.477169
 20
-308.149289
 40
6.158035
 50
0.000000
 51
18.749153
  0
LINE
  8
1
  6
DASHED
 10
-635.735179
 20
550.317394
 11
-635.735179
 21
554.317394
  0
LINE
  8
1
  6
DASHED
 10
-632.735179
 20
557.317394
 11
-619.308172
 21
557.317394
  0
LINE
  8
1
  6
DASHED
 10
-632.735179
 20
547.317394
 11
-619.308172
 21
547.317394
  0
LINE
  8
1
  6
DASHED
 10
-728.308172
 20
561.317394
 11
-618.972491
 21
561.317394
  0
LINE
  8
1
  6
DASHED
 10
-728.308172
 20
499.317394
 11
-618.972491
 21
499.317394
  0
LINE
  8
1
  6
DASHED
 10
-689.035136
 20
514.317394
 11
-689.035136
 21
546.317394
  0
LINE
  8
1
  6
DASHED
 10
-692.980632
 20
514.317394
 11
-692.980632
 21
546.317394
  0
LINE
  8
1
  6
DASHED
 10
-635.563606
 20
549.317394
 11
-675.915387
 21
549.317394
  0
LINE
  8
1
  6
DASHED
 10
-695.980632
 20
549.317394
 11
-720.717634
 21
549.317394
  0
LINE
  8
1
  6
DASHED
 10
-668.308172
 20
524.977648
 11
-668.308172
 21
535.657140
  0
ARC
  8
1
  6
DASHED
 10
-663.308172
 20
535.657140
 40
5.000000
 50
90.000000
 51
180.000000
  0
ARC
  8
1
  6
DASHED
 10
-663.308172
 20
524.977648
 40
5.000000
 50
180.000000
 51
270.000000
  0
LINE
  8
1
  6
DASHED
 10
-619.308172
 20
540.657140
 11
-663.308172
 21
540.657140
  0
LINE
  8
1
  6
DASHED
 10
-692.980632
 20
540.657140
 11
-710.170781
 21
540.657140
  0
LINE
  8
1
  6
DASHED
 10
-619.308172
 20
519.977648
 11
-663.308172
 21
519.977648
  0
LINE
  8
1
  6
DASHED
 10
-692.980632
 20
519.977648
 11
-710.170781
 21
519.977648
  0
ARC
  8
1
  6
DASHED
 10
-686.035136
 20
546.317394
 40
3.000000
 50
104.985650
 51
180.000000
  0
ARC
  8
1
  6
DASHED
 10
-695.980632
 20
514.317394
 40
3.000000
 50
270.000000
 51
360.000000
  0
ARC
  8
1
  6
DASHED
 10
-695.980632
 20
546.317394
 40
3.000000
 50
0.000000
 51
90.000000
  0
LINE
  8
1
  6
DASHED
 10
-619.308172
 20
511.317394
 11
-675.915387
 21
511.317394
  0
ARC
  8
1
  6
DASHED
 10
-686.035136
 20
514.317394
 40
3.000000
 50
180.000000
 51
255.014350
  0
LINE
  8
1
  6
DASHED
 10
-676.782682
 20
549.317394
 11
-676.782682
 21
561.317394
  0
LINE
  8
1
  6
DASHED
 10
-685.923140
 20
549.317394
 11
-685.923140
 21
561.317394
  0
ARC
  8
1
  6
DASHED
 10
-679.677490
 20
551.498593
 40
3.624575
 50
270.000000
 51
311.979815
  0
ARC
  8
1
  6
DASHED
 10
-679.677490
 20
562.108524
 40
14.234506
 50
245.949554
 51
270.000000
  0
ARC
  8
1
  6
DASHED
 10
-686.293714
 20
547.283384
 40
2.000000
 50
65.949554
 51
104.985650
  0
ARC
  8
1
  6
DASHED
 10
-675.915387
 20
547.317394
 40
2.000000
 50
90.000000
 51
131.979815
  0
LINE
  8
1
  6
DASHED
 10
-676.782682
 20
511.317394
 11
-676.782682
 21
499.317394
  0
LINE
  8
1
  6
DASHED
 10
-685.923140
 20
511.317394
 11
-685.923140
 21
499.317394
  0
ARC
  8
1
  6
DASHED
 10
-679.677490
 20
509.136194
 40
3.624575
 50
48.020185
 51
90.000000
  0
ARC
  8
1
  6
DASHED
 10
-679.677490
 20
498.526264
 40
14.234506
 50
90.000000
 51
114.050446
  0
ARC
  8
1
  6
DASHED
 10
-686.293714
 20
513.351403
 40
2.000000
 50
255.014350
 51
294.050446
  0
ARC
  8
1
  6
DASHED
 10
-675.915387
 20
513.317394
 40
2.000000
 50
228.020185
 51
270.000000
  0
LINE
  8
1
  6
DASHED
 10
-686.035136
 20
512.570870
 11
-668.308172
 21
519.977648
  0
LINE
  8
1
  6
DASHED
 10
-686.035136
 20
548.063917
 11
-668.308172
 21
540.657140
  0
LINE
  8
1
  6
DASHED
 10
-710.170781
 20
523.475931
 11
-710.170781
 21
537.158856
  0
LINE
  8
1
  6
DASHED
 10
-768.308172
 20
515.317394
 11
-768.308172
 21
545.317394
  0
LINE
  8
1
  6
DASHED
 10
-728.470508
 20
555.317394
 11
-758.308172
 21
555.317394
  0
LINE
  8
1
  6
DASHED
 10
-728.470508
 20
505.317394
 11
-758.308172
 21
505.317394
  0
ARC
  8
1
  6
DASHED
 10
-758.308172
 20
545.317394
 40
10.000000
 50
90.000000
 51
180.000000
  0
ARC
  8
1
  6
DASHED
 10
-758.308172
 20
515.317394
 40
10.000000
 50
180.000000
 51
270.000000
  0
LINE
  8
1
  6
DASHED
 10
-728.308172
 20
499.317394
 11
-728.308172
 21
502.317394
  0
LINE
  8
1
  6
DASHED
 10
-728.308172
 20
558.317394
 11
-728.308172
 21
561.317394
  0
ARC
  8
1
  6
DASHED
 10
-731.308172
 20
558.317394
 40
3.000000
 50
270.000000
 51
360.000000
  0
ARC
  8
1
  6
DASHED
 10
-731.308172
 20
502.317394
 40
3.000000
 50
0.000000
 51
90.000000
  0
LINE
  8
1
  6
DASHED
 10
-725.470508
 20
551.649583
 11
-725.470508
 21
555.317394
  0
ARC
  8
1
  6
DASHED
 10
-728.470508
 20
558.317394
 40
3.000000
 50
270.000000
 51
360.000000
  0
ARC
  8
1
  6
DASHED
 10
-728.470508
 20
502.317394
 40
3.000000
 50
0.000000
 51
90.000000
  0
ARC
  8
1
  6
DASHED
 10
-716.170781
 20
523.475931
 40
6.000000
 50
299.511587
 51
0.000000
  0
ARC
  8
1
  6
DASHED
 10
-716.170781
 20
537.158856
 40
6.000000
 50
360.000000
 51
60.488413
  0
LINE
  8
1
  6
DASHED
 10
-713.215184
 20
542.380393
 11
-723.440906
 21
548.168558
  0
CIRCLE
  8
1
  6
DASHED
 62
2
 10
-746.308172
 20
530.317394
 40
10.000000
  0
CIRCLE
  8
1
  6
DASHED
 10
-746.308172
 20
530.317394
 40
8.647000
  0
ARC
  8
1
  6
DASHED
 10
-721.470508
 20
551.649583
 40
4.000000
 50
180.000000
 51
240.488413
  0
LINE
  8
1
  6
DASHED
 10
-695.980632
 20
511.317394
 11
-720.717634
 21
511.317394
  0
LINE
  8
1
  6
DASHED
 10
-725.470508
 20
508.985205
 11
-725.470508
 21
505.317394
  0
LINE
  8
1
  6
DASHED
 10
-713.215184
 20
518.254395
 11
-723.440906
 21
512.466229
  0
ARC
  8
1
  6
DASHED
 10
-721.470508
 20
508.985205
 40
4.000000
 50
119.511587
 51
180.000000
  0
LINE
  8
1
  6
DASHED
 10
-720.717634
 20
549.317394
 11
-720.717634
 21
561.317394
  0
ARC
  8
1
  6
DASHED
 10
-720.441489
 20
548.214760
 40
0.340742
 50
270.000000
 51
0.000000
  0
ARC
  8
1
  6
DASHED
 10
-721.394625
 20
548.214760
 40
1.293878
 50
0.000000
 51
58.451036
  0
LINE
  8
1
  6
DASHED
 10
-724.402977
 20
549.317394
 11
-724.402977
 21
561.317394
  0
ARC
  8
1
  6
DASHED
 10
-720.441489
 20
554.032053
 40
6.158035
 50
229.961381
 51
270.000000
  0
LINE
  8
1
  6
DASHED
 10
-720.717634
 20
511.317394
 11
-720.717634
 21
499.317394
  0
ARC
  8
1
  6
DASHED
 10
-720.441489
 20
512.420028
 40
0.340742
 50
360.000000
 51
90.000000
  0
ARC
  8
1
  6
DASHED
 10
-721.394625
 20
512.420028
 40
1.293878
 50
301.548964
 51
360.000000
  0
LINE
  8
1
  6
DASHED
 10
-724.402977
 20
511.317394
 11
-724.402977
 21
499.317394
  0
ARC
  8
1
  6
DASHED
 10
-720.441489
 20
506.602734
 40
6.158035
 50
90.000000
 51
130.038619
  0
LINE
  8
1
 10
128.191828
 20
-342.221379
 11
128.191828
 21
-317.750323
  0
LINE
  8
1
 10
90.191828
 20
-342.221379
 11
90.191828
 21
-307.873145
  0
ARC
  8
1
 10
92.191828
 20
-342.221379
 40
2.000000
 50
180.000000
 51
204.343288
  0
ARC
  8
1
 10
126.191828
 20
-342.221379
 40
2.000000
 50
335.656712
 51
360.000000
  0
ARC
  8
1
 10
125.191828
 20
-352.282606
 40
3.000000
 50
270.000000
 51
340.749553
  0
ARC
  8
1
 10
93.191828
 20
-352.282606
 40
3.000000
 50
199.250447
 51
270.000000
  0
ARC
  8
1
 10
126.135915
 20
-352.612304
 40
2.000000
 50
340.749553
 51
41.121083
  0
ARC
  8
1
 10
92.247742
 20
-352.612304
 40
2.000000
 50
138.878917
 51
199.250447
  0
ARC
  8
1
 10
124.191828
 20
-365.282606
 40
4.000000
 50
0.000000
 51
90.000000
  0
ARC
  8
1
 10
94.191828
 20
-365.282606
 40
4.000000
 50
90.000000
 51
180.000000
  0
ARC
  8
1
  6
DASHED
 10
-440.635711
 20
546.317394
 40
3.000000
 50
90.000000
 51
180.000000
  0
ARC
  8
1
  6
DASHED
 10
-440.635711
 20
514.317394
 40
3.000000
 50
180.000000
 51
270.000000
  0
LINE
  8
1
 10
87.191828
 20
-430.282606
 11
131.191828
 21
-430.282606
  0
ARC
  8
1
 10
131.191828
 20
-433.282606
 40
3.000000
 50
0.000000
 51
90.000000
  0
ARC
  8
1
 10
87.191828
 20
-433.282606
 40
3.000000
 50
90.000000
 51
180.000000
  0
ARC
  8
1
 10
123.191828
 20
-425.282606
 40
5.000000
 50
270.000000
 51
353.833694
  0
LINE
  8
1
 10
103.852082
 20
-422.863252
 11
114.531574
 21
-422.863252
  0
LINE
  8
1
 10
102.852082
 20
-376.043723
 11
115.531574
 21
-376.043723
  0
ARC
  8
1
 10
103.852082
 20
-417.863252
 40
5.000000
 50
180.000000
 51
270.000000
  0
ARC
  8
1
 10
114.531574
 20
-417.863252
 40
5.000000
 50
270.000000
 51
360.000000
  0
LINE
  8
1
 10
119.531574
 20
-422.863252
 11
125.124684
 21
-427.654943
  0
LINE
  8
1
 10
98.852082
 20
-422.863252
 11
93.258973
 21
-427.654943
  0
LINE
  8
1
 10
125.845054
 20
-365.282606
 11
119.531574
 21
-376.043723
  0
LINE
  8
1
 10
92.538603
 20
-365.282606
 11
98.852082
 21
-376.043723
  0
LINE
  8
1
 10
93.191828
 20
-355.282606
 11
125.191828
 21
-355.282606
  0
LINE
  8
1
 10
94.191828
 20
-361.282606
 11
124.191828
 21
-361.282606
  0
LINE
  8
1
 10
102.852082
 20
-352.701961
 11
115.531574
 21
-352.701961
  0
ARC
  8
1
 10
115.531574
 20
-380.043723
 40
4.000000
 50
0.000000
 51
90.000000
  0
ARC
  8
1
 10
102.852082
 20
-380.043723
 40
4.000000
 50
90.000000
 51
180.000000
  0
ARC
  8
1
 10
102.852082
 20
-348.701961
 40
4.000000
 50
180.000000
 51
270.000000
  0
ARC
  8
1
 10
115.531574
 20
-348.701961
 40
4.000000
 50
270.000000
 51
360.000000
  0
LINE
  8
1
 10
119.531574
 20
-352.701961
 11
125.191828
 21
-354.388645
  0
LINE
  8
1
 10
98.852082
 20
-352.701961
 11
93.191828
 21
-354.388645
  0
LINE
  8
1
 10
90.191828
 20
-412.253464
 11
90.191828
 21
-365.282606
  0
ARC
  8
1
 10
95.191828
 20
-425.282606
 40
5.000000
 50
186.166306
 51
270.000000
  0
LINE
  8
1
 10
82.191828
 20
-250.267888
 11
82.191828
 21
-301.187801
  0
LINE
  8
1
 10
136.191828
 20
-250.267888
 11
136.191828
 21
-312.467798
  0
ARC
  8
1
 10
139.191828
 20
-297.282606
 40
3.000000
 50
180.000000
 51
270.000000
  0
ARC
  8
1
 10
79.191828
 20
-297.282606
 40
3.000000
 50
270.000000
 51
360.000000
  0
ARC
  8
1
 10
139.191828
 20
-301.187801
 40
3.000000
 50
180.000000
 51
270.000000
  0
ARC
  8
1
 10
79.191828
 20
-301.187801
 40
3.000000
 50
270.000000
 51
360.000000
  0
LINE
  8
1
 10
61.191828
 20
-214.282606
 11
157.191828
 21
-214.282606
  0
LINE
  8
1
 10
58.191828
 20
-211.282606
 11
58.191828
 21
-200.282606
  0
LINE
  8
1
 10
160.191828
 20
-211.282606
 11
160.191828
 21
-200.282606
  0
ARC
  8
1
 10
157.191828
 20
-211.282606
 40
3.000000
 50
270.000000
 51
360.000000
  0
ARC
  8
1
 10
61.191828
 20
-211.282606
 40
3.000000
 50
180.000000
 51
270.000000
  0
LINE
  8
1
 10
72.191828
 20
-235.297325
 11
72.191828
 21
-219.282606
  0
LINE
  8
1
 10
146.191828
 20
-235.297325
 11
146.191828
 21
-219.282606
  0
ARC
  8
1
 10
151.191828
 20
-219.282606
 40
5.000000
 50
90.000000
 51
180.000000
  0
ARC
  8
1
 10
67.191828
 20
-219.282606
 40
5.000000
 50
0.000000
 51
90.000000
  0
LINE
  8
1
 10
82.191828
 20
-247.782606
 11
136.191828
 21
-247.782606
  0
ARC
  8
1
 10
160.191828
 20
-228.015807
 40
14.000000
 50
100.164249
 51
180.000000
  0
ARC
  8
1
 10
58.191828
 20
-228.015807
 40
14.000000
 50
0.000000
 51
79.835751
  0
LINE
  8
1
 10
114.191828
 20
-228.015807
 11
104.191828
 21
-228.015807
  0
LINE
  8
1
 10
104.191828
 20
-225.015807
 11
104.191828
 21
-217.282606
  0
LINE
  8
1
 10
114.191828
 20
-225.015807
 11
114.191828
 21
-217.282606
  0
ARC
  8
1
 10
117.191828
 20
-217.282606
 40
3.000000
 50
90.000000
 51
180.000000
  0
ARC
  8
1
 10
101.191828
 20
-217.282606
 40
3.000000
 50
0.000000
 51
90.000000
  0
ARC
  8
1
 10
101.191828
 20
-225.015807
 40
3.000000
 50
270.000000
 51
360.000000
  0
ARC
  8
1
 10
117.191828
 20
-225.015807
 40
3.000000
 50
180.000000
 51
270.000000
  0
LINE
  8
1
 10
93.865926
 20
-219.282606
 11
93.865926
 21
-234.873938
  0
LINE
  8
1
 10
124.517730
 20
-219.282606
 11
124.517730
 21
-235.021853
  0
ARC
  8
1
 10
129.517730
 20
-219.282606
 40
5.000000
 50
90.000000
 51
180.000000
  0
ARC
  8
1
 10
88.865926
 20
-219.282606
 40
5.000000
 50
0.000000
 51
90.000000
  0
LINE
  8
1
 10
126.614415
 20
-237.782606
 11
144.434469
 21
-237.782606
  0
LINE
  8
1
 10
93.865926
 20
-237.782606
 11
124.517730
 21
-237.782606
  0
LINE
  8
1
 10
144.434469
 20
-239.539966
 11
137.949188
 21
-246.025247
  0
LINE
  8
1
 10
73.949188
 20
-239.539966
 11
80.434469
 21
-246.025247
  0
ARC
  8
1
 10
140.191828
 20
-235.297325
 40
6.000000
 50
315.000000
 51
0.000000
  0
ARC
  8
1
 10
78.191828
 20
-235.297325
 40
6.000000
 50
180.000000
 51
225.000000
  0
ARC
  8
1
 10
76.191828
 20
-250.267888
 40
6.000000
 50
0.000000
 51
45.000000
  0
ARC
  8
1
 10
142.191828
 20
-250.267888
 40
6.000000
 50
135.000000
 51
180.000000
  0
LINE
  8
1
 10
126.614415
 20
-239.578621
 11
134.095143
 21
-245.986592
  0
ARC
  8
1
 10
130.517730
 20
-235.021853
 40
6.000000
 50
180.000000
 51
229.416732
  0
LINE
  8
1
 10
91.769241
 20
-237.782606
 11
73.949188
 21
-237.782606
  0
ARC
  8
1
 10
87.865926
 20
-235.021853
 40
6.000000
 50
310.583268
 51
360.000000
  0
LINE
  8
1
 10
91.769241
 20
-239.578621
 11
84.288514
 21
-245.986592
  0
LINE
  8
1
 10
102.852082
 20
-320.082749
 11
115.531574
 21
-320.082749
  0
LINE
  8
1
 10
139.191828
 20
-304.187801
 11
140.191828
 21
-304.187801
  0
LINE
  8
1
 10
78.191828
 20
-304.187801
 11
79.191828
 21
-304.187801
  0
LINE
  8
1
 10
82.191828
 20
-304.187801
 11
123.191828
 21
-304.187801
  0
ARC
  8
1
 10
115.531574
 20
-324.082749
 40
4.000000
 50
0.000000
 51
90.000000
  0
ARC
  8
1
 10
102.852082
 20
-324.082749
 40
4.000000
 50
90.000000
 51
180.000000
  0
ARC
  8
1
 10
92.728829
 20
-305.687801
 40
1.500000
 50
90.000000
 51
198.749153
  0
LINE
  8
1
 10
91.850546
 20
-307.006587
 11
98.852082
 21
-320.082749
  0
LINE
  8
1
 10
128.191828
 20
-412.662311
 11
140.191828
 21
-412.662311
  0
LINE
  8
1
 10
128.191828
 20
-425.148409
 11
140.191828
 21
-425.148409
  0
ARC
  8
1
 10
143.754463
 20
-419.518607
 40
17.006011
 50
157.526568
 51
180.000000
  0
ARC
  8
1
 10
138.449498
 20
-419.518607
 40
11.701046
 50
180.000000
 51
206.373283
  0
ARC
  8
1
 10
126.191828
 20
-412.253464
 40
2.000000
 50
337.526568
 51
360.000000
  0
ARC
  8
1
 10
126.174471
 20
-425.604851
 40
2.000000
 50
353.833694
 51
26.373283
  0
LINE
  8
1
 10
90.191828
 20
-412.662311
 11
78.191828
 21
-412.662311
  0
LINE
  8
1
 10
90.191828
 20
-425.148409
 11
78.191828
 21
-425.148409
  0
ARC
  8
1
 10
74.629193
 20
-419.518607
 40
17.006011
 50
0.000000
 51
22.473432
  0
ARC
  8
1
 10
79.934158
 20
-419.518607
 40
11.701046
 50
333.626717
 51
360.000000
  0
ARC
  8
1
 10
92.191828
 20
-412.253464
 40
2.000000
 50
180.000000
 51
202.473432
  0
ARC
  8
1
 10
92.209185
 20
-425.604851
 40
2.000000
 50
153.626717
 51
186.166306
  0
LINE
  8
1
 10
128.191828
 20
-508.311748
 11
128.191828
 21
-555.282606
  0
LINE
  8
1
 10
119.531574
 20
-502.701961
 11
119.531574
 21
-540.521489
  0
LINE
  8
1
 10
119.531574
 20
-571.863252
 11
119.531574
 21
-596.482464
  0
LINE
  8
1
 10
98.852082
 20
-502.701961
 11
98.852082
 21
-540.521489
  0
LINE
  8
1
 10
98.852082
 20
-571.863252
 11
98.852082
 21
-596.482464
  0
LINE
  8
1
 10
128.191828
 20
-568.757116
 11
140.191828
 21
-568.757116
  0
LINE
  8
1
 10
128.191828
 20
-577.897574
 11
140.191828
 21
-577.897574
  0
ARC
  8
1
 10
130.373028
 20
-571.651924
 40
3.624575
 50
138.878917
 51
180.000000
  0
ARC
  8
1
 10
140.982958
 20
-571.651924
 40
14.234506
 50
180.000000
 51
204.343288
  0
LINE
  8
1
 10
90.191828
 20
-568.757116
 11
78.191828
 21
-568.757116
  0
LINE
  8
1
 10
90.191828
 20
-577.897574
 11
78.191828
 21
-577.897574
  0
ARC
  8
1
 10
88.010628
 20
-571.651924
 40
3.624575
 50
0.000000
 51
41.121083
  0
ARC
  8
1
 10
77.400698
 20
-571.651924
 40
14.234506
 50
335.656712
 51
360.000000
  0
LINE
  8
1
 10
78.191828
 20
-620.282606
 11
79.191828
 21
-620.282606
  0
LINE
  8
1
 10
139.191828
 20
-620.282606
 11
140.191828
 21
-620.282606
  0
LINE
  8
1
 10
128.191828
 20
-612.692068
 11
140.191828
 21
-612.692068
  0
ARC
  8
1
 10
127.089194
 20
-612.415924
 40
0.340742
 50
90.000000
 51
180.000000
  0
ARC
  8
1
 10
127.089194
 20
-613.369060
 40
1.293878
 50
31.548964
 51
90.000000
  0
ARC
  8
1
 10
132.906488
 20
-612.415924
 40
6.158035
 50
180.000000
 51
198.749153
  0
LINE
  8
1
 10
90.191828
 20
-612.692068
 11
78.191828
 21
-612.692068
  0
ARC
  8
1
 10
91.294462
 20
-612.415924
 40
0.340742
 50
0.000000
 51
90.000000
  0
ARC
  8
1
 10
91.294462
 20
-613.369060
 40
1.293878
 50
90.000000
 51
148.451036
  0
ARC
  8
1
 10
85.477169
 20
-612.415924
 40
6.158035
 50
341.250847
 51
360.000000
  0
LINE
  8
1
 10
128.191828
 20
-578.343834
 11
128.191828
 21
-612.692068
  0
LINE
  8
1
 10
90.191828
 20
-578.343834
 11
90.191828
 21
-612.692068
  0
ARC
  8
1
 10
92.191828
 20
-578.343834
 40
2.000000
 50
155.656712
 51
180.000000
  0
ARC
  8
1
 10
126.191828
 20
-578.343834
 40
2.000000
 50
0.000000
 51
24.343288
  0
ARC
  8
1
 10
125.191828
 20
-568.282606
 40
3.000000
 50
19.250447
 51
90.000000
  0
ARC
  8
1
 10
93.191828
 20
-568.282606
 40
3.000000
 50
90.000000
 51
160.749553
  0
ARC
  8
1
 10
126.135915
 20
-567.952908
 40
2.000000
 50
318.878917
 51
19.250447
  0
ARC
  8
1
 10
92.247742
 20
-567.952908
 40
2.000000
 50
160.749553
 51
221.121083
  0
ARC
  8
1
 10
124.191828
 20
-555.282606
 40
4.000000
 50
270.000000
 51
360.000000
  0
ARC
  8
1
 10
94.191828
 20
-555.282606
 40
4.000000
 50
180.000000
 51
270.000000
  0
LINE
  8
1
 10
87.191828
 20
-490.282606
 11
131.191828
 21
-490.282606
  0
LINE
  8
1
 10
84.191828
 20
-487.282606
 11
84.191828
 21
-433.282606
  0
LINE
  8
1
 10
134.191828
 20
-487.282606
 11
134.191828
 21
-433.282606
  0
ARC
  8
1
 10
131.191828
 20
-487.282606
 40
3.000000
 50
270.000000
 51
360.000000
  0
ARC
  8
1
 10
87.191828
 20
-487.282606
 40
3.000000
 50
180.000000
 51
270.000000
  0
ARC
  8
1
 10
123.191828
 20
-495.282606
 40
5.000000
 50
6.166306
 51
90.000000
  0
LINE
  8
1
 10
103.852082
 20
-497.701961
 11
114.531574
 21
-497.701961
  0
LINE
  8
1
 10
102.852082
 20
-544.521489
 11
115.531574
 21
-544.521489
  0
ARC
  8
1
 10
103.852082
 20
-502.701961
 40
5.000000
 50
90.000000
 51
180.000000
  0
ARC
  8
1
 10
114.531574
 20
-502.701961
 40
5.000000
 50
0.000000
 51
90.000000
  0
LINE
  8
1
 10
119.531574
 20
-497.701961
 11
125.124684
 21
-492.910270
  0
LINE
  8
1
 10
98.852082
 20
-497.701961
 11
93.258973
 21
-492.910270
  0
LINE
  8
1
 10
125.845054
 20
-555.282606
 11
119.531574
 21
-544.521489
  0
LINE
  8
1
 10
92.538603
 20
-555.282606
 11
98.852082
 21
-544.521489
  0
LINE
  8
1
 10
93.191828
 20
-565.282606
 11
125.191828
 21
-565.282606
  0
LINE
  8
1
 10
94.191828
 20
-559.282606
 11
124.191828
 21
-559.282606
  0
LINE
  8
1
 10
102.852082
 20
-567.863252
 11
115.531574
 21
-567.863252
  0
ARC
  8
1
 10
115.531574
 20
-540.521489
 40
4.000000
 50
270.000000
 51
360.000000
  0
ARC
  8
1
 10
102.852082
 20
-540.521489
 40
4.000000
 50
180.000000
 51
270.000000
  0
ARC
  8
1
 10
102.852082
 20
-571.863252
 40
4.000000
 50
90.000000
 51
180.000000
  0
ARC
  8
1
 10
115.531574
 20
-571.863252
 40
4.000000
 50
0.000000
 51
90.000000
  0
LINE
  8
1
 10
119.531574
 20
-567.863252
 11
125.191828
 21
-566.176568
  0
LINE
  8
1
 10
98.852082
 20
-567.863252
 11
93.191828
 21
-566.176568
  0
LINE
  8
1
 10
90.191828
 20
-508.311748
 11
90.191828
 21
-555.282606
  0
ARC
  8
1
 10
95.191828
 20
-495.282606
 40
5.000000
 50
90.000000
 51
173.833694
  0
LINE
  8
1
 10
82.191828
 20
-670.297325
 11
82.191828
 21
-619.377412
  0
LINE
  8
1
 10
136.191828
 20
-670.297325
 11
136.191828
 21
-619.377412
  0
ARC
  8
1
 10
139.191828
 20
-623.282606
 40
3.000000
 50
90.000000
 51
180.000000
  0
ARC
  8
1
 10
79.191828
 20
-623.282606
 40
3.000000
 50
0.000000
 51
90.000000
  0
ARC
  8
1
 10
139.191828
 20
-619.377412
 40
3.000000
 50
90.000000
 51
180.000000
  0
ARC
  8
1
 10
79.191828
 20
-619.377412
 40
3.000000
 50
0.000000
 51
90.000000
  0
LINE
  8
1
 10
102.852082
 20
-600.482464
 11
115.531574
 21
-600.482464
  0
LINE
  8
1
 10
126.533110
 20
-613.558626
 11
119.531574
 21
-600.482464
  0
LINE
  8
1
 10
139.191828
 20
-616.377412
 11
140.191828
 21
-616.377412
  0
LINE
  8
1
 10
78.191828
 20
-616.377412
 11
79.191828
 21
-616.377412
  0
LINE
  8
1
 10
82.191828
 20
-616.377412
 11
136.191828
 21
-616.377412
  0
ARC
  8
1
 10
115.531574
 20
-596.482464
 40
4.000000
 50
270.000000
 51
360.000000
  0
ARC
  8
1
 10
102.852082
 20
-596.482464
 40
4.000000
 50
180.000000
 51
270.000000
  0
ARC
  8
1
 10
125.654827
 20
-614.877412
 40
1.500000
 50
270.000000
 51
18.749153
  0
ARC
  8
1
 10
92.728829
 20
-614.877412
 40
1.500000
 50
161.250847
 51
270.000000
  0
LINE
  8
1
 10
91.850546
 20
-613.558626
 11
98.852082
 21
-600.482464
  0
LINE
  8
1
 10
128.191828
 20
-507.902902
 11
140.191828
 21
-507.902902
  0
LINE
  8
1
 10
128.191828
 20
-495.416803
 11
140.191828
 21
-495.416803
  0
ARC
  8
1
 10
143.754463
 20
-501.046606
 40
17.006011
 50
180.000000
 51
202.473432
  0
ARC
  8
1
 10
138.449498
 20
-501.046606
 40
11.701046
 50
153.626717
 51
180.000000
  0
ARC
  8
1
 10
126.191828
 20
-508.311748
 40
2.000000
 50
0.000000
 51
22.473432
  0
ARC
  8
1
 10
126.174471
 20
-494.960362
 40
2.000000
 50
333.626717
 51
6.166306
  0
LINE
  8
1
 10
90.191828
 20
-507.902902
 11
78.191828
 21
-507.902902
  0
LINE
  8
1
 10
90.191828
 20
-495.416803
 11
78.191828
 21
-495.416803
  0
ARC
  8
1
 10
74.629193
 20
-501.046606
 40
17.006011
 50
337.526568
 51
360.000000
  0
ARC
  8
1
 10
79.934158
 20
-501.046606
 40
11.701046
 50
0.000000
 51
26.373283
  0
ARC
  8
1
 10
92.191828
 20
-508.311748
 40
2.000000
 50
157.526568
 51
180.000000
  0
ARC
  8
1
 10
92.209185
 20
-494.960362
 40
2.000000
 50
173.833694
 51
206.373283
  0
LINE
  8
1
 10
140.191828
 20
-460.282606
 11
78.191828
 21
-460.282606
  0
LINE
  8
1
 10
68.691828
 20
-720.282606
 11
149.691828
 21
-720.282606
  0
LINE
  8
1
 10
72.191828
 20
-685.267888
 11
72.191828
 21
-697.539966
  0
LINE
  8
1
 10
146.191828
 20
-685.267888
 11
146.191828
 21
-697.539966
  0
LINE
  8
1
 10
82.191828
 20
-672.782606
 11
136.191828
 21
-672.782606
  0
LINE
  8
1
 10
144.434469
 20
-682.782606
 11
73.949188
 21
-682.782606
  0
LINE
  8
1
 10
69.570508
 20
-702.282606
 11
148.813149
 21
-702.282606
  0
LINE
  8
1
 10
72.191828
 20
-698.782606
 11
146.191828
 21
-698.782606
  0
LINE
  8
1
 10
68.691828
 20
-720.282606
 11
68.691828
 21
-703.525247
  0
LINE
  8
1
 10
149.691828
 20
-720.282606
 11
149.691828
 21
-703.525247
  0
LINE
  8
1
 10
147.070508
 20
-699.661286
 11
148.813149
 21
-701.403927
  0
LINE
  8
1
 10
71.313149
 20
-699.661286
 11
69.570508
 21
-701.403927
  0
ARC
  8
1
 10
146.691828
 20
-703.525247
 40
3.000000
 50
0.000000
 51
45.000000
  0
ARC
  8
1
 10
149.191828
 20
-697.539966
 40
3.000000
 50
180.000000
 51
225.000000
  0
ARC
  8
1
 10
69.191828
 20
-697.539966
 40
3.000000
 50
315.000000
 51
360.000000
  0
ARC
  8
1
 10
71.691828
 20
-703.525247
 40
3.000000
 50
135.000000
 51
180.000000
  0
LINE
  8
1
 10
137.949188
 20
-674.539966
 11
144.434469
 21
-681.025247
  0
LINE
  8
1
 10
80.434469
 20
-674.539966
 11
73.949188
 21
-681.025247
  0
ARC
  8
1
 10
76.191828
 20
-670.297325
 40
6.000000
 50
315.000000
 51
360.000000
  0
ARC
  8
1
 10
142.191828
 20
-670.297325
 40
6.000000
 50
180.000000
 51
225.000000
  0
ARC
  8
1
 10
140.191828
 20
-685.267888
 40
6.000000
 50
0.000000
 51
45.000000
  0
ARC
  8
1
 10
78.191828
 20
-685.267888
 40
6.000000
 50
135.000000
 51
180.000000
  0
LINE
  8
1
 10
129.191828
 20
-263.282606
 11
133.191828
 21
-263.282606
  0
ARC
  8
1
  6
DASHED
 10
-503.881165
 20
554.317394
 40
3.000000
 50
0.000000
 51
90.000000
  0
ARC
  8
1
  6
DASHED
 10
-503.881165
 20
550.317394
 40
3.000000
 50
270.000000
 51
0.000000
  0
ARC
  8
1
  6
DASHED
 10
-632.735179
 20
550.317394
 40
3.000000
 50
180.000000
 51
270.000000
  0
ARC
  8
1
  6
DASHED
 10
-632.735179
 20
554.317394
 40
3.000000
 50
90.000000
 51
180.000000
  0
ARC
  8
1
 10
133.191828
 20
-266.282606
 40
3.000000
 50
0.000000
 51
90.000000
  0
ARC
  8
1
 10
129.191828
 20
-266.282606
 40
3.000000
 50
90.000000
 51
180.000000
  0
LINE
  8
1
 10
126.191828
 20
-251.282606
 11
136.191828
 21
-251.282606
  0
ARC
  8
1
 10
123.191828
 20
-254.282606
 40
3.000000
 50
360.000000
 51
90.000000
  0
LINE
  8
1
 10
126.191828
 20
-254.282606
 11
126.191828
 21
-317.212185
  0
LINE
  8
1
 10
136.191828
 20
-315.467798
 11
130.474353
 21
-315.467798
  0
ARC
  8
1
 10
139.191828
 20
-312.467798
 40
3.000000
 50
180.000000
 51
270.000000
  0
ARC
  8
1
 10
139.191828
 20
-304.873145
 40
3.000000
 50
180.000000
 51
270.000000
  0
LINE
  8
1
 10
126.191828
 20
-318.852425
 11
127.030644
 21
-317.432886
  0
LINE
  8
1
 10
128.191828
 20
-288.458987
 11
134.191828
 21
-288.458987
  0
ARC
  8
1
 10
130.474353
 20
-319.467798
 40
4.000000
 50
90.000000
 51
149.420862
  0
ARC
  8
1
 10
120.191828
 20
-317.212185
 40
6.000000
 50
329.420862
 51
360.000000
  0
ARC
  8
1
 10
123.191828
 20
-301.187801
 40
3.000000
 50
270.000000
 51
360.000000
  0
LINE
  8
1
 10
125.010709
 20
-307.006587
 11
119.531574
 21
-320.082749
  0
ARC
  8
1
 10
-496.932863
 20
-309.817425
 40
10.000000
 50
165.000000
 51
196.749915
  0
ARC
  8
1
 10
-639.683481
 20
-309.817425
 40
10.000000
 50
343.250085
 51
15.000000
  0
CIRCLE
  8
1
 10
-568.308172
 20
-460.282606
 40
155.000000
  0
CIRCLE
  8
1
 10
-568.308172
 20
-460.282606
 40
129.753204
  0
LINE
  8
1
 10
-542.922750
 20
-339.164305
 11
-593.693593
 21
-339.164305
  0
LINE
  8
1
 10
-542.922750
 20
-581.400908
 11
-593.693593
 21
-581.400908
  0
ARC
  8
1
 10
-568.308172
 20
-372.161670
 40
41.632268
 50
52.428318
 51
127.571682
  0
ARC
  8
1
 10
-568.308172
 20
-548.403543
 40
41.632268
 50
232.428318
 51
307.571682
  0
ARC
  8
1
 10
-568.308172
 20
-460.282606
 40
123.750000
 50
101.837385
 51
258.162615
  0
ARC
  8
1
 10
-568.308172
 20
-460.282606
 40
123.750000
 50
281.837385
 51
78.162615
  0
LINE
  8
1
 10
-413.308172
 20
496.317394
 11
-413.308172
 21
499.317394
  0
LINE
  8
1
 10
-413.308172
 20
561.317394
 11
-413.308172
 21
564.317394
  0
LINE
  8
1
  6
DASHED
 10
-723.308172
 20
564.317394
 11
-618.264652
 21
564.317394
  0
LINE
  8
1
  6
DASHED
 10
-723.308172
 20
561.317394
 11
-723.308172
 21
564.317394
  0
LINE
  8
1
  6
DASHED
 10
-723.308172
 20
496.317394
 11
-618.264652
 21
496.317394
  0
LINE
  8
1
  6
DASHED
 10
-723.308172
 20
496.317394
 11
-723.308172
 21
499.317394
  0
LINE
  8
1
 10
143.191828
 20
-305.282606
 11
143.191828
 21
-615.282606
  0
LINE
  8
1
 10
75.191828
 20
-305.282606
 11
75.191828
 21
-615.282606
  0
LINE
  8
1
 10
75.191828
 20
-305.282606
 11
78.191828
 21
-305.282606
  0
LINE
  8
1
 10
140.191828
 20
-305.282606
 11
143.191828
 21
-305.282606
  0
LINE
  8
1
 10
75.191828
 20
-615.282606
 11
78.191828
 21
-615.282606
  0
LINE
  8
1
 10
140.191828
 20
-615.282606
 11
143.191828
 21
-615.282606
  0
LINE
  8
1
  6
CENTER
 62
2
 10
109.191828
 20
-742.544607
 11
109.191828
 21
126.731163
  0
LINE
  8
1
  6
CENTER
 62
2
 10
-568.308172
 20
-742.544607
 11
-568.308172
 21
126.731163
  0
LINE
  8
1
  6
CENTER
 62
2
 10
-795.517248
 20
-460.282606
 11
-346.360754
 21
-460.282606
  0
LINE
  8
1
  6
CENTER
 62
2
 10
40.863436
 20
-460.282606
 11
167.549677
 21
-460.282606
  0
LINE
  8
1
  6
CENTER
 62
2
 10
-541.084561
 20
557.541005
 11
-523.406891
 21
575.218674
  0
ARC
  8
1
  6
CENTER
 62
2
 10
-568.308172
 20
530.317394
 40
51.000000
 50
30.921527
 51
59.078473
  0
LINE
  8
1
  6
CENTER
 62
2
 10
-595.531783
 20
557.541005
 11
-613.209452
 21
575.218674
  0
ARC
  8
1
  6
CENTER
 62
2
 10
-568.308172
 20
530.317394
 40
51.000000
 50
120.921527
 51
149.078473
  0
ARC
  8
1
  6
CENTER
 62
2
 10
-568.308172
 20
530.317394
 40
51.000000
 50
300.921527
 51
329.078473
  0
LINE
  8
1
  6
CENTER
 62
2
 10
-541.084561
 20
503.093783
 11
-523.406891
 21
485.416113
  0
LINE
  8
1
  6
DASHED
 10
-595.531783
 20
503.093783
 11
-613.209452
 21
485.416113
  0
ARC
  8
1
  6
CENTER
 62
2
 10
-568.308172
 20
530.317394
 40
51.000000
 50
210.921527
 51
239.078473
  0
LINE
  8
1
  6
CENTER
 62
2
 10
-390.308172
 20
510.993633
 11
-390.308172
 21
549.111186
  0
LINE
  8
1
  6
CENTER
 62
2
 10
-620.071981
 20
-267.097441
 11
-608.425124
 21
-310.564103
  0
ARC
  8
1
  6
CENTER
 62
2
 10
-568.308172
 20
-460.282606
 40
177.500000
 50
97.732283
 51
112.267717
  0
LINE
  8
1
  6
CENTER
 62
2
 10
-516.544363
 20
-267.097441
 11
-528.191220
 21
-310.564103
  0
ARC
  8
1
  6
CENTER
 62
2
 10
-568.308172
 20
-460.282606
 40
177.500000
 50
67.732283
 51
82.267717
  0
LINE
  8
1
  6
CENTER
 62
2
 10
-746.308172
 20
510.993633
 11
-746.308172
 21
549.111186
  0
LINE
  8
1
  6
CENTER
 62
2
 10
-532.245726
 20
-183.779730
 11
-532.245726
 21
-226.059355
  0
LINE
  8
1
  6
CENTER
 62
2
 10
-604.370618
 20
-183.779730
 11
-604.370618
 21
-226.059355
  0
LINE
  8
1
  6
CENTER
 62
2
 10
145.254274
 20
-183.779730
 11
145.254274
 21
-226.059355
  0
LINE
  8
1
  6
CENTER
 62
2
 10
73.129382
 20
-183.779730
 11
73.129382
 21
-226.059355
  0
LINE
  8
1
  6
CENTER
 62
2
 10
-390.308172
 20
-498.238417
 11
-390.308172
 21
-422.333693
  0
LINE
  8
1
  6
CENTER
 62
2
 10
-746.308172
 20
-498.238417
 11
-746.308172
 21
-422.333693
  0
CIRCLE
  8
1
 10
-568.308172
 20
-460.282606
 40
119.250000
  0
LINE
  8
1
 10
-542.501196
 20
-343.858543
 11
-549.492509
 21
-460.282606
  0
LINE
  8
1
 10
-542.501196
 20
-576.706670
 11
-549.492509
 21
-460.282606
  0
LINE
  8
1
 10
-594.115148
 20
-343.858543
 11
-587.123835
 21
-460.282606
  0
LINE
  8
1
 10
-594.115148
 20
-576.706670
 11
-587.123835
 21
-460.282606
  0
LINE
  8
1
 10
-542.757079
 20
-339.199147
 11
-542.501196
 21
-343.858543
  0
LINE
  8
1
 10
-593.859265
 20
-339.199147
 11
-594.115148
 21
-343.858543
  0
LINE
  8
1
 10
-542.757079
 20
-581.366066
 11
-542.501196
 21
-576.706670
  0
LINE
  8
1
 10
-593.859265
 20
-581.366066
 11
-594.115148
 21
-576.706670
  0
ARC
  8
1
 10
-568.308172
 20
-460.282606
 40
121.613589
 50
102.186754
 51
257.813246
  0
ARC
  8
1
 10
-568.308172
 20
-460.282606
 40
121.613589
 50
282.186754
 51
77.813246
  0
LINE
  8
1
 10
-413.308172
 20
564.317394
 11
-424.308172
 21
564.317394
  0
LINE
  8
1
  6
DASHED
 10
-424.308172
 20
564.317394
 11
-518.351691
 21
564.317394
  0
LINE
  8
1
 10
-408.308172
 20
561.317394
 11
-424.308172
 21
561.317394
  0
LINE
  8
1
  6
DASHED
 10
-424.308172
 20
561.317394
 11
-517.643853
 21
561.317394
  0
LINE
  8
1
  6
DASHED
 10
-440.635711
 20
549.317394
 11
-424.308172
 21
549.317394
  0
LINE
  8
1
 10
-424.308172
 20
549.317394
 11
-415.898710
 21
549.317394
  0
ARC
  8
1
 10
-420.445562
 20
537.158856
 40
6.000000
 50
119.511587
 51
130.073387
  0
ARC
  8
1
  6
DASHED
 10
-420.445562
 20
537.158856
 40
6.000000
 50
130.073387
 51
180.000000
  0
ARC
  8
1
  6
DASHED
 10
-420.445562
 20
523.475931
 40
6.000000
 50
180.000000
 51
229.926613
  0
ARC
  8
1
 10
-420.445562
 20
523.475931
 40
6.000000
 50
229.926613
 51
240.488413
  0
LINE
  8
1
  6
DASHED
 10
-440.635711
 20
511.317394
 11
-424.308172
 21
511.317394
  0
LINE
  8
1
 10
-424.308172
 20
511.317394
 11
-415.898710
 21
511.317394
  0
LINE
  8
1
 10
-408.308172
 20
499.317394
 11
-424.308172
 21
499.317394
  0
LINE
  8
1
  6
DASHED
 10
-424.308172
 20
499.317394
 11
-517.643853
 21
499.317394
  0
LINE
  8
1
 10
-413.308172
 20
496.317394
 11
-424.308172
 21
496.317394
  0
LINE
  8
1
  6
DASHED
 10
-424.308172
 20
496.317394
 11
-518.351691
 21
496.317394
  0
LINE
  8
1
 10
58.191828
 20
-200.282606
 11
160.191828
 21
-200.282606
  0
LINE
  8
2
 10
-660.308172
 20
600.317394
 11
-660.308172
 21
615.317394
  0
LINE
  8
2
 10
-441.308172
 20
572.817394
 11
-441.308172
 21
537.817394
  0
LINE
  8
2
 10
-441.808172
 20
537.317394
 11
-442.808172
 21
537.317394
  0
LINE
  8
2
 10
-442.808172
 20
573.317394
 11
-441.808172
 21
573.317394
  0
LINE
  8
2
 10
-441.308172
 20
487.817394
 11
-441.308172
 21
522.817394
  0
LINE
  8
2
 10
-441.808172
 20
523.317394
 11
-442.808172
 21
523.317394
  0
LINE
  8
2
 10
-442.808172
 20
487.317394
 11
-441.808172
 21
487.317394
  0
LINE
  8
2
 10
-455.808172
 20
320.817394
 11
-483.808172
 21
320.817394
  0
LINE
  8
2
 10
-483.808172
 20
320.817394
 11
-485.808172
 21
318.817394
  0
LINE
  8
2
 10
-485.808172
 20
309.817394
 11
-485.808172
 21
318.817394
  0
ARC
  8
2
 10
-487.808172
 20
309.817394
 40
2.000000
 50
270.000000
 51
360.000000
  0
LINE
  8
2
 10
-489.808172
 20
305.817394
 11
-489.808172
 21
305.357118
  0
LINE
  8
2
 10
-504.363261
 20
284.817394
 11
-435.253083
 21
284.817394
  0
LINE
  8
2
 10
-461.261242
 20
306.817394
 11
-455.744676
 21
306.817394
  0
LINE
  8
2
 10
-439.408172
 20
306.817394
 11
-434.954869
 21
306.817394
  0
LINE
  8
2
 10
-418.874907
 20
306.817394
 11
-414.908172
 21
306.817394
  0
LINE
  8
2
 10
-387.508172
 20
306.817394
 11
-386.408172
 21
306.817394
  0
LINE
  8
2
 10
-380.908172
 20
306.817394
 11
-377.800212
 21
306.817394
  0
ARC
  8
2
 10
-482.008172
 20
784.317394
 40
500.000000
 50
260.664881
 51
267.437441
  0
ARC
  8
2
 10
-487.808172
 20
305.817394
 40
2.000000
 50
90.000000
 51
180.000000
  0
LINE
  8
2
 10
-455.808172
 20
320.817394
 11
-453.808172
 21
318.817394
  0
LINE
  8
2
 10
-453.808172
 20
309.817394
 11
-453.808172
 21
318.817394
  0
ARC
  8
2
 10
-451.808172
 20
309.817394
 40
2.000000
 50
180.000000
 51
270.000000
  0
LINE
  8
2
 10
-449.808172
 20
305.817394
 11
-449.808172
 21
305.357118
  0
ARC
  8
2
 10
-457.608172
 20
784.317394
 40
500.000000
 50
272.562559
 51
279.335119
  0
ARC
  8
2
 10
-451.808172
 20
305.817394
 40
2.000000
 50
0.000000
 51
90.000000
  0
LINE
  8
2
 10
-453.808172
 20
318.817394
 11
-485.808172
 21
318.817394
  0
ARC
  8
2
 10
-469.808172
 20
336.617394
 40
37.800000
 50
256.461350
 51
283.347693
  0
ARC
  8
2
 10
-469.808172
 20
327.417394
 40
22.100000
 50
249.678608
 51
289.908260
  0
ARC
  8
2
 10
-470.508172
 20
299.717394
 40
11.200000
 50
12.984112
 51
30.742694
  0
ARC
  8
2
 10
-470.108172
 20
299.917394
 40
10.300000
 50
152.801464
 51
166.803615
  0
LINE
  8
2
 10
-399.609687
 20
306.817394
 11
-402.108172
 21
306.817394
  0
ARC
  8
2
 10
-444.908172
 20
337.017394
 40
38.100000
 50
257.489802
 51
282.010034
  0
ARC
  8
2
 10
-447.508172
 20
324.217394
 40
19.000000
 50
248.013597
 51
292.510479
  0
ARC
  8
2
 10
-444.208172
 20
298.117394
 40
9.700000
 50
27.791668
 51
57.213701
  0
ARC
  8
2
 10
-462.608172
 20
303.317394
 40
8.000000
 50
351.124411
 51
14.477512
  0
ARC
  8
2
 10
-421.708172
 20
327.317394
 40
28.500000
 50
254.666975
 51
284.161069
  0
ARC
  8
2
 10
-427.008172
 20
323.117394
 40
17.800000
 50
248.621499
 51
290.899028
  0
ARC
  8
2
 10
-421.108172
 20
298.017394
 40
8.900000
 50
31.500458
 51
74.573378
  0
ARC
  8
2
 10
-436.708172
 20
301.417394
 40
6.000000
 50
2.459196
 51
53.130102
  0
ARC
  8
2
 10
-401.708172
 20
318.117394
 40
19.300000
 50
251.561950
 51
283.988737
  0
ARC
  8
2
 10
-408.908172
 20
316.517394
 40
11.200000
 50
255.994128
 51
295.608305
  0
ARC
  8
2
 10
-402.108172
 20
301.817394
 40
5.000000
 50
90.000000
 51
113.068733
  0
ARC
  8
2
 10
-406.008172
 20
293.417394
 40
13.600000
 50
43.012702
 51
73.688203
  0
ARC
  8
2
 10
-415.408172
 20
300.617394
 40
6.300000
 50
7.532780
 51
67.380135
  0
ARC
  8
2
 10
-385.808172
 20
311.017394
 40
12.200000
 50
244.256542
 51
286.000716
  0
ARC
  8
2
 10
-393.708172
 20
313.817394
 40
8.500000
 50
251.083012
 51
297.322222
  0
ARC
  8
2
 10
-387.508172
 20
301.817394
 40
5.000000
 50
90.000000
 51
117.322222
  0
ARC
  8
2
 10
-390.908172
 20
294.617394
 40
12.300000
 50
39.814743
 51
74.699906
  0
ARC
  8
2
 10
-402.908172
 20
295.417394
 40
12.200000
 50
26.844811
 51
62.733956
  0
LINE
  8
2
 10
-378.208172
 20
298.817394
 11
-380.308172
 21
298.817394
  0
LINE
  8
2
 10
-391.208172
 20
298.817394
 11
-394.308172
 21
298.817394
  0
LINE
  8
2
 10
-409.508172
 20
298.817394
 11
-412.108172
 21
298.817394
  0
LINE
  8
2
 10
-430.508172
 20
298.817394
 11
-434.408172
 21
298.817394
  0
LINE
  8
2
 10
-454.308172
 20
298.817394
 11
-459.108172
 21
298.817394
  0
LINE
  8
2
 10
-480.508172
 20
298.817394
 11
-484.608172
 21
298.817394
  0
LINE
  8
2
 10
-504.408172
 20
298.817394
 11
-508.508172
 21
298.817394
  0
LINE
  8
2
 10
-527.308172
 20
298.817394
 11
-530.208172
 21
298.817394
  0
LINE
  8
2
 10
-544.608172
 20
298.817394
 11
-547.108172
 21
298.817394
  0
LINE
  8
2
 10
-559.008172
 20
298.817394
 11
-560.908172
 21
298.817394
  0
LINE
  8
2
 10
-487.808172
 20
307.817394
 11
-451.808172
 21
307.817394
  0
ARC
  8
2
 10
-375.508172
 20
303.017394
 40
4.200000
 50
221.945518
 51
307.267545
  0
ARC
  8
2
 10
-383.008172
 20
295.017394
 40
11.900000
 50
30.020559
 51
77.925147
  0
ARC
  8
2
 10
-380.908172
 20
303.817394
 40
3.000000
 50
90.000000
 51
113.288889
  0
LINE
  8
2
 10
-553.508172
 20
290.817394
 11
-384.608172
 21
290.817394
  0
LINE
  8
2
 10
-477.808172
 20
325.317394
 11
-477.808172
 21
320.817394
  0
LINE
  8
2
 10
-461.808172
 20
320.817394
 11
-461.808172
 21
325.317394
  0
LINE
  8
2
 10
-665.308172
 20
-116.282606
 11
-665.308172
 21
-102.282606
  0
LINE
  8
2
 10
-534.800479
 20
-103.282606
 11
-665.308172
 21
-103.282606
  0
LINE
  8
2
 10
-522.486441
 20
57.717394
 11
-707.308172
 21
57.717394
  0
LINE
  8
2
 10
-758.359183
 20
-101.282606
 11
-537.068859
 21
-101.282606
  0
CIRCLE
  8
2
 10
-469.808172
 20
-27.282606
 40
100.000000
  0
CIRCLE
  8
2
 10
-469.808172
 20
-27.282606
 40
92.000000
  0
LINE
  8
2
 10
39.191828
 20
57.717394
 11
179.191828
 21
57.717394
  0
LINE
  8
2
 10
9.191828
 20
-101.282606
 11
9.191828
 21
46.733685
  0
LINE
  8
2
 10
199.191828
 20
7.717394
 11
26.191828
 21
7.717394
  0
LINE
  8
2
 10
179.191828
 20
22.717394
 11
199.191828
 21
22.717394
  0
LINE
  8
2
 10
11.191828
 20
-103.282606
 11
207.191828
 21
-103.282606
  0
LINE
  8
2
 10
9.191828
 20
-27.282606
 11
222.191828
 21
-27.282606
  0
LINE
  8
2
 10
11.191828
 20
-103.282606
 11
11.191828
 21
-102.282606
  0
LINE
  8
2
 10
-100.308172
 20
-13.282606
 11
-100.308172
 21
-41.282606
  0
LINE
  8
2
 10
-100.308172
 20
-41.282606
 11
-102.308172
 21
-43.282606
  0
LINE
  8
2
 10
-111.308172
 20
-43.282606
 11
-102.308172
 21
-43.282606
  0
ARC
  8
2
 10
-111.308172
 20
-45.282606
 40
2.000000
 50
90.000000
 51
180.000000
  0
LINE
  8
2
 10
-115.308172
 20
-47.282606
 11
-115.768447
 21
-47.282606
  0
ARC
  8
2
 10
-115.308172
 20
-45.282606
 40
2.000000
 50
270.000000
 51
0.000000
  0
LINE
  8
2
 10
-100.308172
 20
-13.282606
 11
-102.308172
 21
-11.282606
  0
LINE
  8
2
 10
-111.308172
 20
-11.282606
 11
-102.308172
 21
-11.282606
  0
ARC
  8
2
 10
-111.308172
 20
-9.282606
 40
2.000000
 50
180.000000
 51
270.000000
  0
LINE
  8
2
 10
-115.308172
 20
-7.282606
 11
-115.768447
 21
-7.282606
  0
ARC
  8
2
 10
-115.308172
 20
-9.282606
 40
2.000000
 50
0.000000
 51
90.000000
  0
LINE
  8
2
 10
-102.308172
 20
-11.282606
 11
-102.308172
 21
-43.282606
  0
LINE
  8
2
 10
-113.308172
 20
-44.282606
 11
-113.308172
 21
-9.982606
  0
LINE
  8
2
 10
-95.808172
 20
-19.282606
 11
-100.308172
 21
-19.282606
  0
LINE
  8
2
 10
-100.308172
 20
-35.282606
 11
-95.808172
 21
-35.282606
  0
CIRCLE
  8
2
 10
134.191828
 20
37.717394
 40
13.000000
  0
LINE
  8
2
 10
126.686275
 20
50.717394
 11
119.180721
 21
37.717394
  0
LINE
  8
2
 10
141.697382
 20
50.717394
 11
126.686275
 21
50.717394
  0
LINE
  8
2
 10
149.202935
 20
37.717394
 11
141.697382
 21
50.717394
  0
LINE
  8
2
 10
141.697382
 20
24.717394
 11
149.202935
 21
37.717394
  0
LINE
  8
2
 10
126.686275
 20
24.717394
 11
141.697382
 21
24.717394
  0
LINE
  8
2
 10
119.180721
 20
37.717394
 11
126.686275
 21
24.717394
  0
CIRCLE
  8
2
 10
84.191828
 20
37.717394
 40
13.000000
  0
LINE
  8
2
 10
76.686275
 20
50.717394
 11
69.180721
 21
37.717394
  0
LINE
  8
2
 10
91.697382
 20
50.717394
 11
76.686275
 21
50.717394
  0
LINE
  8
2
 10
99.202935
 20
37.717394
 11
91.697382
 21
50.717394
  0
LINE
  8
2
 10
91.697382
 20
24.717394
 11
99.202935
 21
37.717394
  0
LINE
  8
2
 10
76.686275
 20
24.717394
 11
91.697382
 21
24.717394
  0
LINE
  8
2
 10
69.180721
 20
37.717394
 11
76.686275
 21
24.717394
  0
LINE
  8
2
 10
-433.308172
 20
568.317394
 11
-433.308172
 21
542.317394
  0
LINE
  8
2
 10
-438.308172
 20
570.328501
 11
-438.308172
 21
540.306287
  0
LINE
  8
2
 10
-434.469285
 20
540.306287
 11
-438.308172
 21
540.306287
  0
LINE
  8
2
 10
-434.469285
 20
547.811840
 11
-438.308172
 21
547.811840
  0
LINE
  8
2
 10
-434.469285
 20
562.822947
 11
-438.308172
 21
562.822947
  0
LINE
  8
2
 10
-434.469285
 20
570.328501
 11
-438.308172
 21
570.328501
  0
LINE
  8
2
 10
-433.308172
 20
542.317394
 11
-434.469285
 21
540.306287
  0
LINE
  8
2
 10
-433.308172
 20
568.317394
 11
-434.469285
 21
570.328501
  0
ARC
  8
2
 10
-458.147059
 20
555.317394
 40
24.838887
 50
342.412046
 51
17.587954
  0
ARC
  8
2
 10
-439.953308
 20
544.059063
 40
6.645136
 50
325.615736
 51
34.384264
  0
ARC
  8
2
 10
-439.953308
 20
566.575724
 40
6.645136
 50
325.615736
 51
34.384264
  0
LINE
  8
2
 10
-438.308172
 20
564.317394
 11
-441.308172
 21
564.317394
  0
LINE
  8
2
 10
-441.308172
 20
546.317394
 11
-438.308172
 21
546.317394
  0
LINE
  8
2
 10
-433.308172
 20
518.317394
 11
-433.308172
 21
492.317394
  0
LINE
  8
2
 10
-438.308172
 20
520.328501
 11
-438.308172
 21
490.306287
  0
LINE
  8
2
 10
-434.469285
 20
490.306287
 11
-438.308172
 21
490.306287
  0
LINE
  8
2
 10
-434.469285
 20
497.811840
 11
-438.308172
 21
497.811840
  0
LINE
  8
2
 10
-434.469285
 20
512.822947
 11
-438.308172
 21
512.822947
  0
LINE
  8
2
 10
-434.469285
 20
520.328501
 11
-438.308172
 21
520.328501
  0
LINE
  8
2
 10
-433.308172
 20
492.317394
 11
-434.469285
 21
490.306287
  0
LINE
  8
2
 10
-433.308172
 20
518.317394
 11
-434.469285
 21
520.328501
  0
ARC
  8
2
 10
-458.147059
 20
505.317394
 40
24.838887
 50
342.412046
 51
17.587954
  0
ARC
  8
2
 10
-439.953308
 20
494.059063
 40
6.645136
 50
325.615736
 51
34.384264
  0
ARC
  8
2
 10
-439.953308
 20
516.575724
 40
6.645136
 50
325.615736
 51
34.384264
  0
LINE
  8
2
 10
-438.308172
 20
514.317394
 11
-441.308172
 21
514.317394
  0
LINE
  8
2
 10
-441.308172
 20
496.317394
 11
-438.308172
 21
496.317394
  0
ARC
  8
2
 10
-377.800212
 20
298.825353
 40
7.992041
 50
279.335119
 51
90.000000
  0
ARC
  8
2
 10
-373.570451
 20
300.470780
 40
1.000000
 50
307.267545
 51
30.020559
  0
ARC
  8
2
 10
-383.438523
 20
309.695941
 40
3.400000
 50
266.638278
 51
293.288889
  0
ARC
  8
2
 10
-381.146386
 20
303.720482
 40
3.000000
 50
77.925147
 51
110.986403
  0
ARC
  8
2
 10
-377.888270
 20
300.878438
 40
1.000000
 50
191.678445
 51
221.945518
  0
ARC
  8
2
 10
-386.408172
 20
299.117394
 40
7.700000
 50
11.678445
 51
90.000000
  0
ARC
  8
2
 10
-382.996548
 20
301.212559
 40
2.000000
 50
286.000716
 51
39.814743
  0
ARC
  8
2
 10
-390.238464
 20
301.829766
 40
2.000000
 50
206.844811
 51
244.256542
  0
ARC
  8
2
 10
-388.454138
 20
303.587774
 40
3.000000
 50
74.699906
 51
117.185481
  0
ARC
  8
2
 10
-399.609687
 20
301.817394
 40
5.000000
 50
62.733956
 51
90.000000
  0
ARC
  8
2
 10
-407.179801
 20
301.705469
 40
2.000000
 50
187.532780
 51
251.561950
  0
ARC
  8
2
 10
-397.526223
 20
301.330455
 40
2.000000
 50
283.988737
 51
43.012702
  0
ARC
  8
2
 10
-403.031010
 20
303.590717
 40
3.000000
 50
73.688203
 51
114.449096
  0
ARC
  8
2
 10
-414.908172
 20
301.817394
 40
5.000000
 50
67.380135
 51
90.000000
  0
ARC
  8
2
 10
-415.224983
 20
301.622681
 40
2.000000
 50
284.161069
 51
31.500458
  0
ARC
  8
2
 10
-428.715539
 20
301.760657
 40
2.000000
 50
182.459196
 51
254.666975
  0
ARC
  8
2
 10
-418.874907
 20
301.817394
 40
5.000000
 50
90.000000
 51
110.899028
  0
ARC
  8
2
 10
-419.538748
 20
303.704828
 40
3.000000
 50
74.573378
 51
111.045359
  0
ARC
  8
2
 10
-434.954869
 20
302.817394
 40
4.000000
 50
68.621499
 51
90.000000
  0
ARC
  8
2
 10
-434.908172
 20
303.817394
 40
3.000000
 50
53.130102
 51
90.000000
  0
ARC
  8
2
 10
-452.727915
 20
301.774499
 40
2.000000
 50
171.124411
 51
257.489802
  0
ARC
  8
2
 10
-437.396376
 20
301.707580
 40
2.000000
 50
282.010034
 51
27.791668
  0
ARC
  8
2
 10
-439.468271
 20
304.817394
 40
2.000000
 50
90.000000
 51
112.510479
  0
ARC
  8
2
 10
-440.038566
 20
304.590754
 40
2.000000
 50
57.213701
 51
110.836076
  0
ARC
  8
2
 10
-456.798697
 20
304.817394
 40
2.000000
 50
14.477512
 51
90.000000
  0
ARC
  8
2
 10
-455.744676
 20
303.817394
 40
3.000000
 50
68.013597
 51
90.000000
  0
ARC
  8
2
 10
-461.543394
 20
301.784457
 40
2.000000
 50
283.347693
 51
12.984112
  0
ARC
  8
2
 10
-478.188996
 20
301.812196
 40
2.000000
 50
166.803615
 51
256.461350
  0
ARC
  8
2
 10
-462.601033
 20
304.420282
 40
2.000000
 50
30.742694
 51
107.400637
  0
ARC
  8
2
 10
-461.261242
 20
303.817394
 40
3.000000
 50
90.000000
 51
109.908260
  0
ARC
  8
2
 10
-478.177760
 20
304.817394
 40
2.000000
 50
69.678608
 51
90.000000
  0
ARC
  8
2
 10
-476.600997
 20
303.254043
 40
3.000000
 50
74.298213
 51
152.801464
  0
LINE
  8
2
 10
-478.177760
 20
306.817394
 11
-483.871668
 21
306.817394
  0
LINE
  8
2
 10
-552.108172
 20
306.817394
 11
-553.208172
 21
306.817394
  0
LINE
  8
2
 10
-558.708172
 20
306.817394
 11
-561.816131
 21
306.817394
  0
LINE
  8
2
 10
-540.108172
 20
306.817394
 11
-537.508172
 21
306.817394
  0
LINE
  8
2
 10
-524.708172
 20
306.817394
 11
-520.708172
 21
306.817394
  0
LINE
  8
2
 10
-504.608172
 20
306.817394
 11
-500.148072
 21
306.817394
  0
ARC
  8
2
 10
-494.708172
 20
337.017394
 40
38.100000
 50
257.989966
 51
282.510198
  0
ARC
  8
2
 10
-492.108172
 20
324.217394
 40
19.000000
 50
247.489521
 51
291.986403
  0
ARC
  8
2
 10
-495.408172
 20
298.117394
 40
9.700000
 50
122.786299
 51
152.208332
  0
ARC
  8
2
 10
-477.008172
 20
303.317394
 40
8.000000
 50
165.522488
 51
188.875589
  0
ARC
  8
2
 10
-517.908172
 20
327.317394
 40
28.500000
 50
255.838931
 51
285.333025
  0
ARC
  8
2
 10
-512.608172
 20
323.117394
 40
17.800000
 50
249.100972
 51
291.378501
  0
ARC
  8
2
 10
-518.508172
 20
298.017394
 40
8.900000
 50
105.426622
 51
148.499542
  0
ARC
  8
2
 10
-502.908172
 20
301.417394
 40
6.000000
 50
126.869898
 51
177.540804
  0
ARC
  8
2
 10
-537.908172
 20
318.117394
 40
19.300000
 50
256.011263
 51
288.438050
  0
ARC
  8
2
 10
-530.708172
 20
316.517394
 40
11.200000
 50
244.391695
 51
284.005872
  0
ARC
  8
2
 10
-537.508172
 20
301.817394
 40
5.000000
 50
66.931267
 51
90.000000
  0
ARC
  8
2
 10
-533.608172
 20
293.417394
 40
13.600000
 50
106.311797
 51
136.987298
  0
ARC
  8
2
 10
-524.208172
 20
300.617394
 40
6.300000
 50
112.619865
 51
172.467220
  0
ARC
  8
2
 10
-553.808172
 20
311.017394
 40
12.200000
 50
253.999284
 51
295.743458
  0
ARC
  8
2
 10
-545.908172
 20
313.817394
 40
8.500000
 50
242.677778
 51
288.916988
  0
ARC
  8
2
 10
-552.108172
 20
301.817394
 40
5.000000
 50
62.677778
 51
90.000000
  0
ARC
  8
2
 10
-548.708172
 20
294.617394
 40
12.300000
 50
105.300094
 51
140.185257
  0
ARC
  8
2
 10
-536.708172
 20
295.417394
 40
12.200000
 50
117.266044
 51
153.155189
  0
ARC
  8
2
 10
-564.108172
 20
303.017394
 40
4.200000
 50
232.732455
 51
318.054482
  0
ARC
  8
2
 10
-556.608172
 20
295.017394
 40
11.900000
 50
102.074853
 51
149.979441
  0
ARC
  8
2
 10
-558.708172
 20
303.817394
 40
3.000000
 50
66.711111
 51
90.000000
  0
ARC
  8
2
 10
-561.816131
 20
298.825353
 40
7.992041
 50
90.000000
 51
260.664881
  0
ARC
  8
2
 10
-566.045892
 20
300.470780
 40
1.000000
 50
149.979441
 51
232.732455
  0
ARC
  8
2
 10
-556.177820
 20
309.695941
 40
3.400000
 50
246.711111
 51
273.361722
  0
ARC
  8
2
 10
-558.469957
 20
303.720482
 40
3.000000
 50
69.013597
 51
102.074853
  0
ARC
  8
2
 10
-553.208172
 20
299.117394
 40
7.700000
 50
90.000000
 51
168.321555
  0
ARC
  8
2
 10
-556.619795
 20
301.212559
 40
2.000000
 50
140.185257
 51
253.999284
  0
ARC
  8
2
 10
-549.377879
 20
301.829766
 40
2.000000
 50
295.743458
 51
333.155189
  0
ARC
  8
2
 10
-551.162206
 20
303.587774
 40
3.000000
 50
62.814519
 51
105.300094
  0
ARC
  8
2
 10
-540.006656
 20
301.817394
 40
5.000000
 50
90.000000
 51
117.266044
  0
ARC
  8
2
 10
-532.436543
 20
301.705469
 40
2.000000
 50
288.438050
 51
352.467220
  0
ARC
  8
2
 10
-542.090121
 20
301.330455
 40
2.000000
 50
136.987298
 51
256.011263
  0
ARC
  8
2
 10
-536.585334
 20
303.590717
 40
3.000000
 50
65.550904
 51
106.311797
  0
ARC
  8
2
 10
-524.708172
 20
301.817394
 40
5.000000
 50
90.000000
 51
112.619865
  0
ARC
  8
2
 10
-524.391360
 20
301.622681
 40
2.000000
 50
148.499542
 51
255.838931
  0
ARC
  8
2
 10
-510.900804
 20
301.760657
 40
2.000000
 50
285.333025
 51
357.540804
  0
ARC
  8
2
 10
-520.741437
 20
301.817394
 40
5.000000
 50
69.100972
 51
90.000000
  0
ARC
  8
2
 10
-520.077596
 20
303.704828
 40
3.000000
 50
68.954641
 51
105.426622
  0
ARC
  8
2
 10
-504.661474
 20
302.817394
 40
4.000000
 50
90.000000
 51
111.378501
  0
ARC
  8
2
 10
-504.708172
 20
303.817394
 40
3.000000
 50
90.000000
 51
126.869898
  0
ARC
  8
2
 10
-486.888429
 20
301.774499
 40
2.000000
 50
282.510198
 51
8.875589
  0
ARC
  8
2
 10
-502.219967
 20
301.707580
 40
2.000000
 50
152.208332
 51
257.989966
  0
ARC
  8
2
 10
-500.148072
 20
304.817394
 40
2.000000
 50
67.489521
 51
90.000000
  0
ARC
  8
2
 10
-499.577777
 20
304.590754
 40
2.000000
 50
69.163924
 51
122.786299
  0
ARC
  8
2
 10
-482.817647
 20
304.817394
 40
2.000000
 50
90.000000
 51
165.522488
  0
ARC
  8
2
 10
-483.871668
 20
303.817394
 40
3.000000
 50
90.000000
 51
111.986403
  0
LINE
  8
2
 10
-136.308172
 20
7.272483
 11
-136.308172
 21
-61.837695
  0
LINE
  8
2
 10
-114.308172
 20
-35.829536
 11
-114.308172
 21
-41.346102
  0
LINE
  8
2
 10
-114.308172
 20
-57.682606
 11
-114.308172
 21
-62.135909
  0
LINE
  8
2
 10
-114.308172
 20
-78.215871
 11
-114.308172
 21
-82.182606
  0
LINE
  8
2
 10
-114.308172
 20
-94.982606
 11
-114.308172
 21
-97.481091
  0
LINE
  8
2
 10
-114.308172
 20
-109.582606
 11
-114.308172
 21
-110.682606
  0
LINE
  8
2
 10
-114.308172
 20
-116.182606
 11
-114.308172
 21
-119.290566
  0
ARC
  8
2
 10
363.191828
 20
-15.082606
 40
500.000000
 50
170.664881
 51
177.437441
  0
ARC
  8
2
 10
363.191828
 20
-39.482606
 40
500.000000
 50
182.562559
 51
189.335119
  0
ARC
  8
2
 10
-84.508172
 20
-27.282606
 40
37.800000
 50
166.461350
 51
193.347693
  0
ARC
  8
2
 10
-93.708172
 20
-27.282606
 40
22.100000
 50
159.678608
 51
199.908260
  0
ARC
  8
2
 10
-121.408172
 20
-26.582606
 40
11.200000
 50
282.984112
 51
300.742694
  0
ARC
  8
2
 10
-121.208172
 20
-26.982606
 40
10.300000
 50
62.801464
 51
76.803615
  0
LINE
  8
2
 10
-114.308172
 20
-97.582606
 11
-114.308172
 21
-94.982606
  0
LINE
  8
2
 10
-114.308172
 20
-81.982606
 11
-114.308172
 21
-78.182606
  0
LINE
  8
2
 10
-114.308172
 20
-62.082606
 11
-114.308172
 21
-57.622507
  0
ARC
  8
2
 10
-84.108172
 20
-52.182606
 40
38.100000
 50
167.489802
 51
192.010034
  0
ARC
  8
2
 10
-96.908172
 20
-49.582606
 40
19.000000
 50
158.013597
 51
202.510479
  0
ARC
  8
2
 10
-123.008172
 20
-52.882606
 40
9.700000
 50
297.791668
 51
327.213701
  0
ARC
  8
2
 10
-117.808172
 20
-34.482606
 40
8.000000
 50
261.124411
 51
284.477512
  0
ARC
  8
2
 10
-93.808172
 20
-75.382606
 40
28.500000
 50
164.666975
 51
194.161069
  0
ARC
  8
2
 10
-98.008172
 20
-70.082606
 40
17.800000
 50
158.621499
 51
200.899028
  0
ARC
  8
2
 10
-123.108172
 20
-75.982606
 40
8.900000
 50
301.500458
 51
344.573378
  0
ARC
  8
2
 10
-119.708172
 20
-60.382606
 40
6.000000
 50
272.459196
 51
323.130102
  0
ARC
  8
2
 10
-103.008172
 20
-95.382606
 40
19.300000
 50
161.561950
 51
193.988737
  0
ARC
  8
2
 10
-104.608172
 20
-88.182606
 40
11.200000
 50
165.994128
 51
205.608305
  0
ARC
  8
2
 10
-119.308172
 20
-94.982606
 40
5.000000
 50
0.000000
 51
23.068733
  0
ARC
  8
2
 10
-127.708172
 20
-91.082606
 40
13.600000
 50
313.012702
 51
343.688203
  0
ARC
  8
2
 10
-120.508172
 20
-81.682606
 40
6.300000
 50
277.532780
 51
337.380135
  0
ARC
  8
2
 10
-110.108172
 20
-111.282606
 40
12.200000
 50
154.256542
 51
196.000716
  0
ARC
  8
2
 10
-107.308172
 20
-103.382606
 40
8.500000
 50
161.083012
 51
207.322222
  0
ARC
  8
2
 10
-119.308172
 20
-109.582606
 40
5.000000
 50
0.000000
 51
27.322222
  0
ARC
  8
2
 10
-126.508172
 20
-106.182606
 40
12.300000
 50
309.814743
 51
344.699906
  0
ARC
  8
2
 10
-125.708172
 20
-94.182606
 40
12.200000
 50
296.844811
 51
332.733956
  0
LINE
  8
2
 10
-122.308172
 20
-118.882606
 11
-122.308172
 21
-116.782606
  0
LINE
  8
2
 10
-122.308172
 20
-105.882606
 11
-122.308172
 21
-102.782606
  0
LINE
  8
2
 10
-122.308172
 20
-87.582606
 11
-122.308172
 21
-84.982606
  0
LINE
  8
2
 10
-122.308172
 20
-66.582606
 11
-122.308172
 21
-62.682606
  0
LINE
  8
2
 10
-122.308172
 20
-42.782606
 11
-122.308172
 21
-37.982606
  0
LINE
  8
2
 10
-122.308172
 20
-16.582606
 11
-122.308172
 21
-12.482606
  0
LINE
  8
2
 10
-122.308172
 20
7.317394
 11
-122.308172
 21
11.417394
  0
LINE
  8
2
 10
-122.308172
 20
30.217394
 11
-122.308172
 21
33.117394
  0
LINE
  8
2
 10
-122.308172
 20
47.517394
 11
-122.308172
 21
50.017394
  0
LINE
  8
2
 10
-122.308172
 20
61.917394
 11
-122.308172
 21
63.817394
  0
ARC
  8
2
 10
-118.108172
 20
-121.582606
 40
4.200000
 50
131.945518
 51
217.267545
  0
ARC
  8
2
 10
-126.108172
 20
-114.082606
 40
11.900000
 50
300.020559
 51
347.925147
  0
ARC
  8
2
 10
-117.308172
 20
-116.182606
 40
3.000000
 50
0.000000
 51
23.288889
  0
LINE
  8
2
 10
-130.308172
 20
56.417394
 11
-130.308172
 21
-112.482606
  0
ARC
  8
2
 10
-122.300212
 20
-119.290566
 40
7.992041
 50
189.335119
 51
360.000000
  0
ARC
  8
2
 10
-120.654785
 20
-123.520327
 40
1.000000
 50
217.267545
 51
300.020559
  0
ARC
  8
2
 10
-111.429624
 20
-113.652255
 40
3.400000
 50
176.638278
 51
203.288889
  0
ARC
  8
2
 10
-117.405083
 20
-115.944392
 40
3.000000
 50
347.925147
 51
20.986403
  0
ARC
  8
2
 10
-120.247127
 20
-119.202508
 40
1.000000
 50
101.678445
 51
131.945518
  0
ARC
  8
2
 10
-122.008172
 20
-110.682606
 40
7.700000
 50
281.678445
 51
360.000000
  0
ARC
  8
2
 10
-119.913006
 20
-114.094230
 40
2.000000
 50
196.000716
 51
309.814743
  0
ARC
  8
2
 10
-119.295800
 20
-106.852314
 40
2.000000
 50
116.844811
 51
154.256542
  0
ARC
  8
2
 10
-117.537792
 20
-108.636640
 40
3.000000
 50
344.699906
 51
27.185481
  0
ARC
  8
2
 10
-119.308172
 20
-97.481091
 40
5.000000
 50
332.733956
 51
360.000000
  0
ARC
  8
2
 10
-119.420097
 20
-89.910978
 40
2.000000
 50
97.532780
 51
161.561950
  0
ARC
  8
2
 10
-119.795110
 20
-99.564555
 40
2.000000
 50
193.988737
 51
313.012702
  0
ARC
  8
2
 10
-117.534848
 20
-94.059768
 40
3.000000
 50
343.688203
 51
24.449096
  0
ARC
  8
2
 10
-119.308172
 20
-82.182606
 40
5.000000
 50
337.380135
 51
360.000000
  0
ARC
  8
2
 10
-119.502885
 20
-81.865795
 40
2.000000
 50
194.161069
 51
301.500458
  0
ARC
  8
2
 10
-119.364909
 20
-68.375239
 40
2.000000
 50
92.459196
 51
164.666975
  0
ARC
  8
2
 10
-119.308172
 20
-78.215871
 40
5.000000
 50
0.000000
 51
20.899028
  0
ARC
  8
2
 10
-117.420737
 20
-77.552030
 40
3.000000
 50
344.573378
 51
21.045359
  0
ARC
  8
2
 10
-118.308172
 20
-62.135909
 40
4.000000
 50
338.621499
 51
360.000000
  0
ARC
  8
2
 10
-117.308172
 20
-62.182606
 40
3.000000
 50
323.130102
 51
360.000000
  0
ARC
  8
2
 10
-119.351066
 20
-44.362863
 40
2.000000
 50
81.124411
 51
167.489802
  0
ARC
  8
2
 10
-119.417985
 20
-59.694402
 40
2.000000
 50
192.010034
 51
297.791668
  0
ARC
  8
2
 10
-116.308172
 20
-57.622507
 40
2.000000
 50
0.000000
 51
22.510479
  0
ARC
  8
2
 10
-116.534812
 20
-57.052212
 40
2.000000
 50
327.213701
 51
20.836076
  0
ARC
  8
2
 10
-116.308172
 20
-40.292081
 40
2.000000
 50
284.477512
 51
360.000000
  0
ARC
  8
2
 10
-117.308172
 20
-41.346102
 40
3.000000
 50
338.013597
 51
360.000000
  0
ARC
  8
2
 10
-119.341108
 20
-35.547385
 40
2.000000
 50
193.347693
 51
282.984112
  0
ARC
  8
2
 10
-119.313369
 20
-18.901782
 40
2.000000
 50
76.803615
 51
166.461350
  0
ARC
  8
2
 10
-116.705284
 20
-34.489745
 40
2.000000
 50
300.742694
 51
17.400637
  0
ARC
  8
2
 10
-117.308172
 20
-35.829536
 40
3.000000
 50
0.000000
 51
19.908260
  0
ARC
  8
2
 10
-116.308172
 20
-18.913019
 40
2.000000
 50
339.678608
 51
360.000000
  0
ARC
  8
2
 10
-117.871523
 20
-20.489782
 40
3.000000
 50
344.298213
 51
62.801464
  0
LINE
  8
2
 10
-114.308172
 20
-18.913019
 11
-114.308172
 21
-13.219110
  0
LINE
  8
2
 10
-114.308172
 20
3.117394
 11
-114.308172
 21
7.570696
  0
LINE
  8
2
 10
-114.308172
 20
23.650659
 11
-114.308172
 21
27.617394
  0
LINE
  8
2
 10
-114.308172
 20
40.417394
 11
-114.308172
 21
42.915878
  0
LINE
  8
2
 10
-114.308172
 20
55.017394
 11
-114.308172
 21
56.117394
  0
LINE
  8
2
 10
-114.308172
 20
61.617394
 11
-114.308172
 21
64.725353
  0
LINE
  8
2
 10
-114.308172
 20
43.017394
 11
-114.308172
 21
40.417394
  0
LINE
  8
2
 10
-114.308172
 20
27.417394
 11
-114.308172
 21
23.617394
  0
LINE
  8
2
 10
-114.308172
 20
7.517394
 11
-114.308172
 21
3.057294
  0
ARC
  8
2
 10
-84.108172
 20
-2.382606
 40
38.100000
 50
167.989966
 51
192.510198
  0
ARC
  8
2
 10
-96.908172
 20
-4.982606
 40
19.000000
 50
157.489521
 51
201.986403
  0
ARC
  8
2
 10
-123.008172
 20
-1.682606
 40
9.700000
 50
32.786299
 51
62.208332
  0
ARC
  8
2
 10
-117.808172
 20
-20.082606
 40
8.000000
 50
75.522488
 51
98.875589
  0
ARC
  8
2
 10
-93.808172
 20
20.817394
 40
28.500000
 50
165.838931
 51
195.333025
  0
ARC
  8
2
 10
-98.008172
 20
15.517394
 40
17.800000
 50
159.100972
 51
201.378501
  0
ARC
  8
2
 10
-123.108172
 20
21.417394
 40
8.900000
 50
15.426622
 51
58.499542
  0
ARC
  8
2
 10
-119.708172
 20
5.817394
 40
6.000000
 50
36.869898
 51
87.540804
  0
ARC
  8
2
 10
-103.008172
 20
40.817394
 40
19.300000
 50
166.011263
 51
198.438050
  0
ARC
  8
2
 10
-104.608172
 20
33.617394
 40
11.200000
 50
154.391695
 51
194.005872
  0
ARC
  8
2
 10
-119.308172
 20
40.417394
 40
5.000000
 50
336.931267
 51
360.000000
  0
ARC
  8
2
 10
-127.708172
 20
36.517394
 40
13.600000
 50
16.311797
 51
46.987298
  0
ARC
  8
2
 10
-120.508172
 20
27.117394
 40
6.300000
 50
22.619865
 51
82.467220
  0
ARC
  8
2
 10
-110.108172
 20
56.717394
 40
12.200000
 50
163.999284
 51
205.743458
  0
ARC
  8
2
 10
-107.308172
 20
48.817394
 40
8.500000
 50
152.677778
 51
198.916988
  0
ARC
  8
2
 10
-119.308172
 20
55.017394
 40
5.000000
 50
332.677778
 51
360.000000
  0
ARC
  8
2
 10
-126.508172
 20
51.617394
 40
12.300000
 50
15.300094
 51
50.185257
  0
ARC
  8
2
 10
-125.708172
 20
39.617394
 40
12.200000
 50
27.266044
 51
63.155189
  0
ARC
  8
2
 10
-118.108172
 20
67.017394
 40
4.200000
 50
142.732455
 51
228.054482
  0
ARC
  8
2
 10
-126.108172
 20
59.517394
 40
11.900000
 50
12.074853
 51
59.979441
  0
ARC
  8
2
 10
-117.308172
 20
61.617394
 40
3.000000
 50
336.711111
 51
360.000000
  0
ARC
  8
2
 10
-122.300212
 20
64.725353
 40
7.992041
 50
0.000000
 51
170.664881
  0
ARC
  8
2
 10
-120.654785
 20
68.955114
 40
1.000000
 50
59.979441
 51
142.732455
  0
ARC
  8
2
 10
-111.429624
 20
59.087042
 40
3.400000
 50
156.711111
 51
183.361722
  0
ARC
  8
2
 10
-117.405083
 20
61.379179
 40
3.000000
 50
339.013597
 51
12.074853
  0
ARC
  8
2
 10
-122.008172
 20
56.117394
 40
7.700000
 50
0.000000
 51
78.321555
  0
ARC
  8
2
 10
-119.913006
 20
59.529017
 40
2.000000
 50
50.185257
 51
163.999284
  0
ARC
  8
2
 10
-119.295800
 20
52.287101
 40
2.000000
 50
205.743458
 51
243.155189
  0
ARC
  8
2
 10
-117.537792
 20
54.071428
 40
3.000000
 50
332.814519
 51
15.300094
  0
ARC
  8
2
 10
-119.308172
 20
42.915878
 40
5.000000
 50
0.000000
 51
27.266044
  0
ARC
  8
2
 10
-119.420097
 20
35.345765
 40
2.000000
 50
198.438050
 51
262.467220
  0
ARC
  8
2
 10
-119.795110
 20
44.999343
 40
2.000000
 50
46.987298
 51
166.011263
  0
ARC
  8
2
 10
-117.534848
 20
39.494555
 40
3.000000
 50
335.550904
 51
16.311797
  0
ARC
  8
2
 10
-119.308172
 20
27.617394
 40
5.000000
 50
0.000000
 51
22.619865
  0
ARC
  8
2
 10
-119.502885
 20
27.300582
 40
2.000000
 50
58.499542
 51
165.838931
  0
ARC
  8
2
 10
-119.364909
 20
13.810026
 40
2.000000
 50
195.333025
 51
267.540804
  0
ARC
  8
2
 10
-119.308172
 20
23.650659
 40
5.000000
 50
339.100972
 51
360.000000
  0
ARC
  8
2
 10
-117.420737
 20
22.986817
 40
3.000000
 50
338.954641
 51
15.426622
  0
ARC
  8
2
 10
-118.308172
 20
7.570696
 40
4.000000
 50
0.000000
 51
21.378501
  0
ARC
  8
2
 10
-117.308172
 20
7.617394
 40
3.000000
 50
0.000000
 51
36.869898
  0
ARC
  8
2
 10
-119.351066
 20
-10.202349
 40
2.000000
 50
192.510198
 51
278.875589
  0
ARC
  8
2
 10
-119.417985
 20
5.129189
 40
2.000000
 50
62.208332
 51
167.989966
  0
ARC
  8
2
 10
-116.308172
 20
3.057294
 40
2.000000
 50
337.489521
 51
360.000000
  0
ARC
  8
2
 10
-116.534812
 20
2.486999
 40
2.000000
 50
339.163924
 51
32.786299
  0
ARC
  8
2
 10
-116.308172
 20
-14.273131
 40
2.000000
 50
0.000000
 51
75.522488
  0
ARC
  8
2
 10
-117.308172
 20
-13.219110
 40
3.000000
 50
0.000000
 51
21.986403
  0
ARC
  8
2
 10
-662.308172
 20
-116.282606
 40
3.000000
 50
180.000000
 51
270.000000
  0
LINE
  8
2
 10
-638.308172
 20
-122.282606
 11
-638.308172
 21
-125.282606
  0
LINE
  8
2
 10
-498.308172
 20
-123.135358
 11
-498.308172
 21
-125.282606
  0
LINE
  8
2
 10
-498.308172
 20
-125.282606
 11
-638.308172
 21
-125.282606
  0
LINE
  8
2
 10
-662.308172
 20
-119.282606
 11
-509.000008
 21
-119.282606
  0
LINE
  8
2
 10
-430.616336
 20
-119.282606
 11
-429.308172
 21
-119.282606
  0
LINE
  8
2
 10
-570.308172
 20
92.217394
 11
-570.308172
 21
83.917394
  0
LINE
  8
2
 10
-566.308172
 20
92.217394
 11
-566.308172
 21
83.917394
  0
CIRCLE
  8
2
 10
-568.308172
 20
530.317394
 40
42.500000
  0
LINE
  8
2
 10
-598.730368
 20
537.817394
 11
-577.793124
 21
537.817394
  0
LINE
  8
2
 10
-598.730368
 20
522.817394
 11
-577.793124
 21
522.817394
  0
LINE
  8
2
 10
-558.823219
 20
522.817394
 11
-537.885976
 21
522.817394
  0
LINE
  8
2
 10
-566.308172
 20
508.294919
 11
-566.308172
 21
506.151302
  0
LINE
  8
2
 10
-570.308172
 20
508.294919
 11
-570.308172
 21
506.151302
  0
LINE
  8
2
 10
-566.308172
 20
552.339869
 11
-566.308172
 21
554.483486
  0
LINE
  8
2
 10
-570.308172
 20
552.339869
 11
-570.308172
 21
554.483486
  0
LINE
  8
2
 10
-558.823219
 20
537.817394
 11
-537.885976
 21
537.817394
  0
ARC
  8
2
 10
-568.308172
 20
70.717394
 40
34.000000
 50
22.844739
 51
157.155261
  0
CIRCLE
  8
2
 10
-568.308172
 20
530.317394
 40
31.333050
  0
ARC
  8
2
 10
-605.732781
 20
530.644243
 40
45.000000
 50
12.236103
 51
30.645688
  0
ARC
  8
2
 10
-530.883563
 20
530.644243
 40
45.000000
 50
149.354312
 51
167.763897
  0
ARC
  8
2
 10
-568.308172
 20
552.817394
 40
1.500000
 50
30.645688
 51
149.354312
  0
ARC
  8
2
 10
-558.823219
 20
540.817394
 40
3.000000
 50
192.236103
 51
270.000000
  0
ARC
  8
2
 10
-577.793124
 20
540.817394
 40
3.000000
 50
270.000000
 51
347.763897
  0
ARC
  8
2
 10
-605.732781
 20
529.990545
 40
45.000000
 50
329.354312
 51
347.763897
  0
ARC
  8
2
 10
-530.883563
 20
529.990545
 40
45.000000
 50
192.236103
 51
210.645688
  0
ARC
  8
2
 10
-568.308172
 20
507.817394
 40
1.500000
 50
210.645688
 51
329.354312
  0
ARC
  8
2
 10
-558.823219
 20
519.817394
 40
3.000000
 50
90.000000
 51
167.763897
  0
ARC
  8
2
 10
-577.793124
 20
519.817394
 40
3.000000
 50
12.236103
 51
90.000000
  0
ARC
  8
2
 10
-568.308172
 20
530.317394
 40
24.248711
 50
18.016736
 51
161.983264
  0
ARC
  8
2
 10
-568.308172
 20
530.317394
 40
24.248711
 50
198.016736
 51
341.983264
  0
ARC
  8
2
 10
109.191828
 20
70.717394
 40
34.000000
 50
45.099128
 51
134.900872
  0
LINE
  8
2
 10
116.691823
 20
102.322879
 11
116.691828
 21
83.917394
  0
LINE
  8
2
 10
101.691828
 20
102.322879
 11
101.691828
 21
83.917394
  0
LINE
  8
2
 10
85.191828
 20
94.800583
 11
85.191828
 21
93.074495
  0
LINE
  8
2
 10
133.191828
 20
94.800583
 11
133.191828
 21
93.074495
  0
ARC
  8
2
 10
-568.308172
 20
69.217394
 40
28.000000
 50
34.712682
 51
81.884254
  0
ARC
  8
2
 10
-568.308172
 20
69.217394
 40
28.000000
 50
98.115746
 51
145.287318
  0
ARC
  8
2
 10
109.191828
 20
72.717394
 40
31.000000
 50
28.453097
 51
48.922243
  0
ARC
  8
2
 10
109.191828
 20
72.717394
 40
31.000000
 50
131.077757
 51
151.546903
  0
ARC
  8
2
 10
109.191828
 20
69.217394
 40
28.000000
 50
105.536794
 51
145.287318
  0
ARC
  8
2
 10
109.191828
 20
69.217394
 40
28.000000
 50
34.712682
 51
74.463206
  0
ARC
  8
2
 10
-569.308172
 20
92.217394
 40
1.000000
 50
90.000000
 51
180.000000
  0
ARC
  8
2
 10
-567.308172
 20
92.217394
 40
1.000000
 50
0.000000
 51
90.000000
  0
LINE
  8
2
 10
-569.308172
 20
93.217394
 11
-568.943405
 21
93.217399
  0
LINE
  8
2
 10
-567.672705
 20
93.217508
 11
-567.308172
 21
93.217394
  0
LINE
  8
2
 10
-577.123839
 20
507.727927
 11
-575.124970
 21
512.553624
  0
LINE
  8
2
 10
-560.567494
 20
547.698480
 11
-558.568625
 21
552.524177
  0
LINE
  8
2
 10
-578.047719
 20
508.110610
 11
-576.048850
 21
512.936307
  0
LINE
  8
2
 10
-561.491373
 20
548.081163
 11
-559.492504
 21
552.906860
  0
LINE
  8
2
 10
-585.097401
 20
512.821057
 11
-581.403973
 21
516.514486
  0
LINE
  8
2
 10
-554.505264
 20
543.413194
 11
-550.811836
 21
547.106623
  0
LINE
  8
2
 10
-585.804508
 20
513.528164
 11
-582.111079
 21
517.221593
  0
LINE
  8
2
 10
-555.212371
 20
544.120301
 11
-551.518942
 21
547.813730
  0
LINE
  8
2
 10
-590.514955
 20
520.577847
 11
-585.689258
 21
522.576716
  0
LINE
  8
2
 10
-548.895007
 20
537.817394
 11
-545.718705
 21
539.133061
  0
LINE
  8
2
 10
-590.897639
 20
521.501726
 11
-587.721336
 21
522.817394
  0
LINE
  8
2
 10
-550.927085
 20
538.058071
 11
-546.101388
 21
540.056941
  0
ARC
  8
2
 10
-575.586910
 20
512.744965
 40
0.500000
 50
337.500000
 51
157.500000
  0
ARC
  8
2
 10
-581.757526
 20
516.868039
 40
0.500000
 50
315.000000
 51
135.000000
  0
ARC
  8
2
 10
-585.880600
 20
523.038656
 40
0.500000
 50
292.500000
 51
333.734975
  0
ARC
  8
2
 10
-561.029434
 20
547.889822
 40
0.500000
 50
157.500000
 51
337.500000
  0
ARC
  8
2
 10
-554.858818
 20
543.766748
 40
0.500000
 50
135.000000
 51
315.000000
  0
ARC
  8
2
 10
-550.735744
 20
537.596132
 40
0.500000
 50
112.500000
 51
153.734975
  0
LINE
  8
2
 10
-551.506807
 20
521.463699
 11
-549.484762
 21
520.626141
  0
ARC
  8
2
 10
-550.837056
 20
523.080621
 40
1.750143
 50
188.650293
 51
247.500000
  0
ARC
  8
2
 10
-548.815011
 20
522.243062
 40
1.750143
 50
247.500000
 51
19.157293
  0
LINE
  8
2
 10
-585.109536
 20
539.171088
 11
-587.131582
 21
540.008646
  0
ARC
  8
2
 10
-585.779287
 20
537.554167
 40
1.750143
 50
8.650293
 51
67.500000
  0
ARC
  8
2
 10
-587.801332
 20
538.391725
 40
1.750143
 50
67.500000
 51
199.157293
  0
ARC
  8
2
 10
-532.907777
 20
73.483023
 40
45.274917
 50
159.102140
 51
166.675437
  0
ARC
  8
2
 10
-533.831656
 20
73.483023
 40
45.274917
 50
158.681079
 51
166.675437
  0
ARC
  8
2
 10
-575.607009
 20
89.786447
 40
0.430947
 50
339.102140
 51
158.681079
  0
ARC
  8
2
 10
-556.878243
 20
71.716141
 40
30.472934
 50
143.677597
 51
156.397040
  0
ARC
  8
2
 10
-557.585350
 20
71.716141
 40
30.472934
 50
142.882669
 51
156.397040
  0
ARC
  8
2
 10
-581.658524
 20
89.933990
 40
0.283404
 50
323.677597
 51
142.882669
  0
ARC
  8
2
 10
-565.633830
 20
69.949260
 40
28.197761
 50
134.711482
 51
150.306296
  0
ARC
  8
2
 10
-566.016514
 20
69.949260
 40
28.197761
 50
134.156238
 51
150.306296
  0
ARC
  8
2
 10
-585.566246
 20
90.083436
 40
0.133957
 50
314.711482
 51
134.156238
  0
ARC
  8
2
 10
73.791433
 20
73.483023
 40
45.274917
 50
13.324563
 51
18.638604
  0
ARC
  8
2
 10
74.715313
 20
73.483023
 40
45.274917
 50
13.324563
 51
21.318921
  0
ARC
  8
2
 10
116.490665
 20
89.786447
 40
0.430947
 50
21.318921
 51
62.173379
  0
ARC
  8
2
 10
97.761899
 20
71.716141
 40
30.472934
 50
23.602960
 51
36.322403
  0
ARC
  8
2
 10
98.469006
 20
71.716141
 40
30.472934
 50
23.602960
 51
37.117331
  0
ARC
  8
2
 10
122.542180
 20
89.933990
 40
0.283404
 50
37.117331
 51
216.322403
  0
ARC
  8
2
 10
106.517487
 20
69.949260
 40
28.197761
 50
29.693704
 51
45.288518
  0
ARC
  8
2
 10
106.900170
 20
69.949260
 40
28.197761
 50
29.693704
 51
45.843762
  0
ARC
  8
2
 10
126.449903
 20
90.083436
 40
0.133957
 50
45.843762
 51
225.288518
  0
LINE
  8
2
 10
66.691828
 20
83.917394
 11
151.691828
 21
83.917394
  0
LINE
  8
2
 10
-525.808172
 20
83.917394
 11
-610.808172
 21
83.917394
  0
ARC
  8
2
 10
-568.308172
 20
70.717394
 40
33.162479
 50
104.962752
 51
150.128593
  0
ARC
  8
2
 10
-562.753623
 20
102.707257
 40
10.000000
 50
202.238154
 51
227.992896
  0
ARC
  8
2
 10
-576.095854
 20
99.857180
 40
3.000000
 50
42.388379
 51
104.962752
  0
ARC
  8
2
 10
-581.265998
 20
95.138112
 40
10.000000
 50
22.238154
 51
42.388379
  0
ARC
  8
2
 10
-573.862721
 20
102.707257
 40
10.000000
 50
312.007104
 51
337.761846
  0
ARC
  8
2
 10
-555.350345
 20
95.138112
 40
10.000000
 50
137.611621
 51
157.761846
  0
ARC
  8
2
 10
-560.520490
 20
99.857180
 40
3.000000
 50
75.037248
 51
137.611621
  0
ARC
  8
2
 10
-568.308172
 20
70.717394
 40
33.162479
 50
29.871407
 51
75.037248
  0
ARC
  8
2
 10
-568.308172
 20
96.539843
 40
1.700000
 50
227.992896
 51
312.007104
  0
ARC
  8
2
 10
-567.833281
 20
69.894858
 40
32.849358
 50
105.470231
 51
147.621493
  0
ARC
  8
2
 10
-561.799671
 20
102.815754
 40
12.000000
 50
200.135943
 51
231.694293
  0
ARC
  8
2
 10
-578.699484
 20
96.619277
 40
6.000000
 50
20.135943
 51
48.747449
  0
ARC
  8
2
 10
-576.061967
 20
99.626519
 40
2.000000
 50
48.747449
 51
105.470231
  0
ARC
  8
2
 10
-574.816672
 20
102.815754
 40
12.000000
 50
308.305707
 51
339.864057
  0
ARC
  8
2
 10
-557.916860
 20
96.619277
 40
6.000000
 50
131.252551
 51
159.864057
  0
ARC
  8
2
 10
-560.554377
 20
99.626519
 40
2.000000
 50
74.529769
 51
131.252551
  0
ARC
  8
2
 10
-568.783063
 20
69.894858
 40
32.849358
 50
32.378507
 51
74.529769
  0
ARC
  8
2
 10
-568.308172
 20
94.576250
 40
1.500000
 50
231.694293
 51
308.305707
  0
ARC
  8
2
 10
100.908040
 20
91.396425
 40
11.430139
 50
88.512215
 51
112.714662
  0
ARC
  8
2
 10
101.191828
 20
102.322879
 40
0.500000
 50
0.000000
 51
88.512215
  0
ARC
  8
2
 10
112.028202
 20
64.831920
 40
40.228245
 50
112.714662
 51
131.843847
  0
ARC
  8
2
 10
102.398042
 20
84.500449
 40
17.127052
 50
93.791923
 51
118.737001
  0
ARC
  8
2
 10
101.291828
 20
101.190882
 40
0.400000
 50
0.000000
 51
93.791923
  0
ARC
  8
2
 10
116.110392
 20
59.492684
 40
45.647515
 50
118.737001
 51
132.635576
  0
ARC
  8
2
 10
115.985614
 20
84.500449
 40
17.127052
 50
61.262999
 51
86.208077
  0
ARC
  8
2
 10
102.273265
 20
59.492684
 40
45.647515
 50
47.364424
 51
61.262999
  0
ARC
  8
2
 10
117.091828
 20
101.190882
 40
0.400000
 50
86.208077
 51
180.000000
  0
ARC
  8
2
 10
117.191828
 20
102.322879
 40
0.500000
 50
91.487785
 51
180.000000
  0
ARC
  8
2
 10
117.475616
 20
91.396425
 40
11.430139
 50
67.285338
 51
91.487785
  0
ARC
  8
2
 10
106.355455
 20
64.831920
 40
40.228245
 50
48.156153
 51
67.285338
  0
ARC
  8
2
  6
CENTER
 62
2
 10
-568.308172
 20
530.317394
 40
37.500000
 50
126.361503
 51
143.885033
  0
ARC
  8
2
  6
CENTER
 62
2
 10
-568.308172
 20
530.317394
 40
37.500000
 50
216.933310
 51
233.416879
  0
ARC
  8
2
  6
CENTER
 62
2
 10
-568.308172
 20
530.317394
 40
37.500000
 50
306.278748
 51
323.822644
  0
ARC
  8
2
  6
CENTER
 62
2
 10
-568.308172
 20
530.317394
 40
37.500000
 50
36.280641
 51
53.737219
  0
LINE
  8
2
  6
CENTER
 62
2
 10
-599.147458
 20
499.478107
 11
-591.096858
 21
507.528707
  0
LINE
  8
2
  6
CENTER
 62
2
 10
-545.917318
 20
552.708247
 11
-537.370945
 21
561.254620
  0
LINE
  8
2
  6
CENTER
 62
2
 10
-599.201791
 20
561.211013
 11
-590.850799
 21
552.860021
  0
LINE
  8
2
  6
CENTER
 62
2
 10
-545.736088
 20
507.745310
 11
-537.605025
 21
499.614246
  0
LINE
  8
2
  6
CENTER
 62
2
 10
135.708333
 20
75.062211
 11
135.708333
 21
90.673669
  0
LINE
  8
2
  6
CENTER
 62
2
 10
82.675324
 20
75.062211
 11
82.675324
 21
92.067559
  0
LINE
  8
2
  6
CENTER
 62
2
 10
-594.824676
 20
90.632840
 11
-594.824676
 21
74.212415
  0
LINE
  8
2
  6
CENTER
 62
2
 10
-541.791667
 20
91.062696
 11
-541.791667
 21
74.212415
  0
CIRCLE
  8
2
 10
-541.791667
 20
503.800889
 40
3.500000
  0
CIRCLE
  8
2
 10
-541.791667
 20
556.833898
 40
3.500000
  0
CIRCLE
  8
2
 10
-594.824676
 20
503.800889
 40
3.500000
  0
CIRCLE
  8
2
 10
-594.824676
 20
556.833898
 40
3.500000
  0
LINE
  8
2
 10
-537.991667
 20
84.917394
 11
-545.591667
 21
84.917394
  0
LINE
  8
2
 10
-537.991667
 20
84.917394
 11
-537.991667
 21
83.917394
  0
LINE
  8
2
 10
-545.591667
 20
84.917394
 11
-545.591667
 21
83.917394
  0
LINE
  8
2
 10
-538.291667
 20
85.896418
 11
-538.291667
 21
84.917394
  0
LINE
  8
2
 10
-545.291667
 20
85.896418
 11
-545.291667
 21
84.917394
  0
ARC
  8
2
 10
-541.791667
 20
78.517394
 40
9.000000
 50
73.398450
 51
106.601550
  0
ARC
  8
2
 10
-539.591667
 20
85.896418
 40
1.300000
 50
0.000000
 51
73.398450
  0
ARC
  8
2
 10
-543.991667
 20
85.896418
 40
1.300000
 50
106.601550
 51
180.000000
  0
LINE
  8
2
 10
-591.024676
 20
84.917394
 11
-598.624676
 21
84.917394
  0
LINE
  8
2
 10
-591.024676
 20
84.917394
 11
-591.024676
 21
83.917394
  0
LINE
  8
2
 10
-598.624676
 20
84.917394
 11
-598.624676
 21
83.917394
  0
LINE
  8
2
 10
-591.324676
 20
85.896418
 11
-591.324676
 21
84.917394
  0
LINE
  8
2
 10
-598.324676
 20
85.896418
 11
-598.324676
 21
84.917394
  0
ARC
  8
2
 10
-594.824676
 20
78.517394
 40
9.000000
 50
73.398450
 51
106.601550
  0
ARC
  8
2
 10
-592.624676
 20
85.896418
 40
1.300000
 50
0.000000
 51
73.398450
  0
ARC
  8
2
 10
-597.024676
 20
85.896418
 40
1.300000
 50
106.601550
 51
180.000000
  0
LINE
  8
2
 10
86.475324
 20
84.917394
 11
78.875324
 21
84.917394
  0
LINE
  8
2
 10
86.475324
 20
84.917394
 11
86.475324
 21
83.917394
  0
LINE
  8
2
 10
78.875324
 20
84.917394
 11
78.875324
 21
83.917394
  0
LINE
  8
2
 10
86.175324
 20
85.896418
 11
86.175324
 21
84.917394
  0
LINE
  8
2
 10
79.175324
 20
85.896418
 11
79.175324
 21
84.917394
  0
ARC
  8
2
 10
82.675324
 20
78.517394
 40
9.000000
 50
73.398450
 51
106.601550
  0
ARC
  8
2
 10
84.875324
 20
85.896418
 40
1.300000
 50
0.000000
 51
73.398450
  0
ARC
  8
2
 10
80.475324
 20
85.896418
 40
1.300000
 50
106.601550
 51
180.000000
  0
LINE
  8
2
 10
139.508333
 20
84.917394
 11
131.908333
 21
84.917394
  0
LINE
  8
2
 10
139.508333
 20
84.917394
 11
139.508333
 21
83.917394
  0
LINE
  8
2
 10
131.908333
 20
84.917394
 11
131.908333
 21
83.917394
  0
LINE
  8
2
 10
139.208333
 20
85.896418
 11
139.208333
 21
84.917394
  0
LINE
  8
2
 10
132.208333
 20
85.896418
 11
132.208333
 21
84.917394
  0
ARC
  8
2
 10
135.708333
 20
78.517394
 40
9.000000
 50
73.398450
 51
106.601550
  0
ARC
  8
2
 10
137.908333
 20
85.896418
 40
1.300000
 50
0.000000
 51
73.398450
  0
ARC
  8
2
 10
133.508333
 20
85.896418
 40
1.300000
 50
106.601550
 51
180.000000
  0
ARC
  8
2
 10
-406.308172
 20
439.317394
 40
3.000000
 50
360.000000
 51
90.000000
  0
LINE
  8
2
 10
-424.308172
 20
615.317394
 11
-424.308172
 21
447.317394
  0
LINE
  8
2
 10
-440.491502
 20
442.317394
 11
-497.705141
 21
442.317394
  0
LINE
  8
2
 10
-406.308172
 20
442.317394
 11
-427.830022
 21
442.317394
  0
LINE
  8
2
 10
-403.308172
 20
422.317394
 11
-403.308172
 21
439.317394
  0
LINE
  8
2
 10
-403.308172
 20
430.317394
 11
-791.308172
 21
430.317394
  0
LINE
  8
2
 10
-512.911202
 20
442.317394
 11
-645.029455
 21
442.317394
  0
LINE
  8
2
 10
-791.308172
 20
422.317394
 11
-791.308172
 21
615.317394
  0
LINE
  8
2
 10
-707.308172
 20
467.317394
 11
-707.308172
 21
593.317394
  0
LINE
  8
2
 10
-713.047130
 20
600.317394
 11
-450.308172
 21
600.317394
  0
LINE
  8
2
 10
-443.308172
 20
593.317394
 11
-443.308172
 21
445.317394
  0
ARC
  8
2
 10
-700.308172
 20
593.317394
 40
7.000000
 50
90.000000
 51
180.000000
  0
ARC
  8
2
 10
-700.308172
 20
467.317394
 40
7.000000
 50
180.000000
 51
270.000000
  0
ARC
  8
2
 10
-450.308172
 20
593.317394
 40
7.000000
 50
0.000000
 51
90.000000
  0
ARC
  8
2
 10
-450.308172
 20
467.317394
 40
7.000000
 50
270.000000
 51
360.000000
  0
ARC
  8
2
 10
-666.308172
 20
-102.282606
 40
1.000000
 50
0.000000
 51
90.000000
  0
ARC
  8
2
 10
-611.308172
 20
-27.282606
 40
180.000000
 50
170.024200
 51
198.428986
  0
ARC
  8
2
 10
-758.359183
 20
-76.282606
 40
25.000000
 50
198.428986
 51
270.000000
  0
LINE
  8
2
 10
-765.708640
 20
24.507487
 11
-543.763298
 21
40.027417
  0
ARC
  8
2
 10
-763.964728
 20
-0.431614
 40
25.000000
 50
94.000000
 51
170.024200
  0
LINE
  8
2
 10
-707.308172
 20
57.717394
 11
-713.743870
 21
40.035459
  0
ARC
  8
2
 10
-732.537722
 20
46.875862
 40
20.000000
 50
274.000000
 51
340.000000
  0
LINE
  8
2
 10
-776.308172
 20
630.317394
 11
-439.308172
 21
630.317394
  0
CIRCLE
  8
2
 10
-505.308172
 20
445.317394
 40
7.099784
  0
ARC
  8
2
 10
-497.705141
 20
440.317394
 40
2.000000
 50
90.000000
 51
146.669780
  0
ARC
  8
2
 10
-512.911202
 20
440.317394
 40
2.000000
 50
33.330220
 51
90.000000
  0
CIRCLE
  8
2
 10
-505.308172
 20
445.317394
 40
6.000000
  0
CIRCLE
  8
2
 10
-652.308172
 20
445.317394
 40
6.000000
  0
LINE
  8
2
 10
-660.308172
 20
457.317394
 11
-660.308172
 21
445.317394
  0
ARC
  8
2
 10
-657.308172
 20
457.317394
 40
3.000000
 50
90.000000
 51
180.000000
  0
ARC
  8
2
 10
-657.308172
 20
445.317394
 40
3.000000
 50
180.000000
 51
235.972242
  0
CIRCLE
  8
2
 10
-652.308172
 20
445.317394
 40
6.830613
  0
ARC
  8
2
 10
-645.029455
 20
440.317394
 40
2.000000
 50
90.000000
 51
145.513495
  0
ARC
  8
2
 10
-660.106144
 20
441.173561
 40
2.000000
 50
27.986121
 51
55.972242
  0
CIRCLE
  8
2
 10
-434.308172
 20
445.317394
 40
6.000000
  0
CIRCLE
  8
2
 10
-434.308172
 20
445.317394
 40
6.183301
  0
ARC
  8
2
 10
-427.830022
 20
440.317394
 40
2.000000
 50
90.000000
 51
142.338130
  0
ARC
  8
2
 10
-440.308172
 20
445.317394
 40
3.000000
 50
180.000000
 51
264.293054
  0
ARC
  8
2
 10
-440.805374
 20
440.342176
 40
2.000000
 50
37.443005
 51
84.293054
  0
ARC
  8
2
 10
-419.308172
 20
447.317394
 40
5.000000
 50
180.000000
 51
270.000000
  0
LINE
  8
2
 10
-434.308172
 20
536.317394
 11
-426.308172
 21
536.317394
  0
LINE
  8
2
 10
-434.308172
 20
524.317394
 11
-426.308172
 21
524.317394
  0
ARC
  8
2
 10
-434.308172
 20
530.317394
 40
6.000000
 50
90.000000
 51
270.000000
  0
ARC
  8
2
 10
-426.308172
 20
522.317394
 40
2.000000
 50
0.000000
 51
90.000000
  0
ARC
  8
2
 10
-426.308172
 20
538.317394
 40
2.000000
 50
270.000000
 51
0.000000
  0
ARC
  8
2
 10
-439.308172
 20
615.317394
 40
15.000000
 50
0.000000
 51
90.000000
  0
LINE
  8
2
 10
-438.308172
 20
610.317394
 11
-426.308172
 21
610.317394
  0
LINE
  8
2
 10
-444.308172
 20
616.317394
 11
-444.308172
 21
628.317394
  0
ARC
  8
2
 10
-438.308172
 20
616.317394
 40
6.000000
 50
180.000000
 51
270.000000
  0
ARC
  8
2
 10
-426.308172
 20
608.317394
 40
2.000000
 50
0.000000
 51
90.000000
  0
ARC
  8
2
 10
-446.308172
 20
628.317394
 40
2.000000
 50
0.000000
 51
90.000000
  0
LINE
  8
2
 10
-499.308172
 20
620.317394
 11
-499.308172
 21
628.317394
  0
LINE
  8
2
 10
-511.308172
 20
620.317394
 11
-511.308172
 21
628.317394
  0
ARC
  8
2
 10
-505.308172
 20
620.317394
 40
6.000000
 50
180.000000
 51
360.000000
  0
ARC
  8
2
 10
-497.308172
 20
628.317394
 40
2.000000
 50
90.000000
 51
180.000000
  0
ARC
  8
2
 10
-513.308172
 20
628.317394
 40
2.000000
 50
0.000000
 51
90.000000
  0
LINE
  8
2
 10
-646.308172
 20
620.317394
 11
-646.308172
 21
628.317394
  0
LINE
  8
2
 10
-658.308172
 20
620.317394
 11
-658.308172
 21
628.317394
  0
ARC
  8
2
 10
-652.308172
 20
620.317394
 40
6.000000
 50
180.000000
 51
360.000000
  0
ARC
  8
2
 10
-644.308172
 20
628.317394
 40
2.000000
 50
90.000000
 51
180.000000
  0
ARC
  8
2
 10
-660.308172
 20
628.317394
 40
2.000000
 50
0.000000
 51
90.000000
  0
ARC
  8
2
 10
-675.308172
 20
615.317394
 40
15.000000
 50
360.000000
 51
90.000000
  0
ARC
  8
2
 10
-776.308172
 20
615.317394
 40
15.000000
 50
90.000000
 51
180.000000
  0
LINE
  8
2
 10
-771.308172
 20
616.317394
 11
-771.308172
 21
628.317394
  0
LINE
  8
2
 10
-777.308172
 20
610.317394
 11
-787.117058
 21
610.317394
  0
ARC
  8
2
 10
-777.308172
 20
616.317394
 40
6.000000
 50
270.000000
 51
360.000000
  0
ARC
  8
2
 10
-769.308172
 20
628.317394
 40
2.000000
 50
90.000000
 51
180.000000
  0
LINE
  8
2
 10
-782.308172
 20
536.317394
 11
-787.117058
 21
536.317394
  0
LINE
  8
2
 10
-782.308172
 20
524.317394
 11
-787.117058
 21
524.317394
  0
ARC
  8
2
 10
-782.308172
 20
530.317394
 40
6.000000
 50
270.000000
 51
90.000000
  0
LINE
  8
2
 10
-782.308172
 20
457.317394
 11
-787.117058
 21
457.317394
  0
LINE
  8
2
 10
-782.308172
 20
445.317394
 11
-787.117058
 21
445.317394
  0
ARC
  8
2
 10
-782.308172
 20
451.317394
 40
6.000000
 50
270.000000
 51
90.000000
  0
LINE
  8
2
 10
-720.047130
 20
467.317394
 11
-720.047130
 21
593.317394
  0
ARC
  8
2
 10
-713.047130
 20
593.317394
 40
7.000000
 50
90.000000
 51
180.000000
  0
LINE
  8
2
 10
-787.308172
 20
460.317394
 11
-450.308172
 21
460.317394
  0
ARC
  8
2
 10
-787.117058
 20
459.317394
 40
2.000000
 50
180.000000
 51
270.000000
  0
ARC
  8
2
 10
-787.117058
 20
443.317394
 40
2.000000
 50
90.000000
 51
180.000000
  0
ARC
  8
2
 10
-787.117058
 20
538.317394
 40
2.000000
 50
180.000000
 51
270.000000
  0
ARC
  8
2
 10
-787.117058
 20
522.317394
 40
2.000000
 50
90.000000
 51
180.000000
  0
ARC
  8
2
 10
-787.117058
 20
608.317394
 40
2.000000
 50
90.000000
 51
180.000000
  0
LINE
  8
2
 10
-789.117058
 20
445.317394
 11
-789.117058
 21
457.317394
  0
LINE
  8
2
 10
-789.117058
 20
524.317394
 11
-789.117058
 21
536.317394
  0
ARC
  8
2
 10
-713.047130
 20
467.317394
 40
7.000000
 50
180.000000
 51
270.000000
  0
ARC
  8
2
 10
-441.808172
 20
537.817394
 40
0.500000
 50
270.000000
 51
360.000000
  0
ARC
  8
2
 10
-442.808172
 20
536.817394
 40
0.500000
 50
90.000000
 51
180.000000
  0
ARC
  8
2
 10
-441.808172
 20
572.817394
 40
0.500000
 50
0.000000
 51
90.000000
  0
ARC
  8
2
 10
-442.808172
 20
573.817394
 40
0.500000
 50
180.000000
 51
270.000000
  0
ARC
  8
2
 10
-441.808172
 20
522.817394
 40
0.500000
 50
360.000000
 51
90.000000
  0
ARC
  8
2
 10
-442.808172
 20
523.817394
 40
0.500000
 50
180.000000
 51
270.000000
  0
ARC
  8
2
 10
-441.808172
 20
487.817394
 40
0.500000
 50
270.000000
 51
360.000000
  0
ARC
  8
2
 10
-442.808172
 20
486.817394
 40
0.500000
 50
90.000000
 51
180.000000
  0
LINE
  8
2
 10
-632.308172
 20
643.317394
 11
-604.308172
 21
643.317394
  0
LINE
  8
2
 10
-532.308172
 20
643.317394
 11
-504.308172
 21
643.317394
  0
ARC
  8
2
 10
-504.308172
 20
642.317394
 40
1.000000
 50
0.000000
 51
90.000000
  0
ARC
  8
2
 10
-532.308172
 20
642.317394
 40
1.000000
 50
90.000000
 51
180.000000
  0
ARC
  8
2
 10
-604.308172
 20
642.317394
 40
1.000000
 50
0.000000
 51
90.000000
  0
ARC
  8
2
 10
-632.308172
 20
642.317394
 40
1.000000
 50
90.000000
 51
180.000000
  0
LINE
  8
2
 10
-500.308172
 20
638.317394
 11
-479.462872
 21
638.317394
  0
LINE
  8
2
 10
-657.153471
 20
638.317394
 11
-636.308172
 21
638.317394
  0
LINE
  8
2
 10
-600.308172
 20
638.317394
 11
-536.308172
 21
638.317394
  0
ARC
  8
2
 10
-500.308172
 20
641.317394
 40
3.000000
 50
180.000000
 51
270.000000
  0
ARC
  8
2
 10
-536.308172
 20
641.317394
 40
3.000000
 50
270.000000
 51
360.000000
  0
ARC
  8
2
 10
-600.308172
 20
641.317394
 40
3.000000
 50
180.000000
 51
270.000000
  0
ARC
  8
2
 10
-636.308172
 20
641.317394
 40
3.000000
 50
270.000000
 51
360.000000
  0
LINE
  8
2
 10
-658.885522
 20
637.317394
 11
-662.060948
 21
631.817394
  0
ARC
  8
2
 10
-657.153471
 20
636.317394
 40
2.000000
 50
90.000000
 51
150.000000
  0
ARC
  8
2
 10
-664.659025
 20
633.317394
 40
3.000000
 50
270.000000
 51
330.000000
  0
LINE
  8
2
 10
-477.730821
 20
637.317394
 11
-474.555395
 21
631.817394
  0
ARC
  8
2
 10
-479.462872
 20
636.317394
 40
2.000000
 50
30.000000
 51
90.000000
  0
ARC
  8
2
 10
-471.957319
 20
633.317394
 40
3.000000
 50
210.000000
 51
270.000000
  0
LINE
  8
2
 10
-503.308172
 20
642.317394
 11
-503.308172
 21
641.317394
  0
LINE
  8
2
 10
-533.308172
 20
642.317394
 11
-533.308172
 21
641.317394
  0
LINE
  8
2
 10
-603.308172
 20
642.317394
 11
-603.308172
 21
641.317394
  0
LINE
  8
2
 10
-633.308172
 20
642.317394
 11
-633.308172
 21
641.317394
  0
LINE
  8
2
 10
-532.158172
 20
643.317394
 11
-532.158172
 21
654.960620
  0
LINE
  8
2
 10
-532.158172
 20
654.960620
 11
-529.808172
 21
656.317394
  0
LINE
  8
2
 10
-529.808172
 20
656.317394
 11
-518.308172
 21
656.317394
  0
LINE
  8
2
 10
-525.233172
 20
643.317394
 11
-525.233172
 21
654.960620
  0
ARC
  8
2
 10
-528.695672
 20
650.509459
 40
5.639303
 50
52.121121
 51
127.878879
  0
ARC
  8
2
 10
-518.308172
 20
635.373763
 40
20.775000
 50
90.000000
 51
109.471221
  0
LINE
  8
2
 10
-504.458172
 20
643.317394
 11
-504.458172
 21
654.960620
  0
LINE
  8
2
 10
-504.458172
 20
654.960620
 11
-506.808172
 21
656.317394
  0
LINE
  8
2
 10
-506.808172
 20
656.317394
 11
-518.308172
 21
656.317394
  0
LINE
  8
2
 10
-511.383172
 20
643.317394
 11
-511.383172
 21
654.960620
  0
ARC
  8
2
 10
-507.920672
 20
650.509459
 40
5.639303
 50
52.121121
 51
127.878879
  0
ARC
  8
2
 10
-518.308172
 20
635.373763
 40
20.775000
 50
70.528779
 51
90.000000
  0
LINE
  8
2
 10
-632.158172
 20
643.317394
 11
-632.158172
 21
654.960620
  0
LINE
  8
2
 10
-632.158172
 20
654.960620
 11
-629.808172
 21
656.317394
  0
LINE
  8
2
 10
-629.808172
 20
656.317394
 11
-618.308172
 21
656.317394
  0
LINE
  8
2
 10
-625.233172
 20
643.317394
 11
-625.233172
 21
654.960620
  0
ARC
  8
2
 10
-628.695672
 20
650.509459
 40
5.639303
 50
52.121121
 51
127.878879
  0
ARC
  8
2
 10
-618.308172
 20
635.373763
 40
20.775000
 50
90.000000
 51
109.471221
  0
LINE
  8
2
 10
-604.458172
 20
643.317394
 11
-604.458172
 21
654.960620
  0
LINE
  8
2
 10
-604.458172
 20
654.960620
 11
-606.808172
 21
656.317394
  0
LINE
  8
2
 10
-606.808172
 20
656.317394
 11
-618.308172
 21
656.317394
  0
LINE
  8
2
 10
-611.383172
 20
643.317394
 11
-611.383172
 21
654.960620
  0
ARC
  8
2
 10
-607.920672
 20
650.509459
 40
5.639303
 50
52.121121
 51
127.878879
  0
ARC
  8
2
 10
-618.308172
 20
635.373763
 40
20.775000
 50
70.528779
 51
90.000000
  0
LINE
  8
2
 10
-511.390672
 20
666.317394
 11
-510.308172
 21
665.234894
  0
LINE
  8
2
 10
-510.308172
 20
665.234894
 11
-510.308172
 21
656.317394
  0
LINE
  8
2
 62
2
 10
-511.390672
 20
666.317394
 11
-511.390672
 21
656.317394
  0
LINE
  8
2
 10
-511.390672
 20
666.317394
 11
-525.225672
 21
666.317394
  0
LINE
  8
2
 10
-525.225672
 20
666.317394
 11
-526.308172
 21
665.234894
  0
LINE
  8
2
 10
-526.308172
 20
665.234894
 11
-526.308172
 21
656.317394
  0
LINE
  8
2
 10
-526.308172
 20
665.234894
 11
-510.308172
 21
665.234894
  0
LINE
  8
2
 62
2
 10
-525.225672
 20
666.317394
 11
-525.225672
 21
656.317394
  0
LINE
  8
2
 10
-611.390672
 20
666.317394
 11
-610.308172
 21
665.234894
  0
LINE
  8
2
 10
-610.308172
 20
665.234894
 11
-610.308172
 21
656.317394
  0
LINE
  8
2
 62
2
 10
-611.390672
 20
666.317394
 11
-611.390672
 21
656.317394
  0
LINE
  8
2
 10
-611.390672
 20
666.317394
 11
-625.225672
 21
666.317394
  0
LINE
  8
2
 10
-625.225672
 20
666.317394
 11
-626.308172
 21
665.234894
  0
LINE
  8
2
 10
-626.308172
 20
665.234894
 11
-626.308172
 21
656.317394
  0
LINE
  8
2
 10
-626.308172
 20
665.234894
 11
-610.308172
 21
665.234894
  0
LINE
  8
2
 62
2
 10
-625.225672
 20
666.317394
 11
-625.225672
 21
656.317394
  0
LINE
  8
2
 10
-450.308172
 20
586.317394
 11
-445.308172
 21
586.317394
  0
LINE
  8
2
 10
-450.308172
 20
474.317394
 11
-445.308172
 21
474.317394
  0
LINE
  8
2
 10
-700.308172
 20
474.317394
 11
-705.308172
 21
474.317394
  0
LINE
  8
2
 10
-700.308172
 20
586.317394
 11
-705.308172
 21
586.317394
  0
LINE
  8
2
 10
-457.308172
 20
593.317394
 11
-457.308172
 21
598.317394
  0
LINE
  8
2
 10
-568.308172
 20
593.317394
 11
-568.308172
 21
598.317394
  0
LINE
  8
2
 10
-582.308172
 20
593.317394
 11
-582.308172
 21
598.317394
  0
LINE
  8
2
 10
-693.308172
 20
593.317394
 11
-693.308172
 21
598.317394
  0
LINE
  8
2
 10
-693.308172
 20
467.317394
 11
-693.308172
 21
462.317394
  0
LINE
  8
2
 10
-582.308172
 20
467.317394
 11
-582.308172
 21
462.317394
  0
LINE
  8
2
 10
-568.308172
 20
467.317394
 11
-568.308172
 21
462.317394
  0
LINE
  8
2
 10
-457.308172
 20
467.317394
 11
-457.308172
 21
462.317394
  0
ARC
  8
2
 10
-450.308172
 20
593.317394
 40
7.000000
 50
180.000000
 51
270.000000
  0
ARC
  8
2
 10
-445.308172
 20
584.317394
 40
2.000000
 50
0.000000
 51
90.000000
  0
ARC
  8
2
 10
-459.308172
 20
598.317394
 40
2.000000
 50
0.000000
 51
90.000000
  0
ARC
  8
2
 10
-575.308172
 20
593.317394
 40
7.000000
 50
180.000000
 51
360.000000
  0
ARC
  8
2
 10
-584.308172
 20
598.317394
 40
2.000000
 50
0.000000
 51
90.000000
  0
ARC
  8
2
 10
-566.308172
 20
598.317394
 40
2.000000
 50
90.000000
 51
180.000000
  0
ARC
  8
2
 10
-700.308172
 20
593.317394
 40
7.000000
 50
270.000000
 51
360.000000
  0
ARC
  8
2
 10
-691.308172
 20
598.317394
 40
2.000000
 50
90.000000
 51
180.000000
  0
ARC
  8
2
 10
-705.308172
 20
584.317394
 40
2.000000
 50
90.000000
 51
180.000000
  0
ARC
  8
2
 10
-700.308172
 20
467.317394
 40
7.000000
 50
0.000000
 51
90.000000
  0
ARC
  8
2
 10
-691.308172
 20
462.317394
 40
2.000000
 50
180.000000
 51
270.000000
  0
ARC
  8
2
 10
-705.308172
 20
476.317394
 40
2.000000
 50
180.000000
 51
270.000000
  0
ARC
  8
2
 10
-575.308172
 20
467.317394
 40
7.000000
 50
360.000000
 51
180.000000
  0
ARC
  8
2
 10
-584.308172
 20
462.317394
 40
2.000000
 50
270.000000
 51
360.000000
  0
ARC
  8
2
 10
-566.308172
 20
462.317394
 40
2.000000
 50
180.000000
 51
270.000000
  0
ARC
  8
2
 10
-450.308172
 20
467.317394
 40
7.000000
 50
90.000000
 51
180.000000
  0
ARC
  8
2
 10
-445.308172
 20
476.317394
 40
2.000000
 50
270.000000
 51
360.000000
  0
ARC
  8
2
 10
-459.308172
 20
462.317394
 40
2.000000
 50
270.000000
 51
360.000000
  0
LINE
  8
2
 10
-449.202158
 20
77.717394
 11
-698.347581
 21
77.717394
  0
LINE
  8
2
 10
-513.397161
 20
62.717394
 11
-706.808172
 21
62.717394
  0
LINE
  8
2
 10
-707.308172
 20
57.717394
 11
-707.308172
 21
62.717394
  0
LINE
  8
2
 10
-707.308172
 20
62.717394
 11
-703.046044
 21
74.427494
  0
LINE
  8
2
 10
-443.883955
 20
69.298629
 11
-444.221184
 21
73.153172
  0
LINE
  8
2
 10
-444.620502
 20
477.317394
 11
-444.620502
 21
583.317394
  0
LINE
  8
2
 10
-701.848618
 20
477.317394
 11
-701.848618
 21
583.317394
  0
ARC
  8
2
 10
-698.347581
 20
72.717394
 40
5.000000
 50
90.000000
 51
160.000000
  0
ARC
  8
2
 10
-449.202158
 20
72.717394
 40
5.000000
 50
5.000000
 51
90.000000
  0
LINE
  8
2
 10
-693.308172
 20
72.717394
 11
-693.308172
 21
63.217394
  0
LINE
  8
2
 10
-582.308172
 20
72.717394
 11
-582.308172
 21
63.217394
  0
LINE
  8
2
 10
-568.308172
 20
72.717394
 11
-568.308172
 21
63.217394
  0
LINE
  8
2
 10
-457.308172
 20
72.717394
 11
-457.308172
 21
71.933068
  0
ARC
  8
2
 10
-688.308172
 20
72.717394
 40
5.000000
 50
90.000000
 51
180.000000
  0
ARC
  8
2
 10
-587.308172
 20
72.717394
 40
5.000000
 50
360.000000
 51
90.000000
  0
ARC
  8
2
 10
-563.308172
 20
72.717394
 40
5.000000
 50
90.000000
 51
180.000000
  0
ARC
  8
2
 10
-462.308172
 20
72.717394
 40
5.000000
 50
0.000000
 51
90.000000
  0
ARC
  8
2
 10
-693.808172
 20
63.217394
 40
0.500000
 50
270.000000
 51
360.000000
  0
ARC
  8
2
 10
-581.808172
 20
63.217394
 40
0.500000
 50
180.000000
 51
270.000000
  0
ARC
  8
2
 10
-568.808172
 20
63.217394
 40
0.500000
 50
270.000000
 51
360.000000
  0
ARC
  8
2
 10
-706.808172
 20
62.217394
 40
0.500000
 50
90.000000
 51
180.000000
  0
LINE
  8
2
 10
-525.808172
 20
82.717394
 11
-610.808172
 21
82.717394
  0
LINE
  8
2
 10
-610.808172
 20
83.917394
 11
-610.808172
 21
80.717394
  0
LINE
  8
2
 10
-525.808172
 20
83.917394
 11
-525.808172
 21
80.717394
  0
ARC
  8
2
 10
-522.808172
 20
80.717394
 40
3.000000
 50
180.000000
 51
270.000000
  0
ARC
  8
2
 10
-613.808172
 20
80.717394
 40
3.000000
 50
270.000000
 51
360.000000
  0
LINE
  8
2
 10
-405.308172
 20
420.317394
 11
-789.308172
 21
420.317394
  0
LINE
  8
2
 10
-413.785054
 20
405.317394
 11
-780.828268
 21
405.317394
  0
LINE
  8
2
 10
-415.503804
 20
372.317394
 11
-758.704210
 21
372.317394
  0
ARC
  8
2
 10
-718.308172
 20
-42.282606
 40
45.000000
 50
96.908613
 51
270.000000
  0
LINE
  8
2
 10
-764.499765
 20
376.764479
 11
-771.554699
 21
403.093851
  0
ARC
  8
2
 10
-763.964728
 20
-0.431614
 40
21.000000
 50
94.000000
 51
170.024200
  0
ARC
  8
2
 10
-758.359183
 20
-76.282606
 40
21.000000
 50
198.428986
 51
270.000000
  0
ARC
  8
2
 10
-758.704210
 20
378.317394
 40
6.000000
 50
195.000000
 51
270.000000
  0
LINE
  8
2
 10
-407.406920
 20
418.421419
 11
-409.511926
 21
378.005317
  0
ARC
  8
2
 10
-415.503804
 20
378.317394
 40
6.000000
 50
270.000000
 51
357.018539
  0
ARC
  8
2
 10
-718.308172
 20
-42.282606
 40
53.842323
 50
95.267350
 51
271.641263
  0
LINE
  8
2
 10
-787.208842
 20
418.422066
 11
-786.820045
 21
411.003378
  0
ARC
  8
2
 10
-780.828268
 20
411.317394
 40
6.000000
 50
183.000000
 51
270.000000
  0
ARC
  8
2
 10
-774.452476
 20
402.317394
 40
3.000000
 50
15.000000
 51
90.000000
  0
ARC
  8
2
 10
-789.206101
 20
418.317394
 40
2.000000
 50
3.000000
 51
90.000000
  0
ARC
  8
2
 10
-789.308172
 20
422.317394
 40
2.000000
 50
180.000000
 51
270.000000
  0
ARC
  8
2
 10
-413.785054
 20
411.317394
 40
6.000000
 50
270.000000
 51
357.018539
  0
ARC
  8
2
 10
-405.409628
 20
418.317394
 40
2.000000
 50
90.000000
 51
177.018539
  0
ARC
  8
2
 10
-405.308172
 20
422.317394
 40
2.000000
 50
270.000000
 51
0.000000
  0
LINE
  8
2
 10
-447.325471
 20
338.317394
 11
-492.290873
 21
338.317394
  0
LINE
  8
2
 10
-452.706101
 20
325.317394
 11
-486.910243
 21
325.317394
  0
LINE
  8
2
 10
-495.245296
 20
340.796449
 11
-499.346208
 21
364.053875
  0
LINE
  8
2
 10
-444.371047
 20
340.796449
 11
-440.270136
 21
364.053875
  0
LINE
  8
2
 10
-450.708842
 20
327.212722
 11
-450.226201
 21
336.422066
  0
LINE
  8
2
 10
-488.907502
 20
327.212722
 11
-489.390143
 21
336.422066
  0
ARC
  8
2
 10
-447.325471
 20
341.317394
 40
3.000000
 50
270.000000
 51
350.000000
  0
ARC
  8
2
 10
-492.290873
 20
341.317394
 40
3.000000
 50
190.000000
 51
270.000000
  0
ARC
  8
2
 10
-448.228941
 20
336.317394
 40
2.000000
 50
90.000000
 51
177.000000
  0
ARC
  8
2
 10
-491.387402
 20
336.317394
 40
2.000000
 50
3.000000
 51
90.000000
  0
ARC
  8
2
 10
-452.706101
 20
327.317394
 40
2.000000
 50
270.000000
 51
357.000000
  0
ARC
  8
2
 10
-486.910243
 20
327.317394
 40
2.000000
 50
183.000000
 51
270.000000
  0
ARC
  8
2
 10
-430.422058
 20
362.317394
 40
10.000000
 50
90.000000
 51
170.000000
  0
ARC
  8
2
 10
-509.194285
 20
362.317394
 40
10.000000
 50
10.000000
 51
90.000000
  0
ARC
  8
2
 10
-611.308172
 20
-27.282606
 40
176.000000
 50
170.024200
 51
180.828003
  0
ARC
  8
2
 10
-611.308172
 20
-27.282606
 40
176.000000
 50
188.476216
 51
198.428986
  0
ARC
  8
2
 10
-782.308172
 20
-41.282606
 40
8.500000
 50
270.000000
 51
90.000000
  0
LINE
  8
2
 10
-782.308172
 20
-32.782606
 11
-784.290107
 21
-32.782606
  0
LINE
  8
2
 10
-782.308172
 20
-49.782606
 11
-782.418516
 21
-49.782606
  0
ARC
  8
2
 10
-784.290107
 20
-29.782606
 40
3.000000
 50
180.828003
 51
270.000000
  0
ARC
  8
2
 10
-782.418516
 20
-52.782606
 40
3.000000
 50
90.000000
 51
188.476216
  0
LINE
  8
2
 10
-659.808172
 20
22.717394
 11
-659.808172
 21
25.105457
  0
LINE
  8
2
 10
-676.808172
 20
22.717394
 11
-676.808172
 21
23.497140
  0
ARC
  8
2
 10
-668.308172
 20
22.717394
 40
8.500000
 50
180.000000
 51
360.000000
  0
LINE
  8
2
 10
-765.429614
 20
20.517231
 11
-680.017441
 21
26.489832
  0
ARC
  8
2
 10
-656.808172
 20
25.105457
 40
3.000000
 50
94.000000
 51
180.000000
  0
ARC
  8
2
 10
-679.808172
 20
23.497140
 40
3.000000
 50
0.000000
 51
94.000000
  0
LINE
  8
2
 10
-723.251067
 20
11.332350
 11
-673.420140
 21
15.926386
  0
LINE
  8
2
 10
-657.017441
 20
28.098149
 11
-547.432213
 21
35.761094
  0
LINE
  8
2
 10
-662.040762
 20
16.975479
 11
-553.823500
 21
26.952296
  0
LINE
  8
2
 10
-723.721045
 20
2.390661
 11
-556.444478
 21
22.658864
  0
ARC
  8
2
 10
-544.808172
 20
-94.282606
 40
3.000000
 50
270.000000
 51
323.537161
  0
LINE
  8
2
 10
-716.766045
 20
-96.102841
 11
-655.809075
 21
-94.356223
  0
LINE
  8
2
 10
-638.808172
 20
-93.869092
 11
-546.689784
 21
-91.229598
  0
LINE
  8
2
 10
-655.808172
 20
-93.282606
 11
-655.808172
 21
-94.282606
  0
LINE
  8
2
 10
-638.808172
 20
-93.282606
 11
-638.808172
 21
-94.282606
  0
ARC
  8
2
 10
-647.308172
 20
-93.282606
 40
8.500000
 50
0.000000
 51
180.000000
  0
LINE
  8
2
 10
-718.308172
 20
-87.282606
 11
-653.328969
 21
-87.282606
  0
LINE
  8
2
 10
-641.287374
 20
-87.282606
 11
-549.808172
 21
-87.282606
  0
LINE
  8
2
 10
-758.359183
 20
-97.282606
 11
-658.808172
 21
-97.282606
  0
LINE
  8
2
 10
-635.808172
 20
-97.282606
 11
-544.808172
 21
-97.282606
  0
ARC
  8
2
 10
-635.808172
 20
-94.282606
 40
3.000000
 50
180.000000
 51
270.000000
  0
ARC
  8
2
 10
-658.808172
 20
-94.282606
 40
3.000000
 50
270.000000
 51
0.000000
  0
LINE
  8
2
 10
-432.808172
 20
405.817394
 11
-432.808172
 21
419.817394
  0
LINE
  8
2
 10
-413.082902
 20
405.950381
 11
-413.082902
 21
419.817394
  0
ARC
  8
2
 10
-433.308172
 20
405.817394
 40
0.500000
 50
270.000000
 51
360.000000
  0
ARC
  8
2
 10
-432.308172
 20
419.817394
 40
0.500000
 50
90.000000
 51
180.000000
  0
ARC
  8
2
 10
-413.582902
 20
419.817394
 40
0.500000
 50
0.000000
 51
90.000000
  0
ARC
  8
2
 10
-412.582902
 20
405.950381
 40
0.500000
 50
180.000000
 51
282.625246
  0
LINE
  8
2
 10
152.191828
 20
37.717394
 11
152.191828
 21
9.717394
  0
LINE
  8
2
 10
116.191828
 20
37.717394
 11
116.191828
 21
9.717394
  0
LINE
  8
2
 10
102.191828
 20
37.717394
 11
102.191828
 21
9.717394
  0
LINE
  8
2
 10
66.191828
 20
37.717394
 11
66.191828
 21
9.717394
  0
ARC
  8
2
 10
134.191828
 20
37.717394
 40
18.000000
 50
0.000000
 51
180.000000
  0
ARC
  8
2
 10
84.191828
 20
37.717394
 40
18.000000
 50
0.000000
 51
180.000000
  0
ARC
  8
2
 10
154.191828
 20
9.717394
 40
2.000000
 50
180.000000
 51
270.000000
  0
ARC
  8
2
 10
114.191828
 20
9.717394
 40
2.000000
 50
270.000000
 51
0.000000
  0
ARC
  8
2
 10
104.191828
 20
9.717394
 40
2.000000
 50
180.000000
 51
270.000000
  0
ARC
  8
2
 10
64.191828
 20
9.717394
 40
2.000000
 50
270.000000
 51
360.000000
  0
LINE
  8
2
 10
209.191828
 20
12.717394
 11
209.191828
 21
-27.282606
  0
ARC
  8
2
 10
199.191828
 20
12.717394
 40
10.000000
 50
0.000000
 51
90.000000
  0
ARC
  8
2
 10
199.191828
 20
-2.282606
 40
10.000000
 50
0.000000
 51
90.000000
  0
LINE
  8
2
 10
103.691828
 20
0.717394
 11
114.691828
 21
0.717394
  0
LINE
  8
2
 10
189.691828
 20
0.717394
 11
207.129082
 21
0.717394
  0
LINE
  8
2
 10
189.191828
 20
7.217394
 11
189.191828
 21
1.217394
  0
LINE
  8
2
 10
115.191828
 20
5.717394
 11
115.191828
 21
1.217394
  0
LINE
  8
2
 10
103.191828
 20
5.717394
 11
103.191828
 21
1.217394
  0
ARC
  8
2
 10
114.691828
 20
1.217394
 40
0.500000
 50
270.000000
 51
360.000000
  0
ARC
  8
2
 10
103.691828
 20
1.217394
 40
0.500000
 50
180.000000
 51
270.000000
  0
ARC
  8
2
 10
117.191828
 20
5.717394
 40
2.000000
 50
90.000000
 51
180.000000
  0
ARC
  8
2
 10
101.191828
 20
5.717394
 40
2.000000
 50
0.000000
 51
90.000000
  0
ARC
  8
2
 10
189.691828
 20
1.217394
 40
0.500000
 50
180.000000
 51
270.000000
  0
ARC
  8
2
 10
188.691828
 20
7.217394
 40
0.500000
 50
0.000000
 51
90.000000
  0
ARC
  8
2
 10
207.129082
 20
-1.282606
 40
2.000000
 50
7.180756
 51
90.000000
  0
LINE
  8
2
 10
21.191828
 20
-99.282606
 11
21.191828
 21
43.733685
  0
LINE
  8
2
 10
1.191828
 20
46.733685
 11
18.191828
 21
46.733685
  0
LINE
  8
2
 10
1.191828
 20
-101.282606
 11
19.191828
 21
-101.282606
  0
ARC
  8
2
 10
18.191828
 20
43.733685
 40
3.000000
 50
0.000000
 51
90.000000
  0
ARC
  8
2
 10
26.191828
 20
12.717394
 40
5.000000
 50
180.000000
 51
270.000000
  0
ARC
  8
2
 10
19.191828
 20
-99.282606
 40
2.000000
 50
270.000000
 51
360.000000
  0
LINE
  8
2
 10
179.191828
 20
62.717394
 11
179.191828
 21
12.717394
  0
LINE
  8
2
 10
39.191828
 20
62.717394
 11
39.191828
 21
25.717394
  0
ARC
  8
2
 10
184.191828
 20
12.717394
 40
5.000000
 50
180.000000
 51
270.000000
  0
LINE
  8
2
 10
24.191828
 20
20.717394
 11
34.191828
 21
20.717394
  0
ARC
  8
2
 10
34.191828
 20
25.717394
 40
5.000000
 50
270.000000
 51
360.000000
  0
ARC
  8
2
 10
24.191828
 20
23.717394
 40
3.000000
 50
180.000000
 51
270.000000
  0
LINE
  8
2
 10
21.191828
 20
31.877806
 11
36.191828
 21
31.877806
  0
ARC
  8
2
 10
36.191828
 20
34.877806
 40
3.000000
 50
270.000000
 51
360.000000
  0
ARC
  8
2
 10
10.191828
 20
-102.282606
 40
1.000000
 50
0.000000
 51
90.000000
  0
LINE
  8
2
 10
222.191828
 20
-27.282606
 11
222.191828
 21
-61.282606
  0
LINE
  8
2
 10
211.192867
 20
-62.282606
 11
221.191828
 21
-62.282606
  0
ARC
  8
2
 10
221.191828
 20
-61.282606
 40
1.000000
 50
270.000000
 51
360.000000
  0
LINE
  8
2
 10
209.191828
 20
-27.282606
 11
207.191828
 21
-103.282606
  0
ARC
  8
2
 10
211.192867
 20
-65.282606
 40
3.000000
 50
90.000000
 51
178.492564
  0
LINE
  8
2
 10
217.191828
 20
-27.282606
 11
217.191828
 21
-59.282606
  0
ARC
  8
2
 10
214.191828
 20
-59.282606
 40
3.000000
 50
270.000000
 51
360.000000
  0
LINE
  8
2
 10
222.191828
 20
-35.282606
 11
235.191828
 21
-35.282606
  0
LINE
  8
2
 10
222.191828
 20
-47.282606
 11
233.835055
 21
-47.282606
  0
ARC
  8
2
 10
221.246670
 20
-41.282606
 40
13.945159
 50
334.516139
 51
25.483861
  0
LINE
  8
2
 10
222.191828
 20
-59.282606
 11
235.191828
 21
-59.282606
  0
LINE
  8
2
 10
235.191828
 20
-59.282606
 11
235.191828
 21
-35.282606
  0
ARC
  8
2
 10
221.246670
 20
-53.282606
 40
13.945159
 50
334.516139
 51
25.483861
  0
LINE
  8
2
 10
245.191828
 20
-54.200106
 11
244.109328
 21
-55.282606
  0
LINE
  8
2
 10
244.109328
 20
-55.282606
 11
235.191828
 21
-55.282606
  0
LINE
  8
2
 62
2
 10
245.191828
 20
-54.200106
 11
235.191828
 21
-54.200106
  0
LINE
  8
2
 10
245.191828
 20
-54.200106
 11
245.191828
 21
-40.365106
  0
LINE
  8
2
 10
245.191828
 20
-40.365106
 11
244.109328
 21
-39.282606
  0
LINE
  8
2
 10
244.109328
 20
-39.282606
 11
235.191828
 21
-39.282606
  0
LINE
  8
2
 10
244.109328
 20
-39.282606
 11
244.109328
 21
-55.282606
  0
LINE
  8
2
 62
2
 10
245.191828
 20
-40.365106
 11
235.191828
 21
-40.365106
  0
LINE
  8
2
 10
39.691828
 20
62.717394
 11
178.691828
 21
62.717394
  0
LINE
  8
2
 10
45.085814
 20
77.717394
 11
173.297842
 21
77.717394
  0
LINE
  8
2
 10
66.691828
 20
82.717394
 11
151.691828
 21
82.717394
  0
LINE
  8
2
 10
179.191828
 20
62.717394
 11
178.278816
 21
73.153172
  0
LINE
  8
2
 10
39.191828
 20
62.717394
 11
40.104841
 21
73.153172
  0
ARC
  8
2
 10
173.297842
 20
72.717394
 40
5.000000
 50
5.000000
 51
90.000000
  0
ARC
  8
2
 10
45.085814
 20
72.717394
 40
5.000000
 50
90.000000
 51
175.000000
  0
LINE
  8
2
 10
151.691828
 20
83.917394
 11
151.691828
 21
80.717394
  0
LINE
  8
2
 10
66.691828
 20
83.917394
 11
66.691828
 21
80.717394
  0
ARC
  8
2
 10
154.691828
 20
80.717394
 40
3.000000
 50
180.000000
 51
270.000000
  0
ARC
  8
2
 10
63.691828
 20
80.717394
 40
3.000000
 50
270.000000
 51
360.000000
  0
LINE
  8
2
 10
165.191828
 20
72.717394
 11
165.191828
 21
63.217394
  0
LINE
  8
2
 10
53.191828
 20
72.717394
 11
53.191828
 21
63.217394
  0
ARC
  8
2
 10
160.191828
 20
72.717394
 40
5.000000
 50
360.000000
 51
90.000000
  0
ARC
  8
2
 10
58.191828
 20
72.717394
 40
5.000000
 50
90.000000
 51
180.000000
  0
ARC
  8
2
 10
165.691828
 20
63.217394
 40
0.500000
 50
180.000000
 51
270.000000
  0
ARC
  8
2
 10
52.691828
 20
63.217394
 40
0.500000
 50
270.000000
 51
360.000000
  0
ARC
  8
2
 10
178.691828
 20
62.217394
 40
0.500000
 50
0.000000
 51
90.000000
  0
ARC
  8
2
 10
39.691828
 20
62.217394
 40
0.500000
 50
90.000000
 51
180.000000
  0
LINE
  8
2
 10
-690.308172
 20
599.005394
 11
-582.430232
 21
599.005394
  0
LINE
  8
2
 10
-568.186111
 20
599.005394
 11
-460.308172
 21
599.005394
  0
LINE
  8
2
 10
-690.308172
 20
461.629394
 11
-582.430232
 21
461.629394
  0
LINE
  8
2
 10
-568.186111
 20
461.629394
 11
-460.308172
 21
461.629394
  0
LINE
  8
2
 10
-0.808172
 20
-99.282606
 11
-0.808172
 21
44.733685
  0
LINE
  8
2
 10
-15.808172
 20
-90.802702
 11
-15.808172
 21
36.253780
  0
LINE
  8
2
 10
-48.808172
 20
-82.678644
 11
-48.808172
 21
27.021761
  0
ARC
  8
2
 10
1.191828
 20
44.733685
 40
2.000000
 50
90.000000
 51
180.000000
  0
ARC
  8
2
 10
1.191828
 20
-99.282606
 40
2.000000
 50
180.000000
 51
270.000000
  0
LINE
  8
2
 10
-43.120249
 20
33.013640
 11
-18.592622
 21
34.291120
  0
LINE
  8
2
 10
-2.703500
 20
42.634355
 11
-10.122187
 21
42.245558
  0
ARC
  8
2
 10
-42.808172
 20
27.021761
 40
6.000000
 50
92.981461
 51
180.000000
  0
ARC
  8
2
 10
-9.808172
 20
36.253780
 40
6.000000
 50
93.000000
 51
180.000000
  0
ARC
  8
2
 10
-18.748660
 20
37.287059
 40
3.000000
 50
272.981461
 51
353.407404
  0
ARC
  8
2
 10
-2.808172
 20
44.631614
 40
2.000000
 50
273.000000
 51
360.000000
  0
LINE
  8
2
 10
-44.361086
 20
-88.474199
 11
-17.916712
 21
-95.559948
  0
LINE
  8
2
 10
-2.703500
 20
-97.183276
 11
-10.122187
 21
-96.794480
  0
ARC
  8
2
 10
-42.808172
 20
-82.678644
 40
6.000000
 50
180.000000
 51
255.000000
  0
ARC
  8
2
 10
-9.808172
 20
-90.802702
 40
6.000000
 50
180.000000
 51
267.000000
  0
ARC
  8
2
 10
-2.808172
 20
-99.180536
 40
2.000000
 50
0.000000
 51
87.000000
  0
ARC
  8
2
 10
-8.146559
 20
-59.097241
 40
37.748972
 50
255.000000
 51
267.000000
  0
LINE
  8
2
 10
-17.701700
 20
-88.926612
 11
-43.124835
 21
-87.582976
  0
ARC
  8
2
 10
-42.808172
 20
-81.591338
 40
6.000000
 50
180.000000
 51
266.974679
  0
LINE
  8
2
 10
-15.808172
 20
20.217394
 11
-0.808172
 21
20.217394
  0
LINE
  8
2
 10
-15.808172
 20
-76.782606
 11
-0.808172
 21
-76.782606
  0
LINE
  8
2
 10
-11.836376
 20
-96.449506
 11
-0.808172
 21
-96.449506
  0
ARC
  8
2
 10
-17.807255
 20
-90.923825
 40
2.000000
 50
0.867510
 51
86.974679
  0
LINE
  8
2
 10
-14.459611
 20
40.043782
 11
-0.808172
 21
40.043782
  0
LINE
  8
2
 10
-95.808172
 20
-44.384677
 11
-95.808172
 21
-10.180536
  0
LINE
  8
2
 10
-82.808172
 20
-49.765307
 11
-82.808172
 21
-4.799905
  0
LINE
  8
2
 10
-80.329116
 20
-1.845482
 11
-57.071690
 21
2.255430
  0
LINE
  8
2
 10
-80.329116
 20
-52.719731
 11
-57.071690
 21
-56.820643
  0
LINE
  8
2
 10
-93.912844
 20
-8.183276
 11
-84.703500
 21
-7.700635
  0
LINE
  8
2
 10
-93.912844
 20
-46.381936
 11
-84.703500
 21
-46.864578
  0
ARC
  8
2
 10
-79.808172
 20
-4.799905
 40
3.000000
 50
100.000000
 51
180.000000
  0
ARC
  8
2
 10
-79.808172
 20
-49.765307
 40
3.000000
 50
180.000000
 51
260.000000
  0
ARC
  8
2
 10
-93.808172
 20
-10.180536
 40
2.000000
 50
93.000000
 51
180.000000
  0
ARC
  8
2
 10
-93.808172
 20
-44.384677
 40
2.000000
 50
180.000000
 51
267.000000
  0
ARC
  8
2
 10
-84.808172
 20
-48.861837
 40
2.000000
 50
0.000000
 51
87.000000
  0
ARC
  8
2
 10
-84.808172
 20
-5.703376
 40
2.000000
 50
273.000000
 51
360.000000
  0
LINE
  8
2
 10
-524.808172
 20
405.317394
 11
-524.808172
 21
420.317394
  0
LINE
  8
2
 10
-541.808172
 20
405.317394
 11
-541.808172
 21
420.317394
  0
LINE
  8
2
 10
-659.808172
 20
405.317394
 11
-659.808172
 21
420.317394
  0
LINE
  8
2
 10
-676.808172
 20
405.317394
 11
-676.808172
 21
420.317394
  0
LINE
  8
2
 10
-540.496406
 20
405.317394
 11
-536.922757
 21
372.317394
  0
LINE
  8
2
 10
-527.960860
 20
372.317394
 11
-525.411698
 21
405.317394
  0
LINE
  8
2
 10
-673.420140
 20
401.141082
 11
-673.420140
 21
405.317394
  0
LINE
  8
2
 10
-662.040762
 20
401.141082
 11
-662.040762
 21
405.317394
  0
ARC
  8
2
 10
-667.730451
 20
401.141082
 40
5.689689
 50
180.000000
 51
360.000000
  0
ARC
  8
2
 10
-641.308172
 20
-122.282606
 40
3.000000
 50
0.000000
 51
90.000000
  0
ARC
  8
2
 10
-429.308172
 20
-116.282606
 40
3.000000
 50
270.000000
 51
337.371859
  0
LINE
  8
2
 10
14.191828
 20
-119.282606
 11
204.191828
 21
-119.282606
  0
LINE
  8
2
 10
11.191828
 20
-103.282606
 11
11.191828
 21
-116.282606
  0
LINE
  8
2
 10
207.191828
 20
-103.282606
 11
207.191828
 21
-116.282606
  0
LINE
  8
2
 10
39.191828
 20
-125.282606
 11
179.191828
 21
-125.282606
  0
LINE
  8
2
 10
39.191828
 20
-122.282606
 11
39.191828
 21
-125.282606
  0
LINE
  8
2
 10
179.191828
 20
-122.282606
 11
179.191828
 21
-125.282606
  0
ARC
  8
2
 10
182.191828
 20
-122.282606
 40
3.000000
 50
90.000000
 51
180.000000
  0
ARC
  8
2
 10
36.191828
 20
-122.282606
 40
3.000000
 50
0.000000
 51
90.000000
  0
ARC
  8
2
 10
204.191828
 20
-116.282606
 40
3.000000
 50
270.000000
 51
360.000000
  0
ARC
  8
2
 10
14.191828
 20
-116.282606
 40
3.000000
 50
180.000000
 51
270.000000
  0
LINE
  8
2
 10
188.191828
 20
-110.282606
 11
206.691828
 21
-110.282606
  0
LINE
  8
2
 10
11.691828
 20
-110.282606
 11
26.191828
 21
-110.282606
  0
LINE
  8
2
 10
102.191828
 20
-110.282606
 11
116.191828
 21
-110.282606
  0
LINE
  8
2
 10
187.691828
 20
-110.782606
 11
187.691828
 21
-118.282606
  0
LINE
  8
2
 10
26.691828
 20
-110.782606
 11
26.691828
 21
-118.282606
  0
LINE
  8
2
 10
101.691828
 20
-110.782606
 11
101.691828
 21
-118.282606
  0
LINE
  8
2
 10
116.691828
 20
-110.782606
 11
116.691828
 21
-118.282606
  0
ARC
  8
2
 10
102.191828
 20
-110.782606
 40
0.500000
 50
90.000000
 51
180.000000
  0
ARC
  8
2
 10
116.191828
 20
-110.782606
 40
0.500000
 50
360.000000
 51
90.000000
  0
ARC
  8
2
 10
188.191828
 20
-110.782606
 40
0.500000
 50
90.000000
 51
180.000000
  0
ARC
  8
2
 10
26.191828
 20
-110.782606
 40
0.500000
 50
0.000000
 51
90.000000
  0
ARC
  8
2
 10
206.691828
 20
-109.782606
 40
0.500000
 50
270.000000
 51
0.000000
  0
ARC
  8
2
 10
11.691828
 20
-109.782606
 40
0.500000
 50
180.000000
 51
270.000000
  0
ARC
  8
2
 10
186.691828
 20
-118.282606
 40
1.000000
 50
270.000000
 51
360.000000
  0
ARC
  8
2
 10
27.691828
 20
-118.282606
 40
1.000000
 50
180.000000
 51
270.000000
  0
ARC
  8
2
 10
100.691828
 20
-118.282606
 40
1.000000
 50
270.000000
 51
360.000000
  0
ARC
  8
2
 10
117.691828
 20
-118.282606
 40
1.000000
 50
180.000000
 51
270.000000
  0
LINE
  8
2
 10
-650.308172
 20
-110.282606
 11
-664.808172
 21
-110.282606
  0
LINE
  8
2
 10
-649.808172
 20
-110.782606
 11
-649.808172
 21
-118.282606
  0
LINE
  8
2
 10
-525.808172
 20
-110.782606
 11
-525.808172
 21
-118.282606
  0
ARC
  8
2
 10
-525.308172
 20
-110.782606
 40
0.500000
 50
114.645458
 51
180.000000
  0
ARC
  8
2
 10
-526.808172
 20
-118.282606
 40
1.000000
 50
270.000000
 51
0.000000
  0
ARC
  8
2
 10
-648.808172
 20
-118.282606
 40
1.000000
 50
180.000000
 51
270.000000
  0
ARC
  8
2
 10
-664.808172
 20
-109.782606
 40
0.500000
 50
180.000000
 51
270.000000
  0
ARC
  8
2
 10
-650.308172
 20
-110.782606
 40
0.500000
 50
0.000000
 51
90.000000
  0
CIRCLE
  8
2
 10
-469.808172
 20
-27.282606
 40
32.500000
  0
LINE
  8
2
  6
CENTER
 62
2
 10
-568.308172
 20
667.565921
 11
-568.308172
 21
421.320014
  0
LINE
  8
2
  6
CENTER
 62
2
 10
-801.001720
 20
530.317394
 11
-346.360754
 21
530.317394
  0
LINE
  8
2
  6
CENTER
 62
2
 10
-434.308172
 20
521.774170
 11
-434.308172
 21
538.860618
  0
LINE
  8
2
  6
CENTER
 62
2
 10
-438.308172
 20
607.774170
 11
-438.308172
 21
624.860618
  0
LINE
  8
2
  6
CENTER
 62
2
 10
-430.490902
 20
616.317394
 11
-446.851396
 21
616.317394
  0
LINE
  8
2
  6
CENTER
 62
2
 10
-434.308172
 20
436.774170
 11
-434.308172
 21
453.860618
  0
LINE
  8
2
  6
CENTER
 62
2
 10
-425.764948
 20
445.317394
 11
-442.851396
 21
445.317394
  0
LINE
  8
2
  6
CENTER
 62
2
 10
-505.308172
 20
611.774170
 11
-505.308172
 21
628.860618
  0
LINE
  8
2
  6
CENTER
 62
2
 10
-496.764948
 20
620.317394
 11
-513.851396
 21
620.317394
  0
LINE
  8
2
  6
CENTER
 62
2
 10
-652.308172
 20
611.774170
 11
-652.308172
 21
627.664827
  0
LINE
  8
2
  6
CENTER
 62
2
 10
-643.764948
 20
620.317394
 11
-660.851396
 21
620.317394
  0
LINE
  8
2
  6
CENTER
 62
2
 10
-777.308172
 20
607.774170
 11
-777.308172
 21
624.860618
  0
LINE
  8
2
  6
CENTER
 62
2
 10
-768.764948
 20
616.317394
 11
-785.851396
 21
616.317394
  0
LINE
  8
2
  6
CENTER
 62
2
 10
-782.308172
 20
521.774170
 11
-782.308172
 21
538.860618
  0
LINE
  8
2
  6
CENTER
 62
2
 10
-782.308172
 20
442.774170
 11
-782.308172
 21
459.860618
  0
LINE
  8
2
  6
CENTER
 62
2
 10
-773.764948
 20
451.317394
 11
-790.851396
 21
451.317394
  0
LINE
  8
2
  6
CENTER
 62
2
 10
-652.308172
 20
436.774170
 11
-652.308172
 21
453.860618
  0
LINE
  8
2
  6
CENTER
 62
2
 10
-643.764948
 20
445.317394
 11
-660.851396
 21
445.317394
  0
LINE
  8
2
  6
CENTER
 62
2
 10
-505.308172
 20
436.774170
 11
-505.308172
 21
453.860618
  0
LINE
  8
2
  6
CENTER
 62
2
 10
-496.764948
 20
445.317394
 11
-513.851396
 21
445.317394
  0
LINE
  8
2
  6
CENTER
 62
2
 10
-455.372567
 20
555.317394
 11
-421.172755
 21
555.317394
  0
LINE
  8
2
  6
CENTER
 62
2
 10
-455.372567
 20
505.317394
 11
-421.172755
 21
505.317394
  0
LINE
  8
2
  6
CENTER
 62
2
 10
-469.808172
 20
642.158753
 11
-469.808172
 21
267.576985
  0
LINE
  8
2
  6
CENTER
 62
2
 10
-618.308172
 20
675.890628
 11
-618.308172
 21
621.443369
  0
LINE
  8
2
  6
CENTER
 62
2
 10
-518.308172
 20
675.890628
 11
-518.308172
 21
621.443369
  0
LINE
  8
2
  6
CENTER
 62
2
 10
-450.308172
 20
584.705988
 11
-450.308172
 21
601.928800
  0
LINE
  8
2
  6
CENTER
 62
2
 10
-441.696766
 20
593.317394
 11
-458.919578
 21
593.317394
  0
LINE
  8
2
  6
CENTER
 62
2
 10
-450.308172
 20
475.928800
 11
-450.308172
 21
458.705988
  0
LINE
  8
2
  6
CENTER
 62
2
 10
-441.696766
 20
467.317394
 11
-458.919578
 21
467.317394
  0
LINE
  8
2
  6
CENTER
 62
2
 10
-700.308172
 20
584.705988
 11
-700.308172
 21
601.928800
  0
LINE
  8
2
  6
CENTER
 62
2
 10
-708.919578
 20
593.317394
 11
-691.696766
 21
593.317394
  0
LINE
  8
2
  6
CENTER
 62
2
 10
-700.308172
 20
475.928800
 11
-700.308172
 21
458.705988
  0
LINE
  8
2
  6
CENTER
 62
2
 10
-708.919578
 20
467.317394
 11
-691.696766
 21
467.317394
  0
LINE
  8
2
  6
CENTER
 62
2
 10
-575.308172
 20
584.705988
 11
-575.308172
 21
601.928800
  0
LINE
  8
2
  6
CENTER
 62
2
 10
-566.696766
 20
593.317394
 11
-583.919578
 21
593.317394
  0
LINE
  8
2
  6
CENTER
 62
2
 10
-575.308172
 20
475.928800
 11
-575.308172
 21
458.705988
  0
LINE
  8
2
  6
CENTER
 62
2
 10
-566.696766
 20
467.317394
 11
-583.919578
 21
467.317394
  0
LINE
  8
2
  6
CENTER
 62
2
 10
-808.540725
 20
-27.282606
 11
-351.571611
 21
-27.282606
  0
LINE
  8
2
  6
CENTER
 62
2
 10
-469.808172
 20
92.578583
 11
-469.808172
 21
-140.622550
  0
LINE
  8
2
  6
CENTER
 62
2
 10
58.594016
 20
37.717394
 11
161.464753
 21
37.717394
  0
LINE
  8
2
  6
CENTER
 62
2
 10
134.191828
 20
60.853641
 11
134.191828
 21
-1.015773
  0
LINE
  8
2
  6
CENTER
 62
2
 10
84.191828
 20
60.853641
 11
84.191828
 21
-1.015773
  0
LINE
  8
2
  6
CENTER
 62
2
 10
-158.507644
 20
-27.282606
 11
9.191828
 21
-27.282606
  0
LINE
  8
2
  6
CENTER
 62
2
 10
-678.124282
 20
22.717394
 11
-657.852310
 21
22.717394
  0
LINE
  8
2
  6
CENTER
 62
2
 10
-668.308172
 20
34.650302
 11
-668.308172
 21
10.924060
  0
LINE
  8
2
  6
CENTER
 62
2
 10
-794.847854
 20
-41.282606
 11
-770.221206
 21
-41.282606
  0
LINE
  8
2
  6
CENTER
 62
2
 10
-782.308172
 20
-29.512845
 11
-782.308172
 21
-54.613004
  0
LINE
  8
2
  6
CENTER
 62
2
 10
-647.308172
 20
-79.713102
 11
-647.308172
 21
-107.654721
  0
LINE
  8
2
  6
CENTER
 62
2
 10
-658.927597
 20
-93.282606
 11
-634.300918
 21
-93.282606
  0
LINE
  8
2
  6
CENTER
 62
2
 10
-700.308172
 20
80.377215
 11
-700.308172
 21
51.243853
  0
LINE
  8
2
  6
CENTER
 62
2
 10
-575.308172
 20
80.377215
 11
-575.308172
 21
51.243853
  0
LINE
  8
2
  6
CENTER
 62
2
 10
-668.308172
 20
397.165927
 11
-668.308172
 21
434.163173
  0
LINE
  8
2
  6
CENTER
 62
2
 10
-533.308172
 20
397.165927
 11
-533.308172
 21
434.163173
  0
LINE
  8
2
  6
CENTER
 62
2
 10
-424.308172
 20
397.165927
 11
-424.308172
 21
434.163173
  0
LINE
  8
2
  6
CENTER
 62
2
 10
195.191828
 20
13.759158
 11
195.191828
 21
-6.594419
  0
LINE
  8
2
  6
CENTER
 62
2
 10
184.698197
 20
-47.282606
 11
222.191828
 21
-47.282606
  0
LINE
  8
2
  6
CENTER
 62
2
 10
233.835055
 20
-47.282606
 11
257.088730
 21
-47.282606
  0
LINE
  8
2
  6
CENTER
 62
2
 10
172.191828
 20
82.405581
 11
172.191828
 21
53.659549
  0
LINE
  8
2
  6
CENTER
 62
2
 10
46.191828
 20
82.405581
 11
46.191828
 21
53.659549
  0
LINE
  8
2
  6
CENTER
 62
2
 10
-25.669662
 20
28.717394
 11
14.893128
 21
28.717394
  0
LINE
  8
2
  6
CENTER
 62
2
 10
-25.669662
 20
-85.282606
 11
14.893128
 21
-85.282606
  0
LINE
  8
2
  6
CENTER
 62
2
 10
19.191828
 20
-99.356748
 11
19.191828
 21
-124.259458
  0
LINE
  8
2
  6
CENTER
 62
2
 10
195.191828
 20
-99.356748
 11
195.191828
 21
-124.259458
  0
LINE
  8
2
  6
CENTER
 62
2
 10
-657.308172
 20
-99.598661
 11
-657.308172
 21
-123.817777
  0
LINE
  8
2
  6
CENTER
 62
2
 10
-518.308172
 20
-101.282606
 11
-518.308172
 21
-123.817777
  0
ARC
  8
2
 10
-469.808172
 20
-27.282606
 40
22.200000
 50
20.571635
 51
163.000000
  0
ARC
  8
2
 10
-465.908172
 20
-27.282606
 40
18.200000
 50
25.014065
 51
166.591995
  0
LINE
  8
2
 10
-451.698126
 20
-20.198598
 11
-449.415259
 21
-19.586905
  0
LINE
  8
2
 10
-449.023786
 20
-19.482010
 11
-446.413575
 21
-18.782606
  0
LINE
  8
2
 10
-447.608172
 20
-27.282606
 11
-451.698126
 21
-20.198598
  0
LINE
  8
2
 10
-447.608172
 20
-27.282606
 11
-446.413575
 21
-18.782606
  0
LINE
  8
2
 10
-483.612103
 20
-23.062321
 11
-491.038137
 21
-20.791955
  0
CIRCLE
  8
2
 10
-505.308172
 20
445.317394
 40
5.000000
  0
CIRCLE
  8
2
 10
-505.308172
 20
445.317394
 40
4.307180
  0
CIRCLE
  8
2
 10
-652.308172
 20
445.317394
 40
5.000000
  0
CIRCLE
  8
2
 10
-652.308172
 20
445.317394
 40
4.307180
  0
CIRCLE
  8
2
 10
-434.308172
 20
445.317394
 40
5.000000
  0
CIRCLE
  8
2
 10
-434.308172
 20
445.317394
 40
4.307180
  0
CIRCLE
  8
2
 10
-434.308172
 20
530.317394
 40
5.000000
  0
CIRCLE
  8
2
 10
-434.308172
 20
530.317394
 40
4.307180
  0
CIRCLE
  8
2
 10
-438.308172
 20
616.317394
 40
5.000000
  0
CIRCLE
  8
2
 10
-438.308172
 20
616.317394
 40
4.307180
  0
CIRCLE
  8
2
 10
-505.308172
 20
620.317394
 40
5.000000
  0
CIRCLE
  8
2
 10
-505.308172
 20
620.317394
 40
4.307180
  0
CIRCLE
  8
2
 10
-652.308172
 20
620.317394
 40
5.000000
  0
CIRCLE
  8
2
 10
-652.308172
 20
620.317394
 40
4.307180
  0
CIRCLE
  8
2
 10
-777.308172
 20
616.317394
 40
5.000000
  0
CIRCLE
  8
2
 10
-777.308172
 20
616.317394
 40
4.307180
  0
CIRCLE
  8
2
 10
-782.308172
 20
530.317394
 40
5.000000
  0
CIRCLE
  8
2
 10
-782.308172
 20
530.317394
 40
4.307180
  0
CIRCLE
  8
2
 10
-782.308172
 20
451.317394
 40
5.000000
  0
CIRCLE
  8
2
 10
-782.308172
 20
451.317394
 40
4.307180
  0
CIRCLE
  8
2
 10
-450.308172
 20
467.317394
 40
5.750000
  0
CIRCLE
  8
2
 10
-450.308172
 20
467.317394
 40
5.250000
  0
CIRCLE
  8
2
 10
-450.308172
 20
593.317394
 40
5.750000
  0
CIRCLE
  8
2
 10
-450.308172
 20
593.317394
 40
5.250000
  0
CIRCLE
  8
2
 10
-575.308172
 20
467.317394
 40
5.750000
  0
CIRCLE
  8
2
 10
-575.308172
 20
467.317394
 40
5.250000
  0
CIRCLE
  8
2
 10
-575.308172
 20
593.317394
 40
5.750000
  0
CIRCLE
  8
2
 10
-575.308172
 20
593.317394
 40
5.250000
  0
CIRCLE
  8
2
 10
-700.308172
 20
467.317394
 40
5.750000
  0
CIRCLE
  8
2
 10
-700.308172
 20
467.317394
 40
5.250000
  0
CIRCLE
  8
2
 10
-700.308172
 20
593.317394
 40
5.750000
  0
CIRCLE
  8
2
 10
-700.308172
 20
593.317394
 40
5.250000
  0
LINE
  8
2
 10
-581.058172
 20
64.217394
 11
-581.058172
 21
62.717394
  0
LINE
  8
2
 10
-569.558172
 20
64.217394
 11
-569.558172
 21
62.717394
  0
LINE
  8
2
 10
-569.558172
 20
64.217394
 11
-581.058172
 21
64.217394
  0
LINE
  8
2
 10
-580.558172
 20
65.744410
 11
-580.558172
 21
64.217394
  0
LINE
  8
2
 10
-570.058172
 20
65.744410
 11
-570.058172
 21
64.217394
  0
ARC
  8
2
 10
-575.308172
 20
54.117394
 40
14.000000
 50
73.927141
 51
106.072859
  0
ARC
  8
2
 10
-571.958172
 20
65.744410
 40
1.900000
 50
0.000000
 51
73.927141
  0
ARC
  8
2
 10
-578.658172
 20
65.744410
 40
1.900000
 50
106.072859
 51
180.000000
  0
LINE
  8
2
 10
-706.058172
 20
64.217394
 11
-706.058172
 21
62.717394
  0
LINE
  8
2
 10
-694.558172
 20
64.217394
 11
-694.558172
 21
62.717394
  0
LINE
  8
2
 10
-694.558172
 20
64.217394
 11
-706.058172
 21
64.217394
  0
LINE
  8
2
 10
-705.558172
 20
65.744410
 11
-705.558172
 21
64.217394
  0
LINE
  8
2
 10
-695.058172
 20
65.744410
 11
-695.058172
 21
64.217394
  0
ARC
  8
2
 10
-700.308172
 20
54.117394
 40
14.000000
 50
73.927141
 51
106.072859
  0
ARC
  8
2
 10
-696.958172
 20
65.744410
 40
1.900000
 50
0.000000
 51
73.927141
  0
ARC
  8
2
 10
-703.658172
 20
65.744410
 40
1.900000
 50
106.072859
 51
180.000000
  0
LINE
  8
2
 10
190.191828
 20
0.717394
 11
190.191828
 21
6.317394
  0
LINE
  8
2
 10
190.191828
 20
6.317394
 11
190.884649
 21
6.717394
  0
LINE
  8
2
 10
190.884649
 20
6.717394
 11
199.499008
 21
6.717394
  0
LINE
  8
2
 10
200.191828
 20
6.317394
 11
190.191828
 21
6.317394
  0
LINE
  8
2
 10
200.191828
 20
0.717394
 11
200.191828
 21
6.317394
  0
LINE
  8
2
 10
200.191828
 20
6.317394
 11
199.499008
 21
6.717394
  0
LINE
  8
2
 10
104.191828
 20
0.717394
 11
104.191828
 21
6.317394
  0
LINE
  8
2
 10
104.191828
 20
6.317394
 11
104.884649
 21
6.717394
  0
LINE
  8
2
 10
104.884649
 20
6.717394
 11
113.499008
 21
6.717394
  0
LINE
  8
2
 10
114.191828
 20
6.317394
 11
104.191828
 21
6.317394
  0
LINE
  8
2
 10
114.191828
 20
0.717394
 11
114.191828
 21
6.317394
  0
LINE
  8
2
 10
114.191828
 20
6.317394
 11
113.499008
 21
6.717394
  0
LINE
  8
2
 10
40.441828
 20
64.217394
 11
40.441828
 21
62.717394
  0
LINE
  8
2
 10
51.941828
 20
64.217394
 11
51.941828
 21
62.717394
  0
LINE
  8
2
 10
51.941828
 20
64.217394
 11
40.441828
 21
64.217394
  0
LINE
  8
2
 10
40.941828
 20
65.744410
 11
40.941828
 21
64.217394
  0
LINE
  8
2
 10
51.441828
 20
65.744410
 11
51.441828
 21
64.217394
  0
ARC
  8
2
 10
46.191828
 20
54.117394
 40
14.000000
 50
73.927141
 51
106.072859
  0
ARC
  8
2
 10
49.541828
 20
65.744410
 40
1.900000
 50
0.000000
 51
73.927141
  0
ARC
  8
2
 10
42.841828
 20
65.744410
 40
1.900000
 50
106.072859
 51
180.000000
  0
LINE
  8
2
 10
177.941828
 20
64.217394
 11
177.941828
 21
62.717394
  0
LINE
  8
2
 10
166.441828
 20
64.217394
 11
166.441828
 21
62.717394
  0
LINE
  8
2
 10
166.441828
 20
64.217394
 11
177.941828
 21
64.217394
  0
LINE
  8
2
 10
177.441828
 20
65.744410
 11
177.441828
 21
64.217394
  0
LINE
  8
2
 10
166.941828
 20
65.744410
 11
166.941828
 21
64.217394
  0
ARC
  8
2
 10
172.191828
 20
54.117394
 40
14.000000
 50
73.927141
 51
106.072859
  0
ARC
  8
2
 10
168.841828
 20
65.744410
 40
1.900000
 50
106.072859
 51
180.000000
  0
ARC
  8
2
 10
175.541828
 20
65.744410
 40
1.900000
 50
0.000000
 51
73.927141
  0
LINE
  8
2
 10
-2.808172
 20
21.467394
 11
-2.808172
 21
35.967394
  0
LINE
  8
2
 10
-2.808172
 20
35.967394
 11
-0.808172
 21
35.967394
  0
LINE
  8
2
 10
-2.808172
 20
21.467394
 11
-0.808172
 21
21.467394
  0
LINE
  8
2
 10
-4.766220
 20
35.717394
 11
-2.808172
 21
35.717394
  0
LINE
  8
2
 10
-4.766220
 20
21.717394
 11
-2.808172
 21
21.717394
  0
ARC
  8
2
 10
9.991828
 20
28.717394
 40
18.000000
 50
163.398450
 51
196.601550
  0
ARC
  8
2
 10
-4.766220
 20
33.117394
 40
2.600000
 50
90.000000
 51
163.398450
  0
ARC
  8
2
 10
-4.766220
 20
24.317394
 40
2.600000
 50
196.601550
 51
270.000000
  0
LINE
  8
2
 10
-2.808172
 20
-92.532606
 11
-2.808172
 21
-78.032606
  0
LINE
  8
2
 10
-2.808172
 20
-78.032606
 11
-0.808172
 21
-78.032606
  0
LINE
  8
2
 10
-2.808172
 20
-92.532606
 11
-0.808172
 21
-92.532606
  0
LINE
  8
2
 10
-4.766220
 20
-78.282606
 11
-2.808172
 21
-78.282606
  0
LINE
  8
2
 10
-4.766220
 20
-92.282606
 11
-2.808172
 21
-92.282606
  0
ARC
  8
2
 10
9.991828
 20
-85.282606
 40
18.000000
 50
163.398450
 51
196.601550
  0
ARC
  8
2
 10
-4.766220
 20
-80.882606
 40
2.600000
 50
90.000000
 51
163.398450
  0
ARC
  8
2
 10
-4.766220
 20
-89.682606
 40
2.600000
 50
196.601550
 51
270.000000
  0
LINE
  8
2
 10
-417.058172
 20
418.317394
 11
-431.558172
 21
418.317394
  0
LINE
  8
2
 10
-431.558172
 20
418.317394
 11
-431.558172
 21
420.317394
  0
LINE
  8
2
 10
-417.058172
 20
418.317394
 11
-417.058172
 21
420.317394
  0
LINE
  8
2
 10
-431.308172
 20
416.359345
 11
-431.308172
 21
418.317394
  0
LINE
  8
2
 10
-417.308172
 20
416.359345
 11
-417.308172
 21
418.317394
  0
ARC
  8
2
 10
-424.308172
 20
431.117394
 40
18.000000
 50
253.398450
 51
286.601550
  0
ARC
  8
2
 10
-428.708172
 20
416.359345
 40
2.600000
 50
180.000000
 51
253.398450
  0
ARC
  8
2
 10
-419.908172
 20
416.359345
 40
2.600000
 50
286.601550
 51
360.000000
  0
LINE
  8
2
 10
-526.058172
 20
418.317394
 11
-540.558172
 21
418.317394
  0
LINE
  8
2
 10
-540.558172
 20
418.317394
 11
-540.558172
 21
420.317394
  0
LINE
  8
2
 10
-526.058172
 20
418.317394
 11
-526.058172
 21
420.317394
  0
LINE
  8
2
 10
-540.308172
 20
416.359345
 11
-540.308172
 21
418.317394
  0
LINE
  8
2
 10
-526.308172
 20
416.359345
 11
-526.308172
 21
418.317394
  0
ARC
  8
2
 10
-533.308172
 20
431.117394
 40
18.000000
 50
253.398450
 51
286.601550
  0
ARC
  8
2
 10
-537.708172
 20
416.359345
 40
2.600000
 50
180.000000
 51
253.398450
  0
ARC
  8
2
 10
-528.908172
 20
416.359345
 40
2.600000
 50
286.601550
 51
360.000000
  0
LINE
  8
2
 10
-661.058172
 20
418.317394
 11
-675.558172
 21
418.317394
  0
LINE
  8
2
 10
-675.558172
 20
418.317394
 11
-675.558172
 21
420.317394
  0
LINE
  8
2
 10
-661.058172
 20
418.317394
 11
-661.058172
 21
420.317394
  0
LINE
  8
2
 10
-675.308172
 20
416.359345
 11
-675.308172
 21
418.317394
  0
LINE
  8
2
 10
-661.308172
 20
416.359345
 11
-661.308172
 21
418.317394
  0
ARC
  8
2
 10
-668.308172
 20
431.117394
 40
18.000000
 50
253.398450
 51
286.601550
  0
ARC
  8
2
 10
-672.708172
 20
416.359345
 40
2.600000
 50
180.000000
 51
253.398450
  0
ARC
  8
2
 10
-663.908172
 20
416.359345
 40
2.600000
 50
286.601550
 51
360.000000
  0
LINE
  8
2
 10
-650.808172
 20
-110.282606
 11
-650.808172
 21
-117.782606
  0
LINE
  8
2
 10
-650.808172
 20
-117.782606
 11
-651.674197
 21
-118.282606
  0
LINE
  8
2
 10
-663.808172
 20
-110.282606
 11
-663.808172
 21
-117.782606
  0
LINE
  8
2
 10
-663.808172
 20
-117.782606
 11
-662.942146
 21
-118.282606
  0
LINE
  8
2
 10
-662.942146
 20
-118.282606
 11
-651.674197
 21
-118.282606
  0
LINE
  8
2
 10
-650.808172
 20
-117.782606
 11
-663.808172
 21
-117.782606
  0
LINE
  8
2
 10
-512.050462
 20
-117.922492
 11
-512.674197
 21
-118.282606
  0
LINE
  8
2
 10
-524.808172
 20
-110.799072
 11
-524.808172
 21
-117.782606
  0
LINE
  8
2
 10
-524.808172
 20
-117.782606
 11
-523.942146
 21
-118.282606
  0
LINE
  8
2
 10
-523.942146
 20
-118.282606
 11
-512.674197
 21
-118.282606
  0
LINE
  8
2
 10
-512.349328
 20
-117.782606
 11
-524.808172
 21
-117.782606
  0
LINE
  8
2
 10
25.691828
 20
-110.282606
 11
25.691828
 21
-117.782606
  0
LINE
  8
2
 10
25.691828
 20
-117.782606
 11
24.825803
 21
-118.282606
  0
LINE
  8
2
 10
12.691828
 20
-110.282606
 11
12.691828
 21
-117.782606
  0
LINE
  8
2
 10
12.691828
 20
-117.782606
 11
13.557854
 21
-118.282606
  0
LINE
  8
2
 10
13.557854
 20
-118.282606
 11
24.825803
 21
-118.282606
  0
LINE
  8
2
 10
25.691828
 20
-117.782606
 11
12.691828
 21
-117.782606
  0
LINE
  8
2
 10
115.691828
 20
-110.282606
 11
115.691828
 21
-117.782606
  0
LINE
  8
2
 10
115.691828
 20
-117.782606
 11
114.825803
 21
-118.282606
  0
LINE
  8
2
 10
102.691828
 20
-110.282606
 11
102.691828
 21
-117.782606
  0
LINE
  8
2
 10
102.691828
 20
-117.782606
 11
103.557854
 21
-118.282606
  0
LINE
  8
2
 10
103.557854
 20
-118.282606
 11
114.825803
 21
-118.282606
  0
LINE
  8
2
 10
115.691828
 20
-117.782606
 11
102.691828
 21
-117.782606
  0
LINE
  8
2
 10
201.691828
 20
-110.282606
 11
201.691828
 21
-117.782606
  0
LINE
  8
2
 10
201.691828
 20
-117.782606
 11
200.825803
 21
-118.282606
  0
LINE
  8
2
 10
188.691828
 20
-110.282606
 11
188.691828
 21
-117.782606
  0
LINE
  8
2
 10
188.691828
 20
-117.782606
 11
189.557854
 21
-118.282606
  0
LINE
  8
2
 10
189.557854
 20
-118.282606
 11
200.825803
 21
-118.282606
  0
LINE
  8
2
 10
201.691828
 20
-117.782606
 11
188.691828
 21
-117.782606
  0
CIRCLE
  8
2
 10
-668.308172
 20
22.717394
 40
7.250000
  0
CIRCLE
  8
2
 10
-668.308172
 20
22.717394
 40
7.000000
  0
CIRCLE
  8
2
 10
-647.308172
 20
-93.282606
 40
7.250000
  0
CIRCLE
  8
2
 10
-647.308172
 20
-93.282606
 40
7.000000
  0
CIRCLE
  8
2
 10
-782.308172
 20
-41.282606
 40
7.250000
  0
CIRCLE
  8
2
 10
-782.308172
 20
-41.282606
 40
7.000000
  0
LINE
  8
2
 10
-787.203356
 20
418.317394
 11
-789.558172
 21
418.317394
  0
LINE
  8
2
 10
-789.558172
 20
418.317394
 11
-789.558172
 21
420.317394
  0
LINE
  8
2
 10
-789.308172
 20
416.359345
 11
-789.308172
 21
418.317394
  0
ARC
  8
2
 10
-782.308172
 20
431.117394
 40
18.000000
 50
253.398450
 51
255.013153
  0
ARC
  8
2
 10
-786.708172
 20
416.359345
 40
2.600000
 50
180.000000
 51
253.398450
  0
LINE
  8
2
 10
-705.808172
 20
-24.782606
 11
-705.808172
 21
-42.282606
  0
LINE
  8
2
 10
-705.808172
 20
-24.782606
 11
-670.808172
 21
-24.782606
  0
LINE
  8
2
 10
-705.808172
 20
-42.282606
 11
-670.808172
 21
-24.782606
  0
LINE
  8
2
 10
-694.141505
 20
-24.782606
 11
-694.141505
 21
-59.782606
  0
LINE
  8
2
 10
-682.474838
 20
-36.449273
 11
-705.808172
 21
-36.449273
  0
LINE
  8
2
 10
-682.474838
 20
-30.615940
 11
-705.808172
 21
-30.615940
  0
LINE
  8
2
 10
-682.474838
 20
-24.782606
 11
-705.808172
 21
-36.449273
  0
LINE
  8
2
 10
-694.141505
 20
-24.782606
 11
-705.808172
 21
-30.615940
  0
LINE
  8
2
 10
-682.474838
 20
-59.782606
 11
-682.474838
 21
-36.449273
  0
LINE
  8
2
 10
-682.474838
 20
-30.615940
 11
-682.474838
 21
-24.782606
  0
LINE
  8
2
 10
-694.141505
 20
-59.782606
 11
-682.474838
 21
-59.782606
  0
ARC
  8
2
 10
-58.808172
 20
12.103507
 40
10.000000
 50
280.000000
 51
360.000000
  0
ARC
  8
2
 10
-58.808172
 20
-66.668720
 40
10.000000
 50
0.000000
 51
80.000000
  0
LINE
  8
2
 10
-785.136599
 20
-44.111034
 11
-779.479745
 21
-38.454179
  0
LINE
  8
2
 10
-779.479745
 20
-44.111034
 11
-785.136599
 21
-38.454179
  0
LINE
  8
2
 10
-671.136599
 20
19.888966
 11
-665.479745
 21
25.545821
  0
LINE
  8
2
 10
-665.479745
 20
19.888966
 11
-671.136599
 21
25.545821
  0
LINE
  8
2
 10
-650.136599
 20
-96.111034
 11
-644.479745
 21
-90.454179
  0
LINE
  8
2
 10
-644.479745
 20
-96.111034
 11
-650.136599
 21
-90.454179
  0
LINE
  8
2
 10
-452.429492
 20
591.196073
 11
-448.186851
 21
595.438714
  0
LINE
  8
2
 10
-448.186851
 20
591.196073
 11
-452.429492
 21
595.438714
  0
LINE
  8
2
 10
-452.429492
 20
465.196073
 11
-448.186851
 21
469.438714
  0
LINE
  8
2
 10
-448.186851
 20
465.196073
 11
-452.429492
 21
469.438714
  0
LINE
  8
2
 10
-577.429492
 20
591.196073
 11
-573.186851
 21
595.438714
  0
LINE
  8
2
 10
-573.186851
 20
591.196073
 11
-577.429492
 21
595.438714
  0
LINE
  8
2
 10
-702.429492
 20
591.196073
 11
-698.186851
 21
595.438714
  0
LINE
  8
2
 10
-698.186851
 20
591.196073
 11
-702.429492
 21
595.438714
  0
LINE
  8
2
 10
-577.429492
 20
465.196073
 11
-573.186851
 21
469.438714
  0
LINE
  8
2
 10
-573.186851
 20
465.196073
 11
-577.429492
 21
469.438714
  0
LINE
  8
2
 10
-702.429492
 20
465.196073
 11
-698.186851
 21
469.438714
  0
LINE
  8
2
 10
-698.186851
 20
465.196073
 11
-702.429492
 21
469.438714
  0
LINE
  8
2
 10
-543.891667
 20
556.833898
 11
-539.691667
 21
556.833898
  0
LINE
  8
2
 10
-541.791667
 20
554.733898
 11
-541.791667
 21
558.933898
  0
LINE
  8
2
 10
-596.924676
 20
556.833898
 11
-592.724676
 21
556.833898
  0
LINE
  8
2
 10
-594.824676
 20
554.733898
 11
-594.824676
 21
558.933898
  0
LINE
  8
2
 10
-543.891667
 20
503.800889
 11
-539.691667
 21
503.800889
  0
LINE
  8
2
 10
-541.791667
 20
501.700889
 11
-541.791667
 21
505.900889
  0
LINE
  8
2
 10
-596.924676
 20
503.800889
 11
-592.724676
 21
503.800889
  0
LINE
  8
2
 10
-594.824676
 20
501.700889
 11
-594.824676
 21
505.900889
  0
LINE
  8
2
 10
-440.808172
 20
614.874018
 11
-440.808172
 21
617.760769
  0
LINE
  8
2
 10
-435.808172
 20
614.874018
 11
-435.808172
 21
617.760769
  0
LINE
  8
2
 10
-435.808172
 20
617.760769
 11
-438.308172
 21
619.204145
  0
LINE
  8
2
 10
-438.308172
 20
613.430642
 11
-440.808172
 21
614.874018
  0
LINE
  8
2
 10
-435.808172
 20
614.874018
 11
-438.308172
 21
613.430642
  0
LINE
  8
2
 10
-438.308172
 20
619.204145
 11
-440.808172
 21
617.760769
  0
LINE
  8
2
 10
-507.808172
 20
618.874018
 11
-507.808172
 21
621.760769
  0
LINE
  8
2
 10
-502.808172
 20
618.874018
 11
-502.808172
 21
621.760769
  0
LINE
  8
2
 10
-502.808172
 20
621.760769
 11
-505.308172
 21
623.204145
  0
LINE
  8
2
 10
-505.308172
 20
617.430642
 11
-507.808172
 21
618.874018
  0
LINE
  8
2
 10
-502.808172
 20
618.874018
 11
-505.308172
 21
617.430642
  0
LINE
  8
2
 10
-505.308172
 20
623.204145
 11
-507.808172
 21
621.760769
  0
LINE
  8
2
 10
-654.808172
 20
618.874018
 11
-654.808172
 21
621.760769
  0
LINE
  8
2
 10
-649.808172
 20
618.874018
 11
-649.808172
 21
621.760769
  0
LINE
  8
2
 10
-649.808172
 20
621.760769
 11
-652.308172
 21
623.204145
  0
LINE
  8
2
 10
-652.308172
 20
617.430642
 11
-654.808172
 21
618.874018
  0
LINE
  8
2
 10
-649.808172
 20
618.874018
 11
-652.308172
 21
617.430642
  0
LINE
  8
2
 10
-652.308172
 20
623.204145
 11
-654.808172
 21
621.760769
  0
LINE
  8
2
 10
-779.808172
 20
614.874018
 11
-779.808172
 21
617.760769
  0
LINE
  8
2
 10
-774.808172
 20
614.874018
 11
-774.808172
 21
617.760769
  0
LINE
  8
2
 10
-774.808172
 20
617.760769
 11
-777.308172
 21
619.204145
  0
LINE
  8
2
 10
-777.308172
 20
613.430642
 11
-779.808172
 21
614.874018
  0
LINE
  8
2
 10
-774.808172
 20
614.874018
 11
-777.308172
 21
613.430642
  0
LINE
  8
2
 10
-777.308172
 20
619.204145
 11
-779.808172
 21
617.760769
  0
LINE
  8
2
 10
-784.808172
 20
528.874018
 11
-784.808172
 21
531.760769
  0
LINE
  8
2
 10
-779.808172
 20
528.874018
 11
-779.808172
 21
531.760769
  0
LINE
  8
2
 10
-779.808172
 20
531.760769
 11
-782.308172
 21
533.204145
  0
LINE
  8
2
 10
-782.308172
 20
527.430642
 11
-784.808172
 21
528.874018
  0
LINE
  8
2
 10
-779.808172
 20
528.874018
 11
-782.308172
 21
527.430642
  0
LINE
  8
2
 10
-782.308172
 20
533.204145
 11
-784.808172
 21
531.760769
  0
LINE
  8
2
 10
-784.808172
 20
449.874018
 11
-784.808172
 21
452.760769
  0
LINE
  8
2
 10
-779.808172
 20
449.874018
 11
-779.808172
 21
452.760769
  0
LINE
  8
2
 10
-779.808172
 20
452.760769
 11
-782.308172
 21
454.204145
  0
LINE
  8
2
 10
-782.308172
 20
448.430642
 11
-784.808172
 21
449.874018
  0
LINE
  8
2
 10
-779.808172
 20
449.874018
 11
-782.308172
 21
448.430642
  0
LINE
  8
2
 10
-782.308172
 20
454.204145
 11
-784.808172
 21
452.760769
  0
LINE
  8
2
 10
-654.808172
 20
443.874018
 11
-654.808172
 21
446.760769
  0
LINE
  8
2
 10
-649.808172
 20
443.874018
 11
-649.808172
 21
446.760769
  0
LINE
  8
2
 10
-649.808172
 20
446.760769
 11
-652.308172
 21
448.204145
  0
LINE
  8
2
 10
-652.308172
 20
442.430642
 11
-654.808172
 21
443.874018
  0
LINE
  8
2
 10
-649.808172
 20
443.874018
 11
-652.308172
 21
442.430642
  0
LINE
  8
2
 10
-652.308172
 20
448.204145
 11
-654.808172
 21
446.760769
  0
LINE
  8
2
 10
-507.808172
 20
443.874018
 11
-507.808172
 21
446.760769
  0
LINE
  8
2
 10
-502.808172
 20
443.874018
 11
-502.808172
 21
446.760769
  0
LINE
  8
2
 10
-502.808172
 20
446.760769
 11
-505.308172
 21
448.204145
  0
LINE
  8
2
 10
-505.308172
 20
442.430642
 11
-507.808172
 21
443.874018
  0
LINE
  8
2
 10
-502.808172
 20
443.874018
 11
-505.308172
 21
442.430642
  0
LINE
  8
2
 10
-505.308172
 20
448.204145
 11
-507.808172
 21
446.760769
  0
LINE
  8
2
 10
-436.808172
 20
443.874018
 11
-436.808172
 21
446.760769
  0
LINE
  8
2
 10
-431.808172
 20
443.874018
 11
-431.808172
 21
446.760769
  0
LINE
  8
2
 10
-431.808172
 20
446.760769
 11
-434.308172
 21
448.204145
  0
LINE
  8
2
 10
-434.308172
 20
442.430642
 11
-436.808172
 21
443.874018
  0
LINE
  8
2
 10
-431.808172
 20
443.874018
 11
-434.308172
 21
442.430642
  0
LINE
  8
2
 10
-434.308172
 20
448.204145
 11
-436.808172
 21
446.760769
  0
LINE
  8
2
 10
-436.808172
 20
528.874018
 11
-436.808172
 21
531.760769
  0
LINE
  8
2
 10
-431.808172
 20
528.874018
 11
-431.808172
 21
531.760769
  0
LINE
  8
2
 10
-431.808172
 20
531.760769
 11
-434.308172
 21
533.204145
  0
LINE
  8
2
 10
-434.308172
 20
527.430642
 11
-436.808172
 21
528.874018
  0
LINE
  8
2
 10
-431.808172
 20
528.874018
 11
-434.308172
 21
527.430642
  0
LINE
  8
2
 10
-434.308172
 20
533.204145
 11
-436.808172
 21
531.760769
  0
TEXT
  8
2
 10
-562.888686
 20
507.303720
 40
7.600000
  1
Ｓ
 50
22.500000
  0
TEXT
  8
2
 10
-573.727657
 20
553.331067
 40
7.600000
  1
Ｓ
 50
202.500000
  0
TEXT
  8
2
 10
-562.063239
 20
83.124811
 40
7.600000
  1
Ｓ
 50
31.641000
  0
TEXT
  8
2
 10
-451.087753
 20
-28.300400
 40
9.000000
  1
Ｓ
 50
253.000000
  0
LINE
  8
2
  6
CENTER
 62
2
 10
-532.245726
 20
-108.779730
 11
-532.245726
 21
-144.366302
  0
LINE
  8
2
  6
CENTER
 62
2
 10
-604.370618
 20
-108.779730
 11
-604.370618
 21
-144.366302
  0
LINE
  8
2
  6
CENTER
 62
2
 10
73.129382
 20
-108.779730
 11
73.129382
 21
-144.366302
  0
LINE
  8
2
  6
CENTER
 62
2
 10
145.254274
 20
-108.779730
 11
145.254274
 21
-144.366302
  0
LINE
  8
3
 10
-500.808172
 20
-200.282606
 11
-635.808172
 21
-200.282606
  0
LINE
  8
3
 10
-500.808172
 20
-132.282606
 11
-635.808172
 21
-132.282606
  0
LINE
  8
3
 10
-500.808172
 20
-193.282606
 11
-635.808172
 21
-193.282606
  0
LINE
  8
3
 10
-635.808172
 20
-200.282606
 11
-635.808172
 21
-193.282606
  0
LINE
  8
3
 10
-635.808172
 20
-132.282606
 11
-635.808172
 21
-125.282606
  0
LINE
  8
3
 10
-500.808172
 20
-200.282606
 11
-500.808172
 21
-193.282606
  0
LINE
  8
3
 10
-500.808172
 20
-132.282606
 11
-500.808172
 21
-125.282606
  0
LINE
  8
3
 10
-505.808172
 20
-132.282606
 11
-505.808172
 21
-193.282606
  0
LINE
  8
3
 10
-514.808172
 20
-132.282606
 11
-514.808172
 21
-193.282606
  0
LINE
  8
3
 10
-621.808172
 20
-132.282606
 11
-621.808172
 21
-193.282606
  0
LINE
  8
3
 10
-630.808172
 20
-132.282606
 11
-630.808172
 21
-193.282606
  0
LINE
  8
3
 10
-505.808172
 20
-137.282606
 11
-500.808172
 21
-132.282606
  0
LINE
  8
3
 10
-505.808172
 20
-188.282606
 11
-500.808172
 21
-193.282606
  0
LINE
  8
3
 10
-635.808172
 20
-193.282606
 11
-630.808172
 21
-188.282606
  0
LINE
  8
3
 10
-630.808172
 20
-137.282606
 11
-635.808172
 21
-132.282606
  0
LINE
  8
3
 10
59.191828
 20
-193.282606
 11
159.191828
 21
-193.282606
  0
LINE
  8
3
 10
59.191828
 20
-132.282606
 11
159.191828
 21
-132.282606
  0
LINE
  8
3
 10
59.191828
 20
-200.282606
 11
59.191828
 21
-125.282606
  0
LINE
  8
3
 10
159.191828
 20
-200.282606
 11
159.191828
 21
-125.282606
  0
LINE
  8
3
 10
59.191828
 20
-137.282606
 11
159.191828
 21
-137.282606
  0
LINE
  8
3
 10
59.191828
 20
-188.282606
 11
159.191828
 21
-188.282606
  0
LINE
  8
3
 10
-593.308172
 20
-155.282606
 11
-543.308172
 21
-155.282606
  0
LINE
  8
3
 10
-593.308172
 20
-147.282606
 11
-543.308172
 21
-147.282606
  0
LINE
  8
3
 10
-593.308172
 20
-193.282606
 11
-593.308172
 21
-132.282606
  0
LINE
  8
3
 10
-543.308172
 20
-193.282606
 11
-543.308172
 21
-132.282606
  0
TEXT
  8
5
 10
701.616577
 20
-346.633507
 40
30.000000
  1
エクステンション仕様（高温用）
 50
0.000000
  0
TEXT
  8
5
 10
521.616577
 20
-298.633507
 40
30.000000
  1
駆動部・・・４Ｉ－３型
 50
0.000000
  0
DIMENSION
  8
5
  2
*D0
 10
-403.308172
 20
708.194275
 11
-485.808172
 21
721.094275
 70
0
  1
165
 13
-568.308172
 23
667.565921
 14
-403.308172
 24
439.317394
 50
0.000000
  0
DIMENSION
  8
5
  2
*D1
 10
-568.308172
 20
708.194275
 11
-679.808172
 21
721.094275
 70
0
  1
223
 13
-791.308172
 23
615.317394
 14
-568.308172
 24
667.565921
 50
0.000000
  0
DIMENSION
  8
5
  2
*D2
 10
-195.916739
 20
-127.282606
 11
-226.636739
 21
-35.202606
 70
1
  1
%%c200
 13
-122.300212
 23
72.717394
 14
-122.300212
 24
-127.282606
 50
90.000000
  0
DIMENSION
  8
5
  2
*D3
 10
304.838745
 20
104.717394
 11
281.048745
 21
-11.272606
 70
0
  1
230
 13
179.191828
 23
-125.282606
 14
109.191828
 24
104.717394
 50
90.000000
  0
DIMENSION
  8
5
  2
*D4
 10
304.838745
 20
-460.282606
 11
281.048745
 21
-591.272606
 70
0
  1
260
 13
149.691828
 23
-720.282606
 14
167.549677
 24
-460.282606
 50
90.000000
  0
DIMENSION
  8
5
  2
*D5
 10
143.191828
 20
-661.042015
 11
46.331828
 21
-648.142015
 70
0
  1
68
 13
75.191828
 23
-615.282606
 14
143.191828
 24
-615.282606
 50
0.000000
  0
DIMENSION
  8
5
  2
*D6
 10
-294.281479
 20
666.317394
 11
-318.071479
 21
597.327394
 70
0
  1
136
 13
-346.360754
 23
530.317394
 14
-511.390672
 24
666.317394
 50
90.000000
  0
DIMENSION
  8
5
  2
*D7
 10
-294.281479
 20
530.317394
 11
-331.931478
 21
392.717394
 70
0
  1
245.5
 13
-435.253083
 23
284.817394
 14
-346.360754
 24
530.317394
 50
90.000000
  0
DIMENSION
  8
5
  2
*D8
 10
304.838745
 20
-200.282606
 11
282.938745
 21
-331.182606
 70
0
  1
260
 13
167.549677
 23
-460.282606
 14
160.191828
 24
-200.282606
 50
90.000000
  0
DIMENSION
  8
5
  2
*D9
 10
304.838745
 20
-125.282606
 11
289.238745
 21
-157.382606
 70
0
  1
75
 13
160.191828
 23
-200.282606
 14
179.191828
 24
-125.282606
 50
90.000000
  0
LINE
  8
18
 10
729.294456
 20
-409.293709
 11
1029.294456
 21
-409.293709
  0
LINE
  8
18
 10
729.294456
 20
-529.293709
 11
1029.294456
 21
-529.293709
  0
LINE
  8
18
 10
729.294456
 20
-559.293709
 11
1029.294456
 21
-559.293709
  0
LINE
  8
18
 10
729.294456
 20
-589.293709
 11
1029.294456
 21
-589.293709
  0
LINE
  8
18
 10
729.294456
 20
-409.293709
 11
729.294456
 21
-589.293709
  0
LINE
  8
18
 10
879.294456
 20
-409.293709
 11
879.294456
 21
-559.293709
  0
LINE
  8
18
 10
1029.294456
 20
-409.293709
 11
1029.294456
 21
-589.293709
  0
LINE
  8
18
  6
CENTER
 62
2
 10
792.568299
 20
-473.473721
 11
810.772355
 21
-473.473719
  0
LINE
  8
18
  6
CENTER
 62
2
 10
802.319853
 20
-450.503721
 11
802.319853
 21
-500.705529
  0
LINE
  8
18
 10
830.098803
 20
-464.214071
 11
830.098803
 21
-469.872746
  0
LINE
  8
18
 10
774.540903
 20
-464.214071
 11
774.540903
 21
-469.872746
  0
LINE
  8
18
  6
CENTER
 62
2
 10
746.870830
 20
-481.190096
 11
859.126154
 21
-481.190096
  0
LINE
  8
18
 10
750.877353
 20
-492.507446
 11
853.762353
 21
-492.507446
  0
LINE
  8
18
 10
853.762353
 20
-469.872746
 11
853.762353
 21
-492.507446
  0
LINE
  8
18
 10
750.877353
 20
-469.872746
 11
750.877353
 21
-492.507446
  0
LINE
  8
18
 10
817.752603
 20
-469.872746
 11
817.752603
 21
-492.507446
  0
LINE
  8
18
 10
786.887103
 20
-469.872746
 11
786.887103
 21
-492.507446
  0
LINE
  8
18
 10
786.887103
 20
-469.872746
 11
798.777989
 21
-465.512754
  0
LINE
  8
18
 10
805.861717
 20
-465.512754
 11
817.752603
 21
-469.872746
  0
ARC
  8
18
 10
802.319853
 20
-475.172383
 40
10.288500
 50
69.863697
 51
110.136303
  0
LINE
  8
18
 10
750.877353
 20
-469.872746
 11
786.887103
 21
-469.872746
  0
LINE
  8
18
 10
817.752603
 20
-469.872746
 11
853.762353
 21
-469.872746
  0
ARC
  8
18
 10
802.319853
 20
-473.473721
 40
15.432750
 50
14.149808
 51
165.850192
  0
LINE
  8
18
 10
774.540903
 20
-464.214071
 11
789.973653
 21
-464.214071
  0
LINE
  8
18
 10
814.666053
 20
-464.214071
 11
830.098803
 21
-464.214071
  0
LINE
  8
18
 10
796.863552
 20
-478.930022
 11
795.772292
 21
-480.021282
  0
LINE
  8
18
 10
807.776154
 20
-478.930022
 11
808.867415
 21
-480.021282
  0
ARC
  8
18
 10
802.319853
 20
-473.473721
 40
7.716375
 50
225.000000
 51
315.000000
  0
ARC
  8
18
 10
802.319853
 20
-473.473721
 40
9.259650
 50
225.000000
 51
315.000000
  0
LINE
  8
18
 10
797.276308
 20
-478.055923
 11
799.999595
 21
-472.363664
  0
LINE
  8
18
 10
797.757849
 20
-478.535543
 11
803.439176
 21
-475.789524
  0
ARC
  8
18
 10
802.319853
 20
-473.473721
 40
2.572125
 50
295.796392
 51
154.432646
  0
ARC
  8
18
 10
797.601144
 20
-478.211331
 40
0.360098
 50
154.432646
 51
295.796392
  0
LINE
  8
18
 10
804.316998
 20
-480.927167
 11
804.716427
 21
-482.417856
  0
LINE
  8
18
 10
800.322709
 20
-480.927167
 11
799.923280
 21
-482.417856
  0
LINE
  8
18
  6
CENTER
 62
2
 10
920.463369
 20
-469.095974
 11
986.850183
 21
-469.096494
  0
LINE
  8
18
  6
CENTER
 62
2
 10
954.488863
 20
-459.741755
 11
954.488863
 21
-479.581255
  0
LINE
  8
18
 10
982.267813
 20
-459.836278
 11
982.267813
 21
-478.356109
  0
LINE
  8
18
 10
926.709913
 20
-459.836278
 11
926.709913
 21
-478.355673
  0
LINE
  8
18
  6
CENTER
 62
2
 10
962.205239
 20
-524.544951
 11
962.205239
 21
-412.289627
  0
LINE
  8
18
 10
973.522589
 20
-520.538427
 11
973.522589
 21
-417.653427
  0
LINE
  8
18
 10
950.887889
 20
-417.653427
 11
973.522589
 21
-417.653427
  0
LINE
  8
18
 10
950.887889
 20
-520.538427
 11
973.522589
 21
-520.538427
  0
LINE
  8
18
 10
950.887889
 20
-453.663177
 11
973.522589
 21
-453.663177
  0
LINE
  8
18
 10
950.887889
 20
-484.528677
 11
973.522589
 21
-484.528677
  0
LINE
  8
18
 10
950.887889
 20
-484.528677
 11
946.527897
 21
-472.637791
  0
LINE
  8
18
 10
946.527897
 20
-465.554063
 11
950.887889
 21
-453.663177
  0
ARC
  8
18
 10
956.187526
 20
-469.095927
 40
10.288500
 50
159.863697
 51
200.136303
  0
LINE
  8
18
 10
950.887889
 20
-520.538427
 11
950.887889
 21
-484.528677
  0
LINE
  8
18
 10
950.887889
 20
-453.663177
 11
950.887889
 21
-417.653427
  0
ARC
  8
18
 10
954.488864
 20
-469.095927
 40
15.432750
 50
104.149808
 51
255.850192
  0
LINE
  8
18
 10
926.709913
 20
-459.836278
 11
942.142663
 21
-459.836278
  0
LINE
  8
18
 10
973.522589
 20
-459.836278
 11
982.267813
 21
-459.836278
  0
LINE
  8
18
 10
959.945164
 20
-474.552229
 11
961.036424
 21
-475.643490
  0
ARC
  8
18
 10
954.488550
 20
-469.096241
 40
7.716375
 50
315.000000
 51
45.000000
  0
ARC
  8
18
 10
954.488550
 20
-469.096241
 40
9.259650
 50
315.000000
 51
45.000000
  0
LINE
  8
18
 10
959.070752
 20
-474.139787
 11
953.378493
 21
-471.416500
  0
LINE
  8
18
 10
959.550372
 20
-473.658245
 11
956.804353
 21
-467.976918
  0
ARC
  8
18
 10
954.488550
 20
-469.096241
 40
2.572125
 50
25.796392
 51
244.432646
  0
ARC
  8
18
 10
959.226160
 20
-473.814950
 40
0.360098
 50
244.432646
 51
25.796392
  0
LINE
  8
18
 10
961.941996
 20
-467.099096
 11
963.432685
 21
-466.699667
  0
LINE
  8
18
 10
961.941996
 20
-471.093386
 11
963.432685
 21
-471.492815
  0
LINE
  8
18
 10
926.709913
 20
-478.355673
 11
942.142826
 21
-478.355794
  0
LINE
  8
18
 10
973.522589
 20
-478.356040
 11
982.267813
 21
-478.356109
  0
LINE
  8
18
 10
959.944851
 20
-463.639407
 11
961.036111
 21
-462.548147
  0
TEXT
  8
18
 10
733.985962
 20
-798.632172
 40
18.000000
  1
１
 50
0.000000
  0
TEXT
  8
18
 10
757.700821
 20
-820.334564
 40
18.000000
  1
６
 50
0.000000
  0
TEXT
  8
18
 10
753.247215
 20
-580.495514
 40
15.000000
  1
ＡＣＴＵＡＴＯＲ　ＰＯＳＩＴＩＯＮ
 50
0.000000
  0
TEXT
  8
18
 10
790.078880
 20
-552.226433
 40
18.000000
  1
Ａ
 50
0.000000
  0
TEXT
  8
18
 10
940.007195
 20
-552.707359
 40
18.000000
  1
Ｂ
 50
0.000000
  0
TEXT
  8
18
 10
789.604649
 20
-483.989110
 40
7.200000
  1
Ｓ
 50
315.000000
  0
TEXT
  8
18
 10
810.688784
 20
-488.335384
 40
7.200000
  1
Ｏ
 50
45.000000
  0
TEXT
  8
18
 10
965.603939
 20
-482.411445
 40
7.200000
  1
Ｓ
 50
45.000000
  0
TEXT
  8
18
 10
969.950213
 20
-460.727311
 40
7.200000
  1
Ｏ
 50
135.000000
  0
TEXT
  8
18
 10
1080.948669
 20
-761.314819
 40
12.000000
  1
２００３．　２．　３
 50
0.000000
  0
TEXT
  8
18
 10
921.600000
 20
-816.000000
 40
30.000000
  1
Ｄ３－０３２５２
 50
0.000000
  0
TEXT
  8
18
 10
737.125443
 20
-738.211578
 40
18.000000
  1
８４７Ｔ－４ＩＡＳ　２５０Ａ
 50
0.000000
  0
TEXT
  8
18
 10
737.125443
 20
-762.211578
 40
18.000000
  1
標準仕様
 50
0.000000
  0
LINE
  8
20
 62
3
 10
-1080.000000
 20
-831.000000
 11
1200.000000
 21
-831.000000
  0
LINE
  8
20
 62
3
 10
-1080.000000
 20
792.000000
 11
1200.000000
 21
792.000000
  0
LINE
  8
20
 62
3
 10
-1080.000000
 20
792.000000
 11
-1080.000000
 21
-831.000000
  0
LINE
  8
20
 62
3
 10
1200.000000
 20
792.000000
 11
1200.000000
 21
-831.000000
  0
LINE
  8
20
 62
3
 10
360.000000
 20
-831.000000
 11
360.000000
 21
-711.000000
  0
LINE
  8
20
 62
3
 10
642.000000
 20
-831.000000
 11
642.000000
 21
-711.000000
  0
LINE
  8
20
 10
642.000000
 20
-771.000000
 11
1200.000000
 21
-771.000000
  0
LINE
  8
20
 62
3
 10
360.000000
 20
-711.000000
 11
1200.000000
 21
-711.000000
  0
LINE
  8
20
 10
1080.000000
 20
-771.000000
 11
1080.000000
 21
-711.000000
  0
LINE
  8
20
 10
1080.000000
 20
-741.000000
 11
1200.000000
 21
-741.000000
  0
LINE
  8
20
 10
726.000000
 20
-831.000000
 11
726.000000
 21
-711.000000
  0
LINE
  8
20
 10
786.000000
 20
-831.000000
 11
786.000000
 21
-771.000000
  0
LINE
  8
20
 10
906.000000
 20
-831.000000
 11
906.000000
 21
-771.000000
  0
LINE
  8
20
 10
742.370487
 20
-814.629513
 11
767.389744
 21
-789.610256
  0
TEXT
  8
20
 10
789.199974
 20
-794.981506
 40
10.800000
  1
ＤＲＡＷＩＮＧ　ＮＯ．
 50
0.000000
  0
TEXT
  8
20
 10
801.000000
 20
-819.000000
 40
18.000000
  1
図　　　番
 50
0.000000
  0
TEXT
  8
20
 10
1116.000000
 20
-732.000000
 40
12.000000
  1
ＤＡＴＥ
 50
0.000000
  0
TEXT
  8
20
 10
654.006426
 20
-797.766174
 40
12.000000
  1
ＳＣＡＬＥ
 50
0.000000
  0
TEXT
  8
20
 10
648.000000
 20
-819.000000
 40
18.000000
  1
尺　　度
 50
0.000000
  0
TEXT
  8
20
 10
645.006426
 20
-734.975308
 40
12.000000
  1
ＦＩＧ．ＮＯ．
 50
0.000000
  0
TEXT
  8
20
 10
648.000000
 20
-759.000000
 40
18.000000
  1
名　　称
 50
0.000000
  0
TEXT
  8
20
 10
363.393150
 20
-758.821518
 40
13.800000
  1
ＴＯＭＯＥ　ＶＡＬＶＥ　ＣＯ．，ＬＴＤ．
 50
0.000000
  0
TEXT
  8
20
 10
405.000000
 20
-799.738861
 40
24.000000
  1
巴バルブ株式会社
 50
0.000000
  0
ENDSEC
  0
EOF
