  0
SECTION
  2
HEADER
  9
$LIMMAX
 10
1260.000000
 20
891.000000
  9
$LIMMIN
 10
-1260.000000
 20
-891.000000
  9
$EXTMAX
 10
1260.000000
 20
891.000000
  9
$EXTMIN
 10
-1260.000000
 20
-891.000000
  9
$DIMLFAC
 40
1.000000
  9
$DIMALTF
 40
25.400000
  9
$DIMSCALE
 40
6.000000
  9
$DIMTAD
 70
1
  9
$DIMTIH
 70
1
  9
$DIMTOH
 70
1
  9
$TDCREATE
 40
2450416.000000
  9
$TDUPDATE
 40
2452674.000000
999
3106
  0
ENDSEC
  0
SECTION
  2
TABLES
  0
TABLE
  2
LTYPE
 70
7
  0
LTYPE
  2
CONTINUOUS
 70
0
  3
Solid line
 72
65
 73
0
 40
0.000000
  0
LTYPE
  2
DASHED
 70
0
  3
__ __ __ __ __ __ __ __ __ __ __ __ __ __ __
 72
65
 73
2
 40
2.000000
 49
1.200000
 49
-0.800000
  0
LTYPE
  2
CENTER
 70
0
  3
____ _ ____ _ ____ _ ____ _ ____ _ ____ _ ____
 72
65
 73
4
 40
12.000000
 49
9.000000
 49
-1.000000
 49
1.000000
 49
-1.000000
  0
LTYPE
  2
HIDDEN
 70
0
  3
_ _ _ _ _ _ _ _ _ _ _ _ _ _ _ _ _ _ _ _ _ _ _
 72
65
 73
2
 40
3.200000
 49
2.400000
 49
-0.800000
  0
LTYPE
  2
PHANTOM
 70
0
  3
_____ _ _ _____ _ _ _____ _ _ _____ _ _ _____
 72
65
 73
6
 40
13.500000
 49
9.000000
 49
-1.000000
 49
1.000000
 49
-0.500000
 49
1.000000
 49
-1.000000
  0
LTYPE
  2
DOT
 70
0
  3
...............................................
 72
65
 73
2
 40
1.000000
 49
0.500000
 49
-0.500000
  0
LTYPE
  2
DASHDOT
 70
0
  3
__ . __ . __ . __ . __ . __ . __ . __ . __ . __
 72
65
 73
4
 40
8.000000
 49
5.000000
 49
-1.000000
 49
1.000000
 49
-1.000000
  0
ENDTAB
  0
TABLE
  2
LAYER
 70
7
  0
LAYER
  2
0
 70
0
 62
7
  6
CONTINUOUS
  0
LAYER
  2
1
 70
0
 62
7
  6
CONTINUOUS
  0
LAYER
  2
2
 70
0
 62
7
  6
CONTINUOUS
  0
LAYER
  2
3
 70
0
 62
7
  6
CONTINUOUS
  0
LAYER
  2
5
 70
0
 62
7
  6
CONTINUOUS
  0
LAYER
  2
18
 70
0
 62
7
  6
CONTINUOUS
  0
LAYER
  2
20
 70
0
 62
7
  6
CONTINUOUS
  0
ENDTAB
  0
TABLE
  2
STYLE
 70
1
  0
STYLE
  2
STANDARD
 70
64
 40
0.000000
 41
1.000000
 50
0.000000
 71
0
 42
1.000000
  3
txt
  4
BIGFONT
  0
ENDTAB
  0
ENDSEC
  0
SECTION
  2
BLOCKS
  0
BLOCK
  8
5
  2
*D0
 70
1
 10
0.000000
 20
0.000000
  0
TEXT
  8
5
 10
-527.871409
 20
721.751587
 40
19.800000
  1
165
 50
0.000000
 62
2
 41
1.400000
  0
LINE
  8
5
 62
2
 10
-589.581409
 20
682.312207
 11
-589.581409
 21
724.751587
  0
LINE
  8
5
 62
2
 10
-589.581409
 20
718.751587
 11
-577.990299
 21
715.645758
  0
LINE
  8
5
 62
2
 10
-589.581409
 20
718.751587
 11
-577.990299
 21
721.857415
  0
LINE
  8
5
 62
2
 10
-577.990299
 20
715.645758
 11
-577.990299
 21
721.857415
  0
LINE
  8
5
 62
2
 10
-589.581409
 20
718.751587
 11
-424.581409
 21
718.751587
  0
LINE
  8
5
 62
2
 10
-424.581409
 20
718.751587
 11
-436.172519
 21
721.857415
  0
LINE
  8
5
 62
2
 10
-424.581409
 20
718.751587
 11
-436.172519
 21
715.645758
  0
LINE
  8
5
 62
2
 10
-436.172519
 20
721.857415
 11
-436.172519
 21
715.645758
  0
LINE
  8
5
 62
2
 10
-424.581409
 20
454.063679
 11
-424.581409
 21
724.751587
  0
ENDBLK
  8
5
  0
BLOCK
  8
5
  2
*D1
 70
1
 10
0.000000
 20
0.000000
  0
TEXT
  8
5
 10
-721.871409
 20
721.751587
 40
19.800000
  1
223
 50
0.000000
 62
2
 41
1.400000
  0
LINE
  8
5
 62
2
 10
-812.581409
 20
630.063679
 11
-812.581409
 21
724.751587
  0
LINE
  8
5
 62
2
 10
-812.581409
 20
718.751587
 11
-800.990299
 21
715.645758
  0
LINE
  8
5
 62
2
 10
-812.581409
 20
718.751587
 11
-800.990299
 21
721.857415
  0
LINE
  8
5
 62
2
 10
-800.990299
 20
715.645758
 11
-800.990299
 21
721.857415
  0
LINE
  8
5
 62
2
 10
-812.581409
 20
718.751587
 11
-589.581409
 21
718.751587
  0
LINE
  8
5
 62
2
 10
-589.581409
 20
718.751587
 11
-601.172519
 21
721.857415
  0
LINE
  8
5
 62
2
 10
-589.581409
 20
718.751587
 11
-601.172519
 21
715.645758
  0
LINE
  8
5
 62
2
 10
-601.172519
 20
721.857415
 11
-601.172519
 21
715.645758
  0
LINE
  8
5
 62
2
 10
-589.581409
 20
682.312207
 11
-589.581409
 21
724.751587
  0
ENDBLK
  8
5
  0
BLOCK
  8
5
  2
*D2
 70
1
 10
0.000000
 20
0.000000
  0
TEXT
  8
5
 10
-220.189976
 20
8.743679
 40
19.800000
  1
%%c200
 50
90.000000
 62
2
 41
1.400000
  0
LINE
  8
5
 62
2
 10
-149.573450
 20
136.463679
 11
-223.189976
 21
136.463679
  0
LINE
  8
5
 62
2
 10
-217.189976
 20
136.463679
 11
-220.295804
 21
124.872570
  0
LINE
  8
5
 62
2
 10
-217.189976
 20
136.463679
 11
-214.084147
 21
124.872570
  0
LINE
  8
5
 62
2
 10
-220.295804
 20
124.872570
 11
-214.084147
 21
124.872570
  0
LINE
  8
5
 62
2
 10
-217.189976
 20
136.463679
 11
-217.189976
 21
-63.536321
  0
LINE
  8
5
 62
2
 10
-217.189976
 20
-63.536321
 11
-214.084147
 21
-51.945211
  0
LINE
  8
5
 62
2
 10
-217.189976
 20
-63.536321
 11
-220.295804
 21
-51.945211
  0
LINE
  8
5
 62
2
 10
-214.084147
 20
-51.945211
 11
-220.295804
 21
-51.945211
  0
LINE
  8
5
 62
2
 10
-149.573450
 20
-63.536321
 11
-223.189976
 21
-63.536321
  0
ENDBLK
  8
5
  0
BLOCK
  8
5
  2
*D3
 70
1
 10
0.000000
 20
0.000000
  0
TEXT
  8
5
 10
283.363678
 20
32.673679
 40
19.800000
  1
230
 50
90.000000
 62
2
 41
1.400000
  0
LINE
  8
5
 62
2
 10
163.918591
 20
-61.536321
 11
292.363678
 21
-61.536321
  0
LINE
  8
5
 62
2
 10
286.363678
 20
-61.536321
 11
289.469507
 21
-49.945211
  0
LINE
  8
5
 62
2
 10
286.363678
 20
-61.536321
 11
283.257849
 21
-49.945211
  0
LINE
  8
5
 62
2
 10
289.469507
 20
-49.945211
 11
283.257849
 21
-49.945211
  0
LINE
  8
5
 62
2
 10
286.363678
 20
-61.536321
 11
286.363678
 21
168.463679
  0
LINE
  8
5
 62
2
 10
286.363678
 20
168.463679
 11
283.257849
 21
156.872570
  0
LINE
  8
5
 62
2
 10
286.363678
 20
168.463679
 11
289.469507
 21
156.872570
  0
LINE
  8
5
 62
2
 10
283.257849
 20
156.872570
 11
289.469507
 21
156.872570
  0
LINE
  8
5
 62
2
 10
93.918591
 20
168.463679
 11
292.363678
 21
168.463679
  0
ENDBLK
  8
5
  0
BLOCK
  8
5
  2
*D4
 70
1
 10
0.000000
 20
0.000000
  0
TEXT
  8
5
 10
-299.920784
 20
381.663680
 40
19.800000
  1
245.5
 50
90.000000
 62
2
 41
1.400000
  0
LINE
  8
5
 62
2
 10
-450.526320
 20
293.563679
 11
-290.920784
 21
293.563679
  0
LINE
  8
5
 62
2
 10
-296.920784
 20
293.563679
 11
-293.814955
 21
305.154789
  0
LINE
  8
5
 62
2
 10
-296.920784
 20
293.563679
 11
-300.026613
 21
305.154789
  0
LINE
  8
5
 62
2
 10
-293.814955
 20
305.154789
 11
-300.026613
 21
305.154789
  0
LINE
  8
5
 62
2
 10
-296.920784
 20
293.563679
 11
-296.920784
 21
539.063679
  0
LINE
  8
5
 62
2
 10
-296.920784
 20
539.063679
 11
-300.026613
 21
527.472570
  0
LINE
  8
5
 62
2
 10
-296.920784
 20
539.063679
 11
-293.814955
 21
527.472570
  0
LINE
  8
5
 62
2
 10
-300.026613
 20
527.472570
 11
-293.814955
 21
527.472570
  0
LINE
  8
5
 62
2
 10
-325.516956
 20
539.063679
 11
-290.920784
 21
539.063679
  0
ENDBLK
  8
5
  0
BLOCK
  8
5
  2
*D5
 70
1
 10
0.000000
 20
0.000000
  0
TEXT
  8
5
 10
-299.920784
 20
586.273680
 40
19.800000
  1
136
 50
90.000000
 62
2
 41
1.400000
  0
LINE
  8
5
 62
2
 10
-325.516956
 20
539.063679
 11
-290.920784
 21
539.063679
  0
LINE
  8
5
 62
2
 10
-296.920784
 20
539.063679
 11
-293.814955
 21
550.654789
  0
LINE
  8
5
 62
2
 10
-296.920784
 20
539.063679
 11
-300.026613
 21
550.654789
  0
LINE
  8
5
 62
2
 10
-293.814955
 20
550.654789
 11
-300.026613
 21
550.654789
  0
LINE
  8
5
 62
2
 10
-296.920784
 20
539.063679
 11
-296.920784
 21
675.063679
  0
LINE
  8
5
 62
2
 10
-296.920784
 20
675.063679
 11
-300.026613
 21
663.472570
  0
LINE
  8
5
 62
2
 10
-296.920784
 20
675.063679
 11
-293.814955
 21
663.472570
  0
LINE
  8
5
 62
2
 10
-300.026613
 20
663.472570
 11
-293.814955
 21
663.472570
  0
LINE
  8
5
 62
2
 10
-526.663909
 20
675.063679
 11
-290.920784
 21
675.063679
  0
ENDBLK
  8
5
  0
BLOCK
  8
5
  2
*D6
 70
1
 10
0.000000
 20
0.000000
  0
TEXT
  8
5
 10
283.363678
 20
-602.826320
 40
19.800000
  1
297
 50
90.000000
 62
2
 41
1.400000
  0
LINE
  8
5
 62
2
 10
138.918591
 20
-730.536321
 11
292.363678
 21
-730.536321
  0
LINE
  8
5
 62
2
 10
286.363678
 20
-730.536321
 11
289.469507
 21
-718.945211
  0
LINE
  8
5
 62
2
 10
286.363678
 20
-730.536321
 11
283.257849
 21
-718.945211
  0
LINE
  8
5
 62
2
 10
289.469507
 20
-718.945211
 11
283.257849
 21
-718.945211
  0
LINE
  8
5
 62
2
 10
286.363678
 20
-730.536321
 11
286.363678
 21
-433.536321
  0
LINE
  8
5
 62
2
 10
286.363678
 20
-433.536321
 11
283.257849
 21
-445.127431
  0
LINE
  8
5
 62
2
 10
286.363678
 20
-433.536321
 11
289.469507
 21
-445.127431
  0
LINE
  8
5
 62
2
 10
283.257849
 20
-445.127431
 11
289.469507
 21
-445.127431
  0
LINE
  8
5
 62
2
 10
178.954319
 20
-433.536321
 11
292.363678
 21
-433.536321
  0
ENDBLK
  8
5
  0
BLOCK
  8
5
  2
*D7
 70
1
 10
0.000000
 20
0.000000
  0
TEXT
  8
5
 10
6.198591
 20
-665.235175
 40
19.800000
  1
78
 50
0.000000
 62
2
 41
1.400000
  0
LINE
  8
5
 62
2
 10
48.918591
 20
-621.036321
 11
48.918591
 21
-674.235175
  0
LINE
  8
5
 62
2
 10
48.918591
 20
-668.235175
 11
37.327481
 21
-665.129346
  0
LINE
  8
5
 62
2
 10
48.918591
 20
-668.235175
 11
37.327481
 21
-671.341003
  0
LINE
  8
5
 62
2
 10
37.327481
 20
-665.129346
 11
37.327481
 21
-671.341003
  0
LINE
  8
5
 62
2
 10
3.198591
 20
-668.235175
 11
156.918591
 21
-668.235175
  0
LINE
  8
5
 62
2
 10
126.918591
 20
-668.235175
 11
138.509701
 21
-671.341003
  0
LINE
  8
5
 62
2
 10
126.918591
 20
-668.235175
 11
138.509701
 21
-665.129346
  0
LINE
  8
5
 62
2
 10
138.509701
 20
-671.341003
 11
138.509701
 21
-665.129346
  0
LINE
  8
5
 62
2
 10
126.918591
 20
-621.036321
 11
126.918591
 21
-674.235175
  0
ENDBLK
  8
5
  0
BLOCK
  8
5
  2
*D8
 70
1
 10
0.000000
 20
0.000000
  0
TEXT
  8
5
 10
283.363678
 20
-111.636321
 40
18.000000
  1
75
 50
90.000000
 62
2
 41
1.400000
  0
LINE
  8
5
 62
2
 10
156.418591
 20
-136.536321
 11
292.363678
 21
-136.536321
  0
LINE
  8
5
 62
2
 10
286.363678
 20
-136.536321
 11
289.469507
 21
-124.945211
  0
LINE
  8
5
 62
2
 10
286.363678
 20
-136.536321
 11
283.257849
 21
-124.945211
  0
LINE
  8
5
 62
2
 10
289.469507
 20
-124.945211
 11
283.257849
 21
-124.945211
  0
LINE
  8
5
 62
2
 10
286.363678
 20
-136.536321
 11
286.363678
 21
-61.536321
  0
LINE
  8
5
 62
2
 10
286.363678
 20
-61.536321
 11
283.257849
 21
-73.127431
  0
LINE
  8
5
 62
2
 10
286.363678
 20
-61.536321
 11
289.469507
 21
-73.127431
  0
LINE
  8
5
 62
2
 10
283.257849
 20
-73.127431
 11
289.469507
 21
-73.127431
  0
LINE
  8
5
 62
2
 10
163.918591
 20
-61.536321
 11
292.363678
 21
-61.536321
  0
ENDBLK
  8
5
  0
BLOCK
  8
5
  2
*D9
 70
1
 10
0.000000
 20
0.000000
  0
TEXT
  8
5
 10
283.363678
 20
-303.936321
 40
18.000000
  1
297
 50
90.000000
 62
2
 41
1.400000
  0
LINE
  8
5
 62
2
 10
178.954319
 20
-433.536321
 11
292.363678
 21
-433.536321
  0
LINE
  8
5
 62
2
 10
286.363678
 20
-433.536321
 11
289.469507
 21
-421.945211
  0
LINE
  8
5
 62
2
 10
286.363678
 20
-433.536321
 11
283.257849
 21
-421.945211
  0
LINE
  8
5
 62
2
 10
289.469507
 20
-421.945211
 11
283.257849
 21
-421.945211
  0
LINE
  8
5
 62
2
 10
286.363678
 20
-433.536321
 11
286.363678
 21
-136.536321
  0
LINE
  8
5
 62
2
 10
286.363678
 20
-136.536321
 11
283.257849
 21
-148.127431
  0
LINE
  8
5
 62
2
 10
286.363678
 20
-136.536321
 11
289.469507
 21
-148.127431
  0
LINE
  8
5
 62
2
 10
283.257849
 20
-148.127431
 11
289.469507
 21
-148.127431
  0
LINE
  8
5
 62
2
 10
156.418591
 20
-136.536321
 11
292.363678
 21
-136.536321
  0
ENDBLK
  8
5
  0
ENDSEC
  0
SECTION
  2
ENTITIES
  0
LINE
  8
1
  6
DASHED
 10
-652.081409
 20
508.563679
 11
-652.081409
 21
569.563679
  0
LINE
  8
1
  6
DASHED
 10
-527.081409
 20
508.563679
 11
-527.081409
 21
569.563679
  0
LINE
  8
1
  6
DASHED
 10
-620.081409
 20
601.563679
 11
-559.081409
 21
601.563679
  0
LINE
  8
1
  6
DASHED
 10
-620.081409
 20
476.563679
 11
-559.081409
 21
476.563679
  0
ARC
  8
1
  6
DASHED
 10
-559.081409
 20
569.563679
 40
32.000000
 50
0.000000
 51
90.000000
  0
ARC
  8
1
  6
DASHED
 10
-620.081409
 20
569.563679
 40
32.000000
 50
90.000000
 51
180.000000
  0
ARC
  8
1
  6
DASHED
 10
-620.081409
 20
508.563679
 40
32.000000
 50
180.000000
 51
270.000000
  0
ARC
  8
1
  6
DASHED
 10
-559.081409
 20
508.563679
 40
32.000000
 50
270.000000
 51
360.000000
  0
CIRCLE
  8
1
  6
DASHED
 10
-545.387235
 20
583.257853
 40
6.500000
  0
CIRCLE
  8
1
  6
DASHED
 10
-633.775583
 20
583.257853
 40
6.500000
  0
CIRCLE
  8
1
  6
DASHED
 10
-545.387235
 20
494.869506
 40
6.500000
  0
CIRCLE
  8
1
  6
DASHED
 10
-633.775583
 20
494.869506
 40
6.500000
  0
LINE
  8
1
 10
-648.081409
 20
-152.536321
 11
-531.081409
 21
-152.536321
  0
LINE
  8
1
 10
-652.081409
 20
-148.536321
 11
-652.081409
 21
-136.536321
  0
LINE
  8
1
 10
-527.081409
 20
-148.536321
 11
-527.081409
 21
-136.536321
  0
ARC
  8
1
 10
-648.081409
 20
-148.536321
 40
4.000000
 50
180.000000
 51
270.000000
  0
ARC
  8
1
 10
-531.081409
 20
-148.536321
 40
4.000000
 50
270.000000
 51
360.000000
  0
ARC
  8
1
 10
-401.225873
 20
-383.066607
 40
11.500000
 50
157.196334
 51
232.803666
  0
ARC
  8
1
 10
-451.695587
 20
-295.650498
 40
11.500000
 50
187.196334
 51
262.803666
  0
ARC
  8
1
 10
-539.111695
 20
-245.180784
 40
11.500000
 50
217.196334
 51
292.803666
  0
ARC
  8
1
 10
-640.051123
 20
-245.180784
 40
11.500000
 50
247.196334
 51
322.803666
  0
ARC
  8
1
 10
-727.467231
 20
-295.650498
 40
11.500000
 50
277.196334
 51
352.803666
  0
ARC
  8
1
 10
-777.936945
 20
-383.066607
 40
11.500000
 50
307.196334
 51
22.803666
  0
ARC
  8
1
 10
-777.936945
 20
-484.006034
 40
11.500000
 50
337.196334
 51
52.803666
  0
ARC
  8
1
 10
-727.467231
 20
-571.422143
 40
11.500000
 50
7.196334
 51
82.803666
  0
ARC
  8
1
 10
-640.051123
 20
-621.891857
 40
11.500000
 50
37.196334
 51
112.803666
  0
ARC
  8
1
 10
-539.111695
 20
-621.891857
 40
11.500000
 50
67.196334
 51
142.803666
  0
ARC
  8
1
 10
-451.695587
 20
-571.422143
 40
11.500000
 50
97.196334
 51
172.803666
  0
ARC
  8
1
 10
-401.225873
 20
-484.006034
 40
11.500000
 50
127.196334
 51
202.803666
  0
ARC
  8
1
 10
-589.581409
 20
-433.536321
 40
187.000000
 50
17.975973
 51
42.024027
  0
ARC
  8
1
 10
-453.637268
 20
-311.028400
 40
4.000000
 50
42.024027
 51
82.803666
  0
ARC
  8
1
 10
-467.073489
 20
-297.592180
 40
4.000000
 50
7.196334
 51
47.975973
  0
ARC
  8
1
 10
-415.514367
 20
-377.059201
 40
4.000000
 50
337.196334
 51
17.975973
  0
ARC
  8
1
 10
-410.596369
 20
-395.413420
 40
4.000000
 50
12.024027
 51
52.803666
  0
ARC
  8
1
 10
-589.581409
 20
-433.536321
 40
187.000000
 50
47.975973
 51
72.024027
  0
ARC
  8
1
 10
-589.581409
 20
-433.536321
 40
187.000000
 50
77.975973
 51
102.024027
  0
ARC
  8
1
 10
-533.104289
 20
-259.469279
 40
4.000000
 50
72.024027
 51
112.803666
  0
ARC
  8
1
 10
-551.458508
 20
-254.551281
 40
4.000000
 50
37.196334
 51
77.975973
  0
ARC
  8
1
 10
-627.704310
 20
-254.551281
 40
4.000000
 50
102.024027
 51
142.803666
  0
ARC
  8
1
 10
-646.058529
 20
-259.469279
 40
4.000000
 50
67.196334
 51
107.975973
  0
ARC
  8
1
 10
-589.581409
 20
-433.536321
 40
187.000000
 50
107.975973
 51
132.024027
  0
ARC
  8
1
 10
-589.581409
 20
-433.536321
 40
187.000000
 50
137.975973
 51
162.024027
  0
ARC
  8
1
 10
-768.566449
 20
-395.413420
 40
4.000000
 50
127.196334
 51
167.975973
  0
ARC
  8
1
 10
-763.648451
 20
-377.059201
 40
4.000000
 50
162.024027
 51
202.803666
  0
ARC
  8
1
 10
-725.525550
 20
-311.028400
 40
4.000000
 50
97.196334
 51
137.975973
  0
ARC
  8
1
 10
-712.089329
 20
-297.592180
 40
4.000000
 50
132.024027
 51
172.803666
  0
ARC
  8
1
 10
-589.581409
 20
-433.536321
 40
187.000000
 50
167.975973
 51
192.024027
  0
ARC
  8
1
 10
-589.581409
 20
-433.536321
 40
187.000000
 50
197.975973
 51
222.024027
  0
ARC
  8
1
 10
-763.648451
 20
-490.013440
 40
4.000000
 50
157.196334
 51
197.975973
  0
ARC
  8
1
 10
-768.566449
 20
-471.659221
 40
4.000000
 50
192.024027
 51
232.803666
  0
ARC
  8
1
 10
-725.525550
 20
-556.044241
 40
4.000000
 50
222.024027
 51
262.803666
  0
ARC
  8
1
 10
-712.089329
 20
-569.480462
 40
4.000000
 50
187.196334
 51
227.975973
  0
ARC
  8
1
 10
-589.581409
 20
-433.536321
 40
187.000000
 50
227.975973
 51
252.024027
  0
ARC
  8
1
 10
-589.581409
 20
-433.536321
 40
187.000000
 50
257.975973
 51
282.024027
  0
ARC
  8
1
 10
-551.458508
 20
-612.521360
 40
4.000000
 50
282.024027
 51
322.803666
  0
ARC
  8
1
 10
-533.104289
 20
-607.603362
 40
4.000000
 50
247.196334
 51
287.975973
  0
ARC
  8
1
 10
-627.704310
 20
-612.521360
 40
4.000000
 50
217.196334
 51
257.975973
  0
ARC
  8
1
 10
-646.058529
 20
-607.603362
 40
4.000000
 50
252.024027
 51
292.803666
  0
ARC
  8
1
 10
-589.581409
 20
-433.536321
 40
187.000000
 50
347.975973
 51
12.024027
  0
ARC
  8
1
 10
-589.581409
 20
-433.536321
 40
187.000000
 50
287.975973
 51
312.024027
  0
ARC
  8
1
 10
-589.581409
 20
-433.536321
 40
187.000000
 50
317.975973
 51
342.024027
  0
ARC
  8
1
 10
-410.596369
 20
-471.659221
 40
4.000000
 50
307.196334
 51
347.975973
  0
ARC
  8
1
 10
-415.514367
 20
-490.013440
 40
4.000000
 50
342.024027
 51
22.803666
  0
ARC
  8
1
 10
-453.637268
 20
-556.044241
 40
4.000000
 50
277.196334
 51
317.975973
  0
ARC
  8
1
 10
-467.073489
 20
-569.480462
 40
4.000000
 50
312.024027
 51
352.803666
  0
LINE
  8
1
 10
-624.581409
 20
-187.536321
 11
-554.581409
 21
-187.536321
  0
LINE
  8
1
 10
-624.581409
 20
-216.375672
 11
-624.581409
 21
-189.817517
  0
LINE
  8
1
 10
-554.581409
 20
-216.375672
 11
-554.581409
 21
-189.817517
  0
LINE
  8
1
 10
-632.581409
 20
-176.255125
 11
-632.581409
 21
-157.536321
  0
LINE
  8
1
 10
-546.581409
 20
-176.255125
 11
-546.581409
 21
-157.536321
  0
LINE
  8
1
 10
-548.096953
 20
-180.241308
 11
-553.065865
 21
-185.831333
  0
LINE
  8
1
 10
-631.065865
 20
-180.241308
 11
-626.096953
 21
-185.831333
  0
ARC
  8
1
 10
-548.581409
 20
-189.817517
 40
6.000000
 50
138.366461
 51
180.000000
  0
ARC
  8
1
 10
-630.581409
 20
-189.817517
 40
6.000000
 50
360.000000
 51
41.633539
  0
ARC
  8
1
 10
-626.581409
 20
-176.255125
 40
6.000000
 50
180.000000
 51
221.633539
  0
ARC
  8
1
 10
-552.581409
 20
-176.255125
 40
6.000000
 50
318.366461
 51
0.000000
  0
ARC
  8
1
 10
-530.581409
 20
-168.530070
 40
16.000000
 50
91.432544
 51
180.000000
  0
ARC
  8
1
 10
-648.581409
 20
-168.530070
 40
16.000000
 50
0.000000
 51
88.567456
  0
ARC
  8
1
 10
-541.581409
 20
-157.536321
 40
5.000000
 50
90.000000
 51
180.000000
  0
ARC
  8
1
 10
-637.581409
 20
-157.536321
 40
5.000000
 50
360.000000
 51
90.000000
  0
LINE
  8
1
 10
-584.581409
 20
-168.530070
 11
-594.581409
 21
-168.530070
  0
LINE
  8
1
 10
-594.581409
 20
-165.530070
 11
-594.581409
 21
-155.536321
  0
LINE
  8
1
 10
-584.581409
 20
-165.530070
 11
-584.581409
 21
-155.536321
  0
ARC
  8
1
 10
-581.581409
 20
-165.530070
 40
3.000000
 50
180.000000
 51
270.000000
  0
ARC
  8
1
 10
-581.581409
 20
-155.536321
 40
3.000000
 50
90.000000
 51
180.000000
  0
ARC
  8
1
 10
-597.581409
 20
-155.536321
 40
3.000000
 50
0.000000
 51
90.000000
  0
ARC
  8
1
 10
-597.581409
 20
-165.530070
 40
3.000000
 50
270.000000
 51
360.000000
  0
LINE
  8
1
 10
-571.770226
 20
-157.536321
 11
-571.770226
 21
-174.905195
  0
LINE
  8
1
 10
-607.392592
 20
-157.536321
 11
-607.392592
 21
-174.905195
  0
ARC
  8
1
 10
-566.770226
 20
-157.536321
 40
5.000000
 50
90.000000
 51
180.000000
  0
ARC
  8
1
 10
-612.392592
 20
-157.536321
 40
5.000000
 50
0.000000
 51
90.000000
  0
LINE
  8
1
 10
-568.553378
 20
-180.220650
 11
-557.837710
 21
-185.831333
  0
LINE
  8
1
 10
-610.609440
 20
-180.220650
 11
-621.325108
 21
-185.831333
  0
ARC
  8
1
 10
-565.770226
 20
-174.905195
 40
6.000000
 50
180.000000
 51
242.363614
  0
ARC
  8
1
 10
-613.392592
 20
-174.905195
 40
6.000000
 50
297.636386
 51
0.000000
  0
LINE
  8
1
 10
-568.553378
 20
-178.536321
 11
-548.096953
 21
-178.536321
  0
LINE
  8
1
 10
-631.065865
 20
-178.536321
 11
-610.609440
 21
-178.536321
  0
LINE
  8
1
 10
-607.392592
 20
-178.536321
 11
-571.770226
 21
-178.536321
  0
ARC
  8
1
 10
-550.581409
 20
-237.375672
 40
13.000000
 50
133.602819
 51
258.755276
  0
ARC
  8
1
 10
-628.581409
 20
-237.375672
 40
13.000000
 50
281.244724
 51
46.397181
  0
ARC
  8
1
 10
-570.581409
 20
-216.375672
 40
16.000000
 50
313.602819
 51
360.000000
  0
ARC
  8
1
 10
-608.581409
 20
-216.375672
 40
16.000000
 50
180.000000
 51
226.397181
  0
LINE
  8
1
 10
-659.292598
 20
-250.644686
 11
-664.778957
 21
-230.169316
  0
LINE
  8
1
 10
-645.460441
 20
-204.992935
 11
-630.581409
 21
-204.992935
  0
ARC
  8
1
 10
-645.460441
 20
-224.992935
 40
20.000000
 50
90.000000
 51
195.000000
  0
ARC
  8
1
 10
-630.581409
 20
-198.992935
 40
6.000000
 50
270.000000
 51
0.000000
  0
ARC
  8
1
 10
-668.951857
 20
-253.232876
 40
10.000000
 50
293.759326
 51
15.000000
  0
ARC
  8
1
 10
-548.581409
 20
-198.992935
 40
6.000000
 50
180.000000
 51
270.000000
  0
LINE
  8
1
 10
-533.702377
 20
-204.992935
 11
-548.581409
 21
-204.992935
  0
ARC
  8
1
 10
-533.702377
 20
-224.992935
 40
20.000000
 50
345.000000
 51
90.000000
  0
LINE
  8
1
 10
-519.870220
 20
-250.644686
 11
-514.383861
 21
-230.169316
  0
ARC
  8
1
 10
-510.210961
 20
-253.232876
 40
10.000000
 50
165.000000
 51
246.240674
  0
CIRCLE
  8
1
 10
-628.599473
 20
-237.379265
 40
12.000000
  0
CIRCLE
  8
1
 10
-550.563345
 20
-237.379265
 40
12.000000
  0
LINE
  8
1
 10
-634.581409
 20
-730.536321
 11
-544.581409
 21
-730.536321
  0
LINE
  8
1
 10
-624.581409
 20
-650.696969
 11
-624.581409
 21
-677.255125
  0
LINE
  8
1
 10
-554.581409
 20
-650.696969
 11
-554.581409
 21
-677.255125
  0
ARC
  8
1
 10
-550.581409
 20
-629.696969
 40
13.000000
 50
101.244724
 51
226.397181
  0
ARC
  8
1
 10
-628.581409
 20
-629.696969
 40
13.000000
 50
313.602819
 51
78.755276
  0
ARC
  8
1
 10
-570.581409
 20
-650.696969
 40
16.000000
 50
0.000000
 51
46.397181
  0
ARC
  8
1
 10
-608.581409
 20
-650.696969
 40
16.000000
 50
133.602819
 51
180.000000
  0
LINE
  8
1
 10
-631.065865
 20
-688.536321
 11
-548.096953
 21
-688.536321
  0
LINE
  8
1
 10
-624.581409
 20
-679.536321
 11
-554.581409
 21
-679.536321
  0
LINE
  8
1
 10
-632.581409
 20
-706.893680
 11
-632.581409
 21
-690.817517
  0
LINE
  8
1
 10
-546.581409
 20
-706.893680
 11
-546.581409
 21
-690.817517
  0
LINE
  8
1
 10
-553.065865
 20
-681.241308
 11
-548.096953
 21
-686.831333
  0
LINE
  8
1
 10
-626.096953
 20
-681.241308
 11
-631.065865
 21
-686.831333
  0
ARC
  8
1
 10
-548.581409
 20
-677.255125
 40
6.000000
 50
180.000000
 51
221.633539
  0
ARC
  8
1
 10
-552.581409
 20
-690.817517
 40
6.000000
 50
0.000000
 51
41.633539
  0
ARC
  8
1
 10
-630.581409
 20
-677.255125
 40
6.000000
 50
318.366461
 51
360.000000
  0
ARC
  8
1
 10
-626.581409
 20
-690.817517
 40
6.000000
 50
138.366461
 51
180.000000
  0
LINE
  8
1
 10
-634.581409
 20
-730.536321
 11
-634.581409
 21
-711.378961
  0
LINE
  8
1
 10
-544.581409
 20
-730.536321
 11
-544.581409
 21
-711.378961
  0
LINE
  8
1
 10
-633.702729
 20
-710.136321
 11
-545.460089
 21
-710.136321
  0
LINE
  8
1
 10
-632.581409
 20
-708.136321
 11
-546.581409
 21
-708.136321
  0
LINE
  8
1
 10
-545.702729
 20
-709.015000
 11
-545.460089
 21
-709.257641
  0
LINE
  8
1
 10
-633.460089
 20
-709.015000
 11
-633.702729
 21
-709.257641
  0
ARC
  8
1
 10
-543.581409
 20
-706.893680
 40
3.000000
 50
180.000000
 51
225.000000
  0
ARC
  8
1
 10
-547.581409
 20
-711.378961
 40
3.000000
 50
0.000000
 51
45.000000
  0
ARC
  8
1
 10
-635.581409
 20
-706.893680
 40
3.000000
 50
315.000000
 51
0.000000
  0
ARC
  8
1
 10
-631.581409
 20
-711.378961
 40
3.000000
 50
135.000000
 51
180.000000
  0
LINE
  8
1
 10
-813.081409
 20
-455.536321
 11
-813.081409
 21
-411.536321
  0
LINE
  8
1
 10
-810.081409
 20
-408.536321
 11
-777.506926
 21
-408.536321
  0
LINE
  8
1
 10
-810.081409
 20
-458.536321
 11
-777.506926
 21
-458.536321
  0
ARC
  8
1
 10
-810.081409
 20
-411.536321
 40
3.000000
 50
90.000000
 51
180.000000
  0
ARC
  8
1
 10
-810.081409
 20
-455.536321
 40
3.000000
 50
180.000000
 51
270.000000
  0
LINE
  8
1
 10
-813.081409
 20
-433.536321
 11
-771.081409
 21
-433.536321
  0
LINE
  8
1
 10
-366.081409
 20
-455.536321
 11
-366.081409
 21
-411.536321
  0
LINE
  8
1
 10
-369.081409
 20
-408.536321
 11
-401.655892
 21
-408.536321
  0
LINE
  8
1
 10
-369.081409
 20
-458.536321
 11
-401.655892
 21
-458.536321
  0
ARC
  8
1
 10
-369.081409
 20
-411.536321
 40
3.000000
 50
0.000000
 51
90.000000
  0
ARC
  8
1
 10
-369.081409
 20
-455.536321
 40
3.000000
 50
270.000000
 51
360.000000
  0
LINE
  8
1
 10
-366.081409
 20
-433.536321
 11
-408.081409
 21
-433.536321
  0
LINE
  8
1
 10
-366.081409
 20
518.063679
 11
-366.081409
 21
560.063679
  0
LINE
  8
1
 10
-401.260066
 20
572.063679
 11
-378.081409
 21
572.063679
  0
LINE
  8
1
 10
-401.260066
 20
506.063679
 11
-378.081409
 21
506.063679
  0
ARC
  8
1
 10
-378.081409
 20
560.063679
 40
12.000000
 50
0.000000
 51
90.000000
  0
ARC
  8
1
 10
-378.081409
 20
518.063679
 40
12.000000
 50
270.000000
 51
360.000000
  0
ARC
  8
1
 10
-399.581409
 20
575.063679
 40
3.000000
 50
180.000000
 51
270.000000
  0
ARC
  8
1
 10
-399.581409
 20
503.063679
 40
3.000000
 50
90.000000
 51
180.000000
  0
ARC
  8
1
 10
-401.260066
 20
575.063679
 40
3.000000
 50
180.000000
 51
270.000000
  0
ARC
  8
1
 10
-401.260066
 20
503.063679
 40
3.000000
 50
90.000000
 51
180.000000
  0
LINE
  8
1
  6
DASHED
 10
-469.165463
 20
529.878634
 11
-469.165463
 21
548.248725
  0
LINE
  8
1
  6
DASHED
 10
-527.081409
 20
553.248725
 11
-474.165463
 21
553.248725
  0
LINE
  8
1
 10
-439.303289
 20
553.248725
 11
-421.429692
 21
553.248725
  0
LINE
  8
1
  6
DASHED
 10
-527.081409
 20
524.878634
 11
-474.165463
 21
524.878634
  0
LINE
  8
1
 10
-439.303289
 20
524.878634
 11
-421.429692
 21
524.878634
  0
ARC
  8
1
  6
DASHED
 10
-474.165463
 20
548.248725
 40
5.000000
 50
0.000000
 51
90.000000
  0
ARC
  8
1
  6
DASHED
 10
-474.165463
 20
529.878634
 40
5.000000
 50
270.000000
 51
360.000000
  0
LINE
  8
1
 10
-439.303289
 20
520.063679
 11
-439.303289
 21
558.063679
  0
LINE
  8
1
  6
DASHED
 10
-446.162442
 20
520.063679
 11
-446.162442
 21
558.063679
  0
LINE
  8
1
 10
-434.303289
 20
563.063679
 11
-411.514367
 21
563.063679
  0
LINE
  8
1
 10
-434.303289
 20
515.063679
 11
-411.514367
 21
515.063679
  0
ARC
  8
1
  6
DASHED
 10
-451.162442
 20
558.063679
 40
5.000000
 50
0.000000
 51
90.000000
  0
ARC
  8
1
  6
DASHED
 10
-451.162442
 20
520.063679
 40
5.000000
 50
270.000000
 51
360.000000
  0
ARC
  8
1
 10
-434.303289
 20
520.063679
 40
5.000000
 50
180.000000
 51
270.000000
  0
ARC
  8
1
 10
-434.303289
 20
558.063679
 40
5.000000
 50
90.000000
 51
180.000000
  0
LINE
  8
1
 10
-421.429692
 20
530.680762
 11
-421.429692
 21
547.446597
  0
LINE
  8
1
 10
-404.260066
 20
506.063679
 11
-404.260066
 21
512.162615
  0
LINE
  8
1
 10
-404.260066
 20
565.964743
 11
-404.260066
 21
572.063679
  0
LINE
  8
1
 10
-406.778659
 20
561.623935
 11
-416.392507
 21
556.128214
  0
LINE
  8
1
 10
-416.392507
 20
521.999145
 11
-406.778659
 21
516.503424
  0
ARC
  8
1
 10
-409.260066
 20
565.964743
 40
5.000000
 50
299.754289
 51
360.000000
  0
ARC
  8
1
 10
-409.260066
 20
512.162615
 40
5.000000
 50
360.000000
 51
60.245711
  0
ARC
  8
1
 10
-411.429692
 20
547.446597
 40
10.000000
 50
119.754289
 51
180.000000
  0
ARC
  8
1
 10
-411.429692
 20
530.680762
 40
10.000000
 50
180.000000
 51
240.245711
  0
LINE
  8
1
  6
DASHED
 10
-451.162442
 20
560.930274
 11
-469.165463
 21
553.248725
  0
LINE
  8
1
  6
DASHED
 10
-451.162442
 20
517.197085
 11
-469.165463
 21
524.878634
  0
ARC
  8
1
  6
DASHED
 10
-459.827315
 20
564.860267
 40
3.817313
 50
220.740630
 51
270.000000
  0
ARC
  8
1
  6
DASHED
 10
-459.827315
 20
578.169021
 40
17.126068
 50
270.000000
 51
296.254529
  0
LINE
  8
1
  6
DASHED
 10
-513.702377
 20
563.063679
 11
-464.234928
 21
563.063679
  0
ARC
  8
1
  6
DASHED
 10
-459.827315
 20
513.267092
 40
3.817313
 50
90.000000
 51
139.259370
  0
LINE
  8
1
  6
DASHED
 10
-527.081409
 20
515.063679
 11
-464.234928
 21
515.063679
  0
ARC
  8
1
  6
DASHED
 10
-464.234928
 20
561.063679
 40
2.000000
 50
40.740630
 51
90.000000
  0
ARC
  8
1
  6
DASHED
 10
-451.162442
 20
560.601899
 40
2.461780
 50
90.000000
 51
116.254529
  0
ARC
  8
1
  6
DASHED
 10
-464.234928
 20
517.063679
 40
2.000000
 50
270.000000
 51
319.259370
  0
ARC
  8
1
  6
DASHED
 10
-451.162442
 20
517.525460
 40
2.461780
 50
243.745471
 51
270.000000
  0
ARC
  8
1
  6
DASHED
 10
-459.827315
 20
499.958337
 40
17.126068
 50
63.745471
 51
90.000000
  0
LINE
  8
1
  6
DASHED
 10
-463.195423
 20
563.063679
 11
-463.195423
 21
575.063679
  0
LINE
  8
1
  6
DASHED
 10
-451.756946
 20
563.063679
 11
-451.756946
 21
575.063679
  0
LINE
  8
1
  6
DASHED
 10
-463.195423
 20
515.063679
 11
-463.195423
 21
503.063679
  0
LINE
  8
1
  6
DASHED
 10
-451.756946
 20
515.063679
 11
-451.756946
 21
503.063679
  0
LINE
  8
1
 10
-411.514367
 20
563.063679
 11
-411.514367
 21
575.063679
  0
LINE
  8
1
 10
-407.028930
 20
563.063679
 11
-407.028930
 21
575.063679
  0
ARC
  8
1
 10
-412.334020
 20
569.017145
 40
7.974192
 50
270.000000
 51
311.703999
  0
ARC
  8
1
 10
-411.025108
 20
561.434806
 40
1.700765
 50
106.718534
 51
180.000000
  0
ARC
  8
1
 10
-412.334020
 20
561.434806
 40
0.391853
 50
180.000000
 51
270.000000
  0
ARC
  8
1
 10
-411.025108
 20
516.692552
 40
1.700765
 50
180.000000
 51
253.281466
  0
ARC
  8
1
 10
-412.334020
 20
516.692552
 40
0.391853
 50
90.000000
 51
180.000000
  0
ARC
  8
1
 10
-412.334020
 20
509.110214
 40
7.974192
 50
48.296001
 51
90.000000
  0
LINE
  8
1
 10
-407.028930
 20
515.063679
 11
-407.028930
 21
503.063679
  0
LINE
  8
1
 10
-411.514367
 20
515.063679
 11
-411.514367
 21
503.063679
  0
CIRCLE
  8
1
 62
2
 10
-385.581409
 20
555.563679
 40
8.000000
  0
CIRCLE
  8
1
 10
-385.581409
 20
555.563679
 40
6.917500
  0
CIRCLE
  8
1
 62
2
 10
-385.581409
 20
522.563679
 40
8.000000
  0
CIRCLE
  8
1
 10
-385.581409
 20
522.563679
 40
6.917500
  0
LINE
  8
1
  6
DASHED
 10
-513.702377
 20
563.063679
 11
-513.702377
 21
569.063679
  0
LINE
  8
1
  6
DASHED
 10
-527.179215
 20
572.063679
 11
-516.702377
 21
572.063679
  0
LINE
  8
1
  6
DASHED
 10
-527.081409
 20
560.063679
 11
-516.702377
 21
560.063679
  0
ARC
  8
1
  6
DASHED
 10
-516.702377
 20
569.063679
 40
3.000000
 50
0.000000
 51
90.000000
  0
ARC
  8
1
  6
DASHED
 10
-516.702377
 20
563.063679
 40
3.000000
 50
270.000000
 51
360.000000
  0
LINE
  8
1
 10
123.918591
 20
-246.536321
 11
123.918591
 21
-620.536321
  0
LINE
  8
1
 10
102.103636
 20
-395.480765
 11
102.103636
 21
-340.721099
  0
LINE
  8
1
 10
102.103636
 20
-305.239617
 11
102.103636
 21
-273.309204
  0
LINE
  8
1
 10
73.733546
 20
-395.480765
 11
73.733546
 21
-340.721099
  0
LINE
  8
1
 10
73.733546
 20
-305.239617
 11
73.733546
 21
-273.309204
  0
LINE
  8
1
 10
111.918591
 20
-295.117354
 11
111.918591
 21
-265.326771
  0
LINE
  8
1
 10
63.918591
 20
-295.117354
 11
63.918591
 21
-255.469279
  0
ARC
  8
1
 10
113.715178
 20
-303.782226
 40
3.817313
 50
180.000000
 51
226.055799
  0
ARC
  8
1
 10
127.023933
 20
-303.782226
 40
17.126068
 50
153.745471
 51
180.000000
  0
ARC
  8
1
 10
109.456811
 20
-295.117354
 40
2.461780
 50
333.745471
 51
360.000000
  0
ARC
  8
1
 10
66.380371
 20
-295.117354
 40
2.461780
 50
180.000000
 51
206.254529
  0
ARC
  8
1
 10
48.813249
 20
-303.782226
 40
17.126068
 50
0.000000
 51
26.254529
  0
LINE
  8
1
 10
111.918591
 20
-307.150335
 11
123.918591
 21
-307.150335
  0
LINE
  8
1
 10
111.918591
 20
-295.711858
 11
123.918591
 21
-295.711858
  0
LINE
  8
1
 10
63.918591
 20
-307.150335
 11
51.918591
 21
-307.150335
  0
LINE
  8
1
 10
63.918591
 20
-295.711858
 11
51.918591
 21
-295.711858
  0
ARC
  8
1
 10
65.547464
 20
-254.980019
 40
1.700765
 50
196.718534
 51
270.000000
  0
ARC
  8
1
 10
65.547464
 20
-256.288931
 40
0.391853
 50
270.000000
 51
360.000000
  0
ARC
  8
1
 10
57.965125
 20
-256.288931
 40
7.974192
 50
0.000000
 51
41.703999
  0
LINE
  8
1
 10
63.918591
 20
-250.983842
 11
51.918591
 21
-250.983842
  0
LINE
  8
1
 10
63.918591
 20
-255.469279
 11
51.918591
 21
-255.469279
  0
LINE
  8
1
  6
DASHED
 10
-651.605210
 20
575.063679
 11
-776.581409
 21
575.063679
  0
LINE
  8
1
  6
DASHED
 10
-651.605210
 20
503.063679
 11
-776.581409
 21
503.063679
  0
LINE
  8
1
 10
-813.081409
 20
518.063679
 11
-813.081409
 21
560.063679
  0
LINE
  8
1
  6
DASHED
 10
-777.902752
 20
572.063679
 11
-801.081409
 21
572.063679
  0
LINE
  8
1
  6
DASHED
 10
-777.902752
 20
506.063679
 11
-801.081409
 21
506.063679
  0
ARC
  8
1
  6
DASHED
 10
-779.581409
 20
575.063679
 40
3.000000
 50
270.000000
 51
360.000000
  0
ARC
  8
1
  6
DASHED
 10
-779.581409
 20
503.063679
 40
3.000000
 50
0.000000
 51
90.000000
  0
ARC
  8
1
  6
DASHED
 10
-777.902752
 20
575.063679
 40
3.000000
 50
270.000000
 51
360.000000
  0
ARC
  8
1
  6
DASHED
 10
-777.902752
 20
503.063679
 40
3.000000
 50
0.000000
 51
90.000000
  0
LINE
  8
1
  6
DASHED
 10
-709.997355
 20
529.878634
 11
-709.997355
 21
548.248725
  0
LINE
  8
1
  6
DASHED
 10
-652.081409
 20
553.248725
 11
-704.997355
 21
553.248725
  0
LINE
  8
1
  6
DASHED
 10
-739.859529
 20
553.248725
 11
-757.733126
 21
553.248725
  0
LINE
  8
1
  6
DASHED
 10
-652.081409
 20
524.878634
 11
-704.997355
 21
524.878634
  0
LINE
  8
1
  6
DASHED
 10
-739.859529
 20
524.878634
 11
-757.733126
 21
524.878634
  0
ARC
  8
1
  6
DASHED
 10
-704.997355
 20
548.248725
 40
5.000000
 50
90.000000
 51
180.000000
  0
ARC
  8
1
  6
DASHED
 10
-704.997355
 20
529.878634
 40
5.000000
 50
180.000000
 51
270.000000
  0
LINE
  8
1
  6
DASHED
 10
-739.859529
 20
520.063679
 11
-739.859529
 21
558.063679
  0
LINE
  8
1
  6
DASHED
 10
-733.000376
 20
520.063679
 11
-733.000376
 21
558.063679
  0
LINE
  8
1
  6
DASHED
 10
-744.859529
 20
563.063679
 11
-767.648451
 21
563.063679
  0
LINE
  8
1
  6
DASHED
 10
-744.859529
 20
515.063679
 11
-767.648451
 21
515.063679
  0
ARC
  8
1
  6
DASHED
 10
-728.000376
 20
558.063679
 40
5.000000
 50
90.000000
 51
180.000000
  0
ARC
  8
1
  6
DASHED
 10
-728.000376
 20
520.063679
 40
5.000000
 50
180.000000
 51
270.000000
  0
ARC
  8
1
  6
DASHED
 10
-744.859529
 20
520.063679
 40
5.000000
 50
270.000000
 51
0.000000
  0
ARC
  8
1
  6
DASHED
 10
-744.859529
 20
558.063679
 40
5.000000
 50
360.000000
 51
90.000000
  0
LINE
  8
1
  6
DASHED
 10
-757.733126
 20
530.680762
 11
-757.733126
 21
547.446597
  0
LINE
  8
1
  6
DASHED
 10
-774.902752
 20
506.063679
 11
-774.902752
 21
512.162615
  0
LINE
  8
1
  6
DASHED
 10
-774.902752
 20
565.964743
 11
-774.902752
 21
572.063679
  0
LINE
  8
1
  6
DASHED
 10
-772.384159
 20
561.623935
 11
-762.770311
 21
556.128214
  0
LINE
  8
1
  6
DASHED
 10
-762.770311
 20
521.999145
 11
-772.384159
 21
516.503424
  0
ARC
  8
1
  6
DASHED
 10
-769.902752
 20
565.964743
 40
5.000000
 50
180.000000
 51
240.245711
  0
ARC
  8
1
  6
DASHED
 10
-769.902752
 20
512.162615
 40
5.000000
 50
119.754289
 51
180.000000
  0
ARC
  8
1
  6
DASHED
 10
-767.733126
 20
547.446597
 40
10.000000
 50
0.000000
 51
60.245711
  0
ARC
  8
1
  6
DASHED
 10
-767.733126
 20
530.680762
 40
10.000000
 50
299.754289
 51
360.000000
  0
LINE
  8
1
  6
DASHED
 10
-728.000376
 20
560.930274
 11
-709.997355
 21
553.248725
  0
LINE
  8
1
  6
DASHED
 10
-728.000376
 20
517.197085
 11
-709.997355
 21
524.878634
  0
ARC
  8
1
  6
DASHED
 10
-719.335503
 20
564.860267
 40
3.817313
 50
270.000000
 51
319.259370
  0
ARC
  8
1
  6
DASHED
 10
-719.335503
 20
578.169021
 40
17.126068
 50
243.745471
 51
270.000000
  0
LINE
  8
1
  6
DASHED
 10
-665.460441
 20
563.063679
 11
-714.927890
 21
563.063679
  0
ARC
  8
1
  6
DASHED
 10
-719.335503
 20
513.267092
 40
3.817313
 50
40.740630
 51
90.000000
  0
LINE
  8
1
  6
DASHED
 10
-652.081409
 20
515.063679
 11
-714.927890
 21
515.063679
  0
ARC
  8
1
  6
DASHED
 10
-714.927890
 20
561.063679
 40
2.000000
 50
90.000000
 51
139.259370
  0
ARC
  8
1
  6
DASHED
 10
-728.000376
 20
560.601899
 40
2.461780
 50
63.745471
 51
90.000000
  0
ARC
  8
1
  6
DASHED
 10
-714.927890
 20
517.063679
 40
2.000000
 50
220.740630
 51
270.000000
  0
ARC
  8
1
  6
DASHED
 10
-728.000376
 20
517.525460
 40
2.461780
 50
270.000000
 51
296.254529
  0
ARC
  8
1
  6
DASHED
 10
-719.335503
 20
499.958337
 40
17.126068
 50
90.000000
 51
116.254529
  0
LINE
  8
1
  6
DASHED
 10
-715.967395
 20
563.063679
 11
-715.967395
 21
575.063679
  0
LINE
  8
1
  6
DASHED
 10
-727.405872
 20
563.063679
 11
-727.405872
 21
575.063679
  0
LINE
  8
1
  6
DASHED
 10
-715.967395
 20
515.063679
 11
-715.967395
 21
503.063679
  0
LINE
  8
1
  6
DASHED
 10
-727.405872
 20
515.063679
 11
-727.405872
 21
503.063679
  0
LINE
  8
1
  6
DASHED
 10
-767.648451
 20
563.063679
 11
-767.648451
 21
575.063679
  0
LINE
  8
1
  6
DASHED
 10
-772.133888
 20
563.063679
 11
-772.133888
 21
575.063679
  0
ARC
  8
1
  6
DASHED
 10
-766.828798
 20
569.017145
 40
7.974192
 50
228.296001
 51
270.000000
  0
ARC
  8
1
  6
DASHED
 10
-768.137710
 20
561.434806
 40
1.700765
 50
0.000000
 51
73.281466
  0
ARC
  8
1
  6
DASHED
 10
-766.828798
 20
561.434806
 40
0.391853
 50
270.000000
 51
360.000000
  0
ARC
  8
1
  6
DASHED
 10
-768.137710
 20
516.692552
 40
1.700765
 50
286.718534
 51
360.000000
  0
ARC
  8
1
  6
DASHED
 10
-766.828798
 20
516.692552
 40
0.391853
 50
0.000000
 51
90.000000
  0
ARC
  8
1
  6
DASHED
 10
-766.828798
 20
509.110214
 40
7.974192
 50
90.000000
 51
131.703999
  0
LINE
  8
1
  6
DASHED
 10
-772.133888
 20
515.063679
 11
-772.133888
 21
503.063679
  0
LINE
  8
1
  6
DASHED
 10
-767.648451
 20
515.063679
 11
-767.648451
 21
503.063679
  0
CIRCLE
  8
1
  6
DASHED
 62
2
 10
-793.581409
 20
555.563679
 40
8.000000
  0
CIRCLE
  8
1
  6
DASHED
 10
-793.581409
 20
555.563679
 40
6.917500
  0
CIRCLE
  8
1
  6
DASHED
 62
2
 10
-793.581409
 20
522.563679
 40
8.000000
  0
CIRCLE
  8
1
  6
DASHED
 10
-793.581409
 20
522.563679
 40
6.917500
  0
LINE
  8
1
  6
DASHED
 10
-665.460441
 20
563.063679
 11
-665.460441
 21
569.063679
  0
LINE
  8
1
  6
DASHED
 10
-651.983603
 20
572.063679
 11
-662.460441
 21
572.063679
  0
LINE
  8
1
  6
DASHED
 10
-652.081409
 20
560.063679
 11
-662.460441
 21
560.063679
  0
ARC
  8
1
  6
DASHED
 10
-662.460441
 20
569.063679
 40
3.000000
 50
90.000000
 51
180.000000
  0
ARC
  8
1
  6
DASHED
 10
-662.460441
 20
563.063679
 40
3.000000
 50
180.000000
 51
270.000000
  0
LINE
  8
1
 10
78.733546
 20
-335.721099
 11
97.103636
 21
-335.721099
  0
ARC
  8
1
 10
97.103636
 20
-340.721099
 40
5.000000
 50
360.000000
 51
90.000000
  0
ARC
  8
1
 10
78.733546
 20
-340.721099
 40
5.000000
 50
90.000000
 51
180.000000
  0
LINE
  8
1
 10
68.918591
 20
-323.536321
 11
106.918591
 21
-323.536321
  0
ARC
  8
1
 10
106.918591
 20
-328.536321
 40
5.000000
 50
0.000000
 51
90.000000
  0
ARC
  8
1
 10
68.918591
 20
-328.536321
 40
5.000000
 50
90.000000
 51
180.000000
  0
LINE
  8
1
 10
68.918591
 20
-313.536321
 11
106.918591
 21
-313.536321
  0
ARC
  8
1
 10
106.918591
 20
-308.536321
 40
5.000000
 50
270.000000
 51
360.000000
  0
ARC
  8
1
 10
68.918591
 20
-308.536321
 40
5.000000
 50
180.000000
 51
270.000000
  0
ARC
  8
1
 10
109.133142
 20
-308.536321
 40
2.785449
 50
0.000000
 51
46.055799
  0
ARC
  8
1
 10
66.704040
 20
-308.536321
 40
2.785449
 50
133.944201
 51
180.000000
  0
ARC
  8
1
 10
62.122004
 20
-303.782226
 40
3.817313
 50
313.944201
 51
360.000000
  0
LINE
  8
1
 10
78.733546
 20
-310.239617
 11
97.103636
 21
-310.239617
  0
ARC
  8
1
 10
97.103636
 20
-305.239617
 40
5.000000
 50
270.000000
 51
360.000000
  0
ARC
  8
1
 10
78.733546
 20
-305.239617
 40
5.000000
 50
180.000000
 51
270.000000
  0
LINE
  8
1
 10
107.891044
 20
-328.536321
 11
102.103636
 21
-335.721099
  0
LINE
  8
1
 10
106.918591
 20
-311.856892
 11
102.103636
 21
-310.239617
  0
LINE
  8
1
 10
68.918591
 20
-311.856892
 11
73.733546
 21
-310.239617
  0
LINE
  8
1
 10
67.946138
 20
-328.536321
 11
73.733546
 21
-335.721099
  0
LINE
  8
1
 10
51.918591
 20
-377.369828
 11
63.918591
 21
-377.369828
  0
LINE
  8
1
 10
51.918591
 20
-392.995077
 11
63.918591
 21
-392.995077
  0
ARC
  8
1
 10
46.315750
 20
-386.043026
 40
19.623567
 50
0.000000
 51
26.230197
  0
ARC
  8
1
 10
52.970128
 20
-386.043026
 40
12.969189
 50
327.585283
 51
360.000000
  0
LINE
  8
1
 10
63.918591
 20
-403.536321
 11
63.918591
 21
-392.995077
  0
LINE
  8
1
 10
63.918591
 20
-377.369828
 11
63.918591
 21
-328.536321
  0
ARC
  8
1
 10
129.521432
 20
-386.043026
 40
19.623567
 50
153.769803
 51
180.000000
  0
ARC
  8
1
 10
122.867054
 20
-386.043026
 40
12.969189
 50
180.000000
 51
212.414717
  0
LINE
  8
1
 10
123.918591
 20
-377.369828
 11
111.918591
 21
-377.369828
  0
LINE
  8
1
 10
123.918591
 20
-392.995077
 11
111.918591
 21
-392.995077
  0
LINE
  8
1
 10
111.918591
 20
-403.536321
 11
111.918591
 21
-392.995077
  0
LINE
  8
1
 10
111.918591
 20
-377.369828
 11
111.918591
 21
-328.536321
  0
LINE
  8
1
 10
78.733546
 20
-400.480765
 11
97.103636
 21
-400.480765
  0
ARC
  8
1
 10
78.733546
 20
-395.480765
 40
5.000000
 50
180.000000
 51
270.000000
  0
ARC
  8
1
 10
97.103636
 20
-395.480765
 40
5.000000
 50
270.000000
 51
0.000000
  0
LINE
  8
1
 10
57.918591
 20
-408.536321
 11
117.918591
 21
-408.536321
  0
LINE
  8
1
 10
54.918591
 20
-411.536321
 11
54.918591
 21
-455.536321
  0
LINE
  8
1
 10
120.918591
 20
-411.536321
 11
120.918591
 21
-455.536321
  0
ARC
  8
1
 10
117.918591
 20
-411.536321
 40
3.000000
 50
0.000000
 51
90.000000
  0
ARC
  8
1
 10
57.918591
 20
-411.536321
 40
3.000000
 50
90.000000
 51
180.000000
  0
ARC
  8
1
 10
106.918591
 20
-403.536321
 40
5.000000
 50
270.000000
 51
360.000000
  0
ARC
  8
1
 10
68.918591
 20
-403.536321
 40
5.000000
 50
180.000000
 51
270.000000
  0
LINE
  8
1
 10
102.103636
 20
-400.480765
 11
106.918591
 21
-404.432605
  0
LINE
  8
1
 10
73.733546
 20
-400.480765
 11
68.918591
 21
-404.432605
  0
LINE
  8
1
 10
29.418591
 20
-152.536321
 11
146.418591
 21
-152.536321
  0
LINE
  8
1
 10
25.418591
 20
-148.536321
 11
25.418591
 21
-136.536321
  0
LINE
  8
1
 10
150.418591
 20
-148.536321
 11
150.418591
 21
-136.536321
  0
ARC
  8
1
 10
29.418591
 20
-148.536321
 40
4.000000
 50
180.000000
 51
270.000000
  0
ARC
  8
1
 10
146.418591
 20
-148.536321
 40
4.000000
 50
270.000000
 51
360.000000
  0
LINE
  8
1
 10
44.918591
 20
-175.864146
 11
44.918591
 21
-157.536321
  0
LINE
  8
1
 10
130.918591
 20
-175.864146
 11
130.918591
 21
-157.536321
  0
ARC
  8
1
 10
146.918591
 20
-168.530070
 40
16.000000
 50
91.432544
 51
180.000000
  0
ARC
  8
1
 10
28.918591
 20
-168.530070
 40
16.000000
 50
0.000000
 51
88.567456
  0
ARC
  8
1
 10
135.918591
 20
-157.536321
 40
5.000000
 50
90.000000
 51
180.000000
  0
ARC
  8
1
 10
39.918591
 20
-157.536321
 40
5.000000
 50
360.000000
 51
90.000000
  0
LINE
  8
1
 10
92.918591
 20
-168.530070
 11
82.918591
 21
-168.530070
  0
LINE
  8
1
 10
82.918591
 20
-165.530070
 11
82.918591
 21
-155.536321
  0
LINE
  8
1
 10
92.918591
 20
-165.530070
 11
92.918591
 21
-155.536321
  0
ARC
  8
1
 10
95.918591
 20
-165.530070
 40
3.000000
 50
180.000000
 51
270.000000
  0
ARC
  8
1
 10
95.918591
 20
-155.536321
 40
3.000000
 50
90.000000
 51
180.000000
  0
ARC
  8
1
 10
79.918591
 20
-155.536321
 40
3.000000
 50
0.000000
 51
90.000000
  0
ARC
  8
1
 10
79.918591
 20
-165.530070
 40
3.000000
 50
270.000000
 51
360.000000
  0
LINE
  8
1
 10
105.729774
 20
-157.536321
 11
105.729774
 21
-175.117345
  0
LINE
  8
1
 10
70.107408
 20
-157.536321
 11
70.107408
 21
-175.117345
  0
ARC
  8
1
 10
110.729774
 20
-157.536321
 40
5.000000
 50
90.000000
 51
180.000000
  0
ARC
  8
1
 10
65.107408
 20
-157.536321
 40
5.000000
 50
0.000000
 51
90.000000
  0
LINE
  8
1
 10
108.671156
 20
-178.536321
 11
128.932379
 21
-178.536321
  0
LINE
  8
1
 10
46.904803
 20
-178.536321
 11
67.166026
 21
-178.536321
  0
LINE
  8
1
 10
70.107408
 20
-178.536321
 11
105.729774
 21
-178.536321
  0
LINE
  8
1
 10
54.918591
 20
-190.208495
 11
54.918591
 21
-247.126114
  0
LINE
  8
1
 10
120.918591
 20
-190.208495
 11
120.918591
 21
-259.385335
  0
LINE
  8
1
 10
54.918591
 20
-187.536321
 11
120.918591
 21
-187.536321
  0
LINE
  8
1
 10
128.932379
 20
-180.323911
 11
122.904803
 21
-185.748730
  0
LINE
  8
1
 10
46.904803
 20
-180.323911
 11
52.932379
 21
-185.748730
  0
ARC
  8
1
 10
126.918591
 20
-190.208495
 40
6.000000
 50
131.987212
 51
180.000000
  0
ARC
  8
1
 10
124.918591
 20
-175.864146
 40
6.000000
 50
311.987212
 51
360.000000
  0
ARC
  8
1
 10
48.918591
 20
-190.208495
 40
6.000000
 50
0.000000
 51
48.012788
  0
ARC
  8
1
 10
50.918591
 20
-175.864146
 40
6.000000
 50
180.000000
 51
228.012788
  0
LINE
  8
1
 10
108.671156
 20
-180.279211
 11
117.901771
 21
-185.748730
  0
LINE
  8
1
 10
67.166026
 20
-180.279211
 11
57.935411
 21
-185.748730
  0
ARC
  8
1
 10
111.729774
 20
-175.117345
 40
6.000000
 50
180.000000
 51
239.351511
  0
ARC
  8
1
 10
64.107408
 20
-175.117345
 40
6.000000
 50
300.648489
 51
360.000000
  0
ARC
  8
1
 10
123.918591
 20
-243.536321
 40
3.000000
 50
180.000000
 51
270.000000
  0
ARC
  8
1
 10
51.918591
 20
-243.536321
 40
3.000000
 50
270.000000
 51
0.000000
  0
ARC
  8
1
 10
51.918591
 20
-247.126114
 40
3.000000
 50
270.000000
 51
0.000000
  0
LINE
  8
1
 10
78.733546
 20
-268.309204
 11
97.103636
 21
-268.309204
  0
LINE
  8
1
 10
64.768748
 20
-251.701108
 11
73.733546
 21
-268.309204
  0
LINE
  8
1
 10
105.918591
 20
-250.126114
 11
54.918591
 21
-250.126114
  0
ARC
  8
1
 10
97.103636
 20
-273.309204
 40
5.000000
 50
0.000000
 51
90.000000
  0
ARC
  8
1
 10
78.733546
 20
-273.309204
 40
5.000000
 50
90.000000
 51
180.000000
  0
ARC
  8
1
 10
123.918591
 20
-259.385335
 40
3.000000
 50
180.000000
 51
270.000000
  0
ARC
  8
1
 10
123.918591
 20
-247.983842
 40
3.000000
 50
180.000000
 51
270.000000
  0
ARC
  8
1
 10
123.918591
 20
-252.469279
 40
3.000000
 50
180.000000
 51
270.000000
  0
LINE
  8
1
 10
108.918591
 20
-201.992935
 11
108.918591
 21
-265.804284
  0
LINE
  8
1
 10
111.918591
 20
-204.992935
 11
117.918591
 21
-204.992935
  0
ARC
  8
1
 10
117.918591
 20
-207.992935
 40
3.000000
 50
0.000000
 51
90.000000
  0
ARC
  8
1
 10
111.918591
 20
-207.992935
 40
3.000000
 50
90.000000
 51
180.000000
  0
LINE
  8
1
 10
108.918591
 20
-198.992935
 11
120.918591
 21
-198.992935
  0
ARC
  8
1
 10
105.918591
 20
-201.992935
 40
3.000000
 50
0.000000
 51
90.000000
  0
LINE
  8
1
 10
115.337608
 20
-262.385335
 11
123.918591
 21
-262.385335
  0
LINE
  8
1
 10
110.175711
 20
-265.326771
 11
108.918591
 21
-267.448394
  0
ARC
  8
1
 10
115.337608
 20
-268.385335
 40
6.000000
 50
90.000000
 51
149.352106
  0
ARC
  8
1
 10
105.918591
 20
-247.126114
 40
3.000000
 50
270.000000
 51
0.000000
  0
LINE
  8
1
 10
107.154812
 20
-254.832082
 11
102.103636
 21
-268.309204
  0
ARC
  8
1
 10
102.918591
 20
-265.804284
 40
6.000000
 50
329.352106
 51
360.000000
  0
LINE
  8
1
 10
51.918591
 20
-620.536321
 11
51.918591
 21
-246.536321
  0
LINE
  8
1
 10
102.103636
 20
-471.591876
 11
102.103636
 21
-526.351542
  0
LINE
  8
1
 10
102.103636
 20
-561.833024
 11
102.103636
 21
-593.763437
  0
LINE
  8
1
 10
73.733546
 20
-471.591876
 11
73.733546
 21
-526.351542
  0
LINE
  8
1
 10
73.733546
 20
-561.833024
 11
73.733546
 21
-593.763437
  0
LINE
  8
1
 10
63.918591
 20
-571.955287
 11
63.918591
 21
-611.603362
  0
ARC
  8
1
 10
113.715178
 20
-563.290415
 40
3.817313
 50
133.944201
 51
180.000000
  0
ARC
  8
1
 10
127.023933
 20
-563.290415
 40
17.126068
 50
180.000000
 51
206.254529
  0
ARC
  8
1
 10
109.456811
 20
-571.955287
 40
2.461780
 50
0.000000
 51
26.254529
  0
ARC
  8
1
 10
66.380371
 20
-571.955287
 40
2.461780
 50
153.745471
 51
180.000000
  0
ARC
  8
1
 10
48.813249
 20
-563.290415
 40
17.126068
 50
333.745471
 51
360.000000
  0
LINE
  8
1
 10
111.918591
 20
-559.922307
 11
123.918591
 21
-559.922307
  0
LINE
  8
1
 10
111.918591
 20
-571.360783
 11
123.918591
 21
-571.360783
  0
LINE
  8
1
 10
63.918591
 20
-559.922307
 11
51.918591
 21
-559.922307
  0
LINE
  8
1
 10
63.918591
 20
-571.360783
 11
51.918591
 21
-571.360783
  0
ARC
  8
1
 10
65.547464
 20
-612.092622
 40
1.700765
 50
90.000000
 51
163.281466
  0
ARC
  8
1
 10
65.547464
 20
-610.783710
 40
0.391853
 50
0.000000
 51
90.000000
  0
ARC
  8
1
 10
57.965125
 20
-610.783710
 40
7.974192
 50
318.296001
 51
360.000000
  0
LINE
  8
1
 10
63.918591
 20
-616.088800
 11
51.918591
 21
-616.088800
  0
LINE
  8
1
 10
63.918591
 20
-611.603362
 11
51.918591
 21
-611.603362
  0
LINE
  8
1
 10
78.733546
 20
-531.351542
 11
97.103636
 21
-531.351542
  0
ARC
  8
1
 10
97.103636
 20
-526.351542
 40
5.000000
 50
270.000000
 51
0.000000
  0
ARC
  8
1
 10
78.733546
 20
-526.351542
 40
5.000000
 50
180.000000
 51
270.000000
  0
LINE
  8
1
 10
68.918591
 20
-543.536321
 11
106.918591
 21
-543.536321
  0
ARC
  8
1
 10
106.918591
 20
-538.536321
 40
5.000000
 50
270.000000
 51
360.000000
  0
ARC
  8
1
 10
68.918591
 20
-538.536321
 40
5.000000
 50
180.000000
 51
270.000000
  0
LINE
  8
1
 10
68.918591
 20
-553.536321
 11
106.918591
 21
-553.536321
  0
ARC
  8
1
 10
106.918591
 20
-558.536321
 40
5.000000
 50
0.000000
 51
90.000000
  0
ARC
  8
1
 10
68.918591
 20
-558.536321
 40
5.000000
 50
90.000000
 51
180.000000
  0
ARC
  8
1
 10
109.133142
 20
-558.536321
 40
2.785449
 50
313.944201
 51
360.000000
  0
ARC
  8
1
 10
66.704040
 20
-558.536321
 40
2.785449
 50
180.000000
 51
226.055799
  0
ARC
  8
1
 10
62.122004
 20
-563.290415
 40
3.817313
 50
0.000000
 51
46.055799
  0
LINE
  8
1
 10
78.733546
 20
-556.833024
 11
97.103636
 21
-556.833024
  0
ARC
  8
1
 10
97.103636
 20
-561.833024
 40
5.000000
 50
0.000000
 51
90.000000
  0
ARC
  8
1
 10
78.733546
 20
-561.833024
 40
5.000000
 50
90.000000
 51
180.000000
  0
LINE
  8
1
 10
107.891044
 20
-538.536321
 11
102.103636
 21
-531.351542
  0
LINE
  8
1
 10
106.918591
 20
-555.215749
 11
102.103636
 21
-556.833024
  0
LINE
  8
1
 10
68.918591
 20
-555.215749
 11
73.733546
 21
-556.833024
  0
LINE
  8
1
 10
67.946138
 20
-538.536321
 11
73.733546
 21
-531.351542
  0
LINE
  8
1
 10
51.918591
 20
-489.702814
 11
63.918591
 21
-489.702814
  0
LINE
  8
1
 10
51.918591
 20
-474.077564
 11
63.918591
 21
-474.077564
  0
ARC
  8
1
 10
46.315750
 20
-481.029615
 40
19.623567
 50
333.769803
 51
360.000000
  0
ARC
  8
1
 10
52.970128
 20
-481.029615
 40
12.969189
 50
0.000000
 51
32.414717
  0
LINE
  8
1
 10
63.918591
 20
-463.536321
 11
63.918591
 21
-474.077564
  0
LINE
  8
1
 10
63.918591
 20
-489.702814
 11
63.918591
 21
-538.536321
  0
ARC
  8
1
 10
129.521432
 20
-481.029615
 40
19.623567
 50
180.000000
 51
206.230197
  0
ARC
  8
1
 10
122.867054
 20
-481.029615
 40
12.969189
 50
147.585283
 51
180.000000
  0
LINE
  8
1
 10
123.918591
 20
-489.702814
 11
111.918591
 21
-489.702814
  0
LINE
  8
1
 10
123.918591
 20
-474.077564
 11
111.918591
 21
-474.077564
  0
LINE
  8
1
 10
111.918591
 20
-463.536321
 11
111.918591
 21
-474.077564
  0
LINE
  8
1
 10
111.918591
 20
-489.702814
 11
111.918591
 21
-538.536321
  0
LINE
  8
1
 10
78.733546
 20
-466.591876
 11
97.103636
 21
-466.591876
  0
ARC
  8
1
 10
78.733546
 20
-471.591876
 40
5.000000
 50
90.000000
 51
180.000000
  0
ARC
  8
1
 10
97.103636
 20
-471.591876
 40
5.000000
 50
360.000000
 51
90.000000
  0
LINE
  8
1
 10
57.918591
 20
-458.536321
 11
117.918591
 21
-458.536321
  0
ARC
  8
1
 10
117.918591
 20
-455.536321
 40
3.000000
 50
270.000000
 51
360.000000
  0
ARC
  8
1
 10
57.918591
 20
-455.536321
 40
3.000000
 50
180.000000
 51
270.000000
  0
ARC
  8
1
 10
106.918591
 20
-463.536321
 40
5.000000
 50
0.000000
 51
90.000000
  0
ARC
  8
1
 10
68.918591
 20
-463.536321
 40
5.000000
 50
90.000000
 51
180.000000
  0
LINE
  8
1
 10
102.103636
 20
-466.591876
 11
106.918591
 21
-462.640036
  0
LINE
  8
1
 10
73.733546
 20
-466.591876
 11
68.918591
 21
-462.640036
  0
LINE
  8
1
 10
54.918591
 20
-676.864146
 11
54.918591
 21
-619.946527
  0
LINE
  8
1
 10
120.918591
 20
-676.864146
 11
120.918591
 21
-619.946527
  0
ARC
  8
1
 10
123.918591
 20
-623.536321
 40
3.000000
 50
90.000000
 51
180.000000
  0
ARC
  8
1
 10
51.918591
 20
-623.536321
 40
3.000000
 50
360.000000
 51
90.000000
  0
ARC
  8
1
 10
51.918591
 20
-619.946527
 40
3.000000
 50
360.000000
 51
90.000000
  0
LINE
  8
1
 10
78.733546
 20
-598.763437
 11
97.103636
 21
-598.763437
  0
LINE
  8
1
 10
64.768748
 20
-615.371534
 11
73.733546
 21
-598.763437
  0
LINE
  8
1
 10
120.918591
 20
-616.946527
 11
54.918591
 21
-616.946527
  0
ARC
  8
1
 10
97.103636
 20
-593.763437
 40
5.000000
 50
270.000000
 51
360.000000
  0
ARC
  8
1
 10
78.733546
 20
-593.763437
 40
5.000000
 50
180.000000
 51
270.000000
  0
ARC
  8
1
 10
123.918591
 20
-619.946527
 40
3.000000
 50
90.000000
 51
180.000000
  0
LINE
  8
1
 10
123.918591
 20
-433.536321
 11
51.918591
 21
-433.536321
  0
LINE
  8
1
 10
111.918591
 20
-571.955287
 11
111.918591
 21
-611.603362
  0
ARC
  8
1
 10
110.289718
 20
-612.092622
 40
1.700765
 50
16.718534
 51
90.000000
  0
ARC
  8
1
 10
110.289718
 20
-610.783710
 40
0.391853
 50
90.000000
 51
180.000000
  0
ARC
  8
1
 10
117.872057
 20
-610.783710
 40
7.974192
 50
180.000000
 51
221.703999
  0
LINE
  8
1
 10
111.918591
 20
-616.088800
 11
123.918591
 21
-616.088800
  0
LINE
  8
1
 10
111.918591
 20
-611.603362
 11
123.918591
 21
-611.603362
  0
LINE
  8
1
 10
111.068434
 20
-615.371534
 11
102.103636
 21
-598.763437
  0
LINE
  8
1
 10
66.918591
 20
-225.006355
 11
108.918591
 21
-225.006355
  0
ARC
  8
1
 10
67.693188
 20
-237.375672
 40
12.393547
 50
93.583322
 51
180.000000
  0
ARC
  8
1
 10
68.050083
 20
-237.375672
 40
12.750442
 50
180.000000
 51
270.000000
  0
LINE
  8
1
 10
66.918591
 20
-642.066286
 11
108.918591
 21
-642.066286
  0
ARC
  8
1
 10
67.693188
 20
-629.696969
 40
12.393547
 50
180.000000
 51
266.416678
  0
ARC
  8
1
 10
68.050083
 20
-629.696969
 40
12.750442
 50
90.000000
 51
180.000000
  0
LINE
  8
1
 10
105.918591
 20
-616.946527
 11
54.918591
 21
-616.946527
  0
ARC
  8
1
 10
108.143994
 20
-629.696969
 40
12.393547
 50
273.583322
 51
360.000000
  0
ARC
  8
1
 10
107.787099
 20
-629.696969
 40
12.750442
 50
0.000000
 51
90.000000
  0
LINE
  8
1
 10
42.918591
 20
-730.536321
 11
132.918591
 21
-730.536321
  0
LINE
  8
1
 10
42.918591
 20
-711.378961
 11
42.918591
 21
-730.536321
  0
LINE
  8
1
 10
132.918591
 20
-711.378961
 11
132.918591
 21
-730.536321
  0
LINE
  8
1
 10
43.797271
 20
-710.136321
 11
132.039911
 21
-710.136321
  0
LINE
  8
1
 10
44.918591
 20
-708.136321
 11
130.918591
 21
-708.136321
  0
LINE
  8
1
 10
44.918591
 20
-691.208495
 11
44.918591
 21
-706.893680
  0
LINE
  8
1
 10
130.918591
 20
-691.208495
 11
130.918591
 21
-706.893680
  0
LINE
  8
1
 10
131.797271
 20
-709.015000
 11
132.039911
 21
-709.257641
  0
LINE
  8
1
 10
44.039911
 20
-709.015000
 11
43.797271
 21
-709.257641
  0
ARC
  8
1
 10
133.918591
 20
-706.893680
 40
3.000000
 50
180.000000
 51
225.000000
  0
ARC
  8
1
 10
129.918591
 20
-711.378961
 40
3.000000
 50
0.000000
 51
45.000000
  0
ARC
  8
1
 10
41.918591
 20
-706.893680
 40
3.000000
 50
315.000000
 51
360.000000
  0
ARC
  8
1
 10
45.918591
 20
-711.378961
 40
3.000000
 50
135.000000
 51
180.000000
  0
LINE
  8
1
 10
46.904803
 20
-688.536321
 11
128.932379
 21
-688.536321
  0
LINE
  8
1
 10
54.918591
 20
-679.536321
 11
120.918591
 21
-679.536321
  0
LINE
  8
1
 10
122.904803
 20
-681.323911
 11
128.932379
 21
-686.748730
  0
LINE
  8
1
 10
52.932379
 20
-681.323911
 11
46.904803
 21
-686.748730
  0
ARC
  8
1
 10
126.918591
 20
-676.864146
 40
6.000000
 50
180.000000
 51
228.012788
  0
ARC
  8
1
 10
124.918591
 20
-691.208495
 40
6.000000
 50
360.000000
 51
48.012788
  0
ARC
  8
1
 10
48.918591
 20
-676.864146
 40
6.000000
 50
311.987212
 51
0.000000
  0
ARC
  8
1
 10
50.918591
 20
-691.208495
 40
6.000000
 50
131.987212
 51
180.000000
  0
ARC
  8
1
 10
-777.506926
 20
-405.536321
 40
3.000000
 50
270.000000
 51
351.525547
  0
ARC
  8
1
 10
-777.506926
 20
-461.536321
 40
3.000000
 50
8.474453
 51
90.000000
  0
ARC
  8
1
 10
-401.655892
 20
-405.536321
 40
3.000000
 50
188.474453
 51
270.000000
  0
ARC
  8
1
 10
-401.655892
 20
-461.536321
 40
3.000000
 50
90.000000
 51
171.525547
  0
LINE
  8
1
  6
CENTER
 62
2
 10
-852.337970
 20
539.063679
 11
-331.516956
 21
539.063679
  0
LINE
  8
1
  6
CENTER
 62
2
 10
87.918591
 20
-756.080200
 11
87.918591
 21
191.683731
  0
LINE
  8
1
  6
CENTER
 62
2
 10
-589.581409
 20
-756.080200
 11
-589.581409
 21
191.683731
  0
LINE
  8
1
  6
CENTER
 62
2
 10
-852.337970
 20
-433.536321
 11
-331.516956
 21
-433.536321
  0
LINE
  8
1
  6
CENTER
 62
2
 10
-6.216312
 20
-433.536321
 11
172.954319
 21
-433.536321
  0
LINE
  8
1
  6
CENTER
 62
2
 10
-555.640283
 20
573.004805
 11
-535.134187
 21
593.510902
  0
ARC
  8
1
  6
CENTER
 62
2
 10
-589.581409
 20
539.063679
 40
62.500000
 50
31.677386
 51
58.322614
  0
LINE
  8
1
  6
CENTER
 62
2
 10
-623.522534
 20
573.004805
 11
-644.028631
 21
593.510902
  0
ARC
  8
1
  6
CENTER
 62
2
 10
-589.581409
 20
539.063679
 40
62.500000
 50
121.677386
 51
148.322614
  0
LINE
  8
1
  6
CENTER
 62
2
 10
-555.640283
 20
505.122554
 11
-535.134187
 21
484.616457
  0
ARC
  8
1
  6
CENTER
 62
2
 10
-589.581409
 20
539.063679
 40
62.500000
 50
301.677386
 51
328.322614
  0
LINE
  8
1
  6
CENTER
 62
2
 10
-623.522534
 20
505.122554
 11
-644.028631
 21
484.616457
  0
ARC
  8
1
  6
CENTER
 62
2
 10
-589.581409
 20
539.063679
 40
62.500000
 50
211.677386
 51
238.322614
  0
LINE
  8
1
  6
CENTER
 62
2
 10
-633.775583
 20
-120.900372
 11
-633.775583
 21
-169.654633
  0
LINE
  8
1
  6
CENTER
 62
2
 10
-545.387235
 20
-120.900372
 11
-545.387235
 21
-169.654633
  0
LINE
  8
1
  6
CENTER
 62
2
 10
-633.281641
 20
-213.840418
 11
-623.917306
 21
-260.918111
  0
ARC
  8
1
  6
CENTER
 62
2
 10
-589.581409
 20
-433.536321
 40
200.000000
 50
94.370374
 51
108.129626
  0
ARC
  8
1
  6
CENTER
 62
2
 10
-589.581409
 20
-433.536321
 40
200.000000
 50
71.870374
 51
85.629626
  0
LINE
  8
1
  6
CENTER
 62
2
 10
-545.881177
 20
-213.840418
 11
-555.245512
 21
-260.918111
  0
LINE
  8
1
  6
CENTER
 62
2
 10
-385.581409
 20
541.563679
 11
-385.581409
 21
569.563679
  0
LINE
  8
1
  6
CENTER
 62
2
 10
-399.581409
 20
555.563679
 11
-371.581409
 21
555.563679
  0
LINE
  8
1
  6
CENTER
 62
2
 10
-385.581409
 20
536.563679
 11
-385.581409
 21
508.563679
  0
LINE
  8
1
  6
CENTER
 62
2
 10
-399.581409
 20
522.563679
 11
-371.581409
 21
522.563679
  0
LINE
  8
1
  6
CENTER
 62
2
 10
-793.581409
 20
541.563679
 11
-793.581409
 21
569.563679
  0
LINE
  8
1
  6
CENTER
 62
2
 10
-779.581409
 20
555.563679
 11
-807.581409
 21
555.563679
  0
LINE
  8
1
  6
CENTER
 62
2
 10
-793.581409
 20
536.563679
 11
-793.581409
 21
508.563679
  0
LINE
  8
1
  6
CENTER
 62
2
 10
-779.581409
 20
522.563679
 11
-807.581409
 21
522.563679
  0
LINE
  8
1
  6
CENTER
 62
2
 10
43.724417
 20
-120.900372
 11
43.724417
 21
-169.654633
  0
LINE
  8
1
  6
CENTER
 62
2
 10
132.112765
 20
-120.900372
 11
132.112765
 21
-169.654633
  0
LINE
  8
1
  6
CENTER
 62
2
 10
-385.581409
 20
-401.628735
 11
-385.581409
 21
-466.409238
  0
LINE
  8
1
  6
CENTER
 62
2
 10
-793.581409
 20
-401.628735
 11
-793.581409
 21
-466.409238
  0
LINE
  8
1
  6
CENTER
 62
2
 10
104.418591
 20
-401.628735
 11
104.418591
 21
-466.409238
  0
LINE
  8
1
  6
CENTER
 62
2
 10
71.418591
 20
-401.628735
 11
71.418591
 21
-466.409238
  0
CIRCLE
  8
1
 10
-589.581409
 20
-433.536321
 40
181.500000
  0
CIRCLE
  8
1
 10
-589.581409
 20
-433.536321
 40
154.204653
  0
LINE
  8
1
 10
-561.646300
 20
-287.992960
 11
-617.516518
 21
-287.992960
  0
ARC
  8
1
 10
-589.581409
 20
-328.711613
 40
49.379945
 50
55.547856
 51
124.452144
  0
LINE
  8
1
 10
-561.646300
 20
-579.079681
 11
-617.516518
 21
-579.079681
  0
ARC
  8
1
 10
-589.581409
 20
-538.361028
 40
49.379945
 50
235.547856
 51
304.452144
  0
ARC
  8
1
 10
-589.581409
 20
-433.536321
 40
148.200000
 50
100.865026
 51
259.134974
  0
ARC
  8
1
 10
-589.581409
 20
-433.536321
 40
148.200000
 50
280.865026
 51
79.134974
  0
LINE
  8
1
 10
126.918591
 20
-252.036321
 11
126.918591
 21
-615.036321
  0
LINE
  8
1
 10
48.918591
 20
-615.036321
 11
48.918591
 21
-252.036321
  0
LINE
  8
1
 10
48.918591
 20
-252.036321
 11
51.918591
 21
-252.036321
  0
LINE
  8
1
 10
123.918591
 20
-252.036321
 11
126.918591
 21
-252.036321
  0
LINE
  8
1
 10
123.918591
 20
-615.036321
 11
126.918591
 21
-615.036321
  0
LINE
  8
1
 10
48.918591
 20
-615.036321
 11
51.918591
 21
-615.036321
  0
LINE
  8
1
 10
-408.081409
 20
500.063679
 11
-408.081409
 21
503.063679
  0
LINE
  8
1
 10
-408.081409
 20
575.063679
 11
-408.081409
 21
578.063679
  0
LINE
  8
1
  6
DASHED
 10
-650.931855
 20
578.063679
 11
-771.081409
 21
578.063679
  0
LINE
  8
1
  6
DASHED
 10
-771.081409
 20
575.063679
 11
-771.081409
 21
578.063679
  0
LINE
  8
1
  6
DASHED
 10
-650.931855
 20
500.063679
 11
-771.081409
 21
500.063679
  0
LINE
  8
1
  6
DASHED
 10
-771.081409
 20
500.063679
 11
-771.081409
 21
503.063679
  0
LINE
  8
1
 10
-561.043058
 20
-290.733834
 11
-568.633035
 21
-433.536321
  0
LINE
  8
1
 10
-618.119760
 20
-290.733834
 11
-610.529783
 21
-433.536321
  0
LINE
  8
1
 10
-561.043058
 20
-576.338807
 11
-568.633035
 21
-433.536321
  0
LINE
  8
1
 10
-618.119760
 20
-576.338807
 11
-610.529783
 21
-433.536321
  0
LINE
  8
1
 10
-568.855425
 20
-289.392569
 11
-610.307393
 21
-289.392569
  0
LINE
  8
1
 10
-568.855425
 20
-577.680073
 11
-610.307393
 21
-577.680073
  0
ARC
  8
1
 10
-589.581409
 20
-433.536321
 40
145.626192
 50
98.182302
 51
261.817698
  0
ARC
  8
1
 10
-589.581409
 20
-433.536321
 40
145.626192
 50
278.182302
 51
81.817698
  0
LINE
  8
1
 10
-561.783957
 20
-287.992960
 11
-561.043058
 21
-290.733834
  0
LINE
  8
1
 10
-617.378861
 20
-287.992960
 11
-618.119760
 21
-290.733834
  0
LINE
  8
1
 10
-561.783957
 20
-579.079681
 11
-561.043058
 21
-576.338807
  0
LINE
  8
1
 10
-617.378861
 20
-579.079681
 11
-618.119760
 21
-576.338807
  0
ARC
  8
1
 10
-589.581409
 20
-433.536321
 40
147.406270
 50
100.958016
 51
259.041984
  0
ARC
  8
1
 10
-589.581409
 20
-433.536321
 40
147.406270
 50
280.958016
 51
79.041984
  0
ARC
  8
1
  6
DASHED
 10
-801.081409
 20
560.063679
 40
12.000000
 50
90.000000
 51
163.402158
  0
ARC
  8
1
 10
-801.081409
 20
560.063679
 40
12.000000
 50
163.402158
 51
180.000000
  0
ARC
  8
1
 10
-801.081409
 20
518.063679
 40
12.000000
 50
180.000000
 51
196.597842
  0
ARC
  8
1
  6
DASHED
 10
-801.081409
 20
518.063679
 40
12.000000
 50
196.597842
 51
270.000000
  0
LINE
  8
1
  6
DASHED
 10
-528.230963
 20
578.063679
 11
-445.581409
 21
578.063679
  0
LINE
  8
1
 10
-445.581409
 20
578.063679
 11
-408.081409
 21
578.063679
  0
LINE
  8
1
  6
DASHED
 10
-527.557608
 20
575.063679
 11
-445.581409
 21
575.063679
  0
LINE
  8
1
 10
-445.581409
 20
575.063679
 11
-402.581409
 21
575.063679
  0
LINE
  8
1
  6
DASHED
 10
-527.557608
 20
503.063679
 11
-445.581409
 21
503.063679
  0
LINE
  8
1
 10
-445.581409
 20
503.063679
 11
-402.581409
 21
503.063679
  0
LINE
  8
1
  6
DASHED
 10
-528.230963
 20
500.063679
 11
-445.581409
 21
500.063679
  0
LINE
  8
1
 10
-445.581409
 20
500.063679
 11
-408.081409
 21
500.063679
  0
LINE
  8
2
 10
-681.581409
 20
609.063679
 11
-681.581409
 21
624.063679
  0
LINE
  8
2
 10
-462.581409
 20
581.563679
 11
-462.581409
 21
546.563679
  0
LINE
  8
2
 10
-463.081409
 20
546.063679
 11
-464.081409
 21
546.063679
  0
LINE
  8
2
 10
-464.081409
 20
582.063679
 11
-463.081409
 21
582.063679
  0
LINE
  8
2
 10
-462.581409
 20
496.563679
 11
-462.581409
 21
531.563679
  0
LINE
  8
2
 10
-463.081409
 20
532.063679
 11
-464.081409
 21
532.063679
  0
LINE
  8
2
 10
-464.081409
 20
496.063679
 11
-463.081409
 21
496.063679
  0
LINE
  8
2
 10
-477.081409
 20
329.563679
 11
-505.081409
 21
329.563679
  0
LINE
  8
2
 10
-505.081409
 20
329.563679
 11
-507.081409
 21
327.563679
  0
LINE
  8
2
 10
-507.081409
 20
318.563679
 11
-507.081409
 21
327.563679
  0
ARC
  8
2
 10
-509.081409
 20
318.563679
 40
2.000000
 50
270.000000
 51
360.000000
  0
LINE
  8
2
 10
-511.081409
 20
314.563679
 11
-511.081409
 21
314.103404
  0
LINE
  8
2
 10
-525.636498
 20
293.563679
 11
-456.526320
 21
293.563679
  0
LINE
  8
2
 10
-482.534480
 20
315.563679
 11
-477.017913
 21
315.563679
  0
LINE
  8
2
 10
-460.681409
 20
315.563679
 11
-456.228106
 21
315.563679
  0
LINE
  8
2
 10
-440.148144
 20
315.563679
 11
-436.181409
 21
315.563679
  0
LINE
  8
2
 10
-408.781409
 20
315.563679
 11
-407.681409
 21
315.563679
  0
LINE
  8
2
 10
-402.181409
 20
315.563679
 11
-399.073450
 21
315.563679
  0
ARC
  8
2
 10
-503.281409
 20
793.063679
 40
500.000000
 50
260.664881
 51
267.437441
  0
ARC
  8
2
 10
-509.081409
 20
314.563679
 40
2.000000
 50
90.000000
 51
180.000000
  0
LINE
  8
2
 10
-477.081409
 20
329.563679
 11
-475.081409
 21
327.563679
  0
LINE
  8
2
 10
-475.081409
 20
318.563679
 11
-475.081409
 21
327.563679
  0
ARC
  8
2
 10
-473.081409
 20
318.563679
 40
2.000000
 50
180.000000
 51
270.000000
  0
LINE
  8
2
 10
-471.081409
 20
314.563679
 11
-471.081409
 21
314.103404
  0
ARC
  8
2
 10
-478.881409
 20
793.063679
 40
500.000000
 50
272.562559
 51
279.335119
  0
ARC
  8
2
 10
-473.081409
 20
314.563679
 40
2.000000
 50
0.000000
 51
90.000000
  0
LINE
  8
2
 10
-475.081409
 20
327.563679
 11
-507.081409
 21
327.563679
  0
ARC
  8
2
 10
-491.081409
 20
345.363679
 40
37.800000
 50
256.461350
 51
283.347693
  0
ARC
  8
2
 10
-491.081409
 20
336.163679
 40
22.100000
 50
249.678608
 51
289.908260
  0
ARC
  8
2
 10
-491.781409
 20
308.463679
 40
11.200000
 50
12.984112
 51
30.742694
  0
ARC
  8
2
 10
-491.381409
 20
308.663679
 40
10.300000
 50
152.801464
 51
166.803615
  0
LINE
  8
2
 10
-420.882924
 20
315.563679
 11
-423.381409
 21
315.563679
  0
ARC
  8
2
 10
-466.181409
 20
345.763679
 40
38.100000
 50
257.489802
 51
282.010034
  0
ARC
  8
2
 10
-468.781409
 20
332.963679
 40
19.000000
 50
248.013597
 51
292.510479
  0
ARC
  8
2
 10
-465.481409
 20
306.863679
 40
9.700000
 50
27.791668
 51
57.213701
  0
ARC
  8
2
 10
-483.881409
 20
312.063679
 40
8.000000
 50
351.124411
 51
14.477512
  0
ARC
  8
2
 10
-442.981409
 20
336.063679
 40
28.500000
 50
254.666975
 51
284.161069
  0
ARC
  8
2
 10
-448.281409
 20
331.863679
 40
17.800000
 50
248.621499
 51
290.899028
  0
ARC
  8
2
 10
-442.381409
 20
306.763679
 40
8.900000
 50
31.500458
 51
74.573378
  0
ARC
  8
2
 10
-457.981409
 20
310.163679
 40
6.000000
 50
2.459196
 51
53.130102
  0
ARC
  8
2
 10
-422.981409
 20
326.863679
 40
19.300000
 50
251.561950
 51
283.988737
  0
ARC
  8
2
 10
-430.181409
 20
325.263679
 40
11.200000
 50
255.994128
 51
295.608305
  0
ARC
  8
2
 10
-423.381409
 20
310.563679
 40
5.000000
 50
90.000000
 51
113.068733
  0
ARC
  8
2
 10
-427.281409
 20
302.163679
 40
13.600000
 50
43.012702
 51
73.688203
  0
ARC
  8
2
 10
-436.681409
 20
309.363679
 40
6.300000
 50
7.532780
 51
67.380135
  0
ARC
  8
2
 10
-407.081409
 20
319.763679
 40
12.200000
 50
244.256542
 51
286.000716
  0
ARC
  8
2
 10
-414.981409
 20
322.563679
 40
8.500000
 50
251.083012
 51
297.322222
  0
ARC
  8
2
 10
-408.781409
 20
310.563679
 40
5.000000
 50
90.000000
 51
117.322222
  0
ARC
  8
2
 10
-412.181409
 20
303.363679
 40
12.300000
 50
39.814743
 51
74.699906
  0
ARC
  8
2
 10
-424.181409
 20
304.163679
 40
12.200000
 50
26.844811
 51
62.733956
  0
LINE
  8
2
 10
-399.481409
 20
307.563679
 11
-401.581409
 21
307.563679
  0
LINE
  8
2
 10
-412.481409
 20
307.563679
 11
-415.581409
 21
307.563679
  0
LINE
  8
2
 10
-430.781409
 20
307.563679
 11
-433.381409
 21
307.563679
  0
LINE
  8
2
 10
-451.781409
 20
307.563679
 11
-455.681409
 21
307.563679
  0
LINE
  8
2
 10
-475.581409
 20
307.563679
 11
-480.381409
 21
307.563679
  0
LINE
  8
2
 10
-501.781409
 20
307.563679
 11
-505.881409
 21
307.563679
  0
LINE
  8
2
 10
-525.681409
 20
307.563679
 11
-529.781409
 21
307.563679
  0
LINE
  8
2
 10
-548.581409
 20
307.563679
 11
-551.481409
 21
307.563679
  0
LINE
  8
2
 10
-565.881409
 20
307.563679
 11
-568.381409
 21
307.563679
  0
LINE
  8
2
 10
-580.281409
 20
307.563679
 11
-582.181409
 21
307.563679
  0
LINE
  8
2
 10
-509.081409
 20
316.563679
 11
-473.081409
 21
316.563679
  0
ARC
  8
2
 10
-396.781409
 20
311.763679
 40
4.200000
 50
221.945518
 51
307.267545
  0
ARC
  8
2
 10
-404.281409
 20
303.763679
 40
11.900000
 50
30.020559
 51
77.925147
  0
ARC
  8
2
 10
-402.181409
 20
312.563679
 40
3.000000
 50
90.000000
 51
113.288889
  0
LINE
  8
2
 10
-574.781409
 20
299.563679
 11
-405.881409
 21
299.563679
  0
LINE
  8
2
 10
-499.081409
 20
334.063679
 11
-499.081409
 21
329.563679
  0
LINE
  8
2
 10
-483.081409
 20
329.563679
 11
-483.081409
 21
334.063679
  0
LINE
  8
2
 10
-686.581409
 20
-52.536321
 11
-686.581409
 21
-38.536321
  0
LINE
  8
2
 10
-556.073716
 20
-39.536321
 11
-686.581409
 21
-39.536321
  0
LINE
  8
2
 10
-543.759678
 20
121.463679
 11
-728.581409
 21
121.463679
  0
LINE
  8
2
 10
-779.632421
 20
-37.536321
 11
-558.342096
 21
-37.536321
  0
CIRCLE
  8
2
 10
-491.081409
 20
36.463679
 40
100.000000
  0
CIRCLE
  8
2
 10
-491.081409
 20
36.463679
 40
92.000000
  0
LINE
  8
2
 10
17.918591
 20
121.463679
 11
157.918591
 21
121.463679
  0
LINE
  8
2
 10
-12.081409
 20
-37.536321
 11
-12.081409
 21
110.479970
  0
LINE
  8
2
 10
177.918591
 20
71.463679
 11
4.918591
 21
71.463679
  0
LINE
  8
2
 10
157.918591
 20
86.463679
 11
177.918591
 21
86.463679
  0
LINE
  8
2
 10
-10.081409
 20
-39.536321
 11
185.918591
 21
-39.536321
  0
LINE
  8
2
 10
-12.081409
 20
36.463679
 11
200.918591
 21
36.463679
  0
LINE
  8
2
 10
-10.081409
 20
-39.536321
 11
-10.081409
 21
-38.536321
  0
LINE
  8
2
 10
-121.581409
 20
50.463679
 11
-121.581409
 21
22.463679
  0
LINE
  8
2
 10
-121.581409
 20
22.463679
 11
-123.581409
 21
20.463679
  0
LINE
  8
2
 10
-132.581409
 20
20.463679
 11
-123.581409
 21
20.463679
  0
ARC
  8
2
 10
-132.581409
 20
18.463679
 40
2.000000
 50
90.000000
 51
180.000000
  0
LINE
  8
2
 10
-136.581409
 20
16.463679
 11
-137.041685
 21
16.463679
  0
ARC
  8
2
 10
-136.581409
 20
18.463679
 40
2.000000
 50
270.000000
 51
0.000000
  0
LINE
  8
2
 10
-121.581409
 20
50.463679
 11
-123.581409
 21
52.463679
  0
LINE
  8
2
 10
-132.581409
 20
52.463679
 11
-123.581409
 21
52.463679
  0
ARC
  8
2
 10
-132.581409
 20
54.463679
 40
2.000000
 50
180.000000
 51
270.000000
  0
LINE
  8
2
 10
-136.581409
 20
56.463679
 11
-137.041685
 21
56.463679
  0
ARC
  8
2
 10
-136.581409
 20
54.463679
 40
2.000000
 50
0.000000
 51
90.000000
  0
LINE
  8
2
 10
-123.581409
 20
52.463679
 11
-123.581409
 21
20.463679
  0
LINE
  8
2
 10
-134.581409
 20
19.463679
 11
-134.581409
 21
53.763679
  0
LINE
  8
2
 10
-117.081409
 20
44.463679
 11
-121.581409
 21
44.463679
  0
LINE
  8
2
 10
-121.581409
 20
28.463679
 11
-117.081409
 21
28.463679
  0
CIRCLE
  8
2
 10
112.918591
 20
101.463679
 40
13.000000
  0
LINE
  8
2
 10
105.413038
 20
114.463679
 11
97.907484
 21
101.463679
  0
LINE
  8
2
 10
120.424145
 20
114.463679
 11
105.413038
 21
114.463679
  0
LINE
  8
2
 10
127.929698
 20
101.463679
 11
120.424145
 21
114.463679
  0
LINE
  8
2
 10
120.424145
 20
88.463679
 11
127.929698
 21
101.463679
  0
LINE
  8
2
 10
105.413038
 20
88.463679
 11
120.424145
 21
88.463679
  0
LINE
  8
2
 10
97.907484
 20
101.463679
 11
105.413038
 21
88.463679
  0
CIRCLE
  8
2
 10
62.918591
 20
101.463679
 40
13.000000
  0
LINE
  8
2
 10
55.413038
 20
114.463679
 11
47.907484
 21
101.463679
  0
LINE
  8
2
 10
70.424145
 20
114.463679
 11
55.413038
 21
114.463679
  0
LINE
  8
2
 10
77.929698
 20
101.463679
 11
70.424145
 21
114.463679
  0
LINE
  8
2
 10
70.424145
 20
88.463679
 11
77.929698
 21
101.463679
  0
LINE
  8
2
 10
55.413038
 20
88.463679
 11
70.424145
 21
88.463679
  0
LINE
  8
2
 10
47.907484
 20
101.463679
 11
55.413038
 21
88.463679
  0
LINE
  8
2
 10
-454.581409
 20
577.063679
 11
-454.581409
 21
551.063679
  0
LINE
  8
2
 10
-459.581409
 20
579.074786
 11
-459.581409
 21
549.052572
  0
LINE
  8
2
 10
-455.742522
 20
549.052572
 11
-459.581409
 21
549.052572
  0
LINE
  8
2
 10
-455.742522
 20
556.558126
 11
-459.581409
 21
556.558126
  0
LINE
  8
2
 10
-455.742522
 20
571.569233
 11
-459.581409
 21
571.569233
  0
LINE
  8
2
 10
-455.742522
 20
579.074786
 11
-459.581409
 21
579.074786
  0
LINE
  8
2
 10
-454.581409
 20
551.063679
 11
-455.742522
 21
549.052572
  0
LINE
  8
2
 10
-454.581409
 20
577.063679
 11
-455.742522
 21
579.074786
  0
ARC
  8
2
 10
-479.420296
 20
564.063679
 40
24.838887
 50
342.412046
 51
17.587954
  0
ARC
  8
2
 10
-461.226545
 20
552.805349
 40
6.645136
 50
325.615736
 51
34.384264
  0
ARC
  8
2
 10
-461.226545
 20
575.322010
 40
6.645136
 50
325.615736
 51
34.384264
  0
LINE
  8
2
 10
-459.581409
 20
573.063679
 11
-462.581409
 21
573.063679
  0
LINE
  8
2
 10
-462.581409
 20
555.063679
 11
-459.581409
 21
555.063679
  0
LINE
  8
2
 10
-454.581409
 20
527.063679
 11
-454.581409
 21
501.063679
  0
LINE
  8
2
 10
-459.581409
 20
529.074786
 11
-459.581409
 21
499.052572
  0
LINE
  8
2
 10
-455.742522
 20
499.052572
 11
-459.581409
 21
499.052572
  0
LINE
  8
2
 10
-455.742522
 20
506.558126
 11
-459.581409
 21
506.558126
  0
LINE
  8
2
 10
-455.742522
 20
521.569233
 11
-459.581409
 21
521.569233
  0
LINE
  8
2
 10
-455.742522
 20
529.074786
 11
-459.581409
 21
529.074786
  0
LINE
  8
2
 10
-454.581409
 20
501.063679
 11
-455.742522
 21
499.052572
  0
LINE
  8
2
 10
-454.581409
 20
527.063679
 11
-455.742522
 21
529.074786
  0
ARC
  8
2
 10
-479.420296
 20
514.063679
 40
24.838887
 50
342.412046
 51
17.587954
  0
ARC
  8
2
 10
-461.226545
 20
502.805349
 40
6.645136
 50
325.615736
 51
34.384264
  0
ARC
  8
2
 10
-461.226545
 20
525.322010
 40
6.645136
 50
325.615736
 51
34.384264
  0
LINE
  8
2
 10
-459.581409
 20
523.063679
 11
-462.581409
 21
523.063679
  0
LINE
  8
2
 10
-462.581409
 20
505.063679
 11
-459.581409
 21
505.063679
  0
ARC
  8
2
 10
-399.073450
 20
307.571639
 40
7.992041
 50
279.335119
 51
90.000000
  0
ARC
  8
2
 10
-394.843688
 20
309.217066
 40
1.000000
 50
307.267545
 51
30.020559
  0
ARC
  8
2
 10
-404.711760
 20
318.442227
 40
3.400000
 50
266.638278
 51
293.288889
  0
ARC
  8
2
 10
-402.419623
 20
312.466768
 40
3.000000
 50
77.925147
 51
110.986403
  0
ARC
  8
2
 10
-399.161507
 20
309.624724
 40
1.000000
 50
191.678445
 51
221.945518
  0
ARC
  8
2
 10
-407.681409
 20
307.863679
 40
7.700000
 50
11.678445
 51
90.000000
  0
ARC
  8
2
 10
-404.269785
 20
309.958845
 40
2.000000
 50
286.000716
 51
39.814743
  0
ARC
  8
2
 10
-411.511702
 20
310.576051
 40
2.000000
 50
206.844811
 51
244.256542
  0
ARC
  8
2
 10
-409.727375
 20
312.334059
 40
3.000000
 50
74.699906
 51
117.185481
  0
ARC
  8
2
 10
-420.882924
 20
310.563679
 40
5.000000
 50
62.733956
 51
90.000000
  0
ARC
  8
2
 10
-428.453038
 20
310.451755
 40
2.000000
 50
187.532780
 51
251.561950
  0
ARC
  8
2
 10
-418.799460
 20
310.076741
 40
2.000000
 50
283.988737
 51
43.012702
  0
ARC
  8
2
 10
-424.304247
 20
312.337003
 40
3.000000
 50
73.688203
 51
114.449096
  0
ARC
  8
2
 10
-436.181409
 20
310.563679
 40
5.000000
 50
67.380135
 51
90.000000
  0
ARC
  8
2
 10
-436.498221
 20
310.368967
 40
2.000000
 50
284.161069
 51
31.500458
  0
ARC
  8
2
 10
-449.988777
 20
310.506943
 40
2.000000
 50
182.459196
 51
254.666975
  0
ARC
  8
2
 10
-440.148144
 20
310.563679
 40
5.000000
 50
90.000000
 51
110.899028
  0
ARC
  8
2
 10
-440.811985
 20
312.451114
 40
3.000000
 50
74.573378
 51
111.045359
  0
ARC
  8
2
 10
-456.228106
 20
311.563679
 40
4.000000
 50
68.621499
 51
90.000000
  0
ARC
  8
2
 10
-456.181409
 20
312.563679
 40
3.000000
 50
53.130102
 51
90.000000
  0
ARC
  8
2
 10
-474.001152
 20
310.520785
 40
2.000000
 50
171.124411
 51
257.489802
  0
ARC
  8
2
 10
-458.669613
 20
310.453866
 40
2.000000
 50
282.010034
 51
27.791668
  0
ARC
  8
2
 10
-460.741508
 20
313.563679
 40
2.000000
 50
90.000000
 51
112.510479
  0
ARC
  8
2
 10
-461.311804
 20
313.337039
 40
2.000000
 50
57.213701
 51
110.836076
  0
ARC
  8
2
 10
-478.071934
 20
313.563679
 40
2.000000
 50
14.477512
 51
90.000000
  0
ARC
  8
2
 10
-477.017913
 20
312.563679
 40
3.000000
 50
68.013597
 51
90.000000
  0
ARC
  8
2
 10
-482.816631
 20
310.530743
 40
2.000000
 50
283.347693
 51
12.984112
  0
ARC
  8
2
 10
-499.462233
 20
310.558482
 40
2.000000
 50
166.803615
 51
256.461350
  0
ARC
  8
2
 10
-483.874270
 20
313.166568
 40
2.000000
 50
30.742694
 51
107.400637
  0
ARC
  8
2
 10
-482.534480
 20
312.563679
 40
3.000000
 50
90.000000
 51
109.908260
  0
ARC
  8
2
 10
-499.450997
 20
313.563679
 40
2.000000
 50
69.678608
 51
90.000000
  0
ARC
  8
2
 10
-497.874234
 20
312.000328
 40
3.000000
 50
74.298213
 51
152.801464
  0
LINE
  8
2
 10
-499.450997
 20
315.563679
 11
-505.144905
 21
315.563679
  0
LINE
  8
2
 10
-573.381409
 20
315.563679
 11
-574.481409
 21
315.563679
  0
LINE
  8
2
 10
-579.981409
 20
315.563679
 11
-583.089368
 21
315.563679
  0
LINE
  8
2
 10
-561.381409
 20
315.563679
 11
-558.781409
 21
315.563679
  0
LINE
  8
2
 10
-545.981409
 20
315.563679
 11
-541.981409
 21
315.563679
  0
LINE
  8
2
 10
-525.881409
 20
315.563679
 11
-521.421309
 21
315.563679
  0
ARC
  8
2
 10
-515.981409
 20
345.763679
 40
38.100000
 50
257.989966
 51
282.510198
  0
ARC
  8
2
 10
-513.381409
 20
332.963679
 40
19.000000
 50
247.489521
 51
291.986403
  0
ARC
  8
2
 10
-516.681409
 20
306.863679
 40
9.700000
 50
122.786299
 51
152.208332
  0
ARC
  8
2
 10
-498.281409
 20
312.063679
 40
8.000000
 50
165.522488
 51
188.875589
  0
ARC
  8
2
 10
-539.181409
 20
336.063679
 40
28.500000
 50
255.838931
 51
285.333025
  0
ARC
  8
2
 10
-533.881409
 20
331.863679
 40
17.800000
 50
249.100972
 51
291.378501
  0
ARC
  8
2
 10
-539.781409
 20
306.763679
 40
8.900000
 50
105.426622
 51
148.499542
  0
ARC
  8
2
 10
-524.181409
 20
310.163679
 40
6.000000
 50
126.869898
 51
177.540804
  0
ARC
  8
2
 10
-559.181409
 20
326.863679
 40
19.300000
 50
256.011263
 51
288.438050
  0
ARC
  8
2
 10
-551.981409
 20
325.263679
 40
11.200000
 50
244.391695
 51
284.005872
  0
ARC
  8
2
 10
-558.781409
 20
310.563679
 40
5.000000
 50
66.931267
 51
90.000000
  0
ARC
  8
2
 10
-554.881409
 20
302.163679
 40
13.600000
 50
106.311797
 51
136.987298
  0
ARC
  8
2
 10
-545.481409
 20
309.363679
 40
6.300000
 50
112.619865
 51
172.467220
  0
ARC
  8
2
 10
-575.081409
 20
319.763679
 40
12.200000
 50
253.999284
 51
295.743458
  0
ARC
  8
2
 10
-567.181409
 20
322.563679
 40
8.500000
 50
242.677778
 51
288.916988
  0
ARC
  8
2
 10
-573.381409
 20
310.563679
 40
5.000000
 50
62.677778
 51
90.000000
  0
ARC
  8
2
 10
-569.981409
 20
303.363679
 40
12.300000
 50
105.300094
 51
140.185257
  0
ARC
  8
2
 10
-557.981409
 20
304.163679
 40
12.200000
 50
117.266044
 51
153.155189
  0
ARC
  8
2
 10
-585.381409
 20
311.763679
 40
4.200000
 50
232.732455
 51
318.054482
  0
ARC
  8
2
 10
-577.881409
 20
303.763679
 40
11.900000
 50
102.074853
 51
149.979441
  0
ARC
  8
2
 10
-579.981409
 20
312.563679
 40
3.000000
 50
66.711111
 51
90.000000
  0
ARC
  8
2
 10
-583.089368
 20
307.571639
 40
7.992041
 50
90.000000
 51
260.664881
  0
ARC
  8
2
 10
-587.319130
 20
309.217066
 40
1.000000
 50
149.979441
 51
232.732455
  0
ARC
  8
2
 10
-577.451058
 20
318.442227
 40
3.400000
 50
246.711111
 51
273.361722
  0
ARC
  8
2
 10
-579.743195
 20
312.466768
 40
3.000000
 50
69.013597
 51
102.074853
  0
ARC
  8
2
 10
-574.481409
 20
307.863679
 40
7.700000
 50
90.000000
 51
168.321555
  0
ARC
  8
2
 10
-577.893033
 20
309.958845
 40
2.000000
 50
140.185257
 51
253.999284
  0
ARC
  8
2
 10
-570.651116
 20
310.576051
 40
2.000000
 50
295.743458
 51
333.155189
  0
ARC
  8
2
 10
-572.435443
 20
312.334059
 40
3.000000
 50
62.814519
 51
105.300094
  0
ARC
  8
2
 10
-561.279893
 20
310.563679
 40
5.000000
 50
90.000000
 51
117.266044
  0
ARC
  8
2
 10
-553.709780
 20
310.451755
 40
2.000000
 50
288.438050
 51
352.467220
  0
ARC
  8
2
 10
-563.363358
 20
310.076741
 40
2.000000
 50
136.987298
 51
256.011263
  0
ARC
  8
2
 10
-557.858571
 20
312.337003
 40
3.000000
 50
65.550904
 51
106.311797
  0
ARC
  8
2
 10
-545.981409
 20
310.563679
 40
5.000000
 50
90.000000
 51
112.619865
  0
ARC
  8
2
 10
-545.664597
 20
310.368967
 40
2.000000
 50
148.499542
 51
255.838931
  0
ARC
  8
2
 10
-532.174041
 20
310.506943
 40
2.000000
 50
285.333025
 51
357.540804
  0
ARC
  8
2
 10
-542.014674
 20
310.563679
 40
5.000000
 50
69.100972
 51
90.000000
  0
ARC
  8
2
 10
-541.350833
 20
312.451114
 40
3.000000
 50
68.954641
 51
105.426622
  0
ARC
  8
2
 10
-525.934712
 20
311.563679
 40
4.000000
 50
90.000000
 51
111.378501
  0
ARC
  8
2
 10
-525.981409
 20
312.563679
 40
3.000000
 50
90.000000
 51
126.869898
  0
ARC
  8
2
 10
-508.161666
 20
310.520785
 40
2.000000
 50
282.510198
 51
8.875589
  0
ARC
  8
2
 10
-523.493205
 20
310.453866
 40
2.000000
 50
152.208332
 51
257.989966
  0
ARC
  8
2
 10
-521.421309
 20
313.563679
 40
2.000000
 50
67.489521
 51
90.000000
  0
ARC
  8
2
 10
-520.851014
 20
313.337039
 40
2.000000
 50
69.163924
 51
122.786299
  0
ARC
  8
2
 10
-504.090884
 20
313.563679
 40
2.000000
 50
90.000000
 51
165.522488
  0
ARC
  8
2
 10
-505.144905
 20
312.563679
 40
3.000000
 50
90.000000
 51
111.986403
  0
LINE
  8
2
 10
-157.581409
 20
71.018768
 11
-157.581409
 21
1.908591
  0
LINE
  8
2
 10
-135.581409
 20
27.916750
 11
-135.581409
 21
22.400184
  0
LINE
  8
2
 10
-135.581409
 20
6.063679
 11
-135.581409
 21
1.610377
  0
LINE
  8
2
 10
-135.581409
 20
-14.469586
 11
-135.581409
 21
-18.436321
  0
LINE
  8
2
 10
-135.581409
 20
-31.236321
 11
-135.581409
 21
-33.734805
  0
LINE
  8
2
 10
-135.581409
 20
-45.836321
 11
-135.581409
 21
-46.936321
  0
LINE
  8
2
 10
-135.581409
 20
-52.436321
 11
-135.581409
 21
-55.544280
  0
ARC
  8
2
 10
341.918591
 20
48.663679
 40
500.000000
 50
170.664881
 51
177.437441
  0
ARC
  8
2
 10
341.918591
 20
24.263679
 40
500.000000
 50
182.562559
 51
189.335119
  0
ARC
  8
2
 10
-105.781409
 20
36.463679
 40
37.800000
 50
166.461350
 51
193.347693
  0
ARC
  8
2
 10
-114.981409
 20
36.463679
 40
22.100000
 50
159.678608
 51
199.908260
  0
ARC
  8
2
 10
-142.681409
 20
37.163679
 40
11.200000
 50
282.984112
 51
300.742694
  0
ARC
  8
2
 10
-142.481409
 20
36.763679
 40
10.300000
 50
62.801464
 51
76.803615
  0
LINE
  8
2
 10
-135.581409
 20
-33.836321
 11
-135.581409
 21
-31.236321
  0
LINE
  8
2
 10
-135.581409
 20
-18.236321
 11
-135.581409
 21
-14.436321
  0
LINE
  8
2
 10
-135.581409
 20
1.663679
 11
-135.581409
 21
6.123779
  0
ARC
  8
2
 10
-105.381409
 20
11.563679
 40
38.100000
 50
167.489802
 51
192.010034
  0
ARC
  8
2
 10
-118.181409
 20
14.163679
 40
19.000000
 50
158.013597
 51
202.510479
  0
ARC
  8
2
 10
-144.281409
 20
10.863679
 40
9.700000
 50
297.791668
 51
327.213701
  0
ARC
  8
2
 10
-139.081409
 20
29.263679
 40
8.000000
 50
261.124411
 51
284.477512
  0
ARC
  8
2
 10
-115.081409
 20
-11.636321
 40
28.500000
 50
164.666975
 51
194.161069
  0
ARC
  8
2
 10
-119.281409
 20
-6.336321
 40
17.800000
 50
158.621499
 51
200.899028
  0
ARC
  8
2
 10
-144.381409
 20
-12.236321
 40
8.900000
 50
301.500458
 51
344.573378
  0
ARC
  8
2
 10
-140.981409
 20
3.363679
 40
6.000000
 50
272.459196
 51
323.130102
  0
ARC
  8
2
 10
-124.281409
 20
-31.636321
 40
19.300000
 50
161.561950
 51
193.988737
  0
ARC
  8
2
 10
-125.881409
 20
-24.436321
 40
11.200000
 50
165.994128
 51
205.608305
  0
ARC
  8
2
 10
-140.581409
 20
-31.236321
 40
5.000000
 50
0.000000
 51
23.068733
  0
ARC
  8
2
 10
-148.981409
 20
-27.336321
 40
13.600000
 50
313.012702
 51
343.688203
  0
ARC
  8
2
 10
-141.781409
 20
-17.936321
 40
6.300000
 50
277.532780
 51
337.380135
  0
ARC
  8
2
 10
-131.381409
 20
-47.536321
 40
12.200000
 50
154.256542
 51
196.000716
  0
ARC
  8
2
 10
-128.581409
 20
-39.636321
 40
8.500000
 50
161.083012
 51
207.322222
  0
ARC
  8
2
 10
-140.581409
 20
-45.836321
 40
5.000000
 50
0.000000
 51
27.322222
  0
ARC
  8
2
 10
-147.781409
 20
-42.436321
 40
12.300000
 50
309.814743
 51
344.699906
  0
ARC
  8
2
 10
-146.981409
 20
-30.436321
 40
12.200000
 50
296.844811
 51
332.733956
  0
LINE
  8
2
 10
-143.581409
 20
-55.136321
 11
-143.581409
 21
-53.036321
  0
LINE
  8
2
 10
-143.581409
 20
-42.136321
 11
-143.581409
 21
-39.036321
  0
LINE
  8
2
 10
-143.581409
 20
-23.836321
 11
-143.581409
 21
-21.236321
  0
LINE
  8
2
 10
-143.581409
 20
-2.836321
 11
-143.581409
 21
1.063679
  0
LINE
  8
2
 10
-143.581409
 20
20.963679
 11
-143.581409
 21
25.763679
  0
LINE
  8
2
 10
-143.581409
 20
47.163679
 11
-143.581409
 21
51.263679
  0
LINE
  8
2
 10
-143.581409
 20
71.063679
 11
-143.581409
 21
75.163679
  0
LINE
  8
2
 10
-143.581409
 20
93.963679
 11
-143.581409
 21
96.863679
  0
LINE
  8
2
 10
-143.581409
 20
111.263679
 11
-143.581409
 21
113.763679
  0
LINE
  8
2
 10
-143.581409
 20
125.663679
 11
-143.581409
 21
127.563679
  0
ARC
  8
2
 10
-139.381409
 20
-57.836321
 40
4.200000
 50
131.945518
 51
217.267545
  0
ARC
  8
2
 10
-147.381409
 20
-50.336321
 40
11.900000
 50
300.020559
 51
347.925147
  0
ARC
  8
2
 10
-138.581409
 20
-52.436321
 40
3.000000
 50
0.000000
 51
23.288889
  0
LINE
  8
2
 10
-151.581409
 20
120.163679
 11
-151.581409
 21
-48.736321
  0
ARC
  8
2
 10
-143.573450
 20
-55.544280
 40
7.992041
 50
189.335119
 51
360.000000
  0
ARC
  8
2
 10
-141.928022
 20
-59.774041
 40
1.000000
 50
217.267545
 51
300.020559
  0
ARC
  8
2
 10
-132.702861
 20
-49.905969
 40
3.400000
 50
176.638278
 51
203.288889
  0
ARC
  8
2
 10
-138.678320
 20
-52.198106
 40
3.000000
 50
347.925147
 51
20.986403
  0
ARC
  8
2
 10
-141.520365
 20
-55.456222
 40
1.000000
 50
101.678445
 51
131.945518
  0
ARC
  8
2
 10
-143.281409
 20
-46.936321
 40
7.700000
 50
281.678445
 51
360.000000
  0
ARC
  8
2
 10
-141.186243
 20
-50.347944
 40
2.000000
 50
196.000716
 51
309.814743
  0
ARC
  8
2
 10
-140.569037
 20
-43.106028
 40
2.000000
 50
116.844811
 51
154.256542
  0
ARC
  8
2
 10
-138.811029
 20
-44.890355
 40
3.000000
 50
344.699906
 51
27.185481
  0
ARC
  8
2
 10
-140.581409
 20
-33.734805
 40
5.000000
 50
332.733956
 51
360.000000
  0
ARC
  8
2
 10
-140.693334
 20
-26.164692
 40
2.000000
 50
97.532780
 51
161.561950
  0
ARC
  8
2
 10
-141.068347
 20
-35.818269
 40
2.000000
 50
193.988737
 51
313.012702
  0
ARC
  8
2
 10
-138.808086
 20
-30.313482
 40
3.000000
 50
343.688203
 51
24.449096
  0
ARC
  8
2
 10
-140.581409
 20
-18.436321
 40
5.000000
 50
337.380135
 51
360.000000
  0
ARC
  8
2
 10
-140.776122
 20
-18.119509
 40
2.000000
 50
194.161069
 51
301.500458
  0
ARC
  8
2
 10
-140.638146
 20
-4.628953
 40
2.000000
 50
92.459196
 51
164.666975
  0
ARC
  8
2
 10
-140.581409
 20
-14.469586
 40
5.000000
 50
0.000000
 51
20.899028
  0
ARC
  8
2
 10
-138.693975
 20
-13.805744
 40
3.000000
 50
344.573378
 51
21.045359
  0
ARC
  8
2
 10
-139.581409
 20
1.610377
 40
4.000000
 50
338.621499
 51
360.000000
  0
ARC
  8
2
 10
-138.581409
 20
1.563679
 40
3.000000
 50
323.130102
 51
360.000000
  0
ARC
  8
2
 10
-140.624304
 20
19.383423
 40
2.000000
 50
81.124411
 51
167.489802
  0
ARC
  8
2
 10
-140.691222
 20
4.051884
 40
2.000000
 50
192.010034
 51
297.791668
  0
ARC
  8
2
 10
-137.581409
 20
6.123779
 40
2.000000
 50
0.000000
 51
22.510479
  0
ARC
  8
2
 10
-137.808049
 20
6.694074
 40
2.000000
 50
327.213701
 51
20.836076
  0
ARC
  8
2
 10
-137.581409
 20
23.454204
 40
2.000000
 50
284.477512
 51
360.000000
  0
ARC
  8
2
 10
-138.581409
 20
22.400184
 40
3.000000
 50
338.013597
 51
360.000000
  0
ARC
  8
2
 10
-140.614345
 20
28.198901
 40
2.000000
 50
193.347693
 51
282.984112
  0
ARC
  8
2
 10
-140.586607
 20
44.844504
 40
2.000000
 50
76.803615
 51
166.461350
  0
ARC
  8
2
 10
-137.978521
 20
29.256541
 40
2.000000
 50
300.742694
 51
17.400637
  0
ARC
  8
2
 10
-138.581409
 20
27.916750
 40
3.000000
 50
0.000000
 51
19.908260
  0
ARC
  8
2
 10
-137.581409
 20
44.833267
 40
2.000000
 50
339.678608
 51
360.000000
  0
ARC
  8
2
 10
-139.144760
 20
43.256504
 40
3.000000
 50
344.298213
 51
62.801464
  0
LINE
  8
2
 10
-135.581409
 20
44.833267
 11
-135.581409
 21
50.527175
  0
LINE
  8
2
 10
-135.581409
 20
66.863679
 11
-135.581409
 21
71.316982
  0
LINE
  8
2
 10
-135.581409
 20
87.396944
 11
-135.581409
 21
91.363679
  0
LINE
  8
2
 10
-135.581409
 20
104.163679
 11
-135.581409
 21
106.662164
  0
LINE
  8
2
 10
-135.581409
 20
118.763679
 11
-135.581409
 21
119.863679
  0
LINE
  8
2
 10
-135.581409
 20
125.363679
 11
-135.581409
 21
128.471639
  0
LINE
  8
2
 10
-135.581409
 20
106.763679
 11
-135.581409
 21
104.163679
  0
LINE
  8
2
 10
-135.581409
 20
91.163679
 11
-135.581409
 21
87.363679
  0
LINE
  8
2
 10
-135.581409
 20
71.263679
 11
-135.581409
 21
66.803580
  0
ARC
  8
2
 10
-105.381409
 20
61.363679
 40
38.100000
 50
167.989966
 51
192.510198
  0
ARC
  8
2
 10
-118.181409
 20
58.763679
 40
19.000000
 50
157.489521
 51
201.986403
  0
ARC
  8
2
 10
-144.281409
 20
62.063679
 40
9.700000
 50
32.786299
 51
62.208332
  0
ARC
  8
2
 10
-139.081409
 20
43.663679
 40
8.000000
 50
75.522488
 51
98.875589
  0
ARC
  8
2
 10
-115.081409
 20
84.563679
 40
28.500000
 50
165.838931
 51
195.333025
  0
ARC
  8
2
 10
-119.281409
 20
79.263679
 40
17.800000
 50
159.100972
 51
201.378501
  0
ARC
  8
2
 10
-144.381409
 20
85.163679
 40
8.900000
 50
15.426622
 51
58.499542
  0
ARC
  8
2
 10
-140.981409
 20
69.563679
 40
6.000000
 50
36.869898
 51
87.540804
  0
ARC
  8
2
 10
-124.281409
 20
104.563679
 40
19.300000
 50
166.011263
 51
198.438050
  0
ARC
  8
2
 10
-125.881409
 20
97.363679
 40
11.200000
 50
154.391695
 51
194.005872
  0
ARC
  8
2
 10
-140.581409
 20
104.163679
 40
5.000000
 50
336.931267
 51
360.000000
  0
ARC
  8
2
 10
-148.981409
 20
100.263679
 40
13.600000
 50
16.311797
 51
46.987298
  0
ARC
  8
2
 10
-141.781409
 20
90.863679
 40
6.300000
 50
22.619865
 51
82.467220
  0
ARC
  8
2
 10
-131.381409
 20
120.463679
 40
12.200000
 50
163.999284
 51
205.743458
  0
ARC
  8
2
 10
-128.581409
 20
112.563679
 40
8.500000
 50
152.677778
 51
198.916988
  0
ARC
  8
2
 10
-140.581409
 20
118.763679
 40
5.000000
 50
332.677778
 51
360.000000
  0
ARC
  8
2
 10
-147.781409
 20
115.363679
 40
12.300000
 50
15.300094
 51
50.185257
  0
ARC
  8
2
 10
-146.981409
 20
103.363679
 40
12.200000
 50
27.266044
 51
63.155189
  0
ARC
  8
2
 10
-139.381409
 20
130.763679
 40
4.200000
 50
142.732455
 51
228.054482
  0
ARC
  8
2
 10
-147.381409
 20
123.263679
 40
11.900000
 50
12.074853
 51
59.979441
  0
ARC
  8
2
 10
-138.581409
 20
125.363679
 40
3.000000
 50
336.711111
 51
360.000000
  0
ARC
  8
2
 10
-143.573450
 20
128.471639
 40
7.992041
 50
0.000000
 51
170.664881
  0
ARC
  8
2
 10
-141.928022
 20
132.701400
 40
1.000000
 50
59.979441
 51
142.732455
  0
ARC
  8
2
 10
-132.702861
 20
122.833328
 40
3.400000
 50
156.711111
 51
183.361722
  0
ARC
  8
2
 10
-138.678320
 20
125.125465
 40
3.000000
 50
339.013597
 51
12.074853
  0
ARC
  8
2
 10
-143.281409
 20
119.863679
 40
7.700000
 50
0.000000
 51
78.321555
  0
ARC
  8
2
 10
-141.186243
 20
123.275303
 40
2.000000
 50
50.185257
 51
163.999284
  0
ARC
  8
2
 10
-140.569037
 20
116.033387
 40
2.000000
 50
205.743458
 51
243.155189
  0
ARC
  8
2
 10
-138.811029
 20
117.817713
 40
3.000000
 50
332.814519
 51
15.300094
  0
ARC
  8
2
 10
-140.581409
 20
106.662164
 40
5.000000
 50
0.000000
 51
27.266044
  0
ARC
  8
2
 10
-140.693334
 20
99.092051
 40
2.000000
 50
198.438050
 51
262.467220
  0
ARC
  8
2
 10
-141.068347
 20
108.745628
 40
2.000000
 50
46.987298
 51
166.011263
  0
ARC
  8
2
 10
-138.808086
 20
103.240841
 40
3.000000
 50
335.550904
 51
16.311797
  0
ARC
  8
2
 10
-140.581409
 20
91.363679
 40
5.000000
 50
0.000000
 51
22.619865
  0
ARC
  8
2
 10
-140.776122
 20
91.046868
 40
2.000000
 50
58.499542
 51
165.838931
  0
ARC
  8
2
 10
-140.638146
 20
77.556312
 40
2.000000
 50
195.333025
 51
267.540804
  0
ARC
  8
2
 10
-140.581409
 20
87.396944
 40
5.000000
 50
339.100972
 51
360.000000
  0
ARC
  8
2
 10
-138.693975
 20
86.733103
 40
3.000000
 50
338.954641
 51
15.426622
  0
ARC
  8
2
 10
-139.581409
 20
71.316982
 40
4.000000
 50
0.000000
 51
21.378501
  0
ARC
  8
2
 10
-138.581409
 20
71.363679
 40
3.000000
 50
0.000000
 51
36.869898
  0
ARC
  8
2
 10
-140.624304
 20
53.543936
 40
2.000000
 50
192.510198
 51
278.875589
  0
ARC
  8
2
 10
-140.691222
 20
68.875475
 40
2.000000
 50
62.208332
 51
167.989966
  0
ARC
  8
2
 10
-137.581409
 20
66.803580
 40
2.000000
 50
337.489521
 51
360.000000
  0
ARC
  8
2
 10
-137.808049
 20
66.233285
 40
2.000000
 50
339.163924
 51
32.786299
  0
ARC
  8
2
 10
-137.581409
 20
49.473154
 40
2.000000
 50
0.000000
 51
75.522488
  0
ARC
  8
2
 10
-138.581409
 20
50.527175
 40
3.000000
 50
0.000000
 51
21.986403
  0
ARC
  8
2
 10
-683.581409
 20
-52.536321
 40
3.000000
 50
180.000000
 51
270.000000
  0
LINE
  8
2
 10
-659.581409
 20
-58.536321
 11
-659.581409
 21
-61.536321
  0
LINE
  8
2
 10
-519.581409
 20
-59.389072
 11
-519.581409
 21
-61.536321
  0
LINE
  8
2
 10
-683.581409
 20
-55.536321
 11
-530.273245
 21
-55.536321
  0
LINE
  8
2
 10
-451.889573
 20
-55.536321
 11
-450.581409
 21
-55.536321
  0
LINE
  8
2
 10
-591.581409
 20
155.963679
 11
-591.581409
 21
147.663679
  0
LINE
  8
2
 10
-587.581409
 20
155.963679
 11
-587.581409
 21
147.663679
  0
CIRCLE
  8
2
 10
-589.581409
 20
539.063679
 40
42.500000
  0
LINE
  8
2
 10
-620.003605
 20
546.563679
 11
-599.066362
 21
546.563679
  0
LINE
  8
2
 10
-620.003605
 20
531.563679
 11
-599.066362
 21
531.563679
  0
LINE
  8
2
 10
-580.096456
 20
531.563679
 11
-559.159213
 21
531.563679
  0
LINE
  8
2
 10
-587.581409
 20
517.041204
 11
-587.581409
 21
514.897587
  0
LINE
  8
2
 10
-591.581409
 20
517.041204
 11
-591.581409
 21
514.897587
  0
LINE
  8
2
 10
-587.581409
 20
561.086154
 11
-587.581409
 21
563.229771
  0
LINE
  8
2
 10
-591.581409
 20
561.086154
 11
-591.581409
 21
563.229771
  0
LINE
  8
2
 10
-580.096456
 20
546.563679
 11
-559.159213
 21
546.563679
  0
ARC
  8
2
 10
-589.581409
 20
134.463679
 40
34.000000
 50
22.844739
 51
157.155261
  0
CIRCLE
  8
2
 10
-589.581409
 20
539.063679
 40
31.333050
  0
ARC
  8
2
 10
-627.006018
 20
539.390528
 40
45.000000
 50
12.236103
 51
30.645688
  0
ARC
  8
2
 10
-552.156800
 20
539.390528
 40
45.000000
 50
149.354312
 51
167.763897
  0
ARC
  8
2
 10
-589.581409
 20
561.563679
 40
1.500000
 50
30.645688
 51
149.354312
  0
ARC
  8
2
 10
-580.096456
 20
549.563679
 40
3.000000
 50
192.236103
 51
270.000000
  0
ARC
  8
2
 10
-599.066362
 20
549.563679
 40
3.000000
 50
270.000000
 51
347.763897
  0
ARC
  8
2
 10
-627.006018
 20
538.736830
 40
45.000000
 50
329.354312
 51
347.763897
  0
ARC
  8
2
 10
-552.156800
 20
538.736830
 40
45.000000
 50
192.236103
 51
210.645688
  0
ARC
  8
2
 10
-589.581409
 20
516.563679
 40
1.500000
 50
210.645688
 51
329.354312
  0
ARC
  8
2
 10
-580.096456
 20
528.563679
 40
3.000000
 50
90.000000
 51
167.763897
  0
ARC
  8
2
 10
-599.066362
 20
528.563679
 40
3.000000
 50
12.236103
 51
90.000000
  0
ARC
  8
2
 10
-589.581409
 20
539.063679
 40
24.248711
 50
18.016736
 51
161.983264
  0
ARC
  8
2
 10
-589.581409
 20
539.063679
 40
24.248711
 50
198.016736
 51
341.983264
  0
ARC
  8
2
 10
87.918591
 20
134.463679
 40
34.000000
 50
45.099128
 51
134.900872
  0
LINE
  8
2
 10
95.418586
 20
166.069165
 11
95.418591
 21
147.663679
  0
LINE
  8
2
 10
80.418591
 20
166.069165
 11
80.418591
 21
147.663679
  0
LINE
  8
2
 10
63.918591
 20
158.546869
 11
63.918591
 21
156.820781
  0
LINE
  8
2
 10
111.918591
 20
158.546869
 11
111.918591
 21
156.820781
  0
ARC
  8
2
 10
-589.581409
 20
132.963679
 40
28.000000
 50
34.712682
 51
81.884254
  0
ARC
  8
2
 10
-589.581409
 20
132.963679
 40
28.000000
 50
98.115746
 51
145.287318
  0
ARC
  8
2
 10
87.918591
 20
136.463679
 40
31.000000
 50
28.453097
 51
48.922243
  0
ARC
  8
2
 10
87.918591
 20
136.463679
 40
31.000000
 50
131.077757
 51
151.546903
  0
ARC
  8
2
 10
87.918591
 20
132.963679
 40
28.000000
 50
105.536794
 51
145.287318
  0
ARC
  8
2
 10
87.918591
 20
132.963679
 40
28.000000
 50
34.712682
 51
74.463206
  0
ARC
  8
2
 10
-590.581409
 20
155.963679
 40
1.000000
 50
90.000000
 51
180.000000
  0
ARC
  8
2
 10
-588.581409
 20
155.963679
 40
1.000000
 50
0.000000
 51
90.000000
  0
LINE
  8
2
 10
-590.581409
 20
156.963679
 11
-590.216643
 21
156.963684
  0
LINE
  8
2
 10
-588.945942
 20
156.963793
 11
-588.581409
 21
156.963679
  0
LINE
  8
2
 10
-598.397076
 20
516.474213
 11
-596.398207
 21
521.299910
  0
LINE
  8
2
 10
-581.840731
 20
556.444766
 11
-579.841862
 21
561.270463
  0
LINE
  8
2
 10
-599.320956
 20
516.856896
 11
-597.322087
 21
521.682593
  0
LINE
  8
2
 10
-582.764611
 20
556.827449
 11
-580.765742
 21
561.653146
  0
LINE
  8
2
 10
-606.370638
 20
521.567343
 11
-602.677210
 21
525.260772
  0
LINE
  8
2
 10
-575.778501
 20
552.159480
 11
-572.085073
 21
555.852909
  0
LINE
  8
2
 10
-607.077745
 20
522.274450
 11
-603.384317
 21
525.967879
  0
LINE
  8
2
 10
-576.485608
 20
552.866587
 11
-572.792180
 21
556.560016
  0
LINE
  8
2
 10
-611.788192
 20
529.324132
 11
-606.962495
 21
531.323002
  0
LINE
  8
2
 10
-570.168244
 20
546.563679
 11
-566.991942
 21
547.879347
  0
LINE
  8
2
 10
-612.170876
 20
530.248012
 11
-608.994574
 21
531.563679
  0
LINE
  8
2
 10
-572.200323
 20
546.804357
 11
-567.374626
 21
548.803226
  0
ARC
  8
2
 10
-596.860147
 20
521.491251
 40
0.500000
 50
337.500000
 51
157.500000
  0
ARC
  8
2
 10
-603.030763
 20
525.614325
 40
0.500000
 50
315.000000
 51
135.000000
  0
ARC
  8
2
 10
-607.153837
 20
531.784941
 40
0.500000
 50
292.500000
 51
333.734975
  0
ARC
  8
2
 10
-582.302671
 20
556.636108
 40
0.500000
 50
157.500000
 51
337.500000
  0
ARC
  8
2
 10
-576.132055
 20
552.513034
 40
0.500000
 50
135.000000
 51
315.000000
  0
ARC
  8
2
 10
-572.008981
 20
546.342417
 40
0.500000
 50
112.500000
 51
153.734975
  0
LINE
  8
2
 10
-572.780044
 20
530.209985
 11
-570.757999
 21
529.372427
  0
ARC
  8
2
 10
-572.110294
 20
531.826907
 40
1.750143
 50
188.650293
 51
247.500000
  0
ARC
  8
2
 10
-570.088248
 20
530.989348
 40
1.750143
 50
247.500000
 51
19.157293
  0
LINE
  8
2
 10
-606.382774
 20
547.917374
 11
-608.404819
 21
548.754932
  0
ARC
  8
2
 10
-607.052524
 20
546.300452
 40
1.750143
 50
8.650293
 51
67.500000
  0
ARC
  8
2
 10
-609.074570
 20
547.138011
 40
1.750143
 50
67.500000
 51
199.157293
  0
ARC
  8
2
 10
-554.181014
 20
137.229309
 40
45.274917
 50
159.102140
 51
166.675437
  0
ARC
  8
2
 10
-555.104893
 20
137.229309
 40
45.274917
 50
158.681079
 51
166.675437
  0
ARC
  8
2
 10
-596.880246
 20
153.532733
 40
0.430947
 50
339.102140
 51
158.681079
  0
ARC
  8
2
 10
-578.151480
 20
135.462427
 40
30.472934
 50
143.677597
 51
156.397040
  0
ARC
  8
2
 10
-578.858587
 20
135.462427
 40
30.472934
 50
142.882669
 51
156.397040
  0
ARC
  8
2
 10
-602.931761
 20
153.680275
 40
0.283404
 50
323.677597
 51
142.882669
  0
ARC
  8
2
 10
-586.907068
 20
133.695546
 40
28.197761
 50
134.711482
 51
150.306296
  0
ARC
  8
2
 10
-587.289751
 20
133.695546
 40
28.197761
 50
134.156238
 51
150.306296
  0
ARC
  8
2
 10
-606.839483
 20
153.829722
 40
0.133957
 50
314.711482
 51
134.156238
  0
ARC
  8
2
 10
52.518196
 20
137.229309
 40
45.274917
 50
13.324563
 51
18.638604
  0
ARC
  8
2
 10
53.442076
 20
137.229309
 40
45.274917
 50
13.324563
 51
21.318921
  0
ARC
  8
2
 10
95.217428
 20
153.532733
 40
0.430947
 50
21.318921
 51
62.173379
  0
ARC
  8
2
 10
76.488662
 20
135.462427
 40
30.472934
 50
23.602960
 51
36.322403
  0
ARC
  8
2
 10
77.195769
 20
135.462427
 40
30.472934
 50
23.602960
 51
37.117331
  0
ARC
  8
2
 10
101.268943
 20
153.680275
 40
0.283404
 50
37.117331
 51
216.322403
  0
ARC
  8
2
 10
85.244250
 20
133.695546
 40
28.197761
 50
29.693704
 51
45.288518
  0
ARC
  8
2
 10
85.626933
 20
133.695546
 40
28.197761
 50
29.693704
 51
45.843762
  0
ARC
  8
2
 10
105.176665
 20
153.829722
 40
0.133957
 50
45.843762
 51
225.288518
  0
LINE
  8
2
 10
45.418591
 20
147.663679
 11
130.418591
 21
147.663679
  0
LINE
  8
2
 10
-547.081409
 20
147.663679
 11
-632.081409
 21
147.663679
  0
ARC
  8
2
 10
-589.581409
 20
134.463679
 40
33.162479
 50
104.962752
 51
150.128593
  0
ARC
  8
2
 10
-584.026860
 20
166.453543
 40
10.000000
 50
202.238154
 51
227.992896
  0
ARC
  8
2
 10
-597.369091
 20
163.603466
 40
3.000000
 50
42.388379
 51
104.962752
  0
ARC
  8
2
 10
-602.539236
 20
158.884397
 40
10.000000
 50
22.238154
 51
42.388379
  0
ARC
  8
2
 10
-595.135958
 20
166.453543
 40
10.000000
 50
312.007104
 51
337.761846
  0
ARC
  8
2
 10
-576.623582
 20
158.884397
 40
10.000000
 50
137.611621
 51
157.761846
  0
ARC
  8
2
 10
-581.793727
 20
163.603466
 40
3.000000
 50
75.037248
 51
137.611621
  0
ARC
  8
2
 10
-589.581409
 20
134.463679
 40
33.162479
 50
29.871407
 51
75.037248
  0
ARC
  8
2
 10
-589.581409
 20
160.286129
 40
1.700000
 50
227.992896
 51
312.007104
  0
ARC
  8
2
 10
-589.106518
 20
133.641144
 40
32.849358
 50
105.470231
 51
147.621493
  0
ARC
  8
2
 10
-583.072908
 20
166.562040
 40
12.000000
 50
200.135943
 51
231.694293
  0
ARC
  8
2
 10
-599.972721
 20
160.365563
 40
6.000000
 50
20.135943
 51
48.747449
  0
ARC
  8
2
 10
-597.335204
 20
163.372804
 40
2.000000
 50
48.747449
 51
105.470231
  0
ARC
  8
2
 10
-596.089910
 20
166.562040
 40
12.000000
 50
308.305707
 51
339.864057
  0
ARC
  8
2
 10
-579.190097
 20
160.365563
 40
6.000000
 50
131.252551
 51
159.864057
  0
ARC
  8
2
 10
-581.827614
 20
163.372804
 40
2.000000
 50
74.529769
 51
131.252551
  0
ARC
  8
2
 10
-590.056300
 20
133.641144
 40
32.849358
 50
32.378507
 51
74.529769
  0
ARC
  8
2
 10
-589.581409
 20
158.322536
 40
1.500000
 50
231.694293
 51
308.305707
  0
ARC
  8
2
 10
79.634803
 20
155.142711
 40
11.430139
 50
88.512215
 51
112.714662
  0
ARC
  8
2
 10
79.918591
 20
166.069165
 40
0.500000
 50
0.000000
 51
88.512215
  0
ARC
  8
2
 10
90.754964
 20
128.578206
 40
40.228245
 50
112.714662
 51
131.843847
  0
ARC
  8
2
 10
81.124805
 20
148.246735
 40
17.127052
 50
93.791923
 51
118.737001
  0
ARC
  8
2
 10
80.018591
 20
164.937167
 40
0.400000
 50
0.000000
 51
93.791923
  0
ARC
  8
2
 10
94.837154
 20
123.238969
 40
45.647515
 50
118.737001
 51
132.635576
  0
ARC
  8
2
 10
94.712377
 20
148.246735
 40
17.127052
 50
61.262999
 51
86.208077
  0
ARC
  8
2
 10
81.000028
 20
123.238969
 40
45.647515
 50
47.364424
 51
61.262999
  0
ARC
  8
2
 10
95.818591
 20
164.937167
 40
0.400000
 50
86.208077
 51
180.000000
  0
ARC
  8
2
 10
95.918591
 20
166.069165
 40
0.500000
 50
91.487785
 51
180.000000
  0
ARC
  8
2
 10
96.202379
 20
155.142711
 40
11.430139
 50
67.285338
 51
91.487785
  0
ARC
  8
2
 10
85.082218
 20
128.578206
 40
40.228245
 50
48.156153
 51
67.285338
  0
ARC
  8
2
  6
CENTER
 62
2
 10
-589.581409
 20
539.063679
 40
37.500000
 50
126.361503
 51
143.885033
  0
ARC
  8
2
  6
CENTER
 62
2
 10
-589.581409
 20
539.063679
 40
37.500000
 50
216.933310
 51
233.416879
  0
ARC
  8
2
  6
CENTER
 62
2
 10
-589.581409
 20
539.063679
 40
37.500000
 50
306.278748
 51
323.822644
  0
ARC
  8
2
  6
CENTER
 62
2
 10
-589.581409
 20
539.063679
 40
37.500000
 50
36.280641
 51
53.737219
  0
LINE
  8
2
  6
CENTER
 62
2
 10
-620.420695
 20
508.224393
 11
-612.370095
 21
516.274993
  0
LINE
  8
2
  6
CENTER
 62
2
 10
-567.190556
 20
561.454533
 11
-558.644182
 21
570.000906
  0
LINE
  8
2
  6
CENTER
 62
2
 10
-620.475028
 20
569.957299
 11
-612.124036
 21
561.606306
  0
LINE
  8
2
  6
CENTER
 62
2
 10
-567.009325
 20
516.491596
 11
-558.878262
 21
508.360532
  0
LINE
  8
2
  6
CENTER
 62
2
 10
114.435095
 20
138.808497
 11
114.435095
 21
154.419955
  0
LINE
  8
2
  6
CENTER
 62
2
 10
61.402087
 20
138.808497
 11
61.402087
 21
155.813845
  0
LINE
  8
2
  6
CENTER
 62
2
 10
-616.097913
 20
154.379126
 11
-616.097913
 21
137.958701
  0
LINE
  8
2
  6
CENTER
 62
2
 10
-563.064905
 20
154.808981
 11
-563.064905
 21
137.958701
  0
CIRCLE
  8
2
 10
-563.064905
 20
512.547175
 40
3.500000
  0
CIRCLE
  8
2
 10
-563.064905
 20
565.580184
 40
3.500000
  0
CIRCLE
  8
2
 10
-616.097913
 20
512.547175
 40
3.500000
  0
CIRCLE
  8
2
 10
-616.097913
 20
565.580184
 40
3.500000
  0
LINE
  8
2
 10
-559.264905
 20
148.663679
 11
-566.864905
 21
148.663679
  0
LINE
  8
2
 10
-559.264905
 20
148.663679
 11
-559.264905
 21
147.663679
  0
LINE
  8
2
 10
-566.864905
 20
148.663679
 11
-566.864905
 21
147.663679
  0
LINE
  8
2
 10
-559.564905
 20
149.642704
 11
-559.564905
 21
148.663679
  0
LINE
  8
2
 10
-566.564905
 20
149.642704
 11
-566.564905
 21
148.663679
  0
ARC
  8
2
 10
-563.064905
 20
142.263679
 40
9.000000
 50
73.398450
 51
106.601550
  0
ARC
  8
2
 10
-560.864905
 20
149.642704
 40
1.300000
 50
0.000000
 51
73.398450
  0
ARC
  8
2
 10
-565.264905
 20
149.642704
 40
1.300000
 50
106.601550
 51
180.000000
  0
LINE
  8
2
 10
-612.297913
 20
148.663679
 11
-619.897913
 21
148.663679
  0
LINE
  8
2
 10
-612.297913
 20
148.663679
 11
-612.297913
 21
147.663679
  0
LINE
  8
2
 10
-619.897913
 20
148.663679
 11
-619.897913
 21
147.663679
  0
LINE
  8
2
 10
-612.597913
 20
149.642704
 11
-612.597913
 21
148.663679
  0
LINE
  8
2
 10
-619.597913
 20
149.642704
 11
-619.597913
 21
148.663679
  0
ARC
  8
2
 10
-616.097913
 20
142.263679
 40
9.000000
 50
73.398450
 51
106.601550
  0
ARC
  8
2
 10
-613.897913
 20
149.642704
 40
1.300000
 50
0.000000
 51
73.398450
  0
ARC
  8
2
 10
-618.297913
 20
149.642704
 40
1.300000
 50
106.601550
 51
180.000000
  0
LINE
  8
2
 10
65.202087
 20
148.663679
 11
57.602087
 21
148.663679
  0
LINE
  8
2
 10
65.202087
 20
148.663679
 11
65.202087
 21
147.663679
  0
LINE
  8
2
 10
57.602087
 20
148.663679
 11
57.602087
 21
147.663679
  0
LINE
  8
2
 10
64.902087
 20
149.642704
 11
64.902087
 21
148.663679
  0
LINE
  8
2
 10
57.902087
 20
149.642704
 11
57.902087
 21
148.663679
  0
ARC
  8
2
 10
61.402087
 20
142.263679
 40
9.000000
 50
73.398450
 51
106.601550
  0
ARC
  8
2
 10
63.602087
 20
149.642704
 40
1.300000
 50
0.000000
 51
73.398450
  0
ARC
  8
2
 10
59.202087
 20
149.642704
 40
1.300000
 50
106.601550
 51
180.000000
  0
LINE
  8
2
 10
118.235095
 20
148.663679
 11
110.635095
 21
148.663679
  0
LINE
  8
2
 10
118.235095
 20
148.663679
 11
118.235095
 21
147.663679
  0
LINE
  8
2
 10
110.635095
 20
148.663679
 11
110.635095
 21
147.663679
  0
LINE
  8
2
 10
117.935095
 20
149.642704
 11
117.935095
 21
148.663679
  0
LINE
  8
2
 10
110.935095
 20
149.642704
 11
110.935095
 21
148.663679
  0
ARC
  8
2
 10
114.435095
 20
142.263679
 40
9.000000
 50
73.398450
 51
106.601550
  0
ARC
  8
2
 10
116.635095
 20
149.642704
 40
1.300000
 50
0.000000
 51
73.398450
  0
ARC
  8
2
 10
112.235095
 20
149.642704
 40
1.300000
 50
106.601550
 51
180.000000
  0
ARC
  8
2
 10
-427.581409
 20
448.063679
 40
3.000000
 50
360.000000
 51
90.000000
  0
LINE
  8
2
 10
-445.581409
 20
624.063679
 11
-445.581409
 21
456.063679
  0
LINE
  8
2
 10
-461.764739
 20
451.063679
 11
-518.978378
 21
451.063679
  0
LINE
  8
2
 10
-427.581409
 20
451.063679
 11
-449.103259
 21
451.063679
  0
LINE
  8
2
 10
-424.581409
 20
431.063679
 11
-424.581409
 21
448.063679
  0
LINE
  8
2
 10
-424.581409
 20
439.063679
 11
-812.581409
 21
439.063679
  0
LINE
  8
2
 10
-534.184440
 20
451.063679
 11
-666.302692
 21
451.063679
  0
LINE
  8
2
 10
-812.581409
 20
431.063679
 11
-812.581409
 21
624.063679
  0
LINE
  8
2
 10
-728.581409
 20
476.063679
 11
-728.581409
 21
602.063679
  0
LINE
  8
2
 10
-734.320367
 20
609.063679
 11
-471.581409
 21
609.063679
  0
LINE
  8
2
 10
-464.581409
 20
602.063679
 11
-464.581409
 21
454.063679
  0
ARC
  8
2
 10
-721.581409
 20
602.063679
 40
7.000000
 50
90.000000
 51
180.000000
  0
ARC
  8
2
 10
-721.581409
 20
476.063679
 40
7.000000
 50
180.000000
 51
270.000000
  0
ARC
  8
2
 10
-471.581409
 20
602.063679
 40
7.000000
 50
0.000000
 51
90.000000
  0
ARC
  8
2
 10
-471.581409
 20
476.063679
 40
7.000000
 50
270.000000
 51
360.000000
  0
ARC
  8
2
 10
-687.581409
 20
-38.536321
 40
1.000000
 50
0.000000
 51
90.000000
  0
ARC
  8
2
 10
-632.581409
 20
36.463679
 40
180.000000
 50
170.024200
 51
198.428986
  0
ARC
  8
2
 10
-779.632421
 20
-12.536321
 40
25.000000
 50
198.428986
 51
270.000000
  0
LINE
  8
2
 10
-786.981877
 20
88.253773
 11
-565.036535
 21
103.773703
  0
ARC
  8
2
 10
-785.237965
 20
63.314672
 40
25.000000
 50
94.000000
 51
170.024200
  0
LINE
  8
2
 10
-728.581409
 20
121.463679
 11
-735.017107
 21
103.781745
  0
ARC
  8
2
 10
-753.810959
 20
110.622148
 40
20.000000
 50
274.000000
 51
340.000000
  0
LINE
  8
2
 10
-797.581409
 20
639.063679
 11
-460.581409
 21
639.063679
  0
CIRCLE
  8
2
 10
-526.581409
 20
454.063679
 40
7.099784
  0
ARC
  8
2
 10
-518.978378
 20
449.063679
 40
2.000000
 50
90.000000
 51
146.669780
  0
ARC
  8
2
 10
-534.184440
 20
449.063679
 40
2.000000
 50
33.330220
 51
90.000000
  0
CIRCLE
  8
2
 10
-526.581409
 20
454.063679
 40
6.000000
  0
CIRCLE
  8
2
 10
-673.581409
 20
454.063679
 40
6.000000
  0
LINE
  8
2
 10
-681.581409
 20
466.063679
 11
-681.581409
 21
454.063679
  0
ARC
  8
2
 10
-678.581409
 20
466.063679
 40
3.000000
 50
90.000000
 51
180.000000
  0
ARC
  8
2
 10
-678.581409
 20
454.063679
 40
3.000000
 50
180.000000
 51
235.972242
  0
CIRCLE
  8
2
 10
-673.581409
 20
454.063679
 40
6.830613
  0
ARC
  8
2
 10
-666.302692
 20
449.063679
 40
2.000000
 50
90.000000
 51
145.513495
  0
ARC
  8
2
 10
-681.379381
 20
449.919847
 40
2.000000
 50
27.986121
 51
55.972242
  0
CIRCLE
  8
2
 10
-455.581409
 20
454.063679
 40
6.000000
  0
CIRCLE
  8
2
 10
-455.581409
 20
454.063679
 40
6.183301
  0
ARC
  8
2
 10
-449.103259
 20
449.063679
 40
2.000000
 50
90.000000
 51
142.338130
  0
ARC
  8
2
 10
-461.581409
 20
454.063679
 40
3.000000
 50
180.000000
 51
264.293054
  0
ARC
  8
2
 10
-462.078611
 20
449.088462
 40
2.000000
 50
37.443005
 51
84.293054
  0
ARC
  8
2
 10
-440.581409
 20
456.063679
 40
5.000000
 50
180.000000
 51
270.000000
  0
LINE
  8
2
 10
-455.581409
 20
545.063679
 11
-447.581409
 21
545.063679
  0
LINE
  8
2
 10
-455.581409
 20
533.063679
 11
-447.581409
 21
533.063679
  0
ARC
  8
2
 10
-455.581409
 20
539.063679
 40
6.000000
 50
90.000000
 51
270.000000
  0
ARC
  8
2
 10
-447.581409
 20
531.063679
 40
2.000000
 50
0.000000
 51
90.000000
  0
ARC
  8
2
 10
-447.581409
 20
547.063679
 40
2.000000
 50
270.000000
 51
0.000000
  0
ARC
  8
2
 10
-460.581409
 20
624.063679
 40
15.000000
 50
0.000000
 51
90.000000
  0
LINE
  8
2
 10
-459.581409
 20
619.063679
 11
-447.581409
 21
619.063679
  0
LINE
  8
2
 10
-465.581409
 20
625.063679
 11
-465.581409
 21
637.063679
  0
ARC
  8
2
 10
-459.581409
 20
625.063679
 40
6.000000
 50
180.000000
 51
270.000000
  0
ARC
  8
2
 10
-447.581409
 20
617.063679
 40
2.000000
 50
0.000000
 51
90.000000
  0
ARC
  8
2
 10
-467.581409
 20
637.063679
 40
2.000000
 50
0.000000
 51
90.000000
  0
LINE
  8
2
 10
-520.581409
 20
629.063679
 11
-520.581409
 21
637.063679
  0
LINE
  8
2
 10
-532.581409
 20
629.063679
 11
-532.581409
 21
637.063679
  0
ARC
  8
2
 10
-526.581409
 20
629.063679
 40
6.000000
 50
180.000000
 51
360.000000
  0
ARC
  8
2
 10
-518.581409
 20
637.063679
 40
2.000000
 50
90.000000
 51
180.000000
  0
ARC
  8
2
 10
-534.581409
 20
637.063679
 40
2.000000
 50
0.000000
 51
90.000000
  0
LINE
  8
2
 10
-667.581409
 20
629.063679
 11
-667.581409
 21
637.063679
  0
LINE
  8
2
 10
-679.581409
 20
629.063679
 11
-679.581409
 21
637.063679
  0
ARC
  8
2
 10
-673.581409
 20
629.063679
 40
6.000000
 50
180.000000
 51
360.000000
  0
ARC
  8
2
 10
-665.581409
 20
637.063679
 40
2.000000
 50
90.000000
 51
180.000000
  0
ARC
  8
2
 10
-681.581409
 20
637.063679
 40
2.000000
 50
0.000000
 51
90.000000
  0
ARC
  8
2
 10
-696.581409
 20
624.063679
 40
15.000000
 50
360.000000
 51
90.000000
  0
ARC
  8
2
 10
-797.581409
 20
624.063679
 40
15.000000
 50
90.000000
 51
180.000000
  0
LINE
  8
2
 10
-792.581409
 20
625.063679
 11
-792.581409
 21
637.063679
  0
LINE
  8
2
 10
-798.581409
 20
619.063679
 11
-808.390295
 21
619.063679
  0
ARC
  8
2
 10
-798.581409
 20
625.063679
 40
6.000000
 50
270.000000
 51
360.000000
  0
ARC
  8
2
 10
-790.581409
 20
637.063679
 40
2.000000
 50
90.000000
 51
180.000000
  0
LINE
  8
2
 10
-803.581409
 20
545.063679
 11
-808.390295
 21
545.063679
  0
LINE
  8
2
 10
-803.581409
 20
533.063679
 11
-808.390295
 21
533.063679
  0
ARC
  8
2
 10
-803.581409
 20
539.063679
 40
6.000000
 50
270.000000
 51
90.000000
  0
LINE
  8
2
 10
-803.581409
 20
466.063679
 11
-808.390295
 21
466.063679
  0
LINE
  8
2
 10
-803.581409
 20
454.063679
 11
-808.390295
 21
454.063679
  0
ARC
  8
2
 10
-803.581409
 20
460.063679
 40
6.000000
 50
270.000000
 51
90.000000
  0
LINE
  8
2
 10
-741.320367
 20
476.063679
 11
-741.320367
 21
602.063679
  0
ARC
  8
2
 10
-734.320367
 20
602.063679
 40
7.000000
 50
90.000000
 51
180.000000
  0
LINE
  8
2
 10
-808.581409
 20
469.063679
 11
-471.581409
 21
469.063679
  0
ARC
  8
2
 10
-808.390295
 20
468.063679
 40
2.000000
 50
180.000000
 51
270.000000
  0
ARC
  8
2
 10
-808.390295
 20
452.063679
 40
2.000000
 50
90.000000
 51
180.000000
  0
ARC
  8
2
 10
-808.390295
 20
547.063679
 40
2.000000
 50
180.000000
 51
270.000000
  0
ARC
  8
2
 10
-808.390295
 20
531.063679
 40
2.000000
 50
90.000000
 51
180.000000
  0
ARC
  8
2
 10
-808.390295
 20
617.063679
 40
2.000000
 50
90.000000
 51
180.000000
  0
LINE
  8
2
 10
-810.390295
 20
454.063679
 11
-810.390295
 21
466.063679
  0
LINE
  8
2
 10
-810.390295
 20
533.063679
 11
-810.390295
 21
545.063679
  0
ARC
  8
2
 10
-734.320367
 20
476.063679
 40
7.000000
 50
180.000000
 51
270.000000
  0
ARC
  8
2
 10
-463.081409
 20
546.563679
 40
0.500000
 50
270.000000
 51
360.000000
  0
ARC
  8
2
 10
-464.081409
 20
545.563679
 40
0.500000
 50
90.000000
 51
180.000000
  0
ARC
  8
2
 10
-463.081409
 20
581.563679
 40
0.500000
 50
0.000000
 51
90.000000
  0
ARC
  8
2
 10
-464.081409
 20
582.563679
 40
0.500000
 50
180.000000
 51
270.000000
  0
ARC
  8
2
 10
-463.081409
 20
531.563679
 40
0.500000
 50
360.000000
 51
90.000000
  0
ARC
  8
2
 10
-464.081409
 20
532.563679
 40
0.500000
 50
180.000000
 51
270.000000
  0
ARC
  8
2
 10
-463.081409
 20
496.563679
 40
0.500000
 50
270.000000
 51
360.000000
  0
ARC
  8
2
 10
-464.081409
 20
495.563679
 40
0.500000
 50
90.000000
 51
180.000000
  0
LINE
  8
2
 10
-653.581409
 20
652.063679
 11
-625.581409
 21
652.063679
  0
LINE
  8
2
 10
-553.581409
 20
652.063679
 11
-525.581409
 21
652.063679
  0
ARC
  8
2
 10
-525.581409
 20
651.063679
 40
1.000000
 50
0.000000
 51
90.000000
  0
ARC
  8
2
 10
-553.581409
 20
651.063679
 40
1.000000
 50
90.000000
 51
180.000000
  0
ARC
  8
2
 10
-625.581409
 20
651.063679
 40
1.000000
 50
0.000000
 51
90.000000
  0
ARC
  8
2
 10
-653.581409
 20
651.063679
 40
1.000000
 50
90.000000
 51
180.000000
  0
LINE
  8
2
 10
-521.581409
 20
647.063679
 11
-500.736110
 21
647.063679
  0
LINE
  8
2
 10
-678.426708
 20
647.063679
 11
-657.581409
 21
647.063679
  0
LINE
  8
2
 10
-621.581409
 20
647.063679
 11
-557.581409
 21
647.063679
  0
ARC
  8
2
 10
-521.581409
 20
650.063679
 40
3.000000
 50
180.000000
 51
270.000000
  0
ARC
  8
2
 10
-557.581409
 20
650.063679
 40
3.000000
 50
270.000000
 51
360.000000
  0
ARC
  8
2
 10
-621.581409
 20
650.063679
 40
3.000000
 50
180.000000
 51
270.000000
  0
ARC
  8
2
 10
-657.581409
 20
650.063679
 40
3.000000
 50
270.000000
 51
360.000000
  0
LINE
  8
2
 10
-680.158759
 20
646.063679
 11
-683.334186
 21
640.563679
  0
ARC
  8
2
 10
-678.426708
 20
645.063679
 40
2.000000
 50
90.000000
 51
150.000000
  0
ARC
  8
2
 10
-685.932262
 20
642.063679
 40
3.000000
 50
270.000000
 51
330.000000
  0
LINE
  8
2
 10
-499.004059
 20
646.063679
 11
-495.828632
 21
640.563679
  0
ARC
  8
2
 10
-500.736110
 20
645.063679
 40
2.000000
 50
30.000000
 51
90.000000
  0
ARC
  8
2
 10
-493.230556
 20
642.063679
 40
3.000000
 50
210.000000
 51
270.000000
  0
LINE
  8
2
 10
-524.581409
 20
651.063679
 11
-524.581409
 21
650.063679
  0
LINE
  8
2
 10
-554.581409
 20
651.063679
 11
-554.581409
 21
650.063679
  0
LINE
  8
2
 10
-624.581409
 20
651.063679
 11
-624.581409
 21
650.063679
  0
LINE
  8
2
 10
-654.581409
 20
651.063679
 11
-654.581409
 21
650.063679
  0
LINE
  8
2
 10
-553.431409
 20
652.063679
 11
-553.431409
 21
663.706906
  0
LINE
  8
2
 10
-553.431409
 20
663.706906
 11
-551.081409
 21
665.063679
  0
LINE
  8
2
 10
-551.081409
 20
665.063679
 11
-539.581409
 21
665.063679
  0
LINE
  8
2
 10
-546.506409
 20
652.063679
 11
-546.506409
 21
663.706906
  0
ARC
  8
2
 10
-549.968909
 20
659.255745
 40
5.639303
 50
52.121121
 51
127.878879
  0
ARC
  8
2
 10
-539.581409
 20
644.120048
 40
20.775000
 50
90.000000
 51
109.471221
  0
LINE
  8
2
 10
-525.731409
 20
652.063679
 11
-525.731409
 21
663.706906
  0
LINE
  8
2
 10
-525.731409
 20
663.706906
 11
-528.081409
 21
665.063679
  0
LINE
  8
2
 10
-528.081409
 20
665.063679
 11
-539.581409
 21
665.063679
  0
LINE
  8
2
 10
-532.656409
 20
652.063679
 11
-532.656409
 21
663.706906
  0
ARC
  8
2
 10
-529.193909
 20
659.255745
 40
5.639303
 50
52.121121
 51
127.878879
  0
ARC
  8
2
 10
-539.581409
 20
644.120048
 40
20.775000
 50
70.528779
 51
90.000000
  0
LINE
  8
2
 10
-653.431409
 20
652.063679
 11
-653.431409
 21
663.706906
  0
LINE
  8
2
 10
-653.431409
 20
663.706906
 11
-651.081409
 21
665.063679
  0
LINE
  8
2
 10
-651.081409
 20
665.063679
 11
-639.581409
 21
665.063679
  0
LINE
  8
2
 10
-646.506409
 20
652.063679
 11
-646.506409
 21
663.706906
  0
ARC
  8
2
 10
-649.968909
 20
659.255745
 40
5.639303
 50
52.121121
 51
127.878879
  0
ARC
  8
2
 10
-639.581409
 20
644.120048
 40
20.775000
 50
90.000000
 51
109.471221
  0
LINE
  8
2
 10
-625.731409
 20
652.063679
 11
-625.731409
 21
663.706906
  0
LINE
  8
2
 10
-625.731409
 20
663.706906
 11
-628.081409
 21
665.063679
  0
LINE
  8
2
 10
-628.081409
 20
665.063679
 11
-639.581409
 21
665.063679
  0
LINE
  8
2
 10
-632.656409
 20
652.063679
 11
-632.656409
 21
663.706906
  0
ARC
  8
2
 10
-629.193909
 20
659.255745
 40
5.639303
 50
52.121121
 51
127.878879
  0
ARC
  8
2
 10
-639.581409
 20
644.120048
 40
20.775000
 50
70.528779
 51
90.000000
  0
LINE
  8
2
 10
-532.663909
 20
675.063679
 11
-531.581409
 21
673.981179
  0
LINE
  8
2
 10
-531.581409
 20
673.981179
 11
-531.581409
 21
665.063679
  0
LINE
  8
2
 62
2
 10
-532.663909
 20
675.063679
 11
-532.663909
 21
665.063679
  0
LINE
  8
2
 10
-532.663909
 20
675.063679
 11
-546.498909
 21
675.063679
  0
LINE
  8
2
 10
-546.498909
 20
675.063679
 11
-547.581409
 21
673.981179
  0
LINE
  8
2
 10
-547.581409
 20
673.981179
 11
-547.581409
 21
665.063679
  0
LINE
  8
2
 10
-547.581409
 20
673.981179
 11
-531.581409
 21
673.981179
  0
LINE
  8
2
 62
2
 10
-546.498909
 20
675.063679
 11
-546.498909
 21
665.063679
  0
LINE
  8
2
 10
-632.663909
 20
675.063679
 11
-631.581409
 21
673.981179
  0
LINE
  8
2
 10
-631.581409
 20
673.981179
 11
-631.581409
 21
665.063679
  0
LINE
  8
2
 62
2
 10
-632.663909
 20
675.063679
 11
-632.663909
 21
665.063679
  0
LINE
  8
2
 10
-632.663909
 20
675.063679
 11
-646.498909
 21
675.063679
  0
LINE
  8
2
 10
-646.498909
 20
675.063679
 11
-647.581409
 21
673.981179
  0
LINE
  8
2
 10
-647.581409
 20
673.981179
 11
-647.581409
 21
665.063679
  0
LINE
  8
2
 10
-647.581409
 20
673.981179
 11
-631.581409
 21
673.981179
  0
LINE
  8
2
 62
2
 10
-646.498909
 20
675.063679
 11
-646.498909
 21
665.063679
  0
LINE
  8
2
 10
-471.581409
 20
595.063679
 11
-466.581409
 21
595.063679
  0
LINE
  8
2
 10
-471.581409
 20
483.063679
 11
-466.581409
 21
483.063679
  0
LINE
  8
2
 10
-721.581409
 20
483.063679
 11
-726.581409
 21
483.063679
  0
LINE
  8
2
 10
-721.581409
 20
595.063679
 11
-726.581409
 21
595.063679
  0
LINE
  8
2
 10
-478.581409
 20
602.063679
 11
-478.581409
 21
607.063679
  0
LINE
  8
2
 10
-589.581409
 20
602.063679
 11
-589.581409
 21
607.063679
  0
LINE
  8
2
 10
-603.581409
 20
602.063679
 11
-603.581409
 21
607.063679
  0
LINE
  8
2
 10
-714.581409
 20
602.063679
 11
-714.581409
 21
607.063679
  0
LINE
  8
2
 10
-714.581409
 20
476.063679
 11
-714.581409
 21
471.063679
  0
LINE
  8
2
 10
-603.581409
 20
476.063679
 11
-603.581409
 21
471.063679
  0
LINE
  8
2
 10
-589.581409
 20
476.063679
 11
-589.581409
 21
471.063679
  0
LINE
  8
2
 10
-478.581409
 20
476.063679
 11
-478.581409
 21
471.063679
  0
ARC
  8
2
 10
-471.581409
 20
602.063679
 40
7.000000
 50
180.000000
 51
270.000000
  0
ARC
  8
2
 10
-466.581409
 20
593.063679
 40
2.000000
 50
0.000000
 51
90.000000
  0
ARC
  8
2
 10
-480.581409
 20
607.063679
 40
2.000000
 50
0.000000
 51
90.000000
  0
ARC
  8
2
 10
-596.581409
 20
602.063679
 40
7.000000
 50
180.000000
 51
360.000000
  0
ARC
  8
2
 10
-605.581409
 20
607.063679
 40
2.000000
 50
0.000000
 51
90.000000
  0
ARC
  8
2
 10
-587.581409
 20
607.063679
 40
2.000000
 50
90.000000
 51
180.000000
  0
ARC
  8
2
 10
-721.581409
 20
602.063679
 40
7.000000
 50
270.000000
 51
360.000000
  0
ARC
  8
2
 10
-712.581409
 20
607.063679
 40
2.000000
 50
90.000000
 51
180.000000
  0
ARC
  8
2
 10
-726.581409
 20
593.063679
 40
2.000000
 50
90.000000
 51
180.000000
  0
ARC
  8
2
 10
-721.581409
 20
476.063679
 40
7.000000
 50
0.000000
 51
90.000000
  0
ARC
  8
2
 10
-712.581409
 20
471.063679
 40
2.000000
 50
180.000000
 51
270.000000
  0
ARC
  8
2
 10
-726.581409
 20
485.063679
 40
2.000000
 50
180.000000
 51
270.000000
  0
ARC
  8
2
 10
-596.581409
 20
476.063679
 40
7.000000
 50
360.000000
 51
180.000000
  0
ARC
  8
2
 10
-605.581409
 20
471.063679
 40
2.000000
 50
270.000000
 51
360.000000
  0
ARC
  8
2
 10
-587.581409
 20
471.063679
 40
2.000000
 50
180.000000
 51
270.000000
  0
ARC
  8
2
 10
-471.581409
 20
476.063679
 40
7.000000
 50
90.000000
 51
180.000000
  0
ARC
  8
2
 10
-466.581409
 20
485.063679
 40
2.000000
 50
270.000000
 51
360.000000
  0
ARC
  8
2
 10
-480.581409
 20
471.063679
 40
2.000000
 50
270.000000
 51
360.000000
  0
LINE
  8
2
 10
-470.475395
 20
141.463679
 11
-719.620818
 21
141.463679
  0
LINE
  8
2
 10
-534.670398
 20
126.463679
 11
-728.081409
 21
126.463679
  0
LINE
  8
2
 10
-728.581409
 20
121.463679
 11
-728.581409
 21
126.463679
  0
LINE
  8
2
 10
-728.581409
 20
126.463679
 11
-724.319281
 21
138.173780
  0
LINE
  8
2
 10
-465.157192
 20
133.044915
 11
-465.494421
 21
136.899458
  0
LINE
  8
2
 10
-465.893739
 20
486.063679
 11
-465.893739
 21
592.063679
  0
LINE
  8
2
 10
-723.121855
 20
486.063679
 11
-723.121855
 21
592.063679
  0
ARC
  8
2
 10
-719.620818
 20
136.463679
 40
5.000000
 50
90.000000
 51
160.000000
  0
ARC
  8
2
 10
-470.475395
 20
136.463679
 40
5.000000
 50
5.000000
 51
90.000000
  0
LINE
  8
2
 10
-714.581409
 20
136.463679
 11
-714.581409
 21
126.963679
  0
LINE
  8
2
 10
-603.581409
 20
136.463679
 11
-603.581409
 21
126.963679
  0
LINE
  8
2
 10
-589.581409
 20
136.463679
 11
-589.581409
 21
126.963679
  0
LINE
  8
2
 10
-478.581409
 20
136.463679
 11
-478.581409
 21
135.679354
  0
ARC
  8
2
 10
-709.581409
 20
136.463679
 40
5.000000
 50
90.000000
 51
180.000000
  0
ARC
  8
2
 10
-608.581409
 20
136.463679
 40
5.000000
 50
360.000000
 51
90.000000
  0
ARC
  8
2
 10
-584.581409
 20
136.463679
 40
5.000000
 50
90.000000
 51
180.000000
  0
ARC
  8
2
 10
-483.581409
 20
136.463679
 40
5.000000
 50
0.000000
 51
90.000000
  0
ARC
  8
2
 10
-715.081409
 20
126.963679
 40
0.500000
 50
270.000000
 51
360.000000
  0
ARC
  8
2
 10
-603.081409
 20
126.963679
 40
0.500000
 50
180.000000
 51
270.000000
  0
ARC
  8
2
 10
-590.081409
 20
126.963679
 40
0.500000
 50
270.000000
 51
360.000000
  0
ARC
  8
2
 10
-728.081409
 20
125.963679
 40
0.500000
 50
90.000000
 51
180.000000
  0
LINE
  8
2
 10
-547.081409
 20
146.463679
 11
-632.081409
 21
146.463679
  0
LINE
  8
2
 10
-632.081409
 20
147.663679
 11
-632.081409
 21
144.463679
  0
LINE
  8
2
 10
-547.081409
 20
147.663679
 11
-547.081409
 21
144.463679
  0
ARC
  8
2
 10
-544.081409
 20
144.463679
 40
3.000000
 50
180.000000
 51
270.000000
  0
ARC
  8
2
 10
-635.081409
 20
144.463679
 40
3.000000
 50
270.000000
 51
360.000000
  0
LINE
  8
2
 10
-426.581409
 20
429.063679
 11
-810.581409
 21
429.063679
  0
LINE
  8
2
 10
-435.058291
 20
414.063679
 11
-802.101505
 21
414.063679
  0
LINE
  8
2
 10
-436.777041
 20
381.063679
 11
-779.977447
 21
381.063679
  0
ARC
  8
2
 10
-739.581409
 20
21.463679
 40
45.000000
 50
96.908613
 51
270.000000
  0
LINE
  8
2
 10
-785.773002
 20
385.510765
 11
-792.827936
 21
411.840137
  0
ARC
  8
2
 10
-785.237965
 20
63.314672
 40
21.000000
 50
94.000000
 51
170.024200
  0
ARC
  8
2
 10
-779.632421
 20
-12.536321
 40
21.000000
 50
198.428986
 51
270.000000
  0
ARC
  8
2
 10
-779.977447
 20
387.063679
 40
6.000000
 50
195.000000
 51
270.000000
  0
LINE
  8
2
 10
-428.680158
 20
427.167705
 11
-430.785163
 21
386.751602
  0
ARC
  8
2
 10
-436.777041
 20
387.063679
 40
6.000000
 50
270.000000
 51
357.018539
  0
ARC
  8
2
 10
-739.581409
 20
21.463679
 40
53.842323
 50
95.267350
 51
271.641263
  0
LINE
  8
2
 10
-808.482079
 20
427.168351
 11
-808.093282
 21
419.749664
  0
ARC
  8
2
 10
-802.101505
 20
420.063679
 40
6.000000
 50
183.000000
 51
270.000000
  0
ARC
  8
2
 10
-795.725713
 20
411.063679
 40
3.000000
 50
15.000000
 51
90.000000
  0
ARC
  8
2
 10
-810.479338
 20
427.063679
 40
2.000000
 50
3.000000
 51
90.000000
  0
ARC
  8
2
 10
-810.581409
 20
431.063679
 40
2.000000
 50
180.000000
 51
270.000000
  0
ARC
  8
2
 10
-435.058291
 20
420.063679
 40
6.000000
 50
270.000000
 51
357.018539
  0
ARC
  8
2
 10
-426.682865
 20
427.063679
 40
2.000000
 50
90.000000
 51
177.018539
  0
ARC
  8
2
 10
-426.581409
 20
431.063679
 40
2.000000
 50
270.000000
 51
0.000000
  0
LINE
  8
2
 10
-468.598708
 20
347.063679
 11
-513.564110
 21
347.063679
  0
LINE
  8
2
 10
-473.979338
 20
334.063679
 11
-508.183480
 21
334.063679
  0
LINE
  8
2
 10
-516.518533
 20
349.542735
 11
-520.619445
 21
372.800161
  0
LINE
  8
2
 10
-465.644285
 20
349.542735
 11
-461.543373
 21
372.800161
  0
LINE
  8
2
 10
-471.982079
 20
335.959008
 11
-471.499438
 21
345.168351
  0
LINE
  8
2
 10
-510.180739
 20
335.959008
 11
-510.663380
 21
345.168351
  0
ARC
  8
2
 10
-468.598708
 20
350.063679
 40
3.000000
 50
270.000000
 51
350.000000
  0
ARC
  8
2
 10
-513.564110
 20
350.063679
 40
3.000000
 50
190.000000
 51
270.000000
  0
ARC
  8
2
 10
-469.502179
 20
345.063679
 40
2.000000
 50
90.000000
 51
177.000000
  0
ARC
  8
2
 10
-512.660639
 20
345.063679
 40
2.000000
 50
3.000000
 51
90.000000
  0
ARC
  8
2
 10
-473.979338
 20
336.063679
 40
2.000000
 50
270.000000
 51
357.000000
  0
ARC
  8
2
 10
-508.183480
 20
336.063679
 40
2.000000
 50
183.000000
 51
270.000000
  0
ARC
  8
2
 10
-451.695295
 20
371.063679
 40
10.000000
 50
90.000000
 51
170.000000
  0
ARC
  8
2
 10
-530.467523
 20
371.063679
 40
10.000000
 50
10.000000
 51
90.000000
  0
ARC
  8
2
 10
-632.581409
 20
36.463679
 40
176.000000
 50
170.024200
 51
180.828003
  0
ARC
  8
2
 10
-632.581409
 20
36.463679
 40
176.000000
 50
188.476216
 51
198.428986
  0
ARC
  8
2
 10
-803.581409
 20
22.463679
 40
8.500000
 50
270.000000
 51
90.000000
  0
LINE
  8
2
 10
-803.581409
 20
30.963679
 11
-805.563344
 21
30.963679
  0
LINE
  8
2
 10
-803.581409
 20
13.963679
 11
-803.691753
 21
13.963679
  0
ARC
  8
2
 10
-805.563344
 20
33.963679
 40
3.000000
 50
180.828003
 51
270.000000
  0
ARC
  8
2
 10
-803.691753
 20
10.963679
 40
3.000000
 50
90.000000
 51
188.476216
  0
LINE
  8
2
 10
-681.081409
 20
86.463679
 11
-681.081409
 21
88.851742
  0
LINE
  8
2
 10
-698.081409
 20
86.463679
 11
-698.081409
 21
87.243426
  0
ARC
  8
2
 10
-689.581409
 20
86.463679
 40
8.500000
 50
180.000000
 51
360.000000
  0
LINE
  8
2
 10
-786.702851
 20
84.263517
 11
-701.290678
 21
90.236118
  0
ARC
  8
2
 10
-678.081409
 20
88.851742
 40
3.000000
 50
94.000000
 51
180.000000
  0
ARC
  8
2
 10
-701.081409
 20
87.243426
 40
3.000000
 50
0.000000
 51
94.000000
  0
LINE
  8
2
 10
-744.524304
 20
75.078636
 11
-694.693377
 21
79.672672
  0
LINE
  8
2
 10
-678.290678
 20
91.844434
 11
-568.705450
 21
99.507380
  0
LINE
  8
2
 10
-683.314000
 20
80.721765
 11
-575.096737
 21
90.698582
  0
LINE
  8
2
 10
-744.994282
 20
66.136947
 11
-577.717715
 21
86.405150
  0
ARC
  8
2
 10
-566.081409
 20
-30.536321
 40
3.000000
 50
270.000000
 51
323.537161
  0
LINE
  8
2
 10
-738.039283
 20
-32.356555
 11
-677.082312
 21
-30.609938
  0
LINE
  8
2
 10
-660.081409
 20
-30.122806
 11
-567.963021
 21
-27.483312
  0
LINE
  8
2
 10
-677.081409
 20
-29.536321
 11
-677.081409
 21
-30.536321
  0
LINE
  8
2
 10
-660.081409
 20
-29.536321
 11
-660.081409
 21
-30.536321
  0
ARC
  8
2
 10
-668.581409
 20
-29.536321
 40
8.500000
 50
0.000000
 51
180.000000
  0
LINE
  8
2
 10
-739.581409
 20
-23.536321
 11
-674.602206
 21
-23.536321
  0
LINE
  8
2
 10
-662.560612
 20
-23.536321
 11
-571.081409
 21
-23.536321
  0
LINE
  8
2
 10
-779.632421
 20
-33.536321
 11
-680.081409
 21
-33.536321
  0
LINE
  8
2
 10
-657.081409
 20
-33.536321
 11
-566.081409
 21
-33.536321
  0
ARC
  8
2
 10
-657.081409
 20
-30.536321
 40
3.000000
 50
180.000000
 51
270.000000
  0
ARC
  8
2
 10
-680.081409
 20
-30.536321
 40
3.000000
 50
270.000000
 51
0.000000
  0
LINE
  8
2
 10
-454.081409
 20
414.563679
 11
-454.081409
 21
428.563679
  0
LINE
  8
2
 10
-434.356139
 20
414.696666
 11
-434.356139
 21
428.563679
  0
ARC
  8
2
 10
-454.581409
 20
414.563679
 40
0.500000
 50
270.000000
 51
360.000000
  0
ARC
  8
2
 10
-453.581409
 20
428.563679
 40
0.500000
 50
90.000000
 51
180.000000
  0
ARC
  8
2
 10
-434.856139
 20
428.563679
 40
0.500000
 50
0.000000
 51
90.000000
  0
ARC
  8
2
 10
-433.856139
 20
414.696666
 40
0.500000
 50
180.000000
 51
282.625246
  0
LINE
  8
2
 10
130.918591
 20
101.463679
 11
130.918591
 21
73.463679
  0
LINE
  8
2
 10
94.918591
 20
101.463679
 11
94.918591
 21
73.463679
  0
LINE
  8
2
 10
80.918591
 20
101.463679
 11
80.918591
 21
73.463679
  0
LINE
  8
2
 10
44.918591
 20
101.463679
 11
44.918591
 21
73.463679
  0
ARC
  8
2
 10
112.918591
 20
101.463679
 40
18.000000
 50
0.000000
 51
180.000000
  0
ARC
  8
2
 10
62.918591
 20
101.463679
 40
18.000000
 50
0.000000
 51
180.000000
  0
ARC
  8
2
 10
132.918591
 20
73.463679
 40
2.000000
 50
180.000000
 51
270.000000
  0
ARC
  8
2
 10
92.918591
 20
73.463679
 40
2.000000
 50
270.000000
 51
0.000000
  0
ARC
  8
2
 10
82.918591
 20
73.463679
 40
2.000000
 50
180.000000
 51
270.000000
  0
ARC
  8
2
 10
42.918591
 20
73.463679
 40
2.000000
 50
270.000000
 51
360.000000
  0
LINE
  8
2
 10
187.918591
 20
76.463679
 11
187.918591
 21
36.463679
  0
ARC
  8
2
 10
177.918591
 20
76.463679
 40
10.000000
 50
0.000000
 51
90.000000
  0
ARC
  8
2
 10
177.918591
 20
61.463679
 40
10.000000
 50
0.000000
 51
90.000000
  0
LINE
  8
2
 10
82.418591
 20
64.463679
 11
93.418591
 21
64.463679
  0
LINE
  8
2
 10
168.418591
 20
64.463679
 11
185.855845
 21
64.463679
  0
LINE
  8
2
 10
167.918591
 20
70.963679
 11
167.918591
 21
64.963679
  0
LINE
  8
2
 10
93.918591
 20
69.463679
 11
93.918591
 21
64.963679
  0
LINE
  8
2
 10
81.918591
 20
69.463679
 11
81.918591
 21
64.963679
  0
ARC
  8
2
 10
93.418591
 20
64.963679
 40
0.500000
 50
270.000000
 51
360.000000
  0
ARC
  8
2
 10
82.418591
 20
64.963679
 40
0.500000
 50
180.000000
 51
270.000000
  0
ARC
  8
2
 10
95.918591
 20
69.463679
 40
2.000000
 50
90.000000
 51
180.000000
  0
ARC
  8
2
 10
79.918591
 20
69.463679
 40
2.000000
 50
0.000000
 51
90.000000
  0
ARC
  8
2
 10
168.418591
 20
64.963679
 40
0.500000
 50
180.000000
 51
270.000000
  0
ARC
  8
2
 10
167.418591
 20
70.963679
 40
0.500000
 50
0.000000
 51
90.000000
  0
ARC
  8
2
 10
185.855845
 20
62.463679
 40
2.000000
 50
7.180756
 51
90.000000
  0
LINE
  8
2
 10
-0.081409
 20
-35.536321
 11
-0.081409
 21
107.479970
  0
LINE
  8
2
 10
-20.081409
 20
110.479970
 11
-3.081409
 21
110.479970
  0
LINE
  8
2
 10
-20.081409
 20
-37.536321
 11
-2.081409
 21
-37.536321
  0
ARC
  8
2
 10
-3.081409
 20
107.479970
 40
3.000000
 50
0.000000
 51
90.000000
  0
ARC
  8
2
 10
4.918591
 20
76.463679
 40
5.000000
 50
180.000000
 51
270.000000
  0
ARC
  8
2
 10
-2.081409
 20
-35.536321
 40
2.000000
 50
270.000000
 51
360.000000
  0
LINE
  8
2
 10
157.918591
 20
126.463679
 11
157.918591
 21
76.463679
  0
LINE
  8
2
 10
17.918591
 20
126.463679
 11
17.918591
 21
89.463679
  0
ARC
  8
2
 10
162.918591
 20
76.463679
 40
5.000000
 50
180.000000
 51
270.000000
  0
LINE
  8
2
 10
2.918591
 20
84.463679
 11
12.918591
 21
84.463679
  0
ARC
  8
2
 10
12.918591
 20
89.463679
 40
5.000000
 50
270.000000
 51
360.000000
  0
ARC
  8
2
 10
2.918591
 20
87.463679
 40
3.000000
 50
180.000000
 51
270.000000
  0
LINE
  8
2
 10
-0.081409
 20
95.624092
 11
14.918591
 21
95.624092
  0
ARC
  8
2
 10
14.918591
 20
98.624092
 40
3.000000
 50
270.000000
 51
360.000000
  0
ARC
  8
2
 10
-11.081409
 20
-38.536321
 40
1.000000
 50
0.000000
 51
90.000000
  0
LINE
  8
2
 10
200.918591
 20
36.463679
 11
200.918591
 21
2.463679
  0
LINE
  8
2
 10
189.919630
 20
1.463679
 11
199.918591
 21
1.463679
  0
ARC
  8
2
 10
199.918591
 20
2.463679
 40
1.000000
 50
270.000000
 51
360.000000
  0
LINE
  8
2
 10
187.918591
 20
36.463679
 11
185.918591
 21
-39.536321
  0
ARC
  8
2
 10
189.919630
 20
-1.536321
 40
3.000000
 50
90.000000
 51
178.492564
  0
LINE
  8
2
 10
195.918591
 20
36.463679
 11
195.918591
 21
4.463679
  0
ARC
  8
2
 10
192.918591
 20
4.463679
 40
3.000000
 50
270.000000
 51
360.000000
  0
LINE
  8
2
 10
200.918591
 20
28.463679
 11
213.918591
 21
28.463679
  0
LINE
  8
2
 10
200.918591
 20
16.463679
 11
212.561818
 21
16.463679
  0
ARC
  8
2
 10
199.973432
 20
22.463679
 40
13.945159
 50
334.516139
 51
25.483861
  0
LINE
  8
2
 10
200.918591
 20
4.463679
 11
213.918591
 21
4.463679
  0
LINE
  8
2
 10
213.918591
 20
4.463679
 11
213.918591
 21
28.463679
  0
ARC
  8
2
 10
199.973432
 20
10.463679
 40
13.945159
 50
334.516139
 51
25.483861
  0
LINE
  8
2
 10
223.918591
 20
9.546179
 11
222.836091
 21
8.463679
  0
LINE
  8
2
 10
222.836091
 20
8.463679
 11
213.918591
 21
8.463679
  0
LINE
  8
2
 62
2
 10
223.918591
 20
9.546179
 11
213.918591
 21
9.546179
  0
LINE
  8
2
 10
223.918591
 20
9.546179
 11
223.918591
 21
23.381179
  0
LINE
  8
2
 10
223.918591
 20
23.381179
 11
222.836091
 21
24.463679
  0
LINE
  8
2
 10
222.836091
 20
24.463679
 11
213.918591
 21
24.463679
  0
LINE
  8
2
 10
222.836091
 20
24.463679
 11
222.836091
 21
8.463679
  0
LINE
  8
2
 62
2
 10
223.918591
 20
23.381179
 11
213.918591
 21
23.381179
  0
LINE
  8
2
 10
18.418591
 20
126.463679
 11
157.418591
 21
126.463679
  0
LINE
  8
2
 10
23.812577
 20
141.463679
 11
152.024605
 21
141.463679
  0
LINE
  8
2
 10
45.418591
 20
146.463679
 11
130.418591
 21
146.463679
  0
LINE
  8
2
 10
157.918591
 20
126.463679
 11
157.005579
 21
136.899458
  0
LINE
  8
2
 10
17.918591
 20
126.463679
 11
18.831603
 21
136.899458
  0
ARC
  8
2
 10
152.024605
 20
136.463679
 40
5.000000
 50
5.000000
 51
90.000000
  0
ARC
  8
2
 10
23.812577
 20
136.463679
 40
5.000000
 50
90.000000
 51
175.000000
  0
LINE
  8
2
 10
130.418591
 20
147.663679
 11
130.418591
 21
144.463679
  0
LINE
  8
2
 10
45.418591
 20
147.663679
 11
45.418591
 21
144.463679
  0
ARC
  8
2
 10
133.418591
 20
144.463679
 40
3.000000
 50
180.000000
 51
270.000000
  0
ARC
  8
2
 10
42.418591
 20
144.463679
 40
3.000000
 50
270.000000
 51
360.000000
  0
LINE
  8
2
 10
143.918591
 20
136.463679
 11
143.918591
 21
126.963679
  0
LINE
  8
2
 10
31.918591
 20
136.463679
 11
31.918591
 21
126.963679
  0
ARC
  8
2
 10
138.918591
 20
136.463679
 40
5.000000
 50
360.000000
 51
90.000000
  0
ARC
  8
2
 10
36.918591
 20
136.463679
 40
5.000000
 50
90.000000
 51
180.000000
  0
ARC
  8
2
 10
144.418591
 20
126.963679
 40
0.500000
 50
180.000000
 51
270.000000
  0
ARC
  8
2
 10
31.418591
 20
126.963679
 40
0.500000
 50
270.000000
 51
360.000000
  0
ARC
  8
2
 10
157.418591
 20
125.963679
 40
0.500000
 50
0.000000
 51
90.000000
  0
ARC
  8
2
 10
18.418591
 20
125.963679
 40
0.500000
 50
90.000000
 51
180.000000
  0
LINE
  8
2
 10
-711.581409
 20
607.751679
 11
-603.703470
 21
607.751679
  0
LINE
  8
2
 10
-589.459348
 20
607.751679
 11
-481.581409
 21
607.751679
  0
LINE
  8
2
 10
-711.581409
 20
470.375679
 11
-603.703470
 21
470.375679
  0
LINE
  8
2
 10
-589.459348
 20
470.375679
 11
-481.581409
 21
470.375679
  0
LINE
  8
2
 10
-22.081409
 20
-35.536321
 11
-22.081409
 21
108.479970
  0
LINE
  8
2
 10
-37.081409
 20
-27.056416
 11
-37.081409
 21
100.000066
  0
LINE
  8
2
 10
-70.081409
 20
-18.932359
 11
-70.081409
 21
90.768047
  0
ARC
  8
2
 10
-20.081409
 20
108.479970
 40
2.000000
 50
90.000000
 51
180.000000
  0
ARC
  8
2
 10
-20.081409
 20
-35.536321
 40
2.000000
 50
180.000000
 51
270.000000
  0
LINE
  8
2
 10
-64.393486
 20
96.759925
 11
-39.865859
 21
98.037406
  0
LINE
  8
2
 10
-23.976737
 20
106.380640
 11
-31.395425
 21
105.991843
  0
ARC
  8
2
 10
-64.081409
 20
90.768047
 40
6.000000
 50
92.981461
 51
180.000000
  0
ARC
  8
2
 10
-31.081409
 20
100.000066
 40
6.000000
 50
93.000000
 51
180.000000
  0
ARC
  8
2
 10
-40.021897
 20
101.033345
 40
3.000000
 50
272.981461
 51
353.407404
  0
ARC
  8
2
 10
-24.081409
 20
108.377899
 40
2.000000
 50
273.000000
 51
360.000000
  0
LINE
  8
2
 10
-65.634323
 20
-24.727914
 11
-39.189949
 21
-31.813662
  0
LINE
  8
2
 10
-23.976737
 20
-33.436991
 11
-31.395425
 21
-33.048194
  0
ARC
  8
2
 10
-64.081409
 20
-18.932359
 40
6.000000
 50
180.000000
 51
255.000000
  0
ARC
  8
2
 10
-31.081409
 20
-27.056416
 40
6.000000
 50
180.000000
 51
267.000000
  0
ARC
  8
2
 10
-24.081409
 20
-35.434250
 40
2.000000
 50
0.000000
 51
87.000000
  0
ARC
  8
2
 10
-29.419796
 20
4.649044
 40
37.748972
 50
255.000000
 51
267.000000
  0
LINE
  8
2
 10
-38.974937
 20
-25.180327
 11
-64.398073
 21
-23.836690
  0
ARC
  8
2
 10
-64.081409
 20
-17.845052
 40
6.000000
 50
180.000000
 51
266.974679
  0
LINE
  8
2
 10
-37.081409
 20
83.963679
 11
-22.081409
 21
83.963679
  0
LINE
  8
2
 10
-37.081409
 20
-13.036321
 11
-22.081409
 21
-13.036321
  0
LINE
  8
2
 10
-33.109613
 20
-32.703220
 11
-22.081409
 21
-32.703220
  0
ARC
  8
2
 10
-39.080492
 20
-27.177539
 40
2.000000
 50
0.867510
 51
86.974679
  0
LINE
  8
2
 10
-35.732848
 20
103.790068
 11
-22.081409
 21
103.790068
  0
LINE
  8
2
 10
-117.081409
 20
19.361609
 11
-117.081409
 21
53.565750
  0
LINE
  8
2
 10
-104.081409
 20
13.980978
 11
-104.081409
 21
58.946381
  0
LINE
  8
2
 10
-101.602354
 20
61.900804
 11
-78.344927
 21
66.001716
  0
LINE
  8
2
 10
-101.602354
 20
11.026555
 11
-78.344927
 21
6.925643
  0
LINE
  8
2
 10
-115.186081
 20
55.563009
 11
-105.976737
 21
56.045651
  0
LINE
  8
2
 10
-115.186081
 20
17.364349
 11
-105.976737
 21
16.881708
  0
ARC
  8
2
 10
-101.081409
 20
58.946381
 40
3.000000
 50
100.000000
 51
180.000000
  0
ARC
  8
2
 10
-101.081409
 20
13.980978
 40
3.000000
 50
180.000000
 51
260.000000
  0
ARC
  8
2
 10
-115.081409
 20
53.565750
 40
2.000000
 50
93.000000
 51
180.000000
  0
ARC
  8
2
 10
-115.081409
 20
19.361609
 40
2.000000
 50
180.000000
 51
267.000000
  0
ARC
  8
2
 10
-106.081409
 20
14.884449
 40
2.000000
 50
0.000000
 51
87.000000
  0
ARC
  8
2
 10
-106.081409
 20
58.042910
 40
2.000000
 50
273.000000
 51
360.000000
  0
LINE
  8
2
 10
-546.081409
 20
414.063679
 11
-546.081409
 21
429.063679
  0
LINE
  8
2
 10
-563.081409
 20
414.063679
 11
-563.081409
 21
429.063679
  0
LINE
  8
2
 10
-681.081409
 20
414.063679
 11
-681.081409
 21
429.063679
  0
LINE
  8
2
 10
-698.081409
 20
414.063679
 11
-698.081409
 21
429.063679
  0
LINE
  8
2
 10
-561.769643
 20
414.063679
 11
-558.195994
 21
381.063679
  0
LINE
  8
2
 10
-549.234098
 20
381.063679
 11
-546.684935
 21
414.063679
  0
LINE
  8
2
 10
-694.693377
 20
409.887368
 11
-694.693377
 21
414.063679
  0
LINE
  8
2
 10
-683.314000
 20
409.887368
 11
-683.314000
 21
414.063679
  0
ARC
  8
2
 10
-689.003688
 20
409.887368
 40
5.689689
 50
180.000000
 51
360.000000
  0
ARC
  8
2
 10
-662.581409
 20
-58.536321
 40
3.000000
 50
0.000000
 51
90.000000
  0
ARC
  8
2
 10
-450.581409
 20
-52.536321
 40
3.000000
 50
270.000000
 51
337.371859
  0
LINE
  8
2
 10
-7.081409
 20
-55.536321
 11
182.918591
 21
-55.536321
  0
LINE
  8
2
 10
-10.081409
 20
-39.536321
 11
-10.081409
 21
-52.536321
  0
LINE
  8
2
 10
185.918591
 20
-39.536321
 11
185.918591
 21
-52.536321
  0
LINE
  8
2
 10
17.918591
 20
-61.536321
 11
157.918591
 21
-61.536321
  0
LINE
  8
2
 10
17.918591
 20
-58.536321
 11
17.918591
 21
-61.536321
  0
LINE
  8
2
 10
157.918591
 20
-58.536321
 11
157.918591
 21
-61.536321
  0
ARC
  8
2
 10
160.918591
 20
-58.536321
 40
3.000000
 50
90.000000
 51
180.000000
  0
ARC
  8
2
 10
14.918591
 20
-58.536321
 40
3.000000
 50
0.000000
 51
90.000000
  0
ARC
  8
2
 10
182.918591
 20
-52.536321
 40
3.000000
 50
270.000000
 51
360.000000
  0
ARC
  8
2
 10
-7.081409
 20
-52.536321
 40
3.000000
 50
180.000000
 51
270.000000
  0
LINE
  8
2
 10
166.918591
 20
-46.536321
 11
185.418591
 21
-46.536321
  0
LINE
  8
2
 10
-9.581409
 20
-46.536321
 11
4.918591
 21
-46.536321
  0
LINE
  8
2
 10
80.918591
 20
-46.536321
 11
94.918591
 21
-46.536321
  0
LINE
  8
2
 10
166.418591
 20
-47.036321
 11
166.418591
 21
-54.536321
  0
LINE
  8
2
 10
5.418591
 20
-47.036321
 11
5.418591
 21
-54.536321
  0
LINE
  8
2
 10
80.418591
 20
-47.036321
 11
80.418591
 21
-54.536321
  0
LINE
  8
2
 10
95.418591
 20
-47.036321
 11
95.418591
 21
-54.536321
  0
ARC
  8
2
 10
80.918591
 20
-47.036321
 40
0.500000
 50
90.000000
 51
180.000000
  0
ARC
  8
2
 10
94.918591
 20
-47.036321
 40
0.500000
 50
360.000000
 51
90.000000
  0
ARC
  8
2
 10
166.918591
 20
-47.036321
 40
0.500000
 50
90.000000
 51
180.000000
  0
ARC
  8
2
 10
4.918591
 20
-47.036321
 40
0.500000
 50
0.000000
 51
90.000000
  0
ARC
  8
2
 10
185.418591
 20
-46.036321
 40
0.500000
 50
270.000000
 51
0.000000
  0
ARC
  8
2
 10
-9.581409
 20
-46.036321
 40
0.500000
 50
180.000000
 51
270.000000
  0
ARC
  8
2
 10
165.418591
 20
-54.536321
 40
1.000000
 50
270.000000
 51
360.000000
  0
ARC
  8
2
 10
6.418591
 20
-54.536321
 40
1.000000
 50
180.000000
 51
270.000000
  0
ARC
  8
2
 10
79.418591
 20
-54.536321
 40
1.000000
 50
270.000000
 51
360.000000
  0
ARC
  8
2
 10
96.418591
 20
-54.536321
 40
1.000000
 50
180.000000
 51
270.000000
  0
LINE
  8
2
 10
-671.581409
 20
-46.536321
 11
-686.081409
 21
-46.536321
  0
LINE
  8
2
 10
-671.081409
 20
-47.036321
 11
-671.081409
 21
-54.536321
  0
LINE
  8
2
 10
-547.081409
 20
-47.036321
 11
-547.081409
 21
-54.536321
  0
ARC
  8
2
 10
-546.581409
 20
-47.036321
 40
0.500000
 50
114.645458
 51
180.000000
  0
ARC
  8
2
 10
-548.081409
 20
-54.536321
 40
1.000000
 50
270.000000
 51
0.000000
  0
ARC
  8
2
 10
-670.081409
 20
-54.536321
 40
1.000000
 50
180.000000
 51
270.000000
  0
ARC
  8
2
 10
-686.081409
 20
-46.036321
 40
0.500000
 50
180.000000
 51
270.000000
  0
ARC
  8
2
 10
-671.581409
 20
-47.036321
 40
0.500000
 50
0.000000
 51
90.000000
  0
CIRCLE
  8
2
 10
-491.081409
 20
36.463679
 40
32.500000
  0
LINE
  8
2
  6
CENTER
 62
2
 10
-589.581409
 20
676.312207
 11
-589.581409
 21
430.066300
  0
LINE
  8
2
  6
CENTER
 62
2
 10
-455.581409
 20
530.520455
 11
-455.581409
 21
547.606903
  0
LINE
  8
2
  6
CENTER
 62
2
 10
-459.581409
 20
616.520455
 11
-459.581409
 21
633.606903
  0
LINE
  8
2
  6
CENTER
 62
2
 10
-451.764140
 20
625.063679
 11
-468.124633
 21
625.063679
  0
LINE
  8
2
  6
CENTER
 62
2
 10
-455.581409
 20
445.520455
 11
-455.581409
 21
462.606903
  0
LINE
  8
2
  6
CENTER
 62
2
 10
-447.038185
 20
454.063679
 11
-464.124633
 21
454.063679
  0
LINE
  8
2
  6
CENTER
 62
2
 10
-526.581409
 20
620.520455
 11
-526.581409
 21
637.606903
  0
LINE
  8
2
  6
CENTER
 62
2
 10
-518.038185
 20
629.063679
 11
-535.124633
 21
629.063679
  0
LINE
  8
2
  6
CENTER
 62
2
 10
-673.581409
 20
620.520455
 11
-673.581409
 21
636.411112
  0
LINE
  8
2
  6
CENTER
 62
2
 10
-665.038185
 20
629.063679
 11
-682.124633
 21
629.063679
  0
LINE
  8
2
  6
CENTER
 62
2
 10
-798.581409
 20
616.520455
 11
-798.581409
 21
633.606903
  0
LINE
  8
2
  6
CENTER
 62
2
 10
-790.038185
 20
625.063679
 11
-807.124633
 21
625.063679
  0
LINE
  8
2
  6
CENTER
 62
2
 10
-803.581409
 20
530.520455
 11
-803.581409
 21
547.606903
  0
LINE
  8
2
  6
CENTER
 62
2
 10
-803.581409
 20
451.520455
 11
-803.581409
 21
468.606903
  0
LINE
  8
2
  6
CENTER
 62
2
 10
-795.038185
 20
460.063679
 11
-812.124633
 21
460.063679
  0
LINE
  8
2
  6
CENTER
 62
2
 10
-673.581409
 20
445.520455
 11
-673.581409
 21
462.606903
  0
LINE
  8
2
  6
CENTER
 62
2
 10
-665.038185
 20
454.063679
 11
-682.124633
 21
454.063679
  0
LINE
  8
2
  6
CENTER
 62
2
 10
-526.581409
 20
445.520455
 11
-526.581409
 21
462.606903
  0
LINE
  8
2
  6
CENTER
 62
2
 10
-518.038185
 20
454.063679
 11
-535.124633
 21
454.063679
  0
LINE
  8
2
  6
CENTER
 62
2
 10
-476.645804
 20
564.063679
 11
-442.445992
 21
564.063679
  0
LINE
  8
2
  6
CENTER
 62
2
 10
-476.645804
 20
514.063679
 11
-442.445992
 21
514.063679
  0
LINE
  8
2
  6
CENTER
 62
2
 10
-491.081409
 20
650.905039
 11
-491.081409
 21
276.323271
  0
LINE
  8
2
  6
CENTER
 62
2
 10
-639.581409
 20
684.636914
 11
-639.581409
 21
630.189655
  0
LINE
  8
2
  6
CENTER
 62
2
 10
-539.581409
 20
684.636914
 11
-539.581409
 21
630.189655
  0
LINE
  8
2
  6
CENTER
 62
2
 10
-471.581409
 20
593.452273
 11
-471.581409
 21
610.675086
  0
LINE
  8
2
  6
CENTER
 62
2
 10
-462.970003
 20
602.063679
 11
-480.192815
 21
602.063679
  0
LINE
  8
2
  6
CENTER
 62
2
 10
-471.581409
 20
484.675086
 11
-471.581409
 21
467.452273
  0
LINE
  8
2
  6
CENTER
 62
2
 10
-462.970003
 20
476.063679
 11
-480.192815
 21
476.063679
  0
LINE
  8
2
  6
CENTER
 62
2
 10
-721.581409
 20
593.452273
 11
-721.581409
 21
610.675086
  0
LINE
  8
2
  6
CENTER
 62
2
 10
-730.192815
 20
602.063679
 11
-712.970003
 21
602.063679
  0
LINE
  8
2
  6
CENTER
 62
2
 10
-721.581409
 20
484.675086
 11
-721.581409
 21
467.452273
  0
LINE
  8
2
  6
CENTER
 62
2
 10
-730.192815
 20
476.063679
 11
-712.970003
 21
476.063679
  0
LINE
  8
2
  6
CENTER
 62
2
 10
-596.581409
 20
593.452273
 11
-596.581409
 21
610.675086
  0
LINE
  8
2
  6
CENTER
 62
2
 10
-587.970003
 20
602.063679
 11
-605.192815
 21
602.063679
  0
LINE
  8
2
  6
CENTER
 62
2
 10
-596.581409
 20
484.675086
 11
-596.581409
 21
467.452273
  0
LINE
  8
2
  6
CENTER
 62
2
 10
-587.970003
 20
476.063679
 11
-605.192815
 21
476.063679
  0
LINE
  8
2
  6
CENTER
 62
2
 10
-829.813962
 20
36.463679
 11
-372.844848
 21
36.463679
  0
LINE
  8
2
  6
CENTER
 62
2
 10
-491.081409
 20
156.324869
 11
-491.081409
 21
-76.876264
  0
LINE
  8
2
  6
CENTER
 62
2
 10
37.320779
 20
101.463679
 11
140.191516
 21
101.463679
  0
LINE
  8
2
  6
CENTER
 62
2
 10
112.918591
 20
124.599927
 11
112.918591
 21
62.730513
  0
LINE
  8
2
  6
CENTER
 62
2
 10
62.918591
 20
124.599927
 11
62.918591
 21
62.730513
  0
LINE
  8
2
  6
CENTER
 62
2
 10
-179.780881
 20
36.463679
 11
-12.081409
 21
36.463679
  0
LINE
  8
2
  6
CENTER
 62
2
 10
-699.397520
 20
86.463679
 11
-679.125547
 21
86.463679
  0
LINE
  8
2
  6
CENTER
 62
2
 10
-689.581409
 20
98.396588
 11
-689.581409
 21
74.670346
  0
LINE
  8
2
  6
CENTER
 62
2
 10
-816.121091
 20
22.463679
 11
-791.494443
 21
22.463679
  0
LINE
  8
2
  6
CENTER
 62
2
 10
-803.581409
 20
34.233441
 11
-803.581409
 21
9.133282
  0
LINE
  8
2
  6
CENTER
 62
2
 10
-668.581409
 20
-15.966816
 11
-668.581409
 21
-43.908436
  0
LINE
  8
2
  6
CENTER
 62
2
 10
-680.200834
 20
-29.536321
 11
-655.574155
 21
-29.536321
  0
LINE
  8
2
  6
CENTER
 62
2
 10
-721.581409
 20
144.123501
 11
-721.581409
 21
114.990139
  0
LINE
  8
2
  6
CENTER
 62
2
 10
-596.581409
 20
144.123501
 11
-596.581409
 21
114.990139
  0
LINE
  8
2
  6
CENTER
 62
2
 10
-689.581409
 20
405.912213
 11
-689.581409
 21
442.909458
  0
LINE
  8
2
  6
CENTER
 62
2
 10
-554.581409
 20
405.912213
 11
-554.581409
 21
442.909458
  0
LINE
  8
2
  6
CENTER
 62
2
 10
-445.581409
 20
405.912213
 11
-445.581409
 21
442.909458
  0
LINE
  8
2
  6
CENTER
 62
2
 10
173.918591
 20
77.505444
 11
173.918591
 21
57.151867
  0
LINE
  8
2
  6
CENTER
 62
2
 10
163.424960
 20
16.463679
 11
200.918591
 21
16.463679
  0
LINE
  8
2
  6
CENTER
 62
2
 10
212.561818
 20
16.463679
 11
235.815493
 21
16.463679
  0
LINE
  8
2
  6
CENTER
 62
2
 10
150.918591
 20
146.151867
 11
150.918591
 21
117.405834
  0
LINE
  8
2
  6
CENTER
 62
2
 10
24.918591
 20
146.151867
 11
24.918591
 21
117.405834
  0
LINE
  8
2
  6
CENTER
 62
2
 10
-46.942899
 20
92.463679
 11
-6.380109
 21
92.463679
  0
LINE
  8
2
  6
CENTER
 62
2
 10
-46.942899
 20
-21.536321
 11
-6.380109
 21
-21.536321
  0
LINE
  8
2
  6
CENTER
 62
2
 10
-2.081409
 20
-35.610462
 11
-2.081409
 21
-60.513172
  0
LINE
  8
2
  6
CENTER
 62
2
 10
173.918591
 20
-35.610462
 11
173.918591
 21
-60.513172
  0
LINE
  8
2
  6
CENTER
 62
2
 10
-678.581409
 20
-35.852375
 11
-678.581409
 21
-60.071491
  0
LINE
  8
2
  6
CENTER
 62
2
 10
-539.581409
 20
-37.536321
 11
-539.581409
 21
-60.071491
  0
ARC
  8
2
 10
-491.081409
 20
36.463679
 40
22.200000
 50
20.571635
 51
163.000000
  0
ARC
  8
2
 10
-487.181409
 20
36.463679
 40
18.200000
 50
25.014065
 51
166.591995
  0
LINE
  8
2
 10
-472.971363
 20
43.547688
 11
-470.688496
 21
44.159381
  0
LINE
  8
2
 10
-470.297023
 20
44.264275
 11
-467.686812
 21
44.963679
  0
LINE
  8
2
 10
-468.881409
 20
36.463679
 11
-472.971363
 21
43.547688
  0
LINE
  8
2
 10
-468.881409
 20
36.463679
 11
-467.686812
 21
44.963679
  0
LINE
  8
2
 10
-504.885340
 20
40.683965
 11
-512.311375
 21
42.954331
  0
CIRCLE
  8
2
 10
-526.581409
 20
454.063679
 40
5.000000
  0
CIRCLE
  8
2
 10
-526.581409
 20
454.063679
 40
4.307180
  0
CIRCLE
  8
2
 10
-673.581409
 20
454.063679
 40
5.000000
  0
CIRCLE
  8
2
 10
-673.581409
 20
454.063679
 40
4.307180
  0
CIRCLE
  8
2
 10
-455.581409
 20
454.063679
 40
5.000000
  0
CIRCLE
  8
2
 10
-455.581409
 20
454.063679
 40
4.307180
  0
CIRCLE
  8
2
 10
-455.581409
 20
539.063679
 40
5.000000
  0
CIRCLE
  8
2
 10
-455.581409
 20
539.063679
 40
4.307180
  0
CIRCLE
  8
2
 10
-459.581409
 20
625.063679
 40
5.000000
  0
CIRCLE
  8
2
 10
-459.581409
 20
625.063679
 40
4.307180
  0
CIRCLE
  8
2
 10
-526.581409
 20
629.063679
 40
5.000000
  0
CIRCLE
  8
2
 10
-526.581409
 20
629.063679
 40
4.307180
  0
CIRCLE
  8
2
 10
-673.581409
 20
629.063679
 40
5.000000
  0
CIRCLE
  8
2
 10
-673.581409
 20
629.063679
 40
4.307180
  0
CIRCLE
  8
2
 10
-798.581409
 20
625.063679
 40
5.000000
  0
CIRCLE
  8
2
 10
-798.581409
 20
625.063679
 40
4.307180
  0
CIRCLE
  8
2
 10
-803.581409
 20
539.063679
 40
5.000000
  0
CIRCLE
  8
2
 10
-803.581409
 20
539.063679
 40
4.307180
  0
CIRCLE
  8
2
 10
-803.581409
 20
460.063679
 40
5.000000
  0
CIRCLE
  8
2
 10
-803.581409
 20
460.063679
 40
4.307180
  0
CIRCLE
  8
2
 10
-471.581409
 20
476.063679
 40
5.750000
  0
CIRCLE
  8
2
 10
-471.581409
 20
476.063679
 40
5.250000
  0
CIRCLE
  8
2
 10
-471.581409
 20
602.063679
 40
5.750000
  0
CIRCLE
  8
2
 10
-471.581409
 20
602.063679
 40
5.250000
  0
CIRCLE
  8
2
 10
-596.581409
 20
476.063679
 40
5.750000
  0
CIRCLE
  8
2
 10
-596.581409
 20
476.063679
 40
5.250000
  0
CIRCLE
  8
2
 10
-596.581409
 20
602.063679
 40
5.750000
  0
CIRCLE
  8
2
 10
-596.581409
 20
602.063679
 40
5.250000
  0
CIRCLE
  8
2
 10
-721.581409
 20
476.063679
 40
5.750000
  0
CIRCLE
  8
2
 10
-721.581409
 20
476.063679
 40
5.250000
  0
CIRCLE
  8
2
 10
-721.581409
 20
602.063679
 40
5.750000
  0
CIRCLE
  8
2
 10
-721.581409
 20
602.063679
 40
5.250000
  0
LINE
  8
2
 10
-602.331409
 20
127.963679
 11
-602.331409
 21
126.463679
  0
LINE
  8
2
 10
-590.831409
 20
127.963679
 11
-590.831409
 21
126.463679
  0
LINE
  8
2
 10
-590.831409
 20
127.963679
 11
-602.331409
 21
127.963679
  0
LINE
  8
2
 10
-601.831409
 20
129.490695
 11
-601.831409
 21
127.963679
  0
LINE
  8
2
 10
-591.331409
 20
129.490695
 11
-591.331409
 21
127.963679
  0
ARC
  8
2
 10
-596.581409
 20
117.863679
 40
14.000000
 50
73.927141
 51
106.072859
  0
ARC
  8
2
 10
-593.231409
 20
129.490695
 40
1.900000
 50
0.000000
 51
73.927141
  0
ARC
  8
2
 10
-599.931409
 20
129.490695
 40
1.900000
 50
106.072859
 51
180.000000
  0
LINE
  8
2
 10
-727.331409
 20
127.963679
 11
-727.331409
 21
126.463679
  0
LINE
  8
2
 10
-715.831409
 20
127.963679
 11
-715.831409
 21
126.463679
  0
LINE
  8
2
 10
-715.831409
 20
127.963679
 11
-727.331409
 21
127.963679
  0
LINE
  8
2
 10
-726.831409
 20
129.490695
 11
-726.831409
 21
127.963679
  0
LINE
  8
2
 10
-716.331409
 20
129.490695
 11
-716.331409
 21
127.963679
  0
ARC
  8
2
 10
-721.581409
 20
117.863679
 40
14.000000
 50
73.927141
 51
106.072859
  0
ARC
  8
2
 10
-718.231409
 20
129.490695
 40
1.900000
 50
0.000000
 51
73.927141
  0
ARC
  8
2
 10
-724.931409
 20
129.490695
 40
1.900000
 50
106.072859
 51
180.000000
  0
LINE
  8
2
 10
168.918591
 20
64.463679
 11
168.918591
 21
70.063679
  0
LINE
  8
2
 10
168.918591
 20
70.063679
 11
169.611411
 21
70.463679
  0
LINE
  8
2
 10
169.611411
 20
70.463679
 11
178.225771
 21
70.463679
  0
LINE
  8
2
 10
178.918591
 20
70.063679
 11
168.918591
 21
70.063679
  0
LINE
  8
2
 10
178.918591
 20
64.463679
 11
178.918591
 21
70.063679
  0
LINE
  8
2
 10
178.918591
 20
70.063679
 11
178.225771
 21
70.463679
  0
LINE
  8
2
 10
82.918591
 20
64.463679
 11
82.918591
 21
70.063679
  0
LINE
  8
2
 10
82.918591
 20
70.063679
 11
83.611411
 21
70.463679
  0
LINE
  8
2
 10
83.611411
 20
70.463679
 11
92.225771
 21
70.463679
  0
LINE
  8
2
 10
92.918591
 20
70.063679
 11
82.918591
 21
70.063679
  0
LINE
  8
2
 10
92.918591
 20
64.463679
 11
92.918591
 21
70.063679
  0
LINE
  8
2
 10
92.918591
 20
70.063679
 11
92.225771
 21
70.463679
  0
LINE
  8
2
 10
19.168591
 20
127.963679
 11
19.168591
 21
126.463679
  0
LINE
  8
2
 10
30.668591
 20
127.963679
 11
30.668591
 21
126.463679
  0
LINE
  8
2
 10
30.668591
 20
127.963679
 11
19.168591
 21
127.963679
  0
LINE
  8
2
 10
19.668591
 20
129.490695
 11
19.668591
 21
127.963679
  0
LINE
  8
2
 10
30.168591
 20
129.490695
 11
30.168591
 21
127.963679
  0
ARC
  8
2
 10
24.918591
 20
117.863679
 40
14.000000
 50
73.927141
 51
106.072859
  0
ARC
  8
2
 10
28.268591
 20
129.490695
 40
1.900000
 50
0.000000
 51
73.927141
  0
ARC
  8
2
 10
21.568591
 20
129.490695
 40
1.900000
 50
106.072859
 51
180.000000
  0
LINE
  8
2
 10
156.668591
 20
127.963679
 11
156.668591
 21
126.463679
  0
LINE
  8
2
 10
145.168591
 20
127.963679
 11
145.168591
 21
126.463679
  0
LINE
  8
2
 10
145.168591
 20
127.963679
 11
156.668591
 21
127.963679
  0
LINE
  8
2
 10
156.168591
 20
129.490695
 11
156.168591
 21
127.963679
  0
LINE
  8
2
 10
145.668591
 20
129.490695
 11
145.668591
 21
127.963679
  0
ARC
  8
2
 10
150.918591
 20
117.863679
 40
14.000000
 50
73.927141
 51
106.072859
  0
ARC
  8
2
 10
147.568591
 20
129.490695
 40
1.900000
 50
106.072859
 51
180.000000
  0
ARC
  8
2
 10
154.268591
 20
129.490695
 40
1.900000
 50
0.000000
 51
73.927141
  0
LINE
  8
2
 10
-24.081409
 20
85.213679
 11
-24.081409
 21
99.713679
  0
LINE
  8
2
 10
-24.081409
 20
99.713679
 11
-22.081409
 21
99.713679
  0
LINE
  8
2
 10
-24.081409
 20
85.213679
 11
-22.081409
 21
85.213679
  0
LINE
  8
2
 10
-26.039458
 20
99.463679
 11
-24.081409
 21
99.463679
  0
LINE
  8
2
 10
-26.039458
 20
85.463679
 11
-24.081409
 21
85.463679
  0
ARC
  8
2
 10
-11.281409
 20
92.463679
 40
18.000000
 50
163.398450
 51
196.601550
  0
ARC
  8
2
 10
-26.039458
 20
96.863679
 40
2.600000
 50
90.000000
 51
163.398450
  0
ARC
  8
2
 10
-26.039458
 20
88.063679
 40
2.600000
 50
196.601550
 51
270.000000
  0
LINE
  8
2
 10
-24.081409
 20
-28.786321
 11
-24.081409
 21
-14.286321
  0
LINE
  8
2
 10
-24.081409
 20
-14.286321
 11
-22.081409
 21
-14.286321
  0
LINE
  8
2
 10
-24.081409
 20
-28.786321
 11
-22.081409
 21
-28.786321
  0
LINE
  8
2
 10
-26.039458
 20
-14.536321
 11
-24.081409
 21
-14.536321
  0
LINE
  8
2
 10
-26.039458
 20
-28.536321
 11
-24.081409
 21
-28.536321
  0
ARC
  8
2
 10
-11.281409
 20
-21.536321
 40
18.000000
 50
163.398450
 51
196.601550
  0
ARC
  8
2
 10
-26.039458
 20
-17.136321
 40
2.600000
 50
90.000000
 51
163.398450
  0
ARC
  8
2
 10
-26.039458
 20
-25.936321
 40
2.600000
 50
196.601550
 51
270.000000
  0
LINE
  8
2
 10
-438.331409
 20
427.063679
 11
-452.831409
 21
427.063679
  0
LINE
  8
2
 10
-452.831409
 20
427.063679
 11
-452.831409
 21
429.063679
  0
LINE
  8
2
 10
-438.331409
 20
427.063679
 11
-438.331409
 21
429.063679
  0
LINE
  8
2
 10
-452.581409
 20
425.105631
 11
-452.581409
 21
427.063679
  0
LINE
  8
2
 10
-438.581409
 20
425.105631
 11
-438.581409
 21
427.063679
  0
ARC
  8
2
 10
-445.581409
 20
439.863679
 40
18.000000
 50
253.398450
 51
286.601550
  0
ARC
  8
2
 10
-449.981409
 20
425.105631
 40
2.600000
 50
180.000000
 51
253.398450
  0
ARC
  8
2
 10
-441.181409
 20
425.105631
 40
2.600000
 50
286.601550
 51
360.000000
  0
LINE
  8
2
 10
-547.331409
 20
427.063679
 11
-561.831409
 21
427.063679
  0
LINE
  8
2
 10
-561.831409
 20
427.063679
 11
-561.831409
 21
429.063679
  0
LINE
  8
2
 10
-547.331409
 20
427.063679
 11
-547.331409
 21
429.063679
  0
LINE
  8
2
 10
-561.581409
 20
425.105631
 11
-561.581409
 21
427.063679
  0
LINE
  8
2
 10
-547.581409
 20
425.105631
 11
-547.581409
 21
427.063679
  0
ARC
  8
2
 10
-554.581409
 20
439.863679
 40
18.000000
 50
253.398450
 51
286.601550
  0
ARC
  8
2
 10
-558.981409
 20
425.105631
 40
2.600000
 50
180.000000
 51
253.398450
  0
ARC
  8
2
 10
-550.181409
 20
425.105631
 40
2.600000
 50
286.601550
 51
360.000000
  0
LINE
  8
2
 10
-682.331409
 20
427.063679
 11
-696.831409
 21
427.063679
  0
LINE
  8
2
 10
-696.831409
 20
427.063679
 11
-696.831409
 21
429.063679
  0
LINE
  8
2
 10
-682.331409
 20
427.063679
 11
-682.331409
 21
429.063679
  0
LINE
  8
2
 10
-696.581409
 20
425.105631
 11
-696.581409
 21
427.063679
  0
LINE
  8
2
 10
-682.581409
 20
425.105631
 11
-682.581409
 21
427.063679
  0
ARC
  8
2
 10
-689.581409
 20
439.863679
 40
18.000000
 50
253.398450
 51
286.601550
  0
ARC
  8
2
 10
-693.981409
 20
425.105631
 40
2.600000
 50
180.000000
 51
253.398450
  0
ARC
  8
2
 10
-685.181409
 20
425.105631
 40
2.600000
 50
286.601550
 51
360.000000
  0
LINE
  8
2
 10
-672.081409
 20
-46.536321
 11
-672.081409
 21
-54.036321
  0
LINE
  8
2
 10
-672.081409
 20
-54.036321
 11
-672.947434
 21
-54.536321
  0
LINE
  8
2
 10
-685.081409
 20
-46.536321
 11
-685.081409
 21
-54.036321
  0
LINE
  8
2
 10
-685.081409
 20
-54.036321
 11
-684.215384
 21
-54.536321
  0
LINE
  8
2
 10
-684.215384
 20
-54.536321
 11
-672.947434
 21
-54.536321
  0
LINE
  8
2
 10
-672.081409
 20
-54.036321
 11
-685.081409
 21
-54.036321
  0
LINE
  8
2
 10
-533.323699
 20
-54.176207
 11
-533.947434
 21
-54.536321
  0
LINE
  8
2
 10
-546.081409
 20
-47.052786
 11
-546.081409
 21
-54.036321
  0
LINE
  8
2
 10
-546.081409
 20
-54.036321
 11
-545.215384
 21
-54.536321
  0
LINE
  8
2
 10
-545.215384
 20
-54.536321
 11
-533.947434
 21
-54.536321
  0
LINE
  8
2
 10
-533.622566
 20
-54.036321
 11
-546.081409
 21
-54.036321
  0
LINE
  8
2
 10
4.418591
 20
-46.536321
 11
4.418591
 21
-54.036321
  0
LINE
  8
2
 10
4.418591
 20
-54.036321
 11
3.552566
 21
-54.536321
  0
LINE
  8
2
 10
-8.581409
 20
-46.536321
 11
-8.581409
 21
-54.036321
  0
LINE
  8
2
 10
-8.581409
 20
-54.036321
 11
-7.715384
 21
-54.536321
  0
LINE
  8
2
 10
-7.715384
 20
-54.536321
 11
3.552566
 21
-54.536321
  0
LINE
  8
2
 10
4.418591
 20
-54.036321
 11
-8.581409
 21
-54.036321
  0
LINE
  8
2
 10
94.418591
 20
-46.536321
 11
94.418591
 21
-54.036321
  0
LINE
  8
2
 10
94.418591
 20
-54.036321
 11
93.552566
 21
-54.536321
  0
LINE
  8
2
 10
81.418591
 20
-46.536321
 11
81.418591
 21
-54.036321
  0
LINE
  8
2
 10
81.418591
 20
-54.036321
 11
82.284616
 21
-54.536321
  0
LINE
  8
2
 10
82.284616
 20
-54.536321
 11
93.552566
 21
-54.536321
  0
LINE
  8
2
 10
94.418591
 20
-54.036321
 11
81.418591
 21
-54.036321
  0
LINE
  8
2
 10
180.418591
 20
-46.536321
 11
180.418591
 21
-54.036321
  0
LINE
  8
2
 10
180.418591
 20
-54.036321
 11
179.552566
 21
-54.536321
  0
LINE
  8
2
 10
167.418591
 20
-46.536321
 11
167.418591
 21
-54.036321
  0
LINE
  8
2
 10
167.418591
 20
-54.036321
 11
168.284616
 21
-54.536321
  0
LINE
  8
2
 10
168.284616
 20
-54.536321
 11
179.552566
 21
-54.536321
  0
LINE
  8
2
 10
180.418591
 20
-54.036321
 11
167.418591
 21
-54.036321
  0
CIRCLE
  8
2
 10
-689.581409
 20
86.463679
 40
7.250000
  0
CIRCLE
  8
2
 10
-689.581409
 20
86.463679
 40
7.000000
  0
CIRCLE
  8
2
 10
-668.581409
 20
-29.536321
 40
7.250000
  0
CIRCLE
  8
2
 10
-668.581409
 20
-29.536321
 40
7.000000
  0
CIRCLE
  8
2
 10
-803.581409
 20
22.463679
 40
7.250000
  0
CIRCLE
  8
2
 10
-803.581409
 20
22.463679
 40
7.000000
  0
LINE
  8
2
 10
-808.476593
 20
427.063679
 11
-810.831409
 21
427.063679
  0
LINE
  8
2
 10
-810.831409
 20
427.063679
 11
-810.831409
 21
429.063679
  0
LINE
  8
2
 10
-810.581409
 20
425.105631
 11
-810.581409
 21
427.063679
  0
ARC
  8
2
 10
-803.581409
 20
439.863679
 40
18.000000
 50
253.398450
 51
255.013153
  0
ARC
  8
2
 10
-807.981409
 20
425.105631
 40
2.600000
 50
180.000000
 51
253.398450
  0
LINE
  8
2
 10
-727.081409
 20
38.963679
 11
-727.081409
 21
21.463679
  0
LINE
  8
2
 10
-727.081409
 20
38.963679
 11
-692.081409
 21
38.963679
  0
LINE
  8
2
 10
-727.081409
 20
21.463679
 11
-692.081409
 21
38.963679
  0
LINE
  8
2
 10
-715.414742
 20
38.963679
 11
-715.414742
 21
3.963679
  0
LINE
  8
2
 10
-703.748076
 20
27.297013
 11
-727.081409
 21
27.297013
  0
LINE
  8
2
 10
-703.748076
 20
33.130346
 11
-727.081409
 21
33.130346
  0
LINE
  8
2
 10
-703.748076
 20
38.963679
 11
-727.081409
 21
27.297013
  0
LINE
  8
2
 10
-715.414742
 20
38.963679
 11
-727.081409
 21
33.130346
  0
LINE
  8
2
 10
-703.748076
 20
3.963679
 11
-703.748076
 21
27.297013
  0
LINE
  8
2
 10
-703.748076
 20
33.130346
 11
-703.748076
 21
38.963679
  0
LINE
  8
2
 10
-715.414742
 20
3.963679
 11
-703.748076
 21
3.963679
  0
ARC
  8
2
 10
-80.081409
 20
75.849793
 40
10.000000
 50
280.000000
 51
360.000000
  0
ARC
  8
2
 10
-80.081409
 20
-2.922434
 40
10.000000
 50
0.000000
 51
80.000000
  0
LINE
  8
2
 10
-806.409836
 20
19.635252
 11
-800.752982
 21
25.292107
  0
LINE
  8
2
 10
-800.752982
 20
19.635252
 11
-806.409836
 21
25.292107
  0
LINE
  8
2
 10
-692.409836
 20
83.635252
 11
-686.752982
 21
89.292107
  0
LINE
  8
2
 10
-686.752982
 20
83.635252
 11
-692.409836
 21
89.292107
  0
LINE
  8
2
 10
-671.409836
 20
-32.364748
 11
-665.752982
 21
-26.707893
  0
LINE
  8
2
 10
-665.752982
 20
-32.364748
 11
-671.409836
 21
-26.707893
  0
LINE
  8
2
 10
-473.702729
 20
599.942359
 11
-469.460089
 21
604.185000
  0
LINE
  8
2
 10
-469.460089
 20
599.942359
 11
-473.702729
 21
604.185000
  0
LINE
  8
2
 10
-473.702729
 20
473.942359
 11
-469.460089
 21
478.185000
  0
LINE
  8
2
 10
-469.460089
 20
473.942359
 11
-473.702729
 21
478.185000
  0
LINE
  8
2
 10
-598.702729
 20
599.942359
 11
-594.460089
 21
604.185000
  0
LINE
  8
2
 10
-594.460089
 20
599.942359
 11
-598.702729
 21
604.185000
  0
LINE
  8
2
 10
-723.702729
 20
599.942359
 11
-719.460089
 21
604.185000
  0
LINE
  8
2
 10
-719.460089
 20
599.942359
 11
-723.702729
 21
604.185000
  0
LINE
  8
2
 10
-598.702729
 20
473.942359
 11
-594.460089
 21
478.185000
  0
LINE
  8
2
 10
-594.460089
 20
473.942359
 11
-598.702729
 21
478.185000
  0
LINE
  8
2
 10
-723.702729
 20
473.942359
 11
-719.460089
 21
478.185000
  0
LINE
  8
2
 10
-719.460089
 20
473.942359
 11
-723.702729
 21
478.185000
  0
LINE
  8
2
 10
-565.164905
 20
565.580184
 11
-560.964905
 21
565.580184
  0
LINE
  8
2
 10
-563.064905
 20
563.480184
 11
-563.064905
 21
567.680184
  0
LINE
  8
2
 10
-618.197913
 20
565.580184
 11
-613.997913
 21
565.580184
  0
LINE
  8
2
 10
-616.097913
 20
563.480184
 11
-616.097913
 21
567.680184
  0
LINE
  8
2
 10
-565.164905
 20
512.547175
 11
-560.964905
 21
512.547175
  0
LINE
  8
2
 10
-563.064905
 20
510.447175
 11
-563.064905
 21
514.647175
  0
LINE
  8
2
 10
-618.197913
 20
512.547175
 11
-613.997913
 21
512.547175
  0
LINE
  8
2
 10
-616.097913
 20
510.447175
 11
-616.097913
 21
514.647175
  0
LINE
  8
2
 10
-462.081409
 20
623.620304
 11
-462.081409
 21
626.507055
  0
LINE
  8
2
 10
-457.081409
 20
623.620304
 11
-457.081409
 21
626.507055
  0
LINE
  8
2
 10
-457.081409
 20
626.507055
 11
-459.581409
 21
627.950431
  0
LINE
  8
2
 10
-459.581409
 20
622.176928
 11
-462.081409
 21
623.620304
  0
LINE
  8
2
 10
-457.081409
 20
623.620304
 11
-459.581409
 21
622.176928
  0
LINE
  8
2
 10
-459.581409
 20
627.950431
 11
-462.081409
 21
626.507055
  0
LINE
  8
2
 10
-529.081409
 20
627.620304
 11
-529.081409
 21
630.507055
  0
LINE
  8
2
 10
-524.081409
 20
627.620304
 11
-524.081409
 21
630.507055
  0
LINE
  8
2
 10
-524.081409
 20
630.507055
 11
-526.581409
 21
631.950431
  0
LINE
  8
2
 10
-526.581409
 20
626.176928
 11
-529.081409
 21
627.620304
  0
LINE
  8
2
 10
-524.081409
 20
627.620304
 11
-526.581409
 21
626.176928
  0
LINE
  8
2
 10
-526.581409
 20
631.950431
 11
-529.081409
 21
630.507055
  0
LINE
  8
2
 10
-676.081409
 20
627.620304
 11
-676.081409
 21
630.507055
  0
LINE
  8
2
 10
-671.081409
 20
627.620304
 11
-671.081409
 21
630.507055
  0
LINE
  8
2
 10
-671.081409
 20
630.507055
 11
-673.581409
 21
631.950431
  0
LINE
  8
2
 10
-673.581409
 20
626.176928
 11
-676.081409
 21
627.620304
  0
LINE
  8
2
 10
-671.081409
 20
627.620304
 11
-673.581409
 21
626.176928
  0
LINE
  8
2
 10
-673.581409
 20
631.950431
 11
-676.081409
 21
630.507055
  0
LINE
  8
2
 10
-801.081409
 20
623.620304
 11
-801.081409
 21
626.507055
  0
LINE
  8
2
 10
-796.081409
 20
623.620304
 11
-796.081409
 21
626.507055
  0
LINE
  8
2
 10
-796.081409
 20
626.507055
 11
-798.581409
 21
627.950431
  0
LINE
  8
2
 10
-798.581409
 20
622.176928
 11
-801.081409
 21
623.620304
  0
LINE
  8
2
 10
-796.081409
 20
623.620304
 11
-798.581409
 21
622.176928
  0
LINE
  8
2
 10
-798.581409
 20
627.950431
 11
-801.081409
 21
626.507055
  0
LINE
  8
2
 10
-806.081409
 20
537.620304
 11
-806.081409
 21
540.507055
  0
LINE
  8
2
 10
-801.081409
 20
537.620304
 11
-801.081409
 21
540.507055
  0
LINE
  8
2
 10
-801.081409
 20
540.507055
 11
-803.581409
 21
541.950431
  0
LINE
  8
2
 10
-803.581409
 20
536.176928
 11
-806.081409
 21
537.620304
  0
LINE
  8
2
 10
-801.081409
 20
537.620304
 11
-803.581409
 21
536.176928
  0
LINE
  8
2
 10
-803.581409
 20
541.950431
 11
-806.081409
 21
540.507055
  0
LINE
  8
2
 10
-806.081409
 20
458.620304
 11
-806.081409
 21
461.507055
  0
LINE
  8
2
 10
-801.081409
 20
458.620304
 11
-801.081409
 21
461.507055
  0
LINE
  8
2
 10
-801.081409
 20
461.507055
 11
-803.581409
 21
462.950431
  0
LINE
  8
2
 10
-803.581409
 20
457.176928
 11
-806.081409
 21
458.620304
  0
LINE
  8
2
 10
-801.081409
 20
458.620304
 11
-803.581409
 21
457.176928
  0
LINE
  8
2
 10
-803.581409
 20
462.950431
 11
-806.081409
 21
461.507055
  0
LINE
  8
2
 10
-676.081409
 20
452.620304
 11
-676.081409
 21
455.507055
  0
LINE
  8
2
 10
-671.081409
 20
452.620304
 11
-671.081409
 21
455.507055
  0
LINE
  8
2
 10
-671.081409
 20
455.507055
 11
-673.581409
 21
456.950431
  0
LINE
  8
2
 10
-673.581409
 20
451.176928
 11
-676.081409
 21
452.620304
  0
LINE
  8
2
 10
-671.081409
 20
452.620304
 11
-673.581409
 21
451.176928
  0
LINE
  8
2
 10
-673.581409
 20
456.950431
 11
-676.081409
 21
455.507055
  0
LINE
  8
2
 10
-529.081409
 20
452.620304
 11
-529.081409
 21
455.507055
  0
LINE
  8
2
 10
-524.081409
 20
452.620304
 11
-524.081409
 21
455.507055
  0
LINE
  8
2
 10
-524.081409
 20
455.507055
 11
-526.581409
 21
456.950431
  0
LINE
  8
2
 10
-526.581409
 20
451.176928
 11
-529.081409
 21
452.620304
  0
LINE
  8
2
 10
-524.081409
 20
452.620304
 11
-526.581409
 21
451.176928
  0
LINE
  8
2
 10
-526.581409
 20
456.950431
 11
-529.081409
 21
455.507055
  0
LINE
  8
2
 10
-458.081409
 20
452.620304
 11
-458.081409
 21
455.507055
  0
LINE
  8
2
 10
-453.081409
 20
452.620304
 11
-453.081409
 21
455.507055
  0
LINE
  8
2
 10
-453.081409
 20
455.507055
 11
-455.581409
 21
456.950431
  0
LINE
  8
2
 10
-455.581409
 20
451.176928
 11
-458.081409
 21
452.620304
  0
LINE
  8
2
 10
-453.081409
 20
452.620304
 11
-455.581409
 21
451.176928
  0
LINE
  8
2
 10
-455.581409
 20
456.950431
 11
-458.081409
 21
455.507055
  0
LINE
  8
2
 10
-458.081409
 20
537.620304
 11
-458.081409
 21
540.507055
  0
LINE
  8
2
 10
-453.081409
 20
537.620304
 11
-453.081409
 21
540.507055
  0
LINE
  8
2
 10
-453.081409
 20
540.507055
 11
-455.581409
 21
541.950431
  0
LINE
  8
2
 10
-455.581409
 20
536.176928
 11
-458.081409
 21
537.620304
  0
LINE
  8
2
 10
-453.081409
 20
537.620304
 11
-455.581409
 21
536.176928
  0
LINE
  8
2
 10
-455.581409
 20
541.950431
 11
-458.081409
 21
540.507055
  0
TEXT
  8
2
 10
-584.161924
 20
516.050006
 40
7.600000
  1
Ｓ
 50
22.500000
  0
TEXT
  8
2
 10
-595.000894
 20
562.077353
 40
7.600000
  1
Ｓ
 50
202.500000
  0
TEXT
  8
2
 10
-583.336476
 20
146.871097
 40
7.600000
  1
Ｓ
 50
31.641000
  0
TEXT
  8
2
 10
-472.360990
 20
35.445886
 40
9.000000
  1
Ｓ
 50
253.000000
  0
LINE
  8
2
  6
CENTER
 62
2
 10
132.112765
 20
-45.900372
 11
132.112765
 21
-83.403814
  0
LINE
  8
2
  6
CENTER
 62
2
 10
43.724417
 20
-45.900372
 11
43.724417
 21
-83.403814
  0
LINE
  8
2
  6
CENTER
 62
2
 10
-545.387235
 20
-45.900372
 11
-545.387235
 21
-83.403814
  0
LINE
  8
2
  6
CENTER
 62
2
 10
-633.775583
 20
-45.900372
 11
-633.775583
 21
-83.403814
  0
LINE
  8
3
 10
-514.581409
 20
-136.536321
 11
-664.581409
 21
-136.536321
  0
LINE
  8
3
 10
25.418591
 20
-136.536321
 11
150.418591
 21
-136.536321
  0
LINE
  8
3
 10
-514.581409
 20
-68.536321
 11
-664.581409
 21
-68.536321
  0
LINE
  8
3
 10
-514.581409
 20
-129.536321
 11
-664.581409
 21
-129.536321
  0
LINE
  8
3
 10
-514.581409
 20
-61.536321
 11
-664.581409
 21
-61.536321
  0
LINE
  8
3
 10
-514.581409
 20
-136.536321
 11
-514.581409
 21
-129.536321
  0
LINE
  8
3
 10
-514.581409
 20
-68.536321
 11
-514.581409
 21
-61.536321
  0
LINE
  8
3
 10
-664.581409
 20
-136.536321
 11
-664.581409
 21
-129.536321
  0
LINE
  8
3
 10
-664.581409
 20
-68.536321
 11
-664.581409
 21
-61.536321
  0
LINE
  8
3
 10
-519.581409
 20
-68.536321
 11
-519.581409
 21
-129.536321
  0
LINE
  8
3
 10
-528.581409
 20
-68.536321
 11
-528.581409
 21
-129.536321
  0
LINE
  8
3
 10
-650.581409
 20
-68.536321
 11
-650.581409
 21
-129.536321
  0
LINE
  8
3
 10
-659.581409
 20
-68.536321
 11
-659.581409
 21
-129.536321
  0
LINE
  8
3
 10
-514.581409
 20
-68.536321
 11
-519.581409
 21
-73.536321
  0
LINE
  8
3
 10
-514.581409
 20
-129.536321
 11
-519.581409
 21
-124.536321
  0
LINE
  8
3
 10
-659.581409
 20
-124.536321
 11
-664.581409
 21
-129.536321
  0
LINE
  8
3
 10
-659.581409
 20
-73.536321
 11
-664.581409
 21
-68.536321
  0
LINE
  8
3
 10
150.418591
 20
-136.536321
 11
150.418591
 21
-61.536321
  0
LINE
  8
3
 10
25.418591
 20
-136.536321
 11
25.418591
 21
-61.536321
  0
LINE
  8
3
 10
25.418591
 20
-68.536321
 11
150.418591
 21
-68.536321
  0
LINE
  8
3
 10
25.418591
 20
-129.536321
 11
150.418591
 21
-129.536321
  0
LINE
  8
3
 10
25.418591
 20
-124.536321
 11
150.418591
 21
-124.536321
  0
LINE
  8
3
 10
25.418591
 20
-73.536321
 11
150.418591
 21
-73.536321
  0
LINE
  8
3
 10
-614.581409
 20
-91.536321
 11
-564.581409
 21
-91.536321
  0
LINE
  8
3
 10
-614.581409
 20
-83.536321
 11
-564.581409
 21
-83.536321
  0
LINE
  8
3
 10
-614.581409
 20
-129.536321
 11
-614.581409
 21
-68.536321
  0
LINE
  8
3
 10
-564.581409
 20
-129.536321
 11
-564.581409
 21
-68.536321
  0
TEXT
  8
5
 10
701.616577
 20
-346.633507
 40
30.000000
  1
エクステンション仕様（高温用）
 50
0.000000
  0
TEXT
  8
5
 10
521.616577
 20
-298.633507
 40
30.000000
  1
駆動部・・・４Ｉ－３型
 50
0.000000
  0
DIMENSION
  8
5
  2
*D0
 10
-424.581409
 20
718.751587
 11
-507.081409
 21
731.651587
 70
0
  1
165
 13
-589.581409
 23
676.312207
 14
-424.581409
 24
448.063679
 50
0.000000
  0
DIMENSION
  8
5
  2
*D1
 10
-589.581409
 20
718.751587
 11
-701.081409
 21
731.651587
 70
0
  1
223
 13
-812.581409
 23
624.063679
 14
-589.581409
 24
676.312207
 50
0.000000
  0
DIMENSION
  8
5
  2
*D2
 10
-217.189976
 20
-63.536321
 11
-247.909976
 21
28.543679
 70
1
  1
%%c200
 13
-143.573450
 23
136.463679
 14
-143.573450
 24
-63.536321
 50
90.000000
  0
DIMENSION
  8
5
  2
*D3
 10
286.363678
 20
168.463679
 11
262.573678
 21
52.473679
 70
0
  1
230
 13
157.918591
 23
-61.536321
 14
87.918591
 24
168.463679
 50
90.000000
  0
DIMENSION
  8
5
  2
*D4
 10
-296.920784
 20
539.063679
 11
-334.570784
 21
401.463680
 70
0
  1
245.5
 13
-456.526320
 23
293.563679
 14
-331.516956
 24
539.063679
 50
90.000000
  0
DIMENSION
  8
5
  2
*D5
 10
-296.920784
 20
675.063679
 11
-320.710784
 21
606.073679
 70
0
  1
136
 13
-331.516956
 23
539.063679
 14
-532.663909
 24
675.063679
 50
90.000000
  0
DIMENSION
  8
5
  2
*D6
 10
286.363678
 20
-433.536321
 11
262.573678
 21
-583.026321
 70
0
  1
297
 13
132.918591
 23
-730.536321
 14
172.954319
 24
-433.536321
 50
90.000000
  0
DIMENSION
  8
5
  2
*D7
 10
126.918591
 20
-668.235175
 11
20.058591
 21
-655.335175
 70
0
  1
78
 13
48.918591
 23
-615.036321
 14
126.918591
 24
-615.036321
 50
0.000000
  0
DIMENSION
  8
5
  2
*D8
 10
286.363678
 20
-61.536321
 11
270.763678
 21
-93.636321
 70
0
  1
75
 13
150.418591
 23
-136.536321
 14
157.918591
 24
-61.536321
 50
90.000000
  0
DIMENSION
  8
5
  2
*D9
 10
286.363678
 20
-136.536321
 11
264.463678
 21
-285.936321
 70
0
  1
297
 13
172.954319
 23
-433.536321
 14
150.418591
 24
-136.536321
 50
90.000000
  0
LINE
  8
18
 10
729.294456
 20
-409.293709
 11
1029.294456
 21
-409.293709
  0
LINE
  8
18
 10
729.294456
 20
-529.293709
 11
1029.294456
 21
-529.293709
  0
LINE
  8
18
 10
729.294456
 20
-559.293709
 11
1029.294456
 21
-559.293709
  0
LINE
  8
18
 10
729.294456
 20
-589.293709
 11
1029.294456
 21
-589.293709
  0
LINE
  8
18
 10
729.294456
 20
-409.293709
 11
729.294456
 21
-589.293709
  0
LINE
  8
18
 10
879.294456
 20
-409.293709
 11
879.294456
 21
-559.293709
  0
LINE
  8
18
 10
1029.294456
 20
-409.293709
 11
1029.294456
 21
-589.293709
  0
LINE
  8
18
  6
CENTER
 62
2
 10
792.568299
 20
-473.473721
 11
810.772355
 21
-473.473719
  0
LINE
  8
18
  6
CENTER
 62
2
 10
802.319853
 20
-450.503721
 11
802.319853
 21
-500.705529
  0
LINE
  8
18
 10
830.098803
 20
-464.214071
 11
830.098803
 21
-469.872746
  0
LINE
  8
18
 10
774.540903
 20
-464.214071
 11
774.540903
 21
-469.872746
  0
LINE
  8
18
  6
CENTER
 62
2
 10
746.870830
 20
-481.190096
 11
859.126154
 21
-481.190096
  0
LINE
  8
18
 10
750.877353
 20
-492.507446
 11
853.762353
 21
-492.507446
  0
LINE
  8
18
 10
853.762353
 20
-469.872746
 11
853.762353
 21
-492.507446
  0
LINE
  8
18
 10
750.877353
 20
-469.872746
 11
750.877353
 21
-492.507446
  0
LINE
  8
18
 10
817.752603
 20
-469.872746
 11
817.752603
 21
-492.507446
  0
LINE
  8
18
 10
786.887103
 20
-469.872746
 11
786.887103
 21
-492.507446
  0
LINE
  8
18
 10
786.887103
 20
-469.872746
 11
798.777989
 21
-465.512754
  0
LINE
  8
18
 10
805.861717
 20
-465.512754
 11
817.752603
 21
-469.872746
  0
ARC
  8
18
 10
802.319853
 20
-475.172383
 40
10.288500
 50
69.863697
 51
110.136303
  0
LINE
  8
18
 10
750.877353
 20
-469.872746
 11
786.887103
 21
-469.872746
  0
LINE
  8
18
 10
817.752603
 20
-469.872746
 11
853.762353
 21
-469.872746
  0
ARC
  8
18
 10
802.319853
 20
-473.473721
 40
15.432750
 50
14.149808
 51
165.850192
  0
LINE
  8
18
 10
774.540903
 20
-464.214071
 11
789.973653
 21
-464.214071
  0
LINE
  8
18
 10
814.666053
 20
-464.214071
 11
830.098803
 21
-464.214071
  0
LINE
  8
18
 10
796.863552
 20
-478.930022
 11
795.772292
 21
-480.021282
  0
LINE
  8
18
 10
807.776154
 20
-478.930022
 11
808.867415
 21
-480.021282
  0
ARC
  8
18
 10
802.319853
 20
-473.473721
 40
7.716375
 50
225.000000
 51
315.000000
  0
ARC
  8
18
 10
802.319853
 20
-473.473721
 40
9.259650
 50
225.000000
 51
315.000000
  0
LINE
  8
18
 10
797.276308
 20
-478.055923
 11
799.999595
 21
-472.363664
  0
LINE
  8
18
 10
797.757849
 20
-478.535543
 11
803.439176
 21
-475.789524
  0
ARC
  8
18
 10
802.319853
 20
-473.473721
 40
2.572125
 50
295.796392
 51
154.432646
  0
ARC
  8
18
 10
797.601144
 20
-478.211331
 40
0.360098
 50
154.432646
 51
295.796392
  0
LINE
  8
18
 10
804.316998
 20
-480.927167
 11
804.716427
 21
-482.417856
  0
LINE
  8
18
 10
800.322709
 20
-480.927167
 11
799.923280
 21
-482.417856
  0
LINE
  8
18
  6
CENTER
 62
2
 10
920.463369
 20
-469.095974
 11
986.850183
 21
-469.096494
  0
LINE
  8
18
  6
CENTER
 62
2
 10
954.488863
 20
-459.741755
 11
954.488863
 21
-479.581255
  0
LINE
  8
18
 10
982.267813
 20
-459.836278
 11
982.267813
 21
-478.356109
  0
LINE
  8
18
 10
926.709913
 20
-459.836278
 11
926.709913
 21
-478.355673
  0
LINE
  8
18
  6
CENTER
 62
2
 10
962.205239
 20
-524.544951
 11
962.205239
 21
-412.289627
  0
LINE
  8
18
 10
973.522589
 20
-520.538427
 11
973.522589
 21
-417.653427
  0
LINE
  8
18
 10
950.887889
 20
-417.653427
 11
973.522589
 21
-417.653427
  0
LINE
  8
18
 10
950.887889
 20
-520.538427
 11
973.522589
 21
-520.538427
  0
LINE
  8
18
 10
950.887889
 20
-453.663177
 11
973.522589
 21
-453.663177
  0
LINE
  8
18
 10
950.887889
 20
-484.528677
 11
973.522589
 21
-484.528677
  0
LINE
  8
18
 10
950.887889
 20
-484.528677
 11
946.527897
 21
-472.637791
  0
LINE
  8
18
 10
946.527897
 20
-465.554063
 11
950.887889
 21
-453.663177
  0
ARC
  8
18
 10
956.187526
 20
-469.095927
 40
10.288500
 50
159.863697
 51
200.136303
  0
LINE
  8
18
 10
950.887889
 20
-520.538427
 11
950.887889
 21
-484.528677
  0
LINE
  8
18
 10
950.887889
 20
-453.663177
 11
950.887889
 21
-417.653427
  0
ARC
  8
18
 10
954.488864
 20
-469.095927
 40
15.432750
 50
104.149808
 51
255.850192
  0
LINE
  8
18
 10
926.709913
 20
-459.836278
 11
942.142663
 21
-459.836278
  0
LINE
  8
18
 10
973.522589
 20
-459.836278
 11
982.267813
 21
-459.836278
  0
LINE
  8
18
 10
959.945164
 20
-474.552229
 11
961.036424
 21
-475.643490
  0
ARC
  8
18
 10
954.488550
 20
-469.096241
 40
7.716375
 50
315.000000
 51
45.000000
  0
ARC
  8
18
 10
954.488550
 20
-469.096241
 40
9.259650
 50
315.000000
 51
45.000000
  0
LINE
  8
18
 10
959.070752
 20
-474.139787
 11
953.378493
 21
-471.416500
  0
LINE
  8
18
 10
959.550372
 20
-473.658245
 11
956.804353
 21
-467.976918
  0
ARC
  8
18
 10
954.488550
 20
-469.096241
 40
2.572125
 50
25.796392
 51
244.432646
  0
ARC
  8
18
 10
959.226160
 20
-473.814950
 40
0.360098
 50
244.432646
 51
25.796392
  0
LINE
  8
18
 10
961.941996
 20
-467.099096
 11
963.432685
 21
-466.699667
  0
LINE
  8
18
 10
961.941996
 20
-471.093386
 11
963.432685
 21
-471.492815
  0
LINE
  8
18
 10
926.709913
 20
-478.355673
 11
942.142826
 21
-478.355794
  0
LINE
  8
18
 10
973.522589
 20
-478.356040
 11
982.267813
 21
-478.356109
  0
LINE
  8
18
 10
959.944851
 20
-463.639407
 11
961.036111
 21
-462.548147
  0
TEXT
  8
18
 10
733.985962
 20
-798.632172
 40
18.000000
  1
１
 50
0.000000
  0
TEXT
  8
18
 10
757.700821
 20
-820.334564
 40
18.000000
  1
６
 50
0.000000
  0
TEXT
  8
18
 10
753.247215
 20
-580.495514
 40
15.000000
  1
ＡＣＴＵＡＴＯＲ　ＰＯＳＩＴＩＯＮ
 50
0.000000
  0
TEXT
  8
18
 10
790.078880
 20
-552.226433
 40
18.000000
  1
Ａ
 50
0.000000
  0
TEXT
  8
18
 10
940.007195
 20
-552.707359
 40
18.000000
  1
Ｂ
 50
0.000000
  0
TEXT
  8
18
 10
789.604649
 20
-483.989110
 40
7.200000
  1
Ｓ
 50
315.000000
  0
TEXT
  8
18
 10
810.688784
 20
-488.335384
 40
7.200000
  1
Ｏ
 50
45.000000
  0
TEXT
  8
18
 10
965.603939
 20
-482.411445
 40
7.200000
  1
Ｓ
 50
45.000000
  0
TEXT
  8
18
 10
969.950213
 20
-460.727311
 40
7.200000
  1
Ｏ
 50
135.000000
  0
TEXT
  8
18
 10
1080.948669
 20
-761.314819
 40
12.000000
  1
２００３．　２．　３
 50
0.000000
  0
TEXT
  8
18
 10
737.125443
 20
-762.211578
 40
18.000000
  1
標準仕様
 50
0.000000
  0
TEXT
  8
18
 10
921.600000
 20
-816.000000
 40
30.000000
  1
Ｄ３－０３２５３
 50
0.000000
  0
TEXT
  8
18
 10
737.125443
 20
-738.211578
 40
18.000000
  1
８４７Ｔ－４ＩＡＳ　３００Ａ
 50
0.000000
  0
LINE
  8
20
 62
3
 10
-1080.000000
 20
-831.000000
 11
1200.000000
 21
-831.000000
  0
LINE
  8
20
 62
3
 10
-1080.000000
 20
792.000000
 11
1200.000000
 21
792.000000
  0
LINE
  8
20
 62
3
 10
-1080.000000
 20
792.000000
 11
-1080.000000
 21
-831.000000
  0
LINE
  8
20
 62
3
 10
1200.000000
 20
792.000000
 11
1200.000000
 21
-831.000000
  0
LINE
  8
20
 62
3
 10
360.000000
 20
-831.000000
 11
360.000000
 21
-711.000000
  0
LINE
  8
20
 62
3
 10
642.000000
 20
-831.000000
 11
642.000000
 21
-711.000000
  0
LINE
  8
20
 10
642.000000
 20
-771.000000
 11
1200.000000
 21
-771.000000
  0
LINE
  8
20
 62
3
 10
360.000000
 20
-711.000000
 11
1200.000000
 21
-711.000000
  0
LINE
  8
20
 10
1080.000000
 20
-771.000000
 11
1080.000000
 21
-711.000000
  0
LINE
  8
20
 10
1080.000000
 20
-741.000000
 11
1200.000000
 21
-741.000000
  0
LINE
  8
20
 10
726.000000
 20
-831.000000
 11
726.000000
 21
-711.000000
  0
LINE
  8
20
 10
786.000000
 20
-831.000000
 11
786.000000
 21
-771.000000
  0
LINE
  8
20
 10
906.000000
 20
-831.000000
 11
906.000000
 21
-771.000000
  0
LINE
  8
20
 10
742.370487
 20
-814.629513
 11
767.389744
 21
-789.610256
  0
TEXT
  8
20
 10
789.199974
 20
-794.981506
 40
10.800000
  1
ＤＲＡＷＩＮＧ　ＮＯ．
 50
0.000000
  0
TEXT
  8
20
 10
801.000000
 20
-819.000000
 40
18.000000
  1
図　　　番
 50
0.000000
  0
TEXT
  8
20
 10
1116.000000
 20
-732.000000
 40
12.000000
  1
ＤＡＴＥ
 50
0.000000
  0
TEXT
  8
20
 10
654.006426
 20
-797.766174
 40
12.000000
  1
ＳＣＡＬＥ
 50
0.000000
  0
TEXT
  8
20
 10
648.000000
 20
-819.000000
 40
18.000000
  1
尺　　度
 50
0.000000
  0
TEXT
  8
20
 10
645.006426
 20
-734.975308
 40
12.000000
  1
ＦＩＧ．ＮＯ．
 50
0.000000
  0
TEXT
  8
20
 10
648.000000
 20
-759.000000
 40
18.000000
  1
名　　称
 50
0.000000
  0
TEXT
  8
20
 10
363.393150
 20
-758.821518
 40
13.800000
  1
ＴＯＭＯＥ　ＶＡＬＶＥ　ＣＯ．，ＬＴＤ．
 50
0.000000
  0
TEXT
  8
20
 10
405.000000
 20
-799.738861
 40
24.000000
  1
巴バルブ株式会社
 50
0.000000
  0
ENDSEC
  0
EOF
