  0
SECTION
  2
HEADER
  9
$ACADVER
  1
AC1015
  9
$ACADMAINTVER
 70
    20
  9
$DWGCODEPAGE
  3
ANSI_932
  9
$INSBASE
 10
0.0
 20
0.0
 30
0.0
  9
$EXTMIN
 10
-540.0
 20
-415.5
 30
0.0
  9
$EXTMAX
 10
600.0
 20
396.0
 30
0.0
  9
$LIMMIN
 10
-630.0
 20
-445.5
  9
$LIMMAX
 10
630.0
 20
445.5
  9
$ORTHOMODE
 70
     0
  9
$REGENMODE
 70
     1
  9
$FILLMODE
 70
     1
  9
$QTEXTMODE
 70
     0
  9
$MIRRTEXT
 70
     1
  9
$LTSCALE
 40
1.0
  9
$ATTMODE
 70
     1
  9
$TEXTSIZE
 40
1.0
  9
$TRACEWID
 40
0.05
  9
$TEXTSTYLE
  7
STANDARD
  9
$CLAYER
  8
0
  9
$CELTYPE
  6
CONTINUOUS
  9
$CECOLOR
 62
   256
  9
$CELTSCALE
 40
1.0
  9
$DISPSILH
 70
     0
  9
$DIMSCALE
 40
3.0
  9
$DIMASZ
 40
0.18
  9
$DIMEXO
 40
0.0625
  9
$DIMDLI
 40
0.38
  9
$DIMRND
 40
0.0
  9
$DIMDLE
 40
0.0
  9
$DIMEXE
 40
0.18
  9
$DIMTP
 40
0.0
  9
$DIMTM
 40
0.0
  9
$DIMTXT
 40
0.18
  9
$DIMCEN
 40
0.09
  9
$DIMTSZ
 40
0.0
  9
$DIMTOL
 70
     0
  9
$DIMLIM
 70
     0
  9
$DIMTIH
 70
     1
  9
$DIMTOH
 70
     1
  9
$DIMSE1
 70
     0
  9
$DIMSE2
 70
     0
  9
$DIMTAD
 70
     1
  9
$DIMZIN
 70
     0
  9
$DIMBLK
  1

  9
$DIMASO
 70
     1
  9
$DIMSHO
 70
     1
  9
$DIMPOST
  1

  9
$DIMAPOST
  1

  9
$DIMALT
 70
     0
  9
$DIMALTD
 70
     2
  9
$DIMALTF
 40
25.4
  9
$DIMLFAC
 40
1.0
  9
$DIMTOFL
 70
     0
  9
$DIMTVP
 40
0.0
  9
$DIMTIX
 70
     0
  9
$DIMSOXD
 70
     0
  9
$DIMSAH
 70
     0
  9
$DIMBLK1
  1

  9
$DIMBLK2
  1

  9
$DIMSTYLE
  2
STANDARD
  9
$DIMCLRD
 70
     0
  9
$DIMCLRE
 70
     0
  9
$DIMCLRT
 70
     0
  9
$DIMTFAC
 40
1.0
  9
$DIMGAP
 40
0.09
  9
$DIMJUST
 70
     0
  9
$DIMSD1
 70
     0
  9
$DIMSD2
 70
     0
  9
$DIMTOLJ
 70
     1
  9
$DIMTZIN
 70
     0
  9
$DIMALTZ
 70
     0
  9
$DIMALTTZ
 70
     0
  9
$DIMUPT
 70
     0
  9
$DIMDEC
 70
     4
  9
$DIMTDEC
 70
     4
  9
$DIMALTU
 70
     2
  9
$DIMALTTD
 70
     2
  9
$DIMTXSTY
  7
STANDARD
  9
$DIMAUNIT
 70
     0
  9
$DIMADEC
 70
     0
  9
$DIMALTRND
 40
0.0
  9
$DIMAZIN
 70
     0
  9
$DIMDSEP
 70
    46
  9
$DIMATFIT
 70
     3
  9
$DIMFRAC
 70
     0
  9
$DIMLDRBLK
  1

  9
$DIMLUNIT
 70
     2
  9
$DIMLWD
 70
    -2
  9
$DIMLWE
 70
    -2
  9
$DIMTMOVE
 70
     0
  9
$LUNITS
 70
     2
  9
$LUPREC
 70
     4
  9
$SKETCHINC
 40
0.1
  9
$FILLETRAD
 40
0.0
  9
$AUNITS
 70
     0
  9
$AUPREC
 70
     0
  9
$MENU
  1
acad
  9
$ELEVATION
 40
0.0
  9
$PELEVATION
 40
0.0
  9
$THICKNESS
 40
0.0
  9
$LIMCHECK
 70
     0
  9
$CHAMFERA
 40
0.0
  9
$CHAMFERB
 40
0.0
  9
$CHAMFERC
 40
0.0
  9
$CHAMFERD
 40
0.0
  9
$SKPOLY
 70
     0
  9
$TDCREATE
 40
2451045.000000000
  9
$TDUCREATE
 40
2451044.625000000
  9
$TDUPDATE
 40
2455474.382543507
  9
$TDUUPDATE
 40
2455474.007543507
  9
$TDINDWG
 40
0.0087444792
  9
$TDUSRTIMER
 40
0.0087441088
  9
$USRTIMER
 70
     1
  9
$ANGBASE
 50
0.0
  9
$ANGDIR
 70
     0
  9
$PDMODE
 70
     0
  9
$PDSIZE
 40
0.0
  9
$PLINEWID
 40
0.0
  9
$SPLFRAME
 70
     0
  9
$SPLINETYPE
 70
     6
  9
$SPLINESEGS
 70
     8
  9
$HANDSEED
  5
940
  9
$SURFTAB1
 70
     6
  9
$SURFTAB2
 70
     6
  9
$SURFTYPE
 70
     6
  9
$SURFU
 70
     6
  9
$SURFV
 70
     6
  9
$UCSBASE
  2

  9
$UCSNAME
  2

  9
$UCSORG
 10
0.0
 20
0.0
 30
0.0
  9
$UCSXDIR
 10
1.0
 20
0.0
 30
0.0
  9
$UCSYDIR
 10
0.0
 20
1.0
 30
0.0
  9
$UCSORTHOREF
  2

  9
$UCSORTHOVIEW
 70
     0
  9
$UCSORGTOP
 10
0.0
 20
0.0
 30
0.0
  9
$UCSORGBOTTOM
 10
0.0
 20
0.0
 30
0.0
  9
$UCSORGLEFT
 10
0.0
 20
0.0
 30
0.0
  9
$UCSORGRIGHT
 10
0.0
 20
0.0
 30
0.0
  9
$UCSORGFRONT
 10
0.0
 20
0.0
 30
0.0
  9
$UCSORGBACK
 10
0.0
 20
0.0
 30
0.0
  9
$PUCSBASE
  2

  9
$PUCSNAME
  2

  9
$PUCSORG
 10
0.0
 20
0.0
 30
0.0
  9
$PUCSXDIR
 10
1.0
 20
0.0
 30
0.0
  9
$PUCSYDIR
 10
0.0
 20
1.0
 30
0.0
  9
$PUCSORTHOREF
  2

  9
$PUCSORTHOVIEW
 70
     0
  9
$PUCSORGTOP
 10
0.0
 20
0.0
 30
0.0
  9
$PUCSORGBOTTOM
 10
0.0
 20
0.0
 30
0.0
  9
$PUCSORGLEFT
 10
0.0
 20
0.0
 30
0.0
  9
$PUCSORGRIGHT
 10
0.0
 20
0.0
 30
0.0
  9
$PUCSORGFRONT
 10
0.0
 20
0.0
 30
0.0
  9
$PUCSORGBACK
 10
0.0
 20
0.0
 30
0.0
  9
$USERI1
 70
     0
  9
$USERI2
 70
     0
  9
$USERI3
 70
     0
  9
$USERI4
 70
     0
  9
$USERI5
 70
     0
  9
$USERR1
 40
0.0
  9
$USERR2
 40
0.0
  9
$USERR3
 40
0.0
  9
$USERR4
 40
0.0
  9
$USERR5
 40
0.0
  9
$WORLDVIEW
 70
     1
  9
$SHADEDGE
 70
     3
  9
$SHADEDIF
 70
    70
  9
$TILEMODE
 70
     1
  9
$MAXACTVP
 70
    16
  9
$PINSBASE
 10
0.0
 20
0.0
 30
0.0
  9
$PLIMCHECK
 70
     0
  9
$PEXTMIN
 10
1.000000000000000E+20
 20
1.000000000000000E+20
 30
1.000000000000000E+20
  9
$PEXTMAX
 10
-1.000000000000000E+20
 20
-1.000000000000000E+20
 30
-1.000000000000000E+20
  9
$PLIMMIN
 10
0.0
 20
0.0
  9
$PLIMMAX
 10
12.0
 20
9.0
  9
$UNITMODE
 70
     0
  9
$VISRETAIN
 70
     0
  9
$PLINEGEN
 70
     1
  9
$PSLTSCALE
 70
     0
  9
$TREEDEPTH
 70
  3020
  9
$CMLSTYLE
  2
STANDARD
  9
$CMLJUST
 70
     0
  9
$CMLSCALE
 40
1.0
  9
$PROXYGRAPHICS
 70
     1
  9
$MEASUREMENT
 70
     0
  9
$CELWEIGHT
370
    -1
  9
$ENDCAPS
280
     0
  9
$JOINSTYLE
280
     0
  9
$LWDISPLAY
290
     0
  9
$INSUNITS
 70
     0
  9
$HYPERLINKBASE
  1

  9
$STYLESHEET
  1
MONOCHROME.CTB
  9
$XEDIT
290
     1
  9
$CEPSNTYPE
380
     0
  9
$PSTYLEMODE
290
     1
  9
$FINGERPRINTGUID
  2
{4562BAA6-ECEC-4293-B6E5-91CACE897EC9}
  9
$VERSIONGUID
  2
{86B988C8-C266-4AF0-B867-1BA935D36732}
  9
$EXTNAMES
290
     1
  9
$PSVPSCALE
 40
0.0
  9
$OLESTARTUP
290
     0
  0
ENDSEC
  0
SECTION
  2
CLASSES
  0
CLASS
  1
IMAGE
  2
AcDbRasterImage
  3
ISM
 90
    34943
280
     0
281
     1
  0
CLASS
  1
DICTIONARYVAR
  2
AcDbDictionaryVar
  3
ObjectDBX Classes
 90
        0
280
     0
281
     0
  0
CLASS
  1
RASTERVARIABLES
  2
AcDbRasterVariables
  3
ISM
 90
    32768
280
     0
281
     0
  0
CLASS
  1
IMAGEDEF
  2
AcDbRasterImageDef
  3
ISM
 90
    32768
280
     0
281
     0
  0
CLASS
  1
IMAGEDEF_REACTOR
  2
AcDbRasterImageDefReactor
  3
ISM
 90
    32769
280
     0
281
     0
  0
CLASS
  1
IDBUFFER
  2
AcDbIdBuffer
  3
ObjectDBX Classes
 90
    32768
280
     0
281
     0
  0
CLASS
  1
SPATIAL_FILTER
  2
AcDbSpatialFilter
  3
ObjectDBX Classes
 90
    32768
280
     0
281
     0
  0
CLASS
  1
SORTENTSTABLE
  2
AcDbSortentsTable
  3
ObjectDBX Classes
 90
    32768
280
     0
281
     0
  0
CLASS
  1
LAYER_INDEX
  2
AcDbLayerIndex
  3
ObjectDBX Classes
 90
    32768
280
     0
281
     0
  0
CLASS
  1
SPATIAL_INDEX
  2
AcDbSpatialIndex
  3
ObjectDBX Classes
 90
    32768
280
     0
281
     0
  0
CLASS
  1
OBJECT_PTR
  2
CAseDLPNTableRecord
  3
"ASE-LPNTableRecord"
 90
    32769
280
     0
281
     0
  0
CLASS
  1
LAYOUT
  2
AcDbLayout
  3
ObjectDBX Classes
 90
        0
280
     0
281
     0
  0
CLASS
  1
PLOTSETTINGS
  2
AcDbPlotSettings
  3
ObjectDBX Classes
 90
    32768
280
     0
281
     0
  0
CLASS
  1
ACDBDICTIONARYWDFLT
  2
AcDbDictionaryWithDefault
  3
ObjectDBX Classes
 90
        0
280
     0
281
     0
  0
CLASS
  1
ACDBPLACEHOLDER
  2
AcDbPlaceHolder
  3
ObjectDBX Classes
 90
        0
280
     0
281
     0
  0
CLASS
  1
VBA_PROJECT
  2
AcDbVbaProject
  3
acad
 90
    32768
280
     0
281
     0
  0
CLASS
  1
WIPEOUT
  2
AcDbWipeout
  3
"WipeOut|Product Desc: Object Enabler for WipeOut entity                        |Company: Autodesk, Inc.                        |WEB Address: www.autodesk.com"
 90
    34943
280
     0
281
     1
  0
CLASS
  1
WIPEOUTVARIABLES
  2
AcDbWipeoutVariables
  3
"WipeOut|Product Desc:     WipeOut Dbx Application|Company:          Autodesk, Inc.|WEB Address:      www.autodesk.com"
 90
    32768
280
     0
281
     0
  0
CLASS
  1
RTEXT
  2
RText
  3
RText|AutoCAD Express Tool|expresstools@autodesk.com
 90
    32768
280
     0
281
     1
  0
CLASS
  1
ARCALIGNEDTEXT
  2
AcDbArcAlignedText
  3
ATEXT|AutoCAD Express Tool|expresstools@autodesk.com
 90
    32768
280
     0
281
     1
  0
CLASS
  1
MATERIAL
  2
AcDbMaterial
  3
ObjectDBX Classes
 90
     1153
280
     0
281
     0
  0
CLASS
  1
VISUALSTYLE
  2
AcDbVisualStyle
  3
ObjectDBX Classes
 90
     4095
280
     0
281
     0
  0
CLASS
  1
TABLESTYLE
  2
AcDbTableStyle
  3
ObjectDBX Classes
 90
     4095
280
     0
281
     0
  0
CLASS
  1
SCALE
  2
AcDbScale
  3
ObjectDBX Classes
 90
     1153
280
     0
281
     0
  0
CLASS
  1
MLEADERSTYLE
  2
AcDbMLeaderStyle
  3
ACDB_MLEADERSTYLE_CLASS
 90
     4095
280
     0
281
     0
  0
CLASS
  1
CELLSTYLEMAP
  2
AcDbCellStyleMap
  3
ObjectDBX Classes
 90
     1152
280
     0
281
     0
  0
ENDSEC
  0
SECTION
  2
TABLES
  0
TABLE
  2
VPORT
  5
6
330
0
100
AcDbSymbolTable
 70
     1
  0
VPORT
  5
1B
330
6
100
AcDbSymbolTableRecord
100
AcDbViewportTableRecord
  2
*ACTIVE
 70
     0
 10
0.0
 20
0.0
 11
1.0
 21
1.0
 12
66.10608802715842
 22
-131.7927123541185
 13
0.0
 23
0.0
 14
1.0
 24
1.0
 15
0.0
 25
0.0
 16
0.0
 26
0.0
 36
1.0
 17
0.0
 27
0.0
 37
0.0
 40
1223.318280608461
 41
2.320683111954459
 42
50.0
 43
0.0
 44
0.0
 50
0.0
 51
0.0
 71
     0
 72
   500
 73
     1
 74
     1
 75
     0
 76
     0
 77
     0
 78
     0
281
     0
 65
     1
110
0.0
120
0.0
130
0.0
111
1.0
121
0.0
131
0.0
112
0.0
122
1.0
132
0.0
 79
     0
146
0.0
  0
ENDTAB
  0
TABLE
  2
LTYPE
  5
3
330
0
100
AcDbSymbolTable
 70
     7
  0
LTYPE
  5
C
330
3
100
AcDbSymbolTableRecord
100
AcDbLinetypeTableRecord
  2
BYBLOCK
 70
     0
  3

 72
    65
 73
     0
 40
0.0
  0
LTYPE
  5
D
330
3
100
AcDbSymbolTableRecord
100
AcDbLinetypeTableRecord
  2
BYLAYER
 70
     0
  3

 72
    65
 73
     0
 40
0.0
  0
LTYPE
  5
E
330
3
100
AcDbSymbolTableRecord
100
AcDbLinetypeTableRecord
  2
CONTINUOUS
 70
     0
  3
Solid line
 72
    65
 73
     0
 40
0.0
  0
LTYPE
  5
F
330
3
100
AcDbSymbolTableRecord
100
AcDbLinetypeTableRecord
  2
DASHED
 70
     0
  3
__ __ __ __ __ __ __ __ __ __ __ __ __ __ __
 72
    65
 73
     2
 40
2.0
 49
1.199999999999999
 74
     0
 49
-0.8
 74
     0
  0
LTYPE
  5
10
330
3
100
AcDbSymbolTableRecord
100
AcDbLinetypeTableRecord
  2
CENTER
 70
     0
  3
____ _ ____ _ ____ _ ____ _ ____ _ ____ _ ____
 72
    65
 73
     4
 40
12.0
 49
9.0
 74
     0
 49
-1.0
 74
     0
 49
1.0
 74
     0
 49
-1.0
 74
     0
  0
LTYPE
  5
11
330
3
100
AcDbSymbolTableRecord
100
AcDbLinetypeTableRecord
  2
HIDDEN
 70
     0
  3
_ _ _ _ _ _ _ _ _ _ _ _ _ _ _ _ _ _ _ _ _ _ _
 72
    65
 73
     2
 40
3.2
 49
2.399999999999999
 74
     0
 49
-0.8
 74
     0
  0
LTYPE
  5
12
330
3
100
AcDbSymbolTableRecord
100
AcDbLinetypeTableRecord
  2
PHANTOM
 70
     0
  3
_____ _ _ _____ _ _ _____ _ _ _____ _ _ _____
 72
    65
 73
     6
 40
13.5
 49
9.0
 74
     0
 49
-1.0
 74
     0
 49
1.0
 74
     0
 49
-0.5
 74
     0
 49
1.0
 74
     0
 49
-1.0
 74
     0
  0
LTYPE
  5
13
330
3
100
AcDbSymbolTableRecord
100
AcDbLinetypeTableRecord
  2
DOT
 70
     0
  3
...............................................
 72
    65
 73
     2
 40
1.0
 49
0.5
 74
     0
 49
-0.5
 74
     0
  0
LTYPE
  5
14
330
3
100
AcDbSymbolTableRecord
100
AcDbLinetypeTableRecord
  2
DASHDOT
 70
     0
  3
__ . __ . __ . __ . __ . __ . __ . __ . __ . __
 72
    65
 73
     4
 40
8.0
 49
5.0
 74
     0
 49
-1.0
 74
     0
 49
1.0
 74
     0
 49
-1.0
 74
     0
  0
ENDTAB
  0
TABLE
  2
LAYER
  5
1
102
{ACAD_XDICTIONARY
360
919
102
}
330
0
100
AcDbSymbolTable
 70
     7
  0
LAYER
  5
15
102
{ACAD_XDICTIONARY
360
8F3
102
}
330
1
100
AcDbSymbolTableRecord
100
AcDbLayerTableRecord
  2
0
 70
     0
 62
     7
  6
CONTINUOUS
370
    -3
390
87A
  0
LAYER
  5
16
102
{ACAD_XDICTIONARY
360
8F5
102
}
330
1
100
AcDbSymbolTableRecord
100
AcDbLayerTableRecord
  2
1
 70
     0
 62
     7
  6
CONTINUOUS
370
    -3
390
87A
  0
LAYER
  5
17
102
{ACAD_XDICTIONARY
360
8F7
102
}
330
1
100
AcDbSymbolTableRecord
100
AcDbLayerTableRecord
  2
2
 70
     0
 62
     7
  6
CONTINUOUS
370
    -3
390
87A
  0
LAYER
  5
18
102
{ACAD_XDICTIONARY
360
8F9
102
}
330
1
100
AcDbSymbolTableRecord
100
AcDbLayerTableRecord
  2
5
 70
     0
 62
     7
  6
CONTINUOUS
370
    -3
390
87A
  0
LAYER
  5
19
102
{ACAD_XDICTIONARY
360
8FB
102
}
330
1
100
AcDbSymbolTableRecord
100
AcDbLayerTableRecord
  2
18
 70
     0
 62
     7
  6
CONTINUOUS
370
    -3
390
87A
  0
LAYER
  5
1A
102
{ACAD_XDICTIONARY
360
8FD
102
}
330
1
100
AcDbSymbolTableRecord
100
AcDbLayerTableRecord
  2
20
 70
     0
 62
     7
  6
CONTINUOUS
370
    -3
390
87A
  0
LAYER
  5
917
330
1
100
AcDbSymbolTableRecord
100
AcDbLayerTableRecord
  2
Defpoint
 70
     0
 62
     7
  6
CONTINUOUS
290
     0
370
    -3
390
87A
1001
AcAecLayerStandard
1000

1000

  0
ENDTAB
  0
TABLE
  2
STYLE
  5
2
330
0
100
AcDbSymbolTable
 70
     1
  0
STYLE
  5
1D
330
2
100
AcDbSymbolTableRecord
100
AcDbTextStyleTableRecord
  2
STANDARD
 70
     0
 40
0.0
 41
1.0
 50
0.0
 71
     0
 42
1.0
  3
txt
  4
BIGFONT
  0
ENDTAB
  0
TABLE
  2
VIEW
  5
4
330
0
100
AcDbSymbolTable
 70
     0
  0
ENDTAB
  0
TABLE
  2
UCS
  5
5
330
0
100
AcDbSymbolTable
 70
     0
  0
ENDTAB
  0
TABLE
  2
APPID
  5
7
330
0
100
AcDbSymbolTable
 70
     4
  0
APPID
  5
1C
330
7
100
AcDbSymbolTableRecord
100
AcDbRegAppTableRecord
  2
ACAD
 70
     0
  0
APPID
  5
8CC
330
7
100
AcDbSymbolTableRecord
100
AcDbRegAppTableRecord
  2
ACAD_MLEADERVER
 70
     0
  0
APPID
  5
8D2
330
7
100
AcDbSymbolTableRecord
100
AcDbRegAppTableRecord
  2
ACAD_PSEXT
 70
     0
  0
APPID
  5
918
330
7
100
AcDbSymbolTableRecord
100
AcDbRegAppTableRecord
  2
AcAecLayerStandard
 70
     0
  0
ENDTAB
  0
TABLE
  2
DIMSTYLE
  5
8
330
0
100
AcDbSymbolTable
 70
     1
100
AcDbDimStyleTable
 71
     1
340
2D
  0
DIMSTYLE
105
2D
330
8
100
AcDbSymbolTableRecord
100
AcDbDimStyleTableRecord
  2
STANDARD
 70
     0
 40
3.0
 77
     1
340
1D
  0
ENDTAB
  0
TABLE
  2
BLOCK_RECORD
  5
28
330
0
100
AcDbSymbolTable
 70
     8
  0
BLOCK_RECORD
  5
26
330
28
100
AcDbSymbolTableRecord
100
AcDbBlockTableRecord
  2
*MODEL_SPACE
340
8CF
  0
BLOCK_RECORD
  5
27
330
28
100
AcDbSymbolTableRecord
100
AcDbBlockTableRecord
  2
*PAPER_SPACE
340
8D0
  0
BLOCK_RECORD
  5
1E
330
28
100
AcDbSymbolTableRecord
100
AcDbBlockTableRecord
  2
*D0
340
0
  0
BLOCK_RECORD
  5
1F
330
28
100
AcDbSymbolTableRecord
100
AcDbBlockTableRecord
  2
*D1
340
0
  0
BLOCK_RECORD
  5
20
330
28
100
AcDbSymbolTableRecord
100
AcDbBlockTableRecord
  2
*D2
340
0
  0
BLOCK_RECORD
  5
21
330
28
100
AcDbSymbolTableRecord
100
AcDbBlockTableRecord
  2
*D3
340
0
  0
BLOCK_RECORD
  5
22
330
28
100
AcDbSymbolTableRecord
100
AcDbBlockTableRecord
  2
*D4
340
0
  0
BLOCK_RECORD
  5
23
330
28
100
AcDbSymbolTableRecord
100
AcDbBlockTableRecord
  2
*D5
340
0
  0
BLOCK_RECORD
  5
24
330
28
100
AcDbSymbolTableRecord
100
AcDbBlockTableRecord
  2
*D6
340
0
  0
BLOCK_RECORD
  5
25
330
28
100
AcDbSymbolTableRecord
100
AcDbBlockTableRecord
  2
*D7
340
0
  0
ENDTAB
  0
ENDSEC
  0
SECTION
  2
BLOCKS
  0
BLOCK
  5
29
330
26
100
AcDbEntity
  8
0
100
AcDbBlockBegin
  2
*MODEL_SPACE
 70
     0
 10
0.0
 20
0.0
 30
0.0
  3
*MODEL_SPACE
  1

  0
ENDBLK
  5
2A
330
26
100
AcDbEntity
  8
0
100
AcDbBlockEnd
  0
BLOCK
  5
2B
330
27
100
AcDbEntity
 67
     1
  8
0
100
AcDbBlockBegin
  2
*PAPER_SPACE
 70
     0
 10
0.0
 20
0.0
 30
0.0
  3
*PAPER_SPACE
  1

  0
ENDBLK
  5
2C
330
27
100
AcDbEntity
 67
     1
  8
0
100
AcDbBlockEnd
  0
BLOCK
  5
78C
330
1E
100
AcDbEntity
  8
5
100
AcDbBlockBegin
  2
*D0
 70
     1
 10
0.0
 20
0.0
 30
0.0
  3
*D0
  1

  0
TEXT
  5
78D
330
1E
100
AcDbEntity
  8
5
 62
     2
100
AcDbText
 10
-50.558516
 20
-211.651662
 30
0.0
 40
9.9
  1
151
 50
90.0
 41
0.9099999999999999
 72
     5
 11
-50.558516
 21
-193.633662
 31
0.0
100
AcDbText
  0
LINE
  5
78E
330
1E
100
AcDbEntity
  8
5
 62
     2
100
AcDbLine
 10
71.097532
 20
-276.756662
 30
0.0
 11
-52.05851599999999
 21
-276.756662
 31
0.0
  0
LINE
  5
78F
330
1E
100
AcDbEntity
  8
5
 62
     2
100
AcDbLine
 10
-49.058516
 20
-276.756662
 30
0.0
 11
-47.505601
 21
-270.961107
 31
0.0
  0
LINE
  5
790
330
1E
100
AcDbEntity
  8
5
 62
     2
100
AcDbLine
 10
-49.058516
 20
-276.756662
 30
0.0
 11
-50.61143
 21
-270.961107
 31
0.0
  0
LINE
  5
791
330
1E
100
AcDbEntity
  8
5
 62
     2
100
AcDbLine
 10
-47.505601
 20
-270.961107
 30
0.0
 11
-50.61143
 21
-270.961107
 31
0.0
  0
LINE
  5
792
330
1E
100
AcDbEntity
  8
5
 62
     2
100
AcDbLine
 10
-49.058516
 20
-276.756662
 30
0.0
 11
-49.058516
 21
-125.756662
 31
0.0
  0
LINE
  5
793
330
1E
100
AcDbEntity
  8
5
 62
     2
100
AcDbLine
 10
-49.058516
 20
-125.756662
 30
0.0
 11
-50.61143
 21
-131.552217
 31
0.0
  0
LINE
  5
794
330
1E
100
AcDbEntity
  8
5
 62
     2
100
AcDbLine
 10
-49.058516
 20
-125.756662
 30
0.0
 11
-47.505601
 21
-131.552217
 31
0.0
  0
LINE
  5
795
330
1E
100
AcDbEntity
  8
5
 62
     2
100
AcDbLine
 10
-50.61143
 20
-131.552217
 30
0.0
 11
-47.505601
 21
-131.552217
 31
0.0
  0
LINE
  5
796
330
1E
100
AcDbEntity
  8
5
 62
     2
100
AcDbLine
 10
73.503242
 20
-125.756662
 30
0.0
 11
-52.05851599999999
 21
-125.756662
 31
0.0
  0
ENDBLK
  5
797
330
1E
100
AcDbEntity
  8
5
100
AcDbBlockEnd
  0
BLOCK
  5
798
330
1F
100
AcDbEntity
  8
5
100
AcDbBlockBegin
  2
*D1
 70
     1
 10
0.0
 20
0.0
 30
0.0
  3
*D1
  1

  0
TEXT
  5
799
330
1F
100
AcDbEntity
  8
5
 62
     2
100
AcDbText
 10
-50.558516
 20
-323.086662
 30
0.0
 40
9.9
  1
79
 50
90.0
 41
0.671999999999998
 72
     5
 11
-50.558516
 21
-311.998662
 31
0.0
100
AcDbText
  0
LINE
  5
79A
330
1F
100
AcDbEntity
  8
5
 62
     2
100
AcDbLine
 10
96.518347
 20
-355.556662
 30
0.0
 11
-52.05851599999999
 21
-355.556662
 31
0.0
  0
LINE
  5
79B
330
1F
100
AcDbEntity
  8
5
 62
     2
100
AcDbLine
 10
-49.058516
 20
-355.556662
 30
0.0
 11
-47.505601
 21
-349.761107
 31
0.0
  0
LINE
  5
79C
330
1F
100
AcDbEntity
  8
5
 62
     2
100
AcDbLine
 10
-49.058516
 20
-355.556662
 30
0.0
 11
-50.61143
 21
-349.761107
 31
0.0
  0
LINE
  5
79D
330
1F
100
AcDbEntity
  8
5
 62
     2
100
AcDbLine
 10
-47.505601
 20
-349.761107
 30
0.0
 11
-50.61143
 21
-349.761107
 31
0.0
  0
LINE
  5
79E
330
1F
100
AcDbEntity
  8
5
 62
     2
100
AcDbLine
 10
-49.058516
 20
-355.556662
 30
0.0
 11
-49.058516
 21
-276.756662
 31
0.0
  0
LINE
  5
79F
330
1F
100
AcDbEntity
  8
5
 62
     2
100
AcDbLine
 10
-49.058516
 20
-276.756662
 30
0.0
 11
-50.61143
 21
-282.552217
 31
0.0
  0
LINE
  5
7A0
330
1F
100
AcDbEntity
  8
5
 62
     2
100
AcDbLine
 10
-49.058516
 20
-276.756662
 30
0.0
 11
-47.505601
 21
-282.552217
 31
0.0
  0
LINE
  5
7A1
330
1F
100
AcDbEntity
  8
5
 62
     2
100
AcDbLine
 10
-50.61143
 20
-282.552217
 30
0.0
 11
-47.505601
 21
-282.552217
 31
0.0
  0
LINE
  5
7A2
330
1F
100
AcDbEntity
  8
5
 62
     2
100
AcDbLine
 10
71.097532
 20
-276.756662
 30
0.0
 11
-52.05851599999999
 21
-276.756662
 31
0.0
  0
ENDBLK
  5
7A3
330
1F
100
AcDbEntity
  8
5
100
AcDbBlockEnd
  0
BLOCK
  5
7A4
330
20
100
AcDbEntity
  8
5
100
AcDbBlockBegin
  2
*D2
 70
     1
 10
0.0
 20
0.0
 30
0.0
  3
*D2
  1

  0
TEXT
  5
7A5
330
20
100
AcDbEntity
  8
5
 62
     2
100
AcDbText
 10
104.573242
 20
-384.322357
 30
0.0
 40
9.9
  1
46
 41
0.6719999999999988
 72
     5
 11
115.661242
 21
-384.322357
 31
0.0
100
AcDbText
  0
LINE
  5
7A6
330
20
100
AcDbEntity
  8
5
 62
     2
100
AcDbLine
 10
88.50324200000001
 20
-337.256662
 30
0.0
 11
88.50324200000001
 21
-388.822357
 31
0.0
  0
LINE
  5
7A7
330
20
100
AcDbEntity
  8
5
 62
     2
100
AcDbLine
 10
88.50324200000001
 20
-385.822357
 30
0.0
 11
94.29879699999998
 21
-387.375271
 31
0.0
  0
LINE
  5
7A8
330
20
100
AcDbEntity
  8
5
 62
     2
100
AcDbLine
 10
88.50324200000001
 20
-385.822357
 30
0.0
 11
94.29879699999998
 21
-384.269443
 31
0.0
  0
LINE
  5
7A9
330
20
100
AcDbEntity
  8
5
 62
     2
100
AcDbLine
 10
94.29879699999998
 20
-387.375271
 30
0.0
 11
94.29879699999998
 21
-384.269443
 31
0.0
  0
LINE
  5
7AA
330
20
100
AcDbEntity
  8
5
 62
     2
100
AcDbLine
 10
88.50324200000001
 20
-385.822357
 30
0.0
 11
134.503242
 21
-385.822357
 31
0.0
  0
LINE
  5
7AB
330
20
100
AcDbEntity
  8
5
 62
     2
100
AcDbLine
 10
134.503242
 20
-385.822357
 30
0.0
 11
128.707687
 21
-384.269443
 31
0.0
  0
LINE
  5
7AC
330
20
100
AcDbEntity
  8
5
 62
     2
100
AcDbLine
 10
134.503242
 20
-385.822357
 30
0.0
 11
128.707687
 21
-387.375271
 31
0.0
  0
LINE
  5
7AD
330
20
100
AcDbEntity
  8
5
 62
     2
100
AcDbLine
 10
128.707687
 20
-384.269443
 30
0.0
 11
128.707687
 21
-387.375271
 31
0.0
  0
LINE
  5
7AE
330
20
100
AcDbEntity
  8
5
 62
     2
100
AcDbLine
 10
134.503242
 20
-339.756662
 30
0.0
 11
134.503242
 21
-388.822357
 31
0.0
  0
ENDBLK
  5
7AF
330
20
100
AcDbEntity
  8
5
100
AcDbBlockEnd
  0
BLOCK
  5
7B0
330
21
100
AcDbEntity
  8
5
100
AcDbBlockBegin
  2
*D3
 70
     1
 10
0.0
 20
0.0
 30
0.0
  3
*D3
  1

  0
TEXT
  5
7B1
330
21
100
AcDbEntity
  8
5
 62
     2
100
AcDbText
 10
-136.700031
 20
266.784838
 30
0.0
 40
9.9
  1
53.8
 50
90.0
 41
0.8400000000000011
 72
     5
 11
-136.700031
 21
291.732838
 31
0.0
100
AcDbText
  0
LINE
  5
7B2
330
21
100
AcDbEntity
  8
5
 62
     2
100
AcDbLine
 10
-166.641205
 20
253.743338
 30
0.0
 11
-132.200031
 21
253.743338
 31
0.0
  0
LINE
  5
7B3
330
21
100
AcDbEntity
  8
5
 62
     2
100
AcDbLine
 10
-135.200031
 20
253.743338
 30
0.0
 11
-133.647117
 21
259.538893
 31
0.0
  0
LINE
  5
7B4
330
21
100
AcDbEntity
  8
5
 62
     2
100
AcDbLine
 10
-135.200031
 20
253.743338
 30
0.0
 11
-136.752946
 21
259.538893
 31
0.0
  0
LINE
  5
7B5
330
21
100
AcDbEntity
  8
5
 62
     2
100
AcDbLine
 10
-133.647117
 20
259.538893
 30
0.0
 11
-136.752946
 21
259.538893
 31
0.0
  0
LINE
  5
7B6
330
21
100
AcDbEntity
  8
5
 62
     2
100
AcDbLine
 10
-135.200031
 20
253.743338
 30
0.0
 11
-135.200031
 21
307.546338
 31
0.0
  0
LINE
  5
7B7
330
21
100
AcDbEntity
  8
5
 62
     2
100
AcDbLine
 10
-135.200031
 20
307.546338
 30
0.0
 11
-136.752946
 21
301.750783
 31
0.0
  0
LINE
  5
7B8
330
21
100
AcDbEntity
  8
5
 62
     2
100
AcDbLine
 10
-135.200031
 20
307.546338
 30
0.0
 11
-133.647117
 21
301.750783
 31
0.0
  0
LINE
  5
7B9
330
21
100
AcDbEntity
  8
5
 62
     2
100
AcDbLine
 10
-136.752946
 20
301.750783
 30
0.0
 11
-133.647117
 21
301.750783
 31
0.0
  0
LINE
  5
7BA
330
21
100
AcDbEntity
  8
5
 62
     2
100
AcDbLine
 10
-188.343758
 20
307.546338
 30
0.0
 11
-132.200031
 21
307.546338
 31
0.0
  0
ENDBLK
  5
7BB
330
21
100
AcDbEntity
  8
5
100
AcDbBlockEnd
  0
BLOCK
  5
7BC
330
22
100
AcDbEntity
  8
5
100
AcDbBlockBegin
  2
*D4
 70
     1
 10
0.0
 20
0.0
 30
0.0
  3
*D4
  1

  0
TEXT
  5
7BD
330
22
100
AcDbEntity
  8
5
 62
     2
100
AcDbText
 10
-136.700031
 20
204.313338
 30
0.0
 40
9.9
  1
85
 50
90.0
 41
0.6719999999999997
 72
     5
 11
-136.700031
 21
215.401338
 31
0.0
100
AcDbText
  0
LINE
  5
7BE
330
22
100
AcDbEntity
  8
5
 62
     2
100
AcDbLine
 10
-231.446758
 20
168.743338
 30
0.0
 11
-132.200031
 21
168.743338
 31
0.0
  0
LINE
  5
7BF
330
22
100
AcDbEntity
  8
5
 62
     2
100
AcDbLine
 10
-135.200031
 20
168.743338
 30
0.0
 11
-133.647117
 21
174.538893
 31
0.0
  0
LINE
  5
7C0
330
22
100
AcDbEntity
  8
5
 62
     2
100
AcDbLine
 10
-135.200031
 20
168.743338
 30
0.0
 11
-136.752946
 21
174.538893
 31
0.0
  0
LINE
  5
7C1
330
22
100
AcDbEntity
  8
5
 62
     2
100
AcDbLine
 10
-133.647117
 20
174.538893
 30
0.0
 11
-136.752946
 21
174.538893
 31
0.0
  0
LINE
  5
7C2
330
22
100
AcDbEntity
  8
5
 62
     2
100
AcDbLine
 10
-135.200031
 20
168.743338
 30
0.0
 11
-135.200031
 21
253.743338
 31
0.0
  0
LINE
  5
7C3
330
22
100
AcDbEntity
  8
5
 62
     2
100
AcDbLine
 10
-135.200031
 20
253.743338
 30
0.0
 11
-136.752946
 21
247.947783
 31
0.0
  0
LINE
  5
7C4
330
22
100
AcDbEntity
  8
5
 62
     2
100
AcDbLine
 10
-135.200031
 20
253.743338
 30
0.0
 11
-133.647117
 21
247.947783
 31
0.0
  0
LINE
  5
7C5
330
22
100
AcDbEntity
  8
5
 62
     2
100
AcDbLine
 10
-136.752946
 20
247.947783
 30
0.0
 11
-133.647117
 21
247.947783
 31
0.0
  0
ENDBLK
  5
7C6
330
22
100
AcDbEntity
  8
5
100
AcDbBlockEnd
  0
BLOCK
  5
7C7
330
23
100
AcDbEntity
  8
5
100
AcDbBlockBegin
  2
*D5
 70
     1
 10
0.0
 20
0.0
 30
0.0
  3
*D5
  1

  0
TEXT
  5
7C8
330
23
100
AcDbEntity
  8
5
 62
     2
100
AcDbText
 10
-335.541758
 20
359.076576
 30
0.0
 40
9.9
  1
100
 41
0.9100000000000015
 72
     5
 11
-317.523758
 21
359.076576
 31
0.0
100
AcDbText
  0
LINE
  5
7C9
330
23
100
AcDbEntity
  8
5
 62
     2
100
AcDbLine
 10
-375.146758
 20
226.243338
 30
0.0
 11
-375.146758
 21
360.576576
 31
0.0
  0
LINE
  5
7CA
330
23
100
AcDbEntity
  8
5
 62
     2
100
AcDbLine
 10
-375.146758
 20
357.576576
 30
0.0
 11
-369.351203
 21
356.023662
 31
0.0
  0
LINE
  5
7CB
330
23
100
AcDbEntity
  8
5
 62
     2
100
AcDbLine
 10
-375.146758
 20
357.576576
 30
0.0
 11
-369.351203
 21
359.129491
 31
0.0
  0
LINE
  5
7CC
330
23
100
AcDbEntity
  8
5
 62
     2
100
AcDbLine
 10
-369.351203
 20
356.023662
 30
0.0
 11
-369.351203
 21
359.129491
 31
0.0
  0
LINE
  5
7CD
330
23
100
AcDbEntity
  8
5
 62
     2
100
AcDbLine
 10
-375.146758
 20
357.576576
 30
0.0
 11
-275.146758
 21
357.576576
 31
0.0
  0
LINE
  5
7CE
330
23
100
AcDbEntity
  8
5
 62
     2
100
AcDbLine
 10
-275.146758
 20
357.576576
 30
0.0
 11
-280.942313
 21
359.129491
 31
0.0
  0
LINE
  5
7CF
330
23
100
AcDbEntity
  8
5
 62
     2
100
AcDbLine
 10
-275.146758
 20
357.576576
 30
0.0
 11
-280.942313
 21
356.023662
 31
0.0
  0
LINE
  5
7D0
330
23
100
AcDbEntity
  8
5
 62
     2
100
AcDbLine
 10
-280.942313
 20
359.129491
 30
0.0
 11
-280.942313
 21
356.023662
 31
0.0
  0
LINE
  5
7D1
330
23
100
AcDbEntity
  8
5
 62
     2
100
AcDbLine
 10
-275.146758
 20
320.912382
 30
0.0
 11
-275.146758
 21
360.576576
 31
0.0
  0
ENDBLK
  5
7D2
330
23
100
AcDbEntity
  8
5
100
AcDbBlockEnd
  0
BLOCK
  5
7D3
330
24
100
AcDbEntity
  8
5
100
AcDbBlockBegin
  2
*D6
 70
     1
 10
0.0
 20
0.0
 30
0.0
  3
*D6
  1

  0
TEXT
  5
7D4
330
24
100
AcDbEntity
  8
5
 62
     2
100
AcDbText
 10
-234.541758
 20
359.076576
 30
0.0
 40
9.9
  1
102
 41
0.84
 72
     5
 11
-216.523758
 21
359.076576
 31
0.0
100
AcDbText
  0
LINE
  5
7D5
330
24
100
AcDbEntity
  8
5
 62
     2
100
AcDbLine
 10
-275.146758
 20
357.576576
 30
0.0
 11
-269.351203
 21
356.023662
 31
0.0
  0
LINE
  5
7D6
330
24
100
AcDbEntity
  8
5
 62
     2
100
AcDbLine
 10
-275.146758
 20
357.576576
 30
0.0
 11
-269.351203
 21
359.129491
 31
0.0
  0
LINE
  5
7D7
330
24
100
AcDbEntity
  8
5
 62
     2
100
AcDbLine
 10
-269.351203
 20
356.023662
 30
0.0
 11
-269.351203
 21
359.129491
 31
0.0
  0
LINE
  5
7D8
330
24
100
AcDbEntity
  8
5
 62
     2
100
AcDbLine
 10
-275.146758
 20
357.576576
 30
0.0
 11
-173.146758
 21
357.576576
 31
0.0
  0
LINE
  5
7D9
330
24
100
AcDbEntity
  8
5
 62
     2
100
AcDbLine
 10
-173.146758
 20
357.576576
 30
0.0
 11
-178.942313
 21
359.129491
 31
0.0
  0
LINE
  5
7DA
330
24
100
AcDbEntity
  8
5
 62
     2
100
AcDbLine
 10
-173.146758
 20
357.576576
 30
0.0
 11
-178.942313
 21
356.023662
 31
0.0
  0
LINE
  5
7DB
330
24
100
AcDbEntity
  8
5
 62
     2
100
AcDbLine
 10
-178.942313
 20
359.129491
 30
0.0
 11
-178.942313
 21
356.023662
 31
0.0
  0
LINE
  5
7DC
330
24
100
AcDbEntity
  8
5
 62
     2
100
AcDbLine
 10
-173.146758
 20
294.743338
 30
0.0
 11
-173.146758
 21
360.576576
 31
0.0
  0
ENDBLK
  5
7DD
330
24
100
AcDbEntity
  8
5
100
AcDbBlockEnd
  0
BLOCK
  5
7DE
330
25
100
AcDbEntity
  8
5
100
AcDbBlockBegin
  2
*D7
 70
     1
 10
0.0
 20
0.0
 30
0.0
  3
*D7
  1

  0
TEXT
  5
7DF
330
25
100
AcDbEntity
  8
5
 62
     2
100
AcDbText
 10
-50.558516
 20
-61.151662
 30
0.0
 40
9.9
  1
150
 50
90.0
 41
0.8400000000000002
 72
     5
 11
-50.558516
 21
-43.13366199999999
 31
0.0
100
AcDbText
  0
LINE
  5
7E0
330
25
100
AcDbEntity
  8
5
 62
     2
100
AcDbLine
 10
73.503242
 20
-125.756662
 30
0.0
 11
-52.05851599999999
 21
-125.756662
 31
0.0
  0
LINE
  5
7E1
330
25
100
AcDbEntity
  8
5
 62
     2
100
AcDbLine
 10
-49.058516
 20
-125.756662
 30
0.0
 11
-47.505601
 21
-119.961107
 31
0.0
  0
LINE
  5
7E2
330
25
100
AcDbEntity
  8
5
 62
     2
100
AcDbLine
 10
-49.058516
 20
-125.756662
 30
0.0
 11
-50.61143
 21
-119.961107
 31
0.0
  0
LINE
  5
7E3
330
25
100
AcDbEntity
  8
5
 62
     2
100
AcDbLine
 10
-47.505601
 20
-119.961107
 30
0.0
 11
-50.61143
 21
-119.961107
 31
0.0
  0
LINE
  5
7E4
330
25
100
AcDbEntity
  8
5
 62
     2
100
AcDbLine
 10
-49.058516
 20
-125.756662
 30
0.0
 11
-49.058516
 21
24.243338
 31
0.0
  0
LINE
  5
7E5
330
25
100
AcDbEntity
  8
5
 62
     2
100
AcDbLine
 10
-49.058516
 20
24.243338
 30
0.0
 11
-50.61143
 21
18.44778299999999
 31
0.0
  0
LINE
  5
7E6
330
25
100
AcDbEntity
  8
5
 62
     2
100
AcDbLine
 10
-49.058516
 20
24.243338
 30
0.0
 11
-47.505601
 21
18.44778299999999
 31
0.0
  0
LINE
  5
7E7
330
25
100
AcDbEntity
  8
5
 62
     2
100
AcDbLine
 10
-50.61143
 20
18.44778299999999
 30
0.0
 11
-47.505601
 21
18.44778299999999
 31
0.0
  0
LINE
  5
7E8
330
25
100
AcDbEntity
  8
5
 62
     2
100
AcDbLine
 10
108.503242
 20
24.243338
 30
0.0
 11
-52.05851599999999
 21
24.243338
 31
0.0
  0
ENDBLK
  5
7E9
330
25
100
AcDbEntity
  8
5
100
AcDbBlockEnd
  0
ENDSEC
  0
SECTION
  2
ENTITIES
  0
LINE
  5
2E
330
26
100
AcDbEntity
  8
1
  6
CENTER
 62
     2
100
AcDbLine
 10
-250.396758
 20
-117.771959
 30
0.0
 11
-250.396758
 21
-146.350849
 31
0.0
  0
LINE
  5
2F
330
26
100
AcDbEntity
  8
1
  6
CENTER
 62
     2
100
AcDbLine
 10
-299.896758
 20
-117.771959
 30
0.0
 11
-299.896758
 21
-146.350849
 31
0.0
  0
LINE
  5
30
330
26
100
AcDbEntity
  8
1
  6
CENTER
 62
     2
100
AcDbLine
 10
136.253242
 20
-117.771959
 30
0.0
 11
136.253242
 21
-146.350849
 31
0.0
  0
LINE
  5
31
330
26
100
AcDbEntity
  8
1
  6
CENTER
 62
     2
100
AcDbLine
 10
86.753242
 20
-117.771959
 30
0.0
 11
86.753242
 21
-146.350849
 31
0.0
  0
LINE
  5
32
330
26
100
AcDbEntity
  8
1
  6
CENTER
 62
     2
100
AcDbLine
 10
-275.146758
 20
29.472058
 30
0.0
 11
-275.146758
 21
-365.688915
 31
0.0
  0
LINE
  5
33
330
26
100
AcDbEntity
  8
1
  6
CENTER
 62
     2
100
AcDbLine
 10
111.503242
 20
31.766313
 30
0.0
 11
111.503242
 21
-365.688915
 31
0.0
  0
LINE
  5
34
330
26
100
AcDbEntity
  8
1
  6
DASHED
100
AcDbLine
 10
-300.146758
 20
288.743338
 30
0.0
 11
-250.146758
 21
288.743338
 31
0.0
  0
LINE
  5
35
330
26
100
AcDbEntity
  8
1
  6
DASHED
100
AcDbLine
 10
-300.146758
 20
218.743338
 30
0.0
 11
-250.146758
 21
218.743338
 31
0.0
  0
LINE
  5
36
330
26
100
AcDbEntity
  8
1
  6
DASHED
100
AcDbLine
 10
-310.146758
 20
228.743338
 30
0.0
 11
-310.146758
 21
278.743338
 31
0.0
  0
LINE
  5
37
330
26
100
AcDbEntity
  8
1
  6
DASHED
100
AcDbLine
 10
-240.146758
 20
228.743338
 30
0.0
 11
-240.146758
 21
278.743338
 31
0.0
  0
ARC
  5
38
330
26
100
AcDbEntity
  8
1
  6
DASHED
100
AcDbCircle
 10
-300.146758
 20
228.743338
 30
0.0
 40
10.0
100
AcDbArc
 50
180.0
 51
270.0
  0
ARC
  5
39
330
26
100
AcDbEntity
  8
1
  6
DASHED
100
AcDbCircle
 10
-250.146758
 20
228.743338
 30
0.0
 40
10.0
100
AcDbArc
 50
270.0
 51
0.0
  0
ARC
  5
3A
330
26
100
AcDbEntity
  8
1
  6
DASHED
100
AcDbCircle
 10
-250.146758
 20
278.743338
 30
0.0
 40
10.0
100
AcDbArc
 50
0.0
 51
90.0
  0
ARC
  5
3B
330
26
100
AcDbEntity
  8
1
  6
DASHED
100
AcDbCircle
 10
-300.146758
 20
278.743338
 30
0.0
 40
10.0
100
AcDbArc
 50
90.0
 51
180.0
  0
CIRCLE
  5
3C
330
26
100
AcDbEntity
  8
1
  6
DASHED
100
AcDbCircle
 10
-250.396758
 20
278.493338
 30
0.0
 40
4.5
  0
CIRCLE
  5
3D
330
26
100
AcDbEntity
  8
1
  6
DASHED
100
AcDbCircle
 10
-250.396758
 20
228.993338
 30
0.0
 40
4.5
  0
CIRCLE
  5
3E
330
26
100
AcDbEntity
  8
1
  6
DASHED
100
AcDbCircle
 10
-299.896758
 20
228.993338
 30
0.0
 40
4.5
  0
CIRCLE
  5
3F
330
26
100
AcDbEntity
  8
1
  6
DASHED
100
AcDbCircle
 10
-299.896758
 20
278.493338
 30
0.0
 40
4.5
  0
LINE
  5
40
330
26
100
AcDbEntity
  8
1
  6
CENTER
 62
     2
100
AcDbLine
 10
-258.896758
 20
278.493338
 30
0.0
 11
-241.896758
 21
278.493338
 31
0.0
  0
LINE
  5
41
330
26
100
AcDbEntity
  8
1
  6
CENTER
 62
     2
100
AcDbLine
 10
-250.396758
 20
269.993338
 30
0.0
 11
-250.396758
 21
286.993338
 31
0.0
  0
LINE
  5
42
330
26
100
AcDbEntity
  8
1
  6
CENTER
 62
     2
100
AcDbLine
 10
-291.396758
 20
278.493338
 30
0.0
 11
-308.396758
 21
278.493338
 31
0.0
  0
LINE
  5
43
330
26
100
AcDbEntity
  8
1
  6
CENTER
 62
     2
100
AcDbLine
 10
-299.896758
 20
269.993338
 30
0.0
 11
-299.896758
 21
286.993338
 31
0.0
  0
LINE
  5
44
330
26
100
AcDbEntity
  8
1
  6
CENTER
 62
     2
100
AcDbLine
 10
-258.896758
 20
228.993338
 30
0.0
 11
-241.896758
 21
228.993338
 31
0.0
  0
LINE
  5
45
330
26
100
AcDbEntity
  8
1
  6
CENTER
 62
     2
100
AcDbLine
 10
-250.396758
 20
237.493338
 30
0.0
 11
-250.396758
 21
220.493338
 31
0.0
  0
LINE
  5
46
330
26
100
AcDbEntity
  8
1
  6
CENTER
 62
     2
100
AcDbLine
 10
-291.396758
 20
228.993338
 30
0.0
 11
-308.396758
 21
228.993338
 31
0.0
  0
LINE
  5
47
330
26
100
AcDbEntity
  8
1
  6
CENTER
 62
     2
100
AcDbLine
 10
-299.896758
 20
237.493338
 30
0.0
 11
-299.896758
 21
220.493338
 31
0.0
  0
LINE
  5
48
330
26
100
AcDbEntity
  8
1
  6
DASHED
100
AcDbLine
 10
-240.146758
 20
266.243338
 30
0.0
 11
-231.420005
 21
266.243338
 31
0.0
  0
LINE
  5
49
330
26
100
AcDbEntity
  8
1
  6
DASHED
100
AcDbLine
 10
-240.146758
 20
241.243338
 30
0.0
 11
-231.420005
 21
241.243338
 31
0.0
  0
LINE
  5
4A
330
26
100
AcDbEntity
  8
1
  6
DASHED
100
AcDbLine
 10
-215.146758
 20
276.743338
 30
0.0
 11
-240.146758
 21
276.743338
 31
0.0
  0
LINE
  5
4B
330
26
100
AcDbEntity
  8
1
  6
DASHED
100
AcDbLine
 10
-217.646758
 20
230.743338
 30
0.0
 11
-240.146758
 21
230.743338
 31
0.0
  0
LINE
  5
4C
330
26
100
AcDbEntity
  8
1
  6
DASHED
100
AcDbLine
 10
-214.146758
 20
272.143338
 30
0.0
 11
-240.146758
 21
272.143338
 31
0.0
  0
LINE
  5
4D
330
26
100
AcDbEntity
  8
1
  6
DASHED
100
AcDbLine
 10
-214.146758
 20
272.143338
 30
0.0
 11
-214.146758
 21
275.743338
 31
0.0
  0
LINE
  5
4E
330
26
100
AcDbEntity
  8
1
  6
DASHED
100
AcDbLine
 10
-214.146758
 20
272.143338
 30
0.0
 11
-215.423215
 21
271.801313
 31
0.0
  0
LINE
  5
4F
330
26
100
AcDbEntity
  8
1
  6
DASHED
100
AcDbLine
 10
-214.146758
 20
275.743338
 30
0.0
 11
-215.146758
 21
276.743338
 31
0.0
  0
LINE
  5
50
330
26
100
AcDbEntity
  8
1
  6
DASHED
100
AcDbLine
 10
-214.146758
 20
275.743338
 30
0.0
 11
-240.146758
 21
275.743338
 31
0.0
  0
LINE
  5
51
330
26
100
AcDbEntity
  8
1
  6
DASHED
100
AcDbLine
 10
-217.646758
 20
271.205516
 30
0.0
 11
-240.146758
 21
271.205516
 31
0.0
  0
LINE
  5
52
330
26
100
AcDbEntity
  8
1
  6
DASHED
100
AcDbLine
 10
-217.646758
 20
230.743338
 30
0.0
 11
-217.646758
 21
238.971977
 31
0.0
  0
LINE
  5
53
330
26
100
AcDbEntity
  8
1
  6
DASHED
100
AcDbLine
 10
-217.646758
 20
268.5147
 30
0.0
 11
-217.646758
 21
268.9035350000001
 31
0.0
  0
LINE
  5
54
330
26
100
AcDbEntity
  8
1
  6
DASHED
100
AcDbLine
 10
-222.920005
 20
246.492935
 30
0.0
 11
-222.920005
 21
260.993741
 31
0.0
  0
LINE
  5
55
330
26
100
AcDbEntity
  8
1
  6
DASHED
100
AcDbLine
 10
-225.420005
 20
247.243338
 30
0.0
 11
-225.420005
 21
260.243338
 31
0.0
  0
LINE
  5
56
330
26
100
AcDbEntity
  8
1
  6
DASHED
100
AcDbLine
 10
-237.807101
 20
249.458729
 30
0.0
 11
-237.807101
 21
258.027948
 31
0.0
  0
ARC
  5
57
330
26
100
AcDbEntity
  8
1
  6
DASHED
100
AcDbCircle
 10
-231.420005
 20
260.243338
 30
0.0
 40
6.0
100
AcDbArc
 50
0.0
 51
90.0
  0
ARC
  5
58
330
26
100
AcDbEntity
  8
1
  6
DASHED
100
AcDbCircle
 10
-231.420005
 20
247.243338
 30
0.0
 40
6.0
100
AcDbArc
 50
270.0
 51
360.0
  0
ARC
  5
59
330
26
100
AcDbEntity
  8
1
  6
DASHED
100
AcDbCircle
 10
-217.920005
 20
260.993741
 30
0.0
 40
5.0
100
AcDbArc
 50
109.928314
 51
180.0
  0
ARC
  5
5A
330
26
100
AcDbEntity
  8
1
  6
DASHED
100
AcDbCircle
 10
-217.920005
 20
246.492935
 30
0.0
 40
5.0
100
AcDbArc
 50
180.0
 51
250.071686
  0
ARC
  5
5B
330
26
100
AcDbEntity
  8
1
  6
DASHED
100
AcDbCircle
 10
-220.646758
 20
238.971977
 30
0.0
 40
3.0
100
AcDbArc
 50
0.0
 51
70.07168599999999
  0
ARC
  5
5C
330
26
100
AcDbEntity
  8
1
  6
DASHED
100
AcDbCircle
 10
-220.646758
 20
268.5147
 30
0.0
 40
3.0
100
AcDbArc
 50
289.928314
 51
360.0
  0
ARC
  5
5D
330
26
100
AcDbEntity
  8
1
  6
DASHED
100
AcDbCircle
 10
-214.646758
 20
268.9035350000001
 30
0.0
 40
3.0
100
AcDbArc
 50
105.0
 51
180.0
  0
LINE
  5
5E
330
26
100
AcDbEntity
  8
1
  6
DASHED
100
AcDbLine
 10
-237.807101
 20
263.027948
 30
0.0
 11
-231.420005
 21
264.685883
 31
0.0
  0
ARC
  5
5F
330
26
100
AcDbEntity
  8
1
  6
DASHED
100
AcDbCircle
 10
-242.807101
 20
258.027948
 30
0.0
 40
5.0
100
AcDbArc
 50
0.0
 51
57.85467399999998
  0
ARC
  5
60
330
26
100
AcDbEntity
  8
1
  6
DASHED
100
AcDbCircle
 10
-242.807101
 20
249.458729
 30
0.0
 40
5.0
100
AcDbArc
 50
302.1453259999999
 51
360.0
  0
LINE
  5
61
330
26
100
AcDbEntity
  8
1
  6
DASHED
100
AcDbLine
 10
-237.807101
 20
244.458729
 30
0.0
 11
-231.420005
 21
242.800793
 31
0.0
  0
LINE
  5
62
330
26
100
AcDbEntity
  8
1
  6
DASHED
100
AcDbLine
 10
-225.246758
 20
277.843338
 30
0.0
 11
-240.146758
 21
277.843338
 31
0.0
  0
LINE
  5
63
330
26
100
AcDbEntity
  8
1
  6
DASHED
100
AcDbLine
 10
-224.146758
 20
276.743338
 30
0.0
 11
-225.246758
 21
277.843338
 31
0.0
  0
LINE
  5
64
330
26
100
AcDbEntity
  8
1
  6
DASHED
100
AcDbLine
 10
-225.246758
 20
229.643338
 30
0.0
 11
-240.146758
 21
229.643338
 31
0.0
  0
LINE
  5
65
330
26
100
AcDbEntity
  8
1
  6
DASHED
100
AcDbLine
 10
-224.146758
 20
230.743338
 30
0.0
 11
-225.246758
 21
229.643338
 31
0.0
  0
LINE
  5
66
330
26
100
AcDbEntity
  8
1
  6
DASHED
100
AcDbLine
 10
-310.146758
 20
266.243338
 30
0.0
 11
-318.873512
 21
266.243338
 31
0.0
  0
LINE
  5
67
330
26
100
AcDbEntity
  8
1
  6
DASHED
100
AcDbLine
 10
-310.146758
 20
241.243338
 30
0.0
 11
-318.873512
 21
241.243338
 31
0.0
  0
LINE
  5
68
330
26
100
AcDbEntity
  8
1
  6
DASHED
100
AcDbLine
 10
-335.146758
 20
276.743338
 30
0.0
 11
-310.146758
 21
276.743338
 31
0.0
  0
LINE
  5
69
330
26
100
AcDbEntity
  8
1
  6
DASHED
100
AcDbLine
 10
-332.646758
 20
230.743338
 30
0.0
 11
-310.146758
 21
230.743338
 31
0.0
  0
LINE
  5
6A
330
26
100
AcDbEntity
  8
1
  6
DASHED
100
AcDbLine
 10
-336.146758
 20
272.143338
 30
0.0
 11
-310.146758
 21
272.143338
 31
0.0
  0
LINE
  5
6B
330
26
100
AcDbEntity
  8
1
  6
DASHED
100
AcDbLine
 10
-336.146758
 20
272.143338
 30
0.0
 11
-336.146758
 21
275.743338
 31
0.0
  0
LINE
  5
6C
330
26
100
AcDbEntity
  8
1
  6
DASHED
100
AcDbLine
 10
-336.146758
 20
272.143338
 30
0.0
 11
-334.870301
 21
271.801313
 31
0.0
  0
LINE
  5
6D
330
26
100
AcDbEntity
  8
1
  6
DASHED
100
AcDbLine
 10
-336.146758
 20
275.743338
 30
0.0
 11
-335.146758
 21
276.743338
 31
0.0
  0
LINE
  5
6E
330
26
100
AcDbEntity
  8
1
  6
DASHED
100
AcDbLine
 10
-336.146758
 20
275.743338
 30
0.0
 11
-310.146758
 21
275.743338
 31
0.0
  0
LINE
  5
6F
330
26
100
AcDbEntity
  8
1
  6
DASHED
100
AcDbLine
 10
-332.646758
 20
271.205516
 30
0.0
 11
-310.146758
 21
271.205516
 31
0.0
  0
LINE
  5
70
330
26
100
AcDbEntity
  8
1
  6
DASHED
100
AcDbLine
 10
-332.646758
 20
230.743338
 30
0.0
 11
-332.646758
 21
238.971977
 31
0.0
  0
LINE
  5
71
330
26
100
AcDbEntity
  8
1
  6
DASHED
100
AcDbLine
 10
-332.646758
 20
268.5147
 30
0.0
 11
-332.646758
 21
268.9035350000001
 31
0.0
  0
LINE
  5
72
330
26
100
AcDbEntity
  8
1
  6
DASHED
100
AcDbLine
 10
-327.373512
 20
246.492935
 30
0.0
 11
-327.373512
 21
260.993741
 31
0.0
  0
LINE
  5
73
330
26
100
AcDbEntity
  8
1
  6
DASHED
100
AcDbLine
 10
-324.873512
 20
247.243338
 30
0.0
 11
-324.873512
 21
260.243338
 31
0.0
  0
LINE
  5
74
330
26
100
AcDbEntity
  8
1
  6
DASHED
100
AcDbLine
 10
-312.486415
 20
249.458729
 30
0.0
 11
-312.486415
 21
258.027948
 31
0.0
  0
ARC
  5
75
330
26
100
AcDbEntity
  8
1
  6
DASHED
100
AcDbCircle
 10
-318.873512
 20
260.243338
 30
0.0
 40
6.0
100
AcDbArc
 50
90.0
 51
180.0
  0
ARC
  5
76
330
26
100
AcDbEntity
  8
1
  6
DASHED
100
AcDbCircle
 10
-318.873512
 20
247.243338
 30
0.0
 40
6.0
100
AcDbArc
 50
180.0
 51
270.0
  0
ARC
  5
77
330
26
100
AcDbEntity
  8
1
  6
DASHED
100
AcDbCircle
 10
-332.373512
 20
260.993741
 30
0.0
 40
5.0
100
AcDbArc
 50
0.0
 51
70.07168599999999
  0
ARC
  5
78
330
26
100
AcDbEntity
  8
1
  6
DASHED
100
AcDbCircle
 10
-332.373512
 20
246.492935
 30
0.0
 40
5.0
100
AcDbArc
 50
289.928314
 51
360.0
  0
ARC
  5
79
330
26
100
AcDbEntity
  8
1
  6
DASHED
100
AcDbCircle
 10
-329.646758
 20
238.971977
 30
0.0
 40
3.0
100
AcDbArc
 50
109.928314
 51
180.0
  0
ARC
  5
7A
330
26
100
AcDbEntity
  8
1
  6
DASHED
100
AcDbCircle
 10
-329.646758
 20
268.5147
 30
0.0
 40
3.0
100
AcDbArc
 50
180.0
 51
250.071686
  0
ARC
  5
7B
330
26
100
AcDbEntity
  8
1
  6
DASHED
100
AcDbCircle
 10
-335.646758
 20
268.9035350000001
 30
0.0
 40
3.0
100
AcDbArc
 50
0.0
 51
75.0
  0
LINE
  5
7C
330
26
100
AcDbEntity
  8
1
  6
DASHED
100
AcDbLine
 10
-312.486415
 20
263.027948
 30
0.0
 11
-318.873512
 21
264.685883
 31
0.0
  0
ARC
  5
7D
330
26
100
AcDbEntity
  8
1
  6
DASHED
100
AcDbCircle
 10
-307.486415
 20
258.027948
 30
0.0
 40
5.0
100
AcDbArc
 50
122.145326
 51
180.0
  0
ARC
  5
7E
330
26
100
AcDbEntity
  8
1
  6
DASHED
100
AcDbCircle
 10
-307.486415
 20
249.458729
 30
0.0
 40
5.0
100
AcDbArc
 50
180.0
 51
237.854674
  0
LINE
  5
7F
330
26
100
AcDbEntity
  8
1
  6
DASHED
100
AcDbLine
 10
-312.486415
 20
244.458729
 30
0.0
 11
-318.873512
 21
242.800793
 31
0.0
  0
LINE
  5
80
330
26
100
AcDbEntity
  8
1
  6
DASHED
100
AcDbLine
 10
-325.046758
 20
277.843338
 30
0.0
 11
-310.146758
 21
277.843338
 31
0.0
  0
LINE
  5
81
330
26
100
AcDbEntity
  8
1
  6
DASHED
100
AcDbLine
 10
-326.1467580000001
 20
276.743338
 30
0.0
 11
-325.046758
 21
277.843338
 31
0.0
  0
LINE
  5
82
330
26
100
AcDbEntity
  8
1
  6
DASHED
100
AcDbLine
 10
-325.046758
 20
229.643338
 30
0.0
 11
-310.146758
 21
229.643338
 31
0.0
  0
LINE
  5
83
330
26
100
AcDbEntity
  8
1
  6
DASHED
100
AcDbLine
 10
-326.1467580000001
 20
230.743338
 30
0.0
 11
-325.046758
 21
229.643338
 31
0.0
  0
LINE
  5
84
330
26
100
AcDbEntity
  8
1
  6
CENTER
 62
     2
100
AcDbLine
 10
-200.433957
 20
-276.756662
 30
0.0
 11
-349.859559
 21
-276.756662
 31
0.0
  0
LINE
  5
85
330
26
100
AcDbEntity
  8
1
  6
CENTER
 62
     2
100
AcDbLine
 10
74.097532
 20
-276.756662
 30
0.0
 11
148.105909
 21
-276.756662
 31
0.0
  0
LINE
  5
86
330
26
100
AcDbEntity
  8
1
100
AcDbLine
 10
-292.210847
 20
-351.556662
 30
0.0
 11
-280.010847
 21
-351.556662
 31
0.0
  0
LINE
  5
87
330
26
100
AcDbEntity
  8
1
100
AcDbLine
 10
-280.360847
 20
-351.556662
 30
0.0
 11
-280.360847
 21
-355.065914
 31
0.0
  0
LINE
  5
88
330
26
100
AcDbEntity
  8
1
100
AcDbLine
 10
-280.360847
 20
-355.065914
 30
0.0
 11
-281.210847
 21
-355.556662
 31
0.0
  0
LINE
  5
89
330
26
100
AcDbEntity
  8
1
100
AcDbLine
 10
-283.235847
 20
-351.556662
 30
0.0
 11
-283.235847
 21
-355.065914
 31
0.0
  0
ARC
  5
8A
330
26
100
AcDbEntity
  8
1
100
AcDbCircle
 10
-281.7983470000001
 20
-353.217959
 30
0.0
 40
2.341226999999999
100
AcDbArc
 50
232.121121
 51
307.878879
  0
ARC
  5
8B
330
26
100
AcDbEntity
  8
1
100
AcDbCircle
 10
-286.110847
 20
-346.934186
 30
0.0
 40
8.625
100
AcDbArc
 50
250.528777
 51
289.471219
  0
LINE
  5
8C
330
26
100
AcDbEntity
  8
1
100
AcDbLine
 10
-291.860847
 20
-351.556662
 30
0.0
 11
-291.860847
 21
-355.065914
 31
0.0
  0
LINE
  5
8D
330
26
100
AcDbEntity
  8
1
100
AcDbLine
 10
-291.860847
 20
-355.065914
 30
0.0
 11
-291.010847
 21
-355.556662
 31
0.0
  0
LINE
  5
8E
330
26
100
AcDbEntity
  8
1
100
AcDbLine
 10
-291.010847
 20
-355.556662
 30
0.0
 11
-281.210847
 21
-355.556662
 31
0.0
  0
LINE
  5
8F
330
26
100
AcDbEntity
  8
1
100
AcDbLine
 10
-288.985847
 20
-351.556662
 30
0.0
 11
-288.985847
 21
-355.065914
 31
0.0
  0
ARC
  5
90
330
26
100
AcDbEntity
  8
1
100
AcDbCircle
 10
-290.423347
 20
-353.217959
 30
0.0
 40
2.341226999999999
100
AcDbArc
 50
232.121121
 51
307.878879
  0
LINE
  5
91
330
26
100
AcDbEntity
  8
1
100
AcDbLine
 10
-280.010847
 20
-350.056662
 30
0.0
 11
-280.010847
 21
-351.556662
 31
0.0
  0
LINE
  5
92
330
26
100
AcDbEntity
  8
1
100
AcDbLine
 10
-292.210847
 20
-351.556662
 30
0.0
 11
-292.210847
 21
-350.056662
 31
0.0
  0
LINE
  5
93
330
26
100
AcDbEntity
  8
1
100
AcDbLine
 10
-286.110847
 20
-351.556662
 30
0.0
 11
-286.610847
 21
-350.056662
 31
0.0
  0
LINE
  5
94
330
26
100
AcDbEntity
  8
1
100
AcDbLine
 10
-286.110847
 20
-350.056662
 30
0.0
 11
-285.610847
 21
-351.556662
 31
0.0
  0
LINE
  5
95
330
26
100
AcDbEntity
  8
1
100
AcDbLine
 10
123.488137
 20
-351.556662
 30
0.0
 11
123.488137
 21
-355.556662
 31
0.0
  0
LINE
  5
96
330
26
100
AcDbEntity
  8
1
100
AcDbLine
 10
118.488137
 20
-351.556662
 30
0.0
 11
118.488137
 21
-355.065914
 31
0.0
  0
ARC
  5
97
330
26
100
AcDbEntity
  8
1
100
AcDbCircle
 10
120.988137
 20
-348.943454
 30
0.0
 40
6.613208
100
AcDbArc
 50
247.7882049999999
 51
292.211795
  0
LINE
  5
98
330
26
100
AcDbEntity
  8
1
100
AcDbLine
 10
113.488137
 20
-351.556662
 30
0.0
 11
113.488137
 21
-355.556662
 31
0.0
  0
LINE
  5
99
330
26
100
AcDbEntity
  8
1
100
AcDbLine
 10
113.488137
 20
-355.556662
 30
0.0
 11
123.488137
 21
-355.556662
 31
0.0
  0
ARC
  5
9A
330
26
100
AcDbEntity
  8
1
100
AcDbCircle
 10
115.988137
 20
-348.943454
 30
0.0
 40
6.613208
100
AcDbArc
 50
247.7882049999999
 51
292.211795
  0
LINE
  5
9B
330
26
100
AcDbEntity
  8
1
100
AcDbLine
 10
124.588137
 20
-350.056662
 30
0.0
 11
124.588137
 21
-351.556662
 31
0.0
  0
LINE
  5
9C
330
26
100
AcDbEntity
  8
1
100
AcDbLine
 10
124.588137
 20
-351.556662
 30
0.0
 11
112.388137
 21
-351.556662
 31
0.0
  0
LINE
  5
9D
330
26
100
AcDbEntity
  8
1
100
AcDbLine
 10
112.388137
 20
-351.556662
 30
0.0
 11
112.388137
 21
-350.056662
 31
0.0
  0
LINE
  5
9E
330
26
100
AcDbEntity
  8
1
100
AcDbLine
 10
-240.146758
 20
-133.756662
 30
0.0
 11
-240.146758
 21
-125.756662
 31
0.0
  0
LINE
  5
9F
330
26
100
AcDbEntity
  8
1
100
AcDbLine
 10
-310.146758
 20
-133.756662
 30
0.0
 11
-310.146758
 21
-125.756662
 31
0.0
  0
LINE
  5
A0
330
26
100
AcDbEntity
  8
1
100
AcDbLine
 10
-292.146758
 20
-346.756662
 30
0.0
 11
-258.146758
 21
-346.756662
 31
0.0
  0
LINE
  5
A1
330
26
100
AcDbEntity
  8
1
  6
CENTER
 62
     2
100
AcDbLine
 10
-286.110847
 20
-339.736507
 30
0.0
 11
-286.110847
 21
-359.638963
 31
0.0
  0
LINE
  5
A2
330
26
100
AcDbEntity
  8
1
100
AcDbLine
 10
-292.610847
 20
-350.056662
 30
0.0
 11
-257.682669
 21
-350.056662
 31
0.0
  0
LINE
  5
A3
330
26
100
AcDbEntity
  8
1
100
AcDbLine
 10
146.503242
 20
-133.756662
 30
0.0
 11
146.503242
 21
-125.756662
 31
0.0
  0
LINE
  5
A4
330
26
100
AcDbEntity
  8
1
100
AcDbLine
 10
76.503242
 20
-133.756662
 30
0.0
 11
76.503242
 21
-125.756662
 31
0.0
  0
LINE
  5
A5
330
26
100
AcDbEntity
  8
1
100
AcDbLine
 10
98.50324200000001
 20
-346.756662
 30
0.0
 11
124.503242
 21
-346.756662
 31
0.0
  0
LINE
  5
A6
330
26
100
AcDbEntity
  8
1
100
AcDbLine
 10
98.018347
 20
-350.056662
 30
0.0
 11
124.988137
 21
-350.056662
 31
0.0
  0
LINE
  5
A7
330
26
100
AcDbEntity
  8
1
100
AcDbLine
 10
-284.118693
 20
-255.423844
 30
0.0
 11
-284.118693
 21
-258.820393
 31
0.0
  0
ARC
  5
A8
330
26
100
AcDbEntity
  8
1
100
AcDbCircle
 10
-277.710361
 20
-248.97488
 30
0.0
 40
8.0
100
AcDbArc
 50
157.8348639999999
 51
180.0
  0
LINE
  5
A9
330
26
100
AcDbEntity
  8
1
100
AcDbLine
 10
-285.710361
 20
-304.538443
 30
0.0
 11
-285.710361
 21
-302.638713
 31
0.0
  0
LINE
  5
AA
330
26
100
AcDbEntity
  8
1
100
AcDbLine
 10
-285.710361
 20
-249.451689
 30
0.0
 11
-285.710361
 21
-248.97488
 31
0.0
  0
ARC
  5
AB
330
26
100
AcDbEntity
  8
1
100
AcDbCircle
 10
-275.146758
 20
-276.756662
 30
0.0
 40
30.424611
100
AcDbArc
 50
113.229652
 51
246.7703479999999
  0
ARC
  5
AC
330
26
100
AcDbEntity
  8
1
100
AcDbCircle
 10
-279.710361
 20
-249.451689
 30
0.0
 40
6.0
100
AcDbArc
 50
180.0
 51
209.846601
  0
ARC
  5
AD
330
26
100
AcDbEntity
  8
1
100
AcDbCircle
 10
-290.118693
 20
-255.423844
 30
0.0
 40
6.0
100
AcDbArc
 50
0.0
 51
29.84660100000001
  0
ARC
  5
AE
330
26
100
AcDbEntity
  8
1
100
AcDbCircle
 10
-277.710361
 20
-304.538443
 30
0.0
 40
8.0
100
AcDbArc
 50
180.0
 51
202.165136
  0
ARC
  5
AF
330
26
100
AcDbEntity
  8
1
100
AcDbCircle
 10
-278.118693
 20
-258.820393
 30
0.0
 40
6.0
100
AcDbArc
 50
180.0
 51
201.09192
  0
LINE
  5
B0
330
26
100
AcDbEntity
  8
1
100
AcDbLine
 10
-284.210361
 20
-300.040636
 30
0.0
 11
-279.930506
 21
-297.569661
 31
0.0
  0
ARC
  5
B1
330
26
100
AcDbEntity
  8
1
100
AcDbCircle
 10
-282.710361
 20
-302.638713
 30
0.0
 40
3.0
100
AcDbArc
 50
120.0
 51
180.0
  0
LINE
  5
B2
330
26
100
AcDbEntity
  8
1
  6
CENTER
 62
     2
100
AcDbLine
 10
-264.182669
 20
-339.736507
 30
0.0
 11
-264.182669
 21
-359.638963
 31
0.0
  0
LINE
  5
B3
330
26
100
AcDbEntity
  8
1
100
AcDbLine
 10
-270.282669
 20
-351.556662
 30
0.0
 11
-258.082669
 21
-351.556662
 31
0.0
  0
LINE
  5
B4
330
26
100
AcDbEntity
  8
1
100
AcDbLine
 10
-258.432669
 20
-351.556662
 30
0.0
 11
-258.432669
 21
-355.065914
 31
0.0
  0
LINE
  5
B5
330
26
100
AcDbEntity
  8
1
100
AcDbLine
 10
-258.432669
 20
-355.065914
 30
0.0
 11
-259.282669
 21
-355.556662
 31
0.0
  0
LINE
  5
B6
330
26
100
AcDbEntity
  8
1
100
AcDbLine
 10
-261.307669
 20
-351.556662
 30
0.0
 11
-261.307669
 21
-355.065914
 31
0.0
  0
ARC
  5
B7
330
26
100
AcDbEntity
  8
1
100
AcDbCircle
 10
-259.870169
 20
-353.217959
 30
0.0
 40
2.341226999999999
100
AcDbArc
 50
232.121121
 51
307.878879
  0
ARC
  5
B8
330
26
100
AcDbEntity
  8
1
100
AcDbCircle
 10
-264.182669
 20
-346.934186
 30
0.0
 40
8.625
100
AcDbArc
 50
250.528777
 51
289.471219
  0
LINE
  5
B9
330
26
100
AcDbEntity
  8
1
100
AcDbLine
 10
-269.932669
 20
-351.556662
 30
0.0
 11
-269.932669
 21
-355.065914
 31
0.0
  0
LINE
  5
BA
330
26
100
AcDbEntity
  8
1
100
AcDbLine
 10
-269.932669
 20
-355.065914
 30
0.0
 11
-269.082669
 21
-355.556662
 31
0.0
  0
LINE
  5
BB
330
26
100
AcDbEntity
  8
1
100
AcDbLine
 10
-269.082669
 20
-355.556662
 30
0.0
 11
-259.282669
 21
-355.556662
 31
0.0
  0
LINE
  5
BC
330
26
100
AcDbEntity
  8
1
100
AcDbLine
 10
-267.057669
 20
-351.556662
 30
0.0
 11
-267.057669
 21
-355.065914
 31
0.0
  0
ARC
  5
BD
330
26
100
AcDbEntity
  8
1
100
AcDbCircle
 10
-268.495169
 20
-353.217959
 30
0.0
 40
2.341226999999999
100
AcDbArc
 50
232.121121
 51
307.878879
  0
LINE
  5
BE
330
26
100
AcDbEntity
  8
1
100
AcDbLine
 10
-258.082669
 20
-350.056662
 30
0.0
 11
-258.082669
 21
-351.556662
 31
0.0
  0
LINE
  5
BF
330
26
100
AcDbEntity
  8
1
100
AcDbLine
 10
-270.282669
 20
-351.556662
 30
0.0
 11
-270.282669
 21
-350.056662
 31
0.0
  0
LINE
  5
C0
330
26
100
AcDbEntity
  8
1
100
AcDbLine
 10
-264.182669
 20
-351.556662
 30
0.0
 11
-264.682669
 21
-350.056662
 31
0.0
  0
LINE
  5
C1
330
26
100
AcDbEntity
  8
1
100
AcDbLine
 10
-264.182669
 20
-350.056662
 30
0.0
 11
-263.682669
 21
-351.556662
 31
0.0
  0
CIRCLE
  5
C2
330
26
100
AcDbEntity
  8
1
100
AcDbCircle
 10
-275.146758
 20
-276.756662
 30
0.0
 40
39.0
  0
CIRCLE
  5
C3
330
26
100
AcDbEntity
  8
1
100
AcDbCircle
 10
-275.146758
 20
-276.756662
 30
0.0
 40
49.9
  0
CIRCLE
  5
C4
330
26
100
AcDbEntity
  8
1
100
AcDbCircle
 10
-275.146758
 20
-276.756662
 30
0.0
 40
51.0
  0
ARC
  5
C5
330
26
100
AcDbEntity
  8
1
100
AcDbCircle
 10
-275.146758
 20
-277.836662
 30
0.0
 40
33.54
100
AcDbArc
 50
108.101637
 51
124.892605
  0
ARC
  5
C6
330
26
100
AcDbEntity
  8
1
100
AcDbCircle
 10
-275.146758
 20
-276.756662
 30
0.0
 40
32.66
100
AcDbArc
 50
125.976489
 51
234.023511
  0
ARC
  5
C7
330
26
100
AcDbEntity
  8
1
100
AcDbCircle
 10
-275.146758
 20
-275.676662
 30
0.0
 40
33.54
100
AcDbArc
 50
235.107395
 51
251.898363
  0
ARC
  5
C8
330
26
100
AcDbEntity
  8
1
100
AcDbCircle
 10
-278.040236
 20
-276.756662
 30
0.0
 40
31.706522
100
AcDbArc
 50
103.733866
 51
256.266134
  0
LINE
  5
C9
330
26
100
AcDbEntity
  8
1
100
AcDbLine
 10
135.603242
 20
-226.856662
 30
0.0
 11
135.603242
 21
-326.656662
 31
0.0
  0
LINE
  5
CA
330
26
100
AcDbEntity
  8
1
100
AcDbLine
 10
134.503242
 20
-225.756662
 30
0.0
 11
135.603242
 21
-226.856662
 31
0.0
  0
LINE
  5
CB
330
26
100
AcDbEntity
  8
1
100
AcDbLine
 10
88.50324200000001
 20
-225.756662
 30
0.0
 11
87.40324200000001
 21
-226.856662
 31
0.0
  0
LINE
  5
CC
330
26
100
AcDbEntity
  8
1
100
AcDbLine
 10
134.503242
 20
-327.756662
 30
0.0
 11
135.603242
 21
-326.656662
 31
0.0
  0
LINE
  5
CD
330
26
100
AcDbEntity
  8
1
100
AcDbLine
 10
87.40324200000001
 20
-326.656662
 30
0.0
 11
87.40324200000001
 21
-226.856662
 31
0.0
  0
LINE
  5
CE
330
26
100
AcDbEntity
  8
1
100
AcDbLine
 10
88.50324200000001
 20
-327.756662
 30
0.0
 11
87.40324200000001
 21
-326.656662
 31
0.0
  0
LINE
  5
CF
330
26
100
AcDbEntity
  8
1
100
AcDbLine
 10
-307.146758
 20
-136.756662
 30
0.0
 11
-243.146758
 21
-136.756662
 31
0.0
  0
ARC
  5
D0
330
26
100
AcDbEntity
  8
1
100
AcDbCircle
 10
-243.146758
 20
-133.756662
 30
0.0
 40
3.0
100
AcDbArc
 50
270.0
 51
360.0
  0
ARC
  5
D1
330
26
100
AcDbEntity
  8
1
100
AcDbCircle
 10
-307.146758
 20
-133.756662
 30
0.0
 40
3.0
100
AcDbArc
 50
180.0
 51
270.0
  0
LINE
  5
D2
330
26
100
AcDbEntity
  8
1
100
AcDbLine
 10
-290.172663
 20
-144.240761
 30
0.0
 11
-291.52364
 21
-221.638174
 31
0.0
  0
LINE
  5
D3
330
26
100
AcDbEntity
  8
1
100
AcDbLine
 10
-281.3852310000001
 20
-143.3068439999999
 30
0.0
 11
-286.474085
 21
-216.080847
 31
0.0
  0
LINE
  5
D4
330
26
100
AcDbEntity
  8
1
100
AcDbLine
 10
-268.908286
 20
-143.3068439999999
 30
0.0
 11
-263.819432
 21
-216.080847
 31
0.0
  0
LINE
  5
D5
330
26
100
AcDbEntity
  8
1
100
AcDbLine
 10
-258.146758
 20
-140.756662
 30
0.0
 11
-258.146758
 21
-139.756662
 31
0.0
  0
LINE
  5
D6
330
26
100
AcDbEntity
  8
1
100
AcDbLine
 10
-282.188389
 20
-139.756662
 30
0.0
 11
-282.188389
 21
-140.756662
 31
0.0
  0
LINE
  5
D7
330
26
100
AcDbEntity
  8
1
100
AcDbLine
 10
-268.105128
 20
-139.756662
 30
0.0
 11
-268.105128
 21
-140.756662
 31
0.0
  0
LINE
  5
D8
330
26
100
AcDbEntity
  8
1
100
AcDbLine
 10
-292.146758
 20
-140.756662
 30
0.0
 11
-292.146758
 21
-139.756662
 31
0.0
  0
ARC
  5
D9
330
26
100
AcDbEntity
  8
1
100
AcDbCircle
 10
-265.105128
 20
-139.756662
 30
0.0
 40
3.0
100
AcDbArc
 50
90.0
 51
180.0
  0
ARC
  5
DA
330
26
100
AcDbEntity
  8
1
100
AcDbCircle
 10
-255.146758
 20
-139.756662
 30
0.0
 40
3.0
100
AcDbArc
 50
90.0
 51
180.0
  0
ARC
  5
DB
330
26
100
AcDbEntity
  8
1
100
AcDbCircle
 10
-285.188389
 20
-139.756662
 30
0.0
 40
3.0
100
AcDbArc
 50
360.0
 51
90.0
  0
ARC
  5
DC
330
26
100
AcDbEntity
  8
1
100
AcDbCircle
 10
-295.146758
 20
-139.756662
 30
0.0
 40
3.0
100
AcDbArc
 50
0.0
 51
90.0
  0
ARC
  5
DD
330
26
100
AcDbEntity
  8
1
100
AcDbCircle
 10
-260.146758
 20
-140.756662
 30
0.0
 40
2.0
100
AcDbArc
 50
300.424339
 51
360.0
  0
ARC
  5
DE
330
26
100
AcDbEntity
  8
1
100
AcDbCircle
 10
-270.105128
 20
-140.756662
 30
0.0
 40
2.0
100
AcDbArc
 50
322.938827
 51
360.0
  0
ARC
  5
DF
330
26
100
AcDbEntity
  8
1
100
AcDbCircle
 10
-280.188389
 20
-140.756662
 30
0.0
 40
2.0
100
AcDbArc
 50
180.0
 51
217.061173
  0
ARC
  5
E0
330
26
100
AcDbEntity
  8
1
100
AcDbCircle
 10
-290.146758
 20
-140.756662
 30
0.0
 40
2.0
100
AcDbArc
 50
180.0
 51
239.575661
  0
ARC
  5
E1
330
26
100
AcDbEntity
  8
1
100
AcDbCircle
 10
-258.121158
 20
-144.205856
 30
0.0
 40
2.0
100
AcDbArc
 50
120.424339
 51
181.0
  0
ARC
  5
E2
330
26
100
AcDbEntity
  8
1
100
AcDbCircle
 10
-266.913158
 20
-143.167331
 30
0.0
 40
2.0
100
AcDbArc
 50
142.938827
 51
184.0
  0
ARC
  5
E3
330
26
100
AcDbEntity
  8
1
100
AcDbCircle
 10
-283.380359
 20
-143.167331
 30
0.0
 40
2.0
100
AcDbArc
 50
356.0
 51
37.061173
  0
ARC
  5
E4
330
26
100
AcDbEntity
  8
1
100
AcDbCircle
 10
-292.172359
 20
-144.205856
 30
0.0
 40
2.0
100
AcDbArc
 50
359.0
 51
59.57566100000001
  0
LINE
  5
E5
330
26
100
AcDbEntity
  8
1
100
AcDbLine
 10
-257.093936
 20
-142.756662
 30
0.0
 11
-254.646758
 21
-142.756662
 31
0.0
  0
LINE
  5
E6
330
26
100
AcDbEntity
  8
1
100
AcDbLine
 10
-268.105128
 20
-142.756662
 30
0.0
 11
-260.146758
 21
-142.756662
 31
0.0
  0
LINE
  5
E7
330
26
100
AcDbEntity
  8
1
100
AcDbLine
 10
-281.346758
 20
-142.756662
 30
0.0
 11
-268.946758
 21
-142.756662
 31
0.0
  0
LINE
  5
E8
330
26
100
AcDbEntity
  8
1
100
AcDbLine
 10
-295.646758
 20
-142.756662
 30
0.0
 11
-293.19958
 21
-142.756662
 31
0.0
  0
LINE
  5
E9
330
26
100
AcDbEntity
  8
1
100
AcDbLine
 10
-290.146758
 20
-142.756662
 30
0.0
 11
-282.188389
 21
-142.756662
 31
0.0
  0
ARC
  5
EA
330
26
100
AcDbEntity
  8
1
100
AcDbCircle
 10
-248.646758
 20
-139.756662
 30
0.0
 40
3.0
100
AcDbArc
 50
90.0
 51
180.0
  0
ARC
  5
EB
330
26
100
AcDbEntity
  8
1
100
AcDbCircle
 10
-301.646758
 20
-139.756662
 30
0.0
 40
3.0
100
AcDbArc
 50
0.0
 51
90.0
  0
ARC
  5
EC
330
26
100
AcDbEntity
  8
1
100
AcDbCircle
 10
-257.093936
 20
-145.756662
 30
0.0
 40
3.0
100
AcDbArc
 50
90.0
 51
181.0
  0
ARC
  5
ED
330
26
100
AcDbEntity
  8
1
100
AcDbCircle
 10
-293.19958
 20
-145.756662
 30
0.0
 40
3.0
100
AcDbArc
 50
359.0
 51
90.0
  0
ARC
  5
EE
330
26
100
AcDbEntity
  8
1
100
AcDbCircle
 10
-295.646758
 20
-139.756662
 30
0.0
 40
3.0
100
AcDbArc
 50
180.0
 51
270.0
  0
ARC
  5
EF
330
26
100
AcDbEntity
  8
1
100
AcDbCircle
 10
-254.646758
 20
-139.756662
 30
0.0
 40
3.0
100
AcDbArc
 50
270.0
 51
360.0
  0
ARC
  5
F0
330
26
100
AcDbEntity
  8
1
100
AcDbCircle
 10
-292.459469
 20
-215.662308
 30
0.0
 40
6.0
100
AcDbArc
 50
285.821489
 51
356.0
  0
LINE
  5
F1
330
26
100
AcDbEntity
  8
1
100
AcDbLine
 10
-255.652073
 20
-192.731832
 30
0.0
 11
-253.884233
 21
-193.205524
 31
0.0
  0
LINE
  5
F2
330
26
100
AcDbEntity
  8
1
100
AcDbLine
 10
-256.514562
 20
-208.274562
 30
0.0
 11
-251.921415
 21
-197.185724
 31
0.0
  0
ARC
  5
F3
330
26
100
AcDbEntity
  8
1
100
AcDbCircle
 10
-254.357978
 20
-187.902203
 30
0.0
 40
5.0
100
AcDbArc
 50
181.0
 51
255.0
  0
ARC
  5
F4
330
26
100
AcDbEntity
  8
1
100
AcDbCircle
 10
-228.798176
 20
-219.755064
 30
0.0
 40
30.0
100
AcDbArc
 50
157.5
 51
181.0
  0
ARC
  5
F5
330
26
100
AcDbEntity
  8
1
100
AcDbCircle
 10
-254.648095
 20
-196.056296
 30
0.0
 40
2.951337
100
AcDbArc
 50
337.5
 51
75.0
  0
LINE
  5
F6
330
26
100
AcDbEntity
  8
1
100
AcDbLine
 10
-294.641443
 20
-192.731832
 30
0.0
 11
-296.409284
 21
-193.205524
 31
0.0
  0
LINE
  5
F7
330
26
100
AcDbEntity
  8
1
100
AcDbLine
 10
-293.778954
 20
-208.274562
 30
0.0
 11
-298.372101
 21
-197.185724
 31
0.0
  0
ARC
  5
F8
330
26
100
AcDbEntity
  8
1
100
AcDbCircle
 10
-295.935538
 20
-187.902203
 30
0.0
 40
5.0
100
AcDbArc
 50
285.0
 51
359.0
  0
ARC
  5
F9
330
26
100
AcDbEntity
  8
1
100
AcDbCircle
 10
-321.49534
 20
-219.755064
 30
0.0
 40
30.0
100
AcDbArc
 50
359.0
 51
22.5
  0
ARC
  5
FA
330
26
100
AcDbEntity
  8
1
100
AcDbCircle
 10
-295.645421
 20
-196.056296
 30
0.0
 40
2.951337
100
AcDbArc
 50
105.0
 51
202.5
  0
LINE
  5
FB
330
26
100
AcDbEntity
  8
1
100
AcDbLine
 10
-260.120853
 20
-144.240761
 30
0.0
 11
-258.7698759999999
 21
-221.638174
 31
0.0
  0
LINE
  5
FC
330
26
100
AcDbEntity
  8
1
100
AcDbLine
 10
-292.146758
 20
-346.756662
 30
0.0
 11
-292.146758
 21
-331.686162
 31
0.0
  0
LINE
  5
FD
330
26
100
AcDbEntity
  8
1
100
AcDbLine
 10
-258.146758
 20
-346.756662
 30
0.0
 11
-258.146758
 21
-331.686162
 31
0.0
  0
CIRCLE
  5
FE
330
26
100
AcDbEntity
  8
1
100
AcDbCircle
 10
-275.146758
 20
-276.756662
 30
0.0
 40
57.5
  0
ARC
  5
FF
330
26
100
AcDbEntity
  8
1
100
AcDbCircle
 10
-275.146758
 20
-276.756662
 30
0.0
 40
61.0
100
AcDbArc
 50
105.595812
 51
253.818053
  0
ARC
  5
100
330
26
100
AcDbEntity
  8
1
100
AcDbCircle
 10
-275.146758
 20
-276.756662
 30
0.0
 40
61.0
100
AcDbArc
 50
286.181947
 51
74.404188
  0
LINE
  5
101
330
26
100
AcDbEntity
  8
1
100
AcDbLine
 10
-291.6108470000001
 20
-346.756662
 30
0.0
 11
-291.6108470000001
 21
-347.756662
 31
0.0
  0
LINE
  5
102
330
26
100
AcDbEntity
  8
1
100
AcDbLine
 10
-292.610847
 20
-347.756662
 30
0.0
 11
-257.682669
 21
-347.756662
 31
0.0
  0
LINE
  5
103
330
26
100
AcDbEntity
  8
1
100
AcDbLine
 10
-292.610847
 20
-347.756662
 30
0.0
 11
-292.610847
 21
-350.056662
 31
0.0
  0
LINE
  5
104
330
26
100
AcDbEntity
  8
1
100
AcDbLine
 10
-258.682669
 20
-346.756662
 30
0.0
 11
-258.682669
 21
-347.756662
 31
0.0
  0
LINE
  5
105
330
26
100
AcDbEntity
  8
1
100
AcDbLine
 10
-257.682669
 20
-347.756662
 30
0.0
 11
-257.682669
 21
-350.056662
 31
0.0
  0
LINE
  5
106
330
26
100
AcDbEntity
  8
1
100
AcDbLine
 10
143.503242
 20
-136.756662
 30
0.0
 11
79.503242
 21
-136.756662
 31
0.0
  0
ARC
  5
107
330
26
100
AcDbEntity
  8
1
100
AcDbCircle
 10
143.503242
 20
-133.756662
 30
0.0
 40
3.0
100
AcDbArc
 50
270.0
 51
360.0
  0
ARC
  5
108
330
26
100
AcDbEntity
  8
1
100
AcDbCircle
 10
79.503242
 20
-133.756662
 30
0.0
 40
3.0
100
AcDbArc
 50
180.0
 51
270.0
  0
LINE
  5
109
330
26
100
AcDbEntity
  8
1
100
AcDbLine
 10
96.503242
 20
-214.445615
 30
0.0
 11
96.503242
 21
-144.2207629999999
 31
0.0
  0
LINE
  5
10A
330
26
100
AcDbEntity
  8
1
100
AcDbLine
 10
126.503242
 20
-210.827486
 30
0.0
 11
126.503242
 21
-144.2207629999999
 31
0.0
  0
LINE
  5
10B
330
26
100
AcDbEntity
  8
1
100
AcDbLine
 10
128.503242
 20
-140.756662
 30
0.0
 11
128.503242
 21
-139.756662
 31
0.0
  0
LINE
  5
10C
330
26
100
AcDbEntity
  8
1
100
AcDbLine
 10
94.503242
 20
-140.756662
 30
0.0
 11
94.503242
 21
-139.756662
 31
0.0
  0
ARC
  5
10D
330
26
100
AcDbEntity
  8
1
100
AcDbCircle
 10
131.503242
 20
-139.756662
 30
0.0
 40
3.0
100
AcDbArc
 50
90.0
 51
180.0
  0
ARC
  5
10E
330
26
100
AcDbEntity
  8
1
100
AcDbCircle
 10
91.503242
 20
-139.756662
 30
0.0
 40
3.0
100
AcDbArc
 50
0.0
 51
90.0
  0
ARC
  5
10F
330
26
100
AcDbEntity
  8
1
100
AcDbCircle
 10
126.503242
 20
-140.756662
 30
0.0
 40
2.0
100
AcDbArc
 50
300.0
 51
360.0
  0
ARC
  5
110
330
26
100
AcDbEntity
  8
1
100
AcDbCircle
 10
96.503242
 20
-140.756662
 30
0.0
 40
2.0
100
AcDbArc
 50
180.0
 51
240.0
  0
ARC
  5
111
330
26
100
AcDbEntity
  8
1
100
AcDbCircle
 10
128.503242
 20
-144.2207629999999
 30
0.0
 40
2.0
100
AcDbArc
 50
120.0
 51
180.0
  0
ARC
  5
112
330
26
100
AcDbEntity
  8
1
100
AcDbCircle
 10
94.503242
 20
-144.2207629999999
 30
0.0
 40
2.0
100
AcDbArc
 50
0.0
 51
60.0
  0
LINE
  5
113
330
26
100
AcDbEntity
  8
1
100
AcDbLine
 10
88.50324200000001
 20
-219.256662
 30
0.0
 11
90.503242
 21
-219.256662
 31
0.0
  0
LINE
  5
114
330
26
100
AcDbEntity
  8
1
100
AcDbLine
 10
88.50324200000001
 20
-334.256662
 30
0.0
 11
93.50324200000001
 21
-334.256662
 31
0.0
  0
LINE
  5
115
330
26
100
AcDbEntity
  8
1
100
AcDbLine
 10
129.503242
 20
-337.756662
 30
0.0
 11
133.503242
 21
-337.756662
 31
0.0
  0
LINE
  5
116
330
26
100
AcDbEntity
  8
1
100
AcDbLine
 10
128.903242
 20
-215.756662
 30
0.0
 11
133.503242
 21
-215.756662
 31
0.0
  0
LINE
  5
117
330
26
100
AcDbEntity
  8
1
100
AcDbLine
 10
133.503242
 20
-215.756662
 30
0.0
 11
134.503242
 21
-216.756662
 31
0.0
  0
LINE
  5
118
330
26
100
AcDbEntity
  8
1
100
AcDbLine
 10
133.503242
 20
-337.756662
 30
0.0
 11
134.503242
 21
-336.756662
 31
0.0
  0
ARC
  5
119
330
26
100
AcDbEntity
  8
1
100
AcDbCircle
 10
90.503242
 20
-213.256662
 30
0.0
 40
6.0
100
AcDbArc
 50
270.0
 51
360.0
  0
ARC
  5
11A
330
26
100
AcDbEntity
  8
1
100
AcDbCircle
 10
132.503242
 20
-209.756662
 30
0.0
 40
6.0
100
AcDbArc
 50
180.0
 51
233.130102
  0
LINE
  5
11B
330
26
100
AcDbEntity
  8
1
100
AcDbLine
 10
98.50324200000001
 20
-346.756662
 30
0.0
 11
98.50324200000001
 21
-333.344474
 31
0.0
  0
LINE
  5
11C
330
26
100
AcDbEntity
  8
1
100
AcDbLine
 10
124.503242
 20
-346.756662
 30
0.0
 11
124.503242
 21
-333.344474
 31
0.0
  0
ARC
  5
11D
330
26
100
AcDbEntity
  8
1
100
AcDbCircle
 10
93.50324200000001
 20
-339.256662
 30
0.0
 40
5.0
100
AcDbArc
 50
0.0
 51
90.0
  0
ARC
  5
11E
330
26
100
AcDbEntity
  8
1
100
AcDbCircle
 10
129.503242
 20
-342.756662
 30
0.0
 40
5.0
100
AcDbArc
 50
90.0
 51
180.0
  0
LINE
  5
11F
330
26
100
AcDbEntity
  8
1
100
AcDbLine
 10
128.903242
 20
-216.827486
 30
0.0
 11
128.903242
 21
-214.556662
 31
0.0
  0
LINE
  5
120
330
26
100
AcDbEntity
  8
1
  6
CENTER
 62
     2
100
AcDbLine
 10
118.488137
 20
-359.638963
 30
0.0
 11
118.488137
 21
-339.736507
 31
0.0
  0
LINE
  5
121
330
26
100
AcDbEntity
  8
1
100
AcDbLine
 10
98.018347
 20
-347.756662
 30
0.0
 11
124.988137
 21
-347.756662
 31
0.0
  0
LINE
  5
122
330
26
100
AcDbEntity
  8
1
100
AcDbLine
 10
123.988137
 20
-346.756662
 30
0.0
 11
123.988137
 21
-347.756662
 31
0.0
  0
LINE
  5
123
330
26
100
AcDbEntity
  8
1
100
AcDbLine
 10
124.988137
 20
-350.056662
 30
0.0
 11
124.988137
 21
-347.756662
 31
0.0
  0
LINE
  5
124
330
26
100
AcDbEntity
  8
1
100
AcDbLine
 10
99.018347
 20
-346.756662
 30
0.0
 11
99.018347
 21
-347.756662
 31
0.0
  0
LINE
  5
125
330
26
100
AcDbEntity
  8
1
100
AcDbLine
 10
98.018347
 20
-350.056662
 30
0.0
 11
98.018347
 21
-347.756662
 31
0.0
  0
LINE
  5
126
330
26
100
AcDbEntity
  8
1
100
AcDbLine
 10
134.503242
 20
-216.756662
 30
0.0
 11
134.503242
 21
-336.756662
 31
0.0
  0
LINE
  5
127
330
26
100
AcDbEntity
  8
1
100
AcDbLine
 10
88.50324200000001
 20
-334.256662
 30
0.0
 11
88.50324200000001
 21
-219.256662
 31
0.0
  0
LINE
  5
128
330
26
100
AcDbEntity
  8
1
100
AcDbLine
 10
99.51834699999999
 20
-351.556662
 30
0.0
 11
99.51834699999999
 21
-355.556662
 31
0.0
  0
LINE
  5
129
330
26
100
AcDbEntity
  8
1
100
AcDbLine
 10
104.518347
 20
-351.556662
 30
0.0
 11
104.518347
 21
-355.065914
 31
0.0
  0
ARC
  5
12A
330
26
100
AcDbEntity
  8
1
100
AcDbCircle
 10
102.018347
 20
-348.943454
 30
0.0
 40
6.613208
100
AcDbArc
 50
247.7882049999999
 51
292.211795
  0
LINE
  5
12B
330
26
100
AcDbEntity
  8
1
100
AcDbLine
 10
109.518347
 20
-351.556662
 30
0.0
 11
109.518347
 21
-355.556662
 31
0.0
  0
LINE
  5
12C
330
26
100
AcDbEntity
  8
1
100
AcDbLine
 10
109.518347
 20
-355.556662
 30
0.0
 11
99.51834699999999
 21
-355.556662
 31
0.0
  0
ARC
  5
12D
330
26
100
AcDbEntity
  8
1
100
AcDbCircle
 10
107.018347
 20
-348.943454
 30
0.0
 40
6.613208
100
AcDbArc
 50
247.7882049999999
 51
292.211795
  0
LINE
  5
12E
330
26
100
AcDbEntity
  8
1
100
AcDbLine
 10
98.41834699999999
 20
-350.056662
 30
0.0
 11
98.41834699999999
 21
-351.556662
 31
0.0
  0
LINE
  5
12F
330
26
100
AcDbEntity
  8
1
100
AcDbLine
 10
98.41834699999999
 20
-351.556662
 30
0.0
 11
110.618347
 21
-351.556662
 31
0.0
  0
LINE
  5
130
330
26
100
AcDbEntity
  8
1
100
AcDbLine
 10
110.618347
 20
-351.556662
 30
0.0
 11
110.618347
 21
-350.056662
 31
0.0
  0
LINE
  5
131
330
26
100
AcDbEntity
  8
1
  6
CENTER
 62
     2
100
AcDbLine
 10
104.518347
 20
-359.638963
 30
0.0
 11
104.518347
 21
-339.736507
 31
0.0
  0
LINE
  5
132
330
26
100
AcDbEntity
  8
1
100
AcDbLine
 10
105.264769
 20
-143.3068439999999
 30
0.0
 11
99.92441499999999
 21
-219.677464
 31
0.0
  0
LINE
  5
133
330
26
100
AcDbEntity
  8
1
100
AcDbLine
 10
117.741714
 20
-143.3068439999999
 30
0.0
 11
123.082068
 21
-219.677464
 31
0.0
  0
LINE
  5
134
330
26
100
AcDbEntity
  8
1
100
AcDbLine
 10
104.461611
 20
-139.756662
 30
0.0
 11
104.461611
 21
-140.756662
 31
0.0
  0
LINE
  5
135
330
26
100
AcDbEntity
  8
1
100
AcDbLine
 10
118.544872
 20
-139.756662
 30
0.0
 11
118.544872
 21
-140.756662
 31
0.0
  0
ARC
  5
136
330
26
100
AcDbEntity
  8
1
100
AcDbCircle
 10
121.544872
 20
-139.756662
 30
0.0
 40
3.0
100
AcDbArc
 50
90.0
 51
180.0
  0
ARC
  5
137
330
26
100
AcDbEntity
  8
1
100
AcDbCircle
 10
101.461611
 20
-139.756662
 30
0.0
 40
3.0
100
AcDbArc
 50
360.0
 51
90.0
  0
ARC
  5
138
330
26
100
AcDbEntity
  8
1
100
AcDbCircle
 10
116.544872
 20
-140.756662
 30
0.0
 40
2.0
100
AcDbArc
 50
322.938827
 51
360.0
  0
ARC
  5
139
330
26
100
AcDbEntity
  8
1
100
AcDbCircle
 10
106.461611
 20
-140.756662
 30
0.0
 40
2.0
100
AcDbArc
 50
180.0
 51
217.061173
  0
ARC
  5
13A
330
26
100
AcDbEntity
  8
1
100
AcDbCircle
 10
119.736842
 20
-143.167331
 30
0.0
 40
2.0
100
AcDbArc
 50
142.938827
 51
184.0
  0
ARC
  5
13B
330
26
100
AcDbEntity
  8
1
100
AcDbCircle
 10
103.269641
 20
-143.167331
 30
0.0
 40
2.0
100
AcDbArc
 50
356.0
 51
37.061173
  0
LINE
  5
13C
330
26
100
AcDbEntity
  8
1
100
AcDbLine
 10
118.544872
 20
-142.756662
 30
0.0
 11
126.503242
 21
-142.756662
 31
0.0
  0
LINE
  5
13D
330
26
100
AcDbEntity
  8
1
100
AcDbLine
 10
107.503242
 20
-142.756662
 30
0.0
 11
115.503242
 21
-142.756662
 31
0.0
  0
LINE
  5
13E
330
26
100
AcDbEntity
  8
1
100
AcDbLine
 10
96.503242
 20
-142.756662
 30
0.0
 11
104.461611
 21
-142.756662
 31
0.0
  0
LINE
  5
13F
330
26
100
AcDbEntity
  8
1
100
AcDbLine
 10
107.503242
 20
-140.756662
 30
0.0
 11
107.503242
 21
-138.756662
 31
0.0
  0
LINE
  5
140
330
26
100
AcDbEntity
  8
1
100
AcDbLine
 10
115.503242
 20
-140.756662
 30
0.0
 11
115.503242
 21
-138.756662
 31
0.0
  0
ARC
  5
141
330
26
100
AcDbEntity
  8
1
100
AcDbCircle
 10
117.503242
 20
-138.756662
 30
0.0
 40
2.0
100
AcDbArc
 50
90.0
 51
180.0
  0
ARC
  5
142
330
26
100
AcDbEntity
  8
1
100
AcDbCircle
 10
105.503242
 20
-138.756662
 30
0.0
 40
2.0
100
AcDbArc
 50
0.0
 51
90.0
  0
ARC
  5
143
330
26
100
AcDbEntity
  8
1
100
AcDbCircle
 10
105.503242
 20
-140.756662
 30
0.0
 40
2.0
100
AcDbArc
 50
270.0
 51
360.0
  0
ARC
  5
144
330
26
100
AcDbEntity
  8
1
100
AcDbCircle
 10
117.503242
 20
-140.756662
 30
0.0
 40
2.0
100
AcDbArc
 50
180.0
 51
270.0
  0
ARC
  5
145
330
26
100
AcDbEntity
  8
1
100
AcDbCircle
 10
90.503242
 20
-214.445615
 30
0.0
 40
6.0
100
AcDbArc
 50
270.0
 51
0.0
  0
LINE
  5
146
330
26
100
AcDbEntity
  8
1
100
AcDbLine
 10
95.393983
 20
-220.042805
 30
0.0
 11
98.34602
 21
-221.114792
 31
0.0
  0
LINE
  5
147
330
26
100
AcDbEntity
  8
1
100
AcDbLine
 10
129.903242
 20
-218.174717
 30
0.0
 11
129.903242
 21
-335.339936
 31
0.0
  0
LINE
  5
148
330
26
100
AcDbEntity
  8
1
100
AcDbLine
 10
128.96542
 20
-218.660665
 30
0.0
 11
128.96542
 21
-331.686162
 31
0.0
  0
LINE
  5
149
330
26
100
AcDbEntity
  8
1
100
AcDbLine
 10
124.003242
 20
-261.756662
 30
0.0
 11
124.003242
 21
-291.756662
 31
0.0
  0
LINE
  5
14A
330
26
100
AcDbEntity
  8
1
100
AcDbLine
 10
124.003242
 20
-244.756662
 30
0.0
 11
124.003242
 21
-222.674391
 31
0.0
  0
LINE
  5
14B
330
26
100
AcDbEntity
  8
1
100
AcDbLine
 10
99.003242
 20
-244.756662
 30
0.0
 11
99.003242
 21
-222.674391
 31
0.0
  0
LINE
  5
14C
330
26
100
AcDbEntity
  8
1
100
AcDbLine
 10
102.218632
 20
-242.243148
 30
0.0
 11
102.218632
 21
-239.392689
 31
0.0
  0
LINE
  5
14D
330
26
100
AcDbEntity
  8
1
100
AcDbLine
 10
120.787851
 20
-268.34082
 30
0.0
 11
120.787851
 21
-285.172503
 31
0.0
  0
LINE
  5
14E
330
26
100
AcDbEntity
  8
1
100
AcDbLine
 10
120.787851
 20
-242.243148
 30
0.0
 11
120.787851
 21
-239.392689
 31
0.0
  0
LINE
  5
14F
330
26
100
AcDbEntity
  8
1
100
AcDbLine
 10
124.003242
 20
-308.756662
 30
0.0
 11
124.003242
 21
-330.946559
 31
0.0
  0
LINE
  5
150
330
26
100
AcDbEntity
  8
1
100
AcDbLine
 10
99.003242
 20
-291.756662
 30
0.0
 11
99.003242
 21
-261.756662
 31
0.0
  0
LINE
  5
151
330
26
100
AcDbEntity
  8
1
100
AcDbLine
 10
99.003242
 20
-308.756662
 30
0.0
 11
99.003242
 21
-330.946559
 31
0.0
  0
LINE
  5
152
330
26
100
AcDbEntity
  8
1
100
AcDbLine
 10
102.218632
 20
-285.172503
 30
0.0
 11
102.218632
 21
-268.34082
 31
0.0
  0
LINE
  5
153
330
26
100
AcDbEntity
  8
1
100
AcDbLine
 10
102.218632
 20
-311.270175
 30
0.0
 11
102.218632
 21
-313.961519
 31
0.0
  0
LINE
  5
154
330
26
100
AcDbEntity
  8
1
100
AcDbLine
 10
120.787851
 20
-311.270175
 30
0.0
 11
120.787851
 21
-313.961519
 31
0.0
  0
LINE
  5
155
330
26
100
AcDbEntity
  8
1
100
AcDbLine
 10
107.218632
 20
-318.961519
 30
0.0
 11
115.787851
 21
-318.961519
 31
0.0
  0
ARC
  5
156
330
26
100
AcDbEntity
  8
1
100
AcDbCircle
 10
107.218632
 20
-313.961519
 30
0.0
 40
5.0
100
AcDbArc
 50
180.0
 51
270.0
  0
ARC
  5
157
330
26
100
AcDbEntity
  8
1
100
AcDbCircle
 10
115.787851
 20
-313.961519
 30
0.0
 40
5.0
100
AcDbArc
 50
270.0
 51
360.0
  0
LINE
  5
158
330
26
100
AcDbEntity
  8
1
100
AcDbLine
 10
129.503242
 20
-335.339936
 30
0.0
 11
129.903242
 21
-335.339936
 31
0.0
  0
ARC
  5
159
330
26
100
AcDbEntity
  8
1
100
AcDbCircle
 10
93.50324200000001
 20
-336.686162
 30
0.0
 40
5.0
100
AcDbArc
 50
360.0
 51
90.0
  0
ARC
  5
15A
330
26
100
AcDbEntity
  8
1
100
AcDbCircle
 10
129.503242
 20
-340.339936
 30
0.0
 40
5.0
100
AcDbArc
 50
90.0
 51
180.0
  0
ARC
  5
15B
330
26
100
AcDbEntity
  8
1
100
AcDbCircle
 10
121.503242
 20
-333.344474
 30
0.0
 40
3.0
100
AcDbArc
 50
0.0
 51
23.556464
  0
ARC
  5
15C
330
26
100
AcDbEntity
  8
1
100
AcDbCircle
 10
101.503242
 20
-333.344474
 30
0.0
 40
3.0
100
AcDbArc
 50
156.443536
 51
180.0
  0
ARC
  5
15D
330
26
100
AcDbEntity
  8
1
100
AcDbCircle
 10
127.003242
 20
-330.946559
 30
0.0
 40
3.0
100
AcDbArc
 50
180.0
 51
203.556464
  0
ARC
  5
15E
330
26
100
AcDbEntity
  8
1
100
AcDbCircle
 10
96.00324200000001
 20
-330.946559
 30
0.0
 40
3.0
100
AcDbArc
 50
336.443536
 51
360.0
  0
LINE
  5
15F
330
26
100
AcDbEntity
  8
1
100
AcDbLine
 10
123.339081
 20
-329.057802
 30
0.0
 11
120.787851
 21
-318.961519
 31
0.0
  0
LINE
  5
160
330
26
100
AcDbEntity
  8
1
100
AcDbLine
 10
99.667402
 20
-329.057802
 30
0.0
 11
102.218632
 21
-318.961519
 31
0.0
  0
LINE
  5
161
330
26
100
AcDbEntity
  8
1
100
AcDbLine
 10
112.253242
 20
-343.756662
 30
0.0
 11
121.503242
 21
-343.756662
 31
0.0
  0
ARC
  5
162
330
26
100
AcDbEntity
  8
1
100
AcDbCircle
 10
112.253242
 20
-332.2462450000001
 30
0.0
 40
11.510417
100
AcDbArc
 50
227.67748
 51
270.0
  0
ARC
  5
163
330
26
100
AcDbEntity
  8
1
100
AcDbCircle
 10
121.503242
 20
-340.756662
 30
0.0
 40
3.0
100
AcDbArc
 50
270.0
 51
360.0
  0
LINE
  5
164
330
26
100
AcDbEntity
  8
1
100
AcDbLine
 10
124.503242
 20
-331.686162
 30
0.0
 11
128.96542
 21
-331.686162
 31
0.0
  0
LINE
  5
165
330
26
100
AcDbEntity
  8
1
100
AcDbLine
 10
128.96542
 20
-331.686162
 30
0.0
 11
129.903242
 21
-335.339936
 31
0.0
  0
LINE
  5
166
330
26
100
AcDbEntity
  8
1
100
AcDbLine
 10
105.003242
 20
-255.756662
 30
0.0
 11
118.003242
 21
-255.756662
 31
0.0
  0
LINE
  5
167
330
26
100
AcDbEntity
  8
1
100
AcDbLine
 10
105.003242
 20
-250.756662
 30
0.0
 11
118.003242
 21
-250.756662
 31
0.0
  0
LINE
  5
168
330
26
100
AcDbEntity
  8
1
100
AcDbLine
 10
108.218632
 20
-262.34082
 30
0.0
 11
114.787851
 21
-262.34082
 31
0.0
  0
LINE
  5
169
330
26
100
AcDbEntity
  8
1
100
AcDbLine
 10
107.218632
 20
-247.243148
 30
0.0
 11
115.787851
 21
-247.243148
 31
0.0
  0
LINE
  5
16A
330
26
100
AcDbEntity
  8
1
100
AcDbLine
 10
107.218632
 20
-234.392689
 30
0.0
 11
115.787851
 21
-234.392689
 31
0.0
  0
ARC
  5
16B
330
26
100
AcDbEntity
  8
1
100
AcDbCircle
 10
105.003242
 20
-261.756662
 30
0.0
 40
6.0
100
AcDbArc
 50
90.0
 51
180.0
  0
ARC
  5
16C
330
26
100
AcDbEntity
  8
1
100
AcDbCircle
 10
118.003242
 20
-261.756662
 30
0.0
 40
6.0
100
AcDbArc
 50
360.0
 51
90.0
  0
ARC
  5
16D
330
26
100
AcDbEntity
  8
1
100
AcDbCircle
 10
118.003242
 20
-244.756662
 30
0.0
 40
6.0
100
AcDbArc
 50
270.0
 51
0.0
  0
ARC
  5
16E
330
26
100
AcDbEntity
  8
1
100
AcDbCircle
 10
105.003242
 20
-244.756662
 30
0.0
 40
6.0
100
AcDbArc
 50
180.0
 51
270.0
  0
ARC
  5
16F
330
26
100
AcDbEntity
  8
1
100
AcDbCircle
 10
108.218632
 20
-268.34082
 30
0.0
 40
6.0
100
AcDbArc
 50
90.0
 51
180.0
  0
ARC
  5
170
330
26
100
AcDbEntity
  8
1
100
AcDbCircle
 10
114.787851
 20
-268.34082
 30
0.0
 40
6.0
100
AcDbArc
 50
360.0
 51
90.0
  0
ARC
  5
171
330
26
100
AcDbEntity
  8
1
100
AcDbCircle
 10
115.787851
 20
-242.243148
 30
0.0
 40
5.0
100
AcDbArc
 50
270.0
 51
0.0
  0
ARC
  5
172
330
26
100
AcDbEntity
  8
1
100
AcDbCircle
 10
107.218632
 20
-242.243148
 30
0.0
 40
5.0
100
AcDbArc
 50
180.0
 51
270.0
  0
ARC
  5
173
330
26
100
AcDbEntity
  8
1
100
AcDbCircle
 10
107.218632
 20
-239.392689
 30
0.0
 40
5.0
100
AcDbArc
 50
90.0
 51
180.0
  0
ARC
  5
174
330
26
100
AcDbEntity
  8
1
100
AcDbCircle
 10
115.787851
 20
-239.392689
 30
0.0
 40
5.0
100
AcDbArc
 50
0.0
 51
90.0
  0
LINE
  5
175
330
26
100
AcDbEntity
  8
1
100
AcDbLine
 10
120.245866
 20
-246.650911
 30
0.0
 11
121.58466
 21
-248.113835
 31
0.0
  0
LINE
  5
176
330
26
100
AcDbEntity
  8
1
100
AcDbLine
 10
121.93264
 20
-259.996635
 30
0.0
 11
120.359571
 21
-263.21781
 31
0.0
  0
LINE
  5
177
330
26
100
AcDbEntity
  8
1
100
AcDbLine
 10
102.760618
 20
-246.650911
 30
0.0
 11
101.421823
 21
-248.113835
 31
0.0
  0
LINE
  5
178
330
26
100
AcDbEntity
  8
1
100
AcDbLine
 10
101.073843
 20
-259.996635
 30
0.0
 11
102.646912
 21
-263.21781
 31
0.0
  0
ARC
  5
179
330
26
100
AcDbEntity
  8
1
100
AcDbCircle
 10
132.503242
 20
-210.827486
 30
0.0
 40
6.0
100
AcDbArc
 50
180.0
 51
233.130102
  0
LINE
  5
17A
330
26
100
AcDbEntity
  8
1
100
AcDbLine
 10
128.903242
 20
-216.827486
 30
0.0
 11
129.903242
 21
-218.174717
 31
0.0
  0
LINE
  5
17B
330
26
100
AcDbEntity
  8
1
100
AcDbLine
 10
124.236051
 20
-221.111263
 30
0.0
 11
127.656547
 21
-219.338878
 31
0.0
  0
LINE
  5
17C
330
26
100
AcDbEntity
  8
1
100
AcDbLine
 10
128.96542
 20
-218.660665
 30
0.0
 11
129.903242
 21
-218.174717
 31
0.0
  0
ARC
  5
17D
330
26
100
AcDbEntity
  8
1
100
AcDbCircle
 10
126.07476
 20
-219.468194
 30
0.0
 40
3.0
100
AcDbArc
 50
184.0
 51
212.300937
  0
ARC
  5
17E
330
26
100
AcDbEntity
  8
1
100
AcDbCircle
 10
96.931723
 20
-219.468194
 30
0.0
 40
3.0
100
AcDbArc
 50
327.699063
 51
356.0
  0
ARC
  5
17F
330
26
100
AcDbEntity
  8
1
100
AcDbCircle
 10
121.003242
 20
-222.674391
 30
0.0
 40
3.0
100
AcDbArc
 50
0.0
 51
32.300937
  0
ARC
  5
180
330
26
100
AcDbEntity
  8
1
100
AcDbCircle
 10
102.003242
 20
-222.674391
 30
0.0
 40
3.0
100
AcDbArc
 50
147.699063
 51
180.0
  0
LINE
  5
181
330
26
100
AcDbEntity
  8
1
100
AcDbLine
 10
109.003242
 20
-187.989465
 30
0.0
 11
114.003242
 21
-187.989465
 31
0.0
  0
LINE
  5
182
330
26
100
AcDbEntity
  8
1
100
AcDbLine
 10
111.003242
 20
-193.205524
 30
0.0
 11
112.003242
 21
-193.205524
 31
0.0
  0
LINE
  5
183
330
26
100
AcDbEntity
  8
1
100
AcDbLine
 10
110.003242
 20
-197.185724
 30
0.0
 11
113.003242
 21
-197.185724
 31
0.0
  0
LINE
  5
184
330
26
100
AcDbEntity
  8
1
100
AcDbLine
 10
109.003242
 20
-220.278637
 30
0.0
 11
114.003242
 21
-220.278637
 31
0.0
  0
LINE
  5
185
330
26
100
AcDbEntity
  8
1
100
AcDbLine
 10
109.003242
 20
-217.278637
 30
0.0
 11
109.003242
 21
-190.989465
 31
0.0
  0
LINE
  5
186
330
26
100
AcDbEntity
  8
1
100
AcDbLine
 10
114.003242
 20
-217.278637
 30
0.0
 11
114.003242
 21
-190.989465
 31
0.0
  0
ARC
  5
187
330
26
100
AcDbEntity
  8
1
100
AcDbCircle
 10
117.003242
 20
-190.989465
 30
0.0
 40
3.0
100
AcDbArc
 50
90.0
 51
180.0
  0
ARC
  5
188
330
26
100
AcDbEntity
  8
1
100
AcDbCircle
 10
106.003242
 20
-190.989465
 30
0.0
 40
3.0
100
AcDbArc
 50
0.0
 51
90.0
  0
ARC
  5
189
330
26
100
AcDbEntity
  8
1
100
AcDbCircle
 10
117.003242
 20
-217.278637
 30
0.0
 40
3.0
100
AcDbArc
 50
180.0
 51
270.0
  0
ARC
  5
18A
330
26
100
AcDbEntity
  8
1
100
AcDbCircle
 10
106.003242
 20
-217.278637
 30
0.0
 40
3.0
100
AcDbArc
 50
270.0
 51
360.0
  0
ARC
  5
18B
330
26
100
AcDbEntity
  8
1
100
AcDbCircle
 10
112.003242
 20
-195.205524
 30
0.0
 40
2.0
100
AcDbArc
 50
0.0
 51
90.0
  0
ARC
  5
18C
330
26
100
AcDbEntity
  8
1
100
AcDbCircle
 10
111.003242
 20
-195.205524
 30
0.0
 40
2.0
100
AcDbArc
 50
90.0
 51
180.0
  0
LINE
  5
18D
330
26
100
AcDbEntity
  8
1
100
AcDbLine
 10
105.003242
 20
-297.756662
 30
0.0
 11
118.003242
 21
-297.756662
 31
0.0
  0
LINE
  5
18E
330
26
100
AcDbEntity
  8
1
100
AcDbLine
 10
105.003242
 20
-302.756662
 30
0.0
 11
118.003242
 21
-302.756662
 31
0.0
  0
LINE
  5
18F
330
26
100
AcDbEntity
  8
1
100
AcDbLine
 10
108.218632
 20
-291.172503
 30
0.0
 11
114.787851
 21
-291.172503
 31
0.0
  0
LINE
  5
190
330
26
100
AcDbEntity
  8
1
100
AcDbLine
 10
107.218632
 20
-306.270175
 30
0.0
 11
115.787851
 21
-306.270175
 31
0.0
  0
ARC
  5
191
330
26
100
AcDbEntity
  8
1
100
AcDbCircle
 10
105.003242
 20
-291.756662
 30
0.0
 40
6.0
100
AcDbArc
 50
180.0
 51
270.0
  0
ARC
  5
192
330
26
100
AcDbEntity
  8
1
100
AcDbCircle
 10
118.003242
 20
-291.756662
 30
0.0
 40
6.0
100
AcDbArc
 50
270.0
 51
0.0
  0
ARC
  5
193
330
26
100
AcDbEntity
  8
1
100
AcDbCircle
 10
118.003242
 20
-308.756662
 30
0.0
 40
6.0
100
AcDbArc
 50
360.0
 51
90.0
  0
ARC
  5
194
330
26
100
AcDbEntity
  8
1
100
AcDbCircle
 10
105.003242
 20
-308.756662
 30
0.0
 40
6.0
100
AcDbArc
 50
90.0
 51
180.0
  0
ARC
  5
195
330
26
100
AcDbEntity
  8
1
100
AcDbCircle
 10
108.218632
 20
-285.172503
 30
0.0
 40
6.0
100
AcDbArc
 50
180.0
 51
270.0
  0
ARC
  5
196
330
26
100
AcDbEntity
  8
1
100
AcDbCircle
 10
114.787851
 20
-285.172503
 30
0.0
 40
6.0
100
AcDbArc
 50
270.0
 51
0.0
  0
ARC
  5
197
330
26
100
AcDbEntity
  8
1
100
AcDbCircle
 10
115.787851
 20
-311.270175
 30
0.0
 40
5.0
100
AcDbArc
 50
360.0
 51
90.0
  0
ARC
  5
198
330
26
100
AcDbEntity
  8
1
100
AcDbCircle
 10
107.218632
 20
-311.270175
 30
0.0
 40
5.0
100
AcDbArc
 50
90.0
 51
180.0
  0
LINE
  5
199
330
26
100
AcDbEntity
  8
1
100
AcDbLine
 10
120.245866
 20
-306.862413
 30
0.0
 11
121.58466
 21
-305.399488
 31
0.0
  0
LINE
  5
19A
330
26
100
AcDbEntity
  8
1
100
AcDbLine
 10
121.93264
 20
-293.516689
 30
0.0
 11
120.359571
 21
-290.295513
 31
0.0
  0
LINE
  5
19B
330
26
100
AcDbEntity
  8
1
100
AcDbLine
 10
102.760618
 20
-306.862413
 30
0.0
 11
101.421823
 21
-305.399488
 31
0.0
  0
LINE
  5
19C
330
26
100
AcDbEntity
  8
1
100
AcDbLine
 10
101.073843
 20
-293.516689
 30
0.0
 11
102.646912
 21
-290.295513
 31
0.0
  0
ARC
  5
19D
330
26
100
AcDbEntity
  8
1
100
AcDbCircle
 10
-257.834047
 20
-215.662308
 30
0.0
 40
6.0
100
AcDbArc
 50
184.0
 51
254.178511
  0
LINE
  5
19E
330
26
100
AcDbEntity
  8
1
100
AcDbLine
 10
-265.37899
 20
-251.44751
 30
0.0
 11
-284.914527
 21
-251.44751
 31
0.0
  0
LINE
  5
19F
330
26
100
AcDbEntity
  8
1
100
AcDbLine
 10
-266.174824
 20
-253.575289
 30
0.0
 11
-284.118693
 21
-253.575289
 31
0.0
  0
LINE
  5
1A0
330
26
100
AcDbEntity
  8
1
100
AcDbLine
 10
-266.174824
 20
-255.423844
 30
0.0
 11
-266.174824
 21
-258.820393
 31
0.0
  0
LINE
  5
1A1
330
26
100
AcDbEntity
  8
1
100
AcDbLine
 10
-264.583155
 20
-248.97488
 30
0.0
 11
-285.710361
 21
-248.97488
 31
0.0
  0
ARC
  5
1A2
330
26
100
AcDbEntity
  8
1
100
AcDbCircle
 10
-272.583155
 20
-248.97488
 30
0.0
 40
8.0
100
AcDbArc
 50
0.0
 51
22.165136
  0
LINE
  5
1A3
330
26
100
AcDbEntity
  8
1
100
AcDbLine
 10
-264.583155
 20
-304.538443
 30
0.0
 11
-264.583155
 21
-302.638713
 31
0.0
  0
LINE
  5
1A4
330
26
100
AcDbEntity
  8
1
100
AcDbLine
 10
-264.583155
 20
-249.451689
 30
0.0
 11
-264.583155
 21
-248.97488
 31
0.0
  0
ARC
  5
1A5
330
26
100
AcDbEntity
  8
1
100
AcDbCircle
 10
-275.146758
 20
-276.756662
 30
0.0
 40
30.424611
100
AcDbArc
 50
293.229652
 51
66.770348
  0
ARC
  5
1A6
330
26
100
AcDbEntity
  8
1
100
AcDbCircle
 10
-270.583155
 20
-249.451689
 30
0.0
 40
6.0
100
AcDbArc
 50
330.153399
 51
0.0
  0
ARC
  5
1A7
330
26
100
AcDbEntity
  8
1
100
AcDbCircle
 10
-260.174824
 20
-255.423844
 30
0.0
 40
6.0
100
AcDbArc
 50
150.153399
 51
180.0
  0
LINE
  5
1A8
330
26
100
AcDbEntity
  8
1
100
AcDbLine
 10
-264.583155
 20
-304.538443
 30
0.0
 11
-285.710361
 21
-304.538443
 31
0.0
  0
ARC
  5
1A9
330
26
100
AcDbEntity
  8
1
100
AcDbCircle
 10
-272.583155
 20
-304.538443
 30
0.0
 40
8.0
100
AcDbArc
 50
337.834864
 51
360.0
  0
LINE
  5
1AA
330
26
100
AcDbEntity
  8
1
100
AcDbLine
 10
-266.576798
 20
-259.64256
 30
0.0
 11
-283.716718
 21
-259.64256
 31
0.0
  0
LINE
  5
1AB
330
26
100
AcDbEntity
  8
1
100
AcDbLine
 10
-266.083155
 20
-300.906662
 30
0.0
 11
-284.210361
 21
-300.906662
 31
0.0
  0
ARC
  5
1AC
330
26
100
AcDbEntity
  8
1
100
AcDbCircle
 10
-272.174824
 20
-258.820393
 30
0.0
 40
6.0
100
AcDbArc
 50
338.90808
 51
360.0
  0
ARC
  5
1AD
330
26
100
AcDbEntity
  8
1
100
AcDbCircle
 10
-275.146758
 20
-257.6741
 30
0.0
 40
9.185337999999999
100
AcDbArc
 50
201.091917
 51
338.90808
  0
ARC
  5
1AE
330
26
100
AcDbEntity
  8
1
100
AcDbCircle
 10
-275.146758
 20
-305.855356
 30
0.0
 40
9.567496
100
AcDbArc
 50
60.000001
 51
120.000002
  0
LINE
  5
1AF
330
26
100
AcDbEntity
  8
1
100
AcDbLine
 10
-266.083155
 20
-300.040636
 30
0.0
 11
-270.36301
 21
-297.569661
 31
0.0
  0
ARC
  5
1B0
330
26
100
AcDbEntity
  8
1
100
AcDbCircle
 10
-267.583155
 20
-302.638713
 30
0.0
 40
3.0
100
AcDbArc
 50
0.0
 51
60.0
  0
ARC
  5
1B1
330
26
100
AcDbEntity
  8
1
100
AcDbCircle
 10
-275.146758
 20
-277.836662
 30
0.0
 40
33.54
100
AcDbArc
 50
55.10739499999999
 51
71.898363
  0
ARC
  5
1B2
330
26
100
AcDbEntity
  8
1
100
AcDbCircle
 10
-275.146758
 20
-276.756662
 30
0.0
 40
32.66
100
AcDbArc
 50
305.976489
 51
54.023511
  0
ARC
  5
1B3
330
26
100
AcDbEntity
  8
1
100
AcDbCircle
 10
-275.146758
 20
-275.676662
 30
0.0
 40
33.54
100
AcDbArc
 50
288.1016370000001
 51
304.892605
  0
ARC
  5
1B4
330
26
100
AcDbEntity
  8
1
100
AcDbCircle
 10
-272.253281
 20
-276.756662
 30
0.0
 40
31.706522
100
AcDbArc
 50
283.733866
 51
76.266134
  0
LINE
  5
1B5
330
26
100
AcDbEntity
  8
1
100
AcDbLine
 10
-264.72576
 20
-245.956662
 30
0.0
 11
-285.567756
 21
-245.956662
 31
0.0
  0
LINE
  5
1B6
330
26
100
AcDbEntity
  8
1
100
AcDbLine
 10
-264.72576
 20
-307.556662
 30
0.0
 11
-285.567756
 21
-307.556662
 31
0.0
  0
LINE
  5
1B7
330
26
100
AcDbEntity
  8
1
100
AcDbLine
 10
133.503242
 20
-215.756662
 30
0.0
 11
133.503242
 21
-337.756662
 31
0.0
  0
ARC
  5
1B8
330
26
100
AcDbEntity
  8
2
100
AcDbCircle
 10
86.503242
 20
-42.75666199999998
 30
0.0
 40
18.0
100
AcDbArc
 50
90.0
 51
270.0
  0
LINE
  5
1B9
330
26
100
AcDbEntity
  8
2
100
AcDbLine
 10
65.30323199999999
 20
-102.606373
 30
0.0
 11
72.50424599999998
 21
-102.606373
 31
0.0
  0
LINE
  5
1BA
330
26
100
AcDbEntity
  8
2
100
AcDbLine
 10
146.503242
 20
-125.756662
 30
0.0
 11
76.503242
 21
-125.756662
 31
0.0
  0
LINE
  5
1BB
330
26
100
AcDbEntity
  8
2
100
AcDbLine
 10
59.503242
 20
-41.756662
 30
0.0
 11
59.503242
 21
-121.756662
 31
0.0
  0
LINE
  5
1BC
330
26
100
AcDbEntity
  8
2
100
AcDbLine
 10
59.503242
 20
-121.756662
 30
0.0
 11
81.17479799999998
 21
-121.756662
 31
0.0
  0
LINE
  5
1BD
330
26
100
AcDbEntity
  8
2
100
AcDbLine
 10
59.503242
 20
-41.756662
 30
0.0
 11
63.734985
 21
-41.756662
 31
0.0
  0
LINE
  5
1BE
330
26
100
AcDbEntity
  8
2
100
AcDbLine
 10
164.503242
 20
-19.756662
 30
0.0
 11
64.503242
 21
-19.756662
 31
0.0
  0
LINE
  5
1BF
330
26
100
AcDbEntity
  8
2
100
AcDbLine
 10
86.503242
 20
-60.756662
 30
0.0
 11
136.503242
 21
-60.756662
 31
0.0
  0
LINE
  5
1C0
330
26
100
AcDbEntity
  8
2
100
AcDbLine
 10
86.503242
 20
-24.756662
 30
0.0
 11
136.503242
 21
-24.756662
 31
0.0
  0
ARC
  5
1C1
330
26
100
AcDbEntity
  8
2
100
AcDbCircle
 10
136.503242
 20
-42.75666199999998
 30
0.0
 40
18.0
100
AcDbArc
 50
270.0
 51
90.0
  0
LINE
  5
1C2
330
26
100
AcDbEntity
  8
2
100
AcDbLine
 10
141.209345
 20
-70.756662
 30
0.0
 11
86.79713900000001
 21
-70.756662
 31
0.0
  0
ARC
  5
1C3
330
26
100
AcDbEntity
  8
2
100
AcDbCircle
 10
102.503242
 20
-111.756662
 30
0.0
 40
1.0
100
AcDbArc
 50
0.0
 51
90.0
  0
LINE
  5
1C4
330
26
100
AcDbEntity
  8
2
100
AcDbLine
 10
103.503242
 20
-111.756662
 30
0.0
 11
103.503242
 21
-117.756662
 31
0.0
  0
ARC
  5
1C5
330
26
100
AcDbEntity
  8
2
100
AcDbCircle
 10
104.503242
 20
-117.756662
 30
0.0
 40
1.0
100
AcDbArc
 50
180.0
 51
270.0
  0
LINE
  5
1C6
330
26
100
AcDbEntity
  8
2
100
AcDbLine
 10
104.503242
 20
-118.756662
 30
0.0
 11
110.503242
 21
-118.756662
 31
0.0
  0
ARC
  5
1C7
330
26
100
AcDbEntity
  8
2
100
AcDbCircle
 10
110.503242
 20
-117.756662
 30
0.0
 40
1.0
100
AcDbArc
 50
270.0
 51
360.0
  0
LINE
  5
1C8
330
26
100
AcDbEntity
  8
2
100
AcDbLine
 10
111.503242
 20
-111.756662
 30
0.0
 11
111.503242
 21
-117.756662
 31
0.0
  0
ARC
  5
1C9
330
26
100
AcDbEntity
  8
2
100
AcDbCircle
 10
112.503242
 20
-111.756662
 30
0.0
 40
1.0
100
AcDbArc
 50
90.0
 51
180.0
  0
LINE
  5
1CA
330
26
100
AcDbEntity
  8
2
100
AcDbLine
 10
106.503242
 20
-119.756662
 30
0.0
 11
108.503242
 21
-119.756662
 31
0.0
  0
ARC
  5
1CB
330
26
100
AcDbEntity
  8
2
100
AcDbCircle
 10
108.503242
 20
-118.756662
 30
0.0
 40
1.0
100
AcDbArc
 50
270.0
 51
360.0
  0
ARC
  5
1CC
330
26
100
AcDbEntity
  8
2
100
AcDbCircle
 10
106.503242
 20
-118.756662
 30
0.0
 40
1.0
100
AcDbArc
 50
180.0
 51
270.0
  0
LINE
  5
1CD
330
26
100
AcDbEntity
  8
2
100
AcDbLine
 10
64.503242
 20
-19.756662
 30
0.0
 11
62.30323199999999
 21
-82.756685
 31
0.0
  0
LINE
  5
1CE
330
26
100
AcDbEntity
  8
2
100
AcDbLine
 10
164.503242
 20
-19.756662
 30
0.0
 11
166.004748
 21
-62.75419
 31
0.0
  0
ARC
  5
1CF
330
26
100
AcDbEntity
  8
2
100
AcDbCircle
 10
82.331686
 20
-105.756662
 30
0.0
 40
5.0
100
AcDbArc
 50
182.0
 51
270.0
  0
ARC
  5
1D0
330
26
100
AcDbEntity
  8
2
100
AcDbCircle
 10
147.606175
 20
-107.756662
 30
0.0
 40
3.0
100
AcDbArc
 50
270.0
 51
358.0
  0
LINE
  5
1D1
330
26
100
AcDbEntity
  8
2
100
AcDbLine
 10
76.145246
 20
-71.868758
 30
0.0
 11
77.33473100000002
 21
-105.931159
 31
0.0
  0
LINE
  5
1D2
330
26
100
AcDbEntity
  8
2
100
AcDbLine
 10
150.604348
 20
-107.86136
 30
0.0
 11
151.861237
 21
-71.868758
 31
0.0
  0
LINE
  5
1D3
330
26
100
AcDbEntity
  8
2
100
AcDbLine
 10
76.503242
 20
-125.756662
 30
0.0
 11
76.430963
 21
-123.686863
 31
0.0
  0
ARC
  5
1D4
330
26
100
AcDbEntity
  8
2
100
AcDbCircle
 10
74.432181
 20
-123.756662
 30
0.0
 40
2.0
100
AcDbArc
 50
2.0
 51
90.0
  0
LINE
  5
1D5
330
26
100
AcDbEntity
  8
2
100
AcDbLine
 10
146.503242
 20
-125.756662
 30
0.0
 11
147.027053
 21
-110.756662
 31
0.0
  0
LINE
  5
1D6
330
26
100
AcDbEntity
  8
2
100
AcDbLine
 10
101.36234
 20
-119.756662
 30
0.0
 11
96.895407
 21
-119.756662
 31
0.0
  0
LINE
  5
1D7
330
26
100
AcDbEntity
  8
2
100
AcDbLine
 10
121.644144
 20
-119.756662
 30
0.0
 11
126.111077
 21
-119.756662
 31
0.0
  0
LINE
  5
1D8
330
26
100
AcDbEntity
  8
2
 62
     2
100
AcDbLine
 10
119.503242
 20
-125.756662
 30
0.0
 11
119.959649
 21
-112.686863
 31
0.0
  0
LINE
  5
1D9
330
26
100
AcDbEntity
  8
2
 62
     2
100
AcDbLine
 10
103.503242
 20
-125.756662
 30
0.0
 11
103.046834
 21
-112.686863
 31
0.0
  0
ARC
  5
1DA
330
26
100
AcDbEntity
  8
2
 62
     2
100
AcDbCircle
 10
121.958431
 20
-112.756662
 30
0.0
 40
2.0
100
AcDbArc
 50
90.0
 51
178.0
  0
ARC
  5
1DB
330
26
100
AcDbEntity
  8
2
 62
     2
100
AcDbCircle
 10
101.048053
 20
-112.756662
 30
0.0
 40
2.0
100
AcDbArc
 50
2.0
 51
90.0
  0
ARC
  5
1DC
330
26
100
AcDbEntity
  8
2
100
AcDbCircle
 10
121.644144
 20
-121.756662
 30
0.0
 40
2.0
100
AcDbArc
 50
90.0
 51
178.0
  0
ARC
  5
1DD
330
26
100
AcDbEntity
  8
2
100
AcDbCircle
 10
101.36234
 20
-121.756662
 30
0.0
 40
2.0
100
AcDbArc
 50
2.0
 51
90.0
  0
LINE
  5
1DE
330
26
100
AcDbEntity
  8
2
100
AcDbLine
 10
119.645362
 20
-121.686863
 30
0.0
 11
119.503242
 21
-125.756662
 31
0.0
  0
LINE
  5
1DF
330
26
100
AcDbEntity
  8
2
100
AcDbLine
 10
103.361121
 20
-121.686863
 30
0.0
 11
103.503242
 21
-125.756662
 31
0.0
  0
ARC
  5
1E0
330
26
100
AcDbEntity
  8
2
100
AcDbCircle
 10
72.50424599999998
 20
-107.606373
 30
0.0
 40
5.0
100
AcDbArc
 50
10.659447
 51
90.0
  0
ARC
  5
1E1
330
26
100
AcDbEntity
  8
2
 62
     2
100
AcDbCircle
 10
136.503242
 20
-42.75666199999998
 30
0.0
 40
17.0
100
AcDbArc
 50
270.0
 51
90.0
  0
LINE
  5
1E2
330
26
100
AcDbEntity
  8
2
 62
     2
100
AcDbLine
 10
86.503242
 20
-25.756662
 30
0.0
 11
136.503242
 21
-25.756662
 31
0.0
  0
ARC
  5
1E3
330
26
100
AcDbEntity
  8
2
 62
     2
100
AcDbCircle
 10
86.503242
 20
-42.75666199999998
 30
0.0
 40
17.0
100
AcDbArc
 50
90.0
 51
270.0
  0
LINE
  5
1E4
330
26
100
AcDbEntity
  8
2
 62
     2
100
AcDbLine
 10
86.503242
 20
-59.756662
 30
0.0
 11
136.503242
 21
-59.756662
 31
0.0
  0
LINE
  5
1E5
330
26
100
AcDbEntity
  8
2
 62
     2
100
AcDbLine
 10
159.964614
 20
-61.70960400000002
 30
0.0
 11
66.040041
 21
-61.70960400000002
 31
0.0
  0
LINE
  5
1E6
330
26
100
AcDbEntity
  8
2
100
AcDbLine
 10
146.864284
 20
-66.69426099999999
 30
0.0
 11
81.142201
 21
-66.69426099999999
 31
0.0
  0
ARC
  5
1E7
330
26
100
AcDbEntity
  8
2
100
AcDbCircle
 10
146.864284
 20
-71.69426099999999
 30
0.0
 40
5.0
100
AcDbArc
 50
357.999999
 51
90.0
  0
ARC
  5
1E8
330
26
100
AcDbEntity
  8
2
100
AcDbCircle
 10
81.142201
 20
-71.69426099999999
 30
0.0
 40
5.0
100
AcDbArc
 50
90.0
 51
182.0
  0
LINE
  5
1E9
330
26
100
AcDbEntity
  8
2
100
AcDbLine
 10
83.798966
 20
-73.651963
 30
0.0
 11
82.53970499999999
 21
-109.712496
 31
0.0
  0
ARC
  5
1EA
330
26
100
AcDbEntity
  8
2
100
AcDbCircle
 10
86.79713900000001
 20
-73.75666200000002
 30
0.0
 40
3.0
100
AcDbArc
 50
90.0
 51
178.0
  0
LINE
  5
1EB
330
26
100
AcDbEntity
  8
2
100
AcDbLine
 10
144.207517
 20
-73.651963
 30
0.0
 11
145.46954
 21
-109.791561
 31
0.0
  0
ARC
  5
1EC
330
26
100
AcDbEntity
  8
2
100
AcDbCircle
 10
141.209345
 20
-73.75666200000002
 30
0.0
 40
3.0
100
AcDbArc
 50
2.0
 51
90.0
  0
ARC
  5
1ED
330
26
100
AcDbEntity
  8
2
100
AcDbCircle
 10
81.54031399999999
 20
-109.677597
 30
0.0
 40
1.0
100
AcDbArc
 50
258.589152
 51
358.0
  0
ARC
  5
1EE
330
26
100
AcDbEntity
  8
2
100
AcDbCircle
 10
146.468931
 20
-109.756662
 30
0.0
 40
1.0
100
AcDbArc
 50
182.0
 51
270.0
  0
LINE
  5
1EF
330
26
100
AcDbEntity
  8
2
100
AcDbLine
 10
62.30323199999999
 20
-82.75666200000001
 30
0.0
 11
62.30323199999999
 21
-99.60637300000001
 31
0.0
  0
ARC
  5
1F0
330
26
100
AcDbEntity
  8
2
100
AcDbCircle
 10
65.30323199999999
 20
-99.60637300000001
 30
0.0
 40
3.0
100
AcDbArc
 50
180.0
 51
270.0
  0
ARC
  5
1F1
330
26
100
AcDbEntity
  8
2
100
AcDbCircle
 10
161.007795
 20
-62.92868699999999
 30
0.0
 40
5.0
100
AcDbArc
 50
299.999995
 51
2.000000999999999
  0
LINE
  5
1F2
330
26
100
AcDbEntity
  8
2
100
AcDbLine
 10
154.186118
 20
-72.640686
 30
0.0
 11
163.507795
 21
-67.258814
 31
0.0
  0
ARC
  5
1F3
330
26
100
AcDbEntity
  8
2
100
AcDbCircle
 10
156.686118
 20
-76.970813
 30
0.0
 40
5.0
100
AcDbArc
 50
119.999995
 51
177.999999
  0
ARC
  5
1F4
330
26
100
AcDbEntity
  8
2
100
AcDbCircle
 10
88.31874799999999
 20
-112.756662
 30
0.0
 40
2.0
100
AcDbArc
 50
90.0
 51
178.0
  0
LINE
  5
1F5
330
26
100
AcDbEntity
  8
2
100
AcDbLine
 10
86.319966
 20
-112.686863
 30
0.0
 11
86.171752
 21
-116.931159
 31
0.0
  0
ARC
  5
1F6
330
26
100
AcDbEntity
  8
2
100
AcDbCircle
 10
81.17479799999998
 20
-116.756662
 30
0.0
 40
5.0
100
AcDbArc
 50
270.0
 51
358.0
  0
ARC
  5
1F7
330
26
100
AcDbEntity
  8
2
100
AcDbCircle
 10
96.895407
 20
-121.756662
 30
0.0
 40
2.0
100
AcDbArc
 50
90.0
 51
177.999998
  0
LINE
  5
1F8
330
26
100
AcDbEntity
  8
2
100
AcDbLine
 10
94.754505
 20
-125.756662
 30
0.0
 11
94.89662499999999
 21
-121.686863
 31
0.0
  0
ARC
  5
1F9
330
26
100
AcDbEntity
  8
2
100
AcDbCircle
 10
126.111077
 20
-121.756662
 30
0.0
 40
2.0
100
AcDbArc
 50
2.000001999999998
 51
90.0
  0
LINE
  5
1FA
330
26
100
AcDbEntity
  8
2
100
AcDbLine
 10
128.25198
 20
-125.756662
 30
0.0
 11
128.109859
 21
-121.686863
 31
0.0
  0
LINE
  5
1FB
330
26
100
AcDbEntity
  8
2
100
AcDbLine
 10
82.331686
 20
-110.756662
 30
0.0
 11
147.503242
 21
-110.756662
 31
0.0
  0
CIRCLE
  5
1FC
330
26
100
AcDbEntity
  8
2
100
AcDbCircle
 10
136.503242
 20
-42.75666199999998
 30
0.0
 40
13.0
  0
LINE
  5
1FD
330
26
100
AcDbEntity
  8
2
100
AcDbLine
 10
128.997688
 20
-29.756662
 30
0.0
 11
121.492135
 21
-42.75666199999998
 31
0.0
  0
LINE
  5
1FE
330
26
100
AcDbEntity
  8
2
100
AcDbLine
 10
144.008795
 20
-29.756662
 30
0.0
 11
128.997688
 21
-29.756662
 31
0.0
  0
LINE
  5
1FF
330
26
100
AcDbEntity
  8
2
100
AcDbLine
 10
151.514349
 20
-42.75666199999998
 30
0.0
 11
144.008795
 21
-29.756662
 31
0.0
  0
LINE
  5
200
330
26
100
AcDbEntity
  8
2
100
AcDbLine
 10
144.008795
 20
-55.756662
 30
0.0
 11
151.514349
 21
-42.75666199999998
 31
0.0
  0
LINE
  5
201
330
26
100
AcDbEntity
  8
2
100
AcDbLine
 10
128.997688
 20
-55.756662
 30
0.0
 11
144.008795
 21
-55.756662
 31
0.0
  0
LINE
  5
202
330
26
100
AcDbEntity
  8
2
100
AcDbLine
 10
121.492135
 20
-42.75666199999998
 30
0.0
 11
128.997688
 21
-55.756662
 31
0.0
  0
CIRCLE
  5
203
330
26
100
AcDbEntity
  8
2
100
AcDbCircle
 10
86.503242
 20
-42.75666199999998
 30
0.0
 40
13.0
  0
LINE
  5
204
330
26
100
AcDbEntity
  8
2
100
AcDbLine
 10
78.997688
 20
-29.756662
 30
0.0
 11
71.492135
 21
-42.75666199999998
 31
0.0
  0
LINE
  5
205
330
26
100
AcDbEntity
  8
2
100
AcDbLine
 10
94.008795
 20
-29.756662
 30
0.0
 11
78.997688
 21
-29.756662
 31
0.0
  0
LINE
  5
206
330
26
100
AcDbEntity
  8
2
100
AcDbLine
 10
101.514349
 20
-42.75666199999998
 30
0.0
 11
94.008795
 21
-29.756662
 31
0.0
  0
LINE
  5
207
330
26
100
AcDbEntity
  8
2
100
AcDbLine
 10
94.008795
 20
-55.756662
 30
0.0
 11
101.514349
 21
-42.75666199999998
 31
0.0
  0
LINE
  5
208
330
26
100
AcDbEntity
  8
2
100
AcDbLine
 10
78.997688
 20
-55.756662
 30
0.0
 11
94.008795
 21
-55.756662
 31
0.0
  0
LINE
  5
209
330
26
100
AcDbEntity
  8
2
100
AcDbLine
 10
71.492135
 20
-42.75666199999998
 30
0.0
 11
78.997688
 21
-55.756662
 31
0.0
  0
LINE
  5
20A
330
26
100
AcDbEntity
  8
2
100
AcDbLine
 10
157.517947
 20
-2.756661999999998
 30
0.0
 11
71.48853599999998
 21
-2.756661999999998
 31
0.0
  0
LINE
  5
20B
330
26
100
AcDbEntity
  8
2
100
AcDbLine
 10
69.003242
 20
3.443337999999998
 30
0.0
 11
69.003242
 21
-1.621429
 31
0.0
  0
LINE
  5
20C
330
26
100
AcDbEntity
  8
2
100
AcDbLine
 10
154.003242
 20
3.443337999999998
 30
0.0
 11
154.003242
 21
0.243338
 31
0.0
  0
LINE
  5
20D
330
26
100
AcDbEntity
  8
2
100
AcDbLine
 10
69.003242
 20
2.243338
 30
0.0
 11
154.003242
 21
2.243338
 31
0.0
  0
LINE
  5
20E
330
26
100
AcDbEntity
  8
2
100
AcDbLine
 10
164.503242
 20
-19.756662
 30
0.0
 11
163.495116
 21
-8.233727
 31
0.0
  0
LINE
  5
20F
330
26
100
AcDbEntity
  8
2
100
AcDbLine
 10
64.503242
 20
-19.756662
 30
0.0
 11
65.511368
 21
-8.233727
 31
0.0
  0
ARC
  5
210
330
26
100
AcDbEntity
  8
2
100
AcDbCircle
 10
157.517947
 20
-8.756662
 30
0.0
 40
6.0
100
AcDbArc
 50
5.0
 51
90.0
  0
ARC
  5
211
330
26
100
AcDbEntity
  8
2
100
AcDbCircle
 10
71.48853599999998
 20
-8.756662
 30
0.0
 40
6.0
100
AcDbArc
 50
90.0
 51
175.0
  0
ARC
  5
212
330
26
100
AcDbEntity
  8
2
100
AcDbCircle
 10
157.003242
 20
0.243338
 30
0.0
 40
3.0
100
AcDbArc
 50
180.0
 51
270.0
  0
ARC
  5
213
330
26
100
AcDbEntity
  8
2
100
AcDbCircle
 10
66.003242
 20
-1.621429
 30
0.0
 40
3.0
100
AcDbArc
 50
307.551707
 51
360.0
  0
ARC
  5
214
330
26
100
AcDbEntity
  8
2
100
AcDbCircle
 10
111.503242
 20
-9.756662
 30
0.0
 40
34.0
100
AcDbArc
 50
45.099128
 51
134.900872
  0
LINE
  5
215
330
26
100
AcDbEntity
  8
2
100
AcDbLine
 10
119.003237
 20
21.848824
 30
0.0
 11
119.003242
 21
3.443337999999998
 31
0.0
  0
LINE
  5
216
330
26
100
AcDbEntity
  8
2
100
AcDbLine
 10
104.003242
 20
21.848824
 30
0.0
 11
104.003242
 21
3.443337999999998
 31
0.0
  0
LINE
  5
217
330
26
100
AcDbEntity
  8
2
100
AcDbLine
 10
87.50324199999999
 20
14.326527
 30
0.0
 11
87.50324199999999
 21
12.60044
 31
0.0
  0
LINE
  5
218
330
26
100
AcDbEntity
  8
2
100
AcDbLine
 10
135.503242
 20
14.326527
 30
0.0
 11
135.503242
 21
12.60044
 31
0.0
  0
ARC
  5
219
330
26
100
AcDbEntity
  8
2
100
AcDbCircle
 10
111.503242
 20
-7.756661999999997
 30
0.0
 40
31.0
100
AcDbArc
 50
28.45309699999999
 51
48.922243
  0
ARC
  5
21A
330
26
100
AcDbEntity
  8
2
100
AcDbCircle
 10
111.503242
 20
-7.756661999999997
 30
0.0
 40
31.0
100
AcDbArc
 50
131.077757
 51
151.546903
  0
ARC
  5
21B
330
26
100
AcDbEntity
  8
2
100
AcDbCircle
 10
111.503242
 20
-11.256662
 30
0.0
 40
28.0
100
AcDbArc
 50
105.536794
 51
145.287318
  0
ARC
  5
21C
330
26
100
AcDbEntity
  8
2
100
AcDbCircle
 10
111.503242
 20
-11.256662
 30
0.0
 40
28.0
100
AcDbArc
 50
34.712682
 51
74.46320599999999
  0
ARC
  5
21D
330
26
100
AcDbEntity
  8
2
100
AcDbCircle
 10
76.102847
 20
-6.991032
 30
0.0
 40
45.27491699999997
100
AcDbArc
 50
13.324563
 51
18.638604
  0
ARC
  5
21E
330
26
100
AcDbEntity
  8
2
100
AcDbCircle
 10
77.02672599999998
 20
-6.991032
 30
0.0
 40
45.27491699999997
100
AcDbArc
 50
13.324563
 51
21.318921
  0
ARC
  5
21F
330
26
100
AcDbEntity
  8
2
100
AcDbCircle
 10
118.802079
 20
9.312390999999999
 30
0.0
 40
0.4309470000000001
100
AcDbArc
 50
21.318921
 51
62.173379
  0
ARC
  5
220
330
26
100
AcDbEntity
  8
2
100
AcDbCircle
 10
100.073313
 20
-8.757913999999999
 30
0.0
 40
30.472934
100
AcDbArc
 50
23.60296
 51
36.322403
  0
ARC
  5
221
330
26
100
AcDbEntity
  8
2
100
AcDbCircle
 10
100.78042
 20
-8.757913999999999
 30
0.0
 40
30.472934
100
AcDbArc
 50
23.60296
 51
37.117331
  0
ARC
  5
222
330
26
100
AcDbEntity
  8
2
100
AcDbCircle
 10
124.853594
 20
9.459934
 30
0.0
 40
0.283404
100
AcDbArc
 50
37.117331
 51
216.322403
  0
ARC
  5
223
330
26
100
AcDbEntity
  8
2
100
AcDbCircle
 10
108.8289
 20
-10.524795
 30
0.0
 40
28.197761
100
AcDbArc
 50
29.69370399999999
 51
45.28851799999999
  0
ARC
  5
224
330
26
100
AcDbEntity
  8
2
100
AcDbCircle
 10
109.211584
 20
-10.524795
 30
0.0
 40
28.197761
100
AcDbArc
 50
29.69370399999999
 51
45.843762
  0
ARC
  5
225
330
26
100
AcDbEntity
  8
2
100
AcDbCircle
 10
128.761316
 20
9.609380999999999
 30
0.0
 40
0.133957
100
AcDbArc
 50
45.843762
 51
225.288518
  0
LINE
  5
226
330
26
100
AcDbEntity
  8
2
 62
     2
100
AcDbLine
 10
120.728817
 20
4.838822
 30
0.0
 11
119.6279
 21
5.474436999999999
 31
0.0
  0
LINE
  5
227
330
26
100
AcDbEntity
  8
2
 62
     2
100
AcDbLine
 10
120.496531
 20
5.665751999999997
 30
0.0
 11
119.379698
 21
6.310556
 31
0.0
  0
LINE
  5
228
330
26
100
AcDbEntity
  8
2
 62
     2
100
AcDbLine
 10
120.243428
 20
6.504701999999999
 30
0.0
 11
119.10967
 21
7.159277
 31
0.0
  0
LINE
  5
229
330
26
100
AcDbEntity
  8
2
 62
     2
100
AcDbLine
 10
119.968178
 20
7.356438
 30
0.0
 11
119.003244
 21
7.913542999999997
 31
0.0
  0
LINE
  5
22A
330
26
100
AcDbEntity
  8
2
 62
     2
100
AcDbLine
 10
119.669275
 20
8.22183
 30
0.0
 11
119.003244
 21
8.606362999999998
 31
0.0
  0
LINE
  5
22B
330
26
100
AcDbEntity
  8
2
 62
     2
100
AcDbLine
 10
119.345005
 20
9.101867
 30
0.0
 11
119.003244
 21
9.299184
 31
0.0
  0
LINE
  5
22C
330
26
100
AcDbEntity
  8
2
 62
     2
100
AcDbLine
 10
120.941464
 20
4.023229999999998
 30
0.0
 11
119.855567
 21
4.650173
 31
0.0
  0
LINE
  5
22D
330
26
100
AcDbEntity
  8
2
 62
     2
100
AcDbLine
 10
120.745865
 20
3.443337999999998
 30
0.0
 11
120.063849
 21
3.837101
 31
0.0
  0
LINE
  5
22E
330
26
100
AcDbEntity
  8
2
 62
     2
100
AcDbLine
 10
127.875505
 20
3.717575
 30
0.0
 11
128.350497
 21
3.443337999999998
 31
0.0
  0
LINE
  5
22F
330
26
100
AcDbEntity
  8
2
 62
     2
100
AcDbLine
 10
128.405882
 20
4.104181999999997
 30
0.0
 11
127.429152
 21
4.668097
 31
0.0
  0
LINE
  5
230
330
26
100
AcDbEntity
  8
2
 62
     2
100
AcDbLine
 10
127.936268
 20
5.068133999999997
 30
0.0
 11
126.923415
 21
5.652905
 31
0.0
  0
LINE
  5
231
330
26
100
AcDbEntity
  8
2
 62
     2
100
AcDbLine
 10
127.403149
 20
6.068750999999998
 30
0.0
 11
126.347277
 21
6.678358999999997
 31
0.0
  0
LINE
  5
232
330
26
100
AcDbEntity
  8
2
 62
     2
100
AcDbLine
 10
126.793972
 20
7.113278999999997
 30
0.0
 11
125.685401
 21
7.753313
 31
0.0
  0
LINE
  5
233
330
26
100
AcDbEntity
  8
2
 62
     2
100
AcDbLine
 10
126.090921
 20
8.212006
 30
0.0
 11
124.915299
 21
8.890752
 31
0.0
  0
LINE
  5
234
330
26
100
AcDbEntity
  8
2
 62
     2
100
AcDbLine
 10
125.267156
 20
9.380428
 30
0.0
 11
124.70815
 21
9.70317
 31
0.0
  0
LINE
  5
235
330
26
100
AcDbEntity
  8
2
100
AcDbLine
 10
69.003242
 20
3.443337999999998
 30
0.0
 11
154.003242
 21
3.443337999999998
 31
0.0
  0
LINE
  5
236
330
26
100
AcDbEntity
  8
2
 62
     2
100
AcDbLine
 10
131.879625
 20
6.246419
 30
0.0
 11
131.202351
 21
6.637442999999997
 31
0.0
  0
LINE
  5
237
330
26
100
AcDbEntity
  8
2
 62
     2
100
AcDbLine
 10
130.884874
 20
7.513558999999997
 30
0.0
 11
130.133832
 21
7.947174
 31
0.0
  0
LINE
  5
238
330
26
100
AcDbEntity
  8
2
 62
     2
100
AcDbLine
 10
129.612486
 20
8.940992999999997
 30
0.0
 11
128.732848
 21
9.448852
 31
0.0
  0
LINE
  5
239
330
26
100
AcDbEntity
  8
2
 62
     2
100
AcDbLine
 10
132.69654
 20
5.081952999999998
 30
0.0
 11
132.069024
 21
5.444249
 31
0.0
  0
LINE
  5
23A
330
26
100
AcDbEntity
  8
2
 62
     2
100
AcDbLine
 10
133.386029
 20
3.991055
 30
0.0
 11
132.795225
 21
4.332155999999998
 31
0.0
  0
LINE
  5
23B
330
26
100
AcDbEntity
  8
2
100
AcDbLine
 10
152.503242
 20
-5.756662
 30
0.0
 11
152.503242
 21
-14.256662
 31
0.0
  0
LINE
  5
23C
330
26
100
AcDbEntity
  8
2
100
AcDbLine
 10
76.503242
 20
-5.756662
 30
0.0
 11
76.503242
 21
-14.256662
 31
0.0
  0
LINE
  5
23D
330
26
100
AcDbEntity
  8
2
100
AcDbLine
 10
65.39885100000001
 20
-14.756662
 30
0.0
 11
76.003242
 21
-14.756662
 31
0.0
  0
LINE
  5
23E
330
26
100
AcDbEntity
  8
2
100
AcDbLine
 10
153.003242
 20
-14.756662
 30
0.0
 11
163.607633
 21
-14.756662
 31
0.0
  0
ARC
  5
23F
330
26
100
AcDbEntity
  8
2
100
AcDbCircle
 10
153.003242
 20
-14.256662
 30
0.0
 40
0.5
100
AcDbArc
 50
180.0
 51
270.0
  0
ARC
  5
240
330
26
100
AcDbEntity
  8
2
100
AcDbCircle
 10
76.003242
 20
-14.256662
 30
0.0
 40
0.5
100
AcDbArc
 50
270.0
 51
360.0
  0
ARC
  5
241
330
26
100
AcDbEntity
  8
2
100
AcDbCircle
 10
163.607633
 20
-15.256662
 30
0.0
 40
0.5
100
AcDbArc
 50
5.0
 51
90.0
  0
ARC
  5
242
330
26
100
AcDbEntity
  8
2
100
AcDbCircle
 10
65.39885100000001
 20
-15.256662
 30
0.0
 40
0.5
100
AcDbArc
 50
90.0
 51
175.0
  0
ARC
  5
243
330
26
100
AcDbEntity
  8
2
100
AcDbCircle
 10
149.503242
 20
-5.756662
 30
0.0
 40
3.0
100
AcDbArc
 50
0.0
 51
90.0
  0
ARC
  5
244
330
26
100
AcDbEntity
  8
2
100
AcDbCircle
 10
79.503242
 20
-5.756662
 30
0.0
 40
3.0
100
AcDbArc
 50
90.0
 51
180.0
  0
ARC
  5
245
330
26
100
AcDbEntity
  8
2
100
AcDbCircle
 10
103.219454
 20
10.92237
 30
0.0
 40
11.430139
100
AcDbArc
 50
88.51221499999999
 51
112.714662
  0
ARC
  5
246
330
26
100
AcDbEntity
  8
2
100
AcDbCircle
 10
103.503242
 20
21.848824
 30
0.0
 40
0.5
100
AcDbArc
 50
0.0
 51
88.51221499999999
  0
ARC
  5
247
330
26
100
AcDbEntity
  8
2
100
AcDbCircle
 10
114.339615
 20
-15.642135
 30
0.0
 40
40.228245
100
AcDbArc
 50
112.714662
 51
131.843847
  0
ARC
  5
248
330
26
100
AcDbEntity
  8
2
100
AcDbCircle
 10
104.709456
 20
4.026392999999997
 30
0.0
 40
17.127052
100
AcDbArc
 50
93.79192299999999
 51
118.737001
  0
ARC
  5
249
330
26
100
AcDbEntity
  8
2
100
AcDbCircle
 10
103.603242
 20
20.716826
 30
0.0
 40
0.4
100
AcDbArc
 50
0.0
 51
93.79192299999999
  0
ARC
  5
24A
330
26
100
AcDbEntity
  8
2
100
AcDbCircle
 10
118.421805
 20
-20.981372
 30
0.0
 40
45.647515
100
AcDbArc
 50
118.737001
 51
132.635576
  0
ARC
  5
24B
330
26
100
AcDbEntity
  8
2
100
AcDbCircle
 10
118.297028
 20
4.026392999999997
 30
0.0
 40
17.127052
100
AcDbArc
 50
61.26299899999999
 51
86.208077
  0
ARC
  5
24C
330
26
100
AcDbEntity
  8
2
100
AcDbCircle
 10
104.584678
 20
-20.981372
 30
0.0
 40
45.647515
100
AcDbArc
 50
47.364424
 51
61.26299899999999
  0
ARC
  5
24D
330
26
100
AcDbEntity
  8
2
100
AcDbCircle
 10
119.403242
 20
20.716826
 30
0.0
 40
0.4
100
AcDbArc
 50
86.208077
 51
180.0
  0
ARC
  5
24E
330
26
100
AcDbEntity
  8
2
100
AcDbCircle
 10
119.503242
 20
21.848824
 30
0.0
 40
0.5
100
AcDbArc
 50
91.487785
 51
180.0
  0
ARC
  5
24F
330
26
100
AcDbEntity
  8
2
100
AcDbCircle
 10
119.78703
 20
10.92237
 30
0.0
 40
11.430139
100
AcDbArc
 50
67.285338
 51
91.487785
  0
ARC
  5
250
330
26
100
AcDbEntity
  8
2
100
AcDbCircle
 10
108.666868
 20
-15.642135
 30
0.0
 40
40.228245
100
AcDbArc
 50
48.15615300000001
 51
67.285338
  0
LINE
  5
251
330
26
100
AcDbEntity
  8
2
  6
CENTER
 62
     2
100
AcDbLine
 10
158.503242
 20
-5.629213
 30
0.0
 11
158.503242
 21
-22.104055
 31
0.0
  0
LINE
  5
252
330
26
100
AcDbEntity
  8
2
  6
CENTER
 62
     2
100
AcDbLine
 10
70.503242
 20
-5.629213
 30
0.0
 11
70.503242
 21
-22.104055
 31
0.0
  0
LINE
  5
253
330
26
100
AcDbEntity
  8
2
  6
CENTER
 62
     2
100
AcDbLine
 10
138.019746
 20
-5.411844
 30
0.0
 11
138.019746
 21
10.199614
 31
0.0
  0
LINE
  5
254
330
26
100
AcDbEntity
  8
2
  6
CENTER
 62
     2
100
AcDbLine
 10
84.98673700000002
 20
-5.411844
 30
0.0
 11
84.98673700000002
 21
11.593504
 31
0.0
  0
LINE
  5
255
330
26
100
AcDbEntity
  8
2
100
AcDbLine
 10
65.90324200000001
 20
-13.456662
 30
0.0
 11
65.90324200000001
 21
-14.756662
 31
0.0
  0
LINE
  5
256
330
26
100
AcDbEntity
  8
2
100
AcDbLine
 10
75.10324200000003
 20
-13.456662
 30
0.0
 11
75.10324200000003
 21
-14.756662
 31
0.0
  0
LINE
  5
257
330
26
100
AcDbEntity
  8
2
100
AcDbLine
 10
65.90324200000001
 20
-13.456662
 30
0.0
 11
75.10324200000003
 21
-13.456662
 31
0.0
  0
LINE
  5
258
330
26
100
AcDbEntity
  8
2
100
AcDbLine
 10
66.003242
 20
-12.16917
 30
0.0
 11
66.003242
 21
-13.456662
 31
0.0
  0
LINE
  5
259
330
26
100
AcDbEntity
  8
2
100
AcDbLine
 10
75.003242
 20
-12.16917
 30
0.0
 11
75.003242
 21
-13.456662
 31
0.0
  0
ARC
  5
25A
330
26
100
AcDbEntity
  8
2
100
AcDbCircle
 10
70.503242
 20
-22.156662
 30
0.0
 40
12.0
100
AcDbArc
 50
73.80864800000002
 51
106.191352
  0
ARC
  5
25B
330
26
100
AcDbEntity
  8
2
100
AcDbCircle
 10
67.60324200000001
 20
-12.16917
 30
0.0
 40
1.6
100
AcDbArc
 50
106.191352
 51
180.0
  0
ARC
  5
25C
330
26
100
AcDbEntity
  8
2
100
AcDbCircle
 10
73.40324200000002
 20
-12.16917
 30
0.0
 40
1.6
100
AcDbArc
 50
0.0
 51
73.80864800000002
  0
LINE
  5
25D
330
26
100
AcDbEntity
  8
2
100
AcDbLine
 10
153.903242
 20
-13.456662
 30
0.0
 11
153.903242
 21
-14.756662
 31
0.0
  0
LINE
  5
25E
330
26
100
AcDbEntity
  8
2
100
AcDbLine
 10
163.103242
 20
-13.456662
 30
0.0
 11
163.103242
 21
-14.756662
 31
0.0
  0
LINE
  5
25F
330
26
100
AcDbEntity
  8
2
100
AcDbLine
 10
153.903242
 20
-13.456662
 30
0.0
 11
163.103242
 21
-13.456662
 31
0.0
  0
LINE
  5
260
330
26
100
AcDbEntity
  8
2
100
AcDbLine
 10
154.003242
 20
-12.16917
 30
0.0
 11
154.003242
 21
-13.456662
 31
0.0
  0
LINE
  5
261
330
26
100
AcDbEntity
  8
2
100
AcDbLine
 10
163.003242
 20
-12.16917
 30
0.0
 11
163.003242
 21
-13.456662
 31
0.0
  0
ARC
  5
262
330
26
100
AcDbEntity
  8
2
100
AcDbCircle
 10
158.503242
 20
-22.156662
 30
0.0
 40
12.0
100
AcDbArc
 50
73.80864800000002
 51
106.191352
  0
ARC
  5
263
330
26
100
AcDbEntity
  8
2
100
AcDbCircle
 10
155.603242
 20
-12.16917
 30
0.0
 40
1.6
100
AcDbArc
 50
106.191352
 51
180.0
  0
ARC
  5
264
330
26
100
AcDbEntity
  8
2
100
AcDbCircle
 10
161.403242
 20
-12.16917
 30
0.0
 40
1.6
100
AcDbArc
 50
0.0
 51
73.80864800000002
  0
LINE
  5
265
330
26
100
AcDbEntity
  8
2
100
AcDbLine
 10
88.786737
 20
4.443337999999998
 30
0.0
 11
81.186737
 21
4.443337999999998
 31
0.0
  0
LINE
  5
266
330
26
100
AcDbEntity
  8
2
100
AcDbLine
 10
88.786737
 20
4.443337999999998
 30
0.0
 11
88.786737
 21
3.443337999999998
 31
0.0
  0
LINE
  5
267
330
26
100
AcDbEntity
  8
2
100
AcDbLine
 10
81.186737
 20
4.443337999999998
 30
0.0
 11
81.186737
 21
3.443337999999998
 31
0.0
  0
LINE
  5
268
330
26
100
AcDbEntity
  8
2
100
AcDbLine
 10
88.486737
 20
5.422362999999998
 30
0.0
 11
88.486737
 21
4.443337999999998
 31
0.0
  0
LINE
  5
269
330
26
100
AcDbEntity
  8
2
100
AcDbLine
 10
81.48673700000001
 20
5.422362999999998
 30
0.0
 11
81.48673700000001
 21
4.443337999999998
 31
0.0
  0
ARC
  5
26A
330
26
100
AcDbEntity
  8
2
100
AcDbCircle
 10
84.98673700000002
 20
-1.956661999999997
 30
0.0
 40
9.0
100
AcDbArc
 50
73.39845
 51
106.60155
  0
ARC
  5
26B
330
26
100
AcDbEntity
  8
2
100
AcDbCircle
 10
87.186737
 20
5.422362999999998
 30
0.0
 40
1.3
100
AcDbArc
 50
0.0
 51
73.39845
  0
ARC
  5
26C
330
26
100
AcDbEntity
  8
2
100
AcDbCircle
 10
82.786737
 20
5.422362999999998
 30
0.0
 40
1.3
100
AcDbArc
 50
106.60155
 51
180.0
  0
LINE
  5
26D
330
26
100
AcDbEntity
  8
2
100
AcDbLine
 10
141.819746
 20
4.443337999999998
 30
0.0
 11
134.219746
 21
4.443337999999998
 31
0.0
  0
LINE
  5
26E
330
26
100
AcDbEntity
  8
2
100
AcDbLine
 10
141.819746
 20
4.443337999999998
 30
0.0
 11
141.819746
 21
3.443337999999998
 31
0.0
  0
LINE
  5
26F
330
26
100
AcDbEntity
  8
2
100
AcDbLine
 10
134.219746
 20
4.443337999999998
 30
0.0
 11
134.219746
 21
3.443337999999998
 31
0.0
  0
LINE
  5
270
330
26
100
AcDbEntity
  8
2
100
AcDbLine
 10
141.519746
 20
5.422362999999998
 30
0.0
 11
141.519746
 21
4.443337999999998
 31
0.0
  0
LINE
  5
271
330
26
100
AcDbEntity
  8
2
100
AcDbLine
 10
134.519746
 20
5.422362999999998
 30
0.0
 11
134.519746
 21
4.443337999999998
 31
0.0
  0
ARC
  5
272
330
26
100
AcDbEntity
  8
2
100
AcDbCircle
 10
138.019746
 20
-1.956661999999997
 30
0.0
 40
9.0
100
AcDbArc
 50
73.39845
 51
106.60155
  0
ARC
  5
273
330
26
100
AcDbEntity
  8
2
100
AcDbCircle
 10
140.219746
 20
5.422362999999998
 30
0.0
 40
1.3
100
AcDbArc
 50
0.0
 51
73.39845
  0
ARC
  5
274
330
26
100
AcDbEntity
  8
2
100
AcDbCircle
 10
135.819746
 20
5.422362999999998
 30
0.0
 40
1.3
100
AcDbArc
 50
106.60155
 51
180.0
  0
LINE
  5
275
330
26
100
AcDbEntity
  8
2
100
AcDbLine
 10
59.503242
 20
-41.756662
 30
0.0
 11
59.503242
 21
-121.756662
 31
0.0
  0
LINE
  5
276
330
26
100
AcDbEntity
  8
2
100
AcDbLine
 10
148.003242
 20
-113.006662
 30
0.0
 11
150.42467
 21
-113.006662
 31
0.0
  0
LINE
  5
277
330
26
100
AcDbEntity
  8
2
100
AcDbLine
 10
148.003242
 20
-115.881662
 30
0.0
 11
150.324273
 21
-115.881662
 31
0.0
  0
LINE
  5
278
330
26
100
AcDbEntity
  8
2
100
AcDbLine
 10
148.003242
 20
-121.631662
 30
0.0
 11
150.123478
 21
-121.631662
 31
0.0
  0
LINE
  5
279
330
26
100
AcDbEntity
  8
2
100
AcDbLine
 10
148.003242
 20
-124.506662
 30
0.0
 11
150.023081
 21
-124.506662
 31
0.0
  0
LINE
  5
27A
330
26
100
AcDbEntity
  8
2
100
AcDbLine
 10
148.003242
 20
-112.656662
 30
0.0
 11
146.960704
 21
-112.656662
 31
0.0
  0
LINE
  5
27B
330
26
100
AcDbEntity
  8
2
100
AcDbLine
 10
146.53467
 20
-124.856662
 30
0.0
 11
148.003242
 21
-124.856662
 31
0.0
  0
LINE
  5
27C
330
26
100
AcDbEntity
  8
2
100
AcDbLine
 10
148.003242
 20
-124.856662
 30
0.0
 11
148.003242
 21
-112.656662
 31
0.0
  0
LINE
  5
27D
330
26
100
AcDbEntity
  8
2
100
AcDbLine
 10
59.503242
 20
-121.756662
 30
0.0
 11
59.503242
 21
-42.423328
 31
0.0
  0
LINE
  5
27E
330
26
100
AcDbEntity
  8
2
100
AcDbLine
 10
46.592447
 20
-119.506662
 30
0.0
 11
48.20324199999999
 21
-119.506662
 31
0.0
  0
ARC
  5
27F
330
26
100
AcDbEntity
  8
2
100
AcDbCircle
 10
46.592447
 20
-118.506662
 30
0.0
 40
1.0
100
AcDbArc
 50
212.392365
 51
270.0
  0
LINE
  5
280
330
26
100
AcDbEntity
  8
2
100
AcDbLine
 10
48.20324199999999
 20
-110.006662
 30
0.0
 11
48.20324199999999
 21
-119.506662
 31
0.0
  0
LINE
  5
281
330
26
100
AcDbEntity
  8
2
100
AcDbLine
 10
48.20324199999999
 20
-119.356662
 30
0.0
 11
49.503242
 21
-119.356662
 31
0.0
  0
LINE
  5
282
330
26
100
AcDbEntity
  8
2
100
AcDbLine
 10
46.592447
 20
-110.006662
 30
0.0
 11
48.20324199999999
 21
-110.006662
 31
0.0
  0
LINE
  5
283
330
26
100
AcDbEntity
  8
2
100
AcDbLine
 10
48.20324199999999
 20
-110.156662
 30
0.0
 11
49.503242
 21
-110.156662
 31
0.0
  0
LINE
  5
284
330
26
100
AcDbEntity
  8
2
100
AcDbLine
 10
44.51888199999999
 20
-115.256662
 30
0.0
 11
44.70324199999999
 21
-115.256662
 31
0.0
  0
LINE
  5
285
330
26
100
AcDbEntity
  8
2
100
AcDbLine
 10
44.51888199999999
 20
-114.256662
 30
0.0
 11
44.70324199999999
 21
-114.256662
 31
0.0
  0
LINE
  5
286
330
26
100
AcDbEntity
  8
2
100
AcDbLine
 10
44.70324199999999
 20
-115.256662
 30
0.0
 11
44.70324199999999
 21
-114.256662
 31
0.0
  0
ARC
  5
287
330
26
100
AcDbEntity
  8
2
100
AcDbCircle
 10
52.50324200000001
 20
-114.756662
 30
0.0
 40
8.0
100
AcDbArc
 50
183.583322
 51
212.392365
  0
ARC
  5
288
330
26
100
AcDbEntity
  8
2
100
AcDbCircle
 10
52.50324200000001
 20
-114.756662
 30
0.0
 40
8.0
100
AcDbArc
 50
147.607635
 51
176.416678
  0
ARC
  5
289
330
26
100
AcDbEntity
  8
2
100
AcDbCircle
 10
46.592447
 20
-111.006662
 30
0.0
 40
1.0
100
AcDbArc
 50
90.0
 51
147.607635
  0
LINE
  5
28A
330
26
100
AcDbEntity
  8
2
100
AcDbLine
 10
46.592447
 20
-53.006662
 30
0.0
 11
48.20324199999999
 21
-53.006662
 31
0.0
  0
ARC
  5
28B
330
26
100
AcDbEntity
  8
2
100
AcDbCircle
 10
46.592447
 20
-52.006662
 30
0.0
 40
1.0
100
AcDbArc
 50
212.392365
 51
270.0
  0
LINE
  5
28C
330
26
100
AcDbEntity
  8
2
100
AcDbLine
 10
48.20324199999999
 20
-43.506662
 30
0.0
 11
48.20324199999999
 21
-53.006662
 31
0.0
  0
LINE
  5
28D
330
26
100
AcDbEntity
  8
2
100
AcDbLine
 10
48.20324199999999
 20
-52.856662
 30
0.0
 11
49.503242
 21
-52.856662
 31
0.0
  0
LINE
  5
28E
330
26
100
AcDbEntity
  8
2
100
AcDbLine
 10
46.592447
 20
-43.506662
 30
0.0
 11
48.20324199999999
 21
-43.506662
 31
0.0
  0
LINE
  5
28F
330
26
100
AcDbEntity
  8
2
100
AcDbLine
 10
48.20324199999999
 20
-43.65666199999998
 30
0.0
 11
49.503242
 21
-43.65666199999998
 31
0.0
  0
LINE
  5
290
330
26
100
AcDbEntity
  8
2
100
AcDbLine
 10
44.51888199999999
 20
-48.756662
 30
0.0
 11
44.70324199999999
 21
-48.756662
 31
0.0
  0
LINE
  5
291
330
26
100
AcDbEntity
  8
2
100
AcDbLine
 10
44.51888199999999
 20
-47.75666199999998
 30
0.0
 11
44.70324199999999
 21
-47.75666199999998
 31
0.0
  0
LINE
  5
292
330
26
100
AcDbEntity
  8
2
100
AcDbLine
 10
44.70324199999999
 20
-48.756662
 30
0.0
 11
44.70324199999999
 21
-47.75666199999998
 31
0.0
  0
ARC
  5
293
330
26
100
AcDbEntity
  8
2
100
AcDbCircle
 10
52.50324200000001
 20
-48.256662
 30
0.0
 40
8.0
100
AcDbArc
 50
183.583322
 51
212.392365
  0
ARC
  5
294
330
26
100
AcDbEntity
  8
2
100
AcDbCircle
 10
52.50324200000001
 20
-48.256662
 30
0.0
 40
8.0
100
AcDbArc
 50
147.607635
 51
176.416678
  0
ARC
  5
295
330
26
100
AcDbEntity
  8
2
100
AcDbCircle
 10
46.592447
 20
-44.50666199999999
 30
0.0
 40
1.0
100
AcDbArc
 50
90.0
 51
147.607635
  0
LINE
  5
296
330
26
100
AcDbEntity
  8
2
100
AcDbLine
 10
30.503242
 20
-95.25666200000001
 30
0.0
 11
30.503242
 21
-70.256662
 31
0.0
  0
LINE
  5
297
330
26
100
AcDbEntity
  8
2
100
AcDbLine
 10
26.803242
 20
-70.256662
 30
0.0
 11
30.503242
 21
-70.256662
 31
0.0
  0
LINE
  5
298
330
26
100
AcDbEntity
  8
2
100
AcDbLine
 10
26.503242
 20
-70.556662
 30
0.0
 11
26.803242
 21
-70.256662
 31
0.0
  0
LINE
  5
299
330
26
100
AcDbEntity
  8
2
100
AcDbLine
 10
26.503242
 20
-70.556662
 30
0.0
 11
26.503242
 21
-94.956662
 31
0.0
  0
LINE
  5
29A
330
26
100
AcDbEntity
  8
2
100
AcDbLine
 10
26.503242
 20
-94.956662
 30
0.0
 11
26.803242
 21
-95.25666200000001
 31
0.0
  0
LINE
  5
29B
330
26
100
AcDbEntity
  8
2
100
AcDbLine
 10
26.803242
 20
-95.25666200000001
 30
0.0
 11
30.503242
 21
-95.25666200000001
 31
0.0
  0
LINE
  5
29C
330
26
100
AcDbEntity
  8
2
100
AcDbLine
 10
30.503242
 20
-94.756662
 30
0.0
 11
30.503242
 21
-70.756662
 31
0.0
  0
LINE
  5
29D
330
26
100
AcDbEntity
  8
2
100
AcDbLine
 10
31.003242
 20
-95.25666200000001
 30
0.0
 11
31.503242
 21
-95.25666200000001
 31
0.0
  0
LINE
  5
29E
330
26
100
AcDbEntity
  8
2
100
AcDbLine
 10
31.003242
 20
-70.256662
 30
0.0
 11
31.503242
 21
-70.256662
 31
0.0
  0
ARC
  5
29F
330
26
100
AcDbEntity
  8
2
100
AcDbCircle
 10
31.003242
 20
-94.756662
 30
0.0
 40
0.5
100
AcDbArc
 50
180.0
 51
270.0
  0
ARC
  5
2A0
330
26
100
AcDbEntity
  8
2
100
AcDbCircle
 10
31.003242
 20
-70.756662
 30
0.0
 40
0.5
100
AcDbArc
 50
90.0
 51
180.0
  0
ARC
  5
2A1
330
26
100
AcDbEntity
  8
2
100
AcDbCircle
 10
31.503242
 20
-96.25666200000001
 30
0.0
 40
1.0
100
AcDbArc
 50
0.0
 51
90.0
  0
ARC
  5
2A2
330
26
100
AcDbEntity
  8
2
100
AcDbCircle
 10
31.503242
 20
-69.25666200000001
 30
0.0
 40
1.0
100
AcDbArc
 50
270.0
 51
360.0
  0
LINE
  5
2A3
330
26
100
AcDbEntity
  8
2
100
AcDbLine
 10
32.503242
 20
-110.740153
 30
0.0
 11
32.503242
 21
-54.77316999999999
 31
0.0
  0
LINE
  5
2A4
330
26
100
AcDbEntity
  8
2
100
AcDbLine
 10
49.503242
 20
-120.756662
 30
0.0
 11
49.503242
 21
-42.75666199999998
 31
0.0
  0
LINE
  5
2A5
330
26
100
AcDbEntity
  8
2
100
AcDbLine
 10
59.503242
 20
-121.756662
 30
0.0
 11
50.503242
 21
-121.756662
 31
0.0
  0
LINE
  5
2A6
330
26
100
AcDbEntity
  8
2
100
AcDbLine
 10
59.503242
 20
-41.756662
 30
0.0
 11
50.503242
 21
-41.756662
 31
0.0
  0
ARC
  5
2A7
330
26
100
AcDbEntity
  8
2
100
AcDbCircle
 10
50.503242
 20
-120.756662
 30
0.0
 40
1.0
100
AcDbArc
 50
180.0
 51
270.0
  0
ARC
  5
2A8
330
26
100
AcDbEntity
  8
2
100
AcDbCircle
 10
50.503242
 20
-42.75666199999998
 30
0.0
 40
1.0
100
AcDbArc
 50
90.0
 51
180.0
  0
LINE
  5
2A9
330
26
100
AcDbEntity
  8
2
100
AcDbLine
 10
36.725756
 20
-115.679335
 30
0.0
 11
44.81034
 21
-116.951944
 31
0.0
  0
ARC
  5
2AA
330
26
100
AcDbEntity
  8
2
100
AcDbCircle
 10
46.503242
 20
-120.255367
 30
0.0
 40
3.0
100
AcDbArc
 50
0.0
 51
17.431677
  0
ARC
  5
2AB
330
26
100
AcDbEntity
  8
2
100
AcDbCircle
 10
37.503242
 20
-110.740153
 30
0.0
 40
5.0
100
AcDbArc
 50
180.0
 51
261.054375
  0
LINE
  5
2AC
330
26
100
AcDbEntity
  8
2
100
AcDbLine
 10
36.725756
 20
-49.83398799999999
 30
0.0
 11
44.70324199999999
 21
-48.578238
 31
0.0
  0
ARC
  5
2AD
330
26
100
AcDbEntity
  8
2
100
AcDbCircle
 10
37.503242
 20
-54.77316999999999
 30
0.0
 40
5.0
100
AcDbArc
 50
98.94562500000001
 51
180.0
  0
LINE
  5
2AE
330
26
100
AcDbEntity
  8
2
100
AcDbLine
 10
152.010277
 20
-96.25453
 30
0.0
 11
157.782789
 21
-102.444791
 31
0.0
  0
LINE
  5
2AF
330
26
100
AcDbEntity
  8
2
100
AcDbLine
 10
156.02529
 20
-95.89443199999999
 30
0.0
 11
156.234687
 21
-89.89808700000002
 31
0.0
  0
LINE
  5
2B0
330
26
100
AcDbEntity
  8
2
100
AcDbLine
 10
152.010277
 20
-96.25453
 30
0.0
 11
156.02529
 21
-95.89443199999999
 31
0.0
  0
LINE
  5
2B1
330
26
100
AcDbEntity
  8
2
100
AcDbLine
 10
156.234687
 20
-89.89808700000002
 30
0.0
 11
152.254573
 21
-89.25879399999997
 31
0.0
  0
LINE
  5
2B2
330
26
100
AcDbEntity
  8
2
100
AcDbLine
 10
152.254573
 20
-89.25879399999997
 30
0.0
 11
158.444835
 21
-83.486281
 31
0.0
  0
LINE
  5
2B3
330
26
100
AcDbEntity
  8
2
100
AcDbLine
 10
156.234687
 20
-89.89808700000002
 30
0.0
 11
161.152992
 21
-87.28297799999998
 31
0.0
  0
ARC
  5
2B4
330
26
100
AcDbEntity
  8
2
100
AcDbCircle
 10
160.048836
 20
-85.206362
 30
0.0
 40
2.351913
100
AcDbArc
 50
298.0
 51
133.0
  0
LINE
  5
2B5
330
26
100
AcDbEntity
  8
2
100
AcDbLine
 10
156.02529
 20
-95.89443199999999
 30
0.0
 11
160.749194
 21
-98.846255
 31
0.0
  0
ARC
  5
2B6
330
26
100
AcDbEntity
  8
2
100
AcDbCircle
 10
159.50287
 20
-100.840791
 30
0.0
 40
2.351913
100
AcDbArc
 50
223.0
 51
58.0
  0
LINE
  5
2B7
330
26
100
AcDbEntity
  8
2
100
AcDbLine
 10
152.027727
 20
-95.75483400000001
 30
0.0
 11
152.237124
 21
-89.758489
 31
0.0
  0
LINE
  5
2B8
330
26
100
AcDbEntity
  8
2
100
AcDbLine
 10
154.804181
 20
-86.881246
 30
0.0
 11
151.341213
 21
-86.76031700000001
 31
0.0
  0
LINE
  5
2B9
330
26
100
AcDbEntity
  8
2
100
AcDbLine
 10
155.1779149999999
 20
-137.925384
 30
0.0
 11
149.5613379999999
 21
-137.729249
 31
0.0
  0
LINE
  5
2BA
330
26
100
AcDbEntity
  8
2
100
AcDbLine
 10
155.1779149999999
 20
-137.925384
 30
0.0
 11
156.264244
 21
-106.816971
 31
0.0
  0
LINE
  5
2BB
330
26
100
AcDbEntity
  8
2
100
AcDbLine
 10
153.735794
 20
-137.875024
 30
0.0
 11
154.880539
 21
-105.093817
 31
0.0
  0
LINE
  5
2BC
330
26
100
AcDbEntity
  8
2
100
AcDbLine
 10
154.917521
 20
-104.034778
 30
0.0
 11
155.074466
 21
-99.54047
 31
0.0
  0
LINE
  5
2BD
330
26
100
AcDbEntity
  8
2
100
AcDbLine
 10
151.003459
 20
-137.779609
 30
0.0
 11
152.155143
 21
-104.799712
 31
0.0
  0
LINE
  5
2BE
330
26
100
AcDbEntity
  8
2
100
AcDbLine
 10
149.5613379999999
 20
-137.729249
 30
0.0
 11
150.713022
 21
-104.749352
 31
0.0
  0
LINE
  5
2BF
330
26
100
AcDbEntity
  8
2
100
AcDbLine
 10
151.306313
 20
-87.75970799999996
 30
0.0
 11
151.341213
 21
-86.76031700000001
 31
0.0
  0
LINE
  5
2C0
330
26
100
AcDbEntity
  8
2
100
AcDbLine
 10
152.190042
 20
-103.800321
 30
0.0
 11
152.437547
 21
-96.71272
 31
0.0
  0
LINE
  5
2C1
330
26
100
AcDbEntity
  8
2
100
AcDbLine
 10
152.712764
 20
-88.831524
 30
0.0
 11
152.783334
 21
-86.81067699999998
 31
0.0
  0
LINE
  5
2C2
330
26
100
AcDbEntity
  8
2
100
AcDbLine
 10
156.330595
 20
-104.916947
 30
0.0
 11
156.466227
 21
-101.032951
 31
0.0
  0
LINE
  5
2C3
330
26
100
AcDbEntity
  8
2
100
AcDbLine
 10
156.63242
 20
-96.273809
 30
0.0
 11
156.866802
 21
-89.561986
 31
0.0
  0
LINE
  5
2C4
330
26
100
AcDbEntity
  8
2
100
AcDbLine
 10
152.305704
 20
-87.79460699999999
 30
0.0
 11
151.306313
 21
-87.75970799999996
 31
0.0
  0
LINE
  5
2C5
330
26
100
AcDbEntity
  8
2
100
AcDbLine
 10
153.945972
 20
-103.861639
 30
0.0
 11
151.747312
 21
-103.78486
 31
0.0
  0
LINE
  5
2C6
330
26
100
AcDbEntity
  8
2
100
AcDbLine
 10
152.305704
 20
-87.79460699999999
 30
0.0
 11
151.747312
 21
-103.78486
 31
0.0
  0
LINE
  5
2C7
330
26
100
AcDbEntity
  8
2
100
AcDbLine
 10
153.911072
 20
-104.86103
 30
0.0
 11
150.713022
 21
-104.749352
 31
0.0
  0
LINE
  5
2C8
330
26
100
AcDbEntity
  8
2
100
AcDbLine
 10
150.713022
 20
-104.749352
 30
0.0
 11
151.306313
 21
-87.75970799999996
 31
0.0
  0
ARC
  5
2C9
330
26
100
AcDbEntity
  8
2
100
AcDbCircle
 10
153.823824
 20
-107.359507
 30
0.0
 40
3.5
100
AcDbArc
 50
311.7432990000001
 51
88.0
  0
ARC
  5
2CA
330
26
100
AcDbEntity
  8
2
100
AcDbCircle
 10
153.823824
 20
-107.359507
 30
0.0
 40
2.5
100
AcDbArc
 50
343.466253
 51
88.0
  0
LINE
  5
2CB
330
26
100
AcDbEntity
  8
2
  6
CENTER
 62
     2
100
AcDbLine
 10
15.630019
 20
-82.75666200000001
 30
0.0
 11
169.919526
 21
-82.75666200000001
 31
0.0
  0
LINE
  5
2CC
330
26
100
AcDbEntity
  8
2
  6
CENTER
 62
     2
100
AcDbLine
 10
67.025742
 20
-42.75666199999998
 30
0.0
 11
105.980742
 21
-42.75666199999998
 31
0.0
  0
LINE
  5
2CD
330
26
100
AcDbEntity
  8
2
  6
CENTER
 62
     2
100
AcDbLine
 10
86.503242
 20
-62.23416199999999
 30
0.0
 11
86.503242
 21
-23.279162
 31
0.0
  0
LINE
  5
2CE
330
26
100
AcDbEntity
  8
2
  6
CENTER
 62
     2
100
AcDbLine
 10
117.025742
 20
-42.75666199999998
 30
0.0
 11
155.980742
 21
-42.75666199999998
 31
0.0
  0
LINE
  5
2CF
330
26
100
AcDbEntity
  8
2
  6
CENTER
 62
     2
100
AcDbLine
 10
136.503242
 20
-62.23416199999999
 30
0.0
 11
136.503242
 21
-23.279162
 31
0.0
  0
LINE
  5
2D0
330
26
100
AcDbEntity
  8
2
  6
CENTER
 62
     2
100
AcDbLine
 10
159.49702
 20
-118.756662
 30
0.0
 11
137.131969
 21
-118.756662
 31
0.0
  0
LINE
  5
2D1
330
26
100
AcDbEntity
  8
2
  6
CENTER
 62
     2
100
AcDbLine
 10
38.07463
 20
-48.256662
 30
0.0
 11
56.773223
 21
-48.256662
 31
0.0
  0
LINE
  5
2D2
330
26
100
AcDbEntity
  8
2
  6
CENTER
 62
     2
100
AcDbLine
 10
38.07463
 20
-114.756662
 30
0.0
 11
56.773223
 21
-114.756662
 31
0.0
  0
LINE
  5
2D3
330
26
100
AcDbEntity
  8
2
  6
CENTER
 62
     2
100
AcDbLine
 10
138.820863
 20
-92.75666200000001
 30
0.0
 11
164.876497
 21
-92.75666200000001
 31
0.0
  0
LINE
  5
2D4
330
26
100
AcDbEntity
  8
2
100
AcDbLine
 10
94.78244100000001
 20
-124.956662
 30
0.0
 11
103.475305
 21
-124.956662
 31
0.0
  0
LINE
  5
2D5
330
26
100
AcDbEntity
  8
2
100
AcDbLine
 10
119.531178
 20
-124.956662
 30
0.0
 11
128.224043
 21
-124.956662
 31
0.0
  0
LINE
  5
2D6
330
26
100
AcDbEntity
  8
2
100
AcDbLine
 10
-318.146758
 20
-125.756662
 30
0.0
 11
-232.146758
 21
-125.756662
 31
0.0
  0
ARC
  5
2D7
330
26
100
AcDbEntity
  8
2
100
AcDbCircle
 10
-149.74926
 20
-109.256662
 30
0.0
 40
59.0
100
AcDbArc
 50
130.817217
 51
173.528051
  0
LINE
  5
2D8
330
26
100
AcDbEntity
  8
2
100
AcDbLine
 10
-185.972155
 20
-24.756662
 30
0.0
 11
-182.146758
 21
-24.756662
 31
0.0
  0
LINE
  5
2D9
330
26
100
AcDbEntity
  8
2
100
AcDbLine
 10
-182.146758
 20
-24.756662
 30
0.0
 11
-182.146758
 21
-60.756662
 31
0.0
  0
LINE
  5
2DA
330
26
100
AcDbEntity
  8
2
100
AcDbLine
 10
-182.146758
 20
-24.756662
 30
0.0
 11
-181.146758
 21
-25.756662
 31
0.0
  0
LINE
  5
2DB
330
26
100
AcDbEntity
  8
2
100
AcDbLine
 10
-181.146758
 20
-25.756662
 30
0.0
 11
-181.146758
 21
-59.756662
 31
0.0
  0
LINE
  5
2DC
330
26
100
AcDbEntity
  8
2
100
AcDbLine
 10
-181.146758
 20
-59.756662
 30
0.0
 11
-182.146758
 21
-60.756662
 31
0.0
  0
LINE
  5
2DD
330
26
100
AcDbEntity
  8
2
100
AcDbLine
 10
-182.146758
 20
-60.756662
 30
0.0
 11
-184.914678
 21
-60.756662
 31
0.0
  0
ARC
  5
2DE
330
26
100
AcDbEntity
  8
2
100
AcDbCircle
 10
-201.803646
 20
-100.756662
 30
0.0
 40
10.0
100
AcDbArc
 50
270.0
 51
358.0
  0
LINE
  5
2DF
330
26
100
AcDbEntity
  8
2
100
AcDbLine
 10
-201.803646
 20
-110.756662
 30
0.0
 11
-209.597662
 21
-110.756662
 31
0.0
  0
ARC
  5
2E0
330
26
100
AcDbEntity
  8
2
100
AcDbCircle
 10
-321.646758
 20
-89.756662
 30
0.0
 40
114.0
100
AcDbArc
 50
347.787475
 51
360.0
  0
ARC
  5
2E1
330
26
100
AcDbEntity
  8
2
100
AcDbCircle
 10
-220.000312
 20
-111.756662
 30
0.0
 40
10.0
100
AcDbArc
 50
270.0
 51
347.787475
  0
ARC
  5
2E2
330
26
100
AcDbEntity
  8
2
100
AcDbCircle
 10
-321.646758
 20
-75.756662
 30
0.0
 40
114.0
100
AcDbArc
 50
0.0
 51
13.342364
  0
LINE
  5
2E3
330
26
100
AcDbEntity
  8
2
100
AcDbLine
 10
-207.646758
 20
-75.756662
 30
0.0
 11
-207.646758
 21
-89.756662
 31
0.0
  0
ARC
  5
2E4
330
26
100
AcDbEntity
  8
2
100
AcDbCircle
 10
-261.146758
 20
-70.756662
 30
0.0
 40
114.0
100
AcDbArc
 50
169.473381
 51
180.0
  0
ARC
  5
2E5
330
26
100
AcDbEntity
  8
2
100
AcDbCircle
 10
-350.146758
 20
-29.756662
 30
0.0
 40
10.0
100
AcDbArc
 50
90.0
 51
169.993627
  0
LINE
  5
2E6
330
26
100
AcDbEntity
  8
2
100
AcDbLine
 10
-375.146758
 20
-70.756662
 30
0.0
 11
-375.146758
 21
-94.756662
 31
0.0
  0
ARC
  5
2E7
330
26
100
AcDbEntity
  8
2
100
AcDbCircle
 10
-261.146758
 20
-94.756662
 30
0.0
 40
114.0
100
AcDbArc
 50
180.0
 51
189.407874
  0
ARC
  5
2E8
330
26
100
AcDbEntity
  8
2
100
AcDbCircle
 10
-363.747928
 20
-111.756662
 30
0.0
 40
10.0
100
AcDbArc
 50
189.407874
 51
270.0
  0
LINE
  5
2E9
330
26
100
AcDbEntity
  8
2
100
AcDbLine
 10
-363.747928
 20
-121.756662
 30
0.0
 11
-220.000312
 21
-121.756662
 31
0.0
  0
ARC
  5
2EA
330
26
100
AcDbEntity
  8
2
100
AcDbCircle
 10
-220.453873
 20
-51.756662
 30
0.0
 40
10.0
100
AcDbArc
 50
13.342364
 51
90.0
  0
LINE
  5
2EB
330
26
100
AcDbEntity
  8
2
100
AcDbLine
 10
-363.396453
 20
-41.756662
 30
0.0
 11
-220.453873
 21
-41.756662
 31
0.0
  0
ARC
  5
2EC
330
26
100
AcDbEntity
  8
2
100
AcDbCircle
 10
-363.396453
 20
-51.756662
 30
0.0
 40
10.0
100
AcDbArc
 50
90.0
 51
169.473381
  0
LINE
  5
2ED
330
26
100
AcDbEntity
  8
2
100
AcDbLine
 10
-191.809738
 20
-101.105657
 30
0.0
 11
-190.6080649999999
 21
-66.69426
 31
0.0
  0
LINE
  5
2EE
330
26
100
AcDbEntity
  8
2
100
AcDbLine
 10
-362.418524
 20
-41.756662
 30
0.0
 11
-359.994643
 21
-28.019085
 31
0.0
  0
LINE
  5
2EF
330
26
100
AcDbEntity
  8
2
100
AcDbLine
 10
-350.146758
 20
-19.756662
 30
0.0
 11
-190.009513
 21
-19.756662
 31
0.0
  0
ARC
  5
2F0
330
26
100
AcDbEntity
  8
2
100
AcDbCircle
 10
-190.009513
 20
-23.756662
 30
0.0
 40
4.0
100
AcDbArc
 50
2.0
 51
90.0
  0
LINE
  5
2F1
330
26
100
AcDbEntity
  8
2
100
AcDbLine
 10
-232.146758
 20
-125.756662
 30
0.0
 11
-232.007075
 21
-121.756662
 31
0.0
  0
LINE
  5
2F2
330
26
100
AcDbEntity
  8
2
100
AcDbLine
 10
-310.146758
 20
-125.756662
 30
0.0
 11
-310.286441
 21
-121.756662
 31
0.0
  0
LINE
  5
2F3
330
26
100
AcDbEntity
  8
2
100
AcDbLine
 10
-240.146758
 20
-125.756662
 30
0.0
 11
-240.007075
 21
-121.756662
 31
0.0
  0
LINE
  5
2F4
330
26
100
AcDbEntity
  8
2
100
AcDbLine
 10
-318.146758
 20
-125.756662
 30
0.0
 11
-318.286441
 21
-121.756662
 31
0.0
  0
LINE
  5
2F5
330
26
100
AcDbEntity
  8
2
100
AcDbLine
 10
-186.01195
 20
-23.617064
 30
0.0
 11
-184.857067
 21
-56.68855799999999
 31
0.0
  0
ARC
  5
2F6
330
26
100
AcDbEntity
  8
2
100
AcDbCircle
 10
-194.850976
 20
-57.037553
 30
0.0
 40
10.0
100
AcDbArc
 50
310.817217
 51
2.000001999999998
  0
ARC
  5
2F7
330
26
100
AcDbEntity
  8
2
100
AcDbCircle
 10
-184.914678
 20
-61.756662
 30
0.0
 40
1.0
100
AcDbArc
 50
90.0
 51
154.595261
  0
LINE
  5
2F8
330
26
100
AcDbEntity
  8
2
100
AcDbLine
 10
-317.6467580000001
 20
2.243338
 30
0.0
 11
-232.646758
 21
2.243338
 31
0.0
  0
LINE
  5
2F9
330
26
100
AcDbEntity
  8
2
100
AcDbLine
 10
-232.646758
 20
3.443337999999998
 30
0.0
 11
-232.646758
 21
0.243338
 31
0.0
  0
LINE
  5
2FA
330
26
100
AcDbEntity
  8
2
100
AcDbLine
 10
-317.6467580000001
 20
3.443337999999998
 30
0.0
 11
-317.6467580000001
 21
0.243338
 31
0.0
  0
LINE
  5
2FB
330
26
100
AcDbEntity
  8
2
100
AcDbLine
 10
-277.146758
 20
11.743338
 30
0.0
 11
-277.146758
 21
3.443337999999998
 31
0.0
  0
LINE
  5
2FC
330
26
100
AcDbEntity
  8
2
100
AcDbLine
 10
-273.146758
 20
11.743338
 30
0.0
 11
-273.146758
 21
3.443337999999998
 31
0.0
  0
LINE
  5
2FD
330
26
100
AcDbEntity
  8
2
100
AcDbLine
 10
-345.875145
 20
-8.020500999999999
 30
0.0
 11
-350.146758
 21
-19.756662
 31
0.0
  0
ARC
  5
2FE
330
26
100
AcDbEntity
  8
2
100
AcDbCircle
 10
-338.357604
 20
-10.756662
 30
0.0
 40
8.0
100
AcDbArc
 50
90.0
 51
160.0
  0
LINE
  5
2FF
330
26
100
AcDbEntity
  8
2
100
AcDbLine
 10
-190.146758
 20
-19.756662
 30
0.0
 11
-191.154884
 21
-8.233727
 31
0.0
  0
ARC
  5
300
330
26
100
AcDbEntity
  8
2
100
AcDbCircle
 10
-197.132053
 20
-8.756662
 30
0.0
 40
6.0
100
AcDbArc
 50
5.0
 51
90.0
  0
LINE
  5
301
330
26
100
AcDbEntity
  8
2
100
AcDbLine
 10
-197.132053
 20
-2.756661999999998
 30
0.0
 11
-338.357604
 21
-2.756661999999998
 31
0.0
  0
LINE
  5
302
330
26
100
AcDbEntity
  8
2
100
AcDbLine
 10
-202.146758
 20
-5.756662
 30
0.0
 11
-202.146758
 21
-14.256662
 31
0.0
  0
LINE
  5
303
330
26
100
AcDbEntity
  8
2
100
AcDbLine
 10
-336.146758
 20
-5.756662
 30
0.0
 11
-336.146758
 21
-14.256662
 31
0.0
  0
LINE
  5
304
330
26
100
AcDbEntity
  8
2
100
AcDbLine
 10
-347.976803
 20
-14.756662
 30
0.0
 11
-336.6467580000001
 21
-14.756662
 31
0.0
  0
LINE
  5
305
330
26
100
AcDbEntity
  8
2
100
AcDbLine
 10
-201.646758
 20
-14.756662
 30
0.0
 11
-191.042367
 21
-14.756662
 31
0.0
  0
ARC
  5
306
330
26
100
AcDbEntity
  8
2
100
AcDbCircle
 10
-336.6467580000001
 20
-14.256662
 30
0.0
 40
0.5
100
AcDbArc
 50
270.0
 51
360.0
  0
ARC
  5
307
330
26
100
AcDbEntity
  8
2
100
AcDbCircle
 10
-201.646758
 20
-14.256662
 30
0.0
 40
0.5
100
AcDbArc
 50
180.0
 51
270.0
  0
ARC
  5
308
330
26
100
AcDbEntity
  8
2
100
AcDbCircle
 10
-191.042367
 20
-15.256662
 30
0.0
 40
0.5
100
AcDbArc
 50
5.0
 51
90.0
  0
ARC
  5
309
330
26
100
AcDbEntity
  8
2
100
AcDbCircle
 10
-347.976803
 20
-15.256662
 30
0.0
 40
0.5
100
AcDbArc
 50
90.0
 51
160.0
  0
ARC
  5
30A
330
26
100
AcDbEntity
  8
2
100
AcDbCircle
 10
-205.146758
 20
-5.756662
 30
0.0
 40
3.0
100
AcDbArc
 50
0.0
 51
90.0
  0
ARC
  5
30B
330
26
100
AcDbEntity
  8
2
100
AcDbCircle
 10
-333.146758
 20
-5.756662
 30
0.0
 40
3.0
100
AcDbArc
 50
90.0
 51
180.0
  0
ARC
  5
30C
330
26
100
AcDbEntity
  8
2
100
AcDbCircle
 10
-229.646758
 20
0.243338
 30
0.0
 40
3.0
100
AcDbArc
 50
180.0
 51
270.0
  0
ARC
  5
30D
330
26
100
AcDbEntity
  8
2
100
AcDbCircle
 10
-320.646758
 20
0.243338
 30
0.0
 40
3.0
100
AcDbArc
 50
270.0
 51
360.0
  0
ARC
  5
30E
330
26
100
AcDbEntity
  8
2
100
AcDbCircle
 10
-275.146758
 20
-9.756662
 30
0.0
 40
34.0
100
AcDbArc
 50
22.844739
 51
157.155261
  0
ARC
  5
30F
330
26
100
AcDbEntity
  8
2
100
AcDbCircle
 10
-275.146758
 20
-11.256662
 30
0.0
 40
28.0
100
AcDbArc
 50
34.712682
 51
81.88425399999998
  0
ARC
  5
310
330
26
100
AcDbEntity
  8
2
100
AcDbCircle
 10
-275.146758
 20
-11.256662
 30
0.0
 40
28.0
100
AcDbArc
 50
98.115746
 51
145.287318
  0
ARC
  5
311
330
26
100
AcDbEntity
  8
2
100
AcDbCircle
 10
-276.1467580000001
 20
11.743338
 30
0.0
 40
1.0
100
AcDbArc
 50
90.0
 51
180.0
  0
ARC
  5
312
330
26
100
AcDbEntity
  8
2
100
AcDbCircle
 10
-274.1467580000001
 20
11.743338
 30
0.0
 40
1.0
100
AcDbArc
 50
0.0
 51
90.0
  0
LINE
  5
313
330
26
100
AcDbEntity
  8
2
100
AcDbLine
 10
-276.1467580000001
 20
12.743338
 30
0.0
 11
-275.781992
 21
12.743343
 31
0.0
  0
LINE
  5
314
330
26
100
AcDbEntity
  8
2
100
AcDbLine
 10
-274.511292
 20
12.743452
 30
0.0
 11
-274.1467580000001
 21
12.743338
 31
0.0
  0
ARC
  5
315
330
26
100
AcDbEntity
  8
2
100
AcDbCircle
 10
-239.746363
 20
-6.991032
 30
0.0
 40
45.27491699999997
100
AcDbArc
 50
159.10214
 51
166.675437
  0
ARC
  5
316
330
26
100
AcDbEntity
  8
2
100
AcDbCircle
 10
-240.670243
 20
-6.991032
 30
0.0
 40
45.27491699999997
100
AcDbArc
 50
158.681079
 51
166.675437
  0
ARC
  5
317
330
26
100
AcDbEntity
  8
2
100
AcDbCircle
 10
-282.445595
 20
9.312390999999999
 30
0.0
 40
0.4309470000000001
100
AcDbArc
 50
339.10214
 51
158.681079
  0
ARC
  5
318
330
26
100
AcDbEntity
  8
2
100
AcDbCircle
 10
-263.716829
 20
-8.757913999999999
 30
0.0
 40
30.472934
100
AcDbArc
 50
143.677597
 51
156.39704
  0
ARC
  5
319
330
26
100
AcDbEntity
  8
2
100
AcDbCircle
 10
-264.423936
 20
-8.757913999999999
 30
0.0
 40
30.472934
100
AcDbArc
 50
142.882669
 51
156.39704
  0
ARC
  5
31A
330
26
100
AcDbEntity
  8
2
100
AcDbCircle
 10
-288.49711
 20
9.459934
 30
0.0
 40
0.283404
100
AcDbArc
 50
323.677597
 51
142.882669
  0
ARC
  5
31B
330
26
100
AcDbEntity
  8
2
100
AcDbCircle
 10
-272.472417
 20
-10.524795
 30
0.0
 40
28.197761
100
AcDbArc
 50
134.711482
 51
150.306296
  0
ARC
  5
31C
330
26
100
AcDbEntity
  8
2
100
AcDbCircle
 10
-272.8551
 20
-10.524795
 30
0.0
 40
28.197761
100
AcDbArc
 50
134.156238
 51
150.306296
  0
ARC
  5
31D
330
26
100
AcDbEntity
  8
2
100
AcDbCircle
 10
-292.404833
 20
9.609380999999999
 30
0.0
 40
0.133957
100
AcDbArc
 50
314.711482
 51
134.156238
  0
LINE
  5
31E
330
26
100
AcDbEntity
  8
2
 62
     2
100
AcDbLine
 10
-284.670219
 20
3.677623
 30
0.0
 11
-284.264427
 21
3.443337999999998
 31
0.0
  0
LINE
  5
31F
330
26
100
AcDbEntity
  8
2
 62
     2
100
AcDbLine
 10
-283.712226
 20
3.817344999999998
 30
0.0
 11
-284.518978
 21
4.283123999999999
 31
0.0
  0
LINE
  5
320
330
26
100
AcDbEntity
  8
2
 62
     2
100
AcDbLine
 10
-283.559204
 20
4.421818
 30
0.0
 11
-284.360031
 21
4.884176
 31
0.0
  0
LINE
  5
321
330
26
100
AcDbEntity
  8
2
 62
     2
100
AcDbLine
 10
-283.398496
 20
5.021854
 30
0.0
 11
-284.193464
 21
5.480828999999999
 31
0.0
  0
LINE
  5
322
330
26
100
AcDbEntity
  8
2
 62
     2
100
AcDbLine
 10
-283.230188
 20
5.617500999999997
 30
0.0
 11
-284.019358
 21
6.073128999999998
 31
0.0
  0
LINE
  5
323
330
26
100
AcDbEntity
  8
2
 62
     2
100
AcDbLine
 10
-283.054358
 20
6.208806
 30
0.0
 11
-283.837787
 21
6.661119
 31
0.0
  0
LINE
  5
324
330
26
100
AcDbEntity
  8
2
 62
     2
100
AcDbLine
 10
-282.871079
 20
6.79581
 30
0.0
 11
-283.64882
 21
7.244838999999998
 31
0.0
  0
LINE
  5
325
330
26
100
AcDbEntity
  8
2
 62
     2
100
AcDbLine
 10
-282.680419
 20
7.378553
 30
0.0
 11
-283.452521
 21
7.824325999999999
 31
0.0
  0
LINE
  5
326
330
26
100
AcDbEntity
  8
2
 62
     2
100
AcDbLine
 10
-282.482441
 20
7.957071
 30
0.0
 11
-283.248948
 21
8.399613999999999
 31
0.0
  0
LINE
  5
327
330
26
100
AcDbEntity
  8
2
 62
     2
100
AcDbLine
 10
-282.277203
 20
8.531397
 30
0.0
 11
-283.038157
 21
8.970734
 31
0.0
  0
LINE
  5
328
330
26
100
AcDbEntity
  8
2
 62
     2
100
AcDbLine
 10
-282.064758
 20
9.101561999999999
 30
0.0
 11
-282.814827
 21
9.534613999999999
 31
0.0
  0
LINE
  5
329
330
26
100
AcDbEntity
  8
2
 62
     2
100
AcDbLine
 10
-290.645836
 20
6.766636999999997
 30
0.0
 11
-290.117082
 21
6.461361
 31
0.0
  0
LINE
  5
32A
330
26
100
AcDbEntity
  8
2
 62
     2
100
AcDbLine
 10
-290.335027
 20
7.280011999999997
 30
0.0
 11
-289.812305
 21
6.978217999999999
 31
0.0
  0
LINE
  5
32B
330
26
100
AcDbEntity
  8
2
 62
     2
100
AcDbLine
 10
-290.013972
 20
7.787471
 30
0.0
 11
-289.4972899999999
 21
7.489163999999997
 31
0.0
  0
LINE
  5
32C
330
26
100
AcDbEntity
  8
2
 62
     2
100
AcDbLine
 10
-289.682646
 20
8.288999999999997
 30
0.0
 11
-289.17202
 21
7.994189999999997
 31
0.0
  0
LINE
  5
32D
330
26
100
AcDbEntity
  8
2
 62
     2
100
AcDbLine
 10
-289.341012
 20
8.784577999999997
 30
0.0
 11
-288.836465
 21
8.493277
 31
0.0
  0
LINE
  5
32E
330
26
100
AcDbEntity
  8
2
 62
     2
100
AcDbLine
 10
-288.989021
 20
9.274175999999997
 30
0.0
 11
-288.490584
 21
8.986402999999997
 31
0.0
  0
LINE
  5
32F
330
26
100
AcDbEntity
  8
2
 62
     2
100
AcDbLine
 10
-288.58011
 20
9.730912
 30
0.0
 11
-288.220937
 21
9.523543
 31
0.0
  0
LINE
  5
330
330
26
100
AcDbEntity
  8
2
 62
     2
100
AcDbLine
 10
-290.94641
 20
6.247352999999997
 30
0.0
 11
-290.411628
 21
5.938596999999997
 31
0.0
  0
LINE
  5
331
330
26
100
AcDbEntity
  8
2
 62
     2
100
AcDbLine
 10
-291.236752
 20
5.722161999999999
 30
0.0
 11
-290.695935
 21
5.409920999999997
 31
0.0
  0
LINE
  5
332
330
26
100
AcDbEntity
  8
2
 62
     2
100
AcDbLine
 10
-291.5168490000001
 20
5.191055999999997
 30
0.0
 11
-290.969986
 21
4.875323999999999
 31
0.0
  0
LINE
  5
333
330
26
100
AcDbEntity
  8
2
 62
     2
100
AcDbLine
 10
-291.786679
 20
4.654022
 30
0.0
 11
-291.233749
 21
4.334787
 31
0.0
  0
LINE
  5
334
330
26
100
AcDbEntity
  8
2
 62
     2
100
AcDbLine
 10
-292.046205
 20
4.111038999999998
 30
0.0
 11
-291.487183
 21
3.788287
 31
0.0
  0
LINE
  5
335
330
26
100
AcDbEntity
  8
2
 62
     2
100
AcDbLine
 10
-292.089714
 20
3.443337999999998
 30
0.0
 11
-292.295381
 21
3.56208
 31
0.0
  0
LINE
  5
336
330
26
100
AcDbEntity
  8
2
100
AcDbLine
 10
-232.646758
 20
3.443337999999998
 30
0.0
 11
-317.6467580000001
 21
3.443337999999998
 31
0.0
  0
LINE
  5
337
330
26
100
AcDbEntity
  8
2
 62
     2
100
AcDbLine
 10
-295.110513
 20
6.790236
 30
0.0
 11
-294.845868
 21
6.637442999999997
 31
0.0
  0
LINE
  5
338
330
26
100
AcDbEntity
  8
2
 62
     2
100
AcDbLine
 10
-294.732858
 20
7.265016999999997
 30
0.0
 11
-294.471852
 21
7.114325
 31
0.0
  0
LINE
  5
339
330
26
100
AcDbEntity
  8
2
 62
     2
100
AcDbLine
 10
-294.343715
 20
7.733166
 30
0.0
 11
-294.086386
 21
7.584597
 31
0.0
  0
LINE
  5
33A
330
26
100
AcDbEntity
  8
2
 62
     2
100
AcDbLine
 10
-293.942956
 20
8.194608
 30
0.0
 11
-293.689346
 21
8.048185999999999
 31
0.0
  0
LINE
  5
33B
330
26
100
AcDbEntity
  8
2
 62
     2
100
AcDbLine
 10
-293.530434
 20
8.649257999999999
 30
0.0
 11
-293.280592
 21
8.505011999999997
 31
0.0
  0
LINE
  5
33C
330
26
100
AcDbEntity
  8
2
 62
     2
100
AcDbLine
 10
-293.105979
 20
9.09702
 30
0.0
 11
-292.859962
 21
8.954982000000002
 31
0.0
  0
LINE
  5
33D
330
26
100
AcDbEntity
  8
2
 62
     2
100
AcDbLine
 10
-292.669405
 20
9.537784
 30
0.0
 11
-292.427275
 21
9.39799
 31
0.0
  0
LINE
  5
33E
330
26
100
AcDbEntity
  8
2
 62
     2
100
AcDbLine
 10
-295.476791
 20
6.308887
 30
0.0
 11
-295.208537
 21
6.154009999999997
 31
0.0
  0
LINE
  5
33F
330
26
100
AcDbEntity
  8
2
 62
     2
100
AcDbLine
 10
-295.831784
 20
5.821022
 30
0.0
 11
-295.559949
 21
5.664076999999998
 31
0.0
  0
LINE
  5
340
330
26
100
AcDbEntity
  8
2
 62
     2
100
AcDbLine
 10
-296.175569
 20
5.326686
 30
0.0
 11
-295.900173
 21
5.167685999999998
 31
0.0
  0
LINE
  5
341
330
26
100
AcDbEntity
  8
2
 62
     2
100
AcDbLine
 10
-296.508207
 20
4.825914
 30
0.0
 11
-296.229266
 21
4.664867
 31
0.0
  0
LINE
  5
342
330
26
100
AcDbEntity
  8
2
 62
     2
100
AcDbLine
 10
-296.829742
 20
4.318731999999998
 30
0.0
 11
-296.547267
 21
4.155644999999998
 31
0.0
  0
LINE
  5
343
330
26
100
AcDbEntity
  8
2
 62
     2
100
AcDbLine
 10
-297.140203
 20
3.805155999999998
 30
0.0
 11
-296.854201
 21
3.640033
 31
0.0
  0
ARC
  5
344
330
26
100
AcDbEntity
  8
2
100
AcDbCircle
 10
-275.146758
 20
-9.756662
 30
0.0
 40
33.162479
100
AcDbArc
 50
104.962752
 51
150.128593
  0
ARC
  5
345
330
26
100
AcDbEntity
  8
2
100
AcDbCircle
 10
-269.592209
 20
22.233201
 30
0.0
 40
10.0
100
AcDbArc
 50
202.238154
 51
227.992896
  0
ARC
  5
346
330
26
100
AcDbEntity
  8
2
100
AcDbCircle
 10
-282.93444
 20
19.383124
 30
0.0
 40
3.0
100
AcDbArc
 50
42.388379
 51
104.962752
  0
ARC
  5
347
330
26
100
AcDbEntity
  8
2
100
AcDbCircle
 10
-288.104585
 20
14.664056
 30
0.0
 40
10.0
100
AcDbArc
 50
22.238154
 51
42.388379
  0
ARC
  5
348
330
26
100
AcDbEntity
  8
2
100
AcDbCircle
 10
-280.701307
 20
22.233201
 30
0.0
 40
10.0
100
AcDbArc
 50
312.007104
 51
337.761846
  0
ARC
  5
349
330
26
100
AcDbEntity
  8
2
100
AcDbCircle
 10
-262.188932
 20
14.664056
 30
0.0
 40
10.0
100
AcDbArc
 50
137.611621
 51
157.761846
  0
ARC
  5
34A
330
26
100
AcDbEntity
  8
2
100
AcDbCircle
 10
-267.359076
 20
19.383124
 30
0.0
 40
3.0
100
AcDbArc
 50
75.03724799999997
 51
137.611621
  0
ARC
  5
34B
330
26
100
AcDbEntity
  8
2
100
AcDbCircle
 10
-275.146758
 20
-9.756662
 30
0.0
 40
33.162479
100
AcDbArc
 50
29.871407
 51
75.03724799999997
  0
ARC
  5
34C
330
26
100
AcDbEntity
  8
2
100
AcDbCircle
 10
-275.146758
 20
16.065788
 30
0.0
 40
1.7
100
AcDbArc
 50
227.992896
 51
312.007104
  0
ARC
  5
34D
330
26
100
AcDbEntity
  8
2
100
AcDbCircle
 10
-274.671867
 20
-10.579197
 30
0.0
 40
32.849358
100
AcDbArc
 50
105.470231
 51
147.621493
  0
ARC
  5
34E
330
26
100
AcDbEntity
  8
2
100
AcDbCircle
 10
-268.638258
 20
22.341699
 30
0.0
 40
12.0
100
AcDbArc
 50
200.135943
 51
231.694293
  0
ARC
  5
34F
330
26
100
AcDbEntity
  8
2
100
AcDbCircle
 10
-285.53807
 20
16.145221
 30
0.0
 40
6.0
100
AcDbArc
 50
20.135943
 51
48.74744899999999
  0
ARC
  5
350
330
26
100
AcDbEntity
  8
2
100
AcDbCircle
 10
-282.900553
 20
19.152463
 30
0.0
 40
2.0
100
AcDbArc
 50
48.74744899999999
 51
105.470231
  0
ARC
  5
351
330
26
100
AcDbEntity
  8
2
100
AcDbCircle
 10
-281.655259
 20
22.341699
 30
0.0
 40
12.0
100
AcDbArc
 50
308.305707
 51
339.864057
  0
ARC
  5
352
330
26
100
AcDbEntity
  8
2
100
AcDbCircle
 10
-264.755446
 20
16.145221
 30
0.0
 40
6.0
100
AcDbArc
 50
131.252551
 51
159.864057
  0
ARC
  5
353
330
26
100
AcDbEntity
  8
2
100
AcDbCircle
 10
-267.392963
 20
19.152463
 30
0.0
 40
2.0
100
AcDbArc
 50
74.52976899999999
 51
131.252551
  0
ARC
  5
354
330
26
100
AcDbEntity
  8
2
100
AcDbCircle
 10
-275.621649
 20
-10.579197
 30
0.0
 40
32.849358
100
AcDbArc
 50
32.378507
 51
74.52976899999999
  0
ARC
  5
355
330
26
100
AcDbEntity
  8
2
100
AcDbCircle
 10
-275.146758
 20
14.102195
 30
0.0
 40
1.5
100
AcDbArc
 50
231.694293
 51
308.305707
  0
LINE
  5
356
330
26
100
AcDbEntity
  8
2
 62
     2
100
AcDbLine
 10
-277.146758
 20
9.902739
 30
0.0
 11
-273.146758
 21
7.593338
 31
0.0
  0
LINE
  5
357
330
26
100
AcDbEntity
  8
2
 62
     2
100
AcDbLine
 10
-273.146758
 20
7.593338
 30
0.0
 11
-273.146758
 21
7.593338
 31
0.0
  0
LINE
  5
358
330
26
100
AcDbEntity
  8
2
 62
     2
100
AcDbLine
 10
-277.146758
 20
10.59556
 30
0.0
 11
-273.146758
 21
8.286158999999999
 31
0.0
  0
LINE
  5
359
330
26
100
AcDbEntity
  8
2
 62
     2
100
AcDbLine
 10
-273.146758
 20
8.286158999999999
 30
0.0
 11
-273.146758
 21
8.286158999999999
 31
0.0
  0
LINE
  5
35A
330
26
100
AcDbEntity
  8
2
 62
     2
100
AcDbLine
 10
-277.146758
 20
11.28838
 30
0.0
 11
-273.146758
 21
8.978978999999997
 31
0.0
  0
LINE
  5
35B
330
26
100
AcDbEntity
  8
2
 62
     2
100
AcDbLine
 10
-273.146758
 20
8.978978999999997
 30
0.0
 11
-273.146758
 21
8.978978999999997
 31
0.0
  0
LINE
  5
35C
330
26
100
AcDbEntity
  8
2
 62
     2
100
AcDbLine
 10
-277.121511
 20
11.966624
 30
0.0
 11
-273.146758
 21
9.671799
 31
0.0
  0
LINE
  5
35D
330
26
100
AcDbEntity
  8
2
 62
     2
100
AcDbLine
 10
-273.146758
 20
9.671799
 30
0.0
 11
-273.146758
 21
9.671799
 31
0.0
  0
LINE
  5
35E
330
26
100
AcDbEntity
  8
2
 62
     2
100
AcDbLine
 10
-276.818246
 20
12.484354
 30
0.0
 11
-273.146758
 21
10.36462
 31
0.0
  0
LINE
  5
35F
330
26
100
AcDbEntity
  8
2
 62
     2
100
AcDbLine
 10
-273.146758
 20
10.36462
 30
0.0
 11
-273.146758
 21
10.36462
 31
0.0
  0
LINE
  5
360
330
26
100
AcDbEntity
  8
2
 62
     2
100
AcDbLine
 10
-276.06682
 20
12.743338
 30
0.0
 11
-273.146758
 21
11.05744
 31
0.0
  0
LINE
  5
361
330
26
100
AcDbEntity
  8
2
 62
     2
100
AcDbLine
 10
-273.146758
 20
11.05744
 30
0.0
 11
-273.146758
 21
11.05744
 31
0.0
  0
LINE
  5
362
330
26
100
AcDbEntity
  8
2
 62
     2
100
AcDbLine
 10
-274.726438
 20
12.662289
 30
0.0
 11
-273.146782
 21
11.750274
 31
0.0
  0
LINE
  5
363
330
26
100
AcDbEntity
  8
2
 62
     2
100
AcDbLine
 10
-273.146758
 20
11.75026
 30
0.0
 11
-273.146758
 21
11.75026
 31
0.0
  0
LINE
  5
364
330
26
100
AcDbEntity
  8
2
 62
     2
100
AcDbLine
 10
-277.146758
 20
9.209918999999999
 30
0.0
 11
-273.146758
 21
6.900517999999999
 31
0.0
  0
LINE
  5
365
330
26
100
AcDbEntity
  8
2
 62
     2
100
AcDbLine
 10
-273.146758
 20
6.900517999999999
 30
0.0
 11
-273.146758
 21
6.900517999999999
 31
0.0
  0
LINE
  5
366
330
26
100
AcDbEntity
  8
2
 62
     2
100
AcDbLine
 10
-277.146758
 20
8.517098999999998
 30
0.0
 11
-273.146758
 21
6.207698
 31
0.0
  0
LINE
  5
367
330
26
100
AcDbEntity
  8
2
 62
     2
100
AcDbLine
 10
-273.146758
 20
6.207698
 30
0.0
 11
-273.146758
 21
6.207698
 31
0.0
  0
LINE
  5
368
330
26
100
AcDbEntity
  8
2
 62
     2
100
AcDbLine
 10
-277.146758
 20
7.824277999999997
 30
0.0
 11
-273.146758
 21
5.514876999999997
 31
0.0
  0
LINE
  5
369
330
26
100
AcDbEntity
  8
2
 62
     2
100
AcDbLine
 10
-273.146758
 20
5.514876999999997
 30
0.0
 11
-273.146758
 21
5.514876999999997
 31
0.0
  0
LINE
  5
36A
330
26
100
AcDbEntity
  8
2
 62
     2
100
AcDbLine
 10
-277.146758
 20
7.131458
 30
0.0
 11
-273.146758
 21
4.822057
 31
0.0
  0
LINE
  5
36B
330
26
100
AcDbEntity
  8
2
 62
     2
100
AcDbLine
 10
-273.146758
 20
4.822057
 30
0.0
 11
-273.146758
 21
4.822057
 31
0.0
  0
LINE
  5
36C
330
26
100
AcDbEntity
  8
2
 62
     2
100
AcDbLine
 10
-277.146758
 20
6.438638
 30
0.0
 11
-273.146758
 21
4.129236999999998
 31
0.0
  0
LINE
  5
36D
330
26
100
AcDbEntity
  8
2
 62
     2
100
AcDbLine
 10
-273.146758
 20
4.129236999999998
 30
0.0
 11
-273.146758
 21
4.129236999999998
 31
0.0
  0
LINE
  5
36E
330
26
100
AcDbEntity
  8
2
 62
     2
100
AcDbLine
 10
-277.146758
 20
5.745816999999997
 30
0.0
 11
-273.158747
 21
3.443337999999998
 31
0.0
  0
LINE
  5
36F
330
26
100
AcDbEntity
  8
2
 62
     2
100
AcDbLine
 10
-273.146758
 20
3.436416
 30
0.0
 11
-273.146758
 21
3.436416
 31
0.0
  0
LINE
  5
370
330
26
100
AcDbEntity
  8
2
 62
     2
100
AcDbLine
 10
-274.358747
 20
3.443337999999998
 30
0.0
 11
-277.146758
 21
5.052997
 31
0.0
  0
LINE
  5
371
330
26
100
AcDbEntity
  8
2
 62
     2
100
AcDbLine
 10
-275.558747
 20
3.443337999999998
 30
0.0
 11
-277.146758
 21
4.360176999999998
 31
0.0
  0
LINE
  5
372
330
26
100
AcDbEntity
  8
2
 62
     2
100
AcDbLine
 10
-276.758747
 20
3.443337999999998
 30
0.0
 11
-277.146758
 21
3.667355999999998
 31
0.0
  0
LINE
  5
373
330
26
100
AcDbEntity
  8
2
  6
CENTER
 62
     2
100
AcDbLine
 10
-342.146758
 20
-5.629213
 30
0.0
 11
-342.146758
 21
-22.545225
 31
0.0
  0
LINE
  5
374
330
26
100
AcDbEntity
  8
2
  6
CENTER
 62
     2
100
AcDbLine
 10
-196.146758
 20
-5.629213
 30
0.0
 11
-196.146758
 21
-22.545225
 31
0.0
  0
LINE
  5
375
330
26
100
AcDbEntity
  8
2
  6
CENTER
 62
     2
100
AcDbLine
 10
-301.663263
 20
10.158784
 30
0.0
 11
-301.663263
 21
-6.261639999999997
 31
0.0
  0
LINE
  5
376
330
26
100
AcDbEntity
  8
2
  6
CENTER
 62
     2
100
AcDbLine
 10
-248.630254
 20
10.58864
 30
0.0
 11
-248.630254
 21
-6.261639999999997
 31
0.0
  0
LINE
  5
377
330
26
100
AcDbEntity
  8
2
100
AcDbLine
 10
-346.746758
 20
-13.456662
 30
0.0
 11
-346.746758
 21
-14.756662
 31
0.0
  0
LINE
  5
378
330
26
100
AcDbEntity
  8
2
100
AcDbLine
 10
-337.546758
 20
-13.456662
 30
0.0
 11
-337.546758
 21
-14.756662
 31
0.0
  0
LINE
  5
379
330
26
100
AcDbEntity
  8
2
100
AcDbLine
 10
-346.746758
 20
-13.456662
 30
0.0
 11
-337.546758
 21
-13.456662
 31
0.0
  0
LINE
  5
37A
330
26
100
AcDbEntity
  8
2
100
AcDbLine
 10
-346.646758
 20
-12.16917
 30
0.0
 11
-346.646758
 21
-13.456662
 31
0.0
  0
LINE
  5
37B
330
26
100
AcDbEntity
  8
2
100
AcDbLine
 10
-337.646758
 20
-12.16917
 30
0.0
 11
-337.646758
 21
-13.456662
 31
0.0
  0
ARC
  5
37C
330
26
100
AcDbEntity
  8
2
100
AcDbCircle
 10
-342.146758
 20
-22.156662
 30
0.0
 40
12.0
100
AcDbArc
 50
73.80864800000002
 51
106.191352
  0
ARC
  5
37D
330
26
100
AcDbEntity
  8
2
100
AcDbCircle
 10
-345.046758
 20
-12.16917
 30
0.0
 40
1.6
100
AcDbArc
 50
106.191352
 51
180.0
  0
ARC
  5
37E
330
26
100
AcDbEntity
  8
2
100
AcDbCircle
 10
-339.246758
 20
-12.16917
 30
0.0
 40
1.6
100
AcDbArc
 50
0.0
 51
73.80864800000002
  0
LINE
  5
37F
330
26
100
AcDbEntity
  8
2
100
AcDbLine
 10
-200.746758
 20
-13.456662
 30
0.0
 11
-200.746758
 21
-14.756662
 31
0.0
  0
LINE
  5
380
330
26
100
AcDbEntity
  8
2
100
AcDbLine
 10
-191.546758
 20
-13.456662
 30
0.0
 11
-191.546758
 21
-14.756662
 31
0.0
  0
LINE
  5
381
330
26
100
AcDbEntity
  8
2
100
AcDbLine
 10
-200.746758
 20
-13.456662
 30
0.0
 11
-191.546758
 21
-13.456662
 31
0.0
  0
LINE
  5
382
330
26
100
AcDbEntity
  8
2
100
AcDbLine
 10
-200.646758
 20
-12.16917
 30
0.0
 11
-200.646758
 21
-13.456662
 31
0.0
  0
LINE
  5
383
330
26
100
AcDbEntity
  8
2
100
AcDbLine
 10
-191.646758
 20
-12.16917
 30
0.0
 11
-191.646758
 21
-13.456662
 31
0.0
  0
ARC
  5
384
330
26
100
AcDbEntity
  8
2
100
AcDbCircle
 10
-196.146758
 20
-22.156662
 30
0.0
 40
12.0
100
AcDbArc
 50
73.80864800000002
 51
106.191352
  0
ARC
  5
385
330
26
100
AcDbEntity
  8
2
100
AcDbCircle
 10
-199.046758
 20
-12.16917
 30
0.0
 40
1.6
100
AcDbArc
 50
106.191352
 51
180.0
  0
ARC
  5
386
330
26
100
AcDbEntity
  8
2
100
AcDbCircle
 10
-193.246758
 20
-12.16917
 30
0.0
 40
1.6
100
AcDbArc
 50
0.0
 51
73.80864800000002
  0
LINE
  5
387
330
26
100
AcDbEntity
  8
2
100
AcDbLine
 10
-244.830254
 20
4.443337999999998
 30
0.0
 11
-252.430254
 21
4.443337999999998
 31
0.0
  0
LINE
  5
388
330
26
100
AcDbEntity
  8
2
100
AcDbLine
 10
-244.830254
 20
4.443337999999998
 30
0.0
 11
-244.830254
 21
3.443337999999998
 31
0.0
  0
LINE
  5
389
330
26
100
AcDbEntity
  8
2
100
AcDbLine
 10
-252.430254
 20
4.443337999999998
 30
0.0
 11
-252.430254
 21
3.443337999999998
 31
0.0
  0
LINE
  5
38A
330
26
100
AcDbEntity
  8
2
100
AcDbLine
 10
-245.130254
 20
5.422362999999998
 30
0.0
 11
-245.130254
 21
4.443337999999998
 31
0.0
  0
LINE
  5
38B
330
26
100
AcDbEntity
  8
2
100
AcDbLine
 10
-252.130254
 20
5.422362999999998
 30
0.0
 11
-252.130254
 21
4.443337999999998
 31
0.0
  0
ARC
  5
38C
330
26
100
AcDbEntity
  8
2
100
AcDbCircle
 10
-248.630254
 20
-1.956661999999997
 30
0.0
 40
9.0
100
AcDbArc
 50
73.39845
 51
106.60155
  0
ARC
  5
38D
330
26
100
AcDbEntity
  8
2
100
AcDbCircle
 10
-246.430254
 20
5.422362999999998
 30
0.0
 40
1.3
100
AcDbArc
 50
0.0
 51
73.39845
  0
ARC
  5
38E
330
26
100
AcDbEntity
  8
2
100
AcDbCircle
 10
-250.830254
 20
5.422362999999998
 30
0.0
 40
1.3
100
AcDbArc
 50
106.60155
 51
180.0
  0
LINE
  5
38F
330
26
100
AcDbEntity
  8
2
100
AcDbLine
 10
-297.8632629999999
 20
4.443337999999998
 30
0.0
 11
-305.463263
 21
4.443337999999998
 31
0.0
  0
LINE
  5
390
330
26
100
AcDbEntity
  8
2
100
AcDbLine
 10
-297.8632629999999
 20
4.443337999999998
 30
0.0
 11
-297.8632629999999
 21
3.443337999999998
 31
0.0
  0
LINE
  5
391
330
26
100
AcDbEntity
  8
2
100
AcDbLine
 10
-305.463263
 20
4.443337999999998
 30
0.0
 11
-305.463263
 21
3.443337999999998
 31
0.0
  0
LINE
  5
392
330
26
100
AcDbEntity
  8
2
100
AcDbLine
 10
-298.163263
 20
5.422362999999998
 30
0.0
 11
-298.163263
 21
4.443337999999998
 31
0.0
  0
LINE
  5
393
330
26
100
AcDbEntity
  8
2
100
AcDbLine
 10
-305.163263
 20
5.422362999999998
 30
0.0
 11
-305.163263
 21
4.443337999999998
 31
0.0
  0
ARC
  5
394
330
26
100
AcDbEntity
  8
2
100
AcDbCircle
 10
-301.663263
 20
-1.956661999999997
 30
0.0
 40
9.0
100
AcDbArc
 50
73.39845
 51
106.60155
  0
ARC
  5
395
330
26
100
AcDbEntity
  8
2
100
AcDbCircle
 10
-299.463263
 20
5.422362999999998
 30
0.0
 40
1.3
100
AcDbArc
 50
0.0
 51
73.39845
  0
ARC
  5
396
330
26
100
AcDbEntity
  8
2
100
AcDbCircle
 10
-303.8632629999999
 20
5.422362999999998
 30
0.0
 40
1.3
100
AcDbArc
 50
106.60155
 51
180.0
  0
TEXT
  5
397
330
26
100
AcDbEntity
  8
2
100
AcDbText
 10
-268.475054
 20
2.911268
 30
0.0
 40
7.599999999999997
  1
Ｓ
 50
31.64100225851554
 41
0.9999998893054858
 72
     5
 11
-263.298836
 21
6.100806999999997
 31
0.0
100
AcDbText
  0
TEXT
  5
398
330
26
100
AcDbEntity
  8
2
100
AcDbText
 10
-268.901825
 20
2.650754999999999
 30
0.0
 40
7.599999999999997
  1
Ｓ
 50
31.6410102813548
 41
0.9999999755876151
 72
     5
 11
-263.725607
 21
5.840294999999997
 31
0.0
100
AcDbText
  0
TEXT
  5
399
330
26
100
AcDbEntity
  8
2
100
AcDbText
 10
-269.328596
 20
2.390242999999999
 30
0.0
 40
7.599999999999997
  1
Ｓ
 50
31.6409973149144
 41
1.000000029330446
 72
     5
 11
-264.152377
 21
5.579781999999998
 31
0.0
100
AcDbText
  0
LINE
  5
39A
330
26
100
AcDbEntity
  8
2
100
AcDbLine
 10
-173.146758
 20
-29.756662
 30
0.0
 11
-173.146758
 21
-55.756662
 31
0.0
  0
LINE
  5
39B
330
26
100
AcDbEntity
  8
2
100
AcDbLine
 10
-178.146758
 20
-29.756662
 30
0.0
 11
-178.146758
 21
-55.756662
 31
0.0
  0
LINE
  5
39C
330
26
100
AcDbEntity
  8
2
100
AcDbLine
 10
-173.146758
 20
-29.756662
 30
0.0
 11
-178.146758
 21
-29.756662
 31
0.0
  0
LINE
  5
39D
330
26
100
AcDbEntity
  8
2
100
AcDbLine
 10
-178.146758
 20
-33.756662
 30
0.0
 11
-181.146758
 21
-33.756662
 31
0.0
  0
ARC
  5
39E
330
26
100
AcDbEntity
  8
2
100
AcDbCircle
 10
-191.350925
 20
-36.256662
 30
0.0
 40
18.204167
100
AcDbArc
 50
339.080182
 51
20.919818
  0
LINE
  5
39F
330
26
100
AcDbEntity
  8
2
100
AcDbLine
 10
-173.146758
 20
-55.756662
 30
0.0
 11
-178.146758
 21
-55.756662
 31
0.0
  0
LINE
  5
3A0
330
26
100
AcDbEntity
  8
2
100
AcDbLine
 10
-181.146758
 20
-51.756662
 30
0.0
 11
-178.146758
 21
-51.756662
 31
0.0
  0
ARC
  5
3A1
330
26
100
AcDbEntity
  8
2
100
AcDbCircle
 10
-191.350925
 20
-49.256662
 30
0.0
 40
18.204167
100
AcDbArc
 50
339.080182
 51
20.919818
  0
LINE
  5
3A2
330
26
100
AcDbEntity
  8
2
100
AcDbLine
 10
-174.346758
 20
-42.75666199999998
 30
0.0
 11
-178.146758
 21
-42.75666199999998
 31
0.0
  0
LWPOLYLINE
  5
3A3
330
26
100
AcDbEntity
  8
2
100
AcDbPolyline
 90
       21
 70
     1
 43
0.0
 10
-178.246758
 20
-32.756662
 10
-178.275044
 20
-32.556662
 10
-178.363637
 20
-32.356662
 10
-178.526758
 20
-32.156662
 10
-178.806758
 20
-31.956662
 10
-179.646758
 20
-31.756662
 10
-180.486758
 20
-31.956662
 10
-180.766758
 20
-32.156662
 10
-180.929879
 20
-32.356662
 10
-181.018473
 20
-32.556662
 10
-181.046758
 20
-32.756662
 10
-181.018473
 20
-32.956662
 10
-180.929879
 20
-33.156662
 10
-180.766758
 20
-33.356662
 10
-180.486758
 20
-33.556662
 10
-179.646758
 20
-33.756662
 10
-178.806758
 20
-33.556662
 10
-178.526758
 20
-33.356662
 10
-178.363637
 20
-33.156662
 10
-178.275044
 20
-32.956662
 10
-178.246758
 20
-32.756662
  0
LWPOLYLINE
  5
3BA
330
26
100
AcDbEntity
  8
2
100
AcDbPolyline
 90
       21
 70
     1
 43
0.0
 10
-178.246758
 20
-52.75666199999999
 10
-178.275044
 20
-52.556662
 10
-178.363637
 20
-52.356662
 10
-178.526758
 20
-52.156662
 10
-178.806758
 20
-51.956662
 10
-179.646758
 20
-51.756662
 10
-180.486758
 20
-51.956662
 10
-180.766758
 20
-52.156662
 10
-180.929879
 20
-52.356662
 10
-181.018473
 20
-52.556662
 10
-181.046758
 20
-52.75666199999999
 10
-181.018473
 20
-52.956662
 10
-180.929879
 20
-53.15666199999999
 10
-180.766758
 20
-53.356662
 10
-180.486758
 20
-53.556662
 10
-179.646758
 20
-53.756662
 10
-178.806758
 20
-53.556662
 10
-178.526758
 20
-53.356662
 10
-178.363637
 20
-53.15666199999999
 10
-178.275044
 20
-52.956662
 10
-178.246758
 20
-52.75666199999999
  0
CIRCLE
  5
3D1
330
26
100
AcDbEntity
  8
2
100
AcDbCircle
 10
-361.146758
 20
-48.256662
 30
0.0
 40
4.75
  0
LINE
  5
3D2
330
26
100
AcDbEntity
  8
2
100
AcDbLine
 10
-358.696758
 20
-48.756662
 30
0.0
 11
-358.696758
 21
-47.75666199999998
 31
0.0
  0
LINE
  5
3D3
330
26
100
AcDbEntity
  8
2
100
AcDbLine
 10
-363.596758
 20
-48.756662
 30
0.0
 11
-363.596758
 21
-47.75666199999998
 31
0.0
  0
LINE
  5
3D4
330
26
100
AcDbEntity
  8
2
100
AcDbLine
 10
-361.6467580000001
 20
-45.806662
 30
0.0
 11
-360.646758
 21
-45.806662
 31
0.0
  0
LINE
  5
3D5
330
26
100
AcDbEntity
  8
2
100
AcDbLine
 10
-360.646758
 20
-50.706662
 30
0.0
 11
-360.646758
 21
-49.756662
 31
0.0
  0
LINE
  5
3D6
330
26
100
AcDbEntity
  8
2
100
AcDbLine
 10
-360.646758
 20
-46.756662
 30
0.0
 11
-360.646758
 21
-45.806662
 31
0.0
  0
LINE
  5
3D7
330
26
100
AcDbEntity
  8
2
100
AcDbLine
 10
-363.596758
 20
-48.756662
 30
0.0
 11
-362.646758
 21
-48.756662
 31
0.0
  0
LINE
  5
3D8
330
26
100
AcDbEntity
  8
2
100
AcDbLine
 10
-359.646758
 20
-48.756662
 30
0.0
 11
-358.696758
 21
-48.756662
 31
0.0
  0
LINE
  5
3D9
330
26
100
AcDbEntity
  8
2
100
AcDbLine
 10
-361.6467580000001
 20
-50.706662
 30
0.0
 11
-361.6467580000001
 21
-49.756662
 31
0.0
  0
LINE
  5
3DA
330
26
100
AcDbEntity
  8
2
100
AcDbLine
 10
-361.6467580000001
 20
-46.756662
 30
0.0
 11
-361.6467580000001
 21
-45.806662
 31
0.0
  0
LINE
  5
3DB
330
26
100
AcDbEntity
  8
2
100
AcDbLine
 10
-363.596758
 20
-47.75666199999998
 30
0.0
 11
-362.646758
 21
-47.75666199999998
 31
0.0
  0
LINE
  5
3DC
330
26
100
AcDbEntity
  8
2
100
AcDbLine
 10
-359.646758
 20
-47.75666199999998
 30
0.0
 11
-358.696758
 21
-47.75666199999998
 31
0.0
  0
ARC
  5
3DD
330
26
100
AcDbEntity
  8
2
100
AcDbCircle
 10
-359.646758
 20
-46.756662
 30
0.0
 40
1.0
100
AcDbArc
 50
180.0
 51
270.0
  0
ARC
  5
3DE
330
26
100
AcDbEntity
  8
2
100
AcDbCircle
 10
-362.646758
 20
-46.756662
 30
0.0
 40
1.0
100
AcDbArc
 50
270.0
 51
0.0
  0
ARC
  5
3DF
330
26
100
AcDbEntity
  8
2
100
AcDbCircle
 10
-362.646758
 20
-49.756662
 30
0.0
 40
1.0
100
AcDbArc
 50
0.0
 51
90.0
  0
ARC
  5
3E0
330
26
100
AcDbEntity
  8
2
100
AcDbCircle
 10
-359.646758
 20
-49.756662
 30
0.0
 40
1.0
100
AcDbArc
 50
90.0
 51
180.0
  0
LINE
  5
3E1
330
26
100
AcDbEntity
  8
2
100
AcDbLine
 10
-361.6467580000001
 20
-50.706662
 30
0.0
 11
-360.646758
 21
-50.706662
 31
0.0
  0
CIRCLE
  5
3E2
330
26
100
AcDbEntity
  8
2
100
AcDbCircle
 10
-363.146758
 20
-114.756662
 30
0.0
 40
4.75
  0
LINE
  5
3E3
330
26
100
AcDbEntity
  8
2
100
AcDbLine
 10
-360.696758
 20
-115.256662
 30
0.0
 11
-360.696758
 21
-114.256662
 31
0.0
  0
LINE
  5
3E4
330
26
100
AcDbEntity
  8
2
100
AcDbLine
 10
-365.596758
 20
-115.256662
 30
0.0
 11
-365.596758
 21
-114.256662
 31
0.0
  0
LINE
  5
3E5
330
26
100
AcDbEntity
  8
2
100
AcDbLine
 10
-363.6467580000001
 20
-112.306662
 30
0.0
 11
-362.646758
 21
-112.306662
 31
0.0
  0
LINE
  5
3E6
330
26
100
AcDbEntity
  8
2
100
AcDbLine
 10
-362.646758
 20
-117.206662
 30
0.0
 11
-362.646758
 21
-116.256662
 31
0.0
  0
LINE
  5
3E7
330
26
100
AcDbEntity
  8
2
100
AcDbLine
 10
-362.646758
 20
-113.256662
 30
0.0
 11
-362.646758
 21
-112.306662
 31
0.0
  0
LINE
  5
3E8
330
26
100
AcDbEntity
  8
2
100
AcDbLine
 10
-365.596758
 20
-115.256662
 30
0.0
 11
-364.646758
 21
-115.256662
 31
0.0
  0
LINE
  5
3E9
330
26
100
AcDbEntity
  8
2
100
AcDbLine
 10
-361.6467580000001
 20
-115.256662
 30
0.0
 11
-360.696758
 21
-115.256662
 31
0.0
  0
LINE
  5
3EA
330
26
100
AcDbEntity
  8
2
100
AcDbLine
 10
-363.6467580000001
 20
-117.206662
 30
0.0
 11
-363.6467580000001
 21
-116.256662
 31
0.0
  0
LINE
  5
3EB
330
26
100
AcDbEntity
  8
2
100
AcDbLine
 10
-363.6467580000001
 20
-113.256662
 30
0.0
 11
-363.6467580000001
 21
-112.306662
 31
0.0
  0
LINE
  5
3EC
330
26
100
AcDbEntity
  8
2
100
AcDbLine
 10
-365.596758
 20
-114.256662
 30
0.0
 11
-364.646758
 21
-114.256662
 31
0.0
  0
LINE
  5
3ED
330
26
100
AcDbEntity
  8
2
100
AcDbLine
 10
-361.6467580000001
 20
-114.256662
 30
0.0
 11
-360.696758
 21
-114.256662
 31
0.0
  0
ARC
  5
3EE
330
26
100
AcDbEntity
  8
2
100
AcDbCircle
 10
-361.6467580000001
 20
-113.256662
 30
0.0
 40
1.0
100
AcDbArc
 50
180.0
 51
270.0
  0
ARC
  5
3EF
330
26
100
AcDbEntity
  8
2
100
AcDbCircle
 10
-364.646758
 20
-113.256662
 30
0.0
 40
1.0
100
AcDbArc
 50
270.0
 51
0.0
  0
ARC
  5
3F0
330
26
100
AcDbEntity
  8
2
100
AcDbCircle
 10
-364.646758
 20
-116.256662
 30
0.0
 40
1.0
100
AcDbArc
 50
0.0
 51
90.0
  0
ARC
  5
3F1
330
26
100
AcDbEntity
  8
2
100
AcDbCircle
 10
-361.6467580000001
 20
-116.256662
 30
0.0
 40
1.0
100
AcDbArc
 50
90.0
 51
180.0
  0
LINE
  5
3F2
330
26
100
AcDbEntity
  8
2
100
AcDbLine
 10
-363.6467580000001
 20
-117.206662
 30
0.0
 11
-362.646758
 21
-117.206662
 31
0.0
  0
CIRCLE
  5
3F3
330
26
100
AcDbEntity
  8
2
100
AcDbCircle
 10
-303.646758
 20
-116.756662
 30
0.0
 40
4.75
  0
LINE
  5
3F4
330
26
100
AcDbEntity
  8
2
100
AcDbLine
 10
-301.196758
 20
-117.256662
 30
0.0
 11
-301.196758
 21
-116.256662
 31
0.0
  0
LINE
  5
3F5
330
26
100
AcDbEntity
  8
2
100
AcDbLine
 10
-306.096758
 20
-117.256662
 30
0.0
 11
-306.096758
 21
-116.256662
 31
0.0
  0
LINE
  5
3F6
330
26
100
AcDbEntity
  8
2
100
AcDbLine
 10
-304.146758
 20
-114.306662
 30
0.0
 11
-303.1467580000001
 21
-114.306662
 31
0.0
  0
LINE
  5
3F7
330
26
100
AcDbEntity
  8
2
100
AcDbLine
 10
-303.1467580000001
 20
-119.206662
 30
0.0
 11
-303.1467580000001
 21
-118.256662
 31
0.0
  0
LINE
  5
3F8
330
26
100
AcDbEntity
  8
2
100
AcDbLine
 10
-303.1467580000001
 20
-115.256662
 30
0.0
 11
-303.1467580000001
 21
-114.306662
 31
0.0
  0
LINE
  5
3F9
330
26
100
AcDbEntity
  8
2
100
AcDbLine
 10
-306.096758
 20
-117.256662
 30
0.0
 11
-305.1467580000001
 21
-117.256662
 31
0.0
  0
LINE
  5
3FA
330
26
100
AcDbEntity
  8
2
100
AcDbLine
 10
-302.146758
 20
-117.256662
 30
0.0
 11
-301.196758
 21
-117.256662
 31
0.0
  0
LINE
  5
3FB
330
26
100
AcDbEntity
  8
2
100
AcDbLine
 10
-304.146758
 20
-119.206662
 30
0.0
 11
-304.146758
 21
-118.256662
 31
0.0
  0
LINE
  5
3FC
330
26
100
AcDbEntity
  8
2
100
AcDbLine
 10
-304.146758
 20
-115.256662
 30
0.0
 11
-304.146758
 21
-114.306662
 31
0.0
  0
LINE
  5
3FD
330
26
100
AcDbEntity
  8
2
100
AcDbLine
 10
-306.096758
 20
-116.256662
 30
0.0
 11
-305.1467580000001
 21
-116.256662
 31
0.0
  0
LINE
  5
3FE
330
26
100
AcDbEntity
  8
2
100
AcDbLine
 10
-302.146758
 20
-116.256662
 30
0.0
 11
-301.196758
 21
-116.256662
 31
0.0
  0
ARC
  5
3FF
330
26
100
AcDbEntity
  8
2
100
AcDbCircle
 10
-302.146758
 20
-115.256662
 30
0.0
 40
1.0
100
AcDbArc
 50
180.0
 51
270.0
  0
ARC
  5
400
330
26
100
AcDbEntity
  8
2
100
AcDbCircle
 10
-305.1467580000001
 20
-115.256662
 30
0.0
 40
1.0
100
AcDbArc
 50
270.0
 51
0.0
  0
ARC
  5
401
330
26
100
AcDbEntity
  8
2
100
AcDbCircle
 10
-305.1467580000001
 20
-118.256662
 30
0.0
 40
1.0
100
AcDbArc
 50
0.0
 51
90.0
  0
ARC
  5
402
330
26
100
AcDbEntity
  8
2
100
AcDbCircle
 10
-302.146758
 20
-118.256662
 30
0.0
 40
1.0
100
AcDbArc
 50
90.0
 51
180.0
  0
LINE
  5
403
330
26
100
AcDbEntity
  8
2
100
AcDbLine
 10
-304.146758
 20
-119.206662
 30
0.0
 11
-303.1467580000001
 21
-119.206662
 31
0.0
  0
CIRCLE
  5
404
330
26
100
AcDbEntity
  8
2
100
AcDbCircle
 10
-220.146758
 20
-114.756662
 30
0.0
 40
4.75
  0
LINE
  5
405
330
26
100
AcDbEntity
  8
2
100
AcDbLine
 10
-217.696758
 20
-115.256662
 30
0.0
 11
-217.696758
 21
-114.256662
 31
0.0
  0
LINE
  5
406
330
26
100
AcDbEntity
  8
2
100
AcDbLine
 10
-222.596758
 20
-115.256662
 30
0.0
 11
-222.596758
 21
-114.256662
 31
0.0
  0
LINE
  5
407
330
26
100
AcDbEntity
  8
2
100
AcDbLine
 10
-220.646758
 20
-112.306662
 30
0.0
 11
-219.646758
 21
-112.306662
 31
0.0
  0
LINE
  5
408
330
26
100
AcDbEntity
  8
2
100
AcDbLine
 10
-219.646758
 20
-117.206662
 30
0.0
 11
-219.646758
 21
-116.256662
 31
0.0
  0
LINE
  5
409
330
26
100
AcDbEntity
  8
2
100
AcDbLine
 10
-219.646758
 20
-113.256662
 30
0.0
 11
-219.646758
 21
-112.306662
 31
0.0
  0
LINE
  5
40A
330
26
100
AcDbEntity
  8
2
100
AcDbLine
 10
-222.596758
 20
-115.256662
 30
0.0
 11
-221.646758
 21
-115.256662
 31
0.0
  0
LINE
  5
40B
330
26
100
AcDbEntity
  8
2
100
AcDbLine
 10
-218.646758
 20
-115.256662
 30
0.0
 11
-217.696758
 21
-115.256662
 31
0.0
  0
LINE
  5
40C
330
26
100
AcDbEntity
  8
2
100
AcDbLine
 10
-220.646758
 20
-117.206662
 30
0.0
 11
-220.646758
 21
-116.256662
 31
0.0
  0
LINE
  5
40D
330
26
100
AcDbEntity
  8
2
100
AcDbLine
 10
-220.646758
 20
-113.256662
 30
0.0
 11
-220.646758
 21
-112.306662
 31
0.0
  0
LINE
  5
40E
330
26
100
AcDbEntity
  8
2
100
AcDbLine
 10
-222.596758
 20
-114.256662
 30
0.0
 11
-221.646758
 21
-114.256662
 31
0.0
  0
LINE
  5
40F
330
26
100
AcDbEntity
  8
2
100
AcDbLine
 10
-218.646758
 20
-114.256662
 30
0.0
 11
-217.696758
 21
-114.256662
 31
0.0
  0
ARC
  5
410
330
26
100
AcDbEntity
  8
2
100
AcDbCircle
 10
-218.646758
 20
-113.256662
 30
0.0
 40
1.0
100
AcDbArc
 50
180.0
 51
270.0
  0
ARC
  5
411
330
26
100
AcDbEntity
  8
2
100
AcDbCircle
 10
-221.646758
 20
-113.256662
 30
0.0
 40
1.0
100
AcDbArc
 50
270.0
 51
0.0
  0
ARC
  5
412
330
26
100
AcDbEntity
  8
2
100
AcDbCircle
 10
-221.646758
 20
-116.256662
 30
0.0
 40
1.0
100
AcDbArc
 50
0.0
 51
90.0
  0
ARC
  5
413
330
26
100
AcDbEntity
  8
2
100
AcDbCircle
 10
-218.646758
 20
-116.256662
 30
0.0
 40
1.0
100
AcDbArc
 50
90.0
 51
180.0
  0
LINE
  5
414
330
26
100
AcDbEntity
  8
2
100
AcDbLine
 10
-220.646758
 20
-117.206662
 30
0.0
 11
-219.646758
 21
-117.206662
 31
0.0
  0
CIRCLE
  5
415
330
26
100
AcDbEntity
  8
2
100
AcDbCircle
 10
-222.146758
 20
-48.256662
 30
0.0
 40
4.75
  0
LINE
  5
416
330
26
100
AcDbEntity
  8
2
100
AcDbLine
 10
-219.696758
 20
-48.756662
 30
0.0
 11
-219.696758
 21
-47.75666199999998
 31
0.0
  0
LINE
  5
417
330
26
100
AcDbEntity
  8
2
100
AcDbLine
 10
-224.596758
 20
-48.756662
 30
0.0
 11
-224.596758
 21
-47.75666199999998
 31
0.0
  0
LINE
  5
418
330
26
100
AcDbEntity
  8
2
100
AcDbLine
 10
-222.646758
 20
-45.806662
 30
0.0
 11
-221.646758
 21
-45.806662
 31
0.0
  0
LINE
  5
419
330
26
100
AcDbEntity
  8
2
100
AcDbLine
 10
-221.646758
 20
-50.706662
 30
0.0
 11
-221.646758
 21
-49.756662
 31
0.0
  0
LINE
  5
41A
330
26
100
AcDbEntity
  8
2
100
AcDbLine
 10
-221.646758
 20
-46.756662
 30
0.0
 11
-221.646758
 21
-45.806662
 31
0.0
  0
LINE
  5
41B
330
26
100
AcDbEntity
  8
2
100
AcDbLine
 10
-224.596758
 20
-48.756662
 30
0.0
 11
-223.646758
 21
-48.756662
 31
0.0
  0
LINE
  5
41C
330
26
100
AcDbEntity
  8
2
100
AcDbLine
 10
-220.646758
 20
-48.756662
 30
0.0
 11
-219.696758
 21
-48.756662
 31
0.0
  0
LINE
  5
41D
330
26
100
AcDbEntity
  8
2
100
AcDbLine
 10
-222.646758
 20
-50.706662
 30
0.0
 11
-222.646758
 21
-49.756662
 31
0.0
  0
LINE
  5
41E
330
26
100
AcDbEntity
  8
2
100
AcDbLine
 10
-222.646758
 20
-46.756662
 30
0.0
 11
-222.646758
 21
-45.806662
 31
0.0
  0
LINE
  5
41F
330
26
100
AcDbEntity
  8
2
100
AcDbLine
 10
-224.596758
 20
-47.75666199999998
 30
0.0
 11
-223.646758
 21
-47.75666199999998
 31
0.0
  0
LINE
  5
420
330
26
100
AcDbEntity
  8
2
100
AcDbLine
 10
-220.646758
 20
-47.75666199999998
 30
0.0
 11
-219.696758
 21
-47.75666199999998
 31
0.0
  0
ARC
  5
421
330
26
100
AcDbEntity
  8
2
100
AcDbCircle
 10
-220.646758
 20
-46.756662
 30
0.0
 40
1.0
100
AcDbArc
 50
180.0
 51
270.0
  0
ARC
  5
422
330
26
100
AcDbEntity
  8
2
100
AcDbCircle
 10
-223.646758
 20
-46.756662
 30
0.0
 40
1.0
100
AcDbArc
 50
270.0
 51
0.0
  0
ARC
  5
423
330
26
100
AcDbEntity
  8
2
100
AcDbCircle
 10
-223.646758
 20
-49.756662
 30
0.0
 40
1.0
100
AcDbArc
 50
0.0
 51
90.0
  0
ARC
  5
424
330
26
100
AcDbEntity
  8
2
100
AcDbCircle
 10
-220.646758
 20
-49.756662
 30
0.0
 40
1.0
100
AcDbArc
 50
90.0
 51
180.0
  0
LINE
  5
425
330
26
100
AcDbEntity
  8
2
100
AcDbLine
 10
-222.646758
 20
-50.706662
 30
0.0
 11
-221.646758
 21
-50.706662
 31
0.0
  0
CIRCLE
  5
426
330
26
100
AcDbEntity
  8
2
100
AcDbCircle
 10
-303.646758
 20
-48.756662
 30
0.0
 40
4.75
  0
LINE
  5
427
330
26
100
AcDbEntity
  8
2
100
AcDbLine
 10
-301.196758
 20
-49.256662
 30
0.0
 11
-301.196758
 21
-48.256662
 31
0.0
  0
LINE
  5
428
330
26
100
AcDbEntity
  8
2
100
AcDbLine
 10
-306.096758
 20
-49.256662
 30
0.0
 11
-306.096758
 21
-48.256662
 31
0.0
  0
LINE
  5
429
330
26
100
AcDbEntity
  8
2
100
AcDbLine
 10
-304.146758
 20
-46.306662
 30
0.0
 11
-303.1467580000001
 21
-46.306662
 31
0.0
  0
LINE
  5
42A
330
26
100
AcDbEntity
  8
2
100
AcDbLine
 10
-303.1467580000001
 20
-51.206662
 30
0.0
 11
-303.1467580000001
 21
-50.25666199999999
 31
0.0
  0
LINE
  5
42B
330
26
100
AcDbEntity
  8
2
100
AcDbLine
 10
-303.1467580000001
 20
-47.256662
 30
0.0
 11
-303.1467580000001
 21
-46.306662
 31
0.0
  0
LINE
  5
42C
330
26
100
AcDbEntity
  8
2
100
AcDbLine
 10
-306.096758
 20
-49.256662
 30
0.0
 11
-305.1467580000001
 21
-49.256662
 31
0.0
  0
LINE
  5
42D
330
26
100
AcDbEntity
  8
2
100
AcDbLine
 10
-302.146758
 20
-49.256662
 30
0.0
 11
-301.196758
 21
-49.256662
 31
0.0
  0
LINE
  5
42E
330
26
100
AcDbEntity
  8
2
100
AcDbLine
 10
-304.146758
 20
-51.206662
 30
0.0
 11
-304.146758
 21
-50.25666199999999
 31
0.0
  0
LINE
  5
42F
330
26
100
AcDbEntity
  8
2
100
AcDbLine
 10
-304.146758
 20
-47.256662
 30
0.0
 11
-304.146758
 21
-46.306662
 31
0.0
  0
LINE
  5
430
330
26
100
AcDbEntity
  8
2
100
AcDbLine
 10
-306.096758
 20
-48.256662
 30
0.0
 11
-305.1467580000001
 21
-48.256662
 31
0.0
  0
LINE
  5
431
330
26
100
AcDbEntity
  8
2
100
AcDbLine
 10
-302.146758
 20
-48.256662
 30
0.0
 11
-301.196758
 21
-48.256662
 31
0.0
  0
ARC
  5
432
330
26
100
AcDbEntity
  8
2
100
AcDbCircle
 10
-302.146758
 20
-47.256662
 30
0.0
 40
1.0
100
AcDbArc
 50
180.0
 51
270.0
  0
ARC
  5
433
330
26
100
AcDbEntity
  8
2
100
AcDbCircle
 10
-305.1467580000001
 20
-47.256662
 30
0.0
 40
1.0
100
AcDbArc
 50
270.0
 51
0.0
  0
ARC
  5
434
330
26
100
AcDbEntity
  8
2
100
AcDbCircle
 10
-305.1467580000001
 20
-50.25666199999999
 30
0.0
 40
1.0
100
AcDbArc
 50
0.0
 51
90.0
  0
ARC
  5
435
330
26
100
AcDbEntity
  8
2
100
AcDbCircle
 10
-302.146758
 20
-50.25666199999999
 30
0.0
 40
1.0
100
AcDbArc
 50
90.0
 51
180.0
  0
LINE
  5
436
330
26
100
AcDbEntity
  8
2
100
AcDbLine
 10
-304.146758
 20
-51.206662
 30
0.0
 11
-303.1467580000001
 21
-51.206662
 31
0.0
  0
LINE
  5
437
330
26
100
AcDbEntity
  8
2
100
AcDbLine
 10
-245.230134
 20
-80.25666200000001
 30
0.0
 11
-248.063383
 21
-80.25666200000001
 31
0.0
  0
LINE
  5
438
330
26
100
AcDbEntity
  8
2
100
AcDbLine
 10
-245.230134
 20
-85.25666200000001
 30
0.0
 11
-248.063383
 21
-85.25666200000001
 31
0.0
  0
LINE
  5
439
330
26
100
AcDbEntity
  8
2
100
AcDbLine
 10
-249.506758
 20
-82.75666200000001
 30
0.0
 11
-248.063383
 21
-80.25666200000001
 31
0.0
  0
LINE
  5
43A
330
26
100
AcDbEntity
  8
2
100
AcDbLine
 10
-249.506758
 20
-82.75666200000001
 30
0.0
 11
-248.063383
 21
-85.25666200000001
 31
0.0
  0
LINE
  5
43B
330
26
100
AcDbEntity
  8
2
100
AcDbLine
 10
-243.786758
 20
-82.75666200000001
 30
0.0
 11
-245.230134
 21
-80.25666200000001
 31
0.0
  0
LINE
  5
43C
330
26
100
AcDbEntity
  8
2
100
AcDbLine
 10
-243.786758
 20
-82.75666200000001
 30
0.0
 11
-245.230134
 21
-85.25666200000001
 31
0.0
  0
CIRCLE
  5
43D
330
26
100
AcDbEntity
  8
2
100
AcDbCircle
 10
-246.646758
 20
-82.75666200000001
 30
0.0
 40
12.5
  0
CIRCLE
  5
43E
330
26
100
AcDbEntity
  8
2
100
AcDbCircle
 10
-246.646758
 20
-82.75666200000001
 30
0.0
 40
12.2
  0
LINE
  5
43F
330
26
100
AcDbEntity
  8
2
100
AcDbLine
 10
-293.1467580000001
 20
-73.75666200000002
 30
0.0
 11
-293.1467580000001
 21
-68.75666200000001
 31
0.0
  0
LINE
  5
440
330
26
100
AcDbEntity
  8
2
100
AcDbLine
 10
-313.146758
 20
-68.75666200000001
 30
0.0
 11
-313.146758
 21
-83.75666200000003
 31
0.0
  0
LINE
  5
441
330
26
100
AcDbEntity
  8
2
100
AcDbLine
 10
-303.1467580000001
 20
-68.75666200000001
 30
0.0
 11
-303.1467580000001
 21
-98.75666200000001
 31
0.0
  0
LINE
  5
442
330
26
100
AcDbEntity
  8
2
100
AcDbLine
 10
-313.146758
 20
-73.75666200000002
 30
0.0
 11
-293.1467580000001
 21
-73.75666200000002
 31
0.0
  0
LINE
  5
443
330
26
100
AcDbEntity
  8
2
100
AcDbLine
 10
-303.1467580000001
 20
-68.75666200000001
 30
0.0
 11
-313.146758
 21
-73.75666200000002
 31
0.0
  0
LINE
  5
444
330
26
100
AcDbEntity
  8
2
100
AcDbLine
 10
-313.146758
 20
-68.75666200000001
 30
0.0
 11
-283.146758
 21
-68.75666200000001
 31
0.0
  0
LINE
  5
445
330
26
100
AcDbEntity
  8
2
100
AcDbLine
 10
-293.1467580000001
 20
-98.75666200000001
 30
0.0
 11
-293.1467580000001
 21
-78.75666200000002
 31
0.0
  0
LINE
  5
446
330
26
100
AcDbEntity
  8
2
100
AcDbLine
 10
-303.1467580000001
 20
-98.75666200000001
 30
0.0
 11
-293.1467580000001
 21
-98.75666200000001
 31
0.0
  0
LINE
  5
447
330
26
100
AcDbEntity
  8
2
100
AcDbLine
 10
-313.146758
 20
-83.75666200000003
 30
0.0
 11
-283.146758
 21
-68.75666200000001
 31
0.0
  0
LINE
  5
448
330
26
100
AcDbEntity
  8
2
100
AcDbLine
 10
-313.146758
 20
-78.75666200000002
 30
0.0
 11
-293.1467580000001
 21
-78.75666200000002
 31
0.0
  0
LINE
  5
449
330
26
100
AcDbEntity
  8
2
100
AcDbLine
 10
-293.1467580000001
 20
-68.75666200000001
 30
0.0
 11
-313.146758
 21
-78.75666200000002
 31
0.0
  0
ARC
  5
44A
330
26
100
AcDbEntity
  8
2
100
AcDbCircle
 10
-248.146758
 20
-82.75666200000001
 30
0.0
 40
83.0
100
AcDbArc
 50
176.553145
 51
183.446855
  0
ARC
  5
44B
330
26
100
AcDbEntity
  8
2
 62
     2
100
AcDbCircle
 10
-305.1467580000001
 20
-80.556662
 30
0.0
 40
32.187
100
AcDbArc
 50
101.806726
 51
173.839455
  0
ARC
  5
44C
330
26
100
AcDbEntity
  8
2
100
AcDbCircle
 10
-305.1467580000001
 20
-80.556662
 30
0.0
 40
26.0
100
AcDbArc
 50
94.86352999999999
 51
173.839455
  0
ARC
  5
44D
330
26
100
AcDbEntity
  8
2
100
AcDbCircle
 10
-305.1467580000001
 20
-84.956662
 30
0.0
 40
26.0
100
AcDbArc
 50
186.160545
 51
265.13647
  0
ARC
  5
44E
330
26
100
AcDbEntity
  8
2
 62
     2
100
AcDbCircle
 10
-372.646758
 20
-82.75666200000001
 30
0.0
 40
162.47
100
AcDbArc
 50
359.375245
 51
0.6247550000000001
  0
ARC
  5
44F
330
26
100
AcDbEntity
  8
2
 62
     2
100
AcDbCircle
 10
-305.1467580000001
 20
-84.956662
 30
0.0
 40
32.187
100
AcDbArc
 50
186.160545
 51
258.193274
  0
ARC
  5
450
330
26
100
AcDbEntity
  8
2
 62
     2
100
AcDbCircle
 10
-248.146758
 20
-82.75666200000001
 30
0.0
 40
89.18700000000002
100
AcDbArc
 50
176.553145
 51
183.446855
  0
ARC
  5
451
330
26
100
AcDbEntity
  8
2
 62
     2
100
AcDbCircle
 10
-242.646758
 20
-85.25666200000001
 30
0.0
 40
32.47
100
AcDbArc
 50
269.465549
 51
299.701491
  0
ARC
  5
452
330
26
100
AcDbEntity
  8
2
 62
     2
100
AcDbCircle
 10
-242.646758
 20
-85.25666200000001
 30
0.0
 40
32.47
100
AcDbArc
 50
314.964901
 51
1.442841
  0
ARC
  5
453
330
26
100
AcDbEntity
  8
2
 62
     2
100
AcDbCircle
 10
-220.146758
 20
-114.756662
 30
0.0
 40
6.0
100
AcDbArc
 50
96.94736
 51
157.719031
  0
ARC
  5
454
330
26
100
AcDbEntity
  8
2
 62
     2
100
AcDbCircle
 10
-222.146758
 20
-48.256662
 30
0.0
 40
6.0
100
AcDbArc
 50
216.425439
 51
254.880724
  0
ARC
  5
455
330
26
100
AcDbEntity
  8
2
 62
     2
100
AcDbCircle
 10
-242.646758
 20
-80.25666200000001
 30
0.0
 40
32.47
100
AcDbArc
 50
358.557159
 51
52.8207
  0
ARC
  5
456
330
26
100
AcDbEntity
  8
2
 62
     2
100
AcDbCircle
 10
-242.646758
 20
-80.25666200000001
 30
0.0
 40
32.47
100
AcDbArc
 50
61.14022399999998
 51
90.53445100000001
  0
ARC
  5
457
330
26
100
AcDbEntity
  8
2
 62
     2
100
AcDbCircle
 10
-311.323349
 20
-51.008317
 30
0.0
 40
2.0
100
AcDbArc
 50
16.347175
 51
101.806726
  0
ARC
  5
458
330
26
100
AcDbEntity
  8
2
 62
     2
100
AcDbCircle
 10
-311.323349
 20
-114.505007
 30
0.0
 40
2.0
100
AcDbArc
 50
258.193274
 51
343.652825
  0
ARC
  5
459
330
26
100
AcDbEntity
  8
2
 62
     2
100
AcDbCircle
 10
-227.549444
 20
-111.723471
 30
0.0
 40
2.0
100
AcDbArc
 50
299.701491
 51
337.719031
  0
ARC
  5
45A
330
26
100
AcDbEntity
  8
2
 62
     2
100
AcDbCircle
 10
-221.114418
 20
-106.8154
 30
0.0
 40
2.0
100
AcDbArc
 50
276.94736
 51
314.964901
  0
ARC
  5
45B
330
26
100
AcDbEntity
  8
2
 62
     2
100
AcDbCircle
 10
-224.233393
 20
-55.979741
 30
0.0
 40
2.0
100
AcDbArc
 50
52.8207
 51
74.880724
  0
LINE
  5
45C
330
26
100
AcDbEntity
  8
2
100
AcDbLine
 10
-363.396453
 20
-41.756662
 30
0.0
 11
-220.453873
 21
-41.756662
 31
0.0
  0
ARC
  5
45D
330
26
100
AcDbEntity
  8
2
100
AcDbCircle
 10
-363.396453
 20
-51.756662
 30
0.0
 40
10.0
100
AcDbArc
 50
90.0
 51
169.473381
  0
ARC
  5
45E
330
26
100
AcDbEntity
  8
2
100
AcDbCircle
 10
-220.453873
 20
-51.756662
 30
0.0
 40
10.0
100
AcDbArc
 50
13.342364
 51
90.0
  0
ARC
  5
45F
330
26
100
AcDbEntity
  8
2
100
AcDbCircle
 10
-321.646758
 20
-75.756662
 30
0.0
 40
114.0
100
AcDbArc
 50
0.0
 51
13.342364
  0
LINE
  5
460
330
26
100
AcDbEntity
  8
2
100
AcDbLine
 10
-363.747928
 20
-121.756662
 30
0.0
 11
-220.000312
 21
-121.756662
 31
0.0
  0
ARC
  5
461
330
26
100
AcDbEntity
  8
2
100
AcDbCircle
 10
-220.000312
 20
-111.756662
 30
0.0
 40
10.0
100
AcDbArc
 50
270.0
 51
347.787475
  0
ARC
  5
462
330
26
100
AcDbEntity
  8
2
100
AcDbCircle
 10
-321.646758
 20
-89.756662
 30
0.0
 40
114.0
100
AcDbArc
 50
347.787475
 51
360.0
  0
LINE
  5
463
330
26
100
AcDbEntity
  8
2
100
AcDbLine
 10
-207.646758
 20
-75.756662
 30
0.0
 11
-207.646758
 21
-89.756662
 31
0.0
  0
ARC
  5
464
330
26
100
AcDbEntity
  8
2
100
AcDbCircle
 10
-261.146758
 20
-70.756662
 30
0.0
 40
114.0
100
AcDbArc
 50
169.473381
 51
180.0
  0
LINE
  5
465
330
26
100
AcDbEntity
  8
2
100
AcDbLine
 10
-375.146758
 20
-70.756662
 30
0.0
 11
-375.146758
 21
-94.756662
 31
0.0
  0
ARC
  5
466
330
26
100
AcDbEntity
  8
2
100
AcDbCircle
 10
-261.146758
 20
-94.756662
 30
0.0
 40
114.0
100
AcDbArc
 50
180.0
 51
189.407874
  0
ARC
  5
467
330
26
100
AcDbEntity
  8
2
100
AcDbCircle
 10
-363.747928
 20
-111.756662
 30
0.0
 40
10.0
100
AcDbArc
 50
189.407874
 51
270.0
  0
LINE
  5
468
330
26
100
AcDbEntity
  8
2
 62
     2
100
AcDbLine
 10
-242.949632
 20
-47.788074
 30
0.0
 11
-295.812001
 21
-48.281185
 31
0.0
  0
LINE
  5
469
330
26
100
AcDbEntity
  8
2
 62
     2
100
AcDbLine
 10
-242.949632
 20
-117.725249
 30
0.0
 11
-295.812001
 21
-117.232139
 31
0.0
  0
ARC
  5
46A
330
26
100
AcDbEntity
  8
2
 62
     2
100
AcDbCircle
 10
-295.793345
 20
-50.281098
 30
0.0
 40
2.0
100
AcDbArc
 50
90.53445100000001
 51
169.014853
  0
ARC
  5
46B
330
26
100
AcDbEntity
  8
2
 62
     2
100
AcDbCircle
 10
-295.793345
 20
-115.232226
 30
0.0
 40
2.0
100
AcDbArc
 50
190.9851469999999
 51
269.465549
  0
ARC
  5
46C
330
26
100
AcDbEntity
  8
2
 62
     2
100
AcDbCircle
 10
-303.646758
 20
-48.756662
 30
0.0
 40
6.0
100
AcDbArc
 50
196.347175
 51
252.742145
  0
ARC
  5
46D
330
26
100
AcDbEntity
  8
2
 62
     2
100
AcDbCircle
 10
-303.646758
 20
-48.756662
 30
0.0
 40
6.0
100
AcDbArc
 50
296.984916
 51
349.0148529999999
  0
ARC
  5
46E
330
26
100
AcDbEntity
  8
2
 62
     2
100
AcDbCircle
 10
-303.646758
 20
-116.756662
 30
0.0
 40
6.0
100
AcDbArc
 50
10.985147
 51
63.015084
  0
ARC
  5
46F
330
26
100
AcDbEntity
  8
2
 62
     2
100
AcDbCircle
 10
-303.646758
 20
-116.756662
 30
0.0
 40
6.0
100
AcDbArc
 50
107.257855
 51
163.652825
  0
CIRCLE
  5
470
330
26
100
AcDbEntity
  8
2
100
AcDbCircle
 10
-246.646758
 20
-82.75666200000001
 30
0.0
 40
12.5
  0
LINE
  5
471
330
26
100
AcDbEntity
  8
2
100
AcDbLine
 10
-245.275023
 20
-116.145045
 30
0.0
 11
-307.351109
 21
-110.863048
 31
0.0
  0
LINE
  5
472
330
26
100
AcDbEntity
  8
2
100
AcDbLine
 10
-245.275023
 20
-49.368278
 30
0.0
 11
-307.351109
 21
-54.65027599999999
 31
0.0
  0
ARC
  5
473
330
26
100
AcDbEntity
  8
2
100
AcDbCircle
 10
-242.646758
 20
-80.25666200000001
 30
0.0
 40
31.0
100
AcDbArc
 50
3.61268
 51
94.86352999999999
  0
ARC
  5
474
330
26
100
AcDbEntity
  8
2
100
AcDbCircle
 10
-372.646758
 20
-82.75666200000001
 30
0.0
 40
161.0
100
AcDbArc
 50
358.414964
 51
1.585036
  0
ARC
  5
475
330
26
100
AcDbEntity
  8
2
100
AcDbCircle
 10
-242.646758
 20
-85.25666200000001
 30
0.0
 40
31.0
100
AcDbArc
 50
265.13647
 51
356.3873200000001
  0
ARC
  5
476
330
26
100
AcDbEntity
  8
2
100
AcDbCircle
 10
-246.146758
 20
-82.75666200000001
 30
0.0
 40
15.0
100
AcDbArc
 50
23.267823
 51
154.780192
  0
LINE
  5
477
330
26
100
AcDbEntity
  8
2
100
AcDbLine
 10
-259.716955
 20
-76.36528100000003
 30
0.0
 11
-264.2352160000001
 21
-73.75666200000002
 31
0.0
  0
LINE
  5
478
330
26
100
AcDbEntity
  8
2
100
AcDbLine
 10
-233.928823
 20
-77.399771
 30
0.0
 11
-230.170052
 21
-76.03169100000002
 31
0.0
  0
ARC
  5
479
330
26
100
AcDbEntity
  8
2
100
AcDbCircle
 10
-248.646758
 20
-82.75666200000001
 30
0.0
 40
18.0
100
AcDbArc
 50
20.0
 51
150.0
  0
LINE
  5
47A
330
26
100
AcDbEntity
  8
2
100
AcDbLine
 10
-230.170052
 20
-76.03169100000002
 30
0.0
 11
-230.646758
 21
-82.75666200000001
 31
0.0
  0
LINE
  5
47B
330
26
100
AcDbEntity
  8
2
100
AcDbLine
 10
-230.646758
 20
-82.75666200000001
 30
0.0
 11
-233.928823
 21
-77.399771
 31
0.0
  0
TEXT
  5
47C
330
26
100
AcDbEntity
  8
2
100
AcDbText
 10
-235.162196
 20
-89.724906
 30
0.0
 40
6.0
  1
Ｓ
 41
1.399999999999999
 72
     5
 11
-228.442196
 21
-89.724906
 31
0.0
100
AcDbText
  0
LINE
  5
47D
330
26
100
AcDbEntity
  8
2
  6
CENTER
 62
     2
100
AcDbLine
 10
-246.646758
 20
-125.174266
 30
0.0
 11
-246.646758
 21
-33.92242
 31
0.0
  0
LINE
  5
47E
330
26
100
AcDbEntity
  8
2
  6
CENTER
 62
     2
100
AcDbLine
 10
-336.3967580000001
 20
-125.174266
 30
0.0
 11
-336.3967580000001
 21
-33.92242
 31
0.0
  0
LINE
  5
47F
330
26
100
AcDbEntity
  8
2
  6
CENTER
 62
     2
100
AcDbLine
 10
-199.788232
 20
-42.75666199999998
 30
0.0
 11
-162.931699
 21
-42.75666199999998
 31
0.0
  0
LINE
  5
480
330
26
100
AcDbEntity
  8
2
  6
CENTER
 62
     2
100
AcDbLine
 10
-361.146758
 20
-57.006662
 30
0.0
 11
-361.146758
 21
-39.506662
 31
0.0
  0
LINE
  5
481
330
26
100
AcDbEntity
  8
2
  6
CENTER
 62
     2
100
AcDbLine
 10
-363.146758
 20
-106.006662
 30
0.0
 11
-363.146758
 21
-123.506662
 31
0.0
  0
LINE
  5
482
330
26
100
AcDbEntity
  8
2
  6
CENTER
 62
     2
100
AcDbLine
 10
-371.8967580000001
 20
-114.756662
 30
0.0
 11
-354.396758
 21
-114.756662
 31
0.0
  0
LINE
  5
483
330
26
100
AcDbEntity
  8
2
  6
CENTER
 62
     2
100
AcDbLine
 10
-312.396758
 20
-116.756662
 30
0.0
 11
-294.8967580000001
 21
-116.756662
 31
0.0
  0
LINE
  5
484
330
26
100
AcDbEntity
  8
2
  6
CENTER
 62
     2
100
AcDbLine
 10
-303.646758
 20
-40.006662
 30
0.0
 11
-303.646758
 21
-57.506662
 31
0.0
  0
LINE
  5
485
330
26
100
AcDbEntity
  8
2
  6
CENTER
 62
     2
100
AcDbLine
 10
-312.396758
 20
-48.756662
 30
0.0
 11
-294.8967580000001
 21
-48.756662
 31
0.0
  0
LINE
  5
486
330
26
100
AcDbEntity
  8
2
  6
CENTER
 62
     2
100
AcDbLine
 10
-222.146758
 20
-57.006662
 30
0.0
 11
-222.146758
 21
-39.506662
 31
0.0
  0
LINE
  5
487
330
26
100
AcDbEntity
  8
2
  6
CENTER
 62
     2
100
AcDbLine
 10
-352.396758
 20
-48.256662
 30
0.0
 11
-369.8967580000001
 21
-48.256662
 31
0.0
  0
LINE
  5
488
330
26
100
AcDbEntity
  8
2
  6
CENTER
 62
     2
100
AcDbLine
 10
-384.102512
 20
-82.75666200000001
 30
0.0
 11
-177.500019
 21
-82.75666200000001
 31
0.0
  0
LINE
  5
489
330
26
100
AcDbEntity
  8
2
  6
CENTER
 62
     2
100
AcDbLine
 10
-230.896758
 20
-48.256662
 30
0.0
 11
-213.396758
 21
-48.256662
 31
0.0
  0
LINE
  5
48A
330
26
100
AcDbEntity
  8
2
  6
CENTER
 62
     2
100
AcDbLine
 10
-228.896758
 20
-114.756662
 30
0.0
 11
-211.396758
 21
-114.756662
 31
0.0
  0
LINE
  5
48B
330
26
100
AcDbEntity
  8
2
  6
CENTER
 62
     2
100
AcDbLine
 10
-303.646758
 20
-125.506662
 30
0.0
 11
-303.646758
 21
-108.006662
 31
0.0
  0
LINE
  5
48C
330
26
100
AcDbEntity
  8
2
  6
CENTER
 62
     2
100
AcDbLine
 10
-220.146758
 20
-106.006662
 30
0.0
 11
-220.146758
 21
-123.506662
 31
0.0
  0
LINE
  5
48D
330
26
100
AcDbEntity
  8
2
100
AcDbLine
 10
-182.146758
 20
296.743338
 30
0.0
 11
-181.146758
 21
295.743338
 31
0.0
  0
LINE
  5
48E
330
26
100
AcDbEntity
  8
2
100
AcDbLine
 10
-186.146758
 20
212.743338
 30
0.0
 11
-186.146758
 21
300.743338
 31
0.0
  0
ARC
  5
48F
330
26
100
AcDbEntity
  8
2
100
AcDbCircle
 10
-205.646758
 20
204.743338
 30
0.0
 40
2.0
100
AcDbArc
 50
143.237457
 51
180.0
  0
LINE
  5
490
330
26
100
AcDbEntity
  8
2
100
AcDbLine
 10
-192.146758
 20
206.743338
 30
0.0
 11
-344.146758
 21
206.743338
 31
0.0
  0
ARC
  5
491
330
26
100
AcDbEntity
  8
2
100
AcDbCircle
 10
-195.146758
 20
211.743338
 30
0.0
 40
5.0
100
AcDbArc
 50
270.0
 51
360.0
  0
LINE
  5
492
330
26
100
AcDbEntity
  8
2
100
AcDbLine
 10
-190.146758
 20
300.743338
 30
0.0
 11
-190.146758
 21
211.743338
 31
0.0
  0
LINE
  5
493
330
26
100
AcDbEntity
  8
2
100
AcDbLine
 10
-350.146758
 20
300.743338
 30
0.0
 11
-350.146758
 21
212.743338
 31
0.0
  0
ARC
  5
494
330
26
100
AcDbEntity
  8
2
100
AcDbCircle
 10
-344.146758
 20
212.743338
 30
0.0
 40
6.0
100
AcDbArc
 50
180.0
 51
270.0
  0
LINE
  5
495
330
26
100
AcDbEntity
  8
2
100
AcDbLine
 10
-350.146758
 20
212.743338
 30
0.0
 11
-350.146758
 21
215.743338
 31
0.0
  0
LINE
  5
496
330
26
100
AcDbEntity
  8
2
100
AcDbLine
 10
-348.264758
 20
306.743338
 30
0.0
 11
-192.146758
 21
306.743338
 31
0.0
  0
ARC
  5
497
330
26
100
AcDbEntity
  8
2
100
AcDbCircle
 10
-196.146758
 20
300.743338
 30
0.0
 40
6.0
100
AcDbArc
 50
0.0
 51
90.0
  0
ARC
  5
498
330
26
100
AcDbEntity
  8
2
100
AcDbCircle
 10
-344.146758
 20
300.743338
 30
0.0
 40
6.0
100
AcDbArc
 50
90.0
 51
180.0
  0
LINE
  5
499
330
26
100
AcDbEntity
  8
2
100
AcDbLine
 10
-207.646758
 20
204.743338
 30
0.0
 11
-207.646758
 21
201.743338
 31
0.0
  0
ARC
  5
49A
330
26
100
AcDbEntity
  8
2
100
AcDbCircle
 10
-191.343758
 20
301.546338
 30
0.0
 40
6.0
100
AcDbArc
 50
0.0
 51
90.0
  0
ARC
  5
49B
330
26
100
AcDbEntity
  8
2
100
AcDbCircle
 10
-356.946758
 20
263.743338
 30
0.0
 40
3.0
100
AcDbArc
 50
270.0
 51
333.38027
  0
ARC
  5
49C
330
26
100
AcDbEntity
  8
2
100
AcDbCircle
 10
-356.946758
 20
279.743338
 30
0.0
 40
3.0
100
AcDbArc
 50
270.0
 51
333.38027
  0
ARC
  5
49D
330
26
100
AcDbEntity
  8
2
100
AcDbCircle
 10
-356.946758
 20
267.743338
 30
0.0
 40
3.0
100
AcDbArc
 50
26.61973
 51
90.0
  0
ARC
  5
49E
330
26
100
AcDbEntity
  8
2
100
AcDbCircle
 10
-356.946758
 20
283.743338
 30
0.0
 40
3.0
100
AcDbArc
 50
26.61973
 51
90.0
  0
LINE
  5
49F
330
26
100
AcDbEntity
  8
2
 62
     2
100
AcDbLine
 10
-357.827758
 20
260.743338
 30
0.0
 11
-357.827758
 21
270.743338
 31
0.0
  0
LINE
  5
4A0
330
26
100
AcDbEntity
  8
2
 62
     2
100
AcDbLine
 10
-357.827758
 20
276.743338
 30
0.0
 11
-357.827758
 21
286.743338
 31
0.0
  0
LINE
  5
4A1
330
26
100
AcDbEntity
  8
2
 62
     2
100
AcDbLine
 10
-360.797758
 20
270.743338
 30
0.0
 11
-360.797758
 21
276.743338
 31
0.0
  0
LINE
  5
4A2
330
26
100
AcDbEntity
  8
2
 62
     2
100
AcDbLine
 10
-360.797758
 20
254.743338
 30
0.0
 11
-360.797758
 21
260.743338
 31
0.0
  0
LINE
  5
4A3
330
26
100
AcDbEntity
  8
2
100
AcDbLine
 10
-354.2647580000001
 20
231.107729
 30
0.0
 11
-354.2647580000001
 21
300.743338
 31
0.0
  0
ARC
  5
4A4
330
26
100
AcDbEntity
  8
2
100
AcDbCircle
 10
-348.264758
 20
300.743338
 30
0.0
 40
6.0
100
AcDbArc
 50
90.0
 51
180.0
  0
LINE
  5
4A5
330
26
100
AcDbEntity
  8
2
100
AcDbLine
 10
-369.146758
 20
286.743338
 30
0.0
 11
-356.946758
 21
286.743338
 31
0.0
  0
LINE
  5
4A6
330
26
100
AcDbEntity
  8
2
100
AcDbLine
 10
-368.146758
 20
276.743338
 30
0.0
 11
-356.946758
 21
276.743338
 31
0.0
  0
LINE
  5
4A7
330
26
100
AcDbEntity
  8
2
100
AcDbLine
 10
-368.146758
 20
270.743338
 30
0.0
 11
-356.946758
 21
270.743338
 31
0.0
  0
LINE
  5
4A8
330
26
100
AcDbEntity
  8
2
100
AcDbLine
 10
-368.146758
 20
260.743338
 30
0.0
 11
-356.946758
 21
260.743338
 31
0.0
  0
LINE
  5
4A9
330
26
100
AcDbEntity
  8
2
100
AcDbLine
 10
-366.396758
 20
285.743338
 30
0.0
 11
-366.396758
 21
277.743338
 31
0.0
  0
LINE
  5
4AA
330
26
100
AcDbEntity
  8
2
100
AcDbLine
 10
-366.396758
 20
269.743338
 30
0.0
 11
-366.396758
 21
261.743338
 31
0.0
  0
ARC
  5
4AB
330
26
100
AcDbEntity
  8
2
100
AcDbCircle
 10
-367.396758
 20
261.743338
 30
0.0
 40
1.0
100
AcDbArc
 50
270.0
 51
360.0
  0
ARC
  5
4AC
330
26
100
AcDbEntity
  8
2
100
AcDbCircle
 10
-367.396758
 20
269.743338
 30
0.0
 40
1.0
100
AcDbArc
 50
0.0
 51
90.0
  0
ARC
  5
4AD
330
26
100
AcDbEntity
  8
2
100
AcDbCircle
 10
-367.396758
 20
277.743338
 30
0.0
 40
1.0
100
AcDbArc
 50
270.0
 51
360.0
  0
ARC
  5
4AE
330
26
100
AcDbEntity
  8
2
100
AcDbCircle
 10
-367.396758
 20
285.743338
 30
0.0
 40
1.0
100
AcDbArc
 50
0.0
 51
90.0
  0
ARC
  5
4AF
330
26
100
AcDbEntity
  8
2
100
AcDbCircle
 10
-356.946758
 20
247.743338
 30
0.0
 40
3.0
100
AcDbArc
 50
270.0
 51
333.38027
  0
ARC
  5
4B0
330
26
100
AcDbEntity
  8
2
100
AcDbCircle
 10
-356.946758
 20
235.743338
 30
0.0
 40
3.0
100
AcDbArc
 50
26.61973
 51
90.0
  0
ARC
  5
4B1
330
26
100
AcDbEntity
  8
2
100
AcDbCircle
 10
-356.946758
 20
251.743338
 30
0.0
 40
3.0
100
AcDbArc
 50
26.61973
 51
90.0
  0
LINE
  5
4B2
330
26
100
AcDbEntity
  8
2
 62
     2
100
AcDbLine
 10
-357.827758
 20
228.243338
 30
0.0
 11
-357.827758
 21
238.743338
 31
0.0
  0
LINE
  5
4B3
330
26
100
AcDbEntity
  8
2
 62
     2
100
AcDbLine
 10
-357.827758
 20
244.743338
 30
0.0
 11
-357.827758
 21
254.743338
 31
0.0
  0
LINE
  5
4B4
330
26
100
AcDbEntity
  8
2
 62
     2
100
AcDbLine
 10
-360.797758
 20
238.743338
 30
0.0
 11
-360.797758
 21
244.743338
 31
0.0
  0
LINE
  5
4B5
330
26
100
AcDbEntity
  8
2
100
AcDbLine
 10
-356.372981
 20
228.243338
 30
0.0
 11
-370.146758
 21
228.243338
 31
0.0
  0
ARC
  5
4B6
330
26
100
AcDbEntity
  8
2
100
AcDbCircle
 10
-367.396758
 20
229.243338
 30
0.0
 40
1.0
100
AcDbArc
 50
270.0
 51
0.0
  0
LINE
  5
4B7
330
26
100
AcDbEntity
  8
2
100
AcDbLine
 10
-368.146758
 20
254.743338
 30
0.0
 11
-356.946758
 21
254.743338
 31
0.0
  0
LINE
  5
4B8
330
26
100
AcDbEntity
  8
2
100
AcDbLine
 10
-368.146758
 20
244.743338
 30
0.0
 11
-356.946758
 21
244.743338
 31
0.0
  0
LINE
  5
4B9
330
26
100
AcDbEntity
  8
2
100
AcDbLine
 10
-368.146758
 20
238.743338
 30
0.0
 11
-356.946758
 21
238.743338
 31
0.0
  0
LINE
  5
4BA
330
26
100
AcDbEntity
  8
2
100
AcDbLine
 10
-366.396758
 20
237.743338
 30
0.0
 11
-366.396758
 21
229.243338
 31
0.0
  0
LINE
  5
4BB
330
26
100
AcDbEntity
  8
2
100
AcDbLine
 10
-366.396758
 20
253.743338
 30
0.0
 11
-366.396758
 21
245.743338
 31
0.0
  0
ARC
  5
4BC
330
26
100
AcDbEntity
  8
2
100
AcDbCircle
 10
-367.396758
 20
237.743338
 30
0.0
 40
1.0
100
AcDbArc
 50
360.0
 51
90.0
  0
ARC
  5
4BD
330
26
100
AcDbEntity
  8
2
100
AcDbCircle
 10
-367.396758
 20
245.743338
 30
0.0
 40
1.0
100
AcDbArc
 50
270.0
 51
360.0
  0
ARC
  5
4BE
330
26
100
AcDbEntity
  8
2
100
AcDbCircle
 10
-367.396758
 20
253.743338
 30
0.0
 40
1.0
100
AcDbArc
 50
0.0
 51
90.0
  0
LINE
  5
4BF
330
26
100
AcDbEntity
  8
2
100
AcDbLine
 10
-191.343758
 20
205.940338
 30
0.0
 11
-375.146758
 21
205.940338
 31
0.0
  0
LINE
  5
4C0
330
26
100
AcDbEntity
  8
2
100
AcDbLine
 10
-182.146758
 20
296.743338
 30
0.0
 11
-182.146758
 21
210.743338
 31
0.0
  0
LINE
  5
4C1
330
26
100
AcDbEntity
  8
2
100
AcDbLine
 10
-181.146758
 20
211.743338
 30
0.0
 11
-182.146758
 21
210.743338
 31
0.0
  0
LINE
  5
4C2
330
26
100
AcDbEntity
  8
2
100
AcDbLine
 10
-181.146758
 20
211.743338
 30
0.0
 11
-181.146758
 21
295.743338
 31
0.0
  0
LINE
  5
4C3
330
26
100
AcDbEntity
  8
2
100
AcDbLine
 10
-186.146758
 20
296.743338
 30
0.0
 11
-182.146758
 21
296.743338
 31
0.0
  0
LINE
  5
4C4
330
26
100
AcDbEntity
  8
2
100
AcDbLine
 10
-186.489904
 20
210.743338
 30
0.0
 11
-182.146758
 21
210.743338
 31
0.0
  0
ARC
  5
4C5
330
26
100
AcDbEntity
  8
2
100
AcDbCircle
 10
-192.146758
 20
300.743338
 30
0.0
 40
6.0
100
AcDbArc
 50
0.0
 51
90.0
  0
ARC
  5
4C6
330
26
100
AcDbEntity
  8
2
100
AcDbCircle
 10
-191.343758
 20
211.940338
 30
0.0
 40
6.0
100
AcDbArc
 50
270.0
 51
348.492278
  0
ARC
  5
4C7
330
26
100
AcDbEntity
  8
2
100
AcDbCircle
 10
-192.146758
 20
212.743338
 30
0.0
 40
6.0
100
AcDbArc
 50
270.0
 51
360.0
  0
LINE
  5
4C8
330
26
100
AcDbEntity
  8
2
100
AcDbLine
 10
-354.798007
 20
307.546338
 30
0.0
 11
-191.343758
 21
307.546338
 31
0.0
  0
LINE
  5
4C9
330
26
100
AcDbEntity
  8
2
100
AcDbLine
 10
-185.343758
 20
301.546338
 30
0.0
 11
-185.343758
 21
296.743338
 31
0.0
  0
ARC
  5
4CA
330
26
100
AcDbEntity
  8
2
100
AcDbCircle
 10
-354.798007
 20
301.546338
 30
0.0
 40
6.0
100
AcDbArc
 50
90.0
 51
151.295513
  0
LINE
  5
4CB
330
26
100
AcDbEntity
  8
2
100
AcDbLine
 10
-365.1217180000001
 20
295.185595
 30
0.0
 11
-360.060658
 21
304.428091
 31
0.0
  0
ARC
  5
4CC
330
26
100
AcDbEntity
  8
2
100
AcDbCircle
 10
-369.507261
 20
297.587056
 30
0.0
 40
5.0
100
AcDbArc
 50
283.105828
 51
331.295513
  0
LINE
  5
4CD
330
26
100
AcDbEntity
  8
2
 62
     2
100
AcDbLine
 10
-360.798007
 20
287.743338
 30
0.0
 11
-360.798007
 21
301.546338
 31
0.0
  0
ARC
  5
4CE
330
26
100
AcDbEntity
  8
2
100
AcDbCircle
 10
-354.798007
 20
211.940338
 30
0.0
 40
6.0
100
AcDbArc
 50
180.0
 51
270.0
  0
LINE
  5
4CF
330
26
100
AcDbEntity
  8
2
100
AcDbLine
 10
-360.798007
 20
211.940338
 30
0.0
 11
-360.798007
 21
223.243338
 31
0.0
  0
ARC
  5
4D0
330
26
100
AcDbEntity
  8
2
100
AcDbCircle
 10
-355.798007
 20
223.243338
 30
0.0
 40
5.0
100
AcDbArc
 50
100.564597
 51
180.0
  0
ARC
  5
4D1
330
26
100
AcDbEntity
  8
2
100
AcDbCircle
 10
-357.264758
 20
231.107729
 30
0.0
 40
3.0
100
AcDbArc
 50
280.564597
 51
360.0
  0
ARC
  5
4D2
330
26
100
AcDbEntity
  8
2
100
AcDbCircle
 10
-368.146758
 20
259.743338
 30
0.0
 40
1.0
100
AcDbArc
 50
90.0
 51
180.0
  0
ARC
  5
4D3
330
26
100
AcDbEntity
  8
2
100
AcDbCircle
 10
-368.146758
 20
271.743338
 30
0.0
 40
1.0
100
AcDbArc
 50
180.0
 51
270.0
  0
ARC
  5
4D4
330
26
100
AcDbEntity
  8
2
100
AcDbCircle
 10
-368.146758
 20
275.743338
 30
0.0
 40
1.0
100
AcDbArc
 50
90.0
 51
180.0
  0
ARC
  5
4D5
330
26
100
AcDbEntity
  8
2
100
AcDbCircle
 10
-368.146758
 20
287.743338
 30
0.0
 40
1.0
100
AcDbArc
 50
180.0
 51
270.0
  0
ARC
  5
4D6
330
26
100
AcDbEntity
  8
2
100
AcDbCircle
 10
-370.146758
 20
223.243338
 30
0.0
 40
5.0
100
AcDbArc
 50
90.0
 51
180.0
  0
ARC
  5
4D7
330
26
100
AcDbEntity
  8
2
100
AcDbCircle
 10
-368.146758
 20
239.743338
 30
0.0
 40
1.0
100
AcDbArc
 50
180.0
 51
270.0
  0
ARC
  5
4D8
330
26
100
AcDbEntity
  8
2
100
AcDbCircle
 10
-368.146758
 20
243.743338
 30
0.0
 40
1.0
100
AcDbArc
 50
90.0
 51
180.0
  0
ARC
  5
4D9
330
26
100
AcDbEntity
  8
2
100
AcDbCircle
 10
-368.146758
 20
255.743338
 30
0.0
 40
1.0
100
AcDbArc
 50
180.0
 51
270.0
  0
LINE
  5
4DA
330
26
100
AcDbEntity
  8
2
100
AcDbLine
 10
-375.146758
 20
223.243338
 30
0.0
 11
-375.146758
 21
201.743338
 31
0.0
  0
LINE
  5
4DB
330
26
100
AcDbEntity
  8
2
100
AcDbLine
 10
-375.146758
 20
201.743338
 30
0.0
 11
-207.646758
 21
201.743338
 31
0.0
  0
LINE
  5
4DC
330
26
100
AcDbEntity
  8
2
100
AcDbLine
 10
-207.646758
 20
201.743338
 30
0.0
 11
-375.146758
 21
201.743338
 31
0.0
  0
LINE
  5
4DD
330
26
100
AcDbEntity
  8
2
100
AcDbLine
 10
-369.146758
 20
228.243338
 30
0.0
 11
-369.146758
 21
291.743338
 31
0.0
  0
ARC
  5
4DE
330
26
100
AcDbEntity
  8
2
100
AcDbCircle
 10
-368.146758
 20
291.743338
 30
0.0
 40
1.0
100
AcDbArc
 50
103.105828
 51
180.0
  0
LINE
  5
4DF
330
26
100
AcDbEntity
  8
2
100
AcDbLine
 10
-344.146758
 20
306.743338
 30
0.0
 11
-196.146758
 21
306.743338
 31
0.0
  0
ARC
  5
4E0
330
26
100
AcDbEntity
  8
2
100
AcDbCircle
 10
-196.146758
 20
300.743338
 30
0.0
 40
6.0
100
AcDbArc
 50
0.0
 51
90.0
  0
ARC
  5
4E1
330
26
100
AcDbEntity
  8
2
100
AcDbCircle
 10
-344.146758
 20
300.743338
 30
0.0
 40
6.0
100
AcDbArc
 50
90.0
 51
180.0
  0
LINE
  5
4E2
330
26
100
AcDbEntity
  8
2
100
AcDbLine
 10
-190.146758
 20
300.743338
 30
0.0
 11
-190.146758
 21
212.743338
 31
0.0
  0
LINE
  5
4E3
330
26
100
AcDbEntity
  8
2
100
AcDbLine
 10
-350.146758
 20
212.743338
 30
0.0
 11
-350.146758
 21
300.743338
 31
0.0
  0
ARC
  5
4E4
330
26
100
AcDbEntity
  8
2
100
AcDbCircle
 10
-196.146758
 20
212.743338
 30
0.0
 40
6.0
100
AcDbArc
 50
270.0
 51
360.0
  0
ARC
  5
4E5
330
26
100
AcDbEntity
  8
2
100
AcDbCircle
 10
-344.146758
 20
212.743338
 30
0.0
 40
6.0
100
AcDbArc
 50
180.0
 51
270.0
  0
CIRCLE
  5
4E6
330
26
100
AcDbEntity
  8
2
100
AcDbCircle
 10
-275.146758
 20
253.743338
 30
0.0
 40
42.5
  0
LINE
  5
4E7
330
26
100
AcDbEntity
  8
2
100
AcDbLine
 10
-305.568954
 20
261.243338
 30
0.0
 11
-284.631711
 21
261.243338
 31
0.0
  0
LINE
  5
4E8
330
26
100
AcDbEntity
  8
2
100
AcDbLine
 10
-305.568954
 20
246.243338
 30
0.0
 11
-284.631711
 21
246.243338
 31
0.0
  0
LINE
  5
4E9
330
26
100
AcDbEntity
  8
2
100
AcDbLine
 10
-265.661806
 20
246.243338
 30
0.0
 11
-244.724562
 21
246.243338
 31
0.0
  0
LINE
  5
4EA
330
26
100
AcDbEntity
  8
2
100
AcDbLine
 10
-273.146758
 20
231.720863
 30
0.0
 11
-273.146758
 21
229.577246
 31
0.0
  0
LINE
  5
4EB
330
26
100
AcDbEntity
  8
2
100
AcDbLine
 10
-277.146758
 20
231.720863
 30
0.0
 11
-277.146758
 21
229.577246
 31
0.0
  0
LINE
  5
4EC
330
26
100
AcDbEntity
  8
2
100
AcDbLine
 10
-273.146758
 20
275.765813
 30
0.0
 11
-273.146758
 21
277.90943
 31
0.0
  0
LINE
  5
4ED
330
26
100
AcDbEntity
  8
2
100
AcDbLine
 10
-277.146758
 20
275.765813
 30
0.0
 11
-277.146758
 21
277.90943
 31
0.0
  0
LINE
  5
4EE
330
26
100
AcDbEntity
  8
2
100
AcDbLine
 10
-265.661806
 20
261.243338
 30
0.0
 11
-244.724562
 21
261.243338
 31
0.0
  0
LINE
  5
4EF
330
26
100
AcDbEntity
  8
2
100
AcDbLine
 10
-344.146758
 20
206.743338
 30
0.0
 11
-196.146758
 21
206.743338
 31
0.0
  0
LINE
  5
4F0
330
26
100
AcDbEntity
  8
2
100
AcDbLine
 10
-191.634066
 20
220.743338
 30
0.0
 11
-191.634066
 21
292.743338
 31
0.0
  0
LINE
  5
4F1
330
26
100
AcDbEntity
  8
2
100
AcDbLine
 10
-343.959264
 20
220.743338
 30
0.0
 11
-343.959264
 21
292.743338
 31
0.0
  0
LINE
  5
4F2
330
26
100
AcDbEntity
  8
2
100
AcDbLine
 10
-348.146758
 20
294.743338
 30
0.0
 11
-342.146758
 21
294.743338
 31
0.0
  0
LINE
  5
4F3
330
26
100
AcDbEntity
  8
2
100
AcDbLine
 10
-196.146758
 20
294.743338
 30
0.0
 11
-192.146758
 21
294.743338
 31
0.0
  0
LINE
  5
4F4
330
26
100
AcDbEntity
  8
2
100
AcDbLine
 10
-336.146758
 20
208.743338
 30
0.0
 11
-336.146758
 21
212.743338
 31
0.0
  0
LINE
  5
4F5
330
26
100
AcDbEntity
  8
2
100
AcDbLine
 10
-336.146758
 20
300.743338
 30
0.0
 11
-336.146758
 21
304.743338
 31
0.0
  0
LINE
  5
4F6
330
26
100
AcDbEntity
  8
2
100
AcDbLine
 10
-348.146758
 20
218.743338
 30
0.0
 11
-342.146758
 21
218.743338
 31
0.0
  0
LINE
  5
4F7
330
26
100
AcDbEntity
  8
2
100
AcDbLine
 10
-196.146758
 20
218.743338
 30
0.0
 11
-192.146758
 21
218.743338
 31
0.0
  0
LINE
  5
4F8
330
26
100
AcDbEntity
  8
2
100
AcDbLine
 10
-202.146758
 20
208.743338
 30
0.0
 11
-202.146758
 21
212.743338
 31
0.0
  0
LINE
  5
4F9
330
26
100
AcDbEntity
  8
2
100
AcDbLine
 10
-202.146758
 20
300.743338
 30
0.0
 11
-202.146758
 21
304.743338
 31
0.0
  0
ARC
  5
4FA
330
26
100
AcDbEntity
  8
2
100
AcDbCircle
 10
-196.146758
 20
300.743338
 30
0.0
 40
6.0
100
AcDbArc
 50
180.0
 51
270.0
  0
ARC
  5
4FB
330
26
100
AcDbEntity
  8
2
100
AcDbCircle
 10
-342.146758
 20
300.743338
 30
0.0
 40
6.0
100
AcDbArc
 50
270.0
 51
360.0
  0
ARC
  5
4FC
330
26
100
AcDbEntity
  8
2
100
AcDbCircle
 10
-342.146758
 20
212.743338
 30
0.0
 40
6.0
100
AcDbArc
 50
0.0
 51
90.0
  0
ARC
  5
4FD
330
26
100
AcDbEntity
  8
2
100
AcDbCircle
 10
-196.146758
 20
212.743338
 30
0.0
 40
6.0
100
AcDbArc
 50
90.0
 51
180.0
  0
LINE
  5
4FE
330
26
100
AcDbEntity
  8
2
100
AcDbLine
 10
-334.146758
 20
305.256338
 30
0.0
 11
-204.146758
 21
305.256338
 31
0.0
  0
LINE
  5
4FF
330
26
100
AcDbEntity
  8
2
100
AcDbLine
 10
-334.146758
 20
208.230338
 30
0.0
 11
-204.146758
 21
208.230338
 31
0.0
  0
CIRCLE
  5
500
330
26
100
AcDbEntity
  8
2
100
AcDbCircle
 10
-275.146758
 20
253.743338
 30
0.0
 40
31.33305
  0
ARC
  5
501
330
26
100
AcDbEntity
  8
2
100
AcDbCircle
 10
-312.571367
 20
254.070187
 30
0.0
 40
45.0
100
AcDbArc
 50
12.236103
 51
30.645688
  0
ARC
  5
502
330
26
100
AcDbEntity
  8
2
100
AcDbCircle
 10
-237.722149
 20
254.070187
 30
0.0
 40
45.0
100
AcDbArc
 50
149.354312
 51
167.763897
  0
ARC
  5
503
330
26
100
AcDbEntity
  8
2
100
AcDbCircle
 10
-275.146758
 20
276.243338
 30
0.0
 40
1.5
100
AcDbArc
 50
30.645688
 51
149.354312
  0
ARC
  5
504
330
26
100
AcDbEntity
  8
2
100
AcDbCircle
 10
-265.661806
 20
264.243338
 30
0.0
 40
3.0
100
AcDbArc
 50
192.236103
 51
270.0
  0
ARC
  5
505
330
26
100
AcDbEntity
  8
2
100
AcDbCircle
 10
-284.631711
 20
264.243338
 30
0.0
 40
3.0
100
AcDbArc
 50
270.0
 51
347.763897
  0
ARC
  5
506
330
26
100
AcDbEntity
  8
2
100
AcDbCircle
 10
-312.571367
 20
253.416489
 30
0.0
 40
45.0
100
AcDbArc
 50
329.354312
 51
347.763897
  0
ARC
  5
507
330
26
100
AcDbEntity
  8
2
100
AcDbCircle
 10
-237.722149
 20
253.416489
 30
0.0
 40
45.0
100
AcDbArc
 50
192.236103
 51
210.645688
  0
ARC
  5
508
330
26
100
AcDbEntity
  8
2
100
AcDbCircle
 10
-275.146758
 20
231.243338
 30
0.0
 40
1.5
100
AcDbArc
 50
210.645688
 51
329.354312
  0
ARC
  5
509
330
26
100
AcDbEntity
  8
2
100
AcDbCircle
 10
-265.661806
 20
243.243338
 30
0.0
 40
3.0
100
AcDbArc
 50
90.0
 51
167.763897
  0
ARC
  5
50A
330
26
100
AcDbEntity
  8
2
100
AcDbCircle
 10
-284.631711
 20
243.243338
 30
0.0
 40
3.0
100
AcDbArc
 50
12.236103
 51
90.0
  0
ARC
  5
50B
330
26
100
AcDbEntity
  8
2
100
AcDbCircle
 10
-275.146758
 20
253.743338
 30
0.0
 40
24.248711
100
AcDbArc
 50
18.016736
 51
161.983264
  0
ARC
  5
50C
330
26
100
AcDbEntity
  8
2
100
AcDbCircle
 10
-275.146758
 20
253.743338
 30
0.0
 40
24.248711
100
AcDbArc
 50
198.016736
 51
341.983264
  0
ARC
  5
50D
330
26
100
AcDbEntity
  8
2
100
AcDbCircle
 10
-192.146758
 20
292.743338
 30
0.0
 40
2.0
100
AcDbArc
 50
0.0
 51
90.0
  0
ARC
  5
50E
330
26
100
AcDbEntity
  8
2
100
AcDbCircle
 10
-204.146758
 20
304.743338
 30
0.0
 40
2.0
100
AcDbArc
 50
0.0
 51
90.0
  0
ARC
  5
50F
330
26
100
AcDbEntity
  8
2
100
AcDbCircle
 10
-192.146758
 20
220.743338
 30
0.0
 40
2.0
100
AcDbArc
 50
270.0
 51
360.0
  0
ARC
  5
510
330
26
100
AcDbEntity
  8
2
100
AcDbCircle
 10
-204.146758
 20
208.743338
 30
0.0
 40
2.0
100
AcDbArc
 50
270.0
 51
360.0
  0
ARC
  5
511
330
26
100
AcDbEntity
  8
2
100
AcDbCircle
 10
-334.146758
 20
208.743338
 30
0.0
 40
2.0
100
AcDbArc
 50
180.0
 51
270.0
  0
ARC
  5
512
330
26
100
AcDbEntity
  8
2
100
AcDbCircle
 10
-348.146758
 20
220.743338
 30
0.0
 40
2.0
100
AcDbArc
 50
180.0
 51
270.0
  0
ARC
  5
513
330
26
100
AcDbEntity
  8
2
100
AcDbCircle
 10
-334.146758
 20
304.743338
 30
0.0
 40
2.0
100
AcDbArc
 50
90.0
 51
180.0
  0
ARC
  5
514
330
26
100
AcDbEntity
  8
2
100
AcDbCircle
 10
-348.146758
 20
292.743338
 30
0.0
 40
2.0
100
AcDbArc
 50
90.0
 51
180.0
  0
LINE
  5
515
330
26
100
AcDbEntity
  8
2
 62
     2
100
AcDbLine
 10
-276.007616
 20
277.976764
 30
0.0
 11
-277.146758
 21
276.837622
 31
0.0
  0
LINE
  5
516
330
26
100
AcDbEntity
  8
2
 62
     2
100
AcDbLine
 10
-277.146758
 20
276.837622
 30
0.0
 11
-277.146758
 21
276.837622
 31
0.0
  0
LINE
  5
517
330
26
100
AcDbEntity
  8
2
 62
     2
100
AcDbLine
 10
-275.143802
 20
277.992049
 30
0.0
 11
-275.417071
 21
277.718781
 31
0.0
  0
LINE
  5
518
330
26
100
AcDbEntity
  8
2
 62
     2
100
AcDbLine
 10
-276.864047
 20
276.271805
 30
0.0
 11
-277.146758
 21
275.989094
 31
0.0
  0
LINE
  5
519
330
26
100
AcDbEntity
  8
2
 62
     2
100
AcDbLine
 10
-277.146758
 20
275.989094
 30
0.0
 11
-277.146758
 21
275.989094
 31
0.0
  0
LINE
  5
51A
330
26
100
AcDbEntity
  8
2
 62
     2
100
AcDbLine
 10
-274.309725
 20
277.977599
 30
0.0
 11
-274.634255
 21
277.653069
 31
0.0
  0
LINE
  5
51B
330
26
100
AcDbEntity
  8
2
 62
     2
100
AcDbLine
 10
-273.502554
 20
277.936242
 30
0.0
 11
-274.110727
 21
277.328068
 31
0.0
  0
LINE
  5
51C
330
26
100
AcDbEntity
  8
2
 62
     2
100
AcDbLine
 10
-273.146758
 20
277.443509
 30
0.0
 11
-273.754669
 21
276.835598
 31
0.0
  0
LINE
  5
51D
330
26
100
AcDbEntity
  8
2
 62
     2
100
AcDbLine
 10
-273.146758
 20
276.594981
 30
0.0
 11
-273.444122
 21
276.297617
 31
0.0
  0
LINE
  5
51E
330
26
100
AcDbEntity
  8
2
 62
     2
100
AcDbLine
 10
-276.9046620000001
 20
277.928246
 30
0.0
 11
-277.146758
 21
277.68615
 31
0.0
  0
LINE
  5
51F
330
26
100
AcDbEntity
  8
2
 62
     2
100
AcDbLine
 10
-277.146758
 20
277.68615
 30
0.0
 11
-277.146758
 21
277.68615
 31
0.0
  0
LINE
  5
520
330
26
100
AcDbEntity
  8
2
 62
     2
100
AcDbLine
 10
-276.761234
 20
231.034579
 30
0.0
 11
-277.146758
 21
230.649055
 31
0.0
  0
LINE
  5
521
330
26
100
AcDbEntity
  8
2
 62
     2
100
AcDbLine
 10
-277.146758
 20
230.649055
 30
0.0
 11
-277.146758
 21
230.649055
 31
0.0
  0
LINE
  5
522
330
26
100
AcDbEntity
  8
2
 62
     2
100
AcDbLine
 10
-276.448894
 20
230.498391
 30
0.0
 11
-277.146758
 21
229.800527
 31
0.0
  0
LINE
  5
523
330
26
100
AcDbEntity
  8
2
 62
     2
100
AcDbLine
 10
-277.146758
 20
229.800527
 30
0.0
 11
-277.146758
 21
229.800527
 31
0.0
  0
LINE
  5
524
330
26
100
AcDbEntity
  8
2
 62
     2
100
AcDbLine
 10
-276.562751
 20
229.536005
 30
0.0
 11
-276.051698
 21
230.047059
 31
0.0
  0
LINE
  5
525
330
26
100
AcDbEntity
  8
2
 62
     2
100
AcDbLine
 10
-275.748143
 20
229.502085
 30
0.0
 11
-275.47135
 21
229.778879
 31
0.0
  0
LINE
  5
526
330
26
100
AcDbEntity
  8
2
 62
     2
100
AcDbLine
 10
-273.146758
 20
231.254942
 30
0.0
 11
-273.760413
 21
230.641287
 31
0.0
  0
LINE
  5
527
330
26
100
AcDbEntity
  8
2
 62
     2
100
AcDbLine
 10
-274.522114
 20
229.879586
 30
0.0
 11
-274.905877
 21
229.495823
 31
0.0
  0
LINE
  5
528
330
26
100
AcDbEntity
  8
2
 62
     2
100
AcDbLine
 10
-274.032952
 20
229.52022
 30
0.0
 11
-273.146758
 21
230.406414
 31
0.0
  0
LINE
  5
529
330
26
100
AcDbEntity
  8
2
 62
     2
100
AcDbLine
 10
-277.06728
 20
231.577061
 30
0.0
 11
-277.146758
 21
231.497583
 31
0.0
  0
LINE
  5
52A
330
26
100
AcDbEntity
  8
2
 62
     2
100
AcDbLine
 10
-277.146758
 20
231.497583
 30
0.0
 11
-277.146758
 21
231.497583
 31
0.0
  0
LINE
  5
52B
330
26
100
AcDbEntity
  8
2
100
AcDbLine
 10
-283.962426
 20
231.153871
 30
0.0
 11
-281.963557
 21
235.979568
 31
0.0
  0
LINE
  5
52C
330
26
100
AcDbEntity
  8
2
100
AcDbLine
 10
-267.40608
 20
271.124425
 30
0.0
 11
-265.4072109999999
 21
275.950122
 31
0.0
  0
LINE
  5
52D
330
26
100
AcDbEntity
  8
2
100
AcDbLine
 10
-284.886305
 20
231.536555
 30
0.0
 11
-282.887436
 21
236.362252
 31
0.0
  0
LINE
  5
52E
330
26
100
AcDbEntity
  8
2
100
AcDbLine
 10
-268.32996
 20
271.507108
 30
0.0
 11
-266.331091
 21
276.332805
 31
0.0
  0
LINE
  5
52F
330
26
100
AcDbEntity
  8
2
100
AcDbLine
 10
-291.935988
 20
236.247002
 30
0.0
 11
-288.242559
 21
239.940431
 31
0.0
  0
LINE
  5
530
330
26
100
AcDbEntity
  8
2
100
AcDbLine
 10
-261.343851
 20
266.839139
 30
0.0
 11
-257.650422
 21
270.532568
 31
0.0
  0
LINE
  5
531
330
26
100
AcDbEntity
  8
2
100
AcDbLine
 10
-292.643094
 20
236.954109
 30
0.0
 11
-288.949666
 21
240.647537
 31
0.0
  0
LINE
  5
532
330
26
100
AcDbEntity
  8
2
100
AcDbLine
 10
-262.050957
 20
267.546246
 30
0.0
 11
-258.357529
 21
271.239674
 31
0.0
  0
LINE
  5
533
330
26
100
AcDbEntity
  8
2
100
AcDbLine
 10
-297.353542
 20
244.003791
 30
0.0
 11
-292.527845
 21
246.00266
 31
0.0
  0
LINE
  5
534
330
26
100
AcDbEntity
  8
2
100
AcDbLine
 10
-255.733594
 20
261.243338
 30
0.0
 11
-252.557292
 21
262.559006
 31
0.0
  0
LINE
  5
535
330
26
100
AcDbEntity
  8
2
100
AcDbLine
 10
-297.736225
 20
244.927671
 30
0.0
 11
-294.559923
 21
246.243338
 31
0.0
  0
LINE
  5
536
330
26
100
AcDbEntity
  8
2
100
AcDbLine
 10
-257.765672
 20
261.484016
 30
0.0
 11
-252.939975
 21
263.482885
 31
0.0
  0
ARC
  5
537
330
26
100
AcDbEntity
  8
2
100
AcDbCircle
 10
-282.425496
 20
236.17091
 30
0.0
 40
0.5
100
AcDbArc
 50
337.5
 51
157.5
  0
ARC
  5
538
330
26
100
AcDbEntity
  8
2
100
AcDbCircle
 10
-288.596113
 20
240.293984
 30
0.0
 40
0.5
100
AcDbArc
 50
315.0
 51
135.0
  0
ARC
  5
539
330
26
100
AcDbEntity
  8
2
100
AcDbCircle
 10
-292.719186
 20
246.4646
 30
0.0
 40
0.5
100
AcDbArc
 50
292.5
 51
333.734975
  0
ARC
  5
53A
330
26
100
AcDbEntity
  8
2
100
AcDbCircle
 10
-267.86802
 20
271.315766
 30
0.0
 40
0.5
100
AcDbArc
 50
157.5
 51
337.5
  0
ARC
  5
53B
330
26
100
AcDbEntity
  8
2
100
AcDbCircle
 10
-261.697404
 20
267.192692
 30
0.0
 40
0.5
100
AcDbArc
 50
135.0
 51
315.0
  0
ARC
  5
53C
330
26
100
AcDbEntity
  8
2
100
AcDbCircle
 10
-257.57433
 20
261.022076
 30
0.0
 40
0.5
100
AcDbArc
 50
112.5
 51
153.734975
  0
LINE
  5
53D
330
26
100
AcDbEntity
  8
2
 62
     2
100
AcDbLine
 10
-267.280144
 20
274.041588
 30
0.0
 11
-266.406646
 21
273.537273
 31
0.0
  0
LINE
  5
53E
330
26
100
AcDbEntity
  8
2
 62
     2
100
AcDbLine
 10
-266.406646
 20
273.537273
 30
0.0
 11
-266.406646
 21
273.537273
 31
0.0
  0
LINE
  5
53F
330
26
100
AcDbEntity
  8
2
 62
     2
100
AcDbLine
 10
-267.048553
 20
274.600699
 30
0.0
 11
-266.175055
 21
274.096384
 31
0.0
  0
LINE
  5
540
330
26
100
AcDbEntity
  8
2
 62
     2
100
AcDbLine
 10
-266.175055
 20
274.096384
 30
0.0
 11
-266.175055
 21
274.096384
 31
0.0
  0
LINE
  5
541
330
26
100
AcDbEntity
  8
2
 62
     2
100
AcDbLine
 10
-266.816961
 20
275.15981
 30
0.0
 11
-265.943463
 21
274.655495
 31
0.0
  0
LINE
  5
542
330
26
100
AcDbEntity
  8
2
 62
     2
100
AcDbLine
 10
-265.943463
 20
274.655495
 30
0.0
 11
-265.943463
 21
274.655495
 31
0.0
  0
LINE
  5
543
330
26
100
AcDbEntity
  8
2
 62
     2
100
AcDbLine
 10
-266.58537
 20
275.718921
 30
0.0
 11
-265.711872
 21
275.214606
 31
0.0
  0
LINE
  5
544
330
26
100
AcDbEntity
  8
2
 62
     2
100
AcDbLine
 10
-265.711872
 20
275.214606
 30
0.0
 11
-265.711872
 21
275.214606
 31
0.0
  0
LINE
  5
545
330
26
100
AcDbEntity
  8
2
 62
     2
100
AcDbLine
 10
-266.353779
 20
276.278032
 30
0.0
 11
-265.48028
 21
275.773717
 31
0.0
  0
LINE
  5
546
330
26
100
AcDbEntity
  8
2
 62
     2
100
AcDbLine
 10
-265.48028
 20
275.773717
 30
0.0
 11
-265.48028
 21
275.773717
 31
0.0
  0
LINE
  5
547
330
26
100
AcDbEntity
  8
2
 62
     2
100
AcDbLine
 10
-267.511736
 20
273.482477
 30
0.0
 11
-266.638237
 21
272.978162
 31
0.0
  0
LINE
  5
548
330
26
100
AcDbEntity
  8
2
 62
     2
100
AcDbLine
 10
-266.638237
 20
272.978162
 30
0.0
 11
-266.638237
 21
272.978162
 31
0.0
  0
LINE
  5
549
330
26
100
AcDbEntity
  8
2
 62
     2
100
AcDbLine
 10
-267.743327
 20
272.923366
 30
0.0
 11
-266.869829
 21
272.419051
 31
0.0
  0
LINE
  5
54A
330
26
100
AcDbEntity
  8
2
 62
     2
100
AcDbLine
 10
-266.869829
 20
272.419051
 30
0.0
 11
-266.869829
 21
272.419051
 31
0.0
  0
LINE
  5
54B
330
26
100
AcDbEntity
  8
2
 62
     2
100
AcDbLine
 10
-267.974918
 20
272.364255
 30
0.0
 11
-267.10142
 21
271.85994
 31
0.0
  0
LINE
  5
54C
330
26
100
AcDbEntity
  8
2
 62
     2
100
AcDbLine
 10
-267.10142
 20
271.85994
 30
0.0
 11
-267.10142
 21
271.85994
 31
0.0
  0
LINE
  5
54D
330
26
100
AcDbEntity
  8
2
 62
     2
100
AcDbLine
 10
-268.20651
 20
271.805144
 30
0.0
 11
-267.333011
 21
271.300829
 31
0.0
  0
LINE
  5
54E
330
26
100
AcDbEntity
  8
2
 62
     2
100
AcDbLine
 10
-267.333011
 20
271.300829
 30
0.0
 11
-267.333011
 21
271.300829
 31
0.0
  0
LINE
  5
54F
330
26
100
AcDbEntity
  8
2
 62
     2
100
AcDbLine
 10
-268.353798
 20
271.19736
 30
0.0
 11
-267.727674
 21
270.835867
 31
0.0
  0
LINE
  5
550
330
26
100
AcDbEntity
  8
2
 62
     2
100
AcDbLine
 10
-260.393712
 20
269.203491
 30
0.0
 11
-259.497136
 21
268.6858529999999
 31
0.0
  0
LINE
  5
551
330
26
100
AcDbEntity
  8
2
 62
     2
100
AcDbLine
 10
-259.497136
 20
268.6858529999999
 30
0.0
 11
-259.497136
 21
268.6858529999999
 31
0.0
  0
LINE
  5
552
330
26
100
AcDbEntity
  8
2
 62
     2
100
AcDbLine
 10
-259.954481
 20
269.642722
 30
0.0
 11
-259.057906
 21
269.1250839999999
 31
0.0
  0
LINE
  5
553
330
26
100
AcDbEntity
  8
2
 62
     2
100
AcDbLine
 10
-259.057906
 20
269.1250839999999
 30
0.0
 11
-259.057906
 21
269.1250839999999
 31
0.0
  0
LINE
  5
554
330
26
100
AcDbEntity
  8
2
 62
     2
100
AcDbLine
 10
-259.515251
 20
270.081952
 30
0.0
 11
-258.618675
 21
269.564314
 31
0.0
  0
LINE
  5
555
330
26
100
AcDbEntity
  8
2
 62
     2
100
AcDbLine
 10
-258.618675
 20
269.564314
 30
0.0
 11
-258.618675
 21
269.564314
 31
0.0
  0
LINE
  5
556
330
26
100
AcDbEntity
  8
2
 62
     2
100
AcDbLine
 10
-259.07602
 20
270.521183
 30
0.0
 11
-258.179445
 21
270.0035450000001
 31
0.0
  0
LINE
  5
557
330
26
100
AcDbEntity
  8
2
 62
     2
100
AcDbLine
 10
-258.179445
 20
270.0035450000001
 30
0.0
 11
-258.179445
 21
270.0035450000001
 31
0.0
  0
LINE
  5
558
330
26
100
AcDbEntity
  8
2
 62
     2
100
AcDbLine
 10
-258.63679
 20
270.960413
 30
0.0
 11
-257.740214
 21
270.442775
 31
0.0
  0
LINE
  5
559
330
26
100
AcDbEntity
  8
2
 62
     2
100
AcDbLine
 10
-257.740214
 20
270.442775
 30
0.0
 11
-257.740214
 21
270.442775
 31
0.0
  0
LINE
  5
55A
330
26
100
AcDbEntity
  8
2
 62
     2
100
AcDbLine
 10
-260.832942
 20
268.764261
 30
0.0
 11
-259.936367
 21
268.246623
 31
0.0
  0
LINE
  5
55B
330
26
100
AcDbEntity
  8
2
 62
     2
100
AcDbLine
 10
-259.936367
 20
268.246623
 30
0.0
 11
-259.936367
 21
268.246623
 31
0.0
  0
LINE
  5
55C
330
26
100
AcDbEntity
  8
2
 62
     2
100
AcDbLine
 10
-261.272173
 20
268.32503
 30
0.0
 11
-260.375597
 21
267.807392
 31
0.0
  0
LINE
  5
55D
330
26
100
AcDbEntity
  8
2
 62
     2
100
AcDbLine
 10
-260.375597
 20
267.807392
 30
0.0
 11
-260.375597
 21
267.807392
 31
0.0
  0
LINE
  5
55E
330
26
100
AcDbEntity
  8
2
 62
     2
100
AcDbLine
 10
-261.711403
 20
267.8858
 30
0.0
 11
-260.814828
 21
267.368162
 31
0.0
  0
LINE
  5
55F
330
26
100
AcDbEntity
  8
2
 62
     2
100
AcDbLine
 10
-260.814828
 20
267.368162
 30
0.0
 11
-260.814828
 21
267.368162
 31
0.0
  0
LINE
  5
560
330
26
100
AcDbEntity
  8
2
 62
     2
100
AcDbLine
 10
-262.1337529999999
 20
267.436823
 30
0.0
 11
-261.254058
 21
266.928931
 31
0.0
  0
LINE
  5
561
330
26
100
AcDbEntity
  8
2
 62
     2
100
AcDbLine
 10
-261.254058
 20
266.928931
 30
0.0
 11
-261.254058
 21
266.928931
 31
0.0
  0
LINE
  5
562
330
26
100
AcDbEntity
  8
2
 62
     2
100
AcDbLine
 10
-255.237044
 20
262.531408
 30
0.0
 11
-254.145443
 21
261.901172
 31
0.0
  0
LINE
  5
563
330
26
100
AcDbEntity
  8
2
 62
     2
100
AcDbLine
 10
-254.145443
 20
261.901172
 30
0.0
 11
-254.145443
 21
261.901172
 31
0.0
  0
LINE
  5
564
330
26
100
AcDbEntity
  8
2
 62
     2
100
AcDbLine
 10
-254.538329
 20
262.820825
 30
0.0
 11
-253.446728
 21
262.190589
 31
0.0
  0
LINE
  5
565
330
26
100
AcDbEntity
  8
2
 62
     2
100
AcDbLine
 10
-253.446728
 20
262.190589
 30
0.0
 11
-253.446728
 21
262.190589
 31
0.0
  0
LINE
  5
566
330
26
100
AcDbEntity
  8
2
 62
     2
100
AcDbLine
 10
-253.839614
 20
263.110242
 30
0.0
 11
-252.748013
 21
262.480006
 31
0.0
  0
LINE
  5
567
330
26
100
AcDbEntity
  8
2
 62
     2
100
AcDbLine
 10
-252.748013
 20
262.480006
 30
0.0
 11
-252.748013
 21
262.480006
 31
0.0
  0
LINE
  5
568
330
26
100
AcDbEntity
  8
2
 62
     2
100
AcDbLine
 10
-252.825486
 20
263.217555
 30
0.0
 11
-253.140899
 21
263.39966
 31
0.0
  0
LINE
  5
569
330
26
100
AcDbEntity
  8
2
 62
     2
100
AcDbLine
 10
-255.935758
 20
262.241991
 30
0.0
 11
-254.844157
 21
261.611755
 31
0.0
  0
LINE
  5
56A
330
26
100
AcDbEntity
  8
2
 62
     2
100
AcDbLine
 10
-254.844157
 20
261.611755
 30
0.0
 11
-254.844157
 21
261.611755
 31
0.0
  0
LINE
  5
56B
330
26
100
AcDbEntity
  8
2
 62
     2
100
AcDbLine
 10
-256.634473
 20
261.952574
 30
0.0
 11
-255.542872
 21
261.322338
 31
0.0
  0
LINE
  5
56C
330
26
100
AcDbEntity
  8
2
 62
     2
100
AcDbLine
 10
-255.542872
 20
261.322338
 30
0.0
 11
-255.542872
 21
261.322338
 31
0.0
  0
LINE
  5
56D
330
26
100
AcDbEntity
  8
2
 62
     2
100
AcDbLine
 10
-257.333188
 20
261.663157
 30
0.0
 11
-256.606041
 21
261.243338
 31
0.0
  0
LINE
  5
56E
330
26
100
AcDbEntity
  8
2
 62
     2
100
AcDbLine
 10
-257.964461
 20
261.334802
 30
0.0
 11
-257.806041
 21
261.243338
 31
0.0
  0
LINE
  5
56F
330
26
100
AcDbEntity
  8
2
100
AcDbLine
 10
-258.345394
 20
244.889644
 30
0.0
 11
-256.323348
 21
244.052085
 31
0.0
  0
ARC
  5
570
330
26
100
AcDbEntity
  8
2
100
AcDbCircle
 10
-257.675643
 20
246.506565
 30
0.0
 40
1.750143
100
AcDbArc
 50
188.650293
 51
247.5
  0
ARC
  5
571
330
26
100
AcDbEntity
  8
2
100
AcDbCircle
 10
-255.653598
 20
245.669007
 30
0.0
 40
1.750143
100
AcDbArc
 50
247.5
 51
19.157293
  0
LINE
  5
572
330
26
100
AcDbEntity
  8
2
100
AcDbLine
 10
-258.193434
 20
245.184217
 30
0.0
 11
-256.15708
 21
244.382075
 31
0.0
  0
ARC
  5
573
330
26
100
AcDbEntity
  8
2
100
AcDbCircle
 10
-257.552005
 20
246.812581
 30
0.0
 40
1.750143
100
AcDbArc
 50
198.98101
 51
248.5
  0
ARC
  5
574
330
26
100
AcDbEntity
  8
2
100
AcDbCircle
 10
-255.51565
 20
246.010439
 30
0.0
 40
1.750143
100
AcDbArc
 50
248.5
 51
7.647285999999998
  0
LINE
  5
575
330
26
100
AcDbEntity
  8
2
100
AcDbLine
 10
-258.502471
 20
244.597768
 30
0.0
 11
-256.495351
 21
243.725048
 31
0.0
  0
ARC
  5
576
330
26
100
AcDbEntity
  8
2
100
AcDbCircle
 10
-257.804603
 20
246.202755
 30
0.0
 40
1.750143
100
AcDbArc
 50
178.671261
 51
246.5
  0
ARC
  5
577
330
26
100
AcDbEntity
  8
2
100
AcDbCircle
 10
-255.797483
 20
245.330034
 30
0.0
 40
1.750143
100
AcDbArc
 50
246.5
 51
31.45613
  0
LINE
  5
578
330
26
100
AcDbEntity
  8
2
100
AcDbLine
 10
-291.948123
 20
262.5970319999999
 30
0.0
 11
-293.970168
 21
263.434591
 31
0.0
  0
ARC
  5
579
330
26
100
AcDbEntity
  8
2
100
AcDbCircle
 10
-292.617874
 20
260.980111
 30
0.0
 40
1.750143
100
AcDbArc
 50
8.650292999999999
 51
67.5
  0
ARC
  5
57A
330
26
100
AcDbEntity
  8
2
100
AcDbCircle
 10
-294.639919
 20
261.81767
 30
0.0
 40
1.750143
100
AcDbArc
 50
67.5
 51
199.157293
  0
LINE
  5
57B
330
26
100
AcDbEntity
  8
2
100
AcDbLine
 10
-292.100082
 20
262.30246
 30
0.0
 11
-294.136437
 21
263.104601
 31
0.0
  0
ARC
  5
57C
330
26
100
AcDbEntity
  8
2
100
AcDbCircle
 10
-292.741512
 20
260.674096
 30
0.0
 40
1.750143
100
AcDbArc
 50
18.98101
 51
68.5
  0
ARC
  5
57D
330
26
100
AcDbEntity
  8
2
100
AcDbCircle
 10
-294.777867
 20
261.476237
 30
0.0
 40
1.750143
100
AcDbArc
 50
68.5
 51
187.647286
  0
LINE
  5
57E
330
26
100
AcDbEntity
  8
2
100
AcDbLine
 10
-291.791046
 20
262.888908
 30
0.0
 11
-293.7981660000001
 21
263.761629
 31
0.0
  0
ARC
  5
57F
330
26
100
AcDbEntity
  8
2
100
AcDbCircle
 10
-292.488914
 20
261.283922
 30
0.0
 40
1.750143
100
AcDbArc
 50
358.671261
 51
66.5
  0
ARC
  5
580
330
26
100
AcDbEntity
  8
2
100
AcDbCircle
 10
-294.496034
 20
262.1566430000001
 30
0.0
 40
1.750143
100
AcDbArc
 50
66.5
 51
211.45613
  0
LINE
  5
581
330
26
100
AcDbEntity
  8
2
 62
     2
100
AcDbLine
 10
-283.836489
 20
234.071034
 30
0.0
 11
-282.962991
 21
233.56672
 31
0.0
  0
LINE
  5
582
330
26
100
AcDbEntity
  8
2
 62
     2
100
AcDbLine
 10
-282.962991
 20
233.56672
 30
0.0
 11
-282.962991
 21
233.56672
 31
0.0
  0
LINE
  5
583
330
26
100
AcDbEntity
  8
2
 62
     2
100
AcDbLine
 10
-283.604898
 20
234.630145
 30
0.0
 11
-282.7314
 21
234.125831
 31
0.0
  0
LINE
  5
584
330
26
100
AcDbEntity
  8
2
 62
     2
100
AcDbLine
 10
-282.7314
 20
234.125831
 30
0.0
 11
-282.7314
 21
234.125831
 31
0.0
  0
LINE
  5
585
330
26
100
AcDbEntity
  8
2
 62
     2
100
AcDbLine
 10
-283.373307
 20
235.189256
 30
0.0
 11
-282.499808
 21
234.684942
 31
0.0
  0
LINE
  5
586
330
26
100
AcDbEntity
  8
2
 62
     2
100
AcDbLine
 10
-282.499808
 20
234.684942
 30
0.0
 11
-282.499808
 21
234.684942
 31
0.0
  0
LINE
  5
587
330
26
100
AcDbEntity
  8
2
 62
     2
100
AcDbLine
 10
-283.141715
 20
235.748367
 30
0.0
 11
-282.268217
 21
235.244053
 31
0.0
  0
LINE
  5
588
330
26
100
AcDbEntity
  8
2
 62
     2
100
AcDbLine
 10
-282.268217
 20
235.244053
 30
0.0
 11
-282.268217
 21
235.244053
 31
0.0
  0
LINE
  5
589
330
26
100
AcDbEntity
  8
2
 62
     2
100
AcDbLine
 10
-282.910124
 20
236.307478
 30
0.0
 11
-282.036626
 21
235.803164
 31
0.0
  0
LINE
  5
58A
330
26
100
AcDbEntity
  8
2
 62
     2
100
AcDbLine
 10
-282.036626
 20
235.803164
 30
0.0
 11
-282.036626
 21
235.803164
 31
0.0
  0
LINE
  5
58B
330
26
100
AcDbEntity
  8
2
 62
     2
100
AcDbLine
 10
-282.320175
 20
236.659692
 30
0.0
 11
-282.0548589999999
 21
236.506511
 31
0.0
  0
LINE
  5
58C
330
26
100
AcDbEntity
  8
2
 62
     2
100
AcDbLine
 10
-284.068081
 20
233.511923
 30
0.0
 11
-283.1945819999999
 21
233.007609
 31
0.0
  0
LINE
  5
58D
330
26
100
AcDbEntity
  8
2
 62
     2
100
AcDbLine
 10
-283.1945819999999
 20
233.007609
 30
0.0
 11
-283.1945819999999
 21
233.007609
 31
0.0
  0
LINE
  5
58E
330
26
100
AcDbEntity
  8
2
 62
     2
100
AcDbLine
 10
-284.299672
 20
232.952812
 30
0.0
 11
-283.426174
 21
232.448498
 31
0.0
  0
LINE
  5
58F
330
26
100
AcDbEntity
  8
2
 62
     2
100
AcDbLine
 10
-283.426174
 20
232.448498
 30
0.0
 11
-283.426174
 21
232.448498
 31
0.0
  0
LINE
  5
590
330
26
100
AcDbEntity
  8
2
 62
     2
100
AcDbLine
 10
-284.531263
 20
232.393701
 30
0.0
 11
-283.657765
 21
231.889387
 31
0.0
  0
LINE
  5
591
330
26
100
AcDbEntity
  8
2
 62
     2
100
AcDbLine
 10
-283.657765
 20
231.889387
 30
0.0
 11
-283.657765
 21
231.889387
 31
0.0
  0
LINE
  5
592
330
26
100
AcDbEntity
  8
2
 62
     2
100
AcDbLine
 10
-284.762855
 20
231.83459
 30
0.0
 11
-283.889357
 21
231.330276
 31
0.0
  0
LINE
  5
593
330
26
100
AcDbEntity
  8
2
 62
     2
100
AcDbLine
 10
-283.889357
 20
231.330276
 30
0.0
 11
-283.889357
 21
231.330276
 31
0.0
  0
LINE
  5
594
330
26
100
AcDbEntity
  8
2
 62
     2
100
AcDbLine
 10
-290.985849
 20
238.611354
 30
0.0
 11
-290.089273
 21
238.093716
 31
0.0
  0
LINE
  5
595
330
26
100
AcDbEntity
  8
2
 62
     2
100
AcDbLine
 10
-290.089273
 20
238.093716
 30
0.0
 11
-290.089273
 21
238.093716
 31
0.0
  0
LINE
  5
596
330
26
100
AcDbEntity
  8
2
 62
     2
100
AcDbLine
 10
-290.546618
 20
239.050585
 30
0.0
 11
-289.6500430000001
 21
238.532947
 31
0.0
  0
LINE
  5
597
330
26
100
AcDbEntity
  8
2
 62
     2
100
AcDbLine
 10
-289.6500430000001
 20
238.532947
 30
0.0
 11
-289.6500430000001
 21
238.532947
 31
0.0
  0
LINE
  5
598
330
26
100
AcDbEntity
  8
2
 62
     2
100
AcDbLine
 10
-290.107388
 20
239.489815
 30
0.0
 11
-289.2108120000001
 21
238.972177
 31
0.0
  0
LINE
  5
599
330
26
100
AcDbEntity
  8
2
 62
     2
100
AcDbLine
 10
-289.2108120000001
 20
238.972177
 30
0.0
 11
-289.2108120000001
 21
238.972177
 31
0.0
  0
LINE
  5
59A
330
26
100
AcDbEntity
  8
2
 62
     2
100
AcDbLine
 10
-289.668157
 20
239.929046
 30
0.0
 11
-288.771582
 21
239.411408
 31
0.0
  0
LINE
  5
59B
330
26
100
AcDbEntity
  8
2
 62
     2
100
AcDbLine
 10
-288.771582
 20
239.411408
 30
0.0
 11
-288.771582
 21
239.411408
 31
0.0
  0
LINE
  5
59C
330
26
100
AcDbEntity
  8
2
 62
     2
100
AcDbLine
 10
-289.228927
 20
240.368276
 30
0.0
 11
-288.332351
 21
239.850638
 31
0.0
  0
LINE
  5
59D
330
26
100
AcDbEntity
  8
2
 62
     2
100
AcDbLine
 10
-288.332351
 20
239.850638
 30
0.0
 11
-288.332351
 21
239.850638
 31
0.0
  0
LINE
  5
59E
330
26
100
AcDbEntity
  8
2
 62
     2
100
AcDbLine
 10
-288.733125
 20
240.774845
 30
0.0
 11
-288.111168
 21
240.415758
 31
0.0
  0
LINE
  5
59F
330
26
100
AcDbEntity
  8
2
 62
     2
100
AcDbLine
 10
-291.425079
 20
238.172124
 30
0.0
 11
-290.528504
 21
237.654486
 31
0.0
  0
LINE
  5
5A0
330
26
100
AcDbEntity
  8
2
 62
     2
100
AcDbLine
 10
-290.528504
 20
237.654486
 30
0.0
 11
-290.528504
 21
237.654486
 31
0.0
  0
LINE
  5
5A1
330
26
100
AcDbEntity
  8
2
 62
     2
100
AcDbLine
 10
-291.86431
 20
237.732893
 30
0.0
 11
-290.967734
 21
237.215255
 31
0.0
  0
LINE
  5
5A2
330
26
100
AcDbEntity
  8
2
 62
     2
100
AcDbLine
 10
-290.967734
 20
237.215255
 30
0.0
 11
-290.967734
 21
237.215255
 31
0.0
  0
LINE
  5
5A3
330
26
100
AcDbEntity
  8
2
 62
     2
100
AcDbLine
 10
-292.30354
 20
237.293663
 30
0.0
 11
-291.406965
 21
236.776025
 31
0.0
  0
LINE
  5
5A4
330
26
100
AcDbEntity
  8
2
 62
     2
100
AcDbLine
 10
-291.406965
 20
236.776025
 30
0.0
 11
-291.406965
 21
236.776025
 31
0.0
  0
LINE
  5
5A5
330
26
100
AcDbEntity
  8
2
 62
     2
100
AcDbLine
 10
-292.288344
 20
236.592069
 30
0.0
 11
-291.846195
 21
236.336794
 31
0.0
  0
LINE
  5
5A6
330
26
100
AcDbEntity
  8
2
 62
     2
100
AcDbLine
 10
-291.846195
 20
236.336794
 30
0.0
 11
-291.846195
 21
236.336794
 31
0.0
  0
LINE
  5
5A7
330
26
100
AcDbEntity
  8
2
 62
     2
100
AcDbLine
 10
-296.032294
 20
245.633462
 30
0.0
 11
-294.940693
 21
245.003226
 31
0.0
  0
LINE
  5
5A8
330
26
100
AcDbEntity
  8
2
 62
     2
100
AcDbLine
 10
-294.940693
 20
245.003226
 30
0.0
 11
-294.940693
 21
245.003226
 31
0.0
  0
LINE
  5
5A9
330
26
100
AcDbEntity
  8
2
 62
     2
100
AcDbLine
 10
-295.333579
 20
245.922879
 30
0.0
 11
-294.241978
 21
245.292643
 31
0.0
  0
LINE
  5
5AA
330
26
100
AcDbEntity
  8
2
 62
     2
100
AcDbLine
 10
-294.241978
 20
245.292643
 30
0.0
 11
-294.241978
 21
245.292643
 31
0.0
  0
LINE
  5
5AB
330
26
100
AcDbEntity
  8
2
 62
     2
100
AcDbLine
 10
-294.634865
 20
246.212296
 30
0.0
 11
-293.543264
 21
245.58206
 31
0.0
  0
LINE
  5
5AC
330
26
100
AcDbEntity
  8
2
 62
     2
100
AcDbLine
 10
-293.543264
 20
245.58206
 30
0.0
 11
-293.543264
 21
245.58206
 31
0.0
  0
LINE
  5
5AD
330
26
100
AcDbEntity
  8
2
 62
     2
100
AcDbLine
 10
-293.488631
 20
246.243338
 30
0.0
 11
-292.8445490000001
 21
245.871477
 31
0.0
  0
LINE
  5
5AE
330
26
100
AcDbEntity
  8
2
 62
     2
100
AcDbLine
 10
-292.8445490000001
 20
245.871477
 30
0.0
 11
-292.8445490000001
 21
245.871477
 31
0.0
  0
LINE
  5
5AF
330
26
100
AcDbEntity
  8
2
 62
     2
100
AcDbLine
 10
-292.288631
 20
246.243338
 30
0.0
 11
-292.274829
 21
246.23537
 31
0.0
  0
LINE
  5
5B0
330
26
100
AcDbEntity
  8
2
 62
     2
100
AcDbLine
 10
-296.731009
 20
245.344045
 30
0.0
 11
-295.639408
 21
244.713809
 31
0.0
  0
LINE
  5
5B1
330
26
100
AcDbEntity
  8
2
 62
     2
100
AcDbLine
 10
-295.639408
 20
244.713809
 30
0.0
 11
-295.639408
 21
244.713809
 31
0.0
  0
LINE
  5
5B2
330
26
100
AcDbEntity
  8
2
 62
     2
100
AcDbLine
 10
-297.429724
 20
245.054628
 30
0.0
 11
-296.338123
 21
244.424392
 31
0.0
  0
LINE
  5
5B3
330
26
100
AcDbEntity
  8
2
 62
     2
100
AcDbLine
 10
-296.338123
 20
244.424392
 30
0.0
 11
-296.338123
 21
244.424392
 31
0.0
  0
LINE
  5
5B4
330
26
100
AcDbEntity
  8
2
 62
     2
100
AcDbLine
 10
-297.531773
 20
244.420726
 30
0.0
 11
-297.036838
 21
244.134974
 31
0.0
  0
LINE
  5
5B5
330
26
100
AcDbEntity
  8
2
 62
     2
100
AcDbLine
 10
-297.036838
 20
244.134974
 30
0.0
 11
-297.036838
 21
244.134974
 31
0.0
  0
LINE
  5
5B6
330
26
100
AcDbEntity
  8
2
  6
CENTER
 62
     2
100
AcDbLine
 10
-349.620411
 20
300.743338
 30
0.0
 11
-332.970864
 21
300.743338
 31
0.0
  0
LINE
  5
5B7
330
26
100
AcDbEntity
  8
2
  6
CENTER
 62
     2
100
AcDbLine
 10
-342.146758
 20
205.649234
 30
0.0
 11
-342.146758
 21
220.666385
 31
0.0
  0
LINE
  5
5B8
330
26
100
AcDbEntity
  8
2
  6
CENTER
 62
     2
100
AcDbLine
 10
-342.146758
 20
293.3037589999999
 30
0.0
 11
-342.146758
 21
308.647357
 31
0.0
  0
LINE
  5
5B9
330
26
100
AcDbEntity
  8
2
  6
CENTER
 62
     2
100
AcDbLine
 10
-348.804234
 20
212.743338
 30
0.0
 11
-334.929627
 21
212.743338
 31
0.0
  0
LINE
  5
5BA
330
26
100
AcDbEntity
  8
2
  6
CENTER
 62
     2
100
AcDbLine
 10
-205.495236
 20
212.743338
 30
0.0
 11
-187.302487
 21
212.743338
 31
0.0
  0
LINE
  5
5BB
330
26
100
AcDbEntity
  8
2
  6
CENTER
 62
     2
100
AcDbLine
 10
-196.146758
 20
203.975177
 30
0.0
 11
-196.146758
 21
221.440234
 31
0.0
  0
ARC
  5
5BC
330
26
100
AcDbEntity
  8
2
  6
CENTER
 62
     2
100
AcDbCircle
 10
-275.146758
 20
253.743338
 30
0.0
 40
37.5
100
AcDbArc
 50
126.361503
 51
143.885033
  0
ARC
  5
5BD
330
26
100
AcDbEntity
  8
2
  6
CENTER
 62
     2
100
AcDbCircle
 10
-275.146758
 20
253.743338
 30
0.0
 40
37.5
100
AcDbArc
 50
216.93331
 51
233.416879
  0
ARC
  5
5BE
330
26
100
AcDbEntity
  8
2
  6
CENTER
 62
     2
100
AcDbCircle
 10
-275.146758
 20
253.743338
 30
0.0
 40
37.5
100
AcDbArc
 50
306.278748
 51
323.822644
  0
ARC
  5
5BF
330
26
100
AcDbEntity
  8
2
  6
CENTER
 62
     2
100
AcDbCircle
 10
-275.146758
 20
253.743338
 30
0.0
 40
37.5
100
AcDbArc
 50
36.280641
 51
53.73721899999999
  0
LINE
  5
5C0
330
26
100
AcDbEntity
  8
2
  6
CENTER
 62
     2
100
AcDbLine
 10
-305.986045
 20
222.904052
 30
0.0
 11
-297.935445
 21
230.954652
 31
0.0
  0
LINE
  5
5C1
330
26
100
AcDbEntity
  8
2
  6
CENTER
 62
     2
100
AcDbLine
 10
-252.755905
 20
276.134192
 30
0.0
 11
-244.209531
 21
284.680565
 31
0.0
  0
LINE
  5
5C2
330
26
100
AcDbEntity
  8
2
  6
CENTER
 62
     2
100
AcDbLine
 10
-306.040378
 20
284.636957
 30
0.0
 11
-297.689385
 21
276.285965
 31
0.0
  0
LINE
  5
5C3
330
26
100
AcDbEntity
  8
2
  6
CENTER
 62
     2
100
AcDbLine
 10
-252.574675
 20
231.171254
 30
0.0
 11
-244.443611
 21
223.040191
 31
0.0
  0
CIRCLE
  5
5C4
330
26
100
AcDbEntity
  8
2
100
AcDbCircle
 10
-196.146758
 20
212.743338
 30
0.0
 40
4.5
  0
LINE
  5
5C5
330
26
100
AcDbEntity
  8
2
100
AcDbLine
 10
-193.696758
 20
213.243338
 30
0.0
 11
-193.696758
 21
212.243338
 31
0.0
  0
LINE
  5
5C6
330
26
100
AcDbEntity
  8
2
100
AcDbLine
 10
-198.596758
 20
213.243338
 30
0.0
 11
-198.596758
 21
212.243338
 31
0.0
  0
LINE
  5
5C7
330
26
100
AcDbEntity
  8
2
100
AcDbLine
 10
-196.646758
 20
215.193338
 30
0.0
 11
-195.646758
 21
215.193338
 31
0.0
  0
LINE
  5
5C8
330
26
100
AcDbEntity
  8
2
100
AcDbLine
 10
-196.646758
 20
210.293338
 30
0.0
 11
-195.646758
 21
210.293338
 31
0.0
  0
LINE
  5
5C9
330
26
100
AcDbEntity
  8
2
100
AcDbLine
 10
-198.596758
 20
213.243338
 30
0.0
 11
-197.446758
 21
213.243338
 31
0.0
  0
LINE
  5
5CA
330
26
100
AcDbEntity
  8
2
100
AcDbLine
 10
-194.846758
 20
213.243338
 30
0.0
 11
-193.696758
 21
213.243338
 31
0.0
  0
LINE
  5
5CB
330
26
100
AcDbEntity
  8
2
100
AcDbLine
 10
-198.596758
 20
212.243338
 30
0.0
 11
-197.446758
 21
212.243338
 31
0.0
  0
LINE
  5
5CC
330
26
100
AcDbEntity
  8
2
100
AcDbLine
 10
-194.846758
 20
212.243338
 30
0.0
 11
-193.696758
 21
212.243338
 31
0.0
  0
LINE
  5
5CD
330
26
100
AcDbEntity
  8
2
100
AcDbLine
 10
-195.646758
 20
210.293338
 30
0.0
 11
-195.646758
 21
211.443338
 31
0.0
  0
LINE
  5
5CE
330
26
100
AcDbEntity
  8
2
100
AcDbLine
 10
-195.646758
 20
214.043338
 30
0.0
 11
-195.646758
 21
215.193338
 31
0.0
  0
LINE
  5
5CF
330
26
100
AcDbEntity
  8
2
100
AcDbLine
 10
-196.646758
 20
210.293338
 30
0.0
 11
-196.646758
 21
211.443338
 31
0.0
  0
LINE
  5
5D0
330
26
100
AcDbEntity
  8
2
100
AcDbLine
 10
-196.646758
 20
214.043338
 30
0.0
 11
-196.646758
 21
215.193338
 31
0.0
  0
ARC
  5
5D1
330
26
100
AcDbEntity
  8
2
100
AcDbCircle
 10
-197.446758
 20
214.043338
 30
0.0
 40
0.8
100
AcDbArc
 50
270.0
 51
360.0
  0
ARC
  5
5D2
330
26
100
AcDbEntity
  8
2
100
AcDbCircle
 10
-194.846758
 20
214.043338
 30
0.0
 40
0.8
100
AcDbArc
 50
180.0
 51
270.0
  0
ARC
  5
5D3
330
26
100
AcDbEntity
  8
2
100
AcDbCircle
 10
-194.846758
 20
211.443338
 30
0.0
 40
0.8
100
AcDbArc
 50
90.0
 51
180.0
  0
ARC
  5
5D4
330
26
100
AcDbEntity
  8
2
100
AcDbCircle
 10
-197.446758
 20
211.443338
 30
0.0
 40
0.8
100
AcDbArc
 50
0.0
 51
90.0
  0
CIRCLE
  5
5D5
330
26
100
AcDbEntity
  8
2
100
AcDbCircle
 10
-196.146758
 20
300.743338
 30
0.0
 40
4.5
  0
LINE
  5
5D6
330
26
100
AcDbEntity
  8
2
100
AcDbLine
 10
-193.696758
 20
301.243338
 30
0.0
 11
-193.696758
 21
300.243338
 31
0.0
  0
LINE
  5
5D7
330
26
100
AcDbEntity
  8
2
100
AcDbLine
 10
-198.596758
 20
301.243338
 30
0.0
 11
-198.596758
 21
300.243338
 31
0.0
  0
LINE
  5
5D8
330
26
100
AcDbEntity
  8
2
100
AcDbLine
 10
-196.646758
 20
303.193338
 30
0.0
 11
-195.646758
 21
303.193338
 31
0.0
  0
LINE
  5
5D9
330
26
100
AcDbEntity
  8
2
100
AcDbLine
 10
-196.646758
 20
298.293338
 30
0.0
 11
-195.646758
 21
298.293338
 31
0.0
  0
LINE
  5
5DA
330
26
100
AcDbEntity
  8
2
100
AcDbLine
 10
-198.596758
 20
301.243338
 30
0.0
 11
-197.446758
 21
301.243338
 31
0.0
  0
LINE
  5
5DB
330
26
100
AcDbEntity
  8
2
100
AcDbLine
 10
-194.846758
 20
301.243338
 30
0.0
 11
-193.696758
 21
301.243338
 31
0.0
  0
LINE
  5
5DC
330
26
100
AcDbEntity
  8
2
100
AcDbLine
 10
-198.596758
 20
300.243338
 30
0.0
 11
-197.446758
 21
300.243338
 31
0.0
  0
LINE
  5
5DD
330
26
100
AcDbEntity
  8
2
100
AcDbLine
 10
-194.846758
 20
300.243338
 30
0.0
 11
-193.696758
 21
300.243338
 31
0.0
  0
LINE
  5
5DE
330
26
100
AcDbEntity
  8
2
100
AcDbLine
 10
-195.646758
 20
298.293338
 30
0.0
 11
-195.646758
 21
299.443338
 31
0.0
  0
LINE
  5
5DF
330
26
100
AcDbEntity
  8
2
100
AcDbLine
 10
-195.646758
 20
302.043338
 30
0.0
 11
-195.646758
 21
303.193338
 31
0.0
  0
LINE
  5
5E0
330
26
100
AcDbEntity
  8
2
100
AcDbLine
 10
-196.646758
 20
298.293338
 30
0.0
 11
-196.646758
 21
299.443338
 31
0.0
  0
LINE
  5
5E1
330
26
100
AcDbEntity
  8
2
100
AcDbLine
 10
-196.646758
 20
302.043338
 30
0.0
 11
-196.646758
 21
303.193338
 31
0.0
  0
ARC
  5
5E2
330
26
100
AcDbEntity
  8
2
100
AcDbCircle
 10
-197.446758
 20
302.043338
 30
0.0
 40
0.8
100
AcDbArc
 50
270.0
 51
360.0
  0
ARC
  5
5E3
330
26
100
AcDbEntity
  8
2
100
AcDbCircle
 10
-194.846758
 20
302.043338
 30
0.0
 40
0.8
100
AcDbArc
 50
180.0
 51
270.0
  0
ARC
  5
5E4
330
26
100
AcDbEntity
  8
2
100
AcDbCircle
 10
-194.846758
 20
299.443338
 30
0.0
 40
0.8
100
AcDbArc
 50
90.0
 51
180.0
  0
ARC
  5
5E5
330
26
100
AcDbEntity
  8
2
100
AcDbCircle
 10
-197.446758
 20
299.443338
 30
0.0
 40
0.8
100
AcDbArc
 50
0.0
 51
90.0
  0
CIRCLE
  5
5E6
330
26
100
AcDbEntity
  8
2
100
AcDbCircle
 10
-342.146758
 20
212.743338
 30
0.0
 40
4.5
  0
LINE
  5
5E7
330
26
100
AcDbEntity
  8
2
100
AcDbLine
 10
-339.696758
 20
213.243338
 30
0.0
 11
-339.696758
 21
212.243338
 31
0.0
  0
LINE
  5
5E8
330
26
100
AcDbEntity
  8
2
100
AcDbLine
 10
-344.596758
 20
213.243338
 30
0.0
 11
-344.596758
 21
212.243338
 31
0.0
  0
LINE
  5
5E9
330
26
100
AcDbEntity
  8
2
100
AcDbLine
 10
-342.6467580000001
 20
215.193338
 30
0.0
 11
-341.646758
 21
215.193338
 31
0.0
  0
LINE
  5
5EA
330
26
100
AcDbEntity
  8
2
100
AcDbLine
 10
-342.6467580000001
 20
210.293338
 30
0.0
 11
-341.646758
 21
210.293338
 31
0.0
  0
LINE
  5
5EB
330
26
100
AcDbEntity
  8
2
100
AcDbLine
 10
-344.596758
 20
213.243338
 30
0.0
 11
-343.446758
 21
213.243338
 31
0.0
  0
LINE
  5
5EC
330
26
100
AcDbEntity
  8
2
100
AcDbLine
 10
-340.846758
 20
213.243338
 30
0.0
 11
-339.696758
 21
213.243338
 31
0.0
  0
LINE
  5
5ED
330
26
100
AcDbEntity
  8
2
100
AcDbLine
 10
-344.596758
 20
212.243338
 30
0.0
 11
-343.446758
 21
212.243338
 31
0.0
  0
LINE
  5
5EE
330
26
100
AcDbEntity
  8
2
100
AcDbLine
 10
-340.846758
 20
212.243338
 30
0.0
 11
-339.696758
 21
212.243338
 31
0.0
  0
LINE
  5
5EF
330
26
100
AcDbEntity
  8
2
100
AcDbLine
 10
-341.646758
 20
210.293338
 30
0.0
 11
-341.646758
 21
211.443338
 31
0.0
  0
LINE
  5
5F0
330
26
100
AcDbEntity
  8
2
100
AcDbLine
 10
-341.646758
 20
214.043338
 30
0.0
 11
-341.646758
 21
215.193338
 31
0.0
  0
LINE
  5
5F1
330
26
100
AcDbEntity
  8
2
100
AcDbLine
 10
-342.6467580000001
 20
210.293338
 30
0.0
 11
-342.6467580000001
 21
211.443338
 31
0.0
  0
LINE
  5
5F2
330
26
100
AcDbEntity
  8
2
100
AcDbLine
 10
-342.6467580000001
 20
214.043338
 30
0.0
 11
-342.6467580000001
 21
215.193338
 31
0.0
  0
ARC
  5
5F3
330
26
100
AcDbEntity
  8
2
100
AcDbCircle
 10
-343.446758
 20
214.043338
 30
0.0
 40
0.8
100
AcDbArc
 50
270.0
 51
360.0
  0
ARC
  5
5F4
330
26
100
AcDbEntity
  8
2
100
AcDbCircle
 10
-340.846758
 20
214.043338
 30
0.0
 40
0.8
100
AcDbArc
 50
180.0
 51
270.0
  0
ARC
  5
5F5
330
26
100
AcDbEntity
  8
2
100
AcDbCircle
 10
-340.846758
 20
211.443338
 30
0.0
 40
0.8
100
AcDbArc
 50
90.0
 51
180.0
  0
ARC
  5
5F6
330
26
100
AcDbEntity
  8
2
100
AcDbCircle
 10
-343.446758
 20
211.443338
 30
0.0
 40
0.8
100
AcDbArc
 50
0.0
 51
90.0
  0
CIRCLE
  5
5F7
330
26
100
AcDbEntity
  8
2
100
AcDbCircle
 10
-342.146758
 20
300.743338
 30
0.0
 40
4.5
  0
LINE
  5
5F8
330
26
100
AcDbEntity
  8
2
100
AcDbLine
 10
-339.696758
 20
301.243338
 30
0.0
 11
-339.696758
 21
300.243338
 31
0.0
  0
LINE
  5
5F9
330
26
100
AcDbEntity
  8
2
100
AcDbLine
 10
-344.596758
 20
301.243338
 30
0.0
 11
-344.596758
 21
300.243338
 31
0.0
  0
LINE
  5
5FA
330
26
100
AcDbEntity
  8
2
100
AcDbLine
 10
-342.6467580000001
 20
303.193338
 30
0.0
 11
-341.646758
 21
303.193338
 31
0.0
  0
LINE
  5
5FB
330
26
100
AcDbEntity
  8
2
100
AcDbLine
 10
-342.6467580000001
 20
298.293338
 30
0.0
 11
-341.646758
 21
298.293338
 31
0.0
  0
LINE
  5
5FC
330
26
100
AcDbEntity
  8
2
100
AcDbLine
 10
-344.596758
 20
301.243338
 30
0.0
 11
-343.446758
 21
301.243338
 31
0.0
  0
LINE
  5
5FD
330
26
100
AcDbEntity
  8
2
100
AcDbLine
 10
-340.846758
 20
301.243338
 30
0.0
 11
-339.696758
 21
301.243338
 31
0.0
  0
LINE
  5
5FE
330
26
100
AcDbEntity
  8
2
100
AcDbLine
 10
-344.596758
 20
300.243338
 30
0.0
 11
-343.446758
 21
300.243338
 31
0.0
  0
LINE
  5
5FF
330
26
100
AcDbEntity
  8
2
100
AcDbLine
 10
-340.846758
 20
300.243338
 30
0.0
 11
-339.696758
 21
300.243338
 31
0.0
  0
LINE
  5
600
330
26
100
AcDbEntity
  8
2
100
AcDbLine
 10
-341.646758
 20
298.293338
 30
0.0
 11
-341.646758
 21
299.443338
 31
0.0
  0
LINE
  5
601
330
26
100
AcDbEntity
  8
2
100
AcDbLine
 10
-341.646758
 20
302.043338
 30
0.0
 11
-341.646758
 21
303.193338
 31
0.0
  0
LINE
  5
602
330
26
100
AcDbEntity
  8
2
100
AcDbLine
 10
-342.6467580000001
 20
298.293338
 30
0.0
 11
-342.6467580000001
 21
299.443338
 31
0.0
  0
LINE
  5
603
330
26
100
AcDbEntity
  8
2
100
AcDbLine
 10
-342.6467580000001
 20
302.043338
 30
0.0
 11
-342.6467580000001
 21
303.193338
 31
0.0
  0
ARC
  5
604
330
26
100
AcDbEntity
  8
2
100
AcDbCircle
 10
-343.446758
 20
302.043338
 30
0.0
 40
0.8
100
AcDbArc
 50
270.0
 51
360.0
  0
ARC
  5
605
330
26
100
AcDbEntity
  8
2
100
AcDbCircle
 10
-340.846758
 20
302.043338
 30
0.0
 40
0.8
100
AcDbArc
 50
180.0
 51
270.0
  0
ARC
  5
606
330
26
100
AcDbEntity
  8
2
100
AcDbCircle
 10
-340.846758
 20
299.443338
 30
0.0
 40
0.8
100
AcDbArc
 50
90.0
 51
180.0
  0
ARC
  5
607
330
26
100
AcDbEntity
  8
2
100
AcDbCircle
 10
-343.446758
 20
299.443338
 30
0.0
 40
0.8
100
AcDbArc
 50
0.0
 51
90.0
  0
CIRCLE
  5
608
330
26
100
AcDbEntity
  8
2
100
AcDbCircle
 10
-248.630254
 20
227.226834
 30
0.0
 40
3.5
  0
LINE
  5
609
330
26
100
AcDbEntity
  8
2
100
AcDbLine
 10
-247.498883
 20
229.065312
 30
0.0
 11
-246.791776
 21
228.358205
 31
0.0
  0
LINE
  5
60A
330
26
100
AcDbEntity
  8
2
100
AcDbLine
 10
-250.468732
 20
226.095463
 30
0.0
 11
-249.761625
 21
225.388356
 31
0.0
  0
LINE
  5
60B
330
26
100
AcDbEntity
  8
2
100
AcDbLine
 10
-249.761625
 20
229.065312
 30
0.0
 11
-250.468732
 21
228.358205
 31
0.0
  0
LINE
  5
60C
330
26
100
AcDbEntity
  8
2
100
AcDbLine
 10
-246.791776
 20
226.095463
 30
0.0
 11
-247.498883
 21
225.388356
 31
0.0
  0
LINE
  5
60D
330
26
100
AcDbEntity
  8
2
100
AcDbLine
 10
-249.761625
 20
225.388356
 30
0.0
 11
-249.195939
 21
225.954042
 31
0.0
  0
LINE
  5
60E
330
26
100
AcDbEntity
  8
2
100
AcDbLine
 10
-247.357462
 20
227.792519
 30
0.0
 11
-246.791776
 21
228.358205
 31
0.0
  0
LINE
  5
60F
330
26
100
AcDbEntity
  8
2
100
AcDbLine
 10
-250.468732
 20
226.095463
 30
0.0
 11
-249.903046
 21
226.661149
 31
0.0
  0
LINE
  5
610
330
26
100
AcDbEntity
  8
2
100
AcDbLine
 10
-248.064569
 20
228.499626
 30
0.0
 11
-247.498883
 21
229.065312
 31
0.0
  0
LINE
  5
611
330
26
100
AcDbEntity
  8
2
100
AcDbLine
 10
-250.468732
 20
228.358205
 30
0.0
 11
-249.903046
 21
227.792519
 31
0.0
  0
LINE
  5
612
330
26
100
AcDbEntity
  8
2
100
AcDbLine
 10
-248.064569
 20
225.954042
 30
0.0
 11
-247.498883
 21
225.388356
 31
0.0
  0
LINE
  5
613
330
26
100
AcDbEntity
  8
2
100
AcDbLine
 10
-249.761625
 20
229.065312
 30
0.0
 11
-249.195939
 21
228.499626
 31
0.0
  0
LINE
  5
614
330
26
100
AcDbEntity
  8
2
100
AcDbLine
 10
-247.357462
 20
226.661149
 30
0.0
 11
-246.791776
 21
226.095463
 31
0.0
  0
ARC
  5
615
330
26
100
AcDbEntity
  8
2
100
AcDbCircle
 10
-248.630254
 20
229.065312
 30
0.0
 40
0.8
100
AcDbArc
 50
225.0
 51
315.0
  0
ARC
  5
616
330
26
100
AcDbEntity
  8
2
100
AcDbCircle
 10
-250.468732
 20
227.226834
 30
0.0
 40
0.8
100
AcDbArc
 50
315.0
 51
45.0
  0
ARC
  5
617
330
26
100
AcDbEntity
  8
2
100
AcDbCircle
 10
-248.630254
 20
225.388356
 30
0.0
 40
0.8
100
AcDbArc
 50
45.0
 51
135.0
  0
ARC
  5
618
330
26
100
AcDbEntity
  8
2
100
AcDbCircle
 10
-246.791776
 20
227.226834
 30
0.0
 40
0.8
100
AcDbArc
 50
135.0
 51
225.0
  0
CIRCLE
  5
619
330
26
100
AcDbEntity
  8
2
100
AcDbCircle
 10
-248.630254
 20
280.259843
 30
0.0
 40
3.5
  0
LINE
  5
61A
330
26
100
AcDbEntity
  8
2
100
AcDbLine
 10
-247.498883
 20
282.09832
 30
0.0
 11
-246.791776
 21
281.391213
 31
0.0
  0
LINE
  5
61B
330
26
100
AcDbEntity
  8
2
100
AcDbLine
 10
-250.468732
 20
279.1284720000001
 30
0.0
 11
-249.761625
 21
278.421365
 31
0.0
  0
LINE
  5
61C
330
26
100
AcDbEntity
  8
2
100
AcDbLine
 10
-249.761625
 20
282.09832
 30
0.0
 11
-250.468732
 21
281.391213
 31
0.0
  0
LINE
  5
61D
330
26
100
AcDbEntity
  8
2
100
AcDbLine
 10
-246.791776
 20
279.1284720000001
 30
0.0
 11
-247.498883
 21
278.421365
 31
0.0
  0
LINE
  5
61E
330
26
100
AcDbEntity
  8
2
100
AcDbLine
 10
-249.761625
 20
278.421365
 30
0.0
 11
-249.195939
 21
278.98705
 31
0.0
  0
LINE
  5
61F
330
26
100
AcDbEntity
  8
2
100
AcDbLine
 10
-247.357462
 20
280.825528
 30
0.0
 11
-246.791776
 21
281.391213
 31
0.0
  0
LINE
  5
620
330
26
100
AcDbEntity
  8
2
100
AcDbLine
 10
-250.468732
 20
279.1284720000001
 30
0.0
 11
-249.903046
 21
279.6941569999999
 31
0.0
  0
LINE
  5
621
330
26
100
AcDbEntity
  8
2
100
AcDbLine
 10
-248.064569
 20
281.532635
 30
0.0
 11
-247.498883
 21
282.09832
 31
0.0
  0
LINE
  5
622
330
26
100
AcDbEntity
  8
2
100
AcDbLine
 10
-250.468732
 20
281.391213
 30
0.0
 11
-249.903046
 21
280.825528
 31
0.0
  0
LINE
  5
623
330
26
100
AcDbEntity
  8
2
100
AcDbLine
 10
-248.064569
 20
278.98705
 30
0.0
 11
-247.498883
 21
278.421365
 31
0.0
  0
LINE
  5
624
330
26
100
AcDbEntity
  8
2
100
AcDbLine
 10
-249.761625
 20
282.09832
 30
0.0
 11
-249.195939
 21
281.532635
 31
0.0
  0
LINE
  5
625
330
26
100
AcDbEntity
  8
2
100
AcDbLine
 10
-247.357462
 20
279.6941569999999
 30
0.0
 11
-246.791776
 21
279.1284720000001
 31
0.0
  0
ARC
  5
626
330
26
100
AcDbEntity
  8
2
100
AcDbCircle
 10
-248.630254
 20
282.09832
 30
0.0
 40
0.8
100
AcDbArc
 50
225.0
 51
315.0
  0
ARC
  5
627
330
26
100
AcDbEntity
  8
2
100
AcDbCircle
 10
-250.468732
 20
280.259843
 30
0.0
 40
0.8
100
AcDbArc
 50
315.0
 51
45.0
  0
ARC
  5
628
330
26
100
AcDbEntity
  8
2
100
AcDbCircle
 10
-248.630254
 20
278.421365
 30
0.0
 40
0.8
100
AcDbArc
 50
45.0
 51
135.0
  0
ARC
  5
629
330
26
100
AcDbEntity
  8
2
100
AcDbCircle
 10
-246.791776
 20
280.259843
 30
0.0
 40
0.8
100
AcDbArc
 50
135.0
 51
225.0
  0
CIRCLE
  5
62A
330
26
100
AcDbEntity
  8
2
100
AcDbCircle
 10
-301.663263
 20
227.226834
 30
0.0
 40
3.5
  0
LINE
  5
62B
330
26
100
AcDbEntity
  8
2
100
AcDbLine
 10
-300.531892
 20
229.065312
 30
0.0
 11
-299.824785
 21
228.358205
 31
0.0
  0
LINE
  5
62C
330
26
100
AcDbEntity
  8
2
100
AcDbLine
 10
-303.50174
 20
226.095463
 30
0.0
 11
-302.794633
 21
225.388356
 31
0.0
  0
LINE
  5
62D
330
26
100
AcDbEntity
  8
2
100
AcDbLine
 10
-302.794633
 20
229.065312
 30
0.0
 11
-303.50174
 21
228.358205
 31
0.0
  0
LINE
  5
62E
330
26
100
AcDbEntity
  8
2
100
AcDbLine
 10
-299.824785
 20
226.095463
 30
0.0
 11
-300.531892
 21
225.388356
 31
0.0
  0
LINE
  5
62F
330
26
100
AcDbEntity
  8
2
100
AcDbLine
 10
-302.794633
 20
225.388356
 30
0.0
 11
-302.228948
 21
225.954042
 31
0.0
  0
LINE
  5
630
330
26
100
AcDbEntity
  8
2
100
AcDbLine
 10
-300.39047
 20
227.792519
 30
0.0
 11
-299.824785
 21
228.358205
 31
0.0
  0
LINE
  5
631
330
26
100
AcDbEntity
  8
2
100
AcDbLine
 10
-303.50174
 20
226.095463
 30
0.0
 11
-302.936055
 21
226.661149
 31
0.0
  0
LINE
  5
632
330
26
100
AcDbEntity
  8
2
100
AcDbLine
 10
-301.097577
 20
228.499626
 30
0.0
 11
-300.531892
 21
229.065312
 31
0.0
  0
LINE
  5
633
330
26
100
AcDbEntity
  8
2
100
AcDbLine
 10
-303.50174
 20
228.358205
 30
0.0
 11
-302.936055
 21
227.792519
 31
0.0
  0
LINE
  5
634
330
26
100
AcDbEntity
  8
2
100
AcDbLine
 10
-301.097577
 20
225.954042
 30
0.0
 11
-300.531892
 21
225.388356
 31
0.0
  0
LINE
  5
635
330
26
100
AcDbEntity
  8
2
100
AcDbLine
 10
-302.794633
 20
229.065312
 30
0.0
 11
-302.228948
 21
228.499626
 31
0.0
  0
LINE
  5
636
330
26
100
AcDbEntity
  8
2
100
AcDbLine
 10
-300.39047
 20
226.661149
 30
0.0
 11
-299.824785
 21
226.095463
 31
0.0
  0
ARC
  5
637
330
26
100
AcDbEntity
  8
2
100
AcDbCircle
 10
-301.663263
 20
229.065312
 30
0.0
 40
0.8
100
AcDbArc
 50
225.0
 51
315.0
  0
ARC
  5
638
330
26
100
AcDbEntity
  8
2
100
AcDbCircle
 10
-303.50174
 20
227.226834
 30
0.0
 40
0.8
100
AcDbArc
 50
315.0
 51
45.0
  0
ARC
  5
639
330
26
100
AcDbEntity
  8
2
100
AcDbCircle
 10
-301.663263
 20
225.388356
 30
0.0
 40
0.8
100
AcDbArc
 50
45.0
 51
135.0
  0
ARC
  5
63A
330
26
100
AcDbEntity
  8
2
100
AcDbCircle
 10
-299.824785
 20
227.226834
 30
0.0
 40
0.8
100
AcDbArc
 50
135.0
 51
225.0
  0
CIRCLE
  5
63B
330
26
100
AcDbEntity
  8
2
100
AcDbCircle
 10
-301.663263
 20
280.259843
 30
0.0
 40
3.5
  0
LINE
  5
63C
330
26
100
AcDbEntity
  8
2
100
AcDbLine
 10
-300.531892
 20
282.09832
 30
0.0
 11
-299.824785
 21
281.391213
 31
0.0
  0
LINE
  5
63D
330
26
100
AcDbEntity
  8
2
100
AcDbLine
 10
-303.50174
 20
279.1284720000001
 30
0.0
 11
-302.794633
 21
278.421365
 31
0.0
  0
LINE
  5
63E
330
26
100
AcDbEntity
  8
2
100
AcDbLine
 10
-302.794633
 20
282.09832
 30
0.0
 11
-303.50174
 21
281.391213
 31
0.0
  0
LINE
  5
63F
330
26
100
AcDbEntity
  8
2
100
AcDbLine
 10
-299.824785
 20
279.1284720000001
 30
0.0
 11
-300.531892
 21
278.421365
 31
0.0
  0
LINE
  5
640
330
26
100
AcDbEntity
  8
2
100
AcDbLine
 10
-302.794633
 20
278.421365
 30
0.0
 11
-302.228948
 21
278.98705
 31
0.0
  0
LINE
  5
641
330
26
100
AcDbEntity
  8
2
100
AcDbLine
 10
-300.39047
 20
280.825528
 30
0.0
 11
-299.824785
 21
281.391213
 31
0.0
  0
LINE
  5
642
330
26
100
AcDbEntity
  8
2
100
AcDbLine
 10
-303.50174
 20
279.1284720000001
 30
0.0
 11
-302.936055
 21
279.6941569999999
 31
0.0
  0
LINE
  5
643
330
26
100
AcDbEntity
  8
2
100
AcDbLine
 10
-301.097577
 20
281.532635
 30
0.0
 11
-300.531892
 21
282.09832
 31
0.0
  0
LINE
  5
644
330
26
100
AcDbEntity
  8
2
100
AcDbLine
 10
-303.50174
 20
281.391213
 30
0.0
 11
-302.936055
 21
280.825528
 31
0.0
  0
LINE
  5
645
330
26
100
AcDbEntity
  8
2
100
AcDbLine
 10
-301.097577
 20
278.98705
 30
0.0
 11
-300.531892
 21
278.421365
 31
0.0
  0
LINE
  5
646
330
26
100
AcDbEntity
  8
2
100
AcDbLine
 10
-302.794633
 20
282.09832
 30
0.0
 11
-302.228948
 21
281.532635
 31
0.0
  0
LINE
  5
647
330
26
100
AcDbEntity
  8
2
100
AcDbLine
 10
-300.39047
 20
279.6941569999999
 30
0.0
 11
-299.824785
 21
279.1284720000001
 31
0.0
  0
ARC
  5
648
330
26
100
AcDbEntity
  8
2
100
AcDbCircle
 10
-301.663263
 20
282.09832
 30
0.0
 40
0.8
100
AcDbArc
 50
225.0
 51
315.0
  0
ARC
  5
649
330
26
100
AcDbEntity
  8
2
100
AcDbCircle
 10
-303.50174
 20
280.259843
 30
0.0
 40
0.8
100
AcDbArc
 50
315.0
 51
45.0
  0
ARC
  5
64A
330
26
100
AcDbEntity
  8
2
100
AcDbCircle
 10
-301.663263
 20
278.421365
 30
0.0
 40
0.8
100
AcDbArc
 50
45.0
 51
135.0
  0
ARC
  5
64B
330
26
100
AcDbEntity
  8
2
100
AcDbCircle
 10
-299.824785
 20
280.259843
 30
0.0
 40
0.8
100
AcDbArc
 50
135.0
 51
225.0
  0
TEXT
  5
64C
330
26
100
AcDbEntity
  8
2
100
AcDbText
 10
-269.727273
 20
230.729665
 30
0.0
 40
7.599999999999997
  1
Ｓ
 50
22.49999606475089
 41
1.000000050296606
 72
     5
 11
-264.110085
 21
233.05638
 31
0.0
100
AcDbText
  0
TEXT
  5
64D
330
26
100
AcDbEntity
  8
2
100
AcDbText
 10
-269.326454
 20
230.827753
 30
0.0
 40
7.599999999999997
  1
Ｓ
 50
23.49999801769453
 41
0.9999999397136512
 72
     5
 11
-263.750729
 21
233.252147
 31
0.0
100
AcDbText
  0
TEXT
  5
64E
330
26
100
AcDbEntity
  8
2
100
AcDbText
 10
-270.1297419999999
 20
230.638587
 30
0.0
 40
7.599999999999997
  1
Ｓ
 50
21.49999533533387
 41
1.000000000928532
 72
     5
 11
-264.472803
 21
232.866914
 31
0.0
100
AcDbText
  0
TEXT
  5
64F
330
26
100
AcDbEntity
  8
2
100
AcDbText
 10
-280.566244
 20
276.757012
 30
0.0
 40
7.599999999999997
  1
Ｓ
 50
202.4999996710248
 41
0.9999998983427358
 72
     5
 11
-286.183431
 21
274.430297
 31
0.0
100
AcDbText
  0
TEXT
  5
650
330
26
100
AcDbEntity
  8
2
100
AcDbText
 10
-280.967062
 20
276.658924
 30
0.0
 40
7.599999999999997
  1
Ｓ
 50
203.5000029020746
 41
1.000000156129618
 72
     5
 11
-286.542788
 21
274.234529
 31
0.0
100
AcDbText
  0
TEXT
  5
651
330
26
100
AcDbEntity
  8
2
100
AcDbText
 10
-280.163774
 20
276.84809
 30
0.0
 40
7.599999999999997
  1
Ｓ
 50
201.5000041032608
 41
1.000000061208345
 72
     5
 11
-285.820713
 21
274.619762
 31
0.0
100
AcDbText
  0
LINE
  5
652
330
26
100
AcDbEntity
  8
2
  6
CENTER
 62
     2
100
AcDbLine
 10
-205.495236
 20
300.743338
 30
0.0
 11
-187.302487
 21
300.743338
 31
0.0
  0
LINE
  5
653
330
26
100
AcDbEntity
  8
2
  6
CENTER
 62
     2
100
AcDbLine
 10
-196.146758
 20
291.975177
 30
0.0
 11
-196.146758
 21
309.440234
 31
0.0
  0
LINE
  5
654
330
26
100
AcDbEntity
  8
2
100
AcDbLine
 10
-173.146758
 20
265.743338
 30
0.0
 11
-173.146758
 21
291.743338
 31
0.0
  0
LINE
  5
655
330
26
100
AcDbEntity
  8
2
100
AcDbLine
 10
-178.146758
 20
263.732231
 30
0.0
 11
-178.146758
 21
293.754445
 31
0.0
  0
LINE
  5
656
330
26
100
AcDbEntity
  8
2
100
AcDbLine
 10
-174.307871
 20
293.754445
 30
0.0
 11
-178.146758
 21
293.754445
 31
0.0
  0
LINE
  5
657
330
26
100
AcDbEntity
  8
2
100
AcDbLine
 10
-174.307871
 20
286.248892
 30
0.0
 11
-178.146758
 21
286.248892
 31
0.0
  0
LINE
  5
658
330
26
100
AcDbEntity
  8
2
100
AcDbLine
 10
-174.307871
 20
271.237785
 30
0.0
 11
-178.146758
 21
271.237785
 31
0.0
  0
LINE
  5
659
330
26
100
AcDbEntity
  8
2
100
AcDbLine
 10
-174.307871
 20
263.732231
 30
0.0
 11
-178.146758
 21
263.732231
 31
0.0
  0
LINE
  5
65A
330
26
100
AcDbEntity
  8
2
100
AcDbLine
 10
-173.146758
 20
291.743338
 30
0.0
 11
-174.307871
 21
293.754445
 31
0.0
  0
LINE
  5
65B
330
26
100
AcDbEntity
  8
2
100
AcDbLine
 10
-173.146758
 20
265.743338
 30
0.0
 11
-174.307871
 21
263.732231
 31
0.0
  0
ARC
  5
65C
330
26
100
AcDbEntity
  8
2
100
AcDbCircle
 10
-179.791894
 20
290.001668
 30
0.0
 40
6.645135999999999
100
AcDbArc
 50
325.615736
 51
34.384264
  0
ARC
  5
65D
330
26
100
AcDbEntity
  8
2
100
AcDbCircle
 10
-179.791894
 20
267.485008
 30
0.0
 40
6.645135999999999
100
AcDbArc
 50
325.615736
 51
34.384264
  0
LINE
  5
65E
330
26
100
AcDbEntity
  8
2
100
AcDbLine
 10
-178.146758
 20
269.743338
 30
0.0
 11
-181.146758
 21
269.743338
 31
0.0
  0
LINE
  5
65F
330
26
100
AcDbEntity
  8
2
100
AcDbLine
 10
-181.146758
 20
287.743338
 30
0.0
 11
-178.146758
 21
287.743338
 31
0.0
  0
ARC
  5
660
330
26
100
AcDbEntity
  8
2
100
AcDbCircle
 10
-197.985645
 20
278.743338
 30
0.0
 40
24.838887
100
AcDbArc
 50
342.412046
 51
17.587954
  0
LINE
  5
661
330
26
100
AcDbEntity
  8
2
100
AcDbLine
 10
-173.146758
 20
215.743338
 30
0.0
 11
-173.146758
 21
241.743338
 31
0.0
  0
LINE
  5
662
330
26
100
AcDbEntity
  8
2
100
AcDbLine
 10
-178.146758
 20
213.732231
 30
0.0
 11
-178.146758
 21
243.754445
 31
0.0
  0
LINE
  5
663
330
26
100
AcDbEntity
  8
2
100
AcDbLine
 10
-174.307871
 20
243.754445
 30
0.0
 11
-178.146758
 21
243.754445
 31
0.0
  0
LINE
  5
664
330
26
100
AcDbEntity
  8
2
100
AcDbLine
 10
-174.307871
 20
236.248892
 30
0.0
 11
-178.146758
 21
236.248892
 31
0.0
  0
LINE
  5
665
330
26
100
AcDbEntity
  8
2
100
AcDbLine
 10
-174.307871
 20
221.237785
 30
0.0
 11
-178.146758
 21
221.237785
 31
0.0
  0
LINE
  5
666
330
26
100
AcDbEntity
  8
2
100
AcDbLine
 10
-174.307871
 20
213.732231
 30
0.0
 11
-178.146758
 21
213.732231
 31
0.0
  0
LINE
  5
667
330
26
100
AcDbEntity
  8
2
100
AcDbLine
 10
-173.146758
 20
241.743338
 30
0.0
 11
-174.307871
 21
243.754445
 31
0.0
  0
LINE
  5
668
330
26
100
AcDbEntity
  8
2
100
AcDbLine
 10
-173.146758
 20
215.743338
 30
0.0
 11
-174.307871
 21
213.732231
 31
0.0
  0
ARC
  5
669
330
26
100
AcDbEntity
  8
2
100
AcDbCircle
 10
-179.791894
 20
240.001668
 30
0.0
 40
6.645135999999999
100
AcDbArc
 50
325.615736
 51
34.384264
  0
ARC
  5
66A
330
26
100
AcDbEntity
  8
2
100
AcDbCircle
 10
-179.791894
 20
217.485008
 30
0.0
 40
6.645135999999999
100
AcDbArc
 50
325.615736
 51
34.384264
  0
LINE
  5
66B
330
26
100
AcDbEntity
  8
2
100
AcDbLine
 10
-178.146758
 20
219.743338
 30
0.0
 11
-181.146758
 21
219.743338
 31
0.0
  0
LINE
  5
66C
330
26
100
AcDbEntity
  8
2
100
AcDbLine
 10
-181.146758
 20
237.743338
 30
0.0
 11
-178.146758
 21
237.743338
 31
0.0
  0
ARC
  5
66D
330
26
100
AcDbEntity
  8
2
100
AcDbCircle
 10
-197.985645
 20
228.743338
 30
0.0
 40
24.838887
100
AcDbArc
 50
342.412046
 51
17.587954
  0
LWPOLYLINE
  5
66E
330
26
100
AcDbEntity
  8
2
100
AcDbPolyline
 90
       21
 70
     1
 43
0.0
 10
-178.246758
 20
288.743338
 10
-178.275044
 20
288.943338
 10
-178.363637
 20
289.143338
 10
-178.526758
 20
289.343338
 10
-178.806758
 20
289.543338
 10
-179.646758
 20
289.743338
 10
-180.486758
 20
289.543338
 10
-180.766758
 20
289.343338
 10
-180.929879
 20
289.143338
 10
-181.018473
 20
288.943338
 10
-181.046758
 20
288.743338
 10
-181.018473
 20
288.543338
 10
-180.929879
 20
288.343338
 10
-180.766758
 20
288.143338
 10
-180.486758
 20
287.943338
 10
-179.646758
 20
287.743338
 10
-178.806758
 20
287.943338
 10
-178.526758
 20
288.143338
 10
-178.363637
 20
288.343338
 10
-178.275044
 20
288.543338
 10
-178.246758
 20
288.743338
  0
LWPOLYLINE
  5
685
330
26
100
AcDbEntity
  8
2
100
AcDbPolyline
 90
       21
 70
     1
 43
0.0
 10
-178.246758
 20
268.743338
 10
-178.275044
 20
268.943338
 10
-178.363637
 20
269.143338
 10
-178.526758
 20
269.343338
 10
-178.806758
 20
269.543338
 10
-179.646758
 20
269.743338
 10
-180.486758
 20
269.543338
 10
-180.766758
 20
269.343338
 10
-180.929879
 20
269.143338
 10
-181.018473
 20
268.943338
 10
-181.046758
 20
268.743338
 10
-181.018473
 20
268.543338
 10
-180.929879
 20
268.343338
 10
-180.766758
 20
268.143338
 10
-180.486758
 20
267.943338
 10
-179.646758
 20
267.743338
 10
-178.806758
 20
267.943338
 10
-178.526758
 20
268.143338
 10
-178.363637
 20
268.343338
 10
-178.275044
 20
268.543338
 10
-178.246758
 20
268.743338
  0
LWPOLYLINE
  5
69C
330
26
100
AcDbEntity
  8
2
100
AcDbPolyline
 90
       21
 70
     1
 43
0.0
 10
-178.246758
 20
238.743338
 10
-178.275044
 20
238.943338
 10
-178.363637
 20
239.143338
 10
-178.526758
 20
239.343338
 10
-178.806758
 20
239.543338
 10
-179.646758
 20
239.743338
 10
-180.486758
 20
239.543338
 10
-180.766758
 20
239.343338
 10
-180.929879
 20
239.143338
 10
-181.018473
 20
238.943338
 10
-181.046758
 20
238.743338
 10
-181.018473
 20
238.543338
 10
-180.929879
 20
238.343338
 10
-180.766758
 20
238.143338
 10
-180.486758
 20
237.943338
 10
-179.646758
 20
237.743338
 10
-178.806758
 20
237.943338
 10
-178.526758
 20
238.143338
 10
-178.363637
 20
238.343338
 10
-178.275044
 20
238.543338
 10
-178.246758
 20
238.743338
  0
LWPOLYLINE
  5
6B3
330
26
100
AcDbEntity
  8
2
100
AcDbPolyline
 90
       21
 70
     1
 43
0.0
 10
-178.246758
 20
218.743338
 10
-178.275044
 20
218.943338
 10
-178.363637
 20
219.143338
 10
-178.526758
 20
219.343338
 10
-178.806758
 20
219.543338
 10
-179.646758
 20
219.743338
 10
-180.486758
 20
219.543338
 10
-180.766758
 20
219.343338
 10
-180.929879
 20
219.143338
 10
-181.018473
 20
218.943338
 10
-181.046758
 20
218.743338
 10
-181.018473
 20
218.543338
 10
-180.929879
 20
218.343338
 10
-180.766758
 20
218.143338
 10
-180.486758
 20
217.943338
 10
-179.646758
 20
217.743338
 10
-178.806758
 20
217.943338
 10
-178.526758
 20
218.143338
 10
-178.363637
 20
218.343338
 10
-178.275044
 20
218.543338
 10
-178.246758
 20
218.743338
  0
LINE
  5
6CA
330
26
100
AcDbEntity
  8
2
100
AcDbLine
 10
-356.396758
 20
188.832543
 30
0.0
 11
-356.396758
 21
190.443338
 31
0.0
  0
ARC
  5
6CB
330
26
100
AcDbEntity
  8
2
100
AcDbCircle
 10
-357.3967580000001
 20
188.832543
 30
0.0
 40
1.0
100
AcDbArc
 50
302.392365
 51
360.0
  0
LINE
  5
6CC
330
26
100
AcDbEntity
  8
2
100
AcDbLine
 10
-365.896758
 20
190.443338
 30
0.0
 11
-356.396758
 21
190.443338
 31
0.0
  0
LINE
  5
6CD
330
26
100
AcDbEntity
  8
2
100
AcDbLine
 10
-356.546758
 20
190.443338
 30
0.0
 11
-356.546758
 21
191.743338
 31
0.0
  0
LINE
  5
6CE
330
26
100
AcDbEntity
  8
2
100
AcDbLine
 10
-365.896758
 20
188.832543
 30
0.0
 11
-365.896758
 21
190.443338
 31
0.0
  0
LINE
  5
6CF
330
26
100
AcDbEntity
  8
2
100
AcDbLine
 10
-365.746758
 20
190.443338
 30
0.0
 11
-365.746758
 21
191.743338
 31
0.0
  0
LINE
  5
6D0
330
26
100
AcDbEntity
  8
2
100
AcDbLine
 10
-360.646758
 20
186.758979
 30
0.0
 11
-360.646758
 21
186.943338
 31
0.0
  0
LINE
  5
6D1
330
26
100
AcDbEntity
  8
2
100
AcDbLine
 10
-361.6467580000001
 20
186.758979
 30
0.0
 11
-361.6467580000001
 21
186.943338
 31
0.0
  0
LINE
  5
6D2
330
26
100
AcDbEntity
  8
2
100
AcDbLine
 10
-360.646758
 20
186.943338
 30
0.0
 11
-361.6467580000001
 21
186.943338
 31
0.0
  0
ARC
  5
6D3
330
26
100
AcDbEntity
  8
2
100
AcDbCircle
 10
-361.146758
 20
194.743338
 30
0.0
 40
8.0
100
AcDbArc
 50
273.583322
 51
302.392365
  0
ARC
  5
6D4
330
26
100
AcDbEntity
  8
2
100
AcDbCircle
 10
-361.146758
 20
194.743338
 30
0.0
 40
8.0
100
AcDbArc
 50
237.607635
 51
266.416678
  0
ARC
  5
6D5
330
26
100
AcDbEntity
  8
2
100
AcDbCircle
 10
-364.896758
 20
188.832543
 30
0.0
 40
1.0
100
AcDbArc
 50
180.0
 51
237.607635
  0
LINE
  5
6D6
330
26
100
AcDbEntity
  8
2
100
AcDbLine
 10
-217.396758
 20
188.832543
 30
0.0
 11
-217.396758
 21
190.443338
 31
0.0
  0
ARC
  5
6D7
330
26
100
AcDbEntity
  8
2
100
AcDbCircle
 10
-218.396758
 20
188.832543
 30
0.0
 40
1.0
100
AcDbArc
 50
302.392365
 51
360.0
  0
LINE
  5
6D8
330
26
100
AcDbEntity
  8
2
100
AcDbLine
 10
-226.896758
 20
190.443338
 30
0.0
 11
-217.396758
 21
190.443338
 31
0.0
  0
LINE
  5
6D9
330
26
100
AcDbEntity
  8
2
100
AcDbLine
 10
-217.546758
 20
190.443338
 30
0.0
 11
-217.546758
 21
191.743338
 31
0.0
  0
LINE
  5
6DA
330
26
100
AcDbEntity
  8
2
100
AcDbLine
 10
-226.896758
 20
188.832543
 30
0.0
 11
-226.896758
 21
190.443338
 31
0.0
  0
LINE
  5
6DB
330
26
100
AcDbEntity
  8
2
100
AcDbLine
 10
-226.746758
 20
190.443338
 30
0.0
 11
-226.746758
 21
191.743338
 31
0.0
  0
LINE
  5
6DC
330
26
100
AcDbEntity
  8
2
100
AcDbLine
 10
-221.646758
 20
186.758979
 30
0.0
 11
-221.646758
 21
186.943338
 31
0.0
  0
LINE
  5
6DD
330
26
100
AcDbEntity
  8
2
100
AcDbLine
 10
-222.646758
 20
186.758979
 30
0.0
 11
-222.646758
 21
186.943338
 31
0.0
  0
LINE
  5
6DE
330
26
100
AcDbEntity
  8
2
100
AcDbLine
 10
-221.646758
 20
186.943338
 30
0.0
 11
-222.646758
 21
186.943338
 31
0.0
  0
ARC
  5
6DF
330
26
100
AcDbEntity
  8
2
100
AcDbCircle
 10
-222.146758
 20
194.743338
 30
0.0
 40
8.0
100
AcDbArc
 50
273.583322
 51
302.392365
  0
ARC
  5
6E0
330
26
100
AcDbEntity
  8
2
100
AcDbCircle
 10
-222.146758
 20
194.743338
 30
0.0
 40
8.0
100
AcDbArc
 50
237.607635
 51
266.416678
  0
ARC
  5
6E1
330
26
100
AcDbEntity
  8
2
100
AcDbCircle
 10
-225.896758
 20
188.832543
 30
0.0
 40
1.0
100
AcDbArc
 50
180.0
 51
237.607635
  0
LINE
  5
6E2
330
26
100
AcDbEntity
  8
2
100
AcDbLine
 10
-367.8967580000001
 20
190.443338
 30
0.0
 11
-365.746758
 21
190.443338
 31
0.0
  0
LINE
  5
6E3
330
26
100
AcDbEntity
  8
2
100
AcDbLine
 10
-367.8967580000001
 20
188.832543
 30
0.0
 11
-367.8967580000001
 21
190.443338
 31
0.0
  0
LINE
  5
6E4
330
26
100
AcDbEntity
  8
2
100
AcDbLine
 10
-367.746758
 20
190.443338
 30
0.0
 11
-367.746758
 21
191.743338
 31
0.0
  0
LINE
  5
6E5
330
26
100
AcDbEntity
  8
2
100
AcDbLine
 10
-362.646758
 20
186.758979
 30
0.0
 11
-362.646758
 21
186.885221
 31
0.0
  0
LINE
  5
6E6
330
26
100
AcDbEntity
  8
2
100
AcDbLine
 10
-363.6467580000001
 20
186.758979
 30
0.0
 11
-363.6467580000001
 21
186.943338
 31
0.0
  0
LINE
  5
6E7
330
26
100
AcDbEntity
  8
2
100
AcDbLine
 10
-362.924397
 20
186.943338
 30
0.0
 11
-363.6467580000001
 21
186.943338
 31
0.0
  0
ARC
  5
6E8
330
26
100
AcDbEntity
  8
2
100
AcDbCircle
 10
-363.146758
 20
194.743338
 30
0.0
 40
8.0
100
AcDbArc
 50
273.583322
 51
277.180756
  0
ARC
  5
6E9
330
26
100
AcDbEntity
  8
2
100
AcDbCircle
 10
-363.146758
 20
194.743338
 30
0.0
 40
8.0
100
AcDbArc
 50
237.607635
 51
266.416678
  0
ARC
  5
6EA
330
26
100
AcDbEntity
  8
2
100
AcDbCircle
 10
-366.896758
 20
188.832543
 30
0.0
 40
1.0
100
AcDbArc
 50
180.0
 51
237.607635
  0
LINE
  5
6EB
330
26
100
AcDbEntity
  8
2
100
AcDbLine
 10
-298.896758
 20
188.832543
 30
0.0
 11
-298.896758
 21
190.443338
 31
0.0
  0
ARC
  5
6EC
330
26
100
AcDbEntity
  8
2
100
AcDbCircle
 10
-299.896758
 20
188.832543
 30
0.0
 40
1.0
100
AcDbArc
 50
302.392365
 51
360.0
  0
LINE
  5
6ED
330
26
100
AcDbEntity
  8
2
100
AcDbLine
 10
-308.396758
 20
190.443338
 30
0.0
 11
-298.896758
 21
190.443338
 31
0.0
  0
LINE
  5
6EE
330
26
100
AcDbEntity
  8
2
100
AcDbLine
 10
-299.046758
 20
190.443338
 30
0.0
 11
-299.046758
 21
191.743338
 31
0.0
  0
LINE
  5
6EF
330
26
100
AcDbEntity
  8
2
100
AcDbLine
 10
-308.396758
 20
188.832543
 30
0.0
 11
-308.396758
 21
190.443338
 31
0.0
  0
LINE
  5
6F0
330
26
100
AcDbEntity
  8
2
100
AcDbLine
 10
-308.246758
 20
190.443338
 30
0.0
 11
-308.246758
 21
191.743338
 31
0.0
  0
LINE
  5
6F1
330
26
100
AcDbEntity
  8
2
100
AcDbLine
 10
-303.1467580000001
 20
186.758979
 30
0.0
 11
-303.1467580000001
 21
186.943338
 31
0.0
  0
LINE
  5
6F2
330
26
100
AcDbEntity
  8
2
100
AcDbLine
 10
-304.146758
 20
186.758979
 30
0.0
 11
-304.146758
 21
186.943338
 31
0.0
  0
LINE
  5
6F3
330
26
100
AcDbEntity
  8
2
100
AcDbLine
 10
-303.1467580000001
 20
186.943338
 30
0.0
 11
-304.146758
 21
186.943338
 31
0.0
  0
ARC
  5
6F4
330
26
100
AcDbEntity
  8
2
100
AcDbCircle
 10
-303.646758
 20
194.743338
 30
0.0
 40
8.0
100
AcDbArc
 50
273.583322
 51
302.392365
  0
ARC
  5
6F5
330
26
100
AcDbEntity
  8
2
100
AcDbCircle
 10
-303.646758
 20
194.743338
 30
0.0
 40
8.0
100
AcDbArc
 50
237.607635
 51
266.416678
  0
ARC
  5
6F6
330
26
100
AcDbEntity
  8
2
100
AcDbCircle
 10
-307.3967580000001
 20
188.832543
 30
0.0
 40
1.0
100
AcDbArc
 50
180.0
 51
237.607635
  0
LINE
  5
6F7
330
26
100
AcDbEntity
  8
2
100
AcDbLine
 10
-234.146758
 20
172.743338
 30
0.0
 11
-259.146758
 21
172.743338
 31
0.0
  0
LINE
  5
6F8
330
26
100
AcDbEntity
  8
2
100
AcDbLine
 10
-259.146758
 20
169.0433379999999
 30
0.0
 11
-259.146758
 21
172.743338
 31
0.0
  0
LINE
  5
6F9
330
26
100
AcDbEntity
  8
2
100
AcDbLine
 10
-258.846758
 20
168.743338
 30
0.0
 11
-259.146758
 21
169.0433379999999
 31
0.0
  0
LINE
  5
6FA
330
26
100
AcDbEntity
  8
2
100
AcDbLine
 10
-258.846758
 20
168.743338
 30
0.0
 11
-234.446758
 21
168.743338
 31
0.0
  0
LINE
  5
6FB
330
26
100
AcDbEntity
  8
2
100
AcDbLine
 10
-234.446758
 20
168.743338
 30
0.0
 11
-234.146758
 21
169.0433379999999
 31
0.0
  0
LINE
  5
6FC
330
26
100
AcDbEntity
  8
2
100
AcDbLine
 10
-234.146758
 20
169.0433379999999
 30
0.0
 11
-234.146758
 21
172.743338
 31
0.0
  0
LINE
  5
6FD
330
26
100
AcDbEntity
  8
2
100
AcDbLine
 10
-375.146758
 20
201.743338
 30
0.0
 11
-207.646758
 21
201.743338
 31
0.0
  0
LINE
  5
6FE
330
26
100
AcDbEntity
  8
2
100
AcDbLine
 10
-209.16106
 20
191.743338
 30
0.0
 11
-372.146758
 21
191.743338
 31
0.0
  0
LINE
  5
6FF
330
26
100
AcDbEntity
  8
2
100
AcDbLine
 10
-216.972788
 20
174.743338
 30
0.0
 11
-327.645625
 21
174.743338
 31
0.0
  0
LINE
  5
700
330
26
100
AcDbEntity
  8
2
100
AcDbLine
 10
-208.441781
 20
192.656182
 30
0.0
 11
-207.646758
 21
201.743338
 31
0.0
  0
LINE
  5
701
330
26
100
AcDbEntity
  8
2
100
AcDbLine
 10
-336.615334
 20
189.769326
 30
0.0
 11
-332.344132
 21
178.033358
 31
0.0
  0
ARC
  5
702
330
26
100
AcDbEntity
  8
2
100
AcDbCircle
 10
-339.434438
 20
188.743338
 30
0.0
 40
3.0
100
AcDbArc
 50
19.99853
 51
90.0
  0
ARC
  5
703
330
26
100
AcDbEntity
  8
2
100
AcDbCircle
 10
-327.645625
 20
179.743338
 30
0.0
 40
5.0
100
AcDbArc
 50
199.99853
 51
270.0
  0
LINE
  5
704
330
26
100
AcDbEntity
  8
2
100
AcDbLine
 10
-212.024743
 20
179.024416
 30
0.0
 11
-210.477931
 21
189.670486
 31
0.0
  0
ARC
  5
705
330
26
100
AcDbEntity
  8
2
100
AcDbCircle
 10
-216.972788
 20
179.743338
 30
0.0
 40
5.0
100
AcDbArc
 50
270.0
 51
351.733109
  0
LINE
  5
706
330
26
100
AcDbEntity
  8
2
100
AcDbLine
 10
-375.146758
 20
201.743338
 30
0.0
 11
-375.146758
 21
194.743338
 31
0.0
  0
ARC
  5
707
330
26
100
AcDbEntity
  8
2
100
AcDbCircle
 10
-372.146758
 20
194.743338
 30
0.0
 40
3.0
100
AcDbArc
 50
180.0
 51
270.0
  0
ARC
  5
708
330
26
100
AcDbEntity
  8
2
100
AcDbCircle
 10
-209.437976
 20
192.743338
 30
0.0
 40
1.0
100
AcDbArc
 50
298.830359
 51
355.0
  0
ARC
  5
709
330
26
100
AcDbEntity
  8
2
100
AcDbCircle
 10
-207.509104
 20
189.239133
 30
0.0
 40
3.0
100
AcDbArc
 50
118.830359
 51
171.733109
  0
LINE
  5
70A
330
26
100
AcDbEntity
  8
2
 62
     2
100
AcDbLine
 10
-309.248242
 20
190.262599
 30
0.0
 11
-305.753194
 21
177.262599
 31
0.0
  0
LINE
  5
70B
330
26
100
AcDbEntity
  8
2
 62
     2
100
AcDbLine
 10
-300.883274
 20
177.1748419999999
 30
0.0
 11
-298.010848
 21
190.174842
 31
0.0
  0
ARC
  5
70C
330
26
100
AcDbEntity
  8
2
 62
     2
100
AcDbCircle
 10
-296.057951
 20
189.743338
 30
0.0
 40
2.0
100
AcDbArc
 50
131.409622
 51
167.540354
  0
ARC
  5
70D
330
26
100
AcDbEntity
  8
2
 62
     2
100
AcDbCircle
 10
-311.179658
 20
189.743338
 30
0.0
 40
2.0
100
AcDbArc
 50
15.048138
 51
48.590378
  0
LINE
  5
70E
330
26
100
AcDbEntity
  8
2
100
AcDbLine
 10
-234.646758
 20
172.743338
 30
0.0
 11
-258.646758
 21
172.743338
 31
0.0
  0
LINE
  5
70F
330
26
100
AcDbEntity
  8
2
100
AcDbLine
 10
-234.146758
 20
173.243338
 30
0.0
 11
-234.146758
 21
173.743338
 31
0.0
  0
LINE
  5
710
330
26
100
AcDbEntity
  8
2
100
AcDbLine
 10
-259.146758
 20
173.243338
 30
0.0
 11
-259.146758
 21
173.743338
 31
0.0
  0
ARC
  5
711
330
26
100
AcDbEntity
  8
2
100
AcDbCircle
 10
-234.646758
 20
173.243338
 30
0.0
 40
0.5
100
AcDbArc
 50
270.0
 51
360.0
  0
ARC
  5
712
330
26
100
AcDbEntity
  8
2
100
AcDbCircle
 10
-258.646758
 20
173.243338
 30
0.0
 40
0.5
100
AcDbArc
 50
180.0
 51
270.0
  0
ARC
  5
713
330
26
100
AcDbEntity
  8
2
100
AcDbCircle
 10
-233.146758
 20
173.743338
 30
0.0
 40
1.0
100
AcDbArc
 50
90.0
 51
180.0
  0
ARC
  5
714
330
26
100
AcDbEntity
  8
2
100
AcDbCircle
 10
-260.146758
 20
173.743338
 30
0.0
 40
1.0
100
AcDbArc
 50
360.0
 51
90.0
  0
LINE
  5
715
330
26
100
AcDbEntity
  8
2
  6
CENTER
 62
     2
100
AcDbLine
 10
-383.052274
 20
253.743338
 30
0.0
 11
-169.641205
 21
253.743338
 31
0.0
  0
LINE
  5
716
330
26
100
AcDbEntity
  8
2
  6
CENTER
 62
     2
100
AcDbLine
 10
-201.57885
 20
228.743338
 30
0.0
 11
-167.722118
 21
228.743338
 31
0.0
  0
LINE
  5
717
330
26
100
AcDbEntity
  8
2
  6
CENTER
 62
     2
100
AcDbLine
 10
-201.57885
 20
278.743338
 30
0.0
 11
-167.722118
 21
278.743338
 31
0.0
  0
LINE
  5
718
330
26
100
AcDbEntity
  8
2
  6
CENTER
 62
     2
100
AcDbLine
 10
-275.146758
 20
317.912382
 30
0.0
 11
-275.146758
 21
160.226573
 31
0.0
  0
LINE
  5
719
330
26
100
AcDbEntity
  8
2
  6
CENTER
 62
     2
100
AcDbLine
 10
-336.3967580000001
 20
177.292716
 30
0.0
 11
-336.3967580000001
 21
314.310789
 31
0.0
  0
LINE
  5
71A
330
26
100
AcDbEntity
  8
2
  6
CENTER
 62
     2
100
AcDbLine
 10
-246.646758
 20
163.773902
 30
0.0
 11
-246.646758
 21
314.310789
 31
0.0
  0
LINE
  5
71B
330
26
100
AcDbEntity
  8
2
  6
CENTER
 62
     2
100
AcDbLine
 10
-361.146758
 20
178.513663
 30
0.0
 11
-361.146758
 21
204.057288
 31
0.0
  0
LINE
  5
71C
330
26
100
AcDbEntity
  8
2
  6
CENTER
 62
     2
100
AcDbLine
 10
-303.646758
 20
204.057288
 30
0.0
 11
-303.646758
 21
178.513663
 31
0.0
  0
LINE
  5
71D
330
26
100
AcDbEntity
  8
2
  6
CENTER
 62
     2
100
AcDbLine
 10
-222.146758
 20
178.513663
 30
0.0
 11
-222.146758
 21
204.057288
 31
0.0
  0
DIMENSION
  5
71E
330
26
100
AcDbEntity
  8
5
100
AcDbDimension
  2
*D0
 10
-49.058516
 20
-125.756662
 30
0.0
 11
-60.953515
 21
-201.751662
 31
0.0
  1
151
 71
     5
 42
-1.0
100
AcDbAlignedDimension
 13
74.097532
 23
-276.756662
 33
0.0
 14
76.503242
 24
-125.756662
 34
0.0
 50
90.0
100
AcDbRotatedDimension
  0
DIMENSION
  5
71F
330
26
100
AcDbEntity
  8
5
100
AcDbDimension
  2
*D1
 10
-49.058516
 20
-276.756662
 30
0.0
 11
-57.488515
 21
-313.186662
 31
0.0
  1
79
 71
     5
 42
-1.0
100
AcDbAlignedDimension
 13
99.51834699999999
 23
-355.556662
 33
0.0
 14
74.097532
 24
-276.756662
 34
0.0
 50
90.0
100
AcDbRotatedDimension
  0
DIMENSION
  5
720
330
26
100
AcDbEntity
  8
5
100
AcDbDimension
  2
*D2
 10
134.503242
 20
-385.822357
 30
0.0
 11
111.503242
 21
-379.372357
 31
0.0
  1
46
 71
     5
 42
-1.0
100
AcDbAlignedDimension
 13
88.50324200000001
 23
-334.256662
 33
0.0
 14
134.503242
 24
-336.756662
 34
0.0
100
AcDbRotatedDimension
  0
DIMENSION
  5
721
330
26
100
AcDbEntity
  8
5
100
AcDbDimension
  2
*D3
 10
-135.200031
 20
307.546338
 30
0.0
 11
-150.560031
 21
276.684838
 31
0.0
  1
53.8
 71
     5
 42
-1.0
100
AcDbAlignedDimension
 13
-169.641205
 23
253.743338
 33
0.0
 14
-191.343758
 24
307.546338
 34
0.0
 50
90.0
100
AcDbRotatedDimension
  0
DIMENSION
  5
722
330
26
100
AcDbEntity
  8
5
100
AcDbDimension
  2
*D4
 10
-135.200031
 20
253.743338
 30
0.0
 11
-143.630031
 21
214.213338
 31
0.0
  1
85
 71
     5
 42
-1.0
100
AcDbAlignedDimension
 13
-234.446758
 23
168.743338
 33
0.0
 14
-135.200031
 24
253.743338
 34
0.0
 50
90.0
100
AcDbRotatedDimension
  0
DIMENSION
  5
723
330
26
100
AcDbEntity
  8
5
100
AcDbDimension
  2
*D5
 10
-275.146758
 20
357.576576
 30
0.0
 11
-325.146758
 21
364.026576
 31
0.0
  1
100
 71
     5
 42
-1.0
100
AcDbAlignedDimension
 13
-375.146758
 23
223.243338
 33
0.0
 14
-275.146758
 24
317.912382
 34
0.0
100
AcDbRotatedDimension
  0
DIMENSION
  5
724
330
26
100
AcDbEntity
  8
5
100
AcDbDimension
  2
*D6
 10
-173.146758
 20
357.576576
 30
0.0
 11
-224.146758
 21
364.026576
 31
0.0
  1
102
 71
     5
 42
-1.0
100
AcDbAlignedDimension
 13
-275.146758
 23
357.576576
 33
0.0
 14
-173.146758
 24
291.743338
 34
0.0
100
AcDbRotatedDimension
  0
TEXT
  5
725
330
26
100
AcDbEntity
  8
5
100
AcDbText
 10
334.124668738169
 20
-75.06353872806176
 30
0.0
 40
18.0
  1
駆動部・・・４Ｉ－０型 
 41
0.7826086956521747
 72
     5
 11
528.5246687381691
 21
-75.06353872806176
 31
0.0
100
AcDbText
  0
DIMENSION
  5
726
330
26
100
AcDbEntity
  8
5
100
AcDbDimension
  2
*D7
 10
-49.058516
 20
24.243338
 30
0.0
 11
-60.953515
 21
-51.25166199999998
 31
0.0
  1
150
 71
     5
 42
-1.0
100
AcDbAlignedDimension
 13
76.503242
 23
-125.756662
 33
0.0
 14
111.503242
 24
24.243338
 34
0.0
 50
90.0
100
AcDbRotatedDimension
  0
LINE
  5
727
330
26
100
AcDbEntity
  8
18
100
AcDbLine
 10
374.3823397381691
 20
-119.8254787280617
 30
0.0
 11
524.3823397381691
 21
-119.8254787280617
 31
0.0
  0
LINE
  5
728
330
26
100
AcDbEntity
  8
18
100
AcDbLine
 10
374.3823397381691
 20
-179.8254787280618
 30
0.0
 11
524.3823397381691
 21
-179.8254787280618
 31
0.0
  0
LINE
  5
729
330
26
100
AcDbEntity
  8
18
100
AcDbLine
 10
374.3823397381691
 20
-194.8254787280618
 30
0.0
 11
524.3823397381691
 21
-194.8254787280618
 31
0.0
  0
LINE
  5
72A
330
26
100
AcDbEntity
  8
18
100
AcDbLine
 10
374.3823397381691
 20
-209.8254787280618
 30
0.0
 11
524.3823397381691
 21
-209.8254787280618
 31
0.0
  0
LINE
  5
72B
330
26
100
AcDbEntity
  8
18
100
AcDbLine
 10
374.3823397381691
 20
-119.8254787280617
 30
0.0
 11
374.3823397381691
 21
-209.8254787280618
 31
0.0
  0
LINE
  5
72C
330
26
100
AcDbEntity
  8
18
100
AcDbLine
 10
449.3823397381691
 20
-119.8254787280617
 30
0.0
 11
449.3823397381691
 21
-194.8254787280618
 31
0.0
  0
LINE
  5
72D
330
26
100
AcDbEntity
  8
18
100
AcDbLine
 10
524.3823397381691
 20
-119.8254787280617
 30
0.0
 11
524.3823397381691
 21
-209.8254787280618
 31
0.0
  0
LINE
  5
72E
330
26
100
AcDbEntity
  8
18
  6
CENTER
 62
     2
100
AcDbLine
 10
381.5638847381691
 20
-148.0009357280617
 30
0.0
 11
441.5707057381689
 21
-148.0009357280617
 31
0.0
  0
LINE
  5
72F
330
26
100
AcDbEntity
  8
18
  6
CENTER
 62
     2
100
AcDbLine
 10
410.879345738169
 20
-132.5028897280617
 30
0.0
 11
410.879345738169
 21
-165.3680437280617
 31
0.0
  0
LINE
  5
730
330
26
100
AcDbEntity
  8
18
100
AcDbLine
 10
386.879345738169
 20
-137.5009357280617
 30
0.0
 11
431.879345738169
 21
-137.5009357280617
 31
0.0
  0
LINE
  5
731
330
26
100
AcDbEntity
  8
18
100
AcDbLine
 10
386.879345738169
 20
-158.5009357280617
 30
0.0
 11
431.879345738169
 21
-158.5009357280617
 31
0.0
  0
LINE
  5
732
330
26
100
AcDbEntity
  8
18
100
AcDbLine
 10
386.879345738169
 20
-137.5009357280617
 30
0.0
 11
386.879345738169
 21
-161.5009357280617
 31
0.0
  0
LINE
  5
733
330
26
100
AcDbEntity
  8
18
100
AcDbLine
 10
428.879345738169
 20
-137.5009357280617
 30
0.0
 11
428.879345738169
 21
-158.5009357280617
 31
0.0
  0
LINE
  5
734
330
26
100
AcDbEntity
  8
18
100
AcDbLine
 10
386.879345738169
 20
-161.5009357280617
 30
0.0
 11
426.879345738169
 21
-161.5009357280617
 31
0.0
  0
LINE
  5
735
330
26
100
AcDbEntity
  8
18
100
AcDbLine
 10
431.879345738169
 20
-137.5009357280617
 30
0.0
 11
431.879345738169
 21
-158.5009357280617
 31
0.0
  0
LINE
  5
736
330
26
100
AcDbEntity
  8
18
100
AcDbLine
 10
426.879345738169
 20
-158.5009357280617
 30
0.0
 11
426.879345738169
 21
-161.5009357280617
 31
0.0
  0
LINE
  5
737
330
26
100
AcDbEntity
  8
18
100
AcDbLine
 10
400.379345738169
 20
-139.0009357280617
 30
0.0
 11
400.379345738169
 21
-157.0009357280618
 31
0.0
  0
LINE
  5
738
330
26
100
AcDbEntity
  8
18
100
AcDbLine
 10
425.879345738169
 20
-139.0009357280617
 30
0.0
 11
425.879345738169
 21
-157.0009357280618
 31
0.0
  0
LINE
  5
739
330
26
100
AcDbEntity
  8
18
100
AcDbLine
 10
400.379345738169
 20
-139.0009357280617
 30
0.0
 11
425.879345738169
 21
-139.0009357280617
 31
0.0
  0
LINE
  5
73A
330
26
100
AcDbEntity
  8
18
100
AcDbLine
 10
400.379345738169
 20
-157.0009357280618
 30
0.0
 11
425.879345738169
 21
-157.0009357280618
 31
0.0
  0
CIRCLE
  5
73B
330
26
100
AcDbEntity
  8
18
100
AcDbCircle
 10
410.879345738169
 20
-148.0009357280617
 30
0.0
 40
3.6
  0
LINE
  5
73C
330
26
100
AcDbEntity
  8
18
  6
DASHED
100
AcDbLine
 10
394.3793457381691
 20
-142.0009357280617
 30
0.0
 11
427.379345738169
 21
-142.0009357280617
 31
0.0
  0
LINE
  5
73D
330
26
100
AcDbEntity
  8
18
  6
DASHED
100
AcDbLine
 10
394.3793457381691
 20
-154.0009357280617
 30
0.0
 11
427.379345738169
 21
-154.0009357280617
 31
0.0
  0
LINE
  5
73E
330
26
100
AcDbEntity
  8
18
  6
DASHED
100
AcDbLine
 10
427.379345738169
 20
-142.0009357280617
 30
0.0
 11
427.379345738169
 21
-154.0009357280617
 31
0.0
  0
LINE
  5
73F
330
26
100
AcDbEntity
  8
18
  6
DASHED
100
AcDbLine
 10
394.3793457381691
 20
-142.0009357280617
 30
0.0
 11
394.3793457381691
 21
-154.0009357280617
 31
0.0
  0
LINE
  5
740
330
26
100
AcDbEntity
  8
18
  6
CENTER
 62
     2
100
AcDbLine
 10
465.8580897381691
 20
-148.0974097280618
 30
0.0
 11
508.235166738169
 21
-148.0974097280618
 31
0.0
  0
LINE
  5
741
330
26
100
AcDbEntity
  8
18
  6
CENTER
 62
     2
100
AcDbLine
 10
418.879345738169
 20
-159.9287297280618
 30
0.0
 11
418.879345738169
 21
-172.8633967280618
 31
0.0
  0
LINE
  5
742
330
26
100
AcDbEntity
  8
18
100
AcDbLine
 10
503.6893737381688
 20
-140.0972307280618
 30
0.0
 11
503.6893737381688
 21
-134.2264097280618
 31
0.0
  0
LINE
  5
743
330
26
100
AcDbEntity
  8
18
100
AcDbLine
 10
503.6893737381688
 20
-134.2264097280618
 30
0.0
 11
505.189373738169
 21
-134.2264097280618
 31
0.0
  0
LINE
  5
744
330
26
100
AcDbEntity
  8
18
100
AcDbLine
 10
505.189373738169
 20
-140.0972307280618
 30
0.0
 11
505.189373738169
 21
-134.2264097280618
 31
0.0
  0
LINE
  5
745
330
26
100
AcDbEntity
  8
18
100
AcDbLine
 10
503.6893737381688
 20
-145.9680517280617
 30
0.0
 11
505.189373738169
 21
-145.9680517280617
 31
0.0
  0
LINE
  5
746
330
26
100
AcDbEntity
  8
18
  6
CENTER
 62
     2
100
AcDbLine
 10
485.6893737381691
 20
-122.8651747280618
 30
0.0
 11
485.6893737381691
 21
-175.6697747280616
 31
0.0
  0
LINE
  5
747
330
26
100
AcDbEntity
  8
18
100
AcDbLine
 10
475.189373738169
 20
-172.0974097280618
 30
0.0
 11
475.189373738169
 21
-127.0974097280618
 31
0.0
  0
LINE
  5
748
330
26
100
AcDbEntity
  8
18
100
AcDbLine
 10
496.189373738169
 20
-172.0974097280618
 30
0.0
 11
496.189373738169
 21
-127.0974097280618
 31
0.0
  0
LINE
  5
749
330
26
100
AcDbEntity
  8
18
100
AcDbLine
 10
475.189373738169
 20
-172.0974097280618
 30
0.0
 11
499.189373738169
 21
-172.0974097280618
 31
0.0
  0
LINE
  5
74A
330
26
100
AcDbEntity
  8
18
100
AcDbLine
 10
475.189373738169
 20
-130.0974097280618
 30
0.0
 11
496.189373738169
 21
-130.0974097280618
 31
0.0
  0
LINE
  5
74B
330
26
100
AcDbEntity
  8
18
100
AcDbLine
 10
499.189373738169
 20
-172.0974097280618
 30
0.0
 11
499.189373738169
 21
-132.0974097280618
 31
0.0
  0
LINE
  5
74C
330
26
100
AcDbEntity
  8
18
100
AcDbLine
 10
475.189373738169
 20
-127.0974097280618
 30
0.0
 11
496.189373738169
 21
-127.0974097280618
 31
0.0
  0
LINE
  5
74D
330
26
100
AcDbEntity
  8
18
100
AcDbLine
 10
496.189373738169
 20
-132.0974097280618
 30
0.0
 11
499.189373738169
 21
-132.0974097280618
 31
0.0
  0
LINE
  5
74E
330
26
100
AcDbEntity
  8
18
100
AcDbLine
 10
476.6893737381691
 20
-158.5974097280618
 30
0.0
 11
494.6893737381691
 21
-158.5974097280618
 31
0.0
  0
LINE
  5
74F
330
26
100
AcDbEntity
  8
18
100
AcDbLine
 10
476.6893737381691
 20
-133.0974097280618
 30
0.0
 11
494.6893737381691
 21
-133.0974097280618
 31
0.0
  0
LINE
  5
750
330
26
100
AcDbEntity
  8
18
100
AcDbLine
 10
476.6893737381691
 20
-158.5974097280618
 30
0.0
 11
476.6893737381691
 21
-133.0974097280618
 31
0.0
  0
LINE
  5
751
330
26
100
AcDbEntity
  8
18
100
AcDbLine
 10
494.6893737381691
 20
-158.5974097280618
 30
0.0
 11
494.6893737381691
 21
-133.0974097280618
 31
0.0
  0
CIRCLE
  5
752
330
26
100
AcDbEntity
  8
18
100
AcDbCircle
 10
485.6893737381691
 20
-148.0974097280618
 30
0.0
 40
3.6
  0
LINE
  5
753
330
26
100
AcDbEntity
  8
18
100
AcDbLine
 10
469.1893737381691
 20
-142.0974097280618
 30
0.0
 11
469.1893737381691
 21
-154.0974097280618
 31
0.0
  0
LINE
  5
754
330
26
100
AcDbEntity
  8
18
  6
CENTER
 62
     2
100
AcDbLine
 10
497.617166738169
 20
-140.0974097280618
 30
0.0
 11
511.4241777381691
 21
-140.0974097280618
 31
0.0
  0
LINE
  5
755
330
26
100
AcDbEntity
  8
18
100
AcDbLine
 10
469.1893737381691
 20
-142.0974097280618
 30
0.0
 11
475.189373738169
 21
-142.0974097280618
 31
0.0
  0
LINE
  5
756
330
26
100
AcDbEntity
  8
18
100
AcDbLine
 10
499.189373738169
 20
-154.0974097280618
 30
0.0
 11
502.1893737381691
 21
-154.0974097280618
 31
0.0
  0
LINE
  5
757
330
26
100
AcDbEntity
  8
18
100
AcDbLine
 10
469.1893737381691
 20
-154.0974097280618
 30
0.0
 11
475.189373738169
 21
-154.0974097280618
 31
0.0
  0
LINE
  5
758
330
26
100
AcDbEntity
  8
18
  6
DASHED
100
AcDbLine
 10
475.189373738169
 20
-154.0974097280618
 30
0.0
 11
499.189373738169
 21
-154.0974097280618
 31
0.0
  0
LINE
  5
759
330
26
100
AcDbEntity
  8
18
100
AcDbLine
 10
502.1893737381691
 20
-147.4682307280616
 30
0.0
 11
502.1893737381691
 21
-154.0974097280618
 31
0.0
  0
LINE
  5
75A
330
26
100
AcDbEntity
  8
18
  6
DASHED
100
AcDbLine
 10
475.189373738169
 20
-142.0974097280618
 30
0.0
 11
499.189373738169
 21
-142.0974097280618
 31
0.0
  0
LINE
  5
75B
330
26
100
AcDbEntity
  8
18
  6
DASHED
100
AcDbLine
 10
499.189373738169
 20
-142.0974097280618
 30
0.0
 11
501.784833738169
 21
-142.0974097280618
 31
0.0
  0
LINE
  5
75C
330
26
100
AcDbEntity
  8
18
  6
DASHED
100
AcDbLine
 10
501.784833738169
 20
-142.0974097280618
 30
0.0
 11
502.1893737381691
 21
-142.0974097280618
 31
0.0
  0
LINE
  5
75D
330
26
100
AcDbEntity
  8
18
100
AcDbLine
 10
499.189373738169
 20
-135.2996907280618
 30
0.0
 11
503.6893737381688
 21
-137.3980757280617
 31
0.0
  0
LINE
  5
75E
330
26
100
AcDbEntity
  8
18
100
AcDbLine
 10
499.189373738169
 20
-144.8947707280618
 30
0.0
 11
503.6893737381688
 21
-142.7963867280618
 31
0.0
  0
LINE
  5
75F
330
26
100
AcDbEntity
  8
18
100
AcDbLine
 10
503.6893737381688
 20
-140.0972307280618
 30
0.0
 11
503.6893737381688
 21
-145.9680517280617
 31
0.0
  0
LINE
  5
760
330
26
100
AcDbEntity
  8
18
100
AcDbLine
 10
505.189373738169
 20
-140.0972307280618
 30
0.0
 11
505.189373738169
 21
-145.9680517280617
 31
0.0
  0
LINE
  5
761
330
26
100
AcDbEntity
  8
18
100
AcDbLine
 10
418.879166738169
 20
-166.0009357280617
 30
0.0
 11
413.0083457381688
 21
-166.0009357280617
 31
0.0
  0
LINE
  5
762
330
26
100
AcDbEntity
  8
18
100
AcDbLine
 10
413.0083457381688
 20
-166.0009357280617
 30
0.0
 11
413.0083457381688
 21
-167.5009357280617
 31
0.0
  0
LINE
  5
763
330
26
100
AcDbEntity
  8
18
100
AcDbLine
 10
418.879166738169
 20
-167.5009357280617
 30
0.0
 11
413.0083457381688
 21
-167.5009357280617
 31
0.0
  0
LINE
  5
764
330
26
100
AcDbEntity
  8
18
100
AcDbLine
 10
424.749987738169
 20
-166.0009357280617
 30
0.0
 11
424.749987738169
 21
-167.5009357280617
 31
0.0
  0
LINE
  5
765
330
26
100
AcDbEntity
  8
18
100
AcDbLine
 10
414.0816267381691
 20
-161.5009357280617
 30
0.0
 11
416.180010738169
 21
-166.0009357280617
 31
0.0
  0
LINE
  5
766
330
26
100
AcDbEntity
  8
18
100
AcDbLine
 10
423.6767067381689
 20
-161.5009357280617
 30
0.0
 11
421.5783217381688
 21
-166.0009357280617
 31
0.0
  0
LINE
  5
767
330
26
100
AcDbEntity
  8
18
100
AcDbLine
 10
418.879166738169
 20
-166.0009357280617
 30
0.0
 11
424.749987738169
 21
-166.0009357280617
 31
0.0
  0
LINE
  5
768
330
26
100
AcDbEntity
  8
18
100
AcDbLine
 10
418.879166738169
 20
-167.5009357280617
 30
0.0
 11
424.749987738169
 21
-167.5009357280617
 31
0.0
  0
LINE
  5
769
330
26
100
AcDbEntity
  8
18
  6
DASHED
100
AcDbLine
 10
502.1893737381691
 20
-142.0974097280618
 30
0.0
 11
502.1893737381691
 21
-143.4958477280617
 31
0.0
  0
LINE
  5
76A
330
26
100
AcDbEntity
  8
18
100
AcDbLine
 10
502.1893737381691
 20
-142.9958477280617
 30
0.0
 11
502.1893737381691
 21
-143.0320827280618
 31
0.0
  0
LINE
  5
76B
330
26
100
AcDbEntity
  8
18
100
AcDbLine
 10
502.1893737381691
 20
-143.4958477280617
 30
0.0
 11
502.1893737381691
 21
-147.8743417280617
 31
0.0
  0
TEXT
  5
76C
330
26
100
AcDbEntity
  8
Defpoint
 62
     5
100
AcDbText
 10
367.650238
 20
-399.871262
 30
0.0
 40
9.0
  1
１
 41
1.499999999999997
 72
     5
 11
374.850238
 21
-399.871262
 31
0.0
100
AcDbText
  0
TEXT
  5
76D
330
26
100
AcDbEntity
  8
Defpoint
 62
     5
100
AcDbText
 10
379.338043
 20
-410.8365779999998
 30
0.0
 40
9.0
  1
３
 72
     5
 11
386.538043
 21
-410.8365779999998
 31
0.0
100
AcDbText
  0
TEXT
  5
76E
330
26
100
AcDbEntity
  8
18
100
AcDbText
 10
386.358719738169
 20
-205.4263817280618
 30
0.0
 40
7.5
  1
ＡＣＴＵＡＴＯＲ　ＰＯＳＩＴＩＯＮ
 41
0.8372093023255818
 72
     5
 11
512.358719738169
 21
-205.4263817280618
 31
0.0
100
AcDbText
  0
TEXT
  5
76F
330
26
100
AcDbEntity
  8
18
100
AcDbText
 10
404.774551738169
 20
-191.2918407280618
 30
0.0
 40
9.0
  1
Ａ
 41
0.9230769230769215
 72
     5
 11
411.974551738169
 21
-191.2918407280618
 31
0.0
100
AcDbText
  0
TEXT
  5
770
330
26
100
AcDbEntity
  8
18
100
AcDbText
 10
479.7387087381689
 20
-191.5323047280617
 30
0.0
 40
9.0
  1
Ｂ
 72
     5
 11
486.938708738169
 21
-191.5323047280617
 31
0.0
100
AcDbText
  0
TEXT
  5
772
330
26
100
AcDbEntity
  8
18
100
AcDbText
 10
382.2997968834513
 20
-377.0253919127181
 30
0.0
 40
12.0
  1
７３１Ｐ－４ＩＡＳ　６５Ａ
 41
0.6288209606986901
 72
     5
 11
497.4997968834513
 21
-377.0253919127181
 31
0.0
100
AcDbText
  0
TEXT
  5
773
330
26
100
AcDbEntity
  8
18
100
AcDbText
 10
543.1469419999998
 20
-381.253784
 30
0.0
 40
6.75
  1
′０３．１１．１１
 41
0.6947368421052611
 72
     5
 11
590.6669419999997
 21
-381.253784
 31
0.0
100
AcDbText
  0
TEXT
  5
774
330
26
100
AcDbEntity
  8
18
100
AcDbText
 10
460.8
 20
-408.0
 30
0.0
 40
15.0
  1
Ｄ３－０３３４８
 41
0.8478260869565195
 72
     5
 11
577.7999999999997
 21
-408.0
 31
0.0
100
AcDbText
  0
LINE
  5
775
330
26
100
AcDbEntity
  8
20
 62
     3
100
AcDbLine
 10
-540.0
 20
-415.5
 30
0.0
 11
600.0
 21
-415.5
 31
0.0
  0
LINE
  5
776
330
26
100
AcDbEntity
  8
20
 62
     3
100
AcDbLine
 10
-540.0
 20
396.0
 30
0.0
 11
600.0
 21
396.0
 31
0.0
  0
LINE
  5
777
330
26
100
AcDbEntity
  8
20
 62
     3
100
AcDbLine
 10
-540.0
 20
396.0
 30
0.0
 11
-540.0
 21
-415.5
 31
0.0
  0
LINE
  5
778
330
26
100
AcDbEntity
  8
20
 62
     3
100
AcDbLine
 10
600.0
 20
396.0
 30
0.0
 11
600.0
 21
-415.5
 31
0.0
  0
LINE
  5
779
330
26
100
AcDbEntity
  8
20
 62
     3
100
AcDbLine
 10
180.0
 20
-415.5
 30
0.0
 11
180.0
 21
-355.5
 31
0.0
  0
LINE
  5
77A
330
26
100
AcDbEntity
  8
20
 62
     3
100
AcDbLine
 10
321.0
 20
-415.5
 30
0.0
 11
321.0
 21
-355.5
 31
0.0
  0
LINE
  5
77B
330
26
100
AcDbEntity
  8
20
100
AcDbLine
 10
321.0
 20
-385.5
 30
0.0
 11
600.0
 21
-385.5
 31
0.0
  0
LINE
  5
77C
330
26
100
AcDbEntity
  8
20
 62
     3
100
AcDbLine
 10
180.0
 20
-355.5
 30
0.0
 11
600.0
 21
-355.5
 31
0.0
  0
LINE
  5
77D
330
26
100
AcDbEntity
  8
20
100
AcDbLine
 10
540.0
 20
-385.5
 30
0.0
 11
540.0
 21
-355.5
 31
0.0
  0
LINE
  5
77E
330
26
100
AcDbEntity
  8
20
100
AcDbLine
 10
540.0
 20
-370.5
 30
0.0
 11
600.0
 21
-370.5
 31
0.0
  0
LINE
  5
77F
330
26
100
AcDbEntity
  8
20
100
AcDbLine
 10
363.0
 20
-415.5
 30
0.0
 11
363.0
 21
-355.5
 31
0.0
  0
LINE
  5
780
330
26
100
AcDbEntity
  8
20
100
AcDbLine
 10
393.0
 20
-415.5
 30
0.0
 11
393.0
 21
-385.5
 31
0.0
  0
LINE
  5
781
330
26
100
AcDbEntity
  8
20
100
AcDbLine
 10
453.0
 20
-415.5
 30
0.0
 11
453.0
 21
-385.5
 31
0.0
  0
LINE
  5
782
330
26
100
AcDbEntity
  8
20
100
AcDbLine
 10
371.185244
 20
-407.3147559999998
 30
0.0
 11
383.694872
 21
-394.8051279999999
 31
0.0
  0
TEXT
  5
783
330
26
100
AcDbEntity
  8
20
100
AcDbText
 10
394.599987
 20
-397.490753
 30
0.0
 40
5.4
  1
ＤＲＡＷＩＮＧ　ＮＯ．
 41
0.8804347826086956
 72
     5
 11
452.919987
 21
-397.490753
 31
0.0
100
AcDbText
  0
TEXT
  5
784
330
26
100
AcDbEntity
  8
20
100
AcDbText
 10
400.4999999999998
 20
-409.4999999999997
 30
0.0
 40
9.0
  1
図　　　番
 41
0.8372093023255844
 72
     5
 11
443.7
 21
-409.4999999999997
 31
0.0
100
AcDbText
  0
TEXT
  5
785
330
26
100
AcDbEntity
  8
20
100
AcDbText
 10
558.0
 20
-366.0
 30
0.0
 40
6.0
  1
ＤＡＴＥ
 41
0.8769230769230665
 72
     5
 11
580.7999999999997
 21
-366.0
 31
0.0
100
AcDbText
  0
TEXT
  5
786
330
26
100
AcDbEntity
  8
20
100
AcDbText
 10
327.003213
 20
-398.883087
 30
0.0
 40
6.0
  1
ＳＣＡＬＥ
 41
0.8674698795180708
 72
     5
 11
355.803213
 21
-398.883087
 31
0.0
100
AcDbText
  0
TEXT
  5
787
330
26
100
AcDbEntity
  8
20
100
AcDbText
 10
324.0
 20
-409.4999999999997
 30
0.0
 40
9.0
  1
尺　　度
 41
0.8382352941176469
 72
     5
 11
358.2
 21
-409.4999999999997
 31
0.0
100
AcDbText
  0
TEXT
  5
788
330
26
100
AcDbEntity
  8
20
100
AcDbText
 10
322.503213
 20
-367.487654
 30
0.0
 40
6.0
  1
ＦＩＧ．ＮＯ．
 41
0.9107142857142845
 72
     5
 11
363.303213
 21
-367.487654
 31
0.0
100
AcDbText
  0
TEXT
  5
789
330
26
100
AcDbEntity
  8
20
100
AcDbText
 10
324.0
 20
-379.5
 30
0.0
 40
9.0
  1
名　　称
 41
0.8382352941176467
 72
     5
 11
358.2
 21
-379.5
 31
0.0
100
AcDbText
  0
TEXT
  5
78A
330
26
100
AcDbEntity
  8
20
100
AcDbText
 10
181.696575
 20
-379.410759
 30
0.0
 40
6.9
  1
ＴＯＭＯＥ　ＶＡＬＶＥ　ＣＯ．，ＬＴＤ．
 41
0.858381502890173
 72
     5
 11
318.316575
 21
-379.410759
 31
0.0
100
AcDbText
  0
TEXT
  5
78B
330
26
100
AcDbEntity
  8
20
100
AcDbText
 10
202.5
 20
-399.869431
 30
0.0
 40
12.0
  1
巴バルブ株式会社
 41
0.8357142857142855
 72
     5
 11
296.1
 21
-399.869431
 31
0.0
100
AcDbText
  0
TEXT
  5
8EE
330
26
100
AcDbEntity
  8
5
100
AcDbText
 10
411.0010944732086
 20
-334.5761191340432
 30
0.0
 40
14.4
  1
JIS 10K/16K/ANSI 
 41
0.75
 72
     4
 11
490.3810944732085
 21
-327.3761191340432
 31
0.0
100
AcDbText
  0
LINE
  5
8EF
330
26
100
AcDbEntity
  8
0
  6
Continuous
100
AcDbLine
 10
395.106282783842
 20
-311.3761191340432
 30
0.0
 11
575.6645944709942
 21
-311.3761191340432
 31
0.0
  0
LINE
  5
8F0
330
26
100
AcDbEntity
  8
0
  6
Continuous
100
AcDbLine
 10
395.106282783842
 20
-343.3761191340432
 30
0.0
 11
575.6645944709942
 21
-343.3761191340432
 31
0.0
  0
LINE
  5
8F1
330
26
100
AcDbEntity
  8
0
  6
Continuous
100
AcDbLine
 10
395.106282783842
 20
-311.3761191340432
 30
0.0
 11
395.106282783842
 21
-343.3761191340432
 31
0.0
  0
LINE
  5
8F2
330
26
100
AcDbEntity
  8
0
  6
Continuous
100
AcDbLine
 10
575.6645944709942
 20
-311.3761191340432
 30
0.0
 11
575.6645944709942
 21
-343.3761191340432
 31
0.0
  0
ENDSEC
  0
SECTION
  2
OBJECTS
  0
DICTIONARY
  5
7EA
330
0
100
AcDbDictionary
281
     1
  3
ACAD_COLOR
350
8A5
  3
ACAD_GROUP
350
7EB
  3
ACAD_LAYOUT
350
8CD
  3
ACAD_MATERIAL
350
87B
  3
ACAD_MLEADERSTYLE
350
8CA
  3
ACAD_MLINESTYLE
350
7EC
  3
ACAD_PLOTSETTINGS
350
8CE
  3
ACAD_PLOTSTYLENAME
350
879
  3
ACAD_SCALELIST
350
8A8
  3
ACAD_TABLESTYLE
350
8A6
  3
ACAD_VISUALSTYLE
350
894
  3
ACDB_RECOMPOSE_DATA
350
908
  3
AcDbVariableDictionary
350
8FF
  3
DWGPROPS
350
93A
  0
DICTIONARY
  5
919
330
1
100
AcDbDictionary
280
     1
281
     1
  3
ACAD_LAYERFILTERS
360
91D
  3
ACLYDICTIONARY
360
91C
  0
DICTIONARY
  5
8F3
330
15
100
AcDbDictionary
280
     1
281
     1
  3
ADSK_XREC_LAYER_RECONCILED
360
8F4
  0
DICTIONARY
  5
8F5
330
16
100
AcDbDictionary
280
     1
281
     1
  3
ADSK_XREC_LAYER_RECONCILED
360
8F6
  0
DICTIONARY
  5
8F7
330
17
100
AcDbDictionary
280
     1
281
     1
  3
ADSK_XREC_LAYER_RECONCILED
360
8F8
  0
DICTIONARY
  5
8F9
330
18
100
AcDbDictionary
280
     1
281
     1
  3
ADSK_XREC_LAYER_RECONCILED
360
8FA
  0
DICTIONARY
  5
8FB
330
19
100
AcDbDictionary
280
     1
281
     1
  3
ADSK_XREC_LAYER_RECONCILED
360
8FC
  0
DICTIONARY
  5
8FD
330
1A
100
AcDbDictionary
280
     1
281
     1
  3
ADSK_XREC_LAYER_RECONCILED
360
8FE
  0
DICTIONARY
  5
8A5
102
{ACAD_REACTORS
330
7EA
102
}
330
7EA
100
AcDbDictionary
281
     1
  0
DICTIONARY
  5
7EB
102
{ACAD_REACTORS
330
7EA
102
}
330
7EA
100
AcDbDictionary
281
     1
  0
DICTIONARY
  5
8CD
102
{ACAD_REACTORS
330
7EA
102
}
330
7EA
100
AcDbDictionary
281
     1
  3
Model
350
8CF
  3
レイアウト1
350
8D0
  0
DICTIONARY
  5
87B
102
{ACAD_REACTORS
330
7EA
102
}
330
7EA
100
AcDbDictionary
281
     1
  3
ByBlock
350
884
  3
ByLayer
350
87C
  3
Global
350
88C
  0
DICTIONARY
  5
8CA
102
{ACAD_REACTORS
330
7EA
102
}
330
7EA
100
AcDbDictionary
281
     1
  3
Standard
350
8CB
  0
DICTIONARY
  5
7EC
102
{ACAD_REACTORS
330
7EA
102
}
330
7EA
100
AcDbDictionary
281
     1
  3
STANDARD
350
7ED
  0
DICTIONARY
  5
8CE
102
{ACAD_REACTORS
330
7EA
102
}
330
7EA
100
AcDbDictionary
281
     1
  0
ACDBDICTIONARYWDFLT
  5
879
102
{ACAD_REACTORS
330
7EA
102
}
330
7EA
100
AcDbDictionary
281
     1
  3
Normal
350
87A
100
AcDbDictionaryWithDefault
340
87A
  0
DICTIONARY
  5
8A8
102
{ACAD_REACTORS
330
7EA
102
}
330
7EA
100
AcDbDictionary
281
     1
  3
A0
350
8A9
  3
A1
350
8AA
  3
A2
350
8AB
  3
A3
350
8AC
  3
A4
350
8AD
  3
A5
350
8AE
  3
A6
350
8AF
  3
A7
350
8B0
  3
A8
350
8B1
  3
A9
350
8B2
  3
B0
350
8B3
  3
B1
350
8B4
  3
B2
350
8B5
  3
B3
350
8B6
  3
B4
350
8B7
  3
B5
350
8B8
  3
B6
350
8B9
  3
B7
350
8BA
  3
B8
350
8BB
  3
B9
350
8BC
  3
C0
350
8BD
  3
C1
350
8BE
  3
C2
350
8BF
  3
C3
350
8C0
  3
C4
350
8C1
  3
C5
350
8C2
  3
C6
350
8C3
  3
C7
350
8C4
  3
C8
350
8C5
  3
C9
350
8C6
  3
D0
350
8C7
  3
D1
350
8C8
  3
D2
350
8C9
  0
DICTIONARY
  5
8A6
102
{ACAD_REACTORS
330
7EA
102
}
330
7EA
100
AcDbDictionary
281
     1
  3
Standard
350
8A7
  0
DICTIONARY
  5
894
102
{ACAD_REACTORS
330
7EA
102
}
330
7EA
100
AcDbDictionary
281
     1
  3
2dWireframe
350
89A
  3
3D Hidden
350
89C
  3
3dWireframe
350
89B
  3
Basic
350
899
  3
Brighten
350
8A0
  3
ColorChange
350
8A4
  3
Conceptual
350
89D
  3
Dim
350
89F
  3
Facepattern
350
8A3
  3
Flat
350
895
  3
FlatWithEdges
350
896
  3
Gouraud
350
897
  3
GouraudWithEdges
350
898
  3
Linepattern
350
8A2
  3
Realistic
350
89E
  3
Thicken
350
8A1
  0
XRECORD
  5
908
102
{ACAD_REACTORS
330
7EA
102
}
330
7EA
100
AcDbXrecord
280
     1
 90
        1
330
8A7
  0
DICTIONARY
  5
8FF
102
{ACAD_REACTORS
330
7EA
102
}
330
7EA
100
AcDbDictionary
281
     1
  3
CANNOSCALE
350
902
  3
CMLEADERSTYLE
350
901
  3
CTABLESTYLE
350
900
  3
DIMASSOC
350
905
  3
INDEXCTL
350
904
  3
SORTENTS
350
903
  0
XRECORD
  5
93A
102
{ACAD_REACTORS
330
7EA
102
}
330
7EA
100
AcDbXrecord
280
     1
  1
DWGPROPS COOKIE
  2

  3

  4

  6

  7

  8
miyazaki-tomoko
  9

300
=
301
=
302
=
303
=
304
=
305
=
306
=
307
=
308
=
309
=
 40
0.0087444791666667
 41
2451045.0
 42
2455474.382543507
  1

 90
        0
  0
DICTIONARY
  5
91D
102
{ACAD_REACTORS
330
919
102
}
330
919
100
AcDbDictionary
281
     1
  0
DICTIONARY
  5
91C
102
{ACAD_REACTORS
330
919
102
}
330
919
100
AcDbDictionary
281
     1
1001
ACAD
1000
<All
  0
XRECORD
  5
8F4
102
{ACAD_REACTORS
330
8F3
102
}
330
8F3
100
AcDbXrecord
280
     1
290
     1
  0
XRECORD
  5
8F6
102
{ACAD_REACTORS
330
8F5
102
}
330
8F5
100
AcDbXrecord
280
     1
290
     1
  0
XRECORD
  5
8F8
102
{ACAD_REACTORS
330
8F7
102
}
330
8F7
100
AcDbXrecord
280
     1
290
     1
  0
XRECORD
  5
8FA
102
{ACAD_REACTORS
330
8F9
102
}
330
8F9
100
AcDbXrecord
280
     1
290
     1
  0
XRECORD
  5
8FC
102
{ACAD_REACTORS
330
8FB
102
}
330
8FB
100
AcDbXrecord
280
     1
290
     1
  0
XRECORD
  5
8FE
102
{ACAD_REACTORS
330
8FD
102
}
330
8FD
100
AcDbXrecord
280
     1
290
     1
  0
LAYOUT
  5
8CF
102
{ACAD_XDICTIONARY
360
93C
102
}
102
{ACAD_REACTORS
330
8CD
102
}
330
8CD
100
AcDbPlotSettings
  1

  2
EMP01.pc3
  4
A4
  6

 40
5.873749732971191
 41
5.873747825622557
 42
5.873748779296875
 43
5.873748779296875
 44
296.9259948730469
 45
209.9733276367186
 46
3.357002005432035
 47
0.0
 48
0.0
 49
0.0
140
0.0
141
0.0
142
1.0
143
4.094260605404793
 70
 11956
 72
     1
 73
     0
 74
     1
  7
monochrome.ctb
 75
     0
147
0.2442443450424015
148
540.0604217663181
149
415.5489328271346
100
AcDbLayout
  1
Model
 70
     1
 71
     0
 10
0.0
 20
0.0
 11
12.0
 21
9.0
 12
0.0
 22
0.0
 32
0.0
 14
0.0
 24
0.0
 34
0.0
 15
0.0
 25
0.0
 35
0.0
146
0.0
 13
0.0
 23
0.0
 33
0.0
 16
1.0
 26
0.0
 36
0.0
 17
0.0
 27
1.0
 37
0.0
 76
     0
330
26
331
1B
1001
ACAD_PSEXT
1000
EMP01.pc3
1000
RICOH imagio MP C4500 RPCS
1000
エンジニアリングセンター
1000

1070
     0
  0
LAYOUT
  5
8D0
102
{ACAD_XDICTIONARY
360
93E
102
}
102
{ACAD_REACTORS
330
8CD
102
}
330
8CD
100
AcDbPlotSettings
  1

  2
Adobe PDF
  4

  6

 40
0.0
 41
0.0
 42
0.0
 43
0.0
 44
0.0
 45
0.0
 46
0.0
 47
0.0
 48
0.0
 49
0.0
140
0.0
141
0.0
142
1.0
143
1.0
 70
   688
 72
     0
 73
     0
 74
     5
  7
monochrome.ctb
 75
    16
147
1.0
148
0.0
149
0.0
100
AcDbLayout
  1
レイアウト1
 70
     0
 71
     1
 10
0.0
 20
0.0
 11
12.0
 21
9.0
 12
0.0
 22
0.0
 32
0.0
 14
1.000000000000000E+20
 24
1.000000000000000E+20
 34
1.000000000000000E+20
 15
-1.000000000000000E+20
 25
-1.000000000000000E+20
 35
-1.000000000000000E+20
146
0.0
 13
0.0
 23
0.0
 33
0.0
 16
1.0
 26
0.0
 36
0.0
 17
0.0
 27
1.0
 37
0.0
 76
     0
330
27
  0
MATERIAL
  5
884
102
{ACAD_XDICTIONARY
360
885
102
}
102
{ACAD_REACTORS
330
87B
102
}
330
87B
100
AcDbMaterial
  1
ByBlock
 72
     0
 43
0.0208333333333333
 43
0.0
 43
0.0
 43
0.0
 43
0.0
 43
0.0208333333333333
 43
0.0
 43
0.0
 43
0.0
 43
0.0
 43
1.0
 43
0.0
 43
0.0
 43
0.0
 43
0.0
 43
1.0
 77
     0
 47
0.0208333333333333
 47
0.0
 47
0.0
 47
0.0
 47
0.0
 47
0.0208333333333333
 47
0.0
 47
0.0
 47
0.0
 47
0.0
 47
1.0
 47
0.0
 47
0.0
 47
0.0
 47
0.0
 47
1.0
171
     0
 49
0.0208333333333333
 49
0.0
 49
0.0
 49
0.0
 49
0.0
 49
0.0208333333333333
 49
0.0
 49
0.0
 49
0.0
 49
0.0
 49
1.0
 49
0.0
 49
0.0
 49
0.0
 49
0.0
 49
1.0
175
     0
142
0.0208333333333333
142
0.0
142
0.0
142
0.0
142
0.0
142
0.0208333333333333
142
0.0
142
0.0
142
0.0
142
0.0
142
1.0
142
0.0
142
0.0
142
0.0
142
0.0
142
1.0
179
     0
144
0.0208333333333333
144
0.0
144
0.0
144
0.0
144
0.0
144
0.0208333333333333
144
0.0
144
0.0
144
0.0
144
0.0
144
1.0
144
0.0
144
0.0
144
0.0
144
0.0
144
1.0
147
0.0208333333333333
147
0.0
147
0.0
147
0.0
147
0.0
147
0.0208333333333333
147
0.0
147
0.0
147
0.0
147
0.0
147
1.0
147
0.0
147
0.0
147
0.0
147
0.0
147
1.0
  0
MATERIAL
  5
87C
102
{ACAD_XDICTIONARY
360
87D
102
}
102
{ACAD_REACTORS
330
87B
102
}
330
87B
100
AcDbMaterial
  1
ByLayer
 72
     0
 43
0.0208333333333333
 43
0.0
 43
0.0
 43
0.0
 43
0.0
 43
0.0208333333333333
 43
0.0
 43
0.0
 43
0.0
 43
0.0
 43
1.0
 43
0.0
 43
0.0
 43
0.0
 43
0.0
 43
1.0
 77
     0
 47
0.0208333333333333
 47
0.0
 47
0.0
 47
0.0
 47
0.0
 47
0.0208333333333333
 47
0.0
 47
0.0
 47
0.0
 47
0.0
 47
1.0
 47
0.0
 47
0.0
 47
0.0
 47
0.0
 47
1.0
171
     0
 49
0.0208333333333333
 49
0.0
 49
0.0
 49
0.0
 49
0.0
 49
0.0208333333333333
 49
0.0
 49
0.0
 49
0.0
 49
0.0
 49
1.0
 49
0.0
 49
0.0
 49
0.0
 49
0.0
 49
1.0
175
     0
142
0.0208333333333333
142
0.0
142
0.0
142
0.0
142
0.0
142
0.0208333333333333
142
0.0
142
0.0
142
0.0
142
0.0
142
1.0
142
0.0
142
0.0
142
0.0
142
0.0
142
1.0
179
     0
144
0.0208333333333333
144
0.0
144
0.0
144
0.0
144
0.0
144
0.0208333333333333
144
0.0
144
0.0
144
0.0
144
0.0
144
1.0
144
0.0
144
0.0
144
0.0
144
0.0
144
1.0
147
0.0208333333333333
147
0.0
147
0.0
147
0.0
147
0.0
147
0.0208333333333333
147
0.0
147
0.0
147
0.0
147
0.0
147
1.0
147
0.0
147
0.0
147
0.0
147
0.0
147
1.0
  0
MATERIAL
  5
88C
102
{ACAD_XDICTIONARY
360
88D
102
}
102
{ACAD_REACTORS
330
87B
102
}
330
87B
100
AcDbMaterial
  1
Global
 72
     0
 43
0.0208333333333333
 43
0.0
 43
0.0
 43
0.0
 43
0.0
 43
0.0208333333333333
 43
0.0
 43
0.0
 43
0.0
 43
0.0
 43
1.0
 43
0.0
 43
0.0
 43
0.0
 43
0.0
 43
1.0
 77
     0
 47
0.0208333333333333
 47
0.0
 47
0.0
 47
0.0
 47
0.0
 47
0.0208333333333333
 47
0.0
 47
0.0
 47
0.0
 47
0.0
 47
1.0
 47
0.0
 47
0.0
 47
0.0
 47
0.0
 47
1.0
171
     0
 49
0.0208333333333333
 49
0.0
 49
0.0
 49
0.0
 49
0.0
 49
0.0208333333333333
 49
0.0
 49
0.0
 49
0.0
 49
0.0
 49
1.0
 49
0.0
 49
0.0
 49
0.0
 49
0.0
 49
1.0
175
     0
142
0.0208333333333333
142
0.0
142
0.0
142
0.0
142
0.0
142
0.0208333333333333
142
0.0
142
0.0
142
0.0
142
0.0
142
1.0
142
0.0
142
0.0
142
0.0
142
0.0
142
1.0
179
     0
144
0.0208333333333333
144
0.0
144
0.0
144
0.0
144
0.0
144
0.0208333333333333
144
0.0
144
0.0
144
0.0
144
0.0
144
1.0
144
0.0
144
0.0
144
0.0
144
0.0
144
1.0
147
0.0208333333333333
147
0.0
147
0.0
147
0.0
147
0.0
147
0.0208333333333333
147
0.0
147
0.0
147
0.0
147
0.0
147
1.0
147
0.0
147
0.0
147
0.0
147
0.0
147
1.0
  0
MLEADERSTYLE
  5
8CB
102
{ACAD_REACTORS
330
8CA
102
}
330
8CA
100
AcDbMLeaderStyle
170
     2
171
     1
172
     0
 90
        2
 40
0.0
 41
0.0
173
     1
 91
-1056964608
340
C
 92
       -2
290
     1
 42
0.09
291
     1
 43
0.36
  3
Standard
 44
0.18
300

342
1D
174
     1
178
     6
175
     1
176
     0
 93
-1056964608
 45
0.18
292
     0
297
     0
 46
0.18
 94
-1056964608
 47
1.0
 49
1.0
140
1.0
293
     1
141
0.0
294
     1
177
     0
142
1.0
295
     0
296
     0
143
0.125
1001
ACAD_MLEADERVER
1070
     2
  0
MLINESTYLE
  5
7ED
102
{ACAD_REACTORS
330
7EC
102
}
330
7EC
100
AcDbMlineStyle
  2
STANDARD
 70
     0
  3

 62
     0
 51
90.0
 52
90.0
 71
     2
 49
0.5
 62
   256
  6
BYLAYER
 49
-0.5
 62
   256
  6
BYLAYER
  0
ACDBPLACEHOLDER
  5
87A
102
{ACAD_REACTORS
330
879
102
}
330
879
  0
SCALE
  5
8A9
102
{ACAD_REACTORS
330
8A8
102
}
330
8A8
100
AcDbScale
 70
     0
300
1:1
140
1.0
141
1.0
290
     1
  0
SCALE
  5
8AA
102
{ACAD_REACTORS
330
8A8
102
}
330
8A8
100
AcDbScale
 70
     0
300
1:2
140
1.0
141
2.0
290
     0
  0
SCALE
  5
8AB
102
{ACAD_REACTORS
330
8A8
102
}
330
8A8
100
AcDbScale
 70
     0
300
1:4
140
1.0
141
4.0
290
     0
  0
SCALE
  5
8AC
102
{ACAD_REACTORS
330
8A8
102
}
330
8A8
100
AcDbScale
 70
     0
300
1:5
140
1.0
141
5.0
290
     0
  0
SCALE
  5
8AD
102
{ACAD_REACTORS
330
8A8
102
}
330
8A8
100
AcDbScale
 70
     0
300
1:8
140
1.0
141
8.0
290
     0
  0
SCALE
  5
8AE
102
{ACAD_REACTORS
330
8A8
102
}
330
8A8
100
AcDbScale
 70
     0
300
1:10
140
1.0
141
10.0
290
     0
  0
SCALE
  5
8AF
102
{ACAD_REACTORS
330
8A8
102
}
330
8A8
100
AcDbScale
 70
     0
300
1:16
140
1.0
141
16.0
290
     0
  0
SCALE
  5
8B0
102
{ACAD_REACTORS
330
8A8
102
}
330
8A8
100
AcDbScale
 70
     0
300
1:20
140
1.0
141
20.0
290
     0
  0
SCALE
  5
8B1
102
{ACAD_REACTORS
330
8A8
102
}
330
8A8
100
AcDbScale
 70
     0
300
1:30
140
1.0
141
30.0
290
     0
  0
SCALE
  5
8B2
102
{ACAD_REACTORS
330
8A8
102
}
330
8A8
100
AcDbScale
 70
     0
300
1:40
140
1.0
141
40.0
290
     0
  0
SCALE
  5
8B3
102
{ACAD_REACTORS
330
8A8
102
}
330
8A8
100
AcDbScale
 70
     0
300
1:50
140
1.0
141
50.0
290
     0
  0
SCALE
  5
8B4
102
{ACAD_REACTORS
330
8A8
102
}
330
8A8
100
AcDbScale
 70
     0
300
1:100
140
1.0
141
100.0
290
     0
  0
SCALE
  5
8B5
102
{ACAD_REACTORS
330
8A8
102
}
330
8A8
100
AcDbScale
 70
     0
300
2:1
140
2.0
141
1.0
290
     0
  0
SCALE
  5
8B6
102
{ACAD_REACTORS
330
8A8
102
}
330
8A8
100
AcDbScale
 70
     0
300
4:1
140
4.0
141
1.0
290
     0
  0
SCALE
  5
8B7
102
{ACAD_REACTORS
330
8A8
102
}
330
8A8
100
AcDbScale
 70
     0
300
8:1
140
8.0
141
1.0
290
     0
  0
SCALE
  5
8B8
102
{ACAD_REACTORS
330
8A8
102
}
330
8A8
100
AcDbScale
 70
     0
300
10:1
140
10.0
141
1.0
290
     0
  0
SCALE
  5
8B9
102
{ACAD_REACTORS
330
8A8
102
}
330
8A8
100
AcDbScale
 70
     0
300
100:1
140
100.0
141
1.0
290
     0
  0
SCALE
  5
8BA
102
{ACAD_REACTORS
330
8A8
102
}
330
8A8
100
AcDbScale
 70
     0
300
1/128" = 1'-0"
140
0.0078125
141
12.0
290
     0
  0
SCALE
  5
8BB
102
{ACAD_REACTORS
330
8A8
102
}
330
8A8
100
AcDbScale
 70
     0
300
1/64" = 1'-0"
140
0.015625
141
12.0
290
     0
  0
SCALE
  5
8BC
102
{ACAD_REACTORS
330
8A8
102
}
330
8A8
100
AcDbScale
 70
     0
300
1/32" = 1'-0"
140
0.03125
141
12.0
290
     0
  0
SCALE
  5
8BD
102
{ACAD_REACTORS
330
8A8
102
}
330
8A8
100
AcDbScale
 70
     0
300
1/16" = 1'-0"
140
0.0625
141
12.0
290
     0
  0
SCALE
  5
8BE
102
{ACAD_REACTORS
330
8A8
102
}
330
8A8
100
AcDbScale
 70
     0
300
3/32" = 1'-0"
140
0.09375
141
12.0
290
     0
  0
SCALE
  5
8BF
102
{ACAD_REACTORS
330
8A8
102
}
330
8A8
100
AcDbScale
 70
     0
300
1/8" = 1'-0"
140
0.125
141
12.0
290
     0
  0
SCALE
  5
8C0
102
{ACAD_REACTORS
330
8A8
102
}
330
8A8
100
AcDbScale
 70
     0
300
3/16" = 1'-0"
140
0.1875
141
12.0
290
     0
  0
SCALE
  5
8C1
102
{ACAD_REACTORS
330
8A8
102
}
330
8A8
100
AcDbScale
 70
     0
300
1/4" = 1'-0"
140
0.25
141
12.0
290
     0
  0
SCALE
  5
8C2
102
{ACAD_REACTORS
330
8A8
102
}
330
8A8
100
AcDbScale
 70
     0
300
3/8" = 1'-0"
140
0.375
141
12.0
290
     0
  0
SCALE
  5
8C3
102
{ACAD_REACTORS
330
8A8
102
}
330
8A8
100
AcDbScale
 70
     0
300
1/2" = 1'-0"
140
0.5
141
12.0
290
     0
  0
SCALE
  5
8C4
102
{ACAD_REACTORS
330
8A8
102
}
330
8A8
100
AcDbScale
 70
     0
300
3/4" = 1'-0"
140
0.75
141
12.0
290
     0
  0
SCALE
  5
8C5
102
{ACAD_REACTORS
330
8A8
102
}
330
8A8
100
AcDbScale
 70
     0
300
1" = 1'-0"
140
1.0
141
12.0
290
     0
  0
SCALE
  5
8C6
102
{ACAD_REACTORS
330
8A8
102
}
330
8A8
100
AcDbScale
 70
     0
300
1-1/2" = 1'-0"
140
1.5
141
12.0
290
     0
  0
SCALE
  5
8C7
102
{ACAD_REACTORS
330
8A8
102
}
330
8A8
100
AcDbScale
 70
     0
300
3" = 1'-0"
140
3.0
141
12.0
290
     0
  0
SCALE
  5
8C8
102
{ACAD_REACTORS
330
8A8
102
}
330
8A8
100
AcDbScale
 70
     0
300
6" = 1'-0"
140
6.0
141
12.0
290
     0
  0
SCALE
  5
8C9
102
{ACAD_REACTORS
330
8A8
102
}
330
8A8
100
AcDbScale
 70
     0
300
1'-0" = 1'-0"
140
12.0
141
12.0
290
     0
  0
TABLESTYLE
  5
8A7
102
{ACAD_XDICTIONARY
360
906
102
}
102
{ACAD_REACTORS
330
8A6
102
}
330
8A6
100
AcDbTableStyle
  3
Standard
 70
     0
 71
     0
 40
0.06
 41
0.06
280
     0
281
     0
  7
STANDARD
140
0.18
170
     2
 62
     0
 63
     7
283
     0
274
    -2
284
     1
 64
     0
275
    -2
285
     1
 65
     0
276
    -2
286
     1
 66
     0
277
    -2
287
     1
 67
     0
278
    -2
288
     1
 68
     0
279
    -2
289
     1
 69
     0
  7
STANDARD
140
0.25
170
     5
 62
     0
 63
     7
283
     0
274
    -2
284
     1
 64
     0
275
    -2
285
     1
 65
     0
276
    -2
286
     1
 66
     0
277
    -2
287
     1
 67
     0
278
    -2
288
     1
 68
     0
279
    -2
289
     1
 69
     0
  7
STANDARD
140
0.18
170
     5
 62
     0
 63
     7
283
     0
274
    -2
284
     1
 64
     0
275
    -2
285
     1
 65
     0
276
    -2
286
     1
 66
     0
277
    -2
287
     1
 67
     0
278
    -2
288
     1
 68
     0
279
    -2
289
     1
 69
     0
  0
VISUALSTYLE
  5
89A
102
{ACAD_REACTORS
330
894
102
}
330
894
100
AcDbVisualStyle
  2
2dWireframe
 70
     4
 71
     0
 72
     2
 73
     0
 90
        0
 40
-0.6
 41
-30.0
 62
     5
 63
     7
 74
     1
 91
        4
 64
     7
 65
   257
 75
     1
175
     1
 42
1.0
 92
        0
 66
   257
 43
1.0
 76
     1
 77
     6
 78
     2
 67
     7
 79
     5
170
     0
171
     0
290
     0
174
     0
 93
        1
 44
0.0
173
     0
291
     0
 45
0.0
1001
ACAD
1000
AcDbSavedByObjectVersion
1070
     0
1000
AcDbSavedByObjectVersion
1070
     0
1000
AcDbSavedByObjectVersion
1070
     0
  0
VISUALSTYLE
  5
89C
102
{ACAD_REACTORS
330
894
102
}
330
894
100
AcDbVisualStyle
  2
3D Hidden
 70
     6
 71
     1
 72
     2
 73
     2
 90
        0
 40
-0.6
 41
-30.0
 62
     5
 63
     7
 74
     2
 91
        2
 64
     7
 65
   257
 75
     2
175
     1
 42
40.0
 92
        0
 66
   257
 43
1.0
 76
     1
 77
     6
 78
     2
 67
     7
 79
     3
170
     0
171
     0
290
     0
174
     0
 93
        1
 44
0.0
173
     0
291
     0
 45
0.0
1001
ACAD
1000
AcDbSavedByObjectVersion
1070
     0
1000
AcDbSavedByObjectVersion
1070
     0
1000
AcDbSavedByObjectVersion
1070
     0
  0
VISUALSTYLE
  5
89B
102
{ACAD_REACTORS
330
894
102
}
330
894
100
AcDbVisualStyle
  2
3dWireframe
 70
     5
 71
     0
 72
     2
 73
     0
 90
        0
 40
-0.6
 41
-30.0
 62
     5
 63
     7
 74
     1
 91
        4
 64
     7
 65
   257
 75
     1
175
     1
 42
1.0
 92
        0
 66
   257
 43
1.0
 76
     1
 77
     6
 78
     2
 67
     7
 79
     5
170
     0
171
     0
290
     0
174
     0
 93
        1
 44
0.0
173
     0
291
     0
 45
0.0
1001
ACAD
1000
AcDbSavedByObjectVersion
1070
     0
1000
AcDbSavedByObjectVersion
1070
     0
1000
AcDbSavedByObjectVersion
1070
     0
  0
VISUALSTYLE
  5
899
102
{ACAD_REACTORS
330
894
102
}
330
894
100
AcDbVisualStyle
  2
Basic
 70
     7
 71
     1
 72
     0
 73
     1
 90
        0
 40
-0.6
 41
-30.0
 62
     5
 63
     7
 74
     0
 91
        4
 64
     7
 65
   257
 75
     1
175
     1
 42
1.0
 92
        8
 66
     7
 43
1.0
 76
     1
 77
     6
 78
     2
 67
     7
 79
     5
170
     0
171
     0
290
     0
174
     0
 93
        1
 44
0.0
173
     0
291
     1
 45
0.0
1001
ACAD
1000
AcDbSavedByObjectVersion
1070
     0
1000
AcDbSavedByObjectVersion
1070
     0
1000
AcDbSavedByObjectVersion
1070
     0
  0
VISUALSTYLE
  5
8A0
102
{ACAD_REACTORS
330
894
102
}
330
894
100
AcDbVisualStyle
  2
Brighten
 70
    12
 71
     2
 72
     2
 73
     0
 90
        0
 40
-0.6
 41
-30.0
 62
     5
 63
     7
 74
     1
 91
        4
 64
     7
 65
   257
 75
     1
175
     1
 42
1.0
 92
        8
 66
     7
 43
1.0
 76
     1
 77
     6
 78
     2
 67
     7
 79
     5
170
     0
171
     0
290
     0
174
     0
 93
        1
 44
50.0
173
     0
291
     1
 45
0.0
1001
ACAD
1000
AcDbSavedByObjectVersion
1070
     0
1000
AcDbSavedByObjectVersion
1070
     0
1000
AcDbSavedByObjectVersion
1070
     0
  0
VISUALSTYLE
  5
8A4
102
{ACAD_REACTORS
330
894
102
}
330
894
100
AcDbVisualStyle
  2
ColorChange
 70
    16
 71
     2
 72
     2
 73
     3
 90
        0
 40
-0.6
 41
-30.0
 62
     5
 63
     8
 74
     1
 91
        4
 64
     7
 65
   257
 75
     1
175
     1
 42
1.0
 92
        8
 66
     8
 43
1.0
 76
     1
 77
     6
 78
     2
 67
     7
 79
     5
170
     0
171
     0
290
     0
174
     0
 93
        1
 44
0.0
173
     0
291
     1
 45
0.0
1001
ACAD
1000
AcDbSavedByObjectVersion
1070
     0
1000
AcDbSavedByObjectVersion
1070
     0
1000
AcDbSavedByObjectVersion
1070
     0
  0
VISUALSTYLE
  5
89D
102
{ACAD_REACTORS
330
894
102
}
330
894
100
AcDbVisualStyle
  2
Conceptual
 70
     9
 71
     3
 72
     2
 73
     0
 90
        0
 40
-0.6
 41
-30.0
 62
     5
 63
     7
 74
     2
 91
        2
 64
     7
 65
   257
 75
     1
175
     1
 42
40.0
 92
        8
 66
     7
 43
1.0
 76
     1
 77
     6
 78
     2
 67
     7
 79
     3
170
     0
171
     0
290
     0
174
     0
 93
        1
 44
0.0
173
     0
291
     0
 45
0.0
1001
ACAD
1000
AcDbSavedByObjectVersion
1070
     0
1000
AcDbSavedByObjectVersion
1070
     0
1000
AcDbSavedByObjectVersion
1070
     0
  0
VISUALSTYLE
  5
89F
102
{ACAD_REACTORS
330
894
102
}
330
894
100
AcDbVisualStyle
  2
Dim
 70
    11
 71
     2
 72
     2
 73
     0
 90
        0
 40
-0.6
 41
-30.0
 62
     5
 63
     7
 74
     1
 91
        4
 64
     7
 65
   257
 75
     1
175
     1
 42
1.0
 92
        8
 66
     7
 43
1.0
 76
     1
 77
     6
 78
     2
 67
     7
 79
     5
170
     0
171
     0
290
     0
174
     0
 93
        1
 44
-50.0
173
     0
291
     1
 45
0.0
1001
ACAD
1000
AcDbSavedByObjectVersion
1070
     0
1000
AcDbSavedByObjectVersion
1070
     0
1000
AcDbSavedByObjectVersion
1070
     0
  0
VISUALSTYLE
  5
8A3
102
{ACAD_REACTORS
330
894
102
}
330
894
100
AcDbVisualStyle
  2
Facepattern
 70
    15
 71
     2
 72
     2
 73
     0
 90
        0
 40
-0.6
 41
-30.0
 62
     5
 63
     7
 74
     1
 91
        4
 64
     7
 65
   257
 75
     1
175
     1
 42
1.0
 92
        8
 66
     7
 43
1.0
 76
     1
 77
     6
 78
     2
 67
     7
 79
     5
170
     0
171
     0
290
     0
174
     0
 93
        1
 44
0.0
173
     0
291
     1
 45
0.0
1001
ACAD
1000
AcDbSavedByObjectVersion
1070
     0
1000
AcDbSavedByObjectVersion
1070
     0
1000
AcDbSavedByObjectVersion
1070
     0
  0
VISUALSTYLE
  5
895
102
{ACAD_REACTORS
330
894
102
}
330
894
100
AcDbVisualStyle
  2
Flat
 70
     0
 71
     2
 72
     1
 73
     1
 90
        2
 40
-0.6
 41
30.0
 62
     5
 63
     7
 74
     0
 91
        4
 64
     7
 65
   257
 75
     1
175
     1
 42
1.0
 92
        8
 66
     7
 43
1.0
 76
     1
 77
     6
 78
     2
 67
     7
 79
     5
170
     0
171
     0
290
     0
174
     0
 93
       13
 44
0.0
173
     0
291
     1
 45
0.0
1001
ACAD
1000
AcDbSavedByObjectVersion
1070
     0
1000
AcDbSavedByObjectVersion
1070
     0
1000
AcDbSavedByObjectVersion
1070
     0
  0
VISUALSTYLE
  5
896
102
{ACAD_REACTORS
330
894
102
}
330
894
100
AcDbVisualStyle
  2
FlatWithEdges
 70
     1
 71
     2
 72
     1
 73
     1
 90
        2
 40
-0.6
 41
30.0
 62
     5
 63
     7
 74
     1
 91
        4
 64
     7
 65
   257
 75
     1
175
     1
 42
1.0
 92
        0
 66
   257
 43
1.0
 76
     1
 77
     6
 78
     2
 67
     7
 79
     5
170
     0
171
     0
290
     0
174
     0
 93
       13
 44
0.0
173
     0
291
     1
 45
0.0
1001
ACAD
1000
AcDbSavedByObjectVersion
1070
     0
1000
AcDbSavedByObjectVersion
1070
     0
1000
AcDbSavedByObjectVersion
1070
     0
  0
VISUALSTYLE
  5
897
102
{ACAD_REACTORS
330
894
102
}
330
894
100
AcDbVisualStyle
  2
Gouraud
 70
     2
 71
     2
 72
     2
 73
     1
 90
        2
 40
-0.6
 41
30.0
 62
     5
 63
     7
 74
     0
 91
        4
 64
     7
 65
   257
 75
     1
175
     1
 42
1.0
 92
        0
 66
     7
 43
1.0
 76
     1
 77
     6
 78
     2
 67
     7
 79
     5
170
     0
171
     0
290
     0
174
     0
 93
       13
 44
0.0
173
     0
291
     1
 45
0.0
1001
ACAD
1000
AcDbSavedByObjectVersion
1070
     0
1000
AcDbSavedByObjectVersion
1070
     0
1000
AcDbSavedByObjectVersion
1070
     0
  0
VISUALSTYLE
  5
898
102
{ACAD_REACTORS
330
894
102
}
330
894
100
AcDbVisualStyle
  2
GouraudWithEdges
 70
     3
 71
     2
 72
     2
 73
     1
 90
        2
 40
-0.6
 41
30.0
 62
     5
 63
     7
 74
     1
 91
        4
 64
     7
 65
   257
 75
     1
175
     1
 42
1.0
 92
        0
 66
   257
 43
1.0
 76
     1
 77
     6
 78
     2
 67
     7
 79
     5
170
     0
171
     0
290
     0
174
     0
 93
       13
 44
0.0
173
     0
291
     1
 45
0.0
1001
ACAD
1000
AcDbSavedByObjectVersion
1070
     0
1000
AcDbSavedByObjectVersion
1070
     0
1000
AcDbSavedByObjectVersion
1070
     0
  0
VISUALSTYLE
  5
8A2
102
{ACAD_REACTORS
330
894
102
}
330
894
100
AcDbVisualStyle
  2
Linepattern
 70
    14
 71
     2
 72
     2
 73
     0
 90
        0
 40
-0.6
 41
-30.0
 62
     5
 63
     7
 74
     1
 91
        4
 64
     7
 65
   257
 75
     7
175
     7
 42
1.0
 92
        8
 66
     7
 43
1.0
 76
     1
 77
     6
 78
     2
 67
     7
 79
     5
170
     0
171
     0
290
     0
174
     0
 93
        1
 44
0.0
173
     0
291
     1
 45
0.0
1001
ACAD
1000
AcDbSavedByObjectVersion
1070
     0
1000
AcDbSavedByObjectVersion
1070
     0
1000
AcDbSavedByObjectVersion
1070
     0
  0
VISUALSTYLE
  5
89E
102
{ACAD_REACTORS
330
894
102
}
330
894
100
AcDbVisualStyle
  2
Realistic
 70
     8
 71
     2
 72
     2
 73
     0
 90
        0
 40
-0.6
 41
-30.0
 62
     5
 63
     7
 74
     1
 91
        0
 64
     7
 65
   257
 75
     1
175
     1
 42
1.0
 92
        8
 66
     8
 43
1.0
 76
     1
 77
     6
 78
     2
 67
     7
 79
     5
170
     0
171
     0
290
     0
174
     0
 93
       13
 44
0.0
173
     0
291
     0
 45
0.0
1001
ACAD
1000
AcDbSavedByObjectVersion
1070
     0
1000
AcDbSavedByObjectVersion
1070
     0
1000
AcDbSavedByObjectVersion
1070
     0
  0
VISUALSTYLE
  5
8A1
102
{ACAD_REACTORS
330
894
102
}
330
894
100
AcDbVisualStyle
  2
Thicken
 70
    13
 71
     2
 72
     2
 73
     0
 90
        0
 40
-0.6
 41
-30.0
 62
     5
 63
     7
 74
     1
 91
        4
 64
     7
 65
   257
 75
     1
175
     1
 42
1.0
 92
       12
 66
     7
 43
1.0
 76
     1
 77
     6
 78
     2
 67
     7
 79
     5
170
     0
171
     0
290
     0
174
     0
 93
        1
 44
0.0
173
     0
291
     1
 45
0.0
1001
ACAD
1000
AcDbSavedByObjectVersion
1070
     0
1000
AcDbSavedByObjectVersion
1070
     0
1000
AcDbSavedByObjectVersion
1070
     0
  0
DICTIONARYVAR
  5
902
102
{ACAD_REACTORS
330
8FF
102
}
330
8FF
100
DictionaryVariables
280
     0
  1
1:1
  0
DICTIONARYVAR
  5
901
102
{ACAD_REACTORS
330
8FF
102
}
330
8FF
100
DictionaryVariables
280
     0
  1
STANDARD
  0
DICTIONARYVAR
  5
900
102
{ACAD_REACTORS
330
8FF
102
}
330
8FF
100
DictionaryVariables
280
     0
  1
STANDARD
  0
DICTIONARYVAR
  5
905
102
{ACAD_REACTORS
330
8FF
102
}
330
8FF
100
DictionaryVariables
280
     0
  1
1
  0
DICTIONARYVAR
  5
904
102
{ACAD_REACTORS
330
8FF
102
}
330
8FF
100
DictionaryVariables
280
     0
  1
0
  0
DICTIONARYVAR
  5
903
102
{ACAD_REACTORS
330
8FF
102
}
330
8FF
100
DictionaryVariables
280
     0
  1
127
  0
DICTIONARY
  5
93C
330
8CF
100
AcDbDictionary
280
     1
281
     1
  3
ACAD_XREC_ROUNDTRIP
360
93D
  0
DICTIONARY
  5
93E
330
8D0
100
AcDbDictionary
280
     1
281
     1
  3
ACAD_XREC_ROUNDTRIP
360
93F
  0
DICTIONARY
  5
885
330
884
100
AcDbDictionary
280
     1
281
     1
  3
ACAD_XREC_ROUNDTRIP
360
90B
  3
BUMPTILE
360
887
  3
DIFFUSETILE
360
886
  3
OPACITYTILE
360
88A
  3
REFLECTIONTILE
360
889
  3
REFRACTIONTILE
360
88B
  3
SPECULARTILE
360
888
  0
DICTIONARY
  5
87D
330
87C
100
AcDbDictionary
280
     1
281
     1
  3
ACAD_XREC_ROUNDTRIP
360
90A
  3
BUMPTILE
360
87F
  3
DIFFUSETILE
360
87E
  3
OPACITYTILE
360
882
  3
REFLECTIONTILE
360
881
  3
REFRACTIONTILE
360
883
  3
SPECULARTILE
360
880
  0
DICTIONARY
  5
88D
330
88C
100
AcDbDictionary
280
     1
281
     1
  3
ACAD_XREC_ROUNDTRIP
360
90C
  3
BUMPTILE
360
88F
  3
DIFFUSETILE
360
88E
  3
OPACITYTILE
360
892
  3
REFLECTIONTILE
360
891
  3
REFRACTIONTILE
360
893
  3
SPECULARTILE
360
890
  0
DICTIONARY
  5
906
330
8A7
100
AcDbDictionary
280
     1
281
     1
  3
ACAD_ROUNDTRIP_2008_TABLESTYLE_CELLSTYLEMAP
360
939
  3
ACAD_XREC_ROUNDTRIP
360
93B
  0
XRECORD
  5
93D
102
{ACAD_REACTORS
330
93C
102
}
330
93C
100
AcDbXrecord
280
     1
102
SHADEPLOT
 70
     0
102
SHADEPLOTRESLEVEL
 70
     2
102
SHADEPLOTCUSTOMDPI
 70
   300
  0
XRECORD
  5
93F
102
{ACAD_REACTORS
330
93E
102
}
330
93E
100
AcDbXrecord
280
     1
102
SHADEPLOT
 70
     0
102
SHADEPLOTRESLEVEL
 70
     2
102
SHADEPLOTCUSTOMDPI
 70
   300
  0
XRECORD
  5
90B
102
{ACAD_REACTORS
330
885
102
}
330
885
100
AcDbXrecord
280
     1
102
MATERIAL
148
0.0
149
0.0
149
0.0
 93
        0
 94
      127
282
     0
 72
     0
 77
     0
171
     0
175
     0
179
     0
273
     0
  0
XRECORD
  5
887
102
{ACAD_REACTORS
330
885
102
}
330
885
100
AcDbXrecord
280
     1
270
     1
271
     1
  0
XRECORD
  5
886
102
{ACAD_REACTORS
330
885
102
}
330
885
100
AcDbXrecord
280
     1
270
     1
271
     1
  0
XRECORD
  5
88A
102
{ACAD_REACTORS
330
885
102
}
330
885
100
AcDbXrecord
280
     1
270
     1
271
     1
  0
XRECORD
  5
889
102
{ACAD_REACTORS
330
885
102
}
330
885
100
AcDbXrecord
280
     1
270
     1
271
     1
  0
XRECORD
  5
88B
102
{ACAD_REACTORS
330
885
102
}
330
885
100
AcDbXrecord
280
     1
270
     1
271
     1
  0
XRECORD
  5
888
102
{ACAD_REACTORS
330
885
102
}
330
885
100
AcDbXrecord
280
     1
270
     1
271
     1
  0
XRECORD
  5
90A
102
{ACAD_REACTORS
330
87D
102
}
330
87D
100
AcDbXrecord
280
     1
102
MATERIAL
148
0.0
149
0.0
149
0.0
 93
        0
 94
      127
282
     0
 72
     0
 77
     0
171
     0
175
     0
179
     0
273
     0
  0
XRECORD
  5
87F
102
{ACAD_REACTORS
330
87D
102
}
330
87D
100
AcDbXrecord
280
     1
270
     1
271
     1
  0
XRECORD
  5
87E
102
{ACAD_REACTORS
330
87D
102
}
330
87D
100
AcDbXrecord
280
     1
270
     1
271
     1
  0
XRECORD
  5
882
102
{ACAD_REACTORS
330
87D
102
}
330
87D
100
AcDbXrecord
280
     1
270
     1
271
     1
  0
XRECORD
  5
881
102
{ACAD_REACTORS
330
87D
102
}
330
87D
100
AcDbXrecord
280
     1
270
     1
271
     1
  0
XRECORD
  5
883
102
{ACAD_REACTORS
330
87D
102
}
330
87D
100
AcDbXrecord
280
     1
270
     1
271
     1
  0
XRECORD
  5
880
102
{ACAD_REACTORS
330
87D
102
}
330
87D
100
AcDbXrecord
280
     1
270
     1
271
     1
  0
XRECORD
  5
90C
102
{ACAD_REACTORS
330
88D
102
}
330
88D
100
AcDbXrecord
280
     1
102
MATERIAL
148
0.0
149
0.0
149
0.0
 93
        0
 94
      127
282
     0
 72
     0
 77
     0
171
     0
175
     0
179
     0
273
     0
  0
XRECORD
  5
88F
102
{ACAD_REACTORS
330
88D
102
}
330
88D
100
AcDbXrecord
280
     1
270
     1
271
     1
  0
XRECORD
  5
88E
102
{ACAD_REACTORS
330
88D
102
}
330
88D
100
AcDbXrecord
280
     1
270
     1
271
     1
  0
XRECORD
  5
892
102
{ACAD_REACTORS
330
88D
102
}
330
88D
100
AcDbXrecord
280
     1
270
     1
271
     1
  0
XRECORD
  5
891
102
{ACAD_REACTORS
330
88D
102
}
330
88D
100
AcDbXrecord
280
     1
270
     1
271
     1
  0
XRECORD
  5
893
102
{ACAD_REACTORS
330
88D
102
}
330
88D
100
AcDbXrecord
280
     1
270
     1
271
     1
  0
XRECORD
  5
890
102
{ACAD_REACTORS
330
88D
102
}
330
88D
100
AcDbXrecord
280
     1
270
     1
271
     1
  0
CELLSTYLEMAP
  5
939
102
{ACAD_REACTORS
330
906
102
}
330
906
100
AcDbCellStyleMap
 90
        3
300
CELLSTYLE
  1
TABLEFORMAT_BEGIN
 90
        5
170
     1
 91
        0
 92
    32768
 62
   257
 93
        1
300
CONTENTFORMAT
  1
CONTENTFORMAT_BEGIN
 90
        0
 91
        0
 92
      512
 93
        0
300

 40
0.0
140
1.0
 94
        5
 62
     0
340
1D
144
0.25
309
CONTENTFORMAT_END
171
     1
301
MARGIN
  1
CELLMARGIN_BEGIN
 40
0.06
 40
0.06
 40
0.06
 40
0.06
 40
0.18
 40
0.18
309
CELLMARGIN_END
 94
        6
 95
        1
302
GRIDFORMAT
  1
GRIDFORMAT_BEGIN
 90
        0
 91
        1
 62
     0
 92
       -2
340
0
 93
        0
 40
0.045
309
GRIDFORMAT_END
 95
        2
302
GRIDFORMAT
  1
GRIDFORMAT_BEGIN
 90
        0
 91
        1
 62
     0
 92
       -2
340
0
 93
        0
 40
0.045
309
GRIDFORMAT_END
 95
        4
302
GRIDFORMAT
  1
GRIDFORMAT_BEGIN
 90
        0
 91
        1
 62
     0
 92
       -2
340
0
 93
        0
 40
0.045
309
GRIDFORMAT_END
 95
        8
302
GRIDFORMAT
  1
GRIDFORMAT_BEGIN
 90
        0
 91
        1
 62
     0
 92
       -2
340
0
 93
        0
 40
0.045
309
GRIDFORMAT_END
 95
       16
302
GRIDFORMAT
  1
GRIDFORMAT_BEGIN
 90
        0
 91
        1
 62
     0
 92
       -2
340
0
 93
        0
 40
0.045
309
GRIDFORMAT_END
 95
       32
302
GRIDFORMAT
  1
GRIDFORMAT_BEGIN
 90
        0
 91
        1
 62
     0
 92
       -2
340
0
 93
        0
 40
0.045
309
GRIDFORMAT_END
309
TABLEFORMAT_END
  1
CELLSTYLE_BEGIN
 90
        1
 91
        1
300
_TITLE
309
CELLSTYLE_END
300
CELLSTYLE
  1
TABLEFORMAT_BEGIN
 90
        5
170
     1
 91
        0
 92
        0
 62
   257
 93
        1
300
CONTENTFORMAT
  1
CONTENTFORMAT_BEGIN
 90
        0
 91
        0
 92
      512
 93
        0
300

 40
0.0
140
1.0
 94
        5
 62
     0
340
1D
144
0.18
309
CONTENTFORMAT_END
171
     1
301
MARGIN
  1
CELLMARGIN_BEGIN
 40
0.06
 40
0.06
 40
0.06
 40
0.06
 40
0.18
 40
0.18
309
CELLMARGIN_END
 94
        6
 95
        1
302
GRIDFORMAT
  1
GRIDFORMAT_BEGIN
 90
        0
 91
        1
 62
     0
 92
       -2
340
0
 93
        0
 40
0.045
309
GRIDFORMAT_END
 95
        2
302
GRIDFORMAT
  1
GRIDFORMAT_BEGIN
 90
        0
 91
        1
 62
     0
 92
       -2
340
0
 93
        0
 40
0.045
309
GRIDFORMAT_END
 95
        4
302
GRIDFORMAT
  1
GRIDFORMAT_BEGIN
 90
        0
 91
        1
 62
     0
 92
       -2
340
0
 93
        0
 40
0.045
309
GRIDFORMAT_END
 95
        8
302
GRIDFORMAT
  1
GRIDFORMAT_BEGIN
 90
        0
 91
        1
 62
     0
 92
       -2
340
0
 93
        0
 40
0.045
309
GRIDFORMAT_END
 95
       16
302
GRIDFORMAT
  1
GRIDFORMAT_BEGIN
 90
        0
 91
        1
 62
     0
 92
       -2
340
0
 93
        0
 40
0.045
309
GRIDFORMAT_END
 95
       32
302
GRIDFORMAT
  1
GRIDFORMAT_BEGIN
 90
        0
 91
        1
 62
     0
 92
       -2
340
0
 93
        0
 40
0.045
309
GRIDFORMAT_END
309
TABLEFORMAT_END
  1
CELLSTYLE_BEGIN
 90
        2
 91
        1
300
_HEADER
309
CELLSTYLE_END
300
CELLSTYLE
  1
TABLEFORMAT_BEGIN
 90
        5
170
     1
 91
        0
 92
        0
 62
   257
 93
        1
300
CONTENTFORMAT
  1
CONTENTFORMAT_BEGIN
 90
        0
 91
        0
 92
      512
 93
        0
300

 40
0.0
140
1.0
 94
        2
 62
     0
340
1D
144
0.18
309
CONTENTFORMAT_END
171
     1
301
MARGIN
  1
CELLMARGIN_BEGIN
 40
0.06
 40
0.06
 40
0.06
 40
0.06
 40
0.18
 40
0.18
309
CELLMARGIN_END
 94
        6
 95
        1
302
GRIDFORMAT
  1
GRIDFORMAT_BEGIN
 90
        0
 91
        1
 62
     0
 92
       -2
340
0
 93
        0
 40
0.045
309
GRIDFORMAT_END
 95
        2
302
GRIDFORMAT
  1
GRIDFORMAT_BEGIN
 90
        0
 91
        1
 62
     0
 92
       -2
340
0
 93
        0
 40
0.045
309
GRIDFORMAT_END
 95
        4
302
GRIDFORMAT
  1
GRIDFORMAT_BEGIN
 90
        0
 91
        1
 62
     0
 92
       -2
340
0
 93
        0
 40
0.045
309
GRIDFORMAT_END
 95
        8
302
GRIDFORMAT
  1
GRIDFORMAT_BEGIN
 90
        0
 91
        1
 62
     0
 92
       -2
340
0
 93
        0
 40
0.045
309
GRIDFORMAT_END
 95
       16
302
GRIDFORMAT
  1
GRIDFORMAT_BEGIN
 90
        0
 91
        1
 62
     0
 92
       -2
340
0
 93
        0
 40
0.045
309
GRIDFORMAT_END
 95
       32
302
GRIDFORMAT
  1
GRIDFORMAT_BEGIN
 90
        0
 91
        1
 62
     0
 92
       -2
340
0
 93
        0
 40
0.045
309
GRIDFORMAT_END
309
TABLEFORMAT_END
  1
CELLSTYLE_BEGIN
 90
        3
 91
        2
300
_DATA
309
CELLSTYLE_END
  0
XRECORD
  5
93B
102
{ACAD_REACTORS
330
906
102
}
330
906
100
AcDbXrecord
280
     1
102
ACAD_ROUNDTRIP_PRE2007_TABLESTYLE
 90
      512
 91
        0
  1

 92
      512
 93
        0
  2

 94
      512
 95
        0
  3

  0
ENDSEC
  0
EOF
