  0
SECTION
  2
HEADER
  9
$ACADVER
  1
AC1012
  9
$DWGCODEPAGE
  3
ansi_932
  9
$INSBASE
 10
0.0
 20
0.0
 30
0.0
  9
$EXTMIN
 10
-630.0
 20
-445.5
 30
1.000000E+20
  9
$EXTMAX
 10
630.0
 20
445.5
 30
-1.000000E+20
  9
$LIMMIN
 10
-630.0
 20
-445.5
  9
$LIMMAX
 10
630.0
 20
445.5
  9
$ORTHOMODE
 70
     0
  9
$REGENMODE
 70
     1
  9
$FILLMODE
 70
     1
  9
$QTEXTMODE
 70
     0
  9
$MIRRTEXT
 70
     1
  9
$DRAGMODE
 70
     2
  9
$LTSCALE
 40
1.0
  9
$OSMODE
 70
     0
  9
$ATTMODE
 70
     1
  9
$TEXTSIZE
 40
0.2
  9
$TRACEWID
 40
0.05
  9
$TEXTSTYLE
  7
STANDARD
  9
$CLAYER
  8
0
  9
$CELTYPE
  6
CONTINUOUS
  9
$CECOLOR
 62
   256
  9
$CELTSCALE
 40
1.0
  9
$DELOBJ
 70
     1
  9
$DISPSILH
 70
     0
  9
$DIMSCALE
 40
3.0
  9
$DIMASZ
 40
0.18
  9
$DIMEXO
 40
0.0625
  9
$DIMDLI
 40
0.38
  9
$DIMRND
 40
0.0
  9
$DIMDLE
 40
0.0
  9
$DIMEXE
 40
0.18
  9
$DIMTP
 40
0.0
  9
$DIMTM
 40
0.0
  9
$DIMTXT
 40
0.18
  9
$DIMCEN
 40
0.09
  9
$DIMTSZ
 40
0.0
  9
$DIMTOL
 70
     0
  9
$DIMLIM
 70
     0
  9
$DIMTIH
 70
     1
  9
$DIMTOH
 70
     1
  9
$DIMSE1
 70
     0
  9
$DIMSE2
 70
     0
  9
$DIMTAD
 70
     1
  9
$DIMZIN
 70
     0
  9
$DIMBLK
  1

  9
$DIMASO
 70
     1
  9
$DIMSHO
 70
     1
  9
$DIMPOST
  1

  9
$DIMAPOST
  1

  9
$DIMALT
 70
     0
  9
$DIMALTD
 70
     2
  9
$DIMALTF
 40
25.4
  9
$DIMLFAC
 40
1.0
  9
$DIMTOFL
 70
     0
  9
$DIMTVP
 40
0.0
  9
$DIMTIX
 70
     0
  9
$DIMSOXD
 70
     0
  9
$DIMSAH
 70
     0
  9
$DIMBLK1
  1

  9
$DIMBLK2
  1

  9
$DIMSTYLE
  2
STANDARD
  9
$DIMCLRD
 70
     0
  9
$DIMCLRE
 70
     0
  9
$DIMCLRT
 70
     0
  9
$DIMTFAC
 40
1.0
  9
$DIMGAP
 40
0.09
  9
$DIMJUST
 70
     0
  9
$DIMSD1
 70
     0
  9
$DIMSD2
 70
     0
  9
$DIMTOLJ
 70
     1
  9
$DIMTZIN
 70
     0
  9
$DIMALTZ
 70
     0
  9
$DIMALTTZ
 70
     0
  9
$DIMFIT
 70
     3
  9
$DIMUPT
 70
     0
  9
$DIMUNIT
 70
     2
  9
$DIMDEC
 70
     4
  9
$DIMTDEC
 70
     4
  9
$DIMALTU
 70
     2
  9
$DIMALTTD
 70
     2
  9
$DIMTXSTY
  7
STANDARD
  9
$DIMAUNIT
 70
     0
  9
$LUNITS
 70
     2
  9
$LUPREC
 70
     4
  9
$SKETCHINC
 40
0.1
  9
$FILLETRAD
 40
0.0
  9
$AUNITS
 70
     0
  9
$AUPREC
 70
     0
  9
$MENU
  1
acad
  9
$ELEVATION
 40
0.0
  9
$PELEVATION
 40
0.0
  9
$THICKNESS
 40
0.0
  9
$LIMCHECK
 70
     0
  9
$BLIPMODE
 70
     1
  9
$CHAMFERA
 40
0.0
  9
$CHAMFERB
 40
0.0
  9
$CHAMFERC
 40
0.0
  9
$CHAMFERD
 40
0.0
  9
$SKPOLY
 70
     0
  9
$TDCREATE
 40
2451045.000000000
  9
$TDUPDATE
 40
0.000000000
  9
$TDINDWG
 40
0.0000000000
  9
$TDUSRTIMER
 40
0.0000000000
  9
$USRTIMER
 70
     1
  9
$ANGBASE
 50
0.0
  9
$ANGDIR
 70
     0
  9
$PDMODE
 70
     0
  9
$PDSIZE
 40
0.0
  9
$PLINEWID
 40
0.0
  9
$COORDS
 70
     0
  9
$SPLFRAME
 70
     0
  9
$SPLINETYPE
 70
     6
  9
$SPLINESEGS
 70
     8
  9
$ATTDIA
 70
     0
  9
$ATTREQ
 70
     1
  9
$HANDLING
 70
     1
  9
$HANDSEED
  5
890
  9
$SURFTAB1
 70
     6
  9
$SURFTAB2
 70
     6
  9
$SURFTYPE
 70
     6
  9
$SURFU
 70
     6
  9
$SURFV
 70
     6
  9
$UCSNAME
  2

  9
$UCSORG
 10
0.0
 20
0.0
 30
0.0
  9
$UCSXDIR
 10
1.0
 20
0.0
 30
0.0
  9
$UCSYDIR
 10
0.0
 20
1.0
 30
0.0
  9
$PUCSNAME
  2

  9
$PUCSORG
 10
0.0
 20
0.0
 30
0.0
  9
$PUCSXDIR
 10
1.0
 20
0.0
 30
0.0
  9
$PUCSYDIR
 10
0.0
 20
1.0
 30
0.0
  9
$USERI1
 70
     0
  9
$USERI2
 70
     0
  9
$USERI3
 70
     0
  9
$USERI4
 70
     0
  9
$USERI5
 70
     0
  9
$USERR1
 40
0.0
  9
$USERR2
 40
0.0
  9
$USERR3
 40
0.0
  9
$USERR4
 40
0.0
  9
$USERR5
 40
0.0
  9
$WORLDVIEW
 70
     1
  9
$SHADEDGE
 70
     3
  9
$SHADEDIF
 70
    70
  9
$TILEMODE
 70
     1
  9
$MAXACTVP
 70
    16
  9
$PINSBASE
 10
0.0
 20
0.0
 30
0.0
  9
$PLIMCHECK
 70
     0
  9
$PEXTMIN
 10
1.000000E+20
 20
1.000000E+20
 30
1.000000E+20
  9
$PEXTMAX
 10
-1.000000E+20
 20
-1.000000E+20
 30
-1.000000E+20
  9
$PLIMMIN
 10
0.0
 20
0.0
  9
$PLIMMAX
 10
12.0
 20
9.0
  9
$UNITMODE
 70
     0
  9
$VISRETAIN
 70
     0
  9
$PLINEGEN
 70
     1
  9
$PSLTSCALE
 70
     0
  9
$TREEDEPTH
 70
  3020
  9
$PICKSTYLE
 70
     1
  9
$CMLSTYLE
  2
STANDARD
  9
$CMLJUST
 70
     0
  9
$CMLSCALE
 40
1.0
  9
$SAVEIMAGES
 70
     0
  0
ENDSEC
  0
SECTION
  2
CLASSES
  0
CLASS
  1
LWPOLYLINE
  2
AcDbPolyline
  3
"AutoCAD"
 90
    32768
280
     0
281
     1
  0
CLASS
  1
IMAGE
  2
AcDbRasterImage
  3
ISM
 90
    32895
280
     0
281
     1
  0
CLASS
  1
OLE2FRAME
  2
AcDbOle2Frame
  3
""
 90
    32768
280
     0
281
     1
  0
CLASS
  1
HATCH
  2
AcDbHatch
  3
"ACAD_SEDONA"
 90
    32768
280
     0
281
     1
  0
CLASS
  1
DICTIONARYVAR
  2
AcDbDictionaryVar
  3
"AutoCAD"
 90
    32768
280
     0
281
     0
  0
CLASS
  1
RASTERVARIABLES
  2
AcDbRasterVariables
  3
ISM
 90
    32768
280
     0
281
     0
  0
CLASS
  1
IMAGEDEF
  2
AcDbRasterImageDef
  3
ISM
 90
    32768
280
     0
281
     0
  0
CLASS
  1
IMAGEDEF_REACTOR
  2
AcDbRasterImageDefReactor
  3
ISM
 90
    32769
280
     0
281
     0
  0
CLASS
  1
IDBUFFER
  2
AcDbIdBuffer
  3
"Acad"
 90
    32768
280
     0
281
     0
  0
CLASS
  1
SPATIAL_FILTER
  2
AcDbSpatialFilter
  3
"Acad"
 90
    32768
280
     0
281
     0
  0
CLASS
  1
XRECORD
  2
AcDbXrecord
  3
"<Built In>"
 90
    32768
280
     0
281
     0
  0
CLASS
  1
SORTENTSTABLE
  2
AcDbSortentsTable
  3
"AutoCAD"
 90
    32768
280
     0
281
     0
  0
CLASS
  1
LAYER_INDEX
  2
AcDbLayerIndex
  3
"Acad"
 90
    32768
280
     0
281
     0
  0
CLASS
  1
SPATIAL_INDEX
  2
AcDbSpatialIndex
  3
"Acad"
 90
    32768
280
     0
281
     0
  0
CLASS
  1
OBJECT_PTR
  2
CAseDLPNTableRecord
  3
"ASE-LPNTableRecord"
 90
    32769
280
     0
281
     0
  0
CLASS
  1
LAYOUT
  2
AcDbLayout
  3
"AutoCAD 2000"
 90
    32768
280
     0
281
     0
  0
CLASS
  1
PLOTSETTINGS
  2
AcDbPlotSettings
  3
"AutoCAD 2000"
 90
    32768
280
     0
281
     0
  0
CLASS
  1
ACDBDICTIONARYWDFLT
  2
AcDbDictionaryWithDefault
  3
"AutoCAD 2000"
 90
    32768
280
     0
281
     0
  0
CLASS
  1
ACDBPLACEHOLDER
  2
AcDbPlaceHolder
  3
"AutoCAD 2000"
 90
    32768
280
     0
281
     0
  0
CLASS
  1
VBA_PROJECT
  2
AcDbVbaProject
  3
"acadvba"
 90
    32768
280
     0
281
     0
  0
CLASS
  1
WIPEOUT
  2
AcDbWipeout
  3
WipeOut|AutoCAD Express Tool|expresstools@autodesk.com
 90
    32895
280
     0
281
     1
  0
CLASS
  1
WIPEOUTVARIABLES
  2
AcDbWipeoutVariables
  3
WipeOut|AutoCAD Express Tool|expresstools@autodesk.com
 90
    32768
280
     0
281
     0
  0
CLASS
  1
RTEXT
  2
RText
  3
RText|AutoCAD Express Tool|expresstools@autodesk.com
 90
    32768
280
     0
281
     1
  0
CLASS
  1
ARCALIGNEDTEXT
  2
AcDbArcAlignedText
  3
ATEXT|AutoCAD Express Tool|expresstools@autodesk.com
 90
    32768
280
     0
281
     1
  0
ENDSEC
  0
SECTION
  2
TABLES
  0
TABLE
  2
VPORT
  5
6
100
AcDbSymbolTable
 70
     1
  0
VPORT
  5
1B
100
AcDbSymbolTableRecord
100
AcDbViewportTableRecord
  2
*ACTIVE
 70
     0
 10
0.0
 20
0.0
 11
1.0
 21
1.0
 12
0.0
 22
0.0
 13
0.0
 23
0.0
 14
1.0
 24
1.0
 15
0.0
 25
0.0
 16
0.0
 26
0.0
 36
1.0
 17
0.0
 27
0.0
 37
0.0
 40
891.0
 41
1.414141
 42
50.0
 43
0.0
 44
0.0
 50
0.0
 51
0.0
 71
     0
 72
   500
 73
     1
 74
     1
 75
     0
 76
     0
 77
     0
 78
     0
  0
ENDTAB
  0
TABLE
  2
LTYPE
  5
3
100
AcDbSymbolTable
 70
     9
  0
LTYPE
  5
C
100
AcDbSymbolTableRecord
100
AcDbLinetypeTableRecord
  2
BYBLOCK
 70
    64
  3

 72
    65
 73
     0
 40
0.0
  0
LTYPE
  5
D
100
AcDbSymbolTableRecord
100
AcDbLinetypeTableRecord
  2
BYLAYER
 70
    64
  3

 72
    65
 73
     0
 40
0.0
  0
LTYPE
  5
E
100
AcDbSymbolTableRecord
100
AcDbLinetypeTableRecord
  2
CONTINUOUS
 70
     0
  3
Solid line
 72
    65
 73
     0
 40
0.0
  0
LTYPE
  5
F
100
AcDbSymbolTableRecord
100
AcDbLinetypeTableRecord
  2
DASHED
 70
     0
  3
__ __ __ __ __ __ __ __ __ __ __ __ __ __ __
 72
    65
 73
     2
 40
2.0
 49
1.2
 74
     0
 49
-0.8
 74
     0
  0
LTYPE
  5
10
100
AcDbSymbolTableRecord
100
AcDbLinetypeTableRecord
  2
CENTER
 70
     0
  3
____ _ ____ _ ____ _ ____ _ ____ _ ____ _ ____
 72
    65
 73
     4
 40
12.0
 49
9.0
 74
     0
 49
-1.0
 74
     0
 49
1.0
 74
     0
 49
-1.0
 74
     0
  0
LTYPE
  5
11
100
AcDbSymbolTableRecord
100
AcDbLinetypeTableRecord
  2
HIDDEN
 70
     0
  3
_ _ _ _ _ _ _ _ _ _ _ _ _ _ _ _ _ _ _ _ _ _ _
 72
    65
 73
     2
 40
3.2
 49
2.4
 74
     0
 49
-0.8
 74
     0
  0
LTYPE
  5
12
100
AcDbSymbolTableRecord
100
AcDbLinetypeTableRecord
  2
PHANTOM
 70
     0
  3
_____ _ _ _____ _ _ _____ _ _ _____ _ _ _____
 72
    65
 73
     6
 40
13.5
 49
9.0
 74
     0
 49
-1.0
 74
     0
 49
1.0
 74
     0
 49
-0.5
 74
     0
 49
1.0
 74
     0
 49
-1.0
 74
     0
  0
LTYPE
  5
13
100
AcDbSymbolTableRecord
100
AcDbLinetypeTableRecord
  2
DOT
 70
     0
  3
...............................................
 72
    65
 73
     2
 40
1.0
 49
0.5
 74
     0
 49
-0.5
 74
     0
  0
LTYPE
  5
14
100
AcDbSymbolTableRecord
100
AcDbLinetypeTableRecord
  2
DASHDOT
 70
     0
  3
__ . __ . __ . __ . __ . __ . __ . __ . __ . __
 72
    65
 73
     4
 40
8.0
 49
5.0
 74
     0
 49
-1.0
 74
     0
 49
1.0
 74
     0
 49
-1.0
 74
     0
  0
ENDTAB
  0
TABLE
  2
LAYER
  5
1
100
AcDbSymbolTable
 70
     6
  0
LAYER
  5
15
100
AcDbSymbolTableRecord
100
AcDbLayerTableRecord
  2
0
 70
     0
 62
     7
  6
CONTINUOUS
  0
LAYER
  5
16
100
AcDbSymbolTableRecord
100
AcDbLayerTableRecord
  2
1
 70
     0
 62
     7
  6
CONTINUOUS
  0
LAYER
  5
17
100
AcDbSymbolTableRecord
100
AcDbLayerTableRecord
  2
2
 70
     0
 62
     7
  6
CONTINUOUS
  0
LAYER
  5
18
100
AcDbSymbolTableRecord
100
AcDbLayerTableRecord
  2
5
 70
     0
 62
     7
  6
CONTINUOUS
  0
LAYER
  5
19
100
AcDbSymbolTableRecord
100
AcDbLayerTableRecord
  2
18
 70
     0
 62
     7
  6
CONTINUOUS
  0
LAYER
  5
1A
100
AcDbSymbolTableRecord
100
AcDbLayerTableRecord
  2
20
 70
     0
 62
     7
  6
CONTINUOUS
  0
ENDTAB
  0
TABLE
  2
STYLE
  5
2
100
AcDbSymbolTable
 70
     1
  0
STYLE
  5
1D
100
AcDbSymbolTableRecord
100
AcDbTextStyleTableRecord
  2
STANDARD
 70
    64
 40
0.0
 41
1.0
 50
0.0
 71
     0
 42
1.0
  3
txt
  4
BIGFONT
  0
ENDTAB
  0
TABLE
  2
VIEW
  5
4
100
AcDbSymbolTable
 70
     0
  0
ENDTAB
  0
TABLE
  2
UCS
  5
5
100
AcDbSymbolTable
 70
     0
  0
ENDTAB
  0
TABLE
  2
APPID
  5
7
100
AcDbSymbolTable
 70
     1
  0
APPID
  5
1C
100
AcDbSymbolTableRecord
100
AcDbRegAppTableRecord
  2
ACAD
 70
     0
  0
ENDTAB
  0
TABLE
  2
DIMSTYLE
  5
8
100
AcDbSymbolTable
 70
     1
  0
DIMSTYLE
105
2D
100
AcDbSymbolTableRecord
100
AcDbDimStyleTableRecord
  2
STANDARD
 70
     0
  3

  4

  5

  6

  7

 40
3.0
 41
0.18
 42
0.0625
 43
0.38
 44
0.18
 45
0.0
 46
0.0
 47
0.0
 48
0.0
 71
     0
 72
     0
 73
     1
 74
     1
 75
     0
 76
     0
 77
     1
 78
     0
140
0.18
141
0.09
142
0.0
143
25.4
144
1.0
145
0.0
146
1.0
147
0.09
170
     0
171
     2
172
     0
173
     0
174
     0
175
     0
176
     0
177
     0
178
     0
270
     2
271
     4
272
     4
273
     2
274
     2
275
     0
280
     0
281
     0
282
     0
283
     1
284
     0
285
     0
286
     0
287
     3
288
     0
340
1D
  0
ENDTAB
  0
TABLE
  2
BLOCK_RECORD
  5
28
100
AcDbSymbolTable
 70
     8
  0
BLOCK_RECORD
  5
26
100
AcDbSymbolTableRecord
100
AcDbBlockTableRecord
  2
*MODEL_SPACE
  0
BLOCK_RECORD
  5
27
100
AcDbSymbolTableRecord
100
AcDbBlockTableRecord
  2
*PAPER_SPACE
  0
BLOCK_RECORD
  5
1E
100
AcDbSymbolTableRecord
100
AcDbBlockTableRecord
  2
*D0
  0
BLOCK_RECORD
  5
1F
100
AcDbSymbolTableRecord
100
AcDbBlockTableRecord
  2
*D1
  0
BLOCK_RECORD
  5
20
100
AcDbSymbolTableRecord
100
AcDbBlockTableRecord
  2
*D2
  0
BLOCK_RECORD
  5
21
100
AcDbSymbolTableRecord
100
AcDbBlockTableRecord
  2
*D3
  0
BLOCK_RECORD
  5
22
100
AcDbSymbolTableRecord
100
AcDbBlockTableRecord
  2
*D4
  0
BLOCK_RECORD
  5
23
100
AcDbSymbolTableRecord
100
AcDbBlockTableRecord
  2
*D5
  0
BLOCK_RECORD
  5
24
100
AcDbSymbolTableRecord
100
AcDbBlockTableRecord
  2
*D6
  0
BLOCK_RECORD
  5
25
100
AcDbSymbolTableRecord
100
AcDbBlockTableRecord
  2
*D7
  0
ENDTAB
  0
ENDSEC
  0
SECTION
  2
BLOCKS
  0
BLOCK
  5
29
100
AcDbEntity
  8
0
100
AcDbBlockBegin
  2
*MODEL_SPACE
 70
     0
 10
0.0
 20
0.0
 30
0.0
  3
*MODEL_SPACE
  1

  0
ENDBLK
  5
2A
100
AcDbEntity
  8
0
100
AcDbBlockEnd
  0
BLOCK
  5
2B
100
AcDbEntity
 67
     1
  8
0
100
AcDbBlockBegin
  2
*PAPER_SPACE
 70
     0
 10
0.0
 20
0.0
 30
0.0
  3
*PAPER_SPACE
  1

  0
ENDBLK
  5
2C
100
AcDbEntity
 67
     1
  8
0
100
AcDbBlockEnd
  0
BLOCK
  5
7A7
100
AcDbEntity
  8
5
100
AcDbBlockBegin
  2
*D0
 70
     1
 10
0.0
 20
0.0
 30
0.0
  3
*D0
  1

  0
TEXT
  5
7A8
100
AcDbEntity
  8
5
 62
     2
100
AcDbText
 10
-50.558516
 20
-199.151662
 30
0.0
 40
9.9
  1
156
 50
90.0
 41
1.4
 72
     5
 11
-50.558516
 21
-181.133662
 31
0.0
100
AcDbText
  0
LINE
  5
7A9
100
AcDbEntity
  8
5
 62
     2
100
AcDbLine
 10
69.263242
 20
-266.756662
 30
0.0
 11
-52.058516
 21
-266.756662
 31
0.0
  0
LINE
  5
7AA
100
AcDbEntity
  8
5
 62
     2
100
AcDbLine
 10
-49.058516
 20
-266.756662
 30
0.0
 11
-47.505601
 21
-260.961107
 31
0.0
  0
LINE
  5
7AB
100
AcDbEntity
  8
5
 62
     2
100
AcDbLine
 10
-49.058516
 20
-266.756662
 30
0.0
 11
-50.61143
 21
-260.961107
 31
0.0
  0
LINE
  5
7AC
100
AcDbEntity
  8
5
 62
     2
100
AcDbLine
 10
-47.505601
 20
-260.961107
 30
0.0
 11
-50.61143
 21
-260.961107
 31
0.0
  0
LINE
  5
7AD
100
AcDbEntity
  8
5
 62
     2
100
AcDbLine
 10
-49.058516
 20
-266.756662
 30
0.0
 11
-49.058516
 21
-110.756662
 31
0.0
  0
LINE
  5
7AE
100
AcDbEntity
  8
5
 62
     2
100
AcDbLine
 10
-49.058516
 20
-110.756662
 30
0.0
 11
-50.61143
 21
-116.552217
 31
0.0
  0
LINE
  5
7AF
100
AcDbEntity
  8
5
 62
     2
100
AcDbLine
 10
-49.058516
 20
-110.756662
 30
0.0
 11
-47.505601
 21
-116.552217
 31
0.0
  0
LINE
  5
7B0
100
AcDbEntity
  8
5
 62
     2
100
AcDbLine
 10
-50.61143
 20
-116.552217
 30
0.0
 11
-47.505601
 21
-116.552217
 31
0.0
  0
LINE
  5
7B1
100
AcDbEntity
  8
5
 62
     2
100
AcDbLine
 10
73.503242
 20
-110.756662
 30
0.0
 11
-52.058516
 21
-110.756662
 31
0.0
  0
ENDBLK
  5
7B2
100
AcDbEntity
  8
5
100
AcDbBlockEnd
  0
BLOCK
  5
7B3
100
AcDbEntity
  8
5
100
AcDbBlockBegin
  2
*D1
 70
     1
 10
0.0
 20
0.0
 30
0.0
  3
*D1
  1

  0
TEXT
  5
7B4
100
AcDbEntity
  8
5
 62
     2
100
AcDbText
 10
-50.558516
 20
-316.586662
 30
0.0
 40
9.9
  1
86
 50
90.0
 41
1.4
 72
     5
 11
-50.558516
 21
-305.498662
 31
0.0
100
AcDbText
  0
LINE
  5
7B5
100
AcDbEntity
  8
5
 62
     2
100
AcDbLine
 10
96.518347
 20
-352.556662
 30
0.0
 11
-52.058516
 21
-352.556662
 31
0.0
  0
LINE
  5
7B6
100
AcDbEntity
  8
5
 62
     2
100
AcDbLine
 10
-49.058516
 20
-352.556662
 30
0.0
 11
-47.505601
 21
-346.761107
 31
0.0
  0
LINE
  5
7B7
100
AcDbEntity
  8
5
 62
     2
100
AcDbLine
 10
-49.058516
 20
-352.556662
 30
0.0
 11
-50.61143
 21
-346.761107
 31
0.0
  0
LINE
  5
7B8
100
AcDbEntity
  8
5
 62
     2
100
AcDbLine
 10
-47.505601
 20
-346.761107
 30
0.0
 11
-50.61143
 21
-346.761107
 31
0.0
  0
LINE
  5
7B9
100
AcDbEntity
  8
5
 62
     2
100
AcDbLine
 10
-49.058516
 20
-352.556662
 30
0.0
 11
-49.058516
 21
-266.756662
 31
0.0
  0
LINE
  5
7BA
100
AcDbEntity
  8
5
 62
     2
100
AcDbLine
 10
-49.058516
 20
-266.756662
 30
0.0
 11
-50.61143
 21
-272.552217
 31
0.0
  0
LINE
  5
7BB
100
AcDbEntity
  8
5
 62
     2
100
AcDbLine
 10
-49.058516
 20
-266.756662
 30
0.0
 11
-47.505601
 21
-272.552217
 31
0.0
  0
LINE
  5
7BC
100
AcDbEntity
  8
5
 62
     2
100
AcDbLine
 10
-50.61143
 20
-272.552217
 30
0.0
 11
-47.505601
 21
-272.552217
 31
0.0
  0
LINE
  5
7BD
100
AcDbEntity
  8
5
 62
     2
100
AcDbLine
 10
69.263242
 20
-266.756662
 30
0.0
 11
-52.058516
 21
-266.756662
 31
0.0
  0
ENDBLK
  5
7BE
100
AcDbEntity
  8
5
100
AcDbBlockEnd
  0
BLOCK
  5
7BF
100
AcDbEntity
  8
5
100
AcDbBlockBegin
  2
*D2
 70
     1
 10
0.0
 20
0.0
 30
0.0
  3
*D2
  1

  0
TEXT
  5
7C0
100
AcDbEntity
  8
5
 62
     2
100
AcDbText
 10
104.573242
 20
-381.463531
 30
0.0
 40
9.9
  1
46
 41
1.4
 72
     5
 11
115.661242
 21
-381.463531
 31
0.0
100
AcDbText
  0
LINE
  5
7C1
100
AcDbEntity
  8
5
 62
     2
100
AcDbLine
 10
88.503242
 20
-334.256662
 30
0.0
 11
88.503242
 21
-385.963531
 31
0.0
  0
LINE
  5
7C2
100
AcDbEntity
  8
5
 62
     2
100
AcDbLine
 10
88.503242
 20
-382.963531
 30
0.0
 11
94.298797
 21
-384.516446
 31
0.0
  0
LINE
  5
7C3
100
AcDbEntity
  8
5
 62
     2
100
AcDbLine
 10
88.503242
 20
-382.963531
 30
0.0
 11
94.298797
 21
-381.410617
 31
0.0
  0
LINE
  5
7C4
100
AcDbEntity
  8
5
 62
     2
100
AcDbLine
 10
94.298797
 20
-384.516446
 30
0.0
 11
94.298797
 21
-381.410617
 31
0.0
  0
LINE
  5
7C5
100
AcDbEntity
  8
5
 62
     2
100
AcDbLine
 10
88.503242
 20
-382.963531
 30
0.0
 11
134.503242
 21
-382.963531
 31
0.0
  0
LINE
  5
7C6
100
AcDbEntity
  8
5
 62
     2
100
AcDbLine
 10
134.503242
 20
-382.963531
 30
0.0
 11
128.707687
 21
-381.410617
 31
0.0
  0
LINE
  5
7C7
100
AcDbEntity
  8
5
 62
     2
100
AcDbLine
 10
134.503242
 20
-382.963531
 30
0.0
 11
128.707687
 21
-384.516446
 31
0.0
  0
LINE
  5
7C8
100
AcDbEntity
  8
5
 62
     2
100
AcDbLine
 10
128.707687
 20
-381.410617
 30
0.0
 11
128.707687
 21
-384.516446
 31
0.0
  0
LINE
  5
7C9
100
AcDbEntity
  8
5
 62
     2
100
AcDbLine
 10
134.503242
 20
-337.756662
 30
0.0
 11
134.503242
 21
-385.963531
 31
0.0
  0
ENDBLK
  5
7CA
100
AcDbEntity
  8
5
100
AcDbBlockEnd
  0
BLOCK
  5
7CB
100
AcDbEntity
  8
5
100
AcDbBlockBegin
  2
*D3
 70
     1
 10
0.0
 20
0.0
 30
0.0
  3
*D3
  1

  0
TEXT
  5
7CC
100
AcDbEntity
  8
5
 62
     2
100
AcDbText
 10
-335.541758
 20
368.988098
 30
0.0
 40
9.9
  1
100
 41
1.4
 72
     5
 11
-317.523758
 21
368.988098
 31
0.0
100
AcDbText
  0
LINE
  5
7CD
100
AcDbEntity
  8
5
 62
     2
100
AcDbLine
 10
-375.146758
 20
241.243338
 30
0.0
 11
-375.146758
 21
370.488098
 31
0.0
  0
LINE
  5
7CE
100
AcDbEntity
  8
5
 62
     2
100
AcDbLine
 10
-375.146758
 20
367.488098
 30
0.0
 11
-369.351203
 21
365.935184
 31
0.0
  0
LINE
  5
7CF
100
AcDbEntity
  8
5
 62
     2
100
AcDbLine
 10
-375.146758
 20
367.488098
 30
0.0
 11
-369.351203
 21
369.041012
 31
0.0
  0
LINE
  5
7D0
100
AcDbEntity
  8
5
 62
     2
100
AcDbLine
 10
-369.351203
 20
365.935184
 30
0.0
 11
-369.351203
 21
369.041012
 31
0.0
  0
LINE
  5
7D1
100
AcDbEntity
  8
5
 62
     2
100
AcDbLine
 10
-375.146758
 20
367.488098
 30
0.0
 11
-275.146758
 21
367.488098
 31
0.0
  0
LINE
  5
7D2
100
AcDbEntity
  8
5
 62
     2
100
AcDbLine
 10
-275.146758
 20
367.488098
 30
0.0
 11
-280.942313
 21
369.041012
 31
0.0
  0
LINE
  5
7D3
100
AcDbEntity
  8
5
 62
     2
100
AcDbLine
 10
-275.146758
 20
367.488098
 30
0.0
 11
-280.942313
 21
365.935184
 31
0.0
  0
LINE
  5
7D4
100
AcDbEntity
  8
5
 62
     2
100
AcDbLine
 10
-280.942313
 20
369.041012
 30
0.0
 11
-280.942313
 21
365.935184
 31
0.0
  0
LINE
  5
7D5
100
AcDbEntity
  8
5
 62
     2
100
AcDbLine
 10
-275.146758
 20
335.912382
 30
0.0
 11
-275.146758
 21
370.488098
 31
0.0
  0
ENDBLK
  5
7D6
100
AcDbEntity
  8
5
100
AcDbBlockEnd
  0
BLOCK
  5
7D7
100
AcDbEntity
  8
5
100
AcDbBlockBegin
  2
*D4
 70
     1
 10
0.0
 20
0.0
 30
0.0
  3
*D4
  1

  0
TEXT
  5
7D8
100
AcDbEntity
  8
5
 62
     2
100
AcDbText
 10
-234.541758
 20
368.988098
 30
0.0
 40
9.9
  1
102
 41
1.4
 72
     5
 11
-216.523758
 21
368.988098
 31
0.0
100
AcDbText
  0
LINE
  5
7D9
100
AcDbEntity
  8
5
 62
     2
100
AcDbLine
 10
-275.146758
 20
367.488098
 30
0.0
 11
-269.351203
 21
365.935184
 31
0.0
  0
LINE
  5
7DA
100
AcDbEntity
  8
5
 62
     2
100
AcDbLine
 10
-275.146758
 20
367.488098
 30
0.0
 11
-269.351203
 21
369.041012
 31
0.0
  0
LINE
  5
7DB
100
AcDbEntity
  8
5
 62
     2
100
AcDbLine
 10
-269.351203
 20
365.935184
 30
0.0
 11
-269.351203
 21
369.041012
 31
0.0
  0
LINE
  5
7DC
100
AcDbEntity
  8
5
 62
     2
100
AcDbLine
 10
-275.146758
 20
367.488098
 30
0.0
 11
-173.146758
 21
367.488098
 31
0.0
  0
LINE
  5
7DD
100
AcDbEntity
  8
5
 62
     2
100
AcDbLine
 10
-173.146758
 20
367.488098
 30
0.0
 11
-178.942313
 21
369.041012
 31
0.0
  0
LINE
  5
7DE
100
AcDbEntity
  8
5
 62
     2
100
AcDbLine
 10
-173.146758
 20
367.488098
 30
0.0
 11
-178.942313
 21
365.935184
 31
0.0
  0
LINE
  5
7DF
100
AcDbEntity
  8
5
 62
     2
100
AcDbLine
 10
-178.942313
 20
369.041012
 30
0.0
 11
-178.942313
 21
365.935184
 31
0.0
  0
LINE
  5
7E0
100
AcDbEntity
  8
5
 62
     2
100
AcDbLine
 10
-173.146758
 20
309.743338
 30
0.0
 11
-173.146758
 21
370.488098
 31
0.0
  0
ENDBLK
  5
7E1
100
AcDbEntity
  8
5
100
AcDbBlockEnd
  0
BLOCK
  5
7E2
100
AcDbEntity
  8
5
100
AcDbBlockBegin
  2
*D5
 70
     1
 10
0.0
 20
0.0
 30
0.0
  3
*D5
  1

  0
TEXT
  5
7E3
100
AcDbEntity
  8
5
 62
     2
100
AcDbText
 10
-133.089592
 20
281.784838
 30
0.0
 40
9.9
  1
53.8
 50
90.0
 41
1.4
 72
     5
 11
-133.089592
 21
306.732838
 31
0.0
100
AcDbText
  0
LINE
  5
7E4
100
AcDbEntity
  8
5
 62
     2
100
AcDbLine
 10
-166.641205
 20
268.743338
 30
0.0
 11
-128.589592
 21
268.743338
 31
0.0
  0
LINE
  5
7E5
100
AcDbEntity
  8
5
 62
     2
100
AcDbLine
 10
-131.589592
 20
268.743338
 30
0.0
 11
-130.036678
 21
274.538893
 31
0.0
  0
LINE
  5
7E6
100
AcDbEntity
  8
5
 62
     2
100
AcDbLine
 10
-131.589592
 20
268.743338
 30
0.0
 11
-133.142506
 21
274.538893
 31
0.0
  0
LINE
  5
7E7
100
AcDbEntity
  8
5
 62
     2
100
AcDbLine
 10
-130.036678
 20
274.538893
 30
0.0
 11
-133.142506
 21
274.538893
 31
0.0
  0
LINE
  5
7E8
100
AcDbEntity
  8
5
 62
     2
100
AcDbLine
 10
-131.589592
 20
268.743338
 30
0.0
 11
-131.589592
 21
322.546338
 31
0.0
  0
LINE
  5
7E9
100
AcDbEntity
  8
5
 62
     2
100
AcDbLine
 10
-131.589592
 20
322.546338
 30
0.0
 11
-133.142506
 21
316.750783
 31
0.0
  0
LINE
  5
7EA
100
AcDbEntity
  8
5
 62
     2
100
AcDbLine
 10
-131.589592
 20
322.546338
 30
0.0
 11
-130.036678
 21
316.750783
 31
0.0
  0
LINE
  5
7EB
100
AcDbEntity
  8
5
 62
     2
100
AcDbLine
 10
-133.142506
 20
316.750783
 30
0.0
 11
-130.036678
 21
316.750783
 31
0.0
  0
LINE
  5
7EC
100
AcDbEntity
  8
5
 62
     2
100
AcDbLine
 10
-188.343758
 20
322.546338
 30
0.0
 11
-128.589592
 21
322.546338
 31
0.0
  0
ENDBLK
  5
7ED
100
AcDbEntity
  8
5
100
AcDbBlockEnd
  0
BLOCK
  5
7EE
100
AcDbEntity
  8
5
100
AcDbBlockBegin
  2
*D6
 70
     1
 10
0.0
 20
0.0
 30
0.0
  3
*D6
  1

  0
TEXT
  5
7EF
100
AcDbEntity
  8
5
 62
     2
100
AcDbText
 10
-133.089592
 20
219.313338
 30
0.0
 40
9.9
  1
85
 50
90.0
 41
1.4
 72
     5
 11
-133.089592
 21
230.401338
 31
0.0
100
AcDbText
  0
LINE
  5
7F0
100
AcDbEntity
  8
5
 62
     2
100
AcDbLine
 10
-231.446758
 20
183.743338
 30
0.0
 11
-128.589592
 21
183.743338
 31
0.0
  0
LINE
  5
7F1
100
AcDbEntity
  8
5
 62
     2
100
AcDbLine
 10
-131.589592
 20
183.743338
 30
0.0
 11
-130.036678
 21
189.538893
 31
0.0
  0
LINE
  5
7F2
100
AcDbEntity
  8
5
 62
     2
100
AcDbLine
 10
-131.589592
 20
183.743338
 30
0.0
 11
-133.142506
 21
189.538893
 31
0.0
  0
LINE
  5
7F3
100
AcDbEntity
  8
5
 62
     2
100
AcDbLine
 10
-130.036678
 20
189.538893
 30
0.0
 11
-133.142506
 21
189.538893
 31
0.0
  0
LINE
  5
7F4
100
AcDbEntity
  8
5
 62
     2
100
AcDbLine
 10
-131.589592
 20
183.743338
 30
0.0
 11
-131.589592
 21
268.743338
 31
0.0
  0
LINE
  5
7F5
100
AcDbEntity
  8
5
 62
     2
100
AcDbLine
 10
-131.589592
 20
268.743338
 30
0.0
 11
-133.142506
 21
262.947783
 31
0.0
  0
LINE
  5
7F6
100
AcDbEntity
  8
5
 62
     2
100
AcDbLine
 10
-131.589592
 20
268.743338
 30
0.0
 11
-130.036678
 21
262.947783
 31
0.0
  0
LINE
  5
7F7
100
AcDbEntity
  8
5
 62
     2
100
AcDbLine
 10
-133.142506
 20
262.947783
 30
0.0
 11
-130.036678
 21
262.947783
 31
0.0
  0
ENDBLK
  5
7F8
100
AcDbEntity
  8
5
100
AcDbBlockEnd
  0
BLOCK
  5
7F9
100
AcDbEntity
  8
5
100
AcDbBlockBegin
  2
*D7
 70
     1
 10
0.0
 20
0.0
 30
0.0
  3
*D7
  1

  0
TEXT
  5
7FA
100
AcDbEntity
  8
5
 62
     2
100
AcDbText
 10
-50.558516
 20
-33.151662
 30
0.0
 40
9.9
  1
176
 50
90.0
 41
1.4
 72
     5
 11
-50.558516
 21
-15.133662
 31
0.0
100
AcDbText
  0
LINE
  5
7FB
100
AcDbEntity
  8
5
 62
     2
100
AcDbLine
 10
73.503242
 20
-110.756662
 30
0.0
 11
-52.058516
 21
-110.756662
 31
0.0
  0
LINE
  5
7FC
100
AcDbEntity
  8
5
 62
     2
100
AcDbLine
 10
-49.058516
 20
-110.756662
 30
0.0
 11
-47.505601
 21
-104.961107
 31
0.0
  0
LINE
  5
7FD
100
AcDbEntity
  8
5
 62
     2
100
AcDbLine
 10
-49.058516
 20
-110.756662
 30
0.0
 11
-50.61143
 21
-104.961107
 31
0.0
  0
LINE
  5
7FE
100
AcDbEntity
  8
5
 62
     2
100
AcDbLine
 10
-47.505601
 20
-104.961107
 30
0.0
 11
-50.61143
 21
-104.961107
 31
0.0
  0
LINE
  5
7FF
100
AcDbEntity
  8
5
 62
     2
100
AcDbLine
 10
-49.058516
 20
-110.756662
 30
0.0
 11
-49.058516
 21
65.243338
 31
0.0
  0
LINE
  5
800
100
AcDbEntity
  8
5
 62
     2
100
AcDbLine
 10
-49.058516
 20
65.243338
 30
0.0
 11
-50.61143
 21
59.447783
 31
0.0
  0
LINE
  5
801
100
AcDbEntity
  8
5
 62
     2
100
AcDbLine
 10
-49.058516
 20
65.243338
 30
0.0
 11
-47.505601
 21
59.447783
 31
0.0
  0
LINE
  5
802
100
AcDbEntity
  8
5
 62
     2
100
AcDbLine
 10
-50.61143
 20
59.447783
 30
0.0
 11
-47.505601
 21
59.447783
 31
0.0
  0
LINE
  5
803
100
AcDbEntity
  8
5
 62
     2
100
AcDbLine
 10
108.503242
 20
65.243338
 30
0.0
 11
-52.058516
 21
65.243338
 31
0.0
  0
ENDBLK
  5
804
100
AcDbEntity
  8
5
100
AcDbBlockEnd
  0
ENDSEC
  0
SECTION
  2
ENTITIES
  0
LINE
  5
2E
100
AcDbEntity
  8
1
  6
CENTER
 62
     2
100
AcDbLine
 10
-250.396758
 20
-102.771959
 30
0.0
 11
-250.396758
 21
-131.350849
 31
0.0
  0
LINE
  5
2F
100
AcDbEntity
  8
1
  6
CENTER
 62
     2
100
AcDbLine
 10
-299.896758
 20
-102.771959
 30
0.0
 11
-299.896758
 21
-131.350849
 31
0.0
  0
LINE
  5
30
100
AcDbEntity
  8
1
  6
CENTER
 62
     2
100
AcDbLine
 10
136.253242
 20
-102.771959
 30
0.0
 11
136.253242
 21
-131.350849
 31
0.0
  0
LINE
  5
31
100
AcDbEntity
  8
1
  6
CENTER
 62
     2
100
AcDbLine
 10
86.753242
 20
-102.771959
 30
0.0
 11
86.753242
 21
-131.350849
 31
0.0
  0
LINE
  5
32
100
AcDbEntity
  8
1
  6
CENTER
 62
     2
100
AcDbLine
 10
-275.146758
 20
73.033361
 30
0.0
 11
-275.146758
 21
-362.276662
 31
0.0
  0
LINE
  5
33
100
AcDbEntity
  8
1
  6
CENTER
 62
     2
100
AcDbLine
 10
111.503242
 20
72.82077
 30
0.0
 11
111.503242
 21
-362.276662
 31
0.0
  0
LINE
  5
34
100
AcDbEntity
  8
1
  6
DASHED
100
AcDbLine
 10
-300.146758
 20
303.743338
 30
0.0
 11
-250.146758
 21
303.743338
 31
0.0
  0
LINE
  5
35
100
AcDbEntity
  8
1
  6
DASHED
100
AcDbLine
 10
-300.146758
 20
233.743338
 30
0.0
 11
-250.146758
 21
233.743338
 31
0.0
  0
LINE
  5
36
100
AcDbEntity
  8
1
  6
DASHED
100
AcDbLine
 10
-310.146758
 20
243.743338
 30
0.0
 11
-310.146758
 21
293.743338
 31
0.0
  0
LINE
  5
37
100
AcDbEntity
  8
1
  6
DASHED
100
AcDbLine
 10
-240.146758
 20
243.743338
 30
0.0
 11
-240.146758
 21
293.743338
 31
0.0
  0
ARC
  5
38
100
AcDbEntity
  8
1
  6
DASHED
100
AcDbCircle
 10
-300.146758
 20
243.743338
 30
0.0
 40
10.0
100
AcDbArc
 50
180.0
 51
270.0
  0
ARC
  5
39
100
AcDbEntity
  8
1
  6
DASHED
100
AcDbCircle
 10
-250.146758
 20
243.743338
 30
0.0
 40
10.0
100
AcDbArc
 50
270.0
 51
0.0
  0
ARC
  5
3A
100
AcDbEntity
  8
1
  6
DASHED
100
AcDbCircle
 10
-250.146758
 20
293.743338
 30
0.0
 40
10.0
100
AcDbArc
 50
0.0
 51
90.0
  0
ARC
  5
3B
100
AcDbEntity
  8
1
  6
DASHED
100
AcDbCircle
 10
-300.146758
 20
293.743338
 30
0.0
 40
10.0
100
AcDbArc
 50
90.0
 51
180.0
  0
CIRCLE
  5
3C
100
AcDbEntity
  8
1
  6
DASHED
100
AcDbCircle
 10
-250.396758
 20
293.493338
 30
0.0
 40
4.5
  0
CIRCLE
  5
3D
100
AcDbEntity
  8
1
  6
DASHED
100
AcDbCircle
 10
-250.396758
 20
243.993338
 30
0.0
 40
4.5
  0
CIRCLE
  5
3E
100
AcDbEntity
  8
1
  6
DASHED
100
AcDbCircle
 10
-299.896758
 20
243.993338
 30
0.0
 40
4.5
  0
CIRCLE
  5
3F
100
AcDbEntity
  8
1
  6
DASHED
100
AcDbCircle
 10
-299.896758
 20
293.493338
 30
0.0
 40
4.5
  0
LINE
  5
40
100
AcDbEntity
  8
1
  6
CENTER
 62
     2
100
AcDbLine
 10
-258.896758
 20
293.493338
 30
0.0
 11
-241.896758
 21
293.493338
 31
0.0
  0
LINE
  5
41
100
AcDbEntity
  8
1
  6
CENTER
 62
     2
100
AcDbLine
 10
-250.396758
 20
284.993338
 30
0.0
 11
-250.396758
 21
301.993338
 31
0.0
  0
LINE
  5
42
100
AcDbEntity
  8
1
  6
CENTER
 62
     2
100
AcDbLine
 10
-291.396758
 20
293.493338
 30
0.0
 11
-308.396758
 21
293.493338
 31
0.0
  0
LINE
  5
43
100
AcDbEntity
  8
1
  6
CENTER
 62
     2
100
AcDbLine
 10
-299.896758
 20
284.993338
 30
0.0
 11
-299.896758
 21
301.993338
 31
0.0
  0
LINE
  5
44
100
AcDbEntity
  8
1
  6
CENTER
 62
     2
100
AcDbLine
 10
-258.896758
 20
243.993338
 30
0.0
 11
-241.896758
 21
243.993338
 31
0.0
  0
LINE
  5
45
100
AcDbEntity
  8
1
  6
CENTER
 62
     2
100
AcDbLine
 10
-250.396758
 20
252.493338
 30
0.0
 11
-250.396758
 21
235.493338
 31
0.0
  0
LINE
  5
46
100
AcDbEntity
  8
1
  6
CENTER
 62
     2
100
AcDbLine
 10
-291.396758
 20
243.993338
 30
0.0
 11
-308.396758
 21
243.993338
 31
0.0
  0
LINE
  5
47
100
AcDbEntity
  8
1
  6
CENTER
 62
     2
100
AcDbLine
 10
-299.896758
 20
252.493338
 30
0.0
 11
-299.896758
 21
235.493338
 31
0.0
  0
LINE
  5
48
100
AcDbEntity
  8
1
  6
DASHED
100
AcDbLine
 10
-207.146758
 20
291.743338
 30
0.0
 11
-240.146758
 21
291.743338
 31
0.0
  0
LINE
  5
49
100
AcDbEntity
  8
1
  6
DASHED
100
AcDbLine
 10
-210.646758
 20
245.743338
 30
0.0
 11
-240.146758
 21
245.743338
 31
0.0
  0
LINE
  5
4A
100
AcDbEntity
  8
1
  6
DASHED
100
AcDbLine
 10
-206.146758
 20
287.143338
 30
0.0
 11
-206.146758
 21
290.743338
 31
0.0
  0
LINE
  5
4B
100
AcDbEntity
  8
1
  6
DASHED
100
AcDbLine
 10
-206.146758
 20
287.143338
 30
0.0
 11
-240.146758
 21
287.143338
 31
0.0
  0
LINE
  5
4C
100
AcDbEntity
  8
1
  6
DASHED
100
AcDbLine
 10
-206.146758
 20
287.143338
 30
0.0
 11
-208.423215
 21
286.533363
 31
0.0
  0
LINE
  5
4D
100
AcDbEntity
  8
1
  6
DASHED
100
AcDbLine
 10
-206.146758
 20
290.743338
 30
0.0
 11
-207.146758
 21
291.743338
 31
0.0
  0
LINE
  5
4E
100
AcDbEntity
  8
1
  6
DASHED
100
AcDbLine
 10
-210.646758
 20
285.937567
 30
0.0
 11
-240.146758
 21
285.937567
 31
0.0
  0
LINE
  5
4F
100
AcDbEntity
  8
1
  6
DASHED
100
AcDbLine
 10
-210.646758
 20
245.743338
 30
0.0
 11
-210.646758
 21
253.941357
 31
0.0
  0
LINE
  5
50
100
AcDbEntity
  8
1
  6
DASHED
100
AcDbLine
 10
-210.646758
 20
283.545319
 30
0.0
 11
-210.646758
 21
283.635586
 31
0.0
  0
ARC
  5
51
100
AcDbEntity
  8
1
  6
DASHED
100
AcDbCircle
 10
-217.132197
 20
275.364465
 30
0.0
 40
4.0
100
AcDbArc
 50
105.0
 51
180.0
  0
ARC
  5
52
100
AcDbEntity
  8
1
  6
DASHED
100
AcDbCircle
 10
-217.132197
 20
262.122211
 30
0.0
 40
4.0
100
AcDbArc
 50
180.0
 51
255.0
  0
ARC
  5
53
100
AcDbEntity
  8
1
  6
DASHED
100
AcDbCircle
 10
-213.646758
 20
283.545319
 30
0.0
 40
3.0
100
AcDbArc
 50
285.0
 51
360.0
  0
ARC
  5
54
100
AcDbEntity
  8
1
  6
DASHED
100
AcDbCircle
 10
-213.646758
 20
253.941357
 30
0.0
 40
3.0
100
AcDbArc
 50
0.0
 51
75.0
  0
ARC
  5
55
100
AcDbEntity
  8
1
  6
DASHED
100
AcDbCircle
 10
-207.646758
 20
283.635586
 30
0.0
 40
3.0
100
AcDbArc
 50
105.0
 51
180.0
  0
LINE
  5
56
100
AcDbEntity
  8
1
  6
DASHED
100
AcDbLine
 10
-221.132197
 20
262.122211
 30
0.0
 11
-221.132197
 21
275.364465
 31
0.0
  0
LINE
  5
57
100
AcDbEntity
  8
1
  6
DASHED
100
AcDbLine
 10
-223.632197
 20
261.243338
 30
0.0
 11
-223.632197
 21
276.243338
 31
0.0
  0
LINE
  5
58
100
AcDbEntity
  8
1
  6
DASHED
100
AcDbLine
 10
-237.199426
 20
264.324754
 30
0.0
 11
-237.199426
 21
273.161923
 31
0.0
  0
ARC
  5
59
100
AcDbEntity
  8
1
  6
DASHED
100
AcDbCircle
 10
-228.632197
 20
276.243338
 30
0.0
 40
5.0
100
AcDbArc
 50
0.0
 51
90.0
  0
ARC
  5
5A
100
AcDbEntity
  8
1
  6
DASHED
100
AcDbCircle
 10
-228.632197
 20
261.243338
 30
0.0
 40
5.0
100
AcDbArc
 50
270.0
 51
360.0
  0
ARC
  5
5B
100
AcDbEntity
  8
1
  6
DASHED
100
AcDbCircle
 10
-242.199426
 20
273.161923
 30
0.0
 40
5.0
100
AcDbArc
 50
0.0
 51
65.76164
  0
ARC
  5
5C
100
AcDbEntity
  8
1
  6
DASHED
100
AcDbCircle
 10
-242.199426
 20
264.324754
 30
0.0
 40
5.0
100
AcDbArc
 50
294.23836
 51
360.0
  0
LINE
  5
5D
100
AcDbEntity
  8
1
  6
DASHED
100
AcDbLine
 10
-228.632197
 20
280.107728
 30
0.0
 11
-237.199426
 21
278.161923
 31
0.0
  0
LINE
  5
5E
100
AcDbEntity
  8
1
  6
DASHED
100
AcDbLine
 10
-228.632197
 20
257.378948
 30
0.0
 11
-237.199426
 21
259.324754
 31
0.0
  0
LINE
  5
5F
100
AcDbEntity
  8
1
  6
DASHED
100
AcDbLine
 10
-212.870301
 20
256.839135
 30
0.0
 11
-218.167473
 21
258.258508
 31
0.0
  0
LINE
  5
60
100
AcDbEntity
  8
1
  6
DASHED
100
AcDbLine
 10
-212.870301
 20
280.647542
 30
0.0
 11
-218.167473
 21
279.228169
 31
0.0
  0
LINE
  5
61
100
AcDbEntity
  8
1
  6
DASHED
100
AcDbLine
 10
-240.146758
 20
281.243338
 30
0.0
 11
-228.632197
 21
281.243338
 31
0.0
  0
LINE
  5
62
100
AcDbEntity
  8
1
  6
DASHED
100
AcDbLine
 10
-240.146758
 20
256.243338
 30
0.0
 11
-228.632197
 21
256.243338
 31
0.0
  0
LINE
  5
63
100
AcDbEntity
  8
1
  6
DASHED
100
AcDbLine
 10
-206.146758
 20
290.743338
 30
0.0
 11
-240.146758
 21
290.743338
 31
0.0
  0
LINE
  5
64
100
AcDbEntity
  8
1
  6
DASHED
100
AcDbLine
 10
-218.246758
 20
292.843338
 30
0.0
 11
-240.146758
 21
292.843338
 31
0.0
  0
LINE
  5
65
100
AcDbEntity
  8
1
  6
DASHED
100
AcDbLine
 10
-217.146758
 20
291.743338
 30
0.0
 11
-218.246758
 21
292.843338
 31
0.0
  0
LINE
  5
66
100
AcDbEntity
  8
1
  6
DASHED
100
AcDbLine
 10
-218.246758
 20
244.643338
 30
0.0
 11
-240.146758
 21
244.643338
 31
0.0
  0
LINE
  5
67
100
AcDbEntity
  8
1
  6
DASHED
100
AcDbLine
 10
-217.146758
 20
245.743338
 30
0.0
 11
-218.246758
 21
244.643338
 31
0.0
  0
LINE
  5
68
100
AcDbEntity
  8
1
  6
DASHED
100
AcDbLine
 10
-343.146758
 20
291.743338
 30
0.0
 11
-310.146758
 21
291.743338
 31
0.0
  0
LINE
  5
69
100
AcDbEntity
  8
1
  6
DASHED
100
AcDbLine
 10
-339.646758
 20
245.743338
 30
0.0
 11
-310.146758
 21
245.743338
 31
0.0
  0
LINE
  5
6A
100
AcDbEntity
  8
1
  6
DASHED
100
AcDbLine
 10
-344.146758
 20
287.143338
 30
0.0
 11
-344.146758
 21
290.743338
 31
0.0
  0
LINE
  5
6B
100
AcDbEntity
  8
1
  6
DASHED
100
AcDbLine
 10
-344.146758
 20
287.143338
 30
0.0
 11
-310.146758
 21
287.143338
 31
0.0
  0
LINE
  5
6C
100
AcDbEntity
  8
1
  6
DASHED
100
AcDbLine
 10
-344.146758
 20
287.143338
 30
0.0
 11
-341.870301
 21
286.533363
 31
0.0
  0
LINE
  5
6D
100
AcDbEntity
  8
1
  6
DASHED
100
AcDbLine
 10
-344.146758
 20
290.743338
 30
0.0
 11
-343.146758
 21
291.743338
 31
0.0
  0
LINE
  5
6E
100
AcDbEntity
  8
1
  6
DASHED
100
AcDbLine
 10
-339.646758
 20
285.937567
 30
0.0
 11
-310.146758
 21
285.937567
 31
0.0
  0
LINE
  5
6F
100
AcDbEntity
  8
1
  6
DASHED
100
AcDbLine
 10
-339.646758
 20
245.743338
 30
0.0
 11
-339.646758
 21
253.941357
 31
0.0
  0
LINE
  5
70
100
AcDbEntity
  8
1
  6
DASHED
100
AcDbLine
 10
-339.646758
 20
283.545319
 30
0.0
 11
-339.646758
 21
283.635586
 31
0.0
  0
ARC
  5
71
100
AcDbEntity
  8
1
  6
DASHED
100
AcDbCircle
 10
-333.161319
 20
275.364465
 30
0.0
 40
4.0
100
AcDbArc
 50
0.0
 51
75.0
  0
ARC
  5
72
100
AcDbEntity
  8
1
  6
DASHED
100
AcDbCircle
 10
-333.161319
 20
262.122211
 30
0.0
 40
4.0
100
AcDbArc
 50
285.0
 51
0.0
  0
ARC
  5
73
100
AcDbEntity
  8
1
  6
DASHED
100
AcDbCircle
 10
-336.646758
 20
283.545319
 30
0.0
 40
3.0
100
AcDbArc
 50
180.0
 51
255.0
  0
ARC
  5
74
100
AcDbEntity
  8
1
  6
DASHED
100
AcDbCircle
 10
-336.646758
 20
253.941357
 30
0.0
 40
3.0
100
AcDbArc
 50
105.0
 51
180.0
  0
ARC
  5
75
100
AcDbEntity
  8
1
  6
DASHED
100
AcDbCircle
 10
-342.646758
 20
283.635586
 30
0.0
 40
3.0
100
AcDbArc
 50
360.0
 51
75.0
  0
LINE
  5
76
100
AcDbEntity
  8
1
  6
DASHED
100
AcDbLine
 10
-329.161319
 20
262.122211
 30
0.0
 11
-329.161319
 21
275.364465
 31
0.0
  0
LINE
  5
77
100
AcDbEntity
  8
1
  6
DASHED
100
AcDbLine
 10
-326.661319
 20
261.243338
 30
0.0
 11
-326.661319
 21
276.243338
 31
0.0
  0
LINE
  5
78
100
AcDbEntity
  8
1
  6
DASHED
100
AcDbLine
 10
-313.09409
 20
264.324754
 30
0.0
 11
-313.09409
 21
273.161923
 31
0.0
  0
ARC
  5
79
100
AcDbEntity
  8
1
  6
DASHED
100
AcDbCircle
 10
-321.661319
 20
276.243338
 30
0.0
 40
5.0
100
AcDbArc
 50
90.0
 51
180.0
  0
ARC
  5
7A
100
AcDbEntity
  8
1
  6
DASHED
100
AcDbCircle
 10
-321.661319
 20
261.243338
 30
0.0
 40
5.0
100
AcDbArc
 50
180.0
 51
270.0
  0
ARC
  5
7B
100
AcDbEntity
  8
1
  6
DASHED
100
AcDbCircle
 10
-308.09409
 20
273.161923
 30
0.0
 40
5.0
100
AcDbArc
 50
114.23836
 51
180.0
  0
ARC
  5
7C
100
AcDbEntity
  8
1
  6
DASHED
100
AcDbCircle
 10
-308.09409
 20
264.324754
 30
0.0
 40
5.0
100
AcDbArc
 50
180.0
 51
245.76164
  0
LINE
  5
7D
100
AcDbEntity
  8
1
  6
DASHED
100
AcDbLine
 10
-321.661319
 20
280.107728
 30
0.0
 11
-313.09409
 21
278.161923
 31
0.0
  0
LINE
  5
7E
100
AcDbEntity
  8
1
  6
DASHED
100
AcDbLine
 10
-321.661319
 20
257.378948
 30
0.0
 11
-313.09409
 21
259.324754
 31
0.0
  0
LINE
  5
7F
100
AcDbEntity
  8
1
  6
DASHED
100
AcDbLine
 10
-337.423215
 20
256.839135
 30
0.0
 11
-332.126043
 21
258.258508
 31
0.0
  0
LINE
  5
80
100
AcDbEntity
  8
1
  6
DASHED
100
AcDbLine
 10
-337.423215
 20
280.647542
 30
0.0
 11
-332.126043
 21
279.228169
 31
0.0
  0
LINE
  5
81
100
AcDbEntity
  8
1
  6
DASHED
100
AcDbLine
 10
-310.146758
 20
281.243338
 30
0.0
 11
-321.661319
 21
281.243338
 31
0.0
  0
LINE
  5
82
100
AcDbEntity
  8
1
  6
DASHED
100
AcDbLine
 10
-310.146758
 20
256.243338
 30
0.0
 11
-321.661319
 21
256.243338
 31
0.0
  0
LINE
  5
83
100
AcDbEntity
  8
1
  6
DASHED
100
AcDbLine
 10
-344.146758
 20
290.743338
 30
0.0
 11
-310.146758
 21
290.743338
 31
0.0
  0
LINE
  5
84
100
AcDbEntity
  8
1
  6
DASHED
100
AcDbLine
 10
-332.046758
 20
292.843338
 30
0.0
 11
-310.146758
 21
292.843338
 31
0.0
  0
LINE
  5
85
100
AcDbEntity
  8
1
  6
DASHED
100
AcDbLine
 10
-333.146758
 20
291.743338
 30
0.0
 11
-332.046758
 21
292.843338
 31
0.0
  0
LINE
  5
86
100
AcDbEntity
  8
1
  6
DASHED
100
AcDbLine
 10
-332.046758
 20
244.643338
 30
0.0
 11
-310.146758
 21
244.643338
 31
0.0
  0
LINE
  5
87
100
AcDbEntity
  8
1
  6
DASHED
100
AcDbLine
 10
-333.146758
 20
245.743338
 30
0.0
 11
-332.046758
 21
244.643338
 31
0.0
  0
LINE
  5
88
100
AcDbEntity
  8
1
  6
CENTER
 62
     2
100
AcDbLine
 10
72.263242
 20
-266.756662
 30
0.0
 11
148.447482
 21
-266.756662
 31
0.0
  0
LINE
  5
89
100
AcDbEntity
  8
1
100
AcDbLine
 10
76.503242
 20
-110.756662
 30
0.0
 11
76.503242
 21
-118.756662
 31
0.0
  0
LINE
  5
8A
100
AcDbEntity
  8
1
100
AcDbLine
 10
146.503242
 20
-110.756662
 30
0.0
 11
146.503242
 21
-118.756662
 31
0.0
  0
LINE
  5
8B
100
AcDbEntity
  8
1
100
AcDbLine
 10
112.388137
 20
-348.556662
 30
0.0
 11
124.588137
 21
-348.556662
 31
0.0
  0
LINE
  5
8C
100
AcDbEntity
  8
1
100
AcDbLine
 10
123.488137
 20
-348.556662
 30
0.0
 11
123.488137
 21
-352.556662
 31
0.0
  0
ARC
  5
8D
100
AcDbEntity
  8
1
100
AcDbCircle
 10
120.988137
 20
-345.943454
 30
0.0
 40
6.613208
100
AcDbArc
 50
247.788205
 51
292.211795
  0
LINE
  5
8E
100
AcDbEntity
  8
1
100
AcDbLine
 10
113.488137
 20
-348.556662
 30
0.0
 11
113.488137
 21
-352.556662
 31
0.0
  0
LINE
  5
8F
100
AcDbEntity
  8
1
100
AcDbLine
 10
113.488137
 20
-352.556662
 30
0.0
 11
123.488137
 21
-352.556662
 31
0.0
  0
LINE
  5
90
100
AcDbEntity
  8
1
100
AcDbLine
 10
118.488137
 20
-348.556662
 30
0.0
 11
118.488137
 21
-352.065914
 31
0.0
  0
ARC
  5
91
100
AcDbEntity
  8
1
100
AcDbCircle
 10
115.988137
 20
-345.943454
 30
0.0
 40
6.613208
100
AcDbArc
 50
247.788205
 51
292.211795
  0
LINE
  5
92
100
AcDbEntity
  8
1
100
AcDbLine
 10
124.588137
 20
-347.056662
 30
0.0
 11
124.588137
 21
-348.556662
 31
0.0
  0
LINE
  5
93
100
AcDbEntity
  8
1
100
AcDbLine
 10
112.388137
 20
-348.556662
 30
0.0
 11
112.388137
 21
-347.056662
 31
0.0
  0
LINE
  5
94
100
AcDbEntity
  8
1
100
AcDbLine
 10
98.503242
 20
-343.756662
 30
0.0
 11
124.503242
 21
-343.756662
 31
0.0
  0
LINE
  5
95
100
AcDbEntity
  8
1
100
AcDbLine
 10
98.503242
 20
-330.634344
 30
0.0
 11
98.503242
 21
-343.756662
 31
0.0
  0
LINE
  5
96
100
AcDbEntity
  8
1
100
AcDbLine
 10
124.503242
 20
-330.634344
 30
0.0
 11
124.503242
 21
-343.756662
 31
0.0
  0
LINE
  5
97
100
AcDbEntity
  8
1
100
AcDbLine
 10
98.018347
 20
-347.056662
 30
0.0
 11
124.988137
 21
-347.056662
 31
0.0
  0
LINE
  5
98
100
AcDbEntity
  8
1
100
AcDbLine
 10
143.503242
 20
-121.756662
 30
0.0
 11
79.503242
 21
-121.756662
 31
0.0
  0
ARC
  5
99
100
AcDbEntity
  8
1
100
AcDbCircle
 10
143.503242
 20
-118.756662
 30
0.0
 40
3.0
100
AcDbArc
 50
270.0
 51
360.0
  0
ARC
  5
9A
100
AcDbEntity
  8
1
100
AcDbCircle
 10
79.503242
 20
-118.756662
 30
0.0
 40
3.0
100
AcDbArc
 50
180.0
 51
270.0
  0
LINE
  5
9B
100
AcDbEntity
  8
1
100
AcDbLine
 10
95.503242
 20
-130.220763
 30
0.0
 11
95.503242
 21
-198.357659
 31
0.0
  0
LINE
  5
9C
100
AcDbEntity
  8
1
100
AcDbLine
 10
127.503242
 20
-130.220763
 30
0.0
 11
127.503242
 21
-194.729017
 31
0.0
  0
LINE
  5
9D
100
AcDbEntity
  8
1
100
AcDbLine
 10
88.503242
 20
-202.256662
 30
0.0
 11
90.503242
 21
-202.256662
 31
0.0
  0
LINE
  5
9E
100
AcDbEntity
  8
1
100
AcDbLine
 10
88.503242
 20
-331.256662
 30
0.0
 11
93.503242
 21
-331.256662
 31
0.0
  0
LINE
  5
9F
100
AcDbEntity
  8
1
100
AcDbLine
 10
128.503242
 20
-335.756662
 30
0.0
 11
133.503242
 21
-335.756662
 31
0.0
  0
LINE
  5
A0
100
AcDbEntity
  8
1
100
AcDbLine
 10
128.403242
 20
-197.756662
 30
0.0
 11
133.503242
 21
-197.756662
 31
0.0
  0
LINE
  5
A1
100
AcDbEntity
  8
1
100
AcDbLine
 10
133.503242
 20
-197.756662
 30
0.0
 11
134.503242
 21
-198.756662
 31
0.0
  0
LINE
  5
A2
100
AcDbEntity
  8
1
100
AcDbLine
 10
133.503242
 20
-335.756662
 30
0.0
 11
134.503242
 21
-334.756662
 31
0.0
  0
ARC
  5
A3
100
AcDbEntity
  8
1
100
AcDbCircle
 10
90.503242
 20
-197.256662
 30
0.0
 40
5.0
100
AcDbArc
 50
270.0
 51
360.0
  0
ARC
  5
A4
100
AcDbEntity
  8
1
100
AcDbCircle
 10
131.503242
 20
-193.756662
 30
0.0
 40
4.0
100
AcDbArc
 50
180.0
 51
219.194967
  0
LINE
  5
A5
100
AcDbEntity
  8
1
100
AcDbLine
 10
129.503242
 20
-125.756662
 30
0.0
 11
129.503242
 21
-126.756662
 31
0.0
  0
LINE
  5
A6
100
AcDbEntity
  8
1
100
AcDbLine
 10
93.503242
 20
-125.756662
 30
0.0
 11
93.503242
 21
-126.756662
 31
0.0
  0
ARC
  5
A7
100
AcDbEntity
  8
1
100
AcDbCircle
 10
133.503242
 20
-125.756662
 30
0.0
 40
4.0
100
AcDbArc
 50
90.0
 51
180.0
  0
ARC
  5
A8
100
AcDbEntity
  8
1
100
AcDbCircle
 10
89.503242
 20
-125.756662
 30
0.0
 40
4.0
100
AcDbArc
 50
0.0
 51
90.0
  0
ARC
  5
A9
100
AcDbEntity
  8
1
100
AcDbCircle
 10
127.503242
 20
-126.756662
 30
0.0
 40
2.0
100
AcDbArc
 50
300.0
 51
0.0
  0
ARC
  5
AA
100
AcDbEntity
  8
1
100
AcDbCircle
 10
95.503242
 20
-126.756662
 30
0.0
 40
2.0
100
AcDbArc
 50
180.0
 51
240.0
  0
ARC
  5
AB
100
AcDbEntity
  8
1
100
AcDbCircle
 10
129.503242
 20
-130.220763
 30
0.0
 40
2.0
100
AcDbArc
 50
120.0
 51
180.0
  0
ARC
  5
AC
100
AcDbEntity
  8
1
100
AcDbCircle
 10
93.503242
 20
-130.220763
 30
0.0
 40
2.0
100
AcDbArc
 50
0.0
 51
60.0
  0
ARC
  5
AD
100
AcDbEntity
  8
1
100
AcDbCircle
 10
93.503242
 20
-336.256662
 30
0.0
 40
5.0
100
AcDbArc
 50
0.0
 51
90.0
  0
ARC
  5
AE
100
AcDbEntity
  8
1
100
AcDbCircle
 10
128.503242
 20
-339.756662
 30
0.0
 40
4.0
100
AcDbArc
 50
90.0
 51
180.0
  0
LINE
  5
AF
100
AcDbEntity
  8
1
  6
CENTER
 62
     2
100
AcDbLine
 10
118.488137
 20
-356.673454
 30
0.0
 11
118.488137
 21
-335.613053
 31
0.0
  0
LINE
  5
B0
100
AcDbEntity
  8
1
100
AcDbLine
 10
98.018347
 20
-344.756662
 30
0.0
 11
124.988137
 21
-344.756662
 31
0.0
  0
LINE
  5
B1
100
AcDbEntity
  8
1
100
AcDbLine
 10
123.988137
 20
-344.756662
 30
0.0
 11
123.988137
 21
-343.756662
 31
0.0
  0
LINE
  5
B2
100
AcDbEntity
  8
1
100
AcDbLine
 10
124.988137
 20
-347.056662
 30
0.0
 11
124.988137
 21
-344.756662
 31
0.0
  0
LINE
  5
B3
100
AcDbEntity
  8
1
100
AcDbLine
 10
99.018347
 20
-344.756662
 30
0.0
 11
99.018347
 21
-343.756662
 31
0.0
  0
LINE
  5
B4
100
AcDbEntity
  8
1
100
AcDbLine
 10
98.018347
 20
-347.056662
 30
0.0
 11
98.018347
 21
-344.756662
 31
0.0
  0
LINE
  5
B5
100
AcDbEntity
  8
1
100
AcDbLine
 10
134.503242
 20
-198.756662
 30
0.0
 11
134.503242
 21
-334.756662
 31
0.0
  0
LINE
  5
B6
100
AcDbEntity
  8
1
100
AcDbLine
 10
88.503242
 20
-331.256662
 30
0.0
 11
88.503242
 21
-202.256662
 31
0.0
  0
LINE
  5
B7
100
AcDbEntity
  8
1
100
AcDbLine
 10
135.603242
 20
-209.856662
 30
0.0
 11
135.603242
 21
-323.656662
 31
0.0
  0
LINE
  5
B8
100
AcDbEntity
  8
1
100
AcDbLine
 10
134.503242
 20
-208.756662
 30
0.0
 11
135.603242
 21
-209.856662
 31
0.0
  0
LINE
  5
B9
100
AcDbEntity
  8
1
100
AcDbLine
 10
87.403242
 20
-209.856662
 30
0.0
 11
87.403242
 21
-323.656662
 31
0.0
  0
LINE
  5
BA
100
AcDbEntity
  8
1
100
AcDbLine
 10
88.503242
 20
-208.756662
 30
0.0
 11
87.403242
 21
-209.856662
 31
0.0
  0
LINE
  5
BB
100
AcDbEntity
  8
1
100
AcDbLine
 10
134.503242
 20
-324.756662
 30
0.0
 11
135.603242
 21
-323.656662
 31
0.0
  0
LINE
  5
BC
100
AcDbEntity
  8
1
100
AcDbLine
 10
88.503242
 20
-324.756662
 30
0.0
 11
87.403242
 21
-323.656662
 31
0.0
  0
LINE
  5
BD
100
AcDbEntity
  8
1
100
AcDbLine
 10
110.618347
 20
-348.556662
 30
0.0
 11
98.418347
 21
-348.556662
 31
0.0
  0
LINE
  5
BE
100
AcDbEntity
  8
1
100
AcDbLine
 10
99.518347
 20
-348.556662
 30
0.0
 11
99.518347
 21
-352.556662
 31
0.0
  0
ARC
  5
BF
100
AcDbEntity
  8
1
100
AcDbCircle
 10
102.018347
 20
-345.943454
 30
0.0
 40
6.613208
100
AcDbArc
 50
247.788205
 51
292.211795
  0
LINE
  5
C0
100
AcDbEntity
  8
1
100
AcDbLine
 10
109.518347
 20
-348.556662
 30
0.0
 11
109.518347
 21
-352.556662
 31
0.0
  0
LINE
  5
C1
100
AcDbEntity
  8
1
100
AcDbLine
 10
109.518347
 20
-352.556662
 30
0.0
 11
99.518347
 21
-352.556662
 31
0.0
  0
LINE
  5
C2
100
AcDbEntity
  8
1
100
AcDbLine
 10
104.518347
 20
-348.556662
 30
0.0
 11
104.518347
 21
-352.065914
 31
0.0
  0
ARC
  5
C3
100
AcDbEntity
  8
1
100
AcDbCircle
 10
107.018347
 20
-345.943454
 30
0.0
 40
6.613208
100
AcDbArc
 50
247.788205
 51
292.211795
  0
LINE
  5
C4
100
AcDbEntity
  8
1
100
AcDbLine
 10
98.418347
 20
-347.056662
 30
0.0
 11
98.418347
 21
-348.556662
 31
0.0
  0
LINE
  5
C5
100
AcDbEntity
  8
1
100
AcDbLine
 10
110.618347
 20
-348.556662
 30
0.0
 11
110.618347
 21
-347.056662
 31
0.0
  0
LINE
  5
C6
100
AcDbEntity
  8
1
  6
CENTER
 62
     2
100
AcDbLine
 10
104.518347
 20
-356.673454
 30
0.0
 11
104.518347
 21
-335.613053
 31
0.0
  0
LINE
  5
C7
100
AcDbEntity
  8
1
100
AcDbLine
 10
104.817842
 20
-129.262905
 30
0.0
 11
99.665342
 21
-202.947077
 31
0.0
  0
LINE
  5
C8
100
AcDbEntity
  8
1
100
AcDbLine
 10
118.188642
 20
-129.262905
 30
0.0
 11
123.341141
 21
-202.947077
 31
0.0
  0
LINE
  5
C9
100
AcDbEntity
  8
1
100
AcDbLine
 10
104.047398
 20
-125.756662
 30
0.0
 11
104.047398
 21
-126.756662
 31
0.0
  0
LINE
  5
CA
100
AcDbEntity
  8
1
100
AcDbLine
 10
118.959086
 20
-125.756662
 30
0.0
 11
118.959086
 21
-126.756662
 31
0.0
  0
ARC
  5
CB
100
AcDbEntity
  8
1
100
AcDbCircle
 10
122.959086
 20
-125.756662
 30
0.0
 40
4.0
100
AcDbArc
 50
90.0
 51
180.0
  0
ARC
  5
CC
100
AcDbEntity
  8
1
100
AcDbCircle
 10
100.047398
 20
-125.756662
 30
0.0
 40
4.0
100
AcDbArc
 50
0.0
 51
90.0
  0
ARC
  5
CD
100
AcDbEntity
  8
1
100
AcDbCircle
 10
116.959086
 20
-126.756662
 30
0.0
 40
2.0
100
AcDbArc
 50
323.723496
 51
360.0
  0
ARC
  5
CE
100
AcDbEntity
  8
1
100
AcDbCircle
 10
106.047398
 20
-126.756662
 30
0.0
 40
2.0
100
AcDbArc
 50
180.0
 51
216.276504
  0
ARC
  5
CF
100
AcDbEntity
  8
1
100
AcDbCircle
 10
120.18377
 20
-129.123392
 30
0.0
 40
2.0
100
AcDbArc
 50
143.723496
 51
184.0
  0
ARC
  5
D0
100
AcDbEntity
  8
1
100
AcDbCircle
 10
102.822714
 20
-129.123392
 30
0.0
 40
2.0
100
AcDbArc
 50
356.0
 51
36.276504
  0
LINE
  5
D1
100
AcDbEntity
  8
1
100
AcDbLine
 10
95.503242
 20
-128.756662
 30
0.0
 11
104.047398
 21
-128.756662
 31
0.0
  0
LINE
  5
D2
100
AcDbEntity
  8
1
100
AcDbLine
 10
107.503242
 20
-128.756662
 30
0.0
 11
115.503242
 21
-128.756662
 31
0.0
  0
LINE
  5
D3
100
AcDbEntity
  8
1
100
AcDbLine
 10
118.959086
 20
-128.756662
 30
0.0
 11
127.503242
 21
-128.756662
 31
0.0
  0
LINE
  5
D4
100
AcDbEntity
  8
1
100
AcDbLine
 10
107.503242
 20
-123.756662
 30
0.0
 11
107.503242
 21
-126.756662
 31
0.0
  0
LINE
  5
D5
100
AcDbEntity
  8
1
100
AcDbLine
 10
115.503242
 20
-123.756662
 30
0.0
 11
115.503242
 21
-126.756662
 31
0.0
  0
ARC
  5
D6
100
AcDbEntity
  8
1
100
AcDbCircle
 10
117.503242
 20
-123.756662
 30
0.0
 40
2.0
100
AcDbArc
 50
90.0
 51
180.0
  0
ARC
  5
D7
100
AcDbEntity
  8
1
100
AcDbCircle
 10
105.503242
 20
-123.756662
 30
0.0
 40
2.0
100
AcDbArc
 50
0.0
 51
90.0
  0
ARC
  5
D8
100
AcDbEntity
  8
1
100
AcDbCircle
 10
105.503242
 20
-126.756662
 30
0.0
 40
2.0
100
AcDbArc
 50
270.0
 51
360.0
  0
ARC
  5
D9
100
AcDbEntity
  8
1
100
AcDbCircle
 10
117.503242
 20
-126.756662
 30
0.0
 40
2.0
100
AcDbArc
 50
180.0
 51
270.0
  0
ARC
  5
DA
100
AcDbEntity
  8
1
100
AcDbCircle
 10
90.503242
 20
-198.357659
 30
0.0
 40
5.0
100
AcDbArc
 50
270.0
 51
0.0
  0
LINE
  5
DB
100
AcDbEntity
  8
1
100
AcDbLine
 10
94.73423
 20
-203.116353
 30
0.0
 11
97.79323
 21
-204.076227
 31
0.0
  0
LINE
  5
DC
100
AcDbEntity
  8
1
100
AcDbLine
 10
129.903242
 20
-199.902031
 30
0.0
 11
129.903242
 21
-333.629676
 31
0.0
  0
LINE
  5
DD
100
AcDbEntity
  8
1
100
AcDbLine
 10
128.69747
 20
-202.982926
 30
0.0
 11
128.69747
 21
-328.976032
 31
0.0
  0
LINE
  5
DE
100
AcDbEntity
  8
1
100
AcDbLine
 10
133.503242
 20
-197.756662
 30
0.0
 11
133.503242
 21
-335.756662
 31
0.0
  0
ARC
  5
DF
100
AcDbEntity
  8
1
100
AcDbCircle
 10
131.503242
 20
-194.729017
 30
0.0
 40
4.0
100
AcDbArc
 50
180.0
 51
219.194967
  0
LINE
  5
E0
100
AcDbEntity
  8
1
100
AcDbLine
 10
128.403242
 20
-196.284507
 30
0.0
 11
128.403242
 21
-198.729017
 31
0.0
  0
ARC
  5
E1
100
AcDbEntity
  8
1
100
AcDbCircle
 10
128.503242
 20
-337.629676
 30
0.0
 40
4.0
100
AcDbArc
 50
90.0
 51
180.0
  0
LINE
  5
E2
100
AcDbEntity
  8
1
100
AcDbLine
 10
128.503242
 20
-333.629676
 30
0.0
 11
129.903242
 21
-333.629676
 31
0.0
  0
LINE
  5
E3
100
AcDbEntity
  8
1
100
AcDbLine
 10
128.69747
 20
-328.976032
 30
0.0
 11
129.903242
 21
-333.629676
 31
0.0
  0
LINE
  5
E4
100
AcDbEntity
  8
1
100
AcDbLine
 10
124.003242
 20
-239.756662
 30
0.0
 11
124.003242
 21
-293.756662
 31
0.0
  0
LINE
  5
E5
100
AcDbEntity
  8
1
100
AcDbLine
 10
124.003242
 20
-224.756662
 30
0.0
 11
124.003242
 21
-205.491859
 31
0.0
  0
LINE
  5
E6
100
AcDbEntity
  8
1
100
AcDbLine
 10
99.003242
 20
-239.756662
 30
0.0
 11
99.003242
 21
-293.756662
 31
0.0
  0
LINE
  5
E7
100
AcDbEntity
  8
1
100
AcDbLine
 10
99.003242
 20
-224.756662
 30
0.0
 11
99.003242
 21
-205.491859
 31
0.0
  0
LINE
  5
E8
100
AcDbEntity
  8
1
100
AcDbLine
 10
102.084657
 20
-223.216979
 30
0.0
 11
102.084657
 21
-220.741701
 31
0.0
  0
LINE
  5
E9
100
AcDbEntity
  8
1
100
AcDbLine
 10
120.921826
 20
-247.084248
 30
0.0
 11
120.921826
 21
-286.429076
 31
0.0
  0
LINE
  5
EA
100
AcDbEntity
  8
1
100
AcDbLine
 10
120.921826
 20
-223.216979
 30
0.0
 11
120.921826
 21
-220.741701
 31
0.0
  0
LINE
  5
EB
100
AcDbEntity
  8
1
100
AcDbLine
 10
127.962047
 20
-203.213692
 30
0.0
 11
125.213253
 21
-204.076227
 31
0.0
  0
LINE
  5
EC
100
AcDbEntity
  8
1
100
AcDbLine
 10
124.003242
 20
-308.756662
 30
0.0
 11
124.003242
 21
-328.236428
 31
0.0
  0
LINE
  5
ED
100
AcDbEntity
  8
1
100
AcDbLine
 10
99.003242
 20
-308.756662
 30
0.0
 11
99.003242
 21
-328.236428
 31
0.0
  0
LINE
  5
EE
100
AcDbEntity
  8
1
100
AcDbLine
 10
102.084657
 20
-286.429076
 30
0.0
 11
102.084657
 21
-247.084248
 31
0.0
  0
LINE
  5
EF
100
AcDbEntity
  8
1
100
AcDbLine
 10
102.084657
 20
-310.296344
 30
0.0
 11
102.084657
 21
-312.956263
 31
0.0
  0
LINE
  5
F0
100
AcDbEntity
  8
1
100
AcDbLine
 10
120.921826
 20
-310.296344
 30
0.0
 11
120.921826
 21
-312.956263
 31
0.0
  0
LINE
  5
F1
100
AcDbEntity
  8
1
100
AcDbLine
 10
109.003242
 20
-167.633604
 30
0.0
 11
114.003242
 21
-167.633604
 31
0.0
  0
LINE
  5
F2
100
AcDbEntity
  8
1
100
AcDbLine
 10
109.003242
 20
-200.730882
 30
0.0
 11
114.003242
 21
-200.730882
 31
0.0
  0
LINE
  5
F3
100
AcDbEntity
  8
1
100
AcDbLine
 10
111.003242
 20
-174.030761
 30
0.0
 11
112.003242
 21
-174.030761
 31
0.0
  0
LINE
  5
F4
100
AcDbEntity
  8
1
100
AcDbLine
 10
110.003242
 20
-178.153559
 30
0.0
 11
113.003242
 21
-178.153559
 31
0.0
  0
LINE
  5
F5
100
AcDbEntity
  8
1
100
AcDbLine
 10
109.003242
 20
-170.633604
 30
0.0
 11
109.003242
 21
-197.730882
 31
0.0
  0
LINE
  5
F6
100
AcDbEntity
  8
1
100
AcDbLine
 10
114.003242
 20
-170.633604
 30
0.0
 11
114.003242
 21
-197.730882
 31
0.0
  0
ARC
  5
F7
100
AcDbEntity
  8
1
100
AcDbCircle
 10
117.003242
 20
-170.633604
 30
0.0
 40
3.0
100
AcDbArc
 50
90.0
 51
180.0
  0
ARC
  5
F8
100
AcDbEntity
  8
1
100
AcDbCircle
 10
106.003242
 20
-170.633604
 30
0.0
 40
3.0
100
AcDbArc
 50
0.0
 51
90.0
  0
ARC
  5
F9
100
AcDbEntity
  8
1
100
AcDbCircle
 10
117.003242
 20
-197.730882
 30
0.0
 40
3.0
100
AcDbArc
 50
180.0
 51
270.0
  0
ARC
  5
FA
100
AcDbEntity
  8
1
100
AcDbCircle
 10
106.003242
 20
-197.730882
 30
0.0
 40
3.0
100
AcDbArc
 50
270.0
 51
360.0
  0
ARC
  5
FB
100
AcDbEntity
  8
1
100
AcDbCircle
 10
112.003242
 20
-176.030761
 30
0.0
 40
2.0
100
AcDbArc
 50
0.0
 51
90.0
  0
ARC
  5
FC
100
AcDbEntity
  8
1
100
AcDbCircle
 10
111.003242
 20
-176.030761
 30
0.0
 40
2.0
100
AcDbArc
 50
90.0
 51
180.0
  0
LINE
  5
FD
100
AcDbEntity
  8
1
100
AcDbLine
 10
112.253242
 20
-340.756662
 30
0.0
 11
121.503242
 21
-340.756662
 31
0.0
  0
ARC
  5
FE
100
AcDbEntity
  8
1
100
AcDbCircle
 10
121.503242
 20
-337.756662
 30
0.0
 40
3.0
100
AcDbArc
 50
270.0
 51
360.0
  0
ARC
  5
FF
100
AcDbEntity
  8
1
100
AcDbCircle
 10
112.253242
 20
-329.246245
 30
0.0
 40
11.510417
100
AcDbArc
 50
227.67748
 51
270.0
  0
LINE
  5
100
100
AcDbEntity
  8
1
100
AcDbLine
 10
128.403242
 20
-198.729017
 30
0.0
 11
129.903242
 21
-199.902031
 31
0.0
  0
LINE
  5
101
100
AcDbEntity
  8
1
100
AcDbLine
 10
104.003242
 20
-229.756662
 30
0.0
 11
119.003242
 21
-229.756662
 31
0.0
  0
LINE
  5
102
100
AcDbEntity
  8
1
100
AcDbLine
 10
104.003242
 20
-234.756662
 30
0.0
 11
119.003242
 21
-234.756662
 31
0.0
  0
LINE
  5
103
100
AcDbEntity
  8
1
100
AcDbLine
 10
107.084657
 20
-242.084248
 30
0.0
 11
115.921826
 21
-242.084248
 31
0.0
  0
LINE
  5
104
100
AcDbEntity
  8
1
100
AcDbLine
 10
106.084657
 20
-227.216979
 30
0.0
 11
116.921826
 21
-227.216979
 31
0.0
  0
LINE
  5
105
100
AcDbEntity
  8
1
100
AcDbLine
 10
106.084657
 20
-216.741701
 30
0.0
 11
116.921826
 21
-216.741701
 31
0.0
  0
ARC
  5
106
100
AcDbEntity
  8
1
100
AcDbCircle
 10
119.003242
 20
-239.756662
 30
0.0
 40
5.0
100
AcDbArc
 50
360.0
 51
90.0
  0
ARC
  5
107
100
AcDbEntity
  8
1
100
AcDbCircle
 10
104.003242
 20
-239.756662
 30
0.0
 40
5.0
100
AcDbArc
 50
90.0
 51
180.0
  0
ARC
  5
108
100
AcDbEntity
  8
1
100
AcDbCircle
 10
104.003242
 20
-224.756662
 30
0.0
 40
5.0
100
AcDbArc
 50
180.0
 51
270.0
  0
ARC
  5
109
100
AcDbEntity
  8
1
100
AcDbCircle
 10
119.003242
 20
-224.756662
 30
0.0
 40
5.0
100
AcDbArc
 50
270.0
 51
0.0
  0
ARC
  5
10A
100
AcDbEntity
  8
1
100
AcDbCircle
 10
107.084657
 20
-247.084248
 30
0.0
 40
5.0
100
AcDbArc
 50
90.0
 51
180.0
  0
ARC
  5
10B
100
AcDbEntity
  8
1
100
AcDbCircle
 10
115.921826
 20
-247.084248
 30
0.0
 40
5.0
100
AcDbArc
 50
0.0
 51
90.0
  0
ARC
  5
10C
100
AcDbEntity
  8
1
100
AcDbCircle
 10
116.921826
 20
-223.216979
 30
0.0
 40
4.0
100
AcDbArc
 50
270.0
 51
360.0
  0
ARC
  5
10D
100
AcDbEntity
  8
1
100
AcDbCircle
 10
106.084657
 20
-223.216979
 30
0.0
 40
4.0
100
AcDbArc
 50
180.0
 51
270.0
  0
ARC
  5
10E
100
AcDbEntity
  8
1
100
AcDbCircle
 10
106.084657
 20
-220.741701
 30
0.0
 40
4.0
100
AcDbArc
 50
90.0
 51
180.0
  0
ARC
  5
10F
100
AcDbEntity
  8
1
100
AcDbCircle
 10
116.921826
 20
-220.741701
 30
0.0
 40
4.0
100
AcDbArc
 50
360.0
 51
90.0
  0
ARC
  5
110
100
AcDbEntity
  8
1
100
AcDbCircle
 10
126.333833
 20
-202.737808
 30
0.0
 40
3.0
100
AcDbArc
 50
184.0
 51
207.323143
  0
ARC
  5
111
100
AcDbEntity
  8
1
100
AcDbCircle
 10
96.67265
 20
-202.737808
 30
0.0
 40
3.0
100
AcDbArc
 50
332.676857
 51
356.0
  0
ARC
  5
112
100
AcDbEntity
  8
1
100
AcDbCircle
 10
121.003242
 20
-205.491859
 30
0.0
 40
3.0
100
AcDbArc
 50
0.0
 51
27.323143
  0
ARC
  5
113
100
AcDbEntity
  8
1
100
AcDbCircle
 10
102.003242
 20
-205.491859
 30
0.0
 40
3.0
100
AcDbArc
 50
152.676857
 51
180.0
  0
LINE
  5
114
100
AcDbEntity
  8
1
100
AcDbLine
 10
122.259551
 20
-238.903148
 30
0.0
 11
120.921826
 21
-242.084248
 31
0.0
  0
LINE
  5
115
100
AcDbEntity
  8
1
100
AcDbLine
 10
121.617347
 20
-227.790223
 30
0.0
 11
120.551225
 21
-226.911532
 31
0.0
  0
LINE
  5
116
100
AcDbEntity
  8
1
100
AcDbLine
 10
123.425877
 20
-206.896781
 30
0.0
 11
120.921826
 21
-216.741701
 31
0.0
  0
LINE
  5
117
100
AcDbEntity
  8
1
100
AcDbLine
 10
99.580607
 20
-206.896781
 30
0.0
 11
102.084657
 21
-216.741701
 31
0.0
  0
LINE
  5
118
100
AcDbEntity
  8
1
100
AcDbLine
 10
101.389137
 20
-227.790223
 30
0.0
 11
102.455258
 21
-226.911532
 31
0.0
  0
LINE
  5
119
100
AcDbEntity
  8
1
100
AcDbLine
 10
100.746933
 20
-238.903148
 30
0.0
 11
102.084657
 21
-242.084248
 31
0.0
  0
LINE
  5
11A
100
AcDbEntity
  8
1
100
AcDbLine
 10
104.003242
 20
-303.756662
 30
0.0
 11
119.003242
 21
-303.756662
 31
0.0
  0
LINE
  5
11B
100
AcDbEntity
  8
1
100
AcDbLine
 10
104.003242
 20
-298.756662
 30
0.0
 11
119.003242
 21
-298.756662
 31
0.0
  0
LINE
  5
11C
100
AcDbEntity
  8
1
100
AcDbLine
 10
107.084657
 20
-291.429076
 30
0.0
 11
115.921826
 21
-291.429076
 31
0.0
  0
LINE
  5
11D
100
AcDbEntity
  8
1
100
AcDbLine
 10
106.084657
 20
-306.296344
 30
0.0
 11
116.921826
 21
-306.296344
 31
0.0
  0
ARC
  5
11E
100
AcDbEntity
  8
1
100
AcDbCircle
 10
119.003242
 20
-293.756662
 30
0.0
 40
5.0
100
AcDbArc
 50
270.0
 51
0.0
  0
ARC
  5
11F
100
AcDbEntity
  8
1
100
AcDbCircle
 10
104.003242
 20
-293.756662
 30
0.0
 40
5.0
100
AcDbArc
 50
180.0
 51
270.0
  0
ARC
  5
120
100
AcDbEntity
  8
1
100
AcDbCircle
 10
104.003242
 20
-308.756662
 30
0.0
 40
5.0
100
AcDbArc
 50
90.0
 51
180.0
  0
ARC
  5
121
100
AcDbEntity
  8
1
100
AcDbCircle
 10
119.003242
 20
-308.756662
 30
0.0
 40
5.0
100
AcDbArc
 50
360.0
 51
90.0
  0
ARC
  5
122
100
AcDbEntity
  8
1
100
AcDbCircle
 10
107.084657
 20
-286.429076
 30
0.0
 40
5.0
100
AcDbArc
 50
180.0
 51
270.0
  0
ARC
  5
123
100
AcDbEntity
  8
1
100
AcDbCircle
 10
115.921826
 20
-286.429076
 30
0.0
 40
5.0
100
AcDbArc
 50
270.0
 51
360.0
  0
ARC
  5
124
100
AcDbEntity
  8
1
100
AcDbCircle
 10
116.921826
 20
-310.296344
 30
0.0
 40
4.0
100
AcDbArc
 50
0.0
 51
90.0
  0
ARC
  5
125
100
AcDbEntity
  8
1
100
AcDbCircle
 10
106.084657
 20
-310.296344
 30
0.0
 40
4.0
100
AcDbArc
 50
90.0
 51
180.0
  0
LINE
  5
126
100
AcDbEntity
  8
1
100
AcDbLine
 10
122.259551
 20
-294.610176
 30
0.0
 11
120.921826
 21
-291.429076
 31
0.0
  0
LINE
  5
127
100
AcDbEntity
  8
1
100
AcDbLine
 10
121.617347
 20
-305.723101
 30
0.0
 11
120.551225
 21
-306.601791
 31
0.0
  0
LINE
  5
128
100
AcDbEntity
  8
1
100
AcDbLine
 10
101.389137
 20
-305.723101
 30
0.0
 11
102.455258
 21
-306.601791
 31
0.0
  0
LINE
  5
129
100
AcDbEntity
  8
1
100
AcDbLine
 10
100.746933
 20
-294.610176
 30
0.0
 11
102.084657
 21
-291.429076
 31
0.0
  0
ARC
  5
12A
100
AcDbEntity
  8
1
100
AcDbCircle
 10
121.503242
 20
-330.634344
 30
0.0
 40
3.0
100
AcDbArc
 50
0.0
 51
23.556464
  0
ARC
  5
12B
100
AcDbEntity
  8
1
100
AcDbCircle
 10
101.503242
 20
-330.634344
 30
0.0
 40
3.0
100
AcDbArc
 50
156.443536
 51
180.0
  0
ARC
  5
12C
100
AcDbEntity
  8
1
100
AcDbCircle
 10
127.003242
 20
-328.236428
 30
0.0
 40
3.0
100
AcDbArc
 50
180.0
 51
203.556464
  0
ARC
  5
12D
100
AcDbEntity
  8
1
100
AcDbCircle
 10
96.003242
 20
-328.236428
 30
0.0
 40
3.0
100
AcDbArc
 50
336.443536
 51
360.0
  0
LINE
  5
12E
100
AcDbEntity
  8
1
100
AcDbLine
 10
106.084657
 20
-316.956263
 30
0.0
 11
116.921826
 21
-316.956263
 31
0.0
  0
ARC
  5
12F
100
AcDbEntity
  8
1
100
AcDbCircle
 10
116.921826
 20
-312.956263
 30
0.0
 40
4.0
100
AcDbArc
 50
270.0
 51
360.0
  0
ARC
  5
130
100
AcDbEntity
  8
1
100
AcDbCircle
 10
106.084657
 20
-312.956263
 30
0.0
 40
4.0
100
AcDbArc
 50
180.0
 51
270.0
  0
LINE
  5
131
100
AcDbEntity
  8
1
100
AcDbLine
 10
99.66668
 20
-326.388139
 30
0.0
 11
102.084657
 21
-316.956263
 31
0.0
  0
LINE
  5
132
100
AcDbEntity
  8
1
100
AcDbLine
 10
123.339803
 20
-326.388139
 30
0.0
 11
120.921826
 21
-316.956263
 31
0.0
  0
ARC
  5
133
100
AcDbEntity
  8
1
100
AcDbCircle
 10
93.503242
 20
-333.976032
 30
0.0
 40
5.0
100
AcDbArc
 50
0.0
 51
90.0
  0
LINE
  5
134
100
AcDbEntity
  8
1
100
AcDbLine
 10
129.903242
 20
-199.902031
 30
0.0
 11
128.69747
 21
-202.982926
 31
0.0
  0
LINE
  5
135
100
AcDbEntity
  8
1
  6
CENTER
 62
     2
100
AcDbLine
 10
-188.876957
 20
-266.756662
 30
0.0
 11
-361.416559
 21
-266.756662
 31
0.0
  0
LINE
  5
136
100
AcDbEntity
  8
1
100
AcDbLine
 10
-310.146758
 20
-110.756662
 30
0.0
 11
-310.146758
 21
-118.756662
 31
0.0
  0
LINE
  5
137
100
AcDbEntity
  8
1
100
AcDbLine
 10
-240.146758
 20
-110.756662
 30
0.0
 11
-240.146758
 21
-118.756662
 31
0.0
  0
LINE
  5
138
100
AcDbEntity
  8
1
100
AcDbLine
 10
-292.210847
 20
-348.556662
 30
0.0
 11
-280.010847
 21
-348.556662
 31
0.0
  0
LINE
  5
139
100
AcDbEntity
  8
1
100
AcDbLine
 10
-280.360847
 20
-348.556662
 30
0.0
 11
-280.360847
 21
-352.065914
 31
0.0
  0
LINE
  5
13A
100
AcDbEntity
  8
1
100
AcDbLine
 10
-280.360847
 20
-352.065914
 30
0.0
 11
-281.210847
 21
-352.556662
 31
0.0
  0
LINE
  5
13B
100
AcDbEntity
  8
1
100
AcDbLine
 10
-283.235847
 20
-348.556662
 30
0.0
 11
-283.235847
 21
-352.065914
 31
0.0
  0
ARC
  5
13C
100
AcDbEntity
  8
1
100
AcDbCircle
 10
-281.798347
 20
-350.217959
 30
0.0
 40
2.341227
100
AcDbArc
 50
232.121121
 51
307.878879
  0
ARC
  5
13D
100
AcDbEntity
  8
1
100
AcDbCircle
 10
-286.110847
 20
-343.934186
 30
0.0
 40
8.625
100
AcDbArc
 50
250.528777
 51
289.471219
  0
LINE
  5
13E
100
AcDbEntity
  8
1
100
AcDbLine
 10
-291.860847
 20
-348.556662
 30
0.0
 11
-291.860847
 21
-352.065914
 31
0.0
  0
LINE
  5
13F
100
AcDbEntity
  8
1
100
AcDbLine
 10
-291.860847
 20
-352.065914
 30
0.0
 11
-291.010847
 21
-352.556662
 31
0.0
  0
LINE
  5
140
100
AcDbEntity
  8
1
100
AcDbLine
 10
-291.010847
 20
-352.556662
 30
0.0
 11
-281.210847
 21
-352.556662
 31
0.0
  0
LINE
  5
141
100
AcDbEntity
  8
1
100
AcDbLine
 10
-288.985847
 20
-348.556662
 30
0.0
 11
-288.985847
 21
-352.065914
 31
0.0
  0
ARC
  5
142
100
AcDbEntity
  8
1
100
AcDbCircle
 10
-290.423347
 20
-350.217959
 30
0.0
 40
2.341227
100
AcDbArc
 50
232.121121
 51
307.878879
  0
LINE
  5
143
100
AcDbEntity
  8
1
100
AcDbLine
 10
-280.010847
 20
-347.056662
 30
0.0
 11
-280.010847
 21
-348.556662
 31
0.0
  0
LINE
  5
144
100
AcDbEntity
  8
1
100
AcDbLine
 10
-292.210847
 20
-348.556662
 30
0.0
 11
-292.210847
 21
-347.056662
 31
0.0
  0
LINE
  5
145
100
AcDbEntity
  8
1
100
AcDbLine
 10
-286.110847
 20
-348.556662
 30
0.0
 11
-286.610847
 21
-347.056662
 31
0.0
  0
LINE
  5
146
100
AcDbEntity
  8
1
100
AcDbLine
 10
-286.110847
 20
-347.056662
 30
0.0
 11
-285.610847
 21
-348.556662
 31
0.0
  0
LINE
  5
147
100
AcDbEntity
  8
1
100
AcDbLine
 10
-292.146758
 20
-343.756662
 30
0.0
 11
-258.146758
 21
-343.756662
 31
0.0
  0
LINE
  5
148
100
AcDbEntity
  8
1
  6
CENTER
 62
     2
100
AcDbLine
 10
-286.110847
 20
-335.613053
 30
0.0
 11
-286.110847
 21
-356.673454
 31
0.0
  0
LINE
  5
149
100
AcDbEntity
  8
1
100
AcDbLine
 10
-292.610847
 20
-347.056662
 30
0.0
 11
-257.682669
 21
-347.056662
 31
0.0
  0
LINE
  5
14A
100
AcDbEntity
  8
1
  6
CENTER
 62
     2
100
AcDbLine
 10
-264.182669
 20
-335.613053
 30
0.0
 11
-264.182669
 21
-356.673454
 31
0.0
  0
LINE
  5
14B
100
AcDbEntity
  8
1
100
AcDbLine
 10
-270.282669
 20
-348.556662
 30
0.0
 11
-258.082669
 21
-348.556662
 31
0.0
  0
LINE
  5
14C
100
AcDbEntity
  8
1
100
AcDbLine
 10
-258.432669
 20
-348.556662
 30
0.0
 11
-258.432669
 21
-352.065914
 31
0.0
  0
LINE
  5
14D
100
AcDbEntity
  8
1
100
AcDbLine
 10
-258.432669
 20
-352.065914
 30
0.0
 11
-259.282669
 21
-352.556662
 31
0.0
  0
LINE
  5
14E
100
AcDbEntity
  8
1
100
AcDbLine
 10
-261.307669
 20
-348.556662
 30
0.0
 11
-261.307669
 21
-352.065914
 31
0.0
  0
ARC
  5
14F
100
AcDbEntity
  8
1
100
AcDbCircle
 10
-259.870169
 20
-350.217959
 30
0.0
 40
2.341227
100
AcDbArc
 50
232.121121
 51
307.878879
  0
ARC
  5
150
100
AcDbEntity
  8
1
100
AcDbCircle
 10
-264.182669
 20
-343.934186
 30
0.0
 40
8.625
100
AcDbArc
 50
250.528777
 51
289.471219
  0
LINE
  5
151
100
AcDbEntity
  8
1
100
AcDbLine
 10
-269.932669
 20
-348.556662
 30
0.0
 11
-269.932669
 21
-352.065914
 31
0.0
  0
LINE
  5
152
100
AcDbEntity
  8
1
100
AcDbLine
 10
-269.932669
 20
-352.065914
 30
0.0
 11
-269.082669
 21
-352.556662
 31
0.0
  0
LINE
  5
153
100
AcDbEntity
  8
1
100
AcDbLine
 10
-269.082669
 20
-352.556662
 30
0.0
 11
-259.282669
 21
-352.556662
 31
0.0
  0
LINE
  5
154
100
AcDbEntity
  8
1
100
AcDbLine
 10
-267.057669
 20
-348.556662
 30
0.0
 11
-267.057669
 21
-352.065914
 31
0.0
  0
ARC
  5
155
100
AcDbEntity
  8
1
100
AcDbCircle
 10
-268.495169
 20
-350.217959
 30
0.0
 40
2.341227
100
AcDbArc
 50
232.121121
 51
307.878879
  0
LINE
  5
156
100
AcDbEntity
  8
1
100
AcDbLine
 10
-258.082669
 20
-347.056662
 30
0.0
 11
-258.082669
 21
-348.556662
 31
0.0
  0
LINE
  5
157
100
AcDbEntity
  8
1
100
AcDbLine
 10
-270.282669
 20
-348.556662
 30
0.0
 11
-270.282669
 21
-347.056662
 31
0.0
  0
LINE
  5
158
100
AcDbEntity
  8
1
100
AcDbLine
 10
-264.182669
 20
-348.556662
 30
0.0
 11
-264.682669
 21
-347.056662
 31
0.0
  0
LINE
  5
159
100
AcDbEntity
  8
1
100
AcDbLine
 10
-264.182669
 20
-347.056662
 30
0.0
 11
-263.682669
 21
-348.556662
 31
0.0
  0
LINE
  5
15A
100
AcDbEntity
  8
1
100
AcDbLine
 10
-307.146758
 20
-121.756662
 30
0.0
 11
-243.146758
 21
-121.756662
 31
0.0
  0
ARC
  5
15B
100
AcDbEntity
  8
1
100
AcDbCircle
 10
-243.146758
 20
-118.756662
 30
0.0
 40
3.0
100
AcDbArc
 50
270.0
 51
360.0
  0
ARC
  5
15C
100
AcDbEntity
  8
1
100
AcDbCircle
 10
-307.146758
 20
-118.756662
 30
0.0
 40
3.0
100
AcDbArc
 50
180.0
 51
270.0
  0
LINE
  5
15D
100
AcDbEntity
  8
1
100
AcDbLine
 10
-281.832158
 20
-129.262905
 30
0.0
 11
-286.751671
 21
-199.615214
 31
0.0
  0
LINE
  5
15E
100
AcDbEntity
  8
1
100
AcDbLine
 10
-291.172663
 20
-130.240761
 30
0.0
 11
-292.471077
 21
-204.626814
 31
0.0
  0
LINE
  5
15F
100
AcDbEntity
  8
1
100
AcDbLine
 10
-268.461358
 20
-129.262905
 30
0.0
 11
-263.541846
 21
-199.615214
 31
0.0
  0
LINE
  5
160
100
AcDbEntity
  8
1
100
AcDbLine
 10
-257.146758
 20
-125.756662
 30
0.0
 11
-257.146758
 21
-126.756662
 31
0.0
  0
LINE
  5
161
100
AcDbEntity
  8
1
100
AcDbLine
 10
-282.602602
 20
-125.756662
 30
0.0
 11
-282.602602
 21
-126.756662
 31
0.0
  0
LINE
  5
162
100
AcDbEntity
  8
1
100
AcDbLine
 10
-267.690914
 20
-125.756662
 30
0.0
 11
-267.690914
 21
-126.756662
 31
0.0
  0
LINE
  5
163
100
AcDbEntity
  8
1
100
AcDbLine
 10
-293.146758
 20
-125.756662
 30
0.0
 11
-293.146758
 21
-126.756662
 31
0.0
  0
ARC
  5
164
100
AcDbEntity
  8
1
100
AcDbCircle
 10
-253.146758
 20
-125.756662
 30
0.0
 40
4.0
100
AcDbArc
 50
90.0
 51
180.0
  0
ARC
  5
165
100
AcDbEntity
  8
1
100
AcDbCircle
 10
-263.690914
 20
-125.756662
 30
0.0
 40
4.0
100
AcDbArc
 50
90.0
 51
180.0
  0
ARC
  5
166
100
AcDbEntity
  8
1
100
AcDbCircle
 10
-286.602602
 20
-125.756662
 30
0.0
 40
4.0
100
AcDbArc
 50
0.0
 51
90.0
  0
ARC
  5
167
100
AcDbEntity
  8
1
100
AcDbCircle
 10
-297.146758
 20
-125.756662
 30
0.0
 40
4.0
100
AcDbArc
 50
0.0
 51
90.0
  0
ARC
  5
168
100
AcDbEntity
  8
1
100
AcDbCircle
 10
-259.146758
 20
-126.756662
 30
0.0
 40
2.0
100
AcDbArc
 50
300.424339
 51
0.0
  0
ARC
  5
169
100
AcDbEntity
  8
1
100
AcDbCircle
 10
-269.690914
 20
-126.756662
 30
0.0
 40
2.0
100
AcDbArc
 50
323.723496
 51
360.0
  0
ARC
  5
16A
100
AcDbEntity
  8
1
100
AcDbCircle
 10
-280.602602
 20
-126.756662
 30
0.0
 40
2.0
100
AcDbArc
 50
180.0
 51
216.276504
  0
ARC
  5
16B
100
AcDbEntity
  8
1
100
AcDbCircle
 10
-291.146758
 20
-126.756662
 30
0.0
 40
2.0
100
AcDbArc
 50
180.0
 51
239.575661
  0
ARC
  5
16C
100
AcDbEntity
  8
1
100
AcDbCircle
 10
-257.121158
 20
-130.205856
 30
0.0
 40
2.0
100
AcDbArc
 50
120.424339
 51
181.0
  0
ARC
  5
16D
100
AcDbEntity
  8
1
100
AcDbCircle
 10
-266.46623
 20
-129.123392
 30
0.0
 40
2.0
100
AcDbArc
 50
143.723496
 51
184.0
  0
ARC
  5
16E
100
AcDbEntity
  8
1
100
AcDbCircle
 10
-283.827286
 20
-129.123392
 30
0.0
 40
2.0
100
AcDbArc
 50
356.0
 51
36.276504
  0
ARC
  5
16F
100
AcDbEntity
  8
1
100
AcDbCircle
 10
-293.172359
 20
-130.205856
 30
0.0
 40
2.0
100
AcDbArc
 50
359.0
 51
59.575661
  0
ARC
  5
170
100
AcDbEntity
  8
1
100
AcDbCircle
 10
-247.646758
 20
-125.756662
 30
0.0
 40
4.0
100
AcDbArc
 50
90.0
 51
180.0
  0
ARC
  5
171
100
AcDbEntity
  8
1
100
AcDbCircle
 10
-302.646758
 20
-125.756662
 30
0.0
 40
4.0
100
AcDbArc
 50
0.0
 51
90.0
  0
ARC
  5
172
100
AcDbEntity
  8
1
100
AcDbCircle
 10
-254.646758
 20
-125.756662
 30
0.0
 40
3.0
100
AcDbArc
 50
270.0
 51
360.0
  0
ARC
  5
173
100
AcDbEntity
  8
1
100
AcDbCircle
 10
-295.646758
 20
-125.756662
 30
0.0
 40
3.0
100
AcDbArc
 50
180.0
 51
270.0
  0
LINE
  5
174
100
AcDbEntity
  8
1
100
AcDbLine
 10
-295.646758
 20
-128.756662
 30
0.0
 11
-293.181973
 21
-128.756662
 31
0.0
  0
LINE
  5
175
100
AcDbEntity
  8
1
100
AcDbLine
 10
-257.111543
 20
-128.756662
 30
0.0
 11
-254.646758
 21
-128.756662
 31
0.0
  0
LINE
  5
176
100
AcDbEntity
  8
1
100
AcDbLine
 10
-291.146758
 20
-128.756662
 30
0.0
 11
-282.602602
 21
-128.756662
 31
0.0
  0
LINE
  5
177
100
AcDbEntity
  8
1
100
AcDbLine
 10
-281.796758
 20
-128.756662
 30
0.0
 11
-268.496758
 21
-128.756662
 31
0.0
  0
LINE
  5
178
100
AcDbEntity
  8
1
100
AcDbLine
 10
-267.690914
 20
-128.756662
 30
0.0
 11
-259.146758
 21
-128.756662
 31
0.0
  0
ARC
  5
179
100
AcDbEntity
  8
1
100
AcDbCircle
 10
-257.111543
 20
-130.756662
 30
0.0
 40
2.0
100
AcDbArc
 50
90.0
 51
181.0
  0
ARC
  5
17A
100
AcDbEntity
  8
1
100
AcDbCircle
 10
-293.181973
 20
-130.756662
 30
0.0
 40
2.0
100
AcDbArc
 50
359.0
 51
90.0
  0
LINE
  5
17B
100
AcDbEntity
  8
1
100
AcDbLine
 10
-292.146758
 20
-328.976032
 30
0.0
 11
-292.146758
 21
-343.756662
 31
0.0
  0
LINE
  5
17C
100
AcDbEntity
  8
1
100
AcDbLine
 10
-258.146758
 20
-328.976032
 30
0.0
 11
-258.146758
 21
-343.756662
 31
0.0
  0
ARC
  5
17D
100
AcDbEntity
  8
1
100
AcDbCircle
 10
-275.146758
 20
-266.756662
 30
0.0
 40
69.0
100
AcDbArc
 50
284.263214
 51
75.515681
  0
ARC
  5
17E
100
AcDbEntity
  8
1
100
AcDbCircle
 10
-275.146758
 20
-266.756662
 30
0.0
 40
69.0
100
AcDbArc
 50
104.484319
 51
255.736786
  0
CIRCLE
  5
17F
100
AcDbEntity
  8
1
100
AcDbCircle
 10
-275.146758
 20
-266.756662
 30
0.0
 40
64.5
  0
ARC
  5
180
100
AcDbEntity
  8
1
100
AcDbCircle
 10
-291.739491
 20
-199.266431
 30
0.0
 40
5.0
100
AcDbArc
 50
283.812443
 51
356.0
  0
LINE
  5
181
100
AcDbEntity
  8
1
100
AcDbLine
 10
-254.521193
 20
-173.167045
 30
0.0
 11
-252.148155
 21
-174.030761
 31
0.0
  0
LINE
  5
182
100
AcDbEntity
  8
1
100
AcDbLine
 10
-256.37108
 20
-192.728165
 30
0.0
 11
-250.334081
 21
-178.153559
 31
0.0
  0
ARC
  5
183
100
AcDbEntity
  8
1
100
AcDbCircle
 10
-252.469073
 20
-167.52889
 30
0.0
 40
6.0
100
AcDbArc
 50
181.0
 51
250.0
  0
ARC
  5
184
100
AcDbEntity
  8
1
100
AcDbCircle
 10
-237.89349
 20
-200.381834
 30
0.0
 40
20.0
100
AcDbArc
 50
157.5
 51
181.0
  0
ARC
  5
185
100
AcDbEntity
  8
1
100
AcDbCircle
 10
-253.214478
 20
-176.960459
 30
0.0
 40
3.11772
100
AcDbArc
 50
337.5
 51
70.0
  0
LINE
  5
186
100
AcDbEntity
  8
1
100
AcDbLine
 10
-295.772323
 20
-173.167045
 30
0.0
 11
-298.145361
 21
-174.030761
 31
0.0
  0
LINE
  5
187
100
AcDbEntity
  8
1
100
AcDbLine
 10
-293.922436
 20
-192.728165
 30
0.0
 11
-299.959436
 21
-178.153559
 31
0.0
  0
ARC
  5
188
100
AcDbEntity
  8
1
100
AcDbCircle
 10
-297.824444
 20
-167.52889
 30
0.0
 40
6.0
100
AcDbArc
 50
290.0
 51
359.0
  0
ARC
  5
189
100
AcDbEntity
  8
1
100
AcDbCircle
 10
-312.400027
 20
-200.381834
 30
0.0
 40
20.0
100
AcDbArc
 50
359.0
 51
22.5
  0
ARC
  5
18A
100
AcDbEntity
  8
1
100
AcDbCircle
 10
-297.079038
 20
-176.960459
 30
0.0
 40
3.11772
100
AcDbArc
 50
110.0
 51
202.5
  0
LINE
  5
18B
100
AcDbEntity
  8
1
100
AcDbLine
 10
-259.120853
 20
-130.240761
 30
0.0
 11
-257.82244
 21
-204.626814
 31
0.0
  0
LINE
  5
18C
100
AcDbEntity
  8
1
100
AcDbLine
 10
-291.610847
 20
-343.756662
 30
0.0
 11
-291.610847
 21
-344.756662
 31
0.0
  0
LINE
  5
18D
100
AcDbEntity
  8
1
100
AcDbLine
 10
-292.610847
 20
-344.756662
 30
0.0
 11
-292.610847
 21
-347.056662
 31
0.0
  0
LINE
  5
18E
100
AcDbEntity
  8
1
100
AcDbLine
 10
-292.610847
 20
-344.756662
 30
0.0
 11
-257.682669
 21
-344.756662
 31
0.0
  0
LINE
  5
18F
100
AcDbEntity
  8
1
100
AcDbLine
 10
-258.682669
 20
-343.756662
 30
0.0
 11
-258.682669
 21
-344.756662
 31
0.0
  0
LINE
  5
190
100
AcDbEntity
  8
1
100
AcDbLine
 10
-257.682669
 20
-344.756662
 30
0.0
 11
-257.682669
 21
-347.056662
 31
0.0
  0
CIRCLE
  5
191
100
AcDbEntity
  8
1
100
AcDbCircle
 10
-275.146758
 20
-266.756662
 30
0.0
 40
46.0
  0
CIRCLE
  5
192
100
AcDbEntity
  8
1
100
AcDbCircle
 10
-275.146758
 20
-266.756662
 30
0.0
 40
56.9
  0
CIRCLE
  5
193
100
AcDbEntity
  8
1
100
AcDbCircle
 10
-275.146758
 20
-266.756662
 30
0.0
 40
58.0
  0
ARC
  5
194
100
AcDbEntity
  8
1
100
AcDbCircle
 10
-275.146758
 20
-267.826662
 30
0.0
 40
41.02
100
AcDbArc
 50
107.737514
 51
125.164279
  0
ARC
  5
195
100
AcDbEntity
  8
1
100
AcDbCircle
 10
-275.146758
 20
-266.756662
 30
0.0
 40
40.15
100
AcDbArc
 50
126.043711
 51
233.956289
  0
ARC
  5
196
100
AcDbEntity
  8
1
100
AcDbCircle
 10
-275.146758
 20
-265.686662
 30
0.0
 40
41.02
100
AcDbArc
 50
234.835721
 51
252.262486
  0
ARC
  5
197
100
AcDbEntity
  8
1
100
AcDbCircle
 10
-277.989568
 20
-266.756662
 30
0.0
 40
39.20719
100
AcDbArc
 50
104.254871
 51
255.745129
  0
ARC
  5
198
100
AcDbEntity
  8
1
100
AcDbCircle
 10
-258.554025
 20
-199.266431
 30
0.0
 40
5.0
100
AcDbArc
 50
184.0
 51
256.187557
  0
ARC
  5
199
100
AcDbEntity
  8
1
100
AcDbCircle
 10
-275.146758
 20
-267.826662
 30
0.0
 40
41.02
100
AcDbArc
 50
54.835721
 51
72.262486
  0
ARC
  5
19A
100
AcDbEntity
  8
1
100
AcDbCircle
 10
-275.146758
 20
-266.756662
 30
0.0
 40
40.15
100
AcDbArc
 50
306.043711
 51
53.956289
  0
ARC
  5
19B
100
AcDbEntity
  8
1
100
AcDbCircle
 10
-275.146758
 20
-265.686662
 30
0.0
 40
41.02
100
AcDbArc
 50
287.737514
 51
305.164279
  0
LINE
  5
19C
100
AcDbEntity
  8
1
100
AcDbLine
 10
-262.649739
 20
-228.756662
 30
0.0
 11
-287.643778
 21
-228.756662
 31
0.0
  0
LINE
  5
19D
100
AcDbEntity
  8
1
100
AcDbLine
 10
-262.649739
 20
-304.756662
 30
0.0
 11
-287.643778
 21
-304.756662
 31
0.0
  0
ARC
  5
19E
100
AcDbEntity
  8
1
100
AcDbCircle
 10
-272.303949
 20
-266.756662
 30
0.0
 40
39.20719
100
AcDbArc
 50
284.254871
 51
75.745129
  0
LINE
  5
19F
100
AcDbEntity
  8
1
100
AcDbLine
 10
-289.146758
 20
-340.756662
 30
0.0
 11
-283.453382
 21
-340.756662
 31
0.0
  0
ARC
  5
1A0
100
AcDbEntity
  8
1
100
AcDbCircle
 10
-289.146758
 20
-337.756662
 30
0.0
 40
3.0
100
AcDbArc
 50
180.0
 51
270.0
  0
ARC
  5
1A1
100
AcDbEntity
  8
1
100
AcDbCircle
 10
-283.453382
 20
-327.756662
 30
0.0
 40
13.0
100
AcDbArc
 50
270.0
 51
309.715137
  0
LINE
  5
1A2
100
AcDbEntity
  8
1
100
AcDbLine
 10
-286.169747
 20
-234.66624
 30
0.0
 11
-286.169747
 21
-253.599808
 31
0.0
  0
ARC
  5
1A3
100
AcDbEntity
  8
1
100
AcDbCircle
 10
-283.260681
 20
-230.913516
 30
0.0
 40
4.0
100
AcDbArc
 50
147.369881
 51
212.418778
  0
LINE
  5
1A4
100
AcDbEntity
  8
1
100
AcDbLine
 10
-264.123769
 20
-234.66624
 30
0.0
 11
-264.123769
 21
-253.599808
 31
0.0
  0
ARC
  5
1A5
100
AcDbEntity
  8
1
100
AcDbCircle
 10
-267.032835
 20
-230.913516
 30
0.0
 40
4.0
100
AcDbArc
 50
327.581222
 51
32.630119
  0
LINE
  5
1A6
100
AcDbEntity
  8
1
100
AcDbLine
 10
-263.831316
 20
-230.913516
 30
0.0
 11
-286.462201
 21
-230.913516
 31
0.0
  0
LINE
  5
1A7
100
AcDbEntity
  8
1
100
AcDbLine
 10
-279.94259
 20
-233.559267
 30
0.0
 11
-279.94259
 21
-255.256662
 31
0.0
  0
LINE
  5
1A8
100
AcDbEntity
  8
1
100
AcDbLine
 10
-270.350927
 20
-233.559267
 30
0.0
 11
-270.350927
 21
-255.256662
 31
0.0
  0
ARC
  5
1A9
100
AcDbEntity
  8
1
100
AcDbCircle
 10
-275.146758
 20
-244.256662
 30
0.0
 40
12.0
100
AcDbArc
 50
246.443536
 51
293.556464
  0
LINE
  5
1AA
100
AcDbEntity
  8
1
100
AcDbLine
 10
-270.350927
 20
-255.256662
 30
0.0
 11
-265.295342
 21
-255.256662
 31
0.0
  0
LINE
  5
1AB
100
AcDbEntity
  8
1
100
AcDbLine
 10
-265.295342
 20
-256.428235
 30
0.0
 11
-268.279087
 21
-259.411979
 31
0.0
  0
LINE
  5
1AC
100
AcDbEntity
  8
1
100
AcDbLine
 10
-284.998174
 20
-256.428235
 30
0.0
 11
-282.01443
 21
-259.411979
 31
0.0
  0
ARC
  5
1AD
100
AcDbEntity
  8
1
100
AcDbCircle
 10
-268.123769
 20
-253.599808
 30
0.0
 40
4.0
100
AcDbArc
 50
315.0
 51
0.0
  0
ARC
  5
1AE
100
AcDbEntity
  8
1
100
AcDbCircle
 10
-282.169747
 20
-253.599808
 30
0.0
 40
4.0
100
AcDbArc
 50
180.0
 51
225.0
  0
LINE
  5
1AF
100
AcDbEntity
  8
1
100
AcDbLine
 10
-279.94259
 20
-255.256662
 30
0.0
 11
-284.998174
 21
-255.256662
 31
0.0
  0
ARC
  5
1B0
100
AcDbEntity
  8
1
100
AcDbCircle
 10
-261.123769
 20
-234.66624
 30
0.0
 40
3.0
100
AcDbArc
 50
147.581222
 51
180.0
  0
ARC
  5
1B1
100
AcDbEntity
  8
1
100
AcDbCircle
 10
-289.169747
 20
-234.66624
 30
0.0
 40
3.0
100
AcDbArc
 50
0.0
 51
32.418778
  0
ARC
  5
1B2
100
AcDbEntity
  8
1
100
AcDbCircle
 10
-275.146758
 20
-219.915781
 30
0.0
 40
14.461837
100
AcDbArc
 50
250.632879
 51
289.367121
  0
LINE
  5
1B3
100
AcDbEntity
  8
1
100
AcDbLine
 10
-286.169747
 20
-233.559267
 30
0.0
 11
-279.94259
 21
-233.559267
 31
0.0
  0
LINE
  5
1B4
100
AcDbEntity
  8
1
100
AcDbLine
 10
-270.350927
 20
-233.559267
 30
0.0
 11
-264.123769
 21
-233.559267
 31
0.0
  0
CIRCLE
  5
1B5
100
AcDbEntity
  8
1
100
AcDbCircle
 10
-275.146758
 20
-266.756662
 30
0.0
 40
1.75
  0
ARC
  5
1B6
100
AcDbEntity
  8
1
100
AcDbCircle
 10
-283.260681
 20
-302.599808
 30
0.0
 40
4.0
100
AcDbArc
 50
135.0
 51
212.630119
  0
ARC
  5
1B7
100
AcDbEntity
  8
1
100
AcDbCircle
 10
-267.032835
 20
-302.599808
 30
0.0
 40
4.0
100
AcDbArc
 50
327.369881
 51
45.0
  0
ARC
  5
1B8
100
AcDbEntity
  8
1
100
AcDbCircle
 10
-275.146758
 20
-266.756662
 30
0.0
 40
38.372032
100
AcDbArc
 50
108.336225
 51
251.663775
  0
ARC
  5
1B9
100
AcDbEntity
  8
1
100
AcDbCircle
 10
-275.146758
 20
-266.756662
 30
0.0
 40
38.372032
100
AcDbArc
 50
288.336225
 51
71.663775
  0
LINE
  5
1BA
100
AcDbEntity
  8
1
100
AcDbLine
 10
-264.204408
 20
-299.77138
 30
0.0
 11
-268.123852
 21
-295.851936
 31
0.0
  0
LINE
  5
1BB
100
AcDbEntity
  8
1
100
AcDbLine
 10
-286.089108
 20
-299.77138
 30
0.0
 11
-282.169664
 21
-295.851936
 31
0.0
  0
ARC
  5
1BC
100
AcDbEntity
  8
1
100
AcDbCircle
 10
-275.146758
 20
-302.874842
 30
0.0
 40
9.931889
100
AcDbArc
 50
45.0
 51
135.0
  0
LINE
  5
1BD
100
AcDbEntity
  8
1
100
AcDbLine
 10
-263.831316
 20
-302.599808
 30
0.0
 11
-286.462201
 21
-302.599808
 31
0.0
  0
ARC
  5
1BE
100
AcDbEntity
  8
1
100
AcDbCircle
 10
-275.146758
 20
-252.544307
 30
0.0
 40
9.712354
100
AcDbArc
 50
225.0
 51
260.183596
  0
ARC
  5
1BF
100
AcDbEntity
  8
1
100
AcDbCircle
 10
-275.146758
 20
-252.544307
 30
0.0
 40
9.712354
100
AcDbArc
 50
279.816404
 51
315.0
  0
ARC
  5
1C0
100
AcDbEntity
  8
1
100
AcDbCircle
 10
-275.146758
 20
-266.756662
 30
0.0
 40
4.0
100
AcDbArc
 50
112.762724
 51
67.237276
  0
ARC
  5
1C1
100
AcDbEntity
  8
1
100
AcDbCircle
 10
-276.887879
 20
-262.607144
 30
0.0
 40
0.5
100
AcDbArc
 50
292.762724
 51
80.183596
  0
ARC
  5
1C2
100
AcDbEntity
  8
1
100
AcDbCircle
 10
-273.405637
 20
-262.607144
 30
0.0
 40
0.5
100
AcDbArc
 50
99.816404
 51
247.237276
  0
LINE
  5
1C3
100
AcDbEntity
  8
2
100
AcDbLine
 10
-344.146758
 20
321.743338
 30
0.0
 11
-196.146758
 21
321.743338
 31
0.0
  0
ARC
  5
1C4
100
AcDbEntity
  8
2
100
AcDbCircle
 10
-196.146758
 20
315.743338
 30
0.0
 40
6.0
100
AcDbArc
 50
0.0
 51
90.0
  0
ARC
  5
1C5
100
AcDbEntity
  8
2
100
AcDbCircle
 10
-344.146758
 20
315.743338
 30
0.0
 40
6.0
100
AcDbArc
 50
90.0
 51
180.0
  0
LINE
  5
1C6
100
AcDbEntity
  8
2
100
AcDbLine
 10
-190.146758
 20
315.743338
 30
0.0
 11
-190.146758
 21
227.743338
 31
0.0
  0
LINE
  5
1C7
100
AcDbEntity
  8
2
100
AcDbLine
 10
-350.146758
 20
227.743338
 30
0.0
 11
-350.146758
 21
315.743338
 31
0.0
  0
ARC
  5
1C8
100
AcDbEntity
  8
2
100
AcDbCircle
 10
-196.146758
 20
227.743338
 30
0.0
 40
6.0
100
AcDbArc
 50
270.0
 51
360.0
  0
ARC
  5
1C9
100
AcDbEntity
  8
2
100
AcDbCircle
 10
-344.146758
 20
227.743338
 30
0.0
 40
6.0
100
AcDbArc
 50
180.0
 51
270.0
  0
CIRCLE
  5
1CA
100
AcDbEntity
  8
2
100
AcDbCircle
 10
-275.146758
 20
268.743338
 30
0.0
 40
42.5
  0
LINE
  5
1CB
100
AcDbEntity
  8
2
100
AcDbLine
 10
-305.568954
 20
276.243338
 30
0.0
 11
-284.631711
 21
276.243338
 31
0.0
  0
LINE
  5
1CC
100
AcDbEntity
  8
2
100
AcDbLine
 10
-305.568954
 20
261.243338
 30
0.0
 11
-284.631711
 21
261.243338
 31
0.0
  0
LINE
  5
1CD
100
AcDbEntity
  8
2
100
AcDbLine
 10
-265.661806
 20
261.243338
 30
0.0
 11
-244.724562
 21
261.243338
 31
0.0
  0
LINE
  5
1CE
100
AcDbEntity
  8
2
100
AcDbLine
 10
-273.146758
 20
246.720863
 30
0.0
 11
-273.146758
 21
244.577246
 31
0.0
  0
LINE
  5
1CF
100
AcDbEntity
  8
2
100
AcDbLine
 10
-277.146758
 20
246.720863
 30
0.0
 11
-277.146758
 21
244.577246
 31
0.0
  0
LINE
  5
1D0
100
AcDbEntity
  8
2
100
AcDbLine
 10
-273.146758
 20
290.765813
 30
0.0
 11
-273.146758
 21
292.90943
 31
0.0
  0
LINE
  5
1D1
100
AcDbEntity
  8
2
100
AcDbLine
 10
-277.146758
 20
290.765813
 30
0.0
 11
-277.146758
 21
292.90943
 31
0.0
  0
LINE
  5
1D2
100
AcDbEntity
  8
2
100
AcDbLine
 10
-265.661806
 20
276.243338
 30
0.0
 11
-244.724562
 21
276.243338
 31
0.0
  0
LINE
  5
1D3
100
AcDbEntity
  8
2
100
AcDbLine
 10
-344.146758
 20
221.743338
 30
0.0
 11
-196.146758
 21
221.743338
 31
0.0
  0
LINE
  5
1D4
100
AcDbEntity
  8
2
100
AcDbLine
 10
-348.146758
 20
309.743338
 30
0.0
 11
-342.146758
 21
309.743338
 31
0.0
  0
LINE
  5
1D5
100
AcDbEntity
  8
2
100
AcDbLine
 10
-196.146758
 20
309.743338
 30
0.0
 11
-192.146758
 21
309.743338
 31
0.0
  0
LINE
  5
1D6
100
AcDbEntity
  8
2
100
AcDbLine
 10
-336.146758
 20
223.743338
 30
0.0
 11
-336.146758
 21
227.743338
 31
0.0
  0
LINE
  5
1D7
100
AcDbEntity
  8
2
100
AcDbLine
 10
-336.146758
 20
315.743338
 30
0.0
 11
-336.146758
 21
319.743338
 31
0.0
  0
LINE
  5
1D8
100
AcDbEntity
  8
2
100
AcDbLine
 10
-348.146758
 20
233.743338
 30
0.0
 11
-342.146758
 21
233.743338
 31
0.0
  0
LINE
  5
1D9
100
AcDbEntity
  8
2
100
AcDbLine
 10
-196.146758
 20
233.743338
 30
0.0
 11
-192.146758
 21
233.743338
 31
0.0
  0
LINE
  5
1DA
100
AcDbEntity
  8
2
100
AcDbLine
 10
-202.146758
 20
223.743338
 30
0.0
 11
-202.146758
 21
227.743338
 31
0.0
  0
LINE
  5
1DB
100
AcDbEntity
  8
2
100
AcDbLine
 10
-202.146758
 20
315.743338
 30
0.0
 11
-202.146758
 21
319.743338
 31
0.0
  0
ARC
  5
1DC
100
AcDbEntity
  8
2
100
AcDbCircle
 10
-196.146758
 20
315.743338
 30
0.0
 40
6.0
100
AcDbArc
 50
180.0
 51
270.0
  0
ARC
  5
1DD
100
AcDbEntity
  8
2
100
AcDbCircle
 10
-342.146758
 20
315.743338
 30
0.0
 40
6.0
100
AcDbArc
 50
270.0
 51
360.0
  0
ARC
  5
1DE
100
AcDbEntity
  8
2
100
AcDbCircle
 10
-342.146758
 20
227.743338
 30
0.0
 40
6.0
100
AcDbArc
 50
0.0
 51
90.0
  0
ARC
  5
1DF
100
AcDbEntity
  8
2
100
AcDbCircle
 10
-196.146758
 20
227.743338
 30
0.0
 40
6.0
100
AcDbArc
 50
90.0
 51
180.0
  0
CIRCLE
  5
1E0
100
AcDbEntity
  8
2
100
AcDbCircle
 10
-275.146758
 20
268.743338
 30
0.0
 40
31.33305
  0
ARC
  5
1E1
100
AcDbEntity
  8
2
100
AcDbCircle
 10
-312.571367
 20
269.070187
 30
0.0
 40
45.0
100
AcDbArc
 50
12.236103
 51
30.645688
  0
ARC
  5
1E2
100
AcDbEntity
  8
2
100
AcDbCircle
 10
-237.722149
 20
269.070187
 30
0.0
 40
45.0
100
AcDbArc
 50
149.354312
 51
167.763897
  0
ARC
  5
1E3
100
AcDbEntity
  8
2
100
AcDbCircle
 10
-275.146758
 20
291.243338
 30
0.0
 40
1.5
100
AcDbArc
 50
30.645688
 51
149.354312
  0
ARC
  5
1E4
100
AcDbEntity
  8
2
100
AcDbCircle
 10
-265.661806
 20
279.243338
 30
0.0
 40
3.0
100
AcDbArc
 50
192.236103
 51
270.0
  0
ARC
  5
1E5
100
AcDbEntity
  8
2
100
AcDbCircle
 10
-284.631711
 20
279.243338
 30
0.0
 40
3.0
100
AcDbArc
 50
270.0
 51
347.763897
  0
ARC
  5
1E6
100
AcDbEntity
  8
2
100
AcDbCircle
 10
-312.571367
 20
268.416489
 30
0.0
 40
45.0
100
AcDbArc
 50
329.354312
 51
347.763897
  0
ARC
  5
1E7
100
AcDbEntity
  8
2
100
AcDbCircle
 10
-237.722149
 20
268.416489
 30
0.0
 40
45.0
100
AcDbArc
 50
192.236103
 51
210.645688
  0
ARC
  5
1E8
100
AcDbEntity
  8
2
100
AcDbCircle
 10
-275.146758
 20
246.243338
 30
0.0
 40
1.5
100
AcDbArc
 50
210.645688
 51
329.354312
  0
ARC
  5
1E9
100
AcDbEntity
  8
2
100
AcDbCircle
 10
-265.661806
 20
258.243338
 30
0.0
 40
3.0
100
AcDbArc
 50
90.0
 51
167.763897
  0
ARC
  5
1EA
100
AcDbEntity
  8
2
100
AcDbCircle
 10
-284.631711
 20
258.243338
 30
0.0
 40
3.0
100
AcDbArc
 50
12.236103
 51
90.0
  0
ARC
  5
1EB
100
AcDbEntity
  8
2
100
AcDbCircle
 10
-275.146758
 20
268.743338
 30
0.0
 40
24.248711
100
AcDbArc
 50
18.016736
 51
161.983264
  0
ARC
  5
1EC
100
AcDbEntity
  8
2
100
AcDbCircle
 10
-275.146758
 20
268.743338
 30
0.0
 40
24.248711
100
AcDbArc
 50
198.016736
 51
341.983264
  0
ARC
  5
1ED
100
AcDbEntity
  8
2
100
AcDbCircle
 10
-192.146758
 20
307.743338
 30
0.0
 40
2.0
100
AcDbArc
 50
0.0
 51
90.0
  0
ARC
  5
1EE
100
AcDbEntity
  8
2
100
AcDbCircle
 10
-204.146758
 20
319.743338
 30
0.0
 40
2.0
100
AcDbArc
 50
0.0
 51
90.0
  0
ARC
  5
1EF
100
AcDbEntity
  8
2
100
AcDbCircle
 10
-192.146758
 20
235.743338
 30
0.0
 40
2.0
100
AcDbArc
 50
270.0
 51
360.0
  0
ARC
  5
1F0
100
AcDbEntity
  8
2
100
AcDbCircle
 10
-204.146758
 20
223.743338
 30
0.0
 40
2.0
100
AcDbArc
 50
270.0
 51
360.0
  0
ARC
  5
1F1
100
AcDbEntity
  8
2
100
AcDbCircle
 10
-334.146758
 20
223.743338
 30
0.0
 40
2.0
100
AcDbArc
 50
180.0
 51
270.0
  0
ARC
  5
1F2
100
AcDbEntity
  8
2
100
AcDbCircle
 10
-348.146758
 20
235.743338
 30
0.0
 40
2.0
100
AcDbArc
 50
180.0
 51
270.0
  0
ARC
  5
1F3
100
AcDbEntity
  8
2
100
AcDbCircle
 10
-334.146758
 20
319.743338
 30
0.0
 40
2.0
100
AcDbArc
 50
90.0
 51
180.0
  0
ARC
  5
1F4
100
AcDbEntity
  8
2
100
AcDbCircle
 10
-348.146758
 20
307.743338
 30
0.0
 40
2.0
100
AcDbArc
 50
90.0
 51
180.0
  0
LINE
  5
1F5
100
AcDbEntity
  8
2
 62
     2
100
AcDbLine
 10
-276.007616
 20
292.976764
 30
0.0
 11
-277.146758
 21
291.837622
 31
0.0
  0
LINE
  5
1F6
100
AcDbEntity
  8
2
 62
     2
100
AcDbLine
 10
-277.146758
 20
291.837622
 30
0.0
 11
-277.146758
 21
291.837622
 31
0.0
  0
LINE
  5
1F7
100
AcDbEntity
  8
2
 62
     2
100
AcDbLine
 10
-275.143802
 20
292.992049
 30
0.0
 11
-275.417071
 21
292.718781
 31
0.0
  0
LINE
  5
1F8
100
AcDbEntity
  8
2
 62
     2
100
AcDbLine
 10
-276.864047
 20
291.271805
 30
0.0
 11
-277.146758
 21
290.989094
 31
0.0
  0
LINE
  5
1F9
100
AcDbEntity
  8
2
 62
     2
100
AcDbLine
 10
-277.146758
 20
290.989094
 30
0.0
 11
-277.146758
 21
290.989094
 31
0.0
  0
LINE
  5
1FA
100
AcDbEntity
  8
2
 62
     2
100
AcDbLine
 10
-274.309725
 20
292.977599
 30
0.0
 11
-274.634255
 21
292.653069
 31
0.0
  0
LINE
  5
1FB
100
AcDbEntity
  8
2
 62
     2
100
AcDbLine
 10
-273.502554
 20
292.936242
 30
0.0
 11
-274.110727
 21
292.328068
 31
0.0
  0
LINE
  5
1FC
100
AcDbEntity
  8
2
 62
     2
100
AcDbLine
 10
-273.146758
 20
292.443509
 30
0.0
 11
-273.754669
 21
291.835598
 31
0.0
  0
LINE
  5
1FD
100
AcDbEntity
  8
2
 62
     2
100
AcDbLine
 10
-273.146758
 20
291.594981
 30
0.0
 11
-273.444122
 21
291.297617
 31
0.0
  0
LINE
  5
1FE
100
AcDbEntity
  8
2
 62
     2
100
AcDbLine
 10
-276.904662
 20
292.928246
 30
0.0
 11
-277.146758
 21
292.68615
 31
0.0
  0
LINE
  5
1FF
100
AcDbEntity
  8
2
 62
     2
100
AcDbLine
 10
-277.146758
 20
292.68615
 30
0.0
 11
-277.146758
 21
292.68615
 31
0.0
  0
LINE
  5
200
100
AcDbEntity
  8
2
 62
     2
100
AcDbLine
 10
-276.761234
 20
246.034579
 30
0.0
 11
-277.146758
 21
245.649055
 31
0.0
  0
LINE
  5
201
100
AcDbEntity
  8
2
 62
     2
100
AcDbLine
 10
-277.146758
 20
245.649055
 30
0.0
 11
-277.146758
 21
245.649055
 31
0.0
  0
LINE
  5
202
100
AcDbEntity
  8
2
 62
     2
100
AcDbLine
 10
-276.448894
 20
245.498391
 30
0.0
 11
-277.146758
 21
244.800527
 31
0.0
  0
LINE
  5
203
100
AcDbEntity
  8
2
 62
     2
100
AcDbLine
 10
-277.146758
 20
244.800527
 30
0.0
 11
-277.146758
 21
244.800527
 31
0.0
  0
LINE
  5
204
100
AcDbEntity
  8
2
 62
     2
100
AcDbLine
 10
-276.562751
 20
244.536005
 30
0.0
 11
-276.051698
 21
245.047059
 31
0.0
  0
LINE
  5
205
100
AcDbEntity
  8
2
 62
     2
100
AcDbLine
 10
-275.748143
 20
244.502085
 30
0.0
 11
-275.47135
 21
244.778879
 31
0.0
  0
LINE
  5
206
100
AcDbEntity
  8
2
 62
     2
100
AcDbLine
 10
-273.146758
 20
246.254942
 30
0.0
 11
-273.760413
 21
245.641287
 31
0.0
  0
LINE
  5
207
100
AcDbEntity
  8
2
 62
     2
100
AcDbLine
 10
-274.522114
 20
244.879586
 30
0.0
 11
-274.905877
 21
244.495823
 31
0.0
  0
LINE
  5
208
100
AcDbEntity
  8
2
 62
     2
100
AcDbLine
 10
-274.032952
 20
244.52022
 30
0.0
 11
-273.146758
 21
245.406414
 31
0.0
  0
LINE
  5
209
100
AcDbEntity
  8
2
 62
     2
100
AcDbLine
 10
-277.06728
 20
246.577061
 30
0.0
 11
-277.146758
 21
246.497583
 31
0.0
  0
LINE
  5
20A
100
AcDbEntity
  8
2
 62
     2
100
AcDbLine
 10
-277.146758
 20
246.497583
 30
0.0
 11
-277.146758
 21
246.497583
 31
0.0
  0
LINE
  5
20B
100
AcDbEntity
  8
2
100
AcDbLine
 10
-283.962426
 20
246.153871
 30
0.0
 11
-281.963557
 21
250.979568
 31
0.0
  0
LINE
  5
20C
100
AcDbEntity
  8
2
100
AcDbLine
 10
-267.40608
 20
286.124425
 30
0.0
 11
-265.407211
 21
290.950122
 31
0.0
  0
LINE
  5
20D
100
AcDbEntity
  8
2
100
AcDbLine
 10
-284.886305
 20
246.536555
 30
0.0
 11
-282.887436
 21
251.362252
 31
0.0
  0
LINE
  5
20E
100
AcDbEntity
  8
2
100
AcDbLine
 10
-268.32996
 20
286.507108
 30
0.0
 11
-266.331091
 21
291.332805
 31
0.0
  0
LINE
  5
20F
100
AcDbEntity
  8
2
100
AcDbLine
 10
-291.935988
 20
251.247002
 30
0.0
 11
-288.242559
 21
254.940431
 31
0.0
  0
LINE
  5
210
100
AcDbEntity
  8
2
100
AcDbLine
 10
-261.343851
 20
281.839139
 30
0.0
 11
-257.650422
 21
285.532568
 31
0.0
  0
LINE
  5
211
100
AcDbEntity
  8
2
100
AcDbLine
 10
-292.643094
 20
251.954109
 30
0.0
 11
-288.949666
 21
255.647537
 31
0.0
  0
LINE
  5
212
100
AcDbEntity
  8
2
100
AcDbLine
 10
-262.050957
 20
282.546246
 30
0.0
 11
-258.357529
 21
286.239674
 31
0.0
  0
LINE
  5
213
100
AcDbEntity
  8
2
100
AcDbLine
 10
-297.353542
 20
259.003791
 30
0.0
 11
-292.527845
 21
261.00266
 31
0.0
  0
LINE
  5
214
100
AcDbEntity
  8
2
100
AcDbLine
 10
-255.733594
 20
276.243338
 30
0.0
 11
-252.557292
 21
277.559006
 31
0.0
  0
LINE
  5
215
100
AcDbEntity
  8
2
100
AcDbLine
 10
-297.736225
 20
259.927671
 30
0.0
 11
-294.559923
 21
261.243338
 31
0.0
  0
LINE
  5
216
100
AcDbEntity
  8
2
100
AcDbLine
 10
-257.765672
 20
276.484016
 30
0.0
 11
-252.939975
 21
278.482885
 31
0.0
  0
ARC
  5
217
100
AcDbEntity
  8
2
100
AcDbCircle
 10
-282.425496
 20
251.17091
 30
0.0
 40
0.5
100
AcDbArc
 50
337.5
 51
157.5
  0
ARC
  5
218
100
AcDbEntity
  8
2
100
AcDbCircle
 10
-288.596113
 20
255.293984
 30
0.0
 40
0.5
100
AcDbArc
 50
315.0
 51
135.0
  0
ARC
  5
219
100
AcDbEntity
  8
2
100
AcDbCircle
 10
-292.719186
 20
261.4646
 30
0.0
 40
0.5
100
AcDbArc
 50
292.5
 51
333.734975
  0
ARC
  5
21A
100
AcDbEntity
  8
2
100
AcDbCircle
 10
-267.86802
 20
286.315766
 30
0.0
 40
0.5
100
AcDbArc
 50
157.5
 51
337.5
  0
ARC
  5
21B
100
AcDbEntity
  8
2
100
AcDbCircle
 10
-261.697404
 20
282.192692
 30
0.0
 40
0.5
100
AcDbArc
 50
135.0
 51
315.0
  0
ARC
  5
21C
100
AcDbEntity
  8
2
100
AcDbCircle
 10
-257.57433
 20
276.022076
 30
0.0
 40
0.5
100
AcDbArc
 50
112.5
 51
153.734975
  0
LINE
  5
21D
100
AcDbEntity
  8
2
 62
     2
100
AcDbLine
 10
-267.280144
 20
289.041588
 30
0.0
 11
-266.406646
 21
288.537273
 31
0.0
  0
LINE
  5
21E
100
AcDbEntity
  8
2
 62
     2
100
AcDbLine
 10
-266.406646
 20
288.537273
 30
0.0
 11
-266.406646
 21
288.537273
 31
0.0
  0
LINE
  5
21F
100
AcDbEntity
  8
2
 62
     2
100
AcDbLine
 10
-267.048553
 20
289.600699
 30
0.0
 11
-266.175055
 21
289.096384
 31
0.0
  0
LINE
  5
220
100
AcDbEntity
  8
2
 62
     2
100
AcDbLine
 10
-266.175055
 20
289.096384
 30
0.0
 11
-266.175055
 21
289.096384
 31
0.0
  0
LINE
  5
221
100
AcDbEntity
  8
2
 62
     2
100
AcDbLine
 10
-266.816961
 20
290.15981
 30
0.0
 11
-265.943463
 21
289.655495
 31
0.0
  0
LINE
  5
222
100
AcDbEntity
  8
2
 62
     2
100
AcDbLine
 10
-265.943463
 20
289.655495
 30
0.0
 11
-265.943463
 21
289.655495
 31
0.0
  0
LINE
  5
223
100
AcDbEntity
  8
2
 62
     2
100
AcDbLine
 10
-266.58537
 20
290.718921
 30
0.0
 11
-265.711872
 21
290.214606
 31
0.0
  0
LINE
  5
224
100
AcDbEntity
  8
2
 62
     2
100
AcDbLine
 10
-265.711872
 20
290.214606
 30
0.0
 11
-265.711872
 21
290.214606
 31
0.0
  0
LINE
  5
225
100
AcDbEntity
  8
2
 62
     2
100
AcDbLine
 10
-266.353779
 20
291.278032
 30
0.0
 11
-265.48028
 21
290.773717
 31
0.0
  0
LINE
  5
226
100
AcDbEntity
  8
2
 62
     2
100
AcDbLine
 10
-265.48028
 20
290.773717
 30
0.0
 11
-265.48028
 21
290.773717
 31
0.0
  0
LINE
  5
227
100
AcDbEntity
  8
2
 62
     2
100
AcDbLine
 10
-267.511736
 20
288.482477
 30
0.0
 11
-266.638237
 21
287.978162
 31
0.0
  0
LINE
  5
228
100
AcDbEntity
  8
2
 62
     2
100
AcDbLine
 10
-266.638237
 20
287.978162
 30
0.0
 11
-266.638237
 21
287.978162
 31
0.0
  0
LINE
  5
229
100
AcDbEntity
  8
2
 62
     2
100
AcDbLine
 10
-267.743327
 20
287.923366
 30
0.0
 11
-266.869829
 21
287.419051
 31
0.0
  0
LINE
  5
22A
100
AcDbEntity
  8
2
 62
     2
100
AcDbLine
 10
-266.869829
 20
287.419051
 30
0.0
 11
-266.869829
 21
287.419051
 31
0.0
  0
LINE
  5
22B
100
AcDbEntity
  8
2
 62
     2
100
AcDbLine
 10
-267.974918
 20
287.364255
 30
0.0
 11
-267.10142
 21
286.85994
 31
0.0
  0
LINE
  5
22C
100
AcDbEntity
  8
2
 62
     2
100
AcDbLine
 10
-267.10142
 20
286.85994
 30
0.0
 11
-267.10142
 21
286.85994
 31
0.0
  0
LINE
  5
22D
100
AcDbEntity
  8
2
 62
     2
100
AcDbLine
 10
-268.20651
 20
286.805144
 30
0.0
 11
-267.333011
 21
286.300829
 31
0.0
  0
LINE
  5
22E
100
AcDbEntity
  8
2
 62
     2
100
AcDbLine
 10
-267.333011
 20
286.300829
 30
0.0
 11
-267.333011
 21
286.300829
 31
0.0
  0
LINE
  5
22F
100
AcDbEntity
  8
2
 62
     2
100
AcDbLine
 10
-268.353798
 20
286.19736
 30
0.0
 11
-267.727674
 21
285.835867
 31
0.0
  0
LINE
  5
230
100
AcDbEntity
  8
2
 62
     2
100
AcDbLine
 10
-260.393712
 20
284.203491
 30
0.0
 11
-259.497136
 21
283.685853
 31
0.0
  0
LINE
  5
231
100
AcDbEntity
  8
2
 62
     2
100
AcDbLine
 10
-259.497136
 20
283.685853
 30
0.0
 11
-259.497136
 21
283.685853
 31
0.0
  0
LINE
  5
232
100
AcDbEntity
  8
2
 62
     2
100
AcDbLine
 10
-259.954481
 20
284.642722
 30
0.0
 11
-259.057906
 21
284.125084
 31
0.0
  0
LINE
  5
233
100
AcDbEntity
  8
2
 62
     2
100
AcDbLine
 10
-259.057906
 20
284.125084
 30
0.0
 11
-259.057906
 21
284.125084
 31
0.0
  0
LINE
  5
234
100
AcDbEntity
  8
2
 62
     2
100
AcDbLine
 10
-259.515251
 20
285.081952
 30
0.0
 11
-258.618675
 21
284.564314
 31
0.0
  0
LINE
  5
235
100
AcDbEntity
  8
2
 62
     2
100
AcDbLine
 10
-258.618675
 20
284.564314
 30
0.0
 11
-258.618675
 21
284.564314
 31
0.0
  0
LINE
  5
236
100
AcDbEntity
  8
2
 62
     2
100
AcDbLine
 10
-259.07602
 20
285.521183
 30
0.0
 11
-258.179445
 21
285.003545
 31
0.0
  0
LINE
  5
237
100
AcDbEntity
  8
2
 62
     2
100
AcDbLine
 10
-258.179445
 20
285.003545
 30
0.0
 11
-258.179445
 21
285.003545
 31
0.0
  0
LINE
  5
238
100
AcDbEntity
  8
2
 62
     2
100
AcDbLine
 10
-258.63679
 20
285.960413
 30
0.0
 11
-257.740214
 21
285.442775
 31
0.0
  0
LINE
  5
239
100
AcDbEntity
  8
2
 62
     2
100
AcDbLine
 10
-257.740214
 20
285.442775
 30
0.0
 11
-257.740214
 21
285.442775
 31
0.0
  0
LINE
  5
23A
100
AcDbEntity
  8
2
 62
     2
100
AcDbLine
 10
-260.832942
 20
283.764261
 30
0.0
 11
-259.936367
 21
283.246623
 31
0.0
  0
LINE
  5
23B
100
AcDbEntity
  8
2
 62
     2
100
AcDbLine
 10
-259.936367
 20
283.246623
 30
0.0
 11
-259.936367
 21
283.246623
 31
0.0
  0
LINE
  5
23C
100
AcDbEntity
  8
2
 62
     2
100
AcDbLine
 10
-261.272173
 20
283.32503
 30
0.0
 11
-260.375597
 21
282.807392
 31
0.0
  0
LINE
  5
23D
100
AcDbEntity
  8
2
 62
     2
100
AcDbLine
 10
-260.375597
 20
282.807392
 30
0.0
 11
-260.375597
 21
282.807392
 31
0.0
  0
LINE
  5
23E
100
AcDbEntity
  8
2
 62
     2
100
AcDbLine
 10
-261.711403
 20
282.8858
 30
0.0
 11
-260.814828
 21
282.368162
 31
0.0
  0
LINE
  5
23F
100
AcDbEntity
  8
2
 62
     2
100
AcDbLine
 10
-260.814828
 20
282.368162
 30
0.0
 11
-260.814828
 21
282.368162
 31
0.0
  0
LINE
  5
240
100
AcDbEntity
  8
2
 62
     2
100
AcDbLine
 10
-262.133753
 20
282.436823
 30
0.0
 11
-261.254058
 21
281.928931
 31
0.0
  0
LINE
  5
241
100
AcDbEntity
  8
2
 62
     2
100
AcDbLine
 10
-261.254058
 20
281.928931
 30
0.0
 11
-261.254058
 21
281.928931
 31
0.0
  0
LINE
  5
242
100
AcDbEntity
  8
2
 62
     2
100
AcDbLine
 10
-255.237044
 20
277.531408
 30
0.0
 11
-254.145443
 21
276.901172
 31
0.0
  0
LINE
  5
243
100
AcDbEntity
  8
2
 62
     2
100
AcDbLine
 10
-254.145443
 20
276.901172
 30
0.0
 11
-254.145443
 21
276.901172
 31
0.0
  0
LINE
  5
244
100
AcDbEntity
  8
2
 62
     2
100
AcDbLine
 10
-254.538329
 20
277.820825
 30
0.0
 11
-253.446728
 21
277.190589
 31
0.0
  0
LINE
  5
245
100
AcDbEntity
  8
2
 62
     2
100
AcDbLine
 10
-253.446728
 20
277.190589
 30
0.0
 11
-253.446728
 21
277.190589
 31
0.0
  0
LINE
  5
246
100
AcDbEntity
  8
2
 62
     2
100
AcDbLine
 10
-253.839614
 20
278.110242
 30
0.0
 11
-252.748013
 21
277.480006
 31
0.0
  0
LINE
  5
247
100
AcDbEntity
  8
2
 62
     2
100
AcDbLine
 10
-252.748013
 20
277.480006
 30
0.0
 11
-252.748013
 21
277.480006
 31
0.0
  0
LINE
  5
248
100
AcDbEntity
  8
2
 62
     2
100
AcDbLine
 10
-252.825486
 20
278.217555
 30
0.0
 11
-253.140899
 21
278.39966
 31
0.0
  0
LINE
  5
249
100
AcDbEntity
  8
2
 62
     2
100
AcDbLine
 10
-255.935758
 20
277.241991
 30
0.0
 11
-254.844157
 21
276.611755
 31
0.0
  0
LINE
  5
24A
100
AcDbEntity
  8
2
 62
     2
100
AcDbLine
 10
-254.844157
 20
276.611755
 30
0.0
 11
-254.844157
 21
276.611755
 31
0.0
  0
LINE
  5
24B
100
AcDbEntity
  8
2
 62
     2
100
AcDbLine
 10
-256.634473
 20
276.952574
 30
0.0
 11
-255.542872
 21
276.322338
 31
0.0
  0
LINE
  5
24C
100
AcDbEntity
  8
2
 62
     2
100
AcDbLine
 10
-255.542872
 20
276.322338
 30
0.0
 11
-255.542872
 21
276.322338
 31
0.0
  0
LINE
  5
24D
100
AcDbEntity
  8
2
 62
     2
100
AcDbLine
 10
-257.333188
 20
276.663157
 30
0.0
 11
-256.606041
 21
276.243338
 31
0.0
  0
LINE
  5
24E
100
AcDbEntity
  8
2
 62
     2
100
AcDbLine
 10
-257.964461
 20
276.334802
 30
0.0
 11
-257.806041
 21
276.243338
 31
0.0
  0
LINE
  5
24F
100
AcDbEntity
  8
2
100
AcDbLine
 10
-258.345394
 20
259.889644
 30
0.0
 11
-256.323348
 21
259.052085
 31
0.0
  0
ARC
  5
250
100
AcDbEntity
  8
2
100
AcDbCircle
 10
-257.675643
 20
261.506565
 30
0.0
 40
1.750143
100
AcDbArc
 50
188.650293
 51
247.5
  0
ARC
  5
251
100
AcDbEntity
  8
2
100
AcDbCircle
 10
-255.653598
 20
260.669007
 30
0.0
 40
1.750143
100
AcDbArc
 50
247.5
 51
19.157293
  0
LINE
  5
252
100
AcDbEntity
  8
2
100
AcDbLine
 10
-258.193434
 20
260.184217
 30
0.0
 11
-256.15708
 21
259.382075
 31
0.0
  0
ARC
  5
253
100
AcDbEntity
  8
2
100
AcDbCircle
 10
-257.552005
 20
261.812581
 30
0.0
 40
1.750143
100
AcDbArc
 50
198.98101
 51
248.5
  0
ARC
  5
254
100
AcDbEntity
  8
2
100
AcDbCircle
 10
-255.51565
 20
261.010439
 30
0.0
 40
1.750143
100
AcDbArc
 50
248.5
 51
7.647286
  0
LINE
  5
255
100
AcDbEntity
  8
2
100
AcDbLine
 10
-258.502471
 20
259.597768
 30
0.0
 11
-256.495351
 21
258.725048
 31
0.0
  0
ARC
  5
256
100
AcDbEntity
  8
2
100
AcDbCircle
 10
-257.804603
 20
261.202755
 30
0.0
 40
1.750143
100
AcDbArc
 50
178.671261
 51
246.5
  0
ARC
  5
257
100
AcDbEntity
  8
2
100
AcDbCircle
 10
-255.797483
 20
260.330034
 30
0.0
 40
1.750143
100
AcDbArc
 50
246.5
 51
31.45613
  0
LINE
  5
258
100
AcDbEntity
  8
2
100
AcDbLine
 10
-291.948123
 20
277.597032
 30
0.0
 11
-293.970168
 21
278.434591
 31
0.0
  0
ARC
  5
259
100
AcDbEntity
  8
2
100
AcDbCircle
 10
-292.617874
 20
275.980111
 30
0.0
 40
1.750143
100
AcDbArc
 50
8.650293
 51
67.5
  0
ARC
  5
25A
100
AcDbEntity
  8
2
100
AcDbCircle
 10
-294.639919
 20
276.81767
 30
0.0
 40
1.750143
100
AcDbArc
 50
67.5
 51
199.157293
  0
LINE
  5
25B
100
AcDbEntity
  8
2
100
AcDbLine
 10
-292.100082
 20
277.30246
 30
0.0
 11
-294.136437
 21
278.104601
 31
0.0
  0
ARC
  5
25C
100
AcDbEntity
  8
2
100
AcDbCircle
 10
-292.741512
 20
275.674096
 30
0.0
 40
1.750143
100
AcDbArc
 50
18.98101
 51
68.5
  0
ARC
  5
25D
100
AcDbEntity
  8
2
100
AcDbCircle
 10
-294.777867
 20
276.476237
 30
0.0
 40
1.750143
100
AcDbArc
 50
68.5
 51
187.647286
  0
LINE
  5
25E
100
AcDbEntity
  8
2
100
AcDbLine
 10
-291.791046
 20
277.888908
 30
0.0
 11
-293.798166
 21
278.761629
 31
0.0
  0
ARC
  5
25F
100
AcDbEntity
  8
2
100
AcDbCircle
 10
-292.488914
 20
276.283922
 30
0.0
 40
1.750143
100
AcDbArc
 50
358.671261
 51
66.5
  0
ARC
  5
260
100
AcDbEntity
  8
2
100
AcDbCircle
 10
-294.496034
 20
277.156643
 30
0.0
 40
1.750143
100
AcDbArc
 50
66.5
 51
211.45613
  0
LINE
  5
261
100
AcDbEntity
  8
2
 62
     2
100
AcDbLine
 10
-283.836489
 20
249.071034
 30
0.0
 11
-282.962991
 21
248.56672
 31
0.0
  0
LINE
  5
262
100
AcDbEntity
  8
2
 62
     2
100
AcDbLine
 10
-282.962991
 20
248.56672
 30
0.0
 11
-282.962991
 21
248.56672
 31
0.0
  0
LINE
  5
263
100
AcDbEntity
  8
2
 62
     2
100
AcDbLine
 10
-283.604898
 20
249.630145
 30
0.0
 11
-282.7314
 21
249.125831
 31
0.0
  0
LINE
  5
264
100
AcDbEntity
  8
2
 62
     2
100
AcDbLine
 10
-282.7314
 20
249.125831
 30
0.0
 11
-282.7314
 21
249.125831
 31
0.0
  0
LINE
  5
265
100
AcDbEntity
  8
2
 62
     2
100
AcDbLine
 10
-283.373307
 20
250.189256
 30
0.0
 11
-282.499808
 21
249.684942
 31
0.0
  0
LINE
  5
266
100
AcDbEntity
  8
2
 62
     2
100
AcDbLine
 10
-282.499808
 20
249.684942
 30
0.0
 11
-282.499808
 21
249.684942
 31
0.0
  0
LINE
  5
267
100
AcDbEntity
  8
2
 62
     2
100
AcDbLine
 10
-283.141715
 20
250.748367
 30
0.0
 11
-282.268217
 21
250.244053
 31
0.0
  0
LINE
  5
268
100
AcDbEntity
  8
2
 62
     2
100
AcDbLine
 10
-282.268217
 20
250.244053
 30
0.0
 11
-282.268217
 21
250.244053
 31
0.0
  0
LINE
  5
269
100
AcDbEntity
  8
2
 62
     2
100
AcDbLine
 10
-282.910124
 20
251.307478
 30
0.0
 11
-282.036626
 21
250.803164
 31
0.0
  0
LINE
  5
26A
100
AcDbEntity
  8
2
 62
     2
100
AcDbLine
 10
-282.036626
 20
250.803164
 30
0.0
 11
-282.036626
 21
250.803164
 31
0.0
  0
LINE
  5
26B
100
AcDbEntity
  8
2
 62
     2
100
AcDbLine
 10
-282.320175
 20
251.659692
 30
0.0
 11
-282.054859
 21
251.506511
 31
0.0
  0
LINE
  5
26C
100
AcDbEntity
  8
2
 62
     2
100
AcDbLine
 10
-284.068081
 20
248.511923
 30
0.0
 11
-283.194582
 21
248.007609
 31
0.0
  0
LINE
  5
26D
100
AcDbEntity
  8
2
 62
     2
100
AcDbLine
 10
-283.194582
 20
248.007609
 30
0.0
 11
-283.194582
 21
248.007609
 31
0.0
  0
LINE
  5
26E
100
AcDbEntity
  8
2
 62
     2
100
AcDbLine
 10
-284.299672
 20
247.952812
 30
0.0
 11
-283.426174
 21
247.448498
 31
0.0
  0
LINE
  5
26F
100
AcDbEntity
  8
2
 62
     2
100
AcDbLine
 10
-283.426174
 20
247.448498
 30
0.0
 11
-283.426174
 21
247.448498
 31
0.0
  0
LINE
  5
270
100
AcDbEntity
  8
2
 62
     2
100
AcDbLine
 10
-284.531263
 20
247.393701
 30
0.0
 11
-283.657765
 21
246.889387
 31
0.0
  0
LINE
  5
271
100
AcDbEntity
  8
2
 62
     2
100
AcDbLine
 10
-283.657765
 20
246.889387
 30
0.0
 11
-283.657765
 21
246.889387
 31
0.0
  0
LINE
  5
272
100
AcDbEntity
  8
2
 62
     2
100
AcDbLine
 10
-284.762855
 20
246.83459
 30
0.0
 11
-283.889357
 21
246.330276
 31
0.0
  0
LINE
  5
273
100
AcDbEntity
  8
2
 62
     2
100
AcDbLine
 10
-283.889357
 20
246.330276
 30
0.0
 11
-283.889357
 21
246.330276
 31
0.0
  0
LINE
  5
274
100
AcDbEntity
  8
2
 62
     2
100
AcDbLine
 10
-290.985849
 20
253.611354
 30
0.0
 11
-290.089273
 21
253.093716
 31
0.0
  0
LINE
  5
275
100
AcDbEntity
  8
2
 62
     2
100
AcDbLine
 10
-290.089273
 20
253.093716
 30
0.0
 11
-290.089273
 21
253.093716
 31
0.0
  0
LINE
  5
276
100
AcDbEntity
  8
2
 62
     2
100
AcDbLine
 10
-290.546618
 20
254.050585
 30
0.0
 11
-289.650043
 21
253.532947
 31
0.0
  0
LINE
  5
277
100
AcDbEntity
  8
2
 62
     2
100
AcDbLine
 10
-289.650043
 20
253.532947
 30
0.0
 11
-289.650043
 21
253.532947
 31
0.0
  0
LINE
  5
278
100
AcDbEntity
  8
2
 62
     2
100
AcDbLine
 10
-290.107388
 20
254.489815
 30
0.0
 11
-289.210812
 21
253.972177
 31
0.0
  0
LINE
  5
279
100
AcDbEntity
  8
2
 62
     2
100
AcDbLine
 10
-289.210812
 20
253.972177
 30
0.0
 11
-289.210812
 21
253.972177
 31
0.0
  0
LINE
  5
27A
100
AcDbEntity
  8
2
 62
     2
100
AcDbLine
 10
-289.668157
 20
254.929046
 30
0.0
 11
-288.771582
 21
254.411408
 31
0.0
  0
LINE
  5
27B
100
AcDbEntity
  8
2
 62
     2
100
AcDbLine
 10
-288.771582
 20
254.411408
 30
0.0
 11
-288.771582
 21
254.411408
 31
0.0
  0
LINE
  5
27C
100
AcDbEntity
  8
2
 62
     2
100
AcDbLine
 10
-289.228927
 20
255.368276
 30
0.0
 11
-288.332351
 21
254.850638
 31
0.0
  0
LINE
  5
27D
100
AcDbEntity
  8
2
 62
     2
100
AcDbLine
 10
-288.332351
 20
254.850638
 30
0.0
 11
-288.332351
 21
254.850638
 31
0.0
  0
LINE
  5
27E
100
AcDbEntity
  8
2
 62
     2
100
AcDbLine
 10
-288.733125
 20
255.774845
 30
0.0
 11
-288.111168
 21
255.415758
 31
0.0
  0
LINE
  5
27F
100
AcDbEntity
  8
2
 62
     2
100
AcDbLine
 10
-291.425079
 20
253.172124
 30
0.0
 11
-290.528504
 21
252.654486
 31
0.0
  0
LINE
  5
280
100
AcDbEntity
  8
2
 62
     2
100
AcDbLine
 10
-290.528504
 20
252.654486
 30
0.0
 11
-290.528504
 21
252.654486
 31
0.0
  0
LINE
  5
281
100
AcDbEntity
  8
2
 62
     2
100
AcDbLine
 10
-291.86431
 20
252.732893
 30
0.0
 11
-290.967734
 21
252.215255
 31
0.0
  0
LINE
  5
282
100
AcDbEntity
  8
2
 62
     2
100
AcDbLine
 10
-290.967734
 20
252.215255
 30
0.0
 11
-290.967734
 21
252.215255
 31
0.0
  0
LINE
  5
283
100
AcDbEntity
  8
2
 62
     2
100
AcDbLine
 10
-292.30354
 20
252.293663
 30
0.0
 11
-291.406965
 21
251.776025
 31
0.0
  0
LINE
  5
284
100
AcDbEntity
  8
2
 62
     2
100
AcDbLine
 10
-291.406965
 20
251.776025
 30
0.0
 11
-291.406965
 21
251.776025
 31
0.0
  0
LINE
  5
285
100
AcDbEntity
  8
2
 62
     2
100
AcDbLine
 10
-292.288344
 20
251.592069
 30
0.0
 11
-291.846195
 21
251.336794
 31
0.0
  0
LINE
  5
286
100
AcDbEntity
  8
2
 62
     2
100
AcDbLine
 10
-291.846195
 20
251.336794
 30
0.0
 11
-291.846195
 21
251.336794
 31
0.0
  0
LINE
  5
287
100
AcDbEntity
  8
2
 62
     2
100
AcDbLine
 10
-296.032294
 20
260.633462
 30
0.0
 11
-294.940693
 21
260.003226
 31
0.0
  0
LINE
  5
288
100
AcDbEntity
  8
2
 62
     2
100
AcDbLine
 10
-294.940693
 20
260.003226
 30
0.0
 11
-294.940693
 21
260.003226
 31
0.0
  0
LINE
  5
289
100
AcDbEntity
  8
2
 62
     2
100
AcDbLine
 10
-295.333579
 20
260.922879
 30
0.0
 11
-294.241978
 21
260.292643
 31
0.0
  0
LINE
  5
28A
100
AcDbEntity
  8
2
 62
     2
100
AcDbLine
 10
-294.241978
 20
260.292643
 30
0.0
 11
-294.241978
 21
260.292643
 31
0.0
  0
LINE
  5
28B
100
AcDbEntity
  8
2
 62
     2
100
AcDbLine
 10
-294.634865
 20
261.212296
 30
0.0
 11
-293.543264
 21
260.58206
 31
0.0
  0
LINE
  5
28C
100
AcDbEntity
  8
2
 62
     2
100
AcDbLine
 10
-293.543264
 20
260.58206
 30
0.0
 11
-293.543264
 21
260.58206
 31
0.0
  0
LINE
  5
28D
100
AcDbEntity
  8
2
 62
     2
100
AcDbLine
 10
-293.488631
 20
261.243338
 30
0.0
 11
-292.844549
 21
260.871477
 31
0.0
  0
LINE
  5
28E
100
AcDbEntity
  8
2
 62
     2
100
AcDbLine
 10
-292.844549
 20
260.871477
 30
0.0
 11
-292.844549
 21
260.871477
 31
0.0
  0
LINE
  5
28F
100
AcDbEntity
  8
2
 62
     2
100
AcDbLine
 10
-292.288631
 20
261.243338
 30
0.0
 11
-292.274829
 21
261.23537
 31
0.0
  0
LINE
  5
290
100
AcDbEntity
  8
2
 62
     2
100
AcDbLine
 10
-296.731009
 20
260.344045
 30
0.0
 11
-295.639408
 21
259.713809
 31
0.0
  0
LINE
  5
291
100
AcDbEntity
  8
2
 62
     2
100
AcDbLine
 10
-295.639408
 20
259.713809
 30
0.0
 11
-295.639408
 21
259.713809
 31
0.0
  0
LINE
  5
292
100
AcDbEntity
  8
2
 62
     2
100
AcDbLine
 10
-297.429724
 20
260.054628
 30
0.0
 11
-296.338123
 21
259.424392
 31
0.0
  0
LINE
  5
293
100
AcDbEntity
  8
2
 62
     2
100
AcDbLine
 10
-296.338123
 20
259.424392
 30
0.0
 11
-296.338123
 21
259.424392
 31
0.0
  0
LINE
  5
294
100
AcDbEntity
  8
2
 62
     2
100
AcDbLine
 10
-297.531773
 20
259.420726
 30
0.0
 11
-297.036838
 21
259.134974
 31
0.0
  0
LINE
  5
295
100
AcDbEntity
  8
2
 62
     2
100
AcDbLine
 10
-297.036838
 20
259.134974
 30
0.0
 11
-297.036838
 21
259.134974
 31
0.0
  0
LINE
  5
296
100
AcDbEntity
  8
2
  6
CENTER
 62
     2
100
AcDbLine
 10
-349.620411
 20
315.743338
 30
0.0
 11
-332.970864
 21
315.743338
 31
0.0
  0
LINE
  5
297
100
AcDbEntity
  8
2
  6
CENTER
 62
     2
100
AcDbLine
 10
-205.25269
 20
315.743338
 30
0.0
 11
-186.817334
 21
315.743338
 31
0.0
  0
LINE
  5
298
100
AcDbEntity
  8
2
  6
CENTER
 62
     2
100
AcDbLine
 10
-342.146758
 20
220.649234
 30
0.0
 11
-342.146758
 21
235.666385
 31
0.0
  0
LINE
  5
299
100
AcDbEntity
  8
2
  6
CENTER
 62
     2
100
AcDbLine
 10
-342.146758
 20
308.303759
 30
0.0
 11
-342.146758
 21
323.647357
 31
0.0
  0
LINE
  5
29A
100
AcDbEntity
  8
2
  6
CENTER
 62
     2
100
AcDbLine
 10
-348.804234
 20
227.743338
 30
0.0
 11
-334.929627
 21
227.743338
 31
0.0
  0
LINE
  5
29B
100
AcDbEntity
  8
2
  6
CENTER
 62
     2
100
AcDbLine
 10
-205.495236
 20
227.743338
 30
0.0
 11
-187.302487
 21
227.743338
 31
0.0
  0
LINE
  5
29C
100
AcDbEntity
  8
2
  6
CENTER
 62
     2
100
AcDbLine
 10
-196.146758
 20
218.975177
 30
0.0
 11
-196.146758
 21
236.440234
 31
0.0
  0
LINE
  5
29D
100
AcDbEntity
  8
2
  6
CENTER
 62
     2
100
AcDbLine
 10
-196.146758
 20
306.542651
 30
0.0
 11
-196.146758
 21
323.765094
 31
0.0
  0
ARC
  5
29E
100
AcDbEntity
  8
2
  6
CENTER
 62
     2
100
AcDbCircle
 10
-275.146758
 20
268.743338
 30
0.0
 40
37.5
100
AcDbArc
 50
126.361503
 51
143.885033
  0
ARC
  5
29F
100
AcDbEntity
  8
2
  6
CENTER
 62
     2
100
AcDbCircle
 10
-275.146758
 20
268.743338
 30
0.0
 40
37.5
100
AcDbArc
 50
216.93331
 51
233.416879
  0
ARC
  5
2A0
100
AcDbEntity
  8
2
  6
CENTER
 62
     2
100
AcDbCircle
 10
-275.146758
 20
268.743338
 30
0.0
 40
37.5
100
AcDbArc
 50
306.278748
 51
323.822644
  0
ARC
  5
2A1
100
AcDbEntity
  8
2
  6
CENTER
 62
     2
100
AcDbCircle
 10
-275.146758
 20
268.743338
 30
0.0
 40
37.5
100
AcDbArc
 50
36.280641
 51
53.737219
  0
LINE
  5
2A2
100
AcDbEntity
  8
2
  6
CENTER
 62
     2
100
AcDbLine
 10
-305.986045
 20
237.904052
 30
0.0
 11
-297.935445
 21
245.954652
 31
0.0
  0
LINE
  5
2A3
100
AcDbEntity
  8
2
  6
CENTER
 62
     2
100
AcDbLine
 10
-252.755905
 20
291.134192
 30
0.0
 11
-244.209531
 21
299.680565
 31
0.0
  0
LINE
  5
2A4
100
AcDbEntity
  8
2
  6
CENTER
 62
     2
100
AcDbLine
 10
-306.040378
 20
299.636957
 30
0.0
 11
-297.689385
 21
291.285965
 31
0.0
  0
LINE
  5
2A5
100
AcDbEntity
  8
2
  6
CENTER
 62
     2
100
AcDbLine
 10
-252.574675
 20
246.171254
 30
0.0
 11
-244.443611
 21
238.040191
 31
0.0
  0
CIRCLE
  5
2A6
100
AcDbEntity
  8
2
100
AcDbCircle
 10
-196.146758
 20
227.743338
 30
0.0
 40
4.5
  0
LINE
  5
2A7
100
AcDbEntity
  8
2
100
AcDbLine
 10
-193.696758
 20
228.243338
 30
0.0
 11
-193.696758
 21
227.243338
 31
0.0
  0
LINE
  5
2A8
100
AcDbEntity
  8
2
100
AcDbLine
 10
-198.596758
 20
228.243338
 30
0.0
 11
-198.596758
 21
227.243338
 31
0.0
  0
LINE
  5
2A9
100
AcDbEntity
  8
2
100
AcDbLine
 10
-196.646758
 20
230.193338
 30
0.0
 11
-195.646758
 21
230.193338
 31
0.0
  0
LINE
  5
2AA
100
AcDbEntity
  8
2
100
AcDbLine
 10
-196.646758
 20
225.293338
 30
0.0
 11
-195.646758
 21
225.293338
 31
0.0
  0
LINE
  5
2AB
100
AcDbEntity
  8
2
100
AcDbLine
 10
-198.596758
 20
228.243338
 30
0.0
 11
-197.446758
 21
228.243338
 31
0.0
  0
LINE
  5
2AC
100
AcDbEntity
  8
2
100
AcDbLine
 10
-194.846758
 20
228.243338
 30
0.0
 11
-193.696758
 21
228.243338
 31
0.0
  0
LINE
  5
2AD
100
AcDbEntity
  8
2
100
AcDbLine
 10
-198.596758
 20
227.243338
 30
0.0
 11
-197.446758
 21
227.243338
 31
0.0
  0
LINE
  5
2AE
100
AcDbEntity
  8
2
100
AcDbLine
 10
-194.846758
 20
227.243338
 30
0.0
 11
-193.696758
 21
227.243338
 31
0.0
  0
LINE
  5
2AF
100
AcDbEntity
  8
2
100
AcDbLine
 10
-195.646758
 20
225.293338
 30
0.0
 11
-195.646758
 21
226.443338
 31
0.0
  0
LINE
  5
2B0
100
AcDbEntity
  8
2
100
AcDbLine
 10
-195.646758
 20
229.043338
 30
0.0
 11
-195.646758
 21
230.193338
 31
0.0
  0
LINE
  5
2B1
100
AcDbEntity
  8
2
100
AcDbLine
 10
-196.646758
 20
225.293338
 30
0.0
 11
-196.646758
 21
226.443338
 31
0.0
  0
LINE
  5
2B2
100
AcDbEntity
  8
2
100
AcDbLine
 10
-196.646758
 20
229.043338
 30
0.0
 11
-196.646758
 21
230.193338
 31
0.0
  0
ARC
  5
2B3
100
AcDbEntity
  8
2
100
AcDbCircle
 10
-197.446758
 20
229.043338
 30
0.0
 40
0.8
100
AcDbArc
 50
270.0
 51
360.0
  0
ARC
  5
2B4
100
AcDbEntity
  8
2
100
AcDbCircle
 10
-194.846758
 20
229.043338
 30
0.0
 40
0.8
100
AcDbArc
 50
180.0
 51
270.0
  0
ARC
  5
2B5
100
AcDbEntity
  8
2
100
AcDbCircle
 10
-194.846758
 20
226.443338
 30
0.0
 40
0.8
100
AcDbArc
 50
90.0
 51
180.0
  0
ARC
  5
2B6
100
AcDbEntity
  8
2
100
AcDbCircle
 10
-197.446758
 20
226.443338
 30
0.0
 40
0.8
100
AcDbArc
 50
0.0
 51
90.0
  0
CIRCLE
  5
2B7
100
AcDbEntity
  8
2
100
AcDbCircle
 10
-196.146758
 20
315.743338
 30
0.0
 40
4.5
  0
LINE
  5
2B8
100
AcDbEntity
  8
2
100
AcDbLine
 10
-193.696758
 20
316.243338
 30
0.0
 11
-193.696758
 21
315.243338
 31
0.0
  0
LINE
  5
2B9
100
AcDbEntity
  8
2
100
AcDbLine
 10
-198.596758
 20
316.243338
 30
0.0
 11
-198.596758
 21
315.243338
 31
0.0
  0
LINE
  5
2BA
100
AcDbEntity
  8
2
100
AcDbLine
 10
-196.646758
 20
318.193338
 30
0.0
 11
-195.646758
 21
318.193338
 31
0.0
  0
LINE
  5
2BB
100
AcDbEntity
  8
2
100
AcDbLine
 10
-196.646758
 20
313.293338
 30
0.0
 11
-195.646758
 21
313.293338
 31
0.0
  0
LINE
  5
2BC
100
AcDbEntity
  8
2
100
AcDbLine
 10
-198.596758
 20
316.243338
 30
0.0
 11
-197.446758
 21
316.243338
 31
0.0
  0
LINE
  5
2BD
100
AcDbEntity
  8
2
100
AcDbLine
 10
-194.846758
 20
316.243338
 30
0.0
 11
-193.696758
 21
316.243338
 31
0.0
  0
LINE
  5
2BE
100
AcDbEntity
  8
2
100
AcDbLine
 10
-198.596758
 20
315.243338
 30
0.0
 11
-197.446758
 21
315.243338
 31
0.0
  0
LINE
  5
2BF
100
AcDbEntity
  8
2
100
AcDbLine
 10
-194.846758
 20
315.243338
 30
0.0
 11
-193.696758
 21
315.243338
 31
0.0
  0
LINE
  5
2C0
100
AcDbEntity
  8
2
100
AcDbLine
 10
-195.646758
 20
313.293338
 30
0.0
 11
-195.646758
 21
314.443338
 31
0.0
  0
LINE
  5
2C1
100
AcDbEntity
  8
2
100
AcDbLine
 10
-195.646758
 20
317.043338
 30
0.0
 11
-195.646758
 21
318.193338
 31
0.0
  0
LINE
  5
2C2
100
AcDbEntity
  8
2
100
AcDbLine
 10
-196.646758
 20
313.293338
 30
0.0
 11
-196.646758
 21
314.443338
 31
0.0
  0
LINE
  5
2C3
100
AcDbEntity
  8
2
100
AcDbLine
 10
-196.646758
 20
317.043338
 30
0.0
 11
-196.646758
 21
318.193338
 31
0.0
  0
ARC
  5
2C4
100
AcDbEntity
  8
2
100
AcDbCircle
 10
-197.446758
 20
317.043338
 30
0.0
 40
0.8
100
AcDbArc
 50
270.0
 51
360.0
  0
ARC
  5
2C5
100
AcDbEntity
  8
2
100
AcDbCircle
 10
-194.846758
 20
317.043338
 30
0.0
 40
0.8
100
AcDbArc
 50
180.0
 51
270.0
  0
ARC
  5
2C6
100
AcDbEntity
  8
2
100
AcDbCircle
 10
-194.846758
 20
314.443338
 30
0.0
 40
0.8
100
AcDbArc
 50
90.0
 51
180.0
  0
ARC
  5
2C7
100
AcDbEntity
  8
2
100
AcDbCircle
 10
-197.446758
 20
314.443338
 30
0.0
 40
0.8
100
AcDbArc
 50
0.0
 51
90.0
  0
CIRCLE
  5
2C8
100
AcDbEntity
  8
2
100
AcDbCircle
 10
-342.146758
 20
227.743338
 30
0.0
 40
4.5
  0
LINE
  5
2C9
100
AcDbEntity
  8
2
100
AcDbLine
 10
-339.696758
 20
228.243338
 30
0.0
 11
-339.696758
 21
227.243338
 31
0.0
  0
LINE
  5
2CA
100
AcDbEntity
  8
2
100
AcDbLine
 10
-344.596758
 20
228.243338
 30
0.0
 11
-344.596758
 21
227.243338
 31
0.0
  0
LINE
  5
2CB
100
AcDbEntity
  8
2
100
AcDbLine
 10
-342.646758
 20
230.193338
 30
0.0
 11
-341.646758
 21
230.193338
 31
0.0
  0
LINE
  5
2CC
100
AcDbEntity
  8
2
100
AcDbLine
 10
-342.646758
 20
225.293338
 30
0.0
 11
-341.646758
 21
225.293338
 31
0.0
  0
LINE
  5
2CD
100
AcDbEntity
  8
2
100
AcDbLine
 10
-344.596758
 20
228.243338
 30
0.0
 11
-343.446758
 21
228.243338
 31
0.0
  0
LINE
  5
2CE
100
AcDbEntity
  8
2
100
AcDbLine
 10
-340.846758
 20
228.243338
 30
0.0
 11
-339.696758
 21
228.243338
 31
0.0
  0
LINE
  5
2CF
100
AcDbEntity
  8
2
100
AcDbLine
 10
-344.596758
 20
227.243338
 30
0.0
 11
-343.446758
 21
227.243338
 31
0.0
  0
LINE
  5
2D0
100
AcDbEntity
  8
2
100
AcDbLine
 10
-340.846758
 20
227.243338
 30
0.0
 11
-339.696758
 21
227.243338
 31
0.0
  0
LINE
  5
2D1
100
AcDbEntity
  8
2
100
AcDbLine
 10
-341.646758
 20
225.293338
 30
0.0
 11
-341.646758
 21
226.443338
 31
0.0
  0
LINE
  5
2D2
100
AcDbEntity
  8
2
100
AcDbLine
 10
-341.646758
 20
229.043338
 30
0.0
 11
-341.646758
 21
230.193338
 31
0.0
  0
LINE
  5
2D3
100
AcDbEntity
  8
2
100
AcDbLine
 10
-342.646758
 20
225.293338
 30
0.0
 11
-342.646758
 21
226.443338
 31
0.0
  0
LINE
  5
2D4
100
AcDbEntity
  8
2
100
AcDbLine
 10
-342.646758
 20
229.043338
 30
0.0
 11
-342.646758
 21
230.193338
 31
0.0
  0
ARC
  5
2D5
100
AcDbEntity
  8
2
100
AcDbCircle
 10
-343.446758
 20
229.043338
 30
0.0
 40
0.8
100
AcDbArc
 50
270.0
 51
360.0
  0
ARC
  5
2D6
100
AcDbEntity
  8
2
100
AcDbCircle
 10
-340.846758
 20
229.043338
 30
0.0
 40
0.8
100
AcDbArc
 50
180.0
 51
270.0
  0
ARC
  5
2D7
100
AcDbEntity
  8
2
100
AcDbCircle
 10
-340.846758
 20
226.443338
 30
0.0
 40
0.8
100
AcDbArc
 50
90.0
 51
180.0
  0
ARC
  5
2D8
100
AcDbEntity
  8
2
100
AcDbCircle
 10
-343.446758
 20
226.443338
 30
0.0
 40
0.8
100
AcDbArc
 50
0.0
 51
90.0
  0
CIRCLE
  5
2D9
100
AcDbEntity
  8
2
100
AcDbCircle
 10
-342.146758
 20
315.743338
 30
0.0
 40
4.5
  0
LINE
  5
2DA
100
AcDbEntity
  8
2
100
AcDbLine
 10
-339.696758
 20
316.243338
 30
0.0
 11
-339.696758
 21
315.243338
 31
0.0
  0
LINE
  5
2DB
100
AcDbEntity
  8
2
100
AcDbLine
 10
-344.596758
 20
316.243338
 30
0.0
 11
-344.596758
 21
315.243338
 31
0.0
  0
LINE
  5
2DC
100
AcDbEntity
  8
2
100
AcDbLine
 10
-342.646758
 20
318.193338
 30
0.0
 11
-341.646758
 21
318.193338
 31
0.0
  0
LINE
  5
2DD
100
AcDbEntity
  8
2
100
AcDbLine
 10
-342.646758
 20
313.293338
 30
0.0
 11
-341.646758
 21
313.293338
 31
0.0
  0
LINE
  5
2DE
100
AcDbEntity
  8
2
100
AcDbLine
 10
-344.596758
 20
316.243338
 30
0.0
 11
-343.446758
 21
316.243338
 31
0.0
  0
LINE
  5
2DF
100
AcDbEntity
  8
2
100
AcDbLine
 10
-340.846758
 20
316.243338
 30
0.0
 11
-339.696758
 21
316.243338
 31
0.0
  0
LINE
  5
2E0
100
AcDbEntity
  8
2
100
AcDbLine
 10
-344.596758
 20
315.243338
 30
0.0
 11
-343.446758
 21
315.243338
 31
0.0
  0
LINE
  5
2E1
100
AcDbEntity
  8
2
100
AcDbLine
 10
-340.846758
 20
315.243338
 30
0.0
 11
-339.696758
 21
315.243338
 31
0.0
  0
LINE
  5
2E2
100
AcDbEntity
  8
2
100
AcDbLine
 10
-341.646758
 20
313.293338
 30
0.0
 11
-341.646758
 21
314.443338
 31
0.0
  0
LINE
  5
2E3
100
AcDbEntity
  8
2
100
AcDbLine
 10
-341.646758
 20
317.043338
 30
0.0
 11
-341.646758
 21
318.193338
 31
0.0
  0
LINE
  5
2E4
100
AcDbEntity
  8
2
100
AcDbLine
 10
-342.646758
 20
313.293338
 30
0.0
 11
-342.646758
 21
314.443338
 31
0.0
  0
LINE
  5
2E5
100
AcDbEntity
  8
2
100
AcDbLine
 10
-342.646758
 20
317.043338
 30
0.0
 11
-342.646758
 21
318.193338
 31
0.0
  0
ARC
  5
2E6
100
AcDbEntity
  8
2
100
AcDbCircle
 10
-343.446758
 20
317.043338
 30
0.0
 40
0.8
100
AcDbArc
 50
270.0
 51
360.0
  0
ARC
  5
2E7
100
AcDbEntity
  8
2
100
AcDbCircle
 10
-340.846758
 20
317.043338
 30
0.0
 40
0.8
100
AcDbArc
 50
180.0
 51
270.0
  0
ARC
  5
2E8
100
AcDbEntity
  8
2
100
AcDbCircle
 10
-340.846758
 20
314.443338
 30
0.0
 40
0.8
100
AcDbArc
 50
90.0
 51
180.0
  0
ARC
  5
2E9
100
AcDbEntity
  8
2
100
AcDbCircle
 10
-343.446758
 20
314.443338
 30
0.0
 40
0.8
100
AcDbArc
 50
0.0
 51
90.0
  0
CIRCLE
  5
2EA
100
AcDbEntity
  8
2
100
AcDbCircle
 10
-248.630254
 20
242.226834
 30
0.0
 40
3.5
  0
LINE
  5
2EB
100
AcDbEntity
  8
2
100
AcDbLine
 10
-247.498883
 20
244.065312
 30
0.0
 11
-246.791776
 21
243.358205
 31
0.0
  0
LINE
  5
2EC
100
AcDbEntity
  8
2
100
AcDbLine
 10
-250.468732
 20
241.095463
 30
0.0
 11
-249.761625
 21
240.388356
 31
0.0
  0
LINE
  5
2ED
100
AcDbEntity
  8
2
100
AcDbLine
 10
-249.761625
 20
244.065312
 30
0.0
 11
-250.468732
 21
243.358205
 31
0.0
  0
LINE
  5
2EE
100
AcDbEntity
  8
2
100
AcDbLine
 10
-246.791776
 20
241.095463
 30
0.0
 11
-247.498883
 21
240.388356
 31
0.0
  0
LINE
  5
2EF
100
AcDbEntity
  8
2
100
AcDbLine
 10
-249.761625
 20
240.388356
 30
0.0
 11
-249.195939
 21
240.954042
 31
0.0
  0
LINE
  5
2F0
100
AcDbEntity
  8
2
100
AcDbLine
 10
-247.357462
 20
242.792519
 30
0.0
 11
-246.791776
 21
243.358205
 31
0.0
  0
LINE
  5
2F1
100
AcDbEntity
  8
2
100
AcDbLine
 10
-250.468732
 20
241.095463
 30
0.0
 11
-249.903046
 21
241.661149
 31
0.0
  0
LINE
  5
2F2
100
AcDbEntity
  8
2
100
AcDbLine
 10
-248.064569
 20
243.499626
 30
0.0
 11
-247.498883
 21
244.065312
 31
0.0
  0
LINE
  5
2F3
100
AcDbEntity
  8
2
100
AcDbLine
 10
-250.468732
 20
243.358205
 30
0.0
 11
-249.903046
 21
242.792519
 31
0.0
  0
LINE
  5
2F4
100
AcDbEntity
  8
2
100
AcDbLine
 10
-248.064569
 20
240.954042
 30
0.0
 11
-247.498883
 21
240.388356
 31
0.0
  0
LINE
  5
2F5
100
AcDbEntity
  8
2
100
AcDbLine
 10
-249.761625
 20
244.065312
 30
0.0
 11
-249.195939
 21
243.499626
 31
0.0
  0
LINE
  5
2F6
100
AcDbEntity
  8
2
100
AcDbLine
 10
-247.357462
 20
241.661149
 30
0.0
 11
-246.791776
 21
241.095463
 31
0.0
  0
ARC
  5
2F7
100
AcDbEntity
  8
2
100
AcDbCircle
 10
-248.630254
 20
244.065312
 30
0.0
 40
0.8
100
AcDbArc
 50
225.0
 51
315.0
  0
ARC
  5
2F8
100
AcDbEntity
  8
2
100
AcDbCircle
 10
-250.468732
 20
242.226834
 30
0.0
 40
0.8
100
AcDbArc
 50
315.0
 51
45.0
  0
ARC
  5
2F9
100
AcDbEntity
  8
2
100
AcDbCircle
 10
-248.630254
 20
240.388356
 30
0.0
 40
0.8
100
AcDbArc
 50
45.0
 51
135.0
  0
ARC
  5
2FA
100
AcDbEntity
  8
2
100
AcDbCircle
 10
-246.791776
 20
242.226834
 30
0.0
 40
0.8
100
AcDbArc
 50
135.0
 51
225.0
  0
CIRCLE
  5
2FB
100
AcDbEntity
  8
2
100
AcDbCircle
 10
-248.630254
 20
295.259843
 30
0.0
 40
3.5
  0
LINE
  5
2FC
100
AcDbEntity
  8
2
100
AcDbLine
 10
-247.498883
 20
297.09832
 30
0.0
 11
-246.791776
 21
296.391213
 31
0.0
  0
LINE
  5
2FD
100
AcDbEntity
  8
2
100
AcDbLine
 10
-250.468732
 20
294.128472
 30
0.0
 11
-249.761625
 21
293.421365
 31
0.0
  0
LINE
  5
2FE
100
AcDbEntity
  8
2
100
AcDbLine
 10
-249.761625
 20
297.09832
 30
0.0
 11
-250.468732
 21
296.391213
 31
0.0
  0
LINE
  5
2FF
100
AcDbEntity
  8
2
100
AcDbLine
 10
-246.791776
 20
294.128472
 30
0.0
 11
-247.498883
 21
293.421365
 31
0.0
  0
LINE
  5
300
100
AcDbEntity
  8
2
100
AcDbLine
 10
-249.761625
 20
293.421365
 30
0.0
 11
-249.195939
 21
293.98705
 31
0.0
  0
LINE
  5
301
100
AcDbEntity
  8
2
100
AcDbLine
 10
-247.357462
 20
295.825528
 30
0.0
 11
-246.791776
 21
296.391213
 31
0.0
  0
LINE
  5
302
100
AcDbEntity
  8
2
100
AcDbLine
 10
-250.468732
 20
294.128472
 30
0.0
 11
-249.903046
 21
294.694157
 31
0.0
  0
LINE
  5
303
100
AcDbEntity
  8
2
100
AcDbLine
 10
-248.064569
 20
296.532635
 30
0.0
 11
-247.498883
 21
297.09832
 31
0.0
  0
LINE
  5
304
100
AcDbEntity
  8
2
100
AcDbLine
 10
-250.468732
 20
296.391213
 30
0.0
 11
-249.903046
 21
295.825528
 31
0.0
  0
LINE
  5
305
100
AcDbEntity
  8
2
100
AcDbLine
 10
-248.064569
 20
293.98705
 30
0.0
 11
-247.498883
 21
293.421365
 31
0.0
  0
LINE
  5
306
100
AcDbEntity
  8
2
100
AcDbLine
 10
-249.761625
 20
297.09832
 30
0.0
 11
-249.195939
 21
296.532635
 31
0.0
  0
LINE
  5
307
100
AcDbEntity
  8
2
100
AcDbLine
 10
-247.357462
 20
294.694157
 30
0.0
 11
-246.791776
 21
294.128472
 31
0.0
  0
ARC
  5
308
100
AcDbEntity
  8
2
100
AcDbCircle
 10
-248.630254
 20
297.09832
 30
0.0
 40
0.8
100
AcDbArc
 50
225.0
 51
315.0
  0
ARC
  5
309
100
AcDbEntity
  8
2
100
AcDbCircle
 10
-250.468732
 20
295.259843
 30
0.0
 40
0.8
100
AcDbArc
 50
315.0
 51
45.0
  0
ARC
  5
30A
100
AcDbEntity
  8
2
100
AcDbCircle
 10
-248.630254
 20
293.421365
 30
0.0
 40
0.8
100
AcDbArc
 50
45.0
 51
135.0
  0
ARC
  5
30B
100
AcDbEntity
  8
2
100
AcDbCircle
 10
-246.791776
 20
295.259843
 30
0.0
 40
0.8
100
AcDbArc
 50
135.0
 51
225.0
  0
CIRCLE
  5
30C
100
AcDbEntity
  8
2
100
AcDbCircle
 10
-301.663263
 20
242.226834
 30
0.0
 40
3.5
  0
LINE
  5
30D
100
AcDbEntity
  8
2
100
AcDbLine
 10
-300.531892
 20
244.065312
 30
0.0
 11
-299.824785
 21
243.358205
 31
0.0
  0
LINE
  5
30E
100
AcDbEntity
  8
2
100
AcDbLine
 10
-303.50174
 20
241.095463
 30
0.0
 11
-302.794633
 21
240.388356
 31
0.0
  0
LINE
  5
30F
100
AcDbEntity
  8
2
100
AcDbLine
 10
-302.794633
 20
244.065312
 30
0.0
 11
-303.50174
 21
243.358205
 31
0.0
  0
LINE
  5
310
100
AcDbEntity
  8
2
100
AcDbLine
 10
-299.824785
 20
241.095463
 30
0.0
 11
-300.531892
 21
240.388356
 31
0.0
  0
LINE
  5
311
100
AcDbEntity
  8
2
100
AcDbLine
 10
-302.794633
 20
240.388356
 30
0.0
 11
-302.228948
 21
240.954042
 31
0.0
  0
LINE
  5
312
100
AcDbEntity
  8
2
100
AcDbLine
 10
-300.39047
 20
242.792519
 30
0.0
 11
-299.824785
 21
243.358205
 31
0.0
  0
LINE
  5
313
100
AcDbEntity
  8
2
100
AcDbLine
 10
-303.50174
 20
241.095463
 30
0.0
 11
-302.936055
 21
241.661149
 31
0.0
  0
LINE
  5
314
100
AcDbEntity
  8
2
100
AcDbLine
 10
-301.097577
 20
243.499626
 30
0.0
 11
-300.531892
 21
244.065312
 31
0.0
  0
LINE
  5
315
100
AcDbEntity
  8
2
100
AcDbLine
 10
-303.50174
 20
243.358205
 30
0.0
 11
-302.936055
 21
242.792519
 31
0.0
  0
LINE
  5
316
100
AcDbEntity
  8
2
100
AcDbLine
 10
-301.097577
 20
240.954042
 30
0.0
 11
-300.531892
 21
240.388356
 31
0.0
  0
LINE
  5
317
100
AcDbEntity
  8
2
100
AcDbLine
 10
-302.794633
 20
244.065312
 30
0.0
 11
-302.228948
 21
243.499626
 31
0.0
  0
LINE
  5
318
100
AcDbEntity
  8
2
100
AcDbLine
 10
-300.39047
 20
241.661149
 30
0.0
 11
-299.824785
 21
241.095463
 31
0.0
  0
ARC
  5
319
100
AcDbEntity
  8
2
100
AcDbCircle
 10
-301.663263
 20
244.065312
 30
0.0
 40
0.8
100
AcDbArc
 50
225.0
 51
315.0
  0
ARC
  5
31A
100
AcDbEntity
  8
2
100
AcDbCircle
 10
-303.50174
 20
242.226834
 30
0.0
 40
0.8
100
AcDbArc
 50
315.0
 51
45.0
  0
ARC
  5
31B
100
AcDbEntity
  8
2
100
AcDbCircle
 10
-301.663263
 20
240.388356
 30
0.0
 40
0.8
100
AcDbArc
 50
45.0
 51
135.0
  0
ARC
  5
31C
100
AcDbEntity
  8
2
100
AcDbCircle
 10
-299.824785
 20
242.226834
 30
0.0
 40
0.8
100
AcDbArc
 50
135.0
 51
225.0
  0
CIRCLE
  5
31D
100
AcDbEntity
  8
2
100
AcDbCircle
 10
-301.663263
 20
295.259843
 30
0.0
 40
3.5
  0
LINE
  5
31E
100
AcDbEntity
  8
2
100
AcDbLine
 10
-300.531892
 20
297.09832
 30
0.0
 11
-299.824785
 21
296.391213
 31
0.0
  0
LINE
  5
31F
100
AcDbEntity
  8
2
100
AcDbLine
 10
-303.50174
 20
294.128472
 30
0.0
 11
-302.794633
 21
293.421365
 31
0.0
  0
LINE
  5
320
100
AcDbEntity
  8
2
100
AcDbLine
 10
-302.794633
 20
297.09832
 30
0.0
 11
-303.50174
 21
296.391213
 31
0.0
  0
LINE
  5
321
100
AcDbEntity
  8
2
100
AcDbLine
 10
-299.824785
 20
294.128472
 30
0.0
 11
-300.531892
 21
293.421365
 31
0.0
  0
LINE
  5
322
100
AcDbEntity
  8
2
100
AcDbLine
 10
-302.794633
 20
293.421365
 30
0.0
 11
-302.228948
 21
293.98705
 31
0.0
  0
LINE
  5
323
100
AcDbEntity
  8
2
100
AcDbLine
 10
-300.39047
 20
295.825528
 30
0.0
 11
-299.824785
 21
296.391213
 31
0.0
  0
LINE
  5
324
100
AcDbEntity
  8
2
100
AcDbLine
 10
-303.50174
 20
294.128472
 30
0.0
 11
-302.936055
 21
294.694157
 31
0.0
  0
LINE
  5
325
100
AcDbEntity
  8
2
100
AcDbLine
 10
-301.097577
 20
296.532635
 30
0.0
 11
-300.531892
 21
297.09832
 31
0.0
  0
LINE
  5
326
100
AcDbEntity
  8
2
100
AcDbLine
 10
-303.50174
 20
296.391213
 30
0.0
 11
-302.936055
 21
295.825528
 31
0.0
  0
LINE
  5
327
100
AcDbEntity
  8
2
100
AcDbLine
 10
-301.097577
 20
293.98705
 30
0.0
 11
-300.531892
 21
293.421365
 31
0.0
  0
LINE
  5
328
100
AcDbEntity
  8
2
100
AcDbLine
 10
-302.794633
 20
297.09832
 30
0.0
 11
-302.228948
 21
296.532635
 31
0.0
  0
LINE
  5
329
100
AcDbEntity
  8
2
100
AcDbLine
 10
-300.39047
 20
294.694157
 30
0.0
 11
-299.824785
 21
294.128472
 31
0.0
  0
ARC
  5
32A
100
AcDbEntity
  8
2
100
AcDbCircle
 10
-301.663263
 20
297.09832
 30
0.0
 40
0.8
100
AcDbArc
 50
225.0
 51
315.0
  0
ARC
  5
32B
100
AcDbEntity
  8
2
100
AcDbCircle
 10
-303.50174
 20
295.259843
 30
0.0
 40
0.8
100
AcDbArc
 50
315.0
 51
45.0
  0
ARC
  5
32C
100
AcDbEntity
  8
2
100
AcDbCircle
 10
-301.663263
 20
293.421365
 30
0.0
 40
0.8
100
AcDbArc
 50
45.0
 51
135.0
  0
ARC
  5
32D
100
AcDbEntity
  8
2
100
AcDbCircle
 10
-299.824785
 20
295.259843
 30
0.0
 40
0.8
100
AcDbArc
 50
135.0
 51
225.0
  0
LINE
  5
32E
100
AcDbEntity
  8
2
100
AcDbLine
 10
-335.587949
 20
227.243338
 30
0.0
 11
-335.587949
 21
316.243338
 31
0.0
  0
LINE
  5
32F
100
AcDbEntity
  8
2
100
AcDbLine
 10
-193.646305
 20
235.743338
 30
0.0
 11
-193.646305
 21
307.743338
 31
0.0
  0
LINE
  5
330
100
AcDbEntity
  8
2
100
AcDbLine
 10
-334.146758
 20
225.243338
 30
0.0
 11
-204.146758
 21
225.243338
 31
0.0
  0
LINE
  5
331
100
AcDbEntity
  8
2
100
AcDbLine
 10
-334.146758
 20
318.243338
 30
0.0
 11
-204.146758
 21
318.243338
 31
0.0
  0
TEXT
  5
332
100
AcDbEntity
  8
2
100
AcDbText
 10
-269.727273
 20
245.729665
 30
0.0
 40
7.6
  1
Ｓ
 50
22.5
 72
     5
 11
-264.110085
 21
248.05638
 31
0.0
100
AcDbText
  0
TEXT
  5
333
100
AcDbEntity
  8
2
100
AcDbText
 10
-269.326454
 20
245.827753
 30
0.0
 40
7.6
  1
Ｓ
 50
23.5
 72
     5
 11
-263.750729
 21
248.252147
 31
0.0
100
AcDbText
  0
TEXT
  5
334
100
AcDbEntity
  8
2
100
AcDbText
 10
-270.129742
 20
245.638587
 30
0.0
 40
7.6
  1
Ｓ
 50
21.5
 72
     5
 11
-264.472803
 21
247.866914
 31
0.0
100
AcDbText
  0
TEXT
  5
335
100
AcDbEntity
  8
2
100
AcDbText
 10
-280.566244
 20
291.757012
 30
0.0
 40
7.6
  1
Ｓ
 50
202.5
 72
     5
 11
-286.183431
 21
289.430297
 31
0.0
100
AcDbText
  0
TEXT
  5
336
100
AcDbEntity
  8
2
100
AcDbText
 10
-280.967062
 20
291.658924
 30
0.0
 40
7.6
  1
Ｓ
 50
203.5
 72
     5
 11
-286.542788
 21
289.234529
 31
0.0
100
AcDbText
  0
TEXT
  5
337
100
AcDbEntity
  8
2
100
AcDbText
 10
-280.163774
 20
291.84809
 30
0.0
 40
7.6
  1
Ｓ
 50
201.5
 72
     5
 11
-285.820713
 21
289.619762
 31
0.0
100
AcDbText
  0
LINE
  5
338
100
AcDbEntity
  8
2
100
AcDbLine
 10
-182.146758
 20
311.743338
 30
0.0
 11
-181.146758
 21
310.743338
 31
0.0
  0
LINE
  5
339
100
AcDbEntity
  8
2
100
AcDbLine
 10
-186.146758
 20
227.743338
 30
0.0
 11
-186.146758
 21
315.743338
 31
0.0
  0
ARC
  5
33A
100
AcDbEntity
  8
2
100
AcDbCircle
 10
-205.646758
 20
219.743338
 30
0.0
 40
2.0
100
AcDbArc
 50
143.237457
 51
180.0
  0
LINE
  5
33B
100
AcDbEntity
  8
2
100
AcDbLine
 10
-192.146758
 20
221.743338
 30
0.0
 11
-344.146758
 21
221.743338
 31
0.0
  0
ARC
  5
33C
100
AcDbEntity
  8
2
100
AcDbCircle
 10
-195.146758
 20
226.743338
 30
0.0
 40
5.0
100
AcDbArc
 50
270.0
 51
360.0
  0
LINE
  5
33D
100
AcDbEntity
  8
2
100
AcDbLine
 10
-190.146758
 20
315.743338
 30
0.0
 11
-190.146758
 21
226.743338
 31
0.0
  0
LINE
  5
33E
100
AcDbEntity
  8
2
100
AcDbLine
 10
-350.146758
 20
315.743338
 30
0.0
 11
-350.146758
 21
227.743338
 31
0.0
  0
ARC
  5
33F
100
AcDbEntity
  8
2
100
AcDbCircle
 10
-344.146758
 20
227.743338
 30
0.0
 40
6.0
100
AcDbArc
 50
180.0
 51
270.0
  0
LINE
  5
340
100
AcDbEntity
  8
2
100
AcDbLine
 10
-350.146758
 20
227.743338
 30
0.0
 11
-350.146758
 21
230.743338
 31
0.0
  0
LINE
  5
341
100
AcDbEntity
  8
2
100
AcDbLine
 10
-348.264758
 20
321.743338
 30
0.0
 11
-192.146758
 21
321.743338
 31
0.0
  0
ARC
  5
342
100
AcDbEntity
  8
2
100
AcDbCircle
 10
-196.146758
 20
315.743338
 30
0.0
 40
6.0
100
AcDbArc
 50
0.0
 51
90.0
  0
ARC
  5
343
100
AcDbEntity
  8
2
100
AcDbCircle
 10
-344.146758
 20
315.743338
 30
0.0
 40
6.0
100
AcDbArc
 50
90.0
 51
180.0
  0
LINE
  5
344
100
AcDbEntity
  8
2
100
AcDbLine
 10
-207.646758
 20
219.743338
 30
0.0
 11
-207.646758
 21
216.743338
 31
0.0
  0
ARC
  5
345
100
AcDbEntity
  8
2
100
AcDbCircle
 10
-191.343758
 20
316.546338
 30
0.0
 40
6.0
100
AcDbArc
 50
0.0
 51
90.0
  0
ARC
  5
346
100
AcDbEntity
  8
2
100
AcDbCircle
 10
-356.946758
 20
278.743338
 30
0.0
 40
3.0
100
AcDbArc
 50
270.0
 51
333.38027
  0
ARC
  5
347
100
AcDbEntity
  8
2
100
AcDbCircle
 10
-356.946758
 20
294.743338
 30
0.0
 40
3.0
100
AcDbArc
 50
270.0
 51
333.38027
  0
ARC
  5
348
100
AcDbEntity
  8
2
100
AcDbCircle
 10
-356.946758
 20
282.743338
 30
0.0
 40
3.0
100
AcDbArc
 50
26.61973
 51
90.0
  0
ARC
  5
349
100
AcDbEntity
  8
2
100
AcDbCircle
 10
-356.946758
 20
298.743338
 30
0.0
 40
3.0
100
AcDbArc
 50
26.61973
 51
90.0
  0
LINE
  5
34A
100
AcDbEntity
  8
2
 62
     2
100
AcDbLine
 10
-357.827758
 20
275.743338
 30
0.0
 11
-357.827758
 21
285.743338
 31
0.0
  0
LINE
  5
34B
100
AcDbEntity
  8
2
 62
     2
100
AcDbLine
 10
-357.827758
 20
291.743338
 30
0.0
 11
-357.827758
 21
301.743338
 31
0.0
  0
LINE
  5
34C
100
AcDbEntity
  8
2
 62
     2
100
AcDbLine
 10
-360.797758
 20
285.743338
 30
0.0
 11
-360.797758
 21
291.743338
 31
0.0
  0
LINE
  5
34D
100
AcDbEntity
  8
2
 62
     2
100
AcDbLine
 10
-360.797758
 20
269.743338
 30
0.0
 11
-360.797758
 21
275.743338
 31
0.0
  0
LINE
  5
34E
100
AcDbEntity
  8
2
100
AcDbLine
 10
-354.264758
 20
246.107729
 30
0.0
 11
-354.264758
 21
315.743338
 31
0.0
  0
ARC
  5
34F
100
AcDbEntity
  8
2
100
AcDbCircle
 10
-348.264758
 20
315.743338
 30
0.0
 40
6.0
100
AcDbArc
 50
90.0
 51
180.0
  0
LINE
  5
350
100
AcDbEntity
  8
2
100
AcDbLine
 10
-369.146758
 20
301.743338
 30
0.0
 11
-356.946758
 21
301.743338
 31
0.0
  0
LINE
  5
351
100
AcDbEntity
  8
2
100
AcDbLine
 10
-368.146758
 20
291.743338
 30
0.0
 11
-356.946758
 21
291.743338
 31
0.0
  0
LINE
  5
352
100
AcDbEntity
  8
2
100
AcDbLine
 10
-368.146758
 20
285.743338
 30
0.0
 11
-356.946758
 21
285.743338
 31
0.0
  0
LINE
  5
353
100
AcDbEntity
  8
2
100
AcDbLine
 10
-368.146758
 20
275.743338
 30
0.0
 11
-356.946758
 21
275.743338
 31
0.0
  0
LINE
  5
354
100
AcDbEntity
  8
2
100
AcDbLine
 10
-366.396758
 20
300.743338
 30
0.0
 11
-366.396758
 21
292.743338
 31
0.0
  0
LINE
  5
355
100
AcDbEntity
  8
2
100
AcDbLine
 10
-366.396758
 20
284.743338
 30
0.0
 11
-366.396758
 21
276.743338
 31
0.0
  0
ARC
  5
356
100
AcDbEntity
  8
2
100
AcDbCircle
 10
-367.396758
 20
276.743338
 30
0.0
 40
1.0
100
AcDbArc
 50
270.0
 51
360.0
  0
ARC
  5
357
100
AcDbEntity
  8
2
100
AcDbCircle
 10
-367.396758
 20
284.743338
 30
0.0
 40
1.0
100
AcDbArc
 50
0.0
 51
90.0
  0
ARC
  5
358
100
AcDbEntity
  8
2
100
AcDbCircle
 10
-367.396758
 20
292.743338
 30
0.0
 40
1.0
100
AcDbArc
 50
270.0
 51
360.0
  0
ARC
  5
359
100
AcDbEntity
  8
2
100
AcDbCircle
 10
-367.396758
 20
300.743338
 30
0.0
 40
1.0
100
AcDbArc
 50
0.0
 51
90.0
  0
ARC
  5
35A
100
AcDbEntity
  8
2
100
AcDbCircle
 10
-356.946758
 20
262.743338
 30
0.0
 40
3.0
100
AcDbArc
 50
270.0
 51
333.38027
  0
ARC
  5
35B
100
AcDbEntity
  8
2
100
AcDbCircle
 10
-356.946758
 20
250.743338
 30
0.0
 40
3.0
100
AcDbArc
 50
26.61973
 51
90.0
  0
ARC
  5
35C
100
AcDbEntity
  8
2
100
AcDbCircle
 10
-356.946758
 20
266.743338
 30
0.0
 40
3.0
100
AcDbArc
 50
26.61973
 51
90.0
  0
LINE
  5
35D
100
AcDbEntity
  8
2
 62
     2
100
AcDbLine
 10
-357.827758
 20
243.243338
 30
0.0
 11
-357.827758
 21
253.743338
 31
0.0
  0
LINE
  5
35E
100
AcDbEntity
  8
2
 62
     2
100
AcDbLine
 10
-357.827758
 20
259.743338
 30
0.0
 11
-357.827758
 21
269.743338
 31
0.0
  0
LINE
  5
35F
100
AcDbEntity
  8
2
 62
     2
100
AcDbLine
 10
-360.797758
 20
253.743338
 30
0.0
 11
-360.797758
 21
259.743338
 31
0.0
  0
LINE
  5
360
100
AcDbEntity
  8
2
100
AcDbLine
 10
-356.372981
 20
243.243338
 30
0.0
 11
-370.146758
 21
243.243338
 31
0.0
  0
ARC
  5
361
100
AcDbEntity
  8
2
100
AcDbCircle
 10
-367.396758
 20
244.243338
 30
0.0
 40
1.0
100
AcDbArc
 50
270.0
 51
0.0
  0
LINE
  5
362
100
AcDbEntity
  8
2
100
AcDbLine
 10
-368.146758
 20
269.743338
 30
0.0
 11
-356.946758
 21
269.743338
 31
0.0
  0
LINE
  5
363
100
AcDbEntity
  8
2
100
AcDbLine
 10
-368.146758
 20
259.743338
 30
0.0
 11
-356.946758
 21
259.743338
 31
0.0
  0
LINE
  5
364
100
AcDbEntity
  8
2
100
AcDbLine
 10
-368.146758
 20
253.743338
 30
0.0
 11
-356.946758
 21
253.743338
 31
0.0
  0
LINE
  5
365
100
AcDbEntity
  8
2
100
AcDbLine
 10
-366.396758
 20
252.743338
 30
0.0
 11
-366.396758
 21
244.243338
 31
0.0
  0
LINE
  5
366
100
AcDbEntity
  8
2
100
AcDbLine
 10
-366.396758
 20
268.743338
 30
0.0
 11
-366.396758
 21
260.743338
 31
0.0
  0
ARC
  5
367
100
AcDbEntity
  8
2
100
AcDbCircle
 10
-367.396758
 20
252.743338
 30
0.0
 40
1.0
100
AcDbArc
 50
360.0
 51
90.0
  0
ARC
  5
368
100
AcDbEntity
  8
2
100
AcDbCircle
 10
-367.396758
 20
260.743338
 30
0.0
 40
1.0
100
AcDbArc
 50
270.0
 51
360.0
  0
ARC
  5
369
100
AcDbEntity
  8
2
100
AcDbCircle
 10
-367.396758
 20
268.743338
 30
0.0
 40
1.0
100
AcDbArc
 50
0.0
 51
90.0
  0
LINE
  5
36A
100
AcDbEntity
  8
2
100
AcDbLine
 10
-191.343758
 20
220.940338
 30
0.0
 11
-375.146758
 21
220.940338
 31
0.0
  0
LINE
  5
36B
100
AcDbEntity
  8
2
100
AcDbLine
 10
-182.146758
 20
311.743338
 30
0.0
 11
-182.146758
 21
225.743338
 31
0.0
  0
LINE
  5
36C
100
AcDbEntity
  8
2
100
AcDbLine
 10
-181.146758
 20
226.743338
 30
0.0
 11
-182.146758
 21
225.743338
 31
0.0
  0
LINE
  5
36D
100
AcDbEntity
  8
2
100
AcDbLine
 10
-181.146758
 20
226.743338
 30
0.0
 11
-181.146758
 21
310.743338
 31
0.0
  0
LINE
  5
36E
100
AcDbEntity
  8
2
100
AcDbLine
 10
-186.146758
 20
311.743338
 30
0.0
 11
-182.146758
 21
311.743338
 31
0.0
  0
LINE
  5
36F
100
AcDbEntity
  8
2
100
AcDbLine
 10
-186.489904
 20
225.743338
 30
0.0
 11
-182.146758
 21
225.743338
 31
0.0
  0
ARC
  5
370
100
AcDbEntity
  8
2
100
AcDbCircle
 10
-192.146758
 20
315.743338
 30
0.0
 40
6.0
100
AcDbArc
 50
0.0
 51
90.0
  0
ARC
  5
371
100
AcDbEntity
  8
2
100
AcDbCircle
 10
-191.343758
 20
226.940338
 30
0.0
 40
6.0
100
AcDbArc
 50
270.0
 51
348.492278
  0
ARC
  5
372
100
AcDbEntity
  8
2
100
AcDbCircle
 10
-192.146758
 20
227.743338
 30
0.0
 40
6.0
100
AcDbArc
 50
270.0
 51
360.0
  0
LINE
  5
373
100
AcDbEntity
  8
2
100
AcDbLine
 10
-354.798007
 20
322.546338
 30
0.0
 11
-191.343758
 21
322.546338
 31
0.0
  0
LINE
  5
374
100
AcDbEntity
  8
2
100
AcDbLine
 10
-185.343758
 20
316.546338
 30
0.0
 11
-185.343758
 21
311.743338
 31
0.0
  0
ARC
  5
375
100
AcDbEntity
  8
2
100
AcDbCircle
 10
-354.798007
 20
316.546338
 30
0.0
 40
6.0
100
AcDbArc
 50
90.0
 51
151.295513
  0
LINE
  5
376
100
AcDbEntity
  8
2
100
AcDbLine
 10
-365.121718
 20
310.185595
 30
0.0
 11
-360.060658
 21
319.428091
 31
0.0
  0
ARC
  5
377
100
AcDbEntity
  8
2
100
AcDbCircle
 10
-369.507261
 20
312.587056
 30
0.0
 40
5.0
100
AcDbArc
 50
283.105828
 51
331.295513
  0
LINE
  5
378
100
AcDbEntity
  8
2
 62
     2
100
AcDbLine
 10
-360.798007
 20
302.743338
 30
0.0
 11
-360.798007
 21
316.546338
 31
0.0
  0
ARC
  5
379
100
AcDbEntity
  8
2
100
AcDbCircle
 10
-354.798007
 20
226.940338
 30
0.0
 40
6.0
100
AcDbArc
 50
180.0
 51
270.0
  0
LINE
  5
37A
100
AcDbEntity
  8
2
100
AcDbLine
 10
-360.798007
 20
226.940338
 30
0.0
 11
-360.798007
 21
238.243338
 31
0.0
  0
ARC
  5
37B
100
AcDbEntity
  8
2
100
AcDbCircle
 10
-355.798007
 20
238.243338
 30
0.0
 40
5.0
100
AcDbArc
 50
100.564597
 51
180.0
  0
ARC
  5
37C
100
AcDbEntity
  8
2
100
AcDbCircle
 10
-357.264758
 20
246.107729
 30
0.0
 40
3.0
100
AcDbArc
 50
280.564597
 51
360.0
  0
ARC
  5
37D
100
AcDbEntity
  8
2
100
AcDbCircle
 10
-368.146758
 20
274.743338
 30
0.0
 40
1.0
100
AcDbArc
 50
90.0
 51
180.0
  0
ARC
  5
37E
100
AcDbEntity
  8
2
100
AcDbCircle
 10
-368.146758
 20
286.743338
 30
0.0
 40
1.0
100
AcDbArc
 50
180.0
 51
270.0
  0
ARC
  5
37F
100
AcDbEntity
  8
2
100
AcDbCircle
 10
-368.146758
 20
290.743338
 30
0.0
 40
1.0
100
AcDbArc
 50
90.0
 51
180.0
  0
ARC
  5
380
100
AcDbEntity
  8
2
100
AcDbCircle
 10
-368.146758
 20
302.743338
 30
0.0
 40
1.0
100
AcDbArc
 50
180.0
 51
270.0
  0
ARC
  5
381
100
AcDbEntity
  8
2
100
AcDbCircle
 10
-370.146758
 20
238.243338
 30
0.0
 40
5.0
100
AcDbArc
 50
90.0
 51
180.0
  0
ARC
  5
382
100
AcDbEntity
  8
2
100
AcDbCircle
 10
-368.146758
 20
254.743338
 30
0.0
 40
1.0
100
AcDbArc
 50
180.0
 51
270.0
  0
ARC
  5
383
100
AcDbEntity
  8
2
100
AcDbCircle
 10
-368.146758
 20
258.743338
 30
0.0
 40
1.0
100
AcDbArc
 50
90.0
 51
180.0
  0
ARC
  5
384
100
AcDbEntity
  8
2
100
AcDbCircle
 10
-368.146758
 20
270.743338
 30
0.0
 40
1.0
100
AcDbArc
 50
180.0
 51
270.0
  0
LINE
  5
385
100
AcDbEntity
  8
2
100
AcDbLine
 10
-375.146758
 20
238.243338
 30
0.0
 11
-375.146758
 21
216.743338
 31
0.0
  0
LINE
  5
386
100
AcDbEntity
  8
2
100
AcDbLine
 10
-375.146758
 20
216.743338
 30
0.0
 11
-207.646758
 21
216.743338
 31
0.0
  0
LINE
  5
387
100
AcDbEntity
  8
2
100
AcDbLine
 10
-207.646758
 20
216.743338
 30
0.0
 11
-375.146758
 21
216.743338
 31
0.0
  0
LINE
  5
388
100
AcDbEntity
  8
2
100
AcDbLine
 10
-369.146758
 20
243.243338
 30
0.0
 11
-369.146758
 21
306.743338
 31
0.0
  0
ARC
  5
389
100
AcDbEntity
  8
2
100
AcDbCircle
 10
-368.146758
 20
306.743338
 30
0.0
 40
1.0
100
AcDbArc
 50
103.105828
 51
180.0
  0
LINE
  5
38A
100
AcDbEntity
  8
2
100
AcDbLine
 10
-344.146758
 20
321.743338
 30
0.0
 11
-196.146758
 21
321.743338
 31
0.0
  0
ARC
  5
38B
100
AcDbEntity
  8
2
100
AcDbCircle
 10
-196.146758
 20
315.743338
 30
0.0
 40
6.0
100
AcDbArc
 50
0.0
 51
90.0
  0
ARC
  5
38C
100
AcDbEntity
  8
2
100
AcDbCircle
 10
-344.146758
 20
315.743338
 30
0.0
 40
6.0
100
AcDbArc
 50
90.0
 51
180.0
  0
LINE
  5
38D
100
AcDbEntity
  8
2
100
AcDbLine
 10
-190.146758
 20
315.743338
 30
0.0
 11
-190.146758
 21
227.743338
 31
0.0
  0
LINE
  5
38E
100
AcDbEntity
  8
2
100
AcDbLine
 10
-350.146758
 20
227.743338
 30
0.0
 11
-350.146758
 21
315.743338
 31
0.0
  0
ARC
  5
38F
100
AcDbEntity
  8
2
100
AcDbCircle
 10
-344.146758
 20
227.743338
 30
0.0
 40
6.0
100
AcDbArc
 50
180.0
 51
270.0
  0
LINE
  5
390
100
AcDbEntity
  8
2
100
AcDbLine
 10
-344.146758
 20
221.743338
 30
0.0
 11
-196.146758
 21
221.743338
 31
0.0
  0
LINE
  5
391
100
AcDbEntity
  8
2
100
AcDbLine
 10
-173.146758
 20
280.743338
 30
0.0
 11
-173.146758
 21
306.743338
 31
0.0
  0
LINE
  5
392
100
AcDbEntity
  8
2
100
AcDbLine
 10
-178.146758
 20
278.732231
 30
0.0
 11
-178.146758
 21
308.754445
 31
0.0
  0
LINE
  5
393
100
AcDbEntity
  8
2
100
AcDbLine
 10
-174.307871
 20
308.754445
 30
0.0
 11
-178.146758
 21
308.754445
 31
0.0
  0
LINE
  5
394
100
AcDbEntity
  8
2
100
AcDbLine
 10
-174.307871
 20
301.248892
 30
0.0
 11
-178.146758
 21
301.248892
 31
0.0
  0
LINE
  5
395
100
AcDbEntity
  8
2
100
AcDbLine
 10
-174.307871
 20
286.237785
 30
0.0
 11
-178.146758
 21
286.237785
 31
0.0
  0
LINE
  5
396
100
AcDbEntity
  8
2
100
AcDbLine
 10
-174.307871
 20
278.732231
 30
0.0
 11
-178.146758
 21
278.732231
 31
0.0
  0
LINE
  5
397
100
AcDbEntity
  8
2
100
AcDbLine
 10
-173.146758
 20
306.743338
 30
0.0
 11
-174.307871
 21
308.754445
 31
0.0
  0
LINE
  5
398
100
AcDbEntity
  8
2
100
AcDbLine
 10
-173.146758
 20
280.743338
 30
0.0
 11
-174.307871
 21
278.732231
 31
0.0
  0
ARC
  5
399
100
AcDbEntity
  8
2
100
AcDbCircle
 10
-179.791894
 20
305.001668
 30
0.0
 40
6.645136
100
AcDbArc
 50
325.615736
 51
34.384264
  0
ARC
  5
39A
100
AcDbEntity
  8
2
100
AcDbCircle
 10
-179.791894
 20
282.485008
 30
0.0
 40
6.645136
100
AcDbArc
 50
325.615736
 51
34.384264
  0
LINE
  5
39B
100
AcDbEntity
  8
2
100
AcDbLine
 10
-178.146758
 20
284.743338
 30
0.0
 11
-181.146758
 21
284.743338
 31
0.0
  0
LINE
  5
39C
100
AcDbEntity
  8
2
100
AcDbLine
 10
-181.146758
 20
302.743338
 30
0.0
 11
-178.146758
 21
302.743338
 31
0.0
  0
ARC
  5
39D
100
AcDbEntity
  8
2
100
AcDbCircle
 10
-197.985645
 20
293.743338
 30
0.0
 40
24.838887
100
AcDbArc
 50
342.412046
 51
17.587954
  0
LINE
  5
39E
100
AcDbEntity
  8
2
100
AcDbLine
 10
-173.146758
 20
230.743338
 30
0.0
 11
-173.146758
 21
256.743338
 31
0.0
  0
LINE
  5
39F
100
AcDbEntity
  8
2
100
AcDbLine
 10
-178.146758
 20
228.732231
 30
0.0
 11
-178.146758
 21
258.754445
 31
0.0
  0
LINE
  5
3A0
100
AcDbEntity
  8
2
100
AcDbLine
 10
-174.307871
 20
258.754445
 30
0.0
 11
-178.146758
 21
258.754445
 31
0.0
  0
LINE
  5
3A1
100
AcDbEntity
  8
2
100
AcDbLine
 10
-174.307871
 20
251.248892
 30
0.0
 11
-178.146758
 21
251.248892
 31
0.0
  0
LINE
  5
3A2
100
AcDbEntity
  8
2
100
AcDbLine
 10
-174.307871
 20
236.237785
 30
0.0
 11
-178.146758
 21
236.237785
 31
0.0
  0
LINE
  5
3A3
100
AcDbEntity
  8
2
100
AcDbLine
 10
-174.307871
 20
228.732231
 30
0.0
 11
-178.146758
 21
228.732231
 31
0.0
  0
LINE
  5
3A4
100
AcDbEntity
  8
2
100
AcDbLine
 10
-173.146758
 20
256.743338
 30
0.0
 11
-174.307871
 21
258.754445
 31
0.0
  0
LINE
  5
3A5
100
AcDbEntity
  8
2
100
AcDbLine
 10
-173.146758
 20
230.743338
 30
0.0
 11
-174.307871
 21
228.732231
 31
0.0
  0
ARC
  5
3A6
100
AcDbEntity
  8
2
100
AcDbCircle
 10
-179.791894
 20
255.001668
 30
0.0
 40
6.645136
100
AcDbArc
 50
325.615736
 51
34.384264
  0
ARC
  5
3A7
100
AcDbEntity
  8
2
100
AcDbCircle
 10
-179.791894
 20
232.485008
 30
0.0
 40
6.645136
100
AcDbArc
 50
325.615736
 51
34.384264
  0
LINE
  5
3A8
100
AcDbEntity
  8
2
100
AcDbLine
 10
-178.146758
 20
234.743338
 30
0.0
 11
-181.146758
 21
234.743338
 31
0.0
  0
LINE
  5
3A9
100
AcDbEntity
  8
2
100
AcDbLine
 10
-181.146758
 20
252.743338
 30
0.0
 11
-178.146758
 21
252.743338
 31
0.0
  0
ARC
  5
3AA
100
AcDbEntity
  8
2
100
AcDbCircle
 10
-197.985645
 20
243.743338
 30
0.0
 40
24.838887
100
AcDbArc
 50
342.412046
 51
17.587954
  0
POLYLINE
  5
3AB
100
AcDbEntity
  8
2
100
AcDb2dPolyline
 66
     1
 10
0.0
 20
0.0
 30
0.0
 70
     1
  0
VERTEX
  5
80B
100
AcDbEntity
  8
2
100
AcDbVertex
100
AcDb2dVertex
 10
-178.246758
 20
303.743338
 30
0.0
  0
VERTEX
  5
80C
100
AcDbEntity
  8
2
100
AcDbVertex
100
AcDb2dVertex
 10
-178.275044
 20
303.943338
 30
0.0
  0
VERTEX
  5
80D
100
AcDbEntity
  8
2
100
AcDbVertex
100
AcDb2dVertex
 10
-178.363637
 20
304.143338
 30
0.0
  0
VERTEX
  5
80E
100
AcDbEntity
  8
2
100
AcDbVertex
100
AcDb2dVertex
 10
-178.526758
 20
304.343338
 30
0.0
  0
VERTEX
  5
80F
100
AcDbEntity
  8
2
100
AcDbVertex
100
AcDb2dVertex
 10
-178.806758
 20
304.543338
 30
0.0
  0
VERTEX
  5
810
100
AcDbEntity
  8
2
100
AcDbVertex
100
AcDb2dVertex
 10
-179.646758
 20
304.743338
 30
0.0
  0
VERTEX
  5
811
100
AcDbEntity
  8
2
100
AcDbVertex
100
AcDb2dVertex
 10
-180.486758
 20
304.543338
 30
0.0
  0
VERTEX
  5
812
100
AcDbEntity
  8
2
100
AcDbVertex
100
AcDb2dVertex
 10
-180.766758
 20
304.343338
 30
0.0
  0
VERTEX
  5
813
100
AcDbEntity
  8
2
100
AcDbVertex
100
AcDb2dVertex
 10
-180.929879
 20
304.143338
 30
0.0
  0
VERTEX
  5
814
100
AcDbEntity
  8
2
100
AcDbVertex
100
AcDb2dVertex
 10
-181.018473
 20
303.943338
 30
0.0
  0
VERTEX
  5
815
100
AcDbEntity
  8
2
100
AcDbVertex
100
AcDb2dVertex
 10
-181.046758
 20
303.743338
 30
0.0
  0
VERTEX
  5
816
100
AcDbEntity
  8
2
100
AcDbVertex
100
AcDb2dVertex
 10
-181.018473
 20
303.543338
 30
0.0
  0
VERTEX
  5
817
100
AcDbEntity
  8
2
100
AcDbVertex
100
AcDb2dVertex
 10
-180.929879
 20
303.343338
 30
0.0
  0
VERTEX
  5
818
100
AcDbEntity
  8
2
100
AcDbVertex
100
AcDb2dVertex
 10
-180.766758
 20
303.143338
 30
0.0
  0
VERTEX
  5
819
100
AcDbEntity
  8
2
100
AcDbVertex
100
AcDb2dVertex
 10
-180.486758
 20
302.943338
 30
0.0
  0
VERTEX
  5
81A
100
AcDbEntity
  8
2
100
AcDbVertex
100
AcDb2dVertex
 10
-179.646758
 20
302.743338
 30
0.0
  0
VERTEX
  5
81B
100
AcDbEntity
  8
2
100
AcDbVertex
100
AcDb2dVertex
 10
-178.806758
 20
302.943338
 30
0.0
  0
VERTEX
  5
81C
100
AcDbEntity
  8
2
100
AcDbVertex
100
AcDb2dVertex
 10
-178.526758
 20
303.143338
 30
0.0
  0
VERTEX
  5
81D
100
AcDbEntity
  8
2
100
AcDbVertex
100
AcDb2dVertex
 10
-178.363637
 20
303.343338
 30
0.0
  0
VERTEX
  5
81E
100
AcDbEntity
  8
2
100
AcDbVertex
100
AcDb2dVertex
 10
-178.275044
 20
303.543338
 30
0.0
  0
VERTEX
  5
81F
100
AcDbEntity
  8
2
100
AcDbVertex
100
AcDb2dVertex
 10
-178.246758
 20
303.743338
 30
0.0
  0
SEQEND
  5
820
100
AcDbEntity
  8
2
  0
POLYLINE
  5
3C2
100
AcDbEntity
  8
2
100
AcDb2dPolyline
 66
     1
 10
0.0
 20
0.0
 30
0.0
 70
     1
  0
VERTEX
  5
821
100
AcDbEntity
  8
2
100
AcDbVertex
100
AcDb2dVertex
 10
-178.246758
 20
283.743338
 30
0.0
  0
VERTEX
  5
822
100
AcDbEntity
  8
2
100
AcDbVertex
100
AcDb2dVertex
 10
-178.275044
 20
283.943338
 30
0.0
  0
VERTEX
  5
823
100
AcDbEntity
  8
2
100
AcDbVertex
100
AcDb2dVertex
 10
-178.363637
 20
284.143338
 30
0.0
  0
VERTEX
  5
824
100
AcDbEntity
  8
2
100
AcDbVertex
100
AcDb2dVertex
 10
-178.526758
 20
284.343338
 30
0.0
  0
VERTEX
  5
825
100
AcDbEntity
  8
2
100
AcDbVertex
100
AcDb2dVertex
 10
-178.806758
 20
284.543338
 30
0.0
  0
VERTEX
  5
826
100
AcDbEntity
  8
2
100
AcDbVertex
100
AcDb2dVertex
 10
-179.646758
 20
284.743338
 30
0.0
  0
VERTEX
  5
827
100
AcDbEntity
  8
2
100
AcDbVertex
100
AcDb2dVertex
 10
-180.486758
 20
284.543338
 30
0.0
  0
VERTEX
  5
828
100
AcDbEntity
  8
2
100
AcDbVertex
100
AcDb2dVertex
 10
-180.766758
 20
284.343338
 30
0.0
  0
VERTEX
  5
829
100
AcDbEntity
  8
2
100
AcDbVertex
100
AcDb2dVertex
 10
-180.929879
 20
284.143338
 30
0.0
  0
VERTEX
  5
82A
100
AcDbEntity
  8
2
100
AcDbVertex
100
AcDb2dVertex
 10
-181.018473
 20
283.943338
 30
0.0
  0
VERTEX
  5
82B
100
AcDbEntity
  8
2
100
AcDbVertex
100
AcDb2dVertex
 10
-181.046758
 20
283.743338
 30
0.0
  0
VERTEX
  5
82C
100
AcDbEntity
  8
2
100
AcDbVertex
100
AcDb2dVertex
 10
-181.018473
 20
283.543338
 30
0.0
  0
VERTEX
  5
82D
100
AcDbEntity
  8
2
100
AcDbVertex
100
AcDb2dVertex
 10
-180.929879
 20
283.343338
 30
0.0
  0
VERTEX
  5
82E
100
AcDbEntity
  8
2
100
AcDbVertex
100
AcDb2dVertex
 10
-180.766758
 20
283.143338
 30
0.0
  0
VERTEX
  5
82F
100
AcDbEntity
  8
2
100
AcDbVertex
100
AcDb2dVertex
 10
-180.486758
 20
282.943338
 30
0.0
  0
VERTEX
  5
830
100
AcDbEntity
  8
2
100
AcDbVertex
100
AcDb2dVertex
 10
-179.646758
 20
282.743338
 30
0.0
  0
VERTEX
  5
831
100
AcDbEntity
  8
2
100
AcDbVertex
100
AcDb2dVertex
 10
-178.806758
 20
282.943338
 30
0.0
  0
VERTEX
  5
832
100
AcDbEntity
  8
2
100
AcDbVertex
100
AcDb2dVertex
 10
-178.526758
 20
283.143338
 30
0.0
  0
VERTEX
  5
833
100
AcDbEntity
  8
2
100
AcDbVertex
100
AcDb2dVertex
 10
-178.363637
 20
283.343338
 30
0.0
  0
VERTEX
  5
834
100
AcDbEntity
  8
2
100
AcDbVertex
100
AcDb2dVertex
 10
-178.275044
 20
283.543338
 30
0.0
  0
VERTEX
  5
835
100
AcDbEntity
  8
2
100
AcDbVertex
100
AcDb2dVertex
 10
-178.246758
 20
283.743338
 30
0.0
  0
SEQEND
  5
836
100
AcDbEntity
  8
2
  0
POLYLINE
  5
3D9
100
AcDbEntity
  8
2
100
AcDb2dPolyline
 66
     1
 10
0.0
 20
0.0
 30
0.0
 70
     1
  0
VERTEX
  5
837
100
AcDbEntity
  8
2
100
AcDbVertex
100
AcDb2dVertex
 10
-178.246758
 20
253.743338
 30
0.0
  0
VERTEX
  5
838
100
AcDbEntity
  8
2
100
AcDbVertex
100
AcDb2dVertex
 10
-178.275044
 20
253.943338
 30
0.0
  0
VERTEX
  5
839
100
AcDbEntity
  8
2
100
AcDbVertex
100
AcDb2dVertex
 10
-178.363637
 20
254.143338
 30
0.0
  0
VERTEX
  5
83A
100
AcDbEntity
  8
2
100
AcDbVertex
100
AcDb2dVertex
 10
-178.526758
 20
254.343338
 30
0.0
  0
VERTEX
  5
83B
100
AcDbEntity
  8
2
100
AcDbVertex
100
AcDb2dVertex
 10
-178.806758
 20
254.543338
 30
0.0
  0
VERTEX
  5
83C
100
AcDbEntity
  8
2
100
AcDbVertex
100
AcDb2dVertex
 10
-179.646758
 20
254.743338
 30
0.0
  0
VERTEX
  5
83D
100
AcDbEntity
  8
2
100
AcDbVertex
100
AcDb2dVertex
 10
-180.486758
 20
254.543338
 30
0.0
  0
VERTEX
  5
83E
100
AcDbEntity
  8
2
100
AcDbVertex
100
AcDb2dVertex
 10
-180.766758
 20
254.343338
 30
0.0
  0
VERTEX
  5
83F
100
AcDbEntity
  8
2
100
AcDbVertex
100
AcDb2dVertex
 10
-180.929879
 20
254.143338
 30
0.0
  0
VERTEX
  5
840
100
AcDbEntity
  8
2
100
AcDbVertex
100
AcDb2dVertex
 10
-181.018473
 20
253.943338
 30
0.0
  0
VERTEX
  5
841
100
AcDbEntity
  8
2
100
AcDbVertex
100
AcDb2dVertex
 10
-181.046758
 20
253.743338
 30
0.0
  0
VERTEX
  5
842
100
AcDbEntity
  8
2
100
AcDbVertex
100
AcDb2dVertex
 10
-181.018473
 20
253.543338
 30
0.0
  0
VERTEX
  5
843
100
AcDbEntity
  8
2
100
AcDbVertex
100
AcDb2dVertex
 10
-180.929879
 20
253.343338
 30
0.0
  0
VERTEX
  5
844
100
AcDbEntity
  8
2
100
AcDbVertex
100
AcDb2dVertex
 10
-180.766758
 20
253.143338
 30
0.0
  0
VERTEX
  5
845
100
AcDbEntity
  8
2
100
AcDbVertex
100
AcDb2dVertex
 10
-180.486758
 20
252.943338
 30
0.0
  0
VERTEX
  5
846
100
AcDbEntity
  8
2
100
AcDbVertex
100
AcDb2dVertex
 10
-179.646758
 20
252.743338
 30
0.0
  0
VERTEX
  5
847
100
AcDbEntity
  8
2
100
AcDbVertex
100
AcDb2dVertex
 10
-178.806758
 20
252.943338
 30
0.0
  0
VERTEX
  5
848
100
AcDbEntity
  8
2
100
AcDbVertex
100
AcDb2dVertex
 10
-178.526758
 20
253.143338
 30
0.0
  0
VERTEX
  5
849
100
AcDbEntity
  8
2
100
AcDbVertex
100
AcDb2dVertex
 10
-178.363637
 20
253.343338
 30
0.0
  0
VERTEX
  5
84A
100
AcDbEntity
  8
2
100
AcDbVertex
100
AcDb2dVertex
 10
-178.275044
 20
253.543338
 30
0.0
  0
VERTEX
  5
84B
100
AcDbEntity
  8
2
100
AcDbVertex
100
AcDb2dVertex
 10
-178.246758
 20
253.743338
 30
0.0
  0
SEQEND
  5
84C
100
AcDbEntity
  8
2
  0
POLYLINE
  5
3F0
100
AcDbEntity
  8
2
100
AcDb2dPolyline
 66
     1
 10
0.0
 20
0.0
 30
0.0
 70
     1
  0
VERTEX
  5
84D
100
AcDbEntity
  8
2
100
AcDbVertex
100
AcDb2dVertex
 10
-178.246758
 20
233.743338
 30
0.0
  0
VERTEX
  5
84E
100
AcDbEntity
  8
2
100
AcDbVertex
100
AcDb2dVertex
 10
-178.275044
 20
233.943338
 30
0.0
  0
VERTEX
  5
84F
100
AcDbEntity
  8
2
100
AcDbVertex
100
AcDb2dVertex
 10
-178.363637
 20
234.143338
 30
0.0
  0
VERTEX
  5
850
100
AcDbEntity
  8
2
100
AcDbVertex
100
AcDb2dVertex
 10
-178.526758
 20
234.343338
 30
0.0
  0
VERTEX
  5
851
100
AcDbEntity
  8
2
100
AcDbVertex
100
AcDb2dVertex
 10
-178.806758
 20
234.543338
 30
0.0
  0
VERTEX
  5
852
100
AcDbEntity
  8
2
100
AcDbVertex
100
AcDb2dVertex
 10
-179.646758
 20
234.743338
 30
0.0
  0
VERTEX
  5
853
100
AcDbEntity
  8
2
100
AcDbVertex
100
AcDb2dVertex
 10
-180.486758
 20
234.543338
 30
0.0
  0
VERTEX
  5
854
100
AcDbEntity
  8
2
100
AcDbVertex
100
AcDb2dVertex
 10
-180.766758
 20
234.343338
 30
0.0
  0
VERTEX
  5
855
100
AcDbEntity
  8
2
100
AcDbVertex
100
AcDb2dVertex
 10
-180.929879
 20
234.143338
 30
0.0
  0
VERTEX
  5
856
100
AcDbEntity
  8
2
100
AcDbVertex
100
AcDb2dVertex
 10
-181.018473
 20
233.943338
 30
0.0
  0
VERTEX
  5
857
100
AcDbEntity
  8
2
100
AcDbVertex
100
AcDb2dVertex
 10
-181.046758
 20
233.743338
 30
0.0
  0
VERTEX
  5
858
100
AcDbEntity
  8
2
100
AcDbVertex
100
AcDb2dVertex
 10
-181.018473
 20
233.543338
 30
0.0
  0
VERTEX
  5
859
100
AcDbEntity
  8
2
100
AcDbVertex
100
AcDb2dVertex
 10
-180.929879
 20
233.343338
 30
0.0
  0
VERTEX
  5
85A
100
AcDbEntity
  8
2
100
AcDbVertex
100
AcDb2dVertex
 10
-180.766758
 20
233.143338
 30
0.0
  0
VERTEX
  5
85B
100
AcDbEntity
  8
2
100
AcDbVertex
100
AcDb2dVertex
 10
-180.486758
 20
232.943338
 30
0.0
  0
VERTEX
  5
85C
100
AcDbEntity
  8
2
100
AcDbVertex
100
AcDb2dVertex
 10
-179.646758
 20
232.743338
 30
0.0
  0
VERTEX
  5
85D
100
AcDbEntity
  8
2
100
AcDbVertex
100
AcDb2dVertex
 10
-178.806758
 20
232.943338
 30
0.0
  0
VERTEX
  5
85E
100
AcDbEntity
  8
2
100
AcDbVertex
100
AcDb2dVertex
 10
-178.526758
 20
233.143338
 30
0.0
  0
VERTEX
  5
85F
100
AcDbEntity
  8
2
100
AcDbVertex
100
AcDb2dVertex
 10
-178.363637
 20
233.343338
 30
0.0
  0
VERTEX
  5
860
100
AcDbEntity
  8
2
100
AcDbVertex
100
AcDb2dVertex
 10
-178.275044
 20
233.543338
 30
0.0
  0
VERTEX
  5
861
100
AcDbEntity
  8
2
100
AcDbVertex
100
AcDb2dVertex
 10
-178.246758
 20
233.743338
 30
0.0
  0
SEQEND
  5
862
100
AcDbEntity
  8
2
  0
LINE
  5
407
100
AcDbEntity
  8
2
100
AcDbLine
 10
-356.396758
 20
203.832543
 30
0.0
 11
-356.396758
 21
205.443338
 31
0.0
  0
ARC
  5
408
100
AcDbEntity
  8
2
100
AcDbCircle
 10
-357.396758
 20
203.832543
 30
0.0
 40
1.0
100
AcDbArc
 50
302.392365
 51
360.0
  0
LINE
  5
409
100
AcDbEntity
  8
2
100
AcDbLine
 10
-365.896758
 20
205.443338
 30
0.0
 11
-356.396758
 21
205.443338
 31
0.0
  0
LINE
  5
40A
100
AcDbEntity
  8
2
100
AcDbLine
 10
-356.546758
 20
205.443338
 30
0.0
 11
-356.546758
 21
206.743338
 31
0.0
  0
LINE
  5
40B
100
AcDbEntity
  8
2
100
AcDbLine
 10
-365.896758
 20
203.832543
 30
0.0
 11
-365.896758
 21
205.443338
 31
0.0
  0
LINE
  5
40C
100
AcDbEntity
  8
2
100
AcDbLine
 10
-365.746758
 20
205.443338
 30
0.0
 11
-365.746758
 21
206.743338
 31
0.0
  0
LINE
  5
40D
100
AcDbEntity
  8
2
100
AcDbLine
 10
-360.646758
 20
201.758979
 30
0.0
 11
-360.646758
 21
201.943338
 31
0.0
  0
LINE
  5
40E
100
AcDbEntity
  8
2
100
AcDbLine
 10
-361.646758
 20
201.758979
 30
0.0
 11
-361.646758
 21
201.943338
 31
0.0
  0
LINE
  5
40F
100
AcDbEntity
  8
2
100
AcDbLine
 10
-360.646758
 20
201.943338
 30
0.0
 11
-361.646758
 21
201.943338
 31
0.0
  0
ARC
  5
410
100
AcDbEntity
  8
2
100
AcDbCircle
 10
-361.146758
 20
209.743338
 30
0.0
 40
8.0
100
AcDbArc
 50
273.583322
 51
302.392365
  0
ARC
  5
411
100
AcDbEntity
  8
2
100
AcDbCircle
 10
-361.146758
 20
209.743338
 30
0.0
 40
8.0
100
AcDbArc
 50
237.607635
 51
266.416678
  0
ARC
  5
412
100
AcDbEntity
  8
2
100
AcDbCircle
 10
-364.896758
 20
203.832543
 30
0.0
 40
1.0
100
AcDbArc
 50
180.0
 51
237.607635
  0
LINE
  5
413
100
AcDbEntity
  8
2
100
AcDbLine
 10
-217.396758
 20
203.832543
 30
0.0
 11
-217.396758
 21
205.443338
 31
0.0
  0
ARC
  5
414
100
AcDbEntity
  8
2
100
AcDbCircle
 10
-218.396758
 20
203.832543
 30
0.0
 40
1.0
100
AcDbArc
 50
302.392365
 51
360.0
  0
LINE
  5
415
100
AcDbEntity
  8
2
100
AcDbLine
 10
-226.896758
 20
205.443338
 30
0.0
 11
-217.396758
 21
205.443338
 31
0.0
  0
LINE
  5
416
100
AcDbEntity
  8
2
100
AcDbLine
 10
-217.546758
 20
205.443338
 30
0.0
 11
-217.546758
 21
206.743338
 31
0.0
  0
LINE
  5
417
100
AcDbEntity
  8
2
100
AcDbLine
 10
-226.896758
 20
203.832543
 30
0.0
 11
-226.896758
 21
205.443338
 31
0.0
  0
LINE
  5
418
100
AcDbEntity
  8
2
100
AcDbLine
 10
-226.746758
 20
205.443338
 30
0.0
 11
-226.746758
 21
206.743338
 31
0.0
  0
LINE
  5
419
100
AcDbEntity
  8
2
100
AcDbLine
 10
-221.646758
 20
201.758979
 30
0.0
 11
-221.646758
 21
201.943338
 31
0.0
  0
LINE
  5
41A
100
AcDbEntity
  8
2
100
AcDbLine
 10
-222.646758
 20
201.758979
 30
0.0
 11
-222.646758
 21
201.943338
 31
0.0
  0
LINE
  5
41B
100
AcDbEntity
  8
2
100
AcDbLine
 10
-221.646758
 20
201.943338
 30
0.0
 11
-222.646758
 21
201.943338
 31
0.0
  0
ARC
  5
41C
100
AcDbEntity
  8
2
100
AcDbCircle
 10
-222.146758
 20
209.743338
 30
0.0
 40
8.0
100
AcDbArc
 50
273.583322
 51
302.392365
  0
ARC
  5
41D
100
AcDbEntity
  8
2
100
AcDbCircle
 10
-222.146758
 20
209.743338
 30
0.0
 40
8.0
100
AcDbArc
 50
237.607635
 51
266.416678
  0
ARC
  5
41E
100
AcDbEntity
  8
2
100
AcDbCircle
 10
-225.896758
 20
203.832543
 30
0.0
 40
1.0
100
AcDbArc
 50
180.0
 51
237.607635
  0
LINE
  5
41F
100
AcDbEntity
  8
2
100
AcDbLine
 10
-367.896758
 20
205.443338
 30
0.0
 11
-365.746758
 21
205.443338
 31
0.0
  0
LINE
  5
420
100
AcDbEntity
  8
2
100
AcDbLine
 10
-367.896758
 20
203.832543
 30
0.0
 11
-367.896758
 21
205.443338
 31
0.0
  0
LINE
  5
421
100
AcDbEntity
  8
2
100
AcDbLine
 10
-367.746758
 20
205.443338
 30
0.0
 11
-367.746758
 21
206.743338
 31
0.0
  0
LINE
  5
422
100
AcDbEntity
  8
2
100
AcDbLine
 10
-362.646758
 20
201.758979
 30
0.0
 11
-362.646758
 21
201.885221
 31
0.0
  0
LINE
  5
423
100
AcDbEntity
  8
2
100
AcDbLine
 10
-363.646758
 20
201.758979
 30
0.0
 11
-363.646758
 21
201.943338
 31
0.0
  0
LINE
  5
424
100
AcDbEntity
  8
2
100
AcDbLine
 10
-362.924397
 20
201.943338
 30
0.0
 11
-363.646758
 21
201.943338
 31
0.0
  0
ARC
  5
425
100
AcDbEntity
  8
2
100
AcDbCircle
 10
-363.146758
 20
209.743338
 30
0.0
 40
8.0
100
AcDbArc
 50
273.583322
 51
277.180756
  0
ARC
  5
426
100
AcDbEntity
  8
2
100
AcDbCircle
 10
-363.146758
 20
209.743338
 30
0.0
 40
8.0
100
AcDbArc
 50
237.607635
 51
266.416678
  0
ARC
  5
427
100
AcDbEntity
  8
2
100
AcDbCircle
 10
-366.896758
 20
203.832543
 30
0.0
 40
1.0
100
AcDbArc
 50
180.0
 51
237.607635
  0
LINE
  5
428
100
AcDbEntity
  8
2
100
AcDbLine
 10
-298.896758
 20
203.832543
 30
0.0
 11
-298.896758
 21
205.443338
 31
0.0
  0
ARC
  5
429
100
AcDbEntity
  8
2
100
AcDbCircle
 10
-299.896758
 20
203.832543
 30
0.0
 40
1.0
100
AcDbArc
 50
302.392365
 51
360.0
  0
LINE
  5
42A
100
AcDbEntity
  8
2
100
AcDbLine
 10
-308.396758
 20
205.443338
 30
0.0
 11
-298.896758
 21
205.443338
 31
0.0
  0
LINE
  5
42B
100
AcDbEntity
  8
2
100
AcDbLine
 10
-299.046758
 20
205.443338
 30
0.0
 11
-299.046758
 21
206.743338
 31
0.0
  0
LINE
  5
42C
100
AcDbEntity
  8
2
100
AcDbLine
 10
-308.396758
 20
203.832543
 30
0.0
 11
-308.396758
 21
205.443338
 31
0.0
  0
LINE
  5
42D
100
AcDbEntity
  8
2
100
AcDbLine
 10
-308.246758
 20
205.443338
 30
0.0
 11
-308.246758
 21
206.743338
 31
0.0
  0
LINE
  5
42E
100
AcDbEntity
  8
2
100
AcDbLine
 10
-303.146758
 20
201.758979
 30
0.0
 11
-303.146758
 21
201.943338
 31
0.0
  0
LINE
  5
42F
100
AcDbEntity
  8
2
100
AcDbLine
 10
-304.146758
 20
201.758979
 30
0.0
 11
-304.146758
 21
201.943338
 31
0.0
  0
LINE
  5
430
100
AcDbEntity
  8
2
100
AcDbLine
 10
-303.146758
 20
201.943338
 30
0.0
 11
-304.146758
 21
201.943338
 31
0.0
  0
ARC
  5
431
100
AcDbEntity
  8
2
100
AcDbCircle
 10
-303.646758
 20
209.743338
 30
0.0
 40
8.0
100
AcDbArc
 50
273.583322
 51
302.392365
  0
ARC
  5
432
100
AcDbEntity
  8
2
100
AcDbCircle
 10
-303.646758
 20
209.743338
 30
0.0
 40
8.0
100
AcDbArc
 50
237.607635
 51
266.416678
  0
ARC
  5
433
100
AcDbEntity
  8
2
100
AcDbCircle
 10
-307.396758
 20
203.832543
 30
0.0
 40
1.0
100
AcDbArc
 50
180.0
 51
237.607635
  0
LINE
  5
434
100
AcDbEntity
  8
2
100
AcDbLine
 10
-234.146758
 20
187.743338
 30
0.0
 11
-259.146758
 21
187.743338
 31
0.0
  0
LINE
  5
435
100
AcDbEntity
  8
2
100
AcDbLine
 10
-259.146758
 20
184.043338
 30
0.0
 11
-259.146758
 21
187.743338
 31
0.0
  0
LINE
  5
436
100
AcDbEntity
  8
2
100
AcDbLine
 10
-258.846758
 20
183.743338
 30
0.0
 11
-259.146758
 21
184.043338
 31
0.0
  0
LINE
  5
437
100
AcDbEntity
  8
2
100
AcDbLine
 10
-258.846758
 20
183.743338
 30
0.0
 11
-234.446758
 21
183.743338
 31
0.0
  0
LINE
  5
438
100
AcDbEntity
  8
2
100
AcDbLine
 10
-234.446758
 20
183.743338
 30
0.0
 11
-234.146758
 21
184.043338
 31
0.0
  0
LINE
  5
439
100
AcDbEntity
  8
2
100
AcDbLine
 10
-234.146758
 20
184.043338
 30
0.0
 11
-234.146758
 21
187.743338
 31
0.0
  0
LINE
  5
43A
100
AcDbEntity
  8
2
100
AcDbLine
 10
-375.146758
 20
216.743338
 30
0.0
 11
-207.646758
 21
216.743338
 31
0.0
  0
LINE
  5
43B
100
AcDbEntity
  8
2
100
AcDbLine
 10
-209.16106
 20
206.743338
 30
0.0
 11
-372.146758
 21
206.743338
 31
0.0
  0
LINE
  5
43C
100
AcDbEntity
  8
2
100
AcDbLine
 10
-216.972788
 20
189.743338
 30
0.0
 11
-327.645625
 21
189.743338
 31
0.0
  0
LINE
  5
43D
100
AcDbEntity
  8
2
100
AcDbLine
 10
-208.441781
 20
207.656182
 30
0.0
 11
-207.646758
 21
216.743338
 31
0.0
  0
LINE
  5
43E
100
AcDbEntity
  8
2
100
AcDbLine
 10
-336.615334
 20
204.769326
 30
0.0
 11
-332.344132
 21
193.033358
 31
0.0
  0
ARC
  5
43F
100
AcDbEntity
  8
2
100
AcDbCircle
 10
-339.434438
 20
203.743338
 30
0.0
 40
3.0
100
AcDbArc
 50
19.99853
 51
90.0
  0
ARC
  5
440
100
AcDbEntity
  8
2
100
AcDbCircle
 10
-327.645625
 20
194.743338
 30
0.0
 40
5.0
100
AcDbArc
 50
199.99853
 51
270.0
  0
LINE
  5
441
100
AcDbEntity
  8
2
100
AcDbLine
 10
-212.024743
 20
194.024416
 30
0.0
 11
-210.477931
 21
204.670486
 31
0.0
  0
ARC
  5
442
100
AcDbEntity
  8
2
100
AcDbCircle
 10
-216.972788
 20
194.743338
 30
0.0
 40
5.0
100
AcDbArc
 50
270.0
 51
351.733109
  0
LINE
  5
443
100
AcDbEntity
  8
2
100
AcDbLine
 10
-375.146758
 20
216.743338
 30
0.0
 11
-375.146758
 21
209.743338
 31
0.0
  0
ARC
  5
444
100
AcDbEntity
  8
2
100
AcDbCircle
 10
-372.146758
 20
209.743338
 30
0.0
 40
3.0
100
AcDbArc
 50
180.0
 51
270.0
  0
ARC
  5
445
100
AcDbEntity
  8
2
100
AcDbCircle
 10
-209.437976
 20
207.743338
 30
0.0
 40
1.0
100
AcDbArc
 50
298.830359
 51
355.0
  0
ARC
  5
446
100
AcDbEntity
  8
2
100
AcDbCircle
 10
-207.509104
 20
204.239133
 30
0.0
 40
3.0
100
AcDbArc
 50
118.830359
 51
171.733109
  0
LINE
  5
447
100
AcDbEntity
  8
2
 62
     2
100
AcDbLine
 10
-309.248242
 20
205.262599
 30
0.0
 11
-305.753194
 21
192.262599
 31
0.0
  0
LINE
  5
448
100
AcDbEntity
  8
2
 62
     2
100
AcDbLine
 10
-300.883274
 20
192.174842
 30
0.0
 11
-298.010848
 21
205.174842
 31
0.0
  0
ARC
  5
449
100
AcDbEntity
  8
2
 62
     2
100
AcDbCircle
 10
-296.057951
 20
204.743338
 30
0.0
 40
2.0
100
AcDbArc
 50
131.409622
 51
167.540354
  0
ARC
  5
44A
100
AcDbEntity
  8
2
 62
     2
100
AcDbCircle
 10
-311.179658
 20
204.743338
 30
0.0
 40
2.0
100
AcDbArc
 50
15.048138
 51
48.590378
  0
LINE
  5
44B
100
AcDbEntity
  8
2
100
AcDbLine
 10
-234.646758
 20
187.743338
 30
0.0
 11
-258.646758
 21
187.743338
 31
0.0
  0
LINE
  5
44C
100
AcDbEntity
  8
2
100
AcDbLine
 10
-234.146758
 20
188.243338
 30
0.0
 11
-234.146758
 21
188.743338
 31
0.0
  0
LINE
  5
44D
100
AcDbEntity
  8
2
100
AcDbLine
 10
-259.146758
 20
188.243338
 30
0.0
 11
-259.146758
 21
188.743338
 31
0.0
  0
ARC
  5
44E
100
AcDbEntity
  8
2
100
AcDbCircle
 10
-234.646758
 20
188.243338
 30
0.0
 40
0.5
100
AcDbArc
 50
270.0
 51
360.0
  0
ARC
  5
44F
100
AcDbEntity
  8
2
100
AcDbCircle
 10
-258.646758
 20
188.243338
 30
0.0
 40
0.5
100
AcDbArc
 50
180.0
 51
270.0
  0
ARC
  5
450
100
AcDbEntity
  8
2
100
AcDbCircle
 10
-233.146758
 20
188.743338
 30
0.0
 40
1.0
100
AcDbArc
 50
90.0
 51
180.0
  0
ARC
  5
451
100
AcDbEntity
  8
2
100
AcDbCircle
 10
-260.146758
 20
188.743338
 30
0.0
 40
1.0
100
AcDbArc
 50
360.0
 51
90.0
  0
LINE
  5
452
100
AcDbEntity
  8
2
  6
CENTER
 62
     2
100
AcDbLine
 10
-383.052274
 20
268.743338
 30
0.0
 11
-169.641205
 21
268.743338
 31
0.0
  0
LINE
  5
453
100
AcDbEntity
  8
2
  6
CENTER
 62
     2
100
AcDbLine
 10
-201.57885
 20
243.743338
 30
0.0
 11
-167.722118
 21
243.743338
 31
0.0
  0
LINE
  5
454
100
AcDbEntity
  8
2
  6
CENTER
 62
     2
100
AcDbLine
 10
-201.57885
 20
293.743338
 30
0.0
 11
-167.722118
 21
293.743338
 31
0.0
  0
LINE
  5
455
100
AcDbEntity
  8
2
  6
CENTER
 62
     2
100
AcDbLine
 10
-275.146758
 20
332.912382
 30
0.0
 11
-275.146758
 21
175.226573
 31
0.0
  0
LINE
  5
456
100
AcDbEntity
  8
2
  6
CENTER
 62
     2
100
AcDbLine
 10
-336.396758
 20
192.292716
 30
0.0
 11
-336.396758
 21
329.310789
 31
0.0
  0
LINE
  5
457
100
AcDbEntity
  8
2
  6
CENTER
 62
     2
100
AcDbLine
 10
-246.646758
 20
178.773902
 30
0.0
 11
-246.646758
 21
329.310789
 31
0.0
  0
LINE
  5
458
100
AcDbEntity
  8
2
  6
CENTER
 62
     2
100
AcDbLine
 10
-361.146758
 20
193.513663
 30
0.0
 11
-361.146758
 21
219.057288
 31
0.0
  0
LINE
  5
459
100
AcDbEntity
  8
2
  6
CENTER
 62
     2
100
AcDbLine
 10
-303.646758
 20
219.057288
 30
0.0
 11
-303.646758
 21
193.513663
 31
0.0
  0
LINE
  5
45A
100
AcDbEntity
  8
2
  6
CENTER
 62
     2
100
AcDbLine
 10
-222.146758
 20
193.513663
 30
0.0
 11
-222.146758
 21
219.057288
 31
0.0
  0
LINE
  5
45B
100
AcDbEntity
  8
2
100
AcDbLine
 10
-317.646758
 20
43.243338
 30
0.0
 11
-232.646758
 21
43.243338
 31
0.0
  0
LINE
  5
45C
100
AcDbEntity
  8
2
100
AcDbLine
 10
-232.646758
 20
44.443338
 30
0.0
 11
-232.646758
 21
41.243338
 31
0.0
  0
LINE
  5
45D
100
AcDbEntity
  8
2
100
AcDbLine
 10
-317.646758
 20
44.443338
 30
0.0
 11
-317.646758
 21
41.243338
 31
0.0
  0
LINE
  5
45E
100
AcDbEntity
  8
2
100
AcDbLine
 10
-277.146758
 20
52.743338
 30
0.0
 11
-277.146758
 21
44.443338
 31
0.0
  0
LINE
  5
45F
100
AcDbEntity
  8
2
100
AcDbLine
 10
-273.146758
 20
52.743338
 30
0.0
 11
-273.146758
 21
44.443338
 31
0.0
  0
LINE
  5
460
100
AcDbEntity
  8
2
100
AcDbLine
 10
-350.146758
 20
-4.756662
 30
0.0
 11
-190.146758
 21
-4.756662
 31
0.0
  0
LINE
  5
461
100
AcDbEntity
  8
2
100
AcDbLine
 10
-202.809617
 20
38.243338
 30
0.0
 11
-325.084836
 21
38.243338
 31
0.0
  0
LINE
  5
462
100
AcDbEntity
  8
2
100
AcDbLine
 10
-190.146758
 20
-1.756662
 30
0.0
 11
-190.146758
 21
-4.756662
 31
0.0
  0
LINE
  5
463
100
AcDbEntity
  8
2
100
AcDbLine
 10
-202.146758
 20
35.243338
 30
0.0
 11
-202.146758
 21
4.243338
 31
0.0
  0
LINE
  5
464
100
AcDbEntity
  8
2
100
AcDbLine
 10
-336.146758
 20
32.131837
 30
0.0
 11
-336.146758
 21
4.243338
 31
0.0
  0
LINE
  5
465
100
AcDbEntity
  8
2
100
AcDbLine
 10
-347.6267
 20
3.243338
 30
0.0
 11
-337.146758
 21
3.243338
 31
0.0
  0
LINE
  5
466
100
AcDbEntity
  8
2
100
AcDbLine
 10
-201.146758
 20
3.243338
 30
0.0
 11
-191.500533
 21
3.243338
 31
0.0
  0
ARC
  5
467
100
AcDbEntity
  8
2
100
AcDbCircle
 10
-205.146758
 20
35.243338
 30
0.0
 40
3.0
100
AcDbArc
 50
0.0
 51
90.0
  0
ARC
  5
468
100
AcDbEntity
  8
2
100
AcDbCircle
 10
-229.646758
 20
41.243338
 30
0.0
 40
3.0
100
AcDbArc
 50
180.0
 51
270.0
  0
ARC
  5
469
100
AcDbEntity
  8
2
100
AcDbCircle
 10
-320.646758
 20
41.243338
 30
0.0
 40
3.0
100
AcDbArc
 50
270.0
 51
360.0
  0
ARC
  5
46A
100
AcDbEntity
  8
2
100
AcDbCircle
 10
-275.146758
 20
31.243338
 30
0.0
 40
34.0
100
AcDbArc
 50
22.844739
 51
157.155261
  0
ARC
  5
46B
100
AcDbEntity
  8
2
100
AcDbCircle
 10
-275.146758
 20
29.743338
 30
0.0
 40
28.0
100
AcDbArc
 50
34.712682
 51
81.884254
  0
ARC
  5
46C
100
AcDbEntity
  8
2
100
AcDbCircle
 10
-275.146758
 20
29.743338
 30
0.0
 40
28.0
100
AcDbArc
 50
98.115746
 51
145.287318
  0
ARC
  5
46D
100
AcDbEntity
  8
2
100
AcDbCircle
 10
-239.746363
 20
34.008968
 30
0.0
 40
45.274917
100
AcDbArc
 50
159.10214
 51
166.675437
  0
ARC
  5
46E
100
AcDbEntity
  8
2
100
AcDbCircle
 10
-240.670243
 20
34.008968
 30
0.0
 40
45.274917
100
AcDbArc
 50
158.681079
 51
166.675437
  0
ARC
  5
46F
100
AcDbEntity
  8
2
100
AcDbCircle
 10
-263.716829
 20
32.242086
 30
0.0
 40
30.472934
100
AcDbArc
 50
143.677597
 51
156.39704
  0
ARC
  5
470
100
AcDbEntity
  8
2
100
AcDbCircle
 10
-264.423936
 20
32.242086
 30
0.0
 40
30.472934
100
AcDbArc
 50
142.882669
 51
156.39704
  0
ARC
  5
471
100
AcDbEntity
  8
2
100
AcDbCircle
 10
-272.472417
 20
30.475205
 30
0.0
 40
28.197761
100
AcDbArc
 50
134.711482
 51
150.306296
  0
ARC
  5
472
100
AcDbEntity
  8
2
100
AcDbCircle
 10
-272.8551
 20
30.475205
 30
0.0
 40
28.197761
100
AcDbArc
 50
134.156238
 51
150.306296
  0
LINE
  5
473
100
AcDbEntity
  8
2
 62
     2
100
AcDbLine
 10
-284.670219
 20
44.677623
 30
0.0
 11
-284.264427
 21
44.443338
 31
0.0
  0
LINE
  5
474
100
AcDbEntity
  8
2
 62
     2
100
AcDbLine
 10
-283.712226
 20
44.817345
 30
0.0
 11
-284.518978
 21
45.283124
 31
0.0
  0
LINE
  5
475
100
AcDbEntity
  8
2
 62
     2
100
AcDbLine
 10
-283.559204
 20
45.421818
 30
0.0
 11
-284.360031
 21
45.884176
 31
0.0
  0
LINE
  5
476
100
AcDbEntity
  8
2
 62
     2
100
AcDbLine
 10
-283.398496
 20
46.021854
 30
0.0
 11
-284.193464
 21
46.480829
 31
0.0
  0
LINE
  5
477
100
AcDbEntity
  8
2
 62
     2
100
AcDbLine
 10
-283.230188
 20
46.617501
 30
0.0
 11
-284.019358
 21
47.073129
 31
0.0
  0
LINE
  5
478
100
AcDbEntity
  8
2
 62
     2
100
AcDbLine
 10
-283.054358
 20
47.208806
 30
0.0
 11
-283.837787
 21
47.661119
 31
0.0
  0
LINE
  5
479
100
AcDbEntity
  8
2
 62
     2
100
AcDbLine
 10
-282.871079
 20
47.79581
 30
0.0
 11
-283.64882
 21
48.244839
 31
0.0
  0
LINE
  5
47A
100
AcDbEntity
  8
2
 62
     2
100
AcDbLine
 10
-282.680419
 20
48.378553
 30
0.0
 11
-283.452521
 21
48.824326
 31
0.0
  0
LINE
  5
47B
100
AcDbEntity
  8
2
 62
     2
100
AcDbLine
 10
-282.482441
 20
48.957071
 30
0.0
 11
-283.248948
 21
49.399614
 31
0.0
  0
LINE
  5
47C
100
AcDbEntity
  8
2
 62
     2
100
AcDbLine
 10
-282.277203
 20
49.531397
 30
0.0
 11
-283.038157
 21
49.970734
 31
0.0
  0
LINE
  5
47D
100
AcDbEntity
  8
2
 62
     2
100
AcDbLine
 10
-282.064758
 20
50.101562
 30
0.0
 11
-282.814827
 21
50.534614
 31
0.0
  0
LINE
  5
47E
100
AcDbEntity
  8
2
 62
     2
100
AcDbLine
 10
-290.645836
 20
47.766637
 30
0.0
 11
-290.117082
 21
47.461361
 31
0.0
  0
LINE
  5
47F
100
AcDbEntity
  8
2
 62
     2
100
AcDbLine
 10
-290.335027
 20
48.280012
 30
0.0
 11
-289.812305
 21
47.978218
 31
0.0
  0
LINE
  5
480
100
AcDbEntity
  8
2
 62
     2
100
AcDbLine
 10
-290.013972
 20
48.787471
 30
0.0
 11
-289.49729
 21
48.489164
 31
0.0
  0
LINE
  5
481
100
AcDbEntity
  8
2
 62
     2
100
AcDbLine
 10
-289.682646
 20
49.289
 30
0.0
 11
-289.17202
 21
48.99419
 31
0.0
  0
LINE
  5
482
100
AcDbEntity
  8
2
 62
     2
100
AcDbLine
 10
-289.341012
 20
49.784578
 30
0.0
 11
-288.836465
 21
49.493277
 31
0.0
  0
LINE
  5
483
100
AcDbEntity
  8
2
 62
     2
100
AcDbLine
 10
-288.989021
 20
50.274176
 30
0.0
 11
-288.490584
 21
49.986403
 31
0.0
  0
LINE
  5
484
100
AcDbEntity
  8
2
 62
     2
100
AcDbLine
 10
-288.58011
 20
50.730912
 30
0.0
 11
-288.220937
 21
50.523543
 31
0.0
  0
LINE
  5
485
100
AcDbEntity
  8
2
 62
     2
100
AcDbLine
 10
-290.94641
 20
47.247353
 30
0.0
 11
-290.411628
 21
46.938597
 31
0.0
  0
LINE
  5
486
100
AcDbEntity
  8
2
 62
     2
100
AcDbLine
 10
-291.236752
 20
46.722162
 30
0.0
 11
-290.695935
 21
46.409921
 31
0.0
  0
LINE
  5
487
100
AcDbEntity
  8
2
 62
     2
100
AcDbLine
 10
-291.516849
 20
46.191056
 30
0.0
 11
-290.969986
 21
45.875324
 31
0.0
  0
LINE
  5
488
100
AcDbEntity
  8
2
 62
     2
100
AcDbLine
 10
-291.786679
 20
45.654022
 30
0.0
 11
-291.233749
 21
45.334787
 31
0.0
  0
LINE
  5
489
100
AcDbEntity
  8
2
 62
     2
100
AcDbLine
 10
-292.046205
 20
45.111039
 30
0.0
 11
-291.487183
 21
44.788287
 31
0.0
  0
LINE
  5
48A
100
AcDbEntity
  8
2
 62
     2
100
AcDbLine
 10
-292.089714
 20
44.443338
 30
0.0
 11
-292.295381
 21
44.56208
 31
0.0
  0
LINE
  5
48B
100
AcDbEntity
  8
2
100
AcDbLine
 10
-232.646758
 20
44.443338
 30
0.0
 11
-317.646758
 21
44.443338
 31
0.0
  0
LINE
  5
48C
100
AcDbEntity
  8
2
 62
     2
100
AcDbLine
 10
-295.110513
 20
47.790236
 30
0.0
 11
-294.845868
 21
47.637443
 31
0.0
  0
LINE
  5
48D
100
AcDbEntity
  8
2
 62
     2
100
AcDbLine
 10
-294.732858
 20
48.265017
 30
0.0
 11
-294.471852
 21
48.114325
 31
0.0
  0
LINE
  5
48E
100
AcDbEntity
  8
2
 62
     2
100
AcDbLine
 10
-294.343715
 20
48.733166
 30
0.0
 11
-294.086386
 21
48.584597
 31
0.0
  0
LINE
  5
48F
100
AcDbEntity
  8
2
 62
     2
100
AcDbLine
 10
-293.942956
 20
49.194608
 30
0.0
 11
-293.689346
 21
49.048186
 31
0.0
  0
LINE
  5
490
100
AcDbEntity
  8
2
 62
     2
100
AcDbLine
 10
-293.530434
 20
49.649258
 30
0.0
 11
-293.280592
 21
49.505012
 31
0.0
  0
LINE
  5
491
100
AcDbEntity
  8
2
 62
     2
100
AcDbLine
 10
-293.105979
 20
50.09702
 30
0.0
 11
-292.859962
 21
49.954982
 31
0.0
  0
LINE
  5
492
100
AcDbEntity
  8
2
 62
     2
100
AcDbLine
 10
-292.669405
 20
50.537784
 30
0.0
 11
-292.427275
 21
50.39799
 31
0.0
  0
LINE
  5
493
100
AcDbEntity
  8
2
 62
     2
100
AcDbLine
 10
-295.476791
 20
47.308887
 30
0.0
 11
-295.208537
 21
47.15401
 31
0.0
  0
LINE
  5
494
100
AcDbEntity
  8
2
 62
     2
100
AcDbLine
 10
-295.831784
 20
46.821022
 30
0.0
 11
-295.559949
 21
46.664077
 31
0.0
  0
LINE
  5
495
100
AcDbEntity
  8
2
 62
     2
100
AcDbLine
 10
-296.175569
 20
46.326686
 30
0.0
 11
-295.900173
 21
46.167686
 31
0.0
  0
LINE
  5
496
100
AcDbEntity
  8
2
 62
     2
100
AcDbLine
 10
-296.508207
 20
45.825914
 30
0.0
 11
-296.229266
 21
45.664867
 31
0.0
  0
LINE
  5
497
100
AcDbEntity
  8
2
 62
     2
100
AcDbLine
 10
-296.829742
 20
45.318732
 30
0.0
 11
-296.547267
 21
45.155645
 31
0.0
  0
LINE
  5
498
100
AcDbEntity
  8
2
 62
     2
100
AcDbLine
 10
-297.140203
 20
44.805156
 30
0.0
 11
-296.854201
 21
44.640033
 31
0.0
  0
LINE
  5
499
100
AcDbEntity
  8
2
 62
     2
100
AcDbLine
 10
-277.146758
 20
50.902739
 30
0.0
 11
-273.146758
 21
48.593338
 31
0.0
  0
LINE
  5
49A
100
AcDbEntity
  8
2
 62
     2
100
AcDbLine
 10
-273.146758
 20
48.593338
 30
0.0
 11
-273.146758
 21
48.593338
 31
0.0
  0
LINE
  5
49B
100
AcDbEntity
  8
2
 62
     2
100
AcDbLine
 10
-277.146758
 20
51.59556
 30
0.0
 11
-273.146758
 21
49.286159
 31
0.0
  0
LINE
  5
49C
100
AcDbEntity
  8
2
 62
     2
100
AcDbLine
 10
-273.146758
 20
49.286159
 30
0.0
 11
-273.146758
 21
49.286159
 31
0.0
  0
LINE
  5
49D
100
AcDbEntity
  8
2
 62
     2
100
AcDbLine
 10
-277.146758
 20
52.28838
 30
0.0
 11
-273.146758
 21
49.978979
 31
0.0
  0
LINE
  5
49E
100
AcDbEntity
  8
2
 62
     2
100
AcDbLine
 10
-273.146758
 20
49.978979
 30
0.0
 11
-273.146758
 21
49.978979
 31
0.0
  0
LINE
  5
49F
100
AcDbEntity
  8
2
 62
     2
100
AcDbLine
 10
-277.121511
 20
52.966624
 30
0.0
 11
-273.146758
 21
50.671799
 31
0.0
  0
LINE
  5
4A0
100
AcDbEntity
  8
2
 62
     2
100
AcDbLine
 10
-273.146758
 20
50.671799
 30
0.0
 11
-273.146758
 21
50.671799
 31
0.0
  0
LINE
  5
4A1
100
AcDbEntity
  8
2
 62
     2
100
AcDbLine
 10
-276.818246
 20
53.484354
 30
0.0
 11
-273.146758
 21
51.36462
 31
0.0
  0
LINE
  5
4A2
100
AcDbEntity
  8
2
 62
     2
100
AcDbLine
 10
-273.146758
 20
51.36462
 30
0.0
 11
-273.146758
 21
51.36462
 31
0.0
  0
LINE
  5
4A3
100
AcDbEntity
  8
2
 62
     2
100
AcDbLine
 10
-276.06682
 20
53.743338
 30
0.0
 11
-273.146758
 21
52.05744
 31
0.0
  0
LINE
  5
4A4
100
AcDbEntity
  8
2
 62
     2
100
AcDbLine
 10
-273.146758
 20
52.05744
 30
0.0
 11
-273.146758
 21
52.05744
 31
0.0
  0
LINE
  5
4A5
100
AcDbEntity
  8
2
 62
     2
100
AcDbLine
 10
-274.726438
 20
53.662289
 30
0.0
 11
-273.146782
 21
52.750274
 31
0.0
  0
LINE
  5
4A6
100
AcDbEntity
  8
2
 62
     2
100
AcDbLine
 10
-273.146758
 20
52.75026
 30
0.0
 11
-273.146758
 21
52.75026
 31
0.0
  0
LINE
  5
4A7
100
AcDbEntity
  8
2
 62
     2
100
AcDbLine
 10
-277.146758
 20
50.209919
 30
0.0
 11
-273.146758
 21
47.900518
 31
0.0
  0
LINE
  5
4A8
100
AcDbEntity
  8
2
 62
     2
100
AcDbLine
 10
-273.146758
 20
47.900518
 30
0.0
 11
-273.146758
 21
47.900518
 31
0.0
  0
LINE
  5
4A9
100
AcDbEntity
  8
2
 62
     2
100
AcDbLine
 10
-277.146758
 20
49.517099
 30
0.0
 11
-273.146758
 21
47.207698
 31
0.0
  0
LINE
  5
4AA
100
AcDbEntity
  8
2
 62
     2
100
AcDbLine
 10
-273.146758
 20
47.207698
 30
0.0
 11
-273.146758
 21
47.207698
 31
0.0
  0
LINE
  5
4AB
100
AcDbEntity
  8
2
 62
     2
100
AcDbLine
 10
-277.146758
 20
48.824278
 30
0.0
 11
-273.146758
 21
46.514877
 31
0.0
  0
LINE
  5
4AC
100
AcDbEntity
  8
2
 62
     2
100
AcDbLine
 10
-273.146758
 20
46.514877
 30
0.0
 11
-273.146758
 21
46.514877
 31
0.0
  0
LINE
  5
4AD
100
AcDbEntity
  8
2
 62
     2
100
AcDbLine
 10
-277.146758
 20
48.131458
 30
0.0
 11
-273.146758
 21
45.822057
 31
0.0
  0
LINE
  5
4AE
100
AcDbEntity
  8
2
 62
     2
100
AcDbLine
 10
-273.146758
 20
45.822057
 30
0.0
 11
-273.146758
 21
45.822057
 31
0.0
  0
LINE
  5
4AF
100
AcDbEntity
  8
2
 62
     2
100
AcDbLine
 10
-277.146758
 20
47.438638
 30
0.0
 11
-273.146758
 21
45.129237
 31
0.0
  0
LINE
  5
4B0
100
AcDbEntity
  8
2
 62
     2
100
AcDbLine
 10
-273.146758
 20
45.129237
 30
0.0
 11
-273.146758
 21
45.129237
 31
0.0
  0
LINE
  5
4B1
100
AcDbEntity
  8
2
 62
     2
100
AcDbLine
 10
-277.146758
 20
46.745817
 30
0.0
 11
-273.158747
 21
44.443338
 31
0.0
  0
LINE
  5
4B2
100
AcDbEntity
  8
2
 62
     2
100
AcDbLine
 10
-273.146758
 20
44.436416
 30
0.0
 11
-273.146758
 21
44.436416
 31
0.0
  0
LINE
  5
4B3
100
AcDbEntity
  8
2
 62
     2
100
AcDbLine
 10
-274.358747
 20
44.443338
 30
0.0
 11
-277.146758
 21
46.052997
 31
0.0
  0
LINE
  5
4B4
100
AcDbEntity
  8
2
 62
     2
100
AcDbLine
 10
-275.558747
 20
44.443338
 30
0.0
 11
-277.146758
 21
45.360177
 31
0.0
  0
LINE
  5
4B5
100
AcDbEntity
  8
2
 62
     2
100
AcDbLine
 10
-276.758747
 20
44.443338
 30
0.0
 11
-277.146758
 21
44.667356
 31
0.0
  0
LINE
  5
4B6
100
AcDbEntity
  8
2
  6
CENTER
 62
     2
100
AcDbLine
 10
-342.146758
 20
12.370787
 30
0.0
 11
-342.146758
 21
-4.545225
 31
0.0
  0
LINE
  5
4B7
100
AcDbEntity
  8
2
  6
CENTER
 62
     2
100
AcDbLine
 10
-196.146758
 20
12.370787
 30
0.0
 11
-196.146758
 21
-4.545225
 31
0.0
  0
LINE
  5
4B8
100
AcDbEntity
  8
2
  6
CENTER
 62
     2
100
AcDbLine
 10
-301.663263
 20
51.158784
 30
0.0
 11
-301.663263
 21
34.73836
 31
0.0
  0
LINE
  5
4B9
100
AcDbEntity
  8
2
  6
CENTER
 62
     2
100
AcDbLine
 10
-248.630254
 20
51.58864
 30
0.0
 11
-248.630254
 21
34.73836
 31
0.0
  0
LINE
  5
4BA
100
AcDbEntity
  8
2
100
AcDbLine
 10
-346.746758
 20
4.543338
 30
0.0
 11
-346.746758
 21
3.243338
 31
0.0
  0
LINE
  5
4BB
100
AcDbEntity
  8
2
100
AcDbLine
 10
-337.546758
 20
4.543338
 30
0.0
 11
-337.546758
 21
3.243338
 31
0.0
  0
LINE
  5
4BC
100
AcDbEntity
  8
2
100
AcDbLine
 10
-346.746758
 20
4.543338
 30
0.0
 11
-337.546758
 21
4.543338
 31
0.0
  0
LINE
  5
4BD
100
AcDbEntity
  8
2
100
AcDbLine
 10
-346.646758
 20
5.83083
 30
0.0
 11
-346.646758
 21
4.543338
 31
0.0
  0
LINE
  5
4BE
100
AcDbEntity
  8
2
100
AcDbLine
 10
-337.646758
 20
5.83083
 30
0.0
 11
-337.646758
 21
4.543338
 31
0.0
  0
ARC
  5
4BF
100
AcDbEntity
  8
2
100
AcDbCircle
 10
-342.146758
 20
-4.156662
 30
0.0
 40
12.0
100
AcDbArc
 50
73.808648
 51
106.191352
  0
ARC
  5
4C0
100
AcDbEntity
  8
2
100
AcDbCircle
 10
-345.046758
 20
5.83083
 30
0.0
 40
1.6
100
AcDbArc
 50
106.191352
 51
180.0
  0
ARC
  5
4C1
100
AcDbEntity
  8
2
100
AcDbCircle
 10
-339.246758
 20
5.83083
 30
0.0
 40
1.6
100
AcDbArc
 50
0.0
 51
73.808648
  0
LINE
  5
4C2
100
AcDbEntity
  8
2
100
AcDbLine
 10
-200.746758
 20
4.543338
 30
0.0
 11
-200.746758
 21
3.243338
 31
0.0
  0
LINE
  5
4C3
100
AcDbEntity
  8
2
100
AcDbLine
 10
-191.546758
 20
4.543338
 30
0.0
 11
-191.546758
 21
3.243338
 31
0.0
  0
LINE
  5
4C4
100
AcDbEntity
  8
2
100
AcDbLine
 10
-200.746758
 20
4.543338
 30
0.0
 11
-191.546758
 21
4.543338
 31
0.0
  0
LINE
  5
4C5
100
AcDbEntity
  8
2
100
AcDbLine
 10
-200.646758
 20
5.83083
 30
0.0
 11
-200.646758
 21
4.543338
 31
0.0
  0
LINE
  5
4C6
100
AcDbEntity
  8
2
100
AcDbLine
 10
-191.646758
 20
5.83083
 30
0.0
 11
-191.646758
 21
4.543338
 31
0.0
  0
ARC
  5
4C7
100
AcDbEntity
  8
2
100
AcDbCircle
 10
-196.146758
 20
-4.156662
 30
0.0
 40
12.0
100
AcDbArc
 50
73.808648
 51
106.191352
  0
ARC
  5
4C8
100
AcDbEntity
  8
2
100
AcDbCircle
 10
-199.046758
 20
5.83083
 30
0.0
 40
1.6
100
AcDbArc
 50
106.191352
 51
180.0
  0
ARC
  5
4C9
100
AcDbEntity
  8
2
100
AcDbCircle
 10
-193.246758
 20
5.83083
 30
0.0
 40
1.6
100
AcDbArc
 50
0.0
 51
73.808648
  0
LINE
  5
4CA
100
AcDbEntity
  8
2
100
AcDbLine
 10
-244.830254
 20
45.443338
 30
0.0
 11
-252.430254
 21
45.443338
 31
0.0
  0
LINE
  5
4CB
100
AcDbEntity
  8
2
100
AcDbLine
 10
-244.830254
 20
45.443338
 30
0.0
 11
-244.830254
 21
44.443338
 31
0.0
  0
LINE
  5
4CC
100
AcDbEntity
  8
2
100
AcDbLine
 10
-252.430254
 20
45.443338
 30
0.0
 11
-252.430254
 21
44.443338
 31
0.0
  0
LINE
  5
4CD
100
AcDbEntity
  8
2
100
AcDbLine
 10
-245.130254
 20
46.422363
 30
0.0
 11
-245.130254
 21
45.443338
 31
0.0
  0
LINE
  5
4CE
100
AcDbEntity
  8
2
100
AcDbLine
 10
-252.130254
 20
46.422363
 30
0.0
 11
-252.130254
 21
45.443338
 31
0.0
  0
ARC
  5
4CF
100
AcDbEntity
  8
2
100
AcDbCircle
 10
-246.430254
 20
46.422363
 30
0.0
 40
1.3
100
AcDbArc
 50
0.0
 51
73.39845
  0
ARC
  5
4D0
100
AcDbEntity
  8
2
100
AcDbCircle
 10
-250.830254
 20
46.422363
 30
0.0
 40
1.3
100
AcDbArc
 50
106.60155
 51
180.0
  0
LINE
  5
4D1
100
AcDbEntity
  8
2
100
AcDbLine
 10
-297.863263
 20
45.443338
 30
0.0
 11
-305.463263
 21
45.443338
 31
0.0
  0
LINE
  5
4D2
100
AcDbEntity
  8
2
100
AcDbLine
 10
-297.863263
 20
45.443338
 30
0.0
 11
-297.863263
 21
44.443338
 31
0.0
  0
LINE
  5
4D3
100
AcDbEntity
  8
2
100
AcDbLine
 10
-305.463263
 20
45.443338
 30
0.0
 11
-305.463263
 21
44.443338
 31
0.0
  0
LINE
  5
4D4
100
AcDbEntity
  8
2
100
AcDbLine
 10
-298.163263
 20
46.422363
 30
0.0
 11
-298.163263
 21
45.443338
 31
0.0
  0
LINE
  5
4D5
100
AcDbEntity
  8
2
100
AcDbLine
 10
-305.163263
 20
46.422363
 30
0.0
 11
-305.163263
 21
45.443338
 31
0.0
  0
ARC
  5
4D6
100
AcDbEntity
  8
2
100
AcDbCircle
 10
-299.463263
 20
46.422363
 30
0.0
 40
1.3
100
AcDbArc
 50
0.0
 51
73.39845
  0
ARC
  5
4D7
100
AcDbEntity
  8
2
100
AcDbCircle
 10
-303.863263
 20
46.422363
 30
0.0
 40
1.3
100
AcDbArc
 50
106.60155
 51
180.0
  0
LINE
  5
4D8
100
AcDbEntity
  8
2
100
AcDbLine
 10
-350.146758
 20
-4.756662
 30
0.0
 11
-350.146758
 21
-1.756662
 31
0.0
  0
LINE
  5
4D9
100
AcDbEntity
  8
2
100
AcDbLine
 10
-350.146758
 20
-1.756662
 30
0.0
 11
-339.180225
 21
28.37364
 31
0.0
  0
ARC
  5
4DA
100
AcDbEntity
  8
2
100
AcDbCircle
 10
-325.084836
 20
23.243338
 30
0.0
 40
15.0
100
AcDbArc
 50
90.0
 51
160.0
  0
ARC
  5
4DB
100
AcDbEntity
  8
2
100
AcDbCircle
 10
-201.146758
 20
4.243338
 30
0.0
 40
1.0
100
AcDbArc
 50
180.0
 51
270.0
  0
ARC
  5
4DC
100
AcDbEntity
  8
2
100
AcDbCircle
 10
-347.6267
 20
2.243338
 30
0.0
 40
1.0
100
AcDbArc
 50
90.0
 51
160.0
  0
ARC
  5
4DD
100
AcDbEntity
  8
2
100
AcDbCircle
 10
-337.146758
 20
4.243338
 30
0.0
 40
1.0
100
AcDbArc
 50
270.0
 51
360.0
  0
ARC
  5
4DE
100
AcDbEntity
  8
2
100
AcDbCircle
 10
-333.146758
 20
32.131837
 30
0.0
 40
3.0
100
AcDbArc
 50
132.208221
 51
180.0
  0
LINE
  5
4DF
100
AcDbEntity
  8
2
100
AcDbLine
 10
-350.146758
 20
-1.756662
 30
0.0
 11
-190.146758
 21
-1.756662
 31
0.0
  0
LINE
  5
4E0
100
AcDbEntity
  8
2
100
AcDbLine
 10
-190.146758
 20
-1.756662
 30
0.0
 11
-192.84767
 21
29.114896
 31
0.0
  0
ARC
  5
4E1
100
AcDbEntity
  8
2
100
AcDbCircle
 10
-202.809617
 20
28.243338
 30
0.0
 40
10.0
100
AcDbArc
 50
5.0
 51
90.0
  0
ARC
  5
4E2
100
AcDbEntity
  8
2
100
AcDbCircle
 10
-191.500533
 20
2.243338
 30
0.0
 40
1.0
100
AcDbArc
 50
5.0
 51
90.0
  0
TEXT
  5
4E3
100
AcDbEntity
  8
2
100
AcDbText
 10
-268.475054
 20
43.911268
 30
0.0
 40
7.6
  1
Ｓ
 50
31.641
 72
     5
 11
-263.298836
 21
47.100807
 31
0.0
100
AcDbText
  0
TEXT
  5
4E4
100
AcDbEntity
  8
2
100
AcDbText
 10
-268.901825
 20
43.650755
 30
0.0
 40
7.6
  1
Ｓ
 50
31.641
 72
     5
 11
-263.725607
 21
46.840295
 31
0.0
100
AcDbText
  0
TEXT
  5
4E5
100
AcDbEntity
  8
2
100
AcDbText
 10
-269.328596
 20
43.390243
 30
0.0
 40
7.6
  1
Ｓ
 50
31.641
 72
     5
 11
-264.152377
 21
46.579782
 31
0.0
100
AcDbText
  0
LINE
  5
4E6
100
AcDbEntity
  8
2
100
AcDbLine
 10
-318.146758
 20
-110.756662
 30
0.0
 11
-232.146758
 21
-110.756662
 31
0.0
  0
ARC
  5
4E7
100
AcDbEntity
  8
2
100
AcDbCircle
 10
-149.74926
 20
-94.256662
 30
0.0
 40
59.0
100
AcDbArc
 50
130.817217
 51
173.528051
  0
LINE
  5
4E8
100
AcDbEntity
  8
2
100
AcDbLine
 10
-185.972155
 20
-9.756662
 30
0.0
 11
-182.146758
 21
-9.756662
 31
0.0
  0
LINE
  5
4E9
100
AcDbEntity
  8
2
100
AcDbLine
 10
-182.146758
 20
-9.756662
 30
0.0
 11
-182.146758
 21
-45.756662
 31
0.0
  0
LINE
  5
4EA
100
AcDbEntity
  8
2
100
AcDbLine
 10
-182.146758
 20
-9.756662
 30
0.0
 11
-181.146758
 21
-10.756662
 31
0.0
  0
LINE
  5
4EB
100
AcDbEntity
  8
2
100
AcDbLine
 10
-181.146758
 20
-10.756662
 30
0.0
 11
-181.146758
 21
-44.756662
 31
0.0
  0
LINE
  5
4EC
100
AcDbEntity
  8
2
100
AcDbLine
 10
-181.146758
 20
-44.756662
 30
0.0
 11
-182.146758
 21
-45.756662
 31
0.0
  0
LINE
  5
4ED
100
AcDbEntity
  8
2
100
AcDbLine
 10
-182.146758
 20
-45.756662
 30
0.0
 11
-184.914678
 21
-45.756662
 31
0.0
  0
ARC
  5
4EE
100
AcDbEntity
  8
2
100
AcDbCircle
 10
-201.803646
 20
-85.756662
 30
0.0
 40
10.0
100
AcDbArc
 50
270.0
 51
358.0
  0
LINE
  5
4EF
100
AcDbEntity
  8
2
100
AcDbLine
 10
-201.803646
 20
-95.756662
 30
0.0
 11
-209.597662
 21
-95.756662
 31
0.0
  0
ARC
  5
4F0
100
AcDbEntity
  8
2
100
AcDbCircle
 10
-321.646758
 20
-74.756662
 30
0.0
 40
114.0
100
AcDbArc
 50
347.787475
 51
360.0
  0
ARC
  5
4F1
100
AcDbEntity
  8
2
100
AcDbCircle
 10
-220.000312
 20
-96.756662
 30
0.0
 40
10.0
100
AcDbArc
 50
270.0
 51
347.787475
  0
ARC
  5
4F2
100
AcDbEntity
  8
2
100
AcDbCircle
 10
-321.646758
 20
-60.756662
 30
0.0
 40
114.0
100
AcDbArc
 50
0.0
 51
13.342364
  0
LINE
  5
4F3
100
AcDbEntity
  8
2
100
AcDbLine
 10
-207.646758
 20
-60.756662
 30
0.0
 11
-207.646758
 21
-74.756662
 31
0.0
  0
ARC
  5
4F4
100
AcDbEntity
  8
2
100
AcDbCircle
 10
-261.146758
 20
-55.756662
 30
0.0
 40
114.0
100
AcDbArc
 50
169.473381
 51
180.0
  0
ARC
  5
4F5
100
AcDbEntity
  8
2
100
AcDbCircle
 10
-350.146758
 20
-14.756662
 30
0.0
 40
10.0
100
AcDbArc
 50
90.0
 51
169.993627
  0
LINE
  5
4F6
100
AcDbEntity
  8
2
100
AcDbLine
 10
-375.146758
 20
-55.756662
 30
0.0
 11
-375.146758
 21
-79.756662
 31
0.0
  0
ARC
  5
4F7
100
AcDbEntity
  8
2
100
AcDbCircle
 10
-261.146758
 20
-79.756662
 30
0.0
 40
114.0
100
AcDbArc
 50
180.0
 51
189.407874
  0
ARC
  5
4F8
100
AcDbEntity
  8
2
100
AcDbCircle
 10
-363.747928
 20
-96.756662
 30
0.0
 40
10.0
100
AcDbArc
 50
189.407874
 51
270.0
  0
LINE
  5
4F9
100
AcDbEntity
  8
2
100
AcDbLine
 10
-363.747928
 20
-106.756662
 30
0.0
 11
-220.000312
 21
-106.756662
 31
0.0
  0
ARC
  5
4FA
100
AcDbEntity
  8
2
100
AcDbCircle
 10
-220.453873
 20
-36.756662
 30
0.0
 40
10.0
100
AcDbArc
 50
13.342364
 51
90.0
  0
LINE
  5
4FB
100
AcDbEntity
  8
2
100
AcDbLine
 10
-363.396453
 20
-26.756662
 30
0.0
 11
-220.453873
 21
-26.756662
 31
0.0
  0
ARC
  5
4FC
100
AcDbEntity
  8
2
100
AcDbCircle
 10
-363.396453
 20
-36.756662
 30
0.0
 40
10.0
100
AcDbArc
 50
90.0
 51
169.473381
  0
LINE
  5
4FD
100
AcDbEntity
  8
2
100
AcDbLine
 10
-191.809738
 20
-86.105657
 30
0.0
 11
-190.608065
 21
-51.69426
 31
0.0
  0
LINE
  5
4FE
100
AcDbEntity
  8
2
100
AcDbLine
 10
-362.418524
 20
-26.756662
 30
0.0
 11
-359.994643
 21
-13.019085
 31
0.0
  0
LINE
  5
4FF
100
AcDbEntity
  8
2
100
AcDbLine
 10
-350.146758
 20
-4.756662
 30
0.0
 11
-190.009513
 21
-4.756662
 31
0.0
  0
ARC
  5
500
100
AcDbEntity
  8
2
100
AcDbCircle
 10
-190.009513
 20
-8.756662
 30
0.0
 40
4.0
100
AcDbArc
 50
2.0
 51
90.0
  0
LINE
  5
501
100
AcDbEntity
  8
2
100
AcDbLine
 10
-232.146758
 20
-110.756662
 30
0.0
 11
-232.007075
 21
-106.756662
 31
0.0
  0
LINE
  5
502
100
AcDbEntity
  8
2
100
AcDbLine
 10
-310.146758
 20
-110.756662
 30
0.0
 11
-310.286441
 21
-106.756662
 31
0.0
  0
LINE
  5
503
100
AcDbEntity
  8
2
100
AcDbLine
 10
-240.146758
 20
-110.756662
 30
0.0
 11
-240.007075
 21
-106.756662
 31
0.0
  0
LINE
  5
504
100
AcDbEntity
  8
2
100
AcDbLine
 10
-318.146758
 20
-110.756662
 30
0.0
 11
-318.286441
 21
-106.756662
 31
0.0
  0
LINE
  5
505
100
AcDbEntity
  8
2
100
AcDbLine
 10
-186.01195
 20
-8.617064
 30
0.0
 11
-184.857067
 21
-41.688558
 31
0.0
  0
ARC
  5
506
100
AcDbEntity
  8
2
100
AcDbCircle
 10
-194.850976
 20
-42.037553
 30
0.0
 40
10.0
100
AcDbArc
 50
310.817217
 51
2.000002
  0
ARC
  5
507
100
AcDbEntity
  8
2
100
AcDbCircle
 10
-184.914678
 20
-46.756662
 30
0.0
 40
1.0
100
AcDbArc
 50
90.0
 51
154.595261
  0
LINE
  5
508
100
AcDbEntity
  8
2
100
AcDbLine
 10
-173.146758
 20
-14.756662
 30
0.0
 11
-173.146758
 21
-40.756662
 31
0.0
  0
LINE
  5
509
100
AcDbEntity
  8
2
100
AcDbLine
 10
-178.146758
 20
-14.756662
 30
0.0
 11
-178.146758
 21
-40.756662
 31
0.0
  0
LINE
  5
50A
100
AcDbEntity
  8
2
100
AcDbLine
 10
-173.146758
 20
-14.756662
 30
0.0
 11
-178.146758
 21
-14.756662
 31
0.0
  0
LINE
  5
50B
100
AcDbEntity
  8
2
100
AcDbLine
 10
-178.146758
 20
-18.756662
 30
0.0
 11
-181.146758
 21
-18.756662
 31
0.0
  0
ARC
  5
50C
100
AcDbEntity
  8
2
100
AcDbCircle
 10
-191.350925
 20
-21.256662
 30
0.0
 40
18.204167
100
AcDbArc
 50
339.080182
 51
20.919818
  0
LINE
  5
50D
100
AcDbEntity
  8
2
100
AcDbLine
 10
-173.146758
 20
-40.756662
 30
0.0
 11
-178.146758
 21
-40.756662
 31
0.0
  0
LINE
  5
50E
100
AcDbEntity
  8
2
100
AcDbLine
 10
-181.146758
 20
-36.756662
 30
0.0
 11
-178.146758
 21
-36.756662
 31
0.0
  0
ARC
  5
50F
100
AcDbEntity
  8
2
100
AcDbCircle
 10
-191.350925
 20
-34.256662
 30
0.0
 40
18.204167
100
AcDbArc
 50
339.080182
 51
20.919818
  0
LINE
  5
510
100
AcDbEntity
  8
2
100
AcDbLine
 10
-174.346758
 20
-27.756662
 30
0.0
 11
-178.146758
 21
-27.756662
 31
0.0
  0
POLYLINE
  5
511
100
AcDbEntity
  8
2
100
AcDb2dPolyline
 66
     1
 10
0.0
 20
0.0
 30
0.0
 70
     1
  0
VERTEX
  5
863
100
AcDbEntity
  8
2
100
AcDbVertex
100
AcDb2dVertex
 10
-178.246758
 20
-17.756662
 30
0.0
  0
VERTEX
  5
864
100
AcDbEntity
  8
2
100
AcDbVertex
100
AcDb2dVertex
 10
-178.275044
 20
-17.556662
 30
0.0
  0
VERTEX
  5
865
100
AcDbEntity
  8
2
100
AcDbVertex
100
AcDb2dVertex
 10
-178.363637
 20
-17.356662
 30
0.0
  0
VERTEX
  5
866
100
AcDbEntity
  8
2
100
AcDbVertex
100
AcDb2dVertex
 10
-178.526758
 20
-17.156662
 30
0.0
  0
VERTEX
  5
867
100
AcDbEntity
  8
2
100
AcDbVertex
100
AcDb2dVertex
 10
-178.806758
 20
-16.956662
 30
0.0
  0
VERTEX
  5
868
100
AcDbEntity
  8
2
100
AcDbVertex
100
AcDb2dVertex
 10
-179.646758
 20
-16.756662
 30
0.0
  0
VERTEX
  5
869
100
AcDbEntity
  8
2
100
AcDbVertex
100
AcDb2dVertex
 10
-180.486758
 20
-16.956662
 30
0.0
  0
VERTEX
  5
86A
100
AcDbEntity
  8
2
100
AcDbVertex
100
AcDb2dVertex
 10
-180.766758
 20
-17.156662
 30
0.0
  0
VERTEX
  5
86B
100
AcDbEntity
  8
2
100
AcDbVertex
100
AcDb2dVertex
 10
-180.929879
 20
-17.356662
 30
0.0
  0
VERTEX
  5
86C
100
AcDbEntity
  8
2
100
AcDbVertex
100
AcDb2dVertex
 10
-181.018473
 20
-17.556662
 30
0.0
  0
VERTEX
  5
86D
100
AcDbEntity
  8
2
100
AcDbVertex
100
AcDb2dVertex
 10
-181.046758
 20
-17.756662
 30
0.0
  0
VERTEX
  5
86E
100
AcDbEntity
  8
2
100
AcDbVertex
100
AcDb2dVertex
 10
-181.018473
 20
-17.956662
 30
0.0
  0
VERTEX
  5
86F
100
AcDbEntity
  8
2
100
AcDbVertex
100
AcDb2dVertex
 10
-180.929879
 20
-18.156662
 30
0.0
  0
VERTEX
  5
870
100
AcDbEntity
  8
2
100
AcDbVertex
100
AcDb2dVertex
 10
-180.766758
 20
-18.356662
 30
0.0
  0
VERTEX
  5
871
100
AcDbEntity
  8
2
100
AcDbVertex
100
AcDb2dVertex
 10
-180.486758
 20
-18.556662
 30
0.0
  0
VERTEX
  5
872
100
AcDbEntity
  8
2
100
AcDbVertex
100
AcDb2dVertex
 10
-179.646758
 20
-18.756662
 30
0.0
  0
VERTEX
  5
873
100
AcDbEntity
  8
2
100
AcDbVertex
100
AcDb2dVertex
 10
-178.806758
 20
-18.556662
 30
0.0
  0
VERTEX
  5
874
100
AcDbEntity
  8
2
100
AcDbVertex
100
AcDb2dVertex
 10
-178.526758
 20
-18.356662
 30
0.0
  0
VERTEX
  5
875
100
AcDbEntity
  8
2
100
AcDbVertex
100
AcDb2dVertex
 10
-178.363637
 20
-18.156662
 30
0.0
  0
VERTEX
  5
876
100
AcDbEntity
  8
2
100
AcDbVertex
100
AcDb2dVertex
 10
-178.275044
 20
-17.956662
 30
0.0
  0
VERTEX
  5
877
100
AcDbEntity
  8
2
100
AcDbVertex
100
AcDb2dVertex
 10
-178.246758
 20
-17.756662
 30
0.0
  0
SEQEND
  5
878
100
AcDbEntity
  8
2
  0
POLYLINE
  5
528
100
AcDbEntity
  8
2
100
AcDb2dPolyline
 66
     1
 10
0.0
 20
0.0
 30
0.0
 70
     1
  0
VERTEX
  5
879
100
AcDbEntity
  8
2
100
AcDbVertex
100
AcDb2dVertex
 10
-178.246758
 20
-37.756662
 30
0.0
  0
VERTEX
  5
87A
100
AcDbEntity
  8
2
100
AcDbVertex
100
AcDb2dVertex
 10
-178.275044
 20
-37.556662
 30
0.0
  0
VERTEX
  5
87B
100
AcDbEntity
  8
2
100
AcDbVertex
100
AcDb2dVertex
 10
-178.363637
 20
-37.356662
 30
0.0
  0
VERTEX
  5
87C
100
AcDbEntity
  8
2
100
AcDbVertex
100
AcDb2dVertex
 10
-178.526758
 20
-37.156662
 30
0.0
  0
VERTEX
  5
87D
100
AcDbEntity
  8
2
100
AcDbVertex
100
AcDb2dVertex
 10
-178.806758
 20
-36.956662
 30
0.0
  0
VERTEX
  5
87E
100
AcDbEntity
  8
2
100
AcDbVertex
100
AcDb2dVertex
 10
-179.646758
 20
-36.756662
 30
0.0
  0
VERTEX
  5
87F
100
AcDbEntity
  8
2
100
AcDbVertex
100
AcDb2dVertex
 10
-180.486758
 20
-36.956662
 30
0.0
  0
VERTEX
  5
880
100
AcDbEntity
  8
2
100
AcDbVertex
100
AcDb2dVertex
 10
-180.766758
 20
-37.156662
 30
0.0
  0
VERTEX
  5
881
100
AcDbEntity
  8
2
100
AcDbVertex
100
AcDb2dVertex
 10
-180.929879
 20
-37.356662
 30
0.0
  0
VERTEX
  5
882
100
AcDbEntity
  8
2
100
AcDbVertex
100
AcDb2dVertex
 10
-181.018473
 20
-37.556662
 30
0.0
  0
VERTEX
  5
883
100
AcDbEntity
  8
2
100
AcDbVertex
100
AcDb2dVertex
 10
-181.046758
 20
-37.756662
 30
0.0
  0
VERTEX
  5
884
100
AcDbEntity
  8
2
100
AcDbVertex
100
AcDb2dVertex
 10
-181.018473
 20
-37.956662
 30
0.0
  0
VERTEX
  5
885
100
AcDbEntity
  8
2
100
AcDbVertex
100
AcDb2dVertex
 10
-180.929879
 20
-38.156662
 30
0.0
  0
VERTEX
  5
886
100
AcDbEntity
  8
2
100
AcDbVertex
100
AcDb2dVertex
 10
-180.766758
 20
-38.356662
 30
0.0
  0
VERTEX
  5
887
100
AcDbEntity
  8
2
100
AcDbVertex
100
AcDb2dVertex
 10
-180.486758
 20
-38.556662
 30
0.0
  0
VERTEX
  5
888
100
AcDbEntity
  8
2
100
AcDbVertex
100
AcDb2dVertex
 10
-179.646758
 20
-38.756662
 30
0.0
  0
VERTEX
  5
889
100
AcDbEntity
  8
2
100
AcDbVertex
100
AcDb2dVertex
 10
-178.806758
 20
-38.556662
 30
0.0
  0
VERTEX
  5
88A
100
AcDbEntity
  8
2
100
AcDbVertex
100
AcDb2dVertex
 10
-178.526758
 20
-38.356662
 30
0.0
  0
VERTEX
  5
88B
100
AcDbEntity
  8
2
100
AcDbVertex
100
AcDb2dVertex
 10
-178.363637
 20
-38.156662
 30
0.0
  0
VERTEX
  5
88C
100
AcDbEntity
  8
2
100
AcDbVertex
100
AcDb2dVertex
 10
-178.275044
 20
-37.956662
 30
0.0
  0
VERTEX
  5
88D
100
AcDbEntity
  8
2
100
AcDbVertex
100
AcDb2dVertex
 10
-178.246758
 20
-37.756662
 30
0.0
  0
SEQEND
  5
88E
100
AcDbEntity
  8
2
  0
CIRCLE
  5
53F
100
AcDbEntity
  8
2
100
AcDbCircle
 10
-361.146758
 20
-33.256662
 30
0.0
 40
4.75
  0
LINE
  5
540
100
AcDbEntity
  8
2
100
AcDbLine
 10
-358.696758
 20
-33.756662
 30
0.0
 11
-358.696758
 21
-32.756662
 31
0.0
  0
LINE
  5
541
100
AcDbEntity
  8
2
100
AcDbLine
 10
-363.596758
 20
-33.756662
 30
0.0
 11
-363.596758
 21
-32.756662
 31
0.0
  0
LINE
  5
542
100
AcDbEntity
  8
2
100
AcDbLine
 10
-361.646758
 20
-30.806662
 30
0.0
 11
-360.646758
 21
-30.806662
 31
0.0
  0
LINE
  5
543
100
AcDbEntity
  8
2
100
AcDbLine
 10
-360.646758
 20
-35.706662
 30
0.0
 11
-360.646758
 21
-34.756662
 31
0.0
  0
LINE
  5
544
100
AcDbEntity
  8
2
100
AcDbLine
 10
-360.646758
 20
-31.756662
 30
0.0
 11
-360.646758
 21
-30.806662
 31
0.0
  0
LINE
  5
545
100
AcDbEntity
  8
2
100
AcDbLine
 10
-363.596758
 20
-33.756662
 30
0.0
 11
-362.646758
 21
-33.756662
 31
0.0
  0
LINE
  5
546
100
AcDbEntity
  8
2
100
AcDbLine
 10
-359.646758
 20
-33.756662
 30
0.0
 11
-358.696758
 21
-33.756662
 31
0.0
  0
LINE
  5
547
100
AcDbEntity
  8
2
100
AcDbLine
 10
-361.646758
 20
-35.706662
 30
0.0
 11
-361.646758
 21
-34.756662
 31
0.0
  0
LINE
  5
548
100
AcDbEntity
  8
2
100
AcDbLine
 10
-361.646758
 20
-31.756662
 30
0.0
 11
-361.646758
 21
-30.806662
 31
0.0
  0
LINE
  5
549
100
AcDbEntity
  8
2
100
AcDbLine
 10
-363.596758
 20
-32.756662
 30
0.0
 11
-362.646758
 21
-32.756662
 31
0.0
  0
LINE
  5
54A
100
AcDbEntity
  8
2
100
AcDbLine
 10
-359.646758
 20
-32.756662
 30
0.0
 11
-358.696758
 21
-32.756662
 31
0.0
  0
ARC
  5
54B
100
AcDbEntity
  8
2
100
AcDbCircle
 10
-359.646758
 20
-31.756662
 30
0.0
 40
1.0
100
AcDbArc
 50
180.0
 51
270.0
  0
ARC
  5
54C
100
AcDbEntity
  8
2
100
AcDbCircle
 10
-362.646758
 20
-31.756662
 30
0.0
 40
1.0
100
AcDbArc
 50
270.0
 51
0.0
  0
ARC
  5
54D
100
AcDbEntity
  8
2
100
AcDbCircle
 10
-362.646758
 20
-34.756662
 30
0.0
 40
1.0
100
AcDbArc
 50
0.0
 51
90.0
  0
ARC
  5
54E
100
AcDbEntity
  8
2
100
AcDbCircle
 10
-359.646758
 20
-34.756662
 30
0.0
 40
1.0
100
AcDbArc
 50
90.0
 51
180.0
  0
LINE
  5
54F
100
AcDbEntity
  8
2
100
AcDbLine
 10
-361.646758
 20
-35.706662
 30
0.0
 11
-360.646758
 21
-35.706662
 31
0.0
  0
CIRCLE
  5
550
100
AcDbEntity
  8
2
100
AcDbCircle
 10
-363.146758
 20
-99.756662
 30
0.0
 40
4.75
  0
LINE
  5
551
100
AcDbEntity
  8
2
100
AcDbLine
 10
-360.696758
 20
-100.256662
 30
0.0
 11
-360.696758
 21
-99.256662
 31
0.0
  0
LINE
  5
552
100
AcDbEntity
  8
2
100
AcDbLine
 10
-365.596758
 20
-100.256662
 30
0.0
 11
-365.596758
 21
-99.256662
 31
0.0
  0
LINE
  5
553
100
AcDbEntity
  8
2
100
AcDbLine
 10
-363.646758
 20
-97.306662
 30
0.0
 11
-362.646758
 21
-97.306662
 31
0.0
  0
LINE
  5
554
100
AcDbEntity
  8
2
100
AcDbLine
 10
-362.646758
 20
-102.206662
 30
0.0
 11
-362.646758
 21
-101.256662
 31
0.0
  0
LINE
  5
555
100
AcDbEntity
  8
2
100
AcDbLine
 10
-362.646758
 20
-98.256662
 30
0.0
 11
-362.646758
 21
-97.306662
 31
0.0
  0
LINE
  5
556
100
AcDbEntity
  8
2
100
AcDbLine
 10
-365.596758
 20
-100.256662
 30
0.0
 11
-364.646758
 21
-100.256662
 31
0.0
  0
LINE
  5
557
100
AcDbEntity
  8
2
100
AcDbLine
 10
-361.646758
 20
-100.256662
 30
0.0
 11
-360.696758
 21
-100.256662
 31
0.0
  0
LINE
  5
558
100
AcDbEntity
  8
2
100
AcDbLine
 10
-363.646758
 20
-102.206662
 30
0.0
 11
-363.646758
 21
-101.256662
 31
0.0
  0
LINE
  5
559
100
AcDbEntity
  8
2
100
AcDbLine
 10
-363.646758
 20
-98.256662
 30
0.0
 11
-363.646758
 21
-97.306662
 31
0.0
  0
LINE
  5
55A
100
AcDbEntity
  8
2
100
AcDbLine
 10
-365.596758
 20
-99.256662
 30
0.0
 11
-364.646758
 21
-99.256662
 31
0.0
  0
LINE
  5
55B
100
AcDbEntity
  8
2
100
AcDbLine
 10
-361.646758
 20
-99.256662
 30
0.0
 11
-360.696758
 21
-99.256662
 31
0.0
  0
ARC
  5
55C
100
AcDbEntity
  8
2
100
AcDbCircle
 10
-361.646758
 20
-98.256662
 30
0.0
 40
1.0
100
AcDbArc
 50
180.0
 51
270.0
  0
ARC
  5
55D
100
AcDbEntity
  8
2
100
AcDbCircle
 10
-364.646758
 20
-98.256662
 30
0.0
 40
1.0
100
AcDbArc
 50
270.0
 51
0.0
  0
ARC
  5
55E
100
AcDbEntity
  8
2
100
AcDbCircle
 10
-364.646758
 20
-101.256662
 30
0.0
 40
1.0
100
AcDbArc
 50
0.0
 51
90.0
  0
ARC
  5
55F
100
AcDbEntity
  8
2
100
AcDbCircle
 10
-361.646758
 20
-101.256662
 30
0.0
 40
1.0
100
AcDbArc
 50
90.0
 51
180.0
  0
LINE
  5
560
100
AcDbEntity
  8
2
100
AcDbLine
 10
-363.646758
 20
-102.206662
 30
0.0
 11
-362.646758
 21
-102.206662
 31
0.0
  0
CIRCLE
  5
561
100
AcDbEntity
  8
2
100
AcDbCircle
 10
-303.646758
 20
-101.756662
 30
0.0
 40
4.75
  0
LINE
  5
562
100
AcDbEntity
  8
2
100
AcDbLine
 10
-301.196758
 20
-102.256662
 30
0.0
 11
-301.196758
 21
-101.256662
 31
0.0
  0
LINE
  5
563
100
AcDbEntity
  8
2
100
AcDbLine
 10
-306.096758
 20
-102.256662
 30
0.0
 11
-306.096758
 21
-101.256662
 31
0.0
  0
LINE
  5
564
100
AcDbEntity
  8
2
100
AcDbLine
 10
-304.146758
 20
-99.306662
 30
0.0
 11
-303.146758
 21
-99.306662
 31
0.0
  0
LINE
  5
565
100
AcDbEntity
  8
2
100
AcDbLine
 10
-303.146758
 20
-104.206662
 30
0.0
 11
-303.146758
 21
-103.256662
 31
0.0
  0
LINE
  5
566
100
AcDbEntity
  8
2
100
AcDbLine
 10
-303.146758
 20
-100.256662
 30
0.0
 11
-303.146758
 21
-99.306662
 31
0.0
  0
LINE
  5
567
100
AcDbEntity
  8
2
100
AcDbLine
 10
-306.096758
 20
-102.256662
 30
0.0
 11
-305.146758
 21
-102.256662
 31
0.0
  0
LINE
  5
568
100
AcDbEntity
  8
2
100
AcDbLine
 10
-302.146758
 20
-102.256662
 30
0.0
 11
-301.196758
 21
-102.256662
 31
0.0
  0
LINE
  5
569
100
AcDbEntity
  8
2
100
AcDbLine
 10
-304.146758
 20
-104.206662
 30
0.0
 11
-304.146758
 21
-103.256662
 31
0.0
  0
LINE
  5
56A
100
AcDbEntity
  8
2
100
AcDbLine
 10
-304.146758
 20
-100.256662
 30
0.0
 11
-304.146758
 21
-99.306662
 31
0.0
  0
LINE
  5
56B
100
AcDbEntity
  8
2
100
AcDbLine
 10
-306.096758
 20
-101.256662
 30
0.0
 11
-305.146758
 21
-101.256662
 31
0.0
  0
LINE
  5
56C
100
AcDbEntity
  8
2
100
AcDbLine
 10
-302.146758
 20
-101.256662
 30
0.0
 11
-301.196758
 21
-101.256662
 31
0.0
  0
ARC
  5
56D
100
AcDbEntity
  8
2
100
AcDbCircle
 10
-302.146758
 20
-100.256662
 30
0.0
 40
1.0
100
AcDbArc
 50
180.0
 51
270.0
  0
ARC
  5
56E
100
AcDbEntity
  8
2
100
AcDbCircle
 10
-305.146758
 20
-100.256662
 30
0.0
 40
1.0
100
AcDbArc
 50
270.0
 51
0.0
  0
ARC
  5
56F
100
AcDbEntity
  8
2
100
AcDbCircle
 10
-305.146758
 20
-103.256662
 30
0.0
 40
1.0
100
AcDbArc
 50
0.0
 51
90.0
  0
ARC
  5
570
100
AcDbEntity
  8
2
100
AcDbCircle
 10
-302.146758
 20
-103.256662
 30
0.0
 40
1.0
100
AcDbArc
 50
90.0
 51
180.0
  0
LINE
  5
571
100
AcDbEntity
  8
2
100
AcDbLine
 10
-304.146758
 20
-104.206662
 30
0.0
 11
-303.146758
 21
-104.206662
 31
0.0
  0
CIRCLE
  5
572
100
AcDbEntity
  8
2
100
AcDbCircle
 10
-220.146758
 20
-99.756662
 30
0.0
 40
4.75
  0
LINE
  5
573
100
AcDbEntity
  8
2
100
AcDbLine
 10
-217.696758
 20
-100.256662
 30
0.0
 11
-217.696758
 21
-99.256662
 31
0.0
  0
LINE
  5
574
100
AcDbEntity
  8
2
100
AcDbLine
 10
-222.596758
 20
-100.256662
 30
0.0
 11
-222.596758
 21
-99.256662
 31
0.0
  0
LINE
  5
575
100
AcDbEntity
  8
2
100
AcDbLine
 10
-220.646758
 20
-97.306662
 30
0.0
 11
-219.646758
 21
-97.306662
 31
0.0
  0
LINE
  5
576
100
AcDbEntity
  8
2
100
AcDbLine
 10
-219.646758
 20
-102.206662
 30
0.0
 11
-219.646758
 21
-101.256662
 31
0.0
  0
LINE
  5
577
100
AcDbEntity
  8
2
100
AcDbLine
 10
-219.646758
 20
-98.256662
 30
0.0
 11
-219.646758
 21
-97.306662
 31
0.0
  0
LINE
  5
578
100
AcDbEntity
  8
2
100
AcDbLine
 10
-222.596758
 20
-100.256662
 30
0.0
 11
-221.646758
 21
-100.256662
 31
0.0
  0
LINE
  5
579
100
AcDbEntity
  8
2
100
AcDbLine
 10
-218.646758
 20
-100.256662
 30
0.0
 11
-217.696758
 21
-100.256662
 31
0.0
  0
LINE
  5
57A
100
AcDbEntity
  8
2
100
AcDbLine
 10
-220.646758
 20
-102.206662
 30
0.0
 11
-220.646758
 21
-101.256662
 31
0.0
  0
LINE
  5
57B
100
AcDbEntity
  8
2
100
AcDbLine
 10
-220.646758
 20
-98.256662
 30
0.0
 11
-220.646758
 21
-97.306662
 31
0.0
  0
LINE
  5
57C
100
AcDbEntity
  8
2
100
AcDbLine
 10
-222.596758
 20
-99.256662
 30
0.0
 11
-221.646758
 21
-99.256662
 31
0.0
  0
LINE
  5
57D
100
AcDbEntity
  8
2
100
AcDbLine
 10
-218.646758
 20
-99.256662
 30
0.0
 11
-217.696758
 21
-99.256662
 31
0.0
  0
ARC
  5
57E
100
AcDbEntity
  8
2
100
AcDbCircle
 10
-218.646758
 20
-98.256662
 30
0.0
 40
1.0
100
AcDbArc
 50
180.0
 51
270.0
  0
ARC
  5
57F
100
AcDbEntity
  8
2
100
AcDbCircle
 10
-221.646758
 20
-98.256662
 30
0.0
 40
1.0
100
AcDbArc
 50
270.0
 51
0.0
  0
ARC
  5
580
100
AcDbEntity
  8
2
100
AcDbCircle
 10
-221.646758
 20
-101.256662
 30
0.0
 40
1.0
100
AcDbArc
 50
0.0
 51
90.0
  0
ARC
  5
581
100
AcDbEntity
  8
2
100
AcDbCircle
 10
-218.646758
 20
-101.256662
 30
0.0
 40
1.0
100
AcDbArc
 50
90.0
 51
180.0
  0
LINE
  5
582
100
AcDbEntity
  8
2
100
AcDbLine
 10
-220.646758
 20
-102.206662
 30
0.0
 11
-219.646758
 21
-102.206662
 31
0.0
  0
CIRCLE
  5
583
100
AcDbEntity
  8
2
100
AcDbCircle
 10
-222.146758
 20
-33.256662
 30
0.0
 40
4.75
  0
LINE
  5
584
100
AcDbEntity
  8
2
100
AcDbLine
 10
-219.696758
 20
-33.756662
 30
0.0
 11
-219.696758
 21
-32.756662
 31
0.0
  0
LINE
  5
585
100
AcDbEntity
  8
2
100
AcDbLine
 10
-224.596758
 20
-33.756662
 30
0.0
 11
-224.596758
 21
-32.756662
 31
0.0
  0
LINE
  5
586
100
AcDbEntity
  8
2
100
AcDbLine
 10
-222.646758
 20
-30.806662
 30
0.0
 11
-221.646758
 21
-30.806662
 31
0.0
  0
LINE
  5
587
100
AcDbEntity
  8
2
100
AcDbLine
 10
-221.646758
 20
-35.706662
 30
0.0
 11
-221.646758
 21
-34.756662
 31
0.0
  0
LINE
  5
588
100
AcDbEntity
  8
2
100
AcDbLine
 10
-221.646758
 20
-31.756662
 30
0.0
 11
-221.646758
 21
-30.806662
 31
0.0
  0
LINE
  5
589
100
AcDbEntity
  8
2
100
AcDbLine
 10
-224.596758
 20
-33.756662
 30
0.0
 11
-223.646758
 21
-33.756662
 31
0.0
  0
LINE
  5
58A
100
AcDbEntity
  8
2
100
AcDbLine
 10
-220.646758
 20
-33.756662
 30
0.0
 11
-219.696758
 21
-33.756662
 31
0.0
  0
LINE
  5
58B
100
AcDbEntity
  8
2
100
AcDbLine
 10
-222.646758
 20
-35.706662
 30
0.0
 11
-222.646758
 21
-34.756662
 31
0.0
  0
LINE
  5
58C
100
AcDbEntity
  8
2
100
AcDbLine
 10
-222.646758
 20
-31.756662
 30
0.0
 11
-222.646758
 21
-30.806662
 31
0.0
  0
LINE
  5
58D
100
AcDbEntity
  8
2
100
AcDbLine
 10
-224.596758
 20
-32.756662
 30
0.0
 11
-223.646758
 21
-32.756662
 31
0.0
  0
LINE
  5
58E
100
AcDbEntity
  8
2
100
AcDbLine
 10
-220.646758
 20
-32.756662
 30
0.0
 11
-219.696758
 21
-32.756662
 31
0.0
  0
ARC
  5
58F
100
AcDbEntity
  8
2
100
AcDbCircle
 10
-220.646758
 20
-31.756662
 30
0.0
 40
1.0
100
AcDbArc
 50
180.0
 51
270.0
  0
ARC
  5
590
100
AcDbEntity
  8
2
100
AcDbCircle
 10
-223.646758
 20
-31.756662
 30
0.0
 40
1.0
100
AcDbArc
 50
270.0
 51
0.0
  0
ARC
  5
591
100
AcDbEntity
  8
2
100
AcDbCircle
 10
-223.646758
 20
-34.756662
 30
0.0
 40
1.0
100
AcDbArc
 50
0.0
 51
90.0
  0
ARC
  5
592
100
AcDbEntity
  8
2
100
AcDbCircle
 10
-220.646758
 20
-34.756662
 30
0.0
 40
1.0
100
AcDbArc
 50
90.0
 51
180.0
  0
LINE
  5
593
100
AcDbEntity
  8
2
100
AcDbLine
 10
-222.646758
 20
-35.706662
 30
0.0
 11
-221.646758
 21
-35.706662
 31
0.0
  0
CIRCLE
  5
594
100
AcDbEntity
  8
2
100
AcDbCircle
 10
-303.646758
 20
-33.756662
 30
0.0
 40
4.75
  0
LINE
  5
595
100
AcDbEntity
  8
2
100
AcDbLine
 10
-301.196758
 20
-34.256662
 30
0.0
 11
-301.196758
 21
-33.256662
 31
0.0
  0
LINE
  5
596
100
AcDbEntity
  8
2
100
AcDbLine
 10
-306.096758
 20
-34.256662
 30
0.0
 11
-306.096758
 21
-33.256662
 31
0.0
  0
LINE
  5
597
100
AcDbEntity
  8
2
100
AcDbLine
 10
-304.146758
 20
-31.306662
 30
0.0
 11
-303.146758
 21
-31.306662
 31
0.0
  0
LINE
  5
598
100
AcDbEntity
  8
2
100
AcDbLine
 10
-303.146758
 20
-36.206662
 30
0.0
 11
-303.146758
 21
-35.256662
 31
0.0
  0
LINE
  5
599
100
AcDbEntity
  8
2
100
AcDbLine
 10
-303.146758
 20
-32.256662
 30
0.0
 11
-303.146758
 21
-31.306662
 31
0.0
  0
LINE
  5
59A
100
AcDbEntity
  8
2
100
AcDbLine
 10
-306.096758
 20
-34.256662
 30
0.0
 11
-305.146758
 21
-34.256662
 31
0.0
  0
LINE
  5
59B
100
AcDbEntity
  8
2
100
AcDbLine
 10
-302.146758
 20
-34.256662
 30
0.0
 11
-301.196758
 21
-34.256662
 31
0.0
  0
LINE
  5
59C
100
AcDbEntity
  8
2
100
AcDbLine
 10
-304.146758
 20
-36.206662
 30
0.0
 11
-304.146758
 21
-35.256662
 31
0.0
  0
LINE
  5
59D
100
AcDbEntity
  8
2
100
AcDbLine
 10
-304.146758
 20
-32.256662
 30
0.0
 11
-304.146758
 21
-31.306662
 31
0.0
  0
LINE
  5
59E
100
AcDbEntity
  8
2
100
AcDbLine
 10
-306.096758
 20
-33.256662
 30
0.0
 11
-305.146758
 21
-33.256662
 31
0.0
  0
LINE
  5
59F
100
AcDbEntity
  8
2
100
AcDbLine
 10
-302.146758
 20
-33.256662
 30
0.0
 11
-301.196758
 21
-33.256662
 31
0.0
  0
ARC
  5
5A0
100
AcDbEntity
  8
2
100
AcDbCircle
 10
-302.146758
 20
-32.256662
 30
0.0
 40
1.0
100
AcDbArc
 50
180.0
 51
270.0
  0
ARC
  5
5A1
100
AcDbEntity
  8
2
100
AcDbCircle
 10
-305.146758
 20
-32.256662
 30
0.0
 40
1.0
100
AcDbArc
 50
270.0
 51
0.0
  0
ARC
  5
5A2
100
AcDbEntity
  8
2
100
AcDbCircle
 10
-305.146758
 20
-35.256662
 30
0.0
 40
1.0
100
AcDbArc
 50
0.0
 51
90.0
  0
ARC
  5
5A3
100
AcDbEntity
  8
2
100
AcDbCircle
 10
-302.146758
 20
-35.256662
 30
0.0
 40
1.0
100
AcDbArc
 50
90.0
 51
180.0
  0
LINE
  5
5A4
100
AcDbEntity
  8
2
100
AcDbLine
 10
-304.146758
 20
-36.206662
 30
0.0
 11
-303.146758
 21
-36.206662
 31
0.0
  0
LINE
  5
5A5
100
AcDbEntity
  8
2
100
AcDbLine
 10
-245.230134
 20
-65.256662
 30
0.0
 11
-248.063383
 21
-65.256662
 31
0.0
  0
LINE
  5
5A6
100
AcDbEntity
  8
2
100
AcDbLine
 10
-245.230134
 20
-70.256662
 30
0.0
 11
-248.063383
 21
-70.256662
 31
0.0
  0
LINE
  5
5A7
100
AcDbEntity
  8
2
100
AcDbLine
 10
-249.506758
 20
-67.756662
 30
0.0
 11
-248.063383
 21
-65.256662
 31
0.0
  0
LINE
  5
5A8
100
AcDbEntity
  8
2
100
AcDbLine
 10
-249.506758
 20
-67.756662
 30
0.0
 11
-248.063383
 21
-70.256662
 31
0.0
  0
LINE
  5
5A9
100
AcDbEntity
  8
2
100
AcDbLine
 10
-243.786758
 20
-67.756662
 30
0.0
 11
-245.230134
 21
-65.256662
 31
0.0
  0
LINE
  5
5AA
100
AcDbEntity
  8
2
100
AcDbLine
 10
-243.786758
 20
-67.756662
 30
0.0
 11
-245.230134
 21
-70.256662
 31
0.0
  0
CIRCLE
  5
5AB
100
AcDbEntity
  8
2
100
AcDbCircle
 10
-246.646758
 20
-67.756662
 30
0.0
 40
12.5
  0
CIRCLE
  5
5AC
100
AcDbEntity
  8
2
100
AcDbCircle
 10
-246.646758
 20
-67.756662
 30
0.0
 40
12.2
  0
LINE
  5
5AD
100
AcDbEntity
  8
2
100
AcDbLine
 10
-293.146758
 20
-58.756662
 30
0.0
 11
-293.146758
 21
-53.756662
 31
0.0
  0
LINE
  5
5AE
100
AcDbEntity
  8
2
100
AcDbLine
 10
-313.146758
 20
-53.756662
 30
0.0
 11
-313.146758
 21
-68.756662
 31
0.0
  0
LINE
  5
5AF
100
AcDbEntity
  8
2
100
AcDbLine
 10
-303.146758
 20
-53.756662
 30
0.0
 11
-303.146758
 21
-83.756662
 31
0.0
  0
LINE
  5
5B0
100
AcDbEntity
  8
2
100
AcDbLine
 10
-313.146758
 20
-58.756662
 30
0.0
 11
-293.146758
 21
-58.756662
 31
0.0
  0
LINE
  5
5B1
100
AcDbEntity
  8
2
100
AcDbLine
 10
-303.146758
 20
-53.756662
 30
0.0
 11
-313.146758
 21
-58.756662
 31
0.0
  0
LINE
  5
5B2
100
AcDbEntity
  8
2
100
AcDbLine
 10
-313.146758
 20
-53.756662
 30
0.0
 11
-283.146758
 21
-53.756662
 31
0.0
  0
LINE
  5
5B3
100
AcDbEntity
  8
2
100
AcDbLine
 10
-293.146758
 20
-83.756662
 30
0.0
 11
-293.146758
 21
-63.756662
 31
0.0
  0
LINE
  5
5B4
100
AcDbEntity
  8
2
100
AcDbLine
 10
-303.146758
 20
-83.756662
 30
0.0
 11
-293.146758
 21
-83.756662
 31
0.0
  0
LINE
  5
5B5
100
AcDbEntity
  8
2
100
AcDbLine
 10
-313.146758
 20
-68.756662
 30
0.0
 11
-283.146758
 21
-53.756662
 31
0.0
  0
LINE
  5
5B6
100
AcDbEntity
  8
2
100
AcDbLine
 10
-313.146758
 20
-63.756662
 30
0.0
 11
-293.146758
 21
-63.756662
 31
0.0
  0
LINE
  5
5B7
100
AcDbEntity
  8
2
100
AcDbLine
 10
-293.146758
 20
-53.756662
 30
0.0
 11
-313.146758
 21
-63.756662
 31
0.0
  0
ARC
  5
5B8
100
AcDbEntity
  8
2
100
AcDbCircle
 10
-248.146758
 20
-67.756662
 30
0.0
 40
83.0
100
AcDbArc
 50
176.553145
 51
183.446855
  0
ARC
  5
5B9
100
AcDbEntity
  8
2
 62
     2
100
AcDbCircle
 10
-305.146758
 20
-65.556662
 30
0.0
 40
32.187
100
AcDbArc
 50
101.806726
 51
173.839455
  0
ARC
  5
5BA
100
AcDbEntity
  8
2
100
AcDbCircle
 10
-305.146758
 20
-65.556662
 30
0.0
 40
26.0
100
AcDbArc
 50
94.86353
 51
173.839455
  0
ARC
  5
5BB
100
AcDbEntity
  8
2
100
AcDbCircle
 10
-305.146758
 20
-69.956662
 30
0.0
 40
26.0
100
AcDbArc
 50
186.160545
 51
265.13647
  0
ARC
  5
5BC
100
AcDbEntity
  8
2
 62
     2
100
AcDbCircle
 10
-372.646758
 20
-67.756662
 30
0.0
 40
162.47
100
AcDbArc
 50
359.375245
 51
0.624755
  0
ARC
  5
5BD
100
AcDbEntity
  8
2
 62
     2
100
AcDbCircle
 10
-305.146758
 20
-69.956662
 30
0.0
 40
32.187
100
AcDbArc
 50
186.160545
 51
258.193274
  0
ARC
  5
5BE
100
AcDbEntity
  8
2
 62
     2
100
AcDbCircle
 10
-248.146758
 20
-67.756662
 30
0.0
 40
89.187
100
AcDbArc
 50
176.553145
 51
183.446855
  0
ARC
  5
5BF
100
AcDbEntity
  8
2
 62
     2
100
AcDbCircle
 10
-242.646758
 20
-70.256662
 30
0.0
 40
32.47
100
AcDbArc
 50
269.465549
 51
299.701491
  0
ARC
  5
5C0
100
AcDbEntity
  8
2
 62
     2
100
AcDbCircle
 10
-242.646758
 20
-70.256662
 30
0.0
 40
32.47
100
AcDbArc
 50
314.964901
 51
1.442841
  0
ARC
  5
5C1
100
AcDbEntity
  8
2
 62
     2
100
AcDbCircle
 10
-220.146758
 20
-99.756662
 30
0.0
 40
6.0
100
AcDbArc
 50
96.94736
 51
157.719031
  0
ARC
  5
5C2
100
AcDbEntity
  8
2
 62
     2
100
AcDbCircle
 10
-222.146758
 20
-33.256662
 30
0.0
 40
6.0
100
AcDbArc
 50
216.425439
 51
254.880724
  0
ARC
  5
5C3
100
AcDbEntity
  8
2
 62
     2
100
AcDbCircle
 10
-242.646758
 20
-65.256662
 30
0.0
 40
32.47
100
AcDbArc
 50
358.557159
 51
52.8207
  0
ARC
  5
5C4
100
AcDbEntity
  8
2
 62
     2
100
AcDbCircle
 10
-242.646758
 20
-65.256662
 30
0.0
 40
32.47
100
AcDbArc
 50
61.140224
 51
90.534451
  0
ARC
  5
5C5
100
AcDbEntity
  8
2
 62
     2
100
AcDbCircle
 10
-311.323349
 20
-36.008317
 30
0.0
 40
2.0
100
AcDbArc
 50
16.347175
 51
101.806726
  0
ARC
  5
5C6
100
AcDbEntity
  8
2
 62
     2
100
AcDbCircle
 10
-311.323349
 20
-99.505007
 30
0.0
 40
2.0
100
AcDbArc
 50
258.193274
 51
343.652825
  0
ARC
  5
5C7
100
AcDbEntity
  8
2
 62
     2
100
AcDbCircle
 10
-227.549444
 20
-96.723471
 30
0.0
 40
2.0
100
AcDbArc
 50
299.701491
 51
337.719031
  0
ARC
  5
5C8
100
AcDbEntity
  8
2
 62
     2
100
AcDbCircle
 10
-221.114418
 20
-91.8154
 30
0.0
 40
2.0
100
AcDbArc
 50
276.94736
 51
314.964901
  0
ARC
  5
5C9
100
AcDbEntity
  8
2
 62
     2
100
AcDbCircle
 10
-224.233393
 20
-40.979741
 30
0.0
 40
2.0
100
AcDbArc
 50
52.8207
 51
74.880724
  0
LINE
  5
5CA
100
AcDbEntity
  8
2
100
AcDbLine
 10
-363.396453
 20
-26.756662
 30
0.0
 11
-220.453873
 21
-26.756662
 31
0.0
  0
ARC
  5
5CB
100
AcDbEntity
  8
2
100
AcDbCircle
 10
-363.396453
 20
-36.756662
 30
0.0
 40
10.0
100
AcDbArc
 50
90.0
 51
169.473381
  0
ARC
  5
5CC
100
AcDbEntity
  8
2
100
AcDbCircle
 10
-220.453873
 20
-36.756662
 30
0.0
 40
10.0
100
AcDbArc
 50
13.342364
 51
90.0
  0
ARC
  5
5CD
100
AcDbEntity
  8
2
100
AcDbCircle
 10
-321.646758
 20
-60.756662
 30
0.0
 40
114.0
100
AcDbArc
 50
0.0
 51
13.342364
  0
LINE
  5
5CE
100
AcDbEntity
  8
2
100
AcDbLine
 10
-363.747928
 20
-106.756662
 30
0.0
 11
-220.000312
 21
-106.756662
 31
0.0
  0
ARC
  5
5CF
100
AcDbEntity
  8
2
100
AcDbCircle
 10
-220.000312
 20
-96.756662
 30
0.0
 40
10.0
100
AcDbArc
 50
270.0
 51
347.787475
  0
ARC
  5
5D0
100
AcDbEntity
  8
2
100
AcDbCircle
 10
-321.646758
 20
-74.756662
 30
0.0
 40
114.0
100
AcDbArc
 50
347.787475
 51
360.0
  0
LINE
  5
5D1
100
AcDbEntity
  8
2
100
AcDbLine
 10
-207.646758
 20
-60.756662
 30
0.0
 11
-207.646758
 21
-74.756662
 31
0.0
  0
ARC
  5
5D2
100
AcDbEntity
  8
2
100
AcDbCircle
 10
-261.146758
 20
-55.756662
 30
0.0
 40
114.0
100
AcDbArc
 50
169.473381
 51
180.0
  0
LINE
  5
5D3
100
AcDbEntity
  8
2
100
AcDbLine
 10
-375.146758
 20
-55.756662
 30
0.0
 11
-375.146758
 21
-79.756662
 31
0.0
  0
ARC
  5
5D4
100
AcDbEntity
  8
2
100
AcDbCircle
 10
-261.146758
 20
-79.756662
 30
0.0
 40
114.0
100
AcDbArc
 50
180.0
 51
189.407874
  0
ARC
  5
5D5
100
AcDbEntity
  8
2
100
AcDbCircle
 10
-363.747928
 20
-96.756662
 30
0.0
 40
10.0
100
AcDbArc
 50
189.407874
 51
270.0
  0
LINE
  5
5D6
100
AcDbEntity
  8
2
 62
     2
100
AcDbLine
 10
-242.949632
 20
-32.788074
 30
0.0
 11
-295.812001
 21
-33.281185
 31
0.0
  0
LINE
  5
5D7
100
AcDbEntity
  8
2
 62
     2
100
AcDbLine
 10
-242.949632
 20
-102.725249
 30
0.0
 11
-295.812001
 21
-102.232139
 31
0.0
  0
ARC
  5
5D8
100
AcDbEntity
  8
2
 62
     2
100
AcDbCircle
 10
-295.793345
 20
-35.281098
 30
0.0
 40
2.0
100
AcDbArc
 50
90.534451
 51
169.014853
  0
ARC
  5
5D9
100
AcDbEntity
  8
2
 62
     2
100
AcDbCircle
 10
-295.793345
 20
-100.232226
 30
0.0
 40
2.0
100
AcDbArc
 50
190.985147
 51
269.465549
  0
ARC
  5
5DA
100
AcDbEntity
  8
2
 62
     2
100
AcDbCircle
 10
-303.646758
 20
-33.756662
 30
0.0
 40
6.0
100
AcDbArc
 50
196.347175
 51
252.742145
  0
ARC
  5
5DB
100
AcDbEntity
  8
2
 62
     2
100
AcDbCircle
 10
-303.646758
 20
-33.756662
 30
0.0
 40
6.0
100
AcDbArc
 50
296.984916
 51
349.014853
  0
ARC
  5
5DC
100
AcDbEntity
  8
2
 62
     2
100
AcDbCircle
 10
-303.646758
 20
-101.756662
 30
0.0
 40
6.0
100
AcDbArc
 50
10.985147
 51
63.015084
  0
ARC
  5
5DD
100
AcDbEntity
  8
2
 62
     2
100
AcDbCircle
 10
-303.646758
 20
-101.756662
 30
0.0
 40
6.0
100
AcDbArc
 50
107.257855
 51
163.652825
  0
CIRCLE
  5
5DE
100
AcDbEntity
  8
2
100
AcDbCircle
 10
-246.646758
 20
-67.756662
 30
0.0
 40
12.5
  0
LINE
  5
5DF
100
AcDbEntity
  8
2
100
AcDbLine
 10
-245.275023
 20
-101.145045
 30
0.0
 11
-307.351109
 21
-95.863048
 31
0.0
  0
LINE
  5
5E0
100
AcDbEntity
  8
2
100
AcDbLine
 10
-245.275023
 20
-34.368278
 30
0.0
 11
-307.351109
 21
-39.650276
 31
0.0
  0
ARC
  5
5E1
100
AcDbEntity
  8
2
100
AcDbCircle
 10
-242.646758
 20
-65.256662
 30
0.0
 40
31.0
100
AcDbArc
 50
3.61268
 51
94.86353
  0
ARC
  5
5E2
100
AcDbEntity
  8
2
100
AcDbCircle
 10
-372.646758
 20
-67.756662
 30
0.0
 40
161.0
100
AcDbArc
 50
358.414964
 51
1.585036
  0
ARC
  5
5E3
100
AcDbEntity
  8
2
100
AcDbCircle
 10
-242.646758
 20
-70.256662
 30
0.0
 40
31.0
100
AcDbArc
 50
265.13647
 51
356.38732
  0
ARC
  5
5E4
100
AcDbEntity
  8
2
100
AcDbCircle
 10
-246.146758
 20
-67.756662
 30
0.0
 40
15.0
100
AcDbArc
 50
23.267823
 51
154.780192
  0
LINE
  5
5E5
100
AcDbEntity
  8
2
100
AcDbLine
 10
-259.716955
 20
-61.365281
 30
0.0
 11
-264.235216
 21
-58.756662
 31
0.0
  0
LINE
  5
5E6
100
AcDbEntity
  8
2
100
AcDbLine
 10
-233.928823
 20
-62.399771
 30
0.0
 11
-230.170052
 21
-61.031691
 31
0.0
  0
ARC
  5
5E7
100
AcDbEntity
  8
2
100
AcDbCircle
 10
-248.646758
 20
-67.756662
 30
0.0
 40
18.0
100
AcDbArc
 50
20.0
 51
150.0
  0
LINE
  5
5E8
100
AcDbEntity
  8
2
100
AcDbLine
 10
-230.170052
 20
-61.031691
 30
0.0
 11
-230.646758
 21
-67.756662
 31
0.0
  0
LINE
  5
5E9
100
AcDbEntity
  8
2
100
AcDbLine
 10
-230.646758
 20
-67.756662
 30
0.0
 11
-233.928823
 21
-62.399771
 31
0.0
  0
TEXT
  5
5EA
100
AcDbEntity
  8
2
100
AcDbText
 10
-235.162196
 20
-74.724906
 30
0.0
 40
6.0
  1
Ｓ
 41
1.4
 72
     5
 11
-228.442196
 21
-74.724906
 31
0.0
100
AcDbText
  0
LINE
  5
5EB
100
AcDbEntity
  8
2
  6
CENTER
 62
     2
100
AcDbLine
 10
-246.646758
 20
-110.174266
 30
0.0
 11
-246.646758
 21
-18.92242
 31
0.0
  0
LINE
  5
5EC
100
AcDbEntity
  8
2
  6
CENTER
 62
     2
100
AcDbLine
 10
-336.396758
 20
-110.174266
 30
0.0
 11
-336.396758
 21
-18.92242
 31
0.0
  0
LINE
  5
5ED
100
AcDbEntity
  8
2
  6
CENTER
 62
     2
100
AcDbLine
 10
-199.788232
 20
-27.756662
 30
0.0
 11
-162.931699
 21
-27.756662
 31
0.0
  0
LINE
  5
5EE
100
AcDbEntity
  8
2
  6
CENTER
 62
     2
100
AcDbLine
 10
-361.146758
 20
-42.006662
 30
0.0
 11
-361.146758
 21
-24.506662
 31
0.0
  0
LINE
  5
5EF
100
AcDbEntity
  8
2
  6
CENTER
 62
     2
100
AcDbLine
 10
-363.146758
 20
-91.006662
 30
0.0
 11
-363.146758
 21
-108.506662
 31
0.0
  0
LINE
  5
5F0
100
AcDbEntity
  8
2
  6
CENTER
 62
     2
100
AcDbLine
 10
-371.896758
 20
-99.756662
 30
0.0
 11
-354.396758
 21
-99.756662
 31
0.0
  0
LINE
  5
5F1
100
AcDbEntity
  8
2
  6
CENTER
 62
     2
100
AcDbLine
 10
-312.396758
 20
-101.756662
 30
0.0
 11
-294.896758
 21
-101.756662
 31
0.0
  0
LINE
  5
5F2
100
AcDbEntity
  8
2
  6
CENTER
 62
     2
100
AcDbLine
 10
-303.646758
 20
-25.006662
 30
0.0
 11
-303.646758
 21
-42.506662
 31
0.0
  0
LINE
  5
5F3
100
AcDbEntity
  8
2
  6
CENTER
 62
     2
100
AcDbLine
 10
-312.396758
 20
-33.756662
 30
0.0
 11
-294.896758
 21
-33.756662
 31
0.0
  0
LINE
  5
5F4
100
AcDbEntity
  8
2
  6
CENTER
 62
     2
100
AcDbLine
 10
-222.146758
 20
-42.006662
 30
0.0
 11
-222.146758
 21
-24.506662
 31
0.0
  0
LINE
  5
5F5
100
AcDbEntity
  8
2
  6
CENTER
 62
     2
100
AcDbLine
 10
-352.396758
 20
-33.256662
 30
0.0
 11
-369.896758
 21
-33.256662
 31
0.0
  0
LINE
  5
5F6
100
AcDbEntity
  8
2
  6
CENTER
 62
     2
100
AcDbLine
 10
-384.102512
 20
-67.756662
 30
0.0
 11
-177.500019
 21
-67.756662
 31
0.0
  0
LINE
  5
5F7
100
AcDbEntity
  8
2
  6
CENTER
 62
     2
100
AcDbLine
 10
-230.896758
 20
-33.256662
 30
0.0
 11
-213.396758
 21
-33.256662
 31
0.0
  0
LINE
  5
5F8
100
AcDbEntity
  8
2
  6
CENTER
 62
     2
100
AcDbLine
 10
-228.896758
 20
-99.756662
 30
0.0
 11
-211.396758
 21
-99.756662
 31
0.0
  0
LINE
  5
5F9
100
AcDbEntity
  8
2
  6
CENTER
 62
     2
100
AcDbLine
 10
-303.646758
 20
-110.506662
 30
0.0
 11
-303.646758
 21
-93.006662
 31
0.0
  0
LINE
  5
5FA
100
AcDbEntity
  8
2
  6
CENTER
 62
     2
100
AcDbLine
 10
-220.146758
 20
-91.006662
 30
0.0
 11
-220.146758
 21
-108.506662
 31
0.0
  0
ARC
  5
5FB
100
AcDbEntity
  8
2
100
AcDbCircle
 10
-276.146758
 20
52.743338
 30
0.0
 40
1.0
100
AcDbArc
 50
90.0
 51
180.0
  0
ARC
  5
5FC
100
AcDbEntity
  8
2
100
AcDbCircle
 10
-274.146758
 20
52.743338
 30
0.0
 40
1.0
100
AcDbArc
 50
0.0
 51
90.0
  0
LINE
  5
5FD
100
AcDbEntity
  8
2
100
AcDbLine
 10
-276.146758
 20
53.743338
 30
0.0
 11
-275.781992
 21
53.743343
 31
0.0
  0
LINE
  5
5FE
100
AcDbEntity
  8
2
100
AcDbLine
 10
-274.511292
 20
53.743452
 30
0.0
 11
-274.146758
 21
53.743338
 31
0.0
  0
ARC
  5
5FF
100
AcDbEntity
  8
2
100
AcDbCircle
 10
-282.445595
 20
50.312391
 30
0.0
 40
0.430947
100
AcDbArc
 50
339.10214
 51
158.681079
  0
ARC
  5
600
100
AcDbEntity
  8
2
100
AcDbCircle
 10
-288.49711
 20
50.459934
 30
0.0
 40
0.283404
100
AcDbArc
 50
323.677597
 51
142.882669
  0
ARC
  5
601
100
AcDbEntity
  8
2
100
AcDbCircle
 10
-292.404833
 20
50.609381
 30
0.0
 40
0.133957
100
AcDbArc
 50
314.711482
 51
134.156238
  0
ARC
  5
602
100
AcDbEntity
  8
2
100
AcDbCircle
 10
-275.146758
 20
31.243338
 30
0.0
 40
33.162479
100
AcDbArc
 50
104.962752
 51
150.128593
  0
ARC
  5
603
100
AcDbEntity
  8
2
100
AcDbCircle
 10
-269.592209
 20
63.233201
 30
0.0
 40
10.0
100
AcDbArc
 50
202.238154
 51
227.992896
  0
ARC
  5
604
100
AcDbEntity
  8
2
100
AcDbCircle
 10
-282.93444
 20
60.383124
 30
0.0
 40
3.0
100
AcDbArc
 50
42.388379
 51
104.962752
  0
ARC
  5
605
100
AcDbEntity
  8
2
100
AcDbCircle
 10
-288.104585
 20
55.664056
 30
0.0
 40
10.0
100
AcDbArc
 50
22.238154
 51
42.388379
  0
ARC
  5
606
100
AcDbEntity
  8
2
100
AcDbCircle
 10
-280.701307
 20
63.233201
 30
0.0
 40
10.0
100
AcDbArc
 50
312.007104
 51
337.761846
  0
ARC
  5
607
100
AcDbEntity
  8
2
100
AcDbCircle
 10
-262.188932
 20
55.664056
 30
0.0
 40
10.0
100
AcDbArc
 50
137.611621
 51
157.761846
  0
ARC
  5
608
100
AcDbEntity
  8
2
100
AcDbCircle
 10
-267.359076
 20
60.383124
 30
0.0
 40
3.0
100
AcDbArc
 50
75.037248
 51
137.611621
  0
ARC
  5
609
100
AcDbEntity
  8
2
100
AcDbCircle
 10
-275.146758
 20
31.243338
 30
0.0
 40
33.162479
100
AcDbArc
 50
29.871407
 51
75.037248
  0
ARC
  5
60A
100
AcDbEntity
  8
2
100
AcDbCircle
 10
-275.146758
 20
57.065788
 30
0.0
 40
1.7
100
AcDbArc
 50
227.992896
 51
312.007104
  0
ARC
  5
60B
100
AcDbEntity
  8
2
100
AcDbCircle
 10
-274.671867
 20
30.420803
 30
0.0
 40
32.849358
100
AcDbArc
 50
105.470231
 51
147.621493
  0
ARC
  5
60C
100
AcDbEntity
  8
2
100
AcDbCircle
 10
-268.638258
 20
63.341699
 30
0.0
 40
12.0
100
AcDbArc
 50
200.135943
 51
231.694293
  0
ARC
  5
60D
100
AcDbEntity
  8
2
100
AcDbCircle
 10
-285.53807
 20
57.145221
 30
0.0
 40
6.0
100
AcDbArc
 50
20.135943
 51
48.747449
  0
ARC
  5
60E
100
AcDbEntity
  8
2
100
AcDbCircle
 10
-282.900553
 20
60.152463
 30
0.0
 40
2.0
100
AcDbArc
 50
48.747449
 51
105.470231
  0
ARC
  5
60F
100
AcDbEntity
  8
2
100
AcDbCircle
 10
-281.655259
 20
63.341699
 30
0.0
 40
12.0
100
AcDbArc
 50
308.305707
 51
339.864057
  0
ARC
  5
610
100
AcDbEntity
  8
2
100
AcDbCircle
 10
-264.755446
 20
57.145221
 30
0.0
 40
6.0
100
AcDbArc
 50
131.252551
 51
159.864057
  0
ARC
  5
611
100
AcDbEntity
  8
2
100
AcDbCircle
 10
-267.392963
 20
60.152463
 30
0.0
 40
2.0
100
AcDbArc
 50
74.529769
 51
131.252551
  0
ARC
  5
612
100
AcDbEntity
  8
2
100
AcDbCircle
 10
-275.621649
 20
30.420803
 30
0.0
 40
32.849358
100
AcDbArc
 50
32.378507
 51
74.529769
  0
ARC
  5
613
100
AcDbEntity
  8
2
100
AcDbCircle
 10
-275.146758
 20
55.102195
 30
0.0
 40
1.5
100
AcDbArc
 50
231.694293
 51
308.305707
  0
ARC
  5
614
100
AcDbEntity
  8
2
100
AcDbCircle
 10
-248.630254
 20
39.043338
 30
0.0
 40
9.0
100
AcDbArc
 50
73.39845
 51
106.60155
  0
ARC
  5
615
100
AcDbEntity
  8
2
100
AcDbCircle
 10
-301.663263
 20
39.043338
 30
0.0
 40
9.0
100
AcDbArc
 50
73.39845
 51
106.60155
  0
LINE
  5
616
100
AcDbEntity
  8
2
100
AcDbLine
 10
164.503242
 20
-4.756662
 30
0.0
 11
64.503242
 21
-4.756662
 31
0.0
  0
LINE
  5
617
100
AcDbEntity
  8
2
100
AcDbLine
 10
64.503242
 20
-1.756662
 30
0.0
 11
64.503242
 21
-4.756662
 31
0.0
  0
LINE
  5
618
100
AcDbEntity
  8
2
100
AcDbLine
 10
164.503242
 20
-1.756662
 30
0.0
 11
164.503242
 21
-4.756662
 31
0.0
  0
LINE
  5
619
100
AcDbEntity
  8
2
100
AcDbLine
 10
156.422039
 20
38.243338
 30
0.0
 11
72.584444
 21
38.243338
 31
0.0
  0
LINE
  5
61A
100
AcDbEntity
  8
2
100
AcDbLine
 10
69.003242
 20
44.443338
 30
0.0
 11
69.003242
 21
37.79172
 31
0.0
  0
LINE
  5
61B
100
AcDbEntity
  8
2
100
AcDbLine
 10
154.003242
 20
44.443338
 30
0.0
 11
154.003242
 21
41.222198
 31
0.0
  0
LINE
  5
61C
100
AcDbEntity
  8
2
100
AcDbLine
 10
69.003242
 20
43.243338
 30
0.0
 11
154.003242
 21
43.243338
 31
0.0
  0
ARC
  5
61D
100
AcDbEntity
  8
2
100
AcDbCircle
 10
111.503242
 20
31.243338
 30
0.0
 40
34.0
100
AcDbArc
 50
45.099128
 51
134.900872
  0
LINE
  5
61E
100
AcDbEntity
  8
2
100
AcDbLine
 10
119.003237
 20
62.848824
 30
0.0
 11
119.003242
 21
44.443338
 31
0.0
  0
LINE
  5
61F
100
AcDbEntity
  8
2
100
AcDbLine
 10
104.003242
 20
62.848824
 30
0.0
 11
104.003242
 21
44.443338
 31
0.0
  0
LINE
  5
620
100
AcDbEntity
  8
2
100
AcDbLine
 10
87.503242
 20
55.326527
 30
0.0
 11
87.503242
 21
53.60044
 31
0.0
  0
LINE
  5
621
100
AcDbEntity
  8
2
100
AcDbLine
 10
135.503242
 20
55.326527
 30
0.0
 11
135.503242
 21
53.60044
 31
0.0
  0
ARC
  5
622
100
AcDbEntity
  8
2
100
AcDbCircle
 10
111.503242
 20
33.243338
 30
0.0
 40
31.0
100
AcDbArc
 50
28.453097
 51
48.922243
  0
ARC
  5
623
100
AcDbEntity
  8
2
100
AcDbCircle
 10
111.503242
 20
33.243338
 30
0.0
 40
31.0
100
AcDbArc
 50
131.077757
 51
151.546903
  0
ARC
  5
624
100
AcDbEntity
  8
2
100
AcDbCircle
 10
111.503242
 20
29.743338
 30
0.0
 40
28.0
100
AcDbArc
 50
105.536794
 51
145.287318
  0
ARC
  5
625
100
AcDbEntity
  8
2
100
AcDbCircle
 10
111.503242
 20
29.743338
 30
0.0
 40
28.0
100
AcDbArc
 50
34.712682
 51
74.463206
  0
ARC
  5
626
100
AcDbEntity
  8
2
100
AcDbCircle
 10
76.102847
 20
34.008968
 30
0.0
 40
45.274917
100
AcDbArc
 50
13.324563
 51
18.638604
  0
ARC
  5
627
100
AcDbEntity
  8
2
100
AcDbCircle
 10
77.026726
 20
34.008968
 30
0.0
 40
45.274917
100
AcDbArc
 50
13.324563
 51
21.318921
  0
ARC
  5
628
100
AcDbEntity
  8
2
100
AcDbCircle
 10
118.802079
 20
50.312391
 30
0.0
 40
0.430947
100
AcDbArc
 50
21.318921
 51
62.173379
  0
ARC
  5
629
100
AcDbEntity
  8
2
100
AcDbCircle
 10
100.073313
 20
32.242086
 30
0.0
 40
30.472934
100
AcDbArc
 50
23.60296
 51
36.322403
  0
ARC
  5
62A
100
AcDbEntity
  8
2
100
AcDbCircle
 10
100.78042
 20
32.242086
 30
0.0
 40
30.472934
100
AcDbArc
 50
23.60296
 51
37.117331
  0
ARC
  5
62B
100
AcDbEntity
  8
2
100
AcDbCircle
 10
124.853594
 20
50.459934
 30
0.0
 40
0.283404
100
AcDbArc
 50
37.117331
 51
216.322403
  0
ARC
  5
62C
100
AcDbEntity
  8
2
100
AcDbCircle
 10
108.8289
 20
30.475205
 30
0.0
 40
28.197761
100
AcDbArc
 50
29.693704
 51
45.288518
  0
ARC
  5
62D
100
AcDbEntity
  8
2
100
AcDbCircle
 10
109.211584
 20
30.475205
 30
0.0
 40
28.197761
100
AcDbArc
 50
29.693704
 51
45.843762
  0
ARC
  5
62E
100
AcDbEntity
  8
2
100
AcDbCircle
 10
128.761316
 20
50.609381
 30
0.0
 40
0.133957
100
AcDbArc
 50
45.843762
 51
225.288518
  0
LINE
  5
62F
100
AcDbEntity
  8
2
 62
     2
100
AcDbLine
 10
120.728817
 20
45.838822
 30
0.0
 11
119.6279
 21
46.474437
 31
0.0
  0
LINE
  5
630
100
AcDbEntity
  8
2
 62
     2
100
AcDbLine
 10
120.496531
 20
46.665752
 30
0.0
 11
119.379698
 21
47.310556
 31
0.0
  0
LINE
  5
631
100
AcDbEntity
  8
2
 62
     2
100
AcDbLine
 10
120.243428
 20
47.504702
 30
0.0
 11
119.10967
 21
48.159277
 31
0.0
  0
LINE
  5
632
100
AcDbEntity
  8
2
 62
     2
100
AcDbLine
 10
119.968178
 20
48.356438
 30
0.0
 11
119.003244
 21
48.913543
 31
0.0
  0
LINE
  5
633
100
AcDbEntity
  8
2
 62
     2
100
AcDbLine
 10
119.669275
 20
49.22183
 30
0.0
 11
119.003244
 21
49.606363
 31
0.0
  0
LINE
  5
634
100
AcDbEntity
  8
2
 62
     2
100
AcDbLine
 10
119.345005
 20
50.101867
 30
0.0
 11
119.003244
 21
50.299184
 31
0.0
  0
LINE
  5
635
100
AcDbEntity
  8
2
 62
     2
100
AcDbLine
 10
120.941464
 20
45.02323
 30
0.0
 11
119.855567
 21
45.650173
 31
0.0
  0
LINE
  5
636
100
AcDbEntity
  8
2
 62
     2
100
AcDbLine
 10
120.745865
 20
44.443338
 30
0.0
 11
120.063849
 21
44.837101
 31
0.0
  0
LINE
  5
637
100
AcDbEntity
  8
2
 62
     2
100
AcDbLine
 10
127.875505
 20
44.717575
 30
0.0
 11
128.350497
 21
44.443338
 31
0.0
  0
LINE
  5
638
100
AcDbEntity
  8
2
 62
     2
100
AcDbLine
 10
128.405882
 20
45.104182
 30
0.0
 11
127.429152
 21
45.668097
 31
0.0
  0
LINE
  5
639
100
AcDbEntity
  8
2
 62
     2
100
AcDbLine
 10
127.936268
 20
46.068134
 30
0.0
 11
126.923415
 21
46.652905
 31
0.0
  0
LINE
  5
63A
100
AcDbEntity
  8
2
 62
     2
100
AcDbLine
 10
127.403149
 20
47.068751
 30
0.0
 11
126.347277
 21
47.678359
 31
0.0
  0
LINE
  5
63B
100
AcDbEntity
  8
2
 62
     2
100
AcDbLine
 10
126.793972
 20
48.113279
 30
0.0
 11
125.685401
 21
48.753313
 31
0.0
  0
LINE
  5
63C
100
AcDbEntity
  8
2
 62
     2
100
AcDbLine
 10
126.090921
 20
49.212006
 30
0.0
 11
124.915299
 21
49.890752
 31
0.0
  0
LINE
  5
63D
100
AcDbEntity
  8
2
 62
     2
100
AcDbLine
 10
125.267156
 20
50.380428
 30
0.0
 11
124.70815
 21
50.70317
 31
0.0
  0
LINE
  5
63E
100
AcDbEntity
  8
2
100
AcDbLine
 10
69.003242
 20
44.443338
 30
0.0
 11
154.003242
 21
44.443338
 31
0.0
  0
LINE
  5
63F
100
AcDbEntity
  8
2
 62
     2
100
AcDbLine
 10
131.879625
 20
47.246419
 30
0.0
 11
131.202351
 21
47.637443
 31
0.0
  0
LINE
  5
640
100
AcDbEntity
  8
2
 62
     2
100
AcDbLine
 10
130.884874
 20
48.513559
 30
0.0
 11
130.133832
 21
48.947174
 31
0.0
  0
LINE
  5
641
100
AcDbEntity
  8
2
 62
     2
100
AcDbLine
 10
129.612486
 20
49.940993
 30
0.0
 11
128.732848
 21
50.448852
 31
0.0
  0
LINE
  5
642
100
AcDbEntity
  8
2
 62
     2
100
AcDbLine
 10
132.69654
 20
46.081953
 30
0.0
 11
132.069024
 21
46.444249
 31
0.0
  0
LINE
  5
643
100
AcDbEntity
  8
2
 62
     2
100
AcDbLine
 10
133.386029
 20
44.991055
 30
0.0
 11
132.795225
 21
45.332156
 31
0.0
  0
LINE
  5
644
100
AcDbEntity
  8
2
100
AcDbLine
 10
152.503242
 20
35.243338
 30
0.0
 11
152.503242
 21
4.243338
 31
0.0
  0
LINE
  5
645
100
AcDbEntity
  8
2
100
AcDbLine
 10
76.503242
 20
35.243338
 30
0.0
 11
76.503242
 21
4.243338
 31
0.0
  0
LINE
  5
646
100
AcDbEntity
  8
2
100
AcDbLine
 10
65.857016
 20
3.243338
 30
0.0
 11
75.503242
 21
3.243338
 31
0.0
  0
LINE
  5
647
100
AcDbEntity
  8
2
100
AcDbLine
 10
153.503242
 20
3.243338
 30
0.0
 11
163.149467
 21
3.243338
 31
0.0
  0
ARC
  5
648
100
AcDbEntity
  8
2
100
AcDbCircle
 10
149.503242
 20
35.243338
 30
0.0
 40
3.0
100
AcDbArc
 50
0.0
 51
90.0
  0
ARC
  5
649
100
AcDbEntity
  8
2
100
AcDbCircle
 10
79.503242
 20
35.243338
 30
0.0
 40
3.0
100
AcDbArc
 50
90.0
 51
180.0
  0
ARC
  5
64A
100
AcDbEntity
  8
2
100
AcDbCircle
 10
103.219454
 20
51.92237
 30
0.0
 40
11.430139
100
AcDbArc
 50
88.512215
 51
112.714662
  0
ARC
  5
64B
100
AcDbEntity
  8
2
100
AcDbCircle
 10
103.503242
 20
62.848824
 30
0.0
 40
0.5
100
AcDbArc
 50
0.0
 51
88.512215
  0
ARC
  5
64C
100
AcDbEntity
  8
2
100
AcDbCircle
 10
114.339615
 20
25.357865
 30
0.0
 40
40.228245
100
AcDbArc
 50
112.714662
 51
131.843847
  0
ARC
  5
64D
100
AcDbEntity
  8
2
100
AcDbCircle
 10
104.709456
 20
45.026393
 30
0.0
 40
17.127052
100
AcDbArc
 50
93.791923
 51
118.737001
  0
ARC
  5
64E
100
AcDbEntity
  8
2
100
AcDbCircle
 10
103.603242
 20
61.716826
 30
0.0
 40
0.4
100
AcDbArc
 50
0.0
 51
93.791923
  0
ARC
  5
64F
100
AcDbEntity
  8
2
100
AcDbCircle
 10
118.421805
 20
20.018628
 30
0.0
 40
45.647515
100
AcDbArc
 50
118.737001
 51
132.635576
  0
ARC
  5
650
100
AcDbEntity
  8
2
100
AcDbCircle
 10
118.297028
 20
45.026393
 30
0.0
 40
17.127052
100
AcDbArc
 50
61.262999
 51
86.208077
  0
ARC
  5
651
100
AcDbEntity
  8
2
100
AcDbCircle
 10
104.584678
 20
20.018628
 30
0.0
 40
45.647515
100
AcDbArc
 50
47.364424
 51
61.262999
  0
ARC
  5
652
100
AcDbEntity
  8
2
100
AcDbCircle
 10
119.403242
 20
61.716826
 30
0.0
 40
0.4
100
AcDbArc
 50
86.208077
 51
180.0
  0
ARC
  5
653
100
AcDbEntity
  8
2
100
AcDbCircle
 10
119.503242
 20
62.848824
 30
0.0
 40
0.5
100
AcDbArc
 50
91.487785
 51
180.0
  0
ARC
  5
654
100
AcDbEntity
  8
2
100
AcDbCircle
 10
119.78703
 20
51.92237
 30
0.0
 40
11.430139
100
AcDbArc
 50
67.285338
 51
91.487785
  0
ARC
  5
655
100
AcDbEntity
  8
2
100
AcDbCircle
 10
108.666868
 20
25.357865
 30
0.0
 40
40.228245
100
AcDbArc
 50
48.156153
 51
67.285338
  0
LINE
  5
656
100
AcDbEntity
  8
2
  6
CENTER
 62
     2
100
AcDbLine
 10
158.503242
 20
12.370787
 30
0.0
 11
158.503242
 21
-4.104055
 31
0.0
  0
LINE
  5
657
100
AcDbEntity
  8
2
  6
CENTER
 62
     2
100
AcDbLine
 10
70.503242
 20
12.370787
 30
0.0
 11
70.503242
 21
-4.104055
 31
0.0
  0
LINE
  5
658
100
AcDbEntity
  8
2
  6
CENTER
 62
     2
100
AcDbLine
 10
138.019746
 20
35.588156
 30
0.0
 11
138.019746
 21
51.199614
 31
0.0
  0
LINE
  5
659
100
AcDbEntity
  8
2
  6
CENTER
 62
     2
100
AcDbLine
 10
84.986737
 20
35.588156
 30
0.0
 11
84.986737
 21
52.593504
 31
0.0
  0
LINE
  5
65A
100
AcDbEntity
  8
2
100
AcDbLine
 10
65.903242
 20
4.543338
 30
0.0
 11
65.903242
 21
3.243338
 31
0.0
  0
LINE
  5
65B
100
AcDbEntity
  8
2
100
AcDbLine
 10
75.103242
 20
4.543338
 30
0.0
 11
75.103242
 21
3.243338
 31
0.0
  0
LINE
  5
65C
100
AcDbEntity
  8
2
100
AcDbLine
 10
65.903242
 20
4.543338
 30
0.0
 11
75.103242
 21
4.543338
 31
0.0
  0
LINE
  5
65D
100
AcDbEntity
  8
2
100
AcDbLine
 10
66.003242
 20
5.83083
 30
0.0
 11
66.003242
 21
4.543338
 31
0.0
  0
LINE
  5
65E
100
AcDbEntity
  8
2
100
AcDbLine
 10
75.003242
 20
5.83083
 30
0.0
 11
75.003242
 21
4.543338
 31
0.0
  0
ARC
  5
65F
100
AcDbEntity
  8
2
100
AcDbCircle
 10
70.503242
 20
-4.156662
 30
0.0
 40
12.0
100
AcDbArc
 50
73.808648
 51
106.191352
  0
ARC
  5
660
100
AcDbEntity
  8
2
100
AcDbCircle
 10
67.603242
 20
5.83083
 30
0.0
 40
1.6
100
AcDbArc
 50
106.191352
 51
180.0
  0
ARC
  5
661
100
AcDbEntity
  8
2
100
AcDbCircle
 10
73.403242
 20
5.83083
 30
0.0
 40
1.6
100
AcDbArc
 50
0.0
 51
73.808648
  0
LINE
  5
662
100
AcDbEntity
  8
2
100
AcDbLine
 10
153.903242
 20
4.543338
 30
0.0
 11
153.903242
 21
3.243338
 31
0.0
  0
LINE
  5
663
100
AcDbEntity
  8
2
100
AcDbLine
 10
163.103242
 20
4.543338
 30
0.0
 11
163.103242
 21
3.243338
 31
0.0
  0
LINE
  5
664
100
AcDbEntity
  8
2
100
AcDbLine
 10
153.903242
 20
4.543338
 30
0.0
 11
163.103242
 21
4.543338
 31
0.0
  0
LINE
  5
665
100
AcDbEntity
  8
2
100
AcDbLine
 10
154.003242
 20
5.83083
 30
0.0
 11
154.003242
 21
4.543338
 31
0.0
  0
LINE
  5
666
100
AcDbEntity
  8
2
100
AcDbLine
 10
163.003242
 20
5.83083
 30
0.0
 11
163.003242
 21
4.543338
 31
0.0
  0
ARC
  5
667
100
AcDbEntity
  8
2
100
AcDbCircle
 10
158.503242
 20
-4.156662
 30
0.0
 40
12.0
100
AcDbArc
 50
73.808648
 51
106.191352
  0
ARC
  5
668
100
AcDbEntity
  8
2
100
AcDbCircle
 10
155.603242
 20
5.83083
 30
0.0
 40
1.6
100
AcDbArc
 50
106.191352
 51
180.0
  0
ARC
  5
669
100
AcDbEntity
  8
2
100
AcDbCircle
 10
161.403242
 20
5.83083
 30
0.0
 40
1.6
100
AcDbArc
 50
0.0
 51
73.808648
  0
LINE
  5
66A
100
AcDbEntity
  8
2
100
AcDbLine
 10
88.786737
 20
45.443338
 30
0.0
 11
81.186737
 21
45.443338
 31
0.0
  0
LINE
  5
66B
100
AcDbEntity
  8
2
100
AcDbLine
 10
88.786737
 20
45.443338
 30
0.0
 11
88.786737
 21
44.443338
 31
0.0
  0
LINE
  5
66C
100
AcDbEntity
  8
2
100
AcDbLine
 10
81.186737
 20
45.443338
 30
0.0
 11
81.186737
 21
44.443338
 31
0.0
  0
LINE
  5
66D
100
AcDbEntity
  8
2
100
AcDbLine
 10
88.486737
 20
46.422363
 30
0.0
 11
88.486737
 21
45.443338
 31
0.0
  0
LINE
  5
66E
100
AcDbEntity
  8
2
100
AcDbLine
 10
81.486737
 20
46.422363
 30
0.0
 11
81.486737
 21
45.443338
 31
0.0
  0
ARC
  5
66F
100
AcDbEntity
  8
2
100
AcDbCircle
 10
84.986737
 20
39.043338
 30
0.0
 40
9.0
100
AcDbArc
 50
73.39845
 51
106.60155
  0
ARC
  5
670
100
AcDbEntity
  8
2
100
AcDbCircle
 10
87.186737
 20
46.422363
 30
0.0
 40
1.3
100
AcDbArc
 50
0.0
 51
73.39845
  0
ARC
  5
671
100
AcDbEntity
  8
2
100
AcDbCircle
 10
82.786737
 20
46.422363
 30
0.0
 40
1.3
100
AcDbArc
 50
106.60155
 51
180.0
  0
LINE
  5
672
100
AcDbEntity
  8
2
100
AcDbLine
 10
141.819746
 20
45.443338
 30
0.0
 11
134.219746
 21
45.443338
 31
0.0
  0
LINE
  5
673
100
AcDbEntity
  8
2
100
AcDbLine
 10
141.819746
 20
45.443338
 30
0.0
 11
141.819746
 21
44.443338
 31
0.0
  0
LINE
  5
674
100
AcDbEntity
  8
2
100
AcDbLine
 10
134.219746
 20
45.443338
 30
0.0
 11
134.219746
 21
44.443338
 31
0.0
  0
LINE
  5
675
100
AcDbEntity
  8
2
100
AcDbLine
 10
141.519746
 20
46.422363
 30
0.0
 11
141.519746
 21
45.443338
 31
0.0
  0
LINE
  5
676
100
AcDbEntity
  8
2
100
AcDbLine
 10
134.519746
 20
46.422363
 30
0.0
 11
134.519746
 21
45.443338
 31
0.0
  0
ARC
  5
677
100
AcDbEntity
  8
2
100
AcDbCircle
 10
138.019746
 20
39.043338
 30
0.0
 40
9.0
100
AcDbArc
 50
73.39845
 51
106.60155
  0
ARC
  5
678
100
AcDbEntity
  8
2
100
AcDbCircle
 10
140.219746
 20
46.422363
 30
0.0
 40
1.3
100
AcDbArc
 50
0.0
 51
73.39845
  0
ARC
  5
679
100
AcDbEntity
  8
2
100
AcDbCircle
 10
135.819746
 20
46.422363
 30
0.0
 40
1.3
100
AcDbArc
 50
106.60155
 51
180.0
  0
ARC
  5
67A
100
AcDbEntity
  8
2
100
AcDbCircle
 10
153.503242
 20
4.243338
 30
0.0
 40
1.0
100
AcDbArc
 50
180.0
 51
270.0
  0
ARC
  5
67B
100
AcDbEntity
  8
2
100
AcDbCircle
 10
75.503242
 20
4.243338
 30
0.0
 40
1.0
100
AcDbArc
 50
270.0
 51
360.0
  0
LINE
  5
67C
100
AcDbEntity
  8
2
100
AcDbLine
 10
164.503242
 20
-1.756662
 30
0.0
 11
64.503242
 21
-1.756662
 31
0.0
  0
LINE
  5
67D
100
AcDbEntity
  8
2
100
AcDbLine
 10
164.503242
 20
-1.756662
 30
0.0
 11
161.403013
 21
33.679117
 31
0.0
  0
LINE
  5
67E
100
AcDbEntity
  8
2
100
AcDbLine
 10
64.503242
 20
-1.756662
 30
0.0
 11
67.603471
 21
33.679117
 31
0.0
  0
ARC
  5
67F
100
AcDbEntity
  8
2
100
AcDbCircle
 10
156.422039
 20
33.243338
 30
0.0
 40
5.0
100
AcDbArc
 50
5.0
 51
90.0
  0
ARC
  5
680
100
AcDbEntity
  8
2
100
AcDbCircle
 10
72.584444
 20
33.243338
 30
0.0
 40
5.0
100
AcDbArc
 50
90.0
 51
175.0
  0
ARC
  5
681
100
AcDbEntity
  8
2
100
AcDbCircle
 10
157.003242
 20
41.222198
 30
0.0
 40
3.0
100
AcDbArc
 50
180.0
 51
265.833774
  0
ARC
  5
682
100
AcDbEntity
  8
2
100
AcDbCircle
 10
66.003242
 20
37.79172
 30
0.0
 40
3.0
100
AcDbArc
 50
325.350986
 51
360.0
  0
ARC
  5
683
100
AcDbEntity
  8
2
100
AcDbCircle
 10
163.149467
 20
2.243338
 30
0.0
 40
1.0
100
AcDbArc
 50
5.0
 51
90.0
  0
ARC
  5
684
100
AcDbEntity
  8
2
100
AcDbCircle
 10
65.857016
 20
2.243338
 30
0.0
 40
1.0
100
AcDbArc
 50
90.0
 51
175.0
  0
ARC
  5
685
100
AcDbEntity
  8
2
100
AcDbCircle
 10
86.503242
 20
-27.756662
 30
0.0
 40
18.0
100
AcDbArc
 50
90.0
 51
270.0
  0
LINE
  5
686
100
AcDbEntity
  8
2
100
AcDbLine
 10
65.303232
 20
-87.606373
 30
0.0
 11
72.504246
 21
-87.606373
 31
0.0
  0
LINE
  5
687
100
AcDbEntity
  8
2
100
AcDbLine
 10
146.503242
 20
-110.756662
 30
0.0
 11
76.503242
 21
-110.756662
 31
0.0
  0
LINE
  5
688
100
AcDbEntity
  8
2
100
AcDbLine
 10
59.503242
 20
-26.756662
 30
0.0
 11
59.503242
 21
-106.756662
 31
0.0
  0
LINE
  5
689
100
AcDbEntity
  8
2
100
AcDbLine
 10
59.503242
 20
-106.756662
 30
0.0
 11
81.174798
 21
-106.756662
 31
0.0
  0
LINE
  5
68A
100
AcDbEntity
  8
2
100
AcDbLine
 10
59.503242
 20
-26.756662
 30
0.0
 11
63.734985
 21
-26.756662
 31
0.0
  0
LINE
  5
68B
100
AcDbEntity
  8
2
100
AcDbLine
 10
164.503242
 20
-4.756662
 30
0.0
 11
64.503242
 21
-4.756662
 31
0.0
  0
LINE
  5
68C
100
AcDbEntity
  8
2
100
AcDbLine
 10
86.503242
 20
-45.756662
 30
0.0
 11
136.503242
 21
-45.756662
 31
0.0
  0
LINE
  5
68D
100
AcDbEntity
  8
2
100
AcDbLine
 10
86.503242
 20
-9.756662
 30
0.0
 11
136.503242
 21
-9.756662
 31
0.0
  0
ARC
  5
68E
100
AcDbEntity
  8
2
100
AcDbCircle
 10
136.503242
 20
-27.756662
 30
0.0
 40
18.0
100
AcDbArc
 50
270.0
 51
90.0
  0
LINE
  5
68F
100
AcDbEntity
  8
2
100
AcDbLine
 10
141.209345
 20
-55.756662
 30
0.0
 11
86.797139
 21
-55.756662
 31
0.0
  0
ARC
  5
690
100
AcDbEntity
  8
2
100
AcDbCircle
 10
102.503242
 20
-96.756662
 30
0.0
 40
1.0
100
AcDbArc
 50
0.0
 51
90.0
  0
LINE
  5
691
100
AcDbEntity
  8
2
100
AcDbLine
 10
103.503242
 20
-96.756662
 30
0.0
 11
103.503242
 21
-102.756662
 31
0.0
  0
ARC
  5
692
100
AcDbEntity
  8
2
100
AcDbCircle
 10
104.503242
 20
-102.756662
 30
0.0
 40
1.0
100
AcDbArc
 50
180.0
 51
270.0
  0
LINE
  5
693
100
AcDbEntity
  8
2
100
AcDbLine
 10
104.503242
 20
-103.756662
 30
0.0
 11
110.503242
 21
-103.756662
 31
0.0
  0
ARC
  5
694
100
AcDbEntity
  8
2
100
AcDbCircle
 10
110.503242
 20
-102.756662
 30
0.0
 40
1.0
100
AcDbArc
 50
270.0
 51
360.0
  0
LINE
  5
695
100
AcDbEntity
  8
2
100
AcDbLine
 10
111.503242
 20
-96.756662
 30
0.0
 11
111.503242
 21
-102.756662
 31
0.0
  0
ARC
  5
696
100
AcDbEntity
  8
2
100
AcDbCircle
 10
112.503242
 20
-96.756662
 30
0.0
 40
1.0
100
AcDbArc
 50
90.0
 51
180.0
  0
LINE
  5
697
100
AcDbEntity
  8
2
100
AcDbLine
 10
106.503242
 20
-104.756662
 30
0.0
 11
108.503242
 21
-104.756662
 31
0.0
  0
ARC
  5
698
100
AcDbEntity
  8
2
100
AcDbCircle
 10
108.503242
 20
-103.756662
 30
0.0
 40
1.0
100
AcDbArc
 50
270.0
 51
360.0
  0
ARC
  5
699
100
AcDbEntity
  8
2
100
AcDbCircle
 10
106.503242
 20
-103.756662
 30
0.0
 40
1.0
100
AcDbArc
 50
180.0
 51
270.0
  0
LINE
  5
69A
100
AcDbEntity
  8
2
100
AcDbLine
 10
64.503242
 20
-4.756662
 30
0.0
 11
62.303232
 21
-67.756685
 31
0.0
  0
LINE
  5
69B
100
AcDbEntity
  8
2
100
AcDbLine
 10
164.503242
 20
-4.756662
 30
0.0
 11
166.004748
 21
-47.75419
 31
0.0
  0
ARC
  5
69C
100
AcDbEntity
  8
2
100
AcDbCircle
 10
82.331686
 20
-90.756662
 30
0.0
 40
5.0
100
AcDbArc
 50
182.0
 51
270.0
  0
ARC
  5
69D
100
AcDbEntity
  8
2
100
AcDbCircle
 10
147.606175
 20
-92.756662
 30
0.0
 40
3.0
100
AcDbArc
 50
270.0
 51
358.0
  0
LINE
  5
69E
100
AcDbEntity
  8
2
100
AcDbLine
 10
76.145246
 20
-56.868758
 30
0.0
 11
77.334731
 21
-90.931159
 31
0.0
  0
LINE
  5
69F
100
AcDbEntity
  8
2
100
AcDbLine
 10
150.604348
 20
-92.86136
 30
0.0
 11
151.861237
 21
-56.868758
 31
0.0
  0
LINE
  5
6A0
100
AcDbEntity
  8
2
100
AcDbLine
 10
76.503242
 20
-110.756662
 30
0.0
 11
76.430963
 21
-108.686863
 31
0.0
  0
ARC
  5
6A1
100
AcDbEntity
  8
2
100
AcDbCircle
 10
74.432181
 20
-108.756662
 30
0.0
 40
2.0
100
AcDbArc
 50
2.0
 51
90.0
  0
LINE
  5
6A2
100
AcDbEntity
  8
2
100
AcDbLine
 10
146.503242
 20
-110.756662
 30
0.0
 11
147.027053
 21
-95.756662
 31
0.0
  0
LINE
  5
6A3
100
AcDbEntity
  8
2
100
AcDbLine
 10
101.36234
 20
-104.756662
 30
0.0
 11
96.895407
 21
-104.756662
 31
0.0
  0
LINE
  5
6A4
100
AcDbEntity
  8
2
100
AcDbLine
 10
121.644144
 20
-104.756662
 30
0.0
 11
126.111077
 21
-104.756662
 31
0.0
  0
LINE
  5
6A5
100
AcDbEntity
  8
2
 62
     2
100
AcDbLine
 10
119.503242
 20
-110.756662
 30
0.0
 11
119.959649
 21
-97.686863
 31
0.0
  0
LINE
  5
6A6
100
AcDbEntity
  8
2
 62
     2
100
AcDbLine
 10
103.503242
 20
-110.756662
 30
0.0
 11
103.046834
 21
-97.686863
 31
0.0
  0
ARC
  5
6A7
100
AcDbEntity
  8
2
 62
     2
100
AcDbCircle
 10
121.958431
 20
-97.756662
 30
0.0
 40
2.0
100
AcDbArc
 50
90.0
 51
178.0
  0
ARC
  5
6A8
100
AcDbEntity
  8
2
 62
     2
100
AcDbCircle
 10
101.048053
 20
-97.756662
 30
0.0
 40
2.0
100
AcDbArc
 50
2.0
 51
90.0
  0
ARC
  5
6A9
100
AcDbEntity
  8
2
100
AcDbCircle
 10
121.644144
 20
-106.756662
 30
0.0
 40
2.0
100
AcDbArc
 50
90.0
 51
178.0
  0
ARC
  5
6AA
100
AcDbEntity
  8
2
100
AcDbCircle
 10
101.36234
 20
-106.756662
 30
0.0
 40
2.0
100
AcDbArc
 50
2.0
 51
90.0
  0
LINE
  5
6AB
100
AcDbEntity
  8
2
100
AcDbLine
 10
119.645362
 20
-106.686863
 30
0.0
 11
119.503242
 21
-110.756662
 31
0.0
  0
LINE
  5
6AC
100
AcDbEntity
  8
2
100
AcDbLine
 10
103.361121
 20
-106.686863
 30
0.0
 11
103.503242
 21
-110.756662
 31
0.0
  0
ARC
  5
6AD
100
AcDbEntity
  8
2
100
AcDbCircle
 10
72.504246
 20
-92.606373
 30
0.0
 40
5.0
100
AcDbArc
 50
10.659447
 51
90.0
  0
ARC
  5
6AE
100
AcDbEntity
  8
2
 62
     2
100
AcDbCircle
 10
136.503242
 20
-27.756662
 30
0.0
 40
17.0
100
AcDbArc
 50
270.0
 51
90.0
  0
LINE
  5
6AF
100
AcDbEntity
  8
2
 62
     2
100
AcDbLine
 10
86.503242
 20
-10.756662
 30
0.0
 11
136.503242
 21
-10.756662
 31
0.0
  0
ARC
  5
6B0
100
AcDbEntity
  8
2
 62
     2
100
AcDbCircle
 10
86.503242
 20
-27.756662
 30
0.0
 40
17.0
100
AcDbArc
 50
90.0
 51
270.0
  0
LINE
  5
6B1
100
AcDbEntity
  8
2
 62
     2
100
AcDbLine
 10
86.503242
 20
-44.756662
 30
0.0
 11
136.503242
 21
-44.756662
 31
0.0
  0
LINE
  5
6B2
100
AcDbEntity
  8
2
 62
     2
100
AcDbLine
 10
159.964614
 20
-46.709604
 30
0.0
 11
66.040041
 21
-46.709604
 31
0.0
  0
LINE
  5
6B3
100
AcDbEntity
  8
2
100
AcDbLine
 10
146.864284
 20
-51.694261
 30
0.0
 11
81.142201
 21
-51.694261
 31
0.0
  0
ARC
  5
6B4
100
AcDbEntity
  8
2
100
AcDbCircle
 10
146.864284
 20
-56.694261
 30
0.0
 40
5.0
100
AcDbArc
 50
357.999999
 51
90.0
  0
ARC
  5
6B5
100
AcDbEntity
  8
2
100
AcDbCircle
 10
81.142201
 20
-56.694261
 30
0.0
 40
5.0
100
AcDbArc
 50
90.0
 51
182.0
  0
LINE
  5
6B6
100
AcDbEntity
  8
2
100
AcDbLine
 10
83.798966
 20
-58.651963
 30
0.0
 11
82.539705
 21
-94.712496
 31
0.0
  0
ARC
  5
6B7
100
AcDbEntity
  8
2
100
AcDbCircle
 10
86.797139
 20
-58.756662
 30
0.0
 40
3.0
100
AcDbArc
 50
90.0
 51
178.0
  0
LINE
  5
6B8
100
AcDbEntity
  8
2
100
AcDbLine
 10
144.207517
 20
-58.651963
 30
0.0
 11
145.46954
 21
-94.791561
 31
0.0
  0
ARC
  5
6B9
100
AcDbEntity
  8
2
100
AcDbCircle
 10
141.209345
 20
-58.756662
 30
0.0
 40
3.0
100
AcDbArc
 50
2.0
 51
90.0
  0
ARC
  5
6BA
100
AcDbEntity
  8
2
100
AcDbCircle
 10
81.540314
 20
-94.677597
 30
0.0
 40
1.0
100
AcDbArc
 50
258.589152
 51
358.0
  0
ARC
  5
6BB
100
AcDbEntity
  8
2
100
AcDbCircle
 10
146.468931
 20
-94.756662
 30
0.0
 40
1.0
100
AcDbArc
 50
182.0
 51
270.0
  0
LINE
  5
6BC
100
AcDbEntity
  8
2
100
AcDbLine
 10
62.303232
 20
-67.756662
 30
0.0
 11
62.303232
 21
-84.606373
 31
0.0
  0
ARC
  5
6BD
100
AcDbEntity
  8
2
100
AcDbCircle
 10
65.303232
 20
-84.606373
 30
0.0
 40
3.0
100
AcDbArc
 50
180.0
 51
270.0
  0
ARC
  5
6BE
100
AcDbEntity
  8
2
100
AcDbCircle
 10
161.007795
 20
-47.928687
 30
0.0
 40
5.0
100
AcDbArc
 50
299.999995
 51
2.000001
  0
LINE
  5
6BF
100
AcDbEntity
  8
2
100
AcDbLine
 10
154.186118
 20
-57.640686
 30
0.0
 11
163.507795
 21
-52.258814
 31
0.0
  0
ARC
  5
6C0
100
AcDbEntity
  8
2
100
AcDbCircle
 10
156.686118
 20
-61.970813
 30
0.0
 40
5.0
100
AcDbArc
 50
119.999995
 51
177.999999
  0
ARC
  5
6C1
100
AcDbEntity
  8
2
100
AcDbCircle
 10
88.318748
 20
-97.756662
 30
0.0
 40
2.0
100
AcDbArc
 50
90.0
 51
178.0
  0
LINE
  5
6C2
100
AcDbEntity
  8
2
100
AcDbLine
 10
86.319966
 20
-97.686863
 30
0.0
 11
86.171752
 21
-101.931159
 31
0.0
  0
ARC
  5
6C3
100
AcDbEntity
  8
2
100
AcDbCircle
 10
81.174798
 20
-101.756662
 30
0.0
 40
5.0
100
AcDbArc
 50
270.0
 51
358.0
  0
ARC
  5
6C4
100
AcDbEntity
  8
2
100
AcDbCircle
 10
96.895407
 20
-106.756662
 30
0.0
 40
2.0
100
AcDbArc
 50
90.0
 51
177.999998
  0
LINE
  5
6C5
100
AcDbEntity
  8
2
100
AcDbLine
 10
94.754505
 20
-110.756662
 30
0.0
 11
94.896625
 21
-106.686863
 31
0.0
  0
ARC
  5
6C6
100
AcDbEntity
  8
2
100
AcDbCircle
 10
126.111077
 20
-106.756662
 30
0.0
 40
2.0
100
AcDbArc
 50
2.000002
 51
90.0
  0
LINE
  5
6C7
100
AcDbEntity
  8
2
100
AcDbLine
 10
128.25198
 20
-110.756662
 30
0.0
 11
128.109859
 21
-106.686863
 31
0.0
  0
LINE
  5
6C8
100
AcDbEntity
  8
2
100
AcDbLine
 10
82.331686
 20
-95.756662
 30
0.0
 11
147.503242
 21
-95.756662
 31
0.0
  0
CIRCLE
  5
6C9
100
AcDbEntity
  8
2
100
AcDbCircle
 10
136.503242
 20
-27.756662
 30
0.0
 40
13.0
  0
LINE
  5
6CA
100
AcDbEntity
  8
2
100
AcDbLine
 10
128.997688
 20
-14.756662
 30
0.0
 11
121.492135
 21
-27.756662
 31
0.0
  0
LINE
  5
6CB
100
AcDbEntity
  8
2
100
AcDbLine
 10
144.008795
 20
-14.756662
 30
0.0
 11
128.997688
 21
-14.756662
 31
0.0
  0
LINE
  5
6CC
100
AcDbEntity
  8
2
100
AcDbLine
 10
151.514349
 20
-27.756662
 30
0.0
 11
144.008795
 21
-14.756662
 31
0.0
  0
LINE
  5
6CD
100
AcDbEntity
  8
2
100
AcDbLine
 10
144.008795
 20
-40.756662
 30
0.0
 11
151.514349
 21
-27.756662
 31
0.0
  0
LINE
  5
6CE
100
AcDbEntity
  8
2
100
AcDbLine
 10
128.997688
 20
-40.756662
 30
0.0
 11
144.008795
 21
-40.756662
 31
0.0
  0
LINE
  5
6CF
100
AcDbEntity
  8
2
100
AcDbLine
 10
121.492135
 20
-27.756662
 30
0.0
 11
128.997688
 21
-40.756662
 31
0.0
  0
CIRCLE
  5
6D0
100
AcDbEntity
  8
2
100
AcDbCircle
 10
86.503242
 20
-27.756662
 30
0.0
 40
13.0
  0
LINE
  5
6D1
100
AcDbEntity
  8
2
100
AcDbLine
 10
78.997688
 20
-14.756662
 30
0.0
 11
71.492135
 21
-27.756662
 31
0.0
  0
LINE
  5
6D2
100
AcDbEntity
  8
2
100
AcDbLine
 10
94.008795
 20
-14.756662
 30
0.0
 11
78.997688
 21
-14.756662
 31
0.0
  0
LINE
  5
6D3
100
AcDbEntity
  8
2
100
AcDbLine
 10
101.514349
 20
-27.756662
 30
0.0
 11
94.008795
 21
-14.756662
 31
0.0
  0
LINE
  5
6D4
100
AcDbEntity
  8
2
100
AcDbLine
 10
94.008795
 20
-40.756662
 30
0.0
 11
101.514349
 21
-27.756662
 31
0.0
  0
LINE
  5
6D5
100
AcDbEntity
  8
2
100
AcDbLine
 10
78.997688
 20
-40.756662
 30
0.0
 11
94.008795
 21
-40.756662
 31
0.0
  0
LINE
  5
6D6
100
AcDbEntity
  8
2
100
AcDbLine
 10
71.492135
 20
-27.756662
 30
0.0
 11
78.997688
 21
-40.756662
 31
0.0
  0
LINE
  5
6D7
100
AcDbEntity
  8
2
100
AcDbLine
 10
59.503242
 20
-26.756662
 30
0.0
 11
59.503242
 21
-106.756662
 31
0.0
  0
LINE
  5
6D8
100
AcDbEntity
  8
2
100
AcDbLine
 10
148.003242
 20
-98.006662
 30
0.0
 11
150.42467
 21
-98.006662
 31
0.0
  0
LINE
  5
6D9
100
AcDbEntity
  8
2
100
AcDbLine
 10
148.003242
 20
-100.881662
 30
0.0
 11
150.324273
 21
-100.881662
 31
0.0
  0
LINE
  5
6DA
100
AcDbEntity
  8
2
100
AcDbLine
 10
148.003242
 20
-106.631662
 30
0.0
 11
150.123478
 21
-106.631662
 31
0.0
  0
LINE
  5
6DB
100
AcDbEntity
  8
2
100
AcDbLine
 10
148.003242
 20
-109.506662
 30
0.0
 11
150.023081
 21
-109.506662
 31
0.0
  0
LINE
  5
6DC
100
AcDbEntity
  8
2
100
AcDbLine
 10
148.003242
 20
-97.656662
 30
0.0
 11
146.960704
 21
-97.656662
 31
0.0
  0
LINE
  5
6DD
100
AcDbEntity
  8
2
100
AcDbLine
 10
146.53467
 20
-109.856662
 30
0.0
 11
148.003242
 21
-109.856662
 31
0.0
  0
LINE
  5
6DE
100
AcDbEntity
  8
2
100
AcDbLine
 10
148.003242
 20
-109.856662
 30
0.0
 11
148.003242
 21
-97.656662
 31
0.0
  0
LINE
  5
6DF
100
AcDbEntity
  8
2
100
AcDbLine
 10
59.503242
 20
-106.756662
 30
0.0
 11
59.503242
 21
-27.423328
 31
0.0
  0
LINE
  5
6E0
100
AcDbEntity
  8
2
100
AcDbLine
 10
46.592447
 20
-104.506662
 30
0.0
 11
48.203242
 21
-104.506662
 31
0.0
  0
ARC
  5
6E1
100
AcDbEntity
  8
2
100
AcDbCircle
 10
46.592447
 20
-103.506662
 30
0.0
 40
1.0
100
AcDbArc
 50
212.392365
 51
270.0
  0
LINE
  5
6E2
100
AcDbEntity
  8
2
100
AcDbLine
 10
48.203242
 20
-95.006662
 30
0.0
 11
48.203242
 21
-104.506662
 31
0.0
  0
LINE
  5
6E3
100
AcDbEntity
  8
2
100
AcDbLine
 10
48.203242
 20
-104.356662
 30
0.0
 11
49.503242
 21
-104.356662
 31
0.0
  0
LINE
  5
6E4
100
AcDbEntity
  8
2
100
AcDbLine
 10
46.592447
 20
-95.006662
 30
0.0
 11
48.203242
 21
-95.006662
 31
0.0
  0
LINE
  5
6E5
100
AcDbEntity
  8
2
100
AcDbLine
 10
48.203242
 20
-95.156662
 30
0.0
 11
49.503242
 21
-95.156662
 31
0.0
  0
LINE
  5
6E6
100
AcDbEntity
  8
2
100
AcDbLine
 10
44.518882
 20
-100.256662
 30
0.0
 11
44.703242
 21
-100.256662
 31
0.0
  0
LINE
  5
6E7
100
AcDbEntity
  8
2
100
AcDbLine
 10
44.518882
 20
-99.256662
 30
0.0
 11
44.703242
 21
-99.256662
 31
0.0
  0
LINE
  5
6E8
100
AcDbEntity
  8
2
100
AcDbLine
 10
44.703242
 20
-100.256662
 30
0.0
 11
44.703242
 21
-99.256662
 31
0.0
  0
ARC
  5
6E9
100
AcDbEntity
  8
2
100
AcDbCircle
 10
52.503242
 20
-99.756662
 30
0.0
 40
8.0
100
AcDbArc
 50
183.583322
 51
212.392365
  0
ARC
  5
6EA
100
AcDbEntity
  8
2
100
AcDbCircle
 10
52.503242
 20
-99.756662
 30
0.0
 40
8.0
100
AcDbArc
 50
147.607635
 51
176.416678
  0
ARC
  5
6EB
100
AcDbEntity
  8
2
100
AcDbCircle
 10
46.592447
 20
-96.006662
 30
0.0
 40
1.0
100
AcDbArc
 50
90.0
 51
147.607635
  0
LINE
  5
6EC
100
AcDbEntity
  8
2
100
AcDbLine
 10
46.592447
 20
-38.006662
 30
0.0
 11
48.203242
 21
-38.006662
 31
0.0
  0
ARC
  5
6ED
100
AcDbEntity
  8
2
100
AcDbCircle
 10
46.592447
 20
-37.006662
 30
0.0
 40
1.0
100
AcDbArc
 50
212.392365
 51
270.0
  0
LINE
  5
6EE
100
AcDbEntity
  8
2
100
AcDbLine
 10
48.203242
 20
-28.506662
 30
0.0
 11
48.203242
 21
-38.006662
 31
0.0
  0
LINE
  5
6EF
100
AcDbEntity
  8
2
100
AcDbLine
 10
48.203242
 20
-37.856662
 30
0.0
 11
49.503242
 21
-37.856662
 31
0.0
  0
LINE
  5
6F0
100
AcDbEntity
  8
2
100
AcDbLine
 10
46.592447
 20
-28.506662
 30
0.0
 11
48.203242
 21
-28.506662
 31
0.0
  0
LINE
  5
6F1
100
AcDbEntity
  8
2
100
AcDbLine
 10
48.203242
 20
-28.656662
 30
0.0
 11
49.503242
 21
-28.656662
 31
0.0
  0
LINE
  5
6F2
100
AcDbEntity
  8
2
100
AcDbLine
 10
44.518882
 20
-33.756662
 30
0.0
 11
44.703242
 21
-33.756662
 31
0.0
  0
LINE
  5
6F3
100
AcDbEntity
  8
2
100
AcDbLine
 10
44.518882
 20
-32.756662
 30
0.0
 11
44.703242
 21
-32.756662
 31
0.0
  0
LINE
  5
6F4
100
AcDbEntity
  8
2
100
AcDbLine
 10
44.703242
 20
-33.756662
 30
0.0
 11
44.703242
 21
-32.756662
 31
0.0
  0
ARC
  5
6F5
100
AcDbEntity
  8
2
100
AcDbCircle
 10
52.503242
 20
-33.256662
 30
0.0
 40
8.0
100
AcDbArc
 50
183.583322
 51
212.392365
  0
ARC
  5
6F6
100
AcDbEntity
  8
2
100
AcDbCircle
 10
52.503242
 20
-33.256662
 30
0.0
 40
8.0
100
AcDbArc
 50
147.607635
 51
176.416678
  0
ARC
  5
6F7
100
AcDbEntity
  8
2
100
AcDbCircle
 10
46.592447
 20
-29.506662
 30
0.0
 40
1.0
100
AcDbArc
 50
90.0
 51
147.607635
  0
LINE
  5
6F8
100
AcDbEntity
  8
2
100
AcDbLine
 10
30.503242
 20
-80.256662
 30
0.0
 11
30.503242
 21
-55.256662
 31
0.0
  0
LINE
  5
6F9
100
AcDbEntity
  8
2
100
AcDbLine
 10
26.803242
 20
-55.256662
 30
0.0
 11
30.503242
 21
-55.256662
 31
0.0
  0
LINE
  5
6FA
100
AcDbEntity
  8
2
100
AcDbLine
 10
26.503242
 20
-55.556662
 30
0.0
 11
26.803242
 21
-55.256662
 31
0.0
  0
LINE
  5
6FB
100
AcDbEntity
  8
2
100
AcDbLine
 10
26.503242
 20
-55.556662
 30
0.0
 11
26.503242
 21
-79.956662
 31
0.0
  0
LINE
  5
6FC
100
AcDbEntity
  8
2
100
AcDbLine
 10
26.503242
 20
-79.956662
 30
0.0
 11
26.803242
 21
-80.256662
 31
0.0
  0
LINE
  5
6FD
100
AcDbEntity
  8
2
100
AcDbLine
 10
26.803242
 20
-80.256662
 30
0.0
 11
30.503242
 21
-80.256662
 31
0.0
  0
LINE
  5
6FE
100
AcDbEntity
  8
2
100
AcDbLine
 10
30.503242
 20
-79.756662
 30
0.0
 11
30.503242
 21
-55.756662
 31
0.0
  0
LINE
  5
6FF
100
AcDbEntity
  8
2
100
AcDbLine
 10
31.003242
 20
-80.256662
 30
0.0
 11
31.503242
 21
-80.256662
 31
0.0
  0
LINE
  5
700
100
AcDbEntity
  8
2
100
AcDbLine
 10
31.003242
 20
-55.256662
 30
0.0
 11
31.503242
 21
-55.256662
 31
0.0
  0
ARC
  5
701
100
AcDbEntity
  8
2
100
AcDbCircle
 10
31.003242
 20
-79.756662
 30
0.0
 40
0.5
100
AcDbArc
 50
180.0
 51
270.0
  0
ARC
  5
702
100
AcDbEntity
  8
2
100
AcDbCircle
 10
31.003242
 20
-55.756662
 30
0.0
 40
0.5
100
AcDbArc
 50
90.0
 51
180.0
  0
ARC
  5
703
100
AcDbEntity
  8
2
100
AcDbCircle
 10
31.503242
 20
-81.256662
 30
0.0
 40
1.0
100
AcDbArc
 50
0.0
 51
90.0
  0
ARC
  5
704
100
AcDbEntity
  8
2
100
AcDbCircle
 10
31.503242
 20
-54.256662
 30
0.0
 40
1.0
100
AcDbArc
 50
270.0
 51
360.0
  0
LINE
  5
705
100
AcDbEntity
  8
2
100
AcDbLine
 10
32.503242
 20
-95.740153
 30
0.0
 11
32.503242
 21
-39.77317
 31
0.0
  0
LINE
  5
706
100
AcDbEntity
  8
2
100
AcDbLine
 10
49.503242
 20
-105.756662
 30
0.0
 11
49.503242
 21
-27.756662
 31
0.0
  0
LINE
  5
707
100
AcDbEntity
  8
2
100
AcDbLine
 10
59.503242
 20
-106.756662
 30
0.0
 11
50.503242
 21
-106.756662
 31
0.0
  0
LINE
  5
708
100
AcDbEntity
  8
2
100
AcDbLine
 10
59.503242
 20
-26.756662
 30
0.0
 11
50.503242
 21
-26.756662
 31
0.0
  0
ARC
  5
709
100
AcDbEntity
  8
2
100
AcDbCircle
 10
50.503242
 20
-105.756662
 30
0.0
 40
1.0
100
AcDbArc
 50
180.0
 51
270.0
  0
ARC
  5
70A
100
AcDbEntity
  8
2
100
AcDbCircle
 10
50.503242
 20
-27.756662
 30
0.0
 40
1.0
100
AcDbArc
 50
90.0
 51
180.0
  0
LINE
  5
70B
100
AcDbEntity
  8
2
100
AcDbLine
 10
36.725756
 20
-100.679335
 30
0.0
 11
44.81034
 21
-101.951944
 31
0.0
  0
ARC
  5
70C
100
AcDbEntity
  8
2
100
AcDbCircle
 10
46.503242
 20
-105.255367
 30
0.0
 40
3.0
100
AcDbArc
 50
0.0
 51
17.431677
  0
ARC
  5
70D
100
AcDbEntity
  8
2
100
AcDbCircle
 10
37.503242
 20
-95.740153
 30
0.0
 40
5.0
100
AcDbArc
 50
180.0
 51
261.054375
  0
LINE
  5
70E
100
AcDbEntity
  8
2
100
AcDbLine
 10
36.725756
 20
-34.833988
 30
0.0
 11
44.703242
 21
-33.578238
 31
0.0
  0
ARC
  5
70F
100
AcDbEntity
  8
2
100
AcDbCircle
 10
37.503242
 20
-39.77317
 30
0.0
 40
5.0
100
AcDbArc
 50
98.945625
 51
180.0
  0
LINE
  5
710
100
AcDbEntity
  8
2
100
AcDbLine
 10
152.010277
 20
-81.25453
 30
0.0
 11
157.782789
 21
-87.444791
 31
0.0
  0
LINE
  5
711
100
AcDbEntity
  8
2
100
AcDbLine
 10
156.02529
 20
-80.894432
 30
0.0
 11
156.234687
 21
-74.898087
 31
0.0
  0
LINE
  5
712
100
AcDbEntity
  8
2
100
AcDbLine
 10
152.010277
 20
-81.25453
 30
0.0
 11
156.02529
 21
-80.894432
 31
0.0
  0
LINE
  5
713
100
AcDbEntity
  8
2
100
AcDbLine
 10
156.234687
 20
-74.898087
 30
0.0
 11
152.254573
 21
-74.258794
 31
0.0
  0
LINE
  5
714
100
AcDbEntity
  8
2
100
AcDbLine
 10
152.254573
 20
-74.258794
 30
0.0
 11
158.444835
 21
-68.486281
 31
0.0
  0
LINE
  5
715
100
AcDbEntity
  8
2
100
AcDbLine
 10
156.234687
 20
-74.898087
 30
0.0
 11
161.152992
 21
-72.282978
 31
0.0
  0
ARC
  5
716
100
AcDbEntity
  8
2
100
AcDbCircle
 10
160.048836
 20
-70.206362
 30
0.0
 40
2.351913
100
AcDbArc
 50
298.0
 51
133.0
  0
LINE
  5
717
100
AcDbEntity
  8
2
100
AcDbLine
 10
156.02529
 20
-80.894432
 30
0.0
 11
160.749194
 21
-83.846255
 31
0.0
  0
ARC
  5
718
100
AcDbEntity
  8
2
100
AcDbCircle
 10
159.50287
 20
-85.840791
 30
0.0
 40
2.351913
100
AcDbArc
 50
223.0
 51
58.0
  0
LINE
  5
719
100
AcDbEntity
  8
2
100
AcDbLine
 10
152.027727
 20
-80.754834
 30
0.0
 11
152.237124
 21
-74.758489
 31
0.0
  0
LINE
  5
71A
100
AcDbEntity
  8
2
100
AcDbLine
 10
154.804181
 20
-71.881246
 30
0.0
 11
151.341213
 21
-71.760317
 31
0.0
  0
LINE
  5
71B
100
AcDbEntity
  8
2
100
AcDbLine
 10
155.177915
 20
-122.925384
 30
0.0
 11
149.561338
 21
-122.729249
 31
0.0
  0
LINE
  5
71C
100
AcDbEntity
  8
2
100
AcDbLine
 10
155.177915
 20
-122.925384
 30
0.0
 11
156.264244
 21
-91.816971
 31
0.0
  0
LINE
  5
71D
100
AcDbEntity
  8
2
100
AcDbLine
 10
153.735794
 20
-122.875024
 30
0.0
 11
154.880539
 21
-90.093817
 31
0.0
  0
LINE
  5
71E
100
AcDbEntity
  8
2
100
AcDbLine
 10
154.917521
 20
-89.034778
 30
0.0
 11
155.074466
 21
-84.54047
 31
0.0
  0
LINE
  5
71F
100
AcDbEntity
  8
2
100
AcDbLine
 10
151.003459
 20
-122.779609
 30
0.0
 11
152.155143
 21
-89.799712
 31
0.0
  0
LINE
  5
720
100
AcDbEntity
  8
2
100
AcDbLine
 10
149.561338
 20
-122.729249
 30
0.0
 11
150.713022
 21
-89.749352
 31
0.0
  0
LINE
  5
721
100
AcDbEntity
  8
2
100
AcDbLine
 10
151.306313
 20
-72.759708
 30
0.0
 11
151.341213
 21
-71.760317
 31
0.0
  0
LINE
  5
722
100
AcDbEntity
  8
2
100
AcDbLine
 10
152.190042
 20
-88.800321
 30
0.0
 11
152.437547
 21
-81.71272
 31
0.0
  0
LINE
  5
723
100
AcDbEntity
  8
2
100
AcDbLine
 10
152.712764
 20
-73.831524
 30
0.0
 11
152.783334
 21
-71.810677
 31
0.0
  0
LINE
  5
724
100
AcDbEntity
  8
2
100
AcDbLine
 10
156.330595
 20
-89.916947
 30
0.0
 11
156.466227
 21
-86.032951
 31
0.0
  0
LINE
  5
725
100
AcDbEntity
  8
2
100
AcDbLine
 10
156.63242
 20
-81.273809
 30
0.0
 11
156.866802
 21
-74.561986
 31
0.0
  0
LINE
  5
726
100
AcDbEntity
  8
2
100
AcDbLine
 10
152.305704
 20
-72.794607
 30
0.0
 11
151.306313
 21
-72.759708
 31
0.0
  0
LINE
  5
727
100
AcDbEntity
  8
2
100
AcDbLine
 10
153.945972
 20
-88.861639
 30
0.0
 11
151.747312
 21
-88.78486
 31
0.0
  0
LINE
  5
728
100
AcDbEntity
  8
2
100
AcDbLine
 10
152.305704
 20
-72.794607
 30
0.0
 11
151.747312
 21
-88.78486
 31
0.0
  0
LINE
  5
729
100
AcDbEntity
  8
2
100
AcDbLine
 10
153.911072
 20
-89.86103
 30
0.0
 11
150.713022
 21
-89.749352
 31
0.0
  0
LINE
  5
72A
100
AcDbEntity
  8
2
100
AcDbLine
 10
150.713022
 20
-89.749352
 30
0.0
 11
151.306313
 21
-72.759708
 31
0.0
  0
ARC
  5
72B
100
AcDbEntity
  8
2
100
AcDbCircle
 10
153.823824
 20
-92.359507
 30
0.0
 40
3.5
100
AcDbArc
 50
311.743299
 51
88.0
  0
ARC
  5
72C
100
AcDbEntity
  8
2
100
AcDbCircle
 10
153.823824
 20
-92.359507
 30
0.0
 40
2.5
100
AcDbArc
 50
343.466253
 51
88.0
  0
LINE
  5
72D
100
AcDbEntity
  8
2
  6
CENTER
 62
     2
100
AcDbLine
 10
15.630019
 20
-67.756662
 30
0.0
 11
169.919526
 21
-67.756662
 31
0.0
  0
LINE
  5
72E
100
AcDbEntity
  8
2
  6
CENTER
 62
     2
100
AcDbLine
 10
67.025742
 20
-27.756662
 30
0.0
 11
105.980742
 21
-27.756662
 31
0.0
  0
LINE
  5
72F
100
AcDbEntity
  8
2
  6
CENTER
 62
     2
100
AcDbLine
 10
86.503242
 20
-47.234162
 30
0.0
 11
86.503242
 21
-8.279162
 31
0.0
  0
LINE
  5
730
100
AcDbEntity
  8
2
  6
CENTER
 62
     2
100
AcDbLine
 10
117.025742
 20
-27.756662
 30
0.0
 11
155.980742
 21
-27.756662
 31
0.0
  0
LINE
  5
731
100
AcDbEntity
  8
2
  6
CENTER
 62
     2
100
AcDbLine
 10
136.503242
 20
-47.234162
 30
0.0
 11
136.503242
 21
-8.279162
 31
0.0
  0
LINE
  5
732
100
AcDbEntity
  8
2
  6
CENTER
 62
     2
100
AcDbLine
 10
159.49702
 20
-103.756662
 30
0.0
 11
137.131969
 21
-103.756662
 31
0.0
  0
LINE
  5
733
100
AcDbEntity
  8
2
  6
CENTER
 62
     2
100
AcDbLine
 10
38.07463
 20
-33.256662
 30
0.0
 11
56.773223
 21
-33.256662
 31
0.0
  0
LINE
  5
734
100
AcDbEntity
  8
2
  6
CENTER
 62
     2
100
AcDbLine
 10
38.07463
 20
-99.756662
 30
0.0
 11
56.773223
 21
-99.756662
 31
0.0
  0
LINE
  5
735
100
AcDbEntity
  8
2
  6
CENTER
 62
     2
100
AcDbLine
 10
138.820863
 20
-77.756662
 30
0.0
 11
164.876497
 21
-77.756662
 31
0.0
  0
LINE
  5
736
100
AcDbEntity
  8
2
100
AcDbLine
 10
94.782441
 20
-109.956662
 30
0.0
 11
103.475305
 21
-109.956662
 31
0.0
  0
LINE
  5
737
100
AcDbEntity
  8
2
100
AcDbLine
 10
119.531178
 20
-109.956662
 30
0.0
 11
128.224043
 21
-109.956662
 31
0.0
  0
DIMENSION
  5
738
100
AcDbEntity
  8
5
100
AcDbDimension
  2
*D0
 10
-49.058516
 20
-110.756662
 30
0.0
 11
-60.953515
 21
-189.251662
 31
0.0
  1
156
100
AcDbAlignedDimension
 13
72.263242
 23
-266.756662
 33
0.0
 14
76.503242
 24
-110.756662
 34
0.0
 50
90.0
100
AcDbRotatedDimension
  0
DIMENSION
  5
739
100
AcDbEntity
  8
5
100
AcDbDimension
  2
*D1
 10
-49.058516
 20
-266.756662
 30
0.0
 11
-57.488515
 21
-306.686662
 31
0.0
  1
86
100
AcDbAlignedDimension
 13
99.518347
 23
-352.556662
 33
0.0
 14
72.263242
 24
-266.756662
 34
0.0
 50
90.0
100
AcDbRotatedDimension
  0
DIMENSION
  5
73A
100
AcDbEntity
  8
5
100
AcDbDimension
  2
*D2
 10
134.503242
 20
-382.963531
 30
0.0
 11
111.503242
 21
-376.513532
 31
0.0
  1
46
100
AcDbAlignedDimension
 13
88.503242
 23
-331.256662
 33
0.0
 14
134.503242
 24
-334.756662
 34
0.0
100
AcDbRotatedDimension
  0
TEXT
  5
73B
100
AcDbEntity
  8
5
100
AcDbText
 10
324.389557
 20
-159.884914
 30
0.0
 40
18.0
  1
駆動部・・・４Ｉ－０型 
 72
     5
 11
518.789557
 21
-159.884914
 31
0.0
100
AcDbText
  0
TEXT
  5
73C
100
AcDbEntity
  8
5
100
AcDbText
 10
392.288681
 20
-183.315399
 30
0.0
 40
18.0
  1
（コントロールユニット付）
 41
0.8
 72
     5
 11
576.608681
 21
-183.315399
 31
0.0
100
AcDbText
  0
DIMENSION
  5
73D
100
AcDbEntity
  8
5
100
AcDbDimension
  2
*D3
 10
-275.146758
 20
367.488098
 30
0.0
 11
-325.146758
 21
373.938098
 31
0.0
  1
100
100
AcDbAlignedDimension
 13
-375.146758
 23
238.243338
 33
0.0
 14
-275.146758
 24
332.912382
 34
0.0
100
AcDbRotatedDimension
  0
DIMENSION
  5
73E
100
AcDbEntity
  8
5
100
AcDbDimension
  2
*D4
 10
-173.146758
 20
367.488098
 30
0.0
 11
-224.146758
 21
373.938098
 31
0.0
  1
102
100
AcDbAlignedDimension
 13
-275.146758
 23
367.488098
 33
0.0
 14
-173.146758
 24
306.743338
 34
0.0
100
AcDbRotatedDimension
  0
DIMENSION
  5
73F
100
AcDbEntity
  8
5
100
AcDbDimension
  2
*D5
 10
-131.589592
 20
322.546338
 30
0.0
 11
-146.949592
 21
291.684838
 31
0.0
  1
53.8
100
AcDbAlignedDimension
 13
-169.641205
 23
268.743338
 33
0.0
 14
-191.343758
 24
322.546338
 34
0.0
 50
90.0
100
AcDbRotatedDimension
  0
DIMENSION
  5
740
100
AcDbEntity
  8
5
100
AcDbDimension
  2
*D6
 10
-131.589592
 20
268.743338
 30
0.0
 11
-140.019592
 21
229.213338
 31
0.0
  1
85
100
AcDbAlignedDimension
 13
-234.446758
 23
183.743338
 33
0.0
 14
-131.589592
 24
268.743338
 34
0.0
 50
90.0
100
AcDbRotatedDimension
  0
DIMENSION
  5
741
100
AcDbEntity
  8
5
100
AcDbDimension
  2
*D7
 10
-49.058516
 20
65.243338
 30
0.0
 11
-60.953515
 21
-23.251662
 31
0.0
  1
176
100
AcDbAlignedDimension
 13
76.503242
 23
-110.756662
 33
0.0
 14
111.503242
 24
65.243338
 34
0.0
 50
90.0
100
AcDbRotatedDimension
  0
LINE
  5
742
100
AcDbEntity
  8
18
100
AcDbLine
 10
364.647228
 20
-204.646854
 30
0.0
 11
514.647228
 21
-204.646854
 31
0.0
  0
LINE
  5
743
100
AcDbEntity
  8
18
100
AcDbLine
 10
364.647228
 20
-264.646854
 30
0.0
 11
514.647228
 21
-264.646854
 31
0.0
  0
LINE
  5
744
100
AcDbEntity
  8
18
100
AcDbLine
 10
364.647228
 20
-279.646854
 30
0.0
 11
514.647228
 21
-279.646854
 31
0.0
  0
LINE
  5
745
100
AcDbEntity
  8
18
100
AcDbLine
 10
364.647228
 20
-294.646854
 30
0.0
 11
514.647228
 21
-294.646854
 31
0.0
  0
LINE
  5
746
100
AcDbEntity
  8
18
100
AcDbLine
 10
364.647228
 20
-204.646854
 30
0.0
 11
364.647228
 21
-294.646854
 31
0.0
  0
LINE
  5
747
100
AcDbEntity
  8
18
100
AcDbLine
 10
439.647228
 20
-204.646854
 30
0.0
 11
439.647228
 21
-279.646854
 31
0.0
  0
LINE
  5
748
100
AcDbEntity
  8
18
100
AcDbLine
 10
514.647228
 20
-204.646854
 30
0.0
 11
514.647228
 21
-294.646854
 31
0.0
  0
LINE
  5
749
100
AcDbEntity
  8
18
  6
CENTER
 62
     2
100
AcDbLine
 10
371.828773
 20
-232.822311
 30
0.0
 11
431.835594
 21
-232.822311
 31
0.0
  0
LINE
  5
74A
100
AcDbEntity
  8
18
  6
CENTER
 62
     2
100
AcDbLine
 10
401.144234
 20
-217.324265
 30
0.0
 11
401.144234
 21
-250.189419
 31
0.0
  0
LINE
  5
74B
100
AcDbEntity
  8
18
100
AcDbLine
 10
377.144234
 20
-222.322311
 30
0.0
 11
422.144234
 21
-222.322311
 31
0.0
  0
LINE
  5
74C
100
AcDbEntity
  8
18
100
AcDbLine
 10
377.144234
 20
-243.322311
 30
0.0
 11
422.144234
 21
-243.322311
 31
0.0
  0
LINE
  5
74D
100
AcDbEntity
  8
18
100
AcDbLine
 10
377.144234
 20
-222.322311
 30
0.0
 11
377.144234
 21
-246.322311
 31
0.0
  0
LINE
  5
74E
100
AcDbEntity
  8
18
100
AcDbLine
 10
419.144234
 20
-222.322311
 30
0.0
 11
419.144234
 21
-243.322311
 31
0.0
  0
LINE
  5
74F
100
AcDbEntity
  8
18
100
AcDbLine
 10
377.144234
 20
-246.322311
 30
0.0
 11
417.144234
 21
-246.322311
 31
0.0
  0
LINE
  5
750
100
AcDbEntity
  8
18
100
AcDbLine
 10
422.144234
 20
-222.322311
 30
0.0
 11
422.144234
 21
-243.322311
 31
0.0
  0
LINE
  5
751
100
AcDbEntity
  8
18
100
AcDbLine
 10
417.144234
 20
-243.322311
 30
0.0
 11
417.144234
 21
-246.322311
 31
0.0
  0
LINE
  5
752
100
AcDbEntity
  8
18
100
AcDbLine
 10
390.644234
 20
-223.822311
 30
0.0
 11
390.644234
 21
-241.822311
 31
0.0
  0
LINE
  5
753
100
AcDbEntity
  8
18
100
AcDbLine
 10
416.144234
 20
-223.822311
 30
0.0
 11
416.144234
 21
-241.822311
 31
0.0
  0
LINE
  5
754
100
AcDbEntity
  8
18
100
AcDbLine
 10
390.644234
 20
-223.822311
 30
0.0
 11
416.144234
 21
-223.822311
 31
0.0
  0
LINE
  5
755
100
AcDbEntity
  8
18
100
AcDbLine
 10
390.644234
 20
-241.822311
 30
0.0
 11
416.144234
 21
-241.822311
 31
0.0
  0
CIRCLE
  5
756
100
AcDbEntity
  8
18
100
AcDbCircle
 10
401.144234
 20
-232.822311
 30
0.0
 40
3.6
  0
LINE
  5
757
100
AcDbEntity
  8
18
  6
DASHED
100
AcDbLine
 10
384.644234
 20
-226.822311
 30
0.0
 11
417.644234
 21
-226.822311
 31
0.0
  0
LINE
  5
758
100
AcDbEntity
  8
18
  6
DASHED
100
AcDbLine
 10
384.644234
 20
-238.822311
 30
0.0
 11
417.644234
 21
-238.822311
 31
0.0
  0
LINE
  5
759
100
AcDbEntity
  8
18
  6
DASHED
100
AcDbLine
 10
417.644234
 20
-226.822311
 30
0.0
 11
417.644234
 21
-238.822311
 31
0.0
  0
LINE
  5
75A
100
AcDbEntity
  8
18
  6
DASHED
100
AcDbLine
 10
384.644234
 20
-226.822311
 30
0.0
 11
384.644234
 21
-238.822311
 31
0.0
  0
LINE
  5
75B
100
AcDbEntity
  8
18
  6
CENTER
 62
     2
100
AcDbLine
 10
456.122978
 20
-232.918785
 30
0.0
 11
498.500055
 21
-232.918785
 31
0.0
  0
LINE
  5
75C
100
AcDbEntity
  8
18
  6
CENTER
 62
     2
100
AcDbLine
 10
409.144234
 20
-244.750105
 30
0.0
 11
409.144234
 21
-257.684772
 31
0.0
  0
LINE
  5
75D
100
AcDbEntity
  8
18
100
AcDbLine
 10
493.954262
 20
-224.918606
 30
0.0
 11
493.954262
 21
-219.047785
 31
0.0
  0
LINE
  5
75E
100
AcDbEntity
  8
18
100
AcDbLine
 10
493.954262
 20
-219.047785
 30
0.0
 11
495.454262
 21
-219.047785
 31
0.0
  0
LINE
  5
75F
100
AcDbEntity
  8
18
100
AcDbLine
 10
495.454262
 20
-224.918606
 30
0.0
 11
495.454262
 21
-219.047785
 31
0.0
  0
LINE
  5
760
100
AcDbEntity
  8
18
100
AcDbLine
 10
493.954262
 20
-230.789427
 30
0.0
 11
495.454262
 21
-230.789427
 31
0.0
  0
LINE
  5
761
100
AcDbEntity
  8
18
  6
CENTER
 62
     2
100
AcDbLine
 10
475.954262
 20
-207.68655
 30
0.0
 11
475.954262
 21
-260.49115
 31
0.0
  0
LINE
  5
762
100
AcDbEntity
  8
18
100
AcDbLine
 10
465.454262
 20
-256.918785
 30
0.0
 11
465.454262
 21
-211.918785
 31
0.0
  0
LINE
  5
763
100
AcDbEntity
  8
18
100
AcDbLine
 10
486.454262
 20
-256.918785
 30
0.0
 11
486.454262
 21
-211.918785
 31
0.0
  0
LINE
  5
764
100
AcDbEntity
  8
18
100
AcDbLine
 10
465.454262
 20
-256.918785
 30
0.0
 11
489.454262
 21
-256.918785
 31
0.0
  0
LINE
  5
765
100
AcDbEntity
  8
18
100
AcDbLine
 10
465.454262
 20
-214.918785
 30
0.0
 11
486.454262
 21
-214.918785
 31
0.0
  0
LINE
  5
766
100
AcDbEntity
  8
18
100
AcDbLine
 10
489.454262
 20
-256.918785
 30
0.0
 11
489.454262
 21
-216.918785
 31
0.0
  0
LINE
  5
767
100
AcDbEntity
  8
18
100
AcDbLine
 10
465.454262
 20
-211.918785
 30
0.0
 11
486.454262
 21
-211.918785
 31
0.0
  0
LINE
  5
768
100
AcDbEntity
  8
18
100
AcDbLine
 10
486.454262
 20
-216.918785
 30
0.0
 11
489.454262
 21
-216.918785
 31
0.0
  0
LINE
  5
769
100
AcDbEntity
  8
18
100
AcDbLine
 10
466.954262
 20
-243.418785
 30
0.0
 11
484.954262
 21
-243.418785
 31
0.0
  0
LINE
  5
76A
100
AcDbEntity
  8
18
100
AcDbLine
 10
466.954262
 20
-217.918785
 30
0.0
 11
484.954262
 21
-217.918785
 31
0.0
  0
LINE
  5
76B
100
AcDbEntity
  8
18
100
AcDbLine
 10
466.954262
 20
-243.418785
 30
0.0
 11
466.954262
 21
-217.918785
 31
0.0
  0
LINE
  5
76C
100
AcDbEntity
  8
18
100
AcDbLine
 10
484.954262
 20
-243.418785
 30
0.0
 11
484.954262
 21
-217.918785
 31
0.0
  0
CIRCLE
  5
76D
100
AcDbEntity
  8
18
100
AcDbCircle
 10
475.954262
 20
-232.918785
 30
0.0
 40
3.6
  0
LINE
  5
76E
100
AcDbEntity
  8
18
100
AcDbLine
 10
459.454262
 20
-226.918785
 30
0.0
 11
459.454262
 21
-238.918785
 31
0.0
  0
LINE
  5
76F
100
AcDbEntity
  8
18
  6
CENTER
 62
     2
100
AcDbLine
 10
487.882055
 20
-224.918785
 30
0.0
 11
501.689066
 21
-224.918785
 31
0.0
  0
LINE
  5
770
100
AcDbEntity
  8
18
100
AcDbLine
 10
459.454262
 20
-226.918785
 30
0.0
 11
465.454262
 21
-226.918785
 31
0.0
  0
LINE
  5
771
100
AcDbEntity
  8
18
100
AcDbLine
 10
489.454262
 20
-238.918785
 30
0.0
 11
492.454262
 21
-238.918785
 31
0.0
  0
LINE
  5
772
100
AcDbEntity
  8
18
100
AcDbLine
 10
459.454262
 20
-238.918785
 30
0.0
 11
465.454262
 21
-238.918785
 31
0.0
  0
LINE
  5
773
100
AcDbEntity
  8
18
  6
DASHED
100
AcDbLine
 10
465.454262
 20
-238.918785
 30
0.0
 11
489.454262
 21
-238.918785
 31
0.0
  0
LINE
  5
774
100
AcDbEntity
  8
18
100
AcDbLine
 10
492.454262
 20
-232.289606
 30
0.0
 11
492.454262
 21
-238.918785
 31
0.0
  0
LINE
  5
775
100
AcDbEntity
  8
18
  6
DASHED
100
AcDbLine
 10
465.454262
 20
-226.918785
 30
0.0
 11
489.454262
 21
-226.918785
 31
0.0
  0
LINE
  5
776
100
AcDbEntity
  8
18
  6
DASHED
100
AcDbLine
 10
489.454262
 20
-226.918785
 30
0.0
 11
492.049722
 21
-226.918785
 31
0.0
  0
LINE
  5
777
100
AcDbEntity
  8
18
  6
DASHED
100
AcDbLine
 10
492.049722
 20
-226.918785
 30
0.0
 11
492.454262
 21
-226.918785
 31
0.0
  0
LINE
  5
778
100
AcDbEntity
  8
18
100
AcDbLine
 10
489.454262
 20
-220.121066
 30
0.0
 11
493.954262
 21
-222.219451
 31
0.0
  0
LINE
  5
779
100
AcDbEntity
  8
18
100
AcDbLine
 10
489.454262
 20
-229.716146
 30
0.0
 11
493.954262
 21
-227.617762
 31
0.0
  0
LINE
  5
77A
100
AcDbEntity
  8
18
100
AcDbLine
 10
493.954262
 20
-224.918606
 30
0.0
 11
493.954262
 21
-230.789427
 31
0.0
  0
LINE
  5
77B
100
AcDbEntity
  8
18
100
AcDbLine
 10
495.454262
 20
-224.918606
 30
0.0
 11
495.454262
 21
-230.789427
 31
0.0
  0
LINE
  5
77C
100
AcDbEntity
  8
18
100
AcDbLine
 10
409.144055
 20
-250.822311
 30
0.0
 11
403.273234
 21
-250.822311
 31
0.0
  0
LINE
  5
77D
100
AcDbEntity
  8
18
100
AcDbLine
 10
403.273234
 20
-250.822311
 30
0.0
 11
403.273234
 21
-252.322311
 31
0.0
  0
LINE
  5
77E
100
AcDbEntity
  8
18
100
AcDbLine
 10
409.144055
 20
-252.322311
 30
0.0
 11
403.273234
 21
-252.322311
 31
0.0
  0
LINE
  5
77F
100
AcDbEntity
  8
18
100
AcDbLine
 10
415.014876
 20
-250.822311
 30
0.0
 11
415.014876
 21
-252.322311
 31
0.0
  0
LINE
  5
780
100
AcDbEntity
  8
18
100
AcDbLine
 10
404.346515
 20
-246.322311
 30
0.0
 11
406.444899
 21
-250.822311
 31
0.0
  0
LINE
  5
781
100
AcDbEntity
  8
18
100
AcDbLine
 10
413.941595
 20
-246.322311
 30
0.0
 11
411.84321
 21
-250.822311
 31
0.0
  0
LINE
  5
782
100
AcDbEntity
  8
18
100
AcDbLine
 10
409.144055
 20
-250.822311
 30
0.0
 11
415.014876
 21
-250.822311
 31
0.0
  0
LINE
  5
783
100
AcDbEntity
  8
18
100
AcDbLine
 10
409.144055
 20
-252.322311
 30
0.0
 11
415.014876
 21
-252.322311
 31
0.0
  0
LINE
  5
784
100
AcDbEntity
  8
18
  6
DASHED
100
AcDbLine
 10
492.454262
 20
-226.918785
 30
0.0
 11
492.454262
 21
-228.317223
 31
0.0
  0
LINE
  5
785
100
AcDbEntity
  8
18
100
AcDbLine
 10
492.454262
 20
-227.817223
 30
0.0
 11
492.454262
 21
-227.853458
 31
0.0
  0
LINE
  5
786
100
AcDbEntity
  8
18
100
AcDbLine
 10
492.454262
 20
-228.317223
 30
0.0
 11
492.454262
 21
-232.695717
 31
0.0
  0
TEXT
  5
787
100
AcDbEntity
  8
18
100
AcDbText
 10
367.650238
 20
-399.871262
 30
0.0
 40
9.0
  1
１
 72
     5
 11
374.850238
 21
-399.871262
 31
0.0
100
AcDbText
  0
TEXT
  5
788
100
AcDbEntity
  8
18
100
AcDbText
 10
379.338043
 20
-410.836578
 30
0.0
 40
9.0
  1
３
 72
     5
 11
386.538043
 21
-410.836578
 31
0.0
100
AcDbText
  0
TEXT
  5
789
100
AcDbEntity
  8
18
100
AcDbText
 10
376.623608
 20
-290.247757
 30
0.0
 40
7.5
  1
ＡＣＴＵＡＴＯＲ　ＰＯＳＩＴＩＯＮ
 72
     5
 11
502.623608
 21
-290.247757
 31
0.0
100
AcDbText
  0
TEXT
  5
78A
100
AcDbEntity
  8
18
100
AcDbText
 10
395.03944
 20
-276.113216
 30
0.0
 40
9.0
  1
Ａ
 72
     5
 11
402.23944
 21
-276.113216
 31
0.0
100
AcDbText
  0
TEXT
  5
78B
100
AcDbEntity
  8
18
100
AcDbText
 10
470.003597
 20
-276.35368
 30
0.0
 40
9.0
  1
Ｂ
 72
     5
 11
477.203597
 21
-276.35368
 31
0.0
100
AcDbText
  0
TEXT
  5
78C
100
AcDbEntity
  8
18
100
AcDbText
 10
365.562721
 20
-369.105789
 30
0.0
 40
9.0
  1
７３２Ｐ－４ＩＡＳ　８０Ａ
 72
     5
 11
480.762721
 21
-369.105789
 31
0.0
100
AcDbText
  0
TEXT
  5
78D
100
AcDbEntity
  8
18
100
AcDbText
 10
368.562721
 20
-381.105789
 30
0.0
 40
9.0
  1
標準仕様　ＪＩＳ　２０Ｋ
 72
     5
 11
474.762721
 21
-381.105789
 31
0.0
100
AcDbText
  0
TEXT
  5
78E
100
AcDbEntity
  8
18
100
AcDbText
 10
460.8
 20
-408.0
 30
0.0
 40
15.0
  1
Ｄ３－０３３５８
 72
     5
 11
577.8
 21
-408.0
 31
0.0
100
AcDbText
  0
TEXT
  5
78F
100
AcDbEntity
  8
18
100
AcDbText
 10
543.146942
 20
-381.253784
 30
0.0
 40
6.75
  1
′０３．１１．１１
 41
0.8
 72
     5
 11
590.666942
 21
-381.253784
 31
0.0
100
AcDbText
  0
LINE
  5
790
100
AcDbEntity
  8
20
 62
     3
100
AcDbLine
 10
-540.0
 20
-415.5
 30
0.0
 11
600.0
 21
-415.5
 31
0.0
  0
LINE
  5
791
100
AcDbEntity
  8
20
 62
     3
100
AcDbLine
 10
-540.0
 20
396.0
 30
0.0
 11
600.0
 21
396.0
 31
0.0
  0
LINE
  5
792
100
AcDbEntity
  8
20
 62
     3
100
AcDbLine
 10
-540.0
 20
396.0
 30
0.0
 11
-540.0
 21
-415.5
 31
0.0
  0
LINE
  5
793
100
AcDbEntity
  8
20
 62
     3
100
AcDbLine
 10
600.0
 20
396.0
 30
0.0
 11
600.0
 21
-415.5
 31
0.0
  0
LINE
  5
794
100
AcDbEntity
  8
20
 62
     3
100
AcDbLine
 10
180.0
 20
-415.5
 30
0.0
 11
180.0
 21
-355.5
 31
0.0
  0
LINE
  5
795
100
AcDbEntity
  8
20
 62
     3
100
AcDbLine
 10
321.0
 20
-415.5
 30
0.0
 11
321.0
 21
-355.5
 31
0.0
  0
LINE
  5
796
100
AcDbEntity
  8
20
100
AcDbLine
 10
321.0
 20
-385.5
 30
0.0
 11
600.0
 21
-385.5
 31
0.0
  0
LINE
  5
797
100
AcDbEntity
  8
20
 62
     3
100
AcDbLine
 10
180.0
 20
-355.5
 30
0.0
 11
600.0
 21
-355.5
 31
0.0
  0
LINE
  5
798
100
AcDbEntity
  8
20
100
AcDbLine
 10
540.0
 20
-385.5
 30
0.0
 11
540.0
 21
-355.5
 31
0.0
  0
LINE
  5
799
100
AcDbEntity
  8
20
100
AcDbLine
 10
540.0
 20
-370.5
 30
0.0
 11
600.0
 21
-370.5
 31
0.0
  0
LINE
  5
79A
100
AcDbEntity
  8
20
100
AcDbLine
 10
363.0
 20
-415.5
 30
0.0
 11
363.0
 21
-355.5
 31
0.0
  0
LINE
  5
79B
100
AcDbEntity
  8
20
100
AcDbLine
 10
393.0
 20
-415.5
 30
0.0
 11
393.0
 21
-385.5
 31
0.0
  0
LINE
  5
79C
100
AcDbEntity
  8
20
100
AcDbLine
 10
453.0
 20
-415.5
 30
0.0
 11
453.0
 21
-385.5
 31
0.0
  0
LINE
  5
79D
100
AcDbEntity
  8
20
100
AcDbLine
 10
371.185244
 20
-407.314756
 30
0.0
 11
383.694872
 21
-394.805128
 31
0.0
  0
TEXT
  5
79E
100
AcDbEntity
  8
20
100
AcDbText
 10
394.599987
 20
-397.490753
 30
0.0
 40
5.4
  1
ＤＲＡＷＩＮＧ　ＮＯ．
 72
     5
 11
452.919987
 21
-397.490753
 31
0.0
100
AcDbText
  0
TEXT
  5
79F
100
AcDbEntity
  8
20
100
AcDbText
 10
400.5
 20
-409.5
 30
0.0
 40
9.0
  1
図　　　番
 72
     5
 11
443.7
 21
-409.5
 31
0.0
100
AcDbText
  0
TEXT
  5
7A0
100
AcDbEntity
  8
20
100
AcDbText
 10
558.0
 20
-366.0
 30
0.0
 40
6.0
  1
ＤＡＴＥ
 72
     5
 11
580.8
 21
-366.0
 31
0.0
100
AcDbText
  0
TEXT
  5
7A1
100
AcDbEntity
  8
20
100
AcDbText
 10
327.003213
 20
-398.883087
 30
0.0
 40
6.0
  1
ＳＣＡＬＥ
 72
     5
 11
355.803213
 21
-398.883087
 31
0.0
100
AcDbText
  0
TEXT
  5
7A2
100
AcDbEntity
  8
20
100
AcDbText
 10
324.0
 20
-409.5
 30
0.0
 40
9.0
  1
尺　　度
 72
     5
 11
358.2
 21
-409.5
 31
0.0
100
AcDbText
  0
TEXT
  5
7A3
100
AcDbEntity
  8
20
100
AcDbText
 10
322.503213
 20
-367.487654
 30
0.0
 40
6.0
  1
ＦＩＧ．ＮＯ．
 72
     5
 11
363.303213
 21
-367.487654
 31
0.0
100
AcDbText
  0
TEXT
  5
7A4
100
AcDbEntity
  8
20
100
AcDbText
 10
324.0
 20
-379.5
 30
0.0
 40
9.0
  1
名　　称
 72
     5
 11
358.2
 21
-379.5
 31
0.0
100
AcDbText
  0
TEXT
  5
7A5
100
AcDbEntity
  8
20
100
AcDbText
 10
181.696575
 20
-379.410759
 30
0.0
 40
6.9
  1
ＴＯＭＯＥ　ＶＡＬＶＥ　ＣＯ．，ＬＴＤ．
 72
     5
 11
318.316575
 21
-379.410759
 31
0.0
100
AcDbText
  0
TEXT
  5
7A6
100
AcDbEntity
  8
20
100
AcDbText
 10
202.5
 20
-399.869431
 30
0.0
 40
12.0
  1
巴バルブ株式会社
 72
     5
 11
296.1
 21
-399.869431
 31
0.0
100
AcDbText
  0
ENDSEC
  0
SECTION
  2
OBJECTS
  0
DICTIONARY
  5
805
100
AcDbDictionary
  3
ACAD_GROUP
350
806
  3
ACAD_MLINESTYLE
350
807
  0
DICTIONARY
  5
806
102
{ACAD_REACTORS
330
805
102
}
100
AcDbDictionary
  0
DICTIONARY
  5
807
102
{ACAD_REACTORS
330
805
102
}
100
AcDbDictionary
  3
STANDARD
350
808
  0
MLINESTYLE
  5
808
102
{ACAD_REACTORS
330
807
102
}
100
AcDbMlineStyle
  2
STANDARD
 70
     0
  3

 62
     0
 51
90.0
 52
90.0
 71
     2
 49
0.5
 62
   256
  6
BYLAYER
 49
-0.5
 62
   256
  6
BYLAYER
  0
ENDSEC
  0
EOF
