  0
SECTION
  2
HEADER
  9
$ACADVER
  1
AC1015
  9
$ACADMAINTVER
 70
    20
  9
$DWGCODEPAGE
  3
ANSI_932
  9
$INSBASE
 10
0.0
 20
0.0
 30
0.0
  9
$EXTMIN
 10
-360.0402811775452
 20
-277.0326218847565
 30
-0.0015258207003583
  9
$EXTMAX
 10
400.0305195106547
 20
264.0261854266587
 30
0.0000000349246037
  9
$LIMMIN
 10
-420.0
 20
-297.0
  9
$LIMMAX
 10
420.0
 20
297.0
  9
$ORTHOMODE
 70
     0
  9
$REGENMODE
 70
     1
  9
$FILLMODE
 70
     1
  9
$QTEXTMODE
 70
     0
  9
$MIRRTEXT
 70
     1
  9
$LTSCALE
 40
1.0
  9
$ATTMODE
 70
     1
  9
$TEXTSIZE
 40
1.0
  9
$TRACEWID
 40
0.05
  9
$TEXTSTYLE
  7
STANDARD
  9
$CLAYER
  8
0
  9
$CELTYPE
  6
CONTINUOUS
  9
$CECOLOR
 62
   256
  9
$CELTSCALE
 40
1.0
  9
$DISPSILH
 70
     0
  9
$DIMSCALE
 40
2.0
  9
$DIMASZ
 40
0.18
  9
$DIMEXO
 40
0.0625
  9
$DIMDLI
 40
0.38
  9
$DIMRND
 40
0.0
  9
$DIMDLE
 40
0.0
  9
$DIMEXE
 40
0.18
  9
$DIMTP
 40
0.0
  9
$DIMTM
 40
0.0
  9
$DIMTXT
 40
0.18
  9
$DIMCEN
 40
0.09
  9
$DIMTSZ
 40
0.0
  9
$DIMTOL
 70
     0
  9
$DIMLIM
 70
     0
  9
$DIMTIH
 70
     1
  9
$DIMTOH
 70
     1
  9
$DIMSE1
 70
     0
  9
$DIMSE2
 70
     0
  9
$DIMTAD
 70
     1
  9
$DIMZIN
 70
     0
  9
$DIMBLK
  1

  9
$DIMASO
 70
     1
  9
$DIMSHO
 70
     1
  9
$DIMPOST
  1

  9
$DIMAPOST
  1

  9
$DIMALT
 70
     0
  9
$DIMALTD
 70
     2
  9
$DIMALTF
 40
25.4
  9
$DIMLFAC
 40
1.0
  9
$DIMTOFL
 70
     0
  9
$DIMTVP
 40
0.0
  9
$DIMTIX
 70
     0
  9
$DIMSOXD
 70
     0
  9
$DIMSAH
 70
     0
  9
$DIMBLK1
  1

  9
$DIMBLK2
  1

  9
$DIMSTYLE
  2
STANDARD
  9
$DIMCLRD
 70
     0
  9
$DIMCLRE
 70
     0
  9
$DIMCLRT
 70
     0
  9
$DIMTFAC
 40
1.0
  9
$DIMGAP
 40
0.09
  9
$DIMJUST
 70
     0
  9
$DIMSD1
 70
     0
  9
$DIMSD2
 70
     0
  9
$DIMTOLJ
 70
     1
  9
$DIMTZIN
 70
     0
  9
$DIMALTZ
 70
     0
  9
$DIMALTTZ
 70
     0
  9
$DIMUPT
 70
     0
  9
$DIMDEC
 70
     4
  9
$DIMTDEC
 70
     4
  9
$DIMALTU
 70
     2
  9
$DIMALTTD
 70
     2
  9
$DIMTXSTY
  7
STANDARD
  9
$DIMAUNIT
 70
     0
  9
$DIMADEC
 70
     0
  9
$DIMALTRND
 40
0.0
  9
$DIMAZIN
 70
     0
  9
$DIMDSEP
 70
    46
  9
$DIMATFIT
 70
     3
  9
$DIMFRAC
 70
     0
  9
$DIMLDRBLK
  1

  9
$DIMLUNIT
 70
     2
  9
$DIMLWD
 70
    -2
  9
$DIMLWE
 70
    -2
  9
$DIMTMOVE
 70
     0
  9
$LUNITS
 70
     2
  9
$LUPREC
 70
     4
  9
$SKETCHINC
 40
0.1
  9
$FILLETRAD
 40
0.0
  9
$AUNITS
 70
     0
  9
$AUPREC
 70
     0
  9
$MENU
  1
acad
  9
$ELEVATION
 40
0.0
  9
$PELEVATION
 40
0.0
  9
$THICKNESS
 40
0.0
  9
$LIMCHECK
 70
     0
  9
$CHAMFERA
 40
0.0
  9
$CHAMFERB
 40
0.0
  9
$CHAMFERC
 40
0.0
  9
$CHAMFERD
 40
0.0
  9
$SKPOLY
 70
     0
  9
$TDCREATE
 40
2448870.000000000
  9
$TDUCREATE
 40
2448869.625000000
  9
$TDUPDATE
 40
2455622.415467720
  9
$TDUUPDATE
 40
2455622.040467720
  9
$TDINDWG
 40
0.0008370023
  9
$TDUSRTIMER
 40
0.0008353704
  9
$USRTIMER
 70
     1
  9
$ANGBASE
 50
0.0
  9
$ANGDIR
 70
     0
  9
$PDMODE
 70
     0
  9
$PDSIZE
 40
0.0
  9
$PLINEWID
 40
0.0
  9
$SPLFRAME
 70
     0
  9
$SPLINETYPE
 70
     6
  9
$SPLINESEGS
 70
     8
  9
$HANDSEED
  5
7B8
  9
$SURFTAB1
 70
     6
  9
$SURFTAB2
 70
     6
  9
$SURFTYPE
 70
     6
  9
$SURFU
 70
     6
  9
$SURFV
 70
     6
  9
$UCSBASE
  2

  9
$UCSNAME
  2

  9
$UCSORG
 10
0.0
 20
0.0
 30
0.0
  9
$UCSXDIR
 10
1.0
 20
0.0
 30
0.0
  9
$UCSYDIR
 10
0.0
 20
1.0
 30
0.0
  9
$UCSORTHOREF
  2

  9
$UCSORTHOVIEW
 70
     0
  9
$UCSORGTOP
 10
0.0
 20
0.0
 30
0.0
  9
$UCSORGBOTTOM
 10
0.0
 20
0.0
 30
0.0
  9
$UCSORGLEFT
 10
0.0
 20
0.0
 30
0.0
  9
$UCSORGRIGHT
 10
0.0
 20
0.0
 30
0.0
  9
$UCSORGFRONT
 10
0.0
 20
0.0
 30
0.0
  9
$UCSORGBACK
 10
0.0
 20
0.0
 30
0.0
  9
$PUCSBASE
  2

  9
$PUCSNAME
  2

  9
$PUCSORG
 10
0.0
 20
0.0
 30
0.0
  9
$PUCSXDIR
 10
1.0
 20
0.0
 30
0.0
  9
$PUCSYDIR
 10
0.0
 20
1.0
 30
0.0
  9
$PUCSORTHOREF
  2

  9
$PUCSORTHOVIEW
 70
     0
  9
$PUCSORGTOP
 10
0.0
 20
0.0
 30
0.0
  9
$PUCSORGBOTTOM
 10
0.0
 20
0.0
 30
0.0
  9
$PUCSORGLEFT
 10
0.0
 20
0.0
 30
0.0
  9
$PUCSORGRIGHT
 10
0.0
 20
0.0
 30
0.0
  9
$PUCSORGFRONT
 10
0.0
 20
0.0
 30
0.0
  9
$PUCSORGBACK
 10
0.0
 20
0.0
 30
0.0
  9
$USERI1
 70
     0
  9
$USERI2
 70
     0
  9
$USERI3
 70
     0
  9
$USERI4
 70
     0
  9
$USERI5
 70
     0
  9
$USERR1
 40
0.0
  9
$USERR2
 40
0.0
  9
$USERR3
 40
0.0
  9
$USERR4
 40
0.0
  9
$USERR5
 40
0.0
  9
$WORLDVIEW
 70
     1
  9
$SHADEDGE
 70
     3
  9
$SHADEDIF
 70
    70
  9
$TILEMODE
 70
     1
  9
$MAXACTVP
 70
    16
  9
$PINSBASE
 10
0.0
 20
0.0
 30
0.0
  9
$PLIMCHECK
 70
     0
  9
$PEXTMIN
 10
1.000000000000000E+20
 20
1.000000000000000E+20
 30
1.000000000000000E+20
  9
$PEXTMAX
 10
-1.000000000000000E+20
 20
-1.000000000000000E+20
 30
-1.000000000000000E+20
  9
$PLIMMIN
 10
0.0
 20
0.0
  9
$PLIMMAX
 10
12.0
 20
9.0
  9
$UNITMODE
 70
     0
  9
$VISRETAIN
 70
     0
  9
$PLINEGEN
 70
     1
  9
$PSLTSCALE
 70
     0
  9
$TREEDEPTH
 70
  3020
  9
$CMLSTYLE
  2
STANDARD
  9
$CMLJUST
 70
     0
  9
$CMLSCALE
 40
1.0
  9
$PROXYGRAPHICS
 70
     1
  9
$MEASUREMENT
 70
     0
  9
$CELWEIGHT
370
    -1
  9
$ENDCAPS
280
     0
  9
$JOINSTYLE
280
     0
  9
$LWDISPLAY
290
     0
  9
$INSUNITS
 70
     0
  9
$HYPERLINKBASE
  1

  9
$STYLESHEET
  1
monochrome.ctb
  9
$XEDIT
290
     1
  9
$CEPSNTYPE
380
     0
  9
$PSTYLEMODE
290
     1
  9
$FINGERPRINTGUID
  2
{93A15A6E-2DFA-489F-B9D5-3C9D478D4D5A}
  9
$VERSIONGUID
  2
{DC40CEFF-4CEE-4C2F-AB66-3CD9986DAAD0}
  9
$EXTNAMES
290
     1
  9
$PSVPSCALE
 40
0.0
  9
$OLESTARTUP
290
     0
  0
ENDSEC
  0
SECTION
  2
CLASSES
  0
CLASS
  1
IMAGE
  2
AcDbRasterImage
  3
ISM
 90
    34943
280
     0
281
     1
  0
CLASS
  1
DICTIONARYVAR
  2
AcDbDictionaryVar
  3
ObjectDBX Classes
 90
        0
280
     0
281
     0
  0
CLASS
  1
RASTERVARIABLES
  2
AcDbRasterVariables
  3
ISM
 90
    32768
280
     0
281
     0
  0
CLASS
  1
IMAGEDEF
  2
AcDbRasterImageDef
  3
ISM
 90
    32768
280
     0
281
     0
  0
CLASS
  1
IMAGEDEF_REACTOR
  2
AcDbRasterImageDefReactor
  3
ISM
 90
    32769
280
     0
281
     0
  0
CLASS
  1
IDBUFFER
  2
AcDbIdBuffer
  3
ObjectDBX Classes
 90
    32768
280
     0
281
     0
  0
CLASS
  1
SPATIAL_FILTER
  2
AcDbSpatialFilter
  3
ObjectDBX Classes
 90
    32768
280
     0
281
     0
  0
CLASS
  1
SORTENTSTABLE
  2
AcDbSortentsTable
  3
ObjectDBX Classes
 90
    32768
280
     0
281
     0
  0
CLASS
  1
LAYER_INDEX
  2
AcDbLayerIndex
  3
ObjectDBX Classes
 90
    32768
280
     0
281
     0
  0
CLASS
  1
SPATIAL_INDEX
  2
AcDbSpatialIndex
  3
ObjectDBX Classes
 90
    32768
280
     0
281
     0
  0
CLASS
  1
OBJECT_PTR
  2
CAseDLPNTableRecord
  3
"ASE-LPNTableRecord"
 90
    32769
280
     0
281
     0
  0
CLASS
  1
LAYOUT
  2
AcDbLayout
  3
ObjectDBX Classes
 90
        0
280
     0
281
     0
  0
CLASS
  1
PLOTSETTINGS
  2
AcDbPlotSettings
  3
ObjectDBX Classes
 90
    32768
280
     0
281
     0
  0
CLASS
  1
ACDBDICTIONARYWDFLT
  2
AcDbDictionaryWithDefault
  3
ObjectDBX Classes
 90
        0
280
     0
281
     0
  0
CLASS
  1
ACDBPLACEHOLDER
  2
AcDbPlaceHolder
  3
ObjectDBX Classes
 90
        0
280
     0
281
     0
  0
CLASS
  1
VBA_PROJECT
  2
AcDbVbaProject
  3
acad
 90
    32768
280
     0
281
     0
  0
CLASS
  1
WIPEOUT
  2
AcDbWipeout
  3
"WipeOut|Product Desc: Object Enabler for WipeOut entity                        |Company: Autodesk, Inc.                        |WEB Address: www.autodesk.com"
 90
    34943
280
     0
281
     1
  0
CLASS
  1
WIPEOUTVARIABLES
  2
AcDbWipeoutVariables
  3
"WipeOut|Product Desc:     WipeOut Dbx Application|Company:          Autodesk, Inc.|WEB Address:      www.autodesk.com"
 90
    32768
280
     0
281
     0
  0
CLASS
  1
RTEXT
  2
RText
  3
RText|AutoCAD Express Tool|expresstools@autodesk.com
 90
    32768
280
     0
281
     1
  0
CLASS
  1
ARCALIGNEDTEXT
  2
AcDbArcAlignedText
  3
ATEXT|AutoCAD Express Tool|expresstools@autodesk.com
 90
    32768
280
     0
281
     1
  0
CLASS
  1
MATERIAL
  2
AcDbMaterial
  3
ObjectDBX Classes
 90
     1153
280
     0
281
     0
  0
CLASS
  1
VISUALSTYLE
  2
AcDbVisualStyle
  3
ObjectDBX Classes
 90
     4095
280
     0
281
     0
  0
CLASS
  1
TABLESTYLE
  2
AcDbTableStyle
  3
ObjectDBX Classes
 90
     4095
280
     0
281
     0
  0
CLASS
  1
SCALE
  2
AcDbScale
  3
ObjectDBX Classes
 90
     1153
280
     0
281
     0
  0
CLASS
  1
MLEADERSTYLE
  2
AcDbMLeaderStyle
  3
ACDB_MLEADERSTYLE_CLASS
 90
     4095
280
     0
281
     0
  0
CLASS
  1
CELLSTYLEMAP
  2
AcDbCellStyleMap
  3
ObjectDBX Classes
 90
     1152
280
     0
281
     0
  0
ENDSEC
  0
SECTION
  2
TABLES
  0
TABLE
  2
VPORT
  5
6
330
0
100
AcDbSymbolTable
 70
     1
  0
VPORT
  5
1B
330
6
100
AcDbSymbolTableRecord
100
AcDbViewportTableRecord
  2
*ACTIVE
 70
     0
 10
0.0
 20
0.0
 11
1.0
 21
1.0
 12
56.4234753728349
 22
-14.090160713351
 13
0.0
 23
0.0
 14
1.0
 24
1.0
 15
0.0
 25
0.0
 16
0.0
 26
0.0
 36
1.0
 17
0.0
 27
0.0
 37
0.0
 40
586.6294334530107
 41
2.108620689655172
 42
50.0
 43
0.0
 44
0.0
 50
0.0
 51
0.0
 71
     0
 72
   500
 73
     1
 74
     0
 75
     0
 76
     0
 77
     0
 78
     0
281
     0
 65
     1
110
0.0
120
0.0
130
0.0
111
1.0
121
0.0
131
0.0
112
0.0
122
1.0
132
0.0
 79
     0
146
0.0
  0
ENDTAB
  0
TABLE
  2
LTYPE
  5
3
330
0
100
AcDbSymbolTable
 70
     7
  0
LTYPE
  5
C
330
3
100
AcDbSymbolTableRecord
100
AcDbLinetypeTableRecord
  2
BYBLOCK
 70
     0
  3

 72
    65
 73
     0
 40
0.0
  0
LTYPE
  5
D
330
3
100
AcDbSymbolTableRecord
100
AcDbLinetypeTableRecord
  2
BYLAYER
 70
     0
  3

 72
    65
 73
     0
 40
0.0
  0
LTYPE
  5
E
330
3
100
AcDbSymbolTableRecord
100
AcDbLinetypeTableRecord
  2
CONTINUOUS
 70
     0
  3
Solid line
 72
    65
 73
     0
 40
0.0
  0
LTYPE
  5
F
330
3
100
AcDbSymbolTableRecord
100
AcDbLinetypeTableRecord
  2
DASHED
 70
     0
  3
__ __ __ __ __ __ __ __ __ __ __ __ __ __ __
 72
    65
 73
     2
 40
2.0
 49
1.199999999999999
 74
     0
 49
-0.8
 74
     0
  0
LTYPE
  5
10
330
3
100
AcDbSymbolTableRecord
100
AcDbLinetypeTableRecord
  2
CENTER
 70
     0
  3
____ _ ____ _ ____ _ ____ _ ____ _ ____ _ ____
 72
    65
 73
     4
 40
12.0
 49
9.0
 74
     0
 49
-1.0
 74
     0
 49
1.0
 74
     0
 49
-1.0
 74
     0
  0
LTYPE
  5
11
330
3
100
AcDbSymbolTableRecord
100
AcDbLinetypeTableRecord
  2
HIDDEN
 70
     0
  3
_ _ _ _ _ _ _ _ _ _ _ _ _ _ _ _ _ _ _ _ _ _ _
 72
    65
 73
     2
 40
3.2
 49
2.399999999999999
 74
     0
 49
-0.8
 74
     0
  0
LTYPE
  5
12
330
3
100
AcDbSymbolTableRecord
100
AcDbLinetypeTableRecord
  2
PHANTOM
 70
     0
  3
_____ _ _ _____ _ _ _____ _ _ _____ _ _ _____
 72
    65
 73
     6
 40
13.5
 49
9.0
 74
     0
 49
-1.0
 74
     0
 49
1.0
 74
     0
 49
-0.5
 74
     0
 49
1.0
 74
     0
 49
-1.0
 74
     0
  0
LTYPE
  5
13
330
3
100
AcDbSymbolTableRecord
100
AcDbLinetypeTableRecord
  2
DOT
 70
     0
  3
...............................................
 72
    65
 73
     2
 40
1.0
 49
0.5
 74
     0
 49
-0.5
 74
     0
  0
LTYPE
  5
14
330
3
100
AcDbSymbolTableRecord
100
AcDbLinetypeTableRecord
  2
DASHDOT
 70
     0
  3
__ . __ . __ . __ . __ . __ . __ . __ . __ . __
 72
    65
 73
     4
 40
8.0
 49
5.0
 74
     0
 49
-1.0
 74
     0
 49
1.0
 74
     0
 49
-1.0
 74
     0
  0
ENDTAB
  0
TABLE
  2
LAYER
  5
1
102
{ACAD_XDICTIONARY
360
789
102
}
330
0
100
AcDbSymbolTable
 70
     7
  0
LAYER
  5
15
102
{ACAD_XDICTIONARY
360
78E
102
}
330
1
100
AcDbSymbolTableRecord
100
AcDbLayerTableRecord
  2
0
 70
     0
 62
     7
  6
CONTINUOUS
370
    -3
390
72F
  0
LAYER
  5
16
102
{ACAD_XDICTIONARY
360
790
102
}
330
1
100
AcDbSymbolTableRecord
100
AcDbLayerTableRecord
  2
1
 70
     0
 62
     7
  6
CONTINUOUS
370
    -3
390
72F
  0
LAYER
  5
17
102
{ACAD_XDICTIONARY
360
792
102
}
330
1
100
AcDbSymbolTableRecord
100
AcDbLayerTableRecord
  2
2
 70
     0
 62
     7
  6
CONTINUOUS
370
    -3
390
72F
  0
LAYER
  5
18
102
{ACAD_XDICTIONARY
360
794
102
}
330
1
100
AcDbSymbolTableRecord
100
AcDbLayerTableRecord
  2
5
 70
     0
 62
     7
  6
CONTINUOUS
370
    -3
390
72F
  0
LAYER
  5
19
102
{ACAD_XDICTIONARY
360
796
102
}
330
1
100
AcDbSymbolTableRecord
100
AcDbLayerTableRecord
  2
18
 70
     0
 62
     7
  6
CONTINUOUS
370
    -3
390
72F
  0
LAYER
  5
1A
102
{ACAD_XDICTIONARY
360
798
102
}
330
1
100
AcDbSymbolTableRecord
100
AcDbLayerTableRecord
  2
20
 70
     0
 62
     7
  6
CONTINUOUS
370
    -3
390
72F
  0
LAYER
  5
787
102
{ACAD_XDICTIONARY
360
79A
102
}
330
1
100
AcDbSymbolTableRecord
100
AcDbLayerTableRecord
  2
DEFPOINT
 70
     1
 62
     7
  6
CONTINUOUS
370
    -3
390
72F
1001
AcAecLayerStandard
1000

1000

  0
ENDTAB
  0
TABLE
  2
STYLE
  5
2
330
0
100
AcDbSymbolTable
 70
     2
  0
STYLE
  5
1D
330
2
100
AcDbSymbolTableRecord
100
AcDbTextStyleTableRecord
  2
STANDARD
 70
     0
 40
0.0
 41
1.0
 50
0.0
 71
     0
 42
1.0
  3
txt
  4
BIGFONT
  0
ENDTAB
  0
TABLE
  2
VIEW
  5
4
330
0
100
AcDbSymbolTable
 70
     0
  0
ENDTAB
  0
TABLE
  2
UCS
  5
5
330
0
100
AcDbSymbolTable
 70
     0
  0
ENDTAB
  0
TABLE
  2
APPID
  5
7
330
0
100
AcDbSymbolTable
 70
     4
  0
APPID
  5
1C
330
7
100
AcDbSymbolTableRecord
100
AcDbRegAppTableRecord
  2
ACAD
 70
     0
  0
APPID
  5
781
330
7
100
AcDbSymbolTableRecord
100
AcDbRegAppTableRecord
  2
ACAD_MLEADERVER
 70
     0
  0
APPID
  5
788
330
7
100
AcDbSymbolTableRecord
100
AcDbRegAppTableRecord
  2
AcAecLayerStandard
 70
     0
  0
APPID
  5
79C
330
7
100
AcDbSymbolTableRecord
100
AcDbRegAppTableRecord
  2
ACAD_PSEXT
 70
     0
  0
ENDTAB
  0
TABLE
  2
DIMSTYLE
  5
8
330
0
100
AcDbSymbolTable
 70
     2
100
AcDbDimStyleTable
 71
     1
340
2D
  0
DIMSTYLE
105
2D
330
8
100
AcDbSymbolTableRecord
100
AcDbDimStyleTableRecord
  2
STANDARD
 70
     0
 40
2.0
 77
     1
340
1D
  0
ENDTAB
  0
TABLE
  2
BLOCK_RECORD
  5
28
330
0
100
AcDbSymbolTable
 70
     9
  0
BLOCK_RECORD
  5
26
330
28
100
AcDbSymbolTableRecord
100
AcDbBlockTableRecord
  2
*MODEL_SPACE
340
784
  0
BLOCK_RECORD
  5
27
330
28
100
AcDbSymbolTableRecord
100
AcDbBlockTableRecord
  2
*PAPER_SPACE
340
785
  0
BLOCK_RECORD
  5
1E
330
28
100
AcDbSymbolTableRecord
100
AcDbBlockTableRecord
  2
*D0
340
0
  0
BLOCK_RECORD
  5
1F
330
28
100
AcDbSymbolTableRecord
100
AcDbBlockTableRecord
  2
*D1
340
0
  0
BLOCK_RECORD
  5
20
330
28
100
AcDbSymbolTableRecord
100
AcDbBlockTableRecord
  2
*D2
340
0
  0
BLOCK_RECORD
  5
21
330
28
100
AcDbSymbolTableRecord
100
AcDbBlockTableRecord
  2
*D3
340
0
  0
BLOCK_RECORD
  5
22
330
28
100
AcDbSymbolTableRecord
100
AcDbBlockTableRecord
  2
*D4
340
0
  0
BLOCK_RECORD
  5
23
330
28
100
AcDbSymbolTableRecord
100
AcDbBlockTableRecord
  2
*D5
340
0
  0
BLOCK_RECORD
  5
24
330
28
100
AcDbSymbolTableRecord
100
AcDbBlockTableRecord
  2
*D6
340
0
  0
BLOCK_RECORD
  5
25
330
28
100
AcDbSymbolTableRecord
100
AcDbBlockTableRecord
  2
*D7
340
0
  0
ENDTAB
  0
ENDSEC
  0
SECTION
  2
BLOCKS
  0
BLOCK
  5
29
330
26
100
AcDbEntity
  8
0
100
AcDbBlockBegin
  2
*MODEL_SPACE
 70
     0
 10
0.0
 20
0.0
 30
0.0
  3
*MODEL_SPACE
  1

  0
ENDBLK
  5
2A
330
26
100
AcDbEntity
  8
0
100
AcDbBlockEnd
  0
BLOCK
  5
2B
330
27
100
AcDbEntity
 67
     1
  8
0
100
AcDbBlockBegin
  2
*PAPER_SPACE
 70
     0
 10
0.0
 20
0.0
 30
0.0
  3
*PAPER_SPACE
  1

  0
ENDBLK
  5
2C
330
27
100
AcDbEntity
 67
     1
  8
0
100
AcDbBlockEnd
  0
BLOCK
  5
6C3
330
1E
100
AcDbEntity
  8
5
100
AcDbBlockBegin
  2
*D0
 70
     1
 10
0.0
 20
0.0
 30
0.0
  3
*D0
  1

  0
TEXT
  5
6C4
330
1E
100
AcDbEntity
  8
5
 62
     2
100
AcDbText
 10
-55.598778
 20
9.127088
 30
0.0
 40
6.599999999999999
  1
%%c100
 50
90.0
 41
0.8400000000000002
 72
     5
 11
-55.598778
 21
25.759088
 31
0.0
100
AcDbText
  0
LINE
  5
6C5
330
1E
100
AcDbEntity
  8
5
 62
     2
100
AcDbLine
 10
-95.89663599999999
 20
68.367088
 30
0.0
 11
-52.598778
 21
68.367088
 31
0.0
  0
LINE
  5
6C6
330
1E
100
AcDbEntity
  8
5
 62
     2
100
AcDbLine
 10
-54.59877800000001
 20
68.367088
 30
0.0
 11
-55.634054
 21
64.50338499999999
 31
0.0
  0
LINE
  5
6C7
330
1E
100
AcDbEntity
  8
5
 62
     2
100
AcDbLine
 10
-54.59877800000001
 20
68.367088
 30
0.0
 11
-53.563502
 21
64.50338499999999
 31
0.0
  0
LINE
  5
6C8
330
1E
100
AcDbEntity
  8
5
 62
     2
100
AcDbLine
 10
-55.634054
 20
64.50338499999999
 30
0.0
 11
-53.563502
 21
64.50338499999999
 31
0.0
  0
LINE
  5
6C9
330
1E
100
AcDbEntity
  8
5
 62
     2
100
AcDbLine
 10
-54.59877800000001
 20
68.367088
 30
0.0
 11
-54.59877800000001
 21
-31.632912
 31
0.0
  0
LINE
  5
6CA
330
1E
100
AcDbEntity
  8
5
 62
     2
100
AcDbLine
 10
-54.59877800000001
 20
-31.632912
 30
0.0
 11
-53.563502
 21
-27.769208
 31
0.0
  0
LINE
  5
6CB
330
1E
100
AcDbEntity
  8
5
 62
     2
100
AcDbLine
 10
-54.59877800000001
 20
-31.632912
 30
0.0
 11
-55.634054
 21
-27.769208
 31
0.0
  0
LINE
  5
6CC
330
1E
100
AcDbEntity
  8
5
 62
     2
100
AcDbLine
 10
-53.563502
 20
-27.769208
 30
0.0
 11
-55.634054
 21
-27.769208
 31
0.0
  0
LINE
  5
6CD
330
1E
100
AcDbEntity
  8
5
 62
     2
100
AcDbLine
 10
-95.89663599999999
 20
-31.632912
 30
0.0
 11
-52.598778
 21
-31.632912
 31
0.0
  0
ENDBLK
  5
6CE
330
1E
100
AcDbEntity
  8
5
100
AcDbBlockEnd
  0
BLOCK
  5
6CF
330
1F
100
AcDbEntity
  8
5
100
AcDbBlockBegin
  2
*D1
 70
     1
 10
0.0
 20
0.0
 30
0.0
  3
*D1
  1

  0
TEXT
  5
6D0
330
1F
100
AcDbEntity
  8
5
 62
     2
100
AcDbText
 10
-169.326635
 20
246.58844
 30
0.0
 40
6.599999999999999
  1
160
 41
0.8399999300699304
 72
     5
 11
-157.314636
 21
246.58844
 31
0.0
100
AcDbText
  0
LINE
  5
6D1
330
1F
100
AcDbEntity
  8
5
 62
     2
100
AcDbLine
 10
-242.396636
 20
212.575565
 30
0.0
 11
-242.396636
 21
247.58844
 31
0.0
  0
LINE
  5
6D2
330
1F
100
AcDbEntity
  8
5
 62
     2
100
AcDbLine
 10
-242.396636
 20
245.58844
 30
0.0
 11
-238.532932
 21
244.553164
 31
0.0
  0
LINE
  5
6D3
330
1F
100
AcDbEntity
  8
5
 62
     2
100
AcDbLine
 10
-242.396636
 20
245.58844
 30
0.0
 11
-238.532932
 21
246.623716
 31
0.0
  0
LINE
  5
6D4
330
1F
100
AcDbEntity
  8
5
 62
     2
100
AcDbLine
 10
-238.532932
 20
244.553164
 30
0.0
 11
-238.532932
 21
246.623716
 31
0.0
  0
LINE
  5
6D5
330
1F
100
AcDbEntity
  8
5
 62
     2
100
AcDbLine
 10
-242.396636
 20
245.58844
 30
0.0
 11
-82.396636
 21
245.58844
 31
0.0
  0
LINE
  5
6D6
330
1F
100
AcDbEntity
  8
5
 62
     2
100
AcDbLine
 10
-82.396636
 20
245.58844
 30
0.0
 11
-86.26033900000001
 21
246.623716
 31
0.0
  0
LINE
  5
6D7
330
1F
100
AcDbEntity
  8
5
 62
     2
100
AcDbLine
 10
-82.396636
 20
245.58844
 30
0.0
 11
-86.26033900000001
 21
244.553164
 31
0.0
  0
LINE
  5
6D8
330
1F
100
AcDbEntity
  8
5
 62
     2
100
AcDbLine
 10
-86.26033900000001
 20
246.623716
 30
0.0
 11
-86.26033900000001
 21
244.553164
 31
0.0
  0
LINE
  5
6D9
330
1F
100
AcDbEntity
  8
5
 62
     2
100
AcDbLine
 10
-82.396636
 20
187.917088
 30
0.0
 11
-82.396636
 21
247.58844
 31
0.0
  0
ENDBLK
  5
6DA
330
1F
100
AcDbEntity
  8
5
100
AcDbBlockEnd
  0
BLOCK
  5
6DB
330
20
100
AcDbEntity
  8
5
100
AcDbBlockBegin
  2
*D2
 70
     1
 10
0.0
 20
0.0
 30
0.0
  3
*D2
  1

  0
TEXT
  5
6DC
330
20
100
AcDbEntity
  8
5
 62
     2
100
AcDbText
 10
-17.385078
 20
-5.622912
 30
0.0
 40
6.599999999999999
  1
29.5
 50
90.0
 41
0.8400000000000002
 72
     5
 11
-17.385078
 21
11.009088
 31
0.0
100
AcDbText
  0
LINE
  5
6DD
330
20
100
AcDbEntity
  8
5
 62
     2
100
AcDbLine
 10
24.153364
 20
-11.132912
 30
0.0
 11
-18.385078
 21
-11.132912
 31
0.0
  0
LINE
  5
6DE
330
20
100
AcDbEntity
  8
5
 62
     2
100
AcDbLine
 10
-16.385078
 20
-11.132912
 30
0.0
 11
-15.349802
 21
-7.269207999999999
 31
0.0
  0
LINE
  5
6DF
330
20
100
AcDbEntity
  8
5
 62
     2
100
AcDbLine
 10
-16.385078
 20
-11.132912
 30
0.0
 11
-17.420355
 21
-7.269207999999999
 31
0.0
  0
LINE
  5
6E0
330
20
100
AcDbEntity
  8
5
 62
     2
100
AcDbLine
 10
-15.349802
 20
-7.269207999999999
 30
0.0
 11
-17.420355
 21
-7.269207999999999
 31
0.0
  0
LINE
  5
6E1
330
20
100
AcDbEntity
  8
5
 62
     2
100
AcDbLine
 10
-16.385078
 20
-11.132912
 30
0.0
 11
-16.385078
 21
18.367088
 31
0.0
  0
LINE
  5
6E2
330
20
100
AcDbEntity
  8
5
 62
     2
100
AcDbLine
 10
-16.385078
 20
18.367088
 30
0.0
 11
-17.420355
 21
14.503385
 31
0.0
  0
LINE
  5
6E3
330
20
100
AcDbEntity
  8
5
 62
     2
100
AcDbLine
 10
-16.385078
 20
18.367088
 30
0.0
 11
-15.349802
 21
14.503385
 31
0.0
  0
LINE
  5
6E4
330
20
100
AcDbEntity
  8
5
 62
     2
100
AcDbLine
 10
-17.420355
 20
14.503385
 30
0.0
 11
-15.349802
 21
14.503385
 31
0.0
  0
LINE
  5
6E5
330
20
100
AcDbEntity
  8
5
 62
     2
100
AcDbLine
 10
5.552653
 20
18.367088
 30
0.0
 11
-18.385078
 21
18.367088
 31
0.0
  0
ENDBLK
  5
6E6
330
20
100
AcDbEntity
  8
5
100
AcDbBlockEnd
  0
BLOCK
  5
6E7
330
21
100
AcDbEntity
  8
5
100
AcDbBlockBegin
  2
*D3
 70
     1
 10
0.0
 20
0.0
 30
0.0
  3
*D3
  1

  0
TEXT
  5
6E8
330
21
100
AcDbEntity
  8
5
 62
     2
100
AcDbText
 10
-55.598778
 20
158.397088
 30
0.0
 40
6.599999999999999
  1
36
 50
90.0
 41
0.6719999999999997
 72
     5
 11
-55.598778
 21
165.789088
 31
0.0
100
AcDbText
  0
LINE
  5
6E9
330
21
100
AcDbEntity
  8
5
 62
     2
100
AcDbLine
 10
-168.072056
 20
145.017088
 30
0.0
 11
-52.598778
 21
145.017088
 31
0.0
  0
LINE
  5
6EA
330
21
100
AcDbEntity
  8
5
 62
     2
100
AcDbLine
 10
-54.59877800000001
 20
145.017088
 30
0.0
 11
-53.563502
 21
148.880792
 31
0.0
  0
LINE
  5
6EB
330
21
100
AcDbEntity
  8
5
 62
     2
100
AcDbLine
 10
-54.59877800000001
 20
145.017088
 30
0.0
 11
-55.634054
 21
148.880792
 31
0.0
  0
LINE
  5
6EC
330
21
100
AcDbEntity
  8
5
 62
     2
100
AcDbLine
 10
-53.563502
 20
148.880792
 30
0.0
 11
-55.634054
 21
148.880792
 31
0.0
  0
LINE
  5
6ED
330
21
100
AcDbEntity
  8
5
 62
     2
100
AcDbLine
 10
-54.59877800000001
 20
145.017088
 30
0.0
 11
-54.59877800000001
 21
181.017088
 31
0.0
  0
LINE
  5
6EE
330
21
100
AcDbEntity
  8
5
 62
     2
100
AcDbLine
 10
-54.59877800000001
 20
181.017088
 30
0.0
 11
-55.634054
 21
177.153385
 31
0.0
  0
LINE
  5
6EF
330
21
100
AcDbEntity
  8
5
 62
     2
100
AcDbLine
 10
-54.59877800000001
 20
181.017088
 30
0.0
 11
-53.563502
 21
177.153385
 31
0.0
  0
LINE
  5
6F0
330
21
100
AcDbEntity
  8
5
 62
     2
100
AcDbLine
 10
-55.634054
 20
177.153385
 30
0.0
 11
-53.563502
 21
177.153385
 31
0.0
  0
LINE
  5
6F1
330
21
100
AcDbEntity
  8
5
 62
     2
100
AcDbLine
 10
-73.976182
 20
181.017088
 30
0.0
 11
-52.598778
 21
181.017088
 31
0.0
  0
ENDBLK
  5
6F2
330
21
100
AcDbEntity
  8
5
100
AcDbBlockEnd
  0
BLOCK
  5
6F3
330
22
100
AcDbEntity
  8
5
100
AcDbBlockBegin
  2
*D4
 70
     1
 10
0.0
 20
0.0
 30
0.0
  3
*D4
  1

  0
TEXT
  5
6F4
330
22
100
AcDbEntity
  8
5
 62
     2
100
AcDbText
 10
-55.598778
 20
117.397088
 30
0.0
 40
6.599999999999999
  1
46
 50
90.0
 41
0.6720000000000011
 72
     5
 11
-55.598778
 21
124.789088
 31
0.0
100
AcDbText
  0
LINE
  5
6F5
330
22
100
AcDbEntity
  8
5
 62
     2
100
AcDbLine
 10
-226.937636
 20
99.01708800000001
 30
0.0
 11
-52.598778
 21
99.01708800000001
 31
0.0
  0
LINE
  5
6F6
330
22
100
AcDbEntity
  8
5
 62
     2
100
AcDbLine
 10
-54.59877800000001
 20
99.01708800000001
 30
0.0
 11
-53.563502
 21
102.880792
 31
0.0
  0
LINE
  5
6F7
330
22
100
AcDbEntity
  8
5
 62
     2
100
AcDbLine
 10
-54.59877800000001
 20
99.01708800000001
 30
0.0
 11
-55.634054
 21
102.880792
 31
0.0
  0
LINE
  5
6F8
330
22
100
AcDbEntity
  8
5
 62
     2
100
AcDbLine
 10
-53.563502
 20
102.880792
 30
0.0
 11
-55.634054
 21
102.880792
 31
0.0
  0
LINE
  5
6F9
330
22
100
AcDbEntity
  8
5
 62
     2
100
AcDbLine
 10
-54.59877800000001
 20
99.01708800000001
 30
0.0
 11
-54.59877800000001
 21
145.017088
 31
0.0
  0
LINE
  5
6FA
330
22
100
AcDbEntity
  8
5
 62
     2
100
AcDbLine
 10
-54.59877800000001
 20
145.017088
 30
0.0
 11
-55.634054
 21
141.153385
 31
0.0
  0
LINE
  5
6FB
330
22
100
AcDbEntity
  8
5
 62
     2
100
AcDbLine
 10
-54.59877800000001
 20
145.017088
 30
0.0
 11
-53.563502
 21
141.153385
 31
0.0
  0
LINE
  5
6FC
330
22
100
AcDbEntity
  8
5
 62
     2
100
AcDbLine
 10
-55.634054
 20
141.153385
 30
0.0
 11
-53.563502
 21
141.153385
 31
0.0
  0
LINE
  5
6FD
330
22
100
AcDbEntity
  8
5
 62
     2
100
AcDbLine
 10
-168.072056
 20
145.017088
 30
0.0
 11
-52.598778
 21
145.017088
 31
0.0
  0
ENDBLK
  5
6FE
330
22
100
AcDbEntity
  8
5
100
AcDbBlockEnd
  0
BLOCK
  5
6FF
330
23
100
AcDbEntity
  8
5
100
AcDbBlockBegin
  2
*D5
 70
     1
 10
0.0
 20
0.0
 30
0.0
  3
*D5
  1

  0
TEXT
  5
700
330
23
100
AcDbEntity
  8
5
 62
     2
100
AcDbText
 10
-17.385078
 20
-93.56291199999999
 30
0.0
 40
6.599999999999999
  1
151
 50
90.0
 41
0.9100000000000003
 72
     5
 11
-17.385078
 21
-81.55091199999999
 31
0.0
100
AcDbText
  0
LINE
  5
701
330
23
100
AcDbEntity
  8
5
 62
     2
100
AcDbLine
 10
21.747654
 20
-162.132912
 30
0.0
 11
-18.385078
 21
-162.132912
 31
0.0
  0
LINE
  5
702
330
23
100
AcDbEntity
  8
5
 62
     2
100
AcDbLine
 10
-16.385078
 20
-162.132912
 30
0.0
 11
-15.349802
 21
-158.269208
 31
0.0
  0
LINE
  5
703
330
23
100
AcDbEntity
  8
5
 62
     2
100
AcDbLine
 10
-16.385078
 20
-162.132912
 30
0.0
 11
-17.420355
 21
-158.269208
 31
0.0
  0
LINE
  5
704
330
23
100
AcDbEntity
  8
5
 62
     2
100
AcDbLine
 10
-15.349802
 20
-158.269208
 30
0.0
 11
-17.420355
 21
-158.269208
 31
0.0
  0
LINE
  5
705
330
23
100
AcDbEntity
  8
5
 62
     2
100
AcDbLine
 10
-16.385078
 20
-162.132912
 30
0.0
 11
-16.385078
 21
-11.132912
 31
0.0
  0
LINE
  5
706
330
23
100
AcDbEntity
  8
5
 62
     2
100
AcDbLine
 10
-16.385078
 20
-11.132912
 30
0.0
 11
-17.420355
 21
-14.996615
 31
0.0
  0
LINE
  5
707
330
23
100
AcDbEntity
  8
5
 62
     2
100
AcDbLine
 10
-16.385078
 20
-11.132912
 30
0.0
 11
-15.349802
 21
-14.996615
 31
0.0
  0
LINE
  5
708
330
23
100
AcDbEntity
  8
5
 62
     2
100
AcDbLine
 10
-17.420355
 20
-14.996615
 30
0.0
 11
-15.349802
 21
-14.996615
 31
0.0
  0
LINE
  5
709
330
23
100
AcDbEntity
  8
5
 62
     2
100
AcDbLine
 10
24.153364
 20
-11.132912
 30
0.0
 11
-18.385078
 21
-11.132912
 31
0.0
  0
ENDBLK
  5
70A
330
23
100
AcDbEntity
  8
5
100
AcDbBlockEnd
  0
BLOCK
  5
70B
330
24
100
AcDbEntity
  8
5
100
AcDbBlockBegin
  2
*D6
 70
     1
 10
0.0
 20
0.0
 30
0.0
  3
*D6
  1

  0
TEXT
  5
70C
330
24
100
AcDbEntity
  8
5
 62
     2
100
AcDbText
 10
-17.385078
 20
-205.702912
 30
0.0
 40
6.599999999999999
  1
78
 50
90.0
 41
0.6719999999999998
 72
     5
 11
-17.385078
 21
-198.310912
 31
0.0
100
AcDbText
  0
LINE
  5
70D
330
24
100
AcDbEntity
  8
5
 62
     2
100
AcDbLine
 10
54.15336400000001
 20
-240.032912
 30
0.0
 11
-18.385078
 21
-240.032912
 31
0.0
  0
LINE
  5
70E
330
24
100
AcDbEntity
  8
5
 62
     2
100
AcDbLine
 10
-16.385078
 20
-240.032912
 30
0.0
 11
-15.349802
 21
-236.169208
 31
0.0
  0
LINE
  5
70F
330
24
100
AcDbEntity
  8
5
 62
     2
100
AcDbLine
 10
-16.385078
 20
-240.032912
 30
0.0
 11
-17.420355
 21
-236.169208
 31
0.0
  0
LINE
  5
710
330
24
100
AcDbEntity
  8
5
 62
     2
100
AcDbLine
 10
-15.349802
 20
-236.169208
 30
0.0
 11
-17.420355
 21
-236.169208
 31
0.0
  0
LINE
  5
711
330
24
100
AcDbEntity
  8
5
 62
     2
100
AcDbLine
 10
-16.385078
 20
-240.032912
 30
0.0
 11
-16.385078
 21
-162.132912
 31
0.0
  0
LINE
  5
712
330
24
100
AcDbEntity
  8
5
 62
     2
100
AcDbLine
 10
-16.385078
 20
-162.132912
 30
0.0
 11
-17.420355
 21
-165.996615
 31
0.0
  0
LINE
  5
713
330
24
100
AcDbEntity
  8
5
 62
     2
100
AcDbLine
 10
-16.385078
 20
-162.132912
 30
0.0
 11
-15.349802
 21
-165.996615
 31
0.0
  0
LINE
  5
714
330
24
100
AcDbEntity
  8
5
 62
     2
100
AcDbLine
 10
-17.420355
 20
-165.996615
 30
0.0
 11
-15.349802
 21
-165.996615
 31
0.0
  0
LINE
  5
715
330
24
100
AcDbEntity
  8
5
 62
     2
100
AcDbLine
 10
21.747654
 20
-162.132912
 30
0.0
 11
-18.385078
 21
-162.132912
 31
0.0
  0
ENDBLK
  5
716
330
24
100
AcDbEntity
  8
5
100
AcDbBlockEnd
  0
BLOCK
  5
717
330
25
100
AcDbEntity
  8
5
100
AcDbBlockBegin
  2
*D7
 70
     1
 10
0.0
 20
0.0
 30
0.0
  3
*D7
  1

  0
TEXT
  5
718
330
25
100
AcDbEntity
  8
5
 62
     2
100
AcDbText
 10
56.533365
 20
-262.823456
 30
0.0
 40
6.599999999999999
  1
46
 41
0.671999909090909
 72
     5
 11
63.925364
 21
-262.823456
 31
0.0
100
AcDbText
  0
LINE
  5
719
330
25
100
AcDbEntity
  8
5
 62
     2
100
AcDbLine
 10
38.15336400000001
 20
-220.632912
 30
0.0
 11
38.15336400000001
 21
-265.823456
 31
0.0
  0
LINE
  5
71A
330
25
100
AcDbEntity
  8
5
 62
     2
100
AcDbLine
 10
38.15336400000001
 20
-263.823456
 30
0.0
 11
42.017068
 21
-264.858732
 31
0.0
  0
LINE
  5
71B
330
25
100
AcDbEntity
  8
5
 62
     2
100
AcDbLine
 10
38.15336400000001
 20
-263.823456
 30
0.0
 11
42.017068
 21
-262.7881799999999
 31
0.0
  0
LINE
  5
71C
330
25
100
AcDbEntity
  8
5
 62
     2
100
AcDbLine
 10
42.017068
 20
-264.858732
 30
0.0
 11
42.017068
 21
-262.7881799999999
 31
0.0
  0
LINE
  5
71D
330
25
100
AcDbEntity
  8
5
 62
     2
100
AcDbLine
 10
38.15336400000001
 20
-263.823456
 30
0.0
 11
84.15336399999999
 21
-263.823456
 31
0.0
  0
LINE
  5
71E
330
25
100
AcDbEntity
  8
5
 62
     2
100
AcDbLine
 10
84.15336399999999
 20
-263.823456
 30
0.0
 11
80.28966099999999
 21
-262.7881799999999
 31
0.0
  0
LINE
  5
71F
330
25
100
AcDbEntity
  8
5
 62
     2
100
AcDbLine
 10
84.15336399999999
 20
-263.823456
 30
0.0
 11
80.28966099999999
 21
-264.858732
 31
0.0
  0
LINE
  5
720
330
25
100
AcDbEntity
  8
5
 62
     2
100
AcDbLine
 10
80.28966099999999
 20
-262.7881799999999
 30
0.0
 11
80.28966099999999
 21
-264.858732
 31
0.0
  0
LINE
  5
721
330
25
100
AcDbEntity
  8
5
 62
     2
100
AcDbLine
 10
84.15336399999999
 20
-220.632912
 30
0.0
 11
84.15336399999999
 21
-265.823456
 31
0.0
  0
ENDBLK
  5
722
330
25
100
AcDbEntity
  8
5
100
AcDbBlockEnd
  0
ENDSEC
  0
SECTION
  2
ENTITIES
  0
LINE
  5
2E
330
26
100
AcDbEntity
  8
1
  6
CENTER
 62
     2
100
AcDbLine
 10
61.153364
 20
75.225089
 30
0.0
 11
61.153364
 21
-248.291443
 31
0.0
  0
LINE
  5
2F
330
26
100
AcDbEntity
  8
1
100
AcDbLine
 10
-277.396636
 20
-11.132912
 30
0.0
 11
-207.396636
 21
-11.132912
 31
0.0
  0
LINE
  5
30
330
26
100
AcDbEntity
  8
1
  6
CENTER
 62
     2
100
AcDbLine
 10
-267.146636
 20
-35.62006
 30
0.0
 11
-267.146636
 21
-1.169732999999999
 31
0.0
  0
LINE
  5
31
330
26
100
AcDbEntity
  8
1
  6
CENTER
 62
     2
100
AcDbLine
 10
-217.646636
 20
-35.62006
 30
0.0
 11
-217.646636
 21
-1.169732999999999
 31
0.0
  0
LINE
  5
32
330
26
100
AcDbEntity
  8
1
100
AcDbLine
 10
26.153364
 20
-11.132912
 30
0.0
 11
96.153364
 21
-11.132912
 31
0.0
  0
LINE
  5
33
330
26
100
AcDbEntity
  8
1
  6
CENTER
 62
     2
100
AcDbLine
 10
36.40336400000001
 20
-35.62006
 30
0.0
 11
36.40336400000001
 21
-1.169732999999999
 31
0.0
  0
LINE
  5
34
330
26
100
AcDbEntity
  8
1
  6
CENTER
 62
     2
100
AcDbLine
 10
85.90336399999999
 20
-35.62006
 30
0.0
 11
85.90336399999999
 21
-1.169732999999999
 31
0.0
  0
LINE
  5
35
330
26
100
AcDbEntity
  8
1
  6
DASHED
100
AcDbLine
 10
-267.396636
 20
180.017088
 30
0.0
 11
-217.396636
 21
180.017088
 31
0.0
  0
LINE
  5
36
330
26
100
AcDbEntity
  8
1
  6
DASHED
100
AcDbLine
 10
-267.396636
 20
110.017088
 30
0.0
 11
-217.396636
 21
110.017088
 31
0.0
  0
LINE
  5
37
330
26
100
AcDbEntity
  8
1
  6
DASHED
100
AcDbLine
 10
-277.396636
 20
120.017088
 30
0.0
 11
-277.396636
 21
170.017088
 31
0.0
  0
LINE
  5
38
330
26
100
AcDbEntity
  8
1
  6
DASHED
100
AcDbLine
 10
-207.396636
 20
120.017088
 30
0.0
 11
-207.396636
 21
170.017088
 31
0.0
  0
ARC
  5
39
330
26
100
AcDbEntity
  8
1
  6
DASHED
100
AcDbCircle
 10
-267.396636
 20
120.017088
 30
0.0
 40
10.0
100
AcDbArc
 50
180.0
 51
270.0
  0
ARC
  5
3A
330
26
100
AcDbEntity
  8
1
  6
DASHED
100
AcDbCircle
 10
-217.396636
 20
120.017088
 30
0.0
 40
10.0
100
AcDbArc
 50
270.0
 51
0.0
  0
ARC
  5
3B
330
26
100
AcDbEntity
  8
1
  6
DASHED
100
AcDbCircle
 10
-217.396636
 20
170.017088
 30
0.0
 40
10.0
100
AcDbArc
 50
0.0
 51
90.0
  0
ARC
  5
3C
330
26
100
AcDbEntity
  8
1
  6
DASHED
100
AcDbCircle
 10
-267.396636
 20
170.017088
 30
0.0
 40
10.0
100
AcDbArc
 50
90.0
 51
180.0
  0
CIRCLE
  5
3D
330
26
100
AcDbEntity
  8
1
  6
DASHED
100
AcDbCircle
 10
-217.646636
 20
169.767088
 30
0.0
 40
4.5
  0
CIRCLE
  5
3E
330
26
100
AcDbEntity
  8
1
  6
DASHED
100
AcDbCircle
 10
-217.646636
 20
120.267088
 30
0.0
 40
4.5
  0
CIRCLE
  5
3F
330
26
100
AcDbEntity
  8
1
  6
DASHED
100
AcDbCircle
 10
-267.146636
 20
120.267088
 30
0.0
 40
4.5
  0
CIRCLE
  5
40
330
26
100
AcDbEntity
  8
1
  6
DASHED
100
AcDbCircle
 10
-267.146636
 20
169.767088
 30
0.0
 40
4.5
  0
LINE
  5
41
330
26
100
AcDbEntity
  8
1
  6
CENTER
 62
     2
100
AcDbLine
 10
-276.527295
 20
169.767088
 30
0.0
 11
-257.162642
 21
169.767088
 31
0.0
  0
LINE
  5
42
330
26
100
AcDbEntity
  8
1
  6
CENTER
 62
     2
100
AcDbLine
 10
-226.896613
 20
169.767088
 30
0.0
 11
-208.74709
 21
169.767088
 31
0.0
  0
LINE
  5
43
330
26
100
AcDbEntity
  8
1
  6
CENTER
 62
     2
100
AcDbLine
 10
-276.527295
 20
120.267088
 30
0.0
 11
-257.162642
 21
120.267088
 31
0.0
  0
LINE
  5
44
330
26
100
AcDbEntity
  8
1
  6
CENTER
 62
     2
100
AcDbLine
 10
-226.896613
 20
120.267088
 30
0.0
 11
-208.74709
 21
120.267088
 31
0.0
  0
LINE
  5
45
330
26
100
AcDbEntity
  8
1
  6
CENTER
 62
     2
100
AcDbLine
 10
-217.646636
 20
111.290043
 30
0.0
 11
-217.646636
 21
129.949997
 31
0.0
  0
LINE
  5
46
330
26
100
AcDbEntity
  8
1
  6
CENTER
 62
     2
100
AcDbLine
 10
-217.646636
 20
160.229416
 30
0.0
 11
-217.646636
 21
179.119236
 31
0.0
  0
LINE
  5
47
330
26
100
AcDbEntity
  8
1
  6
CENTER
 62
     2
100
AcDbLine
 10
-267.146636
 20
111.290043
 30
0.0
 11
-267.146636
 21
129.949997
 31
0.0
  0
LINE
  5
48
330
26
100
AcDbEntity
  8
1
  6
CENTER
 62
     2
100
AcDbLine
 10
-267.146636
 20
160.229416
 30
0.0
 11
-267.146636
 21
179.119236
 31
0.0
  0
LINE
  5
49
330
26
100
AcDbEntity
  8
1
  6
CENTER
 62
     2
100
AcDbLine
 10
-314.516491
 20
145.017088
 30
0.0
 11
-170.072056
 21
145.017088
 31
0.0
  0
LINE
  5
4A
330
26
100
AcDbEntity
  8
1
  6
CENTER
 62
     2
100
AcDbLine
 10
-314.516491
 20
-162.132912
 30
0.0
 11
-170.072056
 21
-162.132912
 31
0.0
  0
LINE
  5
4B
330
26
100
AcDbEntity
  8
1
  6
CENTER
 62
     2
100
AcDbLine
 10
23.747654
 20
-162.132912
 30
0.0
 11
97.75603100000001
 21
-162.132912
 31
0.0
  0
LINE
  5
4C
330
26
100
AcDbEntity
  8
1
  6
CENTER
 62
     2
100
AcDbLine
 10
-242.396636
 20
-248.291443
 30
0.0
 11
-242.396636
 21
75.225089
 31
0.0
  0
LINE
  5
4D
330
26
100
AcDbEntity
  8
1
100
AcDbLine
 10
-235.496636
 20
-236.032912
 30
0.0
 11
-223.296636
 21
-236.032912
 31
0.0
  0
LINE
  5
4E
330
26
100
AcDbEntity
  8
1
100
AcDbLine
 10
-223.646636
 20
-236.032912
 30
0.0
 11
-223.646636
 21
-239.542164
 31
0.0
  0
LINE
  5
4F
330
26
100
AcDbEntity
  8
1
100
AcDbLine
 10
-223.646636
 20
-239.542164
 30
0.0
 11
-224.496636
 21
-240.032912
 31
0.0
  0
LINE
  5
50
330
26
100
AcDbEntity
  8
1
100
AcDbLine
 10
-226.521636
 20
-236.032912
 30
0.0
 11
-226.521636
 21
-239.542164
 31
0.0
  0
ARC
  5
51
330
26
100
AcDbEntity
  8
1
100
AcDbCircle
 10
-225.084136
 20
-237.694209
 30
0.0
 40
2.341226999999999
100
AcDbArc
 50
232.121121
 51
307.878879
  0
ARC
  5
52
330
26
100
AcDbEntity
  8
1
100
AcDbCircle
 10
-229.396636
 20
-231.410436
 30
0.0
 40
8.625
100
AcDbArc
 50
250.528777
 51
289.471219
  0
LINE
  5
53
330
26
100
AcDbEntity
  8
1
100
AcDbLine
 10
-235.146636
 20
-236.032912
 30
0.0
 11
-235.146636
 21
-239.542164
 31
0.0
  0
LINE
  5
54
330
26
100
AcDbEntity
  8
1
100
AcDbLine
 10
-235.146636
 20
-239.542164
 30
0.0
 11
-234.296636
 21
-240.032912
 31
0.0
  0
LINE
  5
55
330
26
100
AcDbEntity
  8
1
100
AcDbLine
 10
-234.296636
 20
-240.032912
 30
0.0
 11
-224.496636
 21
-240.032912
 31
0.0
  0
LINE
  5
56
330
26
100
AcDbEntity
  8
1
100
AcDbLine
 10
-232.271636
 20
-236.032912
 30
0.0
 11
-232.271636
 21
-239.542164
 31
0.0
  0
ARC
  5
57
330
26
100
AcDbEntity
  8
1
100
AcDbCircle
 10
-233.709136
 20
-237.694209
 30
0.0
 40
2.341226999999999
100
AcDbArc
 50
232.121121
 51
307.878879
  0
LINE
  5
58
330
26
100
AcDbEntity
  8
1
100
AcDbLine
 10
-223.296636
 20
-234.532912
 30
0.0
 11
-223.296636
 21
-236.032912
 31
0.0
  0
LINE
  5
59
330
26
100
AcDbEntity
  8
1
100
AcDbLine
 10
-235.496636
 20
-236.032912
 30
0.0
 11
-235.496636
 21
-234.532912
 31
0.0
  0
LINE
  5
5A
330
26
100
AcDbEntity
  8
1
100
AcDbLine
 10
-229.396636
 20
-236.032912
 30
0.0
 11
-229.896636
 21
-234.532912
 31
0.0
  0
LINE
  5
5B
330
26
100
AcDbEntity
  8
1
100
AcDbLine
 10
-229.396636
 20
-234.532912
 30
0.0
 11
-228.896636
 21
-236.032912
 31
0.0
  0
LINE
  5
5C
330
26
100
AcDbEntity
  8
1
100
AcDbLine
 10
-261.496636
 20
-236.032912
 30
0.0
 11
-249.296636
 21
-236.032912
 31
0.0
  0
LINE
  5
5D
330
26
100
AcDbEntity
  8
1
100
AcDbLine
 10
-249.646636
 20
-236.032912
 30
0.0
 11
-249.646636
 21
-239.542164
 31
0.0
  0
LINE
  5
5E
330
26
100
AcDbEntity
  8
1
100
AcDbLine
 10
-249.646636
 20
-239.542164
 30
0.0
 11
-250.496636
 21
-240.032912
 31
0.0
  0
LINE
  5
5F
330
26
100
AcDbEntity
  8
1
100
AcDbLine
 10
-252.521636
 20
-236.032912
 30
0.0
 11
-252.521636
 21
-239.542164
 31
0.0
  0
ARC
  5
60
330
26
100
AcDbEntity
  8
1
100
AcDbCircle
 10
-251.084136
 20
-237.694209
 30
0.0
 40
2.341226999999999
100
AcDbArc
 50
232.121121
 51
307.878879
  0
ARC
  5
61
330
26
100
AcDbEntity
  8
1
100
AcDbCircle
 10
-255.396636
 20
-231.410436
 30
0.0
 40
8.625
100
AcDbArc
 50
250.528777
 51
289.471219
  0
LINE
  5
62
330
26
100
AcDbEntity
  8
1
100
AcDbLine
 10
-261.146636
 20
-236.032912
 30
0.0
 11
-261.146636
 21
-239.542164
 31
0.0
  0
LINE
  5
63
330
26
100
AcDbEntity
  8
1
100
AcDbLine
 10
-261.146636
 20
-239.542164
 30
0.0
 11
-260.296636
 21
-240.032912
 31
0.0
  0
LINE
  5
64
330
26
100
AcDbEntity
  8
1
100
AcDbLine
 10
-260.296636
 20
-240.032912
 30
0.0
 11
-250.496636
 21
-240.032912
 31
0.0
  0
LINE
  5
65
330
26
100
AcDbEntity
  8
1
100
AcDbLine
 10
-258.271636
 20
-236.032912
 30
0.0
 11
-258.271636
 21
-239.542164
 31
0.0
  0
ARC
  5
66
330
26
100
AcDbEntity
  8
1
100
AcDbCircle
 10
-259.709136
 20
-237.694209
 30
0.0
 40
2.341226999999999
100
AcDbArc
 50
232.121121
 51
307.878879
  0
LINE
  5
67
330
26
100
AcDbEntity
  8
1
100
AcDbLine
 10
-249.296636
 20
-234.532912
 30
0.0
 11
-249.296636
 21
-236.032912
 31
0.0
  0
LINE
  5
68
330
26
100
AcDbEntity
  8
1
100
AcDbLine
 10
-261.496636
 20
-236.032912
 30
0.0
 11
-261.496636
 21
-234.532912
 31
0.0
  0
LINE
  5
69
330
26
100
AcDbEntity
  8
1
100
AcDbLine
 10
-255.396636
 20
-236.032912
 30
0.0
 11
-255.896636
 21
-234.532912
 31
0.0
  0
LINE
  5
6A
330
26
100
AcDbEntity
  8
1
100
AcDbLine
 10
-255.396636
 20
-234.532912
 30
0.0
 11
-254.896636
 21
-236.032912
 31
0.0
  0
LINE
  5
6B
330
26
100
AcDbEntity
  8
1
100
AcDbLine
 10
66.153364
 20
-236.032912
 30
0.0
 11
66.153364
 21
-240.032912
 31
0.0
  0
LINE
  5
6C
330
26
100
AcDbEntity
  8
1
100
AcDbLine
 10
61.153364
 20
-236.032912
 30
0.0
 11
61.153364
 21
-239.542164
 31
0.0
  0
ARC
  5
6D
330
26
100
AcDbEntity
  8
1
100
AcDbCircle
 10
63.653364
 20
-233.419704
 30
0.0
 40
6.613208
100
AcDbArc
 50
247.7882049999999
 51
292.211795
  0
LINE
  5
6E
330
26
100
AcDbEntity
  8
1
100
AcDbLine
 10
56.153364
 20
-236.032912
 30
0.0
 11
56.153364
 21
-240.032912
 31
0.0
  0
LINE
  5
6F
330
26
100
AcDbEntity
  8
1
100
AcDbLine
 10
56.153364
 20
-240.032912
 30
0.0
 11
66.153364
 21
-240.032912
 31
0.0
  0
ARC
  5
70
330
26
100
AcDbEntity
  8
1
100
AcDbCircle
 10
58.653364
 20
-233.419704
 30
0.0
 40
6.613208
100
AcDbArc
 50
247.7882049999999
 51
292.211795
  0
LINE
  5
71
330
26
100
AcDbEntity
  8
1
100
AcDbLine
 10
67.253364
 20
-234.532912
 30
0.0
 11
67.253364
 21
-236.032912
 31
0.0
  0
LINE
  5
72
330
26
100
AcDbEntity
  8
1
100
AcDbLine
 10
67.253364
 20
-236.032912
 30
0.0
 11
55.053364
 21
-236.032912
 31
0.0
  0
LINE
  5
73
330
26
100
AcDbEntity
  8
1
100
AcDbLine
 10
55.053364
 20
-236.032912
 30
0.0
 11
55.053364
 21
-234.532912
 31
0.0
  0
LINE
  5
74
330
26
100
AcDbEntity
  8
1
100
AcDbLine
 10
-185.896636
 20
168.017088
 30
0.0
 11
-184.896636
 21
167.017088
 31
0.0
  0
LINE
  5
75
330
26
100
AcDbEntity
  8
1
100
AcDbLine
 10
-184.896636
 20
123.017088
 30
0.0
 11
-185.896636
 21
122.017088
 31
0.0
  0
LINE
  5
76
330
26
100
AcDbEntity
  8
1
100
AcDbLine
 10
-193.242841
 20
156.517088
 30
0.0
 11
-186.690355
 21
156.517088
 31
0.0
  0
LINE
  5
77
330
26
100
AcDbEntity
  8
1
100
AcDbLine
 10
-193.242841
 20
133.517088
 30
0.0
 11
-186.690355
 21
133.517088
 31
0.0
  0
ARC
  5
78
330
26
100
AcDbEntity
  8
1
100
AcDbCircle
 10
-193.242841
 20
150.517088
 30
0.0
 40
6.0
100
AcDbArc
 50
90.0
 51
180.0
  0
ARC
  5
79
330
26
100
AcDbEntity
  8
1
100
AcDbCircle
 10
-193.242841
 20
139.517088
 30
0.0
 40
6.0
100
AcDbArc
 50
180.0
 51
270.0
  0
LINE
  5
7A
330
26
100
AcDbEntity
  8
1
100
AcDbLine
 10
-188.60254
 20
155.524094
 30
0.0
 11
-193.190731
 21
154.294692
 31
0.0
  0
LINE
  5
7B
330
26
100
AcDbEntity
  8
1
100
AcDbLine
 10
-188.60254
 20
134.510082
 30
0.0
 11
-193.190731
 21
135.739484
 31
0.0
  0
LINE
  5
7C
330
26
100
AcDbEntity
  8
1
100
AcDbLine
 10
-184.896636
 20
123.017088
 30
0.0
 11
-184.896636
 21
129.680453
 31
0.0
  0
LINE
  5
7D
330
26
100
AcDbEntity
  8
1
100
AcDbLine
 10
-184.896636
 20
160.353723
 30
0.0
 11
-184.896636
 21
167.017088
 31
0.0
  0
ARC
  5
7E
330
26
100
AcDbEntity
  8
1
100
AcDbCircle
 10
-191.896636
 20
149.465063
 30
0.0
 40
5.0
100
AcDbArc
 50
105.0
 51
180.0
  0
ARC
  5
7F
330
26
100
AcDbEntity
  8
1
100
AcDbCircle
 10
-191.896636
 20
140.569114
 30
0.0
 40
5.0
100
AcDbArc
 50
180.0
 51
255.0
  0
ARC
  5
80
330
26
100
AcDbEntity
  8
1
100
AcDbCircle
 10
-189.896636
 20
160.353723
 30
0.0
 40
5.0
100
AcDbArc
 50
285.0
 51
0.0
  0
ARC
  5
81
330
26
100
AcDbEntity
  8
1
100
AcDbCircle
 10
-189.896636
 20
129.680453
 30
0.0
 40
5.0
100
AcDbArc
 50
360.0
 51
75.0
  0
LINE
  5
82
330
26
100
AcDbEntity
  8
1
100
AcDbLine
 10
69.437864
 20
-118.348412
 30
0.0
 11
69.437864
 21
-115.969412
 31
0.0
  0
LINE
  5
83
330
26
100
AcDbEntity
  8
1
100
AcDbLine
 10
52.868864
 20
-118.348412
 30
0.0
 11
52.868864
 21
-115.969412
 31
0.0
  0
LINE
  5
84
330
26
100
AcDbEntity
  8
1
100
AcDbLine
 10
56.705364
 20
-132.400238
 30
0.0
 11
65.60136400000001
 21
-132.400238
 31
0.0
  0
LINE
  5
85
330
26
100
AcDbEntity
  8
1
100
AcDbLine
 10
69.437864
 20
-188.029085
 30
0.0
 11
69.437864
 21
-136.236738
 31
0.0
  0
LINE
  5
86
330
26
100
AcDbEntity
  8
1
100
AcDbLine
 10
56.705364
 20
-191.865585
 30
0.0
 11
65.60136400000001
 21
-191.865585
 31
0.0
  0
LINE
  5
87
330
26
100
AcDbEntity
  8
1
100
AcDbLine
 10
52.868864
 20
-188.029085
 30
0.0
 11
52.868864
 21
-136.236738
 31
0.0
  0
ARC
  5
88
330
26
100
AcDbEntity
  8
1
100
AcDbCircle
 10
56.705364
 20
-136.236738
 30
0.0
 40
3.8365
100
AcDbArc
 50
90.0
 51
180.0
  0
ARC
  5
89
330
26
100
AcDbEntity
  8
1
100
AcDbCircle
 10
65.60136400000001
 20
-136.236738
 30
0.0
 40
3.8365
100
AcDbArc
 50
0.0
 51
90.0
  0
ARC
  5
8A
330
26
100
AcDbEntity
  8
1
100
AcDbCircle
 10
65.60136400000001
 20
-188.029085
 30
0.0
 40
3.8365
100
AcDbArc
 50
270.0
 51
360.0
  0
ARC
  5
8B
330
26
100
AcDbEntity
  8
1
100
AcDbCircle
 10
56.705364
 20
-188.029085
 30
0.0
 40
3.8365
100
AcDbArc
 50
180.0
 51
270.0
  0
LINE
  5
8C
330
26
100
AcDbEntity
  8
1
100
AcDbLine
 10
71.625742
 20
-126.775017
 30
0.0
 11
69.437864
 21
-132.400238
 31
0.0
  0
LINE
  5
8D
330
26
100
AcDbEntity
  8
1
100
AcDbLine
 10
50.680987
 20
-126.775017
 30
0.0
 11
52.868864
 21
-132.400238
 31
0.0
  0
LINE
  5
8E
330
26
100
AcDbEntity
  8
1
100
AcDbLine
 10
50.680987
 20
-197.490807
 30
0.0
 11
52.868864
 21
-191.865585
 31
0.0
  0
LINE
  5
8F
330
26
100
AcDbEntity
  8
1
100
AcDbLine
 10
69.437864
 20
-191.865585
 30
0.0
 11
71.625742
 21
-197.490807
 31
0.0
  0
ARC
  5
90
330
26
100
AcDbEntity
  8
1
100
AcDbCircle
 10
66.653364
 20
-118.348412
 30
0.0
 40
2.784499999999999
100
AcDbArc
 50
270.0
 51
360.0
  0
ARC
  5
91
330
26
100
AcDbEntity
  8
1
100
AcDbCircle
 10
55.653364
 20
-118.348412
 30
0.0
 40
2.784499999999999
100
AcDbArc
 50
180.0
 51
270.0
  0
ARC
  5
92
330
26
100
AcDbEntity
  8
1
100
AcDbCircle
 10
56.705364
 20
-115.969412
 30
0.0
 40
3.8365
100
AcDbArc
 50
103.121499
 51
180.0
  0
ARC
  5
93
330
26
100
AcDbEntity
  8
1
100
AcDbCircle
 10
65.60136400000001
 20
-115.969412
 30
0.0
 40
3.8365
100
AcDbArc
 50
0.0
 51
76.878501
  0
ARC
  5
94
330
26
100
AcDbEntity
  8
1
100
AcDbCircle
 10
67.15336399999999
 20
-109.311407
 30
0.0
 40
3.0
100
AcDbArc
 50
180.0
 51
256.878501
  0
ARC
  5
95
330
26
100
AcDbEntity
  8
1
100
AcDbCircle
 10
55.153364
 20
-109.311407
 30
0.0
 40
3.0
100
AcDbArc
 50
283.121499
 51
360.0
  0
LINE
  5
96
330
26
100
AcDbEntity
  8
1
100
AcDbLine
 10
72.99220099999999
 20
-104.654056
 30
0.0
 11
69.437864
 21
-112.132912
 31
0.0
  0
LINE
  5
97
330
26
100
AcDbEntity
  8
1
100
AcDbLine
 10
49.314528
 20
-104.654056
 30
0.0
 11
52.868864
 21
-112.132912
 31
0.0
  0
LINE
  5
98
330
26
100
AcDbEntity
  8
1
100
AcDbLine
 10
55.084364
 20
-208.132912
 30
0.0
 11
55.153364
 21
-208.132912
 31
0.0
  0
LINE
  5
99
330
26
100
AcDbEntity
  8
1
100
AcDbLine
 10
67.15336399999999
 20
-208.132912
 30
0.0
 11
67.22236399999999
 21
-208.132912
 31
0.0
  0
LINE
  5
9A
330
26
100
AcDbEntity
  8
1
100
AcDbLine
 10
37.02836400000001
 20
-210.682912
 30
0.0
 11
37.02836400000001
 21
-113.582912
 31
0.0
  0
LINE
  5
9B
330
26
100
AcDbEntity
  8
1
100
AcDbLine
 10
85.27836399999999
 20
-210.682912
 30
0.0
 11
85.27836399999999
 21
-113.582912
 31
0.0
  0
LINE
  5
9C
330
26
100
AcDbEntity
  8
1
100
AcDbLine
 10
85.27836399999999
 20
-113.582912
 30
0.0
 11
84.44198599999999
 21
-112.133189
 31
0.0
  0
ARC
  5
9D
330
26
100
AcDbEntity
  8
1
100
AcDbCircle
 10
83.57580099999999
 20
-112.632912
 30
0.0
 40
1.0
100
AcDbArc
 50
29.98163900000001
 51
54.720616
  0
LINE
  5
9E
330
26
100
AcDbEntity
  8
1
100
AcDbLine
 10
37.02836400000001
 20
-113.582912
 30
0.0
 11
37.864743
 21
-112.133189
 31
0.0
  0
ARC
  5
9F
330
26
100
AcDbEntity
  8
1
100
AcDbCircle
 10
38.73092800000001
 20
-112.632912
 30
0.0
 40
1.0
100
AcDbArc
 50
125.279384
 51
150.018361
  0
LINE
  5
A0
330
26
100
AcDbEntity
  8
1
100
AcDbLine
 10
85.27836399999999
 20
-210.682912
 30
0.0
 11
84.44198599999999
 21
-212.132634
 31
0.0
  0
LINE
  5
A1
330
26
100
AcDbEntity
  8
1
100
AcDbLine
 10
37.02836400000001
 20
-210.682912
 30
0.0
 11
37.864743
 21
-212.132634
 31
0.0
  0
ARC
  5
A2
330
26
100
AcDbEntity
  8
1
100
AcDbCircle
 10
83.57580099999999
 20
-211.632912
 30
0.0
 40
1.0
100
AcDbArc
 50
305.279384
 51
330.018361
  0
ARC
  5
A3
330
26
100
AcDbEntity
  8
1
100
AcDbCircle
 10
38.73092800000001
 20
-211.632912
 30
0.0
 40
1.0
100
AcDbArc
 50
209.981639
 51
234.720616
  0
LINE
  5
A4
330
26
100
AcDbEntity
  8
1
100
AcDbLine
 10
-193.846636
 20
169.142088
 30
0.0
 11
-192.396913
 21
168.30571
 31
0.0
  0
LINE
  5
A5
330
26
100
AcDbEntity
  8
1
100
AcDbLine
 10
-193.846636
 20
120.892088
 30
0.0
 11
-192.396913
 21
121.728467
 31
0.0
  0
ARC
  5
A6
330
26
100
AcDbEntity
  8
1
100
AcDbCircle
 10
-192.896636
 20
167.439524
 30
0.0
 40
1.0
100
AcDbArc
 50
35.279384
 51
60.018361
  0
ARC
  5
A7
330
26
100
AcDbEntity
  8
1
100
AcDbCircle
 10
-192.896636
 20
122.594652
 30
0.0
 40
1.0
100
AcDbArc
 50
299.981639
 51
324.720616
  0
LINE
  5
A8
330
26
100
AcDbEntity
  8
1
  6
DASHED
100
AcDbLine
 10
-205.370051
 20
155.869097
 30
0.0
 11
-207.396636
 21
155.469679
 31
0.0
  0
LINE
  5
A9
330
26
100
AcDbEntity
  8
1
100
AcDbLine
 10
-196.896636
 20
140.569114
 30
0.0
 11
-196.896636
 21
142.017088
 31
0.0
  0
LINE
  5
AA
330
26
100
AcDbEntity
  8
1
100
AcDbLine
 10
-196.896636
 20
148.017088
 30
0.0
 11
-196.896636
 21
149.465063
 31
0.0
  0
LINE
  5
AB
330
26
100
AcDbEntity
  8
1
100
AcDbLine
 10
-199.242841
 20
139.517088
 30
0.0
 11
-199.242841
 21
142.017088
 31
0.0
  0
LINE
  5
AC
330
26
100
AcDbEntity
  8
1
100
AcDbLine
 10
-199.242841
 20
148.017088
 30
0.0
 11
-199.242841
 21
150.517088
 31
0.0
  0
LINE
  5
AD
330
26
100
AcDbEntity
  8
1
100
AcDbLine
 10
-202.082246
 20
139.517088
 30
0.0
 11
-202.082246
 21
142.017088
 31
0.0
  0
LINE
  5
AE
330
26
100
AcDbEntity
  8
1
100
AcDbLine
 10
-202.082246
 20
148.017088
 30
0.0
 11
-202.082246
 21
150.517088
 31
0.0
  0
LINE
  5
AF
330
26
100
AcDbEntity
  8
1
  6
DASHED
100
AcDbLine
 10
-205.370051
 20
134.165079
 30
0.0
 11
-207.396636
 21
134.564497
 31
0.0
  0
LINE
  5
B0
330
26
100
AcDbEntity
  8
1
100
AcDbLine
 10
-277.396636
 20
122.017088
 30
0.0
 11
-298.896636
 21
122.017088
 31
0.0
  0
LINE
  5
B1
330
26
100
AcDbEntity
  8
1
100
AcDbLine
 10
-298.896636
 20
168.017088
 30
0.0
 11
-299.896636
 21
167.017088
 31
0.0
  0
LINE
  5
B2
330
26
100
AcDbEntity
  8
1
100
AcDbLine
 10
-299.896636
 20
123.017088
 30
0.0
 11
-298.896636
 21
122.017088
 31
0.0
  0
LINE
  5
B3
330
26
100
AcDbEntity
  8
1
100
AcDbLine
 10
-299.896636
 20
123.017088
 30
0.0
 11
-277.396636
 21
123.017088
 31
0.0
  0
LINE
  5
B4
330
26
100
AcDbEntity
  8
1
100
AcDbLine
 10
-291.55043
 20
156.517088
 30
0.0
 11
-298.102916
 21
156.517088
 31
0.0
  0
LINE
  5
B5
330
26
100
AcDbEntity
  8
1
100
AcDbLine
 10
-291.55043
 20
133.517088
 30
0.0
 11
-298.102916
 21
133.517088
 31
0.0
  0
ARC
  5
B6
330
26
100
AcDbEntity
  8
1
100
AcDbCircle
 10
-291.55043
 20
150.517088
 30
0.0
 40
6.0
100
AcDbArc
 50
0.0
 51
90.0
  0
ARC
  5
B7
330
26
100
AcDbEntity
  8
1
100
AcDbCircle
 10
-291.55043
 20
139.517088
 30
0.0
 40
6.0
100
AcDbArc
 50
270.0
 51
360.0
  0
LINE
  5
B8
330
26
100
AcDbEntity
  8
1
100
AcDbLine
 10
-296.190731
 20
155.524094
 30
0.0
 11
-291.60254
 21
154.294692
 31
0.0
  0
LINE
  5
B9
330
26
100
AcDbEntity
  8
1
100
AcDbLine
 10
-296.190731
 20
134.510082
 30
0.0
 11
-291.60254
 21
135.739484
 31
0.0
  0
LINE
  5
BA
330
26
100
AcDbEntity
  8
1
100
AcDbLine
 10
-299.896636
 20
123.017088
 30
0.0
 11
-299.896636
 21
129.680453
 31
0.0
  0
LINE
  5
BB
330
26
100
AcDbEntity
  8
1
100
AcDbLine
 10
-299.896636
 20
160.353723
 30
0.0
 11
-299.896636
 21
167.017088
 31
0.0
  0
ARC
  5
BC
330
26
100
AcDbEntity
  8
1
100
AcDbCircle
 10
-292.896636
 20
149.465063
 30
0.0
 40
5.0
100
AcDbArc
 50
0.0
 51
75.0
  0
ARC
  5
BD
330
26
100
AcDbEntity
  8
1
100
AcDbCircle
 10
-292.896636
 20
140.569114
 30
0.0
 40
5.0
100
AcDbArc
 50
285.0
 51
360.0
  0
ARC
  5
BE
330
26
100
AcDbEntity
  8
1
100
AcDbCircle
 10
-294.896636
 20
160.353723
 30
0.0
 40
5.0
100
AcDbArc
 50
180.0
 51
255.0
  0
ARC
  5
BF
330
26
100
AcDbEntity
  8
1
100
AcDbCircle
 10
-294.896636
 20
129.680453
 30
0.0
 40
5.0
100
AcDbArc
 50
105.0
 51
180.0
  0
LINE
  5
C0
330
26
100
AcDbEntity
  8
1
100
AcDbLine
 10
-290.946636
 20
120.892088
 30
0.0
 11
-277.396636
 21
120.892088
 31
0.0
  0
LINE
  5
C1
330
26
100
AcDbEntity
  8
1
100
AcDbLine
 10
-290.946636
 20
169.142088
 30
0.0
 11
-292.396358
 21
168.30571
 31
0.0
  0
LINE
  5
C2
330
26
100
AcDbEntity
  8
1
100
AcDbLine
 10
-290.946636
 20
120.892088
 30
0.0
 11
-292.396358
 21
121.728467
 31
0.0
  0
ARC
  5
C3
330
26
100
AcDbEntity
  8
1
100
AcDbCircle
 10
-291.896636
 20
167.439524
 30
0.0
 40
1.0
100
AcDbArc
 50
119.981639
 51
144.720616
  0
ARC
  5
C4
330
26
100
AcDbEntity
  8
1
100
AcDbCircle
 10
-291.896636
 20
122.594652
 30
0.0
 40
1.0
100
AcDbArc
 50
215.279384
 51
240.018361
  0
LINE
  5
C5
330
26
100
AcDbEntity
  8
1
100
AcDbLine
 10
-287.896636
 20
140.569114
 30
0.0
 11
-287.896636
 21
142.017088
 31
0.0
  0
LINE
  5
C6
330
26
100
AcDbEntity
  8
1
100
AcDbLine
 10
-285.55043
 20
139.517088
 30
0.0
 11
-285.55043
 21
142.017088
 31
0.0
  0
LINE
  5
C7
330
26
100
AcDbEntity
  8
1
100
AcDbLine
 10
-285.55043
 20
148.017088
 30
0.0
 11
-285.55043
 21
150.517088
 31
0.0
  0
LINE
  5
C8
330
26
100
AcDbEntity
  8
1
100
AcDbLine
 10
-282.711025
 20
139.517088
 30
0.0
 11
-282.711025
 21
142.017088
 31
0.0
  0
LINE
  5
C9
330
26
100
AcDbEntity
  8
1
100
AcDbLine
 10
-282.711025
 20
148.017088
 30
0.0
 11
-282.711025
 21
150.517088
 31
0.0
  0
LINE
  5
CA
330
26
100
AcDbEntity
  8
1
100
AcDbLine
 10
-207.396636
 20
-19.132912
 30
0.0
 11
-207.396636
 21
-11.132912
 31
0.0
  0
LINE
  5
CB
330
26
100
AcDbEntity
  8
1
100
AcDbLine
 10
-277.396636
 20
-19.132912
 30
0.0
 11
-277.396636
 21
-11.132912
 31
0.0
  0
LINE
  5
CC
330
26
100
AcDbEntity
  8
1
100
AcDbLine
 10
-273.396636
 20
-23.132912
 30
0.0
 11
-211.396636
 21
-23.132912
 31
0.0
  0
ARC
  5
CD
330
26
100
AcDbEntity
  8
1
100
AcDbCircle
 10
-211.396636
 20
-19.132912
 30
0.0
 40
4.0
100
AcDbArc
 50
270.0
 51
360.0
  0
ARC
  5
CE
330
26
100
AcDbEntity
  8
1
100
AcDbCircle
 10
-273.396636
 20
-19.132912
 30
0.0
 40
4.0
100
AcDbArc
 50
180.0
 51
270.0
  0
LINE
  5
CF
330
26
100
AcDbEntity
  8
1
100
AcDbLine
 10
-257.396636
 20
-102.919315
 30
0.0
 11
-257.396636
 21
-28.132912
 31
0.0
  0
LINE
  5
D0
330
26
100
AcDbEntity
  8
1
100
AcDbLine
 10
-227.396636
 20
-102.919315
 30
0.0
 11
-227.396636
 21
-28.132912
 31
0.0
  0
ARC
  5
D1
330
26
100
AcDbEntity
  8
1
100
AcDbCircle
 10
-222.396636
 20
-28.132912
 30
0.0
 40
5.0
100
AcDbArc
 50
90.0
 51
180.0
  0
ARC
  5
D2
330
26
100
AcDbEntity
  8
1
100
AcDbCircle
 10
-262.396636
 20
-28.132912
 30
0.0
 40
5.0
100
AcDbArc
 50
0.0
 51
90.0
  0
ARC
  5
D3
330
26
100
AcDbEntity
  8
1
100
AcDbCircle
 10
-209.396636
 20
-41.041814
 30
0.0
 40
18.0
100
AcDbArc
 50
95.21590899999999
 51
180.0
  0
ARC
  5
D4
330
26
100
AcDbEntity
  8
1
100
AcDbCircle
 10
-275.396636
 20
-41.041814
 30
0.0
 40
18.0
100
AcDbArc
 50
0.0
 51
84.784091
  0
LINE
  5
D5
330
26
100
AcDbEntity
  8
1
100
AcDbLine
 10
-239.396636
 20
-41.041814
 30
0.0
 11
-245.396636
 21
-41.041814
 31
0.0
  0
LINE
  5
D6
330
26
100
AcDbEntity
  8
1
100
AcDbLine
 10
-245.396636
 20
-39.041814
 30
0.0
 11
-245.396636
 21
-25.132912
 31
0.0
  0
LINE
  5
D7
330
26
100
AcDbEntity
  8
1
100
AcDbLine
 10
-239.396636
 20
-39.041814
 30
0.0
 11
-239.396636
 21
-25.132912
 31
0.0
  0
ARC
  5
D8
330
26
100
AcDbEntity
  8
1
100
AcDbCircle
 10
-237.396636
 20
-25.132912
 30
0.0
 40
2.0
100
AcDbArc
 50
90.0
 51
180.0
  0
ARC
  5
D9
330
26
100
AcDbEntity
  8
1
100
AcDbCircle
 10
-247.396636
 20
-25.132912
 30
0.0
 40
2.0
100
AcDbArc
 50
0.0
 51
90.0
  0
ARC
  5
DA
330
26
100
AcDbEntity
  8
1
100
AcDbCircle
 10
-247.396636
 20
-39.041814
 30
0.0
 40
2.0
100
AcDbArc
 50
270.0
 51
360.0
  0
ARC
  5
DB
330
26
100
AcDbEntity
  8
1
100
AcDbCircle
 10
-237.396636
 20
-39.041814
 30
0.0
 40
2.0
100
AcDbArc
 50
180.0
 51
270.0
  0
CIRCLE
  5
DC
330
26
100
AcDbEntity
  8
1
100
AcDbCircle
 10
-242.396636
 20
-162.132912
 30
0.0
 40
57.5
  0
ARC
  5
DD
330
26
100
AcDbEntity
  8
1
100
AcDbCircle
 10
-222.396636
 20
-102.919315
 30
0.0
 40
5.0
100
AcDbArc
 50
180.0
 51
251.337075
  0
ARC
  5
DE
330
26
100
AcDbEntity
  8
1
100
AcDbCircle
 10
-262.396636
 20
-102.919315
 30
0.0
 40
5.0
100
AcDbArc
 50
288.662925
 51
360.0
  0
ARC
  5
DF
330
26
100
AcDbEntity
  8
1
100
AcDbCircle
 10
-242.396636
 20
-177.132912
 30
0.0
 40
96.0
100
AcDbArc
 50
58.32585100000001
 51
76.358323
  0
ARC
  5
E0
330
26
100
AcDbEntity
  8
1
100
AcDbCircle
 10
-242.396636
 20
-177.132912
 30
0.0
 40
96.0
100
AcDbArc
 50
103.641677
 51
121.674149
  0
ARC
  5
E1
330
26
100
AcDbEntity
  8
1
100
AcDbCircle
 10
-217.396636
 20
-74.12320300000001
 30
0.0
 40
10.0
100
AcDbArc
 50
180.0
 51
256.358323
  0
ARC
  5
E2
330
26
100
AcDbEntity
  8
1
100
AcDbCircle
 10
-267.396636
 20
-74.12320300000001
 30
0.0
 40
10.0
100
AcDbArc
 50
283.641677
 51
360.0
  0
ARC
  5
E3
330
26
100
AcDbEntity
  8
1
100
AcDbCircle
 10
-196.434695
 20
-116.170971
 30
0.0
 40
7.5
100
AcDbArc
 50
158.578178
 51
225.0
  0
ARC
  5
E4
330
26
100
AcDbEntity
  8
1
100
AcDbCircle
 10
-192.899161
 20
-112.635437
 30
0.0
 40
9.5
100
AcDbArc
 50
123.463041
 51
158.578178
  0
ARC
  5
E5
330
26
100
AcDbEntity
  8
1
100
AcDbCircle
 10
-191.131394
 20
-110.86767
 30
0.0
 40
9.0
100
AcDbArc
 50
104.546902
 51
123.463041
  0
LINE
  5
E6
330
26
100
AcDbEntity
  8
1
100
AcDbLine
 10
-196.093985
 20
-103.359495
 30
0.0
 11
-198.137451
 21
-104.710141
 31
0.0
  0
LINE
  5
E7
330
26
100
AcDbEntity
  8
1
100
AcDbLine
 10
-201.74287
 20
-109.165739
 30
0.0
 11
-203.416571
 21
-113.431736
 31
0.0
  0
ARC
  5
E8
330
26
100
AcDbEntity
  8
1
100
AcDbCircle
 10
-194.396636
 20
-98.28441900000001
 30
0.0
 40
4.0
100
AcDbArc
 50
284.546902
 51
360.0
  0
ARC
  5
E9
330
26
100
AcDbEntity
  8
1
100
AcDbCircle
 10
-193.747945
 20
-98.28441900000001
 30
0.0
 40
3.351309999999999
100
AcDbArc
 50
0.0
 51
58.32585100000001
  0
ARC
  5
EA
330
26
100
AcDbEntity
  8
1
100
AcDbCircle
 10
-288.358576
 20
-116.170971
 30
0.0
 40
7.5
100
AcDbArc
 50
315.0
 51
21.421822
  0
ARC
  5
EB
330
26
100
AcDbEntity
  8
1
100
AcDbCircle
 10
-291.89411
 20
-112.635437
 30
0.0
 40
9.5
100
AcDbArc
 50
21.421822
 51
56.53695899999999
  0
ARC
  5
EC
330
26
100
AcDbEntity
  8
1
100
AcDbCircle
 10
-293.661877
 20
-110.86767
 30
0.0
 40
9.0
100
AcDbArc
 50
56.53695899999999
 51
75.453098
  0
LINE
  5
ED
330
26
100
AcDbEntity
  8
1
100
AcDbLine
 10
-288.699286
 20
-103.359495
 30
0.0
 11
-286.65582
 21
-104.710141
 31
0.0
  0
LINE
  5
EE
330
26
100
AcDbEntity
  8
1
100
AcDbLine
 10
-283.050401
 20
-109.165739
 30
0.0
 11
-281.3767
 21
-113.431736
 31
0.0
  0
ARC
  5
EF
330
26
100
AcDbEntity
  8
1
100
AcDbCircle
 10
-290.396636
 20
-98.28441900000001
 30
0.0
 40
4.0
100
AcDbArc
 50
180.0
 51
255.453098
  0
ARC
  5
F0
330
26
100
AcDbEntity
  8
1
100
AcDbCircle
 10
-291.045326
 20
-98.28441900000001
 30
0.0
 40
3.351309999999999
100
AcDbArc
 50
121.674149
 51
180.0
  0
LINE
  5
F1
330
26
100
AcDbEntity
  8
1
100
AcDbLine
 10
-261.396636
 20
-232.132912
 30
0.0
 11
-223.396636
 21
-232.132912
 31
0.0
  0
ARC
  5
F2
330
26
100
AcDbEntity
  8
1
100
AcDbCircle
 10
-218.396636
 20
-219.84123
 30
0.0
 40
5.0
100
AcDbArc
 50
112.581673
 51
180.0
  0
ARC
  5
F3
330
26
100
AcDbEntity
  8
1
100
AcDbCircle
 10
-266.396636
 20
-219.84123
 30
0.0
 40
5.0
100
AcDbArc
 50
0.0
 51
67.418327
  0
LINE
  5
F4
330
26
100
AcDbEntity
  8
1
100
AcDbLine
 10
-258.396636
 20
-229.132912
 30
0.0
 11
-226.396636
 21
-229.132912
 31
0.0
  0
LINE
  5
F5
330
26
100
AcDbEntity
  8
1
100
AcDbLine
 10
-221.97694
 20
-228.752505
 30
0.0
 11
-202.861359
 21
-223.630501
 31
0.0
  0
LINE
  5
F6
330
26
100
AcDbEntity
  8
1
100
AcDbLine
 10
-262.816331
 20
-228.752505
 30
0.0
 11
-281.931912
 21
-223.630501
 31
0.0
  0
ARC
  5
F7
330
26
100
AcDbEntity
  8
1
100
AcDbCircle
 10
-226.396636
 20
-226.132912
 30
0.0
 40
3.0
100
AcDbArc
 50
270.0
 51
360.0
  0
ARC
  5
F8
330
26
100
AcDbEntity
  8
1
100
AcDbCircle
 10
-258.396636
 20
-226.132912
 30
0.0
 40
3.0
100
AcDbArc
 50
180.0
 51
270.0
  0
LINE
  5
F9
330
26
100
AcDbEntity
  8
1
100
AcDbLine
 10
-284.896636
 20
-219.766798
 30
0.0
 11
-284.896636
 21
-219.460172
 31
0.0
  0
LINE
  5
FA
330
26
100
AcDbEntity
  8
1
100
AcDbLine
 10
-199.896636
 20
-219.766798
 30
0.0
 11
-199.896636
 21
-219.460172
 31
0.0
  0
LINE
  5
FB
330
26
100
AcDbEntity
  8
1
100
AcDbLine
 10
-203.416571
 20
-210.834088
 30
0.0
 11
-201.74287
 21
-215.100084
 31
0.0
  0
ARC
  5
FC
330
26
100
AcDbEntity
  8
1
100
AcDbCircle
 10
-196.434695
 20
-208.094852
 30
0.0
 40
7.5
100
AcDbArc
 50
135.0
 51
201.421822
  0
ARC
  5
FD
330
26
100
AcDbEntity
  8
1
100
AcDbCircle
 10
-192.899161
 20
-211.630386
 30
0.0
 40
9.5
100
AcDbArc
 50
201.421822
 51
215.449428
  0
ARC
  5
FE
330
26
100
AcDbEntity
  8
1
100
AcDbCircle
 10
-203.896636
 20
-219.460172
 30
0.0
 40
4.0
100
AcDbArc
 50
0.0
 51
35.44942800000001
  0
ARC
  5
FF
330
26
100
AcDbEntity
  8
1
100
AcDbCircle
 10
-203.896636
 20
-219.766798
 30
0.0
 40
4.0
100
AcDbArc
 50
285.0
 51
360.0
  0
LINE
  5
100
330
26
100
AcDbEntity
  8
1
100
AcDbLine
 10
-281.3767
 20
-210.834088
 30
0.0
 11
-283.050401
 21
-215.100084
 31
0.0
  0
ARC
  5
101
330
26
100
AcDbEntity
  8
1
100
AcDbCircle
 10
-288.358576
 20
-208.094852
 30
0.0
 40
7.5
100
AcDbArc
 50
338.578178
 51
45.0
  0
ARC
  5
102
330
26
100
AcDbEntity
  8
1
100
AcDbCircle
 10
-291.89411
 20
-211.630386
 30
0.0
 40
9.5
100
AcDbArc
 50
324.5505720000001
 51
338.578178
  0
ARC
  5
103
330
26
100
AcDbEntity
  8
1
100
AcDbCircle
 10
-280.896636
 20
-219.460172
 30
0.0
 40
4.0
100
AcDbArc
 50
144.550572
 51
180.0
  0
ARC
  5
104
330
26
100
AcDbEntity
  8
1
100
AcDbCircle
 10
-280.896636
 20
-219.766798
 30
0.0
 40
4.0
100
AcDbArc
 50
180.0
 51
255.0
  0
ARC
  5
105
330
26
100
AcDbEntity
  8
1
100
AcDbCircle
 10
-220.396636
 20
-231.434893
 30
0.0
 40
3.0
100
AcDbArc
 50
105.0
 51
180.0
  0
ARC
  5
106
330
26
100
AcDbEntity
  8
1
100
AcDbCircle
 10
-264.396636
 20
-231.434893
 30
0.0
 40
3.0
100
AcDbArc
 50
0.0
 51
75.0
  0
LINE
  5
107
330
26
100
AcDbEntity
  8
1
  6
CENTER
 62
     2
100
AcDbLine
 10
-255.396636
 20
-225.112757
 30
0.0
 11
-255.396636
 21
-244.115213
 31
0.0
  0
LINE
  5
108
330
26
100
AcDbEntity
  8
1
  6
CENTER
 62
     2
100
AcDbLine
 10
-229.396636
 20
-225.112757
 30
0.0
 11
-229.396636
 21
-244.115213
 31
0.0
  0
ARC
  5
109
330
26
100
AcDbEntity
  8
1
100
AcDbCircle
 10
-221.200483
 20
-231.650283
 30
0.0
 40
3.0
100
AcDbArc
 50
105.0
 51
180.0
  0
LINE
  5
10A
330
26
100
AcDbEntity
  8
1
100
AcDbLine
 10
-223.396636
 20
-234.532912
 30
0.0
 11
-223.396636
 21
-231.434893
 31
0.0
  0
LINE
  5
10B
330
26
100
AcDbEntity
  8
1
100
AcDbLine
 10
-223.396636
 20
-226.132912
 30
0.0
 11
-223.396636
 21
-219.84123
 31
0.0
  0
ARC
  5
10C
330
26
100
AcDbEntity
  8
1
100
AcDbCircle
 10
-263.592788
 20
-231.650283
 30
0.0
 40
3.0
100
AcDbArc
 50
360.0
 51
75.0
  0
LINE
  5
10D
330
26
100
AcDbEntity
  8
1
100
AcDbLine
 10
-261.396636
 20
-234.532912
 30
0.0
 11
-261.396636
 21
-231.434893
 31
0.0
  0
LINE
  5
10E
330
26
100
AcDbEntity
  8
1
100
AcDbLine
 10
-261.396636
 20
-226.132912
 30
0.0
 11
-261.396636
 21
-219.84123
 31
0.0
  0
LINE
  5
10F
330
26
100
AcDbEntity
  8
1
100
AcDbLine
 10
-261.396636
 20
-232.932912
 30
0.0
 11
-223.396636
 21
-232.932912
 31
0.0
  0
LINE
  5
110
330
26
100
AcDbEntity
  8
1
100
AcDbLine
 10
-261.496636
 20
-234.532912
 30
0.0
 11
-223.296636
 21
-234.532912
 31
0.0
  0
LINE
  5
111
330
26
100
AcDbEntity
  8
1
100
AcDbLine
 10
96.153364
 20
-19.132912
 30
0.0
 11
96.153364
 21
-11.132912
 31
0.0
  0
LINE
  5
112
330
26
100
AcDbEntity
  8
1
100
AcDbLine
 10
26.153364
 20
-19.132912
 30
0.0
 11
26.153364
 21
-11.132912
 31
0.0
  0
LINE
  5
113
330
26
100
AcDbEntity
  8
1
100
AcDbLine
 10
30.153364
 20
-23.132912
 30
0.0
 11
92.15336399999999
 21
-23.132912
 31
0.0
  0
ARC
  5
114
330
26
100
AcDbEntity
  8
1
100
AcDbCircle
 10
92.15336399999999
 20
-19.132912
 30
0.0
 40
4.0
100
AcDbArc
 50
270.0
 51
360.0
  0
ARC
  5
115
330
26
100
AcDbEntity
  8
1
100
AcDbCircle
 10
30.153364
 20
-19.132912
 30
0.0
 40
4.0
100
AcDbArc
 50
180.0
 51
270.0
  0
LINE
  5
116
330
26
100
AcDbEntity
  8
1
100
AcDbLine
 10
46.153364
 20
-102.656403
 30
0.0
 11
46.153364
 21
-28.132912
 31
0.0
  0
LINE
  5
117
330
26
100
AcDbEntity
  8
1
100
AcDbLine
 10
76.153364
 20
-102.656403
 30
0.0
 11
76.153364
 21
-28.132912
 31
0.0
  0
ARC
  5
118
330
26
100
AcDbEntity
  8
1
100
AcDbCircle
 10
81.153364
 20
-28.132912
 30
0.0
 40
5.0
100
AcDbArc
 50
90.0
 51
180.0
  0
ARC
  5
119
330
26
100
AcDbEntity
  8
1
100
AcDbCircle
 10
41.153364
 20
-28.132912
 30
0.0
 40
5.0
100
AcDbArc
 50
0.0
 51
90.0
  0
ARC
  5
11A
330
26
100
AcDbEntity
  8
1
100
AcDbCircle
 10
94.15336399999999
 20
-41.041814
 30
0.0
 40
18.0
100
AcDbArc
 50
95.21590899999999
 51
180.0
  0
ARC
  5
11B
330
26
100
AcDbEntity
  8
1
100
AcDbCircle
 10
28.153364
 20
-41.041814
 30
0.0
 40
18.0
100
AcDbArc
 50
0.0
 51
84.784091
  0
LINE
  5
11C
330
26
100
AcDbEntity
  8
1
100
AcDbLine
 10
64.153364
 20
-41.041814
 30
0.0
 11
58.153364
 21
-41.041814
 31
0.0
  0
LINE
  5
11D
330
26
100
AcDbEntity
  8
1
100
AcDbLine
 10
58.153364
 20
-39.041814
 30
0.0
 11
58.153364
 21
-25.132912
 31
0.0
  0
LINE
  5
11E
330
26
100
AcDbEntity
  8
1
100
AcDbLine
 10
64.153364
 20
-39.041814
 30
0.0
 11
64.153364
 21
-25.132912
 31
0.0
  0
ARC
  5
11F
330
26
100
AcDbEntity
  8
1
100
AcDbCircle
 10
66.153364
 20
-25.132912
 30
0.0
 40
2.0
100
AcDbArc
 50
90.0
 51
180.0
  0
ARC
  5
120
330
26
100
AcDbEntity
  8
1
100
AcDbCircle
 10
56.153364
 20
-25.132912
 30
0.0
 40
2.0
100
AcDbArc
 50
0.0
 51
90.0
  0
ARC
  5
121
330
26
100
AcDbEntity
  8
1
100
AcDbCircle
 10
56.153364
 20
-39.041814
 30
0.0
 40
2.0
100
AcDbArc
 50
270.0
 51
360.0
  0
ARC
  5
122
330
26
100
AcDbEntity
  8
1
100
AcDbCircle
 10
66.153364
 20
-39.041814
 30
0.0
 40
2.0
100
AcDbArc
 50
180.0
 51
270.0
  0
ARC
  5
123
330
26
100
AcDbEntity
  8
1
100
AcDbCircle
 10
81.153364
 20
-99.632912
 30
0.0
 40
5.0
100
AcDbArc
 50
180.0
 51
270.0
  0
ARC
  5
124
330
26
100
AcDbEntity
  8
1
100
AcDbCircle
 10
41.153364
 20
-99.632912
 30
0.0
 40
5.0
100
AcDbArc
 50
270.0
 51
0.0
  0
LINE
  5
125
330
26
100
AcDbEntity
  8
1
100
AcDbLine
 10
83.15336399999999
 20
-104.632912
 30
0.0
 11
83.15336399999999
 21
-219.632912
 31
0.0
  0
LINE
  5
126
330
26
100
AcDbEntity
  8
1
100
AcDbLine
 10
39.15336400000001
 20
-104.632912
 30
0.0
 11
39.15336400000001
 21
-219.632912
 31
0.0
  0
LINE
  5
127
330
26
100
AcDbEntity
  8
1
100
AcDbLine
 10
38.15336400000001
 20
-218.632912
 30
0.0
 11
38.15336400000001
 21
-105.632912
 31
0.0
  0
LINE
  5
128
330
26
100
AcDbEntity
  8
1
100
AcDbLine
 10
84.15336399999999
 20
-218.632912
 30
0.0
 11
84.15336399999999
 21
-105.632912
 31
0.0
  0
LINE
  5
129
330
26
100
AcDbEntity
  8
1
100
AcDbLine
 10
39.15336400000001
 20
-104.632912
 30
0.0
 11
38.15336400000001
 21
-105.632912
 31
0.0
  0
LINE
  5
12A
330
26
100
AcDbEntity
  8
1
100
AcDbLine
 10
84.15336399999999
 20
-105.632912
 30
0.0
 11
83.15336399999999
 21
-104.632912
 31
0.0
  0
LINE
  5
12B
330
26
100
AcDbEntity
  8
1
100
AcDbLine
 10
84.15336399999999
 20
-218.632912
 30
0.0
 11
83.15336399999999
 21
-219.632912
 31
0.0
  0
LINE
  5
12C
330
26
100
AcDbEntity
  8
1
100
AcDbLine
 10
39.15336400000001
 20
-219.632912
 30
0.0
 11
38.15336400000001
 21
-218.632912
 31
0.0
  0
ARC
  5
12D
330
26
100
AcDbEntity
  8
1
100
AcDbCircle
 10
81.153364
 20
-102.656403
 30
0.0
 40
5.0
100
AcDbArc
 50
180.0
 51
270.0
  0
ARC
  5
12E
330
26
100
AcDbEntity
  8
1
100
AcDbCircle
 10
41.153364
 20
-102.656403
 30
0.0
 40
5.0
100
AcDbArc
 50
270.0
 51
360.0
  0
LINE
  5
12F
330
26
100
AcDbEntity
  8
1
100
AcDbLine
 10
39.15336400000001
 20
-104.632912
 30
0.0
 11
41.153364
 21
-104.632912
 31
0.0
  0
LINE
  5
130
330
26
100
AcDbEntity
  8
1
100
AcDbLine
 10
81.153364
 20
-104.632912
 30
0.0
 11
83.15336399999999
 21
-104.632912
 31
0.0
  0
LINE
  5
131
330
26
100
AcDbEntity
  8
1
100
AcDbLine
 10
48.153364
 20
-232.132912
 30
0.0
 11
74.153364
 21
-232.132912
 31
0.0
  0
LINE
  5
132
330
26
100
AcDbEntity
  8
1
100
AcDbLine
 10
48.153364
 20
-234.532912
 30
0.0
 11
48.153364
 21
-219.224565
 31
0.0
  0
LINE
  5
133
330
26
100
AcDbEntity
  8
1
100
AcDbLine
 10
74.153364
 20
-234.532912
 30
0.0
 11
74.153364
 21
-219.224565
 31
0.0
  0
ARC
  5
134
330
26
100
AcDbEntity
  8
1
100
AcDbCircle
 10
78.15336399999999
 20
-223.632912
 30
0.0
 40
4.0
100
AcDbArc
 50
90.0
 51
180.0
  0
ARC
  5
135
330
26
100
AcDbEntity
  8
1
100
AcDbCircle
 10
44.153364
 20
-223.632912
 30
0.0
 40
4.0
100
AcDbArc
 50
0.0
 51
90.0
  0
ARC
  5
136
330
26
100
AcDbEntity
  8
1
100
AcDbCircle
 10
78.15336399999999
 20
-219.224565
 30
0.0
 40
4.0
100
AcDbArc
 50
90.0
 51
180.0
  0
ARC
  5
137
330
26
100
AcDbEntity
  8
1
100
AcDbCircle
 10
44.153364
 20
-219.224565
 30
0.0
 40
4.0
100
AcDbArc
 50
0.0
 51
90.0
  0
LINE
  5
138
330
26
100
AcDbEntity
  8
1
100
AcDbLine
 10
39.15336400000001
 20
-219.632912
 30
0.0
 11
44.153364
 21
-219.632912
 31
0.0
  0
LINE
  5
139
330
26
100
AcDbEntity
  8
1
100
AcDbLine
 10
78.15336399999999
 20
-219.632912
 30
0.0
 11
83.15336399999999
 21
-219.632912
 31
0.0
  0
LINE
  5
13A
330
26
100
AcDbEntity
  8
1
100
AcDbLine
 10
48.153364
 20
-232.932912
 30
0.0
 11
74.153364
 21
-232.932912
 31
0.0
  0
LINE
  5
13B
330
26
100
AcDbEntity
  8
1
100
AcDbLine
 10
48.153364
 20
-234.532912
 30
0.0
 11
74.153364
 21
-234.532912
 31
0.0
  0
LINE
  5
13C
330
26
100
AcDbEntity
  8
1
100
AcDbLine
 10
49.653364
 20
-194.132912
 30
0.0
 11
49.653364
 21
-130.132912
 31
0.0
  0
LINE
  5
13D
330
26
100
AcDbEntity
  8
1
100
AcDbLine
 10
72.65336399999999
 20
-194.132912
 30
0.0
 11
72.65336399999999
 21
-130.132912
 31
0.0
  0
LINE
  5
13E
330
26
100
AcDbEntity
  8
1
100
AcDbLine
 10
55.653364
 20
-124.132912
 30
0.0
 11
66.653364
 21
-124.132912
 31
0.0
  0
LINE
  5
13F
330
26
100
AcDbEntity
  8
1
100
AcDbLine
 10
55.653364
 20
-200.132912
 30
0.0
 11
66.653364
 21
-200.132912
 31
0.0
  0
ARC
  5
140
330
26
100
AcDbEntity
  8
1
100
AcDbCircle
 10
55.653364
 20
-130.132912
 30
0.0
 40
6.0
100
AcDbArc
 50
90.0
 51
180.0
  0
ARC
  5
141
330
26
100
AcDbEntity
  8
1
100
AcDbCircle
 10
66.653364
 20
-130.132912
 30
0.0
 40
6.0
100
AcDbArc
 50
0.0
 51
90.0
  0
ARC
  5
142
330
26
100
AcDbEntity
  8
1
100
AcDbCircle
 10
55.653364
 20
-194.132912
 30
0.0
 40
6.0
100
AcDbArc
 50
180.0
 51
270.0
  0
ARC
  5
143
330
26
100
AcDbEntity
  8
1
100
AcDbCircle
 10
66.653364
 20
-194.132912
 30
0.0
 40
6.0
100
AcDbArc
 50
270.0
 51
360.0
  0
LINE
  5
144
330
26
100
AcDbEntity
  8
1
100
AcDbLine
 10
58.153364
 20
-203.132912
 30
0.0
 11
64.153364
 21
-203.132912
 31
0.0
  0
LINE
  5
145
330
26
100
AcDbEntity
  8
1
100
AcDbLine
 10
58.153364
 20
-74.12320300000001
 30
0.0
 11
64.153364
 21
-74.12320300000001
 31
0.0
  0
LINE
  5
146
330
26
100
AcDbEntity
  8
1
100
AcDbLine
 10
58.153364
 20
-118.632912
 30
0.0
 11
58.153364
 21
-77.123203
 31
0.0
  0
LINE
  5
147
330
26
100
AcDbEntity
  8
1
100
AcDbLine
 10
64.153364
 20
-118.632912
 30
0.0
 11
64.153364
 21
-77.123203
 31
0.0
  0
ARC
  5
148
330
26
100
AcDbEntity
  8
1
100
AcDbCircle
 10
55.153364
 20
-77.123203
 30
0.0
 40
3.0
100
AcDbArc
 50
0.0
 51
90.0
  0
ARC
  5
149
330
26
100
AcDbEntity
  8
1
100
AcDbCircle
 10
67.15336399999999
 20
-77.123203
 30
0.0
 40
3.0
100
AcDbArc
 50
90.0
 51
180.0
  0
LINE
  5
14A
330
26
100
AcDbEntity
  8
1
100
AcDbLine
 10
58.153364
 20
-121.132912
 30
0.0
 11
64.153364
 21
-121.132912
 31
0.0
  0
LINE
  5
14B
330
26
100
AcDbEntity
  8
1
100
AcDbLine
 10
49.653364
 20
-106.156403
 30
0.0
 11
49.653364
 21
-115.132912
 31
0.0
  0
LINE
  5
14C
330
26
100
AcDbEntity
  8
1
100
AcDbLine
 10
72.65336399999999
 20
-115.132912
 30
0.0
 11
72.65336399999999
 21
-106.156403
 31
0.0
  0
ARC
  5
14D
330
26
100
AcDbEntity
  8
1
100
AcDbCircle
 10
66.653364
 20
-115.132912
 30
0.0
 40
6.0
100
AcDbArc
 50
270.0
 51
360.0
  0
ARC
  5
14E
330
26
100
AcDbEntity
  8
1
100
AcDbCircle
 10
55.653364
 20
-115.132912
 30
0.0
 40
6.0
100
AcDbArc
 50
180.0
 51
270.0
  0
ARC
  5
14F
330
26
100
AcDbEntity
  8
1
100
AcDbCircle
 10
66.653364
 20
-118.632912
 30
0.0
 40
2.5
100
AcDbArc
 50
180.0
 51
270.0
  0
ARC
  5
150
330
26
100
AcDbEntity
  8
1
100
AcDbCircle
 10
55.653364
 20
-118.632912
 30
0.0
 40
2.5
100
AcDbArc
 50
270.0
 51
360.0
  0
LINE
  5
151
330
26
100
AcDbEntity
  8
1
100
AcDbLine
 10
60.153364
 20
-95.43229399999999
 30
0.0
 11
62.153364
 21
-95.43229399999999
 31
0.0
  0
LINE
  5
152
330
26
100
AcDbEntity
  8
1
100
AcDbLine
 10
60.153364
 20
-102.156189
 30
0.0
 11
62.153364
 21
-102.156189
 31
0.0
  0
ARC
  5
153
330
26
100
AcDbEntity
  8
1
100
AcDbCircle
 10
62.153364
 20
-97.432294
 30
0.0
 40
2.0
100
AcDbArc
 50
0.0
 51
90.0
  0
ARC
  5
154
330
26
100
AcDbEntity
  8
1
100
AcDbCircle
 10
60.153364
 20
-97.432294
 30
0.0
 40
2.0
100
AcDbArc
 50
90.0
 51
180.0
  0
ARC
  5
155
330
26
100
AcDbEntity
  8
1
100
AcDbCircle
 10
60.153364
 20
-100.156189
 30
0.0
 40
2.0
100
AcDbArc
 50
180.0
 51
270.0
  0
ARC
  5
156
330
26
100
AcDbEntity
  8
1
100
AcDbCircle
 10
62.153364
 20
-100.156189
 30
0.0
 40
2.0
100
AcDbArc
 50
270.0
 51
0.0
  0
ARC
  5
157
330
26
100
AcDbEntity
  8
1
100
AcDbCircle
 10
76.153364
 20
-106.156403
 30
0.0
 40
3.5
100
AcDbArc
 50
90.0
 51
180.0
  0
ARC
  5
158
330
26
100
AcDbEntity
  8
1
100
AcDbCircle
 10
46.153364
 20
-106.156403
 30
0.0
 40
3.5
100
AcDbArc
 50
0.0
 51
90.0
  0
LINE
  5
159
330
26
100
AcDbEntity
  8
1
100
AcDbLine
 10
49.653364
 20
-217.724565
 30
0.0
 11
49.653364
 21
-209.132912
 31
0.0
  0
LINE
  5
15A
330
26
100
AcDbEntity
  8
1
100
AcDbLine
 10
72.65336399999999
 20
-217.724565
 30
0.0
 11
72.65336399999999
 21
-209.132912
 31
0.0
  0
ARC
  5
15B
330
26
100
AcDbEntity
  8
1
100
AcDbCircle
 10
66.653364
 20
-209.132912
 30
0.0
 40
6.0
100
AcDbArc
 50
0.0
 51
90.0
  0
ARC
  5
15C
330
26
100
AcDbEntity
  8
1
100
AcDbCircle
 10
55.653364
 20
-209.132912
 30
0.0
 40
6.0
100
AcDbArc
 50
90.0
 51
180.0
  0
ARC
  5
15D
330
26
100
AcDbEntity
  8
1
100
AcDbCircle
 10
74.153364
 20
-217.724565
 30
0.0
 40
1.5
100
AcDbArc
 50
180.0
 51
270.0
  0
ARC
  5
15E
330
26
100
AcDbEntity
  8
1
100
AcDbCircle
 10
48.153364
 20
-217.724565
 30
0.0
 40
1.5
100
AcDbArc
 50
270.0
 51
360.0
  0
LINE
  5
15F
330
26
100
AcDbEntity
  8
1
100
AcDbLine
 10
64.153364
 20
-228.650283
 30
0.0
 11
64.153364
 21
-205.632912
 31
0.0
  0
LINE
  5
160
330
26
100
AcDbEntity
  8
1
100
AcDbLine
 10
58.153364
 20
-228.650283
 30
0.0
 11
58.153364
 21
-205.632912
 31
0.0
  0
ARC
  5
161
330
26
100
AcDbEntity
  8
1
100
AcDbCircle
 10
66.653364
 20
-205.632912
 30
0.0
 40
2.5
100
AcDbArc
 50
90.0
 51
180.0
  0
ARC
  5
162
330
26
100
AcDbEntity
  8
1
100
AcDbCircle
 10
55.653364
 20
-205.632912
 30
0.0
 40
2.5
100
AcDbArc
 50
0.0
 51
90.0
  0
ARC
  5
163
330
26
100
AcDbEntity
  8
1
100
AcDbCircle
 10
66.653364
 20
-205.917412
 30
0.0
 40
2.784499999999999
100
AcDbArc
 50
0.0
 51
90.0
  0
ARC
  5
164
330
26
100
AcDbEntity
  8
1
100
AcDbCircle
 10
55.653364
 20
-205.917412
 30
0.0
 40
2.784499999999999
100
AcDbArc
 50
90.0
 51
180.0
  0
ARC
  5
165
330
26
100
AcDbEntity
  8
1
100
AcDbCircle
 10
67.15336399999999
 20
-211.132912
 30
0.0
 40
3.0
100
AcDbArc
 50
90.0
 51
180.0
  0
ARC
  5
166
330
26
100
AcDbEntity
  8
1
100
AcDbCircle
 10
55.153364
 20
-211.132912
 30
0.0
 40
3.0
100
AcDbArc
 50
0.0
 51
90.0
  0
ARC
  5
167
330
26
100
AcDbEntity
  8
1
100
AcDbCircle
 10
67.22236399999999
 20
-205.917412
 30
0.0
 40
2.2155
100
AcDbArc
 50
270.0
 51
360.0
  0
ARC
  5
168
330
26
100
AcDbEntity
  8
1
100
AcDbCircle
 10
55.084364
 20
-205.917412
 30
0.0
 40
2.2155
100
AcDbArc
 50
180.0
 51
270.0
  0
LINE
  5
169
330
26
100
AcDbEntity
  8
1
100
AcDbLine
 10
72.72769
 20
-218.190883
 30
0.0
 11
69.437864
 21
-208.132912
 31
0.0
  0
LINE
  5
16A
330
26
100
AcDbEntity
  8
1
100
AcDbLine
 10
49.579039
 20
-218.190883
 30
0.0
 11
52.868864
 21
-208.132912
 31
0.0
  0
ARC
  5
16B
330
26
100
AcDbEntity
  8
1
100
AcDbCircle
 10
71.153364
 20
-226.132912
 30
0.0
 40
3.0
100
AcDbArc
 50
270.0
 51
360.0
  0
ARC
  5
16C
330
26
100
AcDbEntity
  8
1
100
AcDbCircle
 10
51.153364
 20
-226.132912
 30
0.0
 40
3.0
100
AcDbArc
 50
180.0
 51
270.0
  0
LINE
  5
16D
330
26
100
AcDbEntity
  8
1
100
AcDbLine
 10
51.153364
 20
-229.132912
 30
0.0
 11
55.153364
 21
-229.132912
 31
0.0
  0
LINE
  5
16E
330
26
100
AcDbEntity
  8
1
100
AcDbLine
 10
67.15336399999999
 20
-229.132912
 30
0.0
 11
71.153364
 21
-229.132912
 31
0.0
  0
LINE
  5
16F
330
26
100
AcDbEntity
  8
1
100
AcDbLine
 10
58.153364
 20
-231.650283
 30
0.0
 11
64.153364
 21
-231.650283
 31
0.0
  0
ARC
  5
170
330
26
100
AcDbEntity
  8
1
100
AcDbCircle
 10
67.15336399999999
 20
-228.650283
 30
0.0
 40
3.0
100
AcDbArc
 50
180.0
 51
270.0
  0
ARC
  5
171
330
26
100
AcDbEntity
  8
1
100
AcDbCircle
 10
55.153364
 20
-228.650283
 30
0.0
 40
3.0
100
AcDbArc
 50
270.0
 51
360.0
  0
ARC
  5
172
330
26
100
AcDbEntity
  8
1
100
AcDbCircle
 10
67.15336399999999
 20
-226.132912
 30
0.0
 40
3.0
100
AcDbArc
 50
180.0
 51
270.0
  0
ARC
  5
173
330
26
100
AcDbEntity
  8
1
100
AcDbCircle
 10
55.153364
 20
-226.132912
 30
0.0
 40
3.0
100
AcDbArc
 50
270.0
 51
360.0
  0
LINE
  5
174
330
26
100
AcDbEntity
  8
1
100
AcDbLine
 10
60.153364
 20
-223.630501
 30
0.0
 11
62.153364
 21
-223.630501
 31
0.0
  0
ARC
  5
175
330
26
100
AcDbEntity
  8
1
100
AcDbCircle
 10
62.153364
 20
-221.630501
 30
0.0
 40
2.0
100
AcDbArc
 50
270.0
 51
360.0
  0
ARC
  5
176
330
26
100
AcDbEntity
  8
1
100
AcDbCircle
 10
60.153364
 20
-221.630501
 30
0.0
 40
2.0
100
AcDbArc
 50
180.0
 51
270.0
  0
CIRCLE
  5
177
330
26
100
AcDbEntity
  8
1
100
AcDbCircle
 10
-242.396636
 20
-162.132912
 30
0.0
 40
56.5
  0
LINE
  5
178
330
26
100
AcDbEntity
  8
1
100
AcDbLine
 10
-190.396636
 20
144.017088
 30
0.0
 11
-190.396636
 21
146.017088
 31
0.0
  0
ARC
  5
179
330
26
100
AcDbEntity
  8
1
100
AcDbCircle
 10
-192.396636
 20
146.017088
 30
0.0
 40
2.0
100
AcDbArc
 50
0.0
 51
90.0
  0
ARC
  5
17A
330
26
100
AcDbEntity
  8
1
100
AcDbCircle
 10
-192.396636
 20
144.017088
 30
0.0
 40
2.0
100
AcDbArc
 50
270.0
 51
360.0
  0
LINE
  5
17B
330
26
100
AcDbEntity
  8
1
100
AcDbLine
 10
-294.396636
 20
144.017088
 30
0.0
 11
-294.396636
 21
146.017088
 31
0.0
  0
ARC
  5
17C
330
26
100
AcDbEntity
  8
1
100
AcDbCircle
 10
-292.396636
 20
146.017088
 30
0.0
 40
2.0
100
AcDbArc
 50
90.0
 51
180.0
  0
ARC
  5
17D
330
26
100
AcDbEntity
  8
1
100
AcDbCircle
 10
-292.396636
 20
144.017088
 30
0.0
 40
2.0
100
AcDbArc
 50
180.0
 51
270.0
  0
CIRCLE
  5
17E
330
26
100
AcDbEntity
  8
1
100
AcDbCircle
 10
-242.396636
 20
-162.132912
 30
0.0
 40
34.5
  0
CIRCLE
  5
17F
330
26
100
AcDbEntity
  8
1
100
AcDbCircle
 10
-242.396636
 20
-162.132912
 30
0.0
 40
38.5
  0
CIRCLE
  5
180
330
26
100
AcDbEntity
  8
1
100
AcDbCircle
 10
-242.396636
 20
-162.132912
 30
0.0
 40
48.55
  0
CIRCLE
  5
181
330
26
100
AcDbEntity
  8
1
100
AcDbCircle
 10
-242.396636
 20
-162.132912
 30
0.0
 40
50.5
  0
LINE
  5
182
330
26
100
AcDbEntity
  8
1
100
AcDbLine
 10
-287.896636
 20
153.3015879999999
 30
0.0
 11
-286.235681
 21
153.3015879999999
 31
0.0
  0
LINE
  5
183
330
26
100
AcDbEntity
  8
1
100
AcDbLine
 10
-198.55759
 20
153.3015879999999
 30
0.0
 11
-196.896636
 21
153.3015879999999
 31
0.0
  0
LINE
  5
184
330
26
100
AcDbEntity
  8
1
100
AcDbLine
 10
-198.55759
 20
136.732588
 30
0.0
 11
-196.896636
 21
136.732588
 31
0.0
  0
LINE
  5
185
330
26
100
AcDbEntity
  8
1
100
AcDbLine
 10
-287.896636
 20
136.732588
 30
0.0
 11
-286.235681
 21
136.732588
 31
0.0
  0
LINE
  5
186
330
26
100
AcDbEntity
  8
1
100
AcDbLine
 10
-287.896636
 20
149.465063
 30
0.0
 11
-287.896636
 21
148.017088
 31
0.0
  0
LINE
  5
187
330
26
100
AcDbEntity
  8
1
100
AcDbLine
 10
-290.946636
 20
169.142088
 30
0.0
 11
-279.380758
 21
169.142088
 31
0.0
  0
LINE
  5
188
330
26
100
AcDbEntity
  8
1
  6
DASHED
100
AcDbLine
 10
-279.380758
 20
169.142088
 30
0.0
 11
-277.396636
 21
169.142088
 31
0.0
  0
LINE
  5
189
330
26
100
AcDbEntity
  8
1
  6
DASHED
100
AcDbLine
 10
-277.396636
 20
168.017088
 30
0.0
 11
-277.5257299999999
 21
168.017088
 31
0.0
  0
LINE
  5
18A
330
26
100
AcDbEntity
  8
1
100
AcDbLine
 10
-277.5257299999999
 20
168.017088
 30
0.0
 11
-298.896636
 21
168.017088
 31
0.0
  0
LINE
  5
18B
330
26
100
AcDbEntity
  8
1
100
AcDbLine
 10
-299.896636
 20
167.017088
 30
0.0
 11
-277.613219
 21
167.017088
 31
0.0
  0
LINE
  5
18C
330
26
100
AcDbEntity
  8
1
  6
DASHED
100
AcDbLine
 10
-277.613219
 20
167.017088
 30
0.0
 11
-277.396636
 21
167.017088
 31
0.0
  0
ARC
  5
18D
330
26
100
AcDbEntity
  8
1
  6
DASHED
100
AcDbCircle
 10
-276.711025
 20
150.517088
 30
0.0
 40
6.0
100
AcDbArc
 50
96.56143
 51
107.921635
  0
ARC
  5
18E
330
26
100
AcDbEntity
  8
1
100
AcDbCircle
 10
-276.711025
 20
150.517088
 30
0.0
 40
6.0
100
AcDbArc
 50
107.921635
 51
180.0
  0
LINE
  5
18F
330
26
100
AcDbEntity
  8
1
100
AcDbLine
 10
-279.42322
 20
155.869097
 30
0.0
 11
-278.60269
 21
155.70738
 31
0.0
  0
LINE
  5
190
330
26
100
AcDbEntity
  8
1
  6
DASHED
100
AcDbLine
 10
-278.60269
 20
155.70738
 30
0.0
 11
-277.396636
 21
155.469679
 31
0.0
  0
LINE
  5
191
330
26
100
AcDbEntity
  8
1
  6
DASHED
100
AcDbLine
 10
-277.396636
 20
142.017088
 30
0.0
 11
-279.274813
 21
142.017088
 31
0.0
  0
LINE
  5
192
330
26
100
AcDbEntity
  8
1
100
AcDbLine
 10
-279.274813
 20
142.017088
 30
0.0
 11
-292.396636
 21
142.017088
 31
0.0
  0
LINE
  5
193
330
26
100
AcDbEntity
  8
1
100
AcDbLine
 10
-279.42322
 20
134.165079
 30
0.0
 11
-277.862339
 21
134.472712
 31
0.0
  0
LINE
  5
194
330
26
100
AcDbEntity
  8
1
  6
DASHED
100
AcDbLine
 10
-277.862339
 20
134.472712
 30
0.0
 11
-277.396636
 21
134.564497
 31
0.0
  0
ARC
  5
195
330
26
100
AcDbEntity
  8
1
100
AcDbCircle
 10
-276.711025
 20
139.517088
 30
0.0
 40
6.0
100
AcDbArc
 50
180.0
 51
261.62482
  0
ARC
  5
196
330
26
100
AcDbEntity
  8
1
  6
DASHED
100
AcDbCircle
 10
-276.711025
 20
139.517088
 30
0.0
 40
6.0
100
AcDbArc
 50
261.62482
 51
263.43857
  0
LINE
  5
197
330
26
100
AcDbEntity
  8
1
100
AcDbLine
 10
-193.846636
 20
169.142088
 30
0.0
 11
-205.412513
 21
169.142088
 31
0.0
  0
LINE
  5
198
330
26
100
AcDbEntity
  8
1
  6
DASHED
100
AcDbLine
 10
-205.412513
 20
169.142088
 30
0.0
 11
-207.396636
 21
169.142088
 31
0.0
  0
LINE
  5
199
330
26
100
AcDbEntity
  8
1
  6
DASHED
100
AcDbLine
 10
-207.396636
 20
168.017088
 30
0.0
 11
-207.267541
 21
168.017088
 31
0.0
  0
LINE
  5
19A
330
26
100
AcDbEntity
  8
1
100
AcDbLine
 10
-207.267541
 20
168.017088
 30
0.0
 11
-185.896636
 21
168.017088
 31
0.0
  0
LINE
  5
19B
330
26
100
AcDbEntity
  8
1
100
AcDbLine
 10
-184.896636
 20
167.017088
 30
0.0
 11
-207.180052
 21
167.017088
 31
0.0
  0
LINE
  5
19C
330
26
100
AcDbEntity
  8
1
  6
DASHED
100
AcDbLine
 10
-207.180052
 20
167.017088
 30
0.0
 11
-207.396636
 21
167.017088
 31
0.0
  0
ARC
  5
19D
330
26
100
AcDbEntity
  8
1
100
AcDbCircle
 10
-208.082246
 20
150.517088
 30
0.0
 40
6.0
100
AcDbArc
 50
0.0
 51
52.101219
  0
ARC
  5
19E
330
26
100
AcDbEntity
  8
1
  6
DASHED
100
AcDbCircle
 10
-208.082246
 20
150.517088
 30
0.0
 40
6.0
100
AcDbArc
 50
52.101219
 51
83.43856999999999
  0
LINE
  5
19F
330
26
100
AcDbEntity
  8
1
  6
DASHED
100
AcDbLine
 10
-207.396636
 20
148.017088
 30
0.0
 11
-204.396636
 21
148.017088
 31
0.0
  0
LINE
  5
1A0
330
26
100
AcDbEntity
  8
1
100
AcDbLine
 10
-204.396636
 20
148.017088
 30
0.0
 11
-192.396636
 21
148.017088
 31
0.0
  0
LINE
  5
1A1
330
26
100
AcDbEntity
  8
1
  6
DASHED
100
AcDbLine
 10
-207.396636
 20
142.017088
 30
0.0
 11
-204.396636
 21
142.017088
 31
0.0
  0
LINE
  5
1A2
330
26
100
AcDbEntity
  8
1
100
AcDbLine
 10
-204.396636
 20
142.017088
 30
0.0
 11
-192.396636
 21
142.017088
 31
0.0
  0
ARC
  5
1A3
330
26
100
AcDbEntity
  8
1
  6
DASHED
100
AcDbCircle
 10
-208.082246
 20
139.517088
 30
0.0
 40
6.0
100
AcDbArc
 50
276.56143
 51
307.898781
  0
ARC
  5
1A4
330
26
100
AcDbEntity
  8
1
100
AcDbCircle
 10
-208.082246
 20
139.517088
 30
0.0
 40
6.0
100
AcDbArc
 50
307.898781
 51
360.0
  0
LINE
  5
1A5
330
26
100
AcDbEntity
  8
1
100
AcDbLine
 10
-184.896636
 20
123.017088
 30
0.0
 11
-204.396636
 21
123.017088
 31
0.0
  0
LINE
  5
1A6
330
26
100
AcDbEntity
  8
1
  6
DASHED
100
AcDbLine
 10
-204.396636
 20
123.017088
 30
0.0
 11
-207.396636
 21
123.017088
 31
0.0
  0
LINE
  5
1A7
330
26
100
AcDbEntity
  8
1
  6
DASHED
100
AcDbLine
 10
-207.396636
 20
122.017088
 30
0.0
 11
-204.396636
 21
122.017088
 31
0.0
  0
LINE
  5
1A8
330
26
100
AcDbEntity
  8
1
100
AcDbLine
 10
-204.396636
 20
122.017088
 30
0.0
 11
-185.896636
 21
122.017088
 31
0.0
  0
LINE
  5
1A9
330
26
100
AcDbEntity
  8
1
100
AcDbLine
 10
-193.846636
 20
120.892088
 30
0.0
 11
-204.404479
 21
120.892088
 31
0.0
  0
LINE
  5
1AA
330
26
100
AcDbEntity
  8
1
  6
DASHED
100
AcDbLine
 10
-204.404479
 20
120.892088
 30
0.0
 11
-207.396636
 21
120.892088
 31
0.0
  0
LINE
  5
1AB
330
26
100
AcDbEntity
  8
1
  6
DASHED
100
AcDbLine
 10
-277.396636
 20
148.017088
 30
0.0
 11
-279.274813
 21
148.017088
 31
0.0
  0
LINE
  5
1AC
330
26
100
AcDbEntity
  8
1
100
AcDbLine
 10
-279.274813
 20
148.017088
 30
0.0
 11
-292.396636
 21
148.017088
 31
0.0
  0
LINE
  5
1AD
330
26
100
AcDbEntity
  8
1
100
AcDbLine
 10
-239.093881
 20
-151.626449
 30
0.0
 11
-215.483666
 21
-153.692075
 31
0.0
  0
LINE
  5
1AE
330
26
100
AcDbEntity
  8
1
100
AcDbLine
 10
-234.212684
 20
-149.644331
 30
0.0
 11
-215.921965
 21
-151.244561
 31
0.0
  0
ARC
  5
1AF
330
26
100
AcDbEntity
  8
1
100
AcDbCircle
 10
-242.396636
 20
-162.132912
 30
0.0
 40
30.5
100
AcDbArc
 50
17.426809
 51
20.401612
  0
ARC
  5
1B0
330
26
100
AcDbEntity
  8
1
100
AcDbCircle
 10
-242.396636
 20
-162.132912
 30
0.0
 40
28.9
100
AcDbArc
 50
18.345794
 51
21.460147
  0
LINE
  5
1B1
330
26
100
AcDbEntity
  8
1
100
AcDbLine
 10
-244.744445
 20
-151.633999
 30
0.0
 11
-214.337832
 21
-154.294233
 31
0.0
  0
LINE
  5
1B2
330
26
100
AcDbEntity
  8
1
100
AcDbLine
 10
-229.593881
 20
-149.546514
 30
0.0
 11
-214.65995
 21
-150.853063
 31
0.0
  0
ARC
  5
1B3
330
26
100
AcDbEntity
  8
1
100
AcDbCircle
 10
-215.965543
 20
-151.742659
 30
0.0
 40
0.5
100
AcDbArc
 50
21.460147
 51
85.0
  0
ARC
  5
1B4
330
26
100
AcDbEntity
  8
1
100
AcDbCircle
 10
-215.440088
 20
-153.193978
 30
0.0
 40
0.5
100
AcDbArc
 50
265.0
 51
18.345794
  0
ARC
  5
1B5
330
26
100
AcDbEntity
  8
1
100
AcDbCircle
 10
-214.747106
 20
-151.849258
 30
0.0
 40
1.0
100
AcDbArc
 50
20.401612
 51
85.0
  0
ARC
  5
1B6
330
26
100
AcDbEntity
  8
1
100
AcDbCircle
 10
-214.250677
 20
-153.298038
 30
0.0
 40
1.0
100
AcDbArc
 50
265.0
 51
17.426809
  0
LINE
  5
1B7
330
26
100
AcDbEntity
  8
1
100
AcDbLine
 10
-214.629529
 20
-151.044048
 30
0.0
 11
-215.427045
 21
-151.227962
 31
0.0
  0
LINE
  5
1B8
330
26
100
AcDbEntity
  8
1
100
AcDbLine
 10
-214.884629
 20
-153.704388
 30
0.0
 11
-214.019561
 21
-154.0148669999999
 31
0.0
  0
ARC
  5
1B9
330
26
100
AcDbEntity
  8
1
100
AcDbCircle
 10
-237.896636
 20
-153.236924
 30
0.0
 40
1.0
100
AcDbArc
 50
85.0
 51
180.0
  0
ARC
  5
1BA
330
26
100
AcDbEntity
  8
1
100
AcDbCircle
 10
-239.396636
 20
-153.105691
 30
0.0
 40
1.0
100
AcDbArc
 50
85.0
 51
180.0
  0
LINE
  5
1BB
330
26
100
AcDbEntity
  8
1
100
AcDbLine
 10
-238.896636
 20
-159.432912
 30
0.0
 11
-238.896636
 21
-153.236924
 31
0.0
  0
LINE
  5
1BC
330
26
100
AcDbEntity
  8
1
100
AcDbLine
 10
-240.396636
 20
-159.432912
 30
0.0
 11
-240.396636
 21
-153.105691
 31
0.0
  0
LINE
  5
1BD
330
26
100
AcDbEntity
  8
1
100
AcDbLine
 10
-233.6589
 20
-141.860221
 30
0.0
 11
-233.6589
 21
-139.732912
 31
0.0
  0
ARC
  5
1BE
330
26
100
AcDbEntity
  8
1
100
AcDbCircle
 10
-233.515438
 20
-141.674773
 30
0.0
 40
8.0
100
AcDbArc
 50
180.0
 51
265.0
  0
ARC
  5
1BF
330
26
100
AcDbEntity
  8
1
100
AcDbCircle
 10
-225.6589
 20
-141.860221
 30
0.0
 40
8.0
100
AcDbArc
 50
180.0
 51
265.0
  0
ARC
  5
1C0
330
26
100
AcDbEntity
  8
1
100
AcDbCircle
 10
-228.896636
 20
-141.576956
 30
0.0
 40
8.0
100
AcDbArc
 50
180.0
 51
265.0
  0
LINE
  5
1C1
330
26
100
AcDbEntity
  8
1
100
AcDbLine
 10
-232.6589
 20
-137.732912
 30
0.0
 11
-232.643681
 21
-137.732912
 31
0.0
  0
LINE
  5
1C2
330
26
100
AcDbEntity
  8
1
100
AcDbLine
 10
-229.823968
 20
-137.732912
 30
0.0
 11
-242.396636
 21
-137.732912
 31
0.0
  0
LINE
  5
1C3
330
26
100
AcDbEntity
  8
1
100
AcDbLine
 10
-226.614475
 20
-136.434089
 30
0.0
 11
-226.614475
 21
-133.493543
 31
0.0
  0
ARC
  5
1C4
330
26
100
AcDbEntity
  8
1
100
AcDbCircle
 10
-242.396636
 20
-210.140728
 30
0.0
 40
74.10781599999999
100
AcDbArc
 50
77.704001
 51
90.0
  0
ARC
  5
1C5
330
26
100
AcDbEntity
  8
1
100
AcDbCircle
 10
-231.6589
 20
-139.732912
 30
0.0
 40
2.0
100
AcDbArc
 50
90.0
 51
180.0
  0
LINE
  5
1C6
330
26
100
AcDbEntity
  8
1
100
AcDbLine
 10
-245.896636
 20
-159.432912
 30
0.0
 11
-245.896636
 21
-152.201461
 31
0.0
  0
LINE
  5
1C7
330
26
100
AcDbEntity
  8
1
100
AcDbLine
 10
-244.396636
 20
-159.432912
 30
0.0
 11
-244.396636
 21
-152.562701
 31
0.0
  0
LINE
  5
1C8
330
26
100
AcDbEntity
  8
1
100
AcDbLine
 10
-252.134372
 20
-137.732912
 30
0.0
 11
-252.14959
 21
-137.732912
 31
0.0
  0
LINE
  5
1C9
330
26
100
AcDbEntity
  8
1
100
AcDbLine
 10
-254.969303
 20
-137.732912
 30
0.0
 11
-242.396636
 21
-137.732912
 31
0.0
  0
LINE
  5
1CA
330
26
100
AcDbEntity
  8
1
100
AcDbLine
 10
-258.178796
 20
-136.434089
 30
0.0
 11
-258.178796
 21
-133.493543
 31
0.0
  0
ARC
  5
1CB
330
26
100
AcDbEntity
  8
1
100
AcDbCircle
 10
-242.396636
 20
-210.140728
 30
0.0
 40
74.10781599999999
100
AcDbArc
 50
90.0
 51
102.295999
  0
LINE
  5
1CC
330
26
100
AcDbEntity
  8
1
100
AcDbLine
 10
-252.047199
 20
-139.732912
 30
0.0
 11
-252.047199
 21
-143.6644409999999
 31
0.0
  0
LINE
  5
1CD
330
26
100
AcDbEntity
  8
1
100
AcDbLine
 10
-246.396636
 20
-143.656891
 30
0.0
 11
-246.396636
 21
-139.732912
 31
0.0
  0
ARC
  5
1CE
330
26
100
AcDbEntity
  8
1
100
AcDbCircle
 10
-238.396636
 20
-143.656891
 30
0.0
 40
8.0
100
AcDbArc
 50
180.0
 51
265.0
  0
ARC
  5
1CF
330
26
100
AcDbEntity
  8
1
100
AcDbCircle
 10
-244.047199
 20
-143.6644409999999
 30
0.0
 40
8.0
100
AcDbArc
 50
180.0
 51
265.0
  0
ARC
  5
1D0
330
26
100
AcDbEntity
  8
1
100
AcDbCircle
 10
-254.047199
 20
-139.732912
 30
0.0
 40
2.0
100
AcDbArc
 50
0.0
 51
90.0
  0
ARC
  5
1D1
330
26
100
AcDbEntity
  8
1
100
AcDbCircle
 10
-248.396636
 20
-139.732912
 30
0.0
 40
2.0
100
AcDbArc
 50
0.0
 51
90.0
  0
ARC
  5
1D2
330
26
100
AcDbEntity
  8
1
100
AcDbCircle
 10
-245.396636
 20
-152.562701
 30
0.0
 40
1.0
100
AcDbArc
 50
0.0
 51
81.37670300000001
  0
ARC
  5
1D3
330
26
100
AcDbEntity
  8
1
100
AcDbCircle
 10
-246.896636
 20
-152.201461
 30
0.0
 40
1.0
100
AcDbArc
 50
0.0
 51
71.542325
  0
ARC
  5
1D4
330
26
100
AcDbEntity
  8
1
100
AcDbCircle
 10
-242.396636
 20
-162.132912
 30
0.0
 40
32.7
100
AcDbArc
 50
111.617562
 51
248.382438
  0
LINE
  5
1D5
330
26
100
AcDbEntity
  8
1
100
AcDbLine
 10
-254.443627
 20
-131.732912
 30
0.0
 11
-230.349644
 21
-131.732912
 31
0.0
  0
ARC
  5
1D6
330
26
100
AcDbEntity
  8
1
100
AcDbCircle
 10
-242.396636
 20
-162.132912
 30
0.0
 40
32.7
100
AcDbArc
 50
291.617562
 51
68.38243799999999
  0
LINE
  5
1D7
330
26
100
AcDbEntity
  8
1
100
AcDbLine
 10
-246.043086
 20
-163.332912
 30
0.0
 11
-214.005264
 21
-163.332912
 31
0.0
  0
LINE
  5
1D8
330
26
100
AcDbEntity
  8
1
100
AcDbLine
 10
-246.043086
 20
-160.932912
 30
0.0
 11
-214.005264
 21
-160.932912
 31
0.0
  0
LINE
  5
1D9
330
26
100
AcDbEntity
  8
1
100
AcDbLine
 10
-250.713006
 20
-160.432912
 30
0.0
 11
-212.904942
 21
-160.432912
 31
0.0
  0
LINE
  5
1DA
330
26
100
AcDbEntity
  8
1
100
AcDbLine
 10
-250.713006
 20
-163.832912
 30
0.0
 11
-212.904942
 21
-163.832912
 31
0.0
  0
ARC
  5
1DB
330
26
100
AcDbEntity
  8
1
100
AcDbCircle
 10
-214.005264
 20
-161.432912
 30
0.0
 40
0.5
100
AcDbArc
 50
1.412362999999999
 51
90.0
  0
ARC
  5
1DC
330
26
100
AcDbEntity
  8
1
100
AcDbCircle
 10
-214.005264
 20
-162.832912
 30
0.0
 40
0.5
100
AcDbArc
 50
270.0
 51
358.587637
  0
ARC
  5
1DD
330
26
100
AcDbEntity
  8
1
100
AcDbCircle
 10
-212.904942
 20
-161.432912
 30
0.0
 40
1.0
100
AcDbArc
 50
1.359688
 51
90.0
  0
ARC
  5
1DE
330
26
100
AcDbEntity
  8
1
100
AcDbCircle
 10
-212.904942
 20
-162.832912
 30
0.0
 40
1.0
100
AcDbArc
 50
270.0
 51
358.640312
  0
LINE
  5
1DF
330
26
100
AcDbEntity
  8
1
100
AcDbLine
 10
-213.52156
 20
-160.932912
 30
0.0
 11
-212.519089
 21
-160.615173
 31
0.0
  0
LINE
  5
1E0
330
26
100
AcDbEntity
  8
1
100
AcDbLine
 10
-213.52156
 20
-163.332912
 30
0.0
 11
-212.520905
 21
-163.650074
 31
0.0
  0
ARC
  5
1E1
330
26
100
AcDbEntity
  8
1
100
AcDbCircle
 10
-237.896636
 20
-159.432912
 30
0.0
 40
1.0
100
AcDbArc
 50
180.0
 51
270.0
  0
ARC
  5
1E2
330
26
100
AcDbEntity
  8
1
100
AcDbCircle
 10
-239.396636
 20
-159.432912
 30
0.0
 40
1.0
100
AcDbArc
 50
180.0
 51
270.0
  0
ARC
  5
1E3
330
26
100
AcDbEntity
  8
1
100
AcDbCircle
 10
-242.396636
 20
-162.132912
 30
0.0
 40
30.5
100
AcDbArc
 50
358.640312
 51
1.359688
  0
ARC
  5
1E4
330
26
100
AcDbEntity
  8
1
100
AcDbCircle
 10
-242.396636
 20
-162.132912
 30
0.0
 40
28.9
100
AcDbArc
 50
358.587637
 51
1.412362999999999
  0
LINE
  5
1E5
330
26
100
AcDbEntity
  8
1
100
AcDbLine
 10
-240.396636
 20
-164.832912
 30
0.0
 11
-240.396636
 21
-174.160132
 31
0.0
  0
LINE
  5
1E6
330
26
100
AcDbEntity
  8
1
100
AcDbLine
 10
-238.896636
 20
-164.832912
 30
0.0
 11
-238.896636
 21
-174.028899
 31
0.0
  0
ARC
  5
1E7
330
26
100
AcDbEntity
  8
1
100
AcDbCircle
 10
-237.896636
 20
-164.832912
 30
0.0
 40
1.0
100
AcDbArc
 50
90.0
 51
180.0
  0
ARC
  5
1E8
330
26
100
AcDbEntity
  8
1
100
AcDbCircle
 10
-239.396636
 20
-164.832912
 30
0.0
 40
1.0
100
AcDbArc
 50
90.0
 51
180.0
  0
ARC
  5
1E9
330
26
100
AcDbEntity
  8
1
100
AcDbCircle
 10
-246.896636
 20
-159.432912
 30
0.0
 40
1.0
100
AcDbArc
 50
270.0
 51
360.0
  0
ARC
  5
1EA
330
26
100
AcDbEntity
  8
1
100
AcDbCircle
 10
-245.396636
 20
-159.432912
 30
0.0
 40
1.0
100
AcDbArc
 50
270.0
 51
0.0
  0
LINE
  5
1EB
330
26
100
AcDbEntity
  8
1
100
AcDbLine
 10
-244.396636
 20
-164.832912
 30
0.0
 11
-244.396636
 21
-174.703123
 31
0.0
  0
LINE
  5
1EC
330
26
100
AcDbEntity
  8
1
100
AcDbLine
 10
-245.896636
 20
-164.832912
 30
0.0
 11
-245.896636
 21
-175.064362
 31
0.0
  0
ARC
  5
1ED
330
26
100
AcDbEntity
  8
1
100
AcDbCircle
 10
-246.896636
 20
-164.832912
 30
0.0
 40
1.0
100
AcDbArc
 50
0.0
 51
90.0
  0
ARC
  5
1EE
330
26
100
AcDbEntity
  8
1
100
AcDbCircle
 10
-245.396636
 20
-164.832912
 30
0.0
 40
1.0
100
AcDbArc
 50
0.0
 51
90.0
  0
LINE
  5
1EF
330
26
100
AcDbEntity
  8
1
100
AcDbLine
 10
-246.543086
 20
-162.832912
 30
0.0
 11
-246.543086
 21
-161.432912
 31
0.0
  0
LINE
  5
1F0
330
26
100
AcDbEntity
  8
1
100
AcDbLine
 10
-251.213006
 20
-160.932912
 30
0.0
 11
-251.213006
 21
-163.332912
 31
0.0
  0
ARC
  5
1F1
330
26
100
AcDbEntity
  8
1
100
AcDbCircle
 10
-246.043086
 20
-161.432912
 30
0.0
 40
0.5
100
AcDbArc
 50
90.0
 51
180.0
  0
ARC
  5
1F2
330
26
100
AcDbEntity
  8
1
100
AcDbCircle
 10
-246.043086
 20
-162.832912
 30
0.0
 40
0.5
100
AcDbArc
 50
180.0
 51
270.0
  0
ARC
  5
1F3
330
26
100
AcDbEntity
  8
1
100
AcDbCircle
 10
-250.713006
 20
-160.932912
 30
0.0
 40
0.5
100
AcDbArc
 50
90.0
 51
180.0
  0
ARC
  5
1F4
330
26
100
AcDbEntity
  8
1
100
AcDbCircle
 10
-250.713006
 20
-163.332912
 30
0.0
 40
0.5
100
AcDbArc
 50
180.0
 51
270.0
  0
LINE
  5
1F5
330
26
100
AcDbEntity
  8
1
100
AcDbLine
 10
-246.602605
 20
-160.926539
 30
0.0
 11
-250.562997
 21
-160.502507
 31
0.0
  0
LINE
  5
1F6
330
26
100
AcDbEntity
  8
1
100
AcDbLine
 10
-246.602605
 20
-163.339284
 30
0.0
 11
-250.562997
 21
-163.763316
 31
0.0
  0
POINT
  5
1F7
330
26
100
AcDbEntity
  8
1
100
AcDbPoint
 10
-242.396636
 20
-162.132912
 30
0.0
  0
LINE
  5
1F8
330
26
100
AcDbEntity
  8
1
100
AcDbLine
 10
-239.093881
 20
-175.639374
 30
0.0
 11
-216.722067
 21
-173.682094
 31
0.0
  0
LINE
  5
1F9
330
26
100
AcDbEntity
  8
1
100
AcDbLine
 10
-234.212684
 20
-177.621492
 30
0.0
 11
-217.376321
 21
-176.148502
 31
0.0
  0
ARC
  5
1FA
330
26
100
AcDbEntity
  8
1
100
AcDbCircle
 10
-242.396636
 20
-162.132912
 30
0.0
 40
30.5
100
AcDbArc
 50
332.976403
 51
336.130855
  0
ARC
  5
1FB
330
26
100
AcDbEntity
  8
1
100
AcDbCircle
 10
-242.396636
 20
-162.132912
 30
0.0
 40
28.9
100
AcDbArc
 50
331.577602
 51
334.899964
  0
LINE
  5
1FC
330
26
100
AcDbEntity
  8
1
100
AcDbLine
 10
-244.744445
 20
-175.631825
 30
0.0
 11
-215.506867
 21
-173.073868
 31
0.0
  0
LINE
  5
1FD
330
26
100
AcDbEntity
  8
1
100
AcDbLine
 10
-229.593881
 20
-177.71931
 30
0.0
 11
-216.030305
 21
-176.53265
 31
0.0
  0
ARC
  5
1FE
330
26
100
AcDbEntity
  8
1
100
AcDbCircle
 10
-215.419712
 20
-174.070063
 30
0.0
 40
1.0
100
AcDbArc
 50
336.130855
 51
95.0
  0
ARC
  5
1FF
330
26
100
AcDbEntity
  8
1
100
AcDbCircle
 10
-216.117461
 20
-175.536456
 30
0.0
 40
1.0
100
AcDbArc
 50
275.0
 51
332.976403
  0
ARC
  5
200
330
26
100
AcDbEntity
  8
1
100
AcDbCircle
 10
-216.678489
 20
-174.180192
 30
0.0
 40
0.5
100
AcDbArc
 50
334.899964
 51
95.0
  0
ARC
  5
201
330
26
100
AcDbEntity
  8
1
100
AcDbCircle
 10
-217.419898
 20
-175.650404
 30
0.0
 40
0.5
100
AcDbArc
 50
275.0
 51
331.577602
  0
LINE
  5
202
330
26
100
AcDbEntity
  8
1
100
AcDbLine
 10
-216.734942
 20
-176.208127
 30
0.0
 11
-216.05516
 21
-176.358565
 31
0.0
  0
LINE
  5
203
330
26
100
AcDbEntity
  8
1
100
AcDbLine
 10
-216.021814
 20
-173.658334
 30
0.0
 11
-215.06944
 21
-173.33605
 31
0.0
  0
ARC
  5
204
330
26
100
AcDbEntity
  8
1
100
AcDbCircle
 10
-237.896636
 20
-174.028899
 30
0.0
 40
1.0
100
AcDbArc
 50
180.0
 51
275.0
  0
ARC
  5
205
330
26
100
AcDbEntity
  8
1
100
AcDbCircle
 10
-239.396636
 20
-174.160132
 30
0.0
 40
1.0
100
AcDbArc
 50
180.0
 51
275.0
  0
LINE
  5
206
330
26
100
AcDbEntity
  8
1
100
AcDbLine
 10
-232.6589
 20
-186.532912
 30
0.0
 11
-232.643681
 21
-186.532912
 31
0.0
  0
LINE
  5
207
330
26
100
AcDbEntity
  8
1
100
AcDbLine
 10
-229.823968
 20
-186.532912
 30
0.0
 11
-242.396636
 21
-186.532912
 31
0.0
  0
LINE
  5
208
330
26
100
AcDbEntity
  8
1
100
AcDbLine
 10
-226.614475
 20
-187.831734
 30
0.0
 11
-226.614475
 21
-190.77228
 31
0.0
  0
ARC
  5
209
330
26
100
AcDbEntity
  8
1
100
AcDbCircle
 10
-242.396636
 20
-114.125095
 30
0.0
 40
74.10781599999999
100
AcDbArc
 50
270.0
 51
282.295999
  0
ARC
  5
20A
330
26
100
AcDbEntity
  8
1
100
AcDbCircle
 10
-231.6589
 20
-184.532912
 30
0.0
 40
2.0
100
AcDbArc
 50
180.0
 51
270.0
  0
ARC
  5
20B
330
26
100
AcDbEntity
  8
1
100
AcDbCircle
 10
-233.515438
 20
-185.59105
 30
0.0
 40
8.0
100
AcDbArc
 50
95.0
 51
180.0
  0
ARC
  5
20C
330
26
100
AcDbEntity
  8
1
100
AcDbCircle
 10
-228.896636
 20
-185.688867
 30
0.0
 40
8.0
100
AcDbArc
 50
95.0
 51
180.0
  0
ARC
  5
20D
330
26
100
AcDbEntity
  8
1
100
AcDbCircle
 10
-226.611274
 20
-184.532912
 30
0.0
 40
7.047625999999999
100
AcDbArc
 50
95.0
 51
180.0
  0
LINE
  5
20E
330
26
100
AcDbEntity
  8
1
100
AcDbLine
 10
-252.134372
 20
-186.532912
 30
0.0
 11
-252.14959
 21
-186.532912
 31
0.0
  0
LINE
  5
20F
330
26
100
AcDbEntity
  8
1
100
AcDbLine
 10
-254.969303
 20
-186.532912
 30
0.0
 11
-242.396636
 21
-186.532912
 31
0.0
  0
LINE
  5
210
330
26
100
AcDbEntity
  8
1
100
AcDbLine
 10
-258.178796
 20
-187.831734
 30
0.0
 11
-258.178796
 21
-190.77228
 31
0.0
  0
ARC
  5
211
330
26
100
AcDbEntity
  8
1
100
AcDbCircle
 10
-242.396636
 20
-114.125095
 30
0.0
 40
74.10781599999999
100
AcDbArc
 50
257.704001
 51
270.0
  0
LINE
  5
212
330
26
100
AcDbEntity
  8
1
100
AcDbLine
 10
-252.047199
 20
-184.532912
 30
0.0
 11
-252.047199
 21
-183.601382
 31
0.0
  0
LINE
  5
213
330
26
100
AcDbEntity
  8
1
100
AcDbLine
 10
-246.396636
 20
-183.608932
 30
0.0
 11
-246.396636
 21
-184.532912
 31
0.0
  0
ARC
  5
214
330
26
100
AcDbEntity
  8
1
100
AcDbCircle
 10
-254.047199
 20
-184.532912
 30
0.0
 40
2.0
100
AcDbArc
 50
270.0
 51
360.0
  0
ARC
  5
215
330
26
100
AcDbEntity
  8
1
100
AcDbCircle
 10
-248.396636
 20
-184.532912
 30
0.0
 40
2.0
100
AcDbArc
 50
270.0
 51
360.0
  0
ARC
  5
216
330
26
100
AcDbEntity
  8
1
100
AcDbCircle
 10
-238.396636
 20
-183.608932
 30
0.0
 40
8.0
100
AcDbArc
 50
95.0
 51
180.0
  0
ARC
  5
217
330
26
100
AcDbEntity
  8
1
100
AcDbCircle
 10
-244.047199
 20
-183.601382
 30
0.0
 40
8.0
100
AcDbArc
 50
95.0
 51
180.0
  0
ARC
  5
218
330
26
100
AcDbEntity
  8
1
100
AcDbCircle
 10
-246.896636
 20
-175.064362
 30
0.0
 40
1.0
100
AcDbArc
 50
288.457675
 51
360.0
  0
ARC
  5
219
330
26
100
AcDbEntity
  8
1
100
AcDbCircle
 10
-245.396636
 20
-174.703123
 30
0.0
 40
1.0
100
AcDbArc
 50
278.623297
 51
360.0
  0
LINE
  5
21A
330
26
100
AcDbEntity
  8
1
100
AcDbLine
 10
-254.443627
 20
-192.532912
 30
0.0
 11
-230.349644
 21
-192.532912
 31
0.0
  0
LINE
  5
21B
330
26
100
AcDbEntity
  8
2
100
AcDbLine
 10
-267.395444
 20
200.017088
 30
0.0
 11
-217.397827
 21
200.017088
 31
0.0
  0
LINE
  5
21C
330
26
100
AcDbEntity
  8
2
100
AcDbLine
 10
-267.396636
 20
109.017088
 30
0.0
 11
-217.396636
 21
109.017088
 31
0.0
  0
LINE
  5
21D
330
26
100
AcDbEntity
  8
2
100
AcDbLine
 10
-277.396636
 20
119.017088
 30
0.0
 11
-277.396636
 21
133.017088
 31
0.0
  0
LINE
  5
21E
330
26
100
AcDbEntity
  8
2
100
AcDbLine
 10
-207.396636
 20
119.017088
 30
0.0
 11
-207.396636
 21
133.017088
 31
0.0
  0
ARC
  5
21F
330
26
100
AcDbEntity
  8
2
100
AcDbCircle
 10
-217.396636
 20
119.017088
 30
0.0
 40
10.0
100
AcDbArc
 50
270.0
 51
360.0
  0
ARC
  5
220
330
26
100
AcDbEntity
  8
2
100
AcDbCircle
 10
-267.396636
 20
119.017088
 30
0.0
 40
10.0
100
AcDbArc
 50
180.0
 51
270.0
  0
LINE
  5
221
330
26
100
AcDbEntity
  8
2
100
AcDbLine
 10
-205.537432
 20
148.241851
 30
0.0
 11
-209.42827
 21
192.714334
 31
0.0
  0
LINE
  5
222
330
26
100
AcDbEntity
  8
2
100
AcDbLine
 10
-279.255839
 20
148.241851
 30
0.0
 11
-275.3650009999999
 21
192.714334
 31
0.0
  0
ARC
  5
223
330
26
100
AcDbEntity
  8
2
100
AcDbCircle
 10
-248.316229
 20
184.87427
 30
0.0
 40
1.857127
100
AcDbArc
 50
270.0
 51
360.0
  0
ARC
  5
224
330
26
100
AcDbEntity
  8
2
100
AcDbCircle
 10
-250.256927
 20
186.55497
 30
0.0
 40
1.857127
100
AcDbArc
 50
90.0
 51
180.0
  0
ARC
  5
225
330
26
100
AcDbEntity
  8
2
100
AcDbCircle
 10
-249.430505
 20
184.855699
 30
0.0
 40
0.9285639999999999
100
AcDbArc
 50
180.0
 51
270.0
  0
ARC
  5
226
330
26
100
AcDbEntity
  8
2
100
AcDbCircle
 10
-249.142651
 20
186.573541
 30
0.0
 40
0.9285639999999999
100
AcDbArc
 50
0.0
 51
90.0
  0
LINE
  5
227
330
26
100
AcDbEntity
  8
2
100
AcDbLine
 10
-243.924123
 20
187.502105
 30
0.0
 11
-244.119121
 21
183.017142
 31
0.0
  0
LINE
  5
228
330
26
100
AcDbEntity
  8
2
100
AcDbLine
 10
-240.869148
 20
187.502105
 30
0.0
 11
-240.67415
 21
183.017142
 31
0.0
  0
LINE
  5
229
330
26
100
AcDbEntity
  8
2
100
AcDbLine
 10
-243.924123
 20
187.502105
 30
0.0
 11
-243.088415
 21
183.017142
 31
0.0
  0
LINE
  5
22A
330
26
100
AcDbEntity
  8
2
100
AcDbLine
 10
-242.396636
 20
185.180696
 30
0.0
 11
-241.794511
 21
188.412098
 31
0.0
  0
LINE
  5
22B
330
26
100
AcDbEntity
  8
2
100
AcDbLine
 10
-245.48411
 20
188.412098
 30
0.0
 11
-242.99876
 21
188.412098
 31
0.0
  0
LINE
  5
22C
330
26
100
AcDbEntity
  8
2
100
AcDbLine
 10
-243.088415
 20
183.017142
 30
0.0
 11
-241.704856
 21
183.017142
 31
0.0
  0
ARC
  5
22D
330
26
100
AcDbEntity
  8
2
100
AcDbCircle
 10
-234.536344
 20
184.87427
 30
0.0
 40
1.857127
100
AcDbArc
 50
270.0
 51
360.0
  0
ARC
  5
22E
330
26
100
AcDbEntity
  8
2
100
AcDbCircle
 10
-235.362766
 20
184.855699
 30
0.0
 40
0.9285639999999999
100
AcDbArc
 50
270.0
 51
360.0
  0
LINE
  5
22F
330
26
100
AcDbEntity
  8
2
100
AcDbLine
 10
-236.579184
 20
186.573541
 30
0.0
 11
-236.579184
 21
184.855699
 31
0.0
  0
ARC
  5
230
330
26
100
AcDbEntity
  8
2
100
AcDbCircle
 10
-236.477042
 20
186.55497
 30
0.0
 40
1.857127
100
AcDbArc
 50
90.0
 51
180.0
  0
LINE
  5
231
330
26
100
AcDbEntity
  8
2
100
AcDbLine
 10
-238.334169
 20
186.55497
 30
0.0
 11
-238.334169
 21
184.87427
 31
0.0
  0
LINE
  5
232
330
26
100
AcDbEntity
  8
2
100
AcDbLine
 10
-240.67415
 20
183.017142
 30
0.0
 11
-238.919164
 21
183.017142
 31
0.0
  0
LINE
  5
233
330
26
100
AcDbEntity
  8
2
100
AcDbLine
 10
-231.899223
 20
183.147141
 30
0.0
 11
-227.674258
 21
183.147141
 31
0.0
  0
LINE
  5
234
330
26
100
AcDbEntity
  8
2
100
AcDbLine
 10
-230.144238
 20
185.227124
 30
0.0
 11
-227.674258
 21
185.227124
 31
0.0
  0
LINE
  5
235
330
26
100
AcDbEntity
  8
2
100
AcDbLine
 10
-230.144238
 20
186.202116
 30
0.0
 11
-227.674258
 21
186.202116
 31
0.0
  0
LINE
  5
236
330
26
100
AcDbEntity
  8
2
100
AcDbLine
 10
-230.144238
 20
184.122133
 30
0.0
 11
-230.144238
 21
185.227124
 31
0.0
  0
LINE
  5
237
330
26
100
AcDbEntity
  8
2
100
AcDbLine
 10
-230.144238
 20
186.202116
 30
0.0
 11
-230.144238
 21
187.307107
 31
0.0
  0
LINE
  5
238
330
26
100
AcDbEntity
  8
2
100
AcDbLine
 10
-255.03903
 20
187.307107
 30
0.0
 11
-253.284045
 21
187.307107
 31
0.0
  0
LINE
  5
239
330
26
100
AcDbEntity
  8
2
100
AcDbLine
 10
-257.314011
 20
186.202116
 30
0.0
 11
-250.489068
 21
189.517088
 31
0.0
  0
LINE
  5
23A
330
26
100
AcDbEntity
  8
2
100
AcDbLine
 10
-257.314011
 20
186.202116
 30
0.0
 11
-257.314011
 21
189.517088
 31
0.0
  0
LINE
  5
23B
330
26
100
AcDbEntity
  8
2
100
AcDbLine
 10
-253.284045
 20
187.307107
 30
0.0
 11
-253.284045
 21
183.017142
 31
0.0
  0
LINE
  5
23C
330
26
100
AcDbEntity
  8
2
100
AcDbLine
 10
-252.114055
 20
186.55497
 30
0.0
 11
-252.114055
 21
184.87427
 31
0.0
  0
LINE
  5
23D
330
26
100
AcDbEntity
  8
2
100
AcDbLine
 10
-246.459102
 20
186.55497
 30
0.0
 11
-246.459102
 21
184.87427
 31
0.0
  0
LINE
  5
23E
330
26
100
AcDbEntity
  8
2
100
AcDbLine
 10
-250.359069
 20
186.573541
 30
0.0
 11
-250.359069
 21
184.855699
 31
0.0
  0
LINE
  5
23F
330
26
100
AcDbEntity
  8
2
100
AcDbLine
 10
-248.214087
 20
186.573541
 30
0.0
 11
-248.214087
 21
184.855699
 31
0.0
  0
ARC
  5
240
330
26
100
AcDbEntity
  8
2
100
AcDbCircle
 10
-250.256927
 20
184.87427
 30
0.0
 40
1.857127
100
AcDbArc
 50
180.0
 51
270.0
  0
ARC
  5
241
330
26
100
AcDbEntity
  8
2
100
AcDbCircle
 10
-248.316229
 20
186.55497
 30
0.0
 40
1.857127
100
AcDbArc
 50
360.0
 51
90.0
  0
ARC
  5
242
330
26
100
AcDbEntity
  8
2
100
AcDbCircle
 10
-249.142651
 20
184.855699
 30
0.0
 40
0.9285639999999999
100
AcDbArc
 50
270.0
 51
360.0
  0
ARC
  5
243
330
26
100
AcDbEntity
  8
2
100
AcDbCircle
 10
-249.430505
 20
186.573541
 30
0.0
 40
0.9285639999999999
100
AcDbArc
 50
90.0
 51
180.0
  0
LINE
  5
244
330
26
100
AcDbEntity
  8
2
100
AcDbLine
 10
-255.03903
 20
183.017142
 30
0.0
 11
-253.284045
 21
183.017142
 31
0.0
  0
LINE
  5
245
330
26
100
AcDbEntity
  8
2
100
AcDbLine
 10
-245.48411
 20
188.412098
 30
0.0
 11
-245.874107
 21
183.017142
 31
0.0
  0
LINE
  5
246
330
26
100
AcDbEntity
  8
2
100
AcDbLine
 10
-239.309161
 20
188.412098
 30
0.0
 11
-238.919164
 21
183.017142
 31
0.0
  0
LINE
  5
247
330
26
100
AcDbEntity
  8
2
100
AcDbLine
 10
-240.869148
 20
187.502105
 30
0.0
 11
-241.704856
 21
183.017142
 31
0.0
  0
LINE
  5
248
330
26
100
AcDbEntity
  8
2
100
AcDbLine
 10
-242.396636
 20
185.180696
 30
0.0
 11
-242.99876
 21
188.412098
 31
0.0
  0
LINE
  5
249
330
26
100
AcDbEntity
  8
2
100
AcDbLine
 10
-250.256927
 20
188.412098
 30
0.0
 11
-248.316229
 21
188.412098
 31
0.0
  0
LINE
  5
24A
330
26
100
AcDbEntity
  8
2
100
AcDbLine
 10
-250.256927
 20
183.017142
 30
0.0
 11
-248.316229
 21
183.017142
 31
0.0
  0
LINE
  5
24B
330
26
100
AcDbEntity
  8
2
100
AcDbLine
 10
-245.874107
 20
183.017142
 30
0.0
 11
-244.119121
 21
183.017142
 31
0.0
  0
ARC
  5
24C
330
26
100
AcDbEntity
  8
2
100
AcDbCircle
 10
-236.477042
 20
184.87427
 30
0.0
 40
1.857127
100
AcDbArc
 50
180.0
 51
270.0
  0
LINE
  5
24D
330
26
100
AcDbEntity
  8
2
100
AcDbLine
 10
-234.434202
 20
186.573541
 30
0.0
 11
-234.434202
 21
184.855699
 31
0.0
  0
ARC
  5
24E
330
26
100
AcDbEntity
  8
2
100
AcDbCircle
 10
-235.65062
 20
184.855699
 30
0.0
 40
0.9285639999999999
100
AcDbArc
 50
180.0
 51
270.0
  0
ARC
  5
24F
330
26
100
AcDbEntity
  8
2
100
AcDbCircle
 10
-235.362766
 20
186.573541
 30
0.0
 40
0.9285639999999999
100
AcDbArc
 50
0.0
 51
90.0
  0
ARC
  5
250
330
26
100
AcDbEntity
  8
2
100
AcDbCircle
 10
-235.65062
 20
186.573541
 30
0.0
 40
0.9285639999999999
100
AcDbArc
 50
90.0
 51
180.0
  0
ARC
  5
251
330
26
100
AcDbEntity
  8
2
100
AcDbCircle
 10
-234.536344
 20
186.55497
 30
0.0
 40
1.857127
100
AcDbArc
 50
360.0
 51
90.0
  0
LINE
  5
252
330
26
100
AcDbEntity
  8
2
100
AcDbLine
 10
-232.679216
 20
186.55497
 30
0.0
 11
-232.679216
 21
184.87427
 31
0.0
  0
LINE
  5
253
330
26
100
AcDbEntity
  8
2
100
AcDbLine
 10
-249.142651
 20
187.502105
 30
0.0
 11
-249.430505
 21
187.502105
 31
0.0
  0
LINE
  5
254
330
26
100
AcDbEntity
  8
2
100
AcDbLine
 10
-249.142651
 20
183.927135
 30
0.0
 11
-249.430505
 21
183.927135
 31
0.0
  0
LINE
  5
255
330
26
100
AcDbEntity
  8
2
100
AcDbLine
 10
-235.65062
 20
187.502105
 30
0.0
 11
-235.362766
 21
187.502105
 31
0.0
  0
LINE
  5
256
330
26
100
AcDbEntity
  8
2
100
AcDbLine
 10
-241.794511
 20
188.412098
 30
0.0
 11
-239.309161
 21
188.412098
 31
0.0
  0
LINE
  5
257
330
26
100
AcDbEntity
  8
2
100
AcDbLine
 10
-236.477042
 20
188.412098
 30
0.0
 11
-234.536344
 21
188.412098
 31
0.0
  0
LINE
  5
258
330
26
100
AcDbEntity
  8
2
100
AcDbLine
 10
-236.477042
 20
183.017142
 30
0.0
 11
-234.536344
 21
183.017142
 31
0.0
  0
LINE
  5
259
330
26
100
AcDbEntity
  8
2
100
AcDbLine
 10
-231.899223
 20
188.282099
 30
0.0
 11
-231.899223
 21
183.147141
 31
0.0
  0
LINE
  5
25A
330
26
100
AcDbEntity
  8
2
100
AcDbLine
 10
-231.899223
 20
188.282099
 30
0.0
 11
-227.674258
 21
188.282099
 31
0.0
  0
LINE
  5
25B
330
26
100
AcDbEntity
  8
2
100
AcDbLine
 10
-230.144238
 20
184.122133
 30
0.0
 11
-227.674258
 21
184.122133
 31
0.0
  0
LINE
  5
25C
330
26
100
AcDbEntity
  8
2
100
AcDbLine
 10
-230.144238
 20
187.307107
 30
0.0
 11
-227.674258
 21
187.307107
 31
0.0
  0
LINE
  5
25D
330
26
100
AcDbEntity
  8
2
100
AcDbLine
 10
-227.674258
 20
187.307107
 30
0.0
 11
-227.674258
 21
188.282099
 31
0.0
  0
LINE
  5
25E
330
26
100
AcDbEntity
  8
2
100
AcDbLine
 10
-227.674258
 20
183.147141
 30
0.0
 11
-227.674258
 21
184.122133
 31
0.0
  0
LINE
  5
25F
330
26
100
AcDbEntity
  8
2
100
AcDbLine
 10
-227.674258
 20
185.227124
 30
0.0
 11
-227.674258
 21
186.202116
 31
0.0
  0
LINE
  5
260
330
26
100
AcDbEntity
  8
2
100
AcDbLine
 10
-255.03903
 20
187.307107
 30
0.0
 11
-255.03903
 21
183.017142
 31
0.0
  0
LINE
  5
261
330
26
100
AcDbEntity
  8
2
100
AcDbLine
 10
-257.314011
 20
189.517088
 30
0.0
 11
-250.489068
 21
189.517088
 31
0.0
  0
LINE
  5
262
330
26
100
AcDbEntity
  8
2
100
AcDbLine
 10
-235.65062
 20
183.927135
 30
0.0
 11
-235.362766
 21
183.927135
 31
0.0
  0
ARC
  5
263
330
26
100
AcDbEntity
  8
2
100
AcDbCircle
 10
-267.395444
 20
192.017088
 30
0.0
 40
8.0
100
AcDbArc
 50
90.0
 51
175.0
  0
ARC
  5
264
330
26
100
AcDbEntity
  8
2
100
AcDbCircle
 10
-217.397827
 20
192.017088
 30
0.0
 40
8.0
100
AcDbArc
 50
5.0
 51
90.0
  0
ARC
  5
265
330
26
100
AcDbEntity
  8
2
100
AcDbCircle
 10
-242.396636
 20
145.017088
 30
0.0
 40
37.0
100
AcDbArc
 50
325.150095
 51
5.0
  0
ARC
  5
266
330
26
100
AcDbEntity
  8
2
100
AcDbCircle
 10
-242.396636
 20
145.017088
 30
0.0
 40
37.0
100
AcDbArc
 50
175.0
 51
214.849905
  0
LINE
  5
267
330
26
100
AcDbEntity
  8
2
100
AcDbLine
 10
-220.396636
 20
117.017088
 30
0.0
 11
-220.396636
 21
111.017088
 31
0.0
  0
LINE
  5
268
330
26
100
AcDbEntity
  8
2
100
AcDbLine
 10
-264.396636
 20
117.017088
 30
0.0
 11
-264.396636
 21
111.017088
 31
0.0
  0
ARC
  5
269
330
26
100
AcDbEntity
  8
2
100
AcDbCircle
 10
-214.396636
 20
117.017088
 30
0.0
 40
6.0
100
AcDbArc
 50
90.0
 51
180.0
  0
ARC
  5
26A
330
26
100
AcDbEntity
  8
2
100
AcDbCircle
 10
-270.396636
 20
117.017088
 30
0.0
 40
6.0
100
AcDbArc
 50
0.0
 51
90.0
  0
ARC
  5
26B
330
26
100
AcDbEntity
  8
2
100
AcDbCircle
 10
-262.396636
 20
111.017088
 30
0.0
 40
2.0
100
AcDbArc
 50
180.0
 51
270.0
  0
ARC
  5
26C
330
26
100
AcDbEntity
  8
2
100
AcDbCircle
 10
-222.396636
 20
111.017088
 30
0.0
 40
2.0
100
AcDbArc
 50
270.0
 51
360.0
  0
LINE
  5
26D
330
26
100
AcDbEntity
  8
2
100
AcDbLine
 10
-214.396636
 20
123.017088
 30
0.0
 11
-213.673822
 21
123.017088
 31
0.0
  0
LINE
  5
26E
330
26
100
AcDbEntity
  8
2
100
AcDbLine
 10
-270.396636
 20
123.017088
 30
0.0
 11
-271.119449
 21
123.017088
 31
0.0
  0
ARC
  5
26F
330
26
100
AcDbEntity
  8
2
100
AcDbCircle
 10
-213.673822
 20
125.017088
 30
0.0
 40
2.0
100
AcDbArc
 50
270.0
 51
325.150095
  0
ARC
  5
270
330
26
100
AcDbEntity
  8
2
100
AcDbCircle
 10
-271.119449
 20
125.017088
 30
0.0
 40
2.0
100
AcDbArc
 50
214.849905
 51
270.0
  0
LINE
  5
271
330
26
100
AcDbEntity
  8
2
100
AcDbLine
 10
-272.896636
 20
175.017088
 30
0.0
 11
-274.730693
 21
175.017088
 31
0.0
  0
LINE
  5
272
330
26
100
AcDbEntity
  8
2
100
AcDbLine
 10
-272.896636
 20
163.017088
 30
0.0
 11
-276.130511
 21
163.017088
 31
0.0
  0
LINE
  5
273
330
26
100
AcDbEntity
  8
2
100
AcDbLine
 10
-211.896636
 20
163.017088
 30
0.0
 11
-208.66276
 21
163.017088
 31
0.0
  0
LINE
  5
274
330
26
100
AcDbEntity
  8
2
100
AcDbLine
 10
-211.896636
 20
175.017088
 30
0.0
 11
-210.062578
 21
175.017088
 31
0.0
  0
ARC
  5
275
330
26
100
AcDbEntity
  8
2
100
AcDbCircle
 10
-211.896636
 20
169.017088
 30
0.0
 40
6.0
100
AcDbArc
 50
90.0
 51
270.0
  0
ARC
  5
276
330
26
100
AcDbEntity
  8
2
100
AcDbCircle
 10
-272.896636
 20
169.017088
 30
0.0
 40
6.0
100
AcDbArc
 50
270.0
 51
90.0
  0
ARC
  5
277
330
26
100
AcDbEntity
  8
2
100
AcDbCircle
 10
-208.66276
 20
161.017088
 30
0.0
 40
2.0
100
AcDbArc
 50
5.0
 51
90.0
  0
ARC
  5
278
330
26
100
AcDbEntity
  8
2
100
AcDbCircle
 10
-210.062578
 20
177.017088
 30
0.0
 40
2.0
100
AcDbArc
 50
270.0
 51
5.0
  0
ARC
  5
279
330
26
100
AcDbEntity
  8
2
100
AcDbCircle
 10
-274.730693
 20
177.017088
 30
0.0
 40
2.0
100
AcDbArc
 50
175.0
 51
270.0
  0
ARC
  5
27A
330
26
100
AcDbEntity
  8
2
100
AcDbCircle
 10
-276.130511
 20
161.017088
 30
0.0
 40
2.0
100
AcDbArc
 50
90.0
 51
175.0
  0
LINE
  5
27B
330
26
100
AcDbEntity
  8
2
100
AcDbLine
 10
-263.896636
 20
193.517088
 30
0.0
 11
-263.896636
 21
198.017088
 31
0.0
  0
LINE
  5
27C
330
26
100
AcDbEntity
  8
2
100
AcDbLine
 10
-220.896636
 20
193.517088
 30
0.0
 11
-220.896636
 21
198.017088
 31
0.0
  0
LINE
  5
27D
330
26
100
AcDbEntity
  8
2
100
AcDbLine
 10
-214.896636
 20
187.517088
 30
0.0
 11
-210.806232
 21
187.517088
 31
0.0
  0
LINE
  5
27E
330
26
100
AcDbEntity
  8
2
100
AcDbLine
 10
-269.896636
 20
187.517088
 30
0.0
 11
-273.987039
 21
187.517088
 31
0.0
  0
ARC
  5
27F
330
26
100
AcDbEntity
  8
2
100
AcDbCircle
 10
-214.896636
 20
193.517088
 30
0.0
 40
6.0
100
AcDbArc
 50
180.0
 51
270.0
  0
ARC
  5
280
330
26
100
AcDbEntity
  8
2
100
AcDbCircle
 10
-269.896636
 20
193.517088
 30
0.0
 40
6.0
100
AcDbArc
 50
270.0
 51
360.0
  0
ARC
  5
281
330
26
100
AcDbEntity
  8
2
100
AcDbCircle
 10
-222.896636
 20
198.017088
 30
0.0
 40
2.0
100
AcDbArc
 50
0.0
 51
90.0
  0
ARC
  5
282
330
26
100
AcDbEntity
  8
2
100
AcDbCircle
 10
-261.896636
 20
198.017088
 30
0.0
 40
2.0
100
AcDbArc
 50
90.0
 51
180.0
  0
ARC
  5
283
330
26
100
AcDbEntity
  8
2
100
AcDbCircle
 10
-273.987039
 20
185.517088
 30
0.0
 40
2.0
100
AcDbArc
 50
90.0
 51
175.0
  0
ARC
  5
284
330
26
100
AcDbEntity
  8
2
100
AcDbCircle
 10
-210.806232
 20
185.517088
 30
0.0
 40
2.0
100
AcDbArc
 50
5.0
 51
90.0
  0
LINE
  5
285
330
26
100
AcDbEntity
  8
2
100
AcDbLine
 10
-245.396636
 20
167.666592
 30
0.0
 11
-245.396636
 21
173.517088
 31
0.0
  0
LINE
  5
286
330
26
100
AcDbEntity
  8
2
100
AcDbLine
 10
-239.396636
 20
167.666592
 30
0.0
 11
-239.396636
 21
173.517088
 31
0.0
  0
LINE
  5
287
330
26
100
AcDbEntity
  8
2
100
AcDbLine
 10
-271.896636
 20
143.017088
 30
0.0
 11
-271.896636
 21
147.017088
 31
0.0
  0
LINE
  5
288
330
26
100
AcDbEntity
  8
2
100
AcDbLine
 10
-212.896636
 20
143.017088
 30
0.0
 11
-212.896636
 21
147.017088
 31
0.0
  0
LINE
  5
289
330
26
100
AcDbEntity
  8
2
100
AcDbLine
 10
-244.396636
 20
174.517088
 30
0.0
 11
-240.396636
 21
174.517088
 31
0.0
  0
LINE
  5
28A
330
26
100
AcDbEntity
  8
2
100
AcDbLine
 10
-270.896636
 20
148.017088
 30
0.0
 11
-265.046139
 21
148.017088
 31
0.0
  0
LINE
  5
28B
330
26
100
AcDbEntity
  8
2
100
AcDbLine
 10
-219.747132
 20
148.017088
 30
0.0
 11
-213.896636
 21
148.017088
 31
0.0
  0
LINE
  5
28C
330
26
100
AcDbEntity
  8
2
100
AcDbLine
 10
-270.896636
 20
142.017088
 30
0.0
 11
-265.046139
 21
142.017088
 31
0.0
  0
LINE
  5
28D
330
26
100
AcDbEntity
  8
2
100
AcDbLine
 10
-219.747132
 20
142.017088
 30
0.0
 11
-213.896636
 21
142.017088
 31
0.0
  0
ARC
  5
28E
330
26
100
AcDbEntity
  8
2
100
AcDbCircle
 10
-213.896636
 20
147.017088
 30
0.0
 40
1.0
100
AcDbArc
 50
0.0
 51
90.0
  0
ARC
  5
28F
330
26
100
AcDbEntity
  8
2
100
AcDbCircle
 10
-213.896636
 20
143.017088
 30
0.0
 40
1.0
100
AcDbArc
 50
270.0
 51
360.0
  0
ARC
  5
290
330
26
100
AcDbEntity
  8
2
100
AcDbCircle
 10
-270.896636
 20
143.017088
 30
0.0
 40
1.0
100
AcDbArc
 50
180.0
 51
270.0
  0
ARC
  5
291
330
26
100
AcDbEntity
  8
2
100
AcDbCircle
 10
-270.896636
 20
147.017088
 30
0.0
 40
1.0
100
AcDbArc
 50
90.0
 51
180.0
  0
ARC
  5
292
330
26
100
AcDbEntity
  8
2
100
AcDbCircle
 10
-240.396636
 20
173.517088
 30
0.0
 40
1.0
100
AcDbArc
 50
0.0
 51
90.0
  0
ARC
  5
293
330
26
100
AcDbEntity
  8
2
100
AcDbCircle
 10
-244.396636
 20
173.517088
 30
0.0
 40
1.0
100
AcDbArc
 50
90.0
 51
180.0
  0
ARC
  5
294
330
26
100
AcDbEntity
  8
2
100
AcDbCircle
 10
-219.747132
 20
149.017088
 30
0.0
 40
1.0
100
AcDbArc
 50
190.01541
 51
270.0
  0
ARC
  5
295
330
26
100
AcDbEntity
  8
2
100
AcDbCircle
 10
-219.747132
 20
141.017088
 30
0.0
 40
1.0
100
AcDbArc
 50
90.0
 51
169.98459
  0
ARC
  5
296
330
26
100
AcDbEntity
  8
2
100
AcDbCircle
 10
-265.046139
 20
141.017088
 30
0.0
 40
1.0
100
AcDbArc
 50
10.01541
 51
90.0
  0
ARC
  5
297
330
26
100
AcDbEntity
  8
2
100
AcDbCircle
 10
-265.046139
 20
149.017088
 30
0.0
 40
1.0
100
AcDbArc
 50
270.0
 51
349.98459
  0
ARC
  5
298
330
26
100
AcDbEntity
  8
2
100
AcDbCircle
 10
-246.396636
 20
167.666592
 30
0.0
 40
1.0
100
AcDbArc
 50
280.01541
 51
360.0
  0
ARC
  5
299
330
26
100
AcDbEntity
  8
2
100
AcDbCircle
 10
-238.396636
 20
167.666592
 30
0.0
 40
1.0
100
AcDbArc
 50
180.0
 51
259.98459
  0
LINE
  5
29A
330
26
100
AcDbEntity
  8
2
100
AcDbLine
 10
-222.038275
 20
154.53219
 30
0.0
 11
-217.376832
 21
156.463023
 31
0.0
  0
LINE
  5
29B
330
26
100
AcDbEntity
  8
2
100
AcDbLine
 10
-221.272908
 20
152.684431
 30
0.0
 11
-216.611465
 21
154.615264
 31
0.0
  0
ARC
  5
29C
330
26
100
AcDbEntity
  8
2
100
AcDbCircle
 10
-242.396636
 20
145.017088
 30
0.0
 40
28.0
100
AcDbArc
 50
21.458201
 51
23.541799
  0
ARC
  5
29D
330
26
100
AcDbEntity
  8
2
100
AcDbCircle
 10
-217.18549
 20
156.001083
 30
0.0
 40
0.5
100
AcDbArc
 50
23.541799
 51
112.5
  0
ARC
  5
29E
330
26
100
AcDbEntity
  8
2
100
AcDbCircle
 10
-216.802806
 20
155.077203
 30
0.0
 40
0.5
100
AcDbArc
 50
292.5
 51
21.458201
  0
ARC
  5
29F
330
26
100
AcDbEntity
  8
2
100
AcDbCircle
 10
-221.081566
 20
152.222491
 30
0.0
 40
0.5
100
AcDbArc
 50
112.5
 51
198.677446
  0
ARC
  5
2A0
330
26
100
AcDbEntity
  8
2
100
AcDbCircle
 10
-222.229617
 20
154.994129
 30
0.0
 40
0.5
100
AcDbArc
 50
206.322554
 51
292.5
  0
LINE
  5
2A1
330
26
100
AcDbEntity
  8
2
100
AcDbLine
 10
-227.229234
 20
161.598703
 30
0.0
 11
-223.66152
 21
165.166417
 31
0.0
  0
LINE
  5
2A2
330
26
100
AcDbEntity
  8
2
100
AcDbLine
 10
-225.815021
 20
160.184489
 30
0.0
 11
-222.247307
 21
163.752204
 31
0.0
  0
ARC
  5
2A3
330
26
100
AcDbEntity
  8
2
100
AcDbCircle
 10
-242.396636
 20
145.017088
 30
0.0
 40
28.0
100
AcDbArc
 50
43.958201
 51
46.041799
  0
ARC
  5
2A4
330
26
100
AcDbEntity
  8
2
100
AcDbCircle
 10
-223.307967
 20
164.812864
 30
0.0
 40
0.5
100
AcDbArc
 50
46.041799
 51
135.0
  0
ARC
  5
2A5
330
26
100
AcDbEntity
  8
2
100
AcDbCircle
 10
-222.60086
 20
164.105757
 30
0.0
 40
0.5
100
AcDbArc
 50
315.0
 51
43.958201
  0
ARC
  5
2A6
330
26
100
AcDbEntity
  8
2
100
AcDbCircle
 10
-225.461467
 20
159.830936
 30
0.0
 40
0.5
100
AcDbArc
 50
135.0
 51
221.177446
  0
ARC
  5
2A7
330
26
100
AcDbEntity
  8
2
100
AcDbCircle
 10
-227.582788
 20
161.952256
 30
0.0
 40
0.5
100
AcDbArc
 50
228.822554
 51
315.0
  0
LINE
  5
2A8
330
26
100
AcDbEntity
  8
2
100
AcDbLine
 10
-234.729293
 20
166.140816
 30
0.0
 11
-232.79846
 21
170.802259
 31
0.0
  0
LINE
  5
2A9
330
26
100
AcDbEntity
  8
2
100
AcDbLine
 10
-232.881534
 20
165.375449
 30
0.0
 11
-230.950701
 21
170.036892
 31
0.0
  0
ARC
  5
2AA
330
26
100
AcDbEntity
  8
2
100
AcDbCircle
 10
-242.396636
 20
145.017088
 30
0.0
 40
28.0
100
AcDbArc
 50
66.458201
 51
68.541799
  0
ARC
  5
2AB
330
26
100
AcDbEntity
  8
2
100
AcDbCircle
 10
-232.336521
 20
170.610917
 30
0.0
 40
0.5
100
AcDbArc
 50
68.541799
 51
157.5
  0
ARC
  5
2AC
330
26
100
AcDbEntity
  8
2
100
AcDbCircle
 10
-231.412641
 20
170.228234
 30
0.0
 40
0.5
100
AcDbArc
 50
337.5
 51
66.458201
  0
ARC
  5
2AD
330
26
100
AcDbEntity
  8
2
100
AcDbCircle
 10
-232.419594
 20
165.184107
 30
0.0
 40
0.5
100
AcDbArc
 50
157.5
 51
243.677446
  0
ARC
  5
2AE
330
26
100
AcDbEntity
  8
2
100
AcDbCircle
 10
-235.191233
 20
166.332158
 30
0.0
 40
0.5
100
AcDbArc
 50
251.322554
 51
337.5
  0
LINE
  5
2AF
330
26
100
AcDbEntity
  8
2
100
AcDbLine
 10
-262.754996
 20
154.53219
 30
0.0
 11
-267.416439
 21
156.463023
 31
0.0
  0
LINE
  5
2B0
330
26
100
AcDbEntity
  8
2
100
AcDbLine
 10
-263.520363
 20
152.684431
 30
0.0
 11
-268.181806
 21
154.615264
 31
0.0
  0
ARC
  5
2B1
330
26
100
AcDbEntity
  8
2
100
AcDbCircle
 10
-242.396636
 20
145.017088
 30
0.0
 40
28.0
100
AcDbArc
 50
156.458201
 51
158.541799
  0
ARC
  5
2B2
330
26
100
AcDbEntity
  8
2
100
AcDbCircle
 10
-267.607781
 20
156.001083
 30
0.0
 40
0.5
100
AcDbArc
 50
67.5
 51
156.458201
  0
ARC
  5
2B3
330
26
100
AcDbEntity
  8
2
100
AcDbCircle
 10
-267.990465
 20
155.077203
 30
0.0
 40
0.5
100
AcDbArc
 50
158.541799
 51
247.5
  0
ARC
  5
2B4
330
26
100
AcDbEntity
  8
2
100
AcDbCircle
 10
-263.711705
 20
152.222491
 30
0.0
 40
0.5
100
AcDbArc
 50
341.322554
 51
67.5
  0
ARC
  5
2B5
330
26
100
AcDbEntity
  8
2
100
AcDbCircle
 10
-262.563654
 20
154.994129
 30
0.0
 40
0.5
100
AcDbArc
 50
247.5
 51
333.677446
  0
LINE
  5
2B6
330
26
100
AcDbEntity
  8
2
100
AcDbLine
 10
-257.564037
 20
161.598703
 30
0.0
 11
-261.131751
 21
165.166417
 31
0.0
  0
LINE
  5
2B7
330
26
100
AcDbEntity
  8
2
100
AcDbLine
 10
-258.97825
 20
160.184489
 30
0.0
 11
-262.545964
 21
163.752204
 31
0.0
  0
ARC
  5
2B8
330
26
100
AcDbEntity
  8
2
100
AcDbCircle
 10
-242.396636
 20
145.017088
 30
0.0
 40
28.0
100
AcDbArc
 50
133.958201
 51
136.041799
  0
ARC
  5
2B9
330
26
100
AcDbEntity
  8
2
100
AcDbCircle
 10
-261.485304
 20
164.812864
 30
0.0
 40
0.5
100
AcDbArc
 50
45.0
 51
133.958201
  0
ARC
  5
2BA
330
26
100
AcDbEntity
  8
2
100
AcDbCircle
 10
-262.192411
 20
164.105757
 30
0.0
 40
0.5
100
AcDbArc
 50
136.041799
 51
225.0
  0
ARC
  5
2BB
330
26
100
AcDbEntity
  8
2
100
AcDbCircle
 10
-259.331804
 20
159.830936
 30
0.0
 40
0.5
100
AcDbArc
 50
318.822554
 51
45.0
  0
ARC
  5
2BC
330
26
100
AcDbEntity
  8
2
100
AcDbCircle
 10
-257.210483
 20
161.952256
 30
0.0
 40
0.5
100
AcDbArc
 50
225.0
 51
311.177446
  0
LINE
  5
2BD
330
26
100
AcDbEntity
  8
2
100
AcDbLine
 10
-250.063978
 20
166.140816
 30
0.0
 11
-251.994811
 21
170.802259
 31
0.0
  0
LINE
  5
2BE
330
26
100
AcDbEntity
  8
2
100
AcDbLine
 10
-251.911737
 20
165.375449
 30
0.0
 11
-253.84257
 21
170.036892
 31
0.0
  0
ARC
  5
2BF
330
26
100
AcDbEntity
  8
2
100
AcDbCircle
 10
-242.396636
 20
145.017088
 30
0.0
 40
28.0
100
AcDbArc
 50
111.458201
 51
113.541799
  0
ARC
  5
2C0
330
26
100
AcDbEntity
  8
2
100
AcDbCircle
 10
-252.456751
 20
170.610917
 30
0.0
 40
0.5
100
AcDbArc
 50
22.5
 51
111.458201
  0
ARC
  5
2C1
330
26
100
AcDbEntity
  8
2
100
AcDbCircle
 10
-253.38063
 20
170.228234
 30
0.0
 40
0.5
100
AcDbArc
 50
113.541799
 51
202.5
  0
ARC
  5
2C2
330
26
100
AcDbEntity
  8
2
100
AcDbCircle
 10
-252.373677
 20
165.184107
 30
0.0
 40
0.5
100
AcDbArc
 50
296.322554
 51
22.5
  0
ARC
  5
2C3
330
26
100
AcDbEntity
  8
2
100
AcDbCircle
 10
-249.602038
 20
166.332158
 30
0.0
 40
0.5
100
AcDbArc
 50
202.5
 51
288.677446
  0
TEXT
  5
2C4
330
26
100
AcDbEntity
  8
2
100
AcDbText
 10
-244.896636
 20
175.517088
 30
0.0
 40
5.0
  1
Ｏ
 41
0.9230769230769231
 72
     5
 11
-240.896636
 21
175.517088
 31
0.0
100
AcDbText
  0
TEXT
  5
2C5
330
26
100
AcDbEntity
  8
2
100
AcDbText
 10
-244.896636
 20
117.017088
 30
0.0
 40
5.0
  1
Ａ
 41
0.9230769230769231
 72
     5
 11
-240.896636
 21
117.017088
 31
0.0
100
AcDbText
  0
TEXT
  5
2C6
330
26
100
AcDbEntity
  8
2
100
AcDbText
 10
-219.396636
 20
141.517088
 30
0.0
 40
5.0
  1
Ｓ
 50
270.0
 72
     5
 11
-219.396636
 21
137.517088
 31
0.0
100
AcDbText
  0
TEXT
  5
2C7
330
26
100
AcDbEntity
  8
2
100
AcDbText
 10
-265.396636
 20
136.517088
 30
0.0
 40
5.0
  1
Ｓ
 50
90.0
 72
     5
 11
-265.396636
 21
140.517088
 31
0.0
100
AcDbText
  0
LINE
  5
2C8
330
26
100
AcDbEntity
  8
2
100
AcDbLine
 10
-205.396636
 20
30.867088
 30
0.0
 11
-279.896636
 21
30.867088
 31
0.0
  0
LINE
  5
2C9
330
26
100
AcDbEntity
  8
2
100
AcDbLine
 10
-205.396636
 20
31.667088
 30
0.0
 11
-279.396636
 21
31.667088
 31
0.0
  0
LINE
  5
2CA
330
26
100
AcDbEntity
  8
2
100
AcDbLine
 10
-279.396636
 20
36.667088
 30
0.0
 11
-279.396636
 21
14.086129
 31
0.0
  0
LINE
  5
2CB
330
26
100
AcDbEntity
  8
2
100
AcDbLine
 10
-205.396636
 20
36.667088
 30
0.0
 11
-205.396636
 21
30.867088
 31
0.0
  0
LINE
  5
2CC
330
26
100
AcDbEntity
  8
2
100
AcDbLine
 10
-218.048182
 20
40.66708799999999
 30
0.0
 11
-266.745089
 21
40.66708799999999
 31
0.0
  0
LINE
  5
2CD
330
26
100
AcDbEntity
  8
2
100
AcDbLine
 10
-212.896636
 20
42.367088
 30
0.0
 11
-271.896636
 21
42.367088
 31
0.0
  0
LINE
  5
2CE
330
26
100
AcDbEntity
  8
2
100
AcDbLine
 10
-205.396636
 20
36.667088
 30
0.0
 11
-209.896671
 21
39.265185
 31
0.0
  0
LINE
  5
2CF
330
26
100
AcDbEntity
  8
2
100
AcDbLine
 10
-279.396636
 20
36.667088
 30
0.0
 11
-274.8966
 21
39.265185
 31
0.0
  0
LINE
  5
2D0
330
26
100
AcDbEntity
  8
2
100
AcDbLine
 10
-205.396636
 20
36.667088
 30
0.0
 11
-279.396636
 21
36.667088
 31
0.0
  0
LINE
  5
2D1
330
26
100
AcDbEntity
  8
2
100
AcDbLine
 10
-215.936176
 20
187.607828
 30
0.0
 11
-214.770497
 21
174.284053
 31
0.0
  0
LINE
  5
2D2
330
26
100
AcDbEntity
  8
2
100
AcDbLine
 10
-213.812238
 20
163.3311
 30
0.0
 11
-212.439271
 21
147.638018
 31
0.0
  0
LINE
  5
2D3
330
26
100
AcDbEntity
  8
2
100
AcDbLine
 10
-272.354
 20
147.638018
 30
0.0
 11
-270.981033
 21
163.3311
 31
0.0
  0
LINE
  5
2D4
330
26
100
AcDbEntity
  8
2
100
AcDbLine
 10
-270.022774
 20
174.284053
 30
0.0
 11
-268.857095
 21
187.607828
 31
0.0
  0
LINE
  5
2D5
330
26
100
AcDbEntity
  8
2
100
AcDbLine
 10
-220.881336
 20
193.088885
 30
0.0
 11
-263.911935
 21
193.088885
 31
0.0
  0
LINE
  5
2D6
330
26
100
AcDbEntity
  8
2
100
AcDbLine
 10
-220.396636
 20
115.945292
 30
0.0
 11
-264.396636
 21
115.945292
 31
0.0
  0
ARC
  5
2D7
330
26
100
AcDbEntity
  8
2
100
AcDbCircle
 10
-242.396636
 20
145.017088
 30
0.0
 40
30.071797
100
AcDbArc
 50
175.0
 51
212.162264
  0
ARC
  5
2D8
330
26
100
AcDbEntity
  8
2
100
AcDbCircle
 10
-242.396636
 20
145.017088
 30
0.0
 40
30.071797
100
AcDbArc
 50
327.837736
 51
5.0
  0
ARC
  5
2D9
330
26
100
AcDbEntity
  8
2
100
AcDbCircle
 10
-286.924893
 20
117.017088
 30
0.0
 40
22.528258
100
AcDbArc
 50
360.0
 51
32.162264
  0
LINE
  5
2DA
330
26
100
AcDbEntity
  8
2
100
AcDbLine
 10
-212.896636
 20
42.367088
 30
0.0
 11
-212.896636
 21
41.172969
 31
0.0
  0
LINE
  5
2DB
330
26
100
AcDbEntity
  8
2
100
AcDbLine
 10
-271.896636
 20
42.367088
 30
0.0
 11
-271.896636
 21
41.172969
 31
0.0
  0
ARC
  5
2DC
330
26
100
AcDbEntity
  8
2
100
AcDbCircle
 10
-242.396636
 20
145.017088
 30
0.0
 40
23.7
100
AcDbArc
 50
189.319711
 51
350.680289
  0
ARC
  5
2DD
330
26
100
AcDbEntity
  8
2
100
AcDbCircle
 10
-218.022674
 20
141.017088
 30
0.0
 40
1.0
100
AcDbArc
 50
90.0
 51
170.680289
  0
ARC
  5
2DE
330
26
100
AcDbEntity
  8
2
100
AcDbCircle
 10
-266.770597
 20
141.017088
 30
0.0
 40
1.0
100
AcDbArc
 50
9.319710999999999
 51
90.0
  0
LINE
  5
2DF
330
26
100
AcDbEntity
  8
2
100
AcDbLine
 10
-220.602141
 20
42.367088
 30
0.0
 11
-218.887276
 21
40.66708799999999
 31
0.0
  0
LINE
  5
2E0
330
26
100
AcDbEntity
  8
2
100
AcDbLine
 10
-264.19113
 20
42.367088
 30
0.0
 11
-265.905995
 21
40.66708799999999
 31
0.0
  0
ARC
  5
2E1
330
26
100
AcDbEntity
  8
2
100
AcDbCircle
 10
-242.396636
 20
145.017088
 30
0.0
 40
23.7
100
AcDbArc
 50
71.05366899999999
 51
80.68028899999999
  0
ARC
  5
2E2
330
26
100
AcDbEntity
  8
2
100
AcDbCircle
 10
-242.396636
 20
145.017088
 30
0.0
 40
23.7
100
AcDbArc
 50
48.55366899999999
 51
63.94633100000001
  0
ARC
  5
2E3
330
26
100
AcDbEntity
  8
2
100
AcDbCircle
 10
-242.396636
 20
145.017088
 30
0.0
 40
23.7
100
AcDbArc
 50
9.319710999999999
 51
18.946331
  0
ARC
  5
2E4
330
26
100
AcDbEntity
  8
2
100
AcDbCircle
 10
-242.396636
 20
145.017088
 30
0.0
 40
23.7
100
AcDbArc
 50
26.053669
 51
41.446331
  0
ARC
  5
2E5
330
26
100
AcDbEntity
  8
2
100
AcDbCircle
 10
-242.396636
 20
145.017088
 30
0.0
 40
23.7
100
AcDbArc
 50
99.319711
 51
108.946331
  0
ARC
  5
2E6
330
26
100
AcDbEntity
  8
2
100
AcDbCircle
 10
-242.396636
 20
145.017088
 30
0.0
 40
23.7
100
AcDbArc
 50
116.053669
 51
131.446331
  0
ARC
  5
2E7
330
26
100
AcDbEntity
  8
2
100
AcDbCircle
 10
-242.396636
 20
145.017088
 30
0.0
 40
23.7
100
AcDbArc
 50
138.553669
 51
153.946331
  0
ARC
  5
2E8
330
26
100
AcDbEntity
  8
2
100
AcDbCircle
 10
-242.396636
 20
145.017088
 30
0.0
 40
23.7
100
AcDbArc
 50
161.053669
 51
170.680289
  0
ARC
  5
2E9
330
26
100
AcDbEntity
  8
2
100
AcDbCircle
 10
-218.022674
 20
149.017088
 30
0.0
 40
1.0
100
AcDbArc
 50
189.319711
 51
270.0
  0
ARC
  5
2EA
330
26
100
AcDbEntity
  8
2
100
AcDbCircle
 10
-238.396636
 20
169.39105
 30
0.0
 40
1.0
100
AcDbArc
 50
180.0
 51
260.680289
  0
ARC
  5
2EB
330
26
100
AcDbEntity
  8
2
100
AcDbCircle
 10
-246.396636
 20
169.39105
 30
0.0
 40
1.0
100
AcDbArc
 50
279.319711
 51
360.0
  0
ARC
  5
2EC
330
26
100
AcDbEntity
  8
2
100
AcDbCircle
 10
-266.770597
 20
149.017088
 30
0.0
 40
1.0
100
AcDbArc
 50
270.0
 51
350.680289
  0
ARC
  5
2ED
330
26
100
AcDbEntity
  8
2
100
AcDbCircle
 10
-219.507716
 20
152.874401
 30
0.0
 40
0.5
100
AcDbArc
 50
112.5
 51
198.946331
  0
ARC
  5
2EE
330
26
100
AcDbEntity
  8
2
100
AcDbCircle
 10
-220.655766
 20
155.64604
 30
0.0
 40
0.5
100
AcDbArc
 50
206.053669
 51
292.5
  0
ARC
  5
2EF
330
26
100
AcDbEntity
  8
2
100
AcDbCircle
 10
-224.256895
 20
161.035509
 30
0.0
 40
0.5
100
AcDbArc
 50
135.0
 51
221.446331
  0
ARC
  5
2F0
330
26
100
AcDbEntity
  8
2
100
AcDbCircle
 10
-226.378215
 20
163.156829
 30
0.0
 40
0.5
100
AcDbArc
 50
228.553669
 51
315.0
  0
ARC
  5
2F1
330
26
100
AcDbEntity
  8
2
100
AcDbCircle
 10
-231.767684
 20
166.757958
 30
0.0
 40
0.5
100
AcDbArc
 50
157.5
 51
243.946331
  0
ARC
  5
2F2
330
26
100
AcDbEntity
  8
2
100
AcDbCircle
 10
-234.539323
 20
167.906008
 30
0.0
 40
0.5
100
AcDbArc
 50
251.053669
 51
337.5
  0
ARC
  5
2F3
330
26
100
AcDbEntity
  8
2
100
AcDbCircle
 10
-250.253948
 20
167.906008
 30
0.0
 40
0.5
100
AcDbArc
 50
202.5
 51
288.946331
  0
ARC
  5
2F4
330
26
100
AcDbEntity
  8
2
100
AcDbCircle
 10
-253.025587
 20
166.757958
 30
0.0
 40
0.5
100
AcDbArc
 50
296.053669
 51
22.5
  0
ARC
  5
2F5
330
26
100
AcDbEntity
  8
2
100
AcDbCircle
 10
-258.415056
 20
163.156829
 30
0.0
 40
0.5
100
AcDbArc
 50
225.0
 51
311.446331
  0
ARC
  5
2F6
330
26
100
AcDbEntity
  8
2
100
AcDbCircle
 10
-260.5363759999999
 20
161.035509
 30
0.0
 40
0.5
100
AcDbArc
 50
318.553669
 51
45.0
  0
ARC
  5
2F7
330
26
100
AcDbEntity
  8
2
100
AcDbCircle
 10
-264.137505
 20
155.64604
 30
0.0
 40
0.5
100
AcDbArc
 50
247.5
 51
333.946331
  0
ARC
  5
2F8
330
26
100
AcDbEntity
  8
2
100
AcDbCircle
 10
-265.285555
 20
152.874401
 30
0.0
 40
0.5
100
AcDbArc
 50
341.053669
 51
67.5
  0
ARC
  5
2F9
330
26
100
AcDbEntity
  8
2
100
AcDbCircle
 10
-197.868378
 20
117.017088
 30
0.0
 40
22.528258
100
AcDbArc
 50
147.837736
 51
180.0
  0
LINE
  5
2FA
330
26
100
AcDbEntity
  8
2
100
AcDbLine
 10
-220.396636
 20
39.667088
 30
0.0
 11
-220.396636
 21
37.667088
 31
0.0
  0
LINE
  5
2FB
330
26
100
AcDbEntity
  8
2
100
AcDbLine
 10
-264.396636
 20
39.667088
 30
0.0
 11
-264.396636
 21
37.667088
 31
0.0
  0
ARC
  5
2FC
330
26
100
AcDbEntity
  8
2
100
AcDbCircle
 10
-221.396636
 20
39.667088
 30
0.0
 40
1.0
100
AcDbArc
 50
0.0
 51
90.0
  0
ARC
  5
2FD
330
26
100
AcDbEntity
  8
2
100
AcDbCircle
 10
-263.396636
 20
39.667088
 30
0.0
 40
1.0
100
AcDbArc
 50
90.0
 51
180.0
  0
ARC
  5
2FE
330
26
100
AcDbEntity
  8
2
100
AcDbCircle
 10
-219.396636
 20
37.667088
 30
0.0
 40
1.0
100
AcDbArc
 50
180.0
 51
270.0
  0
ARC
  5
2FF
330
26
100
AcDbEntity
  8
2
100
AcDbCircle
 10
-265.396636
 20
37.667088
 30
0.0
 40
1.0
100
AcDbArc
 50
270.0
 51
360.0
  0
LINE
  5
300
330
26
100
AcDbEntity
  8
2
100
AcDbLine
 10
-207.396636
 20
35.667088
 30
0.0
 11
-207.396636
 21
-11.132912
 31
0.0
  0
ARC
  5
301
330
26
100
AcDbEntity
  8
2
100
AcDbCircle
 10
-208.396636
 20
35.667088
 30
0.0
 40
1.0
100
AcDbArc
 50
360.0
 51
90.0
  0
ARC
  5
302
330
26
100
AcDbEntity
  8
2
100
AcDbCircle
 10
-276.396636
 20
35.667088
 30
0.0
 40
1.0
100
AcDbArc
 50
90.0
 51
180.0
  0
LINE
  5
303
330
26
100
AcDbEntity
  8
2
100
AcDbLine
 10
-218.862603
 20
39.582826
 30
0.0
 11
-220.971904
 21
40.572408
 31
0.0
  0
LINE
  5
304
330
26
100
AcDbEntity
  8
2
100
AcDbLine
 10
-265.930668
 20
39.582826
 30
0.0
 11
-263.821367
 21
40.572408
 31
0.0
  0
LINE
  5
305
330
26
100
AcDbEntity
  8
2
100
AcDbLine
 10
116.153364
 20
31.667088
 30
0.0
 11
25.153364
 21
31.667088
 31
0.0
  0
LINE
  5
306
330
26
100
AcDbEntity
  8
2
100
AcDbLine
 10
116.153364
 20
36.667088
 30
0.0
 11
25.153364
 21
36.667088
 31
0.0
  0
LINE
  5
307
330
26
100
AcDbEntity
  8
2
100
AcDbLine
 10
116.153364
 20
36.667088
 30
0.0
 11
116.153364
 21
18.367088
 31
0.0
  0
LINE
  5
308
330
26
100
AcDbEntity
  8
2
100
AcDbLine
 10
25.153364
 20
36.667088
 30
0.0
 11
25.153364
 21
6.727659
 31
0.0
  0
LINE
  5
309
330
26
100
AcDbEntity
  8
2
100
AcDbLine
 10
116.153364
 20
36.667088
 30
0.0
 11
114.253364
 21
37.764054
 31
0.0
  0
LINE
  5
30A
330
26
100
AcDbEntity
  8
2
100
AcDbLine
 10
25.153364
 20
36.667088
 30
0.0
 11
28.653364
 21
38.68781400000001
 31
0.0
  0
LINE
  5
30B
330
26
100
AcDbEntity
  8
2
100
AcDbLine
 10
103.653364
 20
40.66708799999999
 30
0.0
 11
103.653364
 21
37.667088
 31
0.0
  0
LINE
  5
30C
330
26
100
AcDbEntity
  8
2
100
AcDbLine
 10
91.153364
 20
38.977067
 30
0.0
 11
91.153364
 21
37.667088
 31
0.0
  0
LINE
  5
30D
330
26
100
AcDbEntity
  8
2
100
AcDbLine
 10
79.153364
 20
39.580975
 30
0.0
 11
79.153364
 21
37.667088
 31
0.0
  0
LINE
  5
30E
330
26
100
AcDbEntity
  8
2
100
AcDbLine
 10
39.15336400000001
 20
37.47019
 30
0.0
 11
39.15336400000001
 21
37.167088
 31
0.0
  0
LINE
  5
30F
330
26
100
AcDbEntity
  8
2
100
AcDbLine
 10
49.15336400000001
 20
36.667088
 30
0.0
 11
49.15336400000001
 21
30.867088
 31
0.0
  0
ARC
  5
310
330
26
100
AcDbEntity
  8
2
100
AcDbCircle
 10
104.653364
 20
37.667088
 30
0.0
 40
1.0
100
AcDbArc
 50
180.0
 51
270.0
  0
ARC
  5
311
330
26
100
AcDbEntity
  8
2
100
AcDbCircle
 10
90.153364
 20
37.667088
 30
0.0
 40
1.0
100
AcDbArc
 50
270.0
 51
360.0
  0
ARC
  5
312
330
26
100
AcDbEntity
  8
2
100
AcDbCircle
 10
80.153364
 20
37.667088
 30
0.0
 40
1.0
100
AcDbArc
 50
180.0
 51
270.0
  0
ARC
  5
313
330
26
100
AcDbEntity
  8
2
100
AcDbCircle
 10
33.153364
 20
30.667088
 30
0.0
 40
10.0
100
AcDbArc
 50
60.908258
 51
63.52485899999999
  0
ARC
  5
314
330
26
100
AcDbEntity
  8
2
100
AcDbCircle
 10
36.938638
 20
37.47019
 30
0.0
 40
2.214725999999999
100
AcDbArc
 50
0.0
 51
60.908258
  0
ARC
  5
315
330
26
100
AcDbEntity
  8
2
100
AcDbCircle
 10
38.653364
 20
37.167088
 30
0.0
 40
0.5
100
AcDbArc
 50
270.0
 51
360.0
  0
ARC
  5
316
330
26
100
AcDbEntity
  8
2
100
AcDbCircle
 10
81.188713
 20
39.580975
 30
0.0
 40
2.035349
100
AcDbArc
 50
147.749287
 51
180.0
  0
ARC
  5
317
330
26
100
AcDbEntity
  8
2
100
AcDbCircle
 10
88.838664
 20
38.977067
 30
0.0
 40
2.314700999999999
100
AcDbArc
 50
360.0
 51
46.896902
  0
LINE
  5
318
330
26
100
AcDbEntity
  8
2
100
AcDbLine
 10
90.65336399999999
 20
42.367088
 30
0.0
 11
39.15336400000001
 21
42.367088
 31
0.0
  0
LINE
  5
319
330
26
100
AcDbEntity
  8
2
100
AcDbLine
 10
39.15336400000001
 20
42.367088
 30
0.0
 11
37.453364
 21
40.66708799999999
 31
0.0
  0
LINE
  5
31A
330
26
100
AcDbEntity
  8
2
100
AcDbLine
 10
64.153364
 20
42.367088
 30
0.0
 11
64.153364
 21
40.66708799999999
 31
0.0
  0
LINE
  5
31B
330
26
100
AcDbEntity
  8
2
100
AcDbLine
 10
58.153364
 20
42.367088
 30
0.0
 11
58.153364
 21
40.66708799999999
 31
0.0
  0
LINE
  5
31C
330
26
100
AcDbEntity
  8
2
100
AcDbLine
 10
90.65336399999999
 20
42.367088
 30
0.0
 11
90.65336399999999
 21
40.66708799999999
 31
0.0
  0
LINE
  5
31D
330
26
100
AcDbEntity
  8
2
100
AcDbLine
 10
87.24719399999999
 20
42.367088
 30
0.0
 11
87.24719399999999
 21
41.083005
 31
0.0
  0
LINE
  5
31E
330
26
100
AcDbEntity
  8
2
100
AcDbLine
 10
86.62280499999999
 20
42.367088
 30
0.0
 11
86.62280499999999
 21
41.17678
 31
0.0
  0
LINE
  5
31F
330
26
100
AcDbEntity
  8
2
100
AcDbLine
 10
81.44913999999999
 20
42.367088
 30
0.0
 11
81.44913999999999
 21
40.66708799999999
 31
0.0
  0
LINE
  5
320
330
26
100
AcDbEntity
  8
2
100
AcDbLine
 10
80.232617
 20
42.367088
 30
0.0
 11
80.232617
 21
40.66708799999999
 31
0.0
  0
LINE
  5
321
330
26
100
AcDbEntity
  8
2
100
AcDbLine
 10
77.18976399999999
 20
40.66708799999999
 30
0.0
 11
75.986528
 21
42.367088
 31
0.0
  0
LINE
  5
322
330
26
100
AcDbEntity
  8
2
100
AcDbLine
 10
82.390419
 20
40.944679
 30
0.0
 11
81.44913999999999
 21
41.962535
 31
0.0
  0
LINE
  5
323
330
26
100
AcDbEntity
  8
2
100
AcDbLine
 10
70.93778499999999
 20
42.367088
 30
0.0
 11
70.93778499999999
 21
40.66708799999999
 31
0.0
  0
LINE
  5
324
330
26
100
AcDbEntity
  8
2
100
AcDbLine
 10
72.637359
 20
42.367088
 30
0.0
 11
72.637359
 21
40.66708799999999
 31
0.0
  0
LINE
  5
325
330
26
100
AcDbEntity
  8
2
100
AcDbLine
 10
69.291005
 20
40.66708799999999
 30
0.0
 11
68.63981899999998
 21
42.367088
 31
0.0
  0
LINE
  5
326
330
26
100
AcDbEntity
  8
2
100
AcDbLine
 10
116.153364
 20
30.867088
 30
0.0
 11
23.153364
 21
30.867088
 31
0.0
  0
LINE
  5
327
330
26
100
AcDbEntity
  8
2
100
AcDbLine
 10
-277.396636
 20
-11.132912
 30
0.0
 11
-277.396636
 21
35.667088
 31
0.0
  0
ARC
  5
328
330
26
100
AcDbEntity
  8
2
100
AcDbCircle
 10
-365.396636
 20
14.086129
 30
0.0
 40
160.0
100
AcDbArc
 50
350.931278
 51
354.945811
  0
ARC
  5
329
330
26
100
AcDbEntity
  8
2
100
AcDbCircle
 10
-119.396636
 20
14.086129
 30
0.0
 40
160.0
100
AcDbArc
 50
180.0
 51
189.068722
  0
LINE
  5
32A
330
26
100
AcDbEntity
  8
2
100
AcDbLine
 10
96.153364
 20
-11.132912
 30
0.0
 11
96.153364
 21
-9.502969
 31
0.0
  0
ARC
  5
32B
330
26
100
AcDbEntity
  8
2
100
AcDbCircle
 10
185.1533639999999
 20
6.727659
 30
0.0
 40
160.0
100
AcDbArc
 50
180.0
 51
186.409204
  0
ARC
  5
32C
330
26
100
AcDbEntity
  8
2
100
AcDbCircle
 10
97.15336399999999
 20
18.367088
 30
0.0
 40
19.0
100
AcDbArc
 50
315.0
 51
360.0
  0
LINE
  5
32D
330
26
100
AcDbEntity
  8
2
100
AcDbLine
 10
110.588393
 20
4.932058999999999
 30
0.0
 11
96.153364
 21
-9.502969
 31
0.0
  0
LINE
  5
32E
330
26
100
AcDbEntity
  8
2
100
AcDbLine
 10
96.153364
 20
-9.502969
 30
0.0
 11
50.153364
 21
-9.502969
 31
0.0
  0
LINE
  5
32F
330
26
100
AcDbEntity
  8
2
100
AcDbLine
 10
49.15336400000001
 20
-8.502969
 30
0.0
 11
49.15336400000001
 21
0.867088
 31
0.0
  0
LINE
  5
330
330
26
100
AcDbEntity
  8
2
100
AcDbLine
 10
36.153364
 20
2.867088
 30
0.0
 11
36.153364
 21
30.867088
 31
0.0
  0
LINE
  5
331
330
26
100
AcDbEntity
  8
2
100
AcDbLine
 10
76.153364
 20
2.867088
 30
0.0
 11
76.153364
 21
30.867088
 31
0.0
  0
LINE
  5
332
330
26
100
AcDbEntity
  8
2
100
AcDbLine
 10
74.153364
 20
0.867088
 30
0.0
 11
38.15336400000001
 21
0.867088
 31
0.0
  0
ARC
  5
333
330
26
100
AcDbEntity
  8
2
100
AcDbCircle
 10
74.153364
 20
2.867088
 30
0.0
 40
2.0
100
AcDbArc
 50
270.0
 51
360.0
  0
ARC
  5
334
330
26
100
AcDbEntity
  8
2
100
AcDbCircle
 10
38.15336400000001
 20
2.867088
 30
0.0
 40
2.0
100
AcDbArc
 50
180.0
 51
270.0
  0
LINE
  5
335
330
26
100
AcDbEntity
  8
2
100
AcDbLine
 10
85.153364
 20
17.401686
 30
0.0
 11
85.153364
 21
30.867088
 31
0.0
  0
LINE
  5
336
330
26
100
AcDbEntity
  8
2
100
AcDbLine
 10
109.153364
 20
17.401686
 30
0.0
 11
109.153364
 21
30.867088
 31
0.0
  0
ARC
  5
337
330
26
100
AcDbEntity
  8
2
100
AcDbCircle
 10
97.15336399999999
 20
12.367088
 30
0.0
 40
6.0
100
AcDbArc
 50
230.0
 51
310.0
  0
CIRCLE
  5
338
330
26
100
AcDbEntity
  8
2
100
AcDbCircle
 10
97.15336399999999
 20
18.367088
 30
0.0
 40
6.0
  0
CIRCLE
  5
339
330
26
100
AcDbEntity
  8
2
100
AcDbCircle
 10
97.15336399999999
 20
18.367088
 30
0.0
 40
8.0
  0
LINE
  5
33A
330
26
100
AcDbEntity
  8
2
100
AcDbLine
 10
101.01009
 20
7.770821999999999
 30
0.0
 11
107.01009
 21
12.805419
 31
0.0
  0
LINE
  5
33B
330
26
100
AcDbEntity
  8
2
100
AcDbLine
 10
93.29663899999999
 20
7.770821999999999
 30
0.0
 11
87.296639
 21
12.805419
 31
0.0
  0
ARC
  5
33C
330
26
100
AcDbEntity
  8
2
100
AcDbCircle
 10
103.153364
 20
17.401686
 30
0.0
 40
6.0
100
AcDbArc
 50
310.0
 51
0.0
  0
ARC
  5
33D
330
26
100
AcDbEntity
  8
2
100
AcDbCircle
 10
91.153364
 20
17.401686
 30
0.0
 40
6.0
100
AcDbArc
 50
180.0
 51
230.0
  0
LINE
  5
33E
330
26
100
AcDbEntity
  8
2
100
AcDbLine
 10
-204.396636
 20
121.017088
 30
0.0
 11
-204.396636
 21
159.017088
 31
0.0
  0
LINE
  5
33F
330
26
100
AcDbEntity
  8
2
100
AcDbLine
 10
-206.396636
 20
120.017088
 30
0.0
 11
-205.396636
 21
120.017088
 31
0.0
  0
LINE
  5
340
330
26
100
AcDbEntity
  8
2
100
AcDbLine
 10
-205.6513
 20
160.017088
 30
0.0
 11
-205.396636
 21
160.017088
 31
0.0
  0
LINE
  5
341
330
26
100
AcDbEntity
  8
2
100
AcDbLine
 10
-204.896636
 20
170.017088
 30
0.0
 11
-204.896636
 21
192.017088
 31
0.0
  0
LINE
  5
342
330
26
100
AcDbEntity
  8
2
100
AcDbLine
 10
-208.622863
 20
193.017088
 30
0.0
 11
-205.896636
 21
193.017088
 31
0.0
  0
LINE
  5
343
330
26
100
AcDbEntity
  8
2
100
AcDbLine
 10
-206.263721
 20
169.017088
 30
0.0
 11
-205.896636
 21
169.017088
 31
0.0
  0
LINE
  5
344
330
26
100
AcDbEntity
  8
2
100
AcDbLine
 10
-204.396636
 20
1.867088
 30
0.0
 11
-204.396636
 21
29.867088
 31
0.0
  0
LINE
  5
345
330
26
100
AcDbEntity
  8
2
100
AcDbLine
 10
-205.396636
 20
0.867088
 30
0.0
 11
-206.396636
 21
0.867088
 31
0.0
  0
LINE
  5
346
330
26
100
AcDbEntity
  8
2
100
AcDbLine
 10
-231.396636
 20
11.367088
 30
0.0
 11
-253.396636
 21
11.367088
 31
0.0
  0
LINE
  5
347
330
26
100
AcDbEntity
  8
2
100
AcDbLine
 10
-224.396636
 20
18.367088
 30
0.0
 11
-224.396636
 21
30.867088
 31
0.0
  0
LINE
  5
348
330
26
100
AcDbEntity
  8
2
100
AcDbLine
 10
-260.396636
 20
18.367088
 30
0.0
 11
-260.396636
 21
30.867088
 31
0.0
  0
ARC
  5
349
330
26
100
AcDbEntity
  8
2
100
AcDbCircle
 10
-231.396636
 20
18.367088
 30
0.0
 40
7.0
100
AcDbArc
 50
270.0
 51
360.0
  0
ARC
  5
34A
330
26
100
AcDbEntity
  8
2
100
AcDbCircle
 10
-253.396636
 20
18.367088
 30
0.0
 40
7.0
100
AcDbArc
 50
180.0
 51
270.0
  0
LINE
  5
34B
330
26
100
AcDbEntity
  8
2
100
AcDbLine
 10
-260.396636
 20
107.017088
 30
0.0
 11
-224.396636
 21
107.017088
 31
0.0
  0
LINE
  5
34C
330
26
100
AcDbEntity
  8
2
100
AcDbLine
 10
-224.396636
 20
107.017088
 30
0.0
 11
-224.396636
 21
109.017088
 31
0.0
  0
LINE
  5
34D
330
26
100
AcDbEntity
  8
2
100
AcDbLine
 10
-260.396636
 20
107.017088
 30
0.0
 11
-260.396636
 21
109.017088
 31
0.0
  0
LINE
  5
34E
330
26
100
AcDbEntity
  8
2
100
AcDbLine
 10
23.153364
 20
11.367088
 30
0.0
 11
23.153364
 21
30.867088
 31
0.0
  0
LINE
  5
34F
330
26
100
AcDbEntity
  8
2
100
AcDbLine
 10
23.153364
 20
11.367088
 30
0.0
 11
25.153364
 21
11.367088
 31
0.0
  0
ARC
  5
350
330
26
100
AcDbEntity
  8
2
100
AcDbCircle
 10
-206.396636
 20
119.017088
 30
0.0
 40
1.0
100
AcDbArc
 50
90.0
 51
180.0
  0
ARC
  5
351
330
26
100
AcDbEntity
  8
2
100
AcDbCircle
 10
-205.6513
 20
161.017088
 30
0.0
 40
1.0
100
AcDbArc
 50
185.0
 51
270.0
  0
ARC
  5
352
330
26
100
AcDbEntity
  8
2
100
AcDbCircle
 10
-208.622863
 20
194.017088
 30
0.0
 40
1.0
100
AcDbArc
 50
192.839588
 51
270.0
  0
ARC
  5
353
330
26
100
AcDbEntity
  8
2
100
AcDbCircle
 10
-206.263721
 20
168.017088
 30
0.0
 40
1.0
100
AcDbArc
 50
90.0
 51
185.0
  0
LINE
  5
354
330
26
100
AcDbEntity
  8
2
100
AcDbLine
 10
-279.896636
 20
170.017088
 30
0.0
 11
-279.896636
 21
192.017088
 31
0.0
  0
LINE
  5
355
330
26
100
AcDbEntity
  8
2
100
AcDbLine
 10
-276.170408
 20
193.017088
 30
0.0
 11
-278.896636
 21
193.017088
 31
0.0
  0
ARC
  5
356
330
26
100
AcDbEntity
  8
2
100
AcDbCircle
 10
-276.170408
 20
194.017088
 30
0.0
 40
1.0
100
AcDbArc
 50
270.0
 51
347.160412
  0
LINE
  5
357
330
26
100
AcDbEntity
  8
2
100
AcDbLine
 10
-278.52955
 20
169.017088
 30
0.0
 11
-278.896636
 21
169.017088
 31
0.0
  0
ARC
  5
358
330
26
100
AcDbEntity
  8
2
100
AcDbCircle
 10
-278.52955
 20
168.017088
 30
0.0
 40
1.0
100
AcDbArc
 50
355.0
 51
90.0
  0
ARC
  5
359
330
26
100
AcDbEntity
  8
2
100
AcDbCircle
 10
-278.896636
 20
192.017088
 30
0.0
 40
1.0
100
AcDbArc
 50
90.0
 51
180.0
  0
ARC
  5
35A
330
26
100
AcDbEntity
  8
2
100
AcDbCircle
 10
-278.896636
 20
170.017088
 30
0.0
 40
1.0
100
AcDbArc
 50
180.0
 51
270.0
  0
ARC
  5
35B
330
26
100
AcDbEntity
  8
2
100
AcDbCircle
 10
-205.896636
 20
170.017088
 30
0.0
 40
1.0
100
AcDbArc
 50
270.0
 51
360.0
  0
ARC
  5
35C
330
26
100
AcDbEntity
  8
2
100
AcDbCircle
 10
-205.896636
 20
192.017088
 30
0.0
 40
1.0
100
AcDbArc
 50
0.0
 51
90.0
  0
ARC
  5
35D
330
26
100
AcDbEntity
  8
2
100
AcDbCircle
 10
-205.396636
 20
159.017088
 30
0.0
 40
1.0
100
AcDbArc
 50
0.0
 51
90.0
  0
ARC
  5
35E
330
26
100
AcDbEntity
  8
2
100
AcDbCircle
 10
-205.396636
 20
121.017088
 30
0.0
 40
1.0
100
AcDbArc
 50
270.0
 51
0.0
  0
ARC
  5
35F
330
26
100
AcDbEntity
  8
2
100
AcDbCircle
 10
-205.396636
 20
1.867088
 30
0.0
 40
1.0
100
AcDbArc
 50
270.0
 51
360.0
  0
ARC
  5
360
330
26
100
AcDbEntity
  8
2
100
AcDbCircle
 10
-205.396636
 20
29.867088
 30
0.0
 40
1.0
100
AcDbArc
 50
0.0
 51
90.0
  0
ARC
  5
361
330
26
100
AcDbEntity
  8
2
100
AcDbCircle
 10
-205.022632
 20
-0.097631
 30
0.0
 40
1.0
100
AcDbArc
 50
100.777858
 51
174.945811
  0
ARC
  5
362
330
26
100
AcDbEntity
  8
2
100
AcDbCircle
 10
-206.396636
 20
-0.132912
 30
0.0
 40
1.0
100
AcDbArc
 50
90.0
 51
180.0
  0
LINE
  5
363
330
26
100
AcDbEntity
  8
2
100
AcDbLine
 10
-279.896636
 20
6.367087999999999
 30
0.0
 11
-279.896636
 21
30.867088
 31
0.0
  0
LINE
  5
364
330
26
100
AcDbEntity
  8
2
100
AcDbLine
 10
-279.210328
 20
6.367087999999999
 30
0.0
 11
-279.896636
 21
6.367087999999999
 31
0.0
  0
ARC
  5
365
330
26
100
AcDbEntity
  8
2
100
AcDbCircle
 10
50.153364
 20
-8.502969
 30
0.0
 40
1.0
100
AcDbArc
 50
180.0
 51
270.0
  0
LINE
  5
366
330
26
100
AcDbEntity
  8
2
100
AcDbLine
 10
-223.396636
 20
42.867088
 30
0.0
 11
-261.396636
 21
42.867088
 31
0.0
  0
LINE
  5
367
330
26
100
AcDbEntity
  8
2
100
AcDbLine
 10
-218.396636
 20
43.367088
 30
0.0
 11
-264.396636
 21
43.367088
 31
0.0
  0
LINE
  5
368
330
26
100
AcDbEntity
  8
2
100
AcDbLine
 10
-261.396636
 20
42.867088
 30
0.0
 11
-261.396636
 21
43.367088
 31
0.0
  0
LINE
  5
369
330
26
100
AcDbEntity
  8
2
100
AcDbLine
 10
-223.396636
 20
42.867088
 30
0.0
 11
-223.396636
 21
43.367088
 31
0.0
  0
LINE
  5
36A
330
26
100
AcDbEntity
  8
2
100
AcDbLine
 10
-225.396636
 20
42.367088
 30
0.0
 11
-225.396636
 21
42.867088
 31
0.0
  0
LINE
  5
36B
330
26
100
AcDbEntity
  8
2
100
AcDbLine
 10
-259.396636
 20
42.367088
 30
0.0
 11
-259.396636
 21
42.867088
 31
0.0
  0
LINE
  5
36C
330
26
100
AcDbEntity
  8
2
100
AcDbLine
 10
-226.639068
 20
63.367088
 30
0.0
 11
-261.396636
 21
63.367088
 31
0.0
  0
LINE
  5
36D
330
26
100
AcDbEntity
  8
2
100
AcDbLine
 10
-264.396636
 20
43.367088
 30
0.0
 11
-264.396636
 21
60.367088
 31
0.0
  0
LINE
  5
36E
330
26
100
AcDbEntity
  8
2
100
AcDbLine
 10
-218.396636
 20
43.367088
 30
0.0
 11
-218.396636
 21
55.968165
 31
0.0
  0
LINE
  5
36F
330
26
100
AcDbEntity
  8
2
100
AcDbLine
 10
-263.372812
 20
147.017088
 30
0.0
 11
-220.396636
 21
147.017088
 31
0.0
  0
LINE
  5
370
330
26
100
AcDbEntity
  8
2
100
AcDbLine
 10
-263.372812
 20
143.017088
 30
0.0
 11
-220.396636
 21
143.017088
 31
0.0
  0
ARC
  5
371
330
26
100
AcDbEntity
  8
2
100
AcDbCircle
 10
-220.396636
 20
145.017088
 30
0.0
 40
2.0
100
AcDbArc
 50
270.0
 51
90.0
  0
ARC
  5
372
330
26
100
AcDbEntity
  8
2
100
AcDbCircle
 10
-242.396636
 20
145.017088
 30
0.0
 40
22.0
100
AcDbArc
 50
7.209063999999999
 51
352.790936
  0
ARC
  5
373
330
26
100
AcDbEntity
  8
2
100
AcDbCircle
 10
-263.372812
 20
146.017088
 30
0.0
 40
1.0
100
AcDbArc
 50
90.0
 51
177.270597
  0
ARC
  5
374
330
26
100
AcDbEntity
  8
2
100
AcDbCircle
 10
-263.372812
 20
144.017088
 30
0.0
 40
1.0
100
AcDbArc
 50
182.729403
 51
270.0
  0
LINE
  5
375
330
26
100
AcDbEntity
  8
2
100
AcDbLine
 10
-219.468273
 20
58.266299
 30
0.0
 11
-224.710705
 21
62.665222
 31
0.0
  0
LINE
  5
376
330
26
100
AcDbEntity
  8
2
100
AcDbLine
 10
-225.547157
 20
143.017088
 30
0.0
 11
-225.547157
 21
147.017088
 31
0.0
  0
ARC
  5
377
330
26
100
AcDbEntity
  8
2
100
AcDbCircle
 10
-221.396636
 20
55.968165
 30
0.0
 40
3.0
100
AcDbArc
 50
0.0
 51
50.0
  0
ARC
  5
378
330
26
100
AcDbEntity
  8
2
100
AcDbCircle
 10
-226.639068
 20
60.367088
 30
0.0
 40
3.0
100
AcDbArc
 50
50.0
 51
90.0
  0
ARC
  5
379
330
26
100
AcDbEntity
  8
2
100
AcDbCircle
 10
-261.396636
 20
60.367088
 30
0.0
 40
3.0
100
AcDbArc
 50
90.0
 51
180.0
  0
LINE
  5
37A
330
26
100
AcDbEntity
  8
2
100
AcDbLine
 10
-221.487733
 20
47.367088
 30
0.0
 11
-263.396636
 21
47.367088
 31
0.0
  0
ARC
  5
37B
330
26
100
AcDbEntity
  8
2
100
AcDbCircle
 10
-263.396636
 20
46.367088
 30
0.0
 40
1.0
100
AcDbArc
 50
90.0
 51
180.0
  0
LINE
  5
37C
330
26
100
AcDbEntity
  8
2
100
AcDbLine
 10
-220.487733
 20
46.367088
 30
0.0
 11
-220.487733
 21
43.367088
 31
0.0
  0
ARC
  5
37D
330
26
100
AcDbEntity
  8
2
100
AcDbCircle
 10
-221.487733
 20
46.367088
 30
0.0
 40
1.0
100
AcDbArc
 50
0.0
 51
90.0
  0
LINE
  5
37E
330
26
100
AcDbEntity
  8
2
100
AcDbLine
 10
80.153364
 20
42.867088
 30
0.0
 11
42.153364
 21
42.867088
 31
0.0
  0
LINE
  5
37F
330
26
100
AcDbEntity
  8
2
100
AcDbLine
 10
83.15336399999999
 20
43.367088
 30
0.0
 11
39.15336400000001
 21
43.367088
 31
0.0
  0
LINE
  5
380
330
26
100
AcDbEntity
  8
2
100
AcDbLine
 10
78.15336399999999
 20
42.367088
 30
0.0
 11
78.15336399999999
 21
42.867088
 31
0.0
  0
LINE
  5
381
330
26
100
AcDbEntity
  8
2
100
AcDbLine
 10
44.153364
 20
42.367088
 30
0.0
 11
44.153364
 21
42.867088
 31
0.0
  0
LINE
  5
382
330
26
100
AcDbEntity
  8
2
100
AcDbLine
 10
39.15336400000001
 20
43.367088
 30
0.0
 11
39.15336400000001
 21
46.367088
 31
0.0
  0
LINE
  5
383
330
26
100
AcDbEntity
  8
2
100
AcDbLine
 10
83.15336399999999
 20
43.367088
 30
0.0
 11
83.15336399999999
 21
46.367088
 31
0.0
  0
LINE
  5
384
330
26
100
AcDbEntity
  8
2
100
AcDbLine
 10
42.153364
 20
42.867088
 30
0.0
 11
42.153364
 21
43.367088
 31
0.0
  0
LINE
  5
385
330
26
100
AcDbEntity
  8
2
100
AcDbLine
 10
80.153364
 20
42.867088
 30
0.0
 11
80.153364
 21
43.367088
 31
0.0
  0
ARC
  5
386
330
26
100
AcDbEntity
  8
2
100
AcDbCircle
 10
40.153364
 20
46.367088
 30
0.0
 40
1.0
100
AcDbArc
 50
90.0
 51
180.0
  0
ARC
  5
387
330
26
100
AcDbEntity
  8
2
100
AcDbCircle
 10
82.15336399999999
 20
46.367088
 30
0.0
 40
1.0
100
AcDbArc
 50
0.0
 51
90.0
  0
LINE
  5
388
330
26
100
AcDbEntity
  8
2
100
AcDbLine
 10
62.153364
 20
63.367088
 30
0.0
 11
60.153364
 21
63.367088
 31
0.0
  0
LINE
  5
389
330
26
100
AcDbEntity
  8
2
100
AcDbLine
 10
59.15336400000001
 20
43.367088
 30
0.0
 11
59.15336400000001
 21
62.367088
 31
0.0
  0
LINE
  5
38A
330
26
100
AcDbEntity
  8
2
100
AcDbLine
 10
63.153364
 20
43.367088
 30
0.0
 11
63.153364
 21
62.367088
 31
0.0
  0
ARC
  5
38B
330
26
100
AcDbEntity
  8
2
100
AcDbCircle
 10
62.153364
 20
62.367088
 30
0.0
 40
1.0
100
AcDbArc
 50
0.0
 51
90.0
  0
ARC
  5
38C
330
26
100
AcDbEntity
  8
2
100
AcDbCircle
 10
60.153364
 20
62.367088
 30
0.0
 40
1.0
100
AcDbArc
 50
90.0
 51
180.0
  0
LINE
  5
38D
330
26
100
AcDbEntity
  8
2
100
AcDbLine
 10
40.153364
 20
47.367088
 30
0.0
 11
58.153364
 21
47.367088
 31
0.0
  0
LINE
  5
38E
330
26
100
AcDbEntity
  8
2
100
AcDbLine
 10
64.153364
 20
47.367088
 30
0.0
 11
82.15336399999999
 21
47.367088
 31
0.0
  0
ARC
  5
38F
330
26
100
AcDbEntity
  8
2
100
AcDbCircle
 10
64.153364
 20
48.367088
 30
0.0
 40
1.0
100
AcDbArc
 50
180.0
 51
270.0
  0
ARC
  5
390
330
26
100
AcDbEntity
  8
2
100
AcDbCircle
 10
58.153364
 20
48.367088
 30
0.0
 40
1.0
100
AcDbArc
 50
270.0
 51
360.0
  0
LINE
  5
391
330
26
100
AcDbEntity
  8
2
100
AcDbLine
 10
60.153364
 20
57.367088
 30
0.0
 11
62.153364
 21
57.367088
 31
0.0
  0
ARC
  5
392
330
26
100
AcDbEntity
  8
2
100
AcDbCircle
 10
62.153364
 20
56.367088
 30
0.0
 40
1.0
100
AcDbArc
 50
0.0
 51
90.0
  0
ARC
  5
393
330
26
100
AcDbEntity
  8
2
100
AcDbCircle
 10
60.153364
 20
56.367088
 30
0.0
 40
1.0
100
AcDbArc
 50
90.0
 51
180.0
  0
LINE
  5
394
330
26
100
AcDbEntity
  8
2
100
AcDbLine
 10
36.804911
 20
40.66708799999999
 30
0.0
 11
81.501818
 21
40.66708799999999
 31
0.0
  0
LINE
  5
395
330
26
100
AcDbEntity
  8
2
100
AcDbLine
 10
88.804911
 20
40.66708799999999
 30
0.0
 11
106.001818
 21
40.66708799999999
 31
0.0
  0
LINE
  5
396
330
26
100
AcDbEntity
  8
2
100
AcDbLine
 10
-204.896636
 20
187.017088
 30
0.0
 11
-105.396636
 21
187.017088
 31
0.0
  0
LINE
  5
397
330
26
100
AcDbEntity
  8
2
100
AcDbLine
 10
-204.896636
 20
175.017088
 30
0.0
 11
-105.396636
 21
175.017088
 31
0.0
  0
LINE
  5
398
330
26
100
AcDbEntity
  8
2
100
AcDbLine
 10
-204.396636
 20
24.367088
 30
0.0
 11
-105.396636
 21
24.367088
 31
0.0
  0
LINE
  5
399
330
26
100
AcDbEntity
  8
2
100
AcDbLine
 10
-204.396636
 20
12.367088
 30
0.0
 11
-105.396636
 21
12.367088
 31
0.0
  0
CIRCLE
  5
39A
330
26
100
AcDbEntity
  8
2
  6
PHANTOM
 62
     2
100
AcDbCircle
 10
97.15336399999999
 20
18.367088
 30
0.0
 40
50.0
  0
ARC
  5
39B
330
26
100
AcDbEntity
  8
2
  6
PHANTOM
 62
     2
100
AcDbCircle
 10
97.15336399999999
 20
18.367088
 30
0.0
 40
35.0
100
AcDbArc
 50
351.988888
 51
8.777777999999999
  0
ARC
  5
39C
330
26
100
AcDbEntity
  8
2
  6
PHANTOM
 62
     2
100
AcDbCircle
 10
97.15336399999999
 20
18.367088
 30
0.0
 40
35.0
100
AcDbArc
 50
112.9
 51
128.177778
  0
ARC
  5
39D
330
26
100
AcDbEntity
  8
2
  6
PHANTOM
 62
     2
100
AcDbCircle
 10
97.15336399999999
 20
18.367088
 30
0.0
 40
35.0
100
AcDbArc
 50
231.177778
 51
247.877777
  0
ARC
  5
39E
330
26
100
AcDbEntity
  8
2
  6
PHANTOM
 62
     2
100
AcDbCircle
 10
92.15336399999999
 20
49.467088
 30
0.0
 40
3.5
100
AcDbArc
 50
99.166667
 51
213.011111
  0
ARC
  5
39F
330
26
100
AcDbEntity
  8
2
  6
PHANTOM
 62
     2
100
AcDbCircle
 10
97.15336399999999
 20
18.367088
 30
0.0
 40
35.0
100
AcDbArc
 50
20.822222
 51
99.17777800000001
  0
LINE
  5
3A0
330
26
100
AcDbEntity
  8
2
  6
PHANTOM
 62
     2
100
AcDbLine
 10
98.353364
 20
33.467088
 30
0.0
 11
89.20336400000001
 21
47.567088
 31
0.0
  0
ARC
  5
3A1
330
26
100
AcDbEntity
  8
2
  6
PHANTOM
 62
     2
100
AcDbCircle
 10
126.603364
 20
29.567088
 30
0.0
 40
3.5
100
AcDbArc
 50
266.988889
 51
20.833333
  0
LINE
  5
3A2
330
26
100
AcDbEntity
  8
2
  6
PHANTOM
 62
     2
100
AcDbLine
 10
109.653364
 20
26.967088
 30
0.0
 11
126.403364
 21
26.067088
 31
0.0
  0
ARC
  5
3A3
330
26
100
AcDbEntity
  8
2
  6
PHANTOM
 62
     2
100
AcDbCircle
 10
109.803364
 20
30.467088
 30
0.0
 40
3.5
100
AcDbArc
 50
223.655555
 51
267.0
  0
ARC
  5
3A4
330
26
100
AcDbEntity
  8
2
  6
PHANTOM
 62
     2
100
AcDbCircle
 10
97.15336399999999
 20
18.367088
 30
0.0
 40
14.0
100
AcDbArc
 50
43.66666699999999
 51
76.36666700000001
  0
ARC
  5
3A5
330
26
100
AcDbEntity
  8
2
  6
PHANTOM
 62
     2
100
AcDbCircle
 10
101.303364
 20
35.367088
 30
0.0
 40
3.5
100
AcDbArc
 50
213.0
 51
256.344444
  0
LINE
  5
3A6
330
26
100
AcDbEntity
  8
2
  6
PHANTOM
 62
     2
100
AcDbLine
 10
83.50336400000001
 20
24.867088
 30
0.0
 11
75.853364
 21
39.867088
 31
0.0
  0
ARC
  5
3A7
330
26
100
AcDbEntity
  8
2
  6
PHANTOM
 62
     2
100
AcDbCircle
 10
97.15336399999999
 20
18.367088
 30
0.0
 40
35.0
100
AcDbArc
 50
140.822222
 51
219.355555
  0
ARC
  5
3A8
330
26
100
AcDbEntity
  8
2
  6
PHANTOM
 62
     2
100
AcDbCircle
 10
72.753364
 20
38.267088
 30
0.0
 40
3.5
100
AcDbArc
 50
26.988889
 51
140.833333
  0
ARC
  5
3A9
330
26
100
AcDbEntity
  8
2
  6
PHANTOM
 62
     2
100
AcDbCircle
 10
72.753364
 20
-1.532912
 30
0.0
 40
3.5
100
AcDbArc
 50
219.166666
 51
333.011111
  0
LINE
  5
3AA
330
26
100
AcDbEntity
  8
2
  6
PHANTOM
 62
     2
100
AcDbLine
 10
83.50336400000001
 20
11.867088
 30
0.0
 11
75.853364
 21
-3.132911999999999
 31
0.0
  0
ARC
  5
3AB
330
26
100
AcDbEntity
  8
2
  6
PHANTOM
 62
     2
100
AcDbCircle
 10
80.353364
 20
13.467088
 30
0.0
 40
3.5
100
AcDbArc
 50
333.0
 51
16.344444
  0
ARC
  5
3AC
330
26
100
AcDbEntity
  8
2
  6
PHANTOM
 62
     2
100
AcDbCircle
 10
97.15336399999999
 20
18.367088
 30
0.0
 40
14.0
100
AcDbArc
 50
163.7
 51
196.3
  0
ARC
  5
3AD
330
26
100
AcDbEntity
  8
2
  6
PHANTOM
 62
     2
100
AcDbCircle
 10
80.353364
 20
23.267088
 30
0.0
 40
3.5
100
AcDbArc
 50
343.655555
 51
27.0
  0
ARC
  5
3AE
330
26
100
AcDbEntity
  8
2
  6
PHANTOM
 62
     2
100
AcDbCircle
 10
97.15336399999999
 20
18.367088
 30
0.0
 40
35.0
100
AcDbArc
 50
260.822222
 51
339.177777
  0
ARC
  5
3AF
330
26
100
AcDbEntity
  8
2
  6
PHANTOM
 62
     2
100
AcDbCircle
 10
126.603364
 20
7.167088
 30
0.0
 40
3.5
100
AcDbArc
 50
339.166666
 51
93.01111099999999
  0
LINE
  5
3B0
330
26
100
AcDbEntity
  8
2
  6
PHANTOM
 62
     2
100
AcDbLine
 10
109.653364
 20
9.767088000000001
 30
0.0
 11
126.403364
 21
10.667088
 31
0.0
  0
ARC
  5
3B1
330
26
100
AcDbEntity
  8
2
  6
PHANTOM
 62
     2
100
AcDbCircle
 10
109.803364
 20
6.267087999999999
 30
0.0
 40
3.5
100
AcDbArc
 50
93.0
 51
136.344444
  0
ARC
  5
3B2
330
26
100
AcDbEntity
  8
2
  6
PHANTOM
 62
     2
100
AcDbCircle
 10
97.15336399999999
 20
18.367088
 30
0.0
 40
14.0
100
AcDbArc
 50
283.633333
 51
316.333333
  0
ARC
  5
3B3
330
26
100
AcDbEntity
  8
2
  6
PHANTOM
 62
     2
100
AcDbCircle
 10
101.303364
 20
1.367087999999999
 30
0.0
 40
3.5
100
AcDbArc
 50
103.655555
 51
147.0
  0
LINE
  5
3B4
330
26
100
AcDbEntity
  8
2
  6
PHANTOM
 62
     2
100
AcDbLine
 10
98.353364
 20
3.267088
 30
0.0
 11
89.20336400000001
 21
-10.832912
 31
0.0
  0
ARC
  5
3B5
330
26
100
AcDbEntity
  8
2
  6
PHANTOM
 62
     2
100
AcDbCircle
 10
92.15336399999999
 20
-12.732912
 30
0.0
 40
3.5
100
AcDbArc
 50
146.988889
 51
260.833333
  0
CIRCLE
  5
3B6
330
26
100
AcDbEntity
  8
2
  6
PHANTOM
 62
     2
100
AcDbCircle
 10
97.15336399999999
 20
18.367088
 30
0.0
 40
12.0
  0
LINE
  5
3B7
330
26
100
AcDbEntity
  8
2
100
AcDbLine
 10
-88.39663599999999
 20
38.367088
 30
0.0
 11
-88.39663599999999
 21
-1.632912
 31
0.0
  0
LINE
  5
3B8
330
26
100
AcDbEntity
  8
2
100
AcDbLine
 10
-90.396636
 20
38.367088
 30
0.0
 11
-87.896636
 21
38.367088
 31
0.0
  0
LINE
  5
3B9
330
26
100
AcDbEntity
  8
2
100
AcDbLine
 10
-90.396636
 20
-1.632912
 30
0.0
 11
-87.896636
 21
-1.632912
 31
0.0
  0
LINE
  5
3BA
330
26
100
AcDbEntity
  8
2
100
AcDbLine
 10
-87.896636
 20
38.367088
 30
0.0
 11
-87.896636
 21
-1.632912
 31
0.0
  0
LINE
  5
3BB
330
26
100
AcDbEntity
  8
2
100
AcDbLine
 10
-86.396636
 20
23.367088
 30
0.0
 11
-82.396636
 21
23.367088
 31
0.0
  0
LINE
  5
3BC
330
26
100
AcDbEntity
  8
2
100
AcDbLine
 10
-86.396636
 20
18.367088
 30
0.0
 11
-82.887383
 21
18.367088
 31
0.0
  0
ARC
  5
3BD
330
26
100
AcDbEntity
  8
2
100
AcDbCircle
 10
-89.00984300000001
 20
20.867088
 30
0.0
 40
6.613208
100
AcDbArc
 50
337.788205
 51
22.211795
  0
LINE
  5
3BE
330
26
100
AcDbEntity
  8
2
100
AcDbLine
 10
-86.396636
 20
13.367088
 30
0.0
 11
-82.396636
 21
13.367088
 31
0.0
  0
LINE
  5
3BF
330
26
100
AcDbEntity
  8
2
100
AcDbLine
 10
-82.396636
 20
13.367088
 30
0.0
 11
-82.396636
 21
23.367088
 31
0.0
  0
ARC
  5
3C0
330
26
100
AcDbEntity
  8
2
100
AcDbCircle
 10
-89.00984300000001
 20
15.867088
 30
0.0
 40
6.613208
100
AcDbArc
 50
337.788205
 51
22.211795
  0
LINE
  5
3C1
330
26
100
AcDbEntity
  8
2
100
AcDbLine
 10
-87.896636
 20
24.467088
 30
0.0
 11
-86.396636
 21
24.467088
 31
0.0
  0
LINE
  5
3C2
330
26
100
AcDbEntity
  8
2
100
AcDbLine
 10
-86.396636
 20
24.467088
 30
0.0
 11
-86.396636
 21
12.267088
 31
0.0
  0
LINE
  5
3C3
330
26
100
AcDbEntity
  8
2
100
AcDbLine
 10
-86.396636
 20
12.267088
 30
0.0
 11
-87.896636
 21
12.267088
 31
0.0
  0
LINE
  5
3C4
330
26
100
AcDbEntity
  8
2
100
AcDbLine
 10
-88.39663599999999
 20
201.017088
 30
0.0
 11
-88.39663599999999
 21
161.017088
 31
0.0
  0
LINE
  5
3C5
330
26
100
AcDbEntity
  8
2
100
AcDbLine
 10
-90.396636
 20
201.017088
 30
0.0
 11
-87.896636
 21
201.017088
 31
0.0
  0
LINE
  5
3C6
330
26
100
AcDbEntity
  8
2
100
AcDbLine
 10
-90.396636
 20
161.017088
 30
0.0
 11
-87.896636
 21
161.017088
 31
0.0
  0
LINE
  5
3C7
330
26
100
AcDbEntity
  8
2
100
AcDbLine
 10
-87.896636
 20
201.017088
 30
0.0
 11
-87.896636
 21
161.017088
 31
0.0
  0
LINE
  5
3C8
330
26
100
AcDbEntity
  8
2
100
AcDbLine
 10
-86.396636
 20
186.767088
 30
0.0
 11
-82.887383
 21
186.767088
 31
0.0
  0
LINE
  5
3C9
330
26
100
AcDbEntity
  8
2
100
AcDbLine
 10
-82.887383
 20
186.767088
 30
0.0
 11
-82.396636
 21
185.9170879999999
 31
0.0
  0
LINE
  5
3CA
330
26
100
AcDbEntity
  8
2
100
AcDbLine
 10
-82.396636
 20
185.9170879999999
 30
0.0
 11
-82.396636
 21
176.117088
 31
0.0
  0
LINE
  5
3CB
330
26
100
AcDbEntity
  8
2
100
AcDbLine
 10
-86.396636
 20
183.892088
 30
0.0
 11
-82.887383
 21
183.892088
 31
0.0
  0
ARC
  5
3CC
330
26
100
AcDbEntity
  8
2
100
AcDbCircle
 10
-84.735338
 20
185.329588
 30
0.0
 40
2.341226999999999
100
AcDbArc
 50
322.121121
 51
37.878879
  0
LINE
  5
3CD
330
26
100
AcDbEntity
  8
2
100
AcDbLine
 10
-86.396636
 20
175.267088
 30
0.0
 11
-82.887383
 21
175.267088
 31
0.0
  0
LINE
  5
3CE
330
26
100
AcDbEntity
  8
2
100
AcDbLine
 10
-82.887383
 20
175.267088
 30
0.0
 11
-82.396636
 21
176.117088
 31
0.0
  0
LINE
  5
3CF
330
26
100
AcDbEntity
  8
2
100
AcDbLine
 10
-86.396636
 20
178.142088
 30
0.0
 11
-82.887383
 21
178.142088
 31
0.0
  0
ARC
  5
3D0
330
26
100
AcDbEntity
  8
2
100
AcDbCircle
 10
-84.735338
 20
176.704588
 30
0.0
 40
2.341226999999999
100
AcDbArc
 50
322.121121
 51
37.878879
  0
ARC
  5
3D1
330
26
100
AcDbEntity
  8
2
100
AcDbCircle
 10
-91.019111
 20
181.017088
 30
0.0
 40
8.625
100
AcDbArc
 50
340.528779
 51
19.471221
  0
LINE
  5
3D2
330
26
100
AcDbEntity
  8
2
100
AcDbLine
 10
-87.896636
 20
187.117088
 30
0.0
 11
-86.396636
 21
187.117088
 31
0.0
  0
LINE
  5
3D3
330
26
100
AcDbEntity
  8
2
100
AcDbLine
 10
-86.396636
 20
187.117088
 30
0.0
 11
-86.396636
 21
174.917088
 31
0.0
  0
LINE
  5
3D4
330
26
100
AcDbEntity
  8
2
100
AcDbLine
 10
-86.396636
 20
174.917088
 30
0.0
 11
-87.896636
 21
174.917088
 31
0.0
  0
LINE
  5
3D5
330
26
100
AcDbEntity
  8
2
100
AcDbLine
 10
-86.396636
 20
181.017088
 30
0.0
 11
-87.896636
 21
180.517088
 31
0.0
  0
LINE
  5
3D6
330
26
100
AcDbEntity
  8
2
100
AcDbLine
 10
-87.896636
 20
181.017088
 30
0.0
 11
-86.396636
 21
181.517088
 31
0.0
  0
LINE
  5
3D7
330
26
100
AcDbEntity
  8
2
100
AcDbLine
 10
-90.396636
 20
223.517088
 30
0.0
 11
-90.396636
 21
138.517088
 31
0.0
  0
ARC
  5
3D8
330
26
100
AcDbEntity
  8
2
100
AcDbCircle
 10
-97.896636
 20
223.517088
 30
0.0
 40
7.5
100
AcDbArc
 50
0.0
 51
180.0
  0
LINE
  5
3D9
330
26
100
AcDbEntity
  8
2
100
AcDbLine
 10
-105.396636
 20
169.017088
 30
0.0
 11
-105.396636
 21
193.017088
 31
0.0
  0
ARC
  5
3DA
330
26
100
AcDbEntity
  8
2
100
AcDbCircle
 10
-97.896636
 20
179.954588
 30
0.0
 40
15.0625
100
AcDbArc
 50
113.47446
 51
119.862834
  0
ARC
  5
3DB
330
26
100
AcDbEntity
  8
2
100
AcDbCircle
 10
-97.896636
 20
182.079588
 30
0.0
 40
15.0625
100
AcDbArc
 50
240.137166
 51
246.544162
  0
LINE
  5
3DC
330
26
100
AcDbEntity
  8
2
100
AcDbLine
 10
-97.896636
 20
177.817205
 30
0.0
 11
-97.896636
 21
184.216972
 31
0.0
  0
LINE
  5
3DD
330
26
100
AcDbEntity
  8
2
100
AcDbLine
 10
-103.896636
 20
179.366741
 30
0.0
 11
-103.896636
 21
182.667436
 31
0.0
  0
LINE
  5
3DE
330
26
100
AcDbEntity
  8
2
100
AcDbLine
 10
-97.896636
 20
193.365226
 30
0.0
 11
-97.89663500000001
 21
199.235901
 31
0.0
  0
LINE
  5
3DF
330
26
100
AcDbEntity
  8
2
100
AcDbLine
 10
-103.896636
 20
192.608026
 30
0.0
 11
-103.896636
 21
198.536813
 31
0.0
  0
ARC
  5
3E0
330
26
100
AcDbEntity
  8
2
100
AcDbCircle
 10
-98.204319
 20
131.991902
 30
0.0
 40
54.25248199999999
100
AcDbArc
 50
91.85598
 51
97.294014
  0
ARC
  5
3E1
330
26
100
AcDbEntity
  8
2
100
AcDbCircle
 10
-98.204319
 20
230.042274
 30
0.0
 40
54.25248199999999
100
AcDbArc
 50
262.705986
 51
268.14402
  0
ARC
  5
3E2
330
26
100
AcDbEntity
  8
2
100
AcDbCircle
 10
-99.896636
 20
184.216972
 30
0.0
 40
2.0
100
AcDbArc
 50
0.0
 51
91.85598
  0
ARC
  5
3E3
330
26
100
AcDbEntity
  8
2
100
AcDbCircle
 10
-99.896636
 20
177.817205
 30
0.0
 40
2.0
100
AcDbArc
 50
268.14402
 51
360.0
  0
ARC
  5
3E4
330
26
100
AcDbEntity
  8
2
100
AcDbCircle
 10
-106.896636
 20
182.667436
 30
0.0
 40
3.0
100
AcDbArc
 50
0.0
 51
56.49184399999999
  0
ARC
  5
3E5
330
26
100
AcDbEntity
  8
2
100
AcDbCircle
 10
-105.048005
 20
185.459548
 30
0.0
 40
0.34863
100
AcDbArc
 50
97.294014
 51
236.491844
  0
ARC
  5
3E6
330
26
100
AcDbEntity
  8
2
100
AcDbCircle
 10
-106.896636
 20
179.366741
 30
0.0
 40
3.0
100
AcDbArc
 50
303.508156
 51
360.0
  0
ARC
  5
3E7
330
26
100
AcDbEntity
  8
2
100
AcDbCircle
 10
-105.048005
 20
176.574629
 30
0.0
 40
0.34863
100
AcDbArc
 50
123.508156
 51
262.705986
  0
ARC
  5
3E8
330
26
100
AcDbEntity
  8
2
100
AcDbCircle
 10
-98.15625400000001
 20
186.709111
 30
0.0
 40
14.64711
100
AcDbArc
 50
97.909628
 51
114.857013
  0
ARC
  5
3E9
330
26
100
AcDbEntity
  8
2
100
AcDbCircle
 10
-98.194271
 20
163.850134
 30
0.0
 40
27.564145
100
AcDbArc
 50
93.30103599999999
 51
103.87463
  0
ARC
  5
3EA
330
26
100
AcDbEntity
  8
2
100
AcDbCircle
 10
-99.896636
 20
193.365226
 30
0.0
 40
2.0
100
AcDbArc
 50
273.301036
 51
360.0
  0
ARC
  5
3EB
330
26
100
AcDbEntity
  8
2
100
AcDbCircle
 10
-99.896636
 20
199.235901
 30
0.0
 40
2.0
100
AcDbArc
 50
0.0
 51
97.909628
  0
ARC
  5
3EC
330
26
100
AcDbEntity
  8
2
100
AcDbCircle
 10
-103.527572
 20
198.303396
 30
0.0
 40
1.869063
100
AcDbArc
 50
114.857013
 51
226.21672
  0
ARC
  5
3ED
330
26
100
AcDbEntity
  8
2
100
AcDbCircle
 10
-104.617195
 20
189.853335
 30
0.0
 40
0.779441
100
AcDbArc
 50
103.87463
 51
180.0
  0
ARC
  5
3EE
330
26
100
AcDbEntity
  8
2
100
AcDbCircle
 10
-106.896636
 20
194.788116
 30
0.0
 40
3.0
100
AcDbArc
 50
0.0
 51
46.21672
  0
ARC
  5
3EF
330
26
100
AcDbEntity
  8
2
100
AcDbCircle
 10
-106.396636
 20
192.608026
 30
0.0
 40
2.5
100
AcDbArc
 50
302.861145
 51
360.0
  0
ARC
  5
3F0
330
26
100
AcDbEntity
  8
2
100
AcDbCircle
 10
-98.06843499999999
 20
204.791414
 30
0.0
 40
9.683728999999999
100
AcDbArc
 50
103.764481
 51
126.405649
  0
LINE
  5
3F1
330
26
100
AcDbEntity
  8
2
100
AcDbLine
 10
-97.896636
 20
207.909205
 30
0.0
 11
-97.896636
 21
212.254481
 31
0.0
  0
ARC
  5
3F2
330
26
100
AcDbEntity
  8
2
100
AcDbCircle
 10
-98.129947
 20
193.791142
 30
0.0
 40
12.228172
100
AcDbArc
 50
97.13272899999999
 51
119.31396
  0
ARC
  5
3F3
330
26
100
AcDbEntity
  8
2
100
AcDbCircle
 10
-99.896636
 20
212.254481
 30
0.0
 40
2.0
100
AcDbArc
 50
0.0
 51
103.764481
  0
ARC
  5
3F4
330
26
100
AcDbEntity
  8
2
100
AcDbCircle
 10
-99.896636
 20
207.909205
 30
0.0
 40
2.0
100
AcDbArc
 50
277.132729
 51
360.0
  0
LINE
  5
3F5
330
26
100
AcDbEntity
  8
2
100
AcDbLine
 10
-103.896636
 20
204.574161
 30
0.0
 11
-103.896636
 21
210.536455
 31
0.0
  0
ARC
  5
3F6
330
26
100
AcDbEntity
  8
2
100
AcDbCircle
 10
-101.50754
 20
209.455139
 30
0.0
 40
3.889095999999999
100
AcDbArc
 50
126.405649
 51
218.53161
  0
ARC
  5
3F7
330
26
100
AcDbEntity
  8
2
100
AcDbCircle
 10
-102.889142
 20
202.267088
 30
0.0
 40
2.507493
100
AcDbArc
 50
119.31396
 51
180.0
  0
ARC
  5
3F8
330
26
100
AcDbEntity
  8
2
100
AcDbCircle
 10
-106.896636
 20
205.163602
 30
0.0
 40
3.0
100
AcDbArc
 50
0.0
 51
38.53161
  0
LINE
  5
3F9
330
26
100
AcDbEntity
  8
2
100
AcDbLine
 10
-105.396636
 20
198.303396
 30
0.0
 11
-105.396636
 21
202.267088
 31
0.0
  0
ARC
  5
3FA
330
26
100
AcDbEntity
  8
2
100
AcDbCircle
 10
-97.97440600000001
 20
216.191971
 30
0.0
 40
8.126758999999999
100
AcDbArc
 50
102.393185
 51
133.280016
  0
ARC
  5
3FB
330
26
100
AcDbEntity
  8
2
100
AcDbCircle
 10
-98.03591800000001
 20
209.196307
 30
0.0
 40
8.979103
100
AcDbArc
 50
97.46095600000002
 51
129.149456
  0
LINE
  5
3FC
330
26
100
AcDbEntity
  8
2
100
AcDbLine
 10
-97.896636
 20
219.586689
 30
0.0
 11
-97.896636
 21
222.664313
 31
0.0
  0
LINE
  5
3FD
330
26
100
AcDbEntity
  8
2
100
AcDbLine
 10
-97.896636
 20
227.643695
 30
0.0
 11
-97.896649
 21
228.850169
 31
0.0
  0
LINE
  5
3FE
330
26
100
AcDbEntity
  8
2
100
AcDbLine
 10
-103.896636
 20
215.994469
 30
0.0
 11
-103.896636
 21
219.165376
 31
0.0
  0
ARC
  5
3FF
330
26
100
AcDbEntity
  8
2
100
AcDbCircle
 10
-99.510494
 20
217.823168
 30
0.0
 40
5.886141
100
AcDbArc
 50
133.280016
 51
208.241155
  0
ARC
  5
400
330
26
100
AcDbEntity
  8
2
100
AcDbCircle
 10
-100.807512
 20
212.600743
 30
0.0
 40
4.589123999999999
100
AcDbArc
 50
129.149456
 51
180.0
  0
LINE
  5
401
330
26
100
AcDbEntity
  8
2
100
AcDbLine
 10
-105.396636
 20
209.455139
 30
0.0
 11
-105.396636
 21
212.600743
 31
0.0
  0
ARC
  5
402
330
26
100
AcDbEntity
  8
2
100
AcDbCircle
 10
-97.91008300000001
 20
222.338643
 30
0.0
 40
7.585836999999999
100
AcDbArc
 50
98.61528800000002
 51
136.635861
  0
ARC
  5
403
330
26
100
AcDbEntity
  8
2
100
AcDbCircle
 10
-97.948099
 20
218.819493
 30
0.0
 40
7.875035999999999
100
AcDbArc
 50
96.135312
 51
134.747415
  0
ARC
  5
404
330
26
100
AcDbEntity
  8
2
100
AcDbCircle
 10
-99.39663600000001
 20
219.586689
 30
0.0
 40
1.5
100
AcDbArc
 50
277.460956
 51
360.0
  0
ARC
  5
405
330
26
100
AcDbEntity
  8
2
100
AcDbCircle
 10
-99.39663600000001
 20
222.664313
 30
0.0
 40
1.5
100
AcDbArc
 50
0.0
 51
102.393185
  0
ARC
  5
406
330
26
100
AcDbEntity
  8
2
100
AcDbCircle
 10
-98.896636
 20
227.643695
 30
0.0
 40
1.0
100
AcDbArc
 50
276.135312
 51
360.0
  0
ARC
  5
407
330
26
100
AcDbEntity
  8
2
100
AcDbCircle
 10
-98.896636
 20
228.850169
 30
0.0
 40
1.0
100
AcDbArc
 50
0.0
 51
98.61528800000002
  0
ARC
  5
408
330
26
100
AcDbEntity
  8
2
100
AcDbCircle
 10
-98.17448399999999
 20
222.588361
 30
0.0
 40
7.222152
100
AcDbArc
 50
136.635861
 51
191.281293
  0
ARC
  5
409
330
26
100
AcDbEntity
  8
2
100
AcDbCircle
 10
-98.96239399999998
 20
219.84277
 30
0.0
 40
6.434241
100
AcDbArc
 50
134.747415
 51
180.0
  0
LINE
  5
40A
330
26
100
AcDbEntity
  8
2
100
AcDbLine
 10
-105.396636
 20
217.823168
 30
0.0
 11
-105.396636
 21
219.84277
 31
0.0
  0
LINE
  5
40B
330
26
100
AcDbEntity
  8
2
100
AcDbLine
 10
-105.396636
 20
222.588361
 30
0.0
 11
-105.396636
 21
223.517088
 31
0.0
  0
ARC
  5
40C
330
26
100
AcDbEntity
  8
2
100
AcDbCircle
 10
-97.896636
 20
138.517088
 30
0.0
 40
7.5
100
AcDbArc
 50
180.0
 51
360.0
  0
LINE
  5
40D
330
26
100
AcDbEntity
  8
2
100
AcDbLine
 10
-97.896636
 20
168.66895
 30
0.0
 11
-97.89663500000001
 21
162.798275
 31
0.0
  0
LINE
  5
40E
330
26
100
AcDbEntity
  8
2
100
AcDbLine
 10
-103.896636
 20
169.42615
 30
0.0
 11
-103.896636
 21
163.497364
 31
0.0
  0
ARC
  5
40F
330
26
100
AcDbEntity
  8
2
100
AcDbCircle
 10
-98.15625400000001
 20
175.325066
 30
0.0
 40
14.64711
100
AcDbArc
 50
245.142987
 51
262.090372
  0
ARC
  5
410
330
26
100
AcDbEntity
  8
2
100
AcDbCircle
 10
-98.194271
 20
198.184042
 30
0.0
 40
27.564145
100
AcDbArc
 50
256.12537
 51
266.698964
  0
ARC
  5
411
330
26
100
AcDbEntity
  8
2
100
AcDbCircle
 10
-99.896636
 20
168.66895
 30
0.0
 40
2.0
100
AcDbArc
 50
0.0
 51
86.698964
  0
ARC
  5
412
330
26
100
AcDbEntity
  8
2
100
AcDbCircle
 10
-99.896636
 20
162.798275
 30
0.0
 40
2.0
100
AcDbArc
 50
262.090372
 51
360.0
  0
ARC
  5
413
330
26
100
AcDbEntity
  8
2
100
AcDbCircle
 10
-103.527572
 20
163.730781
 30
0.0
 40
1.869063
100
AcDbArc
 50
133.78328
 51
245.142987
  0
ARC
  5
414
330
26
100
AcDbEntity
  8
2
100
AcDbCircle
 10
-104.617195
 20
172.180841
 30
0.0
 40
0.779441
100
AcDbArc
 50
180.0
 51
256.12537
  0
ARC
  5
415
330
26
100
AcDbEntity
  8
2
100
AcDbCircle
 10
-106.896636
 20
167.24606
 30
0.0
 40
3.0
100
AcDbArc
 50
313.78328
 51
360.0
  0
ARC
  5
416
330
26
100
AcDbEntity
  8
2
100
AcDbCircle
 10
-106.396636
 20
169.42615
 30
0.0
 40
2.5
100
AcDbArc
 50
0.0
 51
57.138855
  0
ARC
  5
417
330
26
100
AcDbEntity
  8
2
100
AcDbCircle
 10
-98.06843499999999
 20
157.242763
 30
0.0
 40
9.683728999999999
100
AcDbArc
 50
233.594351
 51
256.235519
  0
LINE
  5
418
330
26
100
AcDbEntity
  8
2
100
AcDbLine
 10
-97.896636
 20
154.124972
 30
0.0
 11
-97.896636
 21
149.779696
 31
0.0
  0
ARC
  5
419
330
26
100
AcDbEntity
  8
2
100
AcDbCircle
 10
-98.129947
 20
168.243034
 30
0.0
 40
12.228172
100
AcDbArc
 50
240.68604
 51
262.867271
  0
ARC
  5
41A
330
26
100
AcDbEntity
  8
2
100
AcDbCircle
 10
-99.896636
 20
149.779696
 30
0.0
 40
2.0
100
AcDbArc
 50
256.235519
 51
360.0
  0
ARC
  5
41B
330
26
100
AcDbEntity
  8
2
100
AcDbCircle
 10
-99.896636
 20
154.124972
 30
0.0
 40
2.0
100
AcDbArc
 50
0.0
 51
82.867271
  0
LINE
  5
41C
330
26
100
AcDbEntity
  8
2
100
AcDbLine
 10
-103.896636
 20
157.460015
 30
0.0
 11
-103.896636
 21
151.497721
 31
0.0
  0
ARC
  5
41D
330
26
100
AcDbEntity
  8
2
100
AcDbCircle
 10
-101.50754
 20
152.579038
 30
0.0
 40
3.889095999999999
100
AcDbArc
 50
141.46839
 51
233.594351
  0
ARC
  5
41E
330
26
100
AcDbEntity
  8
2
100
AcDbCircle
 10
-102.889142
 20
159.767088
 30
0.0
 40
2.507493
100
AcDbArc
 50
180.0
 51
240.68604
  0
ARC
  5
41F
330
26
100
AcDbEntity
  8
2
100
AcDbCircle
 10
-106.896636
 20
156.870574
 30
0.0
 40
3.0
100
AcDbArc
 50
321.46839
 51
360.0
  0
LINE
  5
420
330
26
100
AcDbEntity
  8
2
100
AcDbLine
 10
-105.396636
 20
163.730781
 30
0.0
 11
-105.396636
 21
159.767088
 31
0.0
  0
ARC
  5
421
330
26
100
AcDbEntity
  8
2
100
AcDbCircle
 10
-97.97440600000001
 20
145.842205
 30
0.0
 40
8.126758999999999
100
AcDbArc
 50
226.719984
 51
257.606815
  0
ARC
  5
422
330
26
100
AcDbEntity
  8
2
100
AcDbCircle
 10
-98.03591800000001
 20
152.83787
 30
0.0
 40
8.979103
100
AcDbArc
 50
230.850544
 51
262.539044
  0
LINE
  5
423
330
26
100
AcDbEntity
  8
2
100
AcDbLine
 10
-97.896636
 20
142.447487
 30
0.0
 11
-97.896636
 21
139.3698639999999
 31
0.0
  0
LINE
  5
424
330
26
100
AcDbEntity
  8
2
100
AcDbLine
 10
-97.896636
 20
134.390481
 30
0.0
 11
-97.896649
 21
133.184008
 31
0.0
  0
LINE
  5
425
330
26
100
AcDbEntity
  8
2
100
AcDbLine
 10
-103.896636
 20
146.039708
 30
0.0
 11
-103.896636
 21
142.8688
 31
0.0
  0
ARC
  5
426
330
26
100
AcDbEntity
  8
2
100
AcDbCircle
 10
-99.510494
 20
144.211009
 30
0.0
 40
5.886141
100
AcDbArc
 50
151.758845
 51
226.719984
  0
ARC
  5
427
330
26
100
AcDbEntity
  8
2
100
AcDbCircle
 10
-100.807512
 20
149.433433
 30
0.0
 40
4.589123999999999
100
AcDbArc
 50
180.0
 51
230.850544
  0
LINE
  5
428
330
26
100
AcDbEntity
  8
2
100
AcDbLine
 10
-105.396636
 20
152.579038
 30
0.0
 11
-105.396636
 21
149.433433
 31
0.0
  0
ARC
  5
429
330
26
100
AcDbEntity
  8
2
100
AcDbCircle
 10
-97.91008300000001
 20
139.695534
 30
0.0
 40
7.585836999999999
100
AcDbArc
 50
223.364139
 51
261.384712
  0
ARC
  5
42A
330
26
100
AcDbEntity
  8
2
100
AcDbCircle
 10
-97.948099
 20
143.214684
 30
0.0
 40
7.875035999999999
100
AcDbArc
 50
225.252585
 51
263.864688
  0
ARC
  5
42B
330
26
100
AcDbEntity
  8
2
100
AcDbCircle
 10
-99.39663600000001
 20
142.447487
 30
0.0
 40
1.5
100
AcDbArc
 50
0.0
 51
82.53904399999999
  0
ARC
  5
42C
330
26
100
AcDbEntity
  8
2
100
AcDbCircle
 10
-99.39663600000001
 20
139.3698639999999
 30
0.0
 40
1.5
100
AcDbArc
 50
257.606815
 51
360.0
  0
ARC
  5
42D
330
26
100
AcDbEntity
  8
2
100
AcDbCircle
 10
-98.896636
 20
134.390481
 30
0.0
 40
1.0
100
AcDbArc
 50
0.0
 51
83.86468800000001
  0
ARC
  5
42E
330
26
100
AcDbEntity
  8
2
100
AcDbCircle
 10
-98.896636
 20
133.184008
 30
0.0
 40
1.0
100
AcDbArc
 50
261.384712
 51
360.0
  0
ARC
  5
42F
330
26
100
AcDbEntity
  8
2
100
AcDbCircle
 10
-98.17448399999999
 20
139.445815
 30
0.0
 40
7.222152
100
AcDbArc
 50
168.718707
 51
223.364139
  0
ARC
  5
430
330
26
100
AcDbEntity
  8
2
100
AcDbCircle
 10
-98.96239399999998
 20
142.191406
 30
0.0
 40
6.434241
100
AcDbArc
 50
180.0
 51
225.252585
  0
LINE
  5
431
330
26
100
AcDbEntity
  8
2
100
AcDbLine
 10
-105.396636
 20
144.211009
 30
0.0
 11
-105.396636
 21
142.191406
 31
0.0
  0
LINE
  5
432
330
26
100
AcDbEntity
  8
2
100
AcDbLine
 10
-105.396636
 20
139.445815
 30
0.0
 11
-105.396636
 21
138.517088
 31
0.0
  0
LINE
  5
433
330
26
100
AcDbEntity
  8
2
100
AcDbLine
 10
-90.396636
 20
60.867088
 30
0.0
 11
-90.396636
 21
-24.132912
 31
0.0
  0
ARC
  5
434
330
26
100
AcDbEntity
  8
2
100
AcDbCircle
 10
-97.896636
 20
60.867088
 30
0.0
 40
7.5
100
AcDbArc
 50
0.0
 51
180.0
  0
LINE
  5
435
330
26
100
AcDbEntity
  8
2
100
AcDbLine
 10
-105.396636
 20
6.367087999999999
 30
0.0
 11
-105.396636
 21
30.367088
 31
0.0
  0
ARC
  5
436
330
26
100
AcDbEntity
  8
2
100
AcDbCircle
 10
-97.896636
 20
17.304588
 30
0.0
 40
15.0625
100
AcDbArc
 50
113.47446
 51
119.862834
  0
ARC
  5
437
330
26
100
AcDbEntity
  8
2
100
AcDbCircle
 10
-97.896636
 20
19.429588
 30
0.0
 40
15.0625
100
AcDbArc
 50
240.137166
 51
246.544162
  0
LINE
  5
438
330
26
100
AcDbEntity
  8
2
100
AcDbLine
 10
-97.896636
 20
15.167205
 30
0.0
 11
-97.896636
 21
21.566972
 31
0.0
  0
LINE
  5
439
330
26
100
AcDbEntity
  8
2
100
AcDbLine
 10
-103.896636
 20
16.716741
 30
0.0
 11
-103.896636
 21
20.017436
 31
0.0
  0
LINE
  5
43A
330
26
100
AcDbEntity
  8
2
100
AcDbLine
 10
-97.896636
 20
30.715226
 30
0.0
 11
-97.89663500000001
 21
36.585901
 31
0.0
  0
LINE
  5
43B
330
26
100
AcDbEntity
  8
2
100
AcDbLine
 10
-103.896636
 20
29.958026
 30
0.0
 11
-103.896636
 21
35.88681300000001
 31
0.0
  0
ARC
  5
43C
330
26
100
AcDbEntity
  8
2
100
AcDbCircle
 10
-98.204319
 20
-30.658098
 30
0.0
 40
54.25248199999999
100
AcDbArc
 50
91.85598
 51
97.294014
  0
ARC
  5
43D
330
26
100
AcDbEntity
  8
2
100
AcDbCircle
 10
-98.204319
 20
67.392274
 30
0.0
 40
54.25248199999999
100
AcDbArc
 50
262.705986
 51
268.14402
  0
ARC
  5
43E
330
26
100
AcDbEntity
  8
2
100
AcDbCircle
 10
-99.896636
 20
21.566972
 30
0.0
 40
2.0
100
AcDbArc
 50
0.0
 51
91.85598
  0
ARC
  5
43F
330
26
100
AcDbEntity
  8
2
100
AcDbCircle
 10
-99.896636
 20
15.167205
 30
0.0
 40
2.0
100
AcDbArc
 50
268.14402
 51
360.0
  0
ARC
  5
440
330
26
100
AcDbEntity
  8
2
100
AcDbCircle
 10
-106.896636
 20
20.017436
 30
0.0
 40
3.0
100
AcDbArc
 50
0.0
 51
56.49184399999999
  0
ARC
  5
441
330
26
100
AcDbEntity
  8
2
100
AcDbCircle
 10
-105.048005
 20
22.809548
 30
0.0
 40
0.34863
100
AcDbArc
 50
97.294014
 51
236.491844
  0
ARC
  5
442
330
26
100
AcDbEntity
  8
2
100
AcDbCircle
 10
-106.896636
 20
16.716741
 30
0.0
 40
3.0
100
AcDbArc
 50
303.508156
 51
360.0
  0
ARC
  5
443
330
26
100
AcDbEntity
  8
2
100
AcDbCircle
 10
-105.048005
 20
13.924629
 30
0.0
 40
0.34863
100
AcDbArc
 50
123.508156
 51
262.705986
  0
ARC
  5
444
330
26
100
AcDbEntity
  8
2
100
AcDbCircle
 10
-98.15625400000001
 20
24.059111
 30
0.0
 40
14.64711
100
AcDbArc
 50
97.909628
 51
114.857013
  0
ARC
  5
445
330
26
100
AcDbEntity
  8
2
100
AcDbCircle
 10
-98.194271
 20
1.200134
 30
0.0
 40
27.564145
100
AcDbArc
 50
93.30103599999999
 51
103.87463
  0
ARC
  5
446
330
26
100
AcDbEntity
  8
2
100
AcDbCircle
 10
-99.896636
 20
30.715226
 30
0.0
 40
2.0
100
AcDbArc
 50
273.301036
 51
360.0
  0
ARC
  5
447
330
26
100
AcDbEntity
  8
2
100
AcDbCircle
 10
-99.896636
 20
36.585901
 30
0.0
 40
2.0
100
AcDbArc
 50
0.0
 51
97.909628
  0
ARC
  5
448
330
26
100
AcDbEntity
  8
2
100
AcDbCircle
 10
-103.527572
 20
35.653396
 30
0.0
 40
1.869063
100
AcDbArc
 50
114.857013
 51
226.21672
  0
ARC
  5
449
330
26
100
AcDbEntity
  8
2
100
AcDbCircle
 10
-104.617195
 20
27.203335
 30
0.0
 40
0.779441
100
AcDbArc
 50
103.87463
 51
180.0
  0
ARC
  5
44A
330
26
100
AcDbEntity
  8
2
100
AcDbCircle
 10
-106.896636
 20
32.138116
 30
0.0
 40
3.0
100
AcDbArc
 50
0.0
 51
46.21672
  0
ARC
  5
44B
330
26
100
AcDbEntity
  8
2
100
AcDbCircle
 10
-106.396636
 20
29.958026
 30
0.0
 40
2.5
100
AcDbArc
 50
302.861145
 51
360.0
  0
ARC
  5
44C
330
26
100
AcDbEntity
  8
2
100
AcDbCircle
 10
-98.06843499999999
 20
42.141414
 30
0.0
 40
9.683728999999999
100
AcDbArc
 50
103.764481
 51
126.405649
  0
LINE
  5
44D
330
26
100
AcDbEntity
  8
2
100
AcDbLine
 10
-97.896636
 20
45.259205
 30
0.0
 11
-97.896636
 21
49.604481
 31
0.0
  0
ARC
  5
44E
330
26
100
AcDbEntity
  8
2
100
AcDbCircle
 10
-98.129947
 20
31.141142
 30
0.0
 40
12.228172
100
AcDbArc
 50
97.13272899999999
 51
119.31396
  0
ARC
  5
44F
330
26
100
AcDbEntity
  8
2
100
AcDbCircle
 10
-99.896636
 20
49.604481
 30
0.0
 40
2.0
100
AcDbArc
 50
0.0
 51
103.764481
  0
ARC
  5
450
330
26
100
AcDbEntity
  8
2
100
AcDbCircle
 10
-99.896636
 20
45.259205
 30
0.0
 40
2.0
100
AcDbArc
 50
277.132729
 51
360.0
  0
LINE
  5
451
330
26
100
AcDbEntity
  8
2
100
AcDbLine
 10
-103.896636
 20
41.92416099999999
 30
0.0
 11
-103.896636
 21
47.886455
 31
0.0
  0
ARC
  5
452
330
26
100
AcDbEntity
  8
2
100
AcDbCircle
 10
-101.50754
 20
46.805139
 30
0.0
 40
3.889095999999999
100
AcDbArc
 50
126.405649
 51
218.53161
  0
ARC
  5
453
330
26
100
AcDbEntity
  8
2
100
AcDbCircle
 10
-102.889142
 20
39.617088
 30
0.0
 40
2.507493
100
AcDbArc
 50
119.31396
 51
180.0
  0
ARC
  5
454
330
26
100
AcDbEntity
  8
2
100
AcDbCircle
 10
-106.896636
 20
42.51360199999999
 30
0.0
 40
3.0
100
AcDbArc
 50
0.0
 51
38.53161
  0
LINE
  5
455
330
26
100
AcDbEntity
  8
2
100
AcDbLine
 10
-105.396636
 20
35.653396
 30
0.0
 11
-105.396636
 21
39.617088
 31
0.0
  0
ARC
  5
456
330
26
100
AcDbEntity
  8
2
100
AcDbCircle
 10
-97.97440600000001
 20
53.541971
 30
0.0
 40
8.126758999999999
100
AcDbArc
 50
102.393185
 51
133.280016
  0
ARC
  5
457
330
26
100
AcDbEntity
  8
2
100
AcDbCircle
 10
-98.03591800000001
 20
46.546307
 30
0.0
 40
8.979103
100
AcDbArc
 50
97.46095600000002
 51
129.149456
  0
LINE
  5
458
330
26
100
AcDbEntity
  8
2
100
AcDbLine
 10
-97.896636
 20
56.936689
 30
0.0
 11
-97.896636
 21
60.014313
 31
0.0
  0
LINE
  5
459
330
26
100
AcDbEntity
  8
2
100
AcDbLine
 10
-97.896636
 20
64.993695
 30
0.0
 11
-97.896649
 21
66.20016899999999
 31
0.0
  0
LINE
  5
45A
330
26
100
AcDbEntity
  8
2
100
AcDbLine
 10
-103.896636
 20
53.34446899999999
 30
0.0
 11
-103.896636
 21
56.51537600000001
 31
0.0
  0
ARC
  5
45B
330
26
100
AcDbEntity
  8
2
100
AcDbCircle
 10
-99.510494
 20
55.173168
 30
0.0
 40
5.886141
100
AcDbArc
 50
133.280016
 51
208.241155
  0
ARC
  5
45C
330
26
100
AcDbEntity
  8
2
100
AcDbCircle
 10
-100.807512
 20
49.950743
 30
0.0
 40
4.589123999999999
100
AcDbArc
 50
129.149456
 51
180.0
  0
LINE
  5
45D
330
26
100
AcDbEntity
  8
2
100
AcDbLine
 10
-105.396636
 20
46.805139
 30
0.0
 11
-105.396636
 21
49.950743
 31
0.0
  0
ARC
  5
45E
330
26
100
AcDbEntity
  8
2
100
AcDbCircle
 10
-97.91008300000001
 20
59.688643
 30
0.0
 40
7.585836999999999
100
AcDbArc
 50
98.61528800000002
 51
136.635861
  0
ARC
  5
45F
330
26
100
AcDbEntity
  8
2
100
AcDbCircle
 10
-97.948099
 20
56.169493
 30
0.0
 40
7.875035999999999
100
AcDbArc
 50
96.135312
 51
134.747415
  0
ARC
  5
460
330
26
100
AcDbEntity
  8
2
100
AcDbCircle
 10
-99.39663600000001
 20
56.936689
 30
0.0
 40
1.5
100
AcDbArc
 50
277.460956
 51
360.0
  0
ARC
  5
461
330
26
100
AcDbEntity
  8
2
100
AcDbCircle
 10
-99.39663600000001
 20
60.014313
 30
0.0
 40
1.5
100
AcDbArc
 50
0.0
 51
102.393185
  0
ARC
  5
462
330
26
100
AcDbEntity
  8
2
100
AcDbCircle
 10
-98.896636
 20
64.993695
 30
0.0
 40
1.0
100
AcDbArc
 50
276.135312
 51
360.0
  0
ARC
  5
463
330
26
100
AcDbEntity
  8
2
100
AcDbCircle
 10
-98.896636
 20
66.20016899999999
 30
0.0
 40
1.0
100
AcDbArc
 50
0.0
 51
98.61528800000002
  0
ARC
  5
464
330
26
100
AcDbEntity
  8
2
100
AcDbCircle
 10
-98.17448399999999
 20
59.938361
 30
0.0
 40
7.222152
100
AcDbArc
 50
136.635861
 51
191.281293
  0
ARC
  5
465
330
26
100
AcDbEntity
  8
2
100
AcDbCircle
 10
-98.96239399999998
 20
57.19276999999999
 30
0.0
 40
6.434241
100
AcDbArc
 50
134.747415
 51
180.0
  0
LINE
  5
466
330
26
100
AcDbEntity
  8
2
100
AcDbLine
 10
-105.396636
 20
55.173168
 30
0.0
 11
-105.396636
 21
57.19276999999999
 31
0.0
  0
LINE
  5
467
330
26
100
AcDbEntity
  8
2
100
AcDbLine
 10
-105.396636
 20
59.938361
 30
0.0
 11
-105.396636
 21
60.867088
 31
0.0
  0
ARC
  5
468
330
26
100
AcDbEntity
  8
2
100
AcDbCircle
 10
-97.896636
 20
-24.132912
 30
0.0
 40
7.5
100
AcDbArc
 50
180.0
 51
360.0
  0
LINE
  5
469
330
26
100
AcDbEntity
  8
2
100
AcDbLine
 10
-97.896636
 20
6.01895
 30
0.0
 11
-97.89663500000001
 21
0.148275
 31
0.0
  0
LINE
  5
46A
330
26
100
AcDbEntity
  8
2
100
AcDbLine
 10
-103.896636
 20
6.77615
 30
0.0
 11
-103.896636
 21
0.8473639999999999
 31
0.0
  0
ARC
  5
46B
330
26
100
AcDbEntity
  8
2
100
AcDbCircle
 10
-98.15625400000001
 20
12.675066
 30
0.0
 40
14.64711
100
AcDbArc
 50
245.142987
 51
262.090372
  0
ARC
  5
46C
330
26
100
AcDbEntity
  8
2
100
AcDbCircle
 10
-98.194271
 20
35.534042
 30
0.0
 40
27.564145
100
AcDbArc
 50
256.12537
 51
266.698964
  0
ARC
  5
46D
330
26
100
AcDbEntity
  8
2
100
AcDbCircle
 10
-99.896636
 20
6.01895
 30
0.0
 40
2.0
100
AcDbArc
 50
0.0
 51
86.698964
  0
ARC
  5
46E
330
26
100
AcDbEntity
  8
2
100
AcDbCircle
 10
-99.896636
 20
0.148275
 30
0.0
 40
2.0
100
AcDbArc
 50
262.090372
 51
360.0
  0
ARC
  5
46F
330
26
100
AcDbEntity
  8
2
100
AcDbCircle
 10
-103.527572
 20
1.080780999999999
 30
0.0
 40
1.869063
100
AcDbArc
 50
133.78328
 51
245.142987
  0
ARC
  5
470
330
26
100
AcDbEntity
  8
2
100
AcDbCircle
 10
-104.617195
 20
9.530841
 30
0.0
 40
0.779441
100
AcDbArc
 50
180.0
 51
256.12537
  0
ARC
  5
471
330
26
100
AcDbEntity
  8
2
100
AcDbCircle
 10
-106.896636
 20
4.596059999999999
 30
0.0
 40
3.0
100
AcDbArc
 50
313.78328
 51
360.0
  0
ARC
  5
472
330
26
100
AcDbEntity
  8
2
100
AcDbCircle
 10
-106.396636
 20
6.77615
 30
0.0
 40
2.5
100
AcDbArc
 50
0.0
 51
57.138855
  0
ARC
  5
473
330
26
100
AcDbEntity
  8
2
100
AcDbCircle
 10
-98.06843499999999
 20
-5.407237
 30
0.0
 40
9.683728999999999
100
AcDbArc
 50
233.594351
 51
256.235519
  0
LINE
  5
474
330
26
100
AcDbEntity
  8
2
100
AcDbLine
 10
-97.896636
 20
-8.525028
 30
0.0
 11
-97.896636
 21
-12.870304
 31
0.0
  0
ARC
  5
475
330
26
100
AcDbEntity
  8
2
100
AcDbCircle
 10
-98.129947
 20
5.593033999999999
 30
0.0
 40
12.228172
100
AcDbArc
 50
240.68604
 51
262.867271
  0
ARC
  5
476
330
26
100
AcDbEntity
  8
2
100
AcDbCircle
 10
-99.896636
 20
-12.870304
 30
0.0
 40
2.0
100
AcDbArc
 50
256.235519
 51
360.0
  0
ARC
  5
477
330
26
100
AcDbEntity
  8
2
100
AcDbCircle
 10
-99.896636
 20
-8.525028
 30
0.0
 40
2.0
100
AcDbArc
 50
0.0
 51
82.867271
  0
LINE
  5
478
330
26
100
AcDbEntity
  8
2
100
AcDbLine
 10
-103.896636
 20
-5.189985
 30
0.0
 11
-103.896636
 21
-11.152279
 31
0.0
  0
ARC
  5
479
330
26
100
AcDbEntity
  8
2
100
AcDbCircle
 10
-101.50754
 20
-10.070962
 30
0.0
 40
3.889095999999999
100
AcDbArc
 50
141.46839
 51
233.594351
  0
ARC
  5
47A
330
26
100
AcDbEntity
  8
2
100
AcDbCircle
 10
-102.889142
 20
-2.882911999999999
 30
0.0
 40
2.507493
100
AcDbArc
 50
180.0
 51
240.68604
  0
ARC
  5
47B
330
26
100
AcDbEntity
  8
2
100
AcDbCircle
 10
-106.896636
 20
-5.779425999999999
 30
0.0
 40
3.0
100
AcDbArc
 50
321.46839
 51
360.0
  0
LINE
  5
47C
330
26
100
AcDbEntity
  8
2
100
AcDbLine
 10
-105.396636
 20
1.080780999999999
 30
0.0
 11
-105.396636
 21
-2.882911999999999
 31
0.0
  0
ARC
  5
47D
330
26
100
AcDbEntity
  8
2
100
AcDbCircle
 10
-97.97440600000001
 20
-16.807795
 30
0.0
 40
8.126758999999999
100
AcDbArc
 50
226.719984
 51
257.606815
  0
ARC
  5
47E
330
26
100
AcDbEntity
  8
2
100
AcDbCircle
 10
-98.03591800000001
 20
-9.812129999999999
 30
0.0
 40
8.979103
100
AcDbArc
 50
230.850544
 51
262.539044
  0
LINE
  5
47F
330
26
100
AcDbEntity
  8
2
100
AcDbLine
 10
-97.896636
 20
-20.202513
 30
0.0
 11
-97.896636
 21
-23.280136
 31
0.0
  0
LINE
  5
480
330
26
100
AcDbEntity
  8
2
100
AcDbLine
 10
-97.896636
 20
-28.259519
 30
0.0
 11
-97.896649
 21
-29.465992
 31
0.0
  0
LINE
  5
481
330
26
100
AcDbEntity
  8
2
100
AcDbLine
 10
-103.896636
 20
-16.610292
 30
0.0
 11
-103.896636
 21
-19.7812
 31
0.0
  0
ARC
  5
482
330
26
100
AcDbEntity
  8
2
100
AcDbCircle
 10
-99.510494
 20
-18.438991
 30
0.0
 40
5.886141
100
AcDbArc
 50
151.758845
 51
226.719984
  0
ARC
  5
483
330
26
100
AcDbEntity
  8
2
100
AcDbCircle
 10
-100.807512
 20
-13.216567
 30
0.0
 40
4.589123999999999
100
AcDbArc
 50
180.0
 51
230.850544
  0
LINE
  5
484
330
26
100
AcDbEntity
  8
2
100
AcDbLine
 10
-105.396636
 20
-10.070962
 30
0.0
 11
-105.396636
 21
-13.216567
 31
0.0
  0
ARC
  5
485
330
26
100
AcDbEntity
  8
2
100
AcDbCircle
 10
-97.91008300000001
 20
-22.954466
 30
0.0
 40
7.585836999999999
100
AcDbArc
 50
223.364139
 51
261.384712
  0
ARC
  5
486
330
26
100
AcDbEntity
  8
2
100
AcDbCircle
 10
-97.948099
 20
-19.435316
 30
0.0
 40
7.875035999999999
100
AcDbArc
 50
225.252585
 51
263.864688
  0
ARC
  5
487
330
26
100
AcDbEntity
  8
2
100
AcDbCircle
 10
-99.39663600000001
 20
-20.202513
 30
0.0
 40
1.5
100
AcDbArc
 50
0.0
 51
82.53904399999999
  0
ARC
  5
488
330
26
100
AcDbEntity
  8
2
100
AcDbCircle
 10
-99.39663600000001
 20
-23.280136
 30
0.0
 40
1.5
100
AcDbArc
 50
257.606815
 51
360.0
  0
ARC
  5
489
330
26
100
AcDbEntity
  8
2
100
AcDbCircle
 10
-98.896636
 20
-28.259519
 30
0.0
 40
1.0
100
AcDbArc
 50
0.0
 51
83.86468800000001
  0
ARC
  5
48A
330
26
100
AcDbEntity
  8
2
100
AcDbCircle
 10
-98.896636
 20
-29.465992
 30
0.0
 40
1.0
100
AcDbArc
 50
261.384712
 51
360.0
  0
ARC
  5
48B
330
26
100
AcDbEntity
  8
2
100
AcDbCircle
 10
-98.17448399999999
 20
-23.204185
 30
0.0
 40
7.222152
100
AcDbArc
 50
168.718707
 51
223.364139
  0
ARC
  5
48C
330
26
100
AcDbEntity
  8
2
100
AcDbCircle
 10
-98.96239399999998
 20
-20.458594
 30
0.0
 40
6.434241
100
AcDbArc
 50
180.0
 51
225.252585
  0
LINE
  5
48D
330
26
100
AcDbEntity
  8
2
100
AcDbLine
 10
-105.396636
 20
-18.438991
 30
0.0
 11
-105.396636
 21
-20.458594
 31
0.0
  0
LINE
  5
48E
330
26
100
AcDbEntity
  8
2
100
AcDbLine
 10
-105.396636
 20
-23.204185
 30
0.0
 11
-105.396636
 21
-24.132912
 31
0.0
  0
ARC
  5
48F
330
26
100
AcDbEntity
  8
2
100
AcDbCircle
 10
-219.578454
 20
142.130814
 30
0.0
 40
1.0
100
AcDbArc
 50
105.82662
 51
172.790936
  0
ARC
  5
490
330
26
100
AcDbEntity
  8
2
100
AcDbCircle
 10
-219.578454
 20
147.903362
 30
0.0
 40
1.0
100
AcDbArc
 50
187.209064
 51
254.17338
  0
CIRCLE
  5
491
330
26
100
AcDbEntity
  8
2
 62
     2
100
AcDbCircle
 10
-231.396636
 20
18.367088
 30
0.0
 40
2.459
  0
CIRCLE
  5
492
330
26
100
AcDbEntity
  8
2
100
AcDbCircle
 10
-231.396636
 20
18.367088
 30
0.0
 40
4.9
  0
CIRCLE
  5
493
330
26
100
AcDbEntity
  8
2
100
AcDbCircle
 10
-231.396636
 20
18.367088
 30
0.0
 40
3.0
  0
LINE
  5
494
330
26
100
AcDbEntity
  8
2
100
AcDbLine
 10
-228.509884
 20
23.367088
 30
0.0
 11
-234.283387
 21
23.367088
 31
0.0
  0
LINE
  5
495
330
26
100
AcDbEntity
  8
2
100
AcDbLine
 10
-228.509884
 20
13.367088
 30
0.0
 11
-234.283387
 21
13.367088
 31
0.0
  0
LINE
  5
496
330
26
100
AcDbEntity
  8
2
100
AcDbLine
 10
-234.283387
 20
23.367088
 30
0.0
 11
-237.170138
 21
18.367088
 31
0.0
  0
LINE
  5
497
330
26
100
AcDbEntity
  8
2
100
AcDbLine
 10
-225.623133
 20
18.367088
 30
0.0
 11
-228.509884
 21
13.367088
 31
0.0
  0
LINE
  5
498
330
26
100
AcDbEntity
  8
2
100
AcDbLine
 10
-237.170138
 20
18.367088
 30
0.0
 11
-234.283387
 21
13.367088
 31
0.0
  0
LINE
  5
499
330
26
100
AcDbEntity
  8
2
100
AcDbLine
 10
-228.509884
 20
23.367088
 30
0.0
 11
-225.623133
 21
18.367088
 31
0.0
  0
LINE
  5
49A
330
26
100
AcDbEntity
  8
2
100
AcDbLine
 10
-232.896636
 20
17.501063
 30
0.0
 11
-232.896636
 21
19.233114
 31
0.0
  0
LINE
  5
49B
330
26
100
AcDbEntity
  8
2
100
AcDbLine
 10
-229.896636
 20
17.501063
 30
0.0
 11
-229.896636
 21
19.233114
 31
0.0
  0
LINE
  5
49C
330
26
100
AcDbEntity
  8
2
100
AcDbLine
 10
-229.896636
 20
19.233114
 30
0.0
 11
-231.396636
 21
20.099139
 31
0.0
  0
LINE
  5
49D
330
26
100
AcDbEntity
  8
2
100
AcDbLine
 10
-231.396636
 20
16.635037
 30
0.0
 11
-232.896636
 21
17.501063
 31
0.0
  0
LINE
  5
49E
330
26
100
AcDbEntity
  8
2
100
AcDbLine
 10
-229.896636
 20
17.501063
 30
0.0
 11
-231.396636
 21
16.635037
 31
0.0
  0
LINE
  5
49F
330
26
100
AcDbEntity
  8
2
100
AcDbLine
 10
-231.396636
 20
20.099139
 30
0.0
 11
-232.896636
 21
19.233114
 31
0.0
  0
CIRCLE
  5
4A0
330
26
100
AcDbEntity
  8
2
 62
     2
100
AcDbCircle
 10
-253.396636
 20
18.367088
 30
0.0
 40
2.459
  0
CIRCLE
  5
4A1
330
26
100
AcDbEntity
  8
2
100
AcDbCircle
 10
-253.396636
 20
18.367088
 30
0.0
 40
4.9
  0
CIRCLE
  5
4A2
330
26
100
AcDbEntity
  8
2
100
AcDbCircle
 10
-253.396636
 20
18.367088
 30
0.0
 40
3.0
  0
LINE
  5
4A3
330
26
100
AcDbEntity
  8
2
100
AcDbLine
 10
-256.283387
 20
23.367088
 30
0.0
 11
-250.509884
 21
23.367088
 31
0.0
  0
LINE
  5
4A4
330
26
100
AcDbEntity
  8
2
100
AcDbLine
 10
-256.283387
 20
13.367088
 30
0.0
 11
-250.509884
 21
13.367088
 31
0.0
  0
LINE
  5
4A5
330
26
100
AcDbEntity
  8
2
100
AcDbLine
 10
-250.509884
 20
23.367088
 30
0.0
 11
-247.623133
 21
18.367088
 31
0.0
  0
LINE
  5
4A6
330
26
100
AcDbEntity
  8
2
100
AcDbLine
 10
-259.170138
 20
18.367088
 30
0.0
 11
-256.283387
 21
13.367088
 31
0.0
  0
LINE
  5
4A7
330
26
100
AcDbEntity
  8
2
100
AcDbLine
 10
-247.623133
 20
18.367088
 30
0.0
 11
-250.509884
 21
13.367088
 31
0.0
  0
LINE
  5
4A8
330
26
100
AcDbEntity
  8
2
100
AcDbLine
 10
-256.283387
 20
23.367088
 30
0.0
 11
-259.170138
 21
18.367088
 31
0.0
  0
LINE
  5
4A9
330
26
100
AcDbEntity
  8
2
100
AcDbLine
 10
-251.896636
 20
17.501063
 30
0.0
 11
-251.896636
 21
19.233114
 31
0.0
  0
LINE
  5
4AA
330
26
100
AcDbEntity
  8
2
100
AcDbLine
 10
-254.896636
 20
17.501063
 30
0.0
 11
-254.896636
 21
19.233114
 31
0.0
  0
LINE
  5
4AB
330
26
100
AcDbEntity
  8
2
100
AcDbLine
 10
-254.896636
 20
19.233114
 30
0.0
 11
-253.396636
 21
20.099139
 31
0.0
  0
LINE
  5
4AC
330
26
100
AcDbEntity
  8
2
100
AcDbLine
 10
-253.396636
 20
16.635037
 30
0.0
 11
-251.896636
 21
17.501063
 31
0.0
  0
LINE
  5
4AD
330
26
100
AcDbEntity
  8
2
100
AcDbLine
 10
-254.896636
 20
17.501063
 30
0.0
 11
-253.396636
 21
16.635037
 31
0.0
  0
LINE
  5
4AE
330
26
100
AcDbEntity
  8
2
100
AcDbLine
 10
-253.396636
 20
20.099139
 30
0.0
 11
-251.896636
 21
19.233114
 31
0.0
  0
LINE
  5
4AF
330
26
100
AcDbEntity
  8
2
100
AcDbLine
 10
-225.646636
 20
106.526341
 30
0.0
 11
-225.646636
 21
103.907836
 31
0.0
  0
LINE
  5
4B0
330
26
100
AcDbEntity
  8
2
100
AcDbLine
 10
-225.646636
 20
103.907836
 30
0.0
 11
-226.496636
 21
103.417088
 31
0.0
  0
LINE
  5
4B1
330
26
100
AcDbEntity
  8
2
100
AcDbLine
 10
-228.521636
 20
106.526341
 30
0.0
 11
-228.521636
 21
103.907836
 31
0.0
  0
ARC
  5
4B2
330
26
100
AcDbEntity
  8
2
100
AcDbCircle
 10
-227.084136
 20
105.755791
 30
0.0
 40
2.341226999999999
100
AcDbArc
 50
232.121121
 51
307.878879
  0
ARC
  5
4B3
330
26
100
AcDbEntity
  8
2
100
AcDbCircle
 10
-231.396636
 20
112.039564
 30
0.0
 40
8.625
100
AcDbArc
 50
250.528777
 51
289.471219
  0
LINE
  5
4B4
330
26
100
AcDbEntity
  8
2
100
AcDbLine
 10
-237.146636
 20
106.526341
 30
0.0
 11
-237.146636
 21
103.907836
 31
0.0
  0
LINE
  5
4B5
330
26
100
AcDbEntity
  8
2
100
AcDbLine
 10
-237.146636
 20
103.907836
 30
0.0
 11
-236.296636
 21
103.417088
 31
0.0
  0
LINE
  5
4B6
330
26
100
AcDbEntity
  8
2
100
AcDbLine
 10
-236.296636
 20
103.417088
 30
0.0
 11
-226.496636
 21
103.417088
 31
0.0
  0
LINE
  5
4B7
330
26
100
AcDbEntity
  8
2
100
AcDbLine
 10
-234.271636
 20
106.526341
 30
0.0
 11
-234.271636
 21
103.907836
 31
0.0
  0
ARC
  5
4B8
330
26
100
AcDbEntity
  8
2
100
AcDbCircle
 10
-235.709136
 20
105.755791
 30
0.0
 40
2.341226999999999
100
AcDbArc
 50
232.121121
 51
307.878879
  0
ARC
  5
4B9
330
26
100
AcDbEntity
  8
2
100
AcDbCircle
 10
-227.084136
 20
104.678386
 30
0.0
 40
2.341226999999999
100
AcDbArc
 50
52.121121
 51
127.878879
  0
ARC
  5
4BA
330
26
100
AcDbEntity
  8
2
100
AcDbCircle
 10
-231.396636
 20
98.39461300000001
 30
0.0
 40
8.625
100
AcDbArc
 50
70.528781
 51
109.471223
  0
ARC
  5
4BB
330
26
100
AcDbEntity
  8
2
100
AcDbCircle
 10
-235.709136
 20
104.678386
 30
0.0
 40
2.341226999999999
100
AcDbArc
 50
52.121121
 51
127.878879
  0
LINE
  5
4BC
330
26
100
AcDbEntity
  8
2
100
AcDbLine
 10
-237.146636
 20
106.526341
 30
0.0
 11
-236.296636
 21
107.017088
 31
0.0
  0
LINE
  5
4BD
330
26
100
AcDbEntity
  8
2
100
AcDbLine
 10
-225.646636
 20
106.526341
 30
0.0
 11
-226.496636
 21
107.017088
 31
0.0
  0
LINE
  5
4BE
330
26
100
AcDbEntity
  8
2
100
AcDbLine
 10
-233.855636
 20
99.01708800000001
 30
0.0
 11
-228.937636
 21
99.01708800000001
 31
0.0
  0
LINE
  5
4BF
330
26
100
AcDbEntity
  8
2
100
AcDbLine
 10
-233.855636
 20
99.01708800000001
 30
0.0
 11
-234.396636
 21
99.55808799999999
 31
0.0
  0
LINE
  5
4C0
330
26
100
AcDbEntity
  8
2
100
AcDbLine
 10
-234.396636
 20
99.55808799999999
 30
0.0
 11
-234.396636
 21
103.417088
 31
0.0
  0
LINE
  5
4C1
330
26
100
AcDbEntity
  8
2
 62
     2
100
AcDbLine
 10
-233.855636
 20
99.01708800000001
 30
0.0
 11
-233.855636
 21
103.417088
 31
0.0
  0
LINE
  5
4C2
330
26
100
AcDbEntity
  8
2
100
AcDbLine
 10
-228.937636
 20
99.01708800000001
 30
0.0
 11
-228.396636
 21
99.55808799999999
 31
0.0
  0
LINE
  5
4C3
330
26
100
AcDbEntity
  8
2
100
AcDbLine
 10
-228.396636
 20
99.55808799999999
 30
0.0
 11
-228.396636
 21
103.417088
 31
0.0
  0
LINE
  5
4C4
330
26
100
AcDbEntity
  8
2
100
AcDbLine
 10
-228.396636
 20
99.55808799999999
 30
0.0
 11
-234.396636
 21
99.55808799999999
 31
0.0
  0
LINE
  5
4C5
330
26
100
AcDbEntity
  8
2
 62
     2
100
AcDbLine
 10
-228.937636
 20
99.01708800000001
 30
0.0
 11
-228.937636
 21
103.417088
 31
0.0
  0
LINE
  5
4C6
330
26
100
AcDbEntity
  8
2
100
AcDbLine
 10
-259.146636
 20
106.526341
 30
0.0
 11
-259.146636
 21
103.907836
 31
0.0
  0
LINE
  5
4C7
330
26
100
AcDbEntity
  8
2
100
AcDbLine
 10
-259.146636
 20
103.907836
 30
0.0
 11
-258.296636
 21
103.417088
 31
0.0
  0
LINE
  5
4C8
330
26
100
AcDbEntity
  8
2
100
AcDbLine
 10
-256.271636
 20
106.526341
 30
0.0
 11
-256.271636
 21
103.907836
 31
0.0
  0
ARC
  5
4C9
330
26
100
AcDbEntity
  8
2
100
AcDbCircle
 10
-257.709136
 20
105.755791
 30
0.0
 40
2.341226999999999
100
AcDbArc
 50
232.121121
 51
307.878879
  0
ARC
  5
4CA
330
26
100
AcDbEntity
  8
2
100
AcDbCircle
 10
-253.396636
 20
112.039564
 30
0.0
 40
8.625
100
AcDbArc
 50
250.528781
 51
289.471223
  0
LINE
  5
4CB
330
26
100
AcDbEntity
  8
2
100
AcDbLine
 10
-247.646636
 20
106.526341
 30
0.0
 11
-247.646636
 21
103.907836
 31
0.0
  0
LINE
  5
4CC
330
26
100
AcDbEntity
  8
2
100
AcDbLine
 10
-247.646636
 20
103.907836
 30
0.0
 11
-248.496636
 21
103.417088
 31
0.0
  0
LINE
  5
4CD
330
26
100
AcDbEntity
  8
2
100
AcDbLine
 10
-248.496636
 20
103.417088
 30
0.0
 11
-258.296636
 21
103.417088
 31
0.0
  0
LINE
  5
4CE
330
26
100
AcDbEntity
  8
2
100
AcDbLine
 10
-250.521636
 20
106.526341
 30
0.0
 11
-250.521636
 21
103.907836
 31
0.0
  0
ARC
  5
4CF
330
26
100
AcDbEntity
  8
2
100
AcDbCircle
 10
-249.084136
 20
105.755791
 30
0.0
 40
2.341226999999999
100
AcDbArc
 50
232.121121
 51
307.878879
  0
ARC
  5
4D0
330
26
100
AcDbEntity
  8
2
100
AcDbCircle
 10
-257.709136
 20
104.678386
 30
0.0
 40
2.341226999999999
100
AcDbArc
 50
52.121121
 51
127.878879
  0
ARC
  5
4D1
330
26
100
AcDbEntity
  8
2
100
AcDbCircle
 10
-253.396636
 20
98.39461300000001
 30
0.0
 40
8.625
100
AcDbArc
 50
70.528777
 51
109.471219
  0
ARC
  5
4D2
330
26
100
AcDbEntity
  8
2
100
AcDbCircle
 10
-249.084136
 20
104.678386
 30
0.0
 40
2.341226999999999
100
AcDbArc
 50
52.121121
 51
127.878879
  0
LINE
  5
4D3
330
26
100
AcDbEntity
  8
2
100
AcDbLine
 10
-247.646636
 20
106.526341
 30
0.0
 11
-248.496636
 21
107.017088
 31
0.0
  0
LINE
  5
4D4
330
26
100
AcDbEntity
  8
2
100
AcDbLine
 10
-259.146636
 20
106.526341
 30
0.0
 11
-258.296636
 21
107.017088
 31
0.0
  0
LINE
  5
4D5
330
26
100
AcDbEntity
  8
2
100
AcDbLine
 10
-250.937636
 20
99.01708800000001
 30
0.0
 11
-255.855636
 21
99.01708800000001
 31
0.0
  0
LINE
  5
4D6
330
26
100
AcDbEntity
  8
2
100
AcDbLine
 10
-250.937636
 20
99.01708800000001
 30
0.0
 11
-250.396636
 21
99.55808799999999
 31
0.0
  0
LINE
  5
4D7
330
26
100
AcDbEntity
  8
2
100
AcDbLine
 10
-250.396636
 20
99.55808799999999
 30
0.0
 11
-250.396636
 21
103.417088
 31
0.0
  0
LINE
  5
4D8
330
26
100
AcDbEntity
  8
2
 62
     2
100
AcDbLine
 10
-250.937636
 20
99.01708800000001
 30
0.0
 11
-250.937636
 21
103.417088
 31
0.0
  0
LINE
  5
4D9
330
26
100
AcDbEntity
  8
2
100
AcDbLine
 10
-255.855636
 20
99.01708800000001
 30
0.0
 11
-256.396636
 21
99.55808799999999
 31
0.0
  0
LINE
  5
4DA
330
26
100
AcDbEntity
  8
2
100
AcDbLine
 10
-256.396636
 20
99.55808799999999
 30
0.0
 11
-256.396636
 21
103.417088
 31
0.0
  0
LINE
  5
4DB
330
26
100
AcDbEntity
  8
2
100
AcDbLine
 10
-256.396636
 20
99.55808799999999
 30
0.0
 11
-250.396636
 21
99.55808799999999
 31
0.0
  0
LINE
  5
4DC
330
26
100
AcDbEntity
  8
2
 62
     2
100
AcDbLine
 10
-255.855636
 20
99.01708800000001
 30
0.0
 11
-255.855636
 21
103.417088
 31
0.0
  0
LINE
  5
4DD
330
26
100
AcDbEntity
  8
2
100
AcDbLine
 10
23.153364
 20
13.367088
 30
0.0
 11
19.553364
 21
13.367088
 31
0.0
  0
LINE
  5
4DE
330
26
100
AcDbEntity
  8
2
100
AcDbLine
 10
19.553364
 20
13.367088
 30
0.0
 11
19.553364
 21
23.367088
 31
0.0
  0
ARC
  5
4DF
330
26
100
AcDbEntity
  8
2
100
AcDbCircle
 10
26.166572
 20
15.867088
 30
0.0
 40
6.613208
100
AcDbArc
 50
157.788205
 51
202.211795
  0
LINE
  5
4E0
330
26
100
AcDbEntity
  8
2
100
AcDbLine
 10
23.153364
 20
23.367088
 30
0.0
 11
19.553364
 21
23.367088
 31
0.0
  0
LINE
  5
4E1
330
26
100
AcDbEntity
  8
2
100
AcDbLine
 10
22.662617
 20
18.367088
 30
0.0
 11
20.044112
 21
18.367088
 31
0.0
  0
ARC
  5
4E2
330
26
100
AcDbEntity
  8
2
100
AcDbCircle
 10
26.166572
 20
20.867088
 30
0.0
 40
6.613208
100
AcDbArc
 50
157.788205
 51
202.211795
  0
ARC
  5
4E3
330
26
100
AcDbEntity
  8
2
100
AcDbCircle
 10
16.540157
 20
20.867088
 30
0.0
 40
6.613208
100
AcDbArc
 50
337.788205
 51
22.211795
  0
ARC
  5
4E4
330
26
100
AcDbEntity
  8
2
100
AcDbCircle
 10
16.540157
 20
15.867088
 30
0.0
 40
6.613208
100
AcDbArc
 50
337.788205
 51
22.211795
  0
LINE
  5
4E5
330
26
100
AcDbEntity
  8
2
100
AcDbLine
 10
15.153364
 20
20.826088
 30
0.0
 11
15.153364
 21
15.908088
 31
0.0
  0
LINE
  5
4E6
330
26
100
AcDbEntity
  8
2
100
AcDbLine
 10
15.153364
 20
20.826088
 30
0.0
 11
15.694364
 21
21.367088
 31
0.0
  0
LINE
  5
4E7
330
26
100
AcDbEntity
  8
2
100
AcDbLine
 10
15.694364
 20
21.367088
 30
0.0
 11
19.553364
 21
21.367088
 31
0.0
  0
LINE
  5
4E8
330
26
100
AcDbEntity
  8
2
 62
     2
100
AcDbLine
 10
15.153364
 20
20.826088
 30
0.0
 11
19.553364
 21
20.826088
 31
0.0
  0
LINE
  5
4E9
330
26
100
AcDbEntity
  8
2
100
AcDbLine
 10
15.153364
 20
15.908088
 30
0.0
 11
15.694364
 21
15.367088
 31
0.0
  0
LINE
  5
4EA
330
26
100
AcDbEntity
  8
2
100
AcDbLine
 10
15.694364
 20
15.367088
 30
0.0
 11
19.553364
 21
15.367088
 31
0.0
  0
LINE
  5
4EB
330
26
100
AcDbEntity
  8
2
100
AcDbLine
 10
15.694364
 20
15.367088
 30
0.0
 11
15.694364
 21
21.367088
 31
0.0
  0
LINE
  5
4EC
330
26
100
AcDbEntity
  8
2
 62
     2
100
AcDbLine
 10
15.153364
 20
15.908088
 30
0.0
 11
19.553364
 21
15.908088
 31
0.0
  0
CIRCLE
  5
4ED
330
26
100
AcDbEntity
  8
2
100
AcDbCircle
 10
-270.396636
 20
117.017088
 30
0.0
 40
4.5
  0
CIRCLE
  5
4EE
330
26
100
AcDbEntity
  8
2
100
AcDbCircle
 10
-270.396636
 20
117.017088
 30
0.0
 40
4.599999999999999
  0
LINE
  5
4EF
330
26
100
AcDbEntity
  8
2
100
AcDbLine
 10
-272.846636
 20
116.517088
 30
0.0
 11
-272.846636
 21
117.517088
 31
0.0
  0
LINE
  5
4F0
330
26
100
AcDbEntity
  8
2
100
AcDbLine
 10
-267.946636
 20
116.517088
 30
0.0
 11
-267.946636
 21
117.517088
 31
0.0
  0
LINE
  5
4F1
330
26
100
AcDbEntity
  8
2
100
AcDbLine
 10
-270.896636
 20
119.467088
 30
0.0
 11
-269.896636
 21
119.467088
 31
0.0
  0
LINE
  5
4F2
330
26
100
AcDbEntity
  8
2
100
AcDbLine
 10
-270.896636
 20
114.567088
 30
0.0
 11
-269.896636
 21
114.567088
 31
0.0
  0
LINE
  5
4F3
330
26
100
AcDbEntity
  8
2
100
AcDbLine
 10
-272.846636
 20
117.517088
 30
0.0
 11
-271.896636
 21
117.517088
 31
0.0
  0
LINE
  5
4F4
330
26
100
AcDbEntity
  8
2
100
AcDbLine
 10
-268.896636
 20
117.517088
 30
0.0
 11
-267.946636
 21
117.517088
 31
0.0
  0
LINE
  5
4F5
330
26
100
AcDbEntity
  8
2
100
AcDbLine
 10
-270.896636
 20
114.567088
 30
0.0
 11
-270.896636
 21
115.517088
 31
0.0
  0
LINE
  5
4F6
330
26
100
AcDbEntity
  8
2
100
AcDbLine
 10
-270.896636
 20
118.517088
 30
0.0
 11
-270.896636
 21
119.467088
 31
0.0
  0
LINE
  5
4F7
330
26
100
AcDbEntity
  8
2
100
AcDbLine
 10
-272.846636
 20
116.517088
 30
0.0
 11
-271.896636
 21
116.517088
 31
0.0
  0
LINE
  5
4F8
330
26
100
AcDbEntity
  8
2
100
AcDbLine
 10
-268.896636
 20
116.517088
 30
0.0
 11
-267.946636
 21
116.517088
 31
0.0
  0
LINE
  5
4F9
330
26
100
AcDbEntity
  8
2
100
AcDbLine
 10
-269.896636
 20
114.567088
 30
0.0
 11
-269.896636
 21
115.517088
 31
0.0
  0
LINE
  5
4FA
330
26
100
AcDbEntity
  8
2
100
AcDbLine
 10
-269.896636
 20
118.517088
 30
0.0
 11
-269.896636
 21
119.467088
 31
0.0
  0
ARC
  5
4FB
330
26
100
AcDbEntity
  8
2
100
AcDbCircle
 10
-268.896636
 20
115.517088
 30
0.0
 40
1.0
100
AcDbArc
 50
90.0
 51
180.0
  0
ARC
  5
4FC
330
26
100
AcDbEntity
  8
2
100
AcDbCircle
 10
-271.896636
 20
115.517088
 30
0.0
 40
1.0
100
AcDbArc
 50
0.0
 51
90.0
  0
ARC
  5
4FD
330
26
100
AcDbEntity
  8
2
100
AcDbCircle
 10
-271.896636
 20
118.517088
 30
0.0
 40
1.0
100
AcDbArc
 50
270.0
 51
360.0
  0
ARC
  5
4FE
330
26
100
AcDbEntity
  8
2
100
AcDbCircle
 10
-268.896636
 20
118.517088
 30
0.0
 40
1.0
100
AcDbArc
 50
180.0
 51
270.0
  0
CIRCLE
  5
4FF
330
26
100
AcDbEntity
  8
2
100
AcDbCircle
 10
-214.396636
 20
117.017088
 30
0.0
 40
4.5
  0
CIRCLE
  5
500
330
26
100
AcDbEntity
  8
2
100
AcDbCircle
 10
-214.396636
 20
117.017088
 30
0.0
 40
4.599999999999999
  0
LINE
  5
501
330
26
100
AcDbEntity
  8
2
100
AcDbLine
 10
-216.846636
 20
116.517088
 30
0.0
 11
-216.846636
 21
117.517088
 31
0.0
  0
LINE
  5
502
330
26
100
AcDbEntity
  8
2
100
AcDbLine
 10
-211.946636
 20
116.517088
 30
0.0
 11
-211.946636
 21
117.517088
 31
0.0
  0
LINE
  5
503
330
26
100
AcDbEntity
  8
2
100
AcDbLine
 10
-214.896636
 20
119.467088
 30
0.0
 11
-213.896636
 21
119.467088
 31
0.0
  0
LINE
  5
504
330
26
100
AcDbEntity
  8
2
100
AcDbLine
 10
-214.896636
 20
114.567088
 30
0.0
 11
-213.896636
 21
114.567088
 31
0.0
  0
LINE
  5
505
330
26
100
AcDbEntity
  8
2
100
AcDbLine
 10
-216.846636
 20
117.517088
 30
0.0
 11
-215.896636
 21
117.517088
 31
0.0
  0
LINE
  5
506
330
26
100
AcDbEntity
  8
2
100
AcDbLine
 10
-212.896636
 20
117.517088
 30
0.0
 11
-211.946636
 21
117.517088
 31
0.0
  0
LINE
  5
507
330
26
100
AcDbEntity
  8
2
100
AcDbLine
 10
-214.896636
 20
114.567088
 30
0.0
 11
-214.896636
 21
115.517088
 31
0.0
  0
LINE
  5
508
330
26
100
AcDbEntity
  8
2
100
AcDbLine
 10
-214.896636
 20
118.517088
 30
0.0
 11
-214.896636
 21
119.467088
 31
0.0
  0
LINE
  5
509
330
26
100
AcDbEntity
  8
2
100
AcDbLine
 10
-216.846636
 20
116.517088
 30
0.0
 11
-215.896636
 21
116.517088
 31
0.0
  0
LINE
  5
50A
330
26
100
AcDbEntity
  8
2
100
AcDbLine
 10
-212.896636
 20
116.517088
 30
0.0
 11
-211.946636
 21
116.517088
 31
0.0
  0
LINE
  5
50B
330
26
100
AcDbEntity
  8
2
100
AcDbLine
 10
-213.896636
 20
114.567088
 30
0.0
 11
-213.896636
 21
115.517088
 31
0.0
  0
LINE
  5
50C
330
26
100
AcDbEntity
  8
2
100
AcDbLine
 10
-213.896636
 20
118.517088
 30
0.0
 11
-213.896636
 21
119.467088
 31
0.0
  0
ARC
  5
50D
330
26
100
AcDbEntity
  8
2
100
AcDbCircle
 10
-212.896636
 20
115.517088
 30
0.0
 40
1.0
100
AcDbArc
 50
90.0
 51
180.0
  0
ARC
  5
50E
330
26
100
AcDbEntity
  8
2
100
AcDbCircle
 10
-215.896636
 20
115.517088
 30
0.0
 40
1.0
100
AcDbArc
 50
0.0
 51
90.0
  0
ARC
  5
50F
330
26
100
AcDbEntity
  8
2
100
AcDbCircle
 10
-215.896636
 20
118.517088
 30
0.0
 40
1.0
100
AcDbArc
 50
270.0
 51
360.0
  0
ARC
  5
510
330
26
100
AcDbEntity
  8
2
100
AcDbCircle
 10
-212.896636
 20
118.517088
 30
0.0
 40
1.0
100
AcDbArc
 50
180.0
 51
270.0
  0
CIRCLE
  5
511
330
26
100
AcDbEntity
  8
2
100
AcDbCircle
 10
-272.896636
 20
169.017088
 30
0.0
 40
4.5
  0
CIRCLE
  5
512
330
26
100
AcDbEntity
  8
2
100
AcDbCircle
 10
-272.896636
 20
169.017088
 30
0.0
 40
4.599999999999999
  0
LINE
  5
513
330
26
100
AcDbEntity
  8
2
100
AcDbLine
 10
-275.346636
 20
168.517088
 30
0.0
 11
-275.346636
 21
169.517088
 31
0.0
  0
LINE
  5
514
330
26
100
AcDbEntity
  8
2
100
AcDbLine
 10
-270.446636
 20
168.517088
 30
0.0
 11
-270.446636
 21
169.517088
 31
0.0
  0
LINE
  5
515
330
26
100
AcDbEntity
  8
2
100
AcDbLine
 10
-273.396636
 20
171.467088
 30
0.0
 11
-272.396636
 21
171.467088
 31
0.0
  0
LINE
  5
516
330
26
100
AcDbEntity
  8
2
100
AcDbLine
 10
-273.396636
 20
166.567088
 30
0.0
 11
-272.396636
 21
166.567088
 31
0.0
  0
LINE
  5
517
330
26
100
AcDbEntity
  8
2
100
AcDbLine
 10
-275.346636
 20
169.517088
 30
0.0
 11
-274.396636
 21
169.517088
 31
0.0
  0
LINE
  5
518
330
26
100
AcDbEntity
  8
2
100
AcDbLine
 10
-271.396636
 20
169.517088
 30
0.0
 11
-270.446636
 21
169.517088
 31
0.0
  0
LINE
  5
519
330
26
100
AcDbEntity
  8
2
100
AcDbLine
 10
-273.396636
 20
166.567088
 30
0.0
 11
-273.396636
 21
167.517088
 31
0.0
  0
LINE
  5
51A
330
26
100
AcDbEntity
  8
2
100
AcDbLine
 10
-273.396636
 20
170.517088
 30
0.0
 11
-273.396636
 21
171.467088
 31
0.0
  0
LINE
  5
51B
330
26
100
AcDbEntity
  8
2
100
AcDbLine
 10
-275.346636
 20
168.517088
 30
0.0
 11
-274.396636
 21
168.517088
 31
0.0
  0
LINE
  5
51C
330
26
100
AcDbEntity
  8
2
100
AcDbLine
 10
-271.396636
 20
168.517088
 30
0.0
 11
-270.446636
 21
168.517088
 31
0.0
  0
LINE
  5
51D
330
26
100
AcDbEntity
  8
2
100
AcDbLine
 10
-272.396636
 20
166.567088
 30
0.0
 11
-272.396636
 21
167.517088
 31
0.0
  0
LINE
  5
51E
330
26
100
AcDbEntity
  8
2
100
AcDbLine
 10
-272.396636
 20
170.517088
 30
0.0
 11
-272.396636
 21
171.467088
 31
0.0
  0
ARC
  5
51F
330
26
100
AcDbEntity
  8
2
100
AcDbCircle
 10
-271.396636
 20
167.517088
 30
0.0
 40
1.0
100
AcDbArc
 50
90.0
 51
180.0
  0
ARC
  5
520
330
26
100
AcDbEntity
  8
2
100
AcDbCircle
 10
-274.396636
 20
167.517088
 30
0.0
 40
1.0
100
AcDbArc
 50
0.0
 51
90.0
  0
ARC
  5
521
330
26
100
AcDbEntity
  8
2
100
AcDbCircle
 10
-274.396636
 20
170.517088
 30
0.0
 40
1.0
100
AcDbArc
 50
270.0
 51
360.0
  0
ARC
  5
522
330
26
100
AcDbEntity
  8
2
100
AcDbCircle
 10
-271.396636
 20
170.517088
 30
0.0
 40
1.0
100
AcDbArc
 50
180.0
 51
270.0
  0
CIRCLE
  5
523
330
26
100
AcDbEntity
  8
2
100
AcDbCircle
 10
-211.896636
 20
169.017088
 30
0.0
 40
4.5
  0
CIRCLE
  5
524
330
26
100
AcDbEntity
  8
2
100
AcDbCircle
 10
-211.896636
 20
169.017088
 30
0.0
 40
4.599999999999999
  0
LINE
  5
525
330
26
100
AcDbEntity
  8
2
100
AcDbLine
 10
-214.346636
 20
168.517088
 30
0.0
 11
-214.346636
 21
169.517088
 31
0.0
  0
LINE
  5
526
330
26
100
AcDbEntity
  8
2
100
AcDbLine
 10
-209.446636
 20
168.517088
 30
0.0
 11
-209.446636
 21
169.517088
 31
0.0
  0
LINE
  5
527
330
26
100
AcDbEntity
  8
2
100
AcDbLine
 10
-212.396636
 20
171.467088
 30
0.0
 11
-211.396636
 21
171.467088
 31
0.0
  0
LINE
  5
528
330
26
100
AcDbEntity
  8
2
100
AcDbLine
 10
-212.396636
 20
166.567088
 30
0.0
 11
-211.396636
 21
166.567088
 31
0.0
  0
LINE
  5
529
330
26
100
AcDbEntity
  8
2
100
AcDbLine
 10
-214.346636
 20
169.517088
 30
0.0
 11
-213.396636
 21
169.517088
 31
0.0
  0
LINE
  5
52A
330
26
100
AcDbEntity
  8
2
100
AcDbLine
 10
-210.396636
 20
169.517088
 30
0.0
 11
-209.446636
 21
169.517088
 31
0.0
  0
LINE
  5
52B
330
26
100
AcDbEntity
  8
2
100
AcDbLine
 10
-212.396636
 20
166.567088
 30
0.0
 11
-212.396636
 21
167.517088
 31
0.0
  0
LINE
  5
52C
330
26
100
AcDbEntity
  8
2
100
AcDbLine
 10
-212.396636
 20
170.517088
 30
0.0
 11
-212.396636
 21
171.467088
 31
0.0
  0
LINE
  5
52D
330
26
100
AcDbEntity
  8
2
100
AcDbLine
 10
-214.346636
 20
168.517088
 30
0.0
 11
-213.396636
 21
168.517088
 31
0.0
  0
LINE
  5
52E
330
26
100
AcDbEntity
  8
2
100
AcDbLine
 10
-210.396636
 20
168.517088
 30
0.0
 11
-209.446636
 21
168.517088
 31
0.0
  0
LINE
  5
52F
330
26
100
AcDbEntity
  8
2
100
AcDbLine
 10
-211.396636
 20
166.567088
 30
0.0
 11
-211.396636
 21
167.517088
 31
0.0
  0
LINE
  5
530
330
26
100
AcDbEntity
  8
2
100
AcDbLine
 10
-211.396636
 20
170.517088
 30
0.0
 11
-211.396636
 21
171.467088
 31
0.0
  0
ARC
  5
531
330
26
100
AcDbEntity
  8
2
100
AcDbCircle
 10
-210.396636
 20
167.517088
 30
0.0
 40
1.0
100
AcDbArc
 50
90.0
 51
180.0
  0
ARC
  5
532
330
26
100
AcDbEntity
  8
2
100
AcDbCircle
 10
-213.396636
 20
167.517088
 30
0.0
 40
1.0
100
AcDbArc
 50
0.0
 51
90.0
  0
ARC
  5
533
330
26
100
AcDbEntity
  8
2
100
AcDbCircle
 10
-213.396636
 20
170.517088
 30
0.0
 40
1.0
100
AcDbArc
 50
270.0
 51
360.0
  0
ARC
  5
534
330
26
100
AcDbEntity
  8
2
100
AcDbCircle
 10
-210.396636
 20
170.517088
 30
0.0
 40
1.0
100
AcDbArc
 50
180.0
 51
270.0
  0
CIRCLE
  5
535
330
26
100
AcDbEntity
  8
2
100
AcDbCircle
 10
-269.896636
 20
193.517088
 30
0.0
 40
4.5
  0
CIRCLE
  5
536
330
26
100
AcDbEntity
  8
2
100
AcDbCircle
 10
-269.896636
 20
193.517088
 30
0.0
 40
4.599999999999999
  0
LINE
  5
537
330
26
100
AcDbEntity
  8
2
100
AcDbLine
 10
-272.346636
 20
193.017088
 30
0.0
 11
-272.346636
 21
194.017088
 31
0.0
  0
LINE
  5
538
330
26
100
AcDbEntity
  8
2
100
AcDbLine
 10
-267.446636
 20
193.017088
 30
0.0
 11
-267.446636
 21
194.017088
 31
0.0
  0
LINE
  5
539
330
26
100
AcDbEntity
  8
2
100
AcDbLine
 10
-270.396636
 20
195.967088
 30
0.0
 11
-269.396636
 21
195.967088
 31
0.0
  0
LINE
  5
53A
330
26
100
AcDbEntity
  8
2
100
AcDbLine
 10
-270.396636
 20
191.0670879999999
 30
0.0
 11
-269.396636
 21
191.0670879999999
 31
0.0
  0
LINE
  5
53B
330
26
100
AcDbEntity
  8
2
100
AcDbLine
 10
-272.346636
 20
194.017088
 30
0.0
 11
-271.396636
 21
194.017088
 31
0.0
  0
LINE
  5
53C
330
26
100
AcDbEntity
  8
2
100
AcDbLine
 10
-268.396636
 20
194.017088
 30
0.0
 11
-267.446636
 21
194.017088
 31
0.0
  0
LINE
  5
53D
330
26
100
AcDbEntity
  8
2
100
AcDbLine
 10
-270.396636
 20
191.0670879999999
 30
0.0
 11
-270.396636
 21
192.017088
 31
0.0
  0
LINE
  5
53E
330
26
100
AcDbEntity
  8
2
100
AcDbLine
 10
-270.396636
 20
195.017088
 30
0.0
 11
-270.396636
 21
195.967088
 31
0.0
  0
LINE
  5
53F
330
26
100
AcDbEntity
  8
2
100
AcDbLine
 10
-272.346636
 20
193.017088
 30
0.0
 11
-271.396636
 21
193.017088
 31
0.0
  0
LINE
  5
540
330
26
100
AcDbEntity
  8
2
100
AcDbLine
 10
-268.396636
 20
193.017088
 30
0.0
 11
-267.446636
 21
193.017088
 31
0.0
  0
LINE
  5
541
330
26
100
AcDbEntity
  8
2
100
AcDbLine
 10
-269.396636
 20
191.0670879999999
 30
0.0
 11
-269.396636
 21
192.017088
 31
0.0
  0
LINE
  5
542
330
26
100
AcDbEntity
  8
2
100
AcDbLine
 10
-269.396636
 20
195.017088
 30
0.0
 11
-269.396636
 21
195.967088
 31
0.0
  0
ARC
  5
543
330
26
100
AcDbEntity
  8
2
100
AcDbCircle
 10
-268.396636
 20
192.017088
 30
0.0
 40
1.0
100
AcDbArc
 50
90.0
 51
180.0
  0
ARC
  5
544
330
26
100
AcDbEntity
  8
2
100
AcDbCircle
 10
-271.396636
 20
192.017088
 30
0.0
 40
1.0
100
AcDbArc
 50
0.0
 51
90.0
  0
ARC
  5
545
330
26
100
AcDbEntity
  8
2
100
AcDbCircle
 10
-271.396636
 20
195.017088
 30
0.0
 40
1.0
100
AcDbArc
 50
270.0
 51
360.0
  0
ARC
  5
546
330
26
100
AcDbEntity
  8
2
100
AcDbCircle
 10
-268.396636
 20
195.017088
 30
0.0
 40
1.0
100
AcDbArc
 50
180.0
 51
270.0
  0
CIRCLE
  5
547
330
26
100
AcDbEntity
  8
2
100
AcDbCircle
 10
-214.896636
 20
193.517088
 30
0.0
 40
4.5
  0
CIRCLE
  5
548
330
26
100
AcDbEntity
  8
2
100
AcDbCircle
 10
-214.896636
 20
193.517088
 30
0.0
 40
4.599999999999999
  0
LINE
  5
549
330
26
100
AcDbEntity
  8
2
100
AcDbLine
 10
-217.346636
 20
193.017088
 30
0.0
 11
-217.346636
 21
194.017088
 31
0.0
  0
LINE
  5
54A
330
26
100
AcDbEntity
  8
2
100
AcDbLine
 10
-212.446636
 20
193.017088
 30
0.0
 11
-212.446636
 21
194.017088
 31
0.0
  0
LINE
  5
54B
330
26
100
AcDbEntity
  8
2
100
AcDbLine
 10
-215.396636
 20
195.967088
 30
0.0
 11
-214.396636
 21
195.967088
 31
0.0
  0
LINE
  5
54C
330
26
100
AcDbEntity
  8
2
100
AcDbLine
 10
-215.396636
 20
191.0670879999999
 30
0.0
 11
-214.396636
 21
191.0670879999999
 31
0.0
  0
LINE
  5
54D
330
26
100
AcDbEntity
  8
2
100
AcDbLine
 10
-217.346636
 20
194.017088
 30
0.0
 11
-216.396636
 21
194.017088
 31
0.0
  0
LINE
  5
54E
330
26
100
AcDbEntity
  8
2
100
AcDbLine
 10
-213.396636
 20
194.017088
 30
0.0
 11
-212.446636
 21
194.017088
 31
0.0
  0
LINE
  5
54F
330
26
100
AcDbEntity
  8
2
100
AcDbLine
 10
-215.396636
 20
191.0670879999999
 30
0.0
 11
-215.396636
 21
192.017088
 31
0.0
  0
LINE
  5
550
330
26
100
AcDbEntity
  8
2
100
AcDbLine
 10
-215.396636
 20
195.017088
 30
0.0
 11
-215.396636
 21
195.967088
 31
0.0
  0
LINE
  5
551
330
26
100
AcDbEntity
  8
2
100
AcDbLine
 10
-217.346636
 20
193.017088
 30
0.0
 11
-216.396636
 21
193.017088
 31
0.0
  0
LINE
  5
552
330
26
100
AcDbEntity
  8
2
100
AcDbLine
 10
-213.396636
 20
193.017088
 30
0.0
 11
-212.446636
 21
193.017088
 31
0.0
  0
LINE
  5
553
330
26
100
AcDbEntity
  8
2
100
AcDbLine
 10
-214.396636
 20
191.0670879999999
 30
0.0
 11
-214.396636
 21
192.017088
 31
0.0
  0
LINE
  5
554
330
26
100
AcDbEntity
  8
2
100
AcDbLine
 10
-214.396636
 20
195.017088
 30
0.0
 11
-214.396636
 21
195.967088
 31
0.0
  0
ARC
  5
555
330
26
100
AcDbEntity
  8
2
100
AcDbCircle
 10
-213.396636
 20
192.017088
 30
0.0
 40
1.0
100
AcDbArc
 50
90.0
 51
180.0
  0
ARC
  5
556
330
26
100
AcDbEntity
  8
2
100
AcDbCircle
 10
-216.396636
 20
192.017088
 30
0.0
 40
1.0
100
AcDbArc
 50
0.0
 51
90.0
  0
ARC
  5
557
330
26
100
AcDbEntity
  8
2
100
AcDbCircle
 10
-216.396636
 20
195.017088
 30
0.0
 40
1.0
100
AcDbArc
 50
270.0
 51
360.0
  0
ARC
  5
558
330
26
100
AcDbEntity
  8
2
100
AcDbCircle
 10
-213.396636
 20
195.017088
 30
0.0
 40
1.0
100
AcDbArc
 50
180.0
 51
270.0
  0
CIRCLE
  5
559
330
26
100
AcDbEntity
  8
2
100
AcDbCircle
 10
-242.396636
 20
158.017088
 30
0.0
 40
3.5
  0
LINE
  5
55A
330
26
100
AcDbEntity
  8
2
100
AcDbLine
 10
-244.496636
 20
157.517088
 30
0.0
 11
-244.496636
 21
158.517088
 31
0.0
  0
LINE
  5
55B
330
26
100
AcDbEntity
  8
2
100
AcDbLine
 10
-240.296636
 20
157.517088
 30
0.0
 11
-240.296636
 21
158.517088
 31
0.0
  0
LINE
  5
55C
330
26
100
AcDbEntity
  8
2
100
AcDbLine
 10
-242.896636
 20
160.117088
 30
0.0
 11
-241.896636
 21
160.117088
 31
0.0
  0
LINE
  5
55D
330
26
100
AcDbEntity
  8
2
100
AcDbLine
 10
-242.896636
 20
155.917088
 30
0.0
 11
-241.896636
 21
155.917088
 31
0.0
  0
LINE
  5
55E
330
26
100
AcDbEntity
  8
2
100
AcDbLine
 10
-244.496636
 20
158.517088
 30
0.0
 11
-243.896636
 21
158.517088
 31
0.0
  0
LINE
  5
55F
330
26
100
AcDbEntity
  8
2
100
AcDbLine
 10
-240.896636
 20
158.517088
 30
0.0
 11
-240.296636
 21
158.517088
 31
0.0
  0
LINE
  5
560
330
26
100
AcDbEntity
  8
2
100
AcDbLine
 10
-242.896636
 20
155.917088
 30
0.0
 11
-242.896636
 21
156.517088
 31
0.0
  0
LINE
  5
561
330
26
100
AcDbEntity
  8
2
100
AcDbLine
 10
-242.896636
 20
159.517088
 30
0.0
 11
-242.896636
 21
160.117088
 31
0.0
  0
LINE
  5
562
330
26
100
AcDbEntity
  8
2
100
AcDbLine
 10
-244.496636
 20
157.517088
 30
0.0
 11
-243.896636
 21
157.517088
 31
0.0
  0
LINE
  5
563
330
26
100
AcDbEntity
  8
2
100
AcDbLine
 10
-240.896636
 20
157.517088
 30
0.0
 11
-240.296636
 21
157.517088
 31
0.0
  0
LINE
  5
564
330
26
100
AcDbEntity
  8
2
100
AcDbLine
 10
-241.896636
 20
155.917088
 30
0.0
 11
-241.896636
 21
156.517088
 31
0.0
  0
LINE
  5
565
330
26
100
AcDbEntity
  8
2
100
AcDbLine
 10
-241.896636
 20
159.517088
 30
0.0
 11
-241.896636
 21
160.117088
 31
0.0
  0
ARC
  5
566
330
26
100
AcDbEntity
  8
2
100
AcDbCircle
 10
-240.896636
 20
156.517088
 30
0.0
 40
1.0
100
AcDbArc
 50
90.0
 51
180.0
  0
ARC
  5
567
330
26
100
AcDbEntity
  8
2
100
AcDbCircle
 10
-243.896636
 20
156.517088
 30
0.0
 40
1.0
100
AcDbArc
 50
0.0
 51
90.0
  0
ARC
  5
568
330
26
100
AcDbEntity
  8
2
100
AcDbCircle
 10
-243.896636
 20
159.517088
 30
0.0
 40
1.0
100
AcDbArc
 50
270.0
 51
360.0
  0
ARC
  5
569
330
26
100
AcDbEntity
  8
2
100
AcDbCircle
 10
-240.896636
 20
159.517088
 30
0.0
 40
1.0
100
AcDbArc
 50
180.0
 51
270.0
  0
CIRCLE
  5
56A
330
26
100
AcDbEntity
  8
2
100
AcDbCircle
 10
-242.396636
 20
132.017088
 30
0.0
 40
3.5
  0
LINE
  5
56B
330
26
100
AcDbEntity
  8
2
100
AcDbLine
 10
-244.496636
 20
132.517088
 30
0.0
 11
-244.496636
 21
131.517088
 31
0.0
  0
LINE
  5
56C
330
26
100
AcDbEntity
  8
2
100
AcDbLine
 10
-240.296636
 20
132.517088
 30
0.0
 11
-240.296636
 21
131.517088
 31
0.0
  0
LINE
  5
56D
330
26
100
AcDbEntity
  8
2
100
AcDbLine
 10
-242.896636
 20
129.917088
 30
0.0
 11
-241.896636
 21
129.917088
 31
0.0
  0
LINE
  5
56E
330
26
100
AcDbEntity
  8
2
100
AcDbLine
 10
-242.896636
 20
134.117088
 30
0.0
 11
-241.896636
 21
134.117088
 31
0.0
  0
LINE
  5
56F
330
26
100
AcDbEntity
  8
2
100
AcDbLine
 10
-244.496636
 20
131.517088
 30
0.0
 11
-243.896636
 21
131.517088
 31
0.0
  0
LINE
  5
570
330
26
100
AcDbEntity
  8
2
100
AcDbLine
 10
-240.896636
 20
131.517088
 30
0.0
 11
-240.296636
 21
131.517088
 31
0.0
  0
LINE
  5
571
330
26
100
AcDbEntity
  8
2
100
AcDbLine
 10
-242.896636
 20
134.117088
 30
0.0
 11
-242.896636
 21
133.517088
 31
0.0
  0
LINE
  5
572
330
26
100
AcDbEntity
  8
2
100
AcDbLine
 10
-242.896636
 20
130.517088
 30
0.0
 11
-242.896636
 21
129.917088
 31
0.0
  0
LINE
  5
573
330
26
100
AcDbEntity
  8
2
100
AcDbLine
 10
-244.496636
 20
132.517088
 30
0.0
 11
-243.896636
 21
132.517088
 31
0.0
  0
LINE
  5
574
330
26
100
AcDbEntity
  8
2
100
AcDbLine
 10
-240.896636
 20
132.517088
 30
0.0
 11
-240.296636
 21
132.517088
 31
0.0
  0
LINE
  5
575
330
26
100
AcDbEntity
  8
2
100
AcDbLine
 10
-241.896636
 20
134.117088
 30
0.0
 11
-241.896636
 21
133.517088
 31
0.0
  0
LINE
  5
576
330
26
100
AcDbEntity
  8
2
100
AcDbLine
 10
-241.896636
 20
130.517088
 30
0.0
 11
-241.896636
 21
129.917088
 31
0.0
  0
ARC
  5
577
330
26
100
AcDbEntity
  8
2
100
AcDbCircle
 10
-240.896636
 20
133.517088
 30
0.0
 40
1.0
100
AcDbArc
 50
180.0
 51
270.0
  0
ARC
  5
578
330
26
100
AcDbEntity
  8
2
100
AcDbCircle
 10
-243.896636
 20
133.517088
 30
0.0
 40
1.0
100
AcDbArc
 50
270.0
 51
360.0
  0
ARC
  5
579
330
26
100
AcDbEntity
  8
2
100
AcDbCircle
 10
-243.896636
 20
130.517088
 30
0.0
 40
1.0
100
AcDbArc
 50
0.0
 51
90.0
  0
ARC
  5
57A
330
26
100
AcDbEntity
  8
2
100
AcDbCircle
 10
-240.896636
 20
130.517088
 30
0.0
 40
1.0
100
AcDbArc
 50
90.0
 51
180.0
  0
LINE
  5
57B
330
26
100
AcDbEntity
  8
2
100
AcDbLine
 10
-245.896636
 20
47.367088
 30
0.0
 11
-245.896636
 21
48.346113
 31
0.0
  0
LINE
  5
57C
330
26
100
AcDbEntity
  8
2
100
AcDbLine
 10
-238.896636
 20
47.367088
 30
0.0
 11
-238.896636
 21
48.346113
 31
0.0
  0
ARC
  5
57D
330
26
100
AcDbEntity
  8
2
100
AcDbCircle
 10
-242.396636
 20
40.967088
 30
0.0
 40
9.0
100
AcDbArc
 50
73.39845
 51
106.60155
  0
ARC
  5
57E
330
26
100
AcDbEntity
  8
2
100
AcDbCircle
 10
-240.196636
 20
48.346113
 30
0.0
 40
1.3
100
AcDbArc
 50
0.0
 51
73.39845
  0
ARC
  5
57F
330
26
100
AcDbEntity
  8
2
100
AcDbCircle
 10
-244.596636
 20
48.346113
 30
0.0
 40
1.3
100
AcDbArc
 50
106.60155
 51
180.0
  0
LINE
  5
580
330
26
100
AcDbEntity
  8
2
100
AcDbLine
 10
44.653364
 20
47.367088
 30
0.0
 11
44.653364
 21
48.346113
 31
0.0
  0
LINE
  5
581
330
26
100
AcDbEntity
  8
2
100
AcDbLine
 10
51.65336400000001
 20
47.367088
 30
0.0
 11
51.65336400000001
 21
48.346113
 31
0.0
  0
ARC
  5
582
330
26
100
AcDbEntity
  8
2
100
AcDbCircle
 10
48.153364
 20
40.967088
 30
0.0
 40
9.0
100
AcDbArc
 50
73.39845
 51
106.60155
  0
ARC
  5
583
330
26
100
AcDbEntity
  8
2
100
AcDbCircle
 10
50.353364
 20
48.346113
 30
0.0
 40
1.3
100
AcDbArc
 50
0.0
 51
73.39845
  0
ARC
  5
584
330
26
100
AcDbEntity
  8
2
100
AcDbCircle
 10
45.95336399999999
 20
48.346113
 30
0.0
 40
1.3
100
AcDbArc
 50
106.60155
 51
180.0
  0
LINE
  5
585
330
26
100
AcDbEntity
  8
2
100
AcDbLine
 10
70.65336399999999
 20
47.367088
 30
0.0
 11
70.65336399999999
 21
48.346113
 31
0.0
  0
LINE
  5
586
330
26
100
AcDbEntity
  8
2
100
AcDbLine
 10
77.65336399999999
 20
47.367088
 30
0.0
 11
77.65336399999999
 21
48.346113
 31
0.0
  0
ARC
  5
587
330
26
100
AcDbEntity
  8
2
100
AcDbCircle
 10
74.153364
 20
40.967088
 30
0.0
 40
9.0
100
AcDbArc
 50
73.39845
 51
106.60155
  0
ARC
  5
588
330
26
100
AcDbEntity
  8
2
100
AcDbCircle
 10
76.35336399999999
 20
48.346113
 30
0.0
 40
1.3
100
AcDbArc
 50
0.0
 51
73.39845
  0
ARC
  5
589
330
26
100
AcDbEntity
  8
2
100
AcDbCircle
 10
71.95336400000001
 20
48.346113
 30
0.0
 40
1.3
100
AcDbArc
 50
106.60155
 51
180.0
  0
LINE
  5
58A
330
26
100
AcDbEntity
  8
2
100
AcDbLine
 10
-209.796636
 20
37.96708800000001
 30
0.0
 11
-218.996636
 21
37.96708800000001
 31
0.0
  0
LINE
  5
58B
330
26
100
AcDbEntity
  8
2
100
AcDbLine
 10
-218.996636
 20
37.96708800000001
 30
0.0
 11
-218.996636
 21
36.667088
 31
0.0
  0
LINE
  5
58C
330
26
100
AcDbEntity
  8
2
100
AcDbLine
 10
-209.796636
 20
37.96708800000001
 30
0.0
 11
-209.796636
 21
36.667088
 31
0.0
  0
LINE
  5
58D
330
26
100
AcDbEntity
  8
2
100
AcDbLine
 10
-218.896636
 20
39.25458
 30
0.0
 11
-218.896636
 21
37.96708800000001
 31
0.0
  0
LINE
  5
58E
330
26
100
AcDbEntity
  8
2
100
AcDbLine
 10
-209.896636
 20
39.25458
 30
0.0
 11
-209.896636
 21
37.96708800000001
 31
0.0
  0
ARC
  5
58F
330
26
100
AcDbEntity
  8
2
100
AcDbCircle
 10
-214.396636
 20
29.267088
 30
0.0
 40
12.0
100
AcDbArc
 50
73.80864800000001
 51
106.191352
  0
ARC
  5
590
330
26
100
AcDbEntity
  8
2
100
AcDbCircle
 10
-211.496636
 20
39.25458
 30
0.0
 40
1.6
100
AcDbArc
 50
0.0
 51
73.80864800000001
  0
ARC
  5
591
330
26
100
AcDbEntity
  8
2
100
AcDbCircle
 10
-217.296636
 20
39.25458
 30
0.0
 40
1.6
100
AcDbArc
 50
106.191352
 51
180.0
  0
LINE
  5
592
330
26
100
AcDbEntity
  8
2
100
AcDbLine
 10
-265.796636
 20
37.96708800000001
 30
0.0
 11
-274.996636
 21
37.96708800000001
 31
0.0
  0
LINE
  5
593
330
26
100
AcDbEntity
  8
2
100
AcDbLine
 10
-274.996636
 20
37.96708800000001
 30
0.0
 11
-274.996636
 21
36.667088
 31
0.0
  0
LINE
  5
594
330
26
100
AcDbEntity
  8
2
100
AcDbLine
 10
-265.796636
 20
37.96708800000001
 30
0.0
 11
-265.796636
 21
36.667088
 31
0.0
  0
LINE
  5
595
330
26
100
AcDbEntity
  8
2
100
AcDbLine
 10
-274.896636
 20
39.25458
 30
0.0
 11
-274.896636
 21
37.96708800000001
 31
0.0
  0
LINE
  5
596
330
26
100
AcDbEntity
  8
2
100
AcDbLine
 10
-265.896636
 20
39.25458
 30
0.0
 11
-265.896636
 21
37.96708800000001
 31
0.0
  0
ARC
  5
597
330
26
100
AcDbEntity
  8
2
100
AcDbCircle
 10
-270.396636
 20
29.267088
 30
0.0
 40
12.0
100
AcDbArc
 50
73.80864800000001
 51
106.191352
  0
ARC
  5
598
330
26
100
AcDbEntity
  8
2
100
AcDbCircle
 10
-267.4966359999999
 20
39.25458
 30
0.0
 40
1.6
100
AcDbArc
 50
0.0
 51
73.80864800000001
  0
ARC
  5
599
330
26
100
AcDbEntity
  8
2
100
AcDbCircle
 10
-273.296636
 20
39.25458
 30
0.0
 40
1.6
100
AcDbArc
 50
106.191352
 51
180.0
  0
LINE
  5
59A
330
26
100
AcDbEntity
  8
2
100
AcDbLine
 10
114.253364
 20
37.96708800000001
 30
0.0
 11
105.053364
 21
37.96708800000001
 31
0.0
  0
LINE
  5
59B
330
26
100
AcDbEntity
  8
2
100
AcDbLine
 10
105.053364
 20
37.96708800000001
 30
0.0
 11
105.053364
 21
36.667088
 31
0.0
  0
LINE
  5
59C
330
26
100
AcDbEntity
  8
2
100
AcDbLine
 10
114.253364
 20
37.96708800000001
 30
0.0
 11
114.253364
 21
36.667088
 31
0.0
  0
LINE
  5
59D
330
26
100
AcDbEntity
  8
2
100
AcDbLine
 10
105.153364
 20
39.25458
 30
0.0
 11
105.153364
 21
37.96708800000001
 31
0.0
  0
LINE
  5
59E
330
26
100
AcDbEntity
  8
2
100
AcDbLine
 10
114.153364
 20
39.25458
 30
0.0
 11
114.153364
 21
37.96708800000001
 31
0.0
  0
ARC
  5
59F
330
26
100
AcDbEntity
  8
2
100
AcDbCircle
 10
109.653364
 20
29.267088
 30
0.0
 40
12.0
100
AcDbArc
 50
73.80864800000001
 51
106.191352
  0
ARC
  5
5A0
330
26
100
AcDbEntity
  8
2
100
AcDbCircle
 10
112.553364
 20
39.25458
 30
0.0
 40
1.6
100
AcDbArc
 50
0.0
 51
73.80864800000001
  0
ARC
  5
5A1
330
26
100
AcDbEntity
  8
2
100
AcDbCircle
 10
106.753364
 20
39.25458
 30
0.0
 40
1.6
100
AcDbArc
 50
106.191352
 51
180.0
  0
LINE
  5
5A2
330
26
100
AcDbEntity
  8
2
100
AcDbLine
 10
89.75336400000001
 20
37.96708800000001
 30
0.0
 11
80.55336399999999
 21
37.96708800000001
 31
0.0
  0
LINE
  5
5A3
330
26
100
AcDbEntity
  8
2
100
AcDbLine
 10
80.55336399999999
 20
37.96708800000001
 30
0.0
 11
80.55336399999999
 21
36.667088
 31
0.0
  0
LINE
  5
5A4
330
26
100
AcDbEntity
  8
2
100
AcDbLine
 10
89.75336400000001
 20
37.96708800000001
 30
0.0
 11
89.75336400000001
 21
36.667088
 31
0.0
  0
LINE
  5
5A5
330
26
100
AcDbEntity
  8
2
100
AcDbLine
 10
80.65336399999999
 20
39.25458
 30
0.0
 11
80.65336399999999
 21
37.96708800000001
 31
0.0
  0
LINE
  5
5A6
330
26
100
AcDbEntity
  8
2
100
AcDbLine
 10
89.65336399999999
 20
39.25458
 30
0.0
 11
89.65336399999999
 21
37.96708800000001
 31
0.0
  0
ARC
  5
5A7
330
26
100
AcDbEntity
  8
2
100
AcDbCircle
 10
85.153364
 20
29.267088
 30
0.0
 40
12.0
100
AcDbArc
 50
73.80864800000001
 51
106.191352
  0
ARC
  5
5A8
330
26
100
AcDbEntity
  8
2
100
AcDbCircle
 10
88.05336399999999
 20
39.25458
 30
0.0
 40
1.6
100
AcDbArc
 50
0.0
 51
73.80864800000001
  0
ARC
  5
5A9
330
26
100
AcDbEntity
  8
2
100
AcDbCircle
 10
82.25336400000001
 20
39.25458
 30
0.0
 40
1.6
100
AcDbArc
 50
106.191352
 51
180.0
  0
LINE
  5
5AA
330
26
100
AcDbEntity
  8
2
100
AcDbLine
 10
37.753364
 20
37.96708800000001
 30
0.0
 11
28.553364
 21
37.96708800000001
 31
0.0
  0
LINE
  5
5AB
330
26
100
AcDbEntity
  8
2
100
AcDbLine
 10
28.553364
 20
37.96708800000001
 30
0.0
 11
28.553364
 21
36.667088
 31
0.0
  0
LINE
  5
5AC
330
26
100
AcDbEntity
  8
2
100
AcDbLine
 10
37.753364
 20
37.96708800000001
 30
0.0
 11
37.753364
 21
36.667088
 31
0.0
  0
LINE
  5
5AD
330
26
100
AcDbEntity
  8
2
100
AcDbLine
 10
28.653364
 20
39.25458
 30
0.0
 11
28.653364
 21
37.96708800000001
 31
0.0
  0
LINE
  5
5AE
330
26
100
AcDbEntity
  8
2
100
AcDbLine
 10
37.65336400000001
 20
39.25458
 30
0.0
 11
37.65336400000001
 21
37.96708800000001
 31
0.0
  0
ARC
  5
5AF
330
26
100
AcDbEntity
  8
2
100
AcDbCircle
 10
33.153364
 20
29.267088
 30
0.0
 40
12.0
100
AcDbArc
 50
73.80864800000001
 51
106.191352
  0
ARC
  5
5B0
330
26
100
AcDbEntity
  8
2
100
AcDbCircle
 10
36.053364
 20
39.25458
 30
0.0
 40
1.6
100
AcDbArc
 50
0.0
 51
73.80864800000001
  0
ARC
  5
5B1
330
26
100
AcDbEntity
  8
2
100
AcDbCircle
 10
30.253364
 20
39.25458
 30
0.0
 40
1.6
100
AcDbArc
 50
106.191352
 51
180.0
  0
LINE
  5
5B2
330
26
100
AcDbEntity
  8
2
100
AcDbLine
 10
-207.396636
 20
39.25458
 30
0.0
 11
-207.396636
 21
37.96708800000001
 31
0.0
  0
ARC
  5
5B3
330
26
100
AcDbEntity
  8
2
100
AcDbCircle
 10
-211.896636
 20
29.267088
 30
0.0
 40
12.0
100
AcDbArc
 50
73.80864800000001
 51
94.780192
  0
ARC
  5
5B4
330
26
100
AcDbEntity
  8
2
100
AcDbCircle
 10
-208.996636
 20
39.25458
 30
0.0
 40
1.6
100
AcDbArc
 50
0.0
 51
73.80864800000001
  0
LINE
  5
5B5
330
26
100
AcDbEntity
  8
2
100
AcDbLine
 10
-207.296636
 20
37.96708800000001
 30
0.0
 11
-207.648302
 21
37.96708800000001
 31
0.0
  0
LINE
  5
5B6
330
26
100
AcDbEntity
  8
2
100
AcDbLine
 10
-207.296636
 20
37.96708800000001
 30
0.0
 11
-207.296636
 21
37.764054
 31
0.0
  0
LINE
  5
5B7
330
26
100
AcDbEntity
  8
2
100
AcDbLine
 10
-277.396636
 20
39.25458
 30
0.0
 11
-277.396636
 21
37.96708800000001
 31
0.0
  0
ARC
  5
5B8
330
26
100
AcDbEntity
  8
2
100
AcDbCircle
 10
-272.896636
 20
29.267088
 30
0.0
 40
12.0
100
AcDbArc
 50
85.21980799999999
 51
106.191352
  0
ARC
  5
5B9
330
26
100
AcDbEntity
  8
2
100
AcDbCircle
 10
-275.796636
 20
39.25458
 30
0.0
 40
1.6
100
AcDbArc
 50
106.191352
 51
180.0
  0
LINE
  5
5BA
330
26
100
AcDbEntity
  8
2
100
AcDbLine
 10
-277.496636
 20
37.96708800000001
 30
0.0
 11
-277.144969
 21
37.96708800000001
 31
0.0
  0
LINE
  5
5BB
330
26
100
AcDbEntity
  8
2
100
AcDbLine
 10
-277.496636
 20
37.96708800000001
 30
0.0
 11
-277.496636
 21
37.764054
 31
0.0
  0
LINE
  5
5BC
330
26
100
AcDbEntity
  8
2
  6
CENTER
 62
     2
100
AcDbLine
 10
-223.396636
 20
117.017088
 30
0.0
 11
-205.396636
 21
117.017088
 31
0.0
  0
LINE
  5
5BD
330
26
100
AcDbEntity
  8
2
  6
CENTER
 62
     2
100
AcDbLine
 10
-214.396636
 20
108.017088
 30
0.0
 11
-214.396636
 21
126.017088
 31
0.0
  0
LINE
  5
5BE
330
26
100
AcDbEntity
  8
2
  6
CENTER
 62
     2
100
AcDbLine
 10
-279.396636
 20
117.017088
 30
0.0
 11
-261.396636
 21
117.017088
 31
0.0
  0
LINE
  5
5BF
330
26
100
AcDbEntity
  8
2
  6
CENTER
 62
     2
100
AcDbLine
 10
-270.396636
 20
108.017088
 30
0.0
 11
-270.396636
 21
126.017088
 31
0.0
  0
LINE
  5
5C0
330
26
100
AcDbEntity
  8
2
  6
CENTER
 62
     2
100
AcDbLine
 10
-242.396636
 20
99.25620999999999
 30
0.0
 11
-242.396636
 21
210.575565
 31
0.0
  0
LINE
  5
5C1
330
26
100
AcDbEntity
  8
2
  6
CENTER
 62
     2
100
AcDbLine
 10
-281.896636
 20
169.017088
 30
0.0
 11
-263.896636
 21
169.017088
 31
0.0
  0
LINE
  5
5C2
330
26
100
AcDbEntity
  8
2
  6
CENTER
 62
     2
100
AcDbLine
 10
-272.896636
 20
160.017088
 30
0.0
 11
-272.896636
 21
178.017088
 31
0.0
  0
LINE
  5
5C3
330
26
100
AcDbEntity
  8
2
  6
CENTER
 62
     2
100
AcDbLine
 10
-220.896636
 20
169.017088
 30
0.0
 11
-202.896636
 21
169.017088
 31
0.0
  0
LINE
  5
5C4
330
26
100
AcDbEntity
  8
2
  6
CENTER
 62
     2
100
AcDbLine
 10
-211.896636
 20
160.017088
 30
0.0
 11
-211.896636
 21
178.017088
 31
0.0
  0
LINE
  5
5C5
330
26
100
AcDbEntity
  8
2
  6
CENTER
 62
     2
100
AcDbLine
 10
-223.896636
 20
193.517088
 30
0.0
 11
-205.896636
 21
193.517088
 31
0.0
  0
LINE
  5
5C6
330
26
100
AcDbEntity
  8
2
  6
CENTER
 62
     2
100
AcDbLine
 10
-214.896636
 20
184.517088
 30
0.0
 11
-214.896636
 21
202.517088
 31
0.0
  0
LINE
  5
5C7
330
26
100
AcDbEntity
  8
2
  6
CENTER
 62
     2
100
AcDbLine
 10
-278.896636
 20
193.517088
 30
0.0
 11
-260.896636
 21
193.517088
 31
0.0
  0
LINE
  5
5C8
330
26
100
AcDbEntity
  8
2
  6
CENTER
 62
     2
100
AcDbLine
 10
-269.896636
 20
184.517088
 30
0.0
 11
-269.896636
 21
202.517088
 31
0.0
  0
LINE
  5
5C9
330
26
100
AcDbEntity
  8
2
  6
CENTER
 62
     2
100
AcDbLine
 10
-214.396636
 20
46.496039
 30
0.0
 11
-214.396636
 21
24.516929
 31
0.0
  0
LINE
  5
5CA
330
26
100
AcDbEntity
  8
2
  6
CENTER
 62
     2
100
AcDbLine
 10
-270.396636
 20
46.496039
 30
0.0
 11
-270.396636
 21
24.516929
 31
0.0
  0
LINE
  5
5CB
330
26
100
AcDbEntity
  8
2
  6
CENTER
 62
     2
100
AcDbLine
 10
-75.97618199999999
 20
18.367088
 30
0.0
 11
-287.91355
 21
18.367088
 31
0.0
  0
LINE
  5
5CC
330
26
100
AcDbEntity
  8
2
  6
CENTER
 62
     2
100
AcDbLine
 10
154.153364
 20
18.367088
 30
0.0
 11
7.552653
 21
18.367088
 31
0.0
  0
LINE
  5
5CD
330
26
100
AcDbEntity
  8
2
  6
CENTER
 62
     2
100
AcDbLine
 10
33.153364
 20
46.496039
 30
0.0
 11
33.153364
 21
24.516929
 31
0.0
  0
LINE
  5
5CE
330
26
100
AcDbEntity
  8
2
  6
CENTER
 62
     2
100
AcDbLine
 10
85.153364
 20
46.496039
 30
0.0
 11
85.153364
 21
30.867088
 31
0.0
  0
LINE
  5
5CF
330
26
100
AcDbEntity
  8
2
  6
CENTER
 62
     2
100
AcDbLine
 10
109.653364
 20
46.496039
 30
0.0
 11
109.653364
 21
24.516929
 31
0.0
  0
LINE
  5
5D0
330
26
100
AcDbEntity
  8
2
  6
CENTER
 62
     2
100
AcDbLine
 10
97.15336399999999
 20
-38.632912
 30
0.0
 11
97.15336399999999
 21
75.36708799999999
 31
0.0
  0
LINE
  5
5D1
330
26
100
AcDbEntity
  8
2
  6
CENTER
 62
     2
100
AcDbLine
 10
-287.91355
 20
181.017088
 30
0.0
 11
-75.97618199999999
 21
181.017088
 31
0.0
  0
LINE
  5
5D2
330
26
100
AcDbEntity
  8
2
  6
CENTER
 62
     2
100
AcDbLine
 10
-231.396636
 20
26.343047
 30
0.0
 11
-231.396636
 21
10.391129
 31
0.0
  0
LINE
  5
5D3
330
26
100
AcDbEntity
  8
2
  6
CENTER
 62
     2
100
AcDbLine
 10
-231.396636
 20
95.01708800000001
 30
0.0
 11
-231.396636
 21
113.717784
 31
0.0
  0
LINE
  5
5D4
330
26
100
AcDbEntity
  8
2
  6
CENTER
 62
     2
100
AcDbLine
 10
-253.396636
 20
95.01708800000001
 30
0.0
 11
-253.396636
 21
113.717784
 31
0.0
  0
LINE
  5
5D5
330
26
100
AcDbEntity
  8
2
  6
CENTER
 62
     2
100
AcDbLine
 10
-253.396636
 20
26.343047
 30
0.0
 11
-253.396636
 21
10.391129
 31
0.0
  0
LINE
  5
5D6
330
26
100
AcDbEntity
  8
2
  6
CENTER
 62
     2
100
AcDbLine
 10
74.153364
 20
38.526519
 30
0.0
 11
74.153364
 21
53.25105999999999
 31
0.0
  0
LINE
  5
5D7
330
26
100
AcDbEntity
  8
2
  6
CENTER
 62
     2
100
AcDbLine
 10
48.153364
 20
38.526519
 30
0.0
 11
48.153364
 21
53.25105999999999
 31
0.0
  0
LINE
  5
5D8
330
26
100
AcDbEntity
  8
2
  6
CENTER
 62
     2
100
AcDbLine
 10
-248.896636
 20
158.017088
 30
0.0
 11
-235.896636
 21
158.017088
 31
0.0
  0
LINE
  5
5D9
330
26
100
AcDbEntity
  8
2
  6
CENTER
 62
     2
100
AcDbLine
 10
-248.896636
 20
132.017088
 30
0.0
 11
-235.896636
 21
132.017088
 31
0.0
  0
LINE
  5
5DA
330
26
100
AcDbEntity
  8
2
  6
CENTER
 62
     2
100
AcDbLine
 10
-211.896636
 20
46.496039
 30
0.0
 11
-211.896636
 21
24.516929
 31
0.0
  0
LINE
  5
5DB
330
26
100
AcDbEntity
  8
2
  6
CENTER
 62
     2
100
AcDbLine
 10
-272.896636
 20
46.496039
 30
0.0
 11
-272.896636
 21
24.516929
 31
0.0
  0
DIMENSION
  5
5DC
330
26
100
AcDbEntity
  8
5
100
AcDbDimension
  2
*D0
 10
-54.59877800000001
 20
-31.632912
 30
0.0
 11
-64.83877800000001
 21
15.727088
 31
0.0
 70
     1
  1
%%c100
 71
     5
 42
-1.0
100
AcDbAlignedDimension
 13
-97.896636
 23
68.367088
 33
0.0
 14
-97.896636
 24
-31.632912
 34
0.0
  0
DIMENSION
  5
5DD
330
26
100
AcDbEntity
  8
5
100
AcDbDimension
  2
*D1
 10
-82.396636
 20
245.58844
 30
0.0
 11
-162.396636
 21
249.88844
 31
0.0
  1
160
 71
     5
 42
-1.0
100
AcDbAlignedDimension
 13
-242.396636
 23
210.575565
 33
0.0
 14
-82.396636
 24
185.9170879999999
 34
0.0
100
AcDbRotatedDimension
  0
DIMENSION
  5
5DE
330
26
100
AcDbEntity
  8
5
100
AcDbDimension
  2
*D2
 10
-16.385078
 20
18.367088
 30
0.0
 11
-26.625078
 21
0.977088
 31
0.0
  1
29.5
 71
     5
 42
-1.0
100
AcDbAlignedDimension
 13
26.153364
 23
-11.132912
 33
0.0
 14
7.552653
 24
18.367088
 34
0.0
 50
90.0
100
AcDbRotatedDimension
  0
DIMENSION
  5
5DF
330
26
100
AcDbEntity
  8
5
100
AcDbDimension
  2
*D3
 10
-54.59877800000001
 20
181.017088
 30
0.0
 11
-60.218778
 21
164.997088
 31
0.0
  1
36
 71
     5
 42
-1.0
100
AcDbAlignedDimension
 13
-170.072056
 23
145.017088
 33
0.0
 14
-75.97618199999999
 24
181.017088
 34
0.0
 50
90.0
100
AcDbRotatedDimension
  0
DIMENSION
  5
5E0
330
26
100
AcDbEntity
  8
5
100
AcDbDimension
  2
*D4
 10
-54.59877800000001
 20
145.017088
 30
0.0
 11
-60.218778
 21
123.997088
 31
0.0
  1
46
 71
     5
 42
-1.0
100
AcDbAlignedDimension
 13
-228.937636
 23
99.01708800000001
 33
0.0
 14
-170.072056
 24
145.017088
 34
0.0
 50
90.0
100
AcDbRotatedDimension
  0
DIMENSION
  5
5E1
330
26
100
AcDbEntity
  8
5
100
AcDbDimension
  2
*D5
 10
-16.385078
 20
-11.132912
 30
0.0
 11
-24.315078
 21
-86.962912
 31
0.0
  1
151
 71
     5
 42
-1.0
100
AcDbAlignedDimension
 13
23.747654
 23
-162.132912
 33
0.0
 14
26.153364
 24
-11.132912
 34
0.0
 50
90.0
100
AcDbRotatedDimension
  0
DIMENSION
  5
5E2
330
26
100
AcDbEntity
  8
5
100
AcDbDimension
  2
*D6
 10
-16.385078
 20
-162.132912
 30
0.0
 11
-22.005078
 21
-199.102912
 31
0.0
  1
78
 71
     5
 42
-1.0
100
AcDbAlignedDimension
 13
56.153364
 23
-240.032912
 33
0.0
 14
23.747654
 24
-162.132912
 34
0.0
 50
90.0
100
AcDbRotatedDimension
  0
DIMENSION
  5
5E3
330
26
100
AcDbEntity
  8
5
100
AcDbDimension
  2
*D7
 10
84.15336399999999
 20
-263.823456
 30
0.0
 11
61.153364
 21
-259.523456
 31
0.0
  1
46
 71
     5
 42
-1.0
100
AcDbAlignedDimension
 13
38.15336400000001
 23
-218.632912
 33
0.0
 14
84.15336399999999
 24
-218.632912
 34
0.0
100
AcDbRotatedDimension
  0
TEXT
  5
5E4
330
26
100
AcDbEntity
  8
DEFPOINT
100
AcDbText
 10
244.337601
 20
-266.097076
 30
0.0
 40
6.0
  1
１
 41
1.500000000000003
 72
     5
 11
249.137601
 21
-266.097076
 31
0.0
100
AcDbText
  0
TEXT
  5
5E5
330
26
100
AcDbEntity
  8
DEFPOINT
100
AcDbText
 10
253.512146
 20
-273.625671
 30
0.0
 40
6.0
  1
２
 72
     5
 11
258.312146
 21
-273.625671
 31
0.0
100
AcDbText
  0
TEXT
  5
5E6
330
26
100
AcDbEntity
  8
18
100
AcDbText
 10
245.708481
 20
-254.070526
 30
0.0
 40
6.0
  1
標準仕様　ＪＩＳ　５，１０Ｋ
 41
0.8414634146341464
 72
     5
 11
328.508481
 21
-254.070526
 31
0.0
100
AcDbText
  0
TEXT
  5
5E7
330
26
100
AcDbEntity
  8
18
100
AcDbText
 10
307.2
 20
-272.0
 30
0.0
 40
10.0
  1
Ｄ３－０３４７７
 41
0.8478260869565216
 72
     5
 11
385.2
 21
-272.0
 31
0.0
100
AcDbText
  0
TEXT
  5
5E8
330
26
100
AcDbEntity
  8
18
100
AcDbText
 10
245.708481
 20
-246.070526
 30
0.0
 40
6.0
  1
７００Ｇ－２Ｕ　　６５Ａ
 41
0.8388625592417064
 72
     5
 11
316.508481
 21
-246.070526
 31
0.0
100
AcDbText
  0
TEXT
  5
5E9
330
26
100
AcDbEntity
  8
18
100
AcDbText
 10
360.316223
 20
-253.771606
 30
0.0
 40
4.0
  1
２００４．　６．２８
 41
0.8448275862068973
 72
     5
 11
399.516223
 21
-253.771606
 31
0.0
100
AcDbText
  0
LINE
  5
5EA
330
26
100
AcDbEntity
  8
18
100
AcDbLine
 10
373.098152
 20
-136.431236
 30
0.0
 11
173.098152
 21
-136.431236
 31
0.0
  0
LINE
  5
5EB
330
26
100
AcDbEntity
  8
18
100
AcDbLine
 10
323.098152
 20
-136.431236
 30
0.0
 11
323.098152
 21
-186.431236
 31
0.0
  0
LINE
  5
5EC
330
26
100
AcDbEntity
  8
18
100
AcDbLine
 10
173.098152
 20
-186.431236
 30
0.0
 11
373.098152
 21
-186.431236
 31
0.0
  0
LINE
  5
5ED
330
26
100
AcDbEntity
  8
18
100
AcDbLine
 10
173.098152
 20
-196.431236
 30
0.0
 11
373.098152
 21
-196.431236
 31
0.0
  0
LINE
  5
5EE
330
26
100
AcDbEntity
  8
18
100
AcDbLine
 10
173.098152
 20
-136.431236
 30
0.0
 11
173.098152
 21
-196.431236
 31
0.0
  0
LINE
  5
5EF
330
26
100
AcDbEntity
  8
18
100
AcDbLine
 10
223.098152
 20
-136.431236
 30
0.0
 11
223.098152
 21
-186.431236
 31
0.0
  0
LINE
  5
5F0
330
26
100
AcDbEntity
  8
18
100
AcDbLine
 10
273.098152
 20
-136.431236
 30
0.0
 11
273.098152
 21
-186.431236
 31
0.0
  0
TEXT
  5
5F1
330
26
100
AcDbEntity
  8
18
100
AcDbText
 10
193.359627
 20
-184.075478
 30
0.0
 40
6.0
  1
A
 41
1.200000000000002
 72
     5
 11
198.159627
 21
-184.075478
 31
0.0
100
AcDbText
  0
TEXT
  5
5F2
330
26
100
AcDbEntity
  8
18
100
AcDbText
 10
243.335732
 20
-184.235786
 30
0.0
 40
6.0
  1
AR
 41
1.080000000000001
 72
     5
 11
254.135732
 21
-184.235786
 31
0.0
100
AcDbText
  0
LINE
  5
5F3
330
26
100
AcDbEntity
  8
18
100
AcDbLine
 10
373.098152
 20
-176.431236
 30
0.0
 11
173.098152
 21
-176.431236
 31
0.0
  0
LINE
  5
5F4
330
26
100
AcDbEntity
  8
18
100
AcDbLine
 10
373.098152
 20
-136.431236
 30
0.0
 11
373.098152
 21
-196.431236
 31
0.0
  0
TEXT
  5
5F5
330
26
100
AcDbEntity
  8
18
100
AcDbText
 10
293.359627
 20
-184.075478
 30
0.0
 40
6.0
  1
B
 41
1.200000000000002
 72
     5
 11
298.159627
 21
-184.075478
 31
0.0
100
AcDbText
  0
TEXT
  5
5F6
330
26
100
AcDbEntity
  8
18
100
AcDbText
 10
343.335732
 20
-184.235786
 30
0.0
 40
6.0
  1
BR
 41
1.079999999999995
 72
     5
 11
354.1357319999999
 21
-184.235786
 31
0.0
100
AcDbText
  0
LINE
  5
5F7
330
26
100
AcDbEntity
  8
18
  6
CENTER
 62
     2
100
AcDbLine
 10
174.572253
 20
-160.92011
 30
0.0
 11
210.158123
 21
-160.92011
 31
0.0
  0
LINE
  5
5F8
330
26
100
AcDbEntity
  8
18
100
AcDbLine
 10
208.227185
 20
-156.60011
 30
0.0
 11
208.227185
 21
-165.24011
 31
0.0
  0
LINE
  5
5F9
330
26
100
AcDbEntity
  8
18
100
AcDbLine
 10
177.027185
 20
-156.60011
 30
0.0
 11
177.027185
 21
-165.24011
 31
0.0
  0
LINE
  5
5FA
330
26
100
AcDbEntity
  8
18
100
AcDbLine
 10
177.507185
 20
-156.12011
 30
0.0
 11
186.011664
 21
-156.12011
 31
0.0
  0
LINE
  5
5FB
330
26
100
AcDbEntity
  8
18
100
AcDbLine
 10
199.242705
 20
-156.12011
 30
0.0
 11
207.747185
 21
-156.12011
 31
0.0
  0
LINE
  5
5FC
330
26
100
AcDbEntity
  8
18
100
AcDbLine
 10
177.507185
 20
-165.72011
 30
0.0
 11
188.203857
 21
-165.72011
 31
0.0
  0
LINE
  5
5FD
330
26
100
AcDbEntity
  8
18
100
AcDbLine
 10
197.050512
 20
-165.72011
 30
0.0
 11
207.747185
 21
-165.72011
 31
0.0
  0
ARC
  5
5FE
330
26
100
AcDbEntity
  8
18
100
AcDbCircle
 10
177.507185
 20
-156.60011
 30
0.0
 40
0.48
100
AcDbArc
 50
90.0
 51
180.0
  0
ARC
  5
5FF
330
26
100
AcDbEntity
  8
18
100
AcDbCircle
 10
177.507185
 20
-165.24011
 30
0.0
 40
0.48
100
AcDbArc
 50
180.0
 51
270.0
  0
ARC
  5
600
330
26
100
AcDbEntity
  8
18
100
AcDbCircle
 10
207.747185
 20
-156.60011
 30
0.0
 40
0.48
100
AcDbArc
 50
0.0
 51
90.0
  0
ARC
  5
601
330
26
100
AcDbEntity
  8
18
100
AcDbCircle
 10
207.747185
 20
-165.24011
 30
0.0
 40
0.48
100
AcDbArc
 50
270.0
 51
360.0
  0
TEXT
  5
602
330
26
100
AcDbEntity
  8
18
100
AcDbText
 10
191.110441
 20
-157.474242
 30
0.0
 40
3.0
  1
O
 41
1.200000000000002
 72
     5
 11
193.510441
 21
-157.474242
 31
0.0
100
AcDbText
  0
TEXT
  5
603
330
26
100
AcDbEntity
  8
18
100
AcDbText
 10
198.838759
 20
-162.387039
 30
0.0
 40
3.0
  1
S
 50
90.0
 41
1.200000000000002
 72
     5
 11
198.838759
 21
-159.9870389999999
 31
0.0
100
AcDbText
  0
LINE
  5
604
330
26
100
AcDbEntity
  8
18
100
AcDbLine
 10
197.047686
 20
-151.217346
 30
0.0
 11
188.206683
 21
-151.217346
 31
0.0
  0
ARC
  5
605
330
26
100
AcDbEntity
  8
18
100
AcDbCircle
 10
192.627185
 20
-160.92011
 30
0.0
 40
6.527313999999999
100
AcDbArc
 50
175.0
 51
256.648816
  0
ARC
  5
606
330
26
100
AcDbEntity
  8
18
100
AcDbCircle
 10
192.627185
 20
-160.92011
 30
0.0
 40
6.527313999999999
100
AcDbArc
 50
283.351184
 51
5.0
  0
LINE
  5
607
330
26
100
AcDbEntity
  8
18
100
AcDbLine
 10
186.011664
 20
-156.509763
 30
0.0
 11
186.011664
 21
-151.714146
 31
0.0
  0
LINE
  5
608
330
26
100
AcDbEntity
  8
18
100
AcDbLine
 10
199.242705
 20
-151.714146
 30
0.0
 11
199.242705
 21
-156.509763
 31
0.0
  0
LINE
  5
609
330
26
100
AcDbEntity
  8
18
100
AcDbLine
 10
199.001532
 20
-156.686177
 30
0.0
 11
199.0662909999999
 21
-156.686177
 31
0.0
  0
LINE
  5
60A
330
26
100
AcDbEntity
  8
18
100
AcDbLine
 10
186.188078
 20
-156.686177
 30
0.0
 11
186.270749
 21
-156.686177
 31
0.0
  0
LINE
  5
60B
330
26
100
AcDbEntity
  8
18
100
AcDbLine
 10
198.98362
 20
-156.686177
 30
0.0
 11
199.0662909999999
 21
-156.686177
 31
0.0
  0
ARC
  5
60C
330
26
100
AcDbEntity
  8
18
100
AcDbCircle
 10
199.0662909999999
 20
-156.509763
 30
0.0
 40
0.176414
100
AcDbArc
 50
270.0
 51
360.0
  0
ARC
  5
60D
330
26
100
AcDbEntity
  8
18
100
AcDbCircle
 10
186.188078
 20
-156.509763
 30
0.0
 40
0.176414
100
AcDbArc
 50
180.0
 51
270.0
  0
LINE
  5
60E
330
26
100
AcDbEntity
  8
18
100
AcDbLine
 10
194.1344649999999
 20
-167.27101
 30
0.0
 11
191.1199039999999
 21
-167.27101
 31
0.0
  0
LINE
  5
60F
330
26
100
AcDbEntity
  8
18
100
AcDbLine
 10
199.242705
 20
-153.510727
 30
0.0
 11
216.795887
 21
-153.510727
 31
0.0
  0
LINE
  5
610
330
26
100
AcDbEntity
  8
18
100
AcDbLine
 10
199.242705
 20
-155.627693
 30
0.0
 11
216.795887
 21
-155.627693
 31
0.0
  0
ARC
  5
611
330
26
100
AcDbEntity
  8
18
100
AcDbCircle
 10
218.118991
 20
-162.0668
 30
0.0
 40
1.323104
100
AcDbArc
 50
180.0
 51
360.0
  0
ARC
  5
612
330
26
100
AcDbEntity
  8
18
100
AcDbCircle
 10
218.118991
 20
-147.07162
 30
0.0
 40
1.323104
100
AcDbArc
 50
0.0
 51
180.0
  0
LINE
  5
613
330
26
100
AcDbEntity
  8
18
100
AcDbLine
 10
219.442095
 20
-147.07162
 30
0.0
 11
219.442095
 21
-162.0668
 31
0.0
  0
LINE
  5
614
330
26
100
AcDbEntity
  8
18
100
AcDbLine
 10
189.312577
 20
-161.272938
 30
0.0
 11
195.941792
 21
-161.272938
 31
0.0
  0
LINE
  5
615
330
26
100
AcDbEntity
  8
18
100
AcDbLine
 10
189.312577
 20
-160.567282
 30
0.0
 11
195.941792
 21
-160.567282
 31
0.0
  0
LINE
  5
616
330
26
100
AcDbEntity
  8
18
  6
CENTER
 62
     2
100
AcDbLine
 10
192.627185
 20
-169.931281
 30
0.0
 11
192.627185
 21
-149.019492
 31
0.0
  0
LINE
  5
617
330
26
100
AcDbEntity
  8
18
100
AcDbLine
 10
198.442359
 20
-152.495328
 30
0.0
 11
199.12966
 21
-160.351217
 31
0.0
  0
LINE
  5
618
330
26
100
AcDbEntity
  8
18
100
AcDbLine
 10
186.124709
 20
-160.351217
 30
0.0
 11
186.81201
 21
-152.495328
 31
0.0
  0
LINE
  5
619
330
26
100
AcDbEntity
  8
18
100
AcDbLine
 10
216.795887
 20
-162.0668
 30
0.0
 11
216.795887
 21
-147.07162
 31
0.0
  0
ARC
  5
61A
330
26
100
AcDbEntity
  8
18
100
AcDbCircle
 10
199.065905
 20
-151.714146
 30
0.0
 40
0.1768
100
AcDbArc
 50
0.0
 51
90.0
  0
ARC
  5
61B
330
26
100
AcDbEntity
  8
18
100
AcDbCircle
 10
186.1884639999999
 20
-151.714146
 30
0.0
 40
0.1768
100
AcDbArc
 50
90.0
 51
180.0
  0
LINE
  5
61C
330
26
100
AcDbEntity
  8
18
100
AcDbLine
 10
199.065905
 20
-151.537346
 30
0.0
 11
197.938528
 21
-151.537346
 31
0.0
  0
LINE
  5
61D
330
26
100
AcDbEntity
  8
18
100
AcDbLine
 10
187.315841
 20
-151.537346
 30
0.0
 11
186.1884639999999
 21
-151.537346
 31
0.0
  0
CIRCLE
  5
61E
330
26
100
AcDbEntity
  8
18
100
AcDbCircle
 10
192.627185
 20
-160.92011
 30
0.0
 40
3.333333
  0
TEXT
  5
61F
330
26
100
AcDbEntity
  8
18
100
AcDbText
 10
189.41561
 20
-162.387039
 30
0.0
 40
3.0
  1
S
 50
90.0
 41
1.200000000000002
 72
     5
 11
189.41561
 21
-159.9870389999999
 31
0.0
100
AcDbText
  0
TEXT
  5
620
330
26
100
AcDbEntity
  8
18
100
AcDbText
 10
232.403679
 20
-195.170548
 30
0.0
 40
6.4
  1
駆 動 部 取 付 方 向
 41
1.097142857142857
 72
     5
 11
314.323679
 21
-195.170548
 31
0.0
100
AcDbText
  0
ARC
  5
621
330
26
100
AcDbEntity
  8
18
100
AcDbCircle
 10
197.047686
 20
-152.617346
 30
0.0
 40
1.399999999999999
100
AcDbArc
 50
5.0
 51
90.0
  0
ARC
  5
622
330
26
100
AcDbEntity
  8
18
100
AcDbCircle
 10
188.206683
 20
-152.617346
 30
0.0
 40
1.399999999999999
100
AcDbArc
 50
90.0
 51
175.0
  0
ARC
  5
623
330
26
100
AcDbEntity
  8
18
100
AcDbCircle
 10
198.98362
 20
-156.846177
 30
0.0
 40
0.16
100
AcDbArc
 50
90.0
 51
185.0
  0
ARC
  5
624
330
26
100
AcDbEntity
  8
18
100
AcDbCircle
 10
186.270749
 20
-156.846177
 30
0.0
 40
0.16
100
AcDbArc
 50
355.0
 51
90.0
  0
LINE
  5
625
330
26
100
AcDbEntity
  8
18
  6
CENTER
 62
     2
100
AcDbLine
 10
234.972253
 20
-160.92011
 30
0.0
 11
270.558123
 21
-160.92011
 31
0.0
  0
LINE
  5
626
330
26
100
AcDbEntity
  8
18
100
AcDbLine
 10
268.627185
 20
-156.60011
 30
0.0
 11
268.627185
 21
-165.24011
 31
0.0
  0
LINE
  5
627
330
26
100
AcDbEntity
  8
18
100
AcDbLine
 10
237.427185
 20
-156.60011
 30
0.0
 11
237.427185
 21
-165.24011
 31
0.0
  0
LINE
  5
628
330
26
100
AcDbEntity
  8
18
100
AcDbLine
 10
237.907185
 20
-156.12011
 30
0.0
 11
246.411664
 21
-156.12011
 31
0.0
  0
LINE
  5
629
330
26
100
AcDbEntity
  8
18
100
AcDbLine
 10
259.642705
 20
-156.12011
 30
0.0
 11
268.147185
 21
-156.12011
 31
0.0
  0
LINE
  5
62A
330
26
100
AcDbEntity
  8
18
100
AcDbLine
 10
237.907185
 20
-165.72011
 30
0.0
 11
248.603857
 21
-165.72011
 31
0.0
  0
LINE
  5
62B
330
26
100
AcDbEntity
  8
18
100
AcDbLine
 10
257.450512
 20
-165.72011
 30
0.0
 11
268.147185
 21
-165.72011
 31
0.0
  0
ARC
  5
62C
330
26
100
AcDbEntity
  8
18
100
AcDbCircle
 10
237.907185
 20
-156.60011
 30
0.0
 40
0.48
100
AcDbArc
 50
90.0
 51
180.0
  0
ARC
  5
62D
330
26
100
AcDbEntity
  8
18
100
AcDbCircle
 10
237.907185
 20
-165.24011
 30
0.0
 40
0.48
100
AcDbArc
 50
180.0
 51
270.0
  0
ARC
  5
62E
330
26
100
AcDbEntity
  8
18
100
AcDbCircle
 10
268.147185
 20
-156.60011
 30
0.0
 40
0.48
100
AcDbArc
 50
0.0
 51
90.0
  0
ARC
  5
62F
330
26
100
AcDbEntity
  8
18
100
AcDbCircle
 10
268.147185
 20
-165.24011
 30
0.0
 40
0.48
100
AcDbArc
 50
270.0
 51
360.0
  0
TEXT
  5
630
330
26
100
AcDbEntity
  8
18
100
AcDbText
 10
251.510441
 20
-157.474242
 30
0.0
 40
3.0
  1
O
 41
1.200000000000002
 72
     5
 11
253.910441
 21
-157.474242
 31
0.0
100
AcDbText
  0
TEXT
  5
631
330
26
100
AcDbEntity
  8
18
100
AcDbText
 10
259.2387589999999
 20
-162.387039
 30
0.0
 40
3.0
  1
S
 50
90.0
 41
1.200000000000002
 72
     5
 11
259.2387589999999
 21
-159.9870389999999
 31
0.0
100
AcDbText
  0
LINE
  5
632
330
26
100
AcDbEntity
  8
18
100
AcDbLine
 10
257.447686
 20
-151.217346
 30
0.0
 11
248.606683
 21
-151.217346
 31
0.0
  0
ARC
  5
633
330
26
100
AcDbEntity
  8
18
100
AcDbCircle
 10
253.027185
 20
-160.92011
 30
0.0
 40
6.527313999999999
100
AcDbArc
 50
175.0
 51
256.648816
  0
ARC
  5
634
330
26
100
AcDbEntity
  8
18
100
AcDbCircle
 10
253.027185
 20
-160.92011
 30
0.0
 40
6.527313999999999
100
AcDbArc
 50
283.351184
 51
5.0
  0
LINE
  5
635
330
26
100
AcDbEntity
  8
18
100
AcDbLine
 10
246.411664
 20
-156.509763
 30
0.0
 11
246.411664
 21
-151.714146
 31
0.0
  0
LINE
  5
636
330
26
100
AcDbEntity
  8
18
100
AcDbLine
 10
259.642705
 20
-151.714146
 30
0.0
 11
259.642705
 21
-156.509763
 31
0.0
  0
LINE
  5
637
330
26
100
AcDbEntity
  8
18
100
AcDbLine
 10
259.401532
 20
-156.686177
 30
0.0
 11
259.466291
 21
-156.686177
 31
0.0
  0
LINE
  5
638
330
26
100
AcDbEntity
  8
18
100
AcDbLine
 10
246.5880779999999
 20
-156.686177
 30
0.0
 11
246.6707490000001
 21
-156.686177
 31
0.0
  0
LINE
  5
639
330
26
100
AcDbEntity
  8
18
100
AcDbLine
 10
259.38362
 20
-156.686177
 30
0.0
 11
259.466291
 21
-156.686177
 31
0.0
  0
ARC
  5
63A
330
26
100
AcDbEntity
  8
18
100
AcDbCircle
 10
259.466291
 20
-156.509763
 30
0.0
 40
0.176414
100
AcDbArc
 50
270.0
 51
360.0
  0
ARC
  5
63B
330
26
100
AcDbEntity
  8
18
100
AcDbCircle
 10
246.5880779999999
 20
-156.509763
 30
0.0
 40
0.176414
100
AcDbArc
 50
180.0
 51
270.0
  0
LINE
  5
63C
330
26
100
AcDbEntity
  8
18
100
AcDbLine
 10
254.534465
 20
-167.27101
 30
0.0
 11
251.519904
 21
-167.27101
 31
0.0
  0
LINE
  5
63D
330
26
100
AcDbEntity
  8
18
100
AcDbLine
 10
246.411664
 20
-153.510727
 30
0.0
 11
228.858482
 21
-153.510727
 31
0.0
  0
LINE
  5
63E
330
26
100
AcDbEntity
  8
18
100
AcDbLine
 10
246.411664
 20
-155.627693
 30
0.0
 11
228.858482
 21
-155.627693
 31
0.0
  0
ARC
  5
63F
330
26
100
AcDbEntity
  8
18
100
AcDbCircle
 10
227.535378
 20
-162.0668
 30
0.0
 40
1.323104
100
AcDbArc
 50
180.0
 51
360.0
  0
ARC
  5
640
330
26
100
AcDbEntity
  8
18
100
AcDbCircle
 10
227.535378
 20
-147.07162
 30
0.0
 40
1.323104
100
AcDbArc
 50
0.0
 51
180.0
  0
LINE
  5
641
330
26
100
AcDbEntity
  8
18
100
AcDbLine
 10
226.2122740000001
 20
-147.07162
 30
0.0
 11
226.2122740000001
 21
-162.0668
 31
0.0
  0
LINE
  5
642
330
26
100
AcDbEntity
  8
18
100
AcDbLine
 10
249.712577
 20
-161.272938
 30
0.0
 11
256.341792
 21
-161.272938
 31
0.0
  0
LINE
  5
643
330
26
100
AcDbEntity
  8
18
100
AcDbLine
 10
249.712577
 20
-160.567282
 30
0.0
 11
256.341792
 21
-160.567282
 31
0.0
  0
LINE
  5
644
330
26
100
AcDbEntity
  8
18
  6
CENTER
 62
     2
100
AcDbLine
 10
253.027185
 20
-169.931281
 30
0.0
 11
253.027185
 21
-149.019492
 31
0.0
  0
LINE
  5
645
330
26
100
AcDbEntity
  8
18
100
AcDbLine
 10
258.842359
 20
-152.495328
 30
0.0
 11
259.5296600000001
 21
-160.351217
 31
0.0
  0
LINE
  5
646
330
26
100
AcDbEntity
  8
18
100
AcDbLine
 10
246.524709
 20
-160.351217
 30
0.0
 11
247.21201
 21
-152.495328
 31
0.0
  0
LINE
  5
647
330
26
100
AcDbEntity
  8
18
100
AcDbLine
 10
228.858482
 20
-162.0668
 30
0.0
 11
228.858482
 21
-147.07162
 31
0.0
  0
ARC
  5
648
330
26
100
AcDbEntity
  8
18
100
AcDbCircle
 10
259.465905
 20
-151.714146
 30
0.0
 40
0.1768
100
AcDbArc
 50
0.0
 51
90.0
  0
ARC
  5
649
330
26
100
AcDbEntity
  8
18
100
AcDbCircle
 10
246.588464
 20
-151.714146
 30
0.0
 40
0.1768
100
AcDbArc
 50
90.0
 51
180.0
  0
LINE
  5
64A
330
26
100
AcDbEntity
  8
18
100
AcDbLine
 10
259.465905
 20
-151.537346
 30
0.0
 11
258.338528
 21
-151.537346
 31
0.0
  0
LINE
  5
64B
330
26
100
AcDbEntity
  8
18
100
AcDbLine
 10
247.715841
 20
-151.537346
 30
0.0
 11
246.588464
 21
-151.537346
 31
0.0
  0
CIRCLE
  5
64C
330
26
100
AcDbEntity
  8
18
100
AcDbCircle
 10
253.027185
 20
-160.92011
 30
0.0
 40
3.333333
  0
TEXT
  5
64D
330
26
100
AcDbEntity
  8
18
100
AcDbText
 10
249.81561
 20
-162.387039
 30
0.0
 40
3.0
  1
S
 50
90.0
 41
1.200000000000002
 72
     5
 11
249.81561
 21
-159.9870389999999
 31
0.0
100
AcDbText
  0
ARC
  5
64E
330
26
100
AcDbEntity
  8
18
100
AcDbCircle
 10
257.447686
 20
-152.617346
 30
0.0
 40
1.399999999999999
100
AcDbArc
 50
5.0
 51
90.0
  0
ARC
  5
64F
330
26
100
AcDbEntity
  8
18
100
AcDbCircle
 10
248.606683
 20
-152.617346
 30
0.0
 40
1.399999999999999
100
AcDbArc
 50
90.0
 51
175.0
  0
ARC
  5
650
330
26
100
AcDbEntity
  8
18
100
AcDbCircle
 10
259.38362
 20
-156.846177
 30
0.0
 40
0.16
100
AcDbArc
 50
90.0
 51
185.0
  0
ARC
  5
651
330
26
100
AcDbEntity
  8
18
100
AcDbCircle
 10
246.6707490000001
 20
-156.846177
 30
0.0
 40
0.16
100
AcDbArc
 50
355.0
 51
90.0
  0
LINE
  5
652
330
26
100
AcDbEntity
  8
18
  6
CENTER
 62
     2
100
AcDbLine
 10
279.797503
 20
-146.630319
 30
0.0
 11
315.383374
 21
-146.630319
 31
0.0
  0
LINE
  5
653
330
26
100
AcDbEntity
  8
18
100
AcDbLine
 10
313.452435
 20
-142.310319
 30
0.0
 11
313.452435
 21
-150.950319
 31
0.0
  0
LINE
  5
654
330
26
100
AcDbEntity
  8
18
100
AcDbLine
 10
282.252435
 20
-142.310319
 30
0.0
 11
282.252435
 21
-150.950319
 31
0.0
  0
LINE
  5
655
330
26
100
AcDbEntity
  8
18
100
AcDbLine
 10
282.732435
 20
-141.830319
 30
0.0
 11
293.429107
 21
-141.830319
 31
0.0
  0
LINE
  5
656
330
26
100
AcDbEntity
  8
18
100
AcDbLine
 10
307.502782
 20
-141.830319
 30
0.0
 11
312.972435
 21
-141.830319
 31
0.0
  0
LINE
  5
657
330
26
100
AcDbEntity
  8
18
100
AcDbLine
 10
282.732435
 20
-151.430319
 30
0.0
 11
293.429107
 21
-151.430319
 31
0.0
  0
LINE
  5
658
330
26
100
AcDbEntity
  8
18
100
AcDbLine
 10
307.502782
 20
-151.430319
 30
0.0
 11
312.972435
 21
-151.430319
 31
0.0
  0
ARC
  5
659
330
26
100
AcDbEntity
  8
18
100
AcDbCircle
 10
282.732435
 20
-142.310319
 30
0.0
 40
0.48
100
AcDbArc
 50
90.0
 51
180.0
  0
ARC
  5
65A
330
26
100
AcDbEntity
  8
18
100
AcDbCircle
 10
282.732435
 20
-150.950319
 30
0.0
 40
0.48
100
AcDbArc
 50
180.0
 51
270.0
  0
ARC
  5
65B
330
26
100
AcDbEntity
  8
18
100
AcDbCircle
 10
312.972435
 20
-142.310319
 30
0.0
 40
0.48
100
AcDbArc
 50
0.0
 51
90.0
  0
ARC
  5
65C
330
26
100
AcDbEntity
  8
18
100
AcDbCircle
 10
312.972435
 20
-150.950319
 30
0.0
 40
0.48
100
AcDbArc
 50
270.0
 51
360.0
  0
LINE
  5
65D
330
26
100
AcDbEntity
  8
18
100
AcDbLine
 10
307.555199
 20
-151.050821
 30
0.0
 11
307.555199
 21
-142.209817
 31
0.0
  0
ARC
  5
65E
330
26
100
AcDbEntity
  8
18
100
AcDbCircle
 10
297.852435
 20
-146.630319
 30
0.0
 40
6.527313999999999
100
AcDbArc
 50
85.0
 51
166.648816
  0
ARC
  5
65F
330
26
100
AcDbEntity
  8
18
100
AcDbCircle
 10
297.852435
 20
-146.630319
 30
0.0
 40
6.527313999999999
100
AcDbArc
 50
193.351184
 51
275.0
  0
LINE
  5
660
330
26
100
AcDbEntity
  8
18
100
AcDbLine
 10
302.262782
 20
-140.014798
 30
0.0
 11
307.058399
 21
-140.014798
 31
0.0
  0
LINE
  5
661
330
26
100
AcDbEntity
  8
18
100
AcDbLine
 10
307.058399
 20
-153.24584
 30
0.0
 11
302.262782
 21
-153.24584
 31
0.0
  0
LINE
  5
662
330
26
100
AcDbEntity
  8
18
100
AcDbLine
 10
302.086368
 20
-153.004667
 30
0.0
 11
302.086368
 21
-153.069426
 31
0.0
  0
LINE
  5
663
330
26
100
AcDbEntity
  8
18
100
AcDbLine
 10
302.086368
 20
-140.191212
 30
0.0
 11
302.086368
 21
-140.273884
 31
0.0
  0
LINE
  5
664
330
26
100
AcDbEntity
  8
18
100
AcDbLine
 10
302.086368
 20
-152.986754
 30
0.0
 11
302.086368
 21
-153.069426
 31
0.0
  0
ARC
  5
665
330
26
100
AcDbEntity
  8
18
100
AcDbCircle
 10
302.262782
 20
-153.069426
 30
0.0
 40
0.176414
100
AcDbArc
 50
180.0
 51
270.0
  0
ARC
  5
666
330
26
100
AcDbEntity
  8
18
100
AcDbCircle
 10
302.262782
 20
-140.191212
 30
0.0
 40
0.176414
100
AcDbArc
 50
90.0
 51
180.0
  0
LINE
  5
667
330
26
100
AcDbEntity
  8
18
100
AcDbLine
 10
291.501535
 20
-148.1376
 30
0.0
 11
291.501535
 21
-145.123038
 31
0.0
  0
LINE
  5
668
330
26
100
AcDbEntity
  8
18
100
AcDbLine
 10
305.261818
 20
-153.24584
 30
0.0
 11
305.261818
 21
-170.799021
 31
0.0
  0
LINE
  5
669
330
26
100
AcDbEntity
  8
18
100
AcDbLine
 10
303.144851
 20
-153.24584
 30
0.0
 11
303.144851
 21
-170.799021
 31
0.0
  0
ARC
  5
66A
330
26
100
AcDbEntity
  8
18
100
AcDbCircle
 10
296.705745
 20
-172.122126
 30
0.0
 40
1.323104
100
AcDbArc
 50
90.0
 51
270.0
  0
ARC
  5
66B
330
26
100
AcDbEntity
  8
18
100
AcDbCircle
 10
311.700925
 20
-172.122126
 30
0.0
 40
1.323104
100
AcDbArc
 50
270.0
 51
90.0
  0
LINE
  5
66C
330
26
100
AcDbEntity
  8
18
100
AcDbLine
 10
311.700925
 20
-173.44523
 30
0.0
 11
296.705745
 21
-173.44523
 31
0.0
  0
LINE
  5
66D
330
26
100
AcDbEntity
  8
18
100
AcDbLine
 10
294.537827
 20
-146.983147
 30
0.0
 11
301.167042
 21
-146.983147
 31
0.0
  0
LINE
  5
66E
330
26
100
AcDbEntity
  8
18
100
AcDbLine
 10
294.537827
 20
-146.277491
 30
0.0
 11
301.167042
 21
-146.277491
 31
0.0
  0
LINE
  5
66F
330
26
100
AcDbEntity
  8
18
  6
CENTER
 62
     2
100
AcDbLine
 10
297.852435
 20
-155.589617
 30
0.0
 11
297.852435
 21
-137.674071
 31
0.0
  0
LINE
  5
670
330
26
100
AcDbEntity
  8
18
100
AcDbLine
 10
306.277217
 20
-152.445493
 30
0.0
 11
298.421328
 21
-153.132794
 31
0.0
  0
LINE
  5
671
330
26
100
AcDbEntity
  8
18
100
AcDbLine
 10
298.421328
 20
-140.127844
 30
0.0
 11
306.277217
 21
-140.815145
 31
0.0
  0
LINE
  5
672
330
26
100
AcDbEntity
  8
18
100
AcDbLine
 10
296.705745
 20
-170.799021
 30
0.0
 11
311.700925
 21
-170.799021
 31
0.0
  0
ARC
  5
673
330
26
100
AcDbEntity
  8
18
100
AcDbCircle
 10
307.058399
 20
-153.06904
 30
0.0
 40
0.1768
100
AcDbArc
 50
270.0
 51
360.0
  0
ARC
  5
674
330
26
100
AcDbEntity
  8
18
100
AcDbCircle
 10
307.058399
 20
-140.191598
 30
0.0
 40
0.1768
100
AcDbArc
 50
360.0
 51
90.0
  0
LINE
  5
675
330
26
100
AcDbEntity
  8
18
100
AcDbLine
 10
307.235199
 20
-153.06904
 30
0.0
 11
307.235199
 21
-151.941663
 31
0.0
  0
LINE
  5
676
330
26
100
AcDbEntity
  8
18
100
AcDbLine
 10
307.235199
 20
-141.318975
 30
0.0
 11
307.235199
 21
-140.191598
 31
0.0
  0
CIRCLE
  5
677
330
26
100
AcDbEntity
  8
18
100
AcDbCircle
 10
297.852435
 20
-146.630319
 30
0.0
 40
3.333333
  0
ARC
  5
678
330
26
100
AcDbEntity
  8
18
100
AcDbCircle
 10
306.155199
 20
-151.050821
 30
0.0
 40
1.399999999999999
100
AcDbArc
 50
275.0
 51
360.0
  0
ARC
  5
679
330
26
100
AcDbEntity
  8
18
100
AcDbCircle
 10
306.155199
 20
-142.209817
 30
0.0
 40
1.399999999999999
100
AcDbArc
 50
0.0
 51
85.0
  0
ARC
  5
67A
330
26
100
AcDbEntity
  8
18
100
AcDbCircle
 10
301.926368
 20
-152.986754
 30
0.0
 40
0.16
100
AcDbArc
 50
0.0
 51
95.0
  0
ARC
  5
67B
330
26
100
AcDbEntity
  8
18
100
AcDbCircle
 10
301.926368
 20
-140.273884
 30
0.0
 40
0.16
100
AcDbArc
 50
265.0
 51
360.0
  0
TEXT
  5
67C
330
26
100
AcDbEntity
  8
18
100
AcDbText
 10
296.385505
 20
-143.418744
 30
0.0
 40
3.0
  1
Ｏ
 41
0.9230769230769361
 72
     5
 11
298.785505
 21
-143.418744
 31
0.0
100
AcDbText
  0
TEXT
  5
67D
330
26
100
AcDbEntity
  8
18
100
AcDbText
 10
301.298303
 20
-145.113575
 30
0.0
 40
3.0
  1
Ｓ
 50
270.0
 72
     5
 11
301.298303
 21
-147.513575
 31
0.0
100
AcDbText
  0
TEXT
  5
67E
330
26
100
AcDbEntity
  8
18
100
AcDbText
 10
296.385505
 20
-152.841894
 30
0.0
 40
3.0
  1
Ｏ
 41
0.9230769230769361
 72
     5
 11
298.785505
 21
-152.841894
 31
0.0
100
AcDbText
  0
LINE
  5
67F
330
26
100
AcDbEntity
  8
18
  6
CENTER
 62
     2
100
AcDbLine
 10
329.797503
 20
-165.830319
 30
0.0
 11
365.383374
 21
-165.830319
 31
0.0
  0
LINE
  5
680
330
26
100
AcDbEntity
  8
18
100
AcDbLine
 10
363.452435
 20
-161.510319
 30
0.0
 11
363.452435
 21
-170.150319
 31
0.0
  0
LINE
  5
681
330
26
100
AcDbEntity
  8
18
100
AcDbLine
 10
332.252435
 20
-161.510319
 30
0.0
 11
332.252435
 21
-170.150319
 31
0.0
  0
LINE
  5
682
330
26
100
AcDbEntity
  8
18
100
AcDbLine
 10
332.732435
 20
-161.030319
 30
0.0
 11
343.429107
 21
-161.030319
 31
0.0
  0
LINE
  5
683
330
26
100
AcDbEntity
  8
18
100
AcDbLine
 10
357.502782
 20
-161.030319
 30
0.0
 11
362.972435
 21
-161.030319
 31
0.0
  0
LINE
  5
684
330
26
100
AcDbEntity
  8
18
100
AcDbLine
 10
332.732435
 20
-170.630319
 30
0.0
 11
343.429107
 21
-170.630319
 31
0.0
  0
LINE
  5
685
330
26
100
AcDbEntity
  8
18
100
AcDbLine
 10
357.502782
 20
-170.630319
 30
0.0
 11
362.972435
 21
-170.630319
 31
0.0
  0
ARC
  5
686
330
26
100
AcDbEntity
  8
18
100
AcDbCircle
 10
332.732435
 20
-161.510319
 30
0.0
 40
0.48
100
AcDbArc
 50
90.0
 51
180.0
  0
ARC
  5
687
330
26
100
AcDbEntity
  8
18
100
AcDbCircle
 10
332.732435
 20
-170.150319
 30
0.0
 40
0.48
100
AcDbArc
 50
180.0
 51
270.0
  0
ARC
  5
688
330
26
100
AcDbEntity
  8
18
100
AcDbCircle
 10
362.972435
 20
-161.510319
 30
0.0
 40
0.48
100
AcDbArc
 50
0.0
 51
90.0
  0
ARC
  5
689
330
26
100
AcDbEntity
  8
18
100
AcDbCircle
 10
362.972435
 20
-170.150319
 30
0.0
 40
0.48
100
AcDbArc
 50
270.0
 51
360.0
  0
LINE
  5
68A
330
26
100
AcDbEntity
  8
18
100
AcDbLine
 10
357.555199
 20
-170.250821
 30
0.0
 11
357.555199
 21
-161.409817
 31
0.0
  0
ARC
  5
68B
330
26
100
AcDbEntity
  8
18
100
AcDbCircle
 10
347.852435
 20
-165.830319
 30
0.0
 40
6.527313999999999
100
AcDbArc
 50
85.0
 51
166.648816
  0
ARC
  5
68C
330
26
100
AcDbEntity
  8
18
100
AcDbCircle
 10
347.852435
 20
-165.830319
 30
0.0
 40
6.527313999999999
100
AcDbArc
 50
193.351184
 51
275.0
  0
LINE
  5
68D
330
26
100
AcDbEntity
  8
18
100
AcDbLine
 10
352.262782
 20
-159.214798
 30
0.0
 11
357.058399
 21
-159.214798
 31
0.0
  0
LINE
  5
68E
330
26
100
AcDbEntity
  8
18
100
AcDbLine
 10
357.058399
 20
-172.44584
 30
0.0
 11
352.262782
 21
-172.44584
 31
0.0
  0
LINE
  5
68F
330
26
100
AcDbEntity
  8
18
100
AcDbLine
 10
352.086368
 20
-172.204667
 30
0.0
 11
352.086368
 21
-172.269426
 31
0.0
  0
LINE
  5
690
330
26
100
AcDbEntity
  8
18
100
AcDbLine
 10
352.086368
 20
-159.391212
 30
0.0
 11
352.086368
 21
-159.473884
 31
0.0
  0
LINE
  5
691
330
26
100
AcDbEntity
  8
18
100
AcDbLine
 10
352.086368
 20
-172.186754
 30
0.0
 11
352.086368
 21
-172.269426
 31
0.0
  0
ARC
  5
692
330
26
100
AcDbEntity
  8
18
100
AcDbCircle
 10
352.262782
 20
-172.269426
 30
0.0
 40
0.176414
100
AcDbArc
 50
180.0
 51
270.0
  0
ARC
  5
693
330
26
100
AcDbEntity
  8
18
100
AcDbCircle
 10
352.262782
 20
-159.391212
 30
0.0
 40
0.176414
100
AcDbArc
 50
90.0
 51
180.0
  0
LINE
  5
694
330
26
100
AcDbEntity
  8
18
100
AcDbLine
 10
341.501535
 20
-167.3376
 30
0.0
 11
341.501535
 21
-164.323038
 31
0.0
  0
LINE
  5
695
330
26
100
AcDbEntity
  8
18
100
AcDbLine
 10
355.261818
 20
-159.214798
 30
0.0
 11
355.261818
 21
-141.661616
 31
0.0
  0
LINE
  5
696
330
26
100
AcDbEntity
  8
18
100
AcDbLine
 10
353.144851
 20
-159.214798
 30
0.0
 11
353.144851
 21
-141.661616
 31
0.0
  0
ARC
  5
697
330
26
100
AcDbEntity
  8
18
100
AcDbCircle
 10
346.705745
 20
-140.338512
 30
0.0
 40
1.323104
100
AcDbArc
 50
90.0
 51
270.0
  0
ARC
  5
698
330
26
100
AcDbEntity
  8
18
100
AcDbCircle
 10
361.700925
 20
-140.338512
 30
0.0
 40
1.323104
100
AcDbArc
 50
270.0
 51
90.0
  0
LINE
  5
699
330
26
100
AcDbEntity
  8
18
100
AcDbLine
 10
361.700925
 20
-139.015408
 30
0.0
 11
346.705745
 21
-139.015408
 31
0.0
  0
LINE
  5
69A
330
26
100
AcDbEntity
  8
18
100
AcDbLine
 10
344.537827
 20
-166.183147
 30
0.0
 11
351.167042
 21
-166.183147
 31
0.0
  0
LINE
  5
69B
330
26
100
AcDbEntity
  8
18
100
AcDbLine
 10
344.537827
 20
-165.477491
 30
0.0
 11
351.167042
 21
-165.477491
 31
0.0
  0
LINE
  5
69C
330
26
100
AcDbEntity
  8
18
  6
CENTER
 62
     2
100
AcDbLine
 10
347.852435
 20
-174.789617
 30
0.0
 11
347.852435
 21
-156.874071
 31
0.0
  0
LINE
  5
69D
330
26
100
AcDbEntity
  8
18
100
AcDbLine
 10
356.277217
 20
-171.645493
 30
0.0
 11
348.421328
 21
-172.332794
 31
0.0
  0
LINE
  5
69E
330
26
100
AcDbEntity
  8
18
100
AcDbLine
 10
348.421328
 20
-159.327844
 30
0.0
 11
356.277217
 21
-160.015145
 31
0.0
  0
LINE
  5
69F
330
26
100
AcDbEntity
  8
18
100
AcDbLine
 10
346.705745
 20
-141.661616
 30
0.0
 11
361.700925
 21
-141.661616
 31
0.0
  0
ARC
  5
6A0
330
26
100
AcDbEntity
  8
18
100
AcDbCircle
 10
357.058399
 20
-172.26904
 30
0.0
 40
0.1768
100
AcDbArc
 50
270.0
 51
360.0
  0
ARC
  5
6A1
330
26
100
AcDbEntity
  8
18
100
AcDbCircle
 10
357.058399
 20
-159.391598
 30
0.0
 40
0.1768
100
AcDbArc
 50
360.0
 51
90.0
  0
LINE
  5
6A2
330
26
100
AcDbEntity
  8
18
100
AcDbLine
 10
357.235199
 20
-172.26904
 30
0.0
 11
357.235199
 21
-171.141663
 31
0.0
  0
LINE
  5
6A3
330
26
100
AcDbEntity
  8
18
100
AcDbLine
 10
357.235199
 20
-160.518975
 30
0.0
 11
357.235199
 21
-159.391598
 31
0.0
  0
CIRCLE
  5
6A4
330
26
100
AcDbEntity
  8
18
100
AcDbCircle
 10
347.852435
 20
-165.830319
 30
0.0
 40
3.333333
  0
ARC
  5
6A5
330
26
100
AcDbEntity
  8
18
100
AcDbCircle
 10
356.155199
 20
-170.250821
 30
0.0
 40
1.399999999999999
100
AcDbArc
 50
275.0
 51
360.0
  0
ARC
  5
6A6
330
26
100
AcDbEntity
  8
18
100
AcDbCircle
 10
356.155199
 20
-161.409817
 30
0.0
 40
1.399999999999999
100
AcDbArc
 50
0.0
 51
85.0
  0
ARC
  5
6A7
330
26
100
AcDbEntity
  8
18
100
AcDbCircle
 10
351.926368
 20
-172.186754
 30
0.0
 40
0.16
100
AcDbArc
 50
0.0
 51
95.0
  0
ARC
  5
6A8
330
26
100
AcDbEntity
  8
18
100
AcDbCircle
 10
351.926368
 20
-159.473884
 30
0.0
 40
0.16
100
AcDbArc
 50
265.0
 51
360.0
  0
TEXT
  5
6A9
330
26
100
AcDbEntity
  8
18
100
AcDbText
 10
346.385505
 20
-162.618744
 30
0.0
 40
3.0
  1
Ｏ
 41
0.9230769230769361
 72
     5
 11
348.785505
 21
-162.618744
 31
0.0
100
AcDbText
  0
TEXT
  5
6AA
330
26
100
AcDbEntity
  8
18
100
AcDbText
 10
351.298303
 20
-164.313575
 30
0.0
 40
3.0
  1
Ｓ
 50
270.0
 72
     5
 11
351.298303
 21
-166.713575
 31
0.0
100
AcDbText
  0
TEXT
  5
6AB
330
26
100
AcDbEntity
  8
18
100
AcDbText
 10
346.385505
 20
-172.041894
 30
0.0
 40
3.0
  1
Ｏ
 41
0.9230769230769361
 72
     5
 11
348.785505
 21
-172.041894
 31
0.0
100
AcDbText
  0
LINE
  5
6AC
330
26
100
AcDbEntity
  8
20
 62
     3
100
AcDbLine
 10
-360.0
 20
-277.0
 30
0.0
 11
400.0
 21
-277.0
 31
0.0
  0
LINE
  5
6AD
330
26
100
AcDbEntity
  8
20
 62
     3
100
AcDbLine
 10
-360.0
 20
264.0
 30
0.0
 11
400.0
 21
264.0
 31
0.0
  0
LINE
  5
6AE
330
26
100
AcDbEntity
  8
20
 62
     3
100
AcDbLine
 10
-360.0
 20
264.0
 30
0.0
 11
-360.0
 21
-277.0
 31
0.0
  0
LINE
  5
6AF
330
26
100
AcDbEntity
  8
20
 62
     3
100
AcDbLine
 10
400.0
 20
264.0
 30
0.0
 11
400.0
 21
-277.0
 31
0.0
  0
LINE
  5
6B0
330
26
100
AcDbEntity
  8
20
 62
     3
100
AcDbLine
 10
120.0
 20
-277.0
 30
0.0
 11
120.0
 21
-237.0
 31
0.0
  0
LINE
  5
6B1
330
26
100
AcDbEntity
  8
20
 62
     3
100
AcDbLine
 10
214.0
 20
-277.0
 30
0.0
 11
214.0
 21
-237.0
 31
0.0
  0
LINE
  5
6B2
330
26
100
AcDbEntity
  8
20
100
AcDbLine
 10
214.0
 20
-257.0
 30
0.0
 11
400.0
 21
-257.0
 31
0.0
  0
LINE
  5
6B3
330
26
100
AcDbEntity
  8
20
 62
     3
100
AcDbLine
 10
120.0
 20
-237.0
 30
0.0
 11
400.0
 21
-237.0
 31
0.0
  0
LINE
  5
6B4
330
26
100
AcDbEntity
  8
20
100
AcDbLine
 10
360.0
 20
-257.0
 30
0.0
 11
360.0
 21
-237.0
 31
0.0
  0
LINE
  5
6B5
330
26
100
AcDbEntity
  8
20
100
AcDbLine
 10
360.0
 20
-247.0
 30
0.0
 11
400.0
 21
-247.0
 31
0.0
  0
LINE
  5
6B6
330
26
100
AcDbEntity
  8
20
100
AcDbLine
 10
242.0
 20
-277.0
 30
0.0
 11
242.0
 21
-237.0
 31
0.0
  0
LINE
  5
6B7
330
26
100
AcDbEntity
  8
20
100
AcDbLine
 10
262.0
 20
-277.0
 30
0.0
 11
262.0
 21
-257.0
 31
0.0
  0
LINE
  5
6B8
330
26
100
AcDbEntity
  8
20
100
AcDbLine
 10
302.0
 20
-277.0
 30
0.0
 11
302.0
 21
-257.0
 31
0.0
  0
LINE
  5
6B9
330
26
100
AcDbEntity
  8
20
100
AcDbLine
 10
247.456829
 20
-271.543171
 30
0.0
 11
255.796581
 21
-263.203419
 31
0.0
  0
TEXT
  5
6BA
330
26
100
AcDbEntity
  8
20
100
AcDbText
 10
263.066658
 20
-264.993835
 30
0.0
 40
3.6
  1
ＤＲＡＷＩＮＧ　ＮＯ．
 41
0.880434782608696
 72
     5
 11
301.946658
 21
-264.993835
 31
0.0
100
AcDbText
  0
TEXT
  5
6BB
330
26
100
AcDbEntity
  8
20
100
AcDbText
 10
267.0
 20
-273.0
 30
0.0
 40
6.0
  1
図　　　番
 41
0.8372093023255818
 72
     5
 11
295.8
 21
-273.0
 31
0.0
100
AcDbText
  0
TEXT
  5
6BC
330
26
100
AcDbEntity
  8
20
100
AcDbText
 10
372.0
 20
-244.0
 30
0.0
 40
4.0
  1
ＤＡＴＥ
 41
0.8769230769230761
 72
     5
 11
387.2
 21
-244.0
 31
0.0
100
AcDbText
  0
TEXT
  5
6BD
330
26
100
AcDbEntity
  8
20
100
AcDbText
 10
218.002142
 20
-265.922058
 30
0.0
 40
4.0
  1
ＳＣＡＬＥ
 41
0.8674698795180717
 72
     5
 11
237.202142
 21
-265.922058
 31
0.0
100
AcDbText
  0
TEXT
  5
6BE
330
26
100
AcDbEntity
  8
20
100
AcDbText
 10
216.0
 20
-273.0
 30
0.0
 40
6.0
  1
尺　　度
 41
0.8382352941176474
 72
     5
 11
238.8
 21
-273.0
 31
0.0
100
AcDbText
  0
TEXT
  5
6BF
330
26
100
AcDbEntity
  8
20
100
AcDbText
 10
215.002142
 20
-244.991769
 30
0.0
 40
4.0
  1
ＦＩＧ．ＮＯ．
 41
0.9107142857142854
 72
     5
 11
242.202142
 21
-244.991769
 31
0.0
100
AcDbText
  0
TEXT
  5
6C0
330
26
100
AcDbEntity
  8
20
100
AcDbText
 10
216.0
 20
-253.0
 30
0.0
 40
6.0
  1
名　　称
 41
0.8382352941176474
 72
     5
 11
238.8
 21
-253.0
 31
0.0
100
AcDbText
  0
TEXT
  5
6C1
330
26
100
AcDbEntity
  8
20
100
AcDbText
 10
121.13105
 20
-252.940506
 30
0.0
 40
4.599999999999999
  1
ＴＯＭＯＥ　ＶＡＬＶＥ　ＣＯ．，ＬＴＤ．
 41
0.8583815028901732
 72
     5
 11
212.21105
 21
-252.940506
 31
0.0
100
AcDbText
  0
TEXT
  5
6C2
330
26
100
AcDbEntity
  8
20
100
AcDbText
 10
135.0
 20
-266.57962
 30
0.0
 40
8.0
  1
巴バルブ株式会社
 41
0.8357142857142855
 72
     5
 11
197.4
 21
-266.57962
 31
0.0
100
AcDbText
  0
ENDSEC
  0
SECTION
  2
OBJECTS
  0
DICTIONARY
  5
723
330
0
100
AcDbDictionary
281
     1
  3
ACAD_COLOR
350
75A
  3
ACAD_GROUP
350
724
  3
ACAD_LAYOUT
350
782
  3
ACAD_MATERIAL
350
730
  3
ACAD_MLEADERSTYLE
350
77F
  3
ACAD_MLINESTYLE
350
725
  3
ACAD_PLOTSETTINGS
350
783
  3
ACAD_PLOTSTYLENAME
350
72E
  3
ACAD_SCALELIST
350
75D
  3
ACAD_TABLESTYLE
350
75B
  3
ACAD_VISUALSTYLE
350
749
  3
ACDB_RECOMPOSE_DATA
350
7AE
  3
AcDbVariableDictionary
350
7A5
  3
DWGPROPS
350
7AF
  0
DICTIONARY
  5
789
330
1
100
AcDbDictionary
280
     1
281
     1
  3
ACAD_LAYERFILTERS
360
78D
  3
ACLYDICTIONARY
360
78C
  0
DICTIONARY
  5
78E
330
15
100
AcDbDictionary
280
     1
281
     1
  3
ADSK_XREC_LAYER_RECONCILED
360
78F
  0
DICTIONARY
  5
790
330
16
100
AcDbDictionary
280
     1
281
     1
  3
ADSK_XREC_LAYER_RECONCILED
360
791
  0
DICTIONARY
  5
792
330
17
100
AcDbDictionary
280
     1
281
     1
  3
ADSK_XREC_LAYER_RECONCILED
360
793
  0
DICTIONARY
  5
794
330
18
100
AcDbDictionary
280
     1
281
     1
  3
ADSK_XREC_LAYER_RECONCILED
360
795
  0
DICTIONARY
  5
796
330
19
100
AcDbDictionary
280
     1
281
     1
  3
ADSK_XREC_LAYER_RECONCILED
360
797
  0
DICTIONARY
  5
798
330
1A
100
AcDbDictionary
280
     1
281
     1
  3
ADSK_XREC_LAYER_RECONCILED
360
799
  0
DICTIONARY
  5
79A
330
787
100
AcDbDictionary
280
     1
281
     1
  3
ADSK_XREC_LAYER_RECONCILED
360
79B
  0
DICTIONARY
  5
75A
102
{ACAD_REACTORS
330
723
102
}
330
723
100
AcDbDictionary
281
     1
  0
DICTIONARY
  5
724
102
{ACAD_REACTORS
330
723
102
}
330
723
100
AcDbDictionary
281
     1
  0
DICTIONARY
  5
782
102
{ACAD_REACTORS
330
723
102
}
330
723
100
AcDbDictionary
281
     1
  3
Model
350
784
  3
レイアウト1
350
785
  0
DICTIONARY
  5
730
102
{ACAD_REACTORS
330
723
102
}
330
723
100
AcDbDictionary
281
     1
  3
ByBlock
350
739
  3
ByLayer
350
731
  3
Global
350
741
  0
DICTIONARY
  5
77F
102
{ACAD_REACTORS
330
723
102
}
330
723
100
AcDbDictionary
281
     1
  3
Standard
350
780
  0
DICTIONARY
  5
725
102
{ACAD_REACTORS
330
723
102
}
330
723
100
AcDbDictionary
281
     1
  3
STANDARD
350
726
  0
DICTIONARY
  5
783
102
{ACAD_REACTORS
330
723
102
}
330
723
100
AcDbDictionary
281
     1
  0
ACDBDICTIONARYWDFLT
  5
72E
102
{ACAD_REACTORS
330
723
102
}
330
723
100
AcDbDictionary
281
     1
  3
Normal
350
72F
100
AcDbDictionaryWithDefault
340
72F
  0
DICTIONARY
  5
75D
102
{ACAD_REACTORS
330
723
102
}
330
723
100
AcDbDictionary
281
     1
  3
A0
350
75E
  3
A1
350
75F
  3
A2
350
760
  3
A3
350
761
  3
A4
350
762
  3
A5
350
763
  3
A6
350
764
  3
A7
350
765
  3
A8
350
766
  3
A9
350
767
  3
B0
350
768
  3
B1
350
769
  3
B2
350
76A
  3
B3
350
76B
  3
B4
350
76C
  3
B5
350
76D
  3
B6
350
76E
  3
B7
350
76F
  3
B8
350
770
  3
B9
350
771
  3
C0
350
772
  3
C1
350
773
  3
C2
350
774
  3
C3
350
775
  3
C4
350
776
  3
C5
350
777
  3
C6
350
778
  3
C7
350
779
  3
C8
350
77A
  3
C9
350
77B
  3
D0
350
77C
  3
D1
350
77D
  3
D2
350
77E
  0
DICTIONARY
  5
75B
102
{ACAD_REACTORS
330
723
102
}
330
723
100
AcDbDictionary
281
     1
  3
Standard
350
75C
  0
DICTIONARY
  5
749
102
{ACAD_REACTORS
330
723
102
}
330
723
100
AcDbDictionary
281
     1
  3
2dWireframe
350
74F
  3
3D Hidden
350
751
  3
3dWireframe
350
750
  3
Basic
350
74E
  3
Brighten
350
755
  3
ColorChange
350
759
  3
Conceptual
350
752
  3
Dim
350
754
  3
Facepattern
350
758
  3
Flat
350
74A
  3
FlatWithEdges
350
74B
  3
Gouraud
350
74C
  3
GouraudWithEdges
350
74D
  3
Linepattern
350
757
  3
Realistic
350
753
  3
Thicken
350
756
  0
XRECORD
  5
7AE
102
{ACAD_REACTORS
330
723
102
}
330
723
100
AcDbXrecord
280
     1
 90
        1
330
75C
  0
DICTIONARY
  5
7A5
102
{ACAD_REACTORS
330
723
102
}
330
723
100
AcDbDictionary
281
     1
  3
CANNOSCALE
350
7A8
  3
CMLEADERSTYLE
350
7A7
  3
CTABLESTYLE
350
7A6
  3
DIMASSOC
350
7AB
  3
INDEXCTL
350
7AA
  3
SORTENTS
350
7A9
  0
XRECORD
  5
7AF
102
{ACAD_REACTORS
330
723
102
}
330
723
100
AcDbXrecord
280
     1
  1
DWGPROPS COOKIE
  2

  3

  4

  6

  7

  8
miyazaki-tomoko
  9

300
=
301
=
302
=
303
=
304
=
305
=
306
=
307
=
308
=
309
=
 40
0.0008370023148148
 41
2448870.0
 42
2455622.41546772
  1

 90
        0
  0
DICTIONARY
  5
78D
102
{ACAD_REACTORS
330
789
102
}
330
789
100
AcDbDictionary
281
     1
  0
DICTIONARY
  5
78C
102
{ACAD_REACTORS
330
789
102
}
330
789
100
AcDbDictionary
281
     1
1001
ACAD
1000
<All
  0
XRECORD
  5
78F
102
{ACAD_REACTORS
330
78E
102
}
330
78E
100
AcDbXrecord
280
     1
290
     1
  0
XRECORD
  5
791
102
{ACAD_REACTORS
330
790
102
}
330
790
100
AcDbXrecord
280
     1
290
     1
  0
XRECORD
  5
793
102
{ACAD_REACTORS
330
792
102
}
330
792
100
AcDbXrecord
280
     1
290
     1
  0
XRECORD
  5
795
102
{ACAD_REACTORS
330
794
102
}
330
794
100
AcDbXrecord
280
     1
290
     1
  0
XRECORD
  5
797
102
{ACAD_REACTORS
330
796
102
}
330
796
100
AcDbXrecord
280
     1
290
     1
  0
XRECORD
  5
799
102
{ACAD_REACTORS
330
798
102
}
330
798
100
AcDbXrecord
280
     1
290
     1
  0
XRECORD
  5
79B
102
{ACAD_REACTORS
330
79A
102
}
330
79A
100
AcDbXrecord
280
     1
290
     1
  0
LAYOUT
  5
784
102
{ACAD_XDICTIONARY
360
7B4
102
}
102
{ACAD_REACTORS
330
782
102
}
330
782
100
AcDbPlotSettings
  1

  2
Adobe PDF
  4
A4
  6

 40
3.174999952316284
 41
3.174999952316284
 42
3.175003051757812
 43
3.17498779296875
 44
209.9098358154297
 45
297.0318298339844
 46
0.0
 47
0.0
 48
0.0
 49
0.0
140
0.0
141
0.0
142
1.0
143
60.2537104034435
 70
 11952
 72
     0
 73
     1
 74
     0
  7

 75
     0
147
0.0165964883042763
148
4620.140645914405
149
8628.320790601568
100
AcDbLayout
  1
Model
 70
     1
 71
     0
 10
0.0
 20
0.0
 11
12.0
 21
9.0
 12
0.0
 22
0.0
 32
0.0
 14
0.0
 24
0.0
 34
0.0
 15
0.0
 25
0.0
 35
0.0
146
0.0
 13
0.0
 23
0.0
 33
0.0
 16
1.0
 26
0.0
 36
0.0
 17
0.0
 27
1.0
 37
0.0
 76
     0
330
26
331
1B
1001
ACAD_PSEXT
1000
Adobe PDF
1000
Adobe PDF Converter
1000
C:\Documents and Settings\administrator.TOMOE\My Documents
1000
Adobe PDF の作成
1070
     0
  0
LAYOUT
  5
785
102
{ACAD_XDICTIONARY
360
7B6
102
}
102
{ACAD_REACTORS
330
782
102
}
330
782
100
AcDbPlotSettings
  1

  2
Adobe PDF
  4

  6

 40
0.0
 41
0.0
 42
0.0
 43
0.0
 44
0.0
 45
0.0
 46
0.0
 47
0.0
 48
0.0
 49
0.0
140
0.0
141
0.0
142
1.0
143
1.0
 70
   688
 72
     0
 73
     0
 74
     5
  7

 75
    16
147
1.0
148
0.0
149
0.0
100
AcDbLayout
  1
レイアウト1
 70
     0
 71
     1
 10
0.0
 20
0.0
 11
12.0
 21
9.0
 12
0.0
 22
0.0
 32
0.0
 14
1.000000000000000E+20
 24
1.000000000000000E+20
 34
1.000000000000000E+20
 15
-1.000000000000000E+20
 25
-1.000000000000000E+20
 35
-1.000000000000000E+20
146
0.0
 13
0.0
 23
0.0
 33
0.0
 16
1.0
 26
0.0
 36
0.0
 17
0.0
 27
1.0
 37
0.0
 76
     0
330
27
  0
MATERIAL
  5
739
102
{ACAD_XDICTIONARY
360
73A
102
}
102
{ACAD_REACTORS
330
730
102
}
330
730
100
AcDbMaterial
  1
ByBlock
 72
     0
 43
0.0208333333333333
 43
0.0
 43
0.0
 43
0.0
 43
0.0
 43
0.0208333333333333
 43
0.0
 43
0.0
 43
0.0
 43
0.0
 43
1.0
 43
0.0
 43
0.0
 43
0.0
 43
0.0
 43
1.0
 77
     0
 47
0.0208333333333333
 47
0.0
 47
0.0
 47
0.0
 47
0.0
 47
0.0208333333333333
 47
0.0
 47
0.0
 47
0.0
 47
0.0
 47
1.0
 47
0.0
 47
0.0
 47
0.0
 47
0.0
 47
1.0
171
     0
 49
0.0208333333333333
 49
0.0
 49
0.0
 49
0.0
 49
0.0
 49
0.0208333333333333
 49
0.0
 49
0.0
 49
0.0
 49
0.0
 49
1.0
 49
0.0
 49
0.0
 49
0.0
 49
0.0
 49
1.0
175
     0
142
0.0208333333333333
142
0.0
142
0.0
142
0.0
142
0.0
142
0.0208333333333333
142
0.0
142
0.0
142
0.0
142
0.0
142
1.0
142
0.0
142
0.0
142
0.0
142
0.0
142
1.0
179
     0
144
0.0208333333333333
144
0.0
144
0.0
144
0.0
144
0.0
144
0.0208333333333333
144
0.0
144
0.0
144
0.0
144
0.0
144
1.0
144
0.0
144
0.0
144
0.0
144
0.0
144
1.0
147
0.0208333333333333
147
0.0
147
0.0
147
0.0
147
0.0
147
0.0208333333333333
147
0.0
147
0.0
147
0.0
147
0.0
147
1.0
147
0.0
147
0.0
147
0.0
147
0.0
147
1.0
  0
MATERIAL
  5
731
102
{ACAD_XDICTIONARY
360
732
102
}
102
{ACAD_REACTORS
330
730
102
}
330
730
100
AcDbMaterial
  1
ByLayer
 72
     0
 43
0.0208333333333333
 43
0.0
 43
0.0
 43
0.0
 43
0.0
 43
0.0208333333333333
 43
0.0
 43
0.0
 43
0.0
 43
0.0
 43
1.0
 43
0.0
 43
0.0
 43
0.0
 43
0.0
 43
1.0
 77
     0
 47
0.0208333333333333
 47
0.0
 47
0.0
 47
0.0
 47
0.0
 47
0.0208333333333333
 47
0.0
 47
0.0
 47
0.0
 47
0.0
 47
1.0
 47
0.0
 47
0.0
 47
0.0
 47
0.0
 47
1.0
171
     0
 49
0.0208333333333333
 49
0.0
 49
0.0
 49
0.0
 49
0.0
 49
0.0208333333333333
 49
0.0
 49
0.0
 49
0.0
 49
0.0
 49
1.0
 49
0.0
 49
0.0
 49
0.0
 49
0.0
 49
1.0
175
     0
142
0.0208333333333333
142
0.0
142
0.0
142
0.0
142
0.0
142
0.0208333333333333
142
0.0
142
0.0
142
0.0
142
0.0
142
1.0
142
0.0
142
0.0
142
0.0
142
0.0
142
1.0
179
     0
144
0.0208333333333333
144
0.0
144
0.0
144
0.0
144
0.0
144
0.0208333333333333
144
0.0
144
0.0
144
0.0
144
0.0
144
1.0
144
0.0
144
0.0
144
0.0
144
0.0
144
1.0
147
0.0208333333333333
147
0.0
147
0.0
147
0.0
147
0.0
147
0.0208333333333333
147
0.0
147
0.0
147
0.0
147
0.0
147
1.0
147
0.0
147
0.0
147
0.0
147
0.0
147
1.0
  0
MATERIAL
  5
741
102
{ACAD_XDICTIONARY
360
742
102
}
102
{ACAD_REACTORS
330
730
102
}
330
730
100
AcDbMaterial
  1
Global
 72
     0
 43
0.0208333333333333
 43
0.0
 43
0.0
 43
0.0
 43
0.0
 43
0.0208333333333333
 43
0.0
 43
0.0
 43
0.0
 43
0.0
 43
1.0
 43
0.0
 43
0.0
 43
0.0
 43
0.0
 43
1.0
 77
     0
 47
0.0208333333333333
 47
0.0
 47
0.0
 47
0.0
 47
0.0
 47
0.0208333333333333
 47
0.0
 47
0.0
 47
0.0
 47
0.0
 47
1.0
 47
0.0
 47
0.0
 47
0.0
 47
0.0
 47
1.0
171
     0
 49
0.0208333333333333
 49
0.0
 49
0.0
 49
0.0
 49
0.0
 49
0.0208333333333333
 49
0.0
 49
0.0
 49
0.0
 49
0.0
 49
1.0
 49
0.0
 49
0.0
 49
0.0
 49
0.0
 49
1.0
175
     0
142
0.0208333333333333
142
0.0
142
0.0
142
0.0
142
0.0
142
0.0208333333333333
142
0.0
142
0.0
142
0.0
142
0.0
142
1.0
142
0.0
142
0.0
142
0.0
142
0.0
142
1.0
179
     0
144
0.0208333333333333
144
0.0
144
0.0
144
0.0
144
0.0
144
0.0208333333333333
144
0.0
144
0.0
144
0.0
144
0.0
144
1.0
144
0.0
144
0.0
144
0.0
144
0.0
144
1.0
147
0.0208333333333333
147
0.0
147
0.0
147
0.0
147
0.0
147
0.0208333333333333
147
0.0
147
0.0
147
0.0
147
0.0
147
1.0
147
0.0
147
0.0
147
0.0
147
0.0
147
1.0
  0
MLEADERSTYLE
  5
780
102
{ACAD_REACTORS
330
77F
102
}
330
77F
100
AcDbMLeaderStyle
170
     2
171
     1
172
     0
 90
        2
 40
0.0
 41
0.0
173
     1
 91
-1056964608
340
C
 92
       -2
290
     1
 42
0.09
291
     1
 43
0.36
  3
Standard
 44
0.18
300

342
1D
174
     1
178
     6
175
     1
176
     0
 93
-1056964608
 45
0.18
292
     0
297
     0
 46
0.18
 94
-1056964608
 47
1.0
 49
1.0
140
1.0
293
     1
141
0.0
294
     1
177
     0
142
1.0
295
     0
296
     0
143
0.125
1001
ACAD_MLEADERVER
1070
     2
  0
MLINESTYLE
  5
726
102
{ACAD_REACTORS
330
725
102
}
330
725
100
AcDbMlineStyle
  2
STANDARD
 70
     0
  3

 62
     0
 51
90.0
 52
90.0
 71
     2
 49
0.5
 62
   256
  6
BYLAYER
 49
-0.5
 62
   256
  6
BYLAYER
  0
ACDBPLACEHOLDER
  5
72F
102
{ACAD_REACTORS
330
72E
102
}
330
72E
  0
SCALE
  5
75E
102
{ACAD_REACTORS
330
75D
102
}
330
75D
100
AcDbScale
 70
     0
300
1:1
140
1.0
141
1.0
290
     1
  0
SCALE
  5
75F
102
{ACAD_REACTORS
330
75D
102
}
330
75D
100
AcDbScale
 70
     0
300
1:2
140
1.0
141
2.0
290
     0
  0
SCALE
  5
760
102
{ACAD_REACTORS
330
75D
102
}
330
75D
100
AcDbScale
 70
     0
300
1:4
140
1.0
141
4.0
290
     0
  0
SCALE
  5
761
102
{ACAD_REACTORS
330
75D
102
}
330
75D
100
AcDbScale
 70
     0
300
1:5
140
1.0
141
5.0
290
     0
  0
SCALE
  5
762
102
{ACAD_REACTORS
330
75D
102
}
330
75D
100
AcDbScale
 70
     0
300
1:8
140
1.0
141
8.0
290
     0
  0
SCALE
  5
763
102
{ACAD_REACTORS
330
75D
102
}
330
75D
100
AcDbScale
 70
     0
300
1:10
140
1.0
141
10.0
290
     0
  0
SCALE
  5
764
102
{ACAD_REACTORS
330
75D
102
}
330
75D
100
AcDbScale
 70
     0
300
1:16
140
1.0
141
16.0
290
     0
  0
SCALE
  5
765
102
{ACAD_REACTORS
330
75D
102
}
330
75D
100
AcDbScale
 70
     0
300
1:20
140
1.0
141
20.0
290
     0
  0
SCALE
  5
766
102
{ACAD_REACTORS
330
75D
102
}
330
75D
100
AcDbScale
 70
     0
300
1:30
140
1.0
141
30.0
290
     0
  0
SCALE
  5
767
102
{ACAD_REACTORS
330
75D
102
}
330
75D
100
AcDbScale
 70
     0
300
1:40
140
1.0
141
40.0
290
     0
  0
SCALE
  5
768
102
{ACAD_REACTORS
330
75D
102
}
330
75D
100
AcDbScale
 70
     0
300
1:50
140
1.0
141
50.0
290
     0
  0
SCALE
  5
769
102
{ACAD_REACTORS
330
75D
102
}
330
75D
100
AcDbScale
 70
     0
300
1:100
140
1.0
141
100.0
290
     0
  0
SCALE
  5
76A
102
{ACAD_REACTORS
330
75D
102
}
330
75D
100
AcDbScale
 70
     0
300
2:1
140
2.0
141
1.0
290
     0
  0
SCALE
  5
76B
102
{ACAD_REACTORS
330
75D
102
}
330
75D
100
AcDbScale
 70
     0
300
4:1
140
4.0
141
1.0
290
     0
  0
SCALE
  5
76C
102
{ACAD_REACTORS
330
75D
102
}
330
75D
100
AcDbScale
 70
     0
300
8:1
140
8.0
141
1.0
290
     0
  0
SCALE
  5
76D
102
{ACAD_REACTORS
330
75D
102
}
330
75D
100
AcDbScale
 70
     0
300
10:1
140
10.0
141
1.0
290
     0
  0
SCALE
  5
76E
102
{ACAD_REACTORS
330
75D
102
}
330
75D
100
AcDbScale
 70
     0
300
100:1
140
100.0
141
1.0
290
     0
  0
SCALE
  5
76F
102
{ACAD_REACTORS
330
75D
102
}
330
75D
100
AcDbScale
 70
     0
300
1/128" = 1'-0"
140
0.0078125
141
12.0
290
     0
  0
SCALE
  5
770
102
{ACAD_REACTORS
330
75D
102
}
330
75D
100
AcDbScale
 70
     0
300
1/64" = 1'-0"
140
0.015625
141
12.0
290
     0
  0
SCALE
  5
771
102
{ACAD_REACTORS
330
75D
102
}
330
75D
100
AcDbScale
 70
     0
300
1/32" = 1'-0"
140
0.03125
141
12.0
290
     0
  0
SCALE
  5
772
102
{ACAD_REACTORS
330
75D
102
}
330
75D
100
AcDbScale
 70
     0
300
1/16" = 1'-0"
140
0.0625
141
12.0
290
     0
  0
SCALE
  5
773
102
{ACAD_REACTORS
330
75D
102
}
330
75D
100
AcDbScale
 70
     0
300
3/32" = 1'-0"
140
0.09375
141
12.0
290
     0
  0
SCALE
  5
774
102
{ACAD_REACTORS
330
75D
102
}
330
75D
100
AcDbScale
 70
     0
300
1/8" = 1'-0"
140
0.125
141
12.0
290
     0
  0
SCALE
  5
775
102
{ACAD_REACTORS
330
75D
102
}
330
75D
100
AcDbScale
 70
     0
300
3/16" = 1'-0"
140
0.1875
141
12.0
290
     0
  0
SCALE
  5
776
102
{ACAD_REACTORS
330
75D
102
}
330
75D
100
AcDbScale
 70
     0
300
1/4" = 1'-0"
140
0.25
141
12.0
290
     0
  0
SCALE
  5
777
102
{ACAD_REACTORS
330
75D
102
}
330
75D
100
AcDbScale
 70
     0
300
3/8" = 1'-0"
140
0.375
141
12.0
290
     0
  0
SCALE
  5
778
102
{ACAD_REACTORS
330
75D
102
}
330
75D
100
AcDbScale
 70
     0
300
1/2" = 1'-0"
140
0.5
141
12.0
290
     0
  0
SCALE
  5
779
102
{ACAD_REACTORS
330
75D
102
}
330
75D
100
AcDbScale
 70
     0
300
3/4" = 1'-0"
140
0.75
141
12.0
290
     0
  0
SCALE
  5
77A
102
{ACAD_REACTORS
330
75D
102
}
330
75D
100
AcDbScale
 70
     0
300
1" = 1'-0"
140
1.0
141
12.0
290
     0
  0
SCALE
  5
77B
102
{ACAD_REACTORS
330
75D
102
}
330
75D
100
AcDbScale
 70
     0
300
1-1/2" = 1'-0"
140
1.5
141
12.0
290
     0
  0
SCALE
  5
77C
102
{ACAD_REACTORS
330
75D
102
}
330
75D
100
AcDbScale
 70
     0
300
3" = 1'-0"
140
3.0
141
12.0
290
     0
  0
SCALE
  5
77D
102
{ACAD_REACTORS
330
75D
102
}
330
75D
100
AcDbScale
 70
     0
300
6" = 1'-0"
140
6.0
141
12.0
290
     0
  0
SCALE
  5
77E
102
{ACAD_REACTORS
330
75D
102
}
330
75D
100
AcDbScale
 70
     0
300
1'-0" = 1'-0"
140
12.0
141
12.0
290
     0
  0
TABLESTYLE
  5
75C
102
{ACAD_XDICTIONARY
360
7AC
102
}
102
{ACAD_REACTORS
330
75B
102
}
330
75B
100
AcDbTableStyle
  3
Standard
 70
     0
 71
     0
 40
0.06
 41
0.06
280
     0
281
     0
  7
STANDARD
140
0.18
170
     2
 62
     0
 63
     7
283
     0
274
    -2
284
     1
 64
     0
275
    -2
285
     1
 65
     0
276
    -2
286
     1
 66
     0
277
    -2
287
     1
 67
     0
278
    -2
288
     1
 68
     0
279
    -2
289
     1
 69
     0
  7
STANDARD
140
0.25
170
     5
 62
     0
 63
     7
283
     0
274
    -2
284
     1
 64
     0
275
    -2
285
     1
 65
     0
276
    -2
286
     1
 66
     0
277
    -2
287
     1
 67
     0
278
    -2
288
     1
 68
     0
279
    -2
289
     1
 69
     0
  7
STANDARD
140
0.18
170
     5
 62
     0
 63
     7
283
     0
274
    -2
284
     1
 64
     0
275
    -2
285
     1
 65
     0
276
    -2
286
     1
 66
     0
277
    -2
287
     1
 67
     0
278
    -2
288
     1
 68
     0
279
    -2
289
     1
 69
     0
  0
VISUALSTYLE
  5
74F
102
{ACAD_REACTORS
330
749
102
}
330
749
100
AcDbVisualStyle
  2
2dWireframe
 70
     4
 71
     0
 72
     2
 73
     0
 90
        0
 40
-0.6
 41
-30.0
 62
     5
 63
     7
 74
     1
 91
        4
 64
     7
 65
   257
 75
     1
175
     1
 42
1.0
 92
        0
 66
   257
 43
1.0
 76
     1
 77
     6
 78
     2
 67
     7
 79
     5
170
     0
171
     0
290
     0
174
     0
 93
        1
 44
0.0
173
     0
291
     0
 45
0.0
1001
ACAD
1000
AcDbSavedByObjectVersion
1070
     0
  0
VISUALSTYLE
  5
751
102
{ACAD_REACTORS
330
749
102
}
330
749
100
AcDbVisualStyle
  2
3D Hidden
 70
     6
 71
     1
 72
     2
 73
     2
 90
        0
 40
-0.6
 41
-30.0
 62
     5
 63
     7
 74
     2
 91
        2
 64
     7
 65
   257
 75
     2
175
     1
 42
40.0
 92
        0
 66
   257
 43
1.0
 76
     1
 77
     6
 78
     2
 67
     7
 79
     3
170
     0
171
     0
290
     0
174
     0
 93
        1
 44
0.0
173
     0
291
     0
 45
0.0
1001
ACAD
1000
AcDbSavedByObjectVersion
1070
     0
  0
VISUALSTYLE
  5
750
102
{ACAD_REACTORS
330
749
102
}
330
749
100
AcDbVisualStyle
  2
3dWireframe
 70
     5
 71
     0
 72
     2
 73
     0
 90
        0
 40
-0.6
 41
-30.0
 62
     5
 63
     7
 74
     1
 91
        4
 64
     7
 65
   257
 75
     1
175
     1
 42
1.0
 92
        0
 66
   257
 43
1.0
 76
     1
 77
     6
 78
     2
 67
     7
 79
     5
170
     0
171
     0
290
     0
174
     0
 93
        1
 44
0.0
173
     0
291
     0
 45
0.0
1001
ACAD
1000
AcDbSavedByObjectVersion
1070
     0
  0
VISUALSTYLE
  5
74E
102
{ACAD_REACTORS
330
749
102
}
330
749
100
AcDbVisualStyle
  2
Basic
 70
     7
 71
     1
 72
     0
 73
     1
 90
        0
 40
-0.6
 41
-30.0
 62
     5
 63
     7
 74
     0
 91
        4
 64
     7
 65
   257
 75
     1
175
     1
 42
1.0
 92
        8
 66
     7
 43
1.0
 76
     1
 77
     6
 78
     2
 67
     7
 79
     5
170
     0
171
     0
290
     0
174
     0
 93
        1
 44
0.0
173
     0
291
     1
 45
0.0
1001
ACAD
1000
AcDbSavedByObjectVersion
1070
     0
  0
VISUALSTYLE
  5
755
102
{ACAD_REACTORS
330
749
102
}
330
749
100
AcDbVisualStyle
  2
Brighten
 70
    12
 71
     2
 72
     2
 73
     0
 90
        0
 40
-0.6
 41
-30.0
 62
     5
 63
     7
 74
     1
 91
        4
 64
     7
 65
   257
 75
     1
175
     1
 42
1.0
 92
        8
 66
     7
 43
1.0
 76
     1
 77
     6
 78
     2
 67
     7
 79
     5
170
     0
171
     0
290
     0
174
     0
 93
        1
 44
50.0
173
     0
291
     1
 45
0.0
1001
ACAD
1000
AcDbSavedByObjectVersion
1070
     0
  0
VISUALSTYLE
  5
759
102
{ACAD_REACTORS
330
749
102
}
330
749
100
AcDbVisualStyle
  2
ColorChange
 70
    16
 71
     2
 72
     2
 73
     3
 90
        0
 40
-0.6
 41
-30.0
 62
     5
 63
     8
 74
     1
 91
        4
 64
     7
 65
   257
 75
     1
175
     1
 42
1.0
 92
        8
 66
     8
 43
1.0
 76
     1
 77
     6
 78
     2
 67
     7
 79
     5
170
     0
171
     0
290
     0
174
     0
 93
        1
 44
0.0
173
     0
291
     1
 45
0.0
1001
ACAD
1000
AcDbSavedByObjectVersion
1070
     0
  0
VISUALSTYLE
  5
752
102
{ACAD_REACTORS
330
749
102
}
330
749
100
AcDbVisualStyle
  2
Conceptual
 70
     9
 71
     3
 72
     2
 73
     0
 90
        0
 40
-0.6
 41
-30.0
 62
     5
 63
     7
 74
     2
 91
        2
 64
     7
 65
   257
 75
     1
175
     1
 42
40.0
 92
        8
 66
     7
 43
1.0
 76
     1
 77
     6
 78
     2
 67
     7
 79
     3
170
     0
171
     0
290
     0
174
     0
 93
        1
 44
0.0
173
     0
291
     0
 45
0.0
1001
ACAD
1000
AcDbSavedByObjectVersion
1070
     0
  0
VISUALSTYLE
  5
754
102
{ACAD_REACTORS
330
749
102
}
330
749
100
AcDbVisualStyle
  2
Dim
 70
    11
 71
     2
 72
     2
 73
     0
 90
        0
 40
-0.6
 41
-30.0
 62
     5
 63
     7
 74
     1
 91
        4
 64
     7
 65
   257
 75
     1
175
     1
 42
1.0
 92
        8
 66
     7
 43
1.0
 76
     1
 77
     6
 78
     2
 67
     7
 79
     5
170
     0
171
     0
290
     0
174
     0
 93
        1
 44
-50.0
173
     0
291
     1
 45
0.0
1001
ACAD
1000
AcDbSavedByObjectVersion
1070
     0
  0
VISUALSTYLE
  5
758
102
{ACAD_REACTORS
330
749
102
}
330
749
100
AcDbVisualStyle
  2
Facepattern
 70
    15
 71
     2
 72
     2
 73
     0
 90
        0
 40
-0.6
 41
-30.0
 62
     5
 63
     7
 74
     1
 91
        4
 64
     7
 65
   257
 75
     1
175
     1
 42
1.0
 92
        8
 66
     7
 43
1.0
 76
     1
 77
     6
 78
     2
 67
     7
 79
     5
170
     0
171
     0
290
     0
174
     0
 93
        1
 44
0.0
173
     0
291
     1
 45
0.0
1001
ACAD
1000
AcDbSavedByObjectVersion
1070
     0
  0
VISUALSTYLE
  5
74A
102
{ACAD_REACTORS
330
749
102
}
330
749
100
AcDbVisualStyle
  2
Flat
 70
     0
 71
     2
 72
     1
 73
     1
 90
        2
 40
-0.6
 41
30.0
 62
     5
 63
     7
 74
     0
 91
        4
 64
     7
 65
   257
 75
     1
175
     1
 42
1.0
 92
        8
 66
     7
 43
1.0
 76
     1
 77
     6
 78
     2
 67
     7
 79
     5
170
     0
171
     0
290
     0
174
     0
 93
       13
 44
0.0
173
     0
291
     1
 45
0.0
1001
ACAD
1000
AcDbSavedByObjectVersion
1070
     0
  0
VISUALSTYLE
  5
74B
102
{ACAD_REACTORS
330
749
102
}
330
749
100
AcDbVisualStyle
  2
FlatWithEdges
 70
     1
 71
     2
 72
     1
 73
     1
 90
        2
 40
-0.6
 41
30.0
 62
     5
 63
     7
 74
     1
 91
        4
 64
     7
 65
   257
 75
     1
175
     1
 42
1.0
 92
        0
 66
   257
 43
1.0
 76
     1
 77
     6
 78
     2
 67
     7
 79
     5
170
     0
171
     0
290
     0
174
     0
 93
       13
 44
0.0
173
     0
291
     1
 45
0.0
1001
ACAD
1000
AcDbSavedByObjectVersion
1070
     0
  0
VISUALSTYLE
  5
74C
102
{ACAD_REACTORS
330
749
102
}
330
749
100
AcDbVisualStyle
  2
Gouraud
 70
     2
 71
     2
 72
     2
 73
     1
 90
        2
 40
-0.6
 41
30.0
 62
     5
 63
     7
 74
     0
 91
        4
 64
     7
 65
   257
 75
     1
175
     1
 42
1.0
 92
        0
 66
     7
 43
1.0
 76
     1
 77
     6
 78
     2
 67
     7
 79
     5
170
     0
171
     0
290
     0
174
     0
 93
       13
 44
0.0
173
     0
291
     1
 45
0.0
1001
ACAD
1000
AcDbSavedByObjectVersion
1070
     0
  0
VISUALSTYLE
  5
74D
102
{ACAD_REACTORS
330
749
102
}
330
749
100
AcDbVisualStyle
  2
GouraudWithEdges
 70
     3
 71
     2
 72
     2
 73
     1
 90
        2
 40
-0.6
 41
30.0
 62
     5
 63
     7
 74
     1
 91
        4
 64
     7
 65
   257
 75
     1
175
     1
 42
1.0
 92
        0
 66
   257
 43
1.0
 76
     1
 77
     6
 78
     2
 67
     7
 79
     5
170
     0
171
     0
290
     0
174
     0
 93
       13
 44
0.0
173
     0
291
     1
 45
0.0
1001
ACAD
1000
AcDbSavedByObjectVersion
1070
     0
  0
VISUALSTYLE
  5
757
102
{ACAD_REACTORS
330
749
102
}
330
749
100
AcDbVisualStyle
  2
Linepattern
 70
    14
 71
     2
 72
     2
 73
     0
 90
        0
 40
-0.6
 41
-30.0
 62
     5
 63
     7
 74
     1
 91
        4
 64
     7
 65
   257
 75
     7
175
     7
 42
1.0
 92
        8
 66
     7
 43
1.0
 76
     1
 77
     6
 78
     2
 67
     7
 79
     5
170
     0
171
     0
290
     0
174
     0
 93
        1
 44
0.0
173
     0
291
     1
 45
0.0
1001
ACAD
1000
AcDbSavedByObjectVersion
1070
     0
  0
VISUALSTYLE
  5
753
102
{ACAD_REACTORS
330
749
102
}
330
749
100
AcDbVisualStyle
  2
Realistic
 70
     8
 71
     2
 72
     2
 73
     0
 90
        0
 40
-0.6
 41
-30.0
 62
     5
 63
     7
 74
     1
 91
        0
 64
     7
 65
   257
 75
     1
175
     1
 42
1.0
 92
        8
 66
     8
 43
1.0
 76
     1
 77
     6
 78
     2
 67
     7
 79
     5
170
     0
171
     0
290
     0
174
     0
 93
       13
 44
0.0
173
     0
291
     0
 45
0.0
1001
ACAD
1000
AcDbSavedByObjectVersion
1070
     0
  0
VISUALSTYLE
  5
756
102
{ACAD_REACTORS
330
749
102
}
330
749
100
AcDbVisualStyle
  2
Thicken
 70
    13
 71
     2
 72
     2
 73
     0
 90
        0
 40
-0.6
 41
-30.0
 62
     5
 63
     7
 74
     1
 91
        4
 64
     7
 65
   257
 75
     1
175
     1
 42
1.0
 92
       12
 66
     7
 43
1.0
 76
     1
 77
     6
 78
     2
 67
     7
 79
     5
170
     0
171
     0
290
     0
174
     0
 93
        1
 44
0.0
173
     0
291
     1
 45
0.0
1001
ACAD
1000
AcDbSavedByObjectVersion
1070
     0
  0
DICTIONARYVAR
  5
7A8
102
{ACAD_REACTORS
330
7A5
102
}
330
7A5
100
DictionaryVariables
280
     0
  1
1:1
  0
DICTIONARYVAR
  5
7A7
102
{ACAD_REACTORS
330
7A5
102
}
330
7A5
100
DictionaryVariables
280
     0
  1
STANDARD
  0
DICTIONARYVAR
  5
7A6
102
{ACAD_REACTORS
330
7A5
102
}
330
7A5
100
DictionaryVariables
280
     0
  1
STANDARD
  0
DICTIONARYVAR
  5
7AB
102
{ACAD_REACTORS
330
7A5
102
}
330
7A5
100
DictionaryVariables
280
     0
  1
1
  0
DICTIONARYVAR
  5
7AA
102
{ACAD_REACTORS
330
7A5
102
}
330
7A5
100
DictionaryVariables
280
     0
  1
0
  0
DICTIONARYVAR
  5
7A9
102
{ACAD_REACTORS
330
7A5
102
}
330
7A5
100
DictionaryVariables
280
     0
  1
127
  0
DICTIONARY
  5
7B4
330
784
100
AcDbDictionary
280
     1
281
     1
  3
ACAD_XREC_ROUNDTRIP
360
7B5
  0
DICTIONARY
  5
7B6
330
785
100
AcDbDictionary
280
     1
281
     1
  3
ACAD_XREC_ROUNDTRIP
360
7B7
  0
DICTIONARY
  5
73A
330
739
100
AcDbDictionary
280
     1
281
     1
  3
ACAD_XREC_ROUNDTRIP
360
7B1
  3
BUMPTILE
360
73C
  3
DIFFUSETILE
360
73B
  3
OPACITYTILE
360
73F
  3
REFLECTIONTILE
360
73E
  3
REFRACTIONTILE
360
740
  3
SPECULARTILE
360
73D
  0
DICTIONARY
  5
732
330
731
100
AcDbDictionary
280
     1
281
     1
  3
ACAD_XREC_ROUNDTRIP
360
7B0
  3
BUMPTILE
360
734
  3
DIFFUSETILE
360
733
  3
OPACITYTILE
360
737
  3
REFLECTIONTILE
360
736
  3
REFRACTIONTILE
360
738
  3
SPECULARTILE
360
735
  0
DICTIONARY
  5
742
330
741
100
AcDbDictionary
280
     1
281
     1
  3
ACAD_XREC_ROUNDTRIP
360
7B2
  3
BUMPTILE
360
744
  3
DIFFUSETILE
360
743
  3
OPACITYTILE
360
747
  3
REFLECTIONTILE
360
746
  3
REFRACTIONTILE
360
748
  3
SPECULARTILE
360
745
  0
DICTIONARY
  5
7AC
330
75C
100
AcDbDictionary
280
     1
281
     1
  3
ACAD_ROUNDTRIP_2008_TABLESTYLE_CELLSTYLEMAP
360
7AD
  3
ACAD_XREC_ROUNDTRIP
360
7B3
  0
XRECORD
  5
7B5
102
{ACAD_REACTORS
330
7B4
102
}
330
7B4
100
AcDbXrecord
280
     1
102
SHADEPLOT
 70
     0
102
SHADEPLOTRESLEVEL
 70
     2
102
SHADEPLOTCUSTOMDPI
 70
   300
  0
XRECORD
  5
7B7
102
{ACAD_REACTORS
330
7B6
102
}
330
7B6
100
AcDbXrecord
280
     1
102
SHADEPLOT
 70
     0
102
SHADEPLOTRESLEVEL
 70
     2
102
SHADEPLOTCUSTOMDPI
 70
   300
  0
XRECORD
  5
7B1
102
{ACAD_REACTORS
330
73A
102
}
330
73A
100
AcDbXrecord
280
     1
102
MATERIAL
148
0.0
149
0.0
149
0.0
 93
        0
 94
      127
282
     0
 72
     0
 77
     0
171
     0
175
     0
179
     0
273
     0
  0
XRECORD
  5
73C
102
{ACAD_REACTORS
330
73A
102
}
330
73A
100
AcDbXrecord
280
     1
270
     1
271
     1
  0
XRECORD
  5
73B
102
{ACAD_REACTORS
330
73A
102
}
330
73A
100
AcDbXrecord
280
     1
270
     1
271
     1
  0
XRECORD
  5
73F
102
{ACAD_REACTORS
330
73A
102
}
330
73A
100
AcDbXrecord
280
     1
270
     1
271
     1
  0
XRECORD
  5
73E
102
{ACAD_REACTORS
330
73A
102
}
330
73A
100
AcDbXrecord
280
     1
270
     1
271
     1
  0
XRECORD
  5
740
102
{ACAD_REACTORS
330
73A
102
}
330
73A
100
AcDbXrecord
280
     1
270
     1
271
     1
  0
XRECORD
  5
73D
102
{ACAD_REACTORS
330
73A
102
}
330
73A
100
AcDbXrecord
280
     1
270
     1
271
     1
  0
XRECORD
  5
7B0
102
{ACAD_REACTORS
330
732
102
}
330
732
100
AcDbXrecord
280
     1
102
MATERIAL
148
0.0
149
0.0
149
0.0
 93
        0
 94
      127
282
     0
 72
     0
 77
     0
171
     0
175
     0
179
     0
273
     0
  0
XRECORD
  5
734
102
{ACAD_REACTORS
330
732
102
}
330
732
100
AcDbXrecord
280
     1
270
     1
271
     1
  0
XRECORD
  5
733
102
{ACAD_REACTORS
330
732
102
}
330
732
100
AcDbXrecord
280
     1
270
     1
271
     1
  0
XRECORD
  5
737
102
{ACAD_REACTORS
330
732
102
}
330
732
100
AcDbXrecord
280
     1
270
     1
271
     1
  0
XRECORD
  5
736
102
{ACAD_REACTORS
330
732
102
}
330
732
100
AcDbXrecord
280
     1
270
     1
271
     1
  0
XRECORD
  5
738
102
{ACAD_REACTORS
330
732
102
}
330
732
100
AcDbXrecord
280
     1
270
     1
271
     1
  0
XRECORD
  5
735
102
{ACAD_REACTORS
330
732
102
}
330
732
100
AcDbXrecord
280
     1
270
     1
271
     1
  0
XRECORD
  5
7B2
102
{ACAD_REACTORS
330
742
102
}
330
742
100
AcDbXrecord
280
     1
102
MATERIAL
148
0.0
149
0.0
149
0.0
 93
        0
 94
      127
282
     0
 72
     0
 77
     0
171
     0
175
     0
179
     0
273
     0
  0
XRECORD
  5
744
102
{ACAD_REACTORS
330
742
102
}
330
742
100
AcDbXrecord
280
     1
270
     1
271
     1
  0
XRECORD
  5
743
102
{ACAD_REACTORS
330
742
102
}
330
742
100
AcDbXrecord
280
     1
270
     1
271
     1
  0
XRECORD
  5
747
102
{ACAD_REACTORS
330
742
102
}
330
742
100
AcDbXrecord
280
     1
270
     1
271
     1
  0
XRECORD
  5
746
102
{ACAD_REACTORS
330
742
102
}
330
742
100
AcDbXrecord
280
     1
270
     1
271
     1
  0
XRECORD
  5
748
102
{ACAD_REACTORS
330
742
102
}
330
742
100
AcDbXrecord
280
     1
270
     1
271
     1
  0
XRECORD
  5
745
102
{ACAD_REACTORS
330
742
102
}
330
742
100
AcDbXrecord
280
     1
270
     1
271
     1
  0
CELLSTYLEMAP
  5
7AD
102
{ACAD_REACTORS
330
7AC
102
}
330
7AC
100
AcDbCellStyleMap
 90
        3
300
CELLSTYLE
  1
TABLEFORMAT_BEGIN
 90
        5
170
     1
 91
        0
 92
    32768
 62
   257
 93
        1
300
CONTENTFORMAT
  1
CONTENTFORMAT_BEGIN
 90
        0
 91
        0
 92
      512
 93
        0
300

 40
0.0
140
1.0
 94
        5
 62
     0
340
1D
144
0.25
309
CONTENTFORMAT_END
171
     0
 94
        0
309
TABLEFORMAT_END
  1
CELLSTYLE_BEGIN
 90
        1
 91
        1
300
_TITLE
309
CELLSTYLE_END
300
CELLSTYLE
  1
TABLEFORMAT_BEGIN
 90
        5
170
     1
 91
        0
 92
        0
 62
   257
 93
        1
300
CONTENTFORMAT
  1
CONTENTFORMAT_BEGIN
 90
        0
 91
        0
 92
      512
 93
        0
300

 40
0.0
140
1.0
 94
        5
 62
     0
340
1D
144
0.18
309
CONTENTFORMAT_END
171
     0
 94
        0
309
TABLEFORMAT_END
  1
CELLSTYLE_BEGIN
 90
        2
 91
        1
300
_HEADER
309
CELLSTYLE_END
300
CELLSTYLE
  1
TABLEFORMAT_BEGIN
 90
        5
170
     1
 91
        0
 92
        0
 62
   257
 93
        1
300
CONTENTFORMAT
  1
CONTENTFORMAT_BEGIN
 90
        0
 91
        0
 92
      512
 93
        0
300

 40
0.0
140
1.0
 94
        2
 62
     0
340
1D
144
0.18
309
CONTENTFORMAT_END
171
     0
 94
        0
309
TABLEFORMAT_END
  1
CELLSTYLE_BEGIN
 90
        3
 91
        2
300
_DATA
309
CELLSTYLE_END
  0
XRECORD
  5
7B3
102
{ACAD_REACTORS
330
7AC
102
}
330
7AC
100
AcDbXrecord
280
     1
102
ACAD_ROUNDTRIP_PRE2007_TABLESTYLE
 90
      512
 91
        0
  1

 92
      512
 93
        0
  2

 94
      512
 95
        0
  3

  0
ENDSEC
  0
EOF
