  0
SECTION
  2
HEADER
  9
$ACADVER
  1
AC1012
  9
$DWGCODEPAGE
  3
ansi_932
  9
$INSBASE
 10
0.0
 20
0.0
 30
0.0
  9
$EXTMIN
 10
-1050.0
 20
-742.5
 30
1.000000E+20
  9
$EXTMAX
 10
1050.0
 20
742.5
 30
-1.000000E+20
  9
$LIMMIN
 10
-1050.0
 20
-742.5
  9
$LIMMAX
 10
1050.0
 20
742.5
  9
$ORTHOMODE
 70
     0
  9
$REGENMODE
 70
     1
  9
$FILLMODE
 70
     1
  9
$QTEXTMODE
 70
     0
  9
$MIRRTEXT
 70
     1
  9
$DRAGMODE
 70
     2
  9
$LTSCALE
 40
1.0
  9
$OSMODE
 70
     0
  9
$ATTMODE
 70
     1
  9
$TEXTSIZE
 40
0.2
  9
$TRACEWID
 40
0.05
  9
$TEXTSTYLE
  7
STANDARD
  9
$CLAYER
  8
0
  9
$CELTYPE
  6
CONTINUOUS
  9
$CECOLOR
 62
   256
  9
$CELTSCALE
 40
1.0
  9
$DELOBJ
 70
     1
  9
$DISPSILH
 70
     0
  9
$DIMSCALE
 40
5.0
  9
$DIMASZ
 40
0.18
  9
$DIMEXO
 40
0.0625
  9
$DIMDLI
 40
0.38
  9
$DIMRND
 40
0.0
  9
$DIMDLE
 40
0.0
  9
$DIMEXE
 40
0.18
  9
$DIMTP
 40
0.0
  9
$DIMTM
 40
0.0
  9
$DIMTXT
 40
0.18
  9
$DIMCEN
 40
0.09
  9
$DIMTSZ
 40
0.0
  9
$DIMTOL
 70
     0
  9
$DIMLIM
 70
     0
  9
$DIMTIH
 70
     1
  9
$DIMTOH
 70
     1
  9
$DIMSE1
 70
     0
  9
$DIMSE2
 70
     0
  9
$DIMTAD
 70
     1
  9
$DIMZIN
 70
     0
  9
$DIMBLK
  1

  9
$DIMASO
 70
     1
  9
$DIMSHO
 70
     1
  9
$DIMPOST
  1

  9
$DIMAPOST
  1

  9
$DIMALT
 70
     0
  9
$DIMALTD
 70
     2
  9
$DIMALTF
 40
25.4
  9
$DIMLFAC
 40
1.0
  9
$DIMTOFL
 70
     0
  9
$DIMTVP
 40
0.0
  9
$DIMTIX
 70
     0
  9
$DIMSOXD
 70
     0
  9
$DIMSAH
 70
     0
  9
$DIMBLK1
  1

  9
$DIMBLK2
  1

  9
$DIMSTYLE
  2
STANDARD
  9
$DIMCLRD
 70
     0
  9
$DIMCLRE
 70
     0
  9
$DIMCLRT
 70
     0
  9
$DIMTFAC
 40
1.0
  9
$DIMGAP
 40
0.09
  9
$DIMJUST
 70
     0
  9
$DIMSD1
 70
     0
  9
$DIMSD2
 70
     0
  9
$DIMTOLJ
 70
     1
  9
$DIMTZIN
 70
     0
  9
$DIMALTZ
 70
     0
  9
$DIMALTTZ
 70
     0
  9
$DIMFIT
 70
     3
  9
$DIMUPT
 70
     0
  9
$DIMUNIT
 70
     2
  9
$DIMDEC
 70
     4
  9
$DIMTDEC
 70
     4
  9
$DIMALTU
 70
     2
  9
$DIMALTTD
 70
     2
  9
$DIMTXSTY
  7
STANDARD
  9
$DIMAUNIT
 70
     0
  9
$LUNITS
 70
     2
  9
$LUPREC
 70
     4
  9
$SKETCHINC
 40
0.1
  9
$FILLETRAD
 40
0.0
  9
$AUNITS
 70
     0
  9
$AUPREC
 70
     0
  9
$MENU
  1
acad
  9
$ELEVATION
 40
0.0
  9
$PELEVATION
 40
0.0
  9
$THICKNESS
 40
0.0
  9
$LIMCHECK
 70
     0
  9
$BLIPMODE
 70
     1
  9
$CHAMFERA
 40
0.0
  9
$CHAMFERB
 40
0.0
  9
$CHAMFERC
 40
0.0
  9
$CHAMFERD
 40
0.0
  9
$SKPOLY
 70
     0
  9
$TDCREATE
 40
2450242.000000000
  9
$TDUPDATE
 40
0.000000000
  9
$TDINDWG
 40
0.0000000000
  9
$TDUSRTIMER
 40
0.0000000000
  9
$USRTIMER
 70
     1
  9
$ANGBASE
 50
0.0
  9
$ANGDIR
 70
     0
  9
$PDMODE
 70
     0
  9
$PDSIZE
 40
0.0
  9
$PLINEWID
 40
0.0
  9
$COORDS
 70
     0
  9
$SPLFRAME
 70
     0
  9
$SPLINETYPE
 70
     6
  9
$SPLINESEGS
 70
     8
  9
$ATTDIA
 70
     0
  9
$ATTREQ
 70
     1
  9
$HANDLING
 70
     1
  9
$HANDSEED
  5
868
  9
$SURFTAB1
 70
     6
  9
$SURFTAB2
 70
     6
  9
$SURFTYPE
 70
     6
  9
$SURFU
 70
     6
  9
$SURFV
 70
     6
  9
$UCSNAME
  2

  9
$UCSORG
 10
0.0
 20
0.0
 30
0.0
  9
$UCSXDIR
 10
1.0
 20
0.0
 30
0.0
  9
$UCSYDIR
 10
0.0
 20
1.0
 30
0.0
  9
$PUCSNAME
  2

  9
$PUCSORG
 10
0.0
 20
0.0
 30
0.0
  9
$PUCSXDIR
 10
1.0
 20
0.0
 30
0.0
  9
$PUCSYDIR
 10
0.0
 20
1.0
 30
0.0
  9
$USERI1
 70
     0
  9
$USERI2
 70
     0
  9
$USERI3
 70
     0
  9
$USERI4
 70
     0
  9
$USERI5
 70
     0
  9
$USERR1
 40
0.0
  9
$USERR2
 40
0.0
  9
$USERR3
 40
0.0
  9
$USERR4
 40
0.0
  9
$USERR5
 40
0.0
  9
$WORLDVIEW
 70
     1
  9
$SHADEDGE
 70
     3
  9
$SHADEDIF
 70
    70
  9
$TILEMODE
 70
     1
  9
$MAXACTVP
 70
    16
  9
$PINSBASE
 10
0.0
 20
0.0
 30
0.0
  9
$PLIMCHECK
 70
     0
  9
$PEXTMIN
 10
1.000000E+20
 20
1.000000E+20
 30
1.000000E+20
  9
$PEXTMAX
 10
-1.000000E+20
 20
-1.000000E+20
 30
-1.000000E+20
  9
$PLIMMIN
 10
0.0
 20
0.0
  9
$PLIMMAX
 10
12.0
 20
9.0
  9
$UNITMODE
 70
     0
  9
$VISRETAIN
 70
     0
  9
$PLINEGEN
 70
     1
  9
$PSLTSCALE
 70
     0
  9
$TREEDEPTH
 70
  3020
  9
$PICKSTYLE
 70
     1
  9
$CMLSTYLE
  2
STANDARD
  9
$CMLJUST
 70
     0
  9
$CMLSCALE
 40
1.0
  9
$SAVEIMAGES
 70
     0
  0
ENDSEC
  0
SECTION
  2
CLASSES
  0
CLASS
  1
LWPOLYLINE
  2
AcDbPolyline
  3
"AutoCAD"
 90
    32768
280
     0
281
     1
  0
CLASS
  1
IMAGE
  2
AcDbRasterImage
  3
ISM
 90
    32895
280
     0
281
     1
  0
CLASS
  1
OLE2FRAME
  2
AcDbOle2Frame
  3
""
 90
    32768
280
     0
281
     1
  0
CLASS
  1
HATCH
  2
AcDbHatch
  3
"ACAD_SEDONA"
 90
    32768
280
     0
281
     1
  0
CLASS
  1
DICTIONARYVAR
  2
AcDbDictionaryVar
  3
"AutoCAD"
 90
    32768
280
     0
281
     0
  0
CLASS
  1
RASTERVARIABLES
  2
AcDbRasterVariables
  3
ISM
 90
    32768
280
     0
281
     0
  0
CLASS
  1
IMAGEDEF
  2
AcDbRasterImageDef
  3
ISM
 90
    32768
280
     0
281
     0
  0
CLASS
  1
IMAGEDEF_REACTOR
  2
AcDbRasterImageDefReactor
  3
ISM
 90
    32769
280
     0
281
     0
  0
CLASS
  1
IDBUFFER
  2
AcDbIdBuffer
  3
"Acad"
 90
    32768
280
     0
281
     0
  0
CLASS
  1
SPATIAL_FILTER
  2
AcDbSpatialFilter
  3
"Acad"
 90
    32768
280
     0
281
     0
  0
CLASS
  1
XRECORD
  2
AcDbXrecord
  3
"<Built In>"
 90
    32768
280
     0
281
     0
  0
CLASS
  1
SORTENTSTABLE
  2
AcDbSortentsTable
  3
"AutoCAD"
 90
    32768
280
     0
281
     0
  0
CLASS
  1
LAYER_INDEX
  2
AcDbLayerIndex
  3
"Acad"
 90
    32768
280
     0
281
     0
  0
CLASS
  1
SPATIAL_INDEX
  2
AcDbSpatialIndex
  3
"Acad"
 90
    32768
280
     0
281
     0
  0
CLASS
  1
OBJECT_PTR
  2
CAseDLPNTableRecord
  3
"ASE-LPNTableRecord"
 90
    32769
280
     0
281
     0
  0
CLASS
  1
LAYOUT
  2
AcDbLayout
  3
"AutoCAD 2000"
 90
    32768
280
     0
281
     0
  0
CLASS
  1
PLOTSETTINGS
  2
AcDbPlotSettings
  3
"AutoCAD 2000"
 90
    32768
280
     0
281
     0
  0
CLASS
  1
ACDBDICTIONARYWDFLT
  2
AcDbDictionaryWithDefault
  3
"AutoCAD 2000"
 90
    32768
280
     0
281
     0
  0
CLASS
  1
ACDBPLACEHOLDER
  2
AcDbPlaceHolder
  3
"AutoCAD 2000"
 90
    32768
280
     0
281
     0
  0
CLASS
  1
VBA_PROJECT
  2
AcDbVbaProject
  3
"acadvba"
 90
    32768
280
     0
281
     0
  0
CLASS
  1
WIPEOUT
  2
AcDbWipeout
  3
WipeOut|AutoCAD Express Tool|expresstools@autodesk.com
 90
    32895
280
     0
281
     1
  0
CLASS
  1
WIPEOUTVARIABLES
  2
AcDbWipeoutVariables
  3
WipeOut|AutoCAD Express Tool|expresstools@autodesk.com
 90
    32768
280
     0
281
     0
  0
CLASS
  1
RTEXT
  2
RText
  3
RText|AutoCAD Express Tool|expresstools@autodesk.com
 90
    32768
280
     0
281
     1
  0
CLASS
  1
ARCALIGNEDTEXT
  2
AcDbArcAlignedText
  3
ATEXT|AutoCAD Express Tool|expresstools@autodesk.com
 90
    32768
280
     0
281
     1
  0
ENDSEC
  0
SECTION
  2
TABLES
  0
TABLE
  2
VPORT
  5
6
100
AcDbSymbolTable
 70
     1
  0
VPORT
  5
1B
100
AcDbSymbolTableRecord
100
AcDbViewportTableRecord
  2
*ACTIVE
 70
     0
 10
0.0
 20
0.0
 11
1.0
 21
1.0
 12
0.0
 22
0.0
 13
0.0
 23
0.0
 14
1.0
 24
1.0
 15
0.0
 25
0.0
 16
0.0
 26
0.0
 36
1.0
 17
0.0
 27
0.0
 37
0.0
 40
1485.0
 41
1.414141
 42
50.0
 43
0.0
 44
0.0
 50
0.0
 51
0.0
 71
     0
 72
   500
 73
     1
 74
     1
 75
     0
 76
     0
 77
     0
 78
     0
  0
ENDTAB
  0
TABLE
  2
LTYPE
  5
3
100
AcDbSymbolTable
 70
     9
  0
LTYPE
  5
C
100
AcDbSymbolTableRecord
100
AcDbLinetypeTableRecord
  2
BYBLOCK
 70
    64
  3

 72
    65
 73
     0
 40
0.0
  0
LTYPE
  5
D
100
AcDbSymbolTableRecord
100
AcDbLinetypeTableRecord
  2
BYLAYER
 70
    64
  3

 72
    65
 73
     0
 40
0.0
  0
LTYPE
  5
E
100
AcDbSymbolTableRecord
100
AcDbLinetypeTableRecord
  2
CONTINUOUS
 70
     0
  3
Solid line
 72
    65
 73
     0
 40
0.0
  0
LTYPE
  5
F
100
AcDbSymbolTableRecord
100
AcDbLinetypeTableRecord
  2
DASHED
 70
     0
  3
__ __ __ __ __ __ __ __ __ __ __ __ __ __ __
 72
    65
 73
     2
 40
2.0
 49
1.2
 74
     0
 49
-0.8
 74
     0
  0
LTYPE
  5
10
100
AcDbSymbolTableRecord
100
AcDbLinetypeTableRecord
  2
CENTER
 70
     0
  3
____ _ ____ _ ____ _ ____ _ ____ _ ____ _ ____
 72
    65
 73
     4
 40
12.0
 49
9.0
 74
     0
 49
-1.0
 74
     0
 49
1.0
 74
     0
 49
-1.0
 74
     0
  0
LTYPE
  5
11
100
AcDbSymbolTableRecord
100
AcDbLinetypeTableRecord
  2
HIDDEN
 70
     0
  3
_ _ _ _ _ _ _ _ _ _ _ _ _ _ _ _ _ _ _ _ _ _ _
 72
    65
 73
     2
 40
3.2
 49
2.4
 74
     0
 49
-0.8
 74
     0
  0
LTYPE
  5
12
100
AcDbSymbolTableRecord
100
AcDbLinetypeTableRecord
  2
PHANTOM
 70
     0
  3
_____ _ _ _____ _ _ _____ _ _ _____ _ _ _____
 72
    65
 73
     6
 40
13.5
 49
9.0
 74
     0
 49
-1.0
 74
     0
 49
1.0
 74
     0
 49
-0.5
 74
     0
 49
1.0
 74
     0
 49
-1.0
 74
     0
  0
LTYPE
  5
13
100
AcDbSymbolTableRecord
100
AcDbLinetypeTableRecord
  2
DOT
 70
     0
  3
...............................................
 72
    65
 73
     2
 40
1.0
 49
0.5
 74
     0
 49
-0.5
 74
     0
  0
LTYPE
  5
14
100
AcDbSymbolTableRecord
100
AcDbLinetypeTableRecord
  2
DASHDOT
 70
     0
  3
__ . __ . __ . __ . __ . __ . __ . __ . __ . __
 72
    65
 73
     4
 40
8.0
 49
5.0
 74
     0
 49
-1.0
 74
     0
 49
1.0
 74
     0
 49
-1.0
 74
     0
  0
ENDTAB
  0
TABLE
  2
LAYER
  5
1
100
AcDbSymbolTable
 70
     6
  0
LAYER
  5
15
100
AcDbSymbolTableRecord
100
AcDbLayerTableRecord
  2
0
 70
     0
 62
     7
  6
CONTINUOUS
  0
LAYER
  5
16
100
AcDbSymbolTableRecord
100
AcDbLayerTableRecord
  2
1
 70
     0
 62
     7
  6
CONTINUOUS
  0
LAYER
  5
17
100
AcDbSymbolTableRecord
100
AcDbLayerTableRecord
  2
2
 70
     0
 62
     7
  6
CONTINUOUS
  0
LAYER
  5
18
100
AcDbSymbolTableRecord
100
AcDbLayerTableRecord
  2
5
 70
     0
 62
     7
  6
CONTINUOUS
  0
LAYER
  5
19
100
AcDbSymbolTableRecord
100
AcDbLayerTableRecord
  2
18
 70
     0
 62
     7
  6
CONTINUOUS
  0
LAYER
  5
1A
100
AcDbSymbolTableRecord
100
AcDbLayerTableRecord
  2
20
 70
     0
 62
     7
  6
CONTINUOUS
  0
ENDTAB
  0
TABLE
  2
STYLE
  5
2
100
AcDbSymbolTable
 70
     1
  0
STYLE
  5
1D
100
AcDbSymbolTableRecord
100
AcDbTextStyleTableRecord
  2
STANDARD
 70
    64
 40
0.0
 41
1.0
 50
0.0
 71
     0
 42
1.0
  3
txt
  4
BIGFONT
  0
ENDTAB
  0
TABLE
  2
VIEW
  5
4
100
AcDbSymbolTable
 70
     0
  0
ENDTAB
  0
TABLE
  2
UCS
  5
5
100
AcDbSymbolTable
 70
     0
  0
ENDTAB
  0
TABLE
  2
APPID
  5
7
100
AcDbSymbolTable
 70
     1
  0
APPID
  5
1C
100
AcDbSymbolTableRecord
100
AcDbRegAppTableRecord
  2
ACAD
 70
     0
  0
ENDTAB
  0
TABLE
  2
DIMSTYLE
  5
8
100
AcDbSymbolTable
 70
     1
  0
DIMSTYLE
105
2E
100
AcDbSymbolTableRecord
100
AcDbDimStyleTableRecord
  2
STANDARD
 70
     0
  3

  4

  5

  6

  7

 40
5.0
 41
0.18
 42
0.0625
 43
0.38
 44
0.18
 45
0.0
 46
0.0
 47
0.0
 48
0.0
 71
     0
 72
     0
 73
     1
 74
     1
 75
     0
 76
     0
 77
     1
 78
     0
140
0.18
141
0.09
142
0.0
143
25.4
144
1.0
145
0.0
146
1.0
147
0.09
170
     0
171
     2
172
     0
173
     0
174
     0
175
     0
176
     0
177
     0
178
     0
270
     2
271
     4
272
     4
273
     2
274
     2
275
     0
280
     0
281
     0
282
     0
283
     1
284
     0
285
     0
286
     0
287
     3
288
     0
340
1D
  0
ENDTAB
  0
TABLE
  2
BLOCK_RECORD
  5
29
100
AcDbSymbolTable
 70
     9
  0
BLOCK_RECORD
  5
27
100
AcDbSymbolTableRecord
100
AcDbBlockTableRecord
  2
*MODEL_SPACE
  0
BLOCK_RECORD
  5
28
100
AcDbSymbolTableRecord
100
AcDbBlockTableRecord
  2
*PAPER_SPACE
  0
BLOCK_RECORD
  5
1E
100
AcDbSymbolTableRecord
100
AcDbBlockTableRecord
  2
*D0
  0
BLOCK_RECORD
  5
1F
100
AcDbSymbolTableRecord
100
AcDbBlockTableRecord
  2
*D1
  0
BLOCK_RECORD
  5
20
100
AcDbSymbolTableRecord
100
AcDbBlockTableRecord
  2
*D2
  0
BLOCK_RECORD
  5
21
100
AcDbSymbolTableRecord
100
AcDbBlockTableRecord
  2
*D3
  0
BLOCK_RECORD
  5
22
100
AcDbSymbolTableRecord
100
AcDbBlockTableRecord
  2
*D4
  0
BLOCK_RECORD
  5
23
100
AcDbSymbolTableRecord
100
AcDbBlockTableRecord
  2
*D5
  0
BLOCK_RECORD
  5
24
100
AcDbSymbolTableRecord
100
AcDbBlockTableRecord
  2
*D6
  0
BLOCK_RECORD
  5
25
100
AcDbSymbolTableRecord
100
AcDbBlockTableRecord
  2
*D7
  0
BLOCK_RECORD
  5
26
100
AcDbSymbolTableRecord
100
AcDbBlockTableRecord
  2
*D8
  0
ENDTAB
  0
ENDSEC
  0
SECTION
  2
BLOCKS
  0
BLOCK
  5
2A
100
AcDbEntity
  8
0
100
AcDbBlockBegin
  2
*MODEL_SPACE
 70
     0
 10
0.0
 20
0.0
 30
0.0
  3
*MODEL_SPACE
  1

  0
ENDBLK
  5
2B
100
AcDbEntity
  8
0
100
AcDbBlockEnd
  0
BLOCK
  5
2C
100
AcDbEntity
 67
     1
  8
0
100
AcDbBlockBegin
  2
*PAPER_SPACE
 70
     0
 10
0.0
 20
0.0
 30
0.0
  3
*PAPER_SPACE
  1

  0
ENDBLK
  5
2D
100
AcDbEntity
 67
     1
  8
0
100
AcDbBlockEnd
  0
BLOCK
  5
7F5
100
AcDbEntity
  8
5
100
AcDbBlockBegin
  2
*D0
 70
     1
 10
0.0
 20
0.0
 30
0.0
  3
*D0
  1

  0
TEXT
  5
7F6
100
AcDbEntity
  8
5
 62
     2
100
AcDbText
 10
-464.863414
 20
630.264244
 30
0.0
 40
16.5
  1
165
 41
1.4
 72
     5
 11
-434.833414
 21
630.264244
 31
0.0
100
AcDbText
  0
LINE
  5
7F7
100
AcDbEntity
  8
5
 62
     2
100
AcDbLine
 10
-530.038414
 20
603.502421
 30
0.0
 11
-530.038414
 21
632.764244
 31
0.0
  0
LINE
  5
7F8
100
AcDbEntity
  8
5
 62
     2
100
AcDbLine
 10
-530.038414
 20
627.764244
 30
0.0
 11
-520.379155
 21
625.176054
 31
0.0
  0
LINE
  5
7F9
100
AcDbEntity
  8
5
 62
     2
100
AcDbLine
 10
-530.038414
 20
627.764244
 30
0.0
 11
-520.379155
 21
630.352435
 31
0.0
  0
LINE
  5
7FA
100
AcDbEntity
  8
5
 62
     2
100
AcDbLine
 10
-520.379155
 20
625.176054
 30
0.0
 11
-520.379155
 21
630.352435
 31
0.0
  0
LINE
  5
7FB
100
AcDbEntity
  8
5
 62
     2
100
AcDbLine
 10
-530.038414
 20
627.764244
 30
0.0
 11
-365.038414
 21
627.764244
 31
0.0
  0
LINE
  5
7FC
100
AcDbEntity
  8
5
 62
     2
100
AcDbLine
 10
-365.038414
 20
627.764244
 30
0.0
 11
-374.697672
 21
630.352435
 31
0.0
  0
LINE
  5
7FD
100
AcDbEntity
  8
5
 62
     2
100
AcDbLine
 10
-365.038414
 20
627.764244
 30
0.0
 11
-374.697672
 21
625.176054
 31
0.0
  0
LINE
  5
7FE
100
AcDbEntity
  8
5
 62
     2
100
AcDbLine
 10
-374.697672
 20
630.352435
 30
0.0
 11
-374.697672
 21
625.176054
 31
0.0
  0
LINE
  5
7FF
100
AcDbEntity
  8
5
 62
     2
100
AcDbLine
 10
-365.038414
 20
375.253894
 30
0.0
 11
-365.038414
 21
632.764244
 31
0.0
  0
ENDBLK
  5
800
100
AcDbEntity
  8
5
100
AcDbBlockEnd
  0
BLOCK
  5
801
100
AcDbEntity
  8
5
100
AcDbBlockBegin
  2
*D1
 70
     1
 10
0.0
 20
0.0
 30
0.0
  3
*D1
  1

  0
TEXT
  5
802
100
AcDbEntity
  8
5
 62
     2
100
AcDbText
 10
-658.863414
 20
630.264244
 30
0.0
 40
16.5
  1
223
 41
1.4
 72
     5
 11
-628.833414
 21
630.264244
 31
0.0
100
AcDbText
  0
LINE
  5
803
100
AcDbEntity
  8
5
 62
     2
100
AcDbLine
 10
-753.038414
 20
551.253894
 30
0.0
 11
-753.038414
 21
632.764244
 31
0.0
  0
LINE
  5
804
100
AcDbEntity
  8
5
 62
     2
100
AcDbLine
 10
-753.038414
 20
627.764244
 30
0.0
 11
-743.379155
 21
625.176054
 31
0.0
  0
LINE
  5
805
100
AcDbEntity
  8
5
 62
     2
100
AcDbLine
 10
-753.038414
 20
627.764244
 30
0.0
 11
-743.379155
 21
630.352435
 31
0.0
  0
LINE
  5
806
100
AcDbEntity
  8
5
 62
     2
100
AcDbLine
 10
-743.379155
 20
625.176054
 30
0.0
 11
-743.379155
 21
630.352435
 31
0.0
  0
LINE
  5
807
100
AcDbEntity
  8
5
 62
     2
100
AcDbLine
 10
-753.038414
 20
627.764244
 30
0.0
 11
-530.038414
 21
627.764244
 31
0.0
  0
LINE
  5
808
100
AcDbEntity
  8
5
 62
     2
100
AcDbLine
 10
-530.038414
 20
627.764244
 30
0.0
 11
-539.697672
 21
630.352435
 31
0.0
  0
LINE
  5
809
100
AcDbEntity
  8
5
 62
     2
100
AcDbLine
 10
-530.038414
 20
627.764244
 30
0.0
 11
-539.697672
 21
625.176054
 31
0.0
  0
LINE
  5
80A
100
AcDbEntity
  8
5
 62
     2
100
AcDbLine
 10
-539.697672
 20
630.352435
 30
0.0
 11
-539.697672
 21
625.176054
 31
0.0
  0
LINE
  5
80B
100
AcDbEntity
  8
5
 62
     2
100
AcDbLine
 10
-530.038414
 20
603.502421
 30
0.0
 11
-530.038414
 21
632.764244
 31
0.0
  0
ENDBLK
  5
80C
100
AcDbEntity
  8
5
100
AcDbBlockEnd
  0
BLOCK
  5
80D
100
AcDbEntity
  8
5
100
AcDbBlockBegin
  2
*D2
 70
     1
 10
0.0
 20
0.0
 30
0.0
  3
*D2
  1

  0
TEXT
  5
80E
100
AcDbEntity
  8
5
 62
     2
100
AcDbText
 10
-220.14698
 20
10.553894
 30
0.0
 40
16.5
  1
%%c200
 50
90.0
 41
1.4
 72
     5
 11
-220.14698
 21
52.133894
 31
0.0
100
AcDbText
  0
LINE
  5
80F
100
AcDbEntity
  8
5
 62
     2
100
AcDbLine
 10
-149.030454
 20
133.653894
 30
0.0
 11
-222.64698
 21
133.653894
 31
0.0
  0
LINE
  5
810
100
AcDbEntity
  8
5
 62
     2
100
AcDbLine
 10
-217.64698
 20
133.653894
 30
0.0
 11
-220.235171
 21
123.994636
 31
0.0
  0
LINE
  5
811
100
AcDbEntity
  8
5
 62
     2
100
AcDbLine
 10
-217.64698
 20
133.653894
 30
0.0
 11
-215.05879
 21
123.994636
 31
0.0
  0
LINE
  5
812
100
AcDbEntity
  8
5
 62
     2
100
AcDbLine
 10
-220.235171
 20
123.994636
 30
0.0
 11
-215.05879
 21
123.994636
 31
0.0
  0
LINE
  5
813
100
AcDbEntity
  8
5
 62
     2
100
AcDbLine
 10
-217.64698
 20
133.653894
 30
0.0
 11
-217.64698
 21
-66.346106
 31
0.0
  0
LINE
  5
814
100
AcDbEntity
  8
5
 62
     2
100
AcDbLine
 10
-217.64698
 20
-66.346106
 30
0.0
 11
-215.05879
 21
-56.686848
 31
0.0
  0
LINE
  5
815
100
AcDbEntity
  8
5
 62
     2
100
AcDbLine
 10
-217.64698
 20
-66.346106
 30
0.0
 11
-220.235171
 21
-56.686848
 31
0.0
  0
LINE
  5
816
100
AcDbEntity
  8
5
 62
     2
100
AcDbLine
 10
-215.05879
 20
-56.686848
 30
0.0
 11
-220.235171
 21
-56.686848
 31
0.0
  0
LINE
  5
817
100
AcDbEntity
  8
5
 62
     2
100
AcDbLine
 10
-149.030454
 20
-66.346106
 30
0.0
 11
-222.64698
 21
-66.346106
 31
0.0
  0
ENDBLK
  5
818
100
AcDbEntity
  8
5
100
AcDbBlockEnd
  0
BLOCK
  5
819
100
AcDbEntity
  8
5
100
AcDbBlockBegin
  2
*D3
 70
     1
 10
0.0
 20
0.0
 30
0.0
  3
*D3
  1

  0
TEXT
  5
81A
100
AcDbEntity
  8
5
 62
     2
100
AcDbText
 10
270.585365
 20
33.328894
 30
0.0
 40
16.5
  1
230
 50
90.0
 41
1.4
 72
     5
 11
270.585365
 21
63.358894
 31
0.0
100
AcDbText
  0
LINE
  5
81B
100
AcDbEntity
  8
5
 62
     2
100
AcDbLine
 10
162.461586
 20
-64.346106
 30
0.0
 11
278.085365
 21
-64.346106
 31
0.0
  0
LINE
  5
81C
100
AcDbEntity
  8
5
 62
     2
100
AcDbLine
 10
273.085365
 20
-64.346106
 30
0.0
 11
275.673556
 21
-54.686848
 31
0.0
  0
LINE
  5
81D
100
AcDbEntity
  8
5
 62
     2
100
AcDbLine
 10
273.085365
 20
-64.346106
 30
0.0
 11
270.497175
 21
-54.686848
 31
0.0
  0
LINE
  5
81E
100
AcDbEntity
  8
5
 62
     2
100
AcDbLine
 10
275.673556
 20
-54.686848
 30
0.0
 11
270.497175
 21
-54.686848
 31
0.0
  0
LINE
  5
81F
100
AcDbEntity
  8
5
 62
     2
100
AcDbLine
 10
273.085365
 20
-64.346106
 30
0.0
 11
273.085365
 21
165.653894
 31
0.0
  0
LINE
  5
820
100
AcDbEntity
  8
5
 62
     2
100
AcDbLine
 10
273.085365
 20
165.653894
 30
0.0
 11
270.497175
 21
155.994636
 31
0.0
  0
LINE
  5
821
100
AcDbEntity
  8
5
 62
     2
100
AcDbLine
 10
273.085365
 20
165.653894
 30
0.0
 11
275.673556
 21
155.994636
 31
0.0
  0
LINE
  5
822
100
AcDbEntity
  8
5
 62
     2
100
AcDbLine
 10
270.497175
 20
155.994636
 30
0.0
 11
275.673556
 21
155.994636
 31
0.0
  0
LINE
  5
823
100
AcDbEntity
  8
5
 62
     2
100
AcDbLine
 10
92.461586
 20
165.653894
 30
0.0
 11
278.085365
 21
165.653894
 31
0.0
  0
ENDBLK
  5
824
100
AcDbEntity
  8
5
100
AcDbBlockEnd
  0
BLOCK
  5
825
100
AcDbEntity
  8
5
100
AcDbBlockBegin
  2
*D4
 70
     1
 10
0.0
 20
0.0
 30
0.0
  3
*D4
  1

  0
TEXT
  5
826
100
AcDbEntity
  8
5
 62
     2
100
AcDbText
 10
-274.094105
 20
511.928894
 30
0.0
 40
16.5
  1
136
 50
90.0
 41
1.4
 72
     5
 11
-274.094105
 21
541.958894
 31
0.0
100
AcDbText
  0
LINE
  5
827
100
AcDbEntity
  8
5
 62
     2
100
AcDbLine
 10
-319.188004
 20
461.253894
 30
0.0
 11
-266.594105
 21
461.253894
 31
0.0
  0
LINE
  5
828
100
AcDbEntity
  8
5
 62
     2
100
AcDbLine
 10
-271.594105
 20
461.253894
 30
0.0
 11
-269.005914
 21
470.913152
 31
0.0
  0
LINE
  5
829
100
AcDbEntity
  8
5
 62
     2
100
AcDbLine
 10
-271.594105
 20
461.253894
 30
0.0
 11
-274.182295
 21
470.913152
 31
0.0
  0
LINE
  5
82A
100
AcDbEntity
  8
5
 62
     2
100
AcDbLine
 10
-269.005914
 20
470.913152
 30
0.0
 11
-274.182295
 21
470.913152
 31
0.0
  0
LINE
  5
82B
100
AcDbEntity
  8
5
 62
     2
100
AcDbLine
 10
-271.594105
 20
461.253894
 30
0.0
 11
-271.594105
 21
597.253894
 31
0.0
  0
LINE
  5
82C
100
AcDbEntity
  8
5
 62
     2
100
AcDbLine
 10
-271.594105
 20
597.253894
 30
0.0
 11
-274.182295
 21
587.594636
 31
0.0
  0
LINE
  5
82D
100
AcDbEntity
  8
5
 62
     2
100
AcDbLine
 10
-271.594105
 20
597.253894
 30
0.0
 11
-269.005914
 21
587.594636
 31
0.0
  0
LINE
  5
82E
100
AcDbEntity
  8
5
 62
     2
100
AcDbLine
 10
-274.182295
 20
587.594636
 30
0.0
 11
-269.005914
 21
587.594636
 31
0.0
  0
LINE
  5
82F
100
AcDbEntity
  8
5
 62
     2
100
AcDbLine
 10
-468.120914
 20
597.253894
 30
0.0
 11
-266.594105
 21
597.253894
 31
0.0
  0
ENDBLK
  5
830
100
AcDbEntity
  8
5
100
AcDbBlockEnd
  0
BLOCK
  5
831
100
AcDbEntity
  8
5
100
AcDbBlockBegin
  2
*D5
 70
     1
 10
0.0
 20
0.0
 30
0.0
  3
*D5
  1

  0
TEXT
  5
832
100
AcDbEntity
  8
5
 62
     2
100
AcDbText
 10
-274.094105
 20
309.628894
 30
0.0
 40
16.5
  1
245.5
 50
90.0
 41
1.4
 72
     5
 11
-274.094105
 21
362.758894
 31
0.0
100
AcDbText
  0
LINE
  5
833
100
AcDbEntity
  8
5
 62
     2
100
AcDbLine
 10
-391.983325
 20
215.753894
 30
0.0
 11
-266.594105
 21
215.753894
 31
0.0
  0
LINE
  5
834
100
AcDbEntity
  8
5
 62
     2
100
AcDbLine
 10
-271.594105
 20
215.753894
 30
0.0
 11
-269.005914
 21
225.413152
 31
0.0
  0
LINE
  5
835
100
AcDbEntity
  8
5
 62
     2
100
AcDbLine
 10
-271.594105
 20
215.753894
 30
0.0
 11
-274.182295
 21
225.413152
 31
0.0
  0
LINE
  5
836
100
AcDbEntity
  8
5
 62
     2
100
AcDbLine
 10
-269.005914
 20
225.413152
 30
0.0
 11
-274.182295
 21
225.413152
 31
0.0
  0
LINE
  5
837
100
AcDbEntity
  8
5
 62
     2
100
AcDbLine
 10
-271.594105
 20
215.753894
 30
0.0
 11
-271.594105
 21
461.253894
 31
0.0
  0
LINE
  5
838
100
AcDbEntity
  8
5
 62
     2
100
AcDbLine
 10
-271.594105
 20
461.253894
 30
0.0
 11
-274.182295
 21
451.594636
 31
0.0
  0
LINE
  5
839
100
AcDbEntity
  8
5
 62
     2
100
AcDbLine
 10
-271.594105
 20
461.253894
 30
0.0
 11
-269.005914
 21
451.594636
 31
0.0
  0
LINE
  5
83A
100
AcDbEntity
  8
5
 62
     2
100
AcDbLine
 10
-274.182295
 20
451.594636
 30
0.0
 11
-269.005914
 21
451.594636
 31
0.0
  0
LINE
  5
83B
100
AcDbEntity
  8
5
 62
     2
100
AcDbLine
 10
-319.188004
 20
461.253894
 30
0.0
 11
-266.594105
 21
461.253894
 31
0.0
  0
ENDBLK
  5
83C
100
AcDbEntity
  8
5
100
AcDbBlockEnd
  0
BLOCK
  5
83D
100
AcDbEntity
  8
5
100
AcDbBlockBegin
  2
*D6
 70
     1
 10
0.0
 20
0.0
 30
0.0
  3
*D6
  1

  0
TEXT
  5
83E
100
AcDbEntity
  8
5
 62
     2
100
AcDbText
 10
270.585365
 20
-237.671106
 30
0.0
 40
16.5
  1
312
 50
90.0
 41
1.4
 72
     5
 11
270.585365
 21
-207.641106
 31
0.0
100
AcDbText
  0
LINE
  5
83F
100
AcDbEntity
  8
5
 62
     2
100
AcDbLine
 10
154.179855
 20
-376.346106
 30
0.0
 11
278.085365
 21
-376.346106
 31
0.0
  0
LINE
  5
840
100
AcDbEntity
  8
5
 62
     2
100
AcDbLine
 10
273.085365
 20
-376.346106
 30
0.0
 11
275.673556
 21
-366.686848
 31
0.0
  0
LINE
  5
841
100
AcDbEntity
  8
5
 62
     2
100
AcDbLine
 10
273.085365
 20
-376.346106
 30
0.0
 11
270.497175
 21
-366.686848
 31
0.0
  0
LINE
  5
842
100
AcDbEntity
  8
5
 62
     2
100
AcDbLine
 10
275.673556
 20
-366.686848
 30
0.0
 11
270.497175
 21
-366.686848
 31
0.0
  0
LINE
  5
843
100
AcDbEntity
  8
5
 62
     2
100
AcDbLine
 10
273.085365
 20
-376.346106
 30
0.0
 11
273.085365
 21
-64.346106
 31
0.0
  0
LINE
  5
844
100
AcDbEntity
  8
5
 62
     2
100
AcDbLine
 10
273.085365
 20
-64.346106
 30
0.0
 11
270.497175
 21
-74.005364
 31
0.0
  0
LINE
  5
845
100
AcDbEntity
  8
5
 62
     2
100
AcDbLine
 10
273.085365
 20
-64.346106
 30
0.0
 11
275.673556
 21
-74.005364
 31
0.0
  0
LINE
  5
846
100
AcDbEntity
  8
5
 62
     2
100
AcDbLine
 10
270.497175
 20
-74.005364
 30
0.0
 11
275.673556
 21
-74.005364
 31
0.0
  0
LINE
  5
847
100
AcDbEntity
  8
5
 62
     2
100
AcDbLine
 10
162.461586
 20
-64.346106
 30
0.0
 11
278.085365
 21
-64.346106
 31
0.0
  0
ENDBLK
  5
848
100
AcDbEntity
  8
5
100
AcDbBlockEnd
  0
BLOCK
  5
849
100
AcDbEntity
  8
5
100
AcDbBlockBegin
  2
*D7
 70
     1
 10
0.0
 20
0.0
 30
0.0
  3
*D7
  1

  0
TEXT
  5
84A
100
AcDbEntity
  8
5
 62
     2
100
AcDbText
 10
270.585365
 20
-519.821106
 30
0.0
 40
16.5
  1
252
 50
90.0
 41
1.4
 72
     5
 11
270.585365
 21
-489.791106
 31
0.0
100
AcDbText
  0
LINE
  5
84B
100
AcDbEntity
  8
5
 62
     2
100
AcDbLine
 10
98.961586
 20
-628.646106
 30
0.0
 11
278.085365
 21
-628.646106
 31
0.0
  0
LINE
  5
84C
100
AcDbEntity
  8
5
 62
     2
100
AcDbLine
 10
273.085365
 20
-628.646106
 30
0.0
 11
275.673556
 21
-618.986848
 31
0.0
  0
LINE
  5
84D
100
AcDbEntity
  8
5
 62
     2
100
AcDbLine
 10
273.085365
 20
-628.646106
 30
0.0
 11
270.497175
 21
-618.986848
 31
0.0
  0
LINE
  5
84E
100
AcDbEntity
  8
5
 62
     2
100
AcDbLine
 10
275.673556
 20
-618.986848
 30
0.0
 11
270.497175
 21
-618.986848
 31
0.0
  0
LINE
  5
84F
100
AcDbEntity
  8
5
 62
     2
100
AcDbLine
 10
273.085365
 20
-628.646106
 30
0.0
 11
273.085365
 21
-376.346106
 31
0.0
  0
LINE
  5
850
100
AcDbEntity
  8
5
 62
     2
100
AcDbLine
 10
273.085365
 20
-376.346106
 30
0.0
 11
270.497175
 21
-386.005364
 31
0.0
  0
LINE
  5
851
100
AcDbEntity
  8
5
 62
     2
100
AcDbLine
 10
273.085365
 20
-376.346106
 30
0.0
 11
275.673556
 21
-386.005364
 31
0.0
  0
LINE
  5
852
100
AcDbEntity
  8
5
 62
     2
100
AcDbLine
 10
270.497175
 20
-386.005364
 30
0.0
 11
275.673556
 21
-386.005364
 31
0.0
  0
LINE
  5
853
100
AcDbEntity
  8
5
 62
     2
100
AcDbLine
 10
154.179855
 20
-376.346106
 30
0.0
 11
278.085365
 21
-376.346106
 31
0.0
  0
ENDBLK
  5
854
100
AcDbEntity
  8
5
100
AcDbBlockEnd
  0
BLOCK
  5
855
100
AcDbEntity
  8
5
100
AcDbBlockBegin
  2
*D8
 70
     1
 10
0.0
 20
0.0
 30
0.0
  3
*D8
  1

  0
TEXT
  5
856
100
AcDbEntity
  8
5
 62
     2
100
AcDbText
 10
75.911586
 20
-671.32576
 30
0.0
 40
16.5
  1
78
 41
1.4
 72
     5
 11
94.391586
 21
-671.32576
 31
0.0
100
AcDbText
  0
LINE
  5
857
100
AcDbEntity
  8
5
 62
     2
100
AcDbLine
 10
48.461586
 20
-563.846106
 30
0.0
 11
48.461586
 21
-678.82576
 31
0.0
  0
LINE
  5
858
100
AcDbEntity
  8
5
 62
     2
100
AcDbLine
 10
48.461586
 20
-673.82576
 30
0.0
 11
58.120845
 21
-676.41395
 31
0.0
  0
LINE
  5
859
100
AcDbEntity
  8
5
 62
     2
100
AcDbLine
 10
48.461586
 20
-673.82576
 30
0.0
 11
58.120845
 21
-671.237569
 31
0.0
  0
LINE
  5
85A
100
AcDbEntity
  8
5
 62
     2
100
AcDbLine
 10
58.120845
 20
-676.41395
 30
0.0
 11
58.120845
 21
-671.237569
 31
0.0
  0
LINE
  5
85B
100
AcDbEntity
  8
5
 62
     2
100
AcDbLine
 10
48.461586
 20
-673.82576
 30
0.0
 11
126.461586
 21
-673.82576
 31
0.0
  0
LINE
  5
85C
100
AcDbEntity
  8
5
 62
     2
100
AcDbLine
 10
126.461586
 20
-673.82576
 30
0.0
 11
116.802328
 21
-671.237569
 31
0.0
  0
LINE
  5
85D
100
AcDbEntity
  8
5
 62
     2
100
AcDbLine
 10
126.461586
 20
-673.82576
 30
0.0
 11
116.802328
 21
-676.41395
 31
0.0
  0
LINE
  5
85E
100
AcDbEntity
  8
5
 62
     2
100
AcDbLine
 10
116.802328
 20
-671.237569
 30
0.0
 11
116.802328
 21
-676.41395
 31
0.0
  0
LINE
  5
85F
100
AcDbEntity
  8
5
 62
     2
100
AcDbLine
 10
126.461586
 20
-563.846106
 30
0.0
 11
126.461586
 21
-678.82576
 31
0.0
  0
ENDBLK
  5
860
100
AcDbEntity
  8
5
100
AcDbBlockEnd
  0
ENDSEC
  0
SECTION
  2
ENTITIES
  0
LINE
  5
2F
100
AcDbEntity
  8
1
  6
CENTER
 62
     2
100
AcDbLine
 10
-748.273691
 20
-376.346106
 30
0.0
 11
-313.265161
 21
-376.346106
 31
0.0
  0
LINE
  5
30
100
AcDbEntity
  8
1
  6
CENTER
 62
     2
100
AcDbLine
 10
24.761586
 20
-376.346106
 30
0.0
 11
149.179855
 21
-376.346106
 31
0.0
  0
LINE
  5
31
100
AcDbEntity
  8
1
100
AcDbLine
 10
-589.538414
 20
-80.346106
 30
0.0
 11
-470.538414
 21
-80.346106
 31
0.0
  0
LINE
  5
32
100
AcDbEntity
  8
1
100
AcDbLine
 10
-467.538414
 20
-64.346106
 30
0.0
 11
-467.538414
 21
-77.346106
 31
0.0
  0
LINE
  5
33
100
AcDbEntity
  8
1
100
AcDbLine
 10
-592.538414
 20
-64.346106
 30
0.0
 11
-592.538414
 21
-77.346106
 31
0.0
  0
LINE
  5
34
100
AcDbEntity
  8
1
100
AcDbLine
 10
-564.038414
 20
-617.346106
 30
0.0
 11
-496.038414
 21
-617.346106
 31
0.0
  0
LINE
  5
35
100
AcDbEntity
  8
1
  6
CENTER
 62
     2
100
AcDbLine
 10
-505.038414
 20
-604.814171
 30
0.0
 11
-505.038414
 21
-635.414757
 31
0.0
  0
LINE
  5
36
100
AcDbEntity
  8
1
  6
CENTER
 62
     2
100
AcDbLine
 10
-555.038414
 20
-604.814171
 30
0.0
 11
-555.038414
 21
-635.414757
 31
0.0
  0
LINE
  5
37
100
AcDbEntity
  8
1
100
AcDbLine
 10
-503.038414
 20
-176.353982
 30
0.0
 11
-503.038414
 21
-94.346106
 31
0.0
  0
LINE
  5
38
100
AcDbEntity
  8
1
100
AcDbLine
 10
-557.038414
 20
-176.353982
 30
0.0
 11
-557.038414
 21
-94.346106
 31
0.0
  0
ARC
  5
39
100
AcDbEntity
  8
1
100
AcDbCircle
 10
-506.038414
 20
-176.353982
 30
0.0
 40
3.0
100
AcDbArc
 50
345.674888
 51
360.0
  0
ARC
  5
3A
100
AcDbEntity
  8
1
100
AcDbCircle
 10
-554.038414
 20
-176.353982
 30
0.0
 40
3.0
100
AcDbArc
 50
180.0
 51
194.325112
  0
LINE
  5
3B
100
AcDbEntity
  8
1
100
AcDbLine
 10
-562.521728
 20
-602.525425
 30
0.0
 11
-562.521728
 21
-592.346106
 31
0.0
  0
LINE
  5
3C
100
AcDbEntity
  8
1
100
AcDbLine
 10
-497.555099
 20
-602.525425
 30
0.0
 11
-497.555099
 21
-592.346106
 31
0.0
  0
LINE
  5
3D
100
AcDbEntity
  8
1
100
AcDbLine
 10
-497.538414
 20
-623.146106
 30
0.0
 11
-497.538414
 21
-627.924418
 31
0.0
  0
LINE
  5
3E
100
AcDbEntity
  8
1
100
AcDbLine
 10
-497.538414
 20
-627.924418
 30
0.0
 11
-498.788414
 21
-628.646106
 31
0.0
  0
LINE
  5
3F
100
AcDbEntity
  8
1
100
AcDbLine
 10
-498.788414
 20
-628.646106
 30
0.0
 11
-511.288414
 21
-628.646106
 31
0.0
  0
LINE
  5
40
100
AcDbEntity
  8
1
100
AcDbLine
 10
-501.288414
 20
-623.146106
 30
0.0
 11
-501.288414
 21
-627.924418
 31
0.0
  0
ARC
  5
41
100
AcDbEntity
  8
1
100
AcDbCircle
 10
-499.413414
 20
-625.514042
 30
0.0
 40
3.053774
100
AcDbArc
 50
232.121121
 51
307.878879
  0
LINE
  5
42
100
AcDbEntity
  8
1
100
AcDbLine
 10
-512.538414
 20
-623.146106
 30
0.0
 11
-512.538414
 21
-627.924418
 31
0.0
  0
LINE
  5
43
100
AcDbEntity
  8
1
100
AcDbLine
 10
-512.538414
 20
-627.924418
 30
0.0
 11
-511.288414
 21
-628.646106
 31
0.0
  0
LINE
  5
44
100
AcDbEntity
  8
1
100
AcDbLine
 10
-508.788414
 20
-623.146106
 30
0.0
 11
-508.788414
 21
-627.924418
 31
0.0
  0
ARC
  5
45
100
AcDbEntity
  8
1
100
AcDbCircle
 10
-510.663414
 20
-625.514042
 30
0.0
 40
3.053774
100
AcDbArc
 50
232.121121
 51
307.878879
  0
ARC
  5
46
100
AcDbEntity
  8
1
100
AcDbCircle
 10
-505.038414
 20
-617.317816
 30
0.0
 40
11.25
100
AcDbArc
 50
250.528777
 51
289.471219
  0
LINE
  5
47
100
AcDbEntity
  8
1
100
AcDbLine
 10
-497.338414
 20
-621.146106
 30
0.0
 11
-497.338414
 21
-623.146106
 31
0.0
  0
LINE
  5
48
100
AcDbEntity
  8
1
100
AcDbLine
 10
-497.338414
 20
-623.146106
 30
0.0
 11
-512.738414
 21
-623.146106
 31
0.0
  0
LINE
  5
49
100
AcDbEntity
  8
1
100
AcDbLine
 10
-512.738414
 20
-623.146106
 30
0.0
 11
-512.738414
 21
-621.146106
 31
0.0
  0
LINE
  5
4A
100
AcDbEntity
  8
1
100
AcDbLine
 10
-505.038414
 20
-623.146106
 30
0.0
 11
-505.538414
 21
-621.146106
 31
0.0
  0
LINE
  5
4B
100
AcDbEntity
  8
1
100
AcDbLine
 10
-505.038414
 20
-621.146106
 30
0.0
 11
-504.538414
 21
-623.146106
 31
0.0
  0
LINE
  5
4C
100
AcDbEntity
  8
1
100
AcDbLine
 10
-547.538414
 20
-623.146106
 30
0.0
 11
-547.538414
 21
-627.924418
 31
0.0
  0
LINE
  5
4D
100
AcDbEntity
  8
1
100
AcDbLine
 10
-547.538414
 20
-627.924418
 30
0.0
 11
-548.788414
 21
-628.646106
 31
0.0
  0
LINE
  5
4E
100
AcDbEntity
  8
1
100
AcDbLine
 10
-548.788414
 20
-628.646106
 30
0.0
 11
-561.288414
 21
-628.646106
 31
0.0
  0
LINE
  5
4F
100
AcDbEntity
  8
1
100
AcDbLine
 10
-551.288414
 20
-623.146106
 30
0.0
 11
-551.288414
 21
-627.924418
 31
0.0
  0
ARC
  5
50
100
AcDbEntity
  8
1
100
AcDbCircle
 10
-549.413414
 20
-625.514042
 30
0.0
 40
3.053774
100
AcDbArc
 50
232.121121
 51
307.878879
  0
ARC
  5
51
100
AcDbEntity
  8
1
100
AcDbCircle
 10
-555.038414
 20
-617.317816
 30
0.0
 40
11.25
100
AcDbArc
 50
250.528777
 51
289.471219
  0
LINE
  5
52
100
AcDbEntity
  8
1
100
AcDbLine
 10
-562.538414
 20
-623.146106
 30
0.0
 11
-562.538414
 21
-627.924418
 31
0.0
  0
LINE
  5
53
100
AcDbEntity
  8
1
100
AcDbLine
 10
-562.538414
 20
-627.924418
 30
0.0
 11
-561.288414
 21
-628.646106
 31
0.0
  0
LINE
  5
54
100
AcDbEntity
  8
1
100
AcDbLine
 10
-558.788414
 20
-623.146106
 30
0.0
 11
-558.788414
 21
-627.924418
 31
0.0
  0
ARC
  5
55
100
AcDbEntity
  8
1
100
AcDbCircle
 10
-560.663414
 20
-625.514042
 30
0.0
 40
3.053774
100
AcDbArc
 50
232.121121
 51
307.878879
  0
LINE
  5
56
100
AcDbEntity
  8
1
100
AcDbLine
 10
-547.338414
 20
-621.146106
 30
0.0
 11
-547.338414
 21
-623.146106
 31
0.0
  0
LINE
  5
57
100
AcDbEntity
  8
1
100
AcDbLine
 10
-547.338414
 20
-623.146106
 30
0.0
 11
-562.738414
 21
-623.146106
 31
0.0
  0
LINE
  5
58
100
AcDbEntity
  8
1
100
AcDbLine
 10
-562.738414
 20
-623.146106
 30
0.0
 11
-562.738414
 21
-621.146106
 31
0.0
  0
LINE
  5
59
100
AcDbEntity
  8
1
100
AcDbLine
 10
-555.038414
 20
-623.146106
 30
0.0
 11
-555.538414
 21
-621.146106
 31
0.0
  0
LINE
  5
5A
100
AcDbEntity
  8
1
100
AcDbLine
 10
-555.038414
 20
-621.146106
 30
0.0
 11
-554.538414
 21
-623.146106
 31
0.0
  0
LINE
  5
5B
100
AcDbEntity
  8
1
  6
CENTER
 62
     2
100
AcDbLine
 10
-574.233414
 20
-48.967619
 30
0.0
 11
-574.233414
 21
-97.176644
 31
0.0
  0
LINE
  5
5C
100
AcDbEntity
  8
1
  6
CENTER
 62
     2
100
AcDbLine
 10
-485.843414
 20
-48.967619
 30
0.0
 11
-485.843414
 21
-97.176644
 31
0.0
  0
LINE
  5
5D
100
AcDbEntity
  8
1
100
AcDbLine
 10
27.961586
 20
-80.346106
 30
0.0
 11
146.961586
 21
-80.346106
 31
0.0
  0
LINE
  5
5E
100
AcDbEntity
  8
1
100
AcDbLine
 10
149.961586
 20
-64.346106
 30
0.0
 11
149.961586
 21
-77.346106
 31
0.0
  0
LINE
  5
5F
100
AcDbEntity
  8
1
100
AcDbLine
 10
24.961586
 20
-64.346106
 30
0.0
 11
24.961586
 21
-77.346106
 31
0.0
  0
LINE
  5
60
100
AcDbEntity
  8
1
100
AcDbLine
 10
114.461586
 20
-187.882117
 30
0.0
 11
114.461586
 21
-94.346106
 31
0.0
  0
LINE
  5
61
100
AcDbEntity
  8
1
100
AcDbLine
 10
60.461586
 20
-187.882117
 30
0.0
 11
60.461586
 21
-94.346106
 31
0.0
  0
LINE
  5
62
100
AcDbEntity
  8
1
  6
CENTER
 62
     2
100
AcDbLine
 10
43.266586
 20
-48.967619
 30
0.0
 11
43.266586
 21
-97.176644
 31
0.0
  0
LINE
  5
63
100
AcDbEntity
  8
1
  6
CENTER
 62
     2
100
AcDbLine
 10
131.656586
 20
-48.967619
 30
0.0
 11
131.656586
 21
-97.176644
 31
0.0
  0
ARC
  5
64
100
AcDbEntity
  8
1
100
AcDbCircle
 10
50.461586
 20
-187.882117
 30
0.0
 40
10.0
100
AcDbArc
 50
270.0
 51
360.0
  0
ARC
  5
65
100
AcDbEntity
  8
1
100
AcDbCircle
 10
124.461586
 20
-187.882117
 30
0.0
 40
10.0
100
AcDbArc
 50
180.0
 51
270.0
  0
ARC
  5
66
100
AcDbEntity
  8
1
100
AcDbCircle
 10
113.911702
 20
-195.478164
 30
0.0
 40
3.0
100
AcDbArc
 50
35.754351
 51
90.0
  0
ARC
  5
67
100
AcDbEntity
  8
1
100
AcDbCircle
 10
61.011471
 20
-195.478164
 30
0.0
 40
3.0
100
AcDbArc
 50
90.0
 51
144.245649
  0
ARC
  5
68
100
AcDbEntity
  8
1
100
AcDbCircle
 10
123.461586
 20
-560.810095
 30
0.0
 40
6.0
100
AcDbArc
 50
90.0
 51
180.0
  0
ARC
  5
69
100
AcDbEntity
  8
1
100
AcDbCircle
 10
51.461586
 20
-560.810095
 30
0.0
 40
6.0
100
AcDbArc
 50
0.0
 51
90.0
  0
LINE
  5
6A
100
AcDbEntity
  8
1
100
AcDbLine
 10
59.711947
 20
-560.214048
 30
0.0
 11
115.211226
 21
-560.214048
 31
0.0
  0
ARC
  5
6B
100
AcDbEntity
  8
1
100
AcDbCircle
 10
115.211226
 20
-557.214048
 30
0.0
 40
3.0
100
AcDbArc
 50
270.0
 51
336.449277
  0
ARC
  5
6C
100
AcDbEntity
  8
1
100
AcDbCircle
 10
59.711947
 20
-557.214048
 30
0.0
 40
3.0
100
AcDbArc
 50
203.550723
 51
270.0
  0
LINE
  5
6D
100
AcDbEntity
  8
1
  6
DASHED
100
AcDbLine
 10
-467.538414
 20
491.353894
 30
0.0
 11
-467.538414
 21
431.153894
 31
0.0
  0
LINE
  5
6E
100
AcDbEntity
  8
1
  6
DASHED
100
AcDbLine
 10
-592.538414
 20
491.353894
 30
0.0
 11
-592.538414
 21
431.153894
 31
0.0
  0
LINE
  5
6F
100
AcDbEntity
  8
1
  6
DASHED
100
AcDbLine
 10
-560.138414
 20
523.753894
 30
0.0
 11
-499.938414
 21
523.753894
 31
0.0
  0
LINE
  5
70
100
AcDbEntity
  8
1
  6
DASHED
100
AcDbLine
 10
-560.138414
 20
398.753894
 30
0.0
 11
-499.938414
 21
398.753894
 31
0.0
  0
ARC
  5
71
100
AcDbEntity
  8
1
  6
DASHED
100
AcDbCircle
 10
-499.938414
 20
491.353894
 30
0.0
 40
32.4
100
AcDbArc
 50
0.0
 51
90.0
  0
ARC
  5
72
100
AcDbEntity
  8
1
  6
DASHED
100
AcDbCircle
 10
-560.138414
 20
491.353894
 30
0.0
 40
32.4
100
AcDbArc
 50
90.0
 51
180.0
  0
ARC
  5
73
100
AcDbEntity
  8
1
  6
DASHED
100
AcDbCircle
 10
-560.138414
 20
431.153894
 30
0.0
 40
32.4
100
AcDbArc
 50
180.0
 51
270.0
  0
ARC
  5
74
100
AcDbEntity
  8
1
  6
DASHED
100
AcDbCircle
 10
-499.938414
 20
431.153894
 30
0.0
 40
32.4
100
AcDbArc
 50
270.0
 51
360.0
  0
CIRCLE
  5
75
100
AcDbEntity
  8
1
  6
DASHED
100
AcDbCircle
 10
-485.843414
 20
505.448894
 30
0.0
 40
6.5
  0
CIRCLE
  5
76
100
AcDbEntity
  8
1
  6
DASHED
100
AcDbCircle
 10
-574.233414
 20
505.448894
 30
0.0
 40
6.5
  0
CIRCLE
  5
77
100
AcDbEntity
  8
1
  6
DASHED
100
AcDbCircle
 10
-574.233414
 20
417.058894
 30
0.0
 40
6.5
  0
CIRCLE
  5
78
100
AcDbEntity
  8
1
  6
DASHED
100
AcDbCircle
 10
-485.843414
 20
417.058894
 30
0.0
 40
6.5
  0
LINE
  5
79
100
AcDbEntity
  8
1
  6
CENTER
 62
     2
100
AcDbLine
 10
-485.843414
 20
398.429261
 30
0.0
 11
-485.843414
 21
435.177552
 31
0.0
  0
LINE
  5
7A
100
AcDbEntity
  8
1
  6
CENTER
 62
     2
100
AcDbLine
 10
-485.843414
 20
489.957704
 30
0.0
 11
-485.843414
 21
522.369355
 31
0.0
  0
LINE
  5
7B
100
AcDbEntity
  8
1
  6
CENTER
 62
     2
100
AcDbLine
 10
-574.233414
 20
398.429261
 30
0.0
 11
-574.233414
 21
435.177552
 31
0.0
  0
LINE
  5
7C
100
AcDbEntity
  8
1
  6
CENTER
 62
     2
100
AcDbLine
 10
-574.233414
 20
489.957704
 30
0.0
 11
-574.233414
 21
522.369355
 31
0.0
  0
LINE
  5
7D
100
AcDbEntity
  8
1
  6
CENTER
 62
     2
100
AcDbLine
 10
-592.562296
 20
505.448894
 30
0.0
 11
-556.296671
 21
505.448894
 31
0.0
  0
LINE
  5
7E
100
AcDbEntity
  8
1
  6
CENTER
 62
     2
100
AcDbLine
 10
-502.924585
 20
505.448894
 30
0.0
 11
-467.343195
 21
505.448894
 31
0.0
  0
LINE
  5
7F
100
AcDbEntity
  8
1
  6
CENTER
 62
     2
100
AcDbLine
 10
-592.562296
 20
417.058894
 30
0.0
 11
-556.296671
 21
417.058894
 31
0.0
  0
LINE
  5
80
100
AcDbEntity
  8
1
  6
CENTER
 62
     2
100
AcDbLine
 10
-502.924585
 20
417.058894
 30
0.0
 11
-467.343195
 21
417.058894
 31
0.0
  0
LINE
  5
81
100
AcDbEntity
  8
1
100
AcDbLine
 10
-347.538414
 20
422.253894
 30
0.0
 11
-346.538414
 21
423.253894
 31
0.0
  0
LINE
  5
82
100
AcDbEntity
  8
1
100
AcDbLine
 10
-346.538414
 20
499.253894
 30
0.0
 11
-347.538414
 21
500.253894
 31
0.0
  0
LINE
  5
83
100
AcDbEntity
  8
1
100
AcDbLine
 10
60.461586
 20
-197.882117
 30
0.0
 11
62.461586
 21
-197.882117
 31
0.0
  0
LINE
  5
84
100
AcDbEntity
  8
1
100
AcDbLine
 10
112.461586
 20
-197.882117
 30
0.0
 11
114.461586
 21
-197.882117
 31
0.0
  0
LINE
  5
85
100
AcDbEntity
  8
1
100
AcDbLine
 10
57.461586
 20
-554.810095
 30
0.0
 11
62.461586
 21
-554.810095
 31
0.0
  0
LINE
  5
86
100
AcDbEntity
  8
1
100
AcDbLine
 10
112.461586
 20
-554.810095
 30
0.0
 11
117.461586
 21
-554.810095
 31
0.0
  0
LINE
  5
87
100
AcDbEntity
  8
1
100
AcDbLine
 10
79.761586
 20
-623.146106
 30
0.0
 11
95.161586
 21
-623.146106
 31
0.0
  0
LINE
  5
88
100
AcDbEntity
  8
1
100
AcDbLine
 10
93.961586
 20
-623.146106
 30
0.0
 11
93.961586
 21
-628.646106
 31
0.0
  0
LINE
  5
89
100
AcDbEntity
  8
1
100
AcDbLine
 10
87.461586
 20
-623.146106
 30
0.0
 11
87.461586
 21
-627.924418
 31
0.0
  0
ARC
  5
8A
100
AcDbEntity
  8
1
100
AcDbCircle
 10
90.711586
 20
-620.967347
 30
0.0
 40
7.678759
100
AcDbArc
 50
244.96034
 51
295.03966
  0
LINE
  5
8B
100
AcDbEntity
  8
1
100
AcDbLine
 10
80.961586
 20
-623.146106
 30
0.0
 11
80.961586
 21
-628.646106
 31
0.0
  0
LINE
  5
8C
100
AcDbEntity
  8
1
100
AcDbLine
 10
80.961586
 20
-628.646106
 30
0.0
 11
93.961586
 21
-628.646106
 31
0.0
  0
ARC
  5
8D
100
AcDbEntity
  8
1
100
AcDbCircle
 10
84.211586
 20
-620.967347
 30
0.0
 40
7.678759
100
AcDbArc
 50
244.96034
 51
295.03966
  0
LINE
  5
8E
100
AcDbEntity
  8
1
100
AcDbLine
 10
95.161586
 20
-621.146106
 30
0.0
 11
95.161586
 21
-623.146106
 31
0.0
  0
LINE
  5
8F
100
AcDbEntity
  8
1
100
AcDbLine
 10
79.761586
 20
-623.146106
 30
0.0
 11
79.761586
 21
-621.146106
 31
0.0
  0
LINE
  5
90
100
AcDbEntity
  8
1
100
AcDbLine
 10
-346.538414
 20
423.253894
 30
0.0
 11
-346.538414
 21
438.052649
 31
0.0
  0
LINE
  5
91
100
AcDbEntity
  8
1
100
AcDbLine
 10
-346.538414
 20
484.455139
 30
0.0
 11
-346.538414
 21
499.253894
 31
0.0
  0
LINE
  5
92
100
AcDbEntity
  8
1
100
AcDbLine
 10
-354.383504
 20
479.288284
 30
0.0
 11
-366.600352
 21
474.976326
 31
0.0
  0
LINE
  5
93
100
AcDbEntity
  8
1
100
AcDbLine
 10
-366.600352
 20
447.531463
 30
0.0
 11
-354.383504
 21
443.219504
 31
0.0
  0
LINE
  5
94
100
AcDbEntity
  8
1
  6
DASHED
100
AcDbLine
 10
-422.052303
 20
474.976326
 30
0.0
 11
-404.604871
 21
479.471388
 31
0.0
  0
LINE
  5
95
100
AcDbEntity
  8
1
  6
DASHED
100
AcDbLine
 10
-422.052303
 20
447.531463
 30
0.0
 11
-404.604871
 21
443.0364
 31
0.0
  0
LINE
  5
96
100
AcDbEntity
  8
1
  6
DASHED
100
AcDbLine
 10
-712.538414
 20
422.253894
 30
0.0
 11
-713.538414
 21
423.253894
 31
0.0
  0
LINE
  5
97
100
AcDbEntity
  8
1
  6
DASHED
100
AcDbLine
 10
-713.538414
 20
499.253894
 30
0.0
 11
-712.538414
 21
500.253894
 31
0.0
  0
LINE
  5
98
100
AcDbEntity
  8
1
  6
DASHED
100
AcDbLine
 10
-591.292065
 20
500.253894
 30
0.0
 11
-712.538414
 21
500.253894
 31
0.0
  0
LINE
  5
99
100
AcDbEntity
  8
1
  6
DASHED
100
AcDbLine
 10
-591.560539
 20
499.253894
 30
0.0
 11
-713.538414
 21
499.253894
 31
0.0
  0
LINE
  5
9A
100
AcDbEntity
  8
1
  6
DASHED
100
AcDbLine
 10
-591.292065
 20
422.253894
 30
0.0
 11
-712.538414
 21
422.253894
 31
0.0
  0
LINE
  5
9B
100
AcDbEntity
  8
1
  6
DASHED
100
AcDbLine
 10
-591.560539
 20
423.253894
 30
0.0
 11
-713.538414
 21
423.253894
 31
0.0
  0
LINE
  5
9C
100
AcDbEntity
  8
1
  6
DASHED
100
AcDbLine
 10
-713.538414
 20
423.253894
 30
0.0
 11
-713.538414
 21
438.052649
 31
0.0
  0
LINE
  5
9D
100
AcDbEntity
  8
1
  6
DASHED
100
AcDbLine
 10
-713.538414
 20
484.455139
 30
0.0
 11
-713.538414
 21
499.253894
 31
0.0
  0
LINE
  5
9E
100
AcDbEntity
  8
1
  6
DASHED
100
AcDbLine
 10
-705.693324
 20
479.288284
 30
0.0
 11
-693.476475
 21
474.976326
 31
0.0
  0
LINE
  5
9F
100
AcDbEntity
  8
1
  6
DASHED
100
AcDbLine
 10
-693.476475
 20
447.531463
 30
0.0
 11
-705.693324
 21
443.219504
 31
0.0
  0
LINE
  5
A0
100
AcDbEntity
  8
1
  6
DASHED
100
AcDbLine
 10
-638.024524
 20
474.976326
 30
0.0
 11
-655.471956
 21
479.471388
 31
0.0
  0
LINE
  5
A1
100
AcDbEntity
  8
1
  6
DASHED
100
AcDbLine
 10
-638.024524
 20
447.531463
 30
0.0
 11
-655.471956
 21
443.0364
 31
0.0
  0
ARC
  5
A2
100
AcDbEntity
  8
1
100
AcDbCircle
 10
96.982586
 20
-351.903538
 30
0.0
 40
4.2015
100
AcDbArc
 50
0.0
 51
90.0
  0
ARC
  5
A3
100
AcDbEntity
  8
1
100
AcDbCircle
 10
77.940586
 20
-351.903538
 30
0.0
 40
4.2015
100
AcDbArc
 50
90.0
 51
180.0
  0
ARC
  5
A4
100
AcDbEntity
  8
1
100
AcDbCircle
 10
77.940586
 20
-400.788674
 30
0.0
 40
4.2015
100
AcDbArc
 50
180.0
 51
270.0
  0
ARC
  5
A5
100
AcDbEntity
  8
1
100
AcDbCircle
 10
96.982586
 20
-400.788674
 30
0.0
 40
4.2015
100
AcDbArc
 50
270.0
 51
360.0
  0
LINE
  5
A6
100
AcDbEntity
  8
1
100
AcDbLine
 10
77.940586
 20
-404.990174
 30
0.0
 11
96.982586
 21
-404.990174
 31
0.0
  0
LINE
  5
A7
100
AcDbEntity
  8
1
100
AcDbLine
 10
77.940586
 20
-347.702038
 30
0.0
 11
96.982586
 21
-347.702038
 31
0.0
  0
LINE
  5
A8
100
AcDbEntity
  8
1
100
AcDbLine
 10
101.184086
 20
-400.788674
 30
0.0
 11
101.184086
 21
-351.903538
 31
0.0
  0
LINE
  5
A9
100
AcDbEntity
  8
1
100
AcDbLine
 10
73.739086
 20
-400.788674
 30
0.0
 11
73.739086
 21
-351.903538
 31
0.0
  0
LINE
  5
AA
100
AcDbEntity
  8
1
100
AcDbLine
 10
101.184086
 20
-347.702038
 30
0.0
 11
105.172863
 21
-340.63075
 31
0.0
  0
LINE
  5
AB
100
AcDbEntity
  8
1
100
AcDbLine
 10
69.75031
 20
-340.63075
 30
0.0
 11
73.739086
 21
-347.702038
 31
0.0
  0
LINE
  5
AC
100
AcDbEntity
  8
1
100
AcDbLine
 10
73.739086
 20
-404.990174
 30
0.0
 11
69.75031
 21
-412.061462
 31
0.0
  0
LINE
  5
AD
100
AcDbEntity
  8
1
100
AcDbLine
 10
101.184086
 20
-404.990174
 30
0.0
 11
105.172863
 21
-412.061462
 31
0.0
  0
LINE
  5
AE
100
AcDbEntity
  8
1
100
AcDbLine
 10
101.184086
 20
-323.449691
 30
0.0
 11
101.184086
 21
-268.835741
 31
0.0
  0
ARC
  5
AF
100
AcDbEntity
  8
1
100
AcDbCircle
 10
96.982586
 20
-268.835741
 30
0.0
 40
4.2015
100
AcDbArc
 50
0.0
 51
90.0
  0
LINE
  5
B0
100
AcDbEntity
  8
1
100
AcDbLine
 10
77.940586
 20
-264.634241
 30
0.0
 11
96.982586
 21
-264.634241
 31
0.0
  0
ARC
  5
B1
100
AcDbEntity
  8
1
100
AcDbCircle
 10
77.940586
 20
-268.835741
 30
0.0
 40
4.2015
100
AcDbArc
 50
90.0
 51
180.0
  0
LINE
  5
B2
100
AcDbEntity
  8
1
100
AcDbLine
 10
73.739086
 20
-323.449691
 30
0.0
 11
73.739086
 21
-268.835741
 31
0.0
  0
ARC
  5
B3
100
AcDbEntity
  8
1
100
AcDbCircle
 10
77.940586
 20
-323.449691
 30
0.0
 40
4.2015
100
AcDbArc
 50
180.0
 51
270.0
  0
ARC
  5
B4
100
AcDbEntity
  8
1
100
AcDbCircle
 10
96.982586
 20
-323.449691
 30
0.0
 40
4.2015
100
AcDbArc
 50
270.0
 51
360.0
  0
LINE
  5
B5
100
AcDbEntity
  8
1
100
AcDbLine
 10
77.940586
 20
-327.651191
 30
0.0
 11
96.982586
 21
-327.651191
 31
0.0
  0
LINE
  5
B6
100
AcDbEntity
  8
1
100
AcDbLine
 10
105.42027
 20
-253.968021
 30
0.0
 11
101.184086
 21
-264.634241
 31
0.0
  0
LINE
  5
B7
100
AcDbEntity
  8
1
100
AcDbLine
 10
69.502903
 20
-253.968021
 30
0.0
 11
73.739086
 21
-264.634241
 31
0.0
  0
LINE
  5
B8
100
AcDbEntity
  8
1
100
AcDbLine
 10
73.739086
 20
-327.651191
 30
0.0
 11
70.152599
 21
-331.521346
 31
0.0
  0
LINE
  5
B9
100
AcDbEntity
  8
1
100
AcDbLine
 10
104.770574
 20
-331.521346
 30
0.0
 11
101.184086
 21
-327.651191
 31
0.0
  0
LINE
  5
BA
100
AcDbEntity
  8
1
100
AcDbLine
 10
101.184086
 20
-239.965835
 30
0.0
 11
101.184086
 21
-218.274604
 31
0.0
  0
LINE
  5
BB
100
AcDbEntity
  8
1
100
AcDbLine
 10
77.940586
 20
-244.167335
 30
0.0
 11
96.982586
 21
-244.167335
 31
0.0
  0
LINE
  5
BC
100
AcDbEntity
  8
1
100
AcDbLine
 10
73.739086
 20
-239.965835
 30
0.0
 11
73.739086
 21
-218.274604
 31
0.0
  0
LINE
  5
BD
100
AcDbEntity
  8
1
100
AcDbLine
 10
77.940586
 20
-214.073104
 30
0.0
 11
96.982586
 21
-214.073104
 31
0.0
  0
ARC
  5
BE
100
AcDbEntity
  8
1
100
AcDbCircle
 10
96.982586
 20
-218.274604
 30
0.0
 40
4.2015
100
AcDbArc
 50
0.0
 51
90.0
  0
ARC
  5
BF
100
AcDbEntity
  8
1
100
AcDbCircle
 10
96.982586
 20
-239.965835
 30
0.0
 40
4.2015
100
AcDbArc
 50
270.0
 51
360.0
  0
ARC
  5
C0
100
AcDbEntity
  8
1
100
AcDbCircle
 10
77.940586
 20
-239.965835
 30
0.0
 40
4.2015
100
AcDbArc
 50
180.0
 51
270.0
  0
ARC
  5
C1
100
AcDbEntity
  8
1
100
AcDbCircle
 10
77.940586
 20
-218.274604
 30
0.0
 40
4.2015
100
AcDbArc
 50
90.0
 51
180.0
  0
LINE
  5
C2
100
AcDbEntity
  8
1
100
AcDbLine
 10
107.008246
 20
-201.379901
 30
0.0
 11
101.184086
 21
-214.073104
 31
0.0
  0
LINE
  5
C3
100
AcDbEntity
  8
1
100
AcDbLine
 10
67.914927
 20
-201.379901
 30
0.0
 11
73.739086
 21
-214.073104
 31
0.0
  0
LINE
  5
C4
100
AcDbEntity
  8
1
100
AcDbLine
 10
101.184086
 20
-244.167335
 30
0.0
 11
103.877065
 21
-245.279108
 31
0.0
  0
LINE
  5
C5
100
AcDbEntity
  8
1
100
AcDbLine
 10
73.739086
 20
-244.167335
 30
0.0
 11
71.046108
 21
-245.279108
 31
0.0
  0
LINE
  5
C6
100
AcDbEntity
  8
1
100
AcDbLine
 10
101.184086
 20
-483.85647
 30
0.0
 11
101.184086
 21
-429.242521
 31
0.0
  0
LINE
  5
C7
100
AcDbEntity
  8
1
100
AcDbLine
 10
77.940586
 20
-488.05797
 30
0.0
 11
96.982586
 21
-488.05797
 31
0.0
  0
LINE
  5
C8
100
AcDbEntity
  8
1
100
AcDbLine
 10
73.739086
 20
-483.85647
 30
0.0
 11
73.739086
 21
-429.242521
 31
0.0
  0
LINE
  5
C9
100
AcDbEntity
  8
1
100
AcDbLine
 10
77.940586
 20
-425.041021
 30
0.0
 11
96.982586
 21
-425.041021
 31
0.0
  0
ARC
  5
CA
100
AcDbEntity
  8
1
100
AcDbCircle
 10
96.982586
 20
-429.242521
 30
0.0
 40
4.2015
100
AcDbArc
 50
0.0
 51
90.0
  0
ARC
  5
CB
100
AcDbEntity
  8
1
100
AcDbCircle
 10
77.940586
 20
-429.242521
 30
0.0
 40
4.2015
100
AcDbArc
 50
90.0
 51
180.0
  0
ARC
  5
CC
100
AcDbEntity
  8
1
100
AcDbCircle
 10
77.940586
 20
-483.85647
 30
0.0
 40
4.2015
100
AcDbArc
 50
180.0
 51
270.0
  0
ARC
  5
CD
100
AcDbEntity
  8
1
100
AcDbCircle
 10
96.982586
 20
-483.85647
 30
0.0
 40
4.2015
100
AcDbArc
 50
270.0
 51
360.0
  0
LINE
  5
CE
100
AcDbEntity
  8
1
100
AcDbLine
 10
104.770574
 20
-421.170866
 30
0.0
 11
101.184086
 21
-425.041021
 31
0.0
  0
LINE
  5
CF
100
AcDbEntity
  8
1
100
AcDbLine
 10
70.152599
 20
-421.170866
 30
0.0
 11
73.739086
 21
-425.041021
 31
0.0
  0
LINE
  5
D0
100
AcDbEntity
  8
1
100
AcDbLine
 10
73.739086
 20
-488.05797
 30
0.0
 11
69.502903
 21
-498.724191
 31
0.0
  0
LINE
  5
D1
100
AcDbEntity
  8
1
100
AcDbLine
 10
101.184086
 20
-488.05797
 30
0.0
 11
105.42027
 21
-498.724191
 31
0.0
  0
LINE
  5
D2
100
AcDbEntity
  8
1
100
AcDbLine
 10
101.184086
 20
-534.417608
 30
0.0
 11
101.184086
 21
-512.726377
 31
0.0
  0
LINE
  5
D3
100
AcDbEntity
  8
1
100
AcDbLine
 10
77.940586
 20
-508.524877
 30
0.0
 11
96.982586
 21
-508.524877
 31
0.0
  0
LINE
  5
D4
100
AcDbEntity
  8
1
100
AcDbLine
 10
73.739086
 20
-534.417608
 30
0.0
 11
73.739086
 21
-512.726377
 31
0.0
  0
LINE
  5
D5
100
AcDbEntity
  8
1
100
AcDbLine
 10
77.940586
 20
-538.619108
 30
0.0
 11
96.982586
 21
-538.619108
 31
0.0
  0
ARC
  5
D6
100
AcDbEntity
  8
1
100
AcDbCircle
 10
77.940586
 20
-534.417608
 30
0.0
 40
4.2015
100
AcDbArc
 50
180.0
 51
270.0
  0
ARC
  5
D7
100
AcDbEntity
  8
1
100
AcDbCircle
 10
77.940586
 20
-512.726377
 30
0.0
 40
4.2015
100
AcDbArc
 50
90.0
 51
180.0
  0
ARC
  5
D8
100
AcDbEntity
  8
1
100
AcDbCircle
 10
96.982586
 20
-512.726377
 30
0.0
 40
4.2015
100
AcDbArc
 50
0.0
 51
90.0
  0
ARC
  5
D9
100
AcDbEntity
  8
1
100
AcDbCircle
 10
96.982586
 20
-534.417608
 30
0.0
 40
4.2015
100
AcDbArc
 50
270.0
 51
360.0
  0
LINE
  5
DA
100
AcDbEntity
  8
1
100
AcDbLine
 10
67.914927
 20
-551.31231
 30
0.0
 11
73.739086
 21
-538.619108
 31
0.0
  0
LINE
  5
DB
100
AcDbEntity
  8
1
100
AcDbLine
 10
107.008246
 20
-551.31231
 30
0.0
 11
101.184086
 21
-538.619108
 31
0.0
  0
LINE
  5
DC
100
AcDbEntity
  8
1
100
AcDbLine
 10
46.461586
 20
-549.814977
 30
0.0
 11
46.461586
 21
-202.877235
 31
0.0
  0
LINE
  5
DD
100
AcDbEntity
  8
1
100
AcDbLine
 10
128.461586
 20
-549.814977
 30
0.0
 11
128.461586
 21
-202.877235
 31
0.0
  0
LINE
  5
DE
100
AcDbEntity
  8
1
100
AcDbLine
 10
128.198073
 20
-201.884957
 30
0.0
 11
127.037428
 21
-199.853828
 31
0.0
  0
LINE
  5
DF
100
AcDbEntity
  8
1
100
AcDbLine
 10
46.7251
 20
-201.884957
 30
0.0
 11
47.885745
 21
-199.853828
 31
0.0
  0
ARC
  5
E0
100
AcDbEntity
  8
1
100
AcDbCircle
 10
126.461586
 20
-202.877235
 30
0.0
 40
2.0
100
AcDbArc
 50
0.0
 51
29.744881
  0
ARC
  5
E1
100
AcDbEntity
  8
1
100
AcDbCircle
 10
48.461586
 20
-202.877235
 30
0.0
 40
2.0
100
AcDbArc
 50
150.255119
 51
180.0
  0
ARC
  5
E2
100
AcDbEntity
  8
1
100
AcDbCircle
 10
49.622232
 20
-200.846106
 30
0.0
 40
2.0
100
AcDbArc
 50
125.473231
 51
150.255119
  0
ARC
  5
E3
100
AcDbEntity
  8
1
100
AcDbCircle
 10
125.300941
 20
-200.846106
 30
0.0
 40
2.0
100
AcDbArc
 50
29.744881
 51
54.526769
  0
LINE
  5
E4
100
AcDbEntity
  8
1
100
AcDbLine
 10
128.198073
 20
-550.807255
 30
0.0
 11
127.037428
 21
-552.838384
 31
0.0
  0
LINE
  5
E5
100
AcDbEntity
  8
1
100
AcDbLine
 10
46.7251
 20
-550.807255
 30
0.0
 11
47.885745
 21
-552.838384
 31
0.0
  0
ARC
  5
E6
100
AcDbEntity
  8
1
100
AcDbCircle
 10
126.461586
 20
-549.814977
 30
0.0
 40
2.0
100
AcDbArc
 50
330.255119
 51
360.0
  0
ARC
  5
E7
100
AcDbEntity
  8
1
100
AcDbCircle
 10
48.461586
 20
-549.814977
 30
0.0
 40
2.0
100
AcDbArc
 50
180.0
 51
209.744881
  0
ARC
  5
E8
100
AcDbEntity
  8
1
100
AcDbCircle
 10
49.622232
 20
-551.846106
 30
0.0
 40
2.0
100
AcDbArc
 50
209.744881
 51
234.526769
  0
ARC
  5
E9
100
AcDbEntity
  8
1
100
AcDbCircle
 10
125.300941
 20
-551.846106
 30
0.0
 40
2.0
100
AcDbArc
 50
305.473231
 51
330.255119
  0
LINE
  5
EA
100
AcDbEntity
  8
1
  6
DASHED
100
AcDbLine
 10
-704.499563
 20
501.99038
 30
0.0
 11
-706.530691
 21
500.829735
 31
0.0
  0
LINE
  5
EB
100
AcDbEntity
  8
1
  6
DASHED
100
AcDbLine
 10
-704.499563
 20
420.517408
 30
0.0
 11
-706.530691
 21
421.678053
 31
0.0
  0
ARC
  5
EC
100
AcDbEntity
  8
1
  6
DASHED
100
AcDbCircle
 10
-703.507285
 20
500.253894
 30
0.0
 40
2.0
100
AcDbArc
 50
90.0
 51
119.744881
  0
ARC
  5
ED
100
AcDbEntity
  8
1
  6
DASHED
100
AcDbCircle
 10
-703.507285
 20
422.253894
 30
0.0
 40
2.0
100
AcDbArc
 50
240.255119
 51
270.0
  0
ARC
  5
EE
100
AcDbEntity
  8
1
  6
DASHED
100
AcDbCircle
 10
-705.538414
 20
423.414539
 30
0.0
 40
2.0
100
AcDbArc
 50
215.473231
 51
240.255119
  0
ARC
  5
EF
100
AcDbEntity
  8
1
  6
DASHED
100
AcDbCircle
 10
-705.538414
 20
499.093249
 30
0.0
 40
2.0
100
AcDbArc
 50
119.744881
 51
144.526769
  0
LINE
  5
F0
100
AcDbEntity
  8
1
100
AcDbLine
 10
-355.577265
 20
501.99038
 30
0.0
 11
-353.546136
 21
500.829735
 31
0.0
  0
LINE
  5
F1
100
AcDbEntity
  8
1
100
AcDbLine
 10
-355.577265
 20
420.517408
 30
0.0
 11
-353.546136
 21
421.678053
 31
0.0
  0
ARC
  5
F2
100
AcDbEntity
  8
1
100
AcDbCircle
 10
-356.569542
 20
500.253894
 30
0.0
 40
2.0
100
AcDbArc
 50
60.255119
 51
90.0
  0
ARC
  5
F3
100
AcDbEntity
  8
1
100
AcDbCircle
 10
-356.569542
 20
422.253894
 30
0.0
 40
2.0
100
AcDbArc
 50
270.0
 51
299.744881
  0
ARC
  5
F4
100
AcDbEntity
  8
1
100
AcDbCircle
 10
-354.538414
 20
423.414539
 30
0.0
 40
2.0
100
AcDbArc
 50
299.744881
 51
324.526769
  0
ARC
  5
F5
100
AcDbEntity
  8
1
100
AcDbCircle
 10
-354.538414
 20
499.093249
 30
0.0
 40
2.0
100
AcDbArc
 50
35.473231
 51
60.255119
  0
LINE
  5
F6
100
AcDbEntity
  8
1
  6
DASHED
100
AcDbLine
 10
-703.507285
 20
502.253894
 30
0.0
 11
-590.649887
 21
502.253894
 31
0.0
  0
LINE
  5
F7
100
AcDbEntity
  8
1
  6
DASHED
100
AcDbLine
 10
-703.507285
 20
420.253894
 30
0.0
 11
-590.649887
 21
420.253894
 31
0.0
  0
CIRCLE
  5
F8
100
AcDbEntity
  8
1
100
AcDbCircle
 10
-530.038414
 20
-376.346106
 30
0.0
 40
182.5
  0
CIRCLE
  5
F9
100
AcDbEntity
  8
1
100
AcDbCircle
 10
-530.038414
 20
-376.346106
 30
0.0
 40
177.5
  0
CIRCLE
  5
FA
100
AcDbEntity
  8
1
100
AcDbCircle
 10
-530.038414
 20
-376.346106
 30
0.0
 40
174.0
  0
ARC
  5
FB
100
AcDbEntity
  8
1
100
AcDbCircle
 10
-470.538414
 20
-77.346106
 30
0.0
 40
3.0
100
AcDbArc
 50
270.0
 51
360.0
  0
ARC
  5
FC
100
AcDbEntity
  8
1
100
AcDbCircle
 10
-589.538414
 20
-77.346106
 30
0.0
 40
3.0
100
AcDbArc
 50
180.0
 51
270.0
  0
ARC
  5
FD
100
AcDbEntity
  8
1
100
AcDbCircle
 10
-587.038414
 20
-110.346106
 30
0.0
 40
30.0
100
AcDbArc
 50
0.0
 51
90.0
  0
ARC
  5
FE
100
AcDbEntity
  8
1
100
AcDbCircle
 10
-473.038414
 20
-110.346106
 30
0.0
 40
30.0
100
AcDbArc
 50
90.0
 51
180.0
  0
ARC
  5
FF
100
AcDbEntity
  8
1
100
AcDbCircle
 10
-489.038414
 20
-94.346106
 30
0.0
 40
14.0
100
AcDbArc
 50
90.0
 51
180.0
  0
ARC
  5
100
100
AcDbEntity
  8
1
100
AcDbCircle
 10
-571.038414
 20
-94.346106
 30
0.0
 40
14.0
100
AcDbArc
 50
0.0
 51
90.0
  0
LINE
  5
101
100
AcDbEntity
  8
1
100
AcDbLine
 10
-526.038414
 20
-110.346106
 30
0.0
 11
-534.038414
 21
-110.346106
 31
0.0
  0
LINE
  5
102
100
AcDbEntity
  8
1
100
AcDbLine
 10
-534.038414
 20
-86.346106
 30
0.0
 11
-534.038414
 21
-104.346106
 31
0.0
  0
LINE
  5
103
100
AcDbEntity
  8
1
100
AcDbLine
 10
-526.038414
 20
-86.346106
 30
0.0
 11
-526.038414
 21
-104.346106
 31
0.0
  0
ARC
  5
104
100
AcDbEntity
  8
1
100
AcDbCircle
 10
-520.038414
 20
-86.346106
 30
0.0
 40
6.0
100
AcDbArc
 50
90.0
 51
180.0
  0
ARC
  5
105
100
AcDbEntity
  8
1
100
AcDbCircle
 10
-540.038414
 20
-86.346106
 30
0.0
 40
6.0
100
AcDbArc
 50
360.0
 51
90.0
  0
ARC
  5
106
100
AcDbEntity
  8
1
100
AcDbCircle
 10
-540.038414
 20
-104.346106
 30
0.0
 40
6.0
100
AcDbArc
 50
270.0
 51
360.0
  0
ARC
  5
107
100
AcDbEntity
  8
1
100
AcDbCircle
 10
-520.038414
 20
-104.346106
 30
0.0
 40
6.0
100
AcDbArc
 50
180.0
 51
270.0
  0
LINE
  5
108
100
AcDbEntity
  8
1
100
AcDbLine
 10
-572.023198
 20
-165.27434
 30
0.0
 11
-574.027388
 21
-155.198598
 31
0.0
  0
LINE
  5
109
100
AcDbEntity
  8
1
100
AcDbLine
 10
-488.053629
 20
-165.27434
 30
0.0
 11
-486.049439
 21
-155.198598
 31
0.0
  0
ARC
  5
10A
100
AcDbEntity
  8
1
100
AcDbCircle
 10
-530.038414
 20
-376.346106
 30
0.0
 40
228.5
100
AcDbArc
 50
79.512272
 51
81.075301
  0
ARC
  5
10B
100
AcDbEntity
  8
1
100
AcDbCircle
 10
-530.038414
 20
-376.346106
 30
0.0
 40
228.5
100
AcDbArc
 50
98.924699
 51
100.487728
  0
ARC
  5
10C
100
AcDbEntity
  8
1
100
AcDbCircle
 10
-493.038414
 20
-140.733606
 30
0.0
 40
10.0
100
AcDbArc
 50
180.0
 51
261.075301
  0
ARC
  5
10D
100
AcDbEntity
  8
1
100
AcDbCircle
 10
-567.038414
 20
-140.733606
 30
0.0
 40
10.0
100
AcDbArc
 50
278.924699
 51
360.0
  0
ARC
  5
10E
100
AcDbEntity
  8
1
100
AcDbCircle
 10
-488.991795
 20
-154.613327
 30
0.0
 40
3.0
100
AcDbArc
 50
348.75
 51
79.512272
  0
ARC
  5
10F
100
AcDbEntity
  8
1
100
AcDbCircle
 10
-571.085032
 20
-154.613327
 30
0.0
 40
3.0
100
AcDbArc
 50
100.487728
 51
191.25
  0
ARC
  5
110
100
AcDbEntity
  8
1
100
AcDbCircle
 10
-491.020349
 20
-180.18905
 30
0.0
 40
12.5
100
AcDbArc
 50
89.909937
 51
259.46052
  0
ARC
  5
111
100
AcDbEntity
  8
1
100
AcDbCircle
 10
-569.056478
 20
-180.18905
 30
0.0
 40
12.5
100
AcDbArc
 50
280.53948
 51
90.090063
  0
ARC
  5
112
100
AcDbEntity
  8
1
100
AcDbCircle
 10
-490.995985
 20
-164.689069
 30
0.0
 40
3.0
100
AcDbArc
 50
269.909937
 51
348.75
  0
ARC
  5
113
100
AcDbEntity
  8
1
100
AcDbCircle
 10
-569.080842
 20
-164.689069
 30
0.0
 40
3.0
100
AcDbArc
 50
191.25
 51
270.090063
  0
ARC
  5
114
100
AcDbEntity
  8
1
100
AcDbCircle
 10
-494.038414
 20
-196.41068
 30
0.0
 40
4.0
100
AcDbArc
 50
17.598703
 51
79.46052
  0
ARC
  5
115
100
AcDbEntity
  8
1
100
AcDbCircle
 10
-566.038414
 20
-196.41068
 30
0.0
 40
4.0
100
AcDbArc
 50
100.53948
 51
162.401297
  0
LINE
  5
116
100
AcDbEntity
  8
1
100
AcDbLine
 10
-564.038414
 20
-604.870175
 30
0.0
 11
-564.038414
 21
-621.146106
 31
0.0
  0
LINE
  5
117
100
AcDbEntity
  8
1
100
AcDbLine
 10
-496.038414
 20
-604.870175
 30
0.0
 11
-496.038414
 21
-621.146106
 31
0.0
  0
LINE
  5
118
100
AcDbEntity
  8
1
100
AcDbLine
 10
-557.038414
 20
-576.338229
 30
0.0
 11
-557.038414
 21
-611.346106
 31
0.0
  0
LINE
  5
119
100
AcDbEntity
  8
1
100
AcDbLine
 10
-503.038414
 20
-576.338229
 30
0.0
 11
-503.038414
 21
-611.346106
 31
0.0
  0
LINE
  5
11A
100
AcDbEntity
  8
1
100
AcDbLine
 10
-554.038414
 20
-614.346106
 30
0.0
 11
-506.038414
 21
-614.346106
 31
0.0
  0
ARC
  5
11B
100
AcDbEntity
  8
1
100
AcDbCircle
 10
-506.038414
 20
-611.346106
 30
0.0
 40
3.0
100
AcDbArc
 50
270.0
 51
360.0
  0
ARC
  5
11C
100
AcDbEntity
  8
1
100
AcDbCircle
 10
-554.038414
 20
-611.346106
 30
0.0
 40
3.0
100
AcDbArc
 50
180.0
 51
270.0
  0
ARC
  5
11D
100
AcDbEntity
  8
1
100
AcDbCircle
 10
-530.038414
 20
-376.346106
 30
0.0
 40
228.5
100
AcDbArc
 50
259.512272
 51
261.183196
  0
ARC
  5
11E
100
AcDbEntity
  8
1
100
AcDbCircle
 10
-530.038414
 20
-376.346106
 30
0.0
 40
228.5
100
AcDbArc
 50
278.816804
 51
280.487728
  0
LINE
  5
11F
100
AcDbEntity
  8
1
100
AcDbLine
 10
-488.053629
 20
-587.417872
 30
0.0
 11
-486.049439
 21
-597.493613
 31
0.0
  0
LINE
  5
120
100
AcDbEntity
  8
1
100
AcDbLine
 10
-572.023198
 20
-587.417872
 30
0.0
 11
-574.027388
 21
-597.493613
 31
0.0
  0
ARC
  5
121
100
AcDbEntity
  8
1
100
AcDbCircle
 10
-571.085032
 20
-598.078884
 30
0.0
 40
3.0
100
AcDbArc
 50
168.75
 51
259.512272
  0
ARC
  5
122
100
AcDbEntity
  8
1
100
AcDbCircle
 10
-488.991795
 20
-598.078884
 30
0.0
 40
3.0
100
AcDbArc
 50
280.487728
 51
11.25
  0
ARC
  5
123
100
AcDbEntity
  8
1
100
AcDbCircle
 10
-493.038414
 20
-604.870175
 30
0.0
 40
3.0
100
AcDbArc
 50
99.196867
 51
180.0
  0
ARC
  5
124
100
AcDbEntity
  8
1
100
AcDbCircle
 10
-567.038414
 20
-604.870175
 30
0.0
 40
3.0
100
AcDbArc
 50
0.0
 51
80.803133
  0
ARC
  5
125
100
AcDbEntity
  8
1
100
AcDbCircle
 10
-494.555099
 20
-605.110579
 30
0.0
 40
3.0
100
AcDbArc
 50
98.816804
 51
180.0
  0
ARC
  5
126
100
AcDbEntity
  8
1
100
AcDbCircle
 10
-565.521728
 20
-605.110579
 30
0.0
 40
3.0
100
AcDbArc
 50
0.0
 51
81.183196
  0
ARC
  5
127
100
AcDbEntity
  8
1
100
AcDbCircle
 10
-500.555099
 20
-592.346106
 30
0.0
 40
3.0
100
AcDbArc
 50
0.0
 51
85.059901
  0
ARC
  5
128
100
AcDbEntity
  8
1
100
AcDbCircle
 10
-559.521728
 20
-592.346106
 30
0.0
 40
3.0
100
AcDbArc
 50
94.940099
 51
180.0
  0
ARC
  5
129
100
AcDbEntity
  8
1
100
AcDbCircle
 10
-500.038414
 20
-586.368394
 30
0.0
 40
3.0
100
AcDbArc
 50
180.0
 51
265.059901
  0
ARC
  5
12A
100
AcDbEntity
  8
1
100
AcDbCircle
 10
-560.038414
 20
-586.368394
 30
0.0
 40
3.0
100
AcDbArc
 50
274.940099
 51
360.0
  0
ARC
  5
12B
100
AcDbEntity
  8
1
100
AcDbCircle
 10
-491.020349
 20
-572.503162
 30
0.0
 40
12.5
100
AcDbArc
 50
100.53948
 51
270.090063
  0
ARC
  5
12C
100
AcDbEntity
  8
1
100
AcDbCircle
 10
-569.056478
 20
-572.503162
 30
0.0
 40
12.5
100
AcDbArc
 50
269.909937
 51
79.46052
  0
ARC
  5
12D
100
AcDbEntity
  8
1
100
AcDbCircle
 10
-490.995985
 20
-588.003143
 30
0.0
 40
3.0
100
AcDbArc
 50
11.25
 51
90.090063
  0
ARC
  5
12E
100
AcDbEntity
  8
1
100
AcDbCircle
 10
-569.080842
 20
-588.003143
 30
0.0
 40
3.0
100
AcDbArc
 50
89.909937
 51
168.75
  0
ARC
  5
12F
100
AcDbEntity
  8
1
100
AcDbCircle
 10
-506.038414
 20
-576.338229
 30
0.0
 40
3.0
100
AcDbArc
 50
0.0
 51
14.325112
  0
ARC
  5
130
100
AcDbEntity
  8
1
100
AcDbCircle
 10
-554.038414
 20
-576.338229
 30
0.0
 40
3.0
100
AcDbArc
 50
165.674888
 51
180.0
  0
ARC
  5
131
100
AcDbEntity
  8
1
100
AcDbCircle
 10
-494.038414
 20
-556.281532
 30
0.0
 40
4.0
100
AcDbArc
 50
280.53948
 51
342.401297
  0
ARC
  5
132
100
AcDbEntity
  8
1
100
AcDbCircle
 10
-566.038414
 20
-556.281532
 30
0.0
 40
4.0
100
AcDbArc
 50
197.598703
 51
259.46052
  0
LINE
  5
133
100
AcDbEntity
  8
1
100
AcDbLine
 10
-564.038414
 20
-618.146106
 30
0.0
 11
-496.038414
 21
-618.146106
 31
0.0
  0
LINE
  5
134
100
AcDbEntity
  8
1
100
AcDbLine
 10
-564.038414
 20
-621.146106
 30
0.0
 11
-496.038414
 21
-621.146106
 31
0.0
  0
ARC
  5
135
100
AcDbEntity
  8
1
100
AcDbCircle
 10
146.961586
 20
-77.346106
 30
0.0
 40
3.0
100
AcDbArc
 50
270.0
 51
360.0
  0
ARC
  5
136
100
AcDbEntity
  8
1
100
AcDbCircle
 10
27.961586
 20
-77.346106
 30
0.0
 40
3.0
100
AcDbArc
 50
180.0
 51
270.0
  0
ARC
  5
137
100
AcDbEntity
  8
1
100
AcDbCircle
 10
30.461586
 20
-110.346106
 30
0.0
 40
30.0
100
AcDbArc
 50
0.0
 51
90.0
  0
ARC
  5
138
100
AcDbEntity
  8
1
100
AcDbCircle
 10
144.461586
 20
-110.346106
 30
0.0
 40
30.0
100
AcDbArc
 50
90.0
 51
180.0
  0
ARC
  5
139
100
AcDbEntity
  8
1
100
AcDbCircle
 10
128.461586
 20
-94.346106
 30
0.0
 40
14.0
100
AcDbArc
 50
90.0
 51
180.0
  0
ARC
  5
13A
100
AcDbEntity
  8
1
100
AcDbCircle
 10
46.461586
 20
-94.346106
 30
0.0
 40
14.0
100
AcDbArc
 50
0.0
 51
90.0
  0
LINE
  5
13B
100
AcDbEntity
  8
1
100
AcDbLine
 10
91.461586
 20
-110.346106
 30
0.0
 11
83.461586
 21
-110.346106
 31
0.0
  0
LINE
  5
13C
100
AcDbEntity
  8
1
100
AcDbLine
 10
83.461586
 20
-86.346106
 30
0.0
 11
83.461586
 21
-104.346106
 31
0.0
  0
LINE
  5
13D
100
AcDbEntity
  8
1
100
AcDbLine
 10
91.461586
 20
-86.346106
 30
0.0
 11
91.461586
 21
-104.346106
 31
0.0
  0
ARC
  5
13E
100
AcDbEntity
  8
1
100
AcDbCircle
 10
97.461586
 20
-86.346106
 30
0.0
 40
6.0
100
AcDbArc
 50
90.0
 51
180.0
  0
ARC
  5
13F
100
AcDbEntity
  8
1
100
AcDbCircle
 10
77.461586
 20
-86.346106
 30
0.0
 40
6.0
100
AcDbArc
 50
360.0
 51
90.0
  0
ARC
  5
140
100
AcDbEntity
  8
1
100
AcDbCircle
 10
77.461586
 20
-104.346106
 30
0.0
 40
6.0
100
AcDbArc
 50
270.0
 51
360.0
  0
ARC
  5
141
100
AcDbEntity
  8
1
100
AcDbCircle
 10
97.461586
 20
-104.346106
 30
0.0
 40
6.0
100
AcDbArc
 50
180.0
 51
270.0
  0
LINE
  5
142
100
AcDbEntity
  8
1
100
AcDbLine
 10
48.461586
 20
-558.846106
 30
0.0
 11
48.461586
 21
-193.846106
 31
0.0
  0
LINE
  5
143
100
AcDbEntity
  8
1
100
AcDbLine
 10
126.461586
 20
-558.846106
 30
0.0
 11
126.461586
 21
-193.846106
 31
0.0
  0
LINE
  5
144
100
AcDbEntity
  8
1
100
AcDbLine
 10
49.461586
 20
-192.846106
 30
0.0
 11
48.461586
 21
-193.846106
 31
0.0
  0
LINE
  5
145
100
AcDbEntity
  8
1
100
AcDbLine
 10
125.461586
 20
-192.846106
 30
0.0
 11
126.461586
 21
-193.846106
 31
0.0
  0
LINE
  5
146
100
AcDbEntity
  8
1
100
AcDbLine
 10
126.461586
 20
-558.846106
 30
0.0
 11
125.461586
 21
-559.846106
 31
0.0
  0
LINE
  5
147
100
AcDbEntity
  8
1
100
AcDbLine
 10
48.461586
 20
-558.846106
 30
0.0
 11
49.461586
 21
-559.846106
 31
0.0
  0
LINE
  5
148
100
AcDbEntity
  8
1
100
AcDbLine
 10
125.461586
 20
-192.846106
 30
0.0
 11
125.461586
 21
-559.846106
 31
0.0
  0
LINE
  5
149
100
AcDbEntity
  8
1
100
AcDbLine
 10
49.461586
 20
-192.846106
 30
0.0
 11
49.461586
 21
-559.846106
 31
0.0
  0
ARC
  5
14A
100
AcDbEntity
  8
1
100
AcDbCircle
 10
124.461586
 20
-182.846106
 30
0.0
 40
10.0
100
AcDbArc
 50
180.0
 51
270.0
  0
ARC
  5
14B
100
AcDbEntity
  8
1
100
AcDbCircle
 10
50.461586
 20
-182.846106
 30
0.0
 40
10.0
100
AcDbArc
 50
270.0
 51
0.0
  0
LINE
  5
14C
100
AcDbEntity
  8
1
100
AcDbLine
 10
61.011471
 20
-192.478164
 30
0.0
 11
113.911702
 21
-192.478164
 31
0.0
  0
LINE
  5
14D
100
AcDbEntity
  8
1
100
AcDbLine
 10
49.461586
 20
-192.846106
 30
0.0
 11
50.461586
 21
-192.846106
 31
0.0
  0
LINE
  5
14E
100
AcDbEntity
  8
1
100
AcDbLine
 10
124.461586
 20
-192.846106
 30
0.0
 11
125.461586
 21
-192.846106
 31
0.0
  0
LINE
  5
14F
100
AcDbEntity
  8
1
100
AcDbLine
 10
60.461586
 20
-176.75159
 30
0.0
 11
114.461586
 21
-176.75159
 31
0.0
  0
LINE
  5
150
100
AcDbEntity
  8
1
100
AcDbLine
 10
82.461586
 20
-140.733606
 30
0.0
 11
92.461586
 21
-140.733606
 31
0.0
  0
LINE
  5
151
100
AcDbEntity
  8
1
100
AcDbLine
 10
82.461586
 20
-170.75159
 30
0.0
 11
82.461586
 21
-146.733606
 31
0.0
  0
LINE
  5
152
100
AcDbEntity
  8
1
100
AcDbLine
 10
92.461586
 20
-170.75159
 30
0.0
 11
92.461586
 21
-146.733606
 31
0.0
  0
ARC
  5
153
100
AcDbEntity
  8
1
100
AcDbCircle
 10
98.461586
 20
-146.733606
 30
0.0
 40
6.0
100
AcDbArc
 50
90.0
 51
180.0
  0
ARC
  5
154
100
AcDbEntity
  8
1
100
AcDbCircle
 10
76.461586
 20
-146.733606
 30
0.0
 40
6.0
100
AcDbArc
 50
0.0
 51
90.0
  0
ARC
  5
155
100
AcDbEntity
  8
1
100
AcDbCircle
 10
76.461586
 20
-170.75159
 30
0.0
 40
6.0
100
AcDbArc
 50
270.0
 51
360.0
  0
ARC
  5
156
100
AcDbEntity
  8
1
100
AcDbCircle
 10
98.461586
 20
-170.75159
 30
0.0
 40
6.0
100
AcDbArc
 50
180.0
 51
270.0
  0
LINE
  5
157
100
AcDbEntity
  8
1
100
AcDbLine
 10
85.461586
 20
-151.663445
 30
0.0
 11
89.461586
 21
-151.663445
 31
0.0
  0
LINE
  5
158
100
AcDbEntity
  8
1
100
AcDbLine
 10
85.461586
 20
-167.689069
 30
0.0
 11
89.461586
 21
-167.689069
 31
0.0
  0
ARC
  5
159
100
AcDbEntity
  8
1
100
AcDbCircle
 10
89.461586
 20
-154.663445
 30
0.0
 40
3.0
100
AcDbArc
 50
0.0
 51
90.0
  0
ARC
  5
15A
100
AcDbEntity
  8
1
100
AcDbCircle
 10
85.461586
 20
-154.663445
 30
0.0
 40
3.0
100
AcDbArc
 50
90.0
 51
180.0
  0
ARC
  5
15B
100
AcDbEntity
  8
1
100
AcDbCircle
 10
85.461586
 20
-164.689069
 30
0.0
 40
3.0
100
AcDbArc
 50
180.0
 51
270.0
  0
ARC
  5
15C
100
AcDbEntity
  8
1
100
AcDbCircle
 10
89.461586
 20
-164.689069
 30
0.0
 40
3.0
100
AcDbArc
 50
270.0
 51
360.0
  0
LINE
  5
15D
100
AcDbEntity
  8
1
100
AcDbLine
 10
64.461586
 20
-617.346106
 30
0.0
 11
110.461586
 21
-617.346106
 31
0.0
  0
LINE
  5
15E
100
AcDbEntity
  8
1
100
AcDbLine
 10
57.461586
 20
-611.346106
 30
0.0
 11
57.461586
 21
-560.810095
 31
0.0
  0
LINE
  5
15F
100
AcDbEntity
  8
1
100
AcDbLine
 10
117.461586
 20
-611.346106
 30
0.0
 11
117.461586
 21
-560.810095
 31
0.0
  0
ARC
  5
160
100
AcDbEntity
  8
1
100
AcDbCircle
 10
113.461586
 20
-617.346106
 30
0.0
 40
3.0
100
AcDbArc
 50
90.0
 51
180.0
  0
ARC
  5
161
100
AcDbEntity
  8
1
100
AcDbCircle
 10
61.461586
 20
-617.346106
 30
0.0
 40
3.0
100
AcDbArc
 50
0.0
 51
90.0
  0
ARC
  5
162
100
AcDbEntity
  8
1
100
AcDbCircle
 10
114.461586
 20
-611.346106
 30
0.0
 40
3.0
100
AcDbArc
 50
270.0
 51
360.0
  0
ARC
  5
163
100
AcDbEntity
  8
1
100
AcDbCircle
 10
60.461586
 20
-611.346106
 30
0.0
 40
3.0
100
AcDbArc
 50
180.0
 51
270.0
  0
ARC
  5
164
100
AcDbEntity
  8
1
100
AcDbCircle
 10
123.461586
 20
-565.846106
 30
0.0
 40
6.0
100
AcDbArc
 50
90.0
 51
180.0
  0
ARC
  5
165
100
AcDbEntity
  8
1
100
AcDbCircle
 10
51.461586
 20
-565.846106
 30
0.0
 40
6.0
100
AcDbArc
 50
0.0
 51
90.0
  0
LINE
  5
166
100
AcDbEntity
  8
1
100
AcDbLine
 10
49.461586
 20
-559.846106
 30
0.0
 11
51.461586
 21
-559.846106
 31
0.0
  0
LINE
  5
167
100
AcDbEntity
  8
1
100
AcDbLine
 10
123.461586
 20
-559.846106
 30
0.0
 11
125.461586
 21
-559.846106
 31
0.0
  0
LINE
  5
168
100
AcDbEntity
  8
1
100
AcDbLine
 10
57.461586
 20
-575.940621
 30
0.0
 11
117.461586
 21
-575.940621
 31
0.0
  0
ARC
  5
169
100
AcDbEntity
  8
1
100
AcDbCircle
 10
-486.412833
 20
-558.700318
 30
0.0
 40
4.0
100
AcDbArc
 50
103.454303
 51
162.401297
  0
ARC
  5
16A
100
AcDbEntity
  8
1
100
AcDbCircle
 10
-573.663994
 20
-558.700318
 30
0.0
 40
4.0
100
AcDbArc
 50
17.598703
 51
76.545697
  0
ARC
  5
16B
100
AcDbEntity
  8
1
100
AcDbCircle
 10
-486.412833
 20
-193.991893
 30
0.0
 40
4.0
100
AcDbArc
 50
197.598703
 51
256.545697
  0
ARC
  5
16C
100
AcDbEntity
  8
1
100
AcDbCircle
 10
-573.663994
 20
-193.991893
 30
0.0
 40
4.0
100
AcDbArc
 50
283.454303
 51
342.401297
  0
LINE
  5
16D
100
AcDbEntity
  8
1
100
AcDbLine
 10
82.461586
 20
-599.110579
 30
0.0
 11
82.461586
 21
-581.940621
 31
0.0
  0
LINE
  5
16E
100
AcDbEntity
  8
1
100
AcDbLine
 10
92.461586
 20
-599.110579
 30
0.0
 11
92.461586
 21
-581.940621
 31
0.0
  0
ARC
  5
16F
100
AcDbEntity
  8
1
100
AcDbCircle
 10
98.461586
 20
-581.940621
 30
0.0
 40
6.0
100
AcDbArc
 50
90.0
 51
180.0
  0
ARC
  5
170
100
AcDbEntity
  8
1
100
AcDbCircle
 10
76.461586
 20
-581.940621
 30
0.0
 40
6.0
100
AcDbArc
 50
0.0
 51
90.0
  0
LINE
  5
171
100
AcDbEntity
  8
1
100
AcDbLine
 10
82.461586
 20
-605.110579
 30
0.0
 11
92.461586
 21
-605.110579
 31
0.0
  0
ARC
  5
172
100
AcDbEntity
  8
1
100
AcDbCircle
 10
98.461586
 20
-599.110579
 30
0.0
 40
6.0
100
AcDbArc
 50
180.0
 51
255.633409
  0
ARC
  5
173
100
AcDbEntity
  8
1
100
AcDbCircle
 10
76.461586
 20
-599.110579
 30
0.0
 40
6.0
100
AcDbArc
 50
284.366591
 51
360.0
  0
LINE
  5
174
100
AcDbEntity
  8
1
100
AcDbLine
 10
85.461586
 20
-585.003146
 30
0.0
 11
89.461586
 21
-585.003146
 31
0.0
  0
LINE
  5
175
100
AcDbEntity
  8
1
100
AcDbLine
 10
85.461586
 20
-601.028766
 30
0.0
 11
89.461586
 21
-601.028766
 31
0.0
  0
ARC
  5
176
100
AcDbEntity
  8
1
100
AcDbCircle
 10
89.461586
 20
-588.003146
 30
0.0
 40
3.0
100
AcDbArc
 50
0.0
 51
90.0
  0
ARC
  5
177
100
AcDbEntity
  8
1
100
AcDbCircle
 10
85.461586
 20
-588.003146
 30
0.0
 40
3.0
100
AcDbArc
 50
90.0
 51
180.0
  0
ARC
  5
178
100
AcDbEntity
  8
1
100
AcDbCircle
 10
85.461586
 20
-598.028766
 30
0.0
 40
3.0
100
AcDbArc
 50
180.0
 51
270.0
  0
ARC
  5
179
100
AcDbEntity
  8
1
100
AcDbCircle
 10
89.461586
 20
-598.028766
 30
0.0
 40
3.0
100
AcDbArc
 50
270.0
 51
360.0
  0
LINE
  5
17A
100
AcDbEntity
  8
1
100
AcDbLine
 10
96.972836
 20
-611.346106
 30
0.0
 11
96.972836
 21
-592.346106
 31
0.0
  0
LINE
  5
17B
100
AcDbEntity
  8
1
100
AcDbLine
 10
77.950337
 20
-611.346106
 30
0.0
 11
77.950337
 21
-592.346106
 31
0.0
  0
LINE
  5
17C
100
AcDbEntity
  8
1
100
AcDbLine
 10
60.461586
 20
-614.346106
 30
0.0
 11
74.950337
 21
-614.346106
 31
0.0
  0
LINE
  5
17D
100
AcDbEntity
  8
1
100
AcDbLine
 10
99.972836
 20
-614.346106
 30
0.0
 11
114.461586
 21
-614.346106
 31
0.0
  0
ARC
  5
17E
100
AcDbEntity
  8
1
100
AcDbCircle
 10
99.972836
 20
-611.346106
 30
0.0
 40
3.0
100
AcDbArc
 50
180.0
 51
270.0
  0
ARC
  5
17F
100
AcDbEntity
  8
1
100
AcDbCircle
 10
74.950337
 20
-611.346106
 30
0.0
 40
3.0
100
AcDbArc
 50
270.0
 51
0.0
  0
ARC
  5
180
100
AcDbEntity
  8
1
100
AcDbCircle
 10
93.972836
 20
-592.346106
 30
0.0
 40
3.0
100
AcDbArc
 50
0.0
 51
75.633409
  0
ARC
  5
181
100
AcDbEntity
  8
1
100
AcDbCircle
 10
80.950337
 20
-592.346106
 30
0.0
 40
3.0
100
AcDbArc
 50
104.366591
 51
180.0
  0
ARC
  5
182
100
AcDbEntity
  8
1
100
AcDbCircle
 10
95.461586
 20
-586.533738
 30
0.0
 40
3.0
100
AcDbArc
 50
180.0
 51
255.633409
  0
ARC
  5
183
100
AcDbEntity
  8
1
100
AcDbCircle
 10
79.461586
 20
-586.533738
 30
0.0
 40
3.0
100
AcDbArc
 50
284.366591
 51
360.0
  0
LINE
  5
184
100
AcDbEntity
  8
1
100
AcDbLine
 10
74.461586
 20
-246.346106
 30
0.0
 11
100.461586
 21
-246.346106
 31
0.0
  0
LINE
  5
185
100
AcDbEntity
  8
1
100
AcDbLine
 10
74.461586
 20
-251.346106
 30
0.0
 11
100.461586
 21
-251.346106
 31
0.0
  0
LINE
  5
186
100
AcDbEntity
  8
1
100
AcDbLine
 10
74.461586
 20
-333.346106
 30
0.0
 11
100.461586
 21
-333.346106
 31
0.0
  0
LINE
  5
187
100
AcDbEntity
  8
1
100
AcDbLine
 10
74.461586
 20
-338.346106
 30
0.0
 11
100.461586
 21
-338.346106
 31
0.0
  0
LINE
  5
188
100
AcDbEntity
  8
1
100
AcDbLine
 10
74.461586
 20
-414.346106
 30
0.0
 11
100.461586
 21
-414.346106
 31
0.0
  0
LINE
  5
189
100
AcDbEntity
  8
1
100
AcDbLine
 10
74.461586
 20
-419.346106
 30
0.0
 11
100.461586
 21
-419.346106
 31
0.0
  0
LINE
  5
18A
100
AcDbEntity
  8
1
100
AcDbLine
 10
74.461586
 20
-501.346106
 30
0.0
 11
100.461586
 21
-501.346106
 31
0.0
  0
LINE
  5
18B
100
AcDbEntity
  8
1
100
AcDbLine
 10
74.461586
 20
-506.346106
 30
0.0
 11
100.461586
 21
-506.346106
 31
0.0
  0
LINE
  5
18C
100
AcDbEntity
  8
1
100
AcDbLine
 10
106.461586
 20
-240.346106
 30
0.0
 11
106.461586
 21
-203.882117
 31
0.0
  0
LINE
  5
18D
100
AcDbEntity
  8
1
100
AcDbLine
 10
68.461586
 20
-240.346106
 30
0.0
 11
68.461586
 21
-203.882117
 31
0.0
  0
LINE
  5
18E
100
AcDbEntity
  8
1
100
AcDbLine
 10
68.461586
 20
-327.346106
 30
0.0
 11
68.461586
 21
-257.346106
 31
0.0
  0
LINE
  5
18F
100
AcDbEntity
  8
1
100
AcDbLine
 10
106.461586
 20
-327.346106
 30
0.0
 11
106.461586
 21
-257.346106
 31
0.0
  0
LINE
  5
190
100
AcDbEntity
  8
1
100
AcDbLine
 10
106.461586
 20
-408.346106
 30
0.0
 11
106.461586
 21
-344.346106
 31
0.0
  0
LINE
  5
191
100
AcDbEntity
  8
1
100
AcDbLine
 10
68.461586
 20
-408.346106
 30
0.0
 11
68.461586
 21
-344.346106
 31
0.0
  0
LINE
  5
192
100
AcDbEntity
  8
1
100
AcDbLine
 10
68.461586
 20
-548.810095
 30
0.0
 11
68.461586
 21
-512.346106
 31
0.0
  0
LINE
  5
193
100
AcDbEntity
  8
1
100
AcDbLine
 10
68.461586
 20
-495.346106
 30
0.0
 11
68.461586
 21
-425.346106
 31
0.0
  0
LINE
  5
194
100
AcDbEntity
  8
1
100
AcDbLine
 10
106.461586
 20
-548.810095
 30
0.0
 11
106.461586
 21
-512.346106
 31
0.0
  0
LINE
  5
195
100
AcDbEntity
  8
1
100
AcDbLine
 10
106.461586
 20
-495.346106
 30
0.0
 11
106.461586
 21
-425.346106
 31
0.0
  0
ARC
  5
196
100
AcDbEntity
  8
1
100
AcDbCircle
 10
100.461586
 20
-327.346106
 30
0.0
 40
6.0
100
AcDbArc
 50
270.0
 51
360.0
  0
ARC
  5
197
100
AcDbEntity
  8
1
100
AcDbCircle
 10
74.461586
 20
-327.346106
 30
0.0
 40
6.0
100
AcDbArc
 50
180.0
 51
270.0
  0
ARC
  5
198
100
AcDbEntity
  8
1
100
AcDbCircle
 10
74.461586
 20
-257.346106
 30
0.0
 40
6.0
100
AcDbArc
 50
90.0
 51
180.0
  0
ARC
  5
199
100
AcDbEntity
  8
1
100
AcDbCircle
 10
100.461586
 20
-257.346106
 30
0.0
 40
6.0
100
AcDbArc
 50
0.0
 51
90.0
  0
ARC
  5
19A
100
AcDbEntity
  8
1
100
AcDbCircle
 10
100.461586
 20
-344.346106
 30
0.0
 40
6.0
100
AcDbArc
 50
0.0
 51
90.0
  0
ARC
  5
19B
100
AcDbEntity
  8
1
100
AcDbCircle
 10
74.461586
 20
-344.346106
 30
0.0
 40
6.0
100
AcDbArc
 50
90.0
 51
180.0
  0
ARC
  5
19C
100
AcDbEntity
  8
1
100
AcDbCircle
 10
74.461586
 20
-408.346106
 30
0.0
 40
6.0
100
AcDbArc
 50
180.0
 51
270.0
  0
ARC
  5
19D
100
AcDbEntity
  8
1
100
AcDbCircle
 10
100.461586
 20
-408.346106
 30
0.0
 40
6.0
100
AcDbArc
 50
270.0
 51
360.0
  0
ARC
  5
19E
100
AcDbEntity
  8
1
100
AcDbCircle
 10
100.461586
 20
-425.346106
 30
0.0
 40
6.0
100
AcDbArc
 50
0.0
 51
90.0
  0
ARC
  5
19F
100
AcDbEntity
  8
1
100
AcDbCircle
 10
74.461586
 20
-425.346106
 30
0.0
 40
6.0
100
AcDbArc
 50
90.0
 51
180.0
  0
ARC
  5
1A0
100
AcDbEntity
  8
1
100
AcDbCircle
 10
74.461586
 20
-495.346106
 30
0.0
 40
6.0
100
AcDbArc
 50
180.0
 51
270.0
  0
ARC
  5
1A1
100
AcDbEntity
  8
1
100
AcDbCircle
 10
100.461586
 20
-495.346106
 30
0.0
 40
6.0
100
AcDbArc
 50
270.0
 51
0.0
  0
ARC
  5
1A2
100
AcDbEntity
  8
1
100
AcDbCircle
 10
100.461586
 20
-512.346106
 30
0.0
 40
6.0
100
AcDbArc
 50
0.0
 51
90.0
  0
ARC
  5
1A3
100
AcDbEntity
  8
1
100
AcDbCircle
 10
74.461586
 20
-512.346106
 30
0.0
 40
6.0
100
AcDbArc
 50
90.0
 51
180.0
  0
ARC
  5
1A4
100
AcDbEntity
  8
1
100
AcDbCircle
 10
74.461586
 20
-240.346106
 30
0.0
 40
6.0
100
AcDbArc
 50
180.0
 51
270.0
  0
ARC
  5
1A5
100
AcDbEntity
  8
1
100
AcDbCircle
 10
100.461586
 20
-240.346106
 30
0.0
 40
6.0
100
AcDbArc
 50
270.0
 51
360.0
  0
ARC
  5
1A6
100
AcDbEntity
  8
1
100
AcDbCircle
 10
112.461586
 20
-203.882117
 30
0.0
 40
6.0
100
AcDbArc
 50
90.0
 51
180.0
  0
ARC
  5
1A7
100
AcDbEntity
  8
1
100
AcDbCircle
 10
62.461586
 20
-203.882117
 30
0.0
 40
6.0
100
AcDbArc
 50
0.0
 51
90.0
  0
ARC
  5
1A8
100
AcDbEntity
  8
1
100
AcDbCircle
 10
112.461586
 20
-548.810095
 30
0.0
 40
6.0
100
AcDbArc
 50
180.0
 51
270.0
  0
ARC
  5
1A9
100
AcDbEntity
  8
1
100
AcDbCircle
 10
62.461586
 20
-548.810095
 30
0.0
 40
6.0
100
AcDbArc
 50
270.0
 51
0.0
  0
LINE
  5
1AA
100
AcDbEntity
  8
1
100
AcDbLine
 10
64.461586
 20
-618.146106
 30
0.0
 11
110.461586
 21
-618.146106
 31
0.0
  0
LINE
  5
1AB
100
AcDbEntity
  8
1
100
AcDbLine
 10
64.461586
 20
-621.146106
 30
0.0
 11
110.461586
 21
-621.146106
 31
0.0
  0
LINE
  5
1AC
100
AcDbEntity
  8
1
100
AcDbLine
 10
110.461586
 20
-617.346106
 30
0.0
 11
110.461586
 21
-621.146106
 31
0.0
  0
LINE
  5
1AD
100
AcDbEntity
  8
1
100
AcDbLine
 10
64.461586
 20
-617.346106
 30
0.0
 11
64.461586
 21
-621.146106
 31
0.0
  0
CIRCLE
  5
1AE
100
AcDbEntity
  8
1
100
AcDbCircle
 10
-530.038414
 20
-376.346106
 30
0.0
 40
183.5
  0
LINE
  5
1AF
100
AcDbEntity
  8
1
100
AcDbLine
 10
-351.647691
 20
448.253894
 30
0.0
 11
-351.647691
 21
474.253894
 31
0.0
  0
LINE
  5
1B0
100
AcDbEntity
  8
1
100
AcDbLine
 10
-350.516131
 20
446.97694
 30
0.0
 11
-350.516131
 21
475.530848
 31
0.0
  0
LINE
  5
1B1
100
AcDbEntity
  8
1
  6
DASHED
100
AcDbLine
 10
-395.69836
 20
448.253894
 30
0.0
 11
-395.69836
 21
474.253894
 31
0.0
  0
LINE
  5
1B2
100
AcDbEntity
  8
1
  6
DASHED
100
AcDbLine
 10
-401.5676
 20
448.253894
 30
0.0
 11
-401.5676
 21
474.253894
 31
0.0
  0
LINE
  5
1B3
100
AcDbEntity
  8
1
  6
DASHED
100
AcDbLine
 10
-467.538414
 20
480.253894
 30
0.0
 11
-407.5676
 21
480.253894
 31
0.0
  0
LINE
  5
1B4
100
AcDbEntity
  8
1
  6
DASHED
100
AcDbLine
 10
-467.538414
 20
442.253894
 30
0.0
 11
-407.5676
 21
442.253894
 31
0.0
  0
ARC
  5
1B5
100
AcDbEntity
  8
1
  6
DASHED
100
AcDbCircle
 10
-407.5676
 20
474.253894
 30
0.0
 40
6.0
100
AcDbArc
 50
0.0
 51
90.0
  0
ARC
  5
1B6
100
AcDbEntity
  8
1
  6
DASHED
100
AcDbCircle
 10
-407.5676
 20
448.253894
 30
0.0
 40
6.0
100
AcDbArc
 50
270.0
 51
360.0
  0
ARC
  5
1B7
100
AcDbEntity
  8
1
  6
DASHED
100
AcDbCircle
 10
-389.69836
 20
448.253894
 30
0.0
 40
6.0
100
AcDbArc
 50
180.0
 51
270.0
  0
ARC
  5
1B8
100
AcDbEntity
  8
1
  6
DASHED
100
AcDbCircle
 10
-389.69836
 20
474.253894
 30
0.0
 40
6.0
100
AcDbArc
 50
90.0
 51
180.0
  0
ARC
  5
1B9
100
AcDbEntity
  8
1
100
AcDbCircle
 10
-357.647691
 20
474.253894
 30
0.0
 40
6.0
100
AcDbArc
 50
0.0
 51
90.0
  0
ARC
  5
1BA
100
AcDbEntity
  8
1
100
AcDbCircle
 10
-357.647691
 20
448.253894
 30
0.0
 40
6.0
100
AcDbArc
 50
270.0
 51
360.0
  0
ARC
  5
1BB
100
AcDbEntity
  8
1
100
AcDbCircle
 10
-352.538414
 20
484.455139
 30
0.0
 40
6.0
100
AcDbArc
 50
311.953215
 51
360.0
  0
ARC
  5
1BC
100
AcDbEntity
  8
1
100
AcDbCircle
 10
-352.538414
 20
438.052649
 30
0.0
 40
6.0
100
AcDbArc
 50
0.0
 51
48.046785
  0
ARC
  5
1BD
100
AcDbEntity
  8
1
100
AcDbCircle
 10
-344.516131
 20
446.97694
 30
0.0
 40
6.0
100
AcDbArc
 50
180.0
 51
228.046785
  0
ARC
  5
1BE
100
AcDbEntity
  8
1
100
AcDbCircle
 10
-344.516131
 20
475.530848
 30
0.0
 40
6.0
100
AcDbArc
 50
131.953215
 51
180.0
  0
LINE
  5
1BF
100
AcDbEntity
  8
1
  6
DASHED
100
AcDbLine
 10
-422.052303
 20
451.732708
 30
0.0
 11
-422.052303
 21
470.775081
 31
0.0
  0
LINE
  5
1C0
100
AcDbEntity
  8
1
  6
DASHED
100
AcDbLine
 10
-467.538414
 20
474.976326
 30
0.0
 11
-426.253549
 21
474.976326
 31
0.0
  0
LINE
  5
1C1
100
AcDbEntity
  8
1
  6
DASHED
100
AcDbLine
 10
-467.538414
 20
447.531463
 30
0.0
 11
-426.253549
 21
447.531463
 31
0.0
  0
ARC
  5
1C2
100
AcDbEntity
  8
1
  6
DASHED
100
AcDbCircle
 10
-426.253549
 20
470.775081
 30
0.0
 40
4.201245
100
AcDbArc
 50
0.0
 51
90.0
  0
ARC
  5
1C3
100
AcDbEntity
  8
1
  6
DASHED
100
AcDbCircle
 10
-426.253549
 20
451.732708
 30
0.0
 40
4.201245
100
AcDbArc
 50
270.0
 51
0.0
  0
LINE
  5
1C4
100
AcDbEntity
  8
1
100
AcDbLine
 10
-366.600352
 20
451.732708
 30
0.0
 11
-366.600352
 21
470.775081
 31
0.0
  0
ARC
  5
1C5
100
AcDbEntity
  8
1
100
AcDbCircle
 10
-370.801597
 20
470.775081
 30
0.0
 40
4.201245
100
AcDbArc
 50
0.0
 51
90.0
  0
ARC
  5
1C6
100
AcDbEntity
  8
1
100
AcDbCircle
 10
-370.801597
 20
451.732708
 30
0.0
 40
4.201245
100
AcDbArc
 50
270.0
 51
360.0
  0
LINE
  5
1C7
100
AcDbEntity
  8
1
  6
DASHED
100
AcDbLine
 10
-708.429136
 20
448.253894
 30
0.0
 11
-708.429136
 21
474.253894
 31
0.0
  0
LINE
  5
1C8
100
AcDbEntity
  8
1
  6
DASHED
100
AcDbLine
 10
-709.560696
 20
446.97694
 30
0.0
 11
-709.560696
 21
475.530848
 31
0.0
  0
LINE
  5
1C9
100
AcDbEntity
  8
1
  6
DASHED
100
AcDbLine
 10
-664.378467
 20
448.253894
 30
0.0
 11
-664.378467
 21
474.253894
 31
0.0
  0
LINE
  5
1CA
100
AcDbEntity
  8
1
  6
DASHED
100
AcDbLine
 10
-658.509227
 20
448.253894
 30
0.0
 11
-658.509227
 21
474.253894
 31
0.0
  0
LINE
  5
1CB
100
AcDbEntity
  8
1
  6
DASHED
100
AcDbLine
 10
-592.538414
 20
480.253894
 30
0.0
 11
-652.509227
 21
480.253894
 31
0.0
  0
LINE
  5
1CC
100
AcDbEntity
  8
1
  6
DASHED
100
AcDbLine
 10
-670.378467
 20
480.253894
 30
0.0
 11
-702.429136
 21
480.253894
 31
0.0
  0
LINE
  5
1CD
100
AcDbEntity
  8
1
  6
DASHED
100
AcDbLine
 10
-592.538414
 20
442.253894
 30
0.0
 11
-652.509227
 21
442.253894
 31
0.0
  0
LINE
  5
1CE
100
AcDbEntity
  8
1
  6
DASHED
100
AcDbLine
 10
-670.378467
 20
442.253894
 30
0.0
 11
-702.429136
 21
442.253894
 31
0.0
  0
ARC
  5
1CF
100
AcDbEntity
  8
1
  6
DASHED
100
AcDbCircle
 10
-652.509227
 20
474.253894
 30
0.0
 40
6.0
100
AcDbArc
 50
90.0
 51
180.0
  0
ARC
  5
1D0
100
AcDbEntity
  8
1
  6
DASHED
100
AcDbCircle
 10
-652.509227
 20
448.253894
 30
0.0
 40
6.0
100
AcDbArc
 50
180.0
 51
270.0
  0
ARC
  5
1D1
100
AcDbEntity
  8
1
  6
DASHED
100
AcDbCircle
 10
-670.378467
 20
448.253894
 30
0.0
 40
6.0
100
AcDbArc
 50
270.0
 51
360.0
  0
ARC
  5
1D2
100
AcDbEntity
  8
1
  6
DASHED
100
AcDbCircle
 10
-670.378467
 20
474.253894
 30
0.0
 40
6.0
100
AcDbArc
 50
0.0
 51
90.0
  0
ARC
  5
1D3
100
AcDbEntity
  8
1
  6
DASHED
100
AcDbCircle
 10
-702.429136
 20
474.253894
 30
0.0
 40
6.0
100
AcDbArc
 50
90.0
 51
180.0
  0
ARC
  5
1D4
100
AcDbEntity
  8
1
  6
DASHED
100
AcDbCircle
 10
-702.429136
 20
448.253894
 30
0.0
 40
6.0
100
AcDbArc
 50
180.0
 51
270.0
  0
ARC
  5
1D5
100
AcDbEntity
  8
1
  6
DASHED
100
AcDbCircle
 10
-707.538414
 20
484.455139
 30
0.0
 40
6.0
100
AcDbArc
 50
180.0
 51
228.046785
  0
ARC
  5
1D6
100
AcDbEntity
  8
1
  6
DASHED
100
AcDbCircle
 10
-707.538414
 20
438.052649
 30
0.0
 40
6.0
100
AcDbArc
 50
131.953215
 51
180.0
  0
ARC
  5
1D7
100
AcDbEntity
  8
1
  6
DASHED
100
AcDbCircle
 10
-715.560696
 20
446.97694
 30
0.0
 40
6.0
100
AcDbArc
 50
311.953215
 51
360.0
  0
ARC
  5
1D8
100
AcDbEntity
  8
1
  6
DASHED
100
AcDbCircle
 10
-715.560696
 20
475.530848
 30
0.0
 40
6.0
100
AcDbArc
 50
0.0
 51
48.046785
  0
LINE
  5
1D9
100
AcDbEntity
  8
1
  6
DASHED
100
AcDbLine
 10
-638.024524
 20
451.732708
 30
0.0
 11
-638.024524
 21
470.775081
 31
0.0
  0
LINE
  5
1DA
100
AcDbEntity
  8
1
  6
DASHED
100
AcDbLine
 10
-592.538414
 20
474.976326
 30
0.0
 11
-633.823279
 21
474.976326
 31
0.0
  0
LINE
  5
1DB
100
AcDbEntity
  8
1
  6
DASHED
100
AcDbLine
 10
-664.422118
 20
474.976326
 30
0.0
 11
-689.27523
 21
474.976326
 31
0.0
  0
LINE
  5
1DC
100
AcDbEntity
  8
1
  6
DASHED
100
AcDbLine
 10
-592.538414
 20
447.531463
 30
0.0
 11
-633.823279
 21
447.531463
 31
0.0
  0
LINE
  5
1DD
100
AcDbEntity
  8
1
  6
DASHED
100
AcDbLine
 10
-664.422118
 20
447.531463
 30
0.0
 11
-689.27523
 21
447.531463
 31
0.0
  0
ARC
  5
1DE
100
AcDbEntity
  8
1
  6
DASHED
100
AcDbCircle
 10
-633.823279
 20
470.775081
 30
0.0
 40
4.201245
100
AcDbArc
 50
90.0
 51
180.0
  0
ARC
  5
1DF
100
AcDbEntity
  8
1
  6
DASHED
100
AcDbCircle
 10
-633.823279
 20
451.732708
 30
0.0
 40
4.201245
100
AcDbArc
 50
180.0
 51
270.0
  0
LINE
  5
1E0
100
AcDbEntity
  8
1
  6
DASHED
100
AcDbLine
 10
-693.476475
 20
451.732708
 30
0.0
 11
-693.476475
 21
470.775081
 31
0.0
  0
ARC
  5
1E1
100
AcDbEntity
  8
1
  6
DASHED
100
AcDbCircle
 10
-689.27523
 20
470.775081
 30
0.0
 40
4.201245
100
AcDbArc
 50
90.0
 51
180.0
  0
ARC
  5
1E2
100
AcDbEntity
  8
1
  6
DASHED
100
AcDbCircle
 10
-689.27523
 20
451.732708
 30
0.0
 40
4.201245
100
AcDbArc
 50
180.0
 51
270.0
  0
CIRCLE
  5
1E3
100
AcDbEntity
  8
1
100
AcDbCircle
 10
-530.038414
 20
-376.346106
 30
0.0
 40
157.0
  0
CIRCLE
  5
1E4
100
AcDbEntity
  8
1
100
AcDbCircle
 10
-530.038414
 20
-376.346106
 30
0.0
 40
151.0
  0
LINE
  5
1E5
100
AcDbEntity
  8
1
  6
DASHED
100
AcDbLine
 10
-469.42694
 20
502.253894
 30
0.0
 11
-386.038414
 21
502.253894
 31
0.0
  0
LINE
  5
1E6
100
AcDbEntity
  8
1
100
AcDbLine
 10
-386.038414
 20
502.253894
 30
0.0
 11
-356.569542
 21
502.253894
 31
0.0
  0
LINE
  5
1E7
100
AcDbEntity
  8
1
  6
DASHED
100
AcDbLine
 10
-468.784762
 20
500.253894
 30
0.0
 11
-386.038414
 21
500.253894
 31
0.0
  0
LINE
  5
1E8
100
AcDbEntity
  8
1
100
AcDbLine
 10
-386.038414
 20
500.253894
 30
0.0
 11
-347.538414
 21
500.253894
 31
0.0
  0
LINE
  5
1E9
100
AcDbEntity
  8
1
  6
DASHED
100
AcDbLine
 10
-468.516288
 20
499.253894
 30
0.0
 11
-386.038414
 21
499.253894
 31
0.0
  0
LINE
  5
1EA
100
AcDbEntity
  8
1
100
AcDbLine
 10
-386.038414
 20
499.253894
 30
0.0
 11
-346.538414
 21
499.253894
 31
0.0
  0
LINE
  5
1EB
100
AcDbEntity
  8
1
  6
DASHED
100
AcDbLine
 10
-389.69836
 20
480.253894
 30
0.0
 11
-386.038414
 21
480.253894
 31
0.0
  0
LINE
  5
1EC
100
AcDbEntity
  8
1
100
AcDbLine
 10
-386.038414
 20
480.253894
 30
0.0
 11
-357.647691
 21
480.253894
 31
0.0
  0
LINE
  5
1ED
100
AcDbEntity
  8
1
  6
DASHED
100
AcDbLine
 10
-395.654709
 20
474.976326
 30
0.0
 11
-386.038414
 21
474.976326
 31
0.0
  0
LINE
  5
1EE
100
AcDbEntity
  8
1
100
AcDbLine
 10
-386.038414
 20
474.976326
 30
0.0
 11
-370.801597
 21
474.976326
 31
0.0
  0
LINE
  5
1EF
100
AcDbEntity
  8
1
  6
DASHED
100
AcDbLine
 10
-395.654709
 20
447.531463
 30
0.0
 11
-386.038414
 21
447.531463
 31
0.0
  0
LINE
  5
1F0
100
AcDbEntity
  8
1
100
AcDbLine
 10
-386.038414
 20
447.531463
 30
0.0
 11
-370.801597
 21
447.531463
 31
0.0
  0
LINE
  5
1F1
100
AcDbEntity
  8
1
  6
DASHED
100
AcDbLine
 10
-389.69836
 20
442.253894
 30
0.0
 11
-386.038414
 21
442.253894
 31
0.0
  0
LINE
  5
1F2
100
AcDbEntity
  8
1
100
AcDbLine
 10
-386.038414
 20
442.253894
 30
0.0
 11
-357.647691
 21
442.253894
 31
0.0
  0
LINE
  5
1F3
100
AcDbEntity
  8
1
  6
DASHED
100
AcDbLine
 10
-468.516288
 20
423.253894
 30
0.0
 11
-386.038414
 21
423.253894
 31
0.0
  0
LINE
  5
1F4
100
AcDbEntity
  8
1
100
AcDbLine
 10
-386.038414
 20
423.253894
 30
0.0
 11
-346.538414
 21
423.253894
 31
0.0
  0
LINE
  5
1F5
100
AcDbEntity
  8
1
  6
DASHED
100
AcDbLine
 10
-468.784762
 20
422.253894
 30
0.0
 11
-386.038414
 21
422.253894
 31
0.0
  0
LINE
  5
1F6
100
AcDbEntity
  8
1
100
AcDbLine
 10
-386.038414
 20
422.253894
 30
0.0
 11
-347.538414
 21
422.253894
 31
0.0
  0
LINE
  5
1F7
100
AcDbEntity
  8
1
  6
DASHED
100
AcDbLine
 10
-469.42694
 20
420.253894
 30
0.0
 11
-386.038414
 21
420.253894
 31
0.0
  0
LINE
  5
1F8
100
AcDbEntity
  8
1
100
AcDbLine
 10
-386.038414
 20
420.253894
 30
0.0
 11
-356.569542
 21
420.253894
 31
0.0
  0
LINE
  5
1F9
100
AcDbEntity
  8
1
  6
CENTER
 62
     2
100
AcDbLine
 10
-530.038414
 20
174.916665
 30
0.0
 11
-530.038414
 21
-643.098473
 31
0.0
  0
LINE
  5
1FA
100
AcDbEntity
  8
1
  6
CENTER
 62
     2
100
AcDbLine
 10
87.461586
 20
174.916665
 30
0.0
 11
87.461586
 21
-643.098473
 31
0.0
  0
ARC
  5
1FB
100
AcDbEntity
  8
1
100
AcDbCircle
 10
-530.038414
 20
-376.346106
 30
0.0
 40
148.6
100
AcDbArc
 50
120.006915
 51
180.0
  0
ARC
  5
1FC
100
AcDbEntity
  8
1
100
AcDbCircle
 10
-530.038414
 20
-381.746106
 30
0.0
 40
153.3
100
AcDbArc
 50
101.162271
 51
118.997528
  0
LINE
  5
1FD
100
AcDbEntity
  8
1
100
AcDbLine
 10
-530.038414
 20
-231.346106
 30
0.0
 11
-559.715514
 21
-231.346106
 31
0.0
  0
ARC
  5
1FE
100
AcDbEntity
  8
1
100
AcDbCircle
 10
-530.038414
 20
-376.346106
 30
0.0
 40
148.6
100
AcDbArc
 50
0.0
 51
59.993085
  0
ARC
  5
1FF
100
AcDbEntity
  8
1
100
AcDbCircle
 10
-530.038414
 20
-381.746106
 30
0.0
 40
153.3
100
AcDbArc
 50
61.002472
 51
78.837729
  0
LINE
  5
200
100
AcDbEntity
  8
1
100
AcDbLine
 10
-530.038414
 20
-231.346106
 30
0.0
 11
-500.361319
 21
-231.346106
 31
0.0
  0
LINE
  5
201
100
AcDbEntity
  8
1
100
AcDbLine
 10
-530.084282
 20
-313.866922
 30
0.0
 11
-409.992964
 21
-324.373547
 31
0.0
  0
LINE
  5
202
100
AcDbEntity
  8
1
100
AcDbLine
 10
-514.899237
 20
-302.145783
 30
0.0
 11
-414.347538
 21
-310.942913
 31
0.0
  0
LINE
  5
203
100
AcDbEntity
  8
1
100
AcDbLine
 10
-410.742975
 20
-308.7201
 30
0.0
 11
-498.810153
 21
-300.697574
 31
0.0
  0
LINE
  5
204
100
AcDbEntity
  8
1
100
AcDbLine
 10
-541.826774
 20
-315.661063
 30
0.0
 11
-404.170697
 21
-327.240256
 31
0.0
  0
ARC
  5
205
100
AcDbEntity
  8
1
100
AcDbCircle
 10
-414.521849
 20
-312.935303
 30
0.0
 40
2.0
100
AcDbArc
 50
28.763817
 51
85.000002
  0
ARC
  5
206
100
AcDbEntity
  8
1
100
AcDbCircle
 10
-530.038414
 20
-376.346106
 30
0.0
 40
133.776351
100
AcDbArc
 50
24.174636
 51
28.763817
  0
ARC
  5
207
100
AcDbEntity
  8
1
100
AcDbCircle
 10
-409.818652
 20
-322.381158
 30
0.0
 40
2.0
100
AcDbArc
 50
265.000002
 51
24.174636
  0
ARC
  5
208
100
AcDbEntity
  8
1
100
AcDbCircle
 10
-410.924414
 20
-310.711852
 30
0.0
 40
2.0
100
AcDbArc
 50
28.855665
 51
84.794977
  0
ARC
  5
209
100
AcDbEntity
  8
1
100
AcDbCircle
 10
-530.038414
 20
-376.346106
 30
0.0
 40
138.0
100
AcDbArc
 50
22.069225
 51
28.855665
  0
ARC
  5
20A
100
AcDbEntity
  8
1
100
AcDbCircle
 10
-404.003055
 20
-325.247295
 30
0.0
 40
2.0
100
AcDbArc
 50
265.191779
 51
22.069225
  0
LINE
  5
20B
100
AcDbEntity
  8
1
100
AcDbLine
 10
-413.288035
 20
-311.035608
 30
0.0
 11
-410.794956
 21
-309.497542
 31
0.0
  0
LINE
  5
20C
100
AcDbEntity
  8
1
100
AcDbLine
 10
-407.354694
 20
-324.312176
 30
0.0
 11
-403.068658
 21
-326.458159
 31
0.0
  0
ARC
  5
20D
100
AcDbEntity
  8
1
100
AcDbCircle
 10
-513.853369
 20
-290.191446
 30
0.0
 40
12.0
100
AcDbArc
 50
180.0
 51
265.000002
  0
LINE
  5
20E
100
AcDbEntity
  8
1
100
AcDbLine
 10
-541.038413
 20
-248.346106
 30
0.0
 11
-541.038413
 21
-301.912585
 31
0.0
  0
ARC
  5
20F
100
AcDbEntity
  8
1
100
AcDbCircle
 10
-529.038413
 20
-301.912585
 30
0.0
 40
12.0
100
AcDbArc
 50
180.0
 51
265.000002
  0
LINE
  5
210
100
AcDbEntity
  8
1
100
AcDbLine
 10
-552.820924
 20
-248.346106
 30
0.0
 11
-552.820924
 21
-303.703293
 31
0.0
  0
ARC
  5
211
100
AcDbEntity
  8
1
100
AcDbCircle
 10
-540.820924
 20
-303.703293
 30
0.0
 40
12.0
100
AcDbArc
 50
180.0
 51
265.191779
  0
LINE
  5
212
100
AcDbEntity
  8
1
100
AcDbLine
 10
-509.721514
 20
-248.346106
 30
0.0
 11
-509.721514
 21
-288.747057
 31
0.0
  0
ARC
  5
213
100
AcDbEntity
  8
1
100
AcDbCircle
 10
-497.721514
 20
-288.747057
 30
0.0
 40
12.0
100
AcDbArc
 50
180.0
 51
264.794977
  0
LINE
  5
214
100
AcDbEntity
  8
1
100
AcDbLine
 10
-546.953713
 20
-316.085804
 30
0.0
 11
-546.953713
 21
-364.240231
 31
0.0
  0
LINE
  5
215
100
AcDbEntity
  8
1
100
AcDbLine
 10
-537.538414
 20
-317.860616
 30
0.0
 11
-537.538414
 21
-366.329777
 31
0.0
  0
LINE
  5
216
100
AcDbEntity
  8
1
100
AcDbLine
 10
-522.538414
 20
-319.458835
 30
0.0
 11
-522.538414
 21
-366.329777
 31
0.0
  0
LINE
  5
217
100
AcDbEntity
  8
1
100
AcDbLine
 10
-513.123114
 20
-322.426117
 30
0.0
 11
-513.123114
 21
-364.240231
 31
0.0
  0
ARC
  5
218
100
AcDbEntity
  8
1
100
AcDbCircle
 10
-509.123114
 20
-322.426117
 30
0.0
 40
4.0
100
AcDbArc
 50
85.191779
 51
180.0
  0
ARC
  5
219
100
AcDbEntity
  8
1
100
AcDbCircle
 10
-550.953713
 20
-316.085804
 30
0.0
 40
4.0
100
AcDbArc
 50
0.0
 51
50.706041
  0
ARC
  5
21A
100
AcDbEntity
  8
1
100
AcDbCircle
 10
-520.538414
 20
-319.458835
 30
0.0
 40
2.0
100
AcDbArc
 50
85.191779
 51
180.0
  0
ARC
  5
21B
100
AcDbEntity
  8
1
100
AcDbCircle
 10
-539.538414
 20
-317.860616
 30
0.0
 40
2.0
100
AcDbArc
 50
0.0
 51
85.191779
  0
LINE
  5
21C
100
AcDbEntity
  8
1
100
AcDbLine
 10
-499.444826
 20
-246.346106
 30
0.0
 11
-560.456667
 21
-246.346106
 31
0.0
  0
ARC
  5
21D
100
AcDbEntity
  8
1
100
AcDbCircle
 10
-507.721514
 20
-248.346106
 30
0.0
 40
2.0
100
AcDbArc
 50
90.0
 51
180.0
  0
ARC
  5
21E
100
AcDbEntity
  8
1
100
AcDbCircle
 10
-554.820924
 20
-248.346106
 30
0.0
 40
2.0
100
AcDbArc
 50
0.0
 51
90.0
  0
ARC
  5
21F
100
AcDbEntity
  8
1
100
AcDbCircle
 10
-543.038413
 20
-248.346106
 30
0.0
 40
2.0
100
AcDbArc
 50
360.0
 51
90.0
  0
LINE
  5
220
100
AcDbEntity
  8
1
100
AcDbLine
 10
-565.440954
 20
-234.75069
 30
0.0
 11
-565.440954
 21
-244.346106
 31
0.0
  0
LINE
  5
221
100
AcDbEntity
  8
1
100
AcDbLine
 10
-554.384499
 20
-232.009902
 30
0.0
 11
-554.384499
 21
-241.783435
 31
0.0
  0
LINE
  5
222
100
AcDbEntity
  8
1
100
AcDbLine
 10
-494.635879
 20
-234.330173
 30
0.0
 11
-494.635879
 21
-244.346106
 31
0.0
  0
LINE
  5
223
100
AcDbEntity
  8
1
100
AcDbLine
 10
-505.692328
 20
-232.009902
 30
0.0
 11
-505.692328
 21
-241.783435
 31
0.0
  0
ARC
  5
224
100
AcDbEntity
  8
1
100
AcDbCircle
 10
-530.038416
 20
-393.453208
 30
0.0
 40
151.307103
100
AcDbArc
 50
76.468611
 51
103.531389
  0
ARC
  5
225
100
AcDbEntity
  8
1
100
AcDbCircle
 10
-552.384499
 20
-241.783435
 30
0.0
 40
2.0
100
AcDbArc
 50
180.0
 51
278.381307
  0
ARC
  5
226
100
AcDbEntity
  8
1
100
AcDbCircle
 10
-507.692328
 20
-241.783435
 30
0.0
 40
2.0
100
AcDbArc
 50
261.618693
 51
360.0
  0
ARC
  5
227
100
AcDbEntity
  8
1
100
AcDbCircle
 10
-530.038414
 20
-376.346106
 30
0.0
 40
148.6
100
AcDbArc
 50
300.006915
 51
360.0
  0
LINE
  5
228
100
AcDbEntity
  8
1
100
AcDbLine
 10
-539.038409
 20
-369.846106
 30
0.0
 11
-398.33892
 21
-369.846106
 31
0.0
  0
LINE
  5
229
100
AcDbEntity
  8
1
100
AcDbLine
 10
-539.038409
 20
-382.846106
 30
0.0
 11
-398.33892
 21
-382.846106
 31
0.0
  0
ARC
  5
22A
100
AcDbEntity
  8
1
100
AcDbCircle
 10
-398.33892
 20
-371.846106
 30
0.0
 40
2.0
100
AcDbArc
 50
1.956961
 51
90.0
  0
ARC
  5
22B
100
AcDbEntity
  8
1
100
AcDbCircle
 10
-530.038414
 20
-376.346106
 30
0.0
 40
133.776351
100
AcDbArc
 50
358.043039
 51
1.956961
  0
ARC
  5
22C
100
AcDbEntity
  8
1
100
AcDbCircle
 10
-398.33892
 20
-380.846106
 30
0.0
 40
2.0
100
AcDbArc
 50
270.0
 51
358.043039
  0
ARC
  5
22D
100
AcDbEntity
  8
1
100
AcDbCircle
 10
-530.038414
 20
-376.346106
 30
0.0
 40
138.0
100
AcDbArc
 50
357.05011
 51
2.95306
  0
LINE
  5
22E
100
AcDbEntity
  8
1
100
AcDbLine
 10
-525.111128
 20
-382.846106
 30
0.0
 11
-525.111128
 21
-369.846106
 31
0.0
  0
LINE
  5
22F
100
AcDbEntity
  8
1
100
AcDbLine
 10
-541.038409
 20
-380.846106
 30
0.0
 11
-541.038409
 21
-371.846106
 31
0.0
  0
LINE
  5
230
100
AcDbEntity
  8
1
100
AcDbLine
 10
-552.820913
 20
-382.450755
 30
0.0
 11
-552.820913
 21
-370.241457
 31
0.0
  0
ARC
  5
231
100
AcDbEntity
  8
1
100
AcDbCircle
 10
-539.038409
 20
-371.846106
 30
0.0
 40
2.0
100
AcDbArc
 50
90.0
 51
180.0
  0
ARC
  5
232
100
AcDbEntity
  8
1
100
AcDbCircle
 10
-539.038409
 20
-380.846106
 30
0.0
 40
2.0
100
AcDbArc
 50
180.0
 51
270.0
  0
LINE
  5
233
100
AcDbEntity
  8
1
100
AcDbLine
 10
-394.234689
 20
-367.339747
 30
0.0
 11
-530.038414
 21
-368.404309
 31
0.0
  0
ARC
  5
234
100
AcDbEntity
  8
1
100
AcDbCircle
 10
-394.219011
 20
-369.339685
 30
0.0
 40
2.0
100
AcDbArc
 50
2.95306
 51
90.449131
  0
LINE
  5
235
100
AcDbEntity
  8
1
100
AcDbLine
 10
-394.234689
 20
-385.352465
 30
0.0
 11
-530.038414
 21
-384.287903
 31
0.0
  0
ARC
  5
236
100
AcDbEntity
  8
1
100
AcDbCircle
 10
-394.219011
 20
-383.352527
 30
0.0
 40
2.0
100
AcDbArc
 50
269.550869
 51
357.04694
  0
LINE
  5
237
100
AcDbEntity
  8
1
100
AcDbLine
 10
-396.420069
 20
-369.846106
 30
0.0
 11
-393.699855
 21
-368.167795
 31
0.0
  0
LINE
  5
238
100
AcDbEntity
  8
1
100
AcDbLine
 10
-396.420069
 20
-382.846106
 30
0.0
 11
-393.699855
 21
-384.524417
 31
0.0
  0
LINE
  5
239
100
AcDbEntity
  8
1
100
AcDbLine
 10
-530.038414
 20
-368.404309
 30
0.0
 11
-550.985068
 21
-368.240108
 31
0.0
  0
LINE
  5
23A
100
AcDbEntity
  8
1
100
AcDbLine
 10
-550.805236
 20
-384.450694
 30
0.0
 11
-530.038414
 21
-384.287903
 31
0.0
  0
ARC
  5
23B
100
AcDbEntity
  8
1
100
AcDbCircle
 10
-550.820913
 20
-370.241457
 30
0.0
 40
2.0
100
AcDbArc
 50
89.550869
 51
180.0
  0
ARC
  5
23C
100
AcDbEntity
  8
1
100
AcDbCircle
 10
-550.820913
 20
-382.450755
 30
0.0
 40
2.0
100
AcDbArc
 50
180.0
 51
270.449131
  0
LINE
  5
23D
100
AcDbEntity
  8
1
100
AcDbLine
 10
-550.546355
 20
-368.538526
 30
0.0
 11
-541.038409
 21
-369.846106
 31
0.0
  0
LINE
  5
23E
100
AcDbEntity
  8
1
100
AcDbLine
 10
-541.038409
 20
-382.846106
 30
0.0
 11
-550.544647
 21
-384.153451
 31
0.0
  0
ARC
  5
23F
100
AcDbEntity
  8
1
100
AcDbCircle
 10
-509.123114
 20
-364.240231
 30
0.0
 40
4.0
100
AcDbArc
 50
180.0
 51
270.449131
  0
ARC
  5
240
100
AcDbEntity
  8
1
100
AcDbCircle
 10
-550.953713
 20
-364.240231
 30
0.0
 40
4.0
100
AcDbArc
 50
269.550869
 51
360.0
  0
ARC
  5
241
100
AcDbEntity
  8
1
100
AcDbCircle
 10
-539.538414
 20
-366.329777
 30
0.0
 40
2.0
100
AcDbArc
 50
269.550869
 51
360.0
  0
ARC
  5
242
100
AcDbEntity
  8
1
100
AcDbCircle
 10
-520.538414
 20
-366.329777
 30
0.0
 40
2.0
100
AcDbArc
 50
180.0
 51
270.449131
  0
LINE
  5
243
100
AcDbEntity
  8
1
100
AcDbLine
 10
-546.953713
 20
-436.606407
 30
0.0
 11
-546.953713
 21
-388.451981
 31
0.0
  0
LINE
  5
244
100
AcDbEntity
  8
1
100
AcDbLine
 10
-537.538414
 20
-434.831596
 30
0.0
 11
-537.538414
 21
-386.362435
 31
0.0
  0
LINE
  5
245
100
AcDbEntity
  8
1
100
AcDbLine
 10
-522.538414
 20
-433.233376
 30
0.0
 11
-522.538414
 21
-386.362435
 31
0.0
  0
LINE
  5
246
100
AcDbEntity
  8
1
100
AcDbLine
 10
-513.123114
 20
-430.266094
 30
0.0
 11
-513.123114
 21
-388.451981
 31
0.0
  0
ARC
  5
247
100
AcDbEntity
  8
1
100
AcDbCircle
 10
-509.123114
 20
-388.451981
 30
0.0
 40
4.0
100
AcDbArc
 50
89.550869
 51
180.0
  0
ARC
  5
248
100
AcDbEntity
  8
1
100
AcDbCircle
 10
-550.953713
 20
-388.451981
 30
0.0
 40
4.0
100
AcDbArc
 50
0.0
 51
90.449131
  0
ARC
  5
249
100
AcDbEntity
  8
1
100
AcDbCircle
 10
-539.538414
 20
-386.362435
 30
0.0
 40
2.0
100
AcDbArc
 50
0.0
 51
90.449131
  0
ARC
  5
24A
100
AcDbEntity
  8
1
100
AcDbCircle
 10
-520.538414
 20
-386.362435
 30
0.0
 40
2.0
100
AcDbArc
 50
89.550869
 51
180.0
  0
POINT
  5
24B
100
AcDbEntity
  8
1
100
AcDbPoint
 10
-530.038414
 20
-376.346106
 30
0.0
  0
ARC
  5
24C
100
AcDbEntity
  8
1
100
AcDbCircle
 10
-530.038414
 20
-370.946106
 30
0.0
 40
153.3
100
AcDbArc
 50
241.002472
 51
258.837729
  0
ARC
  5
24D
100
AcDbEntity
  8
1
100
AcDbCircle
 10
-530.038414
 20
-376.346106
 30
0.0
 40
148.6
100
AcDbArc
 50
180.0
 51
239.993085
  0
LINE
  5
24E
100
AcDbEntity
  8
1
100
AcDbLine
 10
-530.038414
 20
-521.346106
 30
0.0
 11
-559.715514
 21
-521.346106
 31
0.0
  0
LINE
  5
24F
100
AcDbEntity
  8
1
100
AcDbLine
 10
-530.038414
 20
-521.346106
 30
0.0
 11
-500.361319
 21
-521.346106
 31
0.0
  0
ARC
  5
250
100
AcDbEntity
  8
1
100
AcDbCircle
 10
-530.038414
 20
-370.946106
 30
0.0
 40
153.3
100
AcDbArc
 50
281.162271
 51
298.997528
  0
LINE
  5
251
100
AcDbEntity
  8
1
100
AcDbLine
 10
-530.084282
 20
-438.82529
 30
0.0
 11
-409.992964
 21
-428.318665
 31
0.0
  0
LINE
  5
252
100
AcDbEntity
  8
1
100
AcDbLine
 10
-514.899237
 20
-450.546429
 30
0.0
 11
-414.347538
 21
-441.749298
 31
0.0
  0
LINE
  5
253
100
AcDbEntity
  8
1
100
AcDbLine
 10
-410.742975
 20
-443.972112
 30
0.0
 11
-498.810153
 21
-451.994638
 31
0.0
  0
LINE
  5
254
100
AcDbEntity
  8
1
100
AcDbLine
 10
-541.826774
 20
-437.031149
 30
0.0
 11
-404.170697
 21
-425.451955
 31
0.0
  0
ARC
  5
255
100
AcDbEntity
  8
1
100
AcDbCircle
 10
-414.521849
 20
-439.756909
 30
0.0
 40
2.0
100
AcDbArc
 50
274.999998
 51
331.236183
  0
ARC
  5
256
100
AcDbEntity
  8
1
100
AcDbCircle
 10
-530.038414
 20
-376.346106
 30
0.0
 40
133.776351
100
AcDbArc
 50
331.236183
 51
335.825364
  0
ARC
  5
257
100
AcDbEntity
  8
1
100
AcDbCircle
 10
-409.818652
 20
-430.311054
 30
0.0
 40
2.0
100
AcDbArc
 50
335.825364
 51
94.999998
  0
ARC
  5
258
100
AcDbEntity
  8
1
100
AcDbCircle
 10
-410.924414
 20
-441.980359
 30
0.0
 40
2.0
100
AcDbArc
 50
275.205023
 51
331.144335
  0
ARC
  5
259
100
AcDbEntity
  8
1
100
AcDbCircle
 10
-530.038414
 20
-376.346106
 30
0.0
 40
138.0
100
AcDbArc
 50
331.144335
 51
337.930775
  0
ARC
  5
25A
100
AcDbEntity
  8
1
100
AcDbCircle
 10
-404.003055
 20
-427.444917
 30
0.0
 40
2.0
100
AcDbArc
 50
337.930775
 51
94.808221
  0
LINE
  5
25B
100
AcDbEntity
  8
1
100
AcDbLine
 10
-413.288035
 20
-441.656604
 30
0.0
 11
-410.794956
 21
-443.19467
 31
0.0
  0
LINE
  5
25C
100
AcDbEntity
  8
1
100
AcDbLine
 10
-407.354694
 20
-428.380036
 30
0.0
 11
-403.068658
 21
-426.234053
 31
0.0
  0
ARC
  5
25D
100
AcDbEntity
  8
1
100
AcDbCircle
 10
-513.853369
 20
-462.500765
 30
0.0
 40
12.0
100
AcDbArc
 50
94.999998
 51
180.0
  0
LINE
  5
25E
100
AcDbEntity
  8
1
100
AcDbLine
 10
-541.038413
 20
-504.346106
 30
0.0
 11
-541.038413
 21
-450.779626
 31
0.0
  0
ARC
  5
25F
100
AcDbEntity
  8
1
100
AcDbCircle
 10
-529.038413
 20
-450.779626
 30
0.0
 40
12.0
100
AcDbArc
 50
94.999998
 51
180.0
  0
LINE
  5
260
100
AcDbEntity
  8
1
100
AcDbLine
 10
-552.820924
 20
-504.346106
 30
0.0
 11
-552.820924
 21
-448.988919
 31
0.0
  0
ARC
  5
261
100
AcDbEntity
  8
1
100
AcDbCircle
 10
-540.820924
 20
-448.988919
 30
0.0
 40
12.0
100
AcDbArc
 50
94.808221
 51
180.0
  0
LINE
  5
262
100
AcDbEntity
  8
1
100
AcDbLine
 10
-509.721514
 20
-504.346106
 30
0.0
 11
-509.721514
 21
-463.945155
 31
0.0
  0
ARC
  5
263
100
AcDbEntity
  8
1
100
AcDbCircle
 10
-497.721514
 20
-463.945155
 30
0.0
 40
12.0
100
AcDbArc
 50
95.205023
 51
180.0
  0
ARC
  5
264
100
AcDbEntity
  8
1
100
AcDbCircle
 10
-509.123114
 20
-430.266094
 30
0.0
 40
4.0
100
AcDbArc
 50
180.0
 51
274.808221
  0
ARC
  5
265
100
AcDbEntity
  8
1
100
AcDbCircle
 10
-550.953713
 20
-436.606407
 30
0.0
 40
4.0
100
AcDbArc
 50
309.293959
 51
360.0
  0
ARC
  5
266
100
AcDbEntity
  8
1
100
AcDbCircle
 10
-520.538414
 20
-433.233376
 30
0.0
 40
2.0
100
AcDbArc
 50
180.0
 51
274.808221
  0
ARC
  5
267
100
AcDbEntity
  8
1
100
AcDbCircle
 10
-539.538414
 20
-434.831596
 30
0.0
 40
2.0
100
AcDbArc
 50
274.808221
 51
360.0
  0
LINE
  5
268
100
AcDbEntity
  8
1
100
AcDbLine
 10
-499.444826
 20
-506.346106
 30
0.0
 11
-560.456667
 21
-506.346106
 31
0.0
  0
ARC
  5
269
100
AcDbEntity
  8
1
100
AcDbCircle
 10
-507.721514
 20
-504.346106
 30
0.0
 40
2.0
100
AcDbArc
 50
180.0
 51
270.0
  0
ARC
  5
26A
100
AcDbEntity
  8
1
100
AcDbCircle
 10
-554.820924
 20
-504.346106
 30
0.0
 40
2.0
100
AcDbArc
 50
270.0
 51
360.0
  0
ARC
  5
26B
100
AcDbEntity
  8
1
100
AcDbCircle
 10
-543.038413
 20
-504.346106
 30
0.0
 40
2.0
100
AcDbArc
 50
270.0
 51
0.0
  0
LINE
  5
26C
100
AcDbEntity
  8
1
100
AcDbLine
 10
-565.440954
 20
-517.941522
 30
0.0
 11
-565.440954
 21
-508.346106
 31
0.0
  0
LINE
  5
26D
100
AcDbEntity
  8
1
100
AcDbLine
 10
-554.384499
 20
-520.682309
 30
0.0
 11
-554.384499
 21
-510.908777
 31
0.0
  0
LINE
  5
26E
100
AcDbEntity
  8
1
100
AcDbLine
 10
-494.635879
 20
-518.362039
 30
0.0
 11
-494.635879
 21
-508.346106
 31
0.0
  0
LINE
  5
26F
100
AcDbEntity
  8
1
100
AcDbLine
 10
-505.692328
 20
-520.682309
 30
0.0
 11
-505.692328
 21
-510.908777
 31
0.0
  0
ARC
  5
270
100
AcDbEntity
  8
1
100
AcDbCircle
 10
-530.038416
 20
-359.239003
 30
0.0
 40
151.307103
100
AcDbArc
 50
256.468611
 51
283.531389
  0
ARC
  5
271
100
AcDbEntity
  8
1
100
AcDbCircle
 10
-552.384499
 20
-510.908777
 30
0.0
 40
2.0
100
AcDbArc
 50
81.618693
 51
180.0
  0
ARC
  5
272
100
AcDbEntity
  8
1
100
AcDbCircle
 10
-507.692328
 20
-510.908777
 30
0.0
 40
2.0
100
AcDbArc
 50
0.0
 51
98.381307
  0
LINE
  5
273
100
AcDbEntity
  8
2
100
AcDbLine
 10
-622.038414
 20
531.253894
 30
0.0
 11
-622.038414
 21
546.253894
 31
0.0
  0
LINE
  5
274
100
AcDbEntity
  8
2
100
AcDbLine
 10
-403.038414
 20
503.753894
 30
0.0
 11
-403.038414
 21
468.753894
 31
0.0
  0
LINE
  5
275
100
AcDbEntity
  8
2
100
AcDbLine
 10
-403.538414
 20
468.253894
 30
0.0
 11
-404.538414
 21
468.253894
 31
0.0
  0
LINE
  5
276
100
AcDbEntity
  8
2
100
AcDbLine
 10
-404.538414
 20
504.253894
 30
0.0
 11
-403.538414
 21
504.253894
 31
0.0
  0
LINE
  5
277
100
AcDbEntity
  8
2
100
AcDbLine
 10
-403.038414
 20
418.753894
 30
0.0
 11
-403.038414
 21
453.753894
 31
0.0
  0
LINE
  5
278
100
AcDbEntity
  8
2
100
AcDbLine
 10
-403.538414
 20
454.253894
 30
0.0
 11
-404.538414
 21
454.253894
 31
0.0
  0
LINE
  5
279
100
AcDbEntity
  8
2
100
AcDbLine
 10
-404.538414
 20
418.253894
 30
0.0
 11
-403.538414
 21
418.253894
 31
0.0
  0
LINE
  5
27A
100
AcDbEntity
  8
2
100
AcDbLine
 10
-417.538414
 20
251.753894
 30
0.0
 11
-445.538414
 21
251.753894
 31
0.0
  0
LINE
  5
27B
100
AcDbEntity
  8
2
100
AcDbLine
 10
-445.538414
 20
251.753894
 30
0.0
 11
-447.538414
 21
249.753894
 31
0.0
  0
LINE
  5
27C
100
AcDbEntity
  8
2
100
AcDbLine
 10
-447.538414
 20
240.753894
 30
0.0
 11
-447.538414
 21
249.753894
 31
0.0
  0
ARC
  5
27D
100
AcDbEntity
  8
2
100
AcDbCircle
 10
-449.538414
 20
240.753894
 30
0.0
 40
2.0
100
AcDbArc
 50
270.0
 51
360.0
  0
LINE
  5
27E
100
AcDbEntity
  8
2
100
AcDbLine
 10
-451.538414
 20
236.753894
 30
0.0
 11
-451.538414
 21
236.293618
 31
0.0
  0
LINE
  5
27F
100
AcDbEntity
  8
2
100
AcDbLine
 10
-466.093502
 20
215.753894
 30
0.0
 11
-396.983325
 21
215.753894
 31
0.0
  0
LINE
  5
280
100
AcDbEntity
  8
2
100
AcDbLine
 10
-422.991484
 20
237.753894
 30
0.0
 11
-417.474918
 21
237.753894
 31
0.0
  0
LINE
  5
281
100
AcDbEntity
  8
2
100
AcDbLine
 10
-401.138414
 20
237.753894
 30
0.0
 11
-396.685111
 21
237.753894
 31
0.0
  0
LINE
  5
282
100
AcDbEntity
  8
2
100
AcDbLine
 10
-380.605148
 20
237.753894
 30
0.0
 11
-376.638414
 21
237.753894
 31
0.0
  0
LINE
  5
283
100
AcDbEntity
  8
2
100
AcDbLine
 10
-349.238414
 20
237.753894
 30
0.0
 11
-348.138414
 21
237.753894
 31
0.0
  0
LINE
  5
284
100
AcDbEntity
  8
2
100
AcDbLine
 10
-342.638414
 20
237.753894
 30
0.0
 11
-339.530454
 21
237.753894
 31
0.0
  0
ARC
  5
285
100
AcDbEntity
  8
2
100
AcDbCircle
 10
-443.738414
 20
715.253894
 30
0.0
 40
500.0
100
AcDbArc
 50
260.664881
 51
267.437441
  0
ARC
  5
286
100
AcDbEntity
  8
2
100
AcDbCircle
 10
-449.538414
 20
236.753894
 30
0.0
 40
2.0
100
AcDbArc
 50
90.0
 51
180.0
  0
LINE
  5
287
100
AcDbEntity
  8
2
100
AcDbLine
 10
-417.538414
 20
251.753894
 30
0.0
 11
-415.538414
 21
249.753894
 31
0.0
  0
LINE
  5
288
100
AcDbEntity
  8
2
100
AcDbLine
 10
-415.538414
 20
240.753894
 30
0.0
 11
-415.538414
 21
249.753894
 31
0.0
  0
ARC
  5
289
100
AcDbEntity
  8
2
100
AcDbCircle
 10
-413.538414
 20
240.753894
 30
0.0
 40
2.0
100
AcDbArc
 50
180.0
 51
270.0
  0
LINE
  5
28A
100
AcDbEntity
  8
2
100
AcDbLine
 10
-411.538414
 20
236.753894
 30
0.0
 11
-411.538414
 21
236.293618
 31
0.0
  0
ARC
  5
28B
100
AcDbEntity
  8
2
100
AcDbCircle
 10
-419.338414
 20
715.253894
 30
0.0
 40
500.0
100
AcDbArc
 50
272.562559
 51
279.335119
  0
ARC
  5
28C
100
AcDbEntity
  8
2
100
AcDbCircle
 10
-413.538414
 20
236.753894
 30
0.0
 40
2.0
100
AcDbArc
 50
0.0
 51
90.0
  0
LINE
  5
28D
100
AcDbEntity
  8
2
100
AcDbLine
 10
-415.538414
 20
249.753894
 30
0.0
 11
-447.538414
 21
249.753894
 31
0.0
  0
ARC
  5
28E
100
AcDbEntity
  8
2
100
AcDbCircle
 10
-431.538414
 20
267.553894
 30
0.0
 40
37.8
100
AcDbArc
 50
256.46135
 51
283.347693
  0
ARC
  5
28F
100
AcDbEntity
  8
2
100
AcDbCircle
 10
-431.538414
 20
258.353894
 30
0.0
 40
22.1
100
AcDbArc
 50
249.678608
 51
289.90826
  0
ARC
  5
290
100
AcDbEntity
  8
2
100
AcDbCircle
 10
-432.238414
 20
230.653894
 30
0.0
 40
11.2
100
AcDbArc
 50
12.984112
 51
30.742694
  0
ARC
  5
291
100
AcDbEntity
  8
2
100
AcDbCircle
 10
-431.838414
 20
230.853894
 30
0.0
 40
10.3
100
AcDbArc
 50
152.801464
 51
166.803615
  0
LINE
  5
292
100
AcDbEntity
  8
2
100
AcDbLine
 10
-361.339929
 20
237.753894
 30
0.0
 11
-363.838414
 21
237.753894
 31
0.0
  0
ARC
  5
293
100
AcDbEntity
  8
2
100
AcDbCircle
 10
-406.638414
 20
267.953894
 30
0.0
 40
38.1
100
AcDbArc
 50
257.489802
 51
282.010034
  0
ARC
  5
294
100
AcDbEntity
  8
2
100
AcDbCircle
 10
-409.238414
 20
255.153894
 30
0.0
 40
19.0
100
AcDbArc
 50
248.013597
 51
292.510479
  0
ARC
  5
295
100
AcDbEntity
  8
2
100
AcDbCircle
 10
-405.938414
 20
229.053894
 30
0.0
 40
9.7
100
AcDbArc
 50
27.791668
 51
57.213701
  0
ARC
  5
296
100
AcDbEntity
  8
2
100
AcDbCircle
 10
-424.338414
 20
234.253894
 30
0.0
 40
8.0
100
AcDbArc
 50
351.124411
 51
14.477512
  0
ARC
  5
297
100
AcDbEntity
  8
2
100
AcDbCircle
 10
-383.438414
 20
258.253894
 30
0.0
 40
28.5
100
AcDbArc
 50
254.666975
 51
284.161069
  0
ARC
  5
298
100
AcDbEntity
  8
2
100
AcDbCircle
 10
-388.738414
 20
254.053894
 30
0.0
 40
17.8
100
AcDbArc
 50
248.621499
 51
290.899028
  0
ARC
  5
299
100
AcDbEntity
  8
2
100
AcDbCircle
 10
-382.838414
 20
228.953894
 30
0.0
 40
8.9
100
AcDbArc
 50
31.500458
 51
74.573378
  0
ARC
  5
29A
100
AcDbEntity
  8
2
100
AcDbCircle
 10
-398.438414
 20
232.353894
 30
0.0
 40
6.0
100
AcDbArc
 50
2.459196
 51
53.130102
  0
ARC
  5
29B
100
AcDbEntity
  8
2
100
AcDbCircle
 10
-363.438414
 20
249.053894
 30
0.0
 40
19.3
100
AcDbArc
 50
251.56195
 51
283.988737
  0
ARC
  5
29C
100
AcDbEntity
  8
2
100
AcDbCircle
 10
-370.638414
 20
247.453894
 30
0.0
 40
11.2
100
AcDbArc
 50
255.994128
 51
295.608305
  0
ARC
  5
29D
100
AcDbEntity
  8
2
100
AcDbCircle
 10
-363.838414
 20
232.753894
 30
0.0
 40
5.0
100
AcDbArc
 50
90.0
 51
113.068733
  0
ARC
  5
29E
100
AcDbEntity
  8
2
100
AcDbCircle
 10
-367.738414
 20
224.353894
 30
0.0
 40
13.6
100
AcDbArc
 50
43.012702
 51
73.688203
  0
ARC
  5
29F
100
AcDbEntity
  8
2
100
AcDbCircle
 10
-377.138414
 20
231.553894
 30
0.0
 40
6.3
100
AcDbArc
 50
7.53278
 51
67.380135
  0
ARC
  5
2A0
100
AcDbEntity
  8
2
100
AcDbCircle
 10
-347.538414
 20
241.953894
 30
0.0
 40
12.2
100
AcDbArc
 50
244.256542
 51
286.000716
  0
ARC
  5
2A1
100
AcDbEntity
  8
2
100
AcDbCircle
 10
-355.438414
 20
244.753894
 30
0.0
 40
8.5
100
AcDbArc
 50
251.083012
 51
297.322222
  0
ARC
  5
2A2
100
AcDbEntity
  8
2
100
AcDbCircle
 10
-349.238414
 20
232.753894
 30
0.0
 40
5.0
100
AcDbArc
 50
90.0
 51
117.322222
  0
ARC
  5
2A3
100
AcDbEntity
  8
2
100
AcDbCircle
 10
-352.638414
 20
225.553894
 30
0.0
 40
12.3
100
AcDbArc
 50
39.814743
 51
74.699906
  0
ARC
  5
2A4
100
AcDbEntity
  8
2
100
AcDbCircle
 10
-364.638414
 20
226.353894
 30
0.0
 40
12.2
100
AcDbArc
 50
26.844811
 51
62.733956
  0
LINE
  5
2A5
100
AcDbEntity
  8
2
100
AcDbLine
 10
-339.938414
 20
229.753894
 30
0.0
 11
-342.038414
 21
229.753894
 31
0.0
  0
LINE
  5
2A6
100
AcDbEntity
  8
2
100
AcDbLine
 10
-352.938414
 20
229.753894
 30
0.0
 11
-356.038414
 21
229.753894
 31
0.0
  0
LINE
  5
2A7
100
AcDbEntity
  8
2
100
AcDbLine
 10
-371.238414
 20
229.753894
 30
0.0
 11
-373.838414
 21
229.753894
 31
0.0
  0
LINE
  5
2A8
100
AcDbEntity
  8
2
100
AcDbLine
 10
-392.238414
 20
229.753894
 30
0.0
 11
-396.138414
 21
229.753894
 31
0.0
  0
LINE
  5
2A9
100
AcDbEntity
  8
2
100
AcDbLine
 10
-416.038414
 20
229.753894
 30
0.0
 11
-420.838414
 21
229.753894
 31
0.0
  0
LINE
  5
2AA
100
AcDbEntity
  8
2
100
AcDbLine
 10
-442.238414
 20
229.753894
 30
0.0
 11
-446.338414
 21
229.753894
 31
0.0
  0
LINE
  5
2AB
100
AcDbEntity
  8
2
100
AcDbLine
 10
-466.138414
 20
229.753894
 30
0.0
 11
-470.238414
 21
229.753894
 31
0.0
  0
LINE
  5
2AC
100
AcDbEntity
  8
2
100
AcDbLine
 10
-489.038414
 20
229.753894
 30
0.0
 11
-491.938414
 21
229.753894
 31
0.0
  0
LINE
  5
2AD
100
AcDbEntity
  8
2
100
AcDbLine
 10
-506.338414
 20
229.753894
 30
0.0
 11
-508.838414
 21
229.753894
 31
0.0
  0
LINE
  5
2AE
100
AcDbEntity
  8
2
100
AcDbLine
 10
-520.738414
 20
229.753894
 30
0.0
 11
-522.638414
 21
229.753894
 31
0.0
  0
LINE
  5
2AF
100
AcDbEntity
  8
2
100
AcDbLine
 10
-449.538414
 20
238.753894
 30
0.0
 11
-413.538414
 21
238.753894
 31
0.0
  0
ARC
  5
2B0
100
AcDbEntity
  8
2
100
AcDbCircle
 10
-337.238414
 20
233.953894
 30
0.0
 40
4.2
100
AcDbArc
 50
221.945518
 51
307.267545
  0
ARC
  5
2B1
100
AcDbEntity
  8
2
100
AcDbCircle
 10
-344.738414
 20
225.953894
 30
0.0
 40
11.9
100
AcDbArc
 50
30.020559
 51
77.925147
  0
ARC
  5
2B2
100
AcDbEntity
  8
2
100
AcDbCircle
 10
-342.638414
 20
234.753894
 30
0.0
 40
3.0
100
AcDbArc
 50
90.0
 51
113.288889
  0
LINE
  5
2B3
100
AcDbEntity
  8
2
100
AcDbLine
 10
-515.238414
 20
221.753894
 30
0.0
 11
-346.338414
 21
221.753894
 31
0.0
  0
LINE
  5
2B4
100
AcDbEntity
  8
2
100
AcDbLine
 10
-439.538414
 20
256.253894
 30
0.0
 11
-439.538414
 21
251.753894
 31
0.0
  0
LINE
  5
2B5
100
AcDbEntity
  8
2
100
AcDbLine
 10
-423.538414
 20
251.753894
 30
0.0
 11
-423.538414
 21
256.253894
 31
0.0
  0
LINE
  5
2B6
100
AcDbEntity
  8
2
100
AcDbLine
 10
-627.038414
 20
-55.346106
 30
0.0
 11
-627.038414
 21
-41.346106
 31
0.0
  0
LINE
  5
2B7
100
AcDbEntity
  8
2
100
AcDbLine
 10
-496.530721
 20
-42.346106
 30
0.0
 11
-627.038414
 21
-42.346106
 31
0.0
  0
LINE
  5
2B8
100
AcDbEntity
  8
2
100
AcDbLine
 10
-484.216682
 20
118.653894
 30
0.0
 11
-669.038414
 21
118.653894
 31
0.0
  0
LINE
  5
2B9
100
AcDbEntity
  8
2
100
AcDbLine
 10
-720.089425
 20
-40.346106
 30
0.0
 11
-498.7991
 21
-40.346106
 31
0.0
  0
CIRCLE
  5
2BA
100
AcDbEntity
  8
2
100
AcDbCircle
 10
-431.538414
 20
33.653894
 30
0.0
 40
100.0
  0
CIRCLE
  5
2BB
100
AcDbEntity
  8
2
100
AcDbCircle
 10
-431.538414
 20
33.653894
 30
0.0
 40
92.0
  0
LINE
  5
2BC
100
AcDbEntity
  8
2
100
AcDbLine
 10
17.461586
 20
118.653894
 30
0.0
 11
157.461586
 21
118.653894
 31
0.0
  0
LINE
  5
2BD
100
AcDbEntity
  8
2
100
AcDbLine
 10
-12.538414
 20
-40.346106
 30
0.0
 11
-12.538414
 21
107.670185
 31
0.0
  0
LINE
  5
2BE
100
AcDbEntity
  8
2
100
AcDbLine
 10
177.461586
 20
68.653894
 30
0.0
 11
4.461586
 21
68.653894
 31
0.0
  0
LINE
  5
2BF
100
AcDbEntity
  8
2
100
AcDbLine
 10
157.461586
 20
83.653894
 30
0.0
 11
177.461586
 21
83.653894
 31
0.0
  0
LINE
  5
2C0
100
AcDbEntity
  8
2
100
AcDbLine
 10
-10.538414
 20
-42.346106
 30
0.0
 11
185.461586
 21
-42.346106
 31
0.0
  0
LINE
  5
2C1
100
AcDbEntity
  8
2
100
AcDbLine
 10
-12.538414
 20
33.653894
 30
0.0
 11
200.461586
 21
33.653894
 31
0.0
  0
LINE
  5
2C2
100
AcDbEntity
  8
2
100
AcDbLine
 10
-10.538414
 20
-42.346106
 30
0.0
 11
-10.538414
 21
-41.346106
 31
0.0
  0
LINE
  5
2C3
100
AcDbEntity
  8
2
100
AcDbLine
 10
-122.038414
 20
47.653894
 30
0.0
 11
-122.038414
 21
19.653894
 31
0.0
  0
LINE
  5
2C4
100
AcDbEntity
  8
2
100
AcDbLine
 10
-122.038414
 20
19.653894
 30
0.0
 11
-124.038414
 21
17.653894
 31
0.0
  0
LINE
  5
2C5
100
AcDbEntity
  8
2
100
AcDbLine
 10
-133.038414
 20
17.653894
 30
0.0
 11
-124.038414
 21
17.653894
 31
0.0
  0
ARC
  5
2C6
100
AcDbEntity
  8
2
100
AcDbCircle
 10
-133.038414
 20
15.653894
 30
0.0
 40
2.0
100
AcDbArc
 50
90.0
 51
180.0
  0
LINE
  5
2C7
100
AcDbEntity
  8
2
100
AcDbLine
 10
-137.038414
 20
13.653894
 30
0.0
 11
-137.498689
 21
13.653894
 31
0.0
  0
ARC
  5
2C8
100
AcDbEntity
  8
2
100
AcDbCircle
 10
-137.038414
 20
15.653894
 30
0.0
 40
2.0
100
AcDbArc
 50
270.0
 51
0.0
  0
LINE
  5
2C9
100
AcDbEntity
  8
2
100
AcDbLine
 10
-122.038414
 20
47.653894
 30
0.0
 11
-124.038414
 21
49.653894
 31
0.0
  0
LINE
  5
2CA
100
AcDbEntity
  8
2
100
AcDbLine
 10
-133.038414
 20
49.653894
 30
0.0
 11
-124.038414
 21
49.653894
 31
0.0
  0
ARC
  5
2CB
100
AcDbEntity
  8
2
100
AcDbCircle
 10
-133.038414
 20
51.653894
 30
0.0
 40
2.0
100
AcDbArc
 50
180.0
 51
270.0
  0
LINE
  5
2CC
100
AcDbEntity
  8
2
100
AcDbLine
 10
-137.038414
 20
53.653894
 30
0.0
 11
-137.498689
 21
53.653894
 31
0.0
  0
ARC
  5
2CD
100
AcDbEntity
  8
2
100
AcDbCircle
 10
-137.038414
 20
51.653894
 30
0.0
 40
2.0
100
AcDbArc
 50
0.0
 51
90.0
  0
LINE
  5
2CE
100
AcDbEntity
  8
2
100
AcDbLine
 10
-124.038414
 20
49.653894
 30
0.0
 11
-124.038414
 21
17.653894
 31
0.0
  0
LINE
  5
2CF
100
AcDbEntity
  8
2
100
AcDbLine
 10
-135.038414
 20
16.653894
 30
0.0
 11
-135.038414
 21
50.953894
 31
0.0
  0
LINE
  5
2D0
100
AcDbEntity
  8
2
100
AcDbLine
 10
-117.538414
 20
41.653894
 30
0.0
 11
-122.038414
 21
41.653894
 31
0.0
  0
LINE
  5
2D1
100
AcDbEntity
  8
2
100
AcDbLine
 10
-122.038414
 20
25.653894
 30
0.0
 11
-117.538414
 21
25.653894
 31
0.0
  0
CIRCLE
  5
2D2
100
AcDbEntity
  8
2
100
AcDbCircle
 10
112.461586
 20
98.653894
 30
0.0
 40
13.0
  0
LINE
  5
2D3
100
AcDbEntity
  8
2
100
AcDbLine
 10
104.956033
 20
111.653894
 30
0.0
 11
97.450479
 21
98.653894
 31
0.0
  0
LINE
  5
2D4
100
AcDbEntity
  8
2
100
AcDbLine
 10
119.96714
 20
111.653894
 30
0.0
 11
104.956033
 21
111.653894
 31
0.0
  0
LINE
  5
2D5
100
AcDbEntity
  8
2
100
AcDbLine
 10
127.472693
 20
98.653894
 30
0.0
 11
119.96714
 21
111.653894
 31
0.0
  0
LINE
  5
2D6
100
AcDbEntity
  8
2
100
AcDbLine
 10
119.96714
 20
85.653894
 30
0.0
 11
127.472693
 21
98.653894
 31
0.0
  0
LINE
  5
2D7
100
AcDbEntity
  8
2
100
AcDbLine
 10
104.956033
 20
85.653894
 30
0.0
 11
119.96714
 21
85.653894
 31
0.0
  0
LINE
  5
2D8
100
AcDbEntity
  8
2
100
AcDbLine
 10
97.450479
 20
98.653894
 30
0.0
 11
104.956033
 21
85.653894
 31
0.0
  0
CIRCLE
  5
2D9
100
AcDbEntity
  8
2
100
AcDbCircle
 10
62.461586
 20
98.653894
 30
0.0
 40
13.0
  0
LINE
  5
2DA
100
AcDbEntity
  8
2
100
AcDbLine
 10
54.956033
 20
111.653894
 30
0.0
 11
47.450479
 21
98.653894
 31
0.0
  0
LINE
  5
2DB
100
AcDbEntity
  8
2
100
AcDbLine
 10
69.96714
 20
111.653894
 30
0.0
 11
54.956033
 21
111.653894
 31
0.0
  0
LINE
  5
2DC
100
AcDbEntity
  8
2
100
AcDbLine
 10
77.472693
 20
98.653894
 30
0.0
 11
69.96714
 21
111.653894
 31
0.0
  0
LINE
  5
2DD
100
AcDbEntity
  8
2
100
AcDbLine
 10
69.96714
 20
85.653894
 30
0.0
 11
77.472693
 21
98.653894
 31
0.0
  0
LINE
  5
2DE
100
AcDbEntity
  8
2
100
AcDbLine
 10
54.956033
 20
85.653894
 30
0.0
 11
69.96714
 21
85.653894
 31
0.0
  0
LINE
  5
2DF
100
AcDbEntity
  8
2
100
AcDbLine
 10
47.450479
 20
98.653894
 30
0.0
 11
54.956033
 21
85.653894
 31
0.0
  0
LINE
  5
2E0
100
AcDbEntity
  8
2
100
AcDbLine
 10
-395.038414
 20
499.253894
 30
0.0
 11
-395.038414
 21
473.253894
 31
0.0
  0
LINE
  5
2E1
100
AcDbEntity
  8
2
100
AcDbLine
 10
-400.038414
 20
501.265001
 30
0.0
 11
-400.038414
 21
471.242787
 31
0.0
  0
LINE
  5
2E2
100
AcDbEntity
  8
2
100
AcDbLine
 10
-396.199527
 20
471.242787
 30
0.0
 11
-400.038414
 21
471.242787
 31
0.0
  0
LINE
  5
2E3
100
AcDbEntity
  8
2
100
AcDbLine
 10
-396.199527
 20
478.748341
 30
0.0
 11
-400.038414
 21
478.748341
 31
0.0
  0
LINE
  5
2E4
100
AcDbEntity
  8
2
100
AcDbLine
 10
-396.199527
 20
493.759448
 30
0.0
 11
-400.038414
 21
493.759448
 31
0.0
  0
LINE
  5
2E5
100
AcDbEntity
  8
2
100
AcDbLine
 10
-396.199527
 20
501.265001
 30
0.0
 11
-400.038414
 21
501.265001
 31
0.0
  0
LINE
  5
2E6
100
AcDbEntity
  8
2
100
AcDbLine
 10
-395.038414
 20
473.253894
 30
0.0
 11
-396.199527
 21
471.242787
 31
0.0
  0
LINE
  5
2E7
100
AcDbEntity
  8
2
100
AcDbLine
 10
-395.038414
 20
499.253894
 30
0.0
 11
-396.199527
 21
501.265001
 31
0.0
  0
ARC
  5
2E8
100
AcDbEntity
  8
2
100
AcDbCircle
 10
-419.8773
 20
486.253894
 30
0.0
 40
24.838887
100
AcDbArc
 50
342.412046
 51
17.587954
  0
ARC
  5
2E9
100
AcDbEntity
  8
2
100
AcDbCircle
 10
-401.683549
 20
474.995564
 30
0.0
 40
6.645136
100
AcDbArc
 50
325.615736
 51
34.384264
  0
ARC
  5
2EA
100
AcDbEntity
  8
2
100
AcDbCircle
 10
-401.683549
 20
497.512224
 30
0.0
 40
6.645136
100
AcDbArc
 50
325.615736
 51
34.384264
  0
LINE
  5
2EB
100
AcDbEntity
  8
2
100
AcDbLine
 10
-400.038414
 20
495.253894
 30
0.0
 11
-403.038414
 21
495.253894
 31
0.0
  0
LINE
  5
2EC
100
AcDbEntity
  8
2
100
AcDbLine
 10
-403.038414
 20
477.253894
 30
0.0
 11
-400.038414
 21
477.253894
 31
0.0
  0
LINE
  5
2ED
100
AcDbEntity
  8
2
100
AcDbLine
 10
-395.038414
 20
449.253894
 30
0.0
 11
-395.038414
 21
423.253894
 31
0.0
  0
LINE
  5
2EE
100
AcDbEntity
  8
2
100
AcDbLine
 10
-400.038414
 20
451.265001
 30
0.0
 11
-400.038414
 21
421.242787
 31
0.0
  0
LINE
  5
2EF
100
AcDbEntity
  8
2
100
AcDbLine
 10
-396.199527
 20
421.242787
 30
0.0
 11
-400.038414
 21
421.242787
 31
0.0
  0
LINE
  5
2F0
100
AcDbEntity
  8
2
100
AcDbLine
 10
-396.199527
 20
428.748341
 30
0.0
 11
-400.038414
 21
428.748341
 31
0.0
  0
LINE
  5
2F1
100
AcDbEntity
  8
2
100
AcDbLine
 10
-396.199527
 20
443.759448
 30
0.0
 11
-400.038414
 21
443.759448
 31
0.0
  0
LINE
  5
2F2
100
AcDbEntity
  8
2
100
AcDbLine
 10
-396.199527
 20
451.265001
 30
0.0
 11
-400.038414
 21
451.265001
 31
0.0
  0
LINE
  5
2F3
100
AcDbEntity
  8
2
100
AcDbLine
 10
-395.038414
 20
423.253894
 30
0.0
 11
-396.199527
 21
421.242787
 31
0.0
  0
LINE
  5
2F4
100
AcDbEntity
  8
2
100
AcDbLine
 10
-395.038414
 20
449.253894
 30
0.0
 11
-396.199527
 21
451.265001
 31
0.0
  0
ARC
  5
2F5
100
AcDbEntity
  8
2
100
AcDbCircle
 10
-419.8773
 20
436.253894
 30
0.0
 40
24.838887
100
AcDbArc
 50
342.412046
 51
17.587954
  0
ARC
  5
2F6
100
AcDbEntity
  8
2
100
AcDbCircle
 10
-401.683549
 20
424.995564
 30
0.0
 40
6.645136
100
AcDbArc
 50
325.615736
 51
34.384264
  0
ARC
  5
2F7
100
AcDbEntity
  8
2
100
AcDbCircle
 10
-401.683549
 20
447.512224
 30
0.0
 40
6.645136
100
AcDbArc
 50
325.615736
 51
34.384264
  0
LINE
  5
2F8
100
AcDbEntity
  8
2
100
AcDbLine
 10
-400.038414
 20
445.253894
 30
0.0
 11
-403.038414
 21
445.253894
 31
0.0
  0
LINE
  5
2F9
100
AcDbEntity
  8
2
100
AcDbLine
 10
-403.038414
 20
427.253894
 30
0.0
 11
-400.038414
 21
427.253894
 31
0.0
  0
ARC
  5
2FA
100
AcDbEntity
  8
2
100
AcDbCircle
 10
-339.530454
 20
229.761853
 30
0.0
 40
7.992041
100
AcDbArc
 50
279.335119
 51
90.0
  0
ARC
  5
2FB
100
AcDbEntity
  8
2
100
AcDbCircle
 10
-335.300693
 20
231.407281
 30
0.0
 40
1.0
100
AcDbArc
 50
307.267545
 51
30.020559
  0
ARC
  5
2FC
100
AcDbEntity
  8
2
100
AcDbCircle
 10
-345.168765
 20
240.632442
 30
0.0
 40
3.4
100
AcDbArc
 50
266.638278
 51
293.288889
  0
ARC
  5
2FD
100
AcDbEntity
  8
2
100
AcDbCircle
 10
-342.876628
 20
234.656983
 30
0.0
 40
3.0
100
AcDbArc
 50
77.925147
 51
110.986403
  0
ARC
  5
2FE
100
AcDbEntity
  8
2
100
AcDbCircle
 10
-339.618512
 20
231.814938
 30
0.0
 40
1.0
100
AcDbArc
 50
191.678445
 51
221.945518
  0
ARC
  5
2FF
100
AcDbEntity
  8
2
100
AcDbCircle
 10
-348.138414
 20
230.053894
 30
0.0
 40
7.7
100
AcDbArc
 50
11.678445
 51
90.0
  0
ARC
  5
300
100
AcDbEntity
  8
2
100
AcDbCircle
 10
-344.72679
 20
232.14906
 30
0.0
 40
2.0
100
AcDbArc
 50
286.000716
 51
39.814743
  0
ARC
  5
301
100
AcDbEntity
  8
2
100
AcDbCircle
 10
-351.968706
 20
232.766266
 30
0.0
 40
2.0
100
AcDbArc
 50
206.844811
 51
244.256542
  0
ARC
  5
302
100
AcDbEntity
  8
2
100
AcDbCircle
 10
-350.184379
 20
234.524274
 30
0.0
 40
3.0
100
AcDbArc
 50
74.699906
 51
117.185481
  0
ARC
  5
303
100
AcDbEntity
  8
2
100
AcDbCircle
 10
-361.339929
 20
232.753894
 30
0.0
 40
5.0
100
AcDbArc
 50
62.733956
 51
90.0
  0
ARC
  5
304
100
AcDbEntity
  8
2
100
AcDbCircle
 10
-368.910042
 20
232.641969
 30
0.0
 40
2.0
100
AcDbArc
 50
187.53278
 51
251.56195
  0
ARC
  5
305
100
AcDbEntity
  8
2
100
AcDbCircle
 10
-359.256465
 20
232.266956
 30
0.0
 40
2.0
100
AcDbArc
 50
283.988737
 51
43.012702
  0
ARC
  5
306
100
AcDbEntity
  8
2
100
AcDbCircle
 10
-364.761252
 20
234.527218
 30
0.0
 40
3.0
100
AcDbArc
 50
73.688203
 51
114.449096
  0
ARC
  5
307
100
AcDbEntity
  8
2
100
AcDbCircle
 10
-376.638414
 20
232.753894
 30
0.0
 40
5.0
100
AcDbArc
 50
67.380135
 51
90.0
  0
ARC
  5
308
100
AcDbEntity
  8
2
100
AcDbCircle
 10
-376.955225
 20
232.559181
 30
0.0
 40
2.0
100
AcDbArc
 50
284.161069
 51
31.500458
  0
ARC
  5
309
100
AcDbEntity
  8
2
100
AcDbCircle
 10
-390.445781
 20
232.697157
 30
0.0
 40
2.0
100
AcDbArc
 50
182.459196
 51
254.666975
  0
ARC
  5
30A
100
AcDbEntity
  8
2
100
AcDbCircle
 10
-380.605148
 20
232.753894
 30
0.0
 40
5.0
100
AcDbArc
 50
90.0
 51
110.899028
  0
ARC
  5
30B
100
AcDbEntity
  8
2
100
AcDbCircle
 10
-381.26899
 20
234.641328
 30
0.0
 40
3.0
100
AcDbArc
 50
74.573378
 51
111.045359
  0
ARC
  5
30C
100
AcDbEntity
  8
2
100
AcDbCircle
 10
-396.685111
 20
233.753894
 30
0.0
 40
4.0
100
AcDbArc
 50
68.621499
 51
90.0
  0
ARC
  5
30D
100
AcDbEntity
  8
2
100
AcDbCircle
 10
-396.638414
 20
234.753894
 30
0.0
 40
3.0
100
AcDbArc
 50
53.130102
 51
90.0
  0
ARC
  5
30E
100
AcDbEntity
  8
2
100
AcDbCircle
 10
-414.458157
 20
232.711
 30
0.0
 40
2.0
100
AcDbArc
 50
171.124411
 51
257.489802
  0
ARC
  5
30F
100
AcDbEntity
  8
2
100
AcDbCircle
 10
-399.126618
 20
232.644081
 30
0.0
 40
2.0
100
AcDbArc
 50
282.010034
 51
27.791668
  0
ARC
  5
310
100
AcDbEntity
  8
2
100
AcDbCircle
 10
-401.198513
 20
235.753894
 30
0.0
 40
2.0
100
AcDbArc
 50
90.0
 51
112.510479
  0
ARC
  5
311
100
AcDbEntity
  8
2
100
AcDbCircle
 10
-401.768808
 20
235.527254
 30
0.0
 40
2.0
100
AcDbArc
 50
57.213701
 51
110.836076
  0
ARC
  5
312
100
AcDbEntity
  8
2
100
AcDbCircle
 10
-418.528939
 20
235.753894
 30
0.0
 40
2.0
100
AcDbArc
 50
14.477512
 51
90.0
  0
ARC
  5
313
100
AcDbEntity
  8
2
100
AcDbCircle
 10
-417.474918
 20
234.753894
 30
0.0
 40
3.0
100
AcDbArc
 50
68.013597
 51
90.0
  0
ARC
  5
314
100
AcDbEntity
  8
2
100
AcDbCircle
 10
-423.273635
 20
232.720958
 30
0.0
 40
2.0
100
AcDbArc
 50
283.347693
 51
12.984112
  0
ARC
  5
315
100
AcDbEntity
  8
2
100
AcDbCircle
 10
-439.919238
 20
232.748697
 30
0.0
 40
2.0
100
AcDbArc
 50
166.803615
 51
256.46135
  0
ARC
  5
316
100
AcDbEntity
  8
2
100
AcDbCircle
 10
-424.331275
 20
235.356782
 30
0.0
 40
2.0
100
AcDbArc
 50
30.742694
 51
107.400637
  0
ARC
  5
317
100
AcDbEntity
  8
2
100
AcDbCircle
 10
-422.991484
 20
234.753894
 30
0.0
 40
3.0
100
AcDbArc
 50
90.0
 51
109.90826
  0
ARC
  5
318
100
AcDbEntity
  8
2
100
AcDbCircle
 10
-439.908001
 20
235.753894
 30
0.0
 40
2.0
100
AcDbArc
 50
69.678608
 51
90.0
  0
ARC
  5
319
100
AcDbEntity
  8
2
100
AcDbCircle
 10
-438.331238
 20
234.190543
 30
0.0
 40
3.0
100
AcDbArc
 50
74.298213
 51
152.801464
  0
LINE
  5
31A
100
AcDbEntity
  8
2
100
AcDbLine
 10
-439.908001
 20
237.753894
 30
0.0
 11
-445.601909
 21
237.753894
 31
0.0
  0
LINE
  5
31B
100
AcDbEntity
  8
2
100
AcDbLine
 10
-513.838414
 20
237.753894
 30
0.0
 11
-514.938414
 21
237.753894
 31
0.0
  0
LINE
  5
31C
100
AcDbEntity
  8
2
100
AcDbLine
 10
-520.438414
 20
237.753894
 30
0.0
 11
-523.546373
 21
237.753894
 31
0.0
  0
LINE
  5
31D
100
AcDbEntity
  8
2
100
AcDbLine
 10
-501.838414
 20
237.753894
 30
0.0
 11
-499.238414
 21
237.753894
 31
0.0
  0
LINE
  5
31E
100
AcDbEntity
  8
2
100
AcDbLine
 10
-486.438414
 20
237.753894
 30
0.0
 11
-482.438414
 21
237.753894
 31
0.0
  0
LINE
  5
31F
100
AcDbEntity
  8
2
100
AcDbLine
 10
-466.338414
 20
237.753894
 30
0.0
 11
-461.878314
 21
237.753894
 31
0.0
  0
ARC
  5
320
100
AcDbEntity
  8
2
100
AcDbCircle
 10
-456.438414
 20
267.953894
 30
0.0
 40
38.1
100
AcDbArc
 50
257.989966
 51
282.510198
  0
ARC
  5
321
100
AcDbEntity
  8
2
100
AcDbCircle
 10
-453.838414
 20
255.153894
 30
0.0
 40
19.0
100
AcDbArc
 50
247.489521
 51
291.986403
  0
ARC
  5
322
100
AcDbEntity
  8
2
100
AcDbCircle
 10
-457.138414
 20
229.053894
 30
0.0
 40
9.7
100
AcDbArc
 50
122.786299
 51
152.208332
  0
ARC
  5
323
100
AcDbEntity
  8
2
100
AcDbCircle
 10
-438.738414
 20
234.253894
 30
0.0
 40
8.0
100
AcDbArc
 50
165.522488
 51
188.875589
  0
ARC
  5
324
100
AcDbEntity
  8
2
100
AcDbCircle
 10
-479.638414
 20
258.253894
 30
0.0
 40
28.5
100
AcDbArc
 50
255.838931
 51
285.333025
  0
ARC
  5
325
100
AcDbEntity
  8
2
100
AcDbCircle
 10
-474.338414
 20
254.053894
 30
0.0
 40
17.8
100
AcDbArc
 50
249.100972
 51
291.378501
  0
ARC
  5
326
100
AcDbEntity
  8
2
100
AcDbCircle
 10
-480.238414
 20
228.953894
 30
0.0
 40
8.9
100
AcDbArc
 50
105.426622
 51
148.499542
  0
ARC
  5
327
100
AcDbEntity
  8
2
100
AcDbCircle
 10
-464.638414
 20
232.353894
 30
0.0
 40
6.0
100
AcDbArc
 50
126.869898
 51
177.540804
  0
ARC
  5
328
100
AcDbEntity
  8
2
100
AcDbCircle
 10
-499.638414
 20
249.053894
 30
0.0
 40
19.3
100
AcDbArc
 50
256.011263
 51
288.43805
  0
ARC
  5
329
100
AcDbEntity
  8
2
100
AcDbCircle
 10
-492.438414
 20
247.453894
 30
0.0
 40
11.2
100
AcDbArc
 50
244.391695
 51
284.005872
  0
ARC
  5
32A
100
AcDbEntity
  8
2
100
AcDbCircle
 10
-499.238414
 20
232.753894
 30
0.0
 40
5.0
100
AcDbArc
 50
66.931267
 51
90.0
  0
ARC
  5
32B
100
AcDbEntity
  8
2
100
AcDbCircle
 10
-495.338414
 20
224.353894
 30
0.0
 40
13.6
100
AcDbArc
 50
106.311797
 51
136.987298
  0
ARC
  5
32C
100
AcDbEntity
  8
2
100
AcDbCircle
 10
-485.938414
 20
231.553894
 30
0.0
 40
6.3
100
AcDbArc
 50
112.619865
 51
172.46722
  0
ARC
  5
32D
100
AcDbEntity
  8
2
100
AcDbCircle
 10
-515.538414
 20
241.953894
 30
0.0
 40
12.2
100
AcDbArc
 50
253.999284
 51
295.743458
  0
ARC
  5
32E
100
AcDbEntity
  8
2
100
AcDbCircle
 10
-507.638414
 20
244.753894
 30
0.0
 40
8.5
100
AcDbArc
 50
242.677778
 51
288.916988
  0
ARC
  5
32F
100
AcDbEntity
  8
2
100
AcDbCircle
 10
-513.838414
 20
232.753894
 30
0.0
 40
5.0
100
AcDbArc
 50
62.677778
 51
90.0
  0
ARC
  5
330
100
AcDbEntity
  8
2
100
AcDbCircle
 10
-510.438414
 20
225.553894
 30
0.0
 40
12.3
100
AcDbArc
 50
105.300094
 51
140.185257
  0
ARC
  5
331
100
AcDbEntity
  8
2
100
AcDbCircle
 10
-498.438414
 20
226.353894
 30
0.0
 40
12.2
100
AcDbArc
 50
117.266044
 51
153.155189
  0
ARC
  5
332
100
AcDbEntity
  8
2
100
AcDbCircle
 10
-525.838414
 20
233.953894
 30
0.0
 40
4.2
100
AcDbArc
 50
232.732455
 51
318.054482
  0
ARC
  5
333
100
AcDbEntity
  8
2
100
AcDbCircle
 10
-518.338414
 20
225.953894
 30
0.0
 40
11.9
100
AcDbArc
 50
102.074853
 51
149.979441
  0
ARC
  5
334
100
AcDbEntity
  8
2
100
AcDbCircle
 10
-520.438414
 20
234.753894
 30
0.0
 40
3.0
100
AcDbArc
 50
66.711111
 51
90.0
  0
ARC
  5
335
100
AcDbEntity
  8
2
100
AcDbCircle
 10
-523.546373
 20
229.761853
 30
0.0
 40
7.992041
100
AcDbArc
 50
90.0
 51
260.664881
  0
ARC
  5
336
100
AcDbEntity
  8
2
100
AcDbCircle
 10
-527.776134
 20
231.407281
 30
0.0
 40
1.0
100
AcDbArc
 50
149.979441
 51
232.732455
  0
ARC
  5
337
100
AcDbEntity
  8
2
100
AcDbCircle
 10
-517.908062
 20
240.632442
 30
0.0
 40
3.4
100
AcDbArc
 50
246.711111
 51
273.361722
  0
ARC
  5
338
100
AcDbEntity
  8
2
100
AcDbCircle
 10
-520.200199
 20
234.656983
 30
0.0
 40
3.0
100
AcDbArc
 50
69.013597
 51
102.074853
  0
ARC
  5
339
100
AcDbEntity
  8
2
100
AcDbCircle
 10
-514.938414
 20
230.053894
 30
0.0
 40
7.7
100
AcDbArc
 50
90.0
 51
168.321555
  0
ARC
  5
33A
100
AcDbEntity
  8
2
100
AcDbCircle
 10
-518.350037
 20
232.14906
 30
0.0
 40
2.0
100
AcDbArc
 50
140.185257
 51
253.999284
  0
ARC
  5
33B
100
AcDbEntity
  8
2
100
AcDbCircle
 10
-511.108121
 20
232.766266
 30
0.0
 40
2.0
100
AcDbArc
 50
295.743458
 51
333.155189
  0
ARC
  5
33C
100
AcDbEntity
  8
2
100
AcDbCircle
 10
-512.892448
 20
234.524274
 30
0.0
 40
3.0
100
AcDbArc
 50
62.814519
 51
105.300094
  0
ARC
  5
33D
100
AcDbEntity
  8
2
100
AcDbCircle
 10
-501.736898
 20
232.753894
 30
0.0
 40
5.0
100
AcDbArc
 50
90.0
 51
117.266044
  0
ARC
  5
33E
100
AcDbEntity
  8
2
100
AcDbCircle
 10
-494.166785
 20
232.641969
 30
0.0
 40
2.0
100
AcDbArc
 50
288.43805
 51
352.46722
  0
ARC
  5
33F
100
AcDbEntity
  8
2
100
AcDbCircle
 10
-503.820362
 20
232.266956
 30
0.0
 40
2.0
100
AcDbArc
 50
136.987298
 51
256.011263
  0
ARC
  5
340
100
AcDbEntity
  8
2
100
AcDbCircle
 10
-498.315575
 20
234.527218
 30
0.0
 40
3.0
100
AcDbArc
 50
65.550904
 51
106.311797
  0
ARC
  5
341
100
AcDbEntity
  8
2
100
AcDbCircle
 10
-486.438414
 20
232.753894
 30
0.0
 40
5.0
100
AcDbArc
 50
90.0
 51
112.619865
  0
ARC
  5
342
100
AcDbEntity
  8
2
100
AcDbCircle
 10
-486.121602
 20
232.559181
 30
0.0
 40
2.0
100
AcDbArc
 50
148.499542
 51
255.838931
  0
ARC
  5
343
100
AcDbEntity
  8
2
100
AcDbCircle
 10
-472.631046
 20
232.697157
 30
0.0
 40
2.0
100
AcDbArc
 50
285.333025
 51
357.540804
  0
ARC
  5
344
100
AcDbEntity
  8
2
100
AcDbCircle
 10
-482.471679
 20
232.753894
 30
0.0
 40
5.0
100
AcDbArc
 50
69.100972
 51
90.0
  0
ARC
  5
345
100
AcDbEntity
  8
2
100
AcDbCircle
 10
-481.807837
 20
234.641328
 30
0.0
 40
3.0
100
AcDbArc
 50
68.954641
 51
105.426622
  0
ARC
  5
346
100
AcDbEntity
  8
2
100
AcDbCircle
 10
-466.391716
 20
233.753894
 30
0.0
 40
4.0
100
AcDbArc
 50
90.0
 51
111.378501
  0
ARC
  5
347
100
AcDbEntity
  8
2
100
AcDbCircle
 10
-466.438414
 20
234.753894
 30
0.0
 40
3.0
100
AcDbArc
 50
90.0
 51
126.869898
  0
ARC
  5
348
100
AcDbEntity
  8
2
100
AcDbCircle
 10
-448.61867
 20
232.711
 30
0.0
 40
2.0
100
AcDbArc
 50
282.510198
 51
8.875589
  0
ARC
  5
349
100
AcDbEntity
  8
2
100
AcDbCircle
 10
-463.950209
 20
232.644081
 30
0.0
 40
2.0
100
AcDbArc
 50
152.208332
 51
257.989966
  0
ARC
  5
34A
100
AcDbEntity
  8
2
100
AcDbCircle
 10
-461.878314
 20
235.753894
 30
0.0
 40
2.0
100
AcDbArc
 50
67.489521
 51
90.0
  0
ARC
  5
34B
100
AcDbEntity
  8
2
100
AcDbCircle
 10
-461.308019
 20
235.527254
 30
0.0
 40
2.0
100
AcDbArc
 50
69.163924
 51
122.786299
  0
ARC
  5
34C
100
AcDbEntity
  8
2
100
AcDbCircle
 10
-444.547889
 20
235.753894
 30
0.0
 40
2.0
100
AcDbArc
 50
90.0
 51
165.522488
  0
ARC
  5
34D
100
AcDbEntity
  8
2
100
AcDbCircle
 10
-445.601909
 20
234.753894
 30
0.0
 40
3.0
100
AcDbArc
 50
90.0
 51
111.986403
  0
LINE
  5
34E
100
AcDbEntity
  8
2
100
AcDbLine
 10
-158.038414
 20
68.208983
 30
0.0
 11
-158.038414
 21
-0.901195
 31
0.0
  0
LINE
  5
34F
100
AcDbEntity
  8
2
100
AcDbLine
 10
-136.038414
 20
25.106965
 30
0.0
 11
-136.038414
 21
19.590398
 31
0.0
  0
LINE
  5
350
100
AcDbEntity
  8
2
100
AcDbLine
 10
-136.038414
 20
3.253894
 30
0.0
 11
-136.038414
 21
-1.199408
 31
0.0
  0
LINE
  5
351
100
AcDbEntity
  8
2
100
AcDbLine
 10
-136.038414
 20
-17.279371
 30
0.0
 11
-136.038414
 21
-21.246106
 31
0.0
  0
LINE
  5
352
100
AcDbEntity
  8
2
100
AcDbLine
 10
-136.038414
 20
-34.046106
 30
0.0
 11
-136.038414
 21
-36.54459
 31
0.0
  0
LINE
  5
353
100
AcDbEntity
  8
2
100
AcDbLine
 10
-136.038414
 20
-48.646106
 30
0.0
 11
-136.038414
 21
-49.746106
 31
0.0
  0
LINE
  5
354
100
AcDbEntity
  8
2
100
AcDbLine
 10
-136.038414
 20
-55.246106
 30
0.0
 11
-136.038414
 21
-58.354065
 31
0.0
  0
ARC
  5
355
100
AcDbEntity
  8
2
100
AcDbCircle
 10
341.461586
 20
45.853894
 30
0.0
 40
500.0
100
AcDbArc
 50
170.664881
 51
177.437441
  0
ARC
  5
356
100
AcDbEntity
  8
2
100
AcDbCircle
 10
341.461586
 20
21.453894
 30
0.0
 40
500.0
100
AcDbArc
 50
182.562559
 51
189.335119
  0
ARC
  5
357
100
AcDbEntity
  8
2
100
AcDbCircle
 10
-106.238414
 20
33.653894
 30
0.0
 40
37.8
100
AcDbArc
 50
166.46135
 51
193.347693
  0
ARC
  5
358
100
AcDbEntity
  8
2
100
AcDbCircle
 10
-115.438414
 20
33.653894
 30
0.0
 40
22.1
100
AcDbArc
 50
159.678608
 51
199.90826
  0
ARC
  5
359
100
AcDbEntity
  8
2
100
AcDbCircle
 10
-143.138414
 20
34.353894
 30
0.0
 40
11.2
100
AcDbArc
 50
282.984112
 51
300.742694
  0
ARC
  5
35A
100
AcDbEntity
  8
2
100
AcDbCircle
 10
-142.938414
 20
33.953894
 30
0.0
 40
10.3
100
AcDbArc
 50
62.801464
 51
76.803615
  0
LINE
  5
35B
100
AcDbEntity
  8
2
100
AcDbLine
 10
-136.038414
 20
-36.646106
 30
0.0
 11
-136.038414
 21
-34.046106
 31
0.0
  0
LINE
  5
35C
100
AcDbEntity
  8
2
100
AcDbLine
 10
-136.038414
 20
-21.046106
 30
0.0
 11
-136.038414
 21
-17.246106
 31
0.0
  0
LINE
  5
35D
100
AcDbEntity
  8
2
100
AcDbLine
 10
-136.038414
 20
-1.146106
 30
0.0
 11
-136.038414
 21
3.313994
 31
0.0
  0
ARC
  5
35E
100
AcDbEntity
  8
2
100
AcDbCircle
 10
-105.838414
 20
8.753894
 30
0.0
 40
38.1
100
AcDbArc
 50
167.489802
 51
192.010034
  0
ARC
  5
35F
100
AcDbEntity
  8
2
100
AcDbCircle
 10
-118.638414
 20
11.353894
 30
0.0
 40
19.0
100
AcDbArc
 50
158.013597
 51
202.510479
  0
ARC
  5
360
100
AcDbEntity
  8
2
100
AcDbCircle
 10
-144.738414
 20
8.053894
 30
0.0
 40
9.7
100
AcDbArc
 50
297.791668
 51
327.213701
  0
ARC
  5
361
100
AcDbEntity
  8
2
100
AcDbCircle
 10
-139.538414
 20
26.453894
 30
0.0
 40
8.0
100
AcDbArc
 50
261.124411
 51
284.477512
  0
ARC
  5
362
100
AcDbEntity
  8
2
100
AcDbCircle
 10
-115.538414
 20
-14.446106
 30
0.0
 40
28.5
100
AcDbArc
 50
164.666975
 51
194.161069
  0
ARC
  5
363
100
AcDbEntity
  8
2
100
AcDbCircle
 10
-119.738414
 20
-9.146106
 30
0.0
 40
17.8
100
AcDbArc
 50
158.621499
 51
200.899028
  0
ARC
  5
364
100
AcDbEntity
  8
2
100
AcDbCircle
 10
-144.838414
 20
-15.046106
 30
0.0
 40
8.9
100
AcDbArc
 50
301.500458
 51
344.573378
  0
ARC
  5
365
100
AcDbEntity
  8
2
100
AcDbCircle
 10
-141.438414
 20
0.553894
 30
0.0
 40
6.0
100
AcDbArc
 50
272.459196
 51
323.130102
  0
ARC
  5
366
100
AcDbEntity
  8
2
100
AcDbCircle
 10
-124.738414
 20
-34.446106
 30
0.0
 40
19.3
100
AcDbArc
 50
161.56195
 51
193.988737
  0
ARC
  5
367
100
AcDbEntity
  8
2
100
AcDbCircle
 10
-126.338414
 20
-27.246106
 30
0.0
 40
11.2
100
AcDbArc
 50
165.994128
 51
205.608305
  0
ARC
  5
368
100
AcDbEntity
  8
2
100
AcDbCircle
 10
-141.038414
 20
-34.046106
 30
0.0
 40
5.0
100
AcDbArc
 50
0.0
 51
23.068733
  0
ARC
  5
369
100
AcDbEntity
  8
2
100
AcDbCircle
 10
-149.438414
 20
-30.146106
 30
0.0
 40
13.6
100
AcDbArc
 50
313.012702
 51
343.688203
  0
ARC
  5
36A
100
AcDbEntity
  8
2
100
AcDbCircle
 10
-142.238414
 20
-20.746106
 30
0.0
 40
6.3
100
AcDbArc
 50
277.53278
 51
337.380135
  0
ARC
  5
36B
100
AcDbEntity
  8
2
100
AcDbCircle
 10
-131.838414
 20
-50.346106
 30
0.0
 40
12.2
100
AcDbArc
 50
154.256542
 51
196.000716
  0
ARC
  5
36C
100
AcDbEntity
  8
2
100
AcDbCircle
 10
-129.038414
 20
-42.446106
 30
0.0
 40
8.5
100
AcDbArc
 50
161.083012
 51
207.322222
  0
ARC
  5
36D
100
AcDbEntity
  8
2
100
AcDbCircle
 10
-141.038414
 20
-48.646106
 30
0.0
 40
5.0
100
AcDbArc
 50
0.0
 51
27.322222
  0
ARC
  5
36E
100
AcDbEntity
  8
2
100
AcDbCircle
 10
-148.238414
 20
-45.246106
 30
0.0
 40
12.3
100
AcDbArc
 50
309.814743
 51
344.699906
  0
ARC
  5
36F
100
AcDbEntity
  8
2
100
AcDbCircle
 10
-147.438414
 20
-33.246106
 30
0.0
 40
12.2
100
AcDbArc
 50
296.844811
 51
332.733956
  0
LINE
  5
370
100
AcDbEntity
  8
2
100
AcDbLine
 10
-144.038414
 20
-57.946106
 30
0.0
 11
-144.038414
 21
-55.846106
 31
0.0
  0
LINE
  5
371
100
AcDbEntity
  8
2
100
AcDbLine
 10
-144.038414
 20
-44.946106
 30
0.0
 11
-144.038414
 21
-41.846106
 31
0.0
  0
LINE
  5
372
100
AcDbEntity
  8
2
100
AcDbLine
 10
-144.038414
 20
-26.646106
 30
0.0
 11
-144.038414
 21
-24.046106
 31
0.0
  0
LINE
  5
373
100
AcDbEntity
  8
2
100
AcDbLine
 10
-144.038414
 20
-5.646106
 30
0.0
 11
-144.038414
 21
-1.746106
 31
0.0
  0
LINE
  5
374
100
AcDbEntity
  8
2
100
AcDbLine
 10
-144.038414
 20
18.153894
 30
0.0
 11
-144.038414
 21
22.953894
 31
0.0
  0
LINE
  5
375
100
AcDbEntity
  8
2
100
AcDbLine
 10
-144.038414
 20
44.353894
 30
0.0
 11
-144.038414
 21
48.453894
 31
0.0
  0
LINE
  5
376
100
AcDbEntity
  8
2
100
AcDbLine
 10
-144.038414
 20
68.253894
 30
0.0
 11
-144.038414
 21
72.353894
 31
0.0
  0
LINE
  5
377
100
AcDbEntity
  8
2
100
AcDbLine
 10
-144.038414
 20
91.153894
 30
0.0
 11
-144.038414
 21
94.053894
 31
0.0
  0
LINE
  5
378
100
AcDbEntity
  8
2
100
AcDbLine
 10
-144.038414
 20
108.453894
 30
0.0
 11
-144.038414
 21
110.953894
 31
0.0
  0
LINE
  5
379
100
AcDbEntity
  8
2
100
AcDbLine
 10
-144.038414
 20
122.853894
 30
0.0
 11
-144.038414
 21
124.753894
 31
0.0
  0
ARC
  5
37A
100
AcDbEntity
  8
2
100
AcDbCircle
 10
-139.838414
 20
-60.646106
 30
0.0
 40
4.2
100
AcDbArc
 50
131.945518
 51
217.267545
  0
ARC
  5
37B
100
AcDbEntity
  8
2
100
AcDbCircle
 10
-147.838414
 20
-53.146106
 30
0.0
 40
11.9
100
AcDbArc
 50
300.020559
 51
347.925147
  0
ARC
  5
37C
100
AcDbEntity
  8
2
100
AcDbCircle
 10
-139.038414
 20
-55.246106
 30
0.0
 40
3.0
100
AcDbArc
 50
0.0
 51
23.288889
  0
LINE
  5
37D
100
AcDbEntity
  8
2
100
AcDbLine
 10
-152.038414
 20
117.353894
 30
0.0
 11
-152.038414
 21
-51.546106
 31
0.0
  0
ARC
  5
37E
100
AcDbEntity
  8
2
100
AcDbCircle
 10
-144.030454
 20
-58.354065
 30
0.0
 40
7.992041
100
AcDbArc
 50
189.335119
 51
360.0
  0
ARC
  5
37F
100
AcDbEntity
  8
2
100
AcDbCircle
 10
-142.385027
 20
-62.583827
 30
0.0
 40
1.0
100
AcDbArc
 50
217.267545
 51
300.020559
  0
ARC
  5
380
100
AcDbEntity
  8
2
100
AcDbCircle
 10
-133.159866
 20
-52.715755
 30
0.0
 40
3.4
100
AcDbArc
 50
176.638278
 51
203.288889
  0
ARC
  5
381
100
AcDbEntity
  8
2
100
AcDbCircle
 10
-139.135325
 20
-55.007891
 30
0.0
 40
3.0
100
AcDbArc
 50
347.925147
 51
20.986403
  0
ARC
  5
382
100
AcDbEntity
  8
2
100
AcDbCircle
 10
-141.977369
 20
-58.266007
 30
0.0
 40
1.0
100
AcDbArc
 50
101.678445
 51
131.945518
  0
ARC
  5
383
100
AcDbEntity
  8
2
100
AcDbCircle
 10
-143.738414
 20
-49.746106
 30
0.0
 40
7.7
100
AcDbArc
 50
281.678445
 51
360.0
  0
ARC
  5
384
100
AcDbEntity
  8
2
100
AcDbCircle
 10
-141.643248
 20
-53.157729
 30
0.0
 40
2.0
100
AcDbArc
 50
196.000716
 51
309.814743
  0
ARC
  5
385
100
AcDbEntity
  8
2
100
AcDbCircle
 10
-141.026041
 20
-45.915813
 30
0.0
 40
2.0
100
AcDbArc
 50
116.844811
 51
154.256542
  0
ARC
  5
386
100
AcDbEntity
  8
2
100
AcDbCircle
 10
-139.268034
 20
-47.70014
 30
0.0
 40
3.0
100
AcDbArc
 50
344.699906
 51
27.185481
  0
ARC
  5
387
100
AcDbEntity
  8
2
100
AcDbCircle
 10
-141.038414
 20
-36.54459
 30
0.0
 40
5.0
100
AcDbArc
 50
332.733956
 51
360.0
  0
ARC
  5
388
100
AcDbEntity
  8
2
100
AcDbCircle
 10
-141.150338
 20
-28.974477
 30
0.0
 40
2.0
100
AcDbArc
 50
97.53278
 51
161.56195
  0
ARC
  5
389
100
AcDbEntity
  8
2
100
AcDbCircle
 10
-141.525352
 20
-38.628055
 30
0.0
 40
2.0
100
AcDbArc
 50
193.988737
 51
313.012702
  0
ARC
  5
38A
100
AcDbEntity
  8
2
100
AcDbCircle
 10
-139.26509
 20
-33.123268
 30
0.0
 40
3.0
100
AcDbArc
 50
343.688203
 51
24.449096
  0
ARC
  5
38B
100
AcDbEntity
  8
2
100
AcDbCircle
 10
-141.038414
 20
-21.246106
 30
0.0
 40
5.0
100
AcDbArc
 50
337.380135
 51
360.0
  0
ARC
  5
38C
100
AcDbEntity
  8
2
100
AcDbCircle
 10
-141.233126
 20
-20.929294
 30
0.0
 40
2.0
100
AcDbArc
 50
194.161069
 51
301.500458
  0
ARC
  5
38D
100
AcDbEntity
  8
2
100
AcDbCircle
 10
-141.09515
 20
-7.438738
 30
0.0
 40
2.0
100
AcDbArc
 50
92.459196
 51
164.666975
  0
ARC
  5
38E
100
AcDbEntity
  8
2
100
AcDbCircle
 10
-141.038414
 20
-17.279371
 30
0.0
 40
5.0
100
AcDbArc
 50
0.0
 51
20.899028
  0
ARC
  5
38F
100
AcDbEntity
  8
2
100
AcDbCircle
 10
-139.150979
 20
-16.61553
 30
0.0
 40
3.0
100
AcDbArc
 50
344.573378
 51
21.045359
  0
ARC
  5
390
100
AcDbEntity
  8
2
100
AcDbCircle
 10
-140.038414
 20
-1.199408
 30
0.0
 40
4.0
100
AcDbArc
 50
338.621499
 51
360.0
  0
ARC
  5
391
100
AcDbEntity
  8
2
100
AcDbCircle
 10
-139.038414
 20
-1.246106
 30
0.0
 40
3.0
100
AcDbArc
 50
323.130102
 51
360.0
  0
ARC
  5
392
100
AcDbEntity
  8
2
100
AcDbCircle
 10
-141.081308
 20
16.573637
 30
0.0
 40
2.0
100
AcDbArc
 50
81.124411
 51
167.489802
  0
ARC
  5
393
100
AcDbEntity
  8
2
100
AcDbCircle
 10
-141.148227
 20
1.242098
 30
0.0
 40
2.0
100
AcDbArc
 50
192.010034
 51
297.791668
  0
ARC
  5
394
100
AcDbEntity
  8
2
100
AcDbCircle
 10
-138.038414
 20
3.313994
 30
0.0
 40
2.0
100
AcDbArc
 50
0.0
 51
22.510479
  0
ARC
  5
395
100
AcDbEntity
  8
2
100
AcDbCircle
 10
-138.265053
 20
3.884289
 30
0.0
 40
2.0
100
AcDbArc
 50
327.213701
 51
20.836076
  0
ARC
  5
396
100
AcDbEntity
  8
2
100
AcDbCircle
 10
-138.038414
 20
20.644419
 30
0.0
 40
2.0
100
AcDbArc
 50
284.477512
 51
360.0
  0
ARC
  5
397
100
AcDbEntity
  8
2
100
AcDbCircle
 10
-139.038414
 20
19.590398
 30
0.0
 40
3.0
100
AcDbArc
 50
338.013597
 51
360.0
  0
ARC
  5
398
100
AcDbEntity
  8
2
100
AcDbCircle
 10
-141.07135
 20
25.389116
 30
0.0
 40
2.0
100
AcDbArc
 50
193.347693
 51
282.984112
  0
ARC
  5
399
100
AcDbEntity
  8
2
100
AcDbCircle
 10
-141.043611
 20
42.034719
 30
0.0
 40
2.0
100
AcDbArc
 50
76.803615
 51
166.46135
  0
ARC
  5
39A
100
AcDbEntity
  8
2
100
AcDbCircle
 10
-138.435525
 20
26.446755
 30
0.0
 40
2.0
100
AcDbArc
 50
300.742694
 51
17.400637
  0
ARC
  5
39B
100
AcDbEntity
  8
2
100
AcDbCircle
 10
-139.038414
 20
25.106965
 30
0.0
 40
3.0
100
AcDbArc
 50
0.0
 51
19.90826
  0
ARC
  5
39C
100
AcDbEntity
  8
2
100
AcDbCircle
 10
-138.038414
 20
42.023482
 30
0.0
 40
2.0
100
AcDbArc
 50
339.678608
 51
360.0
  0
ARC
  5
39D
100
AcDbEntity
  8
2
100
AcDbCircle
 10
-139.601765
 20
40.446719
 30
0.0
 40
3.0
100
AcDbArc
 50
344.298213
 51
62.801464
  0
LINE
  5
39E
100
AcDbEntity
  8
2
100
AcDbLine
 10
-136.038414
 20
42.023482
 30
0.0
 11
-136.038414
 21
47.71739
 31
0.0
  0
LINE
  5
39F
100
AcDbEntity
  8
2
100
AcDbLine
 10
-136.038414
 20
64.053894
 30
0.0
 11
-136.038414
 21
68.507197
 31
0.0
  0
LINE
  5
3A0
100
AcDbEntity
  8
2
100
AcDbLine
 10
-136.038414
 20
84.587159
 30
0.0
 11
-136.038414
 21
88.553894
 31
0.0
  0
LINE
  5
3A1
100
AcDbEntity
  8
2
100
AcDbLine
 10
-136.038414
 20
101.353894
 30
0.0
 11
-136.038414
 21
103.852379
 31
0.0
  0
LINE
  5
3A2
100
AcDbEntity
  8
2
100
AcDbLine
 10
-136.038414
 20
115.953894
 30
0.0
 11
-136.038414
 21
117.053894
 31
0.0
  0
LINE
  5
3A3
100
AcDbEntity
  8
2
100
AcDbLine
 10
-136.038414
 20
122.553894
 30
0.0
 11
-136.038414
 21
125.661853
 31
0.0
  0
LINE
  5
3A4
100
AcDbEntity
  8
2
100
AcDbLine
 10
-136.038414
 20
103.953894
 30
0.0
 11
-136.038414
 21
101.353894
 31
0.0
  0
LINE
  5
3A5
100
AcDbEntity
  8
2
100
AcDbLine
 10
-136.038414
 20
88.353894
 30
0.0
 11
-136.038414
 21
84.553894
 31
0.0
  0
LINE
  5
3A6
100
AcDbEntity
  8
2
100
AcDbLine
 10
-136.038414
 20
68.453894
 30
0.0
 11
-136.038414
 21
63.993795
 31
0.0
  0
ARC
  5
3A7
100
AcDbEntity
  8
2
100
AcDbCircle
 10
-105.838414
 20
58.553894
 30
0.0
 40
38.1
100
AcDbArc
 50
167.989966
 51
192.510198
  0
ARC
  5
3A8
100
AcDbEntity
  8
2
100
AcDbCircle
 10
-118.638414
 20
55.953894
 30
0.0
 40
19.0
100
AcDbArc
 50
157.489521
 51
201.986403
  0
ARC
  5
3A9
100
AcDbEntity
  8
2
100
AcDbCircle
 10
-144.738414
 20
59.253894
 30
0.0
 40
9.7
100
AcDbArc
 50
32.786299
 51
62.208332
  0
ARC
  5
3AA
100
AcDbEntity
  8
2
100
AcDbCircle
 10
-139.538414
 20
40.853894
 30
0.0
 40
8.0
100
AcDbArc
 50
75.522488
 51
98.875589
  0
ARC
  5
3AB
100
AcDbEntity
  8
2
100
AcDbCircle
 10
-115.538414
 20
81.753894
 30
0.0
 40
28.5
100
AcDbArc
 50
165.838931
 51
195.333025
  0
ARC
  5
3AC
100
AcDbEntity
  8
2
100
AcDbCircle
 10
-119.738414
 20
76.453894
 30
0.0
 40
17.8
100
AcDbArc
 50
159.100972
 51
201.378501
  0
ARC
  5
3AD
100
AcDbEntity
  8
2
100
AcDbCircle
 10
-144.838414
 20
82.353894
 30
0.0
 40
8.9
100
AcDbArc
 50
15.426622
 51
58.499542
  0
ARC
  5
3AE
100
AcDbEntity
  8
2
100
AcDbCircle
 10
-141.438414
 20
66.753894
 30
0.0
 40
6.0
100
AcDbArc
 50
36.869898
 51
87.540804
  0
ARC
  5
3AF
100
AcDbEntity
  8
2
100
AcDbCircle
 10
-124.738414
 20
101.753894
 30
0.0
 40
19.3
100
AcDbArc
 50
166.011263
 51
198.43805
  0
ARC
  5
3B0
100
AcDbEntity
  8
2
100
AcDbCircle
 10
-126.338414
 20
94.553894
 30
0.0
 40
11.2
100
AcDbArc
 50
154.391695
 51
194.005872
  0
ARC
  5
3B1
100
AcDbEntity
  8
2
100
AcDbCircle
 10
-141.038414
 20
101.353894
 30
0.0
 40
5.0
100
AcDbArc
 50
336.931267
 51
360.0
  0
ARC
  5
3B2
100
AcDbEntity
  8
2
100
AcDbCircle
 10
-149.438414
 20
97.453894
 30
0.0
 40
13.6
100
AcDbArc
 50
16.311797
 51
46.987298
  0
ARC
  5
3B3
100
AcDbEntity
  8
2
100
AcDbCircle
 10
-142.238414
 20
88.053894
 30
0.0
 40
6.3
100
AcDbArc
 50
22.619865
 51
82.46722
  0
ARC
  5
3B4
100
AcDbEntity
  8
2
100
AcDbCircle
 10
-131.838414
 20
117.653894
 30
0.0
 40
12.2
100
AcDbArc
 50
163.999284
 51
205.743458
  0
ARC
  5
3B5
100
AcDbEntity
  8
2
100
AcDbCircle
 10
-129.038414
 20
109.753894
 30
0.0
 40
8.5
100
AcDbArc
 50
152.677778
 51
198.916988
  0
ARC
  5
3B6
100
AcDbEntity
  8
2
100
AcDbCircle
 10
-141.038414
 20
115.953894
 30
0.0
 40
5.0
100
AcDbArc
 50
332.677778
 51
360.0
  0
ARC
  5
3B7
100
AcDbEntity
  8
2
100
AcDbCircle
 10
-148.238414
 20
112.553894
 30
0.0
 40
12.3
100
AcDbArc
 50
15.300094
 51
50.185257
  0
ARC
  5
3B8
100
AcDbEntity
  8
2
100
AcDbCircle
 10
-147.438414
 20
100.553894
 30
0.0
 40
12.2
100
AcDbArc
 50
27.266044
 51
63.155189
  0
ARC
  5
3B9
100
AcDbEntity
  8
2
100
AcDbCircle
 10
-139.838414
 20
127.953894
 30
0.0
 40
4.2
100
AcDbArc
 50
142.732455
 51
228.054482
  0
ARC
  5
3BA
100
AcDbEntity
  8
2
100
AcDbCircle
 10
-147.838414
 20
120.453894
 30
0.0
 40
11.9
100
AcDbArc
 50
12.074853
 51
59.979441
  0
ARC
  5
3BB
100
AcDbEntity
  8
2
100
AcDbCircle
 10
-139.038414
 20
122.553894
 30
0.0
 40
3.0
100
AcDbArc
 50
336.711111
 51
360.0
  0
ARC
  5
3BC
100
AcDbEntity
  8
2
100
AcDbCircle
 10
-144.030454
 20
125.661853
 30
0.0
 40
7.992041
100
AcDbArc
 50
0.0
 51
170.664881
  0
ARC
  5
3BD
100
AcDbEntity
  8
2
100
AcDbCircle
 10
-142.385027
 20
129.891615
 30
0.0
 40
1.0
100
AcDbArc
 50
59.979441
 51
142.732455
  0
ARC
  5
3BE
100
AcDbEntity
  8
2
100
AcDbCircle
 10
-133.159866
 20
120.023543
 30
0.0
 40
3.4
100
AcDbArc
 50
156.711111
 51
183.361722
  0
ARC
  5
3BF
100
AcDbEntity
  8
2
100
AcDbCircle
 10
-139.135325
 20
122.31568
 30
0.0
 40
3.0
100
AcDbArc
 50
339.013597
 51
12.074853
  0
ARC
  5
3C0
100
AcDbEntity
  8
2
100
AcDbCircle
 10
-143.738414
 20
117.053894
 30
0.0
 40
7.7
100
AcDbArc
 50
0.0
 51
78.321555
  0
ARC
  5
3C1
100
AcDbEntity
  8
2
100
AcDbCircle
 10
-141.643248
 20
120.465518
 30
0.0
 40
2.0
100
AcDbArc
 50
50.185257
 51
163.999284
  0
ARC
  5
3C2
100
AcDbEntity
  8
2
100
AcDbCircle
 10
-141.026041
 20
113.223602
 30
0.0
 40
2.0
100
AcDbArc
 50
205.743458
 51
243.155189
  0
ARC
  5
3C3
100
AcDbEntity
  8
2
100
AcDbCircle
 10
-139.268034
 20
115.007928
 30
0.0
 40
3.0
100
AcDbArc
 50
332.814519
 51
15.300094
  0
ARC
  5
3C4
100
AcDbEntity
  8
2
100
AcDbCircle
 10
-141.038414
 20
103.852379
 30
0.0
 40
5.0
100
AcDbArc
 50
0.0
 51
27.266044
  0
ARC
  5
3C5
100
AcDbEntity
  8
2
100
AcDbCircle
 10
-141.150338
 20
96.282265
 30
0.0
 40
2.0
100
AcDbArc
 50
198.43805
 51
262.46722
  0
ARC
  5
3C6
100
AcDbEntity
  8
2
100
AcDbCircle
 10
-141.525352
 20
105.935843
 30
0.0
 40
2.0
100
AcDbArc
 50
46.987298
 51
166.011263
  0
ARC
  5
3C7
100
AcDbEntity
  8
2
100
AcDbCircle
 10
-139.26509
 20
100.431056
 30
0.0
 40
3.0
100
AcDbArc
 50
335.550904
 51
16.311797
  0
ARC
  5
3C8
100
AcDbEntity
  8
2
100
AcDbCircle
 10
-141.038414
 20
88.553894
 30
0.0
 40
5.0
100
AcDbArc
 50
0.0
 51
22.619865
  0
ARC
  5
3C9
100
AcDbEntity
  8
2
100
AcDbCircle
 10
-141.233126
 20
88.237082
 30
0.0
 40
2.0
100
AcDbArc
 50
58.499542
 51
165.838931
  0
ARC
  5
3CA
100
AcDbEntity
  8
2
100
AcDbCircle
 10
-141.09515
 20
74.746526
 30
0.0
 40
2.0
100
AcDbArc
 50
195.333025
 51
267.540804
  0
ARC
  5
3CB
100
AcDbEntity
  8
2
100
AcDbCircle
 10
-141.038414
 20
84.587159
 30
0.0
 40
5.0
100
AcDbArc
 50
339.100972
 51
360.0
  0
ARC
  5
3CC
100
AcDbEntity
  8
2
100
AcDbCircle
 10
-139.150979
 20
83.923318
 30
0.0
 40
3.0
100
AcDbArc
 50
338.954641
 51
15.426622
  0
ARC
  5
3CD
100
AcDbEntity
  8
2
100
AcDbCircle
 10
-140.038414
 20
68.507197
 30
0.0
 40
4.0
100
AcDbArc
 50
0.0
 51
21.378501
  0
ARC
  5
3CE
100
AcDbEntity
  8
2
100
AcDbCircle
 10
-139.038414
 20
68.553894
 30
0.0
 40
3.0
100
AcDbArc
 50
0.0
 51
36.869898
  0
ARC
  5
3CF
100
AcDbEntity
  8
2
100
AcDbCircle
 10
-141.081308
 20
50.734151
 30
0.0
 40
2.0
100
AcDbArc
 50
192.510198
 51
278.875589
  0
ARC
  5
3D0
100
AcDbEntity
  8
2
100
AcDbCircle
 10
-141.148227
 20
66.06569
 30
0.0
 40
2.0
100
AcDbArc
 50
62.208332
 51
167.989966
  0
ARC
  5
3D1
100
AcDbEntity
  8
2
100
AcDbCircle
 10
-138.038414
 20
63.993795
 30
0.0
 40
2.0
100
AcDbArc
 50
337.489521
 51
360.0
  0
ARC
  5
3D2
100
AcDbEntity
  8
2
100
AcDbCircle
 10
-138.265053
 20
63.4235
 30
0.0
 40
2.0
100
AcDbArc
 50
339.163924
 51
32.786299
  0
ARC
  5
3D3
100
AcDbEntity
  8
2
100
AcDbCircle
 10
-138.038414
 20
46.663369
 30
0.0
 40
2.0
100
AcDbArc
 50
0.0
 51
75.522488
  0
ARC
  5
3D4
100
AcDbEntity
  8
2
100
AcDbCircle
 10
-139.038414
 20
47.71739
 30
0.0
 40
3.0
100
AcDbArc
 50
0.0
 51
21.986403
  0
ARC
  5
3D5
100
AcDbEntity
  8
2
100
AcDbCircle
 10
-624.038414
 20
-55.346106
 30
0.0
 40
3.0
100
AcDbArc
 50
180.0
 51
270.0
  0
LINE
  5
3D6
100
AcDbEntity
  8
2
100
AcDbLine
 10
-600.038414
 20
-61.346106
 30
0.0
 11
-600.038414
 21
-64.346106
 31
0.0
  0
LINE
  5
3D7
100
AcDbEntity
  8
2
100
AcDbLine
 10
-460.038414
 20
-62.198857
 30
0.0
 11
-460.038414
 21
-64.346106
 31
0.0
  0
LINE
  5
3D8
100
AcDbEntity
  8
2
100
AcDbLine
 10
-460.038414
 20
-64.346106
 30
0.0
 11
-600.038414
 21
-64.346106
 31
0.0
  0
LINE
  5
3D9
100
AcDbEntity
  8
2
100
AcDbLine
 10
-624.038414
 20
-58.346106
 30
0.0
 11
-470.730249
 21
-58.346106
 31
0.0
  0
LINE
  5
3DA
100
AcDbEntity
  8
2
100
AcDbLine
 10
-392.346578
 20
-58.346106
 30
0.0
 11
-391.038414
 21
-58.346106
 31
0.0
  0
LINE
  5
3DB
100
AcDbEntity
  8
2
100
AcDbLine
 10
-532.038414
 20
153.153894
 30
0.0
 11
-532.038414
 21
144.853894
 31
0.0
  0
LINE
  5
3DC
100
AcDbEntity
  8
2
100
AcDbLine
 10
-528.038414
 20
153.153894
 30
0.0
 11
-528.038414
 21
144.853894
 31
0.0
  0
CIRCLE
  5
3DD
100
AcDbEntity
  8
2
100
AcDbCircle
 10
-530.038414
 20
461.253894
 30
0.0
 40
42.5
  0
LINE
  5
3DE
100
AcDbEntity
  8
2
100
AcDbLine
 10
-560.460609
 20
468.753894
 30
0.0
 11
-539.523366
 21
468.753894
 31
0.0
  0
LINE
  5
3DF
100
AcDbEntity
  8
2
100
AcDbLine
 10
-560.460609
 20
453.753894
 30
0.0
 11
-539.523366
 21
453.753894
 31
0.0
  0
LINE
  5
3E0
100
AcDbEntity
  8
2
100
AcDbLine
 10
-520.553461
 20
453.753894
 30
0.0
 11
-499.616218
 21
453.753894
 31
0.0
  0
LINE
  5
3E1
100
AcDbEntity
  8
2
100
AcDbLine
 10
-528.038414
 20
439.231419
 30
0.0
 11
-528.038414
 21
437.087802
 31
0.0
  0
LINE
  5
3E2
100
AcDbEntity
  8
2
100
AcDbLine
 10
-532.038414
 20
439.231419
 30
0.0
 11
-532.038414
 21
437.087802
 31
0.0
  0
LINE
  5
3E3
100
AcDbEntity
  8
2
100
AcDbLine
 10
-528.038414
 20
483.276369
 30
0.0
 11
-528.038414
 21
485.419986
 31
0.0
  0
LINE
  5
3E4
100
AcDbEntity
  8
2
100
AcDbLine
 10
-532.038414
 20
483.276369
 30
0.0
 11
-532.038414
 21
485.419986
 31
0.0
  0
LINE
  5
3E5
100
AcDbEntity
  8
2
100
AcDbLine
 10
-520.553461
 20
468.753894
 30
0.0
 11
-499.616218
 21
468.753894
 31
0.0
  0
ARC
  5
3E6
100
AcDbEntity
  8
2
100
AcDbCircle
 10
-530.038414
 20
131.653894
 30
0.0
 40
34.0
100
AcDbArc
 50
22.844739
 51
157.155261
  0
CIRCLE
  5
3E7
100
AcDbEntity
  8
2
100
AcDbCircle
 10
-530.038414
 20
461.253894
 30
0.0
 40
31.33305
  0
ARC
  5
3E8
100
AcDbEntity
  8
2
100
AcDbCircle
 10
-567.463023
 20
461.580743
 30
0.0
 40
45.0
100
AcDbArc
 50
12.236103
 51
30.645688
  0
ARC
  5
3E9
100
AcDbEntity
  8
2
100
AcDbCircle
 10
-492.613804
 20
461.580743
 30
0.0
 40
45.0
100
AcDbArc
 50
149.354312
 51
167.763897
  0
ARC
  5
3EA
100
AcDbEntity
  8
2
100
AcDbCircle
 10
-530.038414
 20
483.753894
 30
0.0
 40
1.5
100
AcDbArc
 50
30.645688
 51
149.354312
  0
ARC
  5
3EB
100
AcDbEntity
  8
2
100
AcDbCircle
 10
-520.553461
 20
471.753894
 30
0.0
 40
3.0
100
AcDbArc
 50
192.236103
 51
270.0
  0
ARC
  5
3EC
100
AcDbEntity
  8
2
100
AcDbCircle
 10
-539.523366
 20
471.753894
 30
0.0
 40
3.0
100
AcDbArc
 50
270.0
 51
347.763897
  0
ARC
  5
3ED
100
AcDbEntity
  8
2
100
AcDbCircle
 10
-567.463023
 20
460.927045
 30
0.0
 40
45.0
100
AcDbArc
 50
329.354312
 51
347.763897
  0
ARC
  5
3EE
100
AcDbEntity
  8
2
100
AcDbCircle
 10
-492.613804
 20
460.927045
 30
0.0
 40
45.0
100
AcDbArc
 50
192.236103
 51
210.645688
  0
ARC
  5
3EF
100
AcDbEntity
  8
2
100
AcDbCircle
 10
-530.038414
 20
438.753894
 30
0.0
 40
1.5
100
AcDbArc
 50
210.645688
 51
329.354312
  0
ARC
  5
3F0
100
AcDbEntity
  8
2
100
AcDbCircle
 10
-520.553461
 20
450.753894
 30
0.0
 40
3.0
100
AcDbArc
 50
90.0
 51
167.763897
  0
ARC
  5
3F1
100
AcDbEntity
  8
2
100
AcDbCircle
 10
-539.523366
 20
450.753894
 30
0.0
 40
3.0
100
AcDbArc
 50
12.236103
 51
90.0
  0
ARC
  5
3F2
100
AcDbEntity
  8
2
100
AcDbCircle
 10
-530.038414
 20
461.253894
 30
0.0
 40
24.248711
100
AcDbArc
 50
18.016736
 51
161.983264
  0
ARC
  5
3F3
100
AcDbEntity
  8
2
100
AcDbCircle
 10
-530.038414
 20
461.253894
 30
0.0
 40
24.248711
100
AcDbArc
 50
198.016736
 51
341.983264
  0
ARC
  5
3F4
100
AcDbEntity
  8
2
100
AcDbCircle
 10
87.461586
 20
131.653894
 30
0.0
 40
34.0
100
AcDbArc
 50
45.099128
 51
134.900872
  0
LINE
  5
3F5
100
AcDbEntity
  8
2
100
AcDbLine
 10
94.961581
 20
163.25938
 30
0.0
 11
94.961586
 21
144.853894
 31
0.0
  0
LINE
  5
3F6
100
AcDbEntity
  8
2
100
AcDbLine
 10
79.961586
 20
163.25938
 30
0.0
 11
79.961586
 21
144.853894
 31
0.0
  0
LINE
  5
3F7
100
AcDbEntity
  8
2
100
AcDbLine
 10
63.461586
 20
155.737083
 30
0.0
 11
63.461586
 21
154.010996
 31
0.0
  0
LINE
  5
3F8
100
AcDbEntity
  8
2
100
AcDbLine
 10
111.461586
 20
155.737083
 30
0.0
 11
111.461586
 21
154.010996
 31
0.0
  0
ARC
  5
3F9
100
AcDbEntity
  8
2
100
AcDbCircle
 10
-530.038414
 20
130.153894
 30
0.0
 40
28.0
100
AcDbArc
 50
34.712682
 51
81.884254
  0
ARC
  5
3FA
100
AcDbEntity
  8
2
100
AcDbCircle
 10
-530.038414
 20
130.153894
 30
0.0
 40
28.0
100
AcDbArc
 50
98.115746
 51
145.287318
  0
ARC
  5
3FB
100
AcDbEntity
  8
2
100
AcDbCircle
 10
87.461586
 20
133.653894
 30
0.0
 40
31.0
100
AcDbArc
 50
28.453097
 51
48.922243
  0
ARC
  5
3FC
100
AcDbEntity
  8
2
100
AcDbCircle
 10
87.461586
 20
133.653894
 30
0.0
 40
31.0
100
AcDbArc
 50
131.077757
 51
151.546903
  0
ARC
  5
3FD
100
AcDbEntity
  8
2
100
AcDbCircle
 10
87.461586
 20
130.153894
 30
0.0
 40
28.0
100
AcDbArc
 50
105.536794
 51
145.287318
  0
ARC
  5
3FE
100
AcDbEntity
  8
2
100
AcDbCircle
 10
87.461586
 20
130.153894
 30
0.0
 40
28.0
100
AcDbArc
 50
34.712682
 51
74.463206
  0
ARC
  5
3FF
100
AcDbEntity
  8
2
100
AcDbCircle
 10
-531.038414
 20
153.153894
 30
0.0
 40
1.0
100
AcDbArc
 50
90.0
 51
180.0
  0
ARC
  5
400
100
AcDbEntity
  8
2
100
AcDbCircle
 10
-529.038414
 20
153.153894
 30
0.0
 40
1.0
100
AcDbArc
 50
0.0
 51
90.0
  0
LINE
  5
401
100
AcDbEntity
  8
2
100
AcDbLine
 10
-531.038414
 20
154.153894
 30
0.0
 11
-530.673647
 21
154.153899
 31
0.0
  0
LINE
  5
402
100
AcDbEntity
  8
2
100
AcDbLine
 10
-529.402947
 20
154.154008
 30
0.0
 11
-529.038414
 21
154.153894
 31
0.0
  0
LINE
  5
403
100
AcDbEntity
  8
2
100
AcDbLine
 10
-538.854081
 20
438.664427
 30
0.0
 11
-536.855212
 21
443.490124
 31
0.0
  0
LINE
  5
404
100
AcDbEntity
  8
2
100
AcDbLine
 10
-522.297736
 20
478.634981
 30
0.0
 11
-520.298867
 21
483.460677
 31
0.0
  0
LINE
  5
405
100
AcDbEntity
  8
2
100
AcDbLine
 10
-539.77796
 20
439.047111
 30
0.0
 11
-537.779091
 21
443.872808
 31
0.0
  0
LINE
  5
406
100
AcDbEntity
  8
2
100
AcDbLine
 10
-523.221615
 20
479.017664
 30
0.0
 11
-521.222746
 21
483.843361
 31
0.0
  0
LINE
  5
407
100
AcDbEntity
  8
2
100
AcDbLine
 10
-546.827643
 20
443.757558
 30
0.0
 11
-543.134214
 21
447.450987
 31
0.0
  0
LINE
  5
408
100
AcDbEntity
  8
2
100
AcDbLine
 10
-516.235506
 20
474.349695
 30
0.0
 11
-512.542077
 21
478.043124
 31
0.0
  0
LINE
  5
409
100
AcDbEntity
  8
2
100
AcDbLine
 10
-547.53475
 20
444.464665
 30
0.0
 11
-543.841321
 21
448.158093
 31
0.0
  0
LINE
  5
40A
100
AcDbEntity
  8
2
100
AcDbLine
 10
-516.942613
 20
475.056802
 30
0.0
 11
-513.249184
 21
478.75023
 31
0.0
  0
LINE
  5
40B
100
AcDbEntity
  8
2
100
AcDbLine
 10
-552.245197
 20
451.514347
 30
0.0
 11
-547.4195
 21
453.513216
 31
0.0
  0
LINE
  5
40C
100
AcDbEntity
  8
2
100
AcDbLine
 10
-510.625249
 20
468.753894
 30
0.0
 11
-507.448947
 21
470.069562
 31
0.0
  0
LINE
  5
40D
100
AcDbEntity
  8
2
100
AcDbLine
 10
-552.62788
 20
452.438227
 30
0.0
 11
-549.451578
 21
453.753894
 31
0.0
  0
LINE
  5
40E
100
AcDbEntity
  8
2
100
AcDbLine
 10
-512.657327
 20
468.994572
 30
0.0
 11
-507.83163
 21
470.993441
 31
0.0
  0
ARC
  5
40F
100
AcDbEntity
  8
2
100
AcDbCircle
 10
-537.317152
 20
443.681466
 30
0.0
 40
0.5
100
AcDbArc
 50
337.5
 51
157.5
  0
ARC
  5
410
100
AcDbEntity
  8
2
100
AcDbCircle
 10
-543.487768
 20
447.80454
 30
0.0
 40
0.5
100
AcDbArc
 50
315.0
 51
135.0
  0
ARC
  5
411
100
AcDbEntity
  8
2
100
AcDbCircle
 10
-547.610842
 20
453.975156
 30
0.0
 40
0.5
100
AcDbArc
 50
292.5
 51
333.734975
  0
ARC
  5
412
100
AcDbEntity
  8
2
100
AcDbCircle
 10
-522.759675
 20
478.826322
 30
0.0
 40
0.5
100
AcDbArc
 50
157.5
 51
337.5
  0
ARC
  5
413
100
AcDbEntity
  8
2
100
AcDbCircle
 10
-516.589059
 20
474.703248
 30
0.0
 40
0.5
100
AcDbArc
 50
135.0
 51
315.0
  0
ARC
  5
414
100
AcDbEntity
  8
2
100
AcDbCircle
 10
-512.465985
 20
468.532632
 30
0.0
 40
0.5
100
AcDbArc
 50
112.5
 51
153.734975
  0
LINE
  5
415
100
AcDbEntity
  8
2
100
AcDbLine
 10
-513.237049
 20
452.4002
 30
0.0
 11
-511.215004
 21
451.562641
 31
0.0
  0
ARC
  5
416
100
AcDbEntity
  8
2
100
AcDbCircle
 10
-512.567298
 20
454.017121
 30
0.0
 40
1.750143
100
AcDbArc
 50
188.650293
 51
247.5
  0
ARC
  5
417
100
AcDbEntity
  8
2
100
AcDbCircle
 10
-510.545253
 20
453.179563
 30
0.0
 40
1.750143
100
AcDbArc
 50
247.5
 51
19.157293
  0
LINE
  5
418
100
AcDbEntity
  8
2
100
AcDbLine
 10
-546.839778
 20
470.107588
 30
0.0
 11
-548.861823
 21
470.945147
 31
0.0
  0
ARC
  5
419
100
AcDbEntity
  8
2
100
AcDbCircle
 10
-547.509529
 20
468.490667
 30
0.0
 40
1.750143
100
AcDbArc
 50
8.650293
 51
67.5
  0
ARC
  5
41A
100
AcDbEntity
  8
2
100
AcDbCircle
 10
-549.531574
 20
469.328226
 30
0.0
 40
1.750143
100
AcDbArc
 50
67.5
 51
199.157293
  0
ARC
  5
41B
100
AcDbEntity
  8
2
100
AcDbCircle
 10
-494.638018
 20
134.419523
 30
0.0
 40
45.274917
100
AcDbArc
 50
159.10214
 51
166.675437
  0
ARC
  5
41C
100
AcDbEntity
  8
2
100
AcDbCircle
 10
-495.561898
 20
134.419523
 30
0.0
 40
45.274917
100
AcDbArc
 50
158.681079
 51
166.675437
  0
ARC
  5
41D
100
AcDbEntity
  8
2
100
AcDbCircle
 10
-537.33725
 20
150.722947
 30
0.0
 40
0.430947
100
AcDbArc
 50
339.10214
 51
158.681079
  0
ARC
  5
41E
100
AcDbEntity
  8
2
100
AcDbCircle
 10
-518.608485
 20
132.652642
 30
0.0
 40
30.472934
100
AcDbArc
 50
143.677597
 51
156.39704
  0
ARC
  5
41F
100
AcDbEntity
  8
2
100
AcDbCircle
 10
-519.315591
 20
132.652642
 30
0.0
 40
30.472934
100
AcDbArc
 50
142.882669
 51
156.39704
  0
ARC
  5
420
100
AcDbEntity
  8
2
100
AcDbCircle
 10
-543.388766
 20
150.87049
 30
0.0
 40
0.283404
100
AcDbArc
 50
323.677597
 51
142.882669
  0
ARC
  5
421
100
AcDbEntity
  8
2
100
AcDbCircle
 10
-527.364072
 20
130.88576
 30
0.0
 40
28.197761
100
AcDbArc
 50
134.711482
 51
150.306296
  0
ARC
  5
422
100
AcDbEntity
  8
2
100
AcDbCircle
 10
-527.746756
 20
130.88576
 30
0.0
 40
28.197761
100
AcDbArc
 50
134.156238
 51
150.306296
  0
ARC
  5
423
100
AcDbEntity
  8
2
100
AcDbCircle
 10
-547.296488
 20
151.019937
 30
0.0
 40
0.133957
100
AcDbArc
 50
314.711482
 51
134.156238
  0
ARC
  5
424
100
AcDbEntity
  8
2
100
AcDbCircle
 10
52.061191
 20
134.419523
 30
0.0
 40
45.274917
100
AcDbArc
 50
13.324563
 51
18.638604
  0
ARC
  5
425
100
AcDbEntity
  8
2
100
AcDbCircle
 10
52.985071
 20
134.419523
 30
0.0
 40
45.274917
100
AcDbArc
 50
13.324563
 51
21.318921
  0
ARC
  5
426
100
AcDbEntity
  8
2
100
AcDbCircle
 10
94.760423
 20
150.722947
 30
0.0
 40
0.430947
100
AcDbArc
 50
21.318921
 51
62.173379
  0
ARC
  5
427
100
AcDbEntity
  8
2
100
AcDbCircle
 10
76.031658
 20
132.652642
 30
0.0
 40
30.472934
100
AcDbArc
 50
23.60296
 51
36.322403
  0
ARC
  5
428
100
AcDbEntity
  8
2
100
AcDbCircle
 10
76.738764
 20
132.652642
 30
0.0
 40
30.472934
100
AcDbArc
 50
23.60296
 51
37.117331
  0
ARC
  5
429
100
AcDbEntity
  8
2
100
AcDbCircle
 10
100.811939
 20
150.87049
 30
0.0
 40
0.283404
100
AcDbArc
 50
37.117331
 51
216.322403
  0
ARC
  5
42A
100
AcDbEntity
  8
2
100
AcDbCircle
 10
84.787245
 20
130.88576
 30
0.0
 40
28.197761
100
AcDbArc
 50
29.693704
 51
45.288518
  0
ARC
  5
42B
100
AcDbEntity
  8
2
100
AcDbCircle
 10
85.169929
 20
130.88576
 30
0.0
 40
28.197761
100
AcDbArc
 50
29.693704
 51
45.843762
  0
ARC
  5
42C
100
AcDbEntity
  8
2
100
AcDbCircle
 10
104.719661
 20
151.019937
 30
0.0
 40
0.133957
100
AcDbArc
 50
45.843762
 51
225.288518
  0
LINE
  5
42D
100
AcDbEntity
  8
2
100
AcDbLine
 10
44.961586
 20
144.853894
 30
0.0
 11
129.961586
 21
144.853894
 31
0.0
  0
LINE
  5
42E
100
AcDbEntity
  8
2
100
AcDbLine
 10
-487.538414
 20
144.853894
 30
0.0
 11
-572.538414
 21
144.853894
 31
0.0
  0
ARC
  5
42F
100
AcDbEntity
  8
2
100
AcDbCircle
 10
-530.038414
 20
131.653894
 30
0.0
 40
33.162479
100
AcDbArc
 50
104.962752
 51
150.128593
  0
ARC
  5
430
100
AcDbEntity
  8
2
100
AcDbCircle
 10
-524.483865
 20
163.643757
 30
0.0
 40
10.0
100
AcDbArc
 50
202.238154
 51
227.992896
  0
ARC
  5
431
100
AcDbEntity
  8
2
100
AcDbCircle
 10
-537.826095
 20
160.79368
 30
0.0
 40
3.0
100
AcDbArc
 50
42.388379
 51
104.962752
  0
ARC
  5
432
100
AcDbEntity
  8
2
100
AcDbCircle
 10
-542.99624
 20
156.074612
 30
0.0
 40
10.0
100
AcDbArc
 50
22.238154
 51
42.388379
  0
ARC
  5
433
100
AcDbEntity
  8
2
100
AcDbCircle
 10
-535.592962
 20
163.643757
 30
0.0
 40
10.0
100
AcDbArc
 50
312.007104
 51
337.761846
  0
ARC
  5
434
100
AcDbEntity
  8
2
100
AcDbCircle
 10
-517.080587
 20
156.074612
 30
0.0
 40
10.0
100
AcDbArc
 50
137.611621
 51
157.761846
  0
ARC
  5
435
100
AcDbEntity
  8
2
100
AcDbCircle
 10
-522.250732
 20
160.79368
 30
0.0
 40
3.0
100
AcDbArc
 50
75.037248
 51
137.611621
  0
ARC
  5
436
100
AcDbEntity
  8
2
100
AcDbCircle
 10
-530.038414
 20
131.653894
 30
0.0
 40
33.162479
100
AcDbArc
 50
29.871407
 51
75.037248
  0
ARC
  5
437
100
AcDbEntity
  8
2
100
AcDbCircle
 10
-530.038414
 20
157.476344
 30
0.0
 40
1.7
100
AcDbArc
 50
227.992896
 51
312.007104
  0
ARC
  5
438
100
AcDbEntity
  8
2
100
AcDbCircle
 10
-529.563523
 20
130.831359
 30
0.0
 40
32.849358
100
AcDbArc
 50
105.470231
 51
147.621493
  0
ARC
  5
439
100
AcDbEntity
  8
2
100
AcDbCircle
 10
-523.529913
 20
163.752255
 30
0.0
 40
12.0
100
AcDbArc
 50
200.135943
 51
231.694293
  0
ARC
  5
43A
100
AcDbEntity
  8
2
100
AcDbCircle
 10
-540.429726
 20
157.555777
 30
0.0
 40
6.0
100
AcDbArc
 50
20.135943
 51
48.747449
  0
ARC
  5
43B
100
AcDbEntity
  8
2
100
AcDbCircle
 10
-537.792209
 20
160.563019
 30
0.0
 40
2.0
100
AcDbArc
 50
48.747449
 51
105.470231
  0
ARC
  5
43C
100
AcDbEntity
  8
2
100
AcDbCircle
 10
-536.546914
 20
163.752255
 30
0.0
 40
12.0
100
AcDbArc
 50
308.305707
 51
339.864057
  0
ARC
  5
43D
100
AcDbEntity
  8
2
100
AcDbCircle
 10
-519.647101
 20
157.555777
 30
0.0
 40
6.0
100
AcDbArc
 50
131.252551
 51
159.864057
  0
ARC
  5
43E
100
AcDbEntity
  8
2
100
AcDbCircle
 10
-522.284619
 20
160.563019
 30
0.0
 40
2.0
100
AcDbArc
 50
74.529769
 51
131.252551
  0
ARC
  5
43F
100
AcDbEntity
  8
2
100
AcDbCircle
 10
-530.513304
 20
130.831359
 30
0.0
 40
32.849358
100
AcDbArc
 50
32.378507
 51
74.529769
  0
ARC
  5
440
100
AcDbEntity
  8
2
100
AcDbCircle
 10
-530.038414
 20
155.512751
 30
0.0
 40
1.5
100
AcDbArc
 50
231.694293
 51
308.305707
  0
ARC
  5
441
100
AcDbEntity
  8
2
100
AcDbCircle
 10
79.177798
 20
152.332926
 30
0.0
 40
11.430139
100
AcDbArc
 50
88.512215
 51
112.714662
  0
ARC
  5
442
100
AcDbEntity
  8
2
100
AcDbCircle
 10
79.461586
 20
163.25938
 30
0.0
 40
0.5
100
AcDbArc
 50
0.0
 51
88.512215
  0
ARC
  5
443
100
AcDbEntity
  8
2
100
AcDbCircle
 10
90.29796
 20
125.768421
 30
0.0
 40
40.228245
100
AcDbArc
 50
112.714662
 51
131.843847
  0
ARC
  5
444
100
AcDbEntity
  8
2
100
AcDbCircle
 10
80.667801
 20
145.436949
 30
0.0
 40
17.127052
100
AcDbArc
 50
93.791923
 51
118.737001
  0
ARC
  5
445
100
AcDbEntity
  8
2
100
AcDbCircle
 10
79.561586
 20
162.127382
 30
0.0
 40
0.4
100
AcDbArc
 50
0.0
 51
93.791923
  0
ARC
  5
446
100
AcDbEntity
  8
2
100
AcDbCircle
 10
94.38015
 20
120.429184
 30
0.0
 40
45.647515
100
AcDbArc
 50
118.737001
 51
132.635576
  0
ARC
  5
447
100
AcDbEntity
  8
2
100
AcDbCircle
 10
94.255372
 20
145.436949
 30
0.0
 40
17.127052
100
AcDbArc
 50
61.262999
 51
86.208077
  0
ARC
  5
448
100
AcDbEntity
  8
2
100
AcDbCircle
 10
80.543023
 20
120.429184
 30
0.0
 40
45.647515
100
AcDbArc
 50
47.364424
 51
61.262999
  0
ARC
  5
449
100
AcDbEntity
  8
2
100
AcDbCircle
 10
95.361586
 20
162.127382
 30
0.0
 40
0.4
100
AcDbArc
 50
86.208077
 51
180.0
  0
ARC
  5
44A
100
AcDbEntity
  8
2
100
AcDbCircle
 10
95.461586
 20
163.25938
 30
0.0
 40
0.5
100
AcDbArc
 50
91.487785
 51
180.0
  0
ARC
  5
44B
100
AcDbEntity
  8
2
100
AcDbCircle
 10
95.745375
 20
152.332926
 30
0.0
 40
11.430139
100
AcDbArc
 50
67.285338
 51
91.487785
  0
ARC
  5
44C
100
AcDbEntity
  8
2
100
AcDbCircle
 10
84.625213
 20
125.768421
 30
0.0
 40
40.228245
100
AcDbArc
 50
48.156153
 51
67.285338
  0
ARC
  5
44D
100
AcDbEntity
  8
2
  6
CENTER
 62
     2
100
AcDbCircle
 10
-530.038414
 20
461.253894
 30
0.0
 40
37.5
100
AcDbArc
 50
126.361503
 51
143.885033
  0
ARC
  5
44E
100
AcDbEntity
  8
2
  6
CENTER
 62
     2
100
AcDbCircle
 10
-530.038414
 20
461.253894
 30
0.0
 40
37.5
100
AcDbArc
 50
216.93331
 51
233.416879
  0
ARC
  5
44F
100
AcDbEntity
  8
2
  6
CENTER
 62
     2
100
AcDbCircle
 10
-530.038414
 20
461.253894
 30
0.0
 40
37.5
100
AcDbArc
 50
306.278748
 51
323.822644
  0
ARC
  5
450
100
AcDbEntity
  8
2
  6
CENTER
 62
     2
100
AcDbCircle
 10
-530.038414
 20
461.253894
 30
0.0
 40
37.5
100
AcDbArc
 50
36.280641
 51
53.737219
  0
LINE
  5
451
100
AcDbEntity
  8
2
  6
CENTER
 62
     2
100
AcDbLine
 10
-560.8777
 20
430.414608
 30
0.0
 11
-552.8271
 21
438.465208
 31
0.0
  0
LINE
  5
452
100
AcDbEntity
  8
2
  6
CENTER
 62
     2
100
AcDbLine
 10
-507.64756
 20
483.644748
 30
0.0
 11
-499.101187
 21
492.191121
 31
0.0
  0
LINE
  5
453
100
AcDbEntity
  8
2
  6
CENTER
 62
     2
100
AcDbLine
 10
-560.932033
 20
492.147513
 30
0.0
 11
-552.581041
 21
483.796521
 31
0.0
  0
LINE
  5
454
100
AcDbEntity
  8
2
  6
CENTER
 62
     2
100
AcDbLine
 10
-507.46633
 20
438.68181
 30
0.0
 11
-499.335266
 21
430.550747
 31
0.0
  0
LINE
  5
455
100
AcDbEntity
  8
2
  6
CENTER
 62
     2
100
AcDbLine
 10
113.978091
 20
135.998712
 30
0.0
 11
113.978091
 21
151.61017
 31
0.0
  0
LINE
  5
456
100
AcDbEntity
  8
2
  6
CENTER
 62
     2
100
AcDbLine
 10
60.945082
 20
135.998712
 30
0.0
 11
60.945082
 21
153.00406
 31
0.0
  0
LINE
  5
457
100
AcDbEntity
  8
2
  6
CENTER
 62
     2
100
AcDbLine
 10
-556.554918
 20
151.56934
 30
0.0
 11
-556.554918
 21
135.148915
 31
0.0
  0
LINE
  5
458
100
AcDbEntity
  8
2
  6
CENTER
 62
     2
100
AcDbLine
 10
-503.521909
 20
151.999196
 30
0.0
 11
-503.521909
 21
135.148915
 31
0.0
  0
CIRCLE
  5
459
100
AcDbEntity
  8
2
100
AcDbCircle
 10
-503.521909
 20
434.73739
 30
0.0
 40
3.5
  0
CIRCLE
  5
45A
100
AcDbEntity
  8
2
100
AcDbCircle
 10
-503.521909
 20
487.770398
 30
0.0
 40
3.5
  0
CIRCLE
  5
45B
100
AcDbEntity
  8
2
100
AcDbCircle
 10
-556.554918
 20
434.73739
 30
0.0
 40
3.5
  0
CIRCLE
  5
45C
100
AcDbEntity
  8
2
100
AcDbCircle
 10
-556.554918
 20
487.770398
 30
0.0
 40
3.5
  0
LINE
  5
45D
100
AcDbEntity
  8
2
100
AcDbLine
 10
-499.721909
 20
145.853894
 30
0.0
 11
-507.321909
 21
145.853894
 31
0.0
  0
LINE
  5
45E
100
AcDbEntity
  8
2
100
AcDbLine
 10
-499.721909
 20
145.853894
 30
0.0
 11
-499.721909
 21
144.853894
 31
0.0
  0
LINE
  5
45F
100
AcDbEntity
  8
2
100
AcDbLine
 10
-507.321909
 20
145.853894
 30
0.0
 11
-507.321909
 21
144.853894
 31
0.0
  0
LINE
  5
460
100
AcDbEntity
  8
2
100
AcDbLine
 10
-500.021909
 20
146.832918
 30
0.0
 11
-500.021909
 21
145.853894
 31
0.0
  0
LINE
  5
461
100
AcDbEntity
  8
2
100
AcDbLine
 10
-507.021909
 20
146.832918
 30
0.0
 11
-507.021909
 21
145.853894
 31
0.0
  0
ARC
  5
462
100
AcDbEntity
  8
2
100
AcDbCircle
 10
-503.521909
 20
139.453894
 30
0.0
 40
9.0
100
AcDbArc
 50
73.39845
 51
106.60155
  0
ARC
  5
463
100
AcDbEntity
  8
2
100
AcDbCircle
 10
-501.321909
 20
146.832918
 30
0.0
 40
1.3
100
AcDbArc
 50
0.0
 51
73.39845
  0
ARC
  5
464
100
AcDbEntity
  8
2
100
AcDbCircle
 10
-505.721909
 20
146.832918
 30
0.0
 40
1.3
100
AcDbArc
 50
106.60155
 51
180.0
  0
LINE
  5
465
100
AcDbEntity
  8
2
100
AcDbLine
 10
-552.754918
 20
145.853894
 30
0.0
 11
-560.354918
 21
145.853894
 31
0.0
  0
LINE
  5
466
100
AcDbEntity
  8
2
100
AcDbLine
 10
-552.754918
 20
145.853894
 30
0.0
 11
-552.754918
 21
144.853894
 31
0.0
  0
LINE
  5
467
100
AcDbEntity
  8
2
100
AcDbLine
 10
-560.354918
 20
145.853894
 30
0.0
 11
-560.354918
 21
144.853894
 31
0.0
  0
LINE
  5
468
100
AcDbEntity
  8
2
100
AcDbLine
 10
-553.054918
 20
146.832918
 30
0.0
 11
-553.054918
 21
145.853894
 31
0.0
  0
LINE
  5
469
100
AcDbEntity
  8
2
100
AcDbLine
 10
-560.054918
 20
146.832918
 30
0.0
 11
-560.054918
 21
145.853894
 31
0.0
  0
ARC
  5
46A
100
AcDbEntity
  8
2
100
AcDbCircle
 10
-556.554918
 20
139.453894
 30
0.0
 40
9.0
100
AcDbArc
 50
73.39845
 51
106.60155
  0
ARC
  5
46B
100
AcDbEntity
  8
2
100
AcDbCircle
 10
-554.354918
 20
146.832918
 30
0.0
 40
1.3
100
AcDbArc
 50
0.0
 51
73.39845
  0
ARC
  5
46C
100
AcDbEntity
  8
2
100
AcDbCircle
 10
-558.754918
 20
146.832918
 30
0.0
 40
1.3
100
AcDbArc
 50
106.60155
 51
180.0
  0
LINE
  5
46D
100
AcDbEntity
  8
2
100
AcDbLine
 10
64.745082
 20
145.853894
 30
0.0
 11
57.145082
 21
145.853894
 31
0.0
  0
LINE
  5
46E
100
AcDbEntity
  8
2
100
AcDbLine
 10
64.745082
 20
145.853894
 30
0.0
 11
64.745082
 21
144.853894
 31
0.0
  0
LINE
  5
46F
100
AcDbEntity
  8
2
100
AcDbLine
 10
57.145082
 20
145.853894
 30
0.0
 11
57.145082
 21
144.853894
 31
0.0
  0
LINE
  5
470
100
AcDbEntity
  8
2
100
AcDbLine
 10
64.445082
 20
146.832918
 30
0.0
 11
64.445082
 21
145.853894
 31
0.0
  0
LINE
  5
471
100
AcDbEntity
  8
2
100
AcDbLine
 10
57.445082
 20
146.832918
 30
0.0
 11
57.445082
 21
145.853894
 31
0.0
  0
ARC
  5
472
100
AcDbEntity
  8
2
100
AcDbCircle
 10
60.945082
 20
139.453894
 30
0.0
 40
9.0
100
AcDbArc
 50
73.39845
 51
106.60155
  0
ARC
  5
473
100
AcDbEntity
  8
2
100
AcDbCircle
 10
63.145082
 20
146.832918
 30
0.0
 40
1.3
100
AcDbArc
 50
0.0
 51
73.39845
  0
ARC
  5
474
100
AcDbEntity
  8
2
100
AcDbCircle
 10
58.745082
 20
146.832918
 30
0.0
 40
1.3
100
AcDbArc
 50
106.60155
 51
180.0
  0
LINE
  5
475
100
AcDbEntity
  8
2
100
AcDbLine
 10
117.778091
 20
145.853894
 30
0.0
 11
110.178091
 21
145.853894
 31
0.0
  0
LINE
  5
476
100
AcDbEntity
  8
2
100
AcDbLine
 10
117.778091
 20
145.853894
 30
0.0
 11
117.778091
 21
144.853894
 31
0.0
  0
LINE
  5
477
100
AcDbEntity
  8
2
100
AcDbLine
 10
110.178091
 20
145.853894
 30
0.0
 11
110.178091
 21
144.853894
 31
0.0
  0
LINE
  5
478
100
AcDbEntity
  8
2
100
AcDbLine
 10
117.478091
 20
146.832918
 30
0.0
 11
117.478091
 21
145.853894
 31
0.0
  0
LINE
  5
479
100
AcDbEntity
  8
2
100
AcDbLine
 10
110.478091
 20
146.832918
 30
0.0
 11
110.478091
 21
145.853894
 31
0.0
  0
ARC
  5
47A
100
AcDbEntity
  8
2
100
AcDbCircle
 10
113.978091
 20
139.453894
 30
0.0
 40
9.0
100
AcDbArc
 50
73.39845
 51
106.60155
  0
ARC
  5
47B
100
AcDbEntity
  8
2
100
AcDbCircle
 10
116.178091
 20
146.832918
 30
0.0
 40
1.3
100
AcDbArc
 50
0.0
 51
73.39845
  0
ARC
  5
47C
100
AcDbEntity
  8
2
100
AcDbCircle
 10
111.778091
 20
146.832918
 30
0.0
 40
1.3
100
AcDbArc
 50
106.60155
 51
180.0
  0
ARC
  5
47D
100
AcDbEntity
  8
2
100
AcDbCircle
 10
-368.038414
 20
370.253894
 30
0.0
 40
3.0
100
AcDbArc
 50
360.0
 51
90.0
  0
LINE
  5
47E
100
AcDbEntity
  8
2
100
AcDbLine
 10
-386.038414
 20
546.253894
 30
0.0
 11
-386.038414
 21
378.253894
 31
0.0
  0
LINE
  5
47F
100
AcDbEntity
  8
2
100
AcDbLine
 10
-402.221744
 20
373.253894
 30
0.0
 11
-459.435383
 21
373.253894
 31
0.0
  0
LINE
  5
480
100
AcDbEntity
  8
2
100
AcDbLine
 10
-368.038414
 20
373.253894
 30
0.0
 11
-389.560264
 21
373.253894
 31
0.0
  0
LINE
  5
481
100
AcDbEntity
  8
2
100
AcDbLine
 10
-365.038414
 20
353.253894
 30
0.0
 11
-365.038414
 21
370.253894
 31
0.0
  0
LINE
  5
482
100
AcDbEntity
  8
2
100
AcDbLine
 10
-365.038414
 20
361.253894
 30
0.0
 11
-753.038414
 21
361.253894
 31
0.0
  0
LINE
  5
483
100
AcDbEntity
  8
2
100
AcDbLine
 10
-474.641444
 20
373.253894
 30
0.0
 11
-606.759696
 21
373.253894
 31
0.0
  0
LINE
  5
484
100
AcDbEntity
  8
2
100
AcDbLine
 10
-753.038414
 20
353.253894
 30
0.0
 11
-753.038414
 21
546.253894
 31
0.0
  0
LINE
  5
485
100
AcDbEntity
  8
2
100
AcDbLine
 10
-669.038414
 20
398.253894
 30
0.0
 11
-669.038414
 21
524.253894
 31
0.0
  0
LINE
  5
486
100
AcDbEntity
  8
2
100
AcDbLine
 10
-674.777372
 20
531.253894
 30
0.0
 11
-412.038414
 21
531.253894
 31
0.0
  0
LINE
  5
487
100
AcDbEntity
  8
2
100
AcDbLine
 10
-405.038414
 20
524.253894
 30
0.0
 11
-405.038414
 21
376.253894
 31
0.0
  0
ARC
  5
488
100
AcDbEntity
  8
2
100
AcDbCircle
 10
-662.038414
 20
524.253894
 30
0.0
 40
7.0
100
AcDbArc
 50
90.0
 51
180.0
  0
ARC
  5
489
100
AcDbEntity
  8
2
100
AcDbCircle
 10
-662.038414
 20
398.253894
 30
0.0
 40
7.0
100
AcDbArc
 50
180.0
 51
270.0
  0
ARC
  5
48A
100
AcDbEntity
  8
2
100
AcDbCircle
 10
-412.038414
 20
524.253894
 30
0.0
 40
7.0
100
AcDbArc
 50
0.0
 51
90.0
  0
ARC
  5
48B
100
AcDbEntity
  8
2
100
AcDbCircle
 10
-412.038414
 20
398.253894
 30
0.0
 40
7.0
100
AcDbArc
 50
270.0
 51
360.0
  0
ARC
  5
48C
100
AcDbEntity
  8
2
100
AcDbCircle
 10
-628.038414
 20
-41.346106
 30
0.0
 40
1.0
100
AcDbArc
 50
0.0
 51
90.0
  0
ARC
  5
48D
100
AcDbEntity
  8
2
100
AcDbCircle
 10
-573.038414
 20
33.653894
 30
0.0
 40
180.0
100
AcDbArc
 50
170.0242
 51
198.428986
  0
ARC
  5
48E
100
AcDbEntity
  8
2
100
AcDbCircle
 10
-720.089425
 20
-15.346106
 30
0.0
 40
25.0
100
AcDbArc
 50
198.428986
 51
270.0
  0
LINE
  5
48F
100
AcDbEntity
  8
2
100
AcDbLine
 10
-727.438882
 20
85.443988
 30
0.0
 11
-505.49354
 21
100.963918
 31
0.0
  0
ARC
  5
490
100
AcDbEntity
  8
2
100
AcDbCircle
 10
-725.69497
 20
60.504887
 30
0.0
 40
25.0
100
AcDbArc
 50
94.0
 51
170.0242
  0
LINE
  5
491
100
AcDbEntity
  8
2
100
AcDbLine
 10
-669.038414
 20
118.653894
 30
0.0
 11
-675.474111
 21
100.971959
 31
0.0
  0
ARC
  5
492
100
AcDbEntity
  8
2
100
AcDbCircle
 10
-694.267964
 20
107.812362
 30
0.0
 40
20.0
100
AcDbArc
 50
274.0
 51
340.0
  0
LINE
  5
493
100
AcDbEntity
  8
2
100
AcDbLine
 10
-738.038414
 20
561.253894
 30
0.0
 11
-401.038414
 21
561.253894
 31
0.0
  0
CIRCLE
  5
494
100
AcDbEntity
  8
2
100
AcDbCircle
 10
-467.038414
 20
376.253894
 30
0.0
 40
7.099784
  0
ARC
  5
495
100
AcDbEntity
  8
2
100
AcDbCircle
 10
-459.435383
 20
371.253894
 30
0.0
 40
2.0
100
AcDbArc
 50
90.0
 51
146.66978
  0
ARC
  5
496
100
AcDbEntity
  8
2
100
AcDbCircle
 10
-474.641444
 20
371.253894
 30
0.0
 40
2.0
100
AcDbArc
 50
33.33022
 51
90.0
  0
CIRCLE
  5
497
100
AcDbEntity
  8
2
100
AcDbCircle
 10
-467.038414
 20
376.253894
 30
0.0
 40
6.0
  0
CIRCLE
  5
498
100
AcDbEntity
  8
2
100
AcDbCircle
 10
-614.038414
 20
376.253894
 30
0.0
 40
6.0
  0
LINE
  5
499
100
AcDbEntity
  8
2
100
AcDbLine
 10
-622.038414
 20
388.253894
 30
0.0
 11
-622.038414
 21
376.253894
 31
0.0
  0
ARC
  5
49A
100
AcDbEntity
  8
2
100
AcDbCircle
 10
-619.038414
 20
388.253894
 30
0.0
 40
3.0
100
AcDbArc
 50
90.0
 51
180.0
  0
ARC
  5
49B
100
AcDbEntity
  8
2
100
AcDbCircle
 10
-619.038414
 20
376.253894
 30
0.0
 40
3.0
100
AcDbArc
 50
180.0
 51
235.972242
  0
CIRCLE
  5
49C
100
AcDbEntity
  8
2
100
AcDbCircle
 10
-614.038414
 20
376.253894
 30
0.0
 40
6.830613
  0
ARC
  5
49D
100
AcDbEntity
  8
2
100
AcDbCircle
 10
-606.759696
 20
371.253894
 30
0.0
 40
2.0
100
AcDbArc
 50
90.0
 51
145.513495
  0
ARC
  5
49E
100
AcDbEntity
  8
2
100
AcDbCircle
 10
-621.836386
 20
372.110061
 30
0.0
 40
2.0
100
AcDbArc
 50
27.986121
 51
55.972242
  0
CIRCLE
  5
49F
100
AcDbEntity
  8
2
100
AcDbCircle
 10
-396.038414
 20
376.253894
 30
0.0
 40
6.0
  0
CIRCLE
  5
4A0
100
AcDbEntity
  8
2
100
AcDbCircle
 10
-396.038414
 20
376.253894
 30
0.0
 40
6.183301
  0
ARC
  5
4A1
100
AcDbEntity
  8
2
100
AcDbCircle
 10
-389.560264
 20
371.253894
 30
0.0
 40
2.0
100
AcDbArc
 50
90.0
 51
142.33813
  0
ARC
  5
4A2
100
AcDbEntity
  8
2
100
AcDbCircle
 10
-402.038414
 20
376.253894
 30
0.0
 40
3.0
100
AcDbArc
 50
180.0
 51
264.293054
  0
ARC
  5
4A3
100
AcDbEntity
  8
2
100
AcDbCircle
 10
-402.535615
 20
371.278677
 30
0.0
 40
2.0
100
AcDbArc
 50
37.443005
 51
84.293054
  0
ARC
  5
4A4
100
AcDbEntity
  8
2
100
AcDbCircle
 10
-381.038414
 20
378.253894
 30
0.0
 40
5.0
100
AcDbArc
 50
180.0
 51
270.0
  0
LINE
  5
4A5
100
AcDbEntity
  8
2
100
AcDbLine
 10
-396.038414
 20
467.253894
 30
0.0
 11
-388.038414
 21
467.253894
 31
0.0
  0
LINE
  5
4A6
100
AcDbEntity
  8
2
100
AcDbLine
 10
-396.038414
 20
455.253894
 30
0.0
 11
-388.038414
 21
455.253894
 31
0.0
  0
ARC
  5
4A7
100
AcDbEntity
  8
2
100
AcDbCircle
 10
-396.038414
 20
461.253894
 30
0.0
 40
6.0
100
AcDbArc
 50
90.0
 51
270.0
  0
ARC
  5
4A8
100
AcDbEntity
  8
2
100
AcDbCircle
 10
-388.038414
 20
453.253894
 30
0.0
 40
2.0
100
AcDbArc
 50
0.0
 51
90.0
  0
ARC
  5
4A9
100
AcDbEntity
  8
2
100
AcDbCircle
 10
-388.038414
 20
469.253894
 30
0.0
 40
2.0
100
AcDbArc
 50
270.0
 51
0.0
  0
ARC
  5
4AA
100
AcDbEntity
  8
2
100
AcDbCircle
 10
-401.038414
 20
546.253894
 30
0.0
 40
15.0
100
AcDbArc
 50
0.0
 51
90.0
  0
LINE
  5
4AB
100
AcDbEntity
  8
2
100
AcDbLine
 10
-400.038414
 20
541.253894
 30
0.0
 11
-388.038414
 21
541.253894
 31
0.0
  0
LINE
  5
4AC
100
AcDbEntity
  8
2
100
AcDbLine
 10
-406.038414
 20
547.253894
 30
0.0
 11
-406.038414
 21
559.253894
 31
0.0
  0
ARC
  5
4AD
100
AcDbEntity
  8
2
100
AcDbCircle
 10
-400.038414
 20
547.253894
 30
0.0
 40
6.0
100
AcDbArc
 50
180.0
 51
270.0
  0
ARC
  5
4AE
100
AcDbEntity
  8
2
100
AcDbCircle
 10
-388.038414
 20
539.253894
 30
0.0
 40
2.0
100
AcDbArc
 50
0.0
 51
90.0
  0
ARC
  5
4AF
100
AcDbEntity
  8
2
100
AcDbCircle
 10
-408.038414
 20
559.253894
 30
0.0
 40
2.0
100
AcDbArc
 50
0.0
 51
90.0
  0
LINE
  5
4B0
100
AcDbEntity
  8
2
100
AcDbLine
 10
-461.038414
 20
551.253894
 30
0.0
 11
-461.038414
 21
559.253894
 31
0.0
  0
LINE
  5
4B1
100
AcDbEntity
  8
2
100
AcDbLine
 10
-473.038414
 20
551.253894
 30
0.0
 11
-473.038414
 21
559.253894
 31
0.0
  0
ARC
  5
4B2
100
AcDbEntity
  8
2
100
AcDbCircle
 10
-467.038414
 20
551.253894
 30
0.0
 40
6.0
100
AcDbArc
 50
180.0
 51
360.0
  0
ARC
  5
4B3
100
AcDbEntity
  8
2
100
AcDbCircle
 10
-459.038414
 20
559.253894
 30
0.0
 40
2.0
100
AcDbArc
 50
90.0
 51
180.0
  0
ARC
  5
4B4
100
AcDbEntity
  8
2
100
AcDbCircle
 10
-475.038414
 20
559.253894
 30
0.0
 40
2.0
100
AcDbArc
 50
0.0
 51
90.0
  0
LINE
  5
4B5
100
AcDbEntity
  8
2
100
AcDbLine
 10
-608.038414
 20
551.253894
 30
0.0
 11
-608.038414
 21
559.253894
 31
0.0
  0
LINE
  5
4B6
100
AcDbEntity
  8
2
100
AcDbLine
 10
-620.038414
 20
551.253894
 30
0.0
 11
-620.038414
 21
559.253894
 31
0.0
  0
ARC
  5
4B7
100
AcDbEntity
  8
2
100
AcDbCircle
 10
-614.038414
 20
551.253894
 30
0.0
 40
6.0
100
AcDbArc
 50
180.0
 51
360.0
  0
ARC
  5
4B8
100
AcDbEntity
  8
2
100
AcDbCircle
 10
-606.038414
 20
559.253894
 30
0.0
 40
2.0
100
AcDbArc
 50
90.0
 51
180.0
  0
ARC
  5
4B9
100
AcDbEntity
  8
2
100
AcDbCircle
 10
-622.038414
 20
559.253894
 30
0.0
 40
2.0
100
AcDbArc
 50
0.0
 51
90.0
  0
ARC
  5
4BA
100
AcDbEntity
  8
2
100
AcDbCircle
 10
-637.038414
 20
546.253894
 30
0.0
 40
15.0
100
AcDbArc
 50
360.0
 51
90.0
  0
ARC
  5
4BB
100
AcDbEntity
  8
2
100
AcDbCircle
 10
-738.038414
 20
546.253894
 30
0.0
 40
15.0
100
AcDbArc
 50
90.0
 51
180.0
  0
LINE
  5
4BC
100
AcDbEntity
  8
2
100
AcDbLine
 10
-733.038414
 20
547.253894
 30
0.0
 11
-733.038414
 21
559.253894
 31
0.0
  0
LINE
  5
4BD
100
AcDbEntity
  8
2
100
AcDbLine
 10
-739.038414
 20
541.253894
 30
0.0
 11
-748.8473
 21
541.253894
 31
0.0
  0
ARC
  5
4BE
100
AcDbEntity
  8
2
100
AcDbCircle
 10
-739.038414
 20
547.253894
 30
0.0
 40
6.0
100
AcDbArc
 50
270.0
 51
360.0
  0
ARC
  5
4BF
100
AcDbEntity
  8
2
100
AcDbCircle
 10
-731.038414
 20
559.253894
 30
0.0
 40
2.0
100
AcDbArc
 50
90.0
 51
180.0
  0
LINE
  5
4C0
100
AcDbEntity
  8
2
100
AcDbLine
 10
-744.038414
 20
467.253894
 30
0.0
 11
-748.8473
 21
467.253894
 31
0.0
  0
LINE
  5
4C1
100
AcDbEntity
  8
2
100
AcDbLine
 10
-744.038414
 20
455.253894
 30
0.0
 11
-748.8473
 21
455.253894
 31
0.0
  0
ARC
  5
4C2
100
AcDbEntity
  8
2
100
AcDbCircle
 10
-744.038414
 20
461.253894
 30
0.0
 40
6.0
100
AcDbArc
 50
270.0
 51
90.0
  0
LINE
  5
4C3
100
AcDbEntity
  8
2
100
AcDbLine
 10
-744.038414
 20
388.253894
 30
0.0
 11
-748.8473
 21
388.253894
 31
0.0
  0
LINE
  5
4C4
100
AcDbEntity
  8
2
100
AcDbLine
 10
-744.038414
 20
376.253894
 30
0.0
 11
-748.8473
 21
376.253894
 31
0.0
  0
ARC
  5
4C5
100
AcDbEntity
  8
2
100
AcDbCircle
 10
-744.038414
 20
382.253894
 30
0.0
 40
6.0
100
AcDbArc
 50
270.0
 51
90.0
  0
LINE
  5
4C6
100
AcDbEntity
  8
2
100
AcDbLine
 10
-681.777372
 20
398.253894
 30
0.0
 11
-681.777372
 21
524.253894
 31
0.0
  0
ARC
  5
4C7
100
AcDbEntity
  8
2
100
AcDbCircle
 10
-674.777372
 20
524.253894
 30
0.0
 40
7.0
100
AcDbArc
 50
90.0
 51
180.0
  0
LINE
  5
4C8
100
AcDbEntity
  8
2
100
AcDbLine
 10
-749.038414
 20
391.253894
 30
0.0
 11
-412.038414
 21
391.253894
 31
0.0
  0
ARC
  5
4C9
100
AcDbEntity
  8
2
100
AcDbCircle
 10
-748.8473
 20
390.253894
 30
0.0
 40
2.0
100
AcDbArc
 50
180.0
 51
270.0
  0
ARC
  5
4CA
100
AcDbEntity
  8
2
100
AcDbCircle
 10
-748.8473
 20
374.253894
 30
0.0
 40
2.0
100
AcDbArc
 50
90.0
 51
180.0
  0
ARC
  5
4CB
100
AcDbEntity
  8
2
100
AcDbCircle
 10
-748.8473
 20
469.253894
 30
0.0
 40
2.0
100
AcDbArc
 50
180.0
 51
270.0
  0
ARC
  5
4CC
100
AcDbEntity
  8
2
100
AcDbCircle
 10
-748.8473
 20
453.253894
 30
0.0
 40
2.0
100
AcDbArc
 50
90.0
 51
180.0
  0
ARC
  5
4CD
100
AcDbEntity
  8
2
100
AcDbCircle
 10
-748.8473
 20
539.253894
 30
0.0
 40
2.0
100
AcDbArc
 50
90.0
 51
180.0
  0
LINE
  5
4CE
100
AcDbEntity
  8
2
100
AcDbLine
 10
-750.8473
 20
376.253894
 30
0.0
 11
-750.8473
 21
388.253894
 31
0.0
  0
LINE
  5
4CF
100
AcDbEntity
  8
2
100
AcDbLine
 10
-750.8473
 20
455.253894
 30
0.0
 11
-750.8473
 21
467.253894
 31
0.0
  0
ARC
  5
4D0
100
AcDbEntity
  8
2
100
AcDbCircle
 10
-674.777372
 20
398.253894
 30
0.0
 40
7.0
100
AcDbArc
 50
180.0
 51
270.0
  0
ARC
  5
4D1
100
AcDbEntity
  8
2
100
AcDbCircle
 10
-403.538414
 20
468.753894
 30
0.0
 40
0.5
100
AcDbArc
 50
270.0
 51
360.0
  0
ARC
  5
4D2
100
AcDbEntity
  8
2
100
AcDbCircle
 10
-404.538414
 20
467.753894
 30
0.0
 40
0.5
100
AcDbArc
 50
90.0
 51
180.0
  0
ARC
  5
4D3
100
AcDbEntity
  8
2
100
AcDbCircle
 10
-403.538414
 20
503.753894
 30
0.0
 40
0.5
100
AcDbArc
 50
0.0
 51
90.0
  0
ARC
  5
4D4
100
AcDbEntity
  8
2
100
AcDbCircle
 10
-404.538414
 20
504.753894
 30
0.0
 40
0.5
100
AcDbArc
 50
180.0
 51
270.0
  0
ARC
  5
4D5
100
AcDbEntity
  8
2
100
AcDbCircle
 10
-403.538414
 20
453.753894
 30
0.0
 40
0.5
100
AcDbArc
 50
360.0
 51
90.0
  0
ARC
  5
4D6
100
AcDbEntity
  8
2
100
AcDbCircle
 10
-404.538414
 20
454.753894
 30
0.0
 40
0.5
100
AcDbArc
 50
180.0
 51
270.0
  0
ARC
  5
4D7
100
AcDbEntity
  8
2
100
AcDbCircle
 10
-403.538414
 20
418.753894
 30
0.0
 40
0.5
100
AcDbArc
 50
270.0
 51
360.0
  0
ARC
  5
4D8
100
AcDbEntity
  8
2
100
AcDbCircle
 10
-404.538414
 20
417.753894
 30
0.0
 40
0.5
100
AcDbArc
 50
90.0
 51
180.0
  0
LINE
  5
4D9
100
AcDbEntity
  8
2
100
AcDbLine
 10
-594.038414
 20
574.253894
 30
0.0
 11
-566.038414
 21
574.253894
 31
0.0
  0
LINE
  5
4DA
100
AcDbEntity
  8
2
100
AcDbLine
 10
-494.038414
 20
574.253894
 30
0.0
 11
-466.038414
 21
574.253894
 31
0.0
  0
ARC
  5
4DB
100
AcDbEntity
  8
2
100
AcDbCircle
 10
-466.038414
 20
573.253894
 30
0.0
 40
1.0
100
AcDbArc
 50
0.0
 51
90.0
  0
ARC
  5
4DC
100
AcDbEntity
  8
2
100
AcDbCircle
 10
-494.038414
 20
573.253894
 30
0.0
 40
1.0
100
AcDbArc
 50
90.0
 51
180.0
  0
ARC
  5
4DD
100
AcDbEntity
  8
2
100
AcDbCircle
 10
-566.038414
 20
573.253894
 30
0.0
 40
1.0
100
AcDbArc
 50
0.0
 51
90.0
  0
ARC
  5
4DE
100
AcDbEntity
  8
2
100
AcDbCircle
 10
-594.038414
 20
573.253894
 30
0.0
 40
1.0
100
AcDbArc
 50
90.0
 51
180.0
  0
LINE
  5
4DF
100
AcDbEntity
  8
2
100
AcDbLine
 10
-462.038414
 20
569.253894
 30
0.0
 11
-441.193114
 21
569.253894
 31
0.0
  0
LINE
  5
4E0
100
AcDbEntity
  8
2
100
AcDbLine
 10
-618.883713
 20
569.253894
 30
0.0
 11
-598.038414
 21
569.253894
 31
0.0
  0
LINE
  5
4E1
100
AcDbEntity
  8
2
100
AcDbLine
 10
-562.038414
 20
569.253894
 30
0.0
 11
-498.038414
 21
569.253894
 31
0.0
  0
ARC
  5
4E2
100
AcDbEntity
  8
2
100
AcDbCircle
 10
-462.038414
 20
572.253894
 30
0.0
 40
3.0
100
AcDbArc
 50
180.0
 51
270.0
  0
ARC
  5
4E3
100
AcDbEntity
  8
2
100
AcDbCircle
 10
-498.038414
 20
572.253894
 30
0.0
 40
3.0
100
AcDbArc
 50
270.0
 51
360.0
  0
ARC
  5
4E4
100
AcDbEntity
  8
2
100
AcDbCircle
 10
-562.038414
 20
572.253894
 30
0.0
 40
3.0
100
AcDbArc
 50
180.0
 51
270.0
  0
ARC
  5
4E5
100
AcDbEntity
  8
2
100
AcDbCircle
 10
-598.038414
 20
572.253894
 30
0.0
 40
3.0
100
AcDbArc
 50
270.0
 51
360.0
  0
LINE
  5
4E6
100
AcDbEntity
  8
2
100
AcDbLine
 10
-620.615764
 20
568.253894
 30
0.0
 11
-623.79119
 21
562.753894
 31
0.0
  0
ARC
  5
4E7
100
AcDbEntity
  8
2
100
AcDbCircle
 10
-618.883713
 20
567.253894
 30
0.0
 40
2.0
100
AcDbArc
 50
90.0
 51
150.0
  0
ARC
  5
4E8
100
AcDbEntity
  8
2
100
AcDbCircle
 10
-626.389266
 20
564.253894
 30
0.0
 40
3.0
100
AcDbArc
 50
270.0
 51
330.0
  0
LINE
  5
4E9
100
AcDbEntity
  8
2
100
AcDbLine
 10
-439.461063
 20
568.253894
 30
0.0
 11
-436.285637
 21
562.753894
 31
0.0
  0
ARC
  5
4EA
100
AcDbEntity
  8
2
100
AcDbCircle
 10
-441.193114
 20
567.253894
 30
0.0
 40
2.0
100
AcDbArc
 50
30.0
 51
90.0
  0
ARC
  5
4EB
100
AcDbEntity
  8
2
100
AcDbCircle
 10
-433.687561
 20
564.253894
 30
0.0
 40
3.0
100
AcDbArc
 50
210.0
 51
270.0
  0
LINE
  5
4EC
100
AcDbEntity
  8
2
100
AcDbLine
 10
-465.038414
 20
573.253894
 30
0.0
 11
-465.038414
 21
572.253894
 31
0.0
  0
LINE
  5
4ED
100
AcDbEntity
  8
2
100
AcDbLine
 10
-495.038414
 20
573.253894
 30
0.0
 11
-495.038414
 21
572.253894
 31
0.0
  0
LINE
  5
4EE
100
AcDbEntity
  8
2
100
AcDbLine
 10
-565.038414
 20
573.253894
 30
0.0
 11
-565.038414
 21
572.253894
 31
0.0
  0
LINE
  5
4EF
100
AcDbEntity
  8
2
100
AcDbLine
 10
-595.038414
 20
573.253894
 30
0.0
 11
-595.038414
 21
572.253894
 31
0.0
  0
LINE
  5
4F0
100
AcDbEntity
  8
2
100
AcDbLine
 10
-493.888414
 20
574.253894
 30
0.0
 11
-493.888414
 21
585.897121
 31
0.0
  0
LINE
  5
4F1
100
AcDbEntity
  8
2
100
AcDbLine
 10
-493.888414
 20
585.897121
 30
0.0
 11
-491.538414
 21
587.253894
 31
0.0
  0
LINE
  5
4F2
100
AcDbEntity
  8
2
100
AcDbLine
 10
-491.538414
 20
587.253894
 30
0.0
 11
-480.038414
 21
587.253894
 31
0.0
  0
LINE
  5
4F3
100
AcDbEntity
  8
2
100
AcDbLine
 10
-486.963414
 20
574.253894
 30
0.0
 11
-486.963414
 21
585.897121
 31
0.0
  0
ARC
  5
4F4
100
AcDbEntity
  8
2
100
AcDbCircle
 10
-490.425914
 20
581.44596
 30
0.0
 40
5.639303
100
AcDbArc
 50
52.121121
 51
127.878879
  0
ARC
  5
4F5
100
AcDbEntity
  8
2
100
AcDbCircle
 10
-480.038414
 20
566.310263
 30
0.0
 40
20.775
100
AcDbArc
 50
90.0
 51
109.471221
  0
LINE
  5
4F6
100
AcDbEntity
  8
2
100
AcDbLine
 10
-466.188414
 20
574.253894
 30
0.0
 11
-466.188414
 21
585.897121
 31
0.0
  0
LINE
  5
4F7
100
AcDbEntity
  8
2
100
AcDbLine
 10
-466.188414
 20
585.897121
 30
0.0
 11
-468.538414
 21
587.253894
 31
0.0
  0
LINE
  5
4F8
100
AcDbEntity
  8
2
100
AcDbLine
 10
-468.538414
 20
587.253894
 30
0.0
 11
-480.038414
 21
587.253894
 31
0.0
  0
LINE
  5
4F9
100
AcDbEntity
  8
2
100
AcDbLine
 10
-473.113414
 20
574.253894
 30
0.0
 11
-473.113414
 21
585.897121
 31
0.0
  0
ARC
  5
4FA
100
AcDbEntity
  8
2
100
AcDbCircle
 10
-469.650914
 20
581.44596
 30
0.0
 40
5.639303
100
AcDbArc
 50
52.121121
 51
127.878879
  0
ARC
  5
4FB
100
AcDbEntity
  8
2
100
AcDbCircle
 10
-480.038414
 20
566.310263
 30
0.0
 40
20.775
100
AcDbArc
 50
70.528779
 51
90.0
  0
LINE
  5
4FC
100
AcDbEntity
  8
2
100
AcDbLine
 10
-593.888414
 20
574.253894
 30
0.0
 11
-593.888414
 21
585.897121
 31
0.0
  0
LINE
  5
4FD
100
AcDbEntity
  8
2
100
AcDbLine
 10
-593.888414
 20
585.897121
 30
0.0
 11
-591.538414
 21
587.253894
 31
0.0
  0
LINE
  5
4FE
100
AcDbEntity
  8
2
100
AcDbLine
 10
-591.538414
 20
587.253894
 30
0.0
 11
-580.038414
 21
587.253894
 31
0.0
  0
LINE
  5
4FF
100
AcDbEntity
  8
2
100
AcDbLine
 10
-586.963414
 20
574.253894
 30
0.0
 11
-586.963414
 21
585.897121
 31
0.0
  0
ARC
  5
500
100
AcDbEntity
  8
2
100
AcDbCircle
 10
-590.425914
 20
581.44596
 30
0.0
 40
5.639303
100
AcDbArc
 50
52.121121
 51
127.878879
  0
ARC
  5
501
100
AcDbEntity
  8
2
100
AcDbCircle
 10
-580.038414
 20
566.310263
 30
0.0
 40
20.775
100
AcDbArc
 50
90.0
 51
109.471221
  0
LINE
  5
502
100
AcDbEntity
  8
2
100
AcDbLine
 10
-566.188414
 20
574.253894
 30
0.0
 11
-566.188414
 21
585.897121
 31
0.0
  0
LINE
  5
503
100
AcDbEntity
  8
2
100
AcDbLine
 10
-566.188414
 20
585.897121
 30
0.0
 11
-568.538414
 21
587.253894
 31
0.0
  0
LINE
  5
504
100
AcDbEntity
  8
2
100
AcDbLine
 10
-568.538414
 20
587.253894
 30
0.0
 11
-580.038414
 21
587.253894
 31
0.0
  0
LINE
  5
505
100
AcDbEntity
  8
2
100
AcDbLine
 10
-573.113414
 20
574.253894
 30
0.0
 11
-573.113414
 21
585.897121
 31
0.0
  0
ARC
  5
506
100
AcDbEntity
  8
2
100
AcDbCircle
 10
-569.650914
 20
581.44596
 30
0.0
 40
5.639303
100
AcDbArc
 50
52.121121
 51
127.878879
  0
ARC
  5
507
100
AcDbEntity
  8
2
100
AcDbCircle
 10
-580.038414
 20
566.310263
 30
0.0
 40
20.775
100
AcDbArc
 50
70.528779
 51
90.0
  0
LINE
  5
508
100
AcDbEntity
  8
2
100
AcDbLine
 10
-473.120914
 20
597.253894
 30
0.0
 11
-472.038414
 21
596.171394
 31
0.0
  0
LINE
  5
509
100
AcDbEntity
  8
2
100
AcDbLine
 10
-472.038414
 20
596.171394
 30
0.0
 11
-472.038414
 21
587.253894
 31
0.0
  0
LINE
  5
50A
100
AcDbEntity
  8
2
 62
     2
100
AcDbLine
 10
-473.120914
 20
597.253894
 30
0.0
 11
-473.120914
 21
587.253894
 31
0.0
  0
LINE
  5
50B
100
AcDbEntity
  8
2
100
AcDbLine
 10
-473.120914
 20
597.253894
 30
0.0
 11
-486.955914
 21
597.253894
 31
0.0
  0
LINE
  5
50C
100
AcDbEntity
  8
2
100
AcDbLine
 10
-486.955914
 20
597.253894
 30
0.0
 11
-488.038414
 21
596.171394
 31
0.0
  0
LINE
  5
50D
100
AcDbEntity
  8
2
100
AcDbLine
 10
-488.038414
 20
596.171394
 30
0.0
 11
-488.038414
 21
587.253894
 31
0.0
  0
LINE
  5
50E
100
AcDbEntity
  8
2
100
AcDbLine
 10
-488.038414
 20
596.171394
 30
0.0
 11
-472.038414
 21
596.171394
 31
0.0
  0
LINE
  5
50F
100
AcDbEntity
  8
2
 62
     2
100
AcDbLine
 10
-486.955914
 20
597.253894
 30
0.0
 11
-486.955914
 21
587.253894
 31
0.0
  0
LINE
  5
510
100
AcDbEntity
  8
2
100
AcDbLine
 10
-573.120914
 20
597.253894
 30
0.0
 11
-572.038414
 21
596.171394
 31
0.0
  0
LINE
  5
511
100
AcDbEntity
  8
2
100
AcDbLine
 10
-572.038414
 20
596.171394
 30
0.0
 11
-572.038414
 21
587.253894
 31
0.0
  0
LINE
  5
512
100
AcDbEntity
  8
2
 62
     2
100
AcDbLine
 10
-573.120914
 20
597.253894
 30
0.0
 11
-573.120914
 21
587.253894
 31
0.0
  0
LINE
  5
513
100
AcDbEntity
  8
2
100
AcDbLine
 10
-573.120914
 20
597.253894
 30
0.0
 11
-586.955914
 21
597.253894
 31
0.0
  0
LINE
  5
514
100
AcDbEntity
  8
2
100
AcDbLine
 10
-586.955914
 20
597.253894
 30
0.0
 11
-588.038414
 21
596.171394
 31
0.0
  0
LINE
  5
515
100
AcDbEntity
  8
2
100
AcDbLine
 10
-588.038414
 20
596.171394
 30
0.0
 11
-588.038414
 21
587.253894
 31
0.0
  0
LINE
  5
516
100
AcDbEntity
  8
2
100
AcDbLine
 10
-588.038414
 20
596.171394
 30
0.0
 11
-572.038414
 21
596.171394
 31
0.0
  0
LINE
  5
517
100
AcDbEntity
  8
2
 62
     2
100
AcDbLine
 10
-586.955914
 20
597.253894
 30
0.0
 11
-586.955914
 21
587.253894
 31
0.0
  0
LINE
  5
518
100
AcDbEntity
  8
2
100
AcDbLine
 10
-412.038414
 20
517.253894
 30
0.0
 11
-407.038414
 21
517.253894
 31
0.0
  0
LINE
  5
519
100
AcDbEntity
  8
2
100
AcDbLine
 10
-412.038414
 20
405.253894
 30
0.0
 11
-407.038414
 21
405.253894
 31
0.0
  0
LINE
  5
51A
100
AcDbEntity
  8
2
100
AcDbLine
 10
-662.038414
 20
405.253894
 30
0.0
 11
-667.038414
 21
405.253894
 31
0.0
  0
LINE
  5
51B
100
AcDbEntity
  8
2
100
AcDbLine
 10
-662.038414
 20
517.253894
 30
0.0
 11
-667.038414
 21
517.253894
 31
0.0
  0
LINE
  5
51C
100
AcDbEntity
  8
2
100
AcDbLine
 10
-419.038414
 20
524.253894
 30
0.0
 11
-419.038414
 21
529.253894
 31
0.0
  0
LINE
  5
51D
100
AcDbEntity
  8
2
100
AcDbLine
 10
-530.038414
 20
524.253894
 30
0.0
 11
-530.038414
 21
529.253894
 31
0.0
  0
LINE
  5
51E
100
AcDbEntity
  8
2
100
AcDbLine
 10
-544.038414
 20
524.253894
 30
0.0
 11
-544.038414
 21
529.253894
 31
0.0
  0
LINE
  5
51F
100
AcDbEntity
  8
2
100
AcDbLine
 10
-655.038414
 20
524.253894
 30
0.0
 11
-655.038414
 21
529.253894
 31
0.0
  0
LINE
  5
520
100
AcDbEntity
  8
2
100
AcDbLine
 10
-655.038414
 20
398.253894
 30
0.0
 11
-655.038414
 21
393.253894
 31
0.0
  0
LINE
  5
521
100
AcDbEntity
  8
2
100
AcDbLine
 10
-544.038414
 20
398.253894
 30
0.0
 11
-544.038414
 21
393.253894
 31
0.0
  0
LINE
  5
522
100
AcDbEntity
  8
2
100
AcDbLine
 10
-530.038414
 20
398.253894
 30
0.0
 11
-530.038414
 21
393.253894
 31
0.0
  0
LINE
  5
523
100
AcDbEntity
  8
2
100
AcDbLine
 10
-419.038414
 20
398.253894
 30
0.0
 11
-419.038414
 21
393.253894
 31
0.0
  0
ARC
  5
524
100
AcDbEntity
  8
2
100
AcDbCircle
 10
-412.038414
 20
524.253894
 30
0.0
 40
7.0
100
AcDbArc
 50
180.0
 51
270.0
  0
ARC
  5
525
100
AcDbEntity
  8
2
100
AcDbCircle
 10
-407.038414
 20
515.253894
 30
0.0
 40
2.0
100
AcDbArc
 50
0.0
 51
90.0
  0
ARC
  5
526
100
AcDbEntity
  8
2
100
AcDbCircle
 10
-421.038414
 20
529.253894
 30
0.0
 40
2.0
100
AcDbArc
 50
0.0
 51
90.0
  0
ARC
  5
527
100
AcDbEntity
  8
2
100
AcDbCircle
 10
-537.038414
 20
524.253894
 30
0.0
 40
7.0
100
AcDbArc
 50
180.0
 51
360.0
  0
ARC
  5
528
100
AcDbEntity
  8
2
100
AcDbCircle
 10
-546.038414
 20
529.253894
 30
0.0
 40
2.0
100
AcDbArc
 50
0.0
 51
90.0
  0
ARC
  5
529
100
AcDbEntity
  8
2
100
AcDbCircle
 10
-528.038414
 20
529.253894
 30
0.0
 40
2.0
100
AcDbArc
 50
90.0
 51
180.0
  0
ARC
  5
52A
100
AcDbEntity
  8
2
100
AcDbCircle
 10
-662.038414
 20
524.253894
 30
0.0
 40
7.0
100
AcDbArc
 50
270.0
 51
360.0
  0
ARC
  5
52B
100
AcDbEntity
  8
2
100
AcDbCircle
 10
-653.038414
 20
529.253894
 30
0.0
 40
2.0
100
AcDbArc
 50
90.0
 51
180.0
  0
ARC
  5
52C
100
AcDbEntity
  8
2
100
AcDbCircle
 10
-667.038414
 20
515.253894
 30
0.0
 40
2.0
100
AcDbArc
 50
90.0
 51
180.0
  0
ARC
  5
52D
100
AcDbEntity
  8
2
100
AcDbCircle
 10
-662.038414
 20
398.253894
 30
0.0
 40
7.0
100
AcDbArc
 50
0.0
 51
90.0
  0
ARC
  5
52E
100
AcDbEntity
  8
2
100
AcDbCircle
 10
-653.038414
 20
393.253894
 30
0.0
 40
2.0
100
AcDbArc
 50
180.0
 51
270.0
  0
ARC
  5
52F
100
AcDbEntity
  8
2
100
AcDbCircle
 10
-667.038414
 20
407.253894
 30
0.0
 40
2.0
100
AcDbArc
 50
180.0
 51
270.0
  0
ARC
  5
530
100
AcDbEntity
  8
2
100
AcDbCircle
 10
-537.038414
 20
398.253894
 30
0.0
 40
7.0
100
AcDbArc
 50
360.0
 51
180.0
  0
ARC
  5
531
100
AcDbEntity
  8
2
100
AcDbCircle
 10
-546.038414
 20
393.253894
 30
0.0
 40
2.0
100
AcDbArc
 50
270.0
 51
360.0
  0
ARC
  5
532
100
AcDbEntity
  8
2
100
AcDbCircle
 10
-528.038414
 20
393.253894
 30
0.0
 40
2.0
100
AcDbArc
 50
180.0
 51
270.0
  0
ARC
  5
533
100
AcDbEntity
  8
2
100
AcDbCircle
 10
-412.038414
 20
398.253894
 30
0.0
 40
7.0
100
AcDbArc
 50
90.0
 51
180.0
  0
ARC
  5
534
100
AcDbEntity
  8
2
100
AcDbCircle
 10
-407.038414
 20
407.253894
 30
0.0
 40
2.0
100
AcDbArc
 50
270.0
 51
360.0
  0
ARC
  5
535
100
AcDbEntity
  8
2
100
AcDbCircle
 10
-421.038414
 20
393.253894
 30
0.0
 40
2.0
100
AcDbArc
 50
270.0
 51
360.0
  0
LINE
  5
536
100
AcDbEntity
  8
2
100
AcDbLine
 10
-410.932399
 20
138.653894
 30
0.0
 11
-660.077822
 21
138.653894
 31
0.0
  0
LINE
  5
537
100
AcDbEntity
  8
2
100
AcDbLine
 10
-475.127403
 20
123.653894
 30
0.0
 11
-668.538414
 21
123.653894
 31
0.0
  0
LINE
  5
538
100
AcDbEntity
  8
2
100
AcDbLine
 10
-669.038414
 20
118.653894
 30
0.0
 11
-669.038414
 21
123.653894
 31
0.0
  0
LINE
  5
539
100
AcDbEntity
  8
2
100
AcDbLine
 10
-669.038414
 20
123.653894
 30
0.0
 11
-664.776285
 21
135.363995
 31
0.0
  0
LINE
  5
53A
100
AcDbEntity
  8
2
100
AcDbLine
 10
-405.614197
 20
130.235129
 30
0.0
 11
-405.951426
 21
134.089673
 31
0.0
  0
LINE
  5
53B
100
AcDbEntity
  8
2
100
AcDbLine
 10
-406.350743
 20
408.253894
 30
0.0
 11
-406.350743
 21
514.253894
 31
0.0
  0
LINE
  5
53C
100
AcDbEntity
  8
2
100
AcDbLine
 10
-663.57886
 20
408.253894
 30
0.0
 11
-663.57886
 21
514.253894
 31
0.0
  0
ARC
  5
53D
100
AcDbEntity
  8
2
100
AcDbCircle
 10
-660.077822
 20
133.653894
 30
0.0
 40
5.0
100
AcDbArc
 50
90.0
 51
160.0
  0
ARC
  5
53E
100
AcDbEntity
  8
2
100
AcDbCircle
 10
-410.932399
 20
133.653894
 30
0.0
 40
5.0
100
AcDbArc
 50
5.0
 51
90.0
  0
LINE
  5
53F
100
AcDbEntity
  8
2
100
AcDbLine
 10
-655.038414
 20
133.653894
 30
0.0
 11
-655.038414
 21
124.153894
 31
0.0
  0
LINE
  5
540
100
AcDbEntity
  8
2
100
AcDbLine
 10
-544.038414
 20
133.653894
 30
0.0
 11
-544.038414
 21
124.153894
 31
0.0
  0
LINE
  5
541
100
AcDbEntity
  8
2
100
AcDbLine
 10
-530.038414
 20
133.653894
 30
0.0
 11
-530.038414
 21
124.153894
 31
0.0
  0
LINE
  5
542
100
AcDbEntity
  8
2
100
AcDbLine
 10
-419.038414
 20
133.653894
 30
0.0
 11
-419.038414
 21
132.869568
 31
0.0
  0
ARC
  5
543
100
AcDbEntity
  8
2
100
AcDbCircle
 10
-650.038414
 20
133.653894
 30
0.0
 40
5.0
100
AcDbArc
 50
90.0
 51
180.0
  0
ARC
  5
544
100
AcDbEntity
  8
2
100
AcDbCircle
 10
-549.038414
 20
133.653894
 30
0.0
 40
5.0
100
AcDbArc
 50
360.0
 51
90.0
  0
ARC
  5
545
100
AcDbEntity
  8
2
100
AcDbCircle
 10
-525.038414
 20
133.653894
 30
0.0
 40
5.0
100
AcDbArc
 50
90.0
 51
180.0
  0
ARC
  5
546
100
AcDbEntity
  8
2
100
AcDbCircle
 10
-424.038414
 20
133.653894
 30
0.0
 40
5.0
100
AcDbArc
 50
0.0
 51
90.0
  0
ARC
  5
547
100
AcDbEntity
  8
2
100
AcDbCircle
 10
-655.538414
 20
124.153894
 30
0.0
 40
0.5
100
AcDbArc
 50
270.0
 51
360.0
  0
ARC
  5
548
100
AcDbEntity
  8
2
100
AcDbCircle
 10
-543.538414
 20
124.153894
 30
0.0
 40
0.5
100
AcDbArc
 50
180.0
 51
270.0
  0
ARC
  5
549
100
AcDbEntity
  8
2
100
AcDbCircle
 10
-530.538414
 20
124.153894
 30
0.0
 40
0.5
100
AcDbArc
 50
270.0
 51
360.0
  0
ARC
  5
54A
100
AcDbEntity
  8
2
100
AcDbCircle
 10
-668.538414
 20
123.153894
 30
0.0
 40
0.5
100
AcDbArc
 50
90.0
 51
180.0
  0
LINE
  5
54B
100
AcDbEntity
  8
2
100
AcDbLine
 10
-487.538414
 20
143.653894
 30
0.0
 11
-572.538414
 21
143.653894
 31
0.0
  0
LINE
  5
54C
100
AcDbEntity
  8
2
100
AcDbLine
 10
-572.538414
 20
144.853894
 30
0.0
 11
-572.538414
 21
141.653894
 31
0.0
  0
LINE
  5
54D
100
AcDbEntity
  8
2
100
AcDbLine
 10
-487.538414
 20
144.853894
 30
0.0
 11
-487.538414
 21
141.653894
 31
0.0
  0
ARC
  5
54E
100
AcDbEntity
  8
2
100
AcDbCircle
 10
-484.538414
 20
141.653894
 30
0.0
 40
3.0
100
AcDbArc
 50
180.0
 51
270.0
  0
ARC
  5
54F
100
AcDbEntity
  8
2
100
AcDbCircle
 10
-575.538414
 20
141.653894
 30
0.0
 40
3.0
100
AcDbArc
 50
270.0
 51
360.0
  0
LINE
  5
550
100
AcDbEntity
  8
2
100
AcDbLine
 10
-367.038414
 20
351.253894
 30
0.0
 11
-751.038414
 21
351.253894
 31
0.0
  0
LINE
  5
551
100
AcDbEntity
  8
2
100
AcDbLine
 10
-375.515296
 20
336.253894
 30
0.0
 11
-742.558509
 21
336.253894
 31
0.0
  0
LINE
  5
552
100
AcDbEntity
  8
2
100
AcDbLine
 10
-377.234046
 20
303.253894
 30
0.0
 11
-720.434452
 21
303.253894
 31
0.0
  0
ARC
  5
553
100
AcDbEntity
  8
2
100
AcDbCircle
 10
-680.038414
 20
18.653894
 30
0.0
 40
45.0
100
AcDbArc
 50
96.908613
 51
270.0
  0
LINE
  5
554
100
AcDbEntity
  8
2
100
AcDbLine
 10
-726.230007
 20
307.70098
 30
0.0
 11
-733.28494
 21
334.030351
 31
0.0
  0
ARC
  5
555
100
AcDbEntity
  8
2
100
AcDbCircle
 10
-725.69497
 20
60.504887
 30
0.0
 40
21.0
100
AcDbArc
 50
94.0
 51
170.0242
  0
ARC
  5
556
100
AcDbEntity
  8
2
100
AcDbCircle
 10
-720.089425
 20
-15.346106
 30
0.0
 40
21.0
100
AcDbArc
 50
198.428986
 51
270.0
  0
ARC
  5
557
100
AcDbEntity
  8
2
100
AcDbCircle
 10
-720.434452
 20
309.253894
 30
0.0
 40
6.0
100
AcDbArc
 50
195.0
 51
270.0
  0
LINE
  5
558
100
AcDbEntity
  8
2
100
AcDbLine
 10
-369.137162
 20
349.35792
 30
0.0
 11
-371.242168
 21
308.941817
 31
0.0
  0
ARC
  5
559
100
AcDbEntity
  8
2
100
AcDbCircle
 10
-377.234046
 20
309.253894
 30
0.0
 40
6.0
100
AcDbArc
 50
270.0
 51
357.018539
  0
ARC
  5
55A
100
AcDbEntity
  8
2
100
AcDbCircle
 10
-680.038414
 20
18.653894
 30
0.0
 40
53.842323
100
AcDbArc
 50
95.26735
 51
271.641263
  0
LINE
  5
55B
100
AcDbEntity
  8
2
100
AcDbLine
 10
-748.939084
 20
349.358566
 30
0.0
 11
-748.550287
 21
341.939878
 31
0.0
  0
ARC
  5
55C
100
AcDbEntity
  8
2
100
AcDbCircle
 10
-742.558509
 20
342.253894
 30
0.0
 40
6.0
100
AcDbArc
 50
183.0
 51
270.0
  0
ARC
  5
55D
100
AcDbEntity
  8
2
100
AcDbCircle
 10
-736.182718
 20
333.253894
 30
0.0
 40
3.0
100
AcDbArc
 50
15.0
 51
90.0
  0
ARC
  5
55E
100
AcDbEntity
  8
2
100
AcDbCircle
 10
-750.936343
 20
349.253894
 30
0.0
 40
2.0
100
AcDbArc
 50
3.0
 51
90.0
  0
ARC
  5
55F
100
AcDbEntity
  8
2
100
AcDbCircle
 10
-751.038414
 20
353.253894
 30
0.0
 40
2.0
100
AcDbArc
 50
180.0
 51
270.0
  0
ARC
  5
560
100
AcDbEntity
  8
2
100
AcDbCircle
 10
-375.515296
 20
342.253894
 30
0.0
 40
6.0
100
AcDbArc
 50
270.0
 51
357.018539
  0
ARC
  5
561
100
AcDbEntity
  8
2
100
AcDbCircle
 10
-367.139869
 20
349.253894
 30
0.0
 40
2.0
100
AcDbArc
 50
90.0
 51
177.018539
  0
ARC
  5
562
100
AcDbEntity
  8
2
100
AcDbCircle
 10
-367.038414
 20
353.253894
 30
0.0
 40
2.0
100
AcDbArc
 50
270.0
 51
0.0
  0
LINE
  5
563
100
AcDbEntity
  8
2
100
AcDbLine
 10
-409.055712
 20
269.253894
 30
0.0
 11
-454.021115
 21
269.253894
 31
0.0
  0
LINE
  5
564
100
AcDbEntity
  8
2
100
AcDbLine
 10
-414.436343
 20
256.253894
 30
0.0
 11
-448.640484
 21
256.253894
 31
0.0
  0
LINE
  5
565
100
AcDbEntity
  8
2
100
AcDbLine
 10
-456.975538
 20
271.73295
 30
0.0
 11
-461.07645
 21
294.990376
 31
0.0
  0
LINE
  5
566
100
AcDbEntity
  8
2
100
AcDbLine
 10
-406.101289
 20
271.73295
 30
0.0
 11
-402.000377
 21
294.990376
 31
0.0
  0
LINE
  5
567
100
AcDbEntity
  8
2
100
AcDbLine
 10
-412.439084
 20
258.149222
 30
0.0
 11
-411.956442
 21
267.358566
 31
0.0
  0
LINE
  5
568
100
AcDbEntity
  8
2
100
AcDbLine
 10
-450.637743
 20
258.149222
 30
0.0
 11
-451.120385
 21
267.358566
 31
0.0
  0
ARC
  5
569
100
AcDbEntity
  8
2
100
AcDbCircle
 10
-409.055712
 20
272.253894
 30
0.0
 40
3.0
100
AcDbArc
 50
270.0
 51
350.0
  0
ARC
  5
56A
100
AcDbEntity
  8
2
100
AcDbCircle
 10
-454.021115
 20
272.253894
 30
0.0
 40
3.0
100
AcDbArc
 50
190.0
 51
270.0
  0
ARC
  5
56B
100
AcDbEntity
  8
2
100
AcDbCircle
 10
-409.959183
 20
267.253894
 30
0.0
 40
2.0
100
AcDbArc
 50
90.0
 51
177.0
  0
ARC
  5
56C
100
AcDbEntity
  8
2
100
AcDbCircle
 10
-453.117644
 20
267.253894
 30
0.0
 40
2.0
100
AcDbArc
 50
3.0
 51
90.0
  0
ARC
  5
56D
100
AcDbEntity
  8
2
100
AcDbCircle
 10
-414.436343
 20
258.253894
 30
0.0
 40
2.0
100
AcDbArc
 50
270.0
 51
357.0
  0
ARC
  5
56E
100
AcDbEntity
  8
2
100
AcDbCircle
 10
-448.640484
 20
258.253894
 30
0.0
 40
2.0
100
AcDbArc
 50
183.0
 51
270.0
  0
ARC
  5
56F
100
AcDbEntity
  8
2
100
AcDbCircle
 10
-392.1523
 20
293.253894
 30
0.0
 40
10.0
100
AcDbArc
 50
90.0
 51
170.0
  0
ARC
  5
570
100
AcDbEntity
  8
2
100
AcDbCircle
 10
-470.924527
 20
293.253894
 30
0.0
 40
10.0
100
AcDbArc
 50
10.0
 51
90.0
  0
ARC
  5
571
100
AcDbEntity
  8
2
100
AcDbCircle
 10
-573.038414
 20
33.653894
 30
0.0
 40
176.0
100
AcDbArc
 50
170.0242
 51
180.828003
  0
ARC
  5
572
100
AcDbEntity
  8
2
100
AcDbCircle
 10
-573.038414
 20
33.653894
 30
0.0
 40
176.0
100
AcDbArc
 50
188.476216
 51
198.428986
  0
ARC
  5
573
100
AcDbEntity
  8
2
100
AcDbCircle
 10
-744.038414
 20
19.653894
 30
0.0
 40
8.5
100
AcDbArc
 50
270.0
 51
90.0
  0
LINE
  5
574
100
AcDbEntity
  8
2
100
AcDbLine
 10
-744.038414
 20
28.153894
 30
0.0
 11
-746.020349
 21
28.153894
 31
0.0
  0
LINE
  5
575
100
AcDbEntity
  8
2
100
AcDbLine
 10
-744.038414
 20
11.153894
 30
0.0
 11
-744.148758
 21
11.153894
 31
0.0
  0
ARC
  5
576
100
AcDbEntity
  8
2
100
AcDbCircle
 10
-746.020349
 20
31.153894
 30
0.0
 40
3.0
100
AcDbArc
 50
180.828003
 51
270.0
  0
ARC
  5
577
100
AcDbEntity
  8
2
100
AcDbCircle
 10
-744.148758
 20
8.153894
 30
0.0
 40
3.0
100
AcDbArc
 50
90.0
 51
188.476216
  0
LINE
  5
578
100
AcDbEntity
  8
2
100
AcDbLine
 10
-621.538414
 20
83.653894
 30
0.0
 11
-621.538414
 21
86.041957
 31
0.0
  0
LINE
  5
579
100
AcDbEntity
  8
2
100
AcDbLine
 10
-638.538414
 20
83.653894
 30
0.0
 11
-638.538414
 21
84.43364
 31
0.0
  0
ARC
  5
57A
100
AcDbEntity
  8
2
100
AcDbCircle
 10
-630.038414
 20
83.653894
 30
0.0
 40
8.5
100
AcDbArc
 50
180.0
 51
360.0
  0
LINE
  5
57B
100
AcDbEntity
  8
2
100
AcDbLine
 10
-727.159856
 20
81.453732
 30
0.0
 11
-641.747683
 21
87.426333
 31
0.0
  0
ARC
  5
57C
100
AcDbEntity
  8
2
100
AcDbCircle
 10
-618.538414
 20
86.041957
 30
0.0
 40
3.0
100
AcDbArc
 50
94.0
 51
180.0
  0
ARC
  5
57D
100
AcDbEntity
  8
2
100
AcDbCircle
 10
-641.538414
 20
84.43364
 30
0.0
 40
3.0
100
AcDbArc
 50
0.0
 51
94.0
  0
LINE
  5
57E
100
AcDbEntity
  8
2
100
AcDbLine
 10
-684.981309
 20
72.268851
 30
0.0
 11
-635.150382
 21
76.862887
 31
0.0
  0
LINE
  5
57F
100
AcDbEntity
  8
2
100
AcDbLine
 10
-618.747683
 20
89.034649
 30
0.0
 11
-509.162455
 21
96.697595
 31
0.0
  0
LINE
  5
580
100
AcDbEntity
  8
2
100
AcDbLine
 10
-623.771004
 20
77.91198
 30
0.0
 11
-515.553742
 21
87.888796
 31
0.0
  0
LINE
  5
581
100
AcDbEntity
  8
2
100
AcDbLine
 10
-685.451287
 20
63.327161
 30
0.0
 11
-518.17472
 21
83.595365
 31
0.0
  0
ARC
  5
582
100
AcDbEntity
  8
2
100
AcDbCircle
 10
-506.538414
 20
-33.346106
 30
0.0
 40
3.0
100
AcDbArc
 50
270.0
 51
323.537161
  0
LINE
  5
583
100
AcDbEntity
  8
2
100
AcDbLine
 10
-678.496287
 20
-35.16634
 30
0.0
 11
-617.539317
 21
-33.419723
 31
0.0
  0
LINE
  5
584
100
AcDbEntity
  8
2
100
AcDbLine
 10
-600.538414
 20
-32.932591
 30
0.0
 11
-508.420026
 21
-30.293097
 31
0.0
  0
LINE
  5
585
100
AcDbEntity
  8
2
100
AcDbLine
 10
-617.538414
 20
-32.346106
 30
0.0
 11
-617.538414
 21
-33.346106
 31
0.0
  0
LINE
  5
586
100
AcDbEntity
  8
2
100
AcDbLine
 10
-600.538414
 20
-32.346106
 30
0.0
 11
-600.538414
 21
-33.346106
 31
0.0
  0
ARC
  5
587
100
AcDbEntity
  8
2
100
AcDbCircle
 10
-609.038414
 20
-32.346106
 30
0.0
 40
8.5
100
AcDbArc
 50
0.0
 51
180.0
  0
LINE
  5
588
100
AcDbEntity
  8
2
100
AcDbLine
 10
-680.038414
 20
-26.346106
 30
0.0
 11
-615.059211
 21
-26.346106
 31
0.0
  0
LINE
  5
589
100
AcDbEntity
  8
2
100
AcDbLine
 10
-603.017616
 20
-26.346106
 30
0.0
 11
-511.538414
 21
-26.346106
 31
0.0
  0
LINE
  5
58A
100
AcDbEntity
  8
2
100
AcDbLine
 10
-720.089425
 20
-36.346106
 30
0.0
 11
-620.538414
 21
-36.346106
 31
0.0
  0
LINE
  5
58B
100
AcDbEntity
  8
2
100
AcDbLine
 10
-597.538414
 20
-36.346106
 30
0.0
 11
-506.538414
 21
-36.346106
 31
0.0
  0
ARC
  5
58C
100
AcDbEntity
  8
2
100
AcDbCircle
 10
-597.538414
 20
-33.346106
 30
0.0
 40
3.0
100
AcDbArc
 50
180.0
 51
270.0
  0
ARC
  5
58D
100
AcDbEntity
  8
2
100
AcDbCircle
 10
-620.538414
 20
-33.346106
 30
0.0
 40
3.0
100
AcDbArc
 50
270.0
 51
0.0
  0
LINE
  5
58E
100
AcDbEntity
  8
2
100
AcDbLine
 10
-394.538414
 20
336.753894
 30
0.0
 11
-394.538414
 21
350.753894
 31
0.0
  0
LINE
  5
58F
100
AcDbEntity
  8
2
100
AcDbLine
 10
-374.813143
 20
336.886881
 30
0.0
 11
-374.813143
 21
350.753894
 31
0.0
  0
ARC
  5
590
100
AcDbEntity
  8
2
100
AcDbCircle
 10
-395.038414
 20
336.753894
 30
0.0
 40
0.5
100
AcDbArc
 50
270.0
 51
360.0
  0
ARC
  5
591
100
AcDbEntity
  8
2
100
AcDbCircle
 10
-394.038414
 20
350.753894
 30
0.0
 40
0.5
100
AcDbArc
 50
90.0
 51
180.0
  0
ARC
  5
592
100
AcDbEntity
  8
2
100
AcDbCircle
 10
-375.313143
 20
350.753894
 30
0.0
 40
0.5
100
AcDbArc
 50
0.0
 51
90.0
  0
ARC
  5
593
100
AcDbEntity
  8
2
100
AcDbCircle
 10
-374.313143
 20
336.886881
 30
0.0
 40
0.5
100
AcDbArc
 50
180.0
 51
282.625246
  0
LINE
  5
594
100
AcDbEntity
  8
2
100
AcDbLine
 10
130.461586
 20
98.653894
 30
0.0
 11
130.461586
 21
70.653894
 31
0.0
  0
LINE
  5
595
100
AcDbEntity
  8
2
100
AcDbLine
 10
94.461586
 20
98.653894
 30
0.0
 11
94.461586
 21
70.653894
 31
0.0
  0
LINE
  5
596
100
AcDbEntity
  8
2
100
AcDbLine
 10
80.461586
 20
98.653894
 30
0.0
 11
80.461586
 21
70.653894
 31
0.0
  0
LINE
  5
597
100
AcDbEntity
  8
2
100
AcDbLine
 10
44.461586
 20
98.653894
 30
0.0
 11
44.461586
 21
70.653894
 31
0.0
  0
ARC
  5
598
100
AcDbEntity
  8
2
100
AcDbCircle
 10
112.461586
 20
98.653894
 30
0.0
 40
18.0
100
AcDbArc
 50
0.0
 51
180.0
  0
ARC
  5
599
100
AcDbEntity
  8
2
100
AcDbCircle
 10
62.461586
 20
98.653894
 30
0.0
 40
18.0
100
AcDbArc
 50
0.0
 51
180.0
  0
ARC
  5
59A
100
AcDbEntity
  8
2
100
AcDbCircle
 10
132.461586
 20
70.653894
 30
0.0
 40
2.0
100
AcDbArc
 50
180.0
 51
270.0
  0
ARC
  5
59B
100
AcDbEntity
  8
2
100
AcDbCircle
 10
92.461586
 20
70.653894
 30
0.0
 40
2.0
100
AcDbArc
 50
270.0
 51
0.0
  0
ARC
  5
59C
100
AcDbEntity
  8
2
100
AcDbCircle
 10
82.461586
 20
70.653894
 30
0.0
 40
2.0
100
AcDbArc
 50
180.0
 51
270.0
  0
ARC
  5
59D
100
AcDbEntity
  8
2
100
AcDbCircle
 10
42.461586
 20
70.653894
 30
0.0
 40
2.0
100
AcDbArc
 50
270.0
 51
360.0
  0
LINE
  5
59E
100
AcDbEntity
  8
2
100
AcDbLine
 10
187.461586
 20
73.653894
 30
0.0
 11
187.461586
 21
33.653894
 31
0.0
  0
ARC
  5
59F
100
AcDbEntity
  8
2
100
AcDbCircle
 10
177.461586
 20
73.653894
 30
0.0
 40
10.0
100
AcDbArc
 50
0.0
 51
90.0
  0
ARC
  5
5A0
100
AcDbEntity
  8
2
100
AcDbCircle
 10
177.461586
 20
58.653894
 30
0.0
 40
10.0
100
AcDbArc
 50
0.0
 51
90.0
  0
LINE
  5
5A1
100
AcDbEntity
  8
2
100
AcDbLine
 10
81.961586
 20
61.653894
 30
0.0
 11
92.961586
 21
61.653894
 31
0.0
  0
LINE
  5
5A2
100
AcDbEntity
  8
2
100
AcDbLine
 10
167.961586
 20
61.653894
 30
0.0
 11
185.39884
 21
61.653894
 31
0.0
  0
LINE
  5
5A3
100
AcDbEntity
  8
2
100
AcDbLine
 10
167.461586
 20
68.153894
 30
0.0
 11
167.461586
 21
62.153894
 31
0.0
  0
LINE
  5
5A4
100
AcDbEntity
  8
2
100
AcDbLine
 10
93.461586
 20
66.653894
 30
0.0
 11
93.461586
 21
62.153894
 31
0.0
  0
LINE
  5
5A5
100
AcDbEntity
  8
2
100
AcDbLine
 10
81.461586
 20
66.653894
 30
0.0
 11
81.461586
 21
62.153894
 31
0.0
  0
ARC
  5
5A6
100
AcDbEntity
  8
2
100
AcDbCircle
 10
92.961586
 20
62.153894
 30
0.0
 40
0.5
100
AcDbArc
 50
270.0
 51
360.0
  0
ARC
  5
5A7
100
AcDbEntity
  8
2
100
AcDbCircle
 10
81.961586
 20
62.153894
 30
0.0
 40
0.5
100
AcDbArc
 50
180.0
 51
270.0
  0
ARC
  5
5A8
100
AcDbEntity
  8
2
100
AcDbCircle
 10
95.461586
 20
66.653894
 30
0.0
 40
2.0
100
AcDbArc
 50
90.0
 51
180.0
  0
ARC
  5
5A9
100
AcDbEntity
  8
2
100
AcDbCircle
 10
79.461586
 20
66.653894
 30
0.0
 40
2.0
100
AcDbArc
 50
0.0
 51
90.0
  0
ARC
  5
5AA
100
AcDbEntity
  8
2
100
AcDbCircle
 10
167.961586
 20
62.153894
 30
0.0
 40
0.5
100
AcDbArc
 50
180.0
 51
270.0
  0
ARC
  5
5AB
100
AcDbEntity
  8
2
100
AcDbCircle
 10
166.961586
 20
68.153894
 30
0.0
 40
0.5
100
AcDbArc
 50
0.0
 51
90.0
  0
ARC
  5
5AC
100
AcDbEntity
  8
2
100
AcDbCircle
 10
185.39884
 20
59.653894
 30
0.0
 40
2.0
100
AcDbArc
 50
7.180756
 51
90.0
  0
LINE
  5
5AD
100
AcDbEntity
  8
2
100
AcDbLine
 10
-0.538414
 20
-38.346106
 30
0.0
 11
-0.538414
 21
104.670185
 31
0.0
  0
LINE
  5
5AE
100
AcDbEntity
  8
2
100
AcDbLine
 10
-20.538414
 20
107.670185
 30
0.0
 11
-3.538414
 21
107.670185
 31
0.0
  0
LINE
  5
5AF
100
AcDbEntity
  8
2
100
AcDbLine
 10
-20.538414
 20
-40.346106
 30
0.0
 11
-2.538414
 21
-40.346106
 31
0.0
  0
ARC
  5
5B0
100
AcDbEntity
  8
2
100
AcDbCircle
 10
-3.538414
 20
104.670185
 30
0.0
 40
3.0
100
AcDbArc
 50
0.0
 51
90.0
  0
ARC
  5
5B1
100
AcDbEntity
  8
2
100
AcDbCircle
 10
4.461586
 20
73.653894
 30
0.0
 40
5.0
100
AcDbArc
 50
180.0
 51
270.0
  0
ARC
  5
5B2
100
AcDbEntity
  8
2
100
AcDbCircle
 10
-2.538414
 20
-38.346106
 30
0.0
 40
2.0
100
AcDbArc
 50
270.0
 51
360.0
  0
LINE
  5
5B3
100
AcDbEntity
  8
2
100
AcDbLine
 10
157.461586
 20
123.653894
 30
0.0
 11
157.461586
 21
73.653894
 31
0.0
  0
LINE
  5
5B4
100
AcDbEntity
  8
2
100
AcDbLine
 10
17.461586
 20
123.653894
 30
0.0
 11
17.461586
 21
86.653894
 31
0.0
  0
ARC
  5
5B5
100
AcDbEntity
  8
2
100
AcDbCircle
 10
162.461586
 20
73.653894
 30
0.0
 40
5.0
100
AcDbArc
 50
180.0
 51
270.0
  0
LINE
  5
5B6
100
AcDbEntity
  8
2
100
AcDbLine
 10
2.461586
 20
81.653894
 30
0.0
 11
12.461586
 21
81.653894
 31
0.0
  0
ARC
  5
5B7
100
AcDbEntity
  8
2
100
AcDbCircle
 10
12.461586
 20
86.653894
 30
0.0
 40
5.0
100
AcDbArc
 50
270.0
 51
360.0
  0
ARC
  5
5B8
100
AcDbEntity
  8
2
100
AcDbCircle
 10
2.461586
 20
84.653894
 30
0.0
 40
3.0
100
AcDbArc
 50
180.0
 51
270.0
  0
LINE
  5
5B9
100
AcDbEntity
  8
2
100
AcDbLine
 10
-0.538414
 20
92.814307
 30
0.0
 11
14.461586
 21
92.814307
 31
0.0
  0
ARC
  5
5BA
100
AcDbEntity
  8
2
100
AcDbCircle
 10
14.461586
 20
95.814307
 30
0.0
 40
3.0
100
AcDbArc
 50
270.0
 51
360.0
  0
ARC
  5
5BB
100
AcDbEntity
  8
2
100
AcDbCircle
 10
-11.538414
 20
-41.346106
 30
0.0
 40
1.0
100
AcDbArc
 50
0.0
 51
90.0
  0
LINE
  5
5BC
100
AcDbEntity
  8
2
100
AcDbLine
 10
200.461586
 20
33.653894
 30
0.0
 11
200.461586
 21
-0.346106
 31
0.0
  0
LINE
  5
5BD
100
AcDbEntity
  8
2
100
AcDbLine
 10
189.462625
 20
-1.346106
 30
0.0
 11
199.461586
 21
-1.346106
 31
0.0
  0
ARC
  5
5BE
100
AcDbEntity
  8
2
100
AcDbCircle
 10
199.461586
 20
-0.346106
 30
0.0
 40
1.0
100
AcDbArc
 50
270.0
 51
360.0
  0
LINE
  5
5BF
100
AcDbEntity
  8
2
100
AcDbLine
 10
187.461586
 20
33.653894
 30
0.0
 11
185.461586
 21
-42.346106
 31
0.0
  0
ARC
  5
5C0
100
AcDbEntity
  8
2
100
AcDbCircle
 10
189.462625
 20
-4.346106
 30
0.0
 40
3.0
100
AcDbArc
 50
90.0
 51
178.492564
  0
LINE
  5
5C1
100
AcDbEntity
  8
2
100
AcDbLine
 10
195.461586
 20
33.653894
 30
0.0
 11
195.461586
 21
1.653894
 31
0.0
  0
ARC
  5
5C2
100
AcDbEntity
  8
2
100
AcDbCircle
 10
192.461586
 20
1.653894
 30
0.0
 40
3.0
100
AcDbArc
 50
270.0
 51
360.0
  0
LINE
  5
5C3
100
AcDbEntity
  8
2
100
AcDbLine
 10
200.461586
 20
25.653894
 30
0.0
 11
213.461586
 21
25.653894
 31
0.0
  0
LINE
  5
5C4
100
AcDbEntity
  8
2
100
AcDbLine
 10
200.461586
 20
13.653894
 30
0.0
 11
212.104813
 21
13.653894
 31
0.0
  0
ARC
  5
5C5
100
AcDbEntity
  8
2
100
AcDbCircle
 10
199.516428
 20
19.653894
 30
0.0
 40
13.945159
100
AcDbArc
 50
334.516139
 51
25.483861
  0
LINE
  5
5C6
100
AcDbEntity
  8
2
100
AcDbLine
 10
200.461586
 20
1.653894
 30
0.0
 11
213.461586
 21
1.653894
 31
0.0
  0
LINE
  5
5C7
100
AcDbEntity
  8
2
100
AcDbLine
 10
213.461586
 20
1.653894
 30
0.0
 11
213.461586
 21
25.653894
 31
0.0
  0
ARC
  5
5C8
100
AcDbEntity
  8
2
100
AcDbCircle
 10
199.516428
 20
7.653894
 30
0.0
 40
13.945159
100
AcDbArc
 50
334.516139
 51
25.483861
  0
LINE
  5
5C9
100
AcDbEntity
  8
2
100
AcDbLine
 10
223.461586
 20
6.736394
 30
0.0
 11
222.379086
 21
5.653894
 31
0.0
  0
LINE
  5
5CA
100
AcDbEntity
  8
2
100
AcDbLine
 10
222.379086
 20
5.653894
 30
0.0
 11
213.461586
 21
5.653894
 31
0.0
  0
LINE
  5
5CB
100
AcDbEntity
  8
2
 62
     2
100
AcDbLine
 10
223.461586
 20
6.736394
 30
0.0
 11
213.461586
 21
6.736394
 31
0.0
  0
LINE
  5
5CC
100
AcDbEntity
  8
2
100
AcDbLine
 10
223.461586
 20
6.736394
 30
0.0
 11
223.461586
 21
20.571394
 31
0.0
  0
LINE
  5
5CD
100
AcDbEntity
  8
2
100
AcDbLine
 10
223.461586
 20
20.571394
 30
0.0
 11
222.379086
 21
21.653894
 31
0.0
  0
LINE
  5
5CE
100
AcDbEntity
  8
2
100
AcDbLine
 10
222.379086
 20
21.653894
 30
0.0
 11
213.461586
 21
21.653894
 31
0.0
  0
LINE
  5
5CF
100
AcDbEntity
  8
2
100
AcDbLine
 10
222.379086
 20
21.653894
 30
0.0
 11
222.379086
 21
5.653894
 31
0.0
  0
LINE
  5
5D0
100
AcDbEntity
  8
2
 62
     2
100
AcDbLine
 10
223.461586
 20
20.571394
 30
0.0
 11
213.461586
 21
20.571394
 31
0.0
  0
LINE
  5
5D1
100
AcDbEntity
  8
2
100
AcDbLine
 10
17.961586
 20
123.653894
 30
0.0
 11
156.961586
 21
123.653894
 31
0.0
  0
LINE
  5
5D2
100
AcDbEntity
  8
2
100
AcDbLine
 10
23.355572
 20
138.653894
 30
0.0
 11
151.567601
 21
138.653894
 31
0.0
  0
LINE
  5
5D3
100
AcDbEntity
  8
2
100
AcDbLine
 10
44.961586
 20
143.653894
 30
0.0
 11
129.961586
 21
143.653894
 31
0.0
  0
LINE
  5
5D4
100
AcDbEntity
  8
2
100
AcDbLine
 10
157.461586
 20
123.653894
 30
0.0
 11
156.548574
 21
134.089673
 31
0.0
  0
LINE
  5
5D5
100
AcDbEntity
  8
2
100
AcDbLine
 10
17.461586
 20
123.653894
 30
0.0
 11
18.374599
 21
134.089673
 31
0.0
  0
ARC
  5
5D6
100
AcDbEntity
  8
2
100
AcDbCircle
 10
151.567601
 20
133.653894
 30
0.0
 40
5.0
100
AcDbArc
 50
5.0
 51
90.0
  0
ARC
  5
5D7
100
AcDbEntity
  8
2
100
AcDbCircle
 10
23.355572
 20
133.653894
 30
0.0
 40
5.0
100
AcDbArc
 50
90.0
 51
175.0
  0
LINE
  5
5D8
100
AcDbEntity
  8
2
100
AcDbLine
 10
129.961586
 20
144.853894
 30
0.0
 11
129.961586
 21
141.653894
 31
0.0
  0
LINE
  5
5D9
100
AcDbEntity
  8
2
100
AcDbLine
 10
44.961586
 20
144.853894
 30
0.0
 11
44.961586
 21
141.653894
 31
0.0
  0
ARC
  5
5DA
100
AcDbEntity
  8
2
100
AcDbCircle
 10
132.961586
 20
141.653894
 30
0.0
 40
3.0
100
AcDbArc
 50
180.0
 51
270.0
  0
ARC
  5
5DB
100
AcDbEntity
  8
2
100
AcDbCircle
 10
41.961586
 20
141.653894
 30
0.0
 40
3.0
100
AcDbArc
 50
270.0
 51
360.0
  0
LINE
  5
5DC
100
AcDbEntity
  8
2
100
AcDbLine
 10
143.461586
 20
133.653894
 30
0.0
 11
143.461586
 21
124.153894
 31
0.0
  0
LINE
  5
5DD
100
AcDbEntity
  8
2
100
AcDbLine
 10
31.461586
 20
133.653894
 30
0.0
 11
31.461586
 21
124.153894
 31
0.0
  0
ARC
  5
5DE
100
AcDbEntity
  8
2
100
AcDbCircle
 10
138.461586
 20
133.653894
 30
0.0
 40
5.0
100
AcDbArc
 50
360.0
 51
90.0
  0
ARC
  5
5DF
100
AcDbEntity
  8
2
100
AcDbCircle
 10
36.461586
 20
133.653894
 30
0.0
 40
5.0
100
AcDbArc
 50
90.0
 51
180.0
  0
ARC
  5
5E0
100
AcDbEntity
  8
2
100
AcDbCircle
 10
143.961586
 20
124.153894
 30
0.0
 40
0.5
100
AcDbArc
 50
180.0
 51
270.0
  0
ARC
  5
5E1
100
AcDbEntity
  8
2
100
AcDbCircle
 10
30.961586
 20
124.153894
 30
0.0
 40
0.5
100
AcDbArc
 50
270.0
 51
360.0
  0
ARC
  5
5E2
100
AcDbEntity
  8
2
100
AcDbCircle
 10
156.961586
 20
123.153894
 30
0.0
 40
0.5
100
AcDbArc
 50
0.0
 51
90.0
  0
ARC
  5
5E3
100
AcDbEntity
  8
2
100
AcDbCircle
 10
17.961586
 20
123.153894
 30
0.0
 40
0.5
100
AcDbArc
 50
90.0
 51
180.0
  0
LINE
  5
5E4
100
AcDbEntity
  8
2
100
AcDbLine
 10
-652.038414
 20
529.941894
 30
0.0
 11
-544.160474
 21
529.941894
 31
0.0
  0
LINE
  5
5E5
100
AcDbEntity
  8
2
100
AcDbLine
 10
-529.916353
 20
529.941894
 30
0.0
 11
-422.038414
 21
529.941894
 31
0.0
  0
LINE
  5
5E6
100
AcDbEntity
  8
2
100
AcDbLine
 10
-652.038414
 20
392.565894
 30
0.0
 11
-544.160474
 21
392.565894
 31
0.0
  0
LINE
  5
5E7
100
AcDbEntity
  8
2
100
AcDbLine
 10
-529.916353
 20
392.565894
 30
0.0
 11
-422.038414
 21
392.565894
 31
0.0
  0
LINE
  5
5E8
100
AcDbEntity
  8
2
100
AcDbLine
 10
-22.538414
 20
-38.346106
 30
0.0
 11
-22.538414
 21
105.670185
 31
0.0
  0
LINE
  5
5E9
100
AcDbEntity
  8
2
100
AcDbLine
 10
-37.538414
 20
-29.866202
 30
0.0
 11
-37.538414
 21
97.190281
 31
0.0
  0
LINE
  5
5EA
100
AcDbEntity
  8
2
100
AcDbLine
 10
-70.538414
 20
-21.742144
 30
0.0
 11
-70.538414
 21
87.958262
 31
0.0
  0
ARC
  5
5EB
100
AcDbEntity
  8
2
100
AcDbCircle
 10
-20.538414
 20
105.670185
 30
0.0
 40
2.0
100
AcDbArc
 50
90.0
 51
180.0
  0
ARC
  5
5EC
100
AcDbEntity
  8
2
100
AcDbCircle
 10
-20.538414
 20
-38.346106
 30
0.0
 40
2.0
100
AcDbArc
 50
180.0
 51
270.0
  0
LINE
  5
5ED
100
AcDbEntity
  8
2
100
AcDbLine
 10
-64.850491
 20
93.95014
 30
0.0
 11
-40.322864
 21
95.227621
 31
0.0
  0
LINE
  5
5EE
100
AcDbEntity
  8
2
100
AcDbLine
 10
-24.433742
 20
103.570855
 30
0.0
 11
-31.852429
 21
103.182058
 31
0.0
  0
ARC
  5
5EF
100
AcDbEntity
  8
2
100
AcDbCircle
 10
-64.538414
 20
87.958262
 30
0.0
 40
6.0
100
AcDbArc
 50
92.981461
 51
180.0
  0
ARC
  5
5F0
100
AcDbEntity
  8
2
100
AcDbCircle
 10
-31.538414
 20
97.190281
 30
0.0
 40
6.0
100
AcDbArc
 50
93.0
 51
180.0
  0
ARC
  5
5F1
100
AcDbEntity
  8
2
100
AcDbCircle
 10
-40.478902
 20
98.22356
 30
0.0
 40
3.0
100
AcDbArc
 50
272.981461
 51
353.407404
  0
ARC
  5
5F2
100
AcDbEntity
  8
2
100
AcDbCircle
 10
-24.538414
 20
105.568114
 30
0.0
 40
2.0
100
AcDbArc
 50
273.0
 51
360.0
  0
LINE
  5
5F3
100
AcDbEntity
  8
2
100
AcDbLine
 10
-66.091328
 20
-27.537699
 30
0.0
 11
-39.646954
 21
-34.623448
 31
0.0
  0
LINE
  5
5F4
100
AcDbEntity
  8
2
100
AcDbLine
 10
-24.433742
 20
-36.246776
 30
0.0
 11
-31.852429
 21
-35.857979
 31
0.0
  0
ARC
  5
5F5
100
AcDbEntity
  8
2
100
AcDbCircle
 10
-64.538414
 20
-21.742144
 30
0.0
 40
6.0
100
AcDbArc
 50
180.0
 51
255.0
  0
ARC
  5
5F6
100
AcDbEntity
  8
2
100
AcDbCircle
 10
-31.538414
 20
-29.866202
 30
0.0
 40
6.0
100
AcDbArc
 50
180.0
 51
267.0
  0
ARC
  5
5F7
100
AcDbEntity
  8
2
100
AcDbCircle
 10
-24.538414
 20
-38.244035
 30
0.0
 40
2.0
100
AcDbArc
 50
0.0
 51
87.0
  0
ARC
  5
5F8
100
AcDbEntity
  8
2
100
AcDbCircle
 10
-29.876801
 20
1.839259
 30
0.0
 40
37.748972
100
AcDbArc
 50
255.0
 51
267.0
  0
LINE
  5
5F9
100
AcDbEntity
  8
2
100
AcDbLine
 10
-39.431942
 20
-27.990112
 30
0.0
 11
-64.855077
 21
-26.646475
 31
0.0
  0
ARC
  5
5FA
100
AcDbEntity
  8
2
100
AcDbCircle
 10
-64.538414
 20
-20.654838
 30
0.0
 40
6.0
100
AcDbArc
 50
180.0
 51
266.974679
  0
LINE
  5
5FB
100
AcDbEntity
  8
2
100
AcDbLine
 10
-37.538414
 20
81.153894
 30
0.0
 11
-22.538414
 21
81.153894
 31
0.0
  0
LINE
  5
5FC
100
AcDbEntity
  8
2
100
AcDbLine
 10
-37.538414
 20
-15.846106
 30
0.0
 11
-22.538414
 21
-15.846106
 31
0.0
  0
LINE
  5
5FD
100
AcDbEntity
  8
2
100
AcDbLine
 10
-33.566618
 20
-35.513005
 30
0.0
 11
-22.538414
 21
-35.513005
 31
0.0
  0
ARC
  5
5FE
100
AcDbEntity
  8
2
100
AcDbCircle
 10
-39.537497
 20
-29.987324
 30
0.0
 40
2.0
100
AcDbArc
 50
0.86751
 51
86.974679
  0
LINE
  5
5FF
100
AcDbEntity
  8
2
100
AcDbLine
 10
-36.189853
 20
100.980283
 30
0.0
 11
-22.538414
 21
100.980283
 31
0.0
  0
LINE
  5
600
100
AcDbEntity
  8
2
100
AcDbLine
 10
-117.538414
 20
16.551823
 30
0.0
 11
-117.538414
 21
50.755965
 31
0.0
  0
LINE
  5
601
100
AcDbEntity
  8
2
100
AcDbLine
 10
-104.538414
 20
11.171193
 30
0.0
 11
-104.538414
 21
56.136595
 31
0.0
  0
LINE
  5
602
100
AcDbEntity
  8
2
100
AcDbLine
 10
-102.059358
 20
59.091019
 30
0.0
 11
-78.801932
 21
63.19193
 31
0.0
  0
LINE
  5
603
100
AcDbEntity
  8
2
100
AcDbLine
 10
-102.059358
 20
8.21677
 30
0.0
 11
-78.801932
 21
4.115858
 31
0.0
  0
LINE
  5
604
100
AcDbEntity
  8
2
100
AcDbLine
 10
-115.643085
 20
52.753224
 30
0.0
 11
-106.433742
 21
53.235865
 31
0.0
  0
LINE
  5
605
100
AcDbEntity
  8
2
100
AcDbLine
 10
-115.643085
 20
14.554564
 30
0.0
 11
-106.433742
 21
14.071923
 31
0.0
  0
ARC
  5
606
100
AcDbEntity
  8
2
100
AcDbCircle
 10
-101.538414
 20
56.136595
 30
0.0
 40
3.0
100
AcDbArc
 50
100.0
 51
180.0
  0
ARC
  5
607
100
AcDbEntity
  8
2
100
AcDbCircle
 10
-101.538414
 20
11.171193
 30
0.0
 40
3.0
100
AcDbArc
 50
180.0
 51
260.0
  0
ARC
  5
608
100
AcDbEntity
  8
2
100
AcDbCircle
 10
-115.538414
 20
50.755965
 30
0.0
 40
2.0
100
AcDbArc
 50
93.0
 51
180.0
  0
ARC
  5
609
100
AcDbEntity
  8
2
100
AcDbCircle
 10
-115.538414
 20
16.551823
 30
0.0
 40
2.0
100
AcDbArc
 50
180.0
 51
267.0
  0
ARC
  5
60A
100
AcDbEntity
  8
2
100
AcDbCircle
 10
-106.538414
 20
12.074664
 30
0.0
 40
2.0
100
AcDbArc
 50
0.0
 51
87.0
  0
ARC
  5
60B
100
AcDbEntity
  8
2
100
AcDbCircle
 10
-106.538414
 20
55.233124
 30
0.0
 40
2.0
100
AcDbArc
 50
273.0
 51
360.0
  0
LINE
  5
60C
100
AcDbEntity
  8
2
100
AcDbLine
 10
-486.538414
 20
336.253894
 30
0.0
 11
-486.538414
 21
351.253894
 31
0.0
  0
LINE
  5
60D
100
AcDbEntity
  8
2
100
AcDbLine
 10
-503.538414
 20
336.253894
 30
0.0
 11
-503.538414
 21
351.253894
 31
0.0
  0
LINE
  5
60E
100
AcDbEntity
  8
2
100
AcDbLine
 10
-621.538414
 20
336.253894
 30
0.0
 11
-621.538414
 21
351.253894
 31
0.0
  0
LINE
  5
60F
100
AcDbEntity
  8
2
100
AcDbLine
 10
-638.538414
 20
336.253894
 30
0.0
 11
-638.538414
 21
351.253894
 31
0.0
  0
LINE
  5
610
100
AcDbEntity
  8
2
100
AcDbLine
 10
-502.226648
 20
336.253894
 30
0.0
 11
-498.652999
 21
303.253894
 31
0.0
  0
LINE
  5
611
100
AcDbEntity
  8
2
100
AcDbLine
 10
-489.691102
 20
303.253894
 30
0.0
 11
-487.14194
 21
336.253894
 31
0.0
  0
LINE
  5
612
100
AcDbEntity
  8
2
100
AcDbLine
 10
-635.150382
 20
332.077583
 30
0.0
 11
-635.150382
 21
336.253894
 31
0.0
  0
LINE
  5
613
100
AcDbEntity
  8
2
100
AcDbLine
 10
-623.771004
 20
332.077583
 30
0.0
 11
-623.771004
 21
336.253894
 31
0.0
  0
ARC
  5
614
100
AcDbEntity
  8
2
100
AcDbCircle
 10
-629.460693
 20
332.077583
 30
0.0
 40
5.689689
100
AcDbArc
 50
180.0
 51
360.0
  0
ARC
  5
615
100
AcDbEntity
  8
2
100
AcDbCircle
 10
-603.038414
 20
-61.346106
 30
0.0
 40
3.0
100
AcDbArc
 50
0.0
 51
90.0
  0
ARC
  5
616
100
AcDbEntity
  8
2
100
AcDbCircle
 10
-391.038414
 20
-55.346106
 30
0.0
 40
3.0
100
AcDbArc
 50
270.0
 51
337.371859
  0
LINE
  5
617
100
AcDbEntity
  8
2
100
AcDbLine
 10
-7.538414
 20
-58.346106
 30
0.0
 11
182.461586
 21
-58.346106
 31
0.0
  0
LINE
  5
618
100
AcDbEntity
  8
2
100
AcDbLine
 10
-10.538414
 20
-42.346106
 30
0.0
 11
-10.538414
 21
-55.346106
 31
0.0
  0
LINE
  5
619
100
AcDbEntity
  8
2
100
AcDbLine
 10
185.461586
 20
-42.346106
 30
0.0
 11
185.461586
 21
-55.346106
 31
0.0
  0
LINE
  5
61A
100
AcDbEntity
  8
2
100
AcDbLine
 10
17.461586
 20
-64.346106
 30
0.0
 11
157.461586
 21
-64.346106
 31
0.0
  0
LINE
  5
61B
100
AcDbEntity
  8
2
100
AcDbLine
 10
17.461586
 20
-61.346106
 30
0.0
 11
17.461586
 21
-64.346106
 31
0.0
  0
LINE
  5
61C
100
AcDbEntity
  8
2
100
AcDbLine
 10
157.461586
 20
-61.346106
 30
0.0
 11
157.461586
 21
-64.346106
 31
0.0
  0
ARC
  5
61D
100
AcDbEntity
  8
2
100
AcDbCircle
 10
160.461586
 20
-61.346106
 30
0.0
 40
3.0
100
AcDbArc
 50
90.0
 51
180.0
  0
ARC
  5
61E
100
AcDbEntity
  8
2
100
AcDbCircle
 10
14.461586
 20
-61.346106
 30
0.0
 40
3.0
100
AcDbArc
 50
0.0
 51
90.0
  0
ARC
  5
61F
100
AcDbEntity
  8
2
100
AcDbCircle
 10
182.461586
 20
-55.346106
 30
0.0
 40
3.0
100
AcDbArc
 50
270.0
 51
360.0
  0
ARC
  5
620
100
AcDbEntity
  8
2
100
AcDbCircle
 10
-7.538414
 20
-55.346106
 30
0.0
 40
3.0
100
AcDbArc
 50
180.0
 51
270.0
  0
LINE
  5
621
100
AcDbEntity
  8
2
100
AcDbLine
 10
166.461586
 20
-49.346106
 30
0.0
 11
184.961586
 21
-49.346106
 31
0.0
  0
LINE
  5
622
100
AcDbEntity
  8
2
100
AcDbLine
 10
-10.038414
 20
-49.346106
 30
0.0
 11
4.461586
 21
-49.346106
 31
0.0
  0
LINE
  5
623
100
AcDbEntity
  8
2
100
AcDbLine
 10
80.461586
 20
-49.346106
 30
0.0
 11
94.461586
 21
-49.346106
 31
0.0
  0
LINE
  5
624
100
AcDbEntity
  8
2
100
AcDbLine
 10
165.961586
 20
-49.846106
 30
0.0
 11
165.961586
 21
-57.346106
 31
0.0
  0
LINE
  5
625
100
AcDbEntity
  8
2
100
AcDbLine
 10
4.961586
 20
-49.846106
 30
0.0
 11
4.961586
 21
-57.346106
 31
0.0
  0
LINE
  5
626
100
AcDbEntity
  8
2
100
AcDbLine
 10
79.961586
 20
-49.846106
 30
0.0
 11
79.961586
 21
-57.346106
 31
0.0
  0
LINE
  5
627
100
AcDbEntity
  8
2
100
AcDbLine
 10
94.961586
 20
-49.846106
 30
0.0
 11
94.961586
 21
-57.346106
 31
0.0
  0
ARC
  5
628
100
AcDbEntity
  8
2
100
AcDbCircle
 10
80.461586
 20
-49.846106
 30
0.0
 40
0.5
100
AcDbArc
 50
90.0
 51
180.0
  0
ARC
  5
629
100
AcDbEntity
  8
2
100
AcDbCircle
 10
94.461586
 20
-49.846106
 30
0.0
 40
0.5
100
AcDbArc
 50
360.0
 51
90.0
  0
ARC
  5
62A
100
AcDbEntity
  8
2
100
AcDbCircle
 10
166.461586
 20
-49.846106
 30
0.0
 40
0.5
100
AcDbArc
 50
90.0
 51
180.0
  0
ARC
  5
62B
100
AcDbEntity
  8
2
100
AcDbCircle
 10
4.461586
 20
-49.846106
 30
0.0
 40
0.5
100
AcDbArc
 50
0.0
 51
90.0
  0
ARC
  5
62C
100
AcDbEntity
  8
2
100
AcDbCircle
 10
184.961586
 20
-48.846106
 30
0.0
 40
0.5
100
AcDbArc
 50
270.0
 51
0.0
  0
ARC
  5
62D
100
AcDbEntity
  8
2
100
AcDbCircle
 10
-10.038414
 20
-48.846106
 30
0.0
 40
0.5
100
AcDbArc
 50
180.0
 51
270.0
  0
ARC
  5
62E
100
AcDbEntity
  8
2
100
AcDbCircle
 10
164.961586
 20
-57.346106
 30
0.0
 40
1.0
100
AcDbArc
 50
270.0
 51
360.0
  0
ARC
  5
62F
100
AcDbEntity
  8
2
100
AcDbCircle
 10
5.961586
 20
-57.346106
 30
0.0
 40
1.0
100
AcDbArc
 50
180.0
 51
270.0
  0
ARC
  5
630
100
AcDbEntity
  8
2
100
AcDbCircle
 10
78.961586
 20
-57.346106
 30
0.0
 40
1.0
100
AcDbArc
 50
270.0
 51
360.0
  0
ARC
  5
631
100
AcDbEntity
  8
2
100
AcDbCircle
 10
95.961586
 20
-57.346106
 30
0.0
 40
1.0
100
AcDbArc
 50
180.0
 51
270.0
  0
LINE
  5
632
100
AcDbEntity
  8
2
100
AcDbLine
 10
-612.038414
 20
-49.346106
 30
0.0
 11
-626.538414
 21
-49.346106
 31
0.0
  0
LINE
  5
633
100
AcDbEntity
  8
2
100
AcDbLine
 10
-611.538414
 20
-49.846106
 30
0.0
 11
-611.538414
 21
-57.346106
 31
0.0
  0
LINE
  5
634
100
AcDbEntity
  8
2
100
AcDbLine
 10
-487.538414
 20
-49.846106
 30
0.0
 11
-487.538414
 21
-57.346106
 31
0.0
  0
ARC
  5
635
100
AcDbEntity
  8
2
100
AcDbCircle
 10
-487.038414
 20
-49.846106
 30
0.0
 40
0.5
100
AcDbArc
 50
114.645458
 51
180.0
  0
ARC
  5
636
100
AcDbEntity
  8
2
100
AcDbCircle
 10
-488.538414
 20
-57.346106
 30
0.0
 40
1.0
100
AcDbArc
 50
270.0
 51
0.0
  0
ARC
  5
637
100
AcDbEntity
  8
2
100
AcDbCircle
 10
-610.538414
 20
-57.346106
 30
0.0
 40
1.0
100
AcDbArc
 50
180.0
 51
270.0
  0
ARC
  5
638
100
AcDbEntity
  8
2
100
AcDbCircle
 10
-626.538414
 20
-48.846106
 30
0.0
 40
0.5
100
AcDbArc
 50
180.0
 51
270.0
  0
ARC
  5
639
100
AcDbEntity
  8
2
100
AcDbCircle
 10
-612.038414
 20
-49.846106
 30
0.0
 40
0.5
100
AcDbArc
 50
0.0
 51
90.0
  0
CIRCLE
  5
63A
100
AcDbEntity
  8
2
100
AcDbCircle
 10
-431.538414
 20
33.653894
 30
0.0
 40
32.5
  0
LINE
  5
63B
100
AcDbEntity
  8
2
  6
CENTER
 62
     2
100
AcDbLine
 10
-530.038414
 20
598.502421
 30
0.0
 11
-530.038414
 21
352.256514
 31
0.0
  0
LINE
  5
63C
100
AcDbEntity
  8
2
  6
CENTER
 62
     2
100
AcDbLine
 10
-762.731961
 20
461.253894
 30
0.0
 11
-324.188004
 21
461.253894
 31
0.0
  0
LINE
  5
63D
100
AcDbEntity
  8
2
  6
CENTER
 62
     2
100
AcDbLine
 10
-396.038414
 20
452.71067
 30
0.0
 11
-396.038414
 21
469.797118
 31
0.0
  0
LINE
  5
63E
100
AcDbEntity
  8
2
  6
CENTER
 62
     2
100
AcDbLine
 10
-400.038414
 20
538.71067
 30
0.0
 11
-400.038414
 21
555.797118
 31
0.0
  0
LINE
  5
63F
100
AcDbEntity
  8
2
  6
CENTER
 62
     2
100
AcDbLine
 10
-392.221144
 20
547.253894
 30
0.0
 11
-408.581637
 21
547.253894
 31
0.0
  0
LINE
  5
640
100
AcDbEntity
  8
2
  6
CENTER
 62
     2
100
AcDbLine
 10
-396.038414
 20
367.71067
 30
0.0
 11
-396.038414
 21
384.797118
 31
0.0
  0
LINE
  5
641
100
AcDbEntity
  8
2
  6
CENTER
 62
     2
100
AcDbLine
 10
-387.49519
 20
376.253894
 30
0.0
 11
-404.581637
 21
376.253894
 31
0.0
  0
LINE
  5
642
100
AcDbEntity
  8
2
  6
CENTER
 62
     2
100
AcDbLine
 10
-467.038414
 20
542.71067
 30
0.0
 11
-467.038414
 21
559.797118
 31
0.0
  0
LINE
  5
643
100
AcDbEntity
  8
2
  6
CENTER
 62
     2
100
AcDbLine
 10
-458.49519
 20
551.253894
 30
0.0
 11
-475.581637
 21
551.253894
 31
0.0
  0
LINE
  5
644
100
AcDbEntity
  8
2
  6
CENTER
 62
     2
100
AcDbLine
 10
-614.038414
 20
542.71067
 30
0.0
 11
-614.038414
 21
558.601327
 31
0.0
  0
LINE
  5
645
100
AcDbEntity
  8
2
  6
CENTER
 62
     2
100
AcDbLine
 10
-605.49519
 20
551.253894
 30
0.0
 11
-622.581637
 21
551.253894
 31
0.0
  0
LINE
  5
646
100
AcDbEntity
  8
2
  6
CENTER
 62
     2
100
AcDbLine
 10
-739.038414
 20
538.71067
 30
0.0
 11
-739.038414
 21
555.797118
 31
0.0
  0
LINE
  5
647
100
AcDbEntity
  8
2
  6
CENTER
 62
     2
100
AcDbLine
 10
-730.49519
 20
547.253894
 30
0.0
 11
-747.581637
 21
547.253894
 31
0.0
  0
LINE
  5
648
100
AcDbEntity
  8
2
  6
CENTER
 62
     2
100
AcDbLine
 10
-744.038414
 20
452.71067
 30
0.0
 11
-744.038414
 21
469.797118
 31
0.0
  0
LINE
  5
649
100
AcDbEntity
  8
2
  6
CENTER
 62
     2
100
AcDbLine
 10
-744.038414
 20
373.71067
 30
0.0
 11
-744.038414
 21
390.797118
 31
0.0
  0
LINE
  5
64A
100
AcDbEntity
  8
2
  6
CENTER
 62
     2
100
AcDbLine
 10
-735.49519
 20
382.253894
 30
0.0
 11
-752.581637
 21
382.253894
 31
0.0
  0
LINE
  5
64B
100
AcDbEntity
  8
2
  6
CENTER
 62
     2
100
AcDbLine
 10
-614.038414
 20
367.71067
 30
0.0
 11
-614.038414
 21
384.797118
 31
0.0
  0
LINE
  5
64C
100
AcDbEntity
  8
2
  6
CENTER
 62
     2
100
AcDbLine
 10
-605.49519
 20
376.253894
 30
0.0
 11
-622.581637
 21
376.253894
 31
0.0
  0
LINE
  5
64D
100
AcDbEntity
  8
2
  6
CENTER
 62
     2
100
AcDbLine
 10
-467.038414
 20
367.71067
 30
0.0
 11
-467.038414
 21
384.797118
 31
0.0
  0
LINE
  5
64E
100
AcDbEntity
  8
2
  6
CENTER
 62
     2
100
AcDbLine
 10
-458.49519
 20
376.253894
 30
0.0
 11
-475.581637
 21
376.253894
 31
0.0
  0
LINE
  5
64F
100
AcDbEntity
  8
2
  6
CENTER
 62
     2
100
AcDbLine
 10
-417.102809
 20
486.253894
 30
0.0
 11
-382.902997
 21
486.253894
 31
0.0
  0
LINE
  5
650
100
AcDbEntity
  8
2
  6
CENTER
 62
     2
100
AcDbLine
 10
-417.102809
 20
436.253894
 30
0.0
 11
-382.902997
 21
436.253894
 31
0.0
  0
LINE
  5
651
100
AcDbEntity
  8
2
  6
CENTER
 62
     2
100
AcDbLine
 10
-431.538414
 20
573.095254
 30
0.0
 11
-431.538414
 21
198.513486
 31
0.0
  0
LINE
  5
652
100
AcDbEntity
  8
2
  6
CENTER
 62
     2
100
AcDbLine
 10
-580.038414
 20
606.827128
 30
0.0
 11
-580.038414
 21
552.37987
 31
0.0
  0
LINE
  5
653
100
AcDbEntity
  8
2
  6
CENTER
 62
     2
100
AcDbLine
 10
-480.038414
 20
606.827128
 30
0.0
 11
-480.038414
 21
552.37987
 31
0.0
  0
LINE
  5
654
100
AcDbEntity
  8
2
  6
CENTER
 62
     2
100
AcDbLine
 10
-412.038414
 20
515.642488
 30
0.0
 11
-412.038414
 21
532.8653
 31
0.0
  0
LINE
  5
655
100
AcDbEntity
  8
2
  6
CENTER
 62
     2
100
AcDbLine
 10
-403.427007
 20
524.253894
 30
0.0
 11
-420.64982
 21
524.253894
 31
0.0
  0
LINE
  5
656
100
AcDbEntity
  8
2
  6
CENTER
 62
     2
100
AcDbLine
 10
-412.038414
 20
406.8653
 30
0.0
 11
-412.038414
 21
389.642488
 31
0.0
  0
LINE
  5
657
100
AcDbEntity
  8
2
  6
CENTER
 62
     2
100
AcDbLine
 10
-403.427007
 20
398.253894
 30
0.0
 11
-420.64982
 21
398.253894
 31
0.0
  0
LINE
  5
658
100
AcDbEntity
  8
2
  6
CENTER
 62
     2
100
AcDbLine
 10
-662.038414
 20
515.642488
 30
0.0
 11
-662.038414
 21
532.8653
 31
0.0
  0
LINE
  5
659
100
AcDbEntity
  8
2
  6
CENTER
 62
     2
100
AcDbLine
 10
-670.64982
 20
524.253894
 30
0.0
 11
-653.427007
 21
524.253894
 31
0.0
  0
LINE
  5
65A
100
AcDbEntity
  8
2
  6
CENTER
 62
     2
100
AcDbLine
 10
-662.038414
 20
406.8653
 30
0.0
 11
-662.038414
 21
389.642488
 31
0.0
  0
LINE
  5
65B
100
AcDbEntity
  8
2
  6
CENTER
 62
     2
100
AcDbLine
 10
-670.64982
 20
398.253894
 30
0.0
 11
-653.427007
 21
398.253894
 31
0.0
  0
LINE
  5
65C
100
AcDbEntity
  8
2
  6
CENTER
 62
     2
100
AcDbLine
 10
-537.038414
 20
515.642488
 30
0.0
 11
-537.038414
 21
532.8653
 31
0.0
  0
LINE
  5
65D
100
AcDbEntity
  8
2
  6
CENTER
 62
     2
100
AcDbLine
 10
-528.427007
 20
524.253894
 30
0.0
 11
-545.64982
 21
524.253894
 31
0.0
  0
LINE
  5
65E
100
AcDbEntity
  8
2
  6
CENTER
 62
     2
100
AcDbLine
 10
-537.038414
 20
406.8653
 30
0.0
 11
-537.038414
 21
389.642488
 31
0.0
  0
LINE
  5
65F
100
AcDbEntity
  8
2
  6
CENTER
 62
     2
100
AcDbLine
 10
-528.427007
 20
398.253894
 30
0.0
 11
-545.64982
 21
398.253894
 31
0.0
  0
LINE
  5
660
100
AcDbEntity
  8
2
  6
CENTER
 62
     2
100
AcDbLine
 10
-770.270967
 20
33.653894
 30
0.0
 11
-313.301852
 21
33.653894
 31
0.0
  0
LINE
  5
661
100
AcDbEntity
  8
2
  6
CENTER
 62
     2
100
AcDbLine
 10
-431.538414
 20
153.515084
 30
0.0
 11
-431.538414
 21
-79.686049
 31
0.0
  0
LINE
  5
662
100
AcDbEntity
  8
2
  6
CENTER
 62
     2
100
AcDbLine
 10
36.863775
 20
98.653894
 30
0.0
 11
139.734511
 21
98.653894
 31
0.0
  0
LINE
  5
663
100
AcDbEntity
  8
2
  6
CENTER
 62
     2
100
AcDbLine
 10
112.461586
 20
121.790142
 30
0.0
 11
112.461586
 21
59.920728
 31
0.0
  0
LINE
  5
664
100
AcDbEntity
  8
2
  6
CENTER
 62
     2
100
AcDbLine
 10
62.461586
 20
121.790142
 30
0.0
 11
62.461586
 21
59.920728
 31
0.0
  0
LINE
  5
665
100
AcDbEntity
  8
2
  6
CENTER
 62
     2
100
AcDbLine
 10
-180.237886
 20
33.653894
 30
0.0
 11
-12.538414
 21
33.653894
 31
0.0
  0
LINE
  5
666
100
AcDbEntity
  8
2
  6
CENTER
 62
     2
100
AcDbLine
 10
-639.854524
 20
83.653894
 30
0.0
 11
-619.582551
 21
83.653894
 31
0.0
  0
LINE
  5
667
100
AcDbEntity
  8
2
  6
CENTER
 62
     2
100
AcDbLine
 10
-630.038414
 20
95.586802
 30
0.0
 11
-630.038414
 21
71.86056
 31
0.0
  0
LINE
  5
668
100
AcDbEntity
  8
2
  6
CENTER
 62
     2
100
AcDbLine
 10
-756.578096
 20
19.653894
 30
0.0
 11
-731.951448
 21
19.653894
 31
0.0
  0
LINE
  5
669
100
AcDbEntity
  8
2
  6
CENTER
 62
     2
100
AcDbLine
 10
-744.038414
 20
31.423655
 30
0.0
 11
-744.038414
 21
6.323497
 31
0.0
  0
LINE
  5
66A
100
AcDbEntity
  8
2
  6
CENTER
 62
     2
100
AcDbLine
 10
-609.038414
 20
-18.776601
 30
0.0
 11
-609.038414
 21
-46.718221
 31
0.0
  0
LINE
  5
66B
100
AcDbEntity
  8
2
  6
CENTER
 62
     2
100
AcDbLine
 10
-620.657838
 20
-32.346106
 30
0.0
 11
-596.03116
 21
-32.346106
 31
0.0
  0
LINE
  5
66C
100
AcDbEntity
  8
2
  6
CENTER
 62
     2
100
AcDbLine
 10
-662.038414
 20
141.313716
 30
0.0
 11
-662.038414
 21
112.180354
 31
0.0
  0
LINE
  5
66D
100
AcDbEntity
  8
2
  6
CENTER
 62
     2
100
AcDbLine
 10
-537.038414
 20
141.313716
 30
0.0
 11
-537.038414
 21
112.180354
 31
0.0
  0
LINE
  5
66E
100
AcDbEntity
  8
2
  6
CENTER
 62
     2
100
AcDbLine
 10
-630.038414
 20
328.102427
 30
0.0
 11
-630.038414
 21
365.099673
 31
0.0
  0
LINE
  5
66F
100
AcDbEntity
  8
2
  6
CENTER
 62
     2
100
AcDbLine
 10
-495.038414
 20
328.102427
 30
0.0
 11
-495.038414
 21
365.099673
 31
0.0
  0
LINE
  5
670
100
AcDbEntity
  8
2
  6
CENTER
 62
     2
100
AcDbLine
 10
-386.038414
 20
328.102427
 30
0.0
 11
-386.038414
 21
365.099673
 31
0.0
  0
LINE
  5
671
100
AcDbEntity
  8
2
  6
CENTER
 62
     2
100
AcDbLine
 10
173.461586
 20
74.695659
 30
0.0
 11
173.461586
 21
54.342082
 31
0.0
  0
LINE
  5
672
100
AcDbEntity
  8
2
  6
CENTER
 62
     2
100
AcDbLine
 10
162.967955
 20
13.653894
 30
0.0
 11
200.461586
 21
13.653894
 31
0.0
  0
LINE
  5
673
100
AcDbEntity
  8
2
  6
CENTER
 62
     2
100
AcDbLine
 10
212.104813
 20
13.653894
 30
0.0
 11
235.358489
 21
13.653894
 31
0.0
  0
LINE
  5
674
100
AcDbEntity
  8
2
  6
CENTER
 62
     2
100
AcDbLine
 10
150.461586
 20
143.342082
 30
0.0
 11
150.461586
 21
114.596049
 31
0.0
  0
LINE
  5
675
100
AcDbEntity
  8
2
  6
CENTER
 62
     2
100
AcDbLine
 10
24.461586
 20
143.342082
 30
0.0
 11
24.461586
 21
114.596049
 31
0.0
  0
LINE
  5
676
100
AcDbEntity
  8
2
  6
CENTER
 62
     2
100
AcDbLine
 10
-47.399904
 20
89.653894
 30
0.0
 11
-6.837114
 21
89.653894
 31
0.0
  0
LINE
  5
677
100
AcDbEntity
  8
2
  6
CENTER
 62
     2
100
AcDbLine
 10
-47.399904
 20
-24.346106
 30
0.0
 11
-6.837114
 21
-24.346106
 31
0.0
  0
LINE
  5
678
100
AcDbEntity
  8
2
  6
CENTER
 62
     2
100
AcDbLine
 10
-2.538414
 20
-38.420247
 30
0.0
 11
-2.538414
 21
-63.322957
 31
0.0
  0
LINE
  5
679
100
AcDbEntity
  8
2
  6
CENTER
 62
     2
100
AcDbLine
 10
173.461586
 20
-38.420247
 30
0.0
 11
173.461586
 21
-63.322957
 31
0.0
  0
LINE
  5
67A
100
AcDbEntity
  8
2
  6
CENTER
 62
     2
100
AcDbLine
 10
-619.038414
 20
-38.66216
 30
0.0
 11
-619.038414
 21
-62.881276
 31
0.0
  0
LINE
  5
67B
100
AcDbEntity
  8
2
  6
CENTER
 62
     2
100
AcDbLine
 10
-480.038414
 20
-40.346106
 30
0.0
 11
-480.038414
 21
-62.881276
 31
0.0
  0
ARC
  5
67C
100
AcDbEntity
  8
2
100
AcDbCircle
 10
-431.538414
 20
33.653894
 30
0.0
 40
22.2
100
AcDbArc
 50
20.571635
 51
163.0
  0
ARC
  5
67D
100
AcDbEntity
  8
2
100
AcDbCircle
 10
-427.638414
 20
33.653894
 30
0.0
 40
18.2
100
AcDbArc
 50
25.014065
 51
166.591995
  0
LINE
  5
67E
100
AcDbEntity
  8
2
100
AcDbLine
 10
-413.428368
 20
40.737903
 30
0.0
 11
-411.1455
 21
41.349595
 31
0.0
  0
LINE
  5
67F
100
AcDbEntity
  8
2
100
AcDbLine
 10
-410.754028
 20
41.45449
 30
0.0
 11
-408.143816
 21
42.153894
 31
0.0
  0
LINE
  5
680
100
AcDbEntity
  8
2
100
AcDbLine
 10
-409.338414
 20
33.653894
 30
0.0
 11
-413.428368
 21
40.737903
 31
0.0
  0
LINE
  5
681
100
AcDbEntity
  8
2
100
AcDbLine
 10
-409.338414
 20
33.653894
 30
0.0
 11
-408.143816
 21
42.153894
 31
0.0
  0
LINE
  5
682
100
AcDbEntity
  8
2
100
AcDbLine
 10
-445.342345
 20
37.87418
 30
0.0
 11
-452.768379
 21
40.144546
 31
0.0
  0
CIRCLE
  5
683
100
AcDbEntity
  8
2
100
AcDbCircle
 10
-467.038414
 20
376.253894
 30
0.0
 40
5.0
  0
CIRCLE
  5
684
100
AcDbEntity
  8
2
100
AcDbCircle
 10
-467.038414
 20
376.253894
 30
0.0
 40
4.30718
  0
CIRCLE
  5
685
100
AcDbEntity
  8
2
100
AcDbCircle
 10
-614.038414
 20
376.253894
 30
0.0
 40
5.0
  0
CIRCLE
  5
686
100
AcDbEntity
  8
2
100
AcDbCircle
 10
-614.038414
 20
376.253894
 30
0.0
 40
4.30718
  0
CIRCLE
  5
687
100
AcDbEntity
  8
2
100
AcDbCircle
 10
-396.038414
 20
376.253894
 30
0.0
 40
5.0
  0
CIRCLE
  5
688
100
AcDbEntity
  8
2
100
AcDbCircle
 10
-396.038414
 20
376.253894
 30
0.0
 40
4.30718
  0
CIRCLE
  5
689
100
AcDbEntity
  8
2
100
AcDbCircle
 10
-396.038414
 20
461.253894
 30
0.0
 40
5.0
  0
CIRCLE
  5
68A
100
AcDbEntity
  8
2
100
AcDbCircle
 10
-396.038414
 20
461.253894
 30
0.0
 40
4.30718
  0
CIRCLE
  5
68B
100
AcDbEntity
  8
2
100
AcDbCircle
 10
-400.038414
 20
547.253894
 30
0.0
 40
5.0
  0
CIRCLE
  5
68C
100
AcDbEntity
  8
2
100
AcDbCircle
 10
-400.038414
 20
547.253894
 30
0.0
 40
4.30718
  0
CIRCLE
  5
68D
100
AcDbEntity
  8
2
100
AcDbCircle
 10
-467.038414
 20
551.253894
 30
0.0
 40
5.0
  0
CIRCLE
  5
68E
100
AcDbEntity
  8
2
100
AcDbCircle
 10
-467.038414
 20
551.253894
 30
0.0
 40
4.30718
  0
CIRCLE
  5
68F
100
AcDbEntity
  8
2
100
AcDbCircle
 10
-614.038414
 20
551.253894
 30
0.0
 40
5.0
  0
CIRCLE
  5
690
100
AcDbEntity
  8
2
100
AcDbCircle
 10
-614.038414
 20
551.253894
 30
0.0
 40
4.30718
  0
CIRCLE
  5
691
100
AcDbEntity
  8
2
100
AcDbCircle
 10
-739.038414
 20
547.253894
 30
0.0
 40
5.0
  0
CIRCLE
  5
692
100
AcDbEntity
  8
2
100
AcDbCircle
 10
-739.038414
 20
547.253894
 30
0.0
 40
4.30718
  0
CIRCLE
  5
693
100
AcDbEntity
  8
2
100
AcDbCircle
 10
-744.038414
 20
461.253894
 30
0.0
 40
5.0
  0
CIRCLE
  5
694
100
AcDbEntity
  8
2
100
AcDbCircle
 10
-744.038414
 20
461.253894
 30
0.0
 40
4.30718
  0
CIRCLE
  5
695
100
AcDbEntity
  8
2
100
AcDbCircle
 10
-744.038414
 20
382.253894
 30
0.0
 40
5.0
  0
CIRCLE
  5
696
100
AcDbEntity
  8
2
100
AcDbCircle
 10
-744.038414
 20
382.253894
 30
0.0
 40
4.30718
  0
CIRCLE
  5
697
100
AcDbEntity
  8
2
100
AcDbCircle
 10
-412.038414
 20
398.253894
 30
0.0
 40
5.75
  0
CIRCLE
  5
698
100
AcDbEntity
  8
2
100
AcDbCircle
 10
-412.038414
 20
398.253894
 30
0.0
 40
5.25
  0
CIRCLE
  5
699
100
AcDbEntity
  8
2
100
AcDbCircle
 10
-412.038414
 20
524.253894
 30
0.0
 40
5.75
  0
CIRCLE
  5
69A
100
AcDbEntity
  8
2
100
AcDbCircle
 10
-412.038414
 20
524.253894
 30
0.0
 40
5.25
  0
CIRCLE
  5
69B
100
AcDbEntity
  8
2
100
AcDbCircle
 10
-537.038414
 20
398.253894
 30
0.0
 40
5.75
  0
CIRCLE
  5
69C
100
AcDbEntity
  8
2
100
AcDbCircle
 10
-537.038414
 20
398.253894
 30
0.0
 40
5.25
  0
CIRCLE
  5
69D
100
AcDbEntity
  8
2
100
AcDbCircle
 10
-537.038414
 20
524.253894
 30
0.0
 40
5.75
  0
CIRCLE
  5
69E
100
AcDbEntity
  8
2
100
AcDbCircle
 10
-537.038414
 20
524.253894
 30
0.0
 40
5.25
  0
CIRCLE
  5
69F
100
AcDbEntity
  8
2
100
AcDbCircle
 10
-662.038414
 20
398.253894
 30
0.0
 40
5.75
  0
CIRCLE
  5
6A0
100
AcDbEntity
  8
2
100
AcDbCircle
 10
-662.038414
 20
398.253894
 30
0.0
 40
5.25
  0
CIRCLE
  5
6A1
100
AcDbEntity
  8
2
100
AcDbCircle
 10
-662.038414
 20
524.253894
 30
0.0
 40
5.75
  0
CIRCLE
  5
6A2
100
AcDbEntity
  8
2
100
AcDbCircle
 10
-662.038414
 20
524.253894
 30
0.0
 40
5.25
  0
LINE
  5
6A3
100
AcDbEntity
  8
2
100
AcDbLine
 10
-542.788414
 20
125.153894
 30
0.0
 11
-542.788414
 21
123.653894
 31
0.0
  0
LINE
  5
6A4
100
AcDbEntity
  8
2
100
AcDbLine
 10
-531.288414
 20
125.153894
 30
0.0
 11
-531.288414
 21
123.653894
 31
0.0
  0
LINE
  5
6A5
100
AcDbEntity
  8
2
100
AcDbLine
 10
-531.288414
 20
125.153894
 30
0.0
 11
-542.788414
 21
125.153894
 31
0.0
  0
LINE
  5
6A6
100
AcDbEntity
  8
2
100
AcDbLine
 10
-542.288414
 20
126.68091
 30
0.0
 11
-542.288414
 21
125.153894
 31
0.0
  0
LINE
  5
6A7
100
AcDbEntity
  8
2
100
AcDbLine
 10
-531.788414
 20
126.68091
 30
0.0
 11
-531.788414
 21
125.153894
 31
0.0
  0
ARC
  5
6A8
100
AcDbEntity
  8
2
100
AcDbCircle
 10
-537.038414
 20
115.053894
 30
0.0
 40
14.0
100
AcDbArc
 50
73.927141
 51
106.072859
  0
ARC
  5
6A9
100
AcDbEntity
  8
2
100
AcDbCircle
 10
-533.688414
 20
126.68091
 30
0.0
 40
1.9
100
AcDbArc
 50
0.0
 51
73.927141
  0
ARC
  5
6AA
100
AcDbEntity
  8
2
100
AcDbCircle
 10
-540.388414
 20
126.68091
 30
0.0
 40
1.9
100
AcDbArc
 50
106.072859
 51
180.0
  0
LINE
  5
6AB
100
AcDbEntity
  8
2
100
AcDbLine
 10
-667.788414
 20
125.153894
 30
0.0
 11
-667.788414
 21
123.653894
 31
0.0
  0
LINE
  5
6AC
100
AcDbEntity
  8
2
100
AcDbLine
 10
-656.288414
 20
125.153894
 30
0.0
 11
-656.288414
 21
123.653894
 31
0.0
  0
LINE
  5
6AD
100
AcDbEntity
  8
2
100
AcDbLine
 10
-656.288414
 20
125.153894
 30
0.0
 11
-667.788414
 21
125.153894
 31
0.0
  0
LINE
  5
6AE
100
AcDbEntity
  8
2
100
AcDbLine
 10
-667.288414
 20
126.68091
 30
0.0
 11
-667.288414
 21
125.153894
 31
0.0
  0
LINE
  5
6AF
100
AcDbEntity
  8
2
100
AcDbLine
 10
-656.788414
 20
126.68091
 30
0.0
 11
-656.788414
 21
125.153894
 31
0.0
  0
ARC
  5
6B0
100
AcDbEntity
  8
2
100
AcDbCircle
 10
-662.038414
 20
115.053894
 30
0.0
 40
14.0
100
AcDbArc
 50
73.927141
 51
106.072859
  0
ARC
  5
6B1
100
AcDbEntity
  8
2
100
AcDbCircle
 10
-658.688414
 20
126.68091
 30
0.0
 40
1.9
100
AcDbArc
 50
0.0
 51
73.927141
  0
ARC
  5
6B2
100
AcDbEntity
  8
2
100
AcDbCircle
 10
-665.388414
 20
126.68091
 30
0.0
 40
1.9
100
AcDbArc
 50
106.072859
 51
180.0
  0
LINE
  5
6B3
100
AcDbEntity
  8
2
100
AcDbLine
 10
168.461586
 20
61.653894
 30
0.0
 11
168.461586
 21
67.253894
 31
0.0
  0
LINE
  5
6B4
100
AcDbEntity
  8
2
100
AcDbLine
 10
168.461586
 20
67.253894
 30
0.0
 11
169.154407
 21
67.653894
 31
0.0
  0
LINE
  5
6B5
100
AcDbEntity
  8
2
100
AcDbLine
 10
169.154407
 20
67.653894
 30
0.0
 11
177.768766
 21
67.653894
 31
0.0
  0
LINE
  5
6B6
100
AcDbEntity
  8
2
100
AcDbLine
 10
178.461586
 20
67.253894
 30
0.0
 11
168.461586
 21
67.253894
 31
0.0
  0
LINE
  5
6B7
100
AcDbEntity
  8
2
100
AcDbLine
 10
178.461586
 20
61.653894
 30
0.0
 11
178.461586
 21
67.253894
 31
0.0
  0
LINE
  5
6B8
100
AcDbEntity
  8
2
100
AcDbLine
 10
178.461586
 20
67.253894
 30
0.0
 11
177.768766
 21
67.653894
 31
0.0
  0
LINE
  5
6B9
100
AcDbEntity
  8
2
100
AcDbLine
 10
82.461586
 20
61.653894
 30
0.0
 11
82.461586
 21
67.253894
 31
0.0
  0
LINE
  5
6BA
100
AcDbEntity
  8
2
100
AcDbLine
 10
82.461586
 20
67.253894
 30
0.0
 11
83.154407
 21
67.653894
 31
0.0
  0
LINE
  5
6BB
100
AcDbEntity
  8
2
100
AcDbLine
 10
83.154407
 20
67.653894
 30
0.0
 11
91.768766
 21
67.653894
 31
0.0
  0
LINE
  5
6BC
100
AcDbEntity
  8
2
100
AcDbLine
 10
92.461586
 20
67.253894
 30
0.0
 11
82.461586
 21
67.253894
 31
0.0
  0
LINE
  5
6BD
100
AcDbEntity
  8
2
100
AcDbLine
 10
92.461586
 20
61.653894
 30
0.0
 11
92.461586
 21
67.253894
 31
0.0
  0
LINE
  5
6BE
100
AcDbEntity
  8
2
100
AcDbLine
 10
92.461586
 20
67.253894
 30
0.0
 11
91.768766
 21
67.653894
 31
0.0
  0
LINE
  5
6BF
100
AcDbEntity
  8
2
100
AcDbLine
 10
18.711586
 20
125.153894
 30
0.0
 11
18.711586
 21
123.653894
 31
0.0
  0
LINE
  5
6C0
100
AcDbEntity
  8
2
100
AcDbLine
 10
30.211586
 20
125.153894
 30
0.0
 11
30.211586
 21
123.653894
 31
0.0
  0
LINE
  5
6C1
100
AcDbEntity
  8
2
100
AcDbLine
 10
30.211586
 20
125.153894
 30
0.0
 11
18.711586
 21
125.153894
 31
0.0
  0
LINE
  5
6C2
100
AcDbEntity
  8
2
100
AcDbLine
 10
19.211586
 20
126.68091
 30
0.0
 11
19.211586
 21
125.153894
 31
0.0
  0
LINE
  5
6C3
100
AcDbEntity
  8
2
100
AcDbLine
 10
29.711586
 20
126.68091
 30
0.0
 11
29.711586
 21
125.153894
 31
0.0
  0
ARC
  5
6C4
100
AcDbEntity
  8
2
100
AcDbCircle
 10
24.461586
 20
115.053894
 30
0.0
 40
14.0
100
AcDbArc
 50
73.927141
 51
106.072859
  0
ARC
  5
6C5
100
AcDbEntity
  8
2
100
AcDbCircle
 10
27.811586
 20
126.68091
 30
0.0
 40
1.9
100
AcDbArc
 50
0.0
 51
73.927141
  0
ARC
  5
6C6
100
AcDbEntity
  8
2
100
AcDbCircle
 10
21.111586
 20
126.68091
 30
0.0
 40
1.9
100
AcDbArc
 50
106.072859
 51
180.0
  0
LINE
  5
6C7
100
AcDbEntity
  8
2
100
AcDbLine
 10
156.211586
 20
125.153894
 30
0.0
 11
156.211586
 21
123.653894
 31
0.0
  0
LINE
  5
6C8
100
AcDbEntity
  8
2
100
AcDbLine
 10
144.711586
 20
125.153894
 30
0.0
 11
144.711586
 21
123.653894
 31
0.0
  0
LINE
  5
6C9
100
AcDbEntity
  8
2
100
AcDbLine
 10
144.711586
 20
125.153894
 30
0.0
 11
156.211586
 21
125.153894
 31
0.0
  0
LINE
  5
6CA
100
AcDbEntity
  8
2
100
AcDbLine
 10
155.711586
 20
126.68091
 30
0.0
 11
155.711586
 21
125.153894
 31
0.0
  0
LINE
  5
6CB
100
AcDbEntity
  8
2
100
AcDbLine
 10
145.211586
 20
126.68091
 30
0.0
 11
145.211586
 21
125.153894
 31
0.0
  0
ARC
  5
6CC
100
AcDbEntity
  8
2
100
AcDbCircle
 10
150.461586
 20
115.053894
 30
0.0
 40
14.0
100
AcDbArc
 50
73.927141
 51
106.072859
  0
ARC
  5
6CD
100
AcDbEntity
  8
2
100
AcDbCircle
 10
147.111586
 20
126.68091
 30
0.0
 40
1.9
100
AcDbArc
 50
106.072859
 51
180.0
  0
ARC
  5
6CE
100
AcDbEntity
  8
2
100
AcDbCircle
 10
153.811586
 20
126.68091
 30
0.0
 40
1.9
100
AcDbArc
 50
0.0
 51
73.927141
  0
LINE
  5
6CF
100
AcDbEntity
  8
2
100
AcDbLine
 10
-24.538414
 20
82.403894
 30
0.0
 11
-24.538414
 21
96.903894
 31
0.0
  0
LINE
  5
6D0
100
AcDbEntity
  8
2
100
AcDbLine
 10
-24.538414
 20
96.903894
 30
0.0
 11
-22.538414
 21
96.903894
 31
0.0
  0
LINE
  5
6D1
100
AcDbEntity
  8
2
100
AcDbLine
 10
-24.538414
 20
82.403894
 30
0.0
 11
-22.538414
 21
82.403894
 31
0.0
  0
LINE
  5
6D2
100
AcDbEntity
  8
2
100
AcDbLine
 10
-26.496462
 20
96.653894
 30
0.0
 11
-24.538414
 21
96.653894
 31
0.0
  0
LINE
  5
6D3
100
AcDbEntity
  8
2
100
AcDbLine
 10
-26.496462
 20
82.653894
 30
0.0
 11
-24.538414
 21
82.653894
 31
0.0
  0
ARC
  5
6D4
100
AcDbEntity
  8
2
100
AcDbCircle
 10
-11.738414
 20
89.653894
 30
0.0
 40
18.0
100
AcDbArc
 50
163.39845
 51
196.60155
  0
ARC
  5
6D5
100
AcDbEntity
  8
2
100
AcDbCircle
 10
-26.496462
 20
94.053894
 30
0.0
 40
2.6
100
AcDbArc
 50
90.0
 51
163.39845
  0
ARC
  5
6D6
100
AcDbEntity
  8
2
100
AcDbCircle
 10
-26.496462
 20
85.253894
 30
0.0
 40
2.6
100
AcDbArc
 50
196.60155
 51
270.0
  0
LINE
  5
6D7
100
AcDbEntity
  8
2
100
AcDbLine
 10
-24.538414
 20
-31.596106
 30
0.0
 11
-24.538414
 21
-17.096106
 31
0.0
  0
LINE
  5
6D8
100
AcDbEntity
  8
2
100
AcDbLine
 10
-24.538414
 20
-17.096106
 30
0.0
 11
-22.538414
 21
-17.096106
 31
0.0
  0
LINE
  5
6D9
100
AcDbEntity
  8
2
100
AcDbLine
 10
-24.538414
 20
-31.596106
 30
0.0
 11
-22.538414
 21
-31.596106
 31
0.0
  0
LINE
  5
6DA
100
AcDbEntity
  8
2
100
AcDbLine
 10
-26.496462
 20
-17.346106
 30
0.0
 11
-24.538414
 21
-17.346106
 31
0.0
  0
LINE
  5
6DB
100
AcDbEntity
  8
2
100
AcDbLine
 10
-26.496462
 20
-31.346106
 30
0.0
 11
-24.538414
 21
-31.346106
 31
0.0
  0
ARC
  5
6DC
100
AcDbEntity
  8
2
100
AcDbCircle
 10
-11.738414
 20
-24.346106
 30
0.0
 40
18.0
100
AcDbArc
 50
163.39845
 51
196.60155
  0
ARC
  5
6DD
100
AcDbEntity
  8
2
100
AcDbCircle
 10
-26.496462
 20
-19.946106
 30
0.0
 40
2.6
100
AcDbArc
 50
90.0
 51
163.39845
  0
ARC
  5
6DE
100
AcDbEntity
  8
2
100
AcDbCircle
 10
-26.496462
 20
-28.746106
 30
0.0
 40
2.6
100
AcDbArc
 50
196.60155
 51
270.0
  0
LINE
  5
6DF
100
AcDbEntity
  8
2
100
AcDbLine
 10
-378.788414
 20
349.253894
 30
0.0
 11
-393.288414
 21
349.253894
 31
0.0
  0
LINE
  5
6E0
100
AcDbEntity
  8
2
100
AcDbLine
 10
-393.288414
 20
349.253894
 30
0.0
 11
-393.288414
 21
351.253894
 31
0.0
  0
LINE
  5
6E1
100
AcDbEntity
  8
2
100
AcDbLine
 10
-378.788414
 20
349.253894
 30
0.0
 11
-378.788414
 21
351.253894
 31
0.0
  0
LINE
  5
6E2
100
AcDbEntity
  8
2
100
AcDbLine
 10
-393.038414
 20
347.295846
 30
0.0
 11
-393.038414
 21
349.253894
 31
0.0
  0
LINE
  5
6E3
100
AcDbEntity
  8
2
100
AcDbLine
 10
-379.038414
 20
347.295846
 30
0.0
 11
-379.038414
 21
349.253894
 31
0.0
  0
ARC
  5
6E4
100
AcDbEntity
  8
2
100
AcDbCircle
 10
-386.038414
 20
362.053894
 30
0.0
 40
18.0
100
AcDbArc
 50
253.39845
 51
286.60155
  0
ARC
  5
6E5
100
AcDbEntity
  8
2
100
AcDbCircle
 10
-390.438414
 20
347.295846
 30
0.0
 40
2.6
100
AcDbArc
 50
180.0
 51
253.39845
  0
ARC
  5
6E6
100
AcDbEntity
  8
2
100
AcDbCircle
 10
-381.638414
 20
347.295846
 30
0.0
 40
2.6
100
AcDbArc
 50
286.60155
 51
360.0
  0
LINE
  5
6E7
100
AcDbEntity
  8
2
100
AcDbLine
 10
-487.788414
 20
349.253894
 30
0.0
 11
-502.288414
 21
349.253894
 31
0.0
  0
LINE
  5
6E8
100
AcDbEntity
  8
2
100
AcDbLine
 10
-502.288414
 20
349.253894
 30
0.0
 11
-502.288414
 21
351.253894
 31
0.0
  0
LINE
  5
6E9
100
AcDbEntity
  8
2
100
AcDbLine
 10
-487.788414
 20
349.253894
 30
0.0
 11
-487.788414
 21
351.253894
 31
0.0
  0
LINE
  5
6EA
100
AcDbEntity
  8
2
100
AcDbLine
 10
-502.038414
 20
347.295846
 30
0.0
 11
-502.038414
 21
349.253894
 31
0.0
  0
LINE
  5
6EB
100
AcDbEntity
  8
2
100
AcDbLine
 10
-488.038414
 20
347.295846
 30
0.0
 11
-488.038414
 21
349.253894
 31
0.0
  0
ARC
  5
6EC
100
AcDbEntity
  8
2
100
AcDbCircle
 10
-495.038414
 20
362.053894
 30
0.0
 40
18.0
100
AcDbArc
 50
253.39845
 51
286.60155
  0
ARC
  5
6ED
100
AcDbEntity
  8
2
100
AcDbCircle
 10
-499.438414
 20
347.295846
 30
0.0
 40
2.6
100
AcDbArc
 50
180.0
 51
253.39845
  0
ARC
  5
6EE
100
AcDbEntity
  8
2
100
AcDbCircle
 10
-490.638414
 20
347.295846
 30
0.0
 40
2.6
100
AcDbArc
 50
286.60155
 51
360.0
  0
LINE
  5
6EF
100
AcDbEntity
  8
2
100
AcDbLine
 10
-622.788414
 20
349.253894
 30
0.0
 11
-637.288414
 21
349.253894
 31
0.0
  0
LINE
  5
6F0
100
AcDbEntity
  8
2
100
AcDbLine
 10
-637.288414
 20
349.253894
 30
0.0
 11
-637.288414
 21
351.253894
 31
0.0
  0
LINE
  5
6F1
100
AcDbEntity
  8
2
100
AcDbLine
 10
-622.788414
 20
349.253894
 30
0.0
 11
-622.788414
 21
351.253894
 31
0.0
  0
LINE
  5
6F2
100
AcDbEntity
  8
2
100
AcDbLine
 10
-637.038414
 20
347.295846
 30
0.0
 11
-637.038414
 21
349.253894
 31
0.0
  0
LINE
  5
6F3
100
AcDbEntity
  8
2
100
AcDbLine
 10
-623.038414
 20
347.295846
 30
0.0
 11
-623.038414
 21
349.253894
 31
0.0
  0
ARC
  5
6F4
100
AcDbEntity
  8
2
100
AcDbCircle
 10
-630.038414
 20
362.053894
 30
0.0
 40
18.0
100
AcDbArc
 50
253.39845
 51
286.60155
  0
ARC
  5
6F5
100
AcDbEntity
  8
2
100
AcDbCircle
 10
-634.438414
 20
347.295846
 30
0.0
 40
2.6
100
AcDbArc
 50
180.0
 51
253.39845
  0
ARC
  5
6F6
100
AcDbEntity
  8
2
100
AcDbCircle
 10
-625.638414
 20
347.295846
 30
0.0
 40
2.6
100
AcDbArc
 50
286.60155
 51
360.0
  0
LINE
  5
6F7
100
AcDbEntity
  8
2
100
AcDbLine
 10
-612.538414
 20
-49.346106
 30
0.0
 11
-612.538414
 21
-56.846106
 31
0.0
  0
LINE
  5
6F8
100
AcDbEntity
  8
2
100
AcDbLine
 10
-612.538414
 20
-56.846106
 30
0.0
 11
-613.404439
 21
-57.346106
 31
0.0
  0
LINE
  5
6F9
100
AcDbEntity
  8
2
100
AcDbLine
 10
-625.538414
 20
-49.346106
 30
0.0
 11
-625.538414
 21
-56.846106
 31
0.0
  0
LINE
  5
6FA
100
AcDbEntity
  8
2
100
AcDbLine
 10
-625.538414
 20
-56.846106
 30
0.0
 11
-624.672388
 21
-57.346106
 31
0.0
  0
LINE
  5
6FB
100
AcDbEntity
  8
2
100
AcDbLine
 10
-624.672388
 20
-57.346106
 30
0.0
 11
-613.404439
 21
-57.346106
 31
0.0
  0
LINE
  5
6FC
100
AcDbEntity
  8
2
100
AcDbLine
 10
-612.538414
 20
-56.846106
 30
0.0
 11
-625.538414
 21
-56.846106
 31
0.0
  0
LINE
  5
6FD
100
AcDbEntity
  8
2
100
AcDbLine
 10
-473.780703
 20
-56.985992
 30
0.0
 11
-474.404439
 21
-57.346106
 31
0.0
  0
LINE
  5
6FE
100
AcDbEntity
  8
2
100
AcDbLine
 10
-486.538414
 20
-49.862571
 30
0.0
 11
-486.538414
 21
-56.846106
 31
0.0
  0
LINE
  5
6FF
100
AcDbEntity
  8
2
100
AcDbLine
 10
-486.538414
 20
-56.846106
 30
0.0
 11
-485.672388
 21
-57.346106
 31
0.0
  0
LINE
  5
700
100
AcDbEntity
  8
2
100
AcDbLine
 10
-485.672388
 20
-57.346106
 30
0.0
 11
-474.404439
 21
-57.346106
 31
0.0
  0
LINE
  5
701
100
AcDbEntity
  8
2
100
AcDbLine
 10
-474.07957
 20
-56.846106
 30
0.0
 11
-486.538414
 21
-56.846106
 31
0.0
  0
LINE
  5
702
100
AcDbEntity
  8
2
100
AcDbLine
 10
3.961586
 20
-49.346106
 30
0.0
 11
3.961586
 21
-56.846106
 31
0.0
  0
LINE
  5
703
100
AcDbEntity
  8
2
100
AcDbLine
 10
3.961586
 20
-56.846106
 30
0.0
 11
3.095561
 21
-57.346106
 31
0.0
  0
LINE
  5
704
100
AcDbEntity
  8
2
100
AcDbLine
 10
-9.038414
 20
-49.346106
 30
0.0
 11
-9.038414
 21
-56.846106
 31
0.0
  0
LINE
  5
705
100
AcDbEntity
  8
2
100
AcDbLine
 10
-9.038414
 20
-56.846106
 30
0.0
 11
-8.172388
 21
-57.346106
 31
0.0
  0
LINE
  5
706
100
AcDbEntity
  8
2
100
AcDbLine
 10
-8.172388
 20
-57.346106
 30
0.0
 11
3.095561
 21
-57.346106
 31
0.0
  0
LINE
  5
707
100
AcDbEntity
  8
2
100
AcDbLine
 10
3.961586
 20
-56.846106
 30
0.0
 11
-9.038414
 21
-56.846106
 31
0.0
  0
LINE
  5
708
100
AcDbEntity
  8
2
100
AcDbLine
 10
93.961586
 20
-49.346106
 30
0.0
 11
93.961586
 21
-56.846106
 31
0.0
  0
LINE
  5
709
100
AcDbEntity
  8
2
100
AcDbLine
 10
93.961586
 20
-56.846106
 30
0.0
 11
93.095561
 21
-57.346106
 31
0.0
  0
LINE
  5
70A
100
AcDbEntity
  8
2
100
AcDbLine
 10
80.961586
 20
-49.346106
 30
0.0
 11
80.961586
 21
-56.846106
 31
0.0
  0
LINE
  5
70B
100
AcDbEntity
  8
2
100
AcDbLine
 10
80.961586
 20
-56.846106
 30
0.0
 11
81.827612
 21
-57.346106
 31
0.0
  0
LINE
  5
70C
100
AcDbEntity
  8
2
100
AcDbLine
 10
81.827612
 20
-57.346106
 30
0.0
 11
93.095561
 21
-57.346106
 31
0.0
  0
LINE
  5
70D
100
AcDbEntity
  8
2
100
AcDbLine
 10
93.961586
 20
-56.846106
 30
0.0
 11
80.961586
 21
-56.846106
 31
0.0
  0
LINE
  5
70E
100
AcDbEntity
  8
2
100
AcDbLine
 10
179.961586
 20
-49.346106
 30
0.0
 11
179.961586
 21
-56.846106
 31
0.0
  0
LINE
  5
70F
100
AcDbEntity
  8
2
100
AcDbLine
 10
179.961586
 20
-56.846106
 30
0.0
 11
179.095561
 21
-57.346106
 31
0.0
  0
LINE
  5
710
100
AcDbEntity
  8
2
100
AcDbLine
 10
166.961586
 20
-49.346106
 30
0.0
 11
166.961586
 21
-56.846106
 31
0.0
  0
LINE
  5
711
100
AcDbEntity
  8
2
100
AcDbLine
 10
166.961586
 20
-56.846106
 30
0.0
 11
167.827612
 21
-57.346106
 31
0.0
  0
LINE
  5
712
100
AcDbEntity
  8
2
100
AcDbLine
 10
167.827612
 20
-57.346106
 30
0.0
 11
179.095561
 21
-57.346106
 31
0.0
  0
LINE
  5
713
100
AcDbEntity
  8
2
100
AcDbLine
 10
179.961586
 20
-56.846106
 30
0.0
 11
166.961586
 21
-56.846106
 31
0.0
  0
CIRCLE
  5
714
100
AcDbEntity
  8
2
100
AcDbCircle
 10
-630.038414
 20
83.653894
 30
0.0
 40
7.25
  0
CIRCLE
  5
715
100
AcDbEntity
  8
2
100
AcDbCircle
 10
-630.038414
 20
83.653894
 30
0.0
 40
7.0
  0
CIRCLE
  5
716
100
AcDbEntity
  8
2
100
AcDbCircle
 10
-609.038414
 20
-32.346106
 30
0.0
 40
7.25
  0
CIRCLE
  5
717
100
AcDbEntity
  8
2
100
AcDbCircle
 10
-609.038414
 20
-32.346106
 30
0.0
 40
7.0
  0
CIRCLE
  5
718
100
AcDbEntity
  8
2
100
AcDbCircle
 10
-744.038414
 20
19.653894
 30
0.0
 40
7.25
  0
CIRCLE
  5
719
100
AcDbEntity
  8
2
100
AcDbCircle
 10
-744.038414
 20
19.653894
 30
0.0
 40
7.0
  0
LINE
  5
71A
100
AcDbEntity
  8
2
100
AcDbLine
 10
-748.933598
 20
349.253894
 30
0.0
 11
-751.288414
 21
349.253894
 31
0.0
  0
LINE
  5
71B
100
AcDbEntity
  8
2
100
AcDbLine
 10
-751.288414
 20
349.253894
 30
0.0
 11
-751.288414
 21
351.253894
 31
0.0
  0
LINE
  5
71C
100
AcDbEntity
  8
2
100
AcDbLine
 10
-751.038414
 20
347.295846
 30
0.0
 11
-751.038414
 21
349.253894
 31
0.0
  0
ARC
  5
71D
100
AcDbEntity
  8
2
100
AcDbCircle
 10
-744.038414
 20
362.053894
 30
0.0
 40
18.0
100
AcDbArc
 50
253.39845
 51
255.013153
  0
ARC
  5
71E
100
AcDbEntity
  8
2
100
AcDbCircle
 10
-748.438414
 20
347.295846
 30
0.0
 40
2.6
100
AcDbArc
 50
180.0
 51
253.39845
  0
LINE
  5
71F
100
AcDbEntity
  8
2
100
AcDbLine
 10
-667.538414
 20
36.153894
 30
0.0
 11
-667.538414
 21
18.653894
 31
0.0
  0
LINE
  5
720
100
AcDbEntity
  8
2
100
AcDbLine
 10
-667.538414
 20
36.153894
 30
0.0
 11
-632.538414
 21
36.153894
 31
0.0
  0
LINE
  5
721
100
AcDbEntity
  8
2
100
AcDbLine
 10
-667.538414
 20
18.653894
 30
0.0
 11
-632.538414
 21
36.153894
 31
0.0
  0
LINE
  5
722
100
AcDbEntity
  8
2
100
AcDbLine
 10
-655.871747
 20
36.153894
 30
0.0
 11
-655.871747
 21
1.153894
 31
0.0
  0
LINE
  5
723
100
AcDbEntity
  8
2
100
AcDbLine
 10
-644.20508
 20
24.487228
 30
0.0
 11
-667.538414
 21
24.487228
 31
0.0
  0
LINE
  5
724
100
AcDbEntity
  8
2
100
AcDbLine
 10
-644.20508
 20
30.320561
 30
0.0
 11
-667.538414
 21
30.320561
 31
0.0
  0
LINE
  5
725
100
AcDbEntity
  8
2
100
AcDbLine
 10
-644.20508
 20
36.153894
 30
0.0
 11
-667.538414
 21
24.487228
 31
0.0
  0
LINE
  5
726
100
AcDbEntity
  8
2
100
AcDbLine
 10
-655.871747
 20
36.153894
 30
0.0
 11
-667.538414
 21
30.320561
 31
0.0
  0
LINE
  5
727
100
AcDbEntity
  8
2
100
AcDbLine
 10
-644.20508
 20
1.153894
 30
0.0
 11
-644.20508
 21
24.487228
 31
0.0
  0
LINE
  5
728
100
AcDbEntity
  8
2
100
AcDbLine
 10
-644.20508
 20
30.320561
 30
0.0
 11
-644.20508
 21
36.153894
 31
0.0
  0
LINE
  5
729
100
AcDbEntity
  8
2
100
AcDbLine
 10
-655.871747
 20
1.153894
 30
0.0
 11
-644.20508
 21
1.153894
 31
0.0
  0
ARC
  5
72A
100
AcDbEntity
  8
2
100
AcDbCircle
 10
-80.538414
 20
73.040008
 30
0.0
 40
10.0
100
AcDbArc
 50
280.0
 51
360.0
  0
ARC
  5
72B
100
AcDbEntity
  8
2
100
AcDbCircle
 10
-80.538414
 20
-5.732219
 30
0.0
 40
10.0
100
AcDbArc
 50
0.0
 51
80.0
  0
LINE
  5
72C
100
AcDbEntity
  8
2
100
AcDbLine
 10
-746.866841
 20
16.825467
 30
0.0
 11
-741.209986
 21
22.482321
 31
0.0
  0
LINE
  5
72D
100
AcDbEntity
  8
2
100
AcDbLine
 10
-741.209986
 20
16.825467
 30
0.0
 11
-746.866841
 21
22.482321
 31
0.0
  0
LINE
  5
72E
100
AcDbEntity
  8
2
100
AcDbLine
 10
-632.866841
 20
80.825467
 30
0.0
 11
-627.209986
 21
86.482321
 31
0.0
  0
LINE
  5
72F
100
AcDbEntity
  8
2
100
AcDbLine
 10
-627.209986
 20
80.825467
 30
0.0
 11
-632.866841
 21
86.482321
 31
0.0
  0
LINE
  5
730
100
AcDbEntity
  8
2
100
AcDbLine
 10
-611.866841
 20
-35.174533
 30
0.0
 11
-606.209986
 21
-29.517679
 31
0.0
  0
LINE
  5
731
100
AcDbEntity
  8
2
100
AcDbLine
 10
-606.209986
 20
-35.174533
 30
0.0
 11
-611.866841
 21
-29.517679
 31
0.0
  0
LINE
  5
732
100
AcDbEntity
  8
2
100
AcDbLine
 10
-414.159734
 20
522.132574
 30
0.0
 11
-409.917093
 21
526.375215
 31
0.0
  0
LINE
  5
733
100
AcDbEntity
  8
2
100
AcDbLine
 10
-409.917093
 20
522.132574
 30
0.0
 11
-414.159734
 21
526.375215
 31
0.0
  0
LINE
  5
734
100
AcDbEntity
  8
2
100
AcDbLine
 10
-414.159734
 20
396.132574
 30
0.0
 11
-409.917093
 21
400.375215
 31
0.0
  0
LINE
  5
735
100
AcDbEntity
  8
2
100
AcDbLine
 10
-409.917093
 20
396.132574
 30
0.0
 11
-414.159734
 21
400.375215
 31
0.0
  0
LINE
  5
736
100
AcDbEntity
  8
2
100
AcDbLine
 10
-539.159734
 20
522.132574
 30
0.0
 11
-534.917093
 21
526.375215
 31
0.0
  0
LINE
  5
737
100
AcDbEntity
  8
2
100
AcDbLine
 10
-534.917093
 20
522.132574
 30
0.0
 11
-539.159734
 21
526.375215
 31
0.0
  0
LINE
  5
738
100
AcDbEntity
  8
2
100
AcDbLine
 10
-664.159734
 20
522.132574
 30
0.0
 11
-659.917093
 21
526.375215
 31
0.0
  0
LINE
  5
739
100
AcDbEntity
  8
2
100
AcDbLine
 10
-659.917093
 20
522.132574
 30
0.0
 11
-664.159734
 21
526.375215
 31
0.0
  0
LINE
  5
73A
100
AcDbEntity
  8
2
100
AcDbLine
 10
-539.159734
 20
396.132574
 30
0.0
 11
-534.917093
 21
400.375215
 31
0.0
  0
LINE
  5
73B
100
AcDbEntity
  8
2
100
AcDbLine
 10
-534.917093
 20
396.132574
 30
0.0
 11
-539.159734
 21
400.375215
 31
0.0
  0
LINE
  5
73C
100
AcDbEntity
  8
2
100
AcDbLine
 10
-664.159734
 20
396.132574
 30
0.0
 11
-659.917093
 21
400.375215
 31
0.0
  0
LINE
  5
73D
100
AcDbEntity
  8
2
100
AcDbLine
 10
-659.917093
 20
396.132574
 30
0.0
 11
-664.159734
 21
400.375215
 31
0.0
  0
LINE
  5
73E
100
AcDbEntity
  8
2
100
AcDbLine
 10
-505.621909
 20
487.770398
 30
0.0
 11
-501.421909
 21
487.770398
 31
0.0
  0
LINE
  5
73F
100
AcDbEntity
  8
2
100
AcDbLine
 10
-503.521909
 20
485.670398
 30
0.0
 11
-503.521909
 21
489.870398
 31
0.0
  0
LINE
  5
740
100
AcDbEntity
  8
2
100
AcDbLine
 10
-558.654918
 20
487.770398
 30
0.0
 11
-554.454918
 21
487.770398
 31
0.0
  0
LINE
  5
741
100
AcDbEntity
  8
2
100
AcDbLine
 10
-556.554918
 20
485.670398
 30
0.0
 11
-556.554918
 21
489.870398
 31
0.0
  0
LINE
  5
742
100
AcDbEntity
  8
2
100
AcDbLine
 10
-505.621909
 20
434.73739
 30
0.0
 11
-501.421909
 21
434.73739
 31
0.0
  0
LINE
  5
743
100
AcDbEntity
  8
2
100
AcDbLine
 10
-503.521909
 20
432.63739
 30
0.0
 11
-503.521909
 21
436.83739
 31
0.0
  0
LINE
  5
744
100
AcDbEntity
  8
2
100
AcDbLine
 10
-558.654918
 20
434.73739
 30
0.0
 11
-554.454918
 21
434.73739
 31
0.0
  0
LINE
  5
745
100
AcDbEntity
  8
2
100
AcDbLine
 10
-556.554918
 20
432.63739
 30
0.0
 11
-556.554918
 21
436.83739
 31
0.0
  0
LINE
  5
746
100
AcDbEntity
  8
2
100
AcDbLine
 10
-402.538414
 20
545.810518
 30
0.0
 11
-402.538414
 21
548.69727
 31
0.0
  0
LINE
  5
747
100
AcDbEntity
  8
2
100
AcDbLine
 10
-397.538414
 20
545.810518
 30
0.0
 11
-397.538414
 21
548.69727
 31
0.0
  0
LINE
  5
748
100
AcDbEntity
  8
2
100
AcDbLine
 10
-397.538414
 20
548.69727
 30
0.0
 11
-400.038414
 21
550.140646
 31
0.0
  0
LINE
  5
749
100
AcDbEntity
  8
2
100
AcDbLine
 10
-400.038414
 20
544.367143
 30
0.0
 11
-402.538414
 21
545.810518
 31
0.0
  0
LINE
  5
74A
100
AcDbEntity
  8
2
100
AcDbLine
 10
-397.538414
 20
545.810518
 30
0.0
 11
-400.038414
 21
544.367143
 31
0.0
  0
LINE
  5
74B
100
AcDbEntity
  8
2
100
AcDbLine
 10
-400.038414
 20
550.140646
 30
0.0
 11
-402.538414
 21
548.69727
 31
0.0
  0
LINE
  5
74C
100
AcDbEntity
  8
2
100
AcDbLine
 10
-469.538414
 20
549.810518
 30
0.0
 11
-469.538414
 21
552.69727
 31
0.0
  0
LINE
  5
74D
100
AcDbEntity
  8
2
100
AcDbLine
 10
-464.538414
 20
549.810518
 30
0.0
 11
-464.538414
 21
552.69727
 31
0.0
  0
LINE
  5
74E
100
AcDbEntity
  8
2
100
AcDbLine
 10
-464.538414
 20
552.69727
 30
0.0
 11
-467.038414
 21
554.140646
 31
0.0
  0
LINE
  5
74F
100
AcDbEntity
  8
2
100
AcDbLine
 10
-467.038414
 20
548.367143
 30
0.0
 11
-469.538414
 21
549.810518
 31
0.0
  0
LINE
  5
750
100
AcDbEntity
  8
2
100
AcDbLine
 10
-464.538414
 20
549.810518
 30
0.0
 11
-467.038414
 21
548.367143
 31
0.0
  0
LINE
  5
751
100
AcDbEntity
  8
2
100
AcDbLine
 10
-467.038414
 20
554.140646
 30
0.0
 11
-469.538414
 21
552.69727
 31
0.0
  0
LINE
  5
752
100
AcDbEntity
  8
2
100
AcDbLine
 10
-616.538414
 20
549.810518
 30
0.0
 11
-616.538414
 21
552.69727
 31
0.0
  0
LINE
  5
753
100
AcDbEntity
  8
2
100
AcDbLine
 10
-611.538414
 20
549.810518
 30
0.0
 11
-611.538414
 21
552.69727
 31
0.0
  0
LINE
  5
754
100
AcDbEntity
  8
2
100
AcDbLine
 10
-611.538414
 20
552.69727
 30
0.0
 11
-614.038414
 21
554.140646
 31
0.0
  0
LINE
  5
755
100
AcDbEntity
  8
2
100
AcDbLine
 10
-614.038414
 20
548.367143
 30
0.0
 11
-616.538414
 21
549.810518
 31
0.0
  0
LINE
  5
756
100
AcDbEntity
  8
2
100
AcDbLine
 10
-611.538414
 20
549.810518
 30
0.0
 11
-614.038414
 21
548.367143
 31
0.0
  0
LINE
  5
757
100
AcDbEntity
  8
2
100
AcDbLine
 10
-614.038414
 20
554.140646
 30
0.0
 11
-616.538414
 21
552.69727
 31
0.0
  0
LINE
  5
758
100
AcDbEntity
  8
2
100
AcDbLine
 10
-741.538414
 20
545.810518
 30
0.0
 11
-741.538414
 21
548.69727
 31
0.0
  0
LINE
  5
759
100
AcDbEntity
  8
2
100
AcDbLine
 10
-736.538414
 20
545.810518
 30
0.0
 11
-736.538414
 21
548.69727
 31
0.0
  0
LINE
  5
75A
100
AcDbEntity
  8
2
100
AcDbLine
 10
-736.538414
 20
548.69727
 30
0.0
 11
-739.038414
 21
550.140646
 31
0.0
  0
LINE
  5
75B
100
AcDbEntity
  8
2
100
AcDbLine
 10
-739.038414
 20
544.367143
 30
0.0
 11
-741.538414
 21
545.810518
 31
0.0
  0
LINE
  5
75C
100
AcDbEntity
  8
2
100
AcDbLine
 10
-736.538414
 20
545.810518
 30
0.0
 11
-739.038414
 21
544.367143
 31
0.0
  0
LINE
  5
75D
100
AcDbEntity
  8
2
100
AcDbLine
 10
-739.038414
 20
550.140646
 30
0.0
 11
-741.538414
 21
548.69727
 31
0.0
  0
LINE
  5
75E
100
AcDbEntity
  8
2
100
AcDbLine
 10
-746.538414
 20
459.810518
 30
0.0
 11
-746.538414
 21
462.69727
 31
0.0
  0
LINE
  5
75F
100
AcDbEntity
  8
2
100
AcDbLine
 10
-741.538414
 20
459.810518
 30
0.0
 11
-741.538414
 21
462.69727
 31
0.0
  0
LINE
  5
760
100
AcDbEntity
  8
2
100
AcDbLine
 10
-741.538414
 20
462.69727
 30
0.0
 11
-744.038414
 21
464.140646
 31
0.0
  0
LINE
  5
761
100
AcDbEntity
  8
2
100
AcDbLine
 10
-744.038414
 20
458.367143
 30
0.0
 11
-746.538414
 21
459.810518
 31
0.0
  0
LINE
  5
762
100
AcDbEntity
  8
2
100
AcDbLine
 10
-741.538414
 20
459.810518
 30
0.0
 11
-744.038414
 21
458.367143
 31
0.0
  0
LINE
  5
763
100
AcDbEntity
  8
2
100
AcDbLine
 10
-744.038414
 20
464.140646
 30
0.0
 11
-746.538414
 21
462.69727
 31
0.0
  0
LINE
  5
764
100
AcDbEntity
  8
2
100
AcDbLine
 10
-746.538414
 20
380.810518
 30
0.0
 11
-746.538414
 21
383.69727
 31
0.0
  0
LINE
  5
765
100
AcDbEntity
  8
2
100
AcDbLine
 10
-741.538414
 20
380.810518
 30
0.0
 11
-741.538414
 21
383.69727
 31
0.0
  0
LINE
  5
766
100
AcDbEntity
  8
2
100
AcDbLine
 10
-741.538414
 20
383.69727
 30
0.0
 11
-744.038414
 21
385.140646
 31
0.0
  0
LINE
  5
767
100
AcDbEntity
  8
2
100
AcDbLine
 10
-744.038414
 20
379.367143
 30
0.0
 11
-746.538414
 21
380.810518
 31
0.0
  0
LINE
  5
768
100
AcDbEntity
  8
2
100
AcDbLine
 10
-741.538414
 20
380.810518
 30
0.0
 11
-744.038414
 21
379.367143
 31
0.0
  0
LINE
  5
769
100
AcDbEntity
  8
2
100
AcDbLine
 10
-744.038414
 20
385.140646
 30
0.0
 11
-746.538414
 21
383.69727
 31
0.0
  0
LINE
  5
76A
100
AcDbEntity
  8
2
100
AcDbLine
 10
-616.538414
 20
374.810518
 30
0.0
 11
-616.538414
 21
377.69727
 31
0.0
  0
LINE
  5
76B
100
AcDbEntity
  8
2
100
AcDbLine
 10
-611.538414
 20
374.810518
 30
0.0
 11
-611.538414
 21
377.69727
 31
0.0
  0
LINE
  5
76C
100
AcDbEntity
  8
2
100
AcDbLine
 10
-611.538414
 20
377.69727
 30
0.0
 11
-614.038414
 21
379.140646
 31
0.0
  0
LINE
  5
76D
100
AcDbEntity
  8
2
100
AcDbLine
 10
-614.038414
 20
373.367143
 30
0.0
 11
-616.538414
 21
374.810518
 31
0.0
  0
LINE
  5
76E
100
AcDbEntity
  8
2
100
AcDbLine
 10
-611.538414
 20
374.810518
 30
0.0
 11
-614.038414
 21
373.367143
 31
0.0
  0
LINE
  5
76F
100
AcDbEntity
  8
2
100
AcDbLine
 10
-614.038414
 20
379.140646
 30
0.0
 11
-616.538414
 21
377.69727
 31
0.0
  0
LINE
  5
770
100
AcDbEntity
  8
2
100
AcDbLine
 10
-469.538414
 20
374.810518
 30
0.0
 11
-469.538414
 21
377.69727
 31
0.0
  0
LINE
  5
771
100
AcDbEntity
  8
2
100
AcDbLine
 10
-464.538414
 20
374.810518
 30
0.0
 11
-464.538414
 21
377.69727
 31
0.0
  0
LINE
  5
772
100
AcDbEntity
  8
2
100
AcDbLine
 10
-464.538414
 20
377.69727
 30
0.0
 11
-467.038414
 21
379.140646
 31
0.0
  0
LINE
  5
773
100
AcDbEntity
  8
2
100
AcDbLine
 10
-467.038414
 20
373.367143
 30
0.0
 11
-469.538414
 21
374.810518
 31
0.0
  0
LINE
  5
774
100
AcDbEntity
  8
2
100
AcDbLine
 10
-464.538414
 20
374.810518
 30
0.0
 11
-467.038414
 21
373.367143
 31
0.0
  0
LINE
  5
775
100
AcDbEntity
  8
2
100
AcDbLine
 10
-467.038414
 20
379.140646
 30
0.0
 11
-469.538414
 21
377.69727
 31
0.0
  0
LINE
  5
776
100
AcDbEntity
  8
2
100
AcDbLine
 10
-398.538414
 20
374.810518
 30
0.0
 11
-398.538414
 21
377.69727
 31
0.0
  0
LINE
  5
777
100
AcDbEntity
  8
2
100
AcDbLine
 10
-393.538414
 20
374.810518
 30
0.0
 11
-393.538414
 21
377.69727
 31
0.0
  0
LINE
  5
778
100
AcDbEntity
  8
2
100
AcDbLine
 10
-393.538414
 20
377.69727
 30
0.0
 11
-396.038414
 21
379.140646
 31
0.0
  0
LINE
  5
779
100
AcDbEntity
  8
2
100
AcDbLine
 10
-396.038414
 20
373.367143
 30
0.0
 11
-398.538414
 21
374.810518
 31
0.0
  0
LINE
  5
77A
100
AcDbEntity
  8
2
100
AcDbLine
 10
-393.538414
 20
374.810518
 30
0.0
 11
-396.038414
 21
373.367143
 31
0.0
  0
LINE
  5
77B
100
AcDbEntity
  8
2
100
AcDbLine
 10
-396.038414
 20
379.140646
 30
0.0
 11
-398.538414
 21
377.69727
 31
0.0
  0
LINE
  5
77C
100
AcDbEntity
  8
2
100
AcDbLine
 10
-398.538414
 20
459.810518
 30
0.0
 11
-398.538414
 21
462.69727
 31
0.0
  0
LINE
  5
77D
100
AcDbEntity
  8
2
100
AcDbLine
 10
-393.538414
 20
459.810518
 30
0.0
 11
-393.538414
 21
462.69727
 31
0.0
  0
LINE
  5
77E
100
AcDbEntity
  8
2
100
AcDbLine
 10
-393.538414
 20
462.69727
 30
0.0
 11
-396.038414
 21
464.140646
 31
0.0
  0
LINE
  5
77F
100
AcDbEntity
  8
2
100
AcDbLine
 10
-396.038414
 20
458.367143
 30
0.0
 11
-398.538414
 21
459.810518
 31
0.0
  0
LINE
  5
780
100
AcDbEntity
  8
2
100
AcDbLine
 10
-393.538414
 20
459.810518
 30
0.0
 11
-396.038414
 21
458.367143
 31
0.0
  0
LINE
  5
781
100
AcDbEntity
  8
2
100
AcDbLine
 10
-396.038414
 20
464.140646
 30
0.0
 11
-398.538414
 21
462.69727
 31
0.0
  0
TEXT
  5
782
100
AcDbEntity
  8
2
100
AcDbText
 10
-524.618928
 20
438.24022
 30
0.0
 40
7.6
  1
Ｓ
 50
22.5
 72
     5
 11
-519.001741
 21
440.566936
 31
0.0
100
AcDbText
  0
TEXT
  5
783
100
AcDbEntity
  8
2
100
AcDbText
 10
-535.457899
 20
484.267568
 30
0.0
 40
7.6
  1
Ｓ
 50
202.5
 72
     5
 11
-541.075086
 21
481.940853
 31
0.0
100
AcDbText
  0
TEXT
  5
784
100
AcDbEntity
  8
2
100
AcDbText
 10
-523.793481
 20
144.061311
 30
0.0
 40
7.6
  1
Ｓ
 50
31.641
 72
     5
 11
-518.617262
 21
147.250851
 31
0.0
100
AcDbText
  0
TEXT
  5
785
100
AcDbEntity
  8
2
100
AcDbText
 10
-412.817994
 20
32.636101
 30
0.0
 40
9.0
  1
Ｓ
 50
253.0
 72
     5
 11
-414.923071
 21
25.750706
 31
0.0
100
AcDbText
  0
DIMENSION
  5
786
100
AcDbEntity
  8
5
100
AcDbDimension
  2
*D0
 10
-365.038414
 20
627.764244
 30
0.0
 11
-447.538414
 21
638.514244
 31
0.0
  1
165
100
AcDbAlignedDimension
 13
-530.038414
 23
598.502421
 33
0.0
 14
-365.038414
 24
370.253894
 34
0.0
100
AcDbRotatedDimension
  0
DIMENSION
  5
787
100
AcDbEntity
  8
5
100
AcDbDimension
  2
*D1
 10
-530.038414
 20
627.764244
 30
0.0
 11
-641.538414
 21
638.514244
 31
0.0
  1
223
100
AcDbAlignedDimension
 13
-753.038414
 23
546.253894
 33
0.0
 14
-530.038414
 24
598.502421
 34
0.0
100
AcDbRotatedDimension
  0
DIMENSION
  5
788
100
AcDbEntity
  8
5
100
AcDbDimension
  2
*D2
 10
-217.64698
 20
-66.346106
 30
0.0
 11
-243.24698
 21
27.053894
 31
0.0
 70
     1
  1
%%c200
100
AcDbAlignedDimension
 13
-144.030454
 23
133.653894
 33
0.0
 14
-144.030454
 24
-66.346106
 34
0.0
 50
90.0
  0
DIMENSION
  5
789
100
AcDbEntity
  8
5
100
AcDbDimension
  2
*D3
 10
273.085365
 20
165.653894
 30
0.0
 11
253.260365
 21
49.828894
 31
0.0
  1
230
100
AcDbAlignedDimension
 13
157.461586
 23
-64.346106
 33
0.0
 14
87.461586
 24
165.653894
 34
0.0
 50
90.0
100
AcDbRotatedDimension
  0
DIMENSION
  5
78A
100
AcDbEntity
  8
5
100
AcDbDimension
  2
*D4
 10
-271.594105
 20
597.253894
 30
0.0
 11
-291.419105
 21
528.428894
 31
0.0
  1
136
100
AcDbAlignedDimension
 13
-324.188004
 23
461.253894
 33
0.0
 14
-473.120914
 24
597.253894
 34
0.0
 50
90.0
100
AcDbRotatedDimension
  0
DIMENSION
  5
78B
100
AcDbEntity
  8
5
100
AcDbDimension
  2
*D5
 10
-271.594105
 20
461.253894
 30
0.0
 11
-302.969105
 21
326.128894
 31
0.0
  1
245.5
100
AcDbAlignedDimension
 13
-396.983325
 23
215.753894
 33
0.0
 14
-324.188004
 24
461.253894
 34
0.0
 50
90.0
100
AcDbRotatedDimension
  0
DIMENSION
  5
78C
100
AcDbEntity
  8
5
100
AcDbDimension
  2
*D6
 10
273.085365
 20
-64.346106
 30
0.0
 11
253.260365
 21
-221.171106
 31
0.0
  1
312
100
AcDbAlignedDimension
 13
149.179855
 23
-376.346106
 33
0.0
 14
157.461586
 24
-64.346106
 34
0.0
 50
90.0
100
AcDbRotatedDimension
  0
DIMENSION
  5
78D
100
AcDbEntity
  8
5
100
AcDbDimension
  2
*D7
 10
273.085365
 20
-376.346106
 30
0.0
 11
253.260365
 21
-503.321106
 31
0.0
  1
252
100
AcDbAlignedDimension
 13
93.961586
 23
-628.646106
 33
0.0
 14
149.179855
 24
-376.346106
 34
0.0
 50
90.0
100
AcDbRotatedDimension
  0
DIMENSION
  5
78E
100
AcDbEntity
  8
5
100
AcDbDimension
  2
*D8
 10
126.461586
 20
-673.82576
 30
0.0
 11
87.461586
 21
-663.07576
 31
0.0
  1
78
100
AcDbAlignedDimension
 13
48.461586
 23
-558.846106
 33
0.0
 14
126.461586
 24
-558.846106
 34
0.0
100
AcDbRotatedDimension
  0
TEXT
  5
78F
100
AcDbEntity
  8
5
100
AcDbText
 10
540.649261
 20
-266.474857
 30
0.0
 40
30.0
  1
駆動部・・・４Ｉ－３型 
 72
     5
 11
864.649261
 21
-266.474857
 31
0.0
100
AcDbText
  0
TEXT
  5
790
100
AcDbEntity
  8
18
100
AcDbText
 10
612.750397
 20
-666.452103
 30
0.0
 40
15.0
  1
１
 72
     5
 11
624.750397
 21
-666.452103
 31
0.0
100
AcDbText
  0
TEXT
  5
791
100
AcDbEntity
  8
18
100
AcDbText
 10
632.230072
 20
-684.727631
 30
0.0
 40
15.0
  1
５
 72
     5
 11
644.230072
 21
-684.727631
 31
0.0
100
AcDbText
  0
TEXT
  5
792
100
AcDbEntity
  8
18
100
AcDbText
 10
614.271202
 20
-615.176315
 30
0.0
 40
15.0
  1
７００Ｇ－４ＩＡＳ　３００Ａ
 72
     5
 11
821.271202
 21
-615.176315
 31
0.0
100
AcDbText
  0
TEXT
  5
793
100
AcDbEntity
  8
18
100
AcDbText
 10
614.271202
 20
-635.176315
 30
0.0
 40
15.0
  1
標準仕様　ＪＩＳ　５，１０Ｋ
 72
     5
 11
821.271202
 21
-635.176315
 31
0.0
100
AcDbText
  0
TEXT
  5
794
100
AcDbEntity
  8
18
100
AcDbText
 10
768.0
 20
-680.0
 30
0.0
 40
25.0
  1
Ｄ３－０３４９３
 72
     5
 11
963.0
 21
-680.0
 31
0.0
100
AcDbText
  0
TEXT
  5
795
100
AcDbEntity
  8
18
100
AcDbText
 10
902.495499
 20
-635.520859
 30
0.0
 40
11.25
  1
′０３．７．３
 72
     5
 11
978.995499
 21
-635.520859
 31
0.0
100
AcDbText
  0
LINE
  5
796
100
AcDbEntity
  8
18
100
AcDbLine
 10
607.74538
 20
-341.078091
 30
0.0
 11
857.74538
 21
-341.078091
 31
0.0
  0
LINE
  5
797
100
AcDbEntity
  8
18
100
AcDbLine
 10
607.74538
 20
-441.078091
 30
0.0
 11
857.74538
 21
-441.078091
 31
0.0
  0
LINE
  5
798
100
AcDbEntity
  8
18
100
AcDbLine
 10
607.74538
 20
-466.078091
 30
0.0
 11
857.74538
 21
-466.078091
 31
0.0
  0
LINE
  5
799
100
AcDbEntity
  8
18
100
AcDbLine
 10
607.74538
 20
-491.078091
 30
0.0
 11
857.74538
 21
-491.078091
 31
0.0
  0
LINE
  5
79A
100
AcDbEntity
  8
18
100
AcDbLine
 10
607.74538
 20
-341.078091
 30
0.0
 11
607.74538
 21
-491.078091
 31
0.0
  0
LINE
  5
79B
100
AcDbEntity
  8
18
100
AcDbLine
 10
732.74538
 20
-341.078091
 30
0.0
 11
732.74538
 21
-466.078091
 31
0.0
  0
LINE
  5
79C
100
AcDbEntity
  8
18
100
AcDbLine
 10
857.74538
 20
-341.078091
 30
0.0
 11
857.74538
 21
-491.078091
 31
0.0
  0
LINE
  5
79D
100
AcDbEntity
  8
18
  6
CENTER
 62
     2
100
AcDbLine
 10
619.714622
 20
-388.037186
 30
0.0
 11
719.72599
 21
-388.037186
 31
0.0
  0
LINE
  5
79E
100
AcDbEntity
  8
18
  6
CENTER
 62
     2
100
AcDbLine
 10
668.573723
 20
-362.207108
 30
0.0
 11
668.573723
 21
-416.982365
 31
0.0
  0
LINE
  5
79F
100
AcDbEntity
  8
18
100
AcDbLine
 10
628.573723
 20
-370.537186
 30
0.0
 11
703.573723
 21
-370.537186
 31
0.0
  0
LINE
  5
7A0
100
AcDbEntity
  8
18
100
AcDbLine
 10
628.573723
 20
-405.537186
 30
0.0
 11
703.573723
 21
-405.537186
 31
0.0
  0
LINE
  5
7A1
100
AcDbEntity
  8
18
100
AcDbLine
 10
628.573723
 20
-370.537186
 30
0.0
 11
628.573723
 21
-410.537186
 31
0.0
  0
LINE
  5
7A2
100
AcDbEntity
  8
18
100
AcDbLine
 10
698.573723
 20
-370.537186
 30
0.0
 11
698.573723
 21
-405.537186
 31
0.0
  0
LINE
  5
7A3
100
AcDbEntity
  8
18
100
AcDbLine
 10
628.573723
 20
-410.537186
 30
0.0
 11
695.24039
 21
-410.537186
 31
0.0
  0
LINE
  5
7A4
100
AcDbEntity
  8
18
100
AcDbLine
 10
703.573723
 20
-370.537186
 30
0.0
 11
703.573723
 21
-405.537186
 31
0.0
  0
LINE
  5
7A5
100
AcDbEntity
  8
18
100
AcDbLine
 10
695.24039
 20
-405.537186
 30
0.0
 11
695.24039
 21
-410.537186
 31
0.0
  0
LINE
  5
7A6
100
AcDbEntity
  8
18
100
AcDbLine
 10
651.073723
 20
-373.037186
 30
0.0
 11
651.073723
 21
-403.037186
 31
0.0
  0
LINE
  5
7A7
100
AcDbEntity
  8
18
100
AcDbLine
 10
693.573723
 20
-373.037186
 30
0.0
 11
693.573723
 21
-403.037186
 31
0.0
  0
LINE
  5
7A8
100
AcDbEntity
  8
18
100
AcDbLine
 10
651.073723
 20
-373.037186
 30
0.0
 11
693.573723
 21
-373.037186
 31
0.0
  0
LINE
  5
7A9
100
AcDbEntity
  8
18
100
AcDbLine
 10
651.073723
 20
-403.037186
 30
0.0
 11
693.573723
 21
-403.037186
 31
0.0
  0
CIRCLE
  5
7AA
100
AcDbEntity
  8
18
100
AcDbCircle
 10
668.573723
 20
-388.037186
 30
0.0
 40
6.0
  0
LINE
  5
7AB
100
AcDbEntity
  8
18
  6
DASHED
100
AcDbLine
 10
641.073723
 20
-378.037186
 30
0.0
 11
696.073723
 21
-378.037186
 31
0.0
  0
LINE
  5
7AC
100
AcDbEntity
  8
18
  6
DASHED
100
AcDbLine
 10
641.073723
 20
-398.037186
 30
0.0
 11
696.073723
 21
-398.037186
 31
0.0
  0
LINE
  5
7AD
100
AcDbEntity
  8
18
  6
DASHED
100
AcDbLine
 10
696.073723
 20
-378.037186
 30
0.0
 11
696.073723
 21
-398.037186
 31
0.0
  0
LINE
  5
7AE
100
AcDbEntity
  8
18
  6
DASHED
100
AcDbLine
 10
641.073723
 20
-378.037186
 30
0.0
 11
641.073723
 21
-398.037186
 31
0.0
  0
LINE
  5
7AF
100
AcDbEntity
  8
18
  6
CENTER
 62
     2
100
AcDbLine
 10
760.204964
 20
-388.197975
 30
0.0
 11
830.833426
 21
-388.197975
 31
0.0
  0
LINE
  5
7B0
100
AcDbEntity
  8
18
  6
CENTER
 62
     2
100
AcDbLine
 10
681.907056
 20
-407.916842
 30
0.0
 11
681.907056
 21
-429.474621
 31
0.0
  0
LINE
  5
7B1
100
AcDbEntity
  8
18
100
AcDbLine
 10
823.257103
 20
-374.864343
 30
0.0
 11
823.257103
 21
-365.079642
 31
0.0
  0
LINE
  5
7B2
100
AcDbEntity
  8
18
100
AcDbLine
 10
823.257103
 20
-365.079642
 30
0.0
 11
825.757103
 21
-365.079642
 31
0.0
  0
LINE
  5
7B3
100
AcDbEntity
  8
18
100
AcDbLine
 10
825.757103
 20
-374.864343
 30
0.0
 11
825.757103
 21
-365.079642
 31
0.0
  0
LINE
  5
7B4
100
AcDbEntity
  8
18
100
AcDbLine
 10
823.257103
 20
-384.649045
 30
0.0
 11
825.757103
 21
-384.649045
 31
0.0
  0
LINE
  5
7B5
100
AcDbEntity
  8
18
  6
CENTER
 62
     2
100
AcDbLine
 10
793.257103
 20
-346.14425
 30
0.0
 11
793.257103
 21
-434.151917
 31
0.0
  0
LINE
  5
7B6
100
AcDbEntity
  8
18
100
AcDbLine
 10
775.757103
 20
-428.197975
 30
0.0
 11
775.757103
 21
-353.197975
 31
0.0
  0
LINE
  5
7B7
100
AcDbEntity
  8
18
100
AcDbLine
 10
810.757103
 20
-428.197975
 30
0.0
 11
810.757103
 21
-353.197975
 31
0.0
  0
LINE
  5
7B8
100
AcDbEntity
  8
18
100
AcDbLine
 10
775.757103
 20
-428.197975
 30
0.0
 11
815.757103
 21
-428.197975
 31
0.0
  0
LINE
  5
7B9
100
AcDbEntity
  8
18
100
AcDbLine
 10
775.757103
 20
-358.197975
 30
0.0
 11
810.757103
 21
-358.197975
 31
0.0
  0
LINE
  5
7BA
100
AcDbEntity
  8
18
100
AcDbLine
 10
815.757103
 20
-428.197975
 30
0.0
 11
815.757103
 21
-361.531308
 31
0.0
  0
LINE
  5
7BB
100
AcDbEntity
  8
18
100
AcDbLine
 10
775.757103
 20
-353.197975
 30
0.0
 11
810.757103
 21
-353.197975
 31
0.0
  0
LINE
  5
7BC
100
AcDbEntity
  8
18
100
AcDbLine
 10
810.757103
 20
-361.531308
 30
0.0
 11
815.757103
 21
-361.531308
 31
0.0
  0
LINE
  5
7BD
100
AcDbEntity
  8
18
100
AcDbLine
 10
778.257103
 20
-405.697975
 30
0.0
 11
808.257103
 21
-405.697975
 31
0.0
  0
LINE
  5
7BE
100
AcDbEntity
  8
18
100
AcDbLine
 10
778.257103
 20
-363.197975
 30
0.0
 11
808.257103
 21
-363.197975
 31
0.0
  0
LINE
  5
7BF
100
AcDbEntity
  8
18
100
AcDbLine
 10
778.257103
 20
-405.697975
 30
0.0
 11
778.257103
 21
-363.197975
 31
0.0
  0
LINE
  5
7C0
100
AcDbEntity
  8
18
100
AcDbLine
 10
808.257103
 20
-405.697975
 30
0.0
 11
808.257103
 21
-363.197975
 31
0.0
  0
CIRCLE
  5
7C1
100
AcDbEntity
  8
18
100
AcDbCircle
 10
793.257103
 20
-388.197975
 30
0.0
 40
6.0
  0
LINE
  5
7C2
100
AcDbEntity
  8
18
100
AcDbLine
 10
765.757103
 20
-378.197975
 30
0.0
 11
765.757103
 21
-398.197975
 31
0.0
  0
LINE
  5
7C3
100
AcDbEntity
  8
18
  6
CENTER
 62
     2
100
AcDbLine
 10
813.136759
 20
-374.864642
 30
0.0
 11
836.148443
 21
-374.864642
 31
0.0
  0
LINE
  5
7C4
100
AcDbEntity
  8
18
100
AcDbLine
 10
765.757103
 20
-378.197975
 30
0.0
 11
775.757103
 21
-378.197975
 31
0.0
  0
LINE
  5
7C5
100
AcDbEntity
  8
18
100
AcDbLine
 10
815.757103
 20
-398.197975
 30
0.0
 11
820.757103
 21
-398.197975
 31
0.0
  0
LINE
  5
7C6
100
AcDbEntity
  8
18
100
AcDbLine
 10
765.757103
 20
-398.197975
 30
0.0
 11
775.757103
 21
-398.197975
 31
0.0
  0
LINE
  5
7C7
100
AcDbEntity
  8
18
  6
DASHED
100
AcDbLine
 10
775.757103
 20
-398.197975
 30
0.0
 11
815.757103
 21
-398.197975
 31
0.0
  0
LINE
  5
7C8
100
AcDbEntity
  8
18
100
AcDbLine
 10
820.757103
 20
-387.149343
 30
0.0
 11
820.757103
 21
-398.197975
 31
0.0
  0
LINE
  5
7C9
100
AcDbEntity
  8
18
  6
DASHED
100
AcDbLine
 10
775.757103
 20
-378.197975
 30
0.0
 11
815.757103
 21
-378.197975
 31
0.0
  0
LINE
  5
7CA
100
AcDbEntity
  8
18
  6
DASHED
100
AcDbLine
 10
815.757103
 20
-378.197975
 30
0.0
 11
820.08287
 21
-378.197975
 31
0.0
  0
LINE
  5
7CB
100
AcDbEntity
  8
18
  6
DASHED
100
AcDbLine
 10
820.08287
 20
-378.197975
 30
0.0
 11
820.757103
 21
-378.197975
 31
0.0
  0
LINE
  5
7CC
100
AcDbEntity
  8
18
100
AcDbLine
 10
815.757103
 20
-366.868444
 30
0.0
 11
823.257103
 21
-370.365751
 31
0.0
  0
LINE
  5
7CD
100
AcDbEntity
  8
18
100
AcDbLine
 10
815.757103
 20
-382.860243
 30
0.0
 11
823.257103
 21
-379.362936
 31
0.0
  0
LINE
  5
7CE
100
AcDbEntity
  8
18
100
AcDbLine
 10
823.257103
 20
-374.864343
 30
0.0
 11
823.257103
 21
-384.649045
 31
0.0
  0
LINE
  5
7CF
100
AcDbEntity
  8
18
100
AcDbLine
 10
825.757103
 20
-374.864343
 30
0.0
 11
825.757103
 21
-384.649045
 31
0.0
  0
LINE
  5
7D0
100
AcDbEntity
  8
18
100
AcDbLine
 10
681.906758
 20
-418.037186
 30
0.0
 11
672.122056
 21
-418.037186
 31
0.0
  0
LINE
  5
7D1
100
AcDbEntity
  8
18
100
AcDbLine
 10
672.122056
 20
-418.037186
 30
0.0
 11
672.122056
 21
-420.537186
 31
0.0
  0
LINE
  5
7D2
100
AcDbEntity
  8
18
100
AcDbLine
 10
681.906758
 20
-420.537186
 30
0.0
 11
672.122056
 21
-420.537186
 31
0.0
  0
LINE
  5
7D3
100
AcDbEntity
  8
18
100
AcDbLine
 10
691.69146
 20
-418.037186
 30
0.0
 11
691.69146
 21
-420.537186
 31
0.0
  0
LINE
  5
7D4
100
AcDbEntity
  8
18
100
AcDbLine
 10
673.910858
 20
-410.537186
 30
0.0
 11
677.408165
 21
-418.037186
 31
0.0
  0
LINE
  5
7D5
100
AcDbEntity
  8
18
100
AcDbLine
 10
689.902658
 20
-410.537186
 30
0.0
 11
686.40535
 21
-418.037186
 31
0.0
  0
LINE
  5
7D6
100
AcDbEntity
  8
18
100
AcDbLine
 10
681.906758
 20
-418.037186
 30
0.0
 11
691.69146
 21
-418.037186
 31
0.0
  0
LINE
  5
7D7
100
AcDbEntity
  8
18
100
AcDbLine
 10
681.906758
 20
-420.537186
 30
0.0
 11
691.69146
 21
-420.537186
 31
0.0
  0
LINE
  5
7D8
100
AcDbEntity
  8
18
  6
DASHED
100
AcDbLine
 10
820.757103
 20
-378.197975
 30
0.0
 11
820.757103
 21
-380.528705
 31
0.0
  0
LINE
  5
7D9
100
AcDbEntity
  8
18
100
AcDbLine
 10
820.757103
 20
-379.695372
 30
0.0
 11
820.757103
 21
-379.755764
 31
0.0
  0
LINE
  5
7DA
100
AcDbEntity
  8
18
100
AcDbLine
 10
820.757103
 20
-380.528705
 30
0.0
 11
820.757103
 21
-387.826195
 31
0.0
  0
TEXT
  5
7DB
100
AcDbEntity
  8
18
100
AcDbText
 10
658.399067
 20
-460.188694
 30
0.0
 40
15.0
  1
Ａ
 72
     5
 11
670.399067
 21
-460.188694
 31
0.0
100
AcDbText
  0
TEXT
  5
7DC
100
AcDbEntity
  8
18
100
AcDbText
 10
783.339329
 20
-460.589466
 30
0.0
 40
15.0
  1
Ｂ
 72
     5
 11
795.339329
 21
-460.589466
 31
0.0
100
AcDbText
  0
TEXT
  5
7DD
100
AcDbEntity
  8
18
100
AcDbText
 10
679.95163
 20
-487.192497
 30
0.0
 40
15.0
  1
駆動部取付方向
 72
     5
 11
781.95163
 21
-487.192497
 31
0.0
100
AcDbText
  0
LINE
  5
7DE
100
AcDbEntity
  8
20
 62
     3
100
AcDbLine
 10
-900.0
 20
-692.5
 30
0.0
 11
1000.0
 21
-692.5
 31
0.0
  0
LINE
  5
7DF
100
AcDbEntity
  8
20
 62
     3
100
AcDbLine
 10
-900.0
 20
660.0
 30
0.0
 11
1000.0
 21
660.0
 31
0.0
  0
LINE
  5
7E0
100
AcDbEntity
  8
20
 62
     3
100
AcDbLine
 10
-900.0
 20
660.0
 30
0.0
 11
-900.0
 21
-692.5
 31
0.0
  0
LINE
  5
7E1
100
AcDbEntity
  8
20
 62
     3
100
AcDbLine
 10
1000.0
 20
660.0
 30
0.0
 11
1000.0
 21
-692.5
 31
0.0
  0
LINE
  5
7E2
100
AcDbEntity
  8
20
 62
     3
100
AcDbLine
 10
300.0
 20
-692.5
 30
0.0
 11
300.0
 21
-592.5
 31
0.0
  0
LINE
  5
7E3
100
AcDbEntity
  8
20
 62
     3
100
AcDbLine
 10
535.0
 20
-692.5
 30
0.0
 11
535.0
 21
-592.5
 31
0.0
  0
LINE
  5
7E4
100
AcDbEntity
  8
20
100
AcDbLine
 10
535.0
 20
-642.5
 30
0.0
 11
1000.0
 21
-642.5
 31
0.0
  0
LINE
  5
7E5
100
AcDbEntity
  8
20
 62
     3
100
AcDbLine
 10
300.0
 20
-592.5
 30
0.0
 11
1000.0
 21
-592.5
 31
0.0
  0
LINE
  5
7E6
100
AcDbEntity
  8
20
100
AcDbLine
 10
900.0
 20
-642.5
 30
0.0
 11
900.0
 21
-592.5
 31
0.0
  0
LINE
  5
7E7
100
AcDbEntity
  8
20
100
AcDbLine
 10
900.0
 20
-617.5
 30
0.0
 11
1000.0
 21
-617.5
 31
0.0
  0
LINE
  5
7E8
100
AcDbEntity
  8
20
100
AcDbLine
 10
605.0
 20
-692.5
 30
0.0
 11
605.0
 21
-592.5
 31
0.0
  0
LINE
  5
7E9
100
AcDbEntity
  8
20
100
AcDbLine
 10
655.0
 20
-692.5
 30
0.0
 11
655.0
 21
-642.5
 31
0.0
  0
LINE
  5
7EA
100
AcDbEntity
  8
20
100
AcDbLine
 10
755.0
 20
-692.5
 30
0.0
 11
755.0
 21
-642.5
 31
0.0
  0
LINE
  5
7EB
100
AcDbEntity
  8
20
100
AcDbLine
 10
618.642073
 20
-678.857927
 30
0.0
 11
639.491453
 21
-658.008547
 31
0.0
  0
TEXT
  5
7EC
100
AcDbEntity
  8
20
100
AcDbText
 10
657.666645
 20
-662.484589
 30
0.0
 40
9.0
  1
ＤＲＡＷＩＮＧ　ＮＯ．
 72
     5
 11
754.866645
 21
-662.484589
 31
0.0
100
AcDbText
  0
TEXT
  5
7ED
100
AcDbEntity
  8
20
100
AcDbText
 10
667.5
 20
-682.5
 30
0.0
 40
15.0
  1
図　　　番
 72
     5
 11
739.5
 21
-682.5
 31
0.0
100
AcDbText
  0
TEXT
  5
7EE
100
AcDbEntity
  8
20
100
AcDbText
 10
930.0
 20
-610.0
 30
0.0
 40
10.0
  1
ＤＡＴＥ
 72
     5
 11
968.0
 21
-610.0
 31
0.0
100
AcDbText
  0
TEXT
  5
7EF
100
AcDbEntity
  8
20
100
AcDbText
 10
545.005355
 20
-664.805145
 30
0.0
 40
10.0
  1
ＳＣＡＬＥ
 72
     5
 11
593.005355
 21
-664.805145
 31
0.0
100
AcDbText
  0
TEXT
  5
7F0
100
AcDbEntity
  8
20
100
AcDbText
 10
540.0
 20
-682.5
 30
0.0
 40
15.0
  1
尺　　度
 72
     5
 11
597.0
 21
-682.5
 31
0.0
100
AcDbText
  0
TEXT
  5
7F1
100
AcDbEntity
  8
20
100
AcDbText
 10
537.505355
 20
-612.479424
 30
0.0
 40
10.0
  1
ＦＩＧ．ＮＯ．
 72
     5
 11
605.505355
 21
-612.479424
 31
0.0
100
AcDbText
  0
TEXT
  5
7F2
100
AcDbEntity
  8
20
100
AcDbText
 10
540.0
 20
-632.5
 30
0.0
 40
15.0
  1
名　　称
 72
     5
 11
597.0
 21
-632.5
 31
0.0
100
AcDbText
  0
TEXT
  5
7F3
100
AcDbEntity
  8
20
100
AcDbText
 10
302.827625
 20
-632.351265
 30
0.0
 40
11.5
  1
ＴＯＭＯＥ　ＶＡＬＶＥ　ＣＯ．，ＬＴＤ．
 72
     5
 11
530.527625
 21
-632.351265
 31
0.0
100
AcDbText
  0
TEXT
  5
7F4
100
AcDbEntity
  8
20
100
AcDbText
 10
337.5
 20
-666.449051
 30
0.0
 40
20.0
  1
巴バルブ株式会社
 72
     5
 11
493.5
 21
-666.449051
 31
0.0
100
AcDbText
  0
ENDSEC
  0
SECTION
  2
OBJECTS
  0
DICTIONARY
  5
861
100
AcDbDictionary
  3
ACAD_GROUP
350
862
  3
ACAD_MLINESTYLE
350
863
  0
DICTIONARY
  5
862
102
{ACAD_REACTORS
330
861
102
}
100
AcDbDictionary
  0
DICTIONARY
  5
863
102
{ACAD_REACTORS
330
861
102
}
100
AcDbDictionary
  3
STANDARD
350
864
  0
MLINESTYLE
  5
864
102
{ACAD_REACTORS
330
863
102
}
100
AcDbMlineStyle
  2
STANDARD
 70
     0
  3

 62
     0
 51
90.0
 52
90.0
 71
     2
 49
0.5
 62
   256
  6
BYLAYER
 49
-0.5
 62
   256
  6
BYLAYER
  0
ENDSEC
  0
EOF
