  0
SECTION
  2
HEADER
  9
$ACADVER
  1
AC1012
  9
$DWGCODEPAGE
  3
ansi_932
  9
$INSBASE
 10
0.0
 20
0.0
 30
0.0
  9
$EXTMIN
 10
-420.0
 20
-297.0
 30
1.000000E+20
  9
$EXTMAX
 10
420.0
 20
297.0
 30
-1.000000E+20
  9
$LIMMIN
 10
-420.0
 20
-297.0
  9
$LIMMAX
 10
420.0
 20
297.0
  9
$ORTHOMODE
 70
     0
  9
$REGENMODE
 70
     1
  9
$FILLMODE
 70
     1
  9
$QTEXTMODE
 70
     0
  9
$MIRRTEXT
 70
     1
  9
$DRAGMODE
 70
     2
  9
$LTSCALE
 40
1.0
  9
$OSMODE
 70
     0
  9
$ATTMODE
 70
     1
  9
$TEXTSIZE
 40
0.2
  9
$TRACEWID
 40
0.05
  9
$TEXTSTYLE
  7
STANDARD
  9
$CLAYER
  8
0
  9
$CELTYPE
  6
CONTINUOUS
  9
$CECOLOR
 62
   256
  9
$CELTSCALE
 40
1.0
  9
$DELOBJ
 70
     1
  9
$DISPSILH
 70
     0
  9
$DIMSCALE
 40
2.0
  9
$DIMASZ
 40
0.18
  9
$DIMEXO
 40
0.0625
  9
$DIMDLI
 40
0.38
  9
$DIMRND
 40
0.0
  9
$DIMDLE
 40
0.0
  9
$DIMEXE
 40
0.18
  9
$DIMTP
 40
0.0
  9
$DIMTM
 40
0.0
  9
$DIMTXT
 40
0.18
  9
$DIMCEN
 40
0.09
  9
$DIMTSZ
 40
0.0
  9
$DIMTOL
 70
     0
  9
$DIMLIM
 70
     0
  9
$DIMTIH
 70
     1
  9
$DIMTOH
 70
     1
  9
$DIMSE1
 70
     0
  9
$DIMSE2
 70
     0
  9
$DIMTAD
 70
     1
  9
$DIMZIN
 70
     0
  9
$DIMBLK
  1

  9
$DIMASO
 70
     1
  9
$DIMSHO
 70
     1
  9
$DIMPOST
  1

  9
$DIMAPOST
  1

  9
$DIMALT
 70
     0
  9
$DIMALTD
 70
     2
  9
$DIMALTF
 40
25.4
  9
$DIMLFAC
 40
1.0
  9
$DIMTOFL
 70
     0
  9
$DIMTVP
 40
0.0
  9
$DIMTIX
 70
     0
  9
$DIMSOXD
 70
     0
  9
$DIMSAH
 70
     0
  9
$DIMBLK1
  1

  9
$DIMBLK2
  1

  9
$DIMSTYLE
  2
STANDARD
  9
$DIMCLRD
 70
     0
  9
$DIMCLRE
 70
     0
  9
$DIMCLRT
 70
     0
  9
$DIMTFAC
 40
1.0
  9
$DIMGAP
 40
0.09
  9
$DIMJUST
 70
     0
  9
$DIMSD1
 70
     0
  9
$DIMSD2
 70
     0
  9
$DIMTOLJ
 70
     1
  9
$DIMTZIN
 70
     0
  9
$DIMALTZ
 70
     0
  9
$DIMALTTZ
 70
     0
  9
$DIMFIT
 70
     3
  9
$DIMUPT
 70
     0
  9
$DIMUNIT
 70
     2
  9
$DIMDEC
 70
     4
  9
$DIMTDEC
 70
     4
  9
$DIMALTU
 70
     2
  9
$DIMALTTD
 70
     2
  9
$DIMTXSTY
  7
STANDARD
  9
$DIMAUNIT
 70
     0
  9
$LUNITS
 70
     2
  9
$LUPREC
 70
     4
  9
$SKETCHINC
 40
0.1
  9
$FILLETRAD
 40
0.0
  9
$AUNITS
 70
     0
  9
$AUPREC
 70
     0
  9
$MENU
  1
acad
  9
$ELEVATION
 40
0.0
  9
$PELEVATION
 40
0.0
  9
$THICKNESS
 40
0.0
  9
$LIMCHECK
 70
     0
  9
$BLIPMODE
 70
     1
  9
$CHAMFERA
 40
0.0
  9
$CHAMFERB
 40
0.0
  9
$CHAMFERC
 40
0.0
  9
$CHAMFERD
 40
0.0
  9
$SKPOLY
 70
     0
  9
$TDCREATE
 40
2450291.000000000
  9
$TDUPDATE
 40
0.000000000
  9
$TDINDWG
 40
0.0000000000
  9
$TDUSRTIMER
 40
0.0000000000
  9
$USRTIMER
 70
     1
  9
$ANGBASE
 50
0.0
  9
$ANGDIR
 70
     0
  9
$PDMODE
 70
     0
  9
$PDSIZE
 40
0.0
  9
$PLINEWID
 40
0.0
  9
$COORDS
 70
     0
  9
$SPLFRAME
 70
     0
  9
$SPLINETYPE
 70
     6
  9
$SPLINESEGS
 70
     8
  9
$ATTDIA
 70
     0
  9
$ATTREQ
 70
     1
  9
$HANDLING
 70
     1
  9
$HANDSEED
  5
C89
  9
$SURFTAB1
 70
     6
  9
$SURFTAB2
 70
     6
  9
$SURFTYPE
 70
     6
  9
$SURFU
 70
     6
  9
$SURFV
 70
     6
  9
$UCSNAME
  2

  9
$UCSORG
 10
0.0
 20
0.0
 30
0.0
  9
$UCSXDIR
 10
1.0
 20
0.0
 30
0.0
  9
$UCSYDIR
 10
0.0
 20
1.0
 30
0.0
  9
$PUCSNAME
  2

  9
$PUCSORG
 10
0.0
 20
0.0
 30
0.0
  9
$PUCSXDIR
 10
1.0
 20
0.0
 30
0.0
  9
$PUCSYDIR
 10
0.0
 20
1.0
 30
0.0
  9
$USERI1
 70
     0
  9
$USERI2
 70
     0
  9
$USERI3
 70
     0
  9
$USERI4
 70
     0
  9
$USERI5
 70
     0
  9
$USERR1
 40
0.0
  9
$USERR2
 40
0.0
  9
$USERR3
 40
0.0
  9
$USERR4
 40
0.0
  9
$USERR5
 40
0.0
  9
$WORLDVIEW
 70
     1
  9
$SHADEDGE
 70
     3
  9
$SHADEDIF
 70
    70
  9
$TILEMODE
 70
     1
  9
$MAXACTVP
 70
    16
  9
$PINSBASE
 10
0.0
 20
0.0
 30
0.0
  9
$PLIMCHECK
 70
     0
  9
$PEXTMIN
 10
1.000000E+20
 20
1.000000E+20
 30
1.000000E+20
  9
$PEXTMAX
 10
-1.000000E+20
 20
-1.000000E+20
 30
-1.000000E+20
  9
$PLIMMIN
 10
0.0
 20
0.0
  9
$PLIMMAX
 10
12.0
 20
9.0
  9
$UNITMODE
 70
     0
  9
$VISRETAIN
 70
     0
  9
$PLINEGEN
 70
     1
  9
$PSLTSCALE
 70
     0
  9
$TREEDEPTH
 70
  3020
  9
$PICKSTYLE
 70
     1
  9
$CMLSTYLE
  2
STANDARD
  9
$CMLJUST
 70
     0
  9
$CMLSCALE
 40
1.0
  9
$SAVEIMAGES
 70
     0
  0
ENDSEC
  0
SECTION
  2
CLASSES
  0
CLASS
  1
LWPOLYLINE
  2
AcDbPolyline
  3
"AutoCAD"
 90
    32768
280
     0
281
     1
  0
CLASS
  1
IMAGE
  2
AcDbRasterImage
  3
ISM
 90
    32895
280
     0
281
     1
  0
CLASS
  1
OLE2FRAME
  2
AcDbOle2Frame
  3
""
 90
    32768
280
     0
281
     1
  0
CLASS
  1
HATCH
  2
AcDbHatch
  3
"ACAD_SEDONA"
 90
    32768
280
     0
281
     1
  0
CLASS
  1
DICTIONARYVAR
  2
AcDbDictionaryVar
  3
"AutoCAD"
 90
    32768
280
     0
281
     0
  0
CLASS
  1
RASTERVARIABLES
  2
AcDbRasterVariables
  3
ISM
 90
    32768
280
     0
281
     0
  0
CLASS
  1
IMAGEDEF
  2
AcDbRasterImageDef
  3
ISM
 90
    32768
280
     0
281
     0
  0
CLASS
  1
IMAGEDEF_REACTOR
  2
AcDbRasterImageDefReactor
  3
ISM
 90
    32769
280
     0
281
     0
  0
CLASS
  1
IDBUFFER
  2
AcDbIdBuffer
  3
"Acad"
 90
    32768
280
     0
281
     0
  0
CLASS
  1
SPATIAL_FILTER
  2
AcDbSpatialFilter
  3
"Acad"
 90
    32768
280
     0
281
     0
  0
CLASS
  1
XRECORD
  2
AcDbXrecord
  3
"<Built In>"
 90
    32768
280
     0
281
     0
  0
CLASS
  1
SORTENTSTABLE
  2
AcDbSortentsTable
  3
"AutoCAD"
 90
    32768
280
     0
281
     0
  0
CLASS
  1
LAYER_INDEX
  2
AcDbLayerIndex
  3
"Acad"
 90
    32768
280
     0
281
     0
  0
CLASS
  1
SPATIAL_INDEX
  2
AcDbSpatialIndex
  3
"Acad"
 90
    32768
280
     0
281
     0
  0
CLASS
  1
OBJECT_PTR
  2
CAseDLPNTableRecord
  3
"ASE-LPNTableRecord"
 90
    32769
280
     0
281
     0
  0
CLASS
  1
LAYOUT
  2
AcDbLayout
  3
"AutoCAD 2000"
 90
    32768
280
     0
281
     0
  0
CLASS
  1
PLOTSETTINGS
  2
AcDbPlotSettings
  3
"AutoCAD 2000"
 90
    32768
280
     0
281
     0
  0
CLASS
  1
ACDBDICTIONARYWDFLT
  2
AcDbDictionaryWithDefault
  3
"AutoCAD 2000"
 90
    32768
280
     0
281
     0
  0
CLASS
  1
ACDBPLACEHOLDER
  2
AcDbPlaceHolder
  3
"AutoCAD 2000"
 90
    32768
280
     0
281
     0
  0
CLASS
  1
VBA_PROJECT
  2
AcDbVbaProject
  3
"acadvba"
 90
    32768
280
     0
281
     0
  0
CLASS
  1
WIPEOUT
  2
AcDbWipeout
  3
WipeOut|AutoCAD Express Tool|expresstools@autodesk.com
 90
    32895
280
     0
281
     1
  0
CLASS
  1
WIPEOUTVARIABLES
  2
AcDbWipeoutVariables
  3
WipeOut|AutoCAD Express Tool|expresstools@autodesk.com
 90
    32768
280
     0
281
     0
  0
CLASS
  1
RTEXT
  2
RText
  3
RText|AutoCAD Express Tool|expresstools@autodesk.com
 90
    32768
280
     0
281
     1
  0
CLASS
  1
ARCALIGNEDTEXT
  2
AcDbArcAlignedText
  3
ATEXT|AutoCAD Express Tool|expresstools@autodesk.com
 90
    32768
280
     0
281
     1
  0
ENDSEC
  0
SECTION
  2
TABLES
  0
TABLE
  2
VPORT
  5
6
100
AcDbSymbolTable
 70
     1
  0
VPORT
  5
1B
100
AcDbSymbolTableRecord
100
AcDbViewportTableRecord
  2
*ACTIVE
 70
     0
 10
0.0
 20
0.0
 11
1.0
 21
1.0
 12
0.0
 22
0.0
 13
0.0
 23
0.0
 14
1.0
 24
1.0
 15
0.0
 25
0.0
 16
0.0
 26
0.0
 36
1.0
 17
0.0
 27
0.0
 37
0.0
 40
594.0
 41
1.414141
 42
50.0
 43
0.0
 44
0.0
 50
0.0
 51
0.0
 71
     0
 72
   500
 73
     1
 74
     1
 75
     0
 76
     0
 77
     0
 78
     0
  0
ENDTAB
  0
TABLE
  2
LTYPE
  5
3
100
AcDbSymbolTable
 70
     9
  0
LTYPE
  5
C
100
AcDbSymbolTableRecord
100
AcDbLinetypeTableRecord
  2
BYBLOCK
 70
    64
  3

 72
    65
 73
     0
 40
0.0
  0
LTYPE
  5
D
100
AcDbSymbolTableRecord
100
AcDbLinetypeTableRecord
  2
BYLAYER
 70
    64
  3

 72
    65
 73
     0
 40
0.0
  0
LTYPE
  5
E
100
AcDbSymbolTableRecord
100
AcDbLinetypeTableRecord
  2
CONTINUOUS
 70
     0
  3
Solid line
 72
    65
 73
     0
 40
0.0
  0
LTYPE
  5
F
100
AcDbSymbolTableRecord
100
AcDbLinetypeTableRecord
  2
DASHED
 70
     0
  3
__ __ __ __ __ __ __ __ __ __ __ __ __ __ __
 72
    65
 73
     2
 40
2.0
 49
1.2
 74
     0
 49
-0.8
 74
     0
  0
LTYPE
  5
10
100
AcDbSymbolTableRecord
100
AcDbLinetypeTableRecord
  2
CENTER
 70
     0
  3
____ _ ____ _ ____ _ ____ _ ____ _ ____ _ ____
 72
    65
 73
     4
 40
12.0
 49
9.0
 74
     0
 49
-1.0
 74
     0
 49
1.0
 74
     0
 49
-1.0
 74
     0
  0
LTYPE
  5
11
100
AcDbSymbolTableRecord
100
AcDbLinetypeTableRecord
  2
HIDDEN
 70
     0
  3
_ _ _ _ _ _ _ _ _ _ _ _ _ _ _ _ _ _ _ _ _ _ _
 72
    65
 73
     2
 40
3.2
 49
2.4
 74
     0
 49
-0.8
 74
     0
  0
LTYPE
  5
12
100
AcDbSymbolTableRecord
100
AcDbLinetypeTableRecord
  2
PHANTOM
 70
     0
  3
_____ _ _ _____ _ _ _____ _ _ _____ _ _ _____
 72
    65
 73
     6
 40
13.5
 49
9.0
 74
     0
 49
-1.0
 74
     0
 49
1.0
 74
     0
 49
-0.5
 74
     0
 49
1.0
 74
     0
 49
-1.0
 74
     0
  0
LTYPE
  5
13
100
AcDbSymbolTableRecord
100
AcDbLinetypeTableRecord
  2
DOT
 70
     0
  3
...............................................
 72
    65
 73
     2
 40
1.0
 49
0.5
 74
     0
 49
-0.5
 74
     0
  0
LTYPE
  5
14
100
AcDbSymbolTableRecord
100
AcDbLinetypeTableRecord
  2
DASHDOT
 70
     0
  3
__ . __ . __ . __ . __ . __ . __ . __ . __ . __
 72
    65
 73
     4
 40
8.0
 49
5.0
 74
     0
 49
-1.0
 74
     0
 49
1.0
 74
     0
 49
-1.0
 74
     0
  0
ENDTAB
  0
TABLE
  2
LAYER
  5
1
100
AcDbSymbolTable
 70
     6
  0
LAYER
  5
15
100
AcDbSymbolTableRecord
100
AcDbLayerTableRecord
  2
0
 70
     0
 62
     7
  6
CONTINUOUS
  0
LAYER
  5
16
100
AcDbSymbolTableRecord
100
AcDbLayerTableRecord
  2
1
 70
     0
 62
     7
  6
CONTINUOUS
  0
LAYER
  5
17
100
AcDbSymbolTableRecord
100
AcDbLayerTableRecord
  2
2
 70
     0
 62
     7
  6
CONTINUOUS
  0
LAYER
  5
18
100
AcDbSymbolTableRecord
100
AcDbLayerTableRecord
  2
5
 70
     0
 62
     7
  6
CONTINUOUS
  0
LAYER
  5
19
100
AcDbSymbolTableRecord
100
AcDbLayerTableRecord
  2
18
 70
     0
 62
     7
  6
CONTINUOUS
  0
LAYER
  5
1A
100
AcDbSymbolTableRecord
100
AcDbLayerTableRecord
  2
20
 70
     0
 62
     7
  6
CONTINUOUS
  0
ENDTAB
  0
TABLE
  2
STYLE
  5
2
100
AcDbSymbolTable
 70
     1
  0
STYLE
  5
1D
100
AcDbSymbolTableRecord
100
AcDbTextStyleTableRecord
  2
STANDARD
 70
    64
 40
0.0
 41
1.0
 50
0.0
 71
     0
 42
1.0
  3
txt
  4
BIGFONT
  0
ENDTAB
  0
TABLE
  2
VIEW
  5
4
100
AcDbSymbolTable
 70
     0
  0
ENDTAB
  0
TABLE
  2
UCS
  5
5
100
AcDbSymbolTable
 70
     0
  0
ENDTAB
  0
TABLE
  2
APPID
  5
7
100
AcDbSymbolTable
 70
     1
  0
APPID
  5
1C
100
AcDbSymbolTableRecord
100
AcDbRegAppTableRecord
  2
ACAD
 70
     0
  0
ENDTAB
  0
TABLE
  2
DIMSTYLE
  5
8
100
AcDbSymbolTable
 70
     1
  0
DIMSTYLE
105
2A
100
AcDbSymbolTableRecord
100
AcDbDimStyleTableRecord
  2
STANDARD
 70
     0
  3

  4

  5

  6

  7

 40
2.0
 41
0.18
 42
0.0625
 43
0.38
 44
0.18
 45
0.0
 46
0.0
 47
0.0
 48
0.0
 71
     0
 72
     0
 73
     1
 74
     1
 75
     0
 76
     0
 77
     1
 78
     0
140
0.18
141
0.09
142
0.0
143
25.4
144
1.0
145
0.0
146
1.0
147
0.09
170
     0
171
     2
172
     0
173
     0
174
     0
175
     0
176
     0
177
     0
178
     0
270
     2
271
     4
272
     4
273
     2
274
     2
275
     0
280
     0
281
     0
282
     0
283
     1
284
     0
285
     0
286
     0
287
     3
288
     0
340
1D
  0
ENDTAB
  0
TABLE
  2
BLOCK_RECORD
  5
25
100
AcDbSymbolTable
 70
     5
  0
BLOCK_RECORD
  5
23
100
AcDbSymbolTableRecord
100
AcDbBlockTableRecord
  2
*MODEL_SPACE
  0
BLOCK_RECORD
  5
24
100
AcDbSymbolTableRecord
100
AcDbBlockTableRecord
  2
*PAPER_SPACE
  0
BLOCK_RECORD
  5
1E
100
AcDbSymbolTableRecord
100
AcDbBlockTableRecord
  2
*D0
  0
BLOCK_RECORD
  5
1F
100
AcDbSymbolTableRecord
100
AcDbBlockTableRecord
  2
*D1
  0
BLOCK_RECORD
  5
20
100
AcDbSymbolTableRecord
100
AcDbBlockTableRecord
  2
*D2
  0
BLOCK_RECORD
  5
21
100
AcDbSymbolTableRecord
100
AcDbBlockTableRecord
  2
*D3
  0
BLOCK_RECORD
  5
22
100
AcDbSymbolTableRecord
100
AcDbBlockTableRecord
  2
*D4
  0
ENDTAB
  0
ENDSEC
  0
SECTION
  2
BLOCKS
  0
BLOCK
  5
26
100
AcDbEntity
  8
0
100
AcDbBlockBegin
  2
*MODEL_SPACE
 70
     0
 10
0.0
 20
0.0
 30
0.0
  3
*MODEL_SPACE
  1

  0
ENDBLK
  5
27
100
AcDbEntity
  8
0
100
AcDbBlockEnd
  0
BLOCK
  5
28
100
AcDbEntity
 67
     1
  8
0
100
AcDbBlockBegin
  2
*PAPER_SPACE
 70
     0
 10
0.0
 20
0.0
 30
0.0
  3
*PAPER_SPACE
  1

  0
ENDBLK
  5
29
100
AcDbEntity
 67
     1
  8
0
100
AcDbBlockEnd
  0
BLOCK
  5
819
100
AcDbEntity
  8
5
100
AcDbBlockBegin
  2
*D0
 70
     1
 10
0.0
 20
0.0
 30
0.0
  3
*D0
  1

  0
TEXT
  5
81A
100
AcDbEntity
  8
5
 62
     2
100
AcDbText
 10
-19.914696
 20
-111.062912
 30
0.0
 40
6.6
  1
138
 50
90.0
 41
1.4
 72
     5
 11
-19.914696
 21
-99.050912
 31
0.0
100
AcDbText
  0
LINE
  5
81B
100
AcDbEntity
  8
5
 62
     2
100
AcDbLine
 10
25.679808
 20
-173.132912
 30
0.0
 11
-20.914696
 21
-173.132912
 31
0.0
  0
LINE
  5
81C
100
AcDbEntity
  8
5
 62
     2
100
AcDbLine
 10
-18.914696
 20
-173.132912
 30
0.0
 11
-17.87942
 21
-169.269208
 31
0.0
  0
LINE
  5
81D
100
AcDbEntity
  8
5
 62
     2
100
AcDbLine
 10
-18.914696
 20
-173.132912
 30
0.0
 11
-19.949972
 21
-169.269208
 31
0.0
  0
LINE
  5
81E
100
AcDbEntity
  8
5
 62
     2
100
AcDbLine
 10
-17.87942
 20
-169.269208
 30
0.0
 11
-19.949972
 21
-169.269208
 31
0.0
  0
LINE
  5
81F
100
AcDbEntity
  8
5
 62
     2
100
AcDbLine
 10
-18.914696
 20
-173.132912
 30
0.0
 11
-18.914696
 21
-35.132912
 31
0.0
  0
LINE
  5
820
100
AcDbEntity
  8
5
 62
     2
100
AcDbLine
 10
-18.914696
 20
-35.132912
 30
0.0
 11
-19.949972
 21
-38.996615
 31
0.0
  0
LINE
  5
821
100
AcDbEntity
  8
5
 62
     2
100
AcDbLine
 10
-18.914696
 20
-35.132912
 30
0.0
 11
-17.87942
 21
-38.996615
 31
0.0
  0
LINE
  5
822
100
AcDbEntity
  8
5
 62
     2
100
AcDbLine
 10
-19.949972
 20
-38.996615
 30
0.0
 11
-17.87942
 21
-38.996615
 31
0.0
  0
LINE
  5
823
100
AcDbEntity
  8
5
 62
     2
100
AcDbLine
 10
20.153364
 20
-35.132912
 30
0.0
 11
-20.914696
 21
-35.132912
 31
0.0
  0
ENDBLK
  5
824
100
AcDbEntity
  8
5
100
AcDbBlockEnd
  0
BLOCK
  5
825
100
AcDbEntity
  8
5
100
AcDbBlockBegin
  2
*D1
 70
     1
 10
0.0
 20
0.0
 30
0.0
  3
*D1
  1

  0
TEXT
  5
826
100
AcDbEntity
  8
5
 62
     2
100
AcDbText
 10
-19.914696
 20
-211.202912
 30
0.0
 40
6.6
  1
67
 50
90.0
 41
1.4
 72
     5
 11
-19.914696
 21
-203.810912
 31
0.0
100
AcDbText
  0
LINE
  5
827
100
AcDbEntity
  8
5
 62
     2
100
AcDbLine
 10
54.153364
 20
-240.032912
 30
0.0
 11
-20.914696
 21
-240.032912
 31
0.0
  0
LINE
  5
828
100
AcDbEntity
  8
5
 62
     2
100
AcDbLine
 10
-18.914696
 20
-240.032912
 30
0.0
 11
-17.87942
 21
-236.169208
 31
0.0
  0
LINE
  5
829
100
AcDbEntity
  8
5
 62
     2
100
AcDbLine
 10
-18.914696
 20
-240.032912
 30
0.0
 11
-19.949972
 21
-236.169208
 31
0.0
  0
LINE
  5
82A
100
AcDbEntity
  8
5
 62
     2
100
AcDbLine
 10
-17.87942
 20
-236.169208
 30
0.0
 11
-19.949972
 21
-236.169208
 31
0.0
  0
LINE
  5
82B
100
AcDbEntity
  8
5
 62
     2
100
AcDbLine
 10
-18.914696
 20
-240.032912
 30
0.0
 11
-18.914696
 21
-173.132912
 31
0.0
  0
LINE
  5
82C
100
AcDbEntity
  8
5
 62
     2
100
AcDbLine
 10
-18.914696
 20
-173.132912
 30
0.0
 11
-19.949972
 21
-176.996615
 31
0.0
  0
LINE
  5
82D
100
AcDbEntity
  8
5
 62
     2
100
AcDbLine
 10
-18.914696
 20
-173.132912
 30
0.0
 11
-17.87942
 21
-176.996615
 31
0.0
  0
LINE
  5
82E
100
AcDbEntity
  8
5
 62
     2
100
AcDbLine
 10
-19.949972
 20
-176.996615
 30
0.0
 11
-17.87942
 21
-176.996615
 31
0.0
  0
LINE
  5
82F
100
AcDbEntity
  8
5
 62
     2
100
AcDbLine
 10
25.679808
 20
-173.132912
 30
0.0
 11
-20.914696
 21
-173.132912
 31
0.0
  0
ENDBLK
  5
830
100
AcDbEntity
  8
5
100
AcDbBlockEnd
  0
BLOCK
  5
831
100
AcDbEntity
  8
5
100
AcDbBlockBegin
  2
*D2
 70
     1
 10
0.0
 20
0.0
 30
0.0
  3
*D2
  1

  0
TEXT
  5
832
100
AcDbEntity
  8
5
 62
     2
100
AcDbText
 10
56.533364
 20
-263.998718
 30
0.0
 40
6.6
  1
43
 41
1.4
 72
     5
 11
63.925364
 21
-263.998718
 31
0.0
100
AcDbText
  0
LINE
  5
833
100
AcDbEntity
  8
5
 62
     2
100
AcDbLine
 10
39.653364
 20
-219.132912
 30
0.0
 11
39.653364
 21
-266.998718
 31
0.0
  0
LINE
  5
834
100
AcDbEntity
  8
5
 62
     2
100
AcDbLine
 10
39.653364
 20
-264.998718
 30
0.0
 11
43.517068
 21
-266.033994
 31
0.0
  0
LINE
  5
835
100
AcDbEntity
  8
5
 62
     2
100
AcDbLine
 10
39.653364
 20
-264.998718
 30
0.0
 11
43.517068
 21
-263.963442
 31
0.0
  0
LINE
  5
836
100
AcDbEntity
  8
5
 62
     2
100
AcDbLine
 10
43.517068
 20
-266.033994
 30
0.0
 11
43.517068
 21
-263.963442
 31
0.0
  0
LINE
  5
837
100
AcDbEntity
  8
5
 62
     2
100
AcDbLine
 10
39.653364
 20
-264.998718
 30
0.0
 11
82.653364
 21
-264.998718
 31
0.0
  0
LINE
  5
838
100
AcDbEntity
  8
5
 62
     2
100
AcDbLine
 10
82.653364
 20
-264.998718
 30
0.0
 11
78.789661
 21
-263.963442
 31
0.0
  0
LINE
  5
839
100
AcDbEntity
  8
5
 62
     2
100
AcDbLine
 10
82.653364
 20
-264.998718
 30
0.0
 11
78.789661
 21
-266.033994
 31
0.0
  0
LINE
  5
83A
100
AcDbEntity
  8
5
 62
     2
100
AcDbLine
 10
78.789661
 20
-263.963442
 30
0.0
 11
78.789661
 21
-266.033994
 31
0.0
  0
LINE
  5
83B
100
AcDbEntity
  8
5
 62
     2
100
AcDbLine
 10
82.653364
 20
-219.132912
 30
0.0
 11
82.653364
 21
-266.998718
 31
0.0
  0
ENDBLK
  5
83C
100
AcDbEntity
  8
5
100
AcDbBlockEnd
  0
BLOCK
  5
83D
100
AcDbEntity
  8
5
100
AcDbBlockBegin
  2
*D3
 70
     1
 10
0.0
 20
0.0
 30
0.0
  3
*D3
  1

  0
TEXT
  5
83E
100
AcDbEntity
  8
5
 62
     2
100
AcDbText
 10
51.913365
 20
128.551857
 30
0.0
 40
6.6
  1
%%c100
 41
1.4
 72
     5
 11
68.545364
 21
128.551857
 31
0.0
100
AcDbText
  0
LINE
  5
83F
100
AcDbEntity
  8
5
 62
     2
100
AcDbLine
 10
11.153364
 20
87.367088
 30
0.0
 11
11.153364
 21
129.551857
 31
0.0
  0
LINE
  5
840
100
AcDbEntity
  8
5
 62
     2
100
AcDbLine
 10
11.153364
 20
127.551857
 30
0.0
 11
15.017068
 21
126.516581
 31
0.0
  0
LINE
  5
841
100
AcDbEntity
  8
5
 62
     2
100
AcDbLine
 10
11.153364
 20
127.551857
 30
0.0
 11
15.017068
 21
128.587133
 31
0.0
  0
LINE
  5
842
100
AcDbEntity
  8
5
 62
     2
100
AcDbLine
 10
15.017068
 20
126.516581
 30
0.0
 11
15.017068
 21
128.587133
 31
0.0
  0
LINE
  5
843
100
AcDbEntity
  8
5
 62
     2
100
AcDbLine
 10
11.153364
 20
127.551857
 30
0.0
 11
111.153364
 21
127.551857
 31
0.0
  0
LINE
  5
844
100
AcDbEntity
  8
5
 62
     2
100
AcDbLine
 10
111.153364
 20
127.551857
 30
0.0
 11
107.289661
 21
128.587133
 31
0.0
  0
LINE
  5
845
100
AcDbEntity
  8
5
 62
     2
100
AcDbLine
 10
111.153364
 20
127.551857
 30
0.0
 11
107.289661
 21
126.516581
 31
0.0
  0
LINE
  5
846
100
AcDbEntity
  8
5
 62
     2
100
AcDbLine
 10
107.289661
 20
128.587133
 30
0.0
 11
107.289661
 21
126.516581
 31
0.0
  0
LINE
  5
847
100
AcDbEntity
  8
5
 62
     2
100
AcDbLine
 10
111.153364
 20
87.367088
 30
0.0
 11
111.153364
 21
129.551857
 31
0.0
  0
ENDBLK
  5
848
100
AcDbEntity
  8
5
100
AcDbBlockEnd
  0
BLOCK
  5
849
100
AcDbEntity
  8
5
100
AcDbBlockBegin
  2
*D4
 70
     1
 10
0.0
 20
0.0
 30
0.0
  3
*D4
  1

  0
TEXT
  5
84A
100
AcDbEntity
  8
5
 62
     2
100
AcDbText
 10
-19.914696
 20
25.687088
 30
0.0
 40
6.6
  1
136
 50
90.0
 41
1.4
 72
     5
 11
-19.914696
 21
37.699088
 31
0.0
100
AcDbText
  0
LINE
  5
84B
100
AcDbEntity
  8
5
 62
     2
100
AcDbLine
 10
20.153364
 20
-35.132912
 30
0.0
 11
-20.914696
 21
-35.132912
 31
0.0
  0
LINE
  5
84C
100
AcDbEntity
  8
5
 62
     2
100
AcDbLine
 10
-18.914696
 20
-35.132912
 30
0.0
 11
-17.87942
 21
-31.269208
 31
0.0
  0
LINE
  5
84D
100
AcDbEntity
  8
5
 62
     2
100
AcDbLine
 10
-18.914696
 20
-35.132912
 30
0.0
 11
-19.949972
 21
-31.269208
 31
0.0
  0
LINE
  5
84E
100
AcDbEntity
  8
5
 62
     2
100
AcDbLine
 10
-17.87942
 20
-31.269208
 30
0.0
 11
-19.949972
 21
-31.269208
 31
0.0
  0
LINE
  5
84F
100
AcDbEntity
  8
5
 62
     2
100
AcDbLine
 10
-18.914696
 20
-35.132912
 30
0.0
 11
-18.914696
 21
100.367088
 31
0.0
  0
LINE
  5
850
100
AcDbEntity
  8
5
 62
     2
100
AcDbLine
 10
-18.914696
 20
100.367088
 30
0.0
 11
-19.949972
 21
96.503385
 31
0.0
  0
LINE
  5
851
100
AcDbEntity
  8
5
 62
     2
100
AcDbLine
 10
-18.914696
 20
100.367088
 30
0.0
 11
-17.87942
 21
96.503385
 31
0.0
  0
LINE
  5
852
100
AcDbEntity
  8
5
 62
     2
100
AcDbLine
 10
-19.949972
 20
96.503385
 30
0.0
 11
-17.87942
 21
96.503385
 31
0.0
  0
LINE
  5
853
100
AcDbEntity
  8
5
 62
     2
100
AcDbLine
 10
54.153364
 20
100.367088
 30
0.0
 11
-20.914696
 21
100.367088
 31
0.0
  0
ENDBLK
  5
854
100
AcDbEntity
  8
5
100
AcDbBlockEnd
  0
ENDSEC
  0
SECTION
  2
ENTITIES
  0
LINE
  5
2B
100
AcDbEntity
  8
1
  6
DASHED
100
AcDbLine
 10
-207.396636
 20
222.017088
 30
0.0
 11
-157.396636
 21
222.017088
 31
0.0
  0
LINE
  5
2C
100
AcDbEntity
  8
1
  6
DASHED
100
AcDbLine
 10
-207.396636
 20
152.017088
 30
0.0
 11
-157.396636
 21
152.017088
 31
0.0
  0
LINE
  5
2D
100
AcDbEntity
  8
1
  6
DASHED
100
AcDbLine
 10
-217.396636
 20
162.017088
 30
0.0
 11
-217.396636
 21
212.017088
 31
0.0
  0
LINE
  5
2E
100
AcDbEntity
  8
1
  6
DASHED
100
AcDbLine
 10
-147.396636
 20
162.017088
 30
0.0
 11
-147.396636
 21
212.017088
 31
0.0
  0
ARC
  5
2F
100
AcDbEntity
  8
1
  6
DASHED
100
AcDbCircle
 10
-207.396636
 20
162.017088
 30
0.0
 40
10.0
100
AcDbArc
 50
180.0
 51
270.0
  0
ARC
  5
30
100
AcDbEntity
  8
1
  6
DASHED
100
AcDbCircle
 10
-157.396636
 20
162.017088
 30
0.0
 40
10.0
100
AcDbArc
 50
270.0
 51
0.0
  0
ARC
  5
31
100
AcDbEntity
  8
1
  6
DASHED
100
AcDbCircle
 10
-157.396636
 20
212.017088
 30
0.0
 40
10.0
100
AcDbArc
 50
0.0
 51
90.0
  0
ARC
  5
32
100
AcDbEntity
  8
1
  6
DASHED
100
AcDbCircle
 10
-207.396636
 20
212.017088
 30
0.0
 40
10.0
100
AcDbArc
 50
90.0
 51
180.0
  0
CIRCLE
  5
33
100
AcDbEntity
  8
1
  6
DASHED
100
AcDbCircle
 10
-157.646636
 20
211.767088
 30
0.0
 40
4.5
  0
CIRCLE
  5
34
100
AcDbEntity
  8
1
  6
DASHED
100
AcDbCircle
 10
-157.646636
 20
162.267088
 30
0.0
 40
4.5
  0
CIRCLE
  5
35
100
AcDbEntity
  8
1
  6
DASHED
100
AcDbCircle
 10
-207.146636
 20
162.267088
 30
0.0
 40
4.5
  0
CIRCLE
  5
36
100
AcDbEntity
  8
1
  6
DASHED
100
AcDbCircle
 10
-207.146636
 20
211.767088
 30
0.0
 40
4.5
  0
LINE
  5
37
100
AcDbEntity
  8
1
  6
CENTER
 62
     2
100
AcDbLine
 10
-216.527295
 20
211.767088
 30
0.0
 11
-196.193242
 21
211.767088
 31
0.0
  0
LINE
  5
38
100
AcDbEntity
  8
1
  6
CENTER
 62
     2
100
AcDbLine
 10
-168.233914
 20
211.767088
 30
0.0
 11
-148.74709
 21
211.767088
 31
0.0
  0
LINE
  5
39
100
AcDbEntity
  8
1
  6
CENTER
 62
     2
100
AcDbLine
 10
-216.527295
 20
162.267088
 30
0.0
 11
-196.193242
 21
162.267088
 31
0.0
  0
LINE
  5
3A
100
AcDbEntity
  8
1
  6
CENTER
 62
     2
100
AcDbLine
 10
-168.233914
 20
162.267088
 30
0.0
 11
-148.74709
 21
162.267088
 31
0.0
  0
LINE
  5
3B
100
AcDbEntity
  8
1
  6
CENTER
 62
     2
100
AcDbLine
 10
-157.646636
 20
153.290043
 30
0.0
 11
-157.646636
 21
173.35616
 31
0.0
  0
LINE
  5
3C
100
AcDbEntity
  8
1
  6
CENTER
 62
     2
100
AcDbLine
 10
-157.646636
 20
200.487858
 30
0.0
 11
-157.646636
 21
221.119236
 31
0.0
  0
LINE
  5
3D
100
AcDbEntity
  8
1
  6
CENTER
 62
     2
100
AcDbLine
 10
-207.146636
 20
153.290043
 30
0.0
 11
-207.146636
 21
173.35616
 31
0.0
  0
LINE
  5
3E
100
AcDbEntity
  8
1
  6
CENTER
 62
     2
100
AcDbLine
 10
-207.146636
 20
200.487858
 30
0.0
 11
-207.146636
 21
221.119236
 31
0.0
  0
LINE
  5
3F
100
AcDbEntity
  8
1
  6
CENTER
 62
     2
100
AcDbLine
 10
-239.466513
 20
-173.132912
 30
0.0
 11
-125.315848
 21
-173.132912
 31
0.0
  0
LINE
  5
40
100
AcDbEntity
  8
1
  6
CENTER
 62
     2
100
AcDbLine
 10
27.679808
 20
-173.132912
 30
0.0
 11
92.433401
 21
-173.132912
 31
0.0
  0
LINE
  5
41
100
AcDbEntity
  8
1
  6
DASHED
100
AcDbLine
 10
-137.396636
 20
207.517088
 30
0.0
 11
-138.396636
 21
208.517088
 31
0.0
  0
LINE
  5
42
100
AcDbEntity
  8
1
  6
DASHED
100
AcDbLine
 10
-137.396636
 20
166.517088
 30
0.0
 11
-138.396636
 21
165.517088
 31
0.0
  0
LINE
  5
43
100
AcDbEntity
  8
1
100
AcDbLine
 10
58.153364
 20
-138.132912
 30
0.0
 11
58.153364
 21
-98.445264
 31
0.0
  0
LINE
  5
44
100
AcDbEntity
  8
1
100
AcDbLine
 10
64.153364
 20
-138.132912
 30
0.0
 11
64.153364
 21
-98.445264
 31
0.0
  0
LINE
  5
45
100
AcDbEntity
  8
1
100
AcDbLine
 10
54.260864
 20
-137.132912
 30
0.0
 11
55.153364
 21
-137.132912
 31
0.0
  0
LINE
  5
46
100
AcDbEntity
  8
1
100
AcDbLine
 10
67.153364
 20
-137.132912
 30
0.0
 11
68.045864
 21
-137.132912
 31
0.0
  0
ARC
  5
47
100
AcDbEntity
  8
1
100
AcDbCircle
 10
67.153364
 20
-134.132912
 30
0.0
 40
3.0
100
AcDbArc
 50
180.0
 51
270.0
  0
ARC
  5
48
100
AcDbEntity
  8
1
100
AcDbCircle
 10
55.153364
 20
-134.132912
 30
0.0
 40
3.0
100
AcDbArc
 50
270.0
 51
360.0
  0
LINE
  5
49
100
AcDbEntity
  8
1
100
AcDbLine
 10
58.153364
 20
-95.445264
 30
0.0
 11
64.153364
 21
-95.445264
 31
0.0
  0
ARC
  5
4A
100
AcDbEntity
  8
1
100
AcDbCircle
 10
67.153364
 20
-98.445264
 30
0.0
 40
3.0
100
AcDbArc
 50
90.0
 51
180.0
  0
ARC
  5
4B
100
AcDbEntity
  8
1
100
AcDbCircle
 10
55.153364
 20
-98.445264
 30
0.0
 40
3.0
100
AcDbArc
 50
0.0
 51
90.0
  0
LINE
  5
4C
100
AcDbEntity
  8
1
100
AcDbLine
 10
58.153364
 20
-228.650283
 30
0.0
 11
58.153364
 21
-208.132912
 31
0.0
  0
LINE
  5
4D
100
AcDbEntity
  8
1
100
AcDbLine
 10
64.153364
 20
-228.650283
 30
0.0
 11
64.153364
 21
-208.132912
 31
0.0
  0
LINE
  5
4E
100
AcDbEntity
  8
1
100
AcDbLine
 10
54.368364
 20
-210.132912
 30
0.0
 11
55.153364
 21
-210.132912
 31
0.0
  0
LINE
  5
4F
100
AcDbEntity
  8
1
100
AcDbLine
 10
67.153364
 20
-210.132912
 30
0.0
 11
67.938364
 21
-210.132912
 31
0.0
  0
ARC
  5
50
100
AcDbEntity
  8
1
100
AcDbCircle
 10
67.153364
 20
-213.132912
 30
0.0
 40
3.0
100
AcDbArc
 50
90.0
 51
180.0
  0
ARC
  5
51
100
AcDbEntity
  8
1
100
AcDbCircle
 10
55.153364
 20
-213.132912
 30
0.0
 40
3.0
100
AcDbArc
 50
0.0
 51
90.0
  0
LINE
  5
52
100
AcDbEntity
  8
1
100
AcDbLine
 10
71.36492
 20
-214.716599
 30
0.0
 11
69.545864
 21
-210.132912
 31
0.0
  0
LINE
  5
53
100
AcDbEntity
  8
1
100
AcDbLine
 10
50.941809
 20
-214.716599
 30
0.0
 11
52.760864
 21
-210.132912
 31
0.0
  0
ARC
  5
54
100
AcDbEntity
  8
1
100
AcDbCircle
 10
67.938364
 20
-208.525412
 30
0.0
 40
1.6075
100
AcDbArc
 50
270.0
 51
360.0
  0
ARC
  5
55
100
AcDbEntity
  8
1
100
AcDbCircle
 10
54.368364
 20
-208.525412
 30
0.0
 40
1.6075
100
AcDbArc
 50
180.0
 51
270.0
  0
LINE
  5
56
100
AcDbEntity
  8
1
100
AcDbLine
 10
60.153364
 20
-114.064537
 30
0.0
 11
62.153364
 21
-114.064537
 31
0.0
  0
LINE
  5
57
100
AcDbEntity
  8
1
100
AcDbLine
 10
60.153364
 20
-120.214638
 30
0.0
 11
62.153364
 21
-120.214638
 31
0.0
  0
ARC
  5
58
100
AcDbEntity
  8
1
100
AcDbCircle
 10
62.153364
 20
-116.064537
 30
0.0
 40
2.0
100
AcDbArc
 50
0.0
 51
90.0
  0
ARC
  5
59
100
AcDbEntity
  8
1
100
AcDbCircle
 10
60.153364
 20
-116.064537
 30
0.0
 40
2.0
100
AcDbArc
 50
90.0
 51
180.0
  0
ARC
  5
5A
100
AcDbEntity
  8
1
100
AcDbCircle
 10
60.153364
 20
-118.214638
 30
0.0
 40
2.0
100
AcDbArc
 50
180.0
 51
270.0
  0
ARC
  5
5B
100
AcDbEntity
  8
1
100
AcDbCircle
 10
62.153364
 20
-118.214638
 30
0.0
 40
2.0
100
AcDbArc
 50
270.0
 51
360.0
  0
ARC
  5
5C
100
AcDbEntity
  8
1
  6
DASHED
100
AcDbCircle
 10
-141.396636
 20
200.086396
 30
0.0
 40
4.0
100
AcDbArc
 50
289.471221
 51
360.0
  0
ARC
  5
5D
100
AcDbEntity
  8
1
  6
DASHED
100
AcDbCircle
 10
-138.396636
 20
191.601115
 30
0.0
 40
5.0
100
AcDbArc
 50
109.471221
 51
180.0
  0
ARC
  5
5E
100
AcDbEntity
  8
1
  6
DASHED
100
AcDbCircle
 10
-141.396636
 20
173.94778
 30
0.0
 40
4.0
100
AcDbArc
 50
0.0
 51
70.528779
  0
ARC
  5
5F
100
AcDbEntity
  8
1
  6
DASHED
100
AcDbCircle
 10
-138.396636
 20
182.433062
 30
0.0
 40
5.0
100
AcDbArc
 50
180.0
 51
250.528779
  0
LINE
  5
60
100
AcDbEntity
  8
1
  6
DASHED
100
AcDbLine
 10
-137.396636
 20
186.017088
 30
0.0
 11
-137.396636
 21
188.017088
 31
0.0
  0
LINE
  5
61
100
AcDbEntity
  8
1
  6
DASHED
100
AcDbLine
 10
-139.396636
 20
190.017088
 30
0.0
 11
-147.396636
 21
190.017088
 31
0.0
  0
LINE
  5
62
100
AcDbEntity
  8
1
  6
DASHED
100
AcDbLine
 10
-139.396636
 20
184.017088
 30
0.0
 11
-147.396636
 21
184.017088
 31
0.0
  0
ARC
  5
63
100
AcDbEntity
  8
1
  6
DASHED
100
AcDbCircle
 10
-139.396636
 20
188.017088
 30
0.0
 40
2.0
100
AcDbArc
 50
0.0
 51
90.0
  0
ARC
  5
64
100
AcDbEntity
  8
1
  6
DASHED
100
AcDbCircle
 10
-139.396636
 20
186.017088
 30
0.0
 40
2.0
100
AcDbArc
 50
270.0
 51
360.0
  0
LINE
  5
65
100
AcDbEntity
  8
1
  6
DASHED
100
AcDbLine
 10
-143.396636
 20
195.409588
 30
0.0
 11
-147.396636
 21
195.409588
 31
0.0
  0
LINE
  5
66
100
AcDbEntity
  8
1
  6
DASHED
100
AcDbLine
 10
-143.396636
 20
178.624588
 30
0.0
 11
-147.396636
 21
178.624588
 31
0.0
  0
CIRCLE
  5
67
100
AcDbEntity
  8
1
100
AcDbCircle
 10
-182.396636
 20
-173.132912
 30
0.0
 40
44.0
  0
CIRCLE
  5
68
100
AcDbEntity
  8
1
100
AcDbCircle
 10
-182.396636
 20
-173.132912
 30
0.0
 40
45.0
  0
LINE
  5
69
100
AcDbEntity
  8
1
100
AcDbLine
 10
-217.396636
 20
-43.132912
 30
0.0
 11
-217.396636
 21
-35.132912
 31
0.0
  0
LINE
  5
6A
100
AcDbEntity
  8
1
100
AcDbLine
 10
-147.396636
 20
-43.132912
 30
0.0
 11
-147.396636
 21
-35.132912
 31
0.0
  0
LINE
  5
6B
100
AcDbEntity
  8
1
100
AcDbLine
 10
-213.396636
 20
-47.132912
 30
0.0
 11
-151.396636
 21
-47.132912
 31
0.0
  0
ARC
  5
6C
100
AcDbEntity
  8
1
100
AcDbCircle
 10
-213.396636
 20
-43.132912
 30
0.0
 40
4.0
100
AcDbArc
 50
180.0
 51
270.0
  0
ARC
  5
6D
100
AcDbEntity
  8
1
100
AcDbCircle
 10
-151.396636
 20
-43.132912
 30
0.0
 40
4.0
100
AcDbArc
 50
270.0
 51
360.0
  0
LINE
  5
6E
100
AcDbEntity
  8
1
100
AcDbLine
 10
-197.396636
 20
-124.143117
 30
0.0
 11
-197.396636
 21
-52.132912
 31
0.0
  0
LINE
  5
6F
100
AcDbEntity
  8
1
100
AcDbLine
 10
-167.396636
 20
-124.143117
 30
0.0
 11
-167.396636
 21
-52.132912
 31
0.0
  0
ARC
  5
70
100
AcDbEntity
  8
1
100
AcDbCircle
 10
-162.396636
 20
-52.132912
 30
0.0
 40
5.0
100
AcDbArc
 50
90.0
 51
180.0
  0
ARC
  5
71
100
AcDbEntity
  8
1
100
AcDbCircle
 10
-202.396636
 20
-52.132912
 30
0.0
 40
5.0
100
AcDbArc
 50
0.0
 51
90.0
  0
ARC
  5
72
100
AcDbEntity
  8
1
100
AcDbCircle
 10
-149.396636
 20
-65.041814
 30
0.0
 40
18.0
100
AcDbArc
 50
95.215909
 51
180.0
  0
ARC
  5
73
100
AcDbEntity
  8
1
100
AcDbCircle
 10
-215.396636
 20
-65.041814
 30
0.0
 40
18.0
100
AcDbArc
 50
0.0
 51
84.784091
  0
LINE
  5
74
100
AcDbEntity
  8
1
100
AcDbLine
 10
-179.396636
 20
-65.041814
 30
0.0
 11
-185.396636
 21
-65.041814
 31
0.0
  0
LINE
  5
75
100
AcDbEntity
  8
1
100
AcDbLine
 10
-185.396636
 20
-63.041814
 30
0.0
 11
-185.396636
 21
-49.132912
 31
0.0
  0
LINE
  5
76
100
AcDbEntity
  8
1
100
AcDbLine
 10
-179.396636
 20
-63.041814
 30
0.0
 11
-179.396636
 21
-49.132912
 31
0.0
  0
ARC
  5
77
100
AcDbEntity
  8
1
100
AcDbCircle
 10
-177.396636
 20
-49.132912
 30
0.0
 40
2.0
100
AcDbArc
 50
90.0
 51
180.0
  0
ARC
  5
78
100
AcDbEntity
  8
1
100
AcDbCircle
 10
-187.396636
 20
-49.132912
 30
0.0
 40
2.0
100
AcDbArc
 50
0.0
 51
90.0
  0
ARC
  5
79
100
AcDbEntity
  8
1
100
AcDbCircle
 10
-187.396636
 20
-63.041814
 30
0.0
 40
2.0
100
AcDbArc
 50
270.0
 51
360.0
  0
ARC
  5
7A
100
AcDbEntity
  8
1
100
AcDbCircle
 10
-177.396636
 20
-63.041814
 30
0.0
 40
2.0
100
AcDbArc
 50
180.0
 51
270.0
  0
ARC
  5
7B
100
AcDbEntity
  8
1
100
AcDbCircle
 10
-182.396636
 20
-188.132912
 30
0.0
 40
86.0
100
AcDbArc
 50
59.45837
 51
74.905213
  0
ARC
  5
7C
100
AcDbEntity
  8
1
100
AcDbCircle
 10
-182.396636
 20
-188.132912
 30
0.0
 40
86.0
100
AcDbArc
 50
105.094787
 51
120.54163
  0
ARC
  5
7D
100
AcDbEntity
  8
1
100
AcDbCircle
 10
-157.396636
 20
-95.445264
 30
0.0
 40
10.0
100
AcDbArc
 50
180.0
 51
254.905213
  0
ARC
  5
7E
100
AcDbEntity
  8
1
100
AcDbCircle
 10
-207.396636
 20
-95.445264
 30
0.0
 40
10.0
100
AcDbArc
 50
285.094787
 51
360.0
  0
LINE
  5
7F
100
AcDbEntity
  8
1
100
AcDbLine
 10
-143.165052
 20
-121.430563
 30
0.0
 11
-145.208519
 21
-122.781209
 31
0.0
  0
LINE
  5
80
100
AcDbEntity
  8
1
100
AcDbLine
 10
-148.235831
 20
-126.023577
 30
0.0
 11
-151.799005
 21
-132.312757
 31
0.0
  0
LINE
  5
81
100
AcDbEntity
  8
1
100
AcDbLine
 10
-212.994266
 20
-132.312757
 30
0.0
 11
-216.55744
 21
-126.023577
 31
0.0
  0
LINE
  5
82
100
AcDbEntity
  8
1
100
AcDbLine
 10
-219.584752
 20
-122.781209
 30
0.0
 11
-221.628219
 21
-121.430563
 31
0.0
  0
ARC
  5
83
100
AcDbEntity
  8
1
100
AcDbCircle
 10
-139.970229
 20
-130.706505
 30
0.0
 40
9.5
100
AcDbArc
 50
123.463041
 51
150.46601
  0
ARC
  5
84
100
AcDbEntity
  8
1
100
AcDbCircle
 10
-138.202462
 20
-128.938738
 30
0.0
 40
9.0
100
AcDbArc
 50
104.223541
 51
123.463041
  0
ARC
  5
85
100
AcDbEntity
  8
1
100
AcDbCircle
 10
-145.27353
 20
-136.009806
 30
0.0
 40
7.5
100
AcDbArc
 50
150.46601
 51
225.0
  0
ARC
  5
86
100
AcDbEntity
  8
1
100
AcDbCircle
 10
-219.519742
 20
-136.009806
 30
0.0
 40
7.5
100
AcDbArc
 50
315.0
 51
29.53399
  0
ARC
  5
87
100
AcDbEntity
  8
1
100
AcDbCircle
 10
-224.823042
 20
-130.706505
 30
0.0
 40
9.5
100
AcDbArc
 50
29.53399
 51
56.536959
  0
ARC
  5
88
100
AcDbEntity
  8
1
100
AcDbCircle
 10
-226.590809
 20
-128.938738
 30
0.0
 40
9.0
100
AcDbArc
 50
56.536959
 51
75.776459
  0
ARC
  5
89
100
AcDbEntity
  8
1
100
AcDbCircle
 10
-141.396636
 20
-116.33726
 30
0.0
 40
4.0
100
AcDbArc
 50
284.223541
 51
360.0
  0
ARC
  5
8A
100
AcDbEntity
  8
1
100
AcDbCircle
 10
-223.396636
 20
-116.33726
 30
0.0
 40
4.0
100
AcDbArc
 50
180.0
 51
255.776459
  0
ARC
  5
8B
100
AcDbEntity
  8
1
100
AcDbCircle
 10
-140.035469
 20
-116.33726
 30
0.0
 40
2.638833
100
AcDbArc
 50
0.0
 51
59.45837
  0
ARC
  5
8C
100
AcDbEntity
  8
1
100
AcDbCircle
 10
-224.757802
 20
-116.33726
 30
0.0
 40
2.638833
100
AcDbArc
 50
120.54163
 51
180.0
  0
LINE
  5
8D
100
AcDbEntity
  8
1
100
AcDbLine
 10
-201.396636
 20
-232.132912
 30
0.0
 11
-163.396636
 21
-232.132912
 31
0.0
  0
ARC
  5
8E
100
AcDbEntity
  8
1
100
AcDbCircle
 10
-158.396636
 20
-216.996336
 30
0.0
 40
5.0
100
AcDbArc
 50
118.685402
 51
180.0
  0
ARC
  5
8F
100
AcDbEntity
  8
1
100
AcDbCircle
 10
-206.396636
 20
-216.996336
 30
0.0
 40
5.0
100
AcDbArc
 50
0.0
 51
61.314598
  0
LINE
  5
90
100
AcDbEntity
  8
1
100
AcDbLine
 10
-198.396636
 20
-229.132912
 30
0.0
 11
-166.396636
 21
-229.132912
 31
0.0
  0
LINE
  5
91
100
AcDbEntity
  8
1
100
AcDbLine
 10
-161.97694
 20
-228.752505
 30
0.0
 11
-151.361359
 21
-225.908069
 31
0.0
  0
LINE
  5
92
100
AcDbEntity
  8
1
100
AcDbLine
 10
-202.816331
 20
-228.752505
 30
0.0
 11
-213.431912
 21
-225.908069
 31
0.0
  0
ARC
  5
93
100
AcDbEntity
  8
1
100
AcDbCircle
 10
-166.396636
 20
-226.132912
 30
0.0
 40
3.0
100
AcDbArc
 50
270.0
 51
360.0
  0
ARC
  5
94
100
AcDbEntity
  8
1
100
AcDbCircle
 10
-198.396636
 20
-226.132912
 30
0.0
 40
3.0
100
AcDbArc
 50
180.0
 51
270.0
  0
ARC
  5
95
100
AcDbEntity
  8
1
100
AcDbCircle
 10
-160.396636
 20
-231.434893
 30
0.0
 40
3.0
100
AcDbArc
 50
105.0
 51
180.0
  0
ARC
  5
96
100
AcDbEntity
  8
1
100
AcDbCircle
 10
-204.396636
 20
-231.434893
 30
0.0
 40
3.0
100
AcDbArc
 50
0.0
 51
75.0
  0
LINE
  5
97
100
AcDbEntity
  8
1
100
AcDbLine
 10
-216.396636
 20
-222.044366
 30
0.0
 11
-216.396636
 21
-222.007916
 31
0.0
  0
LINE
  5
98
100
AcDbEntity
  8
1
100
AcDbLine
 10
-148.396636
 20
-222.044366
 30
0.0
 11
-148.396636
 21
-222.007916
 31
0.0
  0
ARC
  5
99
100
AcDbEntity
  8
1
100
AcDbCircle
 10
-152.396636
 20
-222.044366
 30
0.0
 40
4.0
100
AcDbArc
 50
285.0
 51
360.0
  0
ARC
  5
9A
100
AcDbEntity
  8
1
100
AcDbCircle
 10
-212.396636
 20
-222.044366
 30
0.0
 40
4.0
100
AcDbArc
 50
180.0
 51
255.0
  0
LINE
  5
9B
100
AcDbEntity
  8
1
100
AcDbLine
 10
-152.041296
 20
-213.488251
 30
0.0
 11
-148.993918
 21
-219.868963
 31
0.0
  0
LINE
  5
9C
100
AcDbEntity
  8
1
100
AcDbLine
 10
-212.751975
 20
-213.488251
 30
0.0
 11
-215.799353
 21
-219.868963
 31
0.0
  0
ARC
  5
9D
100
AcDbEntity
  8
1
100
AcDbCircle
 10
-145.27353
 20
-210.256018
 30
0.0
 40
7.5
100
AcDbArc
 50
135.0
 51
205.528779
  0
ARC
  5
9E
100
AcDbEntity
  8
1
100
AcDbCircle
 10
-139.970229
 20
-215.559319
 30
0.0
 40
10.0
100
AcDbArc
 50
205.528779
 51
207.426743
  0
ARC
  5
9F
100
AcDbEntity
  8
1
100
AcDbCircle
 10
-152.396636
 20
-222.007916
 30
0.0
 40
4.0
100
AcDbArc
 50
0.0
 51
27.426743
  0
ARC
  5
A0
100
AcDbEntity
  8
1
100
AcDbCircle
 10
-219.519742
 20
-210.256018
 30
0.0
 40
7.5
100
AcDbArc
 50
334.471221
 51
45.0
  0
ARC
  5
A1
100
AcDbEntity
  8
1
100
AcDbCircle
 10
-224.823042
 20
-215.559319
 30
0.0
 40
10.0
100
AcDbArc
 50
332.573257
 51
334.471221
  0
ARC
  5
A2
100
AcDbEntity
  8
1
100
AcDbCircle
 10
-212.396636
 20
-222.007916
 30
0.0
 40
4.0
100
AcDbArc
 50
152.573257
 51
180.0
  0
LINE
  5
A3
100
AcDbEntity
  8
1
100
AcDbLine
 10
-175.496636
 20
-236.032912
 30
0.0
 11
-163.296636
 21
-236.032912
 31
0.0
  0
LINE
  5
A4
100
AcDbEntity
  8
1
100
AcDbLine
 10
-163.646636
 20
-236.032912
 30
0.0
 11
-163.646636
 21
-239.542164
 31
0.0
  0
LINE
  5
A5
100
AcDbEntity
  8
1
100
AcDbLine
 10
-163.646636
 20
-239.542164
 30
0.0
 11
-164.496636
 21
-240.032912
 31
0.0
  0
LINE
  5
A6
100
AcDbEntity
  8
1
100
AcDbLine
 10
-166.521636
 20
-236.032912
 30
0.0
 11
-166.521636
 21
-239.542164
 31
0.0
  0
ARC
  5
A7
100
AcDbEntity
  8
1
100
AcDbCircle
 10
-165.084136
 20
-237.694209
 30
0.0
 40
2.341227
100
AcDbArc
 50
232.121121
 51
307.878879
  0
ARC
  5
A8
100
AcDbEntity
  8
1
100
AcDbCircle
 10
-169.396636
 20
-231.410436
 30
0.0
 40
8.625
100
AcDbArc
 50
250.528777
 51
289.471219
  0
LINE
  5
A9
100
AcDbEntity
  8
1
100
AcDbLine
 10
-175.146636
 20
-236.032912
 30
0.0
 11
-175.146636
 21
-239.542164
 31
0.0
  0
LINE
  5
AA
100
AcDbEntity
  8
1
100
AcDbLine
 10
-175.146636
 20
-239.542164
 30
0.0
 11
-174.296636
 21
-240.032912
 31
0.0
  0
LINE
  5
AB
100
AcDbEntity
  8
1
100
AcDbLine
 10
-174.296636
 20
-240.032912
 30
0.0
 11
-164.496636
 21
-240.032912
 31
0.0
  0
LINE
  5
AC
100
AcDbEntity
  8
1
100
AcDbLine
 10
-172.271636
 20
-236.032912
 30
0.0
 11
-172.271636
 21
-239.542164
 31
0.0
  0
ARC
  5
AD
100
AcDbEntity
  8
1
100
AcDbCircle
 10
-173.709136
 20
-237.694209
 30
0.0
 40
2.341227
100
AcDbArc
 50
232.121121
 51
307.878879
  0
LINE
  5
AE
100
AcDbEntity
  8
1
100
AcDbLine
 10
-163.296636
 20
-234.532912
 30
0.0
 11
-163.296636
 21
-236.032912
 31
0.0
  0
LINE
  5
AF
100
AcDbEntity
  8
1
100
AcDbLine
 10
-175.496636
 20
-236.032912
 30
0.0
 11
-175.496636
 21
-234.532912
 31
0.0
  0
LINE
  5
B0
100
AcDbEntity
  8
1
100
AcDbLine
 10
-169.396636
 20
-236.032912
 30
0.0
 11
-169.896636
 21
-234.532912
 31
0.0
  0
LINE
  5
B1
100
AcDbEntity
  8
1
100
AcDbLine
 10
-169.396636
 20
-234.532912
 30
0.0
 11
-168.896636
 21
-236.032912
 31
0.0
  0
LINE
  5
B2
100
AcDbEntity
  8
1
100
AcDbLine
 10
-201.496636
 20
-236.032912
 30
0.0
 11
-189.296636
 21
-236.032912
 31
0.0
  0
LINE
  5
B3
100
AcDbEntity
  8
1
100
AcDbLine
 10
-189.646636
 20
-236.032912
 30
0.0
 11
-189.646636
 21
-239.542164
 31
0.0
  0
LINE
  5
B4
100
AcDbEntity
  8
1
100
AcDbLine
 10
-189.646636
 20
-239.542164
 30
0.0
 11
-190.496636
 21
-240.032912
 31
0.0
  0
LINE
  5
B5
100
AcDbEntity
  8
1
100
AcDbLine
 10
-192.521636
 20
-236.032912
 30
0.0
 11
-192.521636
 21
-239.542164
 31
0.0
  0
ARC
  5
B6
100
AcDbEntity
  8
1
100
AcDbCircle
 10
-191.084136
 20
-237.694209
 30
0.0
 40
2.341227
100
AcDbArc
 50
232.121121
 51
307.878879
  0
ARC
  5
B7
100
AcDbEntity
  8
1
100
AcDbCircle
 10
-195.396636
 20
-231.410436
 30
0.0
 40
8.625
100
AcDbArc
 50
250.528777
 51
289.471219
  0
LINE
  5
B8
100
AcDbEntity
  8
1
100
AcDbLine
 10
-201.146636
 20
-236.032912
 30
0.0
 11
-201.146636
 21
-239.542164
 31
0.0
  0
LINE
  5
B9
100
AcDbEntity
  8
1
100
AcDbLine
 10
-201.146636
 20
-239.542164
 30
0.0
 11
-200.296636
 21
-240.032912
 31
0.0
  0
LINE
  5
BA
100
AcDbEntity
  8
1
100
AcDbLine
 10
-200.296636
 20
-240.032912
 30
0.0
 11
-190.496636
 21
-240.032912
 31
0.0
  0
LINE
  5
BB
100
AcDbEntity
  8
1
100
AcDbLine
 10
-198.271636
 20
-236.032912
 30
0.0
 11
-198.271636
 21
-239.542164
 31
0.0
  0
ARC
  5
BC
100
AcDbEntity
  8
1
100
AcDbCircle
 10
-199.709136
 20
-237.694209
 30
0.0
 40
2.341227
100
AcDbArc
 50
232.121121
 51
307.878879
  0
LINE
  5
BD
100
AcDbEntity
  8
1
100
AcDbLine
 10
-189.296636
 20
-234.532912
 30
0.0
 11
-189.296636
 21
-236.032912
 31
0.0
  0
LINE
  5
BE
100
AcDbEntity
  8
1
100
AcDbLine
 10
-201.496636
 20
-236.032912
 30
0.0
 11
-201.496636
 21
-234.532912
 31
0.0
  0
LINE
  5
BF
100
AcDbEntity
  8
1
100
AcDbLine
 10
-195.396636
 20
-236.032912
 30
0.0
 11
-195.896636
 21
-234.532912
 31
0.0
  0
LINE
  5
C0
100
AcDbEntity
  8
1
100
AcDbLine
 10
-195.396636
 20
-234.532912
 30
0.0
 11
-194.896636
 21
-236.032912
 31
0.0
  0
LINE
  5
C1
100
AcDbEntity
  8
1
  6
CENTER
 62
     2
100
AcDbLine
 10
-169.396636
 20
-225.112757
 30
0.0
 11
-169.396636
 21
-244.115213
 31
0.0
  0
ARC
  5
C2
100
AcDbEntity
  8
1
100
AcDbCircle
 10
-161.200483
 20
-231.650283
 30
0.0
 40
3.0
100
AcDbArc
 50
105.0
 51
180.0
  0
ARC
  5
C3
100
AcDbEntity
  8
1
100
AcDbCircle
 10
-203.592788
 20
-231.650283
 30
0.0
 40
3.0
100
AcDbArc
 50
360.0
 51
75.0
  0
LINE
  5
C4
100
AcDbEntity
  8
1
100
AcDbLine
 10
-201.396636
 20
-232.932912
 30
0.0
 11
-163.396636
 21
-232.932912
 31
0.0
  0
LINE
  5
C5
100
AcDbEntity
  8
1
100
AcDbLine
 10
-201.496636
 20
-234.532912
 30
0.0
 11
-163.296636
 21
-234.532912
 31
0.0
  0
LINE
  5
C6
100
AcDbEntity
  8
1
  6
CENTER
 62
     2
100
AcDbLine
 10
-195.396636
 20
-225.112757
 30
0.0
 11
-195.396636
 21
-244.115213
 31
0.0
  0
LINE
  5
C7
100
AcDbEntity
  8
1
100
AcDbLine
 10
-163.396636
 20
-234.532912
 30
0.0
 11
-163.396636
 21
-231.434893
 31
0.0
  0
LINE
  5
C8
100
AcDbEntity
  8
1
100
AcDbLine
 10
-163.396636
 20
-226.132912
 30
0.0
 11
-163.396636
 21
-216.996336
 31
0.0
  0
LINE
  5
C9
100
AcDbEntity
  8
1
100
AcDbLine
 10
-201.396636
 20
-234.532912
 30
0.0
 11
-201.396636
 21
-231.434893
 31
0.0
  0
LINE
  5
CA
100
AcDbEntity
  8
1
100
AcDbLine
 10
-201.396636
 20
-226.132912
 30
0.0
 11
-201.396636
 21
-216.996336
 31
0.0
  0
LINE
  5
CB
100
AcDbEntity
  8
1
  6
CENTER
 62
     2
100
AcDbLine
 10
-157.646636
 20
-26.772141
 30
0.0
 11
-157.646636
 21
-55.819302
 31
0.0
  0
LINE
  5
CC
100
AcDbEntity
  8
1
  6
CENTER
 62
     2
100
AcDbLine
 10
-207.146636
 20
-26.772141
 30
0.0
 11
-207.146636
 21
-55.819302
 31
0.0
  0
LINE
  5
CD
100
AcDbEntity
  8
1
100
AcDbLine
 10
26.153364
 20
-43.132912
 30
0.0
 11
26.153364
 21
-35.132912
 31
0.0
  0
LINE
  5
CE
100
AcDbEntity
  8
1
100
AcDbLine
 10
96.153364
 20
-43.132912
 30
0.0
 11
96.153364
 21
-35.132912
 31
0.0
  0
LINE
  5
CF
100
AcDbEntity
  8
1
100
AcDbLine
 10
30.153364
 20
-47.132912
 30
0.0
 11
92.153364
 21
-47.132912
 31
0.0
  0
ARC
  5
D0
100
AcDbEntity
  8
1
100
AcDbCircle
 10
30.153364
 20
-43.132912
 30
0.0
 40
4.0
100
AcDbArc
 50
180.0
 51
270.0
  0
ARC
  5
D1
100
AcDbEntity
  8
1
100
AcDbCircle
 10
92.153364
 20
-43.132912
 30
0.0
 40
4.0
100
AcDbArc
 50
270.0
 51
360.0
  0
LINE
  5
D2
100
AcDbEntity
  8
1
100
AcDbLine
 10
46.153364
 20
-128.050352
 30
0.0
 11
46.153364
 21
-52.132912
 31
0.0
  0
LINE
  5
D3
100
AcDbEntity
  8
1
100
AcDbLine
 10
76.153364
 20
-128.050352
 30
0.0
 11
76.153364
 21
-52.132912
 31
0.0
  0
ARC
  5
D4
100
AcDbEntity
  8
1
100
AcDbCircle
 10
81.153364
 20
-52.132912
 30
0.0
 40
5.0
100
AcDbArc
 50
90.0
 51
180.0
  0
ARC
  5
D5
100
AcDbEntity
  8
1
100
AcDbCircle
 10
41.153364
 20
-52.132912
 30
0.0
 40
5.0
100
AcDbArc
 50
0.0
 51
90.0
  0
ARC
  5
D6
100
AcDbEntity
  8
1
100
AcDbCircle
 10
94.153364
 20
-65.041814
 30
0.0
 40
18.0
100
AcDbArc
 50
95.215909
 51
180.0
  0
ARC
  5
D7
100
AcDbEntity
  8
1
100
AcDbCircle
 10
28.153364
 20
-65.041814
 30
0.0
 40
18.0
100
AcDbArc
 50
0.0
 51
84.784091
  0
LINE
  5
D8
100
AcDbEntity
  8
1
100
AcDbLine
 10
64.153364
 20
-65.041814
 30
0.0
 11
58.153364
 21
-65.041814
 31
0.0
  0
LINE
  5
D9
100
AcDbEntity
  8
1
100
AcDbLine
 10
58.153364
 20
-63.041814
 30
0.0
 11
58.153364
 21
-49.132912
 31
0.0
  0
LINE
  5
DA
100
AcDbEntity
  8
1
100
AcDbLine
 10
64.153364
 20
-63.041814
 30
0.0
 11
64.153364
 21
-49.132912
 31
0.0
  0
ARC
  5
DB
100
AcDbEntity
  8
1
100
AcDbCircle
 10
66.153364
 20
-49.132912
 30
0.0
 40
2.0
100
AcDbArc
 50
90.0
 51
180.0
  0
ARC
  5
DC
100
AcDbEntity
  8
1
100
AcDbCircle
 10
56.153364
 20
-49.132912
 30
0.0
 40
2.0
100
AcDbArc
 50
0.0
 51
90.0
  0
ARC
  5
DD
100
AcDbEntity
  8
1
100
AcDbCircle
 10
56.153364
 20
-63.041814
 30
0.0
 40
2.0
100
AcDbArc
 50
270.0
 51
360.0
  0
ARC
  5
DE
100
AcDbEntity
  8
1
100
AcDbCircle
 10
66.153364
 20
-63.041814
 30
0.0
 40
2.0
100
AcDbArc
 50
180.0
 51
270.0
  0
LINE
  5
DF
100
AcDbEntity
  8
1
  6
CENTER
 62
     2
100
AcDbLine
 10
85.903364
 20
-26.772141
 30
0.0
 11
85.903364
 21
-55.819302
 31
0.0
  0
LINE
  5
E0
100
AcDbEntity
  8
1
  6
CENTER
 62
     2
100
AcDbLine
 10
36.403364
 20
-26.772141
 30
0.0
 11
36.403364
 21
-55.819302
 31
0.0
  0
LINE
  5
E1
100
AcDbEntity
  8
1
100
AcDbLine
 10
39.653364
 20
-217.132912
 30
0.0
 11
39.653364
 21
-129.132912
 31
0.0
  0
LINE
  5
E2
100
AcDbEntity
  8
1
100
AcDbLine
 10
82.653364
 20
-217.132912
 30
0.0
 11
82.653364
 21
-129.132912
 31
0.0
  0
LINE
  5
E3
100
AcDbEntity
  8
1
100
AcDbLine
 10
82.653364
 20
-129.132912
 30
0.0
 11
81.653364
 21
-128.132912
 31
0.0
  0
LINE
  5
E4
100
AcDbEntity
  8
1
100
AcDbLine
 10
39.653364
 20
-129.132912
 30
0.0
 11
40.653364
 21
-128.132912
 31
0.0
  0
LINE
  5
E5
100
AcDbEntity
  8
1
100
AcDbLine
 10
40.653364
 20
-218.132912
 30
0.0
 11
39.653364
 21
-217.132912
 31
0.0
  0
LINE
  5
E6
100
AcDbEntity
  8
1
100
AcDbLine
 10
81.653364
 20
-218.132912
 30
0.0
 11
82.653364
 21
-217.132912
 31
0.0
  0
LINE
  5
E7
100
AcDbEntity
  8
1
100
AcDbLine
 10
81.653364
 20
-128.132912
 30
0.0
 11
81.653364
 21
-218.132912
 31
0.0
  0
LINE
  5
E8
100
AcDbEntity
  8
1
100
AcDbLine
 10
40.653364
 20
-128.132912
 30
0.0
 11
40.653364
 21
-218.132912
 31
0.0
  0
ARC
  5
E9
100
AcDbEntity
  8
1
100
AcDbCircle
 10
41.153364
 20
-123.132912
 30
0.0
 40
5.0
100
AcDbArc
 50
270.0
 51
360.0
  0
ARC
  5
EA
100
AcDbEntity
  8
1
100
AcDbCircle
 10
81.153364
 20
-123.132912
 30
0.0
 40
5.0
100
AcDbArc
 50
180.0
 51
270.0
  0
LINE
  5
EB
100
AcDbEntity
  8
1
100
AcDbLine
 10
40.653364
 20
-128.132912
 30
0.0
 11
41.153364
 21
-128.132912
 31
0.0
  0
LINE
  5
EC
100
AcDbEntity
  8
1
100
AcDbLine
 10
81.153364
 20
-128.132912
 30
0.0
 11
81.653364
 21
-128.132912
 31
0.0
  0
LINE
  5
ED
100
AcDbEntity
  8
1
100
AcDbLine
 10
48.153364
 20
-234.532912
 30
0.0
 11
48.153364
 21
-216.609994
 31
0.0
  0
LINE
  5
EE
100
AcDbEntity
  8
1
100
AcDbLine
 10
74.153364
 20
-234.532912
 30
0.0
 11
74.153364
 21
-216.609994
 31
0.0
  0
LINE
  5
EF
100
AcDbEntity
  8
1
100
AcDbLine
 10
48.153364
 20
-232.132912
 30
0.0
 11
74.153364
 21
-232.132912
 31
0.0
  0
ARC
  5
F0
100
AcDbEntity
  8
1
100
AcDbCircle
 10
78.153364
 20
-222.132912
 30
0.0
 40
4.0
100
AcDbArc
 50
90.0
 51
180.0
  0
ARC
  5
F1
100
AcDbEntity
  8
1
100
AcDbCircle
 10
44.153364
 20
-222.132912
 30
0.0
 40
4.0
100
AcDbArc
 50
0.0
 51
90.0
  0
ARC
  5
F2
100
AcDbEntity
  8
1
100
AcDbCircle
 10
78.153364
 20
-216.609994
 30
0.0
 40
4.0
100
AcDbArc
 50
90.0
 51
180.0
  0
ARC
  5
F3
100
AcDbEntity
  8
1
100
AcDbCircle
 10
44.153364
 20
-216.609994
 30
0.0
 40
4.0
100
AcDbArc
 50
0.0
 51
90.0
  0
LINE
  5
F4
100
AcDbEntity
  8
1
100
AcDbLine
 10
40.653364
 20
-218.132912
 30
0.0
 11
44.153364
 21
-218.132912
 31
0.0
  0
LINE
  5
F5
100
AcDbEntity
  8
1
100
AcDbLine
 10
78.153364
 20
-218.132912
 30
0.0
 11
81.653364
 21
-218.132912
 31
0.0
  0
LINE
  5
F6
100
AcDbEntity
  8
1
100
AcDbLine
 10
66.153364
 20
-236.032912
 30
0.0
 11
66.153364
 21
-240.032912
 31
0.0
  0
LINE
  5
F7
100
AcDbEntity
  8
1
100
AcDbLine
 10
61.153364
 20
-236.032912
 30
0.0
 11
61.153364
 21
-239.542164
 31
0.0
  0
ARC
  5
F8
100
AcDbEntity
  8
1
100
AcDbCircle
 10
63.653364
 20
-233.419704
 30
0.0
 40
6.613208
100
AcDbArc
 50
247.788205
 51
292.211795
  0
LINE
  5
F9
100
AcDbEntity
  8
1
100
AcDbLine
 10
56.153364
 20
-236.032912
 30
0.0
 11
56.153364
 21
-240.032912
 31
0.0
  0
LINE
  5
FA
100
AcDbEntity
  8
1
100
AcDbLine
 10
56.153364
 20
-240.032912
 30
0.0
 11
66.153364
 21
-240.032912
 31
0.0
  0
ARC
  5
FB
100
AcDbEntity
  8
1
100
AcDbCircle
 10
58.653364
 20
-233.419704
 30
0.0
 40
6.613208
100
AcDbArc
 50
247.788205
 51
292.211795
  0
LINE
  5
FC
100
AcDbEntity
  8
1
100
AcDbLine
 10
67.253364
 20
-234.532912
 30
0.0
 11
67.253364
 21
-236.032912
 31
0.0
  0
LINE
  5
FD
100
AcDbEntity
  8
1
100
AcDbLine
 10
67.253364
 20
-236.032912
 30
0.0
 11
55.053364
 21
-236.032912
 31
0.0
  0
LINE
  5
FE
100
AcDbEntity
  8
1
100
AcDbLine
 10
55.053364
 20
-236.032912
 30
0.0
 11
55.053364
 21
-234.532912
 31
0.0
  0
LINE
  5
FF
100
AcDbEntity
  8
1
100
AcDbLine
 10
48.153364
 20
-232.932912
 30
0.0
 11
74.153364
 21
-232.932912
 31
0.0
  0
LINE
  5
100
100
AcDbEntity
  8
1
100
AcDbLine
 10
48.153364
 20
-234.532912
 30
0.0
 11
74.153364
 21
-234.532912
 31
0.0
  0
LINE
  5
101
100
AcDbEntity
  8
1
100
AcDbLine
 10
57.153364
 20
-144.132912
 30
0.0
 11
65.153364
 21
-144.132912
 31
0.0
  0
LINE
  5
102
100
AcDbEntity
  8
1
100
AcDbLine
 10
57.153364
 20
-202.132912
 30
0.0
 11
65.153364
 21
-202.132912
 31
0.0
  0
LINE
  5
103
100
AcDbEntity
  8
1
100
AcDbLine
 10
51.153364
 20
-196.132912
 30
0.0
 11
51.153364
 21
-150.132912
 31
0.0
  0
LINE
  5
104
100
AcDbEntity
  8
1
100
AcDbLine
 10
71.153364
 20
-196.132912
 30
0.0
 11
71.153364
 21
-150.132912
 31
0.0
  0
ARC
  5
105
100
AcDbEntity
  8
1
100
AcDbCircle
 10
65.153364
 20
-150.132912
 30
0.0
 40
6.0
100
AcDbArc
 50
0.0
 51
90.0
  0
ARC
  5
106
100
AcDbEntity
  8
1
100
AcDbCircle
 10
57.153364
 20
-150.132912
 30
0.0
 40
6.0
100
AcDbArc
 50
90.0
 51
180.0
  0
ARC
  5
107
100
AcDbEntity
  8
1
100
AcDbCircle
 10
57.153364
 20
-196.132912
 30
0.0
 40
6.0
100
AcDbArc
 50
180.0
 51
270.0
  0
ARC
  5
108
100
AcDbEntity
  8
1
100
AcDbCircle
 10
65.153364
 20
-196.132912
 30
0.0
 40
6.0
100
AcDbArc
 50
270.0
 51
360.0
  0
LINE
  5
109
100
AcDbEntity
  8
1
100
AcDbLine
 10
58.153364
 20
-141.132912
 30
0.0
 11
64.153364
 21
-141.132912
 31
0.0
  0
LINE
  5
10A
100
AcDbEntity
  8
1
100
AcDbLine
 10
58.153364
 20
-205.132912
 30
0.0
 11
64.153364
 21
-205.132912
 31
0.0
  0
LINE
  5
10B
100
AcDbEntity
  8
1
100
AcDbLine
 10
71.153364
 20
-213.609994
 30
0.0
 11
71.153364
 21
-209.132912
 31
0.0
  0
LINE
  5
10C
100
AcDbEntity
  8
1
100
AcDbLine
 10
71.153364
 20
-137.132912
 30
0.0
 11
71.153364
 21
-127.143117
 31
0.0
  0
LINE
  5
10D
100
AcDbEntity
  8
1
100
AcDbLine
 10
51.153364
 20
-213.609994
 30
0.0
 11
51.153364
 21
-209.132912
 31
0.0
  0
LINE
  5
10E
100
AcDbEntity
  8
1
100
AcDbLine
 10
51.153364
 20
-137.132912
 30
0.0
 11
51.153364
 21
-127.143117
 31
0.0
  0
ARC
  5
10F
100
AcDbEntity
  8
1
100
AcDbCircle
 10
74.153364
 20
-213.609994
 30
0.0
 40
3.0
100
AcDbArc
 50
180.0
 51
270.0
  0
ARC
  5
110
100
AcDbEntity
  8
1
100
AcDbCircle
 10
48.153364
 20
-213.609994
 30
0.0
 40
3.0
100
AcDbArc
 50
270.0
 51
360.0
  0
LINE
  5
111
100
AcDbEntity
  8
1
100
AcDbLine
 10
69.545864
 20
-193.865305
 30
0.0
 11
69.545864
 21
-152.400519
 31
0.0
  0
LINE
  5
112
100
AcDbEntity
  8
1
100
AcDbLine
 10
52.760864
 20
-193.865305
 30
0.0
 11
52.760864
 21
-152.400519
 31
0.0
  0
LINE
  5
113
100
AcDbEntity
  8
1
100
AcDbLine
 10
56.481864
 20
-148.679519
 30
0.0
 11
65.824864
 21
-148.679519
 31
0.0
  0
LINE
  5
114
100
AcDbEntity
  8
1
100
AcDbLine
 10
56.481864
 20
-197.586305
 30
0.0
 11
65.824864
 21
-197.586305
 31
0.0
  0
ARC
  5
115
100
AcDbEntity
  8
1
100
AcDbCircle
 10
65.824864
 20
-193.865305
 30
0.0
 40
3.721
100
AcDbArc
 50
270.0
 51
360.0
  0
ARC
  5
116
100
AcDbEntity
  8
1
100
AcDbCircle
 10
56.481864
 20
-193.865305
 30
0.0
 40
3.721
100
AcDbArc
 50
180.0
 51
270.0
  0
ARC
  5
117
100
AcDbEntity
  8
1
100
AcDbCircle
 10
56.481864
 20
-152.400519
 30
0.0
 40
3.721
100
AcDbArc
 50
90.0
 51
180.0
  0
ARC
  5
118
100
AcDbEntity
  8
1
100
AcDbCircle
 10
65.824864
 20
-152.400519
 30
0.0
 40
3.721
100
AcDbArc
 50
0.0
 51
90.0
  0
LINE
  5
119
100
AcDbEntity
  8
1
100
AcDbLine
 10
69.545864
 20
-148.679519
 30
0.0
 11
70.186677
 21
-146.867063
 31
0.0
  0
LINE
  5
11A
100
AcDbEntity
  8
1
100
AcDbLine
 10
52.120052
 20
-146.867063
 30
0.0
 11
52.760864
 21
-148.679519
 31
0.0
  0
LINE
  5
11B
100
AcDbEntity
  8
1
100
AcDbLine
 10
52.760864
 20
-197.586305
 30
0.0
 11
52.120052
 21
-199.39876
 31
0.0
  0
LINE
  5
11C
100
AcDbEntity
  8
1
100
AcDbLine
 10
70.186677
 20
-199.39876
 30
0.0
 11
69.545864
 21
-197.586305
 31
0.0
  0
ARC
  5
11D
100
AcDbEntity
  8
1
100
AcDbCircle
 10
51.153364
 20
-226.132912
 30
0.0
 40
3.0
100
AcDbArc
 50
180.0
 51
270.0
  0
ARC
  5
11E
100
AcDbEntity
  8
1
100
AcDbCircle
 10
71.153364
 20
-226.132912
 30
0.0
 40
3.0
100
AcDbArc
 50
270.0
 51
0.0
  0
LINE
  5
11F
100
AcDbEntity
  8
1
100
AcDbLine
 10
51.153364
 20
-229.132912
 30
0.0
 11
55.153364
 21
-229.132912
 31
0.0
  0
LINE
  5
120
100
AcDbEntity
  8
1
100
AcDbLine
 10
67.153364
 20
-229.132912
 30
0.0
 11
71.153364
 21
-229.132912
 31
0.0
  0
LINE
  5
121
100
AcDbEntity
  8
1
100
AcDbLine
 10
58.153364
 20
-231.650283
 30
0.0
 11
64.153364
 21
-231.650283
 31
0.0
  0
ARC
  5
122
100
AcDbEntity
  8
1
100
AcDbCircle
 10
67.153364
 20
-228.650283
 30
0.0
 40
3.0
100
AcDbArc
 50
180.0
 51
270.0
  0
ARC
  5
123
100
AcDbEntity
  8
1
100
AcDbCircle
 10
55.153364
 20
-228.650283
 30
0.0
 40
3.0
100
AcDbArc
 50
270.0
 51
360.0
  0
ARC
  5
124
100
AcDbEntity
  8
1
100
AcDbCircle
 10
67.153364
 20
-226.132912
 30
0.0
 40
3.0
100
AcDbArc
 50
180.0
 51
270.0
  0
ARC
  5
125
100
AcDbEntity
  8
1
100
AcDbCircle
 10
55.153364
 20
-226.132912
 30
0.0
 40
3.0
100
AcDbArc
 50
270.0
 51
360.0
  0
LINE
  5
126
100
AcDbEntity
  8
1
100
AcDbLine
 10
60.153364
 20
-225.908069
 30
0.0
 11
62.153364
 21
-225.908069
 31
0.0
  0
ARC
  5
127
100
AcDbEntity
  8
1
100
AcDbCircle
 10
62.153364
 20
-223.908069
 30
0.0
 40
2.0
100
AcDbArc
 50
270.0
 51
360.0
  0
ARC
  5
128
100
AcDbEntity
  8
1
100
AcDbCircle
 10
60.153364
 20
-223.908069
 30
0.0
 40
2.0
100
AcDbArc
 50
180.0
 51
270.0
  0
LINE
  5
129
100
AcDbEntity
  8
1
  6
DASHED
100
AcDbLine
 10
-138.831611
 20
197.017088
 30
0.0
 11
-147.396636
 21
197.017088
 31
0.0
  0
LINE
  5
12A
100
AcDbEntity
  8
1
  6
DASHED
100
AcDbLine
 10
-138.831611
 20
177.017088
 30
0.0
 11
-147.396636
 21
177.017088
 31
0.0
  0
LINE
  5
12B
100
AcDbEntity
  8
1
  6
DASHED
100
AcDbLine
 10
-143.396636
 20
182.433062
 30
0.0
 11
-143.396636
 21
184.017088
 31
0.0
  0
LINE
  5
12C
100
AcDbEntity
  8
1
  6
DASHED
100
AcDbLine
 10
-143.396636
 20
190.017088
 30
0.0
 11
-143.396636
 21
191.601115
 31
0.0
  0
LINE
  5
12D
100
AcDbEntity
  8
1
  6
DASHED
100
AcDbLine
 10
-143.346636
 20
164.392088
 30
0.0
 11
-147.396636
 21
164.392088
 31
0.0
  0
LINE
  5
12E
100
AcDbEntity
  8
1
  6
DASHED
100
AcDbLine
 10
-143.346636
 20
209.642088
 30
0.0
 11
-147.396636
 21
209.642088
 31
0.0
  0
LINE
  5
12F
100
AcDbEntity
  8
1
  6
DASHED
100
AcDbLine
 10
-143.346636
 20
209.642088
 30
0.0
 11
-141.896913
 21
208.80571
 31
0.0
  0
LINE
  5
130
100
AcDbEntity
  8
1
  6
DASHED
100
AcDbLine
 10
-143.346636
 20
164.392088
 30
0.0
 11
-141.896913
 21
165.228467
 31
0.0
  0
ARC
  5
131
100
AcDbEntity
  8
1
  6
DASHED
100
AcDbCircle
 10
-142.396636
 20
207.939524
 30
0.0
 40
1.0
100
AcDbArc
 50
35.279384
 51
60.018361
  0
ARC
  5
132
100
AcDbEntity
  8
1
  6
DASHED
100
AcDbCircle
 10
-142.396636
 20
166.094652
 30
0.0
 40
1.0
100
AcDbArc
 50
299.981639
 51
324.720616
  0
LINE
  5
133
100
AcDbEntity
  8
1
  6
DASHED
100
AcDbLine
 10
-227.396636
 20
207.517088
 30
0.0
 11
-226.396636
 21
208.517088
 31
0.0
  0
LINE
  5
134
100
AcDbEntity
  8
1
  6
DASHED
100
AcDbLine
 10
-227.396636
 20
166.517088
 30
0.0
 11
-226.396636
 21
165.517088
 31
0.0
  0
ARC
  5
135
100
AcDbEntity
  8
1
  6
DASHED
100
AcDbCircle
 10
-223.396636
 20
200.086396
 30
0.0
 40
4.0
100
AcDbArc
 50
180.0
 51
250.528779
  0
ARC
  5
136
100
AcDbEntity
  8
1
  6
DASHED
100
AcDbCircle
 10
-226.396636
 20
191.601115
 30
0.0
 40
5.0
100
AcDbArc
 50
0.0
 51
70.528779
  0
ARC
  5
137
100
AcDbEntity
  8
1
  6
DASHED
100
AcDbCircle
 10
-223.396636
 20
173.94778
 30
0.0
 40
4.0
100
AcDbArc
 50
109.471221
 51
180.0
  0
ARC
  5
138
100
AcDbEntity
  8
1
  6
DASHED
100
AcDbCircle
 10
-226.396636
 20
182.433062
 30
0.0
 40
5.0
100
AcDbArc
 50
289.471221
 51
360.0
  0
LINE
  5
139
100
AcDbEntity
  8
1
  6
DASHED
100
AcDbLine
 10
-227.396636
 20
186.017088
 30
0.0
 11
-227.396636
 21
188.017088
 31
0.0
  0
LINE
  5
13A
100
AcDbEntity
  8
1
  6
DASHED
100
AcDbLine
 10
-225.396636
 20
190.017088
 30
0.0
 11
-217.396636
 21
190.017088
 31
0.0
  0
LINE
  5
13B
100
AcDbEntity
  8
1
  6
DASHED
100
AcDbLine
 10
-225.396636
 20
184.017088
 30
0.0
 11
-217.396636
 21
184.017088
 31
0.0
  0
ARC
  5
13C
100
AcDbEntity
  8
1
  6
DASHED
100
AcDbCircle
 10
-225.396636
 20
188.017088
 30
0.0
 40
2.0
100
AcDbArc
 50
90.0
 51
180.0
  0
ARC
  5
13D
100
AcDbEntity
  8
1
  6
DASHED
100
AcDbCircle
 10
-225.396636
 20
186.017088
 30
0.0
 40
2.0
100
AcDbArc
 50
180.0
 51
270.0
  0
LINE
  5
13E
100
AcDbEntity
  8
1
  6
DASHED
100
AcDbLine
 10
-221.396636
 20
195.409588
 30
0.0
 11
-217.396636
 21
195.409588
 31
0.0
  0
LINE
  5
13F
100
AcDbEntity
  8
1
  6
DASHED
100
AcDbLine
 10
-221.396636
 20
178.624588
 30
0.0
 11
-217.396636
 21
178.624588
 31
0.0
  0
LINE
  5
140
100
AcDbEntity
  8
1
  6
DASHED
100
AcDbLine
 10
-225.96166
 20
197.017088
 30
0.0
 11
-217.396636
 21
197.017088
 31
0.0
  0
LINE
  5
141
100
AcDbEntity
  8
1
  6
DASHED
100
AcDbLine
 10
-225.96166
 20
177.017088
 30
0.0
 11
-217.396636
 21
177.017088
 31
0.0
  0
LINE
  5
142
100
AcDbEntity
  8
1
  6
DASHED
100
AcDbLine
 10
-221.396636
 20
182.433062
 30
0.0
 11
-221.396636
 21
184.017088
 31
0.0
  0
LINE
  5
143
100
AcDbEntity
  8
1
  6
DASHED
100
AcDbLine
 10
-221.396636
 20
190.017088
 30
0.0
 11
-221.396636
 21
191.601115
 31
0.0
  0
LINE
  5
144
100
AcDbEntity
  8
1
  6
DASHED
100
AcDbLine
 10
-221.446636
 20
164.392088
 30
0.0
 11
-217.396636
 21
164.392088
 31
0.0
  0
LINE
  5
145
100
AcDbEntity
  8
1
  6
DASHED
100
AcDbLine
 10
-221.446636
 20
209.642088
 30
0.0
 11
-217.396636
 21
209.642088
 31
0.0
  0
LINE
  5
146
100
AcDbEntity
  8
1
  6
DASHED
100
AcDbLine
 10
-221.446636
 20
209.642088
 30
0.0
 11
-222.896358
 21
208.80571
 31
0.0
  0
LINE
  5
147
100
AcDbEntity
  8
1
  6
DASHED
100
AcDbLine
 10
-221.446636
 20
164.392088
 30
0.0
 11
-222.896358
 21
165.228467
 31
0.0
  0
ARC
  5
148
100
AcDbEntity
  8
1
  6
DASHED
100
AcDbCircle
 10
-222.396636
 20
207.939524
 30
0.0
 40
1.0
100
AcDbArc
 50
119.981639
 51
144.720616
  0
ARC
  5
149
100
AcDbEntity
  8
1
  6
DASHED
100
AcDbCircle
 10
-222.396636
 20
166.094652
 30
0.0
 40
1.0
100
AcDbArc
 50
215.279384
 51
240.018361
  0
LINE
  5
14A
100
AcDbEntity
  8
1
100
AcDbLine
 10
38.528364
 20
-212.182912
 30
0.0
 11
38.528364
 21
-134.082912
 31
0.0
  0
LINE
  5
14B
100
AcDbEntity
  8
1
100
AcDbLine
 10
83.778364
 20
-212.182912
 30
0.0
 11
83.778364
 21
-134.082912
 31
0.0
  0
LINE
  5
14C
100
AcDbEntity
  8
1
100
AcDbLine
 10
83.778364
 20
-134.082912
 30
0.0
 11
82.941986
 21
-132.633189
 31
0.0
  0
LINE
  5
14D
100
AcDbEntity
  8
1
100
AcDbLine
 10
38.528364
 20
-134.082912
 30
0.0
 11
39.364743
 21
-132.633189
 31
0.0
  0
ARC
  5
14E
100
AcDbEntity
  8
1
100
AcDbCircle
 10
82.075801
 20
-133.132912
 30
0.0
 40
1.0
100
AcDbArc
 50
29.981639
 51
54.720616
  0
ARC
  5
14F
100
AcDbEntity
  8
1
100
AcDbCircle
 10
40.230928
 20
-133.132912
 30
0.0
 40
1.0
100
AcDbArc
 50
125.279384
 51
150.018361
  0
LINE
  5
150
100
AcDbEntity
  8
1
100
AcDbLine
 10
83.778364
 20
-212.182912
 30
0.0
 11
82.941986
 21
-213.632634
 31
0.0
  0
LINE
  5
151
100
AcDbEntity
  8
1
100
AcDbLine
 10
38.528364
 20
-212.182912
 30
0.0
 11
39.364743
 21
-213.632634
 31
0.0
  0
ARC
  5
152
100
AcDbEntity
  8
1
100
AcDbCircle
 10
82.075801
 20
-213.132912
 30
0.0
 40
1.0
100
AcDbArc
 50
305.279384
 51
330.018361
  0
ARC
  5
153
100
AcDbEntity
  8
1
100
AcDbCircle
 10
40.230928
 20
-213.132912
 30
0.0
 40
1.0
100
AcDbArc
 50
209.981639
 51
234.720616
  0
CIRCLE
  5
154
100
AcDbEntity
  8
1
100
AcDbCircle
 10
-182.396636
 20
-173.132912
 30
0.0
 40
28.0
  0
CIRCLE
  5
155
100
AcDbEntity
  8
1
100
AcDbCircle
 10
-182.396636
 20
-173.132912
 30
0.0
 40
32.0
  0
CIRCLE
  5
156
100
AcDbEntity
  8
1
100
AcDbCircle
 10
-182.396636
 20
-173.132912
 30
0.0
 40
39.05
  0
CIRCLE
  5
157
100
AcDbEntity
  8
1
100
AcDbCircle
 10
-182.396636
 20
-173.132912
 30
0.0
 40
41.0
  0
ARC
  5
158
100
AcDbEntity
  8
1
100
AcDbCircle
 10
-157.396636
 20
-124.143117
 30
0.0
 40
10.0
100
AcDbArc
 50
180.0
 51
242.964308
  0
ARC
  5
159
100
AcDbEntity
  8
1
100
AcDbCircle
 10
-207.396636
 20
-124.143117
 30
0.0
 40
10.0
100
AcDbArc
 50
297.035692
 51
360.0
  0
ARC
  5
15A
100
AcDbEntity
  8
1
100
AcDbCircle
 10
81.153364
 20
-128.050352
 30
0.0
 40
5.0
100
AcDbArc
 50
180.0
 51
270.0
  0
ARC
  5
15B
100
AcDbEntity
  8
1
100
AcDbCircle
 10
41.153364
 20
-128.050352
 30
0.0
 40
5.0
100
AcDbArc
 50
270.0
 51
360.0
  0
ARC
  5
15C
100
AcDbEntity
  8
1
100
AcDbCircle
 10
67.153364
 20
-209.132912
 30
0.0
 40
4.0
100
AcDbArc
 50
0.0
 51
90.0
  0
ARC
  5
15D
100
AcDbEntity
  8
1
100
AcDbCircle
 10
55.153364
 20
-209.132912
 30
0.0
 40
4.0
100
AcDbArc
 50
90.0
 51
180.0
  0
ARC
  5
15E
100
AcDbEntity
  8
1
100
AcDbCircle
 10
74.153364
 20
-209.609994
 30
0.0
 40
3.0
100
AcDbArc
 50
180.0
 51
270.0
  0
ARC
  5
15F
100
AcDbEntity
  8
1
100
AcDbCircle
 10
48.153364
 20
-209.609994
 30
0.0
 40
3.0
100
AcDbArc
 50
270.0
 51
360.0
  0
ARC
  5
160
100
AcDbEntity
  8
1
100
AcDbCircle
 10
67.153364
 20
-208.132912
 30
0.0
 40
3.0
100
AcDbArc
 50
90.0
 51
180.0
  0
ARC
  5
161
100
AcDbEntity
  8
1
100
AcDbCircle
 10
55.153364
 20
-208.132912
 30
0.0
 40
3.0
100
AcDbArc
 50
0.0
 51
90.0
  0
LINE
  5
162
100
AcDbEntity
  8
1
100
AcDbLine
 10
69.545864
 20
-208.525412
 30
0.0
 11
69.545864
 21
-207.525412
 31
0.0
  0
LINE
  5
163
100
AcDbEntity
  8
1
100
AcDbLine
 10
52.760864
 20
-208.525412
 30
0.0
 11
52.760864
 21
-207.525412
 31
0.0
  0
ARC
  5
164
100
AcDbEntity
  8
1
100
AcDbCircle
 10
67.153364
 20
-207.525412
 30
0.0
 40
2.3925
100
AcDbArc
 50
0.0
 51
90.0
  0
ARC
  5
165
100
AcDbEntity
  8
1
100
AcDbCircle
 10
55.153364
 20
-207.525412
 30
0.0
 40
2.3925
100
AcDbArc
 50
90.0
 51
180.0
  0
ARC
  5
166
100
AcDbEntity
  8
1
100
AcDbCircle
 10
74.153364
 20
-127.143117
 30
0.0
 40
3.0
100
AcDbArc
 50
90.0
 51
180.0
  0
ARC
  5
167
100
AcDbEntity
  8
1
100
AcDbCircle
 10
48.153364
 20
-127.143117
 30
0.0
 40
3.0
100
AcDbArc
 50
360.0
 51
90.0
  0
LINE
  5
168
100
AcDbEntity
  8
1
100
AcDbLine
 10
46.153364
 20
-133.050352
 30
0.0
 11
48.153364
 21
-133.050352
 31
0.0
  0
LINE
  5
169
100
AcDbEntity
  8
1
100
AcDbLine
 10
74.153364
 20
-133.050352
 30
0.0
 11
76.153364
 21
-133.050352
 31
0.0
  0
ARC
  5
16A
100
AcDbEntity
  8
1
100
AcDbCircle
 10
67.153364
 20
-138.132912
 30
0.0
 40
3.0
100
AcDbArc
 50
180.0
 51
270.0
  0
ARC
  5
16B
100
AcDbEntity
  8
1
100
AcDbCircle
 10
55.153364
 20
-138.132912
 30
0.0
 40
3.0
100
AcDbArc
 50
270.0
 51
360.0
  0
ARC
  5
16C
100
AcDbEntity
  8
1
100
AcDbCircle
 10
67.153364
 20
-137.132912
 30
0.0
 40
4.0
100
AcDbArc
 50
270.0
 51
360.0
  0
ARC
  5
16D
100
AcDbEntity
  8
1
100
AcDbCircle
 10
55.153364
 20
-137.132912
 30
0.0
 40
4.0
100
AcDbArc
 50
180.0
 51
270.0
  0
LINE
  5
16E
100
AcDbEntity
  8
1
100
AcDbLine
 10
69.545864
 20
-138.632912
 30
0.0
 11
69.545864
 21
-138.740412
 31
0.0
  0
LINE
  5
16F
100
AcDbEntity
  8
1
100
AcDbLine
 10
52.760864
 20
-138.632912
 30
0.0
 11
52.760864
 21
-138.740412
 31
0.0
  0
ARC
  5
170
100
AcDbEntity
  8
1
100
AcDbCircle
 10
74.153364
 20
-136.050352
 30
0.0
 40
3.0
100
AcDbArc
 50
90.0
 51
180.0
  0
ARC
  5
171
100
AcDbEntity
  8
1
100
AcDbCircle
 10
48.153364
 20
-136.050352
 30
0.0
 40
3.0
100
AcDbArc
 50
360.0
 51
90.0
  0
ARC
  5
172
100
AcDbEntity
  8
1
100
AcDbCircle
 10
67.153364
 20
-138.740412
 30
0.0
 40
2.3925
100
AcDbArc
 50
270.0
 51
360.0
  0
ARC
  5
173
100
AcDbEntity
  8
1
100
AcDbCircle
 10
55.153364
 20
-138.740412
 30
0.0
 40
2.3925
100
AcDbArc
 50
180.0
 51
270.0
  0
LINE
  5
174
100
AcDbEntity
  8
1
100
AcDbLine
 10
71.189771
 20
-126.677165
 30
0.0
 11
69.545864
 21
-137.132912
 31
0.0
  0
LINE
  5
175
100
AcDbEntity
  8
1
100
AcDbLine
 10
51.116958
 20
-126.677165
 30
0.0
 11
52.760864
 21
-137.132912
 31
0.0
  0
ARC
  5
176
100
AcDbEntity
  8
1
100
AcDbCircle
 10
68.045864
 20
-138.632912
 30
0.0
 40
1.5
100
AcDbArc
 50
0.0
 51
90.0
  0
ARC
  5
177
100
AcDbEntity
  8
1
100
AcDbCircle
 10
54.260864
 20
-138.632912
 30
0.0
 40
1.5
100
AcDbArc
 50
90.0
 51
180.0
  0
LINE
  5
178
100
AcDbEntity
  8
1
  6
DASHED
100
AcDbLine
 10
-147.396636
 20
208.517088
 30
0.0
 11
-138.396636
 21
208.517088
 31
0.0
  0
LINE
  5
179
100
AcDbEntity
  8
1
  6
DASHED
100
AcDbLine
 10
-147.396636
 20
207.517088
 30
0.0
 11
-137.396636
 21
207.517088
 31
0.0
  0
LINE
  5
17A
100
AcDbEntity
  8
1
  6
DASHED
100
AcDbLine
 10
-137.396636
 20
200.086396
 30
0.0
 11
-137.396636
 21
207.517088
 31
0.0
  0
LINE
  5
17B
100
AcDbEntity
  8
1
  6
DASHED
100
AcDbLine
 10
-137.396636
 20
173.94778
 30
0.0
 11
-137.396636
 21
166.517088
 31
0.0
  0
LINE
  5
17C
100
AcDbEntity
  8
1
  6
DASHED
100
AcDbLine
 10
-147.396636
 20
166.517088
 30
0.0
 11
-137.396636
 21
166.517088
 31
0.0
  0
LINE
  5
17D
100
AcDbEntity
  8
1
  6
DASHED
100
AcDbLine
 10
-147.396636
 20
165.517088
 30
0.0
 11
-138.396636
 21
165.517088
 31
0.0
  0
LINE
  5
17E
100
AcDbEntity
  8
1
  6
DASHED
100
AcDbLine
 10
-217.396636
 20
208.517088
 30
0.0
 11
-226.396636
 21
208.517088
 31
0.0
  0
LINE
  5
17F
100
AcDbEntity
  8
1
  6
DASHED
100
AcDbLine
 10
-217.396636
 20
207.517088
 30
0.0
 11
-227.396636
 21
207.517088
 31
0.0
  0
LINE
  5
180
100
AcDbEntity
  8
1
  6
DASHED
100
AcDbLine
 10
-227.396636
 20
200.086396
 30
0.0
 11
-227.396636
 21
207.517088
 31
0.0
  0
LINE
  5
181
100
AcDbEntity
  8
1
  6
DASHED
100
AcDbLine
 10
-227.396636
 20
173.94778
 30
0.0
 11
-227.396636
 21
166.517088
 31
0.0
  0
LINE
  5
182
100
AcDbEntity
  8
1
  6
DASHED
100
AcDbLine
 10
-217.396636
 20
166.517088
 30
0.0
 11
-227.396636
 21
166.517088
 31
0.0
  0
LINE
  5
183
100
AcDbEntity
  8
1
  6
DASHED
100
AcDbLine
 10
-217.396636
 20
165.517088
 30
0.0
 11
-226.396636
 21
165.517088
 31
0.0
  0
LINE
  5
184
100
AcDbEntity
  8
1
  6
CENTER
 62
     2
100
AcDbLine
 10
-182.396636
 20
109.335266
 30
0.0
 11
-182.396636
 21
-251.962193
 31
0.0
  0
LINE
  5
185
100
AcDbEntity
  8
1
  6
CENTER
 62
     2
100
AcDbLine
 10
61.153364
 20
109.335266
 30
0.0
 11
61.153364
 21
-251.962193
 31
0.0
  0
LINE
  5
186
100
AcDbEntity
  8
1
100
AcDbLine
 10
-184.360737
 20
-168.033631
 30
0.0
 11
-184.360737
 21
-183.208695
 31
0.0
  0
LINE
  5
187
100
AcDbEntity
  8
1
100
AcDbLine
 10
-183.360737
 20
-168.134435
 30
0.0
 11
-183.360737
 21
-183.131389
 31
0.0
  0
LINE
  5
188
100
AcDbEntity
  8
1
100
AcDbLine
 10
-181.432534
 20
-168.268413
 30
0.0
 11
-181.432534
 21
-182.997411
 31
0.0
  0
LINE
  5
189
100
AcDbEntity
  8
1
100
AcDbLine
 10
-180.432534
 20
-168.400584
 30
0.0
 11
-180.432534
 21
-182.865241
 31
0.0
  0
LINE
  5
18A
100
AcDbEntity
  8
1
100
AcDbLine
 10
-191.795006
 20
-152.478211
 30
0.0
 11
-172.998266
 21
-152.478211
 31
0.0
  0
LINE
  5
18B
100
AcDbEntity
  8
1
100
AcDbLine
 10
-191.874904
 20
-155.210262
 30
0.0
 11
-191.874904
 21
-162.798361
 31
0.0
  0
LINE
  5
18C
100
AcDbEntity
  8
1
100
AcDbLine
 10
-192.297233
 20
-154.393992
 30
0.0
 11
-194.320315
 21
-154.06783
 31
0.0
  0
LINE
  5
18D
100
AcDbEntity
  8
1
100
AcDbLine
 10
-194.320315
 20
-154.06783
 30
0.0
 11
-195.222114
 21
-153.990987
 31
0.0
  0
LINE
  5
18E
100
AcDbEntity
  8
1
100
AcDbLine
 10
-195.222114
 20
-153.990987
 30
0.0
 11
-196.210162
 21
-153.975994
 31
0.0
  0
LINE
  5
18F
100
AcDbEntity
  8
1
100
AcDbLine
 10
-196.210162
 20
-153.975994
 30
0.0
 11
-197.202238
 21
-154.029821
 31
0.0
  0
LINE
  5
190
100
AcDbEntity
  8
1
100
AcDbLine
 10
-197.202238
 20
-154.029821
 30
0.0
 11
-198.515118
 21
-154.206655
 31
0.0
  0
LINE
  5
191
100
AcDbEntity
  8
1
100
AcDbLine
 10
-198.515118
 20
-154.206655
 30
0.0
 11
-198.534952
 21
-154.210262
 31
0.0
  0
LINE
  5
192
100
AcDbEntity
  8
1
100
AcDbLine
 10
-198.534952
 20
-154.210262
 30
0.0
 11
-198.520168
 21
-154.200153
 31
0.0
  0
LINE
  5
193
100
AcDbEntity
  8
1
100
AcDbLine
 10
-198.520168
 20
-154.200153
 30
0.0
 11
-197.426977
 21
-153.52932
 31
0.0
  0
LINE
  5
194
100
AcDbEntity
  8
1
100
AcDbLine
 10
-197.426977
 20
-153.52932
 30
0.0
 11
-196.546141
 21
-153.097555
 31
0.0
  0
LINE
  5
195
100
AcDbEntity
  8
1
100
AcDbLine
 10
-196.546141
 20
-153.097555
 30
0.0
 11
-195.654933
 21
-152.762496
 31
0.0
  0
LINE
  5
196
100
AcDbEntity
  8
1
100
AcDbLine
 10
-195.654933
 20
-152.762496
 30
0.0
 11
-194.816841
 21
-152.554197
 31
0.0
  0
LINE
  5
197
100
AcDbEntity
  8
1
100
AcDbLine
 10
-194.816841
 20
-152.554197
 30
0.0
 11
-194.013891
 21
-152.478211
 31
0.0
  0
LINE
  5
198
100
AcDbEntity
  8
1
100
AcDbLine
 10
-194.013891
 20
-152.478211
 30
0.0
 11
-191.795006
 21
-152.478211
 31
0.0
  0
LINE
  5
199
100
AcDbEntity
  8
1
100
AcDbLine
 10
-173.978001
 20
-161.002114
 30
0.0
 11
-173.978001
 21
-155.210262
 31
0.0
  0
LINE
  5
19A
100
AcDbEntity
  8
1
100
AcDbLine
 10
-174.587234
 20
-161.051218
 30
0.0
 11
-174.587234
 21
-155.210262
 31
0.0
  0
LINE
  5
19B
100
AcDbEntity
  8
1
100
AcDbLine
 10
-186.689529
 20
-162.462626
 30
0.0
 11
-186.689529
 21
-155.210262
 31
0.0
  0
LINE
  5
19C
100
AcDbEntity
  8
1
100
AcDbLine
 10
-170.878185
 20
-166.004021
 30
0.0
 11
-160.789033
 21
-166.895382
 31
0.0
  0
LINE
  5
19D
100
AcDbEntity
  8
1
100
AcDbLine
 10
-176.82198
 20
-168.134465
 30
0.0
 11
-159.018308
 21
-169.399979
 31
0.0
  0
LINE
  5
19E
100
AcDbEntity
  8
1
100
AcDbLine
 10
-160.609215
 20
-169.015375
 30
0.0
 11
-180.505991
 21
-167.257525
 31
0.0
  0
LINE
  5
19F
100
AcDbEntity
  8
1
100
AcDbLine
 10
-183.326386
 20
-167.64005
 30
0.0
 11
-183.360737
 21
-168.134435
 31
0.0
  0
LINE
  5
1A0
100
AcDbEntity
  8
1
100
AcDbLine
 10
-181.398182
 20
-167.774029
 30
0.0
 11
-181.432534
 21
-168.268413
 31
0.0
  0
LINE
  5
1A1
100
AcDbEntity
  8
1
100
AcDbLine
 10
-176.822972
 20
-168.143744
 30
0.0
 11
-176.82198
 21
-168.134465
 31
0.0
  0
LINE
  5
1A2
100
AcDbEntity
  8
1
100
AcDbLine
 10
-159.237658
 20
-166.831991
 30
0.0
 11
-168.945093
 21
-165.837147
 31
0.0
  0
LINE
  5
1A3
100
AcDbEntity
  8
1
100
AcDbLine
 10
-158.492057
 20
-168.805761
 30
0.0
 11
-158.797833
 21
-167.23391
 31
0.0
  0
LINE
  5
1A4
100
AcDbEntity
  8
1
100
AcDbLine
 10
-160.346655
 20
-167.277536
 30
0.0
 11
-160.078832
 21
-168.401408
 31
0.0
  0
LINE
  5
1A5
100
AcDbEntity
  8
1
100
AcDbLine
 10
-166.258319
 20
-154.210262
 30
0.0
 11
-166.278153
 21
-154.206655
 31
0.0
  0
LINE
  5
1A6
100
AcDbEntity
  8
1
100
AcDbLine
 10
-166.273103
 20
-154.200153
 30
0.0
 11
-166.258319
 21
-154.210262
 31
0.0
  0
LINE
  5
1A7
100
AcDbEntity
  8
1
100
AcDbLine
 10
-171.356417
 20
-154.210262
 30
0.0
 11
-173.852663
 21
-154.210262
 31
0.0
  0
LINE
  5
1A8
100
AcDbEntity
  8
1
100
AcDbLine
 10
-172.998266
 20
-152.478211
 30
0.0
 11
-170.77938
 21
-152.478211
 31
0.0
  0
LINE
  5
1A9
100
AcDbEntity
  8
1
100
AcDbLine
 10
-173.852663
 20
-154.210262
 30
0.0
 11
-193.436854
 21
-154.210262
 31
0.0
  0
ARC
  5
1AA
100
AcDbEntity
  8
1
100
AcDbCircle
 10
-187.690903
 20
-155.210262
 30
0.0
 40
1.001374
100
AcDbArc
 50
0.0
 51
93.001862
  0
ARC
  5
1AB
100
AcDbEntity
  8
1
100
AcDbCircle
 10
-192.874904
 20
-155.210262
 30
0.0
 40
1.0
100
AcDbArc
 50
0.0
 51
90.0
  0
ARC
  5
1AC
100
AcDbEntity
  8
1
100
AcDbCircle
 10
-173.587234
 20
-155.210262
 30
0.0
 40
1.0
100
AcDbArc
 50
90.0
 51
180.0
  0
ARC
  5
1AD
100
AcDbEntity
  8
1
100
AcDbCircle
 10
-172.978001
 20
-155.210262
 30
0.0
 40
1.0
100
AcDbArc
 50
90.0
 51
180.0
  0
ARC
  5
1AE
100
AcDbEntity
  8
1
100
AcDbCircle
 10
-168.804829
 20
-167.883827
 30
0.0
 40
13.909601
100
AcDbArc
 50
79.450149
 51
100.570238
  0
ARC
  5
1AF
100
AcDbEntity
  8
1
100
AcDbCircle
 10
-171.885471
 20
-162.136751
 30
0.0
 40
9.721668
100
AcDbArc
 50
54.630473
 51
83.466974
  0
POLYLINE
  5
1B0
100
AcDbEntity
  8
1
100
AcDb2dPolyline
 66
     1
 10
0.0
 20
0.0
 30
0.0
  0
VERTEX
  5
85B
100
AcDbEntity
  8
1
100
AcDbVertex
100
AcDb2dVertex
 10
-174.587234
 20
-161.051218
 30
0.0
  0
VERTEX
  5
85C
100
AcDbEntity
  8
1
100
AcDbVertex
100
AcDb2dVertex
 10
-174.584302
 20
-161.105213
 30
0.0
  0
VERTEX
  5
85D
100
AcDbEntity
  8
1
100
AcDbVertex
100
AcDb2dVertex
 10
-174.581317
 20
-161.159202
 30
0.0
  0
VERTEX
  5
85E
100
AcDbEntity
  8
1
100
AcDbVertex
100
AcDb2dVertex
 10
-174.578226
 20
-161.213179
 30
0.0
  0
VERTEX
  5
85F
100
AcDbEntity
  8
1
100
AcDbVertex
100
AcDb2dVertex
 10
-174.567785
 20
-161.374982
 30
0.0
  0
VERTEX
  5
860
100
AcDbEntity
  8
1
100
AcDbVertex
100
AcDb2dVertex
 10
-174.554476
 20
-161.536468
 30
0.0
  0
VERTEX
  5
861
100
AcDbEntity
  8
1
100
AcDbVertex
100
AcDb2dVertex
 10
-174.549154
 20
-161.590199
 30
0.0
  0
VERTEX
  5
862
100
AcDbEntity
  8
1
100
AcDbVertex
100
AcDb2dVertex
 10
-174.543302
 20
-161.643871
 30
0.0
  0
VERTEX
  5
863
100
AcDbEntity
  8
1
100
AcDbVertex
100
AcDb2dVertex
 10
-174.536865
 20
-161.697479
 30
0.0
  0
VERTEX
  5
864
100
AcDbEntity
  8
1
100
AcDbVertex
100
AcDb2dVertex
 10
-174.529815
 20
-161.75092
 30
0.0
  0
VERTEX
  5
865
100
AcDbEntity
  8
1
100
AcDbVertex
100
AcDb2dVertex
 10
-174.522144
 20
-161.804288
 30
0.0
  0
VERTEX
  5
866
100
AcDbEntity
  8
1
100
AcDbVertex
100
AcDb2dVertex
 10
-174.513868
 20
-161.857576
 30
0.0
  0
VERTEX
  5
867
100
AcDbEntity
  8
1
100
AcDbVertex
100
AcDb2dVertex
 10
-174.485554
 20
-162.016921
 30
0.0
  0
VERTEX
  5
868
100
AcDbEntity
  8
1
100
AcDbVertex
100
AcDb2dVertex
 10
-174.452319
 20
-162.175395
 30
0.0
  0
VERTEX
  5
869
100
AcDbEntity
  8
1
100
AcDbVertex
100
AcDb2dVertex
 10
-174.440216
 20
-162.228005
 30
0.0
  0
VERTEX
  5
86A
100
AcDbEntity
  8
1
100
AcDbVertex
100
AcDb2dVertex
 10
-174.427625
 20
-162.280501
 30
0.0
  0
VERTEX
  5
86B
100
AcDbEntity
  8
1
100
AcDbVertex
100
AcDb2dVertex
 10
-174.414561
 20
-162.332878
 30
0.0
  0
VERTEX
  5
86C
100
AcDbEntity
  8
1
100
AcDbVertex
100
AcDb2dVertex
 10
-174.401116
 20
-162.384822
 30
0.0
  0
VERTEX
  5
86D
100
AcDbEntity
  8
1
100
AcDbVertex
100
AcDb2dVertex
 10
-174.387216
 20
-162.43664
 30
0.0
  0
VERTEX
  5
86E
100
AcDbEntity
  8
1
100
AcDbVertex
100
AcDb2dVertex
 10
-174.372855
 20
-162.488326
 30
0.0
  0
VERTEX
  5
86F
100
AcDbEntity
  8
1
100
AcDbVertex
100
AcDb2dVertex
 10
-174.326983
 20
-162.642541
 30
0.0
  0
VERTEX
  5
870
100
AcDbEntity
  8
1
100
AcDbVertex
100
AcDb2dVertex
 10
-174.276854
 20
-162.795389
 30
0.0
  0
VERTEX
  5
871
100
AcDbEntity
  8
1
100
AcDbVertex
100
AcDb2dVertex
 10
-174.259182
 20
-162.846011
 30
0.0
  0
VERTEX
  5
872
100
AcDbEntity
  8
1
100
AcDbVertex
100
AcDb2dVertex
 10
-174.241025
 20
-162.896461
 30
0.0
  0
VERTEX
  5
873
100
AcDbEntity
  8
1
100
AcDbVertex
100
AcDb2dVertex
 10
-174.222378
 20
-162.946735
 30
0.0
  0
VERTEX
  5
874
100
AcDbEntity
  8
1
100
AcDbVertex
100
AcDb2dVertex
 10
-174.203427
 20
-162.996338
 30
0.0
  0
VERTEX
  5
875
100
AcDbEntity
  8
1
100
AcDbVertex
100
AcDb2dVertex
 10
-174.183996
 20
-163.045757
 30
0.0
  0
VERTEX
  5
876
100
AcDbEntity
  8
1
100
AcDbVertex
100
AcDb2dVertex
 10
-174.164084
 20
-163.094988
 30
0.0
  0
VERTEX
  5
877
100
AcDbEntity
  8
1
100
AcDbVertex
100
AcDb2dVertex
 10
-174.101484
 20
-163.241498
 30
0.0
  0
VERTEX
  5
878
100
AcDbEntity
  8
1
100
AcDbVertex
100
AcDb2dVertex
 10
-174.034624
 20
-163.386125
 30
0.0
  0
VERTEX
  5
879
100
AcDbEntity
  8
1
100
AcDbVertex
100
AcDb2dVertex
 10
-174.011398
 20
-163.433892
 30
0.0
  0
VERTEX
  5
87A
100
AcDbEntity
  8
1
100
AcDbVertex
100
AcDb2dVertex
 10
-173.987705
 20
-163.481429
 30
0.0
  0
VERTEX
  5
87B
100
AcDbEntity
  8
1
100
AcDbVertex
100
AcDb2dVertex
 10
-173.963547
 20
-163.528731
 30
0.0
  0
VERTEX
  5
87C
100
AcDbEntity
  8
1
100
AcDbVertex
100
AcDb2dVertex
 10
-173.931053
 20
-163.590604
 30
0.0
  0
VERTEX
  5
87D
100
AcDbEntity
  8
1
100
AcDbVertex
100
AcDb2dVertex
 10
-173.897759
 20
-163.652048
 30
0.0
  0
VERTEX
  5
87E
100
AcDbEntity
  8
1
100
AcDbVertex
100
AcDb2dVertex
 10
-173.863665
 20
-163.713052
 30
0.0
  0
VERTEX
  5
87F
100
AcDbEntity
  8
1
100
AcDbVertex
100
AcDb2dVertex
 10
-173.756607
 20
-163.893286
 30
0.0
  0
VERTEX
  5
880
100
AcDbEntity
  8
1
100
AcDbVertex
100
AcDb2dVertex
 10
-173.719334
 20
-163.952396
 30
0.0
  0
VERTEX
  5
881
100
AcDbEntity
  8
1
100
AcDbVertex
100
AcDb2dVertex
 10
-173.68127
 20
-164.011
 30
0.0
  0
VERTEX
  5
882
100
AcDbEntity
  8
1
100
AcDbVertex
100
AcDb2dVertex
 10
-173.642418
 20
-164.069086
 30
0.0
  0
VERTEX
  5
883
100
AcDbEntity
  8
1
100
AcDbVertex
100
AcDb2dVertex
 10
-173.603414
 20
-164.125729
 30
0.0
  0
VERTEX
  5
884
100
AcDbEntity
  8
1
100
AcDbVertex
100
AcDb2dVertex
 10
-173.563652
 20
-164.181844
 30
0.0
  0
VERTEX
  5
885
100
AcDbEntity
  8
1
100
AcDbVertex
100
AcDb2dVertex
 10
-173.523135
 20
-164.237417
 30
0.0
  0
VERTEX
  5
886
100
AcDbEntity
  8
1
100
AcDbVertex
100
AcDb2dVertex
 10
-173.397092
 20
-164.40075
 30
0.0
  0
VERTEX
  5
887
100
AcDbEntity
  8
1
100
AcDbVertex
100
AcDb2dVertex
 10
-173.353593
 20
-164.45402
 30
0.0
  0
VERTEX
  5
888
100
AcDbEntity
  8
1
100
AcDbVertex
100
AcDb2dVertex
 10
-173.309357
 20
-164.50668
 30
0.0
  0
VERTEX
  5
889
100
AcDbEntity
  8
1
100
AcDbVertex
100
AcDb2dVertex
 10
-173.264389
 20
-164.558716
 30
0.0
  0
VERTEX
  5
88A
100
AcDbEntity
  8
1
100
AcDbVertex
100
AcDb2dVertex
 10
-173.21951
 20
-164.609206
 30
0.0
  0
VERTEX
  5
88B
100
AcDbEntity
  8
1
100
AcDbVertex
100
AcDb2dVertex
 10
-173.173934
 20
-164.659069
 30
0.0
  0
VERTEX
  5
88C
100
AcDbEntity
  8
1
100
AcDbVertex
100
AcDb2dVertex
 10
-173.127666
 20
-164.70829
 30
0.0
  0
VERTEX
  5
88D
100
AcDbEntity
  8
1
100
AcDbVertex
100
AcDb2dVertex
 10
-172.984759
 20
-164.85197
 30
0.0
  0
VERTEX
  5
88E
100
AcDbEntity
  8
1
100
AcDbVertex
100
AcDb2dVertex
 10
-172.935774
 20
-164.89849
 30
0.0
  0
VERTEX
  5
88F
100
AcDbEntity
  8
1
100
AcDbVertex
100
AcDb2dVertex
 10
-172.886124
 20
-164.944302
 30
0.0
  0
VERTEX
  5
890
100
AcDbEntity
  8
1
100
AcDbVertex
100
AcDb2dVertex
 10
-172.835813
 20
-164.989392
 30
0.0
  0
VERTEX
  5
891
100
AcDbEntity
  8
1
100
AcDbVertex
100
AcDb2dVertex
 10
-172.785801
 20
-165.032927
 30
0.0
  0
VERTEX
  5
892
100
AcDbEntity
  8
1
100
AcDbVertex
100
AcDb2dVertex
 10
-172.735165
 20
-165.075739
 30
0.0
  0
VERTEX
  5
893
100
AcDbEntity
  8
1
100
AcDbVertex
100
AcDb2dVertex
 10
-172.683914
 20
-165.117812
 30
0.0
  0
VERTEX
  5
894
100
AcDbEntity
  8
1
100
AcDbVertex
100
AcDb2dVertex
 10
-172.52654
 20
-165.239444
 30
0.0
  0
VERTEX
  5
895
100
AcDbEntity
  8
1
100
AcDbVertex
100
AcDb2dVertex
 10
-172.472901
 20
-165.278408
 30
0.0
  0
VERTEX
  5
896
100
AcDbEntity
  8
1
100
AcDbVertex
100
AcDb2dVertex
 10
-172.418683
 20
-165.316557
 30
0.0
  0
VERTEX
  5
897
100
AcDbEntity
  8
1
100
AcDbVertex
100
AcDb2dVertex
 10
-172.363895
 20
-165.353875
 30
0.0
  0
VERTEX
  5
898
100
AcDbEntity
  8
1
100
AcDbVertex
100
AcDb2dVertex
 10
-172.282185
 20
-165.407293
 30
0.0
  0
VERTEX
  5
899
100
AcDbEntity
  8
1
100
AcDbVertex
100
AcDb2dVertex
 10
-172.199289
 20
-165.458853
 30
0.0
  0
VERTEX
  5
89A
100
AcDbEntity
  8
1
100
AcDbVertex
100
AcDb2dVertex
 10
-172.115243
 20
-165.508531
 30
0.0
  0
VERTEX
  5
89B
100
AcDbEntity
  8
1
100
AcDbVertex
100
AcDb2dVertex
 10
-172.030084
 20
-165.556303
 30
0.0
  0
VERTEX
  5
89C
100
AcDbEntity
  8
1
100
AcDbVertex
100
AcDb2dVertex
 10
-171.943845
 20
-165.602147
 30
0.0
  0
VERTEX
  5
89D
100
AcDbEntity
  8
1
100
AcDbVertex
100
AcDb2dVertex
 10
-171.856565
 20
-165.646039
 30
0.0
  0
VERTEX
  5
89E
100
AcDbEntity
  8
1
100
AcDbVertex
100
AcDb2dVertex
 10
-171.769735
 20
-165.687268
 30
0.0
  0
VERTEX
  5
89F
100
AcDbEntity
  8
1
100
AcDbVertex
100
AcDb2dVertex
 10
-171.681971
 20
-165.726479
 30
0.0
  0
VERTEX
  5
8A0
100
AcDbEntity
  8
1
100
AcDbVertex
100
AcDb2dVertex
 10
-171.593311
 20
-165.763563
 30
0.0
  0
VERTEX
  5
8A1
100
AcDbEntity
  8
1
100
AcDbVertex
100
AcDb2dVertex
 10
-171.503795
 20
-165.798412
 30
0.0
  0
VERTEX
  5
8A2
100
AcDbEntity
  8
1
100
AcDbVertex
100
AcDb2dVertex
 10
-171.413462
 20
-165.830918
 30
0.0
  0
VERTEX
  5
8A3
100
AcDbEntity
  8
1
100
AcDbVertex
100
AcDb2dVertex
 10
-171.322351
 20
-165.860973
 30
0.0
  0
VERTEX
  5
8A4
100
AcDbEntity
  8
1
100
AcDbVertex
100
AcDb2dVertex
 10
-171.212009
 20
-165.893801
 30
0.0
  0
VERTEX
  5
8A5
100
AcDbEntity
  8
1
100
AcDbVertex
100
AcDb2dVertex
 10
-171.10078
 20
-165.923555
 30
0.0
  0
VERTEX
  5
8A6
100
AcDbEntity
  8
1
100
AcDbVertex
100
AcDb2dVertex
 10
-170.988842
 20
-165.950851
 30
0.0
  0
VERTEX
  5
8A7
100
AcDbEntity
  8
1
100
AcDbVertex
100
AcDb2dVertex
 10
-170.876371
 20
-165.976303
 30
0.0
  0
VERTEX
  5
8A8
100
AcDbEntity
  8
1
100
AcDbVertex
100
AcDb2dVertex
 10
-170.763545
 20
-166.000525
 30
0.0
  0
VERTEX
  5
8A9
100
AcDbEntity
  8
1
100
AcDbVertex
100
AcDb2dVertex
 10
-170.650542
 20
-166.024133
 30
0.0
  0
SEQEND
  5
8AA
100
AcDbEntity
  8
1
  0
POLYLINE
  5
201
100
AcDbEntity
  8
1
100
AcDb2dPolyline
 66
     1
 10
0.0
 20
0.0
 30
0.0
  0
VERTEX
  5
8AB
100
AcDbEntity
  8
1
100
AcDbVertex
100
AcDb2dVertex
 10
-173.978001
 20
-161.002114
 30
0.0
  0
VERTEX
  5
8AC
100
AcDbEntity
  8
1
100
AcDbVertex
100
AcDb2dVertex
 10
-173.969223
 20
-161.041281
 30
0.0
  0
VERTEX
  5
8AD
100
AcDbEntity
  8
1
100
AcDbVertex
100
AcDb2dVertex
 10
-173.960394
 20
-161.080436
 30
0.0
  0
VERTEX
  5
8AE
100
AcDbEntity
  8
1
100
AcDbVertex
100
AcDb2dVertex
 10
-173.951461
 20
-161.119568
 30
0.0
  0
VERTEX
  5
8AF
100
AcDbEntity
  8
1
100
AcDbVertex
100
AcDb2dVertex
 10
-173.942372
 20
-161.158663
 30
0.0
  0
VERTEX
  5
8B0
100
AcDbEntity
  8
1
100
AcDbVertex
100
AcDb2dVertex
 10
-173.933075
 20
-161.197712
 30
0.0
  0
VERTEX
  5
8B1
100
AcDbEntity
  8
1
100
AcDbVertex
100
AcDb2dVertex
 10
-173.916765
 20
-161.263658
 30
0.0
  0
VERTEX
  5
8B2
100
AcDbEntity
  8
1
100
AcDbVertex
100
AcDb2dVertex
 10
-173.899723
 20
-161.329428
 30
0.0
  0
VERTEX
  5
8B3
100
AcDbEntity
  8
1
100
AcDbVertex
100
AcDb2dVertex
 10
-173.881958
 20
-161.395017
 30
0.0
  0
VERTEX
  5
8B4
100
AcDbEntity
  8
1
100
AcDbVertex
100
AcDb2dVertex
 10
-173.824449
 20
-161.590634
 30
0.0
  0
VERTEX
  5
8B5
100
AcDbEntity
  8
1
100
AcDbVertex
100
AcDb2dVertex
 10
-173.760856
 20
-161.784402
 30
0.0
  0
VERTEX
  5
8B6
100
AcDbEntity
  8
1
100
AcDbVertex
100
AcDb2dVertex
 10
-173.73836
 20
-161.848553
 30
0.0
  0
VERTEX
  5
8B7
100
AcDbEntity
  8
1
100
AcDbVertex
100
AcDb2dVertex
 10
-173.715235
 20
-161.912475
 30
0.0
  0
VERTEX
  5
8B8
100
AcDbEntity
  8
1
100
AcDbVertex
100
AcDb2dVertex
 10
-173.691491
 20
-161.976162
 30
0.0
  0
VERTEX
  5
8B9
100
AcDbEntity
  8
1
100
AcDbVertex
100
AcDb2dVertex
 10
-173.668565
 20
-162.035945
 30
0.0
  0
VERTEX
  5
8BA
100
AcDbEntity
  8
1
100
AcDbVertex
100
AcDb2dVertex
 10
-173.645112
 20
-162.095516
 30
0.0
  0
VERTEX
  5
8BB
100
AcDbEntity
  8
1
100
AcDbVertex
100
AcDb2dVertex
 10
-173.621143
 20
-162.154877
 30
0.0
  0
VERTEX
  5
8BC
100
AcDbEntity
  8
1
100
AcDbVertex
100
AcDb2dVertex
 10
-173.546263
 20
-162.331711
 30
0.0
  0
VERTEX
  5
8BD
100
AcDbEntity
  8
1
100
AcDbVertex
100
AcDb2dVertex
 10
-173.467167
 20
-162.506709
 30
0.0
  0
VERTEX
  5
8BE
100
AcDbEntity
  8
1
100
AcDbVertex
100
AcDb2dVertex
 10
-173.439919
 20
-162.564641
 30
0.0
  0
VERTEX
  5
8BF
100
AcDbEntity
  8
1
100
AcDbVertex
100
AcDb2dVertex
 10
-173.412249
 20
-162.622376
 30
0.0
  0
VERTEX
  5
8C0
100
AcDbEntity
  8
1
100
AcDbVertex
100
AcDb2dVertex
 10
-173.38417
 20
-162.679915
 30
0.0
  0
VERTEX
  5
8C1
100
AcDbEntity
  8
1
100
AcDbVertex
100
AcDb2dVertex
 10
-173.355336
 20
-162.737959
 30
0.0
  0
VERTEX
  5
8C2
100
AcDbEntity
  8
1
100
AcDbVertex
100
AcDb2dVertex
 10
-173.326081
 20
-162.795793
 30
0.0
  0
VERTEX
  5
8C3
100
AcDbEntity
  8
1
100
AcDbVertex
100
AcDb2dVertex
 10
-173.296392
 20
-162.853404
 30
0.0
  0
VERTEX
  5
8C4
100
AcDbEntity
  8
1
100
AcDbVertex
100
AcDb2dVertex
 10
-173.204588
 20
-163.024781
 30
0.0
  0
VERTEX
  5
8C5
100
AcDbEntity
  8
1
100
AcDbVertex
100
AcDb2dVertex
 10
-173.108404
 20
-163.193721
 30
0.0
  0
VERTEX
  5
8C6
100
AcDbEntity
  8
1
100
AcDbVertex
100
AcDb2dVertex
 10
-173.075309
 20
-163.249437
 30
0.0
  0
VERTEX
  5
8C7
100
AcDbEntity
  8
1
100
AcDbVertex
100
AcDb2dVertex
 10
-173.041675
 20
-163.304835
 30
0.0
  0
VERTEX
  5
8C8
100
AcDbEntity
  8
1
100
AcDbVertex
100
AcDb2dVertex
 10
-173.007489
 20
-163.359902
 30
0.0
  0
VERTEX
  5
8C9
100
AcDbEntity
  8
1
100
AcDbVertex
100
AcDb2dVertex
 10
-172.977219
 20
-163.407637
 30
0.0
  0
VERTEX
  5
8CA
100
AcDbEntity
  8
1
100
AcDbVertex
100
AcDb2dVertex
 10
-172.946512
 20
-163.455097
 30
0.0
  0
VERTEX
  5
8CB
100
AcDbEntity
  8
1
100
AcDbVertex
100
AcDb2dVertex
 10
-172.915357
 20
-163.502267
 30
0.0
  0
VERTEX
  5
8CC
100
AcDbEntity
  8
1
100
AcDbVertex
100
AcDb2dVertex
 10
-172.819123
 20
-163.641895
 30
0.0
  0
VERTEX
  5
8CD
100
AcDbEntity
  8
1
100
AcDbVertex
100
AcDb2dVertex
 10
-172.718547
 20
-163.77839
 30
0.0
  0
VERTEX
  5
8CE
100
AcDbEntity
  8
1
100
AcDbVertex
100
AcDb2dVertex
 10
-172.684017
 20
-163.823124
 30
0.0
  0
VERTEX
  5
8CF
100
AcDbEntity
  8
1
100
AcDbVertex
100
AcDb2dVertex
 10
-172.648969
 20
-163.867451
 30
0.0
  0
VERTEX
  5
8D0
100
AcDbEntity
  8
1
100
AcDbVertex
100
AcDb2dVertex
 10
-172.613395
 20
-163.911358
 30
0.0
  0
VERTEX
  5
8D1
100
AcDbEntity
  8
1
100
AcDbVertex
100
AcDb2dVertex
 10
-172.564535
 20
-163.969933
 30
0.0
  0
VERTEX
  5
8D2
100
AcDbEntity
  8
1
100
AcDbVertex
100
AcDb2dVertex
 10
-172.514726
 20
-164.027711
 30
0.0
  0
VERTEX
  5
8D3
100
AcDbEntity
  8
1
100
AcDbVertex
100
AcDb2dVertex
 10
-172.463993
 20
-164.084689
 30
0.0
  0
VERTEX
  5
8D4
100
AcDbEntity
  8
1
100
AcDbVertex
100
AcDb2dVertex
 10
-172.306499
 20
-164.250788
 30
0.0
  0
VERTEX
  5
8D5
100
AcDbEntity
  8
1
100
AcDbVertex
100
AcDb2dVertex
 10
-172.25232
 20
-164.304532
 30
0.0
  0
VERTEX
  5
8D6
100
AcDbEntity
  8
1
100
AcDbVertex
100
AcDb2dVertex
 10
-172.197342
 20
-164.357459
 30
0.0
  0
VERTEX
  5
8D7
100
AcDbEntity
  8
1
100
AcDbVertex
100
AcDb2dVertex
 10
-172.141591
 20
-164.409567
 30
0.0
  0
VERTEX
  5
8D8
100
AcDbEntity
  8
1
100
AcDbVertex
100
AcDb2dVertex
 10
-172.084342
 20
-164.461518
 30
0.0
  0
VERTEX
  5
8D9
100
AcDbEntity
  8
1
100
AcDbVertex
100
AcDb2dVertex
 10
-172.026339
 20
-164.512616
 30
0.0
  0
VERTEX
  5
8DA
100
AcDbEntity
  8
1
100
AcDbVertex
100
AcDb2dVertex
 10
-171.967595
 20
-164.562855
 30
0.0
  0
VERTEX
  5
8DB
100
AcDbEntity
  8
1
100
AcDbVertex
100
AcDb2dVertex
 10
-171.787055
 20
-164.708334
 30
0.0
  0
VERTEX
  5
8DC
100
AcDbEntity
  8
1
100
AcDbVertex
100
AcDb2dVertex
 10
-171.725485
 20
-164.755057
 30
0.0
  0
VERTEX
  5
8DD
100
AcDbEntity
  8
1
100
AcDbVertex
100
AcDb2dVertex
 10
-171.663241
 20
-164.800882
 30
0.0
  0
VERTEX
  5
8DE
100
AcDbEntity
  8
1
100
AcDbVertex
100
AcDb2dVertex
 10
-171.60034
 20
-164.845802
 30
0.0
  0
VERTEX
  5
8DF
100
AcDbEntity
  8
1
100
AcDbVertex
100
AcDb2dVertex
 10
-171.535964
 20
-164.890374
 30
0.0
  0
VERTEX
  5
8E0
100
AcDbEntity
  8
1
100
AcDbVertex
100
AcDb2dVertex
 10
-171.470943
 20
-164.934002
 30
0.0
  0
VERTEX
  5
8E1
100
AcDbEntity
  8
1
100
AcDbVertex
100
AcDb2dVertex
 10
-171.405293
 20
-164.976681
 30
0.0
  0
VERTEX
  5
8E2
100
AcDbEntity
  8
1
100
AcDbVertex
100
AcDb2dVertex
 10
-171.204738
 20
-165.098948
 30
0.0
  0
VERTEX
  5
8E3
100
AcDbEntity
  8
1
100
AcDbVertex
100
AcDb2dVertex
 10
-171.136739
 20
-165.13776
 30
0.0
  0
VERTEX
  5
8E4
100
AcDbEntity
  8
1
100
AcDbVertex
100
AcDb2dVertex
 10
-171.068194
 20
-165.175587
 30
0.0
  0
VERTEX
  5
8E5
100
AcDbEntity
  8
1
100
AcDbVertex
100
AcDb2dVertex
 10
-170.999121
 20
-165.212425
 30
0.0
  0
VERTEX
  5
8E6
100
AcDbEntity
  8
1
100
AcDbVertex
100
AcDb2dVertex
 10
-170.9287
 20
-165.24869
 30
0.0
  0
VERTEX
  5
8E7
100
AcDbEntity
  8
1
100
AcDbVertex
100
AcDb2dVertex
 10
-170.857771
 20
-165.283942
 30
0.0
  0
VERTEX
  5
8E8
100
AcDbEntity
  8
1
100
AcDbVertex
100
AcDb2dVertex
 10
-170.786352
 20
-165.318189
 30
0.0
  0
VERTEX
  5
8E9
100
AcDbEntity
  8
1
100
AcDbVertex
100
AcDb2dVertex
 10
-170.569315
 20
-165.41498
 30
0.0
  0
VERTEX
  5
8EA
100
AcDbEntity
  8
1
100
AcDbVertex
100
AcDb2dVertex
 10
-170.496099
 20
-165.445287
 30
0.0
  0
VERTEX
  5
8EB
100
AcDbEntity
  8
1
100
AcDbVertex
100
AcDb2dVertex
 10
-170.422477
 20
-165.474628
 30
0.0
  0
VERTEX
  5
8EC
100
AcDbEntity
  8
1
100
AcDbVertex
100
AcDb2dVertex
 10
-170.348465
 20
-165.503012
 30
0.0
  0
VERTEX
  5
8ED
100
AcDbEntity
  8
1
100
AcDbVertex
100
AcDb2dVertex
 10
-170.27332
 20
-165.530712
 30
0.0
  0
VERTEX
  5
8EE
100
AcDbEntity
  8
1
100
AcDbVertex
100
AcDb2dVertex
 10
-170.197805
 20
-165.557402
 30
0.0
  0
VERTEX
  5
8EF
100
AcDbEntity
  8
1
100
AcDbVertex
100
AcDb2dVertex
 10
-170.121932
 20
-165.58304
 30
0.0
  0
VERTEX
  5
8F0
100
AcDbEntity
  8
1
100
AcDbVertex
100
AcDb2dVertex
 10
-169.892268
 20
-165.653233
 30
0.0
  0
VERTEX
  5
8F1
100
AcDbEntity
  8
1
100
AcDbVertex
100
AcDb2dVertex
 10
-169.815069
 20
-165.674253
 30
0.0
  0
VERTEX
  5
8F2
100
AcDbEntity
  8
1
100
AcDbVertex
100
AcDb2dVertex
 10
-169.737565
 20
-165.694014
 30
0.0
  0
VERTEX
  5
8F3
100
AcDbEntity
  8
1
100
AcDbVertex
100
AcDb2dVertex
 10
-169.659769
 20
-165.712476
 30
0.0
  0
VERTEX
  5
8F4
100
AcDbEntity
  8
1
100
AcDbVertex
100
AcDb2dVertex
 10
-169.541641
 20
-165.737935
 30
0.0
  0
VERTEX
  5
8F5
100
AcDbEntity
  8
1
100
AcDbVertex
100
AcDb2dVertex
 10
-169.422977
 20
-165.760841
 30
0.0
  0
VERTEX
  5
8F6
100
AcDbEntity
  8
1
100
AcDbVertex
100
AcDb2dVertex
 10
-169.303882
 20
-165.781705
 30
0.0
  0
VERTEX
  5
8F7
100
AcDbEntity
  8
1
100
AcDbVertex
100
AcDb2dVertex
 10
-169.184465
 20
-165.801036
 30
0.0
  0
VERTEX
  5
8F8
100
AcDbEntity
  8
1
100
AcDbVertex
100
AcDb2dVertex
 10
-169.064832
 20
-165.819347
 30
0.0
  0
VERTEX
  5
8F9
100
AcDbEntity
  8
1
100
AcDbVertex
100
AcDb2dVertex
 10
-168.945093
 20
-165.837147
 30
0.0
  0
SEQEND
  5
8FA
100
AcDbEntity
  8
1
  0
ARC
  5
252
100
AcDbEntity
  8
1
100
AcDbCircle
 10
-160.833035
 20
-167.393442
 30
0.0
 40
0.5
100
AcDbArc
 50
13.403796
 51
84.951114
  0
ARC
  5
253
100
AcDbEntity
  8
1
100
AcDbCircle
 10
-160.565212
 20
-168.517315
 30
0.0
 40
0.5
100
AcDbArc
 50
264.951114
 51
13.403796
  0
ARC
  5
254
100
AcDbEntity
  8
1
100
AcDbCircle
 10
-158.982857
 20
-168.901237
 30
0.0
 40
0.5
100
AcDbArc
 50
265.934161
 51
11.008403
  0
ARC
  5
255
100
AcDbEntity
  8
1
100
AcDbCircle
 10
-159.288633
 20
-167.329386
 30
0.0
 40
0.5
100
AcDbArc
 50
11.008403
 51
84.148599
  0
LINE
  5
256
100
AcDbEntity
  8
1
100
AcDbLine
 10
-160.430168
 20
-166.927087
 30
0.0
 11
-159.291761
 21
-166.885327
 31
0.0
  0
LINE
  5
257
100
AcDbEntity
  8
1
100
AcDbLine
 10
-160.152589
 20
-169.020488
 30
0.0
 11
-158.978446
 21
-169.300522
 31
0.0
  0
LINE
  5
258
100
AcDbEntity
  8
1
100
AcDbLine
 10
-181.220429
 20
-167.206101
 30
0.0
 11
-180.505991
 21
-167.257525
 31
0.0
  0
POLYLINE
  5
259
100
AcDbEntity
  8
1
100
AcDb2dPolyline
 66
     1
 10
0.0
 20
0.0
 30
0.0
  0
VERTEX
  5
8FB
100
AcDbEntity
  8
1
100
AcDbVertex
100
AcDb2dVertex
 10
-184.365406
 20
-168.024113
 30
0.0
  0
VERTEX
  5
8FC
100
AcDbEntity
  8
1
100
AcDbVertex
100
AcDb2dVertex
 10
-184.365595
 20
-168.020608
 30
0.0
  0
VERTEX
  5
8FD
100
AcDbEntity
  8
1
100
AcDbVertex
100
AcDb2dVertex
 10
-184.365794
 20
-168.017101
 30
0.0
  0
VERTEX
  5
8FE
100
AcDbEntity
  8
1
100
AcDbVertex
100
AcDb2dVertex
 10
-184.366003
 20
-168.013593
 30
0.0
  0
VERTEX
  5
8FF
100
AcDbEntity
  8
1
100
AcDbVertex
100
AcDb2dVertex
 10
-184.366223
 20
-168.010083
 30
0.0
  0
VERTEX
  5
900
100
AcDbEntity
  8
1
100
AcDbVertex
100
AcDb2dVertex
 10
-184.366454
 20
-168.006572
 30
0.0
  0
VERTEX
  5
901
100
AcDbEntity
  8
1
100
AcDbVertex
100
AcDb2dVertex
 10
-184.369359
 20
-167.971803
 30
0.0
  0
VERTEX
  5
902
100
AcDbEntity
  8
1
100
AcDbVertex
100
AcDb2dVertex
 10
-184.373605
 20
-167.937124
 30
0.0
  0
VERTEX
  5
903
100
AcDbEntity
  8
1
100
AcDbVertex
100
AcDb2dVertex
 10
-184.379476
 20
-167.902786
 30
0.0
  0
VERTEX
  5
904
100
AcDbEntity
  8
1
100
AcDbVertex
100
AcDb2dVertex
 10
-184.387254
 20
-167.869039
 30
0.0
  0
VERTEX
  5
905
100
AcDbEntity
  8
1
100
AcDbVertex
100
AcDb2dVertex
 10
-184.397225
 20
-167.836135
 30
0.0
  0
VERTEX
  5
906
100
AcDbEntity
  8
1
100
AcDbVertex
100
AcDb2dVertex
 10
-184.409672
 20
-167.804324
 30
0.0
  0
VERTEX
  5
907
100
AcDbEntity
  8
1
100
AcDbVertex
100
AcDb2dVertex
 10
-184.434737
 20
-167.756374
 30
0.0
  0
VERTEX
  5
908
100
AcDbEntity
  8
1
100
AcDbVertex
100
AcDb2dVertex
 10
-184.46502
 20
-167.710963
 30
0.0
  0
VERTEX
  5
909
100
AcDbEntity
  8
1
100
AcDbVertex
100
AcDb2dVertex
 10
-184.498781
 20
-167.667246
 30
0.0
  0
VERTEX
  5
90A
100
AcDbEntity
  8
1
100
AcDbVertex
100
AcDb2dVertex
 10
-184.534282
 20
-167.624374
 30
0.0
  0
SEQEND
  5
90B
100
AcDbEntity
  8
1
  0
POLYLINE
  5
26B
100
AcDbEntity
  8
1
100
AcDb2dPolyline
 66
     1
 10
0.0
 20
0.0
 30
0.0
  0
VERTEX
  5
90C
100
AcDbEntity
  8
1
100
AcDbVertex
100
AcDb2dVertex
 10
-180.389926
 20
-160.783207
 30
0.0
  0
VERTEX
  5
90D
100
AcDbEntity
  8
1
100
AcDbVertex
100
AcDb2dVertex
 10
-180.324463
 20
-160.855443
 30
0.0
  0
VERTEX
  5
90E
100
AcDbEntity
  8
1
100
AcDbVertex
100
AcDb2dVertex
 10
-180.258852
 20
-160.927513
 30
0.0
  0
VERTEX
  5
90F
100
AcDbEntity
  8
1
100
AcDbVertex
100
AcDb2dVertex
 10
-180.192947
 20
-160.99925
 30
0.0
  0
VERTEX
  5
910
100
AcDbEntity
  8
1
100
AcDbVertex
100
AcDb2dVertex
 10
-179.991979
 20
-161.210799
 30
0.0
  0
VERTEX
  5
911
100
AcDbEntity
  8
1
100
AcDbVertex
100
AcDb2dVertex
 10
-179.923415
 20
-161.279541
 30
0.0
  0
VERTEX
  5
912
100
AcDbEntity
  8
1
100
AcDbVertex
100
AcDb2dVertex
 10
-179.853816
 20
-161.347117
 30
0.0
  0
VERTEX
  5
913
100
AcDbEntity
  8
1
100
AcDbVertex
100
AcDb2dVertex
 10
-179.783036
 20
-161.413361
 30
0.0
  0
VERTEX
  5
914
100
AcDbEntity
  8
1
100
AcDbVertex
100
AcDb2dVertex
 10
-179.687997
 20
-161.498278
 30
0.0
  0
VERTEX
  5
915
100
AcDbEntity
  8
1
100
AcDbVertex
100
AcDb2dVertex
 10
-179.590881
 20
-161.58085
 30
0.0
  0
VERTEX
  5
916
100
AcDbEntity
  8
1
100
AcDbVertex
100
AcDb2dVertex
 10
-179.491909
 20
-161.661323
 30
0.0
  0
VERTEX
  5
917
100
AcDbEntity
  8
1
100
AcDbVertex
100
AcDb2dVertex
 10
-179.186076
 20
-161.892613
 30
0.0
  0
VERTEX
  5
918
100
AcDbEntity
  8
1
100
AcDbVertex
100
AcDb2dVertex
 10
-178.87152
 20
-162.113874
 30
0.0
  0
VERTEX
  5
919
100
AcDbEntity
  8
1
100
AcDbVertex
100
AcDb2dVertex
 10
-178.765764
 20
-162.186547
 30
0.0
  0
VERTEX
  5
91A
100
AcDbEntity
  8
1
100
AcDbVertex
100
AcDb2dVertex
 10
-178.659926
 20
-162.25909
 30
0.0
  0
VERTEX
  5
91B
100
AcDbEntity
  8
1
100
AcDbVertex
100
AcDb2dVertex
 10
-178.554228
 20
-162.331749
 30
0.0
  0
VERTEX
  5
91C
100
AcDbEntity
  8
1
100
AcDbVertex
100
AcDb2dVertex
 10
-178.447745
 20
-162.405526
 30
0.0
  0
VERTEX
  5
91D
100
AcDbEntity
  8
1
100
AcDbVertex
100
AcDb2dVertex
 10
-178.341706
 20
-162.479784
 30
0.0
  0
VERTEX
  5
91E
100
AcDbEntity
  8
1
100
AcDbVertex
100
AcDb2dVertex
 10
-178.236185
 20
-162.55463
 30
0.0
  0
VERTEX
  5
91F
100
AcDbEntity
  8
1
100
AcDbVertex
100
AcDb2dVertex
 10
-177.923479
 20
-162.783808
 30
0.0
  0
VERTEX
  5
920
100
AcDbEntity
  8
1
100
AcDbVertex
100
AcDb2dVertex
 10
-177.618129
 20
-163.022249
 30
0.0
  0
VERTEX
  5
921
100
AcDbEntity
  8
1
100
AcDbVertex
100
AcDb2dVertex
 10
-177.51833
 20
-163.104301
 30
0.0
  0
VERTEX
  5
922
100
AcDbEntity
  8
1
100
AcDbVertex
100
AcDb2dVertex
 10
-177.419646
 20
-163.187822
 30
0.0
  0
VERTEX
  5
923
100
AcDbEntity
  8
1
100
AcDbVertex
100
AcDb2dVertex
 10
-177.322154
 20
-163.272922
 30
0.0
  0
VERTEX
  5
924
100
AcDbEntity
  8
1
100
AcDbVertex
100
AcDb2dVertex
 10
-177.196352
 20
-163.386456
 30
0.0
  0
VERTEX
  5
925
100
AcDbEntity
  8
1
100
AcDbVertex
100
AcDb2dVertex
 10
-177.071512
 20
-163.501202
 30
0.0
  0
VERTEX
  5
926
100
AcDbEntity
  8
1
100
AcDbVertex
100
AcDb2dVertex
 10
-176.946433
 20
-163.615485
 30
0.0
  0
VERTEX
  5
927
100
AcDbEntity
  8
1
100
AcDbVertex
100
AcDb2dVertex
 10
-176.81991
 20
-163.727629
 30
0.0
  0
VERTEX
  5
928
100
AcDbEntity
  8
1
100
AcDbVertex
100
AcDb2dVertex
 10
-176.690741
 20
-163.835959
 30
0.0
  0
VERTEX
  5
929
100
AcDbEntity
  8
1
100
AcDbVertex
100
AcDb2dVertex
 10
-176.557724
 20
-163.938798
 30
0.0
  0
VERTEX
  5
92A
100
AcDbEntity
  8
1
100
AcDbVertex
100
AcDb2dVertex
 10
-176.433912
 20
-164.025638
 30
0.0
  0
VERTEX
  5
92B
100
AcDbEntity
  8
1
100
AcDbVertex
100
AcDb2dVertex
 10
-176.306544
 20
-164.107437
 30
0.0
  0
VERTEX
  5
92C
100
AcDbEntity
  8
1
100
AcDbVertex
100
AcDb2dVertex
 10
-176.17616
 20
-164.184963
 30
0.0
  0
VERTEX
  5
92D
100
AcDbEntity
  8
1
100
AcDbVertex
100
AcDb2dVertex
 10
-175.772301
 20
-164.399579
 30
0.0
  0
VERTEX
  5
92E
100
AcDbEntity
  8
1
100
AcDbVertex
100
AcDb2dVertex
 10
-175.635243
 20
-164.46769
 30
0.0
  0
VERTEX
  5
92F
100
AcDbEntity
  8
1
100
AcDbVertex
100
AcDb2dVertex
 10
-175.497864
 20
-164.535368
 30
0.0
  0
VERTEX
  5
930
100
AcDbEntity
  8
1
100
AcDbVertex
100
AcDb2dVertex
 10
-175.360703
 20
-164.603379
 30
0.0
  0
VERTEX
  5
931
100
AcDbEntity
  8
1
100
AcDbVertex
100
AcDb2dVertex
 10
-175.20211
 20
-164.683539
 30
0.0
  0
VERTEX
  5
932
100
AcDbEntity
  8
1
100
AcDbVertex
100
AcDb2dVertex
 10
-175.044213
 20
-164.764544
 30
0.0
  0
VERTEX
  5
933
100
AcDbEntity
  8
1
100
AcDbVertex
100
AcDb2dVertex
 10
-174.886684
 20
-164.84575
 30
0.0
  0
VERTEX
  5
934
100
AcDbEntity
  8
1
100
AcDbVertex
100
AcDb2dVertex
 10
-174.413036
 20
-165.084145
 30
0.0
  0
VERTEX
  5
935
100
AcDbEntity
  8
1
100
AcDbVertex
100
AcDb2dVertex
 10
-174.253709
 20
-165.159724
 30
0.0
  0
VERTEX
  5
936
100
AcDbEntity
  8
1
100
AcDbVertex
100
AcDb2dVertex
 10
-174.093114
 20
-165.232288
 30
0.0
  0
VERTEX
  5
937
100
AcDbEntity
  8
1
100
AcDbVertex
100
AcDb2dVertex
 10
-173.930924
 20
-165.301194
 30
0.0
  0
VERTEX
  5
938
100
AcDbEntity
  8
1
100
AcDbVertex
100
AcDb2dVertex
 10
-173.789227
 20
-165.35741
 30
0.0
  0
VERTEX
  5
939
100
AcDbEntity
  8
1
100
AcDbVertex
100
AcDb2dVertex
 10
-173.646201
 20
-165.410541
 30
0.0
  0
VERTEX
  5
93A
100
AcDbEntity
  8
1
100
AcDbVertex
100
AcDb2dVertex
 10
-173.501953
 20
-165.460717
 30
0.0
  0
VERTEX
  5
93B
100
AcDbEntity
  8
1
100
AcDbVertex
100
AcDb2dVertex
 10
-173.062946
 20
-165.594803
 30
0.0
  0
VERTEX
  5
93C
100
AcDbEntity
  8
1
100
AcDbVertex
100
AcDb2dVertex
 10
-172.616794
 20
-165.706953
 30
0.0
  0
VERTEX
  5
93D
100
AcDbEntity
  8
1
100
AcDbVertex
100
AcDb2dVertex
 10
-172.466989
 20
-165.740066
 30
0.0
  0
VERTEX
  5
93E
100
AcDbEntity
  8
1
100
AcDbVertex
100
AcDb2dVertex
 10
-172.316818
 20
-165.771259
 30
0.0
  0
VERTEX
  5
93F
100
AcDbEntity
  8
1
100
AcDbVertex
100
AcDb2dVertex
 10
-172.16639
 20
-165.800663
 30
0.0
  0
VERTEX
  5
940
100
AcDbEntity
  8
1
100
AcDbVertex
100
AcDb2dVertex
 10
-171.952156
 20
-165.839687
 30
0.0
  0
VERTEX
  5
941
100
AcDbEntity
  8
1
100
AcDbVertex
100
AcDb2dVertex
 10
-171.737668
 20
-165.875912
 30
0.0
  0
VERTEX
  5
942
100
AcDbEntity
  8
1
100
AcDbVertex
100
AcDb2dVertex
 10
-171.522975
 20
-165.909898
 30
0.0
  0
VERTEX
  5
943
100
AcDbEntity
  8
1
100
AcDbVertex
100
AcDb2dVertex
 10
-171.30813
 20
-165.942205
 30
0.0
  0
VERTEX
  5
944
100
AcDbEntity
  8
1
100
AcDbVertex
100
AcDb2dVertex
 10
-171.093183
 20
-165.973393
 30
0.0
  0
VERTEX
  5
945
100
AcDbEntity
  8
1
100
AcDbVertex
100
AcDb2dVertex
 10
-170.878185
 20
-166.004021
 30
0.0
  0
SEQEND
  5
946
100
AcDbEntity
  8
1
  0
POLYLINE
  5
2A7
100
AcDbEntity
  8
1
100
AcDb2dPolyline
 66
     1
 10
0.0
 20
0.0
 30
0.0
  0
VERTEX
  5
947
100
AcDbEntity
  8
1
100
AcDbVertex
100
AcDb2dVertex
 10
-186.689529
 20
-162.462626
 30
0.0
  0
VERTEX
  5
948
100
AcDbEntity
  8
1
100
AcDbVertex
100
AcDb2dVertex
 10
-186.684458
 20
-162.53311
 30
0.0
  0
VERTEX
  5
949
100
AcDbEntity
  8
1
100
AcDbVertex
100
AcDb2dVertex
 10
-186.679254
 20
-162.60357
 30
0.0
  0
VERTEX
  5
94A
100
AcDbEntity
  8
1
100
AcDbVertex
100
AcDb2dVertex
 10
-186.67378
 20
-162.67398
 30
0.0
  0
VERTEX
  5
94B
100
AcDbEntity
  8
1
100
AcDbVertex
100
AcDb2dVertex
 10
-186.654403
 20
-162.884661
 30
0.0
  0
VERTEX
  5
94C
100
AcDbEntity
  8
1
100
AcDbVertex
100
AcDb2dVertex
 10
-186.627767
 20
-163.093998
 30
0.0
  0
VERTEX
  5
94D
100
AcDbEntity
  8
1
100
AcDbVertex
100
AcDb2dVertex
 10
-186.616648
 20
-163.163362
 30
0.0
  0
VERTEX
  5
94E
100
AcDbEntity
  8
1
100
AcDbVertex
100
AcDb2dVertex
 10
-186.604184
 20
-163.232478
 30
0.0
  0
VERTEX
  5
94F
100
AcDbEntity
  8
1
100
AcDbVertex
100
AcDb2dVertex
 10
-186.590243
 20
-163.301319
 30
0.0
  0
VERTEX
  5
950
100
AcDbEntity
  8
1
100
AcDbVertex
100
AcDb2dVertex
 10
-186.574375
 20
-163.3713
 30
0.0
  0
VERTEX
  5
951
100
AcDbEntity
  8
1
100
AcDbVertex
100
AcDb2dVertex
 10
-186.556879
 20
-163.44095
 30
0.0
  0
VERTEX
  5
952
100
AcDbEntity
  8
1
100
AcDbVertex
100
AcDb2dVertex
 10
-186.537809
 20
-163.510248
 30
0.0
  0
VERTEX
  5
953
100
AcDbEntity
  8
1
100
AcDbVertex
100
AcDb2dVertex
 10
-186.471687
 20
-163.715831
 30
0.0
  0
VERTEX
  5
954
100
AcDbEntity
  8
1
100
AcDbVertex
100
AcDb2dVertex
 10
-186.393323
 20
-163.917526
 30
0.0
  0
VERTEX
  5
955
100
AcDbEntity
  8
1
100
AcDbVertex
100
AcDb2dVertex
 10
-186.36473
 20
-163.9838
 30
0.0
  0
VERTEX
  5
956
100
AcDbEntity
  8
1
100
AcDbVertex
100
AcDb2dVertex
 10
-186.334992
 20
-164.049561
 30
0.0
  0
VERTEX
  5
957
100
AcDbEntity
  8
1
100
AcDbVertex
100
AcDb2dVertex
 10
-186.304162
 20
-164.11479
 30
0.0
  0
VERTEX
  5
958
100
AcDbEntity
  8
1
100
AcDbVertex
100
AcDb2dVertex
 10
-186.272229
 20
-164.179577
 30
0.0
  0
VERTEX
  5
959
100
AcDbEntity
  8
1
100
AcDbVertex
100
AcDb2dVertex
 10
-186.239264
 20
-164.243799
 30
0.0
  0
VERTEX
  5
95A
100
AcDbEntity
  8
1
100
AcDbVertex
100
AcDb2dVertex
 10
-186.205277
 20
-164.307445
 30
0.0
  0
VERTEX
  5
95B
100
AcDbEntity
  8
1
100
AcDbVertex
100
AcDb2dVertex
 10
-186.097274
 20
-164.494822
 30
0.0
  0
VERTEX
  5
95C
100
AcDbEntity
  8
1
100
AcDbVertex
100
AcDb2dVertex
 10
-185.980418
 20
-164.676632
 30
0.0
  0
VERTEX
  5
95D
100
AcDbEntity
  8
1
100
AcDbVertex
100
AcDb2dVertex
 10
-185.939544
 20
-164.735948
 30
0.0
  0
VERTEX
  5
95E
100
AcDbEntity
  8
1
100
AcDbVertex
100
AcDb2dVertex
 10
-185.897726
 20
-164.794604
 30
0.0
  0
VERTEX
  5
95F
100
AcDbEntity
  8
1
100
AcDbVertex
100
AcDb2dVertex
 10
-185.854973
 20
-164.852587
 30
0.0
  0
VERTEX
  5
960
100
AcDbEntity
  8
1
100
AcDbVertex
100
AcDb2dVertex
 10
-185.808341
 20
-164.913698
 30
0.0
  0
VERTEX
  5
961
100
AcDbEntity
  8
1
100
AcDbVertex
100
AcDb2dVertex
 10
-185.760684
 20
-164.974027
 30
0.0
  0
VERTEX
  5
962
100
AcDbEntity
  8
1
100
AcDbVertex
100
AcDb2dVertex
 10
-185.712027
 20
-165.033568
 30
0.0
  0
VERTEX
  5
963
100
AcDbEntity
  8
1
100
AcDbVertex
100
AcDb2dVertex
 10
-185.56032
 20
-165.207408
 30
0.0
  0
VERTEX
  5
964
100
AcDbEntity
  8
1
100
AcDbVertex
100
AcDb2dVertex
 10
-185.400568
 20
-165.373959
 30
0.0
  0
VERTEX
  5
965
100
AcDbEntity
  8
1
100
AcDbVertex
100
AcDb2dVertex
 10
-185.345653
 20
-165.427831
 30
0.0
  0
VERTEX
  5
966
100
AcDbEntity
  8
1
100
AcDbVertex
100
AcDb2dVertex
 10
-185.28995
 20
-165.48087
 30
0.0
  0
VERTEX
  5
967
100
AcDbEntity
  8
1
100
AcDbVertex
100
AcDb2dVertex
 10
-185.233486
 20
-165.533073
 30
0.0
  0
VERTEX
  5
968
100
AcDbEntity
  8
1
100
AcDbVertex
100
AcDb2dVertex
 10
-185.184195
 20
-165.57742
 30
0.0
  0
VERTEX
  5
969
100
AcDbEntity
  8
1
100
AcDbVertex
100
AcDb2dVertex
 10
-185.134369
 20
-165.621142
 30
0.0
  0
VERTEX
  5
96A
100
AcDbEntity
  8
1
100
AcDbVertex
100
AcDb2dVertex
 10
-185.084019
 20
-165.664242
 30
0.0
  0
VERTEX
  5
96B
100
AcDbEntity
  8
1
100
AcDbVertex
100
AcDb2dVertex
 10
-184.929946
 20
-165.789832
 30
0.0
  0
VERTEX
  5
96C
100
AcDbEntity
  8
1
100
AcDbVertex
100
AcDb2dVertex
 10
-184.877618
 20
-165.830466
 30
0.0
  0
VERTEX
  5
96D
100
AcDbEntity
  8
1
100
AcDbVertex
100
AcDb2dVertex
 10
-184.824825
 20
-165.87049
 30
0.0
  0
VERTEX
  5
96E
100
AcDbEntity
  8
1
100
AcDbVertex
100
AcDb2dVertex
 10
-184.771579
 20
-165.909906
 30
0.0
  0
VERTEX
  5
96F
100
AcDbEntity
  8
1
100
AcDbVertex
100
AcDb2dVertex
 10
-184.684384
 20
-165.972475
 30
0.0
  0
VERTEX
  5
970
100
AcDbEntity
  8
1
100
AcDbVertex
100
AcDb2dVertex
 10
-184.59607
 20
-166.033464
 30
0.0
  0
VERTEX
  5
971
100
AcDbEntity
  8
1
100
AcDbVertex
100
AcDb2dVertex
 10
-184.506679
 20
-166.092885
 30
0.0
  0
VERTEX
  5
972
100
AcDbEntity
  8
1
100
AcDbVertex
100
AcDb2dVertex
 10
-184.416254
 20
-166.150747
 30
0.0
  0
VERTEX
  5
973
100
AcDbEntity
  8
1
100
AcDbVertex
100
AcDb2dVertex
 10
-184.324835
 20
-166.20706
 30
0.0
  0
VERTEX
  5
974
100
AcDbEntity
  8
1
100
AcDbVertex
100
AcDb2dVertex
 10
-184.232466
 20
-166.261835
 30
0.0
  0
VERTEX
  5
975
100
AcDbEntity
  8
1
100
AcDbVertex
100
AcDb2dVertex
 10
-184.147145
 20
-166.310616
 30
0.0
  0
VERTEX
  5
976
100
AcDbEntity
  8
1
100
AcDbVertex
100
AcDb2dVertex
 10
-184.061092
 20
-166.358121
 30
0.0
  0
VERTEX
  5
977
100
AcDbEntity
  8
1
100
AcDbVertex
100
AcDb2dVertex
 10
-183.974334
 20
-166.404353
 30
0.0
  0
VERTEX
  5
978
100
AcDbEntity
  8
1
100
AcDbVertex
100
AcDb2dVertex
 10
-183.710106
 20
-166.535429
 30
0.0
  0
VERTEX
  5
979
100
AcDbEntity
  8
1
100
AcDbVertex
100
AcDb2dVertex
 10
-183.44054
 20
-166.655136
 30
0.0
  0
VERTEX
  5
97A
100
AcDbEntity
  8
1
100
AcDbVertex
100
AcDb2dVertex
 10
-183.349628
 20
-166.692523
 30
0.0
  0
VERTEX
  5
97B
100
AcDbEntity
  8
1
100
AcDbVertex
100
AcDb2dVertex
 10
-183.258236
 20
-166.728658
 30
0.0
  0
VERTEX
  5
97C
100
AcDbEntity
  8
1
100
AcDbVertex
100
AcDb2dVertex
 10
-183.16639
 20
-166.763543
 30
0.0
  0
VERTEX
  5
97D
100
AcDbEntity
  8
1
100
AcDbVertex
100
AcDb2dVertex
 10
-183.081774
 20
-166.794447
 30
0.0
  0
VERTEX
  5
97E
100
AcDbEntity
  8
1
100
AcDbVertex
100
AcDb2dVertex
 10
-182.996814
 20
-166.824339
 30
0.0
  0
VERTEX
  5
97F
100
AcDbEntity
  8
1
100
AcDbVertex
100
AcDb2dVertex
 10
-182.911526
 20
-166.853255
 30
0.0
  0
VERTEX
  5
980
100
AcDbEntity
  8
1
100
AcDbVertex
100
AcDb2dVertex
 10
-182.825922
 20
-166.881233
 30
0.0
  0
VERTEX
  5
981
100
AcDbEntity
  8
1
100
AcDbVertex
100
AcDb2dVertex
 10
-182.740017
 20
-166.908308
 30
0.0
  0
VERTEX
  5
982
100
AcDbEntity
  8
1
100
AcDbVertex
100
AcDb2dVertex
 10
-182.653826
 20
-166.934519
 30
0.0
  0
VERTEX
  5
983
100
AcDbEntity
  8
1
100
AcDbVertex
100
AcDb2dVertex
 10
-182.563054
 20
-166.961106
 30
0.0
  0
VERTEX
  5
984
100
AcDbEntity
  8
1
100
AcDbVertex
100
AcDb2dVertex
 10
-182.471973
 20
-166.986613
 30
0.0
  0
VERTEX
  5
985
100
AcDbEntity
  8
1
100
AcDbVertex
100
AcDb2dVertex
 10
-182.380574
 20
-167.010871
 30
0.0
  0
VERTEX
  5
986
100
AcDbEntity
  8
1
100
AcDbVertex
100
AcDb2dVertex
 10
-182.288847
 20
-167.033711
 30
0.0
  0
VERTEX
  5
987
100
AcDbEntity
  8
1
100
AcDbVertex
100
AcDb2dVertex
 10
-182.196783
 20
-167.054965
 30
0.0
  0
VERTEX
  5
988
100
AcDbEntity
  8
1
100
AcDbVertex
100
AcDb2dVertex
 10
-182.088927
 20
-167.077625
 30
0.0
  0
VERTEX
  5
989
100
AcDbEntity
  8
1
100
AcDbVertex
100
AcDb2dVertex
 10
-181.980652
 20
-167.098161
 30
0.0
  0
VERTEX
  5
98A
100
AcDbEntity
  8
1
100
AcDbVertex
100
AcDb2dVertex
 10
-181.872011
 20
-167.11684
 30
0.0
  0
VERTEX
  5
98B
100
AcDbEntity
  8
1
100
AcDbVertex
100
AcDb2dVertex
 10
-181.544412
 20
-167.164382
 30
0.0
  0
VERTEX
  5
98C
100
AcDbEntity
  8
1
100
AcDbVertex
100
AcDb2dVertex
 10
-181.434828
 20
-167.178282
 30
0.0
  0
VERTEX
  5
98D
100
AcDbEntity
  8
1
100
AcDbVertex
100
AcDb2dVertex
 10
-181.325139
 20
-167.191652
 30
0.0
  0
VERTEX
  5
98E
100
AcDbEntity
  8
1
100
AcDbVertex
100
AcDb2dVertex
 10
-181.215399
 20
-167.204757
 30
0.0
  0
SEQEND
  5
98F
100
AcDbEntity
  8
1
  0
POLYLINE
  5
2F1
100
AcDbEntity
  8
1
100
AcDb2dPolyline
 66
     1
 10
0.0
 20
0.0
 30
0.0
  0
VERTEX
  5
990
100
AcDbEntity
  8
1
100
AcDbVertex
100
AcDb2dVertex
 10
-191.874904
 20
-162.798361
 30
0.0
  0
VERTEX
  5
991
100
AcDbEntity
  8
1
100
AcDbVertex
100
AcDb2dVertex
 10
-191.871174
 20
-162.873351
 30
0.0
  0
VERTEX
  5
992
100
AcDbEntity
  8
1
100
AcDbVertex
100
AcDb2dVertex
 10
-191.867199
 20
-162.948303
 30
0.0
  0
VERTEX
  5
993
100
AcDbEntity
  8
1
100
AcDbVertex
100
AcDb2dVertex
 10
-191.862733
 20
-163.023177
 30
0.0
  0
VERTEX
  5
994
100
AcDbEntity
  8
1
100
AcDbVertex
100
AcDb2dVertex
 10
-191.843926
 20
-163.246941
 30
0.0
  0
VERTEX
  5
995
100
AcDbEntity
  8
1
100
AcDbVertex
100
AcDb2dVertex
 10
-191.835035
 20
-163.321113
 30
0.0
  0
VERTEX
  5
996
100
AcDbEntity
  8
1
100
AcDbVertex
100
AcDb2dVertex
 10
-191.824425
 20
-163.395013
 30
0.0
  0
VERTEX
  5
997
100
AcDbEntity
  8
1
100
AcDbVertex
100
AcDb2dVertex
 10
-191.811848
 20
-163.468601
 30
0.0
  0
VERTEX
  5
998
100
AcDbEntity
  8
1
100
AcDbVertex
100
AcDb2dVertex
 10
-191.796846
 20
-163.54308
 30
0.0
  0
VERTEX
  5
999
100
AcDbEntity
  8
1
100
AcDbVertex
100
AcDb2dVertex
 10
-191.779653
 20
-163.61716
 30
0.0
  0
VERTEX
  5
99A
100
AcDbEntity
  8
1
100
AcDbVertex
100
AcDb2dVertex
 10
-191.760367
 20
-163.690807
 30
0.0
  0
VERTEX
  5
99B
100
AcDbEntity
  8
1
100
AcDbVertex
100
AcDb2dVertex
 10
-191.690909
 20
-163.908789
 30
0.0
  0
VERTEX
  5
99C
100
AcDbEntity
  8
1
100
AcDbVertex
100
AcDb2dVertex
 10
-191.664214
 20
-163.980344
 30
0.0
  0
VERTEX
  5
99D
100
AcDbEntity
  8
1
100
AcDbVertex
100
AcDb2dVertex
 10
-191.635908
 20
-164.051288
 30
0.0
  0
VERTEX
  5
99E
100
AcDbEntity
  8
1
100
AcDbVertex
100
AcDb2dVertex
 10
-191.606089
 20
-164.121585
 30
0.0
  0
VERTEX
  5
99F
100
AcDbEntity
  8
1
100
AcDbVertex
100
AcDb2dVertex
 10
-191.573445
 20
-164.194222
 30
0.0
  0
VERTEX
  5
9A0
100
AcDbEntity
  8
1
100
AcDbVertex
100
AcDb2dVertex
 10
-191.539286
 20
-164.266099
 30
0.0
  0
VERTEX
  5
9A1
100
AcDbEntity
  8
1
100
AcDbVertex
100
AcDb2dVertex
 10
-191.503635
 20
-164.3372
 30
0.0
  0
VERTEX
  5
9A2
100
AcDbEntity
  8
1
100
AcDbVertex
100
AcDb2dVertex
 10
-191.388
 20
-164.545684
 30
0.0
  0
VERTEX
  5
9A3
100
AcDbEntity
  8
1
100
AcDbVertex
100
AcDb2dVertex
 10
-191.346647
 20
-164.613519
 30
0.0
  0
VERTEX
  5
9A4
100
AcDbEntity
  8
1
100
AcDbVertex
100
AcDb2dVertex
 10
-191.303934
 20
-164.680496
 30
0.0
  0
VERTEX
  5
9A5
100
AcDbEntity
  8
1
100
AcDbVertex
100
AcDb2dVertex
 10
-191.259888
 20
-164.7466
 30
0.0
  0
VERTEX
  5
9A6
100
AcDbEntity
  8
1
100
AcDbVertex
100
AcDb2dVertex
 10
-191.210826
 20
-164.81703
 30
0.0
  0
VERTEX
  5
9A7
100
AcDbEntity
  8
1
100
AcDbVertex
100
AcDb2dVertex
 10
-191.160289
 20
-164.88642
 30
0.0
  0
VERTEX
  5
9A8
100
AcDbEntity
  8
1
100
AcDbVertex
100
AcDb2dVertex
 10
-191.108325
 20
-164.954768
 30
0.0
  0
VERTEX
  5
9A9
100
AcDbEntity
  8
1
100
AcDbVertex
100
AcDb2dVertex
 10
-190.944382
 20
-165.15353
 30
0.0
  0
VERTEX
  5
9AA
100
AcDbEntity
  8
1
100
AcDbVertex
100
AcDb2dVertex
 10
-190.887219
 20
-165.217685
 30
0.0
  0
VERTEX
  5
9AB
100
AcDbEntity
  8
1
100
AcDbVertex
100
AcDb2dVertex
 10
-190.828882
 20
-165.280786
 30
0.0
  0
VERTEX
  5
9AC
100
AcDbEntity
  8
1
100
AcDbVertex
100
AcDb2dVertex
 10
-190.769423
 20
-165.342831
 30
0.0
  0
VERTEX
  5
9AD
100
AcDbEntity
  8
1
100
AcDbVertex
100
AcDb2dVertex
 10
-190.68908
 20
-165.423324
 30
0.0
  0
VERTEX
  5
9AE
100
AcDbEntity
  8
1
100
AcDbVertex
100
AcDb2dVertex
 10
-190.606933
 20
-165.501982
 30
0.0
  0
VERTEX
  5
9AF
100
AcDbEntity
  8
1
100
AcDbVertex
100
AcDb2dVertex
 10
-190.523052
 20
-165.578823
 30
0.0
  0
VERTEX
  5
9B0
100
AcDbEntity
  8
1
100
AcDbVertex
100
AcDb2dVertex
 10
-190.261742
 20
-165.798623
 30
0.0
  0
VERTEX
  5
9B1
100
AcDbEntity
  8
1
100
AcDbVertex
100
AcDb2dVertex
 10
-189.987463
 20
-166.002715
 30
0.0
  0
VERTEX
  5
9B2
100
AcDbEntity
  8
1
100
AcDbVertex
100
AcDb2dVertex
 10
-189.702181
 20
-166.191583
 30
0.0
  0
VERTEX
  5
9B3
100
AcDbEntity
  8
1
100
AcDbVertex
100
AcDb2dVertex
 10
-189.604983
 20
-166.251239
 30
0.0
  0
VERTEX
  5
9B4
100
AcDbEntity
  8
1
100
AcDbVertex
100
AcDb2dVertex
 10
-189.506853
 20
-166.309275
 30
0.0
  0
VERTEX
  5
9B5
100
AcDbEntity
  8
1
100
AcDbVertex
100
AcDb2dVertex
 10
-189.407867
 20
-166.36571
 30
0.0
  0
VERTEX
  5
9B6
100
AcDbEntity
  8
1
100
AcDbVertex
100
AcDb2dVertex
 10
-189.315882
 20
-166.416339
 30
0.0
  0
VERTEX
  5
9B7
100
AcDbEntity
  8
1
100
AcDbVertex
100
AcDb2dVertex
 10
-189.223237
 20
-166.4656
 30
0.0
  0
VERTEX
  5
9B8
100
AcDbEntity
  8
1
100
AcDbVertex
100
AcDb2dVertex
 10
-189.129941
 20
-166.51347
 30
0.0
  0
VERTEX
  5
9B9
100
AcDbEntity
  8
1
100
AcDbVertex
100
AcDb2dVertex
 10
-188.846219
 20
-166.648514
 30
0.0
  0
VERTEX
  5
9BA
100
AcDbEntity
  8
1
100
AcDbVertex
100
AcDb2dVertex
 10
-188.750393
 20
-166.690602
 30
0.0
  0
VERTEX
  5
9BB
100
AcDbEntity
  8
1
100
AcDbVertex
100
AcDb2dVertex
 10
-188.653954
 20
-166.731188
 30
0.0
  0
VERTEX
  5
9BC
100
AcDbEntity
  8
1
100
AcDbVertex
100
AcDb2dVertex
 10
-188.55691
 20
-166.770253
 30
0.0
  0
VERTEX
  5
9BD
100
AcDbEntity
  8
1
100
AcDbVertex
100
AcDb2dVertex
 10
-188.452602
 20
-166.810313
 30
0.0
  0
VERTEX
  5
9BE
100
AcDbEntity
  8
1
100
AcDbVertex
100
AcDb2dVertex
 10
-188.347695
 20
-166.848819
 30
0.0
  0
VERTEX
  5
9BF
100
AcDbEntity
  8
1
100
AcDbVertex
100
AcDb2dVertex
 10
-188.24227
 20
-166.885981
 30
0.0
  0
VERTEX
  5
9C0
100
AcDbEntity
  8
1
100
AcDbVertex
100
AcDb2dVertex
 10
-187.923697
 20
-166.991474
 30
0.0
  0
VERTEX
  5
9C1
100
AcDbEntity
  8
1
100
AcDbVertex
100
AcDb2dVertex
 10
-187.817013
 20
-167.025337
 30
0.0
  0
VERTEX
  5
9C2
100
AcDbEntity
  8
1
100
AcDbVertex
100
AcDb2dVertex
 10
-187.710218
 20
-167.058895
 30
0.0
  0
VERTEX
  5
9C3
100
AcDbEntity
  8
1
100
AcDbVertex
100
AcDb2dVertex
 10
-187.603394
 20
-167.092358
 30
0.0
  0
VERTEX
  5
9C4
100
AcDbEntity
  8
1
100
AcDbVertex
100
AcDb2dVertex
 10
-187.50784
 20
-167.122333
 30
0.0
  0
VERTEX
  5
9C5
100
AcDbEntity
  8
1
100
AcDbVertex
100
AcDb2dVertex
 10
-187.41228
 20
-167.152228
 30
0.0
  0
VERTEX
  5
9C6
100
AcDbEntity
  8
1
100
AcDbVertex
100
AcDb2dVertex
 10
-187.316664
 20
-167.181872
 30
0.0
  0
VERTEX
  5
9C7
100
AcDbEntity
  8
1
100
AcDbVertex
100
AcDb2dVertex
 10
-187.02899
 20
-167.267595
 30
0.0
  0
VERTEX
  5
9C8
100
AcDbEntity
  8
1
100
AcDbVertex
100
AcDb2dVertex
 10
-186.932661
 20
-167.294532
 30
0.0
  0
VERTEX
  5
9C9
100
AcDbEntity
  8
1
100
AcDbVertex
100
AcDb2dVertex
 10
-186.83603
 20
-167.320365
 30
0.0
  0
VERTEX
  5
9CA
100
AcDbEntity
  8
1
100
AcDbVertex
100
AcDb2dVertex
 10
-186.73905
 20
-167.344924
 30
0.0
  0
VERTEX
  5
9CB
100
AcDbEntity
  8
1
100
AcDbVertex
100
AcDb2dVertex
 10
-186.599425
 20
-167.377624
 30
0.0
  0
VERTEX
  5
9CC
100
AcDbEntity
  8
1
100
AcDbVertex
100
AcDb2dVertex
 10
-186.45907
 20
-167.407275
 30
0.0
  0
VERTEX
  5
9CD
100
AcDbEntity
  8
1
100
AcDbVertex
100
AcDb2dVertex
 10
-186.318075
 20
-167.433793
 30
0.0
  0
VERTEX
  5
9CE
100
AcDbEntity
  8
1
100
AcDbVertex
100
AcDb2dVertex
 10
-186.17653
 20
-167.457094
 30
0.0
  0
SEQEND
  5
9CF
100
AcDbEntity
  8
1
  0
POLYLINE
  5
332
100
AcDbEntity
  8
1
100
AcDb2dPolyline
 66
     1
 10
0.0
 20
0.0
 30
0.0
  0
VERTEX
  5
9D0
100
AcDbEntity
  8
1
100
AcDbVertex
100
AcDb2dVertex
 10
-176.82198
 20
-168.134464
 30
0.0
  0
VERTEX
  5
9D1
100
AcDbEntity
  8
1
100
AcDbVertex
100
AcDb2dVertex
 10
-176.92407
 20
-168.130384
 30
0.0
  0
VERTEX
  5
9D2
100
AcDbEntity
  8
1
100
AcDbVertex
100
AcDb2dVertex
 10
-177.026158
 20
-168.126286
 30
0.0
  0
VERTEX
  5
9D3
100
AcDbEntity
  8
1
100
AcDbVertex
100
AcDb2dVertex
 10
-177.128244
 20
-168.122156
 30
0.0
  0
VERTEX
  5
9D4
100
AcDbEntity
  8
1
100
AcDbVertex
100
AcDb2dVertex
 10
-177.434463
 20
-168.109403
 30
0.0
  0
VERTEX
  5
9D5
100
AcDbEntity
  8
1
100
AcDbVertex
100
AcDb2dVertex
 10
-177.740591
 20
-168.095758
 30
0.0
  0
VERTEX
  5
9D6
100
AcDbEntity
  8
1
100
AcDbVertex
100
AcDb2dVertex
 10
-178.046583
 20
-168.080777
 30
0.0
  0
VERTEX
  5
9D7
100
AcDbEntity
  8
1
100
AcDbVertex
100
AcDb2dVertex
 10
-178.352394
 20
-168.064014
 30
0.0
  0
VERTEX
  5
9D8
100
AcDbEntity
  8
1
100
AcDbVertex
100
AcDb2dVertex
 10
-178.657979
 20
-168.045024
 30
0.0
  0
VERTEX
  5
9D9
100
AcDbEntity
  8
1
100
AcDbVertex
100
AcDb2dVertex
 10
-178.963292
 20
-168.023361
 30
0.0
  0
VERTEX
  5
9DA
100
AcDbEntity
  8
1
100
AcDbVertex
100
AcDb2dVertex
 10
-179.268288
 20
-167.99858
 30
0.0
  0
VERTEX
  5
9DB
100
AcDbEntity
  8
1
100
AcDbVertex
100
AcDb2dVertex
 10
-179.572922
 20
-167.970235
 30
0.0
  0
VERTEX
  5
9DC
100
AcDbEntity
  8
1
100
AcDbVertex
100
AcDb2dVertex
 10
-179.877148
 20
-167.937881
 30
0.0
  0
VERTEX
  5
9DD
100
AcDbEntity
  8
1
100
AcDbVertex
100
AcDb2dVertex
 10
-179.978459
 20
-167.926128
 30
0.0
  0
VERTEX
  5
9DE
100
AcDbEntity
  8
1
100
AcDbVertex
100
AcDb2dVertex
 10
-180.079717
 20
-167.913864
 30
0.0
  0
VERTEX
  5
9DF
100
AcDbEntity
  8
1
100
AcDbVertex
100
AcDb2dVertex
 10
-180.180922
 20
-167.901072
 30
0.0
  0
VERTEX
  5
9E0
100
AcDbEntity
  8
1
100
AcDbVertex
100
AcDb2dVertex
 10
-180.245216
 20
-167.892678
 30
0.0
  0
VERTEX
  5
9E1
100
AcDbEntity
  8
1
100
AcDbVertex
100
AcDb2dVertex
 10
-180.3095
 20
-167.884163
 30
0.0
  0
VERTEX
  5
9E2
100
AcDbEntity
  8
1
100
AcDbVertex
100
AcDb2dVertex
 10
-180.373785
 20
-167.875628
 30
0.0
  0
VERTEX
  5
9E3
100
AcDbEntity
  8
1
100
AcDbVertex
100
AcDb2dVertex
 10
-180.438081
 20
-167.867173
 30
0.0
  0
VERTEX
  5
9E4
100
AcDbEntity
  8
1
100
AcDbVertex
100
AcDb2dVertex
 10
-180.502401
 20
-167.858897
 30
0.0
  0
VERTEX
  5
9E5
100
AcDbEntity
  8
1
100
AcDbVertex
100
AcDb2dVertex
 10
-180.566756
 20
-167.8509
 30
0.0
  0
VERTEX
  5
9E6
100
AcDbEntity
  8
1
100
AcDbVertex
100
AcDb2dVertex
 10
-180.634931
 20
-167.842827
 30
0.0
  0
VERTEX
  5
9E7
100
AcDbEntity
  8
1
100
AcDbVertex
100
AcDb2dVertex
 10
-180.703153
 20
-167.83516
 30
0.0
  0
VERTEX
  5
9E8
100
AcDbEntity
  8
1
100
AcDbVertex
100
AcDb2dVertex
 10
-180.771418
 20
-167.827877
 30
0.0
  0
VERTEX
  5
9E9
100
AcDbEntity
  8
1
100
AcDbVertex
100
AcDb2dVertex
 10
-180.839722
 20
-167.82096
 30
0.0
  0
VERTEX
  5
9EA
100
AcDbEntity
  8
1
100
AcDbVertex
100
AcDb2dVertex
 10
-180.908058
 20
-167.814389
 30
0.0
  0
VERTEX
  5
9EB
100
AcDbEntity
  8
1
100
AcDbVertex
100
AcDb2dVertex
 10
-180.976424
 20
-167.808143
 30
0.0
  0
VERTEX
  5
9EC
100
AcDbEntity
  8
1
100
AcDbVertex
100
AcDb2dVertex
 10
-181.060734
 20
-167.80085
 30
0.0
  0
VERTEX
  5
9ED
100
AcDbEntity
  8
1
100
AcDbVertex
100
AcDb2dVertex
 10
-181.145073
 20
-167.793907
 30
0.0
  0
VERTEX
  5
9EE
100
AcDbEntity
  8
1
100
AcDbVertex
100
AcDb2dVertex
 10
-181.229433
 20
-167.787199
 30
0.0
  0
VERTEX
  5
9EF
100
AcDbEntity
  8
1
100
AcDbVertex
100
AcDb2dVertex
 10
-181.313805
 20
-167.780611
 30
0.0
  0
VERTEX
  5
9F0
100
AcDbEntity
  8
1
100
AcDbVertex
100
AcDb2dVertex
 10
-181.398182
 20
-167.774028
 30
0.0
  0
VERTEX
  5
9F1
100
AcDbEntity
  8
1
100
AcDbVertex
100
AcDb2dVertex
 10
-181.510493
 20
-167.765127
 30
0.0
  0
VERTEX
  5
9F2
100
AcDbEntity
  8
1
100
AcDbVertex
100
AcDb2dVertex
 10
-181.622799
 20
-167.756073
 30
0.0
  0
VERTEX
  5
9F3
100
AcDbEntity
  8
1
100
AcDbVertex
100
AcDb2dVertex
 10
-181.735103
 20
-167.746906
 30
0.0
  0
VERTEX
  5
9F4
100
AcDbEntity
  8
1
100
AcDbVertex
100
AcDb2dVertex
 10
-182.072012
 20
-167.719149
 30
0.0
  0
VERTEX
  5
9F5
100
AcDbEntity
  8
1
100
AcDbVertex
100
AcDb2dVertex
 10
-182.408959
 20
-167.691877
 30
0.0
  0
VERTEX
  5
9F6
100
AcDbEntity
  8
1
100
AcDbVertex
100
AcDb2dVertex
 10
-182.745994
 20
-167.666212
 30
0.0
  0
VERTEX
  5
9F7
100
AcDbEntity
  8
1
100
AcDbVertex
100
AcDb2dVertex
 10
-183.083166
 20
-167.643272
 30
0.0
  0
VERTEX
  5
9F8
100
AcDbEntity
  8
1
100
AcDbVertex
100
AcDb2dVertex
 10
-183.420526
 20
-167.624178
 30
0.0
  0
VERTEX
  5
9F9
100
AcDbEntity
  8
1
100
AcDbVertex
100
AcDb2dVertex
 10
-183.53303
 20
-167.618862
 30
0.0
  0
VERTEX
  5
9FA
100
AcDbEntity
  8
1
100
AcDbVertex
100
AcDb2dVertex
 10
-183.645562
 20
-167.614139
 30
0.0
  0
VERTEX
  5
9FB
100
AcDbEntity
  8
1
100
AcDbVertex
100
AcDb2dVertex
 10
-183.758124
 20
-167.610051
 30
0.0
  0
VERTEX
  5
9FC
100
AcDbEntity
  8
1
100
AcDbVertex
100
AcDb2dVertex
 10
-183.838037
 20
-167.607557
 30
0.0
  0
VERTEX
  5
9FD
100
AcDbEntity
  8
1
100
AcDbVertex
100
AcDb2dVertex
 10
-183.917964
 20
-167.605425
 30
0.0
  0
VERTEX
  5
9FE
100
AcDbEntity
  8
1
100
AcDbVertex
100
AcDb2dVertex
 10
-183.997904
 20
-167.603671
 30
0.0
  0
VERTEX
  5
9FF
100
AcDbEntity
  8
1
100
AcDbVertex
100
AcDb2dVertex
 10
-184.077854
 20
-167.602317
 30
0.0
  0
VERTEX
  5
A00
100
AcDbEntity
  8
1
100
AcDbVertex
100
AcDb2dVertex
 10
-184.157812
 20
-167.60138
 30
0.0
  0
VERTEX
  5
A01
100
AcDbEntity
  8
1
100
AcDbVertex
100
AcDb2dVertex
 10
-184.234988
 20
-167.600848
 30
0.0
  0
VERTEX
  5
A02
100
AcDbEntity
  8
1
100
AcDbVertex
100
AcDb2dVertex
 10
-184.312165
 20
-167.600481
 30
0.0
  0
VERTEX
  5
A03
100
AcDbEntity
  8
1
100
AcDbVertex
100
AcDb2dVertex
 10
-184.389338
 20
-167.600035
 30
0.0
  0
VERTEX
  5
A04
100
AcDbEntity
  8
1
100
AcDbVertex
100
AcDb2dVertex
 10
-184.466499
 20
-167.599267
 30
0.0
  0
VERTEX
  5
A05
100
AcDbEntity
  8
1
100
AcDbVertex
100
AcDb2dVertex
 10
-184.543646
 20
-167.597935
 30
0.0
  0
VERTEX
  5
A06
100
AcDbEntity
  8
1
100
AcDbVertex
100
AcDb2dVertex
 10
-184.697535
 20
-167.59301
 30
0.0
  0
VERTEX
  5
A07
100
AcDbEntity
  8
1
100
AcDbVertex
100
AcDb2dVertex
 10
-184.851331
 20
-167.58526
 30
0.0
  0
VERTEX
  5
A08
100
AcDbEntity
  8
1
100
AcDbVertex
100
AcDb2dVertex
 10
-185.005027
 20
-167.575081
 30
0.0
  0
VERTEX
  5
A09
100
AcDbEntity
  8
1
100
AcDbVertex
100
AcDb2dVertex
 10
-185.158612
 20
-167.562863
 30
0.0
  0
VERTEX
  5
A0A
100
AcDbEntity
  8
1
100
AcDbVertex
100
AcDb2dVertex
 10
-185.312079
 20
-167.549001
 30
0.0
  0
VERTEX
  5
A0B
100
AcDbEntity
  8
1
100
AcDbVertex
100
AcDb2dVertex
 10
-185.46542
 20
-167.533886
 30
0.0
  0
VERTEX
  5
A0C
100
AcDbEntity
  8
1
100
AcDbVertex
100
AcDb2dVertex
 10
-185.605543
 20
-167.519275
 30
0.0
  0
VERTEX
  5
A0D
100
AcDbEntity
  8
1
100
AcDbVertex
100
AcDb2dVertex
 10
-185.745577
 20
-167.50409
 30
0.0
  0
VERTEX
  5
A0E
100
AcDbEntity
  8
1
100
AcDbVertex
100
AcDb2dVertex
 10
-185.885542
 20
-167.488473
 30
0.0
  0
VERTEX
  5
A0F
100
AcDbEntity
  8
1
100
AcDbVertex
100
AcDb2dVertex
 10
-186.025461
 20
-167.472568
 30
0.0
  0
VERTEX
  5
A10
100
AcDbEntity
  8
1
100
AcDbVertex
100
AcDb2dVertex
 10
-186.165359
 20
-167.45652
 30
0.0
  0
SEQEND
  5
A11
100
AcDbEntity
  8
1
  0
POLYLINE
  5
375
100
AcDbEntity
  8
1
100
AcDb2dPolyline
 66
     1
 10
0.0
 20
0.0
 30
0.0
  0
VERTEX
  5
A12
100
AcDbEntity
  8
1
100
AcDbVertex
100
AcDb2dVertex
 10
-180.432534
 20
-168.400582
 30
0.0
  0
VERTEX
  5
A13
100
AcDbEntity
  8
1
100
AcDbVertex
100
AcDb2dVertex
 10
-180.43236
 20
-168.391511
 30
0.0
  0
VERTEX
  5
A14
100
AcDbEntity
  8
1
100
AcDbVertex
100
AcDb2dVertex
 10
-180.432181
 20
-168.382439
 30
0.0
  0
VERTEX
  5
A15
100
AcDbEntity
  8
1
100
AcDbVertex
100
AcDb2dVertex
 10
-180.431992
 20
-168.373367
 30
0.0
  0
VERTEX
  5
A16
100
AcDbEntity
  8
1
100
AcDbVertex
100
AcDb2dVertex
 10
-180.43132
 20
-168.346144
 30
0.0
  0
VERTEX
  5
A17
100
AcDbEntity
  8
1
100
AcDbVertex
100
AcDb2dVertex
 10
-180.430387
 20
-168.318908
 30
0.0
  0
VERTEX
  5
A18
100
AcDbEntity
  8
1
100
AcDbVertex
100
AcDb2dVertex
 10
-180.429063
 20
-168.29165
 30
0.0
  0
VERTEX
  5
A19
100
AcDbEntity
  8
1
100
AcDbVertex
100
AcDb2dVertex
 10
-180.428512
 20
-168.282559
 30
0.0
  0
VERTEX
  5
A1A
100
AcDbEntity
  8
1
100
AcDbVertex
100
AcDb2dVertex
 10
-180.427898
 20
-168.273464
 30
0.0
  0
VERTEX
  5
A1B
100
AcDbEntity
  8
1
100
AcDbVertex
100
AcDb2dVertex
 10
-180.427216
 20
-168.264365
 30
0.0
  0
VERTEX
  5
A1C
100
AcDbEntity
  8
1
100
AcDbVertex
100
AcDb2dVertex
 10
-180.426396
 20
-168.254552
 30
0.0
  0
VERTEX
  5
A1D
100
AcDbEntity
  8
1
100
AcDbVertex
100
AcDb2dVertex
 10
-180.425464
 20
-168.244746
 30
0.0
  0
VERTEX
  5
A1E
100
AcDbEntity
  8
1
100
AcDbVertex
100
AcDb2dVertex
 10
-180.424392
 20
-168.234958
 30
0.0
  0
VERTEX
  5
A1F
100
AcDbEntity
  8
1
100
AcDbVertex
100
AcDb2dVertex
 10
-180.420055
 20
-168.205818
 30
0.0
  0
VERTEX
  5
A20
100
AcDbEntity
  8
1
100
AcDbVertex
100
AcDb2dVertex
 10
-180.418143
 20
-168.196217
 30
0.0
  0
VERTEX
  5
A21
100
AcDbEntity
  8
1
100
AcDbVertex
100
AcDb2dVertex
 10
-180.415952
 20
-168.186691
 30
0.0
  0
VERTEX
  5
A22
100
AcDbEntity
  8
1
100
AcDbVertex
100
AcDb2dVertex
 10
-180.413453
 20
-168.177253
 30
0.0
  0
VERTEX
  5
A23
100
AcDbEntity
  8
1
100
AcDbVertex
100
AcDb2dVertex
 10
-180.410961
 20
-168.168955
 30
0.0
  0
VERTEX
  5
A24
100
AcDbEntity
  8
1
100
AcDbVertex
100
AcDb2dVertex
 10
-180.40822
 20
-168.160732
 30
0.0
  0
VERTEX
  5
A25
100
AcDbEntity
  8
1
100
AcDbVertex
100
AcDb2dVertex
 10
-180.405248
 20
-168.152581
 30
0.0
  0
VERTEX
  5
A26
100
AcDbEntity
  8
1
100
AcDbVertex
100
AcDb2dVertex
 10
-180.395103
 20
-168.128536
 30
0.0
  0
VERTEX
  5
A27
100
AcDbEntity
  8
1
100
AcDbVertex
100
AcDb2dVertex
 10
-180.383452
 20
-168.105046
 30
0.0
  0
VERTEX
  5
A28
100
AcDbEntity
  8
1
100
AcDbVertex
100
AcDb2dVertex
 10
-180.370734
 20
-168.082043
 30
0.0
  0
VERTEX
  5
A29
100
AcDbEntity
  8
1
100
AcDbVertex
100
AcDb2dVertex
 10
-180.366333
 20
-168.074471
 30
0.0
  0
VERTEX
  5
A2A
100
AcDbEntity
  8
1
100
AcDbVertex
100
AcDb2dVertex
 10
-180.361878
 20
-168.066943
 30
0.0
  0
VERTEX
  5
A2B
100
AcDbEntity
  8
1
100
AcDbVertex
100
AcDb2dVertex
 10
-180.357386
 20
-168.059456
 30
0.0
  0
VERTEX
  5
A2C
100
AcDbEntity
  8
1
100
AcDbVertex
100
AcDb2dVertex
 10
-180.35099
 20
-168.048944
 30
0.0
  0
VERTEX
  5
A2D
100
AcDbEntity
  8
1
100
AcDbVertex
100
AcDb2dVertex
 10
-180.344512
 20
-168.038515
 30
0.0
  0
VERTEX
  5
A2E
100
AcDbEntity
  8
1
100
AcDbVertex
100
AcDb2dVertex
 10
-180.337913
 20
-168.028175
 30
0.0
  0
VERTEX
  5
A2F
100
AcDbEntity
  8
1
100
AcDbVertex
100
AcDb2dVertex
 10
-180.331155
 20
-168.01793
 30
0.0
  0
VERTEX
  5
A30
100
AcDbEntity
  8
1
100
AcDbVertex
100
AcDb2dVertex
 10
-180.324198
 20
-168.007788
 30
0.0
  0
VERTEX
  5
A31
100
AcDbEntity
  8
1
100
AcDbVertex
100
AcDb2dVertex
 10
-180.317004
 20
-167.997752
 30
0.0
  0
VERTEX
  5
A32
100
AcDbEntity
  8
1
100
AcDbVertex
100
AcDb2dVertex
 10
-180.31043
 20
-167.989011
 30
0.0
  0
VERTEX
  5
A33
100
AcDbEntity
  8
1
100
AcDbVertex
100
AcDb2dVertex
 10
-180.303607
 20
-167.980449
 30
0.0
  0
VERTEX
  5
A34
100
AcDbEntity
  8
1
100
AcDbVertex
100
AcDb2dVertex
 10
-180.296498
 20
-167.972154
 30
0.0
  0
VERTEX
  5
A35
100
AcDbEntity
  8
1
100
AcDbVertex
100
AcDb2dVertex
 10
-180.28907
 20
-167.964216
 30
0.0
  0
VERTEX
  5
A36
100
AcDbEntity
  8
1
100
AcDbVertex
100
AcDb2dVertex
 10
-180.281285
 20
-167.956725
 30
0.0
  0
VERTEX
  5
A37
100
AcDbEntity
  8
1
100
AcDbVertex
100
AcDb2dVertex
 10
-180.273111
 20
-167.949771
 30
0.0
  0
VERTEX
  5
A38
100
AcDbEntity
  8
1
100
AcDbVertex
100
AcDb2dVertex
 10
-180.257688
 20
-167.938944
 30
0.0
  0
VERTEX
  5
A39
100
AcDbEntity
  8
1
100
AcDbVertex
100
AcDb2dVertex
 10
-180.241159
 20
-167.929743
 30
0.0
  0
VERTEX
  5
A3A
100
AcDbEntity
  8
1
100
AcDbVertex
100
AcDb2dVertex
 10
-180.223746
 20
-167.921844
 30
0.0
  0
VERTEX
  5
A3B
100
AcDbEntity
  8
1
100
AcDbVertex
100
AcDb2dVertex
 10
-180.20567
 20
-167.91492
 30
0.0
  0
VERTEX
  5
A3C
100
AcDbEntity
  8
1
100
AcDbVertex
100
AcDb2dVertex
 10
-180.187152
 20
-167.908647
 30
0.0
  0
VERTEX
  5
A3D
100
AcDbEntity
  8
1
100
AcDbVertex
100
AcDb2dVertex
 10
-180.168412
 20
-167.902699
 30
0.0
  0
SEQEND
  5
A3E
100
AcDbEntity
  8
1
  0
LINE
  5
3A3
100
AcDbEntity
  8
1
100
AcDbLine
 10
-170.77938
 20
-152.040006
 30
0.0
 11
-170.77938
 21
-149.591245
 31
0.0
  0
LINE
  5
3A4
100
AcDbEntity
  8
1
100
AcDbLine
 10
-194.013892
 20
-152.040006
 30
0.0
 11
-194.013892
 21
-149.591245
 31
0.0
  0
LINE
  5
3A5
100
AcDbEntity
  8
1
100
AcDbLine
 10
-193.764502
 20
-149.582886
 30
0.0
 11
-171.028458
 21
-149.582927
 31
0.0
  0
ARC
  5
3A6
100
AcDbEntity
  8
1
100
AcDbCircle
 10
-182.396636
 20
-173.132707
 30
0.0
 40
26.15
100
AcDbArc
 50
115.767219
 51
244.232781
  0
ARC
  5
3A7
100
AcDbEntity
  8
1
100
AcDbCircle
 10
-182.396636
 20
-173.132707
 30
0.0
 40
26.15
100
AcDbArc
 50
295.767702
 51
64.232298
  0
LINE
  5
3A8
100
AcDbEntity
  8
1
100
AcDbLine
 10
-160.658479
 20
-181.98243
 30
0.0
 11
-176.82198
 21
-183.131359
 31
0.0
  0
LINE
  5
3A9
100
AcDbEntity
  8
1
100
AcDbLine
 10
-176.82198
 20
-183.131359
 30
0.0
 11
-176.822972
 21
-183.12208
 31
0.0
  0
LINE
  5
3AA
100
AcDbEntity
  8
1
100
AcDbLine
 10
-190.940608
 20
-192.055562
 30
0.0
 11
-173.852663
 21
-192.055562
 31
0.0
  0
LINE
  5
3AB
100
AcDbEntity
  8
1
100
AcDbLine
 10
-170.77938
 20
-193.787613
 30
0.0
 11
-191.795006
 21
-193.787613
 31
0.0
  0
LINE
  5
3AC
100
AcDbEntity
  8
1
100
AcDbLine
 10
-198.534952
 20
-192.055562
 30
0.0
 11
-198.515118
 21
-192.059169
 31
0.0
  0
LINE
  5
3AD
100
AcDbEntity
  8
1
100
AcDbLine
 10
-198.520168
 20
-192.065671
 30
0.0
 11
-198.534952
 21
-192.055562
 31
0.0
  0
LINE
  5
3AE
100
AcDbEntity
  8
1
100
AcDbLine
 10
-193.436854
 20
-192.055562
 30
0.0
 11
-190.940608
 21
-192.055562
 31
0.0
  0
LINE
  5
3AF
100
AcDbEntity
  8
1
100
AcDbLine
 10
-192.971749
 20
-191.904282
 30
0.0
 11
-193.436854
 21
-192.055562
 31
0.0
  0
LINE
  5
3B0
100
AcDbEntity
  8
1
100
AcDbLine
 10
-191.795006
 20
-193.787613
 30
0.0
 11
-194.013891
 21
-193.787613
 31
0.0
  0
LINE
  5
3B1
100
AcDbEntity
  8
1
100
AcDbLine
 10
-192.17848
 20
-191.772753
 30
0.0
 11
-192.45547
 21
-191.785347
 31
0.0
  0
LINE
  5
3B2
100
AcDbEntity
  8
1
100
AcDbLine
 10
-192.45547
 20
-191.785347
 30
0.0
 11
-192.751899
 21
-191.84005
 31
0.0
  0
LINE
  5
3B3
100
AcDbEntity
  8
1
100
AcDbLine
 10
-192.751899
 20
-191.84005
 30
0.0
 11
-192.971749
 21
-191.904282
 31
0.0
  0
LINE
  5
3B4
100
AcDbEntity
  8
1
100
AcDbLine
 10
-191.874904
 20
-188.467463
 30
0.0
 11
-191.874904
 21
-191.055122
 31
0.0
  0
LINE
  5
3B5
100
AcDbEntity
  8
1
100
AcDbLine
 10
-166.278153
 20
-192.059169
 30
0.0
 11
-166.258319
 21
-192.055562
 31
0.0
  0
LINE
  5
3B6
100
AcDbEntity
  8
1
100
AcDbLine
 10
-166.258319
 20
-192.055562
 30
0.0
 11
-166.273103
 21
-192.065671
 31
0.0
  0
LINE
  5
3B7
100
AcDbEntity
  8
1
100
AcDbLine
 10
-163.274901
 20
-184.590063
 30
0.0
 11
-170.878185
 21
-185.261803
 31
0.0
  0
LINE
  5
3B8
100
AcDbEntity
  8
1
100
AcDbLine
 10
-180.505991
 20
-184.008299
 30
0.0
 11
-162.698856
 21
-182.435065
 31
0.0
  0
LINE
  5
3B9
100
AcDbEntity
  8
1
100
AcDbLine
 10
-186.689529
 20
-191.055122
 30
0.0
 11
-186.689529
 21
-188.803198
 31
0.0
  0
LINE
  5
3BA
100
AcDbEntity
  8
1
100
AcDbLine
 10
-183.326386
 20
-183.625774
 30
0.0
 11
-183.360737
 21
-183.131389
 31
0.0
  0
LINE
  5
3BB
100
AcDbEntity
  8
1
100
AcDbLine
 10
-180.180922
 20
-183.364751
 30
0.0
 11
-180.566756
 21
-183.414923
 31
0.0
  0
LINE
  5
3BC
100
AcDbEntity
  8
1
100
AcDbLine
 10
-180.566756
 20
-183.414923
 30
0.0
 11
-180.976424
 21
-183.45768
 31
0.0
  0
LINE
  5
3BD
100
AcDbEntity
  8
1
100
AcDbLine
 10
-180.976424
 20
-183.45768
 30
0.0
 11
-181.398182
 21
-183.491795
 31
0.0
  0
LINE
  5
3BE
100
AcDbEntity
  8
1
100
AcDbLine
 10
-180.803553
 20
-184.033776
 30
0.0
 11
-180.505991
 21
-184.008299
 31
0.0
  0
LINE
  5
3BF
100
AcDbEntity
  8
1
100
AcDbLine
 10
-181.398182
 20
-183.491795
 30
0.0
 11
-181.432534
 21
-182.997411
 31
0.0
  0
LINE
  5
3C0
100
AcDbEntity
  8
1
100
AcDbLine
 10
-181.215414
 20
-184.061069
 30
0.0
 11
-181.01122
 21
-184.049476
 31
0.0
  0
LINE
  5
3C1
100
AcDbEntity
  8
1
100
AcDbLine
 10
-181.01122
 20
-184.049476
 30
0.0
 11
-180.803553
 21
-184.033776
 31
0.0
  0
LINE
  5
3C2
100
AcDbEntity
  8
1
100
AcDbLine
 10
-173.852663
 20
-192.055562
 30
0.0
 11
-171.356417
 21
-192.055562
 31
0.0
  0
LINE
  5
3C3
100
AcDbEntity
  8
1
100
AcDbLine
 10
-170.878185
 20
-185.261803
 30
0.0
 11
-170.770233
 21
-185.27076
 31
0.0
  0
LINE
  5
3C4
100
AcDbEntity
  8
1
100
AcDbLine
 10
-170.867533
 20
-185.242787
 30
0.0
 11
-170.878185
 21
-185.261803
 31
0.0
  0
LINE
  5
3C5
100
AcDbEntity
  8
1
100
AcDbLine
 10
-162.221027
 20
-183.181712
 30
0.0
 11
-162.885078
 21
-184.34059
 31
0.0
  0
LINE
  5
3C6
100
AcDbEntity
  8
1
100
AcDbLine
 10
-168.945093
 20
-185.428677
 30
0.0
 11
-161.372138
 21
-184.65258
 31
0.0
  0
LINE
  5
3C7
100
AcDbEntity
  8
1
100
AcDbLine
 10
-160.97199
 20
-184.370796
 30
0.0
 11
-160.171905
 21
-182.696783
 31
0.0
  0
POLYLINE
  5
3C8
100
AcDbEntity
  8
1
100
AcDb2dPolyline
 66
     1
 10
0.0
 20
0.0
 30
0.0
  0
VERTEX
  5
A3F
100
AcDbEntity
  8
1
100
AcDbVertex
100
AcDb2dVertex
 10
-170.878185
 20
-185.261803
 30
0.0
  0
VERTEX
  5
A40
100
AcDbEntity
  8
1
100
AcDbVertex
100
AcDb2dVertex
 10
-171.022136
 20
-185.280354
 30
0.0
  0
VERTEX
  5
A41
100
AcDbEntity
  8
1
100
AcDbVertex
100
AcDb2dVertex
 10
-171.166026
 20
-185.299209
 30
0.0
  0
VERTEX
  5
A42
100
AcDbEntity
  8
1
100
AcDbVertex
100
AcDb2dVertex
 10
-171.309793
 20
-185.31867
 30
0.0
  0
VERTEX
  5
A43
100
AcDbEntity
  8
1
100
AcDbVertex
100
AcDb2dVertex
 10
-171.739746
 20
-185.383726
 30
0.0
  0
VERTEX
  5
A44
100
AcDbEntity
  8
1
100
AcDbVertex
100
AcDb2dVertex
 10
-171.88241
 20
-185.408647
 30
0.0
  0
VERTEX
  5
A45
100
AcDbEntity
  8
1
100
AcDbVertex
100
AcDb2dVertex
 10
-172.024645
 20
-185.435691
 30
0.0
  0
VERTEX
  5
A46
100
AcDbEntity
  8
1
100
AcDbVertex
100
AcDb2dVertex
 10
-172.16639
 20
-185.465162
 30
0.0
  0
VERTEX
  5
A47
100
AcDbEntity
  8
1
100
AcDbVertex
100
AcDb2dVertex
 10
-172.307752
 20
-185.497328
 30
0.0
  0
VERTEX
  5
A48
100
AcDbEntity
  8
1
100
AcDbVertex
100
AcDb2dVertex
 10
-172.448555
 20
-185.532098
 30
0.0
  0
VERTEX
  5
A49
100
AcDbEntity
  8
1
100
AcDbVertex
100
AcDb2dVertex
 10
-172.588791
 20
-185.569339
 30
0.0
  0
VERTEX
  5
A4A
100
AcDbEntity
  8
1
100
AcDbVertex
100
AcDb2dVertex
 10
-173.00602
 20
-185.694573
 30
0.0
  0
VERTEX
  5
A4B
100
AcDbEntity
  8
1
100
AcDbVertex
100
AcDb2dVertex
 10
-173.143914
 20
-185.740379
 30
0.0
  0
VERTEX
  5
A4C
100
AcDbEntity
  8
1
100
AcDbVertex
100
AcDb2dVertex
 10
-173.281204
 20
-185.787997
 30
0.0
  0
VERTEX
  5
A4D
100
AcDbEntity
  8
1
100
AcDbVertex
100
AcDb2dVertex
 10
-173.417884
 20
-185.837293
 30
0.0
  0
VERTEX
  5
A4E
100
AcDbEntity
  8
1
100
AcDbVertex
100
AcDb2dVertex
 10
-173.572637
 20
-185.895279
 30
0.0
  0
VERTEX
  5
A4F
100
AcDbEntity
  8
1
100
AcDbVertex
100
AcDb2dVertex
 10
-173.726583
 20
-185.955237
 30
0.0
  0
VERTEX
  5
A50
100
AcDbEntity
  8
1
100
AcDbVertex
100
AcDb2dVertex
 10
-173.879715
 20
-186.017137
 30
0.0
  0
VERTEX
  5
A51
100
AcDbEntity
  8
1
100
AcDbVertex
100
AcDb2dVertex
 10
-174.334154
 20
-186.214192
 30
0.0
  0
VERTEX
  5
A52
100
AcDbEntity
  8
1
100
AcDbVertex
100
AcDb2dVertex
 10
-174.483958
 20
-186.283562
 30
0.0
  0
VERTEX
  5
A53
100
AcDbEntity
  8
1
100
AcDbVertex
100
AcDb2dVertex
 10
-174.632912
 20
-186.354725
 30
0.0
  0
VERTEX
  5
A54
100
AcDbEntity
  8
1
100
AcDbVertex
100
AcDb2dVertex
 10
-174.78101
 20
-186.427651
 30
0.0
  0
VERTEX
  5
A55
100
AcDbEntity
  8
1
100
AcDbVertex
100
AcDb2dVertex
 10
-174.928965
 20
-186.502676
 30
0.0
  0
VERTEX
  5
A56
100
AcDbEntity
  8
1
100
AcDbVertex
100
AcDb2dVertex
 10
-175.076058
 20
-186.579393
 30
0.0
  0
VERTEX
  5
A57
100
AcDbEntity
  8
1
100
AcDbVertex
100
AcDb2dVertex
 10
-175.222298
 20
-186.657745
 30
0.0
  0
VERTEX
  5
A58
100
AcDbEntity
  8
1
100
AcDbVertex
100
AcDb2dVertex
 10
-175.655998
 20
-186.902029
 30
0.0
  0
VERTEX
  5
A59
100
AcDbEntity
  8
1
100
AcDbVertex
100
AcDb2dVertex
 10
-175.798924
 20
-186.986341
 30
0.0
  0
VERTEX
  5
A5A
100
AcDbEntity
  8
1
100
AcDbVertex
100
AcDb2dVertex
 10
-175.941046
 20
-187.071997
 30
0.0
  0
VERTEX
  5
A5B
100
AcDbEntity
  8
1
100
AcDbVertex
100
AcDb2dVertex
 10
-176.082375
 20
-187.158942
 30
0.0
  0
VERTEX
  5
A5C
100
AcDbEntity
  8
1
100
AcDbVertex
100
AcDb2dVertex
 10
-176.293101
 20
-187.291782
 30
0.0
  0
VERTEX
  5
A5D
100
AcDbEntity
  8
1
100
AcDbVertex
100
AcDb2dVertex
 10
-176.502115
 20
-187.427261
 30
0.0
  0
VERTEX
  5
A5E
100
AcDbEntity
  8
1
100
AcDbVertex
100
AcDb2dVertex
 10
-176.709472
 20
-187.565246
 30
0.0
  0
VERTEX
  5
A5F
100
AcDbEntity
  8
1
100
AcDbVertex
100
AcDb2dVertex
 10
-176.915227
 20
-187.705603
 30
0.0
  0
VERTEX
  5
A60
100
AcDbEntity
  8
1
100
AcDbVertex
100
AcDb2dVertex
 10
-177.119436
 20
-187.848199
 30
0.0
  0
VERTEX
  5
A61
100
AcDbEntity
  8
1
100
AcDbVertex
100
AcDb2dVertex
 10
-177.322154
 20
-187.992902
 30
0.0
  0
VERTEX
  5
A62
100
AcDbEntity
  8
1
100
AcDbVertex
100
AcDb2dVertex
 10
-177.530987
 20
-188.145141
 30
0.0
  0
VERTEX
  5
A63
100
AcDbEntity
  8
1
100
AcDbVertex
100
AcDb2dVertex
 10
-177.738339
 20
-188.299386
 30
0.0
  0
VERTEX
  5
A64
100
AcDbEntity
  8
1
100
AcDbVertex
100
AcDb2dVertex
 10
-177.944275
 20
-188.45552
 30
0.0
  0
VERTEX
  5
A65
100
AcDbEntity
  8
1
100
AcDbVertex
100
AcDb2dVertex
 10
-178.148859
 20
-188.613425
 30
0.0
  0
VERTEX
  5
A66
100
AcDbEntity
  8
1
100
AcDbVertex
100
AcDb2dVertex
 10
-178.352155
 20
-188.772982
 30
0.0
  0
VERTEX
  5
A67
100
AcDbEntity
  8
1
100
AcDbVertex
100
AcDb2dVertex
 10
-178.554228
 20
-188.934075
 30
0.0
  0
VERTEX
  5
A68
100
AcDbEntity
  8
1
100
AcDbVertex
100
AcDb2dVertex
 10
-178.75216
 20
-189.094152
 30
0.0
  0
VERTEX
  5
A69
100
AcDbEntity
  8
1
100
AcDbVertex
100
AcDb2dVertex
 10
-178.949057
 20
-189.255492
 30
0.0
  0
VERTEX
  5
A6A
100
AcDbEntity
  8
1
100
AcDbVertex
100
AcDb2dVertex
 10
-179.145007
 20
-189.417981
 30
0.0
  0
VERTEX
  5
A6B
100
AcDbEntity
  8
1
100
AcDbVertex
100
AcDb2dVertex
 10
-179.728066
 20
-189.911219
 30
0.0
  0
VERTEX
  5
A6C
100
AcDbEntity
  8
1
100
AcDbVertex
100
AcDb2dVertex
 10
-179.921117
 20
-190.077179
 30
0.0
  0
VERTEX
  5
A6D
100
AcDbEntity
  8
1
100
AcDbVertex
100
AcDb2dVertex
 10
-180.113665
 20
-190.243725
 30
0.0
  0
VERTEX
  5
A6E
100
AcDbEntity
  8
1
100
AcDbVertex
100
AcDb2dVertex
 10
-180.3058
 20
-190.410745
 30
0.0
  0
VERTEX
  5
A6F
100
AcDbEntity
  8
1
100
AcDbVertex
100
AcDb2dVertex
 10
-180.308721
 20
-190.41329
 30
0.0
  0
VERTEX
  5
A70
100
AcDbEntity
  8
1
100
AcDbVertex
100
AcDb2dVertex
 10
-180.311642
 20
-190.415835
 30
0.0
  0
VERTEX
  5
A71
100
AcDbEntity
  8
1
100
AcDbVertex
100
AcDb2dVertex
 10
-180.314564
 20
-190.41838
 30
0.0
  0
SEQEND
  5
A72
100
AcDbEntity
  8
1
  0
POLYLINE
  5
3FD
100
AcDbEntity
  8
1
100
AcDb2dPolyline
 66
     1
 10
0.0
 20
0.0
 30
0.0
  0
VERTEX
  5
A73
100
AcDbEntity
  8
1
100
AcDbVertex
100
AcDb2dVertex
 10
-170.770233
 20
-185.27076
 30
0.0
  0
VERTEX
  5
A74
100
AcDbEntity
  8
1
100
AcDbVertex
100
AcDb2dVertex
 10
-170.816641
 20
-185.280554
 30
0.0
  0
VERTEX
  5
A75
100
AcDbEntity
  8
1
100
AcDbVertex
100
AcDb2dVertex
 10
-170.863032
 20
-185.290407
 30
0.0
  0
VERTEX
  5
A76
100
AcDbEntity
  8
1
100
AcDbVertex
100
AcDb2dVertex
 10
-170.90939
 20
-185.300375
 30
0.0
  0
VERTEX
  5
A77
100
AcDbEntity
  8
1
100
AcDbVertex
100
AcDb2dVertex
 10
-171.048096
 20
-185.331554
 30
0.0
  0
VERTEX
  5
A78
100
AcDbEntity
  8
1
100
AcDbVertex
100
AcDb2dVertex
 10
-171.1859
 20
-185.365858
 30
0.0
  0
VERTEX
  5
A79
100
AcDbEntity
  8
1
100
AcDbVertex
100
AcDb2dVertex
 10
-171.231556
 20
-185.378257
 30
0.0
  0
VERTEX
  5
A7A
100
AcDbEntity
  8
1
100
AcDbVertex
100
AcDb2dVertex
 10
-171.277045
 20
-185.391236
 30
0.0
  0
VERTEX
  5
A7B
100
AcDbEntity
  8
1
100
AcDbVertex
100
AcDb2dVertex
 10
-171.322351
 20
-185.404851
 30
0.0
  0
VERTEX
  5
A7C
100
AcDbEntity
  8
1
100
AcDbVertex
100
AcDb2dVertex
 10
-171.368065
 20
-185.419345
 30
0.0
  0
VERTEX
  5
A7D
100
AcDbEntity
  8
1
100
AcDbVertex
100
AcDb2dVertex
 10
-171.41357
 20
-185.434531
 30
0.0
  0
VERTEX
  5
A7E
100
AcDbEntity
  8
1
100
AcDbVertex
100
AcDb2dVertex
 10
-171.458864
 20
-185.450388
 30
0.0
  0
VERTEX
  5
A7F
100
AcDbEntity
  8
1
100
AcDbVertex
100
AcDb2dVertex
 10
-171.593452
 20
-185.501773
 30
0.0
  0
VERTEX
  5
A80
100
AcDbEntity
  8
1
100
AcDbVertex
100
AcDb2dVertex
 10
-171.726043
 20
-185.55843
 30
0.0
  0
VERTEX
  5
A81
100
AcDbEntity
  8
1
100
AcDbVertex
100
AcDb2dVertex
 10
-171.769783
 20
-185.578388
 30
0.0
  0
VERTEX
  5
A82
100
AcDbEntity
  8
1
100
AcDbVertex
100
AcDb2dVertex
 10
-171.813292
 20
-185.598846
 30
0.0
  0
VERTEX
  5
A83
100
AcDbEntity
  8
1
100
AcDbVertex
100
AcDb2dVertex
 10
-171.856565
 20
-185.619785
 30
0.0
  0
VERTEX
  5
A84
100
AcDbEntity
  8
1
100
AcDbVertex
100
AcDb2dVertex
 10
-171.900316
 20
-185.641546
 30
0.0
  0
VERTEX
  5
A85
100
AcDbEntity
  8
1
100
AcDbVertex
100
AcDb2dVertex
 10
-171.943816
 20
-185.663779
 30
0.0
  0
VERTEX
  5
A86
100
AcDbEntity
  8
1
100
AcDbVertex
100
AcDb2dVertex
 10
-171.98706
 20
-185.686485
 30
0.0
  0
VERTEX
  5
A87
100
AcDbEntity
  8
1
100
AcDbVertex
100
AcDb2dVertex
 10
-172.115205
 20
-185.757427
 30
0.0
  0
VERTEX
  5
A88
100
AcDbEntity
  8
1
100
AcDbVertex
100
AcDb2dVertex
 10
-172.240862
 20
-185.832588
 30
0.0
  0
VERTEX
  5
A89
100
AcDbEntity
  8
1
100
AcDbVertex
100
AcDb2dVertex
 10
-172.282171
 20
-185.858576
 30
0.0
  0
VERTEX
  5
A8A
100
AcDbEntity
  8
1
100
AcDbVertex
100
AcDb2dVertex
 10
-172.323184
 20
-185.88503
 30
0.0
  0
VERTEX
  5
A8B
100
AcDbEntity
  8
1
100
AcDbVertex
100
AcDb2dVertex
 10
-172.363895
 20
-185.911949
 30
0.0
  0
VERTEX
  5
A8C
100
AcDbEntity
  8
1
100
AcDbVertex
100
AcDb2dVertex
 10
-172.405044
 20
-185.939842
 30
0.0
  0
VERTEX
  5
A8D
100
AcDbEntity
  8
1
100
AcDbVertex
100
AcDb2dVertex
 10
-172.445872
 20
-185.968209
 30
0.0
  0
VERTEX
  5
A8E
100
AcDbEntity
  8
1
100
AcDbVertex
100
AcDb2dVertex
 10
-172.486375
 20
-185.997045
 30
0.0
  0
VERTEX
  5
A8F
100
AcDbEntity
  8
1
100
AcDbVertex
100
AcDb2dVertex
 10
-172.605909
 20
-186.086284
 30
0.0
  0
VERTEX
  5
A90
100
AcDbEntity
  8
1
100
AcDbVertex
100
AcDb2dVertex
 10
-172.722415
 20
-186.179476
 30
0.0
  0
VERTEX
  5
A91
100
AcDbEntity
  8
1
100
AcDbVertex
100
AcDb2dVertex
 10
-172.760564
 20
-186.211386
 30
0.0
  0
VERTEX
  5
A92
100
AcDbEntity
  8
1
100
AcDbVertex
100
AcDb2dVertex
 10
-172.798364
 20
-186.243707
 30
0.0
  0
VERTEX
  5
A93
100
AcDbEntity
  8
1
100
AcDbVertex
100
AcDb2dVertex
 10
-172.835813
 20
-186.276432
 30
0.0
  0
VERTEX
  5
A94
100
AcDbEntity
  8
1
100
AcDbVertex
100
AcDb2dVertex
 10
-172.873606
 20
-186.310185
 30
0.0
  0
VERTEX
  5
A95
100
AcDbEntity
  8
1
100
AcDbVertex
100
AcDb2dVertex
 10
-172.91103
 20
-186.344346
 30
0.0
  0
VERTEX
  5
A96
100
AcDbEntity
  8
1
100
AcDbVertex
100
AcDb2dVertex
 10
-172.948081
 20
-186.378907
 30
0.0
  0
VERTEX
  5
A97
100
AcDbEntity
  8
1
100
AcDbVertex
100
AcDb2dVertex
 10
-173.056974
 20
-186.484944
 30
0.0
  0
VERTEX
  5
A98
100
AcDbEntity
  8
1
100
AcDbVertex
100
AcDb2dVertex
 10
-173.162431
 20
-186.594394
 30
0.0
  0
VERTEX
  5
A99
100
AcDbEntity
  8
1
100
AcDbVertex
100
AcDb2dVertex
 10
-173.196809
 20
-186.63161
 30
0.0
  0
VERTEX
  5
A9A
100
AcDbEntity
  8
1
100
AcDbVertex
100
AcDb2dVertex
 10
-173.230795
 20
-186.669183
 30
0.0
  0
VERTEX
  5
A9B
100
AcDbEntity
  8
1
100
AcDbVertex
100
AcDb2dVertex
 10
-173.264389
 20
-186.707108
 30
0.0
  0
VERTEX
  5
A9C
100
AcDbEntity
  8
1
100
AcDbVertex
100
AcDb2dVertex
 10
-173.291457
 20
-186.738253
 30
0.0
  0
VERTEX
  5
A9D
100
AcDbEntity
  8
1
100
AcDbVertex
100
AcDb2dVertex
 10
-173.318263
 20
-186.769625
 30
0.0
  0
VERTEX
  5
A9E
100
AcDbEntity
  8
1
100
AcDbVertex
100
AcDb2dVertex
 10
-173.344804
 20
-186.80122
 30
0.0
  0
VERTEX
  5
A9F
100
AcDbEntity
  8
1
100
AcDbVertex
100
AcDb2dVertex
 10
-173.422836
 20
-186.897319
 30
0.0
  0
VERTEX
  5
AA0
100
AcDbEntity
  8
1
100
AcDbVertex
100
AcDb2dVertex
 10
-173.498463
 20
-186.995325
 30
0.0
  0
VERTEX
  5
AA1
100
AcDbEntity
  8
1
100
AcDbVertex
100
AcDb2dVertex
 10
-173.571664
 20
-187.095158
 30
0.0
  0
VERTEX
  5
AA2
100
AcDbEntity
  8
1
100
AcDbVertex
100
AcDb2dVertex
 10
-173.595522
 20
-187.128828
 30
0.0
  0
VERTEX
  5
AA3
100
AcDbEntity
  8
1
100
AcDbVertex
100
AcDb2dVertex
 10
-173.619106
 20
-187.162689
 30
0.0
  0
VERTEX
  5
AA4
100
AcDbEntity
  8
1
100
AcDbVertex
100
AcDb2dVertex
 10
-173.642418
 20
-187.196738
 30
0.0
  0
VERTEX
  5
AA5
100
AcDbEntity
  8
1
100
AcDbVertex
100
AcDb2dVertex
 10
-173.665824
 20
-187.231526
 30
0.0
  0
VERTEX
  5
AA6
100
AcDbEntity
  8
1
100
AcDbVertex
100
AcDb2dVertex
 10
-173.688948
 20
-187.266504
 30
0.0
  0
VERTEX
  5
AA7
100
AcDbEntity
  8
1
100
AcDbVertex
100
AcDb2dVertex
 10
-173.711787
 20
-187.301667
 30
0.0
  0
VERTEX
  5
AA8
100
AcDbEntity
  8
1
100
AcDbVertex
100
AcDb2dVertex
 10
-173.778596
 20
-187.408241
 30
0.0
  0
VERTEX
  5
AA9
100
AcDbEntity
  8
1
100
AcDbVertex
100
AcDb2dVertex
 10
-173.842833
 20
-187.516387
 30
0.0
  0
VERTEX
  5
AAA
100
AcDbEntity
  8
1
100
AcDbVertex
100
AcDb2dVertex
 10
-173.904487
 20
-187.626029
 30
0.0
  0
VERTEX
  5
AAB
100
AcDbEntity
  8
1
100
AcDbVertex
100
AcDb2dVertex
 10
-173.924462
 20
-187.662896
 30
0.0
  0
VERTEX
  5
AAC
100
AcDbEntity
  8
1
100
AcDbVertex
100
AcDb2dVertex
 10
-173.944149
 20
-187.699918
 30
0.0
  0
VERTEX
  5
AAD
100
AcDbEntity
  8
1
100
AcDbVertex
100
AcDb2dVertex
 10
-173.963547
 20
-187.737093
 30
0.0
  0
VERTEX
  5
AAE
100
AcDbEntity
  8
1
100
AcDbVertex
100
AcDb2dVertex
 10
-173.982907
 20
-187.774915
 30
0.0
  0
VERTEX
  5
AAF
100
AcDbEntity
  8
1
100
AcDbVertex
100
AcDb2dVertex
 10
-174.00197
 20
-187.812889
 30
0.0
  0
VERTEX
  5
AB0
100
AcDbEntity
  8
1
100
AcDbVertex
100
AcDb2dVertex
 10
-174.020734
 20
-187.851011
 30
0.0
  0
VERTEX
  5
AB1
100
AcDbEntity
  8
1
100
AcDbVertex
100
AcDb2dVertex
 10
-174.075229
 20
-187.966241
 30
0.0
  0
VERTEX
  5
AB2
100
AcDbEntity
  8
1
100
AcDbVertex
100
AcDb2dVertex
 10
-174.127013
 20
-188.082712
 30
0.0
  0
VERTEX
  5
AB3
100
AcDbEntity
  8
1
100
AcDbVertex
100
AcDb2dVertex
 10
-174.176068
 20
-188.200352
 30
0.0
  0
VERTEX
  5
AB4
100
AcDbEntity
  8
1
100
AcDbVertex
100
AcDb2dVertex
 10
-174.19181
 20
-188.239812
 30
0.0
  0
VERTEX
  5
AB5
100
AcDbEntity
  8
1
100
AcDbVertex
100
AcDb2dVertex
 10
-174.207247
 20
-188.279393
 30
0.0
  0
VERTEX
  5
AB6
100
AcDbEntity
  8
1
100
AcDbVertex
100
AcDb2dVertex
 10
-174.222378
 20
-188.31909
 30
0.0
  0
VERTEX
  5
AB7
100
AcDbEntity
  8
1
100
AcDbVertex
100
AcDb2dVertex
 10
-174.237346
 20
-188.359294
 30
0.0
  0
VERTEX
  5
AB8
100
AcDbEntity
  8
1
100
AcDbVertex
100
AcDb2dVertex
 10
-174.252002
 20
-188.399612
 30
0.0
  0
VERTEX
  5
AB9
100
AcDbEntity
  8
1
100
AcDbVertex
100
AcDb2dVertex
 10
-174.266347
 20
-188.440041
 30
0.0
  0
VERTEX
  5
ABA
100
AcDbEntity
  8
1
100
AcDbVertex
100
AcDb2dVertex
 10
-174.307524
 20
-188.561971
 30
0.0
  0
VERTEX
  5
ABB
100
AcDbEntity
  8
1
100
AcDbVertex
100
AcDb2dVertex
 10
-174.345934
 20
-188.684812
 30
0.0
  0
VERTEX
  5
ABC
100
AcDbEntity
  8
1
100
AcDbVertex
100
AcDb2dVertex
 10
-174.381605
 20
-188.808493
 30
0.0
  0
VERTEX
  5
ABD
100
AcDbEntity
  8
1
100
AcDbVertex
100
AcDb2dVertex
 10
-174.39289
 20
-188.849895
 30
0.0
  0
VERTEX
  5
ABE
100
AcDbEntity
  8
1
100
AcDbVertex
100
AcDb2dVertex
 10
-174.403875
 20
-188.89138
 30
0.0
  0
VERTEX
  5
ABF
100
AcDbEntity
  8
1
100
AcDbVertex
100
AcDb2dVertex
 10
-174.414561
 20
-188.932946
 30
0.0
  0
VERTEX
  5
AC0
100
AcDbEntity
  8
1
100
AcDbVertex
100
AcDb2dVertex
 10
-174.427571
 20
-188.985323
 30
0.0
  0
VERTEX
  5
AC1
100
AcDbEntity
  8
1
100
AcDbVertex
100
AcDb2dVertex
 10
-174.4401
 20
-189.037819
 30
0.0
  0
VERTEX
  5
AC2
100
AcDbEntity
  8
1
100
AcDbVertex
100
AcDb2dVertex
 10
-174.452138
 20
-189.09043
 30
0.0
  0
VERTEX
  5
AC3
100
AcDbEntity
  8
1
100
AcDbVertex
100
AcDb2dVertex
 10
-174.485214
 20
-189.248905
 30
0.0
  0
VERTEX
  5
AC4
100
AcDbEntity
  8
1
100
AcDbVertex
100
AcDb2dVertex
 10
-174.513539
 20
-189.40825
 30
0.0
  0
VERTEX
  5
AC5
100
AcDbEntity
  8
1
100
AcDbVertex
100
AcDb2dVertex
 10
-174.521882
 20
-189.461538
 30
0.0
  0
VERTEX
  5
AC6
100
AcDbEntity
  8
1
100
AcDbVertex
100
AcDb2dVertex
 10
-174.529661
 20
-189.514904
 30
0.0
  0
VERTEX
  5
AC7
100
AcDbEntity
  8
1
100
AcDbVertex
100
AcDb2dVertex
 10
-174.536865
 20
-189.568345
 30
0.0
  0
VERTEX
  5
AC8
100
AcDbEntity
  8
1
100
AcDbVertex
100
AcDb2dVertex
 10
-174.543503
 20
-189.621951
 30
0.0
  0
VERTEX
  5
AC9
100
AcDbEntity
  8
1
100
AcDbVertex
100
AcDb2dVertex
 10
-174.54959
 20
-189.675621
 30
0.0
  0
VERTEX
  5
ACA
100
AcDbEntity
  8
1
100
AcDbVertex
100
AcDb2dVertex
 10
-174.555156
 20
-189.72935
 30
0.0
  0
VERTEX
  5
ACB
100
AcDbEntity
  8
1
100
AcDbVertex
100
AcDb2dVertex
 10
-174.56906
 20
-189.890831
 30
0.0
  0
VERTEX
  5
ACC
100
AcDbEntity
  8
1
100
AcDbVertex
100
AcDb2dVertex
 10
-174.579458
 20
-190.052634
 30
0.0
  0
VERTEX
  5
ACD
100
AcDbEntity
  8
1
100
AcDbVertex
100
AcDb2dVertex
 10
-174.582298
 20
-190.106614
 30
0.0
  0
VERTEX
  5
ACE
100
AcDbEntity
  8
1
100
AcDbVertex
100
AcDb2dVertex
 10
-174.584879
 20
-190.160606
 30
0.0
  0
VERTEX
  5
ACF
100
AcDbEntity
  8
1
100
AcDbVertex
100
AcDb2dVertex
 10
-174.587234
 20
-190.214606
 30
0.0
  0
VERTEX
  5
AD0
100
AcDbEntity
  8
1
100
AcDbVertex
100
AcDb2dVertex
 10
-174.58955
 20
-190.273314
 30
0.0
  0
VERTEX
  5
AD1
100
AcDbEntity
  8
1
100
AcDbVertex
100
AcDb2dVertex
 10
-174.591534
 20
-190.332025
 30
0.0
  0
VERTEX
  5
AD2
100
AcDbEntity
  8
1
100
AcDbVertex
100
AcDb2dVertex
 10
-174.593078
 20
-190.390739
 30
0.0
  0
VERTEX
  5
AD3
100
AcDbEntity
  8
1
100
AcDbVertex
100
AcDb2dVertex
 10
-174.594024
 20
-190.566908
 30
0.0
  0
VERTEX
  5
AD4
100
AcDbEntity
  8
1
100
AcDbVertex
100
AcDb2dVertex
 10
-174.592761
 20
-190.625643
 30
0.0
  0
VERTEX
  5
AD5
100
AcDbEntity
  8
1
100
AcDbVertex
100
AcDb2dVertex
 10
-174.590532
 20
-190.684385
 30
0.0
  0
VERTEX
  5
AD6
100
AcDbEntity
  8
1
100
AcDbVertex
100
AcDb2dVertex
 10
-174.587234
 20
-190.743135
 30
0.0
  0
VERTEX
  5
AD7
100
AcDbEntity
  8
1
100
AcDbVertex
100
AcDb2dVertex
 10
-174.583257
 20
-190.795469
 30
0.0
  0
VERTEX
  5
AD8
100
AcDbEntity
  8
1
100
AcDbVertex
100
AcDb2dVertex
 10
-174.577974
 20
-190.847677
 30
0.0
  0
VERTEX
  5
AD9
100
AcDbEntity
  8
1
100
AcDbVertex
100
AcDb2dVertex
 10
-174.571008
 20
-190.899622
 30
0.0
  0
VERTEX
  5
ADA
100
AcDbEntity
  8
1
100
AcDbVertex
100
AcDb2dVertex
 10
-174.561986
 20
-190.951172
 30
0.0
  0
VERTEX
  5
ADB
100
AcDbEntity
  8
1
100
AcDbVertex
100
AcDb2dVertex
 10
-174.550534
 20
-191.002191
 30
0.0
  0
VERTEX
  5
ADC
100
AcDbEntity
  8
1
100
AcDbVertex
100
AcDb2dVertex
 10
-174.54204
 20
-191.03361
 30
0.0
  0
VERTEX
  5
ADD
100
AcDbEntity
  8
1
100
AcDbVertex
100
AcDb2dVertex
 10
-174.532513
 20
-191.064753
 30
0.0
  0
VERTEX
  5
ADE
100
AcDbEntity
  8
1
100
AcDbVertex
100
AcDb2dVertex
 10
-174.522006
 20
-191.095603
 30
0.0
  0
VERTEX
  5
ADF
100
AcDbEntity
  8
1
100
AcDbVertex
100
AcDb2dVertex
 10
-174.510573
 20
-191.126142
 30
0.0
  0
VERTEX
  5
AE0
100
AcDbEntity
  8
1
100
AcDbVertex
100
AcDb2dVertex
 10
-174.490826
 20
-191.173458
 30
0.0
  0
VERTEX
  5
AE1
100
AcDbEntity
  8
1
100
AcDbVertex
100
AcDb2dVertex
 10
-174.468951
 20
-191.219844
 30
0.0
  0
VERTEX
  5
AE2
100
AcDbEntity
  8
1
100
AcDbVertex
100
AcDb2dVertex
 10
-174.444977
 20
-191.265184
 30
0.0
  0
VERTEX
  5
AE3
100
AcDbEntity
  8
1
100
AcDbVertex
100
AcDb2dVertex
 10
-174.418935
 20
-191.309364
 30
0.0
  0
VERTEX
  5
AE4
100
AcDbEntity
  8
1
100
AcDbVertex
100
AcDb2dVertex
 10
-174.390855
 20
-191.352268
 30
0.0
  0
VERTEX
  5
AE5
100
AcDbEntity
  8
1
100
AcDbVertex
100
AcDb2dVertex
 10
-174.372666
 20
-191.37784
 30
0.0
  0
VERTEX
  5
AE6
100
AcDbEntity
  8
1
100
AcDbVertex
100
AcDb2dVertex
 10
-174.353682
 20
-191.402803
 30
0.0
  0
VERTEX
  5
AE7
100
AcDbEntity
  8
1
100
AcDbVertex
100
AcDb2dVertex
 10
-174.33386
 20
-191.427071
 30
0.0
  0
VERTEX
  5
AE8
100
AcDbEntity
  8
1
100
AcDbVertex
100
AcDb2dVertex
 10
-174.313156
 20
-191.450556
 30
0.0
  0
VERTEX
  5
AE9
100
AcDbEntity
  8
1
100
AcDbVertex
100
AcDb2dVertex
 10
-174.284744
 20
-191.480093
 30
0.0
  0
VERTEX
  5
AEA
100
AcDbEntity
  8
1
100
AcDbVertex
100
AcDb2dVertex
 10
-174.255276
 20
-191.508636
 30
0.0
  0
VERTEX
  5
AEB
100
AcDbEntity
  8
1
100
AcDbVertex
100
AcDb2dVertex
 10
-174.225279
 20
-191.536681
 30
0.0
  0
SEQEND
  5
AEC
100
AcDbEntity
  8
1
  0
POLYLINE
  5
478
100
AcDbEntity
  8
1
100
AcDb2dPolyline
 66
     1
 10
0.0
 20
0.0
 30
0.0
  0
VERTEX
  5
AED
100
AcDbEntity
  8
1
100
AcDbVertex
100
AcDb2dVertex
 10
-168.945093
 20
-185.428677
 30
0.0
  0
VERTEX
  5
AEE
100
AcDbEntity
  8
1
100
AcDbVertex
100
AcDb2dVertex
 10
-168.992994
 20
-185.435768
 30
0.0
  0
VERTEX
  5
AEF
100
AcDbEntity
  8
1
100
AcDbVertex
100
AcDb2dVertex
 10
-169.040889
 20
-185.442892
 30
0.0
  0
VERTEX
  5
AF0
100
AcDbEntity
  8
1
100
AcDbVertex
100
AcDb2dVertex
 10
-169.088771
 20
-185.450081
 30
0.0
  0
VERTEX
  5
AF1
100
AcDbEntity
  8
1
100
AcDbVertex
100
AcDb2dVertex
 10
-169.232263
 20
-185.472368
 30
0.0
  0
VERTEX
  5
AF2
100
AcDbEntity
  8
1
100
AcDbVertex
100
AcDb2dVertex
 10
-169.375384
 20
-185.49642
 30
0.0
  0
VERTEX
  5
AF3
100
AcDbEntity
  8
1
100
AcDbVertex
100
AcDb2dVertex
 10
-169.517948
 20
-185.523119
 30
0.0
  0
VERTEX
  5
AF4
100
AcDbEntity
  8
1
100
AcDbVertex
100
AcDb2dVertex
 10
-169.565313
 20
-185.53276
 30
0.0
  0
VERTEX
  5
AF5
100
AcDbEntity
  8
1
100
AcDbVertex
100
AcDb2dVertex
 10
-169.612589
 20
-185.542825
 30
0.0
  0
VERTEX
  5
AF6
100
AcDbEntity
  8
1
100
AcDbVertex
100
AcDb2dVertex
 10
-169.659769
 20
-185.553348
 30
0.0
  0
VERTEX
  5
AF7
100
AcDbEntity
  8
1
100
AcDbVertex
100
AcDb2dVertex
 10
-169.706481
 20
-185.564267
 30
0.0
  0
VERTEX
  5
AF8
100
AcDbEntity
  8
1
100
AcDbVertex
100
AcDb2dVertex
 10
-169.75309
 20
-185.575659
 30
0.0
  0
VERTEX
  5
AF9
100
AcDbEntity
  8
1
100
AcDbVertex
100
AcDb2dVertex
 10
-169.799592
 20
-185.587516
 30
0.0
  0
VERTEX
  5
AFA
100
AcDbEntity
  8
1
100
AcDbVertex
100
AcDb2dVertex
 10
-169.938437
 20
-185.625788
 30
0.0
  0
VERTEX
  5
AFB
100
AcDbEntity
  8
1
100
AcDbVertex
100
AcDb2dVertex
 10
-170.07624
 20
-185.667922
 30
0.0
  0
VERTEX
  5
AFC
100
AcDbEntity
  8
1
100
AcDbVertex
100
AcDb2dVertex
 10
-170.212937
 20
-185.713677
 30
0.0
  0
VERTEX
  5
AFD
100
AcDbEntity
  8
1
100
AcDbVertex
100
AcDb2dVertex
 10
-170.258246
 20
-185.729691
 30
0.0
  0
VERTEX
  5
AFE
100
AcDbEntity
  8
1
100
AcDbVertex
100
AcDb2dVertex
 10
-170.303423
 20
-185.746073
 30
0.0
  0
VERTEX
  5
AFF
100
AcDbEntity
  8
1
100
AcDbVertex
100
AcDb2dVertex
 10
-170.348465
 20
-185.762812
 30
0.0
  0
VERTEX
  5
B00
100
AcDbEntity
  8
1
100
AcDbVertex
100
AcDb2dVertex
 10
-170.40401
 20
-185.78401
 30
0.0
  0
VERTEX
  5
B01
100
AcDbEntity
  8
1
100
AcDbVertex
100
AcDb2dVertex
 10
-170.459338
 20
-185.805746
 30
0.0
  0
VERTEX
  5
B02
100
AcDbEntity
  8
1
100
AcDbVertex
100
AcDb2dVertex
 10
-170.514442
 20
-185.828023
 30
0.0
  0
VERTEX
  5
B03
100
AcDbEntity
  8
1
100
AcDbVertex
100
AcDb2dVertex
 10
-170.678338
 20
-185.898131
 30
0.0
  0
VERTEX
  5
B04
100
AcDbEntity
  8
1
100
AcDbVertex
100
AcDb2dVertex
 10
-170.839962
 20
-185.973226
 30
0.0
  0
VERTEX
  5
B05
100
AcDbEntity
  8
1
100
AcDbVertex
100
AcDb2dVertex
 10
-170.893298
 20
-185.999382
 30
0.0
  0
VERTEX
  5
B06
100
AcDbEntity
  8
1
100
AcDbVertex
100
AcDb2dVertex
 10
-170.946353
 20
-186.026105
 30
0.0
  0
VERTEX
  5
B07
100
AcDbEntity
  8
1
100
AcDbVertex
100
AcDb2dVertex
 10
-170.999121
 20
-186.053399
 30
0.0
  0
VERTEX
  5
B08
100
AcDbEntity
  8
1
100
AcDbVertex
100
AcDb2dVertex
 10
-171.050975
 20
-186.080934
 30
0.0
  0
VERTEX
  5
B09
100
AcDbEntity
  8
1
100
AcDbVertex
100
AcDb2dVertex
 10
-171.102534
 20
-186.109026
 30
0.0
  0
VERTEX
  5
B0A
100
AcDbEntity
  8
1
100
AcDbVertex
100
AcDb2dVertex
 10
-171.153791
 20
-186.137674
 30
0.0
  0
VERTEX
  5
B0B
100
AcDbEntity
  8
1
100
AcDbVertex
100
AcDb2dVertex
 10
-171.305678
 20
-186.22692
 30
0.0
  0
VERTEX
  5
B0C
100
AcDbEntity
  8
1
100
AcDbVertex
100
AcDb2dVertex
 10
-171.45459
 20
-186.321061
 30
0.0
  0
VERTEX
  5
B0D
100
AcDbEntity
  8
1
100
AcDbVertex
100
AcDb2dVertex
 10
-171.503534
 20
-186.353516
 30
0.0
  0
VERTEX
  5
B0E
100
AcDbEntity
  8
1
100
AcDbVertex
100
AcDb2dVertex
 10
-171.55212
 20
-186.386504
 30
0.0
  0
VERTEX
  5
B0F
100
AcDbEntity
  8
1
100
AcDbVertex
100
AcDb2dVertex
 10
-171.60034
 20
-186.420022
 30
0.0
  0
VERTEX
  5
B10
100
AcDbEntity
  8
1
100
AcDbVertex
100
AcDb2dVertex
 10
-171.647576
 20
-186.453627
 30
0.0
  0
VERTEX
  5
B11
100
AcDbEntity
  8
1
100
AcDbVertex
100
AcDb2dVertex
 10
-171.694445
 20
-186.487742
 30
0.0
  0
VERTEX
  5
B12
100
AcDbEntity
  8
1
100
AcDbVertex
100
AcDb2dVertex
 10
-171.740938
 20
-186.522365
 30
0.0
  0
VERTEX
  5
B13
100
AcDbEntity
  8
1
100
AcDbVertex
100
AcDb2dVertex
 10
-171.878115
 20
-186.629243
 30
0.0
  0
VERTEX
  5
B14
100
AcDbEntity
  8
1
100
AcDbVertex
100
AcDb2dVertex
 10
-172.011717
 20
-186.74057
 30
0.0
  0
VERTEX
  5
B15
100
AcDbEntity
  8
1
100
AcDbVertex
100
AcDb2dVertex
 10
-172.05543
 20
-186.778652
 30
0.0
  0
VERTEX
  5
B16
100
AcDbEntity
  8
1
100
AcDbVertex
100
AcDb2dVertex
 10
-172.098723
 20
-186.817215
 30
0.0
  0
VERTEX
  5
B17
100
AcDbEntity
  8
1
100
AcDbVertex
100
AcDb2dVertex
 10
-172.141591
 20
-186.856257
 30
0.0
  0
VERTEX
  5
B18
100
AcDbEntity
  8
1
100
AcDbVertex
100
AcDb2dVertex
 10
-172.183478
 20
-186.895258
 30
0.0
  0
VERTEX
  5
B19
100
AcDbEntity
  8
1
100
AcDbVertex
100
AcDb2dVertex
 10
-172.224935
 20
-186.934721
 30
0.0
  0
VERTEX
  5
B1A
100
AcDbEntity
  8
1
100
AcDbVertex
100
AcDb2dVertex
 10
-172.26595
 20
-186.974644
 30
0.0
  0
VERTEX
  5
B1B
100
AcDbEntity
  8
1
100
AcDbVertex
100
AcDb2dVertex
 10
-172.386232
 20
-187.097163
 30
0.0
  0
VERTEX
  5
B1C
100
AcDbEntity
  8
1
100
AcDbVertex
100
AcDb2dVertex
 10
-172.502145
 20
-187.223781
 30
0.0
  0
VERTEX
  5
B1D
100
AcDbEntity
  8
1
100
AcDbVertex
100
AcDb2dVertex
 10
-172.539761
 20
-187.266892
 30
0.0
  0
VERTEX
  5
B1E
100
AcDbEntity
  8
1
100
AcDbVertex
100
AcDb2dVertex
 10
-172.576848
 20
-187.310454
 30
0.0
  0
VERTEX
  5
B1F
100
AcDbEntity
  8
1
100
AcDbVertex
100
AcDb2dVertex
 10
-172.613395
 20
-187.354466
 30
0.0
  0
VERTEX
  5
B20
100
AcDbEntity
  8
1
100
AcDbVertex
100
AcDb2dVertex
 10
-172.648959
 20
-187.398379
 30
0.0
  0
VERTEX
  5
B21
100
AcDbEntity
  8
1
100
AcDbVertex
100
AcDb2dVertex
 10
-172.683995
 20
-187.442715
 30
0.0
  0
VERTEX
  5
B22
100
AcDbEntity
  8
1
100
AcDbVertex
100
AcDb2dVertex
 10
-172.718514
 20
-187.487457
 30
0.0
  0
VERTEX
  5
B23
100
AcDbEntity
  8
1
100
AcDbVertex
100
AcDb2dVertex
 10
-172.81906
 20
-187.623972
 30
0.0
  0
VERTEX
  5
B24
100
AcDbEntity
  8
1
100
AcDbVertex
100
AcDb2dVertex
 10
-172.915297
 20
-187.763598
 30
0.0
  0
VERTEX
  5
B25
100
AcDbEntity
  8
1
100
AcDbVertex
100
AcDb2dVertex
 10
-172.946464
 20
-187.81076
 30
0.0
  0
VERTEX
  5
B26
100
AcDbEntity
  8
1
100
AcDbVertex
100
AcDb2dVertex
 10
-172.977191
 20
-187.858206
 30
0.0
  0
VERTEX
  5
B27
100
AcDbEntity
  8
1
100
AcDbVertex
100
AcDb2dVertex
 10
-173.007489
 20
-187.905922
 30
0.0
  0
VERTEX
  5
B28
100
AcDbEntity
  8
1
100
AcDbVertex
100
AcDb2dVertex
 10
-173.034916
 20
-187.949925
 30
0.0
  0
VERTEX
  5
B29
100
AcDbEntity
  8
1
100
AcDbVertex
100
AcDb2dVertex
 10
-173.061993
 20
-187.994138
 30
0.0
  0
VERTEX
  5
B2A
100
AcDbEntity
  8
1
100
AcDbVertex
100
AcDb2dVertex
 10
-173.088726
 20
-188.038555
 30
0.0
  0
VERTEX
  5
B2B
100
AcDbEntity
  8
1
100
AcDbVertex
100
AcDb2dVertex
 10
-173.166897
 20
-188.172991
 30
0.0
  0
VERTEX
  5
B2C
100
AcDbEntity
  8
1
100
AcDbVertex
100
AcDb2dVertex
 10
-173.242117
 20
-188.309109
 30
0.0
  0
VERTEX
  5
B2D
100
AcDbEntity
  8
1
100
AcDbVertex
100
AcDb2dVertex
 10
-173.314502
 20
-188.446788
 30
0.0
  0
VERTEX
  5
B2E
100
AcDbEntity
  8
1
100
AcDbVertex
100
AcDb2dVertex
 10
-173.338021
 20
-188.493008
 30
0.0
  0
VERTEX
  5
B2F
100
AcDbEntity
  8
1
100
AcDbVertex
100
AcDb2dVertex
 10
-173.361242
 20
-188.539383
 30
0.0
  0
VERTEX
  5
B30
100
AcDbEntity
  8
1
100
AcDbVertex
100
AcDb2dVertex
 10
-173.38417
 20
-188.585909
 30
0.0
  0
VERTEX
  5
B31
100
AcDbEntity
  8
1
100
AcDbVertex
100
AcDb2dVertex
 10
-173.406535
 20
-188.632015
 30
0.0
  0
VERTEX
  5
B32
100
AcDbEntity
  8
1
100
AcDbVertex
100
AcDb2dVertex
 10
-173.428621
 20
-188.678259
 30
0.0
  0
VERTEX
  5
B33
100
AcDbEntity
  8
1
100
AcDbVertex
100
AcDb2dVertex
 10
-173.450431
 20
-188.724636
 30
0.0
  0
VERTEX
  5
B34
100
AcDbEntity
  8
1
100
AcDbVertex
100
AcDb2dVertex
 10
-173.514223
 20
-188.864514
 30
0.0
  0
VERTEX
  5
B35
100
AcDbEntity
  8
1
100
AcDbVertex
100
AcDb2dVertex
 10
-173.575617
 20
-189.005404
 30
0.0
  0
VERTEX
  5
B36
100
AcDbEntity
  8
1
100
AcDbVertex
100
AcDb2dVertex
 10
-173.634683
 20
-189.147166
 30
0.0
  0
VERTEX
  5
B37
100
AcDbEntity
  8
1
100
AcDbVertex
100
AcDb2dVertex
 10
-173.653866
 20
-189.19459
 30
0.0
  0
VERTEX
  5
B38
100
AcDbEntity
  8
1
100
AcDbVertex
100
AcDb2dVertex
 10
-173.672801
 20
-189.24209
 30
0.0
  0
VERTEX
  5
B39
100
AcDbEntity
  8
1
100
AcDbVertex
100
AcDb2dVertex
 10
-173.691491
 20
-189.289662
 30
0.0
  0
VERTEX
  5
B3A
100
AcDbEntity
  8
1
100
AcDbVertex
100
AcDb2dVertex
 10
-173.715897
 20
-189.352887
 30
0.0
  0
VERTEX
  5
B3B
100
AcDbEntity
  8
1
100
AcDbVertex
100
AcDb2dVertex
 10
-173.739795
 20
-189.416272
 30
0.0
  0
VERTEX
  5
B3C
100
AcDbEntity
  8
1
100
AcDbVertex
100
AcDb2dVertex
 10
-173.763105
 20
-189.479857
 30
0.0
  0
VERTEX
  5
B3D
100
AcDbEntity
  8
1
100
AcDbVertex
100
AcDb2dVertex
 10
-173.828691
 20
-189.672238
 30
0.0
  0
VERTEX
  5
B3E
100
AcDbEntity
  8
1
100
AcDbVertex
100
AcDb2dVertex
 10
-173.886073
 20
-189.867944
 30
0.0
  0
VERTEX
  5
B3F
100
AcDbEntity
  8
1
100
AcDbVertex
100
AcDb2dVertex
 10
-173.903001
 20
-189.934114
 30
0.0
  0
VERTEX
  5
B40
100
AcDbEntity
  8
1
100
AcDbVertex
100
AcDb2dVertex
 10
-173.918695
 20
-190.000823
 30
0.0
  0
VERTEX
  5
B41
100
AcDbEntity
  8
1
100
AcDbVertex
100
AcDb2dVertex
 10
-173.933075
 20
-190.068112
 30
0.0
  0
VERTEX
  5
B42
100
AcDbEntity
  8
1
100
AcDbVertex
100
AcDb2dVertex
 10
-173.946166
 20
-190.136723
 30
0.0
  0
VERTEX
  5
B43
100
AcDbEntity
  8
1
100
AcDbVertex
100
AcDb2dVertex
 10
-173.957605
 20
-190.205824
 30
0.0
  0
VERTEX
  5
B44
100
AcDbEntity
  8
1
100
AcDbVertex
100
AcDb2dVertex
 10
-173.967163
 20
-190.275271
 30
0.0
  0
VERTEX
  5
B45
100
AcDbEntity
  8
1
100
AcDbVertex
100
AcDb2dVertex
 10
-173.982287
 20
-190.484236
 30
0.0
  0
VERTEX
  5
B46
100
AcDbEntity
  8
1
100
AcDbVertex
100
AcDb2dVertex
 10
-173.972308
 20
-190.691091
 30
0.0
  0
VERTEX
  5
B47
100
AcDbEntity
  8
1
100
AcDbVertex
100
AcDb2dVertex
 10
-173.962343
 20
-190.758897
 30
0.0
  0
VERTEX
  5
B48
100
AcDbEntity
  8
1
100
AcDbVertex
100
AcDb2dVertex
 10
-173.948679
 20
-190.825889
 30
0.0
  0
VERTEX
  5
B49
100
AcDbEntity
  8
1
100
AcDbVertex
100
AcDb2dVertex
 10
-173.93109
 20
-190.891921
 30
0.0
  0
VERTEX
  5
B4A
100
AcDbEntity
  8
1
100
AcDbVertex
100
AcDb2dVertex
 10
-173.921151
 20
-190.923365
 30
0.0
  0
VERTEX
  5
B4B
100
AcDbEntity
  8
1
100
AcDbVertex
100
AcDb2dVertex
 10
-173.910269
 20
-190.954563
 30
0.0
  0
VERTEX
  5
B4C
100
AcDbEntity
  8
1
100
AcDbVertex
100
AcDb2dVertex
 10
-173.898467
 20
-190.985527
 30
0.0
  0
VERTEX
  5
B4D
100
AcDbEntity
  8
1
100
AcDbVertex
100
AcDb2dVertex
 10
-173.885766
 20
-191.016267
 30
0.0
  0
VERTEX
  5
B4E
100
AcDbEntity
  8
1
100
AcDbVertex
100
AcDb2dVertex
 10
-173.858395
 20
-191.075661
 30
0.0
  0
VERTEX
  5
B4F
100
AcDbEntity
  8
1
100
AcDbVertex
100
AcDb2dVertex
 10
-173.827709
 20
-191.133676
 30
0.0
  0
VERTEX
  5
B50
100
AcDbEntity
  8
1
100
AcDbVertex
100
AcDb2dVertex
 10
-173.793743
 20
-191.189747
 30
0.0
  0
VERTEX
  5
B51
100
AcDbEntity
  8
1
100
AcDbVertex
100
AcDb2dVertex
 10
-173.756537
 20
-191.243308
 30
0.0
  0
VERTEX
  5
B52
100
AcDbEntity
  8
1
100
AcDbVertex
100
AcDb2dVertex
 10
-173.716126
 20
-191.293794
 30
0.0
  0
VERTEX
  5
B53
100
AcDbEntity
  8
1
100
AcDbVertex
100
AcDb2dVertex
 10
-173.672549
 20
-191.34064
 30
0.0
  0
VERTEX
  5
B54
100
AcDbEntity
  8
1
100
AcDbVertex
100
AcDb2dVertex
 10
-173.650194
 20
-191.362088
 30
0.0
  0
VERTEX
  5
B55
100
AcDbEntity
  8
1
100
AcDbVertex
100
AcDb2dVertex
 10
-173.627219
 20
-191.383113
 30
0.0
  0
VERTEX
  5
B56
100
AcDbEntity
  8
1
100
AcDbVertex
100
AcDb2dVertex
 10
-173.603745
 20
-191.404293
 30
0.0
  0
VERTEX
  5
B57
100
AcDbEntity
  8
1
100
AcDbVertex
100
AcDb2dVertex
 10
-173.579896
 20
-191.426204
 30
0.0
  0
VERTEX
  5
B58
100
AcDbEntity
  8
1
100
AcDbVertex
100
AcDb2dVertex
 10
-173.556161
 20
-191.448456
 30
0.0
  0
VERTEX
  5
B59
100
AcDbEntity
  8
1
100
AcDbVertex
100
AcDb2dVertex
 10
-173.531734
 20
-191.46947
 30
0.0
  0
VERTEX
  5
B5A
100
AcDbEntity
  8
1
100
AcDbVertex
100
AcDb2dVertex
 10
-173.506169
 20
-191.486752
 30
0.0
  0
VERTEX
  5
B5B
100
AcDbEntity
  8
1
100
AcDbVertex
100
AcDb2dVertex
 10
-173.479018
 20
-191.497805
 30
0.0
  0
VERTEX
  5
B5C
100
AcDbEntity
  8
1
100
AcDbVertex
100
AcDb2dVertex
 10
-173.441944
 20
-191.500583
 30
0.0
  0
VERTEX
  5
B5D
100
AcDbEntity
  8
1
100
AcDbVertex
100
AcDb2dVertex
 10
-173.402691
 20
-191.494012
 30
0.0
  0
VERTEX
  5
B5E
100
AcDbEntity
  8
1
100
AcDbVertex
100
AcDb2dVertex
 10
-173.362349
 20
-191.482766
 30
0.0
  0
SEQEND
  5
B5F
100
AcDbEntity
  8
1
  0
POLYLINE
  5
4EC
100
AcDbEntity
  8
1
100
AcDb2dPolyline
 66
     1
 10
0.0
 20
0.0
 30
0.0
  0
VERTEX
  5
B60
100
AcDbEntity
  8
1
100
AcDbVertex
100
AcDb2dVertex
 10
-191.874904
 20
-188.467463
 30
0.0
  0
VERTEX
  5
B61
100
AcDbEntity
  8
1
100
AcDbVertex
100
AcDb2dVertex
 10
-191.871175
 20
-188.39247
 30
0.0
  0
VERTEX
  5
B62
100
AcDbEntity
  8
1
100
AcDbVertex
100
AcDb2dVertex
 10
-191.867201
 20
-188.317515
 30
0.0
  0
VERTEX
  5
B63
100
AcDbEntity
  8
1
100
AcDbVertex
100
AcDb2dVertex
 10
-191.862735
 20
-188.242639
 30
0.0
  0
VERTEX
  5
B64
100
AcDbEntity
  8
1
100
AcDbVertex
100
AcDb2dVertex
 10
-191.843928
 20
-188.018868
 30
0.0
  0
VERTEX
  5
B65
100
AcDbEntity
  8
1
100
AcDbVertex
100
AcDb2dVertex
 10
-191.835037
 20
-187.944693
 30
0.0
  0
VERTEX
  5
B66
100
AcDbEntity
  8
1
100
AcDbVertex
100
AcDb2dVertex
 10
-191.824425
 20
-187.870791
 30
0.0
  0
VERTEX
  5
B67
100
AcDbEntity
  8
1
100
AcDbVertex
100
AcDb2dVertex
 10
-191.811847
 20
-187.797201
 30
0.0
  0
VERTEX
  5
B68
100
AcDbEntity
  8
1
100
AcDbVertex
100
AcDb2dVertex
 10
-191.796844
 20
-187.722724
 30
0.0
  0
VERTEX
  5
B69
100
AcDbEntity
  8
1
100
AcDbVertex
100
AcDb2dVertex
 10
-191.77965
 20
-187.648646
 30
0.0
  0
VERTEX
  5
B6A
100
AcDbEntity
  8
1
100
AcDbVertex
100
AcDb2dVertex
 10
-191.760362
 20
-187.575002
 30
0.0
  0
VERTEX
  5
B6B
100
AcDbEntity
  8
1
100
AcDbVertex
100
AcDb2dVertex
 10
-191.690904
 20
-187.357028
 30
0.0
  0
VERTEX
  5
B6C
100
AcDbEntity
  8
1
100
AcDbVertex
100
AcDb2dVertex
 10
-191.664209
 20
-187.285475
 30
0.0
  0
VERTEX
  5
B6D
100
AcDbEntity
  8
1
100
AcDbVertex
100
AcDb2dVertex
 10
-191.635905
 20
-187.214533
 30
0.0
  0
VERTEX
  5
B6E
100
AcDbEntity
  8
1
100
AcDbVertex
100
AcDb2dVertex
 10
-191.606089
 20
-187.144239
 30
0.0
  0
VERTEX
  5
B6F
100
AcDbEntity
  8
1
100
AcDbVertex
100
AcDb2dVertex
 10
-191.573446
 20
-187.071596
 30
0.0
  0
VERTEX
  5
B70
100
AcDbEntity
  8
1
100
AcDbVertex
100
AcDb2dVertex
 10
-191.539288
 20
-186.999714
 30
0.0
  0
VERTEX
  5
B71
100
AcDbEntity
  8
1
100
AcDbVertex
100
AcDb2dVertex
 10
-191.503638
 20
-186.928607
 30
0.0
  0
VERTEX
  5
B72
100
AcDbEntity
  8
1
100
AcDbVertex
100
AcDb2dVertex
 10
-191.387999
 20
-186.720109
 30
0.0
  0
VERTEX
  5
B73
100
AcDbEntity
  8
1
100
AcDbVertex
100
AcDb2dVertex
 10
-191.346641
 20
-186.652271
 30
0.0
  0
VERTEX
  5
B74
100
AcDbEntity
  8
1
100
AcDbVertex
100
AcDb2dVertex
 10
-191.303919
 20
-186.58529
 30
0.0
  0
VERTEX
  5
B75
100
AcDbEntity
  8
1
100
AcDbVertex
100
AcDb2dVertex
 10
-191.25986
 20
-186.519183
 30
0.0
  0
VERTEX
  5
B76
100
AcDbEntity
  8
1
100
AcDbVertex
100
AcDb2dVertex
 10
-191.210787
 20
-186.448758
 30
0.0
  0
VERTEX
  5
B77
100
AcDbEntity
  8
1
100
AcDbVertex
100
AcDb2dVertex
 10
-191.160235
 20
-186.379375
 30
0.0
  0
VERTEX
  5
B78
100
AcDbEntity
  8
1
100
AcDbVertex
100
AcDb2dVertex
 10
-191.108258
 20
-186.311034
 30
0.0
  0
VERTEX
  5
B79
100
AcDbEntity
  8
1
100
AcDbVertex
100
AcDb2dVertex
 10
-190.944301
 20
-186.112287
 30
0.0
  0
VERTEX
  5
B7A
100
AcDbEntity
  8
1
100
AcDbVertex
100
AcDb2dVertex
 10
-190.887151
 20
-186.048136
 30
0.0
  0
VERTEX
  5
B7B
100
AcDbEntity
  8
1
100
AcDbVertex
100
AcDb2dVertex
 10
-190.828841
 20
-185.985037
 30
0.0
  0
VERTEX
  5
B7C
100
AcDbEntity
  8
1
100
AcDbVertex
100
AcDb2dVertex
 10
-190.769423
 20
-185.922993
 30
0.0
  0
VERTEX
  5
B7D
100
AcDbEntity
  8
1
100
AcDbVertex
100
AcDb2dVertex
 10
-190.721153
 20
-185.874145
 30
0.0
  0
VERTEX
  5
B7E
100
AcDbEntity
  8
1
100
AcDbVertex
100
AcDb2dVertex
 10
-190.672226
 20
-185.825971
 30
0.0
  0
VERTEX
  5
B7F
100
AcDbEntity
  8
1
100
AcDbVertex
100
AcDb2dVertex
 10
-190.622657
 20
-185.778466
 30
0.0
  0
VERTEX
  5
B80
100
AcDbEntity
  8
1
100
AcDbVertex
100
AcDb2dVertex
 10
-190.470267
 20
-185.639952
 30
0.0
  0
VERTEX
  5
B81
100
AcDbEntity
  8
1
100
AcDbVertex
100
AcDb2dVertex
 10
-190.312694
 20
-185.507386
 30
0.0
  0
VERTEX
  5
B82
100
AcDbEntity
  8
1
100
AcDbVertex
100
AcDb2dVertex
 10
-190.259094
 20
-185.464508
 30
0.0
  0
VERTEX
  5
B83
100
AcDbEntity
  8
1
100
AcDbVertex
100
AcDb2dVertex
 10
-190.204984
 20
-185.422282
 30
0.0
  0
VERTEX
  5
B84
100
AcDbEntity
  8
1
100
AcDbVertex
100
AcDb2dVertex
 10
-190.150381
 20
-185.380705
 30
0.0
  0
VERTEX
  5
B85
100
AcDbEntity
  8
1
100
AcDbVertex
100
AcDb2dVertex
 10
-190.091162
 20
-185.336739
 30
0.0
  0
VERTEX
  5
B86
100
AcDbEntity
  8
1
100
AcDbVertex
100
AcDb2dVertex
 10
-190.031407
 20
-185.293513
 30
0.0
  0
VERTEX
  5
B87
100
AcDbEntity
  8
1
100
AcDbVertex
100
AcDb2dVertex
 10
-189.971132
 20
-185.251017
 30
0.0
  0
VERTEX
  5
B88
100
AcDbEntity
  8
1
100
AcDbVertex
100
AcDb2dVertex
 10
-189.787342
 20
-185.127834
 30
0.0
  0
VERTEX
  5
B89
100
AcDbEntity
  8
1
100
AcDbVertex
100
AcDb2dVertex
 10
-189.599438
 20
-185.010936
 30
0.0
  0
VERTEX
  5
B8A
100
AcDbEntity
  8
1
100
AcDbVertex
100
AcDb2dVertex
 10
-189.535962
 20
-184.973328
 30
0.0
  0
VERTEX
  5
B8B
100
AcDbEntity
  8
1
100
AcDbVertex
100
AcDb2dVertex
 10
-189.472091
 20
-184.936387
 30
0.0
  0
VERTEX
  5
B8C
100
AcDbEntity
  8
1
100
AcDbVertex
100
AcDb2dVertex
 10
-189.407843
 20
-184.900103
 30
0.0
  0
VERTEX
  5
B8D
100
AcDbEntity
  8
1
100
AcDbVertex
100
AcDb2dVertex
 10
-189.315962
 20
-184.849688
 30
0.0
  0
VERTEX
  5
B8E
100
AcDbEntity
  8
1
100
AcDbVertex
100
AcDb2dVertex
 10
-189.223369
 20
-184.8006
 30
0.0
  0
VERTEX
  5
B8F
100
AcDbEntity
  8
1
100
AcDbVertex
100
AcDb2dVertex
 10
-189.130083
 20
-184.752856
 30
0.0
  0
VERTEX
  5
B90
100
AcDbEntity
  8
1
100
AcDbVertex
100
AcDb2dVertex
 10
-188.846255
 20
-184.617857
 30
0.0
  0
VERTEX
  5
B91
100
AcDbEntity
  8
1
100
AcDbVertex
100
AcDb2dVertex
 10
-188.750387
 20
-184.575658
 30
0.0
  0
VERTEX
  5
B92
100
AcDbEntity
  8
1
100
AcDbVertex
100
AcDb2dVertex
 10
-188.653922
 20
-184.534886
 30
0.0
  0
VERTEX
  5
B93
100
AcDbEntity
  8
1
100
AcDbVertex
100
AcDb2dVertex
 10
-188.55688
 20
-184.49556
 30
0.0
  0
VERTEX
  5
B94
100
AcDbEntity
  8
1
100
AcDbVertex
100
AcDb2dVertex
 10
-188.452621
 20
-184.455142
 30
0.0
  0
VERTEX
  5
B95
100
AcDbEntity
  8
1
100
AcDbVertex
100
AcDb2dVertex
 10
-188.34779
 20
-184.416239
 30
0.0
  0
VERTEX
  5
B96
100
AcDbEntity
  8
1
100
AcDbVertex
100
AcDb2dVertex
 10
-188.242452
 20
-184.378697
 30
0.0
  0
VERTEX
  5
B97
100
AcDbEntity
  8
1
100
AcDbVertex
100
AcDb2dVertex
 10
-187.924051
 20
-184.272713
 30
0.0
  0
VERTEX
  5
B98
100
AcDbEntity
  8
1
100
AcDbVertex
100
AcDb2dVertex
 10
-187.817338
 20
-184.239089
 30
0.0
  0
VERTEX
  5
B99
100
AcDbEntity
  8
1
100
AcDbVertex
100
AcDb2dVertex
 10
-187.710446
 20
-184.206062
 30
0.0
  0
VERTEX
  5
B9A
100
AcDbEntity
  8
1
100
AcDbVertex
100
AcDb2dVertex
 10
-187.603438
 20
-184.173479
 30
0.0
  0
VERTEX
  5
B9B
100
AcDbEntity
  8
1
100
AcDbVertex
100
AcDb2dVertex
 10
-187.494322
 20
-184.140614
 30
0.0
  0
VERTEX
  5
B9C
100
AcDbEntity
  8
1
100
AcDbVertex
100
AcDb2dVertex
 10
-187.385116
 20
-184.108132
 30
0.0
  0
VERTEX
  5
B9D
100
AcDbEntity
  8
1
100
AcDbVertex
100
AcDb2dVertex
 10
-187.275781
 20
-184.076116
 30
0.0
  0
VERTEX
  5
B9E
100
AcDbEntity
  8
1
100
AcDbVertex
100
AcDb2dVertex
 10
-187.166279
 20
-184.044645
 30
0.0
  0
VERTEX
  5
B9F
100
AcDbEntity
  8
1
100
AcDbVertex
100
AcDb2dVertex
 10
-187.05657
 20
-184.013802
 30
0.0
  0
VERTEX
  5
BA0
100
AcDbEntity
  8
1
100
AcDbVertex
100
AcDb2dVertex
 10
-186.946618
 20
-183.983668
 30
0.0
  0
VERTEX
  5
BA1
100
AcDbEntity
  8
1
100
AcDbVertex
100
AcDb2dVertex
 10
-186.817527
 20
-183.949444
 30
0.0
  0
VERTEX
  5
BA2
100
AcDbEntity
  8
1
100
AcDbVertex
100
AcDb2dVertex
 10
-186.688023
 20
-183.916725
 30
0.0
  0
VERTEX
  5
BA3
100
AcDbEntity
  8
1
100
AcDbVertex
100
AcDb2dVertex
 10
-186.558081
 20
-183.88593
 30
0.0
  0
VERTEX
  5
BA4
100
AcDbEntity
  8
1
100
AcDbVertex
100
AcDb2dVertex
 10
-186.427673
 20
-183.857481
 30
0.0
  0
VERTEX
  5
BA5
100
AcDbEntity
  8
1
100
AcDbVertex
100
AcDb2dVertex
 10
-186.296775
 20
-183.831798
 30
0.0
  0
VERTEX
  5
BA6
100
AcDbEntity
  8
1
100
AcDbVertex
100
AcDb2dVertex
 10
-186.165362
 20
-183.809303
 30
0.0
  0
SEQEND
  5
BA7
100
AcDbEntity
  8
1
  0
POLYLINE
  5
535
100
AcDbEntity
  8
1
100
AcDb2dPolyline
 66
     1
 10
0.0
 20
0.0
 30
0.0
  0
VERTEX
  5
BA8
100
AcDbEntity
  8
1
100
AcDbVertex
100
AcDb2dVertex
 10
-181.215414
 20
-184.061069
 30
0.0
  0
VERTEX
  5
BA9
100
AcDbEntity
  8
1
100
AcDbVertex
100
AcDb2dVertex
 10
-181.260351
 20
-184.064384
 30
0.0
  0
VERTEX
  5
BAA
100
AcDbEntity
  8
1
100
AcDbVertex
100
AcDb2dVertex
 10
-181.305281
 20
-184.067758
 30
0.0
  0
VERTEX
  5
BAB
100
AcDbEntity
  8
1
100
AcDbVertex
100
AcDb2dVertex
 10
-181.350196
 20
-184.071249
 30
0.0
  0
VERTEX
  5
BAC
100
AcDbEntity
  8
1
100
AcDbVertex
100
AcDb2dVertex
 10
-181.484772
 20
-184.083012
 30
0.0
  0
VERTEX
  5
BAD
100
AcDbEntity
  8
1
100
AcDbVertex
100
AcDb2dVertex
 10
-181.52955
 20
-184.087557
 30
0.0
  0
VERTEX
  5
BAE
100
AcDbEntity
  8
1
100
AcDbVertex
100
AcDb2dVertex
 10
-181.574274
 20
-184.092513
 30
0.0
  0
VERTEX
  5
BAF
100
AcDbEntity
  8
1
100
AcDbVertex
100
AcDb2dVertex
 10
-181.618937
 20
-184.097937
 30
0.0
  0
VERTEX
  5
BB0
100
AcDbEntity
  8
1
100
AcDbVertex
100
AcDb2dVertex
 10
-181.68158
 20
-184.106425
 30
0.0
  0
VERTEX
  5
BB1
100
AcDbEntity
  8
1
100
AcDbVertex
100
AcDb2dVertex
 10
-181.744091
 20
-184.115894
 30
0.0
  0
VERTEX
  5
BB2
100
AcDbEntity
  8
1
100
AcDbVertex
100
AcDb2dVertex
 10
-181.806472
 20
-184.126283
 30
0.0
  0
VERTEX
  5
BB3
100
AcDbEntity
  8
1
100
AcDbVertex
100
AcDb2dVertex
 10
-181.992857
 20
-184.162367
 30
0.0
  0
VERTEX
  5
BB4
100
AcDbEntity
  8
1
100
AcDbVertex
100
AcDb2dVertex
 10
-182.178162
 20
-184.204558
 30
0.0
  0
VERTEX
  5
BB5
100
AcDbEntity
  8
1
100
AcDbVertex
100
AcDb2dVertex
 10
-182.239702
 20
-184.219696
 30
0.0
  0
VERTEX
  5
BB6
100
AcDbEntity
  8
1
100
AcDbVertex
100
AcDb2dVertex
 10
-182.301132
 20
-184.235272
 30
0.0
  0
VERTEX
  5
BB7
100
AcDbEntity
  8
1
100
AcDbVertex
100
AcDb2dVertex
 10
-182.362456
 20
-184.251225
 30
0.0
  0
VERTEX
  5
BB8
100
AcDbEntity
  8
1
100
AcDbVertex
100
AcDb2dVertex
 10
-182.416355
 20
-184.265542
 30
0.0
  0
VERTEX
  5
BB9
100
AcDbEntity
  8
1
100
AcDbVertex
100
AcDb2dVertex
 10
-182.47017
 20
-184.280118
 30
0.0
  0
VERTEX
  5
BBA
100
AcDbEntity
  8
1
100
AcDbVertex
100
AcDb2dVertex
 10
-182.523894
 20
-184.294969
 30
0.0
  0
VERTEX
  5
BBB
100
AcDbEntity
  8
1
100
AcDbVertex
100
AcDb2dVertex
 10
-182.68448
 20
-184.341303
 30
0.0
  0
VERTEX
  5
BBC
100
AcDbEntity
  8
1
100
AcDbVertex
100
AcDb2dVertex
 10
-182.844092
 20
-184.390613
 30
0.0
  0
VERTEX
  5
BBD
100
AcDbEntity
  8
1
100
AcDbVertex
100
AcDb2dVertex
 10
-182.897059
 20
-184.407778
 30
0.0
  0
VERTEX
  5
BBE
100
AcDbEntity
  8
1
100
AcDbVertex
100
AcDb2dVertex
 10
-182.949899
 20
-184.42533
 30
0.0
  0
VERTEX
  5
BBF
100
AcDbEntity
  8
1
100
AcDbVertex
100
AcDb2dVertex
 10
-183.002608
 20
-184.443284
 30
0.0
  0
VERTEX
  5
BC0
100
AcDbEntity
  8
1
100
AcDbVertex
100
AcDb2dVertex
 10
-183.054541
 20
-184.461425
 30
0.0
  0
VERTEX
  5
BC1
100
AcDbEntity
  8
1
100
AcDbVertex
100
AcDb2dVertex
 10
-183.106339
 20
-184.47997
 30
0.0
  0
VERTEX
  5
BC2
100
AcDbEntity
  8
1
100
AcDbVertex
100
AcDb2dVertex
 10
-183.157998
 20
-184.498917
 30
0.0
  0
VERTEX
  5
BC3
100
AcDbEntity
  8
1
100
AcDbVertex
100
AcDb2dVertex
 10
-183.312103
 20
-184.558154
 30
0.0
  0
VERTEX
  5
BC4
100
AcDbEntity
  8
1
100
AcDbVertex
100
AcDb2dVertex
 10
-183.464827
 20
-184.620945
 30
0.0
  0
VERTEX
  5
BC5
100
AcDbEntity
  8
1
100
AcDbVertex
100
AcDb2dVertex
 10
-183.515412
 20
-184.642657
 30
0.0
  0
VERTEX
  5
BC6
100
AcDbEntity
  8
1
100
AcDbVertex
100
AcDb2dVertex
 10
-183.56583
 20
-184.664756
 30
0.0
  0
VERTEX
  5
BC7
100
AcDbEntity
  8
1
100
AcDbVertex
100
AcDb2dVertex
 10
-183.616077
 20
-184.687241
 30
0.0
  0
VERTEX
  5
BC8
100
AcDbEntity
  8
1
100
AcDbVertex
100
AcDb2dVertex
 10
-183.668636
 20
-184.711258
 30
0.0
  0
VERTEX
  5
BC9
100
AcDbEntity
  8
1
100
AcDbVertex
100
AcDb2dVertex
 10
-183.720997
 20
-184.7357
 30
0.0
  0
VERTEX
  5
BCA
100
AcDbEntity
  8
1
100
AcDbVertex
100
AcDb2dVertex
 10
-183.773154
 20
-184.76057
 30
0.0
  0
VERTEX
  5
BCB
100
AcDbEntity
  8
1
100
AcDbVertex
100
AcDb2dVertex
 10
-183.928351
 20
-184.837767
 30
0.0
  0
VERTEX
  5
BCC
100
AcDbEntity
  8
1
100
AcDbVertex
100
AcDb2dVertex
 10
-184.081516
 20
-184.918893
 30
0.0
  0
VERTEX
  5
BCD
100
AcDbEntity
  8
1
100
AcDbVertex
100
AcDb2dVertex
 10
-184.132093
 20
-184.946819
 30
0.0
  0
VERTEX
  5
BCE
100
AcDbEntity
  8
1
100
AcDbVertex
100
AcDb2dVertex
 10
-184.182423
 20
-184.97519
 30
0.0
  0
VERTEX
  5
BCF
100
AcDbEntity
  8
1
100
AcDbVertex
100
AcDb2dVertex
 10
-184.232499
 20
-185.004009
 30
0.0
  0
VERTEX
  5
BD0
100
AcDbEntity
  8
1
100
AcDbVertex
100
AcDb2dVertex
 10
-184.294163
 20
-185.040328
 30
0.0
  0
VERTEX
  5
BD1
100
AcDbEntity
  8
1
100
AcDbVertex
100
AcDb2dVertex
 10
-184.355416
 20
-185.077339
 30
0.0
  0
VERTEX
  5
BD2
100
AcDbEntity
  8
1
100
AcDbVertex
100
AcDb2dVertex
 10
-184.416247
 20
-185.115045
 30
0.0
  0
VERTEX
  5
BD3
100
AcDbEntity
  8
1
100
AcDbVertex
100
AcDb2dVertex
 10
-184.596067
 20
-185.23234
 30
0.0
  0
VERTEX
  5
BD4
100
AcDbEntity
  8
1
100
AcDbVertex
100
AcDb2dVertex
 10
-184.655074
 20
-185.272837
 30
0.0
  0
VERTEX
  5
BD5
100
AcDbEntity
  8
1
100
AcDbVertex
100
AcDb2dVertex
 10
-184.713593
 20
-185.314037
 30
0.0
  0
VERTEX
  5
BD6
100
AcDbEntity
  8
1
100
AcDbVertex
100
AcDb2dVertex
 10
-184.771611
 20
-185.35594
 30
0.0
  0
VERTEX
  5
BD7
100
AcDbEntity
  8
1
100
AcDbVertex
100
AcDb2dVertex
 10
-184.824868
 20
-185.395365
 30
0.0
  0
VERTEX
  5
BD8
100
AcDbEntity
  8
1
100
AcDbVertex
100
AcDb2dVertex
 10
-184.877672
 20
-185.435397
 30
0.0
  0
VERTEX
  5
BD9
100
AcDbEntity
  8
1
100
AcDbVertex
100
AcDb2dVertex
 10
-184.93001
 20
-185.476037
 30
0.0
  0
VERTEX
  5
BDA
100
AcDbEntity
  8
1
100
AcDbVertex
100
AcDb2dVertex
 10
-185.084087
 20
-185.601625
 30
0.0
  0
VERTEX
  5
BDB
100
AcDbEntity
  8
1
100
AcDbVertex
100
AcDb2dVertex
 10
-185.134424
 20
-185.644716
 30
0.0
  0
VERTEX
  5
BDC
100
AcDbEntity
  8
1
100
AcDbVertex
100
AcDb2dVertex
 10
-185.184228
 20
-185.688424
 30
0.0
  0
VERTEX
  5
BDD
100
AcDbEntity
  8
1
100
AcDbVertex
100
AcDb2dVertex
 10
-185.233486
 20
-185.732751
 30
0.0
  0
VERTEX
  5
BDE
100
AcDbEntity
  8
1
100
AcDbVertex
100
AcDb2dVertex
 10
-185.284281
 20
-185.779659
 30
0.0
  0
VERTEX
  5
BDF
100
AcDbEntity
  8
1
100
AcDbVertex
100
AcDb2dVertex
 10
-185.334452
 20
-185.827241
 30
0.0
  0
VERTEX
  5
BE0
100
AcDbEntity
  8
1
100
AcDbVertex
100
AcDb2dVertex
 10
-185.383982
 20
-185.875491
 30
0.0
  0
VERTEX
  5
BE1
100
AcDbEntity
  8
1
100
AcDbVertex
100
AcDb2dVertex
 10
-185.528564
 20
-186.024226
 30
0.0
  0
VERTEX
  5
BE2
100
AcDbEntity
  8
1
100
AcDbVertex
100
AcDb2dVertex
 10
-185.575368
 20
-186.075122
 30
0.0
  0
VERTEX
  5
BE3
100
AcDbEntity
  8
1
100
AcDbVertex
100
AcDb2dVertex
 10
-185.621451
 20
-186.126671
 30
0.0
  0
VERTEX
  5
BE4
100
AcDbEntity
  8
1
100
AcDbVertex
100
AcDb2dVertex
 10
-185.666796
 20
-186.178871
 30
0.0
  0
VERTEX
  5
BE5
100
AcDbEntity
  8
1
100
AcDbVertex
100
AcDb2dVertex
 10
-185.709434
 20
-186.22937
 30
0.0
  0
VERTEX
  5
BE6
100
AcDbEntity
  8
1
100
AcDbVertex
100
AcDb2dVertex
 10
-185.751369
 20
-186.280455
 30
0.0
  0
VERTEX
  5
BE7
100
AcDbEntity
  8
1
100
AcDbVertex
100
AcDb2dVertex
 10
-185.792587
 20
-186.332121
 30
0.0
  0
VERTEX
  5
BE8
100
AcDbEntity
  8
1
100
AcDbVertex
100
AcDb2dVertex
 10
-185.911792
 20
-186.490552
 30
0.0
  0
VERTEX
  5
BE9
100
AcDbEntity
  8
1
100
AcDbVertex
100
AcDb2dVertex
 10
-185.949996
 20
-186.544489
 30
0.0
  0
VERTEX
  5
BEA
100
AcDbEntity
  8
1
100
AcDbVertex
100
AcDb2dVertex
 10
-185.987411
 20
-186.598981
 30
0.0
  0
VERTEX
  5
BEB
100
AcDbEntity
  8
1
100
AcDbVertex
100
AcDb2dVertex
 10
-186.024023
 20
-186.654023
 30
0.0
  0
VERTEX
  5
BEC
100
AcDbEntity
  8
1
100
AcDbVertex
100
AcDb2dVertex
 10
-186.075286
 20
-186.734213
 30
0.0
  0
VERTEX
  5
BED
100
AcDbEntity
  8
1
100
AcDbVertex
100
AcDb2dVertex
 10
-186.124797
 20
-186.815502
 30
0.0
  0
VERTEX
  5
BEE
100
AcDbEntity
  8
1
100
AcDbVertex
100
AcDb2dVertex
 10
-186.172498
 20
-186.897859
 30
0.0
  0
VERTEX
  5
BEF
100
AcDbEntity
  8
1
100
AcDbVertex
100
AcDb2dVertex
 10
-186.21833
 20
-186.981253
 30
0.0
  0
VERTEX
  5
BF0
100
AcDbEntity
  8
1
100
AcDbVertex
100
AcDb2dVertex
 10
-186.262238
 20
-187.065655
 30
0.0
  0
VERTEX
  5
BF1
100
AcDbEntity
  8
1
100
AcDbVertex
100
AcDb2dVertex
 10
-186.304162
 20
-187.151034
 30
0.0
  0
VERTEX
  5
BF2
100
AcDbEntity
  8
1
100
AcDbVertex
100
AcDb2dVertex
 10
-186.334771
 20
-187.216782
 30
0.0
  0
VERTEX
  5
BF3
100
AcDbEntity
  8
1
100
AcDbVertex
100
AcDb2dVertex
 10
-186.364205
 20
-187.283062
 30
0.0
  0
VERTEX
  5
BF4
100
AcDbEntity
  8
1
100
AcDbVertex
100
AcDb2dVertex
 10
-186.392473
 20
-187.349854
 30
0.0
  0
VERTEX
  5
BF5
100
AcDbEntity
  8
1
100
AcDbVertex
100
AcDb2dVertex
 10
-186.419589
 20
-187.417139
 30
0.0
  0
VERTEX
  5
BF6
100
AcDbEntity
  8
1
100
AcDbVertex
100
AcDb2dVertex
 10
-186.445562
 20
-187.484898
 30
0.0
  0
VERTEX
  5
BF7
100
AcDbEntity
  8
1
100
AcDbVertex
100
AcDb2dVertex
 10
-186.470404
 20
-187.553111
 30
0.0
  0
VERTEX
  5
BF8
100
AcDbEntity
  8
1
100
AcDbVertex
100
AcDb2dVertex
 10
-186.493754
 20
-187.620718
 30
0.0
  0
VERTEX
  5
BF9
100
AcDbEntity
  8
1
100
AcDbVertex
100
AcDb2dVertex
 10
-186.515905
 20
-187.688732
 30
0.0
  0
VERTEX
  5
BFA
100
AcDbEntity
  8
1
100
AcDbVertex
100
AcDb2dVertex
 10
-186.536742
 20
-187.757136
 30
0.0
  0
VERTEX
  5
BFB
100
AcDbEntity
  8
1
100
AcDbVertex
100
AcDb2dVertex
 10
-186.556154
 20
-187.825913
 30
0.0
  0
VERTEX
  5
BFC
100
AcDbEntity
  8
1
100
AcDbVertex
100
AcDb2dVertex
 10
-186.574026
 20
-187.895048
 30
0.0
  0
VERTEX
  5
BFD
100
AcDbEntity
  8
1
100
AcDbVertex
100
AcDb2dVertex
 10
-186.590246
 20
-187.964524
 30
0.0
  0
VERTEX
  5
BFE
100
AcDbEntity
  8
1
100
AcDbVertex
100
AcDb2dVertex
 10
-186.608954
 20
-188.056296
 30
0.0
  0
VERTEX
  5
BFF
100
AcDbEntity
  8
1
100
AcDbVertex
100
AcDb2dVertex
 10
-186.624952
 20
-188.148567
 30
0.0
  0
VERTEX
  5
C00
100
AcDbEntity
  8
1
100
AcDbVertex
100
AcDb2dVertex
 10
-186.63858
 20
-188.241274
 30
0.0
  0
VERTEX
  5
C01
100
AcDbEntity
  8
1
100
AcDbVertex
100
AcDb2dVertex
 10
-186.668627
 20
-188.521394
 30
0.0
  0
VERTEX
  5
C02
100
AcDbEntity
  8
1
100
AcDbVertex
100
AcDb2dVertex
 10
-186.676158
 20
-188.615224
 30
0.0
  0
VERTEX
  5
C03
100
AcDbEntity
  8
1
100
AcDbVertex
100
AcDb2dVertex
 10
-186.683013
 20
-188.70918
 30
0.0
  0
VERTEX
  5
C04
100
AcDbEntity
  8
1
100
AcDbVertex
100
AcDb2dVertex
 10
-186.689529
 20
-188.803198
 30
0.0
  0
SEQEND
  5
C05
100
AcDbEntity
  8
1
  0
ARC
  5
594
100
AcDbEntity
  8
1
100
AcDbCircle
 10
-160.623028
 20
-182.481172
 30
0.0
 40
0.5
100
AcDbArc
 50
334.454813
 51
94.06584
  0
ARC
  5
595
100
AcDbEntity
  8
1
100
AcDbCircle
 10
-163.318904
 20
-184.092003
 30
0.0
 40
0.5
100
AcDbArc
 50
275.048892
 51
330.186789
  0
ARC
  5
596
100
AcDbEntity
  8
1
100
AcDbCircle
 10
-162.654853
 20
-182.933125
 30
0.0
 40
0.5
100
AcDbArc
 50
330.186789
 51
95.048887
  0
ARC
  5
597
100
AcDbEntity
  8
1
100
AcDbCircle
 10
-161.423112
 20
-184.155185
 30
0.0
 40
0.5
100
AcDbArc
 50
275.851398
 51
334.454813
  0
ARC
  5
598
100
AcDbEntity
  8
1
100
AcDbCircle
 10
-195.988392
 20
-178.658951
 30
0.0
 40
13.637431
100
AcDbArc
 50
259.236902
 51
280.783484
  0
ARC
  5
599
100
AcDbEntity
  8
1
100
AcDbCircle
 10
-193.144906
 20
-184.74833
 30
0.0
 40
9.080957
100
AcDbArc
 50
233.588661
 51
264.508786
  0
ARC
  5
59A
100
AcDbEntity
  8
1
100
AcDbCircle
 10
-168.804829
 20
-178.381996
 30
0.0
 40
13.909601
100
AcDbArc
 50
259.429762
 51
280.549851
  0
ARC
  5
59B
100
AcDbEntity
  8
1
100
AcDbCircle
 10
-170.77938
 20
-187.01788
 30
0.0
 40
6.769733
100
AcDbArc
 50
270.0
 51
311.902552
  0
ARC
  5
59C
100
AcDbEntity
  8
1
100
AcDbCircle
 10
-187.690903
 20
-191.055122
 30
0.0
 40
1.001374
100
AcDbArc
 50
266.997655
 51
359.999517
  0
ARC
  5
59D
100
AcDbEntity
  8
1
100
AcDbCircle
 10
-192.874904
 20
-191.055122
 30
0.0
 40
1.0
100
AcDbArc
 50
269.999517
 51
359.999517
  0
LINE
  5
59E
100
AcDbEntity
  8
1
100
AcDbLine
 10
-162.173258
 20
-182.445399
 30
0.0
 11
-160.509676
 21
-182.077954
 31
0.0
  0
LINE
  5
59F
100
AcDbEntity
  8
1
100
AcDbLine
 10
-162.924038
 20
-184.569778
 30
0.0
 11
-161.434445
 21
-184.613866
 31
0.0
  0
POLYLINE
  5
5A0
100
AcDbEntity
  8
1
100
AcDb2dPolyline
 66
     1
 10
0.0
 20
0.0
 30
0.0
  0
VERTEX
  5
C06
100
AcDbEntity
  8
1
100
AcDbVertex
100
AcDb2dVertex
 10
-184.364051
 20
-183.208147
 30
0.0
  0
VERTEX
  5
C07
100
AcDbEntity
  8
1
100
AcDbVertex
100
AcDb2dVertex
 10
-184.36438
 20
-183.218344
 30
0.0
  0
VERTEX
  5
C08
100
AcDbEntity
  8
1
100
AcDbVertex
100
AcDb2dVertex
 10
-184.364779
 20
-183.228551
 30
0.0
  0
VERTEX
  5
C09
100
AcDbEntity
  8
1
100
AcDbVertex
100
AcDb2dVertex
 10
-184.365255
 20
-183.23877
 30
0.0
  0
VERTEX
  5
C0A
100
AcDbEntity
  8
1
100
AcDbVertex
100
AcDb2dVertex
 10
-184.365811
 20
-183.249001
 30
0.0
  0
VERTEX
  5
C0B
100
AcDbEntity
  8
1
100
AcDbVertex
100
AcDb2dVertex
 10
-184.366454
 20
-183.259246
 30
0.0
  0
VERTEX
  5
C0C
100
AcDbEntity
  8
1
100
AcDbVertex
100
AcDb2dVertex
 10
-184.368256
 20
-183.282423
 30
0.0
  0
VERTEX
  5
C0D
100
AcDbEntity
  8
1
100
AcDbVertex
100
AcDb2dVertex
 10
-184.370612
 20
-183.305597
 30
0.0
  0
VERTEX
  5
C0E
100
AcDbEntity
  8
1
100
AcDbVertex
100
AcDb2dVertex
 10
-184.373605
 20
-183.328694
 30
0.0
  0
VERTEX
  5
C0F
100
AcDbEntity
  8
1
100
AcDbVertex
100
AcDb2dVertex
 10
-184.387254
 20
-183.396779
 30
0.0
  0
VERTEX
  5
C10
100
AcDbEntity
  8
1
100
AcDbVertex
100
AcDb2dVertex
 10
-184.39364
 20
-183.418824
 30
0.0
  0
VERTEX
  5
C11
100
AcDbEntity
  8
1
100
AcDbVertex
100
AcDb2dVertex
 10
-184.401085
 20
-183.44042
 30
0.0
  0
VERTEX
  5
C12
100
AcDbEntity
  8
1
100
AcDbVertex
100
AcDb2dVertex
 10
-184.409672
 20
-183.461494
 30
0.0
  0
VERTEX
  5
C13
100
AcDbEntity
  8
1
100
AcDbVertex
100
AcDb2dVertex
 10
-184.429251
 20
-183.500084
 30
0.0
  0
VERTEX
  5
C14
100
AcDbEntity
  8
1
100
AcDbVertex
100
AcDb2dVertex
 10
-184.452392
 20
-183.536941
 30
0.0
  0
VERTEX
  5
C15
100
AcDbEntity
  8
1
100
AcDbVertex
100
AcDb2dVertex
 10
-184.478204
 20
-183.572497
 30
0.0
  0
VERTEX
  5
C16
100
AcDbEntity
  8
1
100
AcDbVertex
100
AcDb2dVertex
 10
-184.505798
 20
-183.607187
 30
0.0
  0
VERTEX
  5
C17
100
AcDbEntity
  8
1
100
AcDbVertex
100
AcDb2dVertex
 10
-184.534282
 20
-183.641444
 30
0.0
  0
SEQEND
  5
C18
100
AcDbEntity
  8
1
  0
POLYLINE
  5
5B4
100
AcDbEntity
  8
1
100
AcDb2dPolyline
 66
     1
 10
0.0
 20
0.0
 30
0.0
  0
VERTEX
  5
C19
100
AcDbEntity
  8
1
100
AcDbVertex
100
AcDb2dVertex
 10
-176.82198
 20
-183.131359
 30
0.0
  0
VERTEX
  5
C1A
100
AcDbEntity
  8
1
100
AcDbVertex
100
AcDb2dVertex
 10
-176.92407
 20
-183.135439
 30
0.0
  0
VERTEX
  5
C1B
100
AcDbEntity
  8
1
100
AcDbVertex
100
AcDb2dVertex
 10
-177.026158
 20
-183.139537
 30
0.0
  0
VERTEX
  5
C1C
100
AcDbEntity
  8
1
100
AcDbVertex
100
AcDb2dVertex
 10
-177.128244
 20
-183.143667
 30
0.0
  0
VERTEX
  5
C1D
100
AcDbEntity
  8
1
100
AcDbVertex
100
AcDb2dVertex
 10
-177.434463
 20
-183.15642
 30
0.0
  0
VERTEX
  5
C1E
100
AcDbEntity
  8
1
100
AcDbVertex
100
AcDb2dVertex
 10
-177.740591
 20
-183.170065
 30
0.0
  0
VERTEX
  5
C1F
100
AcDbEntity
  8
1
100
AcDbVertex
100
AcDb2dVertex
 10
-178.046583
 20
-183.185046
 30
0.0
  0
VERTEX
  5
C20
100
AcDbEntity
  8
1
100
AcDbVertex
100
AcDb2dVertex
 10
-178.352394
 20
-183.201809
 30
0.0
  0
VERTEX
  5
C21
100
AcDbEntity
  8
1
100
AcDbVertex
100
AcDb2dVertex
 10
-178.657979
 20
-183.220799
 30
0.0
  0
VERTEX
  5
C22
100
AcDbEntity
  8
1
100
AcDbVertex
100
AcDb2dVertex
 10
-178.963292
 20
-183.242462
 30
0.0
  0
VERTEX
  5
C23
100
AcDbEntity
  8
1
100
AcDbVertex
100
AcDb2dVertex
 10
-179.268288
 20
-183.267243
 30
0.0
  0
VERTEX
  5
C24
100
AcDbEntity
  8
1
100
AcDbVertex
100
AcDb2dVertex
 10
-179.572922
 20
-183.295588
 30
0.0
  0
VERTEX
  5
C25
100
AcDbEntity
  8
1
100
AcDbVertex
100
AcDb2dVertex
 10
-179.877148
 20
-183.327942
 30
0.0
  0
VERTEX
  5
C26
100
AcDbEntity
  8
1
100
AcDbVertex
100
AcDb2dVertex
 10
-179.978459
 20
-183.339695
 30
0.0
  0
VERTEX
  5
C27
100
AcDbEntity
  8
1
100
AcDbVertex
100
AcDb2dVertex
 10
-180.079717
 20
-183.351959
 30
0.0
  0
VERTEX
  5
C28
100
AcDbEntity
  8
1
100
AcDbVertex
100
AcDb2dVertex
 10
-180.180922
 20
-183.364751
 30
0.0
  0
VERTEX
  5
C29
100
AcDbEntity
  8
1
100
AcDbVertex
100
AcDb2dVertex
 10
-180.245216
 20
-183.373145
 30
0.0
  0
VERTEX
  5
C2A
100
AcDbEntity
  8
1
100
AcDbVertex
100
AcDb2dVertex
 10
-180.3095
 20
-183.38166
 30
0.0
  0
VERTEX
  5
C2B
100
AcDbEntity
  8
1
100
AcDbVertex
100
AcDb2dVertex
 10
-180.373785
 20
-183.390195
 30
0.0
  0
VERTEX
  5
C2C
100
AcDbEntity
  8
1
100
AcDbVertex
100
AcDb2dVertex
 10
-180.438081
 20
-183.39865
 30
0.0
  0
VERTEX
  5
C2D
100
AcDbEntity
  8
1
100
AcDbVertex
100
AcDb2dVertex
 10
-180.502401
 20
-183.406926
 30
0.0
  0
VERTEX
  5
C2E
100
AcDbEntity
  8
1
100
AcDbVertex
100
AcDb2dVertex
 10
-180.566756
 20
-183.414923
 30
0.0
  0
VERTEX
  5
C2F
100
AcDbEntity
  8
1
100
AcDbVertex
100
AcDb2dVertex
 10
-180.634931
 20
-183.422996
 30
0.0
  0
VERTEX
  5
C30
100
AcDbEntity
  8
1
100
AcDbVertex
100
AcDb2dVertex
 10
-180.703153
 20
-183.430663
 30
0.0
  0
VERTEX
  5
C31
100
AcDbEntity
  8
1
100
AcDbVertex
100
AcDb2dVertex
 10
-180.771418
 20
-183.437946
 30
0.0
  0
VERTEX
  5
C32
100
AcDbEntity
  8
1
100
AcDbVertex
100
AcDb2dVertex
 10
-180.839722
 20
-183.444863
 30
0.0
  0
VERTEX
  5
C33
100
AcDbEntity
  8
1
100
AcDbVertex
100
AcDb2dVertex
 10
-180.908058
 20
-183.451434
 30
0.0
  0
VERTEX
  5
C34
100
AcDbEntity
  8
1
100
AcDbVertex
100
AcDb2dVertex
 10
-180.976424
 20
-183.45768
 30
0.0
  0
VERTEX
  5
C35
100
AcDbEntity
  8
1
100
AcDbVertex
100
AcDb2dVertex
 10
-181.060734
 20
-183.464973
 30
0.0
  0
VERTEX
  5
C36
100
AcDbEntity
  8
1
100
AcDbVertex
100
AcDb2dVertex
 10
-181.145073
 20
-183.471916
 30
0.0
  0
VERTEX
  5
C37
100
AcDbEntity
  8
1
100
AcDbVertex
100
AcDb2dVertex
 10
-181.229433
 20
-183.478624
 30
0.0
  0
VERTEX
  5
C38
100
AcDbEntity
  8
1
100
AcDbVertex
100
AcDb2dVertex
 10
-181.313805
 20
-183.485212
 30
0.0
  0
VERTEX
  5
C39
100
AcDbEntity
  8
1
100
AcDbVertex
100
AcDb2dVertex
 10
-181.398182
 20
-183.491795
 30
0.0
  0
VERTEX
  5
C3A
100
AcDbEntity
  8
1
100
AcDbVertex
100
AcDb2dVertex
 10
-181.510493
 20
-183.500696
 30
0.0
  0
VERTEX
  5
C3B
100
AcDbEntity
  8
1
100
AcDbVertex
100
AcDb2dVertex
 10
-181.622799
 20
-183.50975
 30
0.0
  0
VERTEX
  5
C3C
100
AcDbEntity
  8
1
100
AcDbVertex
100
AcDb2dVertex
 10
-181.735103
 20
-183.518917
 30
0.0
  0
VERTEX
  5
C3D
100
AcDbEntity
  8
1
100
AcDbVertex
100
AcDb2dVertex
 10
-182.072012
 20
-183.546674
 30
0.0
  0
VERTEX
  5
C3E
100
AcDbEntity
  8
1
100
AcDbVertex
100
AcDb2dVertex
 10
-182.408959
 20
-183.573946
 30
0.0
  0
VERTEX
  5
C3F
100
AcDbEntity
  8
1
100
AcDbVertex
100
AcDb2dVertex
 10
-182.745994
 20
-183.599611
 30
0.0
  0
VERTEX
  5
C40
100
AcDbEntity
  8
1
100
AcDbVertex
100
AcDb2dVertex
 10
-183.083166
 20
-183.622551
 30
0.0
  0
VERTEX
  5
C41
100
AcDbEntity
  8
1
100
AcDbVertex
100
AcDb2dVertex
 10
-183.420526
 20
-183.641645
 30
0.0
  0
VERTEX
  5
C42
100
AcDbEntity
  8
1
100
AcDbVertex
100
AcDb2dVertex
 10
-183.53303
 20
-183.646961
 30
0.0
  0
VERTEX
  5
C43
100
AcDbEntity
  8
1
100
AcDbVertex
100
AcDb2dVertex
 10
-183.645562
 20
-183.651684
 30
0.0
  0
VERTEX
  5
C44
100
AcDbEntity
  8
1
100
AcDbVertex
100
AcDb2dVertex
 10
-183.758124
 20
-183.655773
 30
0.0
  0
VERTEX
  5
C45
100
AcDbEntity
  8
1
100
AcDbVertex
100
AcDb2dVertex
 10
-183.838037
 20
-183.658266
 30
0.0
  0
VERTEX
  5
C46
100
AcDbEntity
  8
1
100
AcDbVertex
100
AcDb2dVertex
 10
-183.917964
 20
-183.660398
 30
0.0
  0
VERTEX
  5
C47
100
AcDbEntity
  8
1
100
AcDbVertex
100
AcDb2dVertex
 10
-183.997904
 20
-183.662152
 30
0.0
  0
VERTEX
  5
C48
100
AcDbEntity
  8
1
100
AcDbVertex
100
AcDb2dVertex
 10
-184.077854
 20
-183.663506
 30
0.0
  0
VERTEX
  5
C49
100
AcDbEntity
  8
1
100
AcDbVertex
100
AcDb2dVertex
 10
-184.157812
 20
-183.664443
 30
0.0
  0
VERTEX
  5
C4A
100
AcDbEntity
  8
1
100
AcDbVertex
100
AcDb2dVertex
 10
-184.234988
 20
-183.664975
 30
0.0
  0
VERTEX
  5
C4B
100
AcDbEntity
  8
1
100
AcDbVertex
100
AcDb2dVertex
 10
-184.312165
 20
-183.665342
 30
0.0
  0
VERTEX
  5
C4C
100
AcDbEntity
  8
1
100
AcDbVertex
100
AcDb2dVertex
 10
-184.389338
 20
-183.665788
 30
0.0
  0
VERTEX
  5
C4D
100
AcDbEntity
  8
1
100
AcDbVertex
100
AcDb2dVertex
 10
-184.466499
 20
-183.666556
 30
0.0
  0
VERTEX
  5
C4E
100
AcDbEntity
  8
1
100
AcDbVertex
100
AcDb2dVertex
 10
-184.543646
 20
-183.667888
 30
0.0
  0
VERTEX
  5
C4F
100
AcDbEntity
  8
1
100
AcDbVertex
100
AcDb2dVertex
 10
-184.697535
 20
-183.672813
 30
0.0
  0
VERTEX
  5
C50
100
AcDbEntity
  8
1
100
AcDbVertex
100
AcDb2dVertex
 10
-184.851331
 20
-183.680563
 30
0.0
  0
VERTEX
  5
C51
100
AcDbEntity
  8
1
100
AcDbVertex
100
AcDb2dVertex
 10
-185.005027
 20
-183.690742
 30
0.0
  0
VERTEX
  5
C52
100
AcDbEntity
  8
1
100
AcDbVertex
100
AcDb2dVertex
 10
-185.158612
 20
-183.70296
 30
0.0
  0
VERTEX
  5
C53
100
AcDbEntity
  8
1
100
AcDbVertex
100
AcDb2dVertex
 10
-185.312079
 20
-183.716822
 30
0.0
  0
VERTEX
  5
C54
100
AcDbEntity
  8
1
100
AcDbVertex
100
AcDb2dVertex
 10
-185.46542
 20
-183.731937
 30
0.0
  0
VERTEX
  5
C55
100
AcDbEntity
  8
1
100
AcDbVertex
100
AcDb2dVertex
 10
-185.605543
 20
-183.746548
 30
0.0
  0
VERTEX
  5
C56
100
AcDbEntity
  8
1
100
AcDbVertex
100
AcDb2dVertex
 10
-185.745577
 20
-183.761733
 30
0.0
  0
VERTEX
  5
C57
100
AcDbEntity
  8
1
100
AcDbVertex
100
AcDb2dVertex
 10
-185.885542
 20
-183.77735
 30
0.0
  0
VERTEX
  5
C58
100
AcDbEntity
  8
1
100
AcDbVertex
100
AcDb2dVertex
 10
-186.025461
 20
-183.793255
 30
0.0
  0
VERTEX
  5
C59
100
AcDbEntity
  8
1
100
AcDbVertex
100
AcDb2dVertex
 10
-186.165359
 20
-183.809303
 30
0.0
  0
SEQEND
  5
C5A
100
AcDbEntity
  8
1
  0
POLYLINE
  5
5F7
100
AcDbEntity
  8
1
100
AcDb2dPolyline
 66
     1
 10
0.0
 20
0.0
 30
0.0
  0
VERTEX
  5
C5B
100
AcDbEntity
  8
1
100
AcDbVertex
100
AcDb2dVertex
 10
-180.432534
 20
-182.865241
 30
0.0
  0
VERTEX
  5
C5C
100
AcDbEntity
  8
1
100
AcDbVertex
100
AcDb2dVertex
 10
-180.43236
 20
-182.874312
 30
0.0
  0
VERTEX
  5
C5D
100
AcDbEntity
  8
1
100
AcDbVertex
100
AcDb2dVertex
 10
-180.432181
 20
-182.883384
 30
0.0
  0
VERTEX
  5
C5E
100
AcDbEntity
  8
1
100
AcDbVertex
100
AcDb2dVertex
 10
-180.431992
 20
-182.892456
 30
0.0
  0
VERTEX
  5
C5F
100
AcDbEntity
  8
1
100
AcDbVertex
100
AcDb2dVertex
 10
-180.43132
 20
-182.919679
 30
0.0
  0
VERTEX
  5
C60
100
AcDbEntity
  8
1
100
AcDbVertex
100
AcDb2dVertex
 10
-180.430387
 20
-182.946915
 30
0.0
  0
VERTEX
  5
C61
100
AcDbEntity
  8
1
100
AcDbVertex
100
AcDb2dVertex
 10
-180.429063
 20
-182.974173
 30
0.0
  0
VERTEX
  5
C62
100
AcDbEntity
  8
1
100
AcDbVertex
100
AcDb2dVertex
 10
-180.428512
 20
-182.983264
 30
0.0
  0
VERTEX
  5
C63
100
AcDbEntity
  8
1
100
AcDbVertex
100
AcDb2dVertex
 10
-180.427898
 20
-182.992359
 30
0.0
  0
VERTEX
  5
C64
100
AcDbEntity
  8
1
100
AcDbVertex
100
AcDb2dVertex
 10
-180.427216
 20
-183.001458
 30
0.0
  0
VERTEX
  5
C65
100
AcDbEntity
  8
1
100
AcDbVertex
100
AcDb2dVertex
 10
-180.426396
 20
-183.011271
 30
0.0
  0
VERTEX
  5
C66
100
AcDbEntity
  8
1
100
AcDbVertex
100
AcDb2dVertex
 10
-180.425464
 20
-183.021077
 30
0.0
  0
VERTEX
  5
C67
100
AcDbEntity
  8
1
100
AcDbVertex
100
AcDb2dVertex
 10
-180.424392
 20
-183.030865
 30
0.0
  0
VERTEX
  5
C68
100
AcDbEntity
  8
1
100
AcDbVertex
100
AcDb2dVertex
 10
-180.420055
 20
-183.060005
 30
0.0
  0
VERTEX
  5
C69
100
AcDbEntity
  8
1
100
AcDbVertex
100
AcDb2dVertex
 10
-180.418143
 20
-183.069606
 30
0.0
  0
VERTEX
  5
C6A
100
AcDbEntity
  8
1
100
AcDbVertex
100
AcDb2dVertex
 10
-180.415952
 20
-183.079132
 30
0.0
  0
VERTEX
  5
C6B
100
AcDbEntity
  8
1
100
AcDbVertex
100
AcDb2dVertex
 10
-180.413453
 20
-183.088571
 30
0.0
  0
VERTEX
  5
C6C
100
AcDbEntity
  8
1
100
AcDbVertex
100
AcDb2dVertex
 10
-180.410961
 20
-183.096868
 30
0.0
  0
VERTEX
  5
C6D
100
AcDbEntity
  8
1
100
AcDbVertex
100
AcDb2dVertex
 10
-180.40822
 20
-183.105091
 30
0.0
  0
VERTEX
  5
C6E
100
AcDbEntity
  8
1
100
AcDbVertex
100
AcDb2dVertex
 10
-180.405248
 20
-183.113242
 30
0.0
  0
VERTEX
  5
C6F
100
AcDbEntity
  8
1
100
AcDbVertex
100
AcDb2dVertex
 10
-180.395103
 20
-183.137287
 30
0.0
  0
VERTEX
  5
C70
100
AcDbEntity
  8
1
100
AcDbVertex
100
AcDb2dVertex
 10
-180.383452
 20
-183.160777
 30
0.0
  0
VERTEX
  5
C71
100
AcDbEntity
  8
1
100
AcDbVertex
100
AcDb2dVertex
 10
-180.370734
 20
-183.18378
 30
0.0
  0
VERTEX
  5
C72
100
AcDbEntity
  8
1
100
AcDbVertex
100
AcDb2dVertex
 10
-180.366333
 20
-183.191352
 30
0.0
  0
VERTEX
  5
C73
100
AcDbEntity
  8
1
100
AcDbVertex
100
AcDb2dVertex
 10
-180.361878
 20
-183.19888
 30
0.0
  0
VERTEX
  5
C74
100
AcDbEntity
  8
1
100
AcDbVertex
100
AcDb2dVertex
 10
-180.357386
 20
-183.206367
 30
0.0
  0
VERTEX
  5
C75
100
AcDbEntity
  8
1
100
AcDbVertex
100
AcDb2dVertex
 10
-180.35099
 20
-183.216879
 30
0.0
  0
VERTEX
  5
C76
100
AcDbEntity
  8
1
100
AcDbVertex
100
AcDb2dVertex
 10
-180.344512
 20
-183.227308
 30
0.0
  0
VERTEX
  5
C77
100
AcDbEntity
  8
1
100
AcDbVertex
100
AcDb2dVertex
 10
-180.337913
 20
-183.237648
 30
0.0
  0
VERTEX
  5
C78
100
AcDbEntity
  8
1
100
AcDbVertex
100
AcDb2dVertex
 10
-180.331155
 20
-183.247893
 30
0.0
  0
VERTEX
  5
C79
100
AcDbEntity
  8
1
100
AcDbVertex
100
AcDb2dVertex
 10
-180.324198
 20
-183.258035
 30
0.0
  0
VERTEX
  5
C7A
100
AcDbEntity
  8
1
100
AcDbVertex
100
AcDb2dVertex
 10
-180.317004
 20
-183.268071
 30
0.0
  0
VERTEX
  5
C7B
100
AcDbEntity
  8
1
100
AcDbVertex
100
AcDb2dVertex
 10
-180.31043
 20
-183.276812
 30
0.0
  0
VERTEX
  5
C7C
100
AcDbEntity
  8
1
100
AcDbVertex
100
AcDb2dVertex
 10
-180.303607
 20
-183.285374
 30
0.0
  0
VERTEX
  5
C7D
100
AcDbEntity
  8
1
100
AcDbVertex
100
AcDb2dVertex
 10
-180.296498
 20
-183.29367
 30
0.0
  0
VERTEX
  5
C7E
100
AcDbEntity
  8
1
100
AcDbVertex
100
AcDb2dVertex
 10
-180.28907
 20
-183.301607
 30
0.0
  0
VERTEX
  5
C7F
100
AcDbEntity
  8
1
100
AcDbVertex
100
AcDb2dVertex
 10
-180.281285
 20
-183.309098
 30
0.0
  0
VERTEX
  5
C80
100
AcDbEntity
  8
1
100
AcDbVertex
100
AcDb2dVertex
 10
-180.273111
 20
-183.316052
 30
0.0
  0
VERTEX
  5
C81
100
AcDbEntity
  8
1
100
AcDbVertex
100
AcDb2dVertex
 10
-180.257688
 20
-183.326879
 30
0.0
  0
VERTEX
  5
C82
100
AcDbEntity
  8
1
100
AcDbVertex
100
AcDb2dVertex
 10
-180.241159
 20
-183.33608
 30
0.0
  0
VERTEX
  5
C83
100
AcDbEntity
  8
1
100
AcDbVertex
100
AcDb2dVertex
 10
-180.223746
 20
-183.343979
 30
0.0
  0
VERTEX
  5
C84
100
AcDbEntity
  8
1
100
AcDbVertex
100
AcDb2dVertex
 10
-180.20567
 20
-183.350903
 30
0.0
  0
VERTEX
  5
C85
100
AcDbEntity
  8
1
100
AcDbVertex
100
AcDb2dVertex
 10
-180.187152
 20
-183.357176
 30
0.0
  0
VERTEX
  5
C86
100
AcDbEntity
  8
1
100
AcDbVertex
100
AcDb2dVertex
 10
-180.168412
 20
-183.363124
 30
0.0
  0
SEQEND
  5
C87
100
AcDbEntity
  8
1
  0
LINE
  5
625
100
AcDbEntity
  8
1
100
AcDbLine
 10
-170.77938
 20
-194.225409
 30
0.0
 11
-170.77938
 21
-196.67417
 31
0.0
  0
LINE
  5
626
100
AcDbEntity
  8
1
100
AcDbLine
 10
-194.013892
 20
-194.225409
 30
0.0
 11
-194.013892
 21
-196.67417
 31
0.0
  0
LINE
  5
627
100
AcDbEntity
  8
1
100
AcDbLine
 10
-193.764715
 20
-196.682519
 30
0.0
 11
-171.028384
 21
-196.682463
 31
0.0
  0
POINT
  5
628
100
AcDbEntity
  8
1
100
AcDbPoint
 10
-182.396636
 20
-173.132912
 30
0.0
  0
LINE
  5
629
100
AcDbEntity
  8
2
  6
CENTER
 62
     2
100
AcDbLine
 10
-182.396636
 20
248.442017
 30
0.0
 11
-182.396636
 21
123.997078
 31
0.0
  0
LINE
  5
62A
100
AcDbEntity
  8
2
  6
CENTER
 62
     2
100
AcDbLine
 10
-121.372528
 20
187.017088
 30
0.0
 11
-244.901947
 21
187.017088
 31
0.0
  0
LINE
  5
62B
100
AcDbEntity
  8
2
100
AcDbLine
 10
-221.396636
 20
-35.132912
 30
0.0
 11
-143.396636
 21
-35.132912
 31
0.0
  0
LINE
  5
62C
100
AcDbEntity
  8
2
100
AcDbLine
 10
-143.396636
 20
42.867088
 30
0.0
 11
-143.396636
 21
-35.132912
 31
0.0
  0
LINE
  5
62D
100
AcDbEntity
  8
2
100
AcDbLine
 10
-221.396636
 20
42.867088
 30
0.0
 11
-221.396636
 21
-35.132912
 31
0.0
  0
LINE
  5
62E
100
AcDbEntity
  8
2
100
AcDbLine
 10
-219.396636
 20
44.867088
 30
0.0
 11
-145.396636
 21
44.867088
 31
0.0
  0
ARC
  5
62F
100
AcDbEntity
  8
2
100
AcDbCircle
 10
-219.396636
 20
42.867088
 30
0.0
 40
2.0
100
AcDbArc
 50
90.0
 51
180.0
  0
ARC
  5
630
100
AcDbEntity
  8
2
100
AcDbCircle
 10
-145.396636
 20
42.867088
 30
0.0
 40
2.0
100
AcDbArc
 50
0.0
 51
90.0
  0
LINE
  5
631
100
AcDbEntity
  8
2
100
AcDbLine
 10
-147.396636
 20
-22.132912
 30
0.0
 11
-147.396636
 21
-35.132912
 31
0.0
  0
LINE
  5
632
100
AcDbEntity
  8
2
100
AcDbLine
 10
-149.396636
 20
-20.132912
 30
0.0
 11
-157.396636
 21
-20.132912
 31
0.0
  0
LINE
  5
633
100
AcDbEntity
  8
2
100
AcDbLine
 10
-149.396636
 20
-4.132912
 30
0.0
 11
-149.396636
 21
-18.66881
 31
0.0
  0
ARC
  5
634
100
AcDbEntity
  8
2
100
AcDbCircle
 10
-149.396636
 20
-22.132912
 30
0.0
 40
2.0
100
AcDbArc
 50
0.0
 51
60.0
  0
ARC
  5
635
100
AcDbEntity
  8
2
100
AcDbCircle
 10
-147.396636
 20
-18.66881
 30
0.0
 40
2.0
100
AcDbArc
 50
180.0
 51
240.0
  0
LINE
  5
636
100
AcDbEntity
  8
2
100
AcDbLine
 10
-155.396636
 20
-22.132912
 30
0.0
 11
-148.396636
 21
-22.132912
 31
0.0
  0
LINE
  5
637
100
AcDbEntity
  8
2
100
AcDbLine
 10
-154.396636
 20
-7.132912
 30
0.0
 11
-152.396636
 21
-7.132912
 31
0.0
  0
ARC
  5
638
100
AcDbEntity
  8
2
100
AcDbCircle
 10
-152.396636
 20
-10.132912
 30
0.0
 40
3.0
100
AcDbArc
 50
0.0
 51
90.0
  0
LINE
  5
639
100
AcDbEntity
  8
2
100
AcDbLine
 10
-217.396636
 20
-22.132912
 30
0.0
 11
-217.396636
 21
-35.132912
 31
0.0
  0
LINE
  5
63A
100
AcDbEntity
  8
2
100
AcDbLine
 10
-215.396636
 20
-20.132912
 30
0.0
 11
-207.396636
 21
-20.132912
 31
0.0
  0
LINE
  5
63B
100
AcDbEntity
  8
2
100
AcDbLine
 10
-215.396636
 20
-4.132912
 30
0.0
 11
-215.396636
 21
-18.66881
 31
0.0
  0
ARC
  5
63C
100
AcDbEntity
  8
2
100
AcDbCircle
 10
-215.396636
 20
-22.132912
 30
0.0
 40
2.0
100
AcDbArc
 50
120.0
 51
180.0
  0
ARC
  5
63D
100
AcDbEntity
  8
2
100
AcDbCircle
 10
-217.396636
 20
-18.66881
 30
0.0
 40
2.0
100
AcDbArc
 50
300.0
 51
360.0
  0
LINE
  5
63E
100
AcDbEntity
  8
2
100
AcDbLine
 10
-209.396636
 20
-22.132912
 30
0.0
 11
-216.396636
 21
-22.132912
 31
0.0
  0
LINE
  5
63F
100
AcDbEntity
  8
2
100
AcDbLine
 10
-210.396636
 20
-7.132912
 30
0.0
 11
-212.396636
 21
-7.132912
 31
0.0
  0
ARC
  5
640
100
AcDbEntity
  8
2
100
AcDbCircle
 10
-212.396636
 20
-10.132912
 30
0.0
 40
3.0
100
AcDbArc
 50
90.0
 51
180.0
  0
LINE
  5
641
100
AcDbEntity
  8
2
100
AcDbLine
 10
22.153364
 20
-35.132912
 30
0.0
 11
100.153364
 21
-35.132912
 31
0.0
  0
LINE
  5
642
100
AcDbEntity
  8
2
100
AcDbLine
 10
100.153364
 20
42.867088
 30
0.0
 11
100.153364
 21
-35.132912
 31
0.0
  0
LINE
  5
643
100
AcDbEntity
  8
2
100
AcDbLine
 10
22.153364
 20
42.867088
 30
0.0
 11
22.153364
 21
-35.132912
 31
0.0
  0
ARC
  5
644
100
AcDbEntity
  8
2
100
AcDbCircle
 10
24.153364
 20
42.867088
 30
0.0
 40
2.0
100
AcDbArc
 50
90.0
 51
180.0
  0
ARC
  5
645
100
AcDbEntity
  8
2
100
AcDbCircle
 10
98.153364
 20
42.867088
 30
0.0
 40
2.0
100
AcDbArc
 50
0.0
 51
90.0
  0
LINE
  5
646
100
AcDbEntity
  8
2
100
AcDbLine
 10
96.153364
 20
-22.132912
 30
0.0
 11
96.153364
 21
-35.132912
 31
0.0
  0
LINE
  5
647
100
AcDbEntity
  8
2
100
AcDbLine
 10
76.586794
 20
-22.132912
 30
0.0
 11
76.586794
 21
-35.132912
 31
0.0
  0
LINE
  5
648
100
AcDbEntity
  8
2
100
AcDbLine
 10
94.153364
 20
-20.132912
 30
0.0
 11
80.220423
 21
-20.132912
 31
0.0
  0
LINE
  5
649
100
AcDbEntity
  8
2
100
AcDbLine
 10
94.153364
 20
-4.132912
 30
0.0
 11
94.153364
 21
-18.66881
 31
0.0
  0
ARC
  5
64A
100
AcDbEntity
  8
2
100
AcDbCircle
 10
94.153364
 20
-22.132912
 30
0.0
 40
2.0
100
AcDbArc
 50
0.0
 51
60.0
  0
ARC
  5
64B
100
AcDbEntity
  8
2
100
AcDbCircle
 10
96.153364
 20
-18.66881
 30
0.0
 40
2.0
100
AcDbArc
 50
180.0
 51
240.0
  0
ARC
  5
64C
100
AcDbEntity
  8
2
100
AcDbCircle
 10
78.586794
 20
-22.132912
 30
0.0
 40
2.0
100
AcDbArc
 50
95.25524
 51
180.0
  0
LINE
  5
64D
100
AcDbEntity
  8
2
100
AcDbLine
 10
80.220423
 20
-7.132912
 30
0.0
 11
80.220423
 21
-18.149725
 31
0.0
  0
ARC
  5
64E
100
AcDbEntity
  8
2
100
AcDbCircle
 10
78.220423
 20
-18.149725
 30
0.0
 40
2.0
100
AcDbArc
 50
275.25524
 51
360.0
  0
LINE
  5
64F
100
AcDbEntity
  8
2
100
AcDbLine
 10
78.403609
 20
-22.132912
 30
0.0
 11
95.153364
 21
-22.132912
 31
0.0
  0
LINE
  5
650
100
AcDbEntity
  8
2
100
AcDbLine
 10
83.220423
 20
-7.132912
 30
0.0
 11
91.153364
 21
-7.132912
 31
0.0
  0
ARC
  5
651
100
AcDbEntity
  8
2
100
AcDbCircle
 10
91.153364
 20
-10.132912
 30
0.0
 40
3.0
100
AcDbArc
 50
0.0
 51
90.0
  0
ARC
  5
652
100
AcDbEntity
  8
2
100
AcDbCircle
 10
83.220423
 20
-4.132912
 30
0.0
 40
3.0
100
AcDbArc
 50
180.0
 51
270.0
  0
LINE
  5
653
100
AcDbEntity
  8
2
100
AcDbLine
 10
26.153364
 20
-22.132912
 30
0.0
 11
26.153364
 21
-35.132912
 31
0.0
  0
LINE
  5
654
100
AcDbEntity
  8
2
100
AcDbLine
 10
45.719935
 20
-22.132912
 30
0.0
 11
45.719935
 21
-35.132912
 31
0.0
  0
LINE
  5
655
100
AcDbEntity
  8
2
100
AcDbLine
 10
28.153364
 20
-20.132912
 30
0.0
 11
42.086305
 21
-20.132912
 31
0.0
  0
LINE
  5
656
100
AcDbEntity
  8
2
100
AcDbLine
 10
28.153364
 20
-10.132912
 30
0.0
 11
28.153364
 21
-18.66881
 31
0.0
  0
ARC
  5
657
100
AcDbEntity
  8
2
100
AcDbCircle
 10
28.153364
 20
-22.132912
 30
0.0
 40
2.0
100
AcDbArc
 50
120.0
 51
180.0
  0
ARC
  5
658
100
AcDbEntity
  8
2
100
AcDbCircle
 10
26.153364
 20
-18.66881
 30
0.0
 40
2.0
100
AcDbArc
 50
300.0
 51
360.0
  0
ARC
  5
659
100
AcDbEntity
  8
2
100
AcDbCircle
 10
43.719935
 20
-22.132912
 30
0.0
 40
2.0
100
AcDbArc
 50
0.0
 51
84.74476
  0
LINE
  5
65A
100
AcDbEntity
  8
2
100
AcDbLine
 10
42.086306
 20
-7.132912
 30
0.0
 11
42.086305
 21
-18.149725
 31
0.0
  0
ARC
  5
65B
100
AcDbEntity
  8
2
100
AcDbCircle
 10
44.086305
 20
-18.149725
 30
0.0
 40
2.0
100
AcDbArc
 50
180.0
 51
264.74476
  0
LINE
  5
65C
100
AcDbEntity
  8
2
100
AcDbLine
 10
43.90312
 20
-22.132912
 30
0.0
 11
27.153364
 21
-22.132912
 31
0.0
  0
LINE
  5
65D
100
AcDbEntity
  8
2
100
AcDbLine
 10
39.086305
 20
-7.132912
 30
0.0
 11
31.153364
 21
-7.132912
 31
0.0
  0
ARC
  5
65E
100
AcDbEntity
  8
2
100
AcDbCircle
 10
39.086305
 20
-4.132912
 30
0.0
 40
3.0
100
AcDbArc
 50
270.0
 51
0.0
  0
LINE
  5
65F
100
AcDbEntity
  8
2
100
AcDbLine
 10
-157.396636
 20
23.867088
 30
0.0
 11
-157.396636
 21
-35.132912
 31
0.0
  0
LINE
  5
660
100
AcDbEntity
  8
2
100
AcDbLine
 10
-207.396636
 20
23.867088
 30
0.0
 11
-207.396636
 21
-35.132912
 31
0.0
  0
LINE
  5
661
100
AcDbEntity
  8
2
100
AcDbLine
 10
-204.396636
 20
26.867088
 30
0.0
 11
-160.396636
 21
26.867088
 31
0.0
  0
ARC
  5
662
100
AcDbEntity
  8
2
100
AcDbCircle
 10
-204.396636
 20
23.867088
 30
0.0
 40
3.0
100
AcDbArc
 50
90.0
 51
180.0
  0
ARC
  5
663
100
AcDbEntity
  8
2
100
AcDbCircle
 10
-160.396636
 20
23.867088
 30
0.0
 40
3.0
100
AcDbArc
 50
0.0
 51
90.0
  0
ARC
  5
664
100
AcDbEntity
  8
2
100
AcDbCircle
 10
-154.396636
 20
-4.132912
 30
0.0
 40
3.0
100
AcDbArc
 50
180.0
 51
270.0
  0
ARC
  5
665
100
AcDbEntity
  8
2
100
AcDbCircle
 10
-210.396636
 20
-4.132912
 30
0.0
 40
3.0
100
AcDbArc
 50
270.0
 51
0.0
  0
ARC
  5
666
100
AcDbEntity
  8
2
100
AcDbCircle
 10
-155.396636
 20
-20.132912
 30
0.0
 40
2.0
100
AcDbArc
 50
180.0
 51
270.0
  0
ARC
  5
667
100
AcDbEntity
  8
2
100
AcDbCircle
 10
-209.396636
 20
-20.132912
 30
0.0
 40
2.0
100
AcDbArc
 50
270.0
 51
360.0
  0
LINE
  5
668
100
AcDbEntity
  8
2
100
AcDbLine
 10
-193.146636
 20
57.867088
 30
0.0
 11
-171.646636
 21
57.867088
 31
0.0
  0
LINE
  5
669
100
AcDbEntity
  8
2
100
AcDbLine
 10
-213.896636
 20
47.867088
 30
0.0
 11
-150.896636
 21
47.867088
 31
0.0
  0
LINE
  5
66A
100
AcDbEntity
  8
2
100
AcDbLine
 10
-170.646636
 20
56.867088
 30
0.0
 11
-170.646636
 21
49.367088
 31
0.0
  0
LINE
  5
66B
100
AcDbEntity
  8
2
100
AcDbLine
 10
-176.834487
 20
57.867088
 30
0.0
 11
-176.834487
 21
47.867088
 31
0.0
  0
LINE
  5
66C
100
AcDbEntity
  8
2
100
AcDbLine
 10
-187.958784
 20
57.867088
 30
0.0
 11
-187.958784
 21
47.867088
 31
0.0
  0
LINE
  5
66D
100
AcDbEntity
  8
2
100
AcDbLine
 10
-194.146636
 20
56.867088
 30
0.0
 11
-194.146636
 21
49.367088
 31
0.0
  0
ARC
  5
66E
100
AcDbEntity
  8
2
100
AcDbCircle
 10
-171.646636
 20
56.867088
 30
0.0
 40
1.0
100
AcDbArc
 50
0.0
 51
90.0
  0
ARC
  5
66F
100
AcDbEntity
  8
2
100
AcDbCircle
 10
-193.146636
 20
56.867088
 30
0.0
 40
1.0
100
AcDbArc
 50
90.0
 51
180.0
  0
LINE
  5
670
100
AcDbEntity
  8
2
100
AcDbLine
 10
-150.896636
 20
47.867088
 30
0.0
 11
-150.896636
 21
45.867088
 31
0.0
  0
LINE
  5
671
100
AcDbEntity
  8
2
100
AcDbLine
 10
-213.896636
 20
47.867088
 30
0.0
 11
-213.896636
 21
45.867088
 31
0.0
  0
LINE
  5
672
100
AcDbEntity
  8
2
100
AcDbLine
 10
-213.896636
 20
45.867088
 30
0.0
 11
-150.896636
 21
45.867088
 31
0.0
  0
LINE
  5
673
100
AcDbEntity
  8
2
100
AcDbLine
 10
-152.896636
 20
44.867088
 30
0.0
 11
-152.896636
 21
45.867088
 31
0.0
  0
LINE
  5
674
100
AcDbEntity
  8
2
100
AcDbLine
 10
-211.896636
 20
44.867088
 30
0.0
 11
-211.896636
 21
45.867088
 31
0.0
  0
ARC
  5
675
100
AcDbEntity
  8
2
100
AcDbCircle
 10
-169.146636
 20
49.367088
 30
0.0
 40
1.5
100
AcDbArc
 50
180.0
 51
270.0
  0
ARC
  5
676
100
AcDbEntity
  8
2
100
AcDbCircle
 10
-195.646636
 20
49.367088
 30
0.0
 40
1.5
100
AcDbArc
 50
270.0
 51
0.0
  0
LINE
  5
677
100
AcDbEntity
  8
2
100
AcDbLine
 10
50.403364
 20
57.867088
 30
0.0
 11
71.903364
 21
57.867088
 31
0.0
  0
LINE
  5
678
100
AcDbEntity
  8
2
100
AcDbLine
 10
29.653364
 20
47.867088
 30
0.0
 11
92.653364
 21
47.867088
 31
0.0
  0
LINE
  5
679
100
AcDbEntity
  8
2
100
AcDbLine
 10
72.903364
 20
56.867088
 30
0.0
 11
72.903364
 21
49.367088
 31
0.0
  0
LINE
  5
67A
100
AcDbEntity
  8
2
100
AcDbLine
 10
66.715513
 20
57.867088
 30
0.0
 11
66.715513
 21
47.867088
 31
0.0
  0
LINE
  5
67B
100
AcDbEntity
  8
2
100
AcDbLine
 10
55.591216
 20
57.867088
 30
0.0
 11
55.591216
 21
47.867088
 31
0.0
  0
LINE
  5
67C
100
AcDbEntity
  8
2
100
AcDbLine
 10
49.403364
 20
56.867088
 30
0.0
 11
49.403364
 21
49.367088
 31
0.0
  0
ARC
  5
67D
100
AcDbEntity
  8
2
100
AcDbCircle
 10
71.903364
 20
56.867088
 30
0.0
 40
1.0
100
AcDbArc
 50
0.0
 51
90.0
  0
ARC
  5
67E
100
AcDbEntity
  8
2
100
AcDbCircle
 10
50.403364
 20
56.867088
 30
0.0
 40
1.0
100
AcDbArc
 50
90.0
 51
180.0
  0
LINE
  5
67F
100
AcDbEntity
  8
2
100
AcDbLine
 10
92.653364
 20
47.867088
 30
0.0
 11
92.653364
 21
45.867088
 31
0.0
  0
LINE
  5
680
100
AcDbEntity
  8
2
100
AcDbLine
 10
29.653364
 20
47.867088
 30
0.0
 11
29.653364
 21
45.867088
 31
0.0
  0
LINE
  5
681
100
AcDbEntity
  8
2
100
AcDbLine
 10
31.653364
 20
44.867088
 30
0.0
 11
31.653364
 21
45.867088
 31
0.0
  0
ARC
  5
682
100
AcDbEntity
  8
2
100
AcDbCircle
 10
74.403364
 20
49.367088
 30
0.0
 40
1.5
100
AcDbArc
 50
180.0
 51
270.0
  0
ARC
  5
683
100
AcDbEntity
  8
2
100
AcDbCircle
 10
47.903364
 20
49.367088
 30
0.0
 40
1.5
100
AcDbArc
 50
270.0
 51
0.0
  0
LINE
  5
684
100
AcDbEntity
  8
2
  6
CENTER
 62
     2
100
AcDbLine
 10
-195.896636
 20
-3.274899
 30
0.0
 11
-195.896636
 21
-26.517354
 31
0.0
  0
LINE
  5
685
100
AcDbEntity
  8
2
  6
CENTER
 62
     2
100
AcDbLine
 10
-168.896636
 20
-3.274899
 30
0.0
 11
-168.896636
 21
-26.517354
 31
0.0
  0
LINE
  5
686
100
AcDbEntity
  8
2
  6
CENTER
 62
     2
100
AcDbLine
 10
-205.462798
 20
-15.132912
 30
0.0
 11
-158.931113
 21
-15.132912
 31
0.0
  0
CIRCLE
  5
687
100
AcDbEntity
  8
2
 62
     2
100
AcDbCircle
 10
-168.896636
 20
-15.132912
 30
0.0
 40
3.3235
  0
CIRCLE
  5
688
100
AcDbEntity
  8
2
100
AcDbCircle
 10
-168.896636
 20
-15.132912
 30
0.0
 40
6.25
  0
CIRCLE
  5
689
100
AcDbEntity
  8
2
100
AcDbCircle
 10
-168.896636
 20
-15.132912
 30
0.0
 40
4.0
  0
LINE
  5
68A
100
AcDbEntity
  8
2
100
AcDbLine
 10
-172.649412
 20
-8.632912
 30
0.0
 11
-165.143859
 21
-8.632912
 31
0.0
  0
LINE
  5
68B
100
AcDbEntity
  8
2
100
AcDbLine
 10
-172.649412
 20
-21.632912
 30
0.0
 11
-165.143859
 21
-21.632912
 31
0.0
  0
LINE
  5
68C
100
AcDbEntity
  8
2
100
AcDbLine
 10
-176.402189
 20
-15.132912
 30
0.0
 11
-172.649412
 21
-8.632912
 31
0.0
  0
LINE
  5
68D
100
AcDbEntity
  8
2
100
AcDbLine
 10
-165.143859
 20
-21.632912
 30
0.0
 11
-161.391082
 21
-15.132912
 31
0.0
  0
LINE
  5
68E
100
AcDbEntity
  8
2
100
AcDbLine
 10
-172.649412
 20
-21.632912
 30
0.0
 11
-176.402189
 21
-15.132912
 31
0.0
  0
LINE
  5
68F
100
AcDbEntity
  8
2
100
AcDbLine
 10
-161.391082
 20
-15.132912
 30
0.0
 11
-165.143859
 21
-8.632912
 31
0.0
  0
LINE
  5
690
100
AcDbEntity
  8
2
100
AcDbLine
 10
-170.896636
 20
-13.978211
 30
0.0
 11
-170.896636
 21
-16.287612
 31
0.0
  0
LINE
  5
691
100
AcDbEntity
  8
2
100
AcDbLine
 10
-166.896636
 20
-13.978211
 30
0.0
 11
-166.896636
 21
-16.287612
 31
0.0
  0
LINE
  5
692
100
AcDbEntity
  8
2
100
AcDbLine
 10
-168.896636
 20
-12.823511
 30
0.0
 11
-166.896636
 21
-13.978211
 31
0.0
  0
LINE
  5
693
100
AcDbEntity
  8
2
100
AcDbLine
 10
-170.896636
 20
-16.287612
 30
0.0
 11
-168.896636
 21
-17.442313
 31
0.0
  0
LINE
  5
694
100
AcDbEntity
  8
2
100
AcDbLine
 10
-168.896636
 20
-17.442313
 30
0.0
 11
-166.896636
 21
-16.287612
 31
0.0
  0
LINE
  5
695
100
AcDbEntity
  8
2
100
AcDbLine
 10
-170.896636
 20
-13.978211
 30
0.0
 11
-168.896636
 21
-12.823511
 31
0.0
  0
CIRCLE
  5
696
100
AcDbEntity
  8
2
 62
     2
100
AcDbCircle
 10
-195.896636
 20
-15.132912
 30
0.0
 40
3.3235
  0
CIRCLE
  5
697
100
AcDbEntity
  8
2
100
AcDbCircle
 10
-195.896636
 20
-15.132912
 30
0.0
 40
6.25
  0
CIRCLE
  5
698
100
AcDbEntity
  8
2
100
AcDbCircle
 10
-195.896636
 20
-15.132912
 30
0.0
 40
4.0
  0
LINE
  5
699
100
AcDbEntity
  8
2
100
AcDbLine
 10
-192.143859
 20
-8.632912
 30
0.0
 11
-199.649412
 21
-8.632912
 31
0.0
  0
LINE
  5
69A
100
AcDbEntity
  8
2
100
AcDbLine
 10
-192.143859
 20
-21.632912
 30
0.0
 11
-199.649412
 21
-21.632912
 31
0.0
  0
LINE
  5
69B
100
AcDbEntity
  8
2
100
AcDbLine
 10
-188.391082
 20
-15.132912
 30
0.0
 11
-192.143859
 21
-8.632912
 31
0.0
  0
LINE
  5
69C
100
AcDbEntity
  8
2
100
AcDbLine
 10
-199.649412
 20
-21.632912
 30
0.0
 11
-203.402189
 21
-15.132912
 31
0.0
  0
LINE
  5
69D
100
AcDbEntity
  8
2
100
AcDbLine
 10
-192.143859
 20
-21.632912
 30
0.0
 11
-188.391082
 21
-15.132912
 31
0.0
  0
LINE
  5
69E
100
AcDbEntity
  8
2
100
AcDbLine
 10
-203.402189
 20
-15.132912
 30
0.0
 11
-199.649412
 21
-8.632912
 31
0.0
  0
LINE
  5
69F
100
AcDbEntity
  8
2
100
AcDbLine
 10
-193.896636
 20
-13.978211
 30
0.0
 11
-193.896636
 21
-16.287612
 31
0.0
  0
LINE
  5
6A0
100
AcDbEntity
  8
2
100
AcDbLine
 10
-197.896636
 20
-13.978211
 30
0.0
 11
-197.896636
 21
-16.287612
 31
0.0
  0
LINE
  5
6A1
100
AcDbEntity
  8
2
100
AcDbLine
 10
-195.896636
 20
-12.823511
 30
0.0
 11
-197.896636
 21
-13.978211
 31
0.0
  0
LINE
  5
6A2
100
AcDbEntity
  8
2
100
AcDbLine
 10
-193.896636
 20
-16.287612
 30
0.0
 11
-195.896636
 21
-17.442313
 31
0.0
  0
LINE
  5
6A3
100
AcDbEntity
  8
2
100
AcDbLine
 10
-195.896636
 20
-17.442313
 30
0.0
 11
-197.896636
 21
-16.287612
 31
0.0
  0
LINE
  5
6A4
100
AcDbEntity
  8
2
100
AcDbLine
 10
-193.896636
 20
-13.978211
 30
0.0
 11
-195.896636
 21
-12.823511
 31
0.0
  0
LINE
  5
6A5
100
AcDbEntity
  8
2
  6
CENTER
 62
     2
100
AcDbLine
 10
11.166647
 20
-15.132912
 30
0.0
 11
28.998331
 21
-15.132912
 31
0.0
  0
LINE
  5
6A6
100
AcDbEntity
  8
2
100
AcDbLine
 10
15.153364
 20
-11.809412
 30
0.0
 11
15.653364
 21
-11.309412
 31
0.0
  0
LINE
  5
6A7
100
AcDbEntity
  8
2
 62
     2
100
AcDbLine
 10
15.153364
 20
-11.809412
 30
0.0
 11
15.653364
 21
-11.809412
 31
0.0
  0
LINE
  5
6A8
100
AcDbEntity
  8
2
100
AcDbLine
 10
15.153364
 20
-18.456412
 30
0.0
 11
15.153364
 21
-11.809412
 31
0.0
  0
LINE
  5
6A9
100
AcDbEntity
  8
2
100
AcDbLine
 10
15.153364
 20
-18.456412
 30
0.0
 11
15.653364
 21
-18.956412
 31
0.0
  0
LINE
  5
6AA
100
AcDbEntity
  8
2
 62
     2
100
AcDbLine
 10
15.153364
 20
-18.456412
 30
0.0
 11
15.653364
 21
-18.456412
 31
0.0
  0
LINE
  5
6AB
100
AcDbEntity
  8
2
100
AcDbLine
 10
32.624019
 20
26.867088
 30
0.0
 11
32.624019
 21
-4.331093
 31
0.0
  0
LINE
  5
6AC
100
AcDbEntity
  8
2
100
AcDbLine
 10
22.153364
 20
26.867088
 30
0.0
 11
30.624019
 21
26.867088
 31
0.0
  0
ARC
  5
6AD
100
AcDbEntity
  8
2
100
AcDbCircle
 10
30.624019
 20
28.867088
 30
0.0
 40
2.0
100
AcDbArc
 50
270.0
 51
360.0
  0
ARC
  5
6AE
100
AcDbEntity
  8
2
100
AcDbCircle
 10
31.153364
 20
-10.132912
 30
0.0
 40
3.0
100
AcDbArc
 50
90.0
 51
180.0
  0
ARC
  5
6AF
100
AcDbEntity
  8
2
100
AcDbCircle
 10
29.624019
 20
-4.331093
 30
0.0
 40
3.0
100
AcDbArc
 50
284.767121
 51
360.0
  0
LINE
  5
6B0
100
AcDbEntity
  8
2
100
AcDbLine
 10
22.153364
 20
-21.632912
 30
0.0
 11
15.653364
 21
-21.632912
 31
0.0
  0
LINE
  5
6B1
100
AcDbEntity
  8
2
100
AcDbLine
 10
15.653364
 20
-21.632912
 30
0.0
 11
15.653364
 21
-8.632912
 31
0.0
  0
ARC
  5
6B2
100
AcDbEntity
  8
2
100
AcDbCircle
 10
23.332123
 20
-18.382912
 30
0.0
 40
7.678759
100
AcDbArc
 50
154.96034
 51
205.03966
  0
LINE
  5
6B3
100
AcDbEntity
  8
2
100
AcDbLine
 10
22.153364
 20
-8.632912
 30
0.0
 11
15.653364
 21
-8.632912
 31
0.0
  0
LINE
  5
6B4
100
AcDbEntity
  8
2
100
AcDbLine
 10
21.431677
 20
-15.132912
 30
0.0
 11
16.375052
 21
-15.132912
 31
0.0
  0
ARC
  5
6B5
100
AcDbEntity
  8
2
100
AcDbCircle
 10
23.332123
 20
-11.882912
 30
0.0
 40
7.678759
100
AcDbArc
 50
154.96034
 51
205.03966
  0
ARC
  5
6B6
100
AcDbEntity
  8
2
100
AcDbCircle
 10
14.474606
 20
-11.882912
 30
0.0
 40
7.678759
100
AcDbArc
 50
334.96034
 51
25.03966
  0
ARC
  5
6B7
100
AcDbEntity
  8
2
100
AcDbCircle
 10
14.474606
 20
-18.382912
 30
0.0
 40
7.678759
100
AcDbArc
 50
334.96034
 51
25.03966
  0
LINE
  5
6B8
100
AcDbEntity
  8
2
100
AcDbLine
 10
84.14899
 20
47.367088
 30
0.0
 11
91.094126
 21
47.367088
 31
0.0
  0
LINE
  5
6B9
100
AcDbEntity
  8
2
100
AcDbLine
 10
91.094126
 20
47.367088
 30
0.0
 11
91.094126
 21
44.867088
 31
0.0
  0
LINE
  5
6BA
100
AcDbEntity
  8
2
100
AcDbLine
 10
84.14899
 20
47.367088
 30
0.0
 11
84.14899
 21
44.867088
 31
0.0
  0
LINE
  5
6BB
100
AcDbEntity
  8
2
100
AcDbLine
 10
86.144379
 20
47.367088
 30
0.0
 11
86.144379
 21
44.867088
 31
0.0
  0
LINE
  5
6BC
100
AcDbEntity
  8
2
100
AcDbLine
 10
29.653364
 20
45.867088
 30
0.0
 11
84.14899
 21
45.867088
 31
0.0
  0
LINE
  5
6BD
100
AcDbEntity
  8
2
100
AcDbLine
 10
91.094126
 20
45.867088
 30
0.0
 11
92.653364
 21
45.867088
 31
0.0
  0
LINE
  5
6BE
100
AcDbEntity
  8
2
100
AcDbLine
 10
24.153364
 20
44.867088
 30
0.0
 11
86.144379
 21
44.867088
 31
0.0
  0
LINE
  5
6BF
100
AcDbEntity
  8
2
100
AcDbLine
 10
91.094126
 20
44.867088
 30
0.0
 11
98.153364
 21
44.867088
 31
0.0
  0
LINE
  5
6C0
100
AcDbEntity
  8
2
100
AcDbLine
 10
-190.396636
 20
77.867088
 30
0.0
 11
-190.396636
 21
57.867088
 31
0.0
  0
LINE
  5
6C1
100
AcDbEntity
  8
2
100
AcDbLine
 10
-174.396636
 20
77.867088
 30
0.0
 11
-174.396636
 21
57.867088
 31
0.0
  0
LINE
  5
6C2
100
AcDbEntity
  8
2
100
AcDbLine
 10
-192.396636
 20
94.867088
 30
0.0
 11
-172.396636
 21
94.867088
 31
0.0
  0
LINE
  5
6C3
100
AcDbEntity
  8
2
100
AcDbLine
 10
-192.396636
 20
92.867088
 30
0.0
 11
-192.396636
 21
94.867088
 31
0.0
  0
LINE
  5
6C4
100
AcDbEntity
  8
2
100
AcDbLine
 10
-172.396636
 20
92.867088
 30
0.0
 11
-172.396636
 21
94.867088
 31
0.0
  0
LINE
  5
6C5
100
AcDbEntity
  8
2
100
AcDbLine
 10
-188.146636
 20
96.367088
 30
0.0
 11
-188.146636
 21
99.876341
 31
0.0
  0
LINE
  5
6C6
100
AcDbEntity
  8
2
100
AcDbLine
 10
-188.146636
 20
99.876341
 30
0.0
 11
-187.296636
 21
100.367088
 31
0.0
  0
LINE
  5
6C7
100
AcDbEntity
  8
2
100
AcDbLine
 10
-187.296636
 20
100.367088
 30
0.0
 11
-177.496636
 21
100.367088
 31
0.0
  0
LINE
  5
6C8
100
AcDbEntity
  8
2
100
AcDbLine
 10
-185.271636
 20
96.367088
 30
0.0
 11
-185.271636
 21
99.876341
 31
0.0
  0
ARC
  5
6C9
100
AcDbEntity
  8
2
100
AcDbCircle
 10
-186.709136
 20
98.028386
 30
0.0
 40
2.341227
100
AcDbArc
 50
52.121121
 51
127.878879
  0
LINE
  5
6CA
100
AcDbEntity
  8
2
100
AcDbLine
 10
-176.646636
 20
96.367088
 30
0.0
 11
-176.646636
 21
99.876341
 31
0.0
  0
LINE
  5
6CB
100
AcDbEntity
  8
2
100
AcDbLine
 10
-176.646636
 20
99.876341
 30
0.0
 11
-177.496636
 21
100.367088
 31
0.0
  0
LINE
  5
6CC
100
AcDbEntity
  8
2
100
AcDbLine
 10
-179.521636
 20
96.367088
 30
0.0
 11
-179.521636
 21
99.876341
 31
0.0
  0
ARC
  5
6CD
100
AcDbEntity
  8
2
100
AcDbCircle
 10
-178.084136
 20
98.028386
 30
0.0
 40
2.341227
100
AcDbArc
 50
52.121121
 51
127.878879
  0
ARC
  5
6CE
100
AcDbEntity
  8
2
100
AcDbCircle
 10
-182.396636
 20
91.744613
 30
0.0
 40
8.625
100
AcDbArc
 50
70.528779
 51
109.471221
  0
LINE
  5
6CF
100
AcDbEntity
  8
2
100
AcDbLine
 10
-188.496636
 20
94.867088
 30
0.0
 11
-188.496636
 21
96.367088
 31
0.0
  0
LINE
  5
6D0
100
AcDbEntity
  8
2
100
AcDbLine
 10
-188.496636
 20
96.367088
 30
0.0
 11
-176.296636
 21
96.367088
 31
0.0
  0
LINE
  5
6D1
100
AcDbEntity
  8
2
100
AcDbLine
 10
-176.296636
 20
96.367088
 30
0.0
 11
-176.296636
 21
94.867088
 31
0.0
  0
LINE
  5
6D2
100
AcDbEntity
  8
2
100
AcDbLine
 10
-182.396636
 20
96.367088
 30
0.0
 11
-181.896636
 21
94.867088
 31
0.0
  0
LINE
  5
6D3
100
AcDbEntity
  8
2
100
AcDbLine
 10
-182.396636
 20
94.867088
 30
0.0
 11
-182.896636
 21
96.367088
 31
0.0
  0
LINE
  5
6D4
100
AcDbEntity
  8
2
  6
CENTER
 62
     2
100
AcDbLine
 10
-163.396636
 20
195.771425
 30
0.0
 11
-163.396636
 21
178.731424
 31
0.0
  0
LINE
  5
6D5
100
AcDbEntity
  8
2
100
AcDbLine
 10
-165.396636
 20
188.171789
 30
0.0
 11
-165.396636
 21
186.98411
 31
0.0
  0
LINE
  5
6D6
100
AcDbEntity
  8
2
100
AcDbLine
 10
-161.396636
 20
188.171789
 30
0.0
 11
-161.396636
 21
185.862388
 31
0.0
  0
LINE
  5
6D7
100
AcDbEntity
  8
2
100
AcDbLine
 10
-163.396636
 20
189.326489
 30
0.0
 11
-161.396636
 21
188.171789
 31
0.0
  0
LINE
  5
6D8
100
AcDbEntity
  8
2
100
AcDbLine
 10
-162.598657
 20
185.1684
 30
0.0
 11
-161.396636
 21
185.862388
 31
0.0
  0
LINE
  5
6D9
100
AcDbEntity
  8
2
100
AcDbLine
 10
-165.396636
 20
188.171789
 30
0.0
 11
-163.396636
 21
189.326489
 31
0.0
  0
LINE
  5
6DA
100
AcDbEntity
  8
2
  6
CENTER
 62
     2
100
AcDbLine
 10
-201.396636
 20
195.771425
 30
0.0
 11
-201.396636
 21
178.731424
 31
0.0
  0
LINE
  5
6DB
100
AcDbEntity
  8
2
100
AcDbLine
 10
-199.396636
 20
188.171789
 30
0.0
 11
-199.396636
 21
186.98411
 31
0.0
  0
LINE
  5
6DC
100
AcDbEntity
  8
2
100
AcDbLine
 10
-203.396636
 20
188.171789
 30
0.0
 11
-203.396636
 21
185.862388
 31
0.0
  0
LINE
  5
6DD
100
AcDbEntity
  8
2
100
AcDbLine
 10
-201.396636
 20
189.326489
 30
0.0
 11
-203.396636
 21
188.171789
 31
0.0
  0
LINE
  5
6DE
100
AcDbEntity
  8
2
100
AcDbLine
 10
-202.194614
 20
185.1684
 30
0.0
 11
-203.396636
 21
185.862388
 31
0.0
  0
LINE
  5
6DF
100
AcDbEntity
  8
2
100
AcDbLine
 10
-199.396636
 20
188.171789
 30
0.0
 11
-201.396636
 21
189.326489
 31
0.0
  0
LINE
  5
6E0
100
AcDbEntity
  8
2
100
AcDbLine
 10
-158.355005
 20
211.058719
 30
0.0
 11
-158.852167
 21
212.914154
 31
0.0
  0
LINE
  5
6E1
100
AcDbEntity
  8
2
100
AcDbLine
 10
-158.355005
 20
211.058719
 30
0.0
 11
-156.49957
 21
210.561556
 31
0.0
  0
LINE
  5
6E2
100
AcDbEntity
  8
2
100
AcDbLine
 10
-194.373194
 20
206.064714
 30
0.0
 11
-200.136087
 21
211.827608
 31
0.0
  0
LINE
  5
6E3
100
AcDbEntity
  8
2
100
AcDbLine
 10
-168.972659
 20
207.512133
 30
0.0
 11
-166.810846
 21
209.673945
 31
0.0
  0
TEXT
  5
6E4
100
AcDbEntity
  8
2
100
AcDbText
 10
-197.396636
 20
161.517088
 30
0.0
 40
6.0
  1
ＴＯＭＯＥ
 72
     5
 11
-168.596636
 21
161.517088
 31
0.0
100
AcDbText
  0
TEXT
  5
6E5
100
AcDbEntity
  8
2
100
AcDbText
 10
-200.781412
 20
199.037904
 30
0.0
 40
9.0
  1
Ｏ
 50
45.0
 72
     5
 11
-195.690243
 21
204.129072
 31
0.0
100
AcDbText
  0
TEXT
  5
6E6
100
AcDbEntity
  8
2
100
AcDbText
 10
-170.37582
 20
205.401865
 30
0.0
 40
9.0
  1
Ｓ
 50
315.0
 72
     5
 11
-165.284651
 21
200.310696
 31
0.0
100
AcDbText
  0
ARC
  5
6E7
100
AcDbEntity
  8
2
100
AcDbCircle
 10
-185.08083
 20
185.878826
 30
0.0
 40
30.0
100
AcDbArc
 50
52.482807
 51
69.498095
  0
ARC
  5
6E8
100
AcDbEntity
  8
2
100
AcDbCircle
 10
-185.08083
 20
185.878826
 30
0.0
 40
30.0
100
AcDbArc
 50
99.709838
 51
120.121934
  0
ARC
  5
6E9
100
AcDbEntity
  8
2
100
AcDbCircle
 10
-180.44853
 20
185.301676
 30
0.0
 40
25.0
100
AcDbArc
 50
62.675154
 51
75.84605
  0
ARC
  5
6EA
100
AcDbEntity
  8
2
100
AcDbCircle
 10
-180.44853
 20
185.301676
 30
0.0
 40
25.0
100
AcDbArc
 50
113.785212
 51
123.847652
  0
ARC
  5
6EB
100
AcDbEntity
  8
2
100
AcDbCircle
 10
-182.396636
 20
187.017088
 30
0.0
 40
31.5
100
AcDbArc
 50
104.45342
 51
195.502925
  0
ARC
  5
6EC
100
AcDbEntity
  8
2
100
AcDbCircle
 10
-182.396636
 20
187.017088
 30
0.0
 40
31.5
100
AcDbArc
 50
224.429377
 51
315.570623
  0
ARC
  5
6ED
100
AcDbEntity
  8
2
100
AcDbCircle
 10
-182.396636
 20
187.017088
 30
0.0
 40
31.5
100
AcDbArc
 50
344.497075
 51
75.54658
  0
ARC
  5
6EE
100
AcDbEntity
  8
2
100
AcDbCircle
 10
-163.396636
 20
187.017088
 30
0.0
 40
4.25
100
AcDbArc
 50
311.789916
 51
162.067868
  0
ARC
  5
6EF
100
AcDbEntity
  8
2
100
AcDbCircle
 10
-163.396636
 20
187.017088
 30
0.0
 40
5.0
100
AcDbArc
 50
314.117411
 51
158.216542
  0
ARC
  5
6F0
100
AcDbEntity
  8
2
100
AcDbCircle
 10
-163.396636
 20
187.017088
 30
0.0
 40
3.730385
100
AcDbArc
 50
309.605341
 51
164.432664
  0
ARC
  5
6F1
100
AcDbEntity
  8
2
100
AcDbCircle
 10
-201.396636
 20
187.017088
 30
0.0
 40
3.730385
100
AcDbArc
 50
15.567336
 51
230.394659
  0
ARC
  5
6F2
100
AcDbEntity
  8
2
100
AcDbCircle
 10
-201.396636
 20
187.017088
 30
0.0
 40
4.25
100
AcDbArc
 50
17.932132
 51
228.210084
  0
ARC
  5
6F3
100
AcDbEntity
  8
2
100
AcDbCircle
 10
-201.396636
 20
187.017088
 30
0.0
 40
5.0
100
AcDbArc
 50
21.783458
 51
225.882589
  0
LINE
  5
6F4
100
AcDbEntity
  8
2
100
AcDbLine
 10
-224.896636
 20
92.867088
 30
0.0
 11
-139.896636
 21
92.867088
 31
0.0
  0
ARC
  5
6F5
100
AcDbEntity
  8
2
100
AcDbCircle
 10
-224.896636
 20
85.367088
 30
0.0
 40
7.5
100
AcDbArc
 50
90.0
 51
270.0
  0
LINE
  5
6F6
100
AcDbEntity
  8
2
100
AcDbLine
 10
-170.396636
 20
77.867088
 30
0.0
 11
-194.396636
 21
77.867088
 31
0.0
  0
ARC
  5
6F7
100
AcDbEntity
  8
2
100
AcDbCircle
 10
-181.334136
 20
85.367088
 30
0.0
 40
15.0625
100
AcDbArc
 50
203.47446
 51
209.862834
  0
ARC
  5
6F8
100
AcDbEntity
  8
2
100
AcDbCircle
 10
-183.459136
 20
85.367088
 30
0.0
 40
15.0625
100
AcDbArc
 50
330.137166
 51
336.544162
  0
LINE
  5
6F9
100
AcDbEntity
  8
2
100
AcDbLine
 10
-179.196752
 20
85.367088
 30
0.0
 11
-185.596519
 21
85.367088
 31
0.0
  0
LINE
  5
6FA
100
AcDbEntity
  8
2
100
AcDbLine
 10
-180.746288
 20
79.367088
 30
0.0
 11
-184.046983
 21
79.367088
 31
0.0
  0
LINE
  5
6FB
100
AcDbEntity
  8
2
100
AcDbLine
 10
-194.744773
 20
85.367088
 30
0.0
 11
-200.615449
 21
85.367088
 31
0.0
  0
LINE
  5
6FC
100
AcDbEntity
  8
2
100
AcDbLine
 10
-193.987573
 20
79.367088
 30
0.0
 11
-199.91636
 21
79.367088
 31
0.0
  0
ARC
  5
6FD
100
AcDbEntity
  8
2
100
AcDbCircle
 10
-133.371449
 20
85.059405
 30
0.0
 40
54.252482
100
AcDbArc
 50
181.85598
 51
187.294014
  0
ARC
  5
6FE
100
AcDbEntity
  8
2
100
AcDbCircle
 10
-231.421822
 20
85.059405
 30
0.0
 40
54.252482
100
AcDbArc
 50
352.705986
 51
358.14402
  0
ARC
  5
6FF
100
AcDbEntity
  8
2
100
AcDbCircle
 10
-185.596519
 20
83.367088
 30
0.0
 40
2.0
100
AcDbArc
 50
90.0
 51
181.85598
  0
ARC
  5
700
100
AcDbEntity
  8
2
100
AcDbCircle
 10
-179.196752
 20
83.367088
 30
0.0
 40
2.0
100
AcDbArc
 50
358.14402
 51
90.0
  0
ARC
  5
701
100
AcDbEntity
  8
2
100
AcDbCircle
 10
-184.046983
 20
76.367088
 30
0.0
 40
3.0
100
AcDbArc
 50
90.0
 51
146.491844
  0
ARC
  5
702
100
AcDbEntity
  8
2
100
AcDbCircle
 10
-186.839095
 20
78.215719
 30
0.0
 40
0.34863
100
AcDbArc
 50
187.294014
 51
326.491844
  0
ARC
  5
703
100
AcDbEntity
  8
2
100
AcDbCircle
 10
-180.746288
 20
76.367088
 30
0.0
 40
3.0
100
AcDbArc
 50
33.508156
 51
90.0
  0
ARC
  5
704
100
AcDbEntity
  8
2
100
AcDbCircle
 10
-177.954176
 20
78.215719
 30
0.0
 40
0.34863
100
AcDbArc
 50
213.508156
 51
352.705986
  0
ARC
  5
705
100
AcDbEntity
  8
2
100
AcDbCircle
 10
-188.088658
 20
85.10747
 30
0.0
 40
14.64711
100
AcDbArc
 50
187.909628
 51
204.857013
  0
ARC
  5
706
100
AcDbEntity
  8
2
100
AcDbCircle
 10
-165.229682
 20
85.069453
 30
0.0
 40
27.564145
100
AcDbArc
 50
183.301036
 51
193.87463
  0
ARC
  5
707
100
AcDbEntity
  8
2
100
AcDbCircle
 10
-194.744773
 20
83.367088
 30
0.0
 40
2.0
100
AcDbArc
 50
3.301036
 51
90.0
  0
ARC
  5
708
100
AcDbEntity
  8
2
100
AcDbCircle
 10
-200.615449
 20
83.367088
 30
0.0
 40
2.0
100
AcDbArc
 50
90.0
 51
187.909628
  0
ARC
  5
709
100
AcDbEntity
  8
2
100
AcDbCircle
 10
-199.682943
 20
79.736151
 30
0.0
 40
1.869063
100
AcDbArc
 50
204.857013
 51
316.21672
  0
ARC
  5
70A
100
AcDbEntity
  8
2
100
AcDbCircle
 10
-191.232882
 20
78.646529
 30
0.0
 40
0.779441
100
AcDbArc
 50
193.87463
 51
270.0
  0
ARC
  5
70B
100
AcDbEntity
  8
2
100
AcDbCircle
 10
-196.167663
 20
76.367088
 30
0.0
 40
3.0
100
AcDbArc
 50
90.0
 51
136.21672
  0
ARC
  5
70C
100
AcDbEntity
  8
2
100
AcDbCircle
 10
-193.987573
 20
76.867088
 30
0.0
 40
2.5
100
AcDbArc
 50
32.861145
 51
90.0
  0
ARC
  5
70D
100
AcDbEntity
  8
2
100
AcDbCircle
 10
-206.170961
 20
85.195289
 30
0.0
 40
9.683729
100
AcDbArc
 50
193.764481
 51
216.405649
  0
LINE
  5
70E
100
AcDbEntity
  8
2
100
AcDbLine
 10
-209.288752
 20
85.367088
 30
0.0
 11
-213.634028
 21
85.367088
 31
0.0
  0
ARC
  5
70F
100
AcDbEntity
  8
2
100
AcDbCircle
 10
-195.170689
 20
85.133776
 30
0.0
 40
12.228172
100
AcDbArc
 50
187.132729
 51
209.31396
  0
ARC
  5
710
100
AcDbEntity
  8
2
100
AcDbCircle
 10
-213.634028
 20
83.367088
 30
0.0
 40
2.0
100
AcDbArc
 50
90.0
 51
193.764481
  0
ARC
  5
711
100
AcDbEntity
  8
2
100
AcDbCircle
 10
-209.288752
 20
83.367088
 30
0.0
 40
2.0
100
AcDbArc
 50
7.132729
 51
90.0
  0
LINE
  5
712
100
AcDbEntity
  8
2
100
AcDbLine
 10
-205.953709
 20
79.367088
 30
0.0
 11
-211.916002
 21
79.367088
 31
0.0
  0
ARC
  5
713
100
AcDbEntity
  8
2
100
AcDbCircle
 10
-210.834686
 20
81.756184
 30
0.0
 40
3.889096
100
AcDbArc
 50
216.405649
 51
308.53161
  0
ARC
  5
714
100
AcDbEntity
  8
2
100
AcDbCircle
 10
-203.646636
 20
80.374581
 30
0.0
 40
2.507493
100
AcDbArc
 50
209.31396
 51
270.0
  0
ARC
  5
715
100
AcDbEntity
  8
2
100
AcDbCircle
 10
-206.54315
 20
76.367088
 30
0.0
 40
3.0
100
AcDbArc
 50
90.0
 51
128.53161
  0
LINE
  5
716
100
AcDbEntity
  8
2
100
AcDbLine
 10
-199.682943
 20
77.867088
 30
0.0
 11
-203.646636
 21
77.867088
 31
0.0
  0
ARC
  5
717
100
AcDbEntity
  8
2
100
AcDbCircle
 10
-217.571519
 20
85.289318
 30
0.0
 40
8.126759
100
AcDbArc
 50
192.393185
 51
223.280016
  0
ARC
  5
718
100
AcDbEntity
  8
2
100
AcDbCircle
 10
-210.575854
 20
85.227806
 30
0.0
 40
8.979103
100
AcDbArc
 50
187.460956
 51
219.149456
  0
LINE
  5
719
100
AcDbEntity
  8
2
100
AcDbLine
 10
-220.966237
 20
85.367088
 30
0.0
 11
-224.04386
 21
85.367088
 31
0.0
  0
LINE
  5
71A
100
AcDbEntity
  8
2
100
AcDbLine
 10
-229.023243
 20
85.367088
 30
0.0
 11
-230.229716
 21
85.367075
 31
0.0
  0
LINE
  5
71B
100
AcDbEntity
  8
2
100
AcDbLine
 10
-217.374016
 20
79.367088
 30
0.0
 11
-220.544924
 21
79.367088
 31
0.0
  0
ARC
  5
71C
100
AcDbEntity
  8
2
100
AcDbCircle
 10
-219.202715
 20
83.75323
 30
0.0
 40
5.886141
100
AcDbArc
 50
223.280016
 51
298.241155
  0
ARC
  5
71D
100
AcDbEntity
  8
2
100
AcDbCircle
 10
-213.980291
 20
82.456212
 30
0.0
 40
4.589124
100
AcDbArc
 50
219.149456
 51
270.0
  0
LINE
  5
71E
100
AcDbEntity
  8
2
100
AcDbLine
 10
-210.834686
 20
77.867088
 30
0.0
 11
-213.980291
 21
77.867088
 31
0.0
  0
ARC
  5
71F
100
AcDbEntity
  8
2
100
AcDbCircle
 10
-223.71819
 20
85.353641
 30
0.0
 40
7.585837
100
AcDbArc
 50
188.615288
 51
226.635861
  0
ARC
  5
720
100
AcDbEntity
  8
2
100
AcDbCircle
 10
-220.19904
 20
85.315624
 30
0.0
 40
7.875036
100
AcDbArc
 50
186.135312
 51
224.747415
  0
ARC
  5
721
100
AcDbEntity
  8
2
100
AcDbCircle
 10
-220.966237
 20
83.867088
 30
0.0
 40
1.5
100
AcDbArc
 50
7.460956
 51
90.0
  0
ARC
  5
722
100
AcDbEntity
  8
2
100
AcDbCircle
 10
-224.04386
 20
83.867088
 30
0.0
 40
1.5
100
AcDbArc
 50
90.0
 51
192.393185
  0
ARC
  5
723
100
AcDbEntity
  8
2
100
AcDbCircle
 10
-229.023243
 20
84.367088
 30
0.0
 40
1.0
100
AcDbArc
 50
6.135312
 51
90.0
  0
ARC
  5
724
100
AcDbEntity
  8
2
100
AcDbCircle
 10
-230.229716
 20
84.367088
 30
0.0
 40
1.0
100
AcDbArc
 50
90.0
 51
188.615288
  0
ARC
  5
725
100
AcDbEntity
  8
2
100
AcDbCircle
 10
-223.967909
 20
85.08924
 30
0.0
 40
7.222152
100
AcDbArc
 50
226.635861
 51
281.281293
  0
ARC
  5
726
100
AcDbEntity
  8
2
100
AcDbCircle
 10
-221.222317
 20
84.30133
 30
0.0
 40
6.434241
100
AcDbArc
 50
224.747415
 51
270.0
  0
LINE
  5
727
100
AcDbEntity
  8
2
100
AcDbLine
 10
-219.202715
 20
77.867088
 30
0.0
 11
-221.222317
 21
77.867088
 31
0.0
  0
LINE
  5
728
100
AcDbEntity
  8
2
100
AcDbLine
 10
-223.967909
 20
77.867088
 30
0.0
 11
-224.896636
 21
77.867088
 31
0.0
  0
ARC
  5
729
100
AcDbEntity
  8
2
100
AcDbCircle
 10
-139.896636
 20
85.367088
 30
0.0
 40
7.5
100
AcDbArc
 50
270.0
 51
90.0
  0
LINE
  5
72A
100
AcDbEntity
  8
2
100
AcDbLine
 10
-170.048498
 20
85.367088
 30
0.0
 11
-164.177822
 21
85.367088
 31
0.0
  0
LINE
  5
72B
100
AcDbEntity
  8
2
100
AcDbLine
 10
-170.805698
 20
79.367088
 30
0.0
 11
-164.876911
 21
79.367088
 31
0.0
  0
ARC
  5
72C
100
AcDbEntity
  8
2
100
AcDbCircle
 10
-176.704613
 20
85.10747
 30
0.0
 40
14.64711
100
AcDbArc
 50
335.142987
 51
352.090372
  0
ARC
  5
72D
100
AcDbEntity
  8
2
100
AcDbCircle
 10
-199.563589
 20
85.069453
 30
0.0
 40
27.564145
100
AcDbArc
 50
346.12537
 51
356.698964
  0
ARC
  5
72E
100
AcDbEntity
  8
2
100
AcDbCircle
 10
-170.048498
 20
83.367088
 30
0.0
 40
2.0
100
AcDbArc
 50
90.0
 51
176.698964
  0
ARC
  5
72F
100
AcDbEntity
  8
2
100
AcDbCircle
 10
-164.177822
 20
83.367088
 30
0.0
 40
2.0
100
AcDbArc
 50
352.090372
 51
90.0
  0
ARC
  5
730
100
AcDbEntity
  8
2
100
AcDbCircle
 10
-165.110328
 20
79.736151
 30
0.0
 40
1.869063
100
AcDbArc
 50
223.78328
 51
335.142987
  0
ARC
  5
731
100
AcDbEntity
  8
2
100
AcDbCircle
 10
-173.560389
 20
78.646529
 30
0.0
 40
0.779441
100
AcDbArc
 50
270.0
 51
346.12537
  0
ARC
  5
732
100
AcDbEntity
  8
2
100
AcDbCircle
 10
-168.625608
 20
76.367088
 30
0.0
 40
3.0
100
AcDbArc
 50
43.78328
 51
90.0
  0
ARC
  5
733
100
AcDbEntity
  8
2
100
AcDbCircle
 10
-170.805698
 20
76.867088
 30
0.0
 40
2.5
100
AcDbArc
 50
90.0
 51
147.138855
  0
ARC
  5
734
100
AcDbEntity
  8
2
100
AcDbCircle
 10
-158.62231
 20
85.195289
 30
0.0
 40
9.683729
100
AcDbArc
 50
323.594351
 51
346.235519
  0
LINE
  5
735
100
AcDbEntity
  8
2
100
AcDbLine
 10
-155.504519
 20
85.367088
 30
0.0
 11
-151.159243
 21
85.367088
 31
0.0
  0
ARC
  5
736
100
AcDbEntity
  8
2
100
AcDbCircle
 10
-169.622582
 20
85.133776
 30
0.0
 40
12.228172
100
AcDbArc
 50
330.68604
 51
352.867271
  0
ARC
  5
737
100
AcDbEntity
  8
2
100
AcDbCircle
 10
-151.159243
 20
83.367088
 30
0.0
 40
2.0
100
AcDbArc
 50
346.235519
 51
90.0
  0
ARC
  5
738
100
AcDbEntity
  8
2
100
AcDbCircle
 10
-155.504519
 20
83.367088
 30
0.0
 40
2.0
100
AcDbArc
 50
90.0
 51
172.867271
  0
LINE
  5
739
100
AcDbEntity
  8
2
100
AcDbLine
 10
-158.839563
 20
79.367088
 30
0.0
 11
-152.877269
 21
79.367088
 31
0.0
  0
ARC
  5
73A
100
AcDbEntity
  8
2
100
AcDbCircle
 10
-153.958585
 20
81.756184
 30
0.0
 40
3.889096
100
AcDbArc
 50
231.46839
 51
323.594351
  0
ARC
  5
73B
100
AcDbEntity
  8
2
100
AcDbCircle
 10
-161.146636
 20
80.374581
 30
0.0
 40
2.507493
100
AcDbArc
 50
270.0
 51
330.68604
  0
ARC
  5
73C
100
AcDbEntity
  8
2
100
AcDbCircle
 10
-158.250121
 20
76.367088
 30
0.0
 40
3.0
100
AcDbArc
 50
51.46839
 51
90.0
  0
LINE
  5
73D
100
AcDbEntity
  8
2
100
AcDbLine
 10
-165.110328
 20
77.867088
 30
0.0
 11
-161.146636
 21
77.867088
 31
0.0
  0
ARC
  5
73E
100
AcDbEntity
  8
2
100
AcDbCircle
 10
-147.221752
 20
85.289318
 30
0.0
 40
8.126759
100
AcDbArc
 50
316.719984
 51
347.606815
  0
ARC
  5
73F
100
AcDbEntity
  8
2
100
AcDbCircle
 10
-154.217417
 20
85.227806
 30
0.0
 40
8.979103
100
AcDbArc
 50
320.850544
 51
352.539044
  0
LINE
  5
740
100
AcDbEntity
  8
2
100
AcDbLine
 10
-143.827034
 20
85.367088
 30
0.0
 11
-140.749411
 21
85.367088
 31
0.0
  0
LINE
  5
741
100
AcDbEntity
  8
2
100
AcDbLine
 10
-135.770028
 20
85.367088
 30
0.0
 11
-134.563555
 21
85.367075
 31
0.0
  0
LINE
  5
742
100
AcDbEntity
  8
2
100
AcDbLine
 10
-147.419255
 20
79.367088
 30
0.0
 11
-144.248347
 21
79.367088
 31
0.0
  0
ARC
  5
743
100
AcDbEntity
  8
2
100
AcDbCircle
 10
-145.590556
 20
83.75323
 30
0.0
 40
5.886141
100
AcDbArc
 50
241.758845
 51
316.719984
  0
ARC
  5
744
100
AcDbEntity
  8
2
100
AcDbCircle
 10
-150.81298
 20
82.456212
 30
0.0
 40
4.589124
100
AcDbArc
 50
270.0
 51
320.850544
  0
LINE
  5
745
100
AcDbEntity
  8
2
100
AcDbLine
 10
-153.958585
 20
77.867088
 30
0.0
 11
-150.81298
 21
77.867088
 31
0.0
  0
ARC
  5
746
100
AcDbEntity
  8
2
100
AcDbCircle
 10
-141.075081
 20
85.353641
 30
0.0
 40
7.585837
100
AcDbArc
 50
313.364139
 51
351.384712
  0
ARC
  5
747
100
AcDbEntity
  8
2
100
AcDbCircle
 10
-144.594231
 20
85.315624
 30
0.0
 40
7.875036
100
AcDbArc
 50
315.252585
 51
353.864688
  0
ARC
  5
748
100
AcDbEntity
  8
2
100
AcDbCircle
 10
-143.827034
 20
83.867088
 30
0.0
 40
1.5
100
AcDbArc
 50
90.0
 51
172.539044
  0
ARC
  5
749
100
AcDbEntity
  8
2
100
AcDbCircle
 10
-140.749411
 20
83.867088
 30
0.0
 40
1.5
100
AcDbArc
 50
347.606815
 51
90.0
  0
ARC
  5
74A
100
AcDbEntity
  8
2
100
AcDbCircle
 10
-135.770028
 20
84.367088
 30
0.0
 40
1.0
100
AcDbArc
 50
90.0
 51
173.864688
  0
ARC
  5
74B
100
AcDbEntity
  8
2
100
AcDbCircle
 10
-134.563555
 20
84.367088
 30
0.0
 40
1.0
100
AcDbArc
 50
351.384712
 51
90.0
  0
ARC
  5
74C
100
AcDbEntity
  8
2
100
AcDbCircle
 10
-140.825362
 20
85.08924
 30
0.0
 40
7.222152
100
AcDbArc
 50
258.718707
 51
313.364139
  0
ARC
  5
74D
100
AcDbEntity
  8
2
100
AcDbCircle
 10
-143.570954
 20
84.30133
 30
0.0
 40
6.434241
100
AcDbArc
 50
270.0
 51
315.252585
  0
LINE
  5
74E
100
AcDbEntity
  8
2
100
AcDbLine
 10
-145.590556
 20
77.867088
 30
0.0
 11
-143.570954
 21
77.867088
 31
0.0
  0
LINE
  5
74F
100
AcDbEntity
  8
2
100
AcDbLine
 10
-140.825362
 20
77.867088
 30
0.0
 11
-139.896636
 21
77.867088
 31
0.0
  0
CIRCLE
  5
750
100
AcDbEntity
  8
2
100
AcDbCircle
 10
-182.396636
 20
187.017088
 30
0.0
 40
50.0
  0
ARC
  5
751
100
AcDbEntity
  8
2
100
AcDbCircle
 10
-182.396636
 20
187.017088
 30
0.0
 40
35.0
100
AcDbArc
 50
81.988888
 51
98.777778
  0
ARC
  5
752
100
AcDbEntity
  8
2
100
AcDbCircle
 10
-182.396636
 20
187.017088
 30
0.0
 40
35.0
100
AcDbArc
 50
202.9
 51
218.177778
  0
ARC
  5
753
100
AcDbEntity
  8
2
100
AcDbCircle
 10
-182.396636
 20
187.017088
 30
0.0
 40
35.0
100
AcDbArc
 50
321.177778
 51
337.877777
  0
ARC
  5
754
100
AcDbEntity
  8
2
100
AcDbCircle
 10
-213.496636
 20
182.017088
 30
0.0
 40
3.5
100
AcDbArc
 50
189.166667
 51
303.011111
  0
ARC
  5
755
100
AcDbEntity
  8
2
100
AcDbCircle
 10
-182.396636
 20
187.017088
 30
0.0
 40
35.0
100
AcDbArc
 50
110.822222
 51
189.177778
  0
LINE
  5
756
100
AcDbEntity
  8
2
100
AcDbLine
 10
-197.496636
 20
188.217088
 30
0.0
 11
-211.596636
 21
179.067088
 31
0.0
  0
ARC
  5
757
100
AcDbEntity
  8
2
100
AcDbCircle
 10
-193.596636
 20
216.467088
 30
0.0
 40
3.5
100
AcDbArc
 50
356.988889
 51
110.833333
  0
LINE
  5
758
100
AcDbEntity
  8
2
100
AcDbLine
 10
-190.996636
 20
199.517088
 30
0.0
 11
-190.096636
 21
216.267088
 31
0.0
  0
ARC
  5
759
100
AcDbEntity
  8
2
100
AcDbCircle
 10
-194.496636
 20
199.667088
 30
0.0
 40
3.5
100
AcDbArc
 50
313.655555
 51
357.0
  0
ARC
  5
75A
100
AcDbEntity
  8
2
100
AcDbCircle
 10
-182.396636
 20
187.017088
 30
0.0
 40
14.0
100
AcDbArc
 50
133.666667
 51
166.366667
  0
ARC
  5
75B
100
AcDbEntity
  8
2
100
AcDbCircle
 10
-199.396636
 20
191.167088
 30
0.0
 40
3.5
100
AcDbArc
 50
303.0
 51
346.344444
  0
LINE
  5
75C
100
AcDbEntity
  8
2
100
AcDbLine
 10
-188.896636
 20
173.367088
 30
0.0
 11
-203.896636
 21
165.717088
 31
0.0
  0
ARC
  5
75D
100
AcDbEntity
  8
2
100
AcDbCircle
 10
-182.396636
 20
187.017088
 30
0.0
 40
35.0
100
AcDbArc
 50
230.822222
 51
309.355555
  0
ARC
  5
75E
100
AcDbEntity
  8
2
100
AcDbCircle
 10
-202.296636
 20
162.617088
 30
0.0
 40
3.5
100
AcDbArc
 50
116.988889
 51
230.833333
  0
ARC
  5
75F
100
AcDbEntity
  8
2
100
AcDbCircle
 10
-162.496636
 20
162.617088
 30
0.0
 40
3.5
100
AcDbArc
 50
309.166666
 51
63.011111
  0
LINE
  5
760
100
AcDbEntity
  8
2
100
AcDbLine
 10
-175.896636
 20
173.367088
 30
0.0
 11
-160.896636
 21
165.717088
 31
0.0
  0
ARC
  5
761
100
AcDbEntity
  8
2
100
AcDbCircle
 10
-177.496636
 20
170.217088
 30
0.0
 40
3.5
100
AcDbArc
 50
63.0
 51
106.344444
  0
ARC
  5
762
100
AcDbEntity
  8
2
100
AcDbCircle
 10
-182.396636
 20
187.017088
 30
0.0
 40
14.0
100
AcDbArc
 50
253.7
 51
286.3
  0
ARC
  5
763
100
AcDbEntity
  8
2
100
AcDbCircle
 10
-187.296636
 20
170.217088
 30
0.0
 40
3.5
100
AcDbArc
 50
73.655555
 51
117.0
  0
ARC
  5
764
100
AcDbEntity
  8
2
100
AcDbCircle
 10
-182.396636
 20
187.017088
 30
0.0
 40
35.0
100
AcDbArc
 50
350.822222
 51
69.177777
  0
ARC
  5
765
100
AcDbEntity
  8
2
100
AcDbCircle
 10
-171.196636
 20
216.467088
 30
0.0
 40
3.5
100
AcDbArc
 50
69.166666
 51
183.011111
  0
LINE
  5
766
100
AcDbEntity
  8
2
100
AcDbLine
 10
-173.796636
 20
199.517088
 30
0.0
 11
-174.696636
 21
216.267088
 31
0.0
  0
ARC
  5
767
100
AcDbEntity
  8
2
100
AcDbCircle
 10
-170.296636
 20
199.667088
 30
0.0
 40
3.5
100
AcDbArc
 50
183.0
 51
226.344444
  0
ARC
  5
768
100
AcDbEntity
  8
2
100
AcDbCircle
 10
-182.396636
 20
187.017088
 30
0.0
 40
14.0
100
AcDbArc
 50
13.633333
 51
46.333333
  0
ARC
  5
769
100
AcDbEntity
  8
2
100
AcDbCircle
 10
-165.396636
 20
191.167088
 30
0.0
 40
3.5
100
AcDbArc
 50
193.655555
 51
237.0
  0
LINE
  5
76A
100
AcDbEntity
  8
2
100
AcDbLine
 10
-167.296636
 20
188.217088
 30
0.0
 11
-153.196636
 21
179.067088
 31
0.0
  0
ARC
  5
76B
100
AcDbEntity
  8
2
100
AcDbCircle
 10
-151.296636
 20
182.017088
 30
0.0
 40
3.5
100
AcDbArc
 50
236.988889
 51
350.833333
  0
CIRCLE
  5
76C
100
AcDbEntity
  8
2
100
AcDbCircle
 10
-182.396636
 20
187.017088
 30
0.0
 40
12.0
  0
LINE
  5
76D
100
AcDbEntity
  8
2
100
AcDbLine
 10
-210.681942
 20
224.552957
 30
0.0
 11
-205.867421
 21
218.163873
 31
0.0
  0
LINE
  5
76E
100
AcDbEntity
  8
2
100
AcDbLine
 10
-154.111329
 20
224.552957
 30
0.0
 11
-158.92585
 21
218.163873
 31
0.0
  0
ARC
  5
76F
100
AcDbEntity
  8
2
100
AcDbCircle
 10
-182.396636
 20
187.017088
 30
0.0
 40
47.0
100
AcDbArc
 50
53.0
 51
127.0
  0
ARC
  5
770
100
AcDbEntity
  8
2
100
AcDbCircle
 10
-182.396636
 20
187.017088
 30
0.0
 40
39.0
100
AcDbArc
 50
53.0
 51
127.0
  0
LINE
  5
771
100
AcDbEntity
  8
2
100
AcDbLine
 10
-193.525854
 20
228.551899
 30
0.0
 11
-190.98304
 21
231.190312
 31
0.0
  0
LINE
  5
772
100
AcDbEntity
  8
2
100
AcDbLine
 10
-193.525854
 20
228.551899
 30
0.0
 11
-190.219804
 21
227.263803
 31
0.0
  0
ARC
  5
773
100
AcDbEntity
  8
2
100
AcDbCircle
 10
-182.396636
 20
187.017088
 30
0.0
 40
42.0
100
AcDbArc
 50
79.000001
 51
101.000002
  0
LINE
  5
774
100
AcDbEntity
  8
2
100
AcDbLine
 10
-190.98304
 20
231.190312
 30
0.0
 11
-190.792231
 21
230.208684
 31
0.0
  0
LINE
  5
775
100
AcDbEntity
  8
2
100
AcDbLine
 10
-190.410613
 20
228.24543
 30
0.0
 11
-190.219804
 21
227.263803
 31
0.0
  0
LINE
  5
776
100
AcDbEntity
  8
2
100
AcDbLine
 10
-171.267417
 20
228.551899
 30
0.0
 11
-173.810231
 21
231.190312
 31
0.0
  0
LINE
  5
777
100
AcDbEntity
  8
2
100
AcDbLine
 10
-171.267417
 20
228.551899
 30
0.0
 11
-174.573467
 21
227.263803
 31
0.0
  0
ARC
  5
778
100
AcDbEntity
  8
2
100
AcDbCircle
 10
-182.396636
 20
187.017088
 30
0.0
 40
44.0
100
AcDbArc
 50
79.000001
 51
101.000002
  0
LINE
  5
779
100
AcDbEntity
  8
2
100
AcDbLine
 10
-173.810231
 20
231.190312
 30
0.0
 11
-174.00104
 21
230.208684
 31
0.0
  0
LINE
  5
77A
100
AcDbEntity
  8
2
100
AcDbLine
 10
-174.382658
 20
228.24543
 30
0.0
 11
-174.573467
 21
227.263803
 31
0.0
  0
TEXT
  5
77B
100
AcDbEntity
  8
2
100
AcDbText
 10
-205.819422
 20
220.727222
 30
0.0
 40
4.0
  1
Ｏ
 50
32.0
 72
     5
 11
-203.105668
 21
222.422963
 31
0.0
100
AcDbText
  0
TEXT
  5
77C
100
AcDbEntity
  8
2
100
AcDbText
 10
-203.410865
 20
222.278996
 30
0.0
 40
4.0
  1
Ｐ
 50
28.0
 72
     5
 11
-200.585432
 21
223.781305
 31
0.0
100
AcDbText
  0
TEXT
  5
77D
100
AcDbEntity
  8
2
100
AcDbText
 10
-200.899929
 20
223.658979
 30
0.0
 40
4.0
  1
Ｅ
 50
24.0
 72
     5
 11
-197.976583
 21
224.960536
 31
0.0
100
AcDbText
  0
TEXT
  5
77E
100
AcDbEntity
  8
2
100
AcDbText
 10
-198.298847
 20
224.860445
 30
0.0
 40
4.0
  1
Ｎ
 50
20.0
 72
     5
 11
-195.29183
 21
225.95491
 31
0.0
100
AcDbText
  0
TEXT
  5
77F
100
AcDbEntity
  8
2
100
AcDbText
 10
-170.253195
 20
226.228526
 30
0.0
 40
4.0
  1
Ｓ
 50
340.0
 72
     5
 11
-167.246178
 21
225.134062
 31
0.0
100
AcDbText
  0
TEXT
  5
780
100
AcDbEntity
  8
2
100
AcDbText
 10
-167.547524
 20
225.285925
 30
0.0
 40
4.0
  1
Ｈ
 50
336.0
 72
     5
 11
-164.624179
 21
223.984368
 31
0.0
100
AcDbText
  0
TEXT
  5
781
100
AcDbEntity
  8
2
100
AcDbText
 10
-164.914197
 20
224.156883
 30
0.0
 40
4.0
  1
Ｕ
 50
332.0
 72
     5
 11
-162.088764
 21
222.654574
 31
0.0
100
AcDbText
  0
TEXT
  5
782
100
AcDbEntity
  8
2
100
AcDbText
 10
-162.366042
 20
222.846899
 30
0.0
 40
4.0
  1
Ｔ
 50
328.0
 72
     5
 11
-159.652288
 21
221.151157
 31
0.0
100
AcDbText
  0
ARC
  5
783
100
AcDbEntity
  8
2
100
AcDbCircle
 10
-182.396636
 20
187.017088
 30
0.0
 40
42.5
100
AcDbArc
 50
127.0
 51
53.0
  0
CIRCLE
  5
784
100
AcDbEntity
  8
2
100
AcDbCircle
 10
-182.396636
 20
187.017088
 30
0.0
 40
10.0
  0
CIRCLE
  5
785
100
AcDbEntity
  8
2
100
AcDbCircle
 10
-182.396636
 20
187.017088
 30
0.0
 40
4.9
  0
CIRCLE
  5
786
100
AcDbEntity
  8
2
100
AcDbCircle
 10
-182.396636
 20
187.017088
 30
0.0
 40
6.1
  0
LINE
  5
787
100
AcDbEntity
  8
2
100
AcDbLine
 10
-185.283387
 20
192.017088
 30
0.0
 11
-179.509884
 21
192.017088
 31
0.0
  0
LINE
  5
788
100
AcDbEntity
  8
2
100
AcDbLine
 10
-185.283387
 20
182.017088
 30
0.0
 11
-179.509884
 21
182.017088
 31
0.0
  0
LINE
  5
789
100
AcDbEntity
  8
2
100
AcDbLine
 10
-188.170138
 20
187.017088
 30
0.0
 11
-185.283387
 21
192.017088
 31
0.0
  0
LINE
  5
78A
100
AcDbEntity
  8
2
100
AcDbLine
 10
-179.509884
 20
182.017088
 30
0.0
 11
-176.623133
 21
187.017088
 31
0.0
  0
LINE
  5
78B
100
AcDbEntity
  8
2
100
AcDbLine
 10
-185.283387
 20
182.017088
 30
0.0
 11
-188.170138
 21
187.017088
 31
0.0
  0
LINE
  5
78C
100
AcDbEntity
  8
2
100
AcDbLine
 10
-176.623133
 20
187.017088
 30
0.0
 11
-179.509884
 21
192.017088
 31
0.0
  0
LINE
  5
78D
100
AcDbEntity
  8
2
100
AcDbLine
 10
53.153364
 20
77.867088
 30
0.0
 11
53.153364
 21
57.867088
 31
0.0
  0
LINE
  5
78E
100
AcDbEntity
  8
2
100
AcDbLine
 10
69.153364
 20
77.867088
 30
0.0
 11
69.153364
 21
57.867088
 31
0.0
  0
LINE
  5
78F
100
AcDbEntity
  8
2
100
AcDbLine
 10
51.153364
 20
94.867088
 30
0.0
 11
71.153364
 21
94.867088
 31
0.0
  0
LINE
  5
790
100
AcDbEntity
  8
2
100
AcDbLine
 10
51.153364
 20
92.867088
 30
0.0
 11
51.153364
 21
94.867088
 31
0.0
  0
LINE
  5
791
100
AcDbEntity
  8
2
100
AcDbLine
 10
71.153364
 20
92.867088
 30
0.0
 11
71.153364
 21
94.867088
 31
0.0
  0
LINE
  5
792
100
AcDbEntity
  8
2
100
AcDbLine
 10
67.253364
 20
96.367088
 30
0.0
 11
55.053364
 21
96.367088
 31
0.0
  0
LINE
  5
793
100
AcDbEntity
  8
2
100
AcDbLine
 10
56.153364
 20
96.367088
 30
0.0
 11
56.153364
 21
100.367088
 31
0.0
  0
LINE
  5
794
100
AcDbEntity
  8
2
100
AcDbLine
 10
56.153364
 20
100.367088
 30
0.0
 11
66.153364
 21
100.367088
 31
0.0
  0
ARC
  5
795
100
AcDbEntity
  8
2
100
AcDbCircle
 10
58.653364
 20
93.753881
 30
0.0
 40
6.613208
100
AcDbArc
 50
67.788205
 51
112.211795
  0
LINE
  5
796
100
AcDbEntity
  8
2
100
AcDbLine
 10
66.153364
 20
96.367088
 30
0.0
 11
66.153364
 21
100.367088
 31
0.0
  0
LINE
  5
797
100
AcDbEntity
  8
2
100
AcDbLine
 10
61.153364
 20
96.367088
 30
0.0
 11
61.153364
 21
99.876341
 31
0.0
  0
ARC
  5
798
100
AcDbEntity
  8
2
100
AcDbCircle
 10
63.653364
 20
93.753881
 30
0.0
 40
6.613208
100
AcDbArc
 50
67.788205
 51
112.211795
  0
LINE
  5
799
100
AcDbEntity
  8
2
100
AcDbLine
 10
55.053364
 20
94.867088
 30
0.0
 11
55.053364
 21
96.367088
 31
0.0
  0
LINE
  5
79A
100
AcDbEntity
  8
2
100
AcDbLine
 10
67.253364
 20
96.367088
 30
0.0
 11
67.253364
 21
94.867088
 31
0.0
  0
LINE
  5
79B
100
AcDbEntity
  8
2
100
AcDbLine
 10
18.653364
 20
92.867088
 30
0.0
 11
103.653364
 21
92.867088
 31
0.0
  0
ARC
  5
79C
100
AcDbEntity
  8
2
100
AcDbCircle
 10
18.653364
 20
85.367088
 30
0.0
 40
7.5
100
AcDbArc
 50
90.0
 51
270.0
  0
LINE
  5
79D
100
AcDbEntity
  8
2
100
AcDbLine
 10
73.153364
 20
77.867088
 30
0.0
 11
49.153364
 21
77.867088
 31
0.0
  0
ARC
  5
79E
100
AcDbEntity
  8
2
100
AcDbCircle
 10
62.215864
 20
85.367088
 30
0.0
 40
15.0625
100
AcDbArc
 50
203.47446
 51
209.862834
  0
ARC
  5
79F
100
AcDbEntity
  8
2
100
AcDbCircle
 10
60.090864
 20
85.367088
 30
0.0
 40
15.0625
100
AcDbArc
 50
330.137166
 51
336.544162
  0
LINE
  5
7A0
100
AcDbEntity
  8
2
100
AcDbLine
 10
64.353248
 20
85.367088
 30
0.0
 11
57.953481
 21
85.367088
 31
0.0
  0
LINE
  5
7A1
100
AcDbEntity
  8
2
100
AcDbLine
 10
62.803712
 20
79.367088
 30
0.0
 11
59.503017
 21
79.367088
 31
0.0
  0
LINE
  5
7A2
100
AcDbEntity
  8
2
100
AcDbLine
 10
48.805227
 20
85.367088
 30
0.0
 11
42.934551
 21
85.367088
 31
0.0
  0
LINE
  5
7A3
100
AcDbEntity
  8
2
100
AcDbLine
 10
49.562427
 20
79.367088
 30
0.0
 11
43.63364
 21
79.367088
 31
0.0
  0
ARC
  5
7A4
100
AcDbEntity
  8
2
100
AcDbCircle
 10
110.178551
 20
85.059405
 30
0.0
 40
54.252482
100
AcDbArc
 50
181.85598
 51
187.294014
  0
ARC
  5
7A5
100
AcDbEntity
  8
2
100
AcDbCircle
 10
12.128178
 20
85.059405
 30
0.0
 40
54.252482
100
AcDbArc
 50
352.705986
 51
358.14402
  0
ARC
  5
7A6
100
AcDbEntity
  8
2
100
AcDbCircle
 10
57.953481
 20
83.367088
 30
0.0
 40
2.0
100
AcDbArc
 50
90.0
 51
181.85598
  0
ARC
  5
7A7
100
AcDbEntity
  8
2
100
AcDbCircle
 10
64.353248
 20
83.367088
 30
0.0
 40
2.0
100
AcDbArc
 50
358.14402
 51
90.0
  0
ARC
  5
7A8
100
AcDbEntity
  8
2
100
AcDbCircle
 10
59.503017
 20
76.367088
 30
0.0
 40
3.0
100
AcDbArc
 50
90.0
 51
146.491844
  0
ARC
  5
7A9
100
AcDbEntity
  8
2
100
AcDbCircle
 10
56.710905
 20
78.215719
 30
0.0
 40
0.34863
100
AcDbArc
 50
187.294014
 51
326.491844
  0
ARC
  5
7AA
100
AcDbEntity
  8
2
100
AcDbCircle
 10
62.803712
 20
76.367088
 30
0.0
 40
3.0
100
AcDbArc
 50
33.508156
 51
90.0
  0
ARC
  5
7AB
100
AcDbEntity
  8
2
100
AcDbCircle
 10
65.595824
 20
78.215719
 30
0.0
 40
0.34863
100
AcDbArc
 50
213.508156
 51
352.705986
  0
ARC
  5
7AC
100
AcDbEntity
  8
2
100
AcDbCircle
 10
55.461342
 20
85.10747
 30
0.0
 40
14.64711
100
AcDbArc
 50
187.909628
 51
204.857013
  0
ARC
  5
7AD
100
AcDbEntity
  8
2
100
AcDbCircle
 10
78.320318
 20
85.069453
 30
0.0
 40
27.564145
100
AcDbArc
 50
183.301036
 51
193.87463
  0
ARC
  5
7AE
100
AcDbEntity
  8
2
100
AcDbCircle
 10
48.805227
 20
83.367088
 30
0.0
 40
2.0
100
AcDbArc
 50
3.301036
 51
90.0
  0
ARC
  5
7AF
100
AcDbEntity
  8
2
100
AcDbCircle
 10
42.934551
 20
83.367088
 30
0.0
 40
2.0
100
AcDbArc
 50
90.0
 51
187.909628
  0
ARC
  5
7B0
100
AcDbEntity
  8
2
100
AcDbCircle
 10
43.867057
 20
79.736151
 30
0.0
 40
1.869063
100
AcDbArc
 50
204.857013
 51
316.21672
  0
ARC
  5
7B1
100
AcDbEntity
  8
2
100
AcDbCircle
 10
52.317118
 20
78.646529
 30
0.0
 40
0.779441
100
AcDbArc
 50
193.87463
 51
270.0
  0
ARC
  5
7B2
100
AcDbEntity
  8
2
100
AcDbCircle
 10
47.382337
 20
76.367088
 30
0.0
 40
3.0
100
AcDbArc
 50
90.0
 51
136.21672
  0
ARC
  5
7B3
100
AcDbEntity
  8
2
100
AcDbCircle
 10
49.562427
 20
76.867088
 30
0.0
 40
2.5
100
AcDbArc
 50
32.861145
 51
90.0
  0
ARC
  5
7B4
100
AcDbEntity
  8
2
100
AcDbCircle
 10
37.379039
 20
85.195289
 30
0.0
 40
9.683729
100
AcDbArc
 50
193.764481
 51
216.405649
  0
LINE
  5
7B5
100
AcDbEntity
  8
2
100
AcDbLine
 10
34.261248
 20
85.367088
 30
0.0
 11
29.915972
 21
85.367088
 31
0.0
  0
ARC
  5
7B6
100
AcDbEntity
  8
2
100
AcDbCircle
 10
48.379311
 20
85.133776
 30
0.0
 40
12.228172
100
AcDbArc
 50
187.132729
 51
209.31396
  0
ARC
  5
7B7
100
AcDbEntity
  8
2
100
AcDbCircle
 10
29.915972
 20
83.367088
 30
0.0
 40
2.0
100
AcDbArc
 50
90.0
 51
193.764481
  0
ARC
  5
7B8
100
AcDbEntity
  8
2
100
AcDbCircle
 10
34.261248
 20
83.367088
 30
0.0
 40
2.0
100
AcDbArc
 50
7.132729
 51
90.0
  0
LINE
  5
7B9
100
AcDbEntity
  8
2
100
AcDbLine
 10
37.596291
 20
79.367088
 30
0.0
 11
31.633998
 21
79.367088
 31
0.0
  0
ARC
  5
7BA
100
AcDbEntity
  8
2
100
AcDbCircle
 10
32.715314
 20
81.756184
 30
0.0
 40
3.889096
100
AcDbArc
 50
216.405649
 51
308.53161
  0
ARC
  5
7BB
100
AcDbEntity
  8
2
100
AcDbCircle
 10
39.903364
 20
80.374581
 30
0.0
 40
2.507493
100
AcDbArc
 50
209.31396
 51
270.0
  0
ARC
  5
7BC
100
AcDbEntity
  8
2
100
AcDbCircle
 10
37.00685
 20
76.367088
 30
0.0
 40
3.0
100
AcDbArc
 50
90.0
 51
128.53161
  0
LINE
  5
7BD
100
AcDbEntity
  8
2
100
AcDbLine
 10
43.867057
 20
77.867088
 30
0.0
 11
39.903364
 21
77.867088
 31
0.0
  0
ARC
  5
7BE
100
AcDbEntity
  8
2
100
AcDbCircle
 10
25.978481
 20
85.289318
 30
0.0
 40
8.126759
100
AcDbArc
 50
192.393185
 51
223.280016
  0
ARC
  5
7BF
100
AcDbEntity
  8
2
100
AcDbCircle
 10
32.974146
 20
85.227806
 30
0.0
 40
8.979103
100
AcDbArc
 50
187.460956
 51
219.149456
  0
LINE
  5
7C0
100
AcDbEntity
  8
2
100
AcDbLine
 10
22.583763
 20
85.367088
 30
0.0
 11
19.50614
 21
85.367088
 31
0.0
  0
LINE
  5
7C1
100
AcDbEntity
  8
2
100
AcDbLine
 10
14.526757
 20
85.367088
 30
0.0
 11
13.320284
 21
85.367075
 31
0.0
  0
LINE
  5
7C2
100
AcDbEntity
  8
2
100
AcDbLine
 10
26.175984
 20
79.367088
 30
0.0
 11
23.005076
 21
79.367088
 31
0.0
  0
ARC
  5
7C3
100
AcDbEntity
  8
2
100
AcDbCircle
 10
24.347285
 20
83.75323
 30
0.0
 40
5.886141
100
AcDbArc
 50
223.280016
 51
298.241155
  0
ARC
  5
7C4
100
AcDbEntity
  8
2
100
AcDbCircle
 10
29.569709
 20
82.456212
 30
0.0
 40
4.589124
100
AcDbArc
 50
219.149456
 51
270.0
  0
LINE
  5
7C5
100
AcDbEntity
  8
2
100
AcDbLine
 10
32.715314
 20
77.867088
 30
0.0
 11
29.569709
 21
77.867088
 31
0.0
  0
ARC
  5
7C6
100
AcDbEntity
  8
2
100
AcDbCircle
 10
19.83181
 20
85.353641
 30
0.0
 40
7.585837
100
AcDbArc
 50
188.615288
 51
226.635861
  0
ARC
  5
7C7
100
AcDbEntity
  8
2
100
AcDbCircle
 10
23.35096
 20
85.315624
 30
0.0
 40
7.875036
100
AcDbArc
 50
186.135312
 51
224.747415
  0
ARC
  5
7C8
100
AcDbEntity
  8
2
100
AcDbCircle
 10
22.583763
 20
83.867088
 30
0.0
 40
1.5
100
AcDbArc
 50
7.460956
 51
90.0
  0
ARC
  5
7C9
100
AcDbEntity
  8
2
100
AcDbCircle
 10
19.50614
 20
83.867088
 30
0.0
 40
1.5
100
AcDbArc
 50
90.0
 51
192.393185
  0
ARC
  5
7CA
100
AcDbEntity
  8
2
100
AcDbCircle
 10
14.526757
 20
84.367088
 30
0.0
 40
1.0
100
AcDbArc
 50
6.135312
 51
90.0
  0
ARC
  5
7CB
100
AcDbEntity
  8
2
100
AcDbCircle
 10
13.320284
 20
84.367088
 30
0.0
 40
1.0
100
AcDbArc
 50
90.0
 51
188.615288
  0
ARC
  5
7CC
100
AcDbEntity
  8
2
100
AcDbCircle
 10
19.582091
 20
85.08924
 30
0.0
 40
7.222152
100
AcDbArc
 50
226.635861
 51
281.281293
  0
ARC
  5
7CD
100
AcDbEntity
  8
2
100
AcDbCircle
 10
22.327683
 20
84.30133
 30
0.0
 40
6.434241
100
AcDbArc
 50
224.747415
 51
270.0
  0
LINE
  5
7CE
100
AcDbEntity
  8
2
100
AcDbLine
 10
24.347285
 20
77.867088
 30
0.0
 11
22.327683
 21
77.867088
 31
0.0
  0
LINE
  5
7CF
100
AcDbEntity
  8
2
100
AcDbLine
 10
19.582091
 20
77.867088
 30
0.0
 11
18.653364
 21
77.867088
 31
0.0
  0
ARC
  5
7D0
100
AcDbEntity
  8
2
100
AcDbCircle
 10
103.653364
 20
85.367088
 30
0.0
 40
7.5
100
AcDbArc
 50
270.0
 51
90.0
  0
LINE
  5
7D1
100
AcDbEntity
  8
2
100
AcDbLine
 10
73.501502
 20
85.367088
 30
0.0
 11
79.372178
 21
85.367088
 31
0.0
  0
LINE
  5
7D2
100
AcDbEntity
  8
2
100
AcDbLine
 10
72.744302
 20
79.367088
 30
0.0
 11
78.673089
 21
79.367088
 31
0.0
  0
ARC
  5
7D3
100
AcDbEntity
  8
2
100
AcDbCircle
 10
66.845387
 20
85.10747
 30
0.0
 40
14.64711
100
AcDbArc
 50
335.142987
 51
352.090372
  0
ARC
  5
7D4
100
AcDbEntity
  8
2
100
AcDbCircle
 10
43.986411
 20
85.069453
 30
0.0
 40
27.564145
100
AcDbArc
 50
346.12537
 51
356.698964
  0
ARC
  5
7D5
100
AcDbEntity
  8
2
100
AcDbCircle
 10
73.501502
 20
83.367088
 30
0.0
 40
2.0
100
AcDbArc
 50
90.0
 51
176.698964
  0
ARC
  5
7D6
100
AcDbEntity
  8
2
100
AcDbCircle
 10
79.372178
 20
83.367088
 30
0.0
 40
2.0
100
AcDbArc
 50
352.090372
 51
90.0
  0
ARC
  5
7D7
100
AcDbEntity
  8
2
100
AcDbCircle
 10
78.439672
 20
79.736151
 30
0.0
 40
1.869063
100
AcDbArc
 50
223.78328
 51
335.142987
  0
ARC
  5
7D8
100
AcDbEntity
  8
2
100
AcDbCircle
 10
69.989611
 20
78.646529
 30
0.0
 40
0.779441
100
AcDbArc
 50
270.0
 51
346.12537
  0
ARC
  5
7D9
100
AcDbEntity
  8
2
100
AcDbCircle
 10
74.924392
 20
76.367088
 30
0.0
 40
3.0
100
AcDbArc
 50
43.78328
 51
90.0
  0
ARC
  5
7DA
100
AcDbEntity
  8
2
100
AcDbCircle
 10
72.744302
 20
76.867088
 30
0.0
 40
2.5
100
AcDbArc
 50
90.0
 51
147.138855
  0
ARC
  5
7DB
100
AcDbEntity
  8
2
100
AcDbCircle
 10
84.92769
 20
85.195289
 30
0.0
 40
9.683729
100
AcDbArc
 50
323.594351
 51
346.235519
  0
LINE
  5
7DC
100
AcDbEntity
  8
2
100
AcDbLine
 10
88.045481
 20
85.367088
 30
0.0
 11
92.390757
 21
85.367088
 31
0.0
  0
ARC
  5
7DD
100
AcDbEntity
  8
2
100
AcDbCircle
 10
73.927418
 20
85.133776
 30
0.0
 40
12.228172
100
AcDbArc
 50
330.68604
 51
352.867271
  0
ARC
  5
7DE
100
AcDbEntity
  8
2
100
AcDbCircle
 10
92.390757
 20
83.367088
 30
0.0
 40
2.0
100
AcDbArc
 50
346.235519
 51
90.0
  0
ARC
  5
7DF
100
AcDbEntity
  8
2
100
AcDbCircle
 10
88.045481
 20
83.367088
 30
0.0
 40
2.0
100
AcDbArc
 50
90.0
 51
172.867271
  0
LINE
  5
7E0
100
AcDbEntity
  8
2
100
AcDbLine
 10
84.710437
 20
79.367088
 30
0.0
 11
90.672731
 21
79.367088
 31
0.0
  0
ARC
  5
7E1
100
AcDbEntity
  8
2
100
AcDbCircle
 10
89.591415
 20
81.756184
 30
0.0
 40
3.889096
100
AcDbArc
 50
231.46839
 51
323.594351
  0
ARC
  5
7E2
100
AcDbEntity
  8
2
100
AcDbCircle
 10
82.403364
 20
80.374581
 30
0.0
 40
2.507493
100
AcDbArc
 50
270.0
 51
330.68604
  0
ARC
  5
7E3
100
AcDbEntity
  8
2
100
AcDbCircle
 10
85.299879
 20
76.367088
 30
0.0
 40
3.0
100
AcDbArc
 50
51.46839
 51
90.0
  0
LINE
  5
7E4
100
AcDbEntity
  8
2
100
AcDbLine
 10
78.439672
 20
77.867088
 30
0.0
 11
82.403364
 21
77.867088
 31
0.0
  0
ARC
  5
7E5
100
AcDbEntity
  8
2
100
AcDbCircle
 10
96.328248
 20
85.289318
 30
0.0
 40
8.126759
100
AcDbArc
 50
316.719984
 51
347.606815
  0
ARC
  5
7E6
100
AcDbEntity
  8
2
100
AcDbCircle
 10
89.332583
 20
85.227806
 30
0.0
 40
8.979103
100
AcDbArc
 50
320.850544
 51
352.539044
  0
LINE
  5
7E7
100
AcDbEntity
  8
2
100
AcDbLine
 10
99.722966
 20
85.367088
 30
0.0
 11
102.800589
 21
85.367088
 31
0.0
  0
LINE
  5
7E8
100
AcDbEntity
  8
2
100
AcDbLine
 10
107.779972
 20
85.367088
 30
0.0
 11
108.986445
 21
85.367075
 31
0.0
  0
LINE
  5
7E9
100
AcDbEntity
  8
2
100
AcDbLine
 10
96.130745
 20
79.367088
 30
0.0
 11
99.301653
 21
79.367088
 31
0.0
  0
ARC
  5
7EA
100
AcDbEntity
  8
2
100
AcDbCircle
 10
97.959444
 20
83.75323
 30
0.0
 40
5.886141
100
AcDbArc
 50
241.758845
 51
316.719984
  0
ARC
  5
7EB
100
AcDbEntity
  8
2
100
AcDbCircle
 10
92.73702
 20
82.456212
 30
0.0
 40
4.589124
100
AcDbArc
 50
270.0
 51
320.850544
  0
LINE
  5
7EC
100
AcDbEntity
  8
2
100
AcDbLine
 10
89.591415
 20
77.867088
 30
0.0
 11
92.73702
 21
77.867088
 31
0.0
  0
ARC
  5
7ED
100
AcDbEntity
  8
2
100
AcDbCircle
 10
102.474919
 20
85.353641
 30
0.0
 40
7.585837
100
AcDbArc
 50
313.364139
 51
351.384712
  0
ARC
  5
7EE
100
AcDbEntity
  8
2
100
AcDbCircle
 10
98.955769
 20
85.315624
 30
0.0
 40
7.875036
100
AcDbArc
 50
315.252585
 51
353.864688
  0
ARC
  5
7EF
100
AcDbEntity
  8
2
100
AcDbCircle
 10
99.722966
 20
83.867088
 30
0.0
 40
1.5
100
AcDbArc
 50
90.0
 51
172.539044
  0
ARC
  5
7F0
100
AcDbEntity
  8
2
100
AcDbCircle
 10
102.800589
 20
83.867088
 30
0.0
 40
1.5
100
AcDbArc
 50
347.606815
 51
90.0
  0
ARC
  5
7F1
100
AcDbEntity
  8
2
100
AcDbCircle
 10
107.779972
 20
84.367088
 30
0.0
 40
1.0
100
AcDbArc
 50
90.0
 51
173.864688
  0
ARC
  5
7F2
100
AcDbEntity
  8
2
100
AcDbCircle
 10
108.986445
 20
84.367088
 30
0.0
 40
1.0
100
AcDbArc
 50
351.384712
 51
90.0
  0
ARC
  5
7F3
100
AcDbEntity
  8
2
100
AcDbCircle
 10
102.724638
 20
85.08924
 30
0.0
 40
7.222152
100
AcDbArc
 50
258.718707
 51
313.364139
  0
ARC
  5
7F4
100
AcDbEntity
  8
2
100
AcDbCircle
 10
99.979046
 20
84.30133
 30
0.0
 40
6.434241
100
AcDbArc
 50
270.0
 51
315.252585
  0
LINE
  5
7F5
100
AcDbEntity
  8
2
100
AcDbLine
 10
97.959444
 20
77.867088
 30
0.0
 11
99.979046
 21
77.867088
 31
0.0
  0
LINE
  5
7F6
100
AcDbEntity
  8
2
100
AcDbLine
 10
102.724638
 20
77.867088
 30
0.0
 11
103.653364
 21
77.867088
 31
0.0
  0
DIMENSION
  5
7F7
100
AcDbEntity
  8
5
100
AcDbDimension
  2
*D0
 10
-18.914696
 20
-35.132912
 30
0.0
 11
-26.844696
 21
-104.462912
 31
0.0
  1
138
100
AcDbAlignedDimension
 13
27.679808
 23
-173.132912
 33
0.0
 14
22.153364
 24
-35.132912
 34
0.0
 50
90.0
100
AcDbRotatedDimension
  0
DIMENSION
  5
7F8
100
AcDbEntity
  8
5
100
AcDbDimension
  2
*D1
 10
-18.914696
 20
-173.132912
 30
0.0
 11
-24.534696
 21
-204.602912
 31
0.0
  1
67
100
AcDbAlignedDimension
 13
56.153364
 23
-240.032912
 33
0.0
 14
27.679808
 24
-173.132912
 34
0.0
 50
90.0
100
AcDbRotatedDimension
  0
DIMENSION
  5
7F9
100
AcDbEntity
  8
5
100
AcDbDimension
  2
*D2
 10
82.653364
 20
-264.998718
 30
0.0
 11
61.153364
 21
-260.698718
 31
0.0
  1
43
100
AcDbAlignedDimension
 13
39.653364
 23
-217.132912
 33
0.0
 14
82.653364
 24
-217.132912
 34
0.0
100
AcDbRotatedDimension
  0
DIMENSION
  5
7FA
100
AcDbEntity
  8
5
100
AcDbDimension
  2
*D3
 10
111.153364
 20
127.551857
 30
0.0
 11
61.153364
 21
131.851857
 31
0.0
 70
     1
  1
%%c100
100
AcDbAlignedDimension
 13
11.153364
 23
85.367088
 33
0.0
 14
111.153364
 24
85.367088
 34
0.0
  0
DIMENSION
  5
7FB
100
AcDbEntity
  8
5
100
AcDbDimension
  2
*D4
 10
-18.914696
 20
100.367088
 30
0.0
 11
-26.844696
 21
32.287088
 31
0.0
  1
136
100
AcDbAlignedDimension
 13
22.153364
 23
-35.132912
 33
0.0
 14
56.153364
 24
100.367088
 34
0.0
 50
90.0
100
AcDbRotatedDimension
  0
TEXT
  5
7FC
100
AcDbEntity
  8
18
100
AcDbText
 10
244.337601
 20
-266.097076
 30
0.0
 40
6.0
  1
１
 72
     5
 11
249.137601
 21
-266.097076
 31
0.0
100
AcDbText
  0
TEXT
  5
7FD
100
AcDbEntity
  8
18
100
AcDbText
 10
253.512146
 20
-273.625671
 30
0.0
 40
6.0
  1
２
 72
     5
 11
258.312146
 21
-273.625671
 31
0.0
100
AcDbText
  0
TEXT
  5
7FE
100
AcDbEntity
  8
18
100
AcDbText
 10
245.708481
 20
-246.070526
 30
0.0
 40
6.0
  1
７００Ｇ－２ＧＡＳ　５０Ａ
 72
     5
 11
322.508481
 21
-246.070526
 31
0.0
100
AcDbText
  0
TEXT
  5
7FF
100
AcDbEntity
  8
18
100
AcDbText
 10
245.708481
 20
-254.070526
 30
0.0
 40
6.0
  1
標準仕様　ＪＩＳ　５，１０Ｋ
 72
     5
 11
328.508481
 21
-254.070526
 31
0.0
100
AcDbText
  0
TEXT
  5
800
100
AcDbEntity
  8
18
100
AcDbText
 10
365.946747
 20
-254.086227
 30
0.0
 40
4.5
  1
′０４．７．９
 72
     5
 11
396.546747
 21
-254.086227
 31
0.0
100
AcDbText
  0
TEXT
  5
801
100
AcDbEntity
  8
18
100
AcDbText
 10
307.2
 20
-272.0
 30
0.0
 40
10.0
  1
Ｄ３－０３５２３
 72
     5
 11
385.2
 21
-272.0
 31
0.0
100
AcDbText
  0
LINE
  5
802
100
AcDbEntity
  8
20
 62
     3
100
AcDbLine
 10
-360.0
 20
-277.0
 30
0.0
 11
400.0
 21
-277.0
 31
0.0
  0
LINE
  5
803
100
AcDbEntity
  8
20
 62
     3
100
AcDbLine
 10
-360.0
 20
264.0
 30
0.0
 11
400.0
 21
264.0
 31
0.0
  0
LINE
  5
804
100
AcDbEntity
  8
20
 62
     3
100
AcDbLine
 10
-360.0
 20
264.0
 30
0.0
 11
-360.0
 21
-277.0
 31
0.0
  0
LINE
  5
805
100
AcDbEntity
  8
20
 62
     3
100
AcDbLine
 10
400.0
 20
264.0
 30
0.0
 11
400.0
 21
-277.0
 31
0.0
  0
LINE
  5
806
100
AcDbEntity
  8
20
 62
     3
100
AcDbLine
 10
120.0
 20
-277.0
 30
0.0
 11
120.0
 21
-237.0
 31
0.0
  0
LINE
  5
807
100
AcDbEntity
  8
20
 62
     3
100
AcDbLine
 10
214.0
 20
-277.0
 30
0.0
 11
214.0
 21
-237.0
 31
0.0
  0
LINE
  5
808
100
AcDbEntity
  8
20
100
AcDbLine
 10
214.0
 20
-257.0
 30
0.0
 11
400.0
 21
-257.0
 31
0.0
  0
LINE
  5
809
100
AcDbEntity
  8
20
 62
     3
100
AcDbLine
 10
120.0
 20
-237.0
 30
0.0
 11
400.0
 21
-237.0
 31
0.0
  0
LINE
  5
80A
100
AcDbEntity
  8
20
100
AcDbLine
 10
360.0
 20
-257.0
 30
0.0
 11
360.0
 21
-237.0
 31
0.0
  0
LINE
  5
80B
100
AcDbEntity
  8
20
100
AcDbLine
 10
360.0
 20
-247.0
 30
0.0
 11
400.0
 21
-247.0
 31
0.0
  0
LINE
  5
80C
100
AcDbEntity
  8
20
100
AcDbLine
 10
242.0
 20
-277.0
 30
0.0
 11
242.0
 21
-237.0
 31
0.0
  0
LINE
  5
80D
100
AcDbEntity
  8
20
100
AcDbLine
 10
262.0
 20
-277.0
 30
0.0
 11
262.0
 21
-257.0
 31
0.0
  0
LINE
  5
80E
100
AcDbEntity
  8
20
100
AcDbLine
 10
302.0
 20
-277.0
 30
0.0
 11
302.0
 21
-257.0
 31
0.0
  0
LINE
  5
80F
100
AcDbEntity
  8
20
100
AcDbLine
 10
247.456829
 20
-271.543171
 30
0.0
 11
255.796581
 21
-263.203419
 31
0.0
  0
TEXT
  5
810
100
AcDbEntity
  8
20
100
AcDbText
 10
263.066658
 20
-264.993835
 30
0.0
 40
3.6
  1
ＤＲＡＷＩＮＧ　ＮＯ．
 72
     5
 11
301.946658
 21
-264.993835
 31
0.0
100
AcDbText
  0
TEXT
  5
811
100
AcDbEntity
  8
20
100
AcDbText
 10
267.0
 20
-273.0
 30
0.0
 40
6.0
  1
図　　　番
 72
     5
 11
295.8
 21
-273.0
 31
0.0
100
AcDbText
  0
TEXT
  5
812
100
AcDbEntity
  8
20
100
AcDbText
 10
372.0
 20
-244.0
 30
0.0
 40
4.0
  1
ＤＡＴＥ
 72
     5
 11
387.2
 21
-244.0
 31
0.0
100
AcDbText
  0
TEXT
  5
813
100
AcDbEntity
  8
20
100
AcDbText
 10
218.002142
 20
-265.922058
 30
0.0
 40
4.0
  1
ＳＣＡＬＥ
 72
     5
 11
237.202142
 21
-265.922058
 31
0.0
100
AcDbText
  0
TEXT
  5
814
100
AcDbEntity
  8
20
100
AcDbText
 10
216.0
 20
-273.0
 30
0.0
 40
6.0
  1
尺　　度
 72
     5
 11
238.8
 21
-273.0
 31
0.0
100
AcDbText
  0
TEXT
  5
815
100
AcDbEntity
  8
20
100
AcDbText
 10
215.002142
 20
-244.991769
 30
0.0
 40
4.0
  1
ＦＩＧ．ＮＯ．
 72
     5
 11
242.202142
 21
-244.991769
 31
0.0
100
AcDbText
  0
TEXT
  5
816
100
AcDbEntity
  8
20
100
AcDbText
 10
216.0
 20
-253.0
 30
0.0
 40
6.0
  1
名　　称
 72
     5
 11
238.8
 21
-253.0
 31
0.0
100
AcDbText
  0
TEXT
  5
817
100
AcDbEntity
  8
20
100
AcDbText
 10
121.13105
 20
-252.940506
 30
0.0
 40
4.6
  1
ＴＯＭＯＥ　ＶＡＬＶＥ　ＣＯ．，ＬＴＤ．
 72
     5
 11
212.21105
 21
-252.940506
 31
0.0
100
AcDbText
  0
TEXT
  5
818
100
AcDbEntity
  8
20
100
AcDbText
 10
135.0
 20
-266.57962
 30
0.0
 40
8.0
  1
巴バルブ株式会社
 72
     5
 11
197.4
 21
-266.57962
 31
0.0
100
AcDbText
  0
ENDSEC
  0
SECTION
  2
OBJECTS
  0
DICTIONARY
  5
855
100
AcDbDictionary
  3
ACAD_GROUP
350
856
  3
ACAD_MLINESTYLE
350
857
  0
DICTIONARY
  5
856
102
{ACAD_REACTORS
330
855
102
}
100
AcDbDictionary
  0
DICTIONARY
  5
857
102
{ACAD_REACTORS
330
855
102
}
100
AcDbDictionary
  3
STANDARD
350
858
  0
MLINESTYLE
  5
858
102
{ACAD_REACTORS
330
857
102
}
100
AcDbMlineStyle
  2
STANDARD
 70
     0
  3

 62
     0
 51
90.0
 52
90.0
 71
     2
 49
0.5
 62
   256
  6
BYLAYER
 49
-0.5
 62
   256
  6
BYLAYER
  0
ENDSEC
  0
EOF
