  0
SECTION
  2
HEADER
  9
$ACADVER
  1
AC1012
  9
$DWGCODEPAGE
  3
ansi_932
  9
$INSBASE
 10
0.0
 20
0.0
 30
0.0
  9
$EXTMIN
 10
-420.0
 20
-297.0
 30
1.000000E+20
  9
$EXTMAX
 10
420.0
 20
297.0
 30
-1.000000E+20
  9
$LIMMIN
 10
-420.0
 20
-297.0
  9
$LIMMAX
 10
420.0
 20
297.0
  9
$ORTHOMODE
 70
     0
  9
$REGENMODE
 70
     1
  9
$FILLMODE
 70
     1
  9
$QTEXTMODE
 70
     0
  9
$MIRRTEXT
 70
     1
  9
$DRAGMODE
 70
     2
  9
$LTSCALE
 40
1.0
  9
$OSMODE
 70
     0
  9
$ATTMODE
 70
     1
  9
$TEXTSIZE
 40
0.2
  9
$TRACEWID
 40
0.05
  9
$TEXTSTYLE
  7
STANDARD
  9
$CLAYER
  8
0
  9
$CELTYPE
  6
CONTINUOUS
  9
$CECOLOR
 62
   256
  9
$CELTSCALE
 40
1.0
  9
$DELOBJ
 70
     1
  9
$DISPSILH
 70
     0
  9
$DIMSCALE
 40
2.0
  9
$DIMASZ
 40
0.18
  9
$DIMEXO
 40
0.0625
  9
$DIMDLI
 40
0.38
  9
$DIMRND
 40
0.0
  9
$DIMDLE
 40
0.0
  9
$DIMEXE
 40
0.18
  9
$DIMTP
 40
0.0
  9
$DIMTM
 40
0.0
  9
$DIMTXT
 40
0.18
  9
$DIMCEN
 40
0.09
  9
$DIMTSZ
 40
0.0
  9
$DIMTOL
 70
     0
  9
$DIMLIM
 70
     0
  9
$DIMTIH
 70
     1
  9
$DIMTOH
 70
     1
  9
$DIMSE1
 70
     0
  9
$DIMSE2
 70
     0
  9
$DIMTAD
 70
     1
  9
$DIMZIN
 70
     0
  9
$DIMBLK
  1

  9
$DIMASO
 70
     1
  9
$DIMSHO
 70
     1
  9
$DIMPOST
  1

  9
$DIMAPOST
  1

  9
$DIMALT
 70
     0
  9
$DIMALTD
 70
     2
  9
$DIMALTF
 40
25.4
  9
$DIMLFAC
 40
1.0
  9
$DIMTOFL
 70
     0
  9
$DIMTVP
 40
0.0
  9
$DIMTIX
 70
     0
  9
$DIMSOXD
 70
     0
  9
$DIMSAH
 70
     0
  9
$DIMBLK1
  1

  9
$DIMBLK2
  1

  9
$DIMSTYLE
  2
STANDARD
  9
$DIMCLRD
 70
     0
  9
$DIMCLRE
 70
     0
  9
$DIMCLRT
 70
     0
  9
$DIMTFAC
 40
1.0
  9
$DIMGAP
 40
0.09
  9
$DIMJUST
 70
     0
  9
$DIMSD1
 70
     0
  9
$DIMSD2
 70
     0
  9
$DIMTOLJ
 70
     1
  9
$DIMTZIN
 70
     0
  9
$DIMALTZ
 70
     0
  9
$DIMALTTZ
 70
     0
  9
$DIMFIT
 70
     3
  9
$DIMUPT
 70
     0
  9
$DIMUNIT
 70
     2
  9
$DIMDEC
 70
     4
  9
$DIMTDEC
 70
     4
  9
$DIMALTU
 70
     2
  9
$DIMALTTD
 70
     2
  9
$DIMTXSTY
  7
STANDARD
  9
$DIMAUNIT
 70
     0
  9
$LUNITS
 70
     2
  9
$LUPREC
 70
     4
  9
$SKETCHINC
 40
0.1
  9
$FILLETRAD
 40
0.0
  9
$AUNITS
 70
     0
  9
$AUPREC
 70
     0
  9
$MENU
  1
acad
  9
$ELEVATION
 40
0.0
  9
$PELEVATION
 40
0.0
  9
$THICKNESS
 40
0.0
  9
$LIMCHECK
 70
     0
  9
$BLIPMODE
 70
     1
  9
$CHAMFERA
 40
0.0
  9
$CHAMFERB
 40
0.0
  9
$CHAMFERC
 40
0.0
  9
$CHAMFERD
 40
0.0
  9
$SKPOLY
 70
     0
  9
$TDCREATE
 40
2450291.000000000
  9
$TDUPDATE
 40
0.000000000
  9
$TDINDWG
 40
0.0000000000
  9
$TDUSRTIMER
 40
0.0000000000
  9
$USRTIMER
 70
     1
  9
$ANGBASE
 50
0.0
  9
$ANGDIR
 70
     0
  9
$PDMODE
 70
     0
  9
$PDSIZE
 40
0.0
  9
$PLINEWID
 40
0.0
  9
$COORDS
 70
     0
  9
$SPLFRAME
 70
     0
  9
$SPLINETYPE
 70
     6
  9
$SPLINESEGS
 70
     8
  9
$ATTDIA
 70
     0
  9
$ATTREQ
 70
     1
  9
$HANDLING
 70
     1
  9
$HANDSEED
  5
44D
  9
$SURFTAB1
 70
     6
  9
$SURFTAB2
 70
     6
  9
$SURFTYPE
 70
     6
  9
$SURFU
 70
     6
  9
$SURFV
 70
     6
  9
$UCSNAME
  2

  9
$UCSORG
 10
0.0
 20
0.0
 30
0.0
  9
$UCSXDIR
 10
1.0
 20
0.0
 30
0.0
  9
$UCSYDIR
 10
0.0
 20
1.0
 30
0.0
  9
$PUCSNAME
  2

  9
$PUCSORG
 10
0.0
 20
0.0
 30
0.0
  9
$PUCSXDIR
 10
1.0
 20
0.0
 30
0.0
  9
$PUCSYDIR
 10
0.0
 20
1.0
 30
0.0
  9
$USERI1
 70
     0
  9
$USERI2
 70
     0
  9
$USERI3
 70
     0
  9
$USERI4
 70
     0
  9
$USERI5
 70
     0
  9
$USERR1
 40
0.0
  9
$USERR2
 40
0.0
  9
$USERR3
 40
0.0
  9
$USERR4
 40
0.0
  9
$USERR5
 40
0.0
  9
$WORLDVIEW
 70
     1
  9
$SHADEDGE
 70
     3
  9
$SHADEDIF
 70
    70
  9
$TILEMODE
 70
     1
  9
$MAXACTVP
 70
    16
  9
$PINSBASE
 10
0.0
 20
0.0
 30
0.0
  9
$PLIMCHECK
 70
     0
  9
$PEXTMIN
 10
1.000000E+20
 20
1.000000E+20
 30
1.000000E+20
  9
$PEXTMAX
 10
-1.000000E+20
 20
-1.000000E+20
 30
-1.000000E+20
  9
$PLIMMIN
 10
0.0
 20
0.0
  9
$PLIMMAX
 10
12.0
 20
9.0
  9
$UNITMODE
 70
     0
  9
$VISRETAIN
 70
     0
  9
$PLINEGEN
 70
     1
  9
$PSLTSCALE
 70
     0
  9
$TREEDEPTH
 70
  3020
  9
$PICKSTYLE
 70
     1
  9
$CMLSTYLE
  2
STANDARD
  9
$CMLJUST
 70
     0
  9
$CMLSCALE
 40
1.0
  9
$SAVEIMAGES
 70
     0
  0
ENDSEC
  0
SECTION
  2
CLASSES
  0
CLASS
  1
LWPOLYLINE
  2
AcDbPolyline
  3
"AutoCAD"
 90
    32768
280
     0
281
     1
  0
CLASS
  1
IMAGE
  2
AcDbRasterImage
  3
ISM
 90
    32895
280
     0
281
     1
  0
CLASS
  1
OLE2FRAME
  2
AcDbOle2Frame
  3
""
 90
    32768
280
     0
281
     1
  0
CLASS
  1
HATCH
  2
AcDbHatch
  3
"ACAD_SEDONA"
 90
    32768
280
     0
281
     1
  0
CLASS
  1
DICTIONARYVAR
  2
AcDbDictionaryVar
  3
"AutoCAD"
 90
    32768
280
     0
281
     0
  0
CLASS
  1
RASTERVARIABLES
  2
AcDbRasterVariables
  3
ISM
 90
    32768
280
     0
281
     0
  0
CLASS
  1
IMAGEDEF
  2
AcDbRasterImageDef
  3
ISM
 90
    32768
280
     0
281
     0
  0
CLASS
  1
IMAGEDEF_REACTOR
  2
AcDbRasterImageDefReactor
  3
ISM
 90
    32769
280
     0
281
     0
  0
CLASS
  1
IDBUFFER
  2
AcDbIdBuffer
  3
"Acad"
 90
    32768
280
     0
281
     0
  0
CLASS
  1
SPATIAL_FILTER
  2
AcDbSpatialFilter
  3
"Acad"
 90
    32768
280
     0
281
     0
  0
CLASS
  1
XRECORD
  2
AcDbXrecord
  3
"<Built In>"
 90
    32768
280
     0
281
     0
  0
CLASS
  1
SORTENTSTABLE
  2
AcDbSortentsTable
  3
"AutoCAD"
 90
    32768
280
     0
281
     0
  0
CLASS
  1
LAYER_INDEX
  2
AcDbLayerIndex
  3
"Acad"
 90
    32768
280
     0
281
     0
  0
CLASS
  1
SPATIAL_INDEX
  2
AcDbSpatialIndex
  3
"Acad"
 90
    32768
280
     0
281
     0
  0
CLASS
  1
OBJECT_PTR
  2
CAseDLPNTableRecord
  3
"ASE-LPNTableRecord"
 90
    32769
280
     0
281
     0
  0
CLASS
  1
LAYOUT
  2
AcDbLayout
  3
"AutoCAD 2000"
 90
    32768
280
     0
281
     0
  0
CLASS
  1
PLOTSETTINGS
  2
AcDbPlotSettings
  3
"AutoCAD 2000"
 90
    32768
280
     0
281
     0
  0
CLASS
  1
ACDBDICTIONARYWDFLT
  2
AcDbDictionaryWithDefault
  3
"AutoCAD 2000"
 90
    32768
280
     0
281
     0
  0
CLASS
  1
ACDBPLACEHOLDER
  2
AcDbPlaceHolder
  3
"AutoCAD 2000"
 90
    32768
280
     0
281
     0
  0
CLASS
  1
VBA_PROJECT
  2
AcDbVbaProject
  3
"acadvba"
 90
    32768
280
     0
281
     0
  0
CLASS
  1
WIPEOUT
  2
AcDbWipeout
  3
WipeOut|AutoCAD Express Tool|expresstools@autodesk.com
 90
    32895
280
     0
281
     1
  0
CLASS
  1
WIPEOUTVARIABLES
  2
AcDbWipeoutVariables
  3
WipeOut|AutoCAD Express Tool|expresstools@autodesk.com
 90
    32768
280
     0
281
     0
  0
CLASS
  1
RTEXT
  2
RText
  3
RText|AutoCAD Express Tool|expresstools@autodesk.com
 90
    32768
280
     0
281
     1
  0
CLASS
  1
ARCALIGNEDTEXT
  2
AcDbArcAlignedText
  3
ATEXT|AutoCAD Express Tool|expresstools@autodesk.com
 90
    32768
280
     0
281
     1
  0
ENDSEC
  0
SECTION
  2
TABLES
  0
TABLE
  2
VPORT
  5
6
100
AcDbSymbolTable
 70
     1
  0
VPORT
  5
1B
100
AcDbSymbolTableRecord
100
AcDbViewportTableRecord
  2
*ACTIVE
 70
     0
 10
0.0
 20
0.0
 11
1.0
 21
1.0
 12
0.0
 22
0.0
 13
0.0
 23
0.0
 14
1.0
 24
1.0
 15
0.0
 25
0.0
 16
0.0
 26
0.0
 36
1.0
 17
0.0
 27
0.0
 37
0.0
 40
594.0
 41
1.414141
 42
50.0
 43
0.0
 44
0.0
 50
0.0
 51
0.0
 71
     0
 72
   500
 73
     1
 74
     1
 75
     0
 76
     0
 77
     0
 78
     0
  0
ENDTAB
  0
TABLE
  2
LTYPE
  5
3
100
AcDbSymbolTable
 70
     9
  0
LTYPE
  5
C
100
AcDbSymbolTableRecord
100
AcDbLinetypeTableRecord
  2
BYBLOCK
 70
    64
  3

 72
    65
 73
     0
 40
0.0
  0
LTYPE
  5
D
100
AcDbSymbolTableRecord
100
AcDbLinetypeTableRecord
  2
BYLAYER
 70
    64
  3

 72
    65
 73
     0
 40
0.0
  0
LTYPE
  5
E
100
AcDbSymbolTableRecord
100
AcDbLinetypeTableRecord
  2
CONTINUOUS
 70
     0
  3
Solid line
 72
    65
 73
     0
 40
0.0
  0
LTYPE
  5
F
100
AcDbSymbolTableRecord
100
AcDbLinetypeTableRecord
  2
DASHED
 70
     0
  3
__ __ __ __ __ __ __ __ __ __ __ __ __ __ __
 72
    65
 73
     2
 40
2.0
 49
1.2
 74
     0
 49
-0.8
 74
     0
  0
LTYPE
  5
10
100
AcDbSymbolTableRecord
100
AcDbLinetypeTableRecord
  2
CENTER
 70
     0
  3
____ _ ____ _ ____ _ ____ _ ____ _ ____ _ ____
 72
    65
 73
     4
 40
12.0
 49
9.0
 74
     0
 49
-1.0
 74
     0
 49
1.0
 74
     0
 49
-1.0
 74
     0
  0
LTYPE
  5
11
100
AcDbSymbolTableRecord
100
AcDbLinetypeTableRecord
  2
HIDDEN
 70
     0
  3
_ _ _ _ _ _ _ _ _ _ _ _ _ _ _ _ _ _ _ _ _ _ _
 72
    65
 73
     2
 40
3.2
 49
2.4
 74
     0
 49
-0.8
 74
     0
  0
LTYPE
  5
12
100
AcDbSymbolTableRecord
100
AcDbLinetypeTableRecord
  2
PHANTOM
 70
     0
  3
_____ _ _ _____ _ _ _____ _ _ _____ _ _ _____
 72
    65
 73
     6
 40
13.5
 49
9.0
 74
     0
 49
-1.0
 74
     0
 49
1.0
 74
     0
 49
-0.5
 74
     0
 49
1.0
 74
     0
 49
-1.0
 74
     0
  0
LTYPE
  5
13
100
AcDbSymbolTableRecord
100
AcDbLinetypeTableRecord
  2
DOT
 70
     0
  3
...............................................
 72
    65
 73
     2
 40
1.0
 49
0.5
 74
     0
 49
-0.5
 74
     0
  0
LTYPE
  5
14
100
AcDbSymbolTableRecord
100
AcDbLinetypeTableRecord
  2
DASHDOT
 70
     0
  3
__ . __ . __ . __ . __ . __ . __ . __ . __ . __
 72
    65
 73
     4
 40
8.0
 49
5.0
 74
     0
 49
-1.0
 74
     0
 49
1.0
 74
     0
 49
-1.0
 74
     0
  0
ENDTAB
  0
TABLE
  2
LAYER
  5
1
100
AcDbSymbolTable
 70
     6
  0
LAYER
  5
15
100
AcDbSymbolTableRecord
100
AcDbLayerTableRecord
  2
0
 70
     0
 62
     7
  6
CONTINUOUS
  0
LAYER
  5
16
100
AcDbSymbolTableRecord
100
AcDbLayerTableRecord
  2
1
 70
     0
 62
     7
  6
CONTINUOUS
  0
LAYER
  5
17
100
AcDbSymbolTableRecord
100
AcDbLayerTableRecord
  2
2
 70
     0
 62
     7
  6
CONTINUOUS
  0
LAYER
  5
18
100
AcDbSymbolTableRecord
100
AcDbLayerTableRecord
  2
5
 70
     0
 62
     7
  6
CONTINUOUS
  0
LAYER
  5
19
100
AcDbSymbolTableRecord
100
AcDbLayerTableRecord
  2
18
 70
     0
 62
     7
  6
CONTINUOUS
  0
LAYER
  5
1A
100
AcDbSymbolTableRecord
100
AcDbLayerTableRecord
  2
20
 70
     0
 62
     7
  6
CONTINUOUS
  0
ENDTAB
  0
TABLE
  2
STYLE
  5
2
100
AcDbSymbolTable
 70
     1
  0
STYLE
  5
1D
100
AcDbSymbolTableRecord
100
AcDbTextStyleTableRecord
  2
STANDARD
 70
    64
 40
0.0
 41
1.0
 50
0.0
 71
     0
 42
1.0
  3
txt
  4
BIGFONT
  0
ENDTAB
  0
TABLE
  2
VIEW
  5
4
100
AcDbSymbolTable
 70
     0
  0
ENDTAB
  0
TABLE
  2
UCS
  5
5
100
AcDbSymbolTable
 70
     0
  0
ENDTAB
  0
TABLE
  2
APPID
  5
7
100
AcDbSymbolTable
 70
     1
  0
APPID
  5
1C
100
AcDbSymbolTableRecord
100
AcDbRegAppTableRecord
  2
ACAD
 70
     0
  0
ENDTAB
  0
TABLE
  2
DIMSTYLE
  5
8
100
AcDbSymbolTable
 70
     1
  0
DIMSTYLE
105
2A
100
AcDbSymbolTableRecord
100
AcDbDimStyleTableRecord
  2
STANDARD
 70
     0
  3

  4

  5

  6

  7

 40
2.0
 41
0.18
 42
0.0625
 43
0.38
 44
0.18
 45
0.0
 46
0.0
 47
0.0
 48
0.0
 71
     0
 72
     0
 73
     1
 74
     1
 75
     0
 76
     0
 77
     1
 78
     0
140
0.18
141
0.09
142
0.0
143
25.4
144
1.0
145
0.0
146
1.0
147
0.09
170
     0
171
     2
172
     0
173
     0
174
     0
175
     0
176
     0
177
     0
178
     0
270
     2
271
     4
272
     4
273
     2
274
     2
275
     0
280
     0
281
     0
282
     0
283
     1
284
     0
285
     0
286
     0
287
     3
288
     0
340
1D
  0
ENDTAB
  0
TABLE
  2
BLOCK_RECORD
  5
25
100
AcDbSymbolTable
 70
     5
  0
BLOCK_RECORD
  5
23
100
AcDbSymbolTableRecord
100
AcDbBlockTableRecord
  2
*MODEL_SPACE
  0
BLOCK_RECORD
  5
24
100
AcDbSymbolTableRecord
100
AcDbBlockTableRecord
  2
*PAPER_SPACE
  0
BLOCK_RECORD
  5
1E
100
AcDbSymbolTableRecord
100
AcDbBlockTableRecord
  2
*D0
  0
BLOCK_RECORD
  5
1F
100
AcDbSymbolTableRecord
100
AcDbBlockTableRecord
  2
*D1
  0
BLOCK_RECORD
  5
20
100
AcDbSymbolTableRecord
100
AcDbBlockTableRecord
  2
*D2
  0
BLOCK_RECORD
  5
21
100
AcDbSymbolTableRecord
100
AcDbBlockTableRecord
  2
*D3
  0
BLOCK_RECORD
  5
22
100
AcDbSymbolTableRecord
100
AcDbBlockTableRecord
  2
*D4
  0
ENDTAB
  0
ENDSEC
  0
SECTION
  2
BLOCKS
  0
BLOCK
  5
26
100
AcDbEntity
  8
0
100
AcDbBlockBegin
  2
*MODEL_SPACE
 70
     0
 10
0.0
 20
0.0
 30
0.0
  3
*MODEL_SPACE
  1

  0
ENDBLK
  5
27
100
AcDbEntity
  8
0
100
AcDbBlockEnd
  0
BLOCK
  5
28
100
AcDbEntity
 67
     1
  8
0
100
AcDbBlockBegin
  2
*PAPER_SPACE
 70
     0
 10
0.0
 20
0.0
 30
0.0
  3
*PAPER_SPACE
  1

  0
ENDBLK
  5
29
100
AcDbEntity
 67
     1
  8
0
100
AcDbBlockEnd
  0
BLOCK
  5
40A
100
AcDbEntity
  8
5
100
AcDbBlockBegin
  2
*D0
 70
     1
 10
0.0
 20
0.0
 30
0.0
  3
*D0
  1

  0
TEXT
  5
40B
100
AcDbEntity
  8
5
 62
     2
100
AcDbText
 10
-19.914696
 20
-101.562912
 30
0.0
 40
6.6
  1
151
 50
90.0
 41
1.4
 72
     5
 11
-19.914696
 21
-89.550912
 31
0.0
100
AcDbText
  0
LINE
  5
40C
100
AcDbEntity
  8
5
 62
     2
100
AcDbLine
 10
21.747654
 20
-170.132912
 30
0.0
 11
-20.914696
 21
-170.132912
 31
0.0
  0
LINE
  5
40D
100
AcDbEntity
  8
5
 62
     2
100
AcDbLine
 10
-18.914696
 20
-170.132912
 30
0.0
 11
-17.87942
 21
-166.269208
 31
0.0
  0
LINE
  5
40E
100
AcDbEntity
  8
5
 62
     2
100
AcDbLine
 10
-18.914696
 20
-170.132912
 30
0.0
 11
-19.949972
 21
-166.269208
 31
0.0
  0
LINE
  5
40F
100
AcDbEntity
  8
5
 62
     2
100
AcDbLine
 10
-17.87942
 20
-166.269208
 30
0.0
 11
-19.949972
 21
-166.269208
 31
0.0
  0
LINE
  5
410
100
AcDbEntity
  8
5
 62
     2
100
AcDbLine
 10
-18.914696
 20
-170.132912
 30
0.0
 11
-18.914696
 21
-19.132912
 31
0.0
  0
LINE
  5
411
100
AcDbEntity
  8
5
 62
     2
100
AcDbLine
 10
-18.914696
 20
-19.132912
 30
0.0
 11
-19.949972
 21
-22.996615
 31
0.0
  0
LINE
  5
412
100
AcDbEntity
  8
5
 62
     2
100
AcDbLine
 10
-18.914696
 20
-19.132912
 30
0.0
 11
-17.87942
 21
-22.996615
 31
0.0
  0
LINE
  5
413
100
AcDbEntity
  8
5
 62
     2
100
AcDbLine
 10
-19.949972
 20
-22.996615
 30
0.0
 11
-17.87942
 21
-22.996615
 31
0.0
  0
LINE
  5
414
100
AcDbEntity
  8
5
 62
     2
100
AcDbLine
 10
20.153364
 20
-19.132912
 30
0.0
 11
-20.914696
 21
-19.132912
 31
0.0
  0
ENDBLK
  5
415
100
AcDbEntity
  8
5
100
AcDbBlockEnd
  0
BLOCK
  5
416
100
AcDbEntity
  8
5
100
AcDbBlockBegin
  2
*D1
 70
     1
 10
0.0
 20
0.0
 30
0.0
  3
*D1
  1

  0
TEXT
  5
417
100
AcDbEntity
  8
5
 62
     2
100
AcDbText
 10
-19.914696
 20
-213.702912
 30
0.0
 40
6.6
  1
78
 50
90.0
 41
1.4
 72
     5
 11
-19.914696
 21
-206.310912
 31
0.0
100
AcDbText
  0
LINE
  5
418
100
AcDbEntity
  8
5
 62
     2
100
AcDbLine
 10
54.153364
 20
-248.032912
 30
0.0
 11
-20.914696
 21
-248.032912
 31
0.0
  0
LINE
  5
419
100
AcDbEntity
  8
5
 62
     2
100
AcDbLine
 10
-18.914696
 20
-248.032912
 30
0.0
 11
-17.87942
 21
-244.169208
 31
0.0
  0
LINE
  5
41A
100
AcDbEntity
  8
5
 62
     2
100
AcDbLine
 10
-18.914696
 20
-248.032912
 30
0.0
 11
-19.949972
 21
-244.169208
 31
0.0
  0
LINE
  5
41B
100
AcDbEntity
  8
5
 62
     2
100
AcDbLine
 10
-17.87942
 20
-244.169208
 30
0.0
 11
-19.949972
 21
-244.169208
 31
0.0
  0
LINE
  5
41C
100
AcDbEntity
  8
5
 62
     2
100
AcDbLine
 10
-18.914696
 20
-248.032912
 30
0.0
 11
-18.914696
 21
-170.132912
 31
0.0
  0
LINE
  5
41D
100
AcDbEntity
  8
5
 62
     2
100
AcDbLine
 10
-18.914696
 20
-170.132912
 30
0.0
 11
-19.949972
 21
-173.996615
 31
0.0
  0
LINE
  5
41E
100
AcDbEntity
  8
5
 62
     2
100
AcDbLine
 10
-18.914696
 20
-170.132912
 30
0.0
 11
-17.87942
 21
-173.996615
 31
0.0
  0
LINE
  5
41F
100
AcDbEntity
  8
5
 62
     2
100
AcDbLine
 10
-19.949972
 20
-173.996615
 30
0.0
 11
-17.87942
 21
-173.996615
 31
0.0
  0
LINE
  5
420
100
AcDbEntity
  8
5
 62
     2
100
AcDbLine
 10
21.747654
 20
-170.132912
 30
0.0
 11
-20.914696
 21
-170.132912
 31
0.0
  0
ENDBLK
  5
421
100
AcDbEntity
  8
5
100
AcDbBlockEnd
  0
BLOCK
  5
422
100
AcDbEntity
  8
5
100
AcDbBlockBegin
  2
*D2
 70
     1
 10
0.0
 20
0.0
 30
0.0
  3
*D2
  1

  0
TEXT
  5
423
100
AcDbEntity
  8
5
 62
     2
100
AcDbText
 10
56.533364
 20
-266.028534
 30
0.0
 40
6.6
  1
46
 41
1.4
 72
     5
 11
63.925364
 21
-266.028534
 31
0.0
100
AcDbText
  0
LINE
  5
424
100
AcDbEntity
  8
5
 62
     2
100
AcDbLine
 10
38.153364
 20
-228.632912
 30
0.0
 11
38.153364
 21
-269.028534
 31
0.0
  0
LINE
  5
425
100
AcDbEntity
  8
5
 62
     2
100
AcDbLine
 10
38.153364
 20
-267.028534
 30
0.0
 11
42.017068
 21
-268.06381
 31
0.0
  0
LINE
  5
426
100
AcDbEntity
  8
5
 62
     2
100
AcDbLine
 10
38.153364
 20
-267.028534
 30
0.0
 11
42.017068
 21
-265.993258
 31
0.0
  0
LINE
  5
427
100
AcDbEntity
  8
5
 62
     2
100
AcDbLine
 10
42.017068
 20
-268.06381
 30
0.0
 11
42.017068
 21
-265.993258
 31
0.0
  0
LINE
  5
428
100
AcDbEntity
  8
5
 62
     2
100
AcDbLine
 10
38.153364
 20
-267.028534
 30
0.0
 11
84.153364
 21
-267.028534
 31
0.0
  0
LINE
  5
429
100
AcDbEntity
  8
5
 62
     2
100
AcDbLine
 10
84.153364
 20
-267.028534
 30
0.0
 11
80.289661
 21
-265.993258
 31
0.0
  0
LINE
  5
42A
100
AcDbEntity
  8
5
 62
     2
100
AcDbLine
 10
84.153364
 20
-267.028534
 30
0.0
 11
80.289661
 21
-268.06381
 31
0.0
  0
LINE
  5
42B
100
AcDbEntity
  8
5
 62
     2
100
AcDbLine
 10
80.289661
 20
-265.993258
 30
0.0
 11
80.289661
 21
-268.06381
 31
0.0
  0
LINE
  5
42C
100
AcDbEntity
  8
5
 62
     2
100
AcDbLine
 10
84.153364
 20
-228.632912
 30
0.0
 11
84.153364
 21
-269.028534
 31
0.0
  0
ENDBLK
  5
42D
100
AcDbEntity
  8
5
100
AcDbBlockEnd
  0
BLOCK
  5
42E
100
AcDbEntity
  8
5
100
AcDbBlockBegin
  2
*D3
 70
     1
 10
0.0
 20
0.0
 30
0.0
  3
*D3
  1

  0
TEXT
  5
42F
100
AcDbEntity
  8
5
 62
     2
100
AcDbText
 10
-19.914696
 20
41.687088
 30
0.0
 40
6.6
  1
136
 50
90.0
 41
1.4
 72
     5
 11
-19.914696
 21
53.699088
 31
0.0
100
AcDbText
  0
LINE
  5
430
100
AcDbEntity
  8
5
 62
     2
100
AcDbLine
 10
20.153364
 20
-19.132912
 30
0.0
 11
-20.914696
 21
-19.132912
 31
0.0
  0
LINE
  5
431
100
AcDbEntity
  8
5
 62
     2
100
AcDbLine
 10
-18.914696
 20
-19.132912
 30
0.0
 11
-17.87942
 21
-15.269208
 31
0.0
  0
LINE
  5
432
100
AcDbEntity
  8
5
 62
     2
100
AcDbLine
 10
-18.914696
 20
-19.132912
 30
0.0
 11
-19.949972
 21
-15.269208
 31
0.0
  0
LINE
  5
433
100
AcDbEntity
  8
5
 62
     2
100
AcDbLine
 10
-17.87942
 20
-15.269208
 30
0.0
 11
-19.949972
 21
-15.269208
 31
0.0
  0
LINE
  5
434
100
AcDbEntity
  8
5
 62
     2
100
AcDbLine
 10
-18.914696
 20
-19.132912
 30
0.0
 11
-18.914696
 21
116.367088
 31
0.0
  0
LINE
  5
435
100
AcDbEntity
  8
5
 62
     2
100
AcDbLine
 10
-18.914696
 20
116.367088
 30
0.0
 11
-19.949972
 21
112.503385
 31
0.0
  0
LINE
  5
436
100
AcDbEntity
  8
5
 62
     2
100
AcDbLine
 10
-18.914696
 20
116.367088
 30
0.0
 11
-17.87942
 21
112.503385
 31
0.0
  0
LINE
  5
437
100
AcDbEntity
  8
5
 62
     2
100
AcDbLine
 10
-19.949972
 20
112.503385
 30
0.0
 11
-17.87942
 21
112.503385
 31
0.0
  0
LINE
  5
438
100
AcDbEntity
  8
5
 62
     2
100
AcDbLine
 10
54.153364
 20
116.367088
 30
0.0
 11
-20.914696
 21
116.367088
 31
0.0
  0
ENDBLK
  5
439
100
AcDbEntity
  8
5
100
AcDbBlockEnd
  0
BLOCK
  5
43A
100
AcDbEntity
  8
5
100
AcDbBlockBegin
  2
*D4
 70
     1
 10
0.0
 20
0.0
 30
0.0
  3
*D4
  1

  0
TEXT
  5
43B
100
AcDbEntity
  8
5
 62
     2
100
AcDbText
 10
51.913365
 20
147.877289
 30
0.0
 40
6.6
  1
%%c100
 41
1.4
 72
     5
 11
68.545364
 21
147.877289
 31
0.0
100
AcDbText
  0
LINE
  5
43C
100
AcDbEntity
  8
5
 62
     2
100
AcDbLine
 10
11.153364
 20
103.367088
 30
0.0
 11
11.153364
 21
148.877289
 31
0.0
  0
LINE
  5
43D
100
AcDbEntity
  8
5
 62
     2
100
AcDbLine
 10
11.153364
 20
146.877289
 30
0.0
 11
15.017068
 21
145.842013
 31
0.0
  0
LINE
  5
43E
100
AcDbEntity
  8
5
 62
     2
100
AcDbLine
 10
11.153364
 20
146.877289
 30
0.0
 11
15.017068
 21
147.912565
 31
0.0
  0
LINE
  5
43F
100
AcDbEntity
  8
5
 62
     2
100
AcDbLine
 10
15.017068
 20
145.842013
 30
0.0
 11
15.017068
 21
147.912565
 31
0.0
  0
LINE
  5
440
100
AcDbEntity
  8
5
 62
     2
100
AcDbLine
 10
11.153364
 20
146.877289
 30
0.0
 11
111.153364
 21
146.877289
 31
0.0
  0
LINE
  5
441
100
AcDbEntity
  8
5
 62
     2
100
AcDbLine
 10
111.153364
 20
146.877289
 30
0.0
 11
107.289661
 21
147.912565
 31
0.0
  0
LINE
  5
442
100
AcDbEntity
  8
5
 62
     2
100
AcDbLine
 10
111.153364
 20
146.877289
 30
0.0
 11
107.289661
 21
145.842013
 31
0.0
  0
LINE
  5
443
100
AcDbEntity
  8
5
 62
     2
100
AcDbLine
 10
107.289661
 20
147.912565
 30
0.0
 11
107.289661
 21
145.842013
 31
0.0
  0
LINE
  5
444
100
AcDbEntity
  8
5
 62
     2
100
AcDbLine
 10
111.153364
 20
103.367088
 30
0.0
 11
111.153364
 21
148.877289
 31
0.0
  0
ENDBLK
  5
445
100
AcDbEntity
  8
5
100
AcDbBlockEnd
  0
ENDSEC
  0
SECTION
  2
ENTITIES
  0
LINE
  5
2B
100
AcDbEntity
  8
1
  6
DASHED
100
AcDbLine
 10
-207.396636
 20
232.017088
 30
0.0
 11
-157.396636
 21
232.017088
 31
0.0
  0
LINE
  5
2C
100
AcDbEntity
  8
1
  6
DASHED
100
AcDbLine
 10
-207.396636
 20
162.017088
 30
0.0
 11
-157.396636
 21
162.017088
 31
0.0
  0
LINE
  5
2D
100
AcDbEntity
  8
1
  6
DASHED
100
AcDbLine
 10
-217.396636
 20
172.017088
 30
0.0
 11
-217.396636
 21
222.017088
 31
0.0
  0
LINE
  5
2E
100
AcDbEntity
  8
1
  6
DASHED
100
AcDbLine
 10
-147.396636
 20
172.017088
 30
0.0
 11
-147.396636
 21
222.017088
 31
0.0
  0
ARC
  5
2F
100
AcDbEntity
  8
1
  6
DASHED
100
AcDbCircle
 10
-207.396636
 20
172.017088
 30
0.0
 40
10.0
100
AcDbArc
 50
180.0
 51
270.0
  0
ARC
  5
30
100
AcDbEntity
  8
1
  6
DASHED
100
AcDbCircle
 10
-157.396636
 20
172.017088
 30
0.0
 40
10.0
100
AcDbArc
 50
270.0
 51
0.0
  0
ARC
  5
31
100
AcDbEntity
  8
1
  6
DASHED
100
AcDbCircle
 10
-157.396636
 20
222.017088
 30
0.0
 40
10.0
100
AcDbArc
 50
0.0
 51
90.0
  0
ARC
  5
32
100
AcDbEntity
  8
1
  6
DASHED
100
AcDbCircle
 10
-207.396636
 20
222.017088
 30
0.0
 40
10.0
100
AcDbArc
 50
90.0
 51
180.0
  0
CIRCLE
  5
33
100
AcDbEntity
  8
1
  6
DASHED
100
AcDbCircle
 10
-157.646636
 20
221.767088
 30
0.0
 40
4.5
  0
CIRCLE
  5
34
100
AcDbEntity
  8
1
  6
DASHED
100
AcDbCircle
 10
-157.646636
 20
172.267088
 30
0.0
 40
4.5
  0
CIRCLE
  5
35
100
AcDbEntity
  8
1
  6
DASHED
100
AcDbCircle
 10
-207.146636
 20
172.267088
 30
0.0
 40
4.5
  0
CIRCLE
  5
36
100
AcDbEntity
  8
1
  6
DASHED
100
AcDbCircle
 10
-207.146636
 20
221.767088
 30
0.0
 40
4.5
  0
LINE
  5
37
100
AcDbEntity
  8
1
  6
CENTER
 62
     2
100
AcDbLine
 10
-216.527295
 20
221.767088
 30
0.0
 11
-196.482559
 21
221.767088
 31
0.0
  0
LINE
  5
38
100
AcDbEntity
  8
1
  6
CENTER
 62
     2
100
AcDbLine
 10
-167.641388
 20
221.767088
 30
0.0
 11
-148.74709
 21
221.767088
 31
0.0
  0
LINE
  5
39
100
AcDbEntity
  8
1
  6
CENTER
 62
     2
100
AcDbLine
 10
-216.527295
 20
172.267088
 30
0.0
 11
-196.482559
 21
172.267088
 31
0.0
  0
LINE
  5
3A
100
AcDbEntity
  8
1
  6
CENTER
 62
     2
100
AcDbLine
 10
-167.641388
 20
172.267088
 30
0.0
 11
-148.74709
 21
172.267088
 31
0.0
  0
LINE
  5
3B
100
AcDbEntity
  8
1
  6
CENTER
 62
     2
100
AcDbLine
 10
-157.646636
 20
163.290043
 30
0.0
 11
-157.646636
 21
183.35616
 31
0.0
  0
LINE
  5
3C
100
AcDbEntity
  8
1
  6
CENTER
 62
     2
100
AcDbLine
 10
-157.646636
 20
211.765228
 30
0.0
 11
-157.646636
 21
231.119236
 31
0.0
  0
LINE
  5
3D
100
AcDbEntity
  8
1
  6
CENTER
 62
     2
100
AcDbLine
 10
-207.146636
 20
163.290043
 30
0.0
 11
-207.146636
 21
183.35616
 31
0.0
  0
LINE
  5
3E
100
AcDbEntity
  8
1
  6
CENTER
 62
     2
100
AcDbLine
 10
-207.146636
 20
211.765228
 30
0.0
 11
-207.146636
 21
231.119236
 31
0.0
  0
LINE
  5
3F
100
AcDbEntity
  8
1
  6
CENTER
 62
     2
100
AcDbLine
 10
-254.516491
 20
-170.132912
 30
0.0
 11
-110.072056
 21
-170.132912
 31
0.0
  0
LINE
  5
40
100
AcDbEntity
  8
1
  6
CENTER
 62
     2
100
AcDbLine
 10
23.747654
 20
-170.132912
 30
0.0
 11
97.756031
 21
-170.132912
 31
0.0
  0
LINE
  5
41
100
AcDbEntity
  8
1
100
AcDbLine
 10
-175.496636
 20
-244.032912
 30
0.0
 11
-163.296636
 21
-244.032912
 31
0.0
  0
LINE
  5
42
100
AcDbEntity
  8
1
100
AcDbLine
 10
-163.646636
 20
-244.032912
 30
0.0
 11
-163.646636
 21
-247.542164
 31
0.0
  0
LINE
  5
43
100
AcDbEntity
  8
1
100
AcDbLine
 10
-163.646636
 20
-247.542164
 30
0.0
 11
-164.496636
 21
-248.032912
 31
0.0
  0
LINE
  5
44
100
AcDbEntity
  8
1
100
AcDbLine
 10
-166.521636
 20
-244.032912
 30
0.0
 11
-166.521636
 21
-247.542164
 31
0.0
  0
ARC
  5
45
100
AcDbEntity
  8
1
100
AcDbCircle
 10
-165.084136
 20
-245.694209
 30
0.0
 40
2.341227
100
AcDbArc
 50
232.121121
 51
307.878879
  0
ARC
  5
46
100
AcDbEntity
  8
1
100
AcDbCircle
 10
-169.396636
 20
-239.410436
 30
0.0
 40
8.625
100
AcDbArc
 50
250.528777
 51
289.471219
  0
LINE
  5
47
100
AcDbEntity
  8
1
100
AcDbLine
 10
-175.146636
 20
-244.032912
 30
0.0
 11
-175.146636
 21
-247.542164
 31
0.0
  0
LINE
  5
48
100
AcDbEntity
  8
1
100
AcDbLine
 10
-175.146636
 20
-247.542164
 30
0.0
 11
-174.296636
 21
-248.032912
 31
0.0
  0
LINE
  5
49
100
AcDbEntity
  8
1
100
AcDbLine
 10
-174.296636
 20
-248.032912
 30
0.0
 11
-164.496636
 21
-248.032912
 31
0.0
  0
LINE
  5
4A
100
AcDbEntity
  8
1
100
AcDbLine
 10
-172.271636
 20
-244.032912
 30
0.0
 11
-172.271636
 21
-247.542164
 31
0.0
  0
ARC
  5
4B
100
AcDbEntity
  8
1
100
AcDbCircle
 10
-173.709136
 20
-245.694209
 30
0.0
 40
2.341227
100
AcDbArc
 50
232.121121
 51
307.878879
  0
LINE
  5
4C
100
AcDbEntity
  8
1
100
AcDbLine
 10
-163.296636
 20
-242.532912
 30
0.0
 11
-163.296636
 21
-244.032912
 31
0.0
  0
LINE
  5
4D
100
AcDbEntity
  8
1
100
AcDbLine
 10
-175.496636
 20
-244.032912
 30
0.0
 11
-175.496636
 21
-242.532912
 31
0.0
  0
LINE
  5
4E
100
AcDbEntity
  8
1
100
AcDbLine
 10
-169.396636
 20
-244.032912
 30
0.0
 11
-169.896636
 21
-242.532912
 31
0.0
  0
LINE
  5
4F
100
AcDbEntity
  8
1
100
AcDbLine
 10
-169.396636
 20
-242.532912
 30
0.0
 11
-168.896636
 21
-244.032912
 31
0.0
  0
LINE
  5
50
100
AcDbEntity
  8
1
100
AcDbLine
 10
-201.496636
 20
-244.032912
 30
0.0
 11
-189.296636
 21
-244.032912
 31
0.0
  0
LINE
  5
51
100
AcDbEntity
  8
1
100
AcDbLine
 10
-189.646636
 20
-244.032912
 30
0.0
 11
-189.646636
 21
-247.542164
 31
0.0
  0
LINE
  5
52
100
AcDbEntity
  8
1
100
AcDbLine
 10
-189.646636
 20
-247.542164
 30
0.0
 11
-190.496636
 21
-248.032912
 31
0.0
  0
LINE
  5
53
100
AcDbEntity
  8
1
100
AcDbLine
 10
-192.521636
 20
-244.032912
 30
0.0
 11
-192.521636
 21
-247.542164
 31
0.0
  0
ARC
  5
54
100
AcDbEntity
  8
1
100
AcDbCircle
 10
-191.084136
 20
-245.694209
 30
0.0
 40
2.341227
100
AcDbArc
 50
232.121121
 51
307.878879
  0
ARC
  5
55
100
AcDbEntity
  8
1
100
AcDbCircle
 10
-195.396636
 20
-239.410436
 30
0.0
 40
8.625
100
AcDbArc
 50
250.528777
 51
289.471219
  0
LINE
  5
56
100
AcDbEntity
  8
1
100
AcDbLine
 10
-201.146636
 20
-244.032912
 30
0.0
 11
-201.146636
 21
-247.542164
 31
0.0
  0
LINE
  5
57
100
AcDbEntity
  8
1
100
AcDbLine
 10
-201.146636
 20
-247.542164
 30
0.0
 11
-200.296636
 21
-248.032912
 31
0.0
  0
LINE
  5
58
100
AcDbEntity
  8
1
100
AcDbLine
 10
-200.296636
 20
-248.032912
 30
0.0
 11
-190.496636
 21
-248.032912
 31
0.0
  0
LINE
  5
59
100
AcDbEntity
  8
1
100
AcDbLine
 10
-198.271636
 20
-244.032912
 30
0.0
 11
-198.271636
 21
-247.542164
 31
0.0
  0
ARC
  5
5A
100
AcDbEntity
  8
1
100
AcDbCircle
 10
-199.709136
 20
-245.694209
 30
0.0
 40
2.341227
100
AcDbArc
 50
232.121121
 51
307.878879
  0
LINE
  5
5B
100
AcDbEntity
  8
1
100
AcDbLine
 10
-189.296636
 20
-242.532912
 30
0.0
 11
-189.296636
 21
-244.032912
 31
0.0
  0
LINE
  5
5C
100
AcDbEntity
  8
1
100
AcDbLine
 10
-201.496636
 20
-244.032912
 30
0.0
 11
-201.496636
 21
-242.532912
 31
0.0
  0
LINE
  5
5D
100
AcDbEntity
  8
1
100
AcDbLine
 10
-195.396636
 20
-244.032912
 30
0.0
 11
-195.896636
 21
-242.532912
 31
0.0
  0
LINE
  5
5E
100
AcDbEntity
  8
1
100
AcDbLine
 10
-195.396636
 20
-242.532912
 30
0.0
 11
-194.896636
 21
-244.032912
 31
0.0
  0
LINE
  5
5F
100
AcDbEntity
  8
1
100
AcDbLine
 10
66.153364
 20
-244.032912
 30
0.0
 11
66.153364
 21
-248.032912
 31
0.0
  0
LINE
  5
60
100
AcDbEntity
  8
1
100
AcDbLine
 10
61.153364
 20
-244.032912
 30
0.0
 11
61.153364
 21
-247.542164
 31
0.0
  0
ARC
  5
61
100
AcDbEntity
  8
1
100
AcDbCircle
 10
63.653364
 20
-241.419704
 30
0.0
 40
6.613208
100
AcDbArc
 50
247.788205
 51
292.211795
  0
LINE
  5
62
100
AcDbEntity
  8
1
100
AcDbLine
 10
56.153364
 20
-244.032912
 30
0.0
 11
56.153364
 21
-248.032912
 31
0.0
  0
LINE
  5
63
100
AcDbEntity
  8
1
100
AcDbLine
 10
56.153364
 20
-248.032912
 30
0.0
 11
66.153364
 21
-248.032912
 31
0.0
  0
ARC
  5
64
100
AcDbEntity
  8
1
100
AcDbCircle
 10
58.653364
 20
-241.419704
 30
0.0
 40
6.613208
100
AcDbArc
 50
247.788205
 51
292.211795
  0
LINE
  5
65
100
AcDbEntity
  8
1
100
AcDbLine
 10
67.253364
 20
-242.532912
 30
0.0
 11
67.253364
 21
-244.032912
 31
0.0
  0
LINE
  5
66
100
AcDbEntity
  8
1
100
AcDbLine
 10
67.253364
 20
-244.032912
 30
0.0
 11
55.053364
 21
-244.032912
 31
0.0
  0
LINE
  5
67
100
AcDbEntity
  8
1
100
AcDbLine
 10
55.053364
 20
-244.032912
 30
0.0
 11
55.053364
 21
-242.532912
 31
0.0
  0
LINE
  5
68
100
AcDbEntity
  8
1
100
AcDbLine
 10
-125.896636
 20
220.017088
 30
0.0
 11
-124.896636
 21
219.017088
 31
0.0
  0
LINE
  5
69
100
AcDbEntity
  8
1
100
AcDbLine
 10
-124.896636
 20
175.017088
 30
0.0
 11
-125.896636
 21
174.017088
 31
0.0
  0
LINE
  5
6A
100
AcDbEntity
  8
1
100
AcDbLine
 10
-133.242841
 20
208.517088
 30
0.0
 11
-126.690355
 21
208.517088
 31
0.0
  0
LINE
  5
6B
100
AcDbEntity
  8
1
100
AcDbLine
 10
-133.242841
 20
185.517088
 30
0.0
 11
-126.690355
 21
185.517088
 31
0.0
  0
ARC
  5
6C
100
AcDbEntity
  8
1
  6
DASHED
100
AcDbCircle
 10
-148.082246
 20
191.517088
 30
0.0
 40
6.0
100
AcDbArc
 50
276.56143
 51
360.0
  0
ARC
  5
6D
100
AcDbEntity
  8
1
  6
DASHED
100
AcDbCircle
 10
-148.082246
 20
202.517088
 30
0.0
 40
6.0
100
AcDbArc
 50
0.0
 51
83.43857
  0
LINE
  5
6E
100
AcDbEntity
  8
1
100
AcDbLine
 10
-128.60254
 20
207.524094
 30
0.0
 11
-133.190731
 21
206.294692
 31
0.0
  0
LINE
  5
6F
100
AcDbEntity
  8
1
100
AcDbLine
 10
-128.60254
 20
186.510082
 30
0.0
 11
-133.190731
 21
187.739484
 31
0.0
  0
LINE
  5
70
100
AcDbEntity
  8
1
100
AcDbLine
 10
-124.896636
 20
175.017088
 30
0.0
 11
-124.896636
 21
181.680453
 31
0.0
  0
LINE
  5
71
100
AcDbEntity
  8
1
100
AcDbLine
 10
-124.896636
 20
212.353723
 30
0.0
 11
-124.896636
 21
219.017088
 31
0.0
  0
ARC
  5
72
100
AcDbEntity
  8
1
100
AcDbCircle
 10
-129.896636
 20
212.353723
 30
0.0
 40
5.0
100
AcDbArc
 50
285.0
 51
0.0
  0
ARC
  5
73
100
AcDbEntity
  8
1
100
AcDbCircle
 10
-129.896636
 20
181.680453
 30
0.0
 40
5.0
100
AcDbArc
 50
360.0
 51
75.0
  0
LINE
  5
74
100
AcDbEntity
  8
1
100
AcDbLine
 10
69.437864
 20
-126.348412
 30
0.0
 11
69.437864
 21
-123.969412
 31
0.0
  0
LINE
  5
75
100
AcDbEntity
  8
1
100
AcDbLine
 10
52.868864
 20
-126.348412
 30
0.0
 11
52.868864
 21
-123.969412
 31
0.0
  0
LINE
  5
76
100
AcDbEntity
  8
1
100
AcDbLine
 10
56.705364
 20
-140.400238
 30
0.0
 11
65.601364
 21
-140.400238
 31
0.0
  0
LINE
  5
77
100
AcDbEntity
  8
1
100
AcDbLine
 10
69.437864
 20
-196.029085
 30
0.0
 11
69.437864
 21
-144.236738
 31
0.0
  0
LINE
  5
78
100
AcDbEntity
  8
1
100
AcDbLine
 10
56.705364
 20
-199.865585
 30
0.0
 11
65.601364
 21
-199.865585
 31
0.0
  0
LINE
  5
79
100
AcDbEntity
  8
1
100
AcDbLine
 10
52.868864
 20
-196.029085
 30
0.0
 11
52.868864
 21
-144.236738
 31
0.0
  0
ARC
  5
7A
100
AcDbEntity
  8
1
100
AcDbCircle
 10
56.705364
 20
-144.236738
 30
0.0
 40
3.8365
100
AcDbArc
 50
90.0
 51
180.0
  0
ARC
  5
7B
100
AcDbEntity
  8
1
100
AcDbCircle
 10
65.601364
 20
-144.236738
 30
0.0
 40
3.8365
100
AcDbArc
 50
0.0
 51
90.0
  0
ARC
  5
7C
100
AcDbEntity
  8
1
100
AcDbCircle
 10
65.601364
 20
-196.029085
 30
0.0
 40
3.8365
100
AcDbArc
 50
270.0
 51
360.0
  0
ARC
  5
7D
100
AcDbEntity
  8
1
100
AcDbCircle
 10
56.705364
 20
-196.029085
 30
0.0
 40
3.8365
100
AcDbArc
 50
180.0
 51
270.0
  0
LINE
  5
7E
100
AcDbEntity
  8
1
100
AcDbLine
 10
71.625742
 20
-134.775017
 30
0.0
 11
69.437864
 21
-140.400238
 31
0.0
  0
LINE
  5
7F
100
AcDbEntity
  8
1
100
AcDbLine
 10
50.680987
 20
-134.775017
 30
0.0
 11
52.868864
 21
-140.400238
 31
0.0
  0
LINE
  5
80
100
AcDbEntity
  8
1
100
AcDbLine
 10
50.680987
 20
-205.490807
 30
0.0
 11
52.868864
 21
-199.865585
 31
0.0
  0
LINE
  5
81
100
AcDbEntity
  8
1
100
AcDbLine
 10
69.437864
 20
-199.865585
 30
0.0
 11
71.625742
 21
-205.490807
 31
0.0
  0
ARC
  5
82
100
AcDbEntity
  8
1
100
AcDbCircle
 10
66.653364
 20
-126.348412
 30
0.0
 40
2.7845
100
AcDbArc
 50
270.0
 51
360.0
  0
ARC
  5
83
100
AcDbEntity
  8
1
100
AcDbCircle
 10
55.653364
 20
-126.348412
 30
0.0
 40
2.7845
100
AcDbArc
 50
180.0
 51
270.0
  0
ARC
  5
84
100
AcDbEntity
  8
1
100
AcDbCircle
 10
56.705364
 20
-123.969412
 30
0.0
 40
3.8365
100
AcDbArc
 50
103.121499
 51
180.0
  0
ARC
  5
85
100
AcDbEntity
  8
1
100
AcDbCircle
 10
65.601364
 20
-123.969412
 30
0.0
 40
3.8365
100
AcDbArc
 50
0.0
 51
76.878501
  0
ARC
  5
86
100
AcDbEntity
  8
1
100
AcDbCircle
 10
67.153364
 20
-117.311407
 30
0.0
 40
3.0
100
AcDbArc
 50
180.0
 51
256.878501
  0
ARC
  5
87
100
AcDbEntity
  8
1
100
AcDbCircle
 10
55.153364
 20
-117.311407
 30
0.0
 40
3.0
100
AcDbArc
 50
283.121499
 51
360.0
  0
LINE
  5
88
100
AcDbEntity
  8
1
100
AcDbLine
 10
72.992201
 20
-112.654056
 30
0.0
 11
69.437864
 21
-120.132912
 31
0.0
  0
LINE
  5
89
100
AcDbEntity
  8
1
100
AcDbLine
 10
49.314528
 20
-112.654056
 30
0.0
 11
52.868864
 21
-120.132912
 31
0.0
  0
LINE
  5
8A
100
AcDbEntity
  8
1
100
AcDbLine
 10
55.084364
 20
-216.132912
 30
0.0
 11
55.153364
 21
-216.132912
 31
0.0
  0
LINE
  5
8B
100
AcDbEntity
  8
1
100
AcDbLine
 10
67.153364
 20
-216.132912
 30
0.0
 11
67.222364
 21
-216.132912
 31
0.0
  0
LINE
  5
8C
100
AcDbEntity
  8
1
100
AcDbLine
 10
37.028364
 20
-218.682912
 30
0.0
 11
37.028364
 21
-121.582912
 31
0.0
  0
LINE
  5
8D
100
AcDbEntity
  8
1
100
AcDbLine
 10
85.278364
 20
-218.682912
 30
0.0
 11
85.278364
 21
-121.582912
 31
0.0
  0
LINE
  5
8E
100
AcDbEntity
  8
1
100
AcDbLine
 10
85.278364
 20
-121.582912
 30
0.0
 11
84.441986
 21
-120.133189
 31
0.0
  0
ARC
  5
8F
100
AcDbEntity
  8
1
100
AcDbCircle
 10
83.575801
 20
-120.632912
 30
0.0
 40
1.0
100
AcDbArc
 50
29.981639
 51
54.720616
  0
LINE
  5
90
100
AcDbEntity
  8
1
100
AcDbLine
 10
37.028364
 20
-121.582912
 30
0.0
 11
37.864743
 21
-120.133189
 31
0.0
  0
ARC
  5
91
100
AcDbEntity
  8
1
100
AcDbCircle
 10
38.730928
 20
-120.632912
 30
0.0
 40
1.0
100
AcDbArc
 50
125.279384
 51
150.018361
  0
LINE
  5
92
100
AcDbEntity
  8
1
100
AcDbLine
 10
85.278364
 20
-218.682912
 30
0.0
 11
84.441986
 21
-220.132634
 31
0.0
  0
LINE
  5
93
100
AcDbEntity
  8
1
100
AcDbLine
 10
37.028364
 20
-218.682912
 30
0.0
 11
37.864743
 21
-220.132634
 31
0.0
  0
ARC
  5
94
100
AcDbEntity
  8
1
100
AcDbCircle
 10
83.575801
 20
-219.632912
 30
0.0
 40
1.0
100
AcDbArc
 50
305.279384
 51
330.018361
  0
ARC
  5
95
100
AcDbEntity
  8
1
100
AcDbCircle
 10
38.730928
 20
-219.632912
 30
0.0
 40
1.0
100
AcDbArc
 50
209.981639
 51
234.720616
  0
LINE
  5
96
100
AcDbEntity
  8
1
100
AcDbLine
 10
-133.846636
 20
221.142088
 30
0.0
 11
-132.396913
 21
220.30571
 31
0.0
  0
LINE
  5
97
100
AcDbEntity
  8
1
100
AcDbLine
 10
-133.846636
 20
172.892088
 30
0.0
 11
-132.396913
 21
173.728467
 31
0.0
  0
ARC
  5
98
100
AcDbEntity
  8
1
100
AcDbCircle
 10
-132.896636
 20
219.439524
 30
0.0
 40
1.0
100
AcDbArc
 50
35.279384
 51
60.018361
  0
ARC
  5
99
100
AcDbEntity
  8
1
100
AcDbCircle
 10
-132.896636
 20
174.594652
 30
0.0
 40
1.0
100
AcDbArc
 50
299.981639
 51
324.720616
  0
LINE
  5
9A
100
AcDbEntity
  8
1
  6
DASHED
100
AcDbLine
 10
-145.370051
 20
207.869097
 30
0.0
 11
-147.396636
 21
207.469679
 31
0.0
  0
LINE
  5
9B
100
AcDbEntity
  8
1
  6
DASHED
100
AcDbLine
 10
-136.896636
 20
192.569114
 30
0.0
 11
-136.896636
 21
194.017088
 31
0.0
  0
LINE
  5
9C
100
AcDbEntity
  8
1
  6
DASHED
100
AcDbLine
 10
-136.896636
 20
200.017088
 30
0.0
 11
-136.896636
 21
201.465063
 31
0.0
  0
LINE
  5
9D
100
AcDbEntity
  8
1
  6
DASHED
100
AcDbLine
 10
-139.242841
 20
191.517088
 30
0.0
 11
-139.242841
 21
194.017088
 31
0.0
  0
LINE
  5
9E
100
AcDbEntity
  8
1
  6
DASHED
100
AcDbLine
 10
-139.242841
 20
200.017088
 30
0.0
 11
-139.242841
 21
202.517088
 31
0.0
  0
LINE
  5
9F
100
AcDbEntity
  8
1
  6
DASHED
100
AcDbLine
 10
-142.082246
 20
191.517088
 30
0.0
 11
-142.082246
 21
194.017088
 31
0.0
  0
LINE
  5
A0
100
AcDbEntity
  8
1
  6
DASHED
100
AcDbLine
 10
-142.082246
 20
200.017088
 30
0.0
 11
-142.082246
 21
202.517088
 31
0.0
  0
LINE
  5
A1
100
AcDbEntity
  8
1
  6
DASHED
100
AcDbLine
 10
-145.370051
 20
186.165079
 30
0.0
 11
-147.396636
 21
186.564497
 31
0.0
  0
LINE
  5
A2
100
AcDbEntity
  8
1
100
AcDbLine
 10
-238.896636
 20
220.017088
 30
0.0
 11
-239.896636
 21
219.017088
 31
0.0
  0
LINE
  5
A3
100
AcDbEntity
  8
1
100
AcDbLine
 10
-239.896636
 20
175.017088
 30
0.0
 11
-238.896636
 21
174.017088
 31
0.0
  0
LINE
  5
A4
100
AcDbEntity
  8
1
100
AcDbLine
 10
-231.55043
 20
208.517088
 30
0.0
 11
-238.102916
 21
208.517088
 31
0.0
  0
LINE
  5
A5
100
AcDbEntity
  8
1
100
AcDbLine
 10
-231.55043
 20
185.517088
 30
0.0
 11
-238.102916
 21
185.517088
 31
0.0
  0
ARC
  5
A6
100
AcDbEntity
  8
1
  6
DASHED
100
AcDbCircle
 10
-216.711025
 20
191.517088
 30
0.0
 40
6.0
100
AcDbArc
 50
180.0
 51
263.43857
  0
ARC
  5
A7
100
AcDbEntity
  8
1
  6
DASHED
100
AcDbCircle
 10
-216.711025
 20
202.517088
 30
0.0
 40
6.0
100
AcDbArc
 50
96.56143
 51
180.0
  0
LINE
  5
A8
100
AcDbEntity
  8
1
100
AcDbLine
 10
-236.190731
 20
207.524094
 30
0.0
 11
-231.60254
 21
206.294692
 31
0.0
  0
LINE
  5
A9
100
AcDbEntity
  8
1
100
AcDbLine
 10
-236.190731
 20
186.510082
 30
0.0
 11
-231.60254
 21
187.739484
 31
0.0
  0
LINE
  5
AA
100
AcDbEntity
  8
1
100
AcDbLine
 10
-239.896636
 20
175.017088
 30
0.0
 11
-239.896636
 21
181.680453
 31
0.0
  0
LINE
  5
AB
100
AcDbEntity
  8
1
100
AcDbLine
 10
-239.896636
 20
212.353723
 30
0.0
 11
-239.896636
 21
219.017088
 31
0.0
  0
ARC
  5
AC
100
AcDbEntity
  8
1
100
AcDbCircle
 10
-234.896636
 20
212.353723
 30
0.0
 40
5.0
100
AcDbArc
 50
180.0
 51
255.0
  0
ARC
  5
AD
100
AcDbEntity
  8
1
100
AcDbCircle
 10
-234.896636
 20
181.680453
 30
0.0
 40
5.0
100
AcDbArc
 50
105.0
 51
180.0
  0
LINE
  5
AE
100
AcDbEntity
  8
1
100
AcDbLine
 10
-230.946636
 20
221.142088
 30
0.0
 11
-232.396358
 21
220.30571
 31
0.0
  0
LINE
  5
AF
100
AcDbEntity
  8
1
100
AcDbLine
 10
-230.946636
 20
172.892088
 30
0.0
 11
-232.396358
 21
173.728467
 31
0.0
  0
ARC
  5
B0
100
AcDbEntity
  8
1
100
AcDbCircle
 10
-231.896636
 20
219.439524
 30
0.0
 40
1.0
100
AcDbArc
 50
119.981639
 51
144.720616
  0
ARC
  5
B1
100
AcDbEntity
  8
1
100
AcDbCircle
 10
-231.896636
 20
174.594652
 30
0.0
 40
1.0
100
AcDbArc
 50
215.279384
 51
240.018361
  0
LINE
  5
B2
100
AcDbEntity
  8
1
  6
DASHED
100
AcDbLine
 10
-219.42322
 20
207.869097
 30
0.0
 11
-217.396636
 21
207.469679
 31
0.0
  0
LINE
  5
B3
100
AcDbEntity
  8
1
  6
DASHED
100
AcDbLine
 10
-227.896636
 20
192.569114
 30
0.0
 11
-227.896636
 21
194.017088
 31
0.0
  0
LINE
  5
B4
100
AcDbEntity
  8
1
  6
DASHED
100
AcDbLine
 10
-225.55043
 20
191.517088
 30
0.0
 11
-225.55043
 21
194.017088
 31
0.0
  0
LINE
  5
B5
100
AcDbEntity
  8
1
  6
DASHED
100
AcDbLine
 10
-225.55043
 20
200.017088
 30
0.0
 11
-225.55043
 21
202.517088
 31
0.0
  0
LINE
  5
B6
100
AcDbEntity
  8
1
  6
DASHED
100
AcDbLine
 10
-222.711025
 20
191.517088
 30
0.0
 11
-222.711025
 21
194.017088
 31
0.0
  0
LINE
  5
B7
100
AcDbEntity
  8
1
  6
DASHED
100
AcDbLine
 10
-222.711025
 20
200.017088
 30
0.0
 11
-222.711025
 21
202.517088
 31
0.0
  0
LINE
  5
B8
100
AcDbEntity
  8
1
  6
DASHED
100
AcDbLine
 10
-219.42322
 20
186.165079
 30
0.0
 11
-217.396636
 21
186.564497
 31
0.0
  0
LINE
  5
B9
100
AcDbEntity
  8
1
100
AcDbLine
 10
-147.396636
 20
-27.132912
 30
0.0
 11
-147.396636
 21
-19.132912
 31
0.0
  0
LINE
  5
BA
100
AcDbEntity
  8
1
100
AcDbLine
 10
-217.396636
 20
-27.132912
 30
0.0
 11
-217.396636
 21
-19.132912
 31
0.0
  0
LINE
  5
BB
100
AcDbEntity
  8
1
100
AcDbLine
 10
-213.396636
 20
-31.132912
 30
0.0
 11
-151.396636
 21
-31.132912
 31
0.0
  0
ARC
  5
BC
100
AcDbEntity
  8
1
100
AcDbCircle
 10
-151.396636
 20
-27.132912
 30
0.0
 40
4.0
100
AcDbArc
 50
270.0
 51
360.0
  0
ARC
  5
BD
100
AcDbEntity
  8
1
100
AcDbCircle
 10
-213.396636
 20
-27.132912
 30
0.0
 40
4.0
100
AcDbArc
 50
180.0
 51
270.0
  0
LINE
  5
BE
100
AcDbEntity
  8
1
100
AcDbLine
 10
-197.396636
 20
-110.919315
 30
0.0
 11
-197.396636
 21
-36.132912
 31
0.0
  0
LINE
  5
BF
100
AcDbEntity
  8
1
100
AcDbLine
 10
-167.396636
 20
-110.919315
 30
0.0
 11
-167.396636
 21
-36.132912
 31
0.0
  0
ARC
  5
C0
100
AcDbEntity
  8
1
100
AcDbCircle
 10
-162.396636
 20
-36.132912
 30
0.0
 40
5.0
100
AcDbArc
 50
90.0
 51
180.0
  0
ARC
  5
C1
100
AcDbEntity
  8
1
100
AcDbCircle
 10
-202.396636
 20
-36.132912
 30
0.0
 40
5.0
100
AcDbArc
 50
0.0
 51
90.0
  0
ARC
  5
C2
100
AcDbEntity
  8
1
100
AcDbCircle
 10
-149.396636
 20
-49.041814
 30
0.0
 40
18.0
100
AcDbArc
 50
95.215909
 51
180.0
  0
ARC
  5
C3
100
AcDbEntity
  8
1
100
AcDbCircle
 10
-215.396636
 20
-49.041814
 30
0.0
 40
18.0
100
AcDbArc
 50
0.0
 51
84.784091
  0
LINE
  5
C4
100
AcDbEntity
  8
1
100
AcDbLine
 10
-179.396636
 20
-49.041814
 30
0.0
 11
-185.396636
 21
-49.041814
 31
0.0
  0
LINE
  5
C5
100
AcDbEntity
  8
1
100
AcDbLine
 10
-185.396636
 20
-47.041814
 30
0.0
 11
-185.396636
 21
-33.132912
 31
0.0
  0
LINE
  5
C6
100
AcDbEntity
  8
1
100
AcDbLine
 10
-179.396636
 20
-47.041814
 30
0.0
 11
-179.396636
 21
-33.132912
 31
0.0
  0
ARC
  5
C7
100
AcDbEntity
  8
1
100
AcDbCircle
 10
-177.396636
 20
-33.132912
 30
0.0
 40
2.0
100
AcDbArc
 50
90.0
 51
180.0
  0
ARC
  5
C8
100
AcDbEntity
  8
1
100
AcDbCircle
 10
-187.396636
 20
-33.132912
 30
0.0
 40
2.0
100
AcDbArc
 50
0.0
 51
90.0
  0
ARC
  5
C9
100
AcDbEntity
  8
1
100
AcDbCircle
 10
-187.396636
 20
-47.041814
 30
0.0
 40
2.0
100
AcDbArc
 50
270.0
 51
360.0
  0
ARC
  5
CA
100
AcDbEntity
  8
1
100
AcDbCircle
 10
-177.396636
 20
-47.041814
 30
0.0
 40
2.0
100
AcDbArc
 50
180.0
 51
270.0
  0
CIRCLE
  5
CB
100
AcDbEntity
  8
1
100
AcDbCircle
 10
-182.396636
 20
-170.132912
 30
0.0
 40
57.5
  0
ARC
  5
CC
100
AcDbEntity
  8
1
100
AcDbCircle
 10
-162.396636
 20
-110.919315
 30
0.0
 40
5.0
100
AcDbArc
 50
180.0
 51
251.337075
  0
ARC
  5
CD
100
AcDbEntity
  8
1
100
AcDbCircle
 10
-202.396636
 20
-110.919315
 30
0.0
 40
5.0
100
AcDbArc
 50
288.662925
 51
360.0
  0
ARC
  5
CE
100
AcDbEntity
  8
1
100
AcDbCircle
 10
-182.396636
 20
-185.132912
 30
0.0
 40
96.0
100
AcDbArc
 50
58.325851
 51
76.358323
  0
ARC
  5
CF
100
AcDbEntity
  8
1
100
AcDbCircle
 10
-182.396636
 20
-185.132912
 30
0.0
 40
96.0
100
AcDbArc
 50
103.641677
 51
121.674149
  0
ARC
  5
D0
100
AcDbEntity
  8
1
100
AcDbCircle
 10
-157.396636
 20
-82.123203
 30
0.0
 40
10.0
100
AcDbArc
 50
180.0
 51
256.358323
  0
ARC
  5
D1
100
AcDbEntity
  8
1
100
AcDbCircle
 10
-207.396636
 20
-82.123203
 30
0.0
 40
10.0
100
AcDbArc
 50
283.641677
 51
360.0
  0
ARC
  5
D2
100
AcDbEntity
  8
1
100
AcDbCircle
 10
-136.434695
 20
-124.170971
 30
0.0
 40
7.5
100
AcDbArc
 50
158.578178
 51
225.0
  0
ARC
  5
D3
100
AcDbEntity
  8
1
100
AcDbCircle
 10
-132.899161
 20
-120.635437
 30
0.0
 40
9.5
100
AcDbArc
 50
123.463041
 51
158.578178
  0
ARC
  5
D4
100
AcDbEntity
  8
1
100
AcDbCircle
 10
-131.131394
 20
-118.86767
 30
0.0
 40
9.0
100
AcDbArc
 50
104.546902
 51
123.463041
  0
LINE
  5
D5
100
AcDbEntity
  8
1
100
AcDbLine
 10
-136.093985
 20
-111.359495
 30
0.0
 11
-138.137451
 21
-112.710141
 31
0.0
  0
LINE
  5
D6
100
AcDbEntity
  8
1
100
AcDbLine
 10
-141.74287
 20
-117.165739
 30
0.0
 11
-143.416571
 21
-121.431736
 31
0.0
  0
ARC
  5
D7
100
AcDbEntity
  8
1
100
AcDbCircle
 10
-134.396636
 20
-106.284419
 30
0.0
 40
4.0
100
AcDbArc
 50
284.546902
 51
360.0
  0
ARC
  5
D8
100
AcDbEntity
  8
1
100
AcDbCircle
 10
-133.747945
 20
-106.284419
 30
0.0
 40
3.35131
100
AcDbArc
 50
0.0
 51
58.325851
  0
ARC
  5
D9
100
AcDbEntity
  8
1
100
AcDbCircle
 10
-228.358576
 20
-124.170971
 30
0.0
 40
7.5
100
AcDbArc
 50
315.0
 51
21.421822
  0
ARC
  5
DA
100
AcDbEntity
  8
1
100
AcDbCircle
 10
-231.89411
 20
-120.635437
 30
0.0
 40
9.5
100
AcDbArc
 50
21.421822
 51
56.536959
  0
ARC
  5
DB
100
AcDbEntity
  8
1
100
AcDbCircle
 10
-233.661877
 20
-118.86767
 30
0.0
 40
9.0
100
AcDbArc
 50
56.536959
 51
75.453098
  0
LINE
  5
DC
100
AcDbEntity
  8
1
100
AcDbLine
 10
-228.699286
 20
-111.359495
 30
0.0
 11
-226.65582
 21
-112.710141
 31
0.0
  0
LINE
  5
DD
100
AcDbEntity
  8
1
100
AcDbLine
 10
-223.050401
 20
-117.165739
 30
0.0
 11
-221.3767
 21
-121.431736
 31
0.0
  0
ARC
  5
DE
100
AcDbEntity
  8
1
100
AcDbCircle
 10
-230.396636
 20
-106.284419
 30
0.0
 40
4.0
100
AcDbArc
 50
180.0
 51
255.453098
  0
ARC
  5
DF
100
AcDbEntity
  8
1
100
AcDbCircle
 10
-231.045326
 20
-106.284419
 30
0.0
 40
3.35131
100
AcDbArc
 50
121.674149
 51
180.0
  0
LINE
  5
E0
100
AcDbEntity
  8
1
100
AcDbLine
 10
-201.396636
 20
-240.132912
 30
0.0
 11
-163.396636
 21
-240.132912
 31
0.0
  0
ARC
  5
E1
100
AcDbEntity
  8
1
100
AcDbCircle
 10
-158.396636
 20
-227.84123
 30
0.0
 40
5.0
100
AcDbArc
 50
112.581673
 51
180.0
  0
ARC
  5
E2
100
AcDbEntity
  8
1
100
AcDbCircle
 10
-206.396636
 20
-227.84123
 30
0.0
 40
5.0
100
AcDbArc
 50
0.0
 51
67.418327
  0
LINE
  5
E3
100
AcDbEntity
  8
1
100
AcDbLine
 10
-198.396636
 20
-237.132912
 30
0.0
 11
-166.396636
 21
-237.132912
 31
0.0
  0
LINE
  5
E4
100
AcDbEntity
  8
1
100
AcDbLine
 10
-161.97694
 20
-236.752505
 30
0.0
 11
-142.861359
 21
-231.630501
 31
0.0
  0
LINE
  5
E5
100
AcDbEntity
  8
1
100
AcDbLine
 10
-202.816331
 20
-236.752505
 30
0.0
 11
-221.931912
 21
-231.630501
 31
0.0
  0
ARC
  5
E6
100
AcDbEntity
  8
1
100
AcDbCircle
 10
-166.396636
 20
-234.132912
 30
0.0
 40
3.0
100
AcDbArc
 50
270.0
 51
360.0
  0
ARC
  5
E7
100
AcDbEntity
  8
1
100
AcDbCircle
 10
-198.396636
 20
-234.132912
 30
0.0
 40
3.0
100
AcDbArc
 50
180.0
 51
270.0
  0
LINE
  5
E8
100
AcDbEntity
  8
1
100
AcDbLine
 10
-224.896636
 20
-227.766798
 30
0.0
 11
-224.896636
 21
-227.460172
 31
0.0
  0
LINE
  5
E9
100
AcDbEntity
  8
1
100
AcDbLine
 10
-139.896636
 20
-227.766798
 30
0.0
 11
-139.896636
 21
-227.460172
 31
0.0
  0
LINE
  5
EA
100
AcDbEntity
  8
1
100
AcDbLine
 10
-143.416571
 20
-218.834088
 30
0.0
 11
-141.74287
 21
-223.100084
 31
0.0
  0
ARC
  5
EB
100
AcDbEntity
  8
1
100
AcDbCircle
 10
-136.434695
 20
-216.094852
 30
0.0
 40
7.5
100
AcDbArc
 50
135.0
 51
201.421822
  0
ARC
  5
EC
100
AcDbEntity
  8
1
100
AcDbCircle
 10
-132.899161
 20
-219.630386
 30
0.0
 40
9.5
100
AcDbArc
 50
201.421822
 51
215.449428
  0
ARC
  5
ED
100
AcDbEntity
  8
1
100
AcDbCircle
 10
-143.896636
 20
-227.460172
 30
0.0
 40
4.0
100
AcDbArc
 50
0.0
 51
35.449428
  0
ARC
  5
EE
100
AcDbEntity
  8
1
100
AcDbCircle
 10
-143.896636
 20
-227.766798
 30
0.0
 40
4.0
100
AcDbArc
 50
285.0
 51
360.0
  0
LINE
  5
EF
100
AcDbEntity
  8
1
100
AcDbLine
 10
-221.3767
 20
-218.834088
 30
0.0
 11
-223.050401
 21
-223.100084
 31
0.0
  0
ARC
  5
F0
100
AcDbEntity
  8
1
100
AcDbCircle
 10
-228.358576
 20
-216.094852
 30
0.0
 40
7.5
100
AcDbArc
 50
338.578178
 51
45.0
  0
ARC
  5
F1
100
AcDbEntity
  8
1
100
AcDbCircle
 10
-231.89411
 20
-219.630386
 30
0.0
 40
9.5
100
AcDbArc
 50
324.550572
 51
338.578178
  0
ARC
  5
F2
100
AcDbEntity
  8
1
100
AcDbCircle
 10
-220.896636
 20
-227.460172
 30
0.0
 40
4.0
100
AcDbArc
 50
144.550572
 51
180.0
  0
ARC
  5
F3
100
AcDbEntity
  8
1
100
AcDbCircle
 10
-220.896636
 20
-227.766798
 30
0.0
 40
4.0
100
AcDbArc
 50
180.0
 51
255.0
  0
ARC
  5
F4
100
AcDbEntity
  8
1
100
AcDbCircle
 10
-160.396636
 20
-239.434893
 30
0.0
 40
3.0
100
AcDbArc
 50
105.0
 51
180.0
  0
ARC
  5
F5
100
AcDbEntity
  8
1
100
AcDbCircle
 10
-204.396636
 20
-239.434893
 30
0.0
 40
3.0
100
AcDbArc
 50
0.0
 51
75.0
  0
LINE
  5
F6
100
AcDbEntity
  8
1
  6
CENTER
 62
     2
100
AcDbLine
 10
-195.396636
 20
-233.112757
 30
0.0
 11
-195.396636
 21
-252.115213
 31
0.0
  0
LINE
  5
F7
100
AcDbEntity
  8
1
  6
CENTER
 62
     2
100
AcDbLine
 10
-169.396636
 20
-233.112757
 30
0.0
 11
-169.396636
 21
-252.115213
 31
0.0
  0
ARC
  5
F8
100
AcDbEntity
  8
1
100
AcDbCircle
 10
-161.200483
 20
-239.650283
 30
0.0
 40
3.0
100
AcDbArc
 50
105.0
 51
180.0
  0
LINE
  5
F9
100
AcDbEntity
  8
1
100
AcDbLine
 10
-163.396636
 20
-242.532912
 30
0.0
 11
-163.396636
 21
-239.434893
 31
0.0
  0
LINE
  5
FA
100
AcDbEntity
  8
1
100
AcDbLine
 10
-163.396636
 20
-234.132912
 30
0.0
 11
-163.396636
 21
-227.84123
 31
0.0
  0
ARC
  5
FB
100
AcDbEntity
  8
1
100
AcDbCircle
 10
-203.592788
 20
-239.650283
 30
0.0
 40
3.0
100
AcDbArc
 50
360.0
 51
75.0
  0
LINE
  5
FC
100
AcDbEntity
  8
1
100
AcDbLine
 10
-201.396636
 20
-242.532912
 30
0.0
 11
-201.396636
 21
-239.434893
 31
0.0
  0
LINE
  5
FD
100
AcDbEntity
  8
1
100
AcDbLine
 10
-201.396636
 20
-234.132912
 30
0.0
 11
-201.396636
 21
-227.84123
 31
0.0
  0
LINE
  5
FE
100
AcDbEntity
  8
1
100
AcDbLine
 10
-201.396636
 20
-240.932912
 30
0.0
 11
-163.396636
 21
-240.932912
 31
0.0
  0
LINE
  5
FF
100
AcDbEntity
  8
1
100
AcDbLine
 10
-201.496636
 20
-242.532912
 30
0.0
 11
-163.296636
 21
-242.532912
 31
0.0
  0
LINE
  5
100
100
AcDbEntity
  8
1
100
AcDbLine
 10
96.153364
 20
-27.132912
 30
0.0
 11
96.153364
 21
-19.132912
 31
0.0
  0
LINE
  5
101
100
AcDbEntity
  8
1
100
AcDbLine
 10
26.153364
 20
-27.132912
 30
0.0
 11
26.153364
 21
-19.132912
 31
0.0
  0
LINE
  5
102
100
AcDbEntity
  8
1
100
AcDbLine
 10
30.153364
 20
-31.132912
 30
0.0
 11
92.153364
 21
-31.132912
 31
0.0
  0
ARC
  5
103
100
AcDbEntity
  8
1
100
AcDbCircle
 10
92.153364
 20
-27.132912
 30
0.0
 40
4.0
100
AcDbArc
 50
270.0
 51
360.0
  0
ARC
  5
104
100
AcDbEntity
  8
1
100
AcDbCircle
 10
30.153364
 20
-27.132912
 30
0.0
 40
4.0
100
AcDbArc
 50
180.0
 51
270.0
  0
LINE
  5
105
100
AcDbEntity
  8
1
100
AcDbLine
 10
46.153364
 20
-110.656403
 30
0.0
 11
46.153364
 21
-36.132912
 31
0.0
  0
LINE
  5
106
100
AcDbEntity
  8
1
100
AcDbLine
 10
76.153364
 20
-110.656403
 30
0.0
 11
76.153364
 21
-36.132912
 31
0.0
  0
ARC
  5
107
100
AcDbEntity
  8
1
100
AcDbCircle
 10
81.153364
 20
-36.132912
 30
0.0
 40
5.0
100
AcDbArc
 50
90.0
 51
180.0
  0
ARC
  5
108
100
AcDbEntity
  8
1
100
AcDbCircle
 10
41.153364
 20
-36.132912
 30
0.0
 40
5.0
100
AcDbArc
 50
0.0
 51
90.0
  0
ARC
  5
109
100
AcDbEntity
  8
1
100
AcDbCircle
 10
94.153364
 20
-49.041814
 30
0.0
 40
18.0
100
AcDbArc
 50
95.215909
 51
180.0
  0
ARC
  5
10A
100
AcDbEntity
  8
1
100
AcDbCircle
 10
28.153364
 20
-49.041814
 30
0.0
 40
18.0
100
AcDbArc
 50
0.0
 51
84.784091
  0
LINE
  5
10B
100
AcDbEntity
  8
1
100
AcDbLine
 10
64.153364
 20
-49.041814
 30
0.0
 11
58.153364
 21
-49.041814
 31
0.0
  0
LINE
  5
10C
100
AcDbEntity
  8
1
100
AcDbLine
 10
58.153364
 20
-47.041814
 30
0.0
 11
58.153364
 21
-33.132912
 31
0.0
  0
LINE
  5
10D
100
AcDbEntity
  8
1
100
AcDbLine
 10
64.153364
 20
-47.041814
 30
0.0
 11
64.153364
 21
-33.132912
 31
0.0
  0
ARC
  5
10E
100
AcDbEntity
  8
1
100
AcDbCircle
 10
66.153364
 20
-33.132912
 30
0.0
 40
2.0
100
AcDbArc
 50
90.0
 51
180.0
  0
ARC
  5
10F
100
AcDbEntity
  8
1
100
AcDbCircle
 10
56.153364
 20
-33.132912
 30
0.0
 40
2.0
100
AcDbArc
 50
0.0
 51
90.0
  0
ARC
  5
110
100
AcDbEntity
  8
1
100
AcDbCircle
 10
56.153364
 20
-47.041814
 30
0.0
 40
2.0
100
AcDbArc
 50
270.0
 51
360.0
  0
ARC
  5
111
100
AcDbEntity
  8
1
100
AcDbCircle
 10
66.153364
 20
-47.041814
 30
0.0
 40
2.0
100
AcDbArc
 50
180.0
 51
270.0
  0
ARC
  5
112
100
AcDbEntity
  8
1
100
AcDbCircle
 10
81.153364
 20
-107.632912
 30
0.0
 40
5.0
100
AcDbArc
 50
180.0
 51
270.0
  0
ARC
  5
113
100
AcDbEntity
  8
1
100
AcDbCircle
 10
41.153364
 20
-107.632912
 30
0.0
 40
5.0
100
AcDbArc
 50
270.0
 51
0.0
  0
LINE
  5
114
100
AcDbEntity
  8
1
100
AcDbLine
 10
83.153364
 20
-112.632912
 30
0.0
 11
83.153364
 21
-227.632912
 31
0.0
  0
LINE
  5
115
100
AcDbEntity
  8
1
100
AcDbLine
 10
39.153364
 20
-112.632912
 30
0.0
 11
39.153364
 21
-227.632912
 31
0.0
  0
LINE
  5
116
100
AcDbEntity
  8
1
100
AcDbLine
 10
38.153364
 20
-226.632912
 30
0.0
 11
38.153364
 21
-113.632912
 31
0.0
  0
LINE
  5
117
100
AcDbEntity
  8
1
100
AcDbLine
 10
84.153364
 20
-226.632912
 30
0.0
 11
84.153364
 21
-113.632912
 31
0.0
  0
LINE
  5
118
100
AcDbEntity
  8
1
100
AcDbLine
 10
39.153364
 20
-112.632912
 30
0.0
 11
38.153364
 21
-113.632912
 31
0.0
  0
LINE
  5
119
100
AcDbEntity
  8
1
100
AcDbLine
 10
84.153364
 20
-113.632912
 30
0.0
 11
83.153364
 21
-112.632912
 31
0.0
  0
LINE
  5
11A
100
AcDbEntity
  8
1
100
AcDbLine
 10
84.153364
 20
-226.632912
 30
0.0
 11
83.153364
 21
-227.632912
 31
0.0
  0
LINE
  5
11B
100
AcDbEntity
  8
1
100
AcDbLine
 10
39.153364
 20
-227.632912
 30
0.0
 11
38.153364
 21
-226.632912
 31
0.0
  0
ARC
  5
11C
100
AcDbEntity
  8
1
100
AcDbCircle
 10
81.153364
 20
-110.656403
 30
0.0
 40
5.0
100
AcDbArc
 50
180.0
 51
270.0
  0
ARC
  5
11D
100
AcDbEntity
  8
1
100
AcDbCircle
 10
41.153364
 20
-110.656403
 30
0.0
 40
5.0
100
AcDbArc
 50
270.0
 51
360.0
  0
LINE
  5
11E
100
AcDbEntity
  8
1
100
AcDbLine
 10
39.153364
 20
-112.632912
 30
0.0
 11
41.153364
 21
-112.632912
 31
0.0
  0
LINE
  5
11F
100
AcDbEntity
  8
1
100
AcDbLine
 10
81.153364
 20
-112.632912
 30
0.0
 11
83.153364
 21
-112.632912
 31
0.0
  0
LINE
  5
120
100
AcDbEntity
  8
1
100
AcDbLine
 10
48.153364
 20
-240.132912
 30
0.0
 11
74.153364
 21
-240.132912
 31
0.0
  0
LINE
  5
121
100
AcDbEntity
  8
1
100
AcDbLine
 10
48.153364
 20
-242.532912
 30
0.0
 11
48.153364
 21
-227.224565
 31
0.0
  0
LINE
  5
122
100
AcDbEntity
  8
1
100
AcDbLine
 10
74.153364
 20
-242.532912
 30
0.0
 11
74.153364
 21
-227.224565
 31
0.0
  0
ARC
  5
123
100
AcDbEntity
  8
1
100
AcDbCircle
 10
78.153364
 20
-231.632912
 30
0.0
 40
4.0
100
AcDbArc
 50
90.0
 51
180.0
  0
ARC
  5
124
100
AcDbEntity
  8
1
100
AcDbCircle
 10
44.153364
 20
-231.632912
 30
0.0
 40
4.0
100
AcDbArc
 50
0.0
 51
90.0
  0
ARC
  5
125
100
AcDbEntity
  8
1
100
AcDbCircle
 10
78.153364
 20
-227.224565
 30
0.0
 40
4.0
100
AcDbArc
 50
90.0
 51
180.0
  0
ARC
  5
126
100
AcDbEntity
  8
1
100
AcDbCircle
 10
44.153364
 20
-227.224565
 30
0.0
 40
4.0
100
AcDbArc
 50
0.0
 51
90.0
  0
LINE
  5
127
100
AcDbEntity
  8
1
100
AcDbLine
 10
39.153364
 20
-227.632912
 30
0.0
 11
44.153364
 21
-227.632912
 31
0.0
  0
LINE
  5
128
100
AcDbEntity
  8
1
100
AcDbLine
 10
78.153364
 20
-227.632912
 30
0.0
 11
83.153364
 21
-227.632912
 31
0.0
  0
LINE
  5
129
100
AcDbEntity
  8
1
100
AcDbLine
 10
48.153364
 20
-240.932912
 30
0.0
 11
74.153364
 21
-240.932912
 31
0.0
  0
LINE
  5
12A
100
AcDbEntity
  8
1
100
AcDbLine
 10
48.153364
 20
-242.532912
 30
0.0
 11
74.153364
 21
-242.532912
 31
0.0
  0
LINE
  5
12B
100
AcDbEntity
  8
1
100
AcDbLine
 10
49.653364
 20
-202.132912
 30
0.0
 11
49.653364
 21
-138.132912
 31
0.0
  0
LINE
  5
12C
100
AcDbEntity
  8
1
100
AcDbLine
 10
72.653364
 20
-202.132912
 30
0.0
 11
72.653364
 21
-138.132912
 31
0.0
  0
LINE
  5
12D
100
AcDbEntity
  8
1
100
AcDbLine
 10
55.653364
 20
-132.132912
 30
0.0
 11
66.653364
 21
-132.132912
 31
0.0
  0
LINE
  5
12E
100
AcDbEntity
  8
1
100
AcDbLine
 10
55.653364
 20
-208.132912
 30
0.0
 11
66.653364
 21
-208.132912
 31
0.0
  0
ARC
  5
12F
100
AcDbEntity
  8
1
100
AcDbCircle
 10
55.653364
 20
-138.132912
 30
0.0
 40
6.0
100
AcDbArc
 50
90.0
 51
180.0
  0
ARC
  5
130
100
AcDbEntity
  8
1
100
AcDbCircle
 10
66.653364
 20
-138.132912
 30
0.0
 40
6.0
100
AcDbArc
 50
0.0
 51
90.0
  0
ARC
  5
131
100
AcDbEntity
  8
1
100
AcDbCircle
 10
55.653364
 20
-202.132912
 30
0.0
 40
6.0
100
AcDbArc
 50
180.0
 51
270.0
  0
ARC
  5
132
100
AcDbEntity
  8
1
100
AcDbCircle
 10
66.653364
 20
-202.132912
 30
0.0
 40
6.0
100
AcDbArc
 50
270.0
 51
360.0
  0
LINE
  5
133
100
AcDbEntity
  8
1
100
AcDbLine
 10
58.153364
 20
-211.132912
 30
0.0
 11
64.153364
 21
-211.132912
 31
0.0
  0
LINE
  5
134
100
AcDbEntity
  8
1
100
AcDbLine
 10
58.153364
 20
-82.123203
 30
0.0
 11
64.153364
 21
-82.123203
 31
0.0
  0
LINE
  5
135
100
AcDbEntity
  8
1
100
AcDbLine
 10
58.153364
 20
-126.632912
 30
0.0
 11
58.153364
 21
-85.123203
 31
0.0
  0
LINE
  5
136
100
AcDbEntity
  8
1
100
AcDbLine
 10
64.153364
 20
-126.632912
 30
0.0
 11
64.153364
 21
-85.123203
 31
0.0
  0
ARC
  5
137
100
AcDbEntity
  8
1
100
AcDbCircle
 10
55.153364
 20
-85.123203
 30
0.0
 40
3.0
100
AcDbArc
 50
0.0
 51
90.0
  0
ARC
  5
138
100
AcDbEntity
  8
1
100
AcDbCircle
 10
67.153364
 20
-85.123203
 30
0.0
 40
3.0
100
AcDbArc
 50
90.0
 51
180.0
  0
LINE
  5
139
100
AcDbEntity
  8
1
100
AcDbLine
 10
58.153364
 20
-129.132912
 30
0.0
 11
64.153364
 21
-129.132912
 31
0.0
  0
LINE
  5
13A
100
AcDbEntity
  8
1
100
AcDbLine
 10
49.653364
 20
-114.156403
 30
0.0
 11
49.653364
 21
-123.132912
 31
0.0
  0
LINE
  5
13B
100
AcDbEntity
  8
1
100
AcDbLine
 10
72.653364
 20
-123.132912
 30
0.0
 11
72.653364
 21
-114.156403
 31
0.0
  0
ARC
  5
13C
100
AcDbEntity
  8
1
100
AcDbCircle
 10
66.653364
 20
-123.132912
 30
0.0
 40
6.0
100
AcDbArc
 50
270.0
 51
360.0
  0
ARC
  5
13D
100
AcDbEntity
  8
1
100
AcDbCircle
 10
55.653364
 20
-123.132912
 30
0.0
 40
6.0
100
AcDbArc
 50
180.0
 51
270.0
  0
ARC
  5
13E
100
AcDbEntity
  8
1
100
AcDbCircle
 10
66.653364
 20
-126.632912
 30
0.0
 40
2.5
100
AcDbArc
 50
180.0
 51
270.0
  0
ARC
  5
13F
100
AcDbEntity
  8
1
100
AcDbCircle
 10
55.653364
 20
-126.632912
 30
0.0
 40
2.5
100
AcDbArc
 50
270.0
 51
360.0
  0
LINE
  5
140
100
AcDbEntity
  8
1
100
AcDbLine
 10
60.153364
 20
-103.432294
 30
0.0
 11
62.153364
 21
-103.432294
 31
0.0
  0
LINE
  5
141
100
AcDbEntity
  8
1
100
AcDbLine
 10
60.153364
 20
-110.156189
 30
0.0
 11
62.153364
 21
-110.156189
 31
0.0
  0
ARC
  5
142
100
AcDbEntity
  8
1
100
AcDbCircle
 10
62.153364
 20
-105.432294
 30
0.0
 40
2.0
100
AcDbArc
 50
0.0
 51
90.0
  0
ARC
  5
143
100
AcDbEntity
  8
1
100
AcDbCircle
 10
60.153364
 20
-105.432294
 30
0.0
 40
2.0
100
AcDbArc
 50
90.0
 51
180.0
  0
ARC
  5
144
100
AcDbEntity
  8
1
100
AcDbCircle
 10
60.153364
 20
-108.156189
 30
0.0
 40
2.0
100
AcDbArc
 50
180.0
 51
270.0
  0
ARC
  5
145
100
AcDbEntity
  8
1
100
AcDbCircle
 10
62.153364
 20
-108.156189
 30
0.0
 40
2.0
100
AcDbArc
 50
270.0
 51
0.0
  0
ARC
  5
146
100
AcDbEntity
  8
1
100
AcDbCircle
 10
76.153364
 20
-114.156403
 30
0.0
 40
3.5
100
AcDbArc
 50
90.0
 51
180.0
  0
ARC
  5
147
100
AcDbEntity
  8
1
100
AcDbCircle
 10
46.153364
 20
-114.156403
 30
0.0
 40
3.5
100
AcDbArc
 50
0.0
 51
90.0
  0
LINE
  5
148
100
AcDbEntity
  8
1
100
AcDbLine
 10
49.653364
 20
-225.724565
 30
0.0
 11
49.653364
 21
-217.132912
 31
0.0
  0
LINE
  5
149
100
AcDbEntity
  8
1
100
AcDbLine
 10
72.653364
 20
-225.724565
 30
0.0
 11
72.653364
 21
-217.132912
 31
0.0
  0
ARC
  5
14A
100
AcDbEntity
  8
1
100
AcDbCircle
 10
66.653364
 20
-217.132912
 30
0.0
 40
6.0
100
AcDbArc
 50
0.0
 51
90.0
  0
ARC
  5
14B
100
AcDbEntity
  8
1
100
AcDbCircle
 10
55.653364
 20
-217.132912
 30
0.0
 40
6.0
100
AcDbArc
 50
90.0
 51
180.0
  0
ARC
  5
14C
100
AcDbEntity
  8
1
100
AcDbCircle
 10
74.153364
 20
-225.724565
 30
0.0
 40
1.5
100
AcDbArc
 50
180.0
 51
270.0
  0
ARC
  5
14D
100
AcDbEntity
  8
1
100
AcDbCircle
 10
48.153364
 20
-225.724565
 30
0.0
 40
1.5
100
AcDbArc
 50
270.0
 51
360.0
  0
LINE
  5
14E
100
AcDbEntity
  8
1
100
AcDbLine
 10
64.153364
 20
-236.650283
 30
0.0
 11
64.153364
 21
-213.632912
 31
0.0
  0
LINE
  5
14F
100
AcDbEntity
  8
1
100
AcDbLine
 10
58.153364
 20
-236.650283
 30
0.0
 11
58.153364
 21
-213.632912
 31
0.0
  0
ARC
  5
150
100
AcDbEntity
  8
1
100
AcDbCircle
 10
66.653364
 20
-213.632912
 30
0.0
 40
2.5
100
AcDbArc
 50
90.0
 51
180.0
  0
ARC
  5
151
100
AcDbEntity
  8
1
100
AcDbCircle
 10
55.653364
 20
-213.632912
 30
0.0
 40
2.5
100
AcDbArc
 50
0.0
 51
90.0
  0
ARC
  5
152
100
AcDbEntity
  8
1
100
AcDbCircle
 10
66.653364
 20
-213.917412
 30
0.0
 40
2.7845
100
AcDbArc
 50
0.0
 51
90.0
  0
ARC
  5
153
100
AcDbEntity
  8
1
100
AcDbCircle
 10
55.653364
 20
-213.917412
 30
0.0
 40
2.7845
100
AcDbArc
 50
90.0
 51
180.0
  0
ARC
  5
154
100
AcDbEntity
  8
1
100
AcDbCircle
 10
67.153364
 20
-219.132912
 30
0.0
 40
3.0
100
AcDbArc
 50
90.0
 51
180.0
  0
ARC
  5
155
100
AcDbEntity
  8
1
100
AcDbCircle
 10
55.153364
 20
-219.132912
 30
0.0
 40
3.0
100
AcDbArc
 50
0.0
 51
90.0
  0
ARC
  5
156
100
AcDbEntity
  8
1
100
AcDbCircle
 10
67.222364
 20
-213.917412
 30
0.0
 40
2.2155
100
AcDbArc
 50
270.0
 51
360.0
  0
ARC
  5
157
100
AcDbEntity
  8
1
100
AcDbCircle
 10
55.084364
 20
-213.917412
 30
0.0
 40
2.2155
100
AcDbArc
 50
180.0
 51
270.0
  0
LINE
  5
158
100
AcDbEntity
  8
1
100
AcDbLine
 10
72.72769
 20
-226.190883
 30
0.0
 11
69.437864
 21
-216.132912
 31
0.0
  0
LINE
  5
159
100
AcDbEntity
  8
1
100
AcDbLine
 10
49.579039
 20
-226.190883
 30
0.0
 11
52.868864
 21
-216.132912
 31
0.0
  0
ARC
  5
15A
100
AcDbEntity
  8
1
100
AcDbCircle
 10
71.153364
 20
-234.132912
 30
0.0
 40
3.0
100
AcDbArc
 50
270.0
 51
360.0
  0
ARC
  5
15B
100
AcDbEntity
  8
1
100
AcDbCircle
 10
51.153364
 20
-234.132912
 30
0.0
 40
3.0
100
AcDbArc
 50
180.0
 51
270.0
  0
LINE
  5
15C
100
AcDbEntity
  8
1
100
AcDbLine
 10
51.153364
 20
-237.132912
 30
0.0
 11
55.153364
 21
-237.132912
 31
0.0
  0
LINE
  5
15D
100
AcDbEntity
  8
1
100
AcDbLine
 10
67.153364
 20
-237.132912
 30
0.0
 11
71.153364
 21
-237.132912
 31
0.0
  0
LINE
  5
15E
100
AcDbEntity
  8
1
100
AcDbLine
 10
58.153364
 20
-239.650283
 30
0.0
 11
64.153364
 21
-239.650283
 31
0.0
  0
ARC
  5
15F
100
AcDbEntity
  8
1
100
AcDbCircle
 10
67.153364
 20
-236.650283
 30
0.0
 40
3.0
100
AcDbArc
 50
180.0
 51
270.0
  0
ARC
  5
160
100
AcDbEntity
  8
1
100
AcDbCircle
 10
55.153364
 20
-236.650283
 30
0.0
 40
3.0
100
AcDbArc
 50
270.0
 51
360.0
  0
ARC
  5
161
100
AcDbEntity
  8
1
100
AcDbCircle
 10
67.153364
 20
-234.132912
 30
0.0
 40
3.0
100
AcDbArc
 50
180.0
 51
270.0
  0
ARC
  5
162
100
AcDbEntity
  8
1
100
AcDbCircle
 10
55.153364
 20
-234.132912
 30
0.0
 40
3.0
100
AcDbArc
 50
270.0
 51
360.0
  0
LINE
  5
163
100
AcDbEntity
  8
1
100
AcDbLine
 10
60.153364
 20
-231.630501
 30
0.0
 11
62.153364
 21
-231.630501
 31
0.0
  0
ARC
  5
164
100
AcDbEntity
  8
1
100
AcDbCircle
 10
62.153364
 20
-229.630501
 30
0.0
 40
2.0
100
AcDbArc
 50
270.0
 51
360.0
  0
ARC
  5
165
100
AcDbEntity
  8
1
100
AcDbCircle
 10
60.153364
 20
-229.630501
 30
0.0
 40
2.0
100
AcDbArc
 50
180.0
 51
270.0
  0
CIRCLE
  5
166
100
AcDbEntity
  8
1
100
AcDbCircle
 10
-182.396636
 20
-170.132912
 30
0.0
 40
56.5
  0
LINE
  5
167
100
AcDbEntity
  8
1
  6
CENTER
 62
     2
100
AcDbLine
 10
-157.646636
 20
-11.104807
 30
0.0
 11
-157.646636
 21
-40.260036
 31
0.0
  0
LINE
  5
168
100
AcDbEntity
  8
1
  6
CENTER
 62
     2
100
AcDbLine
 10
-207.146636
 20
-11.104807
 30
0.0
 11
-207.146636
 21
-40.260036
 31
0.0
  0
LINE
  5
169
100
AcDbEntity
  8
1
  6
CENTER
 62
     2
100
AcDbLine
 10
85.903364
 20
-11.104807
 30
0.0
 11
85.903364
 21
-40.260036
 31
0.0
  0
LINE
  5
16A
100
AcDbEntity
  8
1
  6
CENTER
 62
     2
100
AcDbLine
 10
36.403364
 20
-11.104807
 30
0.0
 11
36.403364
 21
-40.260036
 31
0.0
  0
LINE
  5
16B
100
AcDbEntity
  8
1
100
AcDbLine
 10
-130.396636
 20
196.017088
 30
0.0
 11
-130.396636
 21
198.017088
 31
0.0
  0
ARC
  5
16C
100
AcDbEntity
  8
1
100
AcDbCircle
 10
-132.396636
 20
198.017088
 30
0.0
 40
2.0
100
AcDbArc
 50
0.0
 51
90.0
  0
ARC
  5
16D
100
AcDbEntity
  8
1
100
AcDbCircle
 10
-132.396636
 20
196.017088
 30
0.0
 40
2.0
100
AcDbArc
 50
270.0
 51
360.0
  0
LINE
  5
16E
100
AcDbEntity
  8
1
100
AcDbLine
 10
-234.396636
 20
196.017088
 30
0.0
 11
-234.396636
 21
198.017088
 31
0.0
  0
ARC
  5
16F
100
AcDbEntity
  8
1
100
AcDbCircle
 10
-232.396636
 20
198.017088
 30
0.0
 40
2.0
100
AcDbArc
 50
90.0
 51
180.0
  0
ARC
  5
170
100
AcDbEntity
  8
1
100
AcDbCircle
 10
-232.396636
 20
196.017088
 30
0.0
 40
2.0
100
AcDbArc
 50
180.0
 51
270.0
  0
CIRCLE
  5
171
100
AcDbEntity
  8
1
100
AcDbCircle
 10
-182.396636
 20
-170.132912
 30
0.0
 40
34.5
  0
CIRCLE
  5
172
100
AcDbEntity
  8
1
100
AcDbCircle
 10
-182.396636
 20
-170.132912
 30
0.0
 40
38.5
  0
CIRCLE
  5
173
100
AcDbEntity
  8
1
100
AcDbCircle
 10
-182.396636
 20
-170.132912
 30
0.0
 40
48.55
  0
CIRCLE
  5
174
100
AcDbEntity
  8
1
100
AcDbCircle
 10
-182.396636
 20
-170.132912
 30
0.0
 40
50.5
  0
LINE
  5
175
100
AcDbEntity
  8
1
  6
DASHED
100
AcDbLine
 10
-227.896636
 20
205.301588
 30
0.0
 11
-226.235681
 21
205.301588
 31
0.0
  0
LINE
  5
176
100
AcDbEntity
  8
1
  6
DASHED
100
AcDbLine
 10
-138.55759
 20
205.301588
 30
0.0
 11
-136.896636
 21
205.301588
 31
0.0
  0
LINE
  5
177
100
AcDbEntity
  8
1
  6
DASHED
100
AcDbLine
 10
-138.55759
 20
188.732588
 30
0.0
 11
-136.896636
 21
188.732588
 31
0.0
  0
LINE
  5
178
100
AcDbEntity
  8
1
  6
DASHED
100
AcDbLine
 10
-227.896636
 20
188.732588
 30
0.0
 11
-226.235681
 21
188.732588
 31
0.0
  0
LINE
  5
179
100
AcDbEntity
  8
1
  6
DASHED
100
AcDbLine
 10
-227.896636
 20
201.465063
 30
0.0
 11
-227.896636
 21
200.017088
 31
0.0
  0
LINE
  5
17A
100
AcDbEntity
  8
1
100
AcDbLine
 10
-133.846636
 20
221.142088
 30
0.0
 11
-138.601837
 21
221.142088
 31
0.0
  0
LINE
  5
17B
100
AcDbEntity
  8
1
  6
DASHED
100
AcDbLine
 10
-138.601837
 20
221.142088
 30
0.0
 11
-147.396636
 21
221.142088
 31
0.0
  0
LINE
  5
17C
100
AcDbEntity
  8
1
  6
DASHED
100
AcDbLine
 10
-147.396636
 20
220.017088
 30
0.0
 11
-138.00069
 21
220.017088
 31
0.0
  0
LINE
  5
17D
100
AcDbEntity
  8
1
100
AcDbLine
 10
-138.00069
 20
220.017088
 30
0.0
 11
-125.896636
 21
220.017088
 31
0.0
  0
LINE
  5
17E
100
AcDbEntity
  8
1
100
AcDbLine
 10
-124.896636
 20
219.017088
 30
0.0
 11
-137.496747
 21
219.017088
 31
0.0
  0
LINE
  5
17F
100
AcDbEntity
  8
1
  6
DASHED
100
AcDbLine
 10
-137.496747
 20
219.017088
 30
0.0
 11
-147.396636
 21
219.017088
 31
0.0
  0
ARC
  5
180
100
AcDbEntity
  8
1
100
AcDbCircle
 10
-133.242841
 20
202.517088
 30
0.0
 40
6.0
100
AcDbArc
 50
90.0
 51
94.679964
  0
ARC
  5
181
100
AcDbEntity
  8
1
  6
DASHED
100
AcDbCircle
 10
-133.242841
 20
202.517088
 30
0.0
 40
6.0
100
AcDbArc
 50
94.679964
 51
180.0
  0
ARC
  5
182
100
AcDbEntity
  8
1
100
AcDbCircle
 10
-131.896636
 20
201.465063
 30
0.0
 40
5.0
100
AcDbArc
 50
105.0
 51
105.838217
  0
ARC
  5
183
100
AcDbEntity
  8
1
  6
DASHED
100
AcDbCircle
 10
-131.896636
 20
201.465063
 30
0.0
 40
5.0
100
AcDbArc
 50
105.838217
 51
180.0
  0
LINE
  5
184
100
AcDbEntity
  8
1
  6
DASHED
100
AcDbLine
 10
-147.396636
 20
200.017088
 30
0.0
 11
-132.486717
 21
200.017088
 31
0.0
  0
LINE
  5
185
100
AcDbEntity
  8
1
100
AcDbLine
 10
-132.486717
 20
200.017088
 30
0.0
 11
-132.396636
 21
200.017088
 31
0.0
  0
LINE
  5
186
100
AcDbEntity
  8
1
  6
DASHED
100
AcDbLine
 10
-147.396636
 20
194.017088
 30
0.0
 11
-132.486717
 21
194.017088
 31
0.0
  0
LINE
  5
187
100
AcDbEntity
  8
1
100
AcDbLine
 10
-132.486717
 20
194.017088
 30
0.0
 11
-132.396636
 21
194.017088
 31
0.0
  0
LINE
  5
188
100
AcDbEntity
  8
1
100
AcDbLine
 10
-124.896636
 20
175.017088
 30
0.0
 11
-137.496747
 21
175.017088
 31
0.0
  0
LINE
  5
189
100
AcDbEntity
  8
1
  6
DASHED
100
AcDbLine
 10
-137.496747
 20
175.017088
 30
0.0
 11
-147.396636
 21
175.017088
 31
0.0
  0
LINE
  5
18A
100
AcDbEntity
  8
1
  6
DASHED
100
AcDbLine
 10
-147.396636
 20
174.017088
 30
0.0
 11
-138.00069
 21
174.017088
 31
0.0
  0
LINE
  5
18B
100
AcDbEntity
  8
1
100
AcDbLine
 10
-138.00069
 20
174.017088
 30
0.0
 11
-125.896636
 21
174.017088
 31
0.0
  0
LINE
  5
18C
100
AcDbEntity
  8
1
100
AcDbLine
 10
-133.846636
 20
172.892088
 30
0.0
 11
-138.601837
 21
172.892088
 31
0.0
  0
LINE
  5
18D
100
AcDbEntity
  8
1
  6
DASHED
100
AcDbLine
 10
-138.601837
 20
172.892088
 30
0.0
 11
-147.396636
 21
172.892088
 31
0.0
  0
ARC
  5
18E
100
AcDbEntity
  8
1
  6
DASHED
100
AcDbCircle
 10
-133.242841
 20
191.517088
 30
0.0
 40
6.0
100
AcDbArc
 50
180.0
 51
265.320036
  0
ARC
  5
18F
100
AcDbEntity
  8
1
100
AcDbCircle
 10
-133.242841
 20
191.517088
 30
0.0
 40
6.0
100
AcDbArc
 50
265.320036
 51
270.0
  0
ARC
  5
190
100
AcDbEntity
  8
1
  6
DASHED
100
AcDbCircle
 10
-131.896636
 20
192.569114
 30
0.0
 40
5.0
100
AcDbArc
 50
180.0
 51
254.161783
  0
ARC
  5
191
100
AcDbEntity
  8
1
100
AcDbCircle
 10
-131.896636
 20
192.569114
 30
0.0
 40
5.0
100
AcDbArc
 50
254.161783
 51
255.0
  0
LINE
  5
192
100
AcDbEntity
  8
1
100
AcDbLine
 10
-230.946636
 20
221.142088
 30
0.0
 11
-226.191434
 21
221.142088
 31
0.0
  0
LINE
  5
193
100
AcDbEntity
  8
1
  6
DASHED
100
AcDbLine
 10
-226.191434
 20
221.142088
 30
0.0
 11
-217.396636
 21
221.142088
 31
0.0
  0
LINE
  5
194
100
AcDbEntity
  8
1
  6
DASHED
100
AcDbLine
 10
-217.396636
 20
220.017088
 30
0.0
 11
-226.792581
 21
220.017088
 31
0.0
  0
LINE
  5
195
100
AcDbEntity
  8
1
100
AcDbLine
 10
-226.792581
 20
220.017088
 30
0.0
 11
-238.896636
 21
220.017088
 31
0.0
  0
LINE
  5
196
100
AcDbEntity
  8
1
100
AcDbLine
 10
-239.896636
 20
219.017088
 30
0.0
 11
-227.296524
 21
219.017088
 31
0.0
  0
LINE
  5
197
100
AcDbEntity
  8
1
  6
DASHED
100
AcDbLine
 10
-227.296524
 20
219.017088
 30
0.0
 11
-217.396636
 21
219.017088
 31
0.0
  0
ARC
  5
198
100
AcDbEntity
  8
1
  6
DASHED
100
AcDbCircle
 10
-231.55043
 20
202.517088
 30
0.0
 40
6.0
100
AcDbArc
 50
0.0
 51
85.320036
  0
ARC
  5
199
100
AcDbEntity
  8
1
100
AcDbCircle
 10
-231.55043
 20
202.517088
 30
0.0
 40
6.0
100
AcDbArc
 50
85.320036
 51
90.0
  0
ARC
  5
19A
100
AcDbEntity
  8
1
  6
DASHED
100
AcDbCircle
 10
-232.896636
 20
201.465063
 30
0.0
 40
5.0
100
AcDbArc
 50
0.0
 51
74.161783
  0
ARC
  5
19B
100
AcDbEntity
  8
1
100
AcDbCircle
 10
-232.896636
 20
201.465063
 30
0.0
 40
5.0
100
AcDbArc
 50
74.161783
 51
75.0
  0
LINE
  5
19C
100
AcDbEntity
  8
1
100
AcDbLine
 10
-239.896636
 20
175.017088
 30
0.0
 11
-227.296524
 21
175.017088
 31
0.0
  0
LINE
  5
19D
100
AcDbEntity
  8
1
  6
DASHED
100
AcDbLine
 10
-227.296524
 20
175.017088
 30
0.0
 11
-217.396636
 21
175.017088
 31
0.0
  0
LINE
  5
19E
100
AcDbEntity
  8
1
  6
DASHED
100
AcDbLine
 10
-217.396636
 20
174.017088
 30
0.0
 11
-226.792581
 21
174.017088
 31
0.0
  0
LINE
  5
19F
100
AcDbEntity
  8
1
100
AcDbLine
 10
-226.792581
 20
174.017088
 30
0.0
 11
-238.896636
 21
174.017088
 31
0.0
  0
LINE
  5
1A0
100
AcDbEntity
  8
1
100
AcDbLine
 10
-230.946636
 20
172.892088
 30
0.0
 11
-226.191434
 21
172.892088
 31
0.0
  0
LINE
  5
1A1
100
AcDbEntity
  8
1
  6
DASHED
100
AcDbLine
 10
-226.191434
 20
172.892088
 30
0.0
 11
-217.396636
 21
172.892088
 31
0.0
  0
ARC
  5
1A2
100
AcDbEntity
  8
1
100
AcDbCircle
 10
-231.55043
 20
191.517088
 30
0.0
 40
6.0
100
AcDbArc
 50
270.0
 51
274.679964
  0
ARC
  5
1A3
100
AcDbEntity
  8
1
  6
DASHED
100
AcDbCircle
 10
-231.55043
 20
191.517088
 30
0.0
 40
6.0
100
AcDbArc
 50
274.679964
 51
360.0
  0
ARC
  5
1A4
100
AcDbEntity
  8
1
100
AcDbCircle
 10
-232.896636
 20
192.569114
 30
0.0
 40
5.0
100
AcDbArc
 50
285.0
 51
285.838217
  0
ARC
  5
1A5
100
AcDbEntity
  8
1
  6
DASHED
100
AcDbCircle
 10
-232.896636
 20
192.569114
 30
0.0
 40
5.0
100
AcDbArc
 50
285.838217
 51
360.0
  0
LINE
  5
1A6
100
AcDbEntity
  8
1
  6
DASHED
100
AcDbLine
 10
-217.396636
 20
200.017088
 30
0.0
 11
-232.306554
 21
200.017088
 31
0.0
  0
LINE
  5
1A7
100
AcDbEntity
  8
1
100
AcDbLine
 10
-232.306554
 20
200.017088
 30
0.0
 11
-232.396636
 21
200.017088
 31
0.0
  0
LINE
  5
1A8
100
AcDbEntity
  8
1
  6
DASHED
100
AcDbLine
 10
-217.396636
 20
194.017088
 30
0.0
 11
-232.306554
 21
194.017088
 31
0.0
  0
LINE
  5
1A9
100
AcDbEntity
  8
1
100
AcDbLine
 10
-232.306554
 20
194.017088
 30
0.0
 11
-232.396636
 21
194.017088
 31
0.0
  0
LINE
  5
1AA
100
AcDbEntity
  8
1
  6
CENTER
 62
     2
100
AcDbLine
 10
-110.072056
 20
197.017088
 30
0.0
 11
-254.516491
 21
197.017088
 31
0.0
  0
LINE
  5
1AB
100
AcDbEntity
  8
1
  6
CENTER
 62
     2
100
AcDbLine
 10
61.153364
 20
123.106453
 30
0.0
 11
61.153364
 21
-256.874313
 31
0.0
  0
LINE
  5
1AC
100
AcDbEntity
  8
1
  6
CENTER
 62
     2
100
AcDbLine
 10
-182.396636
 20
123.106453
 30
0.0
 11
-182.396636
 21
-256.874313
 31
0.0
  0
LINE
  5
1AD
100
AcDbEntity
  8
1
100
AcDbLine
 10
-185.940724
 20
-171.332912
 30
0.0
 11
-153.902902
 21
-171.332912
 31
0.0
  0
LINE
  5
1AE
100
AcDbEntity
  8
1
100
AcDbLine
 10
-185.940724
 20
-168.932912
 30
0.0
 11
-153.902902
 21
-168.932912
 31
0.0
  0
LINE
  5
1AF
100
AcDbEntity
  8
1
100
AcDbLine
 10
-178.99152
 20
-159.626449
 30
0.0
 11
-155.381304
 21
-161.692075
 31
0.0
  0
LINE
  5
1B0
100
AcDbEntity
  8
1
100
AcDbLine
 10
-174.110322
 20
-157.644331
 30
0.0
 11
-155.819604
 21
-159.244561
 31
0.0
  0
ARC
  5
1B1
100
AcDbEntity
  8
1
100
AcDbCircle
 10
-182.294274
 20
-170.132912
 30
0.0
 40
30.5
100
AcDbArc
 50
17.426809
 51
20.401612
  0
LINE
  5
1B2
100
AcDbEntity
  8
1
100
AcDbLine
 10
-190.610644
 20
-168.432912
 30
0.0
 11
-152.80258
 21
-168.432912
 31
0.0
  0
LINE
  5
1B3
100
AcDbEntity
  8
1
100
AcDbLine
 10
-190.610644
 20
-171.832912
 30
0.0
 11
-152.80258
 21
-171.832912
 31
0.0
  0
ARC
  5
1B4
100
AcDbEntity
  8
1
100
AcDbCircle
 10
-153.902902
 20
-169.432912
 30
0.0
 40
0.5
100
AcDbArc
 50
1.412363
 51
90.0
  0
ARC
  5
1B5
100
AcDbEntity
  8
1
100
AcDbCircle
 10
-153.902902
 20
-170.832912
 30
0.0
 40
0.5
100
AcDbArc
 50
270.0
 51
358.587637
  0
ARC
  5
1B6
100
AcDbEntity
  8
1
100
AcDbCircle
 10
-152.80258
 20
-169.432912
 30
0.0
 40
1.0
100
AcDbArc
 50
1.359688
 51
90.0
  0
ARC
  5
1B7
100
AcDbEntity
  8
1
100
AcDbCircle
 10
-152.80258
 20
-170.832912
 30
0.0
 40
1.0
100
AcDbArc
 50
270.0
 51
358.640312
  0
LINE
  5
1B8
100
AcDbEntity
  8
1
100
AcDbLine
 10
-153.419198
 20
-168.932912
 30
0.0
 11
-152.416727
 21
-168.615173
 31
0.0
  0
LINE
  5
1B9
100
AcDbEntity
  8
1
100
AcDbLine
 10
-153.419198
 20
-171.332912
 30
0.0
 11
-152.418544
 21
-171.650074
 31
0.0
  0
ARC
  5
1BA
100
AcDbEntity
  8
1
100
AcDbCircle
 10
-182.294274
 20
-170.132912
 30
0.0
 40
28.9
100
AcDbArc
 50
18.345794
 51
21.460147
  0
LINE
  5
1BB
100
AcDbEntity
  8
1
100
AcDbLine
 10
-184.642083
 20
-159.633999
 30
0.0
 11
-154.235471
 21
-162.294233
 31
0.0
  0
LINE
  5
1BC
100
AcDbEntity
  8
1
100
AcDbLine
 10
-169.49152
 20
-157.546514
 30
0.0
 11
-154.557589
 21
-158.853063
 31
0.0
  0
ARC
  5
1BD
100
AcDbEntity
  8
1
100
AcDbCircle
 10
-155.863181
 20
-159.742659
 30
0.0
 40
0.5
100
AcDbArc
 50
21.460147
 51
85.0
  0
ARC
  5
1BE
100
AcDbEntity
  8
1
100
AcDbCircle
 10
-155.337726
 20
-161.193978
 30
0.0
 40
0.5
100
AcDbArc
 50
265.0
 51
18.345794
  0
ARC
  5
1BF
100
AcDbEntity
  8
1
100
AcDbCircle
 10
-154.644745
 20
-159.849258
 30
0.0
 40
1.0
100
AcDbArc
 50
20.401612
 51
85.0
  0
ARC
  5
1C0
100
AcDbEntity
  8
1
100
AcDbCircle
 10
-154.148315
 20
-161.298038
 30
0.0
 40
1.0
100
AcDbArc
 50
265.0
 51
17.426809
  0
LINE
  5
1C1
100
AcDbEntity
  8
1
100
AcDbLine
 10
-154.527167
 20
-159.044048
 30
0.0
 11
-155.324684
 21
-159.227962
 31
0.0
  0
LINE
  5
1C2
100
AcDbEntity
  8
1
100
AcDbLine
 10
-154.782267
 20
-161.704388
 30
0.0
 11
-153.917199
 21
-162.014867
 31
0.0
  0
ARC
  5
1C3
100
AcDbEntity
  8
1
100
AcDbCircle
 10
-177.794274
 20
-161.236924
 30
0.0
 40
1.0
100
AcDbArc
 50
85.0
 51
180.0
  0
ARC
  5
1C4
100
AcDbEntity
  8
1
100
AcDbCircle
 10
-179.294274
 20
-161.105691
 30
0.0
 40
1.0
100
AcDbArc
 50
85.0
 51
180.0
  0
ARC
  5
1C5
100
AcDbEntity
  8
1
100
AcDbCircle
 10
-177.794274
 20
-167.432912
 30
0.0
 40
1.0
100
AcDbArc
 50
180.0
 51
270.0
  0
ARC
  5
1C6
100
AcDbEntity
  8
1
100
AcDbCircle
 10
-179.294274
 20
-167.432912
 30
0.0
 40
1.0
100
AcDbArc
 50
180.0
 51
270.0
  0
LINE
  5
1C7
100
AcDbEntity
  8
1
100
AcDbLine
 10
-178.794274
 20
-167.432912
 30
0.0
 11
-178.794274
 21
-161.236924
 31
0.0
  0
LINE
  5
1C8
100
AcDbEntity
  8
1
100
AcDbLine
 10
-180.294274
 20
-167.432912
 30
0.0
 11
-180.294274
 21
-161.105691
 31
0.0
  0
LINE
  5
1C9
100
AcDbEntity
  8
1
100
AcDbLine
 10
-178.99152
 20
-183.639374
 30
0.0
 11
-156.619705
 21
-181.682094
 31
0.0
  0
LINE
  5
1CA
100
AcDbEntity
  8
1
100
AcDbLine
 10
-174.110322
 20
-185.621492
 30
0.0
 11
-157.273959
 21
-184.148502
 31
0.0
  0
ARC
  5
1CB
100
AcDbEntity
  8
1
100
AcDbCircle
 10
-182.294274
 20
-170.132912
 30
0.0
 40
30.5
100
AcDbArc
 50
332.976403
 51
336.130855
  0
ARC
  5
1CC
100
AcDbEntity
  8
1
100
AcDbCircle
 10
-182.294274
 20
-170.132912
 30
0.0
 40
30.5
100
AcDbArc
 50
358.640312
 51
1.359688
  0
ARC
  5
1CD
100
AcDbEntity
  8
1
100
AcDbCircle
 10
-182.294274
 20
-170.132912
 30
0.0
 40
28.9
100
AcDbArc
 50
331.577602
 51
334.899964
  0
ARC
  5
1CE
100
AcDbEntity
  8
1
100
AcDbCircle
 10
-182.294274
 20
-170.132912
 30
0.0
 40
28.9
100
AcDbArc
 50
358.587637
 51
1.412363
  0
LINE
  5
1CF
100
AcDbEntity
  8
1
100
AcDbLine
 10
-184.642083
 20
-183.631825
 30
0.0
 11
-155.404506
 21
-181.073868
 31
0.0
  0
LINE
  5
1D0
100
AcDbEntity
  8
1
100
AcDbLine
 10
-169.49152
 20
-185.71931
 30
0.0
 11
-155.927944
 21
-184.53265
 31
0.0
  0
ARC
  5
1D1
100
AcDbEntity
  8
1
100
AcDbCircle
 10
-155.31735
 20
-182.070063
 30
0.0
 40
1.0
100
AcDbArc
 50
336.130855
 51
95.0
  0
ARC
  5
1D2
100
AcDbEntity
  8
1
100
AcDbCircle
 10
-156.015099
 20
-183.536456
 30
0.0
 40
1.0
100
AcDbArc
 50
275.0
 51
332.976403
  0
ARC
  5
1D3
100
AcDbEntity
  8
1
100
AcDbCircle
 10
-156.576128
 20
-182.180192
 30
0.0
 40
0.5
100
AcDbArc
 50
334.899964
 51
95.0
  0
ARC
  5
1D4
100
AcDbEntity
  8
1
100
AcDbCircle
 10
-157.317537
 20
-183.650404
 30
0.0
 40
0.5
100
AcDbArc
 50
275.0
 51
331.577602
  0
LINE
  5
1D5
100
AcDbEntity
  8
1
100
AcDbLine
 10
-156.63258
 20
-184.208127
 30
0.0
 11
-155.952798
 21
-184.358565
 31
0.0
  0
LINE
  5
1D6
100
AcDbEntity
  8
1
100
AcDbLine
 10
-155.919452
 20
-181.658334
 30
0.0
 11
-154.967078
 21
-181.33605
 31
0.0
  0
LINE
  5
1D7
100
AcDbEntity
  8
1
100
AcDbLine
 10
-180.294274
 20
-172.832912
 30
0.0
 11
-180.294274
 21
-182.160132
 31
0.0
  0
LINE
  5
1D8
100
AcDbEntity
  8
1
100
AcDbLine
 10
-178.794274
 20
-172.832912
 30
0.0
 11
-178.794274
 21
-182.028899
 31
0.0
  0
ARC
  5
1D9
100
AcDbEntity
  8
1
100
AcDbCircle
 10
-177.794274
 20
-172.832912
 30
0.0
 40
1.0
100
AcDbArc
 50
90.0
 51
180.0
  0
ARC
  5
1DA
100
AcDbEntity
  8
1
100
AcDbCircle
 10
-179.294274
 20
-172.832912
 30
0.0
 40
1.0
100
AcDbArc
 50
90.0
 51
180.0
  0
ARC
  5
1DB
100
AcDbEntity
  8
1
100
AcDbCircle
 10
-177.794274
 20
-182.028899
 30
0.0
 40
1.0
100
AcDbArc
 50
180.0
 51
275.0
  0
ARC
  5
1DC
100
AcDbEntity
  8
1
100
AcDbCircle
 10
-179.294274
 20
-182.160132
 30
0.0
 40
1.0
100
AcDbArc
 50
180.0
 51
275.0
  0
LINE
  5
1DD
100
AcDbEntity
  8
1
100
AcDbLine
 10
-173.556538
 20
-149.860221
 30
0.0
 11
-173.556538
 21
-147.732912
 31
0.0
  0
ARC
  5
1DE
100
AcDbEntity
  8
1
100
AcDbCircle
 10
-173.413076
 20
-149.674773
 30
0.0
 40
8.0
100
AcDbArc
 50
180.0
 51
265.0
  0
ARC
  5
1DF
100
AcDbEntity
  8
1
100
AcDbCircle
 10
-165.556538
 20
-149.860221
 30
0.0
 40
8.0
100
AcDbArc
 50
180.0
 51
265.0
  0
ARC
  5
1E0
100
AcDbEntity
  8
1
100
AcDbCircle
 10
-168.794274
 20
-149.576956
 30
0.0
 40
8.0
100
AcDbArc
 50
180.0
 51
265.0
  0
LINE
  5
1E1
100
AcDbEntity
  8
1
100
AcDbLine
 10
-172.556538
 20
-145.732912
 30
0.0
 11
-172.541319
 21
-145.732912
 31
0.0
  0
LINE
  5
1E2
100
AcDbEntity
  8
1
100
AcDbLine
 10
-169.721606
 20
-145.732912
 30
0.0
 11
-182.294274
 21
-145.732912
 31
0.0
  0
LINE
  5
1E3
100
AcDbEntity
  8
1
100
AcDbLine
 10
-166.512114
 20
-144.434089
 30
0.0
 11
-166.512114
 21
-141.493543
 31
0.0
  0
ARC
  5
1E4
100
AcDbEntity
  8
1
100
AcDbCircle
 10
-182.294274
 20
-218.140728
 30
0.0
 40
74.107816
100
AcDbArc
 50
77.704001
 51
90.0
  0
ARC
  5
1E5
100
AcDbEntity
  8
1
100
AcDbCircle
 10
-171.556538
 20
-147.732912
 30
0.0
 40
2.0
100
AcDbArc
 50
90.0
 51
180.0
  0
LINE
  5
1E6
100
AcDbEntity
  8
1
100
AcDbLine
 10
-172.556538
 20
-194.532912
 30
0.0
 11
-172.541319
 21
-194.532912
 31
0.0
  0
LINE
  5
1E7
100
AcDbEntity
  8
1
100
AcDbLine
 10
-169.721606
 20
-194.532912
 30
0.0
 11
-182.294274
 21
-194.532912
 31
0.0
  0
LINE
  5
1E8
100
AcDbEntity
  8
1
100
AcDbLine
 10
-166.512114
 20
-195.831734
 30
0.0
 11
-166.512114
 21
-198.77228
 31
0.0
  0
ARC
  5
1E9
100
AcDbEntity
  8
1
100
AcDbCircle
 10
-182.294274
 20
-122.125095
 30
0.0
 40
74.107816
100
AcDbArc
 50
270.0
 51
282.295999
  0
ARC
  5
1EA
100
AcDbEntity
  8
1
100
AcDbCircle
 10
-171.556538
 20
-192.532912
 30
0.0
 40
2.0
100
AcDbArc
 50
180.0
 51
270.0
  0
ARC
  5
1EB
100
AcDbEntity
  8
1
100
AcDbCircle
 10
-173.413076
 20
-193.59105
 30
0.0
 40
8.0
100
AcDbArc
 50
95.0
 51
180.0
  0
ARC
  5
1EC
100
AcDbEntity
  8
1
100
AcDbCircle
 10
-168.794274
 20
-193.688867
 30
0.0
 40
8.0
100
AcDbArc
 50
95.0
 51
180.0
  0
ARC
  5
1ED
100
AcDbEntity
  8
1
100
AcDbCircle
 10
-166.508912
 20
-192.532912
 30
0.0
 40
7.047626
100
AcDbArc
 50
95.0
 51
180.0
  0
ARC
  5
1EE
100
AcDbEntity
  8
1
100
AcDbCircle
 10
-186.794274
 20
-167.432912
 30
0.0
 40
1.0
100
AcDbArc
 50
270.0
 51
360.0
  0
ARC
  5
1EF
100
AcDbEntity
  8
1
100
AcDbCircle
 10
-185.294274
 20
-167.432912
 30
0.0
 40
1.0
100
AcDbArc
 50
270.0
 51
0.0
  0
LINE
  5
1F0
100
AcDbEntity
  8
1
100
AcDbLine
 10
-185.794274
 20
-167.432912
 30
0.0
 11
-185.794274
 21
-160.201461
 31
0.0
  0
LINE
  5
1F1
100
AcDbEntity
  8
1
100
AcDbLine
 10
-184.294274
 20
-167.432912
 30
0.0
 11
-184.294274
 21
-160.562701
 31
0.0
  0
LINE
  5
1F2
100
AcDbEntity
  8
1
100
AcDbLine
 10
-184.294274
 20
-172.832912
 30
0.0
 11
-184.294274
 21
-182.703123
 31
0.0
  0
LINE
  5
1F3
100
AcDbEntity
  8
1
100
AcDbLine
 10
-185.794274
 20
-172.832912
 30
0.0
 11
-185.794274
 21
-183.064362
 31
0.0
  0
ARC
  5
1F4
100
AcDbEntity
  8
1
100
AcDbCircle
 10
-186.794274
 20
-172.832912
 30
0.0
 40
1.0
100
AcDbArc
 50
0.0
 51
90.0
  0
ARC
  5
1F5
100
AcDbEntity
  8
1
100
AcDbCircle
 10
-185.294274
 20
-172.832912
 30
0.0
 40
1.0
100
AcDbArc
 50
0.0
 51
90.0
  0
LINE
  5
1F6
100
AcDbEntity
  8
1
100
AcDbLine
 10
-192.03201
 20
-145.732912
 30
0.0
 11
-192.047228
 21
-145.732912
 31
0.0
  0
LINE
  5
1F7
100
AcDbEntity
  8
1
100
AcDbLine
 10
-194.866942
 20
-145.732912
 30
0.0
 11
-182.294274
 21
-145.732912
 31
0.0
  0
LINE
  5
1F8
100
AcDbEntity
  8
1
100
AcDbLine
 10
-198.076434
 20
-144.434089
 30
0.0
 11
-198.076434
 21
-141.493543
 31
0.0
  0
ARC
  5
1F9
100
AcDbEntity
  8
1
100
AcDbCircle
 10
-182.294274
 20
-218.140728
 30
0.0
 40
74.107816
100
AcDbArc
 50
90.0
 51
102.295999
  0
LINE
  5
1FA
100
AcDbEntity
  8
1
100
AcDbLine
 10
-192.03201
 20
-194.532912
 30
0.0
 11
-192.047228
 21
-194.532912
 31
0.0
  0
LINE
  5
1FB
100
AcDbEntity
  8
1
100
AcDbLine
 10
-194.866942
 20
-194.532912
 30
0.0
 11
-182.294274
 21
-194.532912
 31
0.0
  0
LINE
  5
1FC
100
AcDbEntity
  8
1
100
AcDbLine
 10
-198.076434
 20
-195.831734
 30
0.0
 11
-198.076434
 21
-198.77228
 31
0.0
  0
ARC
  5
1FD
100
AcDbEntity
  8
1
100
AcDbCircle
 10
-182.294274
 20
-122.125095
 30
0.0
 40
74.107816
100
AcDbArc
 50
257.704001
 51
270.0
  0
LINE
  5
1FE
100
AcDbEntity
  8
1
100
AcDbLine
 10
-186.440724
 20
-170.832912
 30
0.0
 11
-186.440724
 21
-169.432912
 31
0.0
  0
LINE
  5
1FF
100
AcDbEntity
  8
1
100
AcDbLine
 10
-191.110644
 20
-168.932912
 30
0.0
 11
-191.110644
 21
-171.332912
 31
0.0
  0
ARC
  5
200
100
AcDbEntity
  8
1
100
AcDbCircle
 10
-185.940724
 20
-169.432912
 30
0.0
 40
0.5
100
AcDbArc
 50
90.0
 51
180.0
  0
ARC
  5
201
100
AcDbEntity
  8
1
100
AcDbCircle
 10
-185.940724
 20
-170.832912
 30
0.0
 40
0.5
100
AcDbArc
 50
180.0
 51
270.0
  0
ARC
  5
202
100
AcDbEntity
  8
1
100
AcDbCircle
 10
-190.610644
 20
-168.932912
 30
0.0
 40
0.5
100
AcDbArc
 50
90.0
 51
180.0
  0
ARC
  5
203
100
AcDbEntity
  8
1
100
AcDbCircle
 10
-190.610644
 20
-171.332912
 30
0.0
 40
0.5
100
AcDbArc
 50
180.0
 51
270.0
  0
LINE
  5
204
100
AcDbEntity
  8
1
100
AcDbLine
 10
-186.500243
 20
-168.926539
 30
0.0
 11
-190.460635
 21
-168.502507
 31
0.0
  0
LINE
  5
205
100
AcDbEntity
  8
1
100
AcDbLine
 10
-186.500243
 20
-171.339284
 30
0.0
 11
-190.460635
 21
-171.763316
 31
0.0
  0
LINE
  5
206
100
AcDbEntity
  8
1
100
AcDbLine
 10
-191.944838
 20
-147.732912
 30
0.0
 11
-191.944838
 21
-151.664441
 31
0.0
  0
LINE
  5
207
100
AcDbEntity
  8
1
100
AcDbLine
 10
-191.944838
 20
-192.532912
 30
0.0
 11
-191.944838
 21
-191.601382
 31
0.0
  0
LINE
  5
208
100
AcDbEntity
  8
1
100
AcDbLine
 10
-186.294274
 20
-151.656891
 30
0.0
 11
-186.294274
 21
-147.732912
 31
0.0
  0
ARC
  5
209
100
AcDbEntity
  8
1
100
AcDbCircle
 10
-178.294274
 20
-151.656891
 30
0.0
 40
8.0
100
AcDbArc
 50
180.0
 51
265.0
  0
ARC
  5
20A
100
AcDbEntity
  8
1
100
AcDbCircle
 10
-183.944838
 20
-151.664441
 30
0.0
 40
8.0
100
AcDbArc
 50
180.0
 51
265.0
  0
ARC
  5
20B
100
AcDbEntity
  8
1
100
AcDbCircle
 10
-193.944838
 20
-147.732912
 30
0.0
 40
2.0
100
AcDbArc
 50
0.0
 51
90.0
  0
ARC
  5
20C
100
AcDbEntity
  8
1
100
AcDbCircle
 10
-188.294274
 20
-147.732912
 30
0.0
 40
2.0
100
AcDbArc
 50
0.0
 51
90.0
  0
ARC
  5
20D
100
AcDbEntity
  8
1
100
AcDbCircle
 10
-185.294274
 20
-160.562701
 30
0.0
 40
1.0
100
AcDbArc
 50
0.0
 51
81.376703
  0
ARC
  5
20E
100
AcDbEntity
  8
1
100
AcDbCircle
 10
-186.794274
 20
-160.201461
 30
0.0
 40
1.0
100
AcDbArc
 50
0.0
 51
71.542325
  0
LINE
  5
20F
100
AcDbEntity
  8
1
100
AcDbLine
 10
-186.294274
 20
-191.608932
 30
0.0
 11
-186.294274
 21
-192.532912
 31
0.0
  0
ARC
  5
210
100
AcDbEntity
  8
1
100
AcDbCircle
 10
-193.944838
 20
-192.532912
 30
0.0
 40
2.0
100
AcDbArc
 50
270.0
 51
360.0
  0
ARC
  5
211
100
AcDbEntity
  8
1
100
AcDbCircle
 10
-188.294274
 20
-192.532912
 30
0.0
 40
2.0
100
AcDbArc
 50
270.0
 51
360.0
  0
ARC
  5
212
100
AcDbEntity
  8
1
100
AcDbCircle
 10
-178.294274
 20
-191.608932
 30
0.0
 40
8.0
100
AcDbArc
 50
95.0
 51
180.0
  0
ARC
  5
213
100
AcDbEntity
  8
1
100
AcDbCircle
 10
-183.944838
 20
-191.601382
 30
0.0
 40
8.0
100
AcDbArc
 50
95.0
 51
180.0
  0
ARC
  5
214
100
AcDbEntity
  8
1
100
AcDbCircle
 10
-186.794274
 20
-183.064362
 30
0.0
 40
1.0
100
AcDbArc
 50
288.457675
 51
360.0
  0
ARC
  5
215
100
AcDbEntity
  8
1
100
AcDbCircle
 10
-185.294274
 20
-182.703123
 30
0.0
 40
1.0
100
AcDbArc
 50
278.623297
 51
360.0
  0
ARC
  5
216
100
AcDbEntity
  8
1
100
AcDbCircle
 10
-182.294274
 20
-170.132912
 30
0.0
 40
32.7
100
AcDbArc
 50
111.617562
 51
248.382438
  0
LINE
  5
217
100
AcDbEntity
  8
1
100
AcDbLine
 10
-194.341265
 20
-139.732912
 30
0.0
 11
-170.247283
 21
-139.732912
 31
0.0
  0
ARC
  5
218
100
AcDbEntity
  8
1
100
AcDbCircle
 10
-182.294274
 20
-170.132912
 30
0.0
 40
32.7
100
AcDbArc
 50
291.617562
 51
68.382438
  0
LINE
  5
219
100
AcDbEntity
  8
1
100
AcDbLine
 10
-194.341265
 20
-200.532912
 30
0.0
 11
-170.247283
 21
-200.532912
 31
0.0
  0
POINT
  5
21A
100
AcDbEntity
  8
1
100
AcDbPoint
 10
-182.294274
 20
-170.132912
 30
0.0
  0
LINE
  5
21B
100
AcDbEntity
  8
2
  6
CENTER
 62
     2
100
AcDbLine
 10
-182.396636
 20
256.766846
 30
0.0
 11
-182.396636
 21
135.769669
 31
0.0
  0
LINE
  5
21C
100
AcDbEntity
  8
2
100
AcDbLine
 10
-221.396636
 20
-19.132912
 30
0.0
 11
-143.396636
 21
-19.132912
 31
0.0
  0
LINE
  5
21D
100
AcDbEntity
  8
2
100
AcDbLine
 10
-143.396636
 20
58.867088
 30
0.0
 11
-143.396636
 21
-19.132912
 31
0.0
  0
LINE
  5
21E
100
AcDbEntity
  8
2
100
AcDbLine
 10
-221.396636
 20
58.867088
 30
0.0
 11
-221.396636
 21
-19.132912
 31
0.0
  0
LINE
  5
21F
100
AcDbEntity
  8
2
100
AcDbLine
 10
-219.396636
 20
60.867088
 30
0.0
 11
-145.396636
 21
60.867088
 31
0.0
  0
ARC
  5
220
100
AcDbEntity
  8
2
100
AcDbCircle
 10
-219.396636
 20
58.867088
 30
0.0
 40
2.0
100
AcDbArc
 50
90.0
 51
180.0
  0
ARC
  5
221
100
AcDbEntity
  8
2
100
AcDbCircle
 10
-145.396636
 20
58.867088
 30
0.0
 40
2.0
100
AcDbArc
 50
0.0
 51
90.0
  0
LINE
  5
222
100
AcDbEntity
  8
2
100
AcDbLine
 10
-147.396636
 20
-6.132912
 30
0.0
 11
-147.396636
 21
-19.132912
 31
0.0
  0
LINE
  5
223
100
AcDbEntity
  8
2
100
AcDbLine
 10
-149.396636
 20
-4.132912
 30
0.0
 11
-157.396636
 21
-4.132912
 31
0.0
  0
LINE
  5
224
100
AcDbEntity
  8
2
100
AcDbLine
 10
-149.396636
 20
11.867088
 30
0.0
 11
-149.396636
 21
-2.66881
 31
0.0
  0
ARC
  5
225
100
AcDbEntity
  8
2
100
AcDbCircle
 10
-149.396636
 20
-6.132912
 30
0.0
 40
2.0
100
AcDbArc
 50
0.0
 51
60.0
  0
ARC
  5
226
100
AcDbEntity
  8
2
100
AcDbCircle
 10
-147.396636
 20
-2.66881
 30
0.0
 40
2.0
100
AcDbArc
 50
180.0
 51
240.0
  0
LINE
  5
227
100
AcDbEntity
  8
2
100
AcDbLine
 10
-155.396636
 20
-6.132912
 30
0.0
 11
-148.396636
 21
-6.132912
 31
0.0
  0
LINE
  5
228
100
AcDbEntity
  8
2
100
AcDbLine
 10
-154.396636
 20
8.867088
 30
0.0
 11
-152.396636
 21
8.867088
 31
0.0
  0
ARC
  5
229
100
AcDbEntity
  8
2
100
AcDbCircle
 10
-152.396636
 20
5.867088
 30
0.0
 40
3.0
100
AcDbArc
 50
0.0
 51
90.0
  0
LINE
  5
22A
100
AcDbEntity
  8
2
100
AcDbLine
 10
-217.396636
 20
-6.132912
 30
0.0
 11
-217.396636
 21
-19.132912
 31
0.0
  0
LINE
  5
22B
100
AcDbEntity
  8
2
100
AcDbLine
 10
-215.396636
 20
-4.132912
 30
0.0
 11
-207.396636
 21
-4.132912
 31
0.0
  0
LINE
  5
22C
100
AcDbEntity
  8
2
100
AcDbLine
 10
-215.396636
 20
11.867088
 30
0.0
 11
-215.396636
 21
-2.66881
 31
0.0
  0
ARC
  5
22D
100
AcDbEntity
  8
2
100
AcDbCircle
 10
-215.396636
 20
-6.132912
 30
0.0
 40
2.0
100
AcDbArc
 50
120.0
 51
180.0
  0
ARC
  5
22E
100
AcDbEntity
  8
2
100
AcDbCircle
 10
-217.396636
 20
-2.66881
 30
0.0
 40
2.0
100
AcDbArc
 50
300.0
 51
360.0
  0
LINE
  5
22F
100
AcDbEntity
  8
2
100
AcDbLine
 10
-209.396636
 20
-6.132912
 30
0.0
 11
-216.396636
 21
-6.132912
 31
0.0
  0
LINE
  5
230
100
AcDbEntity
  8
2
100
AcDbLine
 10
-210.396636
 20
8.867088
 30
0.0
 11
-212.396636
 21
8.867088
 31
0.0
  0
ARC
  5
231
100
AcDbEntity
  8
2
100
AcDbCircle
 10
-212.396636
 20
5.867088
 30
0.0
 40
3.0
100
AcDbArc
 50
90.0
 51
180.0
  0
LINE
  5
232
100
AcDbEntity
  8
2
100
AcDbLine
 10
22.153364
 20
-19.132912
 30
0.0
 11
100.153364
 21
-19.132912
 31
0.0
  0
LINE
  5
233
100
AcDbEntity
  8
2
100
AcDbLine
 10
100.153364
 20
58.867088
 30
0.0
 11
100.153364
 21
-19.132912
 31
0.0
  0
LINE
  5
234
100
AcDbEntity
  8
2
100
AcDbLine
 10
22.153364
 20
58.867088
 30
0.0
 11
22.153364
 21
-19.132912
 31
0.0
  0
ARC
  5
235
100
AcDbEntity
  8
2
100
AcDbCircle
 10
24.153364
 20
58.867088
 30
0.0
 40
2.0
100
AcDbArc
 50
90.0
 51
180.0
  0
ARC
  5
236
100
AcDbEntity
  8
2
100
AcDbCircle
 10
98.153364
 20
58.867088
 30
0.0
 40
2.0
100
AcDbArc
 50
0.0
 51
90.0
  0
LINE
  5
237
100
AcDbEntity
  8
2
100
AcDbLine
 10
96.153364
 20
-6.132912
 30
0.0
 11
96.153364
 21
-19.132912
 31
0.0
  0
LINE
  5
238
100
AcDbEntity
  8
2
100
AcDbLine
 10
76.586794
 20
-6.132912
 30
0.0
 11
76.586794
 21
-19.132912
 31
0.0
  0
LINE
  5
239
100
AcDbEntity
  8
2
100
AcDbLine
 10
94.153364
 20
-4.132912
 30
0.0
 11
80.220423
 21
-4.132912
 31
0.0
  0
LINE
  5
23A
100
AcDbEntity
  8
2
100
AcDbLine
 10
94.153364
 20
11.867088
 30
0.0
 11
94.153364
 21
-2.66881
 31
0.0
  0
ARC
  5
23B
100
AcDbEntity
  8
2
100
AcDbCircle
 10
94.153364
 20
-6.132912
 30
0.0
 40
2.0
100
AcDbArc
 50
0.0
 51
60.0
  0
ARC
  5
23C
100
AcDbEntity
  8
2
100
AcDbCircle
 10
96.153364
 20
-2.66881
 30
0.0
 40
2.0
100
AcDbArc
 50
180.0
 51
240.0
  0
ARC
  5
23D
100
AcDbEntity
  8
2
100
AcDbCircle
 10
78.586794
 20
-6.132912
 30
0.0
 40
2.0
100
AcDbArc
 50
95.25524
 51
180.0
  0
LINE
  5
23E
100
AcDbEntity
  8
2
100
AcDbLine
 10
80.220423
 20
8.867088
 30
0.0
 11
80.220423
 21
-2.149725
 31
0.0
  0
ARC
  5
23F
100
AcDbEntity
  8
2
100
AcDbCircle
 10
78.220423
 20
-2.149725
 30
0.0
 40
2.0
100
AcDbArc
 50
275.25524
 51
360.0
  0
LINE
  5
240
100
AcDbEntity
  8
2
100
AcDbLine
 10
78.403609
 20
-6.132912
 30
0.0
 11
95.153364
 21
-6.132912
 31
0.0
  0
LINE
  5
241
100
AcDbEntity
  8
2
100
AcDbLine
 10
83.220423
 20
8.867088
 30
0.0
 11
91.153364
 21
8.867088
 31
0.0
  0
ARC
  5
242
100
AcDbEntity
  8
2
100
AcDbCircle
 10
91.153364
 20
5.867088
 30
0.0
 40
3.0
100
AcDbArc
 50
0.0
 51
90.0
  0
ARC
  5
243
100
AcDbEntity
  8
2
100
AcDbCircle
 10
83.220423
 20
11.867088
 30
0.0
 40
3.0
100
AcDbArc
 50
180.0
 51
270.0
  0
LINE
  5
244
100
AcDbEntity
  8
2
100
AcDbLine
 10
26.153364
 20
-6.132912
 30
0.0
 11
26.153364
 21
-19.132912
 31
0.0
  0
LINE
  5
245
100
AcDbEntity
  8
2
100
AcDbLine
 10
45.719935
 20
-6.132912
 30
0.0
 11
45.719935
 21
-19.132912
 31
0.0
  0
LINE
  5
246
100
AcDbEntity
  8
2
100
AcDbLine
 10
28.153364
 20
-4.132912
 30
0.0
 11
42.086305
 21
-4.132912
 31
0.0
  0
LINE
  5
247
100
AcDbEntity
  8
2
100
AcDbLine
 10
28.153364
 20
5.867088
 30
0.0
 11
28.153364
 21
-2.66881
 31
0.0
  0
ARC
  5
248
100
AcDbEntity
  8
2
100
AcDbCircle
 10
28.153364
 20
-6.132912
 30
0.0
 40
2.0
100
AcDbArc
 50
120.0
 51
180.0
  0
ARC
  5
249
100
AcDbEntity
  8
2
100
AcDbCircle
 10
26.153364
 20
-2.66881
 30
0.0
 40
2.0
100
AcDbArc
 50
300.0
 51
360.0
  0
ARC
  5
24A
100
AcDbEntity
  8
2
100
AcDbCircle
 10
43.719935
 20
-6.132912
 30
0.0
 40
2.0
100
AcDbArc
 50
0.0
 51
84.74476
  0
LINE
  5
24B
100
AcDbEntity
  8
2
100
AcDbLine
 10
42.086306
 20
8.867088
 30
0.0
 11
42.086305
 21
-2.149725
 31
0.0
  0
ARC
  5
24C
100
AcDbEntity
  8
2
100
AcDbCircle
 10
44.086305
 20
-2.149725
 30
0.0
 40
2.0
100
AcDbArc
 50
180.0
 51
264.74476
  0
LINE
  5
24D
100
AcDbEntity
  8
2
100
AcDbLine
 10
43.90312
 20
-6.132912
 30
0.0
 11
27.153364
 21
-6.132912
 31
0.0
  0
LINE
  5
24E
100
AcDbEntity
  8
2
100
AcDbLine
 10
39.086305
 20
8.867088
 30
0.0
 11
31.153364
 21
8.867088
 31
0.0
  0
ARC
  5
24F
100
AcDbEntity
  8
2
100
AcDbCircle
 10
39.086305
 20
11.867088
 30
0.0
 40
3.0
100
AcDbArc
 50
270.0
 51
0.0
  0
LINE
  5
250
100
AcDbEntity
  8
2
100
AcDbLine
 10
-157.396636
 20
39.867088
 30
0.0
 11
-157.396636
 21
-19.132912
 31
0.0
  0
LINE
  5
251
100
AcDbEntity
  8
2
100
AcDbLine
 10
-207.396636
 20
39.867088
 30
0.0
 11
-207.396636
 21
-19.132912
 31
0.0
  0
LINE
  5
252
100
AcDbEntity
  8
2
100
AcDbLine
 10
-204.396636
 20
42.867088
 30
0.0
 11
-160.396636
 21
42.867088
 31
0.0
  0
ARC
  5
253
100
AcDbEntity
  8
2
100
AcDbCircle
 10
-204.396636
 20
39.867088
 30
0.0
 40
3.0
100
AcDbArc
 50
90.0
 51
180.0
  0
ARC
  5
254
100
AcDbEntity
  8
2
100
AcDbCircle
 10
-160.396636
 20
39.867088
 30
0.0
 40
3.0
100
AcDbArc
 50
0.0
 51
90.0
  0
ARC
  5
255
100
AcDbEntity
  8
2
100
AcDbCircle
 10
-154.396636
 20
11.867088
 30
0.0
 40
3.0
100
AcDbArc
 50
180.0
 51
270.0
  0
ARC
  5
256
100
AcDbEntity
  8
2
100
AcDbCircle
 10
-210.396636
 20
11.867088
 30
0.0
 40
3.0
100
AcDbArc
 50
270.0
 51
0.0
  0
ARC
  5
257
100
AcDbEntity
  8
2
100
AcDbCircle
 10
-155.396636
 20
-4.132912
 30
0.0
 40
2.0
100
AcDbArc
 50
180.0
 51
270.0
  0
ARC
  5
258
100
AcDbEntity
  8
2
100
AcDbCircle
 10
-209.396636
 20
-4.132912
 30
0.0
 40
2.0
100
AcDbArc
 50
270.0
 51
360.0
  0
LINE
  5
259
100
AcDbEntity
  8
2
100
AcDbLine
 10
-193.146636
 20
73.867088
 30
0.0
 11
-171.646636
 21
73.867088
 31
0.0
  0
LINE
  5
25A
100
AcDbEntity
  8
2
100
AcDbLine
 10
-213.896636
 20
63.867088
 30
0.0
 11
-150.896636
 21
63.867088
 31
0.0
  0
LINE
  5
25B
100
AcDbEntity
  8
2
100
AcDbLine
 10
-170.646636
 20
72.867088
 30
0.0
 11
-170.646636
 21
65.367088
 31
0.0
  0
LINE
  5
25C
100
AcDbEntity
  8
2
100
AcDbLine
 10
-176.834487
 20
73.867088
 30
0.0
 11
-176.834487
 21
63.867088
 31
0.0
  0
LINE
  5
25D
100
AcDbEntity
  8
2
100
AcDbLine
 10
-187.958784
 20
73.867088
 30
0.0
 11
-187.958784
 21
63.867088
 31
0.0
  0
LINE
  5
25E
100
AcDbEntity
  8
2
100
AcDbLine
 10
-194.146636
 20
72.867088
 30
0.0
 11
-194.146636
 21
65.367088
 31
0.0
  0
ARC
  5
25F
100
AcDbEntity
  8
2
100
AcDbCircle
 10
-171.646636
 20
72.867088
 30
0.0
 40
1.0
100
AcDbArc
 50
0.0
 51
90.0
  0
ARC
  5
260
100
AcDbEntity
  8
2
100
AcDbCircle
 10
-193.146636
 20
72.867088
 30
0.0
 40
1.0
100
AcDbArc
 50
90.0
 51
180.0
  0
LINE
  5
261
100
AcDbEntity
  8
2
100
AcDbLine
 10
-150.896636
 20
63.867088
 30
0.0
 11
-150.896636
 21
61.867088
 31
0.0
  0
LINE
  5
262
100
AcDbEntity
  8
2
100
AcDbLine
 10
-213.896636
 20
63.867088
 30
0.0
 11
-213.896636
 21
61.867088
 31
0.0
  0
LINE
  5
263
100
AcDbEntity
  8
2
100
AcDbLine
 10
-213.896636
 20
61.867088
 30
0.0
 11
-150.896636
 21
61.867088
 31
0.0
  0
LINE
  5
264
100
AcDbEntity
  8
2
100
AcDbLine
 10
-152.896636
 20
60.867088
 30
0.0
 11
-152.896636
 21
61.867088
 31
0.0
  0
LINE
  5
265
100
AcDbEntity
  8
2
100
AcDbLine
 10
-211.896636
 20
60.867088
 30
0.0
 11
-211.896636
 21
61.867088
 31
0.0
  0
ARC
  5
266
100
AcDbEntity
  8
2
100
AcDbCircle
 10
-169.146636
 20
65.367088
 30
0.0
 40
1.5
100
AcDbArc
 50
180.0
 51
270.0
  0
ARC
  5
267
100
AcDbEntity
  8
2
100
AcDbCircle
 10
-195.646636
 20
65.367088
 30
0.0
 40
1.5
100
AcDbArc
 50
270.0
 51
0.0
  0
LINE
  5
268
100
AcDbEntity
  8
2
100
AcDbLine
 10
50.403364
 20
73.867088
 30
0.0
 11
71.903364
 21
73.867088
 31
0.0
  0
LINE
  5
269
100
AcDbEntity
  8
2
100
AcDbLine
 10
29.653364
 20
63.867088
 30
0.0
 11
92.653364
 21
63.867088
 31
0.0
  0
LINE
  5
26A
100
AcDbEntity
  8
2
100
AcDbLine
 10
72.903364
 20
72.867088
 30
0.0
 11
72.903364
 21
65.367088
 31
0.0
  0
LINE
  5
26B
100
AcDbEntity
  8
2
100
AcDbLine
 10
66.715513
 20
73.867088
 30
0.0
 11
66.715513
 21
63.867088
 31
0.0
  0
LINE
  5
26C
100
AcDbEntity
  8
2
100
AcDbLine
 10
55.591216
 20
73.867088
 30
0.0
 11
55.591216
 21
63.867088
 31
0.0
  0
LINE
  5
26D
100
AcDbEntity
  8
2
100
AcDbLine
 10
49.403364
 20
72.867088
 30
0.0
 11
49.403364
 21
65.367088
 31
0.0
  0
ARC
  5
26E
100
AcDbEntity
  8
2
100
AcDbCircle
 10
71.903364
 20
72.867088
 30
0.0
 40
1.0
100
AcDbArc
 50
0.0
 51
90.0
  0
ARC
  5
26F
100
AcDbEntity
  8
2
100
AcDbCircle
 10
50.403364
 20
72.867088
 30
0.0
 40
1.0
100
AcDbArc
 50
90.0
 51
180.0
  0
LINE
  5
270
100
AcDbEntity
  8
2
100
AcDbLine
 10
92.653364
 20
63.867088
 30
0.0
 11
92.653364
 21
61.867088
 31
0.0
  0
LINE
  5
271
100
AcDbEntity
  8
2
100
AcDbLine
 10
29.653364
 20
63.867088
 30
0.0
 11
29.653364
 21
61.867088
 31
0.0
  0
LINE
  5
272
100
AcDbEntity
  8
2
100
AcDbLine
 10
31.653364
 20
60.867088
 30
0.0
 11
31.653364
 21
61.867088
 31
0.0
  0
ARC
  5
273
100
AcDbEntity
  8
2
100
AcDbCircle
 10
74.403364
 20
65.367088
 30
0.0
 40
1.5
100
AcDbArc
 50
180.0
 51
270.0
  0
ARC
  5
274
100
AcDbEntity
  8
2
100
AcDbCircle
 10
47.903364
 20
65.367088
 30
0.0
 40
1.5
100
AcDbArc
 50
270.0
 51
0.0
  0
LINE
  5
275
100
AcDbEntity
  8
2
  6
CENTER
 62
     2
100
AcDbLine
 10
-195.896636
 20
12.725101
 30
0.0
 11
-195.896636
 21
-10.517354
 31
0.0
  0
LINE
  5
276
100
AcDbEntity
  8
2
  6
CENTER
 62
     2
100
AcDbLine
 10
-168.896636
 20
12.725101
 30
0.0
 11
-168.896636
 21
-10.517354
 31
0.0
  0
LINE
  5
277
100
AcDbEntity
  8
2
  6
CENTER
 62
     2
100
AcDbLine
 10
-205.462798
 20
0.867088
 30
0.0
 11
-158.931113
 21
0.867088
 31
0.0
  0
CIRCLE
  5
278
100
AcDbEntity
  8
2
 62
     2
100
AcDbCircle
 10
-168.896636
 20
0.867088
 30
0.0
 40
3.3235
  0
CIRCLE
  5
279
100
AcDbEntity
  8
2
100
AcDbCircle
 10
-168.896636
 20
0.867088
 30
0.0
 40
6.25
  0
CIRCLE
  5
27A
100
AcDbEntity
  8
2
100
AcDbCircle
 10
-168.896636
 20
0.867088
 30
0.0
 40
4.0
  0
LINE
  5
27B
100
AcDbEntity
  8
2
100
AcDbLine
 10
-172.649412
 20
7.367088
 30
0.0
 11
-165.143859
 21
7.367088
 31
0.0
  0
LINE
  5
27C
100
AcDbEntity
  8
2
100
AcDbLine
 10
-172.649412
 20
-5.632912
 30
0.0
 11
-165.143859
 21
-5.632912
 31
0.0
  0
LINE
  5
27D
100
AcDbEntity
  8
2
100
AcDbLine
 10
-176.402189
 20
0.867088
 30
0.0
 11
-172.649412
 21
7.367088
 31
0.0
  0
LINE
  5
27E
100
AcDbEntity
  8
2
100
AcDbLine
 10
-165.143859
 20
-5.632912
 30
0.0
 11
-161.391082
 21
0.867088
 31
0.0
  0
LINE
  5
27F
100
AcDbEntity
  8
2
100
AcDbLine
 10
-172.649412
 20
-5.632912
 30
0.0
 11
-176.402189
 21
0.867088
 31
0.0
  0
LINE
  5
280
100
AcDbEntity
  8
2
100
AcDbLine
 10
-161.391082
 20
0.867088
 30
0.0
 11
-165.143859
 21
7.367088
 31
0.0
  0
LINE
  5
281
100
AcDbEntity
  8
2
100
AcDbLine
 10
-170.896636
 20
2.021789
 30
0.0
 11
-170.896636
 21
-0.287612
 31
0.0
  0
LINE
  5
282
100
AcDbEntity
  8
2
100
AcDbLine
 10
-166.896636
 20
2.021789
 30
0.0
 11
-166.896636
 21
-0.287612
 31
0.0
  0
LINE
  5
283
100
AcDbEntity
  8
2
100
AcDbLine
 10
-168.896636
 20
3.176489
 30
0.0
 11
-166.896636
 21
2.021789
 31
0.0
  0
LINE
  5
284
100
AcDbEntity
  8
2
100
AcDbLine
 10
-170.896636
 20
-0.287612
 30
0.0
 11
-168.896636
 21
-1.442313
 31
0.0
  0
LINE
  5
285
100
AcDbEntity
  8
2
100
AcDbLine
 10
-168.896636
 20
-1.442313
 30
0.0
 11
-166.896636
 21
-0.287612
 31
0.0
  0
LINE
  5
286
100
AcDbEntity
  8
2
100
AcDbLine
 10
-170.896636
 20
2.021789
 30
0.0
 11
-168.896636
 21
3.176489
 31
0.0
  0
CIRCLE
  5
287
100
AcDbEntity
  8
2
 62
     2
100
AcDbCircle
 10
-195.896636
 20
0.867088
 30
0.0
 40
3.3235
  0
CIRCLE
  5
288
100
AcDbEntity
  8
2
100
AcDbCircle
 10
-195.896636
 20
0.867088
 30
0.0
 40
6.25
  0
CIRCLE
  5
289
100
AcDbEntity
  8
2
100
AcDbCircle
 10
-195.896636
 20
0.867088
 30
0.0
 40
4.0
  0
LINE
  5
28A
100
AcDbEntity
  8
2
100
AcDbLine
 10
-192.143859
 20
7.367088
 30
0.0
 11
-199.649412
 21
7.367088
 31
0.0
  0
LINE
  5
28B
100
AcDbEntity
  8
2
100
AcDbLine
 10
-192.143859
 20
-5.632912
 30
0.0
 11
-199.649412
 21
-5.632912
 31
0.0
  0
LINE
  5
28C
100
AcDbEntity
  8
2
100
AcDbLine
 10
-188.391082
 20
0.867088
 30
0.0
 11
-192.143859
 21
7.367088
 31
0.0
  0
LINE
  5
28D
100
AcDbEntity
  8
2
100
AcDbLine
 10
-199.649412
 20
-5.632912
 30
0.0
 11
-203.402189
 21
0.867088
 31
0.0
  0
LINE
  5
28E
100
AcDbEntity
  8
2
100
AcDbLine
 10
-192.143859
 20
-5.632912
 30
0.0
 11
-188.391082
 21
0.867088
 31
0.0
  0
LINE
  5
28F
100
AcDbEntity
  8
2
100
AcDbLine
 10
-203.402189
 20
0.867088
 30
0.0
 11
-199.649412
 21
7.367088
 31
0.0
  0
LINE
  5
290
100
AcDbEntity
  8
2
100
AcDbLine
 10
-193.896636
 20
2.021789
 30
0.0
 11
-193.896636
 21
-0.287612
 31
0.0
  0
LINE
  5
291
100
AcDbEntity
  8
2
100
AcDbLine
 10
-197.896636
 20
2.021789
 30
0.0
 11
-197.896636
 21
-0.287612
 31
0.0
  0
LINE
  5
292
100
AcDbEntity
  8
2
100
AcDbLine
 10
-195.896636
 20
3.176489
 30
0.0
 11
-197.896636
 21
2.021789
 31
0.0
  0
LINE
  5
293
100
AcDbEntity
  8
2
100
AcDbLine
 10
-193.896636
 20
-0.287612
 30
0.0
 11
-195.896636
 21
-1.442313
 31
0.0
  0
LINE
  5
294
100
AcDbEntity
  8
2
100
AcDbLine
 10
-195.896636
 20
-1.442313
 30
0.0
 11
-197.896636
 21
-0.287612
 31
0.0
  0
LINE
  5
295
100
AcDbEntity
  8
2
100
AcDbLine
 10
-193.896636
 20
2.021789
 30
0.0
 11
-195.896636
 21
3.176489
 31
0.0
  0
LINE
  5
296
100
AcDbEntity
  8
2
  6
CENTER
 62
     2
100
AcDbLine
 10
11.166647
 20
0.867088
 30
0.0
 11
28.998331
 21
0.867088
 31
0.0
  0
LINE
  5
297
100
AcDbEntity
  8
2
100
AcDbLine
 10
15.153364
 20
4.190588
 30
0.0
 11
15.653364
 21
4.690588
 31
0.0
  0
LINE
  5
298
100
AcDbEntity
  8
2
 62
     2
100
AcDbLine
 10
15.153364
 20
4.190588
 30
0.0
 11
15.653364
 21
4.190588
 31
0.0
  0
LINE
  5
299
100
AcDbEntity
  8
2
100
AcDbLine
 10
15.153364
 20
-2.456412
 30
0.0
 11
15.153364
 21
4.190588
 31
0.0
  0
LINE
  5
29A
100
AcDbEntity
  8
2
100
AcDbLine
 10
15.153364
 20
-2.456412
 30
0.0
 11
15.653364
 21
-2.956412
 31
0.0
  0
LINE
  5
29B
100
AcDbEntity
  8
2
 62
     2
100
AcDbLine
 10
15.153364
 20
-2.456412
 30
0.0
 11
15.653364
 21
-2.456412
 31
0.0
  0
LINE
  5
29C
100
AcDbEntity
  8
2
100
AcDbLine
 10
32.624019
 20
42.867088
 30
0.0
 11
32.624019
 21
11.668907
 31
0.0
  0
LINE
  5
29D
100
AcDbEntity
  8
2
100
AcDbLine
 10
22.153364
 20
42.867088
 30
0.0
 11
30.624019
 21
42.867088
 31
0.0
  0
ARC
  5
29E
100
AcDbEntity
  8
2
100
AcDbCircle
 10
30.624019
 20
44.867088
 30
0.0
 40
2.0
100
AcDbArc
 50
270.0
 51
360.0
  0
ARC
  5
29F
100
AcDbEntity
  8
2
100
AcDbCircle
 10
31.153364
 20
5.867088
 30
0.0
 40
3.0
100
AcDbArc
 50
90.0
 51
180.0
  0
ARC
  5
2A0
100
AcDbEntity
  8
2
100
AcDbCircle
 10
29.624019
 20
11.668907
 30
0.0
 40
3.0
100
AcDbArc
 50
284.767121
 51
360.0
  0
LINE
  5
2A1
100
AcDbEntity
  8
2
100
AcDbLine
 10
22.153364
 20
-5.632912
 30
0.0
 11
15.653364
 21
-5.632912
 31
0.0
  0
LINE
  5
2A2
100
AcDbEntity
  8
2
100
AcDbLine
 10
15.653364
 20
-5.632912
 30
0.0
 11
15.653364
 21
7.367088
 31
0.0
  0
ARC
  5
2A3
100
AcDbEntity
  8
2
100
AcDbCircle
 10
23.332123
 20
-2.382912
 30
0.0
 40
7.678759
100
AcDbArc
 50
154.96034
 51
205.03966
  0
LINE
  5
2A4
100
AcDbEntity
  8
2
100
AcDbLine
 10
22.153364
 20
7.367088
 30
0.0
 11
15.653364
 21
7.367088
 31
0.0
  0
LINE
  5
2A5
100
AcDbEntity
  8
2
100
AcDbLine
 10
21.431677
 20
0.867088
 30
0.0
 11
16.375052
 21
0.867088
 31
0.0
  0
ARC
  5
2A6
100
AcDbEntity
  8
2
100
AcDbCircle
 10
23.332123
 20
4.117088
 30
0.0
 40
7.678759
100
AcDbArc
 50
154.96034
 51
205.03966
  0
ARC
  5
2A7
100
AcDbEntity
  8
2
100
AcDbCircle
 10
14.474606
 20
4.117088
 30
0.0
 40
7.678759
100
AcDbArc
 50
334.96034
 51
25.03966
  0
ARC
  5
2A8
100
AcDbEntity
  8
2
100
AcDbCircle
 10
14.474606
 20
-2.382912
 30
0.0
 40
7.678759
100
AcDbArc
 50
334.96034
 51
25.03966
  0
LINE
  5
2A9
100
AcDbEntity
  8
2
100
AcDbLine
 10
84.14899
 20
63.367088
 30
0.0
 11
91.094126
 21
63.367088
 31
0.0
  0
LINE
  5
2AA
100
AcDbEntity
  8
2
100
AcDbLine
 10
91.094126
 20
63.367088
 30
0.0
 11
91.094126
 21
60.867088
 31
0.0
  0
LINE
  5
2AB
100
AcDbEntity
  8
2
100
AcDbLine
 10
84.14899
 20
63.367088
 30
0.0
 11
84.14899
 21
60.867088
 31
0.0
  0
LINE
  5
2AC
100
AcDbEntity
  8
2
100
AcDbLine
 10
86.144379
 20
63.367088
 30
0.0
 11
86.144379
 21
60.867088
 31
0.0
  0
LINE
  5
2AD
100
AcDbEntity
  8
2
100
AcDbLine
 10
29.653364
 20
61.867088
 30
0.0
 11
84.14899
 21
61.867088
 31
0.0
  0
LINE
  5
2AE
100
AcDbEntity
  8
2
100
AcDbLine
 10
91.094126
 20
61.867088
 30
0.0
 11
92.653364
 21
61.867088
 31
0.0
  0
LINE
  5
2AF
100
AcDbEntity
  8
2
100
AcDbLine
 10
24.153364
 20
60.867088
 30
0.0
 11
86.144379
 21
60.867088
 31
0.0
  0
LINE
  5
2B0
100
AcDbEntity
  8
2
100
AcDbLine
 10
91.094126
 20
60.867088
 30
0.0
 11
98.153364
 21
60.867088
 31
0.0
  0
LINE
  5
2B1
100
AcDbEntity
  8
2
100
AcDbLine
 10
-190.396636
 20
93.867088
 30
0.0
 11
-190.396636
 21
73.867088
 31
0.0
  0
LINE
  5
2B2
100
AcDbEntity
  8
2
100
AcDbLine
 10
-174.396636
 20
93.867088
 30
0.0
 11
-174.396636
 21
73.867088
 31
0.0
  0
LINE
  5
2B3
100
AcDbEntity
  8
2
100
AcDbLine
 10
-192.396636
 20
110.867088
 30
0.0
 11
-172.396636
 21
110.867088
 31
0.0
  0
LINE
  5
2B4
100
AcDbEntity
  8
2
100
AcDbLine
 10
-192.396636
 20
108.867088
 30
0.0
 11
-192.396636
 21
110.867088
 31
0.0
  0
LINE
  5
2B5
100
AcDbEntity
  8
2
100
AcDbLine
 10
-172.396636
 20
108.867088
 30
0.0
 11
-172.396636
 21
110.867088
 31
0.0
  0
LINE
  5
2B6
100
AcDbEntity
  8
2
100
AcDbLine
 10
-188.146636
 20
112.367088
 30
0.0
 11
-188.146636
 21
115.876341
 31
0.0
  0
LINE
  5
2B7
100
AcDbEntity
  8
2
100
AcDbLine
 10
-188.146636
 20
115.876341
 30
0.0
 11
-187.296636
 21
116.367088
 31
0.0
  0
LINE
  5
2B8
100
AcDbEntity
  8
2
100
AcDbLine
 10
-187.296636
 20
116.367088
 30
0.0
 11
-177.496636
 21
116.367088
 31
0.0
  0
LINE
  5
2B9
100
AcDbEntity
  8
2
100
AcDbLine
 10
-185.271636
 20
112.367088
 30
0.0
 11
-185.271636
 21
115.876341
 31
0.0
  0
ARC
  5
2BA
100
AcDbEntity
  8
2
100
AcDbCircle
 10
-186.709136
 20
114.028386
 30
0.0
 40
2.341227
100
AcDbArc
 50
52.121121
 51
127.878879
  0
LINE
  5
2BB
100
AcDbEntity
  8
2
100
AcDbLine
 10
-176.646636
 20
112.367088
 30
0.0
 11
-176.646636
 21
115.876341
 31
0.0
  0
LINE
  5
2BC
100
AcDbEntity
  8
2
100
AcDbLine
 10
-176.646636
 20
115.876341
 30
0.0
 11
-177.496636
 21
116.367088
 31
0.0
  0
LINE
  5
2BD
100
AcDbEntity
  8
2
100
AcDbLine
 10
-179.521636
 20
112.367088
 30
0.0
 11
-179.521636
 21
115.876341
 31
0.0
  0
ARC
  5
2BE
100
AcDbEntity
  8
2
100
AcDbCircle
 10
-178.084136
 20
114.028386
 30
0.0
 40
2.341227
100
AcDbArc
 50
52.121121
 51
127.878879
  0
ARC
  5
2BF
100
AcDbEntity
  8
2
100
AcDbCircle
 10
-182.396636
 20
107.744613
 30
0.0
 40
8.625
100
AcDbArc
 50
70.528779
 51
109.471221
  0
LINE
  5
2C0
100
AcDbEntity
  8
2
100
AcDbLine
 10
-188.496636
 20
110.867088
 30
0.0
 11
-188.496636
 21
112.367088
 31
0.0
  0
LINE
  5
2C1
100
AcDbEntity
  8
2
100
AcDbLine
 10
-188.496636
 20
112.367088
 30
0.0
 11
-176.296636
 21
112.367088
 31
0.0
  0
LINE
  5
2C2
100
AcDbEntity
  8
2
100
AcDbLine
 10
-176.296636
 20
112.367088
 30
0.0
 11
-176.296636
 21
110.867088
 31
0.0
  0
LINE
  5
2C3
100
AcDbEntity
  8
2
100
AcDbLine
 10
-182.396636
 20
112.367088
 30
0.0
 11
-181.896636
 21
110.867088
 31
0.0
  0
LINE
  5
2C4
100
AcDbEntity
  8
2
100
AcDbLine
 10
-182.396636
 20
110.867088
 30
0.0
 11
-182.896636
 21
112.367088
 31
0.0
  0
LINE
  5
2C5
100
AcDbEntity
  8
2
100
AcDbLine
 10
53.153364
 20
93.867088
 30
0.0
 11
53.153364
 21
73.867088
 31
0.0
  0
LINE
  5
2C6
100
AcDbEntity
  8
2
100
AcDbLine
 10
69.153364
 20
93.867088
 30
0.0
 11
69.153364
 21
73.867088
 31
0.0
  0
LINE
  5
2C7
100
AcDbEntity
  8
2
100
AcDbLine
 10
51.153364
 20
110.867088
 30
0.0
 11
71.153364
 21
110.867088
 31
0.0
  0
LINE
  5
2C8
100
AcDbEntity
  8
2
100
AcDbLine
 10
51.153364
 20
108.867088
 30
0.0
 11
51.153364
 21
110.867088
 31
0.0
  0
LINE
  5
2C9
100
AcDbEntity
  8
2
100
AcDbLine
 10
71.153364
 20
108.867088
 30
0.0
 11
71.153364
 21
110.867088
 31
0.0
  0
LINE
  5
2CA
100
AcDbEntity
  8
2
100
AcDbLine
 10
67.253364
 20
112.367088
 30
0.0
 11
55.053364
 21
112.367088
 31
0.0
  0
LINE
  5
2CB
100
AcDbEntity
  8
2
100
AcDbLine
 10
56.153364
 20
112.367088
 30
0.0
 11
56.153364
 21
116.367088
 31
0.0
  0
LINE
  5
2CC
100
AcDbEntity
  8
2
100
AcDbLine
 10
56.153364
 20
116.367088
 30
0.0
 11
66.153364
 21
116.367088
 31
0.0
  0
ARC
  5
2CD
100
AcDbEntity
  8
2
100
AcDbCircle
 10
58.653364
 20
109.753881
 30
0.0
 40
6.613208
100
AcDbArc
 50
67.788205
 51
112.211795
  0
LINE
  5
2CE
100
AcDbEntity
  8
2
100
AcDbLine
 10
66.153364
 20
112.367088
 30
0.0
 11
66.153364
 21
116.367088
 31
0.0
  0
LINE
  5
2CF
100
AcDbEntity
  8
2
100
AcDbLine
 10
61.153364
 20
112.367088
 30
0.0
 11
61.153364
 21
115.876341
 31
0.0
  0
ARC
  5
2D0
100
AcDbEntity
  8
2
100
AcDbCircle
 10
63.653364
 20
109.753881
 30
0.0
 40
6.613208
100
AcDbArc
 50
67.788205
 51
112.211795
  0
LINE
  5
2D1
100
AcDbEntity
  8
2
100
AcDbLine
 10
55.053364
 20
110.867088
 30
0.0
 11
55.053364
 21
112.367088
 31
0.0
  0
LINE
  5
2D2
100
AcDbEntity
  8
2
100
AcDbLine
 10
67.253364
 20
112.367088
 30
0.0
 11
67.253364
 21
110.867088
 31
0.0
  0
LINE
  5
2D3
100
AcDbEntity
  8
2
  6
CENTER
 62
     2
100
AcDbLine
 10
-163.396636
 20
205.771425
 30
0.0
 11
-163.396636
 21
188.731424
 31
0.0
  0
LINE
  5
2D4
100
AcDbEntity
  8
2
100
AcDbLine
 10
-165.396636
 20
198.171789
 30
0.0
 11
-165.396636
 21
196.98411
 31
0.0
  0
LINE
  5
2D5
100
AcDbEntity
  8
2
100
AcDbLine
 10
-161.396636
 20
198.171789
 30
0.0
 11
-161.396636
 21
195.862388
 31
0.0
  0
LINE
  5
2D6
100
AcDbEntity
  8
2
100
AcDbLine
 10
-163.396636
 20
199.326489
 30
0.0
 11
-161.396636
 21
198.171789
 31
0.0
  0
LINE
  5
2D7
100
AcDbEntity
  8
2
100
AcDbLine
 10
-162.598657
 20
195.1684
 30
0.0
 11
-161.396636
 21
195.862388
 31
0.0
  0
LINE
  5
2D8
100
AcDbEntity
  8
2
100
AcDbLine
 10
-165.396636
 20
198.171789
 30
0.0
 11
-163.396636
 21
199.326489
 31
0.0
  0
LINE
  5
2D9
100
AcDbEntity
  8
2
  6
CENTER
 62
     2
100
AcDbLine
 10
-201.396636
 20
205.771425
 30
0.0
 11
-201.396636
 21
188.731424
 31
0.0
  0
LINE
  5
2DA
100
AcDbEntity
  8
2
100
AcDbLine
 10
-199.396636
 20
198.171789
 30
0.0
 11
-199.396636
 21
196.98411
 31
0.0
  0
LINE
  5
2DB
100
AcDbEntity
  8
2
100
AcDbLine
 10
-203.396636
 20
198.171789
 30
0.0
 11
-203.396636
 21
195.862388
 31
0.0
  0
LINE
  5
2DC
100
AcDbEntity
  8
2
100
AcDbLine
 10
-201.396636
 20
199.326489
 30
0.0
 11
-203.396636
 21
198.171789
 31
0.0
  0
LINE
  5
2DD
100
AcDbEntity
  8
2
100
AcDbLine
 10
-202.194614
 20
195.1684
 30
0.0
 11
-203.396636
 21
195.862388
 31
0.0
  0
LINE
  5
2DE
100
AcDbEntity
  8
2
100
AcDbLine
 10
-199.396636
 20
198.171789
 30
0.0
 11
-201.396636
 21
199.326489
 31
0.0
  0
LINE
  5
2DF
100
AcDbEntity
  8
2
100
AcDbLine
 10
-158.355005
 20
221.058719
 30
0.0
 11
-158.852167
 21
222.914154
 31
0.0
  0
LINE
  5
2E0
100
AcDbEntity
  8
2
100
AcDbLine
 10
-158.355005
 20
221.058719
 30
0.0
 11
-156.49957
 21
220.561556
 31
0.0
  0
LINE
  5
2E1
100
AcDbEntity
  8
2
100
AcDbLine
 10
-194.373194
 20
216.064714
 30
0.0
 11
-200.136087
 21
221.827608
 31
0.0
  0
LINE
  5
2E2
100
AcDbEntity
  8
2
100
AcDbLine
 10
-168.972659
 20
217.512133
 30
0.0
 11
-166.810846
 21
219.673945
 31
0.0
  0
TEXT
  5
2E3
100
AcDbEntity
  8
2
100
AcDbText
 10
-197.396636
 20
171.517088
 30
0.0
 40
6.0
  1
ＴＯＭＯＥ
 72
     5
 11
-168.596636
 21
171.517088
 31
0.0
100
AcDbText
  0
TEXT
  5
2E4
100
AcDbEntity
  8
2
100
AcDbText
 10
-200.781412
 20
209.037904
 30
0.0
 40
9.0
  1
Ｏ
 50
45.0
 72
     5
 11
-195.690243
 21
214.129072
 31
0.0
100
AcDbText
  0
TEXT
  5
2E5
100
AcDbEntity
  8
2
100
AcDbText
 10
-170.37582
 20
215.401865
 30
0.0
 40
9.0
  1
Ｓ
 50
315.0
 72
     5
 11
-165.284651
 21
210.310696
 31
0.0
100
AcDbText
  0
ARC
  5
2E6
100
AcDbEntity
  8
2
100
AcDbCircle
 10
-185.08083
 20
195.878826
 30
0.0
 40
30.0
100
AcDbArc
 50
52.482807
 51
69.498095
  0
ARC
  5
2E7
100
AcDbEntity
  8
2
100
AcDbCircle
 10
-185.08083
 20
195.878826
 30
0.0
 40
30.0
100
AcDbArc
 50
99.709838
 51
120.121934
  0
ARC
  5
2E8
100
AcDbEntity
  8
2
100
AcDbCircle
 10
-180.44853
 20
195.301676
 30
0.0
 40
25.0
100
AcDbArc
 50
62.675154
 51
75.84605
  0
ARC
  5
2E9
100
AcDbEntity
  8
2
100
AcDbCircle
 10
-180.44853
 20
195.301676
 30
0.0
 40
25.0
100
AcDbArc
 50
113.785212
 51
123.847652
  0
ARC
  5
2EA
100
AcDbEntity
  8
2
100
AcDbCircle
 10
-182.396636
 20
197.017088
 30
0.0
 40
31.5
100
AcDbArc
 50
104.45342
 51
195.502925
  0
ARC
  5
2EB
100
AcDbEntity
  8
2
100
AcDbCircle
 10
-182.396636
 20
197.017088
 30
0.0
 40
31.5
100
AcDbArc
 50
224.429377
 51
315.570623
  0
ARC
  5
2EC
100
AcDbEntity
  8
2
100
AcDbCircle
 10
-182.396636
 20
197.017088
 30
0.0
 40
31.5
100
AcDbArc
 50
344.497075
 51
75.54658
  0
ARC
  5
2ED
100
AcDbEntity
  8
2
100
AcDbCircle
 10
-163.396636
 20
197.017088
 30
0.0
 40
4.25
100
AcDbArc
 50
311.789916
 51
162.067868
  0
ARC
  5
2EE
100
AcDbEntity
  8
2
100
AcDbCircle
 10
-163.396636
 20
197.017088
 30
0.0
 40
5.0
100
AcDbArc
 50
314.117411
 51
158.216542
  0
ARC
  5
2EF
100
AcDbEntity
  8
2
100
AcDbCircle
 10
-163.396636
 20
197.017088
 30
0.0
 40
3.730385
100
AcDbArc
 50
309.605341
 51
164.432664
  0
ARC
  5
2F0
100
AcDbEntity
  8
2
100
AcDbCircle
 10
-201.396636
 20
197.017088
 30
0.0
 40
3.730385
100
AcDbArc
 50
15.567336
 51
230.394659
  0
ARC
  5
2F1
100
AcDbEntity
  8
2
100
AcDbCircle
 10
-201.396636
 20
197.017088
 30
0.0
 40
4.25
100
AcDbArc
 50
17.932132
 51
228.210084
  0
ARC
  5
2F2
100
AcDbEntity
  8
2
100
AcDbCircle
 10
-201.396636
 20
197.017088
 30
0.0
 40
5.0
100
AcDbArc
 50
21.783458
 51
225.882589
  0
LINE
  5
2F3
100
AcDbEntity
  8
2
100
AcDbLine
 10
-224.896636
 20
108.867088
 30
0.0
 11
-139.896636
 21
108.867088
 31
0.0
  0
ARC
  5
2F4
100
AcDbEntity
  8
2
100
AcDbCircle
 10
-224.896636
 20
101.367088
 30
0.0
 40
7.5
100
AcDbArc
 50
90.0
 51
270.0
  0
LINE
  5
2F5
100
AcDbEntity
  8
2
100
AcDbLine
 10
-170.396636
 20
93.867088
 30
0.0
 11
-194.396636
 21
93.867088
 31
0.0
  0
ARC
  5
2F6
100
AcDbEntity
  8
2
100
AcDbCircle
 10
-181.334136
 20
101.367088
 30
0.0
 40
15.0625
100
AcDbArc
 50
203.47446
 51
209.862834
  0
ARC
  5
2F7
100
AcDbEntity
  8
2
100
AcDbCircle
 10
-183.459136
 20
101.367088
 30
0.0
 40
15.0625
100
AcDbArc
 50
330.137166
 51
336.544162
  0
LINE
  5
2F8
100
AcDbEntity
  8
2
100
AcDbLine
 10
-179.196752
 20
101.367088
 30
0.0
 11
-185.596519
 21
101.367088
 31
0.0
  0
LINE
  5
2F9
100
AcDbEntity
  8
2
100
AcDbLine
 10
-180.746288
 20
95.367088
 30
0.0
 11
-184.046983
 21
95.367088
 31
0.0
  0
LINE
  5
2FA
100
AcDbEntity
  8
2
100
AcDbLine
 10
-194.744773
 20
101.367088
 30
0.0
 11
-200.615449
 21
101.367088
 31
0.0
  0
LINE
  5
2FB
100
AcDbEntity
  8
2
100
AcDbLine
 10
-193.987573
 20
95.367088
 30
0.0
 11
-199.91636
 21
95.367088
 31
0.0
  0
ARC
  5
2FC
100
AcDbEntity
  8
2
100
AcDbCircle
 10
-133.371449
 20
101.059405
 30
0.0
 40
54.252482
100
AcDbArc
 50
181.85598
 51
187.294014
  0
ARC
  5
2FD
100
AcDbEntity
  8
2
100
AcDbCircle
 10
-231.421822
 20
101.059405
 30
0.0
 40
54.252482
100
AcDbArc
 50
352.705986
 51
358.14402
  0
ARC
  5
2FE
100
AcDbEntity
  8
2
100
AcDbCircle
 10
-185.596519
 20
99.367088
 30
0.0
 40
2.0
100
AcDbArc
 50
90.0
 51
181.85598
  0
ARC
  5
2FF
100
AcDbEntity
  8
2
100
AcDbCircle
 10
-179.196752
 20
99.367088
 30
0.0
 40
2.0
100
AcDbArc
 50
358.14402
 51
90.0
  0
ARC
  5
300
100
AcDbEntity
  8
2
100
AcDbCircle
 10
-184.046983
 20
92.367088
 30
0.0
 40
3.0
100
AcDbArc
 50
90.0
 51
146.491844
  0
ARC
  5
301
100
AcDbEntity
  8
2
100
AcDbCircle
 10
-186.839095
 20
94.215719
 30
0.0
 40
0.34863
100
AcDbArc
 50
187.294014
 51
326.491844
  0
ARC
  5
302
100
AcDbEntity
  8
2
100
AcDbCircle
 10
-180.746288
 20
92.367088
 30
0.0
 40
3.0
100
AcDbArc
 50
33.508156
 51
90.0
  0
ARC
  5
303
100
AcDbEntity
  8
2
100
AcDbCircle
 10
-177.954176
 20
94.215719
 30
0.0
 40
0.34863
100
AcDbArc
 50
213.508156
 51
352.705986
  0
ARC
  5
304
100
AcDbEntity
  8
2
100
AcDbCircle
 10
-188.088658
 20
101.10747
 30
0.0
 40
14.64711
100
AcDbArc
 50
187.909628
 51
204.857013
  0
ARC
  5
305
100
AcDbEntity
  8
2
100
AcDbCircle
 10
-165.229682
 20
101.069453
 30
0.0
 40
27.564145
100
AcDbArc
 50
183.301036
 51
193.87463
  0
ARC
  5
306
100
AcDbEntity
  8
2
100
AcDbCircle
 10
-194.744773
 20
99.367088
 30
0.0
 40
2.0
100
AcDbArc
 50
3.301036
 51
90.0
  0
ARC
  5
307
100
AcDbEntity
  8
2
100
AcDbCircle
 10
-200.615449
 20
99.367088
 30
0.0
 40
2.0
100
AcDbArc
 50
90.0
 51
187.909628
  0
ARC
  5
308
100
AcDbEntity
  8
2
100
AcDbCircle
 10
-199.682943
 20
95.736151
 30
0.0
 40
1.869063
100
AcDbArc
 50
204.857013
 51
316.21672
  0
ARC
  5
309
100
AcDbEntity
  8
2
100
AcDbCircle
 10
-191.232882
 20
94.646529
 30
0.0
 40
0.779441
100
AcDbArc
 50
193.87463
 51
270.0
  0
ARC
  5
30A
100
AcDbEntity
  8
2
100
AcDbCircle
 10
-196.167663
 20
92.367088
 30
0.0
 40
3.0
100
AcDbArc
 50
90.0
 51
136.21672
  0
ARC
  5
30B
100
AcDbEntity
  8
2
100
AcDbCircle
 10
-193.987573
 20
92.867088
 30
0.0
 40
2.5
100
AcDbArc
 50
32.861145
 51
90.0
  0
ARC
  5
30C
100
AcDbEntity
  8
2
100
AcDbCircle
 10
-206.170961
 20
101.195289
 30
0.0
 40
9.683729
100
AcDbArc
 50
193.764481
 51
216.405649
  0
LINE
  5
30D
100
AcDbEntity
  8
2
100
AcDbLine
 10
-209.288752
 20
101.367088
 30
0.0
 11
-213.634028
 21
101.367088
 31
0.0
  0
ARC
  5
30E
100
AcDbEntity
  8
2
100
AcDbCircle
 10
-195.170689
 20
101.133776
 30
0.0
 40
12.228172
100
AcDbArc
 50
187.132729
 51
209.31396
  0
ARC
  5
30F
100
AcDbEntity
  8
2
100
AcDbCircle
 10
-213.634028
 20
99.367088
 30
0.0
 40
2.0
100
AcDbArc
 50
90.0
 51
193.764481
  0
ARC
  5
310
100
AcDbEntity
  8
2
100
AcDbCircle
 10
-209.288752
 20
99.367088
 30
0.0
 40
2.0
100
AcDbArc
 50
7.132729
 51
90.0
  0
LINE
  5
311
100
AcDbEntity
  8
2
100
AcDbLine
 10
-205.953709
 20
95.367088
 30
0.0
 11
-211.916002
 21
95.367088
 31
0.0
  0
ARC
  5
312
100
AcDbEntity
  8
2
100
AcDbCircle
 10
-210.834686
 20
97.756184
 30
0.0
 40
3.889096
100
AcDbArc
 50
216.405649
 51
308.53161
  0
ARC
  5
313
100
AcDbEntity
  8
2
100
AcDbCircle
 10
-203.646636
 20
96.374581
 30
0.0
 40
2.507493
100
AcDbArc
 50
209.31396
 51
270.0
  0
ARC
  5
314
100
AcDbEntity
  8
2
100
AcDbCircle
 10
-206.54315
 20
92.367088
 30
0.0
 40
3.0
100
AcDbArc
 50
90.0
 51
128.53161
  0
LINE
  5
315
100
AcDbEntity
  8
2
100
AcDbLine
 10
-199.682943
 20
93.867088
 30
0.0
 11
-203.646636
 21
93.867088
 31
0.0
  0
ARC
  5
316
100
AcDbEntity
  8
2
100
AcDbCircle
 10
-217.571519
 20
101.289318
 30
0.0
 40
8.126759
100
AcDbArc
 50
192.393185
 51
223.280016
  0
ARC
  5
317
100
AcDbEntity
  8
2
100
AcDbCircle
 10
-210.575854
 20
101.227806
 30
0.0
 40
8.979103
100
AcDbArc
 50
187.460956
 51
219.149456
  0
LINE
  5
318
100
AcDbEntity
  8
2
100
AcDbLine
 10
-220.966237
 20
101.367088
 30
0.0
 11
-224.04386
 21
101.367088
 31
0.0
  0
LINE
  5
319
100
AcDbEntity
  8
2
100
AcDbLine
 10
-229.023243
 20
101.367088
 30
0.0
 11
-230.229716
 21
101.367075
 31
0.0
  0
LINE
  5
31A
100
AcDbEntity
  8
2
100
AcDbLine
 10
-217.374016
 20
95.367088
 30
0.0
 11
-220.544924
 21
95.367088
 31
0.0
  0
ARC
  5
31B
100
AcDbEntity
  8
2
100
AcDbCircle
 10
-219.202715
 20
99.75323
 30
0.0
 40
5.886141
100
AcDbArc
 50
223.280016
 51
298.241155
  0
ARC
  5
31C
100
AcDbEntity
  8
2
100
AcDbCircle
 10
-213.980291
 20
98.456212
 30
0.0
 40
4.589124
100
AcDbArc
 50
219.149456
 51
270.0
  0
LINE
  5
31D
100
AcDbEntity
  8
2
100
AcDbLine
 10
-210.834686
 20
93.867088
 30
0.0
 11
-213.980291
 21
93.867088
 31
0.0
  0
ARC
  5
31E
100
AcDbEntity
  8
2
100
AcDbCircle
 10
-223.71819
 20
101.353641
 30
0.0
 40
7.585837
100
AcDbArc
 50
188.615288
 51
226.635861
  0
ARC
  5
31F
100
AcDbEntity
  8
2
100
AcDbCircle
 10
-220.19904
 20
101.315624
 30
0.0
 40
7.875036
100
AcDbArc
 50
186.135312
 51
224.747415
  0
ARC
  5
320
100
AcDbEntity
  8
2
100
AcDbCircle
 10
-220.966237
 20
99.867088
 30
0.0
 40
1.5
100
AcDbArc
 50
7.460956
 51
90.0
  0
ARC
  5
321
100
AcDbEntity
  8
2
100
AcDbCircle
 10
-224.04386
 20
99.867088
 30
0.0
 40
1.5
100
AcDbArc
 50
90.0
 51
192.393185
  0
ARC
  5
322
100
AcDbEntity
  8
2
100
AcDbCircle
 10
-229.023243
 20
100.367088
 30
0.0
 40
1.0
100
AcDbArc
 50
6.135312
 51
90.0
  0
ARC
  5
323
100
AcDbEntity
  8
2
100
AcDbCircle
 10
-230.229716
 20
100.367088
 30
0.0
 40
1.0
100
AcDbArc
 50
90.0
 51
188.615288
  0
ARC
  5
324
100
AcDbEntity
  8
2
100
AcDbCircle
 10
-223.967909
 20
101.08924
 30
0.0
 40
7.222152
100
AcDbArc
 50
226.635861
 51
281.281293
  0
ARC
  5
325
100
AcDbEntity
  8
2
100
AcDbCircle
 10
-221.222317
 20
100.30133
 30
0.0
 40
6.434241
100
AcDbArc
 50
224.747415
 51
270.0
  0
LINE
  5
326
100
AcDbEntity
  8
2
100
AcDbLine
 10
-219.202715
 20
93.867088
 30
0.0
 11
-221.222317
 21
93.867088
 31
0.0
  0
LINE
  5
327
100
AcDbEntity
  8
2
100
AcDbLine
 10
-223.967909
 20
93.867088
 30
0.0
 11
-224.896636
 21
93.867088
 31
0.0
  0
ARC
  5
328
100
AcDbEntity
  8
2
100
AcDbCircle
 10
-139.896636
 20
101.367088
 30
0.0
 40
7.5
100
AcDbArc
 50
270.0
 51
90.0
  0
LINE
  5
329
100
AcDbEntity
  8
2
100
AcDbLine
 10
-170.048498
 20
101.367088
 30
0.0
 11
-164.177822
 21
101.367088
 31
0.0
  0
LINE
  5
32A
100
AcDbEntity
  8
2
100
AcDbLine
 10
-170.805698
 20
95.367088
 30
0.0
 11
-164.876911
 21
95.367088
 31
0.0
  0
ARC
  5
32B
100
AcDbEntity
  8
2
100
AcDbCircle
 10
-176.704613
 20
101.10747
 30
0.0
 40
14.64711
100
AcDbArc
 50
335.142987
 51
352.090372
  0
ARC
  5
32C
100
AcDbEntity
  8
2
100
AcDbCircle
 10
-199.563589
 20
101.069453
 30
0.0
 40
27.564145
100
AcDbArc
 50
346.12537
 51
356.698964
  0
ARC
  5
32D
100
AcDbEntity
  8
2
100
AcDbCircle
 10
-170.048498
 20
99.367088
 30
0.0
 40
2.0
100
AcDbArc
 50
90.0
 51
176.698964
  0
ARC
  5
32E
100
AcDbEntity
  8
2
100
AcDbCircle
 10
-164.177822
 20
99.367088
 30
0.0
 40
2.0
100
AcDbArc
 50
352.090372
 51
90.0
  0
ARC
  5
32F
100
AcDbEntity
  8
2
100
AcDbCircle
 10
-165.110328
 20
95.736151
 30
0.0
 40
1.869063
100
AcDbArc
 50
223.78328
 51
335.142987
  0
ARC
  5
330
100
AcDbEntity
  8
2
100
AcDbCircle
 10
-173.560389
 20
94.646529
 30
0.0
 40
0.779441
100
AcDbArc
 50
270.0
 51
346.12537
  0
ARC
  5
331
100
AcDbEntity
  8
2
100
AcDbCircle
 10
-168.625608
 20
92.367088
 30
0.0
 40
3.0
100
AcDbArc
 50
43.78328
 51
90.0
  0
ARC
  5
332
100
AcDbEntity
  8
2
100
AcDbCircle
 10
-170.805698
 20
92.867088
 30
0.0
 40
2.5
100
AcDbArc
 50
90.0
 51
147.138855
  0
ARC
  5
333
100
AcDbEntity
  8
2
100
AcDbCircle
 10
-158.62231
 20
101.195289
 30
0.0
 40
9.683729
100
AcDbArc
 50
323.594351
 51
346.235519
  0
LINE
  5
334
100
AcDbEntity
  8
2
100
AcDbLine
 10
-155.504519
 20
101.367088
 30
0.0
 11
-151.159243
 21
101.367088
 31
0.0
  0
ARC
  5
335
100
AcDbEntity
  8
2
100
AcDbCircle
 10
-169.622582
 20
101.133776
 30
0.0
 40
12.228172
100
AcDbArc
 50
330.68604
 51
352.867271
  0
ARC
  5
336
100
AcDbEntity
  8
2
100
AcDbCircle
 10
-151.159243
 20
99.367088
 30
0.0
 40
2.0
100
AcDbArc
 50
346.235519
 51
90.0
  0
ARC
  5
337
100
AcDbEntity
  8
2
100
AcDbCircle
 10
-155.504519
 20
99.367088
 30
0.0
 40
2.0
100
AcDbArc
 50
90.0
 51
172.867271
  0
LINE
  5
338
100
AcDbEntity
  8
2
100
AcDbLine
 10
-158.839563
 20
95.367088
 30
0.0
 11
-152.877269
 21
95.367088
 31
0.0
  0
ARC
  5
339
100
AcDbEntity
  8
2
100
AcDbCircle
 10
-153.958585
 20
97.756184
 30
0.0
 40
3.889096
100
AcDbArc
 50
231.46839
 51
323.594351
  0
ARC
  5
33A
100
AcDbEntity
  8
2
100
AcDbCircle
 10
-161.146636
 20
96.374581
 30
0.0
 40
2.507493
100
AcDbArc
 50
270.0
 51
330.68604
  0
ARC
  5
33B
100
AcDbEntity
  8
2
100
AcDbCircle
 10
-158.250121
 20
92.367088
 30
0.0
 40
3.0
100
AcDbArc
 50
51.46839
 51
90.0
  0
LINE
  5
33C
100
AcDbEntity
  8
2
100
AcDbLine
 10
-165.110328
 20
93.867088
 30
0.0
 11
-161.146636
 21
93.867088
 31
0.0
  0
ARC
  5
33D
100
AcDbEntity
  8
2
100
AcDbCircle
 10
-147.221752
 20
101.289318
 30
0.0
 40
8.126759
100
AcDbArc
 50
316.719984
 51
347.606815
  0
ARC
  5
33E
100
AcDbEntity
  8
2
100
AcDbCircle
 10
-154.217417
 20
101.227806
 30
0.0
 40
8.979103
100
AcDbArc
 50
320.850544
 51
352.539044
  0
LINE
  5
33F
100
AcDbEntity
  8
2
100
AcDbLine
 10
-143.827034
 20
101.367088
 30
0.0
 11
-140.749411
 21
101.367088
 31
0.0
  0
LINE
  5
340
100
AcDbEntity
  8
2
100
AcDbLine
 10
-135.770028
 20
101.367088
 30
0.0
 11
-134.563555
 21
101.367075
 31
0.0
  0
LINE
  5
341
100
AcDbEntity
  8
2
100
AcDbLine
 10
-147.419255
 20
95.367088
 30
0.0
 11
-144.248347
 21
95.367088
 31
0.0
  0
ARC
  5
342
100
AcDbEntity
  8
2
100
AcDbCircle
 10
-145.590556
 20
99.75323
 30
0.0
 40
5.886141
100
AcDbArc
 50
241.758845
 51
316.719984
  0
ARC
  5
343
100
AcDbEntity
  8
2
100
AcDbCircle
 10
-150.81298
 20
98.456212
 30
0.0
 40
4.589124
100
AcDbArc
 50
270.0
 51
320.850544
  0
LINE
  5
344
100
AcDbEntity
  8
2
100
AcDbLine
 10
-153.958585
 20
93.867088
 30
0.0
 11
-150.81298
 21
93.867088
 31
0.0
  0
ARC
  5
345
100
AcDbEntity
  8
2
100
AcDbCircle
 10
-141.075081
 20
101.353641
 30
0.0
 40
7.585837
100
AcDbArc
 50
313.364139
 51
351.384712
  0
ARC
  5
346
100
AcDbEntity
  8
2
100
AcDbCircle
 10
-144.594231
 20
101.315624
 30
0.0
 40
7.875036
100
AcDbArc
 50
315.252585
 51
353.864688
  0
ARC
  5
347
100
AcDbEntity
  8
2
100
AcDbCircle
 10
-143.827034
 20
99.867088
 30
0.0
 40
1.5
100
AcDbArc
 50
90.0
 51
172.539044
  0
ARC
  5
348
100
AcDbEntity
  8
2
100
AcDbCircle
 10
-140.749411
 20
99.867088
 30
0.0
 40
1.5
100
AcDbArc
 50
347.606815
 51
90.0
  0
ARC
  5
349
100
AcDbEntity
  8
2
100
AcDbCircle
 10
-135.770028
 20
100.367088
 30
0.0
 40
1.0
100
AcDbArc
 50
90.0
 51
173.864688
  0
ARC
  5
34A
100
AcDbEntity
  8
2
100
AcDbCircle
 10
-134.563555
 20
100.367088
 30
0.0
 40
1.0
100
AcDbArc
 50
351.384712
 51
90.0
  0
ARC
  5
34B
100
AcDbEntity
  8
2
100
AcDbCircle
 10
-140.825362
 20
101.08924
 30
0.0
 40
7.222152
100
AcDbArc
 50
258.718707
 51
313.364139
  0
ARC
  5
34C
100
AcDbEntity
  8
2
100
AcDbCircle
 10
-143.570954
 20
100.30133
 30
0.0
 40
6.434241
100
AcDbArc
 50
270.0
 51
315.252585
  0
LINE
  5
34D
100
AcDbEntity
  8
2
100
AcDbLine
 10
-145.590556
 20
93.867088
 30
0.0
 11
-143.570954
 21
93.867088
 31
0.0
  0
LINE
  5
34E
100
AcDbEntity
  8
2
100
AcDbLine
 10
-140.825362
 20
93.867088
 30
0.0
 11
-139.896636
 21
93.867088
 31
0.0
  0
CIRCLE
  5
34F
100
AcDbEntity
  8
2
100
AcDbCircle
 10
-182.396636
 20
197.017088
 30
0.0
 40
50.0
  0
ARC
  5
350
100
AcDbEntity
  8
2
100
AcDbCircle
 10
-182.396636
 20
197.017088
 30
0.0
 40
35.0
100
AcDbArc
 50
81.988888
 51
98.777778
  0
ARC
  5
351
100
AcDbEntity
  8
2
100
AcDbCircle
 10
-182.396636
 20
197.017088
 30
0.0
 40
35.0
100
AcDbArc
 50
202.9
 51
218.177778
  0
ARC
  5
352
100
AcDbEntity
  8
2
100
AcDbCircle
 10
-182.396636
 20
197.017088
 30
0.0
 40
35.0
100
AcDbArc
 50
321.177778
 51
337.877777
  0
ARC
  5
353
100
AcDbEntity
  8
2
100
AcDbCircle
 10
-213.496636
 20
192.017088
 30
0.0
 40
3.5
100
AcDbArc
 50
189.166667
 51
303.011111
  0
ARC
  5
354
100
AcDbEntity
  8
2
100
AcDbCircle
 10
-182.396636
 20
197.017088
 30
0.0
 40
35.0
100
AcDbArc
 50
110.822222
 51
189.177778
  0
LINE
  5
355
100
AcDbEntity
  8
2
100
AcDbLine
 10
-197.496636
 20
198.217088
 30
0.0
 11
-211.596636
 21
189.067088
 31
0.0
  0
ARC
  5
356
100
AcDbEntity
  8
2
100
AcDbCircle
 10
-193.596636
 20
226.467088
 30
0.0
 40
3.5
100
AcDbArc
 50
356.988889
 51
110.833333
  0
LINE
  5
357
100
AcDbEntity
  8
2
100
AcDbLine
 10
-190.996636
 20
209.517088
 30
0.0
 11
-190.096636
 21
226.267088
 31
0.0
  0
ARC
  5
358
100
AcDbEntity
  8
2
100
AcDbCircle
 10
-194.496636
 20
209.667088
 30
0.0
 40
3.5
100
AcDbArc
 50
313.655555
 51
357.0
  0
ARC
  5
359
100
AcDbEntity
  8
2
100
AcDbCircle
 10
-182.396636
 20
197.017088
 30
0.0
 40
14.0
100
AcDbArc
 50
133.666667
 51
166.366667
  0
ARC
  5
35A
100
AcDbEntity
  8
2
100
AcDbCircle
 10
-199.396636
 20
201.167088
 30
0.0
 40
3.5
100
AcDbArc
 50
303.0
 51
346.344444
  0
LINE
  5
35B
100
AcDbEntity
  8
2
100
AcDbLine
 10
-188.896636
 20
183.367088
 30
0.0
 11
-203.896636
 21
175.717088
 31
0.0
  0
ARC
  5
35C
100
AcDbEntity
  8
2
100
AcDbCircle
 10
-182.396636
 20
197.017088
 30
0.0
 40
35.0
100
AcDbArc
 50
230.822222
 51
309.355555
  0
ARC
  5
35D
100
AcDbEntity
  8
2
100
AcDbCircle
 10
-202.296636
 20
172.617088
 30
0.0
 40
3.5
100
AcDbArc
 50
116.988889
 51
230.833333
  0
ARC
  5
35E
100
AcDbEntity
  8
2
100
AcDbCircle
 10
-162.496636
 20
172.617088
 30
0.0
 40
3.5
100
AcDbArc
 50
309.166666
 51
63.011111
  0
LINE
  5
35F
100
AcDbEntity
  8
2
100
AcDbLine
 10
-175.896636
 20
183.367088
 30
0.0
 11
-160.896636
 21
175.717088
 31
0.0
  0
ARC
  5
360
100
AcDbEntity
  8
2
100
AcDbCircle
 10
-177.496636
 20
180.217088
 30
0.0
 40
3.5
100
AcDbArc
 50
63.0
 51
106.344444
  0
ARC
  5
361
100
AcDbEntity
  8
2
100
AcDbCircle
 10
-182.396636
 20
197.017088
 30
0.0
 40
14.0
100
AcDbArc
 50
253.7
 51
286.3
  0
ARC
  5
362
100
AcDbEntity
  8
2
100
AcDbCircle
 10
-187.296636
 20
180.217088
 30
0.0
 40
3.5
100
AcDbArc
 50
73.655555
 51
117.0
  0
ARC
  5
363
100
AcDbEntity
  8
2
100
AcDbCircle
 10
-182.396636
 20
197.017088
 30
0.0
 40
35.0
100
AcDbArc
 50
350.822222
 51
69.177777
  0
ARC
  5
364
100
AcDbEntity
  8
2
100
AcDbCircle
 10
-171.196636
 20
226.467088
 30
0.0
 40
3.5
100
AcDbArc
 50
69.166666
 51
183.011111
  0
LINE
  5
365
100
AcDbEntity
  8
2
100
AcDbLine
 10
-173.796636
 20
209.517088
 30
0.0
 11
-174.696636
 21
226.267088
 31
0.0
  0
ARC
  5
366
100
AcDbEntity
  8
2
100
AcDbCircle
 10
-170.296636
 20
209.667088
 30
0.0
 40
3.5
100
AcDbArc
 50
183.0
 51
226.344444
  0
ARC
  5
367
100
AcDbEntity
  8
2
100
AcDbCircle
 10
-182.396636
 20
197.017088
 30
0.0
 40
14.0
100
AcDbArc
 50
13.633333
 51
46.333333
  0
ARC
  5
368
100
AcDbEntity
  8
2
100
AcDbCircle
 10
-165.396636
 20
201.167088
 30
0.0
 40
3.5
100
AcDbArc
 50
193.655555
 51
237.0
  0
LINE
  5
369
100
AcDbEntity
  8
2
100
AcDbLine
 10
-167.296636
 20
198.217088
 30
0.0
 11
-153.196636
 21
189.067088
 31
0.0
  0
ARC
  5
36A
100
AcDbEntity
  8
2
100
AcDbCircle
 10
-151.296636
 20
192.017088
 30
0.0
 40
3.5
100
AcDbArc
 50
236.988889
 51
350.833333
  0
CIRCLE
  5
36B
100
AcDbEntity
  8
2
100
AcDbCircle
 10
-182.396636
 20
197.017088
 30
0.0
 40
12.0
  0
LINE
  5
36C
100
AcDbEntity
  8
2
100
AcDbLine
 10
-210.681942
 20
234.552957
 30
0.0
 11
-205.867421
 21
228.163873
 31
0.0
  0
LINE
  5
36D
100
AcDbEntity
  8
2
100
AcDbLine
 10
-154.111329
 20
234.552957
 30
0.0
 11
-158.92585
 21
228.163873
 31
0.0
  0
ARC
  5
36E
100
AcDbEntity
  8
2
100
AcDbCircle
 10
-182.396636
 20
197.017088
 30
0.0
 40
47.0
100
AcDbArc
 50
53.0
 51
127.0
  0
ARC
  5
36F
100
AcDbEntity
  8
2
100
AcDbCircle
 10
-182.396636
 20
197.017088
 30
0.0
 40
39.0
100
AcDbArc
 50
53.0
 51
127.0
  0
LINE
  5
370
100
AcDbEntity
  8
2
100
AcDbLine
 10
-193.525854
 20
238.551899
 30
0.0
 11
-190.98304
 21
241.190312
 31
0.0
  0
LINE
  5
371
100
AcDbEntity
  8
2
100
AcDbLine
 10
-193.525854
 20
238.551899
 30
0.0
 11
-190.219804
 21
237.263803
 31
0.0
  0
ARC
  5
372
100
AcDbEntity
  8
2
100
AcDbCircle
 10
-182.396636
 20
197.017088
 30
0.0
 40
42.0
100
AcDbArc
 50
79.000001
 51
101.000002
  0
LINE
  5
373
100
AcDbEntity
  8
2
100
AcDbLine
 10
-190.98304
 20
241.190312
 30
0.0
 11
-190.792231
 21
240.208684
 31
0.0
  0
LINE
  5
374
100
AcDbEntity
  8
2
100
AcDbLine
 10
-190.410613
 20
238.24543
 30
0.0
 11
-190.219804
 21
237.263803
 31
0.0
  0
LINE
  5
375
100
AcDbEntity
  8
2
100
AcDbLine
 10
-171.267417
 20
238.551899
 30
0.0
 11
-173.810231
 21
241.190312
 31
0.0
  0
LINE
  5
376
100
AcDbEntity
  8
2
100
AcDbLine
 10
-171.267417
 20
238.551899
 30
0.0
 11
-174.573467
 21
237.263803
 31
0.0
  0
ARC
  5
377
100
AcDbEntity
  8
2
100
AcDbCircle
 10
-182.396636
 20
197.017088
 30
0.0
 40
44.0
100
AcDbArc
 50
79.000001
 51
101.000002
  0
LINE
  5
378
100
AcDbEntity
  8
2
100
AcDbLine
 10
-173.810231
 20
241.190312
 30
0.0
 11
-174.00104
 21
240.208684
 31
0.0
  0
LINE
  5
379
100
AcDbEntity
  8
2
100
AcDbLine
 10
-174.382658
 20
238.24543
 30
0.0
 11
-174.573467
 21
237.263803
 31
0.0
  0
TEXT
  5
37A
100
AcDbEntity
  8
2
100
AcDbText
 10
-205.819422
 20
230.727222
 30
0.0
 40
4.0
  1
Ｏ
 50
32.0
 72
     5
 11
-203.105668
 21
232.422963
 31
0.0
100
AcDbText
  0
TEXT
  5
37B
100
AcDbEntity
  8
2
100
AcDbText
 10
-203.410865
 20
232.278996
 30
0.0
 40
4.0
  1
Ｐ
 50
28.0
 72
     5
 11
-200.585432
 21
233.781305
 31
0.0
100
AcDbText
  0
TEXT
  5
37C
100
AcDbEntity
  8
2
100
AcDbText
 10
-200.899929
 20
233.658979
 30
0.0
 40
4.0
  1
Ｅ
 50
24.0
 72
     5
 11
-197.976583
 21
234.960536
 31
0.0
100
AcDbText
  0
TEXT
  5
37D
100
AcDbEntity
  8
2
100
AcDbText
 10
-198.298847
 20
234.860445
 30
0.0
 40
4.0
  1
Ｎ
 50
20.0
 72
     5
 11
-195.29183
 21
235.95491
 31
0.0
100
AcDbText
  0
TEXT
  5
37E
100
AcDbEntity
  8
2
100
AcDbText
 10
-170.253195
 20
236.228526
 30
0.0
 40
4.0
  1
Ｓ
 50
340.0
 72
     5
 11
-167.246178
 21
235.134062
 31
0.0
100
AcDbText
  0
TEXT
  5
37F
100
AcDbEntity
  8
2
100
AcDbText
 10
-167.547524
 20
235.285925
 30
0.0
 40
4.0
  1
Ｈ
 50
336.0
 72
     5
 11
-164.624179
 21
233.984368
 31
0.0
100
AcDbText
  0
TEXT
  5
380
100
AcDbEntity
  8
2
100
AcDbText
 10
-164.914197
 20
234.156883
 30
0.0
 40
4.0
  1
Ｕ
 50
332.0
 72
     5
 11
-162.088764
 21
232.654574
 31
0.0
100
AcDbText
  0
TEXT
  5
381
100
AcDbEntity
  8
2
100
AcDbText
 10
-162.366042
 20
232.846899
 30
0.0
 40
4.0
  1
Ｔ
 50
328.0
 72
     5
 11
-159.652288
 21
231.151157
 31
0.0
100
AcDbText
  0
ARC
  5
382
100
AcDbEntity
  8
2
100
AcDbCircle
 10
-182.396636
 20
197.017088
 30
0.0
 40
42.5
100
AcDbArc
 50
127.0
 51
53.0
  0
CIRCLE
  5
383
100
AcDbEntity
  8
2
100
AcDbCircle
 10
-182.396636
 20
197.017088
 30
0.0
 40
10.0
  0
CIRCLE
  5
384
100
AcDbEntity
  8
2
100
AcDbCircle
 10
-182.396636
 20
197.017088
 30
0.0
 40
4.9
  0
CIRCLE
  5
385
100
AcDbEntity
  8
2
100
AcDbCircle
 10
-182.396636
 20
197.017088
 30
0.0
 40
6.1
  0
LINE
  5
386
100
AcDbEntity
  8
2
100
AcDbLine
 10
-185.283387
 20
202.017088
 30
0.0
 11
-179.509884
 21
202.017088
 31
0.0
  0
LINE
  5
387
100
AcDbEntity
  8
2
100
AcDbLine
 10
-185.283387
 20
192.017088
 30
0.0
 11
-179.509884
 21
192.017088
 31
0.0
  0
LINE
  5
388
100
AcDbEntity
  8
2
100
AcDbLine
 10
-188.170138
 20
197.017088
 30
0.0
 11
-185.283387
 21
202.017088
 31
0.0
  0
LINE
  5
389
100
AcDbEntity
  8
2
100
AcDbLine
 10
-179.509884
 20
192.017088
 30
0.0
 11
-176.623133
 21
197.017088
 31
0.0
  0
LINE
  5
38A
100
AcDbEntity
  8
2
100
AcDbLine
 10
-185.283387
 20
192.017088
 30
0.0
 11
-188.170138
 21
197.017088
 31
0.0
  0
LINE
  5
38B
100
AcDbEntity
  8
2
100
AcDbLine
 10
-176.623133
 20
197.017088
 30
0.0
 11
-179.509884
 21
202.017088
 31
0.0
  0
LINE
  5
38C
100
AcDbEntity
  8
2
100
AcDbLine
 10
18.653364
 20
108.867088
 30
0.0
 11
103.653364
 21
108.867088
 31
0.0
  0
ARC
  5
38D
100
AcDbEntity
  8
2
100
AcDbCircle
 10
18.653364
 20
101.367088
 30
0.0
 40
7.5
100
AcDbArc
 50
90.0
 51
270.0
  0
LINE
  5
38E
100
AcDbEntity
  8
2
100
AcDbLine
 10
73.153364
 20
93.867088
 30
0.0
 11
49.153364
 21
93.867088
 31
0.0
  0
ARC
  5
38F
100
AcDbEntity
  8
2
100
AcDbCircle
 10
62.215864
 20
101.367088
 30
0.0
 40
15.0625
100
AcDbArc
 50
203.47446
 51
209.862834
  0
ARC
  5
390
100
AcDbEntity
  8
2
100
AcDbCircle
 10
60.090864
 20
101.367088
 30
0.0
 40
15.0625
100
AcDbArc
 50
330.137166
 51
336.544162
  0
LINE
  5
391
100
AcDbEntity
  8
2
100
AcDbLine
 10
64.353248
 20
101.367088
 30
0.0
 11
57.953481
 21
101.367088
 31
0.0
  0
LINE
  5
392
100
AcDbEntity
  8
2
100
AcDbLine
 10
62.803712
 20
95.367088
 30
0.0
 11
59.503017
 21
95.367088
 31
0.0
  0
LINE
  5
393
100
AcDbEntity
  8
2
100
AcDbLine
 10
48.805227
 20
101.367088
 30
0.0
 11
42.934551
 21
101.367088
 31
0.0
  0
LINE
  5
394
100
AcDbEntity
  8
2
100
AcDbLine
 10
49.562427
 20
95.367088
 30
0.0
 11
43.63364
 21
95.367088
 31
0.0
  0
ARC
  5
395
100
AcDbEntity
  8
2
100
AcDbCircle
 10
110.178551
 20
101.059405
 30
0.0
 40
54.252482
100
AcDbArc
 50
181.85598
 51
187.294014
  0
ARC
  5
396
100
AcDbEntity
  8
2
100
AcDbCircle
 10
12.128178
 20
101.059405
 30
0.0
 40
54.252482
100
AcDbArc
 50
352.705986
 51
358.14402
  0
ARC
  5
397
100
AcDbEntity
  8
2
100
AcDbCircle
 10
57.953481
 20
99.367088
 30
0.0
 40
2.0
100
AcDbArc
 50
90.0
 51
181.85598
  0
ARC
  5
398
100
AcDbEntity
  8
2
100
AcDbCircle
 10
64.353248
 20
99.367088
 30
0.0
 40
2.0
100
AcDbArc
 50
358.14402
 51
90.0
  0
ARC
  5
399
100
AcDbEntity
  8
2
100
AcDbCircle
 10
59.503017
 20
92.367088
 30
0.0
 40
3.0
100
AcDbArc
 50
90.0
 51
146.491844
  0
ARC
  5
39A
100
AcDbEntity
  8
2
100
AcDbCircle
 10
56.710905
 20
94.215719
 30
0.0
 40
0.34863
100
AcDbArc
 50
187.294014
 51
326.491844
  0
ARC
  5
39B
100
AcDbEntity
  8
2
100
AcDbCircle
 10
62.803712
 20
92.367088
 30
0.0
 40
3.0
100
AcDbArc
 50
33.508156
 51
90.0
  0
ARC
  5
39C
100
AcDbEntity
  8
2
100
AcDbCircle
 10
65.595824
 20
94.215719
 30
0.0
 40
0.34863
100
AcDbArc
 50
213.508156
 51
352.705986
  0
ARC
  5
39D
100
AcDbEntity
  8
2
100
AcDbCircle
 10
55.461342
 20
101.10747
 30
0.0
 40
14.64711
100
AcDbArc
 50
187.909628
 51
204.857013
  0
ARC
  5
39E
100
AcDbEntity
  8
2
100
AcDbCircle
 10
78.320318
 20
101.069453
 30
0.0
 40
27.564145
100
AcDbArc
 50
183.301036
 51
193.87463
  0
ARC
  5
39F
100
AcDbEntity
  8
2
100
AcDbCircle
 10
48.805227
 20
99.367088
 30
0.0
 40
2.0
100
AcDbArc
 50
3.301036
 51
90.0
  0
ARC
  5
3A0
100
AcDbEntity
  8
2
100
AcDbCircle
 10
42.934551
 20
99.367088
 30
0.0
 40
2.0
100
AcDbArc
 50
90.0
 51
187.909628
  0
ARC
  5
3A1
100
AcDbEntity
  8
2
100
AcDbCircle
 10
43.867057
 20
95.736151
 30
0.0
 40
1.869063
100
AcDbArc
 50
204.857013
 51
316.21672
  0
ARC
  5
3A2
100
AcDbEntity
  8
2
100
AcDbCircle
 10
52.317118
 20
94.646529
 30
0.0
 40
0.779441
100
AcDbArc
 50
193.87463
 51
270.0
  0
ARC
  5
3A3
100
AcDbEntity
  8
2
100
AcDbCircle
 10
47.382337
 20
92.367088
 30
0.0
 40
3.0
100
AcDbArc
 50
90.0
 51
136.21672
  0
ARC
  5
3A4
100
AcDbEntity
  8
2
100
AcDbCircle
 10
49.562427
 20
92.867088
 30
0.0
 40
2.5
100
AcDbArc
 50
32.861145
 51
90.0
  0
ARC
  5
3A5
100
AcDbEntity
  8
2
100
AcDbCircle
 10
37.379039
 20
101.195289
 30
0.0
 40
9.683729
100
AcDbArc
 50
193.764481
 51
216.405649
  0
LINE
  5
3A6
100
AcDbEntity
  8
2
100
AcDbLine
 10
34.261248
 20
101.367088
 30
0.0
 11
29.915972
 21
101.367088
 31
0.0
  0
ARC
  5
3A7
100
AcDbEntity
  8
2
100
AcDbCircle
 10
48.379311
 20
101.133776
 30
0.0
 40
12.228172
100
AcDbArc
 50
187.132729
 51
209.31396
  0
ARC
  5
3A8
100
AcDbEntity
  8
2
100
AcDbCircle
 10
29.915972
 20
99.367088
 30
0.0
 40
2.0
100
AcDbArc
 50
90.0
 51
193.764481
  0
ARC
  5
3A9
100
AcDbEntity
  8
2
100
AcDbCircle
 10
34.261248
 20
99.367088
 30
0.0
 40
2.0
100
AcDbArc
 50
7.132729
 51
90.0
  0
LINE
  5
3AA
100
AcDbEntity
  8
2
100
AcDbLine
 10
37.596291
 20
95.367088
 30
0.0
 11
31.633998
 21
95.367088
 31
0.0
  0
ARC
  5
3AB
100
AcDbEntity
  8
2
100
AcDbCircle
 10
32.715314
 20
97.756184
 30
0.0
 40
3.889096
100
AcDbArc
 50
216.405649
 51
308.53161
  0
ARC
  5
3AC
100
AcDbEntity
  8
2
100
AcDbCircle
 10
39.903364
 20
96.374581
 30
0.0
 40
2.507493
100
AcDbArc
 50
209.31396
 51
270.0
  0
ARC
  5
3AD
100
AcDbEntity
  8
2
100
AcDbCircle
 10
37.00685
 20
92.367088
 30
0.0
 40
3.0
100
AcDbArc
 50
90.0
 51
128.53161
  0
LINE
  5
3AE
100
AcDbEntity
  8
2
100
AcDbLine
 10
43.867057
 20
93.867088
 30
0.0
 11
39.903364
 21
93.867088
 31
0.0
  0
ARC
  5
3AF
100
AcDbEntity
  8
2
100
AcDbCircle
 10
25.978481
 20
101.289318
 30
0.0
 40
8.126759
100
AcDbArc
 50
192.393185
 51
223.280016
  0
ARC
  5
3B0
100
AcDbEntity
  8
2
100
AcDbCircle
 10
32.974146
 20
101.227806
 30
0.0
 40
8.979103
100
AcDbArc
 50
187.460956
 51
219.149456
  0
LINE
  5
3B1
100
AcDbEntity
  8
2
100
AcDbLine
 10
22.583763
 20
101.367088
 30
0.0
 11
19.50614
 21
101.367088
 31
0.0
  0
LINE
  5
3B2
100
AcDbEntity
  8
2
100
AcDbLine
 10
14.526757
 20
101.367088
 30
0.0
 11
13.320284
 21
101.367075
 31
0.0
  0
LINE
  5
3B3
100
AcDbEntity
  8
2
100
AcDbLine
 10
26.175984
 20
95.367088
 30
0.0
 11
23.005076
 21
95.367088
 31
0.0
  0
ARC
  5
3B4
100
AcDbEntity
  8
2
100
AcDbCircle
 10
24.347285
 20
99.75323
 30
0.0
 40
5.886141
100
AcDbArc
 50
223.280016
 51
298.241155
  0
ARC
  5
3B5
100
AcDbEntity
  8
2
100
AcDbCircle
 10
29.569709
 20
98.456212
 30
0.0
 40
4.589124
100
AcDbArc
 50
219.149456
 51
270.0
  0
LINE
  5
3B6
100
AcDbEntity
  8
2
100
AcDbLine
 10
32.715314
 20
93.867088
 30
0.0
 11
29.569709
 21
93.867088
 31
0.0
  0
ARC
  5
3B7
100
AcDbEntity
  8
2
100
AcDbCircle
 10
19.83181
 20
101.353641
 30
0.0
 40
7.585837
100
AcDbArc
 50
188.615288
 51
226.635861
  0
ARC
  5
3B8
100
AcDbEntity
  8
2
100
AcDbCircle
 10
23.35096
 20
101.315624
 30
0.0
 40
7.875036
100
AcDbArc
 50
186.135312
 51
224.747415
  0
ARC
  5
3B9
100
AcDbEntity
  8
2
100
AcDbCircle
 10
22.583763
 20
99.867088
 30
0.0
 40
1.5
100
AcDbArc
 50
7.460956
 51
90.0
  0
ARC
  5
3BA
100
AcDbEntity
  8
2
100
AcDbCircle
 10
19.50614
 20
99.867088
 30
0.0
 40
1.5
100
AcDbArc
 50
90.0
 51
192.393185
  0
ARC
  5
3BB
100
AcDbEntity
  8
2
100
AcDbCircle
 10
14.526757
 20
100.367088
 30
0.0
 40
1.0
100
AcDbArc
 50
6.135312
 51
90.0
  0
ARC
  5
3BC
100
AcDbEntity
  8
2
100
AcDbCircle
 10
13.320284
 20
100.367088
 30
0.0
 40
1.0
100
AcDbArc
 50
90.0
 51
188.615288
  0
ARC
  5
3BD
100
AcDbEntity
  8
2
100
AcDbCircle
 10
19.582091
 20
101.08924
 30
0.0
 40
7.222152
100
AcDbArc
 50
226.635861
 51
281.281293
  0
ARC
  5
3BE
100
AcDbEntity
  8
2
100
AcDbCircle
 10
22.327683
 20
100.30133
 30
0.0
 40
6.434241
100
AcDbArc
 50
224.747415
 51
270.0
  0
LINE
  5
3BF
100
AcDbEntity
  8
2
100
AcDbLine
 10
24.347285
 20
93.867088
 30
0.0
 11
22.327683
 21
93.867088
 31
0.0
  0
LINE
  5
3C0
100
AcDbEntity
  8
2
100
AcDbLine
 10
19.582091
 20
93.867088
 30
0.0
 11
18.653364
 21
93.867088
 31
0.0
  0
ARC
  5
3C1
100
AcDbEntity
  8
2
100
AcDbCircle
 10
103.653364
 20
101.367088
 30
0.0
 40
7.5
100
AcDbArc
 50
270.0
 51
90.0
  0
LINE
  5
3C2
100
AcDbEntity
  8
2
100
AcDbLine
 10
73.501502
 20
101.367088
 30
0.0
 11
79.372178
 21
101.367088
 31
0.0
  0
LINE
  5
3C3
100
AcDbEntity
  8
2
100
AcDbLine
 10
72.744302
 20
95.367088
 30
0.0
 11
78.673089
 21
95.367088
 31
0.0
  0
ARC
  5
3C4
100
AcDbEntity
  8
2
100
AcDbCircle
 10
66.845387
 20
101.10747
 30
0.0
 40
14.64711
100
AcDbArc
 50
335.142987
 51
352.090372
  0
ARC
  5
3C5
100
AcDbEntity
  8
2
100
AcDbCircle
 10
43.986411
 20
101.069453
 30
0.0
 40
27.564145
100
AcDbArc
 50
346.12537
 51
356.698964
  0
ARC
  5
3C6
100
AcDbEntity
  8
2
100
AcDbCircle
 10
73.501502
 20
99.367088
 30
0.0
 40
2.0
100
AcDbArc
 50
90.0
 51
176.698964
  0
ARC
  5
3C7
100
AcDbEntity
  8
2
100
AcDbCircle
 10
79.372178
 20
99.367088
 30
0.0
 40
2.0
100
AcDbArc
 50
352.090372
 51
90.0
  0
ARC
  5
3C8
100
AcDbEntity
  8
2
100
AcDbCircle
 10
78.439672
 20
95.736151
 30
0.0
 40
1.869063
100
AcDbArc
 50
223.78328
 51
335.142987
  0
ARC
  5
3C9
100
AcDbEntity
  8
2
100
AcDbCircle
 10
69.989611
 20
94.646529
 30
0.0
 40
0.779441
100
AcDbArc
 50
270.0
 51
346.12537
  0
ARC
  5
3CA
100
AcDbEntity
  8
2
100
AcDbCircle
 10
74.924392
 20
92.367088
 30
0.0
 40
3.0
100
AcDbArc
 50
43.78328
 51
90.0
  0
ARC
  5
3CB
100
AcDbEntity
  8
2
100
AcDbCircle
 10
72.744302
 20
92.867088
 30
0.0
 40
2.5
100
AcDbArc
 50
90.0
 51
147.138855
  0
ARC
  5
3CC
100
AcDbEntity
  8
2
100
AcDbCircle
 10
84.92769
 20
101.195289
 30
0.0
 40
9.683729
100
AcDbArc
 50
323.594351
 51
346.235519
  0
LINE
  5
3CD
100
AcDbEntity
  8
2
100
AcDbLine
 10
88.045481
 20
101.367088
 30
0.0
 11
92.390757
 21
101.367088
 31
0.0
  0
ARC
  5
3CE
100
AcDbEntity
  8
2
100
AcDbCircle
 10
73.927418
 20
101.133776
 30
0.0
 40
12.228172
100
AcDbArc
 50
330.68604
 51
352.867271
  0
ARC
  5
3CF
100
AcDbEntity
  8
2
100
AcDbCircle
 10
92.390757
 20
99.367088
 30
0.0
 40
2.0
100
AcDbArc
 50
346.235519
 51
90.0
  0
ARC
  5
3D0
100
AcDbEntity
  8
2
100
AcDbCircle
 10
88.045481
 20
99.367088
 30
0.0
 40
2.0
100
AcDbArc
 50
90.0
 51
172.867271
  0
LINE
  5
3D1
100
AcDbEntity
  8
2
100
AcDbLine
 10
84.710437
 20
95.367088
 30
0.0
 11
90.672731
 21
95.367088
 31
0.0
  0
ARC
  5
3D2
100
AcDbEntity
  8
2
100
AcDbCircle
 10
89.591415
 20
97.756184
 30
0.0
 40
3.889096
100
AcDbArc
 50
231.46839
 51
323.594351
  0
ARC
  5
3D3
100
AcDbEntity
  8
2
100
AcDbCircle
 10
82.403364
 20
96.374581
 30
0.0
 40
2.507493
100
AcDbArc
 50
270.0
 51
330.68604
  0
ARC
  5
3D4
100
AcDbEntity
  8
2
100
AcDbCircle
 10
85.299879
 20
92.367088
 30
0.0
 40
3.0
100
AcDbArc
 50
51.46839
 51
90.0
  0
LINE
  5
3D5
100
AcDbEntity
  8
2
100
AcDbLine
 10
78.439672
 20
93.867088
 30
0.0
 11
82.403364
 21
93.867088
 31
0.0
  0
ARC
  5
3D6
100
AcDbEntity
  8
2
100
AcDbCircle
 10
96.328248
 20
101.289318
 30
0.0
 40
8.126759
100
AcDbArc
 50
316.719984
 51
347.606815
  0
ARC
  5
3D7
100
AcDbEntity
  8
2
100
AcDbCircle
 10
89.332583
 20
101.227806
 30
0.0
 40
8.979103
100
AcDbArc
 50
320.850544
 51
352.539044
  0
LINE
  5
3D8
100
AcDbEntity
  8
2
100
AcDbLine
 10
99.722966
 20
101.367088
 30
0.0
 11
102.800589
 21
101.367088
 31
0.0
  0
LINE
  5
3D9
100
AcDbEntity
  8
2
100
AcDbLine
 10
107.779972
 20
101.367088
 30
0.0
 11
108.986445
 21
101.367075
 31
0.0
  0
LINE
  5
3DA
100
AcDbEntity
  8
2
100
AcDbLine
 10
96.130745
 20
95.367088
 30
0.0
 11
99.301653
 21
95.367088
 31
0.0
  0
ARC
  5
3DB
100
AcDbEntity
  8
2
100
AcDbCircle
 10
97.959444
 20
99.75323
 30
0.0
 40
5.886141
100
AcDbArc
 50
241.758845
 51
316.719984
  0
ARC
  5
3DC
100
AcDbEntity
  8
2
100
AcDbCircle
 10
92.73702
 20
98.456212
 30
0.0
 40
4.589124
100
AcDbArc
 50
270.0
 51
320.850544
  0
LINE
  5
3DD
100
AcDbEntity
  8
2
100
AcDbLine
 10
89.591415
 20
93.867088
 30
0.0
 11
92.73702
 21
93.867088
 31
0.0
  0
ARC
  5
3DE
100
AcDbEntity
  8
2
100
AcDbCircle
 10
102.474919
 20
101.353641
 30
0.0
 40
7.585837
100
AcDbArc
 50
313.364139
 51
351.384712
  0
ARC
  5
3DF
100
AcDbEntity
  8
2
100
AcDbCircle
 10
98.955769
 20
101.315624
 30
0.0
 40
7.875036
100
AcDbArc
 50
315.252585
 51
353.864688
  0
ARC
  5
3E0
100
AcDbEntity
  8
2
100
AcDbCircle
 10
99.722966
 20
99.867088
 30
0.0
 40
1.5
100
AcDbArc
 50
90.0
 51
172.539044
  0
ARC
  5
3E1
100
AcDbEntity
  8
2
100
AcDbCircle
 10
102.800589
 20
99.867088
 30
0.0
 40
1.5
100
AcDbArc
 50
347.606815
 51
90.0
  0
ARC
  5
3E2
100
AcDbEntity
  8
2
100
AcDbCircle
 10
107.779972
 20
100.367088
 30
0.0
 40
1.0
100
AcDbArc
 50
90.0
 51
173.864688
  0
ARC
  5
3E3
100
AcDbEntity
  8
2
100
AcDbCircle
 10
108.986445
 20
100.367088
 30
0.0
 40
1.0
100
AcDbArc
 50
351.384712
 51
90.0
  0
ARC
  5
3E4
100
AcDbEntity
  8
2
100
AcDbCircle
 10
102.724638
 20
101.08924
 30
0.0
 40
7.222152
100
AcDbArc
 50
258.718707
 51
313.364139
  0
ARC
  5
3E5
100
AcDbEntity
  8
2
100
AcDbCircle
 10
99.979046
 20
100.30133
 30
0.0
 40
6.434241
100
AcDbArc
 50
270.0
 51
315.252585
  0
LINE
  5
3E6
100
AcDbEntity
  8
2
100
AcDbLine
 10
97.959444
 20
93.867088
 30
0.0
 11
99.979046
 21
93.867088
 31
0.0
  0
LINE
  5
3E7
100
AcDbEntity
  8
2
100
AcDbLine
 10
102.724638
 20
93.867088
 30
0.0
 11
103.653364
 21
93.867088
 31
0.0
  0
DIMENSION
  5
3E8
100
AcDbEntity
  8
5
100
AcDbDimension
  2
*D0
 10
-18.914696
 20
-19.132912
 30
0.0
 11
-26.844696
 21
-94.962912
 31
0.0
  1
151
100
AcDbAlignedDimension
 13
23.747654
 23
-170.132912
 33
0.0
 14
22.153364
 24
-19.132912
 34
0.0
 50
90.0
100
AcDbRotatedDimension
  0
DIMENSION
  5
3E9
100
AcDbEntity
  8
5
100
AcDbDimension
  2
*D1
 10
-18.914696
 20
-170.132912
 30
0.0
 11
-24.534696
 21
-207.102912
 31
0.0
  1
78
100
AcDbAlignedDimension
 13
56.153364
 23
-248.032912
 33
0.0
 14
23.747654
 24
-170.132912
 34
0.0
 50
90.0
100
AcDbRotatedDimension
  0
DIMENSION
  5
3EA
100
AcDbEntity
  8
5
100
AcDbDimension
  2
*D2
 10
84.153364
 20
-267.028534
 30
0.0
 11
61.153364
 21
-262.728534
 31
0.0
  1
46
100
AcDbAlignedDimension
 13
38.153364
 23
-226.632912
 33
0.0
 14
84.153364
 24
-226.632912
 34
0.0
100
AcDbRotatedDimension
  0
DIMENSION
  5
3EB
100
AcDbEntity
  8
5
100
AcDbDimension
  2
*D3
 10
-18.914696
 20
116.367088
 30
0.0
 11
-26.844696
 21
48.287088
 31
0.0
  1
136
100
AcDbAlignedDimension
 13
22.153364
 23
-19.132912
 33
0.0
 14
56.153364
 24
116.367088
 34
0.0
 50
90.0
100
AcDbRotatedDimension
  0
DIMENSION
  5
3EC
100
AcDbEntity
  8
5
100
AcDbDimension
  2
*D4
 10
111.153364
 20
146.877289
 30
0.0
 11
61.153364
 21
151.177289
 31
0.0
 70
     1
  1
%%c100
100
AcDbAlignedDimension
 13
11.153364
 23
101.367088
 33
0.0
 14
111.153364
 24
101.367088
 34
0.0
  0
TEXT
  5
3ED
100
AcDbEntity
  8
18
100
AcDbText
 10
244.337601
 20
-266.097076
 30
0.0
 40
6.0
  1
１
 72
     5
 11
249.137601
 21
-266.097076
 31
0.0
100
AcDbText
  0
TEXT
  5
3EE
100
AcDbEntity
  8
18
100
AcDbText
 10
253.512146
 20
-273.625671
 30
0.0
 40
6.0
  1
２
 72
     5
 11
258.312146
 21
-273.625671
 31
0.0
100
AcDbText
  0
TEXT
  5
3EF
100
AcDbEntity
  8
18
100
AcDbText
 10
245.708481
 20
-246.070526
 30
0.0
 40
6.0
  1
７００Ｇ－２ＧＡＳ　６５Ａ
 72
     5
 11
322.508481
 21
-246.070526
 31
0.0
100
AcDbText
  0
TEXT
  5
3F0
100
AcDbEntity
  8
18
100
AcDbText
 10
245.708481
 20
-254.070526
 30
0.0
 40
6.0
  1
標準仕様　ＪＩＳ　５，１０Ｋ
 72
     5
 11
328.508481
 21
-254.070526
 31
0.0
100
AcDbText
  0
TEXT
  5
3F1
100
AcDbEntity
  8
18
100
AcDbText
 10
364.369507
 20
-253.837067
 30
0.0
 40
4.5
  1
′０４．７．９
 72
     5
 11
394.969507
 21
-253.837067
 31
0.0
100
AcDbText
  0
TEXT
  5
3F2
100
AcDbEntity
  8
18
100
AcDbText
 10
307.2
 20
-272.0
 30
0.0
 40
10.0
  1
Ｄ３－０３５２４
 72
     5
 11
385.2
 21
-272.0
 31
0.0
100
AcDbText
  0
LINE
  5
3F3
100
AcDbEntity
  8
20
 62
     3
100
AcDbLine
 10
-360.0
 20
-277.0
 30
0.0
 11
400.0
 21
-277.0
 31
0.0
  0
LINE
  5
3F4
100
AcDbEntity
  8
20
 62
     3
100
AcDbLine
 10
-360.0
 20
264.0
 30
0.0
 11
400.0
 21
264.0
 31
0.0
  0
LINE
  5
3F5
100
AcDbEntity
  8
20
 62
     3
100
AcDbLine
 10
-360.0
 20
264.0
 30
0.0
 11
-360.0
 21
-277.0
 31
0.0
  0
LINE
  5
3F6
100
AcDbEntity
  8
20
 62
     3
100
AcDbLine
 10
400.0
 20
264.0
 30
0.0
 11
400.0
 21
-277.0
 31
0.0
  0
LINE
  5
3F7
100
AcDbEntity
  8
20
 62
     3
100
AcDbLine
 10
120.0
 20
-277.0
 30
0.0
 11
120.0
 21
-237.0
 31
0.0
  0
LINE
  5
3F8
100
AcDbEntity
  8
20
 62
     3
100
AcDbLine
 10
214.0
 20
-277.0
 30
0.0
 11
214.0
 21
-237.0
 31
0.0
  0
LINE
  5
3F9
100
AcDbEntity
  8
20
100
AcDbLine
 10
214.0
 20
-257.0
 30
0.0
 11
400.0
 21
-257.0
 31
0.0
  0
LINE
  5
3FA
100
AcDbEntity
  8
20
 62
     3
100
AcDbLine
 10
120.0
 20
-237.0
 30
0.0
 11
400.0
 21
-237.0
 31
0.0
  0
LINE
  5
3FB
100
AcDbEntity
  8
20
100
AcDbLine
 10
360.0
 20
-257.0
 30
0.0
 11
360.0
 21
-237.0
 31
0.0
  0
LINE
  5
3FC
100
AcDbEntity
  8
20
100
AcDbLine
 10
360.0
 20
-247.0
 30
0.0
 11
400.0
 21
-247.0
 31
0.0
  0
LINE
  5
3FD
100
AcDbEntity
  8
20
100
AcDbLine
 10
242.0
 20
-277.0
 30
0.0
 11
242.0
 21
-237.0
 31
0.0
  0
LINE
  5
3FE
100
AcDbEntity
  8
20
100
AcDbLine
 10
262.0
 20
-277.0
 30
0.0
 11
262.0
 21
-257.0
 31
0.0
  0
LINE
  5
3FF
100
AcDbEntity
  8
20
100
AcDbLine
 10
302.0
 20
-277.0
 30
0.0
 11
302.0
 21
-257.0
 31
0.0
  0
LINE
  5
400
100
AcDbEntity
  8
20
100
AcDbLine
 10
247.456829
 20
-271.543171
 30
0.0
 11
255.796581
 21
-263.203419
 31
0.0
  0
TEXT
  5
401
100
AcDbEntity
  8
20
100
AcDbText
 10
263.066658
 20
-264.993835
 30
0.0
 40
3.6
  1
ＤＲＡＷＩＮＧ　ＮＯ．
 72
     5
 11
301.946658
 21
-264.993835
 31
0.0
100
AcDbText
  0
TEXT
  5
402
100
AcDbEntity
  8
20
100
AcDbText
 10
267.0
 20
-273.0
 30
0.0
 40
6.0
  1
図　　　番
 72
     5
 11
295.8
 21
-273.0
 31
0.0
100
AcDbText
  0
TEXT
  5
403
100
AcDbEntity
  8
20
100
AcDbText
 10
372.0
 20
-244.0
 30
0.0
 40
4.0
  1
ＤＡＴＥ
 72
     5
 11
387.2
 21
-244.0
 31
0.0
100
AcDbText
  0
TEXT
  5
404
100
AcDbEntity
  8
20
100
AcDbText
 10
218.002142
 20
-265.922058
 30
0.0
 40
4.0
  1
ＳＣＡＬＥ
 72
     5
 11
237.202142
 21
-265.922058
 31
0.0
100
AcDbText
  0
TEXT
  5
405
100
AcDbEntity
  8
20
100
AcDbText
 10
216.0
 20
-273.0
 30
0.0
 40
6.0
  1
尺　　度
 72
     5
 11
238.8
 21
-273.0
 31
0.0
100
AcDbText
  0
TEXT
  5
406
100
AcDbEntity
  8
20
100
AcDbText
 10
215.002142
 20
-244.991769
 30
0.0
 40
4.0
  1
ＦＩＧ．ＮＯ．
 72
     5
 11
242.202142
 21
-244.991769
 31
0.0
100
AcDbText
  0
TEXT
  5
407
100
AcDbEntity
  8
20
100
AcDbText
 10
216.0
 20
-253.0
 30
0.0
 40
6.0
  1
名　　称
 72
     5
 11
238.8
 21
-253.0
 31
0.0
100
AcDbText
  0
TEXT
  5
408
100
AcDbEntity
  8
20
100
AcDbText
 10
121.13105
 20
-252.940506
 30
0.0
 40
4.6
  1
ＴＯＭＯＥ　ＶＡＬＶＥ　ＣＯ．，ＬＴＤ．
 72
     5
 11
212.21105
 21
-252.940506
 31
0.0
100
AcDbText
  0
TEXT
  5
409
100
AcDbEntity
  8
20
100
AcDbText
 10
135.0
 20
-266.57962
 30
0.0
 40
8.0
  1
巴バルブ株式会社
 72
     5
 11
197.4
 21
-266.57962
 31
0.0
100
AcDbText
  0
ENDSEC
  0
SECTION
  2
OBJECTS
  0
DICTIONARY
  5
446
100
AcDbDictionary
  3
ACAD_GROUP
350
447
  3
ACAD_MLINESTYLE
350
448
  0
DICTIONARY
  5
447
102
{ACAD_REACTORS
330
446
102
}
100
AcDbDictionary
  0
DICTIONARY
  5
448
102
{ACAD_REACTORS
330
446
102
}
100
AcDbDictionary
  3
STANDARD
350
449
  0
MLINESTYLE
  5
449
102
{ACAD_REACTORS
330
448
102
}
100
AcDbMlineStyle
  2
STANDARD
 70
     0
  3

 62
     0
 51
90.0
 52
90.0
 71
     2
 49
0.5
 62
   256
  6
BYLAYER
 49
-0.5
 62
   256
  6
BYLAYER
  0
ENDSEC
  0
EOF
