  0
SECTION
  2
HEADER
  9
$ACADVER
  1
AC1015
  9
$ACADMAINTVER
 70
    20
  9
$DWGCODEPAGE
  3
ANSI_932
  9
$INSBASE
 10
0.0
 20
0.0
 30
0.0
  9
$EXTMIN
 10
-540.0604217663181
 20
-415.5489328271346
 30
-0.0015258207003583
  9
$EXTMAX
 10
600.0457792659822
 20
396.0392781399883
 30
0.0000000349246037
  9
$LIMMIN
 10
-630.0
 20
-445.5
  9
$LIMMAX
 10
630.0
 20
445.5
  9
$ORTHOMODE
 70
     0
  9
$REGENMODE
 70
     1
  9
$FILLMODE
 70
     1
  9
$QTEXTMODE
 70
     0
  9
$MIRRTEXT
 70
     1
  9
$LTSCALE
 40
1.0
  9
$ATTMODE
 70
     1
  9
$TEXTSIZE
 40
1.0
  9
$TRACEWID
 40
0.05
  9
$TEXTSTYLE
  7
STANDARD
  9
$CLAYER
  8
0
  9
$CELTYPE
  6
CONTINUOUS
  9
$CECOLOR
 62
   256
  9
$CELTSCALE
 40
1.0
  9
$DISPSILH
 70
     0
  9
$DIMSCALE
 40
3.0
  9
$DIMASZ
 40
0.18
  9
$DIMEXO
 40
0.0625
  9
$DIMDLI
 40
0.38
  9
$DIMRND
 40
0.0
  9
$DIMDLE
 40
0.0
  9
$DIMEXE
 40
0.18
  9
$DIMTP
 40
0.0
  9
$DIMTM
 40
0.0
  9
$DIMTXT
 40
0.18
  9
$DIMCEN
 40
0.09
  9
$DIMTSZ
 40
0.0
  9
$DIMTOL
 70
     0
  9
$DIMLIM
 70
     0
  9
$DIMTIH
 70
     1
  9
$DIMTOH
 70
     1
  9
$DIMSE1
 70
     0
  9
$DIMSE2
 70
     0
  9
$DIMTAD
 70
     1
  9
$DIMZIN
 70
     0
  9
$DIMBLK
  1

  9
$DIMASO
 70
     1
  9
$DIMSHO
 70
     1
  9
$DIMPOST
  1

  9
$DIMAPOST
  1

  9
$DIMALT
 70
     0
  9
$DIMALTD
 70
     2
  9
$DIMALTF
 40
25.4
  9
$DIMLFAC
 40
1.0
  9
$DIMTOFL
 70
     0
  9
$DIMTVP
 40
0.0
  9
$DIMTIX
 70
     0
  9
$DIMSOXD
 70
     0
  9
$DIMSAH
 70
     0
  9
$DIMBLK1
  1

  9
$DIMBLK2
  1

  9
$DIMSTYLE
  2
STANDARD
  9
$DIMCLRD
 70
     0
  9
$DIMCLRE
 70
     0
  9
$DIMCLRT
 70
     0
  9
$DIMTFAC
 40
1.0
  9
$DIMGAP
 40
0.09
  9
$DIMJUST
 70
     0
  9
$DIMSD1
 70
     0
  9
$DIMSD2
 70
     0
  9
$DIMTOLJ
 70
     1
  9
$DIMTZIN
 70
     0
  9
$DIMALTZ
 70
     0
  9
$DIMALTTZ
 70
     0
  9
$DIMUPT
 70
     0
  9
$DIMDEC
 70
     4
  9
$DIMTDEC
 70
     4
  9
$DIMALTU
 70
     2
  9
$DIMALTTD
 70
     2
  9
$DIMTXSTY
  7
STANDARD
  9
$DIMAUNIT
 70
     0
  9
$DIMADEC
 70
     0
  9
$DIMALTRND
 40
0.0
  9
$DIMAZIN
 70
     0
  9
$DIMDSEP
 70
    46
  9
$DIMATFIT
 70
     3
  9
$DIMFRAC
 70
     0
  9
$DIMLDRBLK
  1

  9
$DIMLUNIT
 70
     2
  9
$DIMLWD
 70
    -2
  9
$DIMLWE
 70
    -2
  9
$DIMTMOVE
 70
     0
  9
$LUNITS
 70
     2
  9
$LUPREC
 70
     4
  9
$SKETCHINC
 40
0.1
  9
$FILLETRAD
 40
0.0
  9
$AUNITS
 70
     0
  9
$AUPREC
 70
     0
  9
$MENU
  1
acad
  9
$ELEVATION
 40
0.0
  9
$PELEVATION
 40
0.0
  9
$THICKNESS
 40
0.0
  9
$LIMCHECK
 70
     0
  9
$CHAMFERA
 40
0.0
  9
$CHAMFERB
 40
0.0
  9
$CHAMFERC
 40
0.0
  9
$CHAMFERD
 40
0.0
  9
$SKPOLY
 70
     0
  9
$TDCREATE
 40
2450291.000000000
  9
$TDUCREATE
 40
2450290.625000000
  9
$TDUPDATE
 40
2456174.535338646
  9
$TDUUPDATE
 40
2456174.160338646
  9
$TDINDWG
 40
0.0029433218
  9
$TDUSRTIMER
 40
0.0029406019
  9
$USRTIMER
 70
     1
  9
$ANGBASE
 50
0.0
  9
$ANGDIR
 70
     0
  9
$PDMODE
 70
     0
  9
$PDSIZE
 40
0.0
  9
$PLINEWID
 40
0.0
  9
$SPLFRAME
 70
     0
  9
$SPLINETYPE
 70
     6
  9
$SPLINESEGS
 70
     8
  9
$HANDSEED
  5
500
  9
$SURFTAB1
 70
     6
  9
$SURFTAB2
 70
     6
  9
$SURFTYPE
 70
     6
  9
$SURFU
 70
     6
  9
$SURFV
 70
     6
  9
$UCSBASE
  2

  9
$UCSNAME
  2

  9
$UCSORG
 10
0.0
 20
0.0
 30
0.0
  9
$UCSXDIR
 10
1.0
 20
0.0
 30
0.0
  9
$UCSYDIR
 10
0.0
 20
1.0
 30
0.0
  9
$UCSORTHOREF
  2

  9
$UCSORTHOVIEW
 70
     0
  9
$UCSORGTOP
 10
0.0
 20
0.0
 30
0.0
  9
$UCSORGBOTTOM
 10
0.0
 20
0.0
 30
0.0
  9
$UCSORGLEFT
 10
0.0
 20
0.0
 30
0.0
  9
$UCSORGRIGHT
 10
0.0
 20
0.0
 30
0.0
  9
$UCSORGFRONT
 10
0.0
 20
0.0
 30
0.0
  9
$UCSORGBACK
 10
0.0
 20
0.0
 30
0.0
  9
$PUCSBASE
  2

  9
$PUCSNAME
  2

  9
$PUCSORG
 10
0.0
 20
0.0
 30
0.0
  9
$PUCSXDIR
 10
1.0
 20
0.0
 30
0.0
  9
$PUCSYDIR
 10
0.0
 20
1.0
 30
0.0
  9
$PUCSORTHOREF
  2

  9
$PUCSORTHOVIEW
 70
     0
  9
$PUCSORGTOP
 10
0.0
 20
0.0
 30
0.0
  9
$PUCSORGBOTTOM
 10
0.0
 20
0.0
 30
0.0
  9
$PUCSORGLEFT
 10
0.0
 20
0.0
 30
0.0
  9
$PUCSORGRIGHT
 10
0.0
 20
0.0
 30
0.0
  9
$PUCSORGFRONT
 10
0.0
 20
0.0
 30
0.0
  9
$PUCSORGBACK
 10
0.0
 20
0.0
 30
0.0
  9
$USERI1
 70
     0
  9
$USERI2
 70
     0
  9
$USERI3
 70
     0
  9
$USERI4
 70
     0
  9
$USERI5
 70
     0
  9
$USERR1
 40
0.0
  9
$USERR2
 40
0.0
  9
$USERR3
 40
0.0
  9
$USERR4
 40
0.0
  9
$USERR5
 40
0.0
  9
$WORLDVIEW
 70
     1
  9
$SHADEDGE
 70
     3
  9
$SHADEDIF
 70
    70
  9
$TILEMODE
 70
     1
  9
$MAXACTVP
 70
    16
  9
$PINSBASE
 10
0.0
 20
0.0
 30
0.0
  9
$PLIMCHECK
 70
     0
  9
$PEXTMIN
 10
1.000000000000000E+20
 20
1.000000000000000E+20
 30
1.000000000000000E+20
  9
$PEXTMAX
 10
-1.000000000000000E+20
 20
-1.000000000000000E+20
 30
-1.000000000000000E+20
  9
$PLIMMIN
 10
0.0
 20
0.0
  9
$PLIMMAX
 10
12.0
 20
9.0
  9
$UNITMODE
 70
     0
  9
$VISRETAIN
 70
     0
  9
$PLINEGEN
 70
     1
  9
$PSLTSCALE
 70
     0
  9
$TREEDEPTH
 70
  3020
  9
$CMLSTYLE
  2
STANDARD
  9
$CMLJUST
 70
     0
  9
$CMLSCALE
 40
1.0
  9
$PROXYGRAPHICS
 70
     1
  9
$MEASUREMENT
 70
     0
  9
$CELWEIGHT
370
    -1
  9
$ENDCAPS
280
     0
  9
$JOINSTYLE
280
     0
  9
$LWDISPLAY
290
     0
  9
$INSUNITS
 70
     0
  9
$HYPERLINKBASE
  1

  9
$STYLESHEET
  1
monochrome.ctb
  9
$XEDIT
290
     1
  9
$CEPSNTYPE
380
     0
  9
$PSTYLEMODE
290
     1
  9
$FINGERPRINTGUID
  2
{9E73C0E3-54EC-4C6E-AB2C-564DAA01AE14}
  9
$VERSIONGUID
  2
{15A71DC2-1029-4E45-9BCD-5875902FDAF0}
  9
$EXTNAMES
290
     1
  9
$PSVPSCALE
 40
0.0
  9
$OLESTARTUP
290
     0
  0
ENDSEC
  0
SECTION
  2
CLASSES
  0
CLASS
  1
IMAGE
  2
AcDbRasterImage
  3
ISM
 90
    34943
280
     0
281
     1
  0
CLASS
  1
DICTIONARYVAR
  2
AcDbDictionaryVar
  3
ObjectDBX Classes
 90
        0
280
     0
281
     0
  0
CLASS
  1
RASTERVARIABLES
  2
AcDbRasterVariables
  3
ISM
 90
    32768
280
     0
281
     0
  0
CLASS
  1
IMAGEDEF
  2
AcDbRasterImageDef
  3
ISM
 90
    32768
280
     0
281
     0
  0
CLASS
  1
IMAGEDEF_REACTOR
  2
AcDbRasterImageDefReactor
  3
ISM
 90
    32769
280
     0
281
     0
  0
CLASS
  1
IDBUFFER
  2
AcDbIdBuffer
  3
ObjectDBX Classes
 90
    32768
280
     0
281
     0
  0
CLASS
  1
SPATIAL_FILTER
  2
AcDbSpatialFilter
  3
ObjectDBX Classes
 90
    32768
280
     0
281
     0
  0
CLASS
  1
SORTENTSTABLE
  2
AcDbSortentsTable
  3
ObjectDBX Classes
 90
    32768
280
     0
281
     0
  0
CLASS
  1
LAYER_INDEX
  2
AcDbLayerIndex
  3
ObjectDBX Classes
 90
    32768
280
     0
281
     0
  0
CLASS
  1
SPATIAL_INDEX
  2
AcDbSpatialIndex
  3
ObjectDBX Classes
 90
    32768
280
     0
281
     0
  0
CLASS
  1
OBJECT_PTR
  2
CAseDLPNTableRecord
  3
"ASE-LPNTableRecord"
 90
    32769
280
     0
281
     0
  0
CLASS
  1
LAYOUT
  2
AcDbLayout
  3
ObjectDBX Classes
 90
        0
280
     0
281
     0
  0
CLASS
  1
PLOTSETTINGS
  2
AcDbPlotSettings
  3
ObjectDBX Classes
 90
    32768
280
     0
281
     0
  0
CLASS
  1
ACDBDICTIONARYWDFLT
  2
AcDbDictionaryWithDefault
  3
ObjectDBX Classes
 90
        0
280
     0
281
     0
  0
CLASS
  1
ACDBPLACEHOLDER
  2
AcDbPlaceHolder
  3
ObjectDBX Classes
 90
        0
280
     0
281
     0
  0
CLASS
  1
VBA_PROJECT
  2
AcDbVbaProject
  3
acad
 90
    32768
280
     0
281
     0
  0
CLASS
  1
WIPEOUT
  2
AcDbWipeout
  3
"WipeOut|Product Desc: Object Enabler for WipeOut entity                        |Company: Autodesk, Inc.                        |WEB Address: www.autodesk.com"
 90
    34943
280
     0
281
     1
  0
CLASS
  1
WIPEOUTVARIABLES
  2
AcDbWipeoutVariables
  3
"WipeOut|Product Desc:     WipeOut Dbx Application|Company:          Autodesk, Inc.|WEB Address:      www.autodesk.com"
 90
    32768
280
     0
281
     0
  0
CLASS
  1
RTEXT
  2
RText
  3
RText|AutoCAD Express Tool|expresstools@autodesk.com
 90
    32768
280
     0
281
     1
  0
CLASS
  1
ARCALIGNEDTEXT
  2
AcDbArcAlignedText
  3
ATEXT|AutoCAD Express Tool|expresstools@autodesk.com
 90
    32768
280
     0
281
     1
  0
CLASS
  1
MATERIAL
  2
AcDbMaterial
  3
ObjectDBX Classes
 90
     1153
280
     0
281
     0
  0
CLASS
  1
VISUALSTYLE
  2
AcDbVisualStyle
  3
ObjectDBX Classes
 90
     4095
280
     0
281
     0
  0
CLASS
  1
TABLESTYLE
  2
AcDbTableStyle
  3
ObjectDBX Classes
 90
     4095
280
     0
281
     0
  0
CLASS
  1
SCALE
  2
AcDbScale
  3
ObjectDBX Classes
 90
     1153
280
     0
281
     0
  0
CLASS
  1
MLEADERSTYLE
  2
AcDbMLeaderStyle
  3
ACDB_MLEADERSTYLE_CLASS
 90
     4095
280
     0
281
     0
  0
CLASS
  1
CELLSTYLEMAP
  2
AcDbCellStyleMap
  3
ObjectDBX Classes
 90
     1152
280
     0
281
     0
  0
ENDSEC
  0
SECTION
  2
TABLES
  0
TABLE
  2
VPORT
  5
6
330
0
100
AcDbSymbolTable
 70
     1
  0
VPORT
  5
1B
330
6
100
AcDbSymbolTableRecord
100
AcDbViewportTableRecord
  2
*ACTIVE
 70
     0
 10
0.0
 20
0.0
 11
1.0
 21
1.0
 12
297.0463906959947
 22
-66.22567075250959
 13
0.0
 23
0.0
 14
1.0
 24
1.0
 15
0.0
 25
0.0
 16
0.0
 26
0.0
 36
1.0
 17
0.0
 27
0.0
 37
0.0
 40
1022.646021691929
 41
2.258426966292134
 42
50.0
 43
0.0
 44
0.0
 50
0.0
 51
0.0
 71
     0
 72
   500
 73
     1
 74
     0
 75
     0
 76
     0
 77
     0
 78
     0
281
     0
 65
     1
110
0.0
120
0.0
130
0.0
111
1.0
121
0.0
131
0.0
112
0.0
122
1.0
132
0.0
 79
     0
146
0.0
  0
ENDTAB
  0
TABLE
  2
LTYPE
  5
3
330
0
100
AcDbSymbolTable
 70
     7
  0
LTYPE
  5
C
330
3
100
AcDbSymbolTableRecord
100
AcDbLinetypeTableRecord
  2
BYBLOCK
 70
     0
  3

 72
    65
 73
     0
 40
0.0
  0
LTYPE
  5
D
330
3
100
AcDbSymbolTableRecord
100
AcDbLinetypeTableRecord
  2
BYLAYER
 70
     0
  3

 72
    65
 73
     0
 40
0.0
  0
LTYPE
  5
E
330
3
100
AcDbSymbolTableRecord
100
AcDbLinetypeTableRecord
  2
CONTINUOUS
 70
     0
  3
Solid line
 72
    65
 73
     0
 40
0.0
  0
LTYPE
  5
F
330
3
100
AcDbSymbolTableRecord
100
AcDbLinetypeTableRecord
  2
DASHED
 70
     0
  3
__ __ __ __ __ __ __ __ __ __ __ __ __ __ __
 72
    65
 73
     2
 40
2.0
 49
1.199999999999999
 74
     0
 49
-0.8
 74
     0
  0
LTYPE
  5
10
330
3
100
AcDbSymbolTableRecord
100
AcDbLinetypeTableRecord
  2
CENTER
 70
     0
  3
____ _ ____ _ ____ _ ____ _ ____ _ ____ _ ____
 72
    65
 73
     4
 40
12.0
 49
9.0
 74
     0
 49
-1.0
 74
     0
 49
1.0
 74
     0
 49
-1.0
 74
     0
  0
LTYPE
  5
11
330
3
100
AcDbSymbolTableRecord
100
AcDbLinetypeTableRecord
  2
HIDDEN
 70
     0
  3
_ _ _ _ _ _ _ _ _ _ _ _ _ _ _ _ _ _ _ _ _ _ _
 72
    65
 73
     2
 40
3.2
 49
2.399999999999999
 74
     0
 49
-0.8
 74
     0
  0
LTYPE
  5
12
330
3
100
AcDbSymbolTableRecord
100
AcDbLinetypeTableRecord
  2
PHANTOM
 70
     0
  3
_____ _ _ _____ _ _ _____ _ _ _____ _ _ _____
 72
    65
 73
     6
 40
13.5
 49
9.0
 74
     0
 49
-1.0
 74
     0
 49
1.0
 74
     0
 49
-0.5
 74
     0
 49
1.0
 74
     0
 49
-1.0
 74
     0
  0
LTYPE
  5
13
330
3
100
AcDbSymbolTableRecord
100
AcDbLinetypeTableRecord
  2
DOT
 70
     0
  3
...............................................
 72
    65
 73
     2
 40
1.0
 49
0.5
 74
     0
 49
-0.5
 74
     0
  0
LTYPE
  5
14
330
3
100
AcDbSymbolTableRecord
100
AcDbLinetypeTableRecord
  2
DASHDOT
 70
     0
  3
__ . __ . __ . __ . __ . __ . __ . __ . __ . __
 72
    65
 73
     4
 40
8.0
 49
5.0
 74
     0
 49
-1.0
 74
     0
 49
1.0
 74
     0
 49
-1.0
 74
     0
  0
ENDTAB
  0
TABLE
  2
LAYER
  5
1
102
{ACAD_XDICTIONARY
360
4C9
102
}
330
0
100
AcDbSymbolTable
 70
     7
  0
LAYER
  5
15
102
{ACAD_XDICTIONARY
360
4CE
102
}
330
1
100
AcDbSymbolTableRecord
100
AcDbLayerTableRecord
  2
0
 70
     0
 62
     7
  6
CONTINUOUS
370
    -3
390
46E
  0
LAYER
  5
16
102
{ACAD_XDICTIONARY
360
4D0
102
}
330
1
100
AcDbSymbolTableRecord
100
AcDbLayerTableRecord
  2
1
 70
     0
 62
     7
  6
CONTINUOUS
370
    -3
390
46E
  0
LAYER
  5
17
102
{ACAD_XDICTIONARY
360
4D2
102
}
330
1
100
AcDbSymbolTableRecord
100
AcDbLayerTableRecord
  2
2
 70
     0
 62
     7
  6
CONTINUOUS
370
    -3
390
46E
  0
LAYER
  5
18
102
{ACAD_XDICTIONARY
360
4D4
102
}
330
1
100
AcDbSymbolTableRecord
100
AcDbLayerTableRecord
  2
5
 70
     0
 62
     7
  6
CONTINUOUS
370
    -3
390
46E
  0
LAYER
  5
19
102
{ACAD_XDICTIONARY
360
4D6
102
}
330
1
100
AcDbSymbolTableRecord
100
AcDbLayerTableRecord
  2
18
 70
     0
 62
     7
  6
CONTINUOUS
370
    -3
390
46E
  0
LAYER
  5
1A
102
{ACAD_XDICTIONARY
360
4D8
102
}
330
1
100
AcDbSymbolTableRecord
100
AcDbLayerTableRecord
  2
20
 70
     0
 62
     7
  6
CONTINUOUS
370
    -3
390
46E
  0
LAYER
  5
4C7
102
{ACAD_XDICTIONARY
360
4DA
102
}
330
1
100
AcDbSymbolTableRecord
100
AcDbLayerTableRecord
  2
DEFPOINT
 70
     0
 62
    -5
  6
CONTINUOUS
370
    -3
390
46E
1001
AcAecLayerStandard
1000

1000

  0
ENDTAB
  0
TABLE
  2
STYLE
  5
2
330
0
100
AcDbSymbolTable
 70
     3
  0
STYLE
  5
1D
330
2
100
AcDbSymbolTableRecord
100
AcDbTextStyleTableRecord
  2
STANDARD
 70
     0
 40
0.0
 41
1.0
 50
0.0
 71
     0
 42
1.0
  3
simplex.shx
  4
BIGFONT.shx
  0
ENDTAB
  0
TABLE
  2
VIEW
  5
4
330
0
100
AcDbSymbolTable
 70
     0
  0
ENDTAB
  0
TABLE
  2
UCS
  5
5
330
0
100
AcDbSymbolTable
 70
     0
  0
ENDTAB
  0
TABLE
  2
APPID
  5
7
330
0
100
AcDbSymbolTable
 70
     5
  0
APPID
  5
1C
330
7
100
AcDbSymbolTableRecord
100
AcDbRegAppTableRecord
  2
ACAD
 70
     0
  0
APPID
  5
4C0
330
7
100
AcDbSymbolTableRecord
100
AcDbRegAppTableRecord
  2
ACAD_MLEADERVER
 70
     0
  0
APPID
  5
4C6
330
7
100
AcDbSymbolTableRecord
100
AcDbRegAppTableRecord
  2
AcadAnnoPO
 70
     0
  0
APPID
  5
4C8
330
7
100
AcDbSymbolTableRecord
100
AcDbRegAppTableRecord
  2
AcAecLayerStandard
 70
     0
  0
APPID
  5
4DC
330
7
100
AcDbSymbolTableRecord
100
AcDbRegAppTableRecord
  2
ACAD_PSEXT
 70
     0
  0
ENDTAB
  0
TABLE
  2
DIMSTYLE
  5
8
330
0
100
AcDbSymbolTable
 70
     3
100
AcDbDimStyleTable
 71
     1
340
2A
  0
DIMSTYLE
105
2A
330
8
100
AcDbSymbolTableRecord
100
AcDbDimStyleTableRecord
  2
STANDARD
 70
     0
 40
3.0
 77
     1
340
1D
  0
ENDTAB
  0
TABLE
  2
BLOCK_RECORD
  5
25
330
0
100
AcDbSymbolTable
 70
     7
  0
BLOCK_RECORD
  5
23
330
25
100
AcDbSymbolTableRecord
100
AcDbBlockTableRecord
  2
*MODEL_SPACE
340
4C3
  0
BLOCK_RECORD
  5
24
330
25
100
AcDbSymbolTableRecord
100
AcDbBlockTableRecord
  2
*PAPER_SPACE
340
4C4
  0
BLOCK_RECORD
  5
1E
330
25
100
AcDbSymbolTableRecord
100
AcDbBlockTableRecord
  2
*D0
340
0
  0
BLOCK_RECORD
  5
1F
330
25
100
AcDbSymbolTableRecord
100
AcDbBlockTableRecord
  2
*D1
340
0
  0
BLOCK_RECORD
  5
20
330
25
100
AcDbSymbolTableRecord
100
AcDbBlockTableRecord
  2
*D2
340
0
  0
BLOCK_RECORD
  5
21
330
25
100
AcDbSymbolTableRecord
100
AcDbBlockTableRecord
  2
*D3
340
0
  0
BLOCK_RECORD
  5
22
330
25
100
AcDbSymbolTableRecord
100
AcDbBlockTableRecord
  2
*D4
340
0
  0
ENDTAB
  0
ENDSEC
  0
SECTION
  2
BLOCKS
  0
BLOCK
  5
26
330
23
100
AcDbEntity
  8
0
100
AcDbBlockBegin
  2
*MODEL_SPACE
 70
     0
 10
0.0
 20
0.0
 30
0.0
  3
*MODEL_SPACE
  1

  0
ENDBLK
  5
27
330
23
100
AcDbEntity
  8
0
100
AcDbBlockEnd
  0
BLOCK
  5
28
330
24
100
AcDbEntity
 67
     1
  8
0
100
AcDbBlockBegin
  2
*PAPER_SPACE
 70
     0
 10
0.0
 20
0.0
 30
0.0
  3
*PAPER_SPACE
  1

  0
ENDBLK
  5
29
330
24
100
AcDbEntity
 67
     1
  8
0
100
AcDbBlockEnd
  0
BLOCK
  5
426
330
1E
100
AcDbEntity
  8
5
100
AcDbBlockBegin
  2
*D0
 70
     1
 10
0.0
 20
0.0
 30
0.0
  3
*D0
  1

  0
TEXT
  5
427
330
1E
100
AcDbEntity
  8
5
 62
     2
100
AcDbText
 10
62.45577700000001
 20
-333.023945
 30
0.0
 40
9.9
  1
52
 41
0.6917647058823531
 72
     5
 11
73.543777
 21
-333.023945
 31
0.0
100
AcDbText
  0
LINE
  5
428
330
1E
100
AcDbEntity
  8
5
 62
     2
100
AcDbLine
 10
43.385777
 20
-276.325482
 30
0.0
 11
43.385777
 21
-337.523945
 31
0.0
  0
LINE
  5
429
330
1E
100
AcDbEntity
  8
5
 62
     2
100
AcDbLine
 10
43.385777
 20
-334.523945
 30
0.0
 11
49.18133199999999
 21
-336.07686
 31
0.0
  0
LINE
  5
42A
330
1E
100
AcDbEntity
  8
5
 62
     2
100
AcDbLine
 10
43.385777
 20
-334.523945
 30
0.0
 11
49.18133199999999
 21
-332.971031
 31
0.0
  0
LINE
  5
42B
330
1E
100
AcDbEntity
  8
5
 62
     2
100
AcDbLine
 10
49.18133199999999
 20
-336.07686
 30
0.0
 11
49.18133199999999
 21
-332.971031
 31
0.0
  0
LINE
  5
42C
330
1E
100
AcDbEntity
  8
5
 62
     2
100
AcDbLine
 10
43.385777
 20
-334.523945
 30
0.0
 11
95.38577700000001
 21
-334.523945
 31
0.0
  0
LINE
  5
42D
330
1E
100
AcDbEntity
  8
5
 62
     2
100
AcDbLine
 10
95.38577700000001
 20
-334.523945
 30
0.0
 11
89.59022199999999
 21
-332.971031
 31
0.0
  0
LINE
  5
42E
330
1E
100
AcDbEntity
  8
5
 62
     2
100
AcDbLine
 10
95.38577700000001
 20
-334.523945
 30
0.0
 11
89.59022199999999
 21
-336.07686
 31
0.0
  0
LINE
  5
42F
330
1E
100
AcDbEntity
  8
5
 62
     2
100
AcDbLine
 10
89.59022199999999
 20
-332.971031
 30
0.0
 11
89.59022199999999
 21
-336.07686
 31
0.0
  0
LINE
  5
430
330
1E
100
AcDbEntity
  8
5
 62
     2
100
AcDbLine
 10
95.38577700000001
 20
-276.325482
 30
0.0
 11
95.38577700000001
 21
-337.523945
 31
0.0
  0
ENDBLK
  5
431
330
1E
100
AcDbEntity
  8
5
100
AcDbBlockEnd
  0
BLOCK
  5
432
330
1F
100
AcDbEntity
  8
5
100
AcDbBlockBegin
  2
*D1
 70
     1
 10
0.0
 20
0.0
 30
0.0
  3
*D1
  1

  0
TEXT
  5
433
330
1F
100
AcDbEntity
  8
5
 62
     2
100
AcDbText
 10
-21.685604
 20
-262.670482
 30
0.0
 40
9.9
  1
102
 50
90.0
 41
0.7644000000000002
 72
     5
 11
-21.685604
 21
-244.652482
 31
0.0
100
AcDbText
  0
LINE
  5
434
330
1F
100
AcDbEntity
  8
5
 62
     2
100
AcDbLine
 10
61.385777
 20
-303.225482
 30
0.0
 11
-23.185604
 21
-303.225482
 31
0.0
  0
LINE
  5
435
330
1F
100
AcDbEntity
  8
5
 62
     2
100
AcDbLine
 10
-20.185604
 20
-303.225482
 30
0.0
 11
-18.63269
 21
-297.429927
 31
0.0
  0
LINE
  5
436
330
1F
100
AcDbEntity
  8
5
 62
     2
100
AcDbLine
 10
-20.185604
 20
-303.225482
 30
0.0
 11
-21.738518
 21
-297.429927
 31
0.0
  0
LINE
  5
437
330
1F
100
AcDbEntity
  8
5
 62
     2
100
AcDbLine
 10
-18.63269
 20
-297.429927
 30
0.0
 11
-21.738518
 21
-297.429927
 31
0.0
  0
LINE
  5
438
330
1F
100
AcDbEntity
  8
5
 62
     2
100
AcDbLine
 10
-20.185604
 20
-303.225482
 30
0.0
 11
-20.185604
 21
-201.325482
 31
0.0
  0
LINE
  5
439
330
1F
100
AcDbEntity
  8
5
 62
     2
100
AcDbLine
 10
-20.185604
 20
-201.325482
 30
0.0
 11
-21.738518
 21
-207.121037
 31
0.0
  0
LINE
  5
43A
330
1F
100
AcDbEntity
  8
5
 62
     2
100
AcDbLine
 10
-20.185604
 20
-201.325482
 30
0.0
 11
-18.63269
 21
-207.121037
 31
0.0
  0
LINE
  5
43B
330
1F
100
AcDbEntity
  8
5
 62
     2
100
AcDbLine
 10
-21.738518
 20
-207.121037
 30
0.0
 11
-18.63269
 21
-207.121037
 31
0.0
  0
LINE
  5
43C
330
1F
100
AcDbEntity
  8
5
 62
     2
100
AcDbLine
 10
18.785777
 20
-201.325482
 30
0.0
 11
-23.185604
 21
-201.325482
 31
0.0
  0
ENDBLK
  5
43D
330
1F
100
AcDbEntity
  8
5
100
AcDbBlockEnd
  0
BLOCK
  5
43E
330
20
100
AcDbEntity
  8
5
100
AcDbBlockBegin
  2
*D2
 70
     1
 10
0.0
 20
0.0
 30
0.0
  3
*D2
  1

  0
TEXT
  5
43F
330
20
100
AcDbEntity
  8
5
 62
     2
100
AcDbText
 10
-21.685604
 20
-128.220482
 30
0.0
 40
9.9
  1
167
 50
90.0
 41
0.7644000000000001
 72
     5
 11
-21.685604
 21
-110.202482
 31
0.0
100
AcDbText
  0
LINE
  5
440
330
20
100
AcDbEntity
  8
5
 62
     2
100
AcDbLine
 10
18.785777
 20
-201.325482
 30
0.0
 11
-23.185604
 21
-201.325482
 31
0.0
  0
LINE
  5
441
330
20
100
AcDbEntity
  8
5
 62
     2
100
AcDbLine
 10
-20.185604
 20
-201.325482
 30
0.0
 11
-18.63269
 21
-195.529927
 31
0.0
  0
LINE
  5
442
330
20
100
AcDbEntity
  8
5
 62
     2
100
AcDbLine
 10
-20.185604
 20
-201.325482
 30
0.0
 11
-21.738518
 21
-195.529927
 31
0.0
  0
LINE
  5
443
330
20
100
AcDbEntity
  8
5
 62
     2
100
AcDbLine
 10
-18.63269
 20
-195.529927
 30
0.0
 11
-21.738518
 21
-195.529927
 31
0.0
  0
LINE
  5
444
330
20
100
AcDbEntity
  8
5
 62
     2
100
AcDbLine
 10
-20.185604
 20
-201.325482
 30
0.0
 11
-20.185604
 21
-34.325482
 31
0.0
  0
LINE
  5
445
330
20
100
AcDbEntity
  8
5
 62
     2
100
AcDbLine
 10
-20.185604
 20
-34.325482
 30
0.0
 11
-21.738518
 21
-40.12103699999999
 31
0.0
  0
LINE
  5
446
330
20
100
AcDbEntity
  8
5
 62
     2
100
AcDbLine
 10
-20.185604
 20
-34.325482
 30
0.0
 11
-18.63269
 21
-40.12103699999999
 31
0.0
  0
LINE
  5
447
330
20
100
AcDbEntity
  8
5
 62
     2
100
AcDbLine
 10
-21.738518
 20
-40.12103699999999
 30
0.0
 11
-18.63269
 21
-40.12103699999999
 31
0.0
  0
LINE
  5
448
330
20
100
AcDbEntity
  8
5
 62
     2
100
AcDbLine
 10
27.385777
 20
-34.325482
 30
0.0
 11
-23.185604
 21
-34.325482
 31
0.0
  0
ENDBLK
  5
449
330
20
100
AcDbEntity
  8
5
100
AcDbBlockEnd
  0
BLOCK
  5
44A
330
21
100
AcDbEntity
  8
5
100
AcDbBlockBegin
  2
*D3
 70
     1
 10
0.0
 20
0.0
 30
0.0
  3
*D3
  1

  0
TEXT
  5
44B
330
21
100
AcDbEntity
  8
5
 62
     2
100
AcDbText
 10
-21.685604
 20
23.029518
 30
0.0
 40
9.9
  1
136
 50
90.0
 41
0.7800000000000001
 72
     5
 11
-21.685604
 21
41.04751799999999
 31
0.0
100
AcDbText
  0
LINE
  5
44C
330
21
100
AcDbEntity
  8
5
 62
     2
100
AcDbLine
 10
27.385777
 20
-34.325482
 30
0.0
 11
-23.185604
 21
-34.325482
 31
0.0
  0
LINE
  5
44D
330
21
100
AcDbEntity
  8
5
 62
     2
100
AcDbLine
 10
-20.185604
 20
-34.325482
 30
0.0
 11
-18.63269
 21
-28.529927
 31
0.0
  0
LINE
  5
44E
330
21
100
AcDbEntity
  8
5
 62
     2
100
AcDbLine
 10
-20.185604
 20
-34.325482
 30
0.0
 11
-21.738518
 21
-28.529927
 31
0.0
  0
LINE
  5
44F
330
21
100
AcDbEntity
  8
5
 62
     2
100
AcDbLine
 10
-18.63269
 20
-28.529927
 30
0.0
 11
-21.738518
 21
-28.529927
 31
0.0
  0
LINE
  5
450
330
21
100
AcDbEntity
  8
5
 62
     2
100
AcDbLine
 10
-20.185604
 20
-34.325482
 30
0.0
 11
-20.185604
 21
101.174518
 31
0.0
  0
LINE
  5
451
330
21
100
AcDbEntity
  8
5
 62
     2
100
AcDbLine
 10
-20.185604
 20
101.174518
 30
0.0
 11
-21.738518
 21
95.37896299999999
 31
0.0
  0
LINE
  5
452
330
21
100
AcDbEntity
  8
5
 62
     2
100
AcDbLine
 10
-20.185604
 20
101.174518
 30
0.0
 11
-18.63269
 21
95.37896299999999
 31
0.0
  0
LINE
  5
453
330
21
100
AcDbEntity
  8
5
 62
     2
100
AcDbLine
 10
-21.738518
 20
95.37896299999999
 30
0.0
 11
-18.63269
 21
95.37896299999999
 31
0.0
  0
LINE
  5
454
330
21
100
AcDbEntity
  8
5
 62
     2
100
AcDbLine
 10
61.385777
 20
101.174518
 30
0.0
 11
-23.185604
 21
101.174518
 31
0.0
  0
ENDBLK
  5
455
330
21
100
AcDbEntity
  8
5
100
AcDbBlockEnd
  0
BLOCK
  5
456
330
22
100
AcDbEntity
  8
5
100
AcDbBlockBegin
  2
*D4
 70
     1
 10
0.0
 20
0.0
 30
0.0
  3
*D4
  1

  0
TEXT
  5
457
330
22
100
AcDbEntity
  8
5
 62
     2
100
AcDbText
 10
55.525777
 20
143.991039
 30
0.0
 40
9.9
  1
%%c100
 41
0.7669565217391304
 72
     5
 11
80.473777
 21
143.991039
 31
0.0
100
AcDbText
  0
LINE
  5
458
330
22
100
AcDbEntity
  8
5
 62
     2
100
AcDbLine
 10
19.38577699999999
 20
89.174518
 30
0.0
 11
19.38577699999999
 21
145.491039
 31
0.0
  0
LINE
  5
459
330
22
100
AcDbEntity
  8
5
 62
     2
100
AcDbLine
 10
19.38577699999999
 20
142.491039
 30
0.0
 11
25.181332
 21
140.938125
 31
0.0
  0
LINE
  5
45A
330
22
100
AcDbEntity
  8
5
 62
     2
100
AcDbLine
 10
19.38577699999999
 20
142.491039
 30
0.0
 11
25.181332
 21
144.043954
 31
0.0
  0
LINE
  5
45B
330
22
100
AcDbEntity
  8
5
 62
     2
100
AcDbLine
 10
25.181332
 20
140.938125
 30
0.0
 11
25.181332
 21
144.043954
 31
0.0
  0
LINE
  5
45C
330
22
100
AcDbEntity
  8
5
 62
     2
100
AcDbLine
 10
19.38577699999999
 20
142.491039
 30
0.0
 11
119.385777
 21
142.491039
 31
0.0
  0
LINE
  5
45D
330
22
100
AcDbEntity
  8
5
 62
     2
100
AcDbLine
 10
119.385777
 20
142.491039
 30
0.0
 11
113.590222
 21
144.043954
 31
0.0
  0
LINE
  5
45E
330
22
100
AcDbEntity
  8
5
 62
     2
100
AcDbLine
 10
119.385777
 20
142.491039
 30
0.0
 11
113.590222
 21
140.938125
 31
0.0
  0
LINE
  5
45F
330
22
100
AcDbEntity
  8
5
 62
     2
100
AcDbLine
 10
113.590222
 20
144.043954
 30
0.0
 11
113.590222
 21
140.938125
 31
0.0
  0
LINE
  5
460
330
22
100
AcDbEntity
  8
5
 62
     2
100
AcDbLine
 10
119.385777
 20
89.174518
 30
0.0
 11
119.385777
 21
145.491039
 31
0.0
  0
ENDBLK
  5
461
330
22
100
AcDbEntity
  8
5
100
AcDbBlockEnd
  0
ENDSEC
  0
SECTION
  2
ENTITIES
  0
LINE
  5
2B
330
23
100
AcDbEntity
  8
1
  6
CENTER
 62
     2
100
AcDbLine
 10
-166.788672
 20
-201.325482
 30
0.0
 11
-341.69926
 21
-201.325482
 31
0.0
  0
LINE
  5
2C
330
23
100
AcDbEntity
  8
1
  6
CENTER
 62
     2
100
AcDbLine
 10
21.785777
 20
-201.325482
 30
0.0
 11
122.085777
 21
-201.325482
 31
0.0
  0
LINE
  5
2D
330
23
100
AcDbEntity
  8
1
100
AcDbLine
 10
-273.164223
 20
-295.325482
 30
0.0
 11
-235.164223
 21
-295.325482
 31
0.0
  0
LINE
  5
2E
330
23
100
AcDbEntity
  8
1
100
AcDbLine
 10
56.385777
 20
-295.325482
 30
0.0
 11
82.385777
 21
-295.325482
 31
0.0
  0
LINE
  5
2F
330
23
100
AcDbEntity
  8
1
100
AcDbLine
 10
43.385777
 20
-273.3254819999999
 30
0.0
 11
43.385777
 21
-129.325482
 31
0.0
  0
LINE
  5
30
330
23
100
AcDbEntity
  8
1
100
AcDbLine
 10
43.385777
 20
-129.325482
 30
0.0
 11
44.385777
 21
-128.325482
 31
0.0
  0
LINE
  5
31
330
23
100
AcDbEntity
  8
1
100
AcDbLine
 10
43.385777
 20
-273.3254819999999
 30
0.0
 11
44.385777
 21
-274.325482
 31
0.0
  0
LINE
  5
32
330
23
100
AcDbEntity
  8
1
100
AcDbLine
 10
95.38577700000001
 20
-273.3254819999999
 30
0.0
 11
95.38577700000001
 21
-129.325482
 31
0.0
  0
LINE
  5
33
330
23
100
AcDbEntity
  8
1
100
AcDbLine
 10
95.38577700000001
 20
-129.325482
 30
0.0
 11
94.38577700000001
 21
-128.325482
 31
0.0
  0
LINE
  5
34
330
23
100
AcDbEntity
  8
1
100
AcDbLine
 10
95.38577700000001
 20
-273.3254819999999
 30
0.0
 11
94.38577700000001
 21
-274.325482
 31
0.0
  0
LINE
  5
35
330
23
100
AcDbEntity
  8
1
100
AcDbLine
 10
-285.164223
 20
-46.325482
 30
0.0
 11
-223.164223
 21
-46.325482
 31
0.0
  0
LINE
  5
36
330
23
100
AcDbEntity
  8
1
100
AcDbLine
 10
-271.664223
 20
-51.325482
 30
0.0
 11
-271.664223
 21
-123.013606
 31
0.0
  0
LINE
  5
37
330
23
100
AcDbEntity
  8
1
100
AcDbLine
 10
-236.664223
 20
-51.325482
 30
0.0
 11
-236.664223
 21
-123.013606
 31
0.0
  0
LINE
  5
38
330
23
100
AcDbEntity
  8
1
100
AcDbLine
 10
-273.164223
 20
-297.725482
 30
0.0
 11
-273.164223
 21
-275.541384
 31
0.0
  0
LINE
  5
39
330
23
100
AcDbEntity
  8
1
100
AcDbLine
 10
-235.164223
 20
-297.725482
 30
0.0
 11
-235.164223
 21
-275.541384
 31
0.0
  0
LINE
  5
3A
330
23
100
AcDbEntity
  8
1
100
AcDbLine
 10
56.385777
 20
-297.725482
 30
0.0
 11
56.385777
 21
-274.783954
 31
0.0
  0
LINE
  5
3B
330
23
100
AcDbEntity
  8
1
100
AcDbLine
 10
82.385777
 20
-297.725482
 30
0.0
 11
82.385777
 21
-274.783954
 31
0.0
  0
LINE
  5
3C
330
23
100
AcDbEntity
  8
1
100
AcDbLine
 10
-289.164223
 20
-34.325482
 30
0.0
 11
-289.164223
 21
-42.325482
 31
0.0
  0
LINE
  5
3D
330
23
100
AcDbEntity
  8
1
100
AcDbLine
 10
-219.164223
 20
-34.325482
 30
0.0
 11
-219.164223
 21
-42.325482
 31
0.0
  0
LINE
  5
3E
330
23
100
AcDbEntity
  8
1
100
AcDbLine
 10
-257.164223
 20
-48.325482
 30
0.0
 11
-257.164223
 21
-59.266179
 31
0.0
  0
LINE
  5
3F
330
23
100
AcDbEntity
  8
1
100
AcDbLine
 10
-251.164223
 20
-48.325482
 30
0.0
 11
-251.164223
 21
-59.266179
 31
0.0
  0
LINE
  5
40
330
23
100
AcDbEntity
  8
1
100
AcDbLine
 10
55.38577700000001
 20
-139.908867
 30
0.0
 11
55.38577700000001
 21
-166.325482
 31
0.0
  0
LINE
  5
41
330
23
100
AcDbEntity
  8
1
100
AcDbLine
 10
55.38577700000001
 20
-182.325482
 30
0.0
 11
55.38577700000001
 21
-220.325482
 31
0.0
  0
LINE
  5
42
330
23
100
AcDbEntity
  8
1
100
AcDbLine
 10
83.385777
 20
-139.908867
 30
0.0
 11
83.385777
 21
-166.325482
 31
0.0
  0
LINE
  5
43
330
23
100
AcDbEntity
  8
1
100
AcDbLine
 10
83.385777
 20
-182.325482
 30
0.0
 11
83.385777
 21
-220.325482
 31
0.0
  0
LINE
  5
44
330
23
100
AcDbEntity
  8
1
100
AcDbLine
 10
61.385777
 20
-172.325482
 30
0.0
 11
77.385777
 21
-172.325482
 31
0.0
  0
LINE
  5
45
330
23
100
AcDbEntity
  8
1
100
AcDbLine
 10
61.385777
 20
-176.325482
 30
0.0
 11
77.385777
 21
-176.325482
 31
0.0
  0
LINE
  5
46
330
23
100
AcDbEntity
  8
1
100
AcDbLine
 10
55.38577700000001
 20
-262.742098
 30
0.0
 11
55.38577700000001
 21
-236.325482
 31
0.0
  0
LINE
  5
47
330
23
100
AcDbEntity
  8
1
100
AcDbLine
 10
83.385777
 20
-262.742098
 30
0.0
 11
83.385777
 21
-236.325482
 31
0.0
  0
LINE
  5
48
330
23
100
AcDbEntity
  8
1
100
AcDbLine
 10
61.385777
 20
-230.325482
 30
0.0
 11
77.385777
 21
-230.325482
 31
0.0
  0
LINE
  5
49
330
23
100
AcDbEntity
  8
1
100
AcDbLine
 10
61.385777
 20
-226.325482
 30
0.0
 11
77.385777
 21
-226.325482
 31
0.0
  0
LINE
  5
4A
330
23
100
AcDbEntity
  8
1
  6
CENTER
 62
     2
100
AcDbLine
 10
-267.164223
 20
-288.425482
 30
0.0
 11
-267.164223
 21
-307.784134
 31
0.0
  0
LINE
  5
4B
330
23
100
AcDbEntity
  8
1
  6
CENTER
 62
     2
100
AcDbLine
 10
-241.164223
 20
-289.275482
 30
0.0
 11
-241.164223
 21
-307.784134
 31
0.0
  0
LINE
  5
4C
330
23
100
AcDbEntity
  8
1
100
AcDbLine
 10
44.385777
 20
-128.325482
 30
0.0
 11
44.385777
 21
-274.325482
 31
0.0
  0
LINE
  5
4D
330
23
100
AcDbEntity
  8
1
100
AcDbLine
 10
94.38577700000001
 20
-274.325482
 30
0.0
 11
94.38577700000001
 21
-128.325482
 31
0.0
  0
LINE
  5
4E
330
23
100
AcDbEntity
  8
1
  6
CENTER
 62
     2
100
AcDbLine
 10
-278.914223
 20
-57.02735
 30
0.0
 11
-278.914223
 21
-29.177866
 31
0.0
  0
LINE
  5
4F
330
23
100
AcDbEntity
  8
1
  6
CENTER
 62
     2
100
AcDbLine
 10
-229.414223
 20
-57.02735
 30
0.0
 11
-229.414223
 21
-28.17751
 31
0.0
  0
LINE
  5
50
330
23
100
AcDbEntity
  8
1
100
AcDbLine
 10
38.385777
 20
-46.325482
 30
0.0
 11
100.385777
 21
-46.325482
 31
0.0
  0
LINE
  5
51
330
23
100
AcDbEntity
  8
1
100
AcDbLine
 10
51.885777
 20
-51.325482
 30
0.0
 11
51.885777
 21
-127.448772
 31
0.0
  0
LINE
  5
52
330
23
100
AcDbEntity
  8
1
100
AcDbLine
 10
86.88577700000001
 20
-51.325482
 30
0.0
 11
86.88577700000001
 21
-127.448772
 31
0.0
  0
LINE
  5
53
330
23
100
AcDbEntity
  8
1
100
AcDbLine
 10
34.38577700000001
 20
-34.325482
 30
0.0
 11
34.38577700000001
 21
-42.325482
 31
0.0
  0
LINE
  5
54
330
23
100
AcDbEntity
  8
1
100
AcDbLine
 10
104.385777
 20
-34.325482
 30
0.0
 11
104.385777
 21
-42.325482
 31
0.0
  0
LINE
  5
55
330
23
100
AcDbEntity
  8
1
100
AcDbLine
 10
66.385777
 20
-48.325482
 30
0.0
 11
66.385777
 21
-59.266179
 31
0.0
  0
LINE
  5
56
330
23
100
AcDbEntity
  8
1
100
AcDbLine
 10
72.385777
 20
-48.325482
 30
0.0
 11
72.385777
 21
-59.266179
 31
0.0
  0
LINE
  5
57
330
23
100
AcDbEntity
  8
1
  6
CENTER
 62
     2
100
AcDbLine
 10
44.635777
 20
-57.02735
 30
0.0
 11
44.635777
 21
-29.177866
 31
0.0
  0
LINE
  5
58
330
23
100
AcDbEntity
  8
1
  6
CENTER
 62
     2
100
AcDbLine
 10
94.13577700000001
 20
-57.02735
 30
0.0
 11
94.13577700000001
 21
-28.17751
 31
0.0
  0
ARC
  5
59
330
23
100
AcDbEntity
  8
1
100
AcDbCircle
 10
-285.164223
 20
-42.325482
 30
0.0
 40
4.0
100
AcDbArc
 50
180.0
 51
270.0
  0
ARC
  5
5A
330
23
100
AcDbEntity
  8
1
100
AcDbCircle
 10
-223.164223
 20
-42.325482
 30
0.0
 40
4.0
100
AcDbArc
 50
270.0
 51
360.0
  0
ARC
  5
5B
330
23
100
AcDbEntity
  8
1
100
AcDbCircle
 10
-231.664223
 20
-51.325482
 30
0.0
 40
5.0
100
AcDbArc
 50
90.0
 51
180.0
  0
ARC
  5
5C
330
23
100
AcDbEntity
  8
1
100
AcDbCircle
 10
-276.664223
 20
-51.325482
 30
0.0
 40
5.0
100
AcDbArc
 50
0.0
 51
90.0
  0
ARC
  5
5D
330
23
100
AcDbEntity
  8
1
100
AcDbCircle
 10
-221.664223
 20
-61.266179
 30
0.0
 40
15.0
100
AcDbArc
 50
94.528063
 51
180.0
  0
ARC
  5
5E
330
23
100
AcDbEntity
  8
1
100
AcDbCircle
 10
-286.664223
 20
-61.266179
 30
0.0
 40
15.0
100
AcDbArc
 50
0.0
 51
85.47193699999999
  0
LINE
  5
5F
330
23
100
AcDbEntity
  8
1
100
AcDbLine
 10
-264.948494
 20
-51.325482
 30
0.0
 11
-264.948494
 21
-66.02350099999999
 31
0.0
  0
LINE
  5
60
330
23
100
AcDbEntity
  8
1
100
AcDbLine
 10
-243.379952
 20
-51.325482
 30
0.0
 11
-243.379952
 21
-66.02350099999999
 31
0.0
  0
ARC
  5
61
330
23
100
AcDbEntity
  8
1
100
AcDbCircle
 10
-269.948494
 20
-51.325482
 30
0.0
 40
5.0
100
AcDbArc
 50
0.0
 51
90.0
  0
ARC
  5
62
330
23
100
AcDbEntity
  8
1
100
AcDbCircle
 10
-238.379952
 20
-51.325482
 30
0.0
 40
5.0
100
AcDbArc
 50
90.0
 51
180.0
  0
LINE
  5
63
330
23
100
AcDbEntity
  8
1
100
AcDbLine
 10
-241.156409
 20
-68.921279
 30
0.0
 11
-238.887766
 21
-69.52916
 31
0.0
  0
LINE
  5
64
330
23
100
AcDbEntity
  8
1
100
AcDbLine
 10
-267.172037
 20
-68.921279
 30
0.0
 11
-269.44068
 21
-69.52916
 31
0.0
  0
ARC
  5
65
330
23
100
AcDbEntity
  8
1
100
AcDbCircle
 10
-240.379952
 20
-66.02350099999999
 30
0.0
 40
3.0
100
AcDbArc
 50
180.0
 51
255.0
  0
ARC
  5
66
330
23
100
AcDbEntity
  8
1
100
AcDbCircle
 10
-267.948494
 20
-66.02350099999999
 30
0.0
 40
3.0
100
AcDbArc
 50
285.0
 51
0.0
  0
ARC
  5
67
330
23
100
AcDbEntity
  8
1
100
AcDbCircle
 10
-239.664223
 20
-72.426937
 30
0.0
 40
3.0
100
AcDbArc
 50
0.0
 51
75.0
  0
ARC
  5
68
330
23
100
AcDbEntity
  8
1
100
AcDbCircle
 10
-268.664223
 20
-72.426937
 30
0.0
 40
3.0
100
AcDbArc
 50
105.0
 51
180.0
  0
ARC
  5
69
330
23
100
AcDbEntity
  8
1
100
AcDbCircle
 10
-249.164223
 20
-48.325482
 30
0.0
 40
2.0
100
AcDbArc
 50
90.0
 51
180.0
  0
ARC
  5
6A
330
23
100
AcDbEntity
  8
1
100
AcDbCircle
 10
-259.164223
 20
-48.325482
 30
0.0
 40
2.0
100
AcDbArc
 50
360.0
 51
90.0
  0
ARC
  5
6B
330
23
100
AcDbEntity
  8
1
100
AcDbCircle
 10
-259.164223
 20
-59.266179
 30
0.0
 40
2.0
100
AcDbArc
 50
270.0
 51
360.0
  0
ARC
  5
6C
330
23
100
AcDbEntity
  8
1
100
AcDbCircle
 10
-249.164223
 20
-59.266179
 30
0.0
 40
2.0
100
AcDbArc
 50
180.0
 51
270.0
  0
ARC
  5
6D
330
23
100
AcDbEntity
  8
1
100
AcDbCircle
 10
-226.664223
 20
-123.013606
 30
0.0
 40
10.0
100
AcDbArc
 50
180.0
 51
250.650764
  0
ARC
  5
6E
330
23
100
AcDbEntity
  8
1
100
AcDbCircle
 10
-281.664223
 20
-123.013606
 30
0.0
 40
10.0
100
AcDbArc
 50
289.349236
 51
360.0
  0
ARC
  5
6F
330
23
100
AcDbEntity
  8
1
100
AcDbCircle
 10
-254.164223
 20
-171.325482
 30
0.0
 40
82.0
100
AcDbArc
 50
61.99665400000001
 51
72.60767
  0
ARC
  5
70
330
23
100
AcDbEntity
  8
1
100
AcDbCircle
 10
-254.164223
 20
-171.325482
 30
0.0
 40
82.0
100
AcDbArc
 50
107.39233
 51
118.003346
  0
ARC
  5
71
330
23
100
AcDbEntity
  8
1
100
AcDbCircle
 10
-226.664223
 20
-83.53168999999999
 30
0.0
 40
10.0
100
AcDbArc
 50
180.0
 51
252.60767
  0
ARC
  5
72
330
23
100
AcDbEntity
  8
1
100
AcDbCircle
 10
-281.664223
 20
-83.53168999999999
 30
0.0
 40
10.0
100
AcDbArc
 50
287.3923299999999
 51
360.0
  0
LINE
  5
73
330
23
100
AcDbEntity
  8
1
100
AcDbLine
 10
-293.339265
 20
-106.748566
 30
0.0
 11
-294.482545
 21
-103.988443
 31
0.0
  0
LINE
  5
74
330
23
100
AcDbEntity
  8
1
100
AcDbLine
 10
-214.989182
 20
-106.748566
 30
0.0
 11
-213.845901
 21
-103.988443
 31
0.0
  0
ARC
  5
75
330
23
100
AcDbEntity
  8
1
100
AcDbCircle
 10
-217.541419
 20
-102.457709
 30
0.0
 40
4.0
100
AcDbArc
 50
337.5
 51
61.99665400000001
  0
ARC
  5
76
330
23
100
AcDbEntity
  8
1
100
AcDbCircle
 10
-290.787027
 20
-102.457709
 30
0.0
 40
4.0
100
AcDbArc
 50
118.003346
 51
202.5
  0
LINE
  5
77
330
23
100
AcDbEntity
  8
1
100
AcDbLine
 10
-227.789522
 20
-114.185508
 30
0.0
 11
-231.107804
 21
-120.892893
 31
0.0
  0
LINE
  5
78
330
23
100
AcDbEntity
  8
1
100
AcDbLine
 10
-280.538925
 20
-114.185508
 30
0.0
 11
-277.220643
 21
-120.892893
 31
0.0
  0
ARC
  5
79
330
23
100
AcDbEntity
  8
1
100
AcDbCircle
 10
-222.59284
 20
-125.105421
 30
0.0
 40
9.5
100
AcDbArc
 50
153.677446
 51
247.5
  0
ARC
  5
7A
330
23
100
AcDbEntity
  8
1
100
AcDbCircle
 10
-285.735606
 20
-125.105421
 30
0.0
 40
9.5
100
AcDbArc
 50
292.5
 51
26.322554
  0
ARC
  5
7B
330
23
100
AcDbEntity
  8
1
100
AcDbCircle
 10
-219.722714
 20
-118.176324
 30
0.0
 40
9.0
100
AcDbArc
 50
85.420213
 51
153.677446
  0
ARC
  5
7C
330
23
100
AcDbEntity
  8
1
100
AcDbCircle
 10
-288.605732
 20
-118.176324
 30
0.0
 40
9.0
100
AcDbArc
 50
26.322554
 51
94.57978699999999
  0
ARC
  5
7D
330
23
100
AcDbEntity
  8
1
100
AcDbCircle
 10
-218.6847
 20
-105.217832
 30
0.0
 40
4.0
100
AcDbArc
 50
265.420213
 51
337.5
  0
ARC
  5
7E
330
23
100
AcDbEntity
  8
1
100
AcDbCircle
 10
-289.643747
 20
-105.217832
 30
0.0
 40
4.0
100
AcDbArc
 50
202.5
 51
274.579787
  0
LINE
  5
7F
330
23
100
AcDbEntity
  8
1
100
AcDbLine
 10
-231.369696
 20
-281.181036
 30
0.0
 11
-227.892585
 21
-289.575525
 31
0.0
  0
LINE
  5
80
330
23
100
AcDbEntity
  8
1
100
AcDbLine
 10
-276.958751
 20
-281.181036
 30
0.0
 11
-280.435862
 21
-289.575525
 31
0.0
  0
ARC
  5
81
330
23
100
AcDbEntity
  8
1
100
AcDbCircle
 10
-222.59284
 20
-277.545544
 30
0.0
 40
9.5
100
AcDbArc
 50
112.5
 51
202.5
  0
ARC
  5
82
330
23
100
AcDbEntity
  8
1
100
AcDbCircle
 10
-285.735606
 20
-277.545544
 30
0.0
 40
9.5
100
AcDbArc
 50
337.5
 51
67.5
  0
LINE
  5
83
330
23
100
AcDbEntity
  8
1
100
AcDbLine
 10
-270.164223
 20
-292.325482
 30
0.0
 11
-238.164223
 21
-292.325482
 31
0.0
  0
LINE
  5
84
330
23
100
AcDbEntity
  8
1
100
AcDbLine
 10
-232.268922
 20
-292.224376
 30
0.0
 11
-229.003408
 21
-292.110342
 31
0.0
  0
ARC
  5
85
330
23
100
AcDbEntity
  8
1
100
AcDbCircle
 10
-230.164223
 20
-275.541384
 30
0.0
 40
5.0
100
AcDbArc
 50
107.920213
 51
180.0
  0
ARC
  5
86
330
23
100
AcDbEntity
  8
1
100
AcDbCircle
 10
-278.164223
 20
-275.541384
 30
0.0
 40
5.0
100
AcDbArc
 50
0.0
 51
72.07978699999999
  0
ARC
  5
87
330
23
100
AcDbEntity
  8
1
100
AcDbCircle
 10
-230.664223
 20
-290.723575
 30
0.0
 40
3.0
100
AcDbArc
 50
0.0
 51
22.5
  0
ARC
  5
88
330
23
100
AcDbEntity
  8
1
100
AcDbCircle
 10
-229.051835
 20
-290.723575
 30
0.0
 40
1.387612
100
AcDbArc
 50
272.0
 51
360.0
  0
ARC
  5
89
330
23
100
AcDbEntity
  8
1
100
AcDbCircle
 10
-277.664223
 20
-290.723575
 30
0.0
 40
3.0
100
AcDbArc
 50
157.5
 51
180.0
  0
ARC
  5
8A
330
23
100
AcDbEntity
  8
1
100
AcDbCircle
 10
-279.276611
 20
-290.723575
 30
0.0
 40
1.387612
100
AcDbArc
 50
180.0
 51
268.0
  0
LINE
  5
8B
330
23
100
AcDbEntity
  8
1
100
AcDbLine
 10
-276.059525
 20
-292.224376
 30
0.0
 11
-279.325038
 21
-292.110342
 31
0.0
  0
ARC
  5
8C
330
23
100
AcDbEntity
  8
1
100
AcDbCircle
 10
-238.164223
 20
-289.325482
 30
0.0
 40
3.0
100
AcDbArc
 50
270.0
 51
360.0
  0
ARC
  5
8D
330
23
100
AcDbEntity
  8
1
100
AcDbCircle
 10
-270.164223
 20
-289.325482
 30
0.0
 40
3.0
100
AcDbArc
 50
180.0
 51
270.0
  0
ARC
  5
8E
330
23
100
AcDbEntity
  8
1
100
AcDbCircle
 10
-232.164223
 20
-295.222549
 30
0.0
 40
3.0
100
AcDbArc
 50
92.0
 51
180.0
  0
ARC
  5
8F
330
23
100
AcDbEntity
  8
1
100
AcDbCircle
 10
-276.164223
 20
-295.222549
 30
0.0
 40
3.0
100
AcDbArc
 50
360.0
 51
88.0
  0
LINE
  5
90
330
23
100
AcDbEntity
  8
1
100
AcDbLine
 10
-273.164223
 20
-296.125482
 30
0.0
 11
-235.164223
 21
-296.125482
 31
0.0
  0
LINE
  5
91
330
23
100
AcDbEntity
  8
1
100
AcDbLine
 10
-273.264223
 20
-297.725482
 30
0.0
 11
-235.064223
 21
-297.725482
 31
0.0
  0
LINE
  5
92
330
23
100
AcDbEntity
  8
1
100
AcDbLine
 10
-247.264223
 20
-299.225482
 30
0.0
 11
-235.064223
 21
-299.225482
 31
0.0
  0
LINE
  5
93
330
23
100
AcDbEntity
  8
1
100
AcDbLine
 10
-235.414223
 20
-299.225482
 30
0.0
 11
-235.414223
 21
-302.734735
 31
0.0
  0
LINE
  5
94
330
23
100
AcDbEntity
  8
1
100
AcDbLine
 10
-235.414223
 20
-302.734735
 30
0.0
 11
-236.264223
 21
-303.225482
 31
0.0
  0
LINE
  5
95
330
23
100
AcDbEntity
  8
1
100
AcDbLine
 10
-238.289223
 20
-299.225482
 30
0.0
 11
-238.289223
 21
-302.734735
 31
0.0
  0
ARC
  5
96
330
23
100
AcDbEntity
  8
1
100
AcDbCircle
 10
-236.851723
 20
-300.88678
 30
0.0
 40
2.341226999999999
100
AcDbArc
 50
232.121121
 51
307.878879
  0
ARC
  5
97
330
23
100
AcDbEntity
  8
1
100
AcDbCircle
 10
-241.164223
 20
-294.603007
 30
0.0
 40
8.625
100
AcDbArc
 50
250.528777
 51
289.471219
  0
LINE
  5
98
330
23
100
AcDbEntity
  8
1
100
AcDbLine
 10
-246.914223
 20
-299.225482
 30
0.0
 11
-246.914223
 21
-302.734735
 31
0.0
  0
LINE
  5
99
330
23
100
AcDbEntity
  8
1
100
AcDbLine
 10
-246.914223
 20
-302.734735
 30
0.0
 11
-246.064223
 21
-303.225482
 31
0.0
  0
LINE
  5
9A
330
23
100
AcDbEntity
  8
1
100
AcDbLine
 10
-246.064223
 20
-303.225482
 30
0.0
 11
-236.264223
 21
-303.225482
 31
0.0
  0
LINE
  5
9B
330
23
100
AcDbEntity
  8
1
100
AcDbLine
 10
-244.039223
 20
-299.225482
 30
0.0
 11
-244.039223
 21
-302.734735
 31
0.0
  0
ARC
  5
9C
330
23
100
AcDbEntity
  8
1
100
AcDbCircle
 10
-245.476723
 20
-300.88678
 30
0.0
 40
2.341226999999999
100
AcDbArc
 50
232.121121
 51
307.878879
  0
LINE
  5
9D
330
23
100
AcDbEntity
  8
1
100
AcDbLine
 10
-235.064223
 20
-297.725482
 30
0.0
 11
-235.064223
 21
-299.225482
 31
0.0
  0
LINE
  5
9E
330
23
100
AcDbEntity
  8
1
100
AcDbLine
 10
-247.264223
 20
-299.225482
 30
0.0
 11
-247.264223
 21
-297.725482
 31
0.0
  0
LINE
  5
9F
330
23
100
AcDbEntity
  8
1
100
AcDbLine
 10
-241.164223
 20
-299.225482
 30
0.0
 11
-241.664223
 21
-297.725482
 31
0.0
  0
LINE
  5
A0
330
23
100
AcDbEntity
  8
1
100
AcDbLine
 10
-241.164223
 20
-297.725482
 30
0.0
 11
-240.664223
 21
-299.225482
 31
0.0
  0
LINE
  5
A1
330
23
100
AcDbEntity
  8
1
100
AcDbLine
 10
-273.264223
 20
-299.225482
 30
0.0
 11
-261.064223
 21
-299.225482
 31
0.0
  0
LINE
  5
A2
330
23
100
AcDbEntity
  8
1
100
AcDbLine
 10
-261.414223
 20
-299.225482
 30
0.0
 11
-261.414223
 21
-302.734735
 31
0.0
  0
LINE
  5
A3
330
23
100
AcDbEntity
  8
1
100
AcDbLine
 10
-261.414223
 20
-302.734735
 30
0.0
 11
-262.264223
 21
-303.225482
 31
0.0
  0
LINE
  5
A4
330
23
100
AcDbEntity
  8
1
100
AcDbLine
 10
-264.289223
 20
-299.225482
 30
0.0
 11
-264.289223
 21
-302.734735
 31
0.0
  0
ARC
  5
A5
330
23
100
AcDbEntity
  8
1
100
AcDbCircle
 10
-262.851723
 20
-300.88678
 30
0.0
 40
2.341226999999999
100
AcDbArc
 50
232.121121
 51
307.878879
  0
ARC
  5
A6
330
23
100
AcDbEntity
  8
1
100
AcDbCircle
 10
-267.164223
 20
-294.603007
 30
0.0
 40
8.625
100
AcDbArc
 50
250.528777
 51
289.471219
  0
LINE
  5
A7
330
23
100
AcDbEntity
  8
1
100
AcDbLine
 10
-272.914223
 20
-299.225482
 30
0.0
 11
-272.914223
 21
-302.734735
 31
0.0
  0
LINE
  5
A8
330
23
100
AcDbEntity
  8
1
100
AcDbLine
 10
-272.914223
 20
-302.734735
 30
0.0
 11
-272.064223
 21
-303.225482
 31
0.0
  0
LINE
  5
A9
330
23
100
AcDbEntity
  8
1
100
AcDbLine
 10
-272.064223
 20
-303.225482
 30
0.0
 11
-262.264223
 21
-303.225482
 31
0.0
  0
LINE
  5
AA
330
23
100
AcDbEntity
  8
1
100
AcDbLine
 10
-270.039223
 20
-299.225482
 30
0.0
 11
-270.039223
 21
-302.734735
 31
0.0
  0
ARC
  5
AB
330
23
100
AcDbEntity
  8
1
100
AcDbCircle
 10
-271.476723
 20
-300.88678
 30
0.0
 40
2.341226999999999
100
AcDbArc
 50
232.121121
 51
307.878879
  0
LINE
  5
AC
330
23
100
AcDbEntity
  8
1
100
AcDbLine
 10
-261.064223
 20
-297.725482
 30
0.0
 11
-261.064223
 21
-299.225482
 31
0.0
  0
LINE
  5
AD
330
23
100
AcDbEntity
  8
1
100
AcDbLine
 10
-273.264223
 20
-299.225482
 30
0.0
 11
-273.264223
 21
-297.725482
 31
0.0
  0
LINE
  5
AE
330
23
100
AcDbEntity
  8
1
100
AcDbLine
 10
-267.164223
 20
-299.225482
 30
0.0
 11
-267.664223
 21
-297.725482
 31
0.0
  0
LINE
  5
AF
330
23
100
AcDbEntity
  8
1
100
AcDbLine
 10
-267.164223
 20
-297.725482
 30
0.0
 11
-266.664223
 21
-299.225482
 31
0.0
  0
ARC
  5
B0
330
23
100
AcDbEntity
  8
1
100
AcDbCircle
 10
38.385777
 20
-42.325482
 30
0.0
 40
4.0
100
AcDbArc
 50
180.0
 51
270.0
  0
ARC
  5
B1
330
23
100
AcDbEntity
  8
1
100
AcDbCircle
 10
100.385777
 20
-42.325482
 30
0.0
 40
4.0
100
AcDbArc
 50
270.0
 51
360.0
  0
ARC
  5
B2
330
23
100
AcDbEntity
  8
1
100
AcDbCircle
 10
91.88577700000001
 20
-51.325482
 30
0.0
 40
5.0
100
AcDbArc
 50
90.0
 51
180.0
  0
ARC
  5
B3
330
23
100
AcDbEntity
  8
1
100
AcDbCircle
 10
46.885777
 20
-51.325482
 30
0.0
 40
5.0
100
AcDbArc
 50
0.0
 51
90.0
  0
ARC
  5
B4
330
23
100
AcDbEntity
  8
1
100
AcDbCircle
 10
101.885777
 20
-61.266179
 30
0.0
 40
15.0
100
AcDbArc
 50
94.528063
 51
180.0
  0
ARC
  5
B5
330
23
100
AcDbEntity
  8
1
100
AcDbCircle
 10
36.88577700000001
 20
-61.266179
 30
0.0
 40
15.0
100
AcDbArc
 50
0.0
 51
85.47193699999999
  0
LINE
  5
B6
330
23
100
AcDbEntity
  8
1
100
AcDbLine
 10
58.601506
 20
-51.325482
 30
0.0
 11
58.601506
 21
-66.02350099999999
 31
0.0
  0
LINE
  5
B7
330
23
100
AcDbEntity
  8
1
100
AcDbLine
 10
80.170048
 20
-51.325482
 30
0.0
 11
80.170048
 21
-66.02350099999999
 31
0.0
  0
ARC
  5
B8
330
23
100
AcDbEntity
  8
1
100
AcDbCircle
 10
53.601506
 20
-51.325482
 30
0.0
 40
5.0
100
AcDbArc
 50
0.0
 51
90.0
  0
ARC
  5
B9
330
23
100
AcDbEntity
  8
1
100
AcDbCircle
 10
85.170048
 20
-51.325482
 30
0.0
 40
5.0
100
AcDbArc
 50
90.0
 51
180.0
  0
LINE
  5
BA
330
23
100
AcDbEntity
  8
1
100
AcDbLine
 10
82.39359099999999
 20
-68.921279
 30
0.0
 11
84.662234
 21
-69.52916
 31
0.0
  0
LINE
  5
BB
330
23
100
AcDbEntity
  8
1
100
AcDbLine
 10
56.377963
 20
-68.921279
 30
0.0
 11
54.10931999999999
 21
-69.52916
 31
0.0
  0
ARC
  5
BC
330
23
100
AcDbEntity
  8
1
100
AcDbCircle
 10
83.17004799999999
 20
-66.02350099999999
 30
0.0
 40
3.0
100
AcDbArc
 50
180.0
 51
255.0
  0
ARC
  5
BD
330
23
100
AcDbEntity
  8
1
100
AcDbCircle
 10
55.601506
 20
-66.02350099999999
 30
0.0
 40
3.0
100
AcDbArc
 50
285.0
 51
0.0
  0
ARC
  5
BE
330
23
100
AcDbEntity
  8
1
100
AcDbCircle
 10
83.885777
 20
-72.426937
 30
0.0
 40
3.0
100
AcDbArc
 50
0.0
 51
75.0
  0
ARC
  5
BF
330
23
100
AcDbEntity
  8
1
100
AcDbCircle
 10
54.885777
 20
-72.426937
 30
0.0
 40
3.0
100
AcDbArc
 50
105.0
 51
180.0
  0
ARC
  5
C0
330
23
100
AcDbEntity
  8
1
100
AcDbCircle
 10
74.385777
 20
-48.325482
 30
0.0
 40
2.0
100
AcDbArc
 50
90.0
 51
180.0
  0
ARC
  5
C1
330
23
100
AcDbEntity
  8
1
100
AcDbCircle
 10
64.385777
 20
-48.325482
 30
0.0
 40
2.0
100
AcDbArc
 50
360.0
 51
90.0
  0
ARC
  5
C2
330
23
100
AcDbEntity
  8
1
100
AcDbCircle
 10
64.385777
 20
-59.266179
 30
0.0
 40
2.0
100
AcDbArc
 50
270.0
 51
360.0
  0
ARC
  5
C3
330
23
100
AcDbEntity
  8
1
100
AcDbCircle
 10
74.385777
 20
-59.266179
 30
0.0
 40
2.0
100
AcDbArc
 50
180.0
 51
270.0
  0
LINE
  5
C4
330
23
100
AcDbEntity
  8
1
100
AcDbLine
 10
44.385777
 20
-128.325482
 30
0.0
 11
46.885777
 21
-128.325482
 31
0.0
  0
LINE
  5
C5
330
23
100
AcDbEntity
  8
1
100
AcDbLine
 10
91.88577700000001
 20
-128.325482
 30
0.0
 11
94.38577700000001
 21
-128.325482
 31
0.0
  0
ARC
  5
C6
330
23
100
AcDbEntity
  8
1
100
AcDbCircle
 10
91.88577700000001
 20
-123.325482
 30
0.0
 40
5.0
100
AcDbArc
 50
180.0
 51
270.0
  0
ARC
  5
C7
330
23
100
AcDbEntity
  8
1
100
AcDbCircle
 10
46.885777
 20
-123.325482
 30
0.0
 40
5.0
100
AcDbArc
 50
270.0
 51
360.0
  0
ARC
  5
C8
330
23
100
AcDbEntity
  8
1
100
AcDbCircle
 10
91.88577700000001
 20
-127.448772
 30
0.0
 40
5.0
100
AcDbArc
 50
180.0
 51
270.0
  0
ARC
  5
C9
330
23
100
AcDbEntity
  8
1
100
AcDbCircle
 10
46.885777
 20
-127.448772
 30
0.0
 40
5.0
100
AcDbArc
 50
270.0
 51
360.0
  0
LINE
  5
CA
330
23
100
AcDbEntity
  8
1
100
AcDbLine
 10
65.885777
 20
-86.53169
 30
0.0
 11
65.885777
 21
-130.882277
 31
0.0
  0
LINE
  5
CB
330
23
100
AcDbEntity
  8
1
100
AcDbLine
 10
72.88577700000001
 20
-86.53169
 30
0.0
 11
72.88577700000001
 21
-130.882277
 31
0.0
  0
ARC
  5
CC
330
23
100
AcDbEntity
  8
1
100
AcDbCircle
 10
75.885777
 20
-86.53169
 30
0.0
 40
3.0
100
AcDbArc
 50
90.0
 51
180.0
  0
ARC
  5
CD
330
23
100
AcDbEntity
  8
1
100
AcDbCircle
 10
62.88577700000001
 20
-86.53169
 30
0.0
 40
3.0
100
AcDbArc
 50
0.0
 51
90.0
  0
ARC
  5
CE
330
23
100
AcDbEntity
  8
1
100
AcDbCircle
 10
62.88577700000001
 20
-130.882277
 30
0.0
 40
3.0
100
AcDbArc
 50
270.0
 51
360.0
  0
ARC
  5
CF
330
23
100
AcDbEntity
  8
1
100
AcDbCircle
 10
75.885777
 20
-130.882277
 30
0.0
 40
3.0
100
AcDbArc
 50
180.0
 51
270.0
  0
LINE
  5
D0
330
23
100
AcDbEntity
  8
1
100
AcDbLine
 10
44.385777
 20
-274.325482
 30
0.0
 11
52.385777
 21
-274.325482
 31
0.0
  0
LINE
  5
D1
330
23
100
AcDbEntity
  8
1
100
AcDbLine
 10
86.385777
 20
-274.325482
 30
0.0
 11
94.38577700000001
 21
-274.325482
 31
0.0
  0
ARC
  5
D2
330
23
100
AcDbEntity
  8
1
100
AcDbCircle
 10
86.385777
 20
-278.325482
 30
0.0
 40
4.0
100
AcDbArc
 50
90.0
 51
180.0
  0
ARC
  5
D3
330
23
100
AcDbEntity
  8
1
100
AcDbCircle
 10
52.385777
 20
-278.325482
 30
0.0
 40
4.0
100
AcDbArc
 50
0.0
 51
90.0
  0
ARC
  5
D4
330
23
100
AcDbEntity
  8
1
100
AcDbCircle
 10
86.385777
 20
-274.783954
 30
0.0
 40
4.0
100
AcDbArc
 50
90.0
 51
180.0
  0
ARC
  5
D5
330
23
100
AcDbEntity
  8
1
100
AcDbCircle
 10
52.385777
 20
-274.783954
 30
0.0
 40
4.0
100
AcDbArc
 50
0.0
 51
90.0
  0
LINE
  5
D6
330
23
100
AcDbEntity
  8
1
100
AcDbLine
 10
65.885777
 20
-271.768688
 30
0.0
 11
65.885777
 21
-292.325482
 31
0.0
  0
LINE
  5
D7
330
23
100
AcDbEntity
  8
1
100
AcDbLine
 10
72.88577700000001
 20
-271.768688
 30
0.0
 11
72.88577700000001
 21
-292.325482
 31
0.0
  0
ARC
  5
D8
330
23
100
AcDbEntity
  8
1
100
AcDbCircle
 10
75.885777
 20
-271.768688
 30
0.0
 40
3.0
100
AcDbArc
 50
90.0
 51
180.0
  0
ARC
  5
D9
330
23
100
AcDbEntity
  8
1
100
AcDbCircle
 10
62.88577700000001
 20
-271.768688
 30
0.0
 40
3.0
100
AcDbArc
 50
0.0
 51
90.0
  0
ARC
  5
DA
330
23
100
AcDbEntity
  8
1
100
AcDbCircle
 10
75.885777
 20
-292.325482
 30
0.0
 40
3.0
100
AcDbArc
 50
180.0
 51
270.0
  0
ARC
  5
DB
330
23
100
AcDbEntity
  8
1
100
AcDbCircle
 10
62.88577700000001
 20
-292.325482
 30
0.0
 40
3.0
100
AcDbArc
 50
270.0
 51
360.0
  0
LINE
  5
DC
330
23
100
AcDbEntity
  8
1
100
AcDbLine
 10
59.385777
 20
-292.325482
 30
0.0
 11
62.88577700000001
 21
-292.325482
 31
0.0
  0
LINE
  5
DD
330
23
100
AcDbEntity
  8
1
100
AcDbLine
 10
75.885777
 20
-292.325482
 30
0.0
 11
79.385777
 21
-292.325482
 31
0.0
  0
ARC
  5
DE
330
23
100
AcDbEntity
  8
1
100
AcDbCircle
 10
79.385777
 20
-289.325482
 30
0.0
 40
3.0
100
AcDbArc
 50
270.0
 51
360.0
  0
ARC
  5
DF
330
23
100
AcDbEntity
  8
1
100
AcDbCircle
 10
59.385777
 20
-289.325482
 30
0.0
 40
3.0
100
AcDbArc
 50
180.0
 51
270.0
  0
LINE
  5
E0
330
23
100
AcDbEntity
  8
1
100
AcDbLine
 10
56.385777
 20
-296.125482
 30
0.0
 11
82.385777
 21
-296.125482
 31
0.0
  0
LINE
  5
E1
330
23
100
AcDbEntity
  8
1
100
AcDbLine
 10
56.385777
 20
-297.725482
 30
0.0
 11
82.385777
 21
-297.725482
 31
0.0
  0
LINE
  5
E2
330
23
100
AcDbEntity
  8
1
100
AcDbLine
 10
63.285777
 20
-299.225482
 30
0.0
 11
75.485777
 21
-299.225482
 31
0.0
  0
LINE
  5
E3
330
23
100
AcDbEntity
  8
1
100
AcDbLine
 10
74.385777
 20
-299.225482
 30
0.0
 11
74.385777
 21
-303.225482
 31
0.0
  0
LINE
  5
E4
330
23
100
AcDbEntity
  8
1
100
AcDbLine
 10
69.385777
 20
-299.225482
 30
0.0
 11
69.385777
 21
-302.734735
 31
0.0
  0
ARC
  5
E5
330
23
100
AcDbEntity
  8
1
100
AcDbCircle
 10
71.885777
 20
-296.612275
 30
0.0
 40
6.613208
100
AcDbArc
 50
247.7882049999999
 51
292.211795
  0
LINE
  5
E6
330
23
100
AcDbEntity
  8
1
100
AcDbLine
 10
64.385777
 20
-299.225482
 30
0.0
 11
64.385777
 21
-303.225482
 31
0.0
  0
LINE
  5
E7
330
23
100
AcDbEntity
  8
1
100
AcDbLine
 10
64.385777
 20
-303.225482
 30
0.0
 11
74.385777
 21
-303.225482
 31
0.0
  0
ARC
  5
E8
330
23
100
AcDbEntity
  8
1
100
AcDbCircle
 10
66.885777
 20
-296.612275
 30
0.0
 40
6.613208
100
AcDbArc
 50
247.7882049999999
 51
292.211795
  0
LINE
  5
E9
330
23
100
AcDbEntity
  8
1
100
AcDbLine
 10
75.485777
 20
-297.725482
 30
0.0
 11
75.485777
 21
-299.225482
 31
0.0
  0
LINE
  5
EA
330
23
100
AcDbEntity
  8
1
100
AcDbLine
 10
63.285777
 20
-299.225482
 30
0.0
 11
63.285777
 21
-297.725482
 31
0.0
  0
LINE
  5
EB
330
23
100
AcDbEntity
  8
1
100
AcDbLine
 10
61.385777
 20
-133.908867
 30
0.0
 11
77.385777
 21
-133.908867
 31
0.0
  0
LINE
  5
EC
330
23
100
AcDbEntity
  8
1
100
AcDbLine
 10
61.385777
 20
-268.742098
 30
0.0
 11
77.385777
 21
-268.742098
 31
0.0
  0
ARC
  5
ED
330
23
100
AcDbEntity
  8
1
100
AcDbCircle
 10
77.385777
 20
-139.908867
 30
0.0
 40
6.0
100
AcDbArc
 50
0.0
 51
90.0
  0
ARC
  5
EE
330
23
100
AcDbEntity
  8
1
100
AcDbCircle
 10
61.385777
 20
-139.908867
 30
0.0
 40
6.0
100
AcDbArc
 50
90.0
 51
180.0
  0
ARC
  5
EF
330
23
100
AcDbEntity
  8
1
100
AcDbCircle
 10
61.385777
 20
-166.325482
 30
0.0
 40
6.0
100
AcDbArc
 50
180.0
 51
270.0
  0
ARC
  5
F0
330
23
100
AcDbEntity
  8
1
100
AcDbCircle
 10
77.385777
 20
-166.325482
 30
0.0
 40
6.0
100
AcDbArc
 50
270.0
 51
360.0
  0
ARC
  5
F1
330
23
100
AcDbEntity
  8
1
100
AcDbCircle
 10
77.385777
 20
-236.325482
 30
0.0
 40
6.0
100
AcDbArc
 50
0.0
 51
90.0
  0
ARC
  5
F2
330
23
100
AcDbEntity
  8
1
100
AcDbCircle
 10
61.385777
 20
-236.325482
 30
0.0
 40
6.0
100
AcDbArc
 50
90.0
 51
180.0
  0
ARC
  5
F3
330
23
100
AcDbEntity
  8
1
100
AcDbCircle
 10
61.385777
 20
-262.742098
 30
0.0
 40
6.0
100
AcDbArc
 50
180.0
 51
270.0
  0
ARC
  5
F4
330
23
100
AcDbEntity
  8
1
100
AcDbCircle
 10
77.385777
 20
-262.742098
 30
0.0
 40
6.0
100
AcDbArc
 50
270.0
 51
360.0
  0
ARC
  5
F5
330
23
100
AcDbEntity
  8
1
100
AcDbCircle
 10
77.385777
 20
-182.325482
 30
0.0
 40
6.0
100
AcDbArc
 50
0.0
 51
90.0
  0
ARC
  5
F6
330
23
100
AcDbEntity
  8
1
100
AcDbCircle
 10
61.385777
 20
-182.325482
 30
0.0
 40
6.0
100
AcDbArc
 50
90.0
 51
180.0
  0
ARC
  5
F7
330
23
100
AcDbEntity
  8
1
100
AcDbCircle
 10
61.385777
 20
-220.325482
 30
0.0
 40
6.0
100
AcDbArc
 50
180.0
 51
270.0
  0
ARC
  5
F8
330
23
100
AcDbEntity
  8
1
100
AcDbCircle
 10
77.385777
 20
-220.325482
 30
0.0
 40
6.0
100
AcDbArc
 50
270.0
 51
360.0
  0
LINE
  5
F9
330
23
100
AcDbEntity
  8
1
100
AcDbLine
 10
80.70627700000001
 20
-164.347448
 30
0.0
 11
80.70627700000001
 21
-150.854539
 31
0.0
  0
LINE
  5
FA
330
23
100
AcDbEntity
  8
1
100
AcDbLine
 10
58.065277
 20
-164.347448
 30
0.0
 11
58.065277
 21
-150.854539
 31
0.0
  0
ARC
  5
FB
330
23
100
AcDbEntity
  8
1
100
AcDbCircle
 10
77.385777
 20
-164.347448
 30
0.0
 40
3.3205
100
AcDbArc
 50
270.0
 51
360.0
  0
ARC
  5
FC
330
23
100
AcDbEntity
  8
1
100
AcDbCircle
 10
61.385777
 20
-164.347448
 30
0.0
 40
3.3205
100
AcDbArc
 50
180.0
 51
270.0
  0
ARC
  5
FD
330
23
100
AcDbEntity
  8
1
100
AcDbCircle
 10
61.385777
 20
-186.116571
 30
0.0
 40
3.3205
100
AcDbArc
 50
90.0
 51
180.0
  0
ARC
  5
FE
330
23
100
AcDbEntity
  8
1
100
AcDbCircle
 10
77.385777
 20
-186.116571
 30
0.0
 40
3.3205
100
AcDbArc
 50
0.0
 51
90.0
  0
LINE
  5
FF
330
23
100
AcDbEntity
  8
1
100
AcDbLine
 10
61.385777
 20
-147.5340389999999
 30
0.0
 11
77.385777
 21
-147.5340389999999
 31
0.0
  0
ARC
  5
100
330
23
100
AcDbEntity
  8
1
100
AcDbCircle
 10
61.385777
 20
-150.854539
 30
0.0
 40
3.3205
100
AcDbArc
 50
90.0
 51
180.0
  0
ARC
  5
101
330
23
100
AcDbEntity
  8
1
100
AcDbCircle
 10
77.385777
 20
-150.854539
 30
0.0
 40
3.3205
100
AcDbArc
 50
0.0
 51
90.0
  0
LINE
  5
102
330
23
100
AcDbEntity
  8
1
100
AcDbLine
 10
80.70627700000001
 20
-251.796426
 30
0.0
 11
80.70627700000001
 21
-238.303517
 31
0.0
  0
LINE
  5
103
330
23
100
AcDbEntity
  8
1
100
AcDbLine
 10
80.70627700000001
 20
-216.534394
 30
0.0
 11
80.70627700000001
 21
-186.116571
 31
0.0
  0
LINE
  5
104
330
23
100
AcDbEntity
  8
1
100
AcDbLine
 10
58.065277
 20
-251.796426
 30
0.0
 11
58.065277
 21
-238.303517
 31
0.0
  0
LINE
  5
105
330
23
100
AcDbEntity
  8
1
100
AcDbLine
 10
58.065277
 20
-216.534394
 30
0.0
 11
58.065277
 21
-186.116571
 31
0.0
  0
LINE
  5
106
330
23
100
AcDbEntity
  8
1
100
AcDbLine
 10
61.385777
 20
-255.116926
 30
0.0
 11
77.385777
 21
-255.116926
 31
0.0
  0
ARC
  5
107
330
23
100
AcDbEntity
  8
1
100
AcDbCircle
 10
77.385777
 20
-251.796426
 30
0.0
 40
3.3205
100
AcDbArc
 50
270.0
 51
360.0
  0
ARC
  5
108
330
23
100
AcDbEntity
  8
1
100
AcDbCircle
 10
61.385777
 20
-251.796426
 30
0.0
 40
3.3205
100
AcDbArc
 50
180.0
 51
270.0
  0
ARC
  5
109
330
23
100
AcDbEntity
  8
1
100
AcDbCircle
 10
61.385777
 20
-238.303517
 30
0.0
 40
3.3205
100
AcDbArc
 50
90.0
 51
180.0
  0
ARC
  5
10A
330
23
100
AcDbEntity
  8
1
100
AcDbCircle
 10
77.385777
 20
-238.303517
 30
0.0
 40
3.3205
100
AcDbArc
 50
0.0
 51
90.0
  0
ARC
  5
10B
330
23
100
AcDbEntity
  8
1
100
AcDbCircle
 10
77.385777
 20
-216.534394
 30
0.0
 40
3.3205
100
AcDbArc
 50
270.0
 51
360.0
  0
ARC
  5
10C
330
23
100
AcDbEntity
  8
1
100
AcDbCircle
 10
61.385777
 20
-216.534394
 30
0.0
 40
3.3205
100
AcDbArc
 50
180.0
 51
270.0
  0
CIRCLE
  5
10D
330
23
100
AcDbEntity
  8
1
100
AcDbCircle
 10
-254.164223
 20
-201.325482
 30
0.0
 40
72.0
  0
CIRCLE
  5
10E
330
23
100
AcDbEntity
  8
1
100
AcDbCircle
 10
-254.164223
 20
-201.325482
 30
0.0
 40
73.0
  0
CIRCLE
  5
10F
330
23
100
AcDbEntity
  8
1
100
AcDbCircle
 10
-254.164223
 20
-201.325482
 30
0.0
 40
52.0
  0
CIRCLE
  5
110
330
23
100
AcDbEntity
  8
1
100
AcDbCircle
 10
-254.164223
 20
-201.325482
 30
0.0
 40
56.0
  0
CIRCLE
  5
111
330
23
100
AcDbEntity
  8
1
100
AcDbCircle
 10
-254.164223
 20
-201.325482
 30
0.0
 40
64.90000000000001
  0
CIRCLE
  5
112
330
23
100
AcDbEntity
  8
1
100
AcDbCircle
 10
-254.164223
 20
-201.325482
 30
0.0
 40
68.0
  0
LINE
  5
113
330
23
100
AcDbEntity
  8
1
100
AcDbLine
 10
42.260777
 20
-136.425482
 30
0.0
 11
42.260777
 21
-266.225482
 31
0.0
  0
LINE
  5
114
330
23
100
AcDbEntity
  8
1
100
AcDbLine
 10
96.51077700000001
 20
-136.425482
 30
0.0
 11
96.51077700000001
 21
-266.225482
 31
0.0
  0
LINE
  5
115
330
23
100
AcDbEntity
  8
1
100
AcDbLine
 10
95.505329
 20
-133.654915
 30
0.0
 11
96.51077700000001
 21
-136.425482
 31
0.0
  0
LINE
  5
116
330
23
100
AcDbEntity
  8
1
100
AcDbLine
 10
43.266225
 20
-133.654915
 30
0.0
 11
42.260777
 21
-136.425482
 31
0.0
  0
LINE
  5
117
330
23
100
AcDbEntity
  8
1
100
AcDbLine
 10
95.505329
 20
-268.99605
 30
0.0
 11
96.51077700000001
 21
-266.225482
 31
0.0
  0
LINE
  5
118
330
23
100
AcDbEntity
  8
1
100
AcDbLine
 10
43.266225
 20
-268.99605
 30
0.0
 11
42.260777
 21
-266.225482
 31
0.0
  0
ARC
  5
119
330
23
100
AcDbEntity
  8
1
100
AcDbCircle
 10
95.035322
 20
-133.825482
 30
0.0
 40
0.5
100
AcDbArc
 50
19.945998
 51
45.499934
  0
ARC
  5
11A
330
23
100
AcDbEntity
  8
1
100
AcDbCircle
 10
43.73623199999999
 20
-133.825482
 30
0.0
 40
0.5
100
AcDbArc
 50
134.500066
 51
160.054002
  0
ARC
  5
11B
330
23
100
AcDbEntity
  8
1
100
AcDbCircle
 10
95.035322
 20
-268.825482
 30
0.0
 40
0.5
100
AcDbArc
 50
314.500066
 51
340.054002
  0
ARC
  5
11C
330
23
100
AcDbEntity
  8
1
100
AcDbCircle
 10
43.73623199999999
 20
-268.825482
 30
0.0
 40
0.5
100
AcDbArc
 50
199.945998
 51
225.499934
  0
LINE
  5
11D
330
23
100
AcDbEntity
  8
1
100
AcDbLine
 10
67.88577700000001
 20
-109.217832
 30
0.0
 11
70.885777
 21
-109.217832
 31
0.0
  0
LINE
  5
11E
330
23
100
AcDbEntity
  8
1
100
AcDbLine
 10
67.88577700000001
 20
-100.706928
 30
0.0
 11
70.885777
 21
-100.706928
 31
0.0
  0
ARC
  5
11F
330
23
100
AcDbEntity
  8
1
100
AcDbCircle
 10
70.885777
 20
-102.706928
 30
0.0
 40
2.0
100
AcDbArc
 50
0.0
 51
90.0
  0
ARC
  5
120
330
23
100
AcDbEntity
  8
1
100
AcDbCircle
 10
67.88577700000001
 20
-102.706928
 30
0.0
 40
2.0
100
AcDbArc
 50
90.0
 51
180.0
  0
ARC
  5
121
330
23
100
AcDbEntity
  8
1
100
AcDbCircle
 10
67.88577700000001
 20
-107.217832
 30
0.0
 40
2.0
100
AcDbArc
 50
180.0
 51
270.0
  0
ARC
  5
122
330
23
100
AcDbEntity
  8
1
100
AcDbCircle
 10
70.885777
 20
-107.217832
 30
0.0
 40
2.0
100
AcDbArc
 50
270.0
 51
360.0
  0
LINE
  5
123
330
23
100
AcDbEntity
  8
1
100
AcDbLine
 10
-257.164223
 20
-61.266179
 30
0.0
 11
-251.164223
 21
-61.266179
 31
0.0
  0
LINE
  5
124
330
23
100
AcDbEntity
  8
1
100
AcDbLine
 10
72.385777
 20
-61.266179
 30
0.0
 11
66.385777
 21
-61.266179
 31
0.0
  0
LINE
  5
125
330
23
100
AcDbEntity
  8
1
100
AcDbLine
 10
72.88577700000001
 20
-83.53168999999999
 30
0.0
 11
65.885777
 21
-83.53168999999999
 31
0.0
  0
LINE
  5
126
330
23
100
AcDbEntity
  8
1
100
AcDbLine
 10
70.885777
 20
-292.325482
 30
0.0
 11
67.88577700000001
 21
-292.325482
 31
0.0
  0
ARC
  5
127
330
23
100
AcDbEntity
  8
1
100
AcDbCircle
 10
70.885777
 20
-290.325482
 30
0.0
 40
2.0
100
AcDbArc
 50
270.0
 51
360.0
  0
ARC
  5
128
330
23
100
AcDbEntity
  8
1
100
AcDbCircle
 10
67.88577700000001
 20
-290.325482
 30
0.0
 40
2.0
100
AcDbArc
 50
180.0
 51
270.0
  0
LINE
  5
129
330
23
100
AcDbEntity
  8
1
100
AcDbLine
 10
51.885777
 20
-132.448772
 30
0.0
 11
62.88577700000001
 21
-132.448772
 31
0.0
  0
LINE
  5
12A
330
23
100
AcDbEntity
  8
1
100
AcDbLine
 10
75.885777
 20
-132.448772
 30
0.0
 11
86.88577700000001
 21
-132.448772
 31
0.0
  0
LINE
  5
12B
330
23
100
AcDbEntity
  8
1
100
AcDbLine
 10
56.385777
 20
-270.783954
 30
0.0
 11
62.88577700000001
 21
-270.783954
 31
0.0
  0
LINE
  5
12C
330
23
100
AcDbEntity
  8
1
100
AcDbLine
 10
75.885777
 20
-270.783954
 30
0.0
 11
82.385777
 21
-270.783954
 31
0.0
  0
LINE
  5
12D
330
23
100
AcDbEntity
  8
1
100
AcDbLine
 10
61.385777
 20
-182.796071
 30
0.0
 11
77.385777
 21
-182.796071
 31
0.0
  0
LINE
  5
12E
330
23
100
AcDbEntity
  8
1
100
AcDbLine
 10
61.385777
 20
-219.854894
 30
0.0
 11
77.385777
 21
-219.854894
 31
0.0
  0
LINE
  5
12F
330
23
100
AcDbEntity
  8
1
100
AcDbLine
 10
82.31673599999998
 20
-178.907055
 30
0.0
 11
80.70627700000001
 21
-182.796071
 31
0.0
  0
LINE
  5
130
330
23
100
AcDbEntity
  8
1
100
AcDbLine
 10
56.454818
 20
-178.907055
 30
0.0
 11
58.065277
 21
-182.796071
 31
0.0
  0
LINE
  5
131
330
23
100
AcDbEntity
  8
1
100
AcDbLine
 10
58.065277
 20
-219.854894
 30
0.0
 11
56.454818
 21
-223.74391
 31
0.0
  0
LINE
  5
132
330
23
100
AcDbEntity
  8
1
100
AcDbLine
 10
80.70627700000001
 20
-219.854894
 30
0.0
 11
82.31673599999998
 21
-223.74391
 31
0.0
  0
LINE
  5
133
330
23
100
AcDbEntity
  8
1
100
AcDbLine
 10
61.385777
 20
-167.667948
 30
0.0
 11
77.385777
 21
-167.667948
 31
0.0
  0
LINE
  5
134
330
23
100
AcDbEntity
  8
1
100
AcDbLine
 10
61.385777
 20
-234.983017
 30
0.0
 11
77.385777
 21
-234.983017
 31
0.0
  0
LINE
  5
135
330
23
100
AcDbEntity
  8
1
100
AcDbLine
 10
82.08220199999999
 20
-170.059595
 30
0.0
 11
80.70627700000001
 21
-167.667948
 31
0.0
  0
LINE
  5
136
330
23
100
AcDbEntity
  8
1
100
AcDbLine
 10
56.68935199999999
 20
-170.059595
 30
0.0
 11
58.065277
 21
-167.667948
 31
0.0
  0
LINE
  5
137
330
23
100
AcDbEntity
  8
1
100
AcDbLine
 10
82.08220199999999
 20
-232.59137
 30
0.0
 11
80.70627700000001
 21
-234.983017
 31
0.0
  0
LINE
  5
138
330
23
100
AcDbEntity
  8
1
100
AcDbLine
 10
56.68935199999999
 20
-232.59137
 30
0.0
 11
58.065277
 21
-234.983017
 31
0.0
  0
LINE
  5
139
330
23
100
AcDbEntity
  8
1
100
AcDbLine
 10
82.73880699999999
 20
-137.1986879999999
 30
0.0
 11
80.70627700000001
 21
-147.5340389999999
 31
0.0
  0
LINE
  5
13A
330
23
100
AcDbEntity
  8
1
100
AcDbLine
 10
56.032747
 20
-137.1986879999999
 30
0.0
 11
58.065277
 21
-147.5340389999999
 31
0.0
  0
LINE
  5
13B
330
23
100
AcDbEntity
  8
1
100
AcDbLine
 10
80.70627700000001
 20
-255.116926
 30
0.0
 11
82.73880699999999
 21
-265.452276
 31
0.0
  0
LINE
  5
13C
330
23
100
AcDbEntity
  8
1
100
AcDbLine
 10
56.032747
 20
-265.452276
 30
0.0
 11
58.065277
 21
-255.116926
 31
0.0
  0
ARC
  5
13D
330
23
100
AcDbEntity
  8
1
100
AcDbCircle
 10
75.885777
 20
-129.448772
 30
0.0
 40
3.0
100
AcDbArc
 50
180.0
 51
270.0
  0
ARC
  5
13E
330
23
100
AcDbEntity
  8
1
100
AcDbCircle
 10
62.88577700000001
 20
-129.448772
 30
0.0
 40
3.0
100
AcDbArc
 50
270.0
 51
360.0
  0
ARC
  5
13F
330
23
100
AcDbEntity
  8
1
100
AcDbCircle
 10
75.885777
 20
-273.783954
 30
0.0
 40
3.0
100
AcDbArc
 50
90.0
 51
180.0
  0
ARC
  5
140
330
23
100
AcDbEntity
  8
1
100
AcDbCircle
 10
62.88577700000001
 20
-273.783954
 30
0.0
 40
3.0
100
AcDbArc
 50
0.0
 51
90.0
  0
ARC
  5
141
330
23
100
AcDbEntity
  8
1
100
AcDbCircle
 10
62.88577700000001
 20
-289.325482
 30
0.0
 40
3.0
100
AcDbArc
 50
270.0
 51
0.0
  0
ARC
  5
142
330
23
100
AcDbEntity
  8
1
100
AcDbCircle
 10
75.885777
 20
-289.325482
 30
0.0
 40
3.0
100
AcDbArc
 50
180.0
 51
270.0
  0
LINE
  5
143
330
23
100
AcDbEntity
  8
1
  6
CENTER
 62
     2
100
AcDbLine
 10
-278.914223
 20
259.42941
 30
0.0
 11
-278.914223
 21
274.764783
 31
0.0
  0
LINE
  5
144
330
23
100
AcDbEntity
  8
1
  6
CENTER
 62
     2
100
AcDbLine
 10
-229.414223
 20
259.977307
 30
0.0
 11
-229.414223
 21
275.312665
 31
0.0
  0
LINE
  5
145
330
23
100
AcDbEntity
  8
1
  6
CENTER
 62
     2
100
AcDbLine
 10
-286.507762
 20
267.574518
 30
0.0
 11
-271.179771
 21
267.574518
 31
0.0
  0
LINE
  5
146
330
23
100
AcDbEntity
  8
1
  6
CENTER
 62
     2
100
AcDbLine
 10
-236.877365
 20
267.574518
 30
0.0
 11
-221.945353
 21
267.574518
 31
0.0
  0
LINE
  5
147
330
23
100
AcDbEntity
  8
1
  6
CENTER
 62
     2
100
AcDbLine
 10
-287.481807
 20
218.074518
 30
0.0
 11
-271.179771
 21
218.074518
 31
0.0
  0
LINE
  5
148
330
23
100
AcDbEntity
  8
1
  6
CENTER
 62
     2
100
AcDbLine
 10
-236.877365
 20
218.074518
 30
0.0
 11
-222.006221
 21
218.074518
 31
0.0
  0
CIRCLE
  5
149
330
23
100
AcDbEntity
  8
1
  6
DASHED
100
AcDbCircle
 10
-278.914223
 20
267.574518
 30
0.0
 40
4.5
  0
CIRCLE
  5
14A
330
23
100
AcDbEntity
  8
1
  6
DASHED
100
AcDbCircle
 10
-278.914223
 20
218.074518
 30
0.0
 40
4.5
  0
CIRCLE
  5
14B
330
23
100
AcDbEntity
  8
1
  6
DASHED
100
AcDbCircle
 10
-229.414223
 20
218.074518
 30
0.0
 40
4.5
  0
CIRCLE
  5
14C
330
23
100
AcDbEntity
  8
1
  6
DASHED
100
AcDbCircle
 10
-229.414223
 20
267.574518
 30
0.0
 40
4.5
  0
LINE
  5
14D
330
23
100
AcDbEntity
  8
1
  6
CENTER
 62
     2
100
AcDbLine
 10
-278.914223
 20
209.538617
 30
0.0
 11
-278.914223
 21
226.080044
 31
0.0
  0
LINE
  5
14E
330
23
100
AcDbEntity
  8
1
  6
CENTER
 62
     2
100
AcDbLine
 10
-229.414223
 20
210.122189
 30
0.0
 11
-229.414223
 21
226.140988
 31
0.0
  0
LINE
  5
14F
330
23
100
AcDbEntity
  8
1
  6
DASHED
100
AcDbLine
 10
-279.164223
 20
277.824518
 30
0.0
 11
-229.164223
 21
277.824518
 31
0.0
  0
LINE
  5
150
330
23
100
AcDbEntity
  8
1
  6
DASHED
100
AcDbLine
 10
-279.164223
 20
207.824518
 30
0.0
 11
-229.164223
 21
207.824518
 31
0.0
  0
LINE
  5
151
330
23
100
AcDbEntity
  8
1
  6
DASHED
100
AcDbLine
 10
-289.164223
 20
267.824518
 30
0.0
 11
-289.164223
 21
217.824518
 31
0.0
  0
LINE
  5
152
330
23
100
AcDbEntity
  8
1
  6
DASHED
100
AcDbLine
 10
-219.164223
 20
267.824518
 30
0.0
 11
-219.164223
 21
217.824518
 31
0.0
  0
ARC
  5
153
330
23
100
AcDbEntity
  8
1
  6
DASHED
100
AcDbCircle
 10
-229.164223
 20
267.824518
 30
0.0
 40
10.0
100
AcDbArc
 50
0.0
 51
90.0
  0
ARC
  5
154
330
23
100
AcDbEntity
  8
1
  6
DASHED
100
AcDbCircle
 10
-279.164223
 20
267.824518
 30
0.0
 40
10.0
100
AcDbArc
 50
90.0
 51
180.0
  0
ARC
  5
155
330
23
100
AcDbEntity
  8
1
  6
DASHED
100
AcDbCircle
 10
-279.164223
 20
217.824518
 30
0.0
 40
10.0
100
AcDbArc
 50
180.0
 51
270.0
  0
ARC
  5
156
330
23
100
AcDbEntity
  8
1
  6
DASHED
100
AcDbCircle
 10
-229.164223
 20
217.824518
 30
0.0
 40
10.0
100
AcDbArc
 50
270.0
 51
360.0
  0
LINE
  5
157
330
23
100
AcDbEntity
  8
1
100
AcDbLine
 10
-182.164223
 20
216.824518
 30
0.0
 11
-181.164223
 21
217.824518
 31
0.0
  0
LINE
  5
158
330
23
100
AcDbEntity
  8
1
100
AcDbLine
 10
-182.164223
 20
268.824518
 30
0.0
 11
-181.164223
 21
267.824518
 31
0.0
  0
LINE
  5
159
330
23
100
AcDbEntity
  8
1
100
AcDbLine
 10
-185.57851
 20
233.79858
 30
0.0
 11
-185.57851
 21
251.850455
 31
0.0
  0
LINE
  5
15A
330
23
100
AcDbEntity
  8
1
100
AcDbLine
 10
-187.171686
 20
234.824518
 30
0.0
 11
-187.171686
 21
250.824518
 31
0.0
  0
ARC
  5
15B
330
23
100
AcDbEntity
  8
1
100
AcDbCircle
 10
-193.171686
 20
250.824518
 30
0.0
 40
6.0
100
AcDbArc
 50
0.0
 51
90.0
  0
ARC
  5
15C
330
23
100
AcDbEntity
  8
1
100
AcDbCircle
 10
-193.171686
 20
234.824518
 30
0.0
 40
6.0
100
AcDbArc
 50
270.0
 51
360.0
  0
LINE
  5
15D
330
23
100
AcDbEntity
  8
1
  6
DASHED
100
AcDbLine
 10
-213.541419
 20
241.324518
 30
0.0
 11
-213.541419
 21
244.324518
 31
0.0
  0
LINE
  5
15E
330
23
100
AcDbEntity
  8
1
  6
DASHED
100
AcDbLine
 10
-219.164223
 20
246.324518
 30
0.0
 11
-215.541419
 21
246.324518
 31
0.0
  0
LINE
  5
15F
330
23
100
AcDbEntity
  8
1
  6
DASHED
100
AcDbLine
 10
-219.164223
 20
239.324518
 30
0.0
 11
-215.541419
 21
239.324518
 31
0.0
  0
LINE
  5
160
330
23
100
AcDbEntity
  8
1
100
AcDbLine
 10
-181.164223
 20
217.824518
 30
0.0
 11
-181.164223
 21
224.987883
 31
0.0
  0
LINE
  5
161
330
23
100
AcDbEntity
  8
1
100
AcDbLine
 10
-181.164223
 20
260.6611529999999
 30
0.0
 11
-181.164223
 21
267.824518
 31
0.0
  0
ARC
  5
162
330
23
100
AcDbEntity
  8
1
100
AcDbCircle
 10
-186.164223
 20
260.6611529999999
 30
0.0
 40
5.0
100
AcDbArc
 50
306.776932
 51
360.0
  0
ARC
  5
163
330
23
100
AcDbEntity
  8
1
100
AcDbCircle
 10
-186.164223
 20
224.987883
 30
0.0
 40
5.0
100
AcDbArc
 50
0.0
 51
53.223068
  0
ARC
  5
164
330
23
100
AcDbEntity
  8
1
100
AcDbCircle
 10
-179.57851
 20
251.850455
 30
0.0
 40
6.0
100
AcDbArc
 50
126.776932
 51
180.0
  0
ARC
  5
165
330
23
100
AcDbEntity
  8
1
100
AcDbCircle
 10
-179.57851
 20
233.79858
 30
0.0
 40
6.0
100
AcDbArc
 50
180.0
 51
233.223068
  0
LINE
  5
166
330
23
100
AcDbEntity
  8
1
100
AcDbLine
 10
-198.235697
 20
234.824518
 30
0.0
 11
-198.235697
 21
250.824518
 31
0.0
  0
ARC
  5
167
330
23
100
AcDbEntity
  8
1
100
AcDbCircle
 10
-201.556205
 20
250.824518
 30
0.0
 40
3.320508
100
AcDbArc
 50
0.0
 51
90.0
  0
ARC
  5
168
330
23
100
AcDbEntity
  8
1
100
AcDbCircle
 10
-201.556205
 20
234.824518
 30
0.0
 40
3.320508
100
AcDbArc
 50
270.0
 51
0.0
  0
ARC
  5
169
330
23
100
AcDbEntity
  8
1
  6
DASHED
100
AcDbCircle
 10
-215.541419
 20
244.324518
 30
0.0
 40
2.0
100
AcDbArc
 50
0.0
 51
90.0
  0
ARC
  5
16A
330
23
100
AcDbEntity
  8
1
  6
DASHED
100
AcDbCircle
 10
-215.541419
 20
241.324518
 30
0.0
 40
2.0
100
AcDbArc
 50
270.0
 51
360.0
  0
LINE
  5
16B
330
23
100
AcDbEntity
  8
1
100
AcDbLine
 10
-190.267435
 20
256.074787
 30
0.0
 11
-198.235697
 21
254.145026
 31
0.0
  0
LINE
  5
16C
330
23
100
AcDbEntity
  8
1
100
AcDbLine
 10
-190.267435
 20
229.574249
 30
0.0
 11
-198.235697
 21
231.50401
 31
0.0
  0
LINE
  5
16D
330
23
100
AcDbEntity
  8
1
100
AcDbLine
 10
-326.164223
 20
216.824518
 30
0.0
 11
-327.164223
 21
217.824518
 31
0.0
  0
LINE
  5
16E
330
23
100
AcDbEntity
  8
1
100
AcDbLine
 10
-326.164223
 20
268.824518
 30
0.0
 11
-327.164223
 21
267.824518
 31
0.0
  0
LINE
  5
16F
330
23
100
AcDbEntity
  8
1
100
AcDbLine
 10
-322.749936
 20
233.79858
 30
0.0
 11
-322.749936
 21
251.850455
 31
0.0
  0
LINE
  5
170
330
23
100
AcDbEntity
  8
1
100
AcDbLine
 10
-321.15676
 20
234.824518
 30
0.0
 11
-321.15676
 21
250.824518
 31
0.0
  0
ARC
  5
171
330
23
100
AcDbEntity
  8
1
100
AcDbCircle
 10
-315.15676
 20
250.824518
 30
0.0
 40
6.0
100
AcDbArc
 50
90.0
 51
180.0
  0
ARC
  5
172
330
23
100
AcDbEntity
  8
1
100
AcDbCircle
 10
-315.15676
 20
234.824518
 30
0.0
 40
6.0
100
AcDbArc
 50
180.0
 51
270.0
  0
LINE
  5
173
330
23
100
AcDbEntity
  8
1
  6
DASHED
100
AcDbLine
 10
-294.787027
 20
241.324518
 30
0.0
 11
-294.787027
 21
244.324518
 31
0.0
  0
LINE
  5
174
330
23
100
AcDbEntity
  8
1
  6
DASHED
100
AcDbLine
 10
-289.164223
 20
246.324518
 30
0.0
 11
-292.787027
 21
246.324518
 31
0.0
  0
LINE
  5
175
330
23
100
AcDbEntity
  8
1
  6
DASHED
100
AcDbLine
 10
-289.164223
 20
239.324518
 30
0.0
 11
-292.787027
 21
239.324518
 31
0.0
  0
LINE
  5
176
330
23
100
AcDbEntity
  8
1
100
AcDbLine
 10
-327.164223
 20
217.824518
 30
0.0
 11
-327.164223
 21
224.987883
 31
0.0
  0
LINE
  5
177
330
23
100
AcDbEntity
  8
1
100
AcDbLine
 10
-327.164223
 20
260.6611529999999
 30
0.0
 11
-327.164223
 21
267.824518
 31
0.0
  0
ARC
  5
178
330
23
100
AcDbEntity
  8
1
100
AcDbCircle
 10
-322.164223
 20
260.6611529999999
 30
0.0
 40
5.0
100
AcDbArc
 50
180.0
 51
233.223068
  0
ARC
  5
179
330
23
100
AcDbEntity
  8
1
100
AcDbCircle
 10
-322.164223
 20
224.987883
 30
0.0
 40
5.0
100
AcDbArc
 50
126.776932
 51
180.0
  0
ARC
  5
17A
330
23
100
AcDbEntity
  8
1
100
AcDbCircle
 10
-328.749936
 20
251.850455
 30
0.0
 40
6.0
100
AcDbArc
 50
0.0
 51
53.223068
  0
ARC
  5
17B
330
23
100
AcDbEntity
  8
1
100
AcDbCircle
 10
-328.749936
 20
233.79858
 30
0.0
 40
6.0
100
AcDbArc
 50
306.776932
 51
360.0
  0
LINE
  5
17C
330
23
100
AcDbEntity
  8
1
100
AcDbLine
 10
-310.092749
 20
234.824518
 30
0.0
 11
-310.092749
 21
250.824518
 31
0.0
  0
ARC
  5
17D
330
23
100
AcDbEntity
  8
1
100
AcDbCircle
 10
-306.772241
 20
250.824518
 30
0.0
 40
3.320508
100
AcDbArc
 50
90.0
 51
180.0
  0
ARC
  5
17E
330
23
100
AcDbEntity
  8
1
100
AcDbCircle
 10
-306.772241
 20
234.824518
 30
0.0
 40
3.320508
100
AcDbArc
 50
180.0
 51
270.0
  0
ARC
  5
17F
330
23
100
AcDbEntity
  8
1
  6
DASHED
100
AcDbCircle
 10
-292.787027
 20
244.324518
 30
0.0
 40
2.0
100
AcDbArc
 50
90.0
 51
180.0
  0
ARC
  5
180
330
23
100
AcDbEntity
  8
1
  6
DASHED
100
AcDbCircle
 10
-292.787027
 20
241.324518
 30
0.0
 40
2.0
100
AcDbArc
 50
180.0
 51
270.0
  0
LINE
  5
181
330
23
100
AcDbEntity
  8
1
100
AcDbLine
 10
-318.061012
 20
256.074787
 30
0.0
 11
-310.092749
 21
254.145026
 31
0.0
  0
LINE
  5
182
330
23
100
AcDbEntity
  8
1
100
AcDbLine
 10
-318.061012
 20
229.574249
 30
0.0
 11
-310.092749
 21
231.50401
 31
0.0
  0
LINE
  5
183
330
23
100
AcDbEntity
  8
1
100
AcDbLine
 10
-189.264223
 20
269.949518
 30
0.0
 11
-186.493656
 21
268.94407
 31
0.0
  0
LINE
  5
184
330
23
100
AcDbEntity
  8
1
100
AcDbLine
 10
-189.264223
 20
215.699518
 30
0.0
 11
-186.493656
 21
216.704965
 31
0.0
  0
LINE
  5
185
330
23
100
AcDbEntity
  8
1
100
AcDbLine
 10
-319.064223
 20
269.949518
 30
0.0
 11
-321.83479
 21
268.94407
 31
0.0
  0
LINE
  5
186
330
23
100
AcDbEntity
  8
1
100
AcDbLine
 10
-319.064223
 20
215.699518
 30
0.0
 11
-321.83479
 21
216.704965
 31
0.0
  0
ARC
  5
187
330
23
100
AcDbEntity
  8
1
100
AcDbCircle
 10
-186.664223
 20
268.474063
 30
0.0
 40
0.5
100
AcDbArc
 50
44.500066
 51
70.054002
  0
ARC
  5
188
330
23
100
AcDbEntity
  8
1
100
AcDbCircle
 10
-186.664223
 20
217.174973
 30
0.0
 40
0.5
100
AcDbArc
 50
289.9459979999999
 51
315.499934
  0
ARC
  5
189
330
23
100
AcDbEntity
  8
1
100
AcDbCircle
 10
-321.664223
 20
268.474063
 30
0.0
 40
0.5
100
AcDbArc
 50
109.945998
 51
135.499934
  0
ARC
  5
18A
330
23
100
AcDbEntity
  8
1
100
AcDbCircle
 10
-321.664223
 20
217.174973
 30
0.0
 40
0.5
100
AcDbArc
 50
224.500066
 51
250.054002
  0
LINE
  5
18B
330
23
100
AcDbEntity
  8
1
  6
DASHED
100
AcDbLine
 10
-219.392613
 20
269.949518
 30
0.0
 11
-212.161433
 21
269.949518
 31
0.0
  0
LINE
  5
18C
330
23
100
AcDbEntity
  8
1
100
AcDbLine
 10
-212.161433
 20
269.949518
 30
0.0
 11
-189.264223
 21
269.949518
 31
0.0
  0
LINE
  5
18D
330
23
100
AcDbEntity
  8
1
  6
DASHED
100
AcDbLine
 10
-219.214349
 20
268.824518
 30
0.0
 11
-211.45591
 21
268.824518
 31
0.0
  0
LINE
  5
18E
330
23
100
AcDbEntity
  8
1
100
AcDbLine
 10
-211.45591
 20
268.824518
 30
0.0
 11
-182.164223
 21
268.824518
 31
0.0
  0
LINE
  5
18F
330
23
100
AcDbEntity
  8
1
  6
DASHED
100
AcDbLine
 10
-219.164223
 20
267.824518
 30
0.0
 11
-210.862953
 21
267.824518
 31
0.0
  0
LINE
  5
190
330
23
100
AcDbEntity
  8
1
100
AcDbLine
 10
-210.862953
 20
267.824518
 30
0.0
 11
-181.164223
 21
267.824518
 31
0.0
  0
LINE
  5
191
330
23
100
AcDbEntity
  8
1
100
AcDbLine
 10
-193.171686
 20
256.824518
 30
0.0
 11
-206.164223
 21
256.824518
 31
0.0
  0
LINE
  5
192
330
23
100
AcDbEntity
  8
1
  6
DASHED
100
AcDbLine
 10
-206.164223
 20
256.824518
 30
0.0
 11
-219.164223
 21
256.824518
 31
0.0
  0
LINE
  5
193
330
23
100
AcDbEntity
  8
1
100
AcDbLine
 10
-201.556205
 20
254.145026
 30
0.0
 11
-205.462621
 21
254.145026
 31
0.0
  0
LINE
  5
194
330
23
100
AcDbEntity
  8
1
  6
DASHED
100
AcDbLine
 10
-205.462621
 20
254.145026
 30
0.0
 11
-219.164223
 21
254.145026
 31
0.0
  0
LINE
  5
195
330
23
100
AcDbEntity
  8
1
100
AcDbLine
 10
-201.556205
 20
231.50401
 30
0.0
 11
-205.462621
 21
231.50401
 31
0.0
  0
LINE
  5
196
330
23
100
AcDbEntity
  8
1
  6
DASHED
100
AcDbLine
 10
-205.462621
 20
231.50401
 30
0.0
 11
-219.164223
 21
231.50401
 31
0.0
  0
LINE
  5
197
330
23
100
AcDbEntity
  8
1
100
AcDbLine
 10
-193.171686
 20
228.824518
 30
0.0
 11
-206.164223
 21
228.824518
 31
0.0
  0
LINE
  5
198
330
23
100
AcDbEntity
  8
1
  6
DASHED
100
AcDbLine
 10
-206.164223
 20
228.824518
 30
0.0
 11
-219.164223
 21
228.824518
 31
0.0
  0
LINE
  5
199
330
23
100
AcDbEntity
  8
1
  6
DASHED
100
AcDbLine
 10
-219.164223
 20
217.824518
 30
0.0
 11
-210.862953
 21
217.824518
 31
0.0
  0
LINE
  5
19A
330
23
100
AcDbEntity
  8
1
100
AcDbLine
 10
-210.862953
 20
217.824518
 30
0.0
 11
-181.164223
 21
217.824518
 31
0.0
  0
LINE
  5
19B
330
23
100
AcDbEntity
  8
1
  6
DASHED
100
AcDbLine
 10
-219.214349
 20
216.824518
 30
0.0
 11
-211.45591
 21
216.824518
 31
0.0
  0
LINE
  5
19C
330
23
100
AcDbEntity
  8
1
100
AcDbLine
 10
-211.45591
 20
216.824518
 30
0.0
 11
-182.164223
 21
216.824518
 31
0.0
  0
LINE
  5
19D
330
23
100
AcDbEntity
  8
1
  6
DASHED
100
AcDbLine
 10
-219.392613
 20
215.699518
 30
0.0
 11
-212.161433
 21
215.699518
 31
0.0
  0
LINE
  5
19E
330
23
100
AcDbEntity
  8
1
100
AcDbLine
 10
-212.161433
 20
215.699518
 30
0.0
 11
-189.264223
 21
215.699518
 31
0.0
  0
LINE
  5
19F
330
23
100
AcDbEntity
  8
1
100
AcDbLine
 10
-319.064223
 20
269.949518
 30
0.0
 11
-296.167013
 21
269.949518
 31
0.0
  0
LINE
  5
1A0
330
23
100
AcDbEntity
  8
1
  6
DASHED
100
AcDbLine
 10
-296.167013
 20
269.949518
 30
0.0
 11
-288.935834
 21
269.949518
 31
0.0
  0
LINE
  5
1A1
330
23
100
AcDbEntity
  8
1
  6
DASHED
100
AcDbLine
 10
-289.114098
 20
268.824518
 30
0.0
 11
-296.872536
 21
268.824518
 31
0.0
  0
LINE
  5
1A2
330
23
100
AcDbEntity
  8
1
100
AcDbLine
 10
-296.872536
 20
268.824518
 30
0.0
 11
-326.164223
 21
268.824518
 31
0.0
  0
LINE
  5
1A3
330
23
100
AcDbEntity
  8
1
  6
DASHED
100
AcDbLine
 10
-289.164223
 20
267.824518
 30
0.0
 11
-297.465493
 21
267.824518
 31
0.0
  0
LINE
  5
1A4
330
23
100
AcDbEntity
  8
1
100
AcDbLine
 10
-297.465493
 20
267.824518
 30
0.0
 11
-327.164223
 21
267.824518
 31
0.0
  0
LINE
  5
1A5
330
23
100
AcDbEntity
  8
1
100
AcDbLine
 10
-315.15676
 20
256.824518
 30
0.0
 11
-302.164223
 21
256.824518
 31
0.0
  0
LINE
  5
1A6
330
23
100
AcDbEntity
  8
1
  6
DASHED
100
AcDbLine
 10
-302.164223
 20
256.824518
 30
0.0
 11
-289.164223
 21
256.824518
 31
0.0
  0
LINE
  5
1A7
330
23
100
AcDbEntity
  8
1
100
AcDbLine
 10
-306.772241
 20
254.145026
 30
0.0
 11
-302.865826
 21
254.145026
 31
0.0
  0
LINE
  5
1A8
330
23
100
AcDbEntity
  8
1
  6
DASHED
100
AcDbLine
 10
-302.865826
 20
254.145026
 30
0.0
 11
-289.164223
 21
254.145026
 31
0.0
  0
LINE
  5
1A9
330
23
100
AcDbEntity
  8
1
100
AcDbLine
 10
-306.772241
 20
231.50401
 30
0.0
 11
-302.865826
 21
231.50401
 31
0.0
  0
LINE
  5
1AA
330
23
100
AcDbEntity
  8
1
  6
DASHED
100
AcDbLine
 10
-302.865826
 20
231.50401
 30
0.0
 11
-289.164223
 21
231.50401
 31
0.0
  0
LINE
  5
1AB
330
23
100
AcDbEntity
  8
1
100
AcDbLine
 10
-315.15676
 20
228.824518
 30
0.0
 11
-302.164223
 21
228.824518
 31
0.0
  0
LINE
  5
1AC
330
23
100
AcDbEntity
  8
1
  6
DASHED
100
AcDbLine
 10
-302.164223
 20
228.824518
 30
0.0
 11
-289.164223
 21
228.824518
 31
0.0
  0
LINE
  5
1AD
330
23
100
AcDbEntity
  8
1
  6
DASHED
100
AcDbLine
 10
-289.164223
 20
217.824518
 30
0.0
 11
-297.465493
 21
217.824518
 31
0.0
  0
LINE
  5
1AE
330
23
100
AcDbEntity
  8
1
100
AcDbLine
 10
-297.465493
 20
217.824518
 30
0.0
 11
-327.164223
 21
217.824518
 31
0.0
  0
LINE
  5
1AF
330
23
100
AcDbEntity
  8
1
  6
DASHED
100
AcDbLine
 10
-289.114098
 20
216.824518
 30
0.0
 11
-296.872536
 21
216.824518
 31
0.0
  0
LINE
  5
1B0
330
23
100
AcDbEntity
  8
1
100
AcDbLine
 10
-296.872536
 20
216.824518
 30
0.0
 11
-326.164223
 21
216.824518
 31
0.0
  0
LINE
  5
1B1
330
23
100
AcDbEntity
  8
1
100
AcDbLine
 10
-319.064223
 20
215.699518
 30
0.0
 11
-296.167013
 21
215.699518
 31
0.0
  0
LINE
  5
1B2
330
23
100
AcDbEntity
  8
1
  6
DASHED
100
AcDbLine
 10
-296.167013
 20
215.699518
 30
0.0
 11
-288.935834
 21
215.699518
 31
0.0
  0
LINE
  5
1B3
330
23
100
AcDbEntity
  8
1
  6
CENTER
 62
     2
100
AcDbLine
 10
69.385777
 20
110.142695
 30
0.0
 11
69.385777
 21
-312.025482
 31
0.0
  0
LINE
  5
1B4
330
23
100
AcDbEntity
  8
1
  6
CENTER
 62
     2
100
AcDbLine
 10
-254.164223
 20
110.142695
 30
0.0
 11
-254.164223
 21
-312.025482
 31
0.0
  0
LINE
  5
1B5
330
23
100
AcDbEntity
  8
1
  6
CENTER
 62
     2
100
AcDbLine
 10
-166.788672
 20
242.824518
 30
0.0
 11
-341.69926
 21
242.824518
 31
0.0
  0
LINE
  5
1B6
330
23
100
AcDbEntity
  8
1
100
AcDbLine
 10
-213.98081
 20
-178.352477
 30
0.0
 11
-236.279289
 21
-176.468313
 31
0.0
  0
ARC
  5
1B7
330
23
100
AcDbEntity
  8
1
100
AcDbCircle
 10
-214.065008
 20
-179.348926
 30
0.0
 40
1.0
100
AcDbArc
 50
28.72514199999999
 51
85.170127
  0
ARC
  5
1B8
330
23
100
AcDbEntity
  8
1
100
AcDbCircle
 10
-254.164223
 20
-201.325482
 30
0.0
 40
46.72653599999999
100
AcDbArc
 50
24.366653
 51
28.72514199999999
  0
ARC
  5
1B9
330
23
100
AcDbEntity
  8
1
100
AcDbCircle
 10
-212.510827
 20
-182.459887
 30
0.0
 40
1.0
100
AcDbArc
 50
264.829873
 51
24.366653
  0
LINE
  5
1BA
330
23
100
AcDbEntity
  8
1
100
AcDbLine
 10
-212.600941
 20
-183.455818
 30
0.0
 11
-259.056256
 21
-179.252474
 31
0.0
  0
LINE
  5
1BB
330
23
100
AcDbEntity
  8
1
100
AcDbLine
 10
-266.030877
 20
-204.272563
 30
0.0
 11
-260.731939
 21
-203.229721
 31
0.0
  0
ARC
  5
1BC
330
23
100
AcDbEntity
  8
1
100
AcDbCircle
 10
-254.164223
 20
-199.525482
 30
0.0
 40
51.74
100
AcDbArc
 50
285.534107
 51
306.267682
  0
LINE
  5
1BD
330
23
100
AcDbEntity
  8
1
100
AcDbLine
 10
-268.020814
 20
-249.375482
 30
0.0
 11
-240.307633
 21
-249.375482
 31
0.0
  0
ARC
  5
1BE
330
23
100
AcDbEntity
  8
1
100
AcDbCircle
 10
-254.164223
 20
-199.525482
 30
0.0
 40
51.74
100
AcDbArc
 50
233.732318
 51
254.465893
  0
ARC
  5
1BF
330
23
100
AcDbEntity
  8
1
100
AcDbCircle
 10
-254.164223
 20
-203.125482
 30
0.0
 40
51.74
100
AcDbArc
 50
105.534107
 51
126.267682
  0
ARC
  5
1C0
330
23
100
AcDbEntity
  8
1
100
AcDbCircle
 10
-254.164223
 20
-201.325482
 30
0.0
 40
50.3
100
AcDbArc
 50
127.480672
 51
232.519328
  0
LINE
  5
1C1
330
23
100
AcDbEntity
  8
1
100
AcDbLine
 10
-268.020814
 20
-153.275482
 30
0.0
 11
-240.307633
 21
-153.275482
 31
0.0
  0
ARC
  5
1C2
330
23
100
AcDbEntity
  8
1
100
AcDbCircle
 10
-254.164223
 20
-201.325482
 30
0.0
 40
50.3
100
AcDbArc
 50
307.480672
 51
52.519328
  0
ARC
  5
1C3
330
23
100
AcDbEntity
  8
1
100
AcDbCircle
 10
-254.164223
 20
-203.125482
 30
0.0
 40
51.74
100
AcDbArc
 50
53.73231800000001
 51
74.46589300000001
  0
ARC
  5
1C4
330
23
100
AcDbEntity
  8
1
100
AcDbCircle
 10
-266.157112
 20
-199.273958
 30
0.0
 40
1.0
100
AcDbArc
 50
83.66303399999999
 51
180.0
  0
ARC
  5
1C5
330
23
100
AcDbEntity
  8
1
100
AcDbCircle
 10
-266.157112
 20
-203.377007
 30
0.0
 40
1.0
100
AcDbArc
 50
180.0
 51
276.336979
  0
LINE
  5
1C6
330
23
100
AcDbEntity
  8
1
100
AcDbLine
 10
-266.030877
 20
-198.378402
 30
0.0
 11
-260.731939
 21
-199.421244
 31
0.0
  0
LINE
  5
1C7
330
23
100
AcDbEntity
  8
1
100
AcDbLine
 10
-237.879402
 20
-245.656118
 30
0.0
 11
-238.811724
 21
-245.422948
 31
0.0
  0
LINE
  5
1C8
330
23
100
AcDbEntity
  8
1
100
AcDbLine
 10
-242.848334
 20
-244.413407
 30
0.0
 11
-238.811724
 21
-245.422948
 31
0.0
  0
LINE
  5
1C9
330
23
100
AcDbEntity
  8
1
100
AcDbLine
 10
-242.848334
 20
-158.237556
 30
0.0
 11
-238.811724
 21
-157.228015
 31
0.0
  0
LINE
  5
1CA
330
23
100
AcDbEntity
  8
1
100
AcDbLine
 10
-237.879402
 20
-156.994845
 30
0.0
 11
-238.811724
 21
-157.228015
 31
0.0
  0
LINE
  5
1CB
330
23
100
AcDbEntity
  8
1
100
AcDbLine
 10
-246.664223
 20
-203.234963
 30
0.0
 11
-250.702791
 21
-203.234963
 31
0.0
  0
ARC
  5
1CC
330
23
100
AcDbEntity
  8
1
100
AcDbCircle
 10
-259.75001
 20
-202.233276
 30
0.0
 40
1.0
100
AcDbArc
 50
180.0
 51
270.0
  0
LINE
  5
1CD
330
23
100
AcDbEntity
  8
1
100
AcDbLine
 10
-254.164223
 20
-203.685482
 30
0.0
 11
-260.031733
 21
-203.702904
 31
0.0
  0
ARC
  5
1CE
330
23
100
AcDbEntity
  8
1
100
AcDbCircle
 10
-251.719032
 20
-202.733276
 30
0.0
 40
0.5
100
AcDbArc
 50
270.0
 51
360.0
  0
ARC
  5
1CF
330
23
100
AcDbEntity
  8
1
100
AcDbCircle
 10
-250.432172
 20
-204.696568
 30
0.0
 40
1.0
100
AcDbArc
 50
89.82987299999999
 51
180.0
  0
ARC
  5
1D0
330
23
100
AcDbEntity
  8
1
100
AcDbCircle
 10
-247.798198
 20
-204.704389
 30
0.0
 40
1.0
100
AcDbArc
 50
89.82987299999999
 51
180.0
  0
ARC
  5
1D1
330
23
100
AcDbEntity
  8
1
100
AcDbCircle
 10
-257.896274
 20
-204.692949
 30
0.0
 40
1.0
100
AcDbArc
 50
0.0
 51
85.294322
  0
ARC
  5
1D2
330
23
100
AcDbEntity
  8
1
100
AcDbCircle
 10
-260.530249
 20
-204.764414
 30
0.0
 40
1.0
100
AcDbArc
 50
0.0
 51
96.33697900000001
  0
LINE
  5
1D3
330
23
100
AcDbEntity
  8
1
100
AcDbLine
 10
-260.031733
 20
-203.702904
 30
0.0
 11
-266.046736
 21
-204.370897
 31
0.0
  0
LINE
  5
1D4
330
23
100
AcDbEntity
  8
1
100
AcDbLine
 10
-260.031733
 20
-198.948059
 30
0.0
 11
-266.046737
 21
-198.280069
 31
0.0
  0
ARC
  5
1D5
330
23
100
AcDbEntity
  8
1
100
AcDbCircle
 10
-260.530249
 20
-197.886549
 30
0.0
 40
1.0
100
AcDbArc
 50
263.663025
 51
360.0
  0
ARC
  5
1D6
330
23
100
AcDbEntity
  8
1
100
AcDbCircle
 10
-257.896274
 20
-197.958014
 30
0.0
 40
1.0
100
AcDbArc
 50
274.705423
 51
360.0
  0
LINE
  5
1D7
330
23
100
AcDbEntity
  8
1
100
AcDbLine
 10
-208.465125
 20
-198.829788
 30
0.0
 11
-254.164223
 21
-198.965482
 31
0.0
  0
ARC
  5
1D8
330
23
100
AcDbEntity
  8
1
100
AcDbCircle
 10
-250.432172
 20
-197.954396
 30
0.0
 40
1.0
100
AcDbArc
 50
180.0
 51
270.170127
  0
LINE
  5
1D9
330
23
100
AcDbEntity
  8
1
100
AcDbLine
 10
-244.445817
 20
-245.930182
 30
0.0
 11
-263.882629
 21
-245.930182
 31
0.0
  0
ARC
  5
1DA
330
23
100
AcDbEntity
  8
1
100
AcDbCircle
 10
-263.882629
 20
-246.075482
 30
0.0
 40
2.0
100
AcDbArc
 50
90.0
 51
180.0
  0
ARC
  5
1DB
330
23
100
AcDbEntity
  8
1
100
AcDbCircle
 10
-272.996592
 20
-235.469853
 30
0.0
 40
10.5
100
AcDbArc
 50
241.121015
 51
284.041436
  0
LINE
  5
1DC
330
23
100
AcDbEntity
  8
1
100
AcDbLine
 10
-265.882629
 20
-249.036094
 30
0.0
 11
-265.882629
 21
-246.075482
 31
0.0
  0
LINE
  5
1DD
330
23
100
AcDbEntity
  8
1
100
AcDbLine
 10
-270.449045
 20
-245.656118
 30
0.0
 11
-264.367876
 21
-244.135241
 31
0.0
  0
ARC
  5
1DE
330
23
100
AcDbEntity
  8
1
100
AcDbCircle
 10
-251.032999
 20
-288.279678
 30
0.0
 40
45.28198399999999
100
AcDbArc
 50
82.42363799999999
 51
102.080046
  0
LINE
  5
1DF
330
23
100
AcDbEntity
  8
1
100
AcDbLine
 10
-242.445817
 20
-249.036094
 30
0.0
 11
-242.445817
 21
-246.075482
 31
0.0
  0
ARC
  5
1E0
330
23
100
AcDbEntity
  8
1
100
AcDbCircle
 10
-235.331855
 20
-235.469853
 30
0.0
 40
10.5
100
AcDbArc
 50
255.958564
 51
298.878985
  0
ARC
  5
1E1
330
23
100
AcDbEntity
  8
1
100
AcDbCircle
 10
-254.164223
 20
-201.325482
 30
0.0
 40
46.72653599999999
100
AcDbArc
 50
331.274858
 51
335.633347
  0
LINE
  5
1E2
330
23
100
AcDbEntity
  8
1
100
AcDbLine
 10
-214.679745
 20
-219.955956
 30
0.0
 11
-253.447256
 21
-223.347673
 31
0.0
  0
LINE
  5
1E3
330
23
100
AcDbEntity
  8
1
100
AcDbLine
 10
-215.511965
 20
-223.858929
 30
0.0
 11
-243.916278
 21
-226.343985
 31
0.0
  0
LINE
  5
1E4
330
23
100
AcDbEntity
  8
1
100
AcDbLine
 10
-213.98081
 20
-224.298486
 30
0.0
 11
-236.279289
 21
-226.182651
 31
0.0
  0
ARC
  5
1E5
330
23
100
AcDbEntity
  8
1
100
AcDbCircle
 10
-215.599121
 20
-222.862734
 30
0.0
 40
1.0
100
AcDbArc
 50
275.0
 51
330.818178
  0
ARC
  5
1E6
330
23
100
AcDbEntity
  8
1
100
AcDbCircle
 10
-254.164223
 20
-201.325482
 30
0.0
 40
45.171488
100
AcDbArc
 50
330.818178
 51
333.61959
  0
ARC
  5
1E7
330
23
100
AcDbEntity
  8
1
100
AcDbCircle
 10
-214.592589
 20
-220.95215
 30
0.0
 40
1.0
100
AcDbArc
 50
333.61959
 51
95.0
  0
ARC
  5
1E8
330
23
100
AcDbEntity
  8
1
100
AcDbCircle
 10
-214.065008
 20
-223.302037
 30
0.0
 40
1.0
100
AcDbArc
 50
274.829873
 51
331.274858
  0
ARC
  5
1E9
330
23
100
AcDbEntity
  8
1
100
AcDbCircle
 10
-212.510827
 20
-220.191077
 30
0.0
 40
1.0
100
AcDbArc
 50
335.633347
 51
95.170127
  0
LINE
  5
1EA
330
23
100
AcDbEntity
  8
1
100
AcDbLine
 10
-266.335349
 20
-243.41184
 30
0.0
 11
-266.335349
 21
-231.365942
 31
0.0
  0
LINE
  5
1EB
330
23
100
AcDbEntity
  8
1
100
AcDbLine
 10
-260.75001
 20
-243.075482
 30
0.0
 11
-260.75001
 21
-231.317231
 31
0.0
  0
LINE
  5
1EC
330
23
100
AcDbEntity
  8
1
100
AcDbLine
 10
-243.60571
 20
-243.443286
 30
0.0
 11
-243.60571
 21
-234.154243
 31
0.0
  0
ARC
  5
1ED
330
23
100
AcDbEntity
  8
1
100
AcDbCircle
 10
-252.75001
 20
-231.317231
 30
0.0
 40
8.0
100
AcDbArc
 50
95.0
 51
180.0
  0
ARC
  5
1EE
330
23
100
AcDbEntity
  8
1
100
AcDbCircle
 10
-257.896274
 20
-222.289447
 30
0.0
 40
1.0
100
AcDbArc
 50
275.170127
 51
360.0
  0
ARC
  5
1EF
330
23
100
AcDbEntity
  8
1
100
AcDbCircle
 10
-260.530249
 20
-222.637688
 30
0.0
 40
1.0
100
AcDbArc
 50
284.115518
 51
360.0
  0
ARC
  5
1F0
330
23
100
AcDbEntity
  8
1
100
AcDbCircle
 10
-258.335349
 20
-231.365942
 30
0.0
 40
8.0
100
AcDbArc
 50
95.170127
 51
180.0
  0
ARC
  5
1F1
330
23
100
AcDbEntity
  8
1
100
AcDbCircle
 10
-250.432172
 20
-221.614085
 30
0.0
 40
1.0
100
AcDbArc
 50
180.0
 51
275.170127
  0
ARC
  5
1F2
330
23
100
AcDbEntity
  8
1
100
AcDbCircle
 10
-247.798198
 20
-221.375759
 30
0.0
 40
1.0
100
AcDbArc
 50
180.0
 51
275.170127
  0
LINE
  5
1F3
330
23
100
AcDbEntity
  8
1
100
AcDbLine
 10
-212.600941
 20
-219.195145
 30
0.0
 11
-259.056256
 21
-223.398489
 31
0.0
  0
ARC
  5
1F4
330
23
100
AcDbEntity
  8
1
100
AcDbCircle
 10
-261.75001
 20
-243.075482
 30
0.0
 40
1.0
100
AcDbArc
 50
270.0
 51
360.0
  0
LINE
  5
1F5
330
23
100
AcDbEntity
  8
1
100
AcDbLine
 10
-263.882629
 20
-244.075482
 30
0.0
 11
-244.445817
 21
-244.075482
 31
0.0
  0
ARC
  5
1F6
330
23
100
AcDbEntity
  8
1
100
AcDbCircle
 10
-242.60571
 20
-243.443286
 30
0.0
 40
1.0
100
AcDbArc
 50
180.0
 51
255.958564
  0
ARC
  5
1F7
330
23
100
AcDbEntity
  8
1
100
AcDbCircle
 10
-244.445817
 20
-246.075482
 30
0.0
 40
2.0
100
AcDbArc
 50
0.0
 51
90.0
  0
ARC
  5
1F8
330
23
100
AcDbEntity
  8
1
100
AcDbCircle
 10
-244.445817
 20
-156.575482
 30
0.0
 40
2.0
100
AcDbArc
 50
270.0
 51
360.0
  0
ARC
  5
1F9
330
23
100
AcDbEntity
  8
1
100
AcDbCircle
 10
-242.60571
 20
-159.207677
 30
0.0
 40
1.0
100
AcDbArc
 50
104.041436
 51
180.0
  0
LINE
  5
1FA
330
23
100
AcDbEntity
  8
1
100
AcDbLine
 10
-263.882629
 20
-158.575482
 30
0.0
 11
-244.445817
 21
-158.575482
 31
0.0
  0
ARC
  5
1FB
330
23
100
AcDbEntity
  8
1
100
AcDbCircle
 10
-261.75001
 20
-159.575482
 30
0.0
 40
1.0
100
AcDbArc
 50
0.0
 51
90.0
  0
ARC
  5
1FC
330
23
100
AcDbEntity
  8
1
100
AcDbCircle
 10
-247.798198
 20
-181.275204
 30
0.0
 40
1.0
100
AcDbArc
 50
84.82987299999999
 51
180.0
  0
ARC
  5
1FD
330
23
100
AcDbEntity
  8
1
100
AcDbCircle
 10
-250.432172
 20
-181.036878
 30
0.0
 40
1.0
100
AcDbArc
 50
84.82987299999999
 51
180.0
  0
ARC
  5
1FE
330
23
100
AcDbEntity
  8
1
100
AcDbCircle
 10
-258.335349
 20
-171.285022
 30
0.0
 40
8.0
100
AcDbArc
 50
180.0
 51
264.829873
  0
ARC
  5
1FF
330
23
100
AcDbEntity
  8
1
100
AcDbCircle
 10
-260.530249
 20
-180.013276
 30
0.0
 40
1.0
100
AcDbArc
 50
0.0
 51
75.88448199999999
  0
ARC
  5
200
330
23
100
AcDbEntity
  8
1
100
AcDbCircle
 10
-257.896274
 20
-180.361516
 30
0.0
 40
1.0
100
AcDbArc
 50
0.0
 51
84.82987299999999
  0
ARC
  5
201
330
23
100
AcDbEntity
  8
1
100
AcDbCircle
 10
-252.75001
 20
-171.333732
 30
0.0
 40
8.0
100
AcDbArc
 50
180.0
 51
265.0
  0
LINE
  5
202
330
23
100
AcDbEntity
  8
1
100
AcDbLine
 10
-243.60571
 20
-159.207677
 30
0.0
 11
-243.60571
 21
-168.4967199999999
 31
0.0
  0
LINE
  5
203
330
23
100
AcDbEntity
  8
1
100
AcDbLine
 10
-260.75001
 20
-159.575482
 30
0.0
 11
-260.75001
 21
-171.333732
 31
0.0
  0
LINE
  5
204
330
23
100
AcDbEntity
  8
1
100
AcDbLine
 10
-266.335349
 20
-159.239123
 30
0.0
 11
-266.335349
 21
-171.285022
 31
0.0
  0
ARC
  5
205
330
23
100
AcDbEntity
  8
1
100
AcDbCircle
 10
-254.164223
 20
-201.325482
 30
0.0
 40
46.72653599999999
100
AcDbArc
 50
358.125542
 51
1.874458
  0
ARC
  5
206
330
23
100
AcDbEntity
  8
1
100
AcDbCircle
 10
-214.592589
 20
-181.698813
 30
0.0
 40
1.0
100
AcDbArc
 50
265.0
 51
26.38041
  0
ARC
  5
207
330
23
100
AcDbEntity
  8
1
100
AcDbCircle
 10
-254.164223
 20
-201.325482
 30
0.0
 40
45.171488
100
AcDbArc
 50
26.38041
 51
29.181822
  0
ARC
  5
208
330
23
100
AcDbEntity
  8
1
100
AcDbCircle
 10
-215.599121
 20
-179.788229
 30
0.0
 40
1.0
100
AcDbArc
 50
29.181822
 51
85.0
  0
LINE
  5
209
330
23
100
AcDbEntity
  8
1
100
AcDbLine
 10
-215.511965
 20
-178.792034
 30
0.0
 11
-243.916278
 21
-176.306979
 31
0.0
  0
LINE
  5
20A
330
23
100
AcDbEntity
  8
1
100
AcDbLine
 10
-214.679745
 20
-182.695008
 30
0.0
 11
-253.447256
 21
-179.30329
 31
0.0
  0
LINE
  5
20B
330
23
100
AcDbEntity
  8
1
100
AcDbLine
 10
-267.157112
 20
-203.377007
 30
0.0
 11
-267.157112
 21
-199.273958
 31
0.0
  0
ARC
  5
20C
330
23
100
AcDbEntity
  8
1
100
AcDbCircle
 10
-259.75001
 20
-202.233276
 30
0.0
 40
1.0
100
AcDbArc
 50
180.0
 51
270.0
  0
ARC
  5
20D
330
23
100
AcDbEntity
  8
1
100
AcDbCircle
 10
-210.002064
 20
-202.233276
 30
0.0
 40
1.0
100
AcDbArc
 50
270.0
 51
358.822398
  0
ARC
  5
20E
330
23
100
AcDbEntity
  8
1
100
AcDbCircle
 10
-208.462156
 20
-202.82118
 30
0.0
 40
1.0
100
AcDbArc
 50
269.829873
 51
358.125542
  0
LINE
  5
20F
330
23
100
AcDbEntity
  8
1
100
AcDbLine
 10
-208.465125
 20
-203.821175
 30
0.0
 11
-254.164223
 21
-203.685482
 31
0.0
  0
LINE
  5
210
330
23
100
AcDbEntity
  8
1
100
AcDbLine
 10
-210.002064
 20
-203.233276
 30
0.0
 11
-259.75001
 21
-203.233276
 31
0.0
  0
LINE
  5
211
330
23
100
AcDbEntity
  8
1
100
AcDbLine
 10
-210.002064
 20
-199.417687
 30
0.0
 11
-259.75001
 21
-199.417687
 31
0.0
  0
ARC
  5
212
330
23
100
AcDbEntity
  8
1
100
AcDbCircle
 10
-251.719032
 20
-199.917687
 30
0.0
 40
0.5
100
AcDbArc
 50
0.0
 51
90.0
  0
LINE
  5
213
330
23
100
AcDbEntity
  8
1
100
AcDbLine
 10
-254.164223
 20
-198.965482
 30
0.0
 11
-260.031733
 21
-198.948059
 31
0.0
  0
ARC
  5
214
330
23
100
AcDbEntity
  8
1
100
AcDbCircle
 10
-259.75001
 20
-200.417687
 30
0.0
 40
1.0
100
AcDbArc
 50
90.0
 51
180.0
  0
ARC
  5
215
330
23
100
AcDbEntity
  8
1
100
AcDbCircle
 10
-208.462156
 20
-199.829784
 30
0.0
 40
1.0
100
AcDbArc
 50
1.874458
 51
90.170127
  0
ARC
  5
216
330
23
100
AcDbEntity
  8
1
100
AcDbCircle
 10
-210.002064
 20
-200.417687
 30
0.0
 40
1.0
100
AcDbArc
 50
1.177602
 51
90.0
  0
ARC
  5
217
330
23
100
AcDbEntity
  8
1
100
AcDbCircle
 10
-254.164223
 20
-201.325482
 30
0.0
 40
45.171488
100
AcDbArc
 50
358.822398
 51
1.177602
  0
LINE
  5
218
330
23
100
AcDbEntity
  8
1
100
AcDbLine
 10
-251.219032
 20
-202.733276
 30
0.0
 11
-251.219032
 21
-199.917687
 31
0.0
  0
LINE
  5
219
330
23
100
AcDbEntity
  8
1
100
AcDbLine
 10
-260.75001
 20
-202.184353
 30
0.0
 11
-260.75001
 21
-200.417687
 31
0.0
  0
LINE
  5
21A
330
23
100
AcDbEntity
  8
1
100
AcDbLine
 10
-259.530249
 20
-204.764414
 30
0.0
 11
-259.530249
 21
-222.637688
 31
0.0
  0
LINE
  5
21B
330
23
100
AcDbEntity
  8
1
100
AcDbLine
 10
-256.896274
 20
-204.692949
 30
0.0
 11
-256.896274
 21
-222.289447
 31
0.0
  0
LINE
  5
21C
330
23
100
AcDbEntity
  8
1
100
AcDbLine
 10
-251.432172
 20
-204.696568
 30
0.0
 11
-251.432172
 21
-221.614134
 31
0.0
  0
LINE
  5
21D
330
23
100
AcDbEntity
  8
1
100
AcDbLine
 10
-248.798198
 20
-204.704389
 30
0.0
 11
-248.798198
 21
-221.375808
 31
0.0
  0
LINE
  5
21E
330
23
100
AcDbEntity
  8
1
100
AcDbLine
 10
-256.896274
 20
-197.958014
 30
0.0
 11
-256.896274
 21
-180.361516
 31
0.0
  0
LINE
  5
21F
330
23
100
AcDbEntity
  8
1
100
AcDbLine
 10
-259.530249
 20
-197.886549
 30
0.0
 11
-259.530249
 21
-180.013276
 31
0.0
  0
LINE
  5
220
330
23
100
AcDbEntity
  8
1
100
AcDbLine
 10
-248.798198
 20
-197.946575
 30
0.0
 11
-248.798198
 21
-181.275204
 31
0.0
  0
LINE
  5
221
330
23
100
AcDbEntity
  8
1
100
AcDbLine
 10
-251.432172
 20
-197.954396
 30
0.0
 11
-251.432172
 21
-181.036878
 31
0.0
  0
LINE
  5
222
330
23
100
AcDbEntity
  8
1
100
AcDbLine
 10
-246.664223
 20
-199.416
 30
0.0
 11
-250.702791
 21
-199.416
 31
0.0
  0
ARC
  5
223
330
23
100
AcDbEntity
  8
1
100
AcDbCircle
 10
-235.331855
 20
-167.18111
 30
0.0
 40
10.5
100
AcDbArc
 50
61.12101499999999
 51
104.041436
  0
LINE
  5
224
330
23
100
AcDbEntity
  8
1
100
AcDbLine
 10
-242.445817
 20
-153.61487
 30
0.0
 11
-242.445817
 21
-156.575482
 31
0.0
  0
ARC
  5
225
330
23
100
AcDbEntity
  8
1
100
AcDbCircle
 10
-250.996952
 20
-113.454585
 30
0.0
 40
46.18619299999999
100
AcDbArc
 50
258.114219
 51
277.382098
  0
LINE
  5
226
330
23
100
AcDbEntity
  8
1
100
AcDbLine
 10
-270.449045
 20
-156.994845
 30
0.0
 11
-264.367876
 21
-158.515723
 31
0.0
  0
LINE
  5
227
330
23
100
AcDbEntity
  8
1
100
AcDbLine
 10
-265.882629
 20
-153.61487
 30
0.0
 11
-265.882629
 21
-156.575482
 31
0.0
  0
ARC
  5
228
330
23
100
AcDbEntity
  8
1
100
AcDbCircle
 10
-272.996592
 20
-167.18111
 30
0.0
 40
10.5
100
AcDbArc
 50
75.95856399999999
 51
118.878985
  0
ARC
  5
229
330
23
100
AcDbEntity
  8
1
100
AcDbCircle
 10
-263.882629
 20
-156.575482
 30
0.0
 40
2.0
100
AcDbArc
 50
180.0
 51
270.0
  0
LINE
  5
22A
330
23
100
AcDbEntity
  8
1
100
AcDbLine
 10
-244.445817
 20
-156.720781
 30
0.0
 11
-263.882629
 21
-156.720781
 31
0.0
  0
LINE
  5
22B
330
23
100
AcDbEntity
  8
1
100
AcDbLine
 10
-214.871925
 20
-178.804608
 30
0.0
 11
-213.999601
 21
-178.554812
 31
0.0
  0
LINE
  5
22C
330
23
100
AcDbEntity
  8
1
100
AcDbLine
 10
-213.586058
 20
-182.605279
 30
0.0
 11
-212.136388
 21
-183.151594
 31
0.0
  0
LINE
  5
22D
330
23
100
AcDbEntity
  8
1
100
AcDbLine
 10
-209.14579
 20
-203.1897
 30
0.0
 11
-208.138424
 21
-203.579036
 31
0.0
  0
LINE
  5
22E
330
23
100
AcDbEntity
  8
1
100
AcDbLine
 10
-209.14579
 20
-199.461265
 30
0.0
 11
-208.138424
 21
-199.071928
 31
0.0
  0
LINE
  5
22F
330
23
100
AcDbEntity
  8
1
100
AcDbLine
 10
-213.586058
 20
-220.045686
 30
0.0
 11
-212.136388
 21
-219.49937
 31
0.0
  0
LINE
  5
230
330
23
100
AcDbEntity
  8
1
100
AcDbLine
 10
-214.871925
 20
-223.846356
 30
0.0
 11
-213.999601
 21
-224.096153
 31
0.0
  0
ARC
  5
231
330
23
100
AcDbEntity
  8
1
100
AcDbCircle
 10
-247.798198
 20
-197.946575
 30
0.0
 40
1.0
100
AcDbArc
 50
180.0
 51
270.170127
  0
ARC
  5
232
330
23
100
AcDbEntity
  8
1
100
AcDbCircle
 10
-243.219032
 20
-168.337421
 30
0.0
 40
8.0
100
AcDbArc
 50
180.0
 51
265.0
  0
ARC
  5
233
330
23
100
AcDbEntity
  8
1
100
AcDbCircle
 10
-243.219032
 20
-234.313542
 30
0.0
 40
8.0
100
AcDbArc
 50
95.0
 51
180.0
  0
ARC
  5
234
330
23
100
AcDbEntity
  8
1
100
AcDbCircle
 10
-235.60571
 20
-168.4967199999999
 30
0.0
 40
8.0
100
AcDbArc
 50
180.0
 51
265.170127
  0
ARC
  5
235
330
23
100
AcDbEntity
  8
1
100
AcDbCircle
 10
-235.60571
 20
-234.154243
 30
0.0
 40
8.0
100
AcDbArc
 50
94.82987299999999
 51
180.0
  0
POINT
  5
236
330
23
100
AcDbEntity
  8
1
100
AcDbPoint
 10
-254.164223
 20
-201.325482
 30
0.0
  0
LINE
  5
237
330
23
100
AcDbEntity
  8
2
  6
CENTER
 62
     2
100
AcDbLine
 10
-254.164223
 20
307.824518
 30
0.0
 11
-254.164223
 21
177.824518
 31
0.0
  0
LINE
  5
238
330
23
100
AcDbEntity
  8
2
100
AcDbLine
 10
-293.164223
 20
-34.325482
 30
0.0
 11
-215.164223
 21
-34.325482
 31
0.0
  0
LINE
  5
239
330
23
100
AcDbEntity
  8
2
100
AcDbLine
 10
-215.164223
 20
43.674518
 30
0.0
 11
-215.164223
 21
-34.325482
 31
0.0
  0
LINE
  5
23A
330
23
100
AcDbEntity
  8
2
100
AcDbLine
 10
-293.164223
 20
43.674518
 30
0.0
 11
-293.164223
 21
-34.325482
 31
0.0
  0
LINE
  5
23B
330
23
100
AcDbEntity
  8
2
100
AcDbLine
 10
-291.164223
 20
45.67451799999999
 30
0.0
 11
-217.164223
 21
45.67451799999999
 31
0.0
  0
ARC
  5
23C
330
23
100
AcDbEntity
  8
2
100
AcDbCircle
 10
-291.164223
 20
43.674518
 30
0.0
 40
2.0
100
AcDbArc
 50
90.0
 51
180.0
  0
ARC
  5
23D
330
23
100
AcDbEntity
  8
2
100
AcDbCircle
 10
-217.164223
 20
43.674518
 30
0.0
 40
2.0
100
AcDbArc
 50
0.0
 51
90.0
  0
LINE
  5
23E
330
23
100
AcDbEntity
  8
2
100
AcDbLine
 10
-219.164223
 20
-21.325482
 30
0.0
 11
-219.164223
 21
-34.325482
 31
0.0
  0
LINE
  5
23F
330
23
100
AcDbEntity
  8
2
100
AcDbLine
 10
-221.164223
 20
-19.325482
 30
0.0
 11
-229.164223
 21
-19.325482
 31
0.0
  0
LINE
  5
240
330
23
100
AcDbEntity
  8
2
100
AcDbLine
 10
-221.164223
 20
-3.325482
 30
0.0
 11
-221.164223
 21
-17.861381
 31
0.0
  0
ARC
  5
241
330
23
100
AcDbEntity
  8
2
100
AcDbCircle
 10
-221.164223
 20
-21.325482
 30
0.0
 40
2.0
100
AcDbArc
 50
0.0
 51
60.0
  0
ARC
  5
242
330
23
100
AcDbEntity
  8
2
100
AcDbCircle
 10
-219.164223
 20
-17.861381
 30
0.0
 40
2.0
100
AcDbArc
 50
180.0
 51
240.0
  0
LINE
  5
243
330
23
100
AcDbEntity
  8
2
100
AcDbLine
 10
-227.164223
 20
-21.325482
 30
0.0
 11
-220.164223
 21
-21.325482
 31
0.0
  0
LINE
  5
244
330
23
100
AcDbEntity
  8
2
100
AcDbLine
 10
-226.164223
 20
-6.325482
 30
0.0
 11
-224.164223
 21
-6.325482
 31
0.0
  0
ARC
  5
245
330
23
100
AcDbEntity
  8
2
100
AcDbCircle
 10
-224.164223
 20
-9.325482
 30
0.0
 40
3.0
100
AcDbArc
 50
0.0
 51
90.0
  0
LINE
  5
246
330
23
100
AcDbEntity
  8
2
100
AcDbLine
 10
-289.164223
 20
-21.325482
 30
0.0
 11
-289.164223
 21
-34.325482
 31
0.0
  0
LINE
  5
247
330
23
100
AcDbEntity
  8
2
100
AcDbLine
 10
-287.164223
 20
-19.325482
 30
0.0
 11
-279.164223
 21
-19.325482
 31
0.0
  0
LINE
  5
248
330
23
100
AcDbEntity
  8
2
100
AcDbLine
 10
-287.164223
 20
-3.325482
 30
0.0
 11
-287.164223
 21
-17.861381
 31
0.0
  0
ARC
  5
249
330
23
100
AcDbEntity
  8
2
100
AcDbCircle
 10
-287.164223
 20
-21.325482
 30
0.0
 40
2.0
100
AcDbArc
 50
120.0
 51
180.0
  0
ARC
  5
24A
330
23
100
AcDbEntity
  8
2
100
AcDbCircle
 10
-289.164223
 20
-17.861381
 30
0.0
 40
2.0
100
AcDbArc
 50
300.0
 51
360.0
  0
LINE
  5
24B
330
23
100
AcDbEntity
  8
2
100
AcDbLine
 10
-281.164223
 20
-21.325482
 30
0.0
 11
-288.164223
 21
-21.325482
 31
0.0
  0
LINE
  5
24C
330
23
100
AcDbEntity
  8
2
100
AcDbLine
 10
-282.164223
 20
-6.325482
 30
0.0
 11
-284.164223
 21
-6.325482
 31
0.0
  0
ARC
  5
24D
330
23
100
AcDbEntity
  8
2
100
AcDbCircle
 10
-284.164223
 20
-9.325482
 30
0.0
 40
3.0
100
AcDbArc
 50
90.0
 51
180.0
  0
LINE
  5
24E
330
23
100
AcDbEntity
  8
2
100
AcDbLine
 10
30.385777
 20
-34.325482
 30
0.0
 11
108.385777
 21
-34.325482
 31
0.0
  0
LINE
  5
24F
330
23
100
AcDbEntity
  8
2
100
AcDbLine
 10
108.385777
 20
43.674518
 30
0.0
 11
108.385777
 21
-34.325482
 31
0.0
  0
LINE
  5
250
330
23
100
AcDbEntity
  8
2
100
AcDbLine
 10
30.385777
 20
43.674518
 30
0.0
 11
30.385777
 21
-34.325482
 31
0.0
  0
ARC
  5
251
330
23
100
AcDbEntity
  8
2
100
AcDbCircle
 10
32.385777
 20
43.674518
 30
0.0
 40
2.0
100
AcDbArc
 50
90.0
 51
180.0
  0
ARC
  5
252
330
23
100
AcDbEntity
  8
2
100
AcDbCircle
 10
106.385777
 20
43.674518
 30
0.0
 40
2.0
100
AcDbArc
 50
0.0
 51
90.0
  0
LINE
  5
253
330
23
100
AcDbEntity
  8
2
100
AcDbLine
 10
104.385777
 20
-21.325482
 30
0.0
 11
104.385777
 21
-34.325482
 31
0.0
  0
LINE
  5
254
330
23
100
AcDbEntity
  8
2
100
AcDbLine
 10
84.81920699999999
 20
-21.325482
 30
0.0
 11
84.81920699999999
 21
-34.325482
 31
0.0
  0
LINE
  5
255
330
23
100
AcDbEntity
  8
2
100
AcDbLine
 10
102.385777
 20
-19.325482
 30
0.0
 11
88.452836
 21
-19.325482
 31
0.0
  0
LINE
  5
256
330
23
100
AcDbEntity
  8
2
100
AcDbLine
 10
102.385777
 20
-3.325482
 30
0.0
 11
102.385777
 21
-17.861381
 31
0.0
  0
ARC
  5
257
330
23
100
AcDbEntity
  8
2
100
AcDbCircle
 10
102.385777
 20
-21.325482
 30
0.0
 40
2.0
100
AcDbArc
 50
0.0
 51
60.0
  0
ARC
  5
258
330
23
100
AcDbEntity
  8
2
100
AcDbCircle
 10
104.385777
 20
-17.861381
 30
0.0
 40
2.0
100
AcDbArc
 50
180.0
 51
240.0
  0
ARC
  5
259
330
23
100
AcDbEntity
  8
2
100
AcDbCircle
 10
86.81920699999999
 20
-21.325482
 30
0.0
 40
2.0
100
AcDbArc
 50
95.25524
 51
180.0
  0
LINE
  5
25A
330
23
100
AcDbEntity
  8
2
100
AcDbLine
 10
88.452836
 20
-6.325482
 30
0.0
 11
88.452836
 21
-17.342296
 31
0.0
  0
ARC
  5
25B
330
23
100
AcDbEntity
  8
2
100
AcDbCircle
 10
86.452836
 20
-17.342296
 30
0.0
 40
2.0
100
AcDbArc
 50
275.25524
 51
360.0
  0
LINE
  5
25C
330
23
100
AcDbEntity
  8
2
100
AcDbLine
 10
86.636021
 20
-21.325482
 30
0.0
 11
103.385777
 21
-21.325482
 31
0.0
  0
LINE
  5
25D
330
23
100
AcDbEntity
  8
2
100
AcDbLine
 10
91.452836
 20
-6.325482
 30
0.0
 11
99.38577700000001
 21
-6.325482
 31
0.0
  0
ARC
  5
25E
330
23
100
AcDbEntity
  8
2
100
AcDbCircle
 10
99.38577700000001
 20
-9.325482
 30
0.0
 40
3.0
100
AcDbArc
 50
0.0
 51
90.0
  0
ARC
  5
25F
330
23
100
AcDbEntity
  8
2
100
AcDbCircle
 10
91.452836
 20
-3.325482
 30
0.0
 40
3.0
100
AcDbArc
 50
180.0
 51
270.0
  0
LINE
  5
260
330
23
100
AcDbEntity
  8
2
100
AcDbLine
 10
34.38577700000001
 20
-21.325482
 30
0.0
 11
34.38577700000001
 21
-34.325482
 31
0.0
  0
LINE
  5
261
330
23
100
AcDbEntity
  8
2
100
AcDbLine
 10
53.95234699999999
 20
-21.325482
 30
0.0
 11
53.95234699999999
 21
-34.325482
 31
0.0
  0
LINE
  5
262
330
23
100
AcDbEntity
  8
2
100
AcDbLine
 10
36.38577700000001
 20
-19.325482
 30
0.0
 11
50.318718
 21
-19.325482
 31
0.0
  0
LINE
  5
263
330
23
100
AcDbEntity
  8
2
100
AcDbLine
 10
36.38577700000001
 20
-9.325482
 30
0.0
 11
36.38577700000001
 21
-17.861381
 31
0.0
  0
ARC
  5
264
330
23
100
AcDbEntity
  8
2
100
AcDbCircle
 10
36.38577700000001
 20
-21.325482
 30
0.0
 40
2.0
100
AcDbArc
 50
120.0
 51
180.0
  0
ARC
  5
265
330
23
100
AcDbEntity
  8
2
100
AcDbCircle
 10
34.38577700000001
 20
-17.861381
 30
0.0
 40
2.0
100
AcDbArc
 50
300.0
 51
360.0
  0
ARC
  5
266
330
23
100
AcDbEntity
  8
2
100
AcDbCircle
 10
51.952347
 20
-21.325482
 30
0.0
 40
2.0
100
AcDbArc
 50
0.0
 51
84.74476000000001
  0
LINE
  5
267
330
23
100
AcDbEntity
  8
2
100
AcDbLine
 10
50.318718
 20
-6.325482
 30
0.0
 11
50.318718
 21
-17.342296
 31
0.0
  0
ARC
  5
268
330
23
100
AcDbEntity
  8
2
100
AcDbCircle
 10
52.318718
 20
-17.342296
 30
0.0
 40
2.0
100
AcDbArc
 50
180.0
 51
264.74476
  0
LINE
  5
269
330
23
100
AcDbEntity
  8
2
100
AcDbLine
 10
52.13553199999999
 20
-21.325482
 30
0.0
 11
35.38577700000001
 21
-21.325482
 31
0.0
  0
LINE
  5
26A
330
23
100
AcDbEntity
  8
2
100
AcDbLine
 10
47.31871799999999
 20
-6.325482
 30
0.0
 11
39.38577700000001
 21
-6.325482
 31
0.0
  0
ARC
  5
26B
330
23
100
AcDbEntity
  8
2
100
AcDbCircle
 10
47.31871799999999
 20
-3.325482
 30
0.0
 40
3.0
100
AcDbArc
 50
270.0
 51
0.0
  0
LINE
  5
26C
330
23
100
AcDbEntity
  8
2
100
AcDbLine
 10
-229.164223
 20
24.674518
 30
0.0
 11
-229.164223
 21
-34.325482
 31
0.0
  0
LINE
  5
26D
330
23
100
AcDbEntity
  8
2
100
AcDbLine
 10
-279.164223
 20
24.674518
 30
0.0
 11
-279.164223
 21
-34.325482
 31
0.0
  0
LINE
  5
26E
330
23
100
AcDbEntity
  8
2
100
AcDbLine
 10
-276.164223
 20
27.674518
 30
0.0
 11
-232.164223
 21
27.674518
 31
0.0
  0
ARC
  5
26F
330
23
100
AcDbEntity
  8
2
100
AcDbCircle
 10
-276.164223
 20
24.674518
 30
0.0
 40
3.0
100
AcDbArc
 50
90.0
 51
180.0
  0
ARC
  5
270
330
23
100
AcDbEntity
  8
2
100
AcDbCircle
 10
-232.164223
 20
24.674518
 30
0.0
 40
3.0
100
AcDbArc
 50
0.0
 51
90.0
  0
ARC
  5
271
330
23
100
AcDbEntity
  8
2
100
AcDbCircle
 10
-226.164223
 20
-3.325482
 30
0.0
 40
3.0
100
AcDbArc
 50
180.0
 51
270.0
  0
ARC
  5
272
330
23
100
AcDbEntity
  8
2
100
AcDbCircle
 10
-282.164223
 20
-3.325482
 30
0.0
 40
3.0
100
AcDbArc
 50
270.0
 51
0.0
  0
ARC
  5
273
330
23
100
AcDbEntity
  8
2
100
AcDbCircle
 10
-227.164223
 20
-19.325482
 30
0.0
 40
2.0
100
AcDbArc
 50
180.0
 51
270.0
  0
ARC
  5
274
330
23
100
AcDbEntity
  8
2
100
AcDbCircle
 10
-281.164223
 20
-19.325482
 30
0.0
 40
2.0
100
AcDbArc
 50
270.0
 51
360.0
  0
LINE
  5
275
330
23
100
AcDbEntity
  8
2
100
AcDbLine
 10
-264.914223
 20
58.67451800000001
 30
0.0
 11
-243.414223
 21
58.67451800000001
 31
0.0
  0
LINE
  5
276
330
23
100
AcDbEntity
  8
2
100
AcDbLine
 10
-285.664223
 20
48.674518
 30
0.0
 11
-222.664223
 21
48.674518
 31
0.0
  0
LINE
  5
277
330
23
100
AcDbEntity
  8
2
100
AcDbLine
 10
-242.414223
 20
57.674518
 30
0.0
 11
-242.414223
 21
50.17451799999999
 31
0.0
  0
LINE
  5
278
330
23
100
AcDbEntity
  8
2
100
AcDbLine
 10
-248.602074
 20
58.67451800000001
 30
0.0
 11
-248.602074
 21
48.674518
 31
0.0
  0
LINE
  5
279
330
23
100
AcDbEntity
  8
2
100
AcDbLine
 10
-259.726372
 20
58.67451800000001
 30
0.0
 11
-259.726372
 21
48.674518
 31
0.0
  0
LINE
  5
27A
330
23
100
AcDbEntity
  8
2
100
AcDbLine
 10
-265.914223
 20
57.674518
 30
0.0
 11
-265.914223
 21
50.17451799999999
 31
0.0
  0
ARC
  5
27B
330
23
100
AcDbEntity
  8
2
100
AcDbCircle
 10
-243.414223
 20
57.674518
 30
0.0
 40
1.0
100
AcDbArc
 50
0.0
 51
90.0
  0
ARC
  5
27C
330
23
100
AcDbEntity
  8
2
100
AcDbCircle
 10
-264.914223
 20
57.674518
 30
0.0
 40
1.0
100
AcDbArc
 50
90.0
 51
180.0
  0
LINE
  5
27D
330
23
100
AcDbEntity
  8
2
100
AcDbLine
 10
-222.664223
 20
48.674518
 30
0.0
 11
-222.664223
 21
46.674518
 31
0.0
  0
LINE
  5
27E
330
23
100
AcDbEntity
  8
2
100
AcDbLine
 10
-285.664223
 20
48.674518
 30
0.0
 11
-285.664223
 21
46.674518
 31
0.0
  0
LINE
  5
27F
330
23
100
AcDbEntity
  8
2
100
AcDbLine
 10
-285.664223
 20
46.674518
 30
0.0
 11
-222.664223
 21
46.674518
 31
0.0
  0
LINE
  5
280
330
23
100
AcDbEntity
  8
2
100
AcDbLine
 10
-224.664223
 20
45.67451799999999
 30
0.0
 11
-224.664223
 21
46.674518
 31
0.0
  0
LINE
  5
281
330
23
100
AcDbEntity
  8
2
100
AcDbLine
 10
-283.664223
 20
45.67451799999999
 30
0.0
 11
-283.664223
 21
46.674518
 31
0.0
  0
ARC
  5
282
330
23
100
AcDbEntity
  8
2
100
AcDbCircle
 10
-240.914223
 20
50.17451799999999
 30
0.0
 40
1.5
100
AcDbArc
 50
180.0
 51
270.0
  0
ARC
  5
283
330
23
100
AcDbEntity
  8
2
100
AcDbCircle
 10
-267.414223
 20
50.17451799999999
 30
0.0
 40
1.5
100
AcDbArc
 50
270.0
 51
0.0
  0
LINE
  5
284
330
23
100
AcDbEntity
  8
2
100
AcDbLine
 10
58.635777
 20
58.67451800000001
 30
0.0
 11
80.135777
 21
58.67451800000001
 31
0.0
  0
LINE
  5
285
330
23
100
AcDbEntity
  8
2
100
AcDbLine
 10
37.88577700000001
 20
48.674518
 30
0.0
 11
100.885777
 21
48.674518
 31
0.0
  0
LINE
  5
286
330
23
100
AcDbEntity
  8
2
100
AcDbLine
 10
81.135777
 20
57.674518
 30
0.0
 11
81.135777
 21
50.17451799999999
 31
0.0
  0
LINE
  5
287
330
23
100
AcDbEntity
  8
2
100
AcDbLine
 10
74.947926
 20
58.67451800000001
 30
0.0
 11
74.947926
 21
48.674518
 31
0.0
  0
LINE
  5
288
330
23
100
AcDbEntity
  8
2
100
AcDbLine
 10
63.823628
 20
58.67451800000001
 30
0.0
 11
63.823628
 21
48.674518
 31
0.0
  0
LINE
  5
289
330
23
100
AcDbEntity
  8
2
100
AcDbLine
 10
57.635777
 20
57.674518
 30
0.0
 11
57.635777
 21
50.17451799999999
 31
0.0
  0
ARC
  5
28A
330
23
100
AcDbEntity
  8
2
100
AcDbCircle
 10
80.135777
 20
57.674518
 30
0.0
 40
1.0
100
AcDbArc
 50
0.0
 51
90.0
  0
ARC
  5
28B
330
23
100
AcDbEntity
  8
2
100
AcDbCircle
 10
58.635777
 20
57.674518
 30
0.0
 40
1.0
100
AcDbArc
 50
90.0
 51
180.0
  0
LINE
  5
28C
330
23
100
AcDbEntity
  8
2
100
AcDbLine
 10
100.885777
 20
48.674518
 30
0.0
 11
100.885777
 21
46.674518
 31
0.0
  0
LINE
  5
28D
330
23
100
AcDbEntity
  8
2
100
AcDbLine
 10
37.88577700000001
 20
48.674518
 30
0.0
 11
37.88577700000001
 21
46.674518
 31
0.0
  0
LINE
  5
28E
330
23
100
AcDbEntity
  8
2
100
AcDbLine
 10
39.885777
 20
45.67451799999999
 30
0.0
 11
39.885777
 21
46.674518
 31
0.0
  0
ARC
  5
28F
330
23
100
AcDbEntity
  8
2
100
AcDbCircle
 10
82.635777
 20
50.17451799999999
 30
0.0
 40
1.5
100
AcDbArc
 50
180.0
 51
270.0
  0
ARC
  5
290
330
23
100
AcDbEntity
  8
2
100
AcDbCircle
 10
56.135777
 20
50.17451799999999
 30
0.0
 40
1.5
100
AcDbArc
 50
270.0
 51
0.0
  0
LINE
  5
291
330
23
100
AcDbEntity
  8
2
  6
CENTER
 62
     2
100
AcDbLine
 10
-267.664223
 20
-2.46747
 30
0.0
 11
-267.664223
 21
-25.709924
 31
0.0
  0
LINE
  5
292
330
23
100
AcDbEntity
  8
2
  6
CENTER
 62
     2
100
AcDbLine
 10
-240.664223
 20
-2.46747
 30
0.0
 11
-240.664223
 21
-25.709924
 31
0.0
  0
LINE
  5
293
330
23
100
AcDbEntity
  8
2
  6
CENTER
 62
     2
100
AcDbLine
 10
-277.230386
 20
-14.325482
 30
0.0
 11
-230.698701
 21
-14.325482
 31
0.0
  0
CIRCLE
  5
294
330
23
100
AcDbEntity
  8
2
 62
     2
100
AcDbCircle
 10
-240.664223
 20
-14.325482
 30
0.0
 40
3.3235
  0
CIRCLE
  5
295
330
23
100
AcDbEntity
  8
2
100
AcDbCircle
 10
-240.664223
 20
-14.325482
 30
0.0
 40
6.25
  0
CIRCLE
  5
296
330
23
100
AcDbEntity
  8
2
100
AcDbCircle
 10
-240.664223
 20
-14.325482
 30
0.0
 40
4.0
  0
LINE
  5
297
330
23
100
AcDbEntity
  8
2
100
AcDbLine
 10
-244.417
 20
-7.825482
 30
0.0
 11
-236.911446
 21
-7.825482
 31
0.0
  0
LINE
  5
298
330
23
100
AcDbEntity
  8
2
100
AcDbLine
 10
-244.417
 20
-20.825482
 30
0.0
 11
-236.911446
 21
-20.825482
 31
0.0
  0
LINE
  5
299
330
23
100
AcDbEntity
  8
2
100
AcDbLine
 10
-248.169777
 20
-14.325482
 30
0.0
 11
-244.417
 21
-7.825482
 31
0.0
  0
LINE
  5
29A
330
23
100
AcDbEntity
  8
2
100
AcDbLine
 10
-236.911446
 20
-20.825482
 30
0.0
 11
-233.15867
 21
-14.325482
 31
0.0
  0
LINE
  5
29B
330
23
100
AcDbEntity
  8
2
100
AcDbLine
 10
-244.417
 20
-20.825482
 30
0.0
 11
-248.169777
 21
-14.325482
 31
0.0
  0
LINE
  5
29C
330
23
100
AcDbEntity
  8
2
100
AcDbLine
 10
-233.15867
 20
-14.325482
 30
0.0
 11
-236.911446
 21
-7.825482
 31
0.0
  0
LINE
  5
29D
330
23
100
AcDbEntity
  8
2
100
AcDbLine
 10
-242.664223
 20
-13.170782
 30
0.0
 11
-242.664223
 21
-15.480183
 31
0.0
  0
LINE
  5
29E
330
23
100
AcDbEntity
  8
2
100
AcDbLine
 10
-238.664223
 20
-13.170782
 30
0.0
 11
-238.664223
 21
-15.480183
 31
0.0
  0
LINE
  5
29F
330
23
100
AcDbEntity
  8
2
100
AcDbLine
 10
-240.664223
 20
-12.016081
 30
0.0
 11
-238.664223
 21
-13.170782
 31
0.0
  0
LINE
  5
2A0
330
23
100
AcDbEntity
  8
2
100
AcDbLine
 10
-242.664223
 20
-15.480183
 30
0.0
 11
-240.664223
 21
-16.634883
 31
0.0
  0
LINE
  5
2A1
330
23
100
AcDbEntity
  8
2
100
AcDbLine
 10
-240.664223
 20
-16.634883
 30
0.0
 11
-238.664223
 21
-15.480183
 31
0.0
  0
LINE
  5
2A2
330
23
100
AcDbEntity
  8
2
100
AcDbLine
 10
-242.664223
 20
-13.170782
 30
0.0
 11
-240.664223
 21
-12.016081
 31
0.0
  0
CIRCLE
  5
2A3
330
23
100
AcDbEntity
  8
2
 62
     2
100
AcDbCircle
 10
-267.664223
 20
-14.325482
 30
0.0
 40
3.3235
  0
CIRCLE
  5
2A4
330
23
100
AcDbEntity
  8
2
100
AcDbCircle
 10
-267.664223
 20
-14.325482
 30
0.0
 40
6.25
  0
CIRCLE
  5
2A5
330
23
100
AcDbEntity
  8
2
100
AcDbCircle
 10
-267.664223
 20
-14.325482
 30
0.0
 40
4.0
  0
LINE
  5
2A6
330
23
100
AcDbEntity
  8
2
100
AcDbLine
 10
-263.911446
 20
-7.825482
 30
0.0
 11
-271.417
 21
-7.825482
 31
0.0
  0
LINE
  5
2A7
330
23
100
AcDbEntity
  8
2
100
AcDbLine
 10
-263.911446
 20
-20.825482
 30
0.0
 11
-271.417
 21
-20.825482
 31
0.0
  0
LINE
  5
2A8
330
23
100
AcDbEntity
  8
2
100
AcDbLine
 10
-260.15867
 20
-14.325482
 30
0.0
 11
-263.911446
 21
-7.825482
 31
0.0
  0
LINE
  5
2A9
330
23
100
AcDbEntity
  8
2
100
AcDbLine
 10
-271.417
 20
-20.825482
 30
0.0
 11
-275.169777
 21
-14.325482
 31
0.0
  0
LINE
  5
2AA
330
23
100
AcDbEntity
  8
2
100
AcDbLine
 10
-263.911446
 20
-20.825482
 30
0.0
 11
-260.15867
 21
-14.325482
 31
0.0
  0
LINE
  5
2AB
330
23
100
AcDbEntity
  8
2
100
AcDbLine
 10
-275.169777
 20
-14.325482
 30
0.0
 11
-271.417
 21
-7.825482
 31
0.0
  0
LINE
  5
2AC
330
23
100
AcDbEntity
  8
2
100
AcDbLine
 10
-265.664223
 20
-13.170782
 30
0.0
 11
-265.664223
 21
-15.480183
 31
0.0
  0
LINE
  5
2AD
330
23
100
AcDbEntity
  8
2
100
AcDbLine
 10
-269.664223
 20
-13.170782
 30
0.0
 11
-269.664223
 21
-15.480183
 31
0.0
  0
LINE
  5
2AE
330
23
100
AcDbEntity
  8
2
100
AcDbLine
 10
-267.664223
 20
-12.016081
 30
0.0
 11
-269.664223
 21
-13.170782
 31
0.0
  0
LINE
  5
2AF
330
23
100
AcDbEntity
  8
2
100
AcDbLine
 10
-265.664223
 20
-15.480183
 30
0.0
 11
-267.664223
 21
-16.634883
 31
0.0
  0
LINE
  5
2B0
330
23
100
AcDbEntity
  8
2
100
AcDbLine
 10
-267.664223
 20
-16.634883
 30
0.0
 11
-269.664223
 21
-15.480183
 31
0.0
  0
LINE
  5
2B1
330
23
100
AcDbEntity
  8
2
100
AcDbLine
 10
-265.664223
 20
-13.170782
 30
0.0
 11
-267.664223
 21
-12.016081
 31
0.0
  0
LINE
  5
2B2
330
23
100
AcDbEntity
  8
2
  6
CENTER
 62
     2
100
AcDbLine
 10
19.399059
 20
-14.325482
 30
0.0
 11
37.230743
 21
-14.325482
 31
0.0
  0
LINE
  5
2B3
330
23
100
AcDbEntity
  8
2
100
AcDbLine
 10
23.385777
 20
-11.001982
 30
0.0
 11
23.885777
 21
-10.501982
 31
0.0
  0
LINE
  5
2B4
330
23
100
AcDbEntity
  8
2
 62
     2
100
AcDbLine
 10
23.385777
 20
-11.001982
 30
0.0
 11
23.885777
 21
-11.001982
 31
0.0
  0
LINE
  5
2B5
330
23
100
AcDbEntity
  8
2
100
AcDbLine
 10
23.385777
 20
-17.648982
 30
0.0
 11
23.385777
 21
-11.001982
 31
0.0
  0
LINE
  5
2B6
330
23
100
AcDbEntity
  8
2
100
AcDbLine
 10
23.385777
 20
-17.648982
 30
0.0
 11
23.885777
 21
-18.148982
 31
0.0
  0
LINE
  5
2B7
330
23
100
AcDbEntity
  8
2
 62
     2
100
AcDbLine
 10
23.385777
 20
-17.648982
 30
0.0
 11
23.885777
 21
-17.648982
 31
0.0
  0
LINE
  5
2B8
330
23
100
AcDbEntity
  8
2
100
AcDbLine
 10
40.856431
 20
27.674518
 30
0.0
 11
40.856431
 21
-3.523662999999999
 31
0.0
  0
LINE
  5
2B9
330
23
100
AcDbEntity
  8
2
100
AcDbLine
 10
30.385777
 20
27.674518
 30
0.0
 11
38.856431
 21
27.674518
 31
0.0
  0
ARC
  5
2BA
330
23
100
AcDbEntity
  8
2
100
AcDbCircle
 10
38.856431
 20
29.674518
 30
0.0
 40
2.0
100
AcDbArc
 50
270.0
 51
360.0
  0
ARC
  5
2BB
330
23
100
AcDbEntity
  8
2
100
AcDbCircle
 10
39.38577700000001
 20
-9.325482
 30
0.0
 40
3.0
100
AcDbArc
 50
90.0
 51
180.0
  0
ARC
  5
2BC
330
23
100
AcDbEntity
  8
2
100
AcDbCircle
 10
37.856431
 20
-3.523662999999999
 30
0.0
 40
3.0
100
AcDbArc
 50
284.767121
 51
360.0
  0
LINE
  5
2BD
330
23
100
AcDbEntity
  8
2
100
AcDbLine
 10
30.385777
 20
-20.825482
 30
0.0
 11
23.885777
 21
-20.825482
 31
0.0
  0
LINE
  5
2BE
330
23
100
AcDbEntity
  8
2
100
AcDbLine
 10
23.885777
 20
-20.825482
 30
0.0
 11
23.885777
 21
-7.825482
 31
0.0
  0
ARC
  5
2BF
330
23
100
AcDbEntity
  8
2
100
AcDbCircle
 10
31.564535
 20
-17.575482
 30
0.0
 40
7.678758999999999
100
AcDbArc
 50
154.96034
 51
205.03966
  0
LINE
  5
2C0
330
23
100
AcDbEntity
  8
2
100
AcDbLine
 10
30.385777
 20
-7.825482
 30
0.0
 11
23.885777
 21
-7.825482
 31
0.0
  0
LINE
  5
2C1
330
23
100
AcDbEntity
  8
2
100
AcDbLine
 10
29.664089
 20
-14.325482
 30
0.0
 11
24.607465
 21
-14.325482
 31
0.0
  0
ARC
  5
2C2
330
23
100
AcDbEntity
  8
2
100
AcDbCircle
 10
31.564535
 20
-11.075482
 30
0.0
 40
7.678758999999999
100
AcDbArc
 50
154.96034
 51
205.03966
  0
ARC
  5
2C3
330
23
100
AcDbEntity
  8
2
100
AcDbCircle
 10
22.707018
 20
-11.075482
 30
0.0
 40
7.678758999999999
100
AcDbArc
 50
334.96034
 51
25.03966
  0
ARC
  5
2C4
330
23
100
AcDbEntity
  8
2
100
AcDbCircle
 10
22.707018
 20
-17.575482
 30
0.0
 40
7.678758999999999
100
AcDbArc
 50
334.96034
 51
25.03966
  0
LINE
  5
2C5
330
23
100
AcDbEntity
  8
2
100
AcDbLine
 10
92.38140300000001
 20
48.174518
 30
0.0
 11
99.326538
 21
48.174518
 31
0.0
  0
LINE
  5
2C6
330
23
100
AcDbEntity
  8
2
100
AcDbLine
 10
99.326538
 20
48.174518
 30
0.0
 11
99.326538
 21
45.67451799999999
 31
0.0
  0
LINE
  5
2C7
330
23
100
AcDbEntity
  8
2
100
AcDbLine
 10
92.38140300000001
 20
48.174518
 30
0.0
 11
92.38140300000001
 21
45.67451799999999
 31
0.0
  0
LINE
  5
2C8
330
23
100
AcDbEntity
  8
2
100
AcDbLine
 10
94.376791
 20
48.174518
 30
0.0
 11
94.376791
 21
45.67451799999999
 31
0.0
  0
LINE
  5
2C9
330
23
100
AcDbEntity
  8
2
100
AcDbLine
 10
37.88577700000001
 20
46.674518
 30
0.0
 11
92.38140300000001
 21
46.674518
 31
0.0
  0
LINE
  5
2CA
330
23
100
AcDbEntity
  8
2
100
AcDbLine
 10
99.326538
 20
46.674518
 30
0.0
 11
100.885777
 21
46.674518
 31
0.0
  0
LINE
  5
2CB
330
23
100
AcDbEntity
  8
2
100
AcDbLine
 10
32.385777
 20
45.67451799999999
 30
0.0
 11
94.376791
 21
45.67451799999999
 31
0.0
  0
LINE
  5
2CC
330
23
100
AcDbEntity
  8
2
100
AcDbLine
 10
99.326538
 20
45.67451799999999
 30
0.0
 11
106.385777
 21
45.67451799999999
 31
0.0
  0
LINE
  5
2CD
330
23
100
AcDbEntity
  8
2
100
AcDbLine
 10
-262.164223
 20
78.67451800000001
 30
0.0
 11
-262.164223
 21
58.67451800000001
 31
0.0
  0
LINE
  5
2CE
330
23
100
AcDbEntity
  8
2
100
AcDbLine
 10
-246.164223
 20
78.67451800000001
 30
0.0
 11
-246.164223
 21
58.67451800000001
 31
0.0
  0
LINE
  5
2CF
330
23
100
AcDbEntity
  8
2
100
AcDbLine
 10
-264.164223
 20
95.674518
 30
0.0
 11
-244.164223
 21
95.674518
 31
0.0
  0
LINE
  5
2D0
330
23
100
AcDbEntity
  8
2
100
AcDbLine
 10
-264.164223
 20
93.67451800000001
 30
0.0
 11
-264.164223
 21
95.674518
 31
0.0
  0
LINE
  5
2D1
330
23
100
AcDbEntity
  8
2
100
AcDbLine
 10
-244.164223
 20
93.67451800000001
 30
0.0
 11
-244.164223
 21
95.674518
 31
0.0
  0
LINE
  5
2D2
330
23
100
AcDbEntity
  8
2
100
AcDbLine
 10
-259.914223
 20
97.174518
 30
0.0
 11
-259.914223
 21
100.68377
 31
0.0
  0
LINE
  5
2D3
330
23
100
AcDbEntity
  8
2
100
AcDbLine
 10
-259.914223
 20
100.68377
 30
0.0
 11
-259.064223
 21
101.174518
 31
0.0
  0
LINE
  5
2D4
330
23
100
AcDbEntity
  8
2
100
AcDbLine
 10
-259.064223
 20
101.174518
 30
0.0
 11
-249.264223
 21
101.174518
 31
0.0
  0
LINE
  5
2D5
330
23
100
AcDbEntity
  8
2
100
AcDbLine
 10
-257.039223
 20
97.174518
 30
0.0
 11
-257.039223
 21
100.68377
 31
0.0
  0
ARC
  5
2D6
330
23
100
AcDbEntity
  8
2
100
AcDbCircle
 10
-258.476723
 20
98.835815
 30
0.0
 40
2.341226999999999
100
AcDbArc
 50
52.121121
 51
127.878879
  0
LINE
  5
2D7
330
23
100
AcDbEntity
  8
2
100
AcDbLine
 10
-248.414223
 20
97.174518
 30
0.0
 11
-248.414223
 21
100.68377
 31
0.0
  0
LINE
  5
2D8
330
23
100
AcDbEntity
  8
2
100
AcDbLine
 10
-248.414223
 20
100.68377
 30
0.0
 11
-249.264223
 21
101.174518
 31
0.0
  0
LINE
  5
2D9
330
23
100
AcDbEntity
  8
2
100
AcDbLine
 10
-251.289223
 20
97.174518
 30
0.0
 11
-251.289223
 21
100.68377
 31
0.0
  0
ARC
  5
2DA
330
23
100
AcDbEntity
  8
2
100
AcDbCircle
 10
-249.851723
 20
98.835815
 30
0.0
 40
2.341226999999999
100
AcDbArc
 50
52.121121
 51
127.878879
  0
ARC
  5
2DB
330
23
100
AcDbEntity
  8
2
100
AcDbCircle
 10
-254.164223
 20
92.55204199999999
 30
0.0
 40
8.625
100
AcDbArc
 50
70.528779
 51
109.471221
  0
LINE
  5
2DC
330
23
100
AcDbEntity
  8
2
100
AcDbLine
 10
-260.264223
 20
95.674518
 30
0.0
 11
-260.264223
 21
97.174518
 31
0.0
  0
LINE
  5
2DD
330
23
100
AcDbEntity
  8
2
100
AcDbLine
 10
-260.264223
 20
97.174518
 30
0.0
 11
-248.064223
 21
97.174518
 31
0.0
  0
LINE
  5
2DE
330
23
100
AcDbEntity
  8
2
100
AcDbLine
 10
-248.064223
 20
97.174518
 30
0.0
 11
-248.064223
 21
95.674518
 31
0.0
  0
LINE
  5
2DF
330
23
100
AcDbEntity
  8
2
100
AcDbLine
 10
-254.164223
 20
97.174518
 30
0.0
 11
-253.664223
 21
95.674518
 31
0.0
  0
LINE
  5
2E0
330
23
100
AcDbEntity
  8
2
100
AcDbLine
 10
-254.164223
 20
95.674518
 30
0.0
 11
-254.664223
 21
97.174518
 31
0.0
  0
LINE
  5
2E1
330
23
100
AcDbEntity
  8
2
100
AcDbLine
 10
61.385777
 20
78.67451800000001
 30
0.0
 11
61.385777
 21
58.67451800000001
 31
0.0
  0
LINE
  5
2E2
330
23
100
AcDbEntity
  8
2
100
AcDbLine
 10
77.385777
 20
78.67451800000001
 30
0.0
 11
77.385777
 21
58.67451800000001
 31
0.0
  0
LINE
  5
2E3
330
23
100
AcDbEntity
  8
2
100
AcDbLine
 10
59.385777
 20
95.674518
 30
0.0
 11
79.385777
 21
95.674518
 31
0.0
  0
LINE
  5
2E4
330
23
100
AcDbEntity
  8
2
100
AcDbLine
 10
59.385777
 20
93.67451800000001
 30
0.0
 11
59.385777
 21
95.674518
 31
0.0
  0
LINE
  5
2E5
330
23
100
AcDbEntity
  8
2
100
AcDbLine
 10
79.385777
 20
93.67451800000001
 30
0.0
 11
79.385777
 21
95.674518
 31
0.0
  0
LINE
  5
2E6
330
23
100
AcDbEntity
  8
2
100
AcDbLine
 10
75.485777
 20
97.174518
 30
0.0
 11
63.285777
 21
97.174518
 31
0.0
  0
LINE
  5
2E7
330
23
100
AcDbEntity
  8
2
100
AcDbLine
 10
64.385777
 20
97.174518
 30
0.0
 11
64.385777
 21
101.174518
 31
0.0
  0
LINE
  5
2E8
330
23
100
AcDbEntity
  8
2
100
AcDbLine
 10
64.385777
 20
101.174518
 30
0.0
 11
74.385777
 21
101.174518
 31
0.0
  0
ARC
  5
2E9
330
23
100
AcDbEntity
  8
2
100
AcDbCircle
 10
66.885777
 20
94.56130999999999
 30
0.0
 40
6.613208
100
AcDbArc
 50
67.78820500000001
 51
112.211795
  0
LINE
  5
2EA
330
23
100
AcDbEntity
  8
2
100
AcDbLine
 10
74.385777
 20
97.174518
 30
0.0
 11
74.385777
 21
101.174518
 31
0.0
  0
LINE
  5
2EB
330
23
100
AcDbEntity
  8
2
100
AcDbLine
 10
69.385777
 20
97.174518
 30
0.0
 11
69.385777
 21
100.68377
 31
0.0
  0
ARC
  5
2EC
330
23
100
AcDbEntity
  8
2
100
AcDbCircle
 10
71.885777
 20
94.56130999999999
 30
0.0
 40
6.613208
100
AcDbArc
 50
67.78820500000001
 51
112.211795
  0
LINE
  5
2ED
330
23
100
AcDbEntity
  8
2
100
AcDbLine
 10
63.285777
 20
95.674518
 30
0.0
 11
63.285777
 21
97.174518
 31
0.0
  0
LINE
  5
2EE
330
23
100
AcDbEntity
  8
2
100
AcDbLine
 10
75.485777
 20
97.174518
 30
0.0
 11
75.485777
 21
95.674518
 31
0.0
  0
LINE
  5
2EF
330
23
100
AcDbEntity
  8
2
  6
CENTER
 62
     2
100
AcDbLine
 10
-235.164223
 20
251.578854
 30
0.0
 11
-235.164223
 21
234.538854
 31
0.0
  0
LINE
  5
2F0
330
23
100
AcDbEntity
  8
2
100
AcDbLine
 10
-237.164223
 20
243.979218
 30
0.0
 11
-237.164223
 21
242.791539
 31
0.0
  0
LINE
  5
2F1
330
23
100
AcDbEntity
  8
2
100
AcDbLine
 10
-233.164223
 20
243.979218
 30
0.0
 11
-233.164223
 21
241.669817
 31
0.0
  0
LINE
  5
2F2
330
23
100
AcDbEntity
  8
2
100
AcDbLine
 10
-235.164223
 20
245.133919
 30
0.0
 11
-233.164223
 21
243.979218
 31
0.0
  0
LINE
  5
2F3
330
23
100
AcDbEntity
  8
2
100
AcDbLine
 10
-234.366245
 20
240.97583
 30
0.0
 11
-233.164223
 21
241.669817
 31
0.0
  0
LINE
  5
2F4
330
23
100
AcDbEntity
  8
2
100
AcDbLine
 10
-237.164223
 20
243.979218
 30
0.0
 11
-235.164223
 21
245.133919
 31
0.0
  0
LINE
  5
2F5
330
23
100
AcDbEntity
  8
2
  6
CENTER
 62
     2
100
AcDbLine
 10
-273.164223
 20
251.578854
 30
0.0
 11
-273.164223
 21
234.538854
 31
0.0
  0
LINE
  5
2F6
330
23
100
AcDbEntity
  8
2
100
AcDbLine
 10
-271.164223
 20
243.979218
 30
0.0
 11
-271.164223
 21
242.791539
 31
0.0
  0
LINE
  5
2F7
330
23
100
AcDbEntity
  8
2
100
AcDbLine
 10
-275.164223
 20
243.979218
 30
0.0
 11
-275.164223
 21
241.669817
 31
0.0
  0
LINE
  5
2F8
330
23
100
AcDbEntity
  8
2
100
AcDbLine
 10
-273.164223
 20
245.133919
 30
0.0
 11
-275.164223
 21
243.979218
 31
0.0
  0
LINE
  5
2F9
330
23
100
AcDbEntity
  8
2
100
AcDbLine
 10
-273.962202
 20
240.97583
 30
0.0
 11
-275.164223
 21
241.669817
 31
0.0
  0
LINE
  5
2FA
330
23
100
AcDbEntity
  8
2
100
AcDbLine
 10
-271.164223
 20
243.979218
 30
0.0
 11
-273.164223
 21
245.133919
 31
0.0
  0
LINE
  5
2FB
330
23
100
AcDbEntity
  8
2
100
AcDbLine
 10
-230.122593
 20
266.866148
 30
0.0
 11
-230.619755
 21
268.721583
 31
0.0
  0
LINE
  5
2FC
330
23
100
AcDbEntity
  8
2
100
AcDbLine
 10
-230.122593
 20
266.866148
 30
0.0
 11
-228.267157
 21
266.368986
 31
0.0
  0
LINE
  5
2FD
330
23
100
AcDbEntity
  8
2
100
AcDbLine
 10
-266.140781
 20
261.872144
 30
0.0
 11
-271.903675
 21
267.635037
 31
0.0
  0
LINE
  5
2FE
330
23
100
AcDbEntity
  8
2
100
AcDbLine
 10
-240.740246
 20
263.319562
 30
0.0
 11
-238.578434
 21
265.481375
 31
0.0
  0
TEXT
  5
2FF
330
23
100
AcDbEntity
  8
2
100
AcDbText
 10
-269.164223
 20
217.324518
 30
0.0
 40
6.0
  1
ＴＯＭＯＥ
 41
0.8674698795180717
 72
     5
 11
-240.364223
 21
217.324518
 31
0.0
100
AcDbText
  0
TEXT
  5
300
330
23
100
AcDbEntity
  8
2
100
AcDbText
 10
-272.548999
 20
254.845333
 30
0.0
 40
9.0
  1
Ｏ
 50
45.00000562697716
 41
0.9230768642341992
 72
     5
 11
-267.457831
 21
259.936502
 31
0.0
100
AcDbText
  0
TEXT
  5
301
330
23
100
AcDbEntity
  8
2
100
AcDbText
 10
-242.143408
 20
261.209294
 30
0.0
 40
9.0
  1
Ｓ
 50
315.0
 41
1.000000034462977
 72
     5
 11
-237.052239
 21
256.118125
 31
0.0
100
AcDbText
  0
ARC
  5
302
330
23
100
AcDbEntity
  8
2
100
AcDbCircle
 10
-256.848418
 20
241.686256
 30
0.0
 40
30.0
100
AcDbArc
 50
52.48280699999999
 51
69.49809499999999
  0
ARC
  5
303
330
23
100
AcDbEntity
  8
2
100
AcDbCircle
 10
-256.848418
 20
241.686256
 30
0.0
 40
30.0
100
AcDbArc
 50
99.709838
 51
120.121934
  0
ARC
  5
304
330
23
100
AcDbEntity
  8
2
100
AcDbCircle
 10
-252.216118
 20
241.109106
 30
0.0
 40
25.0
100
AcDbArc
 50
62.675154
 51
75.84605
  0
ARC
  5
305
330
23
100
AcDbEntity
  8
2
100
AcDbCircle
 10
-252.216118
 20
241.109106
 30
0.0
 40
25.0
100
AcDbArc
 50
113.785212
 51
123.847652
  0
ARC
  5
306
330
23
100
AcDbEntity
  8
2
100
AcDbCircle
 10
-254.164223
 20
242.824518
 30
0.0
 40
31.5
100
AcDbArc
 50
104.45342
 51
195.502925
  0
ARC
  5
307
330
23
100
AcDbEntity
  8
2
100
AcDbCircle
 10
-254.164223
 20
242.824518
 30
0.0
 40
31.5
100
AcDbArc
 50
224.429377
 51
315.570623
  0
ARC
  5
308
330
23
100
AcDbEntity
  8
2
100
AcDbCircle
 10
-254.164223
 20
242.824518
 30
0.0
 40
31.5
100
AcDbArc
 50
344.497075
 51
75.54658
  0
ARC
  5
309
330
23
100
AcDbEntity
  8
2
100
AcDbCircle
 10
-235.164223
 20
242.824518
 30
0.0
 40
4.25
100
AcDbArc
 50
311.789916
 51
162.067868
  0
ARC
  5
30A
330
23
100
AcDbEntity
  8
2
100
AcDbCircle
 10
-235.164223
 20
242.824518
 30
0.0
 40
5.0
100
AcDbArc
 50
314.117411
 51
158.216542
  0
ARC
  5
30B
330
23
100
AcDbEntity
  8
2
100
AcDbCircle
 10
-235.164223
 20
242.824518
 30
0.0
 40
3.730385
100
AcDbArc
 50
309.605341
 51
164.432664
  0
ARC
  5
30C
330
23
100
AcDbEntity
  8
2
100
AcDbCircle
 10
-273.164223
 20
242.824518
 30
0.0
 40
3.730385
100
AcDbArc
 50
15.567336
 51
230.394659
  0
ARC
  5
30D
330
23
100
AcDbEntity
  8
2
100
AcDbCircle
 10
-273.164223
 20
242.824518
 30
0.0
 40
4.25
100
AcDbArc
 50
17.932132
 51
228.210084
  0
ARC
  5
30E
330
23
100
AcDbEntity
  8
2
100
AcDbCircle
 10
-273.164223
 20
242.824518
 30
0.0
 40
5.0
100
AcDbArc
 50
21.783458
 51
225.882589
  0
LINE
  5
30F
330
23
100
AcDbEntity
  8
2
100
AcDbLine
 10
-296.664223
 20
93.67451800000001
 30
0.0
 11
-211.664223
 21
93.67451800000001
 31
0.0
  0
ARC
  5
310
330
23
100
AcDbEntity
  8
2
100
AcDbCircle
 10
-296.664223
 20
86.17451800000001
 30
0.0
 40
7.5
100
AcDbArc
 50
90.0
 51
270.0
  0
LINE
  5
311
330
23
100
AcDbEntity
  8
2
100
AcDbLine
 10
-242.164223
 20
78.67451800000001
 30
0.0
 11
-266.164223
 21
78.67451800000001
 31
0.0
  0
ARC
  5
312
330
23
100
AcDbEntity
  8
2
100
AcDbCircle
 10
-253.101723
 20
86.17451800000001
 30
0.0
 40
15.0625
100
AcDbArc
 50
203.47446
 51
209.862834
  0
ARC
  5
313
330
23
100
AcDbEntity
  8
2
100
AcDbCircle
 10
-255.226723
 20
86.17451800000001
 30
0.0
 40
15.0625
100
AcDbArc
 50
330.137166
 51
336.544162
  0
LINE
  5
314
330
23
100
AcDbEntity
  8
2
100
AcDbLine
 10
-250.964339
 20
86.17451800000001
 30
0.0
 11
-257.364107
 21
86.17451800000001
 31
0.0
  0
LINE
  5
315
330
23
100
AcDbEntity
  8
2
100
AcDbLine
 10
-252.513876
 20
80.17451800000001
 30
0.0
 11
-255.814571
 21
80.17451800000001
 31
0.0
  0
LINE
  5
316
330
23
100
AcDbEntity
  8
2
100
AcDbLine
 10
-266.512361
 20
86.17451800000001
 30
0.0
 11
-272.383036
 21
86.17451800000001
 31
0.0
  0
LINE
  5
317
330
23
100
AcDbEntity
  8
2
100
AcDbLine
 10
-265.755161
 20
80.17451800000001
 30
0.0
 11
-271.683948
 21
80.17451800000001
 31
0.0
  0
ARC
  5
318
330
23
100
AcDbEntity
  8
2
100
AcDbCircle
 10
-205.139037
 20
85.866834
 30
0.0
 40
54.25248199999999
100
AcDbArc
 50
181.85598
 51
187.294014
  0
ARC
  5
319
330
23
100
AcDbEntity
  8
2
100
AcDbCircle
 10
-303.189409
 20
85.866834
 30
0.0
 40
54.25248199999999
100
AcDbArc
 50
352.705986
 51
358.14402
  0
ARC
  5
31A
330
23
100
AcDbEntity
  8
2
100
AcDbCircle
 10
-257.364107
 20
84.174518
 30
0.0
 40
2.0
100
AcDbArc
 50
90.0
 51
181.85598
  0
ARC
  5
31B
330
23
100
AcDbEntity
  8
2
100
AcDbCircle
 10
-250.964339
 20
84.174518
 30
0.0
 40
2.0
100
AcDbArc
 50
358.14402
 51
90.0
  0
ARC
  5
31C
330
23
100
AcDbEntity
  8
2
100
AcDbCircle
 10
-255.814571
 20
77.174518
 30
0.0
 40
3.0
100
AcDbArc
 50
90.0
 51
146.491844
  0
ARC
  5
31D
330
23
100
AcDbEntity
  8
2
100
AcDbCircle
 10
-258.606683
 20
79.02314799999999
 30
0.0
 40
0.34863
100
AcDbArc
 50
187.294014
 51
326.491844
  0
ARC
  5
31E
330
23
100
AcDbEntity
  8
2
100
AcDbCircle
 10
-252.513876
 20
77.174518
 30
0.0
 40
3.0
100
AcDbArc
 50
33.508156
 51
90.0
  0
ARC
  5
31F
330
23
100
AcDbEntity
  8
2
100
AcDbCircle
 10
-249.721763
 20
79.02314799999999
 30
0.0
 40
0.34863
100
AcDbArc
 50
213.508156
 51
352.705986
  0
ARC
  5
320
330
23
100
AcDbEntity
  8
2
100
AcDbCircle
 10
-259.856246
 20
85.914899
 30
0.0
 40
14.64711
100
AcDbArc
 50
187.909628
 51
204.857013
  0
ARC
  5
321
330
23
100
AcDbEntity
  8
2
100
AcDbCircle
 10
-236.997269
 20
85.876882
 30
0.0
 40
27.564145
100
AcDbArc
 50
183.301036
 51
193.87463
  0
ARC
  5
322
330
23
100
AcDbEntity
  8
2
100
AcDbCircle
 10
-266.512361
 20
84.174518
 30
0.0
 40
2.0
100
AcDbArc
 50
3.301035999999999
 51
90.0
  0
ARC
  5
323
330
23
100
AcDbEntity
  8
2
100
AcDbCircle
 10
-272.383036
 20
84.174518
 30
0.0
 40
2.0
100
AcDbArc
 50
90.0
 51
187.909628
  0
ARC
  5
324
330
23
100
AcDbEntity
  8
2
100
AcDbCircle
 10
-271.450531
 20
80.54358099999999
 30
0.0
 40
1.869063
100
AcDbArc
 50
204.857013
 51
316.21672
  0
ARC
  5
325
330
23
100
AcDbEntity
  8
2
100
AcDbCircle
 10
-263.00047
 20
79.453958
 30
0.0
 40
0.779441
100
AcDbArc
 50
193.87463
 51
270.0
  0
ARC
  5
326
330
23
100
AcDbEntity
  8
2
100
AcDbCircle
 10
-267.935251
 20
77.174518
 30
0.0
 40
3.0
100
AcDbArc
 50
90.0
 51
136.21672
  0
ARC
  5
327
330
23
100
AcDbEntity
  8
2
100
AcDbCircle
 10
-265.755161
 20
77.674518
 30
0.0
 40
2.5
100
AcDbArc
 50
32.861145
 51
90.0
  0
ARC
  5
328
330
23
100
AcDbEntity
  8
2
100
AcDbCircle
 10
-277.938549
 20
86.00271799999999
 30
0.0
 40
9.683728999999999
100
AcDbArc
 50
193.764481
 51
216.405649
  0
LINE
  5
329
330
23
100
AcDbEntity
  8
2
100
AcDbLine
 10
-281.05634
 20
86.17451800000001
 30
0.0
 11
-285.401616
 21
86.17451800000001
 31
0.0
  0
ARC
  5
32A
330
23
100
AcDbEntity
  8
2
100
AcDbCircle
 10
-266.938277
 20
85.94120600000001
 30
0.0
 40
12.228172
100
AcDbArc
 50
187.132729
 51
209.31396
  0
ARC
  5
32B
330
23
100
AcDbEntity
  8
2
100
AcDbCircle
 10
-285.401616
 20
84.174518
 30
0.0
 40
2.0
100
AcDbArc
 50
90.0
 51
193.764481
  0
ARC
  5
32C
330
23
100
AcDbEntity
  8
2
100
AcDbCircle
 10
-281.05634
 20
84.174518
 30
0.0
 40
2.0
100
AcDbArc
 50
7.132728999999999
 51
90.0
  0
LINE
  5
32D
330
23
100
AcDbEntity
  8
2
100
AcDbLine
 10
-277.721296
 20
80.17451800000001
 30
0.0
 11
-283.68359
 21
80.17451800000001
 31
0.0
  0
ARC
  5
32E
330
23
100
AcDbEntity
  8
2
100
AcDbCircle
 10
-282.602274
 20
82.563613
 30
0.0
 40
3.889095999999999
100
AcDbArc
 50
216.405649
 51
308.53161
  0
ARC
  5
32F
330
23
100
AcDbEntity
  8
2
100
AcDbCircle
 10
-275.414223
 20
81.182011
 30
0.0
 40
2.507493
100
AcDbArc
 50
209.31396
 51
270.0
  0
ARC
  5
330
330
23
100
AcDbEntity
  8
2
100
AcDbCircle
 10
-278.310737
 20
77.174518
 30
0.0
 40
3.0
100
AcDbArc
 50
90.0
 51
128.53161
  0
LINE
  5
331
330
23
100
AcDbEntity
  8
2
100
AcDbLine
 10
-271.450531
 20
78.67451800000001
 30
0.0
 11
-275.414223
 21
78.67451800000001
 31
0.0
  0
ARC
  5
332
330
23
100
AcDbEntity
  8
2
100
AcDbCircle
 10
-289.339106
 20
86.09674699999999
 30
0.0
 40
8.126758999999999
100
AcDbArc
 50
192.393185
 51
223.280016
  0
ARC
  5
333
330
23
100
AcDbEntity
  8
2
100
AcDbCircle
 10
-282.343442
 20
86.03523499999999
 30
0.0
 40
8.979103
100
AcDbArc
 50
187.460956
 51
219.149456
  0
LINE
  5
334
330
23
100
AcDbEntity
  8
2
100
AcDbLine
 10
-292.733824
 20
86.17451700000001
 30
0.0
 11
-295.811448
 21
86.17451700000001
 31
0.0
  0
LINE
  5
335
330
23
100
AcDbEntity
  8
2
100
AcDbLine
 10
-300.79083
 20
86.17451700000001
 30
0.0
 11
-301.997303
 21
86.17450500000002
 31
0.0
  0
LINE
  5
336
330
23
100
AcDbEntity
  8
2
100
AcDbLine
 10
-289.141604
 20
80.17451800000001
 30
0.0
 11
-292.312511
 21
80.17451800000001
 31
0.0
  0
ARC
  5
337
330
23
100
AcDbEntity
  8
2
100
AcDbCircle
 10
-290.970303
 20
84.560659
 30
0.0
 40
5.886141
100
AcDbArc
 50
223.280016
 51
298.241155
  0
ARC
  5
338
330
23
100
AcDbEntity
  8
2
100
AcDbCircle
 10
-285.747878
 20
83.26364100000001
 30
0.0
 40
4.589123999999999
100
AcDbArc
 50
219.149456
 51
270.0
  0
LINE
  5
339
330
23
100
AcDbEntity
  8
2
100
AcDbLine
 10
-282.602274
 20
78.67451800000001
 30
0.0
 11
-285.747878
 21
78.67451800000001
 31
0.0
  0
ARC
  5
33A
330
23
100
AcDbEntity
  8
2
100
AcDbCircle
 10
-295.485778
 20
86.16106999999999
 30
0.0
 40
7.585836999999999
100
AcDbArc
 50
188.615288
 51
226.635861
  0
ARC
  5
33B
330
23
100
AcDbEntity
  8
2
100
AcDbCircle
 10
-291.9666279999999
 20
86.12305400000002
 30
0.0
 40
7.875035999999999
100
AcDbArc
 50
186.135312
 51
224.747415
  0
ARC
  5
33C
330
23
100
AcDbEntity
  8
2
100
AcDbCircle
 10
-292.733824
 20
84.674518
 30
0.0
 40
1.5
100
AcDbArc
 50
7.460955999999998
 51
90.0
  0
ARC
  5
33D
330
23
100
AcDbEntity
  8
2
100
AcDbCircle
 10
-295.811448
 20
84.67451700000001
 30
0.0
 40
1.5
100
AcDbArc
 50
90.0
 51
192.393185
  0
ARC
  5
33E
330
23
100
AcDbEntity
  8
2
100
AcDbCircle
 10
-300.79083
 20
85.17451800000001
 30
0.0
 40
1.0
100
AcDbArc
 50
6.135311999999999
 51
90.0
  0
ARC
  5
33F
330
23
100
AcDbEntity
  8
2
100
AcDbCircle
 10
-301.997303
 20
85.174517
 30
0.0
 40
1.0
100
AcDbArc
 50
90.0
 51
188.615288
  0
ARC
  5
340
330
23
100
AcDbEntity
  8
2
100
AcDbCircle
 10
-295.735496
 20
85.89666899999999
 30
0.0
 40
7.222152
100
AcDbArc
 50
226.635861
 51
281.281293
  0
ARC
  5
341
330
23
100
AcDbEntity
  8
2
100
AcDbCircle
 10
-292.9899049999999
 20
85.108759
 30
0.0
 40
6.434241
100
AcDbArc
 50
224.747415
 51
270.0
  0
LINE
  5
342
330
23
100
AcDbEntity
  8
2
100
AcDbLine
 10
-290.970303
 20
78.67451800000001
 30
0.0
 11
-292.9899049999999
 21
78.67451800000001
 31
0.0
  0
LINE
  5
343
330
23
100
AcDbEntity
  8
2
100
AcDbLine
 10
-295.735496
 20
78.67451800000001
 30
0.0
 11
-296.664223
 21
78.67451800000001
 31
0.0
  0
ARC
  5
344
330
23
100
AcDbEntity
  8
2
100
AcDbCircle
 10
-211.664223
 20
86.17451800000001
 30
0.0
 40
7.5
100
AcDbArc
 50
270.0
 51
90.0
  0
LINE
  5
345
330
23
100
AcDbEntity
  8
2
100
AcDbLine
 10
-241.816085
 20
86.17451800000001
 30
0.0
 11
-235.94541
 21
86.17451800000001
 31
0.0
  0
LINE
  5
346
330
23
100
AcDbEntity
  8
2
100
AcDbLine
 10
-242.573285
 20
80.17451800000001
 30
0.0
 11
-236.644498
 21
80.17451800000001
 31
0.0
  0
ARC
  5
347
330
23
100
AcDbEntity
  8
2
100
AcDbCircle
 10
-248.4722
 20
85.914899
 30
0.0
 40
14.64711
100
AcDbArc
 50
335.142987
 51
352.090372
  0
ARC
  5
348
330
23
100
AcDbEntity
  8
2
100
AcDbCircle
 10
-271.331177
 20
85.876882
 30
0.0
 40
27.564145
100
AcDbArc
 50
346.12537
 51
356.698964
  0
ARC
  5
349
330
23
100
AcDbEntity
  8
2
100
AcDbCircle
 10
-241.816085
 20
84.174518
 30
0.0
 40
2.0
100
AcDbArc
 50
90.0
 51
176.698964
  0
ARC
  5
34A
330
23
100
AcDbEntity
  8
2
100
AcDbCircle
 10
-235.94541
 20
84.174518
 30
0.0
 40
2.0
100
AcDbArc
 50
352.090372
 51
90.0
  0
ARC
  5
34B
330
23
100
AcDbEntity
  8
2
100
AcDbCircle
 10
-236.877916
 20
80.54358099999999
 30
0.0
 40
1.869063
100
AcDbArc
 50
223.78328
 51
335.142987
  0
ARC
  5
34C
330
23
100
AcDbEntity
  8
2
100
AcDbCircle
 10
-245.327976
 20
79.453958
 30
0.0
 40
0.779441
100
AcDbArc
 50
270.0
 51
346.12537
  0
ARC
  5
34D
330
23
100
AcDbEntity
  8
2
100
AcDbCircle
 10
-240.393195
 20
77.174518
 30
0.0
 40
3.0
100
AcDbArc
 50
43.78327999999999
 51
90.0
  0
ARC
  5
34E
330
23
100
AcDbEntity
  8
2
100
AcDbCircle
 10
-242.573285
 20
77.674518
 30
0.0
 40
2.5
100
AcDbArc
 50
90.0
 51
147.138855
  0
ARC
  5
34F
330
23
100
AcDbEntity
  8
2
100
AcDbCircle
 10
-230.389898
 20
86.00271799999999
 30
0.0
 40
9.683728999999999
100
AcDbArc
 50
323.594351
 51
346.235519
  0
LINE
  5
350
330
23
100
AcDbEntity
  8
2
100
AcDbLine
 10
-227.272107
 20
86.17451800000001
 30
0.0
 11
-222.92683
 21
86.17451800000001
 31
0.0
  0
ARC
  5
351
330
23
100
AcDbEntity
  8
2
100
AcDbCircle
 10
-241.390169
 20
85.94120600000001
 30
0.0
 40
12.228172
100
AcDbArc
 50
330.68604
 51
352.867271
  0
ARC
  5
352
330
23
100
AcDbEntity
  8
2
100
AcDbCircle
 10
-222.92683
 20
84.174518
 30
0.0
 40
2.0
100
AcDbArc
 50
346.235519
 51
90.0
  0
ARC
  5
353
330
23
100
AcDbEntity
  8
2
100
AcDbCircle
 10
-227.272107
 20
84.174518
 30
0.0
 40
2.0
100
AcDbArc
 50
90.0
 51
172.867271
  0
LINE
  5
354
330
23
100
AcDbEntity
  8
2
100
AcDbLine
 10
-230.60715
 20
80.17451800000001
 30
0.0
 11
-224.644856
 21
80.17451800000001
 31
0.0
  0
ARC
  5
355
330
23
100
AcDbEntity
  8
2
100
AcDbCircle
 10
-225.726172
 20
82.563613
 30
0.0
 40
3.889095999999999
100
AcDbArc
 50
231.46839
 51
323.594351
  0
ARC
  5
356
330
23
100
AcDbEntity
  8
2
100
AcDbCircle
 10
-232.914223
 20
81.182011
 30
0.0
 40
2.507493
100
AcDbArc
 50
270.0
 51
330.68604
  0
ARC
  5
357
330
23
100
AcDbEntity
  8
2
100
AcDbCircle
 10
-230.017709
 20
77.174518
 30
0.0
 40
3.0
100
AcDbArc
 50
51.46838999999999
 51
90.0
  0
LINE
  5
358
330
23
100
AcDbEntity
  8
2
100
AcDbLine
 10
-236.877916
 20
78.67451800000001
 30
0.0
 11
-232.914223
 21
78.67451800000001
 31
0.0
  0
ARC
  5
359
330
23
100
AcDbEntity
  8
2
100
AcDbCircle
 10
-218.98934
 20
86.09674699999999
 30
0.0
 40
8.126758999999999
100
AcDbArc
 50
316.719984
 51
347.606815
  0
ARC
  5
35A
330
23
100
AcDbEntity
  8
2
100
AcDbCircle
 10
-225.985005
 20
86.03523499999999
 30
0.0
 40
8.979103
100
AcDbArc
 50
320.850544
 51
352.539044
  0
LINE
  5
35B
330
23
100
AcDbEntity
  8
2
100
AcDbLine
 10
-215.594622
 20
86.17451700000001
 30
0.0
 11
-212.516999
 21
86.17451700000001
 31
0.0
  0
LINE
  5
35C
330
23
100
AcDbEntity
  8
2
100
AcDbLine
 10
-207.537616
 20
86.17451700000001
 30
0.0
 11
-206.331143
 21
86.17450500000002
 31
0.0
  0
LINE
  5
35D
330
23
100
AcDbEntity
  8
2
100
AcDbLine
 10
-219.186843
 20
80.17451800000001
 30
0.0
 11
-216.015935
 21
80.17451800000001
 31
0.0
  0
ARC
  5
35E
330
23
100
AcDbEntity
  8
2
100
AcDbCircle
 10
-217.358144
 20
84.560659
 30
0.0
 40
5.886141
100
AcDbArc
 50
241.758845
 51
316.719984
  0
ARC
  5
35F
330
23
100
AcDbEntity
  8
2
100
AcDbCircle
 10
-222.580568
 20
83.26364100000001
 30
0.0
 40
4.589123999999999
100
AcDbArc
 50
270.0
 51
320.850544
  0
LINE
  5
360
330
23
100
AcDbEntity
  8
2
100
AcDbLine
 10
-225.726172
 20
78.67451800000001
 30
0.0
 11
-222.580568
 21
78.67451800000001
 31
0.0
  0
ARC
  5
361
330
23
100
AcDbEntity
  8
2
100
AcDbCircle
 10
-212.842668
 20
86.16106999999999
 30
0.0
 40
7.585836999999999
100
AcDbArc
 50
313.364139
 51
351.384712
  0
ARC
  5
362
330
23
100
AcDbEntity
  8
2
100
AcDbCircle
 10
-216.361819
 20
86.12305400000002
 30
0.0
 40
7.875035999999999
100
AcDbArc
 50
315.252585
 51
353.864688
  0
ARC
  5
363
330
23
100
AcDbEntity
  8
2
100
AcDbCircle
 10
-215.594622
 20
84.674518
 30
0.0
 40
1.5
100
AcDbArc
 50
90.0
 51
172.539044
  0
ARC
  5
364
330
23
100
AcDbEntity
  8
2
100
AcDbCircle
 10
-212.516999
 20
84.67451700000001
 30
0.0
 40
1.5
100
AcDbArc
 50
347.606815
 51
90.0
  0
ARC
  5
365
330
23
100
AcDbEntity
  8
2
100
AcDbCircle
 10
-207.537616
 20
85.17451800000001
 30
0.0
 40
1.0
100
AcDbArc
 50
90.0
 51
173.864688
  0
ARC
  5
366
330
23
100
AcDbEntity
  8
2
100
AcDbCircle
 10
-206.331143
 20
85.174517
 30
0.0
 40
1.0
100
AcDbArc
 50
351.384712
 51
90.0
  0
ARC
  5
367
330
23
100
AcDbEntity
  8
2
100
AcDbCircle
 10
-212.59295
 20
85.89666899999999
 30
0.0
 40
7.222152
100
AcDbArc
 50
258.718707
 51
313.364139
  0
ARC
  5
368
330
23
100
AcDbEntity
  8
2
100
AcDbCircle
 10
-215.338541
 20
85.108759
 30
0.0
 40
6.434241
100
AcDbArc
 50
270.0
 51
315.252585
  0
LINE
  5
369
330
23
100
AcDbEntity
  8
2
100
AcDbLine
 10
-217.358144
 20
78.67451800000001
 30
0.0
 11
-215.338541
 21
78.67451800000001
 31
0.0
  0
LINE
  5
36A
330
23
100
AcDbEntity
  8
2
100
AcDbLine
 10
-212.59295
 20
78.67451800000001
 30
0.0
 11
-211.664223
 21
78.67451800000001
 31
0.0
  0
CIRCLE
  5
36B
330
23
100
AcDbEntity
  8
2
100
AcDbCircle
 10
-254.164223
 20
242.824518
 30
0.0
 40
50.0
  0
ARC
  5
36C
330
23
100
AcDbEntity
  8
2
100
AcDbCircle
 10
-254.164223
 20
242.824518
 30
0.0
 40
35.0
100
AcDbArc
 50
81.988888
 51
98.777778
  0
ARC
  5
36D
330
23
100
AcDbEntity
  8
2
100
AcDbCircle
 10
-254.164223
 20
242.824518
 30
0.0
 40
35.0
100
AcDbArc
 50
202.9
 51
218.177778
  0
ARC
  5
36E
330
23
100
AcDbEntity
  8
2
100
AcDbCircle
 10
-254.164223
 20
242.824518
 30
0.0
 40
35.0
100
AcDbArc
 50
321.177778
 51
337.877777
  0
ARC
  5
36F
330
23
100
AcDbEntity
  8
2
100
AcDbCircle
 10
-285.264223
 20
237.824518
 30
0.0
 40
3.5
100
AcDbArc
 50
189.166667
 51
303.011111
  0
ARC
  5
370
330
23
100
AcDbEntity
  8
2
100
AcDbCircle
 10
-254.164223
 20
242.824518
 30
0.0
 40
35.0
100
AcDbArc
 50
110.822222
 51
189.177778
  0
LINE
  5
371
330
23
100
AcDbEntity
  8
2
100
AcDbLine
 10
-269.264223
 20
244.024518
 30
0.0
 11
-283.364223
 21
234.874518
 31
0.0
  0
ARC
  5
372
330
23
100
AcDbEntity
  8
2
100
AcDbCircle
 10
-265.364223
 20
272.274518
 30
0.0
 40
3.5
100
AcDbArc
 50
356.988889
 51
110.833333
  0
LINE
  5
373
330
23
100
AcDbEntity
  8
2
100
AcDbLine
 10
-262.764223
 20
255.324518
 30
0.0
 11
-261.864223
 21
272.074518
 31
0.0
  0
ARC
  5
374
330
23
100
AcDbEntity
  8
2
100
AcDbCircle
 10
-266.264223
 20
255.474518
 30
0.0
 40
3.5
100
AcDbArc
 50
313.655555
 51
357.0
  0
ARC
  5
375
330
23
100
AcDbEntity
  8
2
100
AcDbCircle
 10
-254.164223
 20
242.824518
 30
0.0
 40
14.0
100
AcDbArc
 50
133.666667
 51
166.366667
  0
ARC
  5
376
330
23
100
AcDbEntity
  8
2
100
AcDbCircle
 10
-271.164223
 20
246.974518
 30
0.0
 40
3.5
100
AcDbArc
 50
303.0
 51
346.344444
  0
LINE
  5
377
330
23
100
AcDbEntity
  8
2
100
AcDbLine
 10
-260.664223
 20
229.174518
 30
0.0
 11
-275.664223
 21
221.524518
 31
0.0
  0
ARC
  5
378
330
23
100
AcDbEntity
  8
2
100
AcDbCircle
 10
-254.164223
 20
242.824518
 30
0.0
 40
35.0
100
AcDbArc
 50
230.8222220000001
 51
309.355555
  0
ARC
  5
379
330
23
100
AcDbEntity
  8
2
100
AcDbCircle
 10
-274.064223
 20
218.424518
 30
0.0
 40
3.5
100
AcDbArc
 50
116.988889
 51
230.833333
  0
ARC
  5
37A
330
23
100
AcDbEntity
  8
2
100
AcDbCircle
 10
-234.264223
 20
218.424518
 30
0.0
 40
3.5
100
AcDbArc
 50
309.166666
 51
63.01111099999999
  0
LINE
  5
37B
330
23
100
AcDbEntity
  8
2
100
AcDbLine
 10
-247.664223
 20
229.174518
 30
0.0
 11
-232.664223
 21
221.524518
 31
0.0
  0
ARC
  5
37C
330
23
100
AcDbEntity
  8
2
100
AcDbCircle
 10
-249.264223
 20
226.024518
 30
0.0
 40
3.5
100
AcDbArc
 50
63.0
 51
106.344444
  0
ARC
  5
37D
330
23
100
AcDbEntity
  8
2
100
AcDbCircle
 10
-254.164223
 20
242.824518
 30
0.0
 40
14.0
100
AcDbArc
 50
253.7
 51
286.3
  0
ARC
  5
37E
330
23
100
AcDbEntity
  8
2
100
AcDbCircle
 10
-259.064223
 20
226.024518
 30
0.0
 40
3.5
100
AcDbArc
 50
73.65555500000001
 51
117.0
  0
ARC
  5
37F
330
23
100
AcDbEntity
  8
2
100
AcDbCircle
 10
-254.164223
 20
242.824518
 30
0.0
 40
35.0
100
AcDbArc
 50
350.822222
 51
69.17777700000001
  0
ARC
  5
380
330
23
100
AcDbEntity
  8
2
100
AcDbCircle
 10
-242.964223
 20
272.274518
 30
0.0
 40
3.5
100
AcDbArc
 50
69.166666
 51
183.011111
  0
LINE
  5
381
330
23
100
AcDbEntity
  8
2
100
AcDbLine
 10
-245.564223
 20
255.324518
 30
0.0
 11
-246.464223
 21
272.074518
 31
0.0
  0
ARC
  5
382
330
23
100
AcDbEntity
  8
2
100
AcDbCircle
 10
-242.064223
 20
255.474518
 30
0.0
 40
3.5
100
AcDbArc
 50
183.0
 51
226.344444
  0
ARC
  5
383
330
23
100
AcDbEntity
  8
2
100
AcDbCircle
 10
-254.164223
 20
242.824518
 30
0.0
 40
14.0
100
AcDbArc
 50
13.633333
 51
46.333333
  0
ARC
  5
384
330
23
100
AcDbEntity
  8
2
100
AcDbCircle
 10
-237.164223
 20
246.974518
 30
0.0
 40
3.5
100
AcDbArc
 50
193.655555
 51
237.0
  0
LINE
  5
385
330
23
100
AcDbEntity
  8
2
100
AcDbLine
 10
-239.064223
 20
244.024518
 30
0.0
 11
-224.964223
 21
234.874518
 31
0.0
  0
ARC
  5
386
330
23
100
AcDbEntity
  8
2
100
AcDbCircle
 10
-223.064223
 20
237.824518
 30
0.0
 40
3.5
100
AcDbArc
 50
236.988889
 51
350.833333
  0
CIRCLE
  5
387
330
23
100
AcDbEntity
  8
2
100
AcDbCircle
 10
-254.164223
 20
242.824518
 30
0.0
 40
12.0
  0
LINE
  5
388
330
23
100
AcDbEntity
  8
2
100
AcDbLine
 10
-282.449529
 20
280.360387
 30
0.0
 11
-277.635009
 21
273.971303
 31
0.0
  0
LINE
  5
389
330
23
100
AcDbEntity
  8
2
100
AcDbLine
 10
-225.878917
 20
280.360387
 30
0.0
 11
-230.693437
 21
273.971303
 31
0.0
  0
ARC
  5
38A
330
23
100
AcDbEntity
  8
2
100
AcDbCircle
 10
-254.164223
 20
242.824518
 30
0.0
 40
47.0
100
AcDbArc
 50
53.0
 51
127.0
  0
ARC
  5
38B
330
23
100
AcDbEntity
  8
2
100
AcDbCircle
 10
-254.164223
 20
242.824518
 30
0.0
 40
39.0
100
AcDbArc
 50
53.0
 51
127.0
  0
LINE
  5
38C
330
23
100
AcDbEntity
  8
2
100
AcDbLine
 10
-265.293442
 20
284.359328
 30
0.0
 11
-262.750628
 21
286.997741
 31
0.0
  0
LINE
  5
38D
330
23
100
AcDbEntity
  8
2
100
AcDbLine
 10
-265.293442
 20
284.359328
 30
0.0
 11
-261.987392
 21
283.071232
 31
0.0
  0
ARC
  5
38E
330
23
100
AcDbEntity
  8
2
100
AcDbCircle
 10
-254.164223
 20
242.824518
 30
0.0
 40
42.0
100
AcDbArc
 50
79.00000099999999
 51
101.000002
  0
LINE
  5
38F
330
23
100
AcDbEntity
  8
2
100
AcDbLine
 10
-262.750628
 20
286.997741
 30
0.0
 11
-262.559819
 21
286.016114
 31
0.0
  0
LINE
  5
390
330
23
100
AcDbEntity
  8
2
100
AcDbLine
 10
-262.178201
 20
284.052859
 30
0.0
 11
-261.987392
 21
283.071232
 31
0.0
  0
LINE
  5
391
330
23
100
AcDbEntity
  8
2
100
AcDbLine
 10
-243.035004
 20
284.359328
 30
0.0
 11
-245.577818
 21
286.997741
 31
0.0
  0
LINE
  5
392
330
23
100
AcDbEntity
  8
2
100
AcDbLine
 10
-243.035004
 20
284.359328
 30
0.0
 11
-246.341054
 21
283.071232
 31
0.0
  0
ARC
  5
393
330
23
100
AcDbEntity
  8
2
100
AcDbCircle
 10
-254.164223
 20
242.824518
 30
0.0
 40
44.0
100
AcDbArc
 50
79.00000099999999
 51
101.000002
  0
LINE
  5
394
330
23
100
AcDbEntity
  8
2
100
AcDbLine
 10
-245.577818
 20
286.997741
 30
0.0
 11
-245.768627
 21
286.016114
 31
0.0
  0
LINE
  5
395
330
23
100
AcDbEntity
  8
2
100
AcDbLine
 10
-246.150245
 20
284.052859
 30
0.0
 11
-246.341054
 21
283.071232
 31
0.0
  0
TEXT
  5
396
330
23
100
AcDbEntity
  8
2
100
AcDbText
 10
-277.587009
 20
276.534651
 30
0.0
 40
4.0
  1
Ｏ
 50
32.00000450635875
 41
0.9230769998383362
 72
     5
 11
-274.873255
 21
278.230393
 31
0.0
100
AcDbText
  0
TEXT
  5
397
330
23
100
AcDbEntity
  8
2
100
AcDbText
 10
-275.178452
 20
278.0864259999999
 30
0.0
 40
4.0
  1
Ｐ
 50
28.00000248332587
 41
0.999999917876215
 72
     5
 11
-272.35302
 21
279.588735
 31
0.0
100
AcDbText
  0
TEXT
  5
398
330
23
100
AcDbEntity
  8
2
100
AcDbText
 10
-272.667516
 20
279.466408
 30
0.0
 40
4.0
  1
Ｅ
 50
23.99999916492268
 41
1.090908910508201
 72
     5
 11
-269.744171
 21
280.767965
 31
0.0
100
AcDbText
  0
TEXT
  5
399
330
23
100
AcDbEntity
  8
2
100
AcDbText
 10
-270.0664339999999
 20
280.667875
 30
0.0
 40
4.0
  1
Ｎ
 50
19.99999465024344
 41
0.9230767730567103
 72
     5
 11
-267.059418
 21
281.762339
 31
0.0
100
AcDbText
  0
TEXT
  5
39A
330
23
100
AcDbEntity
  8
2
100
AcDbText
 10
-242.020783
 20
282.035955
 30
0.0
 40
4.0
  1
Ｓ
 50
340.0000114736024
 41
1.000000131132064
 72
     5
 11
-239.013766
 21
280.941491
 31
0.0
100
AcDbText
  0
TEXT
  5
39B
330
23
100
AcDbEntity
  8
2
100
AcDbText
 10
-239.315112
 20
281.093355
 30
0.0
 40
4.0
  1
Ｈ
 50
335.9999917607028
 41
1.000000247220659
 72
     5
 11
-236.391766
 21
279.791797
 31
0.0
100
AcDbText
  0
TEXT
  5
39C
330
23
100
AcDbEntity
  8
2
100
AcDbText
 10
-236.681784
 20
279.964312
 30
0.0
 40
4.0
  1
Ｕ
 50
331.9999975166741
 41
0.9230768472703525
 72
     5
 11
-233.856352
 21
278.462003
 31
0.0
100
AcDbText
  0
TEXT
  5
39D
330
23
100
AcDbEntity
  8
2
100
AcDbText
 10
-234.13363
 20
278.654328
 30
0.0
 40
4.0
  1
Ｔ
 50
327.9999954936413
 41
0.9230769998383362
 72
     5
 11
-231.419876
 21
276.958586
 31
0.0
100
AcDbText
  0
ARC
  5
39E
330
23
100
AcDbEntity
  8
2
100
AcDbCircle
 10
-254.164223
 20
242.824518
 30
0.0
 40
42.5
100
AcDbArc
 50
127.0
 51
53.0
  0
CIRCLE
  5
39F
330
23
100
AcDbEntity
  8
2
100
AcDbCircle
 10
-254.164223
 20
242.824518
 30
0.0
 40
10.0
  0
CIRCLE
  5
3A0
330
23
100
AcDbEntity
  8
2
100
AcDbCircle
 10
-254.164223
 20
242.824518
 30
0.0
 40
4.9
  0
CIRCLE
  5
3A1
330
23
100
AcDbEntity
  8
2
100
AcDbCircle
 10
-254.164223
 20
242.824518
 30
0.0
 40
6.099999999999999
  0
LINE
  5
3A2
330
23
100
AcDbEntity
  8
2
100
AcDbLine
 10
-257.050975
 20
247.824518
 30
0.0
 11
-251.277472
 21
247.824518
 31
0.0
  0
LINE
  5
3A3
330
23
100
AcDbEntity
  8
2
100
AcDbLine
 10
-257.050975
 20
237.824518
 30
0.0
 11
-251.277472
 21
237.824518
 31
0.0
  0
LINE
  5
3A4
330
23
100
AcDbEntity
  8
2
100
AcDbLine
 10
-259.937726
 20
242.824518
 30
0.0
 11
-257.050975
 21
247.824518
 31
0.0
  0
LINE
  5
3A5
330
23
100
AcDbEntity
  8
2
100
AcDbLine
 10
-251.277472
 20
237.824518
 30
0.0
 11
-248.39072
 21
242.824518
 31
0.0
  0
LINE
  5
3A6
330
23
100
AcDbEntity
  8
2
100
AcDbLine
 10
-257.050975
 20
237.824518
 30
0.0
 11
-259.937726
 21
242.824518
 31
0.0
  0
LINE
  5
3A7
330
23
100
AcDbEntity
  8
2
100
AcDbLine
 10
-248.39072
 20
242.824518
 30
0.0
 11
-251.277472
 21
247.824518
 31
0.0
  0
LINE
  5
3A8
330
23
100
AcDbEntity
  8
2
100
AcDbLine
 10
26.885777
 20
93.67451800000001
 30
0.0
 11
111.885777
 21
93.67451800000001
 31
0.0
  0
ARC
  5
3A9
330
23
100
AcDbEntity
  8
2
100
AcDbCircle
 10
26.885777
 20
86.17451800000001
 30
0.0
 40
7.5
100
AcDbArc
 50
90.0
 51
270.0
  0
LINE
  5
3AA
330
23
100
AcDbEntity
  8
2
100
AcDbLine
 10
81.385777
 20
78.67451800000001
 30
0.0
 11
57.385777
 21
78.67451800000001
 31
0.0
  0
ARC
  5
3AB
330
23
100
AcDbEntity
  8
2
100
AcDbCircle
 10
70.448277
 20
86.17451800000001
 30
0.0
 40
15.0625
100
AcDbArc
 50
203.47446
 51
209.862834
  0
ARC
  5
3AC
330
23
100
AcDbEntity
  8
2
100
AcDbCircle
 10
68.323277
 20
86.17451800000001
 30
0.0
 40
15.0625
100
AcDbArc
 50
330.137166
 51
336.544162
  0
LINE
  5
3AD
330
23
100
AcDbEntity
  8
2
100
AcDbLine
 10
72.585661
 20
86.17451800000001
 30
0.0
 11
66.185893
 21
86.17451800000001
 31
0.0
  0
LINE
  5
3AE
330
23
100
AcDbEntity
  8
2
100
AcDbLine
 10
71.036124
 20
80.17451800000001
 30
0.0
 11
67.73542900000001
 21
80.17451800000001
 31
0.0
  0
LINE
  5
3AF
330
23
100
AcDbEntity
  8
2
100
AcDbLine
 10
57.037639
 20
86.17451800000001
 30
0.0
 11
51.166964
 21
86.17451800000001
 31
0.0
  0
LINE
  5
3B0
330
23
100
AcDbEntity
  8
2
100
AcDbLine
 10
57.794839
 20
80.17451800000001
 30
0.0
 11
51.866052
 21
80.17451800000001
 31
0.0
  0
ARC
  5
3B1
330
23
100
AcDbEntity
  8
2
100
AcDbCircle
 10
118.410963
 20
85.866834
 30
0.0
 40
54.25248199999999
100
AcDbArc
 50
181.85598
 51
187.294014
  0
ARC
  5
3B2
330
23
100
AcDbEntity
  8
2
100
AcDbCircle
 10
20.360591
 20
85.866834
 30
0.0
 40
54.25248199999999
100
AcDbArc
 50
352.705986
 51
358.14402
  0
ARC
  5
3B3
330
23
100
AcDbEntity
  8
2
100
AcDbCircle
 10
66.185893
 20
84.174518
 30
0.0
 40
2.0
100
AcDbArc
 50
90.0
 51
181.85598
  0
ARC
  5
3B4
330
23
100
AcDbEntity
  8
2
100
AcDbCircle
 10
72.585661
 20
84.174518
 30
0.0
 40
2.0
100
AcDbArc
 50
358.14402
 51
90.0
  0
ARC
  5
3B5
330
23
100
AcDbEntity
  8
2
100
AcDbCircle
 10
67.73542900000001
 20
77.174518
 30
0.0
 40
3.0
100
AcDbArc
 50
90.0
 51
146.491844
  0
ARC
  5
3B6
330
23
100
AcDbEntity
  8
2
100
AcDbCircle
 10
64.943317
 20
79.02314799999999
 30
0.0
 40
0.34863
100
AcDbArc
 50
187.294014
 51
326.491844
  0
ARC
  5
3B7
330
23
100
AcDbEntity
  8
2
100
AcDbCircle
 10
71.036124
 20
77.174518
 30
0.0
 40
3.0
100
AcDbArc
 50
33.508156
 51
90.0
  0
ARC
  5
3B8
330
23
100
AcDbEntity
  8
2
100
AcDbCircle
 10
73.828237
 20
79.02314799999999
 30
0.0
 40
0.34863
100
AcDbArc
 50
213.508156
 51
352.705986
  0
ARC
  5
3B9
330
23
100
AcDbEntity
  8
2
100
AcDbCircle
 10
63.693754
 20
85.914899
 30
0.0
 40
14.64711
100
AcDbArc
 50
187.909628
 51
204.857013
  0
ARC
  5
3BA
330
23
100
AcDbEntity
  8
2
100
AcDbCircle
 10
86.552731
 20
85.876882
 30
0.0
 40
27.564145
100
AcDbArc
 50
183.301036
 51
193.87463
  0
ARC
  5
3BB
330
23
100
AcDbEntity
  8
2
100
AcDbCircle
 10
57.037639
 20
84.174518
 30
0.0
 40
2.0
100
AcDbArc
 50
3.301035999999999
 51
90.0
  0
ARC
  5
3BC
330
23
100
AcDbEntity
  8
2
100
AcDbCircle
 10
51.166964
 20
84.174518
 30
0.0
 40
2.0
100
AcDbArc
 50
90.0
 51
187.909628
  0
ARC
  5
3BD
330
23
100
AcDbEntity
  8
2
100
AcDbCircle
 10
52.099469
 20
80.54358099999999
 30
0.0
 40
1.869063
100
AcDbArc
 50
204.857013
 51
316.21672
  0
ARC
  5
3BE
330
23
100
AcDbEntity
  8
2
100
AcDbCircle
 10
60.54953000000001
 20
79.453958
 30
0.0
 40
0.779441
100
AcDbArc
 50
193.87463
 51
270.0
  0
ARC
  5
3BF
330
23
100
AcDbEntity
  8
2
100
AcDbCircle
 10
55.614749
 20
77.174518
 30
0.0
 40
3.0
100
AcDbArc
 50
90.0
 51
136.21672
  0
ARC
  5
3C0
330
23
100
AcDbEntity
  8
2
100
AcDbCircle
 10
57.794839
 20
77.674518
 30
0.0
 40
2.5
100
AcDbArc
 50
32.861145
 51
90.0
  0
ARC
  5
3C1
330
23
100
AcDbEntity
  8
2
100
AcDbCircle
 10
45.611451
 20
86.00271799999999
 30
0.0
 40
9.683728999999999
100
AcDbArc
 50
193.764481
 51
216.405649
  0
LINE
  5
3C2
330
23
100
AcDbEntity
  8
2
100
AcDbLine
 10
42.49366
 20
86.17451800000001
 30
0.0
 11
38.148384
 21
86.17451800000001
 31
0.0
  0
ARC
  5
3C3
330
23
100
AcDbEntity
  8
2
100
AcDbCircle
 10
56.611723
 20
85.94120600000001
 30
0.0
 40
12.228172
100
AcDbArc
 50
187.132729
 51
209.31396
  0
ARC
  5
3C4
330
23
100
AcDbEntity
  8
2
100
AcDbCircle
 10
38.148384
 20
84.174518
 30
0.0
 40
2.0
100
AcDbArc
 50
90.0
 51
193.764481
  0
ARC
  5
3C5
330
23
100
AcDbEntity
  8
2
100
AcDbCircle
 10
42.49366
 20
84.174518
 30
0.0
 40
2.0
100
AcDbArc
 50
7.132728999999999
 51
90.0
  0
LINE
  5
3C6
330
23
100
AcDbEntity
  8
2
100
AcDbLine
 10
45.828704
 20
80.17451800000001
 30
0.0
 11
39.86641
 21
80.17451800000001
 31
0.0
  0
ARC
  5
3C7
330
23
100
AcDbEntity
  8
2
100
AcDbCircle
 10
40.947726
 20
82.563613
 30
0.0
 40
3.889095999999999
100
AcDbArc
 50
216.405649
 51
308.53161
  0
ARC
  5
3C8
330
23
100
AcDbEntity
  8
2
100
AcDbCircle
 10
48.135777
 20
81.182011
 30
0.0
 40
2.507493
100
AcDbArc
 50
209.31396
 51
270.0
  0
ARC
  5
3C9
330
23
100
AcDbEntity
  8
2
100
AcDbCircle
 10
45.239263
 20
77.174518
 30
0.0
 40
3.0
100
AcDbArc
 50
90.0
 51
128.53161
  0
LINE
  5
3CA
330
23
100
AcDbEntity
  8
2
100
AcDbLine
 10
52.099469
 20
78.67451800000001
 30
0.0
 11
48.135777
 21
78.67451800000001
 31
0.0
  0
ARC
  5
3CB
330
23
100
AcDbEntity
  8
2
100
AcDbCircle
 10
34.210894
 20
86.09674699999999
 30
0.0
 40
8.126758999999999
100
AcDbArc
 50
192.393185
 51
223.280016
  0
ARC
  5
3CC
330
23
100
AcDbEntity
  8
2
100
AcDbCircle
 10
41.206558
 20
86.03523499999999
 30
0.0
 40
8.979103
100
AcDbArc
 50
187.460956
 51
219.149456
  0
LINE
  5
3CD
330
23
100
AcDbEntity
  8
2
100
AcDbLine
 10
30.816176
 20
86.17451700000001
 30
0.0
 11
27.738552
 21
86.17451700000001
 31
0.0
  0
LINE
  5
3CE
330
23
100
AcDbEntity
  8
2
100
AcDbLine
 10
22.75917
 20
86.17451700000001
 30
0.0
 11
21.552697
 21
86.17450500000002
 31
0.0
  0
LINE
  5
3CF
330
23
100
AcDbEntity
  8
2
100
AcDbLine
 10
34.408396
 20
80.17451800000001
 30
0.0
 11
31.237489
 21
80.17451800000001
 31
0.0
  0
ARC
  5
3D0
330
23
100
AcDbEntity
  8
2
100
AcDbCircle
 10
32.579697
 20
84.560659
 30
0.0
 40
5.886141
100
AcDbArc
 50
223.280016
 51
298.241155
  0
ARC
  5
3D1
330
23
100
AcDbEntity
  8
2
100
AcDbCircle
 10
37.802122
 20
83.26364100000001
 30
0.0
 40
4.589123999999999
100
AcDbArc
 50
219.149456
 51
270.0
  0
LINE
  5
3D2
330
23
100
AcDbEntity
  8
2
100
AcDbLine
 10
40.947726
 20
78.67451800000001
 30
0.0
 11
37.802122
 21
78.67451800000001
 31
0.0
  0
ARC
  5
3D3
330
23
100
AcDbEntity
  8
2
100
AcDbCircle
 10
28.064222
 20
86.16106999999999
 30
0.0
 40
7.585836999999999
100
AcDbArc
 50
188.615288
 51
226.635861
  0
ARC
  5
3D4
330
23
100
AcDbEntity
  8
2
100
AcDbCircle
 10
31.583372
 20
86.12305400000002
 30
0.0
 40
7.875035999999999
100
AcDbArc
 50
186.135312
 51
224.747415
  0
ARC
  5
3D5
330
23
100
AcDbEntity
  8
2
100
AcDbCircle
 10
30.816176
 20
84.674518
 30
0.0
 40
1.5
100
AcDbArc
 50
7.460955999999998
 51
90.0
  0
ARC
  5
3D6
330
23
100
AcDbEntity
  8
2
100
AcDbCircle
 10
27.738552
 20
84.67451700000001
 30
0.0
 40
1.5
100
AcDbArc
 50
90.0
 51
192.393185
  0
ARC
  5
3D7
330
23
100
AcDbEntity
  8
2
100
AcDbCircle
 10
22.75917
 20
85.17451800000001
 30
0.0
 40
1.0
100
AcDbArc
 50
6.135311999999999
 51
90.0
  0
ARC
  5
3D8
330
23
100
AcDbEntity
  8
2
100
AcDbCircle
 10
21.552697
 20
85.174517
 30
0.0
 40
1.0
100
AcDbArc
 50
90.0
 51
188.615288
  0
ARC
  5
3D9
330
23
100
AcDbEntity
  8
2
100
AcDbCircle
 10
27.814504
 20
85.89666899999999
 30
0.0
 40
7.222152
100
AcDbArc
 50
226.635861
 51
281.281293
  0
ARC
  5
3DA
330
23
100
AcDbEntity
  8
2
100
AcDbCircle
 10
30.560095
 20
85.108759
 30
0.0
 40
6.434241
100
AcDbArc
 50
224.747415
 51
270.0
  0
LINE
  5
3DB
330
23
100
AcDbEntity
  8
2
100
AcDbLine
 10
32.579697
 20
78.67451800000001
 30
0.0
 11
30.560095
 21
78.67451800000001
 31
0.0
  0
LINE
  5
3DC
330
23
100
AcDbEntity
  8
2
100
AcDbLine
 10
27.814504
 20
78.67451800000001
 30
0.0
 11
26.885777
 21
78.67451800000001
 31
0.0
  0
ARC
  5
3DD
330
23
100
AcDbEntity
  8
2
100
AcDbCircle
 10
111.885777
 20
86.17451800000001
 30
0.0
 40
7.5
100
AcDbArc
 50
270.0
 51
90.0
  0
LINE
  5
3DE
330
23
100
AcDbEntity
  8
2
100
AcDbLine
 10
81.73391499999999
 20
86.17451800000001
 30
0.0
 11
87.60459
 21
86.17451800000001
 31
0.0
  0
LINE
  5
3DF
330
23
100
AcDbEntity
  8
2
100
AcDbLine
 10
80.976715
 20
80.17451800000001
 30
0.0
 11
86.905502
 21
80.17451800000001
 31
0.0
  0
ARC
  5
3E0
330
23
100
AcDbEntity
  8
2
100
AcDbCircle
 10
75.0778
 20
85.914899
 30
0.0
 40
14.64711
100
AcDbArc
 50
335.142987
 51
352.090372
  0
ARC
  5
3E1
330
23
100
AcDbEntity
  8
2
100
AcDbCircle
 10
52.218823
 20
85.876882
 30
0.0
 40
27.564145
100
AcDbArc
 50
346.12537
 51
356.698964
  0
ARC
  5
3E2
330
23
100
AcDbEntity
  8
2
100
AcDbCircle
 10
81.73391499999999
 20
84.174518
 30
0.0
 40
2.0
100
AcDbArc
 50
90.0
 51
176.698964
  0
ARC
  5
3E3
330
23
100
AcDbEntity
  8
2
100
AcDbCircle
 10
87.60459
 20
84.174518
 30
0.0
 40
2.0
100
AcDbArc
 50
352.090372
 51
90.0
  0
ARC
  5
3E4
330
23
100
AcDbEntity
  8
2
100
AcDbCircle
 10
86.67208399999999
 20
80.54358099999999
 30
0.0
 40
1.869063
100
AcDbArc
 50
223.78328
 51
335.142987
  0
ARC
  5
3E5
330
23
100
AcDbEntity
  8
2
100
AcDbCircle
 10
78.222024
 20
79.453958
 30
0.0
 40
0.779441
100
AcDbArc
 50
270.0
 51
346.12537
  0
ARC
  5
3E6
330
23
100
AcDbEntity
  8
2
100
AcDbCircle
 10
83.156805
 20
77.174518
 30
0.0
 40
3.0
100
AcDbArc
 50
43.78327999999999
 51
90.0
  0
ARC
  5
3E7
330
23
100
AcDbEntity
  8
2
100
AcDbCircle
 10
80.976715
 20
77.674518
 30
0.0
 40
2.5
100
AcDbArc
 50
90.0
 51
147.138855
  0
ARC
  5
3E8
330
23
100
AcDbEntity
  8
2
100
AcDbCircle
 10
93.16010199999999
 20
86.00271799999999
 30
0.0
 40
9.683728999999999
100
AcDbArc
 50
323.594351
 51
346.235519
  0
LINE
  5
3E9
330
23
100
AcDbEntity
  8
2
100
AcDbLine
 10
96.27789300000001
 20
86.17451800000001
 30
0.0
 11
100.62317
 21
86.17451800000001
 31
0.0
  0
ARC
  5
3EA
330
23
100
AcDbEntity
  8
2
100
AcDbCircle
 10
82.159831
 20
85.94120600000001
 30
0.0
 40
12.228172
100
AcDbArc
 50
330.68604
 51
352.867271
  0
ARC
  5
3EB
330
23
100
AcDbEntity
  8
2
100
AcDbCircle
 10
100.62317
 20
84.174518
 30
0.0
 40
2.0
100
AcDbArc
 50
346.235519
 51
90.0
  0
ARC
  5
3EC
330
23
100
AcDbEntity
  8
2
100
AcDbCircle
 10
96.27789300000001
 20
84.174518
 30
0.0
 40
2.0
100
AcDbArc
 50
90.0
 51
172.867271
  0
LINE
  5
3ED
330
23
100
AcDbEntity
  8
2
100
AcDbLine
 10
92.94285
 20
80.17451800000001
 30
0.0
 11
98.905144
 21
80.17451800000001
 31
0.0
  0
ARC
  5
3EE
330
23
100
AcDbEntity
  8
2
100
AcDbCircle
 10
97.823828
 20
82.563613
 30
0.0
 40
3.889095999999999
100
AcDbArc
 50
231.46839
 51
323.594351
  0
ARC
  5
3EF
330
23
100
AcDbEntity
  8
2
100
AcDbCircle
 10
90.63577700000001
 20
81.182011
 30
0.0
 40
2.507493
100
AcDbArc
 50
270.0
 51
330.68604
  0
ARC
  5
3F0
330
23
100
AcDbEntity
  8
2
100
AcDbCircle
 10
93.532291
 20
77.174518
 30
0.0
 40
3.0
100
AcDbArc
 50
51.46838999999999
 51
90.0
  0
LINE
  5
3F1
330
23
100
AcDbEntity
  8
2
100
AcDbLine
 10
86.67208399999999
 20
78.67451800000001
 30
0.0
 11
90.63577700000001
 21
78.67451800000001
 31
0.0
  0
ARC
  5
3F2
330
23
100
AcDbEntity
  8
2
100
AcDbCircle
 10
104.56066
 20
86.09674699999999
 30
0.0
 40
8.126758999999999
100
AcDbArc
 50
316.719984
 51
347.606815
  0
ARC
  5
3F3
330
23
100
AcDbEntity
  8
2
100
AcDbCircle
 10
97.564995
 20
86.03523499999999
 30
0.0
 40
8.979103
100
AcDbArc
 50
320.850544
 51
352.539044
  0
LINE
  5
3F4
330
23
100
AcDbEntity
  8
2
100
AcDbLine
 10
107.955378
 20
86.17451700000001
 30
0.0
 11
111.033001
 21
86.17451700000001
 31
0.0
  0
LINE
  5
3F5
330
23
100
AcDbEntity
  8
2
100
AcDbLine
 10
116.012384
 20
86.17451700000001
 30
0.0
 11
117.218857
 21
86.17450500000002
 31
0.0
  0
LINE
  5
3F6
330
23
100
AcDbEntity
  8
2
100
AcDbLine
 10
104.363157
 20
80.17451800000001
 30
0.0
 11
107.534065
 21
80.17451800000001
 31
0.0
  0
ARC
  5
3F7
330
23
100
AcDbEntity
  8
2
100
AcDbCircle
 10
106.191856
 20
84.560659
 30
0.0
 40
5.886141
100
AcDbArc
 50
241.758845
 51
316.719984
  0
ARC
  5
3F8
330
23
100
AcDbEntity
  8
2
100
AcDbCircle
 10
100.969432
 20
83.26364100000001
 30
0.0
 40
4.589123999999999
100
AcDbArc
 50
270.0
 51
320.850544
  0
LINE
  5
3F9
330
23
100
AcDbEntity
  8
2
100
AcDbLine
 10
97.823828
 20
78.67451800000001
 30
0.0
 11
100.969432
 21
78.67451800000001
 31
0.0
  0
ARC
  5
3FA
330
23
100
AcDbEntity
  8
2
100
AcDbCircle
 10
110.707332
 20
86.16106999999999
 30
0.0
 40
7.585836999999999
100
AcDbArc
 50
313.364139
 51
351.384712
  0
ARC
  5
3FB
330
23
100
AcDbEntity
  8
2
100
AcDbCircle
 10
107.188181
 20
86.12305400000002
 30
0.0
 40
7.875035999999999
100
AcDbArc
 50
315.252585
 51
353.864688
  0
ARC
  5
3FC
330
23
100
AcDbEntity
  8
2
100
AcDbCircle
 10
107.955378
 20
84.674518
 30
0.0
 40
1.5
100
AcDbArc
 50
90.0
 51
172.539044
  0
ARC
  5
3FD
330
23
100
AcDbEntity
  8
2
100
AcDbCircle
 10
111.033001
 20
84.67451700000001
 30
0.0
 40
1.5
100
AcDbArc
 50
347.606815
 51
90.0
  0
ARC
  5
3FE
330
23
100
AcDbEntity
  8
2
100
AcDbCircle
 10
116.012384
 20
85.17451800000001
 30
0.0
 40
1.0
100
AcDbArc
 50
90.0
 51
173.864688
  0
ARC
  5
3FF
330
23
100
AcDbEntity
  8
2
100
AcDbCircle
 10
117.218857
 20
85.174517
 30
0.0
 40
1.0
100
AcDbArc
 50
351.384712
 51
90.0
  0
ARC
  5
400
330
23
100
AcDbEntity
  8
2
100
AcDbCircle
 10
110.95705
 20
85.89666899999999
 30
0.0
 40
7.222152
100
AcDbArc
 50
258.718707
 51
313.364139
  0
ARC
  5
401
330
23
100
AcDbEntity
  8
2
100
AcDbCircle
 10
108.211459
 20
85.108759
 30
0.0
 40
6.434241
100
AcDbArc
 50
270.0
 51
315.252585
  0
LINE
  5
402
330
23
100
AcDbEntity
  8
2
100
AcDbLine
 10
106.191856
 20
78.67451800000001
 30
0.0
 11
108.211459
 21
78.67451800000001
 31
0.0
  0
LINE
  5
403
330
23
100
AcDbEntity
  8
2
100
AcDbLine
 10
110.95705
 20
78.67451800000001
 30
0.0
 11
111.885777
 21
78.67451800000001
 31
0.0
  0
DIMENSION
  5
404
330
23
100
AcDbEntity
  8
5
100
AcDbDimension
  2
*D0
 10
95.38577700000001
 20
-334.523945
 30
0.0
 11
69.385777
 21
-328.073945
 31
0.0
  1
52
 71
     5
 42
-1.0
100
AcDbAlignedDimension
 13
43.385777
 23
-273.3254819999999
 33
0.0
 14
95.38577700000001
 24
-273.3254819999999
 34
0.0
100
AcDbRotatedDimension
  0
DIMENSION
  5
405
330
23
100
AcDbEntity
  8
5
100
AcDbDimension
  2
*D1
 10
-20.185604
 20
-201.325482
 30
0.0
 11
-32.080604
 21
-252.770482
 31
0.0
  1
102
 71
     5
 42
-1.0
100
AcDbAlignedDimension
 13
64.385777
 23
-303.225482
 33
0.0
 14
21.785777
 24
-201.325482
 34
0.0
 50
90.0
100
AcDbRotatedDimension
  0
DIMENSION
  5
406
330
23
100
AcDbEntity
  8
5
100
AcDbDimension
  2
*D2
 10
-20.185604
 20
-34.325482
 30
0.0
 11
-32.080604
 21
-118.320482
 31
0.0
  1
167
 71
     5
 42
-1.0
100
AcDbAlignedDimension
 13
21.785777
 23
-201.325482
 33
0.0
 14
30.385777
 24
-34.325482
 34
0.0
 50
90.0
100
AcDbRotatedDimension
  0
DIMENSION
  5
407
330
23
100
AcDbEntity
  8
5
100
AcDbDimension
  2
*D3
 10
-20.185604
 20
101.174518
 30
0.0
 11
-32.080604
 21
32.929518
 31
0.0
  1
136
 71
     5
 42
-1.0
100
AcDbAlignedDimension
 13
30.385777
 23
-34.325482
 33
0.0
 14
64.385777
 24
101.174518
 34
0.0
 50
90.0
100
AcDbRotatedDimension
  0
DIMENSION
  5
408
330
23
100
AcDbEntity
  8
5
100
AcDbDimension
  2
*D4
 10
119.385777
 20
142.491039
 30
0.0
 11
69.385777
 21
148.941039
 31
0.0
 70
     1
  1
%%c100
 71
     5
 42
-1.0
100
AcDbAlignedDimension
 13
19.38577699999999
 23
86.17451800000001
 33
0.0
 14
119.385777
 24
86.17451800000001
 34
0.0
  0
TEXT
  5
409
330
23
100
AcDbEntity
  8
DEFPOINT
100
AcDbText
 10
366.506401
 20
-399.145615
 30
0.0
 40
9.0
  1
１
 41
1.499999999999997
 72
     5
 11
373.706401
 21
-399.145615
 31
0.0
100
AcDbText
  0
TEXT
  5
40A
330
23
100
AcDbEntity
  8
DEFPOINT
100
AcDbText
 10
380.268219
 20
-410.4385069999999
 30
0.0
 40
9.0
  1
３
 72
     5
 11
387.468219
 21
-410.4385069999999
 31
0.0
100
AcDbText
  0
TEXT
  5
40B
330
23
100
AcDbEntity
  8
18
100
AcDbText
 10
368.562721
 20
-369.105789
 30
0.0
 40
9.0
  1
700G,701G－2GAS　100A
 41
0.8
100
AcDbText
  0
TEXT
  5
40C
330
23
100
AcDbEntity
  8
18
100
AcDbText
 10
368.562721
 20
-381.105789
 30
0.0
 40
9.0
  1
標準仕様　JIS 5,10K
 41
0.8
100
AcDbText
  0
TEXT
  5
40D
330
23
100
AcDbEntity
  8
18
100
AcDbText
 10
460.8
 20
-408.0
 30
0.0
 40
15.0
  1
D3－03526
 41
1.028894472361808
 72
     5
 11
577.7999999999999
 21
-408.0
 31
0.0
100
AcDbText
  0
TEXT
  5
40E
330
23
100
AcDbEntity
  8
18
100
AcDbText
 10
545.4955899999999
 20
-381.492096
 30
0.0
 40
6.75
  1
′０４．７．９
 41
0.8500000000000015
 72
     5
 11
591.3955900000001
 21
-381.492096
 31
0.0
100
AcDbText
  0
LINE
  5
40F
330
23
100
AcDbEntity
  8
20
 62
     3
100
AcDbLine
 10
-540.0
 20
-415.5
 30
0.0
 11
600.0
 21
-415.5
 31
0.0
  0
LINE
  5
410
330
23
100
AcDbEntity
  8
20
 62
     3
100
AcDbLine
 10
-540.0
 20
396.0
 30
0.0
 11
600.0
 21
396.0
 31
0.0
  0
LINE
  5
411
330
23
100
AcDbEntity
  8
20
 62
     3
100
AcDbLine
 10
-540.0
 20
396.0
 30
0.0
 11
-540.0
 21
-415.5
 31
0.0
  0
LINE
  5
412
330
23
100
AcDbEntity
  8
20
 62
     3
100
AcDbLine
 10
600.0
 20
396.0
 30
0.0
 11
600.0
 21
-415.5
 31
0.0
  0
LINE
  5
413
330
23
100
AcDbEntity
  8
20
 62
     3
100
AcDbLine
 10
180.0
 20
-415.5
 30
0.0
 11
180.0
 21
-355.5
 31
0.0
  0
LINE
  5
414
330
23
100
AcDbEntity
  8
20
 62
     3
100
AcDbLine
 10
321.0
 20
-415.5
 30
0.0
 11
321.0
 21
-355.5
 31
0.0
  0
LINE
  5
415
330
23
100
AcDbEntity
  8
20
100
AcDbLine
 10
321.0
 20
-385.5
 30
0.0
 11
600.0
 21
-385.5
 31
0.0
  0
LINE
  5
416
330
23
100
AcDbEntity
  8
20
 62
     3
100
AcDbLine
 10
180.0
 20
-355.5
 30
0.0
 11
600.0
 21
-355.5
 31
0.0
  0
LINE
  5
417
330
23
100
AcDbEntity
  8
20
100
AcDbLine
 10
540.0
 20
-385.5
 30
0.0
 11
540.0
 21
-355.5
 31
0.0
  0
LINE
  5
418
330
23
100
AcDbEntity
  8
20
100
AcDbLine
 10
540.0
 20
-370.5
 30
0.0
 11
600.0
 21
-370.5
 31
0.0
  0
LINE
  5
419
330
23
100
AcDbEntity
  8
20
100
AcDbLine
 10
363.0
 20
-415.5
 30
0.0
 11
363.0
 21
-355.5
 31
0.0
  0
LINE
  5
41A
330
23
100
AcDbEntity
  8
20
100
AcDbLine
 10
393.0
 20
-415.5
 30
0.0
 11
393.0
 21
-385.5
 31
0.0
  0
LINE
  5
41B
330
23
100
AcDbEntity
  8
20
100
AcDbLine
 10
453.0
 20
-415.5
 30
0.0
 11
453.0
 21
-385.5
 31
0.0
  0
LINE
  5
41C
330
23
100
AcDbEntity
  8
20
100
AcDbLine
 10
371.185244
 20
-407.3147559999999
 30
0.0
 11
383.694872
 21
-394.8051279999999
 31
0.0
  0
TEXT
  5
41D
330
23
100
AcDbEntity
  8
20
100
AcDbText
 10
394.599987
 20
-397.490753
 30
0.0
 40
5.4
  1
ＤＲＡＷＩＮＧ　ＮＯ．
 41
0.8804347826086956
 72
     5
 11
452.919987
 21
-397.490753
 31
0.0
100
AcDbText
  0
TEXT
  5
41E
330
23
100
AcDbEntity
  8
20
100
AcDbText
 10
400.4999999999999
 20
-409.4999999999999
 30
0.0
 40
9.0
  1
図　　　番
 41
0.8372093023255812
 72
     5
 11
443.7
 21
-409.4999999999999
 31
0.0
100
AcDbText
  0
TEXT
  5
41F
330
23
100
AcDbEntity
  8
20
100
AcDbText
 10
558.0
 20
-366.0
 30
0.0
 40
6.0
  1
ＤＡＴＥ
 41
0.8769230769230752
 72
     5
 11
580.7999999999999
 21
-366.0
 31
0.0
100
AcDbText
  0
TEXT
  5
420
330
23
100
AcDbEntity
  8
20
100
AcDbText
 10
327.003213
 20
-398.883087
 30
0.0
 40
6.0
  1
ＳＣＡＬＥ
 41
0.8674698795180708
 72
     5
 11
355.803213
 21
-398.883087
 31
0.0
100
AcDbText
  0
TEXT
  5
421
330
23
100
AcDbEntity
  8
20
100
AcDbText
 10
324.0
 20
-409.4999999999999
 30
0.0
 40
9.0
  1
尺　　度
 41
0.8382352941176469
 72
     5
 11
358.2
 21
-409.4999999999999
 31
0.0
100
AcDbText
  0
TEXT
  5
422
330
23
100
AcDbEntity
  8
20
100
AcDbText
 10
322.503213
 20
-367.487654
 30
0.0
 40
6.0
  1
ＦＩＧ．ＮＯ．
 41
0.9107142857142848
 72
     5
 11
363.303213
 21
-367.487654
 31
0.0
100
AcDbText
  0
TEXT
  5
423
330
23
100
AcDbEntity
  8
20
100
AcDbText
 10
324.0
 20
-379.5
 30
0.0
 40
9.0
  1
名　　称
 41
0.8382352941176467
 72
     5
 11
358.2
 21
-379.5
 31
0.0
100
AcDbText
  0
TEXT
  5
424
330
23
100
AcDbEntity
  8
20
100
AcDbText
 10
181.696575
 20
-379.410759
 30
0.0
 40
6.9
  1
ＴＯＭＯＥ　ＶＡＬＶＥ　ＣＯ．，ＬＴＤ．
 41
0.858381502890173
 72
     5
 11
318.316575
 21
-379.410759
 31
0.0
100
AcDbText
  0
TEXT
  5
425
330
23
100
AcDbEntity
  8
20
100
AcDbText
 10
202.5
 20
-399.869431
 30
0.0
 40
12.0
  1
巴バルブ株式会社
 41
0.8357142857142861
 72
     5
 11
296.1
 21
-399.869431
 31
0.0
100
AcDbText
  0
ENDSEC
  0
SECTION
  2
OBJECTS
  0
DICTIONARY
  5
462
330
0
100
AcDbDictionary
281
     1
  3
ACAD_COLOR
350
499
  3
ACAD_GROUP
350
463
  3
ACAD_LAYOUT
350
4C1
  3
ACAD_MATERIAL
350
46F
  3
ACAD_MLEADERSTYLE
350
4BE
  3
ACAD_MLINESTYLE
350
464
  3
ACAD_PLOTSETTINGS
350
4C2
  3
ACAD_PLOTSTYLENAME
350
46D
  3
ACAD_SCALELIST
350
49C
  3
ACAD_TABLESTYLE
350
49A
  3
ACAD_VISUALSTYLE
350
488
  3
ACDB_RECOMPOSE_DATA
350
4F6
  3
AcDbVariableDictionary
350
4ED
  3
DWGPROPS
350
4F7
  0
DICTIONARY
  5
4C9
330
1
100
AcDbDictionary
280
     1
281
     1
  3
ACAD_LAYERFILTERS
360
4CD
  3
ACLYDICTIONARY
360
4CC
  0
DICTIONARY
  5
4CE
330
15
100
AcDbDictionary
280
     1
281
     1
  3
ADSK_XREC_LAYER_RECONCILED
360
4CF
  0
DICTIONARY
  5
4D0
330
16
100
AcDbDictionary
280
     1
281
     1
  3
ADSK_XREC_LAYER_RECONCILED
360
4D1
  0
DICTIONARY
  5
4D2
330
17
100
AcDbDictionary
280
     1
281
     1
  3
ADSK_XREC_LAYER_RECONCILED
360
4D3
  0
DICTIONARY
  5
4D4
330
18
100
AcDbDictionary
280
     1
281
     1
  3
ADSK_XREC_LAYER_RECONCILED
360
4D5
  0
DICTIONARY
  5
4D6
330
19
100
AcDbDictionary
280
     1
281
     1
  3
ADSK_XREC_LAYER_RECONCILED
360
4D7
  0
DICTIONARY
  5
4D8
330
1A
100
AcDbDictionary
280
     1
281
     1
  3
ADSK_XREC_LAYER_RECONCILED
360
4D9
  0
DICTIONARY
  5
4DA
330
4C7
100
AcDbDictionary
280
     1
281
     1
  3
ADSK_XREC_LAYER_RECONCILED
360
4DB
  0
DICTIONARY
  5
499
102
{ACAD_REACTORS
330
462
102
}
330
462
100
AcDbDictionary
281
     1
  0
DICTIONARY
  5
463
102
{ACAD_REACTORS
330
462
102
}
330
462
100
AcDbDictionary
281
     1
  0
DICTIONARY
  5
4C1
102
{ACAD_REACTORS
330
462
102
}
330
462
100
AcDbDictionary
281
     1
  3
Model
350
4C3
  3
レイアウト1
350
4C4
  0
DICTIONARY
  5
46F
102
{ACAD_REACTORS
330
462
102
}
330
462
100
AcDbDictionary
281
     1
  3
ByBlock
350
478
  3
ByLayer
350
470
  3
Global
350
480
  0
DICTIONARY
  5
4BE
102
{ACAD_REACTORS
330
462
102
}
330
462
100
AcDbDictionary
281
     1
  3
Standard
350
4BF
  0
DICTIONARY
  5
464
102
{ACAD_REACTORS
330
462
102
}
330
462
100
AcDbDictionary
281
     1
  3
STANDARD
350
465
  0
DICTIONARY
  5
4C2
102
{ACAD_REACTORS
330
462
102
}
330
462
100
AcDbDictionary
281
     1
  0
ACDBDICTIONARYWDFLT
  5
46D
102
{ACAD_REACTORS
330
462
102
}
330
462
100
AcDbDictionary
281
     1
  3
Normal
350
46E
100
AcDbDictionaryWithDefault
340
46E
  0
DICTIONARY
  5
49C
102
{ACAD_REACTORS
330
462
102
}
330
462
100
AcDbDictionary
281
     1
  3
A0
350
49D
  3
A1
350
49E
  3
A2
350
49F
  3
A3
350
4A0
  3
A4
350
4A1
  3
A5
350
4A2
  3
A6
350
4A3
  3
A7
350
4A4
  3
A8
350
4A5
  3
A9
350
4A6
  3
B0
350
4A7
  3
B1
350
4A8
  3
B2
350
4A9
  3
B3
350
4AA
  3
B4
350
4AB
  3
B5
350
4AC
  3
B6
350
4AD
  3
B7
350
4AE
  3
B8
350
4AF
  3
B9
350
4B0
  3
C0
350
4B1
  3
C1
350
4B2
  3
C2
350
4B3
  3
C3
350
4B4
  3
C4
350
4B5
  3
C5
350
4B6
  3
C6
350
4B7
  3
C7
350
4B8
  3
C8
350
4B9
  3
C9
350
4BA
  3
D0
350
4BB
  3
D1
350
4BC
  3
D2
350
4BD
  0
DICTIONARY
  5
49A
102
{ACAD_REACTORS
330
462
102
}
330
462
100
AcDbDictionary
281
     1
  3
Standard
350
49B
  0
DICTIONARY
  5
488
102
{ACAD_REACTORS
330
462
102
}
330
462
100
AcDbDictionary
281
     1
  3
2dWireframe
350
48E
  3
3D Hidden
350
490
  3
3dWireframe
350
48F
  3
Basic
350
48D
  3
Brighten
350
494
  3
ColorChange
350
498
  3
Conceptual
350
491
  3
Dim
350
493
  3
Facepattern
350
497
  3
Flat
350
489
  3
FlatWithEdges
350
48A
  3
Gouraud
350
48B
  3
GouraudWithEdges
350
48C
  3
Linepattern
350
496
  3
Realistic
350
492
  3
Thicken
350
495
  0
XRECORD
  5
4F6
102
{ACAD_REACTORS
330
462
102
}
330
462
100
AcDbXrecord
280
     1
 90
        1
330
49B
  0
DICTIONARY
  5
4ED
102
{ACAD_REACTORS
330
462
102
}
330
462
100
AcDbDictionary
281
     1
  3
CANNOSCALE
350
4F0
  3
CMLEADERSTYLE
350
4EF
  3
CTABLESTYLE
350
4EE
  3
DIMASSOC
350
4F3
  3
INDEXCTL
350
4F2
  3
SORTENTS
350
4F1
  0
XRECORD
  5
4F7
102
{ACAD_REACTORS
330
462
102
}
330
462
100
AcDbXrecord
280
     1
  1
DWGPROPS COOKIE
  2

  3

  4

  6

  7

  8
miyazaki-tomoko
  9

300
=
301
=
302
=
303
=
304
=
305
=
306
=
307
=
308
=
309
=
 40
0.0029426041666667
 41
2450291.0
 42
2456174.535338646
  1

 90
        0
  0
DICTIONARY
  5
4CD
102
{ACAD_REACTORS
330
4C9
102
}
330
4C9
100
AcDbDictionary
281
     1
  0
DICTIONARY
  5
4CC
102
{ACAD_REACTORS
330
4C9
102
}
330
4C9
100
AcDbDictionary
281
     1
1001
ACAD
1000
<All
  0
XRECORD
  5
4CF
102
{ACAD_REACTORS
330
4CE
102
}
330
4CE
100
AcDbXrecord
280
     1
290
     1
  0
XRECORD
  5
4D1
102
{ACAD_REACTORS
330
4D0
102
}
330
4D0
100
AcDbXrecord
280
     1
290
     1
  0
XRECORD
  5
4D3
102
{ACAD_REACTORS
330
4D2
102
}
330
4D2
100
AcDbXrecord
280
     1
290
     1
  0
XRECORD
  5
4D5
102
{ACAD_REACTORS
330
4D4
102
}
330
4D4
100
AcDbXrecord
280
     1
290
     1
  0
XRECORD
  5
4D7
102
{ACAD_REACTORS
330
4D6
102
}
330
4D6
100
AcDbXrecord
280
     1
290
     1
  0
XRECORD
  5
4D9
102
{ACAD_REACTORS
330
4D8
102
}
330
4D8
100
AcDbXrecord
280
     1
290
     1
  0
XRECORD
  5
4DB
102
{ACAD_REACTORS
330
4DA
102
}
330
4DA
100
AcDbXrecord
280
     1
290
     1
  0
LAYOUT
  5
4C3
102
{ACAD_XDICTIONARY
360
4FC
102
}
102
{ACAD_REACTORS
330
4C1
102
}
330
4C1
100
AcDbPlotSettings
  1

  2
none_device
  4
Letter_(8.50_x_11.00_Inches)
  6

 40
6.349999904632568
 41
6.349999904632568
 42
6.350006103515625
 43
6.350006103515625
 44
215.8999938964844
 45
279.3999938964844
 46
0.0
 47
0.0
 48
0.0
 49
0.0
140
0.0
141
0.0
142
1.0
143
43.1390770255511
 70
 11952
 72
     0
 73
     1
 74
     0
  7
monochrome.ctb
 75
     0
147
0.0231808390199842
148
8902.778490597412
149
2933.352980002069
100
AcDbLayout
  1
Model
 70
     1
 71
     0
 10
0.0
 20
0.0
 11
12.0
 21
9.0
 12
0.0
 22
0.0
 32
0.0
 14
0.0
 24
0.0
 34
0.0
 15
0.0
 25
0.0
 35
0.0
146
0.0
 13
0.0
 23
0.0
 33
0.0
 16
1.0
 26
0.0
 36
0.0
 17
0.0
 27
1.0
 37
0.0
 76
     0
330
23
331
1B
1001
ACAD_PSEXT
1000
なし
1000
なし
1000
適切ではありません
1000
新しいプロッタ環境設定名を選択しない限り、レイアウトは印刷されません。
1070
     0
  0
LAYOUT
  5
4C4
102
{ACAD_XDICTIONARY
360
4FE
102
}
102
{ACAD_REACTORS
330
4C1
102
}
330
4C1
100
AcDbPlotSettings
  1

  2
EMP01
  4

  6

 40
0.0
 41
0.0
 42
0.0
 43
0.0
 44
0.0
 45
0.0
 46
0.0
 47
0.0
 48
0.0
 49
0.0
140
0.0
141
0.0
142
1.0
143
1.0
 70
   688
 72
     0
 73
     0
 74
     5
  7
monochrome.ctb
 75
    16
147
1.0
148
0.0
149
0.0
100
AcDbLayout
  1
レイアウト1
 70
     0
 71
     1
 10
0.0
 20
0.0
 11
12.0
 21
9.0
 12
0.0
 22
0.0
 32
0.0
 14
1.000000000000000E+20
 24
1.000000000000000E+20
 34
1.000000000000000E+20
 15
-1.000000000000000E+20
 25
-1.000000000000000E+20
 35
-1.000000000000000E+20
146
0.0
 13
0.0
 23
0.0
 33
0.0
 16
1.0
 26
0.0
 36
0.0
 17
0.0
 27
1.0
 37
0.0
 76
     0
330
24
  0
MATERIAL
  5
478
102
{ACAD_XDICTIONARY
360
479
102
}
102
{ACAD_REACTORS
330
46F
102
}
330
46F
100
AcDbMaterial
  1
ByBlock
 72
     0
 43
0.0208333333333333
 43
0.0
 43
0.0
 43
0.0
 43
0.0
 43
0.0208333333333333
 43
0.0
 43
0.0
 43
0.0
 43
0.0
 43
1.0
 43
0.0
 43
0.0
 43
0.0
 43
0.0
 43
1.0
 77
     0
 47
0.0208333333333333
 47
0.0
 47
0.0
 47
0.0
 47
0.0
 47
0.0208333333333333
 47
0.0
 47
0.0
 47
0.0
 47
0.0
 47
1.0
 47
0.0
 47
0.0
 47
0.0
 47
0.0
 47
1.0
171
     0
 49
0.0208333333333333
 49
0.0
 49
0.0
 49
0.0
 49
0.0
 49
0.0208333333333333
 49
0.0
 49
0.0
 49
0.0
 49
0.0
 49
1.0
 49
0.0
 49
0.0
 49
0.0
 49
0.0
 49
1.0
175
     0
142
0.0208333333333333
142
0.0
142
0.0
142
0.0
142
0.0
142
0.0208333333333333
142
0.0
142
0.0
142
0.0
142
0.0
142
1.0
142
0.0
142
0.0
142
0.0
142
0.0
142
1.0
179
     0
144
0.0208333333333333
144
0.0
144
0.0
144
0.0
144
0.0
144
0.0208333333333333
144
0.0
144
0.0
144
0.0
144
0.0
144
1.0
144
0.0
144
0.0
144
0.0
144
0.0
144
1.0
147
0.0208333333333333
147
0.0
147
0.0
147
0.0
147
0.0
147
0.0208333333333333
147
0.0
147
0.0
147
0.0
147
0.0
147
1.0
147
0.0
147
0.0
147
0.0
147
0.0
147
1.0
  0
MATERIAL
  5
470
102
{ACAD_XDICTIONARY
360
471
102
}
102
{ACAD_REACTORS
330
46F
102
}
330
46F
100
AcDbMaterial
  1
ByLayer
 72
     0
 43
0.0208333333333333
 43
0.0
 43
0.0
 43
0.0
 43
0.0
 43
0.0208333333333333
 43
0.0
 43
0.0
 43
0.0
 43
0.0
 43
1.0
 43
0.0
 43
0.0
 43
0.0
 43
0.0
 43
1.0
 77
     0
 47
0.0208333333333333
 47
0.0
 47
0.0
 47
0.0
 47
0.0
 47
0.0208333333333333
 47
0.0
 47
0.0
 47
0.0
 47
0.0
 47
1.0
 47
0.0
 47
0.0
 47
0.0
 47
0.0
 47
1.0
171
     0
 49
0.0208333333333333
 49
0.0
 49
0.0
 49
0.0
 49
0.0
 49
0.0208333333333333
 49
0.0
 49
0.0
 49
0.0
 49
0.0
 49
1.0
 49
0.0
 49
0.0
 49
0.0
 49
0.0
 49
1.0
175
     0
142
0.0208333333333333
142
0.0
142
0.0
142
0.0
142
0.0
142
0.0208333333333333
142
0.0
142
0.0
142
0.0
142
0.0
142
1.0
142
0.0
142
0.0
142
0.0
142
0.0
142
1.0
179
     0
144
0.0208333333333333
144
0.0
144
0.0
144
0.0
144
0.0
144
0.0208333333333333
144
0.0
144
0.0
144
0.0
144
0.0
144
1.0
144
0.0
144
0.0
144
0.0
144
0.0
144
1.0
147
0.0208333333333333
147
0.0
147
0.0
147
0.0
147
0.0
147
0.0208333333333333
147
0.0
147
0.0
147
0.0
147
0.0
147
1.0
147
0.0
147
0.0
147
0.0
147
0.0
147
1.0
  0
MATERIAL
  5
480
102
{ACAD_XDICTIONARY
360
481
102
}
102
{ACAD_REACTORS
330
46F
102
}
330
46F
100
AcDbMaterial
  1
Global
 72
     0
 43
0.0208333333333333
 43
0.0
 43
0.0
 43
0.0
 43
0.0
 43
0.0208333333333333
 43
0.0
 43
0.0
 43
0.0
 43
0.0
 43
1.0
 43
0.0
 43
0.0
 43
0.0
 43
0.0
 43
1.0
 77
     0
 47
0.0208333333333333
 47
0.0
 47
0.0
 47
0.0
 47
0.0
 47
0.0208333333333333
 47
0.0
 47
0.0
 47
0.0
 47
0.0
 47
1.0
 47
0.0
 47
0.0
 47
0.0
 47
0.0
 47
1.0
171
     0
 49
0.0208333333333333
 49
0.0
 49
0.0
 49
0.0
 49
0.0
 49
0.0208333333333333
 49
0.0
 49
0.0
 49
0.0
 49
0.0
 49
1.0
 49
0.0
 49
0.0
 49
0.0
 49
0.0
 49
1.0
175
     0
142
0.0208333333333333
142
0.0
142
0.0
142
0.0
142
0.0
142
0.0208333333333333
142
0.0
142
0.0
142
0.0
142
0.0
142
1.0
142
0.0
142
0.0
142
0.0
142
0.0
142
1.0
179
     0
144
0.0208333333333333
144
0.0
144
0.0
144
0.0
144
0.0
144
0.0208333333333333
144
0.0
144
0.0
144
0.0
144
0.0
144
1.0
144
0.0
144
0.0
144
0.0
144
0.0
144
1.0
147
0.0208333333333333
147
0.0
147
0.0
147
0.0
147
0.0
147
0.0208333333333333
147
0.0
147
0.0
147
0.0
147
0.0
147
1.0
147
0.0
147
0.0
147
0.0
147
0.0
147
1.0
  0
MLEADERSTYLE
  5
4BF
102
{ACAD_REACTORS
330
4BE
102
}
330
4BE
100
AcDbMLeaderStyle
170
     2
171
     1
172
     0
 90
        2
 40
0.0
 41
0.0
173
     1
 91
-1056964608
340
C
 92
       -2
290
     1
 42
0.09
291
     1
 43
0.36
  3
Standard
 44
0.18
300

342
1D
174
     1
178
     6
175
     1
176
     0
 93
-1056964608
 45
0.18
292
     0
297
     0
 46
0.18
 94
-1056964608
 47
1.0
 49
1.0
140
1.0
293
     1
141
0.0
294
     1
177
     0
142
1.0
295
     0
296
     0
143
0.125
1001
ACAD_MLEADERVER
1070
     2
  0
MLINESTYLE
  5
465
102
{ACAD_REACTORS
330
464
102
}
330
464
100
AcDbMlineStyle
  2
STANDARD
 70
     0
  3

 62
     0
 51
90.0
 52
90.0
 71
     2
 49
0.5
 62
   256
  6
BYLAYER
 49
-0.5
 62
   256
  6
BYLAYER
  0
ACDBPLACEHOLDER
  5
46E
102
{ACAD_REACTORS
330
46D
102
}
330
46D
  0
SCALE
  5
49D
102
{ACAD_REACTORS
330
49C
102
}
330
49C
100
AcDbScale
 70
     0
300
1:1
140
1.0
141
1.0
290
     1
  0
SCALE
  5
49E
102
{ACAD_REACTORS
330
49C
102
}
330
49C
100
AcDbScale
 70
     0
300
1:2
140
1.0
141
2.0
290
     0
  0
SCALE
  5
49F
102
{ACAD_REACTORS
330
49C
102
}
330
49C
100
AcDbScale
 70
     0
300
1:4
140
1.0
141
4.0
290
     0
  0
SCALE
  5
4A0
102
{ACAD_REACTORS
330
49C
102
}
330
49C
100
AcDbScale
 70
     0
300
1:5
140
1.0
141
5.0
290
     0
  0
SCALE
  5
4A1
102
{ACAD_REACTORS
330
49C
102
}
330
49C
100
AcDbScale
 70
     0
300
1:8
140
1.0
141
8.0
290
     0
  0
SCALE
  5
4A2
102
{ACAD_REACTORS
330
49C
102
}
330
49C
100
AcDbScale
 70
     0
300
1:10
140
1.0
141
10.0
290
     0
  0
SCALE
  5
4A3
102
{ACAD_REACTORS
330
49C
102
}
330
49C
100
AcDbScale
 70
     0
300
1:16
140
1.0
141
16.0
290
     0
  0
SCALE
  5
4A4
102
{ACAD_REACTORS
330
49C
102
}
330
49C
100
AcDbScale
 70
     0
300
1:20
140
1.0
141
20.0
290
     0
  0
SCALE
  5
4A5
102
{ACAD_REACTORS
330
49C
102
}
330
49C
100
AcDbScale
 70
     0
300
1:30
140
1.0
141
30.0
290
     0
  0
SCALE
  5
4A6
102
{ACAD_REACTORS
330
49C
102
}
330
49C
100
AcDbScale
 70
     0
300
1:40
140
1.0
141
40.0
290
     0
  0
SCALE
  5
4A7
102
{ACAD_REACTORS
330
49C
102
}
330
49C
100
AcDbScale
 70
     0
300
1:50
140
1.0
141
50.0
290
     0
  0
SCALE
  5
4A8
102
{ACAD_REACTORS
330
49C
102
}
330
49C
100
AcDbScale
 70
     0
300
1:100
140
1.0
141
100.0
290
     0
  0
SCALE
  5
4A9
102
{ACAD_REACTORS
330
49C
102
}
330
49C
100
AcDbScale
 70
     0
300
2:1
140
2.0
141
1.0
290
     0
  0
SCALE
  5
4AA
102
{ACAD_REACTORS
330
49C
102
}
330
49C
100
AcDbScale
 70
     0
300
4:1
140
4.0
141
1.0
290
     0
  0
SCALE
  5
4AB
102
{ACAD_REACTORS
330
49C
102
}
330
49C
100
AcDbScale
 70
     0
300
8:1
140
8.0
141
1.0
290
     0
  0
SCALE
  5
4AC
102
{ACAD_REACTORS
330
49C
102
}
330
49C
100
AcDbScale
 70
     0
300
10:1
140
10.0
141
1.0
290
     0
  0
SCALE
  5
4AD
102
{ACAD_REACTORS
330
49C
102
}
330
49C
100
AcDbScale
 70
     0
300
100:1
140
100.0
141
1.0
290
     0
  0
SCALE
  5
4AE
102
{ACAD_REACTORS
330
49C
102
}
330
49C
100
AcDbScale
 70
     0
300
1/128" = 1'-0"
140
0.0078125
141
12.0
290
     0
  0
SCALE
  5
4AF
102
{ACAD_REACTORS
330
49C
102
}
330
49C
100
AcDbScale
 70
     0
300
1/64" = 1'-0"
140
0.015625
141
12.0
290
     0
  0
SCALE
  5
4B0
102
{ACAD_REACTORS
330
49C
102
}
330
49C
100
AcDbScale
 70
     0
300
1/32" = 1'-0"
140
0.03125
141
12.0
290
     0
  0
SCALE
  5
4B1
102
{ACAD_REACTORS
330
49C
102
}
330
49C
100
AcDbScale
 70
     0
300
1/16" = 1'-0"
140
0.0625
141
12.0
290
     0
  0
SCALE
  5
4B2
102
{ACAD_REACTORS
330
49C
102
}
330
49C
100
AcDbScale
 70
     0
300
3/32" = 1'-0"
140
0.09375
141
12.0
290
     0
  0
SCALE
  5
4B3
102
{ACAD_REACTORS
330
49C
102
}
330
49C
100
AcDbScale
 70
     0
300
1/8" = 1'-0"
140
0.125
141
12.0
290
     0
  0
SCALE
  5
4B4
102
{ACAD_REACTORS
330
49C
102
}
330
49C
100
AcDbScale
 70
     0
300
3/16" = 1'-0"
140
0.1875
141
12.0
290
     0
  0
SCALE
  5
4B5
102
{ACAD_REACTORS
330
49C
102
}
330
49C
100
AcDbScale
 70
     0
300
1/4" = 1'-0"
140
0.25
141
12.0
290
     0
  0
SCALE
  5
4B6
102
{ACAD_REACTORS
330
49C
102
}
330
49C
100
AcDbScale
 70
     0
300
3/8" = 1'-0"
140
0.375
141
12.0
290
     0
  0
SCALE
  5
4B7
102
{ACAD_REACTORS
330
49C
102
}
330
49C
100
AcDbScale
 70
     0
300
1/2" = 1'-0"
140
0.5
141
12.0
290
     0
  0
SCALE
  5
4B8
102
{ACAD_REACTORS
330
49C
102
}
330
49C
100
AcDbScale
 70
     0
300
3/4" = 1'-0"
140
0.75
141
12.0
290
     0
  0
SCALE
  5
4B9
102
{ACAD_REACTORS
330
49C
102
}
330
49C
100
AcDbScale
 70
     0
300
1" = 1'-0"
140
1.0
141
12.0
290
     0
  0
SCALE
  5
4BA
102
{ACAD_REACTORS
330
49C
102
}
330
49C
100
AcDbScale
 70
     0
300
1-1/2" = 1'-0"
140
1.5
141
12.0
290
     0
  0
SCALE
  5
4BB
102
{ACAD_REACTORS
330
49C
102
}
330
49C
100
AcDbScale
 70
     0
300
3" = 1'-0"
140
3.0
141
12.0
290
     0
  0
SCALE
  5
4BC
102
{ACAD_REACTORS
330
49C
102
}
330
49C
100
AcDbScale
 70
     0
300
6" = 1'-0"
140
6.0
141
12.0
290
     0
  0
SCALE
  5
4BD
102
{ACAD_REACTORS
330
49C
102
}
330
49C
100
AcDbScale
 70
     0
300
1'-0" = 1'-0"
140
12.0
141
12.0
290
     0
  0
TABLESTYLE
  5
49B
102
{ACAD_XDICTIONARY
360
4F4
102
}
102
{ACAD_REACTORS
330
49A
102
}
330
49A
100
AcDbTableStyle
  3
Standard
 70
     0
 71
     0
 40
0.06
 41
0.06
280
     0
281
     0
  7
STANDARD
140
0.18
170
     2
 62
     0
 63
     7
283
     0
274
    -2
284
     1
 64
     0
275
    -2
285
     1
 65
     0
276
    -2
286
     1
 66
     0
277
    -2
287
     1
 67
     0
278
    -2
288
     1
 68
     0
279
    -2
289
     1
 69
     0
  7
STANDARD
140
0.25
170
     5
 62
     0
 63
     7
283
     0
274
    -2
284
     1
 64
     0
275
    -2
285
     1
 65
     0
276
    -2
286
     1
 66
     0
277
    -2
287
     1
 67
     0
278
    -2
288
     1
 68
     0
279
    -2
289
     1
 69
     0
  7
STANDARD
140
0.18
170
     5
 62
     0
 63
     7
283
     0
274
    -2
284
     1
 64
     0
275
    -2
285
     1
 65
     0
276
    -2
286
     1
 66
     0
277
    -2
287
     1
 67
     0
278
    -2
288
     1
 68
     0
279
    -2
289
     1
 69
     0
  0
VISUALSTYLE
  5
48E
102
{ACAD_REACTORS
330
488
102
}
330
488
100
AcDbVisualStyle
  2
2dWireframe
 70
     4
 71
     0
 72
     2
 73
     0
 90
        0
 40
-0.6
 41
-30.0
 62
     5
 63
     7
 74
     1
 91
        4
 64
     7
 65
   257
 75
     1
175
     1
 42
1.0
 92
        0
 66
   257
 43
1.0
 76
     1
 77
     6
 78
     2
 67
     7
 79
     5
170
     0
171
     0
290
     0
174
     0
 93
        1
 44
0.0
173
     0
291
     0
 45
0.0
1001
ACAD
1000
AcDbSavedByObjectVersion
1070
     0
  0
VISUALSTYLE
  5
490
102
{ACAD_REACTORS
330
488
102
}
330
488
100
AcDbVisualStyle
  2
3D Hidden
 70
     6
 71
     1
 72
     2
 73
     2
 90
        0
 40
-0.6
 41
-30.0
 62
     5
 63
     7
 74
     2
 91
        2
 64
     7
 65
   257
 75
     2
175
     1
 42
40.0
 92
        0
 66
   257
 43
1.0
 76
     1
 77
     6
 78
     2
 67
     7
 79
     3
170
     0
171
     0
290
     0
174
     0
 93
        1
 44
0.0
173
     0
291
     0
 45
0.0
1001
ACAD
1000
AcDbSavedByObjectVersion
1070
     0
  0
VISUALSTYLE
  5
48F
102
{ACAD_REACTORS
330
488
102
}
330
488
100
AcDbVisualStyle
  2
3dWireframe
 70
     5
 71
     0
 72
     2
 73
     0
 90
        0
 40
-0.6
 41
-30.0
 62
     5
 63
     7
 74
     1
 91
        4
 64
     7
 65
   257
 75
     1
175
     1
 42
1.0
 92
        0
 66
   257
 43
1.0
 76
     1
 77
     6
 78
     2
 67
     7
 79
     5
170
     0
171
     0
290
     0
174
     0
 93
        1
 44
0.0
173
     0
291
     0
 45
0.0
1001
ACAD
1000
AcDbSavedByObjectVersion
1070
     0
  0
VISUALSTYLE
  5
48D
102
{ACAD_REACTORS
330
488
102
}
330
488
100
AcDbVisualStyle
  2
Basic
 70
     7
 71
     1
 72
     0
 73
     1
 90
        0
 40
-0.6
 41
-30.0
 62
     5
 63
     7
 74
     0
 91
        4
 64
     7
 65
   257
 75
     1
175
     1
 42
1.0
 92
        8
 66
     7
 43
1.0
 76
     1
 77
     6
 78
     2
 67
     7
 79
     5
170
     0
171
     0
290
     0
174
     0
 93
        1
 44
0.0
173
     0
291
     1
 45
0.0
1001
ACAD
1000
AcDbSavedByObjectVersion
1070
     0
  0
VISUALSTYLE
  5
494
102
{ACAD_REACTORS
330
488
102
}
330
488
100
AcDbVisualStyle
  2
Brighten
 70
    12
 71
     2
 72
     2
 73
     0
 90
        0
 40
-0.6
 41
-30.0
 62
     5
 63
     7
 74
     1
 91
        4
 64
     7
 65
   257
 75
     1
175
     1
 42
1.0
 92
        8
 66
     7
 43
1.0
 76
     1
 77
     6
 78
     2
 67
     7
 79
     5
170
     0
171
     0
290
     0
174
     0
 93
        1
 44
50.0
173
     0
291
     1
 45
0.0
1001
ACAD
1000
AcDbSavedByObjectVersion
1070
     0
  0
VISUALSTYLE
  5
498
102
{ACAD_REACTORS
330
488
102
}
330
488
100
AcDbVisualStyle
  2
ColorChange
 70
    16
 71
     2
 72
     2
 73
     3
 90
        0
 40
-0.6
 41
-30.0
 62
     5
 63
     8
 74
     1
 91
        4
 64
     7
 65
   257
 75
     1
175
     1
 42
1.0
 92
        8
 66
     8
 43
1.0
 76
     1
 77
     6
 78
     2
 67
     7
 79
     5
170
     0
171
     0
290
     0
174
     0
 93
        1
 44
0.0
173
     0
291
     1
 45
0.0
1001
ACAD
1000
AcDbSavedByObjectVersion
1070
     0
  0
VISUALSTYLE
  5
491
102
{ACAD_REACTORS
330
488
102
}
330
488
100
AcDbVisualStyle
  2
Conceptual
 70
     9
 71
     3
 72
     2
 73
     0
 90
        0
 40
-0.6
 41
-30.0
 62
     5
 63
     7
 74
     2
 91
        2
 64
     7
 65
   257
 75
     1
175
     1
 42
40.0
 92
        8
 66
     7
 43
1.0
 76
     1
 77
     6
 78
     2
 67
     7
 79
     3
170
     0
171
     0
290
     0
174
     0
 93
        1
 44
0.0
173
     0
291
     0
 45
0.0
1001
ACAD
1000
AcDbSavedByObjectVersion
1070
     0
  0
VISUALSTYLE
  5
493
102
{ACAD_REACTORS
330
488
102
}
330
488
100
AcDbVisualStyle
  2
Dim
 70
    11
 71
     2
 72
     2
 73
     0
 90
        0
 40
-0.6
 41
-30.0
 62
     5
 63
     7
 74
     1
 91
        4
 64
     7
 65
   257
 75
     1
175
     1
 42
1.0
 92
        8
 66
     7
 43
1.0
 76
     1
 77
     6
 78
     2
 67
     7
 79
     5
170
     0
171
     0
290
     0
174
     0
 93
        1
 44
-50.0
173
     0
291
     1
 45
0.0
1001
ACAD
1000
AcDbSavedByObjectVersion
1070
     0
  0
VISUALSTYLE
  5
497
102
{ACAD_REACTORS
330
488
102
}
330
488
100
AcDbVisualStyle
  2
Facepattern
 70
    15
 71
     2
 72
     2
 73
     0
 90
        0
 40
-0.6
 41
-30.0
 62
     5
 63
     7
 74
     1
 91
        4
 64
     7
 65
   257
 75
     1
175
     1
 42
1.0
 92
        8
 66
     7
 43
1.0
 76
     1
 77
     6
 78
     2
 67
     7
 79
     5
170
     0
171
     0
290
     0
174
     0
 93
        1
 44
0.0
173
     0
291
     1
 45
0.0
1001
ACAD
1000
AcDbSavedByObjectVersion
1070
     0
  0
VISUALSTYLE
  5
489
102
{ACAD_REACTORS
330
488
102
}
330
488
100
AcDbVisualStyle
  2
Flat
 70
     0
 71
     2
 72
     1
 73
     1
 90
        2
 40
-0.6
 41
30.0
 62
     5
 63
     7
 74
     0
 91
        4
 64
     7
 65
   257
 75
     1
175
     1
 42
1.0
 92
        8
 66
     7
 43
1.0
 76
     1
 77
     6
 78
     2
 67
     7
 79
     5
170
     0
171
     0
290
     0
174
     0
 93
       13
 44
0.0
173
     0
291
     1
 45
0.0
1001
ACAD
1000
AcDbSavedByObjectVersion
1070
     0
  0
VISUALSTYLE
  5
48A
102
{ACAD_REACTORS
330
488
102
}
330
488
100
AcDbVisualStyle
  2
FlatWithEdges
 70
     1
 71
     2
 72
     1
 73
     1
 90
        2
 40
-0.6
 41
30.0
 62
     5
 63
     7
 74
     1
 91
        4
 64
     7
 65
   257
 75
     1
175
     1
 42
1.0
 92
        0
 66
   257
 43
1.0
 76
     1
 77
     6
 78
     2
 67
     7
 79
     5
170
     0
171
     0
290
     0
174
     0
 93
       13
 44
0.0
173
     0
291
     1
 45
0.0
1001
ACAD
1000
AcDbSavedByObjectVersion
1070
     0
  0
VISUALSTYLE
  5
48B
102
{ACAD_REACTORS
330
488
102
}
330
488
100
AcDbVisualStyle
  2
Gouraud
 70
     2
 71
     2
 72
     2
 73
     1
 90
        2
 40
-0.6
 41
30.0
 62
     5
 63
     7
 74
     0
 91
        4
 64
     7
 65
   257
 75
     1
175
     1
 42
1.0
 92
        0
 66
     7
 43
1.0
 76
     1
 77
     6
 78
     2
 67
     7
 79
     5
170
     0
171
     0
290
     0
174
     0
 93
       13
 44
0.0
173
     0
291
     1
 45
0.0
1001
ACAD
1000
AcDbSavedByObjectVersion
1070
     0
  0
VISUALSTYLE
  5
48C
102
{ACAD_REACTORS
330
488
102
}
330
488
100
AcDbVisualStyle
  2
GouraudWithEdges
 70
     3
 71
     2
 72
     2
 73
     1
 90
        2
 40
-0.6
 41
30.0
 62
     5
 63
     7
 74
     1
 91
        4
 64
     7
 65
   257
 75
     1
175
     1
 42
1.0
 92
        0
 66
   257
 43
1.0
 76
     1
 77
     6
 78
     2
 67
     7
 79
     5
170
     0
171
     0
290
     0
174
     0
 93
       13
 44
0.0
173
     0
291
     1
 45
0.0
1001
ACAD
1000
AcDbSavedByObjectVersion
1070
     0
  0
VISUALSTYLE
  5
496
102
{ACAD_REACTORS
330
488
102
}
330
488
100
AcDbVisualStyle
  2
Linepattern
 70
    14
 71
     2
 72
     2
 73
     0
 90
        0
 40
-0.6
 41
-30.0
 62
     5
 63
     7
 74
     1
 91
        4
 64
     7
 65
   257
 75
     7
175
     7
 42
1.0
 92
        8
 66
     7
 43
1.0
 76
     1
 77
     6
 78
     2
 67
     7
 79
     5
170
     0
171
     0
290
     0
174
     0
 93
        1
 44
0.0
173
     0
291
     1
 45
0.0
1001
ACAD
1000
AcDbSavedByObjectVersion
1070
     0
  0
VISUALSTYLE
  5
492
102
{ACAD_REACTORS
330
488
102
}
330
488
100
AcDbVisualStyle
  2
Realistic
 70
     8
 71
     2
 72
     2
 73
     0
 90
        0
 40
-0.6
 41
-30.0
 62
     5
 63
     7
 74
     1
 91
        0
 64
     7
 65
   257
 75
     1
175
     1
 42
1.0
 92
        8
 66
     8
 43
1.0
 76
     1
 77
     6
 78
     2
 67
     7
 79
     5
170
     0
171
     0
290
     0
174
     0
 93
       13
 44
0.0
173
     0
291
     0
 45
0.0
1001
ACAD
1000
AcDbSavedByObjectVersion
1070
     0
  0
VISUALSTYLE
  5
495
102
{ACAD_REACTORS
330
488
102
}
330
488
100
AcDbVisualStyle
  2
Thicken
 70
    13
 71
     2
 72
     2
 73
     0
 90
        0
 40
-0.6
 41
-30.0
 62
     5
 63
     7
 74
     1
 91
        4
 64
     7
 65
   257
 75
     1
175
     1
 42
1.0
 92
       12
 66
     7
 43
1.0
 76
     1
 77
     6
 78
     2
 67
     7
 79
     5
170
     0
171
     0
290
     0
174
     0
 93
        1
 44
0.0
173
     0
291
     1
 45
0.0
1001
ACAD
1000
AcDbSavedByObjectVersion
1070
     0
  0
DICTIONARYVAR
  5
4F0
102
{ACAD_REACTORS
330
4ED
102
}
330
4ED
100
DictionaryVariables
280
     0
  1
1:1
  0
DICTIONARYVAR
  5
4EF
102
{ACAD_REACTORS
330
4ED
102
}
330
4ED
100
DictionaryVariables
280
     0
  1
STANDARD
  0
DICTIONARYVAR
  5
4EE
102
{ACAD_REACTORS
330
4ED
102
}
330
4ED
100
DictionaryVariables
280
     0
  1
STANDARD
  0
DICTIONARYVAR
  5
4F3
102
{ACAD_REACTORS
330
4ED
102
}
330
4ED
100
DictionaryVariables
280
     0
  1
1
  0
DICTIONARYVAR
  5
4F2
102
{ACAD_REACTORS
330
4ED
102
}
330
4ED
100
DictionaryVariables
280
     0
  1
0
  0
DICTIONARYVAR
  5
4F1
102
{ACAD_REACTORS
330
4ED
102
}
330
4ED
100
DictionaryVariables
280
     0
  1
127
  0
DICTIONARY
  5
4FC
330
4C3
100
AcDbDictionary
280
     1
281
     1
  3
ACAD_XREC_ROUNDTRIP
360
4FD
  0
DICTIONARY
  5
4FE
330
4C4
100
AcDbDictionary
280
     1
281
     1
  3
ACAD_XREC_ROUNDTRIP
360
4FF
  0
DICTIONARY
  5
479
330
478
100
AcDbDictionary
280
     1
281
     1
  3
ACAD_XREC_ROUNDTRIP
360
4F9
  3
BUMPTILE
360
47B
  3
DIFFUSETILE
360
47A
  3
OPACITYTILE
360
47E
  3
REFLECTIONTILE
360
47D
  3
REFRACTIONTILE
360
47F
  3
SPECULARTILE
360
47C
  0
DICTIONARY
  5
471
330
470
100
AcDbDictionary
280
     1
281
     1
  3
ACAD_XREC_ROUNDTRIP
360
4F8
  3
BUMPTILE
360
473
  3
DIFFUSETILE
360
472
  3
OPACITYTILE
360
476
  3
REFLECTIONTILE
360
475
  3
REFRACTIONTILE
360
477
  3
SPECULARTILE
360
474
  0
DICTIONARY
  5
481
330
480
100
AcDbDictionary
280
     1
281
     1
  3
ACAD_XREC_ROUNDTRIP
360
4FA
  3
BUMPTILE
360
483
  3
DIFFUSETILE
360
482
  3
OPACITYTILE
360
486
  3
REFLECTIONTILE
360
485
  3
REFRACTIONTILE
360
487
  3
SPECULARTILE
360
484
  0
DICTIONARY
  5
4F4
330
49B
100
AcDbDictionary
280
     1
281
     1
  3
ACAD_ROUNDTRIP_2008_TABLESTYLE_CELLSTYLEMAP
360
4F5
  3
ACAD_XREC_ROUNDTRIP
360
4FB
  0
XRECORD
  5
4FD
102
{ACAD_REACTORS
330
4FC
102
}
330
4FC
100
AcDbXrecord
280
     1
102
SHADEPLOT
 70
     0
102
SHADEPLOTRESLEVEL
 70
     2
102
SHADEPLOTCUSTOMDPI
 70
   300
  0
XRECORD
  5
4FF
102
{ACAD_REACTORS
330
4FE
102
}
330
4FE
100
AcDbXrecord
280
     1
102
SHADEPLOT
 70
     0
102
SHADEPLOTRESLEVEL
 70
     2
102
SHADEPLOTCUSTOMDPI
 70
   300
  0
XRECORD
  5
4F9
102
{ACAD_REACTORS
330
479
102
}
330
479
100
AcDbXrecord
280
     1
102
MATERIAL
148
0.0
149
0.0
149
0.0
 93
        0
 94
      127
282
     0
 72
     0
 77
     0
171
     0
175
     0
179
     0
273
     0
  0
XRECORD
  5
47B
102
{ACAD_REACTORS
330
479
102
}
330
479
100
AcDbXrecord
280
     1
270
     1
271
     1
  0
XRECORD
  5
47A
102
{ACAD_REACTORS
330
479
102
}
330
479
100
AcDbXrecord
280
     1
270
     1
271
     1
  0
XRECORD
  5
47E
102
{ACAD_REACTORS
330
479
102
}
330
479
100
AcDbXrecord
280
     1
270
     1
271
     1
  0
XRECORD
  5
47D
102
{ACAD_REACTORS
330
479
102
}
330
479
100
AcDbXrecord
280
     1
270
     1
271
     1
  0
XRECORD
  5
47F
102
{ACAD_REACTORS
330
479
102
}
330
479
100
AcDbXrecord
280
     1
270
     1
271
     1
  0
XRECORD
  5
47C
102
{ACAD_REACTORS
330
479
102
}
330
479
100
AcDbXrecord
280
     1
270
     1
271
     1
  0
XRECORD
  5
4F8
102
{ACAD_REACTORS
330
471
102
}
330
471
100
AcDbXrecord
280
     1
102
MATERIAL
148
0.0
149
0.0
149
0.0
 93
        0
 94
      127
282
     0
 72
     0
 77
     0
171
     0
175
     0
179
     0
273
     0
  0
XRECORD
  5
473
102
{ACAD_REACTORS
330
471
102
}
330
471
100
AcDbXrecord
280
     1
270
     1
271
     1
  0
XRECORD
  5
472
102
{ACAD_REACTORS
330
471
102
}
330
471
100
AcDbXrecord
280
     1
270
     1
271
     1
  0
XRECORD
  5
476
102
{ACAD_REACTORS
330
471
102
}
330
471
100
AcDbXrecord
280
     1
270
     1
271
     1
  0
XRECORD
  5
475
102
{ACAD_REACTORS
330
471
102
}
330
471
100
AcDbXrecord
280
     1
270
     1
271
     1
  0
XRECORD
  5
477
102
{ACAD_REACTORS
330
471
102
}
330
471
100
AcDbXrecord
280
     1
270
     1
271
     1
  0
XRECORD
  5
474
102
{ACAD_REACTORS
330
471
102
}
330
471
100
AcDbXrecord
280
     1
270
     1
271
     1
  0
XRECORD
  5
4FA
102
{ACAD_REACTORS
330
481
102
}
330
481
100
AcDbXrecord
280
     1
102
MATERIAL
148
0.0
149
0.0
149
0.0
 93
        0
 94
      127
282
     0
 72
     0
 77
     0
171
     0
175
     0
179
     0
273
     0
  0
XRECORD
  5
483
102
{ACAD_REACTORS
330
481
102
}
330
481
100
AcDbXrecord
280
     1
270
     1
271
     1
  0
XRECORD
  5
482
102
{ACAD_REACTORS
330
481
102
}
330
481
100
AcDbXrecord
280
     1
270
     1
271
     1
  0
XRECORD
  5
486
102
{ACAD_REACTORS
330
481
102
}
330
481
100
AcDbXrecord
280
     1
270
     1
271
     1
  0
XRECORD
  5
485
102
{ACAD_REACTORS
330
481
102
}
330
481
100
AcDbXrecord
280
     1
270
     1
271
     1
  0
XRECORD
  5
487
102
{ACAD_REACTORS
330
481
102
}
330
481
100
AcDbXrecord
280
     1
270
     1
271
     1
  0
XRECORD
  5
484
102
{ACAD_REACTORS
330
481
102
}
330
481
100
AcDbXrecord
280
     1
270
     1
271
     1
  0
CELLSTYLEMAP
  5
4F5
102
{ACAD_REACTORS
330
4F4
102
}
330
4F4
100
AcDbCellStyleMap
 90
        3
300
CELLSTYLE
  1
TABLEFORMAT_BEGIN
 90
        5
170
     1
 91
        0
 92
    32768
 62
   257
 93
        1
300
CONTENTFORMAT
  1
CONTENTFORMAT_BEGIN
 90
        0
 91
        0
 92
      512
 93
        0
300

 40
0.0
140
1.0
 94
        5
 62
     0
340
1D
144
0.25
309
CONTENTFORMAT_END
171
     0
 94
        0
309
TABLEFORMAT_END
  1
CELLSTYLE_BEGIN
 90
        1
 91
        1
300
_TITLE
309
CELLSTYLE_END
300
CELLSTYLE
  1
TABLEFORMAT_BEGIN
 90
        5
170
     1
 91
        0
 92
        0
 62
   257
 93
        1
300
CONTENTFORMAT
  1
CONTENTFORMAT_BEGIN
 90
        0
 91
        0
 92
      512
 93
        0
300

 40
0.0
140
1.0
 94
        5
 62
     0
340
1D
144
0.18
309
CONTENTFORMAT_END
171
     0
 94
        0
309
TABLEFORMAT_END
  1
CELLSTYLE_BEGIN
 90
        2
 91
        1
300
_HEADER
309
CELLSTYLE_END
300
CELLSTYLE
  1
TABLEFORMAT_BEGIN
 90
        5
170
     1
 91
        0
 92
        0
 62
   257
 93
        1
300
CONTENTFORMAT
  1
CONTENTFORMAT_BEGIN
 90
        0
 91
        0
 92
      512
 93
        0
300

 40
0.0
140
1.0
 94
        2
 62
     0
340
1D
144
0.18
309
CONTENTFORMAT_END
171
     0
 94
        0
309
TABLEFORMAT_END
  1
CELLSTYLE_BEGIN
 90
        3
 91
        2
300
_DATA
309
CELLSTYLE_END
  0
XRECORD
  5
4FB
102
{ACAD_REACTORS
330
4F4
102
}
330
4F4
100
AcDbXrecord
280
     1
102
ACAD_ROUNDTRIP_PRE2007_TABLESTYLE
 90
      512
 91
        0
  1

 92
      512
 93
        0
  2

 94
      512
 95
        0
  3

  0
ENDSEC
  0
EOF
