  0
SECTION
  2
HEADER
  9
$ACADVER
  1
AC1012
  9
$DWGCODEPAGE
  3
ansi_932
  9
$INSBASE
 10
0.0
 20
0.0
 30
0.0
  9
$EXTMIN
 10
-630.0
 20
-445.5
 30
1.000000E+20
  9
$EXTMAX
 10
630.0
 20
445.5
 30
-1.000000E+20
  9
$LIMMIN
 10
-630.0
 20
-445.5
  9
$LIMMAX
 10
630.0
 20
445.5
  9
$ORTHOMODE
 70
     0
  9
$REGENMODE
 70
     1
  9
$FILLMODE
 70
     1
  9
$QTEXTMODE
 70
     0
  9
$MIRRTEXT
 70
     1
  9
$DRAGMODE
 70
     2
  9
$LTSCALE
 40
1.0
  9
$OSMODE
 70
     0
  9
$ATTMODE
 70
     1
  9
$TEXTSIZE
 40
0.2
  9
$TRACEWID
 40
0.05
  9
$TEXTSTYLE
  7
STANDARD
  9
$CLAYER
  8
0
  9
$CELTYPE
  6
CONTINUOUS
  9
$CECOLOR
 62
   256
  9
$CELTSCALE
 40
1.0
  9
$DELOBJ
 70
     1
  9
$DISPSILH
 70
     0
  9
$DIMSCALE
 40
3.0
  9
$DIMASZ
 40
0.18
  9
$DIMEXO
 40
0.0625
  9
$DIMDLI
 40
0.38
  9
$DIMRND
 40
0.0
  9
$DIMDLE
 40
0.0
  9
$DIMEXE
 40
0.18
  9
$DIMTP
 40
0.0
  9
$DIMTM
 40
0.0
  9
$DIMTXT
 40
0.18
  9
$DIMCEN
 40
0.09
  9
$DIMTSZ
 40
0.0
  9
$DIMTOL
 70
     0
  9
$DIMLIM
 70
     0
  9
$DIMTIH
 70
     1
  9
$DIMTOH
 70
     1
  9
$DIMSE1
 70
     0
  9
$DIMSE2
 70
     0
  9
$DIMTAD
 70
     1
  9
$DIMZIN
 70
     0
  9
$DIMBLK
  1

  9
$DIMASO
 70
     1
  9
$DIMSHO
 70
     1
  9
$DIMPOST
  1

  9
$DIMAPOST
  1

  9
$DIMALT
 70
     0
  9
$DIMALTD
 70
     2
  9
$DIMALTF
 40
25.4
  9
$DIMLFAC
 40
1.0
  9
$DIMTOFL
 70
     0
  9
$DIMTVP
 40
0.0
  9
$DIMTIX
 70
     0
  9
$DIMSOXD
 70
     0
  9
$DIMSAH
 70
     0
  9
$DIMBLK1
  1

  9
$DIMBLK2
  1

  9
$DIMSTYLE
  2
STANDARD
  9
$DIMCLRD
 70
     0
  9
$DIMCLRE
 70
     0
  9
$DIMCLRT
 70
     0
  9
$DIMTFAC
 40
1.0
  9
$DIMGAP
 40
0.09
  9
$DIMJUST
 70
     0
  9
$DIMSD1
 70
     0
  9
$DIMSD2
 70
     0
  9
$DIMTOLJ
 70
     1
  9
$DIMTZIN
 70
     0
  9
$DIMALTZ
 70
     0
  9
$DIMALTTZ
 70
     0
  9
$DIMFIT
 70
     3
  9
$DIMUPT
 70
     0
  9
$DIMUNIT
 70
     2
  9
$DIMDEC
 70
     4
  9
$DIMTDEC
 70
     4
  9
$DIMALTU
 70
     2
  9
$DIMALTTD
 70
     2
  9
$DIMTXSTY
  7
STANDARD
  9
$DIMAUNIT
 70
     0
  9
$LUNITS
 70
     2
  9
$LUPREC
 70
     4
  9
$SKETCHINC
 40
0.1
  9
$FILLETRAD
 40
0.0
  9
$AUNITS
 70
     0
  9
$AUPREC
 70
     0
  9
$MENU
  1
acad
  9
$ELEVATION
 40
0.0
  9
$PELEVATION
 40
0.0
  9
$THICKNESS
 40
0.0
  9
$LIMCHECK
 70
     0
  9
$BLIPMODE
 70
     1
  9
$CHAMFERA
 40
0.0
  9
$CHAMFERB
 40
0.0
  9
$CHAMFERC
 40
0.0
  9
$CHAMFERD
 40
0.0
  9
$SKPOLY
 70
     0
  9
$TDCREATE
 40
2450291.000000000
  9
$TDUPDATE
 40
0.000000000
  9
$TDINDWG
 40
0.0000000000
  9
$TDUSRTIMER
 40
0.0000000000
  9
$USRTIMER
 70
     1
  9
$ANGBASE
 50
0.0
  9
$ANGDIR
 70
     0
  9
$PDMODE
 70
     0
  9
$PDSIZE
 40
0.0
  9
$PLINEWID
 40
0.0
  9
$COORDS
 70
     0
  9
$SPLFRAME
 70
     0
  9
$SPLINETYPE
 70
     6
  9
$SPLINESEGS
 70
     8
  9
$ATTDIA
 70
     0
  9
$ATTREQ
 70
     1
  9
$HANDLING
 70
     1
  9
$HANDSEED
  5
483
  9
$SURFTAB1
 70
     6
  9
$SURFTAB2
 70
     6
  9
$SURFTYPE
 70
     6
  9
$SURFU
 70
     6
  9
$SURFV
 70
     6
  9
$UCSNAME
  2

  9
$UCSORG
 10
0.0
 20
0.0
 30
0.0
  9
$UCSXDIR
 10
1.0
 20
0.0
 30
0.0
  9
$UCSYDIR
 10
0.0
 20
1.0
 30
0.0
  9
$PUCSNAME
  2

  9
$PUCSORG
 10
0.0
 20
0.0
 30
0.0
  9
$PUCSXDIR
 10
1.0
 20
0.0
 30
0.0
  9
$PUCSYDIR
 10
0.0
 20
1.0
 30
0.0
  9
$USERI1
 70
     0
  9
$USERI2
 70
     0
  9
$USERI3
 70
     0
  9
$USERI4
 70
     0
  9
$USERI5
 70
     0
  9
$USERR1
 40
0.0
  9
$USERR2
 40
0.0
  9
$USERR3
 40
0.0
  9
$USERR4
 40
0.0
  9
$USERR5
 40
0.0
  9
$WORLDVIEW
 70
     1
  9
$SHADEDGE
 70
     3
  9
$SHADEDIF
 70
    70
  9
$TILEMODE
 70
     1
  9
$MAXACTVP
 70
    16
  9
$PINSBASE
 10
0.0
 20
0.0
 30
0.0
  9
$PLIMCHECK
 70
     0
  9
$PEXTMIN
 10
1.000000E+20
 20
1.000000E+20
 30
1.000000E+20
  9
$PEXTMAX
 10
-1.000000E+20
 20
-1.000000E+20
 30
-1.000000E+20
  9
$PLIMMIN
 10
0.0
 20
0.0
  9
$PLIMMAX
 10
12.0
 20
9.0
  9
$UNITMODE
 70
     0
  9
$VISRETAIN
 70
     0
  9
$PLINEGEN
 70
     1
  9
$PSLTSCALE
 70
     0
  9
$TREEDEPTH
 70
  3020
  9
$PICKSTYLE
 70
     1
  9
$CMLSTYLE
  2
STANDARD
  9
$CMLJUST
 70
     0
  9
$CMLSCALE
 40
1.0
  9
$SAVEIMAGES
 70
     0
  0
ENDSEC
  0
SECTION
  2
CLASSES
  0
CLASS
  1
LWPOLYLINE
  2
AcDbPolyline
  3
"AutoCAD"
 90
    32768
280
     0
281
     1
  0
CLASS
  1
IMAGE
  2
AcDbRasterImage
  3
ISM
 90
    32895
280
     0
281
     1
  0
CLASS
  1
OLE2FRAME
  2
AcDbOle2Frame
  3
""
 90
    32768
280
     0
281
     1
  0
CLASS
  1
HATCH
  2
AcDbHatch
  3
"ACAD_SEDONA"
 90
    32768
280
     0
281
     1
  0
CLASS
  1
DICTIONARYVAR
  2
AcDbDictionaryVar
  3
"AutoCAD"
 90
    32768
280
     0
281
     0
  0
CLASS
  1
RASTERVARIABLES
  2
AcDbRasterVariables
  3
ISM
 90
    32768
280
     0
281
     0
  0
CLASS
  1
IMAGEDEF
  2
AcDbRasterImageDef
  3
ISM
 90
    32768
280
     0
281
     0
  0
CLASS
  1
IMAGEDEF_REACTOR
  2
AcDbRasterImageDefReactor
  3
ISM
 90
    32769
280
     0
281
     0
  0
CLASS
  1
IDBUFFER
  2
AcDbIdBuffer
  3
"Acad"
 90
    32768
280
     0
281
     0
  0
CLASS
  1
SPATIAL_FILTER
  2
AcDbSpatialFilter
  3
"Acad"
 90
    32768
280
     0
281
     0
  0
CLASS
  1
XRECORD
  2
AcDbXrecord
  3
"<Built In>"
 90
    32768
280
     0
281
     0
  0
CLASS
  1
SORTENTSTABLE
  2
AcDbSortentsTable
  3
"AutoCAD"
 90
    32768
280
     0
281
     0
  0
CLASS
  1
LAYER_INDEX
  2
AcDbLayerIndex
  3
"Acad"
 90
    32768
280
     0
281
     0
  0
CLASS
  1
SPATIAL_INDEX
  2
AcDbSpatialIndex
  3
"Acad"
 90
    32768
280
     0
281
     0
  0
CLASS
  1
OBJECT_PTR
  2
CAseDLPNTableRecord
  3
"ASE-LPNTableRecord"
 90
    32769
280
     0
281
     0
  0
CLASS
  1
LAYOUT
  2
AcDbLayout
  3
"AutoCAD 2000"
 90
    32768
280
     0
281
     0
  0
CLASS
  1
PLOTSETTINGS
  2
AcDbPlotSettings
  3
"AutoCAD 2000"
 90
    32768
280
     0
281
     0
  0
CLASS
  1
ACDBDICTIONARYWDFLT
  2
AcDbDictionaryWithDefault
  3
"AutoCAD 2000"
 90
    32768
280
     0
281
     0
  0
CLASS
  1
ACDBPLACEHOLDER
  2
AcDbPlaceHolder
  3
"AutoCAD 2000"
 90
    32768
280
     0
281
     0
  0
CLASS
  1
VBA_PROJECT
  2
AcDbVbaProject
  3
"acadvba"
 90
    32768
280
     0
281
     0
  0
CLASS
  1
WIPEOUT
  2
AcDbWipeout
  3
WipeOut|AutoCAD Express Tool|expresstools@autodesk.com
 90
    32895
280
     0
281
     1
  0
CLASS
  1
WIPEOUTVARIABLES
  2
AcDbWipeoutVariables
  3
WipeOut|AutoCAD Express Tool|expresstools@autodesk.com
 90
    32768
280
     0
281
     0
  0
CLASS
  1
RTEXT
  2
RText
  3
RText|AutoCAD Express Tool|expresstools@autodesk.com
 90
    32768
280
     0
281
     1
  0
CLASS
  1
ARCALIGNEDTEXT
  2
AcDbArcAlignedText
  3
ATEXT|AutoCAD Express Tool|expresstools@autodesk.com
 90
    32768
280
     0
281
     1
  0
ENDSEC
  0
SECTION
  2
TABLES
  0
TABLE
  2
VPORT
  5
6
100
AcDbSymbolTable
 70
     1
  0
VPORT
  5
1B
100
AcDbSymbolTableRecord
100
AcDbViewportTableRecord
  2
*ACTIVE
 70
     0
 10
0.0
 20
0.0
 11
1.0
 21
1.0
 12
0.0
 22
0.0
 13
0.0
 23
0.0
 14
1.0
 24
1.0
 15
0.0
 25
0.0
 16
0.0
 26
0.0
 36
1.0
 17
0.0
 27
0.0
 37
0.0
 40
891.0
 41
1.414141
 42
50.0
 43
0.0
 44
0.0
 50
0.0
 51
0.0
 71
     0
 72
   500
 73
     1
 74
     1
 75
     0
 76
     0
 77
     0
 78
     0
  0
ENDTAB
  0
TABLE
  2
LTYPE
  5
3
100
AcDbSymbolTable
 70
     9
  0
LTYPE
  5
C
100
AcDbSymbolTableRecord
100
AcDbLinetypeTableRecord
  2
BYBLOCK
 70
    64
  3

 72
    65
 73
     0
 40
0.0
  0
LTYPE
  5
D
100
AcDbSymbolTableRecord
100
AcDbLinetypeTableRecord
  2
BYLAYER
 70
    64
  3

 72
    65
 73
     0
 40
0.0
  0
LTYPE
  5
E
100
AcDbSymbolTableRecord
100
AcDbLinetypeTableRecord
  2
CONTINUOUS
 70
     0
  3
Solid line
 72
    65
 73
     0
 40
0.0
  0
LTYPE
  5
F
100
AcDbSymbolTableRecord
100
AcDbLinetypeTableRecord
  2
DASHED
 70
     0
  3
__ __ __ __ __ __ __ __ __ __ __ __ __ __ __
 72
    65
 73
     2
 40
2.0
 49
1.2
 74
     0
 49
-0.8
 74
     0
  0
LTYPE
  5
10
100
AcDbSymbolTableRecord
100
AcDbLinetypeTableRecord
  2
CENTER
 70
     0
  3
____ _ ____ _ ____ _ ____ _ ____ _ ____ _ ____
 72
    65
 73
     4
 40
12.0
 49
9.0
 74
     0
 49
-1.0
 74
     0
 49
1.0
 74
     0
 49
-1.0
 74
     0
  0
LTYPE
  5
11
100
AcDbSymbolTableRecord
100
AcDbLinetypeTableRecord
  2
HIDDEN
 70
     0
  3
_ _ _ _ _ _ _ _ _ _ _ _ _ _ _ _ _ _ _ _ _ _ _
 72
    65
 73
     2
 40
3.2
 49
2.4
 74
     0
 49
-0.8
 74
     0
  0
LTYPE
  5
12
100
AcDbSymbolTableRecord
100
AcDbLinetypeTableRecord
  2
PHANTOM
 70
     0
  3
_____ _ _ _____ _ _ _____ _ _ _____ _ _ _____
 72
    65
 73
     6
 40
13.5
 49
9.0
 74
     0
 49
-1.0
 74
     0
 49
1.0
 74
     0
 49
-0.5
 74
     0
 49
1.0
 74
     0
 49
-1.0
 74
     0
  0
LTYPE
  5
13
100
AcDbSymbolTableRecord
100
AcDbLinetypeTableRecord
  2
DOT
 70
     0
  3
...............................................
 72
    65
 73
     2
 40
1.0
 49
0.5
 74
     0
 49
-0.5
 74
     0
  0
LTYPE
  5
14
100
AcDbSymbolTableRecord
100
AcDbLinetypeTableRecord
  2
DASHDOT
 70
     0
  3
__ . __ . __ . __ . __ . __ . __ . __ . __ . __
 72
    65
 73
     4
 40
8.0
 49
5.0
 74
     0
 49
-1.0
 74
     0
 49
1.0
 74
     0
 49
-1.0
 74
     0
  0
ENDTAB
  0
TABLE
  2
LAYER
  5
1
100
AcDbSymbolTable
 70
     6
  0
LAYER
  5
15
100
AcDbSymbolTableRecord
100
AcDbLayerTableRecord
  2
0
 70
     0
 62
     7
  6
CONTINUOUS
  0
LAYER
  5
16
100
AcDbSymbolTableRecord
100
AcDbLayerTableRecord
  2
1
 70
     0
 62
     7
  6
CONTINUOUS
  0
LAYER
  5
17
100
AcDbSymbolTableRecord
100
AcDbLayerTableRecord
  2
2
 70
     0
 62
     7
  6
CONTINUOUS
  0
LAYER
  5
18
100
AcDbSymbolTableRecord
100
AcDbLayerTableRecord
  2
5
 70
     0
 62
     7
  6
CONTINUOUS
  0
LAYER
  5
19
100
AcDbSymbolTableRecord
100
AcDbLayerTableRecord
  2
18
 70
     0
 62
     7
  6
CONTINUOUS
  0
LAYER
  5
1A
100
AcDbSymbolTableRecord
100
AcDbLayerTableRecord
  2
20
 70
     0
 62
     7
  6
CONTINUOUS
  0
ENDTAB
  0
TABLE
  2
STYLE
  5
2
100
AcDbSymbolTable
 70
     1
  0
STYLE
  5
1D
100
AcDbSymbolTableRecord
100
AcDbTextStyleTableRecord
  2
STANDARD
 70
    64
 40
0.0
 41
1.0
 50
0.0
 71
     0
 42
1.0
  3
txt
  4
BIGFONT
  0
ENDTAB
  0
TABLE
  2
VIEW
  5
4
100
AcDbSymbolTable
 70
     0
  0
ENDTAB
  0
TABLE
  2
UCS
  5
5
100
AcDbSymbolTable
 70
     0
  0
ENDTAB
  0
TABLE
  2
APPID
  5
7
100
AcDbSymbolTable
 70
     1
  0
APPID
  5
1C
100
AcDbSymbolTableRecord
100
AcDbRegAppTableRecord
  2
ACAD
 70
     0
  0
ENDTAB
  0
TABLE
  2
DIMSTYLE
  5
8
100
AcDbSymbolTable
 70
     1
  0
DIMSTYLE
105
2A
100
AcDbSymbolTableRecord
100
AcDbDimStyleTableRecord
  2
STANDARD
 70
     0
  3

  4

  5

  6

  7

 40
3.0
 41
0.18
 42
0.0625
 43
0.38
 44
0.18
 45
0.0
 46
0.0
 47
0.0
 48
0.0
 71
     0
 72
     0
 73
     1
 74
     1
 75
     0
 76
     0
 77
     1
 78
     0
140
0.18
141
0.09
142
0.0
143
25.4
144
1.0
145
0.0
146
1.0
147
0.09
170
     0
171
     2
172
     0
173
     0
174
     0
175
     0
176
     0
177
     0
178
     0
270
     2
271
     4
272
     4
273
     2
274
     2
275
     0
280
     0
281
     0
282
     0
283
     1
284
     0
285
     0
286
     0
287
     3
288
     0
340
1D
  0
ENDTAB
  0
TABLE
  2
BLOCK_RECORD
  5
25
100
AcDbSymbolTable
 70
     5
  0
BLOCK_RECORD
  5
23
100
AcDbSymbolTableRecord
100
AcDbBlockTableRecord
  2
*MODEL_SPACE
  0
BLOCK_RECORD
  5
24
100
AcDbSymbolTableRecord
100
AcDbBlockTableRecord
  2
*PAPER_SPACE
  0
BLOCK_RECORD
  5
1E
100
AcDbSymbolTableRecord
100
AcDbBlockTableRecord
  2
*D0
  0
BLOCK_RECORD
  5
1F
100
AcDbSymbolTableRecord
100
AcDbBlockTableRecord
  2
*D1
  0
BLOCK_RECORD
  5
20
100
AcDbSymbolTableRecord
100
AcDbBlockTableRecord
  2
*D2
  0
BLOCK_RECORD
  5
21
100
AcDbSymbolTableRecord
100
AcDbBlockTableRecord
  2
*D3
  0
BLOCK_RECORD
  5
22
100
AcDbSymbolTableRecord
100
AcDbBlockTableRecord
  2
*D4
  0
ENDTAB
  0
ENDSEC
  0
SECTION
  2
BLOCKS
  0
BLOCK
  5
26
100
AcDbEntity
  8
0
100
AcDbBlockBegin
  2
*MODEL_SPACE
 70
     0
 10
0.0
 20
0.0
 30
0.0
  3
*MODEL_SPACE
  1

  0
ENDBLK
  5
27
100
AcDbEntity
  8
0
100
AcDbBlockEnd
  0
BLOCK
  5
28
100
AcDbEntity
 67
     1
  8
0
100
AcDbBlockBegin
  2
*PAPER_SPACE
 70
     0
 10
0.0
 20
0.0
 30
0.0
  3
*PAPER_SPACE
  1

  0
ENDBLK
  5
29
100
AcDbEntity
 67
     1
  8
0
100
AcDbBlockEnd
  0
BLOCK
  5
440
100
AcDbEntity
  8
5
100
AcDbBlockBegin
  2
*D0
 70
     1
 10
0.0
 20
0.0
 30
0.0
  3
*D0
  1

  0
TEXT
  5
441
100
AcDbEntity
  8
5
 62
     2
100
AcDbText
 10
62.455777
 20
-338.209671
 30
0.0
 40
9.9
  1
56
 41
1.4
 72
     5
 11
73.543777
 21
-338.209671
 31
0.0
100
AcDbText
  0
LINE
  5
442
100
AcDbEntity
  8
5
 62
     2
100
AcDbLine
 10
41.385777
 20
-287.825482
 30
0.0
 11
41.385777
 21
-342.709671
 31
0.0
  0
LINE
  5
443
100
AcDbEntity
  8
5
 62
     2
100
AcDbLine
 10
41.385777
 20
-339.709671
 30
0.0
 11
47.181332
 21
-341.262585
 31
0.0
  0
LINE
  5
444
100
AcDbEntity
  8
5
 62
     2
100
AcDbLine
 10
41.385777
 20
-339.709671
 30
0.0
 11
47.181332
 21
-338.156757
 31
0.0
  0
LINE
  5
445
100
AcDbEntity
  8
5
 62
     2
100
AcDbLine
 10
47.181332
 20
-341.262585
 30
0.0
 11
47.181332
 21
-338.156757
 31
0.0
  0
LINE
  5
446
100
AcDbEntity
  8
5
 62
     2
100
AcDbLine
 10
41.385777
 20
-339.709671
 30
0.0
 11
97.385777
 21
-339.709671
 31
0.0
  0
LINE
  5
447
100
AcDbEntity
  8
5
 62
     2
100
AcDbLine
 10
97.385777
 20
-339.709671
 30
0.0
 11
91.590222
 21
-338.156757
 31
0.0
  0
LINE
  5
448
100
AcDbEntity
  8
5
 62
     2
100
AcDbLine
 10
97.385777
 20
-339.709671
 30
0.0
 11
91.590222
 21
-341.262585
 31
0.0
  0
LINE
  5
449
100
AcDbEntity
  8
5
 62
     2
100
AcDbLine
 10
91.590222
 20
-338.156757
 30
0.0
 11
91.590222
 21
-341.262585
 31
0.0
  0
LINE
  5
44A
100
AcDbEntity
  8
5
 62
     2
100
AcDbLine
 10
97.385777
 20
-287.825482
 30
0.0
 11
97.385777
 21
-342.709671
 31
0.0
  0
ENDBLK
  5
44B
100
AcDbEntity
  8
5
100
AcDbBlockEnd
  0
BLOCK
  5
44C
100
AcDbEntity
  8
5
100
AcDbBlockBegin
  2
*D1
 70
     1
 10
0.0
 20
0.0
 30
0.0
  3
*D1
  1

  0
TEXT
  5
44D
100
AcDbEntity
  8
5
 62
     2
100
AcDbText
 10
-27.945482
 20
-264.070482
 30
0.0
 40
9.9
  1
117
 50
90.0
 41
1.4
 72
     5
 11
-27.945482
 21
-246.052482
 31
0.0
100
AcDbText
  0
LINE
  5
44E
100
AcDbEntity
  8
5
 62
     2
100
AcDbLine
 10
61.385777
 20
-312.025482
 30
0.0
 11
-29.445482
 21
-312.025482
 31
0.0
  0
LINE
  5
44F
100
AcDbEntity
  8
5
 62
     2
100
AcDbLine
 10
-26.445482
 20
-312.025482
 30
0.0
 11
-24.892568
 21
-306.229927
 31
0.0
  0
LINE
  5
450
100
AcDbEntity
  8
5
 62
     2
100
AcDbLine
 10
-26.445482
 20
-312.025482
 30
0.0
 11
-27.998397
 21
-306.229927
 31
0.0
  0
LINE
  5
451
100
AcDbEntity
  8
5
 62
     2
100
AcDbLine
 10
-24.892568
 20
-306.229927
 30
0.0
 11
-27.998397
 21
-306.229927
 31
0.0
  0
LINE
  5
452
100
AcDbEntity
  8
5
 62
     2
100
AcDbLine
 10
-26.445482
 20
-312.025482
 30
0.0
 11
-26.445482
 21
-195.325482
 31
0.0
  0
LINE
  5
453
100
AcDbEntity
  8
5
 62
     2
100
AcDbLine
 10
-26.445482
 20
-195.325482
 30
0.0
 11
-27.998397
 21
-201.121037
 31
0.0
  0
LINE
  5
454
100
AcDbEntity
  8
5
 62
     2
100
AcDbLine
 10
-26.445482
 20
-195.325482
 30
0.0
 11
-24.892568
 21
-201.121037
 31
0.0
  0
LINE
  5
455
100
AcDbEntity
  8
5
 62
     2
100
AcDbLine
 10
-27.998397
 20
-201.121037
 30
0.0
 11
-24.892568
 21
-201.121037
 31
0.0
  0
LINE
  5
456
100
AcDbEntity
  8
5
 62
     2
100
AcDbLine
 10
25.625444
 20
-195.325482
 30
0.0
 11
-29.445482
 21
-195.325482
 31
0.0
  0
ENDBLK
  5
457
100
AcDbEntity
  8
5
100
AcDbBlockEnd
  0
BLOCK
  5
458
100
AcDbEntity
  8
5
100
AcDbBlockBegin
  2
*D2
 70
     1
 10
0.0
 20
0.0
 30
0.0
  3
*D2
  1

  0
TEXT
  5
459
100
AcDbEntity
  8
5
 62
     2
100
AcDbText
 10
-27.945482
 20
-110.220482
 30
0.0
 40
9.9
  1
191
 50
90.0
 41
1.4
 72
     5
 11
-27.945482
 21
-92.202482
 31
0.0
100
AcDbText
  0
LINE
  5
45A
100
AcDbEntity
  8
5
 62
     2
100
AcDbLine
 10
25.625444
 20
-195.325482
 30
0.0
 11
-29.445482
 21
-195.325482
 31
0.0
  0
LINE
  5
45B
100
AcDbEntity
  8
5
 62
     2
100
AcDbLine
 10
-26.445482
 20
-195.325482
 30
0.0
 11
-24.892568
 21
-189.529927
 31
0.0
  0
LINE
  5
45C
100
AcDbEntity
  8
5
 62
     2
100
AcDbLine
 10
-26.445482
 20
-195.325482
 30
0.0
 11
-27.998397
 21
-189.529927
 31
0.0
  0
LINE
  5
45D
100
AcDbEntity
  8
5
 62
     2
100
AcDbLine
 10
-24.892568
 20
-189.529927
 30
0.0
 11
-27.998397
 21
-189.529927
 31
0.0
  0
LINE
  5
45E
100
AcDbEntity
  8
5
 62
     2
100
AcDbLine
 10
-26.445482
 20
-195.325482
 30
0.0
 11
-26.445482
 21
-4.325482
 31
0.0
  0
LINE
  5
45F
100
AcDbEntity
  8
5
 62
     2
100
AcDbLine
 10
-26.445482
 20
-4.325482
 30
0.0
 11
-27.998397
 21
-10.121037
 31
0.0
  0
LINE
  5
460
100
AcDbEntity
  8
5
 62
     2
100
AcDbLine
 10
-26.445482
 20
-4.325482
 30
0.0
 11
-24.892568
 21
-10.121037
 31
0.0
  0
LINE
  5
461
100
AcDbEntity
  8
5
 62
     2
100
AcDbLine
 10
-27.998397
 20
-10.121037
 30
0.0
 11
-24.892568
 21
-10.121037
 31
0.0
  0
LINE
  5
462
100
AcDbEntity
  8
5
 62
     2
100
AcDbLine
 10
15.385777
 20
-4.325482
 30
0.0
 11
-29.445482
 21
-4.325482
 31
0.0
  0
ENDBLK
  5
463
100
AcDbEntity
  8
5
100
AcDbBlockEnd
  0
BLOCK
  5
464
100
AcDbEntity
  8
5
100
AcDbBlockBegin
  2
*D3
 70
     1
 10
0.0
 20
0.0
 30
0.0
  3
*D3
  1

  0
TEXT
  5
465
100
AcDbEntity
  8
5
 62
     2
100
AcDbText
 10
-27.945482
 20
52.474518
 30
0.0
 40
9.0
  1
133
 50
90.0
 41
1.4
 72
     5
 11
-27.945482
 21
68.854518
 31
0.0
100
AcDbText
  0
LINE
  5
466
100
AcDbEntity
  8
5
 62
     2
100
AcDbLine
 10
15.385777
 20
-4.325482
 30
0.0
 11
-29.445482
 21
-4.325482
 31
0.0
  0
LINE
  5
467
100
AcDbEntity
  8
5
 62
     2
100
AcDbLine
 10
-26.445482
 20
-4.325482
 30
0.0
 11
-24.892568
 21
1.470073
 31
0.0
  0
LINE
  5
468
100
AcDbEntity
  8
5
 62
     2
100
AcDbLine
 10
-26.445482
 20
-4.325482
 30
0.0
 11
-27.998397
 21
1.470073
 31
0.0
  0
LINE
  5
469
100
AcDbEntity
  8
5
 62
     2
100
AcDbLine
 10
-24.892568
 20
1.470073
 30
0.0
 11
-27.998397
 21
1.470073
 31
0.0
  0
LINE
  5
46A
100
AcDbEntity
  8
5
 62
     2
100
AcDbLine
 10
-26.445482
 20
-4.325482
 30
0.0
 11
-26.445482
 21
128.174518
 31
0.0
  0
LINE
  5
46B
100
AcDbEntity
  8
5
 62
     2
100
AcDbLine
 10
-26.445482
 20
128.174518
 30
0.0
 11
-27.998397
 21
122.378963
 31
0.0
  0
LINE
  5
46C
100
AcDbEntity
  8
5
 62
     2
100
AcDbLine
 10
-26.445482
 20
128.174518
 30
0.0
 11
-24.892568
 21
122.378963
 31
0.0
  0
LINE
  5
46D
100
AcDbEntity
  8
5
 62
     2
100
AcDbLine
 10
-27.998397
 20
122.378963
 30
0.0
 11
-24.892568
 21
122.378963
 31
0.0
  0
LINE
  5
46E
100
AcDbEntity
  8
5
 62
     2
100
AcDbLine
 10
61.385777
 20
128.174518
 30
0.0
 11
-29.445482
 21
128.174518
 31
0.0
  0
ENDBLK
  5
46F
100
AcDbEntity
  8
5
100
AcDbBlockEnd
  0
BLOCK
  5
470
100
AcDbEntity
  8
5
100
AcDbBlockBegin
  2
*D4
 70
     1
 10
0.0
 20
0.0
 30
0.0
  3
*D4
  1

  0
TEXT
  5
471
100
AcDbEntity
  8
5
 62
     2
100
AcDbText
 10
56.785777
 20
170.091316
 30
0.0
 40
9.0
  1
%%c100
 41
1.4
 72
     5
 11
79.465777
 21
170.091316
 31
0.0
100
AcDbText
  0
LINE
  5
472
100
AcDbEntity
  8
5
 62
     2
100
AcDbLine
 10
19.385777
 20
116.174518
 30
0.0
 11
19.385777
 21
171.591316
 31
0.0
  0
LINE
  5
473
100
AcDbEntity
  8
5
 62
     2
100
AcDbLine
 10
19.385777
 20
168.591316
 30
0.0
 11
25.181332
 21
167.038402
 31
0.0
  0
LINE
  5
474
100
AcDbEntity
  8
5
 62
     2
100
AcDbLine
 10
19.385777
 20
168.591316
 30
0.0
 11
25.181332
 21
170.14423
 31
0.0
  0
LINE
  5
475
100
AcDbEntity
  8
5
 62
     2
100
AcDbLine
 10
25.181332
 20
167.038402
 30
0.0
 11
25.181332
 21
170.14423
 31
0.0
  0
LINE
  5
476
100
AcDbEntity
  8
5
 62
     2
100
AcDbLine
 10
19.385777
 20
168.591316
 30
0.0
 11
119.385777
 21
168.591316
 31
0.0
  0
LINE
  5
477
100
AcDbEntity
  8
5
 62
     2
100
AcDbLine
 10
119.385777
 20
168.591316
 30
0.0
 11
113.590222
 21
170.14423
 31
0.0
  0
LINE
  5
478
100
AcDbEntity
  8
5
 62
     2
100
AcDbLine
 10
119.385777
 20
168.591316
 30
0.0
 11
113.590222
 21
167.038402
 31
0.0
  0
LINE
  5
479
100
AcDbEntity
  8
5
 62
     2
100
AcDbLine
 10
113.590222
 20
170.14423
 30
0.0
 11
113.590222
 21
167.038402
 31
0.0
  0
LINE
  5
47A
100
AcDbEntity
  8
5
 62
     2
100
AcDbLine
 10
119.385777
 20
116.174518
 30
0.0
 11
119.385777
 21
171.591316
 31
0.0
  0
ENDBLK
  5
47B
100
AcDbEntity
  8
5
100
AcDbBlockEnd
  0
ENDSEC
  0
SECTION
  2
ENTITIES
  0
LINE
  5
2B
100
AcDbEntity
  8
1
  6
CENTER
 62
     2
100
AcDbLine
 10
-361.025129
 20
-195.325482
 30
0.0
 11
-146.372534
 21
-195.325482
 31
0.0
  0
LINE
  5
2C
100
AcDbEntity
  8
1
  6
CENTER
 62
     2
100
AcDbLine
 10
28.625444
 20
-195.325482
 30
0.0
 11
112.800966
 21
-195.325482
 31
0.0
  0
LINE
  5
2D
100
AcDbEntity
  8
1
100
AcDbLine
 10
-207.164223
 20
-18.325482
 30
0.0
 11
-301.164223
 21
-18.325482
 31
0.0
  0
LINE
  5
2E
100
AcDbEntity
  8
1
100
AcDbLine
 10
-203.164223
 20
-14.325482
 30
0.0
 11
-203.164223
 21
-4.325482
 31
0.0
  0
LINE
  5
2F
100
AcDbEntity
  8
1
100
AcDbLine
 10
-305.164223
 20
-14.325482
 30
0.0
 11
-305.164223
 21
-4.325482
 31
0.0
  0
LINE
  5
30
100
AcDbEntity
  8
1
100
AcDbLine
 10
-272.664223
 20
-26.325482
 30
0.0
 11
-272.664223
 21
-98.951212
 31
0.0
  0
LINE
  5
31
100
AcDbEntity
  8
1
100
AcDbLine
 10
-235.664223
 20
-26.325482
 30
0.0
 11
-235.664223
 21
-98.951212
 31
0.0
  0
LINE
  5
32
100
AcDbEntity
  8
1
100
AcDbLine
 10
-281.164223
 20
-303.325482
 30
0.0
 11
-227.164223
 21
-303.325482
 31
0.0
  0
LINE
  5
33
100
AcDbEntity
  8
1
100
AcDbLine
 10
-281.164223
 20
-306.525482
 30
0.0
 11
-281.164223
 21
-288.76664
 31
0.0
  0
LINE
  5
34
100
AcDbEntity
  8
1
100
AcDbLine
 10
-227.164223
 20
-306.525482
 30
0.0
 11
-227.164223
 21
-288.76664
 31
0.0
  0
LINE
  5
35
100
AcDbEntity
  8
1
100
AcDbLine
 10
120.385777
 20
-14.325482
 30
0.0
 11
120.385777
 21
-4.325482
 31
0.0
  0
LINE
  5
36
100
AcDbEntity
  8
1
100
AcDbLine
 10
18.385777
 20
-14.325482
 30
0.0
 11
18.385777
 21
-4.325482
 31
0.0
  0
LINE
  5
37
100
AcDbEntity
  8
1
100
AcDbLine
 10
50.885777
 20
-26.325482
 30
0.0
 11
50.885777
 21
-103.540692
 31
0.0
  0
LINE
  5
38
100
AcDbEntity
  8
1
100
AcDbLine
 10
87.885777
 20
-26.325482
 30
0.0
 11
87.885777
 21
-103.540692
 31
0.0
  0
LINE
  5
39
100
AcDbEntity
  8
1
100
AcDbLine
 10
-257.164223
 20
-21.325482
 30
0.0
 11
-257.164223
 21
-45.292378
 31
0.0
  0
LINE
  5
3A
100
AcDbEntity
  8
1
100
AcDbLine
 10
-251.164223
 20
-21.325482
 30
0.0
 11
-251.164223
 21
-45.292378
 31
0.0
  0
LINE
  5
3B
100
AcDbEntity
  8
1
100
AcDbLine
 10
51.385777
 20
-284.469013
 30
0.0
 11
51.385777
 21
-306.525482
 31
0.0
  0
LINE
  5
3C
100
AcDbEntity
  8
1
100
AcDbLine
 10
87.385777
 20
-284.469013
 30
0.0
 11
87.385777
 21
-306.525482
 31
0.0
  0
LINE
  5
3D
100
AcDbEntity
  8
1
100
AcDbLine
 10
51.385777
 20
-303.325482
 30
0.0
 11
87.385777
 21
-303.325482
 31
0.0
  0
LINE
  5
3E
100
AcDbEntity
  8
1
100
AcDbLine
 10
66.385777
 20
-25.257533
 30
0.0
 11
66.385777
 21
-45.292378
 31
0.0
  0
LINE
  5
3F
100
AcDbEntity
  8
1
100
AcDbLine
 10
72.385777
 20
-25.257533
 30
0.0
 11
72.385777
 21
-45.292378
 31
0.0
  0
LINE
  5
40
100
AcDbEntity
  8
1
100
AcDbLine
 10
22.385777
 20
-18.325482
 30
0.0
 11
116.385777
 21
-18.325482
 31
0.0
  0
LINE
  5
41
100
AcDbEntity
  8
1
100
AcDbLine
 10
65.885777
 20
-283.78379
 30
0.0
 11
65.885777
 21
-299.325482
 31
0.0
  0
LINE
  5
42
100
AcDbEntity
  8
1
100
AcDbLine
 10
72.885777
 20
-283.78379
 30
0.0
 11
72.885777
 21
-299.325482
 31
0.0
  0
LINE
  5
43
100
AcDbEntity
  8
1
  6
CENTER
 62
     2
100
AcDbLine
 10
-272.164223
 20
-296.027483
 30
0.0
 11
-272.164223
 21
-316.32039
 31
0.0
  0
LINE
  5
44
100
AcDbEntity
  8
1
  6
CENTER
 62
     2
100
AcDbLine
 10
-236.164223
 20
-296.027483
 30
0.0
 11
-236.164223
 21
-316.32039
 31
0.0
  0
LINE
  5
45
100
AcDbEntity
  8
1
  6
CENTER
 62
     2
100
AcDbLine
 10
-290.164223
 20
4.285948
 30
0.0
 11
-290.164223
 21
-28.931245
 31
0.0
  0
LINE
  5
46
100
AcDbEntity
  8
1
  6
CENTER
 62
     2
100
AcDbLine
 10
-218.164223
 20
4.285948
 30
0.0
 11
-218.164223
 21
-28.931245
 31
0.0
  0
LINE
  5
47
100
AcDbEntity
  8
1
  6
CENTER
 62
     2
100
AcDbLine
 10
33.385777
 20
4.285948
 30
0.0
 11
33.385777
 21
-28.931245
 31
0.0
  0
LINE
  5
48
100
AcDbEntity
  8
1
  6
CENTER
 62
     2
100
AcDbLine
 10
105.385777
 20
4.285948
 30
0.0
 11
105.385777
 21
-28.931245
 31
0.0
  0
LINE
  5
49
100
AcDbEntity
  8
1
100
AcDbLine
 10
60.385777
 20
-164.325482
 30
0.0
 11
78.385777
 21
-164.325482
 31
0.0
  0
LINE
  5
4A
100
AcDbEntity
  8
1
100
AcDbLine
 10
60.385777
 20
-226.325482
 30
0.0
 11
78.385777
 21
-226.325482
 31
0.0
  0
LINE
  5
4B
100
AcDbEntity
  8
1
100
AcDbLine
 10
60.385777
 20
-160.325482
 30
0.0
 11
78.385777
 21
-160.325482
 31
0.0
  0
LINE
  5
4C
100
AcDbEntity
  8
1
100
AcDbLine
 10
60.385777
 20
-230.325482
 30
0.0
 11
78.385777
 21
-230.325482
 31
0.0
  0
LINE
  5
4D
100
AcDbEntity
  8
1
100
AcDbLine
 10
84.385777
 20
-154.325482
 30
0.0
 11
84.385777
 21
-117.103656
 31
0.0
  0
LINE
  5
4E
100
AcDbEntity
  8
1
100
AcDbLine
 10
54.385777
 20
-154.325482
 30
0.0
 11
54.385777
 21
-117.103656
 31
0.0
  0
LINE
  5
4F
100
AcDbEntity
  8
1
100
AcDbLine
 10
54.385777
 20
-273.78379
 30
0.0
 11
54.385777
 21
-236.325482
 31
0.0
  0
LINE
  5
50
100
AcDbEntity
  8
1
100
AcDbLine
 10
54.385777
 20
-220.325482
 30
0.0
 11
54.385777
 21
-170.325482
 31
0.0
  0
LINE
  5
51
100
AcDbEntity
  8
1
100
AcDbLine
 10
84.385777
 20
-273.78379
 30
0.0
 11
84.385777
 21
-236.325482
 31
0.0
  0
LINE
  5
52
100
AcDbEntity
  8
1
100
AcDbLine
 10
84.385777
 20
-220.325482
 30
0.0
 11
84.385777
 21
-170.325482
 31
0.0
  0
ARC
  5
53
100
AcDbEntity
  8
1
100
AcDbCircle
 10
-301.164223
 20
-14.325482
 30
0.0
 40
4.0
100
AcDbArc
 50
180.0
 51
270.0
  0
ARC
  5
54
100
AcDbEntity
  8
1
100
AcDbCircle
 10
-207.164223
 20
-14.325482
 30
0.0
 40
4.0
100
AcDbArc
 50
270.0
 51
360.0
  0
ARC
  5
55
100
AcDbEntity
  8
1
100
AcDbCircle
 10
-227.664223
 20
-26.325482
 30
0.0
 40
8.0
100
AcDbArc
 50
90.0
 51
180.0
  0
ARC
  5
56
100
AcDbEntity
  8
1
100
AcDbCircle
 10
-280.664223
 20
-26.325482
 30
0.0
 40
8.0
100
AcDbArc
 50
0.0
 51
90.0
  0
ARC
  5
57
100
AcDbEntity
  8
1
100
AcDbCircle
 10
-205.664223
 20
-48.292378
 30
0.0
 40
30.0
100
AcDbArc
 50
92.528576
 51
180.0
  0
ARC
  5
58
100
AcDbEntity
  8
1
100
AcDbCircle
 10
-302.664223
 20
-48.292378
 30
0.0
 40
30.0
100
AcDbArc
 50
0.0
 51
87.471424
  0
ARC
  5
59
100
AcDbEntity
  8
1
100
AcDbCircle
 10
-248.164223
 20
-21.325482
 30
0.0
 40
3.0
100
AcDbArc
 50
90.0
 51
180.0
  0
ARC
  5
5A
100
AcDbEntity
  8
1
100
AcDbCircle
 10
-260.164223
 20
-21.325482
 30
0.0
 40
3.0
100
AcDbArc
 50
0.0
 51
90.0
  0
ARC
  5
5B
100
AcDbEntity
  8
1
100
AcDbCircle
 10
-260.164223
 20
-45.292378
 30
0.0
 40
3.0
100
AcDbArc
 50
270.0
 51
0.0
  0
ARC
  5
5C
100
AcDbEntity
  8
1
100
AcDbCircle
 10
-248.164223
 20
-45.292378
 30
0.0
 40
3.0
100
AcDbArc
 50
180.0
 51
270.0
  0
CIRCLE
  5
5D
100
AcDbEntity
  8
1
100
AcDbCircle
 10
-254.164223
 20
-195.325482
 30
0.0
 40
90.5
  0
CIRCLE
  5
5E
100
AcDbEntity
  8
1
100
AcDbCircle
 10
-254.164223
 20
-195.325482
 30
0.0
 40
89.5
  0
ARC
  5
5F
100
AcDbEntity
  8
1
100
AcDbCircle
 10
-225.664223
 20
-98.951212
 30
0.0
 40
10.0
100
AcDbArc
 50
180.0
 51
253.525888
  0
ARC
  5
60
100
AcDbEntity
  8
1
100
AcDbCircle
 10
-282.664223
 20
-98.951212
 30
0.0
 40
10.0
100
AcDbArc
 50
286.474112
 51
360.0
  0
ARC
  5
61
100
AcDbEntity
  8
1
100
AcDbCircle
 10
-254.164223
 20
-195.325482
 30
0.0
 40
127.0
100
AcDbArc
 50
102.006883
 51
110.636394
  0
ARC
  5
62
100
AcDbEntity
  8
1
100
AcDbCircle
 10
-254.164223
 20
-195.325482
 30
0.0
 40
127.0
100
AcDbArc
 50
69.363606
 51
77.993117
  0
ARC
  5
63
100
AcDbEntity
  8
1
100
AcDbCircle
 10
-282.664223
 20
-61.322684
 30
0.0
 40
10.0
100
AcDbArc
 50
282.006883
 51
360.0
  0
ARC
  5
64
100
AcDbEntity
  8
1
100
AcDbCircle
 10
-225.664223
 20
-61.322684
 30
0.0
 40
10.0
100
AcDbArc
 50
180.0
 51
257.993117
  0
LINE
  5
65
100
AcDbEntity
  8
1
100
AcDbLine
 10
-300.07666
 20
-84.483055
 30
0.0
 11
-301.209389
 21
-81.748406
 31
0.0
  0
LINE
  5
66
100
AcDbEntity
  8
1
100
AcDbLine
 10
-208.251786
 20
-84.483055
 30
0.0
 11
-207.119058
 21
-81.748406
 31
0.0
  0
ARC
  5
67
100
AcDbEntity
  8
1
100
AcDbCircle
 10
-210.814576
 20
-80.217672
 30
0.0
 40
4.0
100
AcDbArc
 50
337.5
 51
69.363606
  0
ARC
  5
68
100
AcDbEntity
  8
1
100
AcDbCircle
 10
-297.513871
 20
-80.217672
 30
0.0
 40
4.0
100
AcDbArc
 50
110.636394
 51
202.5
  0
LINE
  5
69
100
AcDbEntity
  8
1
100
AcDbLine
 10
-225.482463
 20
-98.318131
 30
0.0
 11
-225.482463
 21
-104.58926
 31
0.0
  0
LINE
  5
6A
100
AcDbEntity
  8
1
100
AcDbLine
 10
-282.845984
 20
-98.318131
 30
0.0
 11
-282.845984
 21
-104.58926
 31
0.0
  0
ARC
  5
6B
100
AcDbEntity
  8
1
100
AcDbCircle
 10
-213.982463
 20
-98.318131
 30
0.0
 40
11.5
100
AcDbArc
 50
82.455248
 51
180.0
  0
ARC
  5
6C
100
AcDbEntity
  8
1
100
AcDbCircle
 10
-294.345984
 20
-98.318131
 30
0.0
 40
11.5
100
AcDbArc
 50
0.0
 51
97.544752
  0
ARC
  5
6D
100
AcDbEntity
  8
1
100
AcDbCircle
 10
-211.947304
 20
-82.952321
 30
0.0
 40
4.0
100
AcDbArc
 50
262.455248
 51
337.5
  0
ARC
  5
6E
100
AcDbEntity
  8
1
100
AcDbCircle
 10
-296.381142
 20
-82.952321
 30
0.0
 40
4.0
100
AcDbArc
 50
202.5
 51
277.544752
  0
ARC
  5
6F
100
AcDbEntity
  8
1
100
AcDbCircle
 10
-218.482463
 20
-104.58926
 30
0.0
 40
7.0
100
AcDbArc
 50
180.0
 51
248.532908
  0
ARC
  5
70
100
AcDbEntity
  8
1
100
AcDbCircle
 10
-289.845984
 20
-104.58926
 30
0.0
 40
7.0
100
AcDbArc
 50
291.467092
 51
360.0
  0
ARC
  5
71
100
AcDbEntity
  8
1
100
AcDbCircle
 10
-217.164223
 20
-288.76664
 30
0.0
 40
10.0
100
AcDbArc
 50
111.602135
 51
180.0
  0
ARC
  5
72
100
AcDbEntity
  8
1
100
AcDbCircle
 10
-291.164223
 20
-288.76664
 30
0.0
 40
10.0
100
AcDbArc
 50
0.0
 51
68.397865
  0
LINE
  5
73
100
AcDbEntity
  8
1
100
AcDbLine
 10
-225.482463
 20
-292.332833
 30
0.0
 11
-225.482463
 21
-286.071785
 31
0.0
  0
LINE
  5
74
100
AcDbEntity
  8
1
100
AcDbLine
 10
-282.845984
 20
-292.332833
 30
0.0
 11
-282.845984
 21
-286.071785
 31
0.0
  0
ARC
  5
75
100
AcDbEntity
  8
1
100
AcDbCircle
 10
-213.982463
 20
-292.332833
 30
0.0
 40
11.5
100
AcDbArc
 50
180.0
 51
200.712095
  0
ARC
  5
76
100
AcDbEntity
  8
1
100
AcDbCircle
 10
-294.345984
 20
-292.332833
 30
0.0
 40
11.5
100
AcDbArc
 50
339.287905
 51
360.0
  0
ARC
  5
77
100
AcDbEntity
  8
1
100
AcDbCircle
 10
-218.482463
 20
-286.071785
 30
0.0
 40
7.0
100
AcDbArc
 50
116.066447
 51
180.0
  0
ARC
  5
78
100
AcDbEntity
  8
1
100
AcDbCircle
 10
-289.845984
 20
-286.071785
 30
0.0
 40
7.0
100
AcDbArc
 50
0.0
 51
63.933553
  0
ARC
  5
79
100
AcDbEntity
  8
1
100
AcDbCircle
 10
-224.164223
 20
-303.325482
 30
0.0
 40
3.0
100
AcDbArc
 50
128.071029
 51
180.0
  0
ARC
  5
7A
100
AcDbEntity
  8
1
100
AcDbCircle
 10
-284.164223
 20
-303.325482
 30
0.0
 40
3.0
100
AcDbArc
 50
0.0
 51
51.928971
  0
ARC
  5
7B
100
AcDbEntity
  8
1
100
AcDbCircle
 10
-228.480688
 20
-297.814754
 30
0.0
 40
4.0
100
AcDbArc
 50
308.071029
 51
20.712095
  0
ARC
  5
7C
100
AcDbEntity
  8
1
100
AcDbCircle
 10
-279.847758
 20
-297.814754
 30
0.0
 40
4.0
100
AcDbArc
 50
159.287905
 51
231.928971
  0
LINE
  5
7D
100
AcDbEntity
  8
1
100
AcDbLine
 10
-278.164223
 20
-300.325482
 30
0.0
 11
-230.164223
 21
-300.325482
 31
0.0
  0
ARC
  5
7E
100
AcDbEntity
  8
1
100
AcDbCircle
 10
-230.164223
 20
-297.325482
 30
0.0
 40
3.0
100
AcDbArc
 50
270.0
 51
360.0
  0
ARC
  5
7F
100
AcDbEntity
  8
1
100
AcDbCircle
 10
-278.164223
 20
-297.325482
 30
0.0
 40
3.0
100
AcDbArc
 50
180.0
 51
270.0
  0
LINE
  5
80
100
AcDbEntity
  8
1
100
AcDbLine
 10
-281.164223
 20
-304.125482
 30
0.0
 11
-227.164223
 21
-304.125482
 31
0.0
  0
LINE
  5
81
100
AcDbEntity
  8
1
100
AcDbLine
 10
-281.164223
 20
-306.525482
 30
0.0
 11
-227.164223
 21
-306.525482
 31
0.0
  0
LINE
  5
82
100
AcDbEntity
  8
1
100
AcDbLine
 10
-230.414223
 20
-308.025482
 30
0.0
 11
-230.414223
 21
-311.534735
 31
0.0
  0
LINE
  5
83
100
AcDbEntity
  8
1
100
AcDbLine
 10
-230.414223
 20
-311.534735
 30
0.0
 11
-231.264223
 21
-312.025482
 31
0.0
  0
LINE
  5
84
100
AcDbEntity
  8
1
100
AcDbLine
 10
-233.289223
 20
-308.025482
 30
0.0
 11
-233.289223
 21
-311.534735
 31
0.0
  0
ARC
  5
85
100
AcDbEntity
  8
1
100
AcDbCircle
 10
-231.851723
 20
-309.68678
 30
0.0
 40
2.341227
100
AcDbArc
 50
232.121121
 51
307.878879
  0
ARC
  5
86
100
AcDbEntity
  8
1
100
AcDbCircle
 10
-236.164223
 20
-303.403007
 30
0.0
 40
8.625
100
AcDbArc
 50
250.528777
 51
289.471219
  0
LINE
  5
87
100
AcDbEntity
  8
1
100
AcDbLine
 10
-241.914223
 20
-308.025482
 30
0.0
 11
-241.914223
 21
-311.534735
 31
0.0
  0
LINE
  5
88
100
AcDbEntity
  8
1
100
AcDbLine
 10
-241.914223
 20
-311.534735
 30
0.0
 11
-241.064223
 21
-312.025482
 31
0.0
  0
LINE
  5
89
100
AcDbEntity
  8
1
100
AcDbLine
 10
-241.064223
 20
-312.025482
 30
0.0
 11
-231.264223
 21
-312.025482
 31
0.0
  0
LINE
  5
8A
100
AcDbEntity
  8
1
100
AcDbLine
 10
-239.039223
 20
-308.025482
 30
0.0
 11
-239.039223
 21
-311.534735
 31
0.0
  0
ARC
  5
8B
100
AcDbEntity
  8
1
100
AcDbCircle
 10
-240.476723
 20
-309.68678
 30
0.0
 40
2.341227
100
AcDbArc
 50
232.121121
 51
307.878879
  0
LINE
  5
8C
100
AcDbEntity
  8
1
100
AcDbLine
 10
-230.064223
 20
-306.525482
 30
0.0
 11
-230.064223
 21
-308.025482
 31
0.0
  0
LINE
  5
8D
100
AcDbEntity
  8
1
100
AcDbLine
 10
-230.064223
 20
-308.025482
 30
0.0
 11
-242.264223
 21
-308.025482
 31
0.0
  0
LINE
  5
8E
100
AcDbEntity
  8
1
100
AcDbLine
 10
-242.264223
 20
-308.025482
 30
0.0
 11
-242.264223
 21
-306.525482
 31
0.0
  0
LINE
  5
8F
100
AcDbEntity
  8
1
100
AcDbLine
 10
-236.164223
 20
-308.025482
 30
0.0
 11
-236.664223
 21
-306.525482
 31
0.0
  0
LINE
  5
90
100
AcDbEntity
  8
1
100
AcDbLine
 10
-236.164223
 20
-306.525482
 30
0.0
 11
-235.664223
 21
-308.025482
 31
0.0
  0
LINE
  5
91
100
AcDbEntity
  8
1
100
AcDbLine
 10
-266.414223
 20
-308.025482
 30
0.0
 11
-266.414223
 21
-311.534735
 31
0.0
  0
LINE
  5
92
100
AcDbEntity
  8
1
100
AcDbLine
 10
-266.414223
 20
-311.534735
 30
0.0
 11
-267.264223
 21
-312.025482
 31
0.0
  0
LINE
  5
93
100
AcDbEntity
  8
1
100
AcDbLine
 10
-269.289223
 20
-308.025482
 30
0.0
 11
-269.289223
 21
-311.534735
 31
0.0
  0
ARC
  5
94
100
AcDbEntity
  8
1
100
AcDbCircle
 10
-267.851723
 20
-309.68678
 30
0.0
 40
2.341227
100
AcDbArc
 50
232.121121
 51
307.878879
  0
ARC
  5
95
100
AcDbEntity
  8
1
100
AcDbCircle
 10
-272.164223
 20
-303.403007
 30
0.0
 40
8.625
100
AcDbArc
 50
250.528777
 51
289.471219
  0
LINE
  5
96
100
AcDbEntity
  8
1
100
AcDbLine
 10
-277.914223
 20
-308.025482
 30
0.0
 11
-277.914223
 21
-311.534735
 31
0.0
  0
LINE
  5
97
100
AcDbEntity
  8
1
100
AcDbLine
 10
-277.914223
 20
-311.534735
 30
0.0
 11
-277.064223
 21
-312.025482
 31
0.0
  0
LINE
  5
98
100
AcDbEntity
  8
1
100
AcDbLine
 10
-277.064223
 20
-312.025482
 30
0.0
 11
-267.264223
 21
-312.025482
 31
0.0
  0
LINE
  5
99
100
AcDbEntity
  8
1
100
AcDbLine
 10
-275.039223
 20
-308.025482
 30
0.0
 11
-275.039223
 21
-311.534735
 31
0.0
  0
ARC
  5
9A
100
AcDbEntity
  8
1
100
AcDbCircle
 10
-276.476723
 20
-309.68678
 30
0.0
 40
2.341227
100
AcDbArc
 50
232.121121
 51
307.878879
  0
LINE
  5
9B
100
AcDbEntity
  8
1
100
AcDbLine
 10
-266.064223
 20
-306.525482
 30
0.0
 11
-266.064223
 21
-308.025482
 31
0.0
  0
LINE
  5
9C
100
AcDbEntity
  8
1
100
AcDbLine
 10
-266.064223
 20
-308.025482
 30
0.0
 11
-278.264223
 21
-308.025482
 31
0.0
  0
LINE
  5
9D
100
AcDbEntity
  8
1
100
AcDbLine
 10
-278.264223
 20
-308.025482
 30
0.0
 11
-278.264223
 21
-306.525482
 31
0.0
  0
LINE
  5
9E
100
AcDbEntity
  8
1
100
AcDbLine
 10
-272.164223
 20
-308.025482
 30
0.0
 11
-272.664223
 21
-306.525482
 31
0.0
  0
LINE
  5
9F
100
AcDbEntity
  8
1
100
AcDbLine
 10
-272.164223
 20
-306.525482
 30
0.0
 11
-271.664223
 21
-308.025482
 31
0.0
  0
CIRCLE
  5
A0
100
AcDbEntity
  8
1
100
AcDbCircle
 10
-254.164223
 20
-195.325482
 30
0.0
 40
81.1
  0
CIRCLE
  5
A1
100
AcDbEntity
  8
1
100
AcDbCircle
 10
-254.164223
 20
-195.325482
 30
0.0
 40
83.5
  0
CIRCLE
  5
A2
100
AcDbEntity
  8
1
100
AcDbCircle
 10
-254.164223
 20
-195.325482
 30
0.0
 40
69.95
  0
ARC
  5
A3
100
AcDbEntity
  8
1
100
AcDbCircle
 10
22.385777
 20
-14.325482
 30
0.0
 40
4.0
100
AcDbArc
 50
180.0
 51
270.0
  0
ARC
  5
A4
100
AcDbEntity
  8
1
100
AcDbCircle
 10
116.385777
 20
-14.325482
 30
0.0
 40
4.0
100
AcDbArc
 50
270.0
 51
360.0
  0
ARC
  5
A5
100
AcDbEntity
  8
1
100
AcDbCircle
 10
95.885777
 20
-26.325482
 30
0.0
 40
8.0
100
AcDbArc
 50
90.0
 51
180.0
  0
ARC
  5
A6
100
AcDbEntity
  8
1
100
AcDbCircle
 10
42.885777
 20
-26.325482
 30
0.0
 40
8.0
100
AcDbArc
 50
0.0
 51
90.0
  0
ARC
  5
A7
100
AcDbEntity
  8
1
100
AcDbCircle
 10
117.885777
 20
-48.292378
 30
0.0
 40
30.0
100
AcDbArc
 50
92.528576
 51
180.0
  0
ARC
  5
A8
100
AcDbEntity
  8
1
100
AcDbCircle
 10
20.885777
 20
-48.292378
 30
0.0
 40
30.0
100
AcDbArc
 50
0.0
 51
87.471424
  0
LINE
  5
A9
100
AcDbEntity
  8
1
100
AcDbLine
 10
65.385777
 20
-21.325482
 30
0.0
 11
65.385777
 21
-23.525482
 31
0.0
  0
LINE
  5
AA
100
AcDbEntity
  8
1
100
AcDbLine
 10
73.385777
 20
-21.325482
 30
0.0
 11
73.385777
 21
-23.525482
 31
0.0
  0
ARC
  5
AB
100
AcDbEntity
  8
1
100
AcDbCircle
 10
76.385777
 20
-21.325482
 30
0.0
 40
3.0
100
AcDbArc
 50
90.0
 51
180.0
  0
ARC
  5
AC
100
AcDbEntity
  8
1
100
AcDbCircle
 10
62.385777
 20
-21.325482
 30
0.0
 40
3.0
100
AcDbArc
 50
0.0
 51
90.0
  0
ARC
  5
AD
100
AcDbEntity
  8
1
100
AcDbCircle
 10
66.385777
 20
-23.525482
 30
0.0
 40
1.0
100
AcDbArc
 50
180.0
 51
240.0
  0
ARC
  5
AE
100
AcDbEntity
  8
1
100
AcDbCircle
 10
72.385777
 20
-23.525482
 30
0.0
 40
1.0
100
AcDbArc
 50
300.0
 51
0.0
  0
ARC
  5
AF
100
AcDbEntity
  8
1
100
AcDbCircle
 10
73.385777
 20
-25.257533
 30
0.0
 40
1.0
100
AcDbArc
 50
120.0
 51
180.0
  0
ARC
  5
B0
100
AcDbEntity
  8
1
100
AcDbCircle
 10
65.385777
 20
-25.257533
 30
0.0
 40
1.0
100
AcDbArc
 50
0.0
 51
60.0
  0
ARC
  5
B1
100
AcDbEntity
  8
1
100
AcDbCircle
 10
75.385777
 20
-45.292378
 30
0.0
 40
3.0
100
AcDbArc
 50
180.0
 51
270.0
  0
ARC
  5
B2
100
AcDbEntity
  8
1
100
AcDbCircle
 10
63.385777
 20
-45.292378
 30
0.0
 40
3.0
100
AcDbArc
 50
270.0
 51
360.0
  0
LINE
  5
B3
100
AcDbEntity
  8
1
100
AcDbLine
 10
-284.020166
 20
-24.525482
 30
0.0
 11
-272.869353
 21
-24.525482
 31
0.0
  0
LINE
  5
B4
100
AcDbEntity
  8
1
100
AcDbLine
 10
-235.459093
 20
-24.525482
 30
0.0
 11
-224.308281
 21
-24.525482
 31
0.0
  0
ARC
  5
B5
100
AcDbEntity
  8
1
100
AcDbCircle
 10
-224.308281
 20
-23.525482
 30
0.0
 40
1.0
100
AcDbArc
 50
270.0
 51
306.971752
  0
ARC
  5
B6
100
AcDbEntity
  8
1
100
AcDbCircle
 10
-284.020166
 20
-23.525482
 30
0.0
 40
1.0
100
AcDbArc
 50
233.028248
 51
270.0
  0
LINE
  5
B7
100
AcDbEntity
  8
1
100
AcDbLine
 10
97.385777
 20
-105.825482
 30
0.0
 11
97.385777
 21
-284.825482
 31
0.0
  0
LINE
  5
B8
100
AcDbEntity
  8
1
100
AcDbLine
 10
41.385777
 20
-105.825482
 30
0.0
 11
41.385777
 21
-284.825482
 31
0.0
  0
LINE
  5
B9
100
AcDbEntity
  8
1
100
AcDbLine
 10
97.385777
 20
-105.825482
 30
0.0
 11
96.385777
 21
-104.825482
 31
0.0
  0
LINE
  5
BA
100
AcDbEntity
  8
1
100
AcDbLine
 10
41.385777
 20
-105.825482
 30
0.0
 11
42.385777
 21
-104.825482
 31
0.0
  0
LINE
  5
BB
100
AcDbEntity
  8
1
100
AcDbLine
 10
41.385777
 20
-284.825482
 30
0.0
 11
42.385777
 21
-285.825482
 31
0.0
  0
LINE
  5
BC
100
AcDbEntity
  8
1
100
AcDbLine
 10
96.385777
 20
-285.825482
 30
0.0
 11
97.385777
 21
-284.825482
 31
0.0
  0
LINE
  5
BD
100
AcDbEntity
  8
1
100
AcDbLine
 10
96.385777
 20
-104.825482
 30
0.0
 11
96.385777
 21
-285.825482
 31
0.0
  0
LINE
  5
BE
100
AcDbEntity
  8
1
100
AcDbLine
 10
42.385777
 20
-104.825482
 30
0.0
 11
42.385777
 21
-285.825482
 31
0.0
  0
ARC
  5
BF
100
AcDbEntity
  8
1
100
AcDbCircle
 10
92.885777
 20
-99.825482
 30
0.0
 40
5.0
100
AcDbArc
 50
180.0
 51
270.0
  0
ARC
  5
C0
100
AcDbEntity
  8
1
100
AcDbCircle
 10
45.885777
 20
-99.825482
 30
0.0
 40
5.0
100
AcDbArc
 50
270.0
 51
360.0
  0
LINE
  5
C1
100
AcDbEntity
  8
1
100
AcDbLine
 10
42.385777
 20
-104.825482
 30
0.0
 11
45.885777
 21
-104.825482
 31
0.0
  0
LINE
  5
C2
100
AcDbEntity
  8
1
100
AcDbLine
 10
92.885777
 20
-104.825482
 30
0.0
 11
96.385777
 21
-104.825482
 31
0.0
  0
ARC
  5
C3
100
AcDbEntity
  8
1
100
AcDbCircle
 10
92.885777
 20
-103.540692
 30
0.0
 40
5.0
100
AcDbArc
 50
180.0
 51
270.0
  0
ARC
  5
C4
100
AcDbEntity
  8
1
100
AcDbCircle
 10
45.885777
 20
-103.540692
 30
0.0
 40
5.0
100
AcDbArc
 50
270.0
 51
360.0
  0
LINE
  5
C5
100
AcDbEntity
  8
1
100
AcDbLine
 10
65.885777
 20
-66.322684
 30
0.0
 11
65.885777
 21
-106.103656
 31
0.0
  0
LINE
  5
C6
100
AcDbEntity
  8
1
100
AcDbLine
 10
72.885777
 20
-66.322684
 30
0.0
 11
72.885777
 21
-106.103656
 31
0.0
  0
ARC
  5
C7
100
AcDbEntity
  8
1
100
AcDbCircle
 10
77.885777
 20
-66.322684
 30
0.0
 40
5.0
100
AcDbArc
 50
90.0
 51
180.0
  0
ARC
  5
C8
100
AcDbEntity
  8
1
100
AcDbCircle
 10
60.885777
 20
-66.322684
 30
0.0
 40
5.0
100
AcDbArc
 50
0.0
 51
90.0
  0
ARC
  5
C9
100
AcDbEntity
  8
1
100
AcDbCircle
 10
77.885777
 20
-106.103656
 30
0.0
 40
5.0
100
AcDbArc
 50
180.0
 51
270.0
  0
ARC
  5
CA
100
AcDbEntity
  8
1
100
AcDbCircle
 10
60.885777
 20
-106.103656
 30
0.0
 40
5.0
100
AcDbArc
 50
270.0
 51
0.0
  0
LINE
  5
CB
100
AcDbEntity
  8
1
100
AcDbLine
 10
67.885777
 20
-86.952321
 30
0.0
 11
70.885777
 21
-86.952321
 31
0.0
  0
LINE
  5
CC
100
AcDbEntity
  8
1
100
AcDbLine
 10
67.885777
 20
-77.992782
 30
0.0
 11
70.885777
 21
-77.992782
 31
0.0
  0
ARC
  5
CD
100
AcDbEntity
  8
1
100
AcDbCircle
 10
70.885777
 20
-84.952321
 30
0.0
 40
2.0
100
AcDbArc
 50
270.0
 51
360.0
  0
ARC
  5
CE
100
AcDbEntity
  8
1
100
AcDbCircle
 10
67.885777
 20
-84.952321
 30
0.0
 40
2.0
100
AcDbArc
 50
180.0
 51
270.0
  0
ARC
  5
CF
100
AcDbEntity
  8
1
100
AcDbCircle
 10
67.885777
 20
-79.992782
 30
0.0
 40
2.0
100
AcDbArc
 50
90.0
 51
180.0
  0
ARC
  5
D0
100
AcDbEntity
  8
1
100
AcDbCircle
 10
70.885777
 20
-79.992782
 30
0.0
 40
2.0
100
AcDbArc
 50
0.0
 51
90.0
  0
LINE
  5
D1
100
AcDbEntity
  8
1
100
AcDbLine
 10
72.885777
 20
-61.322684
 30
0.0
 11
65.885777
 21
-61.322684
 31
0.0
  0
LINE
  5
D2
100
AcDbEntity
  8
1
100
AcDbLine
 10
78.385777
 20
-111.103656
 30
0.0
 11
60.385777
 21
-111.103656
 31
0.0
  0
LINE
  5
D3
100
AcDbEntity
  8
1
100
AcDbLine
 10
72.385777
 20
-48.292378
 30
0.0
 11
66.385777
 21
-48.292378
 31
0.0
  0
ARC
  5
D4
100
AcDbEntity
  8
1
100
AcDbCircle
 10
46.385777
 20
-290.825482
 30
0.0
 40
5.0
100
AcDbArc
 50
360.0
 51
90.0
  0
ARC
  5
D5
100
AcDbEntity
  8
1
100
AcDbCircle
 10
92.385777
 20
-290.825482
 30
0.0
 40
5.0
100
AcDbArc
 50
90.0
 51
180.0
  0
LINE
  5
D6
100
AcDbEntity
  8
1
100
AcDbLine
 10
42.385777
 20
-285.825482
 30
0.0
 11
46.385777
 21
-285.825482
 31
0.0
  0
LINE
  5
D7
100
AcDbEntity
  8
1
100
AcDbLine
 10
92.385777
 20
-285.825482
 30
0.0
 11
96.385777
 21
-285.825482
 31
0.0
  0
ARC
  5
D8
100
AcDbEntity
  8
1
100
AcDbCircle
 10
92.385777
 20
-284.469013
 30
0.0
 40
5.0
100
AcDbArc
 50
90.0
 51
180.0
  0
ARC
  5
D9
100
AcDbEntity
  8
1
100
AcDbCircle
 10
46.385777
 20
-284.469013
 30
0.0
 40
5.0
100
AcDbArc
 50
360.0
 51
90.0
  0
ARC
  5
DA
100
AcDbEntity
  8
1
100
AcDbCircle
 10
84.385777
 20
-297.325482
 30
0.0
 40
3.0
100
AcDbArc
 50
270.0
 51
360.0
  0
ARC
  5
DB
100
AcDbEntity
  8
1
100
AcDbCircle
 10
54.385777
 20
-297.325482
 30
0.0
 40
3.0
100
AcDbArc
 50
180.0
 51
270.0
  0
ARC
  5
DC
100
AcDbEntity
  8
1
100
AcDbCircle
 10
76.885777
 20
-299.325482
 30
0.0
 40
4.0
100
AcDbArc
 50
180.0
 51
270.0
  0
ARC
  5
DD
100
AcDbEntity
  8
1
100
AcDbCircle
 10
61.885777
 20
-299.325482
 30
0.0
 40
4.0
100
AcDbArc
 50
270.0
 51
360.0
  0
LINE
  5
DE
100
AcDbEntity
  8
1
100
AcDbLine
 10
54.385777
 20
-300.325482
 30
0.0
 11
60.885777
 21
-300.325482
 31
0.0
  0
LINE
  5
DF
100
AcDbEntity
  8
1
100
AcDbLine
 10
77.885777
 20
-300.325482
 30
0.0
 11
84.385777
 21
-300.325482
 31
0.0
  0
LINE
  5
E0
100
AcDbEntity
  8
1
100
AcDbLine
 10
51.385777
 20
-279.78379
 30
0.0
 11
87.385777
 21
-279.78379
 31
0.0
  0
ARC
  5
E1
100
AcDbEntity
  8
1
100
AcDbCircle
 10
76.885777
 20
-283.78379
 30
0.0
 40
4.0
100
AcDbArc
 50
90.0
 51
180.0
  0
ARC
  5
E2
100
AcDbEntity
  8
1
100
AcDbCircle
 10
61.885777
 20
-283.78379
 30
0.0
 40
4.0
100
AcDbArc
 50
360.0
 51
90.0
  0
LINE
  5
E3
100
AcDbEntity
  8
1
100
AcDbLine
 10
51.385777
 20
-304.125482
 30
0.0
 11
87.385777
 21
-304.125482
 31
0.0
  0
LINE
  5
E4
100
AcDbEntity
  8
1
100
AcDbLine
 10
51.385777
 20
-306.525482
 30
0.0
 11
87.385777
 21
-306.525482
 31
0.0
  0
LINE
  5
E5
100
AcDbEntity
  8
1
100
AcDbLine
 10
74.385777
 20
-308.025482
 30
0.0
 11
74.385777
 21
-312.025482
 31
0.0
  0
LINE
  5
E6
100
AcDbEntity
  8
1
100
AcDbLine
 10
69.385777
 20
-308.025482
 30
0.0
 11
69.385777
 21
-311.534735
 31
0.0
  0
ARC
  5
E7
100
AcDbEntity
  8
1
100
AcDbCircle
 10
71.885777
 20
-305.412275
 30
0.0
 40
6.613208
100
AcDbArc
 50
247.788205
 51
292.211795
  0
LINE
  5
E8
100
AcDbEntity
  8
1
100
AcDbLine
 10
64.385777
 20
-308.025482
 30
0.0
 11
64.385777
 21
-312.025482
 31
0.0
  0
LINE
  5
E9
100
AcDbEntity
  8
1
100
AcDbLine
 10
64.385777
 20
-312.025482
 30
0.0
 11
74.385777
 21
-312.025482
 31
0.0
  0
ARC
  5
EA
100
AcDbEntity
  8
1
100
AcDbCircle
 10
66.885777
 20
-305.412275
 30
0.0
 40
6.613208
100
AcDbArc
 50
247.788205
 51
292.211795
  0
LINE
  5
EB
100
AcDbEntity
  8
1
100
AcDbLine
 10
75.485777
 20
-306.525482
 30
0.0
 11
75.485777
 21
-308.025482
 31
0.0
  0
LINE
  5
EC
100
AcDbEntity
  8
1
100
AcDbLine
 10
75.485777
 20
-308.025482
 30
0.0
 11
63.285777
 21
-308.025482
 31
0.0
  0
LINE
  5
ED
100
AcDbEntity
  8
1
100
AcDbLine
 10
63.285777
 20
-308.025482
 30
0.0
 11
63.285777
 21
-306.525482
 31
0.0
  0
ARC
  5
EE
100
AcDbEntity
  8
1
100
AcDbCircle
 10
78.385777
 20
-154.325482
 30
0.0
 40
6.0
100
AcDbArc
 50
270.0
 51
360.0
  0
ARC
  5
EF
100
AcDbEntity
  8
1
100
AcDbCircle
 10
60.385777
 20
-170.325482
 30
0.0
 40
6.0
100
AcDbArc
 50
90.0
 51
180.0
  0
ARC
  5
F0
100
AcDbEntity
  8
1
100
AcDbCircle
 10
78.385777
 20
-170.325482
 30
0.0
 40
6.0
100
AcDbArc
 50
0.0
 51
90.0
  0
ARC
  5
F1
100
AcDbEntity
  8
1
100
AcDbCircle
 10
60.385777
 20
-220.325482
 30
0.0
 40
6.0
100
AcDbArc
 50
180.0
 51
270.0
  0
ARC
  5
F2
100
AcDbEntity
  8
1
100
AcDbCircle
 10
78.385777
 20
-220.325482
 30
0.0
 40
6.0
100
AcDbArc
 50
270.0
 51
0.0
  0
ARC
  5
F3
100
AcDbEntity
  8
1
100
AcDbCircle
 10
60.385777
 20
-236.325482
 30
0.0
 40
6.0
100
AcDbArc
 50
90.0
 51
180.0
  0
ARC
  5
F4
100
AcDbEntity
  8
1
100
AcDbCircle
 10
78.385777
 20
-236.325482
 30
0.0
 40
6.0
100
AcDbArc
 50
0.0
 51
90.0
  0
ARC
  5
F5
100
AcDbEntity
  8
1
100
AcDbCircle
 10
78.385777
 20
-117.103656
 30
0.0
 40
6.0
100
AcDbArc
 50
0.0
 51
90.0
  0
ARC
  5
F6
100
AcDbEntity
  8
1
100
AcDbCircle
 10
60.385777
 20
-117.103656
 30
0.0
 40
6.0
100
AcDbArc
 50
90.0
 51
180.0
  0
ARC
  5
F7
100
AcDbEntity
  8
1
100
AcDbCircle
 10
78.385777
 20
-273.78379
 30
0.0
 40
6.0
100
AcDbArc
 50
270.0
 51
360.0
  0
ARC
  5
F8
100
AcDbEntity
  8
1
100
AcDbCircle
 10
60.385777
 20
-273.78379
 30
0.0
 40
6.0
100
AcDbArc
 50
180.0
 51
270.0
  0
LINE
  5
F9
100
AcDbEntity
  8
1
100
AcDbLine
 10
80.902277
 20
-152.95184
 30
0.0
 11
80.902277
 21
-131.376516
 31
0.0
  0
ARC
  5
FA
100
AcDbEntity
  8
1
100
AcDbCircle
 10
60.385777
 20
-154.325482
 30
0.0
 40
6.0
100
AcDbArc
 50
180.000003
 51
269.999998
  0
LINE
  5
FB
100
AcDbEntity
  8
1
100
AcDbLine
 10
57.869277
 20
-152.95184
 30
0.0
 11
57.869277
 21
-131.376516
 31
0.0
  0
LINE
  5
FC
100
AcDbEntity
  8
1
100
AcDbLine
 10
57.869277
 20
-259.274448
 30
0.0
 11
57.869277
 21
-237.699125
 31
0.0
  0
LINE
  5
FD
100
AcDbEntity
  8
1
100
AcDbLine
 10
57.869277
 20
-217.233225
 30
0.0
 11
57.869277
 21
-173.41774
 31
0.0
  0
LINE
  5
FE
100
AcDbEntity
  8
1
100
AcDbLine
 10
80.902277
 20
-259.274448
 30
0.0
 11
80.902277
 21
-237.699125
 31
0.0
  0
LINE
  5
FF
100
AcDbEntity
  8
1
100
AcDbLine
 10
80.902277
 20
-217.233225
 30
0.0
 11
80.902277
 21
-173.41774
 31
0.0
  0
ARC
  5
100
100
AcDbEntity
  8
1
100
AcDbCircle
 10
78.385777
 20
-173.41774
 30
0.0
 40
2.5165
100
AcDbArc
 50
0.0
 51
90.0
  0
ARC
  5
101
100
AcDbEntity
  8
1
100
AcDbCircle
 10
60.385777
 20
-173.41774
 30
0.0
 40
2.5165
100
AcDbArc
 50
90.0
 51
180.0
  0
ARC
  5
102
100
AcDbEntity
  8
1
100
AcDbCircle
 10
60.385777
 20
-217.233225
 30
0.0
 40
2.5165
100
AcDbArc
 50
180.0
 51
270.0
  0
ARC
  5
103
100
AcDbEntity
  8
1
100
AcDbCircle
 10
78.385777
 20
-217.233225
 30
0.0
 40
2.5165
100
AcDbArc
 50
270.0
 51
360.0
  0
ARC
  5
104
100
AcDbEntity
  8
1
100
AcDbCircle
 10
78.385777
 20
-237.699125
 30
0.0
 40
2.5165
100
AcDbArc
 50
0.0
 51
90.0
  0
ARC
  5
105
100
AcDbEntity
  8
1
100
AcDbCircle
 10
60.385777
 20
-237.699125
 30
0.0
 40
2.5165
100
AcDbArc
 50
90.0
 51
180.0
  0
ARC
  5
106
100
AcDbEntity
  8
1
100
AcDbCircle
 10
78.385777
 20
-152.95184
 30
0.0
 40
2.5165
100
AcDbArc
 50
270.0
 51
360.0
  0
ARC
  5
107
100
AcDbEntity
  8
1
100
AcDbCircle
 10
60.385777
 20
-152.95184
 30
0.0
 40
2.5165
100
AcDbArc
 50
180.0
 51
270.0
  0
ARC
  5
108
100
AcDbEntity
  8
1
100
AcDbCircle
 10
60.385777
 20
-131.376516
 30
0.0
 40
2.5165
100
AcDbArc
 50
90.0
 51
180.0
  0
ARC
  5
109
100
AcDbEntity
  8
1
100
AcDbCircle
 10
78.385777
 20
-131.376516
 30
0.0
 40
2.5165
100
AcDbArc
 50
0.0
 51
90.0
  0
ARC
  5
10A
100
AcDbEntity
  8
1
100
AcDbCircle
 10
60.385777
 20
-259.274448
 30
0.0
 40
2.5165
100
AcDbArc
 50
180.0
 51
270.0
  0
ARC
  5
10B
100
AcDbEntity
  8
1
100
AcDbCircle
 10
78.385777
 20
-259.274448
 30
0.0
 40
2.5165
100
AcDbArc
 50
270.0
 51
360.0
  0
CIRCLE
  5
10C
100
AcDbEntity
  8
1
100
AcDbCircle
 10
-254.164223
 20
-195.325482
 30
0.0
 40
64.95
  0
LINE
  5
10D
100
AcDbEntity
  8
1
100
AcDbLine
 10
40.010777
 20
-114.225482
 30
0.0
 11
40.010777
 21
-276.425482
 31
0.0
  0
LINE
  5
10E
100
AcDbEntity
  8
1
100
AcDbLine
 10
98.760777
 20
-114.225482
 30
0.0
 11
98.760777
 21
-276.425482
 31
0.0
  0
LINE
  5
10F
100
AcDbEntity
  8
1
100
AcDbLine
 10
98.760777
 20
-114.225482
 30
0.0
 11
97.67389
 21
-112.32837
 31
0.0
  0
LINE
  5
110
100
AcDbEntity
  8
1
100
AcDbLine
 10
40.010777
 20
-114.225482
 30
0.0
 11
41.097664
 21
-112.32837
 31
0.0
  0
ARC
  5
111
100
AcDbEntity
  8
1
100
AcDbCircle
 10
96.806203
 20
-112.825482
 30
0.0
 40
1.0
100
AcDbArc
 50
29.809114
 51
54.579452
  0
ARC
  5
112
100
AcDbEntity
  8
1
100
AcDbCircle
 10
41.96535
 20
-112.825482
 30
0.0
 40
1.0
100
AcDbArc
 50
125.420548
 51
150.190886
  0
LINE
  5
113
100
AcDbEntity
  8
1
100
AcDbLine
 10
98.760777
 20
-276.425482
 30
0.0
 11
97.67389
 21
-278.322594
 31
0.0
  0
LINE
  5
114
100
AcDbEntity
  8
1
100
AcDbLine
 10
40.010777
 20
-276.425482
 30
0.0
 11
41.097664
 21
-278.322594
 31
0.0
  0
ARC
  5
115
100
AcDbEntity
  8
1
100
AcDbCircle
 10
41.96535
 20
-277.825482
 30
0.0
 40
1.0
100
AcDbArc
 50
209.809114
 51
234.579452
  0
ARC
  5
116
100
AcDbEntity
  8
1
100
AcDbCircle
 10
96.806203
 20
-277.825482
 30
0.0
 40
1.0
100
AcDbArc
 50
305.420548
 51
330.190886
  0
LINE
  5
117
100
AcDbEntity
  8
1
100
AcDbLine
 10
50.885777
 20
-108.540692
 30
0.0
 11
60.885777
 21
-108.540692
 31
0.0
  0
LINE
  5
118
100
AcDbEntity
  8
1
100
AcDbLine
 10
77.885777
 20
-108.540692
 30
0.0
 11
87.885777
 21
-108.540692
 31
0.0
  0
LINE
  5
119
100
AcDbEntity
  8
1
100
AcDbLine
 10
-251.164223
 20
-48.292378
 30
0.0
 11
-257.164223
 21
-48.292378
 31
0.0
  0
LINE
  5
11A
100
AcDbEntity
  8
1
  6
CENTER
 62
     2
100
AcDbLine
 10
-361.025129
 20
272.824518
 30
0.0
 11
-146.372534
 21
272.824518
 31
0.0
  0
CIRCLE
  5
11B
100
AcDbEntity
  8
1
  6
DASHED
100
AcDbCircle
 10
-290.164223
 20
308.824518
 30
0.0
 40
5.5
  0
CIRCLE
  5
11C
100
AcDbEntity
  8
1
  6
DASHED
100
AcDbCircle
 10
-218.164223
 20
308.824518
 30
0.0
 40
5.5
  0
CIRCLE
  5
11D
100
AcDbEntity
  8
1
  6
DASHED
100
AcDbCircle
 10
-218.164223
 20
236.824518
 30
0.0
 40
5.5
  0
CIRCLE
  5
11E
100
AcDbEntity
  8
1
  6
DASHED
100
AcDbCircle
 10
-290.164223
 20
236.824518
 30
0.0
 40
5.5
  0
LINE
  5
11F
100
AcDbEntity
  8
1
  6
CENTER
 62
     2
100
AcDbLine
 10
-299.243315
 20
308.824518
 30
0.0
 11
-277.9606
 21
308.824518
 31
0.0
  0
LINE
  5
120
100
AcDbEntity
  8
1
  6
CENTER
 62
     2
100
AcDbLine
 10
-229.401533
 20
308.824518
 30
0.0
 11
-207.243651
 21
308.824518
 31
0.0
  0
LINE
  5
121
100
AcDbEntity
  8
1
  6
CENTER
 62
     2
100
AcDbLine
 10
-300.701933
 20
236.824518
 30
0.0
 11
-278.544035
 21
236.824518
 31
0.0
  0
LINE
  5
122
100
AcDbEntity
  8
1
  6
CENTER
 62
     2
100
AcDbLine
 10
-229.693281
 20
236.824518
 30
0.0
 11
-208.702284
 21
236.824518
 31
0.0
  0
LINE
  5
123
100
AcDbEntity
  8
1
  6
CENTER
 62
     2
100
AcDbLine
 10
-290.164223
 20
226.850868
 30
0.0
 11
-290.164223
 21
245.799782
 31
0.0
  0
LINE
  5
124
100
AcDbEntity
  8
1
  6
CENTER
 62
     2
100
AcDbLine
 10
-290.164223
 20
300.485092
 30
0.0
 11
-290.164223
 21
317.829468
 31
0.0
  0
LINE
  5
125
100
AcDbEntity
  8
1
  6
CENTER
 62
     2
100
AcDbLine
 10
-218.164223
 20
226.850868
 30
0.0
 11
-218.164223
 21
245.799782
 31
0.0
  0
LINE
  5
126
100
AcDbEntity
  8
1
  6
CENTER
 62
     2
100
AcDbLine
 10
-218.164223
 20
299.901657
 30
0.0
 11
-218.164223
 21
317.829468
 31
0.0
  0
LINE
  5
127
100
AcDbEntity
  8
1
100
AcDbLine
 10
-187.5343
 20
284.341178
 30
0.0
 11
-203.164223
 21
284.341178
 31
0.0
  0
LINE
  5
128
100
AcDbEntity
  8
1
100
AcDbLine
 10
-187.5343
 20
261.307857
 30
0.0
 11
-203.164223
 21
261.307857
 31
0.0
  0
ARC
  5
129
100
AcDbEntity
  8
1
100
AcDbCircle
 10
-187.5343
 20
263.824518
 30
0.0
 40
2.51666
100
AcDbArc
 50
270.0
 51
0.0
  0
ARC
  5
12A
100
AcDbEntity
  8
1
100
AcDbCircle
 10
-187.5343
 20
281.824518
 30
0.0
 40
2.51666
100
AcDbArc
 50
0.0
 51
90.0
  0
LINE
  5
12B
100
AcDbEntity
  8
1
100
AcDbLine
 10
-173.797185
 20
287.072176
 30
0.0
 11
-185.01764
 21
284.341178
 31
0.0
  0
LINE
  5
12C
100
AcDbEntity
  8
1
100
AcDbLine
 10
-173.797185
 20
258.576859
 30
0.0
 11
-185.01764
 21
261.307857
 31
0.0
  0
LINE
  5
12D
100
AcDbEntity
  8
1
100
AcDbLine
 10
-320.794146
 20
284.341178
 30
0.0
 11
-305.164223
 21
284.341178
 31
0.0
  0
LINE
  5
12E
100
AcDbEntity
  8
1
100
AcDbLine
 10
-320.794146
 20
261.307857
 30
0.0
 11
-305.164223
 21
261.307857
 31
0.0
  0
ARC
  5
12F
100
AcDbEntity
  8
1
100
AcDbCircle
 10
-320.794146
 20
263.824518
 30
0.0
 40
2.51666
100
AcDbArc
 50
180.0
 51
270.0
  0
ARC
  5
130
100
AcDbEntity
  8
1
100
AcDbCircle
 10
-320.794146
 20
281.824518
 30
0.0
 40
2.51666
100
AcDbArc
 50
90.0
 51
180.0
  0
LINE
  5
131
100
AcDbEntity
  8
1
100
AcDbLine
 10
-334.531262
 20
287.072176
 30
0.0
 11
-323.310807
 21
284.341178
 31
0.0
  0
LINE
  5
132
100
AcDbEntity
  8
1
100
AcDbLine
 10
-334.531262
 20
258.576859
 30
0.0
 11
-323.310807
 21
261.307857
 31
0.0
  0
LINE
  5
133
100
AcDbEntity
  8
1
  6
DASHED
100
AcDbLine
 10
-305.164223
 20
245.324518
 30
0.0
 11
-305.164223
 21
300.324518
 31
0.0
  0
LINE
  5
134
100
AcDbEntity
  8
1
  6
DASHED
100
AcDbLine
 10
-203.164223
 20
245.324518
 30
0.0
 11
-203.164223
 21
300.324518
 31
0.0
  0
LINE
  5
135
100
AcDbEntity
  8
1
  6
DASHED
100
AcDbLine
 10
-281.664223
 20
323.824518
 30
0.0
 11
-226.664223
 21
323.824518
 31
0.0
  0
LINE
  5
136
100
AcDbEntity
  8
1
  6
DASHED
100
AcDbLine
 10
-281.664223
 20
221.824518
 30
0.0
 11
-226.664223
 21
221.824518
 31
0.0
  0
ARC
  5
137
100
AcDbEntity
  8
1
  6
DASHED
100
AcDbCircle
 10
-226.664223
 20
300.324518
 30
0.0
 40
23.5
100
AcDbArc
 50
0.0
 51
90.0
  0
ARC
  5
138
100
AcDbEntity
  8
1
  6
DASHED
100
AcDbCircle
 10
-281.664223
 20
300.324518
 30
0.0
 40
23.5
100
AcDbArc
 50
90.0
 51
180.0
  0
ARC
  5
139
100
AcDbEntity
  8
1
  6
DASHED
100
AcDbCircle
 10
-281.664223
 20
245.324518
 30
0.0
 40
23.5
100
AcDbArc
 50
180.0
 51
270.0
  0
ARC
  5
13A
100
AcDbEntity
  8
1
  6
DASHED
100
AcDbCircle
 10
-226.664223
 20
245.324518
 30
0.0
 40
23.5
100
AcDbArc
 50
270.0
 51
0.0
  0
LINE
  5
13B
100
AcDbEntity
  8
1
100
AcDbLine
 10
-163.664223
 20
299.824518
 30
0.0
 11
-164.664223
 21
300.824518
 31
0.0
  0
LINE
  5
13C
100
AcDbEntity
  8
1
100
AcDbLine
 10
-164.664223
 20
244.824518
 30
0.0
 11
-163.664223
 21
245.824518
 31
0.0
  0
LINE
  5
13D
100
AcDbEntity
  8
1
100
AcDbLine
 10
-203.169543
 20
300.824518
 30
0.0
 11
-164.664223
 21
300.824518
 31
0.0
  0
LINE
  5
13E
100
AcDbEntity
  8
1
100
AcDbLine
 10
-203.164223
 20
299.824518
 30
0.0
 11
-163.664223
 21
299.824518
 31
0.0
  0
LINE
  5
13F
100
AcDbEntity
  8
1
100
AcDbLine
 10
-203.169543
 20
244.824518
 30
0.0
 11
-164.664223
 21
244.824518
 31
0.0
  0
LINE
  5
140
100
AcDbEntity
  8
1
100
AcDbLine
 10
-203.164223
 20
245.824518
 30
0.0
 11
-163.664223
 21
245.824518
 31
0.0
  0
LINE
  5
141
100
AcDbEntity
  8
1
100
AcDbLine
 10
-169.139227
 20
263.499687
 30
0.0
 11
-169.139227
 21
282.149349
 31
0.0
  0
LINE
  5
142
100
AcDbEntity
  8
1
100
AcDbLine
 10
-170.70615
 20
263.824518
 30
0.0
 11
-170.70615
 21
281.824518
 31
0.0
  0
LINE
  5
143
100
AcDbEntity
  8
1
100
AcDbLine
 10
-203.164223
 20
287.824518
 30
0.0
 11
-176.70615
 21
287.824518
 31
0.0
  0
LINE
  5
144
100
AcDbEntity
  8
1
100
AcDbLine
 10
-203.164223
 20
257.824518
 30
0.0
 11
-176.70615
 21
257.824518
 31
0.0
  0
ARC
  5
145
100
AcDbEntity
  8
1
100
AcDbCircle
 10
-176.70615
 20
281.824518
 30
0.0
 40
6.0
100
AcDbArc
 50
0.0
 51
90.0
  0
ARC
  5
146
100
AcDbEntity
  8
1
100
AcDbCircle
 10
-176.70615
 20
263.824518
 30
0.0
 40
6.0
100
AcDbArc
 50
270.0
 51
360.0
  0
LINE
  5
147
100
AcDbEntity
  8
1
100
AcDbLine
 10
-185.01764
 20
263.824518
 30
0.0
 11
-185.01764
 21
281.824518
 31
0.0
  0
LINE
  5
148
100
AcDbEntity
  8
1
100
AcDbLine
 10
-163.664223
 20
245.824518
 30
0.0
 11
-163.664223
 21
253.987883
 31
0.0
  0
LINE
  5
149
100
AcDbEntity
  8
1
100
AcDbLine
 10
-163.664223
 20
291.661153
 30
0.0
 11
-163.664223
 21
299.824518
 31
0.0
  0
ARC
  5
14A
100
AcDbEntity
  8
1
100
AcDbCircle
 10
-168.664223
 20
291.661153
 30
0.0
 40
5.0
100
AcDbArc
 50
300.150455
 51
0.0
  0
ARC
  5
14B
100
AcDbEntity
  8
1
100
AcDbCircle
 10
-168.664223
 20
253.987883
 30
0.0
 40
5.0
100
AcDbArc
 50
0.0
 51
59.849545
  0
ARC
  5
14C
100
AcDbEntity
  8
1
100
AcDbCircle
 10
-163.139227
 20
282.149349
 30
0.0
 40
6.0
100
AcDbArc
 50
120.150455
 51
180.0
  0
ARC
  5
14D
100
AcDbEntity
  8
1
100
AcDbCircle
 10
-163.139227
 20
263.499687
 30
0.0
 40
6.0
100
AcDbArc
 50
180.0
 51
239.849545
  0
LINE
  5
14E
100
AcDbEntity
  8
1
100
AcDbLine
 10
-344.664223
 20
299.824518
 30
0.0
 11
-343.664223
 21
300.824518
 31
0.0
  0
LINE
  5
14F
100
AcDbEntity
  8
1
100
AcDbLine
 10
-343.664223
 20
244.824518
 30
0.0
 11
-344.664223
 21
245.824518
 31
0.0
  0
LINE
  5
150
100
AcDbEntity
  8
1
100
AcDbLine
 10
-305.158903
 20
300.824518
 30
0.0
 11
-343.664223
 21
300.824518
 31
0.0
  0
LINE
  5
151
100
AcDbEntity
  8
1
100
AcDbLine
 10
-305.164223
 20
299.824518
 30
0.0
 11
-344.664223
 21
299.824518
 31
0.0
  0
LINE
  5
152
100
AcDbEntity
  8
1
100
AcDbLine
 10
-305.158903
 20
244.824518
 30
0.0
 11
-343.664223
 21
244.824518
 31
0.0
  0
LINE
  5
153
100
AcDbEntity
  8
1
100
AcDbLine
 10
-305.164223
 20
245.824518
 30
0.0
 11
-344.664223
 21
245.824518
 31
0.0
  0
LINE
  5
154
100
AcDbEntity
  8
1
100
AcDbLine
 10
-339.18922
 20
263.499687
 30
0.0
 11
-339.18922
 21
282.149349
 31
0.0
  0
LINE
  5
155
100
AcDbEntity
  8
1
100
AcDbLine
 10
-337.622296
 20
263.824518
 30
0.0
 11
-337.622296
 21
281.824518
 31
0.0
  0
LINE
  5
156
100
AcDbEntity
  8
1
100
AcDbLine
 10
-305.164223
 20
287.824518
 30
0.0
 11
-331.622296
 21
287.824518
 31
0.0
  0
LINE
  5
157
100
AcDbEntity
  8
1
100
AcDbLine
 10
-305.164223
 20
257.824518
 30
0.0
 11
-331.622296
 21
257.824518
 31
0.0
  0
ARC
  5
158
100
AcDbEntity
  8
1
100
AcDbCircle
 10
-331.622296
 20
281.824518
 30
0.0
 40
6.0
100
AcDbArc
 50
90.0
 51
180.0
  0
ARC
  5
159
100
AcDbEntity
  8
1
100
AcDbCircle
 10
-331.622296
 20
263.824518
 30
0.0
 40
6.0
100
AcDbArc
 50
180.0
 51
270.0
  0
LINE
  5
15A
100
AcDbEntity
  8
1
100
AcDbLine
 10
-323.310807
 20
263.824518
 30
0.0
 11
-323.310807
 21
281.824518
 31
0.0
  0
LINE
  5
15B
100
AcDbEntity
  8
1
100
AcDbLine
 10
-344.664223
 20
245.824518
 30
0.0
 11
-344.664223
 21
253.987883
 31
0.0
  0
LINE
  5
15C
100
AcDbEntity
  8
1
100
AcDbLine
 10
-344.664223
 20
291.661153
 30
0.0
 11
-344.664223
 21
299.824518
 31
0.0
  0
ARC
  5
15D
100
AcDbEntity
  8
1
100
AcDbCircle
 10
-339.664223
 20
291.661153
 30
0.0
 40
5.0
100
AcDbArc
 50
180.0
 51
239.849545
  0
ARC
  5
15E
100
AcDbEntity
  8
1
100
AcDbCircle
 10
-339.664223
 20
253.987883
 30
0.0
 40
5.0
100
AcDbArc
 50
120.150455
 51
180.0
  0
ARC
  5
15F
100
AcDbEntity
  8
1
100
AcDbCircle
 10
-345.18922
 20
282.149349
 30
0.0
 40
6.0
100
AcDbArc
 50
0.0
 51
59.849545
  0
ARC
  5
160
100
AcDbEntity
  8
1
100
AcDbCircle
 10
-345.18922
 20
263.499687
 30
0.0
 40
6.0
100
AcDbArc
 50
300.150455
 51
360.0
  0
LINE
  5
161
100
AcDbEntity
  8
1
100
AcDbLine
 10
-335.264223
 20
302.199518
 30
0.0
 11
-337.161335
 21
301.112631
 31
0.0
  0
LINE
  5
162
100
AcDbEntity
  8
1
100
AcDbLine
 10
-335.264223
 20
243.449518
 30
0.0
 11
-337.161335
 21
244.536405
 31
0.0
  0
ARC
  5
163
100
AcDbEntity
  8
1
100
AcDbCircle
 10
-336.664223
 20
300.244944
 30
0.0
 40
1.0
100
AcDbArc
 50
119.809114
 51
144.579452
  0
ARC
  5
164
100
AcDbEntity
  8
1
100
AcDbCircle
 10
-336.664223
 20
245.404091
 30
0.0
 40
1.0
100
AcDbArc
 50
215.420548
 51
240.190886
  0
LINE
  5
165
100
AcDbEntity
  8
1
100
AcDbLine
 10
-173.064223
 20
302.199518
 30
0.0
 11
-171.167111
 21
301.112631
 31
0.0
  0
LINE
  5
166
100
AcDbEntity
  8
1
100
AcDbLine
 10
-173.064223
 20
243.449518
 30
0.0
 11
-171.167111
 21
244.536405
 31
0.0
  0
ARC
  5
167
100
AcDbEntity
  8
1
100
AcDbCircle
 10
-171.664223
 20
245.404091
 30
0.0
 40
1.0
100
AcDbArc
 50
299.809114
 51
324.579452
  0
ARC
  5
168
100
AcDbEntity
  8
1
100
AcDbCircle
 10
-171.664223
 20
300.244944
 30
0.0
 40
1.0
100
AcDbArc
 50
35.420548
 51
60.190886
  0
LINE
  5
169
100
AcDbEntity
  8
1
100
AcDbLine
 10
-335.264223
 20
302.199518
 30
0.0
 11
-305.089303
 21
302.199518
 31
0.0
  0
LINE
  5
16A
100
AcDbEntity
  8
1
100
AcDbLine
 10
-203.239143
 20
302.199518
 30
0.0
 11
-173.064223
 21
302.199518
 31
0.0
  0
LINE
  5
16B
100
AcDbEntity
  8
1
100
AcDbLine
 10
-335.264223
 20
243.449518
 30
0.0
 11
-305.089303
 21
243.449518
 31
0.0
  0
LINE
  5
16C
100
AcDbEntity
  8
1
100
AcDbLine
 10
-203.239143
 20
243.449518
 30
0.0
 11
-173.064223
 21
243.449518
 31
0.0
  0
LINE
  5
16D
100
AcDbEntity
  8
1
100
AcDbLine
 10
60.385777
 20
-155.46834
 30
0.0
 11
78.385777
 21
-155.46834
 31
0.0
  0
LINE
  5
16E
100
AcDbEntity
  8
1
100
AcDbLine
 10
60.385777
 20
-170.90124
 30
0.0
 11
78.385777
 21
-170.90124
 31
0.0
  0
LINE
  5
16F
100
AcDbEntity
  8
1
100
AcDbLine
 10
60.385777
 20
-219.749725
 30
0.0
 11
78.385777
 21
-219.749725
 31
0.0
  0
LINE
  5
170
100
AcDbEntity
  8
1
100
AcDbLine
 10
60.385777
 20
-235.182625
 30
0.0
 11
78.385777
 21
-235.182625
 31
0.0
  0
LINE
  5
171
100
AcDbEntity
  8
1
100
AcDbLine
 10
82.909492
 20
-158.267056
 30
0.0
 11
80.902277
 21
-155.46834
 31
0.0
  0
LINE
  5
172
100
AcDbEntity
  8
1
100
AcDbLine
 10
55.862062
 20
-158.267056
 30
0.0
 11
57.869277
 21
-155.46834
 31
0.0
  0
LINE
  5
173
100
AcDbEntity
  8
1
100
AcDbLine
 10
55.627828
 20
-166.670086
 30
0.0
 11
57.869277
 21
-170.90124
 31
0.0
  0
LINE
  5
174
100
AcDbEntity
  8
1
100
AcDbLine
 10
83.143726
 20
-166.670086
 30
0.0
 11
80.902277
 21
-170.90124
 31
0.0
  0
LINE
  5
175
100
AcDbEntity
  8
1
100
AcDbLine
 10
83.143726
 20
-223.980879
 30
0.0
 11
80.902277
 21
-219.749725
 31
0.0
  0
LINE
  5
176
100
AcDbEntity
  8
1
100
AcDbLine
 10
57.869277
 20
-219.749725
 30
0.0
 11
55.627828
 21
-223.980879
 31
0.0
  0
LINE
  5
177
100
AcDbEntity
  8
1
100
AcDbLine
 10
55.862062
 20
-232.383909
 30
0.0
 11
57.869277
 21
-235.182625
 31
0.0
  0
LINE
  5
178
100
AcDbEntity
  8
1
100
AcDbLine
 10
80.902277
 20
-235.182625
 30
0.0
 11
82.909492
 21
-232.383909
 31
0.0
  0
LINE
  5
179
100
AcDbEntity
  8
1
100
AcDbLine
 10
60.385777
 20
-128.860016
 30
0.0
 11
78.385777
 21
-128.860016
 31
0.0
  0
LINE
  5
17A
100
AcDbEntity
  8
1
100
AcDbLine
 10
60.385777
 20
-261.790948
 30
0.0
 11
78.385777
 21
-261.790948
 31
0.0
  0
LINE
  5
17B
100
AcDbEntity
  8
1
100
AcDbLine
 10
83.739933
 20
-114.395702
 30
0.0
 11
80.902277
 21
-128.860016
 31
0.0
  0
LINE
  5
17C
100
AcDbEntity
  8
1
100
AcDbLine
 10
55.031621
 20
-114.395702
 30
0.0
 11
57.869277
 21
-128.860016
 31
0.0
  0
LINE
  5
17D
100
AcDbEntity
  8
1
100
AcDbLine
 10
80.902277
 20
-261.790948
 30
0.0
 11
83.746066
 21
-276.479582
 31
0.0
  0
LINE
  5
17E
100
AcDbEntity
  8
1
100
AcDbLine
 10
55.025487
 20
-276.479582
 30
0.0
 11
57.869277
 21
-261.790948
 31
0.0
  0
ARC
  5
17F
100
AcDbEntity
  8
1
100
AcDbCircle
 10
60.885777
 20
-103.540692
 30
0.0
 40
5.0
100
AcDbArc
 50
270.0
 51
360.0
  0
ARC
  5
180
100
AcDbEntity
  8
1
100
AcDbCircle
 10
77.885777
 20
-103.540692
 30
0.0
 40
5.0
100
AcDbArc
 50
180.0
 51
270.0
  0
ARC
  5
181
100
AcDbEntity
  8
1
100
AcDbCircle
 10
77.885777
 20
-295.325482
 30
0.0
 40
5.0
100
AcDbArc
 50
180.0
 51
270.0
  0
ARC
  5
182
100
AcDbEntity
  8
1
100
AcDbCircle
 10
60.885777
 20
-295.325482
 30
0.0
 40
5.0
100
AcDbArc
 50
270.0
 51
360.0
  0
LINE
  5
183
100
AcDbEntity
  8
1
  6
CENTER
 62
     2
100
AcDbLine
 10
-254.164223
 20
139.305554
 30
0.0
 11
-254.164223
 21
-321.341509
 31
0.0
  0
LINE
  5
184
100
AcDbEntity
  8
1
  6
CENTER
 62
     2
100
AcDbLine
 10
69.385777
 20
139.305554
 30
0.0
 11
69.385777
 21
-321.341509
 31
0.0
  0
LINE
  5
185
100
AcDbEntity
  8
1
100
AcDbLine
 10
-237.818146
 20
-134.575482
 30
0.0
 11
-270.585946
 21
-134.575482
 31
0.0
  0
ARC
  5
186
100
AcDbEntity
  8
1
100
AcDbCircle
 10
-254.164223
 20
-195.325482
 30
0.0
 40
63.2
100
AcDbArc
 50
300.003494
 51
59.996506
  0
ARC
  5
187
100
AcDbEntity
  8
1
100
AcDbCircle
 10
-254.164223
 20
-198.285482
 30
0.0
 40
65.78
100
AcDbArc
 50
61.285862
 51
75.744619
  0
ARC
  5
188
100
AcDbEntity
  8
1
100
AcDbCircle
 10
-254.164223
 20
-198.285482
 30
0.0
 40
65.78
100
AcDbArc
 50
104.411905
 51
118.714138
  0
LINE
  5
189
100
AcDbEntity
  8
1
100
AcDbLine
 10
-270.623337
 20
-134.575482
 30
0.0
 11
-237.792165
 21
-134.575482
 31
0.0
  0
ARC
  5
18A
100
AcDbEntity
  8
1
100
AcDbCircle
 10
-254.164223
 20
-195.325482
 30
0.0
 40
63.2
100
AcDbArc
 50
120.003494
 51
239.996506
  0
LINE
  5
18B
100
AcDbEntity
  8
1
100
AcDbLine
 10
-201.876612
 20
-170.635129
 30
0.0
 11
-203.335367
 21
-167.805078
 31
0.0
  0
LINE
  5
18C
100
AcDbEntity
  8
1
100
AcDbLine
 10
-205.203154
 20
-167.746149
 30
0.0
 11
-203.73457
 21
-170.260329
 31
0.0
  0
LINE
  5
18D
100
AcDbEntity
  8
1
100
AcDbLine
 10
-204.685858
 20
-171.760845
 30
0.0
 11
-255.864645
 21
-167.249652
 31
0.0
  0
LINE
  5
18E
100
AcDbEntity
  8
1
100
AcDbLine
 10
-262.751343
 20
-167.523097
 30
0.0
 11
-202.841493
 21
-172.090404
 31
0.0
  0
LINE
  5
18F
100
AcDbEntity
  8
1
100
AcDbLine
 10
-235.615698
 20
-164.642027
 30
0.0
 11
-205.978832
 21
-167.25439
 31
0.0
  0
LINE
  5
190
100
AcDbEntity
  8
1
100
AcDbLine
 10
-204.126557
 20
-167.268027
 30
0.0
 11
-234.481532
 21
-164.288824
 31
0.0
  0
ARC
  5
191
100
AcDbEntity
  8
1
100
AcDbCircle
 10
-206.066637
 20
-168.250527
 30
0.0
 40
1.0
100
AcDbArc
 50
30.290086
 51
84.962643
  0
ARC
  5
192
100
AcDbEntity
  8
1
100
AcDbCircle
 10
-204.224233
 20
-168.263245
 30
0.0
 40
1.0
100
AcDbArc
 50
27.268929
 51
84.394632
  0
ARC
  5
193
100
AcDbEntity
  8
1
100
AcDbCircle
 10
-202.765478
 20
-171.093297
 30
0.0
 40
1.0
100
AcDbArc
 50
265.640413
 51
27.268929
  0
ARC
  5
194
100
AcDbEntity
  8
1
100
AcDbCircle
 10
-204.598053
 20
-170.764707
 30
0.0
 40
1.0
100
AcDbArc
 50
264.962639
 51
30.290086
  0
LINE
  5
195
100
AcDbEntity
  8
1
100
AcDbLine
 10
-241.700123
 20
-156.779859
 30
0.0
 11
-241.700123
 21
-143.301957
 31
0.0
  0
ARC
  5
196
100
AcDbEntity
  8
1
100
AcDbCircle
 10
-230.724473
 20
-138.127343
 30
0.0
 40
26.962058
100
AcDbArc
 50
222.414985
 51
259.548018
  0
ARC
  5
197
100
AcDbEntity
  8
1
100
AcDbCircle
 10
-233.700123
 20
-156.327078
 30
0.0
 40
8.0
100
AcDbArc
 50
180.0
 51
264.394632
  0
ARC
  5
198
100
AcDbEntity
  8
1
100
AcDbCircle
 10
-255.250008
 20
-160.276688
 30
0.0
 40
7.0
100
AcDbArc
 50
180.0
 51
264.962639
  0
ARC
  5
199
100
AcDbEntity
  8
1
100
AcDbCircle
 10
-262.219233
 20
-160.543351
 30
0.0
 40
7.0
100
AcDbArc
 50
180.0
 51
265.640413
  0
ARC
  5
19A
100
AcDbEntity
  8
1
100
AcDbCircle
 10
-243.200123
 20
-170.016512
 30
0.0
 40
1.0
100
AcDbArc
 50
85.640413
 51
180.0
  0
ARC
  5
19B
100
AcDbEntity
  8
1
100
AcDbCircle
 10
-250.200123
 20
-169.482858
 30
0.0
 40
1.0
100
AcDbArc
 50
85.640413
 51
180.0
  0
ARC
  5
19C
100
AcDbEntity
  8
1
100
AcDbCircle
 10
-258.128323
 20
-168.878441
 30
0.0
 40
1.0
100
AcDbArc
 50
0.0
 51
85.640413
  0
ARC
  5
19D
100
AcDbEntity
  8
1
100
AcDbCircle
 10
-265.128323
 20
-167.995679
 30
0.0
 40
1.0
100
AcDbArc
 50
0.0
 51
68.676321
  0
LINE
  5
19E
100
AcDbEntity
  8
1
100
AcDbLine
 10
-244.200123
 20
-170.016512
 30
0.0
 11
-244.200123
 21
-191.545968
 31
0.0
  0
LINE
  5
19F
100
AcDbEntity
  8
1
100
AcDbLine
 10
-264.128323
 20
-167.995679
 30
0.0
 11
-264.128323
 21
-190.820732
 31
0.0
  0
LINE
  5
1A0
100
AcDbEntity
  8
1
100
AcDbLine
 10
-251.200123
 20
-169.482858
 30
0.0
 11
-251.200123
 21
-191.729192
 31
0.0
  0
LINE
  5
1A1
100
AcDbEntity
  8
1
100
AcDbLine
 10
-257.128323
 20
-168.878441
 30
0.0
 11
-257.128323
 21
-191.61866
 31
0.0
  0
LINE
  5
1A2
100
AcDbEntity
  8
1
100
AcDbLine
 10
-269.219233
 20
-143.108825
 30
0.0
 11
-269.219233
 21
-160.543351
 31
0.0
  0
LINE
  5
1A3
100
AcDbEntity
  8
1
100
AcDbLine
 10
-262.250008
 20
-160.276688
 30
0.0
 11
-262.250008
 21
-143.252832
 31
0.0
  0
LINE
  5
1A4
100
AcDbEntity
  8
1
100
AcDbLine
 10
-205.463888
 20
-167.29978
 30
0.0
 11
-204.258688
 21
-167.313518
 31
0.0
  0
LINE
  5
1A5
100
AcDbEntity
  8
1
100
AcDbLine
 10
-202.758871
 20
-171.9307
 30
0.0
 11
-203.759899
 21
-171.756782
 31
0.0
  0
LINE
  5
1A6
100
AcDbEntity
  8
1
100
AcDbLine
 10
-242.895764
 20
-139.955713
 30
0.0
 11
-265.017346
 21
-139.955713
 31
0.0
  0
LINE
  5
1A7
100
AcDbEntity
  8
1
100
AcDbLine
 10
-241.213053
 20
-134.575482
 30
0.0
 11
-241.213053
 21
-139.252832
 31
0.0
  0
LINE
  5
1A8
100
AcDbEntity
  8
1
100
AcDbLine
 10
-267.115393
 20
-134.575482
 30
0.0
 11
-267.115393
 21
-139.252832
 31
0.0
  0
LINE
  5
1A9
100
AcDbEntity
  8
1
100
AcDbLine
 10
-265.115393
 20
-141.252832
 30
0.0
 11
-243.213053
 21
-141.252832
 31
0.0
  0
LINE
  5
1AA
100
AcDbEntity
  8
1
100
AcDbLine
 10
-231.584978
 20
-136.911242
 30
0.0
 11
-231.584978
 21
-140.810849
 31
0.0
  0
ARC
  5
1AB
100
AcDbEntity
  8
1
100
AcDbCircle
 10
-239.700123
 20
-143.301957
 30
0.0
 40
2.0
100
AcDbArc
 50
98.225544
 51
180.0
  0
ARC
  5
1AC
100
AcDbEntity
  8
1
100
AcDbCircle
 10
-237.010605
 20
-161.907161
 30
0.0
 40
20.798594
100
AcDbArc
 50
74.878603
 51
98.225544
  0
ARC
  5
1AD
100
AcDbEntity
  8
1
100
AcDbCircle
 10
-271.317842
 20
-161.907161
 30
0.0
 40
20.798594
100
AcDbArc
 50
89.699452
 51
105.121397
  0
LINE
  5
1AE
100
AcDbEntity
  8
1
100
AcDbLine
 10
-276.743468
 20
-136.911242
 30
0.0
 11
-276.743468
 21
-140.810849
 31
0.0
  0
ARC
  5
1AF
100
AcDbEntity
  8
1
100
AcDbCircle
 10
-271.219233
 20
-143.108825
 30
0.0
 40
2.0
100
AcDbArc
 50
0.0
 51
89.699452
  0
ARC
  5
1B0
100
AcDbEntity
  8
1
100
AcDbCircle
 10
-264.250008
 20
-143.252832
 30
0.0
 40
2.0
100
AcDbArc
 50
0.0
 51
90.0
  0
ARC
  5
1B1
100
AcDbEntity
  8
1
100
AcDbCircle
 10
-265.115393
 20
-12.242592
 30
0.0
 40
129.010241
100
AcDbArc
 50
267.366285
 51
270.0
  0
ARC
  5
1B2
100
AcDbEntity
  8
1
100
AcDbCircle
 10
-243.213053
 20
-12.242592
 30
0.0
 40
129.010241
100
AcDbArc
 50
270.0
 51
272.633715
  0
LINE
  5
1B3
100
AcDbEntity
  8
1
100
AcDbLine
 10
-245.023491
 20
-132.335249
 30
0.0
 11
-263.304955
 21
-132.335249
 31
0.0
  0
ARC
  5
1B4
100
AcDbEntity
  8
1
100
AcDbCircle
 10
-254.164223
 20
-195.325482
 30
0.0
 40
63.65
100
AcDbArc
 50
98.256755
 51
261.87937
  0
ARC
  5
1B5
100
AcDbEntity
  8
1
100
AcDbCircle
 10
-254.164223
 20
-195.325482
 30
0.0
 40
63.65
100
AcDbArc
 50
278.12063
 51
81.743245
  0
LINE
  5
1B6
100
AcDbEntity
  8
1
100
AcDbLine
 10
-239.248538
 20
-256.075482
 30
0.0
 11
-238.718788
 21
-255.993192
 31
0.0
  0
LINE
  5
1B7
100
AcDbEntity
  8
1
100
AcDbLine
 10
-231.607948
 20
-248.826912
 30
0.0
 11
-231.584978
 21
-248.820782
 31
0.0
  0
LINE
  5
1B8
100
AcDbEntity
  8
1
100
AcDbLine
 10
-231.584978
 20
-248.820782
 30
0.0
 11
-231.603573
 21
-248.832372
 31
0.0
  0
LINE
  5
1B9
100
AcDbEntity
  8
1
100
AcDbLine
 10
-269.373613
 20
-256.037322
 30
0.0
 11
-269.112438
 21
-256.075482
 31
0.0
  0
LINE
  5
1BA
100
AcDbEntity
  8
1
100
AcDbLine
 10
-237.792163
 20
-256.075482
 30
0.0
 11
-270.536283
 21
-256.075482
 31
0.0
  0
ARC
  5
1BB
100
AcDbEntity
  8
1
100
AcDbCircle
 10
-254.164223
 20
-192.365482
 30
0.0
 40
65.78
100
AcDbArc
 50
284.411905
 51
298.714138
  0
LINE
  5
1BC
100
AcDbEntity
  8
1
100
AcDbLine
 10
-270.536283
 20
-256.075482
 30
0.0
 11
-237.792163
 21
-256.075482
 31
0.0
  0
ARC
  5
1BD
100
AcDbEntity
  8
1
100
AcDbCircle
 10
-254.164223
 20
-192.365482
 30
0.0
 40
65.78
100
AcDbArc
 50
241.285862
 51
255.588095
  0
LINE
  5
1BE
100
AcDbEntity
  8
1
100
AcDbLine
 10
-197.227341
 20
-193.047724
 30
0.0
 11
-243.160698
 21
-192.546457
 31
0.0
  0
LINE
  5
1BF
100
AcDbEntity
  8
1
100
AcDbLine
 10
-196.238253
 20
-196.603301
 30
0.0
 11
-196.238253
 21
-194.047664
 31
0.0
  0
LINE
  5
1C0
100
AcDbEntity
  8
1
100
AcDbLine
 10
-243.160698
 20
-198.104512
 30
0.0
 11
-197.227341
 21
-197.603241
 31
0.0
  0
LINE
  5
1C1
100
AcDbEntity
  8
1
100
AcDbLine
 10
-198.437583
 20
-197.513367
 30
0.0
 11
-260.957113
 21
-197.513367
 31
0.0
  0
LINE
  5
1C2
100
AcDbEntity
  8
1
100
AcDbLine
 10
-260.957113
 20
-193.137597
 30
0.0
 11
-198.437583
 21
-193.137597
 31
0.0
  0
LINE
  5
1C3
100
AcDbEntity
  8
1
100
AcDbLine
 10
-197.437583
 20
-196.513367
 30
0.0
 11
-197.437583
 21
-194.137597
 31
0.0
  0
ARC
  5
1C4
100
AcDbEntity
  8
1
100
AcDbCircle
 10
-197.238253
 20
-196.603301
 30
0.0
 40
1.0
100
AcDbArc
 50
270.625245
 51
360.0
  0
ARC
  5
1C5
100
AcDbEntity
  8
1
100
AcDbCircle
 10
-198.437583
 20
-196.513367
 30
0.0
 40
1.0
100
AcDbArc
 50
270.0
 51
360.0
  0
ARC
  5
1C6
100
AcDbEntity
  8
1
100
AcDbCircle
 10
-198.437583
 20
-194.137597
 30
0.0
 40
1.0
100
AcDbArc
 50
360.0
 51
90.0
  0
ARC
  5
1C7
100
AcDbEntity
  8
1
100
AcDbCircle
 10
-197.238253
 20
-194.047664
 30
0.0
 40
1.0
100
AcDbArc
 50
360.0
 51
89.374762
  0
LINE
  5
1C8
100
AcDbEntity
  8
1
100
AcDbLine
 10
-261.957113
 20
-196.513367
 30
0.0
 11
-261.957113
 21
-194.137597
 31
0.0
  0
LINE
  5
1C9
100
AcDbEntity
  8
1
100
AcDbLine
 10
-269.219233
 20
-192.820732
 30
0.0
 11
-269.219233
 21
-197.978602
 31
0.0
  0
ARC
  5
1CA
100
AcDbEntity
  8
1
100
AcDbCircle
 10
-260.957113
 20
-194.137597
 30
0.0
 40
1.0
100
AcDbArc
 50
90.0
 51
180.0
  0
ARC
  5
1CB
100
AcDbEntity
  8
1
100
AcDbCircle
 10
-260.957113
 20
-196.513367
 30
0.0
 40
1.0
100
AcDbArc
 50
180.0
 51
270.0
  0
LINE
  5
1CC
100
AcDbEntity
  8
1
100
AcDbLine
 10
-268.219233
 20
-191.820732
 30
0.0
 11
-265.128323
 21
-191.820732
 31
0.0
  0
ARC
  5
1CD
100
AcDbEntity
  8
1
100
AcDbCircle
 10
-268.219233
 20
-192.820732
 30
0.0
 40
1.0
100
AcDbArc
 50
90.0
 51
180.0
  0
ARC
  5
1CE
100
AcDbEntity
  8
1
100
AcDbCircle
 10
-265.128323
 20
-190.820732
 30
0.0
 40
1.0
100
AcDbArc
 50
270.0
 51
360.0
  0
LINE
  5
1CF
100
AcDbEntity
  8
1
100
AcDbLine
 10
-256.482876
 20
-192.762152
 30
0.0
 11
-250.503719
 21
-192.762152
 31
0.0
  0
LINE
  5
1D0
100
AcDbEntity
  8
1
100
AcDbLine
 10
-257.128323
 20
-192.762152
 30
0.0
 11
-264.128323
 21
-191.820732
 31
0.0
  0
LINE
  5
1D1
100
AcDbEntity
  8
1
100
AcDbLine
 10
-251.200123
 20
-192.762152
 30
0.0
 11
-244.200123
 21
-192.535114
 31
0.0
  0
ARC
  5
1D2
100
AcDbEntity
  8
1
100
AcDbCircle
 10
-243.200123
 20
-191.545968
 30
0.0
 40
1.0
100
AcDbArc
 50
180.0
 51
269.374762
  0
LINE
  5
1D3
100
AcDbEntity
  8
1
100
AcDbLine
 10
-250.629993
 20
-196.520822
 30
0.0
 11
-250.629993
 21
-194.130147
 31
0.0
  0
LINE
  5
1D4
100
AcDbEntity
  8
1
100
AcDbLine
 10
-268.136776
 20
-192.017017
 30
0.0
 11
-261.957113
 21
-193.137597
 31
0.0
  0
LINE
  5
1D5
100
AcDbEntity
  8
1
100
AcDbLine
 10
-197.799037
 20
-197.489534
 30
0.0
 11
-197.166282
 21
-197.531256
 31
0.0
  0
LINE
  5
1D6
100
AcDbEntity
  8
1
100
AcDbLine
 10
-197.799037
 20
-193.16143
 30
0.0
 11
-197.166282
 21
-193.119709
 31
0.0
  0
LINE
  5
1D7
100
AcDbEntity
  8
1
100
AcDbLine
 10
-201.876612
 20
-220.015835
 30
0.0
 11
-203.335367
 21
-222.845887
 31
0.0
  0
LINE
  5
1D8
100
AcDbEntity
  8
1
100
AcDbLine
 10
-205.203154
 20
-222.904816
 30
0.0
 11
-203.73457
 21
-220.390636
 31
0.0
  0
LINE
  5
1D9
100
AcDbEntity
  8
1
100
AcDbLine
 10
-204.685858
 20
-218.89012
 30
0.0
 11
-255.864645
 21
-223.401313
 31
0.0
  0
LINE
  5
1DA
100
AcDbEntity
  8
1
100
AcDbLine
 10
-262.751343
 20
-223.127868
 30
0.0
 11
-202.841493
 21
-218.560561
 31
0.0
  0
LINE
  5
1DB
100
AcDbEntity
  8
1
100
AcDbLine
 10
-235.615698
 20
-226.008937
 30
0.0
 11
-205.978832
 21
-223.396575
 31
0.0
  0
LINE
  5
1DC
100
AcDbEntity
  8
1
100
AcDbLine
 10
-204.126557
 20
-223.382938
 30
0.0
 11
-234.481532
 21
-226.36214
 31
0.0
  0
ARC
  5
1DD
100
AcDbEntity
  8
1
100
AcDbCircle
 10
-206.066637
 20
-222.400438
 30
0.0
 40
1.0
100
AcDbArc
 50
275.037357
 51
329.709914
  0
ARC
  5
1DE
100
AcDbEntity
  8
1
100
AcDbCircle
 10
-204.224233
 20
-222.387719
 30
0.0
 40
1.0
100
AcDbArc
 50
275.605368
 51
332.731071
  0
ARC
  5
1DF
100
AcDbEntity
  8
1
100
AcDbCircle
 10
-202.765478
 20
-219.557668
 30
0.0
 40
1.0
100
AcDbArc
 50
332.731071
 51
94.359587
  0
ARC
  5
1E0
100
AcDbEntity
  8
1
100
AcDbCircle
 10
-204.598053
 20
-219.886258
 30
0.0
 40
1.0
100
AcDbArc
 50
329.709914
 51
95.037361
  0
LINE
  5
1E1
100
AcDbEntity
  8
1
100
AcDbLine
 10
-241.700123
 20
-233.871106
 30
0.0
 11
-241.700123
 21
-247.349008
 31
0.0
  0
ARC
  5
1E2
100
AcDbEntity
  8
1
100
AcDbCircle
 10
-230.724473
 20
-252.523622
 30
0.0
 40
26.962058
100
AcDbArc
 50
100.451982
 51
137.585015
  0
ARC
  5
1E3
100
AcDbEntity
  8
1
100
AcDbCircle
 10
-233.700123
 20
-234.323886
 30
0.0
 40
8.0
100
AcDbArc
 50
95.605368
 51
180.0
  0
ARC
  5
1E4
100
AcDbEntity
  8
1
100
AcDbCircle
 10
-255.250008
 20
-230.374277
 30
0.0
 40
7.0
100
AcDbArc
 50
95.037361
 51
180.0
  0
ARC
  5
1E5
100
AcDbEntity
  8
1
100
AcDbCircle
 10
-262.219233
 20
-230.107614
 30
0.0
 40
7.0
100
AcDbArc
 50
94.359587
 51
180.0
  0
ARC
  5
1E6
100
AcDbEntity
  8
1
100
AcDbCircle
 10
-243.200123
 20
-220.634453
 30
0.0
 40
1.0
100
AcDbArc
 50
180.0
 51
274.359587
  0
ARC
  5
1E7
100
AcDbEntity
  8
1
100
AcDbCircle
 10
-250.200123
 20
-221.168107
 30
0.0
 40
1.0
100
AcDbArc
 50
180.0
 51
274.359587
  0
ARC
  5
1E8
100
AcDbEntity
  8
1
100
AcDbCircle
 10
-258.128323
 20
-221.772524
 30
0.0
 40
1.0
100
AcDbArc
 50
274.359587
 51
360.0
  0
ARC
  5
1E9
100
AcDbEntity
  8
1
100
AcDbCircle
 10
-265.128323
 20
-222.655286
 30
0.0
 40
1.0
100
AcDbArc
 50
291.323679
 51
360.0
  0
LINE
  5
1EA
100
AcDbEntity
  8
1
100
AcDbLine
 10
-244.200123
 20
-220.634453
 30
0.0
 11
-244.200123
 21
-199.104997
 31
0.0
  0
LINE
  5
1EB
100
AcDbEntity
  8
1
100
AcDbLine
 10
-264.128323
 20
-222.655286
 30
0.0
 11
-264.128323
 21
-199.830233
 31
0.0
  0
LINE
  5
1EC
100
AcDbEntity
  8
1
100
AcDbLine
 10
-251.200123
 20
-221.168107
 30
0.0
 11
-251.200123
 21
-198.921772
 31
0.0
  0
LINE
  5
1ED
100
AcDbEntity
  8
1
100
AcDbLine
 10
-257.128323
 20
-221.772524
 30
0.0
 11
-257.128323
 21
-199.032304
 31
0.0
  0
LINE
  5
1EE
100
AcDbEntity
  8
1
100
AcDbLine
 10
-269.219233
 20
-247.542139
 30
0.0
 11
-269.219233
 21
-230.107614
 31
0.0
  0
LINE
  5
1EF
100
AcDbEntity
  8
1
100
AcDbLine
 10
-262.250008
 20
-230.374277
 30
0.0
 11
-262.250008
 21
-247.398132
 31
0.0
  0
LINE
  5
1F0
100
AcDbEntity
  8
1
100
AcDbLine
 10
-268.136776
 20
-198.633947
 30
0.0
 11
-261.957113
 21
-197.513367
 31
0.0
  0
LINE
  5
1F1
100
AcDbEntity
  8
1
100
AcDbLine
 10
-257.128323
 20
-197.888813
 30
0.0
 11
-264.128323
 21
-198.830233
 31
0.0
  0
LINE
  5
1F2
100
AcDbEntity
  8
1
100
AcDbLine
 10
-268.219233
 20
-198.830233
 30
0.0
 11
-265.128323
 21
-198.830233
 31
0.0
  0
ARC
  5
1F3
100
AcDbEntity
  8
1
100
AcDbCircle
 10
-268.219233
 20
-197.830233
 30
0.0
 40
1.0
100
AcDbArc
 50
180.0
 51
270.0
  0
LINE
  5
1F4
100
AcDbEntity
  8
1
100
AcDbLine
 10
-203.826972
 20
-218.905836
 30
0.0
 11
-202.55194
 21
-218.684312
 31
0.0
  0
LINE
  5
1F5
100
AcDbEntity
  8
1
100
AcDbLine
 10
-242.895764
 20
-250.695252
 30
0.0
 11
-265.017346
 21
-250.695252
 31
0.0
  0
LINE
  5
1F6
100
AcDbEntity
  8
1
100
AcDbLine
 10
-241.213053
 20
-256.075482
 30
0.0
 11
-241.213053
 21
-251.398132
 31
0.0
  0
LINE
  5
1F7
100
AcDbEntity
  8
1
100
AcDbLine
 10
-267.115393
 20
-256.075482
 30
0.0
 11
-267.115393
 21
-251.398132
 31
0.0
  0
LINE
  5
1F8
100
AcDbEntity
  8
1
100
AcDbLine
 10
-265.115393
 20
-249.398132
 30
0.0
 11
-243.213053
 21
-249.398132
 31
0.0
  0
LINE
  5
1F9
100
AcDbEntity
  8
1
100
AcDbLine
 10
-231.584978
 20
-253.739722
 30
0.0
 11
-231.584978
 21
-249.840116
 31
0.0
  0
ARC
  5
1FA
100
AcDbEntity
  8
1
100
AcDbCircle
 10
-239.700123
 20
-247.349008
 30
0.0
 40
2.0
100
AcDbArc
 50
180.0
 51
261.774456
  0
ARC
  5
1FB
100
AcDbEntity
  8
1
100
AcDbCircle
 10
-237.010605
 20
-228.743803
 30
0.0
 40
20.798594
100
AcDbArc
 50
261.774456
 51
285.121397
  0
ARC
  5
1FC
100
AcDbEntity
  8
1
100
AcDbCircle
 10
-271.317842
 20
-228.743803
 30
0.0
 40
20.798594
100
AcDbArc
 50
254.878603
 51
270.300548
  0
LINE
  5
1FD
100
AcDbEntity
  8
1
100
AcDbLine
 10
-276.743468
 20
-253.739722
 30
0.0
 11
-276.743468
 21
-249.840116
 31
0.0
  0
ARC
  5
1FE
100
AcDbEntity
  8
1
100
AcDbCircle
 10
-271.219233
 20
-247.542139
 30
0.0
 40
2.0
100
AcDbArc
 50
270.300548
 51
360.0
  0
ARC
  5
1FF
100
AcDbEntity
  8
1
100
AcDbCircle
 10
-264.250008
 20
-247.398132
 30
0.0
 40
2.0
100
AcDbArc
 50
270.0
 51
360.0
  0
ARC
  5
200
100
AcDbEntity
  8
1
100
AcDbCircle
 10
-265.115393
 20
-378.408373
 30
0.0
 40
129.010241
100
AcDbArc
 50
90.0
 51
92.633715
  0
ARC
  5
201
100
AcDbEntity
  8
1
100
AcDbCircle
 10
-243.213053
 20
-378.408373
 30
0.0
 40
129.010241
100
AcDbArc
 50
87.366285
 51
90.0
  0
ARC
  5
202
100
AcDbEntity
  8
1
100
AcDbCircle
 10
-265.128323
 20
-199.830233
 30
0.0
 40
1.0
100
AcDbArc
 50
0.0
 51
90.0
  0
POINT
  5
203
100
AcDbEntity
  8
1
100
AcDbPoint
 10
-254.164223
 20
-195.325482
 30
0.0
  0
LINE
  5
204
100
AcDbEntity
  8
1
100
AcDbLine
 10
-263.155275
 20
-258.337255
 30
0.0
 11
-245.173171
 21
-258.337255
 31
0.0
  0
LINE
  5
205
100
AcDbEntity
  8
2
  6
CENTER
 62
     2
100
AcDbLine
 10
-254.164223
 20
337.126076
 30
0.0
 11
-254.164223
 21
206.707066
 31
0.0
  0
LINE
  5
206
100
AcDbEntity
  8
2
100
AcDbLine
 10
-305.164223
 20
-4.325482
 30
0.0
 11
-203.164223
 21
-4.325482
 31
0.0
  0
LINE
  5
207
100
AcDbEntity
  8
2
100
AcDbLine
 10
-305.164223
 20
0.674518
 30
0.0
 11
-305.164223
 21
-4.325482
 31
0.0
  0
LINE
  5
208
100
AcDbEntity
  8
2
100
AcDbLine
 10
-203.164223
 20
0.674518
 30
0.0
 11
-203.164223
 21
-4.325482
 31
0.0
  0
LINE
  5
209
100
AcDbEntity
  8
2
100
AcDbLine
 10
-303.164223
 20
2.674518
 30
0.0
 11
-205.164223
 21
2.674518
 31
0.0
  0
ARC
  5
20A
100
AcDbEntity
  8
2
100
AcDbCircle
 10
-205.164223
 20
0.674518
 30
0.0
 40
2.0
100
AcDbArc
 50
0.0
 51
90.0
  0
ARC
  5
20B
100
AcDbEntity
  8
2
100
AcDbCircle
 10
-303.164223
 20
0.674518
 30
0.0
 40
2.0
100
AcDbArc
 50
90.0
 51
180.0
  0
LINE
  5
20C
100
AcDbEntity
  8
2
100
AcDbLine
 10
-210.664223
 20
70.174518
 30
0.0
 11
-210.664223
 21
15.282706
 31
0.0
  0
LINE
  5
20D
100
AcDbEntity
  8
2
100
AcDbLine
 10
-297.664223
 20
70.174518
 30
0.0
 11
-297.664223
 21
15.282706
 31
0.0
  0
LINE
  5
20E
100
AcDbEntity
  8
2
100
AcDbLine
 10
-295.664223
 20
72.174518
 30
0.0
 11
-212.664223
 21
72.174518
 31
0.0
  0
ARC
  5
20F
100
AcDbEntity
  8
2
100
AcDbCircle
 10
-212.664223
 20
70.174518
 30
0.0
 40
2.0
100
AcDbArc
 50
0.0
 51
90.0
  0
ARC
  5
210
100
AcDbEntity
  8
2
100
AcDbCircle
 10
-295.664223
 20
70.174518
 30
0.0
 40
2.0
100
AcDbArc
 50
90.0
 51
180.0
  0
LINE
  5
211
100
AcDbEntity
  8
2
100
AcDbLine
 10
-264.914223
 20
85.674518
 30
0.0
 11
-243.414223
 21
85.674518
 31
0.0
  0
LINE
  5
212
100
AcDbEntity
  8
2
100
AcDbLine
 10
-289.664223
 20
75.674518
 30
0.0
 11
-218.664223
 21
75.674518
 31
0.0
  0
LINE
  5
213
100
AcDbEntity
  8
2
100
AcDbLine
 10
-242.414223
 20
84.674518
 30
0.0
 11
-242.414223
 21
77.674518
 31
0.0
  0
LINE
  5
214
100
AcDbEntity
  8
2
100
AcDbLine
 10
-247.516855
 20
85.674518
 30
0.0
 11
-247.516855
 21
75.674518
 31
0.0
  0
LINE
  5
215
100
AcDbEntity
  8
2
100
AcDbLine
 10
-260.811591
 20
85.674518
 30
0.0
 11
-260.811591
 21
75.674518
 31
0.0
  0
LINE
  5
216
100
AcDbEntity
  8
2
100
AcDbLine
 10
-265.914223
 20
84.674518
 30
0.0
 11
-265.914223
 21
77.674518
 31
0.0
  0
ARC
  5
217
100
AcDbEntity
  8
2
100
AcDbCircle
 10
-243.414223
 20
84.674518
 30
0.0
 40
1.0
100
AcDbArc
 50
0.0
 51
90.0
  0
ARC
  5
218
100
AcDbEntity
  8
2
100
AcDbCircle
 10
-264.914223
 20
84.674518
 30
0.0
 40
1.0
100
AcDbArc
 50
90.0
 51
180.0
  0
ARC
  5
219
100
AcDbEntity
  8
2
100
AcDbCircle
 10
-240.414223
 20
77.674518
 30
0.0
 40
2.0
100
AcDbArc
 50
180.0
 51
270.0
  0
ARC
  5
21A
100
AcDbEntity
  8
2
100
AcDbCircle
 10
-267.914223
 20
77.674518
 30
0.0
 40
2.0
100
AcDbArc
 50
270.0
 51
360.0
  0
LINE
  5
21B
100
AcDbEntity
  8
2
100
AcDbLine
 10
-218.664223
 20
75.674518
 30
0.0
 11
-218.664223
 21
73.174518
 31
0.0
  0
LINE
  5
21C
100
AcDbEntity
  8
2
100
AcDbLine
 10
-289.664223
 20
75.674518
 30
0.0
 11
-289.664223
 21
73.174518
 31
0.0
  0
LINE
  5
21D
100
AcDbEntity
  8
2
100
AcDbLine
 10
-289.664223
 20
73.174518
 30
0.0
 11
-218.664223
 21
73.174518
 31
0.0
  0
LINE
  5
21E
100
AcDbEntity
  8
2
100
AcDbLine
 10
-220.664223
 20
73.174518
 30
0.0
 11
-220.664223
 21
72.174518
 31
0.0
  0
LINE
  5
21F
100
AcDbEntity
  8
2
100
AcDbLine
 10
-287.664223
 20
72.174518
 30
0.0
 11
-287.664223
 21
73.174518
 31
0.0
  0
LINE
  5
220
100
AcDbEntity
  8
2
100
AcDbLine
 10
-208.101777
 20
9.869009
 30
0.0
 11
-208.101777
 21
7.363786
 31
0.0
  0
LINE
  5
221
100
AcDbEntity
  8
2
100
AcDbLine
 10
-300.226669
 20
9.869009
 30
0.0
 11
-300.226669
 21
7.363786
 31
0.0
  0
LINE
  5
222
100
AcDbEntity
  8
2
100
AcDbLine
 10
18.385777
 20
-4.325482
 30
0.0
 11
120.385777
 21
-4.325482
 31
0.0
  0
LINE
  5
223
100
AcDbEntity
  8
2
100
AcDbLine
 10
18.385777
 20
0.674518
 30
0.0
 11
18.385777
 21
-4.325482
 31
0.0
  0
LINE
  5
224
100
AcDbEntity
  8
2
100
AcDbLine
 10
120.385777
 20
0.674518
 30
0.0
 11
120.385777
 21
-4.325482
 31
0.0
  0
LINE
  5
225
100
AcDbEntity
  8
2
100
AcDbLine
 10
20.385777
 20
2.674518
 30
0.0
 11
118.385777
 21
2.674518
 31
0.0
  0
ARC
  5
226
100
AcDbEntity
  8
2
100
AcDbCircle
 10
118.385777
 20
0.674518
 30
0.0
 40
2.0
100
AcDbArc
 50
0.0
 51
90.0
  0
ARC
  5
227
100
AcDbEntity
  8
2
100
AcDbCircle
 10
20.385777
 20
0.674518
 30
0.0
 40
2.0
100
AcDbArc
 50
90.0
 51
180.0
  0
LINE
  5
228
100
AcDbEntity
  8
2
100
AcDbLine
 10
112.885777
 20
70.174518
 30
0.0
 11
112.885777
 21
15.282706
 31
0.0
  0
LINE
  5
229
100
AcDbEntity
  8
2
100
AcDbLine
 10
25.885777
 20
70.174518
 30
0.0
 11
25.885777
 21
15.282706
 31
0.0
  0
ARC
  5
22A
100
AcDbEntity
  8
2
100
AcDbCircle
 10
110.885777
 20
70.174518
 30
0.0
 40
2.0
100
AcDbArc
 50
0.0
 51
90.0
  0
ARC
  5
22B
100
AcDbEntity
  8
2
100
AcDbCircle
 10
27.885777
 20
70.174518
 30
0.0
 40
2.0
100
AcDbArc
 50
90.0
 51
180.0
  0
LINE
  5
22C
100
AcDbEntity
  8
2
100
AcDbLine
 10
58.635777
 20
85.674518
 30
0.0
 11
80.135777
 21
85.674518
 31
0.0
  0
LINE
  5
22D
100
AcDbEntity
  8
2
100
AcDbLine
 10
33.885777
 20
75.674518
 30
0.0
 11
104.885777
 21
75.674518
 31
0.0
  0
LINE
  5
22E
100
AcDbEntity
  8
2
100
AcDbLine
 10
81.135777
 20
84.674518
 30
0.0
 11
81.135777
 21
77.674518
 31
0.0
  0
LINE
  5
22F
100
AcDbEntity
  8
2
100
AcDbLine
 10
76.033145
 20
85.674518
 30
0.0
 11
76.033145
 21
75.674518
 31
0.0
  0
LINE
  5
230
100
AcDbEntity
  8
2
100
AcDbLine
 10
62.738409
 20
85.674518
 30
0.0
 11
62.738409
 21
75.674518
 31
0.0
  0
LINE
  5
231
100
AcDbEntity
  8
2
100
AcDbLine
 10
57.635777
 20
84.674518
 30
0.0
 11
57.635777
 21
77.674518
 31
0.0
  0
ARC
  5
232
100
AcDbEntity
  8
2
100
AcDbCircle
 10
80.135777
 20
84.674518
 30
0.0
 40
1.0
100
AcDbArc
 50
0.0
 51
90.0
  0
ARC
  5
233
100
AcDbEntity
  8
2
100
AcDbCircle
 10
58.635777
 20
84.674518
 30
0.0
 40
1.0
100
AcDbArc
 50
90.0
 51
180.0
  0
ARC
  5
234
100
AcDbEntity
  8
2
100
AcDbCircle
 10
83.135777
 20
77.674518
 30
0.0
 40
2.0
100
AcDbArc
 50
180.0
 51
270.0
  0
ARC
  5
235
100
AcDbEntity
  8
2
100
AcDbCircle
 10
55.635777
 20
77.674518
 30
0.0
 40
2.0
100
AcDbArc
 50
270.0
 51
360.0
  0
LINE
  5
236
100
AcDbEntity
  8
2
100
AcDbLine
 10
104.885777
 20
75.674518
 30
0.0
 11
104.885777
 21
73.174518
 31
0.0
  0
LINE
  5
237
100
AcDbEntity
  8
2
100
AcDbLine
 10
33.885777
 20
75.674518
 30
0.0
 11
33.885777
 21
73.174518
 31
0.0
  0
LINE
  5
238
100
AcDbEntity
  8
2
100
AcDbLine
 10
102.885777
 20
73.174518
 30
0.0
 11
102.885777
 21
72.174518
 31
0.0
  0
LINE
  5
239
100
AcDbEntity
  8
2
100
AcDbLine
 10
35.885777
 20
72.174518
 30
0.0
 11
35.885777
 21
73.174518
 31
0.0
  0
LINE
  5
23A
100
AcDbEntity
  8
2
100
AcDbLine
 10
115.448223
 20
9.869009
 30
0.0
 11
115.448223
 21
7.363786
 31
0.0
  0
LINE
  5
23B
100
AcDbEntity
  8
2
100
AcDbLine
 10
23.323331
 20
9.869009
 30
0.0
 11
23.323331
 21
7.363786
 31
0.0
  0
LINE
  5
23C
100
AcDbEntity
  8
2
100
AcDbLine
 10
-281.164223
 20
50.674518
 30
0.0
 11
-281.164223
 21
7.674518
 31
0.0
  0
LINE
  5
23D
100
AcDbEntity
  8
2
100
AcDbLine
 10
-227.164223
 20
50.674518
 30
0.0
 11
-227.164223
 21
7.674518
 31
0.0
  0
LINE
  5
23E
100
AcDbEntity
  8
2
100
AcDbLine
 10
-278.164223
 20
53.674518
 30
0.0
 11
-230.164223
 21
53.674518
 31
0.0
  0
ARC
  5
23F
100
AcDbEntity
  8
2
100
AcDbCircle
 10
-230.164223
 20
50.674518
 30
0.0
 40
3.0
100
AcDbArc
 50
0.0
 51
90.0
  0
ARC
  5
240
100
AcDbEntity
  8
2
100
AcDbCircle
 10
-278.164223
 20
50.674518
 30
0.0
 40
3.0
100
AcDbArc
 50
90.0
 51
180.0
  0
ARC
  5
241
100
AcDbEntity
  8
2
100
AcDbCircle
 10
-232.164223
 20
7.674518
 30
0.0
 40
5.0
100
AcDbArc
 50
270.0
 51
360.0
  0
ARC
  5
242
100
AcDbEntity
  8
2
100
AcDbCircle
 10
-276.164223
 20
7.674518
 30
0.0
 40
5.0
100
AcDbArc
 50
180.0
 51
270.0
  0
ARC
  5
243
100
AcDbEntity
  8
2
100
AcDbCircle
 10
-206.532223
 20
9.800757
 30
0.0
 40
20.632
100
AcDbArc
 50
144.865194
 51
180.0
  0
ARC
  5
244
100
AcDbEntity
  8
2
100
AcDbCircle
 10
-301.796223
 20
9.800757
 30
0.0
 40
20.632
100
AcDbArc
 50
0.0
 51
35.134806
  0
LINE
  5
245
100
AcDbEntity
  8
2
100
AcDbLine
 10
101.448223
 20
9.869009
 30
0.0
 11
101.448223
 21
7.674518
 31
0.0
  0
ARC
  5
246
100
AcDbEntity
  8
2
100
AcDbCircle
 10
96.448223
 20
7.674518
 30
0.0
 40
5.0
100
AcDbArc
 50
270.0
 51
360.0
  0
ARC
  5
247
100
AcDbEntity
  8
2
100
AcDbCircle
 10
42.323331
 20
7.674518
 30
0.0
 40
5.0
100
AcDbArc
 50
180.0
 51
270.0
  0
LINE
  5
248
100
AcDbEntity
  8
2
100
AcDbLine
 10
37.323331
 20
9.869009
 30
0.0
 11
37.323331
 21
7.674518
 31
0.0
  0
ARC
  5
249
100
AcDbEntity
  8
2
100
AcDbCircle
 10
-227.101777
 20
7.674518
 30
0.0
 40
5.0
100
AcDbArc
 50
270.0
 51
360.0
  0
LINE
  5
24A
100
AcDbEntity
  8
2
100
AcDbLine
 10
-222.101777
 20
9.869009
 30
0.0
 11
-222.101777
 21
7.674518
 31
0.0
  0
ARC
  5
24B
100
AcDbEntity
  8
2
100
AcDbCircle
 10
-281.226669
 20
7.674518
 30
0.0
 40
5.0
100
AcDbArc
 50
180.0
 51
270.0
  0
LINE
  5
24C
100
AcDbEntity
  8
2
100
AcDbLine
 10
-286.226669
 20
9.869009
 30
0.0
 11
-286.226669
 21
7.674518
 31
0.0
  0
LINE
  5
24D
100
AcDbEntity
  8
2
  6
CENTER
 62
     2
100
AcDbLine
 10
-237.164223
 20
24.166661
 30
0.0
 11
-237.164223
 21
3.226658
 31
0.0
  0
CIRCLE
  5
24E
100
AcDbEntity
  8
2
 62
     2
100
AcDbCircle
 10
-237.164223
 20
13.674518
 30
0.0
 40
3.3235
  0
CIRCLE
  5
24F
100
AcDbEntity
  8
2
100
AcDbCircle
 10
-237.164223
 20
13.674518
 30
0.0
 40
6.25
  0
CIRCLE
  5
250
100
AcDbEntity
  8
2
100
AcDbCircle
 10
-237.164223
 20
13.674518
 30
0.0
 40
4.0
  0
LINE
  5
251
100
AcDbEntity
  8
2
100
AcDbLine
 10
-240.917
 20
20.174518
 30
0.0
 11
-233.411446
 21
20.174518
 31
0.0
  0
LINE
  5
252
100
AcDbEntity
  8
2
100
AcDbLine
 10
-240.917
 20
7.174518
 30
0.0
 11
-233.411446
 21
7.174518
 31
0.0
  0
LINE
  5
253
100
AcDbEntity
  8
2
100
AcDbLine
 10
-244.669777
 20
13.674518
 30
0.0
 11
-240.917
 21
20.174518
 31
0.0
  0
LINE
  5
254
100
AcDbEntity
  8
2
100
AcDbLine
 10
-233.411446
 20
7.174518
 30
0.0
 11
-229.65867
 21
13.674518
 31
0.0
  0
LINE
  5
255
100
AcDbEntity
  8
2
100
AcDbLine
 10
-240.917
 20
7.174518
 30
0.0
 11
-244.669777
 21
13.674518
 31
0.0
  0
LINE
  5
256
100
AcDbEntity
  8
2
100
AcDbLine
 10
-229.65867
 20
13.674518
 30
0.0
 11
-233.411446
 21
20.174518
 31
0.0
  0
LINE
  5
257
100
AcDbEntity
  8
2
100
AcDbLine
 10
-239.164223
 20
14.829218
 30
0.0
 11
-239.164223
 21
12.519817
 31
0.0
  0
LINE
  5
258
100
AcDbEntity
  8
2
100
AcDbLine
 10
-235.164223
 20
14.829218
 30
0.0
 11
-235.164223
 21
12.519817
 31
0.0
  0
LINE
  5
259
100
AcDbEntity
  8
2
100
AcDbLine
 10
-237.164223
 20
15.983919
 30
0.0
 11
-235.164223
 21
14.829218
 31
0.0
  0
LINE
  5
25A
100
AcDbEntity
  8
2
100
AcDbLine
 10
-239.164223
 20
12.519817
 30
0.0
 11
-237.164223
 21
11.365117
 31
0.0
  0
LINE
  5
25B
100
AcDbEntity
  8
2
100
AcDbLine
 10
-237.164223
 20
11.365117
 30
0.0
 11
-235.164223
 21
12.519817
 31
0.0
  0
LINE
  5
25C
100
AcDbEntity
  8
2
100
AcDbLine
 10
-239.164223
 20
14.829218
 30
0.0
 11
-237.164223
 21
15.983919
 31
0.0
  0
LINE
  5
25D
100
AcDbEntity
  8
2
  6
CENTER
 62
     2
100
AcDbLine
 10
-271.164223
 20
24.166661
 30
0.0
 11
-271.164223
 21
3.226658
 31
0.0
  0
CIRCLE
  5
25E
100
AcDbEntity
  8
2
 62
     2
100
AcDbCircle
 10
-271.164223
 20
13.674518
 30
0.0
 40
3.3235
  0
CIRCLE
  5
25F
100
AcDbEntity
  8
2
100
AcDbCircle
 10
-271.164223
 20
13.674518
 30
0.0
 40
6.25
  0
CIRCLE
  5
260
100
AcDbEntity
  8
2
100
AcDbCircle
 10
-271.164223
 20
13.674518
 30
0.0
 40
4.0
  0
LINE
  5
261
100
AcDbEntity
  8
2
100
AcDbLine
 10
-267.411446
 20
20.174518
 30
0.0
 11
-274.917
 21
20.174518
 31
0.0
  0
LINE
  5
262
100
AcDbEntity
  8
2
100
AcDbLine
 10
-267.411446
 20
7.174518
 30
0.0
 11
-274.917
 21
7.174518
 31
0.0
  0
LINE
  5
263
100
AcDbEntity
  8
2
100
AcDbLine
 10
-263.65867
 20
13.674518
 30
0.0
 11
-267.411446
 21
20.174518
 31
0.0
  0
LINE
  5
264
100
AcDbEntity
  8
2
100
AcDbLine
 10
-274.917
 20
7.174518
 30
0.0
 11
-278.669777
 21
13.674518
 31
0.0
  0
LINE
  5
265
100
AcDbEntity
  8
2
100
AcDbLine
 10
-267.411446
 20
7.174518
 30
0.0
 11
-263.65867
 21
13.674518
 31
0.0
  0
LINE
  5
266
100
AcDbEntity
  8
2
100
AcDbLine
 10
-278.669777
 20
13.674518
 30
0.0
 11
-274.917
 21
20.174518
 31
0.0
  0
LINE
  5
267
100
AcDbEntity
  8
2
100
AcDbLine
 10
-269.164223
 20
14.829218
 30
0.0
 11
-269.164223
 21
12.519817
 31
0.0
  0
LINE
  5
268
100
AcDbEntity
  8
2
100
AcDbLine
 10
-273.164223
 20
14.829218
 30
0.0
 11
-273.164223
 21
12.519817
 31
0.0
  0
LINE
  5
269
100
AcDbEntity
  8
2
100
AcDbLine
 10
-271.164223
 20
15.983919
 30
0.0
 11
-273.164223
 21
14.829218
 31
0.0
  0
LINE
  5
26A
100
AcDbEntity
  8
2
100
AcDbLine
 10
-269.164223
 20
12.519817
 30
0.0
 11
-271.164223
 21
11.365117
 31
0.0
  0
LINE
  5
26B
100
AcDbEntity
  8
2
100
AcDbLine
 10
-271.164223
 20
11.365117
 30
0.0
 11
-273.164223
 21
12.519817
 31
0.0
  0
LINE
  5
26C
100
AcDbEntity
  8
2
100
AcDbLine
 10
-269.164223
 20
14.829218
 30
0.0
 11
-271.164223
 21
15.983919
 31
0.0
  0
LINE
  5
26D
100
AcDbEntity
  8
2
  6
CENTER
 62
     2
100
AcDbLine
 10
-280.247626
 20
13.674518
 30
0.0
 11
-261.556724
 21
13.674518
 31
0.0
  0
LINE
  5
26E
100
AcDbEntity
  8
2
  6
CENTER
 62
     2
100
AcDbLine
 10
-246.887755
 20
13.674518
 30
0.0
 11
-228.04547
 21
13.674518
 31
0.0
  0
LINE
  5
26F
100
AcDbEntity
  8
2
  6
CENTER
 62
     2
100
AcDbLine
 10
12.446136
 20
13.674518
 30
0.0
 11
31.713299
 21
13.674518
 31
0.0
  0
LINE
  5
270
100
AcDbEntity
  8
2
100
AcDbLine
 10
36.697846
 20
53.674518
 30
0.0
 11
36.697846
 21
22.618736
 31
0.0
  0
LINE
  5
271
100
AcDbEntity
  8
2
100
AcDbLine
 10
25.885777
 20
53.674518
 30
0.0
 11
33.697846
 21
53.674518
 31
0.0
  0
ARC
  5
272
100
AcDbEntity
  8
2
100
AcDbCircle
 10
33.697846
 20
56.674518
 30
0.0
 40
3.0
100
AcDbArc
 50
270.0
 51
360.0
  0
ARC
  5
273
100
AcDbEntity
  8
2
100
AcDbCircle
 10
33.697846
 20
22.618736
 30
0.0
 40
3.0
100
AcDbArc
 50
295.867504
 51
360.0
  0
LINE
  5
274
100
AcDbEntity
  8
2
100
AcDbLine
 10
33.885777
 20
73.174518
 30
0.0
 11
94.706847
 21
73.174518
 31
0.0
  0
LINE
  5
275
100
AcDbEntity
  8
2
100
AcDbLine
 10
102.84303
 20
73.174518
 30
0.0
 11
104.885777
 21
73.174518
 31
0.0
  0
LINE
  5
276
100
AcDbEntity
  8
2
100
AcDbLine
 10
27.885777
 20
72.174518
 30
0.0
 11
97.186176
 21
72.174518
 31
0.0
  0
LINE
  5
277
100
AcDbEntity
  8
2
100
AcDbLine
 10
102.84303
 20
72.174518
 30
0.0
 11
110.885777
 21
72.174518
 31
0.0
  0
LINE
  5
278
100
AcDbEntity
  8
2
100
AcDbLine
 10
-212.047737
 20
16.167647
 30
0.0
 11
-221.150244
 21
20.581209
 31
0.0
  0
ARC
  5
279
100
AcDbEntity
  8
2
100
AcDbCircle
 10
-203.101777
 20
7.363786
 30
0.0
 40
5.0
100
AcDbArc
 50
180.0
 51
252.864341
  0
ARC
  5
27A
100
AcDbEntity
  8
2
100
AcDbCircle
 10
-219.405078
 20
24.180431
 30
0.0
 40
4.0
100
AcDbArc
 50
180.0
 51
244.132496
  0
ARC
  5
27B
100
AcDbEntity
  8
2
100
AcDbCircle
 10
-215.101777
 20
9.869009
 30
0.0
 40
7.0
100
AcDbArc
 50
360.0
 51
64.132496
  0
LINE
  5
27C
100
AcDbEntity
  8
2
100
AcDbLine
 10
-296.28071
 20
16.167647
 30
0.0
 11
-287.178202
 21
20.581209
 31
0.0
  0
ARC
  5
27D
100
AcDbEntity
  8
2
100
AcDbCircle
 10
-305.226669
 20
7.363786
 30
0.0
 40
5.0
100
AcDbArc
 50
287.135659
 51
360.0
  0
ARC
  5
27E
100
AcDbEntity
  8
2
100
AcDbCircle
 10
-288.923368
 20
24.180431
 30
0.0
 40
4.0
100
AcDbArc
 50
295.867504
 51
360.0
  0
ARC
  5
27F
100
AcDbEntity
  8
2
100
AcDbCircle
 10
-293.226669
 20
9.869009
 30
0.0
 40
7.0
100
AcDbArc
 50
115.867504
 51
180.0
  0
LINE
  5
280
100
AcDbEntity
  8
2
100
AcDbLine
 10
111.502263
 20
16.167647
 30
0.0
 11
102.399756
 21
20.581209
 31
0.0
  0
ARC
  5
281
100
AcDbEntity
  8
2
100
AcDbCircle
 10
120.448223
 20
7.363786
 30
0.0
 40
5.0
100
AcDbArc
 50
180.0
 51
252.864341
  0
ARC
  5
282
100
AcDbEntity
  8
2
100
AcDbCircle
 10
104.144922
 20
24.180431
 30
0.0
 40
4.0
100
AcDbArc
 50
180.0
 51
244.132496
  0
LINE
  5
283
100
AcDbEntity
  8
2
100
AcDbLine
 10
87.250056
 20
10.356976
 30
0.0
 11
51.521498
 21
10.356976
 31
0.0
  0
ARC
  5
284
100
AcDbEntity
  8
2
100
AcDbCircle
 10
87.250056
 20
15.356976
 30
0.0
 40
5.0
100
AcDbArc
 50
270.0
 51
332.56746
  0
ARC
  5
285
100
AcDbEntity
  8
2
100
AcDbCircle
 10
110.000195
 20
3.548027
 30
0.0
 40
20.632403
100
AcDbArc
 50
118.532683
 51
152.56746
  0
ARC
  5
286
100
AcDbEntity
  8
2
100
AcDbCircle
 10
101.252114
 20
14.00678
 30
0.0
 40
11.332262
100
AcDbArc
 50
198.788273
 51
246.946712
  0
LINE
  5
287
100
AcDbEntity
  8
2
100
AcDbLine
 10
27.26929
 20
16.167647
 30
0.0
 11
36.371798
 21
20.581209
 31
0.0
  0
ARC
  5
288
100
AcDbEntity
  8
2
100
AcDbCircle
 10
18.323331
 20
7.363786
 30
0.0
 40
5.0
100
AcDbArc
 50
287.135659
 51
360.0
  0
ARC
  5
289
100
AcDbEntity
  8
2
100
AcDbCircle
 10
34.626632
 20
24.180431
 30
0.0
 40
4.0
100
AcDbArc
 50
295.867504
 51
360.0
  0
ARC
  5
28A
100
AcDbEntity
  8
2
100
AcDbCircle
 10
51.521498
 20
15.356976
 30
0.0
 40
5.0
100
AcDbArc
 50
207.43254
 51
270.0
  0
ARC
  5
28B
100
AcDbEntity
  8
2
100
AcDbCircle
 10
28.771359
 20
3.548027
 30
0.0
 40
20.632403
100
AcDbArc
 50
27.43254
 51
61.467317
  0
ARC
  5
28C
100
AcDbEntity
  8
2
100
AcDbCircle
 10
30.323331
 20
9.869009
 30
0.0
 40
7.0
100
AcDbArc
 50
115.867504
 51
180.0
  0
ARC
  5
28D
100
AcDbEntity
  8
2
100
AcDbCircle
 10
108.448223
 20
9.869009
 30
0.0
 40
7.0
100
AcDbArc
 50
360.0
 51
64.132496
  0
ARC
  5
28E
100
AcDbEntity
  8
2
100
AcDbCircle
 10
108.448223
 20
9.869009
 30
0.0
 40
7.0
100
AcDbArc
 50
90.0
 51
180.0
  0
ARC
  5
28F
100
AcDbEntity
  8
2
100
AcDbCircle
 10
37.51944
 20
14.00678
 30
0.0
 40
11.332262
100
AcDbArc
 50
293.053288
 51
341.211727
  0
ARC
  5
290
100
AcDbEntity
  8
2
100
AcDbCircle
 10
30.323331
 20
9.869009
 30
0.0
 40
7.0
100
AcDbArc
 50
0.0
 51
90.0
  0
ARC
  5
291
100
AcDbEntity
  8
2
100
AcDbCircle
 10
-215.101777
 20
9.869009
 30
0.0
 40
7.0
100
AcDbArc
 50
90.0
 51
180.0
  0
ARC
  5
292
100
AcDbEntity
  8
2
100
AcDbCircle
 10
-293.226669
 20
9.869009
 30
0.0
 40
7.0
100
AcDbArc
 50
0.0
 51
90.0
  0
LINE
  5
293
100
AcDbEntity
  8
2
100
AcDbLine
 10
23.319747
 20
7.174518
 30
0.0
 11
19.385777
 21
7.174518
 31
0.0
  0
LINE
  5
294
100
AcDbEntity
  8
2
100
AcDbLine
 10
19.385777
 20
7.174518
 30
0.0
 11
19.385777
 21
20.174518
 31
0.0
  0
ARC
  5
295
100
AcDbEntity
  8
2
100
AcDbCircle
 10
27.064535
 20
10.424518
 30
0.0
 40
7.678759
100
AcDbArc
 50
154.96034
 51
205.03966
  0
LINE
  5
296
100
AcDbEntity
  8
2
100
AcDbLine
 10
25.885777
 20
20.174518
 30
0.0
 11
19.385777
 21
20.174518
 31
0.0
  0
LINE
  5
297
100
AcDbEntity
  8
2
100
AcDbLine
 10
24.44812
 20
13.674518
 30
0.0
 11
20.107465
 21
13.674518
 31
0.0
  0
ARC
  5
298
100
AcDbEntity
  8
2
100
AcDbCircle
 10
27.064535
 20
16.924518
 30
0.0
 40
7.678759
100
AcDbArc
 50
154.96034
 51
205.03966
  0
ARC
  5
299
100
AcDbEntity
  8
2
100
AcDbCircle
 10
18.207018
 20
16.924518
 30
0.0
 40
7.678759
100
AcDbArc
 50
346.202823
 51
25.03966
  0
LINE
  5
29A
100
AcDbEntity
  8
2
100
AcDbLine
 10
17.385777
 20
16.998018
 30
0.0
 11
18.062277
 21
17.674518
 31
0.0
  0
LINE
  5
29B
100
AcDbEntity
  8
2
100
AcDbLine
 10
18.062277
 20
17.674518
 30
0.0
 11
19.385777
 21
17.674518
 31
0.0
  0
LINE
  5
29C
100
AcDbEntity
  8
2
 62
     2
100
AcDbLine
 10
17.385777
 20
16.998018
 30
0.0
 11
19.385777
 21
16.998018
 31
0.0
  0
LINE
  5
29D
100
AcDbEntity
  8
2
100
AcDbLine
 10
17.385777
 20
10.351018
 30
0.0
 11
17.385777
 21
16.998018
 31
0.0
  0
LINE
  5
29E
100
AcDbEntity
  8
2
100
AcDbLine
 10
17.385777
 20
10.351018
 30
0.0
 11
18.062277
 21
9.674518
 31
0.0
  0
LINE
  5
29F
100
AcDbEntity
  8
2
100
AcDbLine
 10
18.062277
 20
9.674518
 30
0.0
 11
19.385777
 21
9.674518
 31
0.0
  0
LINE
  5
2A0
100
AcDbEntity
  8
2
100
AcDbLine
 10
18.062277
 20
9.674518
 30
0.0
 11
18.062277
 21
17.674518
 31
0.0
  0
LINE
  5
2A1
100
AcDbEntity
  8
2
 62
     2
100
AcDbLine
 10
17.385777
 20
10.351018
 30
0.0
 11
19.385777
 21
10.351018
 31
0.0
  0
LINE
  5
2A2
100
AcDbEntity
  8
2
100
AcDbLine
 10
102.84303
 20
75.174518
 30
0.0
 11
102.84303
 21
72.174518
 31
0.0
  0
LINE
  5
2A3
100
AcDbEntity
  8
2
100
AcDbLine
 10
97.186176
 20
75.174518
 30
0.0
 11
97.186176
 21
72.174518
 31
0.0
  0
LINE
  5
2A4
100
AcDbEntity
  8
2
100
AcDbLine
 10
94.706847
 20
75.174518
 30
0.0
 11
94.706847
 21
72.174518
 31
0.0
  0
LINE
  5
2A5
100
AcDbEntity
  8
2
100
AcDbLine
 10
94.706847
 20
75.174518
 30
0.0
 11
102.84303
 21
75.174518
 31
0.0
  0
LINE
  5
2A6
100
AcDbEntity
  8
2
100
AcDbLine
 10
-262.164223
 20
105.674518
 30
0.0
 11
-262.164223
 21
85.674518
 31
0.0
  0
LINE
  5
2A7
100
AcDbEntity
  8
2
100
AcDbLine
 10
-246.164223
 20
105.674518
 30
0.0
 11
-246.164223
 21
85.674518
 31
0.0
  0
LINE
  5
2A8
100
AcDbEntity
  8
2
100
AcDbLine
 10
61.385777
 20
105.674518
 30
0.0
 11
61.385777
 21
85.674518
 31
0.0
  0
LINE
  5
2A9
100
AcDbEntity
  8
2
100
AcDbLine
 10
77.385777
 20
105.674518
 30
0.0
 11
77.385777
 21
85.674518
 31
0.0
  0
LINE
  5
2AA
100
AcDbEntity
  8
2
100
AcDbLine
 10
59.385777
 20
122.674518
 30
0.0
 11
79.385777
 21
122.674518
 31
0.0
  0
LINE
  5
2AB
100
AcDbEntity
  8
2
100
AcDbLine
 10
59.385777
 20
120.674518
 30
0.0
 11
59.385777
 21
122.674518
 31
0.0
  0
LINE
  5
2AC
100
AcDbEntity
  8
2
100
AcDbLine
 10
79.385777
 20
120.674518
 30
0.0
 11
79.385777
 21
122.674518
 31
0.0
  0
LINE
  5
2AD
100
AcDbEntity
  8
2
100
AcDbLine
 10
75.485777
 20
124.174518
 30
0.0
 11
63.285777
 21
124.174518
 31
0.0
  0
LINE
  5
2AE
100
AcDbEntity
  8
2
100
AcDbLine
 10
64.385777
 20
124.174518
 30
0.0
 11
64.385777
 21
128.174518
 31
0.0
  0
LINE
  5
2AF
100
AcDbEntity
  8
2
100
AcDbLine
 10
64.385777
 20
128.174518
 30
0.0
 11
74.385777
 21
128.174518
 31
0.0
  0
ARC
  5
2B0
100
AcDbEntity
  8
2
100
AcDbCircle
 10
66.885777
 20
121.56131
 30
0.0
 40
6.613208
100
AcDbArc
 50
67.788205
 51
112.211795
  0
LINE
  5
2B1
100
AcDbEntity
  8
2
100
AcDbLine
 10
74.385777
 20
124.174518
 30
0.0
 11
74.385777
 21
128.174518
 31
0.0
  0
LINE
  5
2B2
100
AcDbEntity
  8
2
100
AcDbLine
 10
69.385777
 20
124.174518
 30
0.0
 11
69.385777
 21
127.68377
 31
0.0
  0
ARC
  5
2B3
100
AcDbEntity
  8
2
100
AcDbCircle
 10
71.885777
 20
121.56131
 30
0.0
 40
6.613208
100
AcDbArc
 50
67.788205
 51
112.211795
  0
LINE
  5
2B4
100
AcDbEntity
  8
2
100
AcDbLine
 10
63.285777
 20
122.674518
 30
0.0
 11
63.285777
 21
124.174518
 31
0.0
  0
LINE
  5
2B5
100
AcDbEntity
  8
2
100
AcDbLine
 10
75.485777
 20
124.174518
 30
0.0
 11
75.485777
 21
122.674518
 31
0.0
  0
LINE
  5
2B6
100
AcDbEntity
  8
2
100
AcDbLine
 10
-264.164223
 20
122.674518
 30
0.0
 11
-244.164223
 21
122.674518
 31
0.0
  0
LINE
  5
2B7
100
AcDbEntity
  8
2
100
AcDbLine
 10
-264.164223
 20
120.674518
 30
0.0
 11
-264.164223
 21
122.674518
 31
0.0
  0
LINE
  5
2B8
100
AcDbEntity
  8
2
100
AcDbLine
 10
-244.164223
 20
120.674518
 30
0.0
 11
-244.164223
 21
122.674518
 31
0.0
  0
LINE
  5
2B9
100
AcDbEntity
  8
2
100
AcDbLine
 10
-259.914223
 20
124.174518
 30
0.0
 11
-259.914223
 21
127.68377
 31
0.0
  0
LINE
  5
2BA
100
AcDbEntity
  8
2
100
AcDbLine
 10
-259.914223
 20
127.68377
 30
0.0
 11
-259.064223
 21
128.174518
 31
0.0
  0
LINE
  5
2BB
100
AcDbEntity
  8
2
100
AcDbLine
 10
-259.064223
 20
128.174518
 30
0.0
 11
-249.264223
 21
128.174518
 31
0.0
  0
LINE
  5
2BC
100
AcDbEntity
  8
2
100
AcDbLine
 10
-257.039223
 20
124.174518
 30
0.0
 11
-257.039223
 21
127.68377
 31
0.0
  0
ARC
  5
2BD
100
AcDbEntity
  8
2
100
AcDbCircle
 10
-258.476723
 20
125.835815
 30
0.0
 40
2.341227
100
AcDbArc
 50
52.121121
 51
127.878879
  0
LINE
  5
2BE
100
AcDbEntity
  8
2
100
AcDbLine
 10
-248.414223
 20
124.174518
 30
0.0
 11
-248.414223
 21
127.68377
 31
0.0
  0
LINE
  5
2BF
100
AcDbEntity
  8
2
100
AcDbLine
 10
-248.414223
 20
127.68377
 30
0.0
 11
-249.264223
 21
128.174518
 31
0.0
  0
LINE
  5
2C0
100
AcDbEntity
  8
2
100
AcDbLine
 10
-251.289223
 20
124.174518
 30
0.0
 11
-251.289223
 21
127.68377
 31
0.0
  0
ARC
  5
2C1
100
AcDbEntity
  8
2
100
AcDbCircle
 10
-249.851723
 20
125.835815
 30
0.0
 40
2.341227
100
AcDbArc
 50
52.121121
 51
127.878879
  0
ARC
  5
2C2
100
AcDbEntity
  8
2
100
AcDbCircle
 10
-254.164223
 20
119.552042
 30
0.0
 40
8.625
100
AcDbArc
 50
70.528779
 51
109.471221
  0
LINE
  5
2C3
100
AcDbEntity
  8
2
100
AcDbLine
 10
-260.264223
 20
122.674518
 30
0.0
 11
-260.264223
 21
124.174518
 31
0.0
  0
LINE
  5
2C4
100
AcDbEntity
  8
2
100
AcDbLine
 10
-260.264223
 20
124.174518
 30
0.0
 11
-248.064223
 21
124.174518
 31
0.0
  0
LINE
  5
2C5
100
AcDbEntity
  8
2
100
AcDbLine
 10
-248.064223
 20
124.174518
 30
0.0
 11
-248.064223
 21
122.674518
 31
0.0
  0
LINE
  5
2C6
100
AcDbEntity
  8
2
100
AcDbLine
 10
-254.164223
 20
124.174518
 30
0.0
 11
-253.664223
 21
122.674518
 31
0.0
  0
LINE
  5
2C7
100
AcDbEntity
  8
2
100
AcDbLine
 10
-254.164223
 20
122.674518
 30
0.0
 11
-254.664223
 21
124.174518
 31
0.0
  0
LINE
  5
2C8
100
AcDbEntity
  8
2
100
AcDbLine
 10
-281.664223
 20
323.824518
 30
0.0
 11
-226.664223
 21
323.824518
 31
0.0
  0
LINE
  5
2C9
100
AcDbEntity
  8
2
100
AcDbLine
 10
-305.164223
 20
300.324518
 30
0.0
 11
-305.164223
 21
245.324518
 31
0.0
  0
LINE
  5
2CA
100
AcDbEntity
  8
2
100
AcDbLine
 10
-203.164223
 20
300.324518
 30
0.0
 11
-203.164223
 21
245.324518
 31
0.0
  0
ARC
  5
2CB
100
AcDbEntity
  8
2
100
AcDbCircle
 10
-281.664223
 20
245.324518
 30
0.0
 40
23.5
100
AcDbArc
 50
180.0
 51
270.0
  0
ARC
  5
2CC
100
AcDbEntity
  8
2
100
AcDbCircle
 10
-226.664223
 20
245.324518
 30
0.0
 40
23.5
100
AcDbArc
 50
270.0
 51
360.0
  0
ARC
  5
2CD
100
AcDbEntity
  8
2
100
AcDbCircle
 10
-226.664223
 20
300.324518
 30
0.0
 40
23.5
100
AcDbArc
 50
0.0
 51
90.0
  0
ARC
  5
2CE
100
AcDbEntity
  8
2
100
AcDbCircle
 10
-281.664223
 20
300.324518
 30
0.0
 40
23.5
100
AcDbArc
 50
90.0
 51
180.0
  0
LINE
  5
2CF
100
AcDbEntity
  8
2
100
AcDbLine
 10
-297.297737
 20
243.83314
 30
0.0
 11
-295.876307
 21
245.254569
 31
0.0
  0
LINE
  5
2D0
100
AcDbEntity
  8
2
100
AcDbLine
 10
-226.594275
 20
314.536602
 30
0.0
 11
-225.172845
 21
315.958031
 31
0.0
  0
LINE
  5
2D1
100
AcDbEntity
  8
2
100
AcDbLine
 10
-297.297737
 20
301.815896
 30
0.0
 11
-295.876307
 21
300.394466
 31
0.0
  0
LINE
  5
2D2
100
AcDbEntity
  8
2
100
AcDbLine
 10
-283.155601
 20
315.958031
 30
0.0
 11
-281.734172
 21
314.536602
 31
0.0
  0
LINE
  5
2D3
100
AcDbEntity
  8
2
100
AcDbLine
 10
-212.452139
 20
245.254569
 30
0.0
 11
-211.03071
 21
243.83314
 31
0.0
  0
LINE
  5
2D4
100
AcDbEntity
  8
2
100
AcDbLine
 10
-212.452139
 20
300.394466
 30
0.0
 11
-211.03071
 21
301.815896
 31
0.0
  0
ARC
  5
2D5
100
AcDbEntity
  8
2
100
AcDbCircle
 10
-218.101777
 20
308.886963
 30
0.0
 40
10.0
100
AcDbArc
 50
315.0
 51
135.0
  0
ARC
  5
2D6
100
AcDbEntity
  8
2
100
AcDbCircle
 10
-218.101777
 20
236.762072
 30
0.0
 40
10.0
100
AcDbArc
 50
238.13213
 51
45.0
  0
ARC
  5
2D7
100
AcDbEntity
  8
2
100
AcDbCircle
 10
-290.226669
 20
236.762072
 30
0.0
 40
10.0
100
AcDbArc
 50
135.0
 51
301.86787
  0
ARC
  5
2D8
100
AcDbEntity
  8
2
100
AcDbCircle
 10
-290.226669
 20
308.886963
 30
0.0
 40
10.0
100
AcDbArc
 50
45.0
 51
225.0
  0
LINE
  5
2D9
100
AcDbEntity
  8
2
100
AcDbLine
 10
-229.664223
 20
228.60283
 30
0.0
 11
-229.664223
 21
223.546205
 31
0.0
  0
LINE
  5
2DA
100
AcDbEntity
  8
2
100
AcDbLine
 10
-229.664223
 20
223.546205
 30
0.0
 11
-230.914223
 21
222.824518
 31
0.0
  0
LINE
  5
2DB
100
AcDbEntity
  8
2
100
AcDbLine
 10
-233.414223
 20
227.333447
 30
0.0
 11
-233.414223
 21
223.546205
 31
0.0
  0
ARC
  5
2DC
100
AcDbEntity
  8
2
100
AcDbCircle
 10
-231.539223
 20
225.956582
 30
0.0
 40
3.053774
100
AcDbArc
 50
232.121121
 51
307.878879
  0
ARC
  5
2DD
100
AcDbEntity
  8
2
100
AcDbCircle
 10
-237.164223
 20
234.152807
 30
0.0
 40
11.25
100
AcDbArc
 50
250.528777
 51
289.471219
  0
LINE
  5
2DE
100
AcDbEntity
  8
2
100
AcDbLine
 10
-244.664223
 20
223.735313
 30
0.0
 11
-244.664223
 21
223.546205
 31
0.0
  0
LINE
  5
2DF
100
AcDbEntity
  8
2
100
AcDbLine
 10
-244.664223
 20
223.546205
 30
0.0
 11
-243.414223
 21
222.824518
 31
0.0
  0
LINE
  5
2E0
100
AcDbEntity
  8
2
100
AcDbLine
 10
-243.414223
 20
222.824518
 30
0.0
 11
-230.914223
 21
222.824518
 31
0.0
  0
LINE
  5
2E1
100
AcDbEntity
  8
2
100
AcDbLine
 10
-240.914223
 20
224.612097
 30
0.0
 11
-240.914223
 21
223.546205
 31
0.0
  0
ARC
  5
2E2
100
AcDbEntity
  8
2
100
AcDbCircle
 10
-242.789223
 20
225.956582
 30
0.0
 40
3.053774
100
AcDbArc
 50
232.121121
 51
307.878879
  0
LINE
  5
2E3
100
AcDbEntity
  8
2
100
AcDbLine
 10
-229.664223
 20
228.60283
 30
0.0
 11
-230.226157
 21
228.927263
 31
0.0
  0
ARC
  5
2E4
100
AcDbEntity
  8
2
100
AcDbCircle
 10
-231.539223
 20
226.192454
 30
0.0
 40
3.053774
100
AcDbArc
 50
52.121121
 51
64.082347
  0
LINE
  5
2E5
100
AcDbEntity
  8
2
  6
CENTER
 62
     2
100
AcDbLine
 10
-232.664223
 20
281.578854
 30
0.0
 11
-232.664223
 21
264.538854
 31
0.0
  0
LINE
  5
2E6
100
AcDbEntity
  8
2
100
AcDbLine
 10
-234.664223
 20
273.979218
 30
0.0
 11
-234.664223
 21
271.669817
 31
0.0
  0
LINE
  5
2E7
100
AcDbEntity
  8
2
100
AcDbLine
 10
-230.664223
 20
273.979218
 30
0.0
 11
-230.664223
 21
271.669817
 31
0.0
  0
LINE
  5
2E8
100
AcDbEntity
  8
2
100
AcDbLine
 10
-232.664223
 20
275.133919
 30
0.0
 11
-230.664223
 21
273.979218
 31
0.0
  0
LINE
  5
2E9
100
AcDbEntity
  8
2
100
AcDbLine
 10
-234.664223
 20
271.669817
 30
0.0
 11
-232.664223
 21
270.515117
 31
0.0
  0
LINE
  5
2EA
100
AcDbEntity
  8
2
100
AcDbLine
 10
-232.664223
 20
270.515117
 30
0.0
 11
-230.664223
 21
271.669817
 31
0.0
  0
LINE
  5
2EB
100
AcDbEntity
  8
2
100
AcDbLine
 10
-234.664223
 20
273.979218
 30
0.0
 11
-232.664223
 21
275.133919
 31
0.0
  0
LINE
  5
2EC
100
AcDbEntity
  8
2
  6
CENTER
 62
     2
100
AcDbLine
 10
-275.664223
 20
281.578854
 30
0.0
 11
-275.664223
 21
264.538854
 31
0.0
  0
LINE
  5
2ED
100
AcDbEntity
  8
2
100
AcDbLine
 10
-273.664223
 20
273.979218
 30
0.0
 11
-273.664223
 21
271.669817
 31
0.0
  0
LINE
  5
2EE
100
AcDbEntity
  8
2
100
AcDbLine
 10
-277.664223
 20
273.979218
 30
0.0
 11
-277.664223
 21
271.669817
 31
0.0
  0
LINE
  5
2EF
100
AcDbEntity
  8
2
100
AcDbLine
 10
-275.664223
 20
275.133919
 30
0.0
 11
-277.664223
 21
273.979218
 31
0.0
  0
LINE
  5
2F0
100
AcDbEntity
  8
2
100
AcDbLine
 10
-273.664223
 20
271.669817
 30
0.0
 11
-275.664223
 21
270.515117
 31
0.0
  0
LINE
  5
2F1
100
AcDbEntity
  8
2
100
AcDbLine
 10
-275.664223
 20
270.515117
 30
0.0
 11
-277.664223
 21
271.669817
 31
0.0
  0
LINE
  5
2F2
100
AcDbEntity
  8
2
100
AcDbLine
 10
-273.664223
 20
273.979218
 30
0.0
 11
-275.664223
 21
275.133919
 31
0.0
  0
LINE
  5
2F3
100
AcDbEntity
  8
2
100
AcDbLine
 10
-281.164223
 20
230.741267
 30
0.0
 11
-281.164223
 21
229.324518
 31
0.0
  0
LINE
  5
2F4
100
AcDbEntity
  8
2
100
AcDbLine
 10
-227.164223
 20
230.741267
 30
0.0
 11
-227.164223
 21
229.324518
 31
0.0
  0
ARC
  5
2F5
100
AcDbEntity
  8
2
100
AcDbCircle
 10
-227.077134
 20
222.324518
 30
0.0
 40
7.0
100
AcDbArc
 50
58.13213
 51
90.0
  0
ARC
  5
2F6
100
AcDbEntity
  8
2
100
AcDbCircle
 10
-281.251312
 20
222.324518
 30
0.0
 40
7.0
100
AcDbArc
 50
90.0
 51
121.86787
  0
TEXT
  5
2F7
100
AcDbEntity
  8
2
100
AcDbText
 10
-271.664223
 20
244.824518
 30
0.0
 40
7.0
  1
ＴＯＭＯＥ
 72
     5
 11
-238.064223
 21
244.824518
 31
0.0
100
AcDbText
  0
TEXT
  5
2F8
100
AcDbEntity
  8
2
100
AcDbText
 10
-274.316766
 20
285.905993
 30
0.0
 40
10.0
  1
Ｏ
 50
45.0
 72
     5
 11
-268.659912
 21
291.562847
 31
0.0
100
AcDbText
  0
TEXT
  5
2F9
100
AcDbEntity
  8
2
100
AcDbText
 10
-241.082748
 20
292.977061
 30
0.0
 40
10.0
  1
Ｓ
 50
315.0
 72
     5
 11
-235.425893
 21
287.320207
 31
0.0
100
AcDbText
  0
LINE
  5
2FA
100
AcDbEntity
  8
2
100
AcDbLine
 10
-268.790422
 20
293.712895
 30
0.0
 11
-273.379034
 21
300.266111
 31
0.0
  0
LINE
  5
2FB
100
AcDbEntity
  8
2
100
AcDbLine
 10
-238.104083
 20
295.760775
 30
0.0
 11
-236.383354
 21
298.218231
 31
0.0
  0
LINE
  5
2FC
100
AcDbEntity
  8
2
  6
CENTER
 62
     2
100
AcDbLine
 10
-237.164223
 20
215.884877
 30
0.0
 11
-237.164223
 21
235.15204
 31
0.0
  0
LINE
  5
2FD
100
AcDbEntity
  8
2
  6
CENTER
 62
     2
100
AcDbLine
 10
-271.164223
 20
215.884877
 30
0.0
 11
-271.164223
 21
235.15204
 31
0.0
  0
LINE
  5
2FE
100
AcDbEntity
  8
2
100
AcDbLine
 10
-263.664223
 20
223.735313
 30
0.0
 11
-263.664223
 21
223.546205
 31
0.0
  0
LINE
  5
2FF
100
AcDbEntity
  8
2
100
AcDbLine
 10
-263.664223
 20
223.546205
 30
0.0
 11
-264.914223
 21
222.824518
 31
0.0
  0
LINE
  5
300
100
AcDbEntity
  8
2
100
AcDbLine
 10
-267.414223
 20
224.612097
 30
0.0
 11
-267.414223
 21
223.546205
 31
0.0
  0
ARC
  5
301
100
AcDbEntity
  8
2
100
AcDbCircle
 10
-265.539223
 20
225.956582
 30
0.0
 40
3.053774
100
AcDbArc
 50
232.121121
 51
307.878879
  0
ARC
  5
302
100
AcDbEntity
  8
2
100
AcDbCircle
 10
-271.164223
 20
234.152807
 30
0.0
 40
11.25
100
AcDbArc
 50
250.528777
 51
289.471219
  0
LINE
  5
303
100
AcDbEntity
  8
2
100
AcDbLine
 10
-278.664223
 20
228.60283
 30
0.0
 11
-278.664223
 21
223.546205
 31
0.0
  0
LINE
  5
304
100
AcDbEntity
  8
2
100
AcDbLine
 10
-278.664223
 20
223.546205
 30
0.0
 11
-277.414223
 21
222.824518
 31
0.0
  0
LINE
  5
305
100
AcDbEntity
  8
2
100
AcDbLine
 10
-277.414223
 20
222.824518
 30
0.0
 11
-264.914223
 21
222.824518
 31
0.0
  0
LINE
  5
306
100
AcDbEntity
  8
2
100
AcDbLine
 10
-274.914223
 20
227.333447
 30
0.0
 11
-274.914223
 21
223.546205
 31
0.0
  0
ARC
  5
307
100
AcDbEntity
  8
2
100
AcDbCircle
 10
-276.789223
 20
225.956582
 30
0.0
 40
3.053774
100
AcDbArc
 50
232.121121
 51
307.878879
  0
LINE
  5
308
100
AcDbEntity
  8
2
100
AcDbLine
 10
-278.664223
 20
228.60283
 30
0.0
 11
-278.102289
 21
228.927263
 31
0.0
  0
ARC
  5
309
100
AcDbEntity
  8
2
100
AcDbCircle
 10
-276.789223
 20
226.192454
 30
0.0
 40
3.053774
100
AcDbArc
 50
115.917653
 51
127.878879
  0
LINE
  5
30A
100
AcDbEntity
  8
2
100
AcDbLine
 10
-233.164223
 20
221.824518
 30
0.0
 11
-226.664223
 21
221.824518
 31
0.0
  0
LINE
  5
30B
100
AcDbEntity
  8
2
100
AcDbLine
 10
-281.664223
 20
221.824518
 30
0.0
 11
-275.164223
 21
221.824518
 31
0.0
  0
LINE
  5
30C
100
AcDbEntity
  8
2
100
AcDbLine
 10
-267.164223
 20
221.824518
 30
0.0
 11
-241.164223
 21
221.824518
 31
0.0
  0
LINE
  5
30D
100
AcDbEntity
  8
2
100
AcDbLine
 10
-240.487723
 20
220.824518
 30
0.0
 11
-241.164223
 21
221.501018
 31
0.0
  0
LINE
  5
30E
100
AcDbEntity
  8
2
100
AcDbLine
 10
-241.164223
 20
221.501018
 30
0.0
 11
-241.164223
 21
222.824518
 31
0.0
  0
LINE
  5
30F
100
AcDbEntity
  8
2
 62
     2
100
AcDbLine
 10
-240.487723
 20
220.824518
 30
0.0
 11
-240.487723
 21
222.824518
 31
0.0
  0
LINE
  5
310
100
AcDbEntity
  8
2
100
AcDbLine
 10
-233.840723
 20
220.824518
 30
0.0
 11
-240.487723
 21
220.824518
 31
0.0
  0
LINE
  5
311
100
AcDbEntity
  8
2
100
AcDbLine
 10
-233.840723
 20
220.824518
 30
0.0
 11
-233.164223
 21
221.501018
 31
0.0
  0
LINE
  5
312
100
AcDbEntity
  8
2
100
AcDbLine
 10
-233.164223
 20
221.501018
 30
0.0
 11
-233.164223
 21
222.824518
 31
0.0
  0
LINE
  5
313
100
AcDbEntity
  8
2
100
AcDbLine
 10
-233.164223
 20
221.501018
 30
0.0
 11
-241.164223
 21
221.501018
 31
0.0
  0
LINE
  5
314
100
AcDbEntity
  8
2
 62
     2
100
AcDbLine
 10
-233.840723
 20
220.824518
 30
0.0
 11
-233.840723
 21
222.824518
 31
0.0
  0
LINE
  5
315
100
AcDbEntity
  8
2
100
AcDbLine
 10
-274.487723
 20
220.824518
 30
0.0
 11
-275.164223
 21
221.501018
 31
0.0
  0
LINE
  5
316
100
AcDbEntity
  8
2
100
AcDbLine
 10
-275.164223
 20
221.501018
 30
0.0
 11
-275.164223
 21
222.824518
 31
0.0
  0
LINE
  5
317
100
AcDbEntity
  8
2
 62
     2
100
AcDbLine
 10
-274.487723
 20
220.824518
 30
0.0
 11
-274.487723
 21
222.824518
 31
0.0
  0
LINE
  5
318
100
AcDbEntity
  8
2
100
AcDbLine
 10
-267.840723
 20
220.824518
 30
0.0
 11
-274.487723
 21
220.824518
 31
0.0
  0
LINE
  5
319
100
AcDbEntity
  8
2
100
AcDbLine
 10
-267.840723
 20
220.824518
 30
0.0
 11
-267.164223
 21
221.501018
 31
0.0
  0
LINE
  5
31A
100
AcDbEntity
  8
2
100
AcDbLine
 10
-267.164223
 20
221.501018
 30
0.0
 11
-267.164223
 21
222.824518
 31
0.0
  0
LINE
  5
31B
100
AcDbEntity
  8
2
100
AcDbLine
 10
-267.164223
 20
221.501018
 30
0.0
 11
-275.164223
 21
221.501018
 31
0.0
  0
LINE
  5
31C
100
AcDbEntity
  8
2
 62
     2
100
AcDbLine
 10
-267.840723
 20
220.824518
 30
0.0
 11
-267.840723
 21
222.824518
 31
0.0
  0
ARC
  5
31D
100
AcDbEntity
  8
2
100
AcDbCircle
 10
-256.25494
 20
274.424954
 30
0.0
 40
31.0
100
AcDbArc
 50
50.13216
 51
70.969857
  0
ARC
  5
31E
100
AcDbEntity
  8
2
100
AcDbCircle
 10
-256.25494
 20
274.424954
 30
0.0
 40
31.0
100
AcDbArc
 50
102.292131
 51
123.53114
  0
ARC
  5
31F
100
AcDbEntity
  8
2
100
AcDbCircle
 10
-252.051228
 20
273.818187
 30
0.0
 40
26.0
100
AcDbArc
 50
57.559148
 51
77.239583
  0
ARC
  5
320
100
AcDbEntity
  8
2
100
AcDbCircle
 10
-252.051228
 20
273.818187
 30
0.0
 40
26.0
100
AcDbArc
 50
112.721724
 51
130.076898
  0
LINE
  5
321
100
AcDbEntity
  8
2
100
AcDbLine
 10
-281.251312
 20
229.324518
 30
0.0
 11
-278.816809
 21
229.324518
 31
0.0
  0
LINE
  5
322
100
AcDbEntity
  8
2
100
AcDbLine
 10
-229.511637
 20
229.324518
 30
0.0
 11
-227.077134
 21
229.324518
 31
0.0
  0
ARC
  5
323
100
AcDbEntity
  8
2
100
AcDbCircle
 10
-232.664223
 20
272.824518
 30
0.0
 40
5.0
100
AcDbArc
 50
297.319072
 51
176.718933
  0
ARC
  5
324
100
AcDbEntity
  8
2
100
AcDbCircle
 10
-232.664223
 20
272.824518
 30
0.0
 40
4.25
100
AcDbArc
 50
291.364842
 51
182.673163
  0
ARC
  5
325
100
AcDbEntity
  8
2
100
AcDbCircle
 10
-232.664223
 20
272.824518
 30
0.0
 40
3.730385
100
AcDbArc
 50
285.406927
 51
188.631078
  0
ARC
  5
326
100
AcDbEntity
  8
2
100
AcDbCircle
 10
-275.664223
 20
272.824518
 30
0.0
 40
5.0
100
AcDbArc
 50
3.281067
 51
242.680928
  0
ARC
  5
327
100
AcDbEntity
  8
2
100
AcDbCircle
 10
-275.664223
 20
272.824518
 30
0.0
 40
4.25
100
AcDbArc
 50
357.326837
 51
248.635158
  0
ARC
  5
328
100
AcDbEntity
  8
2
100
AcDbCircle
 10
-275.664223
 20
272.824518
 30
0.0
 40
3.730385
100
AcDbArc
 50
351.368922
 51
254.593073
  0
LINE
  5
329
100
AcDbEntity
  8
2
100
AcDbLine
 10
-296.664223
 20
120.674518
 30
0.0
 11
-211.664223
 21
120.674518
 31
0.0
  0
ARC
  5
32A
100
AcDbEntity
  8
2
100
AcDbCircle
 10
-296.664223
 20
113.174518
 30
0.0
 40
7.5
100
AcDbArc
 50
90.0
 51
270.0
  0
LINE
  5
32B
100
AcDbEntity
  8
2
100
AcDbLine
 10
-242.164223
 20
105.674518
 30
0.0
 11
-266.164223
 21
105.674518
 31
0.0
  0
ARC
  5
32C
100
AcDbEntity
  8
2
100
AcDbCircle
 10
-253.101723
 20
113.174518
 30
0.0
 40
15.0625
100
AcDbArc
 50
203.47446
 51
209.862834
  0
ARC
  5
32D
100
AcDbEntity
  8
2
100
AcDbCircle
 10
-255.226723
 20
113.174518
 30
0.0
 40
15.0625
100
AcDbArc
 50
330.137166
 51
336.544162
  0
LINE
  5
32E
100
AcDbEntity
  8
2
100
AcDbLine
 10
-250.964339
 20
113.174518
 30
0.0
 11
-257.364107
 21
113.174518
 31
0.0
  0
LINE
  5
32F
100
AcDbEntity
  8
2
100
AcDbLine
 10
-252.513876
 20
107.174518
 30
0.0
 11
-255.814571
 21
107.174518
 31
0.0
  0
LINE
  5
330
100
AcDbEntity
  8
2
100
AcDbLine
 10
-266.512361
 20
113.174518
 30
0.0
 11
-272.383036
 21
113.174518
 31
0.0
  0
LINE
  5
331
100
AcDbEntity
  8
2
100
AcDbLine
 10
-265.755161
 20
107.174518
 30
0.0
 11
-271.683948
 21
107.174518
 31
0.0
  0
ARC
  5
332
100
AcDbEntity
  8
2
100
AcDbCircle
 10
-205.139037
 20
112.866834
 30
0.0
 40
54.252482
100
AcDbArc
 50
181.85598
 51
187.294014
  0
ARC
  5
333
100
AcDbEntity
  8
2
100
AcDbCircle
 10
-303.189409
 20
112.866834
 30
0.0
 40
54.252482
100
AcDbArc
 50
352.705986
 51
358.14402
  0
ARC
  5
334
100
AcDbEntity
  8
2
100
AcDbCircle
 10
-257.364107
 20
111.174518
 30
0.0
 40
2.0
100
AcDbArc
 50
90.0
 51
181.85598
  0
ARC
  5
335
100
AcDbEntity
  8
2
100
AcDbCircle
 10
-250.964339
 20
111.174518
 30
0.0
 40
2.0
100
AcDbArc
 50
358.14402
 51
90.0
  0
ARC
  5
336
100
AcDbEntity
  8
2
100
AcDbCircle
 10
-255.814571
 20
104.174518
 30
0.0
 40
3.0
100
AcDbArc
 50
90.0
 51
146.491844
  0
ARC
  5
337
100
AcDbEntity
  8
2
100
AcDbCircle
 10
-258.606683
 20
106.023148
 30
0.0
 40
0.34863
100
AcDbArc
 50
187.294014
 51
326.491844
  0
ARC
  5
338
100
AcDbEntity
  8
2
100
AcDbCircle
 10
-252.513876
 20
104.174518
 30
0.0
 40
3.0
100
AcDbArc
 50
33.508156
 51
90.0
  0
ARC
  5
339
100
AcDbEntity
  8
2
100
AcDbCircle
 10
-249.721763
 20
106.023148
 30
0.0
 40
0.34863
100
AcDbArc
 50
213.508156
 51
352.705986
  0
ARC
  5
33A
100
AcDbEntity
  8
2
100
AcDbCircle
 10
-259.856246
 20
112.914899
 30
0.0
 40
14.64711
100
AcDbArc
 50
187.909628
 51
204.857013
  0
ARC
  5
33B
100
AcDbEntity
  8
2
100
AcDbCircle
 10
-236.997269
 20
112.876882
 30
0.0
 40
27.564145
100
AcDbArc
 50
183.301036
 51
193.87463
  0
ARC
  5
33C
100
AcDbEntity
  8
2
100
AcDbCircle
 10
-266.512361
 20
111.174518
 30
0.0
 40
2.0
100
AcDbArc
 50
3.301036
 51
90.0
  0
ARC
  5
33D
100
AcDbEntity
  8
2
100
AcDbCircle
 10
-272.383036
 20
111.174518
 30
0.0
 40
2.0
100
AcDbArc
 50
90.0
 51
187.909628
  0
ARC
  5
33E
100
AcDbEntity
  8
2
100
AcDbCircle
 10
-271.450531
 20
107.543581
 30
0.0
 40
1.869063
100
AcDbArc
 50
204.857013
 51
316.21672
  0
ARC
  5
33F
100
AcDbEntity
  8
2
100
AcDbCircle
 10
-263.00047
 20
106.453958
 30
0.0
 40
0.779441
100
AcDbArc
 50
193.87463
 51
270.0
  0
ARC
  5
340
100
AcDbEntity
  8
2
100
AcDbCircle
 10
-267.935251
 20
104.174518
 30
0.0
 40
3.0
100
AcDbArc
 50
90.0
 51
136.21672
  0
ARC
  5
341
100
AcDbEntity
  8
2
100
AcDbCircle
 10
-265.755161
 20
104.674518
 30
0.0
 40
2.5
100
AcDbArc
 50
32.861145
 51
90.0
  0
ARC
  5
342
100
AcDbEntity
  8
2
100
AcDbCircle
 10
-277.938549
 20
113.002718
 30
0.0
 40
9.683729
100
AcDbArc
 50
193.764481
 51
216.405649
  0
LINE
  5
343
100
AcDbEntity
  8
2
100
AcDbLine
 10
-281.05634
 20
113.174518
 30
0.0
 11
-285.401616
 21
113.174518
 31
0.0
  0
ARC
  5
344
100
AcDbEntity
  8
2
100
AcDbCircle
 10
-266.938277
 20
112.941206
 30
0.0
 40
12.228172
100
AcDbArc
 50
187.132729
 51
209.31396
  0
ARC
  5
345
100
AcDbEntity
  8
2
100
AcDbCircle
 10
-285.401616
 20
111.174518
 30
0.0
 40
2.0
100
AcDbArc
 50
90.0
 51
193.764481
  0
ARC
  5
346
100
AcDbEntity
  8
2
100
AcDbCircle
 10
-281.05634
 20
111.174518
 30
0.0
 40
2.0
100
AcDbArc
 50
7.132729
 51
90.0
  0
LINE
  5
347
100
AcDbEntity
  8
2
100
AcDbLine
 10
-277.721296
 20
107.174518
 30
0.0
 11
-283.68359
 21
107.174518
 31
0.0
  0
ARC
  5
348
100
AcDbEntity
  8
2
100
AcDbCircle
 10
-282.602274
 20
109.563613
 30
0.0
 40
3.889096
100
AcDbArc
 50
216.405649
 51
308.53161
  0
ARC
  5
349
100
AcDbEntity
  8
2
100
AcDbCircle
 10
-275.414223
 20
108.182011
 30
0.0
 40
2.507493
100
AcDbArc
 50
209.31396
 51
270.0
  0
ARC
  5
34A
100
AcDbEntity
  8
2
100
AcDbCircle
 10
-278.310737
 20
104.174518
 30
0.0
 40
3.0
100
AcDbArc
 50
90.0
 51
128.53161
  0
LINE
  5
34B
100
AcDbEntity
  8
2
100
AcDbLine
 10
-271.450531
 20
105.674518
 30
0.0
 11
-275.414223
 21
105.674518
 31
0.0
  0
ARC
  5
34C
100
AcDbEntity
  8
2
100
AcDbCircle
 10
-289.339106
 20
113.096747
 30
0.0
 40
8.126759
100
AcDbArc
 50
192.393185
 51
223.280016
  0
ARC
  5
34D
100
AcDbEntity
  8
2
100
AcDbCircle
 10
-282.343442
 20
113.035235
 30
0.0
 40
8.979103
100
AcDbArc
 50
187.460956
 51
219.149456
  0
LINE
  5
34E
100
AcDbEntity
  8
2
100
AcDbLine
 10
-292.733824
 20
113.174517
 30
0.0
 11
-295.811448
 21
113.174517
 31
0.0
  0
LINE
  5
34F
100
AcDbEntity
  8
2
100
AcDbLine
 10
-300.79083
 20
113.174517
 30
0.0
 11
-301.997303
 21
113.174505
 31
0.0
  0
LINE
  5
350
100
AcDbEntity
  8
2
100
AcDbLine
 10
-289.141604
 20
107.174518
 30
0.0
 11
-292.312511
 21
107.174518
 31
0.0
  0
ARC
  5
351
100
AcDbEntity
  8
2
100
AcDbCircle
 10
-290.970303
 20
111.560659
 30
0.0
 40
5.886141
100
AcDbArc
 50
223.280016
 51
298.241155
  0
ARC
  5
352
100
AcDbEntity
  8
2
100
AcDbCircle
 10
-285.747878
 20
110.263641
 30
0.0
 40
4.589124
100
AcDbArc
 50
219.149456
 51
270.0
  0
LINE
  5
353
100
AcDbEntity
  8
2
100
AcDbLine
 10
-282.602274
 20
105.674518
 30
0.0
 11
-285.747878
 21
105.674518
 31
0.0
  0
ARC
  5
354
100
AcDbEntity
  8
2
100
AcDbCircle
 10
-295.485778
 20
113.16107
 30
0.0
 40
7.585837
100
AcDbArc
 50
188.615288
 51
226.635861
  0
ARC
  5
355
100
AcDbEntity
  8
2
100
AcDbCircle
 10
-291.966628
 20
113.123054
 30
0.0
 40
7.875036
100
AcDbArc
 50
186.135312
 51
224.747415
  0
ARC
  5
356
100
AcDbEntity
  8
2
100
AcDbCircle
 10
-292.733824
 20
111.674518
 30
0.0
 40
1.5
100
AcDbArc
 50
7.460956
 51
90.0
  0
ARC
  5
357
100
AcDbEntity
  8
2
100
AcDbCircle
 10
-295.811448
 20
111.674517
 30
0.0
 40
1.5
100
AcDbArc
 50
90.0
 51
192.393185
  0
ARC
  5
358
100
AcDbEntity
  8
2
100
AcDbCircle
 10
-300.79083
 20
112.174518
 30
0.0
 40
1.0
100
AcDbArc
 50
6.135312
 51
90.0
  0
ARC
  5
359
100
AcDbEntity
  8
2
100
AcDbCircle
 10
-301.997303
 20
112.174517
 30
0.0
 40
1.0
100
AcDbArc
 50
90.0
 51
188.615288
  0
ARC
  5
35A
100
AcDbEntity
  8
2
100
AcDbCircle
 10
-295.735496
 20
112.896669
 30
0.0
 40
7.222152
100
AcDbArc
 50
226.635861
 51
281.281293
  0
ARC
  5
35B
100
AcDbEntity
  8
2
100
AcDbCircle
 10
-292.989905
 20
112.108759
 30
0.0
 40
6.434241
100
AcDbArc
 50
224.747415
 51
270.0
  0
LINE
  5
35C
100
AcDbEntity
  8
2
100
AcDbLine
 10
-290.970303
 20
105.674518
 30
0.0
 11
-292.989905
 21
105.674518
 31
0.0
  0
LINE
  5
35D
100
AcDbEntity
  8
2
100
AcDbLine
 10
-295.735496
 20
105.674518
 30
0.0
 11
-296.664223
 21
105.674518
 31
0.0
  0
ARC
  5
35E
100
AcDbEntity
  8
2
100
AcDbCircle
 10
-211.664223
 20
113.174518
 30
0.0
 40
7.5
100
AcDbArc
 50
270.0
 51
90.0
  0
LINE
  5
35F
100
AcDbEntity
  8
2
100
AcDbLine
 10
-241.816085
 20
113.174518
 30
0.0
 11
-235.94541
 21
113.174518
 31
0.0
  0
LINE
  5
360
100
AcDbEntity
  8
2
100
AcDbLine
 10
-242.573285
 20
107.174518
 30
0.0
 11
-236.644498
 21
107.174518
 31
0.0
  0
ARC
  5
361
100
AcDbEntity
  8
2
100
AcDbCircle
 10
-248.4722
 20
112.914899
 30
0.0
 40
14.64711
100
AcDbArc
 50
335.142987
 51
352.090372
  0
ARC
  5
362
100
AcDbEntity
  8
2
100
AcDbCircle
 10
-271.331177
 20
112.876882
 30
0.0
 40
27.564145
100
AcDbArc
 50
346.12537
 51
356.698964
  0
ARC
  5
363
100
AcDbEntity
  8
2
100
AcDbCircle
 10
-241.816085
 20
111.174518
 30
0.0
 40
2.0
100
AcDbArc
 50
90.0
 51
176.698964
  0
ARC
  5
364
100
AcDbEntity
  8
2
100
AcDbCircle
 10
-235.94541
 20
111.174518
 30
0.0
 40
2.0
100
AcDbArc
 50
352.090372
 51
90.0
  0
ARC
  5
365
100
AcDbEntity
  8
2
100
AcDbCircle
 10
-236.877916
 20
107.543581
 30
0.0
 40
1.869063
100
AcDbArc
 50
223.78328
 51
335.142987
  0
ARC
  5
366
100
AcDbEntity
  8
2
100
AcDbCircle
 10
-245.327976
 20
106.453958
 30
0.0
 40
0.779441
100
AcDbArc
 50
270.0
 51
346.12537
  0
ARC
  5
367
100
AcDbEntity
  8
2
100
AcDbCircle
 10
-240.393195
 20
104.174518
 30
0.0
 40
3.0
100
AcDbArc
 50
43.78328
 51
90.0
  0
ARC
  5
368
100
AcDbEntity
  8
2
100
AcDbCircle
 10
-242.573285
 20
104.674518
 30
0.0
 40
2.5
100
AcDbArc
 50
90.0
 51
147.138855
  0
ARC
  5
369
100
AcDbEntity
  8
2
100
AcDbCircle
 10
-230.389898
 20
113.002718
 30
0.0
 40
9.683729
100
AcDbArc
 50
323.594351
 51
346.235519
  0
LINE
  5
36A
100
AcDbEntity
  8
2
100
AcDbLine
 10
-227.272107
 20
113.174518
 30
0.0
 11
-222.92683
 21
113.174518
 31
0.0
  0
ARC
  5
36B
100
AcDbEntity
  8
2
100
AcDbCircle
 10
-241.390169
 20
112.941206
 30
0.0
 40
12.228172
100
AcDbArc
 50
330.68604
 51
352.867271
  0
ARC
  5
36C
100
AcDbEntity
  8
2
100
AcDbCircle
 10
-222.92683
 20
111.174518
 30
0.0
 40
2.0
100
AcDbArc
 50
346.235519
 51
90.0
  0
ARC
  5
36D
100
AcDbEntity
  8
2
100
AcDbCircle
 10
-227.272107
 20
111.174518
 30
0.0
 40
2.0
100
AcDbArc
 50
90.0
 51
172.867271
  0
LINE
  5
36E
100
AcDbEntity
  8
2
100
AcDbLine
 10
-230.60715
 20
107.174518
 30
0.0
 11
-224.644856
 21
107.174518
 31
0.0
  0
ARC
  5
36F
100
AcDbEntity
  8
2
100
AcDbCircle
 10
-225.726172
 20
109.563613
 30
0.0
 40
3.889096
100
AcDbArc
 50
231.46839
 51
323.594351
  0
ARC
  5
370
100
AcDbEntity
  8
2
100
AcDbCircle
 10
-232.914223
 20
108.182011
 30
0.0
 40
2.507493
100
AcDbArc
 50
270.0
 51
330.68604
  0
ARC
  5
371
100
AcDbEntity
  8
2
100
AcDbCircle
 10
-230.017709
 20
104.174518
 30
0.0
 40
3.0
100
AcDbArc
 50
51.46839
 51
90.0
  0
LINE
  5
372
100
AcDbEntity
  8
2
100
AcDbLine
 10
-236.877916
 20
105.674518
 30
0.0
 11
-232.914223
 21
105.674518
 31
0.0
  0
ARC
  5
373
100
AcDbEntity
  8
2
100
AcDbCircle
 10
-218.98934
 20
113.096747
 30
0.0
 40
8.126759
100
AcDbArc
 50
316.719984
 51
347.606815
  0
ARC
  5
374
100
AcDbEntity
  8
2
100
AcDbCircle
 10
-225.985005
 20
113.035235
 30
0.0
 40
8.979103
100
AcDbArc
 50
320.850544
 51
352.539044
  0
LINE
  5
375
100
AcDbEntity
  8
2
100
AcDbLine
 10
-215.594622
 20
113.174517
 30
0.0
 11
-212.516999
 21
113.174517
 31
0.0
  0
LINE
  5
376
100
AcDbEntity
  8
2
100
AcDbLine
 10
-207.537616
 20
113.174517
 30
0.0
 11
-206.331143
 21
113.174505
 31
0.0
  0
LINE
  5
377
100
AcDbEntity
  8
2
100
AcDbLine
 10
-219.186843
 20
107.174518
 30
0.0
 11
-216.015935
 21
107.174518
 31
0.0
  0
ARC
  5
378
100
AcDbEntity
  8
2
100
AcDbCircle
 10
-217.358144
 20
111.560659
 30
0.0
 40
5.886141
100
AcDbArc
 50
241.758845
 51
316.719984
  0
ARC
  5
379
100
AcDbEntity
  8
2
100
AcDbCircle
 10
-222.580568
 20
110.263641
 30
0.0
 40
4.589124
100
AcDbArc
 50
270.0
 51
320.850544
  0
LINE
  5
37A
100
AcDbEntity
  8
2
100
AcDbLine
 10
-225.726172
 20
105.674518
 30
0.0
 11
-222.580568
 21
105.674518
 31
0.0
  0
ARC
  5
37B
100
AcDbEntity
  8
2
100
AcDbCircle
 10
-212.842668
 20
113.16107
 30
0.0
 40
7.585837
100
AcDbArc
 50
313.364139
 51
351.384712
  0
ARC
  5
37C
100
AcDbEntity
  8
2
100
AcDbCircle
 10
-216.361819
 20
113.123054
 30
0.0
 40
7.875036
100
AcDbArc
 50
315.252585
 51
353.864688
  0
ARC
  5
37D
100
AcDbEntity
  8
2
100
AcDbCircle
 10
-215.594622
 20
111.674518
 30
0.0
 40
1.5
100
AcDbArc
 50
90.0
 51
172.539044
  0
ARC
  5
37E
100
AcDbEntity
  8
2
100
AcDbCircle
 10
-212.516999
 20
111.674517
 30
0.0
 40
1.5
100
AcDbArc
 50
347.606815
 51
90.0
  0
ARC
  5
37F
100
AcDbEntity
  8
2
100
AcDbCircle
 10
-207.537616
 20
112.174518
 30
0.0
 40
1.0
100
AcDbArc
 50
90.0
 51
173.864688
  0
ARC
  5
380
100
AcDbEntity
  8
2
100
AcDbCircle
 10
-206.331143
 20
112.174517
 30
0.0
 40
1.0
100
AcDbArc
 50
351.384712
 51
90.0
  0
ARC
  5
381
100
AcDbEntity
  8
2
100
AcDbCircle
 10
-212.59295
 20
112.896669
 30
0.0
 40
7.222152
100
AcDbArc
 50
258.718707
 51
313.364139
  0
ARC
  5
382
100
AcDbEntity
  8
2
100
AcDbCircle
 10
-215.338541
 20
112.108759
 30
0.0
 40
6.434241
100
AcDbArc
 50
270.0
 51
315.252585
  0
LINE
  5
383
100
AcDbEntity
  8
2
100
AcDbLine
 10
-217.358144
 20
105.674518
 30
0.0
 11
-215.338541
 21
105.674518
 31
0.0
  0
LINE
  5
384
100
AcDbEntity
  8
2
100
AcDbLine
 10
-212.59295
 20
105.674518
 30
0.0
 11
-211.664223
 21
105.674518
 31
0.0
  0
LINE
  5
385
100
AcDbEntity
  8
2
100
AcDbLine
 10
26.885777
 20
120.674518
 30
0.0
 11
111.885777
 21
120.674518
 31
0.0
  0
ARC
  5
386
100
AcDbEntity
  8
2
100
AcDbCircle
 10
26.885777
 20
113.174518
 30
0.0
 40
7.5
100
AcDbArc
 50
90.0
 51
270.0
  0
LINE
  5
387
100
AcDbEntity
  8
2
100
AcDbLine
 10
81.385777
 20
105.674518
 30
0.0
 11
57.385777
 21
105.674518
 31
0.0
  0
ARC
  5
388
100
AcDbEntity
  8
2
100
AcDbCircle
 10
70.448277
 20
113.174518
 30
0.0
 40
15.0625
100
AcDbArc
 50
203.47446
 51
209.862834
  0
ARC
  5
389
100
AcDbEntity
  8
2
100
AcDbCircle
 10
68.323277
 20
113.174518
 30
0.0
 40
15.0625
100
AcDbArc
 50
330.137166
 51
336.544162
  0
LINE
  5
38A
100
AcDbEntity
  8
2
100
AcDbLine
 10
72.585661
 20
113.174518
 30
0.0
 11
66.185893
 21
113.174518
 31
0.0
  0
LINE
  5
38B
100
AcDbEntity
  8
2
100
AcDbLine
 10
71.036124
 20
107.174518
 30
0.0
 11
67.735429
 21
107.174518
 31
0.0
  0
LINE
  5
38C
100
AcDbEntity
  8
2
100
AcDbLine
 10
57.037639
 20
113.174518
 30
0.0
 11
51.166964
 21
113.174518
 31
0.0
  0
LINE
  5
38D
100
AcDbEntity
  8
2
100
AcDbLine
 10
57.794839
 20
107.174518
 30
0.0
 11
51.866052
 21
107.174518
 31
0.0
  0
ARC
  5
38E
100
AcDbEntity
  8
2
100
AcDbCircle
 10
118.410963
 20
112.866834
 30
0.0
 40
54.252482
100
AcDbArc
 50
181.85598
 51
187.294014
  0
ARC
  5
38F
100
AcDbEntity
  8
2
100
AcDbCircle
 10
20.360591
 20
112.866834
 30
0.0
 40
54.252482
100
AcDbArc
 50
352.705986
 51
358.14402
  0
ARC
  5
390
100
AcDbEntity
  8
2
100
AcDbCircle
 10
66.185893
 20
111.174518
 30
0.0
 40
2.0
100
AcDbArc
 50
90.0
 51
181.85598
  0
ARC
  5
391
100
AcDbEntity
  8
2
100
AcDbCircle
 10
72.585661
 20
111.174518
 30
0.0
 40
2.0
100
AcDbArc
 50
358.14402
 51
90.0
  0
ARC
  5
392
100
AcDbEntity
  8
2
100
AcDbCircle
 10
67.735429
 20
104.174518
 30
0.0
 40
3.0
100
AcDbArc
 50
90.0
 51
146.491844
  0
ARC
  5
393
100
AcDbEntity
  8
2
100
AcDbCircle
 10
64.943317
 20
106.023148
 30
0.0
 40
0.34863
100
AcDbArc
 50
187.294014
 51
326.491844
  0
ARC
  5
394
100
AcDbEntity
  8
2
100
AcDbCircle
 10
71.036124
 20
104.174518
 30
0.0
 40
3.0
100
AcDbArc
 50
33.508156
 51
90.0
  0
ARC
  5
395
100
AcDbEntity
  8
2
100
AcDbCircle
 10
73.828237
 20
106.023148
 30
0.0
 40
0.34863
100
AcDbArc
 50
213.508156
 51
352.705986
  0
ARC
  5
396
100
AcDbEntity
  8
2
100
AcDbCircle
 10
63.693754
 20
112.914899
 30
0.0
 40
14.64711
100
AcDbArc
 50
187.909628
 51
204.857013
  0
ARC
  5
397
100
AcDbEntity
  8
2
100
AcDbCircle
 10
86.552731
 20
112.876882
 30
0.0
 40
27.564145
100
AcDbArc
 50
183.301036
 51
193.87463
  0
ARC
  5
398
100
AcDbEntity
  8
2
100
AcDbCircle
 10
57.037639
 20
111.174518
 30
0.0
 40
2.0
100
AcDbArc
 50
3.301036
 51
90.0
  0
ARC
  5
399
100
AcDbEntity
  8
2
100
AcDbCircle
 10
51.166964
 20
111.174518
 30
0.0
 40
2.0
100
AcDbArc
 50
90.0
 51
187.909628
  0
ARC
  5
39A
100
AcDbEntity
  8
2
100
AcDbCircle
 10
52.099469
 20
107.543581
 30
0.0
 40
1.869063
100
AcDbArc
 50
204.857013
 51
316.21672
  0
ARC
  5
39B
100
AcDbEntity
  8
2
100
AcDbCircle
 10
60.54953
 20
106.453958
 30
0.0
 40
0.779441
100
AcDbArc
 50
193.87463
 51
270.0
  0
ARC
  5
39C
100
AcDbEntity
  8
2
100
AcDbCircle
 10
55.614749
 20
104.174518
 30
0.0
 40
3.0
100
AcDbArc
 50
90.0
 51
136.21672
  0
ARC
  5
39D
100
AcDbEntity
  8
2
100
AcDbCircle
 10
57.794839
 20
104.674518
 30
0.0
 40
2.5
100
AcDbArc
 50
32.861145
 51
90.0
  0
ARC
  5
39E
100
AcDbEntity
  8
2
100
AcDbCircle
 10
45.611451
 20
113.002718
 30
0.0
 40
9.683729
100
AcDbArc
 50
193.764481
 51
216.405649
  0
LINE
  5
39F
100
AcDbEntity
  8
2
100
AcDbLine
 10
42.49366
 20
113.174518
 30
0.0
 11
38.148384
 21
113.174518
 31
0.0
  0
ARC
  5
3A0
100
AcDbEntity
  8
2
100
AcDbCircle
 10
56.611723
 20
112.941206
 30
0.0
 40
12.228172
100
AcDbArc
 50
187.132729
 51
209.31396
  0
ARC
  5
3A1
100
AcDbEntity
  8
2
100
AcDbCircle
 10
38.148384
 20
111.174518
 30
0.0
 40
2.0
100
AcDbArc
 50
90.0
 51
193.764481
  0
ARC
  5
3A2
100
AcDbEntity
  8
2
100
AcDbCircle
 10
42.49366
 20
111.174518
 30
0.0
 40
2.0
100
AcDbArc
 50
7.132729
 51
90.0
  0
LINE
  5
3A3
100
AcDbEntity
  8
2
100
AcDbLine
 10
45.828704
 20
107.174518
 30
0.0
 11
39.86641
 21
107.174518
 31
0.0
  0
ARC
  5
3A4
100
AcDbEntity
  8
2
100
AcDbCircle
 10
40.947726
 20
109.563613
 30
0.0
 40
3.889096
100
AcDbArc
 50
216.405649
 51
308.53161
  0
ARC
  5
3A5
100
AcDbEntity
  8
2
100
AcDbCircle
 10
48.135777
 20
108.182011
 30
0.0
 40
2.507493
100
AcDbArc
 50
209.31396
 51
270.0
  0
ARC
  5
3A6
100
AcDbEntity
  8
2
100
AcDbCircle
 10
45.239263
 20
104.174518
 30
0.0
 40
3.0
100
AcDbArc
 50
90.0
 51
128.53161
  0
LINE
  5
3A7
100
AcDbEntity
  8
2
100
AcDbLine
 10
52.099469
 20
105.674518
 30
0.0
 11
48.135777
 21
105.674518
 31
0.0
  0
ARC
  5
3A8
100
AcDbEntity
  8
2
100
AcDbCircle
 10
34.210894
 20
113.096747
 30
0.0
 40
8.126759
100
AcDbArc
 50
192.393185
 51
223.280016
  0
ARC
  5
3A9
100
AcDbEntity
  8
2
100
AcDbCircle
 10
41.206558
 20
113.035235
 30
0.0
 40
8.979103
100
AcDbArc
 50
187.460956
 51
219.149456
  0
LINE
  5
3AA
100
AcDbEntity
  8
2
100
AcDbLine
 10
30.816176
 20
113.174517
 30
0.0
 11
27.738552
 21
113.174517
 31
0.0
  0
LINE
  5
3AB
100
AcDbEntity
  8
2
100
AcDbLine
 10
22.75917
 20
113.174517
 30
0.0
 11
21.552697
 21
113.174505
 31
0.0
  0
LINE
  5
3AC
100
AcDbEntity
  8
2
100
AcDbLine
 10
34.408396
 20
107.174518
 30
0.0
 11
31.237489
 21
107.174518
 31
0.0
  0
ARC
  5
3AD
100
AcDbEntity
  8
2
100
AcDbCircle
 10
32.579697
 20
111.560659
 30
0.0
 40
5.886141
100
AcDbArc
 50
223.280016
 51
298.241155
  0
ARC
  5
3AE
100
AcDbEntity
  8
2
100
AcDbCircle
 10
37.802122
 20
110.263641
 30
0.0
 40
4.589124
100
AcDbArc
 50
219.149456
 51
270.0
  0
LINE
  5
3AF
100
AcDbEntity
  8
2
100
AcDbLine
 10
40.947726
 20
105.674518
 30
0.0
 11
37.802122
 21
105.674518
 31
0.0
  0
ARC
  5
3B0
100
AcDbEntity
  8
2
100
AcDbCircle
 10
28.064222
 20
113.16107
 30
0.0
 40
7.585837
100
AcDbArc
 50
188.615288
 51
226.635861
  0
ARC
  5
3B1
100
AcDbEntity
  8
2
100
AcDbCircle
 10
31.583372
 20
113.123054
 30
0.0
 40
7.875036
100
AcDbArc
 50
186.135312
 51
224.747415
  0
ARC
  5
3B2
100
AcDbEntity
  8
2
100
AcDbCircle
 10
30.816176
 20
111.674518
 30
0.0
 40
1.5
100
AcDbArc
 50
7.460956
 51
90.0
  0
ARC
  5
3B3
100
AcDbEntity
  8
2
100
AcDbCircle
 10
27.738552
 20
111.674517
 30
0.0
 40
1.5
100
AcDbArc
 50
90.0
 51
192.393185
  0
ARC
  5
3B4
100
AcDbEntity
  8
2
100
AcDbCircle
 10
22.75917
 20
112.174518
 30
0.0
 40
1.0
100
AcDbArc
 50
6.135312
 51
90.0
  0
ARC
  5
3B5
100
AcDbEntity
  8
2
100
AcDbCircle
 10
21.552697
 20
112.174517
 30
0.0
 40
1.0
100
AcDbArc
 50
90.0
 51
188.615288
  0
ARC
  5
3B6
100
AcDbEntity
  8
2
100
AcDbCircle
 10
27.814504
 20
112.896669
 30
0.0
 40
7.222152
100
AcDbArc
 50
226.635861
 51
281.281293
  0
ARC
  5
3B7
100
AcDbEntity
  8
2
100
AcDbCircle
 10
30.560095
 20
112.108759
 30
0.0
 40
6.434241
100
AcDbArc
 50
224.747415
 51
270.0
  0
LINE
  5
3B8
100
AcDbEntity
  8
2
100
AcDbLine
 10
32.579697
 20
105.674518
 30
0.0
 11
30.560095
 21
105.674518
 31
0.0
  0
LINE
  5
3B9
100
AcDbEntity
  8
2
100
AcDbLine
 10
27.814504
 20
105.674518
 30
0.0
 11
26.885777
 21
105.674518
 31
0.0
  0
ARC
  5
3BA
100
AcDbEntity
  8
2
100
AcDbCircle
 10
111.885777
 20
113.174518
 30
0.0
 40
7.5
100
AcDbArc
 50
270.0
 51
90.0
  0
LINE
  5
3BB
100
AcDbEntity
  8
2
100
AcDbLine
 10
81.733915
 20
113.174518
 30
0.0
 11
87.60459
 21
113.174518
 31
0.0
  0
LINE
  5
3BC
100
AcDbEntity
  8
2
100
AcDbLine
 10
80.976715
 20
107.174518
 30
0.0
 11
86.905502
 21
107.174518
 31
0.0
  0
ARC
  5
3BD
100
AcDbEntity
  8
2
100
AcDbCircle
 10
75.0778
 20
112.914899
 30
0.0
 40
14.64711
100
AcDbArc
 50
335.142987
 51
352.090372
  0
ARC
  5
3BE
100
AcDbEntity
  8
2
100
AcDbCircle
 10
52.218823
 20
112.876882
 30
0.0
 40
27.564145
100
AcDbArc
 50
346.12537
 51
356.698964
  0
ARC
  5
3BF
100
AcDbEntity
  8
2
100
AcDbCircle
 10
81.733915
 20
111.174518
 30
0.0
 40
2.0
100
AcDbArc
 50
90.0
 51
176.698964
  0
ARC
  5
3C0
100
AcDbEntity
  8
2
100
AcDbCircle
 10
87.60459
 20
111.174518
 30
0.0
 40
2.0
100
AcDbArc
 50
352.090372
 51
90.0
  0
ARC
  5
3C1
100
AcDbEntity
  8
2
100
AcDbCircle
 10
86.672084
 20
107.543581
 30
0.0
 40
1.869063
100
AcDbArc
 50
223.78328
 51
335.142987
  0
ARC
  5
3C2
100
AcDbEntity
  8
2
100
AcDbCircle
 10
78.222024
 20
106.453958
 30
0.0
 40
0.779441
100
AcDbArc
 50
270.0
 51
346.12537
  0
ARC
  5
3C3
100
AcDbEntity
  8
2
100
AcDbCircle
 10
83.156805
 20
104.174518
 30
0.0
 40
3.0
100
AcDbArc
 50
43.78328
 51
90.0
  0
ARC
  5
3C4
100
AcDbEntity
  8
2
100
AcDbCircle
 10
80.976715
 20
104.674518
 30
0.0
 40
2.5
100
AcDbArc
 50
90.0
 51
147.138855
  0
ARC
  5
3C5
100
AcDbEntity
  8
2
100
AcDbCircle
 10
93.160102
 20
113.002718
 30
0.0
 40
9.683729
100
AcDbArc
 50
323.594351
 51
346.235519
  0
LINE
  5
3C6
100
AcDbEntity
  8
2
100
AcDbLine
 10
96.277893
 20
113.174518
 30
0.0
 11
100.62317
 21
113.174518
 31
0.0
  0
ARC
  5
3C7
100
AcDbEntity
  8
2
100
AcDbCircle
 10
82.159831
 20
112.941206
 30
0.0
 40
12.228172
100
AcDbArc
 50
330.68604
 51
352.867271
  0
ARC
  5
3C8
100
AcDbEntity
  8
2
100
AcDbCircle
 10
100.62317
 20
111.174518
 30
0.0
 40
2.0
100
AcDbArc
 50
346.235519
 51
90.0
  0
ARC
  5
3C9
100
AcDbEntity
  8
2
100
AcDbCircle
 10
96.277893
 20
111.174518
 30
0.0
 40
2.0
100
AcDbArc
 50
90.0
 51
172.867271
  0
LINE
  5
3CA
100
AcDbEntity
  8
2
100
AcDbLine
 10
92.94285
 20
107.174518
 30
0.0
 11
98.905144
 21
107.174518
 31
0.0
  0
ARC
  5
3CB
100
AcDbEntity
  8
2
100
AcDbCircle
 10
97.823828
 20
109.563613
 30
0.0
 40
3.889096
100
AcDbArc
 50
231.46839
 51
323.594351
  0
ARC
  5
3CC
100
AcDbEntity
  8
2
100
AcDbCircle
 10
90.635777
 20
108.182011
 30
0.0
 40
2.507493
100
AcDbArc
 50
270.0
 51
330.68604
  0
ARC
  5
3CD
100
AcDbEntity
  8
2
100
AcDbCircle
 10
93.532291
 20
104.174518
 30
0.0
 40
3.0
100
AcDbArc
 50
51.46839
 51
90.0
  0
LINE
  5
3CE
100
AcDbEntity
  8
2
100
AcDbLine
 10
86.672084
 20
105.674518
 30
0.0
 11
90.635777
 21
105.674518
 31
0.0
  0
ARC
  5
3CF
100
AcDbEntity
  8
2
100
AcDbCircle
 10
104.56066
 20
113.096747
 30
0.0
 40
8.126759
100
AcDbArc
 50
316.719984
 51
347.606815
  0
ARC
  5
3D0
100
AcDbEntity
  8
2
100
AcDbCircle
 10
97.564995
 20
113.035235
 30
0.0
 40
8.979103
100
AcDbArc
 50
320.850544
 51
352.539044
  0
LINE
  5
3D1
100
AcDbEntity
  8
2
100
AcDbLine
 10
107.955378
 20
113.174517
 30
0.0
 11
111.033001
 21
113.174517
 31
0.0
  0
LINE
  5
3D2
100
AcDbEntity
  8
2
100
AcDbLine
 10
116.012384
 20
113.174517
 30
0.0
 11
117.218857
 21
113.174505
 31
0.0
  0
LINE
  5
3D3
100
AcDbEntity
  8
2
100
AcDbLine
 10
104.363157
 20
107.174518
 30
0.0
 11
107.534065
 21
107.174518
 31
0.0
  0
ARC
  5
3D4
100
AcDbEntity
  8
2
100
AcDbCircle
 10
106.191856
 20
111.560659
 30
0.0
 40
5.886141
100
AcDbArc
 50
241.758845
 51
316.719984
  0
ARC
  5
3D5
100
AcDbEntity
  8
2
100
AcDbCircle
 10
100.969432
 20
110.263641
 30
0.0
 40
4.589124
100
AcDbArc
 50
270.0
 51
320.850544
  0
LINE
  5
3D6
100
AcDbEntity
  8
2
100
AcDbLine
 10
97.823828
 20
105.674518
 30
0.0
 11
100.969432
 21
105.674518
 31
0.0
  0
ARC
  5
3D7
100
AcDbEntity
  8
2
100
AcDbCircle
 10
110.707332
 20
113.16107
 30
0.0
 40
7.585837
100
AcDbArc
 50
313.364139
 51
351.384712
  0
ARC
  5
3D8
100
AcDbEntity
  8
2
100
AcDbCircle
 10
107.188181
 20
113.123054
 30
0.0
 40
7.875036
100
AcDbArc
 50
315.252585
 51
353.864688
  0
ARC
  5
3D9
100
AcDbEntity
  8
2
100
AcDbCircle
 10
107.955378
 20
111.674518
 30
0.0
 40
1.5
100
AcDbArc
 50
90.0
 51
172.539044
  0
ARC
  5
3DA
100
AcDbEntity
  8
2
100
AcDbCircle
 10
111.033001
 20
111.674517
 30
0.0
 40
1.5
100
AcDbArc
 50
347.606815
 51
90.0
  0
ARC
  5
3DB
100
AcDbEntity
  8
2
100
AcDbCircle
 10
116.012384
 20
112.174518
 30
0.0
 40
1.0
100
AcDbArc
 50
90.0
 51
173.864688
  0
ARC
  5
3DC
100
AcDbEntity
  8
2
100
AcDbCircle
 10
117.218857
 20
112.174517
 30
0.0
 40
1.0
100
AcDbArc
 50
351.384712
 51
90.0
  0
ARC
  5
3DD
100
AcDbEntity
  8
2
100
AcDbCircle
 10
110.95705
 20
112.896669
 30
0.0
 40
7.222152
100
AcDbArc
 50
258.718707
 51
313.364139
  0
ARC
  5
3DE
100
AcDbEntity
  8
2
100
AcDbCircle
 10
108.211459
 20
112.108759
 30
0.0
 40
6.434241
100
AcDbArc
 50
270.0
 51
315.252585
  0
LINE
  5
3DF
100
AcDbEntity
  8
2
100
AcDbLine
 10
106.191856
 20
105.674518
 30
0.0
 11
108.211459
 21
105.674518
 31
0.0
  0
LINE
  5
3E0
100
AcDbEntity
  8
2
100
AcDbLine
 10
110.95705
 20
105.674518
 30
0.0
 11
111.885777
 21
105.674518
 31
0.0
  0
CIRCLE
  5
3E1
100
AcDbEntity
  8
2
100
AcDbCircle
 10
-254.164223
 20
272.824518
 30
0.0
 40
50.0
  0
ARC
  5
3E2
100
AcDbEntity
  8
2
100
AcDbCircle
 10
-254.164223
 20
272.824518
 30
0.0
 40
35.0
100
AcDbArc
 50
81.988888
 51
98.777778
  0
ARC
  5
3E3
100
AcDbEntity
  8
2
100
AcDbCircle
 10
-254.164223
 20
272.824518
 30
0.0
 40
35.0
100
AcDbArc
 50
202.9
 51
218.177778
  0
ARC
  5
3E4
100
AcDbEntity
  8
2
100
AcDbCircle
 10
-254.164223
 20
272.824518
 30
0.0
 40
35.0
100
AcDbArc
 50
321.177778
 51
337.877777
  0
ARC
  5
3E5
100
AcDbEntity
  8
2
100
AcDbCircle
 10
-285.264223
 20
267.824518
 30
0.0
 40
3.5
100
AcDbArc
 50
189.166667
 51
303.011111
  0
ARC
  5
3E6
100
AcDbEntity
  8
2
100
AcDbCircle
 10
-254.164223
 20
272.824518
 30
0.0
 40
35.0
100
AcDbArc
 50
110.822222
 51
189.177778
  0
LINE
  5
3E7
100
AcDbEntity
  8
2
100
AcDbLine
 10
-269.264223
 20
274.024518
 30
0.0
 11
-283.364223
 21
264.874518
 31
0.0
  0
ARC
  5
3E8
100
AcDbEntity
  8
2
100
AcDbCircle
 10
-265.364223
 20
302.274518
 30
0.0
 40
3.5
100
AcDbArc
 50
356.988889
 51
110.833333
  0
LINE
  5
3E9
100
AcDbEntity
  8
2
100
AcDbLine
 10
-262.764223
 20
285.324518
 30
0.0
 11
-261.864223
 21
302.074518
 31
0.0
  0
ARC
  5
3EA
100
AcDbEntity
  8
2
100
AcDbCircle
 10
-266.264223
 20
285.474518
 30
0.0
 40
3.5
100
AcDbArc
 50
313.655555
 51
357.0
  0
ARC
  5
3EB
100
AcDbEntity
  8
2
100
AcDbCircle
 10
-254.164223
 20
272.824518
 30
0.0
 40
14.0
100
AcDbArc
 50
133.666667
 51
166.366667
  0
ARC
  5
3EC
100
AcDbEntity
  8
2
100
AcDbCircle
 10
-271.164223
 20
276.974518
 30
0.0
 40
3.5
100
AcDbArc
 50
303.0
 51
346.344444
  0
LINE
  5
3ED
100
AcDbEntity
  8
2
100
AcDbLine
 10
-260.664223
 20
259.174518
 30
0.0
 11
-275.664223
 21
251.524518
 31
0.0
  0
ARC
  5
3EE
100
AcDbEntity
  8
2
100
AcDbCircle
 10
-254.164223
 20
272.824518
 30
0.0
 40
35.0
100
AcDbArc
 50
230.822222
 51
309.355555
  0
ARC
  5
3EF
100
AcDbEntity
  8
2
100
AcDbCircle
 10
-274.064223
 20
248.424518
 30
0.0
 40
3.5
100
AcDbArc
 50
116.988889
 51
230.833333
  0
ARC
  5
3F0
100
AcDbEntity
  8
2
100
AcDbCircle
 10
-234.264223
 20
248.424518
 30
0.0
 40
3.5
100
AcDbArc
 50
309.166666
 51
63.011111
  0
LINE
  5
3F1
100
AcDbEntity
  8
2
100
AcDbLine
 10
-247.664223
 20
259.174518
 30
0.0
 11
-232.664223
 21
251.524518
 31
0.0
  0
ARC
  5
3F2
100
AcDbEntity
  8
2
100
AcDbCircle
 10
-249.264223
 20
256.024518
 30
0.0
 40
3.5
100
AcDbArc
 50
63.0
 51
106.344444
  0
ARC
  5
3F3
100
AcDbEntity
  8
2
100
AcDbCircle
 10
-254.164223
 20
272.824518
 30
0.0
 40
14.0
100
AcDbArc
 50
253.7
 51
286.3
  0
ARC
  5
3F4
100
AcDbEntity
  8
2
100
AcDbCircle
 10
-259.064223
 20
256.024518
 30
0.0
 40
3.5
100
AcDbArc
 50
73.655555
 51
117.0
  0
ARC
  5
3F5
100
AcDbEntity
  8
2
100
AcDbCircle
 10
-254.164223
 20
272.824518
 30
0.0
 40
35.0
100
AcDbArc
 50
350.822222
 51
69.177777
  0
ARC
  5
3F6
100
AcDbEntity
  8
2
100
AcDbCircle
 10
-242.964223
 20
302.274518
 30
0.0
 40
3.5
100
AcDbArc
 50
69.166666
 51
183.011111
  0
LINE
  5
3F7
100
AcDbEntity
  8
2
100
AcDbLine
 10
-245.564223
 20
285.324518
 30
0.0
 11
-246.464223
 21
302.074518
 31
0.0
  0
ARC
  5
3F8
100
AcDbEntity
  8
2
100
AcDbCircle
 10
-242.064223
 20
285.474518
 30
0.0
 40
3.5
100
AcDbArc
 50
183.0
 51
226.344444
  0
ARC
  5
3F9
100
AcDbEntity
  8
2
100
AcDbCircle
 10
-254.164223
 20
272.824518
 30
0.0
 40
14.0
100
AcDbArc
 50
13.633333
 51
46.333333
  0
ARC
  5
3FA
100
AcDbEntity
  8
2
100
AcDbCircle
 10
-237.164223
 20
276.974518
 30
0.0
 40
3.5
100
AcDbArc
 50
193.655555
 51
237.0
  0
LINE
  5
3FB
100
AcDbEntity
  8
2
100
AcDbLine
 10
-239.064223
 20
274.024518
 30
0.0
 11
-224.964223
 21
264.874518
 31
0.0
  0
ARC
  5
3FC
100
AcDbEntity
  8
2
100
AcDbCircle
 10
-223.064223
 20
267.824518
 30
0.0
 40
3.5
100
AcDbArc
 50
236.988889
 51
350.833333
  0
CIRCLE
  5
3FD
100
AcDbEntity
  8
2
100
AcDbCircle
 10
-254.164223
 20
272.824518
 30
0.0
 40
12.0
  0
LINE
  5
3FE
100
AcDbEntity
  8
2
100
AcDbLine
 10
-282.449529
 20
310.360387
 30
0.0
 11
-277.635009
 21
303.971303
 31
0.0
  0
LINE
  5
3FF
100
AcDbEntity
  8
2
100
AcDbLine
 10
-225.878917
 20
310.360387
 30
0.0
 11
-230.693437
 21
303.971303
 31
0.0
  0
ARC
  5
400
100
AcDbEntity
  8
2
100
AcDbCircle
 10
-254.164223
 20
272.824518
 30
0.0
 40
47.0
100
AcDbArc
 50
53.0
 51
127.0
  0
ARC
  5
401
100
AcDbEntity
  8
2
100
AcDbCircle
 10
-254.164223
 20
272.824518
 30
0.0
 40
39.0
100
AcDbArc
 50
53.0
 51
127.0
  0
LINE
  5
402
100
AcDbEntity
  8
2
100
AcDbLine
 10
-265.293442
 20
314.359328
 30
0.0
 11
-262.750628
 21
316.997741
 31
0.0
  0
LINE
  5
403
100
AcDbEntity
  8
2
100
AcDbLine
 10
-265.293442
 20
314.359328
 30
0.0
 11
-261.987392
 21
313.071232
 31
0.0
  0
ARC
  5
404
100
AcDbEntity
  8
2
100
AcDbCircle
 10
-254.164223
 20
272.824518
 30
0.0
 40
42.0
100
AcDbArc
 50
79.000001
 51
101.000002
  0
LINE
  5
405
100
AcDbEntity
  8
2
100
AcDbLine
 10
-262.750628
 20
316.997741
 30
0.0
 11
-262.559819
 21
316.016114
 31
0.0
  0
LINE
  5
406
100
AcDbEntity
  8
2
100
AcDbLine
 10
-262.178201
 20
314.052859
 30
0.0
 11
-261.987392
 21
313.071232
 31
0.0
  0
LINE
  5
407
100
AcDbEntity
  8
2
100
AcDbLine
 10
-243.035004
 20
314.359328
 30
0.0
 11
-245.577818
 21
316.997741
 31
0.0
  0
LINE
  5
408
100
AcDbEntity
  8
2
100
AcDbLine
 10
-243.035004
 20
314.359328
 30
0.0
 11
-246.341054
 21
313.071232
 31
0.0
  0
ARC
  5
409
100
AcDbEntity
  8
2
100
AcDbCircle
 10
-254.164223
 20
272.824518
 30
0.0
 40
44.0
100
AcDbArc
 50
79.000001
 51
101.000002
  0
LINE
  5
40A
100
AcDbEntity
  8
2
100
AcDbLine
 10
-245.577818
 20
316.997741
 30
0.0
 11
-245.768627
 21
316.016114
 31
0.0
  0
LINE
  5
40B
100
AcDbEntity
  8
2
100
AcDbLine
 10
-246.150245
 20
314.052859
 30
0.0
 11
-246.341054
 21
313.071232
 31
0.0
  0
TEXT
  5
40C
100
AcDbEntity
  8
2
100
AcDbText
 10
-277.587009
 20
306.534651
 30
0.0
 40
4.0
  1
Ｏ
 50
32.0
 72
     5
 11
-274.873255
 21
308.230393
 31
0.0
100
AcDbText
  0
TEXT
  5
40D
100
AcDbEntity
  8
2
100
AcDbText
 10
-275.178452
 20
308.086426
 30
0.0
 40
4.0
  1
Ｐ
 50
28.0
 72
     5
 11
-272.35302
 21
309.588735
 31
0.0
100
AcDbText
  0
TEXT
  5
40E
100
AcDbEntity
  8
2
100
AcDbText
 10
-272.667516
 20
309.466408
 30
0.0
 40
4.0
  1
Ｅ
 50
24.0
 72
     5
 11
-269.744171
 21
310.767965
 31
0.0
100
AcDbText
  0
TEXT
  5
40F
100
AcDbEntity
  8
2
100
AcDbText
 10
-270.066434
 20
310.667875
 30
0.0
 40
4.0
  1
Ｎ
 50
20.0
 72
     5
 11
-267.059418
 21
311.762339
 31
0.0
100
AcDbText
  0
TEXT
  5
410
100
AcDbEntity
  8
2
100
AcDbText
 10
-242.020783
 20
312.035955
 30
0.0
 40
4.0
  1
Ｓ
 50
340.0
 72
     5
 11
-239.013766
 21
310.941491
 31
0.0
100
AcDbText
  0
TEXT
  5
411
100
AcDbEntity
  8
2
100
AcDbText
 10
-239.315112
 20
311.093355
 30
0.0
 40
4.0
  1
Ｈ
 50
336.0
 72
     5
 11
-236.391766
 21
309.791797
 31
0.0
100
AcDbText
  0
TEXT
  5
412
100
AcDbEntity
  8
2
100
AcDbText
 10
-236.681784
 20
309.964312
 30
0.0
 40
4.0
  1
Ｕ
 50
332.0
 72
     5
 11
-233.856352
 21
308.462003
 31
0.0
100
AcDbText
  0
TEXT
  5
413
100
AcDbEntity
  8
2
100
AcDbText
 10
-234.13363
 20
308.654328
 30
0.0
 40
4.0
  1
Ｔ
 50
328.0
 72
     5
 11
-231.419876
 21
306.958586
 31
0.0
100
AcDbText
  0
ARC
  5
414
100
AcDbEntity
  8
2
100
AcDbCircle
 10
-254.164223
 20
272.824518
 30
0.0
 40
42.5
100
AcDbArc
 50
127.0
 51
53.0
  0
CIRCLE
  5
415
100
AcDbEntity
  8
2
100
AcDbCircle
 10
-254.164223
 20
272.824518
 30
0.0
 40
10.0
  0
CIRCLE
  5
416
100
AcDbEntity
  8
2
100
AcDbCircle
 10
-254.164223
 20
272.824518
 30
0.0
 40
4.9
  0
CIRCLE
  5
417
100
AcDbEntity
  8
2
100
AcDbCircle
 10
-254.164223
 20
272.824518
 30
0.0
 40
6.1
  0
LINE
  5
418
100
AcDbEntity
  8
2
100
AcDbLine
 10
-257.050975
 20
277.824518
 30
0.0
 11
-251.277472
 21
277.824518
 31
0.0
  0
LINE
  5
419
100
AcDbEntity
  8
2
100
AcDbLine
 10
-257.050975
 20
267.824518
 30
0.0
 11
-251.277472
 21
267.824518
 31
0.0
  0
LINE
  5
41A
100
AcDbEntity
  8
2
100
AcDbLine
 10
-259.937726
 20
272.824518
 30
0.0
 11
-257.050975
 21
277.824518
 31
0.0
  0
LINE
  5
41B
100
AcDbEntity
  8
2
100
AcDbLine
 10
-251.277472
 20
267.824518
 30
0.0
 11
-248.39072
 21
272.824518
 31
0.0
  0
LINE
  5
41C
100
AcDbEntity
  8
2
100
AcDbLine
 10
-257.050975
 20
267.824518
 30
0.0
 11
-259.937726
 21
272.824518
 31
0.0
  0
LINE
  5
41D
100
AcDbEntity
  8
2
100
AcDbLine
 10
-248.39072
 20
272.824518
 30
0.0
 11
-251.277472
 21
277.824518
 31
0.0
  0
DIMENSION
  5
41E
100
AcDbEntity
  8
5
100
AcDbDimension
  2
*D0
 10
97.385777
 20
-339.709671
 30
0.0
 11
69.385777
 21
-333.259671
 31
0.0
  1
56
100
AcDbAlignedDimension
 13
41.385777
 23
-284.825482
 33
0.0
 14
97.385777
 24
-284.825482
 34
0.0
100
AcDbRotatedDimension
  0
DIMENSION
  5
41F
100
AcDbEntity
  8
5
100
AcDbDimension
  2
*D1
 10
-26.445482
 20
-195.325482
 30
0.0
 11
-38.340482
 21
-254.170482
 31
0.0
  1
117
100
AcDbAlignedDimension
 13
64.385777
 23
-312.025482
 33
0.0
 14
28.625444
 24
-195.325482
 34
0.0
 50
90.0
100
AcDbRotatedDimension
  0
DIMENSION
  5
420
100
AcDbEntity
  8
5
100
AcDbDimension
  2
*D2
 10
-26.445482
 20
-4.325482
 30
0.0
 11
-38.340482
 21
-100.320482
 31
0.0
  1
191
100
AcDbAlignedDimension
 13
28.625444
 23
-195.325482
 33
0.0
 14
18.385777
 24
-4.325482
 34
0.0
 50
90.0
100
AcDbRotatedDimension
  0
DIMENSION
  5
421
100
AcDbEntity
  8
5
100
AcDbDimension
  2
*D3
 10
-26.445482
 20
128.174518
 30
0.0
 11
-37.395482
 21
61.474518
 31
0.0
  1
133
100
AcDbAlignedDimension
 13
18.385777
 23
-4.325482
 33
0.0
 14
64.385777
 24
128.174518
 34
0.0
 50
90.0
100
AcDbRotatedDimension
  0
DIMENSION
  5
422
100
AcDbEntity
  8
5
100
AcDbDimension
  2
*D4
 10
119.385777
 20
168.591316
 30
0.0
 11
69.385777
 21
174.591316
 31
0.0
 70
     1
  1
%%c100
100
AcDbAlignedDimension
 13
19.385777
 23
113.174518
 33
0.0
 14
119.385777
 24
113.174518
 34
0.0
  0
TEXT
  5
423
100
AcDbEntity
  8
18
100
AcDbText
 10
366.506401
 20
-399.145615
 30
0.0
 40
9.0
  1
１
 72
     5
 11
373.706401
 21
-399.145615
 31
0.0
100
AcDbText
  0
TEXT
  5
424
100
AcDbEntity
  8
18
100
AcDbText
 10
380.268219
 20
-410.438507
 30
0.0
 40
9.0
  1
３
 72
     5
 11
387.468219
 21
-410.438507
 31
0.0
100
AcDbText
  0
TEXT
  5
425
100
AcDbEntity
  8
18
100
AcDbText
 10
368.562721
 20
-369.105789
 30
0.0
 40
9.0
  1
７００Ｇ－２ＧＡＳ　１２５Ａ
 72
     5
 11
492.762721
 21
-369.105789
 31
0.0
100
AcDbText
  0
TEXT
  5
426
100
AcDbEntity
  8
18
100
AcDbText
 10
368.562721
 20
-381.105789
 30
0.0
 40
9.0
  1
標準仕様　ＪＩＳ　５，１０Ｋ
 72
     5
 11
492.762721
 21
-381.105789
 31
0.0
100
AcDbText
  0
TEXT
  5
427
100
AcDbEntity
  8
18
100
AcDbText
 10
460.8
 20
-408.0
 30
0.0
 40
15.0
  1
Ｄ３－０３５２７
 72
     5
 11
577.8
 21
-408.0
 31
0.0
100
AcDbText
  0
TEXT
  5
428
100
AcDbEntity
  8
18
100
AcDbText
 10
546.232178
 20
-381.431946
 30
0.0
 40
6.75
  1
′０４．７．９
 72
     5
 11
592.132178
 21
-381.431946
 31
0.0
100
AcDbText
  0
LINE
  5
429
100
AcDbEntity
  8
20
 62
     3
100
AcDbLine
 10
-540.0
 20
-415.5
 30
0.0
 11
600.0
 21
-415.5
 31
0.0
  0
LINE
  5
42A
100
AcDbEntity
  8
20
 62
     3
100
AcDbLine
 10
-540.0
 20
396.0
 30
0.0
 11
600.0
 21
396.0
 31
0.0
  0
LINE
  5
42B
100
AcDbEntity
  8
20
 62
     3
100
AcDbLine
 10
-540.0
 20
396.0
 30
0.0
 11
-540.0
 21
-415.5
 31
0.0
  0
LINE
  5
42C
100
AcDbEntity
  8
20
 62
     3
100
AcDbLine
 10
600.0
 20
396.0
 30
0.0
 11
600.0
 21
-415.5
 31
0.0
  0
LINE
  5
42D
100
AcDbEntity
  8
20
 62
     3
100
AcDbLine
 10
180.0
 20
-415.5
 30
0.0
 11
180.0
 21
-355.5
 31
0.0
  0
LINE
  5
42E
100
AcDbEntity
  8
20
 62
     3
100
AcDbLine
 10
321.0
 20
-415.5
 30
0.0
 11
321.0
 21
-355.5
 31
0.0
  0
LINE
  5
42F
100
AcDbEntity
  8
20
100
AcDbLine
 10
321.0
 20
-385.5
 30
0.0
 11
600.0
 21
-385.5
 31
0.0
  0
LINE
  5
430
100
AcDbEntity
  8
20
 62
     3
100
AcDbLine
 10
180.0
 20
-355.5
 30
0.0
 11
600.0
 21
-355.5
 31
0.0
  0
LINE
  5
431
100
AcDbEntity
  8
20
100
AcDbLine
 10
540.0
 20
-385.5
 30
0.0
 11
540.0
 21
-355.5
 31
0.0
  0
LINE
  5
432
100
AcDbEntity
  8
20
100
AcDbLine
 10
540.0
 20
-370.5
 30
0.0
 11
600.0
 21
-370.5
 31
0.0
  0
LINE
  5
433
100
AcDbEntity
  8
20
100
AcDbLine
 10
363.0
 20
-415.5
 30
0.0
 11
363.0
 21
-355.5
 31
0.0
  0
LINE
  5
434
100
AcDbEntity
  8
20
100
AcDbLine
 10
393.0
 20
-415.5
 30
0.0
 11
393.0
 21
-385.5
 31
0.0
  0
LINE
  5
435
100
AcDbEntity
  8
20
100
AcDbLine
 10
453.0
 20
-415.5
 30
0.0
 11
453.0
 21
-385.5
 31
0.0
  0
LINE
  5
436
100
AcDbEntity
  8
20
100
AcDbLine
 10
371.185244
 20
-407.314756
 30
0.0
 11
383.694872
 21
-394.805128
 31
0.0
  0
TEXT
  5
437
100
AcDbEntity
  8
20
100
AcDbText
 10
394.599987
 20
-397.490753
 30
0.0
 40
5.4
  1
ＤＲＡＷＩＮＧ　ＮＯ．
 72
     5
 11
452.919987
 21
-397.490753
 31
0.0
100
AcDbText
  0
TEXT
  5
438
100
AcDbEntity
  8
20
100
AcDbText
 10
400.5
 20
-409.5
 30
0.0
 40
9.0
  1
図　　　番
 72
     5
 11
443.7
 21
-409.5
 31
0.0
100
AcDbText
  0
TEXT
  5
439
100
AcDbEntity
  8
20
100
AcDbText
 10
558.0
 20
-366.0
 30
0.0
 40
6.0
  1
ＤＡＴＥ
 72
     5
 11
580.8
 21
-366.0
 31
0.0
100
AcDbText
  0
TEXT
  5
43A
100
AcDbEntity
  8
20
100
AcDbText
 10
327.003213
 20
-398.883087
 30
0.0
 40
6.0
  1
ＳＣＡＬＥ
 72
     5
 11
355.803213
 21
-398.883087
 31
0.0
100
AcDbText
  0
TEXT
  5
43B
100
AcDbEntity
  8
20
100
AcDbText
 10
324.0
 20
-409.5
 30
0.0
 40
9.0
  1
尺　　度
 72
     5
 11
358.2
 21
-409.5
 31
0.0
100
AcDbText
  0
TEXT
  5
43C
100
AcDbEntity
  8
20
100
AcDbText
 10
322.503213
 20
-367.487654
 30
0.0
 40
6.0
  1
ＦＩＧ．ＮＯ．
 72
     5
 11
363.303213
 21
-367.487654
 31
0.0
100
AcDbText
  0
TEXT
  5
43D
100
AcDbEntity
  8
20
100
AcDbText
 10
324.0
 20
-379.5
 30
0.0
 40
9.0
  1
名　　称
 72
     5
 11
358.2
 21
-379.5
 31
0.0
100
AcDbText
  0
TEXT
  5
43E
100
AcDbEntity
  8
20
100
AcDbText
 10
181.696575
 20
-379.410759
 30
0.0
 40
6.9
  1
ＴＯＭＯＥ　ＶＡＬＶＥ　ＣＯ．，ＬＴＤ．
 72
     5
 11
318.316575
 21
-379.410759
 31
0.0
100
AcDbText
  0
TEXT
  5
43F
100
AcDbEntity
  8
20
100
AcDbText
 10
202.5
 20
-399.869431
 30
0.0
 40
12.0
  1
巴バルブ株式会社
 72
     5
 11
296.1
 21
-399.869431
 31
0.0
100
AcDbText
  0
ENDSEC
  0
SECTION
  2
OBJECTS
  0
DICTIONARY
  5
47C
100
AcDbDictionary
  3
ACAD_GROUP
350
47D
  3
ACAD_MLINESTYLE
350
47E
  0
DICTIONARY
  5
47D
102
{ACAD_REACTORS
330
47C
102
}
100
AcDbDictionary
  0
DICTIONARY
  5
47E
102
{ACAD_REACTORS
330
47C
102
}
100
AcDbDictionary
  3
STANDARD
350
47F
  0
MLINESTYLE
  5
47F
102
{ACAD_REACTORS
330
47E
102
}
100
AcDbMlineStyle
  2
STANDARD
 70
     0
  3

 62
     0
 51
90.0
 52
90.0
 71
     2
 49
0.5
 62
   256
  6
BYLAYER
 49
-0.5
 62
   256
  6
BYLAYER
  0
ENDSEC
  0
EOF
