  0
SECTION
  2
HEADER
  9
$ACADVER
  1
AC1015
  9
$ACADMAINTVER
 70
    20
  9
$DWGCODEPAGE
  3
ANSI_932
  9
$INSBASE
 10
0.0
 20
0.0
 30
0.0
  9
$EXTMIN
 10
-540.0604217663181
 20
-415.5489328271346
 30
-0.0015258207003583
  9
$EXTMAX
 10
600.0457792659822
 20
396.0392781399883
 30
0.0000000349246037
  9
$LIMMIN
 10
-630.0
 20
-445.5
  9
$LIMMAX
 10
630.0
 20
445.5
  9
$ORTHOMODE
 70
     0
  9
$REGENMODE
 70
     1
  9
$FILLMODE
 70
     1
  9
$QTEXTMODE
 70
     0
  9
$MIRRTEXT
 70
     1
  9
$LTSCALE
 40
1.0
  9
$ATTMODE
 70
     1
  9
$TEXTSIZE
 40
1.0
  9
$TRACEWID
 40
0.05
  9
$TEXTSTYLE
  7
STANDARD
  9
$CLAYER
  8
0
  9
$CELTYPE
  6
CONTINUOUS
  9
$CECOLOR
 62
   256
  9
$CELTSCALE
 40
1.0
  9
$DISPSILH
 70
     0
  9
$DIMSCALE
 40
3.0
  9
$DIMASZ
 40
0.18
  9
$DIMEXO
 40
0.0625
  9
$DIMDLI
 40
0.38
  9
$DIMRND
 40
0.0
  9
$DIMDLE
 40
0.0
  9
$DIMEXE
 40
0.18
  9
$DIMTP
 40
0.0
  9
$DIMTM
 40
0.0
  9
$DIMTXT
 40
0.18
  9
$DIMCEN
 40
0.09
  9
$DIMTSZ
 40
0.0
  9
$DIMTOL
 70
     0
  9
$DIMLIM
 70
     0
  9
$DIMTIH
 70
     1
  9
$DIMTOH
 70
     1
  9
$DIMSE1
 70
     0
  9
$DIMSE2
 70
     0
  9
$DIMTAD
 70
     1
  9
$DIMZIN
 70
     0
  9
$DIMBLK
  1

  9
$DIMASO
 70
     1
  9
$DIMSHO
 70
     1
  9
$DIMPOST
  1

  9
$DIMAPOST
  1

  9
$DIMALT
 70
     0
  9
$DIMALTD
 70
     2
  9
$DIMALTF
 40
25.4
  9
$DIMLFAC
 40
1.0
  9
$DIMTOFL
 70
     0
  9
$DIMTVP
 40
0.0
  9
$DIMTIX
 70
     0
  9
$DIMSOXD
 70
     0
  9
$DIMSAH
 70
     0
  9
$DIMBLK1
  1

  9
$DIMBLK2
  1

  9
$DIMSTYLE
  2
STANDARD
  9
$DIMCLRD
 70
     0
  9
$DIMCLRE
 70
     0
  9
$DIMCLRT
 70
     0
  9
$DIMTFAC
 40
1.0
  9
$DIMGAP
 40
0.09
  9
$DIMJUST
 70
     0
  9
$DIMSD1
 70
     0
  9
$DIMSD2
 70
     0
  9
$DIMTOLJ
 70
     1
  9
$DIMTZIN
 70
     0
  9
$DIMALTZ
 70
     0
  9
$DIMALTTZ
 70
     0
  9
$DIMUPT
 70
     0
  9
$DIMDEC
 70
     4
  9
$DIMTDEC
 70
     4
  9
$DIMALTU
 70
     2
  9
$DIMALTTD
 70
     2
  9
$DIMTXSTY
  7
STANDARD
  9
$DIMAUNIT
 70
     0
  9
$DIMADEC
 70
     0
  9
$DIMALTRND
 40
0.0
  9
$DIMAZIN
 70
     0
  9
$DIMDSEP
 70
    46
  9
$DIMATFIT
 70
     3
  9
$DIMFRAC
 70
     0
  9
$DIMLDRBLK
  1

  9
$DIMLUNIT
 70
     2
  9
$DIMLWD
 70
    -2
  9
$DIMLWE
 70
    -2
  9
$DIMTMOVE
 70
     0
  9
$LUNITS
 70
     2
  9
$LUPREC
 70
     4
  9
$SKETCHINC
 40
0.1
  9
$FILLETRAD
 40
0.0
  9
$AUNITS
 70
     0
  9
$AUPREC
 70
     0
  9
$MENU
  1
acad
  9
$ELEVATION
 40
0.0
  9
$PELEVATION
 40
0.0
  9
$THICKNESS
 40
0.0
  9
$LIMCHECK
 70
     0
  9
$CHAMFERA
 40
0.0
  9
$CHAMFERB
 40
0.0
  9
$CHAMFERC
 40
0.0
  9
$CHAMFERD
 40
0.0
  9
$SKPOLY
 70
     0
  9
$TDCREATE
 40
2450291.000000000
  9
$TDUCREATE
 40
2450290.625000000
  9
$TDUPDATE
 40
2454981.555023565
  9
$TDUUPDATE
 40
2454981.180023565
  9
$TDINDWG
 40
0.0030632292
  9
$TDUSRTIMER
 40
0.0030272454
  9
$USRTIMER
 70
     1
  9
$ANGBASE
 50
0.0
  9
$ANGDIR
 70
     0
  9
$PDMODE
 70
     0
  9
$PDSIZE
 40
0.0
  9
$PLINEWID
 40
0.0
  9
$SPLFRAME
 70
     0
  9
$SPLINETYPE
 70
     6
  9
$SPLINESEGS
 70
     8
  9
$HANDSEED
  5
517
  9
$SURFTAB1
 70
     6
  9
$SURFTAB2
 70
     6
  9
$SURFTYPE
 70
     6
  9
$SURFU
 70
     6
  9
$SURFV
 70
     6
  9
$UCSBASE
  2

  9
$UCSNAME
  2

  9
$UCSORG
 10
0.0
 20
0.0
 30
0.0
  9
$UCSXDIR
 10
1.0
 20
0.0
 30
0.0
  9
$UCSYDIR
 10
0.0
 20
1.0
 30
0.0
  9
$UCSORTHOREF
  2

  9
$UCSORTHOVIEW
 70
     0
  9
$UCSORGTOP
 10
0.0
 20
0.0
 30
0.0
  9
$UCSORGBOTTOM
 10
0.0
 20
0.0
 30
0.0
  9
$UCSORGLEFT
 10
0.0
 20
0.0
 30
0.0
  9
$UCSORGRIGHT
 10
0.0
 20
0.0
 30
0.0
  9
$UCSORGFRONT
 10
0.0
 20
0.0
 30
0.0
  9
$UCSORGBACK
 10
0.0
 20
0.0
 30
0.0
  9
$PUCSBASE
  2

  9
$PUCSNAME
  2

  9
$PUCSORG
 10
0.0
 20
0.0
 30
0.0
  9
$PUCSXDIR
 10
1.0
 20
0.0
 30
0.0
  9
$PUCSYDIR
 10
0.0
 20
1.0
 30
0.0
  9
$PUCSORTHOREF
  2

  9
$PUCSORTHOVIEW
 70
     0
  9
$PUCSORGTOP
 10
0.0
 20
0.0
 30
0.0
  9
$PUCSORGBOTTOM
 10
0.0
 20
0.0
 30
0.0
  9
$PUCSORGLEFT
 10
0.0
 20
0.0
 30
0.0
  9
$PUCSORGRIGHT
 10
0.0
 20
0.0
 30
0.0
  9
$PUCSORGFRONT
 10
0.0
 20
0.0
 30
0.0
  9
$PUCSORGBACK
 10
0.0
 20
0.0
 30
0.0
  9
$USERI1
 70
     0
  9
$USERI2
 70
     0
  9
$USERI3
 70
     0
  9
$USERI4
 70
     0
  9
$USERI5
 70
     0
  9
$USERR1
 40
0.0
  9
$USERR2
 40
0.0
  9
$USERR3
 40
0.0
  9
$USERR4
 40
0.0
  9
$USERR5
 40
0.0
  9
$WORLDVIEW
 70
     1
  9
$SHADEDGE
 70
     3
  9
$SHADEDIF
 70
    70
  9
$TILEMODE
 70
     1
  9
$MAXACTVP
 70
    16
  9
$PINSBASE
 10
0.0
 20
0.0
 30
0.0
  9
$PLIMCHECK
 70
     0
  9
$PEXTMIN
 10
1.000000000000000E+20
 20
1.000000000000000E+20
 30
1.000000000000000E+20
  9
$PEXTMAX
 10
-1.000000000000000E+20
 20
-1.000000000000000E+20
 30
-1.000000000000000E+20
  9
$PLIMMIN
 10
0.0
 20
0.0
  9
$PLIMMAX
 10
12.0
 20
9.0
  9
$UNITMODE
 70
     0
  9
$VISRETAIN
 70
     0
  9
$PLINEGEN
 70
     1
  9
$PSLTSCALE
 70
     0
  9
$TREEDEPTH
 70
  3020
  9
$CMLSTYLE
  2
STANDARD
  9
$CMLJUST
 70
     0
  9
$CMLSCALE
 40
1.0
  9
$PROXYGRAPHICS
 70
     1
  9
$MEASUREMENT
 70
     0
  9
$CELWEIGHT
370
    -1
  9
$ENDCAPS
280
     0
  9
$JOINSTYLE
280
     0
  9
$LWDISPLAY
290
     0
  9
$INSUNITS
 70
     0
  9
$HYPERLINKBASE
  1

  9
$STYLESHEET
  1
monochrome.ctb
  9
$XEDIT
290
     1
  9
$CEPSNTYPE
380
     0
  9
$PSTYLEMODE
290
     1
  9
$FINGERPRINTGUID
  2
{E6E4292A-B9E4-44D9-B40A-2E5B8D8272D4}
  9
$VERSIONGUID
  2
{BF9083C0-8FFE-4F46-8FD1-20713277E258}
  9
$EXTNAMES
290
     1
  9
$PSVPSCALE
 40
0.0
  9
$OLESTARTUP
290
     0
  0
ENDSEC
  0
SECTION
  2
CLASSES
  0
CLASS
  1
IMAGE
  2
AcDbRasterImage
  3
ISM
 90
    34943
280
     0
281
     1
  0
CLASS
  1
DICTIONARYVAR
  2
AcDbDictionaryVar
  3
ObjectDBX Classes
 90
        0
280
     0
281
     0
  0
CLASS
  1
RASTERVARIABLES
  2
AcDbRasterVariables
  3
ISM
 90
    32768
280
     0
281
     0
  0
CLASS
  1
IMAGEDEF
  2
AcDbRasterImageDef
  3
ISM
 90
    32768
280
     0
281
     0
  0
CLASS
  1
IMAGEDEF_REACTOR
  2
AcDbRasterImageDefReactor
  3
ISM
 90
    32769
280
     0
281
     0
  0
CLASS
  1
IDBUFFER
  2
AcDbIdBuffer
  3
ObjectDBX Classes
 90
    32768
280
     0
281
     0
  0
CLASS
  1
SPATIAL_FILTER
  2
AcDbSpatialFilter
  3
ObjectDBX Classes
 90
    32768
280
     0
281
     0
  0
CLASS
  1
SORTENTSTABLE
  2
AcDbSortentsTable
  3
ObjectDBX Classes
 90
    32768
280
     0
281
     0
  0
CLASS
  1
LAYER_INDEX
  2
AcDbLayerIndex
  3
ObjectDBX Classes
 90
    32768
280
     0
281
     0
  0
CLASS
  1
SPATIAL_INDEX
  2
AcDbSpatialIndex
  3
ObjectDBX Classes
 90
    32768
280
     0
281
     0
  0
CLASS
  1
OBJECT_PTR
  2
CAseDLPNTableRecord
  3
"ASE-LPNTableRecord"
 90
    32769
280
     0
281
     0
  0
CLASS
  1
LAYOUT
  2
AcDbLayout
  3
ObjectDBX Classes
 90
        0
280
     0
281
     0
  0
CLASS
  1
PLOTSETTINGS
  2
AcDbPlotSettings
  3
ObjectDBX Classes
 90
    32768
280
     0
281
     0
  0
CLASS
  1
ACDBDICTIONARYWDFLT
  2
AcDbDictionaryWithDefault
  3
ObjectDBX Classes
 90
        0
280
     0
281
     0
  0
CLASS
  1
ACDBPLACEHOLDER
  2
AcDbPlaceHolder
  3
ObjectDBX Classes
 90
        0
280
     0
281
     0
  0
CLASS
  1
VBA_PROJECT
  2
AcDbVbaProject
  3
acad
 90
    32768
280
     0
281
     0
  0
CLASS
  1
WIPEOUT
  2
AcDbWipeout
  3
"WipeOut|Product Desc: Object Enabler for WipeOut entity                        |Company: Autodesk, Inc.                        |WEB Address: www.autodesk.com"
 90
    34943
280
     0
281
     1
  0
CLASS
  1
WIPEOUTVARIABLES
  2
AcDbWipeoutVariables
  3
"WipeOut|Product Desc:     WipeOut Dbx Application|Company:          Autodesk, Inc.|WEB Address:      www.autodesk.com"
 90
    32768
280
     0
281
     0
  0
CLASS
  1
RTEXT
  2
RText
  3
RText|AutoCAD Express Tool|expresstools@autodesk.com
 90
    32768
280
     0
281
     1
  0
CLASS
  1
ARCALIGNEDTEXT
  2
AcDbArcAlignedText
  3
ATEXT|AutoCAD Express Tool|expresstools@autodesk.com
 90
    32768
280
     0
281
     1
  0
CLASS
  1
MATERIAL
  2
AcDbMaterial
  3
ObjectDBX Classes
 90
     1153
280
     0
281
     0
  0
CLASS
  1
VISUALSTYLE
  2
AcDbVisualStyle
  3
ObjectDBX Classes
 90
     4095
280
     0
281
     0
  0
CLASS
  1
TABLESTYLE
  2
AcDbTableStyle
  3
ObjectDBX Classes
 90
     4095
280
     0
281
     0
  0
CLASS
  1
SCALE
  2
AcDbScale
  3
ObjectDBX Classes
 90
     1153
280
     0
281
     0
  0
CLASS
  1
MLEADERSTYLE
  2
AcDbMLeaderStyle
  3
ACDB_MLEADERSTYLE_CLASS
 90
     4095
280
     0
281
     0
  0
CLASS
  1
CELLSTYLEMAP
  2
AcDbCellStyleMap
  3
ObjectDBX Classes
 90
     1152
280
     0
281
     0
  0
ENDSEC
  0
SECTION
  2
TABLES
  0
TABLE
  2
VPORT
  5
6
330
0
100
AcDbSymbolTable
 70
     1
  0
VPORT
  5
1B
330
6
100
AcDbSymbolTableRecord
100
AcDbViewportTableRecord
  2
*ACTIVE
 70
     0
 10
0.0
 20
0.0
 11
1.0
 21
1.0
 12
322.6575856576565
 22
-309.4628795211972
 13
0.0
 23
0.0
 14
1.0
 24
1.0
 15
0.0
 25
0.0
 16
0.0
 26
0.0
 36
1.0
 17
0.0
 27
0.0
 37
0.0
 40
307.1240002912855
 41
1.805914972273567
 42
50.0
 43
0.0
 44
0.0
 50
0.0
 51
0.0
 71
     0
 72
   500
 73
     1
 74
     1
 75
     0
 76
     0
 77
     0
 78
     0
281
     0
 65
     1
110
0.0
120
0.0
130
0.0
111
1.0
121
0.0
131
0.0
112
0.0
122
1.0
132
0.0
 79
     0
146
0.0
  0
ENDTAB
  0
TABLE
  2
LTYPE
  5
3
330
0
100
AcDbSymbolTable
 70
     7
  0
LTYPE
  5
C
330
3
100
AcDbSymbolTableRecord
100
AcDbLinetypeTableRecord
  2
BYBLOCK
 70
     0
  3

 72
    65
 73
     0
 40
0.0
  0
LTYPE
  5
D
330
3
100
AcDbSymbolTableRecord
100
AcDbLinetypeTableRecord
  2
BYLAYER
 70
     0
  3

 72
    65
 73
     0
 40
0.0
  0
LTYPE
  5
E
330
3
100
AcDbSymbolTableRecord
100
AcDbLinetypeTableRecord
  2
CONTINUOUS
 70
     0
  3
Solid line
 72
    65
 73
     0
 40
0.0
  0
LTYPE
  5
F
330
3
100
AcDbSymbolTableRecord
100
AcDbLinetypeTableRecord
  2
DASHED
 70
     0
  3
__ __ __ __ __ __ __ __ __ __ __ __ __ __ __
 72
    65
 73
     2
 40
2.0
 49
1.199999999999999
 74
     0
 49
-0.8
 74
     0
  0
LTYPE
  5
10
330
3
100
AcDbSymbolTableRecord
100
AcDbLinetypeTableRecord
  2
CENTER
 70
     0
  3
____ _ ____ _ ____ _ ____ _ ____ _ ____ _ ____
 72
    65
 73
     4
 40
12.0
 49
9.0
 74
     0
 49
-1.0
 74
     0
 49
1.0
 74
     0
 49
-1.0
 74
     0
  0
LTYPE
  5
11
330
3
100
AcDbSymbolTableRecord
100
AcDbLinetypeTableRecord
  2
HIDDEN
 70
     0
  3
_ _ _ _ _ _ _ _ _ _ _ _ _ _ _ _ _ _ _ _ _ _ _
 72
    65
 73
     2
 40
3.2
 49
2.399999999999999
 74
     0
 49
-0.8
 74
     0
  0
LTYPE
  5
12
330
3
100
AcDbSymbolTableRecord
100
AcDbLinetypeTableRecord
  2
PHANTOM
 70
     0
  3
_____ _ _ _____ _ _ _____ _ _ _____ _ _ _____
 72
    65
 73
     6
 40
13.5
 49
9.0
 74
     0
 49
-1.0
 74
     0
 49
1.0
 74
     0
 49
-0.5
 74
     0
 49
1.0
 74
     0
 49
-1.0
 74
     0
  0
LTYPE
  5
13
330
3
100
AcDbSymbolTableRecord
100
AcDbLinetypeTableRecord
  2
DOT
 70
     0
  3
...............................................
 72
    65
 73
     2
 40
1.0
 49
0.5
 74
     0
 49
-0.5
 74
     0
  0
LTYPE
  5
14
330
3
100
AcDbSymbolTableRecord
100
AcDbLinetypeTableRecord
  2
DASHDOT
 70
     0
  3
__ . __ . __ . __ . __ . __ . __ . __ . __ . __
 72
    65
 73
     4
 40
8.0
 49
5.0
 74
     0
 49
-1.0
 74
     0
 49
1.0
 74
     0
 49
-1.0
 74
     0
  0
ENDTAB
  0
TABLE
  2
LAYER
  5
1
330
0
100
AcDbSymbolTable
 70
     6
  0
LAYER
  5
15
102
{ACAD_XDICTIONARY
360
4F8
102
}
330
1
100
AcDbSymbolTableRecord
100
AcDbLayerTableRecord
  2
0
 70
     0
 62
     7
  6
CONTINUOUS
370
    -3
390
497
  0
LAYER
  5
16
102
{ACAD_XDICTIONARY
360
4FA
102
}
330
1
100
AcDbSymbolTableRecord
100
AcDbLayerTableRecord
  2
1
 70
     0
 62
     7
  6
CONTINUOUS
370
    -3
390
497
  0
LAYER
  5
17
102
{ACAD_XDICTIONARY
360
4FC
102
}
330
1
100
AcDbSymbolTableRecord
100
AcDbLayerTableRecord
  2
2
 70
     0
 62
     7
  6
CONTINUOUS
370
    -3
390
497
  0
LAYER
  5
18
102
{ACAD_XDICTIONARY
360
4FE
102
}
330
1
100
AcDbSymbolTableRecord
100
AcDbLayerTableRecord
  2
5
 70
     0
 62
     7
  6
CONTINUOUS
370
    -3
390
497
  0
LAYER
  5
19
102
{ACAD_XDICTIONARY
360
500
102
}
330
1
100
AcDbSymbolTableRecord
100
AcDbLayerTableRecord
  2
18
 70
     0
 62
     7
  6
CONTINUOUS
370
    -3
390
497
  0
LAYER
  5
1A
102
{ACAD_XDICTIONARY
360
502
102
}
330
1
100
AcDbSymbolTableRecord
100
AcDbLayerTableRecord
  2
20
 70
     0
 62
     7
  6
CONTINUOUS
370
    -3
390
497
  0
ENDTAB
  0
TABLE
  2
STYLE
  5
2
330
0
100
AcDbSymbolTable
 70
     2
  0
STYLE
  5
1D
330
2
100
AcDbSymbolTableRecord
100
AcDbTextStyleTableRecord
  2
STANDARD
 70
     0
 40
0.0
 41
1.0
 50
0.0
 71
     0
 42
1.0
  3
txt
  4
BIGFONT
  0
ENDTAB
  0
TABLE
  2
VIEW
  5
4
330
0
100
AcDbSymbolTable
 70
     0
  0
ENDTAB
  0
TABLE
  2
UCS
  5
5
330
0
100
AcDbSymbolTable
 70
     0
  0
ENDTAB
  0
TABLE
  2
APPID
  5
7
330
0
100
AcDbSymbolTable
 70
     3
  0
APPID
  5
1C
330
7
100
AcDbSymbolTableRecord
100
AcDbRegAppTableRecord
  2
ACAD
 70
     0
  0
APPID
  5
4E9
330
7
100
AcDbSymbolTableRecord
100
AcDbRegAppTableRecord
  2
ACAD_MLEADERVER
 70
     0
  0
APPID
  5
4EF
330
7
100
AcDbSymbolTableRecord
100
AcDbRegAppTableRecord
  2
ACAD_PSEXT
 70
     0
  0
ENDTAB
  0
TABLE
  2
DIMSTYLE
  5
8
330
0
100
AcDbSymbolTable
 70
     2
100
AcDbDimStyleTable
 71
     1
340
2A
  0
DIMSTYLE
105
2A
330
8
100
AcDbSymbolTableRecord
100
AcDbDimStyleTableRecord
  2
STANDARD
 70
     0
 40
3.0
 77
     1
340
1D
  0
ENDTAB
  0
TABLE
  2
BLOCK_RECORD
  5
25
330
0
100
AcDbSymbolTable
 70
     6
  0
BLOCK_RECORD
  5
23
330
25
100
AcDbSymbolTableRecord
100
AcDbBlockTableRecord
  2
*MODEL_SPACE
340
4EC
  0
BLOCK_RECORD
  5
24
330
25
100
AcDbSymbolTableRecord
100
AcDbBlockTableRecord
  2
*PAPER_SPACE
340
4ED
  0
BLOCK_RECORD
  5
1E
330
25
100
AcDbSymbolTableRecord
100
AcDbBlockTableRecord
  2
*D0
340
0
  0
BLOCK_RECORD
  5
1F
330
25
100
AcDbSymbolTableRecord
100
AcDbBlockTableRecord
  2
*D1
340
0
  0
BLOCK_RECORD
  5
20
330
25
100
AcDbSymbolTableRecord
100
AcDbBlockTableRecord
  2
*D2
340
0
  0
BLOCK_RECORD
  5
21
330
25
100
AcDbSymbolTableRecord
100
AcDbBlockTableRecord
  2
*D3
340
0
  0
BLOCK_RECORD
  5
22
330
25
100
AcDbSymbolTableRecord
100
AcDbBlockTableRecord
  2
*D4
340
0
  0
ENDTAB
  0
ENDSEC
  0
SECTION
  2
BLOCKS
  0
BLOCK
  5
26
330
23
100
AcDbEntity
  8
0
100
AcDbBlockBegin
  2
*MODEL_SPACE
 70
     0
 10
0.0
 20
0.0
 30
0.0
  3
*MODEL_SPACE
  1

  0
ENDBLK
  5
27
330
23
100
AcDbEntity
  8
0
100
AcDbBlockEnd
  0
BLOCK
  5
28
330
24
100
AcDbEntity
 67
     1
  8
0
100
AcDbBlockBegin
  2
*PAPER_SPACE
 70
     0
 10
0.0
 20
0.0
 30
0.0
  3
*PAPER_SPACE
  1

  0
ENDBLK
  5
29
330
24
100
AcDbEntity
 67
     1
  8
0
100
AcDbBlockEnd
  0
BLOCK
  5
44F
330
1E
100
AcDbEntity
  8
5
100
AcDbBlockBegin
  2
*D0
 70
     1
 10
0.0
 20
0.0
 30
0.0
  3
*D0
  1

  0
TEXT
  5
450
330
1E
100
AcDbEntity
  8
5
 62
     2
100
AcDbText
 10
2.054517999999999
 20
-115.720482
 30
0.0
 40
9.9
  1
202
 50
90.0
 41
0.7280000000000007
 72
     5
 11
2.054517999999999
 21
-97.70248199999999
 31
0.0
100
AcDbText
  0
LINE
  5
451
330
1E
100
AcDbEntity
  8
5
 62
     2
100
AcDbLine
 10
40.172227
 20
-206.325482
 30
0.0
 11
0.5545180000000001
 21
-206.325482
 31
0.0
  0
LINE
  5
452
330
1E
100
AcDbEntity
  8
5
 62
     2
100
AcDbLine
 10
3.554517999999999
 20
-206.325482
 30
0.0
 11
5.107432
 21
-200.529927
 31
0.0
  0
LINE
  5
453
330
1E
100
AcDbEntity
  8
5
 62
     2
100
AcDbLine
 10
3.554517999999999
 20
-206.325482
 30
0.0
 11
2.001602999999999
 21
-200.529927
 31
0.0
  0
LINE
  5
454
330
1E
100
AcDbEntity
  8
5
 62
     2
100
AcDbLine
 10
5.107432
 20
-200.529927
 30
0.0
 11
2.001602999999999
 21
-200.529927
 31
0.0
  0
LINE
  5
455
330
1E
100
AcDbEntity
  8
5
 62
     2
100
AcDbLine
 10
3.554517999999999
 20
-206.325482
 30
0.0
 11
3.554517999999999
 21
-4.325482
 31
0.0
  0
LINE
  5
456
330
1E
100
AcDbEntity
  8
5
 62
     2
100
AcDbLine
 10
3.554517999999999
 20
-4.325482
 30
0.0
 11
2.001602999999999
 21
-10.121037
 31
0.0
  0
LINE
  5
457
330
1E
100
AcDbEntity
  8
5
 62
     2
100
AcDbLine
 10
3.554517999999999
 20
-4.325482
 30
0.0
 11
5.107432
 21
-10.121037
 31
0.0
  0
LINE
  5
458
330
1E
100
AcDbEntity
  8
5
 62
     2
100
AcDbLine
 10
2.001602999999999
 20
-10.121037
 30
0.0
 11
5.107432
 21
-10.121037
 31
0.0
  0
LINE
  5
459
330
1E
100
AcDbEntity
  8
5
 62
     2
100
AcDbLine
 10
45.385777
 20
-4.325482
 30
0.0
 11
0.5545180000000001
 21
-4.325482
 31
0.0
  0
ENDBLK
  5
45A
330
1E
100
AcDbEntity
  8
5
100
AcDbBlockEnd
  0
BLOCK
  5
45B
330
1F
100
AcDbEntity
  8
5
100
AcDbBlockBegin
  2
*D1
 70
     1
 10
0.0
 20
0.0
 30
0.0
  3
*D1
  1

  0
TEXT
  5
45C
330
1F
100
AcDbEntity
  8
5
 62
     2
100
AcDbText
 10
2.054517999999999
 20
-283.570482
 30
0.0
 40
9.9
  1
134
 50
90.0
 41
0.779999999999999
 72
     5
 11
2.054517999999999
 21
-265.552482
 31
0.0
100
AcDbText
  0
LINE
  5
45D
330
1F
100
AcDbEntity
  8
5
 62
     2
100
AcDbLine
 10
91.385777
 20
-340.025482
 30
0.0
 11
0.5545180000000001
 21
-340.025482
 31
0.0
  0
LINE
  5
45E
330
1F
100
AcDbEntity
  8
5
 62
     2
100
AcDbLine
 10
3.554517999999999
 20
-340.025482
 30
0.0
 11
5.107432
 21
-334.229927
 31
0.0
  0
LINE
  5
45F
330
1F
100
AcDbEntity
  8
5
 62
     2
100
AcDbLine
 10
3.554517999999999
 20
-340.025482
 30
0.0
 11
2.001602999999999
 21
-334.229927
 31
0.0
  0
LINE
  5
460
330
1F
100
AcDbEntity
  8
5
 62
     2
100
AcDbLine
 10
5.107432
 20
-334.229927
 30
0.0
 11
2.001602999999999
 21
-334.229927
 31
0.0
  0
LINE
  5
461
330
1F
100
AcDbEntity
  8
5
 62
     2
100
AcDbLine
 10
3.554517999999999
 20
-340.025482
 30
0.0
 11
3.554517999999999
 21
-206.325482
 31
0.0
  0
LINE
  5
462
330
1F
100
AcDbEntity
  8
5
 62
     2
100
AcDbLine
 10
3.554517999999999
 20
-206.325482
 30
0.0
 11
2.001602999999999
 21
-212.121037
 31
0.0
  0
LINE
  5
463
330
1F
100
AcDbEntity
  8
5
 62
     2
100
AcDbLine
 10
3.554517999999999
 20
-206.325482
 30
0.0
 11
5.107432
 21
-212.121037
 31
0.0
  0
LINE
  5
464
330
1F
100
AcDbEntity
  8
5
 62
     2
100
AcDbLine
 10
2.001602999999999
 20
-212.121037
 30
0.0
 11
5.107432
 21
-212.121037
 31
0.0
  0
LINE
  5
465
330
1F
100
AcDbEntity
  8
5
 62
     2
100
AcDbLine
 10
40.172227
 20
-206.325482
 30
0.0
 11
0.5545180000000001
 21
-206.325482
 31
0.0
  0
ENDBLK
  5
466
330
1F
100
AcDbEntity
  8
5
100
AcDbBlockEnd
  0
BLOCK
  5
467
330
20
100
AcDbEntity
  8
5
100
AcDbBlockBegin
  2
*D2
 70
     1
 10
0.0
 20
0.0
 30
0.0
  3
*D2
  1

  0
TEXT
  5
468
330
20
100
AcDbEntity
  8
5
 62
     2
100
AcDbText
 10
92.455777
 20
-376.520966
 30
0.0
 40
9.9
  1
56
 41
0.6720000000000005
 72
     5
 11
103.543777
 21
-376.520966
 31
0.0
100
AcDbText
  0
LINE
  5
469
330
20
100
AcDbEntity
  8
5
 62
     2
100
AcDbLine
 10
71.385777
 20
-313.825482
 30
0.0
 11
71.385777
 21
-381.020966
 31
0.0
  0
LINE
  5
46A
330
20
100
AcDbEntity
  8
5
 62
     2
100
AcDbLine
 10
71.385777
 20
-378.020966
 30
0.0
 11
77.181332
 21
-379.57388
 31
0.0
  0
LINE
  5
46B
330
20
100
AcDbEntity
  8
5
 62
     2
100
AcDbLine
 10
71.385777
 20
-378.020966
 30
0.0
 11
77.181332
 21
-376.468051
 31
0.0
  0
LINE
  5
46C
330
20
100
AcDbEntity
  8
5
 62
     2
100
AcDbLine
 10
77.181332
 20
-379.57388
 30
0.0
 11
77.181332
 21
-376.468051
 31
0.0
  0
LINE
  5
46D
330
20
100
AcDbEntity
  8
5
 62
     2
100
AcDbLine
 10
71.385777
 20
-378.020966
 30
0.0
 11
127.385777
 21
-378.020966
 31
0.0
  0
LINE
  5
46E
330
20
100
AcDbEntity
  8
5
 62
     2
100
AcDbLine
 10
127.385777
 20
-378.020966
 30
0.0
 11
121.590222
 21
-376.468051
 31
0.0
  0
LINE
  5
46F
330
20
100
AcDbEntity
  8
5
 62
     2
100
AcDbLine
 10
127.385777
 20
-378.020966
 30
0.0
 11
121.590222
 21
-379.57388
 31
0.0
  0
LINE
  5
470
330
20
100
AcDbEntity
  8
5
 62
     2
100
AcDbLine
 10
121.590222
 20
-376.468051
 30
0.0
 11
121.590222
 21
-379.57388
 31
0.0
  0
LINE
  5
471
330
20
100
AcDbEntity
  8
5
 62
     2
100
AcDbLine
 10
127.385777
 20
-313.825482
 30
0.0
 11
127.385777
 21
-381.020966
 31
0.0
  0
ENDBLK
  5
472
330
20
100
AcDbEntity
  8
5
100
AcDbBlockEnd
  0
BLOCK
  5
473
330
21
100
AcDbEntity
  8
5
100
AcDbBlockBegin
  2
*D3
 70
     1
 10
0.0
 20
0.0
 30
0.0
  3
*D3
  1

  0
TEXT
  5
474
330
21
100
AcDbEntity
  8
5
 62
     2
100
AcDbText
 10
2.054517999999999
 20
51.529518
 30
0.0
 40
9.9
  1
133
 50
90.0
 41
0.7800000000000008
 72
     5
 11
2.054517999999999
 21
69.54751800000001
 31
0.0
100
AcDbText
  0
LINE
  5
475
330
21
100
AcDbEntity
  8
5
 62
     2
100
AcDbLine
 10
45.385777
 20
-4.325482
 30
0.0
 11
0.5545180000000001
 21
-4.325482
 31
0.0
  0
LINE
  5
476
330
21
100
AcDbEntity
  8
5
 62
     2
100
AcDbLine
 10
3.554517999999999
 20
-4.325482
 30
0.0
 11
5.107432
 21
1.470073
 31
0.0
  0
LINE
  5
477
330
21
100
AcDbEntity
  8
5
 62
     2
100
AcDbLine
 10
3.554517999999999
 20
-4.325482
 30
0.0
 11
2.001602999999999
 21
1.470073
 31
0.0
  0
LINE
  5
478
330
21
100
AcDbEntity
  8
5
 62
     2
100
AcDbLine
 10
5.107432
 20
1.470073
 30
0.0
 11
2.001602999999999
 21
1.470073
 31
0.0
  0
LINE
  5
479
330
21
100
AcDbEntity
  8
5
 62
     2
100
AcDbLine
 10
3.554517999999999
 20
-4.325482
 30
0.0
 11
3.554517999999999
 21
128.174518
 31
0.0
  0
LINE
  5
47A
330
21
100
AcDbEntity
  8
5
 62
     2
100
AcDbLine
 10
3.554517999999999
 20
128.174518
 30
0.0
 11
2.001602999999999
 21
122.378963
 31
0.0
  0
LINE
  5
47B
330
21
100
AcDbEntity
  8
5
 62
     2
100
AcDbLine
 10
3.554517999999999
 20
128.174518
 30
0.0
 11
5.107432
 21
122.378963
 31
0.0
  0
LINE
  5
47C
330
21
100
AcDbEntity
  8
5
 62
     2
100
AcDbLine
 10
2.001602999999999
 20
122.378963
 30
0.0
 11
5.107432
 21
122.378963
 31
0.0
  0
LINE
  5
47D
330
21
100
AcDbEntity
  8
5
 62
     2
100
AcDbLine
 10
91.385777
 20
128.174518
 30
0.0
 11
0.5545180000000001
 21
128.174518
 31
0.0
  0
ENDBLK
  5
47E
330
21
100
AcDbEntity
  8
5
100
AcDbBlockEnd
  0
BLOCK
  5
47F
330
22
100
AcDbEntity
  8
5
100
AcDbBlockBegin
  2
*D4
 70
     1
 10
0.0
 20
0.0
 30
0.0
  3
*D4
  1

  0
TEXT
  5
480
330
22
100
AcDbEntity
  8
5
 62
     2
100
AcDbText
 10
85.525777
 20
174.231468
 30
0.0
 40
9.9
  1
%%c100
 41
0.8399999999999996
 72
     5
 11
110.473777
 21
174.231468
 31
0.0
100
AcDbText
  0
LINE
  5
481
330
22
100
AcDbEntity
  8
5
 62
     2
100
AcDbLine
 10
49.385777
 20
116.174518
 30
0.0
 11
49.385777
 21
175.731468
 31
0.0
  0
LINE
  5
482
330
22
100
AcDbEntity
  8
5
 62
     2
100
AcDbLine
 10
49.385777
 20
172.731468
 30
0.0
 11
55.181332
 21
171.178554
 31
0.0
  0
LINE
  5
483
330
22
100
AcDbEntity
  8
5
 62
     2
100
AcDbLine
 10
49.385777
 20
172.731468
 30
0.0
 11
55.181332
 21
174.284382
 31
0.0
  0
LINE
  5
484
330
22
100
AcDbEntity
  8
5
 62
     2
100
AcDbLine
 10
55.181332
 20
171.178554
 30
0.0
 11
55.181332
 21
174.284382
 31
0.0
  0
LINE
  5
485
330
22
100
AcDbEntity
  8
5
 62
     2
100
AcDbLine
 10
49.385777
 20
172.731468
 30
0.0
 11
149.385777
 21
172.731468
 31
0.0
  0
LINE
  5
486
330
22
100
AcDbEntity
  8
5
 62
     2
100
AcDbLine
 10
149.385777
 20
172.731468
 30
0.0
 11
143.590222
 21
174.284382
 31
0.0
  0
LINE
  5
487
330
22
100
AcDbEntity
  8
5
 62
     2
100
AcDbLine
 10
149.385777
 20
172.731468
 30
0.0
 11
143.590222
 21
171.178554
 31
0.0
  0
LINE
  5
488
330
22
100
AcDbEntity
  8
5
 62
     2
100
AcDbLine
 10
143.590222
 20
174.284382
 30
0.0
 11
143.590222
 21
171.178554
 31
0.0
  0
LINE
  5
489
330
22
100
AcDbEntity
  8
5
 62
     2
100
AcDbLine
 10
149.385777
 20
116.174518
 30
0.0
 11
149.385777
 21
175.731468
 31
0.0
  0
ENDBLK
  5
48A
330
22
100
AcDbEntity
  8
5
100
AcDbBlockEnd
  0
ENDSEC
  0
SECTION
  2
ENTITIES
  0
LINE
  5
2B
330
23
100
AcDbEntity
  8
1
  6
CENTER
 62
     2
100
AcDbLine
 10
-375.396703
 20
272.824518
 30
0.0
 11
-126.497557
 21
272.824518
 31
0.0
  0
CIRCLE
  5
2C
330
23
100
AcDbEntity
  8
1
  6
DASHED
100
AcDbCircle
 10
-290.164223
 20
308.824518
 30
0.0
 40
5.5
  0
CIRCLE
  5
2D
330
23
100
AcDbEntity
  8
1
  6
DASHED
100
AcDbCircle
 10
-218.164223
 20
308.824518
 30
0.0
 40
5.5
  0
CIRCLE
  5
2E
330
23
100
AcDbEntity
  8
1
  6
DASHED
100
AcDbCircle
 10
-218.164223
 20
236.824518
 30
0.0
 40
5.5
  0
CIRCLE
  5
2F
330
23
100
AcDbEntity
  8
1
  6
DASHED
100
AcDbCircle
 10
-290.164223
 20
236.824518
 30
0.0
 40
5.5
  0
LINE
  5
30
330
23
100
AcDbEntity
  8
1
  6
CENTER
 62
     2
100
AcDbLine
 10
-299.243315
 20
308.824518
 30
0.0
 11
-277.9606
 21
308.824518
 31
0.0
  0
LINE
  5
31
330
23
100
AcDbEntity
  8
1
  6
CENTER
 62
     2
100
AcDbLine
 10
-229.401533
 20
308.824518
 30
0.0
 11
-207.243651
 21
308.824518
 31
0.0
  0
LINE
  5
32
330
23
100
AcDbEntity
  8
1
  6
CENTER
 62
     2
100
AcDbLine
 10
-300.701933
 20
236.824518
 30
0.0
 11
-278.544035
 21
236.824518
 31
0.0
  0
LINE
  5
33
330
23
100
AcDbEntity
  8
1
  6
CENTER
 62
     2
100
AcDbLine
 10
-229.693281
 20
236.824518
 30
0.0
 11
-208.702284
 21
236.824518
 31
0.0
  0
LINE
  5
34
330
23
100
AcDbEntity
  8
1
  6
CENTER
 62
     2
100
AcDbLine
 10
-290.164223
 20
226.850868
 30
0.0
 11
-290.164223
 21
245.799782
 31
0.0
  0
LINE
  5
35
330
23
100
AcDbEntity
  8
1
  6
CENTER
 62
     2
100
AcDbLine
 10
-290.164223
 20
300.485092
 30
0.0
 11
-290.164223
 21
317.829468
 31
0.0
  0
LINE
  5
36
330
23
100
AcDbEntity
  8
1
  6
CENTER
 62
     2
100
AcDbLine
 10
-218.164223
 20
226.850868
 30
0.0
 11
-218.164223
 21
245.799782
 31
0.0
  0
LINE
  5
37
330
23
100
AcDbEntity
  8
1
  6
CENTER
 62
     2
100
AcDbLine
 10
-218.164223
 20
299.901657
 30
0.0
 11
-218.164223
 21
317.829468
 31
0.0
  0
LINE
  5
38
330
23
100
AcDbEntity
  8
1
  6
DASHED
100
AcDbLine
 10
-305.164223
 20
245.324518
 30
0.0
 11
-305.164223
 21
300.324518
 31
0.0
  0
LINE
  5
39
330
23
100
AcDbEntity
  8
1
  6
DASHED
100
AcDbLine
 10
-203.164223
 20
245.324518
 30
0.0
 11
-203.164223
 21
300.324518
 31
0.0
  0
LINE
  5
3A
330
23
100
AcDbEntity
  8
1
  6
DASHED
100
AcDbLine
 10
-281.664223
 20
323.824518
 30
0.0
 11
-226.664223
 21
323.824518
 31
0.0
  0
LINE
  5
3B
330
23
100
AcDbEntity
  8
1
  6
DASHED
100
AcDbLine
 10
-281.664223
 20
221.824518
 30
0.0
 11
-226.664223
 21
221.824518
 31
0.0
  0
ARC
  5
3C
330
23
100
AcDbEntity
  8
1
  6
DASHED
100
AcDbCircle
 10
-226.664223
 20
300.324518
 30
0.0
 40
23.5
100
AcDbArc
 50
0.0
 51
90.0
  0
ARC
  5
3D
330
23
100
AcDbEntity
  8
1
  6
DASHED
100
AcDbCircle
 10
-281.664223
 20
300.324518
 30
0.0
 40
23.5
100
AcDbArc
 50
90.0
 51
180.0
  0
ARC
  5
3E
330
23
100
AcDbEntity
  8
1
  6
DASHED
100
AcDbCircle
 10
-281.664223
 20
245.324518
 30
0.0
 40
23.5
100
AcDbArc
 50
180.0
 51
270.0
  0
ARC
  5
3F
330
23
100
AcDbEntity
  8
1
  6
DASHED
100
AcDbCircle
 10
-226.664223
 20
245.324518
 30
0.0
 40
23.5
100
AcDbArc
 50
270.0
 51
0.0
  0
LINE
  5
40
330
23
100
AcDbEntity
  8
1
  6
CENTER
 62
     2
100
AcDbLine
 10
-375.396703
 20
-206.325482
 30
0.0
 11
-126.497557
 21
-206.325482
 31
0.0
  0
LINE
  5
41
330
23
100
AcDbEntity
  8
1
  6
CENTER
 62
     2
100
AcDbLine
 10
43.172227
 20
-206.325482
 30
0.0
 11
156.897752
 21
-206.325482
 31
0.0
  0
LINE
  5
42
330
23
100
AcDbEntity
  8
1
100
AcDbLine
 10
-301.164223
 20
-18.325482
 30
0.0
 11
-207.164223
 21
-18.325482
 31
0.0
  0
LINE
  5
43
330
23
100
AcDbEntity
  8
1
100
AcDbLine
 10
-305.164223
 20
-4.325482
 30
0.0
 11
-305.164223
 21
-14.325482
 31
0.0
  0
LINE
  5
44
330
23
100
AcDbEntity
  8
1
100
AcDbLine
 10
-203.164223
 20
-4.325482
 30
0.0
 11
-203.164223
 21
-14.325482
 31
0.0
  0
LINE
  5
45
330
23
100
AcDbEntity
  8
1
100
AcDbLine
 10
-273.164223
 20
-26.325482
 30
0.0
 11
-273.164223
 21
-94.52543799999999
 31
0.0
  0
LINE
  5
46
330
23
100
AcDbEntity
  8
1
100
AcDbLine
 10
-235.164223
 20
-26.325482
 30
0.0
 11
-235.164223
 21
-94.52543799999999
 31
0.0
  0
LINE
  5
47
330
23
100
AcDbEntity
  8
1
  6
CENTER
 62
     2
100
AcDbLine
 10
-290.164223
 20
7.228749999999999
 30
0.0
 11
-290.164223
 21
-30.73809600000001
 31
0.0
  0
LINE
  5
48
330
23
100
AcDbEntity
  8
1
  6
CENTER
 62
     2
100
AcDbLine
 10
-218.164223
 20
7.228749999999999
 30
0.0
 11
-218.164223
 21
-30.73809600000001
 31
0.0
  0
LINE
  5
49
330
23
100
AcDbEntity
  8
1
100
AcDbLine
 10
52.385777
 20
-18.325482
 30
0.0
 11
146.385777
 21
-18.325482
 31
0.0
  0
LINE
  5
4A
330
23
100
AcDbEntity
  8
1
100
AcDbLine
 10
48.385777
 20
-4.325482
 30
0.0
 11
48.385777
 21
-14.325482
 31
0.0
  0
LINE
  5
4B
330
23
100
AcDbEntity
  8
1
100
AcDbLine
 10
150.385777
 20
-4.325482
 30
0.0
 11
150.385777
 21
-14.325482
 31
0.0
  0
LINE
  5
4C
330
23
100
AcDbEntity
  8
1
100
AcDbLine
 10
80.38577700000001
 20
-26.325482
 30
0.0
 11
80.38577700000001
 21
-99.20509500000001
 31
0.0
  0
LINE
  5
4D
330
23
100
AcDbEntity
  8
1
100
AcDbLine
 10
118.385777
 20
-26.325482
 30
0.0
 11
118.385777
 21
-99.20509500000001
 31
0.0
  0
LINE
  5
4E
330
23
100
AcDbEntity
  8
1
  6
CENTER
 62
     2
100
AcDbLine
 10
63.385777
 20
7.228749999999999
 30
0.0
 11
63.385777
 21
-30.73809600000001
 31
0.0
  0
LINE
  5
4F
330
23
100
AcDbEntity
  8
1
  6
CENTER
 62
     2
100
AcDbLine
 10
135.385777
 20
7.228749999999999
 30
0.0
 11
135.385777
 21
-30.73809600000001
 31
0.0
  0
LINE
  5
50
330
23
100
AcDbEntity
  8
1
100
AcDbLine
 10
90.38577700000001
 20
-176.915226
 30
0.0
 11
108.385777
 21
-176.915226
 31
0.0
  0
LINE
  5
51
330
23
100
AcDbEntity
  8
1
100
AcDbLine
 10
110.902277
 20
-233.219239
 30
0.0
 11
110.902277
 21
-179.431726
 31
0.0
  0
LINE
  5
52
330
23
100
AcDbEntity
  8
1
100
AcDbLine
 10
90.38577700000001
 20
-235.735739
 30
0.0
 11
108.385777
 21
-235.735739
 31
0.0
  0
LINE
  5
53
330
23
100
AcDbEntity
  8
1
100
AcDbLine
 10
87.86927699999999
 20
-233.219239
 30
0.0
 11
87.86927699999999
 21
-179.431726
 31
0.0
  0
ARC
  5
54
330
23
100
AcDbEntity
  8
1
100
AcDbCircle
 10
90.38577700000001
 20
-179.431726
 30
0.0
 40
2.5165
100
AcDbArc
 50
90.0
 51
180.0
  0
ARC
  5
55
330
23
100
AcDbEntity
  8
1
100
AcDbCircle
 10
108.385777
 20
-179.431726
 30
0.0
 40
2.5165
100
AcDbArc
 50
0.0
 51
90.0
  0
ARC
  5
56
330
23
100
AcDbEntity
  8
1
100
AcDbCircle
 10
108.385777
 20
-233.219239
 30
0.0
 40
2.5165
100
AcDbArc
 50
270.0
 51
360.0
  0
ARC
  5
57
330
23
100
AcDbEntity
  8
1
100
AcDbCircle
 10
90.38577700000001
 20
-233.219239
 30
0.0
 40
2.5165
100
AcDbArc
 50
180.0
 51
270.0
  0
LINE
  5
58
330
23
100
AcDbEntity
  8
1
100
AcDbLine
 10
110.902277
 20
-176.915226
 30
0.0
 11
113.145287
 21
-172.672119
 31
0.0
  0
LINE
  5
59
330
23
100
AcDbEntity
  8
1
100
AcDbLine
 10
85.626267
 20
-172.672119
 30
0.0
 11
87.86927699999999
 21
-176.915226
 31
0.0
  0
LINE
  5
5A
330
23
100
AcDbEntity
  8
1
100
AcDbLine
 10
87.86927699999999
 20
-235.735739
 30
0.0
 11
85.626267
 21
-239.978846
 31
0.0
  0
LINE
  5
5B
330
23
100
AcDbEntity
  8
1
100
AcDbLine
 10
113.145287
 20
-239.978846
 30
0.0
 11
110.902277
 21
-235.735739
 31
0.0
  0
LINE
  5
5C
330
23
100
AcDbEntity
  8
1
100
AcDbLine
 10
90.38577700000001
 20
-125.577358
 30
0.0
 11
108.385777
 21
-125.577358
 31
0.0
  0
LINE
  5
5D
330
23
100
AcDbEntity
  8
1
100
AcDbLine
 10
87.86927699999999
 20
-158.687031
 30
0.0
 11
87.86927699999999
 21
-128.093858
 31
0.0
  0
LINE
  5
5E
330
23
100
AcDbEntity
  8
1
100
AcDbLine
 10
90.38577700000001
 20
-161.203531
 30
0.0
 11
108.385777
 21
-161.203531
 31
0.0
  0
LINE
  5
5F
330
23
100
AcDbEntity
  8
1
100
AcDbLine
 10
110.902277
 20
-158.687031
 30
0.0
 11
110.902277
 21
-128.093858
 31
0.0
  0
ARC
  5
60
330
23
100
AcDbEntity
  8
1
100
AcDbCircle
 10
108.385777
 20
-128.093858
 30
0.0
 40
2.5165
100
AcDbArc
 50
0.0
 51
90.0
  0
ARC
  5
61
330
23
100
AcDbEntity
  8
1
100
AcDbCircle
 10
90.38577700000001
 20
-128.093858
 30
0.0
 40
2.5165
100
AcDbArc
 50
90.0
 51
180.0
  0
ARC
  5
62
330
23
100
AcDbEntity
  8
1
100
AcDbCircle
 10
90.38577700000001
 20
-158.687031
 30
0.0
 40
2.5165
100
AcDbArc
 50
180.0
 51
270.0
  0
ARC
  5
63
330
23
100
AcDbEntity
  8
1
100
AcDbCircle
 10
108.385777
 20
-158.687031
 30
0.0
 40
2.5165
100
AcDbArc
 50
270.0
 51
360.0
  0
LINE
  5
64
330
23
100
AcDbEntity
  8
1
100
AcDbLine
 10
110.902277
 20
-125.577358
 30
0.0
 11
113.715899
 21
-111.947525
 31
0.0
  0
LINE
  5
65
330
23
100
AcDbEntity
  8
1
100
AcDbLine
 10
85.055654
 20
-111.947525
 30
0.0
 11
87.86927699999999
 21
-125.577358
 31
0.0
  0
LINE
  5
66
330
23
100
AcDbEntity
  8
1
100
AcDbLine
 10
85.81940300000001
 20
-164.217555
 30
0.0
 11
87.86927699999999
 21
-161.203531
 31
0.0
  0
LINE
  5
67
330
23
100
AcDbEntity
  8
1
100
AcDbLine
 10
112.952151
 20
-164.217555
 30
0.0
 11
110.902277
 21
-161.203531
 31
0.0
  0
LINE
  5
68
330
23
100
AcDbEntity
  8
1
100
AcDbLine
 10
90.38577700000001
 20
-251.447434
 30
0.0
 11
108.385777
 21
-251.447434
 31
0.0
  0
LINE
  5
69
330
23
100
AcDbEntity
  8
1
100
AcDbLine
 10
87.86927699999999
 20
-284.5571060000001
 30
0.0
 11
87.86927699999999
 21
-253.963934
 31
0.0
  0
LINE
  5
6A
330
23
100
AcDbEntity
  8
1
100
AcDbLine
 10
90.38577700000001
 20
-287.073606
 30
0.0
 11
108.385777
 21
-287.073606
 31
0.0
  0
LINE
  5
6B
330
23
100
AcDbEntity
  8
1
100
AcDbLine
 10
110.902277
 20
-284.5571060000001
 30
0.0
 11
110.902277
 21
-253.963934
 31
0.0
  0
ARC
  5
6C
330
23
100
AcDbEntity
  8
1
100
AcDbCircle
 10
108.385777
 20
-253.963934
 30
0.0
 40
2.5165
100
AcDbArc
 50
0.0
 51
90.0
  0
ARC
  5
6D
330
23
100
AcDbEntity
  8
1
100
AcDbCircle
 10
90.38577700000001
 20
-253.963934
 30
0.0
 40
2.5165
100
AcDbArc
 50
90.0
 51
180.0
  0
ARC
  5
6E
330
23
100
AcDbEntity
  8
1
100
AcDbCircle
 10
90.38577700000001
 20
-284.5571060000001
 30
0.0
 40
2.5165
100
AcDbArc
 50
180.0
 51
270.0
  0
ARC
  5
6F
330
23
100
AcDbEntity
  8
1
100
AcDbCircle
 10
108.385777
 20
-284.5571060000001
 30
0.0
 40
2.5165
100
AcDbArc
 50
270.0
 51
360.0
  0
LINE
  5
70
330
23
100
AcDbEntity
  8
1
100
AcDbLine
 10
112.952151
 20
-248.433409
 30
0.0
 11
110.902277
 21
-251.447434
 31
0.0
  0
LINE
  5
71
330
23
100
AcDbEntity
  8
1
100
AcDbLine
 10
85.81940300000001
 20
-248.433409
 30
0.0
 11
87.86927699999999
 21
-251.447434
 31
0.0
  0
LINE
  5
72
330
23
100
AcDbEntity
  8
1
100
AcDbLine
 10
85.055654
 20
-300.70344
 30
0.0
 11
87.86927699999999
 21
-287.073606
 31
0.0
  0
LINE
  5
73
330
23
100
AcDbEntity
  8
1
100
AcDbLine
 10
110.902277
 20
-287.073606
 30
0.0
 11
113.715899
 21
-300.70344
 31
0.0
  0
LINE
  5
74
330
23
100
AcDbEntity
  8
1
100
AcDbLine
 10
69.385777
 20
-111.775482
 30
0.0
 11
69.385777
 21
-300.875482
 31
0.0
  0
LINE
  5
75
330
23
100
AcDbEntity
  8
1
100
AcDbLine
 10
129.385777
 20
-111.775482
 30
0.0
 11
129.385777
 21
-300.875482
 31
0.0
  0
LINE
  5
76
330
23
100
AcDbEntity
  8
1
100
AcDbLine
 10
127.674745
 20
-108.823952
 30
0.0
 11
129.385777
 21
-111.775482
 31
0.0
  0
LINE
  5
77
330
23
100
AcDbEntity
  8
1
100
AcDbLine
 10
69.385777
 20
-111.775482
 30
0.0
 11
71.09680899999999
 21
-108.823952
 31
0.0
  0
ARC
  5
78
330
23
100
AcDbEntity
  8
1
100
AcDbCircle
 10
126.809605
 20
-109.325482
 30
0.0
 40
1.0
100
AcDbArc
 50
30.101305
 51
54.818241
  0
ARC
  5
79
330
23
100
AcDbEntity
  8
1
100
AcDbCircle
 10
71.961949
 20
-109.325482
 30
0.0
 40
1.0
100
AcDbArc
 50
125.181759
 51
149.898695
  0
LINE
  5
7A
330
23
100
AcDbEntity
  8
1
100
AcDbLine
 10
129.385777
 20
-300.875482
 30
0.0
 11
127.674745
 21
-303.827013
 31
0.0
  0
LINE
  5
7B
330
23
100
AcDbEntity
  8
1
100
AcDbLine
 10
69.385777
 20
-300.875482
 30
0.0
 11
71.09680899999999
 21
-303.827013
 31
0.0
  0
ARC
  5
7C
330
23
100
AcDbEntity
  8
1
100
AcDbCircle
 10
126.809605
 20
-303.325482
 30
0.0
 40
1.0
100
AcDbArc
 50
305.181759
 51
329.898695
  0
ARC
  5
7D
330
23
100
AcDbEntity
  8
1
100
AcDbCircle
 10
71.961949
 20
-303.325482
 30
0.0
 40
1.0
100
AcDbArc
 50
210.101305
 51
234.818241
  0
LINE
  5
7E
330
23
100
AcDbEntity
  8
1
100
AcDbLine
 10
-351.665754
 20
301.113485
 30
0.0
 11
-348.714223
 21
302.824518
 31
0.0
  0
LINE
  5
7F
330
23
100
AcDbEntity
  8
1
100
AcDbLine
 10
-348.714223
 20
242.824518
 30
0.0
 11
-351.665754
 21
244.53555
 31
0.0
  0
ARC
  5
80
330
23
100
AcDbEntity
  8
1
100
AcDbCircle
 10
-351.164223
 20
300.248345
 30
0.0
 40
1.0
100
AcDbArc
 50
120.101305
 51
144.818241
  0
ARC
  5
81
330
23
100
AcDbEntity
  8
1
100
AcDbCircle
 10
-351.164223
 20
245.40069
 30
0.0
 40
1.0
100
AcDbArc
 50
215.181759
 51
239.898695
  0
LINE
  5
82
330
23
100
AcDbEntity
  8
1
100
AcDbLine
 10
-159.614223
 20
302.824518
 30
0.0
 11
-156.662693
 21
301.113485
 31
0.0
  0
LINE
  5
83
330
23
100
AcDbEntity
  8
1
100
AcDbLine
 10
-159.614223
 20
242.824518
 30
0.0
 11
-156.662693
 21
244.53555
 31
0.0
  0
ARC
  5
84
330
23
100
AcDbEntity
  8
1
100
AcDbCircle
 10
-157.164223
 20
300.248345
 30
0.0
 40
1.0
100
AcDbArc
 50
35.181759
 51
59.898695
  0
ARC
  5
85
330
23
100
AcDbEntity
  8
1
100
AcDbCircle
 10
-157.164223
 20
245.40069
 30
0.0
 40
1.0
100
AcDbArc
 50
300.101305
 51
324.818241
  0
LINE
  5
86
330
23
100
AcDbEntity
  8
1
100
AcDbLine
 10
-348.714223
 20
302.824518
 30
0.0
 11
-305.030866
 21
302.824518
 31
0.0
  0
LINE
  5
87
330
23
100
AcDbEntity
  8
1
100
AcDbLine
 10
-203.29758
 20
302.824518
 30
0.0
 11
-159.614223
 21
302.824518
 31
0.0
  0
LINE
  5
88
330
23
100
AcDbEntity
  8
1
100
AcDbLine
 10
-348.714223
 20
242.824518
 30
0.0
 11
-305.030866
 21
242.824518
 31
0.0
  0
LINE
  5
89
330
23
100
AcDbEntity
  8
1
100
AcDbLine
 10
-203.29758
 20
242.824518
 30
0.0
 11
-159.614223
 21
242.824518
 31
0.0
  0
ARC
  5
8A
330
23
100
AcDbEntity
  8
1
100
AcDbCircle
 10
-207.164223
 20
-14.325482
 30
0.0
 40
4.0
100
AcDbArc
 50
270.0
 51
360.0
  0
ARC
  5
8B
330
23
100
AcDbEntity
  8
1
100
AcDbCircle
 10
-301.164223
 20
-14.325482
 30
0.0
 40
4.0
100
AcDbArc
 50
180.0
 51
270.0
  0
ARC
  5
8C
330
23
100
AcDbEntity
  8
1
100
AcDbCircle
 10
-227.164223
 20
-26.325482
 30
0.0
 40
8.0
100
AcDbArc
 50
90.0
 51
180.0
  0
ARC
  5
8D
330
23
100
AcDbEntity
  8
1
100
AcDbCircle
 10
-281.164223
 20
-26.325482
 30
0.0
 40
8.0
100
AcDbArc
 50
0.0
 51
90.0
  0
LINE
  5
8E
330
23
100
AcDbEntity
  8
1
100
AcDbLine
 10
-251.164223
 20
-46.325482
 30
0.0
 11
-257.164223
 21
-46.325482
 31
0.0
  0
LINE
  5
8F
330
23
100
AcDbEntity
  8
1
100
AcDbLine
 10
-257.164223
 20
-21.325482
 30
0.0
 11
-257.164223
 21
-43.325482
 31
0.0
  0
LINE
  5
90
330
23
100
AcDbEntity
  8
1
100
AcDbLine
 10
-251.164223
 20
-21.325482
 30
0.0
 11
-251.164223
 21
-43.325482
 31
0.0
  0
ARC
  5
91
330
23
100
AcDbEntity
  8
1
100
AcDbCircle
 10
-248.164223
 20
-21.325482
 30
0.0
 40
3.0
100
AcDbArc
 50
90.0
 51
180.0
  0
ARC
  5
92
330
23
100
AcDbEntity
  8
1
100
AcDbCircle
 10
-260.164223
 20
-21.325482
 30
0.0
 40
3.0
100
AcDbArc
 50
360.0
 51
90.0
  0
ARC
  5
93
330
23
100
AcDbEntity
  8
1
100
AcDbCircle
 10
-248.164223
 20
-43.325482
 30
0.0
 40
3.0
100
AcDbArc
 50
180.0
 51
270.0
  0
ARC
  5
94
330
23
100
AcDbEntity
  8
1
100
AcDbCircle
 10
-260.164223
 20
-43.325482
 30
0.0
 40
3.0
100
AcDbArc
 50
270.0
 51
360.0
  0
ARC
  5
95
330
23
100
AcDbEntity
  8
1
100
AcDbCircle
 10
-295.164223
 20
-40.32548199999999
 30
0.0
 40
22.0
100
AcDbArc
 50
360.0
 51
90.0
  0
ARC
  5
96
330
23
100
AcDbEntity
  8
1
100
AcDbCircle
 10
-213.164223
 20
-40.32548199999999
 30
0.0
 40
22.0
100
AcDbArc
 50
90.0
 51
180.0
  0
LINE
  5
97
330
23
100
AcDbEntity
  8
1
100
AcDbLine
 10
-279.455627
 20
-24.525482
 30
0.0
 11
-273.369353
 21
-24.525482
 31
0.0
  0
LINE
  5
98
330
23
100
AcDbEntity
  8
1
100
AcDbLine
 10
-234.959093
 20
-24.525482
 30
0.0
 11
-228.87282
 21
-24.525482
 31
0.0
  0
ARC
  5
99
330
23
100
AcDbEntity
  8
1
100
AcDbCircle
 10
-228.87282
 20
-23.525482
 30
0.0
 40
1.0
100
AcDbArc
 50
270.0
 51
313.077144
  0
ARC
  5
9A
330
23
100
AcDbEntity
  8
1
100
AcDbCircle
 10
-279.455627
 20
-23.525482
 30
0.0
 40
1.0
100
AcDbArc
 50
226.922856
 51
270.0
  0
ARC
  5
9B
330
23
100
AcDbEntity
  8
1
100
AcDbCircle
 10
-225.164223
 20
-94.52543799999999
 30
0.0
 40
10.0
100
AcDbArc
 50
180.0
 51
255.458437
  0
ARC
  5
9C
330
23
100
AcDbEntity
  8
1
100
AcDbCircle
 10
-283.164223
 20
-94.52543799999999
 30
0.0
 40
10.0
100
AcDbArc
 50
284.541563
 51
360.0
  0
ARC
  5
9D
330
23
100
AcDbEntity
  8
1
100
AcDbCircle
 10
-254.164223
 20
-206.325482
 30
0.0
 40
142.0
100
AcDbArc
 50
68.73669599999999
 51
79.001139
  0
ARC
  5
9E
330
23
100
AcDbEntity
  8
1
100
AcDbCircle
 10
-254.164223
 20
-206.325482
 30
0.0
 40
142.0
100
AcDbArc
 50
100.998861
 51
111.263304
  0
LINE
  5
9F
330
23
100
AcDbEntity
  8
1
100
AcDbLine
 10
-305.802095
 20
-81.66063299999999
 30
0.0
 11
-307.34483
 21
-77.936141
 31
0.0
  0
LINE
  5
A0
330
23
100
AcDbEntity
  8
1
100
AcDbLine
 10
-202.526352
 20
-81.66063299999999
 30
0.0
 11
-200.983617
 21
-77.936141
 31
0.0
  0
ARC
  5
A1
330
23
100
AcDbEntity
  8
1
100
AcDbCircle
 10
-207.955199
 20
-94.76702900000001
 30
0.0
 40
11.5
100
AcDbArc
 50
79.44054399999998
 51
148.650117
  0
ARC
  5
A2
330
23
100
AcDbEntity
  8
1
100
AcDbCircle
 10
-209.19892
 20
-97.76963700000001
 30
0.0
 40
12.0
100
AcDbArc
 50
148.650117
 51
247.5
  0
ARC
  5
A3
330
23
100
AcDbEntity
  8
1
100
AcDbCircle
 10
-299.129526
 20
-97.76963700000001
 30
0.0
 40
12.0
100
AcDbArc
 50
292.5
 51
31.34988300000001
  0
ARC
  5
A4
330
23
100
AcDbEntity
  8
1
100
AcDbCircle
 10
-300.373248
 20
-94.76702900000001
 30
0.0
 40
11.5
100
AcDbArc
 50
31.34988300000001
 51
100.559456
  0
LINE
  5
A5
330
23
100
AcDbEntity
  8
1
100
AcDbLine
 10
-217.77627
 20
-88.784006
 30
0.0
 11
-219.446994
 21
-91.526483
 31
0.0
  0
LINE
  5
A6
330
23
100
AcDbEntity
  8
1
100
AcDbLine
 10
-290.552176
 20
-88.784006
 30
0.0
 11
-288.881452
 21
-91.526483
 31
0.0
  0
ARC
  5
A7
330
23
100
AcDbEntity
  8
1
100
AcDbCircle
 10
-225.164223
 20
-57.11757399999999
 30
0.0
 40
10.0
100
AcDbArc
 50
180.0
 51
259.001139
  0
ARC
  5
A8
330
23
100
AcDbEntity
  8
1
100
AcDbCircle
 10
-283.164223
 20
-57.11757399999999
 30
0.0
 40
10.0
100
AcDbArc
 50
280.998861
 51
360.0
  0
ARC
  5
A9
330
23
100
AcDbEntity
  8
1
100
AcDbCircle
 10
-205.29799
 20
-80.51258199999999
 30
0.0
 40
3.0
100
AcDbArc
 50
259.440544
 51
337.5
  0
ARC
  5
AA
330
23
100
AcDbEntity
  8
1
100
AcDbCircle
 10
-203.755255
 20
-76.78809
 30
0.0
 40
3.0
100
AcDbArc
 50
337.5
 51
68.73669599999999
  0
ARC
  5
AB
330
23
100
AcDbEntity
  8
1
100
AcDbCircle
 10
-304.573191
 20
-76.78809
 30
0.0
 40
3.0
100
AcDbArc
 50
111.263304
 51
202.5
  0
ARC
  5
AC
330
23
100
AcDbEntity
  8
1
100
AcDbCircle
 10
-303.030456
 20
-80.51258199999999
 30
0.0
 40
3.0
100
AcDbArc
 50
202.5
 51
280.559456
  0
LINE
  5
AD
330
23
100
AcDbEntity
  8
1
100
AcDbLine
 10
-281.164223
 20
-331.325482
 30
0.0
 11
-227.164223
 21
-331.325482
 31
0.0
  0
LINE
  5
AE
330
23
100
AcDbEntity
  8
1
100
AcDbLine
 10
-281.164223
 20
-315.73869
 30
0.0
 11
-281.164223
 21
-334.525482
 31
0.0
  0
LINE
  5
AF
330
23
100
AcDbEntity
  8
1
100
AcDbLine
 10
-227.164223
 20
-315.73869
 30
0.0
 11
-227.164223
 21
-334.525482
 31
0.0
  0
ARC
  5
B0
330
23
100
AcDbEntity
  8
1
100
AcDbCircle
 10
-217.164223
 20
-315.73869
 30
0.0
 40
10.0
100
AcDbArc
 50
108.68387
 51
180.0
  0
ARC
  5
B1
330
23
100
AcDbEntity
  8
1
100
AcDbCircle
 10
-291.164223
 20
-315.73869
 30
0.0
 40
10.0
100
AcDbArc
 50
0.0
 51
71.31613
  0
LINE
  5
B2
330
23
100
AcDbEntity
  8
1
100
AcDbLine
 10
-278.164223
 20
-328.325482
 30
0.0
 11
-230.164223
 21
-328.325482
 31
0.0
  0
LINE
  5
B3
330
23
100
AcDbEntity
  8
1
100
AcDbLine
 10
-224.94068
 20
-327.729686
 30
0.0
 11
-221.917732
 21
-326.919689
 31
0.0
  0
LINE
  5
B4
330
23
100
AcDbEntity
  8
1
100
AcDbLine
 10
-283.387766
 20
-327.729686
 30
0.0
 11
-286.4107140000001
 21
-326.919689
 31
0.0
  0
ARC
  5
B5
330
23
100
AcDbEntity
  8
1
100
AcDbCircle
 10
-224.164223
 20
-330.627463
 30
0.0
 40
3.0
100
AcDbArc
 50
105.0
 51
180.0
  0
ARC
  5
B6
330
23
100
AcDbEntity
  8
1
100
AcDbCircle
 10
-284.164223
 20
-330.627463
 30
0.0
 40
3.0
100
AcDbArc
 50
360.0
 51
75.0
  0
ARC
  5
B7
330
23
100
AcDbEntity
  8
1
100
AcDbCircle
 10
-230.164223
 20
-325.3254819999999
 30
0.0
 40
3.0
100
AcDbArc
 50
270.0
 51
360.0
  0
ARC
  5
B8
330
23
100
AcDbEntity
  8
1
100
AcDbCircle
 10
-278.164223
 20
-325.3254819999999
 30
0.0
 40
3.0
100
AcDbArc
 50
180.0
 51
270.0
  0
ARC
  5
B9
330
23
100
AcDbEntity
  8
1
100
AcDbCircle
 10
-209.19892
 20
-314.881327
 30
0.0
 40
12.0
100
AcDbArc
 50
112.5
 51
210.724874
  0
ARC
  5
BA
330
23
100
AcDbEntity
  8
1
100
AcDbCircle
 10
-299.129526
 20
-314.881327
 30
0.0
 40
12.0
100
AcDbArc
 50
329.275126
 51
67.5
  0
ARC
  5
BB
330
23
100
AcDbEntity
  8
1
100
AcDbCircle
 10
-222.953009
 20
-323.055986
 30
0.0
 40
4.0
100
AcDbArc
 50
285.0
 51
30.724874
  0
ARC
  5
BC
330
23
100
AcDbEntity
  8
1
100
AcDbCircle
 10
-285.375438
 20
-323.055986
 30
0.0
 40
4.0
100
AcDbArc
 50
149.275126
 51
255.0
  0
LINE
  5
BD
330
23
100
AcDbEntity
  8
1
  6
CENTER
 62
     2
100
AcDbLine
 10
-272.164223
 20
-322.945238
 30
0.0
 11
-272.164223
 21
-345.708468
 31
0.0
  0
LINE
  5
BE
330
23
100
AcDbEntity
  8
1
  6
CENTER
 62
     2
100
AcDbLine
 10
-236.164223
 20
-322.945238
 30
0.0
 11
-236.164223
 21
-345.708468
 31
0.0
  0
LINE
  5
BF
330
23
100
AcDbEntity
  8
1
100
AcDbLine
 10
-281.164223
 20
-332.125482
 30
0.0
 11
-227.164223
 21
-332.125482
 31
0.0
  0
LINE
  5
C0
330
23
100
AcDbEntity
  8
1
100
AcDbLine
 10
-281.164223
 20
-334.525482
 30
0.0
 11
-227.164223
 21
-334.525482
 31
0.0
  0
LINE
  5
C1
330
23
100
AcDbEntity
  8
1
100
AcDbLine
 10
-230.414223
 20
-336.025482
 30
0.0
 11
-230.414223
 21
-339.534735
 31
0.0
  0
LINE
  5
C2
330
23
100
AcDbEntity
  8
1
100
AcDbLine
 10
-230.414223
 20
-339.534735
 30
0.0
 11
-231.264223
 21
-340.025482
 31
0.0
  0
LINE
  5
C3
330
23
100
AcDbEntity
  8
1
100
AcDbLine
 10
-233.289223
 20
-336.025482
 30
0.0
 11
-233.289223
 21
-339.534735
 31
0.0
  0
ARC
  5
C4
330
23
100
AcDbEntity
  8
1
100
AcDbCircle
 10
-231.851723
 20
-337.68678
 30
0.0
 40
2.341226999999999
100
AcDbArc
 50
232.121121
 51
307.878879
  0
ARC
  5
C5
330
23
100
AcDbEntity
  8
1
100
AcDbCircle
 10
-236.164223
 20
-331.403007
 30
0.0
 40
8.625
100
AcDbArc
 50
250.528777
 51
289.471219
  0
LINE
  5
C6
330
23
100
AcDbEntity
  8
1
100
AcDbLine
 10
-241.914223
 20
-336.025482
 30
0.0
 11
-241.914223
 21
-339.534735
 31
0.0
  0
LINE
  5
C7
330
23
100
AcDbEntity
  8
1
100
AcDbLine
 10
-241.914223
 20
-339.534735
 30
0.0
 11
-241.064223
 21
-340.025482
 31
0.0
  0
LINE
  5
C8
330
23
100
AcDbEntity
  8
1
100
AcDbLine
 10
-241.064223
 20
-340.025482
 30
0.0
 11
-231.264223
 21
-340.025482
 31
0.0
  0
LINE
  5
C9
330
23
100
AcDbEntity
  8
1
100
AcDbLine
 10
-239.039223
 20
-336.025482
 30
0.0
 11
-239.039223
 21
-339.534735
 31
0.0
  0
ARC
  5
CA
330
23
100
AcDbEntity
  8
1
100
AcDbCircle
 10
-240.476723
 20
-337.68678
 30
0.0
 40
2.341226999999999
100
AcDbArc
 50
232.121121
 51
307.878879
  0
LINE
  5
CB
330
23
100
AcDbEntity
  8
1
100
AcDbLine
 10
-230.064223
 20
-334.525482
 30
0.0
 11
-230.064223
 21
-336.025482
 31
0.0
  0
LINE
  5
CC
330
23
100
AcDbEntity
  8
1
100
AcDbLine
 10
-230.064223
 20
-336.025482
 30
0.0
 11
-242.264223
 21
-336.025482
 31
0.0
  0
LINE
  5
CD
330
23
100
AcDbEntity
  8
1
100
AcDbLine
 10
-242.264223
 20
-336.025482
 30
0.0
 11
-242.264223
 21
-334.525482
 31
0.0
  0
LINE
  5
CE
330
23
100
AcDbEntity
  8
1
100
AcDbLine
 10
-236.164223
 20
-336.025482
 30
0.0
 11
-236.664223
 21
-334.525482
 31
0.0
  0
LINE
  5
CF
330
23
100
AcDbEntity
  8
1
100
AcDbLine
 10
-236.164223
 20
-334.525482
 30
0.0
 11
-235.664223
 21
-336.025482
 31
0.0
  0
LINE
  5
D0
330
23
100
AcDbEntity
  8
1
100
AcDbLine
 10
-278.264223
 20
-336.025482
 30
0.0
 11
-266.064223
 21
-336.025482
 31
0.0
  0
LINE
  5
D1
330
23
100
AcDbEntity
  8
1
100
AcDbLine
 10
-266.414223
 20
-336.025482
 30
0.0
 11
-266.414223
 21
-339.534735
 31
0.0
  0
LINE
  5
D2
330
23
100
AcDbEntity
  8
1
100
AcDbLine
 10
-266.414223
 20
-339.534735
 30
0.0
 11
-267.264223
 21
-340.025482
 31
0.0
  0
LINE
  5
D3
330
23
100
AcDbEntity
  8
1
100
AcDbLine
 10
-269.289223
 20
-336.025482
 30
0.0
 11
-269.289223
 21
-339.534735
 31
0.0
  0
ARC
  5
D4
330
23
100
AcDbEntity
  8
1
100
AcDbCircle
 10
-267.851723
 20
-337.68678
 30
0.0
 40
2.341226999999999
100
AcDbArc
 50
232.121121
 51
307.878879
  0
ARC
  5
D5
330
23
100
AcDbEntity
  8
1
100
AcDbCircle
 10
-272.164223
 20
-331.403007
 30
0.0
 40
8.625
100
AcDbArc
 50
250.528777
 51
289.471219
  0
LINE
  5
D6
330
23
100
AcDbEntity
  8
1
100
AcDbLine
 10
-277.914223
 20
-336.025482
 30
0.0
 11
-277.914223
 21
-339.534735
 31
0.0
  0
LINE
  5
D7
330
23
100
AcDbEntity
  8
1
100
AcDbLine
 10
-277.914223
 20
-339.534735
 30
0.0
 11
-277.0642229999999
 21
-340.025482
 31
0.0
  0
LINE
  5
D8
330
23
100
AcDbEntity
  8
1
100
AcDbLine
 10
-277.0642229999999
 20
-340.025482
 30
0.0
 11
-267.264223
 21
-340.025482
 31
0.0
  0
LINE
  5
D9
330
23
100
AcDbEntity
  8
1
100
AcDbLine
 10
-275.039223
 20
-336.025482
 30
0.0
 11
-275.039223
 21
-339.534735
 31
0.0
  0
ARC
  5
DA
330
23
100
AcDbEntity
  8
1
100
AcDbCircle
 10
-276.476723
 20
-337.68678
 30
0.0
 40
2.341226999999999
100
AcDbArc
 50
232.121121
 51
307.878879
  0
LINE
  5
DB
330
23
100
AcDbEntity
  8
1
100
AcDbLine
 10
-266.064223
 20
-334.525482
 30
0.0
 11
-266.064223
 21
-336.025482
 31
0.0
  0
LINE
  5
DC
330
23
100
AcDbEntity
  8
1
100
AcDbLine
 10
-278.264223
 20
-336.025482
 30
0.0
 11
-278.264223
 21
-334.525482
 31
0.0
  0
LINE
  5
DD
330
23
100
AcDbEntity
  8
1
100
AcDbLine
 10
-272.164223
 20
-336.025482
 30
0.0
 11
-272.664223
 21
-334.525482
 31
0.0
  0
LINE
  5
DE
330
23
100
AcDbEntity
  8
1
100
AcDbLine
 10
-272.164223
 20
-334.525482
 30
0.0
 11
-271.664223
 21
-336.025482
 31
0.0
  0
ARC
  5
DF
330
23
100
AcDbEntity
  8
1
100
AcDbCircle
 10
146.385777
 20
-14.325482
 30
0.0
 40
4.0
100
AcDbArc
 50
270.0
 51
360.0
  0
ARC
  5
E0
330
23
100
AcDbEntity
  8
1
100
AcDbCircle
 10
52.385777
 20
-14.325482
 30
0.0
 40
4.0
100
AcDbArc
 50
180.0
 51
270.0
  0
ARC
  5
E1
330
23
100
AcDbEntity
  8
1
100
AcDbCircle
 10
126.385777
 20
-26.325482
 30
0.0
 40
8.0
100
AcDbArc
 50
90.0
 51
180.0
  0
ARC
  5
E2
330
23
100
AcDbEntity
  8
1
100
AcDbCircle
 10
72.385777
 20
-26.325482
 30
0.0
 40
8.0
100
AcDbArc
 50
0.0
 51
90.0
  0
LINE
  5
E3
330
23
100
AcDbEntity
  8
1
100
AcDbLine
 10
96.385777
 20
-25.257533
 30
0.0
 11
96.385777
 21
-37.325482
 31
0.0
  0
LINE
  5
E4
330
23
100
AcDbEntity
  8
1
100
AcDbLine
 10
102.385777
 20
-25.257533
 30
0.0
 11
102.385777
 21
-37.325482
 31
0.0
  0
LINE
  5
E5
330
23
100
AcDbEntity
  8
1
100
AcDbLine
 10
71.385777
 20
-101.825482
 30
0.0
 11
71.385777
 21
-310.8254819999999
 31
0.0
  0
LINE
  5
E6
330
23
100
AcDbEntity
  8
1
100
AcDbLine
 10
127.385777
 20
-101.825482
 30
0.0
 11
127.385777
 21
-310.8254819999999
 31
0.0
  0
LINE
  5
E7
330
23
100
AcDbEntity
  8
1
100
AcDbLine
 10
127.385777
 20
-101.825482
 30
0.0
 11
126.385777
 21
-100.825482
 31
0.0
  0
LINE
  5
E8
330
23
100
AcDbEntity
  8
1
100
AcDbLine
 10
71.385777
 20
-101.825482
 30
0.0
 11
72.385777
 21
-100.825482
 31
0.0
  0
LINE
  5
E9
330
23
100
AcDbEntity
  8
1
100
AcDbLine
 10
72.385777
 20
-311.825482
 30
0.0
 11
71.385777
 21
-310.8254819999999
 31
0.0
  0
LINE
  5
EA
330
23
100
AcDbEntity
  8
1
100
AcDbLine
 10
126.385777
 20
-311.825482
 30
0.0
 11
127.385777
 21
-310.8254819999999
 31
0.0
  0
LINE
  5
EB
330
23
100
AcDbEntity
  8
1
100
AcDbLine
 10
126.385777
 20
-100.825482
 30
0.0
 11
126.385777
 21
-311.825482
 31
0.0
  0
LINE
  5
EC
330
23
100
AcDbEntity
  8
1
100
AcDbLine
 10
72.385777
 20
-100.825482
 30
0.0
 11
72.385777
 21
-311.825482
 31
0.0
  0
ARC
  5
ED
330
23
100
AcDbEntity
  8
1
100
AcDbCircle
 10
123.385777
 20
-95.82548199999999
 30
0.0
 40
5.0
100
AcDbArc
 50
180.0
 51
270.0
  0
ARC
  5
EE
330
23
100
AcDbEntity
  8
1
100
AcDbCircle
 10
75.38577700000001
 20
-95.82548199999999
 30
0.0
 40
5.0
100
AcDbArc
 50
270.0
 51
0.0
  0
LINE
  5
EF
330
23
100
AcDbEntity
  8
1
100
AcDbLine
 10
72.385777
 20
-100.825482
 30
0.0
 11
75.38577700000001
 21
-100.825482
 31
0.0
  0
LINE
  5
F0
330
23
100
AcDbEntity
  8
1
100
AcDbLine
 10
123.385777
 20
-100.825482
 30
0.0
 11
126.385777
 21
-100.825482
 31
0.0
  0
ARC
  5
F1
330
23
100
AcDbEntity
  8
1
100
AcDbCircle
 10
123.385777
 20
-99.20509500000001
 30
0.0
 40
5.0
100
AcDbArc
 50
180.0
 51
270.0
  0
ARC
  5
F2
330
23
100
AcDbEntity
  8
1
100
AcDbCircle
 10
75.38577700000001
 20
-99.20509500000001
 30
0.0
 40
5.0
100
AcDbArc
 50
270.0
 51
0.0
  0
ARC
  5
F3
330
23
100
AcDbEntity
  8
1
100
AcDbCircle
 10
146.385777
 20
-46.325482
 30
0.0
 40
28.0
100
AcDbArc
 50
90.0
 51
180.0
  0
ARC
  5
F4
330
23
100
AcDbEntity
  8
1
100
AcDbCircle
 10
52.385777
 20
-46.325482
 30
0.0
 40
28.0
100
AcDbArc
 50
0.0
 51
90.0
  0
LINE
  5
F5
330
23
100
AcDbEntity
  8
1
100
AcDbLine
 10
96.385777
 20
-40.32548199999999
 30
0.0
 11
102.385777
 21
-40.32548199999999
 31
0.0
  0
ARC
  5
F6
330
23
100
AcDbEntity
  8
1
100
AcDbCircle
 10
105.385777
 20
-37.325482
 30
0.0
 40
3.0
100
AcDbArc
 50
180.0
 51
270.0
  0
ARC
  5
F7
330
23
100
AcDbEntity
  8
1
100
AcDbCircle
 10
93.385777
 20
-37.325482
 30
0.0
 40
3.0
100
AcDbArc
 50
270.0
 51
0.0
  0
LINE
  5
F8
330
23
100
AcDbEntity
  8
1
100
AcDbLine
 10
95.38577700000001
 20
-21.325482
 30
0.0
 11
95.38577700000001
 21
-23.525482
 31
0.0
  0
LINE
  5
F9
330
23
100
AcDbEntity
  8
1
100
AcDbLine
 10
103.385777
 20
-21.325482
 30
0.0
 11
103.385777
 21
-23.525482
 31
0.0
  0
ARC
  5
FA
330
23
100
AcDbEntity
  8
1
100
AcDbCircle
 10
106.385777
 20
-21.325482
 30
0.0
 40
3.0
100
AcDbArc
 50
90.0
 51
180.0
  0
ARC
  5
FB
330
23
100
AcDbEntity
  8
1
100
AcDbCircle
 10
92.385777
 20
-21.325482
 30
0.0
 40
3.0
100
AcDbArc
 50
0.0
 51
90.0
  0
ARC
  5
FC
330
23
100
AcDbEntity
  8
1
100
AcDbCircle
 10
102.385777
 20
-23.525482
 30
0.0
 40
1.0
100
AcDbArc
 50
300.0
 51
360.0
  0
ARC
  5
FD
330
23
100
AcDbEntity
  8
1
100
AcDbCircle
 10
96.385777
 20
-23.525482
 30
0.0
 40
1.0
100
AcDbArc
 50
180.0
 51
240.0
  0
ARC
  5
FE
330
23
100
AcDbEntity
  8
1
100
AcDbCircle
 10
103.385777
 20
-25.257533
 30
0.0
 40
1.0
100
AcDbArc
 50
120.0
 51
180.0
  0
ARC
  5
FF
330
23
100
AcDbEntity
  8
1
100
AcDbCircle
 10
95.38577700000001
 20
-25.257533
 30
0.0
 40
1.0
100
AcDbArc
 50
0.0
 51
60.0
  0
LINE
  5
100
330
23
100
AcDbEntity
  8
1
100
AcDbLine
 10
81.385777
 20
-331.325482
 30
0.0
 11
117.385777
 21
-331.325482
 31
0.0
  0
LINE
  5
101
330
23
100
AcDbEntity
  8
1
100
AcDbLine
 10
81.385777
 20
-311.265685
 30
0.0
 11
81.385777
 21
-334.525482
 31
0.0
  0
LINE
  5
102
330
23
100
AcDbEntity
  8
1
100
AcDbLine
 10
117.385777
 20
-311.265685
 30
0.0
 11
117.385777
 21
-334.525482
 31
0.0
  0
ARC
  5
103
330
23
100
AcDbEntity
  8
1
100
AcDbCircle
 10
122.385777
 20
-316.825482
 30
0.0
 40
5.0
100
AcDbArc
 50
90.0
 51
180.0
  0
ARC
  5
104
330
23
100
AcDbEntity
  8
1
100
AcDbCircle
 10
76.385777
 20
-316.825482
 30
0.0
 40
5.0
100
AcDbArc
 50
0.0
 51
90.0
  0
LINE
  5
105
330
23
100
AcDbEntity
  8
1
100
AcDbLine
 10
72.385777
 20
-311.825482
 30
0.0
 11
76.385777
 21
-311.825482
 31
0.0
  0
LINE
  5
106
330
23
100
AcDbEntity
  8
1
100
AcDbLine
 10
122.385777
 20
-311.825482
 30
0.0
 11
126.385777
 21
-311.825482
 31
0.0
  0
ARC
  5
107
330
23
100
AcDbEntity
  8
1
100
AcDbCircle
 10
122.385777
 20
-311.265685
 30
0.0
 40
5.0
100
AcDbArc
 50
90.0
 51
180.0
  0
ARC
  5
108
330
23
100
AcDbEntity
  8
1
100
AcDbCircle
 10
76.385777
 20
-311.265685
 30
0.0
 40
5.0
100
AcDbArc
 50
0.0
 51
90.0
  0
LINE
  5
109
330
23
100
AcDbEntity
  8
1
100
AcDbLine
 10
81.385777
 20
-332.125482
 30
0.0
 11
117.385777
 21
-332.125482
 31
0.0
  0
LINE
  5
10A
330
23
100
AcDbEntity
  8
1
100
AcDbLine
 10
81.385777
 20
-334.525482
 30
0.0
 11
117.385777
 21
-334.525482
 31
0.0
  0
LINE
  5
10B
330
23
100
AcDbEntity
  8
1
100
AcDbLine
 10
93.285777
 20
-336.025482
 30
0.0
 11
105.485777
 21
-336.025482
 31
0.0
  0
LINE
  5
10C
330
23
100
AcDbEntity
  8
1
100
AcDbLine
 10
104.385777
 20
-336.025482
 30
0.0
 11
104.385777
 21
-340.025482
 31
0.0
  0
LINE
  5
10D
330
23
100
AcDbEntity
  8
1
100
AcDbLine
 10
99.38577700000001
 20
-336.025482
 30
0.0
 11
99.38577700000001
 21
-339.534735
 31
0.0
  0
ARC
  5
10E
330
23
100
AcDbEntity
  8
1
100
AcDbCircle
 10
101.885777
 20
-333.412275
 30
0.0
 40
6.613208
100
AcDbArc
 50
247.7882049999999
 51
292.211795
  0
LINE
  5
10F
330
23
100
AcDbEntity
  8
1
100
AcDbLine
 10
94.38577700000001
 20
-336.025482
 30
0.0
 11
94.38577700000001
 21
-340.025482
 31
0.0
  0
LINE
  5
110
330
23
100
AcDbEntity
  8
1
100
AcDbLine
 10
94.38577700000001
 20
-340.025482
 30
0.0
 11
104.385777
 21
-340.025482
 31
0.0
  0
ARC
  5
111
330
23
100
AcDbEntity
  8
1
100
AcDbCircle
 10
96.88577700000001
 20
-333.412275
 30
0.0
 40
6.613208
100
AcDbArc
 50
247.7882049999999
 51
292.211795
  0
LINE
  5
112
330
23
100
AcDbEntity
  8
1
100
AcDbLine
 10
105.485777
 20
-334.525482
 30
0.0
 11
105.485777
 21
-336.025482
 31
0.0
  0
LINE
  5
113
330
23
100
AcDbEntity
  8
1
100
AcDbLine
 10
93.285777
 20
-336.025482
 30
0.0
 11
93.285777
 21
-334.525482
 31
0.0
  0
CIRCLE
  5
114
330
23
100
AcDbEntity
  8
1
100
AcDbCircle
 10
-254.164223
 20
-206.325482
 30
0.0
 40
105.5
  0
LINE
  5
115
330
23
100
AcDbEntity
  8
1
100
AcDbLine
 10
90.38577700000001
 20
-166.325482
 30
0.0
 11
108.385777
 21
-166.325482
 31
0.0
  0
LINE
  5
116
330
23
100
AcDbEntity
  8
1
100
AcDbLine
 10
90.38577700000001
 20
-170.325482
 30
0.0
 11
108.385777
 21
-170.325482
 31
0.0
  0
LINE
  5
117
330
23
100
AcDbEntity
  8
1
100
AcDbLine
 10
90.38577700000001
 20
-242.325482
 30
0.0
 11
108.385777
 21
-242.325482
 31
0.0
  0
LINE
  5
118
330
23
100
AcDbEntity
  8
1
100
AcDbLine
 10
90.38577700000001
 20
-246.325482
 30
0.0
 11
108.385777
 21
-246.325482
 31
0.0
  0
LINE
  5
119
330
23
100
AcDbEntity
  8
1
100
AcDbLine
 10
114.385777
 20
-160.325482
 30
0.0
 11
114.385777
 21
-114.702483
 31
0.0
  0
LINE
  5
11A
330
23
100
AcDbEntity
  8
1
100
AcDbLine
 10
84.38577700000001
 20
-160.325482
 30
0.0
 11
84.38577700000001
 21
-114.702483
 31
0.0
  0
LINE
  5
11B
330
23
100
AcDbEntity
  8
1
100
AcDbLine
 10
114.385777
 20
-297.948482
 30
0.0
 11
114.385777
 21
-252.325482
 31
0.0
  0
LINE
  5
11C
330
23
100
AcDbEntity
  8
1
100
AcDbLine
 10
114.385777
 20
-236.325482
 30
0.0
 11
114.385777
 21
-176.325482
 31
0.0
  0
LINE
  5
11D
330
23
100
AcDbEntity
  8
1
100
AcDbLine
 10
84.38577700000001
 20
-297.948482
 30
0.0
 11
84.38577700000001
 21
-252.325482
 31
0.0
  0
LINE
  5
11E
330
23
100
AcDbEntity
  8
1
100
AcDbLine
 10
84.38577700000001
 20
-236.325482
 30
0.0
 11
84.38577700000001
 21
-176.325482
 31
0.0
  0
ARC
  5
11F
330
23
100
AcDbEntity
  8
1
100
AcDbCircle
 10
108.385777
 20
-114.702483
 30
0.0
 40
6.0
100
AcDbArc
 50
0.0
 51
90.0
  0
ARC
  5
120
330
23
100
AcDbEntity
  8
1
100
AcDbCircle
 10
90.38577700000001
 20
-114.702483
 30
0.0
 40
6.0
100
AcDbArc
 50
90.0
 51
180.0
  0
ARC
  5
121
330
23
100
AcDbEntity
  8
1
100
AcDbCircle
 10
90.38577700000001
 20
-160.325482
 30
0.0
 40
6.0
100
AcDbArc
 50
180.0
 51
270.0
  0
ARC
  5
122
330
23
100
AcDbEntity
  8
1
100
AcDbCircle
 10
108.385777
 20
-160.325482
 30
0.0
 40
6.0
100
AcDbArc
 50
270.0
 51
0.0
  0
ARC
  5
123
330
23
100
AcDbEntity
  8
1
100
AcDbCircle
 10
108.385777
 20
-176.325482
 30
0.0
 40
6.0
100
AcDbArc
 50
0.0
 51
90.0
  0
ARC
  5
124
330
23
100
AcDbEntity
  8
1
100
AcDbCircle
 10
90.38577700000001
 20
-176.325482
 30
0.0
 40
6.0
100
AcDbArc
 50
90.0
 51
180.0
  0
ARC
  5
125
330
23
100
AcDbEntity
  8
1
100
AcDbCircle
 10
90.38577700000001
 20
-236.325482
 30
0.0
 40
6.0
100
AcDbArc
 50
180.0
 51
270.0
  0
ARC
  5
126
330
23
100
AcDbEntity
  8
1
100
AcDbCircle
 10
108.385777
 20
-236.325482
 30
0.0
 40
6.0
100
AcDbArc
 50
270.0
 51
360.0
  0
ARC
  5
127
330
23
100
AcDbEntity
  8
1
100
AcDbCircle
 10
108.385777
 20
-252.325482
 30
0.0
 40
6.0
100
AcDbArc
 50
0.0
 51
90.0
  0
ARC
  5
128
330
23
100
AcDbEntity
  8
1
100
AcDbCircle
 10
90.38577700000001
 20
-252.325482
 30
0.0
 40
6.0
100
AcDbArc
 50
90.0
 51
180.0
  0
ARC
  5
129
330
23
100
AcDbEntity
  8
1
100
AcDbCircle
 10
90.38577700000001
 20
-297.948482
 30
0.0
 40
6.0
100
AcDbArc
 50
180.0
 51
270.0
  0
ARC
  5
12A
330
23
100
AcDbEntity
  8
1
100
AcDbCircle
 10
108.385777
 20
-297.948482
 30
0.0
 40
6.0
100
AcDbArc
 50
270.0
 51
360.0
  0
LINE
  5
12B
330
23
100
AcDbEntity
  8
1
100
AcDbLine
 10
95.38577700000001
 20
-57.11757399999999
 30
0.0
 11
103.385777
 21
-57.11757399999999
 31
0.0
  0
LINE
  5
12C
330
23
100
AcDbEntity
  8
1
100
AcDbLine
 10
103.385777
 20
-326.627463
 30
0.0
 11
103.385777
 21
-307.948482
 31
0.0
  0
LINE
  5
12D
330
23
100
AcDbEntity
  8
1
100
AcDbLine
 10
103.385777
 20
-104.702483
 30
0.0
 11
103.385777
 21
-61.117574
 31
0.0
  0
LINE
  5
12E
330
23
100
AcDbEntity
  8
1
100
AcDbLine
 10
95.38577700000001
 20
-326.627463
 30
0.0
 11
95.38577700000001
 21
-307.948482
 31
0.0
  0
LINE
  5
12F
330
23
100
AcDbEntity
  8
1
100
AcDbLine
 10
95.38577700000001
 20
-104.702483
 30
0.0
 11
95.38577700000001
 21
-61.117574
 31
0.0
  0
ARC
  5
130
330
23
100
AcDbEntity
  8
1
100
AcDbCircle
 10
91.385777
 20
-61.117574
 30
0.0
 40
4.0
100
AcDbArc
 50
0.0
 51
90.0
  0
ARC
  5
131
330
23
100
AcDbEntity
  8
1
100
AcDbCircle
 10
107.385777
 20
-61.117574
 30
0.0
 40
4.0
100
AcDbArc
 50
90.0
 51
180.0
  0
ARC
  5
132
330
23
100
AcDbEntity
  8
1
100
AcDbCircle
 10
107.385777
 20
-104.702483
 30
0.0
 40
4.0
100
AcDbArc
 50
180.0
 51
270.0
  0
ARC
  5
133
330
23
100
AcDbEntity
  8
1
100
AcDbCircle
 10
91.385777
 20
-104.702483
 30
0.0
 40
4.0
100
AcDbArc
 50
270.0
 51
360.0
  0
LINE
  5
134
330
23
100
AcDbEntity
  8
1
100
AcDbLine
 10
80.38577700000001
 20
-104.205095
 30
0.0
 11
91.385777
 21
-104.205095
 31
0.0
  0
LINE
  5
135
330
23
100
AcDbEntity
  8
1
100
AcDbLine
 10
107.385777
 20
-104.205095
 30
0.0
 11
118.385777
 21
-104.205095
 31
0.0
  0
LINE
  5
136
330
23
100
AcDbEntity
  8
1
100
AcDbLine
 10
107.385777
 20
-108.702483
 30
0.0
 11
108.385777
 21
-108.702483
 31
0.0
  0
LINE
  5
137
330
23
100
AcDbEntity
  8
1
100
AcDbLine
 10
90.38577700000001
 20
-108.702483
 30
0.0
 11
91.385777
 21
-108.702483
 31
0.0
  0
LINE
  5
138
330
23
100
AcDbEntity
  8
1
100
AcDbLine
 10
95.38577700000001
 20
-108.702483
 30
0.0
 11
103.385777
 21
-108.702483
 31
0.0
  0
ARC
  5
139
330
23
100
AcDbEntity
  8
1
100
AcDbCircle
 10
107.385777
 20
-100.205095
 30
0.0
 40
4.0
100
AcDbArc
 50
180.0
 51
270.0
  0
ARC
  5
13A
330
23
100
AcDbEntity
  8
1
100
AcDbCircle
 10
91.385777
 20
-100.205095
 30
0.0
 40
4.0
100
AcDbArc
 50
270.0
 51
360.0
  0
LINE
  5
13B
330
23
100
AcDbEntity
  8
1
100
AcDbLine
 10
97.385777
 20
-73.992319
 30
0.0
 11
101.385777
 21
-73.992319
 31
0.0
  0
LINE
  5
13C
330
23
100
AcDbEntity
  8
1
100
AcDbLine
 10
97.385777
 20
-83.512582
 30
0.0
 11
101.385777
 21
-83.512582
 31
0.0
  0
ARC
  5
13D
330
23
100
AcDbEntity
  8
1
100
AcDbCircle
 10
101.385777
 20
-75.99231899999999
 30
0.0
 40
2.0
100
AcDbArc
 50
0.0
 51
90.0
  0
ARC
  5
13E
330
23
100
AcDbEntity
  8
1
100
AcDbCircle
 10
97.385777
 20
-75.99231899999999
 30
0.0
 40
2.0
100
AcDbArc
 50
90.0
 51
180.0
  0
ARC
  5
13F
330
23
100
AcDbEntity
  8
1
100
AcDbCircle
 10
97.385777
 20
-81.51258199999999
 30
0.0
 40
2.0
100
AcDbArc
 50
180.0
 51
270.0
  0
ARC
  5
140
330
23
100
AcDbEntity
  8
1
100
AcDbCircle
 10
101.385777
 20
-81.51258199999999
 30
0.0
 40
2.0
100
AcDbArc
 50
270.0
 51
360.0
  0
ARC
  5
141
330
23
100
AcDbEntity
  8
1
100
AcDbCircle
 10
107.385777
 20
-326.627463
 30
0.0
 40
4.0
100
AcDbArc
 50
180.0
 51
270.0
  0
ARC
  5
142
330
23
100
AcDbEntity
  8
1
100
AcDbCircle
 10
91.385777
 20
-326.627463
 30
0.0
 40
4.0
100
AcDbArc
 50
270.0
 51
0.0
  0
ARC
  5
143
330
23
100
AcDbEntity
  8
1
100
AcDbCircle
 10
107.385777
 20
-307.948482
 30
0.0
 40
4.0
100
AcDbArc
 50
90.0
 51
180.0
  0
ARC
  5
144
330
23
100
AcDbEntity
  8
1
100
AcDbCircle
 10
91.385777
 20
-307.948482
 30
0.0
 40
4.0
100
AcDbArc
 50
0.0
 51
90.0
  0
LINE
  5
145
330
23
100
AcDbEntity
  8
1
100
AcDbLine
 10
95.38577700000001
 20
-330.627463
 30
0.0
 11
103.385777
 21
-330.627463
 31
0.0
  0
LINE
  5
146
330
23
100
AcDbEntity
  8
1
100
AcDbLine
 10
81.385777
 20
-306.265685
 30
0.0
 11
91.385777
 21
-306.265685
 31
0.0
  0
LINE
  5
147
330
23
100
AcDbEntity
  8
1
100
AcDbLine
 10
107.385777
 20
-306.265685
 30
0.0
 11
117.385777
 21
-306.265685
 31
0.0
  0
LINE
  5
148
330
23
100
AcDbEntity
  8
1
100
AcDbLine
 10
107.385777
 20
-303.948482
 30
0.0
 11
108.385777
 21
-303.948482
 31
0.0
  0
LINE
  5
149
330
23
100
AcDbEntity
  8
1
100
AcDbLine
 10
90.38577700000001
 20
-303.948482
 30
0.0
 11
91.385777
 21
-303.948482
 31
0.0
  0
LINE
  5
14A
330
23
100
AcDbEntity
  8
1
100
AcDbLine
 10
95.38577700000001
 20
-303.948482
 30
0.0
 11
103.385777
 21
-303.948482
 31
0.0
  0
ARC
  5
14B
330
23
100
AcDbEntity
  8
1
100
AcDbCircle
 10
107.385777
 20
-310.265685
 30
0.0
 40
4.0
100
AcDbArc
 50
90.0
 51
180.0
  0
ARC
  5
14C
330
23
100
AcDbEntity
  8
1
100
AcDbCircle
 10
91.385777
 20
-310.265685
 30
0.0
 40
4.0
100
AcDbArc
 50
0.0
 51
90.0
  0
ARC
  5
14D
330
23
100
AcDbEntity
  8
1
100
AcDbCircle
 10
114.385777
 20
-325.3254819999999
 30
0.0
 40
3.0
100
AcDbArc
 50
270.0
 51
360.0
  0
ARC
  5
14E
330
23
100
AcDbEntity
  8
1
100
AcDbCircle
 10
84.38577700000001
 20
-325.3254819999999
 30
0.0
 40
3.0
100
AcDbArc
 50
180.0
 51
270.0
  0
LINE
  5
14F
330
23
100
AcDbEntity
  8
1
100
AcDbLine
 10
84.38577700000001
 20
-328.325482
 30
0.0
 11
91.385777
 21
-328.325482
 31
0.0
  0
LINE
  5
150
330
23
100
AcDbEntity
  8
1
100
AcDbLine
 10
107.385777
 20
-328.325482
 30
0.0
 11
114.385777
 21
-328.325482
 31
0.0
  0
ARC
  5
151
330
23
100
AcDbEntity
  8
1
100
AcDbCircle
 10
107.385777
 20
-324.325482
 30
0.0
 40
4.0
100
AcDbArc
 50
180.0
 51
270.0
  0
ARC
  5
152
330
23
100
AcDbEntity
  8
1
100
AcDbCircle
 10
91.385777
 20
-324.325482
 30
0.0
 40
4.0
100
AcDbArc
 50
270.0
 51
360.0
  0
LINE
  5
153
330
23
100
AcDbEntity
  8
1
100
AcDbLine
 10
-203.169543
 20
300.824518
 30
0.0
 11
-149.664223
 21
300.824518
 31
0.0
  0
LINE
  5
154
330
23
100
AcDbEntity
  8
1
100
AcDbLine
 10
-203.169543
 20
244.824518
 30
0.0
 11
-149.664223
 21
244.824518
 31
0.0
  0
LINE
  5
155
330
23
100
AcDbEntity
  8
1
100
AcDbLine
 10
-148.664223
 20
299.824518
 30
0.0
 11
-149.664223
 21
300.824518
 31
0.0
  0
LINE
  5
156
330
23
100
AcDbEntity
  8
1
100
AcDbLine
 10
-149.664223
 20
244.824518
 30
0.0
 11
-148.664223
 21
245.824518
 31
0.0
  0
LINE
  5
157
330
23
100
AcDbEntity
  8
1
100
AcDbLine
 10
-148.664223
 20
299.824518
 30
0.0
 11
-203.164223
 21
299.824518
 31
0.0
  0
LINE
  5
158
330
23
100
AcDbEntity
  8
1
100
AcDbLine
 10
-148.664223
 20
245.824518
 30
0.0
 11
-203.164223
 21
245.824518
 31
0.0
  0
LINE
  5
159
330
23
100
AcDbEntity
  8
1
100
AcDbLine
 10
-156.541224
 20
263.824518
 30
0.0
 11
-156.541224
 21
281.824518
 31
0.0
  0
LINE
  5
15A
330
23
100
AcDbEntity
  8
1
100
AcDbLine
 10
-154.996436
 20
262.590537
 30
0.0
 11
-154.996436
 21
283.058498
 31
0.0
  0
LINE
  5
15B
330
23
100
AcDbEntity
  8
1
100
AcDbLine
 10
-203.164223
 20
287.824518
 30
0.0
 11
-162.541224
 21
287.824518
 31
0.0
  0
LINE
  5
15C
330
23
100
AcDbEntity
  8
1
100
AcDbLine
 10
-203.164223
 20
257.824518
 30
0.0
 11
-162.541224
 21
257.824518
 31
0.0
  0
ARC
  5
15D
330
23
100
AcDbEntity
  8
1
100
AcDbCircle
 10
-162.541224
 20
281.824518
 30
0.0
 40
6.0
100
AcDbArc
 50
0.0
 51
90.0
  0
ARC
  5
15E
330
23
100
AcDbEntity
  8
1
100
AcDbCircle
 10
-162.541224
 20
263.824518
 30
0.0
 40
6.0
100
AcDbArc
 50
270.0
 51
360.0
  0
LINE
  5
15F
330
23
100
AcDbEntity
  8
1
100
AcDbLine
 10
-175.93276
 20
284.341178
 30
0.0
 11
-203.164223
 21
284.341178
 31
0.0
  0
LINE
  5
160
330
23
100
AcDbEntity
  8
1
100
AcDbLine
 10
-175.93276
 20
261.3078569999999
 30
0.0
 11
-203.164223
 21
261.3078569999999
 31
0.0
  0
LINE
  5
161
330
23
100
AcDbEntity
  8
1
100
AcDbLine
 10
-173.416099
 20
263.824518
 30
0.0
 11
-173.416099
 21
281.824518
 31
0.0
  0
ARC
  5
162
330
23
100
AcDbEntity
  8
1
100
AcDbCircle
 10
-175.93276
 20
281.824518
 30
0.0
 40
2.516659999999999
100
AcDbArc
 50
0.0
 51
90.0
  0
ARC
  5
163
330
23
100
AcDbEntity
  8
1
100
AcDbCircle
 10
-175.93276
 20
263.824518
 30
0.0
 40
2.516659999999999
100
AcDbArc
 50
270.0
 51
0.0
  0
LINE
  5
164
330
23
100
AcDbEntity
  8
1
100
AcDbLine
 10
-148.664223
 20
245.824518
 30
0.0
 11
-148.664223
 21
254.75521
 31
0.0
  0
LINE
  5
165
330
23
100
AcDbEntity
  8
1
100
AcDbLine
 10
-148.664223
 20
290.893826
 30
0.0
 11
-148.664223
 21
299.824518
 31
0.0
  0
LINE
  5
166
330
23
100
AcDbEntity
  8
1
100
AcDbLine
 10
-159.786308
 20
287.154662
 30
0.0
 11
-173.416099
 21
284.341178
 31
0.0
  0
LINE
  5
167
330
23
100
AcDbEntity
  8
1
100
AcDbLine
 10
-159.786308
 20
258.494373
 30
0.0
 11
-173.416099
 21
261.3078569999999
 31
0.0
  0
LINE
  5
168
330
23
100
AcDbEntity
  8
1
100
AcDbLine
 10
-151.628947
 20
287.030122
 30
0.0
 11
-152.031712
 21
286.922202
 31
0.0
  0
LINE
  5
169
330
23
100
AcDbEntity
  8
1
100
AcDbLine
 10
-151.628947
 20
258.618913
 30
0.0
 11
-152.031712
 21
258.726834
 31
0.0
  0
ARC
  5
16A
330
23
100
AcDbEntity
  8
1
100
AcDbCircle
 10
-152.664223
 20
290.893826
 30
0.0
 40
4.0
100
AcDbArc
 50
285.0
 51
360.0
  0
ARC
  5
16B
330
23
100
AcDbEntity
  8
1
100
AcDbCircle
 10
-152.664223
 20
254.75521
 30
0.0
 40
4.0
100
AcDbArc
 50
0.0
 51
75.0
  0
ARC
  5
16C
330
23
100
AcDbEntity
  8
1
100
AcDbCircle
 10
-150.996436
 20
262.590537
 30
0.0
 40
4.0
100
AcDbArc
 50
180.0
 51
255.0
  0
ARC
  5
16D
330
23
100
AcDbEntity
  8
1
100
AcDbCircle
 10
-150.996436
 20
283.058498
 30
0.0
 40
4.0
100
AcDbArc
 50
105.0
 51
180.0
  0
LINE
  5
16E
330
23
100
AcDbEntity
  8
1
100
AcDbLine
 10
-200.755255
 20
270.824518
 30
0.0
 11
-200.755255
 21
274.824518
 31
0.0
  0
LINE
  5
16F
330
23
100
AcDbEntity
  8
1
100
AcDbLine
 10
-203.164223
 20
276.824518
 30
0.0
 11
-202.755255
 21
276.824518
 31
0.0
  0
LINE
  5
170
330
23
100
AcDbEntity
  8
1
100
AcDbLine
 10
-203.164223
 20
268.824518
 30
0.0
 11
-202.755255
 21
268.824518
 31
0.0
  0
ARC
  5
171
330
23
100
AcDbEntity
  8
1
100
AcDbCircle
 10
-202.755255
 20
274.824518
 30
0.0
 40
2.0
100
AcDbArc
 50
0.0
 51
90.0
  0
ARC
  5
172
330
23
100
AcDbEntity
  8
1
100
AcDbCircle
 10
-202.755255
 20
270.824518
 30
0.0
 40
2.0
100
AcDbArc
 50
270.0
 51
360.0
  0
CIRCLE
  5
173
330
23
100
AcDbEntity
  8
1
100
AcDbCircle
 10
-254.164223
 20
-206.325482
 30
0.0
 40
104.5
  0
LINE
  5
174
330
23
100
AcDbEntity
  8
1
100
AcDbLine
 10
-305.158903
 20
300.824518
 30
0.0
 11
-358.664223
 21
300.824518
 31
0.0
  0
LINE
  5
175
330
23
100
AcDbEntity
  8
1
100
AcDbLine
 10
-305.158903
 20
244.824518
 30
0.0
 11
-358.664223
 21
244.824518
 31
0.0
  0
LINE
  5
176
330
23
100
AcDbEntity
  8
1
100
AcDbLine
 10
-359.664223
 20
299.824518
 30
0.0
 11
-358.664223
 21
300.824518
 31
0.0
  0
LINE
  5
177
330
23
100
AcDbEntity
  8
1
100
AcDbLine
 10
-358.664223
 20
244.824518
 30
0.0
 11
-359.664223
 21
245.824518
 31
0.0
  0
LINE
  5
178
330
23
100
AcDbEntity
  8
1
100
AcDbLine
 10
-359.664223
 20
299.824518
 30
0.0
 11
-305.164223
 21
299.824518
 31
0.0
  0
LINE
  5
179
330
23
100
AcDbEntity
  8
1
100
AcDbLine
 10
-359.664223
 20
245.824518
 30
0.0
 11
-305.164223
 21
245.824518
 31
0.0
  0
LINE
  5
17A
330
23
100
AcDbEntity
  8
1
100
AcDbLine
 10
-351.787223
 20
263.824518
 30
0.0
 11
-351.787223
 21
281.824518
 31
0.0
  0
LINE
  5
17B
330
23
100
AcDbEntity
  8
1
100
AcDbLine
 10
-353.33201
 20
262.590537
 30
0.0
 11
-353.33201
 21
283.058498
 31
0.0
  0
LINE
  5
17C
330
23
100
AcDbEntity
  8
1
100
AcDbLine
 10
-305.164223
 20
287.824518
 30
0.0
 11
-345.787223
 21
287.824518
 31
0.0
  0
LINE
  5
17D
330
23
100
AcDbEntity
  8
1
100
AcDbLine
 10
-305.164223
 20
257.824518
 30
0.0
 11
-345.787223
 21
257.824518
 31
0.0
  0
ARC
  5
17E
330
23
100
AcDbEntity
  8
1
100
AcDbCircle
 10
-345.787223
 20
281.824518
 30
0.0
 40
6.0
100
AcDbArc
 50
90.0
 51
180.0
  0
ARC
  5
17F
330
23
100
AcDbEntity
  8
1
100
AcDbCircle
 10
-345.787223
 20
263.824518
 30
0.0
 40
6.0
100
AcDbArc
 50
180.0
 51
270.0
  0
LINE
  5
180
330
23
100
AcDbEntity
  8
1
100
AcDbLine
 10
-332.395687
 20
284.341178
 30
0.0
 11
-305.164223
 21
284.341178
 31
0.0
  0
LINE
  5
181
330
23
100
AcDbEntity
  8
1
100
AcDbLine
 10
-332.395687
 20
261.3078569999999
 30
0.0
 11
-305.164223
 21
261.3078569999999
 31
0.0
  0
LINE
  5
182
330
23
100
AcDbEntity
  8
1
100
AcDbLine
 10
-334.912347
 20
263.824518
 30
0.0
 11
-334.912347
 21
281.824518
 31
0.0
  0
ARC
  5
183
330
23
100
AcDbEntity
  8
1
100
AcDbCircle
 10
-332.395687
 20
281.824518
 30
0.0
 40
2.516659999999999
100
AcDbArc
 50
90.0
 51
180.0
  0
ARC
  5
184
330
23
100
AcDbEntity
  8
1
100
AcDbCircle
 10
-332.395687
 20
263.824518
 30
0.0
 40
2.516659999999999
100
AcDbArc
 50
180.0
 51
270.0
  0
LINE
  5
185
330
23
100
AcDbEntity
  8
1
100
AcDbLine
 10
-359.664223
 20
245.824518
 30
0.0
 11
-359.664223
 21
254.75521
 31
0.0
  0
LINE
  5
186
330
23
100
AcDbEntity
  8
1
100
AcDbLine
 10
-359.664223
 20
290.893826
 30
0.0
 11
-359.664223
 21
299.824518
 31
0.0
  0
LINE
  5
187
330
23
100
AcDbEntity
  8
1
100
AcDbLine
 10
-348.542138
 20
287.154662
 30
0.0
 11
-334.912347
 21
284.341178
 31
0.0
  0
LINE
  5
188
330
23
100
AcDbEntity
  8
1
100
AcDbLine
 10
-348.542138
 20
258.494373
 30
0.0
 11
-334.912347
 21
261.3078569999999
 31
0.0
  0
LINE
  5
189
330
23
100
AcDbEntity
  8
1
100
AcDbLine
 10
-356.699499
 20
287.030122
 30
0.0
 11
-356.296734
 21
286.922202
 31
0.0
  0
LINE
  5
18A
330
23
100
AcDbEntity
  8
1
100
AcDbLine
 10
-356.699499
 20
258.618913
 30
0.0
 11
-356.296734
 21
258.726834
 31
0.0
  0
ARC
  5
18B
330
23
100
AcDbEntity
  8
1
100
AcDbCircle
 10
-355.664223
 20
290.893826
 30
0.0
 40
4.0
100
AcDbArc
 50
180.0
 51
255.0
  0
ARC
  5
18C
330
23
100
AcDbEntity
  8
1
100
AcDbCircle
 10
-355.664223
 20
254.75521
 30
0.0
 40
4.0
100
AcDbArc
 50
105.0
 51
180.0
  0
ARC
  5
18D
330
23
100
AcDbEntity
  8
1
100
AcDbCircle
 10
-357.33201
 20
262.590537
 30
0.0
 40
4.0
100
AcDbArc
 50
285.0
 51
360.0
  0
ARC
  5
18E
330
23
100
AcDbEntity
  8
1
100
AcDbCircle
 10
-357.33201
 20
283.058498
 30
0.0
 40
4.0
100
AcDbArc
 50
360.0
 51
75.0
  0
LINE
  5
18F
330
23
100
AcDbEntity
  8
1
100
AcDbLine
 10
-307.573191
 20
270.824518
 30
0.0
 11
-307.573191
 21
274.824518
 31
0.0
  0
LINE
  5
190
330
23
100
AcDbEntity
  8
1
100
AcDbLine
 10
-305.164223
 20
276.824518
 30
0.0
 11
-305.573191
 21
276.824518
 31
0.0
  0
LINE
  5
191
330
23
100
AcDbEntity
  8
1
100
AcDbLine
 10
-305.164223
 20
268.824518
 30
0.0
 11
-305.573191
 21
268.824518
 31
0.0
  0
ARC
  5
192
330
23
100
AcDbEntity
  8
1
100
AcDbCircle
 10
-305.573191
 20
274.824518
 30
0.0
 40
2.0
100
AcDbArc
 50
90.0
 51
180.0
  0
ARC
  5
193
330
23
100
AcDbEntity
  8
1
100
AcDbCircle
 10
-305.573191
 20
270.824518
 30
0.0
 40
2.0
100
AcDbArc
 50
180.0
 51
270.0
  0
CIRCLE
  5
194
330
23
100
AcDbEntity
  8
1
100
AcDbCircle
 10
-254.164223
 20
-206.325482
 30
0.0
 40
98.0
  0
CIRCLE
  5
195
330
23
100
AcDbEntity
  8
1
100
AcDbCircle
 10
-254.164223
 20
-206.325482
 30
0.0
 40
94.55
  0
CIRCLE
  5
196
330
23
100
AcDbEntity
  8
1
100
AcDbCircle
 10
-254.164223
 20
-206.325482
 30
0.0
 40
82.24999999999999
  0
CIRCLE
  5
197
330
23
100
AcDbEntity
  8
1
100
AcDbCircle
 10
-254.164223
 20
-206.325482
 30
0.0
 40
76.75
  0
LINE
  5
198
330
23
100
AcDbEntity
  8
1
  6
CENTER
 62
     2
100
AcDbLine
 10
-254.164223
 20
139.305554
 30
0.0
 11
-254.164223
 21
-351.020876
 31
0.0
  0
LINE
  5
199
330
23
100
AcDbEntity
  8
1
  6
CENTER
 62
     2
100
AcDbLine
 10
99.38577700000001
 20
139.305554
 30
0.0
 11
99.38577700000001
 21
-351.020876
 31
0.0
  0
LINE
  5
19A
330
23
100
AcDbEntity
  8
1
100
AcDbLine
 10
-271.609894
 20
-133.225482
 30
0.0
 11
-237.38954
 21
-133.225482
 31
0.0
  0
LINE
  5
19B
330
23
100
AcDbEntity
  8
1
100
AcDbLine
 10
-271.609894
 20
-279.425482
 30
0.0
 11
-237.38954
 21
-279.425482
 31
0.0
  0
ARC
  5
19C
330
23
100
AcDbEntity
  8
1
100
AcDbCircle
 10
-254.164223
 20
-206.325482
 30
0.0
 40
75.0
100
AcDbArc
 50
102.924238
 51
257.075762
  0
ARC
  5
19D
330
23
100
AcDbEntity
  8
1
100
AcDbCircle
 10
-254.164223
 20
-206.325482
 30
0.0
 40
75.0
100
AcDbArc
 50
282.924238
 51
77.075762
  0
LINE
  5
19E
330
23
100
AcDbEntity
  8
1
100
AcDbLine
 10
-250.664223
 20
-235.07233
 30
0.0
 11
-250.664223
 21
-210.388808
 31
0.0
  0
LINE
  5
19F
330
23
100
AcDbEntity
  8
1
100
AcDbLine
 10
-245.468071
 20
-234.617726
 30
0.0
 11
-245.468071
 21
-211.075482
 31
0.0
  0
LINE
  5
1A0
330
23
100
AcDbEntity
  8
1
100
AcDbLine
 10
-186.106648
 20
-209.677786
 30
0.0
 11
-190.743317
 21
-208.676658
 31
0.0
  0
LINE
  5
1A1
330
23
100
AcDbEntity
  8
1
100
AcDbLine
 10
-246.065593
 20
-209.914627
 30
0.0
 11
-250.058331
 21
-208.839766
 31
0.0
  0
LINE
  5
1A2
330
23
100
AcDbEntity
  8
1
100
AcDbLine
 10
-186.186746
 20
-210.075482
 30
0.0
 11
-245.032125
 21
-210.075482
 31
0.0
  0
LINE
  5
1A3
330
23
100
AcDbEntity
  8
1
100
AcDbLine
 10
-191.7143659999999
 20
-208.676658
 30
0.0
 11
-261.664235
 21
-208.676658
 31
0.0
  0
ARC
  5
1A4
330
23
100
AcDbEntity
  8
1
100
AcDbCircle
 10
-254.164223
 20
-206.325482
 30
0.0
 40
70.0
100
AcDbArc
 50
358.525313
 51
1.474687
  0
ARC
  5
1A5
330
23
100
AcDbEntity
  8
1
100
AcDbCircle
 10
-254.164223
 20
-206.325482
 30
0.0
 40
63.464473
100
AcDbArc
 50
358.760532
 51
1.239468
  0
ARC
  5
1A6
330
23
100
AcDbEntity
  8
1
100
AcDbCircle
 10
-186.186746
 20
-208.075482
 30
0.0
 40
2.0
100
AcDbArc
 50
270.0
 51
358.525313
  0
ARC
  5
1A7
330
23
100
AcDbEntity
  8
1
100
AcDbCircle
 10
-191.7143659999999
 20
-207.676658
 30
0.0
 40
1.0
100
AcDbArc
 50
270.0
 51
358.760532
  0
LINE
  5
1A8
330
23
100
AcDbEntity
  8
1
100
AcDbLine
 10
-278.661911
 20
-271.825482
 30
0.0
 11
-273.719916
 21
-271.825482
 31
0.0
  0
LINE
  5
1A9
330
23
100
AcDbEntity
  8
1
100
AcDbLine
 10
-229.666535
 20
-271.825482
 30
0.0
 11
-234.608531
 21
-271.825482
 31
0.0
  0
LINE
  5
1AA
330
23
100
AcDbEntity
  8
1
100
AcDbLine
 10
-262.860376
 20
-237.25204
 30
0.0
 11
-262.860376
 21
-210.388808
 31
0.0
  0
LINE
  5
1AB
330
23
100
AcDbEntity
  8
1
100
AcDbLine
 10
-257.664223
 20
-236.034705
 30
0.0
 11
-257.664223
 21
-210.388808
 31
0.0
  0
ARC
  5
1AC
330
23
100
AcDbEntity
  8
1
100
AcDbCircle
 10
-236.664223
 20
-269.863426
 30
0.0
 40
2.0
100
AcDbArc
 50
180.0
 51
231.317813
  0
ARC
  5
1AD
330
23
100
AcDbEntity
  8
1
100
AcDbCircle
 10
-239.164223
 20
-272.985925
 30
0.0
 40
2.0
100
AcDbArc
 50
0.0
 51
51.317813
  0
LINE
  5
1AE
330
23
100
AcDbEntity
  8
1
100
AcDbLine
 10
-240.578778
 20
-270.516081
 30
0.0
 11
-265.943739
 21
-270.516081
 31
0.0
  0
LINE
  5
1AF
330
23
100
AcDbEntity
  8
1
100
AcDbLine
 10
-239.164223
 20
-271.825482
 30
0.0
 11
-267.477949
 21
-271.825482
 31
0.0
  0
ARC
  5
1B0
330
23
100
AcDbEntity
  8
1
100
AcDbCircle
 10
-254.164223
 20
-387.480111
 30
0.0
 40
109.20152
100
AcDbArc
 50
83.24238299999999
 51
96.75761700000002
  0
ARC
  5
1B1
330
23
100
AcDbEntity
  8
1
100
AcDbCircle
 10
-268.60244
 20
-265.631021
 30
0.0
 40
13.5
100
AcDbArc
 50
256.317251
 51
276.757617
  0
ARC
  5
1B2
330
23
100
AcDbEntity
  8
1
100
AcDbCircle
 10
-239.726007
 20
-265.631021
 30
0.0
 40
13.5
100
AcDbArc
 50
263.242383
 51
283.682749
  0
LINE
  5
1B3
330
23
100
AcDbEntity
  8
1
100
AcDbLine
 10
-248.118329
 20
-208.010006
 30
0.0
 11
-248.118329
 21
-204.795302
 31
0.0
  0
LINE
  5
1B4
330
23
100
AcDbEntity
  8
1
100
AcDbLine
 10
-248.018829
 20
-209.388808
 30
0.0
 11
-263.860376
 21
-209.388808
 31
0.0
  0
LINE
  5
1B5
330
23
100
AcDbEntity
  8
1
100
AcDbLine
 10
-250.664223
 20
-177.578635
 30
0.0
 11
-250.664223
 21
-202.262156
 31
0.0
  0
LINE
  5
1B6
330
23
100
AcDbEntity
  8
1
100
AcDbLine
 10
-245.468071
 20
-178.033239
 30
0.0
 11
-245.468071
 21
-201.575482
 31
0.0
  0
LINE
  5
1B7
330
23
100
AcDbEntity
  8
1
100
AcDbLine
 10
-246.065593
 20
-202.736337
 30
0.0
 11
-250.058331
 21
-203.811198
 31
0.0
  0
LINE
  5
1B8
330
23
100
AcDbEntity
  8
1
100
AcDbLine
 10
-186.186746
 20
-202.575482
 30
0.0
 11
-245.032125
 21
-202.575482
 31
0.0
  0
LINE
  5
1B9
330
23
100
AcDbEntity
  8
1
100
AcDbLine
 10
-191.7143659999999
 20
-203.974306
 30
0.0
 11
-261.664235
 21
-203.974306
 31
0.0
  0
LINE
  5
1BA
330
23
100
AcDbEntity
  8
1
100
AcDbLine
 10
-193.717295
 20
-172.849579
 30
0.0
 11
-236.838535
 21
-169.076959
 31
0.0
  0
LINE
  5
1BB
330
23
100
AcDbEntity
  8
1
100
AcDbLine
 10
-198.819286
 20
-178.527694
 30
0.0
 11
-254.861469
 21
-173.624639
 31
0.0
  0
LINE
  5
1BC
330
23
100
AcDbEntity
  8
1
100
AcDbLine
 10
-262.860376
 20
-175.398924
 30
0.0
 11
-262.860376
 21
-202.262156
 31
0.0
  0
LINE
  5
1BD
330
23
100
AcDbEntity
  8
1
100
AcDbLine
 10
-257.664223
 20
-176.616259
 30
0.0
 11
-257.664223
 21
-202.262156
 31
0.0
  0
LINE
  5
1BE
330
23
100
AcDbEntity
  8
1
100
AcDbLine
 10
-238.664223
 20
-142.674174
 30
0.0
 11
-238.664223
 21
-167.08457
 31
0.0
  0
LINE
  5
1BF
330
23
100
AcDbEntity
  8
1
100
AcDbLine
 10
-241.015852
 20
-142.134883
 30
0.0
 11
-264.136713
 21
-142.134883
 31
0.0
  0
LINE
  5
1C0
330
23
100
AcDbEntity
  8
1
100
AcDbLine
 10
-248.118329
 20
-204.640958
 30
0.0
 11
-248.118329
 21
-207.855662
 31
0.0
  0
LINE
  5
1C1
330
23
100
AcDbEntity
  8
1
100
AcDbLine
 10
-248.557051
 20
-203.262156
 30
0.0
 11
-263.668698
 21
-203.262156
 31
0.0
  0
ARC
  5
1C2
330
23
100
AcDbEntity
  8
1
100
AcDbCircle
 10
-240.859851
 20
-149.737044
 30
0.0
 40
20.315222
100
AcDbArc
 50
226.422272
 51
265.4244339999999
  0
LINE
  5
1C3
330
23
100
AcDbEntity
  8
1
100
AcDbLine
 10
-186.106648
 20
-202.973178
 30
0.0
 11
-190.743317
 21
-203.974306
 31
0.0
  0
LINE
  5
1C4
330
23
100
AcDbEntity
  8
1
100
AcDbLine
 10
-186.186746
 20
-202.575482
 30
0.0
 11
-245.032125
 21
-202.575482
 31
0.0
  0
LINE
  5
1C5
330
23
100
AcDbEntity
  8
1
100
AcDbLine
 10
-191.7143659999999
 20
-203.974306
 30
0.0
 11
-262.664223
 21
-203.974306
 31
0.0
  0
LINE
  5
1C6
330
23
100
AcDbEntity
  8
1
100
AcDbLine
 10
-200.221417
 20
-173.684709
 30
0.0
 11
-242.480474
 21
-169.987521
 31
0.0
  0
LINE
  5
1C7
330
23
100
AcDbEntity
  8
1
100
AcDbLine
 10
-192.287335
 20
-180.503333
 30
0.0
 11
-262.361469
 21
-174.372641
 31
0.0
  0
ARC
  5
1C8
330
23
100
AcDbEntity
  8
1
100
AcDbCircle
 10
-254.164223
 20
-206.325482
 30
0.0
 40
70.0
100
AcDbArc
 50
358.525313
 51
1.474687
  0
ARC
  5
1C9
330
23
100
AcDbEntity
  8
1
100
AcDbCircle
 10
-254.164223
 20
-206.325482
 30
0.0
 40
63.464473
100
AcDbArc
 50
358.760532
 51
1.239468
  0
LINE
  5
1CA
330
23
100
AcDbEntity
  8
1
100
AcDbLine
 10
-194.631932
 20
-173.165691
 30
0.0
 11
-198.9355139999999
 21
-173.64343
 31
0.0
  0
LINE
  5
1CB
330
23
100
AcDbEntity
  8
1
100
AcDbLine
 10
-192.534553
 20
-179.862818
 30
0.0
 11
-197.035653
 21
-178.683741
 31
0.0
  0
ARC
  5
1CC
330
23
100
AcDbEntity
  8
1
100
AcDbCircle
 10
-254.164223
 20
-206.325482
 30
0.0
 40
70.0
100
AcDbArc
 50
24.144376
 51
27.5804
  0
ARC
  5
1CD
330
23
100
AcDbEntity
  8
1
100
AcDbCircle
 10
-254.164223
 20
-206.325482
 30
0.0
 40
63.464473
100
AcDbArc
 50
27.449444
 51
30.437703
  0
ARC
  5
1CE
330
23
100
AcDbEntity
  8
1
100
AcDbCircle
 10
-186.186746
 20
-204.575482
 30
0.0
 40
2.0
100
AcDbArc
 50
1.474687
 51
90.0
  0
ARC
  5
1CF
330
23
100
AcDbEntity
  8
1
100
AcDbCircle
 10
-192.113023
 20
-178.510943
 30
0.0
 40
2.0
100
AcDbArc
 50
265.0
 51
24.144376
  0
ARC
  5
1D0
330
23
100
AcDbEntity
  8
1
100
AcDbCircle
 10
-193.891607
 20
-174.841968
 30
0.0
 40
2.0
100
AcDbArc
 50
27.5804
 51
85.0
  0
ARC
  5
1D1
330
23
100
AcDbEntity
  8
1
100
AcDbCircle
 10
-198.73213
 20
-177.531499
 30
0.0
 40
1.0
100
AcDbArc
 50
265.0
 51
27.449444
  0
ARC
  5
1D2
330
23
100
AcDbEntity
  8
1
100
AcDbCircle
 10
-200.308573
 20
-174.680904
 30
0.0
 40
1.0
100
AcDbArc
 50
30.437703
 51
85.0
  0
ARC
  5
1D3
330
23
100
AcDbEntity
  8
1
100
AcDbCircle
 10
-191.7143659999999
 20
-204.974306
 30
0.0
 40
1.0
100
AcDbArc
 50
1.239468
 51
90.0
  0
LINE
  5
1D4
330
23
100
AcDbEntity
  8
1
100
AcDbLine
 10
-186.186746
 20
-210.075482
 30
0.0
 11
-245.032125
 21
-210.075482
 31
0.0
  0
LINE
  5
1D5
330
23
100
AcDbEntity
  8
1
100
AcDbLine
 10
-191.7143659999999
 20
-208.676658
 30
0.0
 11
-262.664223
 21
-208.676658
 31
0.0
  0
LINE
  5
1D6
330
23
100
AcDbEntity
  8
1
100
AcDbLine
 10
-262.164223
 20
-147.24042
 30
0.0
 11
-262.164223
 21
-165.655081
 31
0.0
  0
ARC
  5
1D7
330
23
100
AcDbEntity
  8
1
100
AcDbCircle
 10
-254.164223
 20
-165.655081
 30
0.0
 40
8.0
100
AcDbArc
 50
180.0
 51
265.0
  0
LINE
  5
1D8
330
23
100
AcDbEntity
  8
1
100
AcDbLine
 10
-193.717295
 20
-239.801385
 30
0.0
 11
-236.838535
 21
-243.574005
 31
0.0
  0
LINE
  5
1D9
330
23
100
AcDbEntity
  8
1
100
AcDbLine
 10
-198.819286
 20
-234.12327
 30
0.0
 11
-254.861469
 21
-239.026326
 31
0.0
  0
LINE
  5
1DA
330
23
100
AcDbEntity
  8
1
100
AcDbLine
 10
-238.664223
 20
-269.863426
 30
0.0
 11
-238.664223
 21
-245.566395
 31
0.0
  0
ARC
  5
1DB
330
23
100
AcDbEntity
  8
1
100
AcDbCircle
 10
-240.859851
 20
-262.91392
 30
0.0
 40
20.315222
100
AcDbArc
 50
94.57556600000001
 51
133.577728
  0
LINE
  5
1DC
330
23
100
AcDbEntity
  8
1
100
AcDbLine
 10
-200.221417
 20
-238.966255
 30
0.0
 11
-242.480474
 21
-242.663443
 31
0.0
  0
LINE
  5
1DD
330
23
100
AcDbEntity
  8
1
100
AcDbLine
 10
-192.287335
 20
-232.147631
 30
0.0
 11
-260.943329
 21
-238.154252
 31
0.0
  0
LINE
  5
1DE
330
23
100
AcDbEntity
  8
1
100
AcDbLine
 10
-194.631932
 20
-239.485273
 30
0.0
 11
-198.9355139999999
 21
-239.007534
 31
0.0
  0
LINE
  5
1DF
330
23
100
AcDbEntity
  8
1
100
AcDbLine
 10
-192.534553
 20
-232.788146
 30
0.0
 11
-197.035653
 21
-233.967223
 31
0.0
  0
ARC
  5
1E0
330
23
100
AcDbEntity
  8
1
100
AcDbCircle
 10
-254.164223
 20
-206.325482
 30
0.0
 40
70.0
100
AcDbArc
 50
332.4196
 51
335.855624
  0
ARC
  5
1E1
330
23
100
AcDbEntity
  8
1
100
AcDbCircle
 10
-254.164223
 20
-206.325482
 30
0.0
 40
63.464473
100
AcDbArc
 50
329.562297
 51
332.550556
  0
ARC
  5
1E2
330
23
100
AcDbEntity
  8
1
100
AcDbCircle
 10
-192.113023
 20
-234.140021
 30
0.0
 40
2.0
100
AcDbArc
 50
335.855624
 51
95.0
  0
ARC
  5
1E3
330
23
100
AcDbEntity
  8
1
100
AcDbCircle
 10
-193.891607
 20
-237.808996
 30
0.0
 40
2.0
100
AcDbArc
 50
275.0
 51
332.4196
  0
ARC
  5
1E4
330
23
100
AcDbEntity
  8
1
100
AcDbCircle
 10
-198.73213
 20
-235.119465
 30
0.0
 40
1.0
100
AcDbArc
 50
332.550556
 51
95.0
  0
ARC
  5
1E5
330
23
100
AcDbEntity
  8
1
100
AcDbCircle
 10
-200.308573
 20
-237.97006
 30
0.0
 40
1.0
100
AcDbArc
 50
275.0
 51
329.562297
  0
LINE
  5
1E6
330
23
100
AcDbEntity
  8
1
100
AcDbLine
 10
-262.164223
 20
-265.410545
 30
0.0
 11
-262.164223
 21
-246.995884
 31
0.0
  0
ARC
  5
1E7
330
23
100
AcDbEntity
  8
1
100
AcDbCircle
 10
-254.164223
 20
-246.995884
 30
0.0
 40
8.0
100
AcDbArc
 50
95.0
 51
180.0
  0
LINE
  5
1E8
330
23
100
AcDbEntity
  8
1
100
AcDbLine
 10
-278.661911
 20
-140.825482
 30
0.0
 11
-273.719916
 21
-140.825482
 31
0.0
  0
ARC
  5
1E9
330
23
100
AcDbEntity
  8
1
100
AcDbCircle
 10
-267.746083
 20
-139.665039
 30
0.0
 40
2.0
100
AcDbArc
 50
180.0
 51
231.317813
  0
LINE
  5
1EA
330
23
100
AcDbEntity
  8
1
100
AcDbLine
 10
-240.578778
 20
-142.134883
 30
0.0
 11
-266.27724
 21
-142.134883
 31
0.0
  0
LINE
  5
1EB
330
23
100
AcDbEntity
  8
1
100
AcDbLine
 10
-239.164223
 20
-140.825482
 30
0.0
 11
-267.746083
 21
-140.825482
 31
0.0
  0
LINE
  5
1EC
330
23
100
AcDbEntity
  8
1
100
AcDbLine
 10
-229.666535
 20
-140.825482
 30
0.0
 11
-234.608531
 21
-140.825482
 31
0.0
  0
ARC
  5
1ED
330
23
100
AcDbEntity
  8
1
100
AcDbCircle
 10
-239.164223
 20
-139.665039
 30
0.0
 40
2.0
100
AcDbArc
 50
308.682187
 51
360.0
  0
ARC
  5
1EE
330
23
100
AcDbEntity
  8
1
100
AcDbCircle
 10
-267.746083
 20
-272.985925
 30
0.0
 40
2.0
100
AcDbArc
 50
128.682187
 51
180.0
  0
LINE
  5
1EF
330
23
100
AcDbEntity
  8
1
100
AcDbLine
 10
-244.164223
 20
-145.213878
 30
0.0
 11
-244.164223
 21
-162.509563
 31
0.0
  0
ARC
  5
1F0
330
23
100
AcDbEntity
  8
1
100
AcDbCircle
 10
-236.164223
 20
-162.509563
 30
0.0
 40
8.0
100
AcDbArc
 50
180.0
 51
265.000001
  0
ARC
  5
1F1
330
23
100
AcDbEntity
  8
1
100
AcDbCircle
 10
-236.664223
 20
-167.08457
 30
0.0
 40
2.0
100
AcDbArc
 50
180.0
 51
264.999999
  0
ARC
  5
1F2
330
23
100
AcDbEntity
  8
1
100
AcDbCircle
 10
-243.468071
 20
-178.033239
 30
0.0
 40
2.0
100
AcDbArc
 50
85.0
 51
180.0
  0
ARC
  5
1F3
330
23
100
AcDbEntity
  8
1
100
AcDbCircle
 10
-248.664223
 20
-177.578635
 30
0.0
 40
2.0
100
AcDbArc
 50
85.0
 51
180.0
  0
ARC
  5
1F4
330
23
100
AcDbEntity
  8
1
100
AcDbCircle
 10
-259.664223
 20
-176.616259
 30
0.0
 40
2.0
100
AcDbArc
 50
0.0
 51
85.0
  0
LINE
  5
1F5
330
23
100
AcDbEntity
  8
1
100
AcDbLine
 10
-268.246083
 20
-166.527155
 30
0.0
 11
-268.246083
 21
-143.2343239999999
 31
0.0
  0
ARC
  5
1F6
330
23
100
AcDbEntity
  8
1
100
AcDbCircle
 10
-260.246083
 20
-166.527155
 30
0.0
 40
8.0
100
AcDbArc
 50
180.0
 51
265.0
  0
ARC
  5
1F7
330
23
100
AcDbEntity
  8
1
100
AcDbCircle
 10
-264.860376
 20
-175.398924
 30
0.0
 40
2.0
100
AcDbArc
 50
0.0
 51
62.520621
  0
LINE
  5
1F8
330
23
100
AcDbEntity
  8
1
100
AcDbLine
 10
-268.246083
 20
-204.262156
 30
0.0
 11
-268.246083
 21
-208.388808
 31
0.0
  0
LINE
  5
1F9
330
23
100
AcDbEntity
  8
1
100
AcDbLine
 10
-263.860376
 20
-203.262156
 30
0.0
 11
-267.246083
 21
-203.262156
 31
0.0
  0
LINE
  5
1FA
330
23
100
AcDbEntity
  8
1
100
AcDbLine
 10
-267.152346
 20
-203.401699
 30
0.0
 11
-262.664235
 21
-203.974306
 31
0.0
  0
ARC
  5
1FB
330
23
100
AcDbEntity
  8
1
100
AcDbCircle
 10
-267.246083
 20
-204.262156
 30
0.0
 40
1.0
100
AcDbArc
 50
90.0
 51
180.0
  0
LINE
  5
1FC
330
23
100
AcDbEntity
  8
1
100
AcDbLine
 10
-262.664235
 20
-204.974306
 30
0.0
 11
-262.664235
 21
-207.676658
 31
0.0
  0
ARC
  5
1FD
330
23
100
AcDbEntity
  8
1
100
AcDbCircle
 10
-267.246083
 20
-208.388808
 30
0.0
 40
1.0
100
AcDbArc
 50
180.0
 51
270.0
  0
LINE
  5
1FE
330
23
100
AcDbEntity
  8
1
100
AcDbLine
 10
-267.152346
 20
-209.249266
 30
0.0
 11
-262.664235
 21
-208.676658
 31
0.0
  0
LINE
  5
1FF
330
23
100
AcDbEntity
  8
1
100
AcDbLine
 10
-264.164224
 20
-209.388808
 30
0.0
 11
-267.246083
 21
-209.388808
 31
0.0
  0
ARC
  5
200
330
23
100
AcDbEntity
  8
1
100
AcDbCircle
 10
-263.860376
 20
-202.262156
 30
0.0
 40
1.0
100
AcDbArc
 50
270.0
 51
360.0
  0
ARC
  5
201
330
23
100
AcDbEntity
  8
1
100
AcDbCircle
 10
-258.664223
 20
-202.262156
 30
0.0
 40
1.0
100
AcDbArc
 50
270.0
 51
360.0
  0
ARC
  5
202
330
23
100
AcDbEntity
  8
1
100
AcDbCircle
 10
-249.664223
 20
-202.262156
 30
0.0
 40
1.0
100
AcDbArc
 50
180.0
 51
270.0
  0
ARC
  5
203
330
23
100
AcDbEntity
  8
1
100
AcDbCircle
 10
-244.468071
 20
-201.575482
 30
0.0
 40
1.0
100
AcDbArc
 50
180.0
 51
270.0
  0
ARC
  5
204
330
23
100
AcDbEntity
  8
1
100
AcDbCircle
 10
-244.468071
 20
-211.075482
 30
0.0
 40
1.0
100
AcDbArc
 50
90.0
 51
180.0
  0
ARC
  5
205
330
23
100
AcDbEntity
  8
1
100
AcDbCircle
 10
-258.664223
 20
-210.388808
 30
0.0
 40
1.0
100
AcDbArc
 50
0.0
 51
90.0
  0
ARC
  5
206
330
23
100
AcDbEntity
  8
1
100
AcDbCircle
 10
-263.860376
 20
-210.388808
 30
0.0
 40
1.0
100
AcDbArc
 50
0.0
 51
90.0
  0
ARC
  5
207
330
23
100
AcDbEntity
  8
1
100
AcDbCircle
 10
-249.664223
 20
-210.388808
 30
0.0
 40
1.0
100
AcDbArc
 50
90.0
 51
180.0
  0
ARC
  5
208
330
23
100
AcDbEntity
  8
1
100
AcDbCircle
 10
-261.664235
 20
-204.974306
 30
0.0
 40
1.0
100
AcDbArc
 50
90.0
 51
180.0
  0
ARC
  5
209
330
23
100
AcDbEntity
  8
1
100
AcDbCircle
 10
-261.664235
 20
-207.676658
 30
0.0
 40
1.0
100
AcDbArc
 50
180.0
 51
270.0
  0
LINE
  5
20A
330
23
100
AcDbEntity
  8
1
100
AcDbLine
 10
-244.164223
 20
-267.437087
 30
0.0
 11
-244.164223
 21
-250.141402
 31
0.0
  0
ARC
  5
20B
330
23
100
AcDbEntity
  8
1
100
AcDbCircle
 10
-236.164223
 20
-250.141402
 30
0.0
 40
8.0
100
AcDbArc
 50
94.999999
 51
180.0
  0
ARC
  5
20C
330
23
100
AcDbEntity
  8
1
100
AcDbCircle
 10
-236.664223
 20
-245.566395
 30
0.0
 40
2.0
100
AcDbArc
 50
95.00000099999999
 51
180.0
  0
ARC
  5
20D
330
23
100
AcDbEntity
  8
1
100
AcDbCircle
 10
-243.468071
 20
-234.617726
 30
0.0
 40
2.0
100
AcDbArc
 50
180.0
 51
275.0
  0
ARC
  5
20E
330
23
100
AcDbEntity
  8
1
100
AcDbCircle
 10
-248.664223
 20
-235.07233
 30
0.0
 40
2.0
100
AcDbArc
 50
180.0
 51
275.0
  0
ARC
  5
20F
330
23
100
AcDbEntity
  8
1
100
AcDbCircle
 10
-259.664223
 20
-236.034705
 30
0.0
 40
2.0
100
AcDbArc
 50
275.0
 51
360.0
  0
LINE
  5
210
330
23
100
AcDbEntity
  8
1
100
AcDbLine
 10
-268.246083
 20
-246.12381
 30
0.0
 11
-268.246083
 21
-268.355773
 31
0.0
  0
ARC
  5
211
330
23
100
AcDbEntity
  8
1
100
AcDbCircle
 10
-260.246083
 20
-246.12381
 30
0.0
 40
8.0
100
AcDbArc
 50
95.0
 51
180.0
  0
ARC
  5
212
330
23
100
AcDbEntity
  8
1
100
AcDbCircle
 10
-264.860376
 20
-237.25204
 30
0.0
 40
2.0
100
AcDbArc
 50
297.479379
 51
360.0
  0
POINT
  5
213
330
23
100
AcDbEntity
  8
1
100
AcDbPoint
 10
-254.164223
 20
-206.325482
 30
0.0
  0
LINE
  5
214
330
23
100
AcDbEntity
  8
2
  6
CENTER
 62
     2
100
AcDbLine
 10
-254.164223
 20
337.126076
 30
0.0
 11
-254.164223
 21
206.707066
 31
0.0
  0
LINE
  5
215
330
23
100
AcDbEntity
  8
2
100
AcDbLine
 10
-305.164223
 20
-4.325482
 30
0.0
 11
-203.164223
 21
-4.325482
 31
0.0
  0
LINE
  5
216
330
23
100
AcDbEntity
  8
2
100
AcDbLine
 10
-305.164223
 20
0.6745180000000001
 30
0.0
 11
-305.164223
 21
-4.325482
 31
0.0
  0
LINE
  5
217
330
23
100
AcDbEntity
  8
2
100
AcDbLine
 10
-203.164223
 20
0.6745180000000001
 30
0.0
 11
-203.164223
 21
-4.325482
 31
0.0
  0
LINE
  5
218
330
23
100
AcDbEntity
  8
2
100
AcDbLine
 10
-303.164223
 20
2.674517999999999
 30
0.0
 11
-205.164223
 21
2.674517999999999
 31
0.0
  0
ARC
  5
219
330
23
100
AcDbEntity
  8
2
100
AcDbCircle
 10
-205.164223
 20
0.6745180000000001
 30
0.0
 40
2.0
100
AcDbArc
 50
0.0
 51
90.0
  0
ARC
  5
21A
330
23
100
AcDbEntity
  8
2
100
AcDbCircle
 10
-303.164223
 20
0.6745180000000001
 30
0.0
 40
2.0
100
AcDbArc
 50
90.0
 51
180.0
  0
LINE
  5
21B
330
23
100
AcDbEntity
  8
2
100
AcDbLine
 10
-210.664223
 20
70.174518
 30
0.0
 11
-210.664223
 21
15.282706
 31
0.0
  0
LINE
  5
21C
330
23
100
AcDbEntity
  8
2
100
AcDbLine
 10
-297.664223
 20
70.174518
 30
0.0
 11
-297.664223
 21
15.282706
 31
0.0
  0
LINE
  5
21D
330
23
100
AcDbEntity
  8
2
100
AcDbLine
 10
-295.664223
 20
72.174518
 30
0.0
 11
-212.664223
 21
72.174518
 31
0.0
  0
ARC
  5
21E
330
23
100
AcDbEntity
  8
2
100
AcDbCircle
 10
-212.664223
 20
70.174518
 30
0.0
 40
2.0
100
AcDbArc
 50
0.0
 51
90.0
  0
ARC
  5
21F
330
23
100
AcDbEntity
  8
2
100
AcDbCircle
 10
-295.664223
 20
70.174518
 30
0.0
 40
2.0
100
AcDbArc
 50
90.0
 51
180.0
  0
LINE
  5
220
330
23
100
AcDbEntity
  8
2
100
AcDbLine
 10
-264.914223
 20
85.674518
 30
0.0
 11
-243.414223
 21
85.674518
 31
0.0
  0
LINE
  5
221
330
23
100
AcDbEntity
  8
2
100
AcDbLine
 10
-289.664223
 20
75.674518
 30
0.0
 11
-218.664223
 21
75.674518
 31
0.0
  0
LINE
  5
222
330
23
100
AcDbEntity
  8
2
100
AcDbLine
 10
-242.414223
 20
84.674518
 30
0.0
 11
-242.414223
 21
77.674518
 31
0.0
  0
LINE
  5
223
330
23
100
AcDbEntity
  8
2
100
AcDbLine
 10
-247.516855
 20
85.674518
 30
0.0
 11
-247.516855
 21
75.674518
 31
0.0
  0
LINE
  5
224
330
23
100
AcDbEntity
  8
2
100
AcDbLine
 10
-260.811591
 20
85.674518
 30
0.0
 11
-260.811591
 21
75.674518
 31
0.0
  0
LINE
  5
225
330
23
100
AcDbEntity
  8
2
100
AcDbLine
 10
-265.914223
 20
84.674518
 30
0.0
 11
-265.914223
 21
77.674518
 31
0.0
  0
ARC
  5
226
330
23
100
AcDbEntity
  8
2
100
AcDbCircle
 10
-243.414223
 20
84.674518
 30
0.0
 40
1.0
100
AcDbArc
 50
0.0
 51
90.0
  0
ARC
  5
227
330
23
100
AcDbEntity
  8
2
100
AcDbCircle
 10
-264.914223
 20
84.674518
 30
0.0
 40
1.0
100
AcDbArc
 50
90.0
 51
180.0
  0
ARC
  5
228
330
23
100
AcDbEntity
  8
2
100
AcDbCircle
 10
-240.414223
 20
77.674518
 30
0.0
 40
2.0
100
AcDbArc
 50
180.0
 51
270.0
  0
ARC
  5
229
330
23
100
AcDbEntity
  8
2
100
AcDbCircle
 10
-267.914223
 20
77.674518
 30
0.0
 40
2.0
100
AcDbArc
 50
270.0
 51
360.0
  0
LINE
  5
22A
330
23
100
AcDbEntity
  8
2
100
AcDbLine
 10
-218.664223
 20
75.674518
 30
0.0
 11
-218.664223
 21
73.174518
 31
0.0
  0
LINE
  5
22B
330
23
100
AcDbEntity
  8
2
100
AcDbLine
 10
-289.664223
 20
75.674518
 30
0.0
 11
-289.664223
 21
73.174518
 31
0.0
  0
LINE
  5
22C
330
23
100
AcDbEntity
  8
2
100
AcDbLine
 10
-289.664223
 20
73.174518
 30
0.0
 11
-218.664223
 21
73.174518
 31
0.0
  0
LINE
  5
22D
330
23
100
AcDbEntity
  8
2
100
AcDbLine
 10
-220.664223
 20
73.174518
 30
0.0
 11
-220.664223
 21
72.174518
 31
0.0
  0
LINE
  5
22E
330
23
100
AcDbEntity
  8
2
100
AcDbLine
 10
-287.664223
 20
72.174518
 30
0.0
 11
-287.664223
 21
73.174518
 31
0.0
  0
LINE
  5
22F
330
23
100
AcDbEntity
  8
2
100
AcDbLine
 10
-208.101777
 20
9.869009
 30
0.0
 11
-208.101777
 21
7.363786
 31
0.0
  0
LINE
  5
230
330
23
100
AcDbEntity
  8
2
100
AcDbLine
 10
-300.226669
 20
9.869009
 30
0.0
 11
-300.226669
 21
7.363786
 31
0.0
  0
LINE
  5
231
330
23
100
AcDbEntity
  8
2
100
AcDbLine
 10
48.385777
 20
-4.325482
 30
0.0
 11
150.385777
 21
-4.325482
 31
0.0
  0
LINE
  5
232
330
23
100
AcDbEntity
  8
2
100
AcDbLine
 10
48.385777
 20
0.6745180000000001
 30
0.0
 11
48.385777
 21
-4.325482
 31
0.0
  0
LINE
  5
233
330
23
100
AcDbEntity
  8
2
100
AcDbLine
 10
150.385777
 20
0.6745180000000001
 30
0.0
 11
150.385777
 21
-4.325482
 31
0.0
  0
LINE
  5
234
330
23
100
AcDbEntity
  8
2
100
AcDbLine
 10
50.38577700000001
 20
2.674517999999999
 30
0.0
 11
148.385777
 21
2.674517999999999
 31
0.0
  0
ARC
  5
235
330
23
100
AcDbEntity
  8
2
100
AcDbCircle
 10
148.385777
 20
0.6745180000000001
 30
0.0
 40
2.0
100
AcDbArc
 50
0.0
 51
90.0
  0
ARC
  5
236
330
23
100
AcDbEntity
  8
2
100
AcDbCircle
 10
50.38577700000001
 20
0.6745180000000001
 30
0.0
 40
2.0
100
AcDbArc
 50
90.0
 51
180.0
  0
LINE
  5
237
330
23
100
AcDbEntity
  8
2
100
AcDbLine
 10
142.885777
 20
70.174518
 30
0.0
 11
142.885777
 21
15.282706
 31
0.0
  0
LINE
  5
238
330
23
100
AcDbEntity
  8
2
100
AcDbLine
 10
55.885777
 20
70.174518
 30
0.0
 11
55.885777
 21
15.282706
 31
0.0
  0
ARC
  5
239
330
23
100
AcDbEntity
  8
2
100
AcDbCircle
 10
140.885777
 20
70.174518
 30
0.0
 40
2.0
100
AcDbArc
 50
0.0
 51
90.0
  0
ARC
  5
23A
330
23
100
AcDbEntity
  8
2
100
AcDbCircle
 10
57.88577700000001
 20
70.174518
 30
0.0
 40
2.0
100
AcDbArc
 50
90.0
 51
180.0
  0
LINE
  5
23B
330
23
100
AcDbEntity
  8
2
100
AcDbLine
 10
88.635777
 20
85.674518
 30
0.0
 11
110.135777
 21
85.674518
 31
0.0
  0
LINE
  5
23C
330
23
100
AcDbEntity
  8
2
100
AcDbLine
 10
63.885777
 20
75.674518
 30
0.0
 11
134.885777
 21
75.674518
 31
0.0
  0
LINE
  5
23D
330
23
100
AcDbEntity
  8
2
100
AcDbLine
 10
111.135777
 20
84.674518
 30
0.0
 11
111.135777
 21
77.674518
 31
0.0
  0
LINE
  5
23E
330
23
100
AcDbEntity
  8
2
100
AcDbLine
 10
106.033145
 20
85.674518
 30
0.0
 11
106.033145
 21
75.674518
 31
0.0
  0
LINE
  5
23F
330
23
100
AcDbEntity
  8
2
100
AcDbLine
 10
92.73840899999999
 20
85.674518
 30
0.0
 11
92.73840899999999
 21
75.674518
 31
0.0
  0
LINE
  5
240
330
23
100
AcDbEntity
  8
2
100
AcDbLine
 10
87.635777
 20
84.674518
 30
0.0
 11
87.635777
 21
77.674518
 31
0.0
  0
ARC
  5
241
330
23
100
AcDbEntity
  8
2
100
AcDbCircle
 10
110.135777
 20
84.674518
 30
0.0
 40
1.0
100
AcDbArc
 50
0.0
 51
90.0
  0
ARC
  5
242
330
23
100
AcDbEntity
  8
2
100
AcDbCircle
 10
88.635777
 20
84.674518
 30
0.0
 40
1.0
100
AcDbArc
 50
90.0
 51
180.0
  0
ARC
  5
243
330
23
100
AcDbEntity
  8
2
100
AcDbCircle
 10
113.135777
 20
77.674518
 30
0.0
 40
2.0
100
AcDbArc
 50
180.0
 51
270.0
  0
ARC
  5
244
330
23
100
AcDbEntity
  8
2
100
AcDbCircle
 10
85.63577700000001
 20
77.674518
 30
0.0
 40
2.0
100
AcDbArc
 50
270.0
 51
360.0
  0
LINE
  5
245
330
23
100
AcDbEntity
  8
2
100
AcDbLine
 10
134.885777
 20
75.674518
 30
0.0
 11
134.885777
 21
73.174518
 31
0.0
  0
LINE
  5
246
330
23
100
AcDbEntity
  8
2
100
AcDbLine
 10
63.885777
 20
75.674518
 30
0.0
 11
63.885777
 21
73.174518
 31
0.0
  0
LINE
  5
247
330
23
100
AcDbEntity
  8
2
100
AcDbLine
 10
132.885777
 20
73.174518
 30
0.0
 11
132.885777
 21
72.174518
 31
0.0
  0
LINE
  5
248
330
23
100
AcDbEntity
  8
2
100
AcDbLine
 10
65.885777
 20
72.174518
 30
0.0
 11
65.885777
 21
73.174518
 31
0.0
  0
LINE
  5
249
330
23
100
AcDbEntity
  8
2
100
AcDbLine
 10
145.4482229999999
 20
9.869009
 30
0.0
 11
145.4482229999999
 21
7.363786
 31
0.0
  0
LINE
  5
24A
330
23
100
AcDbEntity
  8
2
100
AcDbLine
 10
53.323331
 20
9.869009
 30
0.0
 11
53.323331
 21
7.363786
 31
0.0
  0
LINE
  5
24B
330
23
100
AcDbEntity
  8
2
100
AcDbLine
 10
-281.164223
 20
50.674518
 30
0.0
 11
-281.164223
 21
7.674517999999999
 31
0.0
  0
LINE
  5
24C
330
23
100
AcDbEntity
  8
2
100
AcDbLine
 10
-227.164223
 20
50.674518
 30
0.0
 11
-227.164223
 21
7.674517999999999
 31
0.0
  0
LINE
  5
24D
330
23
100
AcDbEntity
  8
2
100
AcDbLine
 10
-278.164223
 20
53.67451800000001
 30
0.0
 11
-230.164223
 21
53.67451800000001
 31
0.0
  0
ARC
  5
24E
330
23
100
AcDbEntity
  8
2
100
AcDbCircle
 10
-230.164223
 20
50.674518
 30
0.0
 40
3.0
100
AcDbArc
 50
0.0
 51
90.0
  0
ARC
  5
24F
330
23
100
AcDbEntity
  8
2
100
AcDbCircle
 10
-278.164223
 20
50.674518
 30
0.0
 40
3.0
100
AcDbArc
 50
90.0
 51
180.0
  0
ARC
  5
250
330
23
100
AcDbEntity
  8
2
100
AcDbCircle
 10
-232.164223
 20
7.674517999999999
 30
0.0
 40
5.0
100
AcDbArc
 50
270.0
 51
360.0
  0
ARC
  5
251
330
23
100
AcDbEntity
  8
2
100
AcDbCircle
 10
-276.164223
 20
7.674517999999999
 30
0.0
 40
5.0
100
AcDbArc
 50
180.0
 51
270.0
  0
ARC
  5
252
330
23
100
AcDbEntity
  8
2
100
AcDbCircle
 10
-206.532223
 20
9.800757
 30
0.0
 40
20.632
100
AcDbArc
 50
144.865194
 51
180.0
  0
ARC
  5
253
330
23
100
AcDbEntity
  8
2
100
AcDbCircle
 10
-301.796223
 20
9.800757
 30
0.0
 40
20.632
100
AcDbArc
 50
0.0
 51
35.134806
  0
LINE
  5
254
330
23
100
AcDbEntity
  8
2
100
AcDbLine
 10
131.448223
 20
9.869009
 30
0.0
 11
131.448223
 21
7.674517999999999
 31
0.0
  0
ARC
  5
255
330
23
100
AcDbEntity
  8
2
100
AcDbCircle
 10
126.448223
 20
7.674517999999999
 30
0.0
 40
5.0
100
AcDbArc
 50
270.0
 51
360.0
  0
ARC
  5
256
330
23
100
AcDbEntity
  8
2
100
AcDbCircle
 10
72.32333100000001
 20
7.674517999999999
 30
0.0
 40
5.0
100
AcDbArc
 50
180.0
 51
270.0
  0
LINE
  5
257
330
23
100
AcDbEntity
  8
2
100
AcDbLine
 10
67.32333100000001
 20
9.869009
 30
0.0
 11
67.32333100000001
 21
7.674517999999999
 31
0.0
  0
ARC
  5
258
330
23
100
AcDbEntity
  8
2
100
AcDbCircle
 10
-227.101777
 20
7.674517999999999
 30
0.0
 40
5.0
100
AcDbArc
 50
270.0
 51
360.0
  0
LINE
  5
259
330
23
100
AcDbEntity
  8
2
100
AcDbLine
 10
-222.101777
 20
9.869009
 30
0.0
 11
-222.101777
 21
7.674517999999999
 31
0.0
  0
ARC
  5
25A
330
23
100
AcDbEntity
  8
2
100
AcDbCircle
 10
-281.226669
 20
7.674517999999999
 30
0.0
 40
5.0
100
AcDbArc
 50
180.0
 51
270.0
  0
LINE
  5
25B
330
23
100
AcDbEntity
  8
2
100
AcDbLine
 10
-286.226669
 20
9.869009
 30
0.0
 11
-286.226669
 21
7.674517999999999
 31
0.0
  0
LINE
  5
25C
330
23
100
AcDbEntity
  8
2
  6
CENTER
 62
     2
100
AcDbLine
 10
-237.164223
 20
24.166661
 30
0.0
 11
-237.164223
 21
3.226658
 31
0.0
  0
CIRCLE
  5
25D
330
23
100
AcDbEntity
  8
2
 62
     2
100
AcDbCircle
 10
-237.164223
 20
13.674518
 30
0.0
 40
3.3235
  0
CIRCLE
  5
25E
330
23
100
AcDbEntity
  8
2
100
AcDbCircle
 10
-237.164223
 20
13.674518
 30
0.0
 40
6.25
  0
CIRCLE
  5
25F
330
23
100
AcDbEntity
  8
2
100
AcDbCircle
 10
-237.164223
 20
13.674518
 30
0.0
 40
4.0
  0
LINE
  5
260
330
23
100
AcDbEntity
  8
2
100
AcDbLine
 10
-240.917
 20
20.174518
 30
0.0
 11
-233.411446
 21
20.174518
 31
0.0
  0
LINE
  5
261
330
23
100
AcDbEntity
  8
2
100
AcDbLine
 10
-240.917
 20
7.174517999999999
 30
0.0
 11
-233.411446
 21
7.174517999999999
 31
0.0
  0
LINE
  5
262
330
23
100
AcDbEntity
  8
2
100
AcDbLine
 10
-244.669777
 20
13.674518
 30
0.0
 11
-240.917
 21
20.174518
 31
0.0
  0
LINE
  5
263
330
23
100
AcDbEntity
  8
2
100
AcDbLine
 10
-233.411446
 20
7.174517999999999
 30
0.0
 11
-229.65867
 21
13.674518
 31
0.0
  0
LINE
  5
264
330
23
100
AcDbEntity
  8
2
100
AcDbLine
 10
-240.917
 20
7.174517999999999
 30
0.0
 11
-244.669777
 21
13.674518
 31
0.0
  0
LINE
  5
265
330
23
100
AcDbEntity
  8
2
100
AcDbLine
 10
-229.65867
 20
13.674518
 30
0.0
 11
-233.411446
 21
20.174518
 31
0.0
  0
LINE
  5
266
330
23
100
AcDbEntity
  8
2
100
AcDbLine
 10
-239.164223
 20
14.829218
 30
0.0
 11
-239.164223
 21
12.519817
 31
0.0
  0
LINE
  5
267
330
23
100
AcDbEntity
  8
2
100
AcDbLine
 10
-235.164223
 20
14.829218
 30
0.0
 11
-235.164223
 21
12.519817
 31
0.0
  0
LINE
  5
268
330
23
100
AcDbEntity
  8
2
100
AcDbLine
 10
-237.164223
 20
15.983919
 30
0.0
 11
-235.164223
 21
14.829218
 31
0.0
  0
LINE
  5
269
330
23
100
AcDbEntity
  8
2
100
AcDbLine
 10
-239.164223
 20
12.519817
 30
0.0
 11
-237.164223
 21
11.365117
 31
0.0
  0
LINE
  5
26A
330
23
100
AcDbEntity
  8
2
100
AcDbLine
 10
-237.164223
 20
11.365117
 30
0.0
 11
-235.164223
 21
12.519817
 31
0.0
  0
LINE
  5
26B
330
23
100
AcDbEntity
  8
2
100
AcDbLine
 10
-239.164223
 20
14.829218
 30
0.0
 11
-237.164223
 21
15.983919
 31
0.0
  0
LINE
  5
26C
330
23
100
AcDbEntity
  8
2
  6
CENTER
 62
     2
100
AcDbLine
 10
-271.164223
 20
24.166661
 30
0.0
 11
-271.164223
 21
3.226658
 31
0.0
  0
CIRCLE
  5
26D
330
23
100
AcDbEntity
  8
2
 62
     2
100
AcDbCircle
 10
-271.164223
 20
13.674518
 30
0.0
 40
3.3235
  0
CIRCLE
  5
26E
330
23
100
AcDbEntity
  8
2
100
AcDbCircle
 10
-271.164223
 20
13.674518
 30
0.0
 40
6.25
  0
CIRCLE
  5
26F
330
23
100
AcDbEntity
  8
2
100
AcDbCircle
 10
-271.164223
 20
13.674518
 30
0.0
 40
4.0
  0
LINE
  5
270
330
23
100
AcDbEntity
  8
2
100
AcDbLine
 10
-267.411446
 20
20.174518
 30
0.0
 11
-274.917
 21
20.174518
 31
0.0
  0
LINE
  5
271
330
23
100
AcDbEntity
  8
2
100
AcDbLine
 10
-267.411446
 20
7.174517999999999
 30
0.0
 11
-274.917
 21
7.174517999999999
 31
0.0
  0
LINE
  5
272
330
23
100
AcDbEntity
  8
2
100
AcDbLine
 10
-263.65867
 20
13.674518
 30
0.0
 11
-267.411446
 21
20.174518
 31
0.0
  0
LINE
  5
273
330
23
100
AcDbEntity
  8
2
100
AcDbLine
 10
-274.917
 20
7.174517999999999
 30
0.0
 11
-278.669777
 21
13.674518
 31
0.0
  0
LINE
  5
274
330
23
100
AcDbEntity
  8
2
100
AcDbLine
 10
-267.411446
 20
7.174517999999999
 30
0.0
 11
-263.65867
 21
13.674518
 31
0.0
  0
LINE
  5
275
330
23
100
AcDbEntity
  8
2
100
AcDbLine
 10
-278.669777
 20
13.674518
 30
0.0
 11
-274.917
 21
20.174518
 31
0.0
  0
LINE
  5
276
330
23
100
AcDbEntity
  8
2
100
AcDbLine
 10
-269.164223
 20
14.829218
 30
0.0
 11
-269.164223
 21
12.519817
 31
0.0
  0
LINE
  5
277
330
23
100
AcDbEntity
  8
2
100
AcDbLine
 10
-273.164223
 20
14.829218
 30
0.0
 11
-273.164223
 21
12.519817
 31
0.0
  0
LINE
  5
278
330
23
100
AcDbEntity
  8
2
100
AcDbLine
 10
-271.164223
 20
15.983919
 30
0.0
 11
-273.164223
 21
14.829218
 31
0.0
  0
LINE
  5
279
330
23
100
AcDbEntity
  8
2
100
AcDbLine
 10
-269.164223
 20
12.519817
 30
0.0
 11
-271.164223
 21
11.365117
 31
0.0
  0
LINE
  5
27A
330
23
100
AcDbEntity
  8
2
100
AcDbLine
 10
-271.164223
 20
11.365117
 30
0.0
 11
-273.164223
 21
12.519817
 31
0.0
  0
LINE
  5
27B
330
23
100
AcDbEntity
  8
2
100
AcDbLine
 10
-269.164223
 20
14.829218
 30
0.0
 11
-271.164223
 21
15.983919
 31
0.0
  0
LINE
  5
27C
330
23
100
AcDbEntity
  8
2
  6
CENTER
 62
     2
100
AcDbLine
 10
-280.247626
 20
13.674518
 30
0.0
 11
-261.556724
 21
13.674518
 31
0.0
  0
LINE
  5
27D
330
23
100
AcDbEntity
  8
2
  6
CENTER
 62
     2
100
AcDbLine
 10
-246.887755
 20
13.674518
 30
0.0
 11
-228.04547
 21
13.674518
 31
0.0
  0
LINE
  5
27E
330
23
100
AcDbEntity
  8
2
  6
CENTER
 62
     2
100
AcDbLine
 10
42.446136
 20
13.674518
 30
0.0
 11
61.71329899999999
 21
13.674518
 31
0.0
  0
LINE
  5
27F
330
23
100
AcDbEntity
  8
2
100
AcDbLine
 10
66.69784599999999
 20
53.67451800000001
 30
0.0
 11
66.69784599999999
 21
22.618736
 31
0.0
  0
LINE
  5
280
330
23
100
AcDbEntity
  8
2
100
AcDbLine
 10
55.885777
 20
53.67451800000001
 30
0.0
 11
63.697846
 21
53.67451800000001
 31
0.0
  0
ARC
  5
281
330
23
100
AcDbEntity
  8
2
100
AcDbCircle
 10
63.697846
 20
56.67451800000001
 30
0.0
 40
3.0
100
AcDbArc
 50
270.0
 51
360.0
  0
ARC
  5
282
330
23
100
AcDbEntity
  8
2
100
AcDbCircle
 10
63.697846
 20
22.618736
 30
0.0
 40
3.0
100
AcDbArc
 50
295.867504
 51
360.0
  0
LINE
  5
283
330
23
100
AcDbEntity
  8
2
100
AcDbLine
 10
63.885777
 20
73.174518
 30
0.0
 11
124.706847
 21
73.174518
 31
0.0
  0
LINE
  5
284
330
23
100
AcDbEntity
  8
2
100
AcDbLine
 10
132.84303
 20
73.174518
 30
0.0
 11
134.885777
 21
73.174518
 31
0.0
  0
LINE
  5
285
330
23
100
AcDbEntity
  8
2
100
AcDbLine
 10
57.88577700000001
 20
72.174518
 30
0.0
 11
127.186176
 21
72.174518
 31
0.0
  0
LINE
  5
286
330
23
100
AcDbEntity
  8
2
100
AcDbLine
 10
132.84303
 20
72.174518
 30
0.0
 11
140.885777
 21
72.174518
 31
0.0
  0
LINE
  5
287
330
23
100
AcDbEntity
  8
2
100
AcDbLine
 10
-212.047737
 20
16.167647
 30
0.0
 11
-221.150244
 21
20.581209
 31
0.0
  0
ARC
  5
288
330
23
100
AcDbEntity
  8
2
100
AcDbCircle
 10
-203.101777
 20
7.363786
 30
0.0
 40
5.0
100
AcDbArc
 50
180.0
 51
252.864341
  0
ARC
  5
289
330
23
100
AcDbEntity
  8
2
100
AcDbCircle
 10
-219.405078
 20
24.180431
 30
0.0
 40
4.0
100
AcDbArc
 50
180.0
 51
244.132496
  0
ARC
  5
28A
330
23
100
AcDbEntity
  8
2
100
AcDbCircle
 10
-215.101777
 20
9.869009
 30
0.0
 40
7.0
100
AcDbArc
 50
360.0
 51
64.132496
  0
LINE
  5
28B
330
23
100
AcDbEntity
  8
2
100
AcDbLine
 10
-296.28071
 20
16.167647
 30
0.0
 11
-287.178202
 21
20.581209
 31
0.0
  0
ARC
  5
28C
330
23
100
AcDbEntity
  8
2
100
AcDbCircle
 10
-305.226669
 20
7.363786
 30
0.0
 40
5.0
100
AcDbArc
 50
287.135659
 51
360.0
  0
ARC
  5
28D
330
23
100
AcDbEntity
  8
2
100
AcDbCircle
 10
-288.923368
 20
24.180431
 30
0.0
 40
4.0
100
AcDbArc
 50
295.867504
 51
360.0
  0
ARC
  5
28E
330
23
100
AcDbEntity
  8
2
100
AcDbCircle
 10
-293.226669
 20
9.869009
 30
0.0
 40
7.0
100
AcDbArc
 50
115.867504
 51
180.0
  0
LINE
  5
28F
330
23
100
AcDbEntity
  8
2
100
AcDbLine
 10
141.502263
 20
16.167647
 30
0.0
 11
132.399756
 21
20.581209
 31
0.0
  0
ARC
  5
290
330
23
100
AcDbEntity
  8
2
100
AcDbCircle
 10
150.4482229999999
 20
7.363786
 30
0.0
 40
5.0
100
AcDbArc
 50
180.0
 51
252.864341
  0
ARC
  5
291
330
23
100
AcDbEntity
  8
2
100
AcDbCircle
 10
134.144922
 20
24.180431
 30
0.0
 40
4.0
100
AcDbArc
 50
180.0
 51
244.132496
  0
LINE
  5
292
330
23
100
AcDbEntity
  8
2
100
AcDbLine
 10
117.250056
 20
10.356976
 30
0.0
 11
81.521498
 21
10.356976
 31
0.0
  0
ARC
  5
293
330
23
100
AcDbEntity
  8
2
100
AcDbCircle
 10
117.250056
 20
15.356976
 30
0.0
 40
5.0
100
AcDbArc
 50
270.0
 51
332.56746
  0
ARC
  5
294
330
23
100
AcDbEntity
  8
2
100
AcDbCircle
 10
140.000195
 20
3.548026999999999
 30
0.0
 40
20.632403
100
AcDbArc
 50
118.532683
 51
152.56746
  0
ARC
  5
295
330
23
100
AcDbEntity
  8
2
100
AcDbCircle
 10
131.252114
 20
14.00678
 30
0.0
 40
11.332262
100
AcDbArc
 50
198.788273
 51
246.946712
  0
LINE
  5
296
330
23
100
AcDbEntity
  8
2
100
AcDbLine
 10
57.26929000000001
 20
16.167647
 30
0.0
 11
66.371798
 21
20.581209
 31
0.0
  0
ARC
  5
297
330
23
100
AcDbEntity
  8
2
100
AcDbCircle
 10
48.323331
 20
7.363786
 30
0.0
 40
5.0
100
AcDbArc
 50
287.135659
 51
360.0
  0
ARC
  5
298
330
23
100
AcDbEntity
  8
2
100
AcDbCircle
 10
64.626632
 20
24.180431
 30
0.0
 40
4.0
100
AcDbArc
 50
295.867504
 51
360.0
  0
ARC
  5
299
330
23
100
AcDbEntity
  8
2
100
AcDbCircle
 10
81.521498
 20
15.356976
 30
0.0
 40
5.0
100
AcDbArc
 50
207.43254
 51
270.0
  0
ARC
  5
29A
330
23
100
AcDbEntity
  8
2
100
AcDbCircle
 10
58.77135899999999
 20
3.548026999999999
 30
0.0
 40
20.632403
100
AcDbArc
 50
27.43254
 51
61.46731700000001
  0
ARC
  5
29B
330
23
100
AcDbEntity
  8
2
100
AcDbCircle
 10
60.323331
 20
9.869009
 30
0.0
 40
7.0
100
AcDbArc
 50
115.867504
 51
180.0
  0
ARC
  5
29C
330
23
100
AcDbEntity
  8
2
100
AcDbCircle
 10
138.448223
 20
9.869009
 30
0.0
 40
7.0
100
AcDbArc
 50
360.0
 51
64.132496
  0
ARC
  5
29D
330
23
100
AcDbEntity
  8
2
100
AcDbCircle
 10
138.448223
 20
9.869009
 30
0.0
 40
7.0
100
AcDbArc
 50
90.0
 51
180.0
  0
ARC
  5
29E
330
23
100
AcDbEntity
  8
2
100
AcDbCircle
 10
67.51944
 20
14.00678
 30
0.0
 40
11.332262
100
AcDbArc
 50
293.053288
 51
341.211727
  0
ARC
  5
29F
330
23
100
AcDbEntity
  8
2
100
AcDbCircle
 10
60.323331
 20
9.869009
 30
0.0
 40
7.0
100
AcDbArc
 50
0.0
 51
90.0
  0
ARC
  5
2A0
330
23
100
AcDbEntity
  8
2
100
AcDbCircle
 10
-215.101777
 20
9.869009
 30
0.0
 40
7.0
100
AcDbArc
 50
90.0
 51
180.0
  0
ARC
  5
2A1
330
23
100
AcDbEntity
  8
2
100
AcDbCircle
 10
-293.226669
 20
9.869009
 30
0.0
 40
7.0
100
AcDbArc
 50
0.0
 51
90.0
  0
LINE
  5
2A2
330
23
100
AcDbEntity
  8
2
100
AcDbLine
 10
53.31974699999999
 20
7.174517999999999
 30
0.0
 11
49.385777
 21
7.174517999999999
 31
0.0
  0
LINE
  5
2A3
330
23
100
AcDbEntity
  8
2
100
AcDbLine
 10
49.385777
 20
7.174517999999999
 30
0.0
 11
49.385777
 21
20.174518
 31
0.0
  0
ARC
  5
2A4
330
23
100
AcDbEntity
  8
2
100
AcDbCircle
 10
57.064535
 20
10.424518
 30
0.0
 40
7.678758999999999
100
AcDbArc
 50
154.96034
 51
205.03966
  0
LINE
  5
2A5
330
23
100
AcDbEntity
  8
2
100
AcDbLine
 10
55.885777
 20
20.174518
 30
0.0
 11
49.385777
 21
20.174518
 31
0.0
  0
LINE
  5
2A6
330
23
100
AcDbEntity
  8
2
100
AcDbLine
 10
54.44811999999999
 20
13.674518
 30
0.0
 11
50.107465
 21
13.674518
 31
0.0
  0
ARC
  5
2A7
330
23
100
AcDbEntity
  8
2
100
AcDbCircle
 10
57.064535
 20
16.924518
 30
0.0
 40
7.678758999999999
100
AcDbArc
 50
154.96034
 51
205.03966
  0
ARC
  5
2A8
330
23
100
AcDbEntity
  8
2
100
AcDbCircle
 10
48.207018
 20
16.924518
 30
0.0
 40
7.678758999999999
100
AcDbArc
 50
346.202823
 51
25.03966
  0
LINE
  5
2A9
330
23
100
AcDbEntity
  8
2
100
AcDbLine
 10
47.385777
 20
16.998018
 30
0.0
 11
48.062277
 21
17.674518
 31
0.0
  0
LINE
  5
2AA
330
23
100
AcDbEntity
  8
2
100
AcDbLine
 10
48.062277
 20
17.674518
 30
0.0
 11
49.385777
 21
17.674518
 31
0.0
  0
LINE
  5
2AB
330
23
100
AcDbEntity
  8
2
 62
     2
100
AcDbLine
 10
47.385777
 20
16.998018
 30
0.0
 11
49.385777
 21
16.998018
 31
0.0
  0
LINE
  5
2AC
330
23
100
AcDbEntity
  8
2
100
AcDbLine
 10
47.385777
 20
10.351018
 30
0.0
 11
47.385777
 21
16.998018
 31
0.0
  0
LINE
  5
2AD
330
23
100
AcDbEntity
  8
2
100
AcDbLine
 10
47.385777
 20
10.351018
 30
0.0
 11
48.062277
 21
9.674517999999999
 31
0.0
  0
LINE
  5
2AE
330
23
100
AcDbEntity
  8
2
100
AcDbLine
 10
48.062277
 20
9.674517999999999
 30
0.0
 11
49.385777
 21
9.674517999999999
 31
0.0
  0
LINE
  5
2AF
330
23
100
AcDbEntity
  8
2
100
AcDbLine
 10
48.062277
 20
9.674517999999999
 30
0.0
 11
48.062277
 21
17.674518
 31
0.0
  0
LINE
  5
2B0
330
23
100
AcDbEntity
  8
2
 62
     2
100
AcDbLine
 10
47.385777
 20
10.351018
 30
0.0
 11
49.385777
 21
10.351018
 31
0.0
  0
LINE
  5
2B1
330
23
100
AcDbEntity
  8
2
100
AcDbLine
 10
132.84303
 20
75.174518
 30
0.0
 11
132.84303
 21
72.174518
 31
0.0
  0
LINE
  5
2B2
330
23
100
AcDbEntity
  8
2
100
AcDbLine
 10
127.186176
 20
75.174518
 30
0.0
 11
127.186176
 21
72.174518
 31
0.0
  0
LINE
  5
2B3
330
23
100
AcDbEntity
  8
2
100
AcDbLine
 10
124.706847
 20
75.174518
 30
0.0
 11
124.706847
 21
72.174518
 31
0.0
  0
LINE
  5
2B4
330
23
100
AcDbEntity
  8
2
100
AcDbLine
 10
124.706847
 20
75.174518
 30
0.0
 11
132.84303
 21
75.174518
 31
0.0
  0
LINE
  5
2B5
330
23
100
AcDbEntity
  8
2
100
AcDbLine
 10
-262.164223
 20
105.674518
 30
0.0
 11
-262.164223
 21
85.674518
 31
0.0
  0
LINE
  5
2B6
330
23
100
AcDbEntity
  8
2
100
AcDbLine
 10
-246.164223
 20
105.674518
 30
0.0
 11
-246.164223
 21
85.674518
 31
0.0
  0
LINE
  5
2B7
330
23
100
AcDbEntity
  8
2
100
AcDbLine
 10
91.385777
 20
105.674518
 30
0.0
 11
91.385777
 21
85.674518
 31
0.0
  0
LINE
  5
2B8
330
23
100
AcDbEntity
  8
2
100
AcDbLine
 10
107.385777
 20
105.674518
 30
0.0
 11
107.385777
 21
85.674518
 31
0.0
  0
LINE
  5
2B9
330
23
100
AcDbEntity
  8
2
100
AcDbLine
 10
89.38577700000001
 20
122.674518
 30
0.0
 11
109.385777
 21
122.674518
 31
0.0
  0
LINE
  5
2BA
330
23
100
AcDbEntity
  8
2
100
AcDbLine
 10
89.38577700000001
 20
120.674518
 30
0.0
 11
89.38577700000001
 21
122.674518
 31
0.0
  0
LINE
  5
2BB
330
23
100
AcDbEntity
  8
2
100
AcDbLine
 10
109.385777
 20
120.674518
 30
0.0
 11
109.385777
 21
122.674518
 31
0.0
  0
LINE
  5
2BC
330
23
100
AcDbEntity
  8
2
100
AcDbLine
 10
105.485777
 20
124.174518
 30
0.0
 11
93.285777
 21
124.174518
 31
0.0
  0
LINE
  5
2BD
330
23
100
AcDbEntity
  8
2
100
AcDbLine
 10
94.38577700000001
 20
124.174518
 30
0.0
 11
94.38577700000001
 21
128.174518
 31
0.0
  0
LINE
  5
2BE
330
23
100
AcDbEntity
  8
2
100
AcDbLine
 10
94.38577700000001
 20
128.174518
 30
0.0
 11
104.385777
 21
128.174518
 31
0.0
  0
ARC
  5
2BF
330
23
100
AcDbEntity
  8
2
100
AcDbCircle
 10
96.88577700000001
 20
121.56131
 30
0.0
 40
6.613208
100
AcDbArc
 50
67.78820500000001
 51
112.211795
  0
LINE
  5
2C0
330
23
100
AcDbEntity
  8
2
100
AcDbLine
 10
104.385777
 20
124.174518
 30
0.0
 11
104.385777
 21
128.174518
 31
0.0
  0
LINE
  5
2C1
330
23
100
AcDbEntity
  8
2
100
AcDbLine
 10
99.38577700000001
 20
124.174518
 30
0.0
 11
99.38577700000001
 21
127.68377
 31
0.0
  0
ARC
  5
2C2
330
23
100
AcDbEntity
  8
2
100
AcDbCircle
 10
101.885777
 20
121.56131
 30
0.0
 40
6.613208
100
AcDbArc
 50
67.78820500000001
 51
112.211795
  0
LINE
  5
2C3
330
23
100
AcDbEntity
  8
2
100
AcDbLine
 10
93.285777
 20
122.674518
 30
0.0
 11
93.285777
 21
124.174518
 31
0.0
  0
LINE
  5
2C4
330
23
100
AcDbEntity
  8
2
100
AcDbLine
 10
105.485777
 20
124.174518
 30
0.0
 11
105.485777
 21
122.674518
 31
0.0
  0
LINE
  5
2C5
330
23
100
AcDbEntity
  8
2
100
AcDbLine
 10
-264.164223
 20
122.674518
 30
0.0
 11
-244.164223
 21
122.674518
 31
0.0
  0
LINE
  5
2C6
330
23
100
AcDbEntity
  8
2
100
AcDbLine
 10
-264.164223
 20
120.674518
 30
0.0
 11
-264.164223
 21
122.674518
 31
0.0
  0
LINE
  5
2C7
330
23
100
AcDbEntity
  8
2
100
AcDbLine
 10
-244.164223
 20
120.674518
 30
0.0
 11
-244.164223
 21
122.674518
 31
0.0
  0
LINE
  5
2C8
330
23
100
AcDbEntity
  8
2
100
AcDbLine
 10
-259.914223
 20
124.174518
 30
0.0
 11
-259.914223
 21
127.68377
 31
0.0
  0
LINE
  5
2C9
330
23
100
AcDbEntity
  8
2
100
AcDbLine
 10
-259.914223
 20
127.68377
 30
0.0
 11
-259.064223
 21
128.174518
 31
0.0
  0
LINE
  5
2CA
330
23
100
AcDbEntity
  8
2
100
AcDbLine
 10
-259.064223
 20
128.174518
 30
0.0
 11
-249.264223
 21
128.174518
 31
0.0
  0
LINE
  5
2CB
330
23
100
AcDbEntity
  8
2
100
AcDbLine
 10
-257.039223
 20
124.174518
 30
0.0
 11
-257.039223
 21
127.68377
 31
0.0
  0
ARC
  5
2CC
330
23
100
AcDbEntity
  8
2
100
AcDbCircle
 10
-258.476723
 20
125.835815
 30
0.0
 40
2.341226999999999
100
AcDbArc
 50
52.121121
 51
127.878879
  0
LINE
  5
2CD
330
23
100
AcDbEntity
  8
2
100
AcDbLine
 10
-248.414223
 20
124.174518
 30
0.0
 11
-248.414223
 21
127.68377
 31
0.0
  0
LINE
  5
2CE
330
23
100
AcDbEntity
  8
2
100
AcDbLine
 10
-248.414223
 20
127.68377
 30
0.0
 11
-249.264223
 21
128.174518
 31
0.0
  0
LINE
  5
2CF
330
23
100
AcDbEntity
  8
2
100
AcDbLine
 10
-251.289223
 20
124.174518
 30
0.0
 11
-251.289223
 21
127.68377
 31
0.0
  0
ARC
  5
2D0
330
23
100
AcDbEntity
  8
2
100
AcDbCircle
 10
-249.851723
 20
125.835815
 30
0.0
 40
2.341226999999999
100
AcDbArc
 50
52.121121
 51
127.878879
  0
ARC
  5
2D1
330
23
100
AcDbEntity
  8
2
100
AcDbCircle
 10
-254.164223
 20
119.552042
 30
0.0
 40
8.625
100
AcDbArc
 50
70.528779
 51
109.471221
  0
LINE
  5
2D2
330
23
100
AcDbEntity
  8
2
100
AcDbLine
 10
-260.264223
 20
122.674518
 30
0.0
 11
-260.264223
 21
124.174518
 31
0.0
  0
LINE
  5
2D3
330
23
100
AcDbEntity
  8
2
100
AcDbLine
 10
-260.264223
 20
124.174518
 30
0.0
 11
-248.064223
 21
124.174518
 31
0.0
  0
LINE
  5
2D4
330
23
100
AcDbEntity
  8
2
100
AcDbLine
 10
-248.064223
 20
124.174518
 30
0.0
 11
-248.064223
 21
122.674518
 31
0.0
  0
LINE
  5
2D5
330
23
100
AcDbEntity
  8
2
100
AcDbLine
 10
-254.164223
 20
124.174518
 30
0.0
 11
-253.664223
 21
122.674518
 31
0.0
  0
LINE
  5
2D6
330
23
100
AcDbEntity
  8
2
100
AcDbLine
 10
-254.164223
 20
122.674518
 30
0.0
 11
-254.664223
 21
124.174518
 31
0.0
  0
LINE
  5
2D7
330
23
100
AcDbEntity
  8
2
100
AcDbLine
 10
-281.664223
 20
323.824518
 30
0.0
 11
-226.664223
 21
323.824518
 31
0.0
  0
LINE
  5
2D8
330
23
100
AcDbEntity
  8
2
100
AcDbLine
 10
-305.164223
 20
300.324518
 30
0.0
 11
-305.164223
 21
245.324518
 31
0.0
  0
LINE
  5
2D9
330
23
100
AcDbEntity
  8
2
100
AcDbLine
 10
-203.164223
 20
300.324518
 30
0.0
 11
-203.164223
 21
245.324518
 31
0.0
  0
ARC
  5
2DA
330
23
100
AcDbEntity
  8
2
100
AcDbCircle
 10
-281.664223
 20
245.324518
 30
0.0
 40
23.5
100
AcDbArc
 50
180.0
 51
270.0
  0
ARC
  5
2DB
330
23
100
AcDbEntity
  8
2
100
AcDbCircle
 10
-226.664223
 20
245.324518
 30
0.0
 40
23.5
100
AcDbArc
 50
270.0
 51
360.0
  0
ARC
  5
2DC
330
23
100
AcDbEntity
  8
2
100
AcDbCircle
 10
-226.664223
 20
300.324518
 30
0.0
 40
23.5
100
AcDbArc
 50
0.0
 51
90.0
  0
ARC
  5
2DD
330
23
100
AcDbEntity
  8
2
100
AcDbCircle
 10
-281.664223
 20
300.324518
 30
0.0
 40
23.5
100
AcDbArc
 50
90.0
 51
180.0
  0
LINE
  5
2DE
330
23
100
AcDbEntity
  8
2
100
AcDbLine
 10
-297.297737
 20
243.83314
 30
0.0
 11
-295.876307
 21
245.254569
 31
0.0
  0
LINE
  5
2DF
330
23
100
AcDbEntity
  8
2
100
AcDbLine
 10
-226.594275
 20
314.536602
 30
0.0
 11
-225.172845
 21
315.958031
 31
0.0
  0
LINE
  5
2E0
330
23
100
AcDbEntity
  8
2
100
AcDbLine
 10
-297.297737
 20
301.815896
 30
0.0
 11
-295.876307
 21
300.394466
 31
0.0
  0
LINE
  5
2E1
330
23
100
AcDbEntity
  8
2
100
AcDbLine
 10
-283.155601
 20
315.958031
 30
0.0
 11
-281.734172
 21
314.536602
 31
0.0
  0
LINE
  5
2E2
330
23
100
AcDbEntity
  8
2
100
AcDbLine
 10
-212.452139
 20
245.254569
 30
0.0
 11
-211.03071
 21
243.83314
 31
0.0
  0
LINE
  5
2E3
330
23
100
AcDbEntity
  8
2
100
AcDbLine
 10
-212.452139
 20
300.394466
 30
0.0
 11
-211.03071
 21
301.815896
 31
0.0
  0
ARC
  5
2E4
330
23
100
AcDbEntity
  8
2
100
AcDbCircle
 10
-218.101777
 20
308.886963
 30
0.0
 40
10.0
100
AcDbArc
 50
315.0
 51
135.0
  0
ARC
  5
2E5
330
23
100
AcDbEntity
  8
2
100
AcDbCircle
 10
-218.101777
 20
236.762072
 30
0.0
 40
10.0
100
AcDbArc
 50
238.13213
 51
45.0
  0
ARC
  5
2E6
330
23
100
AcDbEntity
  8
2
100
AcDbCircle
 10
-290.226669
 20
236.762072
 30
0.0
 40
10.0
100
AcDbArc
 50
135.0
 51
301.8678700000001
  0
ARC
  5
2E7
330
23
100
AcDbEntity
  8
2
100
AcDbCircle
 10
-290.226669
 20
308.886963
 30
0.0
 40
10.0
100
AcDbArc
 50
45.0
 51
225.0
  0
LINE
  5
2E8
330
23
100
AcDbEntity
  8
2
100
AcDbLine
 10
-229.664223
 20
228.60283
 30
0.0
 11
-229.664223
 21
223.546205
 31
0.0
  0
LINE
  5
2E9
330
23
100
AcDbEntity
  8
2
100
AcDbLine
 10
-229.664223
 20
223.546205
 30
0.0
 11
-230.914223
 21
222.824518
 31
0.0
  0
LINE
  5
2EA
330
23
100
AcDbEntity
  8
2
100
AcDbLine
 10
-233.414223
 20
227.333447
 30
0.0
 11
-233.414223
 21
223.546205
 31
0.0
  0
ARC
  5
2EB
330
23
100
AcDbEntity
  8
2
100
AcDbCircle
 10
-231.539223
 20
225.956582
 30
0.0
 40
3.053774
100
AcDbArc
 50
232.121121
 51
307.878879
  0
ARC
  5
2EC
330
23
100
AcDbEntity
  8
2
100
AcDbCircle
 10
-237.164223
 20
234.152807
 30
0.0
 40
11.25
100
AcDbArc
 50
250.528777
 51
289.471219
  0
LINE
  5
2ED
330
23
100
AcDbEntity
  8
2
100
AcDbLine
 10
-244.664223
 20
223.735313
 30
0.0
 11
-244.664223
 21
223.546205
 31
0.0
  0
LINE
  5
2EE
330
23
100
AcDbEntity
  8
2
100
AcDbLine
 10
-244.664223
 20
223.546205
 30
0.0
 11
-243.414223
 21
222.824518
 31
0.0
  0
LINE
  5
2EF
330
23
100
AcDbEntity
  8
2
100
AcDbLine
 10
-243.414223
 20
222.824518
 30
0.0
 11
-230.914223
 21
222.824518
 31
0.0
  0
LINE
  5
2F0
330
23
100
AcDbEntity
  8
2
100
AcDbLine
 10
-240.914223
 20
224.612097
 30
0.0
 11
-240.914223
 21
223.546205
 31
0.0
  0
ARC
  5
2F1
330
23
100
AcDbEntity
  8
2
100
AcDbCircle
 10
-242.789223
 20
225.956582
 30
0.0
 40
3.053774
100
AcDbArc
 50
232.121121
 51
307.878879
  0
LINE
  5
2F2
330
23
100
AcDbEntity
  8
2
100
AcDbLine
 10
-229.664223
 20
228.60283
 30
0.0
 11
-230.226157
 21
228.927263
 31
0.0
  0
ARC
  5
2F3
330
23
100
AcDbEntity
  8
2
100
AcDbCircle
 10
-231.539223
 20
226.192454
 30
0.0
 40
3.053774
100
AcDbArc
 50
52.121121
 51
64.082347
  0
LINE
  5
2F4
330
23
100
AcDbEntity
  8
2
  6
CENTER
 62
     2
100
AcDbLine
 10
-232.664223
 20
281.578854
 30
0.0
 11
-232.664223
 21
264.538854
 31
0.0
  0
LINE
  5
2F5
330
23
100
AcDbEntity
  8
2
100
AcDbLine
 10
-234.664223
 20
273.979218
 30
0.0
 11
-234.664223
 21
271.669817
 31
0.0
  0
LINE
  5
2F6
330
23
100
AcDbEntity
  8
2
100
AcDbLine
 10
-230.664223
 20
273.979218
 30
0.0
 11
-230.664223
 21
271.669817
 31
0.0
  0
LINE
  5
2F7
330
23
100
AcDbEntity
  8
2
100
AcDbLine
 10
-232.664223
 20
275.133919
 30
0.0
 11
-230.664223
 21
273.979218
 31
0.0
  0
LINE
  5
2F8
330
23
100
AcDbEntity
  8
2
100
AcDbLine
 10
-234.664223
 20
271.669817
 30
0.0
 11
-232.664223
 21
270.515117
 31
0.0
  0
LINE
  5
2F9
330
23
100
AcDbEntity
  8
2
100
AcDbLine
 10
-232.664223
 20
270.515117
 30
0.0
 11
-230.664223
 21
271.669817
 31
0.0
  0
LINE
  5
2FA
330
23
100
AcDbEntity
  8
2
100
AcDbLine
 10
-234.664223
 20
273.979218
 30
0.0
 11
-232.664223
 21
275.133919
 31
0.0
  0
LINE
  5
2FB
330
23
100
AcDbEntity
  8
2
  6
CENTER
 62
     2
100
AcDbLine
 10
-275.664223
 20
281.578854
 30
0.0
 11
-275.664223
 21
264.538854
 31
0.0
  0
LINE
  5
2FC
330
23
100
AcDbEntity
  8
2
100
AcDbLine
 10
-273.664223
 20
273.979218
 30
0.0
 11
-273.664223
 21
271.669817
 31
0.0
  0
LINE
  5
2FD
330
23
100
AcDbEntity
  8
2
100
AcDbLine
 10
-277.664223
 20
273.979218
 30
0.0
 11
-277.664223
 21
271.669817
 31
0.0
  0
LINE
  5
2FE
330
23
100
AcDbEntity
  8
2
100
AcDbLine
 10
-275.664223
 20
275.133919
 30
0.0
 11
-277.664223
 21
273.979218
 31
0.0
  0
LINE
  5
2FF
330
23
100
AcDbEntity
  8
2
100
AcDbLine
 10
-273.664223
 20
271.669817
 30
0.0
 11
-275.664223
 21
270.515117
 31
0.0
  0
LINE
  5
300
330
23
100
AcDbEntity
  8
2
100
AcDbLine
 10
-275.664223
 20
270.515117
 30
0.0
 11
-277.664223
 21
271.669817
 31
0.0
  0
LINE
  5
301
330
23
100
AcDbEntity
  8
2
100
AcDbLine
 10
-273.664223
 20
273.979218
 30
0.0
 11
-275.664223
 21
275.133919
 31
0.0
  0
LINE
  5
302
330
23
100
AcDbEntity
  8
2
100
AcDbLine
 10
-281.164223
 20
230.741267
 30
0.0
 11
-281.164223
 21
229.324518
 31
0.0
  0
LINE
  5
303
330
23
100
AcDbEntity
  8
2
100
AcDbLine
 10
-227.164223
 20
230.741267
 30
0.0
 11
-227.164223
 21
229.324518
 31
0.0
  0
ARC
  5
304
330
23
100
AcDbEntity
  8
2
100
AcDbCircle
 10
-227.077134
 20
222.324518
 30
0.0
 40
7.0
100
AcDbArc
 50
58.13213000000001
 51
90.0
  0
ARC
  5
305
330
23
100
AcDbEntity
  8
2
100
AcDbCircle
 10
-281.251312
 20
222.324518
 30
0.0
 40
7.0
100
AcDbArc
 50
90.0
 51
121.86787
  0
TEXT
  5
306
330
23
100
AcDbEntity
  8
2
100
AcDbText
 10
-271.664223
 20
244.824518
 30
0.0
 40
7.0
  1
ＴＯＭＯＥ
 41
0.867469879518072
 72
     5
 11
-238.064223
 21
244.824518
 31
0.0
100
AcDbText
  0
TEXT
  5
307
330
23
100
AcDbEntity
  8
2
100
AcDbText
 10
-274.3167660000001
 20
285.905993
 30
0.0
 40
10.0
  1
Ｏ
 50
45.0
 41
0.9230768823651352
 72
     5
 11
-268.659912
 21
291.5628470000001
 31
0.0
100
AcDbText
  0
TEXT
  5
308
330
23
100
AcDbEntity
  8
2
100
AcDbText
 10
-241.082748
 20
292.977061
 30
0.0
 40
10.0
  1
Ｓ
 50
315.0000050642789
 41
1.000000044283912
 72
     5
 11
-235.425893
 21
287.320207
 31
0.0
100
AcDbText
  0
LINE
  5
309
330
23
100
AcDbEntity
  8
2
100
AcDbLine
 10
-268.790422
 20
293.712895
 30
0.0
 11
-273.379034
 21
300.266111
 31
0.0
  0
LINE
  5
30A
330
23
100
AcDbEntity
  8
2
100
AcDbLine
 10
-238.104083
 20
295.760775
 30
0.0
 11
-236.383354
 21
298.218231
 31
0.0
  0
LINE
  5
30B
330
23
100
AcDbEntity
  8
2
  6
CENTER
 62
     2
100
AcDbLine
 10
-237.164223
 20
215.884877
 30
0.0
 11
-237.164223
 21
235.15204
 31
0.0
  0
LINE
  5
30C
330
23
100
AcDbEntity
  8
2
  6
CENTER
 62
     2
100
AcDbLine
 10
-271.164223
 20
215.884877
 30
0.0
 11
-271.164223
 21
235.15204
 31
0.0
  0
LINE
  5
30D
330
23
100
AcDbEntity
  8
2
100
AcDbLine
 10
-263.664223
 20
223.735313
 30
0.0
 11
-263.664223
 21
223.546205
 31
0.0
  0
LINE
  5
30E
330
23
100
AcDbEntity
  8
2
100
AcDbLine
 10
-263.664223
 20
223.546205
 30
0.0
 11
-264.914223
 21
222.824518
 31
0.0
  0
LINE
  5
30F
330
23
100
AcDbEntity
  8
2
100
AcDbLine
 10
-267.414223
 20
224.612097
 30
0.0
 11
-267.414223
 21
223.546205
 31
0.0
  0
ARC
  5
310
330
23
100
AcDbEntity
  8
2
100
AcDbCircle
 10
-265.539223
 20
225.956582
 30
0.0
 40
3.053774
100
AcDbArc
 50
232.121121
 51
307.878879
  0
ARC
  5
311
330
23
100
AcDbEntity
  8
2
100
AcDbCircle
 10
-271.164223
 20
234.152807
 30
0.0
 40
11.25
100
AcDbArc
 50
250.528777
 51
289.471219
  0
LINE
  5
312
330
23
100
AcDbEntity
  8
2
100
AcDbLine
 10
-278.664223
 20
228.60283
 30
0.0
 11
-278.664223
 21
223.546205
 31
0.0
  0
LINE
  5
313
330
23
100
AcDbEntity
  8
2
100
AcDbLine
 10
-278.664223
 20
223.546205
 30
0.0
 11
-277.414223
 21
222.824518
 31
0.0
  0
LINE
  5
314
330
23
100
AcDbEntity
  8
2
100
AcDbLine
 10
-277.414223
 20
222.824518
 30
0.0
 11
-264.914223
 21
222.824518
 31
0.0
  0
LINE
  5
315
330
23
100
AcDbEntity
  8
2
100
AcDbLine
 10
-274.914223
 20
227.333447
 30
0.0
 11
-274.914223
 21
223.546205
 31
0.0
  0
ARC
  5
316
330
23
100
AcDbEntity
  8
2
100
AcDbCircle
 10
-276.789223
 20
225.956582
 30
0.0
 40
3.053774
100
AcDbArc
 50
232.121121
 51
307.878879
  0
LINE
  5
317
330
23
100
AcDbEntity
  8
2
100
AcDbLine
 10
-278.664223
 20
228.60283
 30
0.0
 11
-278.102289
 21
228.927263
 31
0.0
  0
ARC
  5
318
330
23
100
AcDbEntity
  8
2
100
AcDbCircle
 10
-276.789223
 20
226.192454
 30
0.0
 40
3.053774
100
AcDbArc
 50
115.917653
 51
127.878879
  0
LINE
  5
319
330
23
100
AcDbEntity
  8
2
100
AcDbLine
 10
-233.164223
 20
221.824518
 30
0.0
 11
-226.664223
 21
221.824518
 31
0.0
  0
LINE
  5
31A
330
23
100
AcDbEntity
  8
2
100
AcDbLine
 10
-281.664223
 20
221.824518
 30
0.0
 11
-275.164223
 21
221.824518
 31
0.0
  0
LINE
  5
31B
330
23
100
AcDbEntity
  8
2
100
AcDbLine
 10
-267.164223
 20
221.824518
 30
0.0
 11
-241.164223
 21
221.824518
 31
0.0
  0
LINE
  5
31C
330
23
100
AcDbEntity
  8
2
100
AcDbLine
 10
-240.487723
 20
220.824518
 30
0.0
 11
-241.164223
 21
221.501018
 31
0.0
  0
LINE
  5
31D
330
23
100
AcDbEntity
  8
2
100
AcDbLine
 10
-241.164223
 20
221.501018
 30
0.0
 11
-241.164223
 21
222.824518
 31
0.0
  0
LINE
  5
31E
330
23
100
AcDbEntity
  8
2
 62
     2
100
AcDbLine
 10
-240.487723
 20
220.824518
 30
0.0
 11
-240.487723
 21
222.824518
 31
0.0
  0
LINE
  5
31F
330
23
100
AcDbEntity
  8
2
100
AcDbLine
 10
-233.840723
 20
220.824518
 30
0.0
 11
-240.487723
 21
220.824518
 31
0.0
  0
LINE
  5
320
330
23
100
AcDbEntity
  8
2
100
AcDbLine
 10
-233.840723
 20
220.824518
 30
0.0
 11
-233.164223
 21
221.501018
 31
0.0
  0
LINE
  5
321
330
23
100
AcDbEntity
  8
2
100
AcDbLine
 10
-233.164223
 20
221.501018
 30
0.0
 11
-233.164223
 21
222.824518
 31
0.0
  0
LINE
  5
322
330
23
100
AcDbEntity
  8
2
100
AcDbLine
 10
-233.164223
 20
221.501018
 30
0.0
 11
-241.164223
 21
221.501018
 31
0.0
  0
LINE
  5
323
330
23
100
AcDbEntity
  8
2
 62
     2
100
AcDbLine
 10
-233.840723
 20
220.824518
 30
0.0
 11
-233.840723
 21
222.824518
 31
0.0
  0
LINE
  5
324
330
23
100
AcDbEntity
  8
2
100
AcDbLine
 10
-274.487723
 20
220.824518
 30
0.0
 11
-275.164223
 21
221.501018
 31
0.0
  0
LINE
  5
325
330
23
100
AcDbEntity
  8
2
100
AcDbLine
 10
-275.164223
 20
221.501018
 30
0.0
 11
-275.164223
 21
222.824518
 31
0.0
  0
LINE
  5
326
330
23
100
AcDbEntity
  8
2
 62
     2
100
AcDbLine
 10
-274.487723
 20
220.824518
 30
0.0
 11
-274.487723
 21
222.824518
 31
0.0
  0
LINE
  5
327
330
23
100
AcDbEntity
  8
2
100
AcDbLine
 10
-267.840723
 20
220.824518
 30
0.0
 11
-274.487723
 21
220.824518
 31
0.0
  0
LINE
  5
328
330
23
100
AcDbEntity
  8
2
100
AcDbLine
 10
-267.840723
 20
220.824518
 30
0.0
 11
-267.164223
 21
221.501018
 31
0.0
  0
LINE
  5
329
330
23
100
AcDbEntity
  8
2
100
AcDbLine
 10
-267.164223
 20
221.501018
 30
0.0
 11
-267.164223
 21
222.824518
 31
0.0
  0
LINE
  5
32A
330
23
100
AcDbEntity
  8
2
100
AcDbLine
 10
-267.164223
 20
221.501018
 30
0.0
 11
-275.164223
 21
221.501018
 31
0.0
  0
LINE
  5
32B
330
23
100
AcDbEntity
  8
2
 62
     2
100
AcDbLine
 10
-267.840723
 20
220.824518
 30
0.0
 11
-267.840723
 21
222.824518
 31
0.0
  0
ARC
  5
32C
330
23
100
AcDbEntity
  8
2
100
AcDbCircle
 10
-256.25494
 20
274.424954
 30
0.0
 40
31.0
100
AcDbArc
 50
50.13215999999999
 51
70.96985699999999
  0
ARC
  5
32D
330
23
100
AcDbEntity
  8
2
100
AcDbCircle
 10
-256.25494
 20
274.424954
 30
0.0
 40
31.0
100
AcDbArc
 50
102.292131
 51
123.53114
  0
ARC
  5
32E
330
23
100
AcDbEntity
  8
2
100
AcDbCircle
 10
-252.051228
 20
273.818187
 30
0.0
 40
26.0
100
AcDbArc
 50
57.559148
 51
77.23958299999999
  0
ARC
  5
32F
330
23
100
AcDbEntity
  8
2
100
AcDbCircle
 10
-252.051228
 20
273.818187
 30
0.0
 40
26.0
100
AcDbArc
 50
112.721724
 51
130.076898
  0
LINE
  5
330
330
23
100
AcDbEntity
  8
2
100
AcDbLine
 10
-281.251312
 20
229.324518
 30
0.0
 11
-278.816809
 21
229.324518
 31
0.0
  0
LINE
  5
331
330
23
100
AcDbEntity
  8
2
100
AcDbLine
 10
-229.511637
 20
229.324518
 30
0.0
 11
-227.077134
 21
229.324518
 31
0.0
  0
ARC
  5
332
330
23
100
AcDbEntity
  8
2
100
AcDbCircle
 10
-232.664223
 20
272.824518
 30
0.0
 40
5.0
100
AcDbArc
 50
297.319072
 51
176.718933
  0
ARC
  5
333
330
23
100
AcDbEntity
  8
2
100
AcDbCircle
 10
-232.664223
 20
272.824518
 30
0.0
 40
4.25
100
AcDbArc
 50
291.364842
 51
182.673163
  0
ARC
  5
334
330
23
100
AcDbEntity
  8
2
100
AcDbCircle
 10
-232.664223
 20
272.824518
 30
0.0
 40
3.730385
100
AcDbArc
 50
285.406927
 51
188.631078
  0
ARC
  5
335
330
23
100
AcDbEntity
  8
2
100
AcDbCircle
 10
-275.664223
 20
272.824518
 30
0.0
 40
5.0
100
AcDbArc
 50
3.281066999999999
 51
242.680928
  0
ARC
  5
336
330
23
100
AcDbEntity
  8
2
100
AcDbCircle
 10
-275.664223
 20
272.824518
 30
0.0
 40
4.25
100
AcDbArc
 50
357.326837
 51
248.635158
  0
ARC
  5
337
330
23
100
AcDbEntity
  8
2
100
AcDbCircle
 10
-275.664223
 20
272.824518
 30
0.0
 40
3.730385
100
AcDbArc
 50
351.368922
 51
254.593073
  0
LINE
  5
338
330
23
100
AcDbEntity
  8
2
100
AcDbLine
 10
-296.664223
 20
120.674518
 30
0.0
 11
-211.664223
 21
120.674518
 31
0.0
  0
ARC
  5
339
330
23
100
AcDbEntity
  8
2
100
AcDbCircle
 10
-296.664223
 20
113.174518
 30
0.0
 40
7.5
100
AcDbArc
 50
90.0
 51
270.0
  0
LINE
  5
33A
330
23
100
AcDbEntity
  8
2
100
AcDbLine
 10
-242.164223
 20
105.674518
 30
0.0
 11
-266.164223
 21
105.674518
 31
0.0
  0
ARC
  5
33B
330
23
100
AcDbEntity
  8
2
100
AcDbCircle
 10
-253.101723
 20
113.174518
 30
0.0
 40
15.0625
100
AcDbArc
 50
203.47446
 51
209.862834
  0
ARC
  5
33C
330
23
100
AcDbEntity
  8
2
100
AcDbCircle
 10
-255.226723
 20
113.174518
 30
0.0
 40
15.0625
100
AcDbArc
 50
330.137166
 51
336.544162
  0
LINE
  5
33D
330
23
100
AcDbEntity
  8
2
100
AcDbLine
 10
-250.964339
 20
113.174518
 30
0.0
 11
-257.364107
 21
113.174518
 31
0.0
  0
LINE
  5
33E
330
23
100
AcDbEntity
  8
2
100
AcDbLine
 10
-252.513876
 20
107.174518
 30
0.0
 11
-255.814571
 21
107.174518
 31
0.0
  0
LINE
  5
33F
330
23
100
AcDbEntity
  8
2
100
AcDbLine
 10
-266.512361
 20
113.174518
 30
0.0
 11
-272.383036
 21
113.174518
 31
0.0
  0
LINE
  5
340
330
23
100
AcDbEntity
  8
2
100
AcDbLine
 10
-265.755161
 20
107.174518
 30
0.0
 11
-271.683948
 21
107.174518
 31
0.0
  0
ARC
  5
341
330
23
100
AcDbEntity
  8
2
100
AcDbCircle
 10
-205.139037
 20
112.866834
 30
0.0
 40
54.25248199999999
100
AcDbArc
 50
181.85598
 51
187.294014
  0
ARC
  5
342
330
23
100
AcDbEntity
  8
2
100
AcDbCircle
 10
-303.189409
 20
112.866834
 30
0.0
 40
54.25248199999999
100
AcDbArc
 50
352.705986
 51
358.14402
  0
ARC
  5
343
330
23
100
AcDbEntity
  8
2
100
AcDbCircle
 10
-257.364107
 20
111.174518
 30
0.0
 40
2.0
100
AcDbArc
 50
90.0
 51
181.85598
  0
ARC
  5
344
330
23
100
AcDbEntity
  8
2
100
AcDbCircle
 10
-250.964339
 20
111.174518
 30
0.0
 40
2.0
100
AcDbArc
 50
358.14402
 51
90.0
  0
ARC
  5
345
330
23
100
AcDbEntity
  8
2
100
AcDbCircle
 10
-255.814571
 20
104.174518
 30
0.0
 40
3.0
100
AcDbArc
 50
90.0
 51
146.491844
  0
ARC
  5
346
330
23
100
AcDbEntity
  8
2
100
AcDbCircle
 10
-258.606683
 20
106.023148
 30
0.0
 40
0.34863
100
AcDbArc
 50
187.294014
 51
326.491844
  0
ARC
  5
347
330
23
100
AcDbEntity
  8
2
100
AcDbCircle
 10
-252.513876
 20
104.174518
 30
0.0
 40
3.0
100
AcDbArc
 50
33.508156
 51
90.0
  0
ARC
  5
348
330
23
100
AcDbEntity
  8
2
100
AcDbCircle
 10
-249.721763
 20
106.023148
 30
0.0
 40
0.34863
100
AcDbArc
 50
213.508156
 51
352.705986
  0
ARC
  5
349
330
23
100
AcDbEntity
  8
2
100
AcDbCircle
 10
-259.856246
 20
112.914899
 30
0.0
 40
14.64711
100
AcDbArc
 50
187.909628
 51
204.857013
  0
ARC
  5
34A
330
23
100
AcDbEntity
  8
2
100
AcDbCircle
 10
-236.997269
 20
112.876882
 30
0.0
 40
27.564145
100
AcDbArc
 50
183.301036
 51
193.87463
  0
ARC
  5
34B
330
23
100
AcDbEntity
  8
2
100
AcDbCircle
 10
-266.512361
 20
111.174518
 30
0.0
 40
2.0
100
AcDbArc
 50
3.301035999999999
 51
90.0
  0
ARC
  5
34C
330
23
100
AcDbEntity
  8
2
100
AcDbCircle
 10
-272.383036
 20
111.174518
 30
0.0
 40
2.0
100
AcDbArc
 50
90.0
 51
187.909628
  0
ARC
  5
34D
330
23
100
AcDbEntity
  8
2
100
AcDbCircle
 10
-271.450531
 20
107.543581
 30
0.0
 40
1.869063
100
AcDbArc
 50
204.857013
 51
316.21672
  0
ARC
  5
34E
330
23
100
AcDbEntity
  8
2
100
AcDbCircle
 10
-263.00047
 20
106.453958
 30
0.0
 40
0.779441
100
AcDbArc
 50
193.87463
 51
270.0
  0
ARC
  5
34F
330
23
100
AcDbEntity
  8
2
100
AcDbCircle
 10
-267.935251
 20
104.174518
 30
0.0
 40
3.0
100
AcDbArc
 50
90.0
 51
136.21672
  0
ARC
  5
350
330
23
100
AcDbEntity
  8
2
100
AcDbCircle
 10
-265.755161
 20
104.674518
 30
0.0
 40
2.5
100
AcDbArc
 50
32.861145
 51
90.0
  0
ARC
  5
351
330
23
100
AcDbEntity
  8
2
100
AcDbCircle
 10
-277.938549
 20
113.002718
 30
0.0
 40
9.683728999999999
100
AcDbArc
 50
193.764481
 51
216.405649
  0
LINE
  5
352
330
23
100
AcDbEntity
  8
2
100
AcDbLine
 10
-281.05634
 20
113.174518
 30
0.0
 11
-285.401616
 21
113.174518
 31
0.0
  0
ARC
  5
353
330
23
100
AcDbEntity
  8
2
100
AcDbCircle
 10
-266.938277
 20
112.941206
 30
0.0
 40
12.228172
100
AcDbArc
 50
187.132729
 51
209.31396
  0
ARC
  5
354
330
23
100
AcDbEntity
  8
2
100
AcDbCircle
 10
-285.401616
 20
111.174518
 30
0.0
 40
2.0
100
AcDbArc
 50
90.0
 51
193.764481
  0
ARC
  5
355
330
23
100
AcDbEntity
  8
2
100
AcDbCircle
 10
-281.05634
 20
111.174518
 30
0.0
 40
2.0
100
AcDbArc
 50
7.132728999999999
 51
90.0
  0
LINE
  5
356
330
23
100
AcDbEntity
  8
2
100
AcDbLine
 10
-277.721296
 20
107.174518
 30
0.0
 11
-283.68359
 21
107.174518
 31
0.0
  0
ARC
  5
357
330
23
100
AcDbEntity
  8
2
100
AcDbCircle
 10
-282.602274
 20
109.563613
 30
0.0
 40
3.889095999999999
100
AcDbArc
 50
216.405649
 51
308.53161
  0
ARC
  5
358
330
23
100
AcDbEntity
  8
2
100
AcDbCircle
 10
-275.414223
 20
108.182011
 30
0.0
 40
2.507493
100
AcDbArc
 50
209.31396
 51
270.0
  0
ARC
  5
359
330
23
100
AcDbEntity
  8
2
100
AcDbCircle
 10
-278.310737
 20
104.174518
 30
0.0
 40
3.0
100
AcDbArc
 50
90.0
 51
128.53161
  0
LINE
  5
35A
330
23
100
AcDbEntity
  8
2
100
AcDbLine
 10
-271.450531
 20
105.674518
 30
0.0
 11
-275.414223
 21
105.674518
 31
0.0
  0
ARC
  5
35B
330
23
100
AcDbEntity
  8
2
100
AcDbCircle
 10
-289.339106
 20
113.096747
 30
0.0
 40
8.126758999999999
100
AcDbArc
 50
192.393185
 51
223.280016
  0
ARC
  5
35C
330
23
100
AcDbEntity
  8
2
100
AcDbCircle
 10
-282.343442
 20
113.035235
 30
0.0
 40
8.979103
100
AcDbArc
 50
187.460956
 51
219.149456
  0
LINE
  5
35D
330
23
100
AcDbEntity
  8
2
100
AcDbLine
 10
-292.733824
 20
113.174517
 30
0.0
 11
-295.811448
 21
113.174517
 31
0.0
  0
LINE
  5
35E
330
23
100
AcDbEntity
  8
2
100
AcDbLine
 10
-300.79083
 20
113.174517
 30
0.0
 11
-301.997303
 21
113.174505
 31
0.0
  0
LINE
  5
35F
330
23
100
AcDbEntity
  8
2
100
AcDbLine
 10
-289.141604
 20
107.174518
 30
0.0
 11
-292.312511
 21
107.174518
 31
0.0
  0
ARC
  5
360
330
23
100
AcDbEntity
  8
2
100
AcDbCircle
 10
-290.970303
 20
111.560659
 30
0.0
 40
5.886141
100
AcDbArc
 50
223.280016
 51
298.241155
  0
ARC
  5
361
330
23
100
AcDbEntity
  8
2
100
AcDbCircle
 10
-285.747878
 20
110.263641
 30
0.0
 40
4.589123999999999
100
AcDbArc
 50
219.149456
 51
270.0
  0
LINE
  5
362
330
23
100
AcDbEntity
  8
2
100
AcDbLine
 10
-282.602274
 20
105.674518
 30
0.0
 11
-285.747878
 21
105.674518
 31
0.0
  0
ARC
  5
363
330
23
100
AcDbEntity
  8
2
100
AcDbCircle
 10
-295.485778
 20
113.16107
 30
0.0
 40
7.585836999999999
100
AcDbArc
 50
188.615288
 51
226.635861
  0
ARC
  5
364
330
23
100
AcDbEntity
  8
2
100
AcDbCircle
 10
-291.9666279999999
 20
113.123054
 30
0.0
 40
7.875035999999999
100
AcDbArc
 50
186.135312
 51
224.747415
  0
ARC
  5
365
330
23
100
AcDbEntity
  8
2
100
AcDbCircle
 10
-292.733824
 20
111.674518
 30
0.0
 40
1.5
100
AcDbArc
 50
7.460955999999998
 51
90.0
  0
ARC
  5
366
330
23
100
AcDbEntity
  8
2
100
AcDbCircle
 10
-295.811448
 20
111.674517
 30
0.0
 40
1.5
100
AcDbArc
 50
90.0
 51
192.393185
  0
ARC
  5
367
330
23
100
AcDbEntity
  8
2
100
AcDbCircle
 10
-300.79083
 20
112.174518
 30
0.0
 40
1.0
100
AcDbArc
 50
6.135311999999999
 51
90.0
  0
ARC
  5
368
330
23
100
AcDbEntity
  8
2
100
AcDbCircle
 10
-301.997303
 20
112.174517
 30
0.0
 40
1.0
100
AcDbArc
 50
90.0
 51
188.615288
  0
ARC
  5
369
330
23
100
AcDbEntity
  8
2
100
AcDbCircle
 10
-295.735496
 20
112.896669
 30
0.0
 40
7.222152
100
AcDbArc
 50
226.635861
 51
281.281293
  0
ARC
  5
36A
330
23
100
AcDbEntity
  8
2
100
AcDbCircle
 10
-292.9899049999999
 20
112.108759
 30
0.0
 40
6.434241
100
AcDbArc
 50
224.747415
 51
270.0
  0
LINE
  5
36B
330
23
100
AcDbEntity
  8
2
100
AcDbLine
 10
-290.970303
 20
105.674518
 30
0.0
 11
-292.9899049999999
 21
105.674518
 31
0.0
  0
LINE
  5
36C
330
23
100
AcDbEntity
  8
2
100
AcDbLine
 10
-295.735496
 20
105.674518
 30
0.0
 11
-296.664223
 21
105.674518
 31
0.0
  0
ARC
  5
36D
330
23
100
AcDbEntity
  8
2
100
AcDbCircle
 10
-211.664223
 20
113.174518
 30
0.0
 40
7.5
100
AcDbArc
 50
270.0
 51
90.0
  0
LINE
  5
36E
330
23
100
AcDbEntity
  8
2
100
AcDbLine
 10
-241.816085
 20
113.174518
 30
0.0
 11
-235.94541
 21
113.174518
 31
0.0
  0
LINE
  5
36F
330
23
100
AcDbEntity
  8
2
100
AcDbLine
 10
-242.573285
 20
107.174518
 30
0.0
 11
-236.644498
 21
107.174518
 31
0.0
  0
ARC
  5
370
330
23
100
AcDbEntity
  8
2
100
AcDbCircle
 10
-248.4722
 20
112.914899
 30
0.0
 40
14.64711
100
AcDbArc
 50
335.142987
 51
352.090372
  0
ARC
  5
371
330
23
100
AcDbEntity
  8
2
100
AcDbCircle
 10
-271.331177
 20
112.876882
 30
0.0
 40
27.564145
100
AcDbArc
 50
346.12537
 51
356.698964
  0
ARC
  5
372
330
23
100
AcDbEntity
  8
2
100
AcDbCircle
 10
-241.816085
 20
111.174518
 30
0.0
 40
2.0
100
AcDbArc
 50
90.0
 51
176.698964
  0
ARC
  5
373
330
23
100
AcDbEntity
  8
2
100
AcDbCircle
 10
-235.94541
 20
111.174518
 30
0.0
 40
2.0
100
AcDbArc
 50
352.090372
 51
90.0
  0
ARC
  5
374
330
23
100
AcDbEntity
  8
2
100
AcDbCircle
 10
-236.877916
 20
107.543581
 30
0.0
 40
1.869063
100
AcDbArc
 50
223.78328
 51
335.142987
  0
ARC
  5
375
330
23
100
AcDbEntity
  8
2
100
AcDbCircle
 10
-245.327976
 20
106.453958
 30
0.0
 40
0.779441
100
AcDbArc
 50
270.0
 51
346.12537
  0
ARC
  5
376
330
23
100
AcDbEntity
  8
2
100
AcDbCircle
 10
-240.393195
 20
104.174518
 30
0.0
 40
3.0
100
AcDbArc
 50
43.78327999999999
 51
90.0
  0
ARC
  5
377
330
23
100
AcDbEntity
  8
2
100
AcDbCircle
 10
-242.573285
 20
104.674518
 30
0.0
 40
2.5
100
AcDbArc
 50
90.0
 51
147.138855
  0
ARC
  5
378
330
23
100
AcDbEntity
  8
2
100
AcDbCircle
 10
-230.389898
 20
113.002718
 30
0.0
 40
9.683728999999999
100
AcDbArc
 50
323.594351
 51
346.235519
  0
LINE
  5
379
330
23
100
AcDbEntity
  8
2
100
AcDbLine
 10
-227.272107
 20
113.174518
 30
0.0
 11
-222.92683
 21
113.174518
 31
0.0
  0
ARC
  5
37A
330
23
100
AcDbEntity
  8
2
100
AcDbCircle
 10
-241.390169
 20
112.941206
 30
0.0
 40
12.228172
100
AcDbArc
 50
330.68604
 51
352.867271
  0
ARC
  5
37B
330
23
100
AcDbEntity
  8
2
100
AcDbCircle
 10
-222.92683
 20
111.174518
 30
0.0
 40
2.0
100
AcDbArc
 50
346.235519
 51
90.0
  0
ARC
  5
37C
330
23
100
AcDbEntity
  8
2
100
AcDbCircle
 10
-227.272107
 20
111.174518
 30
0.0
 40
2.0
100
AcDbArc
 50
90.0
 51
172.867271
  0
LINE
  5
37D
330
23
100
AcDbEntity
  8
2
100
AcDbLine
 10
-230.60715
 20
107.174518
 30
0.0
 11
-224.644856
 21
107.174518
 31
0.0
  0
ARC
  5
37E
330
23
100
AcDbEntity
  8
2
100
AcDbCircle
 10
-225.726172
 20
109.563613
 30
0.0
 40
3.889095999999999
100
AcDbArc
 50
231.46839
 51
323.594351
  0
ARC
  5
37F
330
23
100
AcDbEntity
  8
2
100
AcDbCircle
 10
-232.914223
 20
108.182011
 30
0.0
 40
2.507493
100
AcDbArc
 50
270.0
 51
330.68604
  0
ARC
  5
380
330
23
100
AcDbEntity
  8
2
100
AcDbCircle
 10
-230.017709
 20
104.174518
 30
0.0
 40
3.0
100
AcDbArc
 50
51.46838999999999
 51
90.0
  0
LINE
  5
381
330
23
100
AcDbEntity
  8
2
100
AcDbLine
 10
-236.877916
 20
105.674518
 30
0.0
 11
-232.914223
 21
105.674518
 31
0.0
  0
ARC
  5
382
330
23
100
AcDbEntity
  8
2
100
AcDbCircle
 10
-218.98934
 20
113.096747
 30
0.0
 40
8.126758999999999
100
AcDbArc
 50
316.719984
 51
347.606815
  0
ARC
  5
383
330
23
100
AcDbEntity
  8
2
100
AcDbCircle
 10
-225.985005
 20
113.035235
 30
0.0
 40
8.979103
100
AcDbArc
 50
320.850544
 51
352.539044
  0
LINE
  5
384
330
23
100
AcDbEntity
  8
2
100
AcDbLine
 10
-215.594622
 20
113.174517
 30
0.0
 11
-212.516999
 21
113.174517
 31
0.0
  0
LINE
  5
385
330
23
100
AcDbEntity
  8
2
100
AcDbLine
 10
-207.537616
 20
113.174517
 30
0.0
 11
-206.331143
 21
113.174505
 31
0.0
  0
LINE
  5
386
330
23
100
AcDbEntity
  8
2
100
AcDbLine
 10
-219.186843
 20
107.174518
 30
0.0
 11
-216.015935
 21
107.174518
 31
0.0
  0
ARC
  5
387
330
23
100
AcDbEntity
  8
2
100
AcDbCircle
 10
-217.358144
 20
111.560659
 30
0.0
 40
5.886141
100
AcDbArc
 50
241.758845
 51
316.719984
  0
ARC
  5
388
330
23
100
AcDbEntity
  8
2
100
AcDbCircle
 10
-222.580568
 20
110.263641
 30
0.0
 40
4.589123999999999
100
AcDbArc
 50
270.0
 51
320.850544
  0
LINE
  5
389
330
23
100
AcDbEntity
  8
2
100
AcDbLine
 10
-225.726172
 20
105.674518
 30
0.0
 11
-222.580568
 21
105.674518
 31
0.0
  0
ARC
  5
38A
330
23
100
AcDbEntity
  8
2
100
AcDbCircle
 10
-212.842668
 20
113.16107
 30
0.0
 40
7.585836999999999
100
AcDbArc
 50
313.364139
 51
351.384712
  0
ARC
  5
38B
330
23
100
AcDbEntity
  8
2
100
AcDbCircle
 10
-216.361819
 20
113.123054
 30
0.0
 40
7.875035999999999
100
AcDbArc
 50
315.252585
 51
353.864688
  0
ARC
  5
38C
330
23
100
AcDbEntity
  8
2
100
AcDbCircle
 10
-215.594622
 20
111.674518
 30
0.0
 40
1.5
100
AcDbArc
 50
90.0
 51
172.539044
  0
ARC
  5
38D
330
23
100
AcDbEntity
  8
2
100
AcDbCircle
 10
-212.516999
 20
111.674517
 30
0.0
 40
1.5
100
AcDbArc
 50
347.606815
 51
90.0
  0
ARC
  5
38E
330
23
100
AcDbEntity
  8
2
100
AcDbCircle
 10
-207.537616
 20
112.174518
 30
0.0
 40
1.0
100
AcDbArc
 50
90.0
 51
173.864688
  0
ARC
  5
38F
330
23
100
AcDbEntity
  8
2
100
AcDbCircle
 10
-206.331143
 20
112.174517
 30
0.0
 40
1.0
100
AcDbArc
 50
351.384712
 51
90.0
  0
ARC
  5
390
330
23
100
AcDbEntity
  8
2
100
AcDbCircle
 10
-212.59295
 20
112.896669
 30
0.0
 40
7.222152
100
AcDbArc
 50
258.718707
 51
313.364139
  0
ARC
  5
391
330
23
100
AcDbEntity
  8
2
100
AcDbCircle
 10
-215.338541
 20
112.108759
 30
0.0
 40
6.434241
100
AcDbArc
 50
270.0
 51
315.252585
  0
LINE
  5
392
330
23
100
AcDbEntity
  8
2
100
AcDbLine
 10
-217.358144
 20
105.674518
 30
0.0
 11
-215.338541
 21
105.674518
 31
0.0
  0
LINE
  5
393
330
23
100
AcDbEntity
  8
2
100
AcDbLine
 10
-212.59295
 20
105.674518
 30
0.0
 11
-211.664223
 21
105.674518
 31
0.0
  0
LINE
  5
394
330
23
100
AcDbEntity
  8
2
100
AcDbLine
 10
56.885777
 20
120.674518
 30
0.0
 11
141.885777
 21
120.674518
 31
0.0
  0
ARC
  5
395
330
23
100
AcDbEntity
  8
2
100
AcDbCircle
 10
56.885777
 20
113.174518
 30
0.0
 40
7.5
100
AcDbArc
 50
90.0
 51
270.0
  0
LINE
  5
396
330
23
100
AcDbEntity
  8
2
100
AcDbLine
 10
111.385777
 20
105.674518
 30
0.0
 11
87.385777
 21
105.674518
 31
0.0
  0
ARC
  5
397
330
23
100
AcDbEntity
  8
2
100
AcDbCircle
 10
100.448277
 20
113.174518
 30
0.0
 40
15.0625
100
AcDbArc
 50
203.47446
 51
209.862834
  0
ARC
  5
398
330
23
100
AcDbEntity
  8
2
100
AcDbCircle
 10
98.323277
 20
113.174518
 30
0.0
 40
15.0625
100
AcDbArc
 50
330.137166
 51
336.544162
  0
LINE
  5
399
330
23
100
AcDbEntity
  8
2
100
AcDbLine
 10
102.585661
 20
113.174518
 30
0.0
 11
96.18589300000001
 21
113.174518
 31
0.0
  0
LINE
  5
39A
330
23
100
AcDbEntity
  8
2
100
AcDbLine
 10
101.036124
 20
107.174518
 30
0.0
 11
97.73542900000002
 21
107.174518
 31
0.0
  0
LINE
  5
39B
330
23
100
AcDbEntity
  8
2
100
AcDbLine
 10
87.037639
 20
113.174518
 30
0.0
 11
81.166964
 21
113.174518
 31
0.0
  0
LINE
  5
39C
330
23
100
AcDbEntity
  8
2
100
AcDbLine
 10
87.794839
 20
107.174518
 30
0.0
 11
81.866052
 21
107.174518
 31
0.0
  0
ARC
  5
39D
330
23
100
AcDbEntity
  8
2
100
AcDbCircle
 10
148.410963
 20
112.866834
 30
0.0
 40
54.25248199999999
100
AcDbArc
 50
181.85598
 51
187.294014
  0
ARC
  5
39E
330
23
100
AcDbEntity
  8
2
100
AcDbCircle
 10
50.360591
 20
112.866834
 30
0.0
 40
54.25248199999999
100
AcDbArc
 50
352.705986
 51
358.14402
  0
ARC
  5
39F
330
23
100
AcDbEntity
  8
2
100
AcDbCircle
 10
96.18589300000001
 20
111.174518
 30
0.0
 40
2.0
100
AcDbArc
 50
90.0
 51
181.85598
  0
ARC
  5
3A0
330
23
100
AcDbEntity
  8
2
100
AcDbCircle
 10
102.585661
 20
111.174518
 30
0.0
 40
2.0
100
AcDbArc
 50
358.14402
 51
90.0
  0
ARC
  5
3A1
330
23
100
AcDbEntity
  8
2
100
AcDbCircle
 10
97.73542900000002
 20
104.174518
 30
0.0
 40
3.0
100
AcDbArc
 50
90.0
 51
146.491844
  0
ARC
  5
3A2
330
23
100
AcDbEntity
  8
2
100
AcDbCircle
 10
94.94331700000001
 20
106.023148
 30
0.0
 40
0.34863
100
AcDbArc
 50
187.294014
 51
326.491844
  0
ARC
  5
3A3
330
23
100
AcDbEntity
  8
2
100
AcDbCircle
 10
101.036124
 20
104.174518
 30
0.0
 40
3.0
100
AcDbArc
 50
33.508156
 51
90.0
  0
ARC
  5
3A4
330
23
100
AcDbEntity
  8
2
100
AcDbCircle
 10
103.828237
 20
106.023148
 30
0.0
 40
0.34863
100
AcDbArc
 50
213.508156
 51
352.705986
  0
ARC
  5
3A5
330
23
100
AcDbEntity
  8
2
100
AcDbCircle
 10
93.693754
 20
112.914899
 30
0.0
 40
14.64711
100
AcDbArc
 50
187.909628
 51
204.857013
  0
ARC
  5
3A6
330
23
100
AcDbEntity
  8
2
100
AcDbCircle
 10
116.552731
 20
112.876882
 30
0.0
 40
27.564145
100
AcDbArc
 50
183.301036
 51
193.87463
  0
ARC
  5
3A7
330
23
100
AcDbEntity
  8
2
100
AcDbCircle
 10
87.037639
 20
111.174518
 30
0.0
 40
2.0
100
AcDbArc
 50
3.301035999999999
 51
90.0
  0
ARC
  5
3A8
330
23
100
AcDbEntity
  8
2
100
AcDbCircle
 10
81.166964
 20
111.174518
 30
0.0
 40
2.0
100
AcDbArc
 50
90.0
 51
187.909628
  0
ARC
  5
3A9
330
23
100
AcDbEntity
  8
2
100
AcDbCircle
 10
82.099469
 20
107.543581
 30
0.0
 40
1.869063
100
AcDbArc
 50
204.857013
 51
316.21672
  0
ARC
  5
3AA
330
23
100
AcDbEntity
  8
2
100
AcDbCircle
 10
90.54953000000001
 20
106.453958
 30
0.0
 40
0.779441
100
AcDbArc
 50
193.87463
 51
270.0
  0
ARC
  5
3AB
330
23
100
AcDbEntity
  8
2
100
AcDbCircle
 10
85.614749
 20
104.174518
 30
0.0
 40
3.0
100
AcDbArc
 50
90.0
 51
136.21672
  0
ARC
  5
3AC
330
23
100
AcDbEntity
  8
2
100
AcDbCircle
 10
87.794839
 20
104.674518
 30
0.0
 40
2.5
100
AcDbArc
 50
32.861145
 51
90.0
  0
ARC
  5
3AD
330
23
100
AcDbEntity
  8
2
100
AcDbCircle
 10
75.611451
 20
113.002718
 30
0.0
 40
9.683728999999999
100
AcDbArc
 50
193.764481
 51
216.405649
  0
LINE
  5
3AE
330
23
100
AcDbEntity
  8
2
100
AcDbLine
 10
72.49365999999999
 20
113.174518
 30
0.0
 11
68.14838399999999
 21
113.174518
 31
0.0
  0
ARC
  5
3AF
330
23
100
AcDbEntity
  8
2
100
AcDbCircle
 10
86.611723
 20
112.941206
 30
0.0
 40
12.228172
100
AcDbArc
 50
187.132729
 51
209.31396
  0
ARC
  5
3B0
330
23
100
AcDbEntity
  8
2
100
AcDbCircle
 10
68.14838399999999
 20
111.174518
 30
0.0
 40
2.0
100
AcDbArc
 50
90.0
 51
193.764481
  0
ARC
  5
3B1
330
23
100
AcDbEntity
  8
2
100
AcDbCircle
 10
72.49365999999999
 20
111.174518
 30
0.0
 40
2.0
100
AcDbArc
 50
7.132728999999999
 51
90.0
  0
LINE
  5
3B2
330
23
100
AcDbEntity
  8
2
100
AcDbLine
 10
75.828704
 20
107.174518
 30
0.0
 11
69.86641
 21
107.174518
 31
0.0
  0
ARC
  5
3B3
330
23
100
AcDbEntity
  8
2
100
AcDbCircle
 10
70.947726
 20
109.563613
 30
0.0
 40
3.889095999999999
100
AcDbArc
 50
216.405649
 51
308.53161
  0
ARC
  5
3B4
330
23
100
AcDbEntity
  8
2
100
AcDbCircle
 10
78.135777
 20
108.182011
 30
0.0
 40
2.507493
100
AcDbArc
 50
209.31396
 51
270.0
  0
ARC
  5
3B5
330
23
100
AcDbEntity
  8
2
100
AcDbCircle
 10
75.23926299999999
 20
104.174518
 30
0.0
 40
3.0
100
AcDbArc
 50
90.0
 51
128.53161
  0
LINE
  5
3B6
330
23
100
AcDbEntity
  8
2
100
AcDbLine
 10
82.099469
 20
105.674518
 30
0.0
 11
78.135777
 21
105.674518
 31
0.0
  0
ARC
  5
3B7
330
23
100
AcDbEntity
  8
2
100
AcDbCircle
 10
64.21089399999999
 20
113.096747
 30
0.0
 40
8.126758999999999
100
AcDbArc
 50
192.393185
 51
223.280016
  0
ARC
  5
3B8
330
23
100
AcDbEntity
  8
2
100
AcDbCircle
 10
71.206558
 20
113.035235
 30
0.0
 40
8.979103
100
AcDbArc
 50
187.460956
 51
219.149456
  0
LINE
  5
3B9
330
23
100
AcDbEntity
  8
2
100
AcDbLine
 10
60.816176
 20
113.174517
 30
0.0
 11
57.73855199999999
 21
113.174517
 31
0.0
  0
LINE
  5
3BA
330
23
100
AcDbEntity
  8
2
100
AcDbLine
 10
52.75916999999999
 20
113.174517
 30
0.0
 11
51.55269699999999
 21
113.174505
 31
0.0
  0
LINE
  5
3BB
330
23
100
AcDbEntity
  8
2
100
AcDbLine
 10
64.408396
 20
107.174518
 30
0.0
 11
61.237489
 21
107.174518
 31
0.0
  0
ARC
  5
3BC
330
23
100
AcDbEntity
  8
2
100
AcDbCircle
 10
62.579697
 20
111.560659
 30
0.0
 40
5.886141
100
AcDbArc
 50
223.280016
 51
298.241155
  0
ARC
  5
3BD
330
23
100
AcDbEntity
  8
2
100
AcDbCircle
 10
67.802122
 20
110.263641
 30
0.0
 40
4.589123999999999
100
AcDbArc
 50
219.149456
 51
270.0
  0
LINE
  5
3BE
330
23
100
AcDbEntity
  8
2
100
AcDbLine
 10
70.947726
 20
105.674518
 30
0.0
 11
67.802122
 21
105.674518
 31
0.0
  0
ARC
  5
3BF
330
23
100
AcDbEntity
  8
2
100
AcDbCircle
 10
58.064222
 20
113.16107
 30
0.0
 40
7.585836999999999
100
AcDbArc
 50
188.615288
 51
226.635861
  0
ARC
  5
3C0
330
23
100
AcDbEntity
  8
2
100
AcDbCircle
 10
61.583372
 20
113.123054
 30
0.0
 40
7.875035999999999
100
AcDbArc
 50
186.135312
 51
224.747415
  0
ARC
  5
3C1
330
23
100
AcDbEntity
  8
2
100
AcDbCircle
 10
60.816176
 20
111.674518
 30
0.0
 40
1.5
100
AcDbArc
 50
7.460955999999998
 51
90.0
  0
ARC
  5
3C2
330
23
100
AcDbEntity
  8
2
100
AcDbCircle
 10
57.73855199999999
 20
111.674517
 30
0.0
 40
1.5
100
AcDbArc
 50
90.0
 51
192.393185
  0
ARC
  5
3C3
330
23
100
AcDbEntity
  8
2
100
AcDbCircle
 10
52.75916999999999
 20
112.174518
 30
0.0
 40
1.0
100
AcDbArc
 50
6.135311999999999
 51
90.0
  0
ARC
  5
3C4
330
23
100
AcDbEntity
  8
2
100
AcDbCircle
 10
51.55269699999999
 20
112.174517
 30
0.0
 40
1.0
100
AcDbArc
 50
90.0
 51
188.615288
  0
ARC
  5
3C5
330
23
100
AcDbEntity
  8
2
100
AcDbCircle
 10
57.814504
 20
112.896669
 30
0.0
 40
7.222152
100
AcDbArc
 50
226.635861
 51
281.281293
  0
ARC
  5
3C6
330
23
100
AcDbEntity
  8
2
100
AcDbCircle
 10
60.560095
 20
112.108759
 30
0.0
 40
6.434241
100
AcDbArc
 50
224.747415
 51
270.0
  0
LINE
  5
3C7
330
23
100
AcDbEntity
  8
2
100
AcDbLine
 10
62.579697
 20
105.674518
 30
0.0
 11
60.560095
 21
105.674518
 31
0.0
  0
LINE
  5
3C8
330
23
100
AcDbEntity
  8
2
100
AcDbLine
 10
57.814504
 20
105.674518
 30
0.0
 11
56.885777
 21
105.674518
 31
0.0
  0
ARC
  5
3C9
330
23
100
AcDbEntity
  8
2
100
AcDbCircle
 10
141.885777
 20
113.174518
 30
0.0
 40
7.5
100
AcDbArc
 50
270.0
 51
90.0
  0
LINE
  5
3CA
330
23
100
AcDbEntity
  8
2
100
AcDbLine
 10
111.733915
 20
113.174518
 30
0.0
 11
117.60459
 21
113.174518
 31
0.0
  0
LINE
  5
3CB
330
23
100
AcDbEntity
  8
2
100
AcDbLine
 10
110.976715
 20
107.174518
 30
0.0
 11
116.905502
 21
107.174518
 31
0.0
  0
ARC
  5
3CC
330
23
100
AcDbEntity
  8
2
100
AcDbCircle
 10
105.0778
 20
112.914899
 30
0.0
 40
14.64711
100
AcDbArc
 50
335.142987
 51
352.090372
  0
ARC
  5
3CD
330
23
100
AcDbEntity
  8
2
100
AcDbCircle
 10
82.218823
 20
112.876882
 30
0.0
 40
27.564145
100
AcDbArc
 50
346.12537
 51
356.698964
  0
ARC
  5
3CE
330
23
100
AcDbEntity
  8
2
100
AcDbCircle
 10
111.733915
 20
111.174518
 30
0.0
 40
2.0
100
AcDbArc
 50
90.0
 51
176.698964
  0
ARC
  5
3CF
330
23
100
AcDbEntity
  8
2
100
AcDbCircle
 10
117.60459
 20
111.174518
 30
0.0
 40
2.0
100
AcDbArc
 50
352.090372
 51
90.0
  0
ARC
  5
3D0
330
23
100
AcDbEntity
  8
2
100
AcDbCircle
 10
116.672084
 20
107.543581
 30
0.0
 40
1.869063
100
AcDbArc
 50
223.78328
 51
335.142987
  0
ARC
  5
3D1
330
23
100
AcDbEntity
  8
2
100
AcDbCircle
 10
108.222024
 20
106.453958
 30
0.0
 40
0.779441
100
AcDbArc
 50
270.0
 51
346.12537
  0
ARC
  5
3D2
330
23
100
AcDbEntity
  8
2
100
AcDbCircle
 10
113.156805
 20
104.174518
 30
0.0
 40
3.0
100
AcDbArc
 50
43.78327999999999
 51
90.0
  0
ARC
  5
3D3
330
23
100
AcDbEntity
  8
2
100
AcDbCircle
 10
110.976715
 20
104.674518
 30
0.0
 40
2.5
100
AcDbArc
 50
90.0
 51
147.138855
  0
ARC
  5
3D4
330
23
100
AcDbEntity
  8
2
100
AcDbCircle
 10
123.160102
 20
113.002718
 30
0.0
 40
9.683728999999999
100
AcDbArc
 50
323.594351
 51
346.235519
  0
LINE
  5
3D5
330
23
100
AcDbEntity
  8
2
100
AcDbLine
 10
126.277893
 20
113.174518
 30
0.0
 11
130.62317
 21
113.174518
 31
0.0
  0
ARC
  5
3D6
330
23
100
AcDbEntity
  8
2
100
AcDbCircle
 10
112.159831
 20
112.941206
 30
0.0
 40
12.228172
100
AcDbArc
 50
330.68604
 51
352.867271
  0
ARC
  5
3D7
330
23
100
AcDbEntity
  8
2
100
AcDbCircle
 10
130.62317
 20
111.174518
 30
0.0
 40
2.0
100
AcDbArc
 50
346.235519
 51
90.0
  0
ARC
  5
3D8
330
23
100
AcDbEntity
  8
2
100
AcDbCircle
 10
126.277893
 20
111.174518
 30
0.0
 40
2.0
100
AcDbArc
 50
90.0
 51
172.867271
  0
LINE
  5
3D9
330
23
100
AcDbEntity
  8
2
100
AcDbLine
 10
122.94285
 20
107.174518
 30
0.0
 11
128.905144
 21
107.174518
 31
0.0
  0
ARC
  5
3DA
330
23
100
AcDbEntity
  8
2
100
AcDbCircle
 10
127.823828
 20
109.563613
 30
0.0
 40
3.889095999999999
100
AcDbArc
 50
231.46839
 51
323.594351
  0
ARC
  5
3DB
330
23
100
AcDbEntity
  8
2
100
AcDbCircle
 10
120.635777
 20
108.182011
 30
0.0
 40
2.507493
100
AcDbArc
 50
270.0
 51
330.68604
  0
ARC
  5
3DC
330
23
100
AcDbEntity
  8
2
100
AcDbCircle
 10
123.532291
 20
104.174518
 30
0.0
 40
3.0
100
AcDbArc
 50
51.46838999999999
 51
90.0
  0
LINE
  5
3DD
330
23
100
AcDbEntity
  8
2
100
AcDbLine
 10
116.672084
 20
105.674518
 30
0.0
 11
120.635777
 21
105.674518
 31
0.0
  0
ARC
  5
3DE
330
23
100
AcDbEntity
  8
2
100
AcDbCircle
 10
134.56066
 20
113.096747
 30
0.0
 40
8.126758999999999
100
AcDbArc
 50
316.719984
 51
347.606815
  0
ARC
  5
3DF
330
23
100
AcDbEntity
  8
2
100
AcDbCircle
 10
127.564995
 20
113.035235
 30
0.0
 40
8.979103
100
AcDbArc
 50
320.850544
 51
352.539044
  0
LINE
  5
3E0
330
23
100
AcDbEntity
  8
2
100
AcDbLine
 10
137.955378
 20
113.174517
 30
0.0
 11
141.033001
 21
113.174517
 31
0.0
  0
LINE
  5
3E1
330
23
100
AcDbEntity
  8
2
100
AcDbLine
 10
146.012384
 20
113.174517
 30
0.0
 11
147.218857
 21
113.174505
 31
0.0
  0
LINE
  5
3E2
330
23
100
AcDbEntity
  8
2
100
AcDbLine
 10
134.363157
 20
107.174518
 30
0.0
 11
137.534065
 21
107.174518
 31
0.0
  0
ARC
  5
3E3
330
23
100
AcDbEntity
  8
2
100
AcDbCircle
 10
136.191856
 20
111.560659
 30
0.0
 40
5.886141
100
AcDbArc
 50
241.758845
 51
316.719984
  0
ARC
  5
3E4
330
23
100
AcDbEntity
  8
2
100
AcDbCircle
 10
130.969432
 20
110.263641
 30
0.0
 40
4.589123999999999
100
AcDbArc
 50
270.0
 51
320.850544
  0
LINE
  5
3E5
330
23
100
AcDbEntity
  8
2
100
AcDbLine
 10
127.823828
 20
105.674518
 30
0.0
 11
130.969432
 21
105.674518
 31
0.0
  0
ARC
  5
3E6
330
23
100
AcDbEntity
  8
2
100
AcDbCircle
 10
140.707332
 20
113.16107
 30
0.0
 40
7.585836999999999
100
AcDbArc
 50
313.364139
 51
351.384712
  0
ARC
  5
3E7
330
23
100
AcDbEntity
  8
2
100
AcDbCircle
 10
137.188181
 20
113.123054
 30
0.0
 40
7.875035999999999
100
AcDbArc
 50
315.252585
 51
353.864688
  0
ARC
  5
3E8
330
23
100
AcDbEntity
  8
2
100
AcDbCircle
 10
137.955378
 20
111.674518
 30
0.0
 40
1.5
100
AcDbArc
 50
90.0
 51
172.539044
  0
ARC
  5
3E9
330
23
100
AcDbEntity
  8
2
100
AcDbCircle
 10
141.033001
 20
111.674517
 30
0.0
 40
1.5
100
AcDbArc
 50
347.606815
 51
90.0
  0
ARC
  5
3EA
330
23
100
AcDbEntity
  8
2
100
AcDbCircle
 10
146.012384
 20
112.174518
 30
0.0
 40
1.0
100
AcDbArc
 50
90.0
 51
173.864688
  0
ARC
  5
3EB
330
23
100
AcDbEntity
  8
2
100
AcDbCircle
 10
147.218857
 20
112.174517
 30
0.0
 40
1.0
100
AcDbArc
 50
351.384712
 51
90.0
  0
ARC
  5
3EC
330
23
100
AcDbEntity
  8
2
100
AcDbCircle
 10
140.95705
 20
112.896669
 30
0.0
 40
7.222152
100
AcDbArc
 50
258.718707
 51
313.364139
  0
ARC
  5
3ED
330
23
100
AcDbEntity
  8
2
100
AcDbCircle
 10
138.211459
 20
112.108759
 30
0.0
 40
6.434241
100
AcDbArc
 50
270.0
 51
315.252585
  0
LINE
  5
3EE
330
23
100
AcDbEntity
  8
2
100
AcDbLine
 10
136.191856
 20
105.674518
 30
0.0
 11
138.211459
 21
105.674518
 31
0.0
  0
LINE
  5
3EF
330
23
100
AcDbEntity
  8
2
100
AcDbLine
 10
140.95705
 20
105.674518
 30
0.0
 11
141.885777
 21
105.674518
 31
0.0
  0
CIRCLE
  5
3F0
330
23
100
AcDbEntity
  8
2
100
AcDbCircle
 10
-254.164223
 20
272.824518
 30
0.0
 40
50.0
  0
ARC
  5
3F1
330
23
100
AcDbEntity
  8
2
100
AcDbCircle
 10
-254.164223
 20
272.824518
 30
0.0
 40
35.0
100
AcDbArc
 50
81.988888
 51
98.777778
  0
ARC
  5
3F2
330
23
100
AcDbEntity
  8
2
100
AcDbCircle
 10
-254.164223
 20
272.824518
 30
0.0
 40
35.0
100
AcDbArc
 50
202.9
 51
218.177778
  0
ARC
  5
3F3
330
23
100
AcDbEntity
  8
2
100
AcDbCircle
 10
-254.164223
 20
272.824518
 30
0.0
 40
35.0
100
AcDbArc
 50
321.177778
 51
337.877777
  0
ARC
  5
3F4
330
23
100
AcDbEntity
  8
2
100
AcDbCircle
 10
-285.264223
 20
267.824518
 30
0.0
 40
3.5
100
AcDbArc
 50
189.166667
 51
303.011111
  0
ARC
  5
3F5
330
23
100
AcDbEntity
  8
2
100
AcDbCircle
 10
-254.164223
 20
272.824518
 30
0.0
 40
35.0
100
AcDbArc
 50
110.822222
 51
189.177778
  0
LINE
  5
3F6
330
23
100
AcDbEntity
  8
2
100
AcDbLine
 10
-269.264223
 20
274.024518
 30
0.0
 11
-283.364223
 21
264.874518
 31
0.0
  0
ARC
  5
3F7
330
23
100
AcDbEntity
  8
2
100
AcDbCircle
 10
-265.364223
 20
302.274518
 30
0.0
 40
3.5
100
AcDbArc
 50
356.988889
 51
110.833333
  0
LINE
  5
3F8
330
23
100
AcDbEntity
  8
2
100
AcDbLine
 10
-262.764223
 20
285.324518
 30
0.0
 11
-261.864223
 21
302.074518
 31
0.0
  0
ARC
  5
3F9
330
23
100
AcDbEntity
  8
2
100
AcDbCircle
 10
-266.264223
 20
285.474518
 30
0.0
 40
3.5
100
AcDbArc
 50
313.655555
 51
357.0
  0
ARC
  5
3FA
330
23
100
AcDbEntity
  8
2
100
AcDbCircle
 10
-254.164223
 20
272.824518
 30
0.0
 40
14.0
100
AcDbArc
 50
133.666667
 51
166.366667
  0
ARC
  5
3FB
330
23
100
AcDbEntity
  8
2
100
AcDbCircle
 10
-271.164223
 20
276.974518
 30
0.0
 40
3.5
100
AcDbArc
 50
303.0
 51
346.344444
  0
LINE
  5
3FC
330
23
100
AcDbEntity
  8
2
100
AcDbLine
 10
-260.664223
 20
259.174518
 30
0.0
 11
-275.664223
 21
251.524518
 31
0.0
  0
ARC
  5
3FD
330
23
100
AcDbEntity
  8
2
100
AcDbCircle
 10
-254.164223
 20
272.824518
 30
0.0
 40
35.0
100
AcDbArc
 50
230.8222220000001
 51
309.355555
  0
ARC
  5
3FE
330
23
100
AcDbEntity
  8
2
100
AcDbCircle
 10
-274.064223
 20
248.424518
 30
0.0
 40
3.5
100
AcDbArc
 50
116.988889
 51
230.833333
  0
ARC
  5
3FF
330
23
100
AcDbEntity
  8
2
100
AcDbCircle
 10
-234.264223
 20
248.424518
 30
0.0
 40
3.5
100
AcDbArc
 50
309.166666
 51
63.01111099999999
  0
LINE
  5
400
330
23
100
AcDbEntity
  8
2
100
AcDbLine
 10
-247.664223
 20
259.174518
 30
0.0
 11
-232.664223
 21
251.524518
 31
0.0
  0
ARC
  5
401
330
23
100
AcDbEntity
  8
2
100
AcDbCircle
 10
-249.264223
 20
256.024518
 30
0.0
 40
3.5
100
AcDbArc
 50
63.0
 51
106.344444
  0
ARC
  5
402
330
23
100
AcDbEntity
  8
2
100
AcDbCircle
 10
-254.164223
 20
272.824518
 30
0.0
 40
14.0
100
AcDbArc
 50
253.7
 51
286.3
  0
ARC
  5
403
330
23
100
AcDbEntity
  8
2
100
AcDbCircle
 10
-259.064223
 20
256.024518
 30
0.0
 40
3.5
100
AcDbArc
 50
73.65555500000001
 51
117.0
  0
ARC
  5
404
330
23
100
AcDbEntity
  8
2
100
AcDbCircle
 10
-254.164223
 20
272.824518
 30
0.0
 40
35.0
100
AcDbArc
 50
350.822222
 51
69.17777700000001
  0
ARC
  5
405
330
23
100
AcDbEntity
  8
2
100
AcDbCircle
 10
-242.964223
 20
302.274518
 30
0.0
 40
3.5
100
AcDbArc
 50
69.166666
 51
183.011111
  0
LINE
  5
406
330
23
100
AcDbEntity
  8
2
100
AcDbLine
 10
-245.564223
 20
285.324518
 30
0.0
 11
-246.464223
 21
302.074518
 31
0.0
  0
ARC
  5
407
330
23
100
AcDbEntity
  8
2
100
AcDbCircle
 10
-242.064223
 20
285.474518
 30
0.0
 40
3.5
100
AcDbArc
 50
183.0
 51
226.344444
  0
ARC
  5
408
330
23
100
AcDbEntity
  8
2
100
AcDbCircle
 10
-254.164223
 20
272.824518
 30
0.0
 40
14.0
100
AcDbArc
 50
13.633333
 51
46.333333
  0
ARC
  5
409
330
23
100
AcDbEntity
  8
2
100
AcDbCircle
 10
-237.164223
 20
276.974518
 30
0.0
 40
3.5
100
AcDbArc
 50
193.655555
 51
237.0
  0
LINE
  5
40A
330
23
100
AcDbEntity
  8
2
100
AcDbLine
 10
-239.064223
 20
274.024518
 30
0.0
 11
-224.964223
 21
264.874518
 31
0.0
  0
ARC
  5
40B
330
23
100
AcDbEntity
  8
2
100
AcDbCircle
 10
-223.064223
 20
267.824518
 30
0.0
 40
3.5
100
AcDbArc
 50
236.988889
 51
350.833333
  0
CIRCLE
  5
40C
330
23
100
AcDbEntity
  8
2
100
AcDbCircle
 10
-254.164223
 20
272.824518
 30
0.0
 40
12.0
  0
LINE
  5
40D
330
23
100
AcDbEntity
  8
2
100
AcDbLine
 10
-282.449529
 20
310.360387
 30
0.0
 11
-277.635009
 21
303.971303
 31
0.0
  0
LINE
  5
40E
330
23
100
AcDbEntity
  8
2
100
AcDbLine
 10
-225.878917
 20
310.360387
 30
0.0
 11
-230.693437
 21
303.971303
 31
0.0
  0
ARC
  5
40F
330
23
100
AcDbEntity
  8
2
100
AcDbCircle
 10
-254.164223
 20
272.824518
 30
0.0
 40
47.0
100
AcDbArc
 50
53.0
 51
127.0
  0
ARC
  5
410
330
23
100
AcDbEntity
  8
2
100
AcDbCircle
 10
-254.164223
 20
272.824518
 30
0.0
 40
39.0
100
AcDbArc
 50
53.0
 51
127.0
  0
LINE
  5
411
330
23
100
AcDbEntity
  8
2
100
AcDbLine
 10
-265.293442
 20
314.359328
 30
0.0
 11
-262.750628
 21
316.997741
 31
0.0
  0
LINE
  5
412
330
23
100
AcDbEntity
  8
2
100
AcDbLine
 10
-265.293442
 20
314.359328
 30
0.0
 11
-261.987392
 21
313.071232
 31
0.0
  0
ARC
  5
413
330
23
100
AcDbEntity
  8
2
100
AcDbCircle
 10
-254.164223
 20
272.824518
 30
0.0
 40
42.0
100
AcDbArc
 50
79.00000099999999
 51
101.000002
  0
LINE
  5
414
330
23
100
AcDbEntity
  8
2
100
AcDbLine
 10
-262.750628
 20
316.997741
 30
0.0
 11
-262.559819
 21
316.016114
 31
0.0
  0
LINE
  5
415
330
23
100
AcDbEntity
  8
2
100
AcDbLine
 10
-262.178201
 20
314.052859
 30
0.0
 11
-261.987392
 21
313.071232
 31
0.0
  0
LINE
  5
416
330
23
100
AcDbEntity
  8
2
100
AcDbLine
 10
-243.035004
 20
314.359328
 30
0.0
 11
-245.577818
 21
316.997741
 31
0.0
  0
LINE
  5
417
330
23
100
AcDbEntity
  8
2
100
AcDbLine
 10
-243.035004
 20
314.359328
 30
0.0
 11
-246.341054
 21
313.071232
 31
0.0
  0
ARC
  5
418
330
23
100
AcDbEntity
  8
2
100
AcDbCircle
 10
-254.164223
 20
272.824518
 30
0.0
 40
44.0
100
AcDbArc
 50
79.00000099999999
 51
101.000002
  0
LINE
  5
419
330
23
100
AcDbEntity
  8
2
100
AcDbLine
 10
-245.577818
 20
316.997741
 30
0.0
 11
-245.768627
 21
316.016114
 31
0.0
  0
LINE
  5
41A
330
23
100
AcDbEntity
  8
2
100
AcDbLine
 10
-246.150245
 20
314.052859
 30
0.0
 11
-246.341054
 21
313.071232
 31
0.0
  0
TEXT
  5
41B
330
23
100
AcDbEntity
  8
2
100
AcDbText
 10
-277.587009
 20
306.534651
 30
0.0
 40
4.0
  1
Ｏ
 50
32.00000450635875
 41
0.9230769998383362
 72
     5
 11
-274.873255
 21
308.230393
 31
0.0
100
AcDbText
  0
TEXT
  5
41C
330
23
100
AcDbEntity
  8
2
100
AcDbText
 10
-275.178452
 20
308.086426
 30
0.0
 40
4.0
  1
Ｐ
 50
28.00000248332587
 41
0.999999917876215
 72
     5
 11
-272.35302
 21
309.588735
 31
0.0
100
AcDbText
  0
TEXT
  5
41D
330
23
100
AcDbEntity
  8
2
100
AcDbText
 10
-272.667516
 20
309.466408
 30
0.0
 40
4.0
  1
Ｅ
 50
23.99999916492268
 41
1.090908910508201
 72
     5
 11
-269.744171
 21
310.767965
 31
0.0
100
AcDbText
  0
TEXT
  5
41E
330
23
100
AcDbEntity
  8
2
100
AcDbText
 10
-270.0664339999999
 20
310.667875
 30
0.0
 40
4.0
  1
Ｎ
 50
19.99999465024344
 41
0.9230767730567105
 72
     5
 11
-267.059418
 21
311.762339
 31
0.0
100
AcDbText
  0
TEXT
  5
41F
330
23
100
AcDbEntity
  8
2
100
AcDbText
 10
-242.020783
 20
312.035955
 30
0.0
 40
4.0
  1
Ｓ
 50
340.0000114736024
 41
1.000000131132064
 72
     5
 11
-239.013766
 21
310.941491
 31
0.0
100
AcDbText
  0
TEXT
  5
420
330
23
100
AcDbEntity
  8
2
100
AcDbText
 10
-239.315112
 20
311.093355
 30
0.0
 40
4.0
  1
Ｈ
 50
335.9999917607028
 41
1.000000247220659
 72
     5
 11
-236.391766
 21
309.7917970000001
 31
0.0
100
AcDbText
  0
TEXT
  5
421
330
23
100
AcDbEntity
  8
2
100
AcDbText
 10
-236.681784
 20
309.964312
 30
0.0
 40
4.0
  1
Ｕ
 50
331.9999975166741
 41
0.9230768472703525
 72
     5
 11
-233.856352
 21
308.462003
 31
0.0
100
AcDbText
  0
TEXT
  5
422
330
23
100
AcDbEntity
  8
2
100
AcDbText
 10
-234.13363
 20
308.654328
 30
0.0
 40
4.0
  1
Ｔ
 50
327.9999954936413
 41
0.9230769998383362
 72
     5
 11
-231.419876
 21
306.958586
 31
0.0
100
AcDbText
  0
ARC
  5
423
330
23
100
AcDbEntity
  8
2
100
AcDbCircle
 10
-254.164223
 20
272.824518
 30
0.0
 40
42.5
100
AcDbArc
 50
127.0
 51
53.0
  0
CIRCLE
  5
424
330
23
100
AcDbEntity
  8
2
100
AcDbCircle
 10
-254.164223
 20
272.824518
 30
0.0
 40
10.0
  0
CIRCLE
  5
425
330
23
100
AcDbEntity
  8
2
100
AcDbCircle
 10
-254.164223
 20
272.824518
 30
0.0
 40
4.9
  0
CIRCLE
  5
426
330
23
100
AcDbEntity
  8
2
100
AcDbCircle
 10
-254.164223
 20
272.824518
 30
0.0
 40
6.099999999999999
  0
LINE
  5
427
330
23
100
AcDbEntity
  8
2
100
AcDbLine
 10
-257.050975
 20
277.824518
 30
0.0
 11
-251.277472
 21
277.824518
 31
0.0
  0
LINE
  5
428
330
23
100
AcDbEntity
  8
2
100
AcDbLine
 10
-257.050975
 20
267.824518
 30
0.0
 11
-251.277472
 21
267.824518
 31
0.0
  0
LINE
  5
429
330
23
100
AcDbEntity
  8
2
100
AcDbLine
 10
-259.937726
 20
272.824518
 30
0.0
 11
-257.050975
 21
277.824518
 31
0.0
  0
LINE
  5
42A
330
23
100
AcDbEntity
  8
2
100
AcDbLine
 10
-251.277472
 20
267.824518
 30
0.0
 11
-248.39072
 21
272.824518
 31
0.0
  0
LINE
  5
42B
330
23
100
AcDbEntity
  8
2
100
AcDbLine
 10
-257.050975
 20
267.824518
 30
0.0
 11
-259.937726
 21
272.824518
 31
0.0
  0
LINE
  5
42C
330
23
100
AcDbEntity
  8
2
100
AcDbLine
 10
-248.39072
 20
272.824518
 30
0.0
 11
-251.277472
 21
277.824518
 31
0.0
  0
DIMENSION
  5
42D
330
23
100
AcDbEntity
  8
5
100
AcDbDimension
  2
*D0
 10
3.554517999999999
 20
-4.325482
 30
0.0
 11
-8.340482000000001
 21
-105.820482
 31
0.0
  1
202
 71
     5
 42
-1.0
100
AcDbAlignedDimension
 13
43.172227
 23
-206.325482
 33
0.0
 14
48.385777
 24
-4.325482
 34
0.0
 50
90.0
100
AcDbRotatedDimension
  0
DIMENSION
  5
42E
330
23
100
AcDbEntity
  8
5
100
AcDbDimension
  2
*D1
 10
3.554517999999999
 20
-206.325482
 30
0.0
 11
-8.340482000000001
 21
-273.670482
 31
0.0
  1
134
 71
     5
 42
-1.0
100
AcDbAlignedDimension
 13
94.38577700000001
 23
-340.025482
 33
0.0
 14
43.172227
 24
-206.325482
 34
0.0
 50
90.0
100
AcDbRotatedDimension
  0
DIMENSION
  5
42F
330
23
100
AcDbEntity
  8
5
100
AcDbDimension
  2
*D2
 10
127.385777
 20
-378.020966
 30
0.0
 11
99.38577700000001
 21
-371.570966
 31
0.0
  1
56
 71
     5
 42
-1.0
100
AcDbAlignedDimension
 13
71.385777
 23
-310.8254819999999
 33
0.0
 14
127.385777
 24
-310.8254819999999
 34
0.0
100
AcDbRotatedDimension
  0
DIMENSION
  5
430
330
23
100
AcDbEntity
  8
5
100
AcDbDimension
  2
*D3
 10
3.554517999999999
 20
128.174518
 30
0.0
 11
-8.340482000000001
 21
61.429518
 31
0.0
  1
133
 71
     5
 42
-1.0
100
AcDbAlignedDimension
 13
48.385777
 23
-4.325482
 33
0.0
 14
94.38577700000001
 24
128.174518
 34
0.0
 50
90.0
100
AcDbRotatedDimension
  0
DIMENSION
  5
431
330
23
100
AcDbEntity
  8
5
100
AcDbDimension
  2
*D4
 10
149.385777
 20
172.731468
 30
0.0
 11
99.38577700000001
 21
179.181468
 31
0.0
 70
     1
  1
%%c100
 71
     5
 42
-1.0
100
AcDbAlignedDimension
 13
49.385777
 23
113.174518
 33
0.0
 14
149.385777
 24
113.174518
 34
0.0
  0
TEXT
  5
432
330
23
100
AcDbEntity
  8
18
100
AcDbText
 10
366.506401
 20
-399.145615
 30
0.0
 40
9.0
  1
１
 41
1.499999999999997
 72
     5
 11
373.706401
 21
-399.145615
 31
0.0
100
AcDbText
  0
TEXT
  5
433
330
23
100
AcDbEntity
  8
18
100
AcDbText
 10
380.268219
 20
-410.4385069999999
 30
0.0
 40
9.0
  1
３
 72
     5
 11
387.468219
 21
-410.4385069999999
 31
0.0
100
AcDbText
  0
TEXT
  5
434
330
23
100
AcDbEntity
  8
18
100
AcDbText
 10
368.562721
 20
-369.105789
 30
0.0
 40
9.0
  1
７００Ｇ－２ＧＡＳ　１５０Ａ
 41
0.8380566801619433
 72
     5
 11
492.7627209999999
 21
-369.105789
 31
0.0
100
AcDbText
  0
TEXT
  5
435
330
23
100
AcDbEntity
  8
18
100
AcDbText
 10
368.562721
 20
-381.105789
 30
0.0
 40
9.0
  1
標準仕様　ＪＩＳ　５，１０Ｋ
 41
0.8414634146341461
 72
     5
 11
492.7627209999999
 21
-381.105789
 31
0.0
100
AcDbText
  0
TEXT
  5
436
330
23
100
AcDbEntity
  8
18
100
AcDbText
 10
460.8
 20
-408.0
 30
0.0
 40
15.0
  1
Ｄ３－０３５２８
 41
0.8478260869565213
 72
     5
 11
577.7999999999999
 21
-408.0
 31
0.0
100
AcDbText
  0
TEXT
  5
437
330
23
100
AcDbEntity
  8
18
100
AcDbText
 10
545.983521
 20
-381.325745
 30
0.0
 40
6.75
  1
′０４．７．９
 41
0.8499999999999992
 72
     5
 11
591.883521
 21
-381.325745
 31
0.0
100
AcDbText
  0
LINE
  5
438
330
23
100
AcDbEntity
  8
20
 62
     3
100
AcDbLine
 10
-540.0
 20
-415.5
 30
0.0
 11
600.0
 21
-415.5
 31
0.0
  0
LINE
  5
439
330
23
100
AcDbEntity
  8
20
 62
     3
100
AcDbLine
 10
-540.0
 20
396.0
 30
0.0
 11
600.0
 21
396.0
 31
0.0
  0
LINE
  5
43A
330
23
100
AcDbEntity
  8
20
 62
     3
100
AcDbLine
 10
-540.0
 20
396.0
 30
0.0
 11
-540.0
 21
-415.5
 31
0.0
  0
LINE
  5
43B
330
23
100
AcDbEntity
  8
20
 62
     3
100
AcDbLine
 10
600.0
 20
396.0
 30
0.0
 11
600.0
 21
-415.5
 31
0.0
  0
LINE
  5
43C
330
23
100
AcDbEntity
  8
20
 62
     3
100
AcDbLine
 10
180.0
 20
-415.5
 30
0.0
 11
180.0
 21
-355.5
 31
0.0
  0
LINE
  5
43D
330
23
100
AcDbEntity
  8
20
 62
     3
100
AcDbLine
 10
321.0
 20
-415.5
 30
0.0
 11
321.0
 21
-355.5
 31
0.0
  0
LINE
  5
43E
330
23
100
AcDbEntity
  8
20
100
AcDbLine
 10
321.0
 20
-385.5
 30
0.0
 11
600.0
 21
-385.5
 31
0.0
  0
LINE
  5
43F
330
23
100
AcDbEntity
  8
20
 62
     3
100
AcDbLine
 10
180.0
 20
-355.5
 30
0.0
 11
600.0
 21
-355.5
 31
0.0
  0
LINE
  5
440
330
23
100
AcDbEntity
  8
20
100
AcDbLine
 10
540.0
 20
-385.5
 30
0.0
 11
540.0
 21
-355.5
 31
0.0
  0
LINE
  5
441
330
23
100
AcDbEntity
  8
20
100
AcDbLine
 10
540.0
 20
-370.5
 30
0.0
 11
600.0
 21
-370.5
 31
0.0
  0
LINE
  5
442
330
23
100
AcDbEntity
  8
20
100
AcDbLine
 10
363.0
 20
-415.5
 30
0.0
 11
363.0
 21
-355.5
 31
0.0
  0
LINE
  5
443
330
23
100
AcDbEntity
  8
20
100
AcDbLine
 10
393.0
 20
-415.5
 30
0.0
 11
393.0
 21
-385.5
 31
0.0
  0
LINE
  5
444
330
23
100
AcDbEntity
  8
20
100
AcDbLine
 10
453.0
 20
-415.5
 30
0.0
 11
453.0
 21
-385.5
 31
0.0
  0
LINE
  5
445
330
23
100
AcDbEntity
  8
20
100
AcDbLine
 10
371.185244
 20
-407.3147559999999
 30
0.0
 11
383.694872
 21
-394.8051279999999
 31
0.0
  0
TEXT
  5
446
330
23
100
AcDbEntity
  8
20
100
AcDbText
 10
394.599987
 20
-397.490753
 30
0.0
 40
5.4
  1
ＤＲＡＷＩＮＧ　ＮＯ．
 41
0.8804347826086955
 72
     5
 11
452.919987
 21
-397.490753
 31
0.0
100
AcDbText
  0
TEXT
  5
447
330
23
100
AcDbEntity
  8
20
100
AcDbText
 10
400.4999999999999
 20
-409.4999999999999
 30
0.0
 40
9.0
  1
図　　　番
 41
0.8372093023255812
 72
     5
 11
443.7
 21
-409.4999999999999
 31
0.0
100
AcDbText
  0
TEXT
  5
448
330
23
100
AcDbEntity
  8
20
100
AcDbText
 10
558.0
 20
-366.0
 30
0.0
 40
6.0
  1
ＤＡＴＥ
 41
0.8769230769230752
 72
     5
 11
580.7999999999999
 21
-366.0
 31
0.0
100
AcDbText
  0
TEXT
  5
449
330
23
100
AcDbEntity
  8
20
100
AcDbText
 10
327.003213
 20
-398.883087
 30
0.0
 40
6.0
  1
ＳＣＡＬＥ
 41
0.8674698795180708
 72
     5
 11
355.803213
 21
-398.883087
 31
0.0
100
AcDbText
  0
TEXT
  5
44A
330
23
100
AcDbEntity
  8
20
100
AcDbText
 10
324.0
 20
-409.4999999999999
 30
0.0
 40
9.0
  1
尺　　度
 41
0.8382352941176469
 72
     5
 11
358.2
 21
-409.4999999999999
 31
0.0
100
AcDbText
  0
TEXT
  5
44B
330
23
100
AcDbEntity
  8
20
100
AcDbText
 10
322.503213
 20
-367.487654
 30
0.0
 40
6.0
  1
ＦＩＧ．ＮＯ．
 41
0.9107142857142848
 72
     5
 11
363.303213
 21
-367.487654
 31
0.0
100
AcDbText
  0
TEXT
  5
44C
330
23
100
AcDbEntity
  8
20
100
AcDbText
 10
324.0
 20
-379.5
 30
0.0
 40
9.0
  1
名　　称
 41
0.8382352941176467
 72
     5
 11
358.2
 21
-379.5
 31
0.0
100
AcDbText
  0
TEXT
  5
44D
330
23
100
AcDbEntity
  8
20
100
AcDbText
 10
181.696575
 20
-379.410759
 30
0.0
 40
6.9
  1
ＴＯＭＯＥ　ＶＡＬＶＥ　ＣＯ．，ＬＴＤ．
 41
0.8583815028901733
 72
     5
 11
318.316575
 21
-379.410759
 31
0.0
100
AcDbText
  0
TEXT
  5
44E
330
23
100
AcDbEntity
  8
20
100
AcDbText
 10
202.5
 20
-399.869431
 30
0.0
 40
12.0
  1
巴バルブ株式会社
 41
0.8357142857142862
 72
     5
 11
296.1
 21
-399.869431
 31
0.0
100
AcDbText
  0
ENDSEC
  0
SECTION
  2
OBJECTS
  0
DICTIONARY
  5
48B
330
0
100
AcDbDictionary
281
     1
  3
ACAD_COLOR
350
4C2
  3
ACAD_GROUP
350
48C
  3
ACAD_LAYOUT
350
4EA
  3
ACAD_MATERIAL
350
498
  3
ACAD_MLEADERSTYLE
350
4E7
  3
ACAD_MLINESTYLE
350
48D
  3
ACAD_PLOTSETTINGS
350
4EB
  3
ACAD_PLOTSTYLENAME
350
496
  3
ACAD_SCALELIST
350
4C5
  3
ACAD_TABLESTYLE
350
4C3
  3
ACAD_VISUALSTYLE
350
4B1
  3
ACDB_RECOMPOSE_DATA
350
50D
  3
AcDbVariableDictionary
350
504
  3
DWGPROPS
350
50E
  0
DICTIONARY
  5
4F8
330
15
100
AcDbDictionary
280
     1
281
     1
  3
ADSK_XREC_LAYER_RECONCILED
360
4F9
  0
DICTIONARY
  5
4FA
330
16
100
AcDbDictionary
280
     1
281
     1
  3
ADSK_XREC_LAYER_RECONCILED
360
4FB
  0
DICTIONARY
  5
4FC
330
17
100
AcDbDictionary
280
     1
281
     1
  3
ADSK_XREC_LAYER_RECONCILED
360
4FD
  0
DICTIONARY
  5
4FE
330
18
100
AcDbDictionary
280
     1
281
     1
  3
ADSK_XREC_LAYER_RECONCILED
360
4FF
  0
DICTIONARY
  5
500
330
19
100
AcDbDictionary
280
     1
281
     1
  3
ADSK_XREC_LAYER_RECONCILED
360
501
  0
DICTIONARY
  5
502
330
1A
100
AcDbDictionary
280
     1
281
     1
  3
ADSK_XREC_LAYER_RECONCILED
360
503
  0
DICTIONARY
  5
4C2
102
{ACAD_REACTORS
330
48B
102
}
330
48B
100
AcDbDictionary
281
     1
  0
DICTIONARY
  5
48C
102
{ACAD_REACTORS
330
48B
102
}
330
48B
100
AcDbDictionary
281
     1
  0
DICTIONARY
  5
4EA
102
{ACAD_REACTORS
330
48B
102
}
330
48B
100
AcDbDictionary
281
     1
  3
Model
350
4EC
  3
レイアウト1
350
4ED
  0
DICTIONARY
  5
498
102
{ACAD_REACTORS
330
48B
102
}
330
48B
100
AcDbDictionary
281
     1
  3
ByBlock
350
4A1
  3
ByLayer
350
499
  3
Global
350
4A9
  0
DICTIONARY
  5
4E7
102
{ACAD_REACTORS
330
48B
102
}
330
48B
100
AcDbDictionary
281
     1
  3
Standard
350
4E8
  0
DICTIONARY
  5
48D
102
{ACAD_REACTORS
330
48B
102
}
330
48B
100
AcDbDictionary
281
     1
  3
STANDARD
350
48E
  0
DICTIONARY
  5
4EB
102
{ACAD_REACTORS
330
48B
102
}
330
48B
100
AcDbDictionary
281
     1
  0
ACDBDICTIONARYWDFLT
  5
496
102
{ACAD_REACTORS
330
48B
102
}
330
48B
100
AcDbDictionary
281
     1
  3
Normal
350
497
100
AcDbDictionaryWithDefault
340
497
  0
DICTIONARY
  5
4C5
102
{ACAD_REACTORS
330
48B
102
}
330
48B
100
AcDbDictionary
281
     1
  3
A0
350
4C6
  3
A1
350
4C7
  3
A2
350
4C8
  3
A3
350
4C9
  3
A4
350
4CA
  3
A5
350
4CB
  3
A6
350
4CC
  3
A7
350
4CD
  3
A8
350
4CE
  3
A9
350
4CF
  3
B0
350
4D0
  3
B1
350
4D1
  3
B2
350
4D2
  3
B3
350
4D3
  3
B4
350
4D4
  3
B5
350
4D5
  3
B6
350
4D6
  3
B7
350
4D7
  3
B8
350
4D8
  3
B9
350
4D9
  3
C0
350
4DA
  3
C1
350
4DB
  3
C2
350
4DC
  3
C3
350
4DD
  3
C4
350
4DE
  3
C5
350
4DF
  3
C6
350
4E0
  3
C7
350
4E1
  3
C8
350
4E2
  3
C9
350
4E3
  3
D0
350
4E4
  3
D1
350
4E5
  3
D2
350
4E6
  0
DICTIONARY
  5
4C3
102
{ACAD_REACTORS
330
48B
102
}
330
48B
100
AcDbDictionary
281
     1
  3
Standard
350
4C4
  0
DICTIONARY
  5
4B1
102
{ACAD_REACTORS
330
48B
102
}
330
48B
100
AcDbDictionary
281
     1
  3
2dWireframe
350
4B7
  3
3D Hidden
350
4B9
  3
3dWireframe
350
4B8
  3
Basic
350
4B6
  3
Brighten
350
4BD
  3
ColorChange
350
4C1
  3
Conceptual
350
4BA
  3
Dim
350
4BC
  3
Facepattern
350
4C0
  3
Flat
350
4B2
  3
FlatWithEdges
350
4B3
  3
Gouraud
350
4B4
  3
GouraudWithEdges
350
4B5
  3
Linepattern
350
4BF
  3
Realistic
350
4BB
  3
Thicken
350
4BE
  0
XRECORD
  5
50D
102
{ACAD_REACTORS
330
48B
102
}
330
48B
100
AcDbXrecord
280
     1
 90
        1
330
4C4
  0
DICTIONARY
  5
504
102
{ACAD_REACTORS
330
48B
102
}
330
48B
100
AcDbDictionary
281
     1
  3
CANNOSCALE
350
507
  3
CMLEADERSTYLE
350
506
  3
CTABLESTYLE
350
505
  3
DIMASSOC
350
50A
  3
INDEXCTL
350
509
  3
SORTENTS
350
508
  0
XRECORD
  5
50E
102
{ACAD_REACTORS
330
48B
102
}
330
48B
100
AcDbXrecord
280
     1
  1
DWGPROPS COOKIE
  2

  3

  4

  6

  7

  8
jaterika-arisa
  9

300
=
301
=
302
=
303
=
304
=
305
=
306
=
307
=
308
=
309
=
 40
0.0030632291666667
 41
2450291.0
 42
2454981.555023565
  1

 90
        0
  0
XRECORD
  5
4F9
102
{ACAD_REACTORS
330
4F8
102
}
330
4F8
100
AcDbXrecord
280
     1
290
     1
  0
XRECORD
  5
4FB
102
{ACAD_REACTORS
330
4FA
102
}
330
4FA
100
AcDbXrecord
280
     1
290
     1
  0
XRECORD
  5
4FD
102
{ACAD_REACTORS
330
4FC
102
}
330
4FC
100
AcDbXrecord
280
     1
290
     1
  0
XRECORD
  5
4FF
102
{ACAD_REACTORS
330
4FE
102
}
330
4FE
100
AcDbXrecord
280
     1
290
     1
  0
XRECORD
  5
501
102
{ACAD_REACTORS
330
500
102
}
330
500
100
AcDbXrecord
280
     1
290
     1
  0
XRECORD
  5
503
102
{ACAD_REACTORS
330
502
102
}
330
502
100
AcDbXrecord
280
     1
290
     1
  0
LAYOUT
  5
4EC
102
{ACAD_XDICTIONARY
360
513
102
}
102
{ACAD_REACTORS
330
4EA
102
}
330
4EA
100
AcDbPlotSettings
  1

  2
EMP03.pc3
  4
A3
  6

 40
5.873749732971191
 41
5.873747825622558
 42
5.873748779296875
 43
5.873748779296875
 44
419.9466552734374
 45
296.9259948730469
 46
14.08187820853467
 47
7.324547306209922
 48
0.0
 49
0.0
140
0.0
141
0.0
142
1.0
143
3.0
 70
 11940
 72
     1
 73
     0
 74
     1
  7
monochrome.ctb
 75
     0
147
0.5142741445636769
148
540.0604217663181
149
415.5489328271346
100
AcDbLayout
  1
Model
 70
     1
 71
     0
 10
0.0
 20
0.0
 11
12.0
 21
9.0
 12
0.0
 22
0.0
 32
0.0
 14
0.0
 24
0.0
 34
0.0
 15
0.0
 25
0.0
 35
0.0
146
0.0
 13
0.0
 23
0.0
 33
0.0
 16
1.0
 26
0.0
 36
0.0
 17
0.0
 27
1.0
 37
0.0
 76
     0
330
23
331
1B
1001
ACAD_PSEXT
1000
EMP03.pc3
1000
RICOH imagio Neo C325 RPCS
1000
192.168.12.233_@
1000
エンジニアリングセンター
1070
     0
  0
LAYOUT
  5
4ED
102
{ACAD_XDICTIONARY
360
515
102
}
102
{ACAD_REACTORS
330
4EA
102
}
330
4EA
100
AcDbPlotSettings
  1

  2
EMP01
  4

  6

 40
0.0
 41
0.0
 42
0.0
 43
0.0
 44
0.0
 45
0.0
 46
0.0
 47
0.0
 48
0.0
 49
0.0
140
0.0
141
0.0
142
1.0
143
1.0
 70
   688
 72
     0
 73
     0
 74
     5
  7
monochrome.ctb
 75
    16
147
1.0
148
0.0
149
0.0
100
AcDbLayout
  1
レイアウト1
 70
     0
 71
     1
 10
0.0
 20
0.0
 11
12.0
 21
9.0
 12
0.0
 22
0.0
 32
0.0
 14
1.000000000000000E+20
 24
1.000000000000000E+20
 34
1.000000000000000E+20
 15
-1.000000000000000E+20
 25
-1.000000000000000E+20
 35
-1.000000000000000E+20
146
0.0
 13
0.0
 23
0.0
 33
0.0
 16
1.0
 26
0.0
 36
0.0
 17
0.0
 27
1.0
 37
0.0
 76
     0
330
24
  0
MATERIAL
  5
4A1
102
{ACAD_XDICTIONARY
360
4A2
102
}
102
{ACAD_REACTORS
330
498
102
}
330
498
100
AcDbMaterial
  1
ByBlock
 72
     0
 43
0.0208333333333333
 43
0.0
 43
0.0
 43
0.0
 43
0.0
 43
0.0208333333333333
 43
0.0
 43
0.0
 43
0.0
 43
0.0
 43
1.0
 43
0.0
 43
0.0
 43
0.0
 43
0.0
 43
1.0
 77
     0
 47
0.0208333333333333
 47
0.0
 47
0.0
 47
0.0
 47
0.0
 47
0.0208333333333333
 47
0.0
 47
0.0
 47
0.0
 47
0.0
 47
1.0
 47
0.0
 47
0.0
 47
0.0
 47
0.0
 47
1.0
171
     0
 49
0.0208333333333333
 49
0.0
 49
0.0
 49
0.0
 49
0.0
 49
0.0208333333333333
 49
0.0
 49
0.0
 49
0.0
 49
0.0
 49
1.0
 49
0.0
 49
0.0
 49
0.0
 49
0.0
 49
1.0
175
     0
142
0.0208333333333333
142
0.0
142
0.0
142
0.0
142
0.0
142
0.0208333333333333
142
0.0
142
0.0
142
0.0
142
0.0
142
1.0
142
0.0
142
0.0
142
0.0
142
0.0
142
1.0
179
     0
144
0.0208333333333333
144
0.0
144
0.0
144
0.0
144
0.0
144
0.0208333333333333
144
0.0
144
0.0
144
0.0
144
0.0
144
1.0
144
0.0
144
0.0
144
0.0
144
0.0
144
1.0
147
0.0208333333333333
147
0.0
147
0.0
147
0.0
147
0.0
147
0.0208333333333333
147
0.0
147
0.0
147
0.0
147
0.0
147
1.0
147
0.0
147
0.0
147
0.0
147
0.0
147
1.0
  0
MATERIAL
  5
499
102
{ACAD_XDICTIONARY
360
49A
102
}
102
{ACAD_REACTORS
330
498
102
}
330
498
100
AcDbMaterial
  1
ByLayer
 72
     0
 43
0.0208333333333333
 43
0.0
 43
0.0
 43
0.0
 43
0.0
 43
0.0208333333333333
 43
0.0
 43
0.0
 43
0.0
 43
0.0
 43
1.0
 43
0.0
 43
0.0
 43
0.0
 43
0.0
 43
1.0
 77
     0
 47
0.0208333333333333
 47
0.0
 47
0.0
 47
0.0
 47
0.0
 47
0.0208333333333333
 47
0.0
 47
0.0
 47
0.0
 47
0.0
 47
1.0
 47
0.0
 47
0.0
 47
0.0
 47
0.0
 47
1.0
171
     0
 49
0.0208333333333333
 49
0.0
 49
0.0
 49
0.0
 49
0.0
 49
0.0208333333333333
 49
0.0
 49
0.0
 49
0.0
 49
0.0
 49
1.0
 49
0.0
 49
0.0
 49
0.0
 49
0.0
 49
1.0
175
     0
142
0.0208333333333333
142
0.0
142
0.0
142
0.0
142
0.0
142
0.0208333333333333
142
0.0
142
0.0
142
0.0
142
0.0
142
1.0
142
0.0
142
0.0
142
0.0
142
0.0
142
1.0
179
     0
144
0.0208333333333333
144
0.0
144
0.0
144
0.0
144
0.0
144
0.0208333333333333
144
0.0
144
0.0
144
0.0
144
0.0
144
1.0
144
0.0
144
0.0
144
0.0
144
0.0
144
1.0
147
0.0208333333333333
147
0.0
147
0.0
147
0.0
147
0.0
147
0.0208333333333333
147
0.0
147
0.0
147
0.0
147
0.0
147
1.0
147
0.0
147
0.0
147
0.0
147
0.0
147
1.0
  0
MATERIAL
  5
4A9
102
{ACAD_XDICTIONARY
360
4AA
102
}
102
{ACAD_REACTORS
330
498
102
}
330
498
100
AcDbMaterial
  1
Global
 72
     0
 43
0.0208333333333333
 43
0.0
 43
0.0
 43
0.0
 43
0.0
 43
0.0208333333333333
 43
0.0
 43
0.0
 43
0.0
 43
0.0
 43
1.0
 43
0.0
 43
0.0
 43
0.0
 43
0.0
 43
1.0
 77
     0
 47
0.0208333333333333
 47
0.0
 47
0.0
 47
0.0
 47
0.0
 47
0.0208333333333333
 47
0.0
 47
0.0
 47
0.0
 47
0.0
 47
1.0
 47
0.0
 47
0.0
 47
0.0
 47
0.0
 47
1.0
171
     0
 49
0.0208333333333333
 49
0.0
 49
0.0
 49
0.0
 49
0.0
 49
0.0208333333333333
 49
0.0
 49
0.0
 49
0.0
 49
0.0
 49
1.0
 49
0.0
 49
0.0
 49
0.0
 49
0.0
 49
1.0
175
     0
142
0.0208333333333333
142
0.0
142
0.0
142
0.0
142
0.0
142
0.0208333333333333
142
0.0
142
0.0
142
0.0
142
0.0
142
1.0
142
0.0
142
0.0
142
0.0
142
0.0
142
1.0
179
     0
144
0.0208333333333333
144
0.0
144
0.0
144
0.0
144
0.0
144
0.0208333333333333
144
0.0
144
0.0
144
0.0
144
0.0
144
1.0
144
0.0
144
0.0
144
0.0
144
0.0
144
1.0
147
0.0208333333333333
147
0.0
147
0.0
147
0.0
147
0.0
147
0.0208333333333333
147
0.0
147
0.0
147
0.0
147
0.0
147
1.0
147
0.0
147
0.0
147
0.0
147
0.0
147
1.0
  0
MLEADERSTYLE
  5
4E8
102
{ACAD_REACTORS
330
4E7
102
}
330
4E7
100
AcDbMLeaderStyle
170
     2
171
     1
172
     0
 90
        2
 40
0.0
 41
0.0
173
     1
 91
-1056964608
340
C
 92
       -2
290
     1
 42
0.09
291
     1
 43
0.36
  3
Standard
 44
0.18
300

342
1D
174
     1
178
     6
175
     1
176
     0
 93
-1056964608
 45
0.18
292
     0
297
     0
 46
0.18
 94
-1056964608
 47
1.0
 49
1.0
140
1.0
293
     1
141
0.0
294
     1
177
     0
142
1.0
295
     0
296
     0
143
0.125
1001
ACAD_MLEADERVER
1070
     2
  0
MLINESTYLE
  5
48E
102
{ACAD_REACTORS
330
48D
102
}
330
48D
100
AcDbMlineStyle
  2
STANDARD
 70
     0
  3

 62
     0
 51
90.0
 52
90.0
 71
     2
 49
0.5
 62
   256
  6
BYLAYER
 49
-0.5
 62
   256
  6
BYLAYER
  0
ACDBPLACEHOLDER
  5
497
102
{ACAD_REACTORS
330
496
102
}
330
496
  0
SCALE
  5
4C6
102
{ACAD_REACTORS
330
4C5
102
}
330
4C5
100
AcDbScale
 70
     0
300
1:1
140
1.0
141
1.0
290
     1
  0
SCALE
  5
4C7
102
{ACAD_REACTORS
330
4C5
102
}
330
4C5
100
AcDbScale
 70
     0
300
1:2
140
1.0
141
2.0
290
     0
  0
SCALE
  5
4C8
102
{ACAD_REACTORS
330
4C5
102
}
330
4C5
100
AcDbScale
 70
     0
300
1:4
140
1.0
141
4.0
290
     0
  0
SCALE
  5
4C9
102
{ACAD_REACTORS
330
4C5
102
}
330
4C5
100
AcDbScale
 70
     0
300
1:5
140
1.0
141
5.0
290
     0
  0
SCALE
  5
4CA
102
{ACAD_REACTORS
330
4C5
102
}
330
4C5
100
AcDbScale
 70
     0
300
1:8
140
1.0
141
8.0
290
     0
  0
SCALE
  5
4CB
102
{ACAD_REACTORS
330
4C5
102
}
330
4C5
100
AcDbScale
 70
     0
300
1:10
140
1.0
141
10.0
290
     0
  0
SCALE
  5
4CC
102
{ACAD_REACTORS
330
4C5
102
}
330
4C5
100
AcDbScale
 70
     0
300
1:16
140
1.0
141
16.0
290
     0
  0
SCALE
  5
4CD
102
{ACAD_REACTORS
330
4C5
102
}
330
4C5
100
AcDbScale
 70
     0
300
1:20
140
1.0
141
20.0
290
     0
  0
SCALE
  5
4CE
102
{ACAD_REACTORS
330
4C5
102
}
330
4C5
100
AcDbScale
 70
     0
300
1:30
140
1.0
141
30.0
290
     0
  0
SCALE
  5
4CF
102
{ACAD_REACTORS
330
4C5
102
}
330
4C5
100
AcDbScale
 70
     0
300
1:40
140
1.0
141
40.0
290
     0
  0
SCALE
  5
4D0
102
{ACAD_REACTORS
330
4C5
102
}
330
4C5
100
AcDbScale
 70
     0
300
1:50
140
1.0
141
50.0
290
     0
  0
SCALE
  5
4D1
102
{ACAD_REACTORS
330
4C5
102
}
330
4C5
100
AcDbScale
 70
     0
300
1:100
140
1.0
141
100.0
290
     0
  0
SCALE
  5
4D2
102
{ACAD_REACTORS
330
4C5
102
}
330
4C5
100
AcDbScale
 70
     0
300
2:1
140
2.0
141
1.0
290
     0
  0
SCALE
  5
4D3
102
{ACAD_REACTORS
330
4C5
102
}
330
4C5
100
AcDbScale
 70
     0
300
4:1
140
4.0
141
1.0
290
     0
  0
SCALE
  5
4D4
102
{ACAD_REACTORS
330
4C5
102
}
330
4C5
100
AcDbScale
 70
     0
300
8:1
140
8.0
141
1.0
290
     0
  0
SCALE
  5
4D5
102
{ACAD_REACTORS
330
4C5
102
}
330
4C5
100
AcDbScale
 70
     0
300
10:1
140
10.0
141
1.0
290
     0
  0
SCALE
  5
4D6
102
{ACAD_REACTORS
330
4C5
102
}
330
4C5
100
AcDbScale
 70
     0
300
100:1
140
100.0
141
1.0
290
     0
  0
SCALE
  5
4D7
102
{ACAD_REACTORS
330
4C5
102
}
330
4C5
100
AcDbScale
 70
     0
300
1/128" = 1'-0"
140
0.0078125
141
12.0
290
     0
  0
SCALE
  5
4D8
102
{ACAD_REACTORS
330
4C5
102
}
330
4C5
100
AcDbScale
 70
     0
300
1/64" = 1'-0"
140
0.015625
141
12.0
290
     0
  0
SCALE
  5
4D9
102
{ACAD_REACTORS
330
4C5
102
}
330
4C5
100
AcDbScale
 70
     0
300
1/32" = 1'-0"
140
0.03125
141
12.0
290
     0
  0
SCALE
  5
4DA
102
{ACAD_REACTORS
330
4C5
102
}
330
4C5
100
AcDbScale
 70
     0
300
1/16" = 1'-0"
140
0.0625
141
12.0
290
     0
  0
SCALE
  5
4DB
102
{ACAD_REACTORS
330
4C5
102
}
330
4C5
100
AcDbScale
 70
     0
300
3/32" = 1'-0"
140
0.09375
141
12.0
290
     0
  0
SCALE
  5
4DC
102
{ACAD_REACTORS
330
4C5
102
}
330
4C5
100
AcDbScale
 70
     0
300
1/8" = 1'-0"
140
0.125
141
12.0
290
     0
  0
SCALE
  5
4DD
102
{ACAD_REACTORS
330
4C5
102
}
330
4C5
100
AcDbScale
 70
     0
300
3/16" = 1'-0"
140
0.1875
141
12.0
290
     0
  0
SCALE
  5
4DE
102
{ACAD_REACTORS
330
4C5
102
}
330
4C5
100
AcDbScale
 70
     0
300
1/4" = 1'-0"
140
0.25
141
12.0
290
     0
  0
SCALE
  5
4DF
102
{ACAD_REACTORS
330
4C5
102
}
330
4C5
100
AcDbScale
 70
     0
300
3/8" = 1'-0"
140
0.375
141
12.0
290
     0
  0
SCALE
  5
4E0
102
{ACAD_REACTORS
330
4C5
102
}
330
4C5
100
AcDbScale
 70
     0
300
1/2" = 1'-0"
140
0.5
141
12.0
290
     0
  0
SCALE
  5
4E1
102
{ACAD_REACTORS
330
4C5
102
}
330
4C5
100
AcDbScale
 70
     0
300
3/4" = 1'-0"
140
0.75
141
12.0
290
     0
  0
SCALE
  5
4E2
102
{ACAD_REACTORS
330
4C5
102
}
330
4C5
100
AcDbScale
 70
     0
300
1" = 1'-0"
140
1.0
141
12.0
290
     0
  0
SCALE
  5
4E3
102
{ACAD_REACTORS
330
4C5
102
}
330
4C5
100
AcDbScale
 70
     0
300
1-1/2" = 1'-0"
140
1.5
141
12.0
290
     0
  0
SCALE
  5
4E4
102
{ACAD_REACTORS
330
4C5
102
}
330
4C5
100
AcDbScale
 70
     0
300
3" = 1'-0"
140
3.0
141
12.0
290
     0
  0
SCALE
  5
4E5
102
{ACAD_REACTORS
330
4C5
102
}
330
4C5
100
AcDbScale
 70
     0
300
6" = 1'-0"
140
6.0
141
12.0
290
     0
  0
SCALE
  5
4E6
102
{ACAD_REACTORS
330
4C5
102
}
330
4C5
100
AcDbScale
 70
     0
300
1'-0" = 1'-0"
140
12.0
141
12.0
290
     0
  0
TABLESTYLE
  5
4C4
102
{ACAD_XDICTIONARY
360
50B
102
}
102
{ACAD_REACTORS
330
4C3
102
}
330
4C3
100
AcDbTableStyle
  3
Standard
 70
     0
 71
     0
 40
0.06
 41
0.06
280
     0
281
     0
  7
STANDARD
140
0.18
170
     2
 62
     0
 63
     7
283
     0
274
    -2
284
     1
 64
     0
275
    -2
285
     1
 65
     0
276
    -2
286
     1
 66
     0
277
    -2
287
     1
 67
     0
278
    -2
288
     1
 68
     0
279
    -2
289
     1
 69
     0
  7
STANDARD
140
0.25
170
     5
 62
     0
 63
     7
283
     0
274
    -2
284
     1
 64
     0
275
    -2
285
     1
 65
     0
276
    -2
286
     1
 66
     0
277
    -2
287
     1
 67
     0
278
    -2
288
     1
 68
     0
279
    -2
289
     1
 69
     0
  7
STANDARD
140
0.18
170
     5
 62
     0
 63
     7
283
     0
274
    -2
284
     1
 64
     0
275
    -2
285
     1
 65
     0
276
    -2
286
     1
 66
     0
277
    -2
287
     1
 67
     0
278
    -2
288
     1
 68
     0
279
    -2
289
     1
 69
     0
  0
VISUALSTYLE
  5
4B7
102
{ACAD_REACTORS
330
4B1
102
}
330
4B1
100
AcDbVisualStyle
  2
2dWireframe
 70
     4
 71
     0
 72
     2
 73
     0
 90
        0
 40
-0.6
 41
-30.0
 62
     5
 63
     7
 74
     1
 91
        4
 64
     7
 65
   257
 75
     1
175
     1
 42
1.0
 92
        0
 66
   257
 43
1.0
 76
     1
 77
     6
 78
     2
 67
     7
 79
     5
170
     0
171
     0
290
     0
174
     0
 93
        1
 44
0.0
173
     0
291
     0
 45
0.0
1001
ACAD
1000
AcDbSavedByObjectVersion
1070
     0
  0
VISUALSTYLE
  5
4B9
102
{ACAD_REACTORS
330
4B1
102
}
330
4B1
100
AcDbVisualStyle
  2
3D Hidden
 70
     6
 71
     1
 72
     2
 73
     2
 90
        0
 40
-0.6
 41
-30.0
 62
     5
 63
     7
 74
     2
 91
        2
 64
     7
 65
   257
 75
     2
175
     1
 42
40.0
 92
        0
 66
   257
 43
1.0
 76
     1
 77
     6
 78
     2
 67
     7
 79
     3
170
     0
171
     0
290
     0
174
     0
 93
        1
 44
0.0
173
     0
291
     0
 45
0.0
1001
ACAD
1000
AcDbSavedByObjectVersion
1070
     0
  0
VISUALSTYLE
  5
4B8
102
{ACAD_REACTORS
330
4B1
102
}
330
4B1
100
AcDbVisualStyle
  2
3dWireframe
 70
     5
 71
     0
 72
     2
 73
     0
 90
        0
 40
-0.6
 41
-30.0
 62
     5
 63
     7
 74
     1
 91
        4
 64
     7
 65
   257
 75
     1
175
     1
 42
1.0
 92
        0
 66
   257
 43
1.0
 76
     1
 77
     6
 78
     2
 67
     7
 79
     5
170
     0
171
     0
290
     0
174
     0
 93
        1
 44
0.0
173
     0
291
     0
 45
0.0
1001
ACAD
1000
AcDbSavedByObjectVersion
1070
     0
  0
VISUALSTYLE
  5
4B6
102
{ACAD_REACTORS
330
4B1
102
}
330
4B1
100
AcDbVisualStyle
  2
Basic
 70
     7
 71
     1
 72
     0
 73
     1
 90
        0
 40
-0.6
 41
-30.0
 62
     5
 63
     7
 74
     0
 91
        4
 64
     7
 65
   257
 75
     1
175
     1
 42
1.0
 92
        8
 66
     7
 43
1.0
 76
     1
 77
     6
 78
     2
 67
     7
 79
     5
170
     0
171
     0
290
     0
174
     0
 93
        1
 44
0.0
173
     0
291
     1
 45
0.0
1001
ACAD
1000
AcDbSavedByObjectVersion
1070
     0
  0
VISUALSTYLE
  5
4BD
102
{ACAD_REACTORS
330
4B1
102
}
330
4B1
100
AcDbVisualStyle
  2
Brighten
 70
    12
 71
     2
 72
     2
 73
     0
 90
        0
 40
-0.6
 41
-30.0
 62
     5
 63
     7
 74
     1
 91
        4
 64
     7
 65
   257
 75
     1
175
     1
 42
1.0
 92
        8
 66
     7
 43
1.0
 76
     1
 77
     6
 78
     2
 67
     7
 79
     5
170
     0
171
     0
290
     0
174
     0
 93
        1
 44
50.0
173
     0
291
     1
 45
0.0
1001
ACAD
1000
AcDbSavedByObjectVersion
1070
     0
  0
VISUALSTYLE
  5
4C1
102
{ACAD_REACTORS
330
4B1
102
}
330
4B1
100
AcDbVisualStyle
  2
ColorChange
 70
    16
 71
     2
 72
     2
 73
     3
 90
        0
 40
-0.6
 41
-30.0
 62
     5
 63
     8
 74
     1
 91
        4
 64
     7
 65
   257
 75
     1
175
     1
 42
1.0
 92
        8
 66
     8
 43
1.0
 76
     1
 77
     6
 78
     2
 67
     7
 79
     5
170
     0
171
     0
290
     0
174
     0
 93
        1
 44
0.0
173
     0
291
     1
 45
0.0
1001
ACAD
1000
AcDbSavedByObjectVersion
1070
     0
  0
VISUALSTYLE
  5
4BA
102
{ACAD_REACTORS
330
4B1
102
}
330
4B1
100
AcDbVisualStyle
  2
Conceptual
 70
     9
 71
     3
 72
     2
 73
     0
 90
        0
 40
-0.6
 41
-30.0
 62
     5
 63
     7
 74
     2
 91
        2
 64
     7
 65
   257
 75
     1
175
     1
 42
40.0
 92
        8
 66
     7
 43
1.0
 76
     1
 77
     6
 78
     2
 67
     7
 79
     3
170
     0
171
     0
290
     0
174
     0
 93
        1
 44
0.0
173
     0
291
     0
 45
0.0
1001
ACAD
1000
AcDbSavedByObjectVersion
1070
     0
  0
VISUALSTYLE
  5
4BC
102
{ACAD_REACTORS
330
4B1
102
}
330
4B1
100
AcDbVisualStyle
  2
Dim
 70
    11
 71
     2
 72
     2
 73
     0
 90
        0
 40
-0.6
 41
-30.0
 62
     5
 63
     7
 74
     1
 91
        4
 64
     7
 65
   257
 75
     1
175
     1
 42
1.0
 92
        8
 66
     7
 43
1.0
 76
     1
 77
     6
 78
     2
 67
     7
 79
     5
170
     0
171
     0
290
     0
174
     0
 93
        1
 44
-50.0
173
     0
291
     1
 45
0.0
1001
ACAD
1000
AcDbSavedByObjectVersion
1070
     0
  0
VISUALSTYLE
  5
4C0
102
{ACAD_REACTORS
330
4B1
102
}
330
4B1
100
AcDbVisualStyle
  2
Facepattern
 70
    15
 71
     2
 72
     2
 73
     0
 90
        0
 40
-0.6
 41
-30.0
 62
     5
 63
     7
 74
     1
 91
        4
 64
     7
 65
   257
 75
     1
175
     1
 42
1.0
 92
        8
 66
     7
 43
1.0
 76
     1
 77
     6
 78
     2
 67
     7
 79
     5
170
     0
171
     0
290
     0
174
     0
 93
        1
 44
0.0
173
     0
291
     1
 45
0.0
1001
ACAD
1000
AcDbSavedByObjectVersion
1070
     0
  0
VISUALSTYLE
  5
4B2
102
{ACAD_REACTORS
330
4B1
102
}
330
4B1
100
AcDbVisualStyle
  2
Flat
 70
     0
 71
     2
 72
     1
 73
     1
 90
        2
 40
-0.6
 41
30.0
 62
     5
 63
     7
 74
     0
 91
        4
 64
     7
 65
   257
 75
     1
175
     1
 42
1.0
 92
        8
 66
     7
 43
1.0
 76
     1
 77
     6
 78
     2
 67
     7
 79
     5
170
     0
171
     0
290
     0
174
     0
 93
       13
 44
0.0
173
     0
291
     1
 45
0.0
1001
ACAD
1000
AcDbSavedByObjectVersion
1070
     0
  0
VISUALSTYLE
  5
4B3
102
{ACAD_REACTORS
330
4B1
102
}
330
4B1
100
AcDbVisualStyle
  2
FlatWithEdges
 70
     1
 71
     2
 72
     1
 73
     1
 90
        2
 40
-0.6
 41
30.0
 62
     5
 63
     7
 74
     1
 91
        4
 64
     7
 65
   257
 75
     1
175
     1
 42
1.0
 92
        0
 66
   257
 43
1.0
 76
     1
 77
     6
 78
     2
 67
     7
 79
     5
170
     0
171
     0
290
     0
174
     0
 93
       13
 44
0.0
173
     0
291
     1
 45
0.0
1001
ACAD
1000
AcDbSavedByObjectVersion
1070
     0
  0
VISUALSTYLE
  5
4B4
102
{ACAD_REACTORS
330
4B1
102
}
330
4B1
100
AcDbVisualStyle
  2
Gouraud
 70
     2
 71
     2
 72
     2
 73
     1
 90
        2
 40
-0.6
 41
30.0
 62
     5
 63
     7
 74
     0
 91
        4
 64
     7
 65
   257
 75
     1
175
     1
 42
1.0
 92
        0
 66
     7
 43
1.0
 76
     1
 77
     6
 78
     2
 67
     7
 79
     5
170
     0
171
     0
290
     0
174
     0
 93
       13
 44
0.0
173
     0
291
     1
 45
0.0
1001
ACAD
1000
AcDbSavedByObjectVersion
1070
     0
  0
VISUALSTYLE
  5
4B5
102
{ACAD_REACTORS
330
4B1
102
}
330
4B1
100
AcDbVisualStyle
  2
GouraudWithEdges
 70
     3
 71
     2
 72
     2
 73
     1
 90
        2
 40
-0.6
 41
30.0
 62
     5
 63
     7
 74
     1
 91
        4
 64
     7
 65
   257
 75
     1
175
     1
 42
1.0
 92
        0
 66
   257
 43
1.0
 76
     1
 77
     6
 78
     2
 67
     7
 79
     5
170
     0
171
     0
290
     0
174
     0
 93
       13
 44
0.0
173
     0
291
     1
 45
0.0
1001
ACAD
1000
AcDbSavedByObjectVersion
1070
     0
  0
VISUALSTYLE
  5
4BF
102
{ACAD_REACTORS
330
4B1
102
}
330
4B1
100
AcDbVisualStyle
  2
Linepattern
 70
    14
 71
     2
 72
     2
 73
     0
 90
        0
 40
-0.6
 41
-30.0
 62
     5
 63
     7
 74
     1
 91
        4
 64
     7
 65
   257
 75
     7
175
     7
 42
1.0
 92
        8
 66
     7
 43
1.0
 76
     1
 77
     6
 78
     2
 67
     7
 79
     5
170
     0
171
     0
290
     0
174
     0
 93
        1
 44
0.0
173
     0
291
     1
 45
0.0
1001
ACAD
1000
AcDbSavedByObjectVersion
1070
     0
  0
VISUALSTYLE
  5
4BB
102
{ACAD_REACTORS
330
4B1
102
}
330
4B1
100
AcDbVisualStyle
  2
Realistic
 70
     8
 71
     2
 72
     2
 73
     0
 90
        0
 40
-0.6
 41
-30.0
 62
     5
 63
     7
 74
     1
 91
        0
 64
     7
 65
   257
 75
     1
175
     1
 42
1.0
 92
        8
 66
     8
 43
1.0
 76
     1
 77
     6
 78
     2
 67
     7
 79
     5
170
     0
171
     0
290
     0
174
     0
 93
       13
 44
0.0
173
     0
291
     0
 45
0.0
1001
ACAD
1000
AcDbSavedByObjectVersion
1070
     0
  0
VISUALSTYLE
  5
4BE
102
{ACAD_REACTORS
330
4B1
102
}
330
4B1
100
AcDbVisualStyle
  2
Thicken
 70
    13
 71
     2
 72
     2
 73
     0
 90
        0
 40
-0.6
 41
-30.0
 62
     5
 63
     7
 74
     1
 91
        4
 64
     7
 65
   257
 75
     1
175
     1
 42
1.0
 92
       12
 66
     7
 43
1.0
 76
     1
 77
     6
 78
     2
 67
     7
 79
     5
170
     0
171
     0
290
     0
174
     0
 93
        1
 44
0.0
173
     0
291
     1
 45
0.0
1001
ACAD
1000
AcDbSavedByObjectVersion
1070
     0
  0
DICTIONARYVAR
  5
507
102
{ACAD_REACTORS
330
504
102
}
330
504
100
DictionaryVariables
280
     0
  1
1:1
  0
DICTIONARYVAR
  5
506
102
{ACAD_REACTORS
330
504
102
}
330
504
100
DictionaryVariables
280
     0
  1
STANDARD
  0
DICTIONARYVAR
  5
505
102
{ACAD_REACTORS
330
504
102
}
330
504
100
DictionaryVariables
280
     0
  1
STANDARD
  0
DICTIONARYVAR
  5
50A
102
{ACAD_REACTORS
330
504
102
}
330
504
100
DictionaryVariables
280
     0
  1
1
  0
DICTIONARYVAR
  5
509
102
{ACAD_REACTORS
330
504
102
}
330
504
100
DictionaryVariables
280
     0
  1
0
  0
DICTIONARYVAR
  5
508
102
{ACAD_REACTORS
330
504
102
}
330
504
100
DictionaryVariables
280
     0
  1
127
  0
DICTIONARY
  5
513
330
4EC
100
AcDbDictionary
280
     1
281
     1
  3
ACAD_XREC_ROUNDTRIP
360
514
  0
DICTIONARY
  5
515
330
4ED
100
AcDbDictionary
280
     1
281
     1
  3
ACAD_XREC_ROUNDTRIP
360
516
  0
DICTIONARY
  5
4A2
330
4A1
100
AcDbDictionary
280
     1
281
     1
  3
ACAD_XREC_ROUNDTRIP
360
510
  3
BUMPTILE
360
4A4
  3
DIFFUSETILE
360
4A3
  3
OPACITYTILE
360
4A7
  3
REFLECTIONTILE
360
4A6
  3
REFRACTIONTILE
360
4A8
  3
SPECULARTILE
360
4A5
  0
DICTIONARY
  5
49A
330
499
100
AcDbDictionary
280
     1
281
     1
  3
ACAD_XREC_ROUNDTRIP
360
50F
  3
BUMPTILE
360
49C
  3
DIFFUSETILE
360
49B
  3
OPACITYTILE
360
49F
  3
REFLECTIONTILE
360
49E
  3
REFRACTIONTILE
360
4A0
  3
SPECULARTILE
360
49D
  0
DICTIONARY
  5
4AA
330
4A9
100
AcDbDictionary
280
     1
281
     1
  3
ACAD_XREC_ROUNDTRIP
360
511
  3
BUMPTILE
360
4AC
  3
DIFFUSETILE
360
4AB
  3
OPACITYTILE
360
4AF
  3
REFLECTIONTILE
360
4AE
  3
REFRACTIONTILE
360
4B0
  3
SPECULARTILE
360
4AD
  0
DICTIONARY
  5
50B
330
4C4
100
AcDbDictionary
280
     1
281
     1
  3
ACAD_ROUNDTRIP_2008_TABLESTYLE_CELLSTYLEMAP
360
50C
  3
ACAD_XREC_ROUNDTRIP
360
512
  0
XRECORD
  5
514
102
{ACAD_REACTORS
330
513
102
}
330
513
100
AcDbXrecord
280
     1
102
SHADEPLOT
 70
     0
102
SHADEPLOTRESLEVEL
 70
     2
102
SHADEPLOTCUSTOMDPI
 70
   300
  0
XRECORD
  5
516
102
{ACAD_REACTORS
330
515
102
}
330
515
100
AcDbXrecord
280
     1
102
SHADEPLOT
 70
     0
102
SHADEPLOTRESLEVEL
 70
     2
102
SHADEPLOTCUSTOMDPI
 70
   300
  0
XRECORD
  5
510
102
{ACAD_REACTORS
330
4A2
102
}
330
4A2
100
AcDbXrecord
280
     1
102
MATERIAL
148
0.0
149
0.0
149
0.0
 93
        0
 94
      127
282
     0
 72
     0
 77
     0
171
     0
175
     0
179
     0
273
     0
  0
XRECORD
  5
4A4
102
{ACAD_REACTORS
330
4A2
102
}
330
4A2
100
AcDbXrecord
280
     1
270
     1
271
     1
  0
XRECORD
  5
4A3
102
{ACAD_REACTORS
330
4A2
102
}
330
4A2
100
AcDbXrecord
280
     1
270
     1
271
     1
  0
XRECORD
  5
4A7
102
{ACAD_REACTORS
330
4A2
102
}
330
4A2
100
AcDbXrecord
280
     1
270
     1
271
     1
  0
XRECORD
  5
4A6
102
{ACAD_REACTORS
330
4A2
102
}
330
4A2
100
AcDbXrecord
280
     1
270
     1
271
     1
  0
XRECORD
  5
4A8
102
{ACAD_REACTORS
330
4A2
102
}
330
4A2
100
AcDbXrecord
280
     1
270
     1
271
     1
  0
XRECORD
  5
4A5
102
{ACAD_REACTORS
330
4A2
102
}
330
4A2
100
AcDbXrecord
280
     1
270
     1
271
     1
  0
XRECORD
  5
50F
102
{ACAD_REACTORS
330
49A
102
}
330
49A
100
AcDbXrecord
280
     1
102
MATERIAL
148
0.0
149
0.0
149
0.0
 93
        0
 94
      127
282
     0
 72
     0
 77
     0
171
     0
175
     0
179
     0
273
     0
  0
XRECORD
  5
49C
102
{ACAD_REACTORS
330
49A
102
}
330
49A
100
AcDbXrecord
280
     1
270
     1
271
     1
  0
XRECORD
  5
49B
102
{ACAD_REACTORS
330
49A
102
}
330
49A
100
AcDbXrecord
280
     1
270
     1
271
     1
  0
XRECORD
  5
49F
102
{ACAD_REACTORS
330
49A
102
}
330
49A
100
AcDbXrecord
280
     1
270
     1
271
     1
  0
XRECORD
  5
49E
102
{ACAD_REACTORS
330
49A
102
}
330
49A
100
AcDbXrecord
280
     1
270
     1
271
     1
  0
XRECORD
  5
4A0
102
{ACAD_REACTORS
330
49A
102
}
330
49A
100
AcDbXrecord
280
     1
270
     1
271
     1
  0
XRECORD
  5
49D
102
{ACAD_REACTORS
330
49A
102
}
330
49A
100
AcDbXrecord
280
     1
270
     1
271
     1
  0
XRECORD
  5
511
102
{ACAD_REACTORS
330
4AA
102
}
330
4AA
100
AcDbXrecord
280
     1
102
MATERIAL
148
0.0
149
0.0
149
0.0
 93
        0
 94
      127
282
     0
 72
     0
 77
     0
171
     0
175
     0
179
     0
273
     0
  0
XRECORD
  5
4AC
102
{ACAD_REACTORS
330
4AA
102
}
330
4AA
100
AcDbXrecord
280
     1
270
     1
271
     1
  0
XRECORD
  5
4AB
102
{ACAD_REACTORS
330
4AA
102
}
330
4AA
100
AcDbXrecord
280
     1
270
     1
271
     1
  0
XRECORD
  5
4AF
102
{ACAD_REACTORS
330
4AA
102
}
330
4AA
100
AcDbXrecord
280
     1
270
     1
271
     1
  0
XRECORD
  5
4AE
102
{ACAD_REACTORS
330
4AA
102
}
330
4AA
100
AcDbXrecord
280
     1
270
     1
271
     1
  0
XRECORD
  5
4B0
102
{ACAD_REACTORS
330
4AA
102
}
330
4AA
100
AcDbXrecord
280
     1
270
     1
271
     1
  0
XRECORD
  5
4AD
102
{ACAD_REACTORS
330
4AA
102
}
330
4AA
100
AcDbXrecord
280
     1
270
     1
271
     1
  0
CELLSTYLEMAP
  5
50C
102
{ACAD_REACTORS
330
50B
102
}
330
50B
100
AcDbCellStyleMap
 90
        3
300
CELLSTYLE
  1
TABLEFORMAT_BEGIN
 90
        5
170
     1
 91
        0
 92
    32768
 62
   257
 93
        1
300
CONTENTFORMAT
  1
CONTENTFORMAT_BEGIN
 90
        0
 91
        0
 92
      512
 93
        0
300

 40
0.0
140
1.0
 94
        5
 62
     0
340
1D
144
0.25
309
CONTENTFORMAT_END
171
     0
 94
        0
309
TABLEFORMAT_END
  1
CELLSTYLE_BEGIN
 90
        1
 91
        1
300
_TITLE
309
CELLSTYLE_END
300
CELLSTYLE
  1
TABLEFORMAT_BEGIN
 90
        5
170
     1
 91
        0
 92
        0
 62
   257
 93
        1
300
CONTENTFORMAT
  1
CONTENTFORMAT_BEGIN
 90
        0
 91
        0
 92
      512
 93
        0
300

 40
0.0
140
1.0
 94
        5
 62
     0
340
1D
144
0.18
309
CONTENTFORMAT_END
171
     0
 94
        0
309
TABLEFORMAT_END
  1
CELLSTYLE_BEGIN
 90
        2
 91
        1
300
_HEADER
309
CELLSTYLE_END
300
CELLSTYLE
  1
TABLEFORMAT_BEGIN
 90
        5
170
     1
 91
        0
 92
        0
 62
   257
 93
        1
300
CONTENTFORMAT
  1
CONTENTFORMAT_BEGIN
 90
        0
 91
        0
 92
      512
 93
        0
300

 40
0.0
140
1.0
 94
        2
 62
     0
340
1D
144
0.18
309
CONTENTFORMAT_END
171
     0
 94
        0
309
TABLEFORMAT_END
  1
CELLSTYLE_BEGIN
 90
        3
 91
        2
300
_DATA
309
CELLSTYLE_END
  0
XRECORD
  5
512
102
{ACAD_REACTORS
330
50B
102
}
330
50B
100
AcDbXrecord
280
     1
102
ACAD_ROUNDTRIP_PRE2007_TABLESTYLE
 90
      512
 91
        0
  1

 92
      512
 93
        0
  2

 94
      512
 95
        0
  3

  0
ENDSEC
  0
EOF
