  0
SECTION
  2
HEADER
  9
$ACADVER
  1
AC1012
  9
$DWGCODEPAGE
  3
ansi_932
  9
$INSBASE
 10
0.0
 20
0.0
 30
0.0
  9
$EXTMIN
 10
-840.0
 20
-594.0
 30
1.000000E+20
  9
$EXTMAX
 10
840.0
 20
594.0
 30
-1.000000E+20
  9
$LIMMIN
 10
-840.0
 20
-594.0
  9
$LIMMAX
 10
840.0
 20
594.0
  9
$ORTHOMODE
 70
     0
  9
$REGENMODE
 70
     1
  9
$FILLMODE
 70
     1
  9
$QTEXTMODE
 70
     0
  9
$MIRRTEXT
 70
     1
  9
$DRAGMODE
 70
     2
  9
$LTSCALE
 40
1.0
  9
$OSMODE
 70
     0
  9
$ATTMODE
 70
     1
  9
$TEXTSIZE
 40
0.2
  9
$TRACEWID
 40
0.05
  9
$TEXTSTYLE
  7
STANDARD
  9
$CLAYER
  8
0
  9
$CELTYPE
  6
CONTINUOUS
  9
$CECOLOR
 62
   256
  9
$CELTSCALE
 40
1.0
  9
$DELOBJ
 70
     1
  9
$DISPSILH
 70
     0
  9
$DIMSCALE
 40
4.0
  9
$DIMASZ
 40
0.18
  9
$DIMEXO
 40
0.0625
  9
$DIMDLI
 40
0.38
  9
$DIMRND
 40
0.0
  9
$DIMDLE
 40
0.0
  9
$DIMEXE
 40
0.18
  9
$DIMTP
 40
0.0
  9
$DIMTM
 40
0.0
  9
$DIMTXT
 40
0.18
  9
$DIMCEN
 40
0.09
  9
$DIMTSZ
 40
0.0
  9
$DIMTOL
 70
     0
  9
$DIMLIM
 70
     0
  9
$DIMTIH
 70
     1
  9
$DIMTOH
 70
     1
  9
$DIMSE1
 70
     0
  9
$DIMSE2
 70
     0
  9
$DIMTAD
 70
     1
  9
$DIMZIN
 70
     0
  9
$DIMBLK
  1

  9
$DIMASO
 70
     1
  9
$DIMSHO
 70
     1
  9
$DIMPOST
  1

  9
$DIMAPOST
  1

  9
$DIMALT
 70
     0
  9
$DIMALTD
 70
     2
  9
$DIMALTF
 40
25.4
  9
$DIMLFAC
 40
1.0
  9
$DIMTOFL
 70
     0
  9
$DIMTVP
 40
0.0
  9
$DIMTIX
 70
     0
  9
$DIMSOXD
 70
     0
  9
$DIMSAH
 70
     0
  9
$DIMBLK1
  1

  9
$DIMBLK2
  1

  9
$DIMSTYLE
  2
STANDARD
  9
$DIMCLRD
 70
     0
  9
$DIMCLRE
 70
     0
  9
$DIMCLRT
 70
     0
  9
$DIMTFAC
 40
1.0
  9
$DIMGAP
 40
0.09
  9
$DIMJUST
 70
     0
  9
$DIMSD1
 70
     0
  9
$DIMSD2
 70
     0
  9
$DIMTOLJ
 70
     1
  9
$DIMTZIN
 70
     0
  9
$DIMALTZ
 70
     0
  9
$DIMALTTZ
 70
     0
  9
$DIMFIT
 70
     3
  9
$DIMUPT
 70
     0
  9
$DIMUNIT
 70
     2
  9
$DIMDEC
 70
     4
  9
$DIMTDEC
 70
     4
  9
$DIMALTU
 70
     2
  9
$DIMALTTD
 70
     2
  9
$DIMTXSTY
  7
STANDARD
  9
$DIMAUNIT
 70
     0
  9
$LUNITS
 70
     2
  9
$LUPREC
 70
     4
  9
$SKETCHINC
 40
0.1
  9
$FILLETRAD
 40
0.0
  9
$AUNITS
 70
     0
  9
$AUPREC
 70
     0
  9
$MENU
  1
acad
  9
$ELEVATION
 40
0.0
  9
$PELEVATION
 40
0.0
  9
$THICKNESS
 40
0.0
  9
$LIMCHECK
 70
     0
  9
$BLIPMODE
 70
     1
  9
$CHAMFERA
 40
0.0
  9
$CHAMFERB
 40
0.0
  9
$CHAMFERC
 40
0.0
  9
$CHAMFERD
 40
0.0
  9
$SKPOLY
 70
     0
  9
$TDCREATE
 40
2450291.000000000
  9
$TDUPDATE
 40
0.000000000
  9
$TDINDWG
 40
0.0000000000
  9
$TDUSRTIMER
 40
0.0000000000
  9
$USRTIMER
 70
     1
  9
$ANGBASE
 50
0.0
  9
$ANGDIR
 70
     0
  9
$PDMODE
 70
     0
  9
$PDSIZE
 40
0.0
  9
$PLINEWID
 40
0.0
  9
$COORDS
 70
     0
  9
$SPLFRAME
 70
     0
  9
$SPLINETYPE
 70
     6
  9
$SPLINESEGS
 70
     8
  9
$ATTDIA
 70
     0
  9
$ATTREQ
 70
     1
  9
$HANDLING
 70
     1
  9
$HANDSEED
  5
523
  9
$SURFTAB1
 70
     6
  9
$SURFTAB2
 70
     6
  9
$SURFTYPE
 70
     6
  9
$SURFU
 70
     6
  9
$SURFV
 70
     6
  9
$UCSNAME
  2

  9
$UCSORG
 10
0.0
 20
0.0
 30
0.0
  9
$UCSXDIR
 10
1.0
 20
0.0
 30
0.0
  9
$UCSYDIR
 10
0.0
 20
1.0
 30
0.0
  9
$PUCSNAME
  2

  9
$PUCSORG
 10
0.0
 20
0.0
 30
0.0
  9
$PUCSXDIR
 10
1.0
 20
0.0
 30
0.0
  9
$PUCSYDIR
 10
0.0
 20
1.0
 30
0.0
  9
$USERI1
 70
     0
  9
$USERI2
 70
     0
  9
$USERI3
 70
     0
  9
$USERI4
 70
     0
  9
$USERI5
 70
     0
  9
$USERR1
 40
0.0
  9
$USERR2
 40
0.0
  9
$USERR3
 40
0.0
  9
$USERR4
 40
0.0
  9
$USERR5
 40
0.0
  9
$WORLDVIEW
 70
     1
  9
$SHADEDGE
 70
     3
  9
$SHADEDIF
 70
    70
  9
$TILEMODE
 70
     1
  9
$MAXACTVP
 70
    16
  9
$PINSBASE
 10
0.0
 20
0.0
 30
0.0
  9
$PLIMCHECK
 70
     0
  9
$PEXTMIN
 10
1.000000E+20
 20
1.000000E+20
 30
1.000000E+20
  9
$PEXTMAX
 10
-1.000000E+20
 20
-1.000000E+20
 30
-1.000000E+20
  9
$PLIMMIN
 10
0.0
 20
0.0
  9
$PLIMMAX
 10
12.0
 20
9.0
  9
$UNITMODE
 70
     0
  9
$VISRETAIN
 70
     0
  9
$PLINEGEN
 70
     1
  9
$PSLTSCALE
 70
     0
  9
$TREEDEPTH
 70
  3020
  9
$PICKSTYLE
 70
     1
  9
$CMLSTYLE
  2
STANDARD
  9
$CMLJUST
 70
     0
  9
$CMLSCALE
 40
1.0
  9
$SAVEIMAGES
 70
     0
  0
ENDSEC
  0
SECTION
  2
CLASSES
  0
CLASS
  1
LWPOLYLINE
  2
AcDbPolyline
  3
"AutoCAD"
 90
    32768
280
     0
281
     1
  0
CLASS
  1
IMAGE
  2
AcDbRasterImage
  3
ISM
 90
    32895
280
     0
281
     1
  0
CLASS
  1
OLE2FRAME
  2
AcDbOle2Frame
  3
""
 90
    32768
280
     0
281
     1
  0
CLASS
  1
HATCH
  2
AcDbHatch
  3
"ACAD_SEDONA"
 90
    32768
280
     0
281
     1
  0
CLASS
  1
DICTIONARYVAR
  2
AcDbDictionaryVar
  3
"AutoCAD"
 90
    32768
280
     0
281
     0
  0
CLASS
  1
RASTERVARIABLES
  2
AcDbRasterVariables
  3
ISM
 90
    32768
280
     0
281
     0
  0
CLASS
  1
IMAGEDEF
  2
AcDbRasterImageDef
  3
ISM
 90
    32768
280
     0
281
     0
  0
CLASS
  1
IMAGEDEF_REACTOR
  2
AcDbRasterImageDefReactor
  3
ISM
 90
    32769
280
     0
281
     0
  0
CLASS
  1
IDBUFFER
  2
AcDbIdBuffer
  3
"Acad"
 90
    32768
280
     0
281
     0
  0
CLASS
  1
SPATIAL_FILTER
  2
AcDbSpatialFilter
  3
"Acad"
 90
    32768
280
     0
281
     0
  0
CLASS
  1
XRECORD
  2
AcDbXrecord
  3
"<Built In>"
 90
    32768
280
     0
281
     0
  0
CLASS
  1
SORTENTSTABLE
  2
AcDbSortentsTable
  3
"AutoCAD"
 90
    32768
280
     0
281
     0
  0
CLASS
  1
LAYER_INDEX
  2
AcDbLayerIndex
  3
"Acad"
 90
    32768
280
     0
281
     0
  0
CLASS
  1
SPATIAL_INDEX
  2
AcDbSpatialIndex
  3
"Acad"
 90
    32768
280
     0
281
     0
  0
CLASS
  1
OBJECT_PTR
  2
CAseDLPNTableRecord
  3
"ASE-LPNTableRecord"
 90
    32769
280
     0
281
     0
  0
CLASS
  1
LAYOUT
  2
AcDbLayout
  3
"AutoCAD 2000"
 90
    32768
280
     0
281
     0
  0
CLASS
  1
PLOTSETTINGS
  2
AcDbPlotSettings
  3
"AutoCAD 2000"
 90
    32768
280
     0
281
     0
  0
CLASS
  1
ACDBDICTIONARYWDFLT
  2
AcDbDictionaryWithDefault
  3
"AutoCAD 2000"
 90
    32768
280
     0
281
     0
  0
CLASS
  1
ACDBPLACEHOLDER
  2
AcDbPlaceHolder
  3
"AutoCAD 2000"
 90
    32768
280
     0
281
     0
  0
CLASS
  1
VBA_PROJECT
  2
AcDbVbaProject
  3
"acadvba"
 90
    32768
280
     0
281
     0
  0
CLASS
  1
WIPEOUT
  2
AcDbWipeout
  3
WipeOut|AutoCAD Express Tool|expresstools@autodesk.com
 90
    32895
280
     0
281
     1
  0
CLASS
  1
WIPEOUTVARIABLES
  2
AcDbWipeoutVariables
  3
WipeOut|AutoCAD Express Tool|expresstools@autodesk.com
 90
    32768
280
     0
281
     0
  0
CLASS
  1
RTEXT
  2
RText
  3
RText|AutoCAD Express Tool|expresstools@autodesk.com
 90
    32768
280
     0
281
     1
  0
CLASS
  1
ARCALIGNEDTEXT
  2
AcDbArcAlignedText
  3
ATEXT|AutoCAD Express Tool|expresstools@autodesk.com
 90
    32768
280
     0
281
     1
  0
ENDSEC
  0
SECTION
  2
TABLES
  0
TABLE
  2
VPORT
  5
6
100
AcDbSymbolTable
 70
     1
  0
VPORT
  5
1B
100
AcDbSymbolTableRecord
100
AcDbViewportTableRecord
  2
*ACTIVE
 70
     0
 10
0.0
 20
0.0
 11
1.0
 21
1.0
 12
0.0
 22
0.0
 13
0.0
 23
0.0
 14
1.0
 24
1.0
 15
0.0
 25
0.0
 16
0.0
 26
0.0
 36
1.0
 17
0.0
 27
0.0
 37
0.0
 40
1188.0
 41
1.414141
 42
50.0
 43
0.0
 44
0.0
 50
0.0
 51
0.0
 71
     0
 72
   500
 73
     1
 74
     1
 75
     0
 76
     0
 77
     0
 78
     0
  0
ENDTAB
  0
TABLE
  2
LTYPE
  5
3
100
AcDbSymbolTable
 70
     9
  0
LTYPE
  5
C
100
AcDbSymbolTableRecord
100
AcDbLinetypeTableRecord
  2
BYBLOCK
 70
    64
  3

 72
    65
 73
     0
 40
0.0
  0
LTYPE
  5
D
100
AcDbSymbolTableRecord
100
AcDbLinetypeTableRecord
  2
BYLAYER
 70
    64
  3

 72
    65
 73
     0
 40
0.0
  0
LTYPE
  5
E
100
AcDbSymbolTableRecord
100
AcDbLinetypeTableRecord
  2
CONTINUOUS
 70
     0
  3
Solid line
 72
    65
 73
     0
 40
0.0
  0
LTYPE
  5
F
100
AcDbSymbolTableRecord
100
AcDbLinetypeTableRecord
  2
DASHED
 70
     0
  3
__ __ __ __ __ __ __ __ __ __ __ __ __ __ __
 72
    65
 73
     2
 40
2.0
 49
1.2
 74
     0
 49
-0.8
 74
     0
  0
LTYPE
  5
10
100
AcDbSymbolTableRecord
100
AcDbLinetypeTableRecord
  2
CENTER
 70
     0
  3
____ _ ____ _ ____ _ ____ _ ____ _ ____ _ ____
 72
    65
 73
     4
 40
12.0
 49
9.0
 74
     0
 49
-1.0
 74
     0
 49
1.0
 74
     0
 49
-1.0
 74
     0
  0
LTYPE
  5
11
100
AcDbSymbolTableRecord
100
AcDbLinetypeTableRecord
  2
HIDDEN
 70
     0
  3
_ _ _ _ _ _ _ _ _ _ _ _ _ _ _ _ _ _ _ _ _ _ _
 72
    65
 73
     2
 40
3.2
 49
2.4
 74
     0
 49
-0.8
 74
     0
  0
LTYPE
  5
12
100
AcDbSymbolTableRecord
100
AcDbLinetypeTableRecord
  2
PHANTOM
 70
     0
  3
_____ _ _ _____ _ _ _____ _ _ _____ _ _ _____
 72
    65
 73
     6
 40
13.5
 49
9.0
 74
     0
 49
-1.0
 74
     0
 49
1.0
 74
     0
 49
-0.5
 74
     0
 49
1.0
 74
     0
 49
-1.0
 74
     0
  0
LTYPE
  5
13
100
AcDbSymbolTableRecord
100
AcDbLinetypeTableRecord
  2
DOT
 70
     0
  3
...............................................
 72
    65
 73
     2
 40
1.0
 49
0.5
 74
     0
 49
-0.5
 74
     0
  0
LTYPE
  5
14
100
AcDbSymbolTableRecord
100
AcDbLinetypeTableRecord
  2
DASHDOT
 70
     0
  3
__ . __ . __ . __ . __ . __ . __ . __ . __ . __
 72
    65
 73
     4
 40
8.0
 49
5.0
 74
     0
 49
-1.0
 74
     0
 49
1.0
 74
     0
 49
-1.0
 74
     0
  0
ENDTAB
  0
TABLE
  2
LAYER
  5
1
100
AcDbSymbolTable
 70
     6
  0
LAYER
  5
15
100
AcDbSymbolTableRecord
100
AcDbLayerTableRecord
  2
0
 70
     0
 62
     7
  6
CONTINUOUS
  0
LAYER
  5
16
100
AcDbSymbolTableRecord
100
AcDbLayerTableRecord
  2
1
 70
     0
 62
     7
  6
CONTINUOUS
  0
LAYER
  5
17
100
AcDbSymbolTableRecord
100
AcDbLayerTableRecord
  2
2
 70
     0
 62
     7
  6
CONTINUOUS
  0
LAYER
  5
18
100
AcDbSymbolTableRecord
100
AcDbLayerTableRecord
  2
5
 70
     0
 62
     7
  6
CONTINUOUS
  0
LAYER
  5
19
100
AcDbSymbolTableRecord
100
AcDbLayerTableRecord
  2
18
 70
     0
 62
     7
  6
CONTINUOUS
  0
LAYER
  5
1A
100
AcDbSymbolTableRecord
100
AcDbLayerTableRecord
  2
20
 70
     0
 62
     7
  6
CONTINUOUS
  0
ENDTAB
  0
TABLE
  2
STYLE
  5
2
100
AcDbSymbolTable
 70
     1
  0
STYLE
  5
1D
100
AcDbSymbolTableRecord
100
AcDbTextStyleTableRecord
  2
STANDARD
 70
    64
 40
0.0
 41
1.0
 50
0.0
 71
     0
 42
1.0
  3
txt
  4
BIGFONT
  0
ENDTAB
  0
TABLE
  2
VIEW
  5
4
100
AcDbSymbolTable
 70
     0
  0
ENDTAB
  0
TABLE
  2
UCS
  5
5
100
AcDbSymbolTable
 70
     0
  0
ENDTAB
  0
TABLE
  2
APPID
  5
7
100
AcDbSymbolTable
 70
     1
  0
APPID
  5
1C
100
AcDbSymbolTableRecord
100
AcDbRegAppTableRecord
  2
ACAD
 70
     0
  0
ENDTAB
  0
TABLE
  2
DIMSTYLE
  5
8
100
AcDbSymbolTable
 70
     1
  0
DIMSTYLE
105
2A
100
AcDbSymbolTableRecord
100
AcDbDimStyleTableRecord
  2
STANDARD
 70
     0
  3

  4

  5

  6

  7

 40
4.0
 41
0.18
 42
0.0625
 43
0.38
 44
0.18
 45
0.0
 46
0.0
 47
0.0
 48
0.0
 71
     0
 72
     0
 73
     1
 74
     1
 75
     0
 76
     0
 77
     1
 78
     0
140
0.18
141
0.09
142
0.0
143
25.4
144
1.0
145
0.0
146
1.0
147
0.09
170
     0
171
     2
172
     0
173
     0
174
     0
175
     0
176
     0
177
     0
178
     0
270
     2
271
     4
272
     4
273
     2
274
     2
275
     0
280
     0
281
     0
282
     0
283
     1
284
     0
285
     0
286
     0
287
     3
288
     0
340
1D
  0
ENDTAB
  0
TABLE
  2
BLOCK_RECORD
  5
25
100
AcDbSymbolTable
 70
     5
  0
BLOCK_RECORD
  5
23
100
AcDbSymbolTableRecord
100
AcDbBlockTableRecord
  2
*MODEL_SPACE
  0
BLOCK_RECORD
  5
24
100
AcDbSymbolTableRecord
100
AcDbBlockTableRecord
  2
*PAPER_SPACE
  0
BLOCK_RECORD
  5
1E
100
AcDbSymbolTableRecord
100
AcDbBlockTableRecord
  2
*D0
  0
BLOCK_RECORD
  5
1F
100
AcDbSymbolTableRecord
100
AcDbBlockTableRecord
  2
*D1
  0
BLOCK_RECORD
  5
20
100
AcDbSymbolTableRecord
100
AcDbBlockTableRecord
  2
*D2
  0
BLOCK_RECORD
  5
21
100
AcDbSymbolTableRecord
100
AcDbBlockTableRecord
  2
*D3
  0
BLOCK_RECORD
  5
22
100
AcDbSymbolTableRecord
100
AcDbBlockTableRecord
  2
*D4
  0
ENDTAB
  0
ENDSEC
  0
SECTION
  2
BLOCKS
  0
BLOCK
  5
26
100
AcDbEntity
  8
0
100
AcDbBlockBegin
  2
*MODEL_SPACE
 70
     0
 10
0.0
 20
0.0
 30
0.0
  3
*MODEL_SPACE
  1

  0
ENDBLK
  5
27
100
AcDbEntity
  8
0
100
AcDbBlockEnd
  0
BLOCK
  5
28
100
AcDbEntity
 67
     1
  8
0
100
AcDbBlockBegin
  2
*PAPER_SPACE
 70
     0
 10
0.0
 20
0.0
 30
0.0
  3
*PAPER_SPACE
  1

  0
ENDBLK
  5
29
100
AcDbEntity
 67
     1
  8
0
100
AcDbBlockEnd
  0
BLOCK
  5
4E0
100
AcDbEntity
  8
5
100
AcDbBlockBegin
  2
*D0
 70
     1
 10
0.0
 20
0.0
 30
0.0
  3
*D0
  1

  0
TEXT
  5
4E1
100
AcDbEntity
  8
5
 62
     2
100
AcDbText
 10
123.274369
 20
-460.11676
 30
0.0
 40
13.2
  1
60
 41
1.4
 72
     5
 11
138.058369
 21
-460.11676
 31
0.0
100
AcDbText
  0
LINE
  5
4E2
100
AcDbEntity
  8
5
 62
     2
100
AcDbLine
 10
102.514369
 20
-363.76731
 30
0.0
 11
102.514369
 21
-466.11676
 31
0.0
  0
LINE
  5
4E3
100
AcDbEntity
  8
5
 62
     2
100
AcDbLine
 10
102.514369
 20
-462.11676
 30
0.0
 11
110.241776
 21
-464.187313
 31
0.0
  0
LINE
  5
4E4
100
AcDbEntity
  8
5
 62
     2
100
AcDbLine
 10
102.514369
 20
-462.11676
 30
0.0
 11
110.241776
 21
-460.046208
 31
0.0
  0
LINE
  5
4E5
100
AcDbEntity
  8
5
 62
     2
100
AcDbLine
 10
110.241776
 20
-464.187313
 30
0.0
 11
110.241776
 21
-460.046208
 31
0.0
  0
LINE
  5
4E6
100
AcDbEntity
  8
5
 62
     2
100
AcDbLine
 10
102.514369
 20
-462.11676
 30
0.0
 11
162.514369
 21
-462.11676
 31
0.0
  0
LINE
  5
4E7
100
AcDbEntity
  8
5
 62
     2
100
AcDbLine
 10
162.514369
 20
-462.11676
 30
0.0
 11
154.786962
 21
-460.046208
 31
0.0
  0
LINE
  5
4E8
100
AcDbEntity
  8
5
 62
     2
100
AcDbLine
 10
162.514369
 20
-462.11676
 30
0.0
 11
154.786962
 21
-464.187313
 31
0.0
  0
LINE
  5
4E9
100
AcDbEntity
  8
5
 62
     2
100
AcDbLine
 10
154.786962
 20
-460.046208
 30
0.0
 11
154.786962
 21
-464.187313
 31
0.0
  0
LINE
  5
4EA
100
AcDbEntity
  8
5
 62
     2
100
AcDbLine
 10
162.514369
 20
-363.76731
 30
0.0
 11
162.514369
 21
-466.11676
 31
0.0
  0
ENDBLK
  5
4EB
100
AcDbEntity
  8
5
100
AcDbBlockEnd
  0
BLOCK
  5
4EC
100
AcDbEntity
  8
5
100
AcDbBlockBegin
  2
*D1
 70
     1
 10
0.0
 20
0.0
 30
0.0
  3
*D1
  1

  0
TEXT
  5
4ED
100
AcDbEntity
  8
5
 62
     2
100
AcDbText
 10
-15.410133
 20
-334.47731
 30
0.0
 40
13.2
  1
176
 50
90.0
 41
1.4
 72
     5
 11
-15.410133
 21
-310.45331
 31
0.0
100
AcDbText
  0
LINE
  5
4EE
100
AcDbEntity
  8
5
 62
     2
100
AcDbLine
 10
123.514369
 20
-408.46731
 30
0.0
 11
-17.410133
 21
-408.46731
 31
0.0
  0
LINE
  5
4EF
100
AcDbEntity
  8
5
 62
     2
100
AcDbLine
 10
-13.410133
 20
-408.46731
 30
0.0
 11
-11.339581
 21
-400.739903
 31
0.0
  0
LINE
  5
4F0
100
AcDbEntity
  8
5
 62
     2
100
AcDbLine
 10
-13.410133
 20
-408.46731
 30
0.0
 11
-15.480686
 21
-400.739903
 31
0.0
  0
LINE
  5
4F1
100
AcDbEntity
  8
5
 62
     2
100
AcDbLine
 10
-11.339581
 20
-400.739903
 30
0.0
 11
-15.480686
 21
-400.739903
 31
0.0
  0
LINE
  5
4F2
100
AcDbEntity
  8
5
 62
     2
100
AcDbLine
 10
-13.410133
 20
-408.46731
 30
0.0
 11
-13.410133
 21
-232.76731
 31
0.0
  0
LINE
  5
4F3
100
AcDbEntity
  8
5
 62
     2
100
AcDbLine
 10
-13.410133
 20
-232.76731
 30
0.0
 11
-15.480686
 21
-240.494716
 31
0.0
  0
LINE
  5
4F4
100
AcDbEntity
  8
5
 62
     2
100
AcDbLine
 10
-13.410133
 20
-232.76731
 30
0.0
 11
-11.339581
 21
-240.494716
 31
0.0
  0
LINE
  5
4F5
100
AcDbEntity
  8
5
 62
     2
100
AcDbLine
 10
-15.480686
 20
-240.494716
 30
0.0
 11
-11.339581
 21
-240.494716
 31
0.0
  0
LINE
  5
4F6
100
AcDbEntity
  8
5
 62
     2
100
AcDbLine
 10
68.314369
 20
-232.76731
 30
0.0
 11
-17.410133
 21
-232.76731
 31
0.0
  0
ENDBLK
  5
4F7
100
AcDbEntity
  8
5
100
AcDbBlockEnd
  0
BLOCK
  5
4F8
100
AcDbEntity
  8
5
100
AcDbBlockBegin
  2
*D2
 70
     1
 10
0.0
 20
0.0
 30
0.0
  3
*D2
  1

  0
TEXT
  5
4F9
100
AcDbEntity
  8
5
 62
     2
100
AcDbText
 10
-15.410133
 20
56.12269
 30
0.0
 40
13.2
  1
152
 50
90.0
 41
1.4
 72
     5
 11
-15.410133
 21
80.14669
 31
0.0
100
AcDbText
  0
LINE
  5
4FA
100
AcDbEntity
  8
5
 62
     2
100
AcDbLine
 10
77.514369
 20
-5.76731
 30
0.0
 11
-17.410133
 21
-5.76731
 31
0.0
  0
LINE
  5
4FB
100
AcDbEntity
  8
5
 62
     2
100
AcDbLine
 10
-13.410133
 20
-5.76731
 30
0.0
 11
-11.339581
 21
1.960097
 31
0.0
  0
LINE
  5
4FC
100
AcDbEntity
  8
5
 62
     2
100
AcDbLine
 10
-13.410133
 20
-5.76731
 30
0.0
 11
-15.480686
 21
1.960097
 31
0.0
  0
LINE
  5
4FD
100
AcDbEntity
  8
5
 62
     2
100
AcDbLine
 10
-11.339581
 20
1.960097
 30
0.0
 11
-15.480686
 21
1.960097
 31
0.0
  0
LINE
  5
4FE
100
AcDbEntity
  8
5
 62
     2
100
AcDbLine
 10
-13.410133
 20
-5.76731
 30
0.0
 11
-13.410133
 21
145.73269
 31
0.0
  0
LINE
  5
4FF
100
AcDbEntity
  8
5
 62
     2
100
AcDbLine
 10
-13.410133
 20
145.73269
 30
0.0
 11
-15.480686
 21
138.005284
 31
0.0
  0
LINE
  5
500
100
AcDbEntity
  8
5
 62
     2
100
AcDbLine
 10
-13.410133
 20
145.73269
 30
0.0
 11
-11.339581
 21
138.005284
 31
0.0
  0
LINE
  5
501
100
AcDbEntity
  8
5
 62
     2
100
AcDbLine
 10
-15.480686
 20
138.005284
 30
0.0
 11
-11.339581
 21
138.005284
 31
0.0
  0
LINE
  5
502
100
AcDbEntity
  8
5
 62
     2
100
AcDbLine
 10
122.014369
 20
145.73269
 30
0.0
 11
-17.410133
 21
145.73269
 31
0.0
  0
ENDBLK
  5
503
100
AcDbEntity
  8
5
100
AcDbBlockEnd
  0
BLOCK
  5
504
100
AcDbEntity
  8
5
100
AcDbBlockBegin
  2
*D3
 70
     1
 10
0.0
 20
0.0
 30
0.0
  3
*D3
  1

  0
TEXT
  5
505
100
AcDbEntity
  8
5
 62
     2
100
AcDbText
 10
-15.410133
 20
-133.12731
 30
0.0
 40
13.2
  1
227
 50
90.0
 41
1.4
 72
     5
 11
-15.410133
 21
-109.10331
 31
0.0
100
AcDbText
  0
LINE
  5
506
100
AcDbEntity
  8
5
 62
     2
100
AcDbLine
 10
68.314369
 20
-232.76731
 30
0.0
 11
-17.410133
 21
-232.76731
 31
0.0
  0
LINE
  5
507
100
AcDbEntity
  8
5
 62
     2
100
AcDbLine
 10
-13.410133
 20
-232.76731
 30
0.0
 11
-11.339581
 21
-225.039903
 31
0.0
  0
LINE
  5
508
100
AcDbEntity
  8
5
 62
     2
100
AcDbLine
 10
-13.410133
 20
-232.76731
 30
0.0
 11
-15.480686
 21
-225.039903
 31
0.0
  0
LINE
  5
509
100
AcDbEntity
  8
5
 62
     2
100
AcDbLine
 10
-11.339581
 20
-225.039903
 30
0.0
 11
-15.480686
 21
-225.039903
 31
0.0
  0
LINE
  5
50A
100
AcDbEntity
  8
5
 62
     2
100
AcDbLine
 10
-13.410133
 20
-232.76731
 30
0.0
 11
-13.410133
 21
-5.76731
 31
0.0
  0
LINE
  5
50B
100
AcDbEntity
  8
5
 62
     2
100
AcDbLine
 10
-13.410133
 20
-5.76731
 30
0.0
 11
-15.480686
 21
-13.494716
 31
0.0
  0
LINE
  5
50C
100
AcDbEntity
  8
5
 62
     2
100
AcDbLine
 10
-13.410133
 20
-5.76731
 30
0.0
 11
-11.339581
 21
-13.494716
 31
0.0
  0
LINE
  5
50D
100
AcDbEntity
  8
5
 62
     2
100
AcDbLine
 10
-15.480686
 20
-13.494716
 30
0.0
 11
-11.339581
 21
-13.494716
 31
0.0
  0
LINE
  5
50E
100
AcDbEntity
  8
5
 62
     2
100
AcDbLine
 10
77.514369
 20
-5.76731
 30
0.0
 11
-17.410133
 21
-5.76731
 31
0.0
  0
ENDBLK
  5
50F
100
AcDbEntity
  8
5
100
AcDbBlockEnd
  0
BLOCK
  5
510
100
AcDbEntity
  8
5
100
AcDbBlockBegin
  2
*D4
 70
     1
 10
0.0
 20
0.0
 30
0.0
  3
*D4
  1

  0
TEXT
  5
511
100
AcDbEntity
  8
5
 62
     2
100
AcDbText
 10
114.034369
 20
208.479462
 30
0.0
 40
13.2
  1
%%c200
 41
1.4
 72
     5
 11
147.298369
 21
208.479462
 31
0.0
100
AcDbText
  0
LINE
  5
512
100
AcDbEntity
  8
5
 62
     2
100
AcDbLine
 10
232.514369
 20
129.23269
 30
0.0
 11
232.514369
 21
210.479462
 31
0.0
  0
LINE
  5
513
100
AcDbEntity
  8
5
 62
     2
100
AcDbLine
 10
232.514369
 20
206.479462
 30
0.0
 11
224.786962
 21
208.550014
 31
0.0
  0
LINE
  5
514
100
AcDbEntity
  8
5
 62
     2
100
AcDbLine
 10
232.514369
 20
206.479462
 30
0.0
 11
224.786962
 21
204.408909
 31
0.0
  0
LINE
  5
515
100
AcDbEntity
  8
5
 62
     2
100
AcDbLine
 10
224.786962
 20
208.550014
 30
0.0
 11
224.786962
 21
204.408909
 31
0.0
  0
LINE
  5
516
100
AcDbEntity
  8
5
 62
     2
100
AcDbLine
 10
232.514369
 20
206.479462
 30
0.0
 11
32.514369
 21
206.479462
 31
0.0
  0
LINE
  5
517
100
AcDbEntity
  8
5
 62
     2
100
AcDbLine
 10
32.514369
 20
206.479462
 30
0.0
 11
40.241776
 21
204.408909
 31
0.0
  0
LINE
  5
518
100
AcDbEntity
  8
5
 62
     2
100
AcDbLine
 10
32.514369
 20
206.479462
 30
0.0
 11
40.241776
 21
208.550014
 31
0.0
  0
LINE
  5
519
100
AcDbEntity
  8
5
 62
     2
100
AcDbLine
 10
40.241776
 20
204.408909
 30
0.0
 11
40.241776
 21
208.550014
 31
0.0
  0
LINE
  5
51A
100
AcDbEntity
  8
5
 62
     2
100
AcDbLine
 10
32.514369
 20
129.23269
 30
0.0
 11
32.514369
 21
210.479462
 31
0.0
  0
ENDBLK
  5
51B
100
AcDbEntity
  8
5
100
AcDbBlockEnd
  0
ENDSEC
  0
SECTION
  2
ENTITIES
  0
LINE
  5
2B
100
AcDbEntity
  8
1
  6
CENTER
 62
     2
100
AcDbLine
 10
-495.285631
 20
-232.76731
 30
0.0
 11
-181.885631
 21
-232.76731
 31
0.0
  0
LINE
  5
2C
100
AcDbEntity
  8
1
  6
CENTER
 62
     2
100
AcDbLine
 10
72.314369
 20
-232.76731
 30
0.0
 11
191.714369
 21
-232.76731
 31
0.0
  0
LINE
  5
2D
100
AcDbEntity
  8
1
100
AcDbLine
 10
-291.885631
 20
-19.76731
 30
0.0
 11
-385.885631
 21
-19.76731
 31
0.0
  0
LINE
  5
2E
100
AcDbEntity
  8
1
100
AcDbLine
 10
-389.885631
 20
-5.76731
 30
0.0
 11
-389.885631
 21
-15.76731
 31
0.0
  0
LINE
  5
2F
100
AcDbEntity
  8
1
100
AcDbLine
 10
-287.885631
 20
-5.76731
 30
0.0
 11
-287.885631
 21
-15.76731
 31
0.0
  0
LINE
  5
30
100
AcDbEntity
  8
1
100
AcDbLine
 10
-359.885631
 20
-29.76731
 30
0.0
 11
-359.885631
 21
-98.294264
 31
0.0
  0
LINE
  5
31
100
AcDbEntity
  8
1
100
AcDbLine
 10
-317.885631
 20
-29.76731
 30
0.0
 11
-317.885631
 21
-98.294264
 31
0.0
  0
LINE
  5
32
100
AcDbEntity
  8
1
100
AcDbLine
 10
179.514369
 20
-19.76731
 30
0.0
 11
85.514369
 21
-19.76731
 31
0.0
  0
LINE
  5
33
100
AcDbEntity
  8
1
100
AcDbLine
 10
81.514369
 20
-5.76731
 30
0.0
 11
81.514369
 21
-15.76731
 31
0.0
  0
LINE
  5
34
100
AcDbEntity
  8
1
100
AcDbLine
 10
183.514369
 20
-5.76731
 30
0.0
 11
183.514369
 21
-15.76731
 31
0.0
  0
LINE
  5
35
100
AcDbEntity
  8
1
100
AcDbLine
 10
111.514369
 20
-29.76731
 30
0.0
 11
111.514369
 21
-103.038688
 31
0.0
  0
LINE
  5
36
100
AcDbEntity
  8
1
100
AcDbLine
 10
153.514369
 20
-29.76731
 30
0.0
 11
153.514369
 21
-103.038688
 31
0.0
  0
LINE
  5
37
100
AcDbEntity
  8
1
100
AcDbLine
 10
114.514369
 20
-399.76731
 30
0.0
 11
150.514369
 21
-399.76731
 31
0.0
  0
LINE
  5
38
100
AcDbEntity
  8
1
100
AcDbLine
 10
107.514369
 20
-360.495932
 30
0.0
 11
107.514369
 21
-390.76731
 31
0.0
  0
LINE
  5
39
100
AcDbEntity
  8
1
100
AcDbLine
 10
157.514369
 20
-360.495932
 30
0.0
 11
157.514369
 21
-390.76731
 31
0.0
  0
LINE
  5
3A
100
AcDbEntity
  8
1
100
AcDbLine
 10
128.514369
 20
-393.76731
 30
0.0
 11
128.514369
 21
-345.3536
 31
0.0
  0
LINE
  5
3B
100
AcDbEntity
  8
1
100
AcDbLine
 10
136.514369
 20
-345.3536
 30
0.0
 11
136.514369
 21
-393.76731
 31
0.0
  0
LINE
  5
3C
100
AcDbEntity
  8
1
  6
CENTER
 62
     2
100
AcDbLine
 10
-495.285631
 20
343.766023
 30
0.0
 11
-181.885631
 21
343.766023
 31
0.0
  0
LINE
  5
3D
100
AcDbEntity
  8
1
  6
DASHED
100
AcDbLine
 10
-366.385631
 20
394.766023
 30
0.0
 11
-311.385631
 21
394.766023
 31
0.0
  0
LINE
  5
3E
100
AcDbEntity
  8
1
  6
DASHED
100
AcDbLine
 10
-287.885631
 20
371.266023
 30
0.0
 11
-287.885631
 21
316.266023
 31
0.0
  0
LINE
  5
3F
100
AcDbEntity
  8
1
  6
DASHED
100
AcDbLine
 10
-311.385631
 20
292.766023
 30
0.0
 11
-366.385631
 21
292.766023
 31
0.0
  0
CIRCLE
  5
40
100
AcDbEntity
  8
1
  6
DASHED
100
AcDbCircle
 10
-374.885631
 20
307.766023
 30
0.0
 40
5.5
  0
CIRCLE
  5
41
100
AcDbEntity
  8
1
  6
DASHED
100
AcDbCircle
 10
-302.885631
 20
307.766023
 30
0.0
 40
5.5
  0
CIRCLE
  5
42
100
AcDbEntity
  8
1
  6
DASHED
100
AcDbCircle
 10
-302.885631
 20
379.766023
 30
0.0
 40
5.5
  0
CIRCLE
  5
43
100
AcDbEntity
  8
1
  6
DASHED
100
AcDbCircle
 10
-374.885631
 20
379.766023
 30
0.0
 40
5.5
  0
LINE
  5
44
100
AcDbEntity
  8
1
  6
CENTER
 62
     2
100
AcDbLine
 10
-384.760631
 20
379.766023
 30
0.0
 11
-364.685631
 21
379.766023
 31
0.0
  0
LINE
  5
45
100
AcDbEntity
  8
1
  6
CENTER
 62
     2
100
AcDbLine
 10
-312.985631
 20
379.766023
 30
0.0
 11
-292.135631
 21
379.766023
 31
0.0
  0
LINE
  5
46
100
AcDbEntity
  8
1
  6
CENTER
 62
     2
100
AcDbLine
 10
-314.135631
 20
307.766023
 30
0.0
 11
-291.760631
 21
307.766023
 31
0.0
  0
LINE
  5
47
100
AcDbEntity
  8
1
  6
CENTER
 62
     2
100
AcDbLine
 10
-384.760631
 20
307.766023
 30
0.0
 11
-363.160631
 21
307.766023
 31
0.0
  0
LINE
  5
48
100
AcDbEntity
  8
1
  6
CENTER
 62
     2
100
AcDbLine
 10
-374.885631
 20
390.191023
 30
0.0
 11
-374.885631
 21
368.591023
 31
0.0
  0
LINE
  5
49
100
AcDbEntity
  8
1
  6
CENTER
 62
     2
100
AcDbLine
 10
-302.885631
 20
389.816023
 30
0.0
 11
-302.885631
 21
369.741023
 31
0.0
  0
LINE
  5
4A
100
AcDbEntity
  8
1
  6
DASHED
100
AcDbLine
 10
-389.885631
 20
371.266023
 30
0.0
 11
-389.885631
 21
316.266023
 31
0.0
  0
LINE
  5
4B
100
AcDbEntity
  8
1
  6
CENTER
 62
     2
100
AcDbLine
 10
-374.885631
 20
-30.673531
 30
0.0
 11
-374.885631
 21
2.158069
 31
0.0
  0
LINE
  5
4C
100
AcDbEntity
  8
1
  6
CENTER
 62
     2
100
AcDbLine
 10
-374.885631
 20
298.243402
 30
0.0
 11
-374.885631
 21
318.016023
 31
0.0
  0
LINE
  5
4D
100
AcDbEntity
  8
1
  6
CENTER
 62
     2
100
AcDbLine
 10
-302.885631
 20
-30.673531
 30
0.0
 11
-302.885631
 21
2.158069
 31
0.0
  0
LINE
  5
4E
100
AcDbEntity
  8
1
  6
CENTER
 62
     2
100
AcDbLine
 10
-302.885631
 20
297.642664
 30
0.0
 11
-302.885631
 21
319.191023
 31
0.0
  0
LINE
  5
4F
100
AcDbEntity
  8
1
  6
CENTER
 62
     2
100
AcDbLine
 10
-320.885631
 20
-387.403493
 30
0.0
 11
-320.885631
 21
-413.559437
 31
0.0
  0
LINE
  5
50
100
AcDbEntity
  8
1
  6
CENTER
 62
     2
100
AcDbLine
 10
-356.885631
 20
-387.403493
 30
0.0
 11
-356.885631
 21
-413.559437
 31
0.0
  0
LINE
  5
51
100
AcDbEntity
  8
1
100
AcDbLine
 10
-326.985631
 20
-404.46731
 30
0.0
 11
-314.785631
 21
-404.46731
 31
0.0
  0
LINE
  5
52
100
AcDbEntity
  8
1
100
AcDbLine
 10
-315.135631
 20
-404.46731
 30
0.0
 11
-315.135631
 21
-407.976562
 31
0.0
  0
LINE
  5
53
100
AcDbEntity
  8
1
100
AcDbLine
 10
-315.135631
 20
-407.976562
 30
0.0
 11
-315.985631
 21
-408.46731
 31
0.0
  0
LINE
  5
54
100
AcDbEntity
  8
1
100
AcDbLine
 10
-318.010631
 20
-404.46731
 30
0.0
 11
-318.010631
 21
-407.976562
 31
0.0
  0
ARC
  5
55
100
AcDbEntity
  8
1
100
AcDbCircle
 10
-316.573131
 20
-406.128607
 30
0.0
 40
2.341227
100
AcDbArc
 50
232.121121
 51
307.878879
  0
ARC
  5
56
100
AcDbEntity
  8
1
100
AcDbCircle
 10
-320.885631
 20
-399.844834
 30
0.0
 40
8.625
100
AcDbArc
 50
250.528777
 51
289.471219
  0
LINE
  5
57
100
AcDbEntity
  8
1
100
AcDbLine
 10
-326.635631
 20
-404.46731
 30
0.0
 11
-326.635631
 21
-407.976562
 31
0.0
  0
LINE
  5
58
100
AcDbEntity
  8
1
100
AcDbLine
 10
-326.635631
 20
-407.976562
 30
0.0
 11
-325.785631
 21
-408.46731
 31
0.0
  0
LINE
  5
59
100
AcDbEntity
  8
1
100
AcDbLine
 10
-325.785631
 20
-408.46731
 30
0.0
 11
-315.985631
 21
-408.46731
 31
0.0
  0
LINE
  5
5A
100
AcDbEntity
  8
1
100
AcDbLine
 10
-323.760631
 20
-404.46731
 30
0.0
 11
-323.760631
 21
-407.976562
 31
0.0
  0
ARC
  5
5B
100
AcDbEntity
  8
1
100
AcDbCircle
 10
-325.198131
 20
-406.128607
 30
0.0
 40
2.341227
100
AcDbArc
 50
232.121121
 51
307.878879
  0
LINE
  5
5C
100
AcDbEntity
  8
1
100
AcDbLine
 10
-314.785631
 20
-402.96731
 30
0.0
 11
-314.785631
 21
-404.46731
 31
0.0
  0
LINE
  5
5D
100
AcDbEntity
  8
1
100
AcDbLine
 10
-326.985631
 20
-404.46731
 30
0.0
 11
-326.985631
 21
-402.96731
 31
0.0
  0
LINE
  5
5E
100
AcDbEntity
  8
1
100
AcDbLine
 10
-320.885631
 20
-404.46731
 30
0.0
 11
-321.385631
 21
-402.96731
 31
0.0
  0
LINE
  5
5F
100
AcDbEntity
  8
1
100
AcDbLine
 10
-320.885631
 20
-402.96731
 30
0.0
 11
-320.385631
 21
-404.46731
 31
0.0
  0
LINE
  5
60
100
AcDbEntity
  8
1
100
AcDbLine
 10
-362.985631
 20
-404.46731
 30
0.0
 11
-350.785631
 21
-404.46731
 31
0.0
  0
LINE
  5
61
100
AcDbEntity
  8
1
100
AcDbLine
 10
-351.135631
 20
-404.46731
 30
0.0
 11
-351.135631
 21
-407.976562
 31
0.0
  0
LINE
  5
62
100
AcDbEntity
  8
1
100
AcDbLine
 10
-351.135631
 20
-407.976562
 30
0.0
 11
-351.985631
 21
-408.46731
 31
0.0
  0
LINE
  5
63
100
AcDbEntity
  8
1
100
AcDbLine
 10
-354.010631
 20
-404.46731
 30
0.0
 11
-354.010631
 21
-407.976562
 31
0.0
  0
ARC
  5
64
100
AcDbEntity
  8
1
100
AcDbCircle
 10
-352.573131
 20
-406.128607
 30
0.0
 40
2.341227
100
AcDbArc
 50
232.121121
 51
307.878879
  0
ARC
  5
65
100
AcDbEntity
  8
1
100
AcDbCircle
 10
-356.885631
 20
-399.844834
 30
0.0
 40
8.625
100
AcDbArc
 50
250.528777
 51
289.471219
  0
LINE
  5
66
100
AcDbEntity
  8
1
100
AcDbLine
 10
-362.635631
 20
-404.46731
 30
0.0
 11
-362.635631
 21
-407.976562
 31
0.0
  0
LINE
  5
67
100
AcDbEntity
  8
1
100
AcDbLine
 10
-362.635631
 20
-407.976562
 30
0.0
 11
-361.785631
 21
-408.46731
 31
0.0
  0
LINE
  5
68
100
AcDbEntity
  8
1
100
AcDbLine
 10
-361.785631
 20
-408.46731
 30
0.0
 11
-351.985631
 21
-408.46731
 31
0.0
  0
LINE
  5
69
100
AcDbEntity
  8
1
100
AcDbLine
 10
-359.760631
 20
-404.46731
 30
0.0
 11
-359.760631
 21
-407.976562
 31
0.0
  0
ARC
  5
6A
100
AcDbEntity
  8
1
100
AcDbCircle
 10
-361.198131
 20
-406.128607
 30
0.0
 40
2.341227
100
AcDbArc
 50
232.121121
 51
307.878879
  0
LINE
  5
6B
100
AcDbEntity
  8
1
100
AcDbLine
 10
-350.785631
 20
-402.96731
 30
0.0
 11
-350.785631
 21
-404.46731
 31
0.0
  0
LINE
  5
6C
100
AcDbEntity
  8
1
100
AcDbLine
 10
-362.985631
 20
-404.46731
 30
0.0
 11
-362.985631
 21
-402.96731
 31
0.0
  0
LINE
  5
6D
100
AcDbEntity
  8
1
100
AcDbLine
 10
-356.885631
 20
-404.46731
 30
0.0
 11
-357.385631
 21
-402.96731
 31
0.0
  0
LINE
  5
6E
100
AcDbEntity
  8
1
100
AcDbLine
 10
-356.885631
 20
-402.96731
 30
0.0
 11
-356.385631
 21
-404.46731
 31
0.0
  0
ARC
  5
6F
100
AcDbEntity
  8
1
100
AcDbCircle
 10
-385.885631
 20
-15.76731
 30
0.0
 40
4.0
100
AcDbArc
 50
180.0
 51
270.0
  0
ARC
  5
70
100
AcDbEntity
  8
1
100
AcDbCircle
 10
-291.885631
 20
-15.76731
 30
0.0
 40
4.0
100
AcDbArc
 50
270.0
 51
360.0
  0
ARC
  5
71
100
AcDbEntity
  8
1
100
AcDbCircle
 10
-297.885631
 20
-39.76731
 30
0.0
 40
20.0
100
AcDbArc
 50
90.0
 51
180.0
  0
ARC
  5
72
100
AcDbEntity
  8
1
100
AcDbCircle
 10
-379.885631
 20
-39.76731
 30
0.0
 40
20.0
100
AcDbArc
 50
0.0
 51
90.0
  0
LINE
  5
73
100
AcDbEntity
  8
1
100
AcDbLine
 10
-335.885631
 20
-47.704749
 30
0.0
 11
-341.885631
 21
-47.704749
 31
0.0
  0
LINE
  5
74
100
AcDbEntity
  8
1
100
AcDbLine
 10
-341.885631
 20
-22.76731
 30
0.0
 11
-341.885631
 21
-44.704749
 31
0.0
  0
LINE
  5
75
100
AcDbEntity
  8
1
100
AcDbLine
 10
-335.885631
 20
-22.76731
 30
0.0
 11
-335.885631
 21
-44.704749
 31
0.0
  0
ARC
  5
76
100
AcDbEntity
  8
1
100
AcDbCircle
 10
-332.885631
 20
-22.76731
 30
0.0
 40
3.0
100
AcDbArc
 50
90.0
 51
180.0
  0
ARC
  5
77
100
AcDbEntity
  8
1
100
AcDbCircle
 10
-344.885631
 20
-22.76731
 30
0.0
 40
3.0
100
AcDbArc
 50
0.0
 51
90.0
  0
ARC
  5
78
100
AcDbEntity
  8
1
100
AcDbCircle
 10
-344.885631
 20
-44.704749
 30
0.0
 40
3.0
100
AcDbArc
 50
270.0
 51
360.0
  0
ARC
  5
79
100
AcDbEntity
  8
1
100
AcDbCircle
 10
-332.885631
 20
-44.704749
 30
0.0
 40
3.0
100
AcDbArc
 50
180.0
 51
270.0
  0
ARC
  5
7A
100
AcDbEntity
  8
1
100
AcDbCircle
 10
-307.885631
 20
-29.76731
 30
0.0
 40
10.0
100
AcDbArc
 50
90.0
 51
180.0
  0
ARC
  5
7B
100
AcDbEntity
  8
1
100
AcDbCircle
 10
-369.885631
 20
-29.76731
 30
0.0
 40
10.0
100
AcDbArc
 50
360.0
 51
90.0
  0
LINE
  5
7C
100
AcDbEntity
  8
1
100
AcDbLine
 10
-364.987309
 20
-25.96731
 30
0.0
 11
-360.635766
 21
-25.96731
 31
0.0
  0
LINE
  5
7D
100
AcDbEntity
  8
1
100
AcDbLine
 10
-317.135496
 20
-25.96731
 30
0.0
 11
-312.783953
 21
-25.96731
 31
0.0
  0
ARC
  5
7E
100
AcDbEntity
  8
1
100
AcDbCircle
 10
-312.783953
 20
-24.96731
 30
0.0
 40
1.0
100
AcDbArc
 50
270.0
 51
315.189688
  0
ARC
  5
7F
100
AcDbEntity
  8
1
100
AcDbCircle
 10
-364.987309
 20
-24.96731
 30
0.0
 40
1.0
100
AcDbArc
 50
224.810312
 51
270.0
  0
CIRCLE
  5
80
100
AcDbEntity
  8
1
100
AcDbCircle
 10
-338.885631
 20
-232.76731
 30
0.0
 40
128.0
  0
CIRCLE
  5
81
100
AcDbEntity
  8
1
100
AcDbCircle
 10
-338.885631
 20
-232.76731
 30
0.0
 40
127.0
  0
ARC
  5
82
100
AcDbEntity
  8
1
100
AcDbCircle
 10
-338.885631
 20
-182.76731
 30
0.0
 40
120.0
100
AcDbArc
 50
70.579419
 51
77.626375
  0
ARC
  5
83
100
AcDbEntity
  8
1
100
AcDbCircle
 10
-338.885631
 20
-182.76731
 30
0.0
 40
120.0
100
AcDbArc
 50
102.373625
 51
109.420581
  0
LINE
  5
84
100
AcDbEntity
  8
1
100
AcDbLine
 10
-380.290202
 20
-78.243346
 30
0.0
 11
-381.319326
 21
-74.402605
 31
0.0
  0
LINE
  5
85
100
AcDbEntity
  8
1
100
AcDbLine
 10
-297.48106
 20
-78.243346
 30
0.0
 11
-296.451936
 21
-74.402605
 31
0.0
  0
ARC
  5
86
100
AcDbEntity
  8
1
100
AcDbCircle
 10
-311.885631
 20
-59.694161
 30
0.0
 40
6.0
100
AcDbArc
 50
180.0
 51
257.626375
  0
ARC
  5
87
100
AcDbEntity
  8
1
100
AcDbCircle
 10
-365.885631
 20
-59.694161
 30
0.0
 40
6.0
100
AcDbArc
 50
282.373625
 51
360.0
  0
ARC
  5
88
100
AcDbEntity
  8
1
100
AcDbCircle
 10
-300.31564
 20
-73.367329
 30
0.0
 40
4.0
100
AcDbArc
 50
345.0
 51
70.579419
  0
ARC
  5
89
100
AcDbEntity
  8
1
100
AcDbCircle
 10
-377.455622
 20
-73.367329
 30
0.0
 40
4.0
100
AcDbArc
 50
109.420581
 51
195.0
  0
LINE
  5
8A
100
AcDbEntity
  8
1
100
AcDbLine
 10
-312.856869
 20
-92.708065
 30
0.0
 11
-312.856869
 21
-99.553465
 31
0.0
  0
LINE
  5
8B
100
AcDbEntity
  8
1
100
AcDbLine
 10
-364.914392
 20
-92.708065
 30
0.0
 11
-364.914392
 21
-99.553465
 31
0.0
  0
ARC
  5
8C
100
AcDbEntity
  8
1
100
AcDbCircle
 10
-301.356869
 20
-92.708065
 30
0.0
 40
11.5
100
AcDbArc
 50
89.955248
 51
180.0
  0
ARC
  5
8D
100
AcDbEntity
  8
1
100
AcDbCircle
 10
-376.414392
 20
-92.708065
 30
0.0
 40
11.5
100
AcDbArc
 50
0.0
 51
90.044752
  0
ARC
  5
8E
100
AcDbEntity
  8
1
100
AcDbCircle
 10
-301.344763
 20
-77.20807
 30
0.0
 40
4.0
100
AcDbArc
 50
269.955248
 51
345.0
  0
ARC
  5
8F
100
AcDbEntity
  8
1
100
AcDbCircle
 10
-376.426499
 20
-77.20807
 30
0.0
 40
4.0
100
AcDbArc
 50
195.0
 51
270.044752
  0
ARC
  5
90
100
AcDbEntity
  8
1
100
AcDbCircle
 10
-307.885631
 20
-98.294264
 30
0.0
 40
10.0
100
AcDbArc
 50
180.0
 51
257.018427
  0
ARC
  5
91
100
AcDbEntity
  8
1
100
AcDbCircle
 10
-302.856869
 20
-99.553465
 30
0.0
 40
10.0
100
AcDbArc
 50
180.0
 51
254.865965
  0
ARC
  5
92
100
AcDbEntity
  8
1
100
AcDbCircle
 10
-369.885631
 20
-98.294264
 30
0.0
 40
10.0
100
AcDbArc
 50
282.981573
 51
360.0
  0
ARC
  5
93
100
AcDbEntity
  8
1
100
AcDbCircle
 10
-374.914392
 20
-99.553465
 30
0.0
 40
10.0
100
AcDbArc
 50
285.134035
 51
360.0
  0
LINE
  5
94
100
AcDbEntity
  8
1
100
AcDbLine
 10
-365.885631
 20
-399.76731
 30
0.0
 11
-311.885631
 21
-399.76731
 31
0.0
  0
LINE
  5
95
100
AcDbEntity
  8
1
100
AcDbLine
 10
-359.885631
 20
-367.240355
 30
0.0
 11
-359.885631
 21
-390.76731
 31
0.0
  0
LINE
  5
96
100
AcDbEntity
  8
1
100
AcDbLine
 10
-317.885631
 20
-367.240355
 30
0.0
 11
-317.885631
 21
-390.76731
 31
0.0
  0
ARC
  5
97
100
AcDbEntity
  8
1
100
AcDbCircle
 10
-307.885631
 20
-367.240355
 30
0.0
 40
10.0
100
AcDbArc
 50
102.981573
 51
180.0
  0
ARC
  5
98
100
AcDbEntity
  8
1
100
AcDbCircle
 10
-369.885631
 20
-367.240355
 30
0.0
 40
10.0
100
AcDbArc
 50
0.0
 51
77.018427
  0
LINE
  5
99
100
AcDbEntity
  8
1
100
AcDbLine
 10
-365.885631
 20
-396.76731
 30
0.0
 11
-311.885631
 21
-396.76731
 31
0.0
  0
ARC
  5
9A
100
AcDbEntity
  8
1
100
AcDbCircle
 10
-323.885631
 20
-390.76731
 30
0.0
 40
6.0
100
AcDbArc
 50
270.0
 51
360.0
  0
ARC
  5
9B
100
AcDbEntity
  8
1
100
AcDbCircle
 10
-353.885631
 20
-390.76731
 30
0.0
 40
6.0
100
AcDbArc
 50
180.0
 51
270.0
  0
LINE
  5
9C
100
AcDbEntity
  8
1
100
AcDbLine
 10
-380.290202
 20
-387.291274
 30
0.0
 11
-380.659012
 21
-388.66769
 31
0.0
  0
LINE
  5
9D
100
AcDbEntity
  8
1
100
AcDbLine
 10
-297.48106
 20
-387.291274
 30
0.0
 11
-297.11225
 21
-388.66769
 31
0.0
  0
LINE
  5
9E
100
AcDbEntity
  8
1
100
AcDbLine
 10
-311.885631
 20
-396.76731
 30
0.0
 11
-299.940677
 21
-393.566669
 31
0.0
  0
LINE
  5
9F
100
AcDbEntity
  8
1
100
AcDbLine
 10
-365.885631
 20
-396.76731
 30
0.0
 11
-377.830585
 21
-393.566669
 31
0.0
  0
ARC
  5
A0
100
AcDbEntity
  8
1
100
AcDbCircle
 10
-300.975953
 20
-389.702966
 30
0.0
 40
4.0
100
AcDbArc
 50
285.0
 51
15.0
  0
ARC
  5
A1
100
AcDbEntity
  8
1
100
AcDbCircle
 10
-376.795308
 20
-389.702966
 30
0.0
 40
4.0
100
AcDbArc
 50
165.0
 51
255.0
  0
ARC
  5
A2
100
AcDbEntity
  8
1
100
AcDbCircle
 10
-308.885631
 20
-399.069291
 30
0.0
 40
3.0
100
AcDbArc
 50
105.0
 51
180.0
  0
ARC
  5
A3
100
AcDbEntity
  8
1
100
AcDbCircle
 10
-368.885631
 20
-399.069291
 30
0.0
 40
3.0
100
AcDbArc
 50
0.0
 51
75.0
  0
ARC
  5
A4
100
AcDbEntity
  8
1
100
AcDbCircle
 10
-317.885631
 20
-390.76731
 30
0.0
 40
6.0
100
AcDbArc
 50
0.0
 51
70.528779
  0
ARC
  5
A5
100
AcDbEntity
  8
1
100
AcDbCircle
 10
-359.885631
 20
-390.76731
 30
0.0
 40
6.0
100
AcDbArc
 50
109.471221
 51
180.0
  0
ARC
  5
A6
100
AcDbEntity
  8
1
100
AcDbCircle
 10
-314.885631
 20
-382.282028
 30
0.0
 40
3.0
100
AcDbArc
 50
180.0
 51
250.528779
  0
ARC
  5
A7
100
AcDbEntity
  8
1
100
AcDbCircle
 10
-362.885631
 20
-382.282028
 30
0.0
 40
3.0
100
AcDbArc
 50
289.471221
 51
360.0
  0
LINE
  5
A8
100
AcDbEntity
  8
1
100
AcDbLine
 10
-311.885631
 20
-402.96731
 30
0.0
 11
-311.885631
 21
-399.069291
 31
0.0
  0
LINE
  5
A9
100
AcDbEntity
  8
1
100
AcDbLine
 10
-311.885631
 20
-396.76731
 30
0.0
 11
-311.885631
 21
-390.76731
 31
0.0
  0
LINE
  5
AA
100
AcDbEntity
  8
1
100
AcDbLine
 10
-365.885631
 20
-402.96731
 30
0.0
 11
-365.885631
 21
-399.069291
 31
0.0
  0
LINE
  5
AB
100
AcDbEntity
  8
1
100
AcDbLine
 10
-365.885631
 20
-396.76731
 30
0.0
 11
-365.885631
 21
-390.76731
 31
0.0
  0
LINE
  5
AC
100
AcDbEntity
  8
1
100
AcDbLine
 10
-312.856869
 20
-372.826555
 30
0.0
 11
-312.856869
 21
-365.981154
 31
0.0
  0
LINE
  5
AD
100
AcDbEntity
  8
1
100
AcDbLine
 10
-364.914392
 20
-372.826555
 30
0.0
 11
-364.914392
 21
-365.981154
 31
0.0
  0
ARC
  5
AE
100
AcDbEntity
  8
1
100
AcDbCircle
 10
-301.356869
 20
-372.826555
 30
0.0
 40
11.5
100
AcDbArc
 50
180.0
 51
270.044752
  0
ARC
  5
AF
100
AcDbEntity
  8
1
100
AcDbCircle
 10
-376.414392
 20
-372.826555
 30
0.0
 40
11.5
100
AcDbArc
 50
269.955248
 51
360.0
  0
ARC
  5
B0
100
AcDbEntity
  8
1
100
AcDbCircle
 10
-301.344763
 20
-388.32655
 30
0.0
 40
4.0
100
AcDbArc
 50
15.0
 51
90.044752
  0
ARC
  5
B1
100
AcDbEntity
  8
1
100
AcDbCircle
 10
-376.426499
 20
-388.32655
 30
0.0
 40
4.0
100
AcDbArc
 50
89.955248
 51
165.0
  0
ARC
  5
B2
100
AcDbEntity
  8
1
100
AcDbCircle
 10
-302.856869
 20
-365.981154
 30
0.0
 40
10.0
100
AcDbArc
 50
105.134035
 51
180.0
  0
ARC
  5
B3
100
AcDbEntity
  8
1
100
AcDbCircle
 10
-374.914392
 20
-365.981154
 30
0.0
 40
10.0
100
AcDbArc
 50
0.0
 51
74.865965
  0
LINE
  5
B4
100
AcDbEntity
  8
1
100
AcDbLine
 10
-365.885631
 20
-400.56731
 30
0.0
 11
-311.885631
 21
-400.56731
 31
0.0
  0
LINE
  5
B5
100
AcDbEntity
  8
1
100
AcDbLine
 10
-365.885631
 20
-402.96731
 30
0.0
 11
-311.885631
 21
-402.96731
 31
0.0
  0
CIRCLE
  5
B6
100
AcDbEntity
  8
1
100
AcDbCircle
 10
-338.885631
 20
-232.76731
 30
0.0
 40
121.0
  0
ARC
  5
B7
100
AcDbEntity
  8
1
  6
DASHED
100
AcDbCircle
 10
-311.385631
 20
371.266023
 30
0.0
 40
23.5
100
AcDbArc
 50
0.0
 51
90.0
  0
ARC
  5
B8
100
AcDbEntity
  8
1
  6
DASHED
100
AcDbCircle
 10
-366.385631
 20
371.266023
 30
0.0
 40
23.5
100
AcDbArc
 50
90.0
 51
180.0
  0
ARC
  5
B9
100
AcDbEntity
  8
1
  6
DASHED
100
AcDbCircle
 10
-366.385631
 20
316.266023
 30
0.0
 40
23.5
100
AcDbArc
 50
180.0
 51
270.0
  0
ARC
  5
BA
100
AcDbEntity
  8
1
  6
DASHED
100
AcDbCircle
 10
-311.385631
 20
316.266023
 30
0.0
 40
23.5
100
AcDbArc
 50
270.0
 51
0.0
  0
ARC
  5
BB
100
AcDbEntity
  8
1
100
AcDbCircle
 10
179.514369
 20
-15.76731
 30
0.0
 40
4.0
100
AcDbArc
 50
270.0
 51
360.0
  0
ARC
  5
BC
100
AcDbEntity
  8
1
100
AcDbCircle
 10
85.514369
 20
-15.76731
 30
0.0
 40
4.0
100
AcDbArc
 50
180.0
 51
270.0
  0
ARC
  5
BD
100
AcDbEntity
  8
1
100
AcDbCircle
 10
163.514369
 20
-29.76731
 30
0.0
 40
10.0
100
AcDbArc
 50
90.0
 51
180.0
  0
ARC
  5
BE
100
AcDbEntity
  8
1
100
AcDbCircle
 10
101.514369
 20
-29.76731
 30
0.0
 40
10.0
100
AcDbArc
 50
0.0
 51
90.0
  0
ARC
  5
BF
100
AcDbEntity
  8
1
100
AcDbCircle
 10
181.514369
 20
-47.704749
 30
0.0
 40
28.0
100
AcDbArc
 50
93.583322
 51
180.0
  0
ARC
  5
C0
100
AcDbEntity
  8
1
100
AcDbCircle
 10
83.514369
 20
-47.704749
 30
0.0
 40
28.0
100
AcDbArc
 50
0.0
 51
86.416678
  0
LINE
  5
C1
100
AcDbEntity
  8
1
100
AcDbLine
 10
129.514369
 20
-39.76731
 30
0.0
 11
135.514369
 21
-39.76731
 31
0.0
  0
LINE
  5
C2
100
AcDbEntity
  8
1
100
AcDbLine
 10
129.514369
 20
-26.96731
 30
0.0
 11
129.514369
 21
-36.76731
 31
0.0
  0
LINE
  5
C3
100
AcDbEntity
  8
1
100
AcDbLine
 10
135.514369
 20
-26.96731
 30
0.0
 11
135.514369
 21
-36.76731
 31
0.0
  0
ARC
  5
C4
100
AcDbEntity
  8
1
100
AcDbCircle
 10
138.514369
 20
-36.76731
 30
0.0
 40
3.0
100
AcDbArc
 50
180.0
 51
270.0
  0
ARC
  5
C5
100
AcDbEntity
  8
1
100
AcDbCircle
 10
126.514369
 20
-36.76731
 30
0.0
 40
3.0
100
AcDbArc
 50
270.0
 51
360.0
  0
LINE
  5
C6
100
AcDbEntity
  8
1
100
AcDbLine
 10
128.514369
 20
-22.76731
 30
0.0
 11
128.514369
 21
-25.235259
 31
0.0
  0
LINE
  5
C7
100
AcDbEntity
  8
1
100
AcDbLine
 10
136.514369
 20
-22.76731
 30
0.0
 11
136.514369
 21
-25.235259
 31
0.0
  0
ARC
  5
C8
100
AcDbEntity
  8
1
100
AcDbCircle
 10
136.514369
 20
-26.96731
 30
0.0
 40
1.0
100
AcDbArc
 50
120.0
 51
180.0
  0
ARC
  5
C9
100
AcDbEntity
  8
1
100
AcDbCircle
 10
128.514369
 20
-26.96731
 30
0.0
 40
1.0
100
AcDbArc
 50
0.0
 51
60.0
  0
ARC
  5
CA
100
AcDbEntity
  8
1
100
AcDbCircle
 10
135.514369
 20
-25.235259
 30
0.0
 40
1.0
100
AcDbArc
 50
300.0
 51
360.0
  0
ARC
  5
CB
100
AcDbEntity
  8
1
100
AcDbCircle
 10
129.514369
 20
-25.235259
 30
0.0
 40
1.0
100
AcDbArc
 50
180.0
 51
240.0
  0
ARC
  5
CC
100
AcDbEntity
  8
1
100
AcDbCircle
 10
139.514369
 20
-22.76731
 30
0.0
 40
3.0
100
AcDbArc
 50
90.0
 51
180.0
  0
ARC
  5
CD
100
AcDbEntity
  8
1
100
AcDbCircle
 10
125.514369
 20
-22.76731
 30
0.0
 40
3.0
100
AcDbArc
 50
0.0
 51
90.0
  0
LINE
  5
CE
100
AcDbEntity
  8
1
100
AcDbLine
 10
102.514369
 20
-105.76731
 30
0.0
 11
102.514369
 21
-359.76731
 31
0.0
  0
LINE
  5
CF
100
AcDbEntity
  8
1
100
AcDbLine
 10
162.514369
 20
-105.76731
 30
0.0
 11
162.514369
 21
-359.76731
 31
0.0
  0
LINE
  5
D0
100
AcDbEntity
  8
1
100
AcDbLine
 10
162.514369
 20
-105.76731
 30
0.0
 11
161.514369
 21
-104.76731
 31
0.0
  0
LINE
  5
D1
100
AcDbEntity
  8
1
100
AcDbLine
 10
102.514369
 20
-105.76731
 30
0.0
 11
103.514369
 21
-104.76731
 31
0.0
  0
LINE
  5
D2
100
AcDbEntity
  8
1
100
AcDbLine
 10
102.514369
 20
-359.76731
 30
0.0
 11
103.514369
 21
-360.76731
 31
0.0
  0
LINE
  5
D3
100
AcDbEntity
  8
1
100
AcDbLine
 10
161.514369
 20
-360.76731
 30
0.0
 11
162.514369
 21
-359.76731
 31
0.0
  0
LINE
  5
D4
100
AcDbEntity
  8
1
100
AcDbLine
 10
161.514369
 20
-104.76731
 30
0.0
 11
161.514369
 21
-360.76731
 31
0.0
  0
LINE
  5
D5
100
AcDbEntity
  8
1
100
AcDbLine
 10
103.514369
 20
-104.76731
 30
0.0
 11
103.514369
 21
-360.76731
 31
0.0
  0
LINE
  5
D6
100
AcDbEntity
  8
1
100
AcDbLine
 10
103.514369
 20
-104.76731
 30
0.0
 11
106.514369
 21
-104.76731
 31
0.0
  0
LINE
  5
D7
100
AcDbEntity
  8
1
100
AcDbLine
 10
158.514369
 20
-104.76731
 30
0.0
 11
161.514369
 21
-104.76731
 31
0.0
  0
ARC
  5
D8
100
AcDbEntity
  8
1
100
AcDbCircle
 10
158.514369
 20
-99.76731
 30
0.0
 40
5.0
100
AcDbArc
 50
180.0
 51
270.0
  0
ARC
  5
D9
100
AcDbEntity
  8
1
100
AcDbCircle
 10
106.514369
 20
-99.76731
 30
0.0
 40
5.0
100
AcDbArc
 50
270.0
 51
0.0
  0
ARC
  5
DA
100
AcDbEntity
  8
1
100
AcDbCircle
 10
158.514369
 20
-103.038688
 30
0.0
 40
5.0
100
AcDbArc
 50
180.0
 51
270.0
  0
ARC
  5
DB
100
AcDbEntity
  8
1
100
AcDbCircle
 10
106.514369
 20
-103.038688
 30
0.0
 40
5.0
100
AcDbArc
 50
270.0
 51
360.0
  0
LINE
  5
DC
100
AcDbEntity
  8
1
100
AcDbLine
 10
103.514369
 20
-360.76731
 30
0.0
 11
104.514369
 21
-360.76731
 31
0.0
  0
LINE
  5
DD
100
AcDbEntity
  8
1
100
AcDbLine
 10
160.514369
 20
-360.76731
 30
0.0
 11
161.514369
 21
-360.76731
 31
0.0
  0
ARC
  5
DE
100
AcDbEntity
  8
1
100
AcDbCircle
 10
160.514369
 20
-363.76731
 30
0.0
 40
3.0
100
AcDbArc
 50
90.0
 51
180.0
  0
ARC
  5
DF
100
AcDbEntity
  8
1
100
AcDbCircle
 10
104.514369
 20
-363.76731
 30
0.0
 40
3.0
100
AcDbArc
 50
0.0
 51
90.0
  0
ARC
  5
E0
100
AcDbEntity
  8
1
100
AcDbCircle
 10
160.514369
 20
-360.495932
 30
0.0
 40
3.0
100
AcDbArc
 50
90.0
 51
180.0
  0
ARC
  5
E1
100
AcDbEntity
  8
1
100
AcDbCircle
 10
104.514369
 20
-360.495932
 30
0.0
 40
3.0
100
AcDbArc
 50
0.0
 51
90.0
  0
LINE
  5
E2
100
AcDbEntity
  8
1
100
AcDbLine
 10
150.514369
 20
-399.542274
 30
0.0
 11
150.514369
 21
-402.96731
 31
0.0
  0
LINE
  5
E3
100
AcDbEntity
  8
1
100
AcDbLine
 10
114.514369
 20
-399.542274
 30
0.0
 11
114.514369
 21
-402.96731
 31
0.0
  0
ARC
  5
E4
100
AcDbEntity
  8
1
100
AcDbCircle
 10
151.514369
 20
-390.76731
 30
0.0
 40
6.0
100
AcDbArc
 50
270.0
 51
360.0
  0
ARC
  5
E5
100
AcDbEntity
  8
1
100
AcDbCircle
 10
113.514369
 20
-390.76731
 30
0.0
 40
6.0
100
AcDbArc
 50
180.0
 51
270.0
  0
ARC
  5
E6
100
AcDbEntity
  8
1
100
AcDbCircle
 10
153.514369
 20
-399.542274
 30
0.0
 40
3.0
100
AcDbArc
 50
102.839588
 51
180.0
  0
ARC
  5
E7
100
AcDbEntity
  8
1
100
AcDbCircle
 10
111.514369
 20
-399.542274
 30
0.0
 40
3.0
100
AcDbArc
 50
0.0
 51
77.160412
  0
LINE
  5
E8
100
AcDbEntity
  8
1
100
AcDbLine
 10
120.514369
 20
-390.76731
 30
0.0
 11
120.514369
 21
-396.76731
 31
0.0
  0
LINE
  5
E9
100
AcDbEntity
  8
1
100
AcDbLine
 10
144.514369
 20
-390.76731
 30
0.0
 11
144.514369
 21
-396.76731
 31
0.0
  0
ARC
  5
EA
100
AcDbEntity
  8
1
100
AcDbCircle
 10
138.514369
 20
-390.76731
 30
0.0
 40
6.0
100
AcDbArc
 50
0.0
 51
83.62063
  0
ARC
  5
EB
100
AcDbEntity
  8
1
100
AcDbCircle
 10
126.514369
 20
-390.76731
 30
0.0
 40
6.0
100
AcDbArc
 50
96.37937
 51
180.0
  0
LINE
  5
EC
100
AcDbEntity
  8
1
100
AcDbLine
 10
151.514369
 20
-396.76731
 30
0.0
 11
113.514369
 21
-396.76731
 31
0.0
  0
ARC
  5
ED
100
AcDbEntity
  8
1
100
AcDbCircle
 10
139.514369
 20
-393.76731
 30
0.0
 40
3.0
100
AcDbArc
 50
180.0
 51
270.0
  0
ARC
  5
EE
100
AcDbEntity
  8
1
100
AcDbCircle
 10
125.514369
 20
-393.76731
 30
0.0
 40
3.0
100
AcDbArc
 50
270.0
 51
360.0
  0
ARC
  5
EF
100
AcDbEntity
  8
1
100
AcDbCircle
 10
139.514369
 20
-381.823038
 30
0.0
 40
3.0
100
AcDbArc
 50
180.0
 51
263.62063
  0
ARC
  5
F0
100
AcDbEntity
  8
1
100
AcDbCircle
 10
125.514369
 20
-381.823038
 30
0.0
 40
3.0
100
AcDbArc
 50
276.37937
 51
360.0
  0
LINE
  5
F1
100
AcDbEntity
  8
1
100
AcDbLine
 10
114.514369
 20
-400.56731
 30
0.0
 11
150.514369
 21
-400.56731
 31
0.0
  0
LINE
  5
F2
100
AcDbEntity
  8
1
100
AcDbLine
 10
114.514369
 20
-402.96731
 30
0.0
 11
150.514369
 21
-402.96731
 31
0.0
  0
LINE
  5
F3
100
AcDbEntity
  8
1
100
AcDbLine
 10
137.514369
 20
-404.46731
 30
0.0
 11
137.514369
 21
-408.46731
 31
0.0
  0
ARC
  5
F4
100
AcDbEntity
  8
1
100
AcDbCircle
 10
135.014369
 20
-401.854102
 30
0.0
 40
6.613208
100
AcDbArc
 50
247.788205
 51
292.211795
  0
LINE
  5
F5
100
AcDbEntity
  8
1
100
AcDbLine
 10
138.614369
 20
-404.46731
 30
0.0
 11
126.414369
 21
-404.46731
 31
0.0
  0
LINE
  5
F6
100
AcDbEntity
  8
1
100
AcDbLine
 10
127.514369
 20
-404.46731
 30
0.0
 11
127.514369
 21
-408.46731
 31
0.0
  0
LINE
  5
F7
100
AcDbEntity
  8
1
100
AcDbLine
 10
127.514369
 20
-408.46731
 30
0.0
 11
137.514369
 21
-408.46731
 31
0.0
  0
LINE
  5
F8
100
AcDbEntity
  8
1
100
AcDbLine
 10
132.514369
 20
-404.46731
 30
0.0
 11
132.514369
 21
-407.976562
 31
0.0
  0
ARC
  5
F9
100
AcDbEntity
  8
1
100
AcDbCircle
 10
130.014369
 20
-401.854102
 30
0.0
 40
6.613208
100
AcDbArc
 50
247.788205
 51
292.211795
  0
LINE
  5
FA
100
AcDbEntity
  8
1
100
AcDbLine
 10
138.614369
 20
-402.96731
 30
0.0
 11
138.614369
 21
-404.46731
 31
0.0
  0
LINE
  5
FB
100
AcDbEntity
  8
1
100
AcDbLine
 10
126.414369
 20
-404.46731
 30
0.0
 11
126.414369
 21
-402.96731
 31
0.0
  0
LINE
  5
FC
100
AcDbEntity
  8
1
100
AcDbLine
 10
-211.885631
 20
373.766023
 30
0.0
 11
-210.885631
 21
372.766023
 31
0.0
  0
LINE
  5
FD
100
AcDbEntity
  8
1
100
AcDbLine
 10
-210.885631
 20
314.766023
 30
0.0
 11
-211.885631
 21
313.766023
 31
0.0
  0
LINE
  5
FE
100
AcDbEntity
  8
1
100
AcDbLine
 10
128.514369
 20
-62.694161
 30
0.0
 11
128.514369
 21
-120.181019
 31
0.0
  0
LINE
  5
FF
100
AcDbEntity
  8
1
100
AcDbLine
 10
136.514369
 20
-62.694161
 30
0.0
 11
136.514369
 21
-120.181019
 31
0.0
  0
LINE
  5
100
100
AcDbEntity
  8
1
100
AcDbLine
 10
128.514369
 20
-59.694161
 30
0.0
 11
136.514369
 21
-59.694161
 31
0.0
  0
ARC
  5
101
100
AcDbEntity
  8
1
100
AcDbCircle
 10
139.514369
 20
-62.694161
 30
0.0
 40
3.0
100
AcDbArc
 50
90.0
 51
180.0
  0
ARC
  5
102
100
AcDbEntity
  8
1
100
AcDbCircle
 10
125.514369
 20
-62.694161
 30
0.0
 40
3.0
100
AcDbArc
 50
360.0
 51
90.0
  0
LINE
  5
103
100
AcDbEntity
  8
1
100
AcDbLine
 10
130.514369
 20
-70.881555
 30
0.0
 11
134.514369
 21
-70.881555
 31
0.0
  0
LINE
  5
104
100
AcDbEntity
  8
1
100
AcDbLine
 10
130.514369
 20
-81.208069
 30
0.0
 11
134.514369
 21
-81.208069
 31
0.0
  0
ARC
  5
105
100
AcDbEntity
  8
1
100
AcDbCircle
 10
134.514369
 20
-72.881555
 30
0.0
 40
2.0
100
AcDbArc
 50
0.0
 51
90.0
  0
ARC
  5
106
100
AcDbEntity
  8
1
100
AcDbCircle
 10
130.514369
 20
-72.881555
 30
0.0
 40
2.0
100
AcDbArc
 50
90.0
 51
180.0
  0
ARC
  5
107
100
AcDbEntity
  8
1
100
AcDbCircle
 10
130.514369
 20
-79.208069
 30
0.0
 40
2.0
100
AcDbArc
 50
180.0
 51
270.0
  0
ARC
  5
108
100
AcDbEntity
  8
1
100
AcDbCircle
 10
134.514369
 20
-79.208069
 30
0.0
 40
2.0
100
AcDbArc
 50
270.0
 51
360.0
  0
LINE
  5
109
100
AcDbEntity
  8
1
100
AcDbLine
 10
123.514369
 20
-140.76731
 30
0.0
 11
141.514369
 21
-140.76731
 31
0.0
  0
LINE
  5
10A
100
AcDbEntity
  8
1
100
AcDbLine
 10
123.514369
 20
-144.76731
 30
0.0
 11
141.514369
 21
-144.76731
 31
0.0
  0
LINE
  5
10B
100
AcDbEntity
  8
1
100
AcDbLine
 10
123.514369
 20
-189.76731
 30
0.0
 11
141.514369
 21
-189.76731
 31
0.0
  0
LINE
  5
10C
100
AcDbEntity
  8
1
100
AcDbLine
 10
123.514369
 20
-193.76731
 30
0.0
 11
141.514369
 21
-193.76731
 31
0.0
  0
LINE
  5
10D
100
AcDbEntity
  8
1
100
AcDbLine
 10
123.514369
 20
-271.76731
 30
0.0
 11
141.514369
 21
-271.76731
 31
0.0
  0
LINE
  5
10E
100
AcDbEntity
  8
1
100
AcDbLine
 10
123.514369
 20
-275.76731
 30
0.0
 11
141.514369
 21
-275.76731
 31
0.0
  0
LINE
  5
10F
100
AcDbEntity
  8
1
100
AcDbLine
 10
123.514369
 20
-320.76731
 30
0.0
 11
141.514369
 21
-320.76731
 31
0.0
  0
LINE
  5
110
100
AcDbEntity
  8
1
100
AcDbLine
 10
123.514369
 20
-324.76731
 30
0.0
 11
141.514369
 21
-324.76731
 31
0.0
  0
LINE
  5
111
100
AcDbEntity
  8
1
100
AcDbLine
 10
147.514369
 20
-134.76731
 30
0.0
 11
147.514369
 21
-114.038688
 31
0.0
  0
LINE
  5
112
100
AcDbEntity
  8
1
100
AcDbLine
 10
147.514369
 20
-183.76731
 30
0.0
 11
147.514369
 21
-150.76731
 31
0.0
  0
LINE
  5
113
100
AcDbEntity
  8
1
100
AcDbLine
 10
147.514369
 20
-265.76731
 30
0.0
 11
147.514369
 21
-199.76731
 31
0.0
  0
LINE
  5
114
100
AcDbEntity
  8
1
100
AcDbLine
 10
147.514369
 20
-351.495932
 30
0.0
 11
147.514369
 21
-330.76731
 31
0.0
  0
LINE
  5
115
100
AcDbEntity
  8
1
100
AcDbLine
 10
147.514369
 20
-314.76731
 30
0.0
 11
147.514369
 21
-281.76731
 31
0.0
  0
LINE
  5
116
100
AcDbEntity
  8
1
100
AcDbLine
 10
117.514369
 20
-351.495932
 30
0.0
 11
117.514369
 21
-330.76731
 31
0.0
  0
LINE
  5
117
100
AcDbEntity
  8
1
100
AcDbLine
 10
117.514369
 20
-314.76731
 30
0.0
 11
117.514369
 21
-281.76731
 31
0.0
  0
LINE
  5
118
100
AcDbEntity
  8
1
100
AcDbLine
 10
117.514369
 20
-265.76731
 30
0.0
 11
117.514369
 21
-199.76731
 31
0.0
  0
LINE
  5
119
100
AcDbEntity
  8
1
100
AcDbLine
 10
117.514369
 20
-183.76731
 30
0.0
 11
117.514369
 21
-150.76731
 31
0.0
  0
LINE
  5
11A
100
AcDbEntity
  8
1
100
AcDbLine
 10
117.514369
 20
-134.76731
 30
0.0
 11
117.514369
 21
-114.038688
 31
0.0
  0
ARC
  5
11B
100
AcDbEntity
  8
1
100
AcDbCircle
 10
141.514369
 20
-183.76731
 30
0.0
 40
6.0
100
AcDbArc
 50
270.0
 51
360.0
  0
ARC
  5
11C
100
AcDbEntity
  8
1
100
AcDbCircle
 10
123.514369
 20
-183.76731
 30
0.0
 40
6.0
100
AcDbArc
 50
180.0
 51
270.0
  0
ARC
  5
11D
100
AcDbEntity
  8
1
100
AcDbCircle
 10
123.514369
 20
-150.76731
 30
0.0
 40
6.0
100
AcDbArc
 50
90.0
 51
180.0
  0
ARC
  5
11E
100
AcDbEntity
  8
1
100
AcDbCircle
 10
141.514369
 20
-150.76731
 30
0.0
 40
6.0
100
AcDbArc
 50
0.0
 51
90.0
  0
ARC
  5
11F
100
AcDbEntity
  8
1
100
AcDbCircle
 10
141.514369
 20
-134.76731
 30
0.0
 40
6.0
100
AcDbArc
 50
270.0
 51
0.0
  0
ARC
  5
120
100
AcDbEntity
  8
1
100
AcDbCircle
 10
123.514369
 20
-134.76731
 30
0.0
 40
6.0
100
AcDbArc
 50
180.0
 51
270.0
  0
ARC
  5
121
100
AcDbEntity
  8
1
100
AcDbCircle
 10
123.514369
 20
-199.76731
 30
0.0
 40
6.0
100
AcDbArc
 50
90.0
 51
180.0
  0
ARC
  5
122
100
AcDbEntity
  8
1
100
AcDbCircle
 10
141.514369
 20
-199.76731
 30
0.0
 40
6.0
100
AcDbArc
 50
0.0
 51
90.0
  0
ARC
  5
123
100
AcDbEntity
  8
1
100
AcDbCircle
 10
141.514369
 20
-265.76731
 30
0.0
 40
6.0
100
AcDbArc
 50
270.0
 51
360.0
  0
ARC
  5
124
100
AcDbEntity
  8
1
100
AcDbCircle
 10
123.514369
 20
-265.76731
 30
0.0
 40
6.0
100
AcDbArc
 50
180.0
 51
270.0
  0
ARC
  5
125
100
AcDbEntity
  8
1
100
AcDbCircle
 10
123.514369
 20
-281.76731
 30
0.0
 40
6.0
100
AcDbArc
 50
90.0
 51
180.0
  0
ARC
  5
126
100
AcDbEntity
  8
1
100
AcDbCircle
 10
141.514369
 20
-281.76731
 30
0.0
 40
6.0
100
AcDbArc
 50
0.0
 51
90.0
  0
ARC
  5
127
100
AcDbEntity
  8
1
100
AcDbCircle
 10
141.514369
 20
-314.76731
 30
0.0
 40
6.0
100
AcDbArc
 50
270.0
 51
0.0
  0
ARC
  5
128
100
AcDbEntity
  8
1
100
AcDbCircle
 10
123.514369
 20
-314.76731
 30
0.0
 40
6.0
100
AcDbArc
 50
180.0
 51
270.0
  0
ARC
  5
129
100
AcDbEntity
  8
1
100
AcDbCircle
 10
123.514369
 20
-330.76731
 30
0.0
 40
6.0
100
AcDbArc
 50
90.0
 51
180.0
  0
ARC
  5
12A
100
AcDbEntity
  8
1
100
AcDbCircle
 10
141.514369
 20
-330.76731
 30
0.0
 40
6.0
100
AcDbArc
 50
0.0
 51
90.0
  0
ARC
  5
12B
100
AcDbEntity
  8
1
100
AcDbCircle
 10
141.514369
 20
-114.038688
 30
0.0
 40
6.0
100
AcDbArc
 50
0.0
 51
90.0
  0
ARC
  5
12C
100
AcDbEntity
  8
1
100
AcDbCircle
 10
123.514369
 20
-114.038688
 30
0.0
 40
6.0
100
AcDbArc
 50
90.0
 51
180.0
  0
ARC
  5
12D
100
AcDbEntity
  8
1
100
AcDbCircle
 10
141.514369
 20
-351.495932
 30
0.0
 40
6.0
100
AcDbArc
 50
270.0
 51
0.0
  0
ARC
  5
12E
100
AcDbEntity
  8
1
100
AcDbCircle
 10
123.514369
 20
-351.495932
 30
0.0
 40
6.0
100
AcDbArc
 50
180.0
 51
270.0
  0
LINE
  5
12F
100
AcDbEntity
  8
1
100
AcDbLine
 10
130.514369
 20
-109.206643
 30
0.0
 11
134.514369
 21
-109.206643
 31
0.0
  0
LINE
  5
130
100
AcDbEntity
  8
1
100
AcDbLine
 10
111.514369
 20
-108.038688
 30
0.0
 11
125.514369
 21
-108.038688
 31
0.0
  0
LINE
  5
131
100
AcDbEntity
  8
1
100
AcDbLine
 10
139.514369
 20
-108.038688
 30
0.0
 11
153.514369
 21
-108.038688
 31
0.0
  0
LINE
  5
132
100
AcDbEntity
  8
1
100
AcDbLine
 10
130.514369
 20
-356.327977
 30
0.0
 11
134.514369
 21
-356.327977
 31
0.0
  0
LINE
  5
133
100
AcDbEntity
  8
1
100
AcDbLine
 10
107.514369
 20
-357.495932
 30
0.0
 11
125.514369
 21
-357.495932
 31
0.0
  0
LINE
  5
134
100
AcDbEntity
  8
1
100
AcDbLine
 10
139.514369
 20
-357.495932
 30
0.0
 11
157.514369
 21
-357.495932
 31
0.0
  0
LINE
  5
135
100
AcDbEntity
  8
1
100
AcDbLine
 10
130.514369
 20
-384.326551
 30
0.0
 11
134.514369
 21
-384.326551
 31
0.0
  0
LINE
  5
136
100
AcDbEntity
  8
1
100
AcDbLine
 10
130.514369
 20
-392.531393
 30
0.0
 11
134.514369
 21
-392.531393
 31
0.0
  0
ARC
  5
137
100
AcDbEntity
  8
1
100
AcDbCircle
 10
134.514369
 20
-386.326551
 30
0.0
 40
2.0
100
AcDbArc
 50
0.0
 51
90.0
  0
ARC
  5
138
100
AcDbEntity
  8
1
100
AcDbCircle
 10
130.514369
 20
-386.326551
 30
0.0
 40
2.0
100
AcDbArc
 50
90.0
 51
180.0
  0
ARC
  5
139
100
AcDbEntity
  8
1
100
AcDbCircle
 10
130.514369
 20
-390.531393
 30
0.0
 40
2.0
100
AcDbArc
 50
180.0
 51
270.0
  0
ARC
  5
13A
100
AcDbEntity
  8
1
100
AcDbCircle
 10
134.514369
 20
-390.531393
 30
0.0
 40
2.0
100
AcDbArc
 50
270.0
 51
360.0
  0
LINE
  5
13B
100
AcDbEntity
  8
1
100
AcDbLine
 10
-216.971727
 20
335.768077
 30
0.0
 11
-216.971727
 21
351.76397
 31
0.0
  0
LINE
  5
13C
100
AcDbEntity
  8
1
100
AcDbLine
 10
-218.324443
 20
334.766023
 30
0.0
 11
-218.324443
 21
352.766023
 31
0.0
  0
LINE
  5
13D
100
AcDbEntity
  8
1
  6
DASHED
100
AcDbLine
 10
-245.934031
 20
334.766023
 30
0.0
 11
-245.934031
 21
352.766023
 31
0.0
  0
LINE
  5
13E
100
AcDbEntity
  8
1
  6
DASHED
100
AcDbLine
 10
-249.891249
 20
334.766023
 30
0.0
 11
-249.891249
 21
352.766023
 31
0.0
  0
LINE
  5
13F
100
AcDbEntity
  8
1
100
AcDbLine
 10
-239.934031
 20
358.766023
 30
0.0
 11
-224.324443
 21
358.766023
 31
0.0
  0
LINE
  5
140
100
AcDbEntity
  8
1
100
AcDbLine
 10
-239.934031
 20
328.766023
 30
0.0
 11
-224.324443
 21
328.766023
 31
0.0
  0
ARC
  5
141
100
AcDbEntity
  8
1
  6
DASHED
100
AcDbCircle
 10
-255.891249
 20
352.766023
 30
0.0
 40
6.0
100
AcDbArc
 50
0.0
 51
90.0
  0
ARC
  5
142
100
AcDbEntity
  8
1
  6
DASHED
100
AcDbCircle
 10
-255.891249
 20
334.766023
 30
0.0
 40
6.0
100
AcDbArc
 50
270.0
 51
360.0
  0
ARC
  5
143
100
AcDbEntity
  8
1
100
AcDbCircle
 10
-224.324443
 20
352.766023
 30
0.0
 40
6.0
100
AcDbArc
 50
0.0
 51
90.0
  0
ARC
  5
144
100
AcDbEntity
  8
1
100
AcDbCircle
 10
-224.324443
 20
334.766023
 30
0.0
 40
6.0
100
AcDbArc
 50
270.0
 51
360.0
  0
LINE
  5
145
100
AcDbEntity
  8
1
100
AcDbLine
 10
-265.794934
 20
334.766023
 30
0.0
 11
-265.794934
 21
352.766023
 31
0.0
  0
ARC
  5
146
100
AcDbEntity
  8
1
100
AcDbCircle
 10
-268.981467
 20
334.766023
 30
0.0
 40
3.186533
100
AcDbArc
 50
270.0
 51
360.0
  0
ARC
  5
147
100
AcDbEntity
  8
1
100
AcDbCircle
 10
-268.981467
 20
352.766023
 30
0.0
 40
3.186533
100
AcDbArc
 50
0.0
 51
90.0
  0
LINE
  5
148
100
AcDbEntity
  8
1
100
AcDbLine
 10
-210.885631
 20
314.766023
 30
0.0
 11
-210.885631
 21
325.326538
 31
0.0
  0
LINE
  5
149
100
AcDbEntity
  8
1
100
AcDbLine
 10
-210.885631
 20
362.205509
 30
0.0
 11
-210.885631
 21
372.766023
 31
0.0
  0
ARC
  5
14A
100
AcDbEntity
  8
1
100
AcDbCircle
 10
-209.971727
 20
351.76397
 30
0.0
 40
7.0
100
AcDbArc
 50
119.526453
 51
180.0
  0
ARC
  5
14B
100
AcDbEntity
  8
1
100
AcDbCircle
 10
-209.971727
 20
335.768077
 30
0.0
 40
7.0
100
AcDbArc
 50
180.0
 51
240.473547
  0
ARC
  5
14C
100
AcDbEntity
  8
1
100
AcDbCircle
 10
-215.885631
 20
362.205509
 30
0.0
 40
5.0
100
AcDbArc
 50
299.526453
 51
360.0
  0
ARC
  5
14D
100
AcDbEntity
  8
1
100
AcDbCircle
 10
-215.885631
 20
325.326538
 30
0.0
 40
5.0
100
AcDbArc
 50
0.0
 51
60.473547
  0
LINE
  5
14E
100
AcDbEntity
  8
1
100
AcDbLine
 10
-229.53642
 20
334.766023
 30
0.0
 11
-229.53642
 21
352.766023
 31
0.0
  0
ARC
  5
14F
100
AcDbEntity
  8
1
100
AcDbCircle
 10
-232.722953
 20
352.766023
 30
0.0
 40
3.186533
100
AcDbArc
 50
0.0
 51
90.0
  0
ARC
  5
150
100
AcDbEntity
  8
1
100
AcDbCircle
 10
-232.722953
 20
334.766023
 30
0.0
 40
3.186533
100
AcDbArc
 50
270.0
 51
360.0
  0
LINE
  5
151
100
AcDbEntity
  8
1
100
AcDbLine
 10
-221.386667
 20
357.997607
 30
0.0
 11
-229.53642
 21
355.952557
 31
0.0
  0
LINE
  5
152
100
AcDbEntity
  8
1
100
AcDbLine
 10
-229.53642
 20
331.57949
 30
0.0
 11
-221.386667
 21
329.53444
 31
0.0
  0
LINE
  5
153
100
AcDbEntity
  8
1
100
AcDbLine
 10
-465.885631
 20
373.766023
 30
0.0
 11
-466.885631
 21
372.766023
 31
0.0
  0
LINE
  5
154
100
AcDbEntity
  8
1
100
AcDbLine
 10
-466.885631
 20
314.766023
 30
0.0
 11
-465.885631
 21
313.766023
 31
0.0
  0
LINE
  5
155
100
AcDbEntity
  8
1
100
AcDbLine
 10
-460.799535
 20
335.768077
 30
0.0
 11
-460.799535
 21
351.76397
 31
0.0
  0
LINE
  5
156
100
AcDbEntity
  8
1
100
AcDbLine
 10
-459.446819
 20
334.766023
 30
0.0
 11
-459.446819
 21
352.766023
 31
0.0
  0
LINE
  5
157
100
AcDbEntity
  8
1
  6
DASHED
100
AcDbLine
 10
-431.837231
 20
334.766023
 30
0.0
 11
-431.837231
 21
352.766023
 31
0.0
  0
LINE
  5
158
100
AcDbEntity
  8
1
  6
DASHED
100
AcDbLine
 10
-427.880013
 20
334.766023
 30
0.0
 11
-427.880013
 21
352.766023
 31
0.0
  0
LINE
  5
159
100
AcDbEntity
  8
1
100
AcDbLine
 10
-437.837231
 20
358.766023
 30
0.0
 11
-453.446819
 21
358.766023
 31
0.0
  0
LINE
  5
15A
100
AcDbEntity
  8
1
100
AcDbLine
 10
-437.837231
 20
328.766023
 30
0.0
 11
-453.446819
 21
328.766023
 31
0.0
  0
ARC
  5
15B
100
AcDbEntity
  8
1
  6
DASHED
100
AcDbCircle
 10
-421.880013
 20
352.766023
 30
0.0
 40
6.0
100
AcDbArc
 50
90.0
 51
180.0
  0
ARC
  5
15C
100
AcDbEntity
  8
1
  6
DASHED
100
AcDbCircle
 10
-421.880013
 20
334.766023
 30
0.0
 40
6.0
100
AcDbArc
 50
180.0
 51
270.0
  0
ARC
  5
15D
100
AcDbEntity
  8
1
100
AcDbCircle
 10
-453.446819
 20
352.766023
 30
0.0
 40
6.0
100
AcDbArc
 50
90.0
 51
180.0
  0
ARC
  5
15E
100
AcDbEntity
  8
1
100
AcDbCircle
 10
-453.446819
 20
334.766023
 30
0.0
 40
6.0
100
AcDbArc
 50
180.0
 51
270.0
  0
LINE
  5
15F
100
AcDbEntity
  8
1
100
AcDbLine
 10
-411.976328
 20
334.766023
 30
0.0
 11
-411.976328
 21
352.766023
 31
0.0
  0
ARC
  5
160
100
AcDbEntity
  8
1
100
AcDbCircle
 10
-408.789795
 20
334.766023
 30
0.0
 40
3.186533
100
AcDbArc
 50
180.0
 51
270.0
  0
ARC
  5
161
100
AcDbEntity
  8
1
100
AcDbCircle
 10
-408.789795
 20
352.766023
 30
0.0
 40
3.186533
100
AcDbArc
 50
90.0
 51
180.0
  0
LINE
  5
162
100
AcDbEntity
  8
1
100
AcDbLine
 10
-466.885631
 20
314.766023
 30
0.0
 11
-466.885631
 21
325.326538
 31
0.0
  0
LINE
  5
163
100
AcDbEntity
  8
1
100
AcDbLine
 10
-466.885631
 20
362.205509
 30
0.0
 11
-466.885631
 21
372.766023
 31
0.0
  0
ARC
  5
164
100
AcDbEntity
  8
1
100
AcDbCircle
 10
-467.799535
 20
351.76397
 30
0.0
 40
7.0
100
AcDbArc
 50
0.0
 51
60.473547
  0
ARC
  5
165
100
AcDbEntity
  8
1
100
AcDbCircle
 10
-467.799535
 20
335.768077
 30
0.0
 40
7.0
100
AcDbArc
 50
299.526453
 51
360.0
  0
ARC
  5
166
100
AcDbEntity
  8
1
100
AcDbCircle
 10
-461.885631
 20
362.205509
 30
0.0
 40
5.0
100
AcDbArc
 50
180.0
 51
240.473547
  0
ARC
  5
167
100
AcDbEntity
  8
1
100
AcDbCircle
 10
-461.885631
 20
325.326538
 30
0.0
 40
5.0
100
AcDbArc
 50
119.526453
 51
180.0
  0
LINE
  5
168
100
AcDbEntity
  8
1
100
AcDbLine
 10
-448.234842
 20
334.766023
 30
0.0
 11
-448.234842
 21
352.766023
 31
0.0
  0
ARC
  5
169
100
AcDbEntity
  8
1
100
AcDbCircle
 10
-445.048309
 20
352.766023
 30
0.0
 40
3.186533
100
AcDbArc
 50
90.0
 51
180.0
  0
ARC
  5
16A
100
AcDbEntity
  8
1
100
AcDbCircle
 10
-445.048309
 20
334.766023
 30
0.0
 40
3.186533
100
AcDbArc
 50
180.0
 51
270.0
  0
LINE
  5
16B
100
AcDbEntity
  8
1
100
AcDbLine
 10
-456.384595
 20
357.997607
 30
0.0
 11
-448.234842
 21
355.952557
 31
0.0
  0
LINE
  5
16C
100
AcDbEntity
  8
1
100
AcDbLine
 10
-448.234842
 20
331.57949
 30
0.0
 11
-456.384595
 21
329.53444
 31
0.0
  0
LINE
  5
16D
100
AcDbEntity
  8
1
100
AcDbLine
 10
144.700869
 20
-135.58081
 30
0.0
 11
144.700869
 21
-124.385947
 31
0.0
  0
LINE
  5
16E
100
AcDbEntity
  8
1
100
AcDbLine
 10
120.327869
 20
-135.58081
 30
0.0
 11
120.327869
 21
-124.385947
 31
0.0
  0
ARC
  5
16F
100
AcDbEntity
  8
1
100
AcDbCircle
 10
141.514369
 20
-135.58081
 30
0.0
 40
3.1865
100
AcDbArc
 50
270.0
 51
360.0
  0
ARC
  5
170
100
AcDbEntity
  8
1
100
AcDbCircle
 10
123.514369
 20
-135.58081
 30
0.0
 40
3.1865
100
AcDbArc
 50
180.0
 51
270.0
  0
LINE
  5
171
100
AcDbEntity
  8
1
100
AcDbLine
 10
144.700869
 20
-180.737673
 30
0.0
 11
144.700869
 21
-156.136512
 31
0.0
  0
LINE
  5
172
100
AcDbEntity
  8
1
100
AcDbLine
 10
120.327869
 20
-180.737673
 30
0.0
 11
120.327869
 21
-156.136512
 31
0.0
  0
ARC
  5
173
100
AcDbEntity
  8
1
100
AcDbCircle
 10
123.514369
 20
-156.136512
 30
0.0
 40
3.1865
100
AcDbArc
 50
90.0
 51
180.0
  0
ARC
  5
174
100
AcDbEntity
  8
1
100
AcDbCircle
 10
141.514369
 20
-156.136512
 30
0.0
 40
3.1865
100
AcDbArc
 50
0.0
 51
90.0
  0
ARC
  5
175
100
AcDbEntity
  8
1
100
AcDbCircle
 10
141.514369
 20
-180.737673
 30
0.0
 40
3.1865
100
AcDbArc
 50
270.0
 51
360.0
  0
ARC
  5
176
100
AcDbEntity
  8
1
100
AcDbCircle
 10
123.514369
 20
-180.737673
 30
0.0
 40
3.1865
100
AcDbArc
 50
180.0
 51
270.0
  0
LINE
  5
177
100
AcDbEntity
  8
1
100
AcDbLine
 10
144.700869
 20
-262.193055
 30
0.0
 11
144.700869
 21
-203.341565
 31
0.0
  0
LINE
  5
178
100
AcDbEntity
  8
1
100
AcDbLine
 10
120.327869
 20
-262.193055
 30
0.0
 11
120.327869
 21
-203.341565
 31
0.0
  0
ARC
  5
179
100
AcDbEntity
  8
1
100
AcDbCircle
 10
141.514369
 20
-203.341565
 30
0.0
 40
3.1865
100
AcDbArc
 50
0.0
 51
90.0
  0
ARC
  5
17A
100
AcDbEntity
  8
1
100
AcDbCircle
 10
123.514369
 20
-203.341565
 30
0.0
 40
3.1865
100
AcDbArc
 50
90.0
 51
180.0
  0
ARC
  5
17B
100
AcDbEntity
  8
1
100
AcDbCircle
 10
123.514369
 20
-262.193055
 30
0.0
 40
3.1865
100
AcDbArc
 50
180.0
 51
270.0
  0
ARC
  5
17C
100
AcDbEntity
  8
1
100
AcDbCircle
 10
141.514369
 20
-262.193055
 30
0.0
 40
3.1865
100
AcDbArc
 50
270.0
 51
360.0
  0
LINE
  5
17D
100
AcDbEntity
  8
1
100
AcDbLine
 10
144.700869
 20
-309.398108
 30
0.0
 11
144.700869
 21
-284.796947
 31
0.0
  0
LINE
  5
17E
100
AcDbEntity
  8
1
100
AcDbLine
 10
120.327869
 20
-309.398108
 30
0.0
 11
120.327869
 21
-284.796947
 31
0.0
  0
ARC
  5
17F
100
AcDbEntity
  8
1
100
AcDbCircle
 10
141.514369
 20
-284.796947
 30
0.0
 40
3.1865
100
AcDbArc
 50
0.0
 51
90.0
  0
ARC
  5
180
100
AcDbEntity
  8
1
100
AcDbCircle
 10
123.514369
 20
-284.796947
 30
0.0
 40
3.1865
100
AcDbArc
 50
90.0
 51
180.0
  0
ARC
  5
181
100
AcDbEntity
  8
1
100
AcDbCircle
 10
123.514369
 20
-309.398108
 30
0.0
 40
3.1865
100
AcDbArc
 50
180.0
 51
270.0
  0
ARC
  5
182
100
AcDbEntity
  8
1
100
AcDbCircle
 10
141.514369
 20
-309.398108
 30
0.0
 40
3.1865
100
AcDbArc
 50
270.0
 51
360.0
  0
LINE
  5
183
100
AcDbEntity
  8
1
100
AcDbLine
 10
144.700869
 20
-341.148673
 30
0.0
 11
144.700869
 21
-329.95381
 31
0.0
  0
LINE
  5
184
100
AcDbEntity
  8
1
100
AcDbLine
 10
120.327869
 20
-341.148673
 30
0.0
 11
120.327869
 21
-329.95381
 31
0.0
  0
ARC
  5
185
100
AcDbEntity
  8
1
100
AcDbCircle
 10
123.514369
 20
-329.95381
 30
0.0
 40
3.1865
100
AcDbArc
 50
90.0
 51
180.0
  0
ARC
  5
186
100
AcDbEntity
  8
1
100
AcDbCircle
 10
141.514369
 20
-329.95381
 30
0.0
 40
3.1865
100
AcDbArc
 50
0.0
 51
90.0
  0
CIRCLE
  5
187
100
AcDbEntity
  8
1
100
AcDbCircle
 10
-338.885631
 20
-232.76731
 30
0.0
 40
117.3
  0
LINE
  5
188
100
AcDbEntity
  8
1
100
AcDbLine
 10
164.639369
 20
-115.46731
 30
0.0
 11
164.639369
 21
-350.06731
 31
0.0
  0
LINE
  5
189
100
AcDbEntity
  8
1
100
AcDbLine
 10
100.389369
 20
-115.46731
 30
0.0
 11
100.389369
 21
-350.06731
 31
0.0
  0
LINE
  5
18A
100
AcDbEntity
  8
1
100
AcDbLine
 10
164.639369
 20
-115.46731
 30
0.0
 11
162.802662
 21
-112.269279
 31
0.0
  0
LINE
  5
18B
100
AcDbEntity
  8
1
100
AcDbLine
 10
100.389369
 20
-115.46731
 30
0.0
 11
102.226076
 21
-112.269279
 31
0.0
  0
ARC
  5
18C
100
AcDbEntity
  8
1
100
AcDbCircle
 10
161.935503
 20
-112.76731
 30
0.0
 40
1.0
100
AcDbArc
 50
29.869799
 51
54.629162
  0
ARC
  5
18D
100
AcDbEntity
  8
1
100
AcDbCircle
 10
103.093235
 20
-112.76731
 30
0.0
 40
1.0
100
AcDbArc
 50
125.370838
 51
150.130201
  0
LINE
  5
18E
100
AcDbEntity
  8
1
100
AcDbLine
 10
164.639369
 20
-350.06731
 30
0.0
 11
162.802662
 21
-353.265341
 31
0.0
  0
LINE
  5
18F
100
AcDbEntity
  8
1
100
AcDbLine
 10
100.389369
 20
-350.06731
 30
0.0
 11
102.226076
 21
-353.265341
 31
0.0
  0
ARC
  5
190
100
AcDbEntity
  8
1
100
AcDbCircle
 10
161.935503
 20
-352.76731
 30
0.0
 40
1.0
100
AcDbArc
 50
305.370838
 51
330.130201
  0
ARC
  5
191
100
AcDbEntity
  8
1
100
AcDbCircle
 10
103.093235
 20
-352.76731
 30
0.0
 40
1.0
100
AcDbArc
 50
209.869799
 51
234.629162
  0
LINE
  5
192
100
AcDbEntity
  8
1
100
AcDbLine
 10
-456.185631
 20
375.891023
 30
0.0
 11
-459.383662
 21
374.054317
 31
0.0
  0
LINE
  5
193
100
AcDbEntity
  8
1
100
AcDbLine
 10
-456.185631
 20
311.641023
 30
0.0
 11
-459.383662
 21
313.47773
 31
0.0
  0
ARC
  5
194
100
AcDbEntity
  8
1
100
AcDbCircle
 10
-458.885631
 20
373.187157
 30
0.0
 40
1.0
100
AcDbArc
 50
119.869799
 51
144.629162
  0
ARC
  5
195
100
AcDbEntity
  8
1
100
AcDbCircle
 10
-458.885631
 20
314.34489
 30
0.0
 40
1.0
100
AcDbArc
 50
215.370838
 51
240.130201
  0
LINE
  5
196
100
AcDbEntity
  8
1
100
AcDbLine
 10
-221.585631
 20
375.891023
 30
0.0
 11
-218.3876
 21
374.054317
 31
0.0
  0
LINE
  5
197
100
AcDbEntity
  8
1
100
AcDbLine
 10
-221.585631
 20
311.641023
 30
0.0
 11
-218.3876
 21
313.47773
 31
0.0
  0
ARC
  5
198
100
AcDbEntity
  8
1
100
AcDbCircle
 10
-218.885631
 20
373.187157
 30
0.0
 40
1.0
100
AcDbArc
 50
35.370838
 51
60.130201
  0
ARC
  5
199
100
AcDbEntity
  8
1
100
AcDbCircle
 10
-218.885631
 20
314.34489
 30
0.0
 40
1.0
100
AcDbArc
 50
299.869799
 51
324.629162
  0
CIRCLE
  5
19A
100
AcDbEntity
  8
1
100
AcDbCircle
 10
-338.885631
 20
-232.76731
 30
0.0
 40
105.5
  0
CIRCLE
  5
19B
100
AcDbEntity
  8
1
100
AcDbCircle
 10
-338.885631
 20
-232.76731
 30
0.0
 40
99.5
  0
ARC
  5
19C
100
AcDbEntity
  8
1
100
AcDbCircle
 10
141.514369
 20
-124.385947
 30
0.0
 40
3.1865
100
AcDbArc
 50
0.0
 51
90.0
  0
ARC
  5
19D
100
AcDbEntity
  8
1
100
AcDbCircle
 10
123.514369
 20
-124.385947
 30
0.0
 40
3.1865
100
AcDbArc
 50
90.0
 51
180.0
  0
LINE
  5
19E
100
AcDbEntity
  8
1
100
AcDbLine
 10
123.514369
 20
-121.199447
 30
0.0
 11
125.514369
 21
-121.199447
 31
0.0
  0
LINE
  5
19F
100
AcDbEntity
  8
1
100
AcDbLine
 10
139.514369
 20
-121.199447
 30
0.0
 11
141.514369
 21
-121.199447
 31
0.0
  0
ARC
  5
1A0
100
AcDbEntity
  8
1
100
AcDbCircle
 10
139.514369
 20
-118.199447
 30
0.0
 40
3.0
100
AcDbArc
 50
180.0
 51
270.0
  0
ARC
  5
1A1
100
AcDbEntity
  8
1
100
AcDbCircle
 10
125.514369
 20
-118.199447
 30
0.0
 40
3.0
100
AcDbArc
 50
270.0
 51
360.0
  0
ARC
  5
1A2
100
AcDbEntity
  8
1
100
AcDbCircle
 10
139.514369
 20
-105.038688
 30
0.0
 40
3.0
100
AcDbArc
 50
180.0
 51
270.0
  0
ARC
  5
1A3
100
AcDbEntity
  8
1
100
AcDbCircle
 10
125.514369
 20
-105.038688
 30
0.0
 40
3.0
100
AcDbArc
 50
270.0
 51
360.0
  0
ARC
  5
1A4
100
AcDbEntity
  8
1
100
AcDbCircle
 10
139.514369
 20
-360.495932
 30
0.0
 40
3.0
100
AcDbArc
 50
90.0
 51
180.0
  0
ARC
  5
1A5
100
AcDbEntity
  8
1
100
AcDbCircle
 10
125.514369
 20
-360.495932
 30
0.0
 40
3.0
100
AcDbArc
 50
0.0
 51
90.0
  0
ARC
  5
1A6
100
AcDbEntity
  8
1
100
AcDbCircle
 10
134.514369
 20
-111.206643
 30
0.0
 40
2.0
100
AcDbArc
 50
0.0
 51
90.0
  0
ARC
  5
1A7
100
AcDbEntity
  8
1
100
AcDbCircle
 10
130.514369
 20
-111.206643
 30
0.0
 40
2.0
100
AcDbArc
 50
90.0
 51
180.0
  0
ARC
  5
1A8
100
AcDbEntity
  8
1
100
AcDbCircle
 10
134.514369
 20
-354.327977
 30
0.0
 40
2.0
100
AcDbArc
 50
270.0
 51
360.0
  0
ARC
  5
1A9
100
AcDbEntity
  8
1
100
AcDbCircle
 10
130.514369
 20
-354.327977
 30
0.0
 40
2.0
100
AcDbArc
 50
180.0
 51
270.0
  0
LINE
  5
1AA
100
AcDbEntity
  8
1
100
AcDbLine
 10
123.514369
 20
-200.155065
 30
0.0
 11
141.514369
 21
-200.155065
 31
0.0
  0
LINE
  5
1AB
100
AcDbEntity
  8
1
100
AcDbLine
 10
123.514369
 20
-183.924173
 30
0.0
 11
141.514369
 21
-183.924173
 31
0.0
  0
LINE
  5
1AC
100
AcDbEntity
  8
1
100
AcDbLine
 10
123.514369
 20
-152.950012
 30
0.0
 11
141.514369
 21
-152.950012
 31
0.0
  0
LINE
  5
1AD
100
AcDbEntity
  8
1
100
AcDbLine
 10
128.514369
 20
-123.181019
 30
0.0
 11
136.514369
 21
-123.181019
 31
0.0
  0
LINE
  5
1AE
100
AcDbEntity
  8
1
100
AcDbLine
 10
123.514369
 20
-138.76731
 30
0.0
 11
141.514369
 21
-138.76731
 31
0.0
  0
LINE
  5
1AF
100
AcDbEntity
  8
1
100
AcDbLine
 10
123.514369
 20
-265.379555
 30
0.0
 11
141.514369
 21
-265.379555
 31
0.0
  0
LINE
  5
1B0
100
AcDbEntity
  8
1
100
AcDbLine
 10
123.514369
 20
-281.610447
 30
0.0
 11
141.514369
 21
-281.610447
 31
0.0
  0
LINE
  5
1B1
100
AcDbEntity
  8
1
100
AcDbLine
 10
123.514369
 20
-312.584608
 30
0.0
 11
141.514369
 21
-312.584608
 31
0.0
  0
LINE
  5
1B2
100
AcDbEntity
  8
1
100
AcDbLine
 10
123.514369
 20
-326.76731
 30
0.0
 11
141.514369
 21
-326.76731
 31
0.0
  0
LINE
  5
1B3
100
AcDbEntity
  8
1
100
AcDbLine
 10
144.700869
 20
-183.924173
 30
0.0
 11
146.341319
 21
-187.331094
 31
0.0
  0
LINE
  5
1B4
100
AcDbEntity
  8
1
100
AcDbLine
 10
120.327869
 20
-183.924173
 30
0.0
 11
118.687419
 21
-187.331094
 31
0.0
  0
LINE
  5
1B5
100
AcDbEntity
  8
1
100
AcDbLine
 10
118.625211
 20
-196.28936
 30
0.0
 11
120.327869
 21
-200.155065
 31
0.0
  0
LINE
  5
1B6
100
AcDbEntity
  8
1
100
AcDbLine
 10
146.403527
 20
-196.28936
 30
0.0
 11
144.700869
 21
-200.155065
 31
0.0
  0
LINE
  5
1B7
100
AcDbEntity
  8
1
100
AcDbLine
 10
145.447695
 20
-139.298198
 30
0.0
 11
144.700869
 21
-138.76731
 31
0.0
  0
LINE
  5
1B8
100
AcDbEntity
  8
1
100
AcDbLine
 10
120.327869
 20
-138.76731
 30
0.0
 11
119.581043
 21
-139.298198
 31
0.0
  0
LINE
  5
1B9
100
AcDbEntity
  8
1
100
AcDbLine
 10
118.463712
 20
-147.52835
 30
0.0
 11
120.327869
 21
-152.950012
 31
0.0
  0
LINE
  5
1BA
100
AcDbEntity
  8
1
100
AcDbLine
 10
146.565027
 20
-147.52835
 30
0.0
 11
144.700869
 21
-152.950012
 31
0.0
  0
ARC
  5
1BB
100
AcDbEntity
  8
1
100
AcDbCircle
 10
139.514369
 20
-120.181019
 30
0.0
 40
3.0
100
AcDbArc
 50
180.0
 51
270.0
  0
ARC
  5
1BC
100
AcDbEntity
  8
1
100
AcDbCircle
 10
125.514369
 20
-120.181019
 30
0.0
 40
3.0
100
AcDbArc
 50
270.0
 51
360.0
  0
LINE
  5
1BD
100
AcDbEntity
  8
1
100
AcDbLine
 10
144.700869
 20
-121.199447
 30
0.0
 11
146.827586
 21
-111.251265
 31
0.0
  0
LINE
  5
1BE
100
AcDbEntity
  8
1
100
AcDbLine
 10
118.201152
 20
-111.251265
 30
0.0
 11
120.327869
 21
-121.199447
 31
0.0
  0
LINE
  5
1BF
100
AcDbEntity
  8
1
100
AcDbLine
 10
144.700869
 20
-265.379555
 30
0.0
 11
146.403527
 21
-269.24526
 31
0.0
  0
LINE
  5
1C0
100
AcDbEntity
  8
1
100
AcDbLine
 10
118.625211
 20
-269.24526
 30
0.0
 11
120.327869
 21
-265.379555
 31
0.0
  0
LINE
  5
1C1
100
AcDbEntity
  8
1
100
AcDbLine
 10
118.687419
 20
-278.203526
 30
0.0
 11
120.327869
 21
-281.610447
 31
0.0
  0
LINE
  5
1C2
100
AcDbEntity
  8
1
100
AcDbLine
 10
144.700869
 20
-281.610447
 30
0.0
 11
146.341319
 21
-278.203526
 31
0.0
  0
LINE
  5
1C3
100
AcDbEntity
  8
1
100
AcDbLine
 10
146.565027
 20
-318.006269
 30
0.0
 11
144.700869
 21
-312.584608
 31
0.0
  0
LINE
  5
1C4
100
AcDbEntity
  8
1
100
AcDbLine
 10
144.700869
 20
-326.76731
 30
0.0
 11
145.447695
 21
-326.236422
 31
0.0
  0
LINE
  5
1C5
100
AcDbEntity
  8
1
100
AcDbLine
 10
118.463712
 20
-318.006269
 30
0.0
 11
120.327869
 21
-312.584608
 31
0.0
  0
LINE
  5
1C6
100
AcDbEntity
  8
1
100
AcDbLine
 10
120.327869
 20
-326.76731
 30
0.0
 11
119.581043
 21
-326.236422
 31
0.0
  0
ARC
  5
1C7
100
AcDbEntity
  8
1
100
AcDbCircle
 10
141.514369
 20
-341.148673
 30
0.0
 40
3.1865
100
AcDbArc
 50
270.0
 51
360.0
  0
ARC
  5
1C8
100
AcDbEntity
  8
1
100
AcDbCircle
 10
123.514369
 20
-341.148673
 30
0.0
 40
3.1865
100
AcDbArc
 50
180.0
 51
270.0
  0
LINE
  5
1C9
100
AcDbEntity
  8
1
100
AcDbLine
 10
123.514369
 20
-344.335173
 30
0.0
 11
125.514369
 21
-344.335173
 31
0.0
  0
LINE
  5
1CA
100
AcDbEntity
  8
1
100
AcDbLine
 10
139.514369
 20
-344.335173
 30
0.0
 11
141.514369
 21
-344.335173
 31
0.0
  0
ARC
  5
1CB
100
AcDbEntity
  8
1
100
AcDbCircle
 10
139.514369
 20
-347.335173
 30
0.0
 40
3.0
100
AcDbArc
 50
90.0
 51
180.0
  0
ARC
  5
1CC
100
AcDbEntity
  8
1
100
AcDbCircle
 10
125.514369
 20
-347.335173
 30
0.0
 40
3.0
100
AcDbArc
 50
0.0
 51
90.0
  0
LINE
  5
1CD
100
AcDbEntity
  8
1
100
AcDbLine
 10
128.514369
 20
-342.3536
 30
0.0
 11
136.514369
 21
-342.3536
 31
0.0
  0
ARC
  5
1CE
100
AcDbEntity
  8
1
100
AcDbCircle
 10
139.514369
 20
-345.3536
 30
0.0
 40
3.0
100
AcDbArc
 50
90.0
 51
180.0
  0
ARC
  5
1CF
100
AcDbEntity
  8
1
100
AcDbCircle
 10
125.514369
 20
-345.3536
 30
0.0
 40
3.0
100
AcDbArc
 50
0.0
 51
90.0
  0
LINE
  5
1D0
100
AcDbEntity
  8
1
100
AcDbLine
 10
144.700869
 20
-344.335173
 30
0.0
 11
146.827586
 21
-354.283355
 31
0.0
  0
LINE
  5
1D1
100
AcDbEntity
  8
1
100
AcDbLine
 10
118.201152
 20
-354.283355
 30
0.0
 11
120.327869
 21
-344.335173
 31
0.0
  0
LINE
  5
1D2
100
AcDbEntity
  8
1
  6
CENTER
 62
     2
100
AcDbLine
 10
168.514369
 20
-30.673531
 30
0.0
 11
168.514369
 21
2.158069
 31
0.0
  0
LINE
  5
1D3
100
AcDbEntity
  8
1
  6
CENTER
 62
     2
100
AcDbLine
 10
96.514369
 20
-30.673531
 30
0.0
 11
96.514369
 21
2.158069
 31
0.0
  0
LINE
  5
1D4
100
AcDbEntity
  8
1
100
AcDbLine
 10
-409.962944
 20
375.891023
 30
0.0
 11
-389.426017
 21
375.891023
 31
0.0
  0
LINE
  5
1D5
100
AcDbEntity
  8
1
100
AcDbLine
 10
-456.185631
 20
375.891023
 30
0.0
 11
-433.585073
 21
375.891023
 31
0.0
  0
LINE
  5
1D6
100
AcDbEntity
  8
1
  6
DASHED
100
AcDbLine
 10
-433.585073
 20
375.891023
 30
0.0
 11
-409.962944
 21
375.891023
 31
0.0
  0
LINE
  5
1D7
100
AcDbEntity
  8
1
100
AcDbLine
 10
-389.752274
 20
373.766023
 30
0.0
 11
-410.885631
 21
373.766023
 31
0.0
  0
LINE
  5
1D8
100
AcDbEntity
  8
1
  6
DASHED
100
AcDbLine
 10
-410.885631
 20
373.766023
 30
0.0
 11
-434.279551
 21
373.766023
 31
0.0
  0
LINE
  5
1D9
100
AcDbEntity
  8
1
100
AcDbLine
 10
-434.279551
 20
373.766023
 30
0.0
 11
-465.885631
 21
373.766023
 31
0.0
  0
LINE
  5
1DA
100
AcDbEntity
  8
1
100
AcDbLine
 10
-466.885631
 20
372.766023
 30
0.0
 11
-434.588295
 21
372.766023
 31
0.0
  0
LINE
  5
1DB
100
AcDbEntity
  8
1
  6
DASHED
100
AcDbLine
 10
-434.588295
 20
372.766023
 30
0.0
 11
-411.294194
 21
372.766023
 31
0.0
  0
LINE
  5
1DC
100
AcDbEntity
  8
1
100
AcDbLine
 10
-411.294194
 20
372.766023
 30
0.0
 11
-389.83771
 21
372.766023
 31
0.0
  0
LINE
  5
1DD
100
AcDbEntity
  8
1
100
AcDbLine
 10
-466.885631
 20
314.766023
 30
0.0
 11
-434.588295
 21
314.766023
 31
0.0
  0
LINE
  5
1DE
100
AcDbEntity
  8
1
  6
DASHED
100
AcDbLine
 10
-434.588295
 20
314.766023
 30
0.0
 11
-389.83771
 21
314.766023
 31
0.0
  0
LINE
  5
1DF
100
AcDbEntity
  8
1
  6
DASHED
100
AcDbLine
 10
-389.752274
 20
313.766023
 30
0.0
 11
-434.279551
 21
313.766023
 31
0.0
  0
LINE
  5
1E0
100
AcDbEntity
  8
1
100
AcDbLine
 10
-434.279551
 20
313.766023
 30
0.0
 11
-465.885631
 21
313.766023
 31
0.0
  0
LINE
  5
1E1
100
AcDbEntity
  8
1
100
AcDbLine
 10
-456.185631
 20
311.641023
 30
0.0
 11
-433.585073
 21
311.641023
 31
0.0
  0
LINE
  5
1E2
100
AcDbEntity
  8
1
  6
DASHED
100
AcDbLine
 10
-433.585073
 20
311.641023
 30
0.0
 11
-389.426017
 21
311.641023
 31
0.0
  0
ARC
  5
1E3
100
AcDbEntity
  8
1
  6
DASHED
100
AcDbCircle
 10
-437.837231
 20
352.766023
 30
0.0
 40
6.0
100
AcDbArc
 50
0.0
 51
89.208207
  0
ARC
  5
1E4
100
AcDbEntity
  8
1
100
AcDbCircle
 10
-437.837231
 20
352.766023
 30
0.0
 40
6.0
100
AcDbArc
 50
89.208207
 51
90.0
  0
ARC
  5
1E5
100
AcDbEntity
  8
1
100
AcDbCircle
 10
-437.837231
 20
334.766023
 30
0.0
 40
6.0
100
AcDbArc
 50
270.0
 51
270.791793
  0
ARC
  5
1E6
100
AcDbEntity
  8
1
  6
DASHED
100
AcDbCircle
 10
-437.837231
 20
334.766023
 30
0.0
 40
6.0
100
AcDbArc
 50
270.791793
 51
0.0
  0
LINE
  5
1E7
100
AcDbEntity
  8
1
  6
DASHED
100
AcDbLine
 10
-432.753335
 20
355.952557
 30
0.0
 11
-438.140295
 21
355.952557
 31
0.0
  0
LINE
  5
1E8
100
AcDbEntity
  8
1
100
AcDbLine
 10
-438.140295
 20
355.952557
 30
0.0
 11
-445.048309
 21
355.952557
 31
0.0
  0
LINE
  5
1E9
100
AcDbEntity
  8
1
  6
DASHED
100
AcDbLine
 10
-432.753335
 20
331.57949
 30
0.0
 11
-438.140295
 21
331.57949
 31
0.0
  0
LINE
  5
1EA
100
AcDbEntity
  8
1
100
AcDbLine
 10
-438.140295
 20
331.57949
 30
0.0
 11
-445.048309
 21
331.57949
 31
0.0
  0
LINE
  5
1EB
100
AcDbEntity
  8
1
  6
DASHED
100
AcDbLine
 10
-415.429736
 20
358.766023
 30
0.0
 11
-421.880013
 21
358.766023
 31
0.0
  0
LINE
  5
1EC
100
AcDbEntity
  8
1
100
AcDbLine
 10
-411.976328
 20
355.952557
 30
0.0
 11
-415.817197
 21
356.632032
 31
0.0
  0
LINE
  5
1ED
100
AcDbEntity
  8
1
  6
DASHED
100
AcDbLine
 10
-415.817197
 20
356.632032
 30
0.0
 11
-424.493489
 21
358.166925
 31
0.0
  0
LINE
  5
1EE
100
AcDbEntity
  8
1
  6
DASHED
100
AcDbLine
 10
-424.493489
 20
329.365122
 30
0.0
 11
-415.817197
 21
330.900015
 31
0.0
  0
LINE
  5
1EF
100
AcDbEntity
  8
1
100
AcDbLine
 10
-415.817197
 20
330.900015
 30
0.0
 11
-411.976328
 21
331.57949
 31
0.0
  0
LINE
  5
1F0
100
AcDbEntity
  8
1
  6
DASHED
100
AcDbLine
 10
-415.429736
 20
328.766023
 30
0.0
 11
-421.880013
 21
328.766023
 31
0.0
  0
LINE
  5
1F1
100
AcDbEntity
  8
1
  6
DASHED
100
AcDbLine
 10
-389.885631
 20
331.57949
 30
0.0
 11
-395.590908
 21
331.57949
 31
0.0
  0
LINE
  5
1F2
100
AcDbEntity
  8
1
100
AcDbLine
 10
-395.590908
 20
331.57949
 30
0.0
 11
-408.789795
 21
331.57949
 31
0.0
  0
LINE
  5
1F3
100
AcDbEntity
  8
1
  6
DASHED
100
AcDbLine
 10
-389.885631
 20
328.766023
 30
0.0
 11
-394.91241
 21
328.766023
 31
0.0
  0
LINE
  5
1F4
100
AcDbEntity
  8
1
100
AcDbLine
 10
-394.91241
 20
328.766023
 30
0.0
 11
-415.429736
 21
328.766023
 31
0.0
  0
LINE
  5
1F5
100
AcDbEntity
  8
1
  6
DASHED
100
AcDbLine
 10
-389.885631
 20
355.952557
 30
0.0
 11
-395.590908
 21
355.952557
 31
0.0
  0
LINE
  5
1F6
100
AcDbEntity
  8
1
100
AcDbLine
 10
-395.590908
 20
355.952557
 30
0.0
 11
-408.789795
 21
355.952557
 31
0.0
  0
LINE
  5
1F7
100
AcDbEntity
  8
1
  6
DASHED
100
AcDbLine
 10
-389.885631
 20
358.766023
 30
0.0
 11
-394.91241
 21
358.766023
 31
0.0
  0
LINE
  5
1F8
100
AcDbEntity
  8
1
100
AcDbLine
 10
-394.91241
 20
358.766023
 30
0.0
 11
-415.429736
 21
358.766023
 31
0.0
  0
LINE
  5
1F9
100
AcDbEntity
  8
1
100
AcDbLine
 10
-210.885631
 20
314.766023
 30
0.0
 11
-243.182966
 21
314.766023
 31
0.0
  0
LINE
  5
1FA
100
AcDbEntity
  8
1
  6
DASHED
100
AcDbLine
 10
-243.182966
 20
314.766023
 30
0.0
 11
-287.933552
 21
314.766023
 31
0.0
  0
LINE
  5
1FB
100
AcDbEntity
  8
1
  6
DASHED
100
AcDbLine
 10
-288.018988
 20
313.766023
 30
0.0
 11
-243.491711
 21
313.766023
 31
0.0
  0
LINE
  5
1FC
100
AcDbEntity
  8
1
100
AcDbLine
 10
-243.491711
 20
313.766023
 30
0.0
 11
-211.885631
 21
313.766023
 31
0.0
  0
LINE
  5
1FD
100
AcDbEntity
  8
1
  6
DASHED
100
AcDbLine
 10
-288.345245
 20
311.641023
 30
0.0
 11
-244.186189
 21
311.641023
 31
0.0
  0
LINE
  5
1FE
100
AcDbEntity
  8
1
100
AcDbLine
 10
-244.186189
 20
311.641023
 30
0.0
 11
-221.585631
 21
311.641023
 31
0.0
  0
LINE
  5
1FF
100
AcDbEntity
  8
1
100
AcDbLine
 10
-210.885631
 20
372.766023
 30
0.0
 11
-243.182966
 21
372.766023
 31
0.0
  0
LINE
  5
200
100
AcDbEntity
  8
1
100
AcDbLine
 10
-243.491711
 20
373.766023
 30
0.0
 11
-211.885631
 21
373.766023
 31
0.0
  0
LINE
  5
201
100
AcDbEntity
  8
1
100
AcDbLine
 10
-244.186189
 20
375.891023
 30
0.0
 11
-221.585631
 21
375.891023
 31
0.0
  0
LINE
  5
202
100
AcDbEntity
  8
1
  6
DASHED
100
AcDbLine
 10
-243.182966
 20
372.766023
 30
0.0
 11
-266.477068
 21
372.766023
 31
0.0
  0
LINE
  5
203
100
AcDbEntity
  8
1
100
AcDbLine
 10
-266.477068
 20
372.766023
 30
0.0
 11
-287.933552
 21
372.766023
 31
0.0
  0
LINE
  5
204
100
AcDbEntity
  8
1
100
AcDbLine
 10
-288.018988
 20
373.766023
 30
0.0
 11
-266.885631
 21
373.766023
 31
0.0
  0
LINE
  5
205
100
AcDbEntity
  8
1
  6
DASHED
100
AcDbLine
 10
-266.885631
 20
373.766023
 30
0.0
 11
-243.491711
 21
373.766023
 31
0.0
  0
LINE
  5
206
100
AcDbEntity
  8
1
100
AcDbLine
 10
-288.345245
 20
375.891023
 30
0.0
 11
-267.808318
 21
375.891023
 31
0.0
  0
LINE
  5
207
100
AcDbEntity
  8
1
  6
DASHED
100
AcDbLine
 10
-267.808318
 20
375.891023
 30
0.0
 11
-244.186189
 21
375.891023
 31
0.0
  0
LINE
  5
208
100
AcDbEntity
  8
1
  6
DASHED
100
AcDbLine
 10
-245.017927
 20
355.952557
 30
0.0
 11
-239.630967
 21
355.952557
 31
0.0
  0
LINE
  5
209
100
AcDbEntity
  8
1
100
AcDbLine
 10
-239.630967
 20
355.952557
 30
0.0
 11
-232.722953
 21
355.952557
 31
0.0
  0
ARC
  5
20A
100
AcDbEntity
  8
1
100
AcDbCircle
 10
-239.934031
 20
352.766023
 30
0.0
 40
6.0
100
AcDbArc
 50
90.0
 51
90.791793
  0
ARC
  5
20B
100
AcDbEntity
  8
1
  6
DASHED
100
AcDbCircle
 10
-239.934031
 20
352.766023
 30
0.0
 40
6.0
100
AcDbArc
 50
90.791793
 51
180.0
  0
LINE
  5
20C
100
AcDbEntity
  8
1
  6
DASHED
100
AcDbLine
 10
-245.017927
 20
331.57949
 30
0.0
 11
-239.630967
 21
331.57949
 31
0.0
  0
LINE
  5
20D
100
AcDbEntity
  8
1
100
AcDbLine
 10
-239.630967
 20
331.57949
 30
0.0
 11
-232.722953
 21
331.57949
 31
0.0
  0
ARC
  5
20E
100
AcDbEntity
  8
1
  6
DASHED
100
AcDbCircle
 10
-239.934031
 20
334.766023
 30
0.0
 40
6.0
100
AcDbArc
 50
180.0
 51
269.208207
  0
ARC
  5
20F
100
AcDbEntity
  8
1
100
AcDbCircle
 10
-239.934031
 20
334.766023
 30
0.0
 40
6.0
100
AcDbArc
 50
269.208207
 51
270.0
  0
LINE
  5
210
100
AcDbEntity
  8
1
  6
DASHED
100
AcDbLine
 10
-262.341526
 20
358.766023
 30
0.0
 11
-255.891249
 21
358.766023
 31
0.0
  0
LINE
  5
211
100
AcDbEntity
  8
1
100
AcDbLine
 10
-265.794934
 20
355.952557
 30
0.0
 11
-261.954065
 21
356.632032
 31
0.0
  0
LINE
  5
212
100
AcDbEntity
  8
1
  6
DASHED
100
AcDbLine
 10
-261.954065
 20
356.632032
 30
0.0
 11
-253.277772
 21
358.166925
 31
0.0
  0
LINE
  5
213
100
AcDbEntity
  8
1
  6
DASHED
100
AcDbLine
 10
-287.885631
 20
358.766023
 30
0.0
 11
-282.858852
 21
358.766023
 31
0.0
  0
LINE
  5
214
100
AcDbEntity
  8
1
100
AcDbLine
 10
-282.858852
 20
358.766023
 30
0.0
 11
-262.341526
 21
358.766023
 31
0.0
  0
LINE
  5
215
100
AcDbEntity
  8
1
  6
DASHED
100
AcDbLine
 10
-287.885631
 20
355.952557
 30
0.0
 11
-282.180354
 21
355.952557
 31
0.0
  0
LINE
  5
216
100
AcDbEntity
  8
1
100
AcDbLine
 10
-282.180354
 20
355.952557
 30
0.0
 11
-268.981467
 21
355.952557
 31
0.0
  0
LINE
  5
217
100
AcDbEntity
  8
1
  6
DASHED
100
AcDbLine
 10
-287.885631
 20
331.57949
 30
0.0
 11
-282.180354
 21
331.57949
 31
0.0
  0
LINE
  5
218
100
AcDbEntity
  8
1
100
AcDbLine
 10
-282.180354
 20
331.57949
 30
0.0
 11
-268.981467
 21
331.57949
 31
0.0
  0
LINE
  5
219
100
AcDbEntity
  8
1
  6
DASHED
100
AcDbLine
 10
-287.885631
 20
328.766023
 30
0.0
 11
-282.858852
 21
328.766023
 31
0.0
  0
LINE
  5
21A
100
AcDbEntity
  8
1
  6
DASHED
100
AcDbLine
 10
-253.277772
 20
329.365122
 30
0.0
 11
-261.954065
 21
330.900015
 31
0.0
  0
LINE
  5
21B
100
AcDbEntity
  8
1
100
AcDbLine
 10
-261.954065
 20
330.900015
 30
0.0
 11
-265.794934
 21
331.57949
 31
0.0
  0
LINE
  5
21C
100
AcDbEntity
  8
1
100
AcDbLine
 10
-282.858852
 20
328.766023
 30
0.0
 11
-262.341526
 21
328.766023
 31
0.0
  0
LINE
  5
21D
100
AcDbEntity
  8
1
  6
DASHED
100
AcDbLine
 10
-262.341526
 20
328.766023
 30
0.0
 11
-255.891249
 21
328.766023
 31
0.0
  0
LINE
  5
21E
100
AcDbEntity
  8
1
  6
CENTER
 62
     2
100
AcDbLine
 10
-338.885631
 20
158.093901
 30
0.0
 11
-338.885631
 21
-425.3386
 31
0.0
  0
LINE
  5
21F
100
AcDbEntity
  8
1
  6
CENTER
 62
     2
100
AcDbLine
 10
132.514369
 20
158.093901
 30
0.0
 11
132.514369
 21
-425.3386
 31
0.0
  0
ARC
  5
220
100
AcDbEntity
  8
1
100
AcDbCircle
 10
-338.885631
 20
-232.76731
 30
0.0
 40
97.85
100
AcDbArc
 50
119.999927
 51
241.762092
  0
ARC
  5
221
100
AcDbEntity
  8
1
100
AcDbCircle
 10
-338.885631
 20
-236.31731
 30
0.0
 40
100.94
100
AcDbArc
 50
101.538656
 51
118.992348
  0
ARC
  5
222
100
AcDbEntity
  8
1
100
AcDbCircle
 10
-338.885631
 20
-229.21731
 30
0.0
 40
100.94
100
AcDbArc
 50
241.007652
 51
258.461344
  0
LINE
  5
223
100
AcDbEntity
  8
1
100
AcDbLine
 10
-359.07656
 20
-328.11731
 30
0.0
 11
-318.694703
 21
-328.11731
 31
0.0
  0
ARC
  5
224
100
AcDbEntity
  8
1
100
AcDbCircle
 10
-338.885631
 20
-232.76731
 30
0.0
 40
97.85
100
AcDbArc
 50
298.237908
 51
60.000073
  0
LINE
  5
225
100
AcDbEntity
  8
1
100
AcDbLine
 10
-348.885631
 20
-181.11104
 30
0.0
 11
-348.885631
 21
-149.41731
 31
0.0
  0
LINE
  5
226
100
AcDbEntity
  8
1
100
AcDbLine
 10
-326.885631
 20
-176.271934
 30
0.0
 11
-326.885631
 21
-149.41731
 31
0.0
  0
LINE
  5
227
100
AcDbEntity
  8
1
100
AcDbLine
 10
-320.678204
 20
-174.926887
 30
0.0
 11
-320.678204
 21
-149.41731
 31
0.0
  0
ARC
  5
228
100
AcDbEntity
  8
1
100
AcDbCircle
 10
-310.678204
 20
-174.926887
 30
0.0
 40
10.0
100
AcDbArc
 50
180.0
 51
265.0
  0
ARC
  5
229
100
AcDbEntity
  8
1
100
AcDbCircle
 10
-338.885631
 20
-181.11104
 30
0.0
 40
10.0
100
AcDbArc
 50
180.0
 51
265.000001
  0
LINE
  5
22A
100
AcDbEntity
  8
1
100
AcDbLine
 10
-359.753362
 20
-182.048362
 30
0.0
 11
-359.753362
 21
-149.41731
 31
0.0
  0
ARC
  5
22B
100
AcDbEntity
  8
1
100
AcDbCircle
 10
-349.753362
 20
-182.048362
 30
0.0
 40
10.0
100
AcDbArc
 50
180.0
 51
265.0
  0
ARC
  5
22C
100
AcDbEntity
  8
1
100
AcDbCircle
 10
-316.885631
 20
-176.271934
 30
0.0
 40
10.0
100
AcDbArc
 50
180.0
 51
264.999999
  0
ARC
  5
22D
100
AcDbEntity
  8
1
100
AcDbCircle
 10
-325.545885
 20
-175.514259
 30
0.0
 40
10.0
100
AcDbArc
 50
180.0
 51
264.999999
  0
LINE
  5
22E
100
AcDbEntity
  8
1
100
AcDbLine
 10
-357.673108
 20
-145.061917
 30
0.0
 11
-357.673108
 21
-140.750856
 31
0.0
  0
LINE
  5
22F
100
AcDbEntity
  8
1
100
AcDbLine
 10
-320.098154
 20
-144.670047
 30
0.0
 11
-320.098154
 21
-139.771018
 31
0.0
  0
LINE
  5
230
100
AcDbEntity
  8
1
100
AcDbLine
 10
-362.867317
 20
-148.41731
 30
0.0
 11
-313.660571
 21
-148.41731
 31
0.0
  0
LINE
  5
231
100
AcDbEntity
  8
1
100
AcDbLine
 10
-310.817248
 20
-146.433706
 30
0.0
 11
-310.817248
 21
-142.514436
 31
0.0
  0
LINE
  5
232
100
AcDbEntity
  8
1
100
AcDbLine
 10
-366.954014
 20
-146.041756
 30
0.0
 11
-366.954014
 21
-142.3185
 31
0.0
  0
ARC
  5
233
100
AcDbEntity
  8
1
100
AcDbCircle
 10
-338.885631
 20
-344.375838
 30
0.0
 40
197.958528
100
AcDbArc
 50
81.848607
 51
98.151393
  0
ARC
  5
234
100
AcDbEntity
  8
1
100
AcDbCircle
 10
-319.678204
 20
-149.41731
 30
0.0
 40
1.0
100
AcDbArc
 50
90.0
 51
180.0
  0
ARC
  5
235
100
AcDbEntity
  8
1
100
AcDbCircle
 10
-325.885631
 20
-149.41731
 30
0.0
 40
1.0
100
AcDbArc
 50
90.0
 51
180.0
  0
ARC
  5
236
100
AcDbEntity
  8
1
100
AcDbCircle
 10
-349.885631
 20
-149.41731
 30
0.0
 40
1.0
100
AcDbArc
 50
0.0
 51
90.0
  0
ARC
  5
237
100
AcDbEntity
  8
1
100
AcDbCircle
 10
-360.753362
 20
-149.41731
 30
0.0
 40
1.0
100
AcDbArc
 50
0.0
 51
90.0
  0
ARC
  5
238
100
AcDbEntity
  8
1
100
AcDbCircle
 10
-326.457428
 20
-195.12851
 30
0.0
 40
1.0
100
AcDbArc
 50
85.0
 51
180.0
  0
ARC
  5
239
100
AcDbEntity
  8
1
100
AcDbCircle
 10
-333.385631
 20
-194.522371
 30
0.0
 40
1.0
100
AcDbArc
 50
85.0
 51
180.0
  0
ARC
  5
23A
100
AcDbEntity
  8
1
100
AcDbCircle
 10
-344.385631
 20
-193.559996
 30
0.0
 40
1.0
100
AcDbArc
 50
0.0
 51
85.0
  0
ARC
  5
23B
100
AcDbEntity
  8
1
100
AcDbCircle
 10
-351.313835
 20
-192.937114
 30
0.0
 40
1.0
100
AcDbArc
 50
0.0
 51
81.84444
  0
LINE
  5
23C
100
AcDbEntity
  8
1
100
AcDbLine
 10
-359.753362
 20
-228.51731
 30
0.0
 11
-359.753362
 21
-237.01731
 31
0.0
  0
LINE
  5
23D
100
AcDbEntity
  8
1
100
AcDbLine
 10
-348.885631
 20
-230.398251
 30
0.0
 11
-348.885631
 21
-235.136369
 31
0.0
  0
LINE
  5
23E
100
AcDbEntity
  8
1
100
AcDbLine
 10
-357.640312
 20
-227.883028
 30
0.0
 11
-349.217023
 21
-229.340895
 31
0.0
  0
LINE
  5
23F
100
AcDbEntity
  8
1
100
AcDbLine
 10
-349.144368
 20
-236.18115
 30
0.0
 11
-357.735052
 21
-237.667989
 31
0.0
  0
ARC
  5
240
100
AcDbEntity
  8
1
100
AcDbCircle
 10
-326.457428
 20
-226.51731
 30
0.0
 40
1.0
100
AcDbArc
 50
180.0
 51
270.0
  0
ARC
  5
241
100
AcDbEntity
  8
1
100
AcDbCircle
 10
-351.313835
 20
-226.51731
 30
0.0
 40
1.0
100
AcDbArc
 50
270.0
 51
360.0
  0
ARC
  5
242
100
AcDbEntity
  8
1
100
AcDbCircle
 10
-345.378289
 20
-227.821065
 30
0.0
 40
1.0
100
AcDbArc
 50
254.810856
 51
270.0
  0
ARC
  5
243
100
AcDbEntity
  8
1
100
AcDbCircle
 10
-332.392973
 20
-227.821065
 30
0.0
 40
1.0
100
AcDbArc
 50
270.0
 51
285.189144
  0
ARC
  5
244
100
AcDbEntity
  8
1
100
AcDbCircle
 10
-333.385631
 20
-227.821065
 30
0.0
 40
1.0
100
AcDbArc
 50
180.0
 51
270.0
  0
ARC
  5
245
100
AcDbEntity
  8
1
100
AcDbCircle
 10
-344.385631
 20
-227.821065
 30
0.0
 40
1.0
100
AcDbArc
 50
270.0
 51
0.0
  0
ARC
  5
246
100
AcDbEntity
  8
1
100
AcDbCircle
 10
-333.385631
 20
-237.713555
 30
0.0
 40
1.0
100
AcDbArc
 50
90.0
 51
180.0
  0
ARC
  5
247
100
AcDbEntity
  8
1
100
AcDbCircle
 10
-344.385631
 20
-237.713555
 30
0.0
 40
1.0
100
AcDbArc
 50
0.0
 51
90.0
  0
ARC
  5
248
100
AcDbEntity
  8
1
100
AcDbCircle
 10
-351.313835
 20
-239.01731
 30
0.0
 40
1.0
100
AcDbArc
 50
0.0
 51
90.0
  0
ARC
  5
249
100
AcDbEntity
  8
1
100
AcDbCircle
 10
-326.457428
 20
-239.01731
 30
0.0
 40
1.0
100
AcDbArc
 50
90.0
 51
180.0
  0
ARC
  5
24A
100
AcDbEntity
  8
1
100
AcDbCircle
 10
-347.885631
 20
-230.398251
 30
0.0
 40
1.0
100
AcDbArc
 50
90.0
 51
180.0
  0
ARC
  5
24B
100
AcDbEntity
  8
1
100
AcDbCircle
 10
-347.885631
 20
-235.136369
 30
0.0
 40
1.0
100
AcDbArc
 50
180.0
 51
270.0
  0
ARC
  5
24C
100
AcDbEntity
  8
1
100
AcDbCircle
 10
-358.753362
 20
-228.51731
 30
0.0
 40
1.0
100
AcDbArc
 50
90.0
 51
180.0
  0
ARC
  5
24D
100
AcDbEntity
  8
1
100
AcDbCircle
 10
-358.753362
 20
-237.01731
 30
0.0
 40
1.0
100
AcDbArc
 50
180.0
 51
270.0
  0
ARC
  5
24E
100
AcDbEntity
  8
1
100
AcDbCircle
 10
-345.378289
 20
-237.713555
 30
0.0
 40
1.0
100
AcDbArc
 50
90.0
 51
105.189144
  0
LINE
  5
24F
100
AcDbEntity
  8
1
100
AcDbLine
 10
-348.885631
 20
-284.42358
 30
0.0
 11
-348.885631
 21
-316.11731
 31
0.0
  0
LINE
  5
250
100
AcDbEntity
  8
1
100
AcDbLine
 10
-326.885631
 20
-289.262686
 30
0.0
 11
-326.885631
 21
-316.11731
 31
0.0
  0
LINE
  5
251
100
AcDbEntity
  8
1
100
AcDbLine
 10
-320.678204
 20
-290.607732
 30
0.0
 11
-320.678204
 21
-316.11731
 31
0.0
  0
ARC
  5
252
100
AcDbEntity
  8
1
100
AcDbCircle
 10
-310.678204
 20
-290.607732
 30
0.0
 40
10.0
100
AcDbArc
 50
95.0
 51
180.0
  0
ARC
  5
253
100
AcDbEntity
  8
1
100
AcDbCircle
 10
-338.885631
 20
-284.42358
 30
0.0
 40
10.0
100
AcDbArc
 50
94.999999
 51
180.0
  0
LINE
  5
254
100
AcDbEntity
  8
1
100
AcDbLine
 10
-359.753362
 20
-283.486258
 30
0.0
 11
-359.753362
 21
-316.11731
 31
0.0
  0
ARC
  5
255
100
AcDbEntity
  8
1
100
AcDbCircle
 10
-349.753362
 20
-283.486258
 30
0.0
 40
10.0
100
AcDbArc
 50
95.0
 51
180.0
  0
ARC
  5
256
100
AcDbEntity
  8
1
100
AcDbCircle
 10
-316.885631
 20
-289.262686
 30
0.0
 40
10.0
100
AcDbArc
 50
95.000001
 51
180.0
  0
ARC
  5
257
100
AcDbEntity
  8
1
100
AcDbCircle
 10
-325.545885
 20
-290.02036
 30
0.0
 40
10.0
100
AcDbArc
 50
95.000001
 51
180.0
  0
LINE
  5
258
100
AcDbEntity
  8
1
100
AcDbLine
 10
-357.673108
 20
-320.472703
 30
0.0
 11
-357.673108
 21
-324.783764
 31
0.0
  0
LINE
  5
259
100
AcDbEntity
  8
1
100
AcDbLine
 10
-320.098154
 20
-320.864573
 30
0.0
 11
-320.098154
 21
-325.763601
 31
0.0
  0
LINE
  5
25A
100
AcDbEntity
  8
1
100
AcDbLine
 10
-362.867317
 20
-317.11731
 30
0.0
 11
-313.660571
 21
-317.11731
 31
0.0
  0
LINE
  5
25B
100
AcDbEntity
  8
1
100
AcDbLine
 10
-310.817248
 20
-319.100914
 30
0.0
 11
-310.817248
 21
-323.020183
 31
0.0
  0
LINE
  5
25C
100
AcDbEntity
  8
1
100
AcDbLine
 10
-366.954014
 20
-319.492864
 30
0.0
 11
-366.954014
 21
-323.216119
 31
0.0
  0
ARC
  5
25D
100
AcDbEntity
  8
1
100
AcDbCircle
 10
-338.885631
 20
-121.158782
 30
0.0
 40
197.958528
100
AcDbArc
 50
261.848607
 51
278.151393
  0
ARC
  5
25E
100
AcDbEntity
  8
1
100
AcDbCircle
 10
-319.678204
 20
-316.11731
 30
0.0
 40
1.0
100
AcDbArc
 50
180.0
 51
270.0
  0
ARC
  5
25F
100
AcDbEntity
  8
1
100
AcDbCircle
 10
-325.885631
 20
-316.11731
 30
0.0
 40
1.0
100
AcDbArc
 50
180.0
 51
270.0
  0
ARC
  5
260
100
AcDbEntity
  8
1
100
AcDbCircle
 10
-349.885631
 20
-316.11731
 30
0.0
 40
1.0
100
AcDbArc
 50
270.0
 51
360.0
  0
ARC
  5
261
100
AcDbEntity
  8
1
100
AcDbCircle
 10
-360.753362
 20
-316.11731
 30
0.0
 40
1.0
100
AcDbArc
 50
270.0
 51
360.0
  0
ARC
  5
262
100
AcDbEntity
  8
1
100
AcDbCircle
 10
-333.385631
 20
-271.012249
 30
0.0
 40
1.0
100
AcDbArc
 50
180.0
 51
275.0
  0
ARC
  5
263
100
AcDbEntity
  8
1
100
AcDbCircle
 10
-344.385631
 20
-271.974624
 30
0.0
 40
1.0
100
AcDbArc
 50
275.0
 51
360.0
  0
ARC
  5
264
100
AcDbEntity
  8
1
100
AcDbCircle
 10
-351.313835
 20
-272.597506
 30
0.0
 40
1.0
100
AcDbArc
 50
278.15556
 51
360.0
  0
ARC
  5
265
100
AcDbEntity
  8
1
100
AcDbCircle
 10
-326.457428
 20
-270.406109
 30
0.0
 40
1.0
100
AcDbArc
 50
180.0
 51
275.0
  0
LINE
  5
266
100
AcDbEntity
  8
1
100
AcDbLine
 10
-334.385631
 20
-272.425724
 30
0.0
 11
-334.385631
 21
-237.713555
 31
0.0
  0
LINE
  5
267
100
AcDbEntity
  8
1
100
AcDbLine
 10
-343.385631
 20
-271.974624
 30
0.0
 11
-343.385631
 21
-237.713555
 31
0.0
  0
LINE
  5
268
100
AcDbEntity
  8
1
100
AcDbLine
 10
-350.313835
 20
-272.597506
 30
0.0
 11
-350.313835
 21
-239.01731
 31
0.0
  0
LINE
  5
269
100
AcDbEntity
  8
1
100
AcDbLine
 10
-327.457428
 20
-270.351027
 30
0.0
 11
-327.457428
 21
-239.01731
 31
0.0
  0
LINE
  5
26A
100
AcDbEntity
  8
1
100
AcDbLine
 10
-251.914731
 20
-227.51731
 30
0.0
 11
-326.457428
 21
-227.51731
 31
0.0
  0
LINE
  5
26B
100
AcDbEntity
  8
1
100
AcDbLine
 10
-258.720496
 20
-229.398251
 30
0.0
 11
-347.885631
 21
-229.398251
 31
0.0
  0
LINE
  5
26C
100
AcDbEntity
  8
1
100
AcDbLine
 10
-257.75542
 20
-229.398251
 30
0.0
 11
-252.026781
 21
-228.162068
 31
0.0
  0
LINE
  5
26D
100
AcDbEntity
  8
1
100
AcDbLine
 10
-257.75542
 20
-236.136369
 30
0.0
 11
-252.037543
 21
-237.37023
 31
0.0
  0
LINE
  5
26E
100
AcDbEntity
  8
1
100
AcDbLine
 10
-258.720496
 20
-236.136369
 30
0.0
 11
-347.885631
 21
-236.136369
 31
0.0
  0
LINE
  5
26F
100
AcDbEntity
  8
1
100
AcDbLine
 10
-251.914731
 20
-238.01731
 30
0.0
 11
-327.457429
 21
-238.01731
 31
0.0
  0
LINE
  5
270
100
AcDbEntity
  8
1
100
AcDbLine
 10
-258.173483
 20
-200.098762
 30
0.0
 11
-350.624919
 21
-192.010309
 31
0.0
  0
LINE
  5
271
100
AcDbEntity
  8
1
100
AcDbLine
 10
-267.492605
 20
-197.395318
 30
0.0
 11
-339.757188
 21
-191.072987
 31
0.0
  0
LINE
  5
272
100
AcDbEntity
  8
1
100
AcDbLine
 10
-265.719847
 20
-197.550415
 30
0.0
 11
-258.891077
 21
-199.341003
 31
0.0
  0
LINE
  5
273
100
AcDbEntity
  8
1
100
AcDbLine
 10
-268.47093
 20
-190.325828
 30
0.0
 11
-262.710116
 21
-189.692054
 31
0.0
  0
LINE
  5
274
100
AcDbEntity
  8
1
100
AcDbLine
 10
-270.090102
 20
-190.404211
 30
0.0
 11
-326.417443
 21
-185.476206
 31
0.0
  0
LINE
  5
275
100
AcDbEntity
  8
1
100
AcDbLine
 10
-261.637983
 20
-189.255549
 30
0.0
 11
-311.549761
 21
-184.888834
 31
0.0
  0
ARC
  5
276
100
AcDbEntity
  8
1
100
AcDbCircle
 10
-338.885631
 20
-232.76731
 30
0.0
 40
90.0
100
AcDbArc
 50
23.195785
 51
27.76095
  0
ARC
  5
277
100
AcDbEntity
  8
1
100
AcDbCircle
 10
-338.885631
 20
-232.76731
 30
0.0
 40
81.200134
100
AcDbArc
 50
26.966399
 51
31.050673
  0
ARC
  5
278
100
AcDbEntity
  8
1
100
AcDbCircle
 10
-338.885631
 20
-232.76731
 30
0.0
 40
90.0
100
AcDbArc
 50
358.518047
 51
1.481953
  0
ARC
  5
279
100
AcDbEntity
  8
1
100
AcDbCircle
 10
-338.885631
 20
-232.76731
 30
0.0
 40
81.200134
100
AcDbArc
 50
358.307274
 51
1.692726
  0
ARC
  5
27A
100
AcDbEntity
  8
1
100
AcDbCircle
 10
-338.885631
 20
-232.76731
 30
0.0
 40
96.040811
100
AcDbArc
 50
283.180734
 51
76.819266
  0
ARC
  5
27B
100
AcDbEntity
  8
1
100
AcDbCircle
 10
-251.914731
 20
-230.51731
 30
0.0
 40
3.0
100
AcDbArc
 50
1.481953
 51
90.0
  0
ARC
  5
27C
100
AcDbEntity
  8
1
100
AcDbCircle
 10
-251.914731
 20
-235.01731
 30
0.0
 40
3.0
100
AcDbArc
 50
270.0
 51
358.518047
  0
ARC
  5
27D
100
AcDbEntity
  8
1
100
AcDbCircle
 10
-261.89945
 20
-192.244133
 30
0.0
 40
3.0
100
AcDbArc
 50
27.76095
 51
85.0
  0
ARC
  5
27E
100
AcDbEntity
  8
1
100
AcDbCircle
 10
-257.999171
 20
-198.106373
 30
0.0
 40
2.0
100
AcDbArc
 50
265.0
 51
23.195785
  0
ARC
  5
27F
100
AcDbEntity
  8
1
100
AcDbCircle
 10
-258.720496
 20
-230.398251
 30
0.0
 40
1.0
100
AcDbArc
 50
1.692726
 51
90.0
  0
ARC
  5
280
100
AcDbEntity
  8
1
100
AcDbCircle
 10
-258.720496
 20
-235.136369
 30
0.0
 40
1.0
100
AcDbArc
 50
270.0
 51
358.307274
  0
ARC
  5
281
100
AcDbEntity
  8
1
100
AcDbCircle
 10
-270.177258
 20
-191.400405
 30
0.0
 40
1.0
100
AcDbArc
 50
31.050673
 51
85.0
  0
ARC
  5
282
100
AcDbEntity
  8
1
100
AcDbCircle
 10
-267.405449
 20
-196.399124
 30
0.0
 40
1.0
100
AcDbArc
 50
265.0
 51
26.966399
  0
LINE
  5
283
100
AcDbEntity
  8
1
100
AcDbLine
 10
-327.457428
 20
-227.51731
 30
0.0
 11
-332.130966
 21
-228.786131
 31
0.0
  0
LINE
  5
284
100
AcDbEntity
  8
1
100
AcDbLine
 10
-334.385631
 20
-227.821065
 30
0.0
 11
-334.385631
 21
-194.522371
 31
0.0
  0
LINE
  5
285
100
AcDbEntity
  8
1
100
AcDbLine
 10
-327.457428
 20
-226.51731
 30
0.0
 11
-327.457428
 21
-195.12851
 31
0.0
  0
ARC
  5
286
100
AcDbEntity
  8
1
100
AcDbCircle
 10
-338.885631
 20
-597.924296
 30
0.0
 40
271.782739
100
AcDbArc
 50
86.392881
 51
93.607119
  0
ARC
  5
287
100
AcDbEntity
  8
1
100
AcDbCircle
 10
-357.022804
 20
-310.212668
 30
0.0
 40
16.5
100
AcDbArc
 50
256.819266
 51
273.607119
  0
ARC
  5
288
100
AcDbEntity
  8
1
100
AcDbCircle
 10
-320.748458
 20
-310.212668
 30
0.0
 40
16.5
100
AcDbArc
 50
266.392881
 51
283.180734
  0
ARC
  5
289
100
AcDbEntity
  8
1
100
AcDbCircle
 10
-338.885631
 20
-232.76731
 30
0.0
 40
96.040811
100
AcDbArc
 50
103.180734
 51
256.819266
  0
LINE
  5
28A
100
AcDbEntity
  8
1
100
AcDbLine
 10
-332.392973
 20
-228.821065
 30
0.0
 11
-345.378289
 21
-228.821065
 31
0.0
  0
LINE
  5
28B
100
AcDbEntity
  8
1
100
AcDbLine
 10
-350.313835
 20
-226.51731
 30
0.0
 11
-350.313835
 21
-192.937114
 31
0.0
  0
LINE
  5
28C
100
AcDbEntity
  8
1
100
AcDbLine
 10
-329.875635
 20
-235.00209
 30
0.0
 11
-329.875635
 21
-230.566387
 31
0.0
  0
LINE
  5
28D
100
AcDbEntity
  8
1
100
AcDbLine
 10
-343.385631
 20
-227.821065
 30
0.0
 11
-343.385631
 21
-193.559996
 31
0.0
  0
LINE
  5
28E
100
AcDbEntity
  8
1
100
AcDbLine
 10
-331.991521
 20
-236.713555
 30
0.0
 11
-345.378289
 21
-236.713555
 31
0.0
  0
LINE
  5
28F
100
AcDbEntity
  8
1
100
AcDbLine
 10
-327.457429
 20
-238.01731
 30
0.0
 11
-332.259641
 21
-236.713555
 31
0.0
  0
LINE
  5
290
100
AcDbEntity
  8
1
100
AcDbLine
 10
-358.753362
 20
-227.51731
 30
0.0
 11
-351.313835
 21
-227.51731
 31
0.0
  0
LINE
  5
291
100
AcDbEntity
  8
1
100
AcDbLine
 10
-358.753362
 20
-238.01731
 30
0.0
 11
-351.313835
 21
-238.01731
 31
0.0
  0
LINE
  5
292
100
AcDbEntity
  8
1
100
AcDbLine
 10
-350.313833
 20
-238.01731
 30
0.0
 11
-345.640296
 21
-236.748489
 31
0.0
  0
LINE
  5
293
100
AcDbEntity
  8
1
100
AcDbLine
 10
-350.313835
 20
-227.517309
 30
0.0
 11
-345.640296
 21
-228.786131
 31
0.0
  0
LINE
  5
294
100
AcDbEntity
  8
1
100
AcDbLine
 10
-258.173483
 20
-265.435858
 30
0.0
 11
-350.624919
 21
-273.524311
 31
0.0
  0
LINE
  5
295
100
AcDbEntity
  8
1
100
AcDbLine
 10
-267.492605
 20
-268.139302
 30
0.0
 11
-339.757188
 21
-274.461633
 31
0.0
  0
LINE
  5
296
100
AcDbEntity
  8
1
100
AcDbLine
 10
-265.719847
 20
-267.984205
 30
0.0
 11
-258.891077
 21
-266.193617
 31
0.0
  0
LINE
  5
297
100
AcDbEntity
  8
1
100
AcDbLine
 10
-268.47093
 20
-275.208792
 30
0.0
 11
-262.710116
 21
-275.842566
 31
0.0
  0
LINE
  5
298
100
AcDbEntity
  8
1
100
AcDbLine
 10
-270.090102
 20
-275.130409
 30
0.0
 11
-326.417443
 21
-280.058413
 31
0.0
  0
LINE
  5
299
100
AcDbEntity
  8
1
100
AcDbLine
 10
-261.637983
 20
-276.279071
 30
0.0
 11
-311.549761
 21
-280.645785
 31
0.0
  0
ARC
  5
29A
100
AcDbEntity
  8
1
100
AcDbCircle
 10
-338.885631
 20
-232.76731
 30
0.0
 40
90.0
100
AcDbArc
 50
332.23905
 51
336.804215
  0
ARC
  5
29B
100
AcDbEntity
  8
1
100
AcDbCircle
 10
-338.885631
 20
-232.76731
 30
0.0
 40
81.200134
100
AcDbArc
 50
328.949327
 51
333.033601
  0
ARC
  5
29C
100
AcDbEntity
  8
1
100
AcDbCircle
 10
-261.89945
 20
-273.290487
 30
0.0
 40
3.0
100
AcDbArc
 50
275.0
 51
332.23905
  0
ARC
  5
29D
100
AcDbEntity
  8
1
100
AcDbCircle
 10
-257.999171
 20
-267.428247
 30
0.0
 40
2.0
100
AcDbArc
 50
336.804215
 51
95.0
  0
ARC
  5
29E
100
AcDbEntity
  8
1
100
AcDbCircle
 10
-270.177258
 20
-274.134215
 30
0.0
 40
1.0
100
AcDbArc
 50
275.0
 51
328.949327
  0
ARC
  5
29F
100
AcDbEntity
  8
1
100
AcDbCircle
 10
-267.405449
 20
-269.135496
 30
0.0
 40
1.0
100
AcDbArc
 50
333.033601
 51
95.0
  0
ARC
  5
2A0
100
AcDbEntity
  8
1
100
AcDbCircle
 10
-338.885631
 20
-236.31731
 30
0.0
 40
100.94
100
AcDbArc
 50
61.007652
 51
78.461344
  0
ARC
  5
2A1
100
AcDbEntity
  8
1
100
AcDbCircle
 10
-338.885631
 20
-229.21731
 30
0.0
 40
100.94
100
AcDbArc
 50
281.538656
 51
298.992348
  0
POINT
  5
2A2
100
AcDbEntity
  8
1
100
AcDbPoint
 10
-338.885631
 20
-232.76731
 30
0.0
  0
LINE
  5
2A3
100
AcDbEntity
  8
1
100
AcDbLine
 10
-359.07656
 20
-137.41731
 30
0.0
 11
-318.694703
 21
-137.41731
 31
0.0
  0
ARC
  5
2A4
100
AcDbEntity
  8
1
100
AcDbCircle
 10
-320.748458
 20
-155.321951
 30
0.0
 40
16.5
100
AcDbArc
 50
76.819266
 51
93.607119
  0
ARC
  5
2A5
100
AcDbEntity
  8
1
100
AcDbCircle
 10
-357.022804
 20
-155.321951
 30
0.0
 40
16.5
100
AcDbArc
 50
86.392881
 51
103.180734
  0
ARC
  5
2A6
100
AcDbEntity
  8
1
100
AcDbCircle
 10
-338.885631
 20
132.389676
 30
0.0
 40
271.782739
100
AcDbArc
 50
266.392881
 51
273.607119
  0
LINE
  5
2A7
100
AcDbEntity
  8
2
  6
CENTER
 62
     2
100
AcDbLine
 10
-338.885631
 20
458.061156
 30
0.0
 11
-338.885631
 21
228.676392
 31
0.0
  0
LINE
  5
2A8
100
AcDbEntity
  8
2
100
AcDbLine
 10
-389.885631
 20
-5.76731
 30
0.0
 11
-287.885631
 21
-5.76731
 31
0.0
  0
ARC
  5
2A9
100
AcDbEntity
  8
2
100
AcDbCircle
 10
-366.385631
 20
316.266023
 30
0.0
 40
23.5
100
AcDbArc
 50
213.622666
 51
263.913412
  0
ARC
  5
2AA
100
AcDbEntity
  8
2
100
AcDbCircle
 10
-311.385631
 20
316.266023
 30
0.0
 40
23.5
100
AcDbArc
 50
276.086588
 51
326.377334
  0
ARC
  5
2AB
100
AcDbEntity
  8
2
100
AcDbCircle
 10
-311.385631
 20
371.266023
 30
0.0
 40
23.5
100
AcDbArc
 50
4.767153
 51
85.232847
  0
ARC
  5
2AC
100
AcDbEntity
  8
2
100
AcDbCircle
 10
-366.385631
 20
371.266023
 30
0.0
 40
23.5
100
AcDbArc
 50
94.767153
 51
175.232847
  0
ARC
  5
2AD
100
AcDbEntity
  8
2
100
AcDbCircle
 10
-399.769743
 20
374.050093
 30
0.0
 40
10.0
100
AcDbArc
 50
333.554013
 51
355.232847
  0
ARC
  5
2AE
100
AcDbEntity
  8
2
100
AcDbCircle
 10
-369.1697
 20
404.650136
 30
0.0
 40
10.0
100
AcDbArc
 50
274.767153
 51
296.445987
  0
ARC
  5
2AF
100
AcDbEntity
  8
2
100
AcDbCircle
 10
-308.601561
 20
404.650136
 30
0.0
 40
10.0
100
AcDbArc
 50
243.554013
 51
265.232847
  0
ARC
  5
2B0
100
AcDbEntity
  8
2
100
AcDbCircle
 10
-278.001519
 20
374.050093
 30
0.0
 40
10.0
100
AcDbArc
 50
184.767153
 51
206.445987
  0
LINE
  5
2B1
100
AcDbEntity
  8
2
100
AcDbLine
 10
-362.385631
 20
285.766023
 30
0.0
 11
-315.385631
 21
285.766023
 31
0.0
  0
LINE
  5
2B2
100
AcDbEntity
  8
2
100
AcDbLine
 10
-315.385631
 20
285.766023
 30
0.0
 11
-312.739477
 21
290.349297
 31
0.0
  0
LINE
  5
2B3
100
AcDbEntity
  8
2
100
AcDbLine
 10
-362.385631
 20
285.766023
 30
0.0
 11
-365.031785
 21
290.349297
 31
0.0
  0
ARC
  5
2B4
100
AcDbEntity
  8
2
100
AcDbCircle
 10
-304.079223
 20
285.349297
 30
0.0
 40
10.0
100
AcDbArc
 50
120.787733
 51
150.0
  0
ARC
  5
2B5
100
AcDbEntity
  8
2
100
AcDbCircle
 10
-373.692039
 20
285.349297
 30
0.0
 40
10.0
100
AcDbArc
 50
30.0
 51
59.212267
  0
ARC
  5
2B6
100
AcDbEntity
  8
2
100
AcDbCircle
 10
-308.363739
 20
287.926684
 30
0.0
 40
5.0
100
AcDbArc
 50
96.086588
 51
148.970628
  0
ARC
  5
2B7
100
AcDbEntity
  8
2
100
AcDbCircle
 10
-369.407523
 20
287.926684
 30
0.0
 40
5.0
100
AcDbArc
 50
31.029372
 51
83.913412
  0
LINE
  5
2B8
100
AcDbEntity
  8
2
  6
CENTER
 62
     2
100
AcDbLine
 10
-308.385631
 20
355.547118
 30
0.0
 11
-308.385631
 21
332.04077
 31
0.0
  0
LINE
  5
2B9
100
AcDbEntity
  8
2
100
AcDbLine
 10
-305.885631
 20
345.209399
 30
0.0
 11
-305.885631
 21
342.322648
 31
0.0
  0
LINE
  5
2BA
100
AcDbEntity
  8
2
100
AcDbLine
 10
-310.885631
 20
345.209399
 30
0.0
 11
-310.885631
 21
342.352705
 31
0.0
  0
LINE
  5
2BB
100
AcDbEntity
  8
2
100
AcDbLine
 10
-310.235263
 20
341.947158
 30
0.0
 11
-308.385631
 21
340.879272
 31
0.0
  0
LINE
  5
2BC
100
AcDbEntity
  8
2
100
AcDbLine
 10
-308.385631
 20
346.652775
 30
0.0
 11
-305.885631
 21
345.209399
 31
0.0
  0
LINE
  5
2BD
100
AcDbEntity
  8
2
100
AcDbLine
 10
-310.885631
 20
345.209399
 30
0.0
 11
-308.385631
 21
346.652775
 31
0.0
  0
LINE
  5
2BE
100
AcDbEntity
  8
2
100
AcDbLine
 10
-308.385631
 20
340.879272
 30
0.0
 11
-305.885631
 21
342.322648
 31
0.0
  0
LINE
  5
2BF
100
AcDbEntity
  8
2
  6
CENTER
 62
     2
100
AcDbLine
 10
-369.385631
 20
355.547118
 30
0.0
 11
-369.385631
 21
332.04077
 31
0.0
  0
LINE
  5
2C0
100
AcDbEntity
  8
2
100
AcDbLine
 10
-371.885631
 20
345.209399
 30
0.0
 11
-371.885631
 21
342.322648
 31
0.0
  0
LINE
  5
2C1
100
AcDbEntity
  8
2
100
AcDbLine
 10
-366.885631
 20
345.209399
 30
0.0
 11
-366.885631
 21
342.352705
 31
0.0
  0
LINE
  5
2C2
100
AcDbEntity
  8
2
100
AcDbLine
 10
-367.535999
 20
341.947158
 30
0.0
 11
-369.385631
 21
340.879272
 31
0.0
  0
LINE
  5
2C3
100
AcDbEntity
  8
2
100
AcDbLine
 10
-369.385631
 20
346.652775
 30
0.0
 11
-371.885631
 21
345.209399
 31
0.0
  0
LINE
  5
2C4
100
AcDbEntity
  8
2
100
AcDbLine
 10
-366.885631
 20
345.209399
 30
0.0
 11
-369.385631
 21
346.652775
 31
0.0
  0
LINE
  5
2C5
100
AcDbEntity
  8
2
100
AcDbLine
 10
-369.385631
 20
340.879272
 30
0.0
 11
-371.885631
 21
342.322648
 31
0.0
  0
LINE
  5
2C6
100
AcDbEntity
  8
2
100
AcDbLine
 10
-301.762525
 20
386.545984
 30
0.0
 11
-300.799513
 21
387.508996
 31
0.0
  0
LINE
  5
2C7
100
AcDbEntity
  8
2
100
AcDbLine
 10
-296.105671
 20
380.88913
 30
0.0
 11
-295.142659
 21
381.852141
 31
0.0
  0
LINE
  5
2C8
100
AcDbEntity
  8
2
100
AcDbLine
 10
-301.762525
 20
380.88913
 30
0.0
 11
-301.762525
 21
386.545984
 31
0.0
  0
LINE
  5
2C9
100
AcDbEntity
  8
2
100
AcDbLine
 10
-301.762525
 20
380.88913
 30
0.0
 11
-296.105671
 21
380.88913
 31
0.0
  0
LINE
  5
2CA
100
AcDbEntity
  8
2
100
AcDbLine
 10
-313.33568
 20
376.46847
 30
0.0
 11
-311.488695
 21
378.832502
 31
0.0
  0
LINE
  5
2CB
100
AcDbEntity
  8
2
100
AcDbLine
 10
-363.204259
 20
374.892448
 30
0.0
 11
-368.745212
 21
381.984545
 31
0.0
  0
LINE
  5
2CC
100
AcDbEntity
  8
2
100
AcDbLine
 10
-389.885631
 20
34.23269
 30
0.0
 11
-389.885631
 21
-5.76731
 31
0.0
  0
LINE
  5
2CD
100
AcDbEntity
  8
2
100
AcDbLine
 10
-287.885631
 20
34.23269
 30
0.0
 11
-287.885631
 21
-5.76731
 31
0.0
  0
LINE
  5
2CE
100
AcDbEntity
  8
2
100
AcDbLine
 10
-395.385631
 20
82.23269
 30
0.0
 11
-282.385631
 21
82.23269
 31
0.0
  0
LINE
  5
2CF
100
AcDbEntity
  8
2
100
AcDbLine
 10
-280.885631
 20
80.73269
 30
0.0
 11
-280.885631
 21
34.23269
 31
0.0
  0
LINE
  5
2D0
100
AcDbEntity
  8
2
100
AcDbLine
 10
-396.885631
 20
80.73269
 30
0.0
 11
-396.885631
 21
34.23269
 31
0.0
  0
ARC
  5
2D1
100
AcDbEntity
  8
2
100
AcDbCircle
 10
-282.385631
 20
80.73269
 30
0.0
 40
1.5
100
AcDbArc
 50
0.0
 51
90.0
  0
ARC
  5
2D2
100
AcDbEntity
  8
2
100
AcDbCircle
 10
-395.385631
 20
80.73269
 30
0.0
 40
1.5
100
AcDbArc
 50
90.0
 51
180.0
  0
LINE
  5
2D3
100
AcDbEntity
  8
2
100
AcDbLine
 10
-280.885631
 20
34.23269
 30
0.0
 11
-287.885631
 21
22.108335
 31
0.0
  0
LINE
  5
2D4
100
AcDbEntity
  8
2
100
AcDbLine
 10
-396.885631
 20
34.23269
 30
0.0
 11
-389.885631
 21
22.108335
 31
0.0
  0
ARC
  5
2D5
100
AcDbEntity
  8
2
100
AcDbCircle
 10
-297.873438
 20
26.248313
 30
0.0
 40
15.589592
100
AcDbArc
 50
90.0
 51
136.585945
  0
ARC
  5
2D6
100
AcDbEntity
  8
2
100
AcDbCircle
 10
-297.873438
 20
31.476885
 30
0.0
 40
10.361021
100
AcDbArc
 50
15.425085
 51
90.0
  0
ARC
  5
2D7
100
AcDbEntity
  8
2
100
AcDbCircle
 10
-379.897824
 20
26.248313
 30
0.0
 40
15.589592
100
AcDbArc
 50
43.414055
 51
90.0
  0
ARC
  5
2D8
100
AcDbEntity
  8
2
100
AcDbCircle
 10
-379.897824
 20
31.476885
 30
0.0
 40
10.361021
100
AcDbArc
 50
90.0
 51
164.574915
  0
LINE
  5
2D9
100
AcDbEntity
  8
2
100
AcDbLine
 10
-287.885631
 20
34.23269
 30
0.0
 11
-280.885631
 21
34.23269
 31
0.0
  0
LINE
  5
2DA
100
AcDbEntity
  8
2
100
AcDbLine
 10
-396.885631
 20
34.23269
 30
0.0
 11
-389.885631
 21
34.23269
 31
0.0
  0
LINE
  5
2DB
100
AcDbEntity
  8
2
100
AcDbLine
 10
-350.885631
 20
114.23269
 30
0.0
 11
-350.885631
 21
97.23269
 31
0.0
  0
LINE
  5
2DC
100
AcDbEntity
  8
2
100
AcDbLine
 10
-326.885631
 20
114.23269
 30
0.0
 11
-326.885631
 21
97.23269
 31
0.0
  0
LINE
  5
2DD
100
AcDbEntity
  8
2
100
AcDbLine
 10
-354.635631
 20
97.23269
 30
0.0
 11
-323.135631
 21
97.23269
 31
0.0
  0
LINE
  5
2DE
100
AcDbEntity
  8
2
100
AcDbLine
 10
-322.135631
 20
96.23269
 30
0.0
 11
-322.135631
 21
89.23269
 31
0.0
  0
LINE
  5
2DF
100
AcDbEntity
  8
2
100
AcDbLine
 10
-329.398798
 20
97.23269
 30
0.0
 11
-329.398798
 21
86.23269
 31
0.0
  0
LINE
  5
2E0
100
AcDbEntity
  8
2
100
AcDbLine
 10
-348.372464
 20
97.23269
 30
0.0
 11
-348.372464
 21
86.23269
 31
0.0
  0
LINE
  5
2E1
100
AcDbEntity
  8
2
100
AcDbLine
 10
-355.635631
 20
96.23269
 30
0.0
 11
-355.635631
 21
89.23269
 31
0.0
  0
ARC
  5
2E2
100
AcDbEntity
  8
2
100
AcDbCircle
 10
-354.635631
 20
96.23269
 30
0.0
 40
1.0
100
AcDbArc
 50
90.0
 51
180.0
  0
ARC
  5
2E3
100
AcDbEntity
  8
2
100
AcDbCircle
 10
-323.135631
 20
96.23269
 30
0.0
 40
1.0
100
AcDbArc
 50
0.0
 51
90.0
  0
LINE
  5
2E4
100
AcDbEntity
  8
2
100
AcDbLine
 10
-390.385631
 20
86.23269
 30
0.0
 11
-287.385631
 21
86.23269
 31
0.0
  0
ARC
  5
2E5
100
AcDbEntity
  8
2
100
AcDbCircle
 10
-319.135631
 20
89.23269
 30
0.0
 40
3.0
100
AcDbArc
 50
180.0
 51
270.0
  0
ARC
  5
2E6
100
AcDbEntity
  8
2
100
AcDbCircle
 10
-358.635631
 20
89.23269
 30
0.0
 40
3.0
100
AcDbArc
 50
270.0
 51
360.0
  0
LINE
  5
2E7
100
AcDbEntity
  8
2
100
AcDbLine
 10
-287.385631
 20
86.23269
 30
0.0
 11
-287.385631
 21
83.23269
 31
0.0
  0
LINE
  5
2E8
100
AcDbEntity
  8
2
100
AcDbLine
 10
-390.385631
 20
86.23269
 30
0.0
 11
-390.385631
 21
83.23269
 31
0.0
  0
LINE
  5
2E9
100
AcDbEntity
  8
2
100
AcDbLine
 10
-289.385631
 20
83.23269
 30
0.0
 11
-289.385631
 21
82.23269
 31
0.0
  0
LINE
  5
2EA
100
AcDbEntity
  8
2
100
AcDbLine
 10
-388.385631
 20
83.23269
 30
0.0
 11
-388.385631
 21
82.23269
 31
0.0
  0
LINE
  5
2EB
100
AcDbEntity
  8
2
100
AcDbLine
 10
-390.385631
 20
83.23269
 30
0.0
 11
-287.385631
 21
83.23269
 31
0.0
  0
LINE
  5
2EC
100
AcDbEntity
  8
2
100
AcDbLine
 10
81.514369
 20
-5.76731
 30
0.0
 11
183.514369
 21
-5.76731
 31
0.0
  0
LINE
  5
2ED
100
AcDbEntity
  8
2
100
AcDbLine
 10
81.514369
 20
34.23269
 30
0.0
 11
81.514369
 21
-5.76731
 31
0.0
  0
LINE
  5
2EE
100
AcDbEntity
  8
2
100
AcDbLine
 10
183.514369
 20
34.23269
 30
0.0
 11
183.514369
 21
-5.76731
 31
0.0
  0
LINE
  5
2EF
100
AcDbEntity
  8
2
100
AcDbLine
 10
190.514369
 20
80.73269
 30
0.0
 11
190.514369
 21
34.23269
 31
0.0
  0
LINE
  5
2F0
100
AcDbEntity
  8
2
100
AcDbLine
 10
74.514369
 20
80.73269
 30
0.0
 11
74.514369
 21
32.23269
 31
0.0
  0
ARC
  5
2F1
100
AcDbEntity
  8
2
100
AcDbCircle
 10
189.014369
 20
80.73269
 30
0.0
 40
1.5
100
AcDbArc
 50
0.0
 51
90.0
  0
ARC
  5
2F2
100
AcDbEntity
  8
2
100
AcDbCircle
 10
76.014369
 20
80.73269
 30
0.0
 40
1.5
100
AcDbArc
 50
90.0
 51
180.0
  0
LINE
  5
2F3
100
AcDbEntity
  8
2
100
AcDbLine
 10
190.514369
 20
34.23269
 30
0.0
 11
183.514369
 21
22.108335
 31
0.0
  0
ARC
  5
2F4
100
AcDbEntity
  8
2
100
AcDbCircle
 10
132.514369
 20
59.636102
 30
0.0
 40
37.527767
100
AcDbArc
 50
222.603667
 51
317.396333
  0
ARC
  5
2F5
100
AcDbEntity
  8
2
100
AcDbCircle
 10
173.526562
 20
26.248313
 30
0.0
 40
15.589592
100
AcDbArc
 50
90.0
 51
149.192137
  0
ARC
  5
2F6
100
AcDbEntity
  8
2
100
AcDbCircle
 10
173.526562
 20
31.476885
 30
0.0
 40
10.361021
100
AcDbArc
 50
15.425085
 51
90.0
  0
ARC
  5
2F7
100
AcDbEntity
  8
2
100
AcDbCircle
 10
91.502176
 20
26.248313
 30
0.0
 40
15.589592
100
AcDbArc
 50
30.807863
 51
90.0
  0
ARC
  5
2F8
100
AcDbEntity
  8
2
100
AcDbCircle
 10
91.502176
 20
31.476885
 30
0.0
 40
10.361021
100
AcDbArc
 50
90.0
 51
164.574915
  0
LINE
  5
2F9
100
AcDbEntity
  8
2
100
AcDbLine
 10
183.514369
 20
34.23269
 30
0.0
 11
190.514369
 21
34.23269
 31
0.0
  0
LINE
  5
2FA
100
AcDbEntity
  8
2
100
AcDbLine
 10
104.891914
 20
34.23269
 30
0.0
 11
160.136824
 21
34.23269
 31
0.0
  0
LINE
  5
2FB
100
AcDbEntity
  8
2
100
AcDbLine
 10
120.514369
 20
114.23269
 30
0.0
 11
120.514369
 21
97.23269
 31
0.0
  0
LINE
  5
2FC
100
AcDbEntity
  8
2
100
AcDbLine
 10
144.514369
 20
114.23269
 30
0.0
 11
144.514369
 21
97.23269
 31
0.0
  0
LINE
  5
2FD
100
AcDbEntity
  8
2
100
AcDbLine
 10
116.764369
 20
97.23269
 30
0.0
 11
148.264369
 21
97.23269
 31
0.0
  0
LINE
  5
2FE
100
AcDbEntity
  8
2
100
AcDbLine
 10
149.264369
 20
96.23269
 30
0.0
 11
149.264369
 21
89.23269
 31
0.0
  0
LINE
  5
2FF
100
AcDbEntity
  8
2
100
AcDbLine
 10
142.001202
 20
97.23269
 30
0.0
 11
142.001202
 21
86.23269
 31
0.0
  0
LINE
  5
300
100
AcDbEntity
  8
2
100
AcDbLine
 10
123.027536
 20
97.23269
 30
0.0
 11
123.027536
 21
86.23269
 31
0.0
  0
LINE
  5
301
100
AcDbEntity
  8
2
100
AcDbLine
 10
115.764369
 20
96.23269
 30
0.0
 11
115.764369
 21
89.23269
 31
0.0
  0
ARC
  5
302
100
AcDbEntity
  8
2
100
AcDbCircle
 10
116.764369
 20
96.23269
 30
0.0
 40
1.0
100
AcDbArc
 50
90.0
 51
180.0
  0
ARC
  5
303
100
AcDbEntity
  8
2
100
AcDbCircle
 10
148.264369
 20
96.23269
 30
0.0
 40
1.0
100
AcDbArc
 50
0.0
 51
90.0
  0
LINE
  5
304
100
AcDbEntity
  8
2
100
AcDbLine
 10
81.014369
 20
86.23269
 30
0.0
 11
184.014369
 21
86.23269
 31
0.0
  0
ARC
  5
305
100
AcDbEntity
  8
2
100
AcDbCircle
 10
152.264369
 20
89.23269
 30
0.0
 40
3.0
100
AcDbArc
 50
180.0
 51
270.0
  0
ARC
  5
306
100
AcDbEntity
  8
2
100
AcDbCircle
 10
112.764369
 20
89.23269
 30
0.0
 40
3.0
100
AcDbArc
 50
270.0
 51
360.0
  0
LINE
  5
307
100
AcDbEntity
  8
2
100
AcDbLine
 10
184.014369
 20
86.23269
 30
0.0
 11
184.014369
 21
83.23269
 31
0.0
  0
LINE
  5
308
100
AcDbEntity
  8
2
100
AcDbLine
 10
81.014369
 20
86.23269
 30
0.0
 11
81.014369
 21
83.23269
 31
0.0
  0
LINE
  5
309
100
AcDbEntity
  8
2
100
AcDbLine
 10
182.014369
 20
83.23269
 30
0.0
 11
182.014369
 21
82.23269
 31
0.0
  0
LINE
  5
30A
100
AcDbEntity
  8
2
100
AcDbLine
 10
83.014369
 20
83.23269
 30
0.0
 11
83.014369
 21
82.23269
 31
0.0
  0
LINE
  5
30B
100
AcDbEntity
  8
2
100
AcDbLine
 10
-360.385631
 20
64.23269
 30
0.0
 11
-317.385631
 21
64.23269
 31
0.0
  0
LINE
  5
30C
100
AcDbEntity
  8
2
100
AcDbLine
 10
-360.385631
 20
32.23269
 30
0.0
 11
-317.385631
 21
32.23269
 31
0.0
  0
LINE
  5
30D
100
AcDbEntity
  8
2
100
AcDbLine
 10
-315.385631
 20
62.23269
 30
0.0
 11
-315.385631
 21
34.23269
 31
0.0
  0
LINE
  5
30E
100
AcDbEntity
  8
2
100
AcDbLine
 10
-362.385631
 20
62.23269
 30
0.0
 11
-362.385631
 21
34.23269
 31
0.0
  0
ARC
  5
30F
100
AcDbEntity
  8
2
100
AcDbCircle
 10
-317.385631
 20
62.23269
 30
0.0
 40
2.0
100
AcDbArc
 50
0.0
 51
90.0
  0
ARC
  5
310
100
AcDbEntity
  8
2
100
AcDbCircle
 10
-360.385631
 20
62.23269
 30
0.0
 40
2.0
100
AcDbArc
 50
90.0
 51
180.0
  0
ARC
  5
311
100
AcDbEntity
  8
2
100
AcDbCircle
 10
-360.385631
 20
34.23269
 30
0.0
 40
2.0
100
AcDbArc
 50
180.0
 51
270.0
  0
ARC
  5
312
100
AcDbEntity
  8
2
100
AcDbCircle
 10
-317.385631
 20
34.23269
 30
0.0
 40
2.0
100
AcDbArc
 50
270.0
 51
360.0
  0
LINE
  5
313
100
AcDbEntity
  8
2
100
AcDbLine
 10
-309.197812
 20
64.249251
 30
0.0
 11
-309.197812
 21
31.724087
 31
0.0
  0
LINE
  5
314
100
AcDbEntity
  8
2
100
AcDbLine
 10
-368.57345
 20
64.249251
 30
0.0
 11
-368.57345
 21
31.724087
 31
0.0
  0
LINE
  5
315
100
AcDbEntity
  8
2
100
AcDbLine
 10
82.688338
 20
66.56811
 30
0.0
 11
82.688338
 21
36.923627
 31
0.0
  0
LINE
  5
316
100
AcDbEntity
  8
2
  6
CENTER
 62
     2
100
AcDbLine
 10
-317.885631
 20
30.564535
 30
0.0
 11
-317.885631
 21
4.971472
 31
0.0
  0
LINE
  5
317
100
AcDbEntity
  8
2
  6
CENTER
 62
     2
100
AcDbLine
 10
-330.851635
 20
18.23269
 30
0.0
 11
-304.604031
 21
18.23269
 31
0.0
  0
LINE
  5
318
100
AcDbEntity
  8
2
100
AcDbLine
 10
74.514369
 20
32.23269
 30
0.0
 11
80.063811
 21
30.647135
 31
0.0
  0
LINE
  5
319
100
AcDbEntity
  8
2
100
AcDbLine
 10
74.514369
 20
64.23269
 30
0.0
 11
81.23778
 21
66.153665
 31
0.0
  0
ARC
  5
31A
100
AcDbEntity
  8
2
100
AcDbCircle
 10
79.514369
 20
28.724087
 30
0.0
 40
2.0
100
AcDbArc
 50
0.0
 51
74.054604
  0
ARC
  5
31B
100
AcDbEntity
  8
2
100
AcDbCircle
 10
80.688338
 20
68.076713
 30
0.0
 40
2.0
100
AcDbArc
 50
285.945396
 51
360.0
  0
LINE
  5
31C
100
AcDbEntity
  8
2
100
AcDbLine
 10
-312.197812
 20
28.724087
 30
0.0
 11
-365.57345
 21
28.724087
 31
0.0
  0
LINE
  5
31D
100
AcDbEntity
  8
2
100
AcDbLine
 10
-315.385631
 20
32.23269
 30
0.0
 11
-312.197812
 21
30.42514
 31
0.0
  0
LINE
  5
31E
100
AcDbEntity
  8
2
100
AcDbLine
 10
-362.385631
 20
32.23269
 30
0.0
 11
-365.57345
 21
30.42514
 31
0.0
  0
ARC
  5
31F
100
AcDbEntity
  8
2
100
AcDbCircle
 10
-338.885631
 20
180.795889
 30
0.0
 40
116.563198
100
AcDbArc
 50
257.1023
 51
282.8977
  0
ARC
  5
320
100
AcDbEntity
  8
2
100
AcDbCircle
 10
-312.197812
 20
64.249251
 30
0.0
 40
3.0
100
AcDbArc
 50
0.0
 51
102.8977
  0
ARC
  5
321
100
AcDbEntity
  8
2
100
AcDbCircle
 10
-365.57345
 20
64.249251
 30
0.0
 40
3.0
100
AcDbArc
 50
77.1023
 51
180.0
  0
ARC
  5
322
100
AcDbEntity
  8
2
100
AcDbCircle
 10
-365.57345
 20
31.724087
 30
0.0
 40
3.0
100
AcDbArc
 50
180.0
 51
270.0
  0
ARC
  5
323
100
AcDbEntity
  8
2
100
AcDbCircle
 10
-312.197812
 20
31.724087
 30
0.0
 40
3.0
100
AcDbArc
 50
270.0
 51
360.0
  0
LINE
  5
324
100
AcDbEntity
  8
2
100
AcDbLine
 10
-315.385631
 20
64.23269
 30
0.0
 11
-312.197812
 21
66.21304
 31
0.0
  0
LINE
  5
325
100
AcDbEntity
  8
2
100
AcDbLine
 10
-362.385631
 20
64.23269
 30
0.0
 11
-365.57345
 21
66.21304
 31
0.0
  0
CIRCLE
  5
326
100
AcDbEntity
  8
2
 62
     2
100
AcDbCircle
 10
-317.885631
 20
18.23269
 30
0.0
 40
4.188
  0
CIRCLE
  5
327
100
AcDbEntity
  8
2
100
AcDbCircle
 10
-317.885631
 20
18.23269
 30
0.0
 40
8.25
  0
CIRCLE
  5
328
100
AcDbEntity
  8
2
100
AcDbCircle
 10
-317.885631
 20
18.23269
 30
0.0
 40
5.0
  0
LINE
  5
329
100
AcDbEntity
  8
2
100
AcDbLine
 10
-320.385631
 20
19.676066
 30
0.0
 11
-320.385631
 21
16.789314
 31
0.0
  0
LINE
  5
32A
100
AcDbEntity
  8
2
100
AcDbLine
 10
-315.385631
 20
19.676066
 30
0.0
 11
-315.385631
 21
16.789314
 31
0.0
  0
LINE
  5
32B
100
AcDbEntity
  8
2
100
AcDbLine
 10
-317.885631
 20
21.119442
 30
0.0
 11
-315.385631
 21
19.676066
 31
0.0
  0
LINE
  5
32C
100
AcDbEntity
  8
2
100
AcDbLine
 10
-320.385631
 20
16.789314
 30
0.0
 11
-317.885631
 21
15.345939
 31
0.0
  0
LINE
  5
32D
100
AcDbEntity
  8
2
100
AcDbLine
 10
-317.885631
 20
15.345939
 30
0.0
 11
-315.385631
 21
16.789314
 31
0.0
  0
LINE
  5
32E
100
AcDbEntity
  8
2
100
AcDbLine
 10
-320.385631
 20
19.676066
 30
0.0
 11
-317.885631
 21
21.119442
 31
0.0
  0
LINE
  5
32F
100
AcDbEntity
  8
2
  6
CENTER
 62
     2
100
AcDbLine
 10
-359.885631
 20
30.564535
 30
0.0
 11
-359.885631
 21
4.971472
 31
0.0
  0
LINE
  5
330
100
AcDbEntity
  8
2
  6
CENTER
 62
     2
100
AcDbLine
 10
-346.919626
 20
18.23269
 30
0.0
 11
-373.167231
 21
18.23269
 31
0.0
  0
CIRCLE
  5
331
100
AcDbEntity
  8
2
 62
     2
100
AcDbCircle
 10
-359.885631
 20
18.23269
 30
0.0
 40
4.188
  0
CIRCLE
  5
332
100
AcDbEntity
  8
2
100
AcDbCircle
 10
-359.885631
 20
18.23269
 30
0.0
 40
8.25
  0
CIRCLE
  5
333
100
AcDbEntity
  8
2
100
AcDbCircle
 10
-359.885631
 20
18.23269
 30
0.0
 40
5.0
  0
LINE
  5
334
100
AcDbEntity
  8
2
100
AcDbLine
 10
-357.385631
 20
19.676066
 30
0.0
 11
-357.385631
 21
16.789314
 31
0.0
  0
LINE
  5
335
100
AcDbEntity
  8
2
100
AcDbLine
 10
-362.385631
 20
19.676066
 30
0.0
 11
-362.385631
 21
16.789314
 31
0.0
  0
LINE
  5
336
100
AcDbEntity
  8
2
100
AcDbLine
 10
-359.885631
 20
21.119442
 30
0.0
 11
-362.385631
 21
19.676066
 31
0.0
  0
LINE
  5
337
100
AcDbEntity
  8
2
100
AcDbLine
 10
-357.385631
 20
16.789314
 30
0.0
 11
-359.885631
 21
15.345939
 31
0.0
  0
LINE
  5
338
100
AcDbEntity
  8
2
100
AcDbLine
 10
-359.885631
 20
15.345939
 30
0.0
 11
-362.385631
 21
16.789314
 31
0.0
  0
LINE
  5
339
100
AcDbEntity
  8
2
100
AcDbLine
 10
-357.385631
 20
19.676066
 30
0.0
 11
-359.885631
 21
21.119442
 31
0.0
  0
LINE
  5
33A
100
AcDbEntity
  8
2
  6
CENTER
 62
     2
100
AcDbLine
 10
-317.885631
 20
274.656958
 30
0.0
 11
-317.885631
 21
299.94805
 31
0.0
  0
LINE
  5
33B
100
AcDbEntity
  8
2
  6
CENTER
 62
     2
100
AcDbLine
 10
-359.885631
 20
274.656958
 30
0.0
 11
-359.885631
 21
299.94805
 31
0.0
  0
LINE
  5
33C
100
AcDbEntity
  8
2
100
AcDbLine
 10
-308.085631
 20
291.871131
 30
0.0
 11
-308.085631
 21
285.660916
 31
0.0
  0
LINE
  5
33D
100
AcDbEntity
  8
2
100
AcDbLine
 10
-308.085631
 20
285.660916
 30
0.0
 11
-309.635631
 21
284.766023
 31
0.0
  0
LINE
  5
33E
100
AcDbEntity
  8
2
100
AcDbLine
 10
-312.985631
 20
289.922945
 30
0.0
 11
-312.985631
 21
285.660916
 31
0.0
  0
ARC
  5
33F
100
AcDbEntity
  8
2
100
AcDbCircle
 10
-310.535631
 20
288.810474
 30
0.0
 40
3.990265
100
AcDbArc
 50
232.121121
 51
307.878879
  0
ARC
  5
340
100
AcDbEntity
  8
2
100
AcDbCircle
 10
-317.885631
 20
299.520209
 30
0.0
 40
14.7
100
AcDbArc
 50
250.528777
 51
289.471219
  0
LINE
  5
341
100
AcDbEntity
  8
2
100
AcDbLine
 10
-327.685631
 20
285.766023
 30
0.0
 11
-327.685631
 21
285.660916
 31
0.0
  0
LINE
  5
342
100
AcDbEntity
  8
2
100
AcDbLine
 10
-327.685631
 20
285.660916
 30
0.0
 11
-326.135631
 21
284.766023
 31
0.0
  0
LINE
  5
343
100
AcDbEntity
  8
2
100
AcDbLine
 10
-326.135631
 20
284.766023
 30
0.0
 11
-309.635631
 21
284.766023
 31
0.0
  0
LINE
  5
344
100
AcDbEntity
  8
2
100
AcDbLine
 10
-322.785631
 20
285.766023
 30
0.0
 11
-322.785631
 21
285.660916
 31
0.0
  0
ARC
  5
345
100
AcDbEntity
  8
2
100
AcDbCircle
 10
-325.235631
 20
288.810474
 30
0.0
 40
3.990265
100
AcDbArc
 50
232.121121
 51
307.878879
  0
LINE
  5
346
100
AcDbEntity
  8
2
100
AcDbLine
 10
-308.085631
 20
291.871131
 30
0.0
 11
-309.631088
 21
292.7634
 31
0.0
  0
ARC
  5
347
100
AcDbEntity
  8
2
100
AcDbCircle
 10
-310.535631
 20
288.721573
 30
0.0
 40
3.990265
100
AcDbArc
 50
52.121121
 51
81.553325
  0
LINE
  5
348
100
AcDbEntity
  8
2
100
AcDbLine
 10
-369.685631
 20
291.871131
 30
0.0
 11
-369.685631
 21
285.660916
 31
0.0
  0
LINE
  5
349
100
AcDbEntity
  8
2
100
AcDbLine
 10
-369.685631
 20
285.660916
 30
0.0
 11
-368.135631
 21
284.766023
 31
0.0
  0
LINE
  5
34A
100
AcDbEntity
  8
2
100
AcDbLine
 10
-364.785631
 20
289.922945
 30
0.0
 11
-364.785631
 21
285.660916
 31
0.0
  0
ARC
  5
34B
100
AcDbEntity
  8
2
100
AcDbCircle
 10
-367.235631
 20
288.810474
 30
0.0
 40
3.990265
100
AcDbArc
 50
232.121121
 51
307.878879
  0
ARC
  5
34C
100
AcDbEntity
  8
2
100
AcDbCircle
 10
-359.885631
 20
299.520209
 30
0.0
 40
14.7
100
AcDbArc
 50
250.528781
 51
289.471223
  0
LINE
  5
34D
100
AcDbEntity
  8
2
100
AcDbLine
 10
-350.085631
 20
285.766023
 30
0.0
 11
-350.085631
 21
285.660916
 31
0.0
  0
LINE
  5
34E
100
AcDbEntity
  8
2
100
AcDbLine
 10
-350.085631
 20
285.660916
 30
0.0
 11
-351.635631
 21
284.766023
 31
0.0
  0
LINE
  5
34F
100
AcDbEntity
  8
2
100
AcDbLine
 10
-351.635631
 20
284.766023
 30
0.0
 11
-368.135631
 21
284.766023
 31
0.0
  0
LINE
  5
350
100
AcDbEntity
  8
2
100
AcDbLine
 10
-354.985631
 20
285.766023
 30
0.0
 11
-354.985631
 21
285.660916
 31
0.0
  0
ARC
  5
351
100
AcDbEntity
  8
2
100
AcDbCircle
 10
-352.535631
 20
288.810474
 30
0.0
 40
3.990265
100
AcDbArc
 50
232.121121
 51
307.878879
  0
LINE
  5
352
100
AcDbEntity
  8
2
100
AcDbLine
 10
-369.685631
 20
291.871131
 30
0.0
 11
-368.140174
 21
292.7634
 31
0.0
  0
ARC
  5
353
100
AcDbEntity
  8
2
100
AcDbCircle
 10
-367.235631
 20
288.721573
 30
0.0
 40
3.990265
100
AcDbArc
 50
98.446675
 51
127.878879
  0
LINE
  5
354
100
AcDbEntity
  8
2
  6
CENTER
 62
     2
100
AcDbLine
 10
63.405304
 20
18.23269
 30
0.0
 11
88.696396
 21
18.23269
 31
0.0
  0
LINE
  5
355
100
AcDbEntity
  8
2
100
AcDbLine
 10
81.514369
 20
9.73269
 30
0.0
 11
73.514369
 21
9.73269
 31
0.0
  0
LINE
  5
356
100
AcDbEntity
  8
2
100
AcDbLine
 10
73.514369
 20
9.73269
 30
0.0
 11
73.514369
 21
26.73269
 31
0.0
  0
ARC
  5
357
100
AcDbEntity
  8
2
100
AcDbCircle
 10
84.053805
 20
13.98269
 30
0.0
 40
10.539436
100
AcDbArc
 50
156.218654
 51
203.781346
  0
LINE
  5
358
100
AcDbEntity
  8
2
100
AcDbLine
 10
81.514369
 20
26.73269
 30
0.0
 11
73.514369
 21
26.73269
 31
0.0
  0
LINE
  5
359
100
AcDbEntity
  8
2
100
AcDbLine
 10
80.619476
 20
18.23269
 30
0.0
 11
74.409262
 21
18.23269
 31
0.0
  0
ARC
  5
35A
100
AcDbEntity
  8
2
100
AcDbCircle
 10
84.053805
 20
22.48269
 30
0.0
 40
10.539436
100
AcDbArc
 50
156.218654
 51
203.781346
  0
ARC
  5
35B
100
AcDbEntity
  8
2
100
AcDbCircle
 10
70.974933
 20
22.48269
 30
0.0
 40
10.539436
100
AcDbArc
 50
336.218654
 51
23.781346
  0
ARC
  5
35C
100
AcDbEntity
  8
2
100
AcDbCircle
 10
70.974933
 20
13.98269
 30
0.0
 40
10.539436
100
AcDbArc
 50
336.218654
 51
23.781346
  0
ARC
  5
35D
100
AcDbEntity
  8
2
100
AcDbCircle
 10
-338.885631
 20
343.766023
 30
0.0
 40
58.0
100
AcDbArc
 50
101.631352
 51
198.368648
  0
ARC
  5
35E
100
AcDbEntity
  8
2
100
AcDbCircle
 10
-338.885631
 20
343.766023
 30
0.0
 40
58.0
100
AcDbArc
 50
221.631352
 51
318.368648
  0
ARC
  5
35F
100
AcDbEntity
  8
2
100
AcDbCircle
 10
-338.885631
 20
343.766023
 30
0.0
 40
58.0
100
AcDbArc
 50
341.631352
 51
78.368648
  0
ARC
  5
360
100
AcDbEntity
  8
2
100
AcDbCircle
 10
-338.885631
 20
343.766023
 30
0.0
 40
51.5
100
AcDbArc
 50
343.384594
 51
76.615406
  0
ARC
  5
361
100
AcDbEntity
  8
2
100
AcDbCircle
 10
-338.885631
 20
343.766023
 30
0.0
 40
51.5
100
AcDbArc
 50
103.384594
 51
196.615406
  0
ARC
  5
362
100
AcDbEntity
  8
2
100
AcDbCircle
 10
-338.885631
 20
343.766023
 30
0.0
 40
51.5
100
AcDbArc
 50
223.384594
 51
316.615406
  0
ARC
  5
363
100
AcDbEntity
  8
2
100
AcDbCircle
 10
-342.023432
 20
345.77755
 30
0.0
 40
45.0
100
AcDbArc
 50
47.269584
 51
70.184199
  0
ARC
  5
364
100
AcDbEntity
  8
2
100
AcDbCircle
 10
-342.023432
 20
345.77755
 30
0.0
 40
45.0
100
AcDbArc
 50
101.431811
 51
126.428369
  0
ARC
  5
365
100
AcDbEntity
  8
2
100
AcDbCircle
 10
-337.282298
 20
344.428503
 30
0.0
 40
40.0
100
AcDbArc
 50
53.225622
 51
74.501724
  0
ARC
  5
366
100
AcDbEntity
  8
2
100
AcDbCircle
 10
-337.282298
 20
344.428503
 30
0.0
 40
40.0
100
AcDbArc
 50
110.381402
 51
130.394667
  0
ARC
  5
367
100
AcDbEntity
  8
2
100
AcDbCircle
 10
-308.385631
 20
343.766023
 30
0.0
 40
4.30718
100
AcDbArc
 50
292.211856
 51
183.895684
  0
ARC
  5
368
100
AcDbEntity
  8
2
100
AcDbCircle
 10
-308.385631
 20
343.766023
 30
0.0
 40
5.0
100
AcDbArc
 50
297.761275
 51
178.346266
  0
ARC
  5
369
100
AcDbEntity
  8
2
100
AcDbCircle
 10
-308.385631
 20
343.766023
 30
0.0
 40
5.5
100
AcDbArc
 50
300.75963
 51
175.34791
  0
ARC
  5
36A
100
AcDbEntity
  8
2
100
AcDbCircle
 10
-369.385631
 20
343.766023
 30
0.0
 40
5.5
100
AcDbArc
 50
4.65209
 51
239.24037
  0
ARC
  5
36B
100
AcDbEntity
  8
2
100
AcDbCircle
 10
-369.385631
 20
343.766023
 30
0.0
 40
5.0
100
AcDbArc
 50
1.653734
 51
242.238725
  0
ARC
  5
36C
100
AcDbEntity
  8
2
100
AcDbCircle
 10
-369.385631
 20
343.766023
 30
0.0
 40
4.30718
100
AcDbArc
 50
356.104316
 51
247.788144
  0
LINE
  5
36D
100
AcDbEntity
  8
2
100
AcDbLine
 10
-427.885631
 20
136.23269
 30
0.0
 11
-249.885631
 21
136.23269
 31
0.0
  0
ARC
  5
36E
100
AcDbEntity
  8
2
100
AcDbCircle
 10
-427.885631
 20
125.23269
 30
0.0
 40
11.0
100
AcDbArc
 50
90.0
 51
270.0
  0
ARC
  5
36F
100
AcDbEntity
  8
2
100
AcDbCircle
 10
-269.76945
 20
124.781421
 30
0.0
 40
79.570307
100
AcDbArc
 50
181.907508
 51
187.294014
  0
ARC
  5
370
100
AcDbEntity
  8
2
100
AcDbCircle
 10
-408.001812
 20
124.781421
 30
0.0
 40
79.570307
100
AcDbArc
 50
352.705986
 51
358.092492
  0
LINE
  5
371
100
AcDbEntity
  8
2
100
AcDbLine
 10
-331.473935
 20
125.23269
 30
0.0
 11
-346.297326
 21
125.23269
 31
0.0
  0
ARC
  5
372
100
AcDbEntity
  8
2
100
AcDbCircle
 10
-346.297326
 20
122.23269
 30
0.0
 40
3.0
100
AcDbArc
 50
90.0
 51
181.907508
  0
ARC
  5
373
100
AcDbEntity
  8
2
100
AcDbCircle
 10
-331.473935
 20
122.23269
 30
0.0
 40
3.0
100
AcDbArc
 50
358.092492
 51
90.0
  0
ARC
  5
374
100
AcDbEntity
  8
2
100
AcDbCircle
 10
-329.582598
 20
114.744015
 30
0.0
 40
0.511325
100
AcDbArc
 50
196.739333
 51
352.705986
  0
ARC
  5
375
100
AcDbEntity
  8
2
100
AcDbCircle
 10
-348.188664
 20
114.744015
 30
0.0
 40
0.511325
100
AcDbArc
 50
187.294014
 51
343.260667
  0
LINE
  5
376
100
AcDbEntity
  8
2
100
AcDbLine
 10
-332.94513
 20
116.73269
 30
0.0
 11
-344.826132
 21
116.73269
 31
0.0
  0
ARC
  5
377
100
AcDbEntity
  8
2
100
AcDbCircle
 10
-344.826132
 20
113.73269
 30
0.0
 40
3.0
100
AcDbArc
 50
90.0
 51
163.260667
  0
ARC
  5
378
100
AcDbEntity
  8
2
100
AcDbCircle
 10
-332.94513
 20
113.73269
 30
0.0
 40
3.0
100
AcDbArc
 50
16.739333
 51
90.0
  0
ARC
  5
379
100
AcDbEntity
  8
2
100
AcDbCircle
 10
-350.624457
 20
124.835031
 30
0.0
 40
24.10125
100
AcDbArc
 50
187.084118
 51
202.377644
  0
ARC
  5
37A
100
AcDbEntity
  8
2
100
AcDbCircle
 10
-301.12672
 20
124.787601
 30
0.0
 40
53.404212
100
AcDbArc
 50
182.596184
 51
190.675608
  0
LINE
  5
37B
100
AcDbEntity
  8
2
100
AcDbLine
 10
-357.473038
 20
125.23269
 30
0.0
 11
-371.564623
 21
125.23269
 31
0.0
  0
ARC
  5
37C
100
AcDbEntity
  8
2
100
AcDbCircle
 10
-371.564623
 20
122.23269
 30
0.0
 40
3.0
100
AcDbArc
 50
90.0
 51
187.084118
  0
ARC
  5
37D
100
AcDbEntity
  8
2
100
AcDbCircle
 10
-357.473038
 20
122.23269
 30
0.0
 40
3.0
100
AcDbArc
 50
2.596184
 51
90.0
  0
ARC
  5
37E
100
AcDbEntity
  8
2
100
AcDbCircle
 10
-370.780378
 20
116.536559
 30
0.0
 40
2.303869
100
AcDbArc
 50
202.377644
 51
328.085987
  0
ARC
  5
37F
100
AcDbEntity
  8
2
100
AcDbCircle
 10
-352.808298
 20
115.045051
 30
0.0
 40
0.812361
100
AcDbArc
 50
190.675608
 51
270.0
  0
LINE
  5
380
100
AcDbEntity
  8
2
100
AcDbLine
 10
-319.885631
 20
114.23269
 30
0.0
 11
-357.885631
 21
114.23269
 31
0.0
  0
LINE
  5
381
100
AcDbEntity
  8
2
100
AcDbLine
 10
-356.387656
 20
116.73269
 30
0.0
 11
-370.648594
 21
116.73269
 31
0.0
  0
ARC
  5
382
100
AcDbEntity
  8
2
100
AcDbCircle
 10
-366.27823
 20
113.73269
 30
0.0
 40
3.0
100
AcDbArc
 50
90.0
 51
148.085987
  0
ARC
  5
383
100
AcDbEntity
  8
2
100
AcDbCircle
 10
-356.387656
 20
113.73269
 30
0.0
 40
3.0
100
AcDbArc
 50
20.135311
 51
90.0
  0
ARC
  5
384
100
AcDbEntity
  8
2
100
AcDbCircle
 10
-381.970149
 20
124.934068
 30
0.0
 40
15.696848
100
AcDbArc
 50
192.284128
 51
213.145156
  0
ARC
  5
385
100
AcDbEntity
  8
2
100
AcDbCircle
 10
-358.080241
 20
124.851916
 30
0.0
 40
21.482429
100
AcDbArc
 50
186.14148
 51
204.857013
  0
LINE
  5
386
100
AcDbEntity
  8
2
100
AcDbLine
 10
-382.422159
 20
125.23269
 30
0.0
 11
-394.376297
 21
125.23269
 31
0.0
  0
ARC
  5
387
100
AcDbEntity
  8
2
100
AcDbCircle
 10
-394.376297
 20
122.23269
 30
0.0
 40
3.0
100
AcDbArc
 50
90.0
 51
192.284128
  0
ARC
  5
388
100
AcDbEntity
  8
2
100
AcDbCircle
 10
-382.422159
 20
122.23269
 30
0.0
 40
3.0
100
AcDbArc
 50
6.14148
 51
90.0
  0
ARC
  5
389
100
AcDbEntity
  8
2
100
AcDbCircle
 10
-375.085192
 20
116.973983
 30
0.0
 40
2.741293
100
AcDbArc
 50
204.857013
 51
270.0
  0
ARC
  5
38A
100
AcDbEntity
  8
2
100
AcDbCircle
 10
-391.198518
 20
118.907801
 30
0.0
 40
4.67511
100
AcDbArc
 50
213.145156
 51
317.602374
  0
LINE
  5
38B
100
AcDbEntity
  8
2
100
AcDbLine
 10
-377.969256
 20
116.73269
 30
0.0
 11
-392.309114
 21
116.73269
 31
0.0
  0
ARC
  5
38C
100
AcDbEntity
  8
2
100
AcDbCircle
 10
-385.530578
 20
113.73269
 30
0.0
 40
3.0
100
AcDbArc
 50
90.0
 51
137.602374
  0
LINE
  5
38D
100
AcDbEntity
  8
2
100
AcDbLine
 10
-370.780378
 20
114.23269
 30
0.0
 11
-375.085192
 21
114.23269
 31
0.0
  0
ARC
  5
38E
100
AcDbEntity
  8
2
100
AcDbCircle
 10
-403.828152
 20
125.051993
 30
0.0
 40
12.773353
100
AcDbArc
 50
193.047521
 51
220.343373
  0
ARC
  5
38F
100
AcDbEntity
  8
2
100
AcDbCircle
 10
-386.941582
 20
124.957133
 30
0.0
 40
14.878639
100
AcDbArc
 50
188.765186
 51
214.843294
  0
LINE
  5
390
100
AcDbEntity
  8
2
100
AcDbLine
 10
-404.61142
 20
125.23269
 30
0.0
 11
-413.83628
 21
125.23269
 31
0.0
  0
ARC
  5
391
100
AcDbEntity
  8
2
100
AcDbCircle
 10
-404.61142
 20
122.23269
 30
0.0
 40
3.0
100
AcDbArc
 50
8.765186
 51
90.0
  0
ARC
  5
392
100
AcDbEntity
  8
2
100
AcDbCircle
 10
-413.83628
 20
122.73269
 30
0.0
 40
2.5
100
AcDbArc
 50
90.0
 51
193.047521
  0
ARC
  5
393
100
AcDbEntity
  8
2
100
AcDbCircle
 10
-408.051621
 20
121.46473
 30
0.0
 40
7.23204
100
AcDbArc
 50
220.343373
 51
310.9161
  0
ARC
  5
394
100
AcDbEntity
  8
2
100
AcDbCircle
 10
-394.895146
 20
119.420345
 30
0.0
 40
5.187654
100
AcDbArc
 50
214.843294
 51
270.0
  0
LINE
  5
395
100
AcDbEntity
  8
2
100
AcDbLine
 10
-391.198518
 20
114.23269
 30
0.0
 11
-394.895146
 21
114.23269
 31
0.0
  0
LINE
  5
396
100
AcDbEntity
  8
2
100
AcDbLine
 10
-399.340472
 20
116.73269
 30
0.0
 11
-409.855671
 21
116.73269
 31
0.0
  0
ARC
  5
397
100
AcDbEntity
  8
2
100
AcDbCircle
 10
-401.350114
 20
113.73269
 30
0.0
 40
3.0
100
AcDbArc
 50
90.0
 51
130.9161
  0
LINE
  5
398
100
AcDbEntity
  8
2
100
AcDbLine
 10
-422.103555
 20
125.23269
 30
0.0
 11
-427.409611
 21
125.23269
 31
0.0
  0
LINE
  5
399
100
AcDbEntity
  8
2
100
AcDbLine
 10
-434.527891
 20
125.23269
 30
0.0
 11
-435.43373
 21
125.23269
 31
0.0
  0
ARC
  5
39A
100
AcDbEntity
  8
2
100
AcDbCircle
 10
-418.69037
 20
125.15721
 30
0.0
 40
11.550053
100
AcDbArc
 50
195.539411
 51
224.747415
  0
ARC
  5
39B
100
AcDbEntity
  8
2
100
AcDbCircle
 10
-407.348919
 20
125.075058
 30
0.0
 40
12.43941
100
AcDbArc
 50
189.020695
 51
221.426334
  0
ARC
  5
39C
100
AcDbEntity
  8
2
100
AcDbCircle
 10
-427.409611
 20
122.73269
 30
0.0
 40
2.5
100
AcDbArc
 50
90.0
 51
195.539411
  0
ARC
  5
39D
100
AcDbEntity
  8
2
100
AcDbCircle
 10
-422.103555
 20
122.73269
 30
0.0
 40
2.5
100
AcDbArc
 50
9.020695
 51
90.0
  0
ARC
  5
39E
100
AcDbEntity
  8
2
100
AcDbCircle
 10
-410.888143
 20
121.95192
 30
0.0
 40
7.71923
100
AcDbArc
 50
221.426334
 51
270.0
  0
ARC
  5
39F
100
AcDbEntity
  8
2
100
AcDbCircle
 10
-420.191177
 20
123.669578
 30
0.0
 40
9.436887
100
AcDbArc
 50
224.747415
 51
301.319694
  0
LINE
  5
3A0
100
AcDbEntity
  8
2
100
AcDbLine
 10
-408.051621
 20
114.23269
 30
0.0
 11
-410.888143
 21
114.23269
 31
0.0
  0
LINE
  5
3A1
100
AcDbEntity
  8
2
100
AcDbLine
 10
-416.575511
 20
116.73269
 30
0.0
 11
-421.996566
 21
116.73269
 31
0.0
  0
ARC
  5
3A2
100
AcDbEntity
  8
2
100
AcDbCircle
 10
-426.584553
 20
125.221525
 30
0.0
 40
11.069917
100
AcDbArc
 50
192.666639
 51
226.904828
  0
ARC
  5
3A3
100
AcDbEntity
  8
2
100
AcDbCircle
 10
-420.83421
 20
125.174095
 30
0.0
 40
11.409614
100
AcDbArc
 50
190.108874
 51
225.345864
  0
ARC
  5
3A4
100
AcDbEntity
  8
2
100
AcDbCircle
 10
-434.527891
 20
122.73269
 30
0.0
 40
2.5
100
AcDbArc
 50
10.108874
 51
90.0
  0
ARC
  5
3A5
100
AcDbEntity
  8
2
100
AcDbCircle
 10
-435.43373
 20
123.23269
 30
0.0
 40
2.0
100
AcDbArc
 50
90.0
 51
192.666639
  0
ARC
  5
3A6
100
AcDbEntity
  8
2
100
AcDbCircle
 10
-426.789893
 20
125.002057
 30
0.0
 40
10.769367
100
AcDbArc
 50
226.904828
 51
283.238025
  0
ARC
  5
3A7
100
AcDbEntity
  8
2
100
AcDbCircle
 10
-421.974289
 20
124.020168
 30
0.0
 40
9.787478
100
AcDbArc
 50
225.345864
 51
270.0
  0
LINE
  5
3A8
100
AcDbEntity
  8
2
100
AcDbLine
 10
-420.191177
 20
114.23269
 30
0.0
 11
-421.974289
 21
114.23269
 31
0.0
  0
LINE
  5
3A9
100
AcDbEntity
  8
2
100
AcDbLine
 10
-426.789893
 20
114.23269
 30
0.0
 11
-427.885631
 21
114.23269
 31
0.0
  0
ARC
  5
3AA
100
AcDbEntity
  8
2
100
AcDbCircle
 10
-342.349917
 20
125.23269
 30
0.0
 40
19.035714
100
AcDbArc
 50
206.52121
 51
215.300248
  0
ARC
  5
3AB
100
AcDbEntity
  8
2
100
AcDbCircle
 10
-335.421345
 20
125.23269
 30
0.0
 40
19.035714
100
AcDbArc
 50
324.699752
 51
333.47879
  0
ARC
  5
3AC
100
AcDbEntity
  8
2
100
AcDbCircle
 10
-249.885631
 20
125.23269
 30
0.0
 40
11.0
100
AcDbArc
 50
270.0
 51
90.0
  0
ARC
  5
3AD
100
AcDbEntity
  8
2
100
AcDbCircle
 10
-327.146805
 20
124.835031
 30
0.0
 40
24.10125
100
AcDbArc
 50
337.622356
 51
352.915882
  0
ARC
  5
3AE
100
AcDbEntity
  8
2
100
AcDbCircle
 10
-376.644541
 20
124.787601
 30
0.0
 40
53.404212
100
AcDbArc
 50
349.324392
 51
357.403816
  0
LINE
  5
3AF
100
AcDbEntity
  8
2
100
AcDbLine
 10
-320.298224
 20
125.23269
 30
0.0
 11
-306.206639
 21
125.23269
 31
0.0
  0
ARC
  5
3B0
100
AcDbEntity
  8
2
100
AcDbCircle
 10
-306.206639
 20
122.23269
 30
0.0
 40
3.0
100
AcDbArc
 50
352.915882
 51
90.0
  0
ARC
  5
3B1
100
AcDbEntity
  8
2
100
AcDbCircle
 10
-320.298224
 20
122.23269
 30
0.0
 40
3.0
100
AcDbArc
 50
90.0
 51
177.403816
  0
ARC
  5
3B2
100
AcDbEntity
  8
2
100
AcDbCircle
 10
-306.990883
 20
116.536559
 30
0.0
 40
2.303869
100
AcDbArc
 50
211.914013
 51
337.622356
  0
ARC
  5
3B3
100
AcDbEntity
  8
2
100
AcDbCircle
 10
-324.962964
 20
115.045051
 30
0.0
 40
0.812361
100
AcDbArc
 50
270.0
 51
349.324392
  0
LINE
  5
3B4
100
AcDbEntity
  8
2
100
AcDbLine
 10
-321.383605
 20
116.73269
 30
0.0
 11
-307.122668
 21
116.73269
 31
0.0
  0
ARC
  5
3B5
100
AcDbEntity
  8
2
100
AcDbCircle
 10
-311.493032
 20
113.73269
 30
0.0
 40
3.0
100
AcDbArc
 50
31.914013
 51
90.0
  0
ARC
  5
3B6
100
AcDbEntity
  8
2
100
AcDbCircle
 10
-321.383605
 20
113.73269
 30
0.0
 40
3.0
100
AcDbArc
 50
90.0
 51
159.864689
  0
ARC
  5
3B7
100
AcDbEntity
  8
2
100
AcDbCircle
 10
-295.801113
 20
124.934068
 30
0.0
 40
15.696848
100
AcDbArc
 50
326.854844
 51
347.715872
  0
ARC
  5
3B8
100
AcDbEntity
  8
2
100
AcDbCircle
 10
-319.69102
 20
124.851916
 30
0.0
 40
21.482429
100
AcDbArc
 50
335.142987
 51
353.85852
  0
LINE
  5
3B9
100
AcDbEntity
  8
2
100
AcDbLine
 10
-295.349102
 20
125.23269
 30
0.0
 11
-283.394965
 21
125.23269
 31
0.0
  0
ARC
  5
3BA
100
AcDbEntity
  8
2
100
AcDbCircle
 10
-283.394965
 20
122.23269
 30
0.0
 40
3.0
100
AcDbArc
 50
347.715872
 51
90.0
  0
ARC
  5
3BB
100
AcDbEntity
  8
2
100
AcDbCircle
 10
-295.349102
 20
122.23269
 30
0.0
 40
3.0
100
AcDbArc
 50
90.0
 51
173.85852
  0
ARC
  5
3BC
100
AcDbEntity
  8
2
100
AcDbCircle
 10
-302.68607
 20
116.973983
 30
0.0
 40
2.741293
100
AcDbArc
 50
270.0
 51
335.142987
  0
ARC
  5
3BD
100
AcDbEntity
  8
2
100
AcDbCircle
 10
-286.572743
 20
118.907801
 30
0.0
 40
4.67511
100
AcDbArc
 50
222.397626
 51
326.854844
  0
LINE
  5
3BE
100
AcDbEntity
  8
2
100
AcDbLine
 10
-299.802006
 20
116.73269
 30
0.0
 11
-285.462148
 21
116.73269
 31
0.0
  0
ARC
  5
3BF
100
AcDbEntity
  8
2
100
AcDbCircle
 10
-292.240684
 20
113.73269
 30
0.0
 40
3.0
100
AcDbArc
 50
42.397626
 51
90.0
  0
LINE
  5
3C0
100
AcDbEntity
  8
2
100
AcDbLine
 10
-306.990883
 20
114.23269
 30
0.0
 11
-302.68607
 21
114.23269
 31
0.0
  0
ARC
  5
3C1
100
AcDbEntity
  8
2
100
AcDbCircle
 10
-273.94311
 20
125.051993
 30
0.0
 40
12.773353
100
AcDbArc
 50
319.656627
 51
346.952479
  0
ARC
  5
3C2
100
AcDbEntity
  8
2
100
AcDbCircle
 10
-290.829679
 20
124.957133
 30
0.0
 40
14.878639
100
AcDbArc
 50
325.156706
 51
351.234814
  0
LINE
  5
3C3
100
AcDbEntity
  8
2
100
AcDbLine
 10
-273.159842
 20
125.23269
 30
0.0
 11
-263.934982
 21
125.23269
 31
0.0
  0
ARC
  5
3C4
100
AcDbEntity
  8
2
100
AcDbCircle
 10
-273.159842
 20
122.23269
 30
0.0
 40
3.0
100
AcDbArc
 50
90.0
 51
171.234814
  0
ARC
  5
3C5
100
AcDbEntity
  8
2
100
AcDbCircle
 10
-263.934982
 20
122.73269
 30
0.0
 40
2.5
100
AcDbArc
 50
346.952479
 51
90.0
  0
ARC
  5
3C6
100
AcDbEntity
  8
2
100
AcDbCircle
 10
-269.71964
 20
121.46473
 30
0.0
 40
7.23204
100
AcDbArc
 50
229.0839
 51
319.656627
  0
ARC
  5
3C7
100
AcDbEntity
  8
2
100
AcDbCircle
 10
-282.876116
 20
119.420345
 30
0.0
 40
5.187654
100
AcDbArc
 50
270.0
 51
325.156706
  0
LINE
  5
3C8
100
AcDbEntity
  8
2
100
AcDbLine
 10
-286.572743
 20
114.23269
 30
0.0
 11
-282.876116
 21
114.23269
 31
0.0
  0
LINE
  5
3C9
100
AcDbEntity
  8
2
100
AcDbLine
 10
-278.43079
 20
116.73269
 30
0.0
 11
-267.915591
 21
116.73269
 31
0.0
  0
ARC
  5
3CA
100
AcDbEntity
  8
2
100
AcDbCircle
 10
-276.421148
 20
113.73269
 30
0.0
 40
3.0
100
AcDbArc
 50
49.0839
 51
90.0
  0
LINE
  5
3CB
100
AcDbEntity
  8
2
100
AcDbLine
 10
-255.667707
 20
125.23269
 30
0.0
 11
-250.36165
 21
125.23269
 31
0.0
  0
LINE
  5
3CC
100
AcDbEntity
  8
2
100
AcDbLine
 10
-243.243371
 20
125.23269
 30
0.0
 11
-242.337531
 21
125.23269
 31
0.0
  0
ARC
  5
3CD
100
AcDbEntity
  8
2
100
AcDbCircle
 10
-259.080892
 20
125.15721
 30
0.0
 40
11.550053
100
AcDbArc
 50
315.252585
 51
344.460589
  0
ARC
  5
3CE
100
AcDbEntity
  8
2
100
AcDbCircle
 10
-270.422343
 20
125.075058
 30
0.0
 40
12.43941
100
AcDbArc
 50
318.573666
 51
350.979305
  0
ARC
  5
3CF
100
AcDbEntity
  8
2
100
AcDbCircle
 10
-250.36165
 20
122.73269
 30
0.0
 40
2.5
100
AcDbArc
 50
344.460589
 51
90.0
  0
ARC
  5
3D0
100
AcDbEntity
  8
2
100
AcDbCircle
 10
-255.667707
 20
122.73269
 30
0.0
 40
2.5
100
AcDbArc
 50
90.0
 51
170.979305
  0
ARC
  5
3D1
100
AcDbEntity
  8
2
100
AcDbCircle
 10
-266.883118
 20
121.95192
 30
0.0
 40
7.71923
100
AcDbArc
 50
270.0
 51
318.573666
  0
ARC
  5
3D2
100
AcDbEntity
  8
2
100
AcDbCircle
 10
-257.580085
 20
123.669578
 30
0.0
 40
9.436887
100
AcDbArc
 50
238.680306
 51
315.252585
  0
LINE
  5
3D3
100
AcDbEntity
  8
2
100
AcDbLine
 10
-269.71964
 20
114.23269
 30
0.0
 11
-266.883118
 21
114.23269
 31
0.0
  0
LINE
  5
3D4
100
AcDbEntity
  8
2
100
AcDbLine
 10
-261.195751
 20
116.73269
 30
0.0
 11
-255.774695
 21
116.73269
 31
0.0
  0
ARC
  5
3D5
100
AcDbEntity
  8
2
100
AcDbCircle
 10
-251.186708
 20
125.221525
 30
0.0
 40
11.069917
100
AcDbArc
 50
313.095172
 51
347.333361
  0
ARC
  5
3D6
100
AcDbEntity
  8
2
100
AcDbCircle
 10
-256.937052
 20
125.174095
 30
0.0
 40
11.409614
100
AcDbArc
 50
314.654136
 51
349.891126
  0
ARC
  5
3D7
100
AcDbEntity
  8
2
100
AcDbCircle
 10
-243.243371
 20
122.73269
 30
0.0
 40
2.5
100
AcDbArc
 50
90.0
 51
169.891126
  0
ARC
  5
3D8
100
AcDbEntity
  8
2
100
AcDbCircle
 10
-242.337531
 20
123.23269
 30
0.0
 40
2.0
100
AcDbArc
 50
347.333361
 51
90.0
  0
ARC
  5
3D9
100
AcDbEntity
  8
2
100
AcDbCircle
 10
-250.981369
 20
125.002057
 30
0.0
 40
10.769367
100
AcDbArc
 50
256.761975
 51
313.095172
  0
ARC
  5
3DA
100
AcDbEntity
  8
2
100
AcDbCircle
 10
-255.796973
 20
124.020168
 30
0.0
 40
9.787478
100
AcDbArc
 50
270.0
 51
314.654136
  0
LINE
  5
3DB
100
AcDbEntity
  8
2
100
AcDbLine
 10
-257.580085
 20
114.23269
 30
0.0
 11
-255.796973
 21
114.23269
 31
0.0
  0
LINE
  5
3DC
100
AcDbEntity
  8
2
100
AcDbLine
 10
-250.981369
 20
114.23269
 30
0.0
 11
-249.885631
 21
114.23269
 31
0.0
  0
LINE
  5
3DD
100
AcDbEntity
  8
2
100
AcDbLine
 10
-358.885631
 20
138.23269
 30
0.0
 11
-318.885631
 21
138.23269
 31
0.0
  0
LINE
  5
3DE
100
AcDbEntity
  8
2
100
AcDbLine
 10
-346.385631
 20
140.23269
 30
0.0
 11
-346.385631
 21
145.011002
 31
0.0
  0
LINE
  5
3DF
100
AcDbEntity
  8
2
100
AcDbLine
 10
-346.385631
 20
145.011002
 30
0.0
 11
-345.135631
 21
145.73269
 31
0.0
  0
LINE
  5
3E0
100
AcDbEntity
  8
2
100
AcDbLine
 10
-342.635631
 20
140.23269
 30
0.0
 11
-342.635631
 21
145.011002
 31
0.0
  0
ARC
  5
3E1
100
AcDbEntity
  8
2
100
AcDbCircle
 10
-344.510631
 20
142.600626
 30
0.0
 40
3.053774
100
AcDbArc
 50
52.121121
 51
127.878879
  0
ARC
  5
3E2
100
AcDbEntity
  8
2
100
AcDbCircle
 10
-338.885631
 20
134.404401
 30
0.0
 40
11.25
100
AcDbArc
 50
70.528779
 51
109.471221
  0
LINE
  5
3E3
100
AcDbEntity
  8
2
100
AcDbLine
 10
-331.385631
 20
140.23269
 30
0.0
 11
-331.385631
 21
145.011002
 31
0.0
  0
LINE
  5
3E4
100
AcDbEntity
  8
2
100
AcDbLine
 10
-331.385631
 20
145.011002
 30
0.0
 11
-332.635631
 21
145.73269
 31
0.0
  0
LINE
  5
3E5
100
AcDbEntity
  8
2
100
AcDbLine
 10
-332.635631
 20
145.73269
 30
0.0
 11
-345.135631
 21
145.73269
 31
0.0
  0
LINE
  5
3E6
100
AcDbEntity
  8
2
100
AcDbLine
 10
-335.135631
 20
140.23269
 30
0.0
 11
-335.135631
 21
145.011002
 31
0.0
  0
ARC
  5
3E7
100
AcDbEntity
  8
2
100
AcDbCircle
 10
-333.260631
 20
142.600626
 30
0.0
 40
3.053774
100
AcDbArc
 50
52.121121
 51
127.878879
  0
LINE
  5
3E8
100
AcDbEntity
  8
2
100
AcDbLine
 10
-346.585631
 20
138.23269
 30
0.0
 11
-346.585631
 21
140.23269
 31
0.0
  0
LINE
  5
3E9
100
AcDbEntity
  8
2
100
AcDbLine
 10
-346.585631
 20
140.23269
 30
0.0
 11
-331.185631
 21
140.23269
 31
0.0
  0
LINE
  5
3EA
100
AcDbEntity
  8
2
100
AcDbLine
 10
-331.185631
 20
140.23269
 30
0.0
 11
-331.185631
 21
138.23269
 31
0.0
  0
LINE
  5
3EB
100
AcDbEntity
  8
2
100
AcDbLine
 10
-338.885631
 20
140.23269
 30
0.0
 11
-338.385631
 21
138.23269
 31
0.0
  0
LINE
  5
3EC
100
AcDbEntity
  8
2
100
AcDbLine
 10
-338.885631
 20
138.23269
 30
0.0
 11
-339.385631
 21
140.23269
 31
0.0
  0
LINE
  5
3ED
100
AcDbEntity
  8
2
100
AcDbLine
 10
-358.885631
 20
138.23269
 30
0.0
 11
-358.885631
 21
136.23269
 31
0.0
  0
LINE
  5
3EE
100
AcDbEntity
  8
2
100
AcDbLine
 10
-318.885631
 20
138.23269
 30
0.0
 11
-318.885631
 21
136.23269
 31
0.0
  0
LINE
  5
3EF
100
AcDbEntity
  8
2
100
AcDbLine
 10
43.514369
 20
136.23269
 30
0.0
 11
221.514369
 21
136.23269
 31
0.0
  0
ARC
  5
3F0
100
AcDbEntity
  8
2
100
AcDbCircle
 10
43.514369
 20
125.23269
 30
0.0
 40
11.0
100
AcDbArc
 50
90.0
 51
270.0
  0
ARC
  5
3F1
100
AcDbEntity
  8
2
100
AcDbCircle
 10
201.63055
 20
124.781421
 30
0.0
 40
79.570307
100
AcDbArc
 50
181.907508
 51
187.294014
  0
ARC
  5
3F2
100
AcDbEntity
  8
2
100
AcDbCircle
 10
63.398188
 20
124.781421
 30
0.0
 40
79.570307
100
AcDbArc
 50
352.705986
 51
358.092492
  0
LINE
  5
3F3
100
AcDbEntity
  8
2
100
AcDbLine
 10
139.926065
 20
125.23269
 30
0.0
 11
125.102674
 21
125.23269
 31
0.0
  0
ARC
  5
3F4
100
AcDbEntity
  8
2
100
AcDbCircle
 10
125.102674
 20
122.23269
 30
0.0
 40
3.0
100
AcDbArc
 50
90.0
 51
181.907508
  0
ARC
  5
3F5
100
AcDbEntity
  8
2
100
AcDbCircle
 10
139.926065
 20
122.23269
 30
0.0
 40
3.0
100
AcDbArc
 50
358.092492
 51
90.0
  0
ARC
  5
3F6
100
AcDbEntity
  8
2
100
AcDbCircle
 10
141.817402
 20
114.744015
 30
0.0
 40
0.511325
100
AcDbArc
 50
196.739333
 51
352.705986
  0
ARC
  5
3F7
100
AcDbEntity
  8
2
100
AcDbCircle
 10
123.211336
 20
114.744015
 30
0.0
 40
0.511325
100
AcDbArc
 50
187.294014
 51
343.260667
  0
LINE
  5
3F8
100
AcDbEntity
  8
2
100
AcDbLine
 10
138.45487
 20
116.73269
 30
0.0
 11
126.573868
 21
116.73269
 31
0.0
  0
ARC
  5
3F9
100
AcDbEntity
  8
2
100
AcDbCircle
 10
126.573868
 20
113.73269
 30
0.0
 40
3.0
100
AcDbArc
 50
90.0
 51
163.260667
  0
ARC
  5
3FA
100
AcDbEntity
  8
2
100
AcDbCircle
 10
138.45487
 20
113.73269
 30
0.0
 40
3.0
100
AcDbArc
 50
16.739333
 51
90.0
  0
ARC
  5
3FB
100
AcDbEntity
  8
2
100
AcDbCircle
 10
120.775543
 20
124.835031
 30
0.0
 40
24.10125
100
AcDbArc
 50
187.084118
 51
202.377644
  0
ARC
  5
3FC
100
AcDbEntity
  8
2
100
AcDbCircle
 10
170.27328
 20
124.787601
 30
0.0
 40
53.404212
100
AcDbArc
 50
182.596184
 51
190.675608
  0
LINE
  5
3FD
100
AcDbEntity
  8
2
100
AcDbLine
 10
113.926962
 20
125.23269
 30
0.0
 11
99.835377
 21
125.23269
 31
0.0
  0
ARC
  5
3FE
100
AcDbEntity
  8
2
100
AcDbCircle
 10
99.835377
 20
122.23269
 30
0.0
 40
3.0
100
AcDbArc
 50
90.0
 51
187.084118
  0
ARC
  5
3FF
100
AcDbEntity
  8
2
100
AcDbCircle
 10
113.926962
 20
122.23269
 30
0.0
 40
3.0
100
AcDbArc
 50
2.596184
 51
90.0
  0
ARC
  5
400
100
AcDbEntity
  8
2
100
AcDbCircle
 10
100.619622
 20
116.536559
 30
0.0
 40
2.303869
100
AcDbArc
 50
202.377644
 51
328.085987
  0
ARC
  5
401
100
AcDbEntity
  8
2
100
AcDbCircle
 10
118.591702
 20
115.045051
 30
0.0
 40
0.812361
100
AcDbArc
 50
190.675608
 51
270.0
  0
LINE
  5
402
100
AcDbEntity
  8
2
100
AcDbLine
 10
151.514369
 20
114.23269
 30
0.0
 11
113.514369
 21
114.23269
 31
0.0
  0
LINE
  5
403
100
AcDbEntity
  8
2
100
AcDbLine
 10
115.012344
 20
116.73269
 30
0.0
 11
100.751406
 21
116.73269
 31
0.0
  0
ARC
  5
404
100
AcDbEntity
  8
2
100
AcDbCircle
 10
105.12177
 20
113.73269
 30
0.0
 40
3.0
100
AcDbArc
 50
90.0
 51
148.085987
  0
ARC
  5
405
100
AcDbEntity
  8
2
100
AcDbCircle
 10
115.012344
 20
113.73269
 30
0.0
 40
3.0
100
AcDbArc
 50
20.135311
 51
90.0
  0
ARC
  5
406
100
AcDbEntity
  8
2
100
AcDbCircle
 10
89.429851
 20
124.934068
 30
0.0
 40
15.696848
100
AcDbArc
 50
192.284128
 51
213.145156
  0
ARC
  5
407
100
AcDbEntity
  8
2
100
AcDbCircle
 10
113.319759
 20
124.851916
 30
0.0
 40
21.482429
100
AcDbArc
 50
186.14148
 51
204.857013
  0
LINE
  5
408
100
AcDbEntity
  8
2
100
AcDbLine
 10
88.977841
 20
125.23269
 30
0.0
 11
77.023703
 21
125.23269
 31
0.0
  0
ARC
  5
409
100
AcDbEntity
  8
2
100
AcDbCircle
 10
77.023703
 20
122.23269
 30
0.0
 40
3.0
100
AcDbArc
 50
90.0
 51
192.284128
  0
ARC
  5
40A
100
AcDbEntity
  8
2
100
AcDbCircle
 10
88.977841
 20
122.23269
 30
0.0
 40
3.0
100
AcDbArc
 50
6.14148
 51
90.0
  0
ARC
  5
40B
100
AcDbEntity
  8
2
100
AcDbCircle
 10
96.314808
 20
116.973983
 30
0.0
 40
2.741293
100
AcDbArc
 50
204.857013
 51
270.0
  0
ARC
  5
40C
100
AcDbEntity
  8
2
100
AcDbCircle
 10
80.201482
 20
118.907801
 30
0.0
 40
4.67511
100
AcDbArc
 50
213.145156
 51
317.602374
  0
LINE
  5
40D
100
AcDbEntity
  8
2
100
AcDbLine
 10
93.430744
 20
116.73269
 30
0.0
 11
79.090886
 21
116.73269
 31
0.0
  0
ARC
  5
40E
100
AcDbEntity
  8
2
100
AcDbCircle
 10
85.869422
 20
113.73269
 30
0.0
 40
3.0
100
AcDbArc
 50
90.0
 51
137.602374
  0
LINE
  5
40F
100
AcDbEntity
  8
2
100
AcDbLine
 10
100.619622
 20
114.23269
 30
0.0
 11
96.314808
 21
114.23269
 31
0.0
  0
ARC
  5
410
100
AcDbEntity
  8
2
100
AcDbCircle
 10
67.571848
 20
125.051993
 30
0.0
 40
12.773353
100
AcDbArc
 50
193.047521
 51
220.343373
  0
ARC
  5
411
100
AcDbEntity
  8
2
100
AcDbCircle
 10
84.458418
 20
124.957133
 30
0.0
 40
14.878639
100
AcDbArc
 50
188.765186
 51
214.843294
  0
LINE
  5
412
100
AcDbEntity
  8
2
100
AcDbLine
 10
66.78858
 20
125.23269
 30
0.0
 11
57.56372
 21
125.23269
 31
0.0
  0
ARC
  5
413
100
AcDbEntity
  8
2
100
AcDbCircle
 10
66.78858
 20
122.23269
 30
0.0
 40
3.0
100
AcDbArc
 50
8.765186
 51
90.0
  0
ARC
  5
414
100
AcDbEntity
  8
2
100
AcDbCircle
 10
57.56372
 20
122.73269
 30
0.0
 40
2.5
100
AcDbArc
 50
90.0
 51
193.047521
  0
ARC
  5
415
100
AcDbEntity
  8
2
100
AcDbCircle
 10
63.348379
 20
121.46473
 30
0.0
 40
7.23204
100
AcDbArc
 50
220.343373
 51
310.9161
  0
ARC
  5
416
100
AcDbEntity
  8
2
100
AcDbCircle
 10
76.504854
 20
119.420345
 30
0.0
 40
5.187654
100
AcDbArc
 50
214.843294
 51
270.0
  0
LINE
  5
417
100
AcDbEntity
  8
2
100
AcDbLine
 10
80.201482
 20
114.23269
 30
0.0
 11
76.504854
 21
114.23269
 31
0.0
  0
LINE
  5
418
100
AcDbEntity
  8
2
100
AcDbLine
 10
72.059528
 20
116.73269
 30
0.0
 11
61.544329
 21
116.73269
 31
0.0
  0
ARC
  5
419
100
AcDbEntity
  8
2
100
AcDbCircle
 10
70.049886
 20
113.73269
 30
0.0
 40
3.0
100
AcDbArc
 50
90.0
 51
130.9161
  0
LINE
  5
41A
100
AcDbEntity
  8
2
100
AcDbLine
 10
49.296445
 20
125.23269
 30
0.0
 11
43.990389
 21
125.23269
 31
0.0
  0
LINE
  5
41B
100
AcDbEntity
  8
2
100
AcDbLine
 10
36.872109
 20
125.23269
 30
0.0
 11
35.96627
 21
125.23269
 31
0.0
  0
ARC
  5
41C
100
AcDbEntity
  8
2
100
AcDbCircle
 10
52.70963
 20
125.15721
 30
0.0
 40
11.550053
100
AcDbArc
 50
195.539411
 51
224.747415
  0
ARC
  5
41D
100
AcDbEntity
  8
2
100
AcDbCircle
 10
64.051081
 20
125.075058
 30
0.0
 40
12.43941
100
AcDbArc
 50
189.020695
 51
221.426334
  0
ARC
  5
41E
100
AcDbEntity
  8
2
100
AcDbCircle
 10
43.990389
 20
122.73269
 30
0.0
 40
2.5
100
AcDbArc
 50
90.0
 51
195.539411
  0
ARC
  5
41F
100
AcDbEntity
  8
2
100
AcDbCircle
 10
49.296445
 20
122.73269
 30
0.0
 40
2.5
100
AcDbArc
 50
9.020695
 51
90.0
  0
ARC
  5
420
100
AcDbEntity
  8
2
100
AcDbCircle
 10
60.511857
 20
121.95192
 30
0.0
 40
7.71923
100
AcDbArc
 50
221.426334
 51
270.0
  0
ARC
  5
421
100
AcDbEntity
  8
2
100
AcDbCircle
 10
51.208823
 20
123.669578
 30
0.0
 40
9.436887
100
AcDbArc
 50
224.747415
 51
301.319694
  0
LINE
  5
422
100
AcDbEntity
  8
2
100
AcDbLine
 10
63.348379
 20
114.23269
 30
0.0
 11
60.511857
 21
114.23269
 31
0.0
  0
LINE
  5
423
100
AcDbEntity
  8
2
100
AcDbLine
 10
54.824489
 20
116.73269
 30
0.0
 11
49.403434
 21
116.73269
 31
0.0
  0
ARC
  5
424
100
AcDbEntity
  8
2
100
AcDbCircle
 10
44.815447
 20
125.221525
 30
0.0
 40
11.069917
100
AcDbArc
 50
192.666639
 51
226.904828
  0
ARC
  5
425
100
AcDbEntity
  8
2
100
AcDbCircle
 10
50.56579
 20
125.174095
 30
0.0
 40
11.409614
100
AcDbArc
 50
190.108874
 51
225.345864
  0
ARC
  5
426
100
AcDbEntity
  8
2
100
AcDbCircle
 10
36.872109
 20
122.73269
 30
0.0
 40
2.5
100
AcDbArc
 50
10.108874
 51
90.0
  0
ARC
  5
427
100
AcDbEntity
  8
2
100
AcDbCircle
 10
35.96627
 20
123.23269
 30
0.0
 40
2.0
100
AcDbArc
 50
90.0
 51
192.666639
  0
ARC
  5
428
100
AcDbEntity
  8
2
100
AcDbCircle
 10
44.610107
 20
125.002057
 30
0.0
 40
10.769367
100
AcDbArc
 50
226.904828
 51
283.238025
  0
ARC
  5
429
100
AcDbEntity
  8
2
100
AcDbCircle
 10
49.425711
 20
124.020168
 30
0.0
 40
9.787478
100
AcDbArc
 50
225.345864
 51
270.0
  0
LINE
  5
42A
100
AcDbEntity
  8
2
100
AcDbLine
 10
51.208823
 20
114.23269
 30
0.0
 11
49.425711
 21
114.23269
 31
0.0
  0
LINE
  5
42B
100
AcDbEntity
  8
2
100
AcDbLine
 10
44.610107
 20
114.23269
 30
0.0
 11
43.514369
 21
114.23269
 31
0.0
  0
ARC
  5
42C
100
AcDbEntity
  8
2
100
AcDbCircle
 10
129.050083
 20
125.23269
 30
0.0
 40
19.035714
100
AcDbArc
 50
206.52121
 51
215.300248
  0
ARC
  5
42D
100
AcDbEntity
  8
2
100
AcDbCircle
 10
135.978655
 20
125.23269
 30
0.0
 40
19.035714
100
AcDbArc
 50
324.699752
 51
333.47879
  0
ARC
  5
42E
100
AcDbEntity
  8
2
100
AcDbCircle
 10
221.514369
 20
125.23269
 30
0.0
 40
11.0
100
AcDbArc
 50
270.0
 51
90.0
  0
ARC
  5
42F
100
AcDbEntity
  8
2
100
AcDbCircle
 10
144.253195
 20
124.835031
 30
0.0
 40
24.10125
100
AcDbArc
 50
337.622356
 51
352.915882
  0
ARC
  5
430
100
AcDbEntity
  8
2
100
AcDbCircle
 10
94.755459
 20
124.787601
 30
0.0
 40
53.404212
100
AcDbArc
 50
349.324392
 51
357.403816
  0
LINE
  5
431
100
AcDbEntity
  8
2
100
AcDbLine
 10
151.101776
 20
125.23269
 30
0.0
 11
165.193361
 21
125.23269
 31
0.0
  0
ARC
  5
432
100
AcDbEntity
  8
2
100
AcDbCircle
 10
165.193361
 20
122.23269
 30
0.0
 40
3.0
100
AcDbArc
 50
352.915882
 51
90.0
  0
ARC
  5
433
100
AcDbEntity
  8
2
100
AcDbCircle
 10
151.101776
 20
122.23269
 30
0.0
 40
3.0
100
AcDbArc
 50
90.0
 51
177.403816
  0
ARC
  5
434
100
AcDbEntity
  8
2
100
AcDbCircle
 10
164.409117
 20
116.536559
 30
0.0
 40
2.303869
100
AcDbArc
 50
211.914013
 51
337.622356
  0
ARC
  5
435
100
AcDbEntity
  8
2
100
AcDbCircle
 10
146.437036
 20
115.045051
 30
0.0
 40
0.812361
100
AcDbArc
 50
270.0
 51
349.324392
  0
LINE
  5
436
100
AcDbEntity
  8
2
100
AcDbLine
 10
150.016395
 20
116.73269
 30
0.0
 11
164.277332
 21
116.73269
 31
0.0
  0
ARC
  5
437
100
AcDbEntity
  8
2
100
AcDbCircle
 10
159.906968
 20
113.73269
 30
0.0
 40
3.0
100
AcDbArc
 50
31.914013
 51
90.0
  0
ARC
  5
438
100
AcDbEntity
  8
2
100
AcDbCircle
 10
150.016395
 20
113.73269
 30
0.0
 40
3.0
100
AcDbArc
 50
90.0
 51
159.864689
  0
ARC
  5
439
100
AcDbEntity
  8
2
100
AcDbCircle
 10
175.598887
 20
124.934068
 30
0.0
 40
15.696848
100
AcDbArc
 50
326.854844
 51
347.715872
  0
ARC
  5
43A
100
AcDbEntity
  8
2
100
AcDbCircle
 10
151.70898
 20
124.851916
 30
0.0
 40
21.482429
100
AcDbArc
 50
335.142987
 51
353.85852
  0
LINE
  5
43B
100
AcDbEntity
  8
2
100
AcDbLine
 10
176.050898
 20
125.23269
 30
0.0
 11
188.005035
 21
125.23269
 31
0.0
  0
ARC
  5
43C
100
AcDbEntity
  8
2
100
AcDbCircle
 10
188.005035
 20
122.23269
 30
0.0
 40
3.0
100
AcDbArc
 50
347.715872
 51
90.0
  0
ARC
  5
43D
100
AcDbEntity
  8
2
100
AcDbCircle
 10
176.050898
 20
122.23269
 30
0.0
 40
3.0
100
AcDbArc
 50
90.0
 51
173.85852
  0
ARC
  5
43E
100
AcDbEntity
  8
2
100
AcDbCircle
 10
168.71393
 20
116.973983
 30
0.0
 40
2.741293
100
AcDbArc
 50
270.0
 51
335.142987
  0
ARC
  5
43F
100
AcDbEntity
  8
2
100
AcDbCircle
 10
184.827257
 20
118.907801
 30
0.0
 40
4.67511
100
AcDbArc
 50
222.397626
 51
326.854844
  0
LINE
  5
440
100
AcDbEntity
  8
2
100
AcDbLine
 10
171.597994
 20
116.73269
 30
0.0
 11
185.937852
 21
116.73269
 31
0.0
  0
ARC
  5
441
100
AcDbEntity
  8
2
100
AcDbCircle
 10
179.159316
 20
113.73269
 30
0.0
 40
3.0
100
AcDbArc
 50
42.397626
 51
90.0
  0
LINE
  5
442
100
AcDbEntity
  8
2
100
AcDbLine
 10
164.409117
 20
114.23269
 30
0.0
 11
168.71393
 21
114.23269
 31
0.0
  0
ARC
  5
443
100
AcDbEntity
  8
2
100
AcDbCircle
 10
197.45689
 20
125.051993
 30
0.0
 40
12.773353
100
AcDbArc
 50
319.656627
 51
346.952479
  0
ARC
  5
444
100
AcDbEntity
  8
2
100
AcDbCircle
 10
180.570321
 20
124.957133
 30
0.0
 40
14.878639
100
AcDbArc
 50
325.156706
 51
351.234814
  0
LINE
  5
445
100
AcDbEntity
  8
2
100
AcDbLine
 10
198.240158
 20
125.23269
 30
0.0
 11
207.465018
 21
125.23269
 31
0.0
  0
ARC
  5
446
100
AcDbEntity
  8
2
100
AcDbCircle
 10
198.240158
 20
122.23269
 30
0.0
 40
3.0
100
AcDbArc
 50
90.0
 51
171.234814
  0
ARC
  5
447
100
AcDbEntity
  8
2
100
AcDbCircle
 10
207.465018
 20
122.73269
 30
0.0
 40
2.5
100
AcDbArc
 50
346.952479
 51
90.0
  0
ARC
  5
448
100
AcDbEntity
  8
2
100
AcDbCircle
 10
201.68036
 20
121.46473
 30
0.0
 40
7.23204
100
AcDbArc
 50
229.0839
 51
319.656627
  0
ARC
  5
449
100
AcDbEntity
  8
2
100
AcDbCircle
 10
188.523884
 20
119.420345
 30
0.0
 40
5.187654
100
AcDbArc
 50
270.0
 51
325.156706
  0
LINE
  5
44A
100
AcDbEntity
  8
2
100
AcDbLine
 10
184.827257
 20
114.23269
 30
0.0
 11
188.523884
 21
114.23269
 31
0.0
  0
LINE
  5
44B
100
AcDbEntity
  8
2
100
AcDbLine
 10
192.96921
 20
116.73269
 30
0.0
 11
203.484409
 21
116.73269
 31
0.0
  0
ARC
  5
44C
100
AcDbEntity
  8
2
100
AcDbCircle
 10
194.978852
 20
113.73269
 30
0.0
 40
3.0
100
AcDbArc
 50
49.0839
 51
90.0
  0
LINE
  5
44D
100
AcDbEntity
  8
2
100
AcDbLine
 10
215.732293
 20
125.23269
 30
0.0
 11
221.03835
 21
125.23269
 31
0.0
  0
LINE
  5
44E
100
AcDbEntity
  8
2
100
AcDbLine
 10
228.156629
 20
125.23269
 30
0.0
 11
229.062469
 21
125.23269
 31
0.0
  0
ARC
  5
44F
100
AcDbEntity
  8
2
100
AcDbCircle
 10
212.319108
 20
125.15721
 30
0.0
 40
11.550053
100
AcDbArc
 50
315.252585
 51
344.460589
  0
ARC
  5
450
100
AcDbEntity
  8
2
100
AcDbCircle
 10
200.977657
 20
125.075058
 30
0.0
 40
12.43941
100
AcDbArc
 50
318.573666
 51
350.979305
  0
ARC
  5
451
100
AcDbEntity
  8
2
100
AcDbCircle
 10
221.03835
 20
122.73269
 30
0.0
 40
2.5
100
AcDbArc
 50
344.460589
 51
90.0
  0
ARC
  5
452
100
AcDbEntity
  8
2
100
AcDbCircle
 10
215.732293
 20
122.73269
 30
0.0
 40
2.5
100
AcDbArc
 50
90.0
 51
170.979305
  0
ARC
  5
453
100
AcDbEntity
  8
2
100
AcDbCircle
 10
204.516882
 20
121.95192
 30
0.0
 40
7.71923
100
AcDbArc
 50
270.0
 51
318.573666
  0
ARC
  5
454
100
AcDbEntity
  8
2
100
AcDbCircle
 10
213.819915
 20
123.669578
 30
0.0
 40
9.436887
100
AcDbArc
 50
238.680306
 51
315.252585
  0
LINE
  5
455
100
AcDbEntity
  8
2
100
AcDbLine
 10
201.68036
 20
114.23269
 30
0.0
 11
204.516882
 21
114.23269
 31
0.0
  0
LINE
  5
456
100
AcDbEntity
  8
2
100
AcDbLine
 10
210.204249
 20
116.73269
 30
0.0
 11
215.625305
 21
116.73269
 31
0.0
  0
ARC
  5
457
100
AcDbEntity
  8
2
100
AcDbCircle
 10
220.213292
 20
125.221525
 30
0.0
 40
11.069917
100
AcDbArc
 50
313.095172
 51
347.333361
  0
ARC
  5
458
100
AcDbEntity
  8
2
100
AcDbCircle
 10
214.462948
 20
125.174095
 30
0.0
 40
11.409614
100
AcDbArc
 50
314.654136
 51
349.891126
  0
ARC
  5
459
100
AcDbEntity
  8
2
100
AcDbCircle
 10
228.156629
 20
122.73269
 30
0.0
 40
2.5
100
AcDbArc
 50
90.0
 51
169.891126
  0
ARC
  5
45A
100
AcDbEntity
  8
2
100
AcDbCircle
 10
229.062469
 20
123.23269
 30
0.0
 40
2.0
100
AcDbArc
 50
347.333361
 51
90.0
  0
ARC
  5
45B
100
AcDbEntity
  8
2
100
AcDbCircle
 10
220.418631
 20
125.002057
 30
0.0
 40
10.769367
100
AcDbArc
 50
256.761975
 51
313.095172
  0
ARC
  5
45C
100
AcDbEntity
  8
2
100
AcDbCircle
 10
215.603027
 20
124.020168
 30
0.0
 40
9.787478
100
AcDbArc
 50
270.0
 51
314.654136
  0
LINE
  5
45D
100
AcDbEntity
  8
2
100
AcDbLine
 10
213.819915
 20
114.23269
 30
0.0
 11
215.603027
 21
114.23269
 31
0.0
  0
LINE
  5
45E
100
AcDbEntity
  8
2
100
AcDbLine
 10
220.418631
 20
114.23269
 30
0.0
 11
221.514369
 21
114.23269
 31
0.0
  0
LINE
  5
45F
100
AcDbEntity
  8
2
100
AcDbLine
 10
112.514369
 20
138.23269
 30
0.0
 11
152.514369
 21
138.23269
 31
0.0
  0
LINE
  5
460
100
AcDbEntity
  8
2
100
AcDbLine
 10
112.514369
 20
138.23269
 30
0.0
 11
112.514369
 21
136.23269
 31
0.0
  0
LINE
  5
461
100
AcDbEntity
  8
2
100
AcDbLine
 10
152.514369
 20
138.23269
 30
0.0
 11
152.514369
 21
136.23269
 31
0.0
  0
LINE
  5
462
100
AcDbEntity
  8
2
100
AcDbLine
 10
126.014369
 20
140.23269
 30
0.0
 11
126.014369
 21
145.73269
 31
0.0
  0
LINE
  5
463
100
AcDbEntity
  8
2
100
AcDbLine
 10
126.014369
 20
145.73269
 30
0.0
 11
139.014369
 21
145.73269
 31
0.0
  0
ARC
  5
464
100
AcDbEntity
  8
2
100
AcDbCircle
 10
129.264369
 20
138.053932
 30
0.0
 40
7.678759
100
AcDbArc
 50
64.96034
 51
115.03966
  0
LINE
  5
465
100
AcDbEntity
  8
2
100
AcDbLine
 10
139.014369
 20
140.23269
 30
0.0
 11
139.014369
 21
145.73269
 31
0.0
  0
LINE
  5
466
100
AcDbEntity
  8
2
100
AcDbLine
 10
132.514369
 20
140.23269
 30
0.0
 11
132.514369
 21
145.011002
 31
0.0
  0
ARC
  5
467
100
AcDbEntity
  8
2
100
AcDbCircle
 10
135.764369
 20
138.053932
 30
0.0
 40
7.678759
100
AcDbArc
 50
64.96034
 51
115.03966
  0
LINE
  5
468
100
AcDbEntity
  8
2
100
AcDbLine
 10
124.814369
 20
138.23269
 30
0.0
 11
124.814369
 21
140.23269
 31
0.0
  0
LINE
  5
469
100
AcDbEntity
  8
2
100
AcDbLine
 10
124.814369
 20
140.23269
 30
0.0
 11
140.214369
 21
140.23269
 31
0.0
  0
LINE
  5
46A
100
AcDbEntity
  8
2
100
AcDbLine
 10
140.214369
 20
140.23269
 30
0.0
 11
140.214369
 21
138.23269
 31
0.0
  0
CIRCLE
  5
46B
100
AcDbEntity
  8
2
100
AcDbCircle
 10
-338.885631
 20
343.766023
 30
0.0
 40
100.0
  0
LINE
  5
46C
100
AcDbEntity
  8
2
100
AcDbLine
 10
-327.652385
 20
414.122517
 30
0.0
 11
-325.972122
 21
364.675669
 31
0.0
  0
LINE
  5
46D
100
AcDbEntity
  8
2
100
AcDbLine
 10
-350.118877
 20
414.122517
 30
0.0
 11
-351.799139
 21
364.675669
 31
0.0
  0
LINE
  5
46E
100
AcDbEntity
  8
2
100
AcDbLine
 10
-394.199519
 20
298.859501
 30
0.0
 11
-350.537161
 21
322.127774
 31
0.0
  0
LINE
  5
46F
100
AcDbEntity
  8
2
100
AcDbLine
 10
-405.432764
 20
318.316053
 30
0.0
 11
-363.450669
 21
344.494627
 31
0.0
  0
LINE
  5
470
100
AcDbEntity
  8
2
100
AcDbLine
 10
-283.571743
 20
298.859501
 30
0.0
 11
-327.234101
 21
322.127774
 31
0.0
  0
LINE
  5
471
100
AcDbEntity
  8
2
100
AcDbLine
 10
-272.338497
 20
318.316053
 30
0.0
 11
-314.320592
 21
344.494627
 31
0.0
  0
ARC
  5
472
100
AcDbEntity
  8
2
100
AcDbCircle
 10
-338.885631
 20
343.766023
 30
0.0
 40
78.0
100
AcDbArc
 50
103.341798
 51
196.658202
  0
ARC
  5
473
100
AcDbEntity
  8
2
100
AcDbCircle
 10
-338.885631
 20
343.766023
 30
0.0
 40
22.5
100
AcDbArc
 50
131.110398
 51
168.889602
  0
ARC
  5
474
100
AcDbEntity
  8
2
100
AcDbCircle
 10
-338.885631
 20
343.766023
 30
0.0
 40
22.5
100
AcDbArc
 50
251.110398
 51
288.889602
  0
ARC
  5
475
100
AcDbEntity
  8
2
100
AcDbCircle
 10
-338.885631
 20
343.766023
 30
0.0
 40
22.5
100
AcDbArc
 50
11.110398
 51
48.889602
  0
ARC
  5
476
100
AcDbEntity
  8
2
100
AcDbCircle
 10
-320.475295
 20
364.862458
 30
0.0
 40
5.5
100
AcDbArc
 50
181.94623
 51
228.889602
  0
ARC
  5
477
100
AcDbEntity
  8
2
100
AcDbCircle
 10
-322.155558
 20
414.309306
 30
0.0
 40
5.5
100
AcDbArc
 50
76.658202
 51
181.94623
  0
ARC
  5
478
100
AcDbEntity
  8
2
100
AcDbCircle
 10
-355.615704
 20
414.309306
 30
0.0
 40
5.5
100
AcDbArc
 50
358.05377
 51
103.341798
  0
ARC
  5
479
100
AcDbEntity
  8
2
100
AcDbCircle
 10
-357.295967
 20
364.862458
 30
0.0
 40
5.5
100
AcDbArc
 50
311.110398
 51
358.05377
  0
ARC
  5
47A
100
AcDbEntity
  8
2
100
AcDbCircle
 10
-366.360847
 20
349.161625
 30
0.0
 40
5.5
100
AcDbArc
 50
301.94623
 51
348.889602
  0
ARC
  5
47B
100
AcDbEntity
  8
2
100
AcDbCircle
 10
-347.950511
 20
317.273988
 30
0.0
 40
5.5
100
AcDbArc
 50
71.110398
 51
118.05377
  0
ARC
  5
47C
100
AcDbEntity
  8
2
100
AcDbCircle
 10
-329.820751
 20
317.273988
 30
0.0
 40
5.5
100
AcDbArc
 50
61.94623
 51
108.889602
  0
ARC
  5
47D
100
AcDbEntity
  8
2
100
AcDbCircle
 10
-311.410415
 20
349.161625
 30
0.0
 40
5.5
100
AcDbArc
 50
191.110398
 51
238.05377
  0
ARC
  5
47E
100
AcDbEntity
  8
2
100
AcDbCircle
 10
-269.42832
 20
322.983051
 30
0.0
 40
5.5
100
AcDbArc
 50
238.05377
 51
343.341798
  0
ARC
  5
47F
100
AcDbEntity
  8
2
100
AcDbCircle
 10
-286.158393
 20
294.005714
 30
0.0
 40
5.5
100
AcDbArc
 50
316.658202
 51
61.94623
  0
ARC
  5
480
100
AcDbEntity
  8
2
100
AcDbCircle
 10
-391.612869
 20
294.005714
 30
0.0
 40
5.5
100
AcDbArc
 50
118.05377
 51
223.341798
  0
ARC
  5
481
100
AcDbEntity
  8
2
100
AcDbCircle
 10
-408.342942
 20
322.983051
 30
0.0
 40
5.5
100
AcDbArc
 50
196.658202
 51
301.94623
  0
CIRCLE
  5
482
100
AcDbEntity
  8
2
100
AcDbCircle
 10
-338.885631
 20
343.766023
 30
0.0
 40
20.0
  0
CIRCLE
  5
483
100
AcDbEntity
  8
2
100
AcDbCircle
 10
-338.885631
 20
343.766023
 30
0.0
 40
6.25
  0
CIRCLE
  5
484
100
AcDbEntity
  8
2
100
AcDbCircle
 10
-338.885631
 20
343.766023
 30
0.0
 40
7.7
  0
LINE
  5
485
100
AcDbEntity
  8
2
100
AcDbLine
 10
-342.638408
 20
350.266023
 30
0.0
 11
-335.132854
 21
350.266023
 31
0.0
  0
LINE
  5
486
100
AcDbEntity
  8
2
100
AcDbLine
 10
-342.638408
 20
337.266023
 30
0.0
 11
-335.132854
 21
337.266023
 31
0.0
  0
LINE
  5
487
100
AcDbEntity
  8
2
100
AcDbLine
 10
-346.391184
 20
343.766023
 30
0.0
 11
-342.638408
 21
350.266023
 31
0.0
  0
LINE
  5
488
100
AcDbEntity
  8
2
100
AcDbLine
 10
-335.132854
 20
337.266023
 30
0.0
 11
-331.380077
 21
343.766023
 31
0.0
  0
LINE
  5
489
100
AcDbEntity
  8
2
100
AcDbLine
 10
-342.638408
 20
337.266023
 30
0.0
 11
-346.391184
 21
343.766023
 31
0.0
  0
LINE
  5
48A
100
AcDbEntity
  8
2
100
AcDbLine
 10
-331.380077
 20
343.766023
 30
0.0
 11
-335.132854
 21
350.266023
 31
0.0
  0
ARC
  5
48B
100
AcDbEntity
  8
2
100
AcDbCircle
 10
-338.885631
 20
343.766023
 30
0.0
 40
78.0
100
AcDbArc
 50
81.8928
 51
98.1072
  0
ARC
  5
48C
100
AcDbEntity
  8
2
100
AcDbCircle
 10
-338.885631
 20
343.766023
 30
0.0
 40
78.0
100
AcDbArc
 50
321.8928
 51
338.1072
  0
ARC
  5
48D
100
AcDbEntity
  8
2
100
AcDbCircle
 10
-338.885631
 20
343.766023
 30
0.0
 40
78.0
100
AcDbArc
 50
343.341798
 51
76.658202
  0
ARC
  5
48E
100
AcDbEntity
  8
2
100
AcDbCircle
 10
-338.885631
 20
343.766023
 30
0.0
 40
78.0
100
AcDbArc
 50
201.8928
 51
218.1072
  0
ARC
  5
48F
100
AcDbEntity
  8
2
100
AcDbCircle
 10
-338.885631
 20
343.766023
 30
0.0
 40
78.0
100
AcDbArc
 50
223.341798
 51
316.658202
  0
LINE
  5
490
100
AcDbEntity
  8
2
100
AcDbLine
 10
-388.259592
 20
411.723451
 30
0.0
 11
-392.374089
 21
417.38657
 31
0.0
  0
LINE
  5
491
100
AcDbEntity
  8
2
100
AcDbLine
 10
-289.51167
 20
411.723451
 30
0.0
 11
-285.397173
 21
417.38657
 31
0.0
  0
ARC
  5
492
100
AcDbEntity
  8
2
100
AcDbCircle
 10
-338.885631
 20
343.766023
 30
0.0
 40
89.0
100
AcDbArc
 50
126.0
 51
54.0
  0
ARC
  5
493
100
AcDbEntity
  8
2
100
AcDbCircle
 10
-338.885631
 20
343.766023
 30
0.0
 40
91.0
100
AcDbArc
 50
54.0
 51
126.0
  0
ARC
  5
494
100
AcDbEntity
  8
2
100
AcDbCircle
 10
-338.885631
 20
343.766023
 30
0.0
 40
84.0
100
AcDbArc
 50
54.0
 51
126.0
  0
LINE
  5
495
100
AcDbEntity
  8
2
100
AcDbLine
 10
-356.05844
 20
432.11247
 30
0.0
 11
-355.772227
 21
430.640029
 31
0.0
  0
LINE
  5
496
100
AcDbEntity
  8
2
100
AcDbLine
 10
-355.390609
 20
428.676775
 30
0.0
 11
-355.104396
 21
427.204334
 31
0.0
  0
LINE
  5
497
100
AcDbEntity
  8
2
100
AcDbLine
 10
-356.05844
 20
432.11247
 30
0.0
 11
-361.532297
 21
428.284533
 31
0.0
  0
LINE
  5
498
100
AcDbEntity
  8
2
100
AcDbLine
 10
-361.532297
 20
428.284533
 30
0.0
 11
-355.104396
 21
427.204334
 31
0.0
  0
ARC
  5
499
100
AcDbEntity
  8
2
100
AcDbCircle
 10
-338.885631
 20
343.766023
 30
0.0
 40
88.5
100
AcDbArc
 50
79.000001
 51
101.000002
  0
ARC
  5
49A
100
AcDbEntity
  8
2
100
AcDbCircle
 10
-338.885631
 20
343.766023
 30
0.0
 40
86.5
100
AcDbArc
 50
79.000001
 51
101.000002
  0
LINE
  5
49B
100
AcDbEntity
  8
2
100
AcDbLine
 10
-321.712821
 20
432.11247
 30
0.0
 11
-321.999035
 21
430.640029
 31
0.0
  0
LINE
  5
49C
100
AcDbEntity
  8
2
100
AcDbLine
 10
-322.380653
 20
428.676775
 30
0.0
 11
-322.666866
 21
427.204334
 31
0.0
  0
LINE
  5
49D
100
AcDbEntity
  8
2
100
AcDbLine
 10
-321.712821
 20
432.11247
 30
0.0
 11
-316.238964
 21
428.284533
 31
0.0
  0
LINE
  5
49E
100
AcDbEntity
  8
2
100
AcDbLine
 10
-316.238964
 20
428.284533
 30
0.0
 11
-322.666866
 21
427.204334
 31
0.0
  0
LINE
  5
49F
100
AcDbEntity
  8
2
100
AcDbLine
 10
176.257341
 20
85.73269
 30
0.0
 11
176.257341
 21
82.23269
 31
0.0
  0
LINE
  5
4A0
100
AcDbEntity
  8
2
100
AcDbLine
 10
170.600487
 20
85.73269
 30
0.0
 11
170.600487
 21
82.23269
 31
0.0
  0
LINE
  5
4A1
100
AcDbEntity
  8
2
100
AcDbLine
 10
169.637475
 20
85.73269
 30
0.0
 11
169.637475
 21
82.23269
 31
0.0
  0
LINE
  5
4A2
100
AcDbEntity
  8
2
100
AcDbLine
 10
169.637475
 20
85.73269
 30
0.0
 11
176.257341
 21
85.73269
 31
0.0
  0
LINE
  5
4A3
100
AcDbEntity
  8
2
100
AcDbLine
 10
81.014369
 20
83.23269
 30
0.0
 11
169.637475
 21
83.23269
 31
0.0
  0
LINE
  5
4A4
100
AcDbEntity
  8
2
100
AcDbLine
 10
176.257341
 20
83.23269
 30
0.0
 11
184.014369
 21
83.23269
 31
0.0
  0
LINE
  5
4A5
100
AcDbEntity
  8
2
100
AcDbLine
 10
76.014369
 20
82.23269
 30
0.0
 11
170.600487
 21
82.23269
 31
0.0
  0
LINE
  5
4A6
100
AcDbEntity
  8
2
100
AcDbLine
 10
176.257341
 20
82.23269
 30
0.0
 11
189.014369
 21
82.23269
 31
0.0
  0
LINE
  5
4A7
100
AcDbEntity
  8
2
100
AcDbLine
 10
-322.793108
 20
26.73269
 30
0.0
 11
-312.978154
 21
26.73269
 31
0.0
  0
LINE
  5
4A8
100
AcDbEntity
  8
2
100
AcDbLine
 10
-322.793108
 20
9.73269
 30
0.0
 11
-312.978154
 21
9.73269
 31
0.0
  0
LINE
  5
4A9
100
AcDbEntity
  8
2
100
AcDbLine
 10
-327.700585
 20
18.23269
 30
0.0
 11
-322.793108
 21
26.73269
 31
0.0
  0
LINE
  5
4AA
100
AcDbEntity
  8
2
100
AcDbLine
 10
-312.978154
 20
9.73269
 30
0.0
 11
-308.070676
 21
18.23269
 31
0.0
  0
LINE
  5
4AB
100
AcDbEntity
  8
2
100
AcDbLine
 10
-322.793108
 20
9.73269
 30
0.0
 11
-327.700585
 21
18.23269
 31
0.0
  0
LINE
  5
4AC
100
AcDbEntity
  8
2
100
AcDbLine
 10
-308.070676
 20
18.23269
 30
0.0
 11
-312.978154
 21
26.73269
 31
0.0
  0
LINE
  5
4AD
100
AcDbEntity
  8
2
100
AcDbLine
 10
-354.978154
 20
26.73269
 30
0.0
 11
-364.793108
 21
26.73269
 31
0.0
  0
LINE
  5
4AE
100
AcDbEntity
  8
2
100
AcDbLine
 10
-350.070676
 20
18.23269
 30
0.0
 11
-354.978154
 21
26.73269
 31
0.0
  0
LINE
  5
4AF
100
AcDbEntity
  8
2
100
AcDbLine
 10
-354.978154
 20
9.73269
 30
0.0
 11
-364.793108
 21
9.73269
 31
0.0
  0
LINE
  5
4B0
100
AcDbEntity
  8
2
100
AcDbLine
 10
-354.978154
 20
9.73269
 30
0.0
 11
-350.070676
 21
18.23269
 31
0.0
  0
LINE
  5
4B1
100
AcDbEntity
  8
2
100
AcDbLine
 10
-364.793108
 20
9.73269
 30
0.0
 11
-369.700585
 21
18.23269
 31
0.0
  0
LINE
  5
4B2
100
AcDbEntity
  8
2
100
AcDbLine
 10
-369.700585
 20
18.23269
 30
0.0
 11
-364.793108
 21
26.73269
 31
0.0
  0
TEXT
  5
4B3
100
AcDbEntity
  8
2
100
AcDbText
 10
-361.385631
 20
305.266023
 30
0.0
 40
9.0
  1
ＴＯＭＯＥ
 72
     5
 11
-318.185631
 21
305.266023
 31
0.0
100
AcDbText
  0
TEXT
  5
4B4
100
AcDbEntity
  8
2
100
AcDbText
 10
-369.998329
 20
368.514761
 30
0.0
 40
9.0
  1
Ｏ
 50
45.0
 72
     5
 11
-364.90716
 21
373.60593
 31
0.0
100
AcDbText
  0
TEXT
  5
4B5
100
AcDbEntity
  8
2
100
AcDbText
 10
-314.136894
 20
374.878722
 30
0.0
 40
9.0
  1
Ｓ
 50
315.0
 72
     5
 11
-309.045725
 21
369.787553
 31
0.0
100
AcDbText
  0
TEXT
  5
4B6
100
AcDbEntity
  8
2
100
AcDbText
 10
-386.518271
 20
413.043593
 30
0.0
 40
7.0
  1
Ｏ
 50
32.125
 72
     5
 11
-381.775687
 21
416.021494
 31
0.0
100
AcDbText
  0
TEXT
  5
4B7
100
AcDbEntity
  8
2
100
AcDbText
 10
-381.885316
 20
416.010588
 30
0.0
 40
7.0
  1
Ｐ
 50
28.375
 72
     5
 11
-376.958122
 21
418.671934
 31
0.0
100
AcDbText
  0
TEXT
  5
4B8
100
AcDbEntity
  8
2
100
AcDbText
 10
-377.06823
 20
418.668221
 30
0.0
 40
7.0
  1
Ｅ
 50
24.625
 72
     5
 11
-371.977525
 21
421.001615
 31
0.0
100
AcDbText
  0
TEXT
  5
4B9
100
AcDbEntity
  8
2
100
AcDbText
 10
-372.08764
 20
421.005111
 30
0.0
 40
7.0
  1
Ｎ
 50
20.875
 72
     5
 11
-366.855224
 21
423.000561
 31
0.0
100
AcDbText
  0
TEXT
  5
4BA
100
AcDbEntity
  8
2
100
AcDbText
 10
-312.224142
 20
423.499423
 30
0.0
 40
7.0
  1
Ｓ
 50
339.125
 72
     5
 11
-306.991726
 21
421.503973
 31
0.0
100
AcDbText
  0
TEXT
  5
4BB
100
AcDbEntity
  8
2
100
AcDbText
 10
-307.066413
 20
421.584963
 30
0.0
 40
7.0
  1
Ｈ
 50
335.375
 72
     5
 11
-301.975708
 21
419.251569
 31
0.0
100
AcDbText
  0
TEXT
  5
4BC
100
AcDbEntity
  8
2
100
AcDbText
 10
-302.044938
 20
419.33727
 30
0.0
 40
7.0
  1
Ｕ
 50
331.625
 72
     5
 11
-297.117744
 21
416.675924
 31
0.0
100
AcDbText
  0
TEXT
  5
4BD
100
AcDbEntity
  8
2
100
AcDbText
 10
-297.181221
 20
416.76597
 30
0.0
 40
7.0
  1
Ｔ
 50
327.875
 72
     5
 11
-292.438637
 21
413.788068
 31
0.0
100
AcDbText
  0
DIMENSION
  5
4BE
100
AcDbEntity
  8
5
100
AcDbDimension
  2
*D0
 10
162.514369
 20
-462.11676
 30
0.0
 11
132.514369
 21
-453.51676
 31
0.0
  1
60
100
AcDbAlignedDimension
 13
102.514369
 23
-359.76731
 33
0.0
 14
162.514369
 24
-359.76731
 34
0.0
100
AcDbRotatedDimension
  0
DIMENSION
  5
4BF
100
AcDbEntity
  8
5
100
AcDbDimension
  2
*D1
 10
-13.410133
 20
-232.76731
 30
0.0
 11
-29.270133
 21
-321.27731
 31
0.0
  1
176
100
AcDbAlignedDimension
 13
127.514369
 23
-408.46731
 33
0.0
 14
72.314369
 24
-232.76731
 34
0.0
 50
90.0
100
AcDbRotatedDimension
  0
DIMENSION
  5
4C0
100
AcDbEntity
  8
5
100
AcDbDimension
  2
*D2
 10
-13.410133
 20
145.73269
 30
0.0
 11
-29.270133
 21
69.32269
 31
0.0
  1
152
100
AcDbAlignedDimension
 13
81.514369
 23
-5.76731
 33
0.0
 14
126.014369
 24
145.73269
 34
0.0
 50
90.0
100
AcDbRotatedDimension
  0
DIMENSION
  5
4C1
100
AcDbEntity
  8
5
100
AcDbDimension
  2
*D3
 10
-13.410133
 20
-5.76731
 30
0.0
 11
-29.270133
 21
-119.92731
 31
0.0
  1
227
100
AcDbAlignedDimension
 13
72.314369
 23
-232.76731
 33
0.0
 14
81.514369
 24
-5.76731
 34
0.0
 50
90.0
100
AcDbRotatedDimension
  0
DIMENSION
  5
4C2
100
AcDbEntity
  8
5
100
AcDbDimension
  2
*D4
 10
32.514369
 20
206.479462
 30
0.0
 11
132.514369
 21
215.079462
 31
0.0
 70
     1
  1
%%c200
100
AcDbAlignedDimension
 13
232.514369
 23
125.23269
 33
0.0
 14
32.514369
 24
125.23269
 34
0.0
  0
TEXT
  5
4C3
100
AcDbEntity
  8
18
100
AcDbText
 10
488.675201
 20
-532.194153
 30
0.0
 40
12.0
  1
１
 72
     5
 11
498.275201
 21
-532.194153
 31
0.0
100
AcDbText
  0
TEXT
  5
4C4
100
AcDbEntity
  8
18
100
AcDbText
 10
507.024292
 20
-547.251343
 30
0.0
 40
12.0
  1
４
 72
     5
 11
516.624292
 21
-547.251343
 31
0.0
100
AcDbText
  0
TEXT
  5
4C5
100
AcDbEntity
  8
18
100
AcDbText
 10
491.416962
 20
-492.141052
 30
0.0
 40
12.0
  1
７００Ｇ－２ＧＡＳ　２００Ａ
 72
     5
 11
657.016962
 21
-492.141052
 31
0.0
100
AcDbText
  0
TEXT
  5
4C6
100
AcDbEntity
  8
18
100
AcDbText
 10
491.416962
 20
-508.141052
 30
0.0
 40
12.0
  1
標準仕様　ＪＩＳ　５，１０Ｋ
 72
     5
 11
657.016962
 21
-508.141052
 31
0.0
100
AcDbText
  0
TEXT
  5
4C7
100
AcDbEntity
  8
18
100
AcDbText
 10
728.527466
 20
-508.791107
 30
0.0
 40
9.0
  1
′０４．７．９
 72
     5
 11
789.727466
 21
-508.791107
 31
0.0
100
AcDbText
  0
TEXT
  5
4C8
100
AcDbEntity
  8
18
100
AcDbText
 10
614.4
 20
-544.0
 30
0.0
 40
20.0
  1
Ｄ３－０３５２９
 72
     5
 11
770.4
 21
-544.0
 31
0.0
100
AcDbText
  0
LINE
  5
4C9
100
AcDbEntity
  8
20
 62
     3
100
AcDbLine
 10
-720.0
 20
-554.0
 30
0.0
 11
800.0
 21
-554.0
 31
0.0
  0
LINE
  5
4CA
100
AcDbEntity
  8
20
 62
     3
100
AcDbLine
 10
-720.0
 20
528.0
 30
0.0
 11
800.0
 21
528.0
 31
0.0
  0
LINE
  5
4CB
100
AcDbEntity
  8
20
 62
     3
100
AcDbLine
 10
-720.0
 20
528.0
 30
0.0
 11
-720.0
 21
-554.0
 31
0.0
  0
LINE
  5
4CC
100
AcDbEntity
  8
20
 62
     3
100
AcDbLine
 10
800.0
 20
528.0
 30
0.0
 11
800.0
 21
-554.0
 31
0.0
  0
LINE
  5
4CD
100
AcDbEntity
  8
20
 62
     3
100
AcDbLine
 10
240.0
 20
-554.0
 30
0.0
 11
240.0
 21
-474.0
 31
0.0
  0
LINE
  5
4CE
100
AcDbEntity
  8
20
 62
     3
100
AcDbLine
 10
428.0
 20
-554.0
 30
0.0
 11
428.0
 21
-474.0
 31
0.0
  0
LINE
  5
4CF
100
AcDbEntity
  8
20
100
AcDbLine
 10
428.0
 20
-514.0
 30
0.0
 11
800.0
 21
-514.0
 31
0.0
  0
LINE
  5
4D0
100
AcDbEntity
  8
20
 62
     3
100
AcDbLine
 10
240.0
 20
-474.0
 30
0.0
 11
800.0
 21
-474.0
 31
0.0
  0
LINE
  5
4D1
100
AcDbEntity
  8
20
100
AcDbLine
 10
720.0
 20
-514.0
 30
0.0
 11
720.0
 21
-474.0
 31
0.0
  0
LINE
  5
4D2
100
AcDbEntity
  8
20
100
AcDbLine
 10
720.0
 20
-494.0
 30
0.0
 11
800.0
 21
-494.0
 31
0.0
  0
LINE
  5
4D3
100
AcDbEntity
  8
20
100
AcDbLine
 10
484.0
 20
-554.0
 30
0.0
 11
484.0
 21
-474.0
 31
0.0
  0
LINE
  5
4D4
100
AcDbEntity
  8
20
100
AcDbLine
 10
524.0
 20
-554.0
 30
0.0
 11
524.0
 21
-514.0
 31
0.0
  0
LINE
  5
4D5
100
AcDbEntity
  8
20
100
AcDbLine
 10
604.0
 20
-554.0
 30
0.0
 11
604.0
 21
-514.0
 31
0.0
  0
LINE
  5
4D6
100
AcDbEntity
  8
20
100
AcDbLine
 10
494.913658
 20
-543.086342
 30
0.0
 11
511.593163
 21
-526.406837
 31
0.0
  0
TEXT
  5
4D7
100
AcDbEntity
  8
20
100
AcDbText
 10
526.133316
 20
-529.987671
 30
0.0
 40
7.2
  1
ＤＲＡＷＩＮＧ　ＮＯ．
 72
     5
 11
603.893316
 21
-529.987671
 31
0.0
100
AcDbText
  0
TEXT
  5
4D8
100
AcDbEntity
  8
20
100
AcDbText
 10
534.0
 20
-546.0
 30
0.0
 40
12.0
  1
図　　　番
 72
     5
 11
591.6
 21
-546.0
 31
0.0
100
AcDbText
  0
TEXT
  5
4D9
100
AcDbEntity
  8
20
100
AcDbText
 10
744.0
 20
-488.0
 30
0.0
 40
8.0
  1
ＤＡＴＥ
 72
     5
 11
774.4
 21
-488.0
 31
0.0
100
AcDbText
  0
TEXT
  5
4DA
100
AcDbEntity
  8
20
100
AcDbText
 10
436.004284
 20
-531.844116
 30
0.0
 40
8.0
  1
ＳＣＡＬＥ
 72
     5
 11
474.404284
 21
-531.844116
 31
0.0
100
AcDbText
  0
TEXT
  5
4DB
100
AcDbEntity
  8
20
100
AcDbText
 10
432.0
 20
-546.0
 30
0.0
 40
12.0
  1
尺　　度
 72
     5
 11
477.6
 21
-546.0
 31
0.0
100
AcDbText
  0
TEXT
  5
4DC
100
AcDbEntity
  8
20
100
AcDbText
 10
430.004284
 20
-489.983539
 30
0.0
 40
8.0
  1
ＦＩＧ．ＮＯ．
 72
     5
 11
484.404284
 21
-489.983539
 31
0.0
100
AcDbText
  0
TEXT
  5
4DD
100
AcDbEntity
  8
20
100
AcDbText
 10
432.0
 20
-506.0
 30
0.0
 40
12.0
  1
名　　称
 72
     5
 11
477.6
 21
-506.0
 31
0.0
100
AcDbText
  0
TEXT
  5
4DE
100
AcDbEntity
  8
20
100
AcDbText
 10
242.2621
 20
-505.881012
 30
0.0
 40
9.2
  1
ＴＯＭＯＥ　ＶＡＬＶＥ　ＣＯ．，ＬＴＤ．
 72
     5
 11
424.4221
 21
-505.881012
 31
0.0
100
AcDbText
  0
TEXT
  5
4DF
100
AcDbEntity
  8
20
100
AcDbText
 10
270.0
 20
-533.159241
 30
0.0
 40
16.0
  1
巴バルブ株式会社
 72
     5
 11
394.8
 21
-533.159241
 31
0.0
100
AcDbText
  0
ENDSEC
  0
SECTION
  2
OBJECTS
  0
DICTIONARY
  5
51C
100
AcDbDictionary
  3
ACAD_GROUP
350
51D
  3
ACAD_MLINESTYLE
350
51E
  0
DICTIONARY
  5
51D
102
{ACAD_REACTORS
330
51C
102
}
100
AcDbDictionary
  0
DICTIONARY
  5
51E
102
{ACAD_REACTORS
330
51C
102
}
100
AcDbDictionary
  3
STANDARD
350
51F
  0
MLINESTYLE
  5
51F
102
{ACAD_REACTORS
330
51E
102
}
100
AcDbMlineStyle
  2
STANDARD
 70
     0
  3

 62
     0
 51
90.0
 52
90.0
 71
     2
 49
0.5
 62
   256
  6
BYLAYER
 49
-0.5
 62
   256
  6
BYLAYER
  0
ENDSEC
  0
EOF
