  0
SECTION
  2
HEADER
  9
$ACADVER
  1
AC1012
  9
$DWGCODEPAGE
  3
ansi_932
  9
$INSBASE
 10
0.0
 20
0.0
 30
0.0
  9
$EXTMIN
 10
-840.0
 20
-594.0
 30
1.000000E+20
  9
$EXTMAX
 10
840.0
 20
594.0
 30
-1.000000E+20
  9
$LIMMIN
 10
-840.0
 20
-594.0
  9
$LIMMAX
 10
840.0
 20
594.0
  9
$ORTHOMODE
 70
     0
  9
$REGENMODE
 70
     1
  9
$FILLMODE
 70
     1
  9
$QTEXTMODE
 70
     0
  9
$MIRRTEXT
 70
     1
  9
$DRAGMODE
 70
     2
  9
$LTSCALE
 40
1.0
  9
$OSMODE
 70
     0
  9
$ATTMODE
 70
     1
  9
$TEXTSIZE
 40
0.2
  9
$TRACEWID
 40
0.05
  9
$TEXTSTYLE
  7
STANDARD
  9
$CLAYER
  8
0
  9
$CELTYPE
  6
CONTINUOUS
  9
$CECOLOR
 62
   256
  9
$CELTSCALE
 40
1.0
  9
$DELOBJ
 70
     1
  9
$DISPSILH
 70
     0
  9
$DIMSCALE
 40
4.0
  9
$DIMASZ
 40
0.18
  9
$DIMEXO
 40
0.0625
  9
$DIMDLI
 40
0.38
  9
$DIMRND
 40
0.0
  9
$DIMDLE
 40
0.0
  9
$DIMEXE
 40
0.18
  9
$DIMTP
 40
0.0
  9
$DIMTM
 40
0.0
  9
$DIMTXT
 40
0.18
  9
$DIMCEN
 40
0.09
  9
$DIMTSZ
 40
0.0
  9
$DIMTOL
 70
     0
  9
$DIMLIM
 70
     0
  9
$DIMTIH
 70
     1
  9
$DIMTOH
 70
     1
  9
$DIMSE1
 70
     0
  9
$DIMSE2
 70
     0
  9
$DIMTAD
 70
     1
  9
$DIMZIN
 70
     0
  9
$DIMBLK
  1

  9
$DIMASO
 70
     1
  9
$DIMSHO
 70
     1
  9
$DIMPOST
  1

  9
$DIMAPOST
  1

  9
$DIMALT
 70
     0
  9
$DIMALTD
 70
     2
  9
$DIMALTF
 40
25.4
  9
$DIMLFAC
 40
1.0
  9
$DIMTOFL
 70
     0
  9
$DIMTVP
 40
0.0
  9
$DIMTIX
 70
     0
  9
$DIMSOXD
 70
     0
  9
$DIMSAH
 70
     0
  9
$DIMBLK1
  1

  9
$DIMBLK2
  1

  9
$DIMSTYLE
  2
STANDARD
  9
$DIMCLRD
 70
     0
  9
$DIMCLRE
 70
     0
  9
$DIMCLRT
 70
     0
  9
$DIMTFAC
 40
1.0
  9
$DIMGAP
 40
0.09
  9
$DIMJUST
 70
     0
  9
$DIMSD1
 70
     0
  9
$DIMSD2
 70
     0
  9
$DIMTOLJ
 70
     1
  9
$DIMTZIN
 70
     0
  9
$DIMALTZ
 70
     0
  9
$DIMALTTZ
 70
     0
  9
$DIMFIT
 70
     3
  9
$DIMUPT
 70
     0
  9
$DIMUNIT
 70
     2
  9
$DIMDEC
 70
     4
  9
$DIMTDEC
 70
     4
  9
$DIMALTU
 70
     2
  9
$DIMALTTD
 70
     2
  9
$DIMTXSTY
  7
STANDARD
  9
$DIMAUNIT
 70
     0
  9
$LUNITS
 70
     2
  9
$LUPREC
 70
     4
  9
$SKETCHINC
 40
0.1
  9
$FILLETRAD
 40
0.0
  9
$AUNITS
 70
     0
  9
$AUPREC
 70
     0
  9
$MENU
  1
acad
  9
$ELEVATION
 40
0.0
  9
$PELEVATION
 40
0.0
  9
$THICKNESS
 40
0.0
  9
$LIMCHECK
 70
     0
  9
$BLIPMODE
 70
     1
  9
$CHAMFERA
 40
0.0
  9
$CHAMFERB
 40
0.0
  9
$CHAMFERC
 40
0.0
  9
$CHAMFERD
 40
0.0
  9
$SKPOLY
 70
     0
  9
$TDCREATE
 40
2450291.000000000
  9
$TDUPDATE
 40
0.000000000
  9
$TDINDWG
 40
0.0000000000
  9
$TDUSRTIMER
 40
0.0000000000
  9
$USRTIMER
 70
     1
  9
$ANGBASE
 50
0.0
  9
$ANGDIR
 70
     0
  9
$PDMODE
 70
     0
  9
$PDSIZE
 40
0.0
  9
$PLINEWID
 40
0.0
  9
$COORDS
 70
     0
  9
$SPLFRAME
 70
     0
  9
$SPLINETYPE
 70
     6
  9
$SPLINESEGS
 70
     8
  9
$ATTDIA
 70
     0
  9
$ATTREQ
 70
     1
  9
$HANDLING
 70
     1
  9
$HANDSEED
  5
542
  9
$SURFTAB1
 70
     6
  9
$SURFTAB2
 70
     6
  9
$SURFTYPE
 70
     6
  9
$SURFU
 70
     6
  9
$SURFV
 70
     6
  9
$UCSNAME
  2

  9
$UCSORG
 10
0.0
 20
0.0
 30
0.0
  9
$UCSXDIR
 10
1.0
 20
0.0
 30
0.0
  9
$UCSYDIR
 10
0.0
 20
1.0
 30
0.0
  9
$PUCSNAME
  2

  9
$PUCSORG
 10
0.0
 20
0.0
 30
0.0
  9
$PUCSXDIR
 10
1.0
 20
0.0
 30
0.0
  9
$PUCSYDIR
 10
0.0
 20
1.0
 30
0.0
  9
$USERI1
 70
     0
  9
$USERI2
 70
     0
  9
$USERI3
 70
     0
  9
$USERI4
 70
     0
  9
$USERI5
 70
     0
  9
$USERR1
 40
0.0
  9
$USERR2
 40
0.0
  9
$USERR3
 40
0.0
  9
$USERR4
 40
0.0
  9
$USERR5
 40
0.0
  9
$WORLDVIEW
 70
     1
  9
$SHADEDGE
 70
     3
  9
$SHADEDIF
 70
    70
  9
$TILEMODE
 70
     1
  9
$MAXACTVP
 70
    16
  9
$PINSBASE
 10
0.0
 20
0.0
 30
0.0
  9
$PLIMCHECK
 70
     0
  9
$PEXTMIN
 10
1.000000E+20
 20
1.000000E+20
 30
1.000000E+20
  9
$PEXTMAX
 10
-1.000000E+20
 20
-1.000000E+20
 30
-1.000000E+20
  9
$PLIMMIN
 10
0.0
 20
0.0
  9
$PLIMMAX
 10
12.0
 20
9.0
  9
$UNITMODE
 70
     0
  9
$VISRETAIN
 70
     0
  9
$PLINEGEN
 70
     1
  9
$PSLTSCALE
 70
     0
  9
$TREEDEPTH
 70
  3020
  9
$PICKSTYLE
 70
     1
  9
$CMLSTYLE
  2
STANDARD
  9
$CMLJUST
 70
     0
  9
$CMLSCALE
 40
1.0
  9
$SAVEIMAGES
 70
     0
  0
ENDSEC
  0
SECTION
  2
CLASSES
  0
CLASS
  1
LWPOLYLINE
  2
AcDbPolyline
  3
"AutoCAD"
 90
    32768
280
     0
281
     1
  0
CLASS
  1
IMAGE
  2
AcDbRasterImage
  3
ISM
 90
    32895
280
     0
281
     1
  0
CLASS
  1
OLE2FRAME
  2
AcDbOle2Frame
  3
""
 90
    32768
280
     0
281
     1
  0
CLASS
  1
HATCH
  2
AcDbHatch
  3
"ACAD_SEDONA"
 90
    32768
280
     0
281
     1
  0
CLASS
  1
DICTIONARYVAR
  2
AcDbDictionaryVar
  3
"AutoCAD"
 90
    32768
280
     0
281
     0
  0
CLASS
  1
RASTERVARIABLES
  2
AcDbRasterVariables
  3
ISM
 90
    32768
280
     0
281
     0
  0
CLASS
  1
IMAGEDEF
  2
AcDbRasterImageDef
  3
ISM
 90
    32768
280
     0
281
     0
  0
CLASS
  1
IMAGEDEF_REACTOR
  2
AcDbRasterImageDefReactor
  3
ISM
 90
    32769
280
     0
281
     0
  0
CLASS
  1
IDBUFFER
  2
AcDbIdBuffer
  3
"Acad"
 90
    32768
280
     0
281
     0
  0
CLASS
  1
SPATIAL_FILTER
  2
AcDbSpatialFilter
  3
"Acad"
 90
    32768
280
     0
281
     0
  0
CLASS
  1
XRECORD
  2
AcDbXrecord
  3
"<Built In>"
 90
    32768
280
     0
281
     0
  0
CLASS
  1
SORTENTSTABLE
  2
AcDbSortentsTable
  3
"AutoCAD"
 90
    32768
280
     0
281
     0
  0
CLASS
  1
LAYER_INDEX
  2
AcDbLayerIndex
  3
"Acad"
 90
    32768
280
     0
281
     0
  0
CLASS
  1
SPATIAL_INDEX
  2
AcDbSpatialIndex
  3
"Acad"
 90
    32768
280
     0
281
     0
  0
CLASS
  1
OBJECT_PTR
  2
CAseDLPNTableRecord
  3
"ASE-LPNTableRecord"
 90
    32769
280
     0
281
     0
  0
CLASS
  1
LAYOUT
  2
AcDbLayout
  3
"AutoCAD 2000"
 90
    32768
280
     0
281
     0
  0
CLASS
  1
PLOTSETTINGS
  2
AcDbPlotSettings
  3
"AutoCAD 2000"
 90
    32768
280
     0
281
     0
  0
CLASS
  1
ACDBDICTIONARYWDFLT
  2
AcDbDictionaryWithDefault
  3
"AutoCAD 2000"
 90
    32768
280
     0
281
     0
  0
CLASS
  1
ACDBPLACEHOLDER
  2
AcDbPlaceHolder
  3
"AutoCAD 2000"
 90
    32768
280
     0
281
     0
  0
CLASS
  1
VBA_PROJECT
  2
AcDbVbaProject
  3
"acadvba"
 90
    32768
280
     0
281
     0
  0
CLASS
  1
WIPEOUT
  2
AcDbWipeout
  3
WipeOut|AutoCAD Express Tool|expresstools@autodesk.com
 90
    32895
280
     0
281
     1
  0
CLASS
  1
WIPEOUTVARIABLES
  2
AcDbWipeoutVariables
  3
WipeOut|AutoCAD Express Tool|expresstools@autodesk.com
 90
    32768
280
     0
281
     0
  0
CLASS
  1
RTEXT
  2
RText
  3
RText|AutoCAD Express Tool|expresstools@autodesk.com
 90
    32768
280
     0
281
     1
  0
CLASS
  1
ARCALIGNEDTEXT
  2
AcDbArcAlignedText
  3
ATEXT|AutoCAD Express Tool|expresstools@autodesk.com
 90
    32768
280
     0
281
     1
  0
ENDSEC
  0
SECTION
  2
TABLES
  0
TABLE
  2
VPORT
  5
6
100
AcDbSymbolTable
 70
     1
  0
VPORT
  5
1B
100
AcDbSymbolTableRecord
100
AcDbViewportTableRecord
  2
*ACTIVE
 70
     0
 10
0.0
 20
0.0
 11
1.0
 21
1.0
 12
0.0
 22
0.0
 13
0.0
 23
0.0
 14
1.0
 24
1.0
 15
0.0
 25
0.0
 16
0.0
 26
0.0
 36
1.0
 17
0.0
 27
0.0
 37
0.0
 40
1188.0
 41
1.414141
 42
50.0
 43
0.0
 44
0.0
 50
0.0
 51
0.0
 71
     0
 72
   500
 73
     1
 74
     1
 75
     0
 76
     0
 77
     0
 78
     0
  0
ENDTAB
  0
TABLE
  2
LTYPE
  5
3
100
AcDbSymbolTable
 70
     9
  0
LTYPE
  5
C
100
AcDbSymbolTableRecord
100
AcDbLinetypeTableRecord
  2
BYBLOCK
 70
    64
  3

 72
    65
 73
     0
 40
0.0
  0
LTYPE
  5
D
100
AcDbSymbolTableRecord
100
AcDbLinetypeTableRecord
  2
BYLAYER
 70
    64
  3

 72
    65
 73
     0
 40
0.0
  0
LTYPE
  5
E
100
AcDbSymbolTableRecord
100
AcDbLinetypeTableRecord
  2
CONTINUOUS
 70
     0
  3
Solid line
 72
    65
 73
     0
 40
0.0
  0
LTYPE
  5
F
100
AcDbSymbolTableRecord
100
AcDbLinetypeTableRecord
  2
DASHED
 70
     0
  3
__ __ __ __ __ __ __ __ __ __ __ __ __ __ __
 72
    65
 73
     2
 40
2.0
 49
1.2
 74
     0
 49
-0.8
 74
     0
  0
LTYPE
  5
10
100
AcDbSymbolTableRecord
100
AcDbLinetypeTableRecord
  2
CENTER
 70
     0
  3
____ _ ____ _ ____ _ ____ _ ____ _ ____ _ ____
 72
    65
 73
     4
 40
12.0
 49
9.0
 74
     0
 49
-1.0
 74
     0
 49
1.0
 74
     0
 49
-1.0
 74
     0
  0
LTYPE
  5
11
100
AcDbSymbolTableRecord
100
AcDbLinetypeTableRecord
  2
HIDDEN
 70
     0
  3
_ _ _ _ _ _ _ _ _ _ _ _ _ _ _ _ _ _ _ _ _ _ _
 72
    65
 73
     2
 40
3.2
 49
2.4
 74
     0
 49
-0.8
 74
     0
  0
LTYPE
  5
12
100
AcDbSymbolTableRecord
100
AcDbLinetypeTableRecord
  2
PHANTOM
 70
     0
  3
_____ _ _ _____ _ _ _____ _ _ _____ _ _ _____
 72
    65
 73
     6
 40
13.5
 49
9.0
 74
     0
 49
-1.0
 74
     0
 49
1.0
 74
     0
 49
-0.5
 74
     0
 49
1.0
 74
     0
 49
-1.0
 74
     0
  0
LTYPE
  5
13
100
AcDbSymbolTableRecord
100
AcDbLinetypeTableRecord
  2
DOT
 70
     0
  3
...............................................
 72
    65
 73
     2
 40
1.0
 49
0.5
 74
     0
 49
-0.5
 74
     0
  0
LTYPE
  5
14
100
AcDbSymbolTableRecord
100
AcDbLinetypeTableRecord
  2
DASHDOT
 70
     0
  3
__ . __ . __ . __ . __ . __ . __ . __ . __ . __
 72
    65
 73
     4
 40
8.0
 49
5.0
 74
     0
 49
-1.0
 74
     0
 49
1.0
 74
     0
 49
-1.0
 74
     0
  0
ENDTAB
  0
TABLE
  2
LAYER
  5
1
100
AcDbSymbolTable
 70
     6
  0
LAYER
  5
15
100
AcDbSymbolTableRecord
100
AcDbLayerTableRecord
  2
0
 70
     0
 62
     7
  6
CONTINUOUS
  0
LAYER
  5
16
100
AcDbSymbolTableRecord
100
AcDbLayerTableRecord
  2
1
 70
     0
 62
     7
  6
CONTINUOUS
  0
LAYER
  5
17
100
AcDbSymbolTableRecord
100
AcDbLayerTableRecord
  2
2
 70
     0
 62
     7
  6
CONTINUOUS
  0
LAYER
  5
18
100
AcDbSymbolTableRecord
100
AcDbLayerTableRecord
  2
5
 70
     0
 62
     7
  6
CONTINUOUS
  0
LAYER
  5
19
100
AcDbSymbolTableRecord
100
AcDbLayerTableRecord
  2
18
 70
     0
 62
     7
  6
CONTINUOUS
  0
LAYER
  5
1A
100
AcDbSymbolTableRecord
100
AcDbLayerTableRecord
  2
20
 70
     0
 62
     7
  6
CONTINUOUS
  0
ENDTAB
  0
TABLE
  2
STYLE
  5
2
100
AcDbSymbolTable
 70
     1
  0
STYLE
  5
1D
100
AcDbSymbolTableRecord
100
AcDbTextStyleTableRecord
  2
STANDARD
 70
    64
 40
0.0
 41
1.0
 50
0.0
 71
     0
 42
1.0
  3
txt
  4
BIGFONT
  0
ENDTAB
  0
TABLE
  2
VIEW
  5
4
100
AcDbSymbolTable
 70
     0
  0
ENDTAB
  0
TABLE
  2
UCS
  5
5
100
AcDbSymbolTable
 70
     0
  0
ENDTAB
  0
TABLE
  2
APPID
  5
7
100
AcDbSymbolTable
 70
     1
  0
APPID
  5
1C
100
AcDbSymbolTableRecord
100
AcDbRegAppTableRecord
  2
ACAD
 70
     0
  0
ENDTAB
  0
TABLE
  2
DIMSTYLE
  5
8
100
AcDbSymbolTable
 70
     1
  0
DIMSTYLE
105
2A
100
AcDbSymbolTableRecord
100
AcDbDimStyleTableRecord
  2
STANDARD
 70
     0
  3

  4

  5

  6

  7

 40
4.0
 41
0.18
 42
0.0625
 43
0.38
 44
0.18
 45
0.0
 46
0.0
 47
0.0
 48
0.0
 71
     0
 72
     0
 73
     1
 74
     1
 75
     0
 76
     0
 77
     1
 78
     0
140
0.18
141
0.09
142
0.0
143
25.4
144
1.0
145
0.0
146
1.0
147
0.09
170
     0
171
     2
172
     0
173
     0
174
     0
175
     0
176
     0
177
     0
178
     0
270
     2
271
     4
272
     4
273
     2
274
     2
275
     0
280
     0
281
     0
282
     0
283
     1
284
     0
285
     0
286
     0
287
     3
288
     0
340
1D
  0
ENDTAB
  0
TABLE
  2
BLOCK_RECORD
  5
25
100
AcDbSymbolTable
 70
     5
  0
BLOCK_RECORD
  5
23
100
AcDbSymbolTableRecord
100
AcDbBlockTableRecord
  2
*MODEL_SPACE
  0
BLOCK_RECORD
  5
24
100
AcDbSymbolTableRecord
100
AcDbBlockTableRecord
  2
*PAPER_SPACE
  0
BLOCK_RECORD
  5
1E
100
AcDbSymbolTableRecord
100
AcDbBlockTableRecord
  2
*D0
  0
BLOCK_RECORD
  5
1F
100
AcDbSymbolTableRecord
100
AcDbBlockTableRecord
  2
*D1
  0
BLOCK_RECORD
  5
20
100
AcDbSymbolTableRecord
100
AcDbBlockTableRecord
  2
*D2
  0
BLOCK_RECORD
  5
21
100
AcDbSymbolTableRecord
100
AcDbBlockTableRecord
  2
*D3
  0
BLOCK_RECORD
  5
22
100
AcDbSymbolTableRecord
100
AcDbBlockTableRecord
  2
*D4
  0
ENDTAB
  0
ENDSEC
  0
SECTION
  2
BLOCKS
  0
BLOCK
  5
26
100
AcDbEntity
  8
0
100
AcDbBlockBegin
  2
*MODEL_SPACE
 70
     0
 10
0.0
 20
0.0
 30
0.0
  3
*MODEL_SPACE
  1

  0
ENDBLK
  5
27
100
AcDbEntity
  8
0
100
AcDbBlockEnd
  0
BLOCK
  5
28
100
AcDbEntity
 67
     1
  8
0
100
AcDbBlockBegin
  2
*PAPER_SPACE
 70
     0
 10
0.0
 20
0.0
 30
0.0
  3
*PAPER_SPACE
  1

  0
ENDBLK
  5
29
100
AcDbEntity
 67
     1
  8
0
100
AcDbBlockEnd
  0
BLOCK
  5
4FF
100
AcDbEntity
  8
5
100
AcDbBlockBegin
  2
*D0
 70
     1
 10
0.0
 20
0.0
 30
0.0
  3
*D0
  1

  0
TEXT
  5
500
100
AcDbEntity
  8
5
 62
     2
100
AcDbText
 10
123.274369
 20
-534.586914
 30
0.0
 40
13.2
  1
78
 41
1.4
 72
     5
 11
138.058369
 21
-534.586914
 31
0.0
100
AcDbText
  0
LINE
  5
501
100
AcDbEntity
  8
5
 62
     2
100
AcDbLine
 10
93.514369
 20
-426.26731
 30
0.0
 11
93.514369
 21
-540.586914
 31
0.0
  0
LINE
  5
502
100
AcDbEntity
  8
5
 62
     2
100
AcDbLine
 10
93.514369
 20
-536.586914
 30
0.0
 11
101.241776
 21
-538.657466
 31
0.0
  0
LINE
  5
503
100
AcDbEntity
  8
5
 62
     2
100
AcDbLine
 10
93.514369
 20
-536.586914
 30
0.0
 11
101.241776
 21
-534.516362
 31
0.0
  0
LINE
  5
504
100
AcDbEntity
  8
5
 62
     2
100
AcDbLine
 10
101.241776
 20
-538.657466
 30
0.0
 11
101.241776
 21
-534.516362
 31
0.0
  0
LINE
  5
505
100
AcDbEntity
  8
5
 62
     2
100
AcDbLine
 10
93.514369
 20
-536.586914
 30
0.0
 11
171.514369
 21
-536.586914
 31
0.0
  0
LINE
  5
506
100
AcDbEntity
  8
5
 62
     2
100
AcDbLine
 10
171.514369
 20
-536.586914
 30
0.0
 11
163.786962
 21
-534.516362
 31
0.0
  0
LINE
  5
507
100
AcDbEntity
  8
5
 62
     2
100
AcDbLine
 10
171.514369
 20
-536.586914
 30
0.0
 11
163.786962
 21
-538.657466
 31
0.0
  0
LINE
  5
508
100
AcDbEntity
  8
5
 62
     2
100
AcDbLine
 10
163.786962
 20
-534.516362
 30
0.0
 11
163.786962
 21
-538.657466
 31
0.0
  0
LINE
  5
509
100
AcDbEntity
  8
5
 62
     2
100
AcDbLine
 10
171.514369
 20
-426.26731
 30
0.0
 11
171.514369
 21
-540.586914
 31
0.0
  0
ENDBLK
  5
50A
100
AcDbEntity
  8
5
100
AcDbBlockEnd
  0
BLOCK
  5
50B
100
AcDbEntity
  8
5
100
AcDbBlockBegin
  2
*D1
 70
     1
 10
0.0
 20
0.0
 30
0.0
  3
*D1
  1

  0
TEXT
  5
50C
100
AcDbEntity
  8
5
 62
     2
100
AcDbText
 10
-23.306557
 20
-379.77731
 30
0.0
 40
13.2
  1
252
 50
90.0
 41
1.4
 72
     5
 11
-23.306557
 21
-355.75331
 31
0.0
100
AcDbText
  0
LINE
  5
50D
100
AcDbEntity
  8
5
 62
     2
100
AcDbLine
 10
122.014369
 20
-492.06731
 30
0.0
 11
-25.306557
 21
-492.06731
 31
0.0
  0
LINE
  5
50E
100
AcDbEntity
  8
5
 62
     2
100
AcDbLine
 10
-21.306557
 20
-492.06731
 30
0.0
 11
-19.236004
 21
-484.339903
 31
0.0
  0
LINE
  5
50F
100
AcDbEntity
  8
5
 62
     2
100
AcDbLine
 10
-21.306557
 20
-492.06731
 30
0.0
 11
-23.377109
 21
-484.339903
 31
0.0
  0
LINE
  5
510
100
AcDbEntity
  8
5
 62
     2
100
AcDbLine
 10
-19.236004
 20
-484.339903
 30
0.0
 11
-23.377109
 21
-484.339903
 31
0.0
  0
LINE
  5
511
100
AcDbEntity
  8
5
 62
     2
100
AcDbLine
 10
-21.306557
 20
-492.06731
 30
0.0
 11
-21.306557
 21
-239.76731
 31
0.0
  0
LINE
  5
512
100
AcDbEntity
  8
5
 62
     2
100
AcDbLine
 10
-21.306557
 20
-239.76731
 30
0.0
 11
-23.377109
 21
-247.494716
 31
0.0
  0
LINE
  5
513
100
AcDbEntity
  8
5
 62
     2
100
AcDbLine
 10
-21.306557
 20
-239.76731
 30
0.0
 11
-19.236004
 21
-247.494716
 31
0.0
  0
LINE
  5
514
100
AcDbEntity
  8
5
 62
     2
100
AcDbLine
 10
-23.377109
 20
-247.494716
 30
0.0
 11
-19.236004
 21
-247.494716
 31
0.0
  0
LINE
  5
515
100
AcDbEntity
  8
5
 62
     2
100
AcDbLine
 10
65.814369
 20
-239.76731
 30
0.0
 11
-25.306557
 21
-239.76731
 31
0.0
  0
ENDBLK
  5
516
100
AcDbEntity
  8
5
100
AcDbBlockEnd
  0
BLOCK
  5
517
100
AcDbEntity
  8
5
100
AcDbBlockBegin
  2
*D2
 70
     1
 10
0.0
 20
0.0
 30
0.0
  3
*D2
  1

  0
TEXT
  5
518
100
AcDbEntity
  8
5
 62
     2
100
AcDbText
 10
114.034369
 20
291.592163
 30
0.0
 40
13.2
  1
%%c200
 41
1.4
 72
     5
 11
147.298369
 21
291.592163
 31
0.0
100
AcDbText
  0
LINE
  5
519
100
AcDbEntity
  8
5
 62
     2
100
AcDbLine
 10
32.514369
 20
217.23269
 30
0.0
 11
32.514369
 21
293.592163
 31
0.0
  0
LINE
  5
51A
100
AcDbEntity
  8
5
 62
     2
100
AcDbLine
 10
32.514369
 20
289.592163
 30
0.0
 11
40.241776
 21
287.521611
 31
0.0
  0
LINE
  5
51B
100
AcDbEntity
  8
5
 62
     2
100
AcDbLine
 10
32.514369
 20
289.592163
 30
0.0
 11
40.241776
 21
291.662715
 31
0.0
  0
LINE
  5
51C
100
AcDbEntity
  8
5
 62
     2
100
AcDbLine
 10
40.241776
 20
287.521611
 30
0.0
 11
40.241776
 21
291.662715
 31
0.0
  0
LINE
  5
51D
100
AcDbEntity
  8
5
 62
     2
100
AcDbLine
 10
32.514369
 20
289.592163
 30
0.0
 11
232.514369
 21
289.592163
 31
0.0
  0
LINE
  5
51E
100
AcDbEntity
  8
5
 62
     2
100
AcDbLine
 10
232.514369
 20
289.592163
 30
0.0
 11
224.786962
 21
291.662715
 31
0.0
  0
LINE
  5
51F
100
AcDbEntity
  8
5
 62
     2
100
AcDbLine
 10
232.514369
 20
289.592163
 30
0.0
 11
224.786962
 21
287.521611
 31
0.0
  0
LINE
  5
520
100
AcDbEntity
  8
5
 62
     2
100
AcDbLine
 10
224.786962
 20
291.662715
 30
0.0
 11
224.786962
 21
287.521611
 31
0.0
  0
LINE
  5
521
100
AcDbEntity
  8
5
 62
     2
100
AcDbLine
 10
232.514369
 20
217.23269
 30
0.0
 11
232.514369
 21
293.592163
 31
0.0
  0
ENDBLK
  5
522
100
AcDbEntity
  8
5
100
AcDbBlockEnd
  0
BLOCK
  5
523
100
AcDbEntity
  8
5
100
AcDbBlockBegin
  2
*D3
 70
     1
 10
0.0
 20
0.0
 30
0.0
  3
*D3
  1

  0
TEXT
  5
524
100
AcDbEntity
  8
5
 62
     2
100
AcDbText
 10
-23.306557
 20
139.12269
 30
0.0
 40
13.2
  1
162
 50
90.0
 41
1.4
 72
     5
 11
-23.306557
 21
163.14669
 31
0.0
100
AcDbText
  0
LINE
  5
525
100
AcDbEntity
  8
5
 62
     2
100
AcDbLine
 10
66.014369
 20
72.23269
 30
0.0
 11
-25.306557
 21
72.23269
 31
0.0
  0
LINE
  5
526
100
AcDbEntity
  8
5
 62
     2
100
AcDbLine
 10
-21.306557
 20
72.23269
 30
0.0
 11
-19.236004
 21
79.960097
 31
0.0
  0
LINE
  5
527
100
AcDbEntity
  8
5
 62
     2
100
AcDbLine
 10
-21.306557
 20
72.23269
 30
0.0
 11
-23.377109
 21
79.960097
 31
0.0
  0
LINE
  5
528
100
AcDbEntity
  8
5
 62
     2
100
AcDbLine
 10
-19.236004
 20
79.960097
 30
0.0
 11
-23.377109
 21
79.960097
 31
0.0
  0
LINE
  5
529
100
AcDbEntity
  8
5
 62
     2
100
AcDbLine
 10
-21.306557
 20
72.23269
 30
0.0
 11
-21.306557
 21
233.73269
 31
0.0
  0
LINE
  5
52A
100
AcDbEntity
  8
5
 62
     2
100
AcDbLine
 10
-21.306557
 20
233.73269
 30
0.0
 11
-23.377109
 21
226.005284
 31
0.0
  0
LINE
  5
52B
100
AcDbEntity
  8
5
 62
     2
100
AcDbLine
 10
-21.306557
 20
233.73269
 30
0.0
 11
-19.236004
 21
226.005284
 31
0.0
  0
LINE
  5
52C
100
AcDbEntity
  8
5
 62
     2
100
AcDbLine
 10
-23.377109
 20
226.005284
 30
0.0
 11
-19.236004
 21
226.005284
 31
0.0
  0
LINE
  5
52D
100
AcDbEntity
  8
5
 62
     2
100
AcDbLine
 10
122.014369
 20
233.73269
 30
0.0
 11
-25.306557
 21
233.73269
 31
0.0
  0
ENDBLK
  5
52E
100
AcDbEntity
  8
5
100
AcDbBlockEnd
  0
BLOCK
  5
52F
100
AcDbEntity
  8
5
100
AcDbBlockBegin
  2
*D4
 70
     1
 10
0.0
 20
0.0
 30
0.0
  3
*D4
  1

  0
TEXT
  5
530
100
AcDbEntity
  8
5
 62
     2
100
AcDbText
 10
-23.306557
 20
-97.62731
 30
0.0
 40
13.2
  1
312
 50
90.0
 41
1.4
 72
     5
 11
-23.306557
 21
-73.60331
 31
0.0
100
AcDbText
  0
LINE
  5
531
100
AcDbEntity
  8
5
 62
     2
100
AcDbLine
 10
65.814369
 20
-239.76731
 30
0.0
 11
-25.306557
 21
-239.76731
 31
0.0
  0
LINE
  5
532
100
AcDbEntity
  8
5
 62
     2
100
AcDbLine
 10
-21.306557
 20
-239.76731
 30
0.0
 11
-19.236004
 21
-232.039903
 31
0.0
  0
LINE
  5
533
100
AcDbEntity
  8
5
 62
     2
100
AcDbLine
 10
-21.306557
 20
-239.76731
 30
0.0
 11
-23.377109
 21
-232.039903
 31
0.0
  0
LINE
  5
534
100
AcDbEntity
  8
5
 62
     2
100
AcDbLine
 10
-19.236004
 20
-232.039903
 30
0.0
 11
-23.377109
 21
-232.039903
 31
0.0
  0
LINE
  5
535
100
AcDbEntity
  8
5
 62
     2
100
AcDbLine
 10
-21.306557
 20
-239.76731
 30
0.0
 11
-21.306557
 21
72.23269
 31
0.0
  0
LINE
  5
536
100
AcDbEntity
  8
5
 62
     2
100
AcDbLine
 10
-21.306557
 20
72.23269
 30
0.0
 11
-23.377109
 21
64.505284
 31
0.0
  0
LINE
  5
537
100
AcDbEntity
  8
5
 62
     2
100
AcDbLine
 10
-21.306557
 20
72.23269
 30
0.0
 11
-19.236004
 21
64.505284
 31
0.0
  0
LINE
  5
538
100
AcDbEntity
  8
5
 62
     2
100
AcDbLine
 10
-23.377109
 20
64.505284
 30
0.0
 11
-19.236004
 21
64.505284
 31
0.0
  0
LINE
  5
539
100
AcDbEntity
  8
5
 62
     2
100
AcDbLine
 10
66.014369
 20
72.23269
 30
0.0
 11
-25.306557
 21
72.23269
 31
0.0
  0
ENDBLK
  5
53A
100
AcDbEntity
  8
5
100
AcDbBlockEnd
  0
ENDSEC
  0
SECTION
  2
ENTITIES
  0
LINE
  5
2B
100
AcDbEntity
  8
1
  6
CENTER
 62
     2
100
AcDbLine
 10
-557.120908
 20
-239.76731
 30
0.0
 11
-122.112378
 21
-239.76731
 31
0.0
  0
LINE
  5
2C
100
AcDbEntity
  8
1
  6
CENTER
 62
     2
100
AcDbLine
 10
69.814369
 20
-239.76731
 30
0.0
 11
194.232638
 21
-239.76731
 31
0.0
  0
LINE
  5
2D
100
AcDbEntity
  8
1
  6
CENTER
 62
     2
100
AcDbLine
 10
-557.120908
 20
393.766023
 30
0.0
 11
-122.112378
 21
393.766023
 31
0.0
  0
LINE
  5
2E
100
AcDbEntity
  8
1
100
AcDbLine
 10
-398.385631
 20
56.23269
 30
0.0
 11
-279.385631
 21
56.23269
 31
0.0
  0
LINE
  5
2F
100
AcDbEntity
  8
1
100
AcDbLine
 10
-276.385631
 20
72.23269
 30
0.0
 11
-276.385631
 21
59.23269
 31
0.0
  0
LINE
  5
30
100
AcDbEntity
  8
1
100
AcDbLine
 10
-401.385631
 20
72.23269
 30
0.0
 11
-401.385631
 21
59.23269
 31
0.0
  0
LINE
  5
31
100
AcDbEntity
  8
1
100
AcDbLine
 10
-372.885631
 20
-480.76731
 30
0.0
 11
-304.885631
 21
-480.76731
 31
0.0
  0
LINE
  5
32
100
AcDbEntity
  8
1
  6
CENTER
 62
     2
100
AcDbLine
 10
-313.885631
 20
-468.235375
 30
0.0
 11
-313.885631
 21
-498.835961
 31
0.0
  0
LINE
  5
33
100
AcDbEntity
  8
1
  6
CENTER
 62
     2
100
AcDbLine
 10
-363.885631
 20
-468.235375
 30
0.0
 11
-363.885631
 21
-498.835961
 31
0.0
  0
LINE
  5
34
100
AcDbEntity
  8
1
100
AcDbLine
 10
-311.885631
 20
-39.775186
 30
0.0
 11
-311.885631
 21
42.23269
 31
0.0
  0
LINE
  5
35
100
AcDbEntity
  8
1
100
AcDbLine
 10
-365.885631
 20
-39.775186
 30
0.0
 11
-365.885631
 21
42.23269
 31
0.0
  0
ARC
  5
36
100
AcDbEntity
  8
1
100
AcDbCircle
 10
-314.885631
 20
-39.775186
 30
0.0
 40
3.0
100
AcDbArc
 50
345.674888
 51
360.0
  0
ARC
  5
37
100
AcDbEntity
  8
1
100
AcDbCircle
 10
-362.885631
 20
-39.775186
 30
0.0
 40
3.0
100
AcDbArc
 50
180.0
 51
194.325112
  0
LINE
  5
38
100
AcDbEntity
  8
1
100
AcDbLine
 10
-371.368946
 20
-465.946629
 30
0.0
 11
-371.368946
 21
-455.76731
 31
0.0
  0
LINE
  5
39
100
AcDbEntity
  8
1
100
AcDbLine
 10
-306.402316
 20
-465.946629
 30
0.0
 11
-306.402316
 21
-455.76731
 31
0.0
  0
LINE
  5
3A
100
AcDbEntity
  8
1
100
AcDbLine
 10
-306.385631
 20
-486.56731
 30
0.0
 11
-306.385631
 21
-491.345622
 31
0.0
  0
LINE
  5
3B
100
AcDbEntity
  8
1
100
AcDbLine
 10
-306.385631
 20
-491.345622
 30
0.0
 11
-307.635631
 21
-492.06731
 31
0.0
  0
LINE
  5
3C
100
AcDbEntity
  8
1
100
AcDbLine
 10
-307.635631
 20
-492.06731
 30
0.0
 11
-320.135631
 21
-492.06731
 31
0.0
  0
LINE
  5
3D
100
AcDbEntity
  8
1
100
AcDbLine
 10
-310.135631
 20
-486.56731
 30
0.0
 11
-310.135631
 21
-491.345622
 31
0.0
  0
ARC
  5
3E
100
AcDbEntity
  8
1
100
AcDbCircle
 10
-308.260631
 20
-488.935246
 30
0.0
 40
3.053774
100
AcDbArc
 50
232.121121
 51
307.878879
  0
LINE
  5
3F
100
AcDbEntity
  8
1
100
AcDbLine
 10
-321.385631
 20
-486.56731
 30
0.0
 11
-321.385631
 21
-491.345622
 31
0.0
  0
LINE
  5
40
100
AcDbEntity
  8
1
100
AcDbLine
 10
-321.385631
 20
-491.345622
 30
0.0
 11
-320.135631
 21
-492.06731
 31
0.0
  0
LINE
  5
41
100
AcDbEntity
  8
1
100
AcDbLine
 10
-317.635631
 20
-486.56731
 30
0.0
 11
-317.635631
 21
-491.345622
 31
0.0
  0
ARC
  5
42
100
AcDbEntity
  8
1
100
AcDbCircle
 10
-319.510631
 20
-488.935246
 30
0.0
 40
3.053774
100
AcDbArc
 50
232.121121
 51
307.878879
  0
ARC
  5
43
100
AcDbEntity
  8
1
100
AcDbCircle
 10
-313.885631
 20
-480.73902
 30
0.0
 40
11.25
100
AcDbArc
 50
250.528777
 51
289.471219
  0
LINE
  5
44
100
AcDbEntity
  8
1
100
AcDbLine
 10
-306.185631
 20
-484.56731
 30
0.0
 11
-306.185631
 21
-486.56731
 31
0.0
  0
LINE
  5
45
100
AcDbEntity
  8
1
100
AcDbLine
 10
-306.185631
 20
-486.56731
 30
0.0
 11
-321.585631
 21
-486.56731
 31
0.0
  0
LINE
  5
46
100
AcDbEntity
  8
1
100
AcDbLine
 10
-321.585631
 20
-486.56731
 30
0.0
 11
-321.585631
 21
-484.56731
 31
0.0
  0
LINE
  5
47
100
AcDbEntity
  8
1
100
AcDbLine
 10
-313.885631
 20
-486.56731
 30
0.0
 11
-314.385631
 21
-484.56731
 31
0.0
  0
LINE
  5
48
100
AcDbEntity
  8
1
100
AcDbLine
 10
-313.885631
 20
-484.56731
 30
0.0
 11
-313.385631
 21
-486.56731
 31
0.0
  0
LINE
  5
49
100
AcDbEntity
  8
1
100
AcDbLine
 10
-356.385631
 20
-486.56731
 30
0.0
 11
-356.385631
 21
-491.345622
 31
0.0
  0
LINE
  5
4A
100
AcDbEntity
  8
1
100
AcDbLine
 10
-356.385631
 20
-491.345622
 30
0.0
 11
-357.635631
 21
-492.06731
 31
0.0
  0
LINE
  5
4B
100
AcDbEntity
  8
1
100
AcDbLine
 10
-357.635631
 20
-492.06731
 30
0.0
 11
-370.135631
 21
-492.06731
 31
0.0
  0
LINE
  5
4C
100
AcDbEntity
  8
1
100
AcDbLine
 10
-360.135631
 20
-486.56731
 30
0.0
 11
-360.135631
 21
-491.345622
 31
0.0
  0
ARC
  5
4D
100
AcDbEntity
  8
1
100
AcDbCircle
 10
-358.260631
 20
-488.935246
 30
0.0
 40
3.053774
100
AcDbArc
 50
232.121121
 51
307.878879
  0
ARC
  5
4E
100
AcDbEntity
  8
1
100
AcDbCircle
 10
-363.885631
 20
-480.73902
 30
0.0
 40
11.25
100
AcDbArc
 50
250.528777
 51
289.471219
  0
LINE
  5
4F
100
AcDbEntity
  8
1
100
AcDbLine
 10
-371.385631
 20
-486.56731
 30
0.0
 11
-371.385631
 21
-491.345622
 31
0.0
  0
LINE
  5
50
100
AcDbEntity
  8
1
100
AcDbLine
 10
-371.385631
 20
-491.345622
 30
0.0
 11
-370.135631
 21
-492.06731
 31
0.0
  0
LINE
  5
51
100
AcDbEntity
  8
1
100
AcDbLine
 10
-367.635631
 20
-486.56731
 30
0.0
 11
-367.635631
 21
-491.345622
 31
0.0
  0
ARC
  5
52
100
AcDbEntity
  8
1
100
AcDbCircle
 10
-369.510631
 20
-488.935246
 30
0.0
 40
3.053774
100
AcDbArc
 50
232.121121
 51
307.878879
  0
LINE
  5
53
100
AcDbEntity
  8
1
100
AcDbLine
 10
-356.185631
 20
-484.56731
 30
0.0
 11
-356.185631
 21
-486.56731
 31
0.0
  0
LINE
  5
54
100
AcDbEntity
  8
1
100
AcDbLine
 10
-356.185631
 20
-486.56731
 30
0.0
 11
-371.585631
 21
-486.56731
 31
0.0
  0
LINE
  5
55
100
AcDbEntity
  8
1
100
AcDbLine
 10
-371.585631
 20
-486.56731
 30
0.0
 11
-371.585631
 21
-484.56731
 31
0.0
  0
LINE
  5
56
100
AcDbEntity
  8
1
100
AcDbLine
 10
-363.885631
 20
-486.56731
 30
0.0
 11
-364.385631
 21
-484.56731
 31
0.0
  0
LINE
  5
57
100
AcDbEntity
  8
1
100
AcDbLine
 10
-363.885631
 20
-484.56731
 30
0.0
 11
-363.385631
 21
-486.56731
 31
0.0
  0
LINE
  5
58
100
AcDbEntity
  8
1
  6
CENTER
 62
     2
100
AcDbLine
 10
-383.080631
 20
87.611177
 30
0.0
 11
-383.080631
 21
39.402152
 31
0.0
  0
LINE
  5
59
100
AcDbEntity
  8
1
  6
CENTER
 62
     2
100
AcDbLine
 10
-294.690631
 20
87.611177
 30
0.0
 11
-294.690631
 21
39.402152
 31
0.0
  0
LINE
  5
5A
100
AcDbEntity
  8
1
100
AcDbLine
 10
73.014369
 20
56.23269
 30
0.0
 11
192.014369
 21
56.23269
 31
0.0
  0
LINE
  5
5B
100
AcDbEntity
  8
1
100
AcDbLine
 10
195.014369
 20
72.23269
 30
0.0
 11
195.014369
 21
59.23269
 31
0.0
  0
LINE
  5
5C
100
AcDbEntity
  8
1
100
AcDbLine
 10
70.014369
 20
72.23269
 30
0.0
 11
70.014369
 21
59.23269
 31
0.0
  0
LINE
  5
5D
100
AcDbEntity
  8
1
100
AcDbLine
 10
159.514369
 20
-51.303321
 30
0.0
 11
159.514369
 21
42.23269
 31
0.0
  0
LINE
  5
5E
100
AcDbEntity
  8
1
100
AcDbLine
 10
105.514369
 20
-51.303321
 30
0.0
 11
105.514369
 21
42.23269
 31
0.0
  0
LINE
  5
5F
100
AcDbEntity
  8
1
  6
CENTER
 62
     2
100
AcDbLine
 10
88.319369
 20
87.611177
 30
0.0
 11
88.319369
 21
39.402152
 31
0.0
  0
LINE
  5
60
100
AcDbEntity
  8
1
  6
CENTER
 62
     2
100
AcDbLine
 10
176.709369
 20
87.611177
 30
0.0
 11
176.709369
 21
39.402152
 31
0.0
  0
ARC
  5
61
100
AcDbEntity
  8
1
100
AcDbCircle
 10
95.514369
 20
-51.303321
 30
0.0
 40
10.0
100
AcDbArc
 50
270.0
 51
360.0
  0
ARC
  5
62
100
AcDbEntity
  8
1
100
AcDbCircle
 10
169.514369
 20
-51.303321
 30
0.0
 40
10.0
100
AcDbArc
 50
180.0
 51
270.0
  0
ARC
  5
63
100
AcDbEntity
  8
1
100
AcDbCircle
 10
158.964484
 20
-58.899368
 30
0.0
 40
3.0
100
AcDbArc
 50
35.754351
 51
90.0
  0
ARC
  5
64
100
AcDbEntity
  8
1
100
AcDbCircle
 10
106.064254
 20
-58.899368
 30
0.0
 40
3.0
100
AcDbArc
 50
90.0
 51
144.245649
  0
ARC
  5
65
100
AcDbEntity
  8
1
100
AcDbCircle
 10
168.514369
 20
-424.231299
 30
0.0
 40
6.0
100
AcDbArc
 50
90.0
 51
180.0
  0
ARC
  5
66
100
AcDbEntity
  8
1
100
AcDbCircle
 10
96.514369
 20
-424.231299
 30
0.0
 40
6.0
100
AcDbArc
 50
0.0
 51
90.0
  0
LINE
  5
67
100
AcDbEntity
  8
1
100
AcDbLine
 10
104.76473
 20
-423.635252
 30
0.0
 11
160.264009
 21
-423.635252
 31
0.0
  0
ARC
  5
68
100
AcDbEntity
  8
1
100
AcDbCircle
 10
160.264009
 20
-420.635252
 30
0.0
 40
3.0
100
AcDbArc
 50
270.0
 51
336.449277
  0
ARC
  5
69
100
AcDbEntity
  8
1
100
AcDbCircle
 10
104.76473
 20
-420.635252
 30
0.0
 40
3.0
100
AcDbArc
 50
203.550723
 51
270.0
  0
LINE
  5
6A
100
AcDbEntity
  8
1
  6
DASHED
100
AcDbLine
 10
-276.385631
 20
423.866023
 30
0.0
 11
-276.385631
 21
363.666023
 31
0.0
  0
LINE
  5
6B
100
AcDbEntity
  8
1
  6
DASHED
100
AcDbLine
 10
-401.385631
 20
423.866023
 30
0.0
 11
-401.385631
 21
363.666023
 31
0.0
  0
LINE
  5
6C
100
AcDbEntity
  8
1
  6
DASHED
100
AcDbLine
 10
-368.985631
 20
456.266023
 30
0.0
 11
-308.785631
 21
456.266023
 31
0.0
  0
LINE
  5
6D
100
AcDbEntity
  8
1
  6
DASHED
100
AcDbLine
 10
-368.985631
 20
331.266023
 30
0.0
 11
-308.785631
 21
331.266023
 31
0.0
  0
ARC
  5
6E
100
AcDbEntity
  8
1
  6
DASHED
100
AcDbCircle
 10
-308.785631
 20
423.866023
 30
0.0
 40
32.4
100
AcDbArc
 50
0.0
 51
90.0
  0
ARC
  5
6F
100
AcDbEntity
  8
1
  6
DASHED
100
AcDbCircle
 10
-368.985631
 20
423.866023
 30
0.0
 40
32.4
100
AcDbArc
 50
90.0
 51
180.0
  0
ARC
  5
70
100
AcDbEntity
  8
1
  6
DASHED
100
AcDbCircle
 10
-368.985631
 20
363.666023
 30
0.0
 40
32.4
100
AcDbArc
 50
180.0
 51
270.0
  0
ARC
  5
71
100
AcDbEntity
  8
1
  6
DASHED
100
AcDbCircle
 10
-308.785631
 20
363.666023
 30
0.0
 40
32.4
100
AcDbArc
 50
270.0
 51
360.0
  0
CIRCLE
  5
72
100
AcDbEntity
  8
1
  6
DASHED
100
AcDbCircle
 10
-294.690631
 20
437.961023
 30
0.0
 40
6.5
  0
CIRCLE
  5
73
100
AcDbEntity
  8
1
  6
DASHED
100
AcDbCircle
 10
-383.080631
 20
437.961023
 30
0.0
 40
6.5
  0
CIRCLE
  5
74
100
AcDbEntity
  8
1
  6
DASHED
100
AcDbCircle
 10
-383.080631
 20
349.571023
 30
0.0
 40
6.5
  0
CIRCLE
  5
75
100
AcDbEntity
  8
1
  6
DASHED
100
AcDbCircle
 10
-294.690631
 20
349.571023
 30
0.0
 40
6.5
  0
LINE
  5
76
100
AcDbEntity
  8
1
  6
CENTER
 62
     2
100
AcDbLine
 10
-294.690631
 20
330.941391
 30
0.0
 11
-294.690631
 21
367.689682
 31
0.0
  0
LINE
  5
77
100
AcDbEntity
  8
1
  6
CENTER
 62
     2
100
AcDbLine
 10
-294.690631
 20
422.469833
 30
0.0
 11
-294.690631
 21
454.881485
 31
0.0
  0
LINE
  5
78
100
AcDbEntity
  8
1
  6
CENTER
 62
     2
100
AcDbLine
 10
-383.080631
 20
330.941391
 30
0.0
 11
-383.080631
 21
367.689682
 31
0.0
  0
LINE
  5
79
100
AcDbEntity
  8
1
  6
CENTER
 62
     2
100
AcDbLine
 10
-383.080631
 20
422.469833
 30
0.0
 11
-383.080631
 21
454.881485
 31
0.0
  0
LINE
  5
7A
100
AcDbEntity
  8
1
  6
CENTER
 62
     2
100
AcDbLine
 10
-401.409513
 20
437.961023
 30
0.0
 11
-365.143888
 21
437.961023
 31
0.0
  0
LINE
  5
7B
100
AcDbEntity
  8
1
  6
CENTER
 62
     2
100
AcDbLine
 10
-311.771802
 20
437.961023
 30
0.0
 11
-276.190412
 21
437.961023
 31
0.0
  0
LINE
  5
7C
100
AcDbEntity
  8
1
  6
CENTER
 62
     2
100
AcDbLine
 10
-401.409513
 20
349.571023
 30
0.0
 11
-365.143888
 21
349.571023
 31
0.0
  0
LINE
  5
7D
100
AcDbEntity
  8
1
  6
CENTER
 62
     2
100
AcDbLine
 10
-311.771802
 20
349.571023
 30
0.0
 11
-276.190412
 21
349.571023
 31
0.0
  0
LINE
  5
7E
100
AcDbEntity
  8
1
100
AcDbLine
 10
-156.385631
 20
354.766023
 30
0.0
 11
-155.385631
 21
355.766023
 31
0.0
  0
LINE
  5
7F
100
AcDbEntity
  8
1
100
AcDbLine
 10
-155.385631
 20
431.766023
 30
0.0
 11
-156.385631
 21
432.766023
 31
0.0
  0
LINE
  5
80
100
AcDbEntity
  8
1
100
AcDbLine
 10
105.514369
 20
-61.303321
 30
0.0
 11
107.514369
 21
-61.303321
 31
0.0
  0
LINE
  5
81
100
AcDbEntity
  8
1
100
AcDbLine
 10
157.514369
 20
-61.303321
 30
0.0
 11
159.514369
 21
-61.303321
 31
0.0
  0
LINE
  5
82
100
AcDbEntity
  8
1
100
AcDbLine
 10
102.514369
 20
-418.231299
 30
0.0
 11
107.514369
 21
-418.231299
 31
0.0
  0
LINE
  5
83
100
AcDbEntity
  8
1
100
AcDbLine
 10
157.514369
 20
-418.231299
 30
0.0
 11
162.514369
 21
-418.231299
 31
0.0
  0
LINE
  5
84
100
AcDbEntity
  8
1
100
AcDbLine
 10
124.814369
 20
-486.56731
 30
0.0
 11
140.214369
 21
-486.56731
 31
0.0
  0
LINE
  5
85
100
AcDbEntity
  8
1
100
AcDbLine
 10
139.014369
 20
-486.56731
 30
0.0
 11
139.014369
 21
-492.06731
 31
0.0
  0
LINE
  5
86
100
AcDbEntity
  8
1
100
AcDbLine
 10
132.514369
 20
-486.56731
 30
0.0
 11
132.514369
 21
-491.345622
 31
0.0
  0
ARC
  5
87
100
AcDbEntity
  8
1
100
AcDbCircle
 10
135.764369
 20
-484.388551
 30
0.0
 40
7.678759
100
AcDbArc
 50
244.96034
 51
295.03966
  0
LINE
  5
88
100
AcDbEntity
  8
1
100
AcDbLine
 10
126.014369
 20
-486.56731
 30
0.0
 11
126.014369
 21
-492.06731
 31
0.0
  0
LINE
  5
89
100
AcDbEntity
  8
1
100
AcDbLine
 10
126.014369
 20
-492.06731
 30
0.0
 11
139.014369
 21
-492.06731
 31
0.0
  0
ARC
  5
8A
100
AcDbEntity
  8
1
100
AcDbCircle
 10
129.264369
 20
-484.388551
 30
0.0
 40
7.678759
100
AcDbArc
 50
244.96034
 51
295.03966
  0
LINE
  5
8B
100
AcDbEntity
  8
1
100
AcDbLine
 10
140.214369
 20
-484.56731
 30
0.0
 11
140.214369
 21
-486.56731
 31
0.0
  0
LINE
  5
8C
100
AcDbEntity
  8
1
100
AcDbLine
 10
124.814369
 20
-486.56731
 30
0.0
 11
124.814369
 21
-484.56731
 31
0.0
  0
LINE
  5
8D
100
AcDbEntity
  8
1
100
AcDbLine
 10
-155.385631
 20
355.766023
 30
0.0
 11
-155.385631
 21
370.564778
 31
0.0
  0
LINE
  5
8E
100
AcDbEntity
  8
1
100
AcDbLine
 10
-155.385631
 20
416.967269
 30
0.0
 11
-155.385631
 21
431.766023
 31
0.0
  0
LINE
  5
8F
100
AcDbEntity
  8
1
100
AcDbLine
 10
-163.230721
 20
411.800413
 30
0.0
 11
-175.447569
 21
407.488455
 31
0.0
  0
LINE
  5
90
100
AcDbEntity
  8
1
100
AcDbLine
 10
-175.447569
 20
380.043592
 30
0.0
 11
-163.230721
 21
375.731634
 31
0.0
  0
LINE
  5
91
100
AcDbEntity
  8
1
100
AcDbLine
 10
-230.899521
 20
407.488455
 30
0.0
 11
-213.452089
 21
411.983517
 31
0.0
  0
LINE
  5
92
100
AcDbEntity
  8
1
100
AcDbLine
 10
-230.899521
 20
380.043592
 30
0.0
 11
-213.452089
 21
375.54853
 31
0.0
  0
LINE
  5
93
100
AcDbEntity
  8
1
100
AcDbLine
 10
-521.385631
 20
354.766023
 30
0.0
 11
-522.385631
 21
355.766023
 31
0.0
  0
LINE
  5
94
100
AcDbEntity
  8
1
100
AcDbLine
 10
-522.385631
 20
431.766023
 30
0.0
 11
-521.385631
 21
432.766023
 31
0.0
  0
LINE
  5
95
100
AcDbEntity
  8
1
100
AcDbLine
 10
-522.385631
 20
355.766023
 30
0.0
 11
-522.385631
 21
370.564778
 31
0.0
  0
LINE
  5
96
100
AcDbEntity
  8
1
100
AcDbLine
 10
-522.385631
 20
416.967269
 30
0.0
 11
-522.385631
 21
431.766023
 31
0.0
  0
LINE
  5
97
100
AcDbEntity
  8
1
100
AcDbLine
 10
-514.540541
 20
411.800413
 30
0.0
 11
-502.323693
 21
407.488455
 31
0.0
  0
LINE
  5
98
100
AcDbEntity
  8
1
100
AcDbLine
 10
-502.323693
 20
380.043592
 30
0.0
 11
-514.540541
 21
375.731634
 31
0.0
  0
LINE
  5
99
100
AcDbEntity
  8
1
100
AcDbLine
 10
-446.871741
 20
407.488455
 30
0.0
 11
-464.319173
 21
411.983517
 31
0.0
  0
LINE
  5
9A
100
AcDbEntity
  8
1
100
AcDbLine
 10
-446.871741
 20
380.043592
 30
0.0
 11
-464.319173
 21
375.54853
 31
0.0
  0
ARC
  5
9B
100
AcDbEntity
  8
1
100
AcDbCircle
 10
142.035369
 20
-215.324742
 30
0.0
 40
4.2015
100
AcDbArc
 50
0.0
 51
90.0
  0
ARC
  5
9C
100
AcDbEntity
  8
1
100
AcDbCircle
 10
122.993369
 20
-215.324742
 30
0.0
 40
4.2015
100
AcDbArc
 50
90.0
 51
180.0
  0
ARC
  5
9D
100
AcDbEntity
  8
1
100
AcDbCircle
 10
122.993369
 20
-264.209878
 30
0.0
 40
4.2015
100
AcDbArc
 50
180.0
 51
270.0
  0
ARC
  5
9E
100
AcDbEntity
  8
1
100
AcDbCircle
 10
142.035369
 20
-264.209878
 30
0.0
 40
4.2015
100
AcDbArc
 50
270.0
 51
360.0
  0
LINE
  5
9F
100
AcDbEntity
  8
1
100
AcDbLine
 10
122.993369
 20
-268.411378
 30
0.0
 11
142.035369
 21
-268.411378
 31
0.0
  0
LINE
  5
A0
100
AcDbEntity
  8
1
100
AcDbLine
 10
122.993369
 20
-211.123242
 30
0.0
 11
142.035369
 21
-211.123242
 31
0.0
  0
LINE
  5
A1
100
AcDbEntity
  8
1
100
AcDbLine
 10
146.236869
 20
-264.209878
 30
0.0
 11
146.236869
 21
-215.324742
 31
0.0
  0
LINE
  5
A2
100
AcDbEntity
  8
1
100
AcDbLine
 10
118.791869
 20
-264.209878
 30
0.0
 11
118.791869
 21
-215.324742
 31
0.0
  0
LINE
  5
A3
100
AcDbEntity
  8
1
100
AcDbLine
 10
146.236869
 20
-211.123242
 30
0.0
 11
150.225646
 21
-204.051954
 31
0.0
  0
LINE
  5
A4
100
AcDbEntity
  8
1
100
AcDbLine
 10
114.803092
 20
-204.051954
 30
0.0
 11
118.791869
 21
-211.123242
 31
0.0
  0
LINE
  5
A5
100
AcDbEntity
  8
1
100
AcDbLine
 10
118.791869
 20
-268.411378
 30
0.0
 11
114.803092
 21
-275.482666
 31
0.0
  0
LINE
  5
A6
100
AcDbEntity
  8
1
100
AcDbLine
 10
146.236869
 20
-268.411378
 30
0.0
 11
150.225646
 21
-275.482666
 31
0.0
  0
LINE
  5
A7
100
AcDbEntity
  8
1
100
AcDbLine
 10
146.236869
 20
-186.870895
 30
0.0
 11
146.236869
 21
-132.256945
 31
0.0
  0
ARC
  5
A8
100
AcDbEntity
  8
1
100
AcDbCircle
 10
142.035369
 20
-132.256945
 30
0.0
 40
4.2015
100
AcDbArc
 50
0.0
 51
90.0
  0
LINE
  5
A9
100
AcDbEntity
  8
1
100
AcDbLine
 10
122.993369
 20
-128.055445
 30
0.0
 11
142.035369
 21
-128.055445
 31
0.0
  0
ARC
  5
AA
100
AcDbEntity
  8
1
100
AcDbCircle
 10
122.993369
 20
-132.256945
 30
0.0
 40
4.2015
100
AcDbArc
 50
90.0
 51
180.0
  0
LINE
  5
AB
100
AcDbEntity
  8
1
100
AcDbLine
 10
118.791869
 20
-186.870895
 30
0.0
 11
118.791869
 21
-132.256945
 31
0.0
  0
ARC
  5
AC
100
AcDbEntity
  8
1
100
AcDbCircle
 10
122.993369
 20
-186.870895
 30
0.0
 40
4.2015
100
AcDbArc
 50
180.0
 51
270.0
  0
ARC
  5
AD
100
AcDbEntity
  8
1
100
AcDbCircle
 10
142.035369
 20
-186.870895
 30
0.0
 40
4.2015
100
AcDbArc
 50
270.0
 51
360.0
  0
LINE
  5
AE
100
AcDbEntity
  8
1
100
AcDbLine
 10
122.993369
 20
-191.072395
 30
0.0
 11
142.035369
 21
-191.072395
 31
0.0
  0
LINE
  5
AF
100
AcDbEntity
  8
1
100
AcDbLine
 10
150.473053
 20
-117.389225
 30
0.0
 11
146.236869
 21
-128.055445
 31
0.0
  0
LINE
  5
B0
100
AcDbEntity
  8
1
100
AcDbLine
 10
114.555686
 20
-117.389225
 30
0.0
 11
118.791869
 21
-128.055445
 31
0.0
  0
LINE
  5
B1
100
AcDbEntity
  8
1
100
AcDbLine
 10
118.791869
 20
-191.072395
 30
0.0
 11
115.205382
 21
-194.94255
 31
0.0
  0
LINE
  5
B2
100
AcDbEntity
  8
1
100
AcDbLine
 10
149.823357
 20
-194.94255
 30
0.0
 11
146.236869
 21
-191.072395
 31
0.0
  0
LINE
  5
B3
100
AcDbEntity
  8
1
100
AcDbLine
 10
146.236869
 20
-103.387039
 30
0.0
 11
146.236869
 21
-81.695808
 31
0.0
  0
LINE
  5
B4
100
AcDbEntity
  8
1
100
AcDbLine
 10
122.993369
 20
-107.588539
 30
0.0
 11
142.035369
 21
-107.588539
 31
0.0
  0
LINE
  5
B5
100
AcDbEntity
  8
1
100
AcDbLine
 10
118.791869
 20
-103.387039
 30
0.0
 11
118.791869
 21
-81.695808
 31
0.0
  0
LINE
  5
B6
100
AcDbEntity
  8
1
100
AcDbLine
 10
122.993369
 20
-77.494308
 30
0.0
 11
142.035369
 21
-77.494308
 31
0.0
  0
ARC
  5
B7
100
AcDbEntity
  8
1
100
AcDbCircle
 10
142.035369
 20
-81.695808
 30
0.0
 40
4.2015
100
AcDbArc
 50
0.0
 51
90.0
  0
ARC
  5
B8
100
AcDbEntity
  8
1
100
AcDbCircle
 10
142.035369
 20
-103.387039
 30
0.0
 40
4.2015
100
AcDbArc
 50
270.0
 51
360.0
  0
ARC
  5
B9
100
AcDbEntity
  8
1
100
AcDbCircle
 10
122.993369
 20
-103.387039
 30
0.0
 40
4.2015
100
AcDbArc
 50
180.0
 51
270.0
  0
ARC
  5
BA
100
AcDbEntity
  8
1
100
AcDbCircle
 10
122.993369
 20
-81.695808
 30
0.0
 40
4.2015
100
AcDbArc
 50
90.0
 51
180.0
  0
LINE
  5
BB
100
AcDbEntity
  8
1
100
AcDbLine
 10
152.061029
 20
-64.801105
 30
0.0
 11
146.236869
 21
-77.494308
 31
0.0
  0
LINE
  5
BC
100
AcDbEntity
  8
1
100
AcDbLine
 10
112.967709
 20
-64.801105
 30
0.0
 11
118.791869
 21
-77.494308
 31
0.0
  0
LINE
  5
BD
100
AcDbEntity
  8
1
100
AcDbLine
 10
146.236869
 20
-107.588539
 30
0.0
 11
148.929847
 21
-108.700312
 31
0.0
  0
LINE
  5
BE
100
AcDbEntity
  8
1
100
AcDbLine
 10
118.791869
 20
-107.588539
 30
0.0
 11
116.098891
 21
-108.700312
 31
0.0
  0
LINE
  5
BF
100
AcDbEntity
  8
1
100
AcDbLine
 10
146.236869
 20
-347.277674
 30
0.0
 11
146.236869
 21
-292.663725
 31
0.0
  0
LINE
  5
C0
100
AcDbEntity
  8
1
100
AcDbLine
 10
122.993369
 20
-351.479174
 30
0.0
 11
142.035369
 21
-351.479174
 31
0.0
  0
LINE
  5
C1
100
AcDbEntity
  8
1
100
AcDbLine
 10
118.791869
 20
-347.277674
 30
0.0
 11
118.791869
 21
-292.663725
 31
0.0
  0
LINE
  5
C2
100
AcDbEntity
  8
1
100
AcDbLine
 10
122.993369
 20
-288.462225
 30
0.0
 11
142.035369
 21
-288.462225
 31
0.0
  0
ARC
  5
C3
100
AcDbEntity
  8
1
100
AcDbCircle
 10
142.035369
 20
-292.663725
 30
0.0
 40
4.2015
100
AcDbArc
 50
0.0
 51
90.0
  0
ARC
  5
C4
100
AcDbEntity
  8
1
100
AcDbCircle
 10
122.993369
 20
-292.663725
 30
0.0
 40
4.2015
100
AcDbArc
 50
90.0
 51
180.0
  0
ARC
  5
C5
100
AcDbEntity
  8
1
100
AcDbCircle
 10
122.993369
 20
-347.277674
 30
0.0
 40
4.2015
100
AcDbArc
 50
180.0
 51
270.0
  0
ARC
  5
C6
100
AcDbEntity
  8
1
100
AcDbCircle
 10
142.035369
 20
-347.277674
 30
0.0
 40
4.2015
100
AcDbArc
 50
270.0
 51
360.0
  0
LINE
  5
C7
100
AcDbEntity
  8
1
100
AcDbLine
 10
149.823357
 20
-284.59207
 30
0.0
 11
146.236869
 21
-288.462225
 31
0.0
  0
LINE
  5
C8
100
AcDbEntity
  8
1
100
AcDbLine
 10
115.205382
 20
-284.59207
 30
0.0
 11
118.791869
 21
-288.462225
 31
0.0
  0
LINE
  5
C9
100
AcDbEntity
  8
1
100
AcDbLine
 10
118.791869
 20
-351.479174
 30
0.0
 11
114.555686
 21
-362.145395
 31
0.0
  0
LINE
  5
CA
100
AcDbEntity
  8
1
100
AcDbLine
 10
146.236869
 20
-351.479174
 30
0.0
 11
150.473053
 21
-362.145395
 31
0.0
  0
LINE
  5
CB
100
AcDbEntity
  8
1
100
AcDbLine
 10
146.236869
 20
-397.838812
 30
0.0
 11
146.236869
 21
-376.147581
 31
0.0
  0
LINE
  5
CC
100
AcDbEntity
  8
1
100
AcDbLine
 10
122.993369
 20
-371.946081
 30
0.0
 11
142.035369
 21
-371.946081
 31
0.0
  0
LINE
  5
CD
100
AcDbEntity
  8
1
100
AcDbLine
 10
118.791869
 20
-397.838812
 30
0.0
 11
118.791869
 21
-376.147581
 31
0.0
  0
LINE
  5
CE
100
AcDbEntity
  8
1
100
AcDbLine
 10
122.993369
 20
-402.040312
 30
0.0
 11
142.035369
 21
-402.040312
 31
0.0
  0
ARC
  5
CF
100
AcDbEntity
  8
1
100
AcDbCircle
 10
122.993369
 20
-397.838812
 30
0.0
 40
4.2015
100
AcDbArc
 50
180.0
 51
270.0
  0
ARC
  5
D0
100
AcDbEntity
  8
1
100
AcDbCircle
 10
122.993369
 20
-376.147581
 30
0.0
 40
4.2015
100
AcDbArc
 50
90.0
 51
180.0
  0
ARC
  5
D1
100
AcDbEntity
  8
1
100
AcDbCircle
 10
142.035369
 20
-376.147581
 30
0.0
 40
4.2015
100
AcDbArc
 50
0.0
 51
90.0
  0
ARC
  5
D2
100
AcDbEntity
  8
1
100
AcDbCircle
 10
142.035369
 20
-397.838812
 30
0.0
 40
4.2015
100
AcDbArc
 50
270.0
 51
360.0
  0
LINE
  5
D3
100
AcDbEntity
  8
1
100
AcDbLine
 10
112.967709
 20
-414.733514
 30
0.0
 11
118.791869
 21
-402.040312
 31
0.0
  0
LINE
  5
D4
100
AcDbEntity
  8
1
100
AcDbLine
 10
152.061029
 20
-414.733514
 30
0.0
 11
146.236869
 21
-402.040312
 31
0.0
  0
LINE
  5
D5
100
AcDbEntity
  8
1
100
AcDbLine
 10
91.514369
 20
-413.236181
 30
0.0
 11
91.514369
 21
-66.298439
 31
0.0
  0
LINE
  5
D6
100
AcDbEntity
  8
1
100
AcDbLine
 10
173.514369
 20
-413.236181
 30
0.0
 11
173.514369
 21
-66.298439
 31
0.0
  0
LINE
  5
D7
100
AcDbEntity
  8
1
100
AcDbLine
 10
173.250855
 20
-65.306161
 30
0.0
 11
172.09021
 21
-63.275032
 31
0.0
  0
LINE
  5
D8
100
AcDbEntity
  8
1
100
AcDbLine
 10
91.777883
 20
-65.306161
 30
0.0
 11
92.938528
 21
-63.275032
 31
0.0
  0
ARC
  5
D9
100
AcDbEntity
  8
1
100
AcDbCircle
 10
171.514369
 20
-66.298439
 30
0.0
 40
2.0
100
AcDbArc
 50
0.0
 51
29.744881
  0
ARC
  5
DA
100
AcDbEntity
  8
1
100
AcDbCircle
 10
93.514369
 20
-66.298439
 30
0.0
 40
2.0
100
AcDbArc
 50
150.255119
 51
180.0
  0
ARC
  5
DB
100
AcDbEntity
  8
1
100
AcDbCircle
 10
94.675014
 20
-64.26731
 30
0.0
 40
2.0
100
AcDbArc
 50
125.473231
 51
150.255119
  0
ARC
  5
DC
100
AcDbEntity
  8
1
100
AcDbCircle
 10
170.353724
 20
-64.26731
 30
0.0
 40
2.0
100
AcDbArc
 50
29.744881
 51
54.526769
  0
LINE
  5
DD
100
AcDbEntity
  8
1
100
AcDbLine
 10
173.250855
 20
-414.228459
 30
0.0
 11
172.09021
 21
-416.259588
 31
0.0
  0
LINE
  5
DE
100
AcDbEntity
  8
1
100
AcDbLine
 10
91.777883
 20
-414.228459
 30
0.0
 11
92.938528
 21
-416.259588
 31
0.0
  0
ARC
  5
DF
100
AcDbEntity
  8
1
100
AcDbCircle
 10
171.514369
 20
-413.236181
 30
0.0
 40
2.0
100
AcDbArc
 50
330.255119
 51
360.0
  0
ARC
  5
E0
100
AcDbEntity
  8
1
100
AcDbCircle
 10
93.514369
 20
-413.236181
 30
0.0
 40
2.0
100
AcDbArc
 50
180.0
 51
209.744881
  0
ARC
  5
E1
100
AcDbEntity
  8
1
100
AcDbCircle
 10
94.675014
 20
-415.26731
 30
0.0
 40
2.0
100
AcDbArc
 50
209.744881
 51
234.526769
  0
ARC
  5
E2
100
AcDbEntity
  8
1
100
AcDbCircle
 10
170.353724
 20
-415.26731
 30
0.0
 40
2.0
100
AcDbArc
 50
305.473231
 51
330.255119
  0
LINE
  5
E3
100
AcDbEntity
  8
1
100
AcDbLine
 10
-513.34678
 20
434.50251
 30
0.0
 11
-515.377909
 21
433.341865
 31
0.0
  0
LINE
  5
E4
100
AcDbEntity
  8
1
100
AcDbLine
 10
-513.34678
 20
353.029537
 30
0.0
 11
-515.377909
 21
354.190182
 31
0.0
  0
ARC
  5
E5
100
AcDbEntity
  8
1
100
AcDbCircle
 10
-512.354502
 20
432.766023
 30
0.0
 40
2.0
100
AcDbArc
 50
90.0
 51
119.744881
  0
ARC
  5
E6
100
AcDbEntity
  8
1
100
AcDbCircle
 10
-512.354502
 20
354.766023
 30
0.0
 40
2.0
100
AcDbArc
 50
240.255119
 51
270.0
  0
ARC
  5
E7
100
AcDbEntity
  8
1
100
AcDbCircle
 10
-514.385631
 20
355.926669
 30
0.0
 40
2.0
100
AcDbArc
 50
215.473231
 51
240.255119
  0
ARC
  5
E8
100
AcDbEntity
  8
1
100
AcDbCircle
 10
-514.385631
 20
431.605378
 30
0.0
 40
2.0
100
AcDbArc
 50
119.744881
 51
144.526769
  0
LINE
  5
E9
100
AcDbEntity
  8
1
100
AcDbLine
 10
-164.424482
 20
434.50251
 30
0.0
 11
-162.393353
 21
433.341865
 31
0.0
  0
LINE
  5
EA
100
AcDbEntity
  8
1
100
AcDbLine
 10
-164.424482
 20
353.029537
 30
0.0
 11
-162.393353
 21
354.190182
 31
0.0
  0
ARC
  5
EB
100
AcDbEntity
  8
1
100
AcDbCircle
 10
-165.41676
 20
432.766023
 30
0.0
 40
2.0
100
AcDbArc
 50
60.255119
 51
90.0
  0
ARC
  5
EC
100
AcDbEntity
  8
1
100
AcDbCircle
 10
-165.41676
 20
354.766023
 30
0.0
 40
2.0
100
AcDbArc
 50
270.0
 51
299.744881
  0
ARC
  5
ED
100
AcDbEntity
  8
1
100
AcDbCircle
 10
-163.385631
 20
355.926669
 30
0.0
 40
2.0
100
AcDbArc
 50
299.744881
 51
324.526769
  0
ARC
  5
EE
100
AcDbEntity
  8
1
100
AcDbCircle
 10
-163.385631
 20
431.605378
 30
0.0
 40
2.0
100
AcDbArc
 50
35.473231
 51
60.255119
  0
CIRCLE
  5
EF
100
AcDbEntity
  8
1
100
AcDbCircle
 10
-338.885631
 20
-239.76731
 30
0.0
 40
182.5
  0
CIRCLE
  5
F0
100
AcDbEntity
  8
1
100
AcDbCircle
 10
-338.885631
 20
-239.76731
 30
0.0
 40
177.5
  0
CIRCLE
  5
F1
100
AcDbEntity
  8
1
100
AcDbCircle
 10
-338.885631
 20
-239.76731
 30
0.0
 40
174.0
  0
ARC
  5
F2
100
AcDbEntity
  8
1
100
AcDbCircle
 10
-279.385631
 20
59.23269
 30
0.0
 40
3.0
100
AcDbArc
 50
270.0
 51
360.0
  0
ARC
  5
F3
100
AcDbEntity
  8
1
100
AcDbCircle
 10
-398.385631
 20
59.23269
 30
0.0
 40
3.0
100
AcDbArc
 50
180.0
 51
270.0
  0
ARC
  5
F4
100
AcDbEntity
  8
1
100
AcDbCircle
 10
-395.885631
 20
26.23269
 30
0.0
 40
30.0
100
AcDbArc
 50
0.0
 51
90.0
  0
ARC
  5
F5
100
AcDbEntity
  8
1
100
AcDbCircle
 10
-281.885631
 20
26.23269
 30
0.0
 40
30.0
100
AcDbArc
 50
90.0
 51
180.0
  0
ARC
  5
F6
100
AcDbEntity
  8
1
100
AcDbCircle
 10
-297.885631
 20
42.23269
 30
0.0
 40
14.0
100
AcDbArc
 50
90.0
 51
180.0
  0
ARC
  5
F7
100
AcDbEntity
  8
1
100
AcDbCircle
 10
-379.885631
 20
42.23269
 30
0.0
 40
14.0
100
AcDbArc
 50
0.0
 51
90.0
  0
LINE
  5
F8
100
AcDbEntity
  8
1
100
AcDbLine
 10
-334.885631
 20
26.23269
 30
0.0
 11
-342.885631
 21
26.23269
 31
0.0
  0
LINE
  5
F9
100
AcDbEntity
  8
1
100
AcDbLine
 10
-342.885631
 20
50.23269
 30
0.0
 11
-342.885631
 21
32.23269
 31
0.0
  0
LINE
  5
FA
100
AcDbEntity
  8
1
100
AcDbLine
 10
-334.885631
 20
50.23269
 30
0.0
 11
-334.885631
 21
32.23269
 31
0.0
  0
ARC
  5
FB
100
AcDbEntity
  8
1
100
AcDbCircle
 10
-328.885631
 20
50.23269
 30
0.0
 40
6.0
100
AcDbArc
 50
90.0
 51
180.0
  0
ARC
  5
FC
100
AcDbEntity
  8
1
100
AcDbCircle
 10
-348.885631
 20
50.23269
 30
0.0
 40
6.0
100
AcDbArc
 50
360.0
 51
90.0
  0
ARC
  5
FD
100
AcDbEntity
  8
1
100
AcDbCircle
 10
-348.885631
 20
32.23269
 30
0.0
 40
6.0
100
AcDbArc
 50
270.0
 51
360.0
  0
ARC
  5
FE
100
AcDbEntity
  8
1
100
AcDbCircle
 10
-328.885631
 20
32.23269
 30
0.0
 40
6.0
100
AcDbArc
 50
180.0
 51
270.0
  0
LINE
  5
FF
100
AcDbEntity
  8
1
100
AcDbLine
 10
-380.870416
 20
-28.695544
 30
0.0
 11
-382.874605
 21
-18.619802
 31
0.0
  0
LINE
  5
100
100
AcDbEntity
  8
1
100
AcDbLine
 10
-296.900846
 20
-28.695544
 30
0.0
 11
-294.896657
 21
-18.619802
 31
0.0
  0
ARC
  5
101
100
AcDbEntity
  8
1
100
AcDbCircle
 10
-338.885631
 20
-239.76731
 30
0.0
 40
228.5
100
AcDbArc
 50
79.512272
 51
81.075301
  0
ARC
  5
102
100
AcDbEntity
  8
1
100
AcDbCircle
 10
-338.885631
 20
-239.76731
 30
0.0
 40
228.5
100
AcDbArc
 50
98.924699
 51
100.487728
  0
ARC
  5
103
100
AcDbEntity
  8
1
100
AcDbCircle
 10
-301.885631
 20
-4.15481
 30
0.0
 40
10.0
100
AcDbArc
 50
180.0
 51
261.075301
  0
ARC
  5
104
100
AcDbEntity
  8
1
100
AcDbCircle
 10
-375.885631
 20
-4.15481
 30
0.0
 40
10.0
100
AcDbArc
 50
278.924699
 51
360.0
  0
ARC
  5
105
100
AcDbEntity
  8
1
100
AcDbCircle
 10
-297.839012
 20
-18.034531
 30
0.0
 40
3.0
100
AcDbArc
 50
348.75
 51
79.512272
  0
ARC
  5
106
100
AcDbEntity
  8
1
100
AcDbCircle
 10
-379.932249
 20
-18.034531
 30
0.0
 40
3.0
100
AcDbArc
 50
100.487728
 51
191.25
  0
ARC
  5
107
100
AcDbEntity
  8
1
100
AcDbCircle
 10
-299.867567
 20
-43.610254
 30
0.0
 40
12.5
100
AcDbArc
 50
89.909937
 51
259.46052
  0
ARC
  5
108
100
AcDbEntity
  8
1
100
AcDbCircle
 10
-377.903695
 20
-43.610254
 30
0.0
 40
12.5
100
AcDbArc
 50
280.53948
 51
90.090063
  0
ARC
  5
109
100
AcDbEntity
  8
1
100
AcDbCircle
 10
-299.843202
 20
-28.110273
 30
0.0
 40
3.0
100
AcDbArc
 50
269.909937
 51
348.75
  0
ARC
  5
10A
100
AcDbEntity
  8
1
100
AcDbCircle
 10
-377.92806
 20
-28.110273
 30
0.0
 40
3.0
100
AcDbArc
 50
191.25
 51
270.090063
  0
ARC
  5
10B
100
AcDbEntity
  8
1
100
AcDbCircle
 10
-302.885631
 20
-59.831884
 30
0.0
 40
4.0
100
AcDbArc
 50
17.598703
 51
79.46052
  0
ARC
  5
10C
100
AcDbEntity
  8
1
100
AcDbCircle
 10
-374.885631
 20
-59.831884
 30
0.0
 40
4.0
100
AcDbArc
 50
100.53948
 51
162.401297
  0
LINE
  5
10D
100
AcDbEntity
  8
1
100
AcDbLine
 10
-372.885631
 20
-468.291379
 30
0.0
 11
-372.885631
 21
-484.56731
 31
0.0
  0
LINE
  5
10E
100
AcDbEntity
  8
1
100
AcDbLine
 10
-304.885631
 20
-468.291379
 30
0.0
 11
-304.885631
 21
-484.56731
 31
0.0
  0
LINE
  5
10F
100
AcDbEntity
  8
1
100
AcDbLine
 10
-365.885631
 20
-439.759433
 30
0.0
 11
-365.885631
 21
-474.76731
 31
0.0
  0
LINE
  5
110
100
AcDbEntity
  8
1
100
AcDbLine
 10
-311.885631
 20
-439.759433
 30
0.0
 11
-311.885631
 21
-474.76731
 31
0.0
  0
LINE
  5
111
100
AcDbEntity
  8
1
100
AcDbLine
 10
-362.885631
 20
-477.76731
 30
0.0
 11
-314.885631
 21
-477.76731
 31
0.0
  0
ARC
  5
112
100
AcDbEntity
  8
1
100
AcDbCircle
 10
-314.885631
 20
-474.76731
 30
0.0
 40
3.0
100
AcDbArc
 50
270.0
 51
360.0
  0
ARC
  5
113
100
AcDbEntity
  8
1
100
AcDbCircle
 10
-362.885631
 20
-474.76731
 30
0.0
 40
3.0
100
AcDbArc
 50
180.0
 51
270.0
  0
ARC
  5
114
100
AcDbEntity
  8
1
100
AcDbCircle
 10
-338.885631
 20
-239.76731
 30
0.0
 40
228.5
100
AcDbArc
 50
259.512272
 51
261.183196
  0
ARC
  5
115
100
AcDbEntity
  8
1
100
AcDbCircle
 10
-338.885631
 20
-239.76731
 30
0.0
 40
228.5
100
AcDbArc
 50
278.816804
 51
280.487728
  0
LINE
  5
116
100
AcDbEntity
  8
1
100
AcDbLine
 10
-296.900846
 20
-450.839076
 30
0.0
 11
-294.896657
 21
-460.914817
 31
0.0
  0
LINE
  5
117
100
AcDbEntity
  8
1
100
AcDbLine
 10
-380.870416
 20
-450.839076
 30
0.0
 11
-382.874605
 21
-460.914817
 31
0.0
  0
ARC
  5
118
100
AcDbEntity
  8
1
100
AcDbCircle
 10
-379.932249
 20
-461.500088
 30
0.0
 40
3.0
100
AcDbArc
 50
168.75
 51
259.512272
  0
ARC
  5
119
100
AcDbEntity
  8
1
100
AcDbCircle
 10
-297.839012
 20
-461.500088
 30
0.0
 40
3.0
100
AcDbArc
 50
280.487728
 51
11.25
  0
ARC
  5
11A
100
AcDbEntity
  8
1
100
AcDbCircle
 10
-301.885631
 20
-468.291379
 30
0.0
 40
3.0
100
AcDbArc
 50
99.196867
 51
180.0
  0
ARC
  5
11B
100
AcDbEntity
  8
1
100
AcDbCircle
 10
-375.885631
 20
-468.291379
 30
0.0
 40
3.0
100
AcDbArc
 50
0.0
 51
80.803133
  0
ARC
  5
11C
100
AcDbEntity
  8
1
100
AcDbCircle
 10
-303.402316
 20
-468.531783
 30
0.0
 40
3.0
100
AcDbArc
 50
98.816804
 51
180.0
  0
ARC
  5
11D
100
AcDbEntity
  8
1
100
AcDbCircle
 10
-374.368946
 20
-468.531783
 30
0.0
 40
3.0
100
AcDbArc
 50
0.0
 51
81.183196
  0
ARC
  5
11E
100
AcDbEntity
  8
1
100
AcDbCircle
 10
-309.402316
 20
-455.76731
 30
0.0
 40
3.0
100
AcDbArc
 50
0.0
 51
85.059901
  0
ARC
  5
11F
100
AcDbEntity
  8
1
100
AcDbCircle
 10
-368.368946
 20
-455.76731
 30
0.0
 40
3.0
100
AcDbArc
 50
94.940099
 51
180.0
  0
ARC
  5
120
100
AcDbEntity
  8
1
100
AcDbCircle
 10
-308.885631
 20
-449.789598
 30
0.0
 40
3.0
100
AcDbArc
 50
180.0
 51
265.059901
  0
ARC
  5
121
100
AcDbEntity
  8
1
100
AcDbCircle
 10
-368.885631
 20
-449.789598
 30
0.0
 40
3.0
100
AcDbArc
 50
274.940099
 51
360.0
  0
ARC
  5
122
100
AcDbEntity
  8
1
100
AcDbCircle
 10
-299.867567
 20
-435.924366
 30
0.0
 40
12.5
100
AcDbArc
 50
100.53948
 51
270.090063
  0
ARC
  5
123
100
AcDbEntity
  8
1
100
AcDbCircle
 10
-377.903695
 20
-435.924366
 30
0.0
 40
12.5
100
AcDbArc
 50
269.909937
 51
79.46052
  0
ARC
  5
124
100
AcDbEntity
  8
1
100
AcDbCircle
 10
-299.843202
 20
-451.424347
 30
0.0
 40
3.0
100
AcDbArc
 50
11.25
 51
90.090063
  0
ARC
  5
125
100
AcDbEntity
  8
1
100
AcDbCircle
 10
-377.92806
 20
-451.424347
 30
0.0
 40
3.0
100
AcDbArc
 50
89.909937
 51
168.75
  0
ARC
  5
126
100
AcDbEntity
  8
1
100
AcDbCircle
 10
-314.885631
 20
-439.759433
 30
0.0
 40
3.0
100
AcDbArc
 50
0.0
 51
14.325112
  0
ARC
  5
127
100
AcDbEntity
  8
1
100
AcDbCircle
 10
-362.885631
 20
-439.759433
 30
0.0
 40
3.0
100
AcDbArc
 50
165.674888
 51
180.0
  0
ARC
  5
128
100
AcDbEntity
  8
1
100
AcDbCircle
 10
-302.885631
 20
-419.702736
 30
0.0
 40
4.0
100
AcDbArc
 50
280.53948
 51
342.401297
  0
ARC
  5
129
100
AcDbEntity
  8
1
100
AcDbCircle
 10
-374.885631
 20
-419.702736
 30
0.0
 40
4.0
100
AcDbArc
 50
197.598703
 51
259.46052
  0
LINE
  5
12A
100
AcDbEntity
  8
1
100
AcDbLine
 10
-372.885631
 20
-481.56731
 30
0.0
 11
-304.885631
 21
-481.56731
 31
0.0
  0
LINE
  5
12B
100
AcDbEntity
  8
1
100
AcDbLine
 10
-372.885631
 20
-484.56731
 30
0.0
 11
-304.885631
 21
-484.56731
 31
0.0
  0
ARC
  5
12C
100
AcDbEntity
  8
1
100
AcDbCircle
 10
192.014369
 20
59.23269
 30
0.0
 40
3.0
100
AcDbArc
 50
270.0
 51
360.0
  0
ARC
  5
12D
100
AcDbEntity
  8
1
100
AcDbCircle
 10
73.014369
 20
59.23269
 30
0.0
 40
3.0
100
AcDbArc
 50
180.0
 51
270.0
  0
ARC
  5
12E
100
AcDbEntity
  8
1
100
AcDbCircle
 10
75.514369
 20
26.23269
 30
0.0
 40
30.0
100
AcDbArc
 50
0.0
 51
90.0
  0
ARC
  5
12F
100
AcDbEntity
  8
1
100
AcDbCircle
 10
189.514369
 20
26.23269
 30
0.0
 40
30.0
100
AcDbArc
 50
90.0
 51
180.0
  0
ARC
  5
130
100
AcDbEntity
  8
1
100
AcDbCircle
 10
173.514369
 20
42.23269
 30
0.0
 40
14.0
100
AcDbArc
 50
90.0
 51
180.0
  0
ARC
  5
131
100
AcDbEntity
  8
1
100
AcDbCircle
 10
91.514369
 20
42.23269
 30
0.0
 40
14.0
100
AcDbArc
 50
0.0
 51
90.0
  0
LINE
  5
132
100
AcDbEntity
  8
1
100
AcDbLine
 10
136.514369
 20
26.23269
 30
0.0
 11
128.514369
 21
26.23269
 31
0.0
  0
LINE
  5
133
100
AcDbEntity
  8
1
100
AcDbLine
 10
128.514369
 20
50.23269
 30
0.0
 11
128.514369
 21
32.23269
 31
0.0
  0
LINE
  5
134
100
AcDbEntity
  8
1
100
AcDbLine
 10
136.514369
 20
50.23269
 30
0.0
 11
136.514369
 21
32.23269
 31
0.0
  0
ARC
  5
135
100
AcDbEntity
  8
1
100
AcDbCircle
 10
142.514369
 20
50.23269
 30
0.0
 40
6.0
100
AcDbArc
 50
90.0
 51
180.0
  0
ARC
  5
136
100
AcDbEntity
  8
1
100
AcDbCircle
 10
122.514369
 20
50.23269
 30
0.0
 40
6.0
100
AcDbArc
 50
360.0
 51
90.0
  0
ARC
  5
137
100
AcDbEntity
  8
1
100
AcDbCircle
 10
122.514369
 20
32.23269
 30
0.0
 40
6.0
100
AcDbArc
 50
270.0
 51
360.0
  0
ARC
  5
138
100
AcDbEntity
  8
1
100
AcDbCircle
 10
142.514369
 20
32.23269
 30
0.0
 40
6.0
100
AcDbArc
 50
180.0
 51
270.0
  0
LINE
  5
139
100
AcDbEntity
  8
1
100
AcDbLine
 10
93.514369
 20
-422.26731
 30
0.0
 11
93.514369
 21
-57.26731
 31
0.0
  0
LINE
  5
13A
100
AcDbEntity
  8
1
100
AcDbLine
 10
171.514369
 20
-422.26731
 30
0.0
 11
171.514369
 21
-57.26731
 31
0.0
  0
LINE
  5
13B
100
AcDbEntity
  8
1
100
AcDbLine
 10
94.514369
 20
-56.26731
 30
0.0
 11
93.514369
 21
-57.26731
 31
0.0
  0
LINE
  5
13C
100
AcDbEntity
  8
1
100
AcDbLine
 10
170.514369
 20
-56.26731
 30
0.0
 11
171.514369
 21
-57.26731
 31
0.0
  0
LINE
  5
13D
100
AcDbEntity
  8
1
100
AcDbLine
 10
171.514369
 20
-422.26731
 30
0.0
 11
170.514369
 21
-423.26731
 31
0.0
  0
LINE
  5
13E
100
AcDbEntity
  8
1
100
AcDbLine
 10
93.514369
 20
-422.26731
 30
0.0
 11
94.514369
 21
-423.26731
 31
0.0
  0
LINE
  5
13F
100
AcDbEntity
  8
1
100
AcDbLine
 10
170.514369
 20
-56.26731
 30
0.0
 11
170.514369
 21
-423.26731
 31
0.0
  0
LINE
  5
140
100
AcDbEntity
  8
1
100
AcDbLine
 10
94.514369
 20
-56.26731
 30
0.0
 11
94.514369
 21
-423.26731
 31
0.0
  0
ARC
  5
141
100
AcDbEntity
  8
1
100
AcDbCircle
 10
169.514369
 20
-46.26731
 30
0.0
 40
10.0
100
AcDbArc
 50
180.0
 51
270.0
  0
ARC
  5
142
100
AcDbEntity
  8
1
100
AcDbCircle
 10
95.514369
 20
-46.26731
 30
0.0
 40
10.0
100
AcDbArc
 50
270.0
 51
0.0
  0
LINE
  5
143
100
AcDbEntity
  8
1
100
AcDbLine
 10
106.064254
 20
-55.899368
 30
0.0
 11
158.964484
 21
-55.899368
 31
0.0
  0
LINE
  5
144
100
AcDbEntity
  8
1
100
AcDbLine
 10
94.514369
 20
-56.26731
 30
0.0
 11
95.514369
 21
-56.26731
 31
0.0
  0
LINE
  5
145
100
AcDbEntity
  8
1
100
AcDbLine
 10
169.514369
 20
-56.26731
 30
0.0
 11
170.514369
 21
-56.26731
 31
0.0
  0
LINE
  5
146
100
AcDbEntity
  8
1
100
AcDbLine
 10
105.514369
 20
-40.172794
 30
0.0
 11
159.514369
 21
-40.172794
 31
0.0
  0
LINE
  5
147
100
AcDbEntity
  8
1
100
AcDbLine
 10
127.514369
 20
-4.15481
 30
0.0
 11
137.514369
 21
-4.15481
 31
0.0
  0
LINE
  5
148
100
AcDbEntity
  8
1
100
AcDbLine
 10
127.514369
 20
-34.172794
 30
0.0
 11
127.514369
 21
-10.15481
 31
0.0
  0
LINE
  5
149
100
AcDbEntity
  8
1
100
AcDbLine
 10
137.514369
 20
-34.172794
 30
0.0
 11
137.514369
 21
-10.15481
 31
0.0
  0
ARC
  5
14A
100
AcDbEntity
  8
1
100
AcDbCircle
 10
143.514369
 20
-10.15481
 30
0.0
 40
6.0
100
AcDbArc
 50
90.0
 51
180.0
  0
ARC
  5
14B
100
AcDbEntity
  8
1
100
AcDbCircle
 10
121.514369
 20
-10.15481
 30
0.0
 40
6.0
100
AcDbArc
 50
0.0
 51
90.0
  0
ARC
  5
14C
100
AcDbEntity
  8
1
100
AcDbCircle
 10
121.514369
 20
-34.172794
 30
0.0
 40
6.0
100
AcDbArc
 50
270.0
 51
360.0
  0
ARC
  5
14D
100
AcDbEntity
  8
1
100
AcDbCircle
 10
143.514369
 20
-34.172794
 30
0.0
 40
6.0
100
AcDbArc
 50
180.0
 51
270.0
  0
LINE
  5
14E
100
AcDbEntity
  8
1
100
AcDbLine
 10
130.514369
 20
-15.084649
 30
0.0
 11
134.514369
 21
-15.084649
 31
0.0
  0
LINE
  5
14F
100
AcDbEntity
  8
1
100
AcDbLine
 10
130.514369
 20
-31.110273
 30
0.0
 11
134.514369
 21
-31.110273
 31
0.0
  0
ARC
  5
150
100
AcDbEntity
  8
1
100
AcDbCircle
 10
134.514369
 20
-18.084649
 30
0.0
 40
3.0
100
AcDbArc
 50
0.0
 51
90.0
  0
ARC
  5
151
100
AcDbEntity
  8
1
100
AcDbCircle
 10
130.514369
 20
-18.084649
 30
0.0
 40
3.0
100
AcDbArc
 50
90.0
 51
180.0
  0
ARC
  5
152
100
AcDbEntity
  8
1
100
AcDbCircle
 10
130.514369
 20
-28.110273
 30
0.0
 40
3.0
100
AcDbArc
 50
180.0
 51
270.0
  0
ARC
  5
153
100
AcDbEntity
  8
1
100
AcDbCircle
 10
134.514369
 20
-28.110273
 30
0.0
 40
3.0
100
AcDbArc
 50
270.0
 51
360.0
  0
LINE
  5
154
100
AcDbEntity
  8
1
100
AcDbLine
 10
109.514369
 20
-480.76731
 30
0.0
 11
155.514369
 21
-480.76731
 31
0.0
  0
LINE
  5
155
100
AcDbEntity
  8
1
100
AcDbLine
 10
102.514369
 20
-474.76731
 30
0.0
 11
102.514369
 21
-424.231299
 31
0.0
  0
LINE
  5
156
100
AcDbEntity
  8
1
100
AcDbLine
 10
162.514369
 20
-474.76731
 30
0.0
 11
162.514369
 21
-424.231299
 31
0.0
  0
ARC
  5
157
100
AcDbEntity
  8
1
100
AcDbCircle
 10
158.514369
 20
-480.76731
 30
0.0
 40
3.0
100
AcDbArc
 50
90.0
 51
180.0
  0
ARC
  5
158
100
AcDbEntity
  8
1
100
AcDbCircle
 10
106.514369
 20
-480.76731
 30
0.0
 40
3.0
100
AcDbArc
 50
0.0
 51
90.0
  0
ARC
  5
159
100
AcDbEntity
  8
1
100
AcDbCircle
 10
159.514369
 20
-474.76731
 30
0.0
 40
3.0
100
AcDbArc
 50
270.0
 51
360.0
  0
ARC
  5
15A
100
AcDbEntity
  8
1
100
AcDbCircle
 10
105.514369
 20
-474.76731
 30
0.0
 40
3.0
100
AcDbArc
 50
180.0
 51
270.0
  0
ARC
  5
15B
100
AcDbEntity
  8
1
100
AcDbCircle
 10
168.514369
 20
-429.26731
 30
0.0
 40
6.0
100
AcDbArc
 50
90.0
 51
180.0
  0
ARC
  5
15C
100
AcDbEntity
  8
1
100
AcDbCircle
 10
96.514369
 20
-429.26731
 30
0.0
 40
6.0
100
AcDbArc
 50
0.0
 51
90.0
  0
LINE
  5
15D
100
AcDbEntity
  8
1
100
AcDbLine
 10
94.514369
 20
-423.26731
 30
0.0
 11
96.514369
 21
-423.26731
 31
0.0
  0
LINE
  5
15E
100
AcDbEntity
  8
1
100
AcDbLine
 10
168.514369
 20
-423.26731
 30
0.0
 11
170.514369
 21
-423.26731
 31
0.0
  0
LINE
  5
15F
100
AcDbEntity
  8
1
100
AcDbLine
 10
102.514369
 20
-439.361825
 30
0.0
 11
162.514369
 21
-439.361825
 31
0.0
  0
ARC
  5
160
100
AcDbEntity
  8
1
100
AcDbCircle
 10
-295.260051
 20
-422.121522
 30
0.0
 40
4.0
100
AcDbArc
 50
103.454303
 51
162.401297
  0
ARC
  5
161
100
AcDbEntity
  8
1
100
AcDbCircle
 10
-382.511211
 20
-422.121522
 30
0.0
 40
4.0
100
AcDbArc
 50
17.598703
 51
76.545697
  0
ARC
  5
162
100
AcDbEntity
  8
1
100
AcDbCircle
 10
-295.260051
 20
-57.413097
 30
0.0
 40
4.0
100
AcDbArc
 50
197.598703
 51
256.545697
  0
ARC
  5
163
100
AcDbEntity
  8
1
100
AcDbCircle
 10
-382.511211
 20
-57.413097
 30
0.0
 40
4.0
100
AcDbArc
 50
283.454303
 51
342.401297
  0
LINE
  5
164
100
AcDbEntity
  8
1
100
AcDbLine
 10
127.514369
 20
-462.531783
 30
0.0
 11
127.514369
 21
-445.361825
 31
0.0
  0
LINE
  5
165
100
AcDbEntity
  8
1
100
AcDbLine
 10
137.514369
 20
-462.531783
 30
0.0
 11
137.514369
 21
-445.361825
 31
0.0
  0
ARC
  5
166
100
AcDbEntity
  8
1
100
AcDbCircle
 10
143.514369
 20
-445.361825
 30
0.0
 40
6.0
100
AcDbArc
 50
90.0
 51
180.0
  0
ARC
  5
167
100
AcDbEntity
  8
1
100
AcDbCircle
 10
121.514369
 20
-445.361825
 30
0.0
 40
6.0
100
AcDbArc
 50
0.0
 51
90.0
  0
LINE
  5
168
100
AcDbEntity
  8
1
100
AcDbLine
 10
127.514369
 20
-468.531783
 30
0.0
 11
137.514369
 21
-468.531783
 31
0.0
  0
ARC
  5
169
100
AcDbEntity
  8
1
100
AcDbCircle
 10
143.514369
 20
-462.531783
 30
0.0
 40
6.0
100
AcDbArc
 50
180.0
 51
255.633409
  0
ARC
  5
16A
100
AcDbEntity
  8
1
100
AcDbCircle
 10
121.514369
 20
-462.531783
 30
0.0
 40
6.0
100
AcDbArc
 50
284.366591
 51
360.0
  0
LINE
  5
16B
100
AcDbEntity
  8
1
100
AcDbLine
 10
130.514369
 20
-448.42435
 30
0.0
 11
134.514369
 21
-448.42435
 31
0.0
  0
LINE
  5
16C
100
AcDbEntity
  8
1
100
AcDbLine
 10
130.514369
 20
-464.44997
 30
0.0
 11
134.514369
 21
-464.44997
 31
0.0
  0
ARC
  5
16D
100
AcDbEntity
  8
1
100
AcDbCircle
 10
134.514369
 20
-451.42435
 30
0.0
 40
3.0
100
AcDbArc
 50
0.0
 51
90.0
  0
ARC
  5
16E
100
AcDbEntity
  8
1
100
AcDbCircle
 10
130.514369
 20
-451.42435
 30
0.0
 40
3.0
100
AcDbArc
 50
90.0
 51
180.0
  0
ARC
  5
16F
100
AcDbEntity
  8
1
100
AcDbCircle
 10
130.514369
 20
-461.44997
 30
0.0
 40
3.0
100
AcDbArc
 50
180.0
 51
270.0
  0
ARC
  5
170
100
AcDbEntity
  8
1
100
AcDbCircle
 10
134.514369
 20
-461.44997
 30
0.0
 40
3.0
100
AcDbArc
 50
270.0
 51
360.0
  0
LINE
  5
171
100
AcDbEntity
  8
1
100
AcDbLine
 10
142.025619
 20
-474.76731
 30
0.0
 11
142.025619
 21
-455.76731
 31
0.0
  0
LINE
  5
172
100
AcDbEntity
  8
1
100
AcDbLine
 10
123.003119
 20
-474.76731
 30
0.0
 11
123.003119
 21
-455.76731
 31
0.0
  0
LINE
  5
173
100
AcDbEntity
  8
1
100
AcDbLine
 10
105.514369
 20
-477.76731
 30
0.0
 11
120.003119
 21
-477.76731
 31
0.0
  0
LINE
  5
174
100
AcDbEntity
  8
1
100
AcDbLine
 10
145.025619
 20
-477.76731
 30
0.0
 11
159.514369
 21
-477.76731
 31
0.0
  0
ARC
  5
175
100
AcDbEntity
  8
1
100
AcDbCircle
 10
145.025619
 20
-474.76731
 30
0.0
 40
3.0
100
AcDbArc
 50
180.0
 51
270.0
  0
ARC
  5
176
100
AcDbEntity
  8
1
100
AcDbCircle
 10
120.003119
 20
-474.76731
 30
0.0
 40
3.0
100
AcDbArc
 50
270.0
 51
0.0
  0
ARC
  5
177
100
AcDbEntity
  8
1
100
AcDbCircle
 10
139.025619
 20
-455.76731
 30
0.0
 40
3.0
100
AcDbArc
 50
0.0
 51
75.633409
  0
ARC
  5
178
100
AcDbEntity
  8
1
100
AcDbCircle
 10
126.003119
 20
-455.76731
 30
0.0
 40
3.0
100
AcDbArc
 50
104.366591
 51
180.0
  0
ARC
  5
179
100
AcDbEntity
  8
1
100
AcDbCircle
 10
140.514369
 20
-449.954942
 30
0.0
 40
3.0
100
AcDbArc
 50
180.0
 51
255.633409
  0
ARC
  5
17A
100
AcDbEntity
  8
1
100
AcDbCircle
 10
124.514369
 20
-449.954942
 30
0.0
 40
3.0
100
AcDbArc
 50
284.366591
 51
360.0
  0
LINE
  5
17B
100
AcDbEntity
  8
1
100
AcDbLine
 10
119.514369
 20
-109.76731
 30
0.0
 11
145.514369
 21
-109.76731
 31
0.0
  0
LINE
  5
17C
100
AcDbEntity
  8
1
100
AcDbLine
 10
119.514369
 20
-114.76731
 30
0.0
 11
145.514369
 21
-114.76731
 31
0.0
  0
LINE
  5
17D
100
AcDbEntity
  8
1
100
AcDbLine
 10
119.514369
 20
-196.76731
 30
0.0
 11
145.514369
 21
-196.76731
 31
0.0
  0
LINE
  5
17E
100
AcDbEntity
  8
1
100
AcDbLine
 10
119.514369
 20
-201.76731
 30
0.0
 11
145.514369
 21
-201.76731
 31
0.0
  0
LINE
  5
17F
100
AcDbEntity
  8
1
100
AcDbLine
 10
119.514369
 20
-277.76731
 30
0.0
 11
145.514369
 21
-277.76731
 31
0.0
  0
LINE
  5
180
100
AcDbEntity
  8
1
100
AcDbLine
 10
119.514369
 20
-282.76731
 30
0.0
 11
145.514369
 21
-282.76731
 31
0.0
  0
LINE
  5
181
100
AcDbEntity
  8
1
100
AcDbLine
 10
119.514369
 20
-364.76731
 30
0.0
 11
145.514369
 21
-364.76731
 31
0.0
  0
LINE
  5
182
100
AcDbEntity
  8
1
100
AcDbLine
 10
119.514369
 20
-369.76731
 30
0.0
 11
145.514369
 21
-369.76731
 31
0.0
  0
LINE
  5
183
100
AcDbEntity
  8
1
100
AcDbLine
 10
151.514369
 20
-103.76731
 30
0.0
 11
151.514369
 21
-67.303321
 31
0.0
  0
LINE
  5
184
100
AcDbEntity
  8
1
100
AcDbLine
 10
113.514369
 20
-103.76731
 30
0.0
 11
113.514369
 21
-67.303321
 31
0.0
  0
LINE
  5
185
100
AcDbEntity
  8
1
100
AcDbLine
 10
113.514369
 20
-190.76731
 30
0.0
 11
113.514369
 21
-120.76731
 31
0.0
  0
LINE
  5
186
100
AcDbEntity
  8
1
100
AcDbLine
 10
151.514369
 20
-190.76731
 30
0.0
 11
151.514369
 21
-120.76731
 31
0.0
  0
LINE
  5
187
100
AcDbEntity
  8
1
100
AcDbLine
 10
151.514369
 20
-271.76731
 30
0.0
 11
151.514369
 21
-207.76731
 31
0.0
  0
LINE
  5
188
100
AcDbEntity
  8
1
100
AcDbLine
 10
113.514369
 20
-271.76731
 30
0.0
 11
113.514369
 21
-207.76731
 31
0.0
  0
LINE
  5
189
100
AcDbEntity
  8
1
100
AcDbLine
 10
113.514369
 20
-412.231299
 30
0.0
 11
113.514369
 21
-375.76731
 31
0.0
  0
LINE
  5
18A
100
AcDbEntity
  8
1
100
AcDbLine
 10
113.514369
 20
-358.76731
 30
0.0
 11
113.514369
 21
-288.76731
 31
0.0
  0
LINE
  5
18B
100
AcDbEntity
  8
1
100
AcDbLine
 10
151.514369
 20
-412.231299
 30
0.0
 11
151.514369
 21
-375.76731
 31
0.0
  0
LINE
  5
18C
100
AcDbEntity
  8
1
100
AcDbLine
 10
151.514369
 20
-358.76731
 30
0.0
 11
151.514369
 21
-288.76731
 31
0.0
  0
ARC
  5
18D
100
AcDbEntity
  8
1
100
AcDbCircle
 10
145.514369
 20
-190.76731
 30
0.0
 40
6.0
100
AcDbArc
 50
270.0
 51
360.0
  0
ARC
  5
18E
100
AcDbEntity
  8
1
100
AcDbCircle
 10
119.514369
 20
-190.76731
 30
0.0
 40
6.0
100
AcDbArc
 50
180.0
 51
270.0
  0
ARC
  5
18F
100
AcDbEntity
  8
1
100
AcDbCircle
 10
119.514369
 20
-120.76731
 30
0.0
 40
6.0
100
AcDbArc
 50
90.0
 51
180.0
  0
ARC
  5
190
100
AcDbEntity
  8
1
100
AcDbCircle
 10
145.514369
 20
-120.76731
 30
0.0
 40
6.0
100
AcDbArc
 50
0.0
 51
90.0
  0
ARC
  5
191
100
AcDbEntity
  8
1
100
AcDbCircle
 10
145.514369
 20
-207.76731
 30
0.0
 40
6.0
100
AcDbArc
 50
0.0
 51
90.0
  0
ARC
  5
192
100
AcDbEntity
  8
1
100
AcDbCircle
 10
119.514369
 20
-207.76731
 30
0.0
 40
6.0
100
AcDbArc
 50
90.0
 51
180.0
  0
ARC
  5
193
100
AcDbEntity
  8
1
100
AcDbCircle
 10
119.514369
 20
-271.76731
 30
0.0
 40
6.0
100
AcDbArc
 50
180.0
 51
270.0
  0
ARC
  5
194
100
AcDbEntity
  8
1
100
AcDbCircle
 10
145.514369
 20
-271.76731
 30
0.0
 40
6.0
100
AcDbArc
 50
270.0
 51
360.0
  0
ARC
  5
195
100
AcDbEntity
  8
1
100
AcDbCircle
 10
145.514369
 20
-288.76731
 30
0.0
 40
6.0
100
AcDbArc
 50
0.0
 51
90.0
  0
ARC
  5
196
100
AcDbEntity
  8
1
100
AcDbCircle
 10
119.514369
 20
-288.76731
 30
0.0
 40
6.0
100
AcDbArc
 50
90.0
 51
180.0
  0
ARC
  5
197
100
AcDbEntity
  8
1
100
AcDbCircle
 10
119.514369
 20
-358.76731
 30
0.0
 40
6.0
100
AcDbArc
 50
180.0
 51
270.0
  0
ARC
  5
198
100
AcDbEntity
  8
1
100
AcDbCircle
 10
145.514369
 20
-358.76731
 30
0.0
 40
6.0
100
AcDbArc
 50
270.0
 51
0.0
  0
ARC
  5
199
100
AcDbEntity
  8
1
100
AcDbCircle
 10
145.514369
 20
-375.76731
 30
0.0
 40
6.0
100
AcDbArc
 50
0.0
 51
90.0
  0
ARC
  5
19A
100
AcDbEntity
  8
1
100
AcDbCircle
 10
119.514369
 20
-375.76731
 30
0.0
 40
6.0
100
AcDbArc
 50
90.0
 51
180.0
  0
ARC
  5
19B
100
AcDbEntity
  8
1
100
AcDbCircle
 10
119.514369
 20
-103.76731
 30
0.0
 40
6.0
100
AcDbArc
 50
180.0
 51
270.0
  0
ARC
  5
19C
100
AcDbEntity
  8
1
100
AcDbCircle
 10
145.514369
 20
-103.76731
 30
0.0
 40
6.0
100
AcDbArc
 50
270.0
 51
360.0
  0
ARC
  5
19D
100
AcDbEntity
  8
1
100
AcDbCircle
 10
157.514369
 20
-67.303321
 30
0.0
 40
6.0
100
AcDbArc
 50
90.0
 51
180.0
  0
ARC
  5
19E
100
AcDbEntity
  8
1
100
AcDbCircle
 10
107.514369
 20
-67.303321
 30
0.0
 40
6.0
100
AcDbArc
 50
0.0
 51
90.0
  0
ARC
  5
19F
100
AcDbEntity
  8
1
100
AcDbCircle
 10
157.514369
 20
-412.231299
 30
0.0
 40
6.0
100
AcDbArc
 50
180.0
 51
270.0
  0
ARC
  5
1A0
100
AcDbEntity
  8
1
100
AcDbCircle
 10
107.514369
 20
-412.231299
 30
0.0
 40
6.0
100
AcDbArc
 50
270.0
 51
0.0
  0
LINE
  5
1A1
100
AcDbEntity
  8
1
100
AcDbLine
 10
109.514369
 20
-481.56731
 30
0.0
 11
155.514369
 21
-481.56731
 31
0.0
  0
LINE
  5
1A2
100
AcDbEntity
  8
1
100
AcDbLine
 10
109.514369
 20
-484.56731
 30
0.0
 11
155.514369
 21
-484.56731
 31
0.0
  0
LINE
  5
1A3
100
AcDbEntity
  8
1
100
AcDbLine
 10
155.514369
 20
-480.76731
 30
0.0
 11
155.514369
 21
-484.56731
 31
0.0
  0
LINE
  5
1A4
100
AcDbEntity
  8
1
100
AcDbLine
 10
109.514369
 20
-480.76731
 30
0.0
 11
109.514369
 21
-484.56731
 31
0.0
  0
CIRCLE
  5
1A5
100
AcDbEntity
  8
1
100
AcDbCircle
 10
-338.885631
 20
-239.76731
 30
0.0
 40
183.5
  0
LINE
  5
1A6
100
AcDbEntity
  8
1
100
AcDbLine
 10
-160.494908
 20
380.766023
 30
0.0
 11
-160.494908
 21
406.766023
 31
0.0
  0
LINE
  5
1A7
100
AcDbEntity
  8
1
100
AcDbLine
 10
-159.363348
 20
379.48907
 30
0.0
 11
-159.363348
 21
408.042977
 31
0.0
  0
LINE
  5
1A8
100
AcDbEntity
  8
1
100
AcDbLine
 10
-204.545577
 20
380.766023
 30
0.0
 11
-204.545577
 21
406.766023
 31
0.0
  0
LINE
  5
1A9
100
AcDbEntity
  8
1
100
AcDbLine
 10
-210.414817
 20
380.766023
 30
0.0
 11
-210.414817
 21
406.766023
 31
0.0
  0
LINE
  5
1AA
100
AcDbEntity
  8
1
100
AcDbLine
 10
-198.545577
 20
412.766023
 30
0.0
 11
-166.494908
 21
412.766023
 31
0.0
  0
LINE
  5
1AB
100
AcDbEntity
  8
1
100
AcDbLine
 10
-198.545577
 20
374.766023
 30
0.0
 11
-166.494908
 21
374.766023
 31
0.0
  0
ARC
  5
1AC
100
AcDbEntity
  8
1
100
AcDbCircle
 10
-216.414817
 20
406.766023
 30
0.0
 40
6.0
100
AcDbArc
 50
0.0
 51
90.0
  0
ARC
  5
1AD
100
AcDbEntity
  8
1
100
AcDbCircle
 10
-216.414817
 20
380.766023
 30
0.0
 40
6.0
100
AcDbArc
 50
270.0
 51
360.0
  0
ARC
  5
1AE
100
AcDbEntity
  8
1
100
AcDbCircle
 10
-198.545577
 20
380.766023
 30
0.0
 40
6.0
100
AcDbArc
 50
180.0
 51
270.0
  0
ARC
  5
1AF
100
AcDbEntity
  8
1
100
AcDbCircle
 10
-198.545577
 20
406.766023
 30
0.0
 40
6.0
100
AcDbArc
 50
90.0
 51
180.0
  0
ARC
  5
1B0
100
AcDbEntity
  8
1
100
AcDbCircle
 10
-166.494908
 20
406.766023
 30
0.0
 40
6.0
100
AcDbArc
 50
0.0
 51
90.0
  0
ARC
  5
1B1
100
AcDbEntity
  8
1
100
AcDbCircle
 10
-166.494908
 20
380.766023
 30
0.0
 40
6.0
100
AcDbArc
 50
270.0
 51
360.0
  0
ARC
  5
1B2
100
AcDbEntity
  8
1
100
AcDbCircle
 10
-161.385631
 20
416.967269
 30
0.0
 40
6.0
100
AcDbArc
 50
311.953215
 51
360.0
  0
ARC
  5
1B3
100
AcDbEntity
  8
1
100
AcDbCircle
 10
-161.385631
 20
370.564778
 30
0.0
 40
6.0
100
AcDbArc
 50
0.0
 51
48.046785
  0
ARC
  5
1B4
100
AcDbEntity
  8
1
100
AcDbCircle
 10
-153.363348
 20
379.48907
 30
0.0
 40
6.0
100
AcDbArc
 50
180.0
 51
228.046785
  0
ARC
  5
1B5
100
AcDbEntity
  8
1
100
AcDbCircle
 10
-153.363348
 20
408.042977
 30
0.0
 40
6.0
100
AcDbArc
 50
131.953215
 51
180.0
  0
LINE
  5
1B6
100
AcDbEntity
  8
1
100
AcDbLine
 10
-230.899521
 20
384.244837
 30
0.0
 11
-230.899521
 21
403.28721
 31
0.0
  0
LINE
  5
1B7
100
AcDbEntity
  8
1
100
AcDbLine
 10
-204.501926
 20
407.488455
 30
0.0
 11
-179.648814
 21
407.488455
 31
0.0
  0
LINE
  5
1B8
100
AcDbEntity
  8
1
100
AcDbLine
 10
-204.501926
 20
380.043592
 30
0.0
 11
-179.648814
 21
380.043592
 31
0.0
  0
ARC
  5
1B9
100
AcDbEntity
  8
1
100
AcDbCircle
 10
-235.100766
 20
403.28721
 30
0.0
 40
4.201245
100
AcDbArc
 50
0.0
 51
90.0
  0
ARC
  5
1BA
100
AcDbEntity
  8
1
100
AcDbCircle
 10
-235.100766
 20
384.244837
 30
0.0
 40
4.201245
100
AcDbArc
 50
270.0
 51
0.0
  0
LINE
  5
1BB
100
AcDbEntity
  8
1
100
AcDbLine
 10
-175.447569
 20
384.244837
 30
0.0
 11
-175.447569
 21
403.28721
 31
0.0
  0
ARC
  5
1BC
100
AcDbEntity
  8
1
100
AcDbCircle
 10
-179.648814
 20
403.28721
 30
0.0
 40
4.201245
100
AcDbArc
 50
0.0
 51
90.0
  0
ARC
  5
1BD
100
AcDbEntity
  8
1
100
AcDbCircle
 10
-179.648814
 20
384.244837
 30
0.0
 40
4.201245
100
AcDbArc
 50
270.0
 51
360.0
  0
LINE
  5
1BE
100
AcDbEntity
  8
1
100
AcDbLine
 10
-517.276354
 20
380.766023
 30
0.0
 11
-517.276354
 21
406.766023
 31
0.0
  0
LINE
  5
1BF
100
AcDbEntity
  8
1
100
AcDbLine
 10
-518.407914
 20
379.48907
 30
0.0
 11
-518.407914
 21
408.042977
 31
0.0
  0
LINE
  5
1C0
100
AcDbEntity
  8
1
100
AcDbLine
 10
-473.225685
 20
380.766023
 30
0.0
 11
-473.225685
 21
406.766023
 31
0.0
  0
LINE
  5
1C1
100
AcDbEntity
  8
1
100
AcDbLine
 10
-467.356445
 20
380.766023
 30
0.0
 11
-467.356445
 21
406.766023
 31
0.0
  0
LINE
  5
1C2
100
AcDbEntity
  8
1
100
AcDbLine
 10
-479.225685
 20
412.766023
 30
0.0
 11
-511.276354
 21
412.766023
 31
0.0
  0
LINE
  5
1C3
100
AcDbEntity
  8
1
100
AcDbLine
 10
-479.225685
 20
374.766023
 30
0.0
 11
-511.276354
 21
374.766023
 31
0.0
  0
ARC
  5
1C4
100
AcDbEntity
  8
1
100
AcDbCircle
 10
-461.356445
 20
406.766023
 30
0.0
 40
6.0
100
AcDbArc
 50
90.0
 51
180.0
  0
ARC
  5
1C5
100
AcDbEntity
  8
1
100
AcDbCircle
 10
-461.356445
 20
380.766023
 30
0.0
 40
6.0
100
AcDbArc
 50
180.0
 51
270.0
  0
ARC
  5
1C6
100
AcDbEntity
  8
1
100
AcDbCircle
 10
-479.225685
 20
380.766023
 30
0.0
 40
6.0
100
AcDbArc
 50
270.0
 51
360.0
  0
ARC
  5
1C7
100
AcDbEntity
  8
1
100
AcDbCircle
 10
-479.225685
 20
406.766023
 30
0.0
 40
6.0
100
AcDbArc
 50
0.0
 51
90.0
  0
ARC
  5
1C8
100
AcDbEntity
  8
1
100
AcDbCircle
 10
-511.276354
 20
406.766023
 30
0.0
 40
6.0
100
AcDbArc
 50
90.0
 51
180.0
  0
ARC
  5
1C9
100
AcDbEntity
  8
1
100
AcDbCircle
 10
-511.276354
 20
380.766023
 30
0.0
 40
6.0
100
AcDbArc
 50
180.0
 51
270.0
  0
ARC
  5
1CA
100
AcDbEntity
  8
1
100
AcDbCircle
 10
-516.385631
 20
416.967269
 30
0.0
 40
6.0
100
AcDbArc
 50
180.0
 51
228.046785
  0
ARC
  5
1CB
100
AcDbEntity
  8
1
100
AcDbCircle
 10
-516.385631
 20
370.564778
 30
0.0
 40
6.0
100
AcDbArc
 50
131.953215
 51
180.0
  0
ARC
  5
1CC
100
AcDbEntity
  8
1
100
AcDbCircle
 10
-524.407914
 20
379.48907
 30
0.0
 40
6.0
100
AcDbArc
 50
311.953215
 51
360.0
  0
ARC
  5
1CD
100
AcDbEntity
  8
1
100
AcDbCircle
 10
-524.407914
 20
408.042977
 30
0.0
 40
6.0
100
AcDbArc
 50
0.0
 51
48.046785
  0
LINE
  5
1CE
100
AcDbEntity
  8
1
100
AcDbLine
 10
-446.871741
 20
384.244837
 30
0.0
 11
-446.871741
 21
403.28721
 31
0.0
  0
LINE
  5
1CF
100
AcDbEntity
  8
1
100
AcDbLine
 10
-473.269336
 20
407.488455
 30
0.0
 11
-498.122447
 21
407.488455
 31
0.0
  0
LINE
  5
1D0
100
AcDbEntity
  8
1
100
AcDbLine
 10
-473.269336
 20
380.043592
 30
0.0
 11
-498.122447
 21
380.043592
 31
0.0
  0
ARC
  5
1D1
100
AcDbEntity
  8
1
100
AcDbCircle
 10
-442.670496
 20
403.28721
 30
0.0
 40
4.201245
100
AcDbArc
 50
90.0
 51
180.0
  0
ARC
  5
1D2
100
AcDbEntity
  8
1
100
AcDbCircle
 10
-442.670496
 20
384.244837
 30
0.0
 40
4.201245
100
AcDbArc
 50
180.0
 51
270.0
  0
LINE
  5
1D3
100
AcDbEntity
  8
1
100
AcDbLine
 10
-502.323693
 20
384.244837
 30
0.0
 11
-502.323693
 21
403.28721
 31
0.0
  0
ARC
  5
1D4
100
AcDbEntity
  8
1
100
AcDbCircle
 10
-498.122447
 20
403.28721
 30
0.0
 40
4.201245
100
AcDbArc
 50
90.0
 51
180.0
  0
ARC
  5
1D5
100
AcDbEntity
  8
1
100
AcDbCircle
 10
-498.122447
 20
384.244837
 30
0.0
 40
4.201245
100
AcDbArc
 50
180.0
 51
270.0
  0
CIRCLE
  5
1D6
100
AcDbEntity
  8
1
100
AcDbCircle
 10
-338.885631
 20
-239.76731
 30
0.0
 40
157.0
  0
CIRCLE
  5
1D7
100
AcDbEntity
  8
1
100
AcDbCircle
 10
-338.885631
 20
-239.76731
 30
0.0
 40
151.0
  0
LINE
  5
1D8
100
AcDbEntity
  8
1
100
AcDbLine
 10
-405.240736
 20
434.766023
 30
0.0
 11
-399.497104
 21
434.766023
 31
0.0
  0
LINE
  5
1D9
100
AcDbEntity
  8
1
100
AcDbLine
 10
-400.139282
 20
432.766023
 30
0.0
 11
-406.435612
 21
432.766023
 31
0.0
  0
LINE
  5
1DA
100
AcDbEntity
  8
1
100
AcDbLine
 10
-400.407757
 20
431.766023
 30
0.0
 11
-407.003176
 21
431.766023
 31
0.0
  0
LINE
  5
1DB
100
AcDbEntity
  8
1
100
AcDbLine
 10
-512.354502
 20
434.766023
 30
0.0
 11
-430.094183
 21
434.766023
 31
0.0
  0
LINE
  5
1DC
100
AcDbEntity
  8
1
  6
DASHED
100
AcDbLine
 10
-430.094183
 20
434.766023
 30
0.0
 11
-405.240736
 21
434.766023
 31
0.0
  0
LINE
  5
1DD
100
AcDbEntity
  8
1
  6
DASHED
100
AcDbLine
 10
-406.435612
 20
432.766023
 30
0.0
 11
-430.967117
 21
432.766023
 31
0.0
  0
LINE
  5
1DE
100
AcDbEntity
  8
1
100
AcDbLine
 10
-430.967117
 20
432.766023
 30
0.0
 11
-521.385631
 21
432.766023
 31
0.0
  0
LINE
  5
1DF
100
AcDbEntity
  8
1
  6
DASHED
100
AcDbLine
 10
-407.003176
 20
431.766023
 30
0.0
 11
-431.38428
 21
431.766023
 31
0.0
  0
LINE
  5
1E0
100
AcDbEntity
  8
1
100
AcDbLine
 10
-431.38428
 20
431.766023
 30
0.0
 11
-522.385631
 21
431.766023
 31
0.0
  0
LINE
  5
1E1
100
AcDbEntity
  8
1
100
AcDbLine
 10
-401.385631
 20
412.766023
 30
0.0
 11
-414.536143
 21
412.766023
 31
0.0
  0
LINE
  5
1E2
100
AcDbEntity
  8
1
100
AcDbLine
 10
-401.385631
 20
407.488455
 30
0.0
 11
-415.669059
 21
407.488455
 31
0.0
  0
LINE
  5
1E3
100
AcDbEntity
  8
1
  6
DASHED
100
AcDbLine
 10
-414.536143
 20
412.766023
 30
0.0
 11
-437.06404
 21
412.766023
 31
0.0
  0
LINE
  5
1E4
100
AcDbEntity
  8
1
100
AcDbLine
 10
-437.06404
 20
412.766023
 30
0.0
 11
-461.356445
 21
412.766023
 31
0.0
  0
LINE
  5
1E5
100
AcDbEntity
  8
1
  6
DASHED
100
AcDbLine
 10
-415.669059
 20
407.488455
 30
0.0
 11
-437.939631
 21
407.488455
 31
0.0
  0
LINE
  5
1E6
100
AcDbEntity
  8
1
100
AcDbLine
 10
-437.939631
 20
407.488455
 30
0.0
 11
-442.670496
 21
407.488455
 31
0.0
  0
LINE
  5
1E7
100
AcDbEntity
  8
1
100
AcDbLine
 10
-401.385631
 20
380.043592
 30
0.0
 11
-415.669059
 21
380.043592
 31
0.0
  0
LINE
  5
1E8
100
AcDbEntity
  8
1
100
AcDbLine
 10
-401.385631
 20
374.766023
 30
0.0
 11
-414.536143
 21
374.766023
 31
0.0
  0
LINE
  5
1E9
100
AcDbEntity
  8
1
  6
DASHED
100
AcDbLine
 10
-415.669059
 20
380.043592
 30
0.0
 11
-437.939631
 21
380.043592
 31
0.0
  0
LINE
  5
1EA
100
AcDbEntity
  8
1
100
AcDbLine
 10
-437.939631
 20
380.043592
 30
0.0
 11
-442.670496
 21
380.043592
 31
0.0
  0
LINE
  5
1EB
100
AcDbEntity
  8
1
  6
DASHED
100
AcDbLine
 10
-414.536143
 20
374.766023
 30
0.0
 11
-437.06404
 21
374.766023
 31
0.0
  0
LINE
  5
1EC
100
AcDbEntity
  8
1
100
AcDbLine
 10
-437.06404
 20
374.766023
 30
0.0
 11
-461.356445
 21
374.766023
 31
0.0
  0
LINE
  5
1ED
100
AcDbEntity
  8
1
  6
DASHED
100
AcDbLine
 10
-400.407757
 20
355.766023
 30
0.0
 11
-431.38428
 21
355.766023
 31
0.0
  0
LINE
  5
1EE
100
AcDbEntity
  8
1
100
AcDbLine
 10
-431.38428
 20
355.766023
 30
0.0
 11
-522.385631
 21
355.766023
 31
0.0
  0
LINE
  5
1EF
100
AcDbEntity
  8
1
  6
DASHED
100
AcDbLine
 10
-400.139282
 20
354.766023
 30
0.0
 11
-430.967117
 21
354.766023
 31
0.0
  0
LINE
  5
1F0
100
AcDbEntity
  8
1
100
AcDbLine
 10
-430.967117
 20
354.766023
 30
0.0
 11
-521.385631
 21
354.766023
 31
0.0
  0
LINE
  5
1F1
100
AcDbEntity
  8
1
100
AcDbLine
 10
-512.354502
 20
352.766023
 30
0.0
 11
-430.094183
 21
352.766023
 31
0.0
  0
LINE
  5
1F2
100
AcDbEntity
  8
1
  6
DASHED
100
AcDbLine
 10
-430.094183
 20
352.766023
 30
0.0
 11
-399.497104
 21
352.766023
 31
0.0
  0
LINE
  5
1F3
100
AcDbEntity
  8
1
100
AcDbLine
 10
-247.677079
 20
434.766023
 30
0.0
 11
-165.41676
 21
434.766023
 31
0.0
  0
LINE
  5
1F4
100
AcDbEntity
  8
1
100
AcDbLine
 10
-246.804145
 20
432.766023
 30
0.0
 11
-156.385631
 21
432.766023
 31
0.0
  0
LINE
  5
1F5
100
AcDbEntity
  8
1
100
AcDbLine
 10
-246.386982
 20
431.766023
 30
0.0
 11
-155.385631
 21
431.766023
 31
0.0
  0
LINE
  5
1F6
100
AcDbEntity
  8
1
100
AcDbLine
 10
-278.274158
 20
434.766023
 30
0.0
 11
-272.530526
 21
434.766023
 31
0.0
  0
LINE
  5
1F7
100
AcDbEntity
  8
1
  6
DASHED
100
AcDbLine
 10
-272.530526
 20
434.766023
 30
0.0
 11
-247.677079
 21
434.766023
 31
0.0
  0
LINE
  5
1F8
100
AcDbEntity
  8
1
100
AcDbLine
 10
-277.631979
 20
432.766023
 30
0.0
 11
-271.335649
 21
432.766023
 31
0.0
  0
LINE
  5
1F9
100
AcDbEntity
  8
1
  6
DASHED
100
AcDbLine
 10
-271.335649
 20
432.766023
 30
0.0
 11
-246.804145
 21
432.766023
 31
0.0
  0
LINE
  5
1FA
100
AcDbEntity
  8
1
100
AcDbLine
 10
-277.363505
 20
431.766023
 30
0.0
 11
-270.768085
 21
431.766023
 31
0.0
  0
LINE
  5
1FB
100
AcDbEntity
  8
1
  6
DASHED
100
AcDbLine
 10
-270.768085
 20
431.766023
 30
0.0
 11
-246.386982
 21
431.766023
 31
0.0
  0
LINE
  5
1FC
100
AcDbEntity
  8
1
100
AcDbLine
 10
-276.385631
 20
412.766023
 30
0.0
 11
-263.235119
 21
412.766023
 31
0.0
  0
LINE
  5
1FD
100
AcDbEntity
  8
1
100
AcDbLine
 10
-276.385631
 20
407.488455
 30
0.0
 11
-262.102203
 21
407.488455
 31
0.0
  0
LINE
  5
1FE
100
AcDbEntity
  8
1
  6
DASHED
100
AcDbLine
 10
-262.102203
 20
407.488455
 30
0.0
 11
-239.831631
 21
407.488455
 31
0.0
  0
LINE
  5
1FF
100
AcDbEntity
  8
1
100
AcDbLine
 10
-239.831631
 20
407.488455
 30
0.0
 11
-235.100766
 21
407.488455
 31
0.0
  0
LINE
  5
200
100
AcDbEntity
  8
1
  6
DASHED
100
AcDbLine
 10
-263.235119
 20
412.766023
 30
0.0
 11
-240.707222
 21
412.766023
 31
0.0
  0
LINE
  5
201
100
AcDbEntity
  8
1
100
AcDbLine
 10
-240.707222
 20
412.766023
 30
0.0
 11
-216.414817
 21
412.766023
 31
0.0
  0
LINE
  5
202
100
AcDbEntity
  8
1
100
AcDbLine
 10
-276.385631
 20
380.043592
 30
0.0
 11
-262.102203
 21
380.043592
 31
0.0
  0
LINE
  5
203
100
AcDbEntity
  8
1
100
AcDbLine
 10
-276.385631
 20
374.766023
 30
0.0
 11
-263.235119
 21
374.766023
 31
0.0
  0
LINE
  5
204
100
AcDbEntity
  8
1
  6
DASHED
100
AcDbLine
 10
-277.363505
 20
355.766023
 30
0.0
 11
-246.386982
 21
355.766023
 31
0.0
  0
LINE
  5
205
100
AcDbEntity
  8
1
100
AcDbLine
 10
-246.386982
 20
355.766023
 30
0.0
 11
-155.385631
 21
355.766023
 31
0.0
  0
LINE
  5
206
100
AcDbEntity
  8
1
  6
DASHED
100
AcDbLine
 10
-277.631979
 20
354.766023
 30
0.0
 11
-246.804145
 21
354.766023
 31
0.0
  0
LINE
  5
207
100
AcDbEntity
  8
1
100
AcDbLine
 10
-246.804145
 20
354.766023
 30
0.0
 11
-156.385631
 21
354.766023
 31
0.0
  0
LINE
  5
208
100
AcDbEntity
  8
1
  6
DASHED
100
AcDbLine
 10
-278.274158
 20
352.766023
 30
0.0
 11
-247.677079
 21
352.766023
 31
0.0
  0
LINE
  5
209
100
AcDbEntity
  8
1
100
AcDbLine
 10
-247.677079
 20
352.766023
 30
0.0
 11
-165.41676
 21
352.766023
 31
0.0
  0
LINE
  5
20A
100
AcDbEntity
  8
1
  6
DASHED
100
AcDbLine
 10
-262.102203
 20
380.043592
 30
0.0
 11
-239.831631
 21
380.043592
 31
0.0
  0
LINE
  5
20B
100
AcDbEntity
  8
1
100
AcDbLine
 10
-239.831631
 20
380.043592
 30
0.0
 11
-235.100766
 21
380.043592
 31
0.0
  0
LINE
  5
20C
100
AcDbEntity
  8
1
  6
DASHED
100
AcDbLine
 10
-263.235119
 20
374.766023
 30
0.0
 11
-240.707222
 21
374.766023
 31
0.0
  0
LINE
  5
20D
100
AcDbEntity
  8
1
100
AcDbLine
 10
-240.707222
 20
374.766023
 30
0.0
 11
-216.414817
 21
374.766023
 31
0.0
  0
LINE
  5
20E
100
AcDbEntity
  8
1
  6
CENTER
 62
     2
100
AcDbLine
 10
-338.885631
 20
247.902877
 30
0.0
 11
-338.885631
 21
-506.519677
 31
0.0
  0
LINE
  5
20F
100
AcDbEntity
  8
1
  6
CENTER
 62
     2
100
AcDbLine
 10
132.514369
 20
247.902877
 30
0.0
 11
132.514369
 21
-506.519677
 31
0.0
  0
ARC
  5
210
100
AcDbEntity
  8
1
100
AcDbCircle
 10
-338.885631
 20
-239.76731
 30
0.0
 40
148.6
100
AcDbArc
 50
120.006915
 51
180.0
  0
ARC
  5
211
100
AcDbEntity
  8
1
100
AcDbCircle
 10
-338.885631
 20
-239.76731
 30
0.0
 40
148.6
100
AcDbArc
 50
0.0
 51
59.993085
  0
ARC
  5
212
100
AcDbEntity
  8
1
100
AcDbCircle
 10
-338.885631
 20
-234.36731
 30
0.0
 40
153.3
100
AcDbArc
 50
241.002472
 51
258.837729
  0
ARC
  5
213
100
AcDbEntity
  8
1
100
AcDbCircle
 10
-338.885631
 20
-239.76731
 30
0.0
 40
148.6
100
AcDbArc
 50
180.0
 51
239.993085
  0
LINE
  5
214
100
AcDbEntity
  8
1
100
AcDbLine
 10
-338.885631
 20
-384.76731
 30
0.0
 11
-368.562731
 21
-384.76731
 31
0.0
  0
LINE
  5
215
100
AcDbEntity
  8
1
100
AcDbLine
 10
-338.885631
 20
-384.76731
 30
0.0
 11
-309.208536
 21
-384.76731
 31
0.0
  0
ARC
  5
216
100
AcDbEntity
  8
1
100
AcDbCircle
 10
-338.885631
 20
-234.36731
 30
0.0
 40
153.3
100
AcDbArc
 50
281.162271
 51
298.997528
  0
ARC
  5
217
100
AcDbEntity
  8
1
100
AcDbCircle
 10
-338.885631
 20
-239.76731
 30
0.0
 40
148.6
100
AcDbArc
 50
300.006915
 51
360.0
  0
LINE
  5
218
100
AcDbEntity
  8
1
100
AcDbLine
 10
-347.885626
 20
-233.26731
 30
0.0
 11
-207.186137
 21
-233.26731
 31
0.0
  0
LINE
  5
219
100
AcDbEntity
  8
1
100
AcDbLine
 10
-347.885626
 20
-246.26731
 30
0.0
 11
-207.186137
 21
-246.26731
 31
0.0
  0
ARC
  5
21A
100
AcDbEntity
  8
1
100
AcDbCircle
 10
-207.186137
 20
-235.26731
 30
0.0
 40
2.0
100
AcDbArc
 50
1.956961
 51
90.0
  0
ARC
  5
21B
100
AcDbEntity
  8
1
100
AcDbCircle
 10
-338.885631
 20
-239.76731
 30
0.0
 40
133.776351
100
AcDbArc
 50
358.043039
 51
1.956961
  0
ARC
  5
21C
100
AcDbEntity
  8
1
100
AcDbCircle
 10
-207.186137
 20
-244.26731
 30
0.0
 40
2.0
100
AcDbArc
 50
270.0
 51
358.043039
  0
ARC
  5
21D
100
AcDbEntity
  8
1
100
AcDbCircle
 10
-338.885631
 20
-239.76731
 30
0.0
 40
138.0
100
AcDbArc
 50
357.05011
 51
2.95306
  0
LINE
  5
21E
100
AcDbEntity
  8
1
100
AcDbLine
 10
-355.80093
 20
-179.507008
 30
0.0
 11
-355.80093
 21
-227.661435
 31
0.0
  0
LINE
  5
21F
100
AcDbEntity
  8
1
100
AcDbLine
 10
-346.385631
 20
-181.28182
 30
0.0
 11
-346.385631
 21
-229.750981
 31
0.0
  0
LINE
  5
220
100
AcDbEntity
  8
1
100
AcDbLine
 10
-331.385631
 20
-182.880039
 30
0.0
 11
-331.385631
 21
-229.750981
 31
0.0
  0
LINE
  5
221
100
AcDbEntity
  8
1
100
AcDbLine
 10
-321.970331
 20
-185.847321
 30
0.0
 11
-321.970331
 21
-227.661435
 31
0.0
  0
LINE
  5
222
100
AcDbEntity
  8
1
100
AcDbLine
 10
-333.958346
 20
-246.26731
 30
0.0
 11
-333.958346
 21
-233.26731
 31
0.0
  0
LINE
  5
223
100
AcDbEntity
  8
1
100
AcDbLine
 10
-349.885626
 20
-244.26731
 30
0.0
 11
-349.885626
 21
-235.26731
 31
0.0
  0
LINE
  5
224
100
AcDbEntity
  8
1
100
AcDbLine
 10
-361.66813
 20
-245.871959
 30
0.0
 11
-361.66813
 21
-233.662661
 31
0.0
  0
ARC
  5
225
100
AcDbEntity
  8
1
100
AcDbCircle
 10
-347.885626
 20
-235.26731
 30
0.0
 40
2.0
100
AcDbArc
 50
90.0
 51
180.0
  0
ARC
  5
226
100
AcDbEntity
  8
1
100
AcDbCircle
 10
-347.885626
 20
-244.26731
 30
0.0
 40
2.0
100
AcDbArc
 50
180.0
 51
270.0
  0
LINE
  5
227
100
AcDbEntity
  8
1
100
AcDbLine
 10
-203.081906
 20
-230.760951
 30
0.0
 11
-338.885631
 21
-231.825513
 31
0.0
  0
ARC
  5
228
100
AcDbEntity
  8
1
100
AcDbCircle
 10
-203.066229
 20
-232.760889
 30
0.0
 40
2.0
100
AcDbArc
 50
2.95306
 51
90.449131
  0
LINE
  5
229
100
AcDbEntity
  8
1
100
AcDbLine
 10
-203.081906
 20
-248.773669
 30
0.0
 11
-338.885631
 21
-247.709107
 31
0.0
  0
ARC
  5
22A
100
AcDbEntity
  8
1
100
AcDbCircle
 10
-203.066229
 20
-246.773731
 30
0.0
 40
2.0
100
AcDbArc
 50
269.550869
 51
357.04694
  0
LINE
  5
22B
100
AcDbEntity
  8
1
100
AcDbLine
 10
-205.267286
 20
-233.26731
 30
0.0
 11
-202.547072
 21
-231.588999
 31
0.0
  0
LINE
  5
22C
100
AcDbEntity
  8
1
100
AcDbLine
 10
-205.267286
 20
-246.26731
 30
0.0
 11
-202.547072
 21
-247.945621
 31
0.0
  0
LINE
  5
22D
100
AcDbEntity
  8
1
100
AcDbLine
 10
-338.885631
 20
-231.825513
 30
0.0
 11
-359.832285
 21
-231.661312
 31
0.0
  0
LINE
  5
22E
100
AcDbEntity
  8
1
100
AcDbLine
 10
-359.652453
 20
-247.871898
 30
0.0
 11
-338.885631
 21
-247.709107
 31
0.0
  0
ARC
  5
22F
100
AcDbEntity
  8
1
100
AcDbCircle
 10
-359.66813
 20
-233.662661
 30
0.0
 40
2.0
100
AcDbArc
 50
89.550869
 51
180.0
  0
ARC
  5
230
100
AcDbEntity
  8
1
100
AcDbCircle
 10
-359.66813
 20
-245.871959
 30
0.0
 40
2.0
100
AcDbArc
 50
180.0
 51
270.449131
  0
LINE
  5
231
100
AcDbEntity
  8
1
100
AcDbLine
 10
-359.393572
 20
-231.95973
 30
0.0
 11
-349.885626
 21
-233.26731
 31
0.0
  0
LINE
  5
232
100
AcDbEntity
  8
1
100
AcDbLine
 10
-349.885626
 20
-246.26731
 30
0.0
 11
-359.391865
 21
-247.574655
 31
0.0
  0
ARC
  5
233
100
AcDbEntity
  8
1
100
AcDbCircle
 10
-317.970331
 20
-227.661435
 30
0.0
 40
4.0
100
AcDbArc
 50
180.0
 51
270.449131
  0
ARC
  5
234
100
AcDbEntity
  8
1
100
AcDbCircle
 10
-359.80093
 20
-227.661435
 30
0.0
 40
4.0
100
AcDbArc
 50
269.550869
 51
360.0
  0
ARC
  5
235
100
AcDbEntity
  8
1
100
AcDbCircle
 10
-348.385631
 20
-229.750981
 30
0.0
 40
2.0
100
AcDbArc
 50
269.550869
 51
360.0
  0
ARC
  5
236
100
AcDbEntity
  8
1
100
AcDbCircle
 10
-329.385631
 20
-229.750981
 30
0.0
 40
2.0
100
AcDbArc
 50
180.0
 51
270.449131
  0
LINE
  5
237
100
AcDbEntity
  8
1
100
AcDbLine
 10
-338.931499
 20
-302.246494
 30
0.0
 11
-218.840181
 21
-291.739869
 31
0.0
  0
LINE
  5
238
100
AcDbEntity
  8
1
100
AcDbLine
 10
-323.746454
 20
-313.967633
 30
0.0
 11
-223.194755
 21
-305.170502
 31
0.0
  0
LINE
  5
239
100
AcDbEntity
  8
1
100
AcDbLine
 10
-219.590192
 20
-307.393316
 30
0.0
 11
-307.65737
 21
-315.415842
 31
0.0
  0
LINE
  5
23A
100
AcDbEntity
  8
1
100
AcDbLine
 10
-350.673992
 20
-300.452353
 30
0.0
 11
-213.017914
 21
-288.873159
 31
0.0
  0
ARC
  5
23B
100
AcDbEntity
  8
1
100
AcDbCircle
 10
-223.369066
 20
-303.178113
 30
0.0
 40
2.0
100
AcDbArc
 50
274.999998
 51
331.236183
  0
ARC
  5
23C
100
AcDbEntity
  8
1
100
AcDbCircle
 10
-338.885631
 20
-239.76731
 30
0.0
 40
133.776351
100
AcDbArc
 50
331.236183
 51
335.825364
  0
ARC
  5
23D
100
AcDbEntity
  8
1
100
AcDbCircle
 10
-218.66587
 20
-293.732258
 30
0.0
 40
2.0
100
AcDbArc
 50
335.825364
 51
94.999998
  0
ARC
  5
23E
100
AcDbEntity
  8
1
100
AcDbCircle
 10
-219.771632
 20
-305.401563
 30
0.0
 40
2.0
100
AcDbArc
 50
275.205023
 51
331.144335
  0
ARC
  5
23F
100
AcDbEntity
  8
1
100
AcDbCircle
 10
-338.885631
 20
-239.76731
 30
0.0
 40
138.0
100
AcDbArc
 50
331.144335
 51
337.930775
  0
ARC
  5
240
100
AcDbEntity
  8
1
100
AcDbCircle
 10
-212.850273
 20
-290.866121
 30
0.0
 40
2.0
100
AcDbArc
 50
337.930775
 51
94.808221
  0
LINE
  5
241
100
AcDbEntity
  8
1
100
AcDbLine
 10
-222.135252
 20
-305.077808
 30
0.0
 11
-219.642173
 21
-306.615874
 31
0.0
  0
LINE
  5
242
100
AcDbEntity
  8
1
100
AcDbLine
 10
-216.201911
 20
-291.80124
 30
0.0
 11
-211.915875
 21
-289.655257
 31
0.0
  0
ARC
  5
243
100
AcDbEntity
  8
1
100
AcDbCircle
 10
-322.700586
 20
-325.921969
 30
0.0
 40
12.0
100
AcDbArc
 50
94.999998
 51
180.0
  0
LINE
  5
244
100
AcDbEntity
  8
1
100
AcDbLine
 10
-349.88563
 20
-367.76731
 30
0.0
 11
-349.88563
 21
-314.20083
 31
0.0
  0
ARC
  5
245
100
AcDbEntity
  8
1
100
AcDbCircle
 10
-337.88563
 20
-314.20083
 30
0.0
 40
12.0
100
AcDbArc
 50
94.999998
 51
180.0
  0
LINE
  5
246
100
AcDbEntity
  8
1
100
AcDbLine
 10
-361.668142
 20
-367.76731
 30
0.0
 11
-361.668142
 21
-312.410123
 31
0.0
  0
ARC
  5
247
100
AcDbEntity
  8
1
100
AcDbCircle
 10
-349.668142
 20
-312.410123
 30
0.0
 40
12.0
100
AcDbArc
 50
94.808221
 51
180.0
  0
LINE
  5
248
100
AcDbEntity
  8
1
100
AcDbLine
 10
-318.568732
 20
-367.76731
 30
0.0
 11
-318.568732
 21
-327.366359
 31
0.0
  0
ARC
  5
249
100
AcDbEntity
  8
1
100
AcDbCircle
 10
-306.568732
 20
-327.366359
 30
0.0
 40
12.0
100
AcDbArc
 50
95.205023
 51
180.0
  0
LINE
  5
24A
100
AcDbEntity
  8
1
100
AcDbLine
 10
-355.80093
 20
-300.027611
 30
0.0
 11
-355.80093
 21
-251.873185
 31
0.0
  0
LINE
  5
24B
100
AcDbEntity
  8
1
100
AcDbLine
 10
-346.385631
 20
-298.2528
 30
0.0
 11
-346.385631
 21
-249.783639
 31
0.0
  0
LINE
  5
24C
100
AcDbEntity
  8
1
100
AcDbLine
 10
-331.385631
 20
-296.65458
 30
0.0
 11
-331.385631
 21
-249.783639
 31
0.0
  0
LINE
  5
24D
100
AcDbEntity
  8
1
100
AcDbLine
 10
-321.970331
 20
-293.687298
 30
0.0
 11
-321.970331
 21
-251.873185
 31
0.0
  0
ARC
  5
24E
100
AcDbEntity
  8
1
100
AcDbCircle
 10
-317.970331
 20
-293.687298
 30
0.0
 40
4.0
100
AcDbArc
 50
180.0
 51
274.808221
  0
ARC
  5
24F
100
AcDbEntity
  8
1
100
AcDbCircle
 10
-359.80093
 20
-300.027611
 30
0.0
 40
4.0
100
AcDbArc
 50
309.293959
 51
360.0
  0
ARC
  5
250
100
AcDbEntity
  8
1
100
AcDbCircle
 10
-329.385631
 20
-296.65458
 30
0.0
 40
2.0
100
AcDbArc
 50
180.0
 51
274.808221
  0
ARC
  5
251
100
AcDbEntity
  8
1
100
AcDbCircle
 10
-348.385631
 20
-298.2528
 30
0.0
 40
2.0
100
AcDbArc
 50
274.808221
 51
360.0
  0
ARC
  5
252
100
AcDbEntity
  8
1
100
AcDbCircle
 10
-317.970331
 20
-251.873185
 30
0.0
 40
4.0
100
AcDbArc
 50
89.550869
 51
180.0
  0
ARC
  5
253
100
AcDbEntity
  8
1
100
AcDbCircle
 10
-359.80093
 20
-251.873185
 30
0.0
 40
4.0
100
AcDbArc
 50
0.0
 51
90.449131
  0
ARC
  5
254
100
AcDbEntity
  8
1
100
AcDbCircle
 10
-348.385631
 20
-249.783639
 30
0.0
 40
2.0
100
AcDbArc
 50
0.0
 51
90.449131
  0
ARC
  5
255
100
AcDbEntity
  8
1
100
AcDbCircle
 10
-329.385631
 20
-249.783639
 30
0.0
 40
2.0
100
AcDbArc
 50
89.550869
 51
180.0
  0
LINE
  5
256
100
AcDbEntity
  8
1
100
AcDbLine
 10
-308.292044
 20
-369.76731
 30
0.0
 11
-369.303884
 21
-369.76731
 31
0.0
  0
ARC
  5
257
100
AcDbEntity
  8
1
100
AcDbCircle
 10
-316.568732
 20
-367.76731
 30
0.0
 40
2.0
100
AcDbArc
 50
180.0
 51
270.0
  0
ARC
  5
258
100
AcDbEntity
  8
1
100
AcDbCircle
 10
-363.668142
 20
-367.76731
 30
0.0
 40
2.0
100
AcDbArc
 50
270.0
 51
360.0
  0
ARC
  5
259
100
AcDbEntity
  8
1
100
AcDbCircle
 10
-351.88563
 20
-367.76731
 30
0.0
 40
2.0
100
AcDbArc
 50
270.0
 51
0.0
  0
LINE
  5
25A
100
AcDbEntity
  8
1
100
AcDbLine
 10
-374.288171
 20
-381.362726
 30
0.0
 11
-374.288171
 21
-371.76731
 31
0.0
  0
LINE
  5
25B
100
AcDbEntity
  8
1
100
AcDbLine
 10
-363.231717
 20
-384.103513
 30
0.0
 11
-363.231717
 21
-374.329981
 31
0.0
  0
LINE
  5
25C
100
AcDbEntity
  8
1
100
AcDbLine
 10
-303.483096
 20
-381.783243
 30
0.0
 11
-303.483096
 21
-371.76731
 31
0.0
  0
LINE
  5
25D
100
AcDbEntity
  8
1
100
AcDbLine
 10
-314.539545
 20
-384.103513
 30
0.0
 11
-314.539545
 21
-374.329981
 31
0.0
  0
ARC
  5
25E
100
AcDbEntity
  8
1
100
AcDbCircle
 10
-338.885633
 20
-222.660207
 30
0.0
 40
151.307103
100
AcDbArc
 50
256.468611
 51
283.531389
  0
ARC
  5
25F
100
AcDbEntity
  8
1
100
AcDbCircle
 10
-361.231717
 20
-374.329981
 30
0.0
 40
2.0
100
AcDbArc
 50
81.618693
 51
180.0
  0
ARC
  5
260
100
AcDbEntity
  8
1
100
AcDbCircle
 10
-316.539545
 20
-374.329981
 30
0.0
 40
2.0
100
AcDbArc
 50
0.0
 51
98.381307
  0
POINT
  5
261
100
AcDbEntity
  8
1
100
AcDbPoint
 10
-338.885631
 20
-239.76731
 30
0.0
  0
ARC
  5
262
100
AcDbEntity
  8
1
100
AcDbCircle
 10
-338.885631
 20
-245.16731
 30
0.0
 40
153.3
100
AcDbArc
 50
101.162271
 51
118.997528
  0
LINE
  5
263
100
AcDbEntity
  8
1
100
AcDbLine
 10
-338.885631
 20
-94.76731
 30
0.0
 11
-368.562731
 21
-94.76731
 31
0.0
  0
ARC
  5
264
100
AcDbEntity
  8
1
100
AcDbCircle
 10
-338.885631
 20
-245.16731
 30
0.0
 40
153.3
100
AcDbArc
 50
61.002472
 51
78.837729
  0
LINE
  5
265
100
AcDbEntity
  8
1
100
AcDbLine
 10
-338.885631
 20
-94.76731
 30
0.0
 11
-309.208536
 21
-94.76731
 31
0.0
  0
LINE
  5
266
100
AcDbEntity
  8
1
100
AcDbLine
 10
-338.931499
 20
-177.288126
 30
0.0
 11
-218.840181
 21
-187.794751
 31
0.0
  0
LINE
  5
267
100
AcDbEntity
  8
1
100
AcDbLine
 10
-323.746454
 20
-165.566987
 30
0.0
 11
-223.194755
 21
-174.364117
 31
0.0
  0
LINE
  5
268
100
AcDbEntity
  8
1
100
AcDbLine
 10
-219.590192
 20
-172.141304
 30
0.0
 11
-307.65737
 21
-164.118778
 31
0.0
  0
LINE
  5
269
100
AcDbEntity
  8
1
100
AcDbLine
 10
-350.673992
 20
-179.082267
 30
0.0
 11
-213.017914
 21
-190.66146
 31
0.0
  0
ARC
  5
26A
100
AcDbEntity
  8
1
100
AcDbCircle
 10
-223.369066
 20
-176.356507
 30
0.0
 40
2.0
100
AcDbArc
 50
28.763817
 51
85.000002
  0
ARC
  5
26B
100
AcDbEntity
  8
1
100
AcDbCircle
 10
-338.885631
 20
-239.76731
 30
0.0
 40
133.776351
100
AcDbArc
 50
24.174636
 51
28.763817
  0
ARC
  5
26C
100
AcDbEntity
  8
1
100
AcDbCircle
 10
-218.66587
 20
-185.802362
 30
0.0
 40
2.0
100
AcDbArc
 50
265.000002
 51
24.174636
  0
ARC
  5
26D
100
AcDbEntity
  8
1
100
AcDbCircle
 10
-219.771632
 20
-174.133056
 30
0.0
 40
2.0
100
AcDbArc
 50
28.855665
 51
84.794977
  0
ARC
  5
26E
100
AcDbEntity
  8
1
100
AcDbCircle
 10
-338.885631
 20
-239.76731
 30
0.0
 40
138.0
100
AcDbArc
 50
22.069225
 51
28.855665
  0
ARC
  5
26F
100
AcDbEntity
  8
1
100
AcDbCircle
 10
-212.850273
 20
-188.668499
 30
0.0
 40
2.0
100
AcDbArc
 50
265.191779
 51
22.069225
  0
LINE
  5
270
100
AcDbEntity
  8
1
100
AcDbLine
 10
-222.135252
 20
-174.456812
 30
0.0
 11
-219.642173
 21
-172.918746
 31
0.0
  0
LINE
  5
271
100
AcDbEntity
  8
1
100
AcDbLine
 10
-216.201911
 20
-187.73338
 30
0.0
 11
-211.915875
 21
-189.879363
 31
0.0
  0
ARC
  5
272
100
AcDbEntity
  8
1
100
AcDbCircle
 10
-322.700586
 20
-153.61265
 30
0.0
 40
12.0
100
AcDbArc
 50
180.0
 51
265.000002
  0
LINE
  5
273
100
AcDbEntity
  8
1
100
AcDbLine
 10
-349.88563
 20
-111.76731
 30
0.0
 11
-349.88563
 21
-165.333789
 31
0.0
  0
ARC
  5
274
100
AcDbEntity
  8
1
100
AcDbCircle
 10
-337.88563
 20
-165.333789
 30
0.0
 40
12.0
100
AcDbArc
 50
180.0
 51
265.000002
  0
LINE
  5
275
100
AcDbEntity
  8
1
100
AcDbLine
 10
-361.668142
 20
-111.76731
 30
0.0
 11
-361.668142
 21
-167.124497
 31
0.0
  0
ARC
  5
276
100
AcDbEntity
  8
1
100
AcDbCircle
 10
-349.668142
 20
-167.124497
 30
0.0
 40
12.0
100
AcDbArc
 50
180.0
 51
265.191779
  0
LINE
  5
277
100
AcDbEntity
  8
1
100
AcDbLine
 10
-318.568732
 20
-111.76731
 30
0.0
 11
-318.568732
 21
-152.168261
 31
0.0
  0
ARC
  5
278
100
AcDbEntity
  8
1
100
AcDbCircle
 10
-306.568732
 20
-152.168261
 30
0.0
 40
12.0
100
AcDbArc
 50
180.0
 51
264.794977
  0
ARC
  5
279
100
AcDbEntity
  8
1
100
AcDbCircle
 10
-317.970331
 20
-185.847321
 30
0.0
 40
4.0
100
AcDbArc
 50
85.191779
 51
180.0
  0
ARC
  5
27A
100
AcDbEntity
  8
1
100
AcDbCircle
 10
-359.80093
 20
-179.507008
 30
0.0
 40
4.0
100
AcDbArc
 50
0.0
 51
50.706041
  0
ARC
  5
27B
100
AcDbEntity
  8
1
100
AcDbCircle
 10
-329.385631
 20
-182.880039
 30
0.0
 40
2.0
100
AcDbArc
 50
85.191779
 51
180.0
  0
ARC
  5
27C
100
AcDbEntity
  8
1
100
AcDbCircle
 10
-348.385631
 20
-181.28182
 30
0.0
 40
2.0
100
AcDbArc
 50
0.0
 51
85.191779
  0
LINE
  5
27D
100
AcDbEntity
  8
1
100
AcDbLine
 10
-308.292044
 20
-109.76731
 30
0.0
 11
-369.303884
 21
-109.76731
 31
0.0
  0
ARC
  5
27E
100
AcDbEntity
  8
1
100
AcDbCircle
 10
-316.568732
 20
-111.76731
 30
0.0
 40
2.0
100
AcDbArc
 50
90.0
 51
180.0
  0
ARC
  5
27F
100
AcDbEntity
  8
1
100
AcDbCircle
 10
-363.668142
 20
-111.76731
 30
0.0
 40
2.0
100
AcDbArc
 50
0.0
 51
90.0
  0
ARC
  5
280
100
AcDbEntity
  8
1
100
AcDbCircle
 10
-351.88563
 20
-111.76731
 30
0.0
 40
2.0
100
AcDbArc
 50
360.0
 51
90.0
  0
LINE
  5
281
100
AcDbEntity
  8
1
100
AcDbLine
 10
-374.288171
 20
-98.171894
 30
0.0
 11
-374.288171
 21
-107.76731
 31
0.0
  0
LINE
  5
282
100
AcDbEntity
  8
1
100
AcDbLine
 10
-363.231717
 20
-95.431106
 30
0.0
 11
-363.231717
 21
-105.204639
 31
0.0
  0
LINE
  5
283
100
AcDbEntity
  8
1
100
AcDbLine
 10
-303.483096
 20
-97.751377
 30
0.0
 11
-303.483096
 21
-107.76731
 31
0.0
  0
LINE
  5
284
100
AcDbEntity
  8
1
100
AcDbLine
 10
-314.539545
 20
-95.431106
 30
0.0
 11
-314.539545
 21
-105.204639
 31
0.0
  0
ARC
  5
285
100
AcDbEntity
  8
1
100
AcDbCircle
 10
-338.885633
 20
-256.874412
 30
0.0
 40
151.307103
100
AcDbArc
 50
76.468611
 51
103.531389
  0
ARC
  5
286
100
AcDbEntity
  8
1
100
AcDbCircle
 10
-361.231717
 20
-105.204639
 30
0.0
 40
2.0
100
AcDbArc
 50
180.0
 51
278.381307
  0
ARC
  5
287
100
AcDbEntity
  8
1
100
AcDbCircle
 10
-316.539545
 20
-105.204639
 30
0.0
 40
2.0
100
AcDbArc
 50
261.618693
 51
360.0
  0
LINE
  5
288
100
AcDbEntity
  8
2
100
AcDbLine
 10
-401.385631
 20
72.23269
 30
0.0
 11
-276.385631
 21
72.23269
 31
0.0
  0
LINE
  5
289
100
AcDbEntity
  8
2
  6
CENTER
 62
     2
100
AcDbLine
 10
-308.385631
 20
405.547118
 30
0.0
 11
-308.385631
 21
382.04077
 31
0.0
  0
LINE
  5
28A
100
AcDbEntity
  8
2
100
AcDbLine
 10
-305.885631
 20
395.209399
 30
0.0
 11
-305.885631
 21
392.322648
 31
0.0
  0
LINE
  5
28B
100
AcDbEntity
  8
2
100
AcDbLine
 10
-310.885631
 20
395.209399
 30
0.0
 11
-310.885631
 21
392.352705
 31
0.0
  0
LINE
  5
28C
100
AcDbEntity
  8
2
100
AcDbLine
 10
-310.235263
 20
391.947158
 30
0.0
 11
-308.385631
 21
390.879272
 31
0.0
  0
LINE
  5
28D
100
AcDbEntity
  8
2
100
AcDbLine
 10
-308.385631
 20
396.652775
 30
0.0
 11
-305.885631
 21
395.209399
 31
0.0
  0
LINE
  5
28E
100
AcDbEntity
  8
2
100
AcDbLine
 10
-310.885631
 20
395.209399
 30
0.0
 11
-308.385631
 21
396.652775
 31
0.0
  0
LINE
  5
28F
100
AcDbEntity
  8
2
100
AcDbLine
 10
-308.385631
 20
390.879272
 30
0.0
 11
-305.885631
 21
392.322648
 31
0.0
  0
LINE
  5
290
100
AcDbEntity
  8
2
  6
CENTER
 62
     2
100
AcDbLine
 10
-369.385631
 20
405.547118
 30
0.0
 11
-369.385631
 21
382.04077
 31
0.0
  0
LINE
  5
291
100
AcDbEntity
  8
2
100
AcDbLine
 10
-371.885631
 20
395.209399
 30
0.0
 11
-371.885631
 21
392.322648
 31
0.0
  0
LINE
  5
292
100
AcDbEntity
  8
2
100
AcDbLine
 10
-366.885631
 20
395.209399
 30
0.0
 11
-366.885631
 21
392.352705
 31
0.0
  0
LINE
  5
293
100
AcDbEntity
  8
2
100
AcDbLine
 10
-367.535999
 20
391.947158
 30
0.0
 11
-369.385631
 21
390.879272
 31
0.0
  0
LINE
  5
294
100
AcDbEntity
  8
2
100
AcDbLine
 10
-369.385631
 20
396.652775
 30
0.0
 11
-371.885631
 21
395.209399
 31
0.0
  0
LINE
  5
295
100
AcDbEntity
  8
2
100
AcDbLine
 10
-366.885631
 20
395.209399
 30
0.0
 11
-369.385631
 21
396.652775
 31
0.0
  0
LINE
  5
296
100
AcDbEntity
  8
2
100
AcDbLine
 10
-369.385631
 20
390.879272
 30
0.0
 11
-371.885631
 21
392.322648
 31
0.0
  0
LINE
  5
297
100
AcDbEntity
  8
2
100
AcDbLine
 10
-301.055418
 20
437.253091
 30
0.0
 11
-300.092406
 21
438.216102
 31
0.0
  0
LINE
  5
298
100
AcDbEntity
  8
2
100
AcDbLine
 10
-295.398564
 20
431.596236
 30
0.0
 11
-294.435552
 21
432.559248
 31
0.0
  0
LINE
  5
299
100
AcDbEntity
  8
2
100
AcDbLine
 10
-301.055418
 20
431.596236
 30
0.0
 11
-301.055418
 21
437.253091
 31
0.0
  0
LINE
  5
29A
100
AcDbEntity
  8
2
100
AcDbLine
 10
-301.055418
 20
431.596236
 30
0.0
 11
-295.398564
 21
431.596236
 31
0.0
  0
LINE
  5
29B
100
AcDbEntity
  8
2
100
AcDbLine
 10
-313.33568
 20
426.46847
 30
0.0
 11
-311.488695
 21
428.832502
 31
0.0
  0
LINE
  5
29C
100
AcDbEntity
  8
2
100
AcDbLine
 10
-363.204259
 20
424.892448
 30
0.0
 11
-368.745212
 21
431.984545
 31
0.0
  0
LINE
  5
29D
100
AcDbEntity
  8
2
100
AcDbLine
 10
-350.085631
 20
331.266023
 30
0.0
 11
-327.685631
 21
331.266023
 31
0.0
  0
LINE
  5
29E
100
AcDbEntity
  8
2
100
AcDbLine
 10
-401.385631
 20
423.866023
 30
0.0
 11
-401.385631
 21
370.839705
 31
0.0
  0
LINE
  5
29F
100
AcDbEntity
  8
2
100
AcDbLine
 10
-276.385631
 20
423.866023
 30
0.0
 11
-276.385631
 21
370.839705
 31
0.0
  0
ARC
  5
2A0
100
AcDbEntity
  8
2
100
AcDbCircle
 10
-308.785631
 20
423.866023
 30
0.0
 40
32.4
100
AcDbArc
 50
0.0
 51
90.0
  0
ARC
  5
2A1
100
AcDbEntity
  8
2
100
AcDbCircle
 10
-368.985631
 20
423.866023
 30
0.0
 40
32.4
100
AcDbArc
 50
90.0
 51
180.0
  0
ARC
  5
2A2
100
AcDbEntity
  8
2
100
AcDbCircle
 10
-368.985631
 20
363.666023
 30
0.0
 40
32.4
100
AcDbArc
 50
211.90094
 51
268.762032
  0
ARC
  5
2A3
100
AcDbEntity
  8
2
100
AcDbCircle
 10
-308.785631
 20
363.666023
 30
0.0
 40
32.4
100
AcDbArc
 50
271.237968
 51
328.09906
  0
LINE
  5
2A4
100
AcDbEntity
  8
2
100
AcDbLine
 10
-372.385631
 20
333.766023
 30
0.0
 11
-305.385631
 21
333.766023
 31
0.0
  0
LINE
  5
2A5
100
AcDbEntity
  8
2
100
AcDbLine
 10
-361.385631
 20
337.252751
 30
0.0
 11
-361.385631
 21
333.766023
 31
0.0
  0
LINE
  5
2A6
100
AcDbEntity
  8
2
100
AcDbLine
 10
-316.385631
 20
337.252751
 30
0.0
 11
-316.385631
 21
333.766023
 31
0.0
  0
LINE
  5
2A7
100
AcDbEntity
  8
2
100
AcDbLine
 10
-372.385631
 20
342.641176
 30
0.0
 11
-372.385631
 21
333.766023
 31
0.0
  0
LINE
  5
2A8
100
AcDbEntity
  8
2
100
AcDbLine
 10
-305.385631
 20
342.641176
 30
0.0
 11
-305.385631
 21
333.766023
 31
0.0
  0
ARC
  5
2A9
100
AcDbEntity
  8
2
100
AcDbCircle
 10
-300.385631
 20
342.641176
 30
0.0
 40
5.0
100
AcDbArc
 50
126.981886
 51
180.0
  0
ARC
  5
2AA
100
AcDbEntity
  8
2
100
AcDbCircle
 10
-377.385631
 20
342.641176
 30
0.0
 40
5.0
100
AcDbArc
 50
0.0
 51
53.018114
  0
ARC
  5
2AB
100
AcDbEntity
  8
2
100
AcDbCircle
 10
-313.385631
 20
337.252751
 30
0.0
 40
3.0
100
AcDbArc
 50
114.285917
 51
180.0
  0
ARC
  5
2AC
100
AcDbEntity
  8
2
100
AcDbCircle
 10
-364.385631
 20
337.252751
 30
0.0
 40
3.0
100
AcDbArc
 50
0.0
 51
65.714083
  0
LINE
  5
2AD
100
AcDbEntity
  8
2
100
AcDbLine
 10
-285.875371
 20
427.6844
 30
0.0
 11
-287.621887
 21
425.937884
 31
0.0
  0
ARC
  5
2AE
100
AcDbEntity
  8
2
100
AcDbCircle
 10
-286.207674
 20
424.52367
 30
0.0
 40
2.0
100
AcDbArc
 50
135.0
 51
210.279835
  0
LINE
  5
2AF
100
AcDbEntity
  8
2
100
AcDbLine
 10
-304.967254
 20
446.776283
 30
0.0
 11
-306.71377
 21
445.029767
 31
0.0
  0
ARC
  5
2B0
100
AcDbEntity
  8
2
100
AcDbCircle
 10
-295.421313
 20
437.230342
 30
0.0
 40
13.5
100
AcDbArc
 50
315.0
 51
135.0
  0
ARC
  5
2B1
100
AcDbEntity
  8
2
100
AcDbCircle
 10
-382.349949
 20
350.301705
 30
0.0
 40
13.5
100
AcDbArc
 50
190.761399
 51
300.919081
  0
ARC
  5
2B2
100
AcDbEntity
  8
2
100
AcDbCircle
 10
-374.385631
 20
337.004351
 30
0.0
 40
2.0
100
AcDbArc
 50
0.0
 51
120.919081
  0
ARC
  5
2B3
100
AcDbEntity
  8
2
100
AcDbCircle
 10
-295.421313
 20
350.301705
 30
0.0
 40
13.5
100
AcDbArc
 50
239.080919
 51
349.238601
  0
ARC
  5
2B4
100
AcDbEntity
  8
2
100
AcDbCircle
 10
-303.385631
 20
337.004351
 30
0.0
 40
2.0
100
AcDbArc
 50
59.080919
 51
180.0
  0
ARC
  5
2B5
100
AcDbEntity
  8
2
100
AcDbCircle
 10
-308.127984
 20
446.443981
 30
0.0
 40
2.0
100
AcDbArc
 50
239.720165
 51
315.0
  0
LINE
  5
2B6
100
AcDbEntity
  8
2
100
AcDbLine
 10
-372.804008
 20
446.776283
 30
0.0
 11
-371.057491
 21
445.029767
 31
0.0
  0
LINE
  5
2B7
100
AcDbEntity
  8
2
100
AcDbLine
 10
-391.895891
 20
427.6844
 30
0.0
 11
-390.149374
 21
425.937884
 31
0.0
  0
ARC
  5
2B8
100
AcDbEntity
  8
2
100
AcDbCircle
 10
-382.349949
 20
437.230342
 30
0.0
 40
13.5
100
AcDbArc
 50
45.0
 51
225.0
  0
ARC
  5
2B9
100
AcDbEntity
  8
2
100
AcDbCircle
 10
-369.643278
 20
446.443981
 30
0.0
 40
2.0
100
AcDbArc
 50
225.0
 51
300.279835
  0
ARC
  5
2BA
100
AcDbEntity
  8
2
100
AcDbCircle
 10
-391.563588
 20
424.52367
 30
0.0
 40
2.0
100
AcDbArc
 50
329.720165
 51
45.0
  0
LINE
  5
2BB
100
AcDbEntity
  8
2
100
AcDbLine
 10
-399.885631
 20
80.23269
 30
0.0
 11
-277.885631
 21
80.23269
 31
0.0
  0
LINE
  5
2BC
100
AcDbEntity
  8
2
100
AcDbLine
 10
-276.385631
 20
78.73269
 30
0.0
 11
-276.385631
 21
72.23269
 31
0.0
  0
LINE
  5
2BD
100
AcDbEntity
  8
2
100
AcDbLine
 10
-401.385631
 20
78.73269
 30
0.0
 11
-401.385631
 21
72.23269
 31
0.0
  0
LINE
  5
2BE
100
AcDbEntity
  8
2
100
AcDbLine
 10
-279.885631
 20
168.23269
 30
0.0
 11
-279.885631
 21
84.498971
 31
0.0
  0
LINE
  5
2BF
100
AcDbEntity
  8
2
100
AcDbLine
 10
-397.885631
 20
168.23269
 30
0.0
 11
-397.885631
 21
84.498971
 31
0.0
  0
LINE
  5
2C0
100
AcDbEntity
  8
2
100
AcDbLine
 10
-395.885631
 20
170.23269
 30
0.0
 11
-281.885631
 21
170.23269
 31
0.0
  0
ARC
  5
2C1
100
AcDbEntity
  8
2
100
AcDbCircle
 10
-281.885631
 20
168.23269
 30
0.0
 40
2.0
100
AcDbArc
 50
0.0
 51
90.0
  0
ARC
  5
2C2
100
AcDbEntity
  8
2
100
AcDbCircle
 10
-395.885631
 20
168.23269
 30
0.0
 40
2.0
100
AcDbArc
 50
90.0
 51
180.0
  0
ARC
  5
2C3
100
AcDbEntity
  8
2
100
AcDbCircle
 10
-277.885631
 20
78.73269
 30
0.0
 40
1.5
100
AcDbArc
 50
0.0
 51
90.0
  0
ARC
  5
2C4
100
AcDbEntity
  8
2
100
AcDbCircle
 10
-399.885631
 20
78.73269
 30
0.0
 40
1.5
100
AcDbArc
 50
90.0
 51
180.0
  0
ARC
  5
2C5
100
AcDbEntity
  8
2
100
AcDbCircle
 10
-274.885631
 20
84.498971
 30
0.0
 40
5.0
100
AcDbArc
 50
180.0
 51
242.513574
  0
ARC
  5
2C6
100
AcDbEntity
  8
2
100
AcDbCircle
 10
-402.885631
 20
84.498971
 30
0.0
 40
5.0
100
AcDbArc
 50
297.486426
 51
360.0
  0
LINE
  5
2C7
100
AcDbEntity
  8
2
100
AcDbLine
 10
-281.921313
 20
97.23269
 30
0.0
 11
-281.921313
 21
82.23269
 31
0.0
  0
LINE
  5
2C8
100
AcDbEntity
  8
2
100
AcDbLine
 10
-299.136431
 20
105.23269
 30
0.0
 11
-289.921313
 21
105.23269
 31
0.0
  0
ARC
  5
2C9
100
AcDbEntity
  8
2
100
AcDbCircle
 10
-279.921313
 20
82.23269
 30
0.0
 40
2.0
100
AcDbArc
 50
180.0
 51
270.0
  0
ARC
  5
2CA
100
AcDbEntity
  8
2
100
AcDbCircle
 10
-289.921313
 20
97.23269
 30
0.0
 40
8.0
100
AcDbArc
 50
0.0
 51
90.0
  0
ARC
  5
2CB
100
AcDbEntity
  8
2
100
AcDbCircle
 10
-299.136431
 20
97.23269
 30
0.0
 40
8.0
100
AcDbArc
 50
90.0
 51
141.365982
  0
LINE
  5
2CC
100
AcDbEntity
  8
2
100
AcDbLine
 10
-395.849949
 20
97.23269
 30
0.0
 11
-395.849949
 21
82.23269
 31
0.0
  0
LINE
  5
2CD
100
AcDbEntity
  8
2
100
AcDbLine
 10
-378.63483
 20
105.23269
 30
0.0
 11
-387.849949
 21
105.23269
 31
0.0
  0
ARC
  5
2CE
100
AcDbEntity
  8
2
100
AcDbCircle
 10
-397.849949
 20
82.23269
 30
0.0
 40
2.0
100
AcDbArc
 50
270.0
 51
360.0
  0
ARC
  5
2CF
100
AcDbEntity
  8
2
100
AcDbCircle
 10
-387.849949
 20
97.23269
 30
0.0
 40
8.0
100
AcDbArc
 50
90.0
 51
180.0
  0
ARC
  5
2D0
100
AcDbEntity
  8
2
100
AcDbCircle
 10
-378.63483
 20
97.23269
 30
0.0
 40
8.0
100
AcDbArc
 50
38.634018
 51
90.0
  0
LINE
  5
2D1
100
AcDbEntity
  8
2
100
AcDbLine
 10
-390.385631
 20
174.23269
 30
0.0
 11
-287.385631
 21
174.23269
 31
0.0
  0
LINE
  5
2D2
100
AcDbEntity
  8
2
100
AcDbLine
 10
-287.385631
 20
174.23269
 30
0.0
 11
-287.385631
 21
171.23269
 31
0.0
  0
LINE
  5
2D3
100
AcDbEntity
  8
2
100
AcDbLine
 10
-390.385631
 20
174.23269
 30
0.0
 11
-390.385631
 21
171.23269
 31
0.0
  0
LINE
  5
2D4
100
AcDbEntity
  8
2
100
AcDbLine
 10
-390.385631
 20
171.23269
 30
0.0
 11
-287.385631
 21
171.23269
 31
0.0
  0
LINE
  5
2D5
100
AcDbEntity
  8
2
100
AcDbLine
 10
-289.385631
 20
171.23269
 30
0.0
 11
-289.385631
 21
170.23269
 31
0.0
  0
LINE
  5
2D6
100
AcDbEntity
  8
2
100
AcDbLine
 10
-388.385631
 20
171.23269
 30
0.0
 11
-388.385631
 21
170.23269
 31
0.0
  0
LINE
  5
2D7
100
AcDbEntity
  8
2
100
AcDbLine
 10
-354.635631
 20
185.23269
 30
0.0
 11
-323.135631
 21
185.23269
 31
0.0
  0
LINE
  5
2D8
100
AcDbEntity
  8
2
100
AcDbLine
 10
-350.885631
 20
202.23269
 30
0.0
 11
-350.885631
 21
185.23269
 31
0.0
  0
LINE
  5
2D9
100
AcDbEntity
  8
2
100
AcDbLine
 10
-326.885631
 20
202.23269
 30
0.0
 11
-326.885631
 21
185.23269
 31
0.0
  0
LINE
  5
2DA
100
AcDbEntity
  8
2
100
AcDbLine
 10
-322.135631
 20
184.23269
 30
0.0
 11
-322.135631
 21
177.23269
 31
0.0
  0
LINE
  5
2DB
100
AcDbEntity
  8
2
100
AcDbLine
 10
-329.398798
 20
185.23269
 30
0.0
 11
-329.398798
 21
174.23269
 31
0.0
  0
LINE
  5
2DC
100
AcDbEntity
  8
2
100
AcDbLine
 10
-348.372464
 20
185.23269
 30
0.0
 11
-348.372464
 21
174.23269
 31
0.0
  0
LINE
  5
2DD
100
AcDbEntity
  8
2
100
AcDbLine
 10
-355.635631
 20
184.23269
 30
0.0
 11
-355.635631
 21
177.23269
 31
0.0
  0
ARC
  5
2DE
100
AcDbEntity
  8
2
100
AcDbCircle
 10
-323.135631
 20
184.23269
 30
0.0
 40
1.0
100
AcDbArc
 50
0.0
 51
90.0
  0
ARC
  5
2DF
100
AcDbEntity
  8
2
100
AcDbCircle
 10
-354.635631
 20
184.23269
 30
0.0
 40
1.0
100
AcDbArc
 50
90.0
 51
180.0
  0
ARC
  5
2E0
100
AcDbEntity
  8
2
100
AcDbCircle
 10
-319.135631
 20
177.23269
 30
0.0
 40
3.0
100
AcDbArc
 50
180.0
 51
270.0
  0
ARC
  5
2E1
100
AcDbEntity
  8
2
100
AcDbCircle
 10
-358.635631
 20
177.23269
 30
0.0
 40
3.0
100
AcDbArc
 50
270.0
 51
360.0
  0
LINE
  5
2E2
100
AcDbEntity
  8
2
100
AcDbLine
 10
70.014369
 20
72.23269
 30
0.0
 11
195.014369
 21
72.23269
 31
0.0
  0
LINE
  5
2E3
100
AcDbEntity
  8
2
100
AcDbLine
 10
71.514369
 20
80.23269
 30
0.0
 11
193.514369
 21
80.23269
 31
0.0
  0
LINE
  5
2E4
100
AcDbEntity
  8
2
100
AcDbLine
 10
195.014369
 20
78.73269
 30
0.0
 11
195.014369
 21
72.23269
 31
0.0
  0
LINE
  5
2E5
100
AcDbEntity
  8
2
100
AcDbLine
 10
70.014369
 20
78.73269
 30
0.0
 11
70.014369
 21
72.23269
 31
0.0
  0
LINE
  5
2E6
100
AcDbEntity
  8
2
100
AcDbLine
 10
191.514369
 20
168.23269
 30
0.0
 11
191.514369
 21
84.498971
 31
0.0
  0
LINE
  5
2E7
100
AcDbEntity
  8
2
100
AcDbLine
 10
73.514369
 20
168.23269
 30
0.0
 11
73.514369
 21
148.23269
 31
0.0
  0
ARC
  5
2E8
100
AcDbEntity
  8
2
100
AcDbCircle
 10
189.514369
 20
168.23269
 30
0.0
 40
2.0
100
AcDbArc
 50
0.0
 51
90.0
  0
ARC
  5
2E9
100
AcDbEntity
  8
2
100
AcDbCircle
 10
75.514369
 20
168.23269
 30
0.0
 40
2.0
100
AcDbArc
 50
90.0
 51
180.0
  0
ARC
  5
2EA
100
AcDbEntity
  8
2
100
AcDbCircle
 10
193.514369
 20
78.73269
 30
0.0
 40
1.5
100
AcDbArc
 50
0.0
 51
90.0
  0
ARC
  5
2EB
100
AcDbEntity
  8
2
100
AcDbCircle
 10
71.514369
 20
78.73269
 30
0.0
 40
1.5
100
AcDbArc
 50
90.0
 51
180.0
  0
ARC
  5
2EC
100
AcDbEntity
  8
2
100
AcDbCircle
 10
196.514369
 20
84.498971
 30
0.0
 40
5.0
100
AcDbArc
 50
180.0
 51
242.513574
  0
LINE
  5
2ED
100
AcDbEntity
  8
2
100
AcDbLine
 10
189.478687
 20
97.23269
 30
0.0
 11
189.478687
 21
82.23269
 31
0.0
  0
LINE
  5
2EE
100
AcDbEntity
  8
2
100
AcDbLine
 10
172.263569
 20
105.23269
 30
0.0
 11
181.478687
 21
105.23269
 31
0.0
  0
ARC
  5
2EF
100
AcDbEntity
  8
2
100
AcDbCircle
 10
191.478687
 20
82.23269
 30
0.0
 40
2.0
100
AcDbArc
 50
180.0
 51
270.0
  0
LINE
  5
2F0
100
AcDbEntity
  8
2
100
AcDbLine
 10
164.263569
 20
82.23269
 30
0.0
 11
164.263569
 21
97.23269
 31
0.0
  0
ARC
  5
2F1
100
AcDbEntity
  8
2
100
AcDbCircle
 10
162.263569
 20
82.23269
 30
0.0
 40
2.0
100
AcDbArc
 50
270.0
 51
360.0
  0
ARC
  5
2F2
100
AcDbEntity
  8
2
100
AcDbCircle
 10
181.478687
 20
97.23269
 30
0.0
 40
8.0
100
AcDbArc
 50
0.0
 51
90.0
  0
ARC
  5
2F3
100
AcDbEntity
  8
2
100
AcDbCircle
 10
172.263569
 20
97.23269
 30
0.0
 40
8.0
100
AcDbArc
 50
90.0
 51
180.0
  0
LINE
  5
2F4
100
AcDbEntity
  8
2
100
AcDbLine
 10
75.550051
 20
97.23269
 30
0.0
 11
75.550051
 21
82.23269
 31
0.0
  0
LINE
  5
2F5
100
AcDbEntity
  8
2
100
AcDbLine
 10
92.76517
 20
105.23269
 30
0.0
 11
83.550051
 21
105.23269
 31
0.0
  0
ARC
  5
2F6
100
AcDbEntity
  8
2
100
AcDbCircle
 10
73.550051
 20
82.23269
 30
0.0
 40
2.0
100
AcDbArc
 50
270.0
 51
360.0
  0
LINE
  5
2F7
100
AcDbEntity
  8
2
100
AcDbLine
 10
100.76517
 20
82.23269
 30
0.0
 11
100.76517
 21
97.23269
 31
0.0
  0
ARC
  5
2F8
100
AcDbEntity
  8
2
100
AcDbCircle
 10
102.76517
 20
82.23269
 30
0.0
 40
2.0
100
AcDbArc
 50
180.0
 51
270.0
  0
ARC
  5
2F9
100
AcDbEntity
  8
2
100
AcDbCircle
 10
83.550051
 20
97.23269
 30
0.0
 40
8.0
100
AcDbArc
 50
90.0
 51
180.0
  0
ARC
  5
2FA
100
AcDbEntity
  8
2
100
AcDbCircle
 10
92.76517
 20
97.23269
 30
0.0
 40
8.0
100
AcDbArc
 50
0.0
 51
90.0
  0
LINE
  5
2FB
100
AcDbEntity
  8
2
100
AcDbLine
 10
81.014369
 20
174.23269
 30
0.0
 11
184.014369
 21
174.23269
 31
0.0
  0
LINE
  5
2FC
100
AcDbEntity
  8
2
100
AcDbLine
 10
184.014369
 20
174.23269
 30
0.0
 11
184.014369
 21
171.23269
 31
0.0
  0
LINE
  5
2FD
100
AcDbEntity
  8
2
100
AcDbLine
 10
81.014369
 20
174.23269
 30
0.0
 11
81.014369
 21
171.23269
 31
0.0
  0
LINE
  5
2FE
100
AcDbEntity
  8
2
100
AcDbLine
 10
182.014369
 20
171.23269
 30
0.0
 11
182.014369
 21
170.23269
 31
0.0
  0
LINE
  5
2FF
100
AcDbEntity
  8
2
100
AcDbLine
 10
83.014369
 20
171.23269
 30
0.0
 11
83.014369
 21
170.23269
 31
0.0
  0
LINE
  5
300
100
AcDbEntity
  8
2
100
AcDbLine
 10
176.966107
 20
173.73269
 30
0.0
 11
176.966107
 21
170.23269
 31
0.0
  0
LINE
  5
301
100
AcDbEntity
  8
2
100
AcDbLine
 10
171.307594
 20
173.73269
 30
0.0
 11
171.307594
 21
170.23269
 31
0.0
  0
LINE
  5
302
100
AcDbEntity
  8
2
100
AcDbLine
 10
170.344582
 20
173.73269
 30
0.0
 11
170.344582
 21
170.23269
 31
0.0
  0
LINE
  5
303
100
AcDbEntity
  8
2
100
AcDbLine
 10
170.344582
 20
173.73269
 30
0.0
 11
176.966107
 21
173.73269
 31
0.0
  0
LINE
  5
304
100
AcDbEntity
  8
2
100
AcDbLine
 10
116.764369
 20
185.23269
 30
0.0
 11
148.264369
 21
185.23269
 31
0.0
  0
LINE
  5
305
100
AcDbEntity
  8
2
100
AcDbLine
 10
120.514369
 20
202.23269
 30
0.0
 11
120.514369
 21
185.23269
 31
0.0
  0
LINE
  5
306
100
AcDbEntity
  8
2
100
AcDbLine
 10
144.514369
 20
202.23269
 30
0.0
 11
144.514369
 21
185.23269
 31
0.0
  0
LINE
  5
307
100
AcDbEntity
  8
2
100
AcDbLine
 10
149.264369
 20
184.23269
 30
0.0
 11
149.264369
 21
177.23269
 31
0.0
  0
LINE
  5
308
100
AcDbEntity
  8
2
100
AcDbLine
 10
142.001202
 20
185.23269
 30
0.0
 11
142.001202
 21
174.23269
 31
0.0
  0
LINE
  5
309
100
AcDbEntity
  8
2
100
AcDbLine
 10
123.027536
 20
185.23269
 30
0.0
 11
123.027536
 21
174.23269
 31
0.0
  0
LINE
  5
30A
100
AcDbEntity
  8
2
100
AcDbLine
 10
115.764369
 20
184.23269
 30
0.0
 11
115.764369
 21
177.23269
 31
0.0
  0
ARC
  5
30B
100
AcDbEntity
  8
2
100
AcDbCircle
 10
148.264369
 20
184.23269
 30
0.0
 40
1.0
100
AcDbArc
 50
0.0
 51
90.0
  0
ARC
  5
30C
100
AcDbEntity
  8
2
100
AcDbCircle
 10
116.764369
 20
184.23269
 30
0.0
 40
1.0
100
AcDbArc
 50
90.0
 51
180.0
  0
ARC
  5
30D
100
AcDbEntity
  8
2
100
AcDbCircle
 10
152.264369
 20
177.23269
 30
0.0
 40
3.0
100
AcDbArc
 50
180.0
 51
270.0
  0
ARC
  5
30E
100
AcDbEntity
  8
2
100
AcDbCircle
 10
112.764369
 20
177.23269
 30
0.0
 40
3.0
100
AcDbArc
 50
270.0
 51
360.0
  0
LINE
  5
30F
100
AcDbEntity
  8
2
100
AcDbLine
 10
81.014369
 20
171.23269
 30
0.0
 11
170.344582
 21
171.23269
 31
0.0
  0
LINE
  5
310
100
AcDbEntity
  8
2
100
AcDbLine
 10
176.966107
 20
171.23269
 30
0.0
 11
184.014369
 21
171.23269
 31
0.0
  0
LINE
  5
311
100
AcDbEntity
  8
2
100
AcDbLine
 10
75.514369
 20
170.23269
 30
0.0
 11
171.307594
 21
170.23269
 31
0.0
  0
LINE
  5
312
100
AcDbEntity
  8
2
100
AcDbLine
 10
176.966107
 20
170.23269
 30
0.0
 11
189.514369
 21
170.23269
 31
0.0
  0
LINE
  5
313
100
AcDbEntity
  8
2
100
AcDbLine
 10
-305.385631
 20
109.23269
 30
0.0
 11
-305.385631
 21
83.23269
 31
0.0
  0
LINE
  5
314
100
AcDbEntity
  8
2
100
AcDbLine
 10
-372.385631
 20
109.23269
 30
0.0
 11
-372.385631
 21
83.23269
 31
0.0
  0
LINE
  5
315
100
AcDbEntity
  8
2
100
AcDbLine
 10
-358.385631
 20
147.23269
 30
0.0
 11
-319.385631
 21
147.23269
 31
0.0
  0
LINE
  5
316
100
AcDbEntity
  8
2
100
AcDbLine
 10
-316.385631
 20
144.23269
 30
0.0
 11
-316.385631
 21
122.077923
 31
0.0
  0
LINE
  5
317
100
AcDbEntity
  8
2
100
AcDbLine
 10
-361.385631
 20
144.23269
 30
0.0
 11
-361.385631
 21
122.077923
 31
0.0
  0
ARC
  5
318
100
AcDbEntity
  8
2
100
AcDbCircle
 10
-319.385631
 20
144.23269
 30
0.0
 40
3.0
100
AcDbArc
 50
0.0
 51
90.0
  0
ARC
  5
319
100
AcDbEntity
  8
2
100
AcDbCircle
 10
-358.385631
 20
144.23269
 30
0.0
 40
3.0
100
AcDbArc
 50
90.0
 51
180.0
  0
ARC
  5
31A
100
AcDbEntity
  8
2
100
AcDbCircle
 10
-313.385631
 20
109.23269
 30
0.0
 40
8.0
100
AcDbArc
 50
0.0
 51
81.150117
  0
ARC
  5
31B
100
AcDbEntity
  8
2
100
AcDbCircle
 10
-364.385631
 20
109.23269
 30
0.0
 40
8.0
100
AcDbArc
 50
98.849883
 51
180.0
  0
ARC
  5
31C
100
AcDbEntity
  8
2
100
AcDbCircle
 10
-311.385631
 20
122.077923
 30
0.0
 40
5.0
100
AcDbArc
 50
180.0
 51
261.150117
  0
ARC
  5
31D
100
AcDbEntity
  8
2
100
AcDbCircle
 10
-366.385631
 20
122.077923
 30
0.0
 40
5.0
100
AcDbArc
 50
278.849883
 51
360.0
  0
LINE
  5
31E
100
AcDbEntity
  8
2
100
AcDbLine
 10
72.514369
 20
117.23269
 30
0.0
 11
78.73561
 21
117.23269
 31
0.0
  0
LINE
  5
31F
100
AcDbEntity
  8
2
100
AcDbLine
 10
72.514369
 20
147.23269
 30
0.0
 11
77.73561
 21
147.23269
 31
0.0
  0
ARC
  5
320
100
AcDbEntity
  8
2
100
AcDbCircle
 10
-302.385631
 20
83.23269
 30
0.0
 40
3.0
100
AcDbArc
 50
180.0
 51
270.0
  0
ARC
  5
321
100
AcDbEntity
  8
2
100
AcDbCircle
 10
-375.385631
 20
83.23269
 30
0.0
 40
3.0
100
AcDbArc
 50
270.0
 51
360.0
  0
LINE
  5
322
100
AcDbEntity
  8
2
  6
CENTER
 62
     2
100
AcDbLine
 10
-317.885631
 20
119.564535
 30
0.0
 11
-317.885631
 21
93.971472
 31
0.0
  0
LINE
  5
323
100
AcDbEntity
  8
2
  6
CENTER
 62
     2
100
AcDbLine
 10
-330.851635
 20
107.23269
 30
0.0
 11
-304.604031
 21
107.23269
 31
0.0
  0
CIRCLE
  5
324
100
AcDbEntity
  8
2
 62
     2
100
AcDbCircle
 10
-317.885631
 20
107.23269
 30
0.0
 40
4.188
  0
CIRCLE
  5
325
100
AcDbEntity
  8
2
100
AcDbCircle
 10
-317.885631
 20
107.23269
 30
0.0
 40
8.25
  0
CIRCLE
  5
326
100
AcDbEntity
  8
2
100
AcDbCircle
 10
-317.885631
 20
107.23269
 30
0.0
 40
5.0
  0
LINE
  5
327
100
AcDbEntity
  8
2
100
AcDbLine
 10
-320.385631
 20
108.676066
 30
0.0
 11
-320.385631
 21
105.789314
 31
0.0
  0
LINE
  5
328
100
AcDbEntity
  8
2
100
AcDbLine
 10
-315.385631
 20
108.676066
 30
0.0
 11
-315.385631
 21
105.789314
 31
0.0
  0
LINE
  5
329
100
AcDbEntity
  8
2
100
AcDbLine
 10
-317.885631
 20
110.119442
 30
0.0
 11
-315.385631
 21
108.676066
 31
0.0
  0
LINE
  5
32A
100
AcDbEntity
  8
2
100
AcDbLine
 10
-320.385631
 20
105.789314
 30
0.0
 11
-317.885631
 21
104.345939
 31
0.0
  0
LINE
  5
32B
100
AcDbEntity
  8
2
100
AcDbLine
 10
-317.885631
 20
104.345939
 30
0.0
 11
-315.385631
 21
105.789314
 31
0.0
  0
LINE
  5
32C
100
AcDbEntity
  8
2
100
AcDbLine
 10
-320.385631
 20
108.676066
 30
0.0
 11
-317.885631
 21
110.119442
 31
0.0
  0
LINE
  5
32D
100
AcDbEntity
  8
2
  6
CENTER
 62
     2
100
AcDbLine
 10
-359.885631
 20
119.564535
 30
0.0
 11
-359.885631
 21
93.971472
 31
0.0
  0
LINE
  5
32E
100
AcDbEntity
  8
2
  6
CENTER
 62
     2
100
AcDbLine
 10
-346.919626
 20
107.23269
 30
0.0
 11
-373.167231
 21
107.23269
 31
0.0
  0
CIRCLE
  5
32F
100
AcDbEntity
  8
2
 62
     2
100
AcDbCircle
 10
-359.885631
 20
107.23269
 30
0.0
 40
4.188
  0
CIRCLE
  5
330
100
AcDbEntity
  8
2
100
AcDbCircle
 10
-359.885631
 20
107.23269
 30
0.0
 40
8.25
  0
CIRCLE
  5
331
100
AcDbEntity
  8
2
100
AcDbCircle
 10
-359.885631
 20
107.23269
 30
0.0
 40
5.0
  0
LINE
  5
332
100
AcDbEntity
  8
2
100
AcDbLine
 10
-357.385631
 20
108.676066
 30
0.0
 11
-357.385631
 21
105.789314
 31
0.0
  0
LINE
  5
333
100
AcDbEntity
  8
2
100
AcDbLine
 10
-362.385631
 20
108.676066
 30
0.0
 11
-362.385631
 21
105.789314
 31
0.0
  0
LINE
  5
334
100
AcDbEntity
  8
2
100
AcDbLine
 10
-359.885631
 20
110.119442
 30
0.0
 11
-362.385631
 21
108.676066
 31
0.0
  0
LINE
  5
335
100
AcDbEntity
  8
2
100
AcDbLine
 10
-357.385631
 20
105.789314
 30
0.0
 11
-359.885631
 21
104.345939
 31
0.0
  0
LINE
  5
336
100
AcDbEntity
  8
2
100
AcDbLine
 10
-359.885631
 20
104.345939
 30
0.0
 11
-362.385631
 21
105.789314
 31
0.0
  0
LINE
  5
337
100
AcDbEntity
  8
2
100
AcDbLine
 10
-357.385631
 20
108.676066
 30
0.0
 11
-359.885631
 21
110.119442
 31
0.0
  0
LINE
  5
338
100
AcDbEntity
  8
2
100
AcDbLine
 10
-427.885631
 20
224.23269
 30
0.0
 11
-249.885631
 21
224.23269
 31
0.0
  0
ARC
  5
339
100
AcDbEntity
  8
2
100
AcDbCircle
 10
-427.885631
 20
213.23269
 30
0.0
 40
11.0
100
AcDbArc
 50
90.0
 51
270.0
  0
ARC
  5
33A
100
AcDbEntity
  8
2
100
AcDbCircle
 10
-269.76945
 20
212.781421
 30
0.0
 40
79.570307
100
AcDbArc
 50
181.907508
 51
187.294014
  0
ARC
  5
33B
100
AcDbEntity
  8
2
100
AcDbCircle
 10
-408.001812
 20
212.781421
 30
0.0
 40
79.570307
100
AcDbArc
 50
352.705986
 51
358.092492
  0
LINE
  5
33C
100
AcDbEntity
  8
2
100
AcDbLine
 10
-331.473935
 20
213.23269
 30
0.0
 11
-346.297326
 21
213.23269
 31
0.0
  0
ARC
  5
33D
100
AcDbEntity
  8
2
100
AcDbCircle
 10
-346.297326
 20
210.23269
 30
0.0
 40
3.0
100
AcDbArc
 50
90.0
 51
181.907508
  0
ARC
  5
33E
100
AcDbEntity
  8
2
100
AcDbCircle
 10
-331.473935
 20
210.23269
 30
0.0
 40
3.0
100
AcDbArc
 50
358.092492
 51
90.0
  0
ARC
  5
33F
100
AcDbEntity
  8
2
100
AcDbCircle
 10
-329.582598
 20
202.744015
 30
0.0
 40
0.511325
100
AcDbArc
 50
196.739333
 51
352.705986
  0
ARC
  5
340
100
AcDbEntity
  8
2
100
AcDbCircle
 10
-348.188664
 20
202.744015
 30
0.0
 40
0.511325
100
AcDbArc
 50
187.294014
 51
343.260667
  0
LINE
  5
341
100
AcDbEntity
  8
2
100
AcDbLine
 10
-332.94513
 20
204.73269
 30
0.0
 11
-344.826132
 21
204.73269
 31
0.0
  0
ARC
  5
342
100
AcDbEntity
  8
2
100
AcDbCircle
 10
-344.826132
 20
201.73269
 30
0.0
 40
3.0
100
AcDbArc
 50
90.0
 51
163.260667
  0
ARC
  5
343
100
AcDbEntity
  8
2
100
AcDbCircle
 10
-332.94513
 20
201.73269
 30
0.0
 40
3.0
100
AcDbArc
 50
16.739333
 51
90.0
  0
ARC
  5
344
100
AcDbEntity
  8
2
100
AcDbCircle
 10
-350.624457
 20
212.835031
 30
0.0
 40
24.10125
100
AcDbArc
 50
187.084118
 51
202.377644
  0
ARC
  5
345
100
AcDbEntity
  8
2
100
AcDbCircle
 10
-301.12672
 20
212.787601
 30
0.0
 40
53.404212
100
AcDbArc
 50
182.596184
 51
190.675608
  0
LINE
  5
346
100
AcDbEntity
  8
2
100
AcDbLine
 10
-357.473038
 20
213.23269
 30
0.0
 11
-371.564623
 21
213.23269
 31
0.0
  0
ARC
  5
347
100
AcDbEntity
  8
2
100
AcDbCircle
 10
-371.564623
 20
210.23269
 30
0.0
 40
3.0
100
AcDbArc
 50
90.0
 51
187.084118
  0
ARC
  5
348
100
AcDbEntity
  8
2
100
AcDbCircle
 10
-357.473038
 20
210.23269
 30
0.0
 40
3.0
100
AcDbArc
 50
2.596184
 51
90.0
  0
ARC
  5
349
100
AcDbEntity
  8
2
100
AcDbCircle
 10
-370.780378
 20
204.536559
 30
0.0
 40
2.303869
100
AcDbArc
 50
202.377644
 51
328.085987
  0
ARC
  5
34A
100
AcDbEntity
  8
2
100
AcDbCircle
 10
-352.808298
 20
203.045051
 30
0.0
 40
0.812361
100
AcDbArc
 50
190.675608
 51
270.0
  0
LINE
  5
34B
100
AcDbEntity
  8
2
100
AcDbLine
 10
-319.885631
 20
202.23269
 30
0.0
 11
-357.885631
 21
202.23269
 31
0.0
  0
LINE
  5
34C
100
AcDbEntity
  8
2
100
AcDbLine
 10
-356.387656
 20
204.73269
 30
0.0
 11
-370.648594
 21
204.73269
 31
0.0
  0
ARC
  5
34D
100
AcDbEntity
  8
2
100
AcDbCircle
 10
-366.27823
 20
201.73269
 30
0.0
 40
3.0
100
AcDbArc
 50
90.0
 51
148.085987
  0
ARC
  5
34E
100
AcDbEntity
  8
2
100
AcDbCircle
 10
-356.387656
 20
201.73269
 30
0.0
 40
3.0
100
AcDbArc
 50
20.135311
 51
90.0
  0
ARC
  5
34F
100
AcDbEntity
  8
2
100
AcDbCircle
 10
-381.970149
 20
212.934068
 30
0.0
 40
15.696848
100
AcDbArc
 50
192.284128
 51
213.145156
  0
ARC
  5
350
100
AcDbEntity
  8
2
100
AcDbCircle
 10
-358.080241
 20
212.851916
 30
0.0
 40
21.482429
100
AcDbArc
 50
186.14148
 51
204.857013
  0
LINE
  5
351
100
AcDbEntity
  8
2
100
AcDbLine
 10
-382.422159
 20
213.23269
 30
0.0
 11
-394.376297
 21
213.23269
 31
0.0
  0
ARC
  5
352
100
AcDbEntity
  8
2
100
AcDbCircle
 10
-394.376297
 20
210.23269
 30
0.0
 40
3.0
100
AcDbArc
 50
90.0
 51
192.284128
  0
ARC
  5
353
100
AcDbEntity
  8
2
100
AcDbCircle
 10
-382.422159
 20
210.23269
 30
0.0
 40
3.0
100
AcDbArc
 50
6.14148
 51
90.0
  0
ARC
  5
354
100
AcDbEntity
  8
2
100
AcDbCircle
 10
-375.085192
 20
204.973983
 30
0.0
 40
2.741293
100
AcDbArc
 50
204.857013
 51
270.0
  0
ARC
  5
355
100
AcDbEntity
  8
2
100
AcDbCircle
 10
-391.198518
 20
206.907801
 30
0.0
 40
4.67511
100
AcDbArc
 50
213.145156
 51
317.602374
  0
LINE
  5
356
100
AcDbEntity
  8
2
100
AcDbLine
 10
-377.969256
 20
204.73269
 30
0.0
 11
-392.309114
 21
204.73269
 31
0.0
  0
ARC
  5
357
100
AcDbEntity
  8
2
100
AcDbCircle
 10
-385.530578
 20
201.73269
 30
0.0
 40
3.0
100
AcDbArc
 50
90.0
 51
137.602374
  0
LINE
  5
358
100
AcDbEntity
  8
2
100
AcDbLine
 10
-370.780378
 20
202.23269
 30
0.0
 11
-375.085192
 21
202.23269
 31
0.0
  0
ARC
  5
359
100
AcDbEntity
  8
2
100
AcDbCircle
 10
-403.828152
 20
213.051993
 30
0.0
 40
12.773353
100
AcDbArc
 50
193.047521
 51
220.343373
  0
ARC
  5
35A
100
AcDbEntity
  8
2
100
AcDbCircle
 10
-386.941582
 20
212.957133
 30
0.0
 40
14.878639
100
AcDbArc
 50
188.765186
 51
214.843294
  0
LINE
  5
35B
100
AcDbEntity
  8
2
100
AcDbLine
 10
-404.61142
 20
213.23269
 30
0.0
 11
-413.83628
 21
213.23269
 31
0.0
  0
ARC
  5
35C
100
AcDbEntity
  8
2
100
AcDbCircle
 10
-404.61142
 20
210.23269
 30
0.0
 40
3.0
100
AcDbArc
 50
8.765186
 51
90.0
  0
ARC
  5
35D
100
AcDbEntity
  8
2
100
AcDbCircle
 10
-413.83628
 20
210.73269
 30
0.0
 40
2.5
100
AcDbArc
 50
90.0
 51
193.047521
  0
ARC
  5
35E
100
AcDbEntity
  8
2
100
AcDbCircle
 10
-408.051621
 20
209.46473
 30
0.0
 40
7.23204
100
AcDbArc
 50
220.343373
 51
310.9161
  0
ARC
  5
35F
100
AcDbEntity
  8
2
100
AcDbCircle
 10
-394.895146
 20
207.420345
 30
0.0
 40
5.187654
100
AcDbArc
 50
214.843294
 51
270.0
  0
LINE
  5
360
100
AcDbEntity
  8
2
100
AcDbLine
 10
-391.198518
 20
202.23269
 30
0.0
 11
-394.895146
 21
202.23269
 31
0.0
  0
LINE
  5
361
100
AcDbEntity
  8
2
100
AcDbLine
 10
-399.340472
 20
204.73269
 30
0.0
 11
-409.855671
 21
204.73269
 31
0.0
  0
ARC
  5
362
100
AcDbEntity
  8
2
100
AcDbCircle
 10
-401.350114
 20
201.73269
 30
0.0
 40
3.0
100
AcDbArc
 50
90.0
 51
130.9161
  0
LINE
  5
363
100
AcDbEntity
  8
2
100
AcDbLine
 10
-422.103555
 20
213.23269
 30
0.0
 11
-427.409611
 21
213.23269
 31
0.0
  0
LINE
  5
364
100
AcDbEntity
  8
2
100
AcDbLine
 10
-434.527891
 20
213.23269
 30
0.0
 11
-435.43373
 21
213.23269
 31
0.0
  0
ARC
  5
365
100
AcDbEntity
  8
2
100
AcDbCircle
 10
-418.69037
 20
213.15721
 30
0.0
 40
11.550053
100
AcDbArc
 50
195.539411
 51
224.747415
  0
ARC
  5
366
100
AcDbEntity
  8
2
100
AcDbCircle
 10
-407.348919
 20
213.075058
 30
0.0
 40
12.43941
100
AcDbArc
 50
189.020695
 51
221.426334
  0
ARC
  5
367
100
AcDbEntity
  8
2
100
AcDbCircle
 10
-427.409611
 20
210.73269
 30
0.0
 40
2.5
100
AcDbArc
 50
90.0
 51
195.539411
  0
ARC
  5
368
100
AcDbEntity
  8
2
100
AcDbCircle
 10
-422.103555
 20
210.73269
 30
0.0
 40
2.5
100
AcDbArc
 50
9.020695
 51
90.0
  0
ARC
  5
369
100
AcDbEntity
  8
2
100
AcDbCircle
 10
-410.888143
 20
209.95192
 30
0.0
 40
7.71923
100
AcDbArc
 50
221.426334
 51
270.0
  0
ARC
  5
36A
100
AcDbEntity
  8
2
100
AcDbCircle
 10
-420.191177
 20
211.669578
 30
0.0
 40
9.436887
100
AcDbArc
 50
224.747415
 51
301.319694
  0
LINE
  5
36B
100
AcDbEntity
  8
2
100
AcDbLine
 10
-408.051621
 20
202.23269
 30
0.0
 11
-410.888143
 21
202.23269
 31
0.0
  0
LINE
  5
36C
100
AcDbEntity
  8
2
100
AcDbLine
 10
-416.575511
 20
204.73269
 30
0.0
 11
-421.996566
 21
204.73269
 31
0.0
  0
ARC
  5
36D
100
AcDbEntity
  8
2
100
AcDbCircle
 10
-426.584553
 20
213.221525
 30
0.0
 40
11.069917
100
AcDbArc
 50
192.666639
 51
226.904828
  0
ARC
  5
36E
100
AcDbEntity
  8
2
100
AcDbCircle
 10
-420.83421
 20
213.174095
 30
0.0
 40
11.409614
100
AcDbArc
 50
190.108874
 51
225.345864
  0
ARC
  5
36F
100
AcDbEntity
  8
2
100
AcDbCircle
 10
-434.527891
 20
210.73269
 30
0.0
 40
2.5
100
AcDbArc
 50
10.108874
 51
90.0
  0
ARC
  5
370
100
AcDbEntity
  8
2
100
AcDbCircle
 10
-435.43373
 20
211.23269
 30
0.0
 40
2.0
100
AcDbArc
 50
90.0
 51
192.666639
  0
ARC
  5
371
100
AcDbEntity
  8
2
100
AcDbCircle
 10
-426.789893
 20
213.002057
 30
0.0
 40
10.769367
100
AcDbArc
 50
226.904828
 51
283.238025
  0
ARC
  5
372
100
AcDbEntity
  8
2
100
AcDbCircle
 10
-421.974289
 20
212.020168
 30
0.0
 40
9.787478
100
AcDbArc
 50
225.345864
 51
270.0
  0
LINE
  5
373
100
AcDbEntity
  8
2
100
AcDbLine
 10
-420.191177
 20
202.23269
 30
0.0
 11
-421.974289
 21
202.23269
 31
0.0
  0
LINE
  5
374
100
AcDbEntity
  8
2
100
AcDbLine
 10
-426.789893
 20
202.23269
 30
0.0
 11
-427.885631
 21
202.23269
 31
0.0
  0
ARC
  5
375
100
AcDbEntity
  8
2
100
AcDbCircle
 10
-342.349917
 20
213.23269
 30
0.0
 40
19.035714
100
AcDbArc
 50
206.52121
 51
215.300248
  0
ARC
  5
376
100
AcDbEntity
  8
2
100
AcDbCircle
 10
-335.421345
 20
213.23269
 30
0.0
 40
19.035714
100
AcDbArc
 50
324.699752
 51
333.47879
  0
ARC
  5
377
100
AcDbEntity
  8
2
100
AcDbCircle
 10
-249.885631
 20
213.23269
 30
0.0
 40
11.0
100
AcDbArc
 50
270.0
 51
90.0
  0
ARC
  5
378
100
AcDbEntity
  8
2
100
AcDbCircle
 10
-327.146805
 20
212.835031
 30
0.0
 40
24.10125
100
AcDbArc
 50
337.622356
 51
352.915882
  0
ARC
  5
379
100
AcDbEntity
  8
2
100
AcDbCircle
 10
-376.644541
 20
212.787601
 30
0.0
 40
53.404212
100
AcDbArc
 50
349.324392
 51
357.403816
  0
LINE
  5
37A
100
AcDbEntity
  8
2
100
AcDbLine
 10
-320.298224
 20
213.23269
 30
0.0
 11
-306.206639
 21
213.23269
 31
0.0
  0
ARC
  5
37B
100
AcDbEntity
  8
2
100
AcDbCircle
 10
-306.206639
 20
210.23269
 30
0.0
 40
3.0
100
AcDbArc
 50
352.915882
 51
90.0
  0
ARC
  5
37C
100
AcDbEntity
  8
2
100
AcDbCircle
 10
-320.298224
 20
210.23269
 30
0.0
 40
3.0
100
AcDbArc
 50
90.0
 51
177.403816
  0
ARC
  5
37D
100
AcDbEntity
  8
2
100
AcDbCircle
 10
-306.990883
 20
204.536559
 30
0.0
 40
2.303869
100
AcDbArc
 50
211.914013
 51
337.622356
  0
ARC
  5
37E
100
AcDbEntity
  8
2
100
AcDbCircle
 10
-324.962964
 20
203.045051
 30
0.0
 40
0.812361
100
AcDbArc
 50
270.0
 51
349.324392
  0
LINE
  5
37F
100
AcDbEntity
  8
2
100
AcDbLine
 10
-321.383605
 20
204.73269
 30
0.0
 11
-307.122668
 21
204.73269
 31
0.0
  0
ARC
  5
380
100
AcDbEntity
  8
2
100
AcDbCircle
 10
-311.493032
 20
201.73269
 30
0.0
 40
3.0
100
AcDbArc
 50
31.914013
 51
90.0
  0
ARC
  5
381
100
AcDbEntity
  8
2
100
AcDbCircle
 10
-321.383605
 20
201.73269
 30
0.0
 40
3.0
100
AcDbArc
 50
90.0
 51
159.864689
  0
ARC
  5
382
100
AcDbEntity
  8
2
100
AcDbCircle
 10
-295.801113
 20
212.934068
 30
0.0
 40
15.696848
100
AcDbArc
 50
326.854844
 51
347.715872
  0
ARC
  5
383
100
AcDbEntity
  8
2
100
AcDbCircle
 10
-319.69102
 20
212.851916
 30
0.0
 40
21.482429
100
AcDbArc
 50
335.142987
 51
353.85852
  0
LINE
  5
384
100
AcDbEntity
  8
2
100
AcDbLine
 10
-295.349102
 20
213.23269
 30
0.0
 11
-283.394965
 21
213.23269
 31
0.0
  0
ARC
  5
385
100
AcDbEntity
  8
2
100
AcDbCircle
 10
-283.394965
 20
210.23269
 30
0.0
 40
3.0
100
AcDbArc
 50
347.715872
 51
90.0
  0
ARC
  5
386
100
AcDbEntity
  8
2
100
AcDbCircle
 10
-295.349102
 20
210.23269
 30
0.0
 40
3.0
100
AcDbArc
 50
90.0
 51
173.85852
  0
ARC
  5
387
100
AcDbEntity
  8
2
100
AcDbCircle
 10
-302.68607
 20
204.973983
 30
0.0
 40
2.741293
100
AcDbArc
 50
270.0
 51
335.142987
  0
ARC
  5
388
100
AcDbEntity
  8
2
100
AcDbCircle
 10
-286.572743
 20
206.907801
 30
0.0
 40
4.67511
100
AcDbArc
 50
222.397626
 51
326.854844
  0
LINE
  5
389
100
AcDbEntity
  8
2
100
AcDbLine
 10
-299.802006
 20
204.73269
 30
0.0
 11
-285.462148
 21
204.73269
 31
0.0
  0
ARC
  5
38A
100
AcDbEntity
  8
2
100
AcDbCircle
 10
-292.240684
 20
201.73269
 30
0.0
 40
3.0
100
AcDbArc
 50
42.397626
 51
90.0
  0
LINE
  5
38B
100
AcDbEntity
  8
2
100
AcDbLine
 10
-306.990883
 20
202.23269
 30
0.0
 11
-302.68607
 21
202.23269
 31
0.0
  0
ARC
  5
38C
100
AcDbEntity
  8
2
100
AcDbCircle
 10
-273.94311
 20
213.051993
 30
0.0
 40
12.773353
100
AcDbArc
 50
319.656627
 51
346.952479
  0
ARC
  5
38D
100
AcDbEntity
  8
2
100
AcDbCircle
 10
-290.829679
 20
212.957133
 30
0.0
 40
14.878639
100
AcDbArc
 50
325.156706
 51
351.234814
  0
LINE
  5
38E
100
AcDbEntity
  8
2
100
AcDbLine
 10
-273.159842
 20
213.23269
 30
0.0
 11
-263.934982
 21
213.23269
 31
0.0
  0
ARC
  5
38F
100
AcDbEntity
  8
2
100
AcDbCircle
 10
-273.159842
 20
210.23269
 30
0.0
 40
3.0
100
AcDbArc
 50
90.0
 51
171.234814
  0
ARC
  5
390
100
AcDbEntity
  8
2
100
AcDbCircle
 10
-263.934982
 20
210.73269
 30
0.0
 40
2.5
100
AcDbArc
 50
346.952479
 51
90.0
  0
ARC
  5
391
100
AcDbEntity
  8
2
100
AcDbCircle
 10
-269.71964
 20
209.46473
 30
0.0
 40
7.23204
100
AcDbArc
 50
229.0839
 51
319.656627
  0
ARC
  5
392
100
AcDbEntity
  8
2
100
AcDbCircle
 10
-282.876116
 20
207.420345
 30
0.0
 40
5.187654
100
AcDbArc
 50
270.0
 51
325.156706
  0
LINE
  5
393
100
AcDbEntity
  8
2
100
AcDbLine
 10
-286.572743
 20
202.23269
 30
0.0
 11
-282.876116
 21
202.23269
 31
0.0
  0
LINE
  5
394
100
AcDbEntity
  8
2
100
AcDbLine
 10
-278.43079
 20
204.73269
 30
0.0
 11
-267.915591
 21
204.73269
 31
0.0
  0
ARC
  5
395
100
AcDbEntity
  8
2
100
AcDbCircle
 10
-276.421148
 20
201.73269
 30
0.0
 40
3.0
100
AcDbArc
 50
49.0839
 51
90.0
  0
LINE
  5
396
100
AcDbEntity
  8
2
100
AcDbLine
 10
-255.667707
 20
213.23269
 30
0.0
 11
-250.36165
 21
213.23269
 31
0.0
  0
LINE
  5
397
100
AcDbEntity
  8
2
100
AcDbLine
 10
-243.243371
 20
213.23269
 30
0.0
 11
-242.337531
 21
213.23269
 31
0.0
  0
ARC
  5
398
100
AcDbEntity
  8
2
100
AcDbCircle
 10
-259.080892
 20
213.15721
 30
0.0
 40
11.550053
100
AcDbArc
 50
315.252585
 51
344.460589
  0
ARC
  5
399
100
AcDbEntity
  8
2
100
AcDbCircle
 10
-270.422343
 20
213.075058
 30
0.0
 40
12.43941
100
AcDbArc
 50
318.573666
 51
350.979305
  0
ARC
  5
39A
100
AcDbEntity
  8
2
100
AcDbCircle
 10
-250.36165
 20
210.73269
 30
0.0
 40
2.5
100
AcDbArc
 50
344.460589
 51
90.0
  0
ARC
  5
39B
100
AcDbEntity
  8
2
100
AcDbCircle
 10
-255.667707
 20
210.73269
 30
0.0
 40
2.5
100
AcDbArc
 50
90.0
 51
170.979305
  0
ARC
  5
39C
100
AcDbEntity
  8
2
100
AcDbCircle
 10
-266.883118
 20
209.95192
 30
0.0
 40
7.71923
100
AcDbArc
 50
270.0
 51
318.573666
  0
ARC
  5
39D
100
AcDbEntity
  8
2
100
AcDbCircle
 10
-257.580085
 20
211.669578
 30
0.0
 40
9.436887
100
AcDbArc
 50
238.680306
 51
315.252585
  0
LINE
  5
39E
100
AcDbEntity
  8
2
100
AcDbLine
 10
-269.71964
 20
202.23269
 30
0.0
 11
-266.883118
 21
202.23269
 31
0.0
  0
LINE
  5
39F
100
AcDbEntity
  8
2
100
AcDbLine
 10
-261.195751
 20
204.73269
 30
0.0
 11
-255.774695
 21
204.73269
 31
0.0
  0
ARC
  5
3A0
100
AcDbEntity
  8
2
100
AcDbCircle
 10
-251.186708
 20
213.221525
 30
0.0
 40
11.069917
100
AcDbArc
 50
313.095172
 51
347.333361
  0
ARC
  5
3A1
100
AcDbEntity
  8
2
100
AcDbCircle
 10
-256.937052
 20
213.174095
 30
0.0
 40
11.409614
100
AcDbArc
 50
314.654136
 51
349.891126
  0
ARC
  5
3A2
100
AcDbEntity
  8
2
100
AcDbCircle
 10
-243.243371
 20
210.73269
 30
0.0
 40
2.5
100
AcDbArc
 50
90.0
 51
169.891126
  0
ARC
  5
3A3
100
AcDbEntity
  8
2
100
AcDbCircle
 10
-242.337531
 20
211.23269
 30
0.0
 40
2.0
100
AcDbArc
 50
347.333361
 51
90.0
  0
ARC
  5
3A4
100
AcDbEntity
  8
2
100
AcDbCircle
 10
-250.981369
 20
213.002057
 30
0.0
 40
10.769367
100
AcDbArc
 50
256.761975
 51
313.095172
  0
ARC
  5
3A5
100
AcDbEntity
  8
2
100
AcDbCircle
 10
-255.796973
 20
212.020168
 30
0.0
 40
9.787478
100
AcDbArc
 50
270.0
 51
314.654136
  0
LINE
  5
3A6
100
AcDbEntity
  8
2
100
AcDbLine
 10
-257.580085
 20
202.23269
 30
0.0
 11
-255.796973
 21
202.23269
 31
0.0
  0
LINE
  5
3A7
100
AcDbEntity
  8
2
100
AcDbLine
 10
-250.981369
 20
202.23269
 30
0.0
 11
-249.885631
 21
202.23269
 31
0.0
  0
LINE
  5
3A8
100
AcDbEntity
  8
2
100
AcDbLine
 10
-358.885631
 20
226.23269
 30
0.0
 11
-318.885631
 21
226.23269
 31
0.0
  0
LINE
  5
3A9
100
AcDbEntity
  8
2
100
AcDbLine
 10
-346.385631
 20
228.23269
 30
0.0
 11
-346.385631
 21
233.011002
 31
0.0
  0
LINE
  5
3AA
100
AcDbEntity
  8
2
100
AcDbLine
 10
-346.385631
 20
233.011002
 30
0.0
 11
-345.135631
 21
233.73269
 31
0.0
  0
LINE
  5
3AB
100
AcDbEntity
  8
2
100
AcDbLine
 10
-342.635631
 20
228.23269
 30
0.0
 11
-342.635631
 21
233.011002
 31
0.0
  0
ARC
  5
3AC
100
AcDbEntity
  8
2
100
AcDbCircle
 10
-344.510631
 20
230.600626
 30
0.0
 40
3.053774
100
AcDbArc
 50
52.121121
 51
127.878879
  0
ARC
  5
3AD
100
AcDbEntity
  8
2
100
AcDbCircle
 10
-338.885631
 20
222.404401
 30
0.0
 40
11.25
100
AcDbArc
 50
70.528779
 51
109.471221
  0
LINE
  5
3AE
100
AcDbEntity
  8
2
100
AcDbLine
 10
-331.385631
 20
228.23269
 30
0.0
 11
-331.385631
 21
233.011002
 31
0.0
  0
LINE
  5
3AF
100
AcDbEntity
  8
2
100
AcDbLine
 10
-331.385631
 20
233.011002
 30
0.0
 11
-332.635631
 21
233.73269
 31
0.0
  0
LINE
  5
3B0
100
AcDbEntity
  8
2
100
AcDbLine
 10
-332.635631
 20
233.73269
 30
0.0
 11
-345.135631
 21
233.73269
 31
0.0
  0
LINE
  5
3B1
100
AcDbEntity
  8
2
100
AcDbLine
 10
-335.135631
 20
228.23269
 30
0.0
 11
-335.135631
 21
233.011002
 31
0.0
  0
ARC
  5
3B2
100
AcDbEntity
  8
2
100
AcDbCircle
 10
-333.260631
 20
230.600626
 30
0.0
 40
3.053774
100
AcDbArc
 50
52.121121
 51
127.878879
  0
LINE
  5
3B3
100
AcDbEntity
  8
2
100
AcDbLine
 10
-346.585631
 20
226.23269
 30
0.0
 11
-346.585631
 21
228.23269
 31
0.0
  0
LINE
  5
3B4
100
AcDbEntity
  8
2
100
AcDbLine
 10
-346.585631
 20
228.23269
 30
0.0
 11
-331.185631
 21
228.23269
 31
0.0
  0
LINE
  5
3B5
100
AcDbEntity
  8
2
100
AcDbLine
 10
-331.185631
 20
228.23269
 30
0.0
 11
-331.185631
 21
226.23269
 31
0.0
  0
LINE
  5
3B6
100
AcDbEntity
  8
2
100
AcDbLine
 10
-338.885631
 20
228.23269
 30
0.0
 11
-338.385631
 21
226.23269
 31
0.0
  0
LINE
  5
3B7
100
AcDbEntity
  8
2
100
AcDbLine
 10
-338.885631
 20
226.23269
 30
0.0
 11
-339.385631
 21
228.23269
 31
0.0
  0
LINE
  5
3B8
100
AcDbEntity
  8
2
100
AcDbLine
 10
-358.885631
 20
226.23269
 30
0.0
 11
-358.885631
 21
224.23269
 31
0.0
  0
LINE
  5
3B9
100
AcDbEntity
  8
2
100
AcDbLine
 10
-318.885631
 20
226.23269
 30
0.0
 11
-318.885631
 21
224.23269
 31
0.0
  0
LINE
  5
3BA
100
AcDbEntity
  8
2
100
AcDbLine
 10
-322.793108
 20
115.73269
 30
0.0
 11
-312.978154
 21
115.73269
 31
0.0
  0
LINE
  5
3BB
100
AcDbEntity
  8
2
100
AcDbLine
 10
-322.793108
 20
98.73269
 30
0.0
 11
-312.978154
 21
98.73269
 31
0.0
  0
LINE
  5
3BC
100
AcDbEntity
  8
2
100
AcDbLine
 10
-327.700585
 20
107.23269
 30
0.0
 11
-322.793108
 21
115.73269
 31
0.0
  0
LINE
  5
3BD
100
AcDbEntity
  8
2
100
AcDbLine
 10
-312.978154
 20
98.73269
 30
0.0
 11
-308.070676
 21
107.23269
 31
0.0
  0
LINE
  5
3BE
100
AcDbEntity
  8
2
100
AcDbLine
 10
-322.793108
 20
98.73269
 30
0.0
 11
-327.700585
 21
107.23269
 31
0.0
  0
LINE
  5
3BF
100
AcDbEntity
  8
2
100
AcDbLine
 10
-308.070676
 20
107.23269
 30
0.0
 11
-312.978154
 21
115.73269
 31
0.0
  0
LINE
  5
3C0
100
AcDbEntity
  8
2
100
AcDbLine
 10
-354.978154
 20
115.73269
 30
0.0
 11
-364.793108
 21
115.73269
 31
0.0
  0
LINE
  5
3C1
100
AcDbEntity
  8
2
100
AcDbLine
 10
-350.070676
 20
107.23269
 30
0.0
 11
-354.978154
 21
115.73269
 31
0.0
  0
LINE
  5
3C2
100
AcDbEntity
  8
2
100
AcDbLine
 10
-364.793108
 20
98.73269
 30
0.0
 11
-369.700585
 21
107.23269
 31
0.0
  0
LINE
  5
3C3
100
AcDbEntity
  8
2
100
AcDbLine
 10
-369.700585
 20
107.23269
 30
0.0
 11
-364.793108
 21
115.73269
 31
0.0
  0
LINE
  5
3C4
100
AcDbEntity
  8
2
100
AcDbLine
 10
-354.978154
 20
98.73269
 30
0.0
 11
-364.793108
 21
98.73269
 31
0.0
  0
LINE
  5
3C5
100
AcDbEntity
  8
2
100
AcDbLine
 10
-354.978154
 20
98.73269
 30
0.0
 11
-350.070676
 21
107.23269
 31
0.0
  0
LINE
  5
3C6
100
AcDbEntity
  8
2
100
AcDbLine
 10
-308.085631
 20
332.871131
 30
0.0
 11
-308.085631
 21
326.660916
 31
0.0
  0
LINE
  5
3C7
100
AcDbEntity
  8
2
100
AcDbLine
 10
-308.085631
 20
326.660916
 30
0.0
 11
-309.635631
 21
325.766023
 31
0.0
  0
LINE
  5
3C8
100
AcDbEntity
  8
2
100
AcDbLine
 10
-312.985631
 20
332.871131
 30
0.0
 11
-312.985631
 21
326.660916
 31
0.0
  0
ARC
  5
3C9
100
AcDbEntity
  8
2
100
AcDbCircle
 10
-310.535631
 20
329.810474
 30
0.0
 40
3.990265
100
AcDbArc
 50
232.121121
 51
307.878879
  0
ARC
  5
3CA
100
AcDbEntity
  8
2
100
AcDbCircle
 10
-317.885631
 20
340.520209
 30
0.0
 40
14.7
100
AcDbArc
 50
250.528777
 51
289.471219
  0
LINE
  5
3CB
100
AcDbEntity
  8
2
100
AcDbLine
 10
-327.685631
 20
332.871131
 30
0.0
 11
-327.685631
 21
326.660916
 31
0.0
  0
LINE
  5
3CC
100
AcDbEntity
  8
2
100
AcDbLine
 10
-327.685631
 20
326.660916
 30
0.0
 11
-326.135631
 21
325.766023
 31
0.0
  0
LINE
  5
3CD
100
AcDbEntity
  8
2
100
AcDbLine
 10
-326.135631
 20
325.766023
 30
0.0
 11
-309.635631
 21
325.766023
 31
0.0
  0
LINE
  5
3CE
100
AcDbEntity
  8
2
100
AcDbLine
 10
-322.785631
 20
332.871131
 30
0.0
 11
-322.785631
 21
326.660916
 31
0.0
  0
ARC
  5
3CF
100
AcDbEntity
  8
2
100
AcDbCircle
 10
-325.235631
 20
329.810474
 30
0.0
 40
3.990265
100
AcDbArc
 50
232.121121
 51
307.878879
  0
LINE
  5
3D0
100
AcDbEntity
  8
2
100
AcDbLine
 10
-308.085631
 20
332.871131
 30
0.0
 11
-309.635631
 21
333.766023
 31
0.0
  0
ARC
  5
3D1
100
AcDbEntity
  8
2
100
AcDbCircle
 10
-310.535631
 20
329.721573
 30
0.0
 40
3.990265
100
AcDbArc
 50
52.121121
 51
127.878879
  0
ARC
  5
3D2
100
AcDbEntity
  8
2
100
AcDbCircle
 10
-317.885631
 20
319.011838
 30
0.0
 40
14.7
100
AcDbArc
 50
70.528781
 51
109.471223
  0
LINE
  5
3D3
100
AcDbEntity
  8
2
100
AcDbLine
 10
-327.685631
 20
332.871131
 30
0.0
 11
-326.135631
 21
333.766023
 31
0.0
  0
ARC
  5
3D4
100
AcDbEntity
  8
2
100
AcDbCircle
 10
-325.235631
 20
329.721573
 30
0.0
 40
3.990265
100
AcDbArc
 50
52.121121
 51
127.878879
  0
LINE
  5
3D5
100
AcDbEntity
  8
2
100
AcDbLine
 10
-322.073631
 20
323.766023
 30
0.0
 11
-322.885631
 21
324.578023
 31
0.0
  0
LINE
  5
3D6
100
AcDbEntity
  8
2
100
AcDbLine
 10
-322.885631
 20
324.578023
 30
0.0
 11
-322.885631
 21
325.766023
 31
0.0
  0
LINE
  5
3D7
100
AcDbEntity
  8
2
 62
     2
100
AcDbLine
 10
-322.073631
 20
323.766023
 30
0.0
 11
-322.073631
 21
325.766023
 31
0.0
  0
LINE
  5
3D8
100
AcDbEntity
  8
2
100
AcDbLine
 10
-313.697631
 20
323.766023
 30
0.0
 11
-322.073631
 21
323.766023
 31
0.0
  0
LINE
  5
3D9
100
AcDbEntity
  8
2
100
AcDbLine
 10
-313.697631
 20
323.766023
 30
0.0
 11
-312.885631
 21
324.578023
 31
0.0
  0
LINE
  5
3DA
100
AcDbEntity
  8
2
100
AcDbLine
 10
-312.885631
 20
324.578023
 30
0.0
 11
-312.885631
 21
325.766023
 31
0.0
  0
LINE
  5
3DB
100
AcDbEntity
  8
2
100
AcDbLine
 10
-312.885631
 20
324.578023
 30
0.0
 11
-322.885631
 21
324.578023
 31
0.0
  0
LINE
  5
3DC
100
AcDbEntity
  8
2
 62
     2
100
AcDbLine
 10
-313.697631
 20
323.766023
 30
0.0
 11
-313.697631
 21
325.766023
 31
0.0
  0
LINE
  5
3DD
100
AcDbEntity
  8
2
  6
CENTER
 62
     2
100
AcDbLine
 10
-317.885631
 20
317.871231
 30
0.0
 11
-317.885631
 21
349.94805
 31
0.0
  0
LINE
  5
3DE
100
AcDbEntity
  8
2
100
AcDbLine
 10
-369.685631
 20
332.871131
 30
0.0
 11
-369.685631
 21
326.660916
 31
0.0
  0
LINE
  5
3DF
100
AcDbEntity
  8
2
100
AcDbLine
 10
-369.685631
 20
326.660916
 30
0.0
 11
-368.135631
 21
325.766023
 31
0.0
  0
LINE
  5
3E0
100
AcDbEntity
  8
2
100
AcDbLine
 10
-364.785631
 20
332.871131
 30
0.0
 11
-364.785631
 21
326.660916
 31
0.0
  0
ARC
  5
3E1
100
AcDbEntity
  8
2
100
AcDbCircle
 10
-367.235631
 20
329.810474
 30
0.0
 40
3.990265
100
AcDbArc
 50
232.121121
 51
307.878879
  0
ARC
  5
3E2
100
AcDbEntity
  8
2
100
AcDbCircle
 10
-359.885631
 20
340.520209
 30
0.0
 40
14.7
100
AcDbArc
 50
250.528781
 51
289.471223
  0
LINE
  5
3E3
100
AcDbEntity
  8
2
100
AcDbLine
 10
-350.085631
 20
332.871131
 30
0.0
 11
-350.085631
 21
326.660916
 31
0.0
  0
LINE
  5
3E4
100
AcDbEntity
  8
2
100
AcDbLine
 10
-350.085631
 20
326.660916
 30
0.0
 11
-351.635631
 21
325.766023
 31
0.0
  0
LINE
  5
3E5
100
AcDbEntity
  8
2
100
AcDbLine
 10
-351.635631
 20
325.766023
 30
0.0
 11
-368.135631
 21
325.766023
 31
0.0
  0
LINE
  5
3E6
100
AcDbEntity
  8
2
100
AcDbLine
 10
-354.985631
 20
332.871131
 30
0.0
 11
-354.985631
 21
326.660916
 31
0.0
  0
ARC
  5
3E7
100
AcDbEntity
  8
2
100
AcDbCircle
 10
-352.535631
 20
329.810474
 30
0.0
 40
3.990265
100
AcDbArc
 50
232.121121
 51
307.878879
  0
LINE
  5
3E8
100
AcDbEntity
  8
2
100
AcDbLine
 10
-369.685631
 20
332.871131
 30
0.0
 11
-368.135631
 21
333.766023
 31
0.0
  0
ARC
  5
3E9
100
AcDbEntity
  8
2
100
AcDbCircle
 10
-367.235631
 20
329.721573
 30
0.0
 40
3.990265
100
AcDbArc
 50
52.121121
 51
127.878879
  0
ARC
  5
3EA
100
AcDbEntity
  8
2
100
AcDbCircle
 10
-359.885631
 20
319.011838
 30
0.0
 40
14.7
100
AcDbArc
 50
70.528777
 51
109.471219
  0
LINE
  5
3EB
100
AcDbEntity
  8
2
100
AcDbLine
 10
-350.085631
 20
332.871131
 30
0.0
 11
-351.635631
 21
333.766023
 31
0.0
  0
ARC
  5
3EC
100
AcDbEntity
  8
2
100
AcDbCircle
 10
-352.535631
 20
329.721573
 30
0.0
 40
3.990265
100
AcDbArc
 50
52.121121
 51
127.878879
  0
LINE
  5
3ED
100
AcDbEntity
  8
2
100
AcDbLine
 10
-355.697631
 20
323.766023
 30
0.0
 11
-354.885631
 21
324.578023
 31
0.0
  0
LINE
  5
3EE
100
AcDbEntity
  8
2
100
AcDbLine
 10
-354.885631
 20
324.578023
 30
0.0
 11
-354.885631
 21
325.766023
 31
0.0
  0
LINE
  5
3EF
100
AcDbEntity
  8
2
 62
     2
100
AcDbLine
 10
-355.697631
 20
323.766023
 30
0.0
 11
-355.697631
 21
325.766023
 31
0.0
  0
LINE
  5
3F0
100
AcDbEntity
  8
2
100
AcDbLine
 10
-364.073631
 20
323.766023
 30
0.0
 11
-355.697631
 21
323.766023
 31
0.0
  0
LINE
  5
3F1
100
AcDbEntity
  8
2
100
AcDbLine
 10
-364.073631
 20
323.766023
 30
0.0
 11
-364.885631
 21
324.578023
 31
0.0
  0
LINE
  5
3F2
100
AcDbEntity
  8
2
100
AcDbLine
 10
-364.885631
 20
324.578023
 30
0.0
 11
-364.885631
 21
325.766023
 31
0.0
  0
LINE
  5
3F3
100
AcDbEntity
  8
2
100
AcDbLine
 10
-364.885631
 20
324.578023
 30
0.0
 11
-354.885631
 21
324.578023
 31
0.0
  0
LINE
  5
3F4
100
AcDbEntity
  8
2
 62
     2
100
AcDbLine
 10
-364.073631
 20
323.766023
 30
0.0
 11
-364.073631
 21
325.766023
 31
0.0
  0
LINE
  5
3F5
100
AcDbEntity
  8
2
  6
CENTER
 62
     2
100
AcDbLine
 10
-359.885631
 20
317.871231
 30
0.0
 11
-359.885631
 21
349.94805
 31
0.0
  0
LINE
  5
3F6
100
AcDbEntity
  8
2
100
AcDbLine
 10
72.514369
 20
147.23269
 30
0.0
 11
72.514369
 21
82.763819
 31
0.0
  0
ARC
  5
3F7
100
AcDbEntity
  8
2
100
AcDbCircle
 10
72.514369
 20
148.23269
 30
0.0
 40
1.0
100
AcDbArc
 50
270.0
 51
360.0
  0
ARC
  5
3F8
100
AcDbEntity
  8
2
100
AcDbCircle
 10
69.514369
 20
82.763819
 30
0.0
 40
3.0
100
AcDbArc
 50
296.3878
 51
360.0
  0
LINE
  5
3F9
100
AcDbEntity
  8
2
100
AcDbLine
 10
62.514369
 20
111.42069
 30
0.0
 11
63.326369
 21
112.23269
 31
0.0
  0
LINE
  5
3FA
100
AcDbEntity
  8
2
100
AcDbLine
 10
63.326369
 20
112.23269
 30
0.0
 11
64.514369
 21
112.23269
 31
0.0
  0
LINE
  5
3FB
100
AcDbEntity
  8
2
 62
     2
100
AcDbLine
 10
62.514369
 20
111.42069
 30
0.0
 11
64.514369
 21
111.42069
 31
0.0
  0
LINE
  5
3FC
100
AcDbEntity
  8
2
100
AcDbLine
 10
62.514369
 20
103.04469
 30
0.0
 11
62.514369
 21
111.42069
 31
0.0
  0
LINE
  5
3FD
100
AcDbEntity
  8
2
100
AcDbLine
 10
62.514369
 20
103.04469
 30
0.0
 11
63.326369
 21
102.23269
 31
0.0
  0
LINE
  5
3FE
100
AcDbEntity
  8
2
100
AcDbLine
 10
63.326369
 20
102.23269
 30
0.0
 11
64.514369
 21
102.23269
 31
0.0
  0
LINE
  5
3FF
100
AcDbEntity
  8
2
100
AcDbLine
 10
63.326369
 20
102.23269
 30
0.0
 11
63.326369
 21
112.23269
 31
0.0
  0
LINE
  5
400
100
AcDbEntity
  8
2
 62
     2
100
AcDbLine
 10
62.514369
 20
103.04469
 30
0.0
 11
64.514369
 21
103.04469
 31
0.0
  0
LINE
  5
401
100
AcDbEntity
  8
2
  6
CENTER
 62
     2
100
AcDbLine
 10
56.619576
 20
107.23269
 30
0.0
 11
88.696396
 21
107.23269
 31
0.0
  0
LINE
  5
402
100
AcDbEntity
  8
2
100
AcDbLine
 10
78.73561
 20
147.23269
 30
0.0
 11
78.73561
 21
118.750682
 31
0.0
  0
LINE
  5
403
100
AcDbEntity
  8
2
100
AcDbLine
 10
85.383651
 20
109.23269
 30
0.0
 11
85.383651
 21
105.23269
 31
0.0
  0
ARC
  5
404
100
AcDbEntity
  8
2
100
AcDbCircle
 10
77.246182
 20
109.23269
 30
0.0
 40
8.137469
100
AcDbArc
 50
0.0
 51
69.866365
  0
ARC
  5
405
100
AcDbEntity
  8
2
100
AcDbCircle
 10
80.73561
 20
118.750682
 30
0.0
 40
2.0
100
AcDbArc
 50
180.0
 51
249.866365
  0
ARC
  5
406
100
AcDbEntity
  8
2
100
AcDbCircle
 10
77.73561
 20
148.23269
 30
0.0
 40
1.0
100
AcDbArc
 50
270.0
 51
360.0
  0
LINE
  5
407
100
AcDbEntity
  8
2
100
AcDbLine
 10
72.514369
 20
98.73269
 30
0.0
 11
64.514369
 21
98.73269
 31
0.0
  0
LINE
  5
408
100
AcDbEntity
  8
2
100
AcDbLine
 10
64.514369
 20
98.73269
 30
0.0
 11
64.514369
 21
115.73269
 31
0.0
  0
ARC
  5
409
100
AcDbEntity
  8
2
100
AcDbCircle
 10
75.053805
 20
102.98269
 30
0.0
 40
10.539436
100
AcDbArc
 50
156.218654
 51
203.781346
  0
LINE
  5
40A
100
AcDbEntity
  8
2
100
AcDbLine
 10
72.514369
 20
115.73269
 30
0.0
 11
64.514369
 21
115.73269
 31
0.0
  0
LINE
  5
40B
100
AcDbEntity
  8
2
100
AcDbLine
 10
71.619476
 20
107.23269
 30
0.0
 11
65.409262
 21
107.23269
 31
0.0
  0
ARC
  5
40C
100
AcDbEntity
  8
2
100
AcDbCircle
 10
75.053805
 20
111.48269
 30
0.0
 40
10.539436
100
AcDbArc
 50
156.218654
 51
203.781346
  0
ARC
  5
40D
100
AcDbEntity
  8
2
100
AcDbCircle
 10
61.974933
 20
111.48269
 30
0.0
 40
10.539436
100
AcDbArc
 50
336.218654
 51
23.781346
  0
ARC
  5
40E
100
AcDbEntity
  8
2
100
AcDbCircle
 10
61.974933
 20
102.98269
 30
0.0
 40
10.539436
100
AcDbArc
 50
336.218654
 51
23.781346
  0
LINE
  5
40F
100
AcDbEntity
  8
2
100
AcDbLine
 10
43.514369
 20
224.23269
 30
0.0
 11
221.514369
 21
224.23269
 31
0.0
  0
ARC
  5
410
100
AcDbEntity
  8
2
100
AcDbCircle
 10
43.514369
 20
213.23269
 30
0.0
 40
11.0
100
AcDbArc
 50
90.0
 51
270.0
  0
ARC
  5
411
100
AcDbEntity
  8
2
100
AcDbCircle
 10
201.63055
 20
212.781421
 30
0.0
 40
79.570307
100
AcDbArc
 50
181.907508
 51
187.294014
  0
ARC
  5
412
100
AcDbEntity
  8
2
100
AcDbCircle
 10
63.398188
 20
212.781421
 30
0.0
 40
79.570307
100
AcDbArc
 50
352.705986
 51
358.092492
  0
LINE
  5
413
100
AcDbEntity
  8
2
100
AcDbLine
 10
139.926065
 20
213.23269
 30
0.0
 11
125.102674
 21
213.23269
 31
0.0
  0
ARC
  5
414
100
AcDbEntity
  8
2
100
AcDbCircle
 10
125.102674
 20
210.23269
 30
0.0
 40
3.0
100
AcDbArc
 50
90.0
 51
181.907508
  0
ARC
  5
415
100
AcDbEntity
  8
2
100
AcDbCircle
 10
139.926065
 20
210.23269
 30
0.0
 40
3.0
100
AcDbArc
 50
358.092492
 51
90.0
  0
ARC
  5
416
100
AcDbEntity
  8
2
100
AcDbCircle
 10
141.817402
 20
202.744015
 30
0.0
 40
0.511325
100
AcDbArc
 50
196.739333
 51
352.705986
  0
ARC
  5
417
100
AcDbEntity
  8
2
100
AcDbCircle
 10
123.211336
 20
202.744015
 30
0.0
 40
0.511325
100
AcDbArc
 50
187.294014
 51
343.260667
  0
LINE
  5
418
100
AcDbEntity
  8
2
100
AcDbLine
 10
138.45487
 20
204.73269
 30
0.0
 11
126.573868
 21
204.73269
 31
0.0
  0
ARC
  5
419
100
AcDbEntity
  8
2
100
AcDbCircle
 10
126.573868
 20
201.73269
 30
0.0
 40
3.0
100
AcDbArc
 50
90.0
 51
163.260667
  0
ARC
  5
41A
100
AcDbEntity
  8
2
100
AcDbCircle
 10
138.45487
 20
201.73269
 30
0.0
 40
3.0
100
AcDbArc
 50
16.739333
 51
90.0
  0
ARC
  5
41B
100
AcDbEntity
  8
2
100
AcDbCircle
 10
120.775543
 20
212.835031
 30
0.0
 40
24.10125
100
AcDbArc
 50
187.084118
 51
202.377644
  0
ARC
  5
41C
100
AcDbEntity
  8
2
100
AcDbCircle
 10
170.27328
 20
212.787601
 30
0.0
 40
53.404212
100
AcDbArc
 50
182.596184
 51
190.675608
  0
LINE
  5
41D
100
AcDbEntity
  8
2
100
AcDbLine
 10
113.926962
 20
213.23269
 30
0.0
 11
99.835377
 21
213.23269
 31
0.0
  0
ARC
  5
41E
100
AcDbEntity
  8
2
100
AcDbCircle
 10
99.835377
 20
210.23269
 30
0.0
 40
3.0
100
AcDbArc
 50
90.0
 51
187.084118
  0
ARC
  5
41F
100
AcDbEntity
  8
2
100
AcDbCircle
 10
113.926962
 20
210.23269
 30
0.0
 40
3.0
100
AcDbArc
 50
2.596184
 51
90.0
  0
ARC
  5
420
100
AcDbEntity
  8
2
100
AcDbCircle
 10
100.619622
 20
204.536559
 30
0.0
 40
2.303869
100
AcDbArc
 50
202.377644
 51
328.085987
  0
ARC
  5
421
100
AcDbEntity
  8
2
100
AcDbCircle
 10
118.591702
 20
203.045051
 30
0.0
 40
0.812361
100
AcDbArc
 50
190.675608
 51
270.0
  0
LINE
  5
422
100
AcDbEntity
  8
2
100
AcDbLine
 10
151.514369
 20
202.23269
 30
0.0
 11
113.514369
 21
202.23269
 31
0.0
  0
LINE
  5
423
100
AcDbEntity
  8
2
100
AcDbLine
 10
115.012344
 20
204.73269
 30
0.0
 11
100.751406
 21
204.73269
 31
0.0
  0
ARC
  5
424
100
AcDbEntity
  8
2
100
AcDbCircle
 10
105.12177
 20
201.73269
 30
0.0
 40
3.0
100
AcDbArc
 50
90.0
 51
148.085987
  0
ARC
  5
425
100
AcDbEntity
  8
2
100
AcDbCircle
 10
115.012344
 20
201.73269
 30
0.0
 40
3.0
100
AcDbArc
 50
20.135311
 51
90.0
  0
ARC
  5
426
100
AcDbEntity
  8
2
100
AcDbCircle
 10
89.429851
 20
212.934068
 30
0.0
 40
15.696848
100
AcDbArc
 50
192.284128
 51
213.145156
  0
ARC
  5
427
100
AcDbEntity
  8
2
100
AcDbCircle
 10
113.319759
 20
212.851916
 30
0.0
 40
21.482429
100
AcDbArc
 50
186.14148
 51
204.857013
  0
LINE
  5
428
100
AcDbEntity
  8
2
100
AcDbLine
 10
88.977841
 20
213.23269
 30
0.0
 11
77.023703
 21
213.23269
 31
0.0
  0
ARC
  5
429
100
AcDbEntity
  8
2
100
AcDbCircle
 10
77.023703
 20
210.23269
 30
0.0
 40
3.0
100
AcDbArc
 50
90.0
 51
192.284128
  0
ARC
  5
42A
100
AcDbEntity
  8
2
100
AcDbCircle
 10
88.977841
 20
210.23269
 30
0.0
 40
3.0
100
AcDbArc
 50
6.14148
 51
90.0
  0
ARC
  5
42B
100
AcDbEntity
  8
2
100
AcDbCircle
 10
96.314808
 20
204.973983
 30
0.0
 40
2.741293
100
AcDbArc
 50
204.857013
 51
270.0
  0
ARC
  5
42C
100
AcDbEntity
  8
2
100
AcDbCircle
 10
80.201482
 20
206.907801
 30
0.0
 40
4.67511
100
AcDbArc
 50
213.145156
 51
317.602374
  0
LINE
  5
42D
100
AcDbEntity
  8
2
100
AcDbLine
 10
93.430744
 20
204.73269
 30
0.0
 11
79.090886
 21
204.73269
 31
0.0
  0
ARC
  5
42E
100
AcDbEntity
  8
2
100
AcDbCircle
 10
85.869422
 20
201.73269
 30
0.0
 40
3.0
100
AcDbArc
 50
90.0
 51
137.602374
  0
LINE
  5
42F
100
AcDbEntity
  8
2
100
AcDbLine
 10
100.619622
 20
202.23269
 30
0.0
 11
96.314808
 21
202.23269
 31
0.0
  0
ARC
  5
430
100
AcDbEntity
  8
2
100
AcDbCircle
 10
67.571848
 20
213.051993
 30
0.0
 40
12.773353
100
AcDbArc
 50
193.047521
 51
220.343373
  0
ARC
  5
431
100
AcDbEntity
  8
2
100
AcDbCircle
 10
84.458418
 20
212.957133
 30
0.0
 40
14.878639
100
AcDbArc
 50
188.765186
 51
214.843294
  0
LINE
  5
432
100
AcDbEntity
  8
2
100
AcDbLine
 10
66.78858
 20
213.23269
 30
0.0
 11
57.56372
 21
213.23269
 31
0.0
  0
ARC
  5
433
100
AcDbEntity
  8
2
100
AcDbCircle
 10
66.78858
 20
210.23269
 30
0.0
 40
3.0
100
AcDbArc
 50
8.765186
 51
90.0
  0
ARC
  5
434
100
AcDbEntity
  8
2
100
AcDbCircle
 10
57.56372
 20
210.73269
 30
0.0
 40
2.5
100
AcDbArc
 50
90.0
 51
193.047521
  0
ARC
  5
435
100
AcDbEntity
  8
2
100
AcDbCircle
 10
63.348379
 20
209.46473
 30
0.0
 40
7.23204
100
AcDbArc
 50
220.343373
 51
310.9161
  0
ARC
  5
436
100
AcDbEntity
  8
2
100
AcDbCircle
 10
76.504854
 20
207.420345
 30
0.0
 40
5.187654
100
AcDbArc
 50
214.843294
 51
270.0
  0
LINE
  5
437
100
AcDbEntity
  8
2
100
AcDbLine
 10
80.201482
 20
202.23269
 30
0.0
 11
76.504854
 21
202.23269
 31
0.0
  0
LINE
  5
438
100
AcDbEntity
  8
2
100
AcDbLine
 10
72.059528
 20
204.73269
 30
0.0
 11
61.544329
 21
204.73269
 31
0.0
  0
ARC
  5
439
100
AcDbEntity
  8
2
100
AcDbCircle
 10
70.049886
 20
201.73269
 30
0.0
 40
3.0
100
AcDbArc
 50
90.0
 51
130.9161
  0
LINE
  5
43A
100
AcDbEntity
  8
2
100
AcDbLine
 10
49.296445
 20
213.23269
 30
0.0
 11
43.990389
 21
213.23269
 31
0.0
  0
LINE
  5
43B
100
AcDbEntity
  8
2
100
AcDbLine
 10
36.872109
 20
213.23269
 30
0.0
 11
35.96627
 21
213.23269
 31
0.0
  0
ARC
  5
43C
100
AcDbEntity
  8
2
100
AcDbCircle
 10
52.70963
 20
213.15721
 30
0.0
 40
11.550053
100
AcDbArc
 50
195.539411
 51
224.747415
  0
ARC
  5
43D
100
AcDbEntity
  8
2
100
AcDbCircle
 10
64.051081
 20
213.075058
 30
0.0
 40
12.43941
100
AcDbArc
 50
189.020695
 51
221.426334
  0
ARC
  5
43E
100
AcDbEntity
  8
2
100
AcDbCircle
 10
43.990389
 20
210.73269
 30
0.0
 40
2.5
100
AcDbArc
 50
90.0
 51
195.539411
  0
ARC
  5
43F
100
AcDbEntity
  8
2
100
AcDbCircle
 10
49.296445
 20
210.73269
 30
0.0
 40
2.5
100
AcDbArc
 50
9.020695
 51
90.0
  0
ARC
  5
440
100
AcDbEntity
  8
2
100
AcDbCircle
 10
60.511857
 20
209.95192
 30
0.0
 40
7.71923
100
AcDbArc
 50
221.426334
 51
270.0
  0
ARC
  5
441
100
AcDbEntity
  8
2
100
AcDbCircle
 10
51.208823
 20
211.669578
 30
0.0
 40
9.436887
100
AcDbArc
 50
224.747415
 51
301.319694
  0
LINE
  5
442
100
AcDbEntity
  8
2
100
AcDbLine
 10
63.348379
 20
202.23269
 30
0.0
 11
60.511857
 21
202.23269
 31
0.0
  0
LINE
  5
443
100
AcDbEntity
  8
2
100
AcDbLine
 10
54.824489
 20
204.73269
 30
0.0
 11
49.403434
 21
204.73269
 31
0.0
  0
ARC
  5
444
100
AcDbEntity
  8
2
100
AcDbCircle
 10
44.815447
 20
213.221525
 30
0.0
 40
11.069917
100
AcDbArc
 50
192.666639
 51
226.904828
  0
ARC
  5
445
100
AcDbEntity
  8
2
100
AcDbCircle
 10
50.56579
 20
213.174095
 30
0.0
 40
11.409614
100
AcDbArc
 50
190.108874
 51
225.345864
  0
ARC
  5
446
100
AcDbEntity
  8
2
100
AcDbCircle
 10
36.872109
 20
210.73269
 30
0.0
 40
2.5
100
AcDbArc
 50
10.108874
 51
90.0
  0
ARC
  5
447
100
AcDbEntity
  8
2
100
AcDbCircle
 10
35.96627
 20
211.23269
 30
0.0
 40
2.0
100
AcDbArc
 50
90.0
 51
192.666639
  0
ARC
  5
448
100
AcDbEntity
  8
2
100
AcDbCircle
 10
44.610107
 20
213.002057
 30
0.0
 40
10.769367
100
AcDbArc
 50
226.904828
 51
283.238025
  0
ARC
  5
449
100
AcDbEntity
  8
2
100
AcDbCircle
 10
49.425711
 20
212.020168
 30
0.0
 40
9.787478
100
AcDbArc
 50
225.345864
 51
270.0
  0
LINE
  5
44A
100
AcDbEntity
  8
2
100
AcDbLine
 10
51.208823
 20
202.23269
 30
0.0
 11
49.425711
 21
202.23269
 31
0.0
  0
LINE
  5
44B
100
AcDbEntity
  8
2
100
AcDbLine
 10
44.610107
 20
202.23269
 30
0.0
 11
43.514369
 21
202.23269
 31
0.0
  0
ARC
  5
44C
100
AcDbEntity
  8
2
100
AcDbCircle
 10
129.050083
 20
213.23269
 30
0.0
 40
19.035714
100
AcDbArc
 50
206.52121
 51
215.300248
  0
ARC
  5
44D
100
AcDbEntity
  8
2
100
AcDbCircle
 10
135.978655
 20
213.23269
 30
0.0
 40
19.035714
100
AcDbArc
 50
324.699752
 51
333.47879
  0
ARC
  5
44E
100
AcDbEntity
  8
2
100
AcDbCircle
 10
221.514369
 20
213.23269
 30
0.0
 40
11.0
100
AcDbArc
 50
270.0
 51
90.0
  0
ARC
  5
44F
100
AcDbEntity
  8
2
100
AcDbCircle
 10
144.253195
 20
212.835031
 30
0.0
 40
24.10125
100
AcDbArc
 50
337.622356
 51
352.915882
  0
ARC
  5
450
100
AcDbEntity
  8
2
100
AcDbCircle
 10
94.755459
 20
212.787601
 30
0.0
 40
53.404212
100
AcDbArc
 50
349.324392
 51
357.403816
  0
LINE
  5
451
100
AcDbEntity
  8
2
100
AcDbLine
 10
151.101776
 20
213.23269
 30
0.0
 11
165.193361
 21
213.23269
 31
0.0
  0
ARC
  5
452
100
AcDbEntity
  8
2
100
AcDbCircle
 10
165.193361
 20
210.23269
 30
0.0
 40
3.0
100
AcDbArc
 50
352.915882
 51
90.0
  0
ARC
  5
453
100
AcDbEntity
  8
2
100
AcDbCircle
 10
151.101776
 20
210.23269
 30
0.0
 40
3.0
100
AcDbArc
 50
90.0
 51
177.403816
  0
ARC
  5
454
100
AcDbEntity
  8
2
100
AcDbCircle
 10
164.409117
 20
204.536559
 30
0.0
 40
2.303869
100
AcDbArc
 50
211.914013
 51
337.622356
  0
ARC
  5
455
100
AcDbEntity
  8
2
100
AcDbCircle
 10
146.437036
 20
203.045051
 30
0.0
 40
0.812361
100
AcDbArc
 50
270.0
 51
349.324392
  0
LINE
  5
456
100
AcDbEntity
  8
2
100
AcDbLine
 10
150.016395
 20
204.73269
 30
0.0
 11
164.277332
 21
204.73269
 31
0.0
  0
ARC
  5
457
100
AcDbEntity
  8
2
100
AcDbCircle
 10
159.906968
 20
201.73269
 30
0.0
 40
3.0
100
AcDbArc
 50
31.914013
 51
90.0
  0
ARC
  5
458
100
AcDbEntity
  8
2
100
AcDbCircle
 10
150.016395
 20
201.73269
 30
0.0
 40
3.0
100
AcDbArc
 50
90.0
 51
159.864689
  0
ARC
  5
459
100
AcDbEntity
  8
2
100
AcDbCircle
 10
175.598887
 20
212.934068
 30
0.0
 40
15.696848
100
AcDbArc
 50
326.854844
 51
347.715872
  0
ARC
  5
45A
100
AcDbEntity
  8
2
100
AcDbCircle
 10
151.70898
 20
212.851916
 30
0.0
 40
21.482429
100
AcDbArc
 50
335.142987
 51
353.85852
  0
LINE
  5
45B
100
AcDbEntity
  8
2
100
AcDbLine
 10
176.050898
 20
213.23269
 30
0.0
 11
188.005035
 21
213.23269
 31
0.0
  0
ARC
  5
45C
100
AcDbEntity
  8
2
100
AcDbCircle
 10
188.005035
 20
210.23269
 30
0.0
 40
3.0
100
AcDbArc
 50
347.715872
 51
90.0
  0
ARC
  5
45D
100
AcDbEntity
  8
2
100
AcDbCircle
 10
176.050898
 20
210.23269
 30
0.0
 40
3.0
100
AcDbArc
 50
90.0
 51
173.85852
  0
ARC
  5
45E
100
AcDbEntity
  8
2
100
AcDbCircle
 10
168.71393
 20
204.973983
 30
0.0
 40
2.741293
100
AcDbArc
 50
270.0
 51
335.142987
  0
ARC
  5
45F
100
AcDbEntity
  8
2
100
AcDbCircle
 10
184.827257
 20
206.907801
 30
0.0
 40
4.67511
100
AcDbArc
 50
222.397626
 51
326.854844
  0
LINE
  5
460
100
AcDbEntity
  8
2
100
AcDbLine
 10
171.597994
 20
204.73269
 30
0.0
 11
185.937852
 21
204.73269
 31
0.0
  0
ARC
  5
461
100
AcDbEntity
  8
2
100
AcDbCircle
 10
179.159316
 20
201.73269
 30
0.0
 40
3.0
100
AcDbArc
 50
42.397626
 51
90.0
  0
LINE
  5
462
100
AcDbEntity
  8
2
100
AcDbLine
 10
164.409117
 20
202.23269
 30
0.0
 11
168.71393
 21
202.23269
 31
0.0
  0
ARC
  5
463
100
AcDbEntity
  8
2
100
AcDbCircle
 10
197.45689
 20
213.051993
 30
0.0
 40
12.773353
100
AcDbArc
 50
319.656627
 51
346.952479
  0
ARC
  5
464
100
AcDbEntity
  8
2
100
AcDbCircle
 10
180.570321
 20
212.957133
 30
0.0
 40
14.878639
100
AcDbArc
 50
325.156706
 51
351.234814
  0
LINE
  5
465
100
AcDbEntity
  8
2
100
AcDbLine
 10
198.240158
 20
213.23269
 30
0.0
 11
207.465018
 21
213.23269
 31
0.0
  0
ARC
  5
466
100
AcDbEntity
  8
2
100
AcDbCircle
 10
198.240158
 20
210.23269
 30
0.0
 40
3.0
100
AcDbArc
 50
90.0
 51
171.234814
  0
ARC
  5
467
100
AcDbEntity
  8
2
100
AcDbCircle
 10
207.465018
 20
210.73269
 30
0.0
 40
2.5
100
AcDbArc
 50
346.952479
 51
90.0
  0
ARC
  5
468
100
AcDbEntity
  8
2
100
AcDbCircle
 10
201.68036
 20
209.46473
 30
0.0
 40
7.23204
100
AcDbArc
 50
229.0839
 51
319.656627
  0
ARC
  5
469
100
AcDbEntity
  8
2
100
AcDbCircle
 10
188.523884
 20
207.420345
 30
0.0
 40
5.187654
100
AcDbArc
 50
270.0
 51
325.156706
  0
LINE
  5
46A
100
AcDbEntity
  8
2
100
AcDbLine
 10
184.827257
 20
202.23269
 30
0.0
 11
188.523884
 21
202.23269
 31
0.0
  0
LINE
  5
46B
100
AcDbEntity
  8
2
100
AcDbLine
 10
192.96921
 20
204.73269
 30
0.0
 11
203.484409
 21
204.73269
 31
0.0
  0
ARC
  5
46C
100
AcDbEntity
  8
2
100
AcDbCircle
 10
194.978852
 20
201.73269
 30
0.0
 40
3.0
100
AcDbArc
 50
49.0839
 51
90.0
  0
LINE
  5
46D
100
AcDbEntity
  8
2
100
AcDbLine
 10
215.732293
 20
213.23269
 30
0.0
 11
221.03835
 21
213.23269
 31
0.0
  0
LINE
  5
46E
100
AcDbEntity
  8
2
100
AcDbLine
 10
228.156629
 20
213.23269
 30
0.0
 11
229.062469
 21
213.23269
 31
0.0
  0
ARC
  5
46F
100
AcDbEntity
  8
2
100
AcDbCircle
 10
212.319108
 20
213.15721
 30
0.0
 40
11.550053
100
AcDbArc
 50
315.252585
 51
344.460589
  0
ARC
  5
470
100
AcDbEntity
  8
2
100
AcDbCircle
 10
200.977657
 20
213.075058
 30
0.0
 40
12.43941
100
AcDbArc
 50
318.573666
 51
350.979305
  0
ARC
  5
471
100
AcDbEntity
  8
2
100
AcDbCircle
 10
221.03835
 20
210.73269
 30
0.0
 40
2.5
100
AcDbArc
 50
344.460589
 51
90.0
  0
ARC
  5
472
100
AcDbEntity
  8
2
100
AcDbCircle
 10
215.732293
 20
210.73269
 30
0.0
 40
2.5
100
AcDbArc
 50
90.0
 51
170.979305
  0
ARC
  5
473
100
AcDbEntity
  8
2
100
AcDbCircle
 10
204.516882
 20
209.95192
 30
0.0
 40
7.71923
100
AcDbArc
 50
270.0
 51
318.573666
  0
ARC
  5
474
100
AcDbEntity
  8
2
100
AcDbCircle
 10
213.819915
 20
211.669578
 30
0.0
 40
9.436887
100
AcDbArc
 50
238.680306
 51
315.252585
  0
LINE
  5
475
100
AcDbEntity
  8
2
100
AcDbLine
 10
201.68036
 20
202.23269
 30
0.0
 11
204.516882
 21
202.23269
 31
0.0
  0
LINE
  5
476
100
AcDbEntity
  8
2
100
AcDbLine
 10
210.204249
 20
204.73269
 30
0.0
 11
215.625305
 21
204.73269
 31
0.0
  0
ARC
  5
477
100
AcDbEntity
  8
2
100
AcDbCircle
 10
220.213292
 20
213.221525
 30
0.0
 40
11.069917
100
AcDbArc
 50
313.095172
 51
347.333361
  0
ARC
  5
478
100
AcDbEntity
  8
2
100
AcDbCircle
 10
214.462948
 20
213.174095
 30
0.0
 40
11.409614
100
AcDbArc
 50
314.654136
 51
349.891126
  0
ARC
  5
479
100
AcDbEntity
  8
2
100
AcDbCircle
 10
228.156629
 20
210.73269
 30
0.0
 40
2.5
100
AcDbArc
 50
90.0
 51
169.891126
  0
ARC
  5
47A
100
AcDbEntity
  8
2
100
AcDbCircle
 10
229.062469
 20
211.23269
 30
0.0
 40
2.0
100
AcDbArc
 50
347.333361
 51
90.0
  0
ARC
  5
47B
100
AcDbEntity
  8
2
100
AcDbCircle
 10
220.418631
 20
213.002057
 30
0.0
 40
10.769367
100
AcDbArc
 50
256.761975
 51
313.095172
  0
ARC
  5
47C
100
AcDbEntity
  8
2
100
AcDbCircle
 10
215.603027
 20
212.020168
 30
0.0
 40
9.787478
100
AcDbArc
 50
270.0
 51
314.654136
  0
LINE
  5
47D
100
AcDbEntity
  8
2
100
AcDbLine
 10
213.819915
 20
202.23269
 30
0.0
 11
215.603027
 21
202.23269
 31
0.0
  0
LINE
  5
47E
100
AcDbEntity
  8
2
100
AcDbLine
 10
220.418631
 20
202.23269
 30
0.0
 11
221.514369
 21
202.23269
 31
0.0
  0
LINE
  5
47F
100
AcDbEntity
  8
2
100
AcDbLine
 10
112.514369
 20
226.23269
 30
0.0
 11
152.514369
 21
226.23269
 31
0.0
  0
LINE
  5
480
100
AcDbEntity
  8
2
100
AcDbLine
 10
112.514369
 20
226.23269
 30
0.0
 11
112.514369
 21
224.23269
 31
0.0
  0
LINE
  5
481
100
AcDbEntity
  8
2
100
AcDbLine
 10
152.514369
 20
226.23269
 30
0.0
 11
152.514369
 21
224.23269
 31
0.0
  0
LINE
  5
482
100
AcDbEntity
  8
2
100
AcDbLine
 10
140.214369
 20
228.23269
 30
0.0
 11
124.814369
 21
228.23269
 31
0.0
  0
LINE
  5
483
100
AcDbEntity
  8
2
100
AcDbLine
 10
126.014369
 20
228.23269
 30
0.0
 11
126.014369
 21
233.73269
 31
0.0
  0
LINE
  5
484
100
AcDbEntity
  8
2
100
AcDbLine
 10
126.014369
 20
233.73269
 30
0.0
 11
139.014369
 21
233.73269
 31
0.0
  0
ARC
  5
485
100
AcDbEntity
  8
2
100
AcDbCircle
 10
129.264369
 20
226.053932
 30
0.0
 40
7.678759
100
AcDbArc
 50
64.96034
 51
115.03966
  0
LINE
  5
486
100
AcDbEntity
  8
2
100
AcDbLine
 10
139.014369
 20
228.23269
 30
0.0
 11
139.014369
 21
233.73269
 31
0.0
  0
LINE
  5
487
100
AcDbEntity
  8
2
100
AcDbLine
 10
132.514369
 20
228.23269
 30
0.0
 11
132.514369
 21
233.011002
 31
0.0
  0
ARC
  5
488
100
AcDbEntity
  8
2
100
AcDbCircle
 10
135.764369
 20
226.053932
 30
0.0
 40
7.678759
100
AcDbArc
 50
64.96034
 51
115.03966
  0
LINE
  5
489
100
AcDbEntity
  8
2
100
AcDbLine
 10
124.814369
 20
226.23269
 30
0.0
 11
124.814369
 21
228.23269
 31
0.0
  0
LINE
  5
48A
100
AcDbEntity
  8
2
100
AcDbLine
 10
140.214369
 20
228.23269
 30
0.0
 11
140.214369
 21
226.23269
 31
0.0
  0
LINE
  5
48B
100
AcDbEntity
  8
2
100
AcDbLine
 10
-368.985631
 20
456.266023
 30
0.0
 11
-350.38585
 21
456.266023
 31
0.0
  0
LINE
  5
48C
100
AcDbEntity
  8
2
100
AcDbLine
 10
-327.385412
 20
456.266023
 30
0.0
 11
-308.785631
 21
456.266023
 31
0.0
  0
ARC
  5
48D
100
AcDbEntity
  8
2
100
AcDbCircle
 10
-342.023432
 20
395.77755
 30
0.0
 40
45.0
100
AcDbArc
 50
47.269584
 51
70.184199
  0
ARC
  5
48E
100
AcDbEntity
  8
2
100
AcDbCircle
 10
-342.023432
 20
395.77755
 30
0.0
 40
45.0
100
AcDbArc
 50
101.431811
 51
126.428369
  0
ARC
  5
48F
100
AcDbEntity
  8
2
100
AcDbCircle
 10
-337.282298
 20
394.428503
 30
0.0
 40
40.0
100
AcDbArc
 50
53.225622
 51
74.501724
  0
ARC
  5
490
100
AcDbEntity
  8
2
100
AcDbCircle
 10
-337.282298
 20
394.428503
 30
0.0
 40
40.0
100
AcDbArc
 50
110.381402
 51
130.394667
  0
ARC
  5
491
100
AcDbEntity
  8
2
100
AcDbCircle
 10
-338.885631
 20
393.766023
 30
0.0
 40
51.5
100
AcDbArc
 50
343.384594
 51
76.615406
  0
ARC
  5
492
100
AcDbEntity
  8
2
100
AcDbCircle
 10
-338.885631
 20
393.766023
 30
0.0
 40
59.0
100
AcDbArc
 50
341.396932
 51
78.603068
  0
ARC
  5
493
100
AcDbEntity
  8
2
100
AcDbCircle
 10
-338.885631
 20
393.766023
 30
0.0
 40
51.5
100
AcDbArc
 50
103.384594
 51
196.615406
  0
ARC
  5
494
100
AcDbEntity
  8
2
100
AcDbCircle
 10
-338.885631
 20
393.766023
 30
0.0
 40
51.5
100
AcDbArc
 50
223.384594
 51
316.615406
  0
ARC
  5
495
100
AcDbEntity
  8
2
100
AcDbCircle
 10
-338.885631
 20
393.766023
 30
0.0
 40
59.0
100
AcDbArc
 50
101.396932
 51
198.603068
  0
ARC
  5
496
100
AcDbEntity
  8
2
100
AcDbCircle
 10
-338.885631
 20
393.766023
 30
0.0
 40
59.0
100
AcDbArc
 50
221.396932
 51
318.603068
  0
ARC
  5
497
100
AcDbEntity
  8
2
100
AcDbCircle
 10
-308.385631
 20
393.766023
 30
0.0
 40
5.5
100
AcDbArc
 50
300.75963
 51
175.34791
  0
ARC
  5
498
100
AcDbEntity
  8
2
100
AcDbCircle
 10
-308.385631
 20
393.766023
 30
0.0
 40
5.0
100
AcDbArc
 50
297.761275
 51
178.346266
  0
ARC
  5
499
100
AcDbEntity
  8
2
100
AcDbCircle
 10
-308.385631
 20
393.766023
 30
0.0
 40
4.30718
100
AcDbArc
 50
292.211856
 51
183.895684
  0
ARC
  5
49A
100
AcDbEntity
  8
2
100
AcDbCircle
 10
-369.385631
 20
393.766023
 30
0.0
 40
5.5
100
AcDbArc
 50
4.65209
 51
239.24037
  0
ARC
  5
49B
100
AcDbEntity
  8
2
100
AcDbCircle
 10
-369.385631
 20
393.766023
 30
0.0
 40
5.0
100
AcDbArc
 50
1.653734
 51
242.238725
  0
ARC
  5
49C
100
AcDbEntity
  8
2
100
AcDbCircle
 10
-369.385631
 20
393.766023
 30
0.0
 40
4.30718
100
AcDbArc
 50
356.104316
 51
247.788144
  0
LINE
  5
49D
100
AcDbEntity
  8
2
  6
CENTER
 62
     2
100
AcDbLine
 10
-338.885631
 20
508.061156
 30
0.0
 11
-338.885631
 21
281.971924
 31
0.0
  0
CIRCLE
  5
49E
100
AcDbEntity
  8
2
100
AcDbCircle
 10
-338.885631
 20
393.766023
 30
0.0
 40
100.0
  0
LINE
  5
49F
100
AcDbEntity
  8
2
100
AcDbLine
 10
-327.652385
 20
464.122517
 30
0.0
 11
-325.972122
 21
414.675669
 31
0.0
  0
LINE
  5
4A0
100
AcDbEntity
  8
2
100
AcDbLine
 10
-350.118877
 20
464.122517
 30
0.0
 11
-351.799139
 21
414.675669
 31
0.0
  0
LINE
  5
4A1
100
AcDbEntity
  8
2
100
AcDbLine
 10
-394.199519
 20
348.859501
 30
0.0
 11
-350.537161
 21
372.127774
 31
0.0
  0
LINE
  5
4A2
100
AcDbEntity
  8
2
100
AcDbLine
 10
-405.432764
 20
368.316053
 30
0.0
 11
-363.450669
 21
394.494627
 31
0.0
  0
LINE
  5
4A3
100
AcDbEntity
  8
2
100
AcDbLine
 10
-283.571743
 20
348.859501
 30
0.0
 11
-327.234101
 21
372.127774
 31
0.0
  0
LINE
  5
4A4
100
AcDbEntity
  8
2
100
AcDbLine
 10
-272.338497
 20
368.316053
 30
0.0
 11
-314.320592
 21
394.494627
 31
0.0
  0
ARC
  5
4A5
100
AcDbEntity
  8
2
100
AcDbCircle
 10
-338.885631
 20
393.766023
 30
0.0
 40
78.0
100
AcDbArc
 50
103.341798
 51
196.658202
  0
ARC
  5
4A6
100
AcDbEntity
  8
2
100
AcDbCircle
 10
-338.885631
 20
393.766023
 30
0.0
 40
22.5
100
AcDbArc
 50
131.110398
 51
168.889602
  0
ARC
  5
4A7
100
AcDbEntity
  8
2
100
AcDbCircle
 10
-338.885631
 20
393.766023
 30
0.0
 40
22.5
100
AcDbArc
 50
251.110398
 51
288.889602
  0
ARC
  5
4A8
100
AcDbEntity
  8
2
100
AcDbCircle
 10
-338.885631
 20
393.766023
 30
0.0
 40
22.5
100
AcDbArc
 50
11.110398
 51
48.889602
  0
ARC
  5
4A9
100
AcDbEntity
  8
2
100
AcDbCircle
 10
-320.475295
 20
414.862458
 30
0.0
 40
5.5
100
AcDbArc
 50
181.94623
 51
228.889602
  0
ARC
  5
4AA
100
AcDbEntity
  8
2
100
AcDbCircle
 10
-322.155558
 20
464.309306
 30
0.0
 40
5.5
100
AcDbArc
 50
76.658202
 51
181.94623
  0
ARC
  5
4AB
100
AcDbEntity
  8
2
100
AcDbCircle
 10
-355.615704
 20
464.309306
 30
0.0
 40
5.5
100
AcDbArc
 50
358.05377
 51
103.341798
  0
ARC
  5
4AC
100
AcDbEntity
  8
2
100
AcDbCircle
 10
-357.295967
 20
414.862458
 30
0.0
 40
5.5
100
AcDbArc
 50
311.110398
 51
358.05377
  0
ARC
  5
4AD
100
AcDbEntity
  8
2
100
AcDbCircle
 10
-366.360847
 20
399.161625
 30
0.0
 40
5.5
100
AcDbArc
 50
301.94623
 51
348.889602
  0
ARC
  5
4AE
100
AcDbEntity
  8
2
100
AcDbCircle
 10
-347.950511
 20
367.273988
 30
0.0
 40
5.5
100
AcDbArc
 50
71.110398
 51
118.05377
  0
ARC
  5
4AF
100
AcDbEntity
  8
2
100
AcDbCircle
 10
-329.820751
 20
367.273988
 30
0.0
 40
5.5
100
AcDbArc
 50
61.94623
 51
108.889602
  0
ARC
  5
4B0
100
AcDbEntity
  8
2
100
AcDbCircle
 10
-311.410415
 20
399.161625
 30
0.0
 40
5.5
100
AcDbArc
 50
191.110398
 51
238.05377
  0
ARC
  5
4B1
100
AcDbEntity
  8
2
100
AcDbCircle
 10
-269.42832
 20
372.983051
 30
0.0
 40
5.5
100
AcDbArc
 50
238.05377
 51
343.341798
  0
ARC
  5
4B2
100
AcDbEntity
  8
2
100
AcDbCircle
 10
-286.158393
 20
344.005714
 30
0.0
 40
5.5
100
AcDbArc
 50
316.658202
 51
61.94623
  0
ARC
  5
4B3
100
AcDbEntity
  8
2
100
AcDbCircle
 10
-391.612869
 20
344.005714
 30
0.0
 40
5.5
100
AcDbArc
 50
118.05377
 51
223.341798
  0
ARC
  5
4B4
100
AcDbEntity
  8
2
100
AcDbCircle
 10
-408.342942
 20
372.983051
 30
0.0
 40
5.5
100
AcDbArc
 50
196.658202
 51
301.94623
  0
CIRCLE
  5
4B5
100
AcDbEntity
  8
2
100
AcDbCircle
 10
-338.885631
 20
393.766023
 30
0.0
 40
20.0
  0
CIRCLE
  5
4B6
100
AcDbEntity
  8
2
100
AcDbCircle
 10
-338.885631
 20
393.766023
 30
0.0
 40
6.25
  0
CIRCLE
  5
4B7
100
AcDbEntity
  8
2
100
AcDbCircle
 10
-338.885631
 20
393.766023
 30
0.0
 40
7.7
  0
LINE
  5
4B8
100
AcDbEntity
  8
2
100
AcDbLine
 10
-342.638408
 20
400.266023
 30
0.0
 11
-335.132854
 21
400.266023
 31
0.0
  0
LINE
  5
4B9
100
AcDbEntity
  8
2
100
AcDbLine
 10
-342.638408
 20
387.266023
 30
0.0
 11
-335.132854
 21
387.266023
 31
0.0
  0
LINE
  5
4BA
100
AcDbEntity
  8
2
100
AcDbLine
 10
-346.391184
 20
393.766023
 30
0.0
 11
-342.638408
 21
400.266023
 31
0.0
  0
LINE
  5
4BB
100
AcDbEntity
  8
2
100
AcDbLine
 10
-335.132854
 20
387.266023
 30
0.0
 11
-331.380077
 21
393.766023
 31
0.0
  0
LINE
  5
4BC
100
AcDbEntity
  8
2
100
AcDbLine
 10
-342.638408
 20
387.266023
 30
0.0
 11
-346.391184
 21
393.766023
 31
0.0
  0
LINE
  5
4BD
100
AcDbEntity
  8
2
100
AcDbLine
 10
-331.380077
 20
393.766023
 30
0.0
 11
-335.132854
 21
400.266023
 31
0.0
  0
ARC
  5
4BE
100
AcDbEntity
  8
2
100
AcDbCircle
 10
-338.885631
 20
393.766023
 30
0.0
 40
78.0
100
AcDbArc
 50
81.8928
 51
98.1072
  0
ARC
  5
4BF
100
AcDbEntity
  8
2
100
AcDbCircle
 10
-338.885631
 20
393.766023
 30
0.0
 40
78.0
100
AcDbArc
 50
321.8928
 51
338.1072
  0
ARC
  5
4C0
100
AcDbEntity
  8
2
100
AcDbCircle
 10
-338.885631
 20
393.766023
 30
0.0
 40
78.0
100
AcDbArc
 50
343.341798
 51
76.658202
  0
ARC
  5
4C1
100
AcDbEntity
  8
2
100
AcDbCircle
 10
-338.885631
 20
393.766023
 30
0.0
 40
78.0
100
AcDbArc
 50
201.8928
 51
218.1072
  0
ARC
  5
4C2
100
AcDbEntity
  8
2
100
AcDbCircle
 10
-338.885631
 20
393.766023
 30
0.0
 40
78.0
100
AcDbArc
 50
223.341798
 51
316.658202
  0
LINE
  5
4C3
100
AcDbEntity
  8
2
100
AcDbLine
 10
-388.259592
 20
461.723451
 30
0.0
 11
-392.374089
 21
467.38657
 31
0.0
  0
LINE
  5
4C4
100
AcDbEntity
  8
2
100
AcDbLine
 10
-289.51167
 20
461.723451
 30
0.0
 11
-285.397173
 21
467.38657
 31
0.0
  0
ARC
  5
4C5
100
AcDbEntity
  8
2
100
AcDbCircle
 10
-338.885631
 20
393.766023
 30
0.0
 40
89.0
100
AcDbArc
 50
126.0
 51
54.0
  0
ARC
  5
4C6
100
AcDbEntity
  8
2
100
AcDbCircle
 10
-338.885631
 20
393.766023
 30
0.0
 40
91.0
100
AcDbArc
 50
54.0
 51
126.0
  0
ARC
  5
4C7
100
AcDbEntity
  8
2
100
AcDbCircle
 10
-338.885631
 20
393.766023
 30
0.0
 40
84.0
100
AcDbArc
 50
54.0
 51
126.0
  0
LINE
  5
4C8
100
AcDbEntity
  8
2
100
AcDbLine
 10
-356.05844
 20
482.11247
 30
0.0
 11
-355.772227
 21
480.640029
 31
0.0
  0
LINE
  5
4C9
100
AcDbEntity
  8
2
100
AcDbLine
 10
-355.390609
 20
478.676775
 30
0.0
 11
-355.104396
 21
477.204334
 31
0.0
  0
LINE
  5
4CA
100
AcDbEntity
  8
2
100
AcDbLine
 10
-356.05844
 20
482.11247
 30
0.0
 11
-361.532297
 21
478.284533
 31
0.0
  0
LINE
  5
4CB
100
AcDbEntity
  8
2
100
AcDbLine
 10
-361.532297
 20
478.284533
 30
0.0
 11
-355.104396
 21
477.204334
 31
0.0
  0
ARC
  5
4CC
100
AcDbEntity
  8
2
100
AcDbCircle
 10
-338.885631
 20
393.766023
 30
0.0
 40
88.5
100
AcDbArc
 50
79.000001
 51
101.000002
  0
ARC
  5
4CD
100
AcDbEntity
  8
2
100
AcDbCircle
 10
-338.885631
 20
393.766023
 30
0.0
 40
86.5
100
AcDbArc
 50
79.000001
 51
101.000002
  0
LINE
  5
4CE
100
AcDbEntity
  8
2
100
AcDbLine
 10
-321.712821
 20
482.11247
 30
0.0
 11
-321.999035
 21
480.640029
 31
0.0
  0
LINE
  5
4CF
100
AcDbEntity
  8
2
100
AcDbLine
 10
-322.380653
 20
478.676775
 30
0.0
 11
-322.666866
 21
477.204334
 31
0.0
  0
LINE
  5
4D0
100
AcDbEntity
  8
2
100
AcDbLine
 10
-321.712821
 20
482.11247
 30
0.0
 11
-316.238964
 21
478.284533
 31
0.0
  0
LINE
  5
4D1
100
AcDbEntity
  8
2
100
AcDbLine
 10
-316.238964
 20
478.284533
 30
0.0
 11
-322.666866
 21
477.204334
 31
0.0
  0
TEXT
  5
4D2
100
AcDbEntity
  8
2
100
AcDbText
 10
-361.385631
 20
355.266023
 30
0.0
 40
9.0
  1
ＴＯＭＯＥ
 72
     5
 11
-318.185631
 21
355.266023
 31
0.0
100
AcDbText
  0
TEXT
  5
4D3
100
AcDbEntity
  8
2
100
AcDbText
 10
-369.998329
 20
418.514761
 30
0.0
 40
9.0
  1
Ｏ
 50
45.0
 72
     5
 11
-364.90716
 21
423.60593
 31
0.0
100
AcDbText
  0
TEXT
  5
4D4
100
AcDbEntity
  8
2
100
AcDbText
 10
-314.136894
 20
424.878722
 30
0.0
 40
9.0
  1
Ｓ
 50
315.0
 72
     5
 11
-309.045725
 21
419.787553
 31
0.0
100
AcDbText
  0
TEXT
  5
4D5
100
AcDbEntity
  8
2
100
AcDbText
 10
-386.518271
 20
463.043593
 30
0.0
 40
7.0
  1
Ｏ
 50
32.125
 72
     5
 11
-381.775687
 21
466.021494
 31
0.0
100
AcDbText
  0
TEXT
  5
4D6
100
AcDbEntity
  8
2
100
AcDbText
 10
-381.885316
 20
466.010588
 30
0.0
 40
7.0
  1
Ｐ
 50
28.375
 72
     5
 11
-376.958122
 21
468.671934
 31
0.0
100
AcDbText
  0
TEXT
  5
4D7
100
AcDbEntity
  8
2
100
AcDbText
 10
-377.06823
 20
468.668221
 30
0.0
 40
7.0
  1
Ｅ
 50
24.625
 72
     5
 11
-371.977525
 21
471.001615
 31
0.0
100
AcDbText
  0
TEXT
  5
4D8
100
AcDbEntity
  8
2
100
AcDbText
 10
-372.08764
 20
471.005111
 30
0.0
 40
7.0
  1
Ｎ
 50
20.875
 72
     5
 11
-366.855224
 21
473.000561
 31
0.0
100
AcDbText
  0
TEXT
  5
4D9
100
AcDbEntity
  8
2
100
AcDbText
 10
-312.224142
 20
473.499423
 30
0.0
 40
7.0
  1
Ｓ
 50
339.125
 72
     5
 11
-306.991726
 21
471.503973
 31
0.0
100
AcDbText
  0
TEXT
  5
4DA
100
AcDbEntity
  8
2
100
AcDbText
 10
-307.066413
 20
471.584963
 30
0.0
 40
7.0
  1
Ｈ
 50
335.375
 72
     5
 11
-301.975708
 21
469.251569
 31
0.0
100
AcDbText
  0
TEXT
  5
4DB
100
AcDbEntity
  8
2
100
AcDbText
 10
-302.044938
 20
469.33727
 30
0.0
 40
7.0
  1
Ｕ
 50
331.625
 72
     5
 11
-297.117744
 21
466.675924
 31
0.0
100
AcDbText
  0
TEXT
  5
4DC
100
AcDbEntity
  8
2
100
AcDbText
 10
-297.181221
 20
466.76597
 30
0.0
 40
7.0
  1
Ｔ
 50
327.875
 72
     5
 11
-292.438637
 21
463.788068
 31
0.0
100
AcDbText
  0
DIMENSION
  5
4DD
100
AcDbEntity
  8
5
100
AcDbDimension
  2
*D0
 10
171.514369
 20
-536.586914
 30
0.0
 11
132.514369
 21
-527.986914
 31
0.0
  1
78
100
AcDbAlignedDimension
 13
93.514369
 23
-422.26731
 33
0.0
 14
171.514369
 24
-422.26731
 34
0.0
100
AcDbRotatedDimension
  0
DIMENSION
  5
4DE
100
AcDbEntity
  8
5
100
AcDbDimension
  2
*D1
 10
-21.306557
 20
-239.76731
 30
0.0
 11
-37.166557
 21
-366.57731
 31
0.0
  1
252
100
AcDbAlignedDimension
 13
126.014369
 23
-492.06731
 33
0.0
 14
69.814369
 24
-239.76731
 34
0.0
 50
90.0
100
AcDbRotatedDimension
  0
DIMENSION
  5
4DF
100
AcDbEntity
  8
5
100
AcDbDimension
  2
*D2
 10
232.514369
 20
289.592163
 30
0.0
 11
132.514369
 21
298.192163
 31
0.0
 70
     1
  1
%%c200
100
AcDbAlignedDimension
 13
32.514369
 23
213.23269
 33
0.0
 14
232.514369
 24
213.23269
 34
0.0
  0
DIMENSION
  5
4E0
100
AcDbEntity
  8
5
100
AcDbDimension
  2
*D3
 10
-21.306557
 20
233.73269
 30
0.0
 11
-37.166557
 21
152.32269
 31
0.0
  1
162
100
AcDbAlignedDimension
 13
70.014369
 23
72.23269
 33
0.0
 14
126.014369
 24
233.73269
 34
0.0
 50
90.0
100
AcDbRotatedDimension
  0
DIMENSION
  5
4E1
100
AcDbEntity
  8
5
100
AcDbDimension
  2
*D4
 10
-21.306557
 20
72.23269
 30
0.0
 11
-37.166557
 21
-84.42731
 31
0.0
  1
312
100
AcDbAlignedDimension
 13
69.814369
 23
-239.76731
 33
0.0
 14
70.014369
 24
72.23269
 34
0.0
 50
90.0
100
AcDbRotatedDimension
  0
TEXT
  5
4E2
100
AcDbEntity
  8
18
100
AcDbText
 10
488.675201
 20
-532.194153
 30
0.0
 40
12.0
  1
１
 72
     5
 11
498.275201
 21
-532.194153
 31
0.0
100
AcDbText
  0
TEXT
  5
4E3
100
AcDbEntity
  8
18
100
AcDbText
 10
507.024292
 20
-547.251343
 30
0.0
 40
12.0
  1
４
 72
     5
 11
516.624292
 21
-547.251343
 31
0.0
100
AcDbText
  0
TEXT
  5
4E4
100
AcDbEntity
  8
18
100
AcDbText
 10
491.416962
 20
-492.141052
 30
0.0
 40
12.0
  1
７００Ｇ－２ＧＡＳ　３００Ａ
 72
     5
 11
657.016962
 21
-492.141052
 31
0.0
100
AcDbText
  0
TEXT
  5
4E5
100
AcDbEntity
  8
18
100
AcDbText
 10
491.416962
 20
-508.141052
 30
0.0
 40
12.0
  1
標準仕様　ＪＩＳ　５，１０Ｋ
 72
     5
 11
657.016962
 21
-508.141052
 31
0.0
100
AcDbText
  0
TEXT
  5
4E6
100
AcDbEntity
  8
18
100
AcDbText
 10
614.4
 20
-544.0
 30
0.0
 40
20.0
  1
Ｄ３－０３５３１
 72
     5
 11
770.4
 21
-544.0
 31
0.0
100
AcDbText
  0
TEXT
  5
4E7
100
AcDbEntity
  8
18
100
AcDbText
 10
728.410522
 20
-508.328644
 30
0.0
 40
9.0
  1
′０４．７．９
 72
     5
 11
789.610522
 21
-508.328644
 31
0.0
100
AcDbText
  0
LINE
  5
4E8
100
AcDbEntity
  8
20
 62
     3
100
AcDbLine
 10
-720.0
 20
-554.0
 30
0.0
 11
800.0
 21
-554.0
 31
0.0
  0
LINE
  5
4E9
100
AcDbEntity
  8
20
 62
     3
100
AcDbLine
 10
-720.0
 20
528.0
 30
0.0
 11
800.0
 21
528.0
 31
0.0
  0
LINE
  5
4EA
100
AcDbEntity
  8
20
 62
     3
100
AcDbLine
 10
-720.0
 20
528.0
 30
0.0
 11
-720.0
 21
-554.0
 31
0.0
  0
LINE
  5
4EB
100
AcDbEntity
  8
20
 62
     3
100
AcDbLine
 10
800.0
 20
528.0
 30
0.0
 11
800.0
 21
-554.0
 31
0.0
  0
LINE
  5
4EC
100
AcDbEntity
  8
20
 62
     3
100
AcDbLine
 10
240.0
 20
-554.0
 30
0.0
 11
240.0
 21
-474.0
 31
0.0
  0
LINE
  5
4ED
100
AcDbEntity
  8
20
 62
     3
100
AcDbLine
 10
428.0
 20
-554.0
 30
0.0
 11
428.0
 21
-474.0
 31
0.0
  0
LINE
  5
4EE
100
AcDbEntity
  8
20
100
AcDbLine
 10
428.0
 20
-514.0
 30
0.0
 11
800.0
 21
-514.0
 31
0.0
  0
LINE
  5
4EF
100
AcDbEntity
  8
20
 62
     3
100
AcDbLine
 10
240.0
 20
-474.0
 30
0.0
 11
800.0
 21
-474.0
 31
0.0
  0
LINE
  5
4F0
100
AcDbEntity
  8
20
100
AcDbLine
 10
720.0
 20
-514.0
 30
0.0
 11
720.0
 21
-474.0
 31
0.0
  0
LINE
  5
4F1
100
AcDbEntity
  8
20
100
AcDbLine
 10
720.0
 20
-494.0
 30
0.0
 11
800.0
 21
-494.0
 31
0.0
  0
LINE
  5
4F2
100
AcDbEntity
  8
20
100
AcDbLine
 10
484.0
 20
-554.0
 30
0.0
 11
484.0
 21
-474.0
 31
0.0
  0
LINE
  5
4F3
100
AcDbEntity
  8
20
100
AcDbLine
 10
524.0
 20
-554.0
 30
0.0
 11
524.0
 21
-514.0
 31
0.0
  0
LINE
  5
4F4
100
AcDbEntity
  8
20
100
AcDbLine
 10
604.0
 20
-554.0
 30
0.0
 11
604.0
 21
-514.0
 31
0.0
  0
LINE
  5
4F5
100
AcDbEntity
  8
20
100
AcDbLine
 10
494.913658
 20
-543.086342
 30
0.0
 11
511.593163
 21
-526.406837
 31
0.0
  0
TEXT
  5
4F6
100
AcDbEntity
  8
20
100
AcDbText
 10
526.133316
 20
-529.987671
 30
0.0
 40
7.2
  1
ＤＲＡＷＩＮＧ　ＮＯ．
 72
     5
 11
603.893316
 21
-529.987671
 31
0.0
100
AcDbText
  0
TEXT
  5
4F7
100
AcDbEntity
  8
20
100
AcDbText
 10
534.0
 20
-546.0
 30
0.0
 40
12.0
  1
図　　　番
 72
     5
 11
591.6
 21
-546.0
 31
0.0
100
AcDbText
  0
TEXT
  5
4F8
100
AcDbEntity
  8
20
100
AcDbText
 10
744.0
 20
-488.0
 30
0.0
 40
8.0
  1
ＤＡＴＥ
 72
     5
 11
774.4
 21
-488.0
 31
0.0
100
AcDbText
  0
TEXT
  5
4F9
100
AcDbEntity
  8
20
100
AcDbText
 10
436.004284
 20
-531.844116
 30
0.0
 40
8.0
  1
ＳＣＡＬＥ
 72
     5
 11
474.404284
 21
-531.844116
 31
0.0
100
AcDbText
  0
TEXT
  5
4FA
100
AcDbEntity
  8
20
100
AcDbText
 10
432.0
 20
-546.0
 30
0.0
 40
12.0
  1
尺　　度
 72
     5
 11
477.6
 21
-546.0
 31
0.0
100
AcDbText
  0
TEXT
  5
4FB
100
AcDbEntity
  8
20
100
AcDbText
 10
430.004284
 20
-489.983539
 30
0.0
 40
8.0
  1
ＦＩＧ．ＮＯ．
 72
     5
 11
484.404284
 21
-489.983539
 31
0.0
100
AcDbText
  0
TEXT
  5
4FC
100
AcDbEntity
  8
20
100
AcDbText
 10
432.0
 20
-506.0
 30
0.0
 40
12.0
  1
名　　称
 72
     5
 11
477.6
 21
-506.0
 31
0.0
100
AcDbText
  0
TEXT
  5
4FD
100
AcDbEntity
  8
20
100
AcDbText
 10
242.2621
 20
-505.881012
 30
0.0
 40
9.2
  1
ＴＯＭＯＥ　ＶＡＬＶＥ　ＣＯ．，ＬＴＤ．
 72
     5
 11
424.4221
 21
-505.881012
 31
0.0
100
AcDbText
  0
TEXT
  5
4FE
100
AcDbEntity
  8
20
100
AcDbText
 10
270.0
 20
-533.159241
 30
0.0
 40
16.0
  1
巴バルブ株式会社
 72
     5
 11
394.8
 21
-533.159241
 31
0.0
100
AcDbText
  0
ENDSEC
  0
SECTION
  2
OBJECTS
  0
DICTIONARY
  5
53B
100
AcDbDictionary
  3
ACAD_GROUP
350
53C
  3
ACAD_MLINESTYLE
350
53D
  0
DICTIONARY
  5
53C
102
{ACAD_REACTORS
330
53B
102
}
100
AcDbDictionary
  0
DICTIONARY
  5
53D
102
{ACAD_REACTORS
330
53B
102
}
100
AcDbDictionary
  3
STANDARD
350
53E
  0
MLINESTYLE
  5
53E
102
{ACAD_REACTORS
330
53D
102
}
100
AcDbMlineStyle
  2
STANDARD
 70
     0
  3

 62
     0
 51
90.0
 52
90.0
 71
     2
 49
0.5
 62
   256
  6
BYLAYER
 49
-0.5
 62
   256
  6
BYLAYER
  0
ENDSEC
  0
EOF
