  0
SECTION
  2
HEADER
  9
$ACADVER
  1
AC1012
  9
$DWGCODEPAGE
  3
ansi_932
  9
$INSBASE
 10
0.0
 20
0.0
 30
0.0
  9
$EXTMIN
 10
-630.0
 20
-445.5
 30
1.000000E+20
  9
$EXTMAX
 10
630.0
 20
445.5
 30
-1.000000E+20
  9
$LIMMIN
 10
-630.0
 20
-445.5
  9
$LIMMAX
 10
630.0
 20
445.5
  9
$ORTHOMODE
 70
     0
  9
$REGENMODE
 70
     1
  9
$FILLMODE
 70
     1
  9
$QTEXTMODE
 70
     0
  9
$MIRRTEXT
 70
     1
  9
$DRAGMODE
 70
     2
  9
$LTSCALE
 40
1.0
  9
$OSMODE
 70
     0
  9
$ATTMODE
 70
     1
  9
$TEXTSIZE
 40
0.2
  9
$TRACEWID
 40
0.05
  9
$TEXTSTYLE
  7
STANDARD
  9
$CLAYER
  8
0
  9
$CELTYPE
  6
CONTINUOUS
  9
$CECOLOR
 62
   256
  9
$CELTSCALE
 40
1.0
  9
$DELOBJ
 70
     1
  9
$DISPSILH
 70
     0
  9
$DIMSCALE
 40
3.0
  9
$DIMASZ
 40
0.18
  9
$DIMEXO
 40
0.0625
  9
$DIMDLI
 40
0.38
  9
$DIMRND
 40
0.0
  9
$DIMDLE
 40
0.0
  9
$DIMEXE
 40
0.18
  9
$DIMTP
 40
0.0
  9
$DIMTM
 40
0.0
  9
$DIMTXT
 40
0.18
  9
$DIMCEN
 40
0.09
  9
$DIMTSZ
 40
0.0
  9
$DIMTOL
 70
     0
  9
$DIMLIM
 70
     0
  9
$DIMTIH
 70
     1
  9
$DIMTOH
 70
     1
  9
$DIMSE1
 70
     0
  9
$DIMSE2
 70
     0
  9
$DIMTAD
 70
     1
  9
$DIMZIN
 70
     0
  9
$DIMBLK
  1

  9
$DIMASO
 70
     1
  9
$DIMSHO
 70
     1
  9
$DIMPOST
  1

  9
$DIMAPOST
  1

  9
$DIMALT
 70
     0
  9
$DIMALTD
 70
     2
  9
$DIMALTF
 40
25.4
  9
$DIMLFAC
 40
1.0
  9
$DIMTOFL
 70
     0
  9
$DIMTVP
 40
0.0
  9
$DIMTIX
 70
     0
  9
$DIMSOXD
 70
     0
  9
$DIMSAH
 70
     0
  9
$DIMBLK1
  1

  9
$DIMBLK2
  1

  9
$DIMSTYLE
  2
STANDARD
  9
$DIMCLRD
 70
     0
  9
$DIMCLRE
 70
     0
  9
$DIMCLRT
 70
     0
  9
$DIMTFAC
 40
1.0
  9
$DIMGAP
 40
0.09
  9
$DIMJUST
 70
     0
  9
$DIMSD1
 70
     0
  9
$DIMSD2
 70
     0
  9
$DIMTOLJ
 70
     1
  9
$DIMTZIN
 70
     0
  9
$DIMALTZ
 70
     0
  9
$DIMALTTZ
 70
     0
  9
$DIMFIT
 70
     3
  9
$DIMUPT
 70
     0
  9
$DIMUNIT
 70
     2
  9
$DIMDEC
 70
     4
  9
$DIMTDEC
 70
     4
  9
$DIMALTU
 70
     2
  9
$DIMALTTD
 70
     2
  9
$DIMTXSTY
  7
STANDARD
  9
$DIMAUNIT
 70
     0
  9
$LUNITS
 70
     2
  9
$LUPREC
 70
     4
  9
$SKETCHINC
 40
0.1
  9
$FILLETRAD
 40
0.0
  9
$AUNITS
 70
     0
  9
$AUPREC
 70
     0
  9
$MENU
  1
acad
  9
$ELEVATION
 40
0.0
  9
$PELEVATION
 40
0.0
  9
$THICKNESS
 40
0.0
  9
$LIMCHECK
 70
     0
  9
$BLIPMODE
 70
     1
  9
$CHAMFERA
 40
0.0
  9
$CHAMFERB
 40
0.0
  9
$CHAMFERC
 40
0.0
  9
$CHAMFERD
 40
0.0
  9
$SKPOLY
 70
     0
  9
$TDCREATE
 40
2450703.000000000
  9
$TDUPDATE
 40
0.000000000
  9
$TDINDWG
 40
0.0000000000
  9
$TDUSRTIMER
 40
0.0000000000
  9
$USRTIMER
 70
     1
  9
$ANGBASE
 50
0.0
  9
$ANGDIR
 70
     0
  9
$PDMODE
 70
     0
  9
$PDSIZE
 40
0.0
  9
$PLINEWID
 40
0.0
  9
$COORDS
 70
     0
  9
$SPLFRAME
 70
     0
  9
$SPLINETYPE
 70
     6
  9
$SPLINESEGS
 70
     8
  9
$ATTDIA
 70
     0
  9
$ATTREQ
 70
     1
  9
$HANDLING
 70
     1
  9
$HANDSEED
  5
746
  9
$SURFTAB1
 70
     6
  9
$SURFTAB2
 70
     6
  9
$SURFTYPE
 70
     6
  9
$SURFU
 70
     6
  9
$SURFV
 70
     6
  9
$UCSNAME
  2

  9
$UCSORG
 10
0.0
 20
0.0
 30
0.0
  9
$UCSXDIR
 10
1.0
 20
0.0
 30
0.0
  9
$UCSYDIR
 10
0.0
 20
1.0
 30
0.0
  9
$PUCSNAME
  2

  9
$PUCSORG
 10
0.0
 20
0.0
 30
0.0
  9
$PUCSXDIR
 10
1.0
 20
0.0
 30
0.0
  9
$PUCSYDIR
 10
0.0
 20
1.0
 30
0.0
  9
$USERI1
 70
     0
  9
$USERI2
 70
     0
  9
$USERI3
 70
     0
  9
$USERI4
 70
     0
  9
$USERI5
 70
     0
  9
$USERR1
 40
0.0
  9
$USERR2
 40
0.0
  9
$USERR3
 40
0.0
  9
$USERR4
 40
0.0
  9
$USERR5
 40
0.0
  9
$WORLDVIEW
 70
     1
  9
$SHADEDGE
 70
     3
  9
$SHADEDIF
 70
    70
  9
$TILEMODE
 70
     1
  9
$MAXACTVP
 70
    16
  9
$PINSBASE
 10
0.0
 20
0.0
 30
0.0
  9
$PLIMCHECK
 70
     0
  9
$PEXTMIN
 10
1.000000E+20
 20
1.000000E+20
 30
1.000000E+20
  9
$PEXTMAX
 10
-1.000000E+20
 20
-1.000000E+20
 30
-1.000000E+20
  9
$PLIMMIN
 10
0.0
 20
0.0
  9
$PLIMMAX
 10
12.0
 20
9.0
  9
$UNITMODE
 70
     0
  9
$VISRETAIN
 70
     0
  9
$PLINEGEN
 70
     1
  9
$PSLTSCALE
 70
     0
  9
$TREEDEPTH
 70
  3020
  9
$PICKSTYLE
 70
     1
  9
$CMLSTYLE
  2
STANDARD
  9
$CMLJUST
 70
     0
  9
$CMLSCALE
 40
1.0
  9
$SAVEIMAGES
 70
     0
  0
ENDSEC
  0
SECTION
  2
CLASSES
  0
CLASS
  1
LWPOLYLINE
  2
AcDbPolyline
  3
"AutoCAD"
 90
    32768
280
     0
281
     1
  0
CLASS
  1
IMAGE
  2
AcDbRasterImage
  3
ISM
 90
    32895
280
     0
281
     1
  0
CLASS
  1
OLE2FRAME
  2
AcDbOle2Frame
  3
""
 90
    32768
280
     0
281
     1
  0
CLASS
  1
HATCH
  2
AcDbHatch
  3
"ACAD_SEDONA"
 90
    32768
280
     0
281
     1
  0
CLASS
  1
DICTIONARYVAR
  2
AcDbDictionaryVar
  3
"AutoCAD"
 90
    32768
280
     0
281
     0
  0
CLASS
  1
RASTERVARIABLES
  2
AcDbRasterVariables
  3
ISM
 90
    32768
280
     0
281
     0
  0
CLASS
  1
IMAGEDEF
  2
AcDbRasterImageDef
  3
ISM
 90
    32768
280
     0
281
     0
  0
CLASS
  1
IMAGEDEF_REACTOR
  2
AcDbRasterImageDefReactor
  3
ISM
 90
    32769
280
     0
281
     0
  0
CLASS
  1
IDBUFFER
  2
AcDbIdBuffer
  3
"Acad"
 90
    32768
280
     0
281
     0
  0
CLASS
  1
SPATIAL_FILTER
  2
AcDbSpatialFilter
  3
"Acad"
 90
    32768
280
     0
281
     0
  0
CLASS
  1
XRECORD
  2
AcDbXrecord
  3
"<Built In>"
 90
    32768
280
     0
281
     0
  0
CLASS
  1
SORTENTSTABLE
  2
AcDbSortentsTable
  3
"AutoCAD"
 90
    32768
280
     0
281
     0
  0
CLASS
  1
LAYER_INDEX
  2
AcDbLayerIndex
  3
"Acad"
 90
    32768
280
     0
281
     0
  0
CLASS
  1
SPATIAL_INDEX
  2
AcDbSpatialIndex
  3
"Acad"
 90
    32768
280
     0
281
     0
  0
CLASS
  1
OBJECT_PTR
  2
CAseDLPNTableRecord
  3
"ASE-LPNTableRecord"
 90
    32769
280
     0
281
     0
  0
CLASS
  1
LAYOUT
  2
AcDbLayout
  3
"AutoCAD 2000"
 90
    32768
280
     0
281
     0
  0
CLASS
  1
PLOTSETTINGS
  2
AcDbPlotSettings
  3
"AutoCAD 2000"
 90
    32768
280
     0
281
     0
  0
CLASS
  1
ACDBDICTIONARYWDFLT
  2
AcDbDictionaryWithDefault
  3
"AutoCAD 2000"
 90
    32768
280
     0
281
     0
  0
CLASS
  1
ACDBPLACEHOLDER
  2
AcDbPlaceHolder
  3
"AutoCAD 2000"
 90
    32768
280
     0
281
     0
  0
CLASS
  1
VBA_PROJECT
  2
AcDbVbaProject
  3
"acadvba"
 90
    32768
280
     0
281
     0
  0
CLASS
  1
WIPEOUT
  2
AcDbWipeout
  3
WipeOut|AutoCAD Express Tool|expresstools@autodesk.com
 90
    32895
280
     0
281
     1
  0
CLASS
  1
WIPEOUTVARIABLES
  2
AcDbWipeoutVariables
  3
WipeOut|AutoCAD Express Tool|expresstools@autodesk.com
 90
    32768
280
     0
281
     0
  0
CLASS
  1
RTEXT
  2
RText
  3
RText|AutoCAD Express Tool|expresstools@autodesk.com
 90
    32768
280
     0
281
     1
  0
CLASS
  1
ARCALIGNEDTEXT
  2
AcDbArcAlignedText
  3
ATEXT|AutoCAD Express Tool|expresstools@autodesk.com
 90
    32768
280
     0
281
     1
  0
ENDSEC
  0
SECTION
  2
TABLES
  0
TABLE
  2
VPORT
  5
6
100
AcDbSymbolTable
 70
     1
  0
VPORT
  5
1B
100
AcDbSymbolTableRecord
100
AcDbViewportTableRecord
  2
*ACTIVE
 70
     0
 10
0.0
 20
0.0
 11
1.0
 21
1.0
 12
0.0
 22
0.0
 13
0.0
 23
0.0
 14
1.0
 24
1.0
 15
0.0
 25
0.0
 16
0.0
 26
0.0
 36
1.0
 17
0.0
 27
0.0
 37
0.0
 40
891.0
 41
1.414141
 42
50.0
 43
0.0
 44
0.0
 50
0.0
 51
0.0
 71
     0
 72
   500
 73
     1
 74
     1
 75
     0
 76
     0
 77
     0
 78
     0
  0
ENDTAB
  0
TABLE
  2
LTYPE
  5
3
100
AcDbSymbolTable
 70
     9
  0
LTYPE
  5
C
100
AcDbSymbolTableRecord
100
AcDbLinetypeTableRecord
  2
BYBLOCK
 70
    64
  3

 72
    65
 73
     0
 40
0.0
  0
LTYPE
  5
D
100
AcDbSymbolTableRecord
100
AcDbLinetypeTableRecord
  2
BYLAYER
 70
    64
  3

 72
    65
 73
     0
 40
0.0
  0
LTYPE
  5
E
100
AcDbSymbolTableRecord
100
AcDbLinetypeTableRecord
  2
CONTINUOUS
 70
     0
  3
Solid line
 72
    65
 73
     0
 40
0.0
  0
LTYPE
  5
F
100
AcDbSymbolTableRecord
100
AcDbLinetypeTableRecord
  2
DASHED
 70
     0
  3
__ __ __ __ __ __ __ __ __ __ __ __ __ __ __
 72
    65
 73
     2
 40
2.0
 49
1.2
 74
     0
 49
-0.8
 74
     0
  0
LTYPE
  5
10
100
AcDbSymbolTableRecord
100
AcDbLinetypeTableRecord
  2
CENTER
 70
     0
  3
____ _ ____ _ ____ _ ____ _ ____ _ ____ _ ____
 72
    65
 73
     4
 40
12.0
 49
9.0
 74
     0
 49
-1.0
 74
     0
 49
1.0
 74
     0
 49
-1.0
 74
     0
  0
LTYPE
  5
11
100
AcDbSymbolTableRecord
100
AcDbLinetypeTableRecord
  2
HIDDEN
 70
     0
  3
_ _ _ _ _ _ _ _ _ _ _ _ _ _ _ _ _ _ _ _ _ _ _
 72
    65
 73
     2
 40
3.2
 49
2.4
 74
     0
 49
-0.8
 74
     0
  0
LTYPE
  5
12
100
AcDbSymbolTableRecord
100
AcDbLinetypeTableRecord
  2
PHANTOM
 70
     0
  3
_____ _ _ _____ _ _ _____ _ _ _____ _ _ _____
 72
    65
 73
     6
 40
13.5
 49
9.0
 74
     0
 49
-1.0
 74
     0
 49
1.0
 74
     0
 49
-0.5
 74
     0
 49
1.0
 74
     0
 49
-1.0
 74
     0
  0
LTYPE
  5
13
100
AcDbSymbolTableRecord
100
AcDbLinetypeTableRecord
  2
DOT
 70
     0
  3
...............................................
 72
    65
 73
     2
 40
1.0
 49
0.5
 74
     0
 49
-0.5
 74
     0
  0
LTYPE
  5
14
100
AcDbSymbolTableRecord
100
AcDbLinetypeTableRecord
  2
DASHDOT
 70
     0
  3
__ . __ . __ . __ . __ . __ . __ . __ . __ . __
 72
    65
 73
     4
 40
8.0
 49
5.0
 74
     0
 49
-1.0
 74
     0
 49
1.0
 74
     0
 49
-1.0
 74
     0
  0
ENDTAB
  0
TABLE
  2
LAYER
  5
1
100
AcDbSymbolTable
 70
     6
  0
LAYER
  5
15
100
AcDbSymbolTableRecord
100
AcDbLayerTableRecord
  2
0
 70
     0
 62
     7
  6
CONTINUOUS
  0
LAYER
  5
16
100
AcDbSymbolTableRecord
100
AcDbLayerTableRecord
  2
1
 70
     0
 62
     7
  6
CONTINUOUS
  0
LAYER
  5
17
100
AcDbSymbolTableRecord
100
AcDbLayerTableRecord
  2
2
 70
     0
 62
     7
  6
CONTINUOUS
  0
LAYER
  5
18
100
AcDbSymbolTableRecord
100
AcDbLayerTableRecord
  2
5
 70
     0
 62
     7
  6
CONTINUOUS
  0
LAYER
  5
19
100
AcDbSymbolTableRecord
100
AcDbLayerTableRecord
  2
18
 70
     0
 62
     7
  6
CONTINUOUS
  0
LAYER
  5
1A
100
AcDbSymbolTableRecord
100
AcDbLayerTableRecord
  2
20
 70
     0
 62
     7
  6
CONTINUOUS
  0
ENDTAB
  0
TABLE
  2
STYLE
  5
2
100
AcDbSymbolTable
 70
     1
  0
STYLE
  5
1D
100
AcDbSymbolTableRecord
100
AcDbTextStyleTableRecord
  2
STANDARD
 70
    64
 40
0.0
 41
1.0
 50
0.0
 71
     0
 42
1.0
  3
txt
  4
BIGFONT
  0
ENDTAB
  0
TABLE
  2
VIEW
  5
4
100
AcDbSymbolTable
 70
     0
  0
ENDTAB
  0
TABLE
  2
UCS
  5
5
100
AcDbSymbolTable
 70
     0
  0
ENDTAB
  0
TABLE
  2
APPID
  5
7
100
AcDbSymbolTable
 70
     1
  0
APPID
  5
1C
100
AcDbSymbolTableRecord
100
AcDbRegAppTableRecord
  2
ACAD
 70
     0
  0
ENDTAB
  0
TABLE
  2
DIMSTYLE
  5
8
100
AcDbSymbolTable
 70
     1
  0
DIMSTYLE
105
2E
100
AcDbSymbolTableRecord
100
AcDbDimStyleTableRecord
  2
STANDARD
 70
     0
  3

  4

  5

  6

  7

 40
3.0
 41
0.18
 42
0.0625
 43
0.38
 44
0.18
 45
0.0
 46
0.0
 47
0.0
 48
0.0
 71
     0
 72
     0
 73
     1
 74
     1
 75
     0
 76
     0
 77
     1
 78
     0
140
0.18
141
0.09
142
0.0
143
25.4
144
1.0
145
0.0
146
1.0
147
0.09
170
     0
171
     2
172
     0
173
     0
174
     0
175
     0
176
     0
177
     0
178
     0
270
     2
271
     4
272
     4
273
     2
274
     2
275
     0
280
     0
281
     0
282
     0
283
     1
284
     0
285
     0
286
     0
287
     3
288
     0
340
1D
  0
ENDTAB
  0
TABLE
  2
BLOCK_RECORD
  5
29
100
AcDbSymbolTable
 70
     9
  0
BLOCK_RECORD
  5
27
100
AcDbSymbolTableRecord
100
AcDbBlockTableRecord
  2
*MODEL_SPACE
  0
BLOCK_RECORD
  5
28
100
AcDbSymbolTableRecord
100
AcDbBlockTableRecord
  2
*PAPER_SPACE
  0
BLOCK_RECORD
  5
1E
100
AcDbSymbolTableRecord
100
AcDbBlockTableRecord
  2
*D0
  0
BLOCK_RECORD
  5
1F
100
AcDbSymbolTableRecord
100
AcDbBlockTableRecord
  2
*D1
  0
BLOCK_RECORD
  5
20
100
AcDbSymbolTableRecord
100
AcDbBlockTableRecord
  2
*D2
  0
BLOCK_RECORD
  5
21
100
AcDbSymbolTableRecord
100
AcDbBlockTableRecord
  2
*D3
  0
BLOCK_RECORD
  5
22
100
AcDbSymbolTableRecord
100
AcDbBlockTableRecord
  2
*D4
  0
BLOCK_RECORD
  5
23
100
AcDbSymbolTableRecord
100
AcDbBlockTableRecord
  2
*D5
  0
BLOCK_RECORD
  5
24
100
AcDbSymbolTableRecord
100
AcDbBlockTableRecord
  2
*D6
  0
BLOCK_RECORD
  5
25
100
AcDbSymbolTableRecord
100
AcDbBlockTableRecord
  2
*D7
  0
BLOCK_RECORD
  5
26
100
AcDbSymbolTableRecord
100
AcDbBlockTableRecord
  2
*D8
  0
ENDTAB
  0
ENDSEC
  0
SECTION
  2
BLOCKS
  0
BLOCK
  5
2A
100
AcDbEntity
  8
0
100
AcDbBlockBegin
  2
*MODEL_SPACE
 70
     0
 10
0.0
 20
0.0
 30
0.0
  3
*MODEL_SPACE
  1

  0
ENDBLK
  5
2B
100
AcDbEntity
  8
0
100
AcDbBlockEnd
  0
BLOCK
  5
2C
100
AcDbEntity
 67
     1
  8
0
100
AcDbBlockBegin
  2
*PAPER_SPACE
 70
     0
 10
0.0
 20
0.0
 30
0.0
  3
*PAPER_SPACE
  1

  0
ENDBLK
  5
2D
100
AcDbEntity
 67
     1
  8
0
100
AcDbBlockEnd
  0
BLOCK
  5
6D3
100
AcDbEntity
  8
5
100
AcDbBlockBegin
  2
*D0
 70
     1
 10
0.0
 20
0.0
 30
0.0
  3
*D0
  1

  0
TEXT
  5
6D4
100
AcDbEntity
  8
5
 62
     2
100
AcDbText
 10
-228.541758
 20
369.262802
 30
0.0
 40
9.9
  1
114
 41
1.4
 72
     5
 11
-210.523758
 21
369.262802
 31
0.0
100
AcDbText
  0
LINE
  5
6D5
100
AcDbEntity
  8
5
 62
     2
100
AcDbLine
 10
-275.146758
 20
344.443338
 30
0.0
 11
-275.146758
 21
370.762802
 31
0.0
  0
LINE
  5
6D6
100
AcDbEntity
  8
5
 62
     2
100
AcDbLine
 10
-275.146758
 20
367.762802
 30
0.0
 11
-269.351203
 21
366.209888
 31
0.0
  0
LINE
  5
6D7
100
AcDbEntity
  8
5
 62
     2
100
AcDbLine
 10
-275.146758
 20
367.762802
 30
0.0
 11
-269.351203
 21
369.315716
 31
0.0
  0
LINE
  5
6D8
100
AcDbEntity
  8
5
 62
     2
100
AcDbLine
 10
-269.351203
 20
366.209888
 30
0.0
 11
-269.351203
 21
369.315716
 31
0.0
  0
LINE
  5
6D9
100
AcDbEntity
  8
5
 62
     2
100
AcDbLine
 10
-275.146758
 20
367.762802
 30
0.0
 11
-161.146758
 21
367.762802
 31
0.0
  0
LINE
  5
6DA
100
AcDbEntity
  8
5
 62
     2
100
AcDbLine
 10
-161.146758
 20
367.762802
 30
0.0
 11
-166.942313
 21
369.315716
 31
0.0
  0
LINE
  5
6DB
100
AcDbEntity
  8
5
 62
     2
100
AcDbLine
 10
-161.146758
 20
367.762802
 30
0.0
 11
-166.942313
 21
366.209888
 31
0.0
  0
LINE
  5
6DC
100
AcDbEntity
  8
5
 62
     2
100
AcDbLine
 10
-166.942313
 20
369.315716
 30
0.0
 11
-166.942313
 21
366.209888
 31
0.0
  0
LINE
  5
6DD
100
AcDbEntity
  8
5
 62
     2
100
AcDbLine
 10
-161.146758
 20
331.670555
 30
0.0
 11
-161.146758
 21
370.762802
 31
0.0
  0
ENDBLK
  5
6DE
100
AcDbEntity
  8
5
100
AcDbBlockEnd
  0
BLOCK
  5
6DF
100
AcDbEntity
  8
5
100
AcDbBlockBegin
  2
*D1
 70
     1
 10
0.0
 20
0.0
 30
0.0
  3
*D1
  1

  0
TEXT
  5
6E0
100
AcDbEntity
  8
5
 62
     2
100
AcDbText
 10
-354.541758
 20
369.262802
 30
0.0
 40
9.9
  1
138
 41
1.4
 72
     5
 11
-336.523758
 21
369.262802
 31
0.0
100
AcDbText
  0
LINE
  5
6E1
100
AcDbEntity
  8
5
 62
     2
100
AcDbLine
 10
-413.146758
 20
330.743338
 30
0.0
 11
-413.146758
 21
370.762802
 31
0.0
  0
LINE
  5
6E2
100
AcDbEntity
  8
5
 62
     2
100
AcDbLine
 10
-413.146758
 20
367.762802
 30
0.0
 11
-407.351203
 21
366.209888
 31
0.0
  0
LINE
  5
6E3
100
AcDbEntity
  8
5
 62
     2
100
AcDbLine
 10
-413.146758
 20
367.762802
 30
0.0
 11
-407.351203
 21
369.315716
 31
0.0
  0
LINE
  5
6E4
100
AcDbEntity
  8
5
 62
     2
100
AcDbLine
 10
-407.351203
 20
366.209888
 30
0.0
 11
-407.351203
 21
369.315716
 31
0.0
  0
LINE
  5
6E5
100
AcDbEntity
  8
5
 62
     2
100
AcDbLine
 10
-413.146758
 20
367.762802
 30
0.0
 11
-275.146758
 21
367.762802
 31
0.0
  0
LINE
  5
6E6
100
AcDbEntity
  8
5
 62
     2
100
AcDbLine
 10
-275.146758
 20
367.762802
 30
0.0
 11
-280.942313
 21
369.315716
 31
0.0
  0
LINE
  5
6E7
100
AcDbEntity
  8
5
 62
     2
100
AcDbLine
 10
-275.146758
 20
367.762802
 30
0.0
 11
-280.942313
 21
366.209888
 31
0.0
  0
LINE
  5
6E8
100
AcDbEntity
  8
5
 62
     2
100
AcDbLine
 10
-280.942313
 20
369.315716
 30
0.0
 11
-280.942313
 21
366.209888
 31
0.0
  0
LINE
  5
6E9
100
AcDbEntity
  8
5
 62
     2
100
AcDbLine
 10
-275.146758
 20
344.443338
 30
0.0
 11
-275.146758
 21
370.762802
 31
0.0
  0
ENDBLK
  5
6EA
100
AcDbEntity
  8
5
100
AcDbBlockEnd
  0
BLOCK
  5
6EB
100
AcDbEntity
  8
5
100
AcDbBlockBegin
  2
*D2
 70
     1
 10
0.0
 20
0.0
 30
0.0
  3
*D2
  1

  0
TEXT
  5
6EC
100
AcDbEntity
  8
5
 62
     2
100
AcDbText
 10
-121.892464
 20
309.313338
 30
0.0
 40
9.9
  1
65
 50
90.0
 41
1.4
 72
     5
 11
-121.892464
 21
320.401338
 31
0.0
100
AcDbText
  0
LINE
  5
6ED
100
AcDbEntity
  8
5
 62
     2
100
AcDbLine
 10
-144.787846
 20
283.743338
 30
0.0
 11
-117.392464
 21
283.743338
 31
0.0
  0
LINE
  5
6EE
100
AcDbEntity
  8
5
 62
     2
100
AcDbLine
 10
-120.392464
 20
283.743338
 30
0.0
 11
-118.839549
 21
289.538893
 31
0.0
  0
LINE
  5
6EF
100
AcDbEntity
  8
5
 62
     2
100
AcDbLine
 10
-120.392464
 20
283.743338
 30
0.0
 11
-121.945378
 21
289.538893
 31
0.0
  0
LINE
  5
6F0
100
AcDbEntity
  8
5
 62
     2
100
AcDbLine
 10
-118.839549
 20
289.538893
 30
0.0
 11
-121.945378
 21
289.538893
 31
0.0
  0
LINE
  5
6F1
100
AcDbEntity
  8
5
 62
     2
100
AcDbLine
 10
-120.392464
 20
283.743338
 30
0.0
 11
-120.392464
 21
348.743338
 31
0.0
  0
LINE
  5
6F2
100
AcDbEntity
  8
5
 62
     2
100
AcDbLine
 10
-120.392464
 20
348.743338
 30
0.0
 11
-121.945378
 21
342.947783
 31
0.0
  0
LINE
  5
6F3
100
AcDbEntity
  8
5
 62
     2
100
AcDbLine
 10
-120.392464
 20
348.743338
 30
0.0
 11
-118.839549
 21
342.947783
 31
0.0
  0
LINE
  5
6F4
100
AcDbEntity
  8
5
 62
     2
100
AcDbLine
 10
-121.945378
 20
342.947783
 30
0.0
 11
-118.839549
 21
342.947783
 31
0.0
  0
LINE
  5
6F5
100
AcDbEntity
  8
5
 62
     2
100
AcDbLine
 10
-250.823258
 20
348.743338
 30
0.0
 11
-117.392464
 21
348.743338
 31
0.0
  0
ENDBLK
  5
6F6
100
AcDbEntity
  8
5
100
AcDbBlockEnd
  0
BLOCK
  5
6F7
100
AcDbEntity
  8
5
100
AcDbBlockBegin
  2
*D3
 70
     1
 10
0.0
 20
0.0
 30
0.0
  3
*D3
  1

  0
TEXT
  5
6F8
100
AcDbEntity
  8
5
 62
     2
100
AcDbText
 10
-121.892464
 20
210.348338
 30
0.0
 40
9.9
  1
126
 50
90.0
 41
1.4
 72
     5
 11
-121.892464
 21
228.366338
 31
0.0
100
AcDbText
  0
LINE
  5
6F9
100
AcDbEntity
  8
5
 62
     2
100
AcDbLine
 10
-206.451739
 20
157.743338
 30
0.0
 11
-117.392464
 21
157.743338
 31
0.0
  0
LINE
  5
6FA
100
AcDbEntity
  8
5
 62
     2
100
AcDbLine
 10
-120.392464
 20
157.743338
 30
0.0
 11
-118.839549
 21
163.538893
 31
0.0
  0
LINE
  5
6FB
100
AcDbEntity
  8
5
 62
     2
100
AcDbLine
 10
-120.392464
 20
157.743338
 30
0.0
 11
-121.945378
 21
163.538893
 31
0.0
  0
LINE
  5
6FC
100
AcDbEntity
  8
5
 62
     2
100
AcDbLine
 10
-118.839549
 20
163.538893
 30
0.0
 11
-121.945378
 21
163.538893
 31
0.0
  0
LINE
  5
6FD
100
AcDbEntity
  8
5
 62
     2
100
AcDbLine
 10
-120.392464
 20
157.743338
 30
0.0
 11
-120.392464
 21
283.743338
 31
0.0
  0
LINE
  5
6FE
100
AcDbEntity
  8
5
 62
     2
100
AcDbLine
 10
-120.392464
 20
283.743338
 30
0.0
 11
-121.945378
 21
277.947783
 31
0.0
  0
LINE
  5
6FF
100
AcDbEntity
  8
5
 62
     2
100
AcDbLine
 10
-120.392464
 20
283.743338
 30
0.0
 11
-118.839549
 21
277.947783
 31
0.0
  0
LINE
  5
700
100
AcDbEntity
  8
5
 62
     2
100
AcDbLine
 10
-121.945378
 20
277.947783
 30
0.0
 11
-118.839549
 21
277.947783
 31
0.0
  0
LINE
  5
701
100
AcDbEntity
  8
5
 62
     2
100
AcDbLine
 10
-144.787846
 20
283.743338
 30
0.0
 11
-117.392464
 21
283.743338
 31
0.0
  0
ENDBLK
  5
702
100
AcDbEntity
  8
5
100
AcDbBlockEnd
  0
BLOCK
  5
703
100
AcDbEntity
  8
5
100
AcDbBlockBegin
  2
*D4
 70
     1
 10
0.0
 20
0.0
 30
0.0
  3
*D4
  1

  0
TEXT
  5
704
100
AcDbEntity
  8
5
 62
     2
100
AcDbText
 10
-244.541758
 20
126.966042
 30
0.0
 40
9.9
  1
%%c70
 41
1.4
 72
     5
 11
-226.523758
 21
126.966042
 31
0.0
100
AcDbText
  0
LINE
  5
705
100
AcDbEntity
  8
5
 62
     2
100
AcDbLine
 10
-199.180681
 20
160.307226
 30
0.0
 11
-199.180681
 21
122.466042
 31
0.0
  0
LINE
  5
706
100
AcDbEntity
  8
5
 62
     2
100
AcDbLine
 10
-199.180681
 20
125.466042
 30
0.0
 11
-204.976236
 21
127.018956
 31
0.0
  0
LINE
  5
707
100
AcDbEntity
  8
5
 62
     2
100
AcDbLine
 10
-199.180681
 20
125.466042
 30
0.0
 11
-204.976236
 21
123.913127
 31
0.0
  0
LINE
  5
708
100
AcDbEntity
  8
5
 62
     2
100
AcDbLine
 10
-204.976236
 20
127.018956
 30
0.0
 11
-204.976236
 21
123.913127
 31
0.0
  0
LINE
  5
709
100
AcDbEntity
  8
5
 62
     2
100
AcDbLine
 10
-199.180681
 20
125.466042
 30
0.0
 11
-269.112836
 21
125.466042
 31
0.0
  0
LINE
  5
70A
100
AcDbEntity
  8
5
 62
     2
100
AcDbLine
 10
-269.112836
 20
125.466042
 30
0.0
 11
-263.317281
 21
123.913127
 31
0.0
  0
LINE
  5
70B
100
AcDbEntity
  8
5
 62
     2
100
AcDbLine
 10
-269.112836
 20
125.466042
 30
0.0
 11
-263.317281
 21
127.018956
 31
0.0
  0
LINE
  5
70C
100
AcDbEntity
  8
5
 62
     2
100
AcDbLine
 10
-263.317281
 20
123.913127
 30
0.0
 11
-263.317281
 21
127.018956
 31
0.0
  0
LINE
  5
70D
100
AcDbEntity
  8
5
 62
     2
100
AcDbLine
 10
-269.112836
 20
160.307226
 30
0.0
 11
-269.112836
 21
122.466042
 31
0.0
  0
ENDBLK
  5
70E
100
AcDbEntity
  8
5
100
AcDbBlockEnd
  0
BLOCK
  5
70F
100
AcDbEntity
  8
5
100
AcDbBlockBegin
  2
*D5
 70
     1
 10
0.0
 20
0.0
 30
0.0
  3
*D5
  1

  0
TEXT
  5
710
100
AcDbEntity
  8
5
 62
     2
100
AcDbText
 10
-50.558516
 20
-198.651662
 30
0.0
 40
9.9
  1
167
 50
90.0
 41
1.4
 72
     5
 11
-50.558516
 21
-180.633662
 31
0.0
100
AcDbText
  0
LINE
  5
711
100
AcDbEntity
  8
5
 62
     2
100
AcDbLine
 10
60.903242
 20
-271.756662
 30
0.0
 11
-52.058516
 21
-271.756662
 31
0.0
  0
LINE
  5
712
100
AcDbEntity
  8
5
 62
     2
100
AcDbLine
 10
-49.058516
 20
-271.756662
 30
0.0
 11
-47.505601
 21
-265.961107
 31
0.0
  0
LINE
  5
713
100
AcDbEntity
  8
5
 62
     2
100
AcDbLine
 10
-49.058516
 20
-271.756662
 30
0.0
 11
-50.61143
 21
-265.961107
 31
0.0
  0
LINE
  5
714
100
AcDbEntity
  8
5
 62
     2
100
AcDbLine
 10
-47.505601
 20
-265.961107
 30
0.0
 11
-50.61143
 21
-265.961107
 31
0.0
  0
LINE
  5
715
100
AcDbEntity
  8
5
 62
     2
100
AcDbLine
 10
-49.058516
 20
-271.756662
 30
0.0
 11
-49.058516
 21
-104.756662
 31
0.0
  0
LINE
  5
716
100
AcDbEntity
  8
5
 62
     2
100
AcDbLine
 10
-49.058516
 20
-104.756662
 30
0.0
 11
-50.61143
 21
-110.552217
 31
0.0
  0
LINE
  5
717
100
AcDbEntity
  8
5
 62
     2
100
AcDbLine
 10
-49.058516
 20
-104.756662
 30
0.0
 11
-47.505601
 21
-110.552217
 31
0.0
  0
LINE
  5
718
100
AcDbEntity
  8
5
 62
     2
100
AcDbLine
 10
-50.61143
 20
-110.552217
 30
0.0
 11
-47.505601
 21
-110.552217
 31
0.0
  0
LINE
  5
719
100
AcDbEntity
  8
5
 62
     2
100
AcDbLine
 10
73.503242
 20
-104.756662
 30
0.0
 11
-52.058516
 21
-104.756662
 31
0.0
  0
ENDBLK
  5
71A
100
AcDbEntity
  8
5
100
AcDbBlockEnd
  0
BLOCK
  5
71B
100
AcDbEntity
  8
5
100
AcDbBlockBegin
  2
*D6
 70
     1
 10
0.0
 20
0.0
 30
0.0
  3
*D6
  1

  0
TEXT
  5
71C
100
AcDbEntity
  8
5
 62
     2
100
AcDbText
 10
-50.558516
 20
-333.101662
 30
0.0
 40
9.9
  1
102
 50
90.0
 41
1.4
 72
     5
 11
-50.558516
 21
-315.083662
 31
0.0
100
AcDbText
  0
LINE
  5
71D
100
AcDbEntity
  8
5
 62
     2
100
AcDbLine
 10
103.503242
 20
-373.656662
 30
0.0
 11
-52.058516
 21
-373.656662
 31
0.0
  0
LINE
  5
71E
100
AcDbEntity
  8
5
 62
     2
100
AcDbLine
 10
-49.058516
 20
-373.656662
 30
0.0
 11
-47.505601
 21
-367.861107
 31
0.0
  0
LINE
  5
71F
100
AcDbEntity
  8
5
 62
     2
100
AcDbLine
 10
-49.058516
 20
-373.656662
 30
0.0
 11
-50.61143
 21
-367.861107
 31
0.0
  0
LINE
  5
720
100
AcDbEntity
  8
5
 62
     2
100
AcDbLine
 10
-47.505601
 20
-367.861107
 30
0.0
 11
-50.61143
 21
-367.861107
 31
0.0
  0
LINE
  5
721
100
AcDbEntity
  8
5
 62
     2
100
AcDbLine
 10
-49.058516
 20
-373.656662
 30
0.0
 11
-49.058516
 21
-271.756662
 31
0.0
  0
LINE
  5
722
100
AcDbEntity
  8
5
 62
     2
100
AcDbLine
 10
-49.058516
 20
-271.756662
 30
0.0
 11
-50.61143
 21
-277.552217
 31
0.0
  0
LINE
  5
723
100
AcDbEntity
  8
5
 62
     2
100
AcDbLine
 10
-49.058516
 20
-271.756662
 30
0.0
 11
-47.505601
 21
-277.552217
 31
0.0
  0
LINE
  5
724
100
AcDbEntity
  8
5
 62
     2
100
AcDbLine
 10
-50.61143
 20
-277.552217
 30
0.0
 11
-47.505601
 21
-277.552217
 31
0.0
  0
LINE
  5
725
100
AcDbEntity
  8
5
 62
     2
100
AcDbLine
 10
60.903242
 20
-271.756662
 30
0.0
 11
-52.058516
 21
-271.756662
 31
0.0
  0
ENDBLK
  5
726
100
AcDbEntity
  8
5
100
AcDbBlockEnd
  0
BLOCK
  5
727
100
AcDbEntity
  8
5
100
AcDbBlockBegin
  2
*D7
 70
     1
 10
0.0
 20
0.0
 30
0.0
  3
*D7
  1

  0
TEXT
  5
728
100
AcDbEntity
  8
5
 62
     2
100
AcDbText
 10
104.573242
 20
-400.317627
 30
0.0
 40
9.9
  1
52
 41
1.4
 72
     5
 11
115.661242
 21
-400.317627
 31
0.0
100
AcDbText
  0
LINE
  5
729
100
AcDbEntity
  8
5
 62
     2
100
AcDbLine
 10
85.503242
 20
-346.756662
 30
0.0
 11
85.503242
 21
-404.817627
 31
0.0
  0
LINE
  5
72A
100
AcDbEntity
  8
5
 62
     2
100
AcDbLine
 10
85.503242
 20
-401.817627
 30
0.0
 11
91.298797
 21
-403.370541
 31
0.0
  0
LINE
  5
72B
100
AcDbEntity
  8
5
 62
     2
100
AcDbLine
 10
85.503242
 20
-401.817627
 30
0.0
 11
91.298797
 21
-400.264713
 31
0.0
  0
LINE
  5
72C
100
AcDbEntity
  8
5
 62
     2
100
AcDbLine
 10
91.298797
 20
-403.370541
 30
0.0
 11
91.298797
 21
-400.264713
 31
0.0
  0
LINE
  5
72D
100
AcDbEntity
  8
5
 62
     2
100
AcDbLine
 10
85.503242
 20
-401.817627
 30
0.0
 11
137.503242
 21
-401.817627
 31
0.0
  0
LINE
  5
72E
100
AcDbEntity
  8
5
 62
     2
100
AcDbLine
 10
137.503242
 20
-401.817627
 30
0.0
 11
131.707687
 21
-400.264713
 31
0.0
  0
LINE
  5
72F
100
AcDbEntity
  8
5
 62
     2
100
AcDbLine
 10
137.503242
 20
-401.817627
 30
0.0
 11
131.707687
 21
-403.370541
 31
0.0
  0
LINE
  5
730
100
AcDbEntity
  8
5
 62
     2
100
AcDbLine
 10
131.707687
 20
-400.264713
 30
0.0
 11
131.707687
 21
-403.370541
 31
0.0
  0
LINE
  5
731
100
AcDbEntity
  8
5
 62
     2
100
AcDbLine
 10
137.503242
 20
-346.756662
 30
0.0
 11
137.503242
 21
-404.817627
 31
0.0
  0
ENDBLK
  5
732
100
AcDbEntity
  8
5
100
AcDbBlockEnd
  0
BLOCK
  5
733
100
AcDbEntity
  8
5
100
AcDbBlockBegin
  2
*D8
 70
     1
 10
0.0
 20
0.0
 30
0.0
  3
*D8
  1

  0
TEXT
  5
734
100
AcDbEntity
  8
5
 62
     2
100
AcDbText
 10
-50.558516
 20
-19.651662
 30
0.0
 40
9.9
  1
191
 50
90.0
 41
1.4
 72
     5
 11
-50.558516
 21
-1.633662
 31
0.0
100
AcDbText
  0
LINE
  5
735
100
AcDbEntity
  8
5
 62
     2
100
AcDbLine
 10
73.503242
 20
-104.756662
 30
0.0
 11
-52.058516
 21
-104.756662
 31
0.0
  0
LINE
  5
736
100
AcDbEntity
  8
5
 62
     2
100
AcDbLine
 10
-49.058516
 20
-104.756662
 30
0.0
 11
-47.505601
 21
-98.961107
 31
0.0
  0
LINE
  5
737
100
AcDbEntity
  8
5
 62
     2
100
AcDbLine
 10
-49.058516
 20
-104.756662
 30
0.0
 11
-50.61143
 21
-98.961107
 31
0.0
  0
LINE
  5
738
100
AcDbEntity
  8
5
 62
     2
100
AcDbLine
 10
-47.505601
 20
-98.961107
 30
0.0
 11
-50.61143
 21
-98.961107
 31
0.0
  0
LINE
  5
739
100
AcDbEntity
  8
5
 62
     2
100
AcDbLine
 10
-49.058516
 20
-104.756662
 30
0.0
 11
-49.058516
 21
86.243338
 31
0.0
  0
LINE
  5
73A
100
AcDbEntity
  8
5
 62
     2
100
AcDbLine
 10
-49.058516
 20
86.243338
 30
0.0
 11
-50.61143
 21
80.447783
 31
0.0
  0
LINE
  5
73B
100
AcDbEntity
  8
5
 62
     2
100
AcDbLine
 10
-49.058516
 20
86.243338
 30
0.0
 11
-47.505601
 21
80.447783
 31
0.0
  0
LINE
  5
73C
100
AcDbEntity
  8
5
 62
     2
100
AcDbLine
 10
-50.61143
 20
80.447783
 30
0.0
 11
-47.505601
 21
80.447783
 31
0.0
  0
LINE
  5
73D
100
AcDbEntity
  8
5
 62
     2
100
AcDbLine
 10
108.503242
 20
86.243338
 30
0.0
 11
-52.058516
 21
86.243338
 31
0.0
  0
ENDBLK
  5
73E
100
AcDbEntity
  8
5
100
AcDbBlockEnd
  0
ENDSEC
  0
SECTION
  2
ENTITIES
  0
LINE
  5
2F
100
AcDbEntity
  8
1
  6
CENTER
 62
     2
100
AcDbLine
 10
-187.771207
 20
-271.756662
 30
0.0
 11
-362.681795
 21
-271.756662
 31
0.0
  0
LINE
  5
30
100
AcDbEntity
  8
1
  6
CENTER
 62
     2
100
AcDbLine
 10
63.903242
 20
-271.756662
 30
0.0
 11
164.203242
 21
-271.756662
 31
0.0
  0
LINE
  5
31
100
AcDbEntity
  8
1
100
AcDbLine
 10
-294.146758
 20
-365.756662
 30
0.0
 11
-256.146758
 21
-365.756662
 31
0.0
  0
LINE
  5
32
100
AcDbEntity
  8
1
100
AcDbLine
 10
98.503242
 20
-365.756662
 30
0.0
 11
124.503242
 21
-365.756662
 31
0.0
  0
LINE
  5
33
100
AcDbEntity
  8
1
100
AcDbLine
 10
85.503242
 20
-343.756662
 30
0.0
 11
85.503242
 21
-199.756662
 31
0.0
  0
LINE
  5
34
100
AcDbEntity
  8
1
100
AcDbLine
 10
85.503242
 20
-199.756662
 30
0.0
 11
86.503242
 21
-198.756662
 31
0.0
  0
LINE
  5
35
100
AcDbEntity
  8
1
100
AcDbLine
 10
85.503242
 20
-343.756662
 30
0.0
 11
86.503242
 21
-344.756662
 31
0.0
  0
LINE
  5
36
100
AcDbEntity
  8
1
100
AcDbLine
 10
137.503242
 20
-343.756662
 30
0.0
 11
137.503242
 21
-199.756662
 31
0.0
  0
LINE
  5
37
100
AcDbEntity
  8
1
100
AcDbLine
 10
137.503242
 20
-199.756662
 30
0.0
 11
136.503242
 21
-198.756662
 31
0.0
  0
LINE
  5
38
100
AcDbEntity
  8
1
100
AcDbLine
 10
137.503242
 20
-343.756662
 30
0.0
 11
136.503242
 21
-344.756662
 31
0.0
  0
LINE
  5
39
100
AcDbEntity
  8
1
100
AcDbLine
 10
-306.146758
 20
-116.756662
 30
0.0
 11
-244.146758
 21
-116.756662
 31
0.0
  0
LINE
  5
3A
100
AcDbEntity
  8
1
100
AcDbLine
 10
-292.646758
 20
-121.756662
 30
0.0
 11
-292.646758
 21
-193.444785
 31
0.0
  0
LINE
  5
3B
100
AcDbEntity
  8
1
100
AcDbLine
 10
-257.646758
 20
-121.756662
 30
0.0
 11
-257.646758
 21
-193.444785
 31
0.0
  0
LINE
  5
3C
100
AcDbEntity
  8
1
100
AcDbLine
 10
-294.146758
 20
-368.156662
 30
0.0
 11
-294.146758
 21
-345.972563
 31
0.0
  0
LINE
  5
3D
100
AcDbEntity
  8
1
100
AcDbLine
 10
-256.146758
 20
-368.156662
 30
0.0
 11
-256.146758
 21
-345.972563
 31
0.0
  0
LINE
  5
3E
100
AcDbEntity
  8
1
100
AcDbLine
 10
98.503242
 20
-368.156662
 30
0.0
 11
98.503242
 21
-345.215133
 31
0.0
  0
LINE
  5
3F
100
AcDbEntity
  8
1
100
AcDbLine
 10
124.503242
 20
-368.156662
 30
0.0
 11
124.503242
 21
-345.215133
 31
0.0
  0
LINE
  5
40
100
AcDbEntity
  8
1
100
AcDbLine
 10
-310.146758
 20
-104.756662
 30
0.0
 11
-310.146758
 21
-112.756662
 31
0.0
  0
LINE
  5
41
100
AcDbEntity
  8
1
100
AcDbLine
 10
-240.146758
 20
-104.756662
 30
0.0
 11
-240.146758
 21
-112.756662
 31
0.0
  0
LINE
  5
42
100
AcDbEntity
  8
1
100
AcDbLine
 10
-278.146758
 20
-118.756662
 30
0.0
 11
-278.146758
 21
-129.697359
 31
0.0
  0
LINE
  5
43
100
AcDbEntity
  8
1
100
AcDbLine
 10
-272.146758
 20
-118.756662
 30
0.0
 11
-272.146758
 21
-129.697359
 31
0.0
  0
LINE
  5
44
100
AcDbEntity
  8
1
100
AcDbLine
 10
97.503242
 20
-210.340047
 30
0.0
 11
97.503242
 21
-236.756662
 31
0.0
  0
LINE
  5
45
100
AcDbEntity
  8
1
100
AcDbLine
 10
97.503242
 20
-252.756662
 30
0.0
 11
97.503242
 21
-290.756662
 31
0.0
  0
LINE
  5
46
100
AcDbEntity
  8
1
100
AcDbLine
 10
125.503242
 20
-210.340047
 30
0.0
 11
125.503242
 21
-236.756662
 31
0.0
  0
LINE
  5
47
100
AcDbEntity
  8
1
100
AcDbLine
 10
125.503242
 20
-252.756662
 30
0.0
 11
125.503242
 21
-290.756662
 31
0.0
  0
LINE
  5
48
100
AcDbEntity
  8
1
100
AcDbLine
 10
103.503242
 20
-242.756662
 30
0.0
 11
119.503242
 21
-242.756662
 31
0.0
  0
LINE
  5
49
100
AcDbEntity
  8
1
100
AcDbLine
 10
103.503242
 20
-246.756662
 30
0.0
 11
119.503242
 21
-246.756662
 31
0.0
  0
LINE
  5
4A
100
AcDbEntity
  8
1
100
AcDbLine
 10
97.503242
 20
-333.173277
 30
0.0
 11
97.503242
 21
-306.756662
 31
0.0
  0
LINE
  5
4B
100
AcDbEntity
  8
1
100
AcDbLine
 10
125.503242
 20
-333.173277
 30
0.0
 11
125.503242
 21
-306.756662
 31
0.0
  0
LINE
  5
4C
100
AcDbEntity
  8
1
100
AcDbLine
 10
103.503242
 20
-300.756662
 30
0.0
 11
119.503242
 21
-300.756662
 31
0.0
  0
LINE
  5
4D
100
AcDbEntity
  8
1
100
AcDbLine
 10
103.503242
 20
-296.756662
 30
0.0
 11
119.503242
 21
-296.756662
 31
0.0
  0
LINE
  5
4E
100
AcDbEntity
  8
1
  6
DASHED
100
AcDbLine
 10
-214.154221
 20
269.743338
 30
0.0
 11
-240.146758
 21
269.743338
 31
0.0
  0
LINE
  5
4F
100
AcDbEntity
  8
1
  6
DASHED
100
AcDbLine
 10
-214.154221
 20
297.743338
 30
0.0
 11
-240.146758
 21
297.743338
 31
0.0
  0
LINE
  5
50
100
AcDbEntity
  8
1
  6
CENTER
 62
     2
100
AcDbLine
 10
-288.146758
 20
-358.856662
 30
0.0
 11
-288.146758
 21
-378.215313
 31
0.0
  0
LINE
  5
51
100
AcDbEntity
  8
1
  6
CENTER
 62
     2
100
AcDbLine
 10
-262.146758
 20
-359.706662
 30
0.0
 11
-262.146758
 21
-378.215313
 31
0.0
  0
LINE
  5
52
100
AcDbEntity
  8
1
100
AcDbLine
 10
86.503242
 20
-198.756662
 30
0.0
 11
86.503242
 21
-344.756662
 31
0.0
  0
LINE
  5
53
100
AcDbEntity
  8
1
100
AcDbLine
 10
136.503242
 20
-344.756662
 30
0.0
 11
136.503242
 21
-198.756662
 31
0.0
  0
LINE
  5
54
100
AcDbEntity
  8
1
  6
CENTER
 62
     2
100
AcDbLine
 10
-299.896758
 20
300.34823
 30
0.0
 11
-299.896758
 21
315.683603
 31
0.0
  0
LINE
  5
55
100
AcDbEntity
  8
1
  6
CENTER
 62
     2
100
AcDbLine
 10
-250.396758
 20
300.896128
 30
0.0
 11
-250.396758
 21
316.231485
 31
0.0
  0
LINE
  5
56
100
AcDbEntity
  8
1
  6
CENTER
 62
     2
100
AcDbLine
 10
-307.490297
 20
308.493338
 30
0.0
 11
-292.702821
 21
308.493338
 31
0.0
  0
LINE
  5
57
100
AcDbEntity
  8
1
  6
CENTER
 62
     2
100
AcDbLine
 10
-256.741335
 20
308.493338
 30
0.0
 11
-242.927888
 21
308.493338
 31
0.0
  0
LINE
  5
58
100
AcDbEntity
  8
1
  6
CENTER
 62
     2
100
AcDbLine
 10
-308.464342
 20
258.993338
 30
0.0
 11
-292.094057
 21
258.993338
 31
0.0
  0
LINE
  5
59
100
AcDbEntity
  8
1
  6
CENTER
 62
     2
100
AcDbLine
 10
-257.045747
 20
258.993338
 30
0.0
 11
-242.988756
 21
258.993338
 31
0.0
  0
CIRCLE
  5
5A
100
AcDbEntity
  8
1
  6
DASHED
100
AcDbCircle
 10
-299.896758
 20
308.493338
 30
0.0
 40
4.5
  0
CIRCLE
  5
5B
100
AcDbEntity
  8
1
  6
DASHED
100
AcDbCircle
 10
-299.896758
 20
258.993338
 30
0.0
 40
4.5
  0
CIRCLE
  5
5C
100
AcDbEntity
  8
1
  6
DASHED
100
AcDbCircle
 10
-250.396758
 20
258.993338
 30
0.0
 40
4.5
  0
CIRCLE
  5
5D
100
AcDbEntity
  8
1
  6
DASHED
100
AcDbCircle
 10
-250.396758
 20
308.493338
 30
0.0
 40
4.5
  0
LINE
  5
5E
100
AcDbEntity
  8
1
  6
CENTER
 62
     2
100
AcDbLine
 10
-299.896758
 20
-127.458529
 30
0.0
 11
-299.896758
 21
-99.609046
 31
0.0
  0
LINE
  5
5F
100
AcDbEntity
  8
1
  6
CENTER
 62
     2
100
AcDbLine
 10
-299.896758
 20
250.457437
 30
0.0
 11
-299.896758
 21
266.998865
 31
0.0
  0
LINE
  5
60
100
AcDbEntity
  8
1
  6
CENTER
 62
     2
100
AcDbLine
 10
-250.396758
 20
-127.458529
 30
0.0
 11
-250.396758
 21
-98.608689
 31
0.0
  0
LINE
  5
61
100
AcDbEntity
  8
1
  6
CENTER
 62
     2
100
AcDbLine
 10
-250.396758
 20
251.04101
 30
0.0
 11
-250.396758
 21
267.059809
 31
0.0
  0
LINE
  5
62
100
AcDbEntity
  8
1
100
AcDbLine
 10
80.503242
 20
-116.756662
 30
0.0
 11
142.503242
 21
-116.756662
 31
0.0
  0
LINE
  5
63
100
AcDbEntity
  8
1
100
AcDbLine
 10
94.003242
 20
-121.756662
 30
0.0
 11
94.003242
 21
-197.879951
 31
0.0
  0
LINE
  5
64
100
AcDbEntity
  8
1
100
AcDbLine
 10
129.003242
 20
-121.756662
 30
0.0
 11
129.003242
 21
-197.879951
 31
0.0
  0
LINE
  5
65
100
AcDbEntity
  8
1
100
AcDbLine
 10
76.503242
 20
-104.756662
 30
0.0
 11
76.503242
 21
-112.756662
 31
0.0
  0
LINE
  5
66
100
AcDbEntity
  8
1
100
AcDbLine
 10
146.503242
 20
-104.756662
 30
0.0
 11
146.503242
 21
-112.756662
 31
0.0
  0
LINE
  5
67
100
AcDbEntity
  8
1
100
AcDbLine
 10
108.503242
 20
-118.756662
 30
0.0
 11
108.503242
 21
-129.697359
 31
0.0
  0
LINE
  5
68
100
AcDbEntity
  8
1
100
AcDbLine
 10
114.503242
 20
-118.756662
 30
0.0
 11
114.503242
 21
-129.697359
 31
0.0
  0
LINE
  5
69
100
AcDbEntity
  8
1
  6
CENTER
 62
     2
100
AcDbLine
 10
86.753242
 20
-127.458529
 30
0.0
 11
86.753242
 21
-99.609046
 31
0.0
  0
LINE
  5
6A
100
AcDbEntity
  8
1
  6
CENTER
 62
     2
100
AcDbLine
 10
136.253242
 20
-127.458529
 30
0.0
 11
136.253242
 21
-98.608689
 31
0.0
  0
LINE
  5
6B
100
AcDbEntity
  8
1
  6
DASHED
100
AcDbLine
 10
-336.139295
 20
269.743338
 30
0.0
 11
-310.146758
 21
269.743338
 31
0.0
  0
LINE
  5
6C
100
AcDbEntity
  8
1
  6
DASHED
100
AcDbLine
 10
-336.139295
 20
297.743338
 30
0.0
 11
-310.146758
 21
297.743338
 31
0.0
  0
ARC
  5
6D
100
AcDbEntity
  8
1
100
AcDbCircle
 10
-306.146758
 20
-112.756662
 30
0.0
 40
4.0
100
AcDbArc
 50
180.0
 51
270.0
  0
ARC
  5
6E
100
AcDbEntity
  8
1
100
AcDbCircle
 10
-244.146758
 20
-112.756662
 30
0.0
 40
4.0
100
AcDbArc
 50
270.0
 51
360.0
  0
ARC
  5
6F
100
AcDbEntity
  8
1
100
AcDbCircle
 10
-252.646758
 20
-121.756662
 30
0.0
 40
5.0
100
AcDbArc
 50
90.0
 51
180.0
  0
ARC
  5
70
100
AcDbEntity
  8
1
100
AcDbCircle
 10
-297.646758
 20
-121.756662
 30
0.0
 40
5.0
100
AcDbArc
 50
0.0
 51
90.0
  0
ARC
  5
71
100
AcDbEntity
  8
1
100
AcDbCircle
 10
-242.646758
 20
-131.697359
 30
0.0
 40
15.0
100
AcDbArc
 50
94.528063
 51
180.0
  0
ARC
  5
72
100
AcDbEntity
  8
1
100
AcDbCircle
 10
-307.646758
 20
-131.697359
 30
0.0
 40
15.0
100
AcDbArc
 50
0.0
 51
85.471937
  0
LINE
  5
73
100
AcDbEntity
  8
1
100
AcDbLine
 10
-285.93103
 20
-121.756662
 30
0.0
 11
-285.93103
 21
-136.454681
 31
0.0
  0
LINE
  5
74
100
AcDbEntity
  8
1
100
AcDbLine
 10
-264.362487
 20
-121.756662
 30
0.0
 11
-264.362487
 21
-136.454681
 31
0.0
  0
ARC
  5
75
100
AcDbEntity
  8
1
100
AcDbCircle
 10
-290.93103
 20
-121.756662
 30
0.0
 40
5.0
100
AcDbArc
 50
0.0
 51
90.0
  0
ARC
  5
76
100
AcDbEntity
  8
1
100
AcDbCircle
 10
-259.362487
 20
-121.756662
 30
0.0
 40
5.0
100
AcDbArc
 50
90.0
 51
180.0
  0
LINE
  5
77
100
AcDbEntity
  8
1
100
AcDbLine
 10
-262.138944
 20
-139.352458
 30
0.0
 11
-259.870301
 21
-139.960339
 31
0.0
  0
LINE
  5
78
100
AcDbEntity
  8
1
100
AcDbLine
 10
-288.154572
 20
-139.352458
 30
0.0
 11
-290.423215
 21
-139.960339
 31
0.0
  0
ARC
  5
79
100
AcDbEntity
  8
1
100
AcDbCircle
 10
-261.362487
 20
-136.454681
 30
0.0
 40
3.0
100
AcDbArc
 50
180.0
 51
255.0
  0
ARC
  5
7A
100
AcDbEntity
  8
1
100
AcDbCircle
 10
-288.93103
 20
-136.454681
 30
0.0
 40
3.0
100
AcDbArc
 50
285.0
 51
0.0
  0
ARC
  5
7B
100
AcDbEntity
  8
1
100
AcDbCircle
 10
-260.646758
 20
-142.858117
 30
0.0
 40
3.0
100
AcDbArc
 50
0.0
 51
75.0
  0
ARC
  5
7C
100
AcDbEntity
  8
1
100
AcDbCircle
 10
-289.646758
 20
-142.858117
 30
0.0
 40
3.0
100
AcDbArc
 50
105.0
 51
180.0
  0
ARC
  5
7D
100
AcDbEntity
  8
1
100
AcDbCircle
 10
-270.146758
 20
-118.756662
 30
0.0
 40
2.0
100
AcDbArc
 50
90.0
 51
180.0
  0
ARC
  5
7E
100
AcDbEntity
  8
1
100
AcDbCircle
 10
-280.146758
 20
-118.756662
 30
0.0
 40
2.0
100
AcDbArc
 50
360.0
 51
90.0
  0
ARC
  5
7F
100
AcDbEntity
  8
1
100
AcDbCircle
 10
-280.146758
 20
-129.697359
 30
0.0
 40
2.0
100
AcDbArc
 50
270.0
 51
360.0
  0
ARC
  5
80
100
AcDbEntity
  8
1
100
AcDbCircle
 10
-270.146758
 20
-129.697359
 30
0.0
 40
2.0
100
AcDbArc
 50
180.0
 51
270.0
  0
ARC
  5
81
100
AcDbEntity
  8
1
100
AcDbCircle
 10
-247.646758
 20
-193.444785
 30
0.0
 40
10.0
100
AcDbArc
 50
180.0
 51
250.650764
  0
ARC
  5
82
100
AcDbEntity
  8
1
100
AcDbCircle
 10
-302.646758
 20
-193.444785
 30
0.0
 40
10.0
100
AcDbArc
 50
289.349236
 51
360.0
  0
ARC
  5
83
100
AcDbEntity
  8
1
100
AcDbCircle
 10
-275.146758
 20
-241.756662
 30
0.0
 40
82.0
100
AcDbArc
 50
61.996654
 51
72.60767
  0
ARC
  5
84
100
AcDbEntity
  8
1
100
AcDbCircle
 10
-275.146758
 20
-241.756662
 30
0.0
 40
82.0
100
AcDbArc
 50
107.39233
 51
118.003346
  0
ARC
  5
85
100
AcDbEntity
  8
1
100
AcDbCircle
 10
-247.646758
 20
-153.962869
 30
0.0
 40
10.0
100
AcDbArc
 50
180.0
 51
252.60767
  0
ARC
  5
86
100
AcDbEntity
  8
1
100
AcDbCircle
 10
-302.646758
 20
-153.962869
 30
0.0
 40
10.0
100
AcDbArc
 50
287.39233
 51
360.0
  0
LINE
  5
87
100
AcDbEntity
  8
1
100
AcDbLine
 10
-314.3218
 20
-177.179745
 30
0.0
 11
-315.46508
 21
-174.419622
 31
0.0
  0
LINE
  5
88
100
AcDbEntity
  8
1
100
AcDbLine
 10
-235.971717
 20
-177.179745
 30
0.0
 11
-234.828436
 21
-174.419622
 31
0.0
  0
ARC
  5
89
100
AcDbEntity
  8
1
100
AcDbCircle
 10
-238.523954
 20
-172.888888
 30
0.0
 40
4.0
100
AcDbArc
 50
337.5
 51
61.996654
  0
ARC
  5
8A
100
AcDbEntity
  8
1
100
AcDbCircle
 10
-311.769562
 20
-172.888888
 30
0.0
 40
4.0
100
AcDbArc
 50
118.003346
 51
202.5
  0
LINE
  5
8B
100
AcDbEntity
  8
1
100
AcDbLine
 10
-248.772057
 20
-184.616687
 30
0.0
 11
-252.090339
 21
-191.324072
 31
0.0
  0
LINE
  5
8C
100
AcDbEntity
  8
1
100
AcDbLine
 10
-301.52146
 20
-184.616687
 30
0.0
 11
-298.203178
 21
-191.324072
 31
0.0
  0
ARC
  5
8D
100
AcDbEntity
  8
1
100
AcDbCircle
 10
-243.575375
 20
-195.5366
 30
0.0
 40
9.5
100
AcDbArc
 50
153.677446
 51
247.5
  0
ARC
  5
8E
100
AcDbEntity
  8
1
100
AcDbCircle
 10
-306.718141
 20
-195.5366
 30
0.0
 40
9.5
100
AcDbArc
 50
292.5
 51
26.322554
  0
ARC
  5
8F
100
AcDbEntity
  8
1
100
AcDbCircle
 10
-240.705249
 20
-188.607504
 30
0.0
 40
9.0
100
AcDbArc
 50
85.420213
 51
153.677446
  0
ARC
  5
90
100
AcDbEntity
  8
1
100
AcDbCircle
 10
-309.588267
 20
-188.607504
 30
0.0
 40
9.0
100
AcDbArc
 50
26.322554
 51
94.579787
  0
ARC
  5
91
100
AcDbEntity
  8
1
100
AcDbCircle
 10
-239.667235
 20
-175.649011
 30
0.0
 40
4.0
100
AcDbArc
 50
265.420213
 51
337.5
  0
ARC
  5
92
100
AcDbEntity
  8
1
100
AcDbCircle
 10
-310.626282
 20
-175.649011
 30
0.0
 40
4.0
100
AcDbArc
 50
202.5
 51
274.579787
  0
LINE
  5
93
100
AcDbEntity
  8
1
100
AcDbLine
 10
-252.352231
 20
-351.612216
 30
0.0
 11
-248.87512
 21
-360.006704
 31
0.0
  0
LINE
  5
94
100
AcDbEntity
  8
1
100
AcDbLine
 10
-297.941286
 20
-351.612216
 30
0.0
 11
-301.418397
 21
-360.006704
 31
0.0
  0
ARC
  5
95
100
AcDbEntity
  8
1
100
AcDbCircle
 10
-243.575375
 20
-347.976723
 30
0.0
 40
9.5
100
AcDbArc
 50
112.5
 51
202.5
  0
ARC
  5
96
100
AcDbEntity
  8
1
100
AcDbCircle
 10
-306.718141
 20
-347.976723
 30
0.0
 40
9.5
100
AcDbArc
 50
337.5
 51
67.5
  0
LINE
  5
97
100
AcDbEntity
  8
1
100
AcDbLine
 10
-291.146758
 20
-362.756662
 30
0.0
 11
-259.146758
 21
-362.756662
 31
0.0
  0
LINE
  5
98
100
AcDbEntity
  8
1
100
AcDbLine
 10
-253.251457
 20
-362.655556
 30
0.0
 11
-249.985943
 21
-362.541521
 31
0.0
  0
ARC
  5
99
100
AcDbEntity
  8
1
100
AcDbCircle
 10
-251.146758
 20
-345.972563
 30
0.0
 40
5.0
100
AcDbArc
 50
107.920213
 51
180.0
  0
ARC
  5
9A
100
AcDbEntity
  8
1
100
AcDbCircle
 10
-299.146758
 20
-345.972563
 30
0.0
 40
5.0
100
AcDbArc
 50
0.0
 51
72.079787
  0
ARC
  5
9B
100
AcDbEntity
  8
1
100
AcDbCircle
 10
-251.646758
 20
-361.154755
 30
0.0
 40
3.0
100
AcDbArc
 50
0.0
 51
22.5
  0
ARC
  5
9C
100
AcDbEntity
  8
1
100
AcDbCircle
 10
-250.03437
 20
-361.154755
 30
0.0
 40
1.387612
100
AcDbArc
 50
272.0
 51
360.0
  0
ARC
  5
9D
100
AcDbEntity
  8
1
100
AcDbCircle
 10
-298.646758
 20
-361.154755
 30
0.0
 40
3.0
100
AcDbArc
 50
157.5
 51
180.0
  0
ARC
  5
9E
100
AcDbEntity
  8
1
100
AcDbCircle
 10
-300.259146
 20
-361.154755
 30
0.0
 40
1.387612
100
AcDbArc
 50
180.0
 51
268.0
  0
LINE
  5
9F
100
AcDbEntity
  8
1
100
AcDbLine
 10
-297.04206
 20
-362.655556
 30
0.0
 11
-300.307573
 21
-362.541521
 31
0.0
  0
ARC
  5
A0
100
AcDbEntity
  8
1
100
AcDbCircle
 10
-259.146758
 20
-359.756662
 30
0.0
 40
3.0
100
AcDbArc
 50
270.0
 51
360.0
  0
ARC
  5
A1
100
AcDbEntity
  8
1
100
AcDbCircle
 10
-291.146758
 20
-359.756662
 30
0.0
 40
3.0
100
AcDbArc
 50
180.0
 51
270.0
  0
ARC
  5
A2
100
AcDbEntity
  8
1
100
AcDbCircle
 10
-253.146758
 20
-365.653728
 30
0.0
 40
3.0
100
AcDbArc
 50
92.0
 51
180.0
  0
ARC
  5
A3
100
AcDbEntity
  8
1
100
AcDbCircle
 10
-297.146758
 20
-365.653728
 30
0.0
 40
3.0
100
AcDbArc
 50
360.0
 51
88.0
  0
LINE
  5
A4
100
AcDbEntity
  8
1
100
AcDbLine
 10
-294.146758
 20
-366.556662
 30
0.0
 11
-256.146758
 21
-366.556662
 31
0.0
  0
LINE
  5
A5
100
AcDbEntity
  8
1
100
AcDbLine
 10
-294.246758
 20
-368.156662
 30
0.0
 11
-256.046758
 21
-368.156662
 31
0.0
  0
LINE
  5
A6
100
AcDbEntity
  8
1
100
AcDbLine
 10
-268.246758
 20
-369.656662
 30
0.0
 11
-256.046758
 21
-369.656662
 31
0.0
  0
LINE
  5
A7
100
AcDbEntity
  8
1
100
AcDbLine
 10
-256.396758
 20
-369.656662
 30
0.0
 11
-256.396758
 21
-373.165914
 31
0.0
  0
LINE
  5
A8
100
AcDbEntity
  8
1
100
AcDbLine
 10
-256.396758
 20
-373.165914
 30
0.0
 11
-257.246758
 21
-373.656662
 31
0.0
  0
LINE
  5
A9
100
AcDbEntity
  8
1
100
AcDbLine
 10
-259.271758
 20
-369.656662
 30
0.0
 11
-259.271758
 21
-373.165914
 31
0.0
  0
ARC
  5
AA
100
AcDbEntity
  8
1
100
AcDbCircle
 10
-257.834258
 20
-371.317959
 30
0.0
 40
2.341227
100
AcDbArc
 50
232.121121
 51
307.878879
  0
ARC
  5
AB
100
AcDbEntity
  8
1
100
AcDbCircle
 10
-262.146758
 20
-365.034186
 30
0.0
 40
8.625
100
AcDbArc
 50
250.528777
 51
289.471219
  0
LINE
  5
AC
100
AcDbEntity
  8
1
100
AcDbLine
 10
-267.896758
 20
-369.656662
 30
0.0
 11
-267.896758
 21
-373.165914
 31
0.0
  0
LINE
  5
AD
100
AcDbEntity
  8
1
100
AcDbLine
 10
-267.896758
 20
-373.165914
 30
0.0
 11
-267.046758
 21
-373.656662
 31
0.0
  0
LINE
  5
AE
100
AcDbEntity
  8
1
100
AcDbLine
 10
-267.046758
 20
-373.656662
 30
0.0
 11
-257.246758
 21
-373.656662
 31
0.0
  0
LINE
  5
AF
100
AcDbEntity
  8
1
100
AcDbLine
 10
-265.021758
 20
-369.656662
 30
0.0
 11
-265.021758
 21
-373.165914
 31
0.0
  0
ARC
  5
B0
100
AcDbEntity
  8
1
100
AcDbCircle
 10
-266.459258
 20
-371.317959
 30
0.0
 40
2.341227
100
AcDbArc
 50
232.121121
 51
307.878879
  0
LINE
  5
B1
100
AcDbEntity
  8
1
100
AcDbLine
 10
-256.046758
 20
-368.156662
 30
0.0
 11
-256.046758
 21
-369.656662
 31
0.0
  0
LINE
  5
B2
100
AcDbEntity
  8
1
100
AcDbLine
 10
-268.246758
 20
-369.656662
 30
0.0
 11
-268.246758
 21
-368.156662
 31
0.0
  0
LINE
  5
B3
100
AcDbEntity
  8
1
100
AcDbLine
 10
-262.146758
 20
-369.656662
 30
0.0
 11
-262.646758
 21
-368.156662
 31
0.0
  0
LINE
  5
B4
100
AcDbEntity
  8
1
100
AcDbLine
 10
-262.146758
 20
-368.156662
 30
0.0
 11
-261.646758
 21
-369.656662
 31
0.0
  0
LINE
  5
B5
100
AcDbEntity
  8
1
100
AcDbLine
 10
-294.246758
 20
-369.656662
 30
0.0
 11
-282.046758
 21
-369.656662
 31
0.0
  0
LINE
  5
B6
100
AcDbEntity
  8
1
100
AcDbLine
 10
-282.396758
 20
-369.656662
 30
0.0
 11
-282.396758
 21
-373.165914
 31
0.0
  0
LINE
  5
B7
100
AcDbEntity
  8
1
100
AcDbLine
 10
-282.396758
 20
-373.165914
 30
0.0
 11
-283.246758
 21
-373.656662
 31
0.0
  0
LINE
  5
B8
100
AcDbEntity
  8
1
100
AcDbLine
 10
-285.271758
 20
-369.656662
 30
0.0
 11
-285.271758
 21
-373.165914
 31
0.0
  0
ARC
  5
B9
100
AcDbEntity
  8
1
100
AcDbCircle
 10
-283.834258
 20
-371.317959
 30
0.0
 40
2.341227
100
AcDbArc
 50
232.121121
 51
307.878879
  0
ARC
  5
BA
100
AcDbEntity
  8
1
100
AcDbCircle
 10
-288.146758
 20
-365.034186
 30
0.0
 40
8.625
100
AcDbArc
 50
250.528777
 51
289.471219
  0
LINE
  5
BB
100
AcDbEntity
  8
1
100
AcDbLine
 10
-293.896758
 20
-369.656662
 30
0.0
 11
-293.896758
 21
-373.165914
 31
0.0
  0
LINE
  5
BC
100
AcDbEntity
  8
1
100
AcDbLine
 10
-293.896758
 20
-373.165914
 30
0.0
 11
-293.046758
 21
-373.656662
 31
0.0
  0
LINE
  5
BD
100
AcDbEntity
  8
1
100
AcDbLine
 10
-293.046758
 20
-373.656662
 30
0.0
 11
-283.246758
 21
-373.656662
 31
0.0
  0
LINE
  5
BE
100
AcDbEntity
  8
1
100
AcDbLine
 10
-291.021758
 20
-369.656662
 30
0.0
 11
-291.021758
 21
-373.165914
 31
0.0
  0
ARC
  5
BF
100
AcDbEntity
  8
1
100
AcDbCircle
 10
-292.459258
 20
-371.317959
 30
0.0
 40
2.341227
100
AcDbArc
 50
232.121121
 51
307.878879
  0
LINE
  5
C0
100
AcDbEntity
  8
1
100
AcDbLine
 10
-282.046758
 20
-368.156662
 30
0.0
 11
-282.046758
 21
-369.656662
 31
0.0
  0
LINE
  5
C1
100
AcDbEntity
  8
1
100
AcDbLine
 10
-294.246758
 20
-369.656662
 30
0.0
 11
-294.246758
 21
-368.156662
 31
0.0
  0
LINE
  5
C2
100
AcDbEntity
  8
1
100
AcDbLine
 10
-288.146758
 20
-369.656662
 30
0.0
 11
-288.646758
 21
-368.156662
 31
0.0
  0
LINE
  5
C3
100
AcDbEntity
  8
1
100
AcDbLine
 10
-288.146758
 20
-368.156662
 30
0.0
 11
-287.646758
 21
-369.656662
 31
0.0
  0
ARC
  5
C4
100
AcDbEntity
  8
1
100
AcDbCircle
 10
80.503242
 20
-112.756662
 30
0.0
 40
4.0
100
AcDbArc
 50
180.0
 51
270.0
  0
ARC
  5
C5
100
AcDbEntity
  8
1
100
AcDbCircle
 10
142.503242
 20
-112.756662
 30
0.0
 40
4.0
100
AcDbArc
 50
270.0
 51
360.0
  0
ARC
  5
C6
100
AcDbEntity
  8
1
100
AcDbCircle
 10
134.003242
 20
-121.756662
 30
0.0
 40
5.0
100
AcDbArc
 50
90.0
 51
180.0
  0
ARC
  5
C7
100
AcDbEntity
  8
1
100
AcDbCircle
 10
89.003242
 20
-121.756662
 30
0.0
 40
5.0
100
AcDbArc
 50
0.0
 51
90.0
  0
ARC
  5
C8
100
AcDbEntity
  8
1
100
AcDbCircle
 10
144.003242
 20
-131.697359
 30
0.0
 40
15.0
100
AcDbArc
 50
94.528063
 51
180.0
  0
ARC
  5
C9
100
AcDbEntity
  8
1
100
AcDbCircle
 10
79.003242
 20
-131.697359
 30
0.0
 40
15.0
100
AcDbArc
 50
0.0
 51
85.471937
  0
LINE
  5
CA
100
AcDbEntity
  8
1
100
AcDbLine
 10
100.71897
 20
-121.756662
 30
0.0
 11
100.71897
 21
-136.454681
 31
0.0
  0
LINE
  5
CB
100
AcDbEntity
  8
1
100
AcDbLine
 10
122.287513
 20
-121.756662
 30
0.0
 11
122.287513
 21
-136.454681
 31
0.0
  0
ARC
  5
CC
100
AcDbEntity
  8
1
100
AcDbCircle
 10
95.71897
 20
-121.756662
 30
0.0
 40
5.0
100
AcDbArc
 50
0.0
 51
90.0
  0
ARC
  5
CD
100
AcDbEntity
  8
1
100
AcDbCircle
 10
127.287513
 20
-121.756662
 30
0.0
 40
5.0
100
AcDbArc
 50
90.0
 51
180.0
  0
LINE
  5
CE
100
AcDbEntity
  8
1
100
AcDbLine
 10
124.511056
 20
-139.352458
 30
0.0
 11
126.779699
 21
-139.960339
 31
0.0
  0
LINE
  5
CF
100
AcDbEntity
  8
1
100
AcDbLine
 10
98.495428
 20
-139.352458
 30
0.0
 11
96.226785
 21
-139.960339
 31
0.0
  0
ARC
  5
D0
100
AcDbEntity
  8
1
100
AcDbCircle
 10
125.287513
 20
-136.454681
 30
0.0
 40
3.0
100
AcDbArc
 50
180.0
 51
255.0
  0
ARC
  5
D1
100
AcDbEntity
  8
1
100
AcDbCircle
 10
97.71897
 20
-136.454681
 30
0.0
 40
3.0
100
AcDbArc
 50
285.0
 51
0.0
  0
ARC
  5
D2
100
AcDbEntity
  8
1
100
AcDbCircle
 10
126.003242
 20
-142.858117
 30
0.0
 40
3.0
100
AcDbArc
 50
0.0
 51
75.0
  0
ARC
  5
D3
100
AcDbEntity
  8
1
100
AcDbCircle
 10
97.003242
 20
-142.858117
 30
0.0
 40
3.0
100
AcDbArc
 50
105.0
 51
180.0
  0
ARC
  5
D4
100
AcDbEntity
  8
1
100
AcDbCircle
 10
116.503242
 20
-118.756662
 30
0.0
 40
2.0
100
AcDbArc
 50
90.0
 51
180.0
  0
ARC
  5
D5
100
AcDbEntity
  8
1
100
AcDbCircle
 10
106.503242
 20
-118.756662
 30
0.0
 40
2.0
100
AcDbArc
 50
360.0
 51
90.0
  0
ARC
  5
D6
100
AcDbEntity
  8
1
100
AcDbCircle
 10
106.503242
 20
-129.697359
 30
0.0
 40
2.0
100
AcDbArc
 50
270.0
 51
360.0
  0
ARC
  5
D7
100
AcDbEntity
  8
1
100
AcDbCircle
 10
116.503242
 20
-129.697359
 30
0.0
 40
2.0
100
AcDbArc
 50
180.0
 51
270.0
  0
LINE
  5
D8
100
AcDbEntity
  8
1
100
AcDbLine
 10
86.503242
 20
-198.756662
 30
0.0
 11
89.003242
 21
-198.756662
 31
0.0
  0
LINE
  5
D9
100
AcDbEntity
  8
1
100
AcDbLine
 10
134.003242
 20
-198.756662
 30
0.0
 11
136.503242
 21
-198.756662
 31
0.0
  0
ARC
  5
DA
100
AcDbEntity
  8
1
100
AcDbCircle
 10
134.003242
 20
-193.756662
 30
0.0
 40
5.0
100
AcDbArc
 50
180.0
 51
270.0
  0
ARC
  5
DB
100
AcDbEntity
  8
1
100
AcDbCircle
 10
89.003242
 20
-193.756662
 30
0.0
 40
5.0
100
AcDbArc
 50
270.0
 51
360.0
  0
ARC
  5
DC
100
AcDbEntity
  8
1
100
AcDbCircle
 10
134.003242
 20
-197.879951
 30
0.0
 40
5.0
100
AcDbArc
 50
180.0
 51
270.0
  0
ARC
  5
DD
100
AcDbEntity
  8
1
100
AcDbCircle
 10
89.003242
 20
-197.879951
 30
0.0
 40
5.0
100
AcDbArc
 50
270.0
 51
360.0
  0
LINE
  5
DE
100
AcDbEntity
  8
1
100
AcDbLine
 10
108.003242
 20
-156.962869
 30
0.0
 11
108.003242
 21
-201.313456
 31
0.0
  0
LINE
  5
DF
100
AcDbEntity
  8
1
100
AcDbLine
 10
115.003242
 20
-156.962869
 30
0.0
 11
115.003242
 21
-201.313456
 31
0.0
  0
ARC
  5
E0
100
AcDbEntity
  8
1
100
AcDbCircle
 10
118.003242
 20
-156.962869
 30
0.0
 40
3.0
100
AcDbArc
 50
90.0
 51
180.0
  0
ARC
  5
E1
100
AcDbEntity
  8
1
100
AcDbCircle
 10
105.003242
 20
-156.962869
 30
0.0
 40
3.0
100
AcDbArc
 50
0.0
 51
90.0
  0
ARC
  5
E2
100
AcDbEntity
  8
1
100
AcDbCircle
 10
105.003242
 20
-201.313456
 30
0.0
 40
3.0
100
AcDbArc
 50
270.0
 51
360.0
  0
ARC
  5
E3
100
AcDbEntity
  8
1
100
AcDbCircle
 10
118.003242
 20
-201.313456
 30
0.0
 40
3.0
100
AcDbArc
 50
180.0
 51
270.0
  0
LINE
  5
E4
100
AcDbEntity
  8
1
100
AcDbLine
 10
86.503242
 20
-344.756662
 30
0.0
 11
94.503242
 21
-344.756662
 31
0.0
  0
LINE
  5
E5
100
AcDbEntity
  8
1
100
AcDbLine
 10
128.503242
 20
-344.756662
 30
0.0
 11
136.503242
 21
-344.756662
 31
0.0
  0
ARC
  5
E6
100
AcDbEntity
  8
1
100
AcDbCircle
 10
128.503242
 20
-348.756662
 30
0.0
 40
4.0
100
AcDbArc
 50
90.0
 51
180.0
  0
ARC
  5
E7
100
AcDbEntity
  8
1
100
AcDbCircle
 10
94.503242
 20
-348.756662
 30
0.0
 40
4.0
100
AcDbArc
 50
0.0
 51
90.0
  0
ARC
  5
E8
100
AcDbEntity
  8
1
100
AcDbCircle
 10
128.503242
 20
-345.215133
 30
0.0
 40
4.0
100
AcDbArc
 50
90.0
 51
180.0
  0
ARC
  5
E9
100
AcDbEntity
  8
1
100
AcDbCircle
 10
94.503242
 20
-345.215133
 30
0.0
 40
4.0
100
AcDbArc
 50
0.0
 51
90.0
  0
LINE
  5
EA
100
AcDbEntity
  8
1
100
AcDbLine
 10
108.003242
 20
-342.199868
 30
0.0
 11
108.003242
 21
-362.756662
 31
0.0
  0
LINE
  5
EB
100
AcDbEntity
  8
1
100
AcDbLine
 10
115.003242
 20
-342.199868
 30
0.0
 11
115.003242
 21
-362.756662
 31
0.0
  0
ARC
  5
EC
100
AcDbEntity
  8
1
100
AcDbCircle
 10
118.003242
 20
-342.199868
 30
0.0
 40
3.0
100
AcDbArc
 50
90.0
 51
180.0
  0
ARC
  5
ED
100
AcDbEntity
  8
1
100
AcDbCircle
 10
105.003242
 20
-342.199868
 30
0.0
 40
3.0
100
AcDbArc
 50
0.0
 51
90.0
  0
ARC
  5
EE
100
AcDbEntity
  8
1
100
AcDbCircle
 10
118.003242
 20
-362.756662
 30
0.0
 40
3.0
100
AcDbArc
 50
180.0
 51
270.0
  0
ARC
  5
EF
100
AcDbEntity
  8
1
100
AcDbCircle
 10
105.003242
 20
-362.756662
 30
0.0
 40
3.0
100
AcDbArc
 50
270.0
 51
360.0
  0
LINE
  5
F0
100
AcDbEntity
  8
1
100
AcDbLine
 10
101.503242
 20
-362.756662
 30
0.0
 11
105.003242
 21
-362.756662
 31
0.0
  0
LINE
  5
F1
100
AcDbEntity
  8
1
100
AcDbLine
 10
118.003242
 20
-362.756662
 30
0.0
 11
121.503242
 21
-362.756662
 31
0.0
  0
ARC
  5
F2
100
AcDbEntity
  8
1
100
AcDbCircle
 10
121.503242
 20
-359.756662
 30
0.0
 40
3.0
100
AcDbArc
 50
270.0
 51
360.0
  0
ARC
  5
F3
100
AcDbEntity
  8
1
100
AcDbCircle
 10
101.503242
 20
-359.756662
 30
0.0
 40
3.0
100
AcDbArc
 50
180.0
 51
270.0
  0
LINE
  5
F4
100
AcDbEntity
  8
1
100
AcDbLine
 10
98.503242
 20
-366.556662
 30
0.0
 11
124.503242
 21
-366.556662
 31
0.0
  0
LINE
  5
F5
100
AcDbEntity
  8
1
100
AcDbLine
 10
98.503242
 20
-368.156662
 30
0.0
 11
124.503242
 21
-368.156662
 31
0.0
  0
LINE
  5
F6
100
AcDbEntity
  8
1
100
AcDbLine
 10
105.403242
 20
-369.656662
 30
0.0
 11
117.603242
 21
-369.656662
 31
0.0
  0
LINE
  5
F7
100
AcDbEntity
  8
1
100
AcDbLine
 10
116.503242
 20
-369.656662
 30
0.0
 11
116.503242
 21
-373.656662
 31
0.0
  0
LINE
  5
F8
100
AcDbEntity
  8
1
100
AcDbLine
 10
111.503242
 20
-369.656662
 30
0.0
 11
111.503242
 21
-373.165914
 31
0.0
  0
ARC
  5
F9
100
AcDbEntity
  8
1
100
AcDbCircle
 10
114.003242
 20
-367.043454
 30
0.0
 40
6.613208
100
AcDbArc
 50
247.788205
 51
292.211795
  0
LINE
  5
FA
100
AcDbEntity
  8
1
100
AcDbLine
 10
106.503242
 20
-369.656662
 30
0.0
 11
106.503242
 21
-373.656662
 31
0.0
  0
LINE
  5
FB
100
AcDbEntity
  8
1
100
AcDbLine
 10
106.503242
 20
-373.656662
 30
0.0
 11
116.503242
 21
-373.656662
 31
0.0
  0
ARC
  5
FC
100
AcDbEntity
  8
1
100
AcDbCircle
 10
109.003242
 20
-367.043454
 30
0.0
 40
6.613208
100
AcDbArc
 50
247.788205
 51
292.211795
  0
LINE
  5
FD
100
AcDbEntity
  8
1
100
AcDbLine
 10
117.603242
 20
-368.156662
 30
0.0
 11
117.603242
 21
-369.656662
 31
0.0
  0
LINE
  5
FE
100
AcDbEntity
  8
1
100
AcDbLine
 10
105.403242
 20
-369.656662
 30
0.0
 11
105.403242
 21
-368.156662
 31
0.0
  0
LINE
  5
FF
100
AcDbEntity
  8
1
  6
DASHED
100
AcDbLine
 10
-300.146758
 20
318.743338
 30
0.0
 11
-250.146758
 21
318.743338
 31
0.0
  0
LINE
  5
100
100
AcDbEntity
  8
1
  6
DASHED
100
AcDbLine
 10
-300.146758
 20
248.743338
 30
0.0
 11
-250.146758
 21
248.743338
 31
0.0
  0
LINE
  5
101
100
AcDbEntity
  8
1
  6
DASHED
100
AcDbLine
 10
-310.146758
 20
308.743338
 30
0.0
 11
-310.146758
 21
258.743338
 31
0.0
  0
LINE
  5
102
100
AcDbEntity
  8
1
  6
DASHED
100
AcDbLine
 10
-240.146758
 20
308.743338
 30
0.0
 11
-240.146758
 21
258.743338
 31
0.0
  0
ARC
  5
103
100
AcDbEntity
  8
1
  6
DASHED
100
AcDbCircle
 10
-250.146758
 20
308.743338
 30
0.0
 40
10.0
100
AcDbArc
 50
0.0
 51
90.0
  0
ARC
  5
104
100
AcDbEntity
  8
1
  6
DASHED
100
AcDbCircle
 10
-300.146758
 20
308.743338
 30
0.0
 40
10.0
100
AcDbArc
 50
90.0
 51
180.0
  0
ARC
  5
105
100
AcDbEntity
  8
1
  6
DASHED
100
AcDbCircle
 10
-300.146758
 20
258.743338
 30
0.0
 40
10.0
100
AcDbArc
 50
180.0
 51
270.0
  0
ARC
  5
106
100
AcDbEntity
  8
1
  6
DASHED
100
AcDbCircle
 10
-250.146758
 20
258.743338
 30
0.0
 40
10.0
100
AcDbArc
 50
270.0
 51
360.0
  0
LINE
  5
107
100
AcDbEntity
  8
1
  6
DASHED
100
AcDbLine
 10
-203.146758
 20
257.743338
 30
0.0
 11
-202.146758
 21
258.743338
 31
0.0
  0
LINE
  5
108
100
AcDbEntity
  8
1
  6
DASHED
100
AcDbLine
 10
-203.146758
 20
309.743338
 30
0.0
 11
-202.146758
 21
308.743338
 31
0.0
  0
LINE
  5
109
100
AcDbEntity
  8
1
  6
DASHED
100
AcDbLine
 10
-240.146758
 20
308.743338
 30
0.0
 11
-202.146758
 21
308.743338
 31
0.0
  0
LINE
  5
10A
100
AcDbEntity
  8
1
  6
DASHED
100
AcDbLine
 10
-240.196884
 20
309.743338
 30
0.0
 11
-203.146758
 21
309.743338
 31
0.0
  0
LINE
  5
10B
100
AcDbEntity
  8
1
  6
DASHED
100
AcDbLine
 10
-240.196884
 20
257.743338
 30
0.0
 11
-203.146758
 21
257.743338
 31
0.0
  0
LINE
  5
10C
100
AcDbEntity
  8
1
  6
DASHED
100
AcDbLine
 10
-240.146758
 20
258.743338
 30
0.0
 11
-202.146758
 21
258.743338
 31
0.0
  0
LINE
  5
10D
100
AcDbEntity
  8
1
100
AcDbLine
 10
103.503242
 20
-204.340047
 30
0.0
 11
119.503242
 21
-204.340047
 31
0.0
  0
LINE
  5
10E
100
AcDbEntity
  8
1
100
AcDbLine
 10
103.503242
 20
-339.173277
 30
0.0
 11
119.503242
 21
-339.173277
 31
0.0
  0
ARC
  5
10F
100
AcDbEntity
  8
1
100
AcDbCircle
 10
119.503242
 20
-210.340047
 30
0.0
 40
6.0
100
AcDbArc
 50
0.0
 51
90.0
  0
ARC
  5
110
100
AcDbEntity
  8
1
100
AcDbCircle
 10
103.503242
 20
-210.340047
 30
0.0
 40
6.0
100
AcDbArc
 50
90.0
 51
180.0
  0
ARC
  5
111
100
AcDbEntity
  8
1
100
AcDbCircle
 10
103.503242
 20
-236.756662
 30
0.0
 40
6.0
100
AcDbArc
 50
180.0
 51
270.0
  0
ARC
  5
112
100
AcDbEntity
  8
1
100
AcDbCircle
 10
119.503242
 20
-236.756662
 30
0.0
 40
6.0
100
AcDbArc
 50
270.0
 51
360.0
  0
ARC
  5
113
100
AcDbEntity
  8
1
100
AcDbCircle
 10
119.503242
 20
-306.756662
 30
0.0
 40
6.0
100
AcDbArc
 50
0.0
 51
90.0
  0
ARC
  5
114
100
AcDbEntity
  8
1
100
AcDbCircle
 10
103.503242
 20
-306.756662
 30
0.0
 40
6.0
100
AcDbArc
 50
90.0
 51
180.0
  0
ARC
  5
115
100
AcDbEntity
  8
1
100
AcDbCircle
 10
103.503242
 20
-333.173277
 30
0.0
 40
6.0
100
AcDbArc
 50
180.0
 51
270.0
  0
ARC
  5
116
100
AcDbEntity
  8
1
100
AcDbCircle
 10
119.503242
 20
-333.173277
 30
0.0
 40
6.0
100
AcDbArc
 50
270.0
 51
360.0
  0
ARC
  5
117
100
AcDbEntity
  8
1
100
AcDbCircle
 10
119.503242
 20
-252.756662
 30
0.0
 40
6.0
100
AcDbArc
 50
0.0
 51
90.0
  0
ARC
  5
118
100
AcDbEntity
  8
1
100
AcDbCircle
 10
103.503242
 20
-252.756662
 30
0.0
 40
6.0
100
AcDbArc
 50
90.0
 51
180.0
  0
ARC
  5
119
100
AcDbEntity
  8
1
100
AcDbCircle
 10
103.503242
 20
-290.756662
 30
0.0
 40
6.0
100
AcDbArc
 50
180.0
 51
270.0
  0
ARC
  5
11A
100
AcDbEntity
  8
1
100
AcDbCircle
 10
119.503242
 20
-290.756662
 30
0.0
 40
6.0
100
AcDbArc
 50
270.0
 51
360.0
  0
LINE
  5
11B
100
AcDbEntity
  8
1
  6
DASHED
100
AcDbLine
 10
-206.561045
 20
274.717401
 30
0.0
 11
-206.561045
 21
292.769276
 31
0.0
  0
LINE
  5
11C
100
AcDbEntity
  8
1
  6
DASHED
100
AcDbLine
 10
-208.154221
 20
275.743338
 30
0.0
 11
-208.154221
 21
291.743338
 31
0.0
  0
ARC
  5
11D
100
AcDbEntity
  8
1
  6
DASHED
100
AcDbCircle
 10
-214.154221
 20
291.743338
 30
0.0
 40
6.0
100
AcDbArc
 50
0.0
 51
90.0
  0
ARC
  5
11E
100
AcDbEntity
  8
1
  6
DASHED
100
AcDbCircle
 10
-214.154221
 20
275.743338
 30
0.0
 40
6.0
100
AcDbArc
 50
270.0
 51
360.0
  0
LINE
  5
11F
100
AcDbEntity
  8
1
  6
DASHED
100
AcDbLine
 10
-234.523954
 20
282.243338
 30
0.0
 11
-234.523954
 21
285.243338
 31
0.0
  0
LINE
  5
120
100
AcDbEntity
  8
1
  6
DASHED
100
AcDbLine
 10
-240.146758
 20
287.243338
 30
0.0
 11
-236.523954
 21
287.243338
 31
0.0
  0
LINE
  5
121
100
AcDbEntity
  8
1
  6
DASHED
100
AcDbLine
 10
-240.146758
 20
280.243338
 30
0.0
 11
-236.523954
 21
280.243338
 31
0.0
  0
LINE
  5
122
100
AcDbEntity
  8
1
  6
DASHED
100
AcDbLine
 10
-202.146758
 20
258.743338
 30
0.0
 11
-202.146758
 21
265.906703
 31
0.0
  0
LINE
  5
123
100
AcDbEntity
  8
1
  6
DASHED
100
AcDbLine
 10
-202.146758
 20
301.579973
 30
0.0
 11
-202.146758
 21
308.743338
 31
0.0
  0
LINE
  5
124
100
AcDbEntity
  8
1
  6
DASHED
100
AcDbLine
 10
-222.538741
 20
295.063846
 30
0.0
 11
-240.146758
 21
295.063846
 31
0.0
  0
LINE
  5
125
100
AcDbEntity
  8
1
  6
DASHED
100
AcDbLine
 10
-222.538741
 20
272.42283
 30
0.0
 11
-240.146758
 21
272.42283
 31
0.0
  0
ARC
  5
126
100
AcDbEntity
  8
1
  6
DASHED
100
AcDbCircle
 10
-207.146758
 20
301.579973
 30
0.0
 40
5.0
100
AcDbArc
 50
306.776932
 51
360.0
  0
ARC
  5
127
100
AcDbEntity
  8
1
  6
DASHED
100
AcDbCircle
 10
-207.146758
 20
265.906703
 30
0.0
 40
5.0
100
AcDbArc
 50
0.0
 51
53.223068
  0
ARC
  5
128
100
AcDbEntity
  8
1
  6
DASHED
100
AcDbCircle
 10
-200.561045
 20
292.769276
 30
0.0
 40
6.0
100
AcDbArc
 50
126.776932
 51
180.0
  0
ARC
  5
129
100
AcDbEntity
  8
1
  6
DASHED
100
AcDbCircle
 10
-200.561045
 20
274.717401
 30
0.0
 40
6.0
100
AcDbArc
 50
180.0
 51
233.223068
  0
LINE
  5
12A
100
AcDbEntity
  8
1
100
AcDbLine
 10
122.823742
 20
-234.778628
 30
0.0
 11
122.823742
 21
-221.285718
 31
0.0
  0
LINE
  5
12B
100
AcDbEntity
  8
1
100
AcDbLine
 10
100.182742
 20
-234.778628
 30
0.0
 11
100.182742
 21
-221.285718
 31
0.0
  0
ARC
  5
12C
100
AcDbEntity
  8
1
100
AcDbCircle
 10
119.503242
 20
-234.778628
 30
0.0
 40
3.3205
100
AcDbArc
 50
270.0
 51
360.0
  0
ARC
  5
12D
100
AcDbEntity
  8
1
100
AcDbCircle
 10
103.503242
 20
-234.778628
 30
0.0
 40
3.3205
100
AcDbArc
 50
180.0
 51
270.0
  0
ARC
  5
12E
100
AcDbEntity
  8
1
100
AcDbCircle
 10
103.503242
 20
-256.54775
 30
0.0
 40
3.3205
100
AcDbArc
 50
90.0
 51
180.0
  0
ARC
  5
12F
100
AcDbEntity
  8
1
100
AcDbCircle
 10
119.503242
 20
-256.54775
 30
0.0
 40
3.3205
100
AcDbArc
 50
0.0
 51
90.0
  0
LINE
  5
130
100
AcDbEntity
  8
1
100
AcDbLine
 10
103.503242
 20
-217.965218
 30
0.0
 11
119.503242
 21
-217.965218
 31
0.0
  0
ARC
  5
131
100
AcDbEntity
  8
1
100
AcDbCircle
 10
103.503242
 20
-221.285718
 30
0.0
 40
3.3205
100
AcDbArc
 50
90.0
 51
180.0
  0
ARC
  5
132
100
AcDbEntity
  8
1
100
AcDbCircle
 10
119.503242
 20
-221.285718
 30
0.0
 40
3.3205
100
AcDbArc
 50
0.0
 51
90.0
  0
LINE
  5
133
100
AcDbEntity
  8
1
100
AcDbLine
 10
122.823742
 20
-322.227606
 30
0.0
 11
122.823742
 21
-308.734696
 31
0.0
  0
LINE
  5
134
100
AcDbEntity
  8
1
100
AcDbLine
 10
122.823742
 20
-286.965574
 30
0.0
 11
122.823742
 21
-256.54775
 31
0.0
  0
LINE
  5
135
100
AcDbEntity
  8
1
100
AcDbLine
 10
100.182742
 20
-322.227606
 30
0.0
 11
100.182742
 21
-308.734696
 31
0.0
  0
LINE
  5
136
100
AcDbEntity
  8
1
100
AcDbLine
 10
100.182742
 20
-286.965574
 30
0.0
 11
100.182742
 21
-256.54775
 31
0.0
  0
LINE
  5
137
100
AcDbEntity
  8
1
100
AcDbLine
 10
103.503242
 20
-325.548106
 30
0.0
 11
119.503242
 21
-325.548106
 31
0.0
  0
ARC
  5
138
100
AcDbEntity
  8
1
100
AcDbCircle
 10
119.503242
 20
-322.227606
 30
0.0
 40
3.3205
100
AcDbArc
 50
270.0
 51
360.0
  0
ARC
  5
139
100
AcDbEntity
  8
1
100
AcDbCircle
 10
103.503242
 20
-322.227606
 30
0.0
 40
3.3205
100
AcDbArc
 50
180.0
 51
270.0
  0
ARC
  5
13A
100
AcDbEntity
  8
1
100
AcDbCircle
 10
103.503242
 20
-308.734696
 30
0.0
 40
3.3205
100
AcDbArc
 50
90.0
 51
180.0
  0
ARC
  5
13B
100
AcDbEntity
  8
1
100
AcDbCircle
 10
119.503242
 20
-308.734696
 30
0.0
 40
3.3205
100
AcDbArc
 50
0.0
 51
90.0
  0
ARC
  5
13C
100
AcDbEntity
  8
1
100
AcDbCircle
 10
119.503242
 20
-286.965574
 30
0.0
 40
3.3205
100
AcDbArc
 50
270.0
 51
360.0
  0
ARC
  5
13D
100
AcDbEntity
  8
1
100
AcDbCircle
 10
103.503242
 20
-286.965574
 30
0.0
 40
3.3205
100
AcDbArc
 50
180.0
 51
270.0
  0
LINE
  5
13E
100
AcDbEntity
  8
1
  6
DASHED
100
AcDbLine
 10
-219.218232
 20
275.743338
 30
0.0
 11
-219.218232
 21
291.743338
 31
0.0
  0
ARC
  5
13F
100
AcDbEntity
  8
1
  6
DASHED
100
AcDbCircle
 10
-222.538741
 20
291.743338
 30
0.0
 40
3.320508
100
AcDbArc
 50
0.0
 51
90.0
  0
ARC
  5
140
100
AcDbEntity
  8
1
  6
DASHED
100
AcDbCircle
 10
-222.538741
 20
275.743338
 30
0.0
 40
3.320508
100
AcDbArc
 50
270.0
 51
0.0
  0
ARC
  5
141
100
AcDbEntity
  8
1
  6
DASHED
100
AcDbCircle
 10
-236.523954
 20
285.243338
 30
0.0
 40
2.0
100
AcDbArc
 50
0.0
 51
90.0
  0
ARC
  5
142
100
AcDbEntity
  8
1
  6
DASHED
100
AcDbCircle
 10
-236.523954
 20
282.243338
 30
0.0
 40
2.0
100
AcDbArc
 50
270.0
 51
360.0
  0
LINE
  5
143
100
AcDbEntity
  8
1
  6
DASHED
100
AcDbLine
 10
-211.24997
 20
296.993607
 30
0.0
 11
-219.218232
 21
295.063846
 31
0.0
  0
LINE
  5
144
100
AcDbEntity
  8
1
  6
DASHED
100
AcDbLine
 10
-211.24997
 20
270.493069
 30
0.0
 11
-219.218232
 21
272.42283
 31
0.0
  0
LINE
  5
145
100
AcDbEntity
  8
1
  6
DASHED
100
AcDbLine
 10
-347.146758
 20
257.743338
 30
0.0
 11
-348.146758
 21
258.743338
 31
0.0
  0
LINE
  5
146
100
AcDbEntity
  8
1
  6
DASHED
100
AcDbLine
 10
-347.146758
 20
309.743338
 30
0.0
 11
-348.146758
 21
308.743338
 31
0.0
  0
LINE
  5
147
100
AcDbEntity
  8
1
  6
DASHED
100
AcDbLine
 10
-310.146758
 20
308.743338
 30
0.0
 11
-348.146758
 21
308.743338
 31
0.0
  0
LINE
  5
148
100
AcDbEntity
  8
1
  6
DASHED
100
AcDbLine
 10
-310.096633
 20
309.743338
 30
0.0
 11
-347.146758
 21
309.743338
 31
0.0
  0
LINE
  5
149
100
AcDbEntity
  8
1
  6
DASHED
100
AcDbLine
 10
-310.096633
 20
257.743338
 30
0.0
 11
-347.146758
 21
257.743338
 31
0.0
  0
LINE
  5
14A
100
AcDbEntity
  8
1
  6
DASHED
100
AcDbLine
 10
-310.146758
 20
258.743338
 30
0.0
 11
-348.146758
 21
258.743338
 31
0.0
  0
LINE
  5
14B
100
AcDbEntity
  8
1
  6
DASHED
100
AcDbLine
 10
-343.732471
 20
274.717401
 30
0.0
 11
-343.732471
 21
292.769276
 31
0.0
  0
LINE
  5
14C
100
AcDbEntity
  8
1
  6
DASHED
100
AcDbLine
 10
-342.139295
 20
275.743338
 30
0.0
 11
-342.139295
 21
291.743338
 31
0.0
  0
ARC
  5
14D
100
AcDbEntity
  8
1
  6
DASHED
100
AcDbCircle
 10
-336.139295
 20
291.743338
 30
0.0
 40
6.0
100
AcDbArc
 50
90.0
 51
180.0
  0
ARC
  5
14E
100
AcDbEntity
  8
1
  6
DASHED
100
AcDbCircle
 10
-336.139295
 20
275.743338
 30
0.0
 40
6.0
100
AcDbArc
 50
180.0
 51
270.0
  0
LINE
  5
14F
100
AcDbEntity
  8
1
  6
DASHED
100
AcDbLine
 10
-315.769562
 20
282.243338
 30
0.0
 11
-315.769562
 21
285.243338
 31
0.0
  0
LINE
  5
150
100
AcDbEntity
  8
1
  6
DASHED
100
AcDbLine
 10
-310.146758
 20
287.243338
 30
0.0
 11
-313.769562
 21
287.243338
 31
0.0
  0
LINE
  5
151
100
AcDbEntity
  8
1
  6
DASHED
100
AcDbLine
 10
-310.146758
 20
280.243338
 30
0.0
 11
-313.769562
 21
280.243338
 31
0.0
  0
LINE
  5
152
100
AcDbEntity
  8
1
  6
DASHED
100
AcDbLine
 10
-348.146758
 20
258.743338
 30
0.0
 11
-348.146758
 21
265.906703
 31
0.0
  0
LINE
  5
153
100
AcDbEntity
  8
1
  6
DASHED
100
AcDbLine
 10
-348.146758
 20
301.579973
 30
0.0
 11
-348.146758
 21
308.743338
 31
0.0
  0
LINE
  5
154
100
AcDbEntity
  8
1
  6
DASHED
100
AcDbLine
 10
-327.754776
 20
295.063846
 30
0.0
 11
-310.146758
 21
295.063846
 31
0.0
  0
LINE
  5
155
100
AcDbEntity
  8
1
  6
DASHED
100
AcDbLine
 10
-327.754776
 20
272.42283
 30
0.0
 11
-310.146758
 21
272.42283
 31
0.0
  0
ARC
  5
156
100
AcDbEntity
  8
1
  6
DASHED
100
AcDbCircle
 10
-343.146758
 20
301.579973
 30
0.0
 40
5.0
100
AcDbArc
 50
180.0
 51
233.223068
  0
ARC
  5
157
100
AcDbEntity
  8
1
  6
DASHED
100
AcDbCircle
 10
-343.146758
 20
265.906703
 30
0.0
 40
5.0
100
AcDbArc
 50
126.776932
 51
180.0
  0
ARC
  5
158
100
AcDbEntity
  8
1
  6
DASHED
100
AcDbCircle
 10
-349.732471
 20
292.769276
 30
0.0
 40
6.0
100
AcDbArc
 50
0.0
 51
53.223068
  0
ARC
  5
159
100
AcDbEntity
  8
1
  6
DASHED
100
AcDbCircle
 10
-349.732471
 20
274.717401
 30
0.0
 40
6.0
100
AcDbArc
 50
306.776932
 51
360.0
  0
LINE
  5
15A
100
AcDbEntity
  8
1
  6
DASHED
100
AcDbLine
 10
-331.075284
 20
275.743338
 30
0.0
 11
-331.075284
 21
291.743338
 31
0.0
  0
ARC
  5
15B
100
AcDbEntity
  8
1
  6
DASHED
100
AcDbCircle
 10
-327.754776
 20
291.743338
 30
0.0
 40
3.320508
100
AcDbArc
 50
90.0
 51
180.0
  0
ARC
  5
15C
100
AcDbEntity
  8
1
  6
DASHED
100
AcDbCircle
 10
-327.754776
 20
275.743338
 30
0.0
 40
3.320508
100
AcDbArc
 50
180.0
 51
270.0
  0
ARC
  5
15D
100
AcDbEntity
  8
1
  6
DASHED
100
AcDbCircle
 10
-313.769562
 20
285.243338
 30
0.0
 40
2.0
100
AcDbArc
 50
90.0
 51
180.0
  0
ARC
  5
15E
100
AcDbEntity
  8
1
  6
DASHED
100
AcDbCircle
 10
-313.769562
 20
282.243338
 30
0.0
 40
2.0
100
AcDbArc
 50
180.0
 51
270.0
  0
LINE
  5
15F
100
AcDbEntity
  8
1
  6
DASHED
100
AcDbLine
 10
-339.043547
 20
296.993607
 30
0.0
 11
-331.075284
 21
295.063846
 31
0.0
  0
LINE
  5
160
100
AcDbEntity
  8
1
  6
DASHED
100
AcDbLine
 10
-339.043547
 20
270.493069
 30
0.0
 11
-331.075284
 21
272.42283
 31
0.0
  0
CIRCLE
  5
161
100
AcDbEntity
  8
1
100
AcDbCircle
 10
-275.146758
 20
-271.756662
 30
0.0
 40
72.0
  0
CIRCLE
  5
162
100
AcDbEntity
  8
1
100
AcDbCircle
 10
-275.146758
 20
-271.756662
 30
0.0
 40
73.0
  0
CIRCLE
  5
163
100
AcDbEntity
  8
1
100
AcDbCircle
 10
-275.146758
 20
-271.756662
 30
0.0
 40
52.0
  0
CIRCLE
  5
164
100
AcDbEntity
  8
1
100
AcDbCircle
 10
-275.146758
 20
-271.756662
 30
0.0
 40
56.0
  0
CIRCLE
  5
165
100
AcDbEntity
  8
1
100
AcDbCircle
 10
-275.146758
 20
-271.756662
 30
0.0
 40
64.9
  0
CIRCLE
  5
166
100
AcDbEntity
  8
1
100
AcDbCircle
 10
-275.146758
 20
-271.756662
 30
0.0
 40
68.0
  0
LINE
  5
167
100
AcDbEntity
  8
1
100
AcDbLine
 10
84.378242
 20
-206.856662
 30
0.0
 11
84.378242
 21
-336.656662
 31
0.0
  0
LINE
  5
168
100
AcDbEntity
  8
1
100
AcDbLine
 10
138.628242
 20
-206.856662
 30
0.0
 11
138.628242
 21
-336.656662
 31
0.0
  0
LINE
  5
169
100
AcDbEntity
  8
1
100
AcDbLine
 10
137.622794
 20
-204.086095
 30
0.0
 11
138.628242
 21
-206.856662
 31
0.0
  0
LINE
  5
16A
100
AcDbEntity
  8
1
100
AcDbLine
 10
85.383689
 20
-204.086095
 30
0.0
 11
84.378242
 21
-206.856662
 31
0.0
  0
LINE
  5
16B
100
AcDbEntity
  8
1
100
AcDbLine
 10
137.622794
 20
-339.427229
 30
0.0
 11
138.628242
 21
-336.656662
 31
0.0
  0
LINE
  5
16C
100
AcDbEntity
  8
1
100
AcDbLine
 10
85.383689
 20
-339.427229
 30
0.0
 11
84.378242
 21
-336.656662
 31
0.0
  0
LINE
  5
16D
100
AcDbEntity
  8
1
  6
DASHED
100
AcDbLine
 10
-210.246758
 20
310.868338
 30
0.0
 11
-207.476191
 21
309.86289
 31
0.0
  0
LINE
  5
16E
100
AcDbEntity
  8
1
  6
DASHED
100
AcDbLine
 10
-210.246758
 20
256.618338
 30
0.0
 11
-207.476191
 21
257.623786
 31
0.0
  0
LINE
  5
16F
100
AcDbEntity
  8
1
  6
DASHED
100
AcDbLine
 10
-340.046758
 20
310.868338
 30
0.0
 11
-342.817325
 21
309.86289
 31
0.0
  0
LINE
  5
170
100
AcDbEntity
  8
1
  6
DASHED
100
AcDbLine
 10
-340.046758
 20
256.618338
 30
0.0
 11
-342.817325
 21
257.623786
 31
0.0
  0
LINE
  5
171
100
AcDbEntity
  8
1
  6
DASHED
100
AcDbLine
 10
-340.046758
 20
310.868338
 30
0.0
 11
-309.918369
 21
310.868338
 31
0.0
  0
LINE
  5
172
100
AcDbEntity
  8
1
  6
DASHED
100
AcDbLine
 10
-240.375148
 20
310.868338
 30
0.0
 11
-210.246758
 21
310.868338
 31
0.0
  0
LINE
  5
173
100
AcDbEntity
  8
1
  6
DASHED
100
AcDbLine
 10
-340.046758
 20
256.618338
 30
0.0
 11
-309.918369
 21
256.618338
 31
0.0
  0
LINE
  5
174
100
AcDbEntity
  8
1
  6
DASHED
100
AcDbLine
 10
-240.375148
 20
256.618338
 30
0.0
 11
-210.246758
 21
256.618338
 31
0.0
  0
ARC
  5
175
100
AcDbEntity
  8
1
100
AcDbCircle
 10
137.152787
 20
-204.256662
 30
0.0
 40
0.5
100
AcDbArc
 50
19.945998
 51
45.499934
  0
ARC
  5
176
100
AcDbEntity
  8
1
100
AcDbCircle
 10
85.853697
 20
-204.256662
 30
0.0
 40
0.5
100
AcDbArc
 50
134.500066
 51
160.054002
  0
ARC
  5
177
100
AcDbEntity
  8
1
100
AcDbCircle
 10
137.152787
 20
-339.256662
 30
0.0
 40
0.5
100
AcDbArc
 50
314.500066
 51
340.054002
  0
ARC
  5
178
100
AcDbEntity
  8
1
100
AcDbCircle
 10
85.853697
 20
-339.256662
 30
0.0
 40
0.5
100
AcDbArc
 50
199.945998
 51
225.499934
  0
ARC
  5
179
100
AcDbEntity
  8
1
  6
DASHED
100
AcDbCircle
 10
-207.646758
 20
309.392883
 30
0.0
 40
0.5
100
AcDbArc
 50
44.500066
 51
70.054002
  0
ARC
  5
17A
100
AcDbEntity
  8
1
  6
DASHED
100
AcDbCircle
 10
-207.646758
 20
258.093793
 30
0.0
 40
0.5
100
AcDbArc
 50
289.945998
 51
315.499934
  0
ARC
  5
17B
100
AcDbEntity
  8
1
  6
DASHED
100
AcDbCircle
 10
-342.646758
 20
309.392883
 30
0.0
 40
0.5
100
AcDbArc
 50
109.945998
 51
135.499934
  0
ARC
  5
17C
100
AcDbEntity
  8
1
  6
DASHED
100
AcDbCircle
 10
-342.646758
 20
258.093793
 30
0.0
 40
0.5
100
AcDbArc
 50
224.500066
 51
250.054002
  0
LINE
  5
17D
100
AcDbEntity
  8
1
100
AcDbLine
 10
110.003242
 20
-179.649011
 30
0.0
 11
113.003242
 21
-179.649011
 31
0.0
  0
LINE
  5
17E
100
AcDbEntity
  8
1
100
AcDbLine
 10
110.003242
 20
-171.138108
 30
0.0
 11
113.003242
 21
-171.138108
 31
0.0
  0
ARC
  5
17F
100
AcDbEntity
  8
1
100
AcDbCircle
 10
113.003242
 20
-173.138108
 30
0.0
 40
2.0
100
AcDbArc
 50
0.0
 51
90.0
  0
ARC
  5
180
100
AcDbEntity
  8
1
100
AcDbCircle
 10
110.003242
 20
-173.138108
 30
0.0
 40
2.0
100
AcDbArc
 50
90.0
 51
180.0
  0
ARC
  5
181
100
AcDbEntity
  8
1
100
AcDbCircle
 10
110.003242
 20
-177.649011
 30
0.0
 40
2.0
100
AcDbArc
 50
180.0
 51
270.0
  0
ARC
  5
182
100
AcDbEntity
  8
1
100
AcDbCircle
 10
113.003242
 20
-177.649011
 30
0.0
 40
2.0
100
AcDbArc
 50
270.0
 51
360.0
  0
LINE
  5
183
100
AcDbEntity
  8
1
100
AcDbLine
 10
-278.146758
 20
-131.697359
 30
0.0
 11
-272.146758
 21
-131.697359
 31
0.0
  0
LINE
  5
184
100
AcDbEntity
  8
1
100
AcDbLine
 10
114.503242
 20
-131.697359
 30
0.0
 11
108.503242
 21
-131.697359
 31
0.0
  0
LINE
  5
185
100
AcDbEntity
  8
1
100
AcDbLine
 10
115.003242
 20
-153.962869
 30
0.0
 11
108.003242
 21
-153.962869
 31
0.0
  0
LINE
  5
186
100
AcDbEntity
  8
1
100
AcDbLine
 10
113.003242
 20
-362.756662
 30
0.0
 11
110.003242
 21
-362.756662
 31
0.0
  0
ARC
  5
187
100
AcDbEntity
  8
1
100
AcDbCircle
 10
113.003242
 20
-360.756662
 30
0.0
 40
2.0
100
AcDbArc
 50
270.0
 51
360.0
  0
ARC
  5
188
100
AcDbEntity
  8
1
100
AcDbCircle
 10
110.003242
 20
-360.756662
 30
0.0
 40
2.0
100
AcDbArc
 50
180.0
 51
270.0
  0
LINE
  5
189
100
AcDbEntity
  8
1
100
AcDbLine
 10
94.003242
 20
-202.879951
 30
0.0
 11
105.003242
 21
-202.879951
 31
0.0
  0
LINE
  5
18A
100
AcDbEntity
  8
1
100
AcDbLine
 10
118.003242
 20
-202.879951
 30
0.0
 11
129.003242
 21
-202.879951
 31
0.0
  0
LINE
  5
18B
100
AcDbEntity
  8
1
100
AcDbLine
 10
98.503242
 20
-341.215133
 30
0.0
 11
105.003242
 21
-341.215133
 31
0.0
  0
LINE
  5
18C
100
AcDbEntity
  8
1
100
AcDbLine
 10
118.003242
 20
-341.215133
 30
0.0
 11
124.503242
 21
-341.215133
 31
0.0
  0
LINE
  5
18D
100
AcDbEntity
  8
1
100
AcDbLine
 10
103.503242
 20
-253.22725
 30
0.0
 11
119.503242
 21
-253.22725
 31
0.0
  0
LINE
  5
18E
100
AcDbEntity
  8
1
100
AcDbLine
 10
103.503242
 20
-290.286074
 30
0.0
 11
119.503242
 21
-290.286074
 31
0.0
  0
LINE
  5
18F
100
AcDbEntity
  8
1
100
AcDbLine
 10
124.434201
 20
-249.338235
 30
0.0
 11
122.823742
 21
-253.22725
 31
0.0
  0
LINE
  5
190
100
AcDbEntity
  8
1
100
AcDbLine
 10
98.572283
 20
-249.338235
 30
0.0
 11
100.182742
 21
-253.22725
 31
0.0
  0
LINE
  5
191
100
AcDbEntity
  8
1
100
AcDbLine
 10
100.182742
 20
-290.286074
 30
0.0
 11
98.572283
 21
-294.175089
 31
0.0
  0
LINE
  5
192
100
AcDbEntity
  8
1
100
AcDbLine
 10
122.823742
 20
-290.286074
 30
0.0
 11
124.434201
 21
-294.175089
 31
0.0
  0
LINE
  5
193
100
AcDbEntity
  8
1
100
AcDbLine
 10
103.503242
 20
-238.099128
 30
0.0
 11
119.503242
 21
-238.099128
 31
0.0
  0
LINE
  5
194
100
AcDbEntity
  8
1
100
AcDbLine
 10
103.503242
 20
-305.414196
 30
0.0
 11
119.503242
 21
-305.414196
 31
0.0
  0
LINE
  5
195
100
AcDbEntity
  8
1
100
AcDbLine
 10
124.199667
 20
-240.490774
 30
0.0
 11
122.823742
 21
-238.099128
 31
0.0
  0
LINE
  5
196
100
AcDbEntity
  8
1
100
AcDbLine
 10
98.806817
 20
-240.490774
 30
0.0
 11
100.182742
 21
-238.099128
 31
0.0
  0
LINE
  5
197
100
AcDbEntity
  8
1
100
AcDbLine
 10
124.199667
 20
-303.02255
 30
0.0
 11
122.823742
 21
-305.414196
 31
0.0
  0
LINE
  5
198
100
AcDbEntity
  8
1
100
AcDbLine
 10
98.806817
 20
-303.02255
 30
0.0
 11
100.182742
 21
-305.414196
 31
0.0
  0
LINE
  5
199
100
AcDbEntity
  8
1
100
AcDbLine
 10
124.856272
 20
-207.629868
 30
0.0
 11
122.823742
 21
-217.965218
 31
0.0
  0
LINE
  5
19A
100
AcDbEntity
  8
1
100
AcDbLine
 10
98.150212
 20
-207.629868
 30
0.0
 11
100.182742
 21
-217.965218
 31
0.0
  0
LINE
  5
19B
100
AcDbEntity
  8
1
100
AcDbLine
 10
122.823742
 20
-325.548106
 30
0.0
 11
124.856272
 21
-335.883456
 31
0.0
  0
LINE
  5
19C
100
AcDbEntity
  8
1
100
AcDbLine
 10
98.150212
 20
-335.883456
 30
0.0
 11
100.182742
 21
-325.548106
 31
0.0
  0
ARC
  5
19D
100
AcDbEntity
  8
1
100
AcDbCircle
 10
118.003242
 20
-199.879951
 30
0.0
 40
3.0
100
AcDbArc
 50
180.0
 51
270.0
  0
ARC
  5
19E
100
AcDbEntity
  8
1
100
AcDbCircle
 10
105.003242
 20
-199.879951
 30
0.0
 40
3.0
100
AcDbArc
 50
270.0
 51
360.0
  0
ARC
  5
19F
100
AcDbEntity
  8
1
100
AcDbCircle
 10
118.003242
 20
-344.215133
 30
0.0
 40
3.0
100
AcDbArc
 50
90.0
 51
180.0
  0
ARC
  5
1A0
100
AcDbEntity
  8
1
100
AcDbCircle
 10
105.003242
 20
-344.215133
 30
0.0
 40
3.0
100
AcDbArc
 50
0.0
 51
90.0
  0
ARC
  5
1A1
100
AcDbEntity
  8
1
100
AcDbCircle
 10
105.003242
 20
-359.756662
 30
0.0
 40
3.0
100
AcDbArc
 50
270.0
 51
0.0
  0
ARC
  5
1A2
100
AcDbEntity
  8
1
100
AcDbCircle
 10
118.003242
 20
-359.756662
 30
0.0
 40
3.0
100
AcDbArc
 50
180.0
 51
270.0
  0
LINE
  5
1A3
100
AcDbEntity
  8
1
  6
CENTER
 62
     2
100
AcDbLine
 10
-275.146758
 20
93.800577
 30
0.0
 11
-275.146758
 21
-382.456662
 31
0.0
  0
LINE
  5
1A4
100
AcDbEntity
  8
1
  6
CENTER
 62
     2
100
AcDbLine
 10
111.503242
 20
99.266006
 30
0.0
 11
111.503242
 21
-382.456662
 31
0.0
  0
LINE
  5
1A5
100
AcDbEntity
  8
1
100
AcDbLine
 10
-234.963345
 20
-248.783657
 30
0.0
 11
-257.261824
 21
-246.899492
 31
0.0
  0
ARC
  5
1A6
100
AcDbEntity
  8
1
100
AcDbCircle
 10
-235.047543
 20
-249.780106
 30
0.0
 40
1.0
100
AcDbArc
 50
28.725142
 51
85.170127
  0
ARC
  5
1A7
100
AcDbEntity
  8
1
100
AcDbCircle
 10
-275.146758
 20
-271.756662
 30
0.0
 40
46.726536
100
AcDbArc
 50
24.366653
 51
28.725142
  0
ARC
  5
1A8
100
AcDbEntity
  8
1
100
AcDbCircle
 10
-233.493362
 20
-252.891067
 30
0.0
 40
1.0
100
AcDbArc
 50
264.829873
 51
24.366653
  0
LINE
  5
1A9
100
AcDbEntity
  8
1
100
AcDbLine
 10
-233.583476
 20
-253.886998
 30
0.0
 11
-280.038791
 21
-249.683654
 31
0.0
  0
LINE
  5
1AA
100
AcDbEntity
  8
1
100
AcDbLine
 10
-287.013412
 20
-274.703742
 30
0.0
 11
-281.714474
 21
-273.6609
 31
0.0
  0
ARC
  5
1AB
100
AcDbEntity
  8
1
100
AcDbCircle
 10
-275.146758
 20
-269.956662
 30
0.0
 40
51.74
100
AcDbArc
 50
285.534107
 51
306.267682
  0
LINE
  5
1AC
100
AcDbEntity
  8
1
100
AcDbLine
 10
-289.003349
 20
-319.806662
 30
0.0
 11
-261.290168
 21
-319.806662
 31
0.0
  0
ARC
  5
1AD
100
AcDbEntity
  8
1
100
AcDbCircle
 10
-275.146758
 20
-269.956662
 30
0.0
 40
51.74
100
AcDbArc
 50
233.732318
 51
254.465893
  0
ARC
  5
1AE
100
AcDbEntity
  8
1
100
AcDbCircle
 10
-275.146758
 20
-273.556662
 30
0.0
 40
51.74
100
AcDbArc
 50
105.534107
 51
126.267682
  0
ARC
  5
1AF
100
AcDbEntity
  8
1
100
AcDbCircle
 10
-275.146758
 20
-271.756662
 30
0.0
 40
50.3
100
AcDbArc
 50
127.480672
 51
232.519328
  0
LINE
  5
1B0
100
AcDbEntity
  8
1
100
AcDbLine
 10
-289.003349
 20
-223.706662
 30
0.0
 11
-261.290168
 21
-223.706662
 31
0.0
  0
ARC
  5
1B1
100
AcDbEntity
  8
1
100
AcDbCircle
 10
-275.146758
 20
-271.756662
 30
0.0
 40
50.3
100
AcDbArc
 50
307.480672
 51
52.519328
  0
ARC
  5
1B2
100
AcDbEntity
  8
1
100
AcDbCircle
 10
-275.146758
 20
-273.556662
 30
0.0
 40
51.74
100
AcDbArc
 50
53.732318
 51
74.465893
  0
ARC
  5
1B3
100
AcDbEntity
  8
1
100
AcDbCircle
 10
-287.139647
 20
-269.705138
 30
0.0
 40
1.0
100
AcDbArc
 50
83.663034
 51
180.0
  0
ARC
  5
1B4
100
AcDbEntity
  8
1
100
AcDbCircle
 10
-287.139647
 20
-273.808186
 30
0.0
 40
1.0
100
AcDbArc
 50
180.0
 51
276.336979
  0
LINE
  5
1B5
100
AcDbEntity
  8
1
100
AcDbLine
 10
-287.013412
 20
-268.809581
 30
0.0
 11
-281.714474
 21
-269.852423
 31
0.0
  0
LINE
  5
1B6
100
AcDbEntity
  8
1
100
AcDbLine
 10
-258.861937
 20
-316.087298
 30
0.0
 11
-259.794259
 21
-315.854128
 31
0.0
  0
LINE
  5
1B7
100
AcDbEntity
  8
1
100
AcDbLine
 10
-263.830869
 20
-314.844587
 30
0.0
 11
-259.794259
 21
-315.854128
 31
0.0
  0
LINE
  5
1B8
100
AcDbEntity
  8
1
100
AcDbLine
 10
-263.830869
 20
-228.668736
 30
0.0
 11
-259.794259
 21
-227.659195
 31
0.0
  0
LINE
  5
1B9
100
AcDbEntity
  8
1
100
AcDbLine
 10
-258.861937
 20
-227.426025
 30
0.0
 11
-259.794259
 21
-227.659195
 31
0.0
  0
LINE
  5
1BA
100
AcDbEntity
  8
1
100
AcDbLine
 10
-267.646758
 20
-273.666143
 30
0.0
 11
-271.685326
 21
-273.666143
 31
0.0
  0
ARC
  5
1BB
100
AcDbEntity
  8
1
100
AcDbCircle
 10
-280.732545
 20
-272.664456
 30
0.0
 40
1.0
100
AcDbArc
 50
180.0
 51
270.0
  0
LINE
  5
1BC
100
AcDbEntity
  8
1
100
AcDbLine
 10
-275.146758
 20
-274.116662
 30
0.0
 11
-281.014268
 21
-274.134084
 31
0.0
  0
ARC
  5
1BD
100
AcDbEntity
  8
1
100
AcDbCircle
 10
-272.701567
 20
-273.164456
 30
0.0
 40
0.5
100
AcDbArc
 50
270.0
 51
360.0
  0
ARC
  5
1BE
100
AcDbEntity
  8
1
100
AcDbCircle
 10
-271.414707
 20
-275.127748
 30
0.0
 40
1.0
100
AcDbArc
 50
89.829873
 51
180.0
  0
ARC
  5
1BF
100
AcDbEntity
  8
1
100
AcDbCircle
 10
-268.780733
 20
-275.135569
 30
0.0
 40
1.0
100
AcDbArc
 50
89.829873
 51
180.0
  0
ARC
  5
1C0
100
AcDbEntity
  8
1
100
AcDbCircle
 10
-278.878809
 20
-275.124129
 30
0.0
 40
1.0
100
AcDbArc
 50
0.0
 51
85.294322
  0
ARC
  5
1C1
100
AcDbEntity
  8
1
100
AcDbCircle
 10
-281.512784
 20
-275.195594
 30
0.0
 40
1.0
100
AcDbArc
 50
0.0
 51
96.336979
  0
LINE
  5
1C2
100
AcDbEntity
  8
1
100
AcDbLine
 10
-281.014268
 20
-274.134084
 30
0.0
 11
-287.029271
 21
-274.802076
 31
0.0
  0
LINE
  5
1C3
100
AcDbEntity
  8
1
100
AcDbLine
 10
-281.014268
 20
-269.379239
 30
0.0
 11
-287.029272
 21
-268.711248
 31
0.0
  0
ARC
  5
1C4
100
AcDbEntity
  8
1
100
AcDbCircle
 10
-281.512784
 20
-268.317729
 30
0.0
 40
1.0
100
AcDbArc
 50
263.663025
 51
360.0
  0
ARC
  5
1C5
100
AcDbEntity
  8
1
100
AcDbCircle
 10
-278.878809
 20
-268.389194
 30
0.0
 40
1.0
100
AcDbArc
 50
274.705423
 51
360.0
  0
LINE
  5
1C6
100
AcDbEntity
  8
1
100
AcDbLine
 10
-229.44766
 20
-269.260968
 30
0.0
 11
-275.146758
 21
-269.396662
 31
0.0
  0
ARC
  5
1C7
100
AcDbEntity
  8
1
100
AcDbCircle
 10
-271.414707
 20
-268.385576
 30
0.0
 40
1.0
100
AcDbArc
 50
180.0
 51
270.170127
  0
LINE
  5
1C8
100
AcDbEntity
  8
1
100
AcDbLine
 10
-265.428352
 20
-316.361362
 30
0.0
 11
-284.865164
 21
-316.361362
 31
0.0
  0
ARC
  5
1C9
100
AcDbEntity
  8
1
100
AcDbCircle
 10
-284.865164
 20
-316.506662
 30
0.0
 40
2.0
100
AcDbArc
 50
90.0
 51
180.0
  0
ARC
  5
1CA
100
AcDbEntity
  8
1
100
AcDbCircle
 10
-293.979127
 20
-305.901033
 30
0.0
 40
10.5
100
AcDbArc
 50
241.121015
 51
284.041436
  0
LINE
  5
1CB
100
AcDbEntity
  8
1
100
AcDbLine
 10
-286.865164
 20
-319.467274
 30
0.0
 11
-286.865164
 21
-316.506662
 31
0.0
  0
LINE
  5
1CC
100
AcDbEntity
  8
1
100
AcDbLine
 10
-291.43158
 20
-316.087298
 30
0.0
 11
-285.350411
 21
-314.566421
 31
0.0
  0
ARC
  5
1CD
100
AcDbEntity
  8
1
100
AcDbCircle
 10
-272.015534
 20
-358.710858
 30
0.0
 40
45.281984
100
AcDbArc
 50
82.423638
 51
102.080046
  0
LINE
  5
1CE
100
AcDbEntity
  8
1
100
AcDbLine
 10
-263.428352
 20
-319.467274
 30
0.0
 11
-263.428352
 21
-316.506662
 31
0.0
  0
ARC
  5
1CF
100
AcDbEntity
  8
1
100
AcDbCircle
 10
-256.31439
 20
-305.901033
 30
0.0
 40
10.5
100
AcDbArc
 50
255.958564
 51
298.878985
  0
ARC
  5
1D0
100
AcDbEntity
  8
1
100
AcDbCircle
 10
-275.146758
 20
-271.756662
 30
0.0
 40
46.726536
100
AcDbArc
 50
331.274858
 51
335.633347
  0
LINE
  5
1D1
100
AcDbEntity
  8
1
100
AcDbLine
 10
-235.66228
 20
-290.387136
 30
0.0
 11
-274.429791
 21
-293.778853
 31
0.0
  0
LINE
  5
1D2
100
AcDbEntity
  8
1
100
AcDbLine
 10
-236.4945
 20
-294.290109
 30
0.0
 11
-264.898813
 21
-296.775164
 31
0.0
  0
LINE
  5
1D3
100
AcDbEntity
  8
1
100
AcDbLine
 10
-234.963345
 20
-294.729666
 30
0.0
 11
-257.261824
 21
-296.61383
 31
0.0
  0
ARC
  5
1D4
100
AcDbEntity
  8
1
100
AcDbCircle
 10
-236.581656
 20
-293.293914
 30
0.0
 40
1.0
100
AcDbArc
 50
275.0
 51
330.818178
  0
ARC
  5
1D5
100
AcDbEntity
  8
1
100
AcDbCircle
 10
-275.146758
 20
-271.756662
 30
0.0
 40
45.171488
100
AcDbArc
 50
330.818178
 51
333.61959
  0
ARC
  5
1D6
100
AcDbEntity
  8
1
100
AcDbCircle
 10
-235.575124
 20
-291.38333
 30
0.0
 40
1.0
100
AcDbArc
 50
333.61959
 51
95.0
  0
ARC
  5
1D7
100
AcDbEntity
  8
1
100
AcDbCircle
 10
-235.047543
 20
-293.733217
 30
0.0
 40
1.0
100
AcDbArc
 50
274.829873
 51
331.274858
  0
ARC
  5
1D8
100
AcDbEntity
  8
1
100
AcDbCircle
 10
-233.493362
 20
-290.622257
 30
0.0
 40
1.0
100
AcDbArc
 50
335.633347
 51
95.170127
  0
LINE
  5
1D9
100
AcDbEntity
  8
1
100
AcDbLine
 10
-287.317884
 20
-313.84302
 30
0.0
 11
-287.317884
 21
-301.797122
 31
0.0
  0
LINE
  5
1DA
100
AcDbEntity
  8
1
100
AcDbLine
 10
-281.732545
 20
-313.506662
 30
0.0
 11
-281.732545
 21
-301.748411
 31
0.0
  0
LINE
  5
1DB
100
AcDbEntity
  8
1
100
AcDbLine
 10
-264.588245
 20
-313.874466
 30
0.0
 11
-264.588245
 21
-304.585423
 31
0.0
  0
ARC
  5
1DC
100
AcDbEntity
  8
1
100
AcDbCircle
 10
-273.732545
 20
-301.748411
 30
0.0
 40
8.0
100
AcDbArc
 50
95.0
 51
180.0
  0
ARC
  5
1DD
100
AcDbEntity
  8
1
100
AcDbCircle
 10
-278.878809
 20
-292.720627
 30
0.0
 40
1.0
100
AcDbArc
 50
275.170127
 51
360.0
  0
ARC
  5
1DE
100
AcDbEntity
  8
1
100
AcDbCircle
 10
-281.512784
 20
-293.068868
 30
0.0
 40
1.0
100
AcDbArc
 50
284.115518
 51
360.0
  0
ARC
  5
1DF
100
AcDbEntity
  8
1
100
AcDbCircle
 10
-279.317884
 20
-301.797122
 30
0.0
 40
8.0
100
AcDbArc
 50
95.170127
 51
180.0
  0
ARC
  5
1E0
100
AcDbEntity
  8
1
100
AcDbCircle
 10
-271.414707
 20
-292.045265
 30
0.0
 40
1.0
100
AcDbArc
 50
180.0
 51
275.170127
  0
ARC
  5
1E1
100
AcDbEntity
  8
1
100
AcDbCircle
 10
-268.780733
 20
-291.806939
 30
0.0
 40
1.0
100
AcDbArc
 50
180.0
 51
275.170127
  0
LINE
  5
1E2
100
AcDbEntity
  8
1
100
AcDbLine
 10
-233.583476
 20
-289.626325
 30
0.0
 11
-280.038791
 21
-293.829669
 31
0.0
  0
ARC
  5
1E3
100
AcDbEntity
  8
1
100
AcDbCircle
 10
-282.732545
 20
-313.506662
 30
0.0
 40
1.0
100
AcDbArc
 50
270.0
 51
360.0
  0
LINE
  5
1E4
100
AcDbEntity
  8
1
100
AcDbLine
 10
-284.865164
 20
-314.506662
 30
0.0
 11
-265.428352
 21
-314.506662
 31
0.0
  0
ARC
  5
1E5
100
AcDbEntity
  8
1
100
AcDbCircle
 10
-263.588245
 20
-313.874466
 30
0.0
 40
1.0
100
AcDbArc
 50
180.0
 51
255.958564
  0
ARC
  5
1E6
100
AcDbEntity
  8
1
100
AcDbCircle
 10
-265.428352
 20
-316.506662
 30
0.0
 40
2.0
100
AcDbArc
 50
0.0
 51
90.0
  0
ARC
  5
1E7
100
AcDbEntity
  8
1
100
AcDbCircle
 10
-265.428352
 20
-227.006662
 30
0.0
 40
2.0
100
AcDbArc
 50
270.0
 51
360.0
  0
ARC
  5
1E8
100
AcDbEntity
  8
1
100
AcDbCircle
 10
-263.588245
 20
-229.638857
 30
0.0
 40
1.0
100
AcDbArc
 50
104.041436
 51
180.0
  0
LINE
  5
1E9
100
AcDbEntity
  8
1
100
AcDbLine
 10
-284.865164
 20
-229.006662
 30
0.0
 11
-265.428352
 21
-229.006662
 31
0.0
  0
ARC
  5
1EA
100
AcDbEntity
  8
1
100
AcDbCircle
 10
-282.732545
 20
-230.006662
 30
0.0
 40
1.0
100
AcDbArc
 50
0.0
 51
90.0
  0
ARC
  5
1EB
100
AcDbEntity
  8
1
100
AcDbCircle
 10
-268.780733
 20
-251.706384
 30
0.0
 40
1.0
100
AcDbArc
 50
84.829873
 51
180.0
  0
ARC
  5
1EC
100
AcDbEntity
  8
1
100
AcDbCircle
 10
-271.414707
 20
-251.468058
 30
0.0
 40
1.0
100
AcDbArc
 50
84.829873
 51
180.0
  0
ARC
  5
1ED
100
AcDbEntity
  8
1
100
AcDbCircle
 10
-279.317884
 20
-241.716202
 30
0.0
 40
8.0
100
AcDbArc
 50
180.0
 51
264.829873
  0
ARC
  5
1EE
100
AcDbEntity
  8
1
100
AcDbCircle
 10
-281.512784
 20
-250.444456
 30
0.0
 40
1.0
100
AcDbArc
 50
0.0
 51
75.884482
  0
ARC
  5
1EF
100
AcDbEntity
  8
1
100
AcDbCircle
 10
-278.878809
 20
-250.792696
 30
0.0
 40
1.0
100
AcDbArc
 50
0.0
 51
84.829873
  0
ARC
  5
1F0
100
AcDbEntity
  8
1
100
AcDbCircle
 10
-273.732545
 20
-241.764912
 30
0.0
 40
8.0
100
AcDbArc
 50
180.0
 51
265.0
  0
LINE
  5
1F1
100
AcDbEntity
  8
1
100
AcDbLine
 10
-264.588245
 20
-229.638857
 30
0.0
 11
-264.588245
 21
-238.9279
 31
0.0
  0
LINE
  5
1F2
100
AcDbEntity
  8
1
100
AcDbLine
 10
-281.732545
 20
-230.006662
 30
0.0
 11
-281.732545
 21
-241.764912
 31
0.0
  0
LINE
  5
1F3
100
AcDbEntity
  8
1
100
AcDbLine
 10
-287.317884
 20
-229.670303
 30
0.0
 11
-287.317884
 21
-241.716202
 31
0.0
  0
ARC
  5
1F4
100
AcDbEntity
  8
1
100
AcDbCircle
 10
-275.146758
 20
-271.756662
 30
0.0
 40
46.726536
100
AcDbArc
 50
358.125542
 51
1.874458
  0
ARC
  5
1F5
100
AcDbEntity
  8
1
100
AcDbCircle
 10
-235.575124
 20
-252.129993
 30
0.0
 40
1.0
100
AcDbArc
 50
265.0
 51
26.38041
  0
ARC
  5
1F6
100
AcDbEntity
  8
1
100
AcDbCircle
 10
-275.146758
 20
-271.756662
 30
0.0
 40
45.171488
100
AcDbArc
 50
26.38041
 51
29.181822
  0
ARC
  5
1F7
100
AcDbEntity
  8
1
100
AcDbCircle
 10
-236.581656
 20
-250.219409
 30
0.0
 40
1.0
100
AcDbArc
 50
29.181822
 51
85.0
  0
LINE
  5
1F8
100
AcDbEntity
  8
1
100
AcDbLine
 10
-236.4945
 20
-249.223214
 30
0.0
 11
-264.898813
 21
-246.738158
 31
0.0
  0
LINE
  5
1F9
100
AcDbEntity
  8
1
100
AcDbLine
 10
-235.66228
 20
-253.126188
 30
0.0
 11
-274.429791
 21
-249.73447
 31
0.0
  0
LINE
  5
1FA
100
AcDbEntity
  8
1
100
AcDbLine
 10
-288.139647
 20
-273.808186
 30
0.0
 11
-288.139647
 21
-269.705138
 31
0.0
  0
ARC
  5
1FB
100
AcDbEntity
  8
1
100
AcDbCircle
 10
-280.732545
 20
-272.664456
 30
0.0
 40
1.0
100
AcDbArc
 50
180.0
 51
270.0
  0
ARC
  5
1FC
100
AcDbEntity
  8
1
100
AcDbCircle
 10
-230.984599
 20
-272.664456
 30
0.0
 40
1.0
100
AcDbArc
 50
270.0
 51
358.822398
  0
ARC
  5
1FD
100
AcDbEntity
  8
1
100
AcDbCircle
 10
-229.444691
 20
-273.25236
 30
0.0
 40
1.0
100
AcDbArc
 50
269.829873
 51
358.125542
  0
LINE
  5
1FE
100
AcDbEntity
  8
1
100
AcDbLine
 10
-229.44766
 20
-274.252355
 30
0.0
 11
-275.146758
 21
-274.116662
 31
0.0
  0
LINE
  5
1FF
100
AcDbEntity
  8
1
100
AcDbLine
 10
-230.984599
 20
-273.664456
 30
0.0
 11
-280.732545
 21
-273.664456
 31
0.0
  0
LINE
  5
200
100
AcDbEntity
  8
1
100
AcDbLine
 10
-230.984599
 20
-269.848867
 30
0.0
 11
-280.732545
 21
-269.848867
 31
0.0
  0
ARC
  5
201
100
AcDbEntity
  8
1
100
AcDbCircle
 10
-272.701567
 20
-270.348867
 30
0.0
 40
0.5
100
AcDbArc
 50
0.0
 51
90.0
  0
LINE
  5
202
100
AcDbEntity
  8
1
100
AcDbLine
 10
-275.146758
 20
-269.396662
 30
0.0
 11
-281.014268
 21
-269.379239
 31
0.0
  0
ARC
  5
203
100
AcDbEntity
  8
1
100
AcDbCircle
 10
-280.732545
 20
-270.848867
 30
0.0
 40
1.0
100
AcDbArc
 50
90.0
 51
180.0
  0
ARC
  5
204
100
AcDbEntity
  8
1
100
AcDbCircle
 10
-229.444691
 20
-270.260964
 30
0.0
 40
1.0
100
AcDbArc
 50
1.874458
 51
90.170127
  0
ARC
  5
205
100
AcDbEntity
  8
1
100
AcDbCircle
 10
-230.984599
 20
-270.848867
 30
0.0
 40
1.0
100
AcDbArc
 50
1.177602
 51
90.0
  0
ARC
  5
206
100
AcDbEntity
  8
1
100
AcDbCircle
 10
-275.146758
 20
-271.756662
 30
0.0
 40
45.171488
100
AcDbArc
 50
358.822398
 51
1.177602
  0
LINE
  5
207
100
AcDbEntity
  8
1
100
AcDbLine
 10
-272.201567
 20
-273.164456
 30
0.0
 11
-272.201567
 21
-270.348867
 31
0.0
  0
LINE
  5
208
100
AcDbEntity
  8
1
100
AcDbLine
 10
-281.732545
 20
-272.615533
 30
0.0
 11
-281.732545
 21
-270.848867
 31
0.0
  0
LINE
  5
209
100
AcDbEntity
  8
1
100
AcDbLine
 10
-280.512784
 20
-275.195594
 30
0.0
 11
-280.512784
 21
-293.068868
 31
0.0
  0
LINE
  5
20A
100
AcDbEntity
  8
1
100
AcDbLine
 10
-277.878809
 20
-275.124129
 30
0.0
 11
-277.878809
 21
-292.720627
 31
0.0
  0
LINE
  5
20B
100
AcDbEntity
  8
1
100
AcDbLine
 10
-272.414707
 20
-275.127748
 30
0.0
 11
-272.414707
 21
-292.045314
 31
0.0
  0
LINE
  5
20C
100
AcDbEntity
  8
1
100
AcDbLine
 10
-269.780733
 20
-275.135569
 30
0.0
 11
-269.780733
 21
-291.806988
 31
0.0
  0
LINE
  5
20D
100
AcDbEntity
  8
1
100
AcDbLine
 10
-277.878809
 20
-268.389194
 30
0.0
 11
-277.878809
 21
-250.792696
 31
0.0
  0
LINE
  5
20E
100
AcDbEntity
  8
1
100
AcDbLine
 10
-280.512784
 20
-268.317729
 30
0.0
 11
-280.512784
 21
-250.444456
 31
0.0
  0
LINE
  5
20F
100
AcDbEntity
  8
1
100
AcDbLine
 10
-269.780733
 20
-268.377755
 30
0.0
 11
-269.780733
 21
-251.706384
 31
0.0
  0
LINE
  5
210
100
AcDbEntity
  8
1
100
AcDbLine
 10
-272.414707
 20
-268.385576
 30
0.0
 11
-272.414707
 21
-251.468058
 31
0.0
  0
LINE
  5
211
100
AcDbEntity
  8
1
100
AcDbLine
 10
-267.646758
 20
-269.84718
 30
0.0
 11
-271.685326
 21
-269.84718
 31
0.0
  0
ARC
  5
212
100
AcDbEntity
  8
1
100
AcDbCircle
 10
-256.31439
 20
-237.61229
 30
0.0
 40
10.5
100
AcDbArc
 50
61.121015
 51
104.041436
  0
LINE
  5
213
100
AcDbEntity
  8
1
100
AcDbLine
 10
-263.428352
 20
-224.04605
 30
0.0
 11
-263.428352
 21
-227.006662
 31
0.0
  0
ARC
  5
214
100
AcDbEntity
  8
1
100
AcDbCircle
 10
-271.979487
 20
-183.885765
 30
0.0
 40
46.186193
100
AcDbArc
 50
258.114219
 51
277.382098
  0
LINE
  5
215
100
AcDbEntity
  8
1
100
AcDbLine
 10
-291.43158
 20
-227.426025
 30
0.0
 11
-285.350411
 21
-228.946903
 31
0.0
  0
LINE
  5
216
100
AcDbEntity
  8
1
100
AcDbLine
 10
-286.865164
 20
-224.04605
 30
0.0
 11
-286.865164
 21
-227.006662
 31
0.0
  0
ARC
  5
217
100
AcDbEntity
  8
1
100
AcDbCircle
 10
-293.979127
 20
-237.61229
 30
0.0
 40
10.5
100
AcDbArc
 50
75.958564
 51
118.878985
  0
ARC
  5
218
100
AcDbEntity
  8
1
100
AcDbCircle
 10
-284.865164
 20
-227.006662
 30
0.0
 40
2.0
100
AcDbArc
 50
180.0
 51
270.0
  0
LINE
  5
219
100
AcDbEntity
  8
1
100
AcDbLine
 10
-265.428352
 20
-227.151961
 30
0.0
 11
-284.865164
 21
-227.151961
 31
0.0
  0
LINE
  5
21A
100
AcDbEntity
  8
1
100
AcDbLine
 10
-235.85446
 20
-249.235788
 30
0.0
 11
-234.982136
 21
-248.985992
 31
0.0
  0
LINE
  5
21B
100
AcDbEntity
  8
1
100
AcDbLine
 10
-234.568594
 20
-253.036458
 30
0.0
 11
-233.118923
 21
-253.582774
 31
0.0
  0
LINE
  5
21C
100
AcDbEntity
  8
1
100
AcDbLine
 10
-230.128325
 20
-273.620879
 30
0.0
 11
-229.120959
 21
-274.010216
 31
0.0
  0
LINE
  5
21D
100
AcDbEntity
  8
1
100
AcDbLine
 10
-230.128325
 20
-269.892444
 30
0.0
 11
-229.120959
 21
-269.503108
 31
0.0
  0
LINE
  5
21E
100
AcDbEntity
  8
1
100
AcDbLine
 10
-234.568594
 20
-290.476865
 30
0.0
 11
-233.118923
 21
-289.93055
 31
0.0
  0
LINE
  5
21F
100
AcDbEntity
  8
1
100
AcDbLine
 10
-235.85446
 20
-294.277536
 30
0.0
 11
-234.982136
 21
-294.527332
 31
0.0
  0
ARC
  5
220
100
AcDbEntity
  8
1
100
AcDbCircle
 10
-268.780733
 20
-268.377755
 30
0.0
 40
1.0
100
AcDbArc
 50
180.0
 51
270.170127
  0
ARC
  5
221
100
AcDbEntity
  8
1
100
AcDbCircle
 10
-264.201567
 20
-238.768601
 30
0.0
 40
8.0
100
AcDbArc
 50
180.0
 51
265.0
  0
ARC
  5
222
100
AcDbEntity
  8
1
100
AcDbCircle
 10
-264.201567
 20
-304.744722
 30
0.0
 40
8.0
100
AcDbArc
 50
95.0
 51
180.0
  0
ARC
  5
223
100
AcDbEntity
  8
1
100
AcDbCircle
 10
-256.588245
 20
-238.9279
 30
0.0
 40
8.0
100
AcDbArc
 50
180.0
 51
265.170127
  0
ARC
  5
224
100
AcDbEntity
  8
1
100
AcDbCircle
 10
-256.588245
 20
-304.585423
 30
0.0
 40
8.0
100
AcDbArc
 50
94.829873
 51
180.0
  0
POINT
  5
225
100
AcDbEntity
  8
1
100
AcDbPoint
 10
-275.146758
 20
-271.756662
 30
0.0
  0
LINE
  5
226
100
AcDbEntity
  8
2
100
AcDbLine
 10
-310.146758
 20
-104.756662
 30
0.0
 11
-240.146758
 21
-104.756662
 31
0.0
  0
LINE
  5
227
100
AcDbEntity
  8
2
100
AcDbLine
 10
-240.146758
 20
-104.756662
 30
0.0
 11
-240.146758
 21
-98.756662
 31
0.0
  0
ARC
  5
228
100
AcDbEntity
  8
2
100
AcDbCircle
 10
-238.146758
 20
-98.756662
 30
0.0
 40
2.0
100
AcDbArc
 50
90.0
 51
180.0
  0
ARC
  5
229
100
AcDbEntity
  8
2
100
AcDbCircle
 10
-211.146758
 20
-94.756662
 30
0.0
 40
2.0
100
AcDbArc
 50
270.0
 51
360.0
  0
LINE
  5
22A
100
AcDbEntity
  8
2
100
AcDbLine
 10
-211.146758
 20
-96.756662
 30
0.0
 11
-411.146758
 21
-96.756662
 31
0.0
  0
ARC
  5
22B
100
AcDbEntity
  8
2
100
AcDbCircle
 10
-411.146758
 20
-94.756662
 30
0.0
 40
2.0
100
AcDbArc
 50
180.0
 51
270.0
  0
LINE
  5
22C
100
AcDbEntity
  8
2
100
AcDbLine
 10
-413.146758
 20
-94.756662
 30
0.0
 11
-413.146758
 21
-90.756662
 31
0.0
  0
LINE
  5
22D
100
AcDbEntity
  8
2
100
AcDbLine
 10
-209.146758
 20
-94.756662
 30
0.0
 11
-209.146758
 21
-89.756662
 31
0.0
  0
LINE
  5
22E
100
AcDbEntity
  8
2
100
AcDbLine
 10
-179.146758
 20
-92.756662
 30
0.0
 11
-179.146758
 21
-21.756662
 31
0.0
  0
LINE
  5
22F
100
AcDbEntity
  8
2
100
AcDbLine
 10
-161.146758
 20
-85.683879
 30
0.0
 11
-161.146758
 21
-28.829445
 31
0.0
  0
LINE
  5
230
100
AcDbEntity
  8
2
100
AcDbLine
 10
-277.146758
 20
73.743338
 30
0.0
 11
-277.146758
 21
65.443338
 31
0.0
  0
LINE
  5
231
100
AcDbEntity
  8
2
100
AcDbLine
 10
-273.146758
 20
73.743338
 30
0.0
 11
-273.146758
 21
65.443338
 31
0.0
  0
LINE
  5
232
100
AcDbEntity
  8
2
100
AcDbLine
 10
-385.146758
 20
-89.756662
 30
0.0
 11
-185.146758
 21
-89.756662
 31
0.0
  0
LINE
  5
233
100
AcDbEntity
  8
2
100
AcDbLine
 10
-179.146758
 20
-92.756662
 30
0.0
 11
-183.146758
 21
-92.756662
 31
0.0
  0
LINE
  5
234
100
AcDbEntity
  8
2
100
AcDbLine
 10
-184.146758
 20
-91.756662
 30
0.0
 11
-184.146758
 21
-90.756662
 31
0.0
  0
ARC
  5
235
100
AcDbEntity
  8
2
100
AcDbCircle
 10
-185.146758
 20
-90.756662
 30
0.0
 40
1.0
100
AcDbArc
 50
0.0
 51
90.0
  0
ARC
  5
236
100
AcDbEntity
  8
2
100
AcDbCircle
 10
-183.146758
 20
-91.756662
 30
0.0
 40
1.0
100
AcDbArc
 50
180.0
 51
270.0
  0
LINE
  5
237
100
AcDbEntity
  8
2
100
AcDbLine
 10
-179.146758
 20
-21.756662
 30
0.0
 11
-185.981511
 21
-21.756662
 31
0.0
  0
LINE
  5
238
100
AcDbEntity
  8
2
100
AcDbLine
 10
-209.146758
 20
-90.756662
 30
0.0
 11
-413.146758
 21
-90.756662
 31
0.0
  0
LINE
  5
239
100
AcDbEntity
  8
2
100
AcDbLine
 10
-413.146758
 20
-90.756662
 30
0.0
 11
-413.146758
 21
-74.756662
 31
0.0
  0
ARC
  5
23A
100
AcDbEntity
  8
2
100
AcDbCircle
 10
-409.146758
 20
-74.756662
 30
0.0
 40
4.0
100
AcDbArc
 50
94.060176
 51
180.0
  0
LINE
  5
23B
100
AcDbEntity
  8
2
100
AcDbLine
 10
-189.146758
 20
14.243338
 30
0.0
 11
-190.146758
 21
14.243338
 31
0.0
  0
ARC
  5
23C
100
AcDbEntity
  8
2
100
AcDbCircle
 10
-189.146758
 20
13.243338
 30
0.0
 40
1.0
100
AcDbArc
 50
0.0
 51
90.0
  0
LINE
  5
23D
100
AcDbEntity
  8
2
100
AcDbLine
 10
-188.146758
 20
13.243338
 30
0.0
 11
-188.146758
 21
-21.263513
 31
0.0
  0
LINE
  5
23E
100
AcDbEntity
  8
2
100
AcDbLine
 10
-192.146758
 20
10.243338
 30
0.0
 11
-192.146758
 21
-12.387887
 31
0.0
  0
LINE
  5
23F
100
AcDbEntity
  8
2
100
AcDbLine
 10
-344.146758
 20
336.743338
 30
0.0
 11
-196.146758
 21
336.743338
 31
0.0
  0
ARC
  5
240
100
AcDbEntity
  8
2
100
AcDbCircle
 10
-196.146758
 20
330.743338
 30
0.0
 40
6.0
100
AcDbArc
 50
0.0
 51
90.0
  0
ARC
  5
241
100
AcDbEntity
  8
2
100
AcDbCircle
 10
-344.146758
 20
330.743338
 30
0.0
 40
6.0
100
AcDbArc
 50
90.0
 51
180.0
  0
LINE
  5
242
100
AcDbEntity
  8
2
100
AcDbLine
 10
-190.146758
 20
330.743338
 30
0.0
 11
-190.146758
 21
242.743338
 31
0.0
  0
ARC
  5
243
100
AcDbEntity
  8
2
100
AcDbCircle
 10
-189.146758
 20
287.743338
 30
0.0
 40
1.0
100
AcDbArc
 50
90.0
 51
180.0
  0
ARC
  5
244
100
AcDbEntity
  8
2
100
AcDbCircle
 10
-189.146758
 20
325.743338
 30
0.0
 40
1.0
100
AcDbArc
 50
180.0
 51
270.0
  0
LINE
  5
245
100
AcDbEntity
  8
2
100
AcDbLine
 10
-350.146758
 20
242.743338
 30
0.0
 11
-350.146758
 21
330.743338
 31
0.0
  0
ARC
  5
246
100
AcDbEntity
  8
2
100
AcDbCircle
 10
-196.146758
 20
242.743338
 30
0.0
 40
6.0
100
AcDbArc
 50
270.0
 51
360.0
  0
ARC
  5
247
100
AcDbEntity
  8
2
100
AcDbCircle
 10
-344.146758
 20
242.743338
 30
0.0
 40
6.0
100
AcDbArc
 50
180.0
 51
270.0
  0
LINE
  5
248
100
AcDbEntity
  8
2
100
AcDbLine
 10
-188.146758
 20
323.743338
 30
0.0
 11
-188.146758
 21
289.743338
 31
0.0
  0
ARC
  5
249
100
AcDbEntity
  8
2
100
AcDbCircle
 10
-189.146758
 20
289.743338
 30
0.0
 40
1.0
100
AcDbArc
 50
270.0
 51
360.0
  0
ARC
  5
24A
100
AcDbEntity
  8
2
100
AcDbCircle
 10
-189.146758
 20
323.743338
 30
0.0
 40
1.0
100
AcDbArc
 50
0.0
 51
90.0
  0
ARC
  5
24B
100
AcDbEntity
  8
2
100
AcDbCircle
 10
-189.146758
 20
247.743338
 30
0.0
 40
1.0
100
AcDbArc
 50
90.0
 51
180.0
  0
ARC
  5
24C
100
AcDbEntity
  8
2
100
AcDbCircle
 10
-189.146758
 20
285.743338
 30
0.0
 40
1.0
100
AcDbArc
 50
180.0
 51
270.0
  0
LINE
  5
24D
100
AcDbEntity
  8
2
100
AcDbLine
 10
-188.146758
 20
283.743338
 30
0.0
 11
-188.146758
 21
249.743338
 31
0.0
  0
ARC
  5
24E
100
AcDbEntity
  8
2
100
AcDbCircle
 10
-189.146758
 20
249.743338
 30
0.0
 40
1.0
100
AcDbArc
 50
270.0
 51
360.0
  0
ARC
  5
24F
100
AcDbEntity
  8
2
100
AcDbCircle
 10
-189.146758
 20
283.743338
 30
0.0
 40
1.0
100
AcDbArc
 50
0.0
 51
90.0
  0
LINE
  5
250
100
AcDbEntity
  8
2
100
AcDbLine
 10
-403.646758
 20
338.743338
 30
0.0
 11
-318.646758
 21
338.743338
 31
0.0
  0
LINE
  5
251
100
AcDbEntity
  8
2
100
AcDbLine
 10
-179.146758
 20
335.743338
 30
0.0
 11
-192.846758
 21
335.743338
 31
0.0
  0
LINE
  5
252
100
AcDbEntity
  8
2
100
AcDbLine
 10
-317.646758
 20
336.743338
 30
0.0
 11
-317.646758
 21
337.743338
 31
0.0
  0
LINE
  5
253
100
AcDbEntity
  8
2
100
AcDbLine
 10
-179.146758
 20
232.743338
 30
0.0
 11
-179.146758
 21
335.743338
 31
0.0
  0
LINE
  5
254
100
AcDbEntity
  8
2
100
AcDbLine
 10
-161.146758
 20
239.816121
 30
0.0
 11
-161.146758
 21
328.670555
 31
0.0
  0
CIRCLE
  5
255
100
AcDbEntity
  8
2
100
AcDbCircle
 10
-275.146758
 20
283.743338
 30
0.0
 40
42.5
  0
LINE
  5
256
100
AcDbEntity
  8
2
100
AcDbLine
 10
-305.568954
 20
291.243338
 30
0.0
 11
-284.631711
 21
291.243338
 31
0.0
  0
LINE
  5
257
100
AcDbEntity
  8
2
100
AcDbLine
 10
-305.568954
 20
276.243338
 30
0.0
 11
-284.631711
 21
276.243338
 31
0.0
  0
LINE
  5
258
100
AcDbEntity
  8
2
100
AcDbLine
 10
-265.661806
 20
276.243338
 30
0.0
 11
-244.724562
 21
276.243338
 31
0.0
  0
LINE
  5
259
100
AcDbEntity
  8
2
100
AcDbLine
 10
-273.146758
 20
261.720863
 30
0.0
 11
-273.146758
 21
259.577246
 31
0.0
  0
LINE
  5
25A
100
AcDbEntity
  8
2
100
AcDbLine
 10
-277.146758
 20
261.720863
 30
0.0
 11
-277.146758
 21
259.577246
 31
0.0
  0
LINE
  5
25B
100
AcDbEntity
  8
2
100
AcDbLine
 10
-273.146758
 20
305.765813
 30
0.0
 11
-273.146758
 21
307.90943
 31
0.0
  0
LINE
  5
25C
100
AcDbEntity
  8
2
100
AcDbLine
 10
-277.146758
 20
305.765813
 30
0.0
 11
-277.146758
 21
307.90943
 31
0.0
  0
ARC
  5
25D
100
AcDbEntity
  8
2
100
AcDbCircle
 10
134.503242
 20
-3.756662
 30
0.0
 40
18.0
100
AcDbArc
 50
0.0
 51
180.0
  0
LINE
  5
25E
100
AcDbEntity
  8
2
100
AcDbLine
 10
116.503242
 20
-3.756662
 30
0.0
 11
116.503242
 21
-21.756662
 31
0.0
  0
LINE
  5
25F
100
AcDbEntity
  8
2
100
AcDbLine
 10
152.503242
 20
-3.756662
 30
0.0
 11
152.503242
 21
-21.756662
 31
0.0
  0
ARC
  5
260
100
AcDbEntity
  8
2
100
AcDbCircle
 10
94.503242
 20
-3.756662
 30
0.0
 40
18.0
100
AcDbArc
 50
0.0
 51
180.0
  0
LINE
  5
261
100
AcDbEntity
  8
2
100
AcDbLine
 10
76.503242
 20
-3.756662
 30
0.0
 11
76.503242
 21
-21.756662
 31
0.0
  0
LINE
  5
262
100
AcDbEntity
  8
2
100
AcDbLine
 10
112.503242
 20
-3.756662
 30
0.0
 11
112.503242
 21
-21.756662
 31
0.0
  0
LINE
  5
263
100
AcDbEntity
  8
2
100
AcDbLine
 10
66.503242
 20
-21.756662
 30
0.0
 11
157.503242
 21
-21.756662
 31
0.0
  0
LINE
  5
264
100
AcDbEntity
  8
2
100
AcDbLine
 10
163.503242
 20
-27.756662
 30
0.0
 11
163.503242
 21
-94.756662
 31
0.0
  0
LINE
  5
265
100
AcDbEntity
  8
2
100
AcDbLine
 10
157.503242
 20
-92.756662
 30
0.0
 11
66.503242
 21
-92.756662
 31
0.0
  0
LINE
  5
266
100
AcDbEntity
  8
2
100
AcDbLine
 10
60.503242
 20
-86.756662
 30
0.0
 11
60.503242
 21
-27.756662
 31
0.0
  0
LINE
  5
267
100
AcDbEntity
  8
2
100
AcDbLine
 10
164.503242
 20
16.243338
 30
0.0
 11
64.503242
 21
16.243338
 31
0.0
  0
LINE
  5
268
100
AcDbEntity
  8
2
100
AcDbLine
 10
163.503242
 20
11.243338
 30
0.0
 11
147.303242
 21
11.243338
 31
0.0
  0
LINE
  5
269
100
AcDbEntity
  8
2
100
AcDbLine
 10
122.603242
 20
11.243338
 30
0.0
 11
106.403242
 21
11.243338
 31
0.0
  0
LINE
  5
26A
100
AcDbEntity
  8
2
100
AcDbLine
 10
81.703242
 20
11.243338
 30
0.0
 11
65.503242
 21
11.243338
 31
0.0
  0
LINE
  5
26B
100
AcDbEntity
  8
2
100
AcDbLine
 10
64.503242
 20
19.243338
 30
0.0
 11
64.503242
 21
-19.756662
 31
0.0
  0
LINE
  5
26C
100
AcDbEntity
  8
2
100
AcDbLine
 10
162.503242
 20
10.243338
 30
0.0
 11
162.503242
 21
-24.456662
 31
0.0
  0
LINE
  5
26D
100
AcDbEntity
  8
2
100
AcDbLine
 10
164.503242
 20
19.243338
 30
0.0
 11
164.503242
 21
12.243338
 31
0.0
  0
LINE
  5
26E
100
AcDbEntity
  8
2
100
AcDbLine
 10
88.003242
 20
-52.256662
 30
0.0
 11
135.003242
 21
-52.256662
 31
0.0
  0
LINE
  5
26F
100
AcDbEntity
  8
2
100
AcDbLine
 10
136.503242
 20
-53.756662
 30
0.0
 11
136.503242
 21
-60.756662
 31
0.0
  0
LINE
  5
270
100
AcDbEntity
  8
2
100
AcDbLine
 10
135.003242
 20
-62.256662
 30
0.0
 11
88.003242
 21
-62.256662
 31
0.0
  0
LINE
  5
271
100
AcDbEntity
  8
2
100
AcDbLine
 10
86.503242
 20
-60.756662
 30
0.0
 11
86.503242
 21
-53.756662
 31
0.0
  0
LINE
  5
272
100
AcDbEntity
  8
2
100
AcDbLine
 10
146.503242
 20
-104.756662
 30
0.0
 11
146.503242
 21
-98.756662
 31
0.0
  0
ARC
  5
273
100
AcDbEntity
  8
2
100
AcDbCircle
 10
148.503242
 20
-98.756662
 30
0.0
 40
2.0
100
AcDbArc
 50
90.0
 51
180.0
  0
LINE
  5
274
100
AcDbEntity
  8
2
100
AcDbLine
 10
76.503242
 20
-98.756662
 30
0.0
 11
76.503242
 21
-104.756662
 31
0.0
  0
ARC
  5
275
100
AcDbEntity
  8
2
100
AcDbCircle
 10
74.503242
 20
-98.756662
 30
0.0
 40
2.0
100
AcDbArc
 50
0.0
 51
90.0
  0
LINE
  5
276
100
AcDbEntity
  8
2
100
AcDbLine
 10
62.503242
 20
-96.756662
 30
0.0
 11
161.503242
 21
-96.756662
 31
0.0
  0
ARC
  5
277
100
AcDbEntity
  8
2
100
AcDbCircle
 10
161.503242
 20
-94.756662
 30
0.0
 40
2.0
100
AcDbArc
 50
270.0
 51
360.0
  0
LINE
  5
278
100
AcDbEntity
  8
2
100
AcDbLine
 10
60.503242
 20
-94.756662
 30
0.0
 11
60.503242
 21
-90.756662
 31
0.0
  0
CIRCLE
  5
279
100
AcDbEntity
  8
2
100
AcDbCircle
 10
-234.146758
 20
-43.756662
 30
0.0
 40
35.0
  0
LINE
  5
27A
100
AcDbEntity
  8
2
100
AcDbLine
 10
-404.646758
 20
337.743338
 30
0.0
 11
-404.646758
 21
330.743338
 31
0.0
  0
ARC
  5
27B
100
AcDbEntity
  8
2
100
AcDbCircle
 10
-402.646758
 20
330.743338
 30
0.0
 40
2.0
100
AcDbArc
 50
180.0
 51
270.0
  0
LINE
  5
27C
100
AcDbEntity
  8
2
100
AcDbLine
 10
-402.646758
 20
328.743338
 30
0.0
 11
-400.034258
 21
328.743338
 31
0.0
  0
LINE
  5
27D
100
AcDbEntity
  8
2
100
AcDbLine
 10
-399.146758
 20
325.743338
 30
0.0
 11
-399.146758
 21
255.743338
 31
0.0
  0
ARC
  5
27E
100
AcDbEntity
  8
2
100
AcDbCircle
 10
-402.146758
 20
325.743338
 30
0.0
 40
3.0
100
AcDbArc
 50
0.0
 51
90.0
  0
LINE
  5
27F
100
AcDbEntity
  8
2
100
AcDbLine
 10
-409.146758
 20
234.743338
 30
0.0
 11
-409.146758
 21
250.743338
 31
0.0
  0
LINE
  5
280
100
AcDbEntity
  8
2
100
AcDbLine
 10
-413.146758
 20
239.743338
 30
0.0
 11
-413.146758
 21
327.743338
 31
0.0
  0
LINE
  5
281
100
AcDbEntity
  8
2
100
AcDbLine
 10
-246.612104
 20
179.743338
 30
0.0
 11
-221.681412
 21
179.743338
 31
0.0
  0
LINE
  5
282
100
AcDbEntity
  8
2
100
AcDbLine
 10
-228.146758
 20
173.743338
 30
0.0
 11
-228.146758
 21
179.743338
 31
0.0
  0
LINE
  5
283
100
AcDbEntity
  8
2
100
AcDbLine
 10
-240.146758
 20
179.743338
 30
0.0
 11
-240.146758
 21
173.743338
 31
0.0
  0
LINE
  5
284
100
AcDbEntity
  8
2
100
AcDbLine
 10
-225.146758
 20
173.743338
 30
0.0
 11
-234.146758
 21
173.743338
 31
0.0
  0
LINE
  5
285
100
AcDbEntity
  8
2
100
AcDbLine
 10
-225.146758
 20
173.743338
 30
0.0
 11
-224.146758
 21
172.743338
 31
0.0
  0
LINE
  5
286
100
AcDbEntity
  8
2
100
AcDbLine
 10
-224.146758
 20
166.293338
 30
0.0
 11
-224.146758
 21
172.743338
 31
0.0
  0
ARC
  5
287
100
AcDbEntity
  8
2
100
AcDbCircle
 10
-234.546758
 20
254.543338
 30
0.0
 40
100.0
100
AcDbArc
 50
284.533747
 51
289.094774
  0
LINE
  5
288
100
AcDbEntity
  8
2
100
AcDbLine
 10
-204.296758
 20
167.793338
 30
0.0
 11
-204.840372
 21
167.793338
 31
0.0
  0
LINE
  5
289
100
AcDbEntity
  8
2
100
AcDbLine
 10
-214.660633
 20
167.793338
 30
0.0
 11
-217.490086
 21
167.793338
 31
0.0
  0
LINE
  5
28A
100
AcDbEntity
  8
2
100
AcDbLine
 10
-232.596758
 20
167.093338
 30
0.0
 11
-232.446758
 21
165.143338
 31
0.0
  0
ARC
  5
28B
100
AcDbEntity
  8
2
100
AcDbCircle
 10
-230.446758
 20
165.293338
 30
0.0
 40
2.0
100
AcDbArc
 50
184.377778
 51
270.0
  0
ARC
  5
28C
100
AcDbEntity
  8
2
100
AcDbCircle
 10
-232.096758
 20
167.143338
 30
0.0
 40
0.5
100
AcDbArc
 50
66.588889
 51
184.533333
  0
LINE
  5
28D
100
AcDbEntity
  8
2
100
AcDbLine
 10
-230.446758
 20
163.293338
 30
0.0
 11
-216.142014
 21
163.293338
 31
0.0
  0
ARC
  5
28E
100
AcDbEntity
  8
2
100
AcDbCircle
 10
-220.096758
 20
163.693338
 30
0.0
 40
5.0
100
AcDbArc
 50
8.626927
 51
51.90371
  0
ARC
  5
28F
100
AcDbEntity
  8
2
100
AcDbCircle
 10
-222.396758
 20
174.293338
 30
0.0
 40
8.0
100
AcDbArc
 50
270.0
 51
303.997432
  0
ARC
  5
290
100
AcDbEntity
  8
2
100
AcDbCircle
 10
-225.546758
 20
182.293338
 30
0.0
 40
16.0
100
AcDbArc
 50
246.588889
 51
270.0
  0
LINE
  5
291
100
AcDbEntity
  8
2
100
AcDbLine
 10
-225.546758
 20
166.293338
 30
0.0
 11
-222.396758
 21
166.293338
 31
0.0
  0
ARC
  5
292
100
AcDbEntity
  8
2
100
AcDbCircle
 10
-217.146758
 20
163.443338
 30
0.0
 40
5.0
100
AcDbArc
 50
6.434596
 51
51.566794
  0
ARC
  5
293
100
AcDbEntity
  8
2
100
AcDbCircle
 10
-205.496758
 20
163.793338
 30
0.0
 40
4.0
100
AcDbArc
 50
359.766667
 51
83.012597
  0
ARC
  5
294
100
AcDbEntity
  8
2
100
AcDbCircle
 10
-204.296758
 20
163.793338
 30
0.0
 40
4.0
100
AcDbArc
 50
6.423158
 51
90.0
  0
LINE
  5
295
100
AcDbEntity
  8
2
100
AcDbLine
 10
-211.383296
 20
163.293338
 30
0.0
 11
-201.996758
 21
163.293338
 31
0.0
  0
ARC
  5
296
100
AcDbEntity
  8
2
100
AcDbCircle
 10
-201.996758
 20
163.793338
 30
0.0
 40
0.5
100
AcDbArc
 50
270.0
 51
359.766667
  0
ARC
  5
297
100
AcDbEntity
  8
2
100
AcDbCircle
 10
-206.996758
 20
168.093338
 30
0.0
 40
1.8
100
AcDbArc
 50
270.0
 51
339.645594
  0
ARC
  5
298
100
AcDbEntity
  8
2
100
AcDbCircle
 10
-207.896758
 20
182.293338
 30
0.0
 40
16.0
100
AcDbArc
 50
244.992167
 51
270.0
  0
LINE
  5
299
100
AcDbEntity
  8
2
100
AcDbLine
 10
-207.896758
 20
166.293338
 30
0.0
 11
-206.996758
 21
166.293338
 31
0.0
  0
LINE
  5
29A
100
AcDbEntity
  8
2
100
AcDbLine
 10
-205.996758
 20
159.943338
 30
0.0
 11
-262.446758
 21
159.943338
 31
0.0
  0
LINE
  5
29B
100
AcDbEntity
  8
2
100
AcDbLine
 10
-243.146758
 20
173.743338
 30
0.0
 11
-234.146758
 21
173.743338
 31
0.0
  0
LINE
  5
29C
100
AcDbEntity
  8
2
100
AcDbLine
 10
-243.146758
 20
173.743338
 30
0.0
 11
-244.146758
 21
172.743338
 31
0.0
  0
LINE
  5
29D
100
AcDbEntity
  8
2
100
AcDbLine
 10
-244.146758
 20
166.293338
 30
0.0
 11
-244.146758
 21
172.743338
 31
0.0
  0
ARC
  5
29E
100
AcDbEntity
  8
2
100
AcDbCircle
 10
-233.746758
 20
254.543338
 30
0.0
 40
100.0
100
AcDbArc
 50
250.905226
 51
255.466253
  0
LINE
  5
29F
100
AcDbEntity
  8
2
100
AcDbLine
 10
-263.996758
 20
167.793338
 30
0.0
 11
-263.453144
 21
167.793338
 31
0.0
  0
LINE
  5
2A0
100
AcDbEntity
  8
2
100
AcDbLine
 10
-253.632884
 20
167.793338
 30
0.0
 11
-250.803431
 21
167.793338
 31
0.0
  0
LINE
  5
2A1
100
AcDbEntity
  8
2
100
AcDbLine
 10
-209.451739
 20
157.743338
 30
0.0
 11
-258.841778
 21
157.743338
 31
0.0
  0
LINE
  5
2A2
100
AcDbEntity
  8
2
100
AcDbLine
 10
-235.696758
 20
167.093338
 30
0.0
 11
-235.846758
 21
165.143338
 31
0.0
  0
ARC
  5
2A3
100
AcDbEntity
  8
2
100
AcDbCircle
 10
-237.846758
 20
165.293338
 30
0.0
 40
2.0
100
AcDbArc
 50
270.0
 51
355.622222
  0
ARC
  5
2A4
100
AcDbEntity
  8
2
100
AcDbCircle
 10
-236.196758
 20
167.143338
 30
0.0
 40
0.5
100
AcDbArc
 50
355.466667
 51
113.411111
  0
LINE
  5
2A5
100
AcDbEntity
  8
2
100
AcDbLine
 10
-237.846758
 20
163.293338
 30
0.0
 11
-252.151502
 21
163.293338
 31
0.0
  0
ARC
  5
2A6
100
AcDbEntity
  8
2
100
AcDbCircle
 10
-248.196758
 20
163.693338
 30
0.0
 40
5.0
100
AcDbArc
 50
128.09629
 51
171.373073
  0
ARC
  5
2A7
100
AcDbEntity
  8
2
100
AcDbCircle
 10
-245.896758
 20
174.293338
 30
0.0
 40
8.0
100
AcDbArc
 50
236.002568
 51
270.0
  0
ARC
  5
2A8
100
AcDbEntity
  8
2
100
AcDbCircle
 10
-242.746758
 20
182.293338
 30
0.0
 40
16.0
100
AcDbArc
 50
270.0
 51
293.411111
  0
LINE
  5
2A9
100
AcDbEntity
  8
2
100
AcDbLine
 10
-242.746758
 20
166.293338
 30
0.0
 11
-245.896758
 21
166.293338
 31
0.0
  0
ARC
  5
2AA
100
AcDbEntity
  8
2
100
AcDbCircle
 10
-251.146758
 20
163.443338
 30
0.0
 40
5.0
100
AcDbArc
 50
128.433206
 51
173.565404
  0
ARC
  5
2AB
100
AcDbEntity
  8
2
100
AcDbCircle
 10
-262.796758
 20
163.793338
 30
0.0
 40
4.0
100
AcDbArc
 50
96.987403
 51
180.233333
  0
ARC
  5
2AC
100
AcDbEntity
  8
2
100
AcDbCircle
 10
-263.996758
 20
163.793338
 30
0.0
 40
4.0
100
AcDbArc
 50
90.0
 51
173.576842
  0
LINE
  5
2AD
100
AcDbEntity
  8
2
100
AcDbLine
 10
-256.910221
 20
163.293338
 30
0.0
 11
-266.296758
 21
163.293338
 31
0.0
  0
ARC
  5
2AE
100
AcDbEntity
  8
2
100
AcDbCircle
 10
-266.296758
 20
163.793338
 30
0.0
 40
0.5
100
AcDbArc
 50
180.233333
 51
270.0
  0
ARC
  5
2AF
100
AcDbEntity
  8
2
100
AcDbCircle
 10
-261.296758
 20
168.093338
 30
0.0
 40
1.8
100
AcDbArc
 50
200.354406
 51
270.0
  0
ARC
  5
2B0
100
AcDbEntity
  8
2
100
AcDbCircle
 10
-260.396758
 20
182.293338
 30
0.0
 40
16.0
100
AcDbArc
 50
270.0
 51
295.007833
  0
LINE
  5
2B1
100
AcDbEntity
  8
2
100
AcDbLine
 10
-260.396758
 20
166.293338
 30
0.0
 11
-261.296758
 21
166.293338
 31
0.0
  0
LINE
  5
2B2
100
AcDbEntity
  8
2
100
AcDbLine
 10
1.503242
 20
-37.756662
 30
0.0
 11
7.503242
 21
-37.756662
 31
0.0
  0
LINE
  5
2B3
100
AcDbEntity
  8
2
100
AcDbLine
 10
7.503242
 20
-49.756662
 30
0.0
 11
1.503242
 21
-49.756662
 31
0.0
  0
LINE
  5
2B4
100
AcDbEntity
  8
2
100
AcDbLine
 10
-5.946758
 20
-33.756662
 30
0.0
 11
0.503242
 21
-33.756662
 31
0.0
  0
LINE
  5
2B5
100
AcDbEntity
  8
2
100
AcDbLine
 10
-5.946758
 20
-53.756662
 30
0.0
 11
0.503242
 21
-53.756662
 31
0.0
  0
LINE
  5
2B6
100
AcDbEntity
  8
2
100
AcDbLine
 10
-310.146758
 20
-104.756662
 30
0.0
 11
-310.146758
 21
-102.120902
 31
0.0
  0
LINE
  5
2B7
100
AcDbEntity
  8
2
100
AcDbLine
 10
-180.146758
 20
9.243338
 30
0.0
 11
-180.146758
 21
-16.756662
 31
0.0
  0
LINE
  5
2B8
100
AcDbEntity
  8
2
100
AcDbLine
 10
-185.146758
 20
9.243338
 30
0.0
 11
-185.146758
 21
-16.756662
 31
0.0
  0
LINE
  5
2B9
100
AcDbEntity
  8
2
100
AcDbLine
 10
-180.146758
 20
-16.756662
 30
0.0
 11
-185.146758
 21
-16.756662
 31
0.0
  0
LINE
  5
2BA
100
AcDbEntity
  8
2
100
AcDbLine
 10
-180.146758
 20
9.243338
 30
0.0
 11
-185.146758
 21
9.243338
 31
0.0
  0
LINE
  5
2BB
100
AcDbEntity
  8
2
100
AcDbLine
 10
-185.146758
 20
5.243338
 30
0.0
 11
-188.146758
 21
5.243338
 31
0.0
  0
LINE
  5
2BC
100
AcDbEntity
  8
2
100
AcDbLine
 10
-188.146758
 20
-12.756662
 30
0.0
 11
-185.146758
 21
-12.756662
 31
0.0
  0
ARC
  5
2BD
100
AcDbEntity
  8
2
100
AcDbCircle
 10
-198.350925
 20
-10.256662
 30
0.0
 40
18.204167
100
AcDbArc
 50
339.080182
 51
20.919818
  0
ARC
  5
2BE
100
AcDbEntity
  8
2
100
AcDbCircle
 10
-198.350925
 20
2.743338
 30
0.0
 40
18.204167
100
AcDbArc
 50
339.080182
 51
20.919818
  0
LINE
  5
2BF
100
AcDbEntity
  8
2
100
AcDbLine
 10
-180.146758
 20
253.743338
 30
0.0
 11
-180.146758
 21
279.743338
 31
0.0
  0
LINE
  5
2C0
100
AcDbEntity
  8
2
100
AcDbLine
 10
-185.146758
 20
251.732231
 30
0.0
 11
-185.146758
 21
281.754445
 31
0.0
  0
LINE
  5
2C1
100
AcDbEntity
  8
2
100
AcDbLine
 10
-181.307871
 20
281.754445
 30
0.0
 11
-185.146758
 21
281.754445
 31
0.0
  0
LINE
  5
2C2
100
AcDbEntity
  8
2
100
AcDbLine
 10
-181.307871
 20
274.248892
 30
0.0
 11
-185.146758
 21
274.248892
 31
0.0
  0
LINE
  5
2C3
100
AcDbEntity
  8
2
100
AcDbLine
 10
-181.307871
 20
259.237785
 30
0.0
 11
-185.146758
 21
259.237785
 31
0.0
  0
LINE
  5
2C4
100
AcDbEntity
  8
2
100
AcDbLine
 10
-181.307871
 20
251.732231
 30
0.0
 11
-185.146758
 21
251.732231
 31
0.0
  0
LINE
  5
2C5
100
AcDbEntity
  8
2
100
AcDbLine
 10
-180.146758
 20
279.743338
 30
0.0
 11
-181.307871
 21
281.754445
 31
0.0
  0
LINE
  5
2C6
100
AcDbEntity
  8
2
100
AcDbLine
 10
-180.146758
 20
253.743338
 30
0.0
 11
-181.307871
 21
251.732231
 31
0.0
  0
ARC
  5
2C7
100
AcDbEntity
  8
2
100
AcDbCircle
 10
-204.985645
 20
266.743338
 30
0.0
 40
24.838887
100
AcDbArc
 50
342.412046
 51
17.587954
  0
ARC
  5
2C8
100
AcDbEntity
  8
2
100
AcDbCircle
 10
-186.791894
 20
278.001668
 30
0.0
 40
6.645136
100
AcDbArc
 50
325.615736
 51
34.384264
  0
ARC
  5
2C9
100
AcDbEntity
  8
2
100
AcDbCircle
 10
-186.791894
 20
255.485008
 30
0.0
 40
6.645136
100
AcDbArc
 50
325.615736
 51
34.384264
  0
LINE
  5
2CA
100
AcDbEntity
  8
2
100
AcDbLine
 10
-185.146758
 20
257.743338
 30
0.0
 11
-188.146758
 21
257.743338
 31
0.0
  0
LINE
  5
2CB
100
AcDbEntity
  8
2
100
AcDbLine
 10
-188.146758
 20
275.743338
 30
0.0
 11
-185.146758
 21
275.743338
 31
0.0
  0
LINE
  5
2CC
100
AcDbEntity
  8
2
100
AcDbLine
 10
-180.146758
 20
293.743338
 30
0.0
 11
-180.146758
 21
319.743338
 31
0.0
  0
LINE
  5
2CD
100
AcDbEntity
  8
2
100
AcDbLine
 10
-185.146758
 20
291.732231
 30
0.0
 11
-185.146758
 21
321.754445
 31
0.0
  0
LINE
  5
2CE
100
AcDbEntity
  8
2
100
AcDbLine
 10
-181.307871
 20
321.754445
 30
0.0
 11
-185.146758
 21
321.754445
 31
0.0
  0
LINE
  5
2CF
100
AcDbEntity
  8
2
100
AcDbLine
 10
-181.307871
 20
314.248892
 30
0.0
 11
-185.146758
 21
314.248892
 31
0.0
  0
LINE
  5
2D0
100
AcDbEntity
  8
2
100
AcDbLine
 10
-181.307871
 20
299.237785
 30
0.0
 11
-185.146758
 21
299.237785
 31
0.0
  0
LINE
  5
2D1
100
AcDbEntity
  8
2
100
AcDbLine
 10
-181.307871
 20
291.732231
 30
0.0
 11
-185.146758
 21
291.732231
 31
0.0
  0
LINE
  5
2D2
100
AcDbEntity
  8
2
100
AcDbLine
 10
-180.146758
 20
319.743338
 30
0.0
 11
-181.307871
 21
321.754445
 31
0.0
  0
LINE
  5
2D3
100
AcDbEntity
  8
2
100
AcDbLine
 10
-180.146758
 20
293.743338
 30
0.0
 11
-181.307871
 21
291.732231
 31
0.0
  0
ARC
  5
2D4
100
AcDbEntity
  8
2
100
AcDbCircle
 10
-204.985645
 20
306.743338
 30
0.0
 40
24.838887
100
AcDbArc
 50
342.412046
 51
17.587954
  0
ARC
  5
2D5
100
AcDbEntity
  8
2
100
AcDbCircle
 10
-186.791894
 20
318.001668
 30
0.0
 40
6.645136
100
AcDbArc
 50
325.615736
 51
34.384264
  0
ARC
  5
2D6
100
AcDbEntity
  8
2
100
AcDbCircle
 10
-186.791894
 20
295.485008
 30
0.0
 40
6.645136
100
AcDbArc
 50
325.615736
 51
34.384264
  0
LINE
  5
2D7
100
AcDbEntity
  8
2
100
AcDbLine
 10
-185.146758
 20
297.743338
 30
0.0
 11
-188.146758
 21
297.743338
 31
0.0
  0
LINE
  5
2D8
100
AcDbEntity
  8
2
100
AcDbLine
 10
-188.146758
 20
315.743338
 30
0.0
 11
-185.146758
 21
315.743338
 31
0.0
  0
CIRCLE
  5
2D9
100
AcDbEntity
  8
2
100
AcDbCircle
 10
134.503242
 20
-3.756662
 30
0.0
 40
13.0
  0
LINE
  5
2DA
100
AcDbEntity
  8
2
100
AcDbLine
 10
126.997688
 20
9.243338
 30
0.0
 11
119.492135
 21
-3.756662
 31
0.0
  0
LINE
  5
2DB
100
AcDbEntity
  8
2
100
AcDbLine
 10
142.008795
 20
9.243338
 30
0.0
 11
126.997688
 21
9.243338
 31
0.0
  0
LINE
  5
2DC
100
AcDbEntity
  8
2
100
AcDbLine
 10
149.514349
 20
-3.756662
 30
0.0
 11
142.008795
 21
9.243338
 31
0.0
  0
LINE
  5
2DD
100
AcDbEntity
  8
2
100
AcDbLine
 10
142.008795
 20
-16.756662
 30
0.0
 11
149.514349
 21
-3.756662
 31
0.0
  0
LINE
  5
2DE
100
AcDbEntity
  8
2
100
AcDbLine
 10
126.997688
 20
-16.756662
 30
0.0
 11
142.008795
 21
-16.756662
 31
0.0
  0
LINE
  5
2DF
100
AcDbEntity
  8
2
100
AcDbLine
 10
119.492135
 20
-3.756662
 30
0.0
 11
126.997688
 21
-16.756662
 31
0.0
  0
CIRCLE
  5
2E0
100
AcDbEntity
  8
2
100
AcDbCircle
 10
94.503242
 20
-3.756662
 30
0.0
 40
13.0
  0
LINE
  5
2E1
100
AcDbEntity
  8
2
100
AcDbLine
 10
86.997688
 20
9.243338
 30
0.0
 11
79.492135
 21
-3.756662
 31
0.0
  0
LINE
  5
2E2
100
AcDbEntity
  8
2
100
AcDbLine
 10
102.008795
 20
9.243338
 30
0.0
 11
86.997688
 21
9.243338
 31
0.0
  0
LINE
  5
2E3
100
AcDbEntity
  8
2
100
AcDbLine
 10
109.514349
 20
-3.756662
 30
0.0
 11
102.008795
 21
9.243338
 31
0.0
  0
LINE
  5
2E4
100
AcDbEntity
  8
2
100
AcDbLine
 10
102.008795
 20
-16.756662
 30
0.0
 11
109.514349
 21
-3.756662
 31
0.0
  0
LINE
  5
2E5
100
AcDbEntity
  8
2
100
AcDbLine
 10
86.997688
 20
-16.756662
 30
0.0
 11
102.008795
 21
-16.756662
 31
0.0
  0
LINE
  5
2E6
100
AcDbEntity
  8
2
100
AcDbLine
 10
79.492135
 20
-3.756662
 30
0.0
 11
86.997688
 21
-16.756662
 31
0.0
  0
LINE
  5
2E7
100
AcDbEntity
  8
2
100
AcDbLine
 10
-244.146758
 20
172.743338
 30
0.0
 11
-224.146758
 21
172.743338
 31
0.0
  0
LINE
  5
2E8
100
AcDbEntity
  8
2
100
AcDbLine
 10
-232.096758
 20
167.643338
 30
0.0
 11
-236.196758
 21
167.643338
 31
0.0
  0
ARC
  5
2E9
100
AcDbEntity
  8
2
100
AcDbCircle
 10
-268.468511
 20
164.296756
 30
0.0
 40
0.5
100
AcDbArc
 50
261.701798
 51
353.576842
  0
ARC
  5
2EA
100
AcDbEntity
  8
2
100
AcDbCircle
 10
-268.612836
 20
163.307226
 30
0.0
 40
0.5
100
AcDbArc
 50
81.701798
 51
188.513567
  0
ARC
  5
2EB
100
AcDbEntity
  8
2
100
AcDbCircle
 10
-263.453144
 20
167.293338
 30
0.0
 40
0.5
100
AcDbArc
 50
20.354406
 51
90.0
  0
ARC
  5
2EC
100
AcDbEntity
  8
2
100
AcDbCircle
 10
-256.910221
 20
164.093338
 30
0.0
 40
0.8
100
AcDbArc
 50
270.0
 51
353.565404
  0
ARC
  5
2ED
100
AcDbEntity
  8
2
100
AcDbCircle
 10
-250.803431
 20
167.018194
 30
0.0
 40
0.775144
100
AcDbArc
 50
56.002568
 51
128.09629
  0
ARC
  5
2EE
100
AcDbEntity
  8
2
100
AcDbCircle
 10
-253.011564
 20
165.793338
 30
0.0
 40
2.0
100
AcDbArc
 50
90.0
 51
128.433206
  0
ARC
  5
2EF
100
AcDbEntity
  8
2
100
AcDbCircle
 10
-217.490086
 20
167.018194
 30
0.0
 40
0.775144
100
AcDbArc
 50
51.90371
 51
123.997432
  0
ARC
  5
2F0
100
AcDbEntity
  8
2
100
AcDbCircle
 10
-215.281953
 20
165.793338
 30
0.0
 40
2.0
100
AcDbArc
 50
51.566794
 51
90.0
  0
ARC
  5
2F1
100
AcDbEntity
  8
2
100
AcDbCircle
 10
-211.383296
 20
164.093338
 30
0.0
 40
0.8
100
AcDbArc
 50
186.434596
 51
270.0
  0
ARC
  5
2F2
100
AcDbEntity
  8
2
100
AcDbCircle
 10
-204.840372
 20
167.293338
 30
0.0
 40
0.5
100
AcDbArc
 50
90.0
 51
159.645594
  0
ARC
  5
2F3
100
AcDbEntity
  8
2
100
AcDbCircle
 10
-199.825006
 20
164.296756
 30
0.0
 40
0.5
100
AcDbArc
 50
186.423158
 51
278.298202
  0
ARC
  5
2F4
100
AcDbEntity
  8
2
100
AcDbCircle
 10
-199.680681
 20
163.307226
 30
0.0
 40
0.5
100
AcDbArc
 50
351.486433
 51
98.298202
  0
ARC
  5
2F5
100
AcDbEntity
  8
2
100
AcDbCircle
 10
-203.142114
 20
163.825378
 30
0.0
 40
4.0
100
AcDbArc
 50
289.094774
 51
351.486433
  0
ARC
  5
2F6
100
AcDbEntity
  8
2
100
AcDbCircle
 10
-216.142014
 20
164.293338
 30
0.0
 40
1.0
100
AcDbArc
 50
270.0
 51
8.626927
  0
ARC
  5
2F7
100
AcDbEntity
  8
2
100
AcDbCircle
 10
-265.151403
 20
163.825378
 30
0.0
 40
4.0
100
AcDbArc
 50
188.513567
 51
250.905226
  0
ARC
  5
2F8
100
AcDbEntity
  8
2
100
AcDbCircle
 10
-252.151502
 20
164.293338
 30
0.0
 40
1.0
100
AcDbArc
 50
171.373073
 51
270.0
  0
LINE
  5
2F9
100
AcDbEntity
  8
2
100
AcDbLine
 10
-181.346758
 20
-3.756662
 30
0.0
 11
-185.146758
 21
-3.756662
 31
0.0
  0
ARC
  5
2FA
100
AcDbEntity
  8
2
100
AcDbCircle
 10
82.303242
 20
-43.356662
 30
0.0
 40
100.0
100
AcDbArc
 50
194.533747
 51
199.094774
  0
LINE
  5
2FB
100
AcDbEntity
  8
2
100
AcDbLine
 10
-4.446758
 20
-73.606662
 30
0.0
 11
-4.446758
 21
-73.063048
 31
0.0
  0
LINE
  5
2FC
100
AcDbEntity
  8
2
100
AcDbLine
 10
-4.446758
 20
-63.242787
 30
0.0
 11
-4.446758
 21
-60.413334
 31
0.0
  0
LINE
  5
2FD
100
AcDbEntity
  8
2
100
AcDbLine
 10
-5.146758
 20
-45.306662
 30
0.0
 11
-7.096758
 21
-45.456662
 31
0.0
  0
ARC
  5
2FE
100
AcDbEntity
  8
2
100
AcDbCircle
 10
-6.946758
 20
-47.456662
 30
0.0
 40
2.0
100
AcDbArc
 50
94.377778
 51
180.0
  0
ARC
  5
2FF
100
AcDbEntity
  8
2
100
AcDbCircle
 10
-5.096758
 20
-45.806662
 30
0.0
 40
0.5
100
AcDbArc
 50
336.588889
 51
94.533333
  0
LINE
  5
300
100
AcDbEntity
  8
2
100
AcDbLine
 10
-8.946758
 20
-47.456662
 30
0.0
 11
-8.946758
 21
-61.761406
 31
0.0
  0
ARC
  5
301
100
AcDbEntity
  8
2
100
AcDbCircle
 10
-8.546758
 20
-57.806662
 30
0.0
 40
5.0
100
AcDbArc
 50
278.626927
 51
321.90371
  0
ARC
  5
302
100
AcDbEntity
  8
2
100
AcDbCircle
 10
2.053242
 20
-55.506662
 30
0.0
 40
8.0
100
AcDbArc
 50
180.0
 51
213.997432
  0
ARC
  5
303
100
AcDbEntity
  8
2
100
AcDbCircle
 10
10.053242
 20
-52.356662
 30
0.0
 40
16.0
100
AcDbArc
 50
156.588889
 51
180.0
  0
LINE
  5
304
100
AcDbEntity
  8
2
100
AcDbLine
 10
-5.946758
 20
-52.356662
 30
0.0
 11
-5.946758
 21
-55.506662
 31
0.0
  0
ARC
  5
305
100
AcDbEntity
  8
2
100
AcDbCircle
 10
-8.796758
 20
-60.756662
 30
0.0
 40
5.0
100
AcDbArc
 50
276.434596
 51
321.566794
  0
ARC
  5
306
100
AcDbEntity
  8
2
100
AcDbCircle
 10
-8.446758
 20
-72.406662
 30
0.0
 40
4.0
100
AcDbArc
 50
269.766667
 51
353.012597
  0
ARC
  5
307
100
AcDbEntity
  8
2
100
AcDbCircle
 10
-8.446758
 20
-73.606662
 30
0.0
 40
4.0
100
AcDbArc
 50
276.423158
 51
360.0
  0
LINE
  5
308
100
AcDbEntity
  8
2
100
AcDbLine
 10
-8.946758
 20
-66.520124
 30
0.0
 11
-8.946758
 21
-75.906662
 31
0.0
  0
ARC
  5
309
100
AcDbEntity
  8
2
100
AcDbCircle
 10
-8.446758
 20
-75.906662
 30
0.0
 40
0.5
100
AcDbArc
 50
180.0
 51
269.766667
  0
ARC
  5
30A
100
AcDbEntity
  8
2
100
AcDbCircle
 10
-4.146758
 20
-70.906662
 30
0.0
 40
1.8
100
AcDbArc
 50
180.0
 51
249.645594
  0
ARC
  5
30B
100
AcDbEntity
  8
2
100
AcDbCircle
 10
10.053242
 20
-70.006662
 30
0.0
 40
16.0
100
AcDbArc
 50
154.992167
 51
180.0
  0
LINE
  5
30C
100
AcDbEntity
  8
2
100
AcDbLine
 10
-5.946758
 20
-70.006662
 30
0.0
 11
-5.946758
 21
-70.906662
 31
0.0
  0
LINE
  5
30D
100
AcDbEntity
  8
2
100
AcDbLine
 10
-12.296758
 20
-71.906662
 30
0.0
 11
-12.296758
 21
-15.456662
 31
0.0
  0
ARC
  5
30E
100
AcDbEntity
  8
2
100
AcDbCircle
 10
82.303242
 20
-44.156662
 30
0.0
 40
100.0
100
AcDbArc
 50
160.905226
 51
165.466253
  0
LINE
  5
30F
100
AcDbEntity
  8
2
100
AcDbLine
 10
-4.446758
 20
-13.906662
 30
0.0
 11
-4.446758
 21
-14.450276
 31
0.0
  0
LINE
  5
310
100
AcDbEntity
  8
2
100
AcDbLine
 10
-4.446758
 20
-24.270536
 30
0.0
 11
-4.446758
 21
-27.099989
 31
0.0
  0
LINE
  5
311
100
AcDbEntity
  8
2
100
AcDbLine
 10
-14.496758
 20
-68.451681
 30
0.0
 11
-14.496758
 21
-19.061642
 31
0.0
  0
LINE
  5
312
100
AcDbEntity
  8
2
100
AcDbLine
 10
-5.146758
 20
-42.206662
 30
0.0
 11
-7.096758
 21
-42.056662
 31
0.0
  0
ARC
  5
313
100
AcDbEntity
  8
2
100
AcDbCircle
 10
-6.946758
 20
-40.056662
 30
0.0
 40
2.0
100
AcDbArc
 50
180.0
 51
265.622222
  0
ARC
  5
314
100
AcDbEntity
  8
2
100
AcDbCircle
 10
-5.096758
 20
-41.706662
 30
0.0
 40
0.5
100
AcDbArc
 50
265.466667
 51
23.411111
  0
LINE
  5
315
100
AcDbEntity
  8
2
100
AcDbLine
 10
-8.946758
 20
-40.056662
 30
0.0
 11
-8.946758
 21
-25.751918
 31
0.0
  0
ARC
  5
316
100
AcDbEntity
  8
2
100
AcDbCircle
 10
-8.546758
 20
-29.706662
 30
0.0
 40
5.0
100
AcDbArc
 50
38.09629
 51
81.373073
  0
ARC
  5
317
100
AcDbEntity
  8
2
100
AcDbCircle
 10
2.053242
 20
-32.006662
 30
0.0
 40
8.0
100
AcDbArc
 50
146.002568
 51
180.0
  0
ARC
  5
318
100
AcDbEntity
  8
2
100
AcDbCircle
 10
10.053242
 20
-35.156662
 30
0.0
 40
16.0
100
AcDbArc
 50
180.0
 51
203.411111
  0
LINE
  5
319
100
AcDbEntity
  8
2
100
AcDbLine
 10
-5.946758
 20
-35.156662
 30
0.0
 11
-5.946758
 21
-32.006662
 31
0.0
  0
ARC
  5
31A
100
AcDbEntity
  8
2
100
AcDbCircle
 10
-8.796758
 20
-26.756662
 30
0.0
 40
5.0
100
AcDbArc
 50
38.433206
 51
83.565404
  0
ARC
  5
31B
100
AcDbEntity
  8
2
100
AcDbCircle
 10
-8.446758
 20
-15.106662
 30
0.0
 40
4.0
100
AcDbArc
 50
6.987403
 51
90.233333
  0
ARC
  5
31C
100
AcDbEntity
  8
2
100
AcDbCircle
 10
-8.446758
 20
-13.906662
 30
0.0
 40
4.0
100
AcDbArc
 50
0.0
 51
83.576842
  0
LINE
  5
31D
100
AcDbEntity
  8
2
100
AcDbLine
 10
-8.946758
 20
-20.993199
 30
0.0
 11
-8.946758
 21
-11.606662
 31
0.0
  0
ARC
  5
31E
100
AcDbEntity
  8
2
100
AcDbCircle
 10
-8.446758
 20
-11.606662
 30
0.0
 40
0.5
100
AcDbArc
 50
90.233333
 51
180.0
  0
ARC
  5
31F
100
AcDbEntity
  8
2
100
AcDbCircle
 10
-4.146758
 20
-16.606662
 30
0.0
 40
1.8
100
AcDbArc
 50
110.354406
 51
180.0
  0
ARC
  5
320
100
AcDbEntity
  8
2
100
AcDbCircle
 10
10.053242
 20
-17.506662
 30
0.0
 40
16.0
100
AcDbArc
 50
180.0
 51
205.007833
  0
LINE
  5
321
100
AcDbEntity
  8
2
100
AcDbLine
 10
-5.946758
 20
-17.506662
 30
0.0
 11
-5.946758
 21
-16.606662
 31
0.0
  0
LINE
  5
322
100
AcDbEntity
  8
2
100
AcDbLine
 10
-4.596758
 20
-45.806662
 30
0.0
 11
-4.596758
 21
-41.706662
 31
0.0
  0
ARC
  5
323
100
AcDbEntity
  8
2
100
AcDbCircle
 10
-7.943341
 20
-9.434909
 30
0.0
 40
0.5
100
AcDbArc
 50
171.701798
 51
263.576842
  0
ARC
  5
324
100
AcDbEntity
  8
2
100
AcDbCircle
 10
-8.932871
 20
-9.290584
 30
0.0
 40
0.5
100
AcDbArc
 50
351.701798
 51
98.513567
  0
ARC
  5
325
100
AcDbEntity
  8
2
100
AcDbCircle
 10
-4.946758
 20
-14.450276
 30
0.0
 40
0.5
100
AcDbArc
 50
290.354406
 51
360.0
  0
ARC
  5
326
100
AcDbEntity
  8
2
100
AcDbCircle
 10
-8.146758
 20
-20.993199
 30
0.0
 40
0.8
100
AcDbArc
 50
180.0
 51
263.565404
  0
ARC
  5
327
100
AcDbEntity
  8
2
100
AcDbCircle
 10
-5.221903
 20
-27.099989
 30
0.0
 40
0.775144
100
AcDbArc
 50
326.002568
 51
38.09629
  0
ARC
  5
328
100
AcDbEntity
  8
2
100
AcDbCircle
 10
-6.446758
 20
-24.891856
 30
0.0
 40
2.0
100
AcDbArc
 50
0.0
 51
38.433206
  0
ARC
  5
329
100
AcDbEntity
  8
2
100
AcDbCircle
 10
-5.221903
 20
-60.413334
 30
0.0
 40
0.775144
100
AcDbArc
 50
321.90371
 51
33.997432
  0
ARC
  5
32A
100
AcDbEntity
  8
2
100
AcDbCircle
 10
-6.446758
 20
-62.621467
 30
0.0
 40
2.0
100
AcDbArc
 50
321.566794
 51
360.0
  0
ARC
  5
32B
100
AcDbEntity
  8
2
100
AcDbCircle
 10
-8.146758
 20
-66.520124
 30
0.0
 40
0.8
100
AcDbArc
 50
96.434596
 51
180.0
  0
ARC
  5
32C
100
AcDbEntity
  8
2
100
AcDbCircle
 10
-4.946758
 20
-73.063048
 30
0.0
 40
0.5
100
AcDbArc
 50
0.0
 51
69.645594
  0
ARC
  5
32D
100
AcDbEntity
  8
2
100
AcDbCircle
 10
-7.943341
 20
-78.078414
 30
0.0
 40
0.5
100
AcDbArc
 50
96.423158
 51
188.298202
  0
ARC
  5
32E
100
AcDbEntity
  8
2
100
AcDbCircle
 10
-8.932871
 20
-78.222739
 30
0.0
 40
0.5
100
AcDbArc
 50
261.486433
 51
8.298202
  0
ARC
  5
32F
100
AcDbEntity
  8
2
100
AcDbCircle
 10
-8.414718
 20
-74.761307
 30
0.0
 40
4.0
100
AcDbArc
 50
199.094774
 51
261.486433
  0
ARC
  5
330
100
AcDbEntity
  8
2
100
AcDbCircle
 10
-7.946758
 20
-61.761406
 30
0.0
 40
1.0
100
AcDbArc
 50
180.0
 51
278.626927
  0
ARC
  5
331
100
AcDbEntity
  8
2
100
AcDbCircle
 10
-8.414718
 20
-12.752017
 30
0.0
 40
4.0
100
AcDbArc
 50
98.513567
 51
160.905226
  0
ARC
  5
332
100
AcDbEntity
  8
2
100
AcDbCircle
 10
-7.946758
 20
-25.751918
 30
0.0
 40
1.0
100
AcDbArc
 50
81.373073
 51
180.0
  0
LINE
  5
333
100
AcDbEntity
  8
2
100
AcDbLine
 10
1.503242
 20
-34.756662
 30
0.0
 11
1.503242
 21
-52.756662
 31
0.0
  0
LINE
  5
334
100
AcDbEntity
  8
2
100
AcDbLine
 10
1.503242
 20
-34.756662
 30
0.0
 11
0.503242
 21
-33.756662
 31
0.0
  0
LINE
  5
335
100
AcDbEntity
  8
2
100
AcDbLine
 10
0.503242
 20
-53.756662
 30
0.0
 11
1.503242
 21
-52.756662
 31
0.0
  0
LINE
  5
336
100
AcDbEntity
  8
2
100
AcDbLine
 10
0.503242
 20
-33.756662
 30
0.0
 11
0.503242
 21
-53.756662
 31
0.0
  0
LINE
  5
337
100
AcDbEntity
  8
2
100
AcDbLine
 10
-260.470258
 20
348.743338
 30
0.0
 11
-253.823258
 21
348.743338
 31
0.0
  0
LINE
  5
338
100
AcDbEntity
  8
2
100
AcDbLine
 10
-253.823258
 20
348.743338
 30
0.0
 11
-253.146758
 21
348.066838
 31
0.0
  0
LINE
  5
339
100
AcDbEntity
  8
2
100
AcDbLine
 10
-253.146758
 20
348.066838
 30
0.0
 11
-253.146758
 21
342.243338
 31
0.0
  0
LINE
  5
33A
100
AcDbEntity
  8
2
100
AcDbLine
 10
-253.146758
 20
348.066838
 30
0.0
 11
-261.146758
 21
348.066838
 31
0.0
  0
LINE
  5
33B
100
AcDbEntity
  8
2
 62
     2
100
AcDbLine
 10
-253.823258
 20
348.743338
 30
0.0
 11
-253.823258
 21
342.243338
 31
0.0
  0
LINE
  5
33C
100
AcDbEntity
  8
2
100
AcDbLine
 10
-260.470258
 20
348.743338
 30
0.0
 11
-261.146758
 21
348.066838
 31
0.0
  0
LINE
  5
33D
100
AcDbEntity
  8
2
100
AcDbLine
 10
-261.146758
 20
348.066838
 30
0.0
 11
-261.146758
 21
342.243338
 31
0.0
  0
LINE
  5
33E
100
AcDbEntity
  8
2
 62
     2
100
AcDbLine
 10
-260.470258
 20
348.743338
 30
0.0
 11
-260.470258
 21
342.243338
 31
0.0
  0
LINE
  5
33F
100
AcDbEntity
  8
2
100
AcDbLine
 10
-264.646758
 20
336.743338
 30
0.0
 11
-264.646758
 21
341.52165
 31
0.0
  0
LINE
  5
340
100
AcDbEntity
  8
2
100
AcDbLine
 10
-264.646758
 20
341.52165
 30
0.0
 11
-263.396758
 21
342.243338
 31
0.0
  0
LINE
  5
341
100
AcDbEntity
  8
2
100
AcDbLine
 10
-263.396758
 20
342.243338
 30
0.0
 11
-257.146758
 21
342.243338
 31
0.0
  0
LINE
  5
342
100
AcDbEntity
  8
2
100
AcDbLine
 10
-260.896758
 20
336.743338
 30
0.0
 11
-260.896758
 21
341.52165
 31
0.0
  0
ARC
  5
343
100
AcDbEntity
  8
2
100
AcDbCircle
 10
-262.771758
 20
339.111274
 30
0.0
 40
3.053774
100
AcDbArc
 50
52.121121
 51
127.878879
  0
ARC
  5
344
100
AcDbEntity
  8
2
100
AcDbCircle
 10
-257.146758
 20
330.915049
 30
0.0
 40
11.25
100
AcDbArc
 50
90.0
 51
109.471221
  0
LINE
  5
345
100
AcDbEntity
  8
2
100
AcDbLine
 10
-249.646758
 20
336.743338
 30
0.0
 11
-249.646758
 21
341.52165
 31
0.0
  0
LINE
  5
346
100
AcDbEntity
  8
2
100
AcDbLine
 10
-249.646758
 20
341.52165
 30
0.0
 11
-250.896758
 21
342.243338
 31
0.0
  0
LINE
  5
347
100
AcDbEntity
  8
2
100
AcDbLine
 10
-250.896758
 20
342.243338
 30
0.0
 11
-257.146758
 21
342.243338
 31
0.0
  0
LINE
  5
348
100
AcDbEntity
  8
2
100
AcDbLine
 10
-253.396758
 20
336.743338
 30
0.0
 11
-253.396758
 21
341.52165
 31
0.0
  0
ARC
  5
349
100
AcDbEntity
  8
2
100
AcDbCircle
 10
-251.521758
 20
339.111274
 30
0.0
 40
3.053774
100
AcDbArc
 50
52.121121
 51
127.878879
  0
ARC
  5
34A
100
AcDbEntity
  8
2
100
AcDbCircle
 10
-257.146758
 20
330.915049
 30
0.0
 40
11.25
100
AcDbArc
 50
70.528779
 51
90.0
  0
LINE
  5
34B
100
AcDbEntity
  8
2
100
AcDbLine
 10
-296.470258
 20
348.743338
 30
0.0
 11
-289.823258
 21
348.743338
 31
0.0
  0
LINE
  5
34C
100
AcDbEntity
  8
2
100
AcDbLine
 10
-289.823258
 20
348.743338
 30
0.0
 11
-289.146758
 21
348.066838
 31
0.0
  0
LINE
  5
34D
100
AcDbEntity
  8
2
100
AcDbLine
 10
-289.146758
 20
348.066838
 30
0.0
 11
-289.146758
 21
342.243338
 31
0.0
  0
LINE
  5
34E
100
AcDbEntity
  8
2
100
AcDbLine
 10
-289.146758
 20
348.066838
 30
0.0
 11
-297.146758
 21
348.066838
 31
0.0
  0
LINE
  5
34F
100
AcDbEntity
  8
2
 62
     2
100
AcDbLine
 10
-289.823258
 20
348.743338
 30
0.0
 11
-289.823258
 21
342.243338
 31
0.0
  0
LINE
  5
350
100
AcDbEntity
  8
2
100
AcDbLine
 10
-296.470258
 20
348.743338
 30
0.0
 11
-297.146758
 21
348.066838
 31
0.0
  0
LINE
  5
351
100
AcDbEntity
  8
2
100
AcDbLine
 10
-297.146758
 20
348.066838
 30
0.0
 11
-297.146758
 21
342.243338
 31
0.0
  0
LINE
  5
352
100
AcDbEntity
  8
2
 62
     2
100
AcDbLine
 10
-296.470258
 20
348.743338
 30
0.0
 11
-296.470258
 21
342.243338
 31
0.0
  0
LINE
  5
353
100
AcDbEntity
  8
2
100
AcDbLine
 10
-300.646758
 20
336.743338
 30
0.0
 11
-300.646758
 21
341.52165
 31
0.0
  0
LINE
  5
354
100
AcDbEntity
  8
2
100
AcDbLine
 10
-300.646758
 20
341.52165
 30
0.0
 11
-299.396758
 21
342.243338
 31
0.0
  0
LINE
  5
355
100
AcDbEntity
  8
2
100
AcDbLine
 10
-299.396758
 20
342.243338
 30
0.0
 11
-293.146758
 21
342.243338
 31
0.0
  0
LINE
  5
356
100
AcDbEntity
  8
2
100
AcDbLine
 10
-296.896758
 20
336.743338
 30
0.0
 11
-296.896758
 21
341.52165
 31
0.0
  0
ARC
  5
357
100
AcDbEntity
  8
2
100
AcDbCircle
 10
-298.771758
 20
339.111274
 30
0.0
 40
3.053774
100
AcDbArc
 50
52.121121
 51
127.878879
  0
ARC
  5
358
100
AcDbEntity
  8
2
100
AcDbCircle
 10
-293.146758
 20
330.915049
 30
0.0
 40
11.25
100
AcDbArc
 50
90.0
 51
109.471221
  0
LINE
  5
359
100
AcDbEntity
  8
2
100
AcDbLine
 10
-285.646758
 20
336.743338
 30
0.0
 11
-285.646758
 21
341.52165
 31
0.0
  0
LINE
  5
35A
100
AcDbEntity
  8
2
100
AcDbLine
 10
-285.646758
 20
341.52165
 30
0.0
 11
-286.896758
 21
342.243338
 31
0.0
  0
LINE
  5
35B
100
AcDbEntity
  8
2
100
AcDbLine
 10
-286.896758
 20
342.243338
 30
0.0
 11
-293.146758
 21
342.243338
 31
0.0
  0
LINE
  5
35C
100
AcDbEntity
  8
2
100
AcDbLine
 10
-289.396758
 20
336.743338
 30
0.0
 11
-289.396758
 21
341.52165
 31
0.0
  0
ARC
  5
35D
100
AcDbEntity
  8
2
100
AcDbCircle
 10
-287.521758
 20
339.111274
 30
0.0
 40
3.053774
100
AcDbArc
 50
52.121121
 51
127.878879
  0
ARC
  5
35E
100
AcDbEntity
  8
2
100
AcDbCircle
 10
-293.146758
 20
330.915049
 30
0.0
 40
11.25
100
AcDbArc
 50
70.528779
 51
90.0
  0
LINE
  5
35F
100
AcDbEntity
  8
2
100
AcDbLine
 10
101.135742
 20
-55.111662
 30
0.0
 11
101.135742
 21
-54.006662
 31
0.0
  0
ARC
  5
360
100
AcDbEntity
  8
2
100
AcDbCircle
 10
105.583599
 20
-58.649519
 30
0.0
 40
1.857143
100
AcDbArc
 50
270.0
 51
360.0
  0
ARC
  5
361
100
AcDbEntity
  8
2
100
AcDbCircle
 10
103.642885
 20
-56.968805
 30
0.0
 40
1.857143
100
AcDbArc
 50
90.0
 51
180.0
  0
ARC
  5
362
100
AcDbEntity
  8
2
100
AcDbCircle
 10
104.469313
 20
-58.66809
 30
0.0
 40
0.928571
100
AcDbArc
 50
180.0
 51
270.0
  0
ARC
  5
363
100
AcDbEntity
  8
2
100
AcDbCircle
 10
104.75717
 20
-56.950233
 30
0.0
 40
0.928571
100
AcDbArc
 50
0.0
 51
90.0
  0
LINE
  5
364
100
AcDbEntity
  8
2
100
AcDbLine
 10
109.975742
 20
-56.021662
 30
0.0
 11
109.780742
 21
-60.506662
 31
0.0
  0
LINE
  5
365
100
AcDbEntity
  8
2
100
AcDbLine
 10
113.030742
 20
-56.021662
 30
0.0
 11
113.225742
 21
-60.506662
 31
0.0
  0
LINE
  5
366
100
AcDbEntity
  8
2
100
AcDbLine
 10
109.975742
 20
-56.021662
 30
0.0
 11
110.811456
 21
-60.506662
 31
0.0
  0
LINE
  5
367
100
AcDbEntity
  8
2
100
AcDbLine
 10
111.503242
 20
-58.34309
 30
0.0
 11
112.105371
 21
-55.111662
 31
0.0
  0
LINE
  5
368
100
AcDbEntity
  8
2
100
AcDbLine
 10
108.415742
 20
-55.111662
 30
0.0
 11
110.901112
 21
-55.111662
 31
0.0
  0
LINE
  5
369
100
AcDbEntity
  8
2
100
AcDbLine
 10
110.811456
 20
-60.506662
 30
0.0
 11
112.195027
 21
-60.506662
 31
0.0
  0
ARC
  5
36A
100
AcDbEntity
  8
2
100
AcDbCircle
 10
119.363599
 20
-58.649519
 30
0.0
 40
1.857143
100
AcDbArc
 50
270.0
 51
360.0
  0
ARC
  5
36B
100
AcDbEntity
  8
2
100
AcDbCircle
 10
118.53717
 20
-58.66809
 30
0.0
 40
0.928571
100
AcDbArc
 50
270.0
 51
360.0
  0
LINE
  5
36C
100
AcDbEntity
  8
2
100
AcDbLine
 10
117.320742
 20
-56.950233
 30
0.0
 11
117.320742
 21
-58.66809
 31
0.0
  0
ARC
  5
36D
100
AcDbEntity
  8
2
100
AcDbCircle
 10
117.422885
 20
-56.968805
 30
0.0
 40
1.857143
100
AcDbArc
 50
90.0
 51
180.0
  0
LINE
  5
36E
100
AcDbEntity
  8
2
100
AcDbLine
 10
115.565742
 20
-56.968805
 30
0.0
 11
115.565742
 21
-58.649519
 31
0.0
  0
LINE
  5
36F
100
AcDbEntity
  8
2
100
AcDbLine
 10
113.225742
 20
-60.506662
 30
0.0
 11
114.980742
 21
-60.506662
 31
0.0
  0
LINE
  5
370
100
AcDbEntity
  8
2
100
AcDbLine
 10
122.000742
 20
-60.376662
 30
0.0
 11
126.225742
 21
-60.376662
 31
0.0
  0
LINE
  5
371
100
AcDbEntity
  8
2
100
AcDbLine
 10
123.755742
 20
-58.296662
 30
0.0
 11
126.225742
 21
-58.296662
 31
0.0
  0
LINE
  5
372
100
AcDbEntity
  8
2
100
AcDbLine
 10
123.755742
 20
-57.321662
 30
0.0
 11
126.225742
 21
-57.321662
 31
0.0
  0
LINE
  5
373
100
AcDbEntity
  8
2
100
AcDbLine
 10
123.755742
 20
-59.401662
 30
0.0
 11
123.755742
 21
-58.296662
 31
0.0
  0
LINE
  5
374
100
AcDbEntity
  8
2
100
AcDbLine
 10
123.755742
 20
-57.321662
 30
0.0
 11
123.755742
 21
-56.216662
 31
0.0
  0
LINE
  5
375
100
AcDbEntity
  8
2
100
AcDbLine
 10
96.585742
 20
-56.216662
 30
0.0
 11
100.615742
 21
-56.216662
 31
0.0
  0
LINE
  5
376
100
AcDbEntity
  8
2
100
AcDbLine
 10
96.585742
 20
-57.321662
 30
0.0
 11
103.410742
 21
-54.006662
 31
0.0
  0
LINE
  5
377
100
AcDbEntity
  8
2
100
AcDbLine
 10
96.585742
 20
-57.321662
 30
0.0
 11
96.585742
 21
-54.006662
 31
0.0
  0
LINE
  5
378
100
AcDbEntity
  8
2
100
AcDbLine
 10
96.585742
 20
-56.216662
 30
0.0
 11
101.135742
 21
-54.006662
 31
0.0
  0
LINE
  5
379
100
AcDbEntity
  8
2
100
AcDbLine
 10
96.585742
 20
-55.111662
 30
0.0
 11
101.135742
 21
-55.111662
 31
0.0
  0
LINE
  5
37A
100
AcDbEntity
  8
2
100
AcDbLine
 10
100.615742
 20
-56.216662
 30
0.0
 11
100.615742
 21
-60.506662
 31
0.0
  0
LINE
  5
37B
100
AcDbEntity
  8
2
100
AcDbLine
 10
96.585742
 20
-55.111662
 30
0.0
 11
98.860742
 21
-54.006662
 31
0.0
  0
LINE
  5
37C
100
AcDbEntity
  8
2
100
AcDbLine
 10
101.785742
 20
-56.968805
 30
0.0
 11
101.785742
 21
-58.649519
 31
0.0
  0
LINE
  5
37D
100
AcDbEntity
  8
2
100
AcDbLine
 10
107.440742
 20
-56.968805
 30
0.0
 11
107.440742
 21
-58.649519
 31
0.0
  0
LINE
  5
37E
100
AcDbEntity
  8
2
100
AcDbLine
 10
103.540742
 20
-56.950233
 30
0.0
 11
103.540742
 21
-58.66809
 31
0.0
  0
LINE
  5
37F
100
AcDbEntity
  8
2
100
AcDbLine
 10
105.685742
 20
-56.950233
 30
0.0
 11
105.685742
 21
-58.66809
 31
0.0
  0
ARC
  5
380
100
AcDbEntity
  8
2
100
AcDbCircle
 10
103.642885
 20
-58.649519
 30
0.0
 40
1.857143
100
AcDbArc
 50
180.0
 51
270.0
  0
ARC
  5
381
100
AcDbEntity
  8
2
100
AcDbCircle
 10
105.583599
 20
-56.968805
 30
0.0
 40
1.857143
100
AcDbArc
 50
360.0
 51
90.0
  0
ARC
  5
382
100
AcDbEntity
  8
2
100
AcDbCircle
 10
104.75717
 20
-58.66809
 30
0.0
 40
0.928571
100
AcDbArc
 50
270.0
 51
360.0
  0
ARC
  5
383
100
AcDbEntity
  8
2
100
AcDbCircle
 10
104.469313
 20
-56.950233
 30
0.0
 40
0.928571
100
AcDbArc
 50
90.0
 51
180.0
  0
LINE
  5
384
100
AcDbEntity
  8
2
100
AcDbLine
 10
98.860742
 20
-60.506662
 30
0.0
 11
100.615742
 21
-60.506662
 31
0.0
  0
LINE
  5
385
100
AcDbEntity
  8
2
100
AcDbLine
 10
108.415742
 20
-55.111662
 30
0.0
 11
108.025742
 21
-60.506662
 31
0.0
  0
LINE
  5
386
100
AcDbEntity
  8
2
100
AcDbLine
 10
114.590742
 20
-55.111662
 30
0.0
 11
114.980742
 21
-60.506662
 31
0.0
  0
LINE
  5
387
100
AcDbEntity
  8
2
100
AcDbLine
 10
113.030742
 20
-56.021662
 30
0.0
 11
112.195027
 21
-60.506662
 31
0.0
  0
LINE
  5
388
100
AcDbEntity
  8
2
100
AcDbLine
 10
111.503242
 20
-58.34309
 30
0.0
 11
110.901112
 21
-55.111662
 31
0.0
  0
LINE
  5
389
100
AcDbEntity
  8
2
100
AcDbLine
 10
103.642885
 20
-55.111662
 30
0.0
 11
105.583599
 21
-55.111662
 31
0.0
  0
LINE
  5
38A
100
AcDbEntity
  8
2
100
AcDbLine
 10
103.642885
 20
-60.506662
 30
0.0
 11
105.583599
 21
-60.506662
 31
0.0
  0
LINE
  5
38B
100
AcDbEntity
  8
2
100
AcDbLine
 10
108.025742
 20
-60.506662
 30
0.0
 11
109.780742
 21
-60.506662
 31
0.0
  0
ARC
  5
38C
100
AcDbEntity
  8
2
100
AcDbCircle
 10
117.422885
 20
-58.649519
 30
0.0
 40
1.857143
100
AcDbArc
 50
180.0
 51
270.0
  0
LINE
  5
38D
100
AcDbEntity
  8
2
100
AcDbLine
 10
119.465742
 20
-56.950233
 30
0.0
 11
119.465742
 21
-58.66809
 31
0.0
  0
ARC
  5
38E
100
AcDbEntity
  8
2
100
AcDbCircle
 10
118.249313
 20
-58.66809
 30
0.0
 40
0.928571
100
AcDbArc
 50
180.0
 51
270.0
  0
ARC
  5
38F
100
AcDbEntity
  8
2
100
AcDbCircle
 10
118.53717
 20
-56.950233
 30
0.0
 40
0.928571
100
AcDbArc
 50
0.0
 51
90.0
  0
ARC
  5
390
100
AcDbEntity
  8
2
100
AcDbCircle
 10
118.249313
 20
-56.950233
 30
0.0
 40
0.928571
100
AcDbArc
 50
90.0
 51
180.0
  0
ARC
  5
391
100
AcDbEntity
  8
2
100
AcDbCircle
 10
119.363599
 20
-56.968805
 30
0.0
 40
1.857143
100
AcDbArc
 50
360.0
 51
90.0
  0
LINE
  5
392
100
AcDbEntity
  8
2
100
AcDbLine
 10
121.220742
 20
-56.968805
 30
0.0
 11
121.220742
 21
-58.649519
 31
0.0
  0
LINE
  5
393
100
AcDbEntity
  8
2
100
AcDbLine
 10
104.75717
 20
-56.021662
 30
0.0
 11
104.469313
 21
-56.021662
 31
0.0
  0
LINE
  5
394
100
AcDbEntity
  8
2
100
AcDbLine
 10
104.75717
 20
-59.596662
 30
0.0
 11
104.469313
 21
-59.596662
 31
0.0
  0
LINE
  5
395
100
AcDbEntity
  8
2
100
AcDbLine
 10
118.249313
 20
-56.021662
 30
0.0
 11
118.53717
 21
-56.021662
 31
0.0
  0
LINE
  5
396
100
AcDbEntity
  8
2
100
AcDbLine
 10
112.105371
 20
-55.111662
 30
0.0
 11
114.590742
 21
-55.111662
 31
0.0
  0
LINE
  5
397
100
AcDbEntity
  8
2
100
AcDbLine
 10
117.422885
 20
-55.111662
 30
0.0
 11
119.363599
 21
-55.111662
 31
0.0
  0
LINE
  5
398
100
AcDbEntity
  8
2
100
AcDbLine
 10
117.422885
 20
-60.506662
 30
0.0
 11
119.363599
 21
-60.506662
 31
0.0
  0
LINE
  5
399
100
AcDbEntity
  8
2
100
AcDbLine
 10
122.000742
 20
-55.241662
 30
0.0
 11
122.000742
 21
-60.376662
 31
0.0
  0
LINE
  5
39A
100
AcDbEntity
  8
2
100
AcDbLine
 10
122.000742
 20
-55.241662
 30
0.0
 11
126.225742
 21
-55.241662
 31
0.0
  0
LINE
  5
39B
100
AcDbEntity
  8
2
100
AcDbLine
 10
123.755742
 20
-59.401662
 30
0.0
 11
126.225742
 21
-59.401662
 31
0.0
  0
LINE
  5
39C
100
AcDbEntity
  8
2
100
AcDbLine
 10
123.755742
 20
-56.216662
 30
0.0
 11
126.225742
 21
-56.216662
 31
0.0
  0
LINE
  5
39D
100
AcDbEntity
  8
2
100
AcDbLine
 10
126.225742
 20
-56.216662
 30
0.0
 11
126.225742
 21
-55.241662
 31
0.0
  0
LINE
  5
39E
100
AcDbEntity
  8
2
100
AcDbLine
 10
126.225742
 20
-60.376662
 30
0.0
 11
126.225742
 21
-59.401662
 31
0.0
  0
LINE
  5
39F
100
AcDbEntity
  8
2
100
AcDbLine
 10
126.225742
 20
-58.296662
 30
0.0
 11
126.225742
 21
-57.321662
 31
0.0
  0
LINE
  5
3A0
100
AcDbEntity
  8
2
100
AcDbLine
 10
98.860742
 20
-54.006662
 30
0.0
 11
98.860742
 21
-60.506662
 31
0.0
  0
LINE
  5
3A1
100
AcDbEntity
  8
2
100
AcDbLine
 10
96.585742
 20
-54.006662
 30
0.0
 11
103.410742
 21
-54.006662
 31
0.0
  0
LINE
  5
3A2
100
AcDbEntity
  8
2
100
AcDbLine
 10
118.249313
 20
-59.596662
 30
0.0
 11
118.53717
 21
-59.596662
 31
0.0
  0
ARC
  5
3A3
100
AcDbEntity
  8
2
100
AcDbCircle
 10
88.003242
 20
-53.756662
 30
0.0
 40
1.5
100
AcDbArc
 50
90.0
 51
180.0
  0
ARC
  5
3A4
100
AcDbEntity
  8
2
100
AcDbCircle
 10
88.003242
 20
-60.756662
 30
0.0
 40
1.5
100
AcDbArc
 50
180.0
 51
270.0
  0
ARC
  5
3A5
100
AcDbEntity
  8
2
100
AcDbCircle
 10
135.003242
 20
-60.756662
 30
0.0
 40
1.5
100
AcDbArc
 50
270.0
 51
360.0
  0
ARC
  5
3A6
100
AcDbEntity
  8
2
100
AcDbCircle
 10
135.003242
 20
-53.756662
 30
0.0
 40
1.5
100
AcDbArc
 50
0.0
 51
90.0
  0
LINE
  5
3A7
100
AcDbEntity
  8
2
100
AcDbLine
 10
-265.661806
 20
291.243338
 30
0.0
 11
-244.724562
 21
291.243338
 31
0.0
  0
LINE
  5
3A8
100
AcDbEntity
  8
2
100
AcDbLine
 10
-363.213625
 20
334.743338
 30
0.0
 11
-348.618894
 21
334.743338
 31
0.0
  0
ARC
  5
3A9
100
AcDbEntity
  8
2
100
AcDbCircle
 10
-313.146758
 20
-43.756662
 30
0.0
 40
100.0
100
AcDbArc
 50
163.823523
 51
196.260205
  0
ARC
  5
3AA
100
AcDbEntity
  8
2
100
AcDbCircle
 10
-385.146758
 20
-64.756662
 30
0.0
 40
25.0
100
AcDbArc
 50
196.260205
 51
270.0
  0
LINE
  5
3AB
100
AcDbEntity
  8
2
100
AcDbLine
 10
-386.921281
 20
2.077202
 30
0.0
 11
-216.579594
 21
13.988653
 31
0.0
  0
ARC
  5
3AC
100
AcDbEntity
  8
2
100
AcDbCircle
 10
-313.146758
 20
-43.756662
 30
0.0
 40
125.0
100
AcDbArc
 50
343.631251
 51
21.096707
  0
ARC
  5
3AD
100
AcDbEntity
  8
2
100
AcDbCircle
 10
-207.605297
 20
-74.756662
 30
0.0
 40
15.0
100
AcDbArc
 50
270.0
 51
343.631251
  0
ARC
  5
3AE
100
AcDbEntity
  8
2
100
AcDbCircle
 10
-215.184465
 20
-5.962628
 30
0.0
 40
20.0
100
AcDbArc
 50
21.096707
 51
94.0
  0
ARC
  5
3AF
100
AcDbEntity
  8
2
100
AcDbCircle
 10
-385.177369
 20
-22.861899
 30
0.0
 40
25.0
100
AcDbArc
 50
94.0
 51
163.823523
  0
LINE
  5
3B0
100
AcDbEntity
  8
2
100
AcDbLine
 10
-360.146758
 20
-33.756662
 30
0.0
 11
-360.146758
 21
-48.756662
 31
0.0
  0
LINE
  5
3B1
100
AcDbEntity
  8
2
100
AcDbLine
 10
-350.146758
 20
-63.756662
 30
0.0
 11
-340.146758
 21
-63.756662
 31
0.0
  0
LINE
  5
3B2
100
AcDbEntity
  8
2
100
AcDbLine
 10
-350.146758
 20
-33.756662
 30
0.0
 11
-350.146758
 21
-63.756662
 31
0.0
  0
LINE
  5
3B3
100
AcDbEntity
  8
2
100
AcDbLine
 10
-360.146758
 20
-48.756662
 30
0.0
 11
-330.146758
 21
-33.756662
 31
0.0
  0
LINE
  5
3B4
100
AcDbEntity
  8
2
100
AcDbLine
 10
-360.146758
 20
-43.756662
 30
0.0
 11
-340.146758
 21
-43.756662
 31
0.0
  0
LINE
  5
3B5
100
AcDbEntity
  8
2
100
AcDbLine
 10
-360.146758
 20
-38.756662
 30
0.0
 11
-340.146758
 21
-38.756662
 31
0.0
  0
LINE
  5
3B6
100
AcDbEntity
  8
2
100
AcDbLine
 10
-340.146758
 20
-33.756662
 30
0.0
 11
-360.146758
 21
-43.756662
 31
0.0
  0
LINE
  5
3B7
100
AcDbEntity
  8
2
100
AcDbLine
 10
-350.146758
 20
-33.756662
 30
0.0
 11
-360.146758
 21
-38.756662
 31
0.0
  0
LINE
  5
3B8
100
AcDbEntity
  8
2
100
AcDbLine
 10
-360.146758
 20
-33.756662
 30
0.0
 11
-330.146758
 21
-33.756662
 31
0.0
  0
LINE
  5
3B9
100
AcDbEntity
  8
2
100
AcDbLine
 10
-340.146758
 20
-63.756662
 30
0.0
 11
-340.146758
 21
-43.756662
 31
0.0
  0
LINE
  5
3BA
100
AcDbEntity
  8
2
100
AcDbLine
 10
-340.146758
 20
-38.756662
 30
0.0
 11
-340.146758
 21
-33.756662
 31
0.0
  0
LINE
  5
3BB
100
AcDbEntity
  8
2
100
AcDbLine
 10
-238.663444
 20
-0.994534
 30
0.0
 11
-361.32313
 21
-13.950279
 31
0.0
  0
ARC
  5
3BC
100
AcDbEntity
  8
2
100
AcDbCircle
 10
-234.146758
 20
-43.756662
 30
0.0
 40
43.0
100
AcDbArc
 50
268.607377
 51
96.029425
  0
ARC
  5
3BD
100
AcDbEntity
  8
2
100
AcDbCircle
 10
-357.646758
 20
-48.756662
 30
0.0
 40
35.0
100
AcDbArc
 50
96.029425
 51
268.607377
  0
LINE
  5
3BE
100
AcDbEntity
  8
2
100
AcDbLine
 10
-350.146758
 20
16.243338
 30
0.0
 11
-354.477063
 21
4.345923
 31
0.0
  0
LINE
  5
3BF
100
AcDbEntity
  8
2
100
AcDbLine
 10
-413.146758
 20
232.743338
 30
0.0
 11
-413.146758
 21
221.743338
 31
0.0
  0
ARC
  5
3C0
100
AcDbEntity
  8
2
100
AcDbCircle
 10
-410.146758
 20
221.743338
 30
0.0
 40
3.0
100
AcDbArc
 50
180.0
 51
270.0
  0
LINE
  5
3C1
100
AcDbEntity
  8
2
100
AcDbLine
 10
-393.844184
 20
201.033238
 30
0.0
 11
-399.571678
 21
216.769399
 31
0.0
  0
LINE
  5
3C2
100
AcDbEntity
  8
2
100
AcDbLine
 10
-188.146758
 20
218.743338
 30
0.0
 11
-189.584703
 21
202.30756
 31
0.0
  0
ARC
  5
3C3
100
AcDbEntity
  8
2
100
AcDbCircle
 10
-194.565676
 20
202.743338
 30
0.0
 40
5.0
100
AcDbArc
 50
270.0
 51
355.0
  0
ARC
  5
3C4
100
AcDbEntity
  8
2
100
AcDbCircle
 10
-389.145721
 20
202.743338
 30
0.0
 40
5.0
100
AcDbArc
 50
200.0
 51
270.0
  0
ARC
  5
3C5
100
AcDbEntity
  8
2
100
AcDbCircle
 10
-402.390756
 20
215.743338
 30
0.0
 40
3.0
100
AcDbArc
 50
20.0
 51
73.660251
  0
ARC
  5
3C6
100
AcDbEntity
  8
2
100
AcDbCircle
 10
-348.477063
 20
242.743338
 30
0.0
 40
6.0
100
AcDbArc
 50
180.0
 51
270.0
  0
ARC
  5
3C7
100
AcDbEntity
  8
2
100
AcDbCircle
 10
-412.146758
 20
232.743338
 30
0.0
 40
1.0
100
AcDbArc
 50
90.0
 51
180.0
  0
ARC
  5
3C8
100
AcDbEntity
  8
2
100
AcDbCircle
 10
-410.146758
 20
234.743338
 30
0.0
 40
1.0
100
AcDbArc
 50
270.0
 51
360.0
  0
ARC
  5
3C9
100
AcDbEntity
  8
2
100
AcDbCircle
 10
-189.146758
 20
235.743338
 30
0.0
 40
1.0
100
AcDbArc
 50
0.0
 51
90.0
  0
ARC
  5
3CA
100
AcDbEntity
  8
2
100
AcDbCircle
 10
-187.146758
 20
231.743338
 30
0.0
 40
1.0
100
AcDbArc
 50
90.0
 51
180.0
  0
LINE
  5
3CB
100
AcDbEntity
  8
2
100
AcDbLine
 10
-357.426384
 20
254.743338
 30
0.0
 11
-357.426384
 21
328.743338
 31
0.0
  0
ARC
  5
3CC
100
AcDbEntity
  8
2
100
AcDbCircle
 10
-356.477063
 20
235.743338
 30
0.0
 40
2.0
100
AcDbArc
 50
270.0
 51
360.0
  0
ARC
  5
3CD
100
AcDbEntity
  8
2
100
AcDbCircle
 10
-359.062193
 20
235.743338
 30
0.0
 40
2.0
100
AcDbArc
 50
270.0
 51
0.0
  0
LINE
  5
3CE
100
AcDbEntity
  8
2
100
AcDbLine
 10
-350.146758
 20
16.243338
 30
0.0
 11
-190.146758
 21
16.243338
 31
0.0
  0
LINE
  5
3CF
100
AcDbEntity
  8
2
100
AcDbLine
 10
-190.146758
 20
19.243338
 30
0.0
 11
-190.146758
 21
12.243338
 31
0.0
  0
ARC
  5
3D0
100
AcDbEntity
  8
2
100
AcDbCircle
 10
-191.146758
 20
12.243338
 30
0.0
 40
1.0
100
AcDbArc
 50
270.0
 51
360.0
  0
LINE
  5
3D1
100
AcDbEntity
  8
2
100
AcDbLine
 10
-389.145721
 20
197.743338
 30
0.0
 11
-194.565676
 21
197.743338
 31
0.0
  0
LINE
  5
3D2
100
AcDbEntity
  8
2
100
AcDbLine
 10
-410.146758
 20
218.743338
 30
0.0
 11
-188.146758
 21
218.743338
 31
0.0
  0
LINE
  5
3D3
100
AcDbEntity
  8
2
100
AcDbLine
 10
-188.146758
 20
235.743338
 30
0.0
 11
-188.146758
 21
218.743338
 31
0.0
  0
LINE
  5
3D4
100
AcDbEntity
  8
2
100
AcDbLine
 10
-188.146758
 20
228.743338
 30
0.0
 11
-413.146758
 21
228.743338
 31
0.0
  0
LINE
  5
3D5
100
AcDbEntity
  8
2
100
AcDbLine
 10
-348.477063
 20
236.743338
 30
0.0
 11
-189.146758
 21
236.743338
 31
0.0
  0
LINE
  5
3D6
100
AcDbEntity
  8
2
100
AcDbLine
 10
-412.146758
 20
233.743338
 30
0.0
 11
-356.477063
 21
233.743338
 31
0.0
  0
LINE
  5
3D7
100
AcDbEntity
  8
2
100
AcDbLine
 10
-179.146758
 20
232.743338
 30
0.0
 11
-187.146758
 21
232.743338
 31
0.0
  0
LINE
  5
3D8
100
AcDbEntity
  8
2
100
AcDbLine
 10
-407.146758
 20
252.743338
 30
0.0
 11
-359.062193
 21
252.743338
 31
0.0
  0
ARC
  5
3D9
100
AcDbEntity
  8
2
100
AcDbCircle
 10
-407.146758
 20
250.743338
 30
0.0
 40
2.0
100
AcDbArc
 50
90.0
 51
180.0
  0
ARC
  5
3DA
100
AcDbEntity
  8
2
100
AcDbCircle
 10
-402.146758
 20
255.743338
 30
0.0
 40
3.0
100
AcDbArc
 50
270.0
 51
0.0
  0
ARC
  5
3DB
100
AcDbEntity
  8
2
100
AcDbCircle
 10
-359.426384
 20
254.743338
 30
0.0
 40
2.0
100
AcDbArc
 50
270.0
 51
360.0
  0
ARC
  5
3DC
100
AcDbEntity
  8
2
100
AcDbCircle
 10
-359.062193
 20
254.743338
 30
0.0
 40
2.0
100
AcDbArc
 50
270.0
 51
360.0
  0
ARC
  5
3DD
100
AcDbEntity
  8
2
100
AcDbCircle
 10
-405.146758
 20
239.743338
 30
0.0
 40
8.0
100
AcDbArc
 50
120.0
 51
228.590378
  0
LINE
  5
3DE
100
AcDbEntity
  8
2
100
AcDbLine
 10
-405.146758
 20
319.743338
 30
0.0
 11
-404.146758
 21
319.743338
 31
0.0
  0
ARC
  5
3DF
100
AcDbEntity
  8
2
100
AcDbCircle
 10
-404.146758
 20
314.743338
 30
0.0
 40
5.0
100
AcDbArc
 50
0.0
 51
90.0
  0
ARC
  5
3E0
100
AcDbEntity
  8
2
100
AcDbCircle
 10
-405.146758
 20
327.743338
 30
0.0
 40
8.0
100
AcDbArc
 50
90.0
 51
270.0
  0
LINE
  5
3E1
100
AcDbEntity
  8
2
100
AcDbLine
 10
-405.146758
 20
335.743338
 30
0.0
 11
-404.646758
 21
335.743338
 31
0.0
  0
LINE
  5
3E2
100
AcDbEntity
  8
2
100
AcDbLine
 10
-382.311259
 20
255.743338
 30
0.0
 11
-382.311259
 21
261.743338
 31
0.0
  0
LINE
  5
3E3
100
AcDbEntity
  8
2
100
AcDbLine
 10
-391.646758
 20
255.743338
 30
0.0
 11
-391.646758
 21
261.743338
 31
0.0
  0
LINE
  5
3E4
100
AcDbEntity
  8
2
100
AcDbLine
 10
-389.646758
 20
263.743338
 30
0.0
 11
-384.311259
 21
263.743338
 31
0.0
  0
ARC
  5
3E5
100
AcDbEntity
  8
2
100
AcDbCircle
 10
-389.646758
 20
261.743338
 30
0.0
 40
2.0
100
AcDbArc
 50
90.0
 51
180.0
  0
ARC
  5
3E6
100
AcDbEntity
  8
2
100
AcDbCircle
 10
-384.311259
 20
261.743338
 30
0.0
 40
2.0
100
AcDbArc
 50
0.0
 51
90.0
  0
ARC
  5
3E7
100
AcDbEntity
  8
2
100
AcDbCircle
 10
-379.311259
 20
255.743338
 30
0.0
 40
3.0
100
AcDbArc
 50
180.0
 51
270.0
  0
ARC
  5
3E8
100
AcDbEntity
  8
2
100
AcDbCircle
 10
-394.646758
 20
255.743338
 30
0.0
 40
3.0
100
AcDbArc
 50
270.0
 51
360.0
  0
LINE
  5
3E9
100
AcDbEntity
  8
2
100
AcDbLine
 10
-354.477063
 20
235.743338
 30
0.0
 11
-354.477063
 21
242.743338
 31
0.0
  0
LINE
  5
3EA
100
AcDbEntity
  8
2
100
AcDbLine
 10
-357.062193
 20
235.743338
 30
0.0
 11
-357.062193
 21
254.743338
 31
0.0
  0
LINE
  5
3EB
100
AcDbEntity
  8
2
100
AcDbLine
 10
-348.146758
 20
324.743338
 30
0.0
 11
-342.146758
 21
324.743338
 31
0.0
  0
LINE
  5
3EC
100
AcDbEntity
  8
2
100
AcDbLine
 10
-196.146758
 20
324.743338
 30
0.0
 11
-192.146758
 21
324.743338
 31
0.0
  0
LINE
  5
3ED
100
AcDbEntity
  8
2
100
AcDbLine
 10
-336.146758
 20
238.743338
 30
0.0
 11
-336.146758
 21
242.743338
 31
0.0
  0
LINE
  5
3EE
100
AcDbEntity
  8
2
100
AcDbLine
 10
-336.146758
 20
330.743338
 30
0.0
 11
-336.146758
 21
334.743338
 31
0.0
  0
LINE
  5
3EF
100
AcDbEntity
  8
2
100
AcDbLine
 10
-348.146758
 20
248.743338
 30
0.0
 11
-342.146758
 21
248.743338
 31
0.0
  0
LINE
  5
3F0
100
AcDbEntity
  8
2
100
AcDbLine
 10
-196.146758
 20
248.743338
 30
0.0
 11
-192.146758
 21
248.743338
 31
0.0
  0
LINE
  5
3F1
100
AcDbEntity
  8
2
100
AcDbLine
 10
-202.146758
 20
238.743338
 30
0.0
 11
-202.146758
 21
242.743338
 31
0.0
  0
LINE
  5
3F2
100
AcDbEntity
  8
2
100
AcDbLine
 10
-202.146758
 20
330.743338
 30
0.0
 11
-202.146758
 21
334.743338
 31
0.0
  0
ARC
  5
3F3
100
AcDbEntity
  8
2
100
AcDbCircle
 10
-196.146758
 20
330.743338
 30
0.0
 40
6.0
100
AcDbArc
 50
180.0
 51
270.0
  0
ARC
  5
3F4
100
AcDbEntity
  8
2
100
AcDbCircle
 10
-342.146758
 20
330.743338
 30
0.0
 40
6.0
100
AcDbArc
 50
270.0
 51
360.0
  0
ARC
  5
3F5
100
AcDbEntity
  8
2
100
AcDbCircle
 10
-342.146758
 20
242.743338
 30
0.0
 40
6.0
100
AcDbArc
 50
0.0
 51
90.0
  0
ARC
  5
3F6
100
AcDbEntity
  8
2
100
AcDbCircle
 10
-196.146758
 20
242.743338
 30
0.0
 40
6.0
100
AcDbArc
 50
90.0
 51
180.0
  0
ARC
  5
3F7
100
AcDbEntity
  8
2
100
AcDbCircle
 10
-185.981511
 20
-16.756662
 30
0.0
 40
5.0
100
AcDbArc
 50
191.98715
 51
270.0
  0
LINE
  5
3F8
100
AcDbEntity
  8
2
100
AcDbLine
 10
-179.146758
 20
-21.756662
 30
0.0
 11
-166.623824
 21
-22.852277
 31
0.0
  0
LINE
  5
3F9
100
AcDbEntity
  8
2
100
AcDbLine
 10
-179.146758
 20
-92.756662
 30
0.0
 11
-166.623824
 21
-91.661047
 31
0.0
  0
ARC
  5
3FA
100
AcDbEntity
  8
2
100
AcDbCircle
 10
-167.146758
 20
-28.829445
 30
0.0
 40
6.0
100
AcDbArc
 50
0.0
 51
85.0
  0
ARC
  5
3FB
100
AcDbEntity
  8
2
100
AcDbCircle
 10
-167.146758
 20
-85.683879
 30
0.0
 40
6.0
100
AcDbArc
 50
275.0
 51
360.0
  0
LINE
  5
3FC
100
AcDbEntity
  8
2
100
AcDbLine
 10
-173.646758
 20
-33.756662
 30
0.0
 11
-164.146758
 21
-33.756662
 31
0.0
  0
LINE
  5
3FD
100
AcDbEntity
  8
2
100
AcDbLine
 10
-173.646758
 20
-80.756662
 30
0.0
 11
-164.146758
 21
-80.756662
 31
0.0
  0
LINE
  5
3FE
100
AcDbEntity
  8
2
100
AcDbLine
 10
-174.146758
 20
-91.861053
 30
0.0
 11
-174.146758
 21
-81.256662
 31
0.0
  0
LINE
  5
3FF
100
AcDbEntity
  8
2
100
AcDbLine
 10
-174.146758
 20
-33.256662
 30
0.0
 11
-174.146758
 21
-22.652271
 31
0.0
  0
ARC
  5
400
100
AcDbEntity
  8
2
100
AcDbCircle
 10
-173.646758
 20
-33.256662
 30
0.0
 40
0.5
100
AcDbArc
 50
180.0
 51
270.0
  0
ARC
  5
401
100
AcDbEntity
  8
2
100
AcDbCircle
 10
-173.646758
 20
-81.256662
 30
0.0
 40
0.5
100
AcDbArc
 50
90.0
 51
180.0
  0
ARC
  5
402
100
AcDbEntity
  8
2
100
AcDbCircle
 10
-174.646758
 20
-22.652271
 30
0.0
 40
0.5
100
AcDbArc
 50
360.0
 51
85.0
  0
ARC
  5
403
100
AcDbEntity
  8
2
100
AcDbCircle
 10
-174.646758
 20
-91.861053
 30
0.0
 40
0.5
100
AcDbArc
 50
275.0
 51
360.0
  0
ARC
  5
404
100
AcDbEntity
  8
2
100
AcDbCircle
 10
-164.146758
 20
-77.756662
 30
0.0
 40
3.0
100
AcDbArc
 50
270.0
 51
360.0
  0
ARC
  5
405
100
AcDbEntity
  8
2
100
AcDbCircle
 10
-164.146758
 20
-36.756662
 30
0.0
 40
3.0
100
AcDbArc
 50
0.0
 51
90.0
  0
LINE
  5
406
100
AcDbEntity
  8
2
100
AcDbLine
 10
-179.146758
 20
335.743338
 30
0.0
 11
-166.623824
 21
334.647723
 31
0.0
  0
LINE
  5
407
100
AcDbEntity
  8
2
100
AcDbLine
 10
-179.146758
 20
232.743338
 30
0.0
 11
-166.623824
 21
233.838953
 31
0.0
  0
ARC
  5
408
100
AcDbEntity
  8
2
100
AcDbCircle
 10
-167.146758
 20
328.670555
 30
0.0
 40
6.0
100
AcDbArc
 50
0.0
 51
85.0
  0
ARC
  5
409
100
AcDbEntity
  8
2
100
AcDbCircle
 10
-167.146758
 20
239.816121
 30
0.0
 40
6.0
100
AcDbArc
 50
275.0
 51
0.0
  0
LINE
  5
40A
100
AcDbEntity
  8
2
100
AcDbLine
 10
-173.646758
 20
323.743338
 30
0.0
 11
-164.146758
 21
323.743338
 31
0.0
  0
LINE
  5
40B
100
AcDbEntity
  8
2
100
AcDbLine
 10
-173.646758
 20
244.743338
 30
0.0
 11
-164.146758
 21
244.743338
 31
0.0
  0
LINE
  5
40C
100
AcDbEntity
  8
2
100
AcDbLine
 10
-174.146758
 20
233.638947
 30
0.0
 11
-174.146758
 21
244.243338
 31
0.0
  0
LINE
  5
40D
100
AcDbEntity
  8
2
100
AcDbLine
 10
-174.146758
 20
324.243338
 30
0.0
 11
-174.146758
 21
334.847729
 31
0.0
  0
ARC
  5
40E
100
AcDbEntity
  8
2
100
AcDbCircle
 10
-173.646758
 20
324.243338
 30
0.0
 40
0.5
100
AcDbArc
 50
180.0
 51
270.0
  0
ARC
  5
40F
100
AcDbEntity
  8
2
100
AcDbCircle
 10
-173.646758
 20
244.243338
 30
0.0
 40
0.5
100
AcDbArc
 50
90.0
 51
180.0
  0
ARC
  5
410
100
AcDbEntity
  8
2
100
AcDbCircle
 10
-174.646758
 20
334.847729
 30
0.0
 40
0.5
100
AcDbArc
 50
0.0
 51
85.0
  0
ARC
  5
411
100
AcDbEntity
  8
2
100
AcDbCircle
 10
-174.646758
 20
233.638947
 30
0.0
 40
0.5
100
AcDbArc
 50
275.0
 51
0.0
  0
ARC
  5
412
100
AcDbEntity
  8
2
100
AcDbCircle
 10
-164.146758
 20
247.743338
 30
0.0
 40
3.0
100
AcDbArc
 50
270.0
 51
360.0
  0
ARC
  5
413
100
AcDbEntity
  8
2
100
AcDbCircle
 10
-164.146758
 20
320.743338
 30
0.0
 40
3.0
100
AcDbArc
 50
360.0
 51
90.0
  0
ARC
  5
414
100
AcDbEntity
  8
2
100
AcDbCircle
 10
-406.146758
 20
-47.756662
 30
0.0
 40
6.0
100
AcDbArc
 50
347.4955
 51
10.142123
  0
ARC
  5
415
100
AcDbEntity
  8
2
100
AcDbCircle
 10
-357.646758
 20
-48.756662
 30
0.0
 40
42.643375
100
AcDbArc
 50
93.874568
 51
177.23575
  0
ARC
  5
416
100
AcDbEntity
  8
2
100
AcDbCircle
 10
-357.646758
 20
-48.756662
 30
0.0
 40
42.643375
100
AcDbArc
 50
180.401872
 51
254.041765
  0
LINE
  5
417
100
AcDbEntity
  8
2
100
AcDbLine
 10
-360.528275
 20
-6.210754
 30
0.0
 11
-301.071586
 21
-2.183916
 31
0.0
  0
LINE
  5
418
100
AcDbEntity
  8
2
100
AcDbLine
 10
-290.804787
 20
-1.488574
 30
0.0
 11
-237.255091
 21
2.138199
 31
0.0
  0
ARC
  5
419
100
AcDbEntity
  8
2
100
AcDbCircle
 10
-296.146758
 20
1.243338
 30
0.0
 40
6.0
100
AcDbArc
 50
214.83458
 51
332.914557
  0
LINE
  5
41A
100
AcDbEntity
  8
2
100
AcDbLine
 10
-290.146758
 20
-83.756662
 30
0.0
 11
-290.146758
 21
-87.756662
 31
0.0
  0
LINE
  5
41B
100
AcDbEntity
  8
2
100
AcDbLine
 10
-302.146758
 20
-83.756662
 30
0.0
 11
-302.146758
 21
-87.756662
 31
0.0
  0
ARC
  5
41C
100
AcDbEntity
  8
2
100
AcDbCircle
 10
-296.146758
 20
-83.756662
 30
0.0
 40
6.0
100
AcDbArc
 50
0.0
 51
180.0
  0
ARC
  5
41D
100
AcDbEntity
  8
2
100
AcDbCircle
 10
-288.146758
 20
-87.756662
 30
0.0
 40
2.0
100
AcDbArc
 50
180.0
 51
270.0
  0
ARC
  5
41E
100
AcDbEntity
  8
2
100
AcDbCircle
 10
-304.146758
 20
-87.756662
 30
0.0
 40
2.0
100
AcDbArc
 50
270.0
 51
360.0
  0
LINE
  5
41F
100
AcDbEntity
  8
2
100
AcDbLine
 10
-358.497379
 20
-83.746324
 30
0.0
 11
-304.900056
 21
-85.049309
 31
0.0
  0
LINE
  5
420
100
AcDbEntity
  8
2
100
AcDbLine
 10
-287.466614
 20
-85.473127
 30
0.0
 11
-235.191807
 21
-86.743961
 31
0.0
  0
ARC
  5
421
100
AcDbEntity
  8
2
100
AcDbCircle
 10
-201.146758
 20
-81.756662
 30
0.0
 40
6.0
100
AcDbArc
 50
89.567814
 51
172.375659
  0
ARC
  5
422
100
AcDbEntity
  8
2
100
AcDbCircle
 10
-234.146758
 20
-43.756662
 30
0.0
 40
46.0
100
AcDbArc
 50
270.0
 51
306.022978
  0
ARC
  5
423
100
AcDbEntity
  8
2
100
AcDbCircle
 10
-234.146758
 20
-43.756662
 30
0.0
 40
46.0
100
AcDbArc
 50
315.920494
 51
93.874568
  0
ARC
  5
424
100
AcDbEntity
  8
2
100
AcDbCircle
 10
-275.146758
 20
52.243338
 30
0.0
 40
34.0
100
AcDbArc
 50
22.844739
 51
157.155261
  0
LINE
  5
425
100
AcDbEntity
  8
2
100
AcDbLine
 10
-215.914085
 20
187.743338
 30
0.0
 11
-252.379431
 21
187.743338
 31
0.0
  0
LINE
  5
426
100
AcDbEntity
  8
2
100
AcDbLine
 10
-248.543956
 20
181.2257
 30
0.0
 11
-249.893154
 21
186.260976
 31
0.0
  0
LINE
  5
427
100
AcDbEntity
  8
2
100
AcDbLine
 10
-219.749561
 20
181.2257
 30
0.0
 11
-218.400362
 21
186.260976
 31
0.0
  0
LINE
  5
428
100
AcDbEntity
  8
2
100
AcDbLine
 10
-214.948159
 20
188.484519
 30
0.0
 11
-212.665865
 21
197.002157
 31
0.0
  0
LINE
  5
429
100
AcDbEntity
  8
2
100
AcDbLine
 10
-253.345357
 20
188.484519
 30
0.0
 11
-255.627651
 21
197.002157
 31
0.0
  0
ARC
  5
42A
100
AcDbEntity
  8
2
100
AcDbCircle
 10
-252.379431
 20
188.743338
 30
0.0
 40
1.0
100
AcDbArc
 50
195.0
 51
270.0
  0
ARC
  5
42B
100
AcDbEntity
  8
2
100
AcDbCircle
 10
-215.914085
 20
188.743338
 30
0.0
 40
1.0
100
AcDbArc
 50
270.0
 51
345.0
  0
ARC
  5
42C
100
AcDbEntity
  8
2
100
AcDbCircle
 10
-211.699939
 20
196.743338
 30
0.0
 40
1.0
100
AcDbArc
 50
90.0
 51
165.0
  0
ARC
  5
42D
100
AcDbEntity
  8
2
100
AcDbCircle
 10
-256.593577
 20
196.743338
 30
0.0
 40
1.0
100
AcDbArc
 50
15.0
 51
90.0
  0
ARC
  5
42E
100
AcDbEntity
  8
2
100
AcDbCircle
 10
-251.825006
 20
185.743338
 30
0.0
 40
2.0
100
AcDbArc
 50
15.0
 51
90.0
  0
ARC
  5
42F
100
AcDbEntity
  8
2
100
AcDbCircle
 10
-216.468511
 20
185.743338
 30
0.0
 40
2.0
100
AcDbArc
 50
90.0
 51
165.0
  0
ARC
  5
430
100
AcDbEntity
  8
2
100
AcDbCircle
 10
-221.681412
 20
181.743338
 30
0.0
 40
2.0
100
AcDbArc
 50
270.0
 51
345.0
  0
ARC
  5
431
100
AcDbEntity
  8
2
100
AcDbCircle
 10
-246.612104
 20
181.743338
 30
0.0
 40
2.0
100
AcDbArc
 50
195.0
 51
270.0
  0
CIRCLE
  5
432
100
AcDbEntity
  8
2
100
AcDbCircle
 10
-275.146758
 20
283.743338
 30
0.0
 40
31.33305
  0
ARC
  5
433
100
AcDbEntity
  8
2
100
AcDbCircle
 10
-312.571367
 20
284.070187
 30
0.0
 40
45.0
100
AcDbArc
 50
12.236103
 51
30.645688
  0
ARC
  5
434
100
AcDbEntity
  8
2
100
AcDbCircle
 10
-237.722149
 20
284.070187
 30
0.0
 40
45.0
100
AcDbArc
 50
149.354312
 51
167.763897
  0
ARC
  5
435
100
AcDbEntity
  8
2
100
AcDbCircle
 10
-275.146758
 20
306.243338
 30
0.0
 40
1.5
100
AcDbArc
 50
30.645688
 51
149.354312
  0
ARC
  5
436
100
AcDbEntity
  8
2
100
AcDbCircle
 10
-265.661806
 20
294.243338
 30
0.0
 40
3.0
100
AcDbArc
 50
192.236103
 51
270.0
  0
ARC
  5
437
100
AcDbEntity
  8
2
100
AcDbCircle
 10
-284.631711
 20
294.243338
 30
0.0
 40
3.0
100
AcDbArc
 50
270.0
 51
347.763897
  0
ARC
  5
438
100
AcDbEntity
  8
2
100
AcDbCircle
 10
-312.571367
 20
283.416489
 30
0.0
 40
45.0
100
AcDbArc
 50
329.354312
 51
347.763897
  0
ARC
  5
439
100
AcDbEntity
  8
2
100
AcDbCircle
 10
-237.722149
 20
283.416489
 30
0.0
 40
45.0
100
AcDbArc
 50
192.236103
 51
210.645688
  0
ARC
  5
43A
100
AcDbEntity
  8
2
100
AcDbCircle
 10
-275.146758
 20
261.243338
 30
0.0
 40
1.5
100
AcDbArc
 50
210.645688
 51
329.354312
  0
ARC
  5
43B
100
AcDbEntity
  8
2
100
AcDbCircle
 10
-265.661806
 20
273.243338
 30
0.0
 40
3.0
100
AcDbArc
 50
90.0
 51
167.763897
  0
ARC
  5
43C
100
AcDbEntity
  8
2
100
AcDbCircle
 10
-284.631711
 20
273.243338
 30
0.0
 40
3.0
100
AcDbArc
 50
12.236103
 51
90.0
  0
CIRCLE
  5
43D
100
AcDbEntity
  8
2
100
AcDbCircle
 10
-234.146758
 20
-43.756662
 30
0.0
 40
25.0
  0
LINE
  5
43E
100
AcDbEntity
  8
2
100
AcDbLine
 10
-217.146758
 20
-43.756662
 30
0.0
 11
-216.233243
 21
-37.256662
 31
0.0
  0
LINE
  5
43F
100
AcDbEntity
  8
2
100
AcDbLine
 10
-217.146758
 20
-43.756662
 30
0.0
 11
-220.27437
 21
-38.339479
 31
0.0
  0
LINE
  5
440
100
AcDbEntity
  8
2
100
AcDbLine
 10
-244.765167
 20
-40.510288
 30
0.0
 11
-250.403939
 21
-38.786343
 31
0.0
  0
ARC
  5
441
100
AcDbEntity
  8
2
100
AcDbCircle
 10
-231.146758
 20
-43.756662
 30
0.0
 40
14.0
100
AcDbArc
 50
24.948231
 51
166.591995
  0
ARC
  5
442
100
AcDbEntity
  8
2
100
AcDbCircle
 10
-234.146758
 20
-43.756662
 30
0.0
 40
17.0
100
AcDbArc
 50
20.543278
 51
163.0
  0
LINE
  5
443
100
AcDbEntity
  8
2
100
AcDbLine
 10
-220.27437
 20
-38.339479
 30
0.0
 11
-218.453108
 21
-37.851473
 31
0.0
  0
LINE
  5
444
100
AcDbEntity
  8
2
100
AcDbLine
 10
-218.227833
 20
-37.79111
 30
0.0
 11
-216.233243
 21
-37.256662
 31
0.0
  0
ARC
  5
445
100
AcDbEntity
  8
2
100
AcDbCircle
 10
-275.146758
 20
283.743338
 30
0.0
 40
24.248711
100
AcDbArc
 50
18.016736
 51
161.983264
  0
ARC
  5
446
100
AcDbEntity
  8
2
100
AcDbCircle
 10
-275.146758
 20
283.743338
 30
0.0
 40
24.248711
100
AcDbArc
 50
198.016736
 51
341.983264
  0
LINE
  5
447
100
AcDbEntity
  8
2
100
AcDbLine
 10
176.503242
 20
-54.433162
 30
0.0
 11
176.503242
 21
-61.080162
 31
0.0
  0
LINE
  5
448
100
AcDbEntity
  8
2
100
AcDbLine
 10
176.503242
 20
-61.080162
 30
0.0
 11
175.826742
 21
-61.756662
 31
0.0
  0
LINE
  5
449
100
AcDbEntity
  8
2
100
AcDbLine
 10
175.826742
 20
-61.756662
 30
0.0
 11
170.003242
 21
-61.756662
 31
0.0
  0
LINE
  5
44A
100
AcDbEntity
  8
2
100
AcDbLine
 10
175.826742
 20
-61.756662
 30
0.0
 11
175.826742
 21
-53.756662
 31
0.0
  0
LINE
  5
44B
100
AcDbEntity
  8
2
 62
     2
100
AcDbLine
 10
176.503242
 20
-61.080162
 30
0.0
 11
170.003242
 21
-61.080162
 31
0.0
  0
LINE
  5
44C
100
AcDbEntity
  8
2
100
AcDbLine
 10
176.503242
 20
-54.433162
 30
0.0
 11
175.826742
 21
-53.756662
 31
0.0
  0
LINE
  5
44D
100
AcDbEntity
  8
2
100
AcDbLine
 10
175.826742
 20
-53.756662
 30
0.0
 11
170.003242
 21
-53.756662
 31
0.0
  0
LINE
  5
44E
100
AcDbEntity
  8
2
 62
     2
100
AcDbLine
 10
176.503242
 20
-54.433162
 30
0.0
 11
170.003242
 21
-54.433162
 31
0.0
  0
LINE
  5
44F
100
AcDbEntity
  8
2
100
AcDbLine
 10
163.503242
 20
-51.256662
 30
0.0
 11
170.003242
 21
-51.256662
 31
0.0
  0
ARC
  5
450
100
AcDbEntity
  8
2
100
AcDbCircle
 10
162.324483
 20
-54.506662
 30
0.0
 40
7.678759
100
AcDbArc
 50
334.96034
 51
25.03966
  0
LINE
  5
451
100
AcDbEntity
  8
2
100
AcDbLine
 10
163.503242
 20
-64.256662
 30
0.0
 11
170.003242
 21
-64.256662
 31
0.0
  0
LINE
  5
452
100
AcDbEntity
  8
2
100
AcDbLine
 10
170.003242
 20
-64.256662
 30
0.0
 11
170.003242
 21
-51.256662
 31
0.0
  0
LINE
  5
453
100
AcDbEntity
  8
2
100
AcDbLine
 10
163.503242
 20
-57.756662
 30
0.0
 11
169.281554
 21
-57.756662
 31
0.0
  0
ARC
  5
454
100
AcDbEntity
  8
2
100
AcDbCircle
 10
162.324483
 20
-61.006662
 30
0.0
 40
7.678759
100
AcDbArc
 50
334.96034
 51
25.03966
  0
ARC
  5
455
100
AcDbEntity
  8
2
100
AcDbCircle
 10
157.503242
 20
-27.756662
 30
0.0
 40
6.0
100
AcDbArc
 50
0.0
 51
90.0
  0
ARC
  5
456
100
AcDbEntity
  8
2
100
AcDbCircle
 10
157.503242
 20
-86.756662
 30
0.0
 40
6.0
100
AcDbArc
 50
270.0
 51
360.0
  0
ARC
  5
457
100
AcDbEntity
  8
2
100
AcDbCircle
 10
66.503242
 20
-86.756662
 30
0.0
 40
6.0
100
AcDbArc
 50
180.0
 51
270.0
  0
LINE
  5
458
100
AcDbEntity
  8
2
100
AcDbLine
 10
56.503242
 20
14.037372
 30
0.0
 11
56.503242
 21
-89.756662
 31
0.0
  0
LINE
  5
459
100
AcDbEntity
  8
2
100
AcDbLine
 10
49.503242
 20
14.037372
 30
0.0
 11
63.503242
 21
14.037372
 31
0.0
  0
LINE
  5
45A
100
AcDbEntity
  8
2
100
AcDbLine
 10
46.503242
 20
-89.756662
 30
0.0
 11
59.503242
 21
-89.756662
 31
0.0
  0
LINE
  5
45B
100
AcDbEntity
  8
2
100
AcDbLine
 10
46.503242
 20
11.037372
 30
0.0
 11
46.503242
 21
-86.756662
 31
0.0
  0
LINE
  5
45C
100
AcDbEntity
  8
2
100
AcDbLine
 10
25.503242
 20
-5.093139
 30
0.0
 11
25.503242
 21
-82.420185
 31
0.0
  0
LINE
  5
45D
100
AcDbEntity
  8
2
100
AcDbLine
 10
29.796135
 20
-0.143391
 30
0.0
 11
41.921109
 21
1.588748
 31
0.0
  0
LINE
  5
45E
100
AcDbEntity
  8
2
100
AcDbLine
 10
29.796135
 20
-87.369932
 30
0.0
 11
46.503242
 21
-89.756662
 31
0.0
  0
ARC
  5
45F
100
AcDbEntity
  8
2
100
AcDbCircle
 10
49.503242
 20
11.037372
 30
0.0
 40
3.0
100
AcDbArc
 50
90.0
 51
180.0
  0
ARC
  5
460
100
AcDbEntity
  8
2
100
AcDbCircle
 10
30.503242
 20
-5.093139
 30
0.0
 40
5.0
100
AcDbArc
 50
98.130102
 51
180.0
  0
ARC
  5
461
100
AcDbEntity
  8
2
100
AcDbCircle
 10
30.503242
 20
-82.420185
 30
0.0
 40
5.0
100
AcDbArc
 50
180.0
 51
261.869898
  0
LINE
  5
462
100
AcDbEntity
  8
2
100
AcDbLine
 10
15.503242
 20
-25.523989
 30
0.0
 11
15.503242
 21
-61.989335
 31
0.0
  0
LINE
  5
463
100
AcDbEntity
  8
2
100
AcDbLine
 10
7.503242
 20
-31.291316
 30
0.0
 11
7.503242
 21
-56.222008
 31
0.0
  0
LINE
  5
464
100
AcDbEntity
  8
2
100
AcDbLine
 10
8.985604
 20
-29.359464
 30
0.0
 11
14.02088
 21
-28.010266
 31
0.0
  0
LINE
  5
465
100
AcDbEntity
  8
2
100
AcDbLine
 10
16.244423
 20
-24.558063
 30
0.0
 11
24.762061
 21
-22.275769
 31
0.0
  0
LINE
  5
466
100
AcDbEntity
  8
2
100
AcDbLine
 10
8.985604
 20
-58.153859
 30
0.0
 11
14.02088
 21
-59.503058
 31
0.0
  0
LINE
  5
467
100
AcDbEntity
  8
2
100
AcDbLine
 10
16.244423
 20
-62.955261
 30
0.0
 11
24.762061
 21
-65.237555
 31
0.0
  0
ARC
  5
468
100
AcDbEntity
  8
2
100
AcDbCircle
 10
16.503242
 20
-25.523989
 30
0.0
 40
1.0
100
AcDbArc
 50
105.0
 51
180.0
  0
ARC
  5
469
100
AcDbEntity
  8
2
100
AcDbCircle
 10
16.503242
 20
-61.989335
 30
0.0
 40
1.0
100
AcDbArc
 50
180.0
 51
255.0
  0
ARC
  5
46A
100
AcDbEntity
  8
2
100
AcDbCircle
 10
24.503242
 20
-21.309843
 30
0.0
 40
1.0
100
AcDbArc
 50
285.0
 51
360.0
  0
ARC
  5
46B
100
AcDbEntity
  8
2
100
AcDbCircle
 10
24.503242
 20
-66.203481
 30
0.0
 40
1.0
100
AcDbArc
 50
360.0
 51
75.0
  0
ARC
  5
46C
100
AcDbEntity
  8
2
100
AcDbCircle
 10
13.503242
 20
-61.434909
 30
0.0
 40
2.0
100
AcDbArc
 50
0.0
 51
75.0
  0
ARC
  5
46D
100
AcDbEntity
  8
2
100
AcDbCircle
 10
13.503242
 20
-26.078414
 30
0.0
 40
2.0
100
AcDbArc
 50
285.0
 51
0.0
  0
ARC
  5
46E
100
AcDbEntity
  8
2
100
AcDbCircle
 10
9.503242
 20
-31.291316
 30
0.0
 40
2.0
100
AcDbArc
 50
105.0
 51
180.0
  0
ARC
  5
46F
100
AcDbEntity
  8
2
100
AcDbCircle
 10
9.503242
 20
-56.222008
 30
0.0
 40
2.0
100
AcDbArc
 50
180.0
 51
255.0
  0
ARC
  5
470
100
AcDbEntity
  8
2
100
AcDbCircle
 10
63.503242
 20
15.037372
 30
0.0
 40
1.0
100
AcDbArc
 50
270.0
 51
360.0
  0
LINE
  5
471
100
AcDbEntity
  8
2
100
AcDbLine
 10
60.503242
 20
-90.756662
 30
0.0
 11
62.031106
 21
-90.756662
 31
0.0
  0
ARC
  5
472
100
AcDbEntity
  8
2
100
AcDbCircle
 10
59.503242
 20
-90.756662
 30
0.0
 40
1.0
100
AcDbArc
 50
0.0
 51
90.0
  0
ARC
  5
473
100
AcDbEntity
  8
2
100
AcDbCircle
 10
62.503242
 20
-94.756662
 30
0.0
 40
2.0
100
AcDbArc
 50
180.0
 51
270.0
  0
ARC
  5
474
100
AcDbEntity
  8
2
100
AcDbCircle
 10
-192.146758
 20
322.743338
 30
0.0
 40
2.0
100
AcDbArc
 50
0.0
 51
90.0
  0
ARC
  5
475
100
AcDbEntity
  8
2
100
AcDbCircle
 10
-204.146758
 20
334.743338
 30
0.0
 40
2.0
100
AcDbArc
 50
0.0
 51
90.0
  0
ARC
  5
476
100
AcDbEntity
  8
2
100
AcDbCircle
 10
-192.146758
 20
250.743338
 30
0.0
 40
2.0
100
AcDbArc
 50
270.0
 51
360.0
  0
ARC
  5
477
100
AcDbEntity
  8
2
100
AcDbCircle
 10
-204.146758
 20
238.743338
 30
0.0
 40
2.0
100
AcDbArc
 50
270.0
 51
360.0
  0
ARC
  5
478
100
AcDbEntity
  8
2
100
AcDbCircle
 10
-334.146758
 20
238.743338
 30
0.0
 40
2.0
100
AcDbArc
 50
180.0
 51
270.0
  0
ARC
  5
479
100
AcDbEntity
  8
2
100
AcDbCircle
 10
-348.146758
 20
250.743338
 30
0.0
 40
2.0
100
AcDbArc
 50
180.0
 51
270.0
  0
ARC
  5
47A
100
AcDbEntity
  8
2
100
AcDbCircle
 10
-334.146758
 20
334.743338
 30
0.0
 40
2.0
100
AcDbArc
 50
90.0
 51
180.0
  0
ARC
  5
47B
100
AcDbEntity
  8
2
100
AcDbCircle
 10
-348.146758
 20
322.743338
 30
0.0
 40
2.0
100
AcDbArc
 50
90.0
 51
180.0
  0
LINE
  5
47C
100
AcDbEntity
  8
2
100
AcDbLine
 10
157.503242
 20
-33.756662
 30
0.0
 11
161.503242
 21
-33.756662
 31
0.0
  0
LINE
  5
47D
100
AcDbEntity
  8
2
100
AcDbLine
 10
66.503242
 20
-33.756662
 30
0.0
 11
62.503242
 21
-33.756662
 31
0.0
  0
LINE
  5
47E
100
AcDbEntity
  8
2
100
AcDbLine
 10
72.503242
 20
-23.756662
 30
0.0
 11
72.503242
 21
-27.756662
 31
0.0
  0
LINE
  5
47F
100
AcDbEntity
  8
2
100
AcDbLine
 10
151.503242
 20
-23.756662
 30
0.0
 11
151.503242
 21
-27.756662
 31
0.0
  0
LINE
  5
480
100
AcDbEntity
  8
2
100
AcDbLine
 10
157.503242
 20
-80.756662
 30
0.0
 11
161.503242
 21
-80.756662
 31
0.0
  0
LINE
  5
481
100
AcDbEntity
  8
2
100
AcDbLine
 10
151.503242
 20
-90.756662
 30
0.0
 11
151.503242
 21
-86.756662
 31
0.0
  0
LINE
  5
482
100
AcDbEntity
  8
2
100
AcDbLine
 10
66.503242
 20
-80.756662
 30
0.0
 11
62.503242
 21
-80.756662
 31
0.0
  0
LINE
  5
483
100
AcDbEntity
  8
2
100
AcDbLine
 10
72.503242
 20
-90.756662
 30
0.0
 11
72.503242
 21
-86.756662
 31
0.0
  0
ARC
  5
484
100
AcDbEntity
  8
2
100
AcDbCircle
 10
161.503242
 20
-35.756662
 30
0.0
 40
2.0
100
AcDbArc
 50
0.0
 51
90.0
  0
ARC
  5
485
100
AcDbEntity
  8
2
100
AcDbCircle
 10
149.503242
 20
-23.756662
 30
0.0
 40
2.0
100
AcDbArc
 50
0.0
 51
90.0
  0
ARC
  5
486
100
AcDbEntity
  8
2
100
AcDbCircle
 10
74.503242
 20
-23.756662
 30
0.0
 40
2.0
100
AcDbArc
 50
90.0
 51
180.0
  0
ARC
  5
487
100
AcDbEntity
  8
2
100
AcDbCircle
 10
62.503242
 20
-35.756662
 30
0.0
 40
2.0
100
AcDbArc
 50
90.0
 51
180.0
  0
ARC
  5
488
100
AcDbEntity
  8
2
100
AcDbCircle
 10
62.503242
 20
-78.756662
 30
0.0
 40
2.0
100
AcDbArc
 50
180.0
 51
270.0
  0
ARC
  5
489
100
AcDbEntity
  8
2
100
AcDbCircle
 10
74.503242
 20
-90.756662
 30
0.0
 40
2.0
100
AcDbArc
 50
180.0
 51
270.0
  0
ARC
  5
48A
100
AcDbEntity
  8
2
100
AcDbCircle
 10
149.503242
 20
-90.756662
 30
0.0
 40
2.0
100
AcDbArc
 50
270.0
 51
0.0
  0
ARC
  5
48B
100
AcDbEntity
  8
2
100
AcDbCircle
 10
161.503242
 20
-78.756662
 30
0.0
 40
2.0
100
AcDbArc
 50
270.0
 51
360.0
  0
ARC
  5
48C
100
AcDbEntity
  8
2
100
AcDbCircle
 10
157.503242
 20
-86.756662
 30
0.0
 40
6.0
100
AcDbArc
 50
90.0
 51
180.0
  0
ARC
  5
48D
100
AcDbEntity
  8
2
100
AcDbCircle
 10
157.503242
 20
-27.756662
 30
0.0
 40
6.0
100
AcDbArc
 50
180.0
 51
270.0
  0
ARC
  5
48E
100
AcDbEntity
  8
2
100
AcDbCircle
 10
66.503242
 20
-27.756662
 30
0.0
 40
6.0
100
AcDbArc
 50
270.0
 51
360.0
  0
ARC
  5
48F
100
AcDbEntity
  8
2
100
AcDbCircle
 10
66.503242
 20
-86.756662
 30
0.0
 40
6.0
100
AcDbArc
 50
360.0
 51
90.0
  0
LINE
  5
490
100
AcDbEntity
  8
2
100
AcDbLine
 10
74.503242
 20
-23.331458
 30
0.0
 11
149.503242
 21
-23.331458
 31
0.0
  0
LINE
  5
491
100
AcDbEntity
  8
2
100
AcDbLine
 10
74.503242
 20
-91.181866
 30
0.0
 11
149.503242
 21
-91.181866
 31
0.0
  0
LINE
  5
492
100
AcDbEntity
  8
2
100
AcDbLine
 10
161.928446
 20
-78.756662
 30
0.0
 11
161.928446
 21
-35.756662
 31
0.0
  0
LINE
  5
493
100
AcDbEntity
  8
2
100
AcDbLine
 10
62.078038
 20
-78.756662
 30
0.0
 11
62.078038
 21
-35.756662
 31
0.0
  0
ARC
  5
494
100
AcDbEntity
  8
2
100
AcDbCircle
 10
66.503242
 20
-27.756662
 30
0.0
 40
6.0
100
AcDbArc
 50
90.0
 51
180.0
  0
ARC
  5
495
100
AcDbEntity
  8
2
100
AcDbCircle
 10
66.503242
 20
-19.756662
 30
0.0
 40
2.0
100
AcDbArc
 50
180.0
 51
270.0
  0
ARC
  5
496
100
AcDbEntity
  8
2
100
AcDbCircle
 10
111.503242
 20
52.243338
 30
0.0
 40
34.0
100
AcDbArc
 50
45.099128
 51
134.900872
  0
LINE
  5
497
100
AcDbEntity
  8
2
100
AcDbLine
 10
119.003237
 20
83.848824
 30
0.0
 11
119.003242
 21
65.443338
 31
0.0
  0
LINE
  5
498
100
AcDbEntity
  8
2
100
AcDbLine
 10
104.003242
 20
83.848824
 30
0.0
 11
104.003242
 21
65.443338
 31
0.0
  0
LINE
  5
499
100
AcDbEntity
  8
2
100
AcDbLine
 10
87.503242
 20
76.326527
 30
0.0
 11
87.503242
 21
74.60044
 31
0.0
  0
LINE
  5
49A
100
AcDbEntity
  8
2
100
AcDbLine
 10
135.503242
 20
76.326527
 30
0.0
 11
135.503242
 21
74.60044
 31
0.0
  0
ARC
  5
49B
100
AcDbEntity
  8
2
100
AcDbCircle
 10
-275.146758
 20
50.743338
 30
0.0
 40
28.0
100
AcDbArc
 50
34.712682
 51
81.884254
  0
ARC
  5
49C
100
AcDbEntity
  8
2
100
AcDbCircle
 10
-275.146758
 20
50.743338
 30
0.0
 40
28.0
100
AcDbArc
 50
98.115746
 51
145.287318
  0
ARC
  5
49D
100
AcDbEntity
  8
2
100
AcDbCircle
 10
111.503242
 20
54.243338
 30
0.0
 40
31.0
100
AcDbArc
 50
28.453097
 51
48.922243
  0
ARC
  5
49E
100
AcDbEntity
  8
2
100
AcDbCircle
 10
111.503242
 20
54.243338
 30
0.0
 40
31.0
100
AcDbArc
 50
131.077757
 51
151.546903
  0
ARC
  5
49F
100
AcDbEntity
  8
2
100
AcDbCircle
 10
111.503242
 20
50.743338
 30
0.0
 40
28.0
100
AcDbArc
 50
105.536794
 51
145.287318
  0
ARC
  5
4A0
100
AcDbEntity
  8
2
100
AcDbCircle
 10
111.503242
 20
50.743338
 30
0.0
 40
28.0
100
AcDbArc
 50
34.712682
 51
74.463206
  0
ARC
  5
4A1
100
AcDbEntity
  8
2
100
AcDbCircle
 10
-276.146758
 20
73.743338
 30
0.0
 40
1.0
100
AcDbArc
 50
90.0
 51
180.0
  0
ARC
  5
4A2
100
AcDbEntity
  8
2
100
AcDbCircle
 10
-274.146758
 20
73.743338
 30
0.0
 40
1.0
100
AcDbArc
 50
0.0
 51
90.0
  0
LINE
  5
4A3
100
AcDbEntity
  8
2
100
AcDbLine
 10
-276.146758
 20
74.743338
 30
0.0
 11
-275.781992
 21
74.743343
 31
0.0
  0
LINE
  5
4A4
100
AcDbEntity
  8
2
100
AcDbLine
 10
-274.511292
 20
74.743452
 30
0.0
 11
-274.146758
 21
74.743338
 31
0.0
  0
LINE
  5
4A5
100
AcDbEntity
  8
2
100
AcDbLine
 10
-283.962426
 20
261.153871
 30
0.0
 11
-281.963557
 21
265.979568
 31
0.0
  0
LINE
  5
4A6
100
AcDbEntity
  8
2
100
AcDbLine
 10
-267.40608
 20
301.124425
 30
0.0
 11
-265.407211
 21
305.950122
 31
0.0
  0
LINE
  5
4A7
100
AcDbEntity
  8
2
100
AcDbLine
 10
-284.886305
 20
261.536555
 30
0.0
 11
-282.887436
 21
266.362252
 31
0.0
  0
LINE
  5
4A8
100
AcDbEntity
  8
2
100
AcDbLine
 10
-268.32996
 20
301.507108
 30
0.0
 11
-266.331091
 21
306.332805
 31
0.0
  0
LINE
  5
4A9
100
AcDbEntity
  8
2
100
AcDbLine
 10
-291.935988
 20
266.247002
 30
0.0
 11
-288.242559
 21
269.940431
 31
0.0
  0
LINE
  5
4AA
100
AcDbEntity
  8
2
100
AcDbLine
 10
-261.343851
 20
296.839139
 30
0.0
 11
-257.650422
 21
300.532568
 31
0.0
  0
LINE
  5
4AB
100
AcDbEntity
  8
2
100
AcDbLine
 10
-292.643094
 20
266.954109
 30
0.0
 11
-288.949666
 21
270.647537
 31
0.0
  0
LINE
  5
4AC
100
AcDbEntity
  8
2
100
AcDbLine
 10
-262.050957
 20
297.546246
 30
0.0
 11
-258.357529
 21
301.239674
 31
0.0
  0
LINE
  5
4AD
100
AcDbEntity
  8
2
100
AcDbLine
 10
-297.353542
 20
274.003791
 30
0.0
 11
-292.527845
 21
276.00266
 31
0.0
  0
LINE
  5
4AE
100
AcDbEntity
  8
2
100
AcDbLine
 10
-255.733594
 20
291.243338
 30
0.0
 11
-252.557292
 21
292.559006
 31
0.0
  0
LINE
  5
4AF
100
AcDbEntity
  8
2
100
AcDbLine
 10
-297.736225
 20
274.927671
 30
0.0
 11
-294.559923
 21
276.243338
 31
0.0
  0
LINE
  5
4B0
100
AcDbEntity
  8
2
100
AcDbLine
 10
-257.765672
 20
291.484016
 30
0.0
 11
-252.939975
 21
293.482885
 31
0.0
  0
ARC
  5
4B1
100
AcDbEntity
  8
2
100
AcDbCircle
 10
-282.425496
 20
266.17091
 30
0.0
 40
0.5
100
AcDbArc
 50
337.5
 51
157.5
  0
ARC
  5
4B2
100
AcDbEntity
  8
2
100
AcDbCircle
 10
-288.596113
 20
270.293984
 30
0.0
 40
0.5
100
AcDbArc
 50
315.0
 51
135.0
  0
ARC
  5
4B3
100
AcDbEntity
  8
2
100
AcDbCircle
 10
-292.719186
 20
276.4646
 30
0.0
 40
0.5
100
AcDbArc
 50
292.5
 51
333.734975
  0
ARC
  5
4B4
100
AcDbEntity
  8
2
100
AcDbCircle
 10
-267.86802
 20
301.315766
 30
0.0
 40
0.5
100
AcDbArc
 50
157.5
 51
337.5
  0
ARC
  5
4B5
100
AcDbEntity
  8
2
100
AcDbCircle
 10
-261.697404
 20
297.192692
 30
0.0
 40
0.5
100
AcDbArc
 50
135.0
 51
315.0
  0
ARC
  5
4B6
100
AcDbEntity
  8
2
100
AcDbCircle
 10
-257.57433
 20
291.022076
 30
0.0
 40
0.5
100
AcDbArc
 50
112.5
 51
153.734975
  0
LINE
  5
4B7
100
AcDbEntity
  8
2
100
AcDbLine
 10
-258.345394
 20
274.889644
 30
0.0
 11
-256.323348
 21
274.052085
 31
0.0
  0
ARC
  5
4B8
100
AcDbEntity
  8
2
100
AcDbCircle
 10
-257.675643
 20
276.506565
 30
0.0
 40
1.750143
100
AcDbArc
 50
188.650293
 51
247.5
  0
ARC
  5
4B9
100
AcDbEntity
  8
2
100
AcDbCircle
 10
-255.653598
 20
275.669007
 30
0.0
 40
1.750143
100
AcDbArc
 50
247.5
 51
19.157293
  0
LINE
  5
4BA
100
AcDbEntity
  8
2
100
AcDbLine
 10
-291.948123
 20
292.597032
 30
0.0
 11
-293.970168
 21
293.434591
 31
0.0
  0
ARC
  5
4BB
100
AcDbEntity
  8
2
100
AcDbCircle
 10
-292.617874
 20
290.980111
 30
0.0
 40
1.750143
100
AcDbArc
 50
8.650293
 51
67.5
  0
ARC
  5
4BC
100
AcDbEntity
  8
2
100
AcDbCircle
 10
-294.639919
 20
291.81767
 30
0.0
 40
1.750143
100
AcDbArc
 50
67.5
 51
199.157293
  0
ARC
  5
4BD
100
AcDbEntity
  8
2
100
AcDbCircle
 10
-239.746363
 20
55.008968
 30
0.0
 40
45.274917
100
AcDbArc
 50
159.10214
 51
166.675437
  0
ARC
  5
4BE
100
AcDbEntity
  8
2
100
AcDbCircle
 10
-240.670243
 20
55.008968
 30
0.0
 40
45.274917
100
AcDbArc
 50
158.681079
 51
166.675437
  0
ARC
  5
4BF
100
AcDbEntity
  8
2
100
AcDbCircle
 10
-282.445595
 20
71.312391
 30
0.0
 40
0.430947
100
AcDbArc
 50
339.10214
 51
158.681079
  0
ARC
  5
4C0
100
AcDbEntity
  8
2
100
AcDbCircle
 10
-263.716829
 20
53.242086
 30
0.0
 40
30.472934
100
AcDbArc
 50
143.677597
 51
156.39704
  0
ARC
  5
4C1
100
AcDbEntity
  8
2
100
AcDbCircle
 10
-264.423936
 20
53.242086
 30
0.0
 40
30.472934
100
AcDbArc
 50
142.882669
 51
156.39704
  0
ARC
  5
4C2
100
AcDbEntity
  8
2
100
AcDbCircle
 10
-288.49711
 20
71.459934
 30
0.0
 40
0.283404
100
AcDbArc
 50
323.677597
 51
142.882669
  0
ARC
  5
4C3
100
AcDbEntity
  8
2
100
AcDbCircle
 10
-272.472417
 20
51.475205
 30
0.0
 40
28.197761
100
AcDbArc
 50
134.711482
 51
150.306296
  0
ARC
  5
4C4
100
AcDbEntity
  8
2
100
AcDbCircle
 10
-272.8551
 20
51.475205
 30
0.0
 40
28.197761
100
AcDbArc
 50
134.156238
 51
150.306296
  0
ARC
  5
4C5
100
AcDbEntity
  8
2
100
AcDbCircle
 10
-292.404833
 20
71.609381
 30
0.0
 40
0.133957
100
AcDbArc
 50
314.711482
 51
134.156238
  0
ARC
  5
4C6
100
AcDbEntity
  8
2
100
AcDbCircle
 10
76.102847
 20
55.008968
 30
0.0
 40
45.274917
100
AcDbArc
 50
13.324563
 51
18.638604
  0
ARC
  5
4C7
100
AcDbEntity
  8
2
100
AcDbCircle
 10
77.026726
 20
55.008968
 30
0.0
 40
45.274917
100
AcDbArc
 50
13.324563
 51
21.318921
  0
ARC
  5
4C8
100
AcDbEntity
  8
2
100
AcDbCircle
 10
118.802079
 20
71.312391
 30
0.0
 40
0.430947
100
AcDbArc
 50
21.318921
 51
62.173379
  0
ARC
  5
4C9
100
AcDbEntity
  8
2
100
AcDbCircle
 10
100.073313
 20
53.242086
 30
0.0
 40
30.472934
100
AcDbArc
 50
23.60296
 51
36.322403
  0
ARC
  5
4CA
100
AcDbEntity
  8
2
100
AcDbCircle
 10
100.78042
 20
53.242086
 30
0.0
 40
30.472934
100
AcDbArc
 50
23.60296
 51
37.117331
  0
ARC
  5
4CB
100
AcDbEntity
  8
2
100
AcDbCircle
 10
124.853594
 20
71.459934
 30
0.0
 40
0.283404
100
AcDbArc
 50
37.117331
 51
216.322403
  0
ARC
  5
4CC
100
AcDbEntity
  8
2
100
AcDbCircle
 10
108.8289
 20
51.475205
 30
0.0
 40
28.197761
100
AcDbArc
 50
29.693704
 51
45.288518
  0
ARC
  5
4CD
100
AcDbEntity
  8
2
100
AcDbCircle
 10
109.211584
 20
51.475205
 30
0.0
 40
28.197761
100
AcDbArc
 50
29.693704
 51
45.843762
  0
ARC
  5
4CE
100
AcDbEntity
  8
2
100
AcDbCircle
 10
128.761316
 20
71.609381
 30
0.0
 40
0.133957
100
AcDbArc
 50
45.843762
 51
225.288518
  0
ARC
  5
4CF
100
AcDbEntity
  8
2
100
AcDbCircle
 10
65.503242
 20
12.243338
 30
0.0
 40
1.0
100
AcDbArc
 50
180.0
 51
270.0
  0
ARC
  5
4D0
100
AcDbEntity
  8
2
100
AcDbCircle
 10
163.503242
 20
12.243338
 30
0.0
 40
1.0
100
AcDbArc
 50
270.0
 51
360.0
  0
ARC
  5
4D1
100
AcDbEntity
  8
2
100
AcDbCircle
 10
163.503242
 20
10.243338
 30
0.0
 40
1.0
100
AcDbArc
 50
90.0
 51
180.0
  0
ARC
  5
4D2
100
AcDbEntity
  8
2
100
AcDbCircle
 10
-191.146758
 20
10.243338
 30
0.0
 40
1.0
100
AcDbArc
 50
90.0
 51
180.0
  0
LINE
  5
4D3
100
AcDbEntity
  8
2
100
AcDbLine
 10
-403.646758
 20
338.743338
 30
0.0
 11
-404.646758
 21
337.743338
 31
0.0
  0
LINE
  5
4D4
100
AcDbEntity
  8
2
100
AcDbLine
 10
-318.646758
 20
338.743338
 30
0.0
 11
-317.646758
 21
337.743338
 31
0.0
  0
LINE
  5
4D5
100
AcDbEntity
  8
2
100
AcDbLine
 10
-404.646758
 20
337.743338
 30
0.0
 11
-317.646758
 21
337.743338
 31
0.0
  0
ARC
  5
4D6
100
AcDbEntity
  8
2
100
AcDbCircle
 10
-275.146758
 20
52.243338
 30
0.0
 40
33.162479
100
AcDbArc
 50
104.962752
 51
150.128593
  0
ARC
  5
4D7
100
AcDbEntity
  8
2
100
AcDbCircle
 10
-269.592209
 20
84.233201
 30
0.0
 40
10.0
100
AcDbArc
 50
202.238154
 51
227.992896
  0
ARC
  5
4D8
100
AcDbEntity
  8
2
100
AcDbCircle
 10
-282.93444
 20
81.383124
 30
0.0
 40
3.0
100
AcDbArc
 50
42.388379
 51
104.962752
  0
ARC
  5
4D9
100
AcDbEntity
  8
2
100
AcDbCircle
 10
-288.104585
 20
76.664056
 30
0.0
 40
10.0
100
AcDbArc
 50
22.238154
 51
42.388379
  0
ARC
  5
4DA
100
AcDbEntity
  8
2
100
AcDbCircle
 10
-280.701307
 20
84.233201
 30
0.0
 40
10.0
100
AcDbArc
 50
312.007104
 51
337.761846
  0
ARC
  5
4DB
100
AcDbEntity
  8
2
100
AcDbCircle
 10
-262.188932
 20
76.664056
 30
0.0
 40
10.0
100
AcDbArc
 50
137.611621
 51
157.761846
  0
ARC
  5
4DC
100
AcDbEntity
  8
2
100
AcDbCircle
 10
-267.359076
 20
81.383124
 30
0.0
 40
3.0
100
AcDbArc
 50
75.037248
 51
137.611621
  0
ARC
  5
4DD
100
AcDbEntity
  8
2
100
AcDbCircle
 10
-275.146758
 20
52.243338
 30
0.0
 40
33.162479
100
AcDbArc
 50
29.871407
 51
75.037248
  0
ARC
  5
4DE
100
AcDbEntity
  8
2
100
AcDbCircle
 10
-275.146758
 20
78.065788
 30
0.0
 40
1.7
100
AcDbArc
 50
227.992896
 51
312.007104
  0
ARC
  5
4DF
100
AcDbEntity
  8
2
100
AcDbCircle
 10
-274.671867
 20
51.420803
 30
0.0
 40
32.849358
100
AcDbArc
 50
105.470231
 51
147.621493
  0
ARC
  5
4E0
100
AcDbEntity
  8
2
100
AcDbCircle
 10
-268.638258
 20
84.341699
 30
0.0
 40
12.0
100
AcDbArc
 50
200.135943
 51
231.694293
  0
ARC
  5
4E1
100
AcDbEntity
  8
2
100
AcDbCircle
 10
-285.53807
 20
78.145221
 30
0.0
 40
6.0
100
AcDbArc
 50
20.135943
 51
48.747449
  0
ARC
  5
4E2
100
AcDbEntity
  8
2
100
AcDbCircle
 10
-282.900553
 20
81.152463
 30
0.0
 40
2.0
100
AcDbArc
 50
48.747449
 51
105.470231
  0
ARC
  5
4E3
100
AcDbEntity
  8
2
100
AcDbCircle
 10
-281.655259
 20
84.341699
 30
0.0
 40
12.0
100
AcDbArc
 50
308.305707
 51
339.864057
  0
ARC
  5
4E4
100
AcDbEntity
  8
2
100
AcDbCircle
 10
-264.755446
 20
78.145221
 30
0.0
 40
6.0
100
AcDbArc
 50
131.252551
 51
159.864057
  0
ARC
  5
4E5
100
AcDbEntity
  8
2
100
AcDbCircle
 10
-267.392963
 20
81.152463
 30
0.0
 40
2.0
100
AcDbArc
 50
74.529769
 51
131.252551
  0
ARC
  5
4E6
100
AcDbEntity
  8
2
100
AcDbCircle
 10
-275.621649
 20
51.420803
 30
0.0
 40
32.849358
100
AcDbArc
 50
32.378507
 51
74.529769
  0
ARC
  5
4E7
100
AcDbEntity
  8
2
100
AcDbCircle
 10
-275.146758
 20
76.102195
 30
0.0
 40
1.5
100
AcDbArc
 50
231.694293
 51
308.305707
  0
ARC
  5
4E8
100
AcDbEntity
  8
2
100
AcDbCircle
 10
103.219454
 20
72.92237
 30
0.0
 40
11.430139
100
AcDbArc
 50
88.512215
 51
112.714662
  0
ARC
  5
4E9
100
AcDbEntity
  8
2
100
AcDbCircle
 10
103.503242
 20
83.848824
 30
0.0
 40
0.5
100
AcDbArc
 50
0.0
 51
88.512215
  0
ARC
  5
4EA
100
AcDbEntity
  8
2
100
AcDbCircle
 10
114.339615
 20
46.357865
 30
0.0
 40
40.228245
100
AcDbArc
 50
112.714662
 51
131.843847
  0
ARC
  5
4EB
100
AcDbEntity
  8
2
100
AcDbCircle
 10
104.709456
 20
66.026393
 30
0.0
 40
17.127052
100
AcDbArc
 50
93.791923
 51
118.737001
  0
ARC
  5
4EC
100
AcDbEntity
  8
2
100
AcDbCircle
 10
103.603242
 20
82.716826
 30
0.0
 40
0.4
100
AcDbArc
 50
0.0
 51
93.791923
  0
ARC
  5
4ED
100
AcDbEntity
  8
2
100
AcDbCircle
 10
118.421805
 20
41.018628
 30
0.0
 40
45.647515
100
AcDbArc
 50
118.737001
 51
132.635576
  0
ARC
  5
4EE
100
AcDbEntity
  8
2
100
AcDbCircle
 10
118.297028
 20
66.026393
 30
0.0
 40
17.127052
100
AcDbArc
 50
61.262999
 51
86.208077
  0
ARC
  5
4EF
100
AcDbEntity
  8
2
100
AcDbCircle
 10
104.584678
 20
41.018628
 30
0.0
 40
45.647515
100
AcDbArc
 50
47.364424
 51
61.262999
  0
ARC
  5
4F0
100
AcDbEntity
  8
2
100
AcDbCircle
 10
119.403242
 20
82.716826
 30
0.0
 40
0.4
100
AcDbArc
 50
86.208077
 51
180.0
  0
ARC
  5
4F1
100
AcDbEntity
  8
2
100
AcDbCircle
 10
119.503242
 20
83.848824
 30
0.0
 40
0.5
100
AcDbArc
 50
91.487785
 51
180.0
  0
ARC
  5
4F2
100
AcDbEntity
  8
2
100
AcDbCircle
 10
119.78703
 20
72.92237
 30
0.0
 40
11.430139
100
AcDbArc
 50
67.285338
 51
91.487785
  0
ARC
  5
4F3
100
AcDbEntity
  8
2
100
AcDbCircle
 10
108.666868
 20
46.357865
 30
0.0
 40
40.228245
100
AcDbArc
 50
48.156153
 51
67.285338
  0
ARC
  5
4F4
100
AcDbEntity
  8
2
100
AcDbCircle
 10
-400.034258
 20
325.743338
 30
0.0
 40
3.0
100
AcDbArc
 50
0.0
 51
90.0
  0
LINE
  5
4F5
100
AcDbEntity
  8
2
100
AcDbLine
 10
-397.034258
 20
325.743338
 30
0.0
 11
-397.034258
 21
337.743338
 31
0.0
  0
ARC
  5
4F6
100
AcDbEntity
  8
2
100
AcDbCircle
 10
-351.426384
 20
328.743338
 30
0.0
 40
6.0
100
AcDbArc
 50
90.0
 51
180.0
  0
ARC
  5
4F7
100
AcDbEntity
  8
2
100
AcDbCircle
 10
49.503242
 20
-86.756662
 30
0.0
 40
3.0
100
AcDbArc
 50
180.0
 51
270.0
  0
ARC
  5
4F8
100
AcDbEntity
  8
2
100
AcDbCircle
 10
-296.146758
 20
-83.756662
 30
0.0
 40
6.733336
100
AcDbArc
 50
1.856603
 51
175.358151
  0
ARC
  5
4F9
100
AcDbEntity
  8
2
100
AcDbCircle
 10
-304.851449
 20
-83.0499
 30
0.0
 40
2.0
100
AcDbArc
 50
268.607377
 51
355.358151
  0
ARC
  5
4FA
100
AcDbEntity
  8
2
100
AcDbCircle
 10
-287.418007
 20
-83.473718
 30
0.0
 40
2.0
100
AcDbArc
 50
181.856603
 51
268.607377
  0
LINE
  5
4FB
100
AcDbEntity
  8
2
  6
CENTER
 62
     2
100
AcDbLine
 10
-234.146758
 20
14.143338
 30
0.0
 11
-234.146758
 21
-98.556662
 31
0.0
  0
LINE
  5
4FC
100
AcDbEntity
  8
2
  6
CENTER
 62
     2
100
AcDbLine
 10
-275.146758
 20
341.443338
 30
0.0
 11
-275.146758
 21
194.843338
 31
0.0
  0
LINE
  5
4FD
100
AcDbEntity
  8
2
  6
CENTER
 62
     2
100
AcDbLine
 10
-423.075261
 20
283.743338
 30
0.0
 11
-147.787846
 21
283.743338
 31
0.0
  0
LINE
  5
4FE
100
AcDbEntity
  8
2
  6
CENTER
 62
     2
100
AcDbLine
 10
-234.146758
 20
342.543338
 30
0.0
 11
-234.146758
 21
144.114418
 31
0.0
  0
LINE
  5
4FF
100
AcDbEntity
  8
2
  6
CENTER
 62
     2
100
AcDbLine
 10
-22.775645
 20
-43.756662
 30
0.0
 11
170.888082
 21
-43.756662
 31
0.0
  0
LINE
  5
500
100
AcDbEntity
  8
2
  6
CENTER
 62
     2
100
AcDbLine
 10
68.303242
 20
-3.756662
 30
0.0
 11
159.103242
 21
-3.756662
 31
0.0
  0
LINE
  5
501
100
AcDbEntity
  8
2
  6
CENTER
 62
     2
100
AcDbLine
 10
94.503242
 20
18.543338
 30
0.0
 11
94.503242
 21
-21.456662
 31
0.0
  0
LINE
  5
502
100
AcDbEntity
  8
2
  6
CENTER
 62
     2
100
AcDbLine
 10
134.503242
 20
18.543338
 30
0.0
 11
134.503242
 21
-21.456662
 31
0.0
  0
LINE
  5
503
100
AcDbEntity
  8
2
  6
CENTER
 62
     2
100
AcDbLine
 10
157.503242
 20
-94.856662
 30
0.0
 11
157.503242
 21
-79.156662
 31
0.0
  0
LINE
  5
504
100
AcDbEntity
  8
2
  6
CENTER
 62
     2
100
AcDbLine
 10
150.303242
 20
-86.756662
 30
0.0
 11
165.103242
 21
-86.756662
 31
0.0
  0
LINE
  5
505
100
AcDbEntity
  8
2
  6
CENTER
 62
     2
100
AcDbLine
 10
66.503242
 20
-94.956662
 30
0.0
 11
66.503242
 21
-79.156662
 31
0.0
  0
LINE
  5
506
100
AcDbEntity
  8
2
  6
CENTER
 62
     2
100
AcDbLine
 10
73.903242
 20
-86.756662
 30
0.0
 11
58.803242
 21
-86.756662
 31
0.0
  0
LINE
  5
507
100
AcDbEntity
  8
2
  6
CENTER
 62
     2
100
AcDbLine
 10
157.503242
 20
-20.656662
 30
0.0
 11
157.503242
 21
-35.056662
 31
0.0
  0
LINE
  5
508
100
AcDbEntity
  8
2
  6
CENTER
 62
     2
100
AcDbLine
 10
150.003242
 20
-27.756662
 30
0.0
 11
165.003242
 21
-27.756662
 31
0.0
  0
LINE
  5
509
100
AcDbEntity
  8
2
  6
CENTER
 62
     2
100
AcDbLine
 10
66.503242
 20
-19.956662
 30
0.0
 11
66.503242
 21
-35.256662
 31
0.0
  0
LINE
  5
50A
100
AcDbEntity
  8
2
  6
CENTER
 62
     2
100
AcDbLine
 10
73.903242
 20
-27.756662
 30
0.0
 11
58.903242
 21
-27.756662
 31
0.0
  0
LINE
  5
50B
100
AcDbEntity
  8
2
  6
CENTER
 62
     2
100
AcDbLine
 10
68.503242
 20
-107.856662
 30
0.0
 11
68.503242
 21
-88.156662
 31
0.0
  0
LINE
  5
50C
100
AcDbEntity
  8
2
  6
CENTER
 62
     2
100
AcDbLine
 10
155.503242
 20
-107.556662
 30
0.0
 11
155.503242
 21
-88.656662
 31
0.0
  0
LINE
  5
50D
100
AcDbEntity
  8
2
  6
CENTER
 62
     2
100
AcDbLine
 10
-217.146758
 20
-107.356662
 30
0.0
 11
-217.146758
 21
-85.556662
 31
0.0
  0
LINE
  5
50E
100
AcDbEntity
  8
2
  6
CENTER
 62
     2
100
AcDbLine
 10
-309.146758
 20
-107.356662
 30
0.0
 11
-309.146758
 21
-85.556662
 31
0.0
  0
LINE
  5
50F
100
AcDbEntity
  8
2
  6
CENTER
 62
     2
100
AcDbLine
 10
-405.146758
 20
-107.356662
 30
0.0
 11
-405.146758
 21
-85.556662
 31
0.0
  0
LINE
  5
510
100
AcDbEntity
  8
2
  6
CENTER
 62
     2
100
AcDbLine
 10
-293.146758
 20
354.797198
 30
0.0
 11
-293.146758
 21
326.043338
 31
0.0
  0
LINE
  5
511
100
AcDbEntity
  8
2
  6
CENTER
 62
     2
100
AcDbLine
 10
-257.146758
 20
326.043338
 30
0.0
 11
-257.146758
 21
354.797198
 31
0.0
  0
LINE
  5
512
100
AcDbEntity
  8
2
  6
CENTER
 62
     2
100
AcDbLine
 10
-172.446888
 20
266.743338
 30
0.0
 11
-198.476847
 21
266.743338
 31
0.0
  0
LINE
  5
513
100
AcDbEntity
  8
2
  6
CENTER
 62
     2
100
AcDbLine
 10
-172.446888
 20
306.743338
 30
0.0
 11
-198.476847
 21
306.743338
 31
0.0
  0
LINE
  5
514
100
AcDbEntity
  8
2
  6
CENTER
 62
     2
100
AcDbLine
 10
-198.476847
 20
-3.756662
 30
0.0
 11
-185.146758
 21
-3.756662
 31
0.0
  0
LINE
  5
515
100
AcDbEntity
  8
2
  6
CENTER
 62
     2
100
AcDbLine
 10
-181.346758
 20
-3.756662
 30
0.0
 11
-175.233381
 21
-3.756662
 31
0.0
  0
LINE
  5
516
100
AcDbEntity
  8
2
  6
CENTER
 62
     2
100
AcDbLine
 10
-425.359166
 20
-43.756662
 30
0.0
 11
-145.136158
 21
-43.756662
 31
0.0
  0
LINE
  5
517
100
AcDbEntity
  8
2
  6
CENTER
 62
     2
100
AcDbLine
 10
-349.620411
 20
330.743338
 30
0.0
 11
-332.970864
 21
330.743338
 31
0.0
  0
LINE
  5
518
100
AcDbEntity
  8
2
  6
CENTER
 62
     2
100
AcDbLine
 10
-205.25269
 20
330.743338
 30
0.0
 11
-186.817334
 21
330.743338
 31
0.0
  0
LINE
  5
519
100
AcDbEntity
  8
2
  6
CENTER
 62
     2
100
AcDbLine
 10
-342.146758
 20
235.649234
 30
0.0
 11
-342.146758
 21
250.666385
 31
0.0
  0
LINE
  5
51A
100
AcDbEntity
  8
2
  6
CENTER
 62
     2
100
AcDbLine
 10
-342.146758
 20
323.303759
 30
0.0
 11
-342.146758
 21
338.647357
 31
0.0
  0
LINE
  5
51B
100
AcDbEntity
  8
2
  6
CENTER
 62
     2
100
AcDbLine
 10
-348.804234
 20
242.743338
 30
0.0
 11
-334.929627
 21
242.743338
 31
0.0
  0
LINE
  5
51C
100
AcDbEntity
  8
2
  6
CENTER
 62
     2
100
AcDbLine
 10
-205.495236
 20
242.743338
 30
0.0
 11
-187.302487
 21
242.743338
 31
0.0
  0
LINE
  5
51D
100
AcDbEntity
  8
2
  6
CENTER
 62
     2
100
AcDbLine
 10
-196.146758
 20
233.975177
 30
0.0
 11
-196.146758
 21
251.440234
 31
0.0
  0
LINE
  5
51E
100
AcDbEntity
  8
2
  6
CENTER
 62
     2
100
AcDbLine
 10
-196.146758
 20
321.542651
 30
0.0
 11
-196.146758
 21
338.765094
 31
0.0
  0
LINE
  5
51F
100
AcDbEntity
  8
2
  6
CENTER
 62
     2
100
AcDbLine
 10
-211.02216
 20
2.243338
 30
0.0
 11
-197.299832
 21
2.243338
 31
0.0
  0
LINE
  5
520
100
AcDbEntity
  8
2
  6
CENTER
 62
     2
100
AcDbLine
 10
-204.146758
 20
8.815626
 30
0.0
 11
-204.146758
 21
-4.673667
 31
0.0
  0
LINE
  5
521
100
AcDbEntity
  8
2
  6
CENTER
 62
     2
100
AcDbLine
 10
-302.844794
 20
1.243338
 30
0.0
 11
-289.445692
 21
1.243338
 31
0.0
  0
LINE
  5
522
100
AcDbEntity
  8
2
  6
CENTER
 62
     2
100
AcDbLine
 10
-303.453869
 20
-83.756662
 30
0.0
 11
-288.532097
 21
-83.756662
 31
0.0
  0
LINE
  5
523
100
AcDbEntity
  8
2
  6
CENTER
 62
     2
100
AcDbLine
 10
-296.146758
 20
-91.05253
 30
0.0
 11
-296.146758
 21
-75.045069
 31
0.0
  0
LINE
  5
524
100
AcDbEntity
  8
2
  6
CENTER
 62
     2
100
AcDbLine
 10
-296.146758
 20
-5.823655
 30
0.0
 11
-296.146758
 21
7.811838
 31
0.0
  0
LINE
  5
525
100
AcDbEntity
  8
2
  6
CENTER
 62
     2
100
AcDbLine
 10
-208.137318
 20
-81.756662
 30
0.0
 11
-193.74973
 21
-81.756662
 31
0.0
  0
LINE
  5
526
100
AcDbEntity
  8
2
  6
CENTER
 62
     2
100
AcDbLine
 10
-201.146758
 20
-74.87137
 30
0.0
 11
-201.146758
 21
-88.054285
 31
0.0
  0
LINE
  5
527
100
AcDbEntity
  8
2
  6
CENTER
 62
     2
100
AcDbLine
 10
-413.285572
 20
-47.756662
 30
0.0
 11
-399.24889
 21
-47.756662
 31
0.0
  0
LINE
  5
528
100
AcDbEntity
  8
2
  6
CENTER
 62
     2
100
AcDbLine
 10
-406.146758
 20
-40.416998
 30
0.0
 11
-406.146758
 21
-55.224581
 31
0.0
  0
LINE
  5
529
100
AcDbEntity
  8
2
  6
CENTER
 62
     2
100
AcDbLine
 10
-406.146758
 20
225.977832
 30
0.0
 11
-406.146758
 21
209.633242
 31
0.0
  0
LINE
  5
52A
100
AcDbEntity
  8
2
  6
CENTER
 62
     2
100
AcDbLine
 10
-296.146758
 20
225.977832
 30
0.0
 11
-296.146758
 21
209.633242
 31
0.0
  0
LINE
  5
52B
100
AcDbEntity
  8
2
  6
CENTER
 62
     2
100
AcDbLine
 10
-204.146758
 20
225.977832
 30
0.0
 11
-204.146758
 21
209.633242
 31
0.0
  0
LINE
  5
52C
100
AcDbEntity
  8
2
  6
CENTER
 62
     2
100
AcDbLine
 10
-184.569851
 20
-27.756662
 30
0.0
 11
-164.409153
 21
-27.756662
 31
0.0
  0
LINE
  5
52D
100
AcDbEntity
  8
2
  6
CENTER
 62
     2
100
AcDbLine
 10
-184.569851
 20
-86.756662
 30
0.0
 11
-164.409153
 21
-86.756662
 31
0.0
  0
LINE
  5
52E
100
AcDbEntity
  8
2
  6
CENTER
 62
     2
100
AcDbLine
 10
-182.204861
 20
329.743338
 30
0.0
 11
-165.057393
 21
329.743338
 31
0.0
  0
LINE
  5
52F
100
AcDbEntity
  8
2
  6
CENTER
 62
     2
100
AcDbLine
 10
-182.204861
 20
238.743338
 30
0.0
 11
-165.057393
 21
238.743338
 31
0.0
  0
ARC
  5
530
100
AcDbEntity
  8
2
  6
CENTER
 62
     2
100
AcDbCircle
 10
-275.146758
 20
283.743338
 30
0.0
 40
37.5
100
AcDbArc
 50
126.361503
 51
143.885033
  0
ARC
  5
531
100
AcDbEntity
  8
2
  6
CENTER
 62
     2
100
AcDbCircle
 10
-275.146758
 20
283.743338
 30
0.0
 40
37.5
100
AcDbArc
 50
216.93331
 51
233.416879
  0
ARC
  5
532
100
AcDbEntity
  8
2
  6
CENTER
 62
     2
100
AcDbCircle
 10
-275.146758
 20
283.743338
 30
0.0
 40
37.5
100
AcDbArc
 50
306.278748
 51
323.822644
  0
ARC
  5
533
100
AcDbEntity
  8
2
  6
CENTER
 62
     2
100
AcDbCircle
 10
-275.146758
 20
283.743338
 30
0.0
 40
37.5
100
AcDbArc
 50
36.280641
 51
53.737219
  0
LINE
  5
534
100
AcDbEntity
  8
2
  6
CENTER
 62
     2
100
AcDbLine
 10
-305.986045
 20
252.904052
 30
0.0
 11
-297.935445
 21
260.954652
 31
0.0
  0
LINE
  5
535
100
AcDbEntity
  8
2
  6
CENTER
 62
     2
100
AcDbLine
 10
-252.755905
 20
306.134192
 30
0.0
 11
-244.209531
 21
314.680565
 31
0.0
  0
LINE
  5
536
100
AcDbEntity
  8
2
  6
CENTER
 62
     2
100
AcDbLine
 10
-306.040378
 20
314.636957
 30
0.0
 11
-297.689385
 21
306.285965
 31
0.0
  0
LINE
  5
537
100
AcDbEntity
  8
2
  6
CENTER
 62
     2
100
AcDbLine
 10
-252.574675
 20
261.171254
 30
0.0
 11
-244.443611
 21
253.040191
 31
0.0
  0
LINE
  5
538
100
AcDbEntity
  8
2
  6
CENTER
 62
     2
100
AcDbLine
 10
155.311238
 20
-57.756662
 30
0.0
 11
163.503242
 21
-57.756662
 31
0.0
  0
LINE
  5
539
100
AcDbEntity
  8
2
  6
CENTER
 62
     2
100
AcDbLine
 10
169.281554
 20
-57.756662
 30
0.0
 11
180.995076
 21
-57.756662
 31
0.0
  0
LINE
  5
53A
100
AcDbEntity
  8
2
  6
CENTER
 62
     2
100
AcDbLine
 10
36.710683
 20
2.243338
 30
0.0
 11
53.217336
 21
2.243338
 31
0.0
  0
LINE
  5
53B
100
AcDbEntity
  8
2
  6
CENTER
 62
     2
100
AcDbLine
 10
36.444448
 20
-81.756662
 30
0.0
 11
53.217336
 21
-81.756662
 31
0.0
  0
LINE
  5
53C
100
AcDbEntity
  8
2
  6
CENTER
 62
     2
100
AcDbLine
 10
138.019746
 20
56.588156
 30
0.0
 11
138.019746
 21
72.199614
 31
0.0
  0
LINE
  5
53D
100
AcDbEntity
  8
2
  6
CENTER
 62
     2
100
AcDbLine
 10
84.986737
 20
56.588156
 30
0.0
 11
84.986737
 21
73.593504
 31
0.0
  0
LINE
  5
53E
100
AcDbEntity
  8
2
  6
CENTER
 62
     2
100
AcDbLine
 10
-301.663263
 20
72.158784
 30
0.0
 11
-301.663263
 21
55.73836
 31
0.0
  0
LINE
  5
53F
100
AcDbEntity
  8
2
  6
CENTER
 62
     2
100
AcDbLine
 10
-248.630254
 20
72.58864
 30
0.0
 11
-248.630254
 21
55.73836
 31
0.0
  0
LINE
  5
540
100
AcDbEntity
  8
2
100
AcDbLine
 10
45.203242
 20
6.843338
 30
0.0
 11
46.503242
 21
6.843338
 31
0.0
  0
LINE
  5
541
100
AcDbEntity
  8
2
100
AcDbLine
 10
45.203242
 20
-2.356662
 30
0.0
 11
46.503242
 21
-2.356662
 31
0.0
  0
LINE
  5
542
100
AcDbEntity
  8
2
100
AcDbLine
 10
45.203242
 20
6.843338
 30
0.0
 11
45.203242
 21
-2.356662
 31
0.0
  0
LINE
  5
543
100
AcDbEntity
  8
2
100
AcDbLine
 10
43.91575
 20
6.743338
 30
0.0
 11
45.203242
 21
6.743338
 31
0.0
  0
LINE
  5
544
100
AcDbEntity
  8
2
100
AcDbLine
 10
43.91575
 20
-2.256662
 30
0.0
 11
45.203242
 21
-2.256662
 31
0.0
  0
ARC
  5
545
100
AcDbEntity
  8
2
100
AcDbCircle
 10
53.903242
 20
2.243338
 30
0.0
 40
12.0
100
AcDbArc
 50
163.808648
 51
196.191352
  0
ARC
  5
546
100
AcDbEntity
  8
2
100
AcDbCircle
 10
43.91575
 20
5.143338
 30
0.0
 40
1.6
100
AcDbArc
 50
90.0
 51
163.808648
  0
ARC
  5
547
100
AcDbEntity
  8
2
100
AcDbCircle
 10
43.91575
 20
-0.656662
 30
0.0
 40
1.6
100
AcDbArc
 50
196.191352
 51
270.0
  0
LINE
  5
548
100
AcDbEntity
  8
2
100
AcDbLine
 10
45.203242
 20
-77.156662
 30
0.0
 11
46.503242
 21
-77.156662
 31
0.0
  0
LINE
  5
549
100
AcDbEntity
  8
2
100
AcDbLine
 10
45.203242
 20
-86.356662
 30
0.0
 11
46.503242
 21
-86.356662
 31
0.0
  0
LINE
  5
54A
100
AcDbEntity
  8
2
100
AcDbLine
 10
45.203242
 20
-77.156662
 30
0.0
 11
45.203242
 21
-86.356662
 31
0.0
  0
LINE
  5
54B
100
AcDbEntity
  8
2
100
AcDbLine
 10
43.91575
 20
-77.256662
 30
0.0
 11
45.203242
 21
-77.256662
 31
0.0
  0
LINE
  5
54C
100
AcDbEntity
  8
2
100
AcDbLine
 10
43.91575
 20
-86.256662
 30
0.0
 11
45.203242
 21
-86.256662
 31
0.0
  0
ARC
  5
54D
100
AcDbEntity
  8
2
100
AcDbCircle
 10
53.903242
 20
-81.756662
 30
0.0
 40
12.0
100
AcDbArc
 50
163.808648
 51
196.191352
  0
ARC
  5
54E
100
AcDbEntity
  8
2
100
AcDbCircle
 10
43.91575
 20
-78.856662
 30
0.0
 40
1.6
100
AcDbArc
 50
90.0
 51
163.808648
  0
ARC
  5
54F
100
AcDbEntity
  8
2
100
AcDbCircle
 10
43.91575
 20
-84.656662
 30
0.0
 40
1.6
100
AcDbArc
 50
196.191352
 51
270.0
  0
LINE
  5
550
100
AcDbEntity
  8
2
100
AcDbLine
 10
-199.546758
 20
217.443338
 30
0.0
 11
-199.546758
 21
218.743338
 31
0.0
  0
LINE
  5
551
100
AcDbEntity
  8
2
100
AcDbLine
 10
-208.746758
 20
217.443338
 30
0.0
 11
-208.746758
 21
218.743338
 31
0.0
  0
LINE
  5
552
100
AcDbEntity
  8
2
100
AcDbLine
 10
-199.546758
 20
217.443338
 30
0.0
 11
-208.746758
 21
217.443338
 31
0.0
  0
LINE
  5
553
100
AcDbEntity
  8
2
100
AcDbLine
 10
-199.646758
 20
216.155846
 30
0.0
 11
-199.646758
 21
217.443338
 31
0.0
  0
LINE
  5
554
100
AcDbEntity
  8
2
100
AcDbLine
 10
-208.646758
 20
216.155846
 30
0.0
 11
-208.646758
 21
217.443338
 31
0.0
  0
ARC
  5
555
100
AcDbEntity
  8
2
100
AcDbCircle
 10
-204.146758
 20
226.143338
 30
0.0
 40
12.0
100
AcDbArc
 50
253.808648
 51
286.191352
  0
ARC
  5
556
100
AcDbEntity
  8
2
100
AcDbCircle
 10
-201.246758
 20
216.155846
 30
0.0
 40
1.6
100
AcDbArc
 50
286.191352
 51
360.0
  0
ARC
  5
557
100
AcDbEntity
  8
2
100
AcDbCircle
 10
-207.046758
 20
216.155846
 30
0.0
 40
1.6
100
AcDbArc
 50
180.0
 51
253.808648
  0
LINE
  5
558
100
AcDbEntity
  8
2
100
AcDbLine
 10
-291.546758
 20
217.443338
 30
0.0
 11
-291.546758
 21
218.743338
 31
0.0
  0
LINE
  5
559
100
AcDbEntity
  8
2
100
AcDbLine
 10
-300.746758
 20
217.443338
 30
0.0
 11
-300.746758
 21
218.743338
 31
0.0
  0
LINE
  5
55A
100
AcDbEntity
  8
2
100
AcDbLine
 10
-291.546758
 20
217.443338
 30
0.0
 11
-300.746758
 21
217.443338
 31
0.0
  0
LINE
  5
55B
100
AcDbEntity
  8
2
100
AcDbLine
 10
-291.646758
 20
216.155846
 30
0.0
 11
-291.646758
 21
217.443338
 31
0.0
  0
LINE
  5
55C
100
AcDbEntity
  8
2
100
AcDbLine
 10
-300.646758
 20
216.155846
 30
0.0
 11
-300.646758
 21
217.443338
 31
0.0
  0
ARC
  5
55D
100
AcDbEntity
  8
2
100
AcDbCircle
 10
-296.146758
 20
226.143338
 30
0.0
 40
12.0
100
AcDbArc
 50
253.808648
 51
286.191352
  0
ARC
  5
55E
100
AcDbEntity
  8
2
100
AcDbCircle
 10
-293.246758
 20
216.155846
 30
0.0
 40
1.6
100
AcDbArc
 50
286.191352
 51
360.0
  0
ARC
  5
55F
100
AcDbEntity
  8
2
100
AcDbCircle
 10
-299.046758
 20
216.155846
 30
0.0
 40
1.6
100
AcDbArc
 50
180.0
 51
253.808648
  0
LINE
  5
560
100
AcDbEntity
  8
2
100
AcDbLine
 10
-401.546758
 20
217.443338
 30
0.0
 11
-401.546758
 21
218.743338
 31
0.0
  0
LINE
  5
561
100
AcDbEntity
  8
2
100
AcDbLine
 10
-410.746758
 20
217.443338
 30
0.0
 11
-410.746758
 21
218.743338
 31
0.0
  0
LINE
  5
562
100
AcDbEntity
  8
2
100
AcDbLine
 10
-401.546758
 20
217.443338
 30
0.0
 11
-410.746758
 21
217.443338
 31
0.0
  0
LINE
  5
563
100
AcDbEntity
  8
2
100
AcDbLine
 10
-401.646758
 20
216.155846
 30
0.0
 11
-401.646758
 21
217.443338
 31
0.0
  0
LINE
  5
564
100
AcDbEntity
  8
2
100
AcDbLine
 10
-410.646758
 20
216.155846
 30
0.0
 11
-410.646758
 21
217.443338
 31
0.0
  0
ARC
  5
565
100
AcDbEntity
  8
2
100
AcDbCircle
 10
-406.146758
 20
226.143338
 30
0.0
 40
12.0
100
AcDbArc
 50
253.808648
 51
286.191352
  0
ARC
  5
566
100
AcDbEntity
  8
2
100
AcDbCircle
 10
-403.246758
 20
216.155846
 30
0.0
 40
1.6
100
AcDbArc
 50
286.191352
 51
360.0
  0
ARC
  5
567
100
AcDbEntity
  8
2
100
AcDbCircle
 10
-409.046758
 20
216.155846
 30
0.0
 40
1.6
100
AcDbArc
 50
180.0
 51
253.808648
  0
LINE
  5
568
100
AcDbEntity
  8
2
100
AcDbLine
 10
-410.146758
 20
218.743338
 30
0.0
 11
-410.746758
 21
218.743338
 31
0.0
  0
LINE
  5
569
100
AcDbEntity
  8
2
100
AcDbLine
 10
-172.846758
 20
-23.156662
 30
0.0
 11
-174.146758
 21
-23.156662
 31
0.0
  0
LINE
  5
56A
100
AcDbEntity
  8
2
100
AcDbLine
 10
-172.846758
 20
-32.356662
 30
0.0
 11
-174.146758
 21
-32.356662
 31
0.0
  0
LINE
  5
56B
100
AcDbEntity
  8
2
100
AcDbLine
 10
-172.846758
 20
-23.156662
 30
0.0
 11
-172.846758
 21
-32.356662
 31
0.0
  0
LINE
  5
56C
100
AcDbEntity
  8
2
100
AcDbLine
 10
-171.559266
 20
-23.256662
 30
0.0
 11
-172.846758
 21
-23.256662
 31
0.0
  0
LINE
  5
56D
100
AcDbEntity
  8
2
100
AcDbLine
 10
-171.559266
 20
-32.256662
 30
0.0
 11
-172.846758
 21
-32.256662
 31
0.0
  0
ARC
  5
56E
100
AcDbEntity
  8
2
100
AcDbCircle
 10
-181.546758
 20
-27.756662
 30
0.0
 40
12.0
100
AcDbArc
 50
343.808648
 51
16.191352
  0
ARC
  5
56F
100
AcDbEntity
  8
2
100
AcDbCircle
 10
-171.559266
 20
-24.856662
 30
0.0
 40
1.6
100
AcDbArc
 50
16.191352
 51
90.0
  0
ARC
  5
570
100
AcDbEntity
  8
2
100
AcDbCircle
 10
-171.559266
 20
-30.656662
 30
0.0
 40
1.6
100
AcDbArc
 50
270.0
 51
343.808648
  0
LINE
  5
571
100
AcDbEntity
  8
2
100
AcDbLine
 10
-172.846758
 20
-82.156662
 30
0.0
 11
-174.146758
 21
-82.156662
 31
0.0
  0
LINE
  5
572
100
AcDbEntity
  8
2
100
AcDbLine
 10
-172.846758
 20
-91.356662
 30
0.0
 11
-174.146758
 21
-91.356662
 31
0.0
  0
LINE
  5
573
100
AcDbEntity
  8
2
100
AcDbLine
 10
-172.846758
 20
-82.156662
 30
0.0
 11
-172.846758
 21
-91.356662
 31
0.0
  0
LINE
  5
574
100
AcDbEntity
  8
2
100
AcDbLine
 10
-171.559266
 20
-82.256662
 30
0.0
 11
-172.846758
 21
-82.256662
 31
0.0
  0
LINE
  5
575
100
AcDbEntity
  8
2
100
AcDbLine
 10
-171.559266
 20
-91.256662
 30
0.0
 11
-172.846758
 21
-91.256662
 31
0.0
  0
ARC
  5
576
100
AcDbEntity
  8
2
100
AcDbCircle
 10
-181.546758
 20
-86.756662
 30
0.0
 40
12.0
100
AcDbArc
 50
343.808648
 51
16.191352
  0
ARC
  5
577
100
AcDbEntity
  8
2
100
AcDbCircle
 10
-171.559266
 20
-83.856662
 30
0.0
 40
1.6
100
AcDbArc
 50
16.191352
 51
90.0
  0
ARC
  5
578
100
AcDbEntity
  8
2
100
AcDbCircle
 10
-171.559266
 20
-89.656662
 30
0.0
 40
1.6
100
AcDbArc
 50
270.0
 51
343.808648
  0
LINE
  5
579
100
AcDbEntity
  8
2
100
AcDbLine
 10
-172.846758
 20
243.343338
 30
0.0
 11
-174.146758
 21
243.343338
 31
0.0
  0
LINE
  5
57A
100
AcDbEntity
  8
2
100
AcDbLine
 10
-172.846758
 20
234.143338
 30
0.0
 11
-174.146758
 21
234.143338
 31
0.0
  0
LINE
  5
57B
100
AcDbEntity
  8
2
100
AcDbLine
 10
-172.846758
 20
243.343338
 30
0.0
 11
-172.846758
 21
234.143338
 31
0.0
  0
LINE
  5
57C
100
AcDbEntity
  8
2
100
AcDbLine
 10
-171.559266
 20
243.243338
 30
0.0
 11
-172.846758
 21
243.243338
 31
0.0
  0
LINE
  5
57D
100
AcDbEntity
  8
2
100
AcDbLine
 10
-171.559266
 20
234.243338
 30
0.0
 11
-172.846758
 21
234.243338
 31
0.0
  0
ARC
  5
57E
100
AcDbEntity
  8
2
100
AcDbCircle
 10
-181.546758
 20
238.743338
 30
0.0
 40
12.0
100
AcDbArc
 50
343.808648
 51
16.191352
  0
ARC
  5
57F
100
AcDbEntity
  8
2
100
AcDbCircle
 10
-171.559266
 20
241.643338
 30
0.0
 40
1.6
100
AcDbArc
 50
16.191352
 51
90.0
  0
ARC
  5
580
100
AcDbEntity
  8
2
100
AcDbCircle
 10
-171.559266
 20
235.843338
 30
0.0
 40
1.6
100
AcDbArc
 50
270.0
 51
343.808648
  0
LINE
  5
581
100
AcDbEntity
  8
2
100
AcDbLine
 10
-172.846758
 20
334.343338
 30
0.0
 11
-174.146758
 21
334.343338
 31
0.0
  0
LINE
  5
582
100
AcDbEntity
  8
2
100
AcDbLine
 10
-172.846758
 20
325.143338
 30
0.0
 11
-174.146758
 21
325.143338
 31
0.0
  0
LINE
  5
583
100
AcDbEntity
  8
2
100
AcDbLine
 10
-172.846758
 20
334.343338
 30
0.0
 11
-172.846758
 21
325.143338
 31
0.0
  0
LINE
  5
584
100
AcDbEntity
  8
2
100
AcDbLine
 10
-171.559266
 20
334.243338
 30
0.0
 11
-172.846758
 21
334.243338
 31
0.0
  0
LINE
  5
585
100
AcDbEntity
  8
2
100
AcDbLine
 10
-171.559266
 20
325.243338
 30
0.0
 11
-172.846758
 21
325.243338
 31
0.0
  0
ARC
  5
586
100
AcDbEntity
  8
2
100
AcDbCircle
 10
-181.546758
 20
329.743338
 30
0.0
 40
12.0
100
AcDbArc
 50
343.808648
 51
16.191352
  0
ARC
  5
587
100
AcDbEntity
  8
2
100
AcDbCircle
 10
-171.559266
 20
332.643338
 30
0.0
 40
1.6
100
AcDbArc
 50
16.191352
 51
90.0
  0
ARC
  5
588
100
AcDbEntity
  8
2
100
AcDbCircle
 10
-171.559266
 20
326.843338
 30
0.0
 40
1.6
100
AcDbArc
 50
270.0
 51
343.808648
  0
CIRCLE
  5
589
100
AcDbEntity
  8
2
100
AcDbCircle
 10
-406.146758
 20
-47.756662
 30
0.0
 40
4.5
  0
CIRCLE
  5
58A
100
AcDbEntity
  8
2
100
AcDbCircle
 10
-296.146758
 20
1.243338
 30
0.0
 40
4.5
  0
CIRCLE
  5
58B
100
AcDbEntity
  8
2
100
AcDbCircle
 10
-296.146758
 20
-83.756662
 30
0.0
 40
4.5
  0
CIRCLE
  5
58C
100
AcDbEntity
  8
2
100
AcDbCircle
 10
-204.146758
 20
2.243338
 30
0.0
 40
4.5
  0
CIRCLE
  5
58D
100
AcDbEntity
  8
2
100
AcDbCircle
 10
-201.146758
 20
-81.756662
 30
0.0
 40
4.5
  0
CIRCLE
  5
58E
100
AcDbEntity
  8
2
100
AcDbCircle
 10
66.503242
 20
-27.756662
 30
0.0
 40
4.5
  0
CIRCLE
  5
58F
100
AcDbEntity
  8
2
100
AcDbCircle
 10
157.503242
 20
-27.756662
 30
0.0
 40
4.5
  0
CIRCLE
  5
590
100
AcDbEntity
  8
2
100
AcDbCircle
 10
66.503242
 20
-86.756662
 30
0.0
 40
4.5
  0
CIRCLE
  5
591
100
AcDbEntity
  8
2
100
AcDbCircle
 10
157.503242
 20
-86.756662
 30
0.0
 40
4.5
  0
CIRCLE
  5
592
100
AcDbEntity
  8
2
100
AcDbCircle
 10
-196.146758
 20
242.743338
 30
0.0
 40
4.5
  0
CIRCLE
  5
593
100
AcDbEntity
  8
2
100
AcDbCircle
 10
-196.146758
 20
330.743338
 30
0.0
 40
4.5
  0
CIRCLE
  5
594
100
AcDbEntity
  8
2
100
AcDbCircle
 10
-342.146758
 20
242.743338
 30
0.0
 40
4.5
  0
CIRCLE
  5
595
100
AcDbEntity
  8
2
100
AcDbCircle
 10
-342.146758
 20
330.743338
 30
0.0
 40
4.5
  0
CIRCLE
  5
596
100
AcDbEntity
  8
2
100
AcDbCircle
 10
-248.630254
 20
257.226834
 30
0.0
 40
3.5
  0
CIRCLE
  5
597
100
AcDbEntity
  8
2
100
AcDbCircle
 10
-248.630254
 20
310.259843
 30
0.0
 40
3.5
  0
CIRCLE
  5
598
100
AcDbEntity
  8
2
100
AcDbCircle
 10
-301.663263
 20
257.226834
 30
0.0
 40
3.5
  0
CIRCLE
  5
599
100
AcDbEntity
  8
2
100
AcDbCircle
 10
-301.663263
 20
310.259843
 30
0.0
 40
3.5
  0
LINE
  5
59A
100
AcDbEntity
  8
2
100
AcDbLine
 10
-244.830254
 20
66.443338
 30
0.0
 11
-252.430254
 21
66.443338
 31
0.0
  0
LINE
  5
59B
100
AcDbEntity
  8
2
100
AcDbLine
 10
-244.830254
 20
66.443338
 30
0.0
 11
-244.830254
 21
65.443338
 31
0.0
  0
LINE
  5
59C
100
AcDbEntity
  8
2
100
AcDbLine
 10
-252.430254
 20
66.443338
 30
0.0
 11
-252.430254
 21
65.443338
 31
0.0
  0
LINE
  5
59D
100
AcDbEntity
  8
2
100
AcDbLine
 10
-245.130254
 20
67.422363
 30
0.0
 11
-245.130254
 21
66.443338
 31
0.0
  0
LINE
  5
59E
100
AcDbEntity
  8
2
100
AcDbLine
 10
-252.130254
 20
67.422363
 30
0.0
 11
-252.130254
 21
66.443338
 31
0.0
  0
ARC
  5
59F
100
AcDbEntity
  8
2
100
AcDbCircle
 10
-248.630254
 20
60.043338
 30
0.0
 40
9.0
100
AcDbArc
 50
73.39845
 51
106.60155
  0
ARC
  5
5A0
100
AcDbEntity
  8
2
100
AcDbCircle
 10
-246.430254
 20
67.422363
 30
0.0
 40
1.3
100
AcDbArc
 50
0.0
 51
73.39845
  0
ARC
  5
5A1
100
AcDbEntity
  8
2
100
AcDbCircle
 10
-250.830254
 20
67.422363
 30
0.0
 40
1.3
100
AcDbArc
 50
106.60155
 51
180.0
  0
LINE
  5
5A2
100
AcDbEntity
  8
2
100
AcDbLine
 10
-297.863263
 20
66.443338
 30
0.0
 11
-305.463263
 21
66.443338
 31
0.0
  0
LINE
  5
5A3
100
AcDbEntity
  8
2
100
AcDbLine
 10
-297.863263
 20
66.443338
 30
0.0
 11
-297.863263
 21
65.443338
 31
0.0
  0
LINE
  5
5A4
100
AcDbEntity
  8
2
100
AcDbLine
 10
-305.463263
 20
66.443338
 30
0.0
 11
-305.463263
 21
65.443338
 31
0.0
  0
LINE
  5
5A5
100
AcDbEntity
  8
2
100
AcDbLine
 10
-298.163263
 20
67.422363
 30
0.0
 11
-298.163263
 21
66.443338
 31
0.0
  0
LINE
  5
5A6
100
AcDbEntity
  8
2
100
AcDbLine
 10
-305.163263
 20
67.422363
 30
0.0
 11
-305.163263
 21
66.443338
 31
0.0
  0
ARC
  5
5A7
100
AcDbEntity
  8
2
100
AcDbCircle
 10
-301.663263
 20
60.043338
 30
0.0
 40
9.0
100
AcDbArc
 50
73.39845
 51
106.60155
  0
ARC
  5
5A8
100
AcDbEntity
  8
2
100
AcDbCircle
 10
-299.463263
 20
67.422363
 30
0.0
 40
1.3
100
AcDbArc
 50
0.0
 51
73.39845
  0
ARC
  5
5A9
100
AcDbEntity
  8
2
100
AcDbCircle
 10
-303.863263
 20
67.422363
 30
0.0
 40
1.3
100
AcDbArc
 50
106.60155
 51
180.0
  0
LINE
  5
5AA
100
AcDbEntity
  8
2
100
AcDbLine
 10
88.786737
 20
66.443338
 30
0.0
 11
81.186737
 21
66.443338
 31
0.0
  0
LINE
  5
5AB
100
AcDbEntity
  8
2
100
AcDbLine
 10
88.786737
 20
66.443338
 30
0.0
 11
88.786737
 21
65.443338
 31
0.0
  0
LINE
  5
5AC
100
AcDbEntity
  8
2
100
AcDbLine
 10
81.186737
 20
66.443338
 30
0.0
 11
81.186737
 21
65.443338
 31
0.0
  0
LINE
  5
5AD
100
AcDbEntity
  8
2
100
AcDbLine
 10
88.486737
 20
67.422363
 30
0.0
 11
88.486737
 21
66.443338
 31
0.0
  0
LINE
  5
5AE
100
AcDbEntity
  8
2
100
AcDbLine
 10
81.486737
 20
67.422363
 30
0.0
 11
81.486737
 21
66.443338
 31
0.0
  0
ARC
  5
5AF
100
AcDbEntity
  8
2
100
AcDbCircle
 10
84.986737
 20
60.043338
 30
0.0
 40
9.0
100
AcDbArc
 50
73.39845
 51
106.60155
  0
ARC
  5
5B0
100
AcDbEntity
  8
2
100
AcDbCircle
 10
87.186737
 20
67.422363
 30
0.0
 40
1.3
100
AcDbArc
 50
0.0
 51
73.39845
  0
ARC
  5
5B1
100
AcDbEntity
  8
2
100
AcDbCircle
 10
82.786737
 20
67.422363
 30
0.0
 40
1.3
100
AcDbArc
 50
106.60155
 51
180.0
  0
LINE
  5
5B2
100
AcDbEntity
  8
2
100
AcDbLine
 10
141.819746
 20
66.443338
 30
0.0
 11
134.219746
 21
66.443338
 31
0.0
  0
LINE
  5
5B3
100
AcDbEntity
  8
2
100
AcDbLine
 10
141.819746
 20
66.443338
 30
0.0
 11
141.819746
 21
65.443338
 31
0.0
  0
LINE
  5
5B4
100
AcDbEntity
  8
2
100
AcDbLine
 10
134.219746
 20
66.443338
 30
0.0
 11
134.219746
 21
65.443338
 31
0.0
  0
LINE
  5
5B5
100
AcDbEntity
  8
2
100
AcDbLine
 10
141.519746
 20
67.422363
 30
0.0
 11
141.519746
 21
66.443338
 31
0.0
  0
LINE
  5
5B6
100
AcDbEntity
  8
2
100
AcDbLine
 10
134.519746
 20
67.422363
 30
0.0
 11
134.519746
 21
66.443338
 31
0.0
  0
ARC
  5
5B7
100
AcDbEntity
  8
2
100
AcDbCircle
 10
138.019746
 20
60.043338
 30
0.0
 40
9.0
100
AcDbArc
 50
73.39845
 51
106.60155
  0
ARC
  5
5B8
100
AcDbEntity
  8
2
100
AcDbCircle
 10
140.219746
 20
67.422363
 30
0.0
 40
1.3
100
AcDbArc
 50
0.0
 51
73.39845
  0
ARC
  5
5B9
100
AcDbEntity
  8
2
100
AcDbCircle
 10
135.819746
 20
67.422363
 30
0.0
 40
1.3
100
AcDbArc
 50
106.60155
 51
180.0
  0
LINE
  5
5BA
100
AcDbEntity
  8
2
100
AcDbLine
 10
-211.046758
 20
-98.256662
 30
0.0
 11
-223.246758
 21
-98.256662
 31
0.0
  0
LINE
  5
5BB
100
AcDbEntity
  8
2
100
AcDbLine
 10
-223.246758
 20
-98.256662
 30
0.0
 11
-223.246758
 21
-96.756662
 31
0.0
  0
LINE
  5
5BC
100
AcDbEntity
  8
2
100
AcDbLine
 10
-211.046758
 20
-98.256662
 30
0.0
 11
-211.046758
 21
-96.756662
 31
0.0
  0
LINE
  5
5BD
100
AcDbEntity
  8
2
100
AcDbLine
 10
-211.896758
 20
-99.783678
 30
0.0
 11
-211.896758
 21
-98.256662
 31
0.0
  0
LINE
  5
5BE
100
AcDbEntity
  8
2
100
AcDbLine
 10
-222.396758
 20
-99.783678
 30
0.0
 11
-222.396758
 21
-98.256662
 31
0.0
  0
ARC
  5
5BF
100
AcDbEntity
  8
2
100
AcDbCircle
 10
-217.146758
 20
-88.156662
 30
0.0
 40
14.0
100
AcDbArc
 50
253.927141
 51
286.072859
  0
ARC
  5
5C0
100
AcDbEntity
  8
2
100
AcDbCircle
 10
-213.796758
 20
-99.783678
 30
0.0
 40
1.9
100
AcDbArc
 50
286.072859
 51
360.0
  0
ARC
  5
5C1
100
AcDbEntity
  8
2
100
AcDbCircle
 10
-220.496758
 20
-99.783678
 30
0.0
 40
1.9
100
AcDbArc
 50
180.0
 51
253.927141
  0
LINE
  5
5C2
100
AcDbEntity
  8
2
100
AcDbLine
 10
-303.046758
 20
-98.256662
 30
0.0
 11
-315.246758
 21
-98.256662
 31
0.0
  0
LINE
  5
5C3
100
AcDbEntity
  8
2
100
AcDbLine
 10
-315.246758
 20
-98.256662
 30
0.0
 11
-315.246758
 21
-96.756662
 31
0.0
  0
LINE
  5
5C4
100
AcDbEntity
  8
2
100
AcDbLine
 10
-303.046758
 20
-98.256662
 30
0.0
 11
-303.046758
 21
-96.756662
 31
0.0
  0
LINE
  5
5C5
100
AcDbEntity
  8
2
100
AcDbLine
 10
-303.896758
 20
-99.783678
 30
0.0
 11
-303.896758
 21
-98.256662
 31
0.0
  0
LINE
  5
5C6
100
AcDbEntity
  8
2
100
AcDbLine
 10
-314.396758
 20
-99.783678
 30
0.0
 11
-314.396758
 21
-98.256662
 31
0.0
  0
ARC
  5
5C7
100
AcDbEntity
  8
2
100
AcDbCircle
 10
-309.146758
 20
-88.156662
 30
0.0
 40
14.0
100
AcDbArc
 50
253.927141
 51
286.072859
  0
ARC
  5
5C8
100
AcDbEntity
  8
2
100
AcDbCircle
 10
-305.796758
 20
-99.783678
 30
0.0
 40
1.9
100
AcDbArc
 50
286.072859
 51
360.0
  0
ARC
  5
5C9
100
AcDbEntity
  8
2
100
AcDbCircle
 10
-312.496758
 20
-99.783678
 30
0.0
 40
1.9
100
AcDbArc
 50
180.0
 51
253.927141
  0
LINE
  5
5CA
100
AcDbEntity
  8
2
100
AcDbLine
 10
-399.046758
 20
-98.256662
 30
0.0
 11
-411.246758
 21
-98.256662
 31
0.0
  0
LINE
  5
5CB
100
AcDbEntity
  8
2
100
AcDbLine
 10
-411.246758
 20
-98.256662
 30
0.0
 11
-411.246758
 21
-96.756662
 31
0.0
  0
LINE
  5
5CC
100
AcDbEntity
  8
2
100
AcDbLine
 10
-399.046758
 20
-98.256662
 30
0.0
 11
-399.046758
 21
-96.756662
 31
0.0
  0
LINE
  5
5CD
100
AcDbEntity
  8
2
100
AcDbLine
 10
-399.896758
 20
-99.783678
 30
0.0
 11
-399.896758
 21
-98.256662
 31
0.0
  0
LINE
  5
5CE
100
AcDbEntity
  8
2
100
AcDbLine
 10
-410.396758
 20
-99.783678
 30
0.0
 11
-410.396758
 21
-98.256662
 31
0.0
  0
ARC
  5
5CF
100
AcDbEntity
  8
2
100
AcDbCircle
 10
-405.146758
 20
-88.156662
 30
0.0
 40
14.0
100
AcDbArc
 50
253.927141
 51
286.072859
  0
ARC
  5
5D0
100
AcDbEntity
  8
2
100
AcDbCircle
 10
-401.796758
 20
-99.783678
 30
0.0
 40
1.9
100
AcDbArc
 50
286.072859
 51
360.0
  0
ARC
  5
5D1
100
AcDbEntity
  8
2
100
AcDbCircle
 10
-408.496758
 20
-99.783678
 30
0.0
 40
1.9
100
AcDbArc
 50
180.0
 51
253.927141
  0
LINE
  5
5D2
100
AcDbEntity
  8
2
100
AcDbLine
 10
74.603242
 20
-98.256662
 30
0.0
 11
62.403242
 21
-98.256662
 31
0.0
  0
LINE
  5
5D3
100
AcDbEntity
  8
2
100
AcDbLine
 10
62.403242
 20
-98.256662
 30
0.0
 11
62.403242
 21
-96.756662
 31
0.0
  0
LINE
  5
5D4
100
AcDbEntity
  8
2
100
AcDbLine
 10
74.603242
 20
-98.256662
 30
0.0
 11
74.603242
 21
-96.756662
 31
0.0
  0
LINE
  5
5D5
100
AcDbEntity
  8
2
100
AcDbLine
 10
73.753242
 20
-99.783678
 30
0.0
 11
73.753242
 21
-98.256662
 31
0.0
  0
LINE
  5
5D6
100
AcDbEntity
  8
2
100
AcDbLine
 10
63.253242
 20
-99.783678
 30
0.0
 11
63.253242
 21
-98.256662
 31
0.0
  0
ARC
  5
5D7
100
AcDbEntity
  8
2
100
AcDbCircle
 10
68.503242
 20
-88.156662
 30
0.0
 40
14.0
100
AcDbArc
 50
253.927141
 51
286.072859
  0
ARC
  5
5D8
100
AcDbEntity
  8
2
100
AcDbCircle
 10
71.853242
 20
-99.783678
 30
0.0
 40
1.9
100
AcDbArc
 50
286.072859
 51
360.0
  0
ARC
  5
5D9
100
AcDbEntity
  8
2
100
AcDbCircle
 10
65.153242
 20
-99.783678
 30
0.0
 40
1.9
100
AcDbArc
 50
180.0
 51
253.927141
  0
LINE
  5
5DA
100
AcDbEntity
  8
2
100
AcDbLine
 10
161.603242
 20
-98.256662
 30
0.0
 11
149.403242
 21
-98.256662
 31
0.0
  0
LINE
  5
5DB
100
AcDbEntity
  8
2
100
AcDbLine
 10
149.403242
 20
-98.256662
 30
0.0
 11
149.403242
 21
-96.756662
 31
0.0
  0
LINE
  5
5DC
100
AcDbEntity
  8
2
100
AcDbLine
 10
161.603242
 20
-98.256662
 30
0.0
 11
161.603242
 21
-96.756662
 31
0.0
  0
LINE
  5
5DD
100
AcDbEntity
  8
2
100
AcDbLine
 10
160.753242
 20
-99.783678
 30
0.0
 11
160.753242
 21
-98.256662
 31
0.0
  0
LINE
  5
5DE
100
AcDbEntity
  8
2
100
AcDbLine
 10
150.253242
 20
-99.783678
 30
0.0
 11
150.253242
 21
-98.256662
 31
0.0
  0
ARC
  5
5DF
100
AcDbEntity
  8
2
100
AcDbCircle
 10
155.503242
 20
-88.156662
 30
0.0
 40
14.0
100
AcDbArc
 50
253.927141
 51
286.072859
  0
ARC
  5
5E0
100
AcDbEntity
  8
2
100
AcDbCircle
 10
158.853242
 20
-99.783678
 30
0.0
 40
1.9
100
AcDbArc
 50
286.072859
 51
360.0
  0
ARC
  5
5E1
100
AcDbEntity
  8
2
100
AcDbCircle
 10
152.153242
 20
-99.783678
 30
0.0
 40
1.9
100
AcDbArc
 50
180.0
 51
253.927141
  0
LINE
  5
5E2
100
AcDbEntity
  8
2
100
AcDbLine
 10
-290.804787
 20
210.260738
 30
0.0
 11
-290.804787
 21
218.743338
 31
0.0
  0
LINE
  5
5E3
100
AcDbEntity
  8
2
100
AcDbLine
 10
-301.071586
 20
210.260738
 30
0.0
 11
-301.071586
 21
218.743338
 31
0.0
  0
ARC
  5
5E4
100
AcDbEntity
  8
2
100
AcDbCircle
 10
-295.938187
 20
210.260738
 30
0.0
 40
5.133399
100
AcDbArc
 50
180.0
 51
360.0
  0
LINE
  5
5E5
100
AcDbEntity
  8
2
100
AcDbLine
 10
-202.378991
 20
4.011105
 30
0.0
 11
-205.914525
 21
0.475571
 31
0.0
  0
LINE
  5
5E6
100
AcDbEntity
  8
2
100
AcDbLine
 10
-205.914525
 20
4.011105
 30
0.0
 11
-202.378991
 21
0.475571
 31
0.0
  0
LINE
  5
5E7
100
AcDbEntity
  8
2
100
AcDbLine
 10
-294.378991
 20
3.011105
 30
0.0
 11
-297.914525
 21
-0.524429
 31
0.0
  0
LINE
  5
5E8
100
AcDbEntity
  8
2
100
AcDbLine
 10
-297.914525
 20
3.011105
 30
0.0
 11
-294.378991
 21
-0.524429
 31
0.0
  0
LINE
  5
5E9
100
AcDbEntity
  8
2
100
AcDbLine
 10
-199.378991
 20
-79.988895
 30
0.0
 11
-202.914525
 21
-83.524429
 31
0.0
  0
LINE
  5
5EA
100
AcDbEntity
  8
2
100
AcDbLine
 10
-202.914525
 20
-79.988895
 30
0.0
 11
-199.378991
 21
-83.524429
 31
0.0
  0
LINE
  5
5EB
100
AcDbEntity
  8
2
100
AcDbLine
 10
-294.378991
 20
-81.988895
 30
0.0
 11
-297.914525
 21
-85.524429
 31
0.0
  0
LINE
  5
5EC
100
AcDbEntity
  8
2
100
AcDbLine
 10
-297.914525
 20
-81.988895
 30
0.0
 11
-294.378991
 21
-85.524429
 31
0.0
  0
LINE
  5
5ED
100
AcDbEntity
  8
2
100
AcDbLine
 10
-404.378991
 20
-46.053022
 30
0.0
 11
-407.914525
 21
-49.588556
 31
0.0
  0
LINE
  5
5EE
100
AcDbEntity
  8
2
100
AcDbLine
 10
-407.914525
 20
-46.053022
 30
0.0
 11
-404.378991
 21
-49.588556
 31
0.0
  0
LINE
  5
5EF
100
AcDbEntity
  8
2
100
AcDbLine
 10
159.271009
 20
-25.988895
 30
0.0
 11
155.735475
 21
-29.524429
 31
0.0
  0
LINE
  5
5F0
100
AcDbEntity
  8
2
100
AcDbLine
 10
155.735475
 20
-25.988895
 30
0.0
 11
159.271009
 21
-29.524429
 31
0.0
  0
LINE
  5
5F1
100
AcDbEntity
  8
2
100
AcDbLine
 10
68.271009
 20
-25.988895
 30
0.0
 11
64.735475
 21
-29.524429
 31
0.0
  0
LINE
  5
5F2
100
AcDbEntity
  8
2
100
AcDbLine
 10
64.735475
 20
-25.988895
 30
0.0
 11
68.271009
 21
-29.524429
 31
0.0
  0
LINE
  5
5F3
100
AcDbEntity
  8
2
100
AcDbLine
 10
159.271009
 20
-84.988895
 30
0.0
 11
155.735475
 21
-88.524429
 31
0.0
  0
LINE
  5
5F4
100
AcDbEntity
  8
2
100
AcDbLine
 10
155.735475
 20
-84.988895
 30
0.0
 11
159.271009
 21
-88.524429
 31
0.0
  0
LINE
  5
5F5
100
AcDbEntity
  8
2
100
AcDbLine
 10
68.271009
 20
-84.988895
 30
0.0
 11
64.735475
 21
-88.524429
 31
0.0
  0
LINE
  5
5F6
100
AcDbEntity
  8
2
100
AcDbLine
 10
64.735475
 20
-84.988895
 30
0.0
 11
68.271009
 21
-88.524429
 31
0.0
  0
LINE
  5
5F7
100
AcDbEntity
  8
2
100
AcDbLine
 10
-251.130254
 20
310.259843
 30
0.0
 11
-246.130254
 21
310.259843
 31
0.0
  0
LINE
  5
5F8
100
AcDbEntity
  8
2
100
AcDbLine
 10
-248.630254
 20
307.759843
 30
0.0
 11
-248.630254
 21
312.759843
 31
0.0
  0
LINE
  5
5F9
100
AcDbEntity
  8
2
100
AcDbLine
 10
-251.130254
 20
257.226834
 30
0.0
 11
-246.130254
 21
257.226834
 31
0.0
  0
LINE
  5
5FA
100
AcDbEntity
  8
2
100
AcDbLine
 10
-248.630254
 20
254.726834
 30
0.0
 11
-248.630254
 21
259.726834
 31
0.0
  0
LINE
  5
5FB
100
AcDbEntity
  8
2
100
AcDbLine
 10
-304.163263
 20
310.259843
 30
0.0
 11
-299.163263
 21
310.259843
 31
0.0
  0
LINE
  5
5FC
100
AcDbEntity
  8
2
100
AcDbLine
 10
-301.663263
 20
307.759843
 30
0.0
 11
-301.663263
 21
312.759843
 31
0.0
  0
LINE
  5
5FD
100
AcDbEntity
  8
2
100
AcDbLine
 10
-304.163263
 20
257.226834
 30
0.0
 11
-299.163263
 21
257.226834
 31
0.0
  0
LINE
  5
5FE
100
AcDbEntity
  8
2
100
AcDbLine
 10
-301.663263
 20
254.726834
 30
0.0
 11
-301.663263
 21
259.726834
 31
0.0
  0
LINE
  5
5FF
100
AcDbEntity
  8
2
100
AcDbLine
 10
-194.378991
 20
332.511105
 30
0.0
 11
-197.914525
 21
328.975571
 31
0.0
  0
LINE
  5
600
100
AcDbEntity
  8
2
100
AcDbLine
 10
-197.914525
 20
332.511105
 30
0.0
 11
-194.378991
 21
328.975571
 31
0.0
  0
LINE
  5
601
100
AcDbEntity
  8
2
100
AcDbLine
 10
-194.378991
 20
244.511105
 30
0.0
 11
-197.914525
 21
240.975571
 31
0.0
  0
LINE
  5
602
100
AcDbEntity
  8
2
100
AcDbLine
 10
-197.914525
 20
244.511105
 30
0.0
 11
-194.378991
 21
240.975571
 31
0.0
  0
LINE
  5
603
100
AcDbEntity
  8
2
100
AcDbLine
 10
-340.378991
 20
332.511105
 30
0.0
 11
-343.914525
 21
328.975571
 31
0.0
  0
LINE
  5
604
100
AcDbEntity
  8
2
100
AcDbLine
 10
-343.914525
 20
332.511105
 30
0.0
 11
-340.378991
 21
328.975571
 31
0.0
  0
LINE
  5
605
100
AcDbEntity
  8
2
100
AcDbLine
 10
-194.378991
 20
244.511105
 30
0.0
 11
-197.914525
 21
240.975571
 31
0.0
  0
LINE
  5
606
100
AcDbEntity
  8
2
100
AcDbLine
 10
-197.914525
 20
244.511105
 30
0.0
 11
-194.378991
 21
240.975571
 31
0.0
  0
LINE
  5
607
100
AcDbEntity
  8
2
100
AcDbLine
 10
-340.378991
 20
244.511105
 30
0.0
 11
-343.914525
 21
240.975571
 31
0.0
  0
LINE
  5
608
100
AcDbEntity
  8
2
100
AcDbLine
 10
-343.914525
 20
244.511105
 30
0.0
 11
-340.378991
 21
240.975571
 31
0.0
  0
LINE
  5
609
100
AcDbEntity
  8
2
100
AcDbLine
 10
146.503242
 20
-104.756662
 30
0.0
 11
76.503242
 21
-104.756662
 31
0.0
  0
TEXT
  5
60A
100
AcDbEntity
  8
2
100
AcDbText
 10
-220.200032
 20
-44.976842
 30
0.0
 40
7.0
  1
Ｓ
 50
265.0
 72
     5
 11
-220.688105
 21
-50.555532
 31
0.0
100
AcDbText
  0
TEXT
  5
60B
100
AcDbEntity
  8
2
100
AcDbText
 10
-269.727273
 20
260.729665
 30
0.0
 40
7.6
  1
Ｓ
 50
22.5
 72
     5
 11
-264.110085
 21
263.05638
 31
0.0
100
AcDbText
  0
TEXT
  5
60C
100
AcDbEntity
  8
2
100
AcDbText
 10
-280.566244
 20
306.757012
 30
0.0
 40
7.6
  1
Ｓ
 50
202.5
 72
     5
 11
-286.183431
 21
304.430297
 31
0.0
100
AcDbText
  0
TEXT
  5
60D
100
AcDbEntity
  8
2
100
AcDbText
 10
-268.901825
 20
64.650755
 30
0.0
 40
7.6
  1
Ｓ
 50
31.641
 72
     5
 11
-263.725607
 21
67.840295
 31
0.0
100
AcDbText
  0
LINE
  5
60E
100
AcDbEntity
  8
2
100
AcDbLine
 10
-317.646758
 20
64.243338
 30
0.0
 11
-232.646758
 21
64.243338
 31
0.0
  0
LINE
  5
60F
100
AcDbEntity
  8
2
100
AcDbLine
 10
-232.646758
 20
65.443338
 30
0.0
 11
-232.646758
 21
62.243338
 31
0.0
  0
LINE
  5
610
100
AcDbEntity
  8
2
100
AcDbLine
 10
-317.646758
 20
65.443338
 30
0.0
 11
-317.646758
 21
62.243338
 31
0.0
  0
LINE
  5
611
100
AcDbEntity
  8
2
100
AcDbLine
 10
156.422039
 20
59.243338
 30
0.0
 11
72.584444
 21
59.243338
 31
0.0
  0
LINE
  5
612
100
AcDbEntity
  8
2
100
AcDbLine
 10
69.003242
 20
65.443338
 30
0.0
 11
69.003242
 21
58.79172
 31
0.0
  0
LINE
  5
613
100
AcDbEntity
  8
2
100
AcDbLine
 10
154.003242
 20
65.443338
 30
0.0
 11
154.003242
 21
62.222198
 31
0.0
  0
LINE
  5
614
100
AcDbEntity
  8
2
100
AcDbLine
 10
69.003242
 20
64.243338
 30
0.0
 11
154.003242
 21
64.243338
 31
0.0
  0
LINE
  5
615
100
AcDbEntity
  8
2
100
AcDbLine
 10
-202.809617
 20
59.243338
 30
0.0
 11
-325.084836
 21
59.243338
 31
0.0
  0
LINE
  5
616
100
AcDbEntity
  8
2
100
AcDbLine
 10
-202.146758
 20
56.243338
 30
0.0
 11
-202.146758
 21
25.243338
 31
0.0
  0
LINE
  5
617
100
AcDbEntity
  8
2
100
AcDbLine
 10
-336.146758
 20
53.131837
 30
0.0
 11
-336.146758
 21
25.243338
 31
0.0
  0
LINE
  5
618
100
AcDbEntity
  8
2
100
AcDbLine
 10
-347.6267
 20
24.243338
 30
0.0
 11
-337.146758
 21
24.243338
 31
0.0
  0
LINE
  5
619
100
AcDbEntity
  8
2
100
AcDbLine
 10
-201.146758
 20
24.243338
 30
0.0
 11
-191.500533
 21
24.243338
 31
0.0
  0
ARC
  5
61A
100
AcDbEntity
  8
2
100
AcDbCircle
 10
-205.146758
 20
56.243338
 30
0.0
 40
3.0
100
AcDbArc
 50
0.0
 51
90.0
  0
ARC
  5
61B
100
AcDbEntity
  8
2
100
AcDbCircle
 10
-229.646758
 20
62.243338
 30
0.0
 40
3.0
100
AcDbArc
 50
180.0
 51
270.0
  0
ARC
  5
61C
100
AcDbEntity
  8
2
100
AcDbCircle
 10
-320.646758
 20
62.243338
 30
0.0
 40
3.0
100
AcDbArc
 50
270.0
 51
360.0
  0
LINE
  5
61D
100
AcDbEntity
  8
2
100
AcDbLine
 10
69.003242
 20
65.443338
 30
0.0
 11
154.003242
 21
65.443338
 31
0.0
  0
LINE
  5
61E
100
AcDbEntity
  8
2
100
AcDbLine
 10
-232.646758
 20
65.443338
 30
0.0
 11
-317.646758
 21
65.443338
 31
0.0
  0
LINE
  5
61F
100
AcDbEntity
  8
2
100
AcDbLine
 10
152.503242
 20
56.243338
 30
0.0
 11
152.503242
 21
25.243338
 31
0.0
  0
LINE
  5
620
100
AcDbEntity
  8
2
100
AcDbLine
 10
76.503242
 20
56.243338
 30
0.0
 11
76.503242
 21
25.243338
 31
0.0
  0
LINE
  5
621
100
AcDbEntity
  8
2
100
AcDbLine
 10
65.857016
 20
24.243338
 30
0.0
 11
75.503242
 21
24.243338
 31
0.0
  0
LINE
  5
622
100
AcDbEntity
  8
2
100
AcDbLine
 10
153.503242
 20
24.243338
 30
0.0
 11
163.149467
 21
24.243338
 31
0.0
  0
ARC
  5
623
100
AcDbEntity
  8
2
100
AcDbCircle
 10
149.503242
 20
56.243338
 30
0.0
 40
3.0
100
AcDbArc
 50
0.0
 51
90.0
  0
ARC
  5
624
100
AcDbEntity
  8
2
100
AcDbCircle
 10
79.503242
 20
56.243338
 30
0.0
 40
3.0
100
AcDbArc
 50
90.0
 51
180.0
  0
LINE
  5
625
100
AcDbEntity
  8
2
  6
CENTER
 62
     2
100
AcDbLine
 10
-342.146758
 20
33.370787
 30
0.0
 11
-342.146758
 21
16.454775
 31
0.0
  0
LINE
  5
626
100
AcDbEntity
  8
2
  6
CENTER
 62
     2
100
AcDbLine
 10
-196.146758
 20
33.370787
 30
0.0
 11
-196.146758
 21
16.454775
 31
0.0
  0
LINE
  5
627
100
AcDbEntity
  8
2
  6
CENTER
 62
     2
100
AcDbLine
 10
158.503242
 20
33.370787
 30
0.0
 11
158.503242
 21
16.895945
 31
0.0
  0
LINE
  5
628
100
AcDbEntity
  8
2
  6
CENTER
 62
     2
100
AcDbLine
 10
70.503242
 20
33.370787
 30
0.0
 11
70.503242
 21
16.895945
 31
0.0
  0
LINE
  5
629
100
AcDbEntity
  8
2
100
AcDbLine
 10
-346.746758
 20
25.543338
 30
0.0
 11
-346.746758
 21
24.243338
 31
0.0
  0
LINE
  5
62A
100
AcDbEntity
  8
2
100
AcDbLine
 10
-337.546758
 20
25.543338
 30
0.0
 11
-337.546758
 21
24.243338
 31
0.0
  0
LINE
  5
62B
100
AcDbEntity
  8
2
100
AcDbLine
 10
-346.746758
 20
25.543338
 30
0.0
 11
-337.546758
 21
25.543338
 31
0.0
  0
LINE
  5
62C
100
AcDbEntity
  8
2
100
AcDbLine
 10
-346.646758
 20
26.83083
 30
0.0
 11
-346.646758
 21
25.543338
 31
0.0
  0
LINE
  5
62D
100
AcDbEntity
  8
2
100
AcDbLine
 10
-337.646758
 20
26.83083
 30
0.0
 11
-337.646758
 21
25.543338
 31
0.0
  0
ARC
  5
62E
100
AcDbEntity
  8
2
100
AcDbCircle
 10
-342.146758
 20
16.843338
 30
0.0
 40
12.0
100
AcDbArc
 50
73.808648
 51
106.191352
  0
ARC
  5
62F
100
AcDbEntity
  8
2
100
AcDbCircle
 10
-345.046758
 20
26.83083
 30
0.0
 40
1.6
100
AcDbArc
 50
106.191352
 51
180.0
  0
ARC
  5
630
100
AcDbEntity
  8
2
100
AcDbCircle
 10
-339.246758
 20
26.83083
 30
0.0
 40
1.6
100
AcDbArc
 50
0.0
 51
73.808648
  0
LINE
  5
631
100
AcDbEntity
  8
2
100
AcDbLine
 10
-200.746758
 20
25.543338
 30
0.0
 11
-200.746758
 21
24.243338
 31
0.0
  0
LINE
  5
632
100
AcDbEntity
  8
2
100
AcDbLine
 10
-191.546758
 20
25.543338
 30
0.0
 11
-191.546758
 21
24.243338
 31
0.0
  0
LINE
  5
633
100
AcDbEntity
  8
2
100
AcDbLine
 10
-200.746758
 20
25.543338
 30
0.0
 11
-191.546758
 21
25.543338
 31
0.0
  0
LINE
  5
634
100
AcDbEntity
  8
2
100
AcDbLine
 10
-200.646758
 20
26.83083
 30
0.0
 11
-200.646758
 21
25.543338
 31
0.0
  0
LINE
  5
635
100
AcDbEntity
  8
2
100
AcDbLine
 10
-191.646758
 20
26.83083
 30
0.0
 11
-191.646758
 21
25.543338
 31
0.0
  0
ARC
  5
636
100
AcDbEntity
  8
2
100
AcDbCircle
 10
-196.146758
 20
16.843338
 30
0.0
 40
12.0
100
AcDbArc
 50
73.808648
 51
106.191352
  0
ARC
  5
637
100
AcDbEntity
  8
2
100
AcDbCircle
 10
-199.046758
 20
26.83083
 30
0.0
 40
1.6
100
AcDbArc
 50
106.191352
 51
180.0
  0
ARC
  5
638
100
AcDbEntity
  8
2
100
AcDbCircle
 10
-193.246758
 20
26.83083
 30
0.0
 40
1.6
100
AcDbArc
 50
0.0
 51
73.808648
  0
LINE
  5
639
100
AcDbEntity
  8
2
100
AcDbLine
 10
65.903242
 20
25.543338
 30
0.0
 11
65.903242
 21
24.243338
 31
0.0
  0
LINE
  5
63A
100
AcDbEntity
  8
2
100
AcDbLine
 10
75.103242
 20
25.543338
 30
0.0
 11
75.103242
 21
24.243338
 31
0.0
  0
LINE
  5
63B
100
AcDbEntity
  8
2
100
AcDbLine
 10
65.903242
 20
25.543338
 30
0.0
 11
75.103242
 21
25.543338
 31
0.0
  0
LINE
  5
63C
100
AcDbEntity
  8
2
100
AcDbLine
 10
66.003242
 20
26.83083
 30
0.0
 11
66.003242
 21
25.543338
 31
0.0
  0
LINE
  5
63D
100
AcDbEntity
  8
2
100
AcDbLine
 10
75.003242
 20
26.83083
 30
0.0
 11
75.003242
 21
25.543338
 31
0.0
  0
ARC
  5
63E
100
AcDbEntity
  8
2
100
AcDbCircle
 10
70.503242
 20
16.843338
 30
0.0
 40
12.0
100
AcDbArc
 50
73.808648
 51
106.191352
  0
ARC
  5
63F
100
AcDbEntity
  8
2
100
AcDbCircle
 10
67.603242
 20
26.83083
 30
0.0
 40
1.6
100
AcDbArc
 50
106.191352
 51
180.0
  0
ARC
  5
640
100
AcDbEntity
  8
2
100
AcDbCircle
 10
73.403242
 20
26.83083
 30
0.0
 40
1.6
100
AcDbArc
 50
0.0
 51
73.808648
  0
LINE
  5
641
100
AcDbEntity
  8
2
100
AcDbLine
 10
153.903242
 20
25.543338
 30
0.0
 11
153.903242
 21
24.243338
 31
0.0
  0
LINE
  5
642
100
AcDbEntity
  8
2
100
AcDbLine
 10
163.103242
 20
25.543338
 30
0.0
 11
163.103242
 21
24.243338
 31
0.0
  0
LINE
  5
643
100
AcDbEntity
  8
2
100
AcDbLine
 10
153.903242
 20
25.543338
 30
0.0
 11
163.103242
 21
25.543338
 31
0.0
  0
LINE
  5
644
100
AcDbEntity
  8
2
100
AcDbLine
 10
154.003242
 20
26.83083
 30
0.0
 11
154.003242
 21
25.543338
 31
0.0
  0
LINE
  5
645
100
AcDbEntity
  8
2
100
AcDbLine
 10
163.003242
 20
26.83083
 30
0.0
 11
163.003242
 21
25.543338
 31
0.0
  0
ARC
  5
646
100
AcDbEntity
  8
2
100
AcDbCircle
 10
158.503242
 20
16.843338
 30
0.0
 40
12.0
100
AcDbArc
 50
73.808648
 51
106.191352
  0
ARC
  5
647
100
AcDbEntity
  8
2
100
AcDbCircle
 10
155.603242
 20
26.83083
 30
0.0
 40
1.6
100
AcDbArc
 50
106.191352
 51
180.0
  0
ARC
  5
648
100
AcDbEntity
  8
2
100
AcDbCircle
 10
161.403242
 20
26.83083
 30
0.0
 40
1.6
100
AcDbArc
 50
0.0
 51
73.808648
  0
LINE
  5
649
100
AcDbEntity
  8
2
100
AcDbLine
 10
-350.146758
 20
16.243338
 30
0.0
 11
-350.146758
 21
19.243338
 31
0.0
  0
LINE
  5
64A
100
AcDbEntity
  8
2
100
AcDbLine
 10
-350.146758
 20
19.243338
 30
0.0
 11
-339.180225
 21
49.37364
 31
0.0
  0
ARC
  5
64B
100
AcDbEntity
  8
2
100
AcDbCircle
 10
-325.084836
 20
44.243338
 30
0.0
 40
15.0
100
AcDbArc
 50
90.0
 51
160.0
  0
ARC
  5
64C
100
AcDbEntity
  8
2
100
AcDbCircle
 10
-201.146758
 20
25.243338
 30
0.0
 40
1.0
100
AcDbArc
 50
180.0
 51
270.0
  0
ARC
  5
64D
100
AcDbEntity
  8
2
100
AcDbCircle
 10
-347.6267
 20
23.243338
 30
0.0
 40
1.0
100
AcDbArc
 50
90.0
 51
160.0
  0
ARC
  5
64E
100
AcDbEntity
  8
2
100
AcDbCircle
 10
-337.146758
 20
25.243338
 30
0.0
 40
1.0
100
AcDbArc
 50
270.0
 51
360.0
  0
ARC
  5
64F
100
AcDbEntity
  8
2
100
AcDbCircle
 10
-333.146758
 20
53.131837
 30
0.0
 40
3.0
100
AcDbArc
 50
132.208221
 51
180.0
  0
LINE
  5
650
100
AcDbEntity
  8
2
100
AcDbLine
 10
-335.587949
 20
242.243338
 30
0.0
 11
-335.587949
 21
331.243338
 31
0.0
  0
ARC
  5
651
100
AcDbEntity
  8
2
100
AcDbCircle
 10
153.503242
 20
25.243338
 30
0.0
 40
1.0
100
AcDbArc
 50
180.0
 51
270.0
  0
ARC
  5
652
100
AcDbEntity
  8
2
100
AcDbCircle
 10
75.503242
 20
25.243338
 30
0.0
 40
1.0
100
AcDbArc
 50
270.0
 51
360.0
  0
LINE
  5
653
100
AcDbEntity
  8
2
100
AcDbLine
 10
-350.146758
 20
19.243338
 30
0.0
 11
-190.146758
 21
19.243338
 31
0.0
  0
LINE
  5
654
100
AcDbEntity
  8
2
100
AcDbLine
 10
-190.146758
 20
19.243338
 30
0.0
 11
-192.84767
 21
50.114896
 31
0.0
  0
ARC
  5
655
100
AcDbEntity
  8
2
100
AcDbCircle
 10
-202.809617
 20
49.243338
 30
0.0
 40
10.0
100
AcDbArc
 50
5.0
 51
90.0
  0
ARC
  5
656
100
AcDbEntity
  8
2
100
AcDbCircle
 10
-191.500533
 20
23.243338
 30
0.0
 40
1.0
100
AcDbArc
 50
5.0
 51
90.0
  0
LINE
  5
657
100
AcDbEntity
  8
2
100
AcDbLine
 10
-193.646305
 20
250.743338
 30
0.0
 11
-193.646305
 21
322.743338
 31
0.0
  0
LINE
  5
658
100
AcDbEntity
  8
2
100
AcDbLine
 10
164.503242
 20
19.243338
 30
0.0
 11
64.503242
 21
19.243338
 31
0.0
  0
LINE
  5
659
100
AcDbEntity
  8
2
100
AcDbLine
 10
164.503242
 20
19.243338
 30
0.0
 11
161.403013
 21
54.679117
 31
0.0
  0
LINE
  5
65A
100
AcDbEntity
  8
2
100
AcDbLine
 10
64.503242
 20
19.243338
 30
0.0
 11
67.603471
 21
54.679117
 31
0.0
  0
ARC
  5
65B
100
AcDbEntity
  8
2
100
AcDbCircle
 10
156.422039
 20
54.243338
 30
0.0
 40
5.0
100
AcDbArc
 50
5.0
 51
90.0
  0
ARC
  5
65C
100
AcDbEntity
  8
2
100
AcDbCircle
 10
72.584444
 20
54.243338
 30
0.0
 40
5.0
100
AcDbArc
 50
90.0
 51
175.0
  0
ARC
  5
65D
100
AcDbEntity
  8
2
100
AcDbCircle
 10
157.003242
 20
62.222198
 30
0.0
 40
3.0
100
AcDbArc
 50
180.0
 51
265.833774
  0
ARC
  5
65E
100
AcDbEntity
  8
2
100
AcDbCircle
 10
66.003242
 20
58.79172
 30
0.0
 40
3.0
100
AcDbArc
 50
325.350986
 51
360.0
  0
ARC
  5
65F
100
AcDbEntity
  8
2
100
AcDbCircle
 10
163.149467
 20
23.243338
 30
0.0
 40
1.0
100
AcDbArc
 50
5.0
 51
90.0
  0
ARC
  5
660
100
AcDbEntity
  8
2
100
AcDbCircle
 10
65.857016
 20
23.243338
 30
0.0
 40
1.0
100
AcDbArc
 50
90.0
 51
175.0
  0
LINE
  5
661
100
AcDbEntity
  8
2
100
AcDbLine
 10
-334.146758
 20
240.243338
 30
0.0
 11
-204.146758
 21
240.243338
 31
0.0
  0
LINE
  5
662
100
AcDbEntity
  8
2
100
AcDbLine
 10
-334.146758
 20
333.243338
 30
0.0
 11
-204.146758
 21
333.243338
 31
0.0
  0
DIMENSION
  5
663
100
AcDbEntity
  8
5
100
AcDbDimension
  2
*D0
 10
-161.146758
 20
367.762802
 30
0.0
 11
-218.146758
 21
374.212802
 31
0.0
  1
114
100
AcDbAlignedDimension
 13
-275.146758
 23
341.443338
 33
0.0
 14
-161.146758
 24
328.670555
 34
0.0
100
AcDbRotatedDimension
  0
DIMENSION
  5
664
100
AcDbEntity
  8
5
100
AcDbDimension
  2
*D1
 10
-275.146758
 20
367.762802
 30
0.0
 11
-344.146758
 21
374.212802
 31
0.0
  1
138
100
AcDbAlignedDimension
 13
-413.146758
 23
327.743338
 33
0.0
 14
-275.146758
 24
341.443338
 34
0.0
100
AcDbRotatedDimension
  0
DIMENSION
  5
665
100
AcDbEntity
  8
5
100
AcDbDimension
  2
*D2
 10
-120.392464
 20
348.743338
 30
0.0
 11
-128.822464
 21
319.213338
 31
0.0
  1
65
100
AcDbAlignedDimension
 13
-147.787846
 23
283.743338
 33
0.0
 14
-253.823258
 24
348.743338
 34
0.0
 50
90.0
100
AcDbRotatedDimension
  0
DIMENSION
  5
666
100
AcDbEntity
  8
5
100
AcDbDimension
  2
*D3
 10
-120.392464
 20
283.743338
 30
0.0
 11
-132.287464
 21
220.248338
 31
0.0
  1
126
100
AcDbAlignedDimension
 13
-209.451739
 23
157.743338
 33
0.0
 14
-147.787846
 24
283.743338
 34
0.0
 50
90.0
100
AcDbRotatedDimension
  0
DIMENSION
  5
667
100
AcDbEntity
  8
5
100
AcDbDimension
  2
*D4
 10
-269.112836
 20
125.466042
 30
0.0
 11
-234.146758
 21
131.916042
 31
0.0
 70
     1
  1
%%c70
100
AcDbAlignedDimension
 13
-199.180681
 23
163.307226
 33
0.0
 14
-269.112836
 24
163.307226
 34
0.0
  0
DIMENSION
  5
668
100
AcDbEntity
  8
5
100
AcDbDimension
  2
*D5
 10
-49.058516
 20
-104.756662
 30
0.0
 11
-60.953516
 21
-188.751662
 31
0.0
  1
167
100
AcDbAlignedDimension
 13
63.903242
 23
-271.756662
 33
0.0
 14
76.503242
 24
-104.756662
 34
0.0
 50
90.0
100
AcDbRotatedDimension
  0
DIMENSION
  5
669
100
AcDbEntity
  8
5
100
AcDbDimension
  2
*D6
 10
-49.058516
 20
-271.756662
 30
0.0
 11
-60.953516
 21
-323.201662
 31
0.0
  1
102
100
AcDbAlignedDimension
 13
106.503242
 23
-373.656662
 33
0.0
 14
63.903242
 24
-271.756662
 34
0.0
 50
90.0
100
AcDbRotatedDimension
  0
DIMENSION
  5
66A
100
AcDbEntity
  8
5
100
AcDbDimension
  2
*D7
 10
137.503242
 20
-401.817627
 30
0.0
 11
111.503242
 21
-395.367627
 31
0.0
  1
52
100
AcDbAlignedDimension
 13
85.503242
 23
-343.756662
 33
0.0
 14
137.503242
 24
-343.756662
 34
0.0
100
AcDbRotatedDimension
  0
DIMENSION
  5
66B
100
AcDbEntity
  8
5
100
AcDbDimension
  2
*D8
 10
-49.058516
 20
86.243338
 30
0.0
 11
-60.953515
 21
-9.751662
 31
0.0
  1
191
100
AcDbAlignedDimension
 13
76.503242
 23
-104.756662
 33
0.0
 14
111.503242
 24
86.243338
 34
0.0
 50
90.0
100
AcDbRotatedDimension
  0
TEXT
  5
66C
100
AcDbEntity
  8
5
100
AcDbText
 10
287.964867
 20
-149.437889
 30
0.0
 40
15.0
  1
駆動部・・・４Ｉ－１型 
 72
     5
 11
449.964867
 21
-149.437889
 31
0.0
100
AcDbText
  0
TEXT
  5
66D
100
AcDbEntity
  8
5
100
AcDbText
 10
377.964867
 20
-170.437889
 30
0.0
 40
15.0
  1
（コントロールユニット付）
 72
     5
 11
569.964867
 21
-170.437889
 31
0.0
100
AcDbText
  0
LINE
  5
66E
100
AcDbEntity
  8
18
100
AcDbLine
 10
364.647228
 20
-204.646854
 30
0.0
 11
514.647228
 21
-204.646854
 31
0.0
  0
LINE
  5
66F
100
AcDbEntity
  8
18
100
AcDbLine
 10
364.647228
 20
-264.646854
 30
0.0
 11
514.647228
 21
-264.646854
 31
0.0
  0
LINE
  5
670
100
AcDbEntity
  8
18
100
AcDbLine
 10
364.647228
 20
-279.646854
 30
0.0
 11
514.647228
 21
-279.646854
 31
0.0
  0
LINE
  5
671
100
AcDbEntity
  8
18
100
AcDbLine
 10
364.647228
 20
-294.646854
 30
0.0
 11
514.647228
 21
-294.646854
 31
0.0
  0
LINE
  5
672
100
AcDbEntity
  8
18
100
AcDbLine
 10
364.647228
 20
-204.646854
 30
0.0
 11
364.647228
 21
-294.646854
 31
0.0
  0
LINE
  5
673
100
AcDbEntity
  8
18
100
AcDbLine
 10
439.647228
 20
-204.646854
 30
0.0
 11
439.647228
 21
-279.646854
 31
0.0
  0
LINE
  5
674
100
AcDbEntity
  8
18
100
AcDbLine
 10
514.647228
 20
-204.646854
 30
0.0
 11
514.647228
 21
-294.646854
 31
0.0
  0
LINE
  5
675
100
AcDbEntity
  8
18
  6
CENTER
 62
     2
100
AcDbLine
 10
371.828773
 20
-232.822311
 30
0.0
 11
431.835594
 21
-232.822311
 31
0.0
  0
LINE
  5
676
100
AcDbEntity
  8
18
  6
CENTER
 62
     2
100
AcDbLine
 10
401.144234
 20
-217.324265
 30
0.0
 11
401.144234
 21
-250.189419
 31
0.0
  0
LINE
  5
677
100
AcDbEntity
  8
18
100
AcDbLine
 10
377.144234
 20
-222.322311
 30
0.0
 11
422.144234
 21
-222.322311
 31
0.0
  0
LINE
  5
678
100
AcDbEntity
  8
18
100
AcDbLine
 10
377.144234
 20
-243.322311
 30
0.0
 11
422.144234
 21
-243.322311
 31
0.0
  0
LINE
  5
679
100
AcDbEntity
  8
18
100
AcDbLine
 10
377.144234
 20
-222.322311
 30
0.0
 11
377.144234
 21
-246.322311
 31
0.0
  0
LINE
  5
67A
100
AcDbEntity
  8
18
100
AcDbLine
 10
419.144234
 20
-222.322311
 30
0.0
 11
419.144234
 21
-243.322311
 31
0.0
  0
LINE
  5
67B
100
AcDbEntity
  8
18
100
AcDbLine
 10
377.144234
 20
-246.322311
 30
0.0
 11
417.144234
 21
-246.322311
 31
0.0
  0
LINE
  5
67C
100
AcDbEntity
  8
18
100
AcDbLine
 10
422.144234
 20
-222.322311
 30
0.0
 11
422.144234
 21
-243.322311
 31
0.0
  0
LINE
  5
67D
100
AcDbEntity
  8
18
100
AcDbLine
 10
417.144234
 20
-243.322311
 30
0.0
 11
417.144234
 21
-246.322311
 31
0.0
  0
LINE
  5
67E
100
AcDbEntity
  8
18
100
AcDbLine
 10
390.644234
 20
-223.822311
 30
0.0
 11
390.644234
 21
-241.822311
 31
0.0
  0
LINE
  5
67F
100
AcDbEntity
  8
18
100
AcDbLine
 10
416.144234
 20
-223.822311
 30
0.0
 11
416.144234
 21
-241.822311
 31
0.0
  0
LINE
  5
680
100
AcDbEntity
  8
18
100
AcDbLine
 10
390.644234
 20
-223.822311
 30
0.0
 11
416.144234
 21
-223.822311
 31
0.0
  0
LINE
  5
681
100
AcDbEntity
  8
18
100
AcDbLine
 10
390.644234
 20
-241.822311
 30
0.0
 11
416.144234
 21
-241.822311
 31
0.0
  0
CIRCLE
  5
682
100
AcDbEntity
  8
18
100
AcDbCircle
 10
401.144234
 20
-232.822311
 30
0.0
 40
3.6
  0
LINE
  5
683
100
AcDbEntity
  8
18
  6
DASHED
100
AcDbLine
 10
384.644234
 20
-226.822311
 30
0.0
 11
417.644234
 21
-226.822311
 31
0.0
  0
LINE
  5
684
100
AcDbEntity
  8
18
  6
DASHED
100
AcDbLine
 10
384.644234
 20
-238.822311
 30
0.0
 11
417.644234
 21
-238.822311
 31
0.0
  0
LINE
  5
685
100
AcDbEntity
  8
18
  6
DASHED
100
AcDbLine
 10
417.644234
 20
-226.822311
 30
0.0
 11
417.644234
 21
-238.822311
 31
0.0
  0
LINE
  5
686
100
AcDbEntity
  8
18
  6
DASHED
100
AcDbLine
 10
384.644234
 20
-226.822311
 30
0.0
 11
384.644234
 21
-238.822311
 31
0.0
  0
LINE
  5
687
100
AcDbEntity
  8
18
  6
CENTER
 62
     2
100
AcDbLine
 10
456.122978
 20
-232.918785
 30
0.0
 11
498.500055
 21
-232.918785
 31
0.0
  0
LINE
  5
688
100
AcDbEntity
  8
18
  6
CENTER
 62
     2
100
AcDbLine
 10
409.144234
 20
-244.750105
 30
0.0
 11
409.144234
 21
-257.684772
 31
0.0
  0
LINE
  5
689
100
AcDbEntity
  8
18
100
AcDbLine
 10
493.954262
 20
-224.918606
 30
0.0
 11
493.954262
 21
-219.047785
 31
0.0
  0
LINE
  5
68A
100
AcDbEntity
  8
18
100
AcDbLine
 10
493.954262
 20
-219.047785
 30
0.0
 11
495.454262
 21
-219.047785
 31
0.0
  0
LINE
  5
68B
100
AcDbEntity
  8
18
100
AcDbLine
 10
495.454262
 20
-224.918606
 30
0.0
 11
495.454262
 21
-219.047785
 31
0.0
  0
LINE
  5
68C
100
AcDbEntity
  8
18
100
AcDbLine
 10
493.954262
 20
-230.789427
 30
0.0
 11
495.454262
 21
-230.789427
 31
0.0
  0
LINE
  5
68D
100
AcDbEntity
  8
18
  6
CENTER
 62
     2
100
AcDbLine
 10
475.954262
 20
-207.68655
 30
0.0
 11
475.954262
 21
-260.49115
 31
0.0
  0
LINE
  5
68E
100
AcDbEntity
  8
18
100
AcDbLine
 10
465.454262
 20
-256.918785
 30
0.0
 11
465.454262
 21
-211.918785
 31
0.0
  0
LINE
  5
68F
100
AcDbEntity
  8
18
100
AcDbLine
 10
486.454262
 20
-256.918785
 30
0.0
 11
486.454262
 21
-211.918785
 31
0.0
  0
LINE
  5
690
100
AcDbEntity
  8
18
100
AcDbLine
 10
465.454262
 20
-256.918785
 30
0.0
 11
489.454262
 21
-256.918785
 31
0.0
  0
LINE
  5
691
100
AcDbEntity
  8
18
100
AcDbLine
 10
465.454262
 20
-214.918785
 30
0.0
 11
486.454262
 21
-214.918785
 31
0.0
  0
LINE
  5
692
100
AcDbEntity
  8
18
100
AcDbLine
 10
489.454262
 20
-256.918785
 30
0.0
 11
489.454262
 21
-216.918785
 31
0.0
  0
LINE
  5
693
100
AcDbEntity
  8
18
100
AcDbLine
 10
465.454262
 20
-211.918785
 30
0.0
 11
486.454262
 21
-211.918785
 31
0.0
  0
LINE
  5
694
100
AcDbEntity
  8
18
100
AcDbLine
 10
486.454262
 20
-216.918785
 30
0.0
 11
489.454262
 21
-216.918785
 31
0.0
  0
LINE
  5
695
100
AcDbEntity
  8
18
100
AcDbLine
 10
466.954262
 20
-243.418785
 30
0.0
 11
484.954262
 21
-243.418785
 31
0.0
  0
LINE
  5
696
100
AcDbEntity
  8
18
100
AcDbLine
 10
466.954262
 20
-217.918785
 30
0.0
 11
484.954262
 21
-217.918785
 31
0.0
  0
LINE
  5
697
100
AcDbEntity
  8
18
100
AcDbLine
 10
466.954262
 20
-243.418785
 30
0.0
 11
466.954262
 21
-217.918785
 31
0.0
  0
LINE
  5
698
100
AcDbEntity
  8
18
100
AcDbLine
 10
484.954262
 20
-243.418785
 30
0.0
 11
484.954262
 21
-217.918785
 31
0.0
  0
CIRCLE
  5
699
100
AcDbEntity
  8
18
100
AcDbCircle
 10
475.954262
 20
-232.918785
 30
0.0
 40
3.6
  0
LINE
  5
69A
100
AcDbEntity
  8
18
100
AcDbLine
 10
459.454262
 20
-226.918785
 30
0.0
 11
459.454262
 21
-238.918785
 31
0.0
  0
LINE
  5
69B
100
AcDbEntity
  8
18
  6
CENTER
 62
     2
100
AcDbLine
 10
487.882055
 20
-224.918785
 30
0.0
 11
501.689066
 21
-224.918785
 31
0.0
  0
LINE
  5
69C
100
AcDbEntity
  8
18
100
AcDbLine
 10
459.454262
 20
-226.918785
 30
0.0
 11
465.454262
 21
-226.918785
 31
0.0
  0
LINE
  5
69D
100
AcDbEntity
  8
18
100
AcDbLine
 10
489.454262
 20
-238.918785
 30
0.0
 11
492.454262
 21
-238.918785
 31
0.0
  0
LINE
  5
69E
100
AcDbEntity
  8
18
100
AcDbLine
 10
459.454262
 20
-238.918785
 30
0.0
 11
465.454262
 21
-238.918785
 31
0.0
  0
LINE
  5
69F
100
AcDbEntity
  8
18
  6
DASHED
100
AcDbLine
 10
465.454262
 20
-238.918785
 30
0.0
 11
489.454262
 21
-238.918785
 31
0.0
  0
LINE
  5
6A0
100
AcDbEntity
  8
18
100
AcDbLine
 10
492.454262
 20
-232.289606
 30
0.0
 11
492.454262
 21
-238.918785
 31
0.0
  0
LINE
  5
6A1
100
AcDbEntity
  8
18
  6
DASHED
100
AcDbLine
 10
465.454262
 20
-226.918785
 30
0.0
 11
489.454262
 21
-226.918785
 31
0.0
  0
LINE
  5
6A2
100
AcDbEntity
  8
18
  6
DASHED
100
AcDbLine
 10
489.454262
 20
-226.918785
 30
0.0
 11
492.049722
 21
-226.918785
 31
0.0
  0
LINE
  5
6A3
100
AcDbEntity
  8
18
  6
DASHED
100
AcDbLine
 10
492.049722
 20
-226.918785
 30
0.0
 11
492.454262
 21
-226.918785
 31
0.0
  0
LINE
  5
6A4
100
AcDbEntity
  8
18
100
AcDbLine
 10
489.454262
 20
-220.121066
 30
0.0
 11
493.954262
 21
-222.219451
 31
0.0
  0
LINE
  5
6A5
100
AcDbEntity
  8
18
100
AcDbLine
 10
489.454262
 20
-229.716146
 30
0.0
 11
493.954262
 21
-227.617762
 31
0.0
  0
LINE
  5
6A6
100
AcDbEntity
  8
18
100
AcDbLine
 10
493.954262
 20
-224.918606
 30
0.0
 11
493.954262
 21
-230.789427
 31
0.0
  0
LINE
  5
6A7
100
AcDbEntity
  8
18
100
AcDbLine
 10
495.454262
 20
-224.918606
 30
0.0
 11
495.454262
 21
-230.789427
 31
0.0
  0
LINE
  5
6A8
100
AcDbEntity
  8
18
100
AcDbLine
 10
409.144055
 20
-250.822311
 30
0.0
 11
403.273234
 21
-250.822311
 31
0.0
  0
LINE
  5
6A9
100
AcDbEntity
  8
18
100
AcDbLine
 10
403.273234
 20
-250.822311
 30
0.0
 11
403.273234
 21
-252.322311
 31
0.0
  0
LINE
  5
6AA
100
AcDbEntity
  8
18
100
AcDbLine
 10
409.144055
 20
-252.322311
 30
0.0
 11
403.273234
 21
-252.322311
 31
0.0
  0
LINE
  5
6AB
100
AcDbEntity
  8
18
100
AcDbLine
 10
415.014876
 20
-250.822311
 30
0.0
 11
415.014876
 21
-252.322311
 31
0.0
  0
LINE
  5
6AC
100
AcDbEntity
  8
18
100
AcDbLine
 10
404.346515
 20
-246.322311
 30
0.0
 11
406.444899
 21
-250.822311
 31
0.0
  0
LINE
  5
6AD
100
AcDbEntity
  8
18
100
AcDbLine
 10
413.941595
 20
-246.322311
 30
0.0
 11
411.84321
 21
-250.822311
 31
0.0
  0
LINE
  5
6AE
100
AcDbEntity
  8
18
100
AcDbLine
 10
409.144055
 20
-250.822311
 30
0.0
 11
415.014876
 21
-250.822311
 31
0.0
  0
LINE
  5
6AF
100
AcDbEntity
  8
18
100
AcDbLine
 10
409.144055
 20
-252.322311
 30
0.0
 11
415.014876
 21
-252.322311
 31
0.0
  0
LINE
  5
6B0
100
AcDbEntity
  8
18
  6
DASHED
100
AcDbLine
 10
492.454262
 20
-226.918785
 30
0.0
 11
492.454262
 21
-228.317223
 31
0.0
  0
LINE
  5
6B1
100
AcDbEntity
  8
18
100
AcDbLine
 10
492.454262
 20
-227.817223
 30
0.0
 11
492.454262
 21
-227.853458
 31
0.0
  0
LINE
  5
6B2
100
AcDbEntity
  8
18
100
AcDbLine
 10
492.454262
 20
-228.317223
 30
0.0
 11
492.454262
 21
-232.695717
 31
0.0
  0
TEXT
  5
6B3
100
AcDbEntity
  8
18
100
AcDbText
 10
367.650238
 20
-399.871262
 30
0.0
 40
9.0
  1
１
 72
     5
 11
374.850238
 21
-399.871262
 31
0.0
100
AcDbText
  0
TEXT
  5
6B4
100
AcDbEntity
  8
18
100
AcDbText
 10
379.338043
 20
-410.836578
 30
0.0
 40
9.0
  1
３
 72
     5
 11
386.538043
 21
-410.836578
 31
0.0
100
AcDbText
  0
TEXT
  5
6B5
100
AcDbEntity
  8
18
100
AcDbText
 10
376.623608
 20
-290.247757
 30
0.0
 40
7.5
  1
ＡＣＴＵＡＴＯＲ　ＰＯＳＩＴＩＯＮ
 72
     5
 11
502.623608
 21
-290.247757
 31
0.0
100
AcDbText
  0
TEXT
  5
6B6
100
AcDbEntity
  8
18
100
AcDbText
 10
395.03944
 20
-276.113216
 30
0.0
 40
9.0
  1
Ａ
 72
     5
 11
402.23944
 21
-276.113216
 31
0.0
100
AcDbText
  0
TEXT
  5
6B7
100
AcDbEntity
  8
18
100
AcDbText
 10
470.003597
 20
-276.35368
 30
0.0
 40
9.0
  1
Ｂ
 72
     5
 11
477.203597
 21
-276.35368
 31
0.0
100
AcDbText
  0
TEXT
  5
6B8
100
AcDbEntity
  8
18
100
AcDbText
 10
368.562721
 20
-369.105789
 30
0.0
 40
9.0
  1
７００Ｇ－４ＩＡＳ　１００Ａ
 72
     5
 11
492.762721
 21
-369.105789
 31
0.0
100
AcDbText
  0
TEXT
  5
6B9
100
AcDbEntity
  8
18
100
AcDbText
 10
368.562721
 20
-381.105789
 30
0.0
 40
9.0
  1
標準仕様　ＪＩＳ　５，１０Ｋ
 72
     5
 11
492.762721
 21
-381.105789
 31
0.0
100
AcDbText
  0
TEXT
  5
6BA
100
AcDbEntity
  8
18
100
AcDbText
 10
460.8
 20
-408.0
 30
0.0
 40
15.0
  1
Ｄ３－０３５４７
 72
     5
 11
577.8
 21
-408.0
 31
0.0
100
AcDbText
  0
TEXT
  5
6BB
100
AcDbEntity
  8
18
100
AcDbText
 10
541.497299
 20
-381.312515
 30
0.0
 40
6.75
  1
′０４．　９．４
 72
     5
 11
594.147299
 21
-381.312515
 31
0.0
100
AcDbText
  0
LINE
  5
6BC
100
AcDbEntity
  8
20
 62
     3
100
AcDbLine
 10
-540.0
 20
-415.5
 30
0.0
 11
600.0
 21
-415.5
 31
0.0
  0
LINE
  5
6BD
100
AcDbEntity
  8
20
 62
     3
100
AcDbLine
 10
-540.0
 20
396.0
 30
0.0
 11
600.0
 21
396.0
 31
0.0
  0
LINE
  5
6BE
100
AcDbEntity
  8
20
 62
     3
100
AcDbLine
 10
-540.0
 20
396.0
 30
0.0
 11
-540.0
 21
-415.5
 31
0.0
  0
LINE
  5
6BF
100
AcDbEntity
  8
20
 62
     3
100
AcDbLine
 10
600.0
 20
396.0
 30
0.0
 11
600.0
 21
-415.5
 31
0.0
  0
LINE
  5
6C0
100
AcDbEntity
  8
20
 62
     3
100
AcDbLine
 10
180.0
 20
-415.5
 30
0.0
 11
180.0
 21
-355.5
 31
0.0
  0
LINE
  5
6C1
100
AcDbEntity
  8
20
 62
     3
100
AcDbLine
 10
321.0
 20
-415.5
 30
0.0
 11
321.0
 21
-355.5
 31
0.0
  0
LINE
  5
6C2
100
AcDbEntity
  8
20
100
AcDbLine
 10
321.0
 20
-385.5
 30
0.0
 11
600.0
 21
-385.5
 31
0.0
  0
LINE
  5
6C3
100
AcDbEntity
  8
20
 62
     3
100
AcDbLine
 10
180.0
 20
-355.5
 30
0.0
 11
600.0
 21
-355.5
 31
0.0
  0
LINE
  5
6C4
100
AcDbEntity
  8
20
100
AcDbLine
 10
540.0
 20
-385.5
 30
0.0
 11
540.0
 21
-355.5
 31
0.0
  0
LINE
  5
6C5
100
AcDbEntity
  8
20
100
AcDbLine
 10
540.0
 20
-370.5
 30
0.0
 11
600.0
 21
-370.5
 31
0.0
  0
LINE
  5
6C6
100
AcDbEntity
  8
20
100
AcDbLine
 10
363.0
 20
-415.5
 30
0.0
 11
363.0
 21
-355.5
 31
0.0
  0
LINE
  5
6C7
100
AcDbEntity
  8
20
100
AcDbLine
 10
393.0
 20
-415.5
 30
0.0
 11
393.0
 21
-385.5
 31
0.0
  0
LINE
  5
6C8
100
AcDbEntity
  8
20
100
AcDbLine
 10
453.0
 20
-415.5
 30
0.0
 11
453.0
 21
-385.5
 31
0.0
  0
LINE
  5
6C9
100
AcDbEntity
  8
20
100
AcDbLine
 10
371.185244
 20
-407.314756
 30
0.0
 11
383.694872
 21
-394.805128
 31
0.0
  0
TEXT
  5
6CA
100
AcDbEntity
  8
20
100
AcDbText
 10
394.599987
 20
-397.490753
 30
0.0
 40
5.4
  1
ＤＲＡＷＩＮＧ　ＮＯ．
 72
     5
 11
452.919987
 21
-397.490753
 31
0.0
100
AcDbText
  0
TEXT
  5
6CB
100
AcDbEntity
  8
20
100
AcDbText
 10
400.5
 20
-409.5
 30
0.0
 40
9.0
  1
図　　　番
 72
     5
 11
443.7
 21
-409.5
 31
0.0
100
AcDbText
  0
TEXT
  5
6CC
100
AcDbEntity
  8
20
100
AcDbText
 10
558.0
 20
-366.0
 30
0.0
 40
6.0
  1
ＤＡＴＥ
 72
     5
 11
580.8
 21
-366.0
 31
0.0
100
AcDbText
  0
TEXT
  5
6CD
100
AcDbEntity
  8
20
100
AcDbText
 10
327.003213
 20
-398.883087
 30
0.0
 40
6.0
  1
ＳＣＡＬＥ
 72
     5
 11
355.803213
 21
-398.883087
 31
0.0
100
AcDbText
  0
TEXT
  5
6CE
100
AcDbEntity
  8
20
100
AcDbText
 10
324.0
 20
-409.5
 30
0.0
 40
9.0
  1
尺　　度
 72
     5
 11
358.2
 21
-409.5
 31
0.0
100
AcDbText
  0
TEXT
  5
6CF
100
AcDbEntity
  8
20
100
AcDbText
 10
322.503213
 20
-367.487654
 30
0.0
 40
6.0
  1
ＦＩＧ．ＮＯ．
 72
     5
 11
363.303213
 21
-367.487654
 31
0.0
100
AcDbText
  0
TEXT
  5
6D0
100
AcDbEntity
  8
20
100
AcDbText
 10
324.0
 20
-379.5
 30
0.0
 40
9.0
  1
名　　称
 72
     5
 11
358.2
 21
-379.5
 31
0.0
100
AcDbText
  0
TEXT
  5
6D1
100
AcDbEntity
  8
20
100
AcDbText
 10
181.696575
 20
-379.410759
 30
0.0
 40
6.9
  1
ＴＯＭＯＥ　ＶＡＬＶＥ　ＣＯ．，ＬＴＤ．
 72
     5
 11
318.316575
 21
-379.410759
 31
0.0
100
AcDbText
  0
TEXT
  5
6D2
100
AcDbEntity
  8
20
100
AcDbText
 10
202.5
 20
-399.869431
 30
0.0
 40
12.0
  1
巴バルブ株式会社
 72
     5
 11
296.1
 21
-399.869431
 31
0.0
100
AcDbText
  0
ENDSEC
  0
SECTION
  2
OBJECTS
  0
DICTIONARY
  5
73F
100
AcDbDictionary
  3
ACAD_GROUP
350
740
  3
ACAD_MLINESTYLE
350
741
  0
DICTIONARY
  5
740
102
{ACAD_REACTORS
330
73F
102
}
100
AcDbDictionary
  0
DICTIONARY
  5
741
102
{ACAD_REACTORS
330
73F
102
}
100
AcDbDictionary
  3
STANDARD
350
742
  0
MLINESTYLE
  5
742
102
{ACAD_REACTORS
330
741
102
}
100
AcDbMlineStyle
  2
STANDARD
 70
     0
  3

 62
     0
 51
90.0
 52
90.0
 71
     2
 49
0.5
 62
   256
  6
BYLAYER
 49
-0.5
 62
   256
  6
BYLAYER
  0
ENDSEC
  0
EOF
