  0
SECTION
  2
HEADER
  9
$ACADVER
  1
AC1012
  9
$DWGCODEPAGE
  3
ansi_932
  9
$INSBASE
 10
0.0
 20
0.0
 30
0.0
  9
$EXTMIN
 10
-840.0
 20
-594.0
 30
1.000000E+20
  9
$EXTMAX
 10
840.0
 20
594.0
 30
-1.000000E+20
  9
$LIMMIN
 10
-840.0
 20
-594.0
  9
$LIMMAX
 10
840.0
 20
594.0
  9
$ORTHOMODE
 70
     0
  9
$REGENMODE
 70
     1
  9
$FILLMODE
 70
     1
  9
$QTEXTMODE
 70
     0
  9
$MIRRTEXT
 70
     1
  9
$DRAGMODE
 70
     2
  9
$LTSCALE
 40
1.0
  9
$OSMODE
 70
     0
  9
$ATTMODE
 70
     1
  9
$TEXTSIZE
 40
0.2
  9
$TRACEWID
 40
0.05
  9
$TEXTSTYLE
  7
STANDARD
  9
$CLAYER
  8
0
  9
$CELTYPE
  6
CONTINUOUS
  9
$CECOLOR
 62
   256
  9
$CELTSCALE
 40
1.0
  9
$DELOBJ
 70
     1
  9
$DISPSILH
 70
     0
  9
$DIMSCALE
 40
4.0
  9
$DIMASZ
 40
0.18
  9
$DIMEXO
 40
0.0625
  9
$DIMDLI
 40
0.38
  9
$DIMRND
 40
0.0
  9
$DIMDLE
 40
0.0
  9
$DIMEXE
 40
0.18
  9
$DIMTP
 40
0.0
  9
$DIMTM
 40
0.0
  9
$DIMTXT
 40
0.18
  9
$DIMCEN
 40
0.09
  9
$DIMTSZ
 40
0.0
  9
$DIMTOL
 70
     0
  9
$DIMLIM
 70
     0
  9
$DIMTIH
 70
     1
  9
$DIMTOH
 70
     1
  9
$DIMSE1
 70
     0
  9
$DIMSE2
 70
     0
  9
$DIMTAD
 70
     1
  9
$DIMZIN
 70
     0
  9
$DIMBLK
  1

  9
$DIMASO
 70
     1
  9
$DIMSHO
 70
     1
  9
$DIMPOST
  1

  9
$DIMAPOST
  1

  9
$DIMALT
 70
     0
  9
$DIMALTD
 70
     2
  9
$DIMALTF
 40
25.4
  9
$DIMLFAC
 40
1.0
  9
$DIMTOFL
 70
     0
  9
$DIMTVP
 40
0.0
  9
$DIMTIX
 70
     0
  9
$DIMSOXD
 70
     0
  9
$DIMSAH
 70
     0
  9
$DIMBLK1
  1

  9
$DIMBLK2
  1

  9
$DIMSTYLE
  2
STANDARD
  9
$DIMCLRD
 70
     0
  9
$DIMCLRE
 70
     0
  9
$DIMCLRT
 70
     0
  9
$DIMTFAC
 40
1.0
  9
$DIMGAP
 40
0.09
  9
$DIMJUST
 70
     0
  9
$DIMSD1
 70
     0
  9
$DIMSD2
 70
     0
  9
$DIMTOLJ
 70
     1
  9
$DIMTZIN
 70
     0
  9
$DIMALTZ
 70
     0
  9
$DIMALTTZ
 70
     0
  9
$DIMFIT
 70
     3
  9
$DIMUPT
 70
     0
  9
$DIMUNIT
 70
     2
  9
$DIMDEC
 70
     4
  9
$DIMTDEC
 70
     4
  9
$DIMALTU
 70
     2
  9
$DIMALTTD
 70
     2
  9
$DIMTXSTY
  7
STANDARD
  9
$DIMAUNIT
 70
     0
  9
$LUNITS
 70
     2
  9
$LUPREC
 70
     4
  9
$SKETCHINC
 40
0.1
  9
$FILLETRAD
 40
0.0
  9
$AUNITS
 70
     0
  9
$AUPREC
 70
     0
  9
$MENU
  1
acad
  9
$ELEVATION
 40
0.0
  9
$PELEVATION
 40
0.0
  9
$THICKNESS
 40
0.0
  9
$LIMCHECK
 70
     0
  9
$BLIPMODE
 70
     1
  9
$CHAMFERA
 40
0.0
  9
$CHAMFERB
 40
0.0
  9
$CHAMFERC
 40
0.0
  9
$CHAMFERD
 40
0.0
  9
$SKPOLY
 70
     0
  9
$TDCREATE
 40
2450703.000000000
  9
$TDUPDATE
 40
0.000000000
  9
$TDINDWG
 40
0.0000000000
  9
$TDUSRTIMER
 40
0.0000000000
  9
$USRTIMER
 70
     1
  9
$ANGBASE
 50
0.0
  9
$ANGDIR
 70
     0
  9
$PDMODE
 70
     0
  9
$PDSIZE
 40
0.0
  9
$PLINEWID
 40
0.0
  9
$COORDS
 70
     0
  9
$SPLFRAME
 70
     0
  9
$SPLINETYPE
 70
     6
  9
$SPLINESEGS
 70
     8
  9
$ATTDIA
 70
     0
  9
$ATTREQ
 70
     1
  9
$HANDLING
 70
     1
  9
$HANDSEED
  5
7C9
  9
$SURFTAB1
 70
     6
  9
$SURFTAB2
 70
     6
  9
$SURFTYPE
 70
     6
  9
$SURFU
 70
     6
  9
$SURFV
 70
     6
  9
$UCSNAME
  2

  9
$UCSORG
 10
0.0
 20
0.0
 30
0.0
  9
$UCSXDIR
 10
1.0
 20
0.0
 30
0.0
  9
$UCSYDIR
 10
0.0
 20
1.0
 30
0.0
  9
$PUCSNAME
  2

  9
$PUCSORG
 10
0.0
 20
0.0
 30
0.0
  9
$PUCSXDIR
 10
1.0
 20
0.0
 30
0.0
  9
$PUCSYDIR
 10
0.0
 20
1.0
 30
0.0
  9
$USERI1
 70
     0
  9
$USERI2
 70
     0
  9
$USERI3
 70
     0
  9
$USERI4
 70
     0
  9
$USERI5
 70
     0
  9
$USERR1
 40
0.0
  9
$USERR2
 40
0.0
  9
$USERR3
 40
0.0
  9
$USERR4
 40
0.0
  9
$USERR5
 40
0.0
  9
$WORLDVIEW
 70
     1
  9
$SHADEDGE
 70
     3
  9
$SHADEDIF
 70
    70
  9
$TILEMODE
 70
     1
  9
$MAXACTVP
 70
    16
  9
$PINSBASE
 10
0.0
 20
0.0
 30
0.0
  9
$PLIMCHECK
 70
     0
  9
$PEXTMIN
 10
1.000000E+20
 20
1.000000E+20
 30
1.000000E+20
  9
$PEXTMAX
 10
-1.000000E+20
 20
-1.000000E+20
 30
-1.000000E+20
  9
$PLIMMIN
 10
0.0
 20
0.0
  9
$PLIMMAX
 10
12.0
 20
9.0
  9
$UNITMODE
 70
     0
  9
$VISRETAIN
 70
     0
  9
$PLINEGEN
 70
     1
  9
$PSLTSCALE
 70
     0
  9
$TREEDEPTH
 70
  3020
  9
$PICKSTYLE
 70
     1
  9
$CMLSTYLE
  2
STANDARD
  9
$CMLJUST
 70
     0
  9
$CMLSCALE
 40
1.0
  9
$SAVEIMAGES
 70
     0
  0
ENDSEC
  0
SECTION
  2
CLASSES
  0
CLASS
  1
LWPOLYLINE
  2
AcDbPolyline
  3
"AutoCAD"
 90
    32768
280
     0
281
     1
  0
CLASS
  1
IMAGE
  2
AcDbRasterImage
  3
ISM
 90
    32895
280
     0
281
     1
  0
CLASS
  1
OLE2FRAME
  2
AcDbOle2Frame
  3
""
 90
    32768
280
     0
281
     1
  0
CLASS
  1
HATCH
  2
AcDbHatch
  3
"ACAD_SEDONA"
 90
    32768
280
     0
281
     1
  0
CLASS
  1
DICTIONARYVAR
  2
AcDbDictionaryVar
  3
"AutoCAD"
 90
    32768
280
     0
281
     0
  0
CLASS
  1
RASTERVARIABLES
  2
AcDbRasterVariables
  3
ISM
 90
    32768
280
     0
281
     0
  0
CLASS
  1
IMAGEDEF
  2
AcDbRasterImageDef
  3
ISM
 90
    32768
280
     0
281
     0
  0
CLASS
  1
IMAGEDEF_REACTOR
  2
AcDbRasterImageDefReactor
  3
ISM
 90
    32769
280
     0
281
     0
  0
CLASS
  1
IDBUFFER
  2
AcDbIdBuffer
  3
"Acad"
 90
    32768
280
     0
281
     0
  0
CLASS
  1
SPATIAL_FILTER
  2
AcDbSpatialFilter
  3
"Acad"
 90
    32768
280
     0
281
     0
  0
CLASS
  1
XRECORD
  2
AcDbXrecord
  3
"<Built In>"
 90
    32768
280
     0
281
     0
  0
CLASS
  1
SORTENTSTABLE
  2
AcDbSortentsTable
  3
"AutoCAD"
 90
    32768
280
     0
281
     0
  0
CLASS
  1
LAYER_INDEX
  2
AcDbLayerIndex
  3
"Acad"
 90
    32768
280
     0
281
     0
  0
CLASS
  1
SPATIAL_INDEX
  2
AcDbSpatialIndex
  3
"Acad"
 90
    32768
280
     0
281
     0
  0
CLASS
  1
OBJECT_PTR
  2
CAseDLPNTableRecord
  3
"ASE-LPNTableRecord"
 90
    32769
280
     0
281
     0
  0
CLASS
  1
LAYOUT
  2
AcDbLayout
  3
"AutoCAD 2000"
 90
    32768
280
     0
281
     0
  0
CLASS
  1
PLOTSETTINGS
  2
AcDbPlotSettings
  3
"AutoCAD 2000"
 90
    32768
280
     0
281
     0
  0
CLASS
  1
ACDBDICTIONARYWDFLT
  2
AcDbDictionaryWithDefault
  3
"AutoCAD 2000"
 90
    32768
280
     0
281
     0
  0
CLASS
  1
ACDBPLACEHOLDER
  2
AcDbPlaceHolder
  3
"AutoCAD 2000"
 90
    32768
280
     0
281
     0
  0
CLASS
  1
VBA_PROJECT
  2
AcDbVbaProject
  3
"acadvba"
 90
    32768
280
     0
281
     0
  0
CLASS
  1
WIPEOUT
  2
AcDbWipeout
  3
WipeOut|AutoCAD Express Tool|expresstools@autodesk.com
 90
    32895
280
     0
281
     1
  0
CLASS
  1
WIPEOUTVARIABLES
  2
AcDbWipeoutVariables
  3
WipeOut|AutoCAD Express Tool|expresstools@autodesk.com
 90
    32768
280
     0
281
     0
  0
CLASS
  1
RTEXT
  2
RText
  3
RText|AutoCAD Express Tool|expresstools@autodesk.com
 90
    32768
280
     0
281
     1
  0
CLASS
  1
ARCALIGNEDTEXT
  2
AcDbArcAlignedText
  3
ATEXT|AutoCAD Express Tool|expresstools@autodesk.com
 90
    32768
280
     0
281
     1
  0
ENDSEC
  0
SECTION
  2
TABLES
  0
TABLE
  2
VPORT
  5
6
100
AcDbSymbolTable
 70
     1
  0
VPORT
  5
1B
100
AcDbSymbolTableRecord
100
AcDbViewportTableRecord
  2
*ACTIVE
 70
     0
 10
0.0
 20
0.0
 11
1.0
 21
1.0
 12
0.0
 22
0.0
 13
0.0
 23
0.0
 14
1.0
 24
1.0
 15
0.0
 25
0.0
 16
0.0
 26
0.0
 36
1.0
 17
0.0
 27
0.0
 37
0.0
 40
1188.0
 41
1.414141
 42
50.0
 43
0.0
 44
0.0
 50
0.0
 51
0.0
 71
     0
 72
   500
 73
     1
 74
     1
 75
     0
 76
     0
 77
     0
 78
     0
  0
ENDTAB
  0
TABLE
  2
LTYPE
  5
3
100
AcDbSymbolTable
 70
     9
  0
LTYPE
  5
C
100
AcDbSymbolTableRecord
100
AcDbLinetypeTableRecord
  2
BYBLOCK
 70
    64
  3

 72
    65
 73
     0
 40
0.0
  0
LTYPE
  5
D
100
AcDbSymbolTableRecord
100
AcDbLinetypeTableRecord
  2
BYLAYER
 70
    64
  3

 72
    65
 73
     0
 40
0.0
  0
LTYPE
  5
E
100
AcDbSymbolTableRecord
100
AcDbLinetypeTableRecord
  2
CONTINUOUS
 70
     0
  3
Solid line
 72
    65
 73
     0
 40
0.0
  0
LTYPE
  5
F
100
AcDbSymbolTableRecord
100
AcDbLinetypeTableRecord
  2
DASHED
 70
     0
  3
__ __ __ __ __ __ __ __ __ __ __ __ __ __ __
 72
    65
 73
     2
 40
2.0
 49
1.2
 74
     0
 49
-0.8
 74
     0
  0
LTYPE
  5
10
100
AcDbSymbolTableRecord
100
AcDbLinetypeTableRecord
  2
CENTER
 70
     0
  3
____ _ ____ _ ____ _ ____ _ ____ _ ____ _ ____
 72
    65
 73
     4
 40
12.0
 49
9.0
 74
     0
 49
-1.0
 74
     0
 49
1.0
 74
     0
 49
-1.0
 74
     0
  0
LTYPE
  5
11
100
AcDbSymbolTableRecord
100
AcDbLinetypeTableRecord
  2
HIDDEN
 70
     0
  3
_ _ _ _ _ _ _ _ _ _ _ _ _ _ _ _ _ _ _ _ _ _ _
 72
    65
 73
     2
 40
3.2
 49
2.4
 74
     0
 49
-0.8
 74
     0
  0
LTYPE
  5
12
100
AcDbSymbolTableRecord
100
AcDbLinetypeTableRecord
  2
PHANTOM
 70
     0
  3
_____ _ _ _____ _ _ _____ _ _ _____ _ _ _____
 72
    65
 73
     6
 40
13.5
 49
9.0
 74
     0
 49
-1.0
 74
     0
 49
1.0
 74
     0
 49
-0.5
 74
     0
 49
1.0
 74
     0
 49
-1.0
 74
     0
  0
LTYPE
  5
13
100
AcDbSymbolTableRecord
100
AcDbLinetypeTableRecord
  2
DOT
 70
     0
  3
...............................................
 72
    65
 73
     2
 40
1.0
 49
0.5
 74
     0
 49
-0.5
 74
     0
  0
LTYPE
  5
14
100
AcDbSymbolTableRecord
100
AcDbLinetypeTableRecord
  2
DASHDOT
 70
     0
  3
__ . __ . __ . __ . __ . __ . __ . __ . __ . __
 72
    65
 73
     4
 40
8.0
 49
5.0
 74
     0
 49
-1.0
 74
     0
 49
1.0
 74
     0
 49
-1.0
 74
     0
  0
ENDTAB
  0
TABLE
  2
LAYER
  5
1
100
AcDbSymbolTable
 70
     6
  0
LAYER
  5
15
100
AcDbSymbolTableRecord
100
AcDbLayerTableRecord
  2
0
 70
     0
 62
     7
  6
CONTINUOUS
  0
LAYER
  5
16
100
AcDbSymbolTableRecord
100
AcDbLayerTableRecord
  2
1
 70
     0
 62
     7
  6
CONTINUOUS
  0
LAYER
  5
17
100
AcDbSymbolTableRecord
100
AcDbLayerTableRecord
  2
2
 70
     0
 62
     7
  6
CONTINUOUS
  0
LAYER
  5
18
100
AcDbSymbolTableRecord
100
AcDbLayerTableRecord
  2
5
 70
     0
 62
     7
  6
CONTINUOUS
  0
LAYER
  5
19
100
AcDbSymbolTableRecord
100
AcDbLayerTableRecord
  2
18
 70
     0
 62
     7
  6
CONTINUOUS
  0
LAYER
  5
1A
100
AcDbSymbolTableRecord
100
AcDbLayerTableRecord
  2
20
 70
     0
 62
     7
  6
CONTINUOUS
  0
ENDTAB
  0
TABLE
  2
STYLE
  5
2
100
AcDbSymbolTable
 70
     1
  0
STYLE
  5
1D
100
AcDbSymbolTableRecord
100
AcDbTextStyleTableRecord
  2
STANDARD
 70
    64
 40
0.0
 41
1.0
 50
0.0
 71
     0
 42
1.0
  3
txt
  4
BIGFONT
  0
ENDTAB
  0
TABLE
  2
VIEW
  5
4
100
AcDbSymbolTable
 70
     0
  0
ENDTAB
  0
TABLE
  2
UCS
  5
5
100
AcDbSymbolTable
 70
     0
  0
ENDTAB
  0
TABLE
  2
APPID
  5
7
100
AcDbSymbolTable
 70
     1
  0
APPID
  5
1C
100
AcDbSymbolTableRecord
100
AcDbRegAppTableRecord
  2
ACAD
 70
     0
  0
ENDTAB
  0
TABLE
  2
DIMSTYLE
  5
8
100
AcDbSymbolTable
 70
     1
  0
DIMSTYLE
105
2E
100
AcDbSymbolTableRecord
100
AcDbDimStyleTableRecord
  2
STANDARD
 70
     0
  3

  4

  5

  6

  7

 40
4.0
 41
0.18
 42
0.0625
 43
0.38
 44
0.18
 45
0.0
 46
0.0
 47
0.0
 48
0.0
 71
     0
 72
     0
 73
     1
 74
     1
 75
     0
 76
     0
 77
     1
 78
     0
140
0.18
141
0.09
142
0.0
143
25.4
144
1.0
145
0.0
146
1.0
147
0.09
170
     0
171
     2
172
     0
173
     0
174
     0
175
     0
176
     0
177
     0
178
     0
270
     2
271
     4
272
     4
273
     2
274
     2
275
     0
280
     0
281
     0
282
     0
283
     1
284
     0
285
     0
286
     0
287
     3
288
     0
340
1D
  0
ENDTAB
  0
TABLE
  2
BLOCK_RECORD
  5
29
100
AcDbSymbolTable
 70
     9
  0
BLOCK_RECORD
  5
27
100
AcDbSymbolTableRecord
100
AcDbBlockTableRecord
  2
*MODEL_SPACE
  0
BLOCK_RECORD
  5
28
100
AcDbSymbolTableRecord
100
AcDbBlockTableRecord
  2
*PAPER_SPACE
  0
BLOCK_RECORD
  5
1E
100
AcDbSymbolTableRecord
100
AcDbBlockTableRecord
  2
*D0
  0
BLOCK_RECORD
  5
1F
100
AcDbSymbolTableRecord
100
AcDbBlockTableRecord
  2
*D1
  0
BLOCK_RECORD
  5
20
100
AcDbSymbolTableRecord
100
AcDbBlockTableRecord
  2
*D2
  0
BLOCK_RECORD
  5
21
100
AcDbSymbolTableRecord
100
AcDbBlockTableRecord
  2
*D3
  0
BLOCK_RECORD
  5
22
100
AcDbSymbolTableRecord
100
AcDbBlockTableRecord
  2
*D4
  0
BLOCK_RECORD
  5
23
100
AcDbSymbolTableRecord
100
AcDbBlockTableRecord
  2
*D5
  0
BLOCK_RECORD
  5
24
100
AcDbSymbolTableRecord
100
AcDbBlockTableRecord
  2
*D6
  0
BLOCK_RECORD
  5
25
100
AcDbSymbolTableRecord
100
AcDbBlockTableRecord
  2
*D7
  0
BLOCK_RECORD
  5
26
100
AcDbSymbolTableRecord
100
AcDbBlockTableRecord
  2
*D8
  0
ENDTAB
  0
ENDSEC
  0
SECTION
  2
BLOCKS
  0
BLOCK
  5
2A
100
AcDbEntity
  8
0
100
AcDbBlockBegin
  2
*MODEL_SPACE
 70
     0
 10
0.0
 20
0.0
 30
0.0
  3
*MODEL_SPACE
  1

  0
ENDBLK
  5
2B
100
AcDbEntity
  8
0
100
AcDbBlockEnd
  0
BLOCK
  5
2C
100
AcDbEntity
 67
     1
  8
0
100
AcDbBlockBegin
  2
*PAPER_SPACE
 70
     0
 10
0.0
 20
0.0
 30
0.0
  3
*PAPER_SPACE
  1

  0
ENDBLK
  5
2D
100
AcDbEntity
 67
     1
  8
0
100
AcDbBlockEnd
  0
BLOCK
  5
756
100
AcDbEntity
  8
5
100
AcDbBlockBegin
  2
*D0
 70
     1
 10
0.0
 20
0.0
 30
0.0
  3
*D0
  1

  0
TEXT
  5
757
100
AcDbEntity
  8
5
 62
     2
100
AcDbText
 10
-302.069994
 20
472.957703
 30
0.0
 40
13.2
  1
143
 41
1.4
 72
     5
 11
-278.045994
 21
472.957703
 31
0.0
100
AcDbText
  0
LINE
  5
758
100
AcDbEntity
  8
5
 62
     2
100
AcDbLine
 10
-359.709994
 20
436.805696
 30
0.0
 11
-359.709994
 21
474.957703
 31
0.0
  0
LINE
  5
759
100
AcDbEntity
  8
5
 62
     2
100
AcDbLine
 10
-359.709994
 20
470.957703
 30
0.0
 11
-351.982588
 21
468.88715
 31
0.0
  0
LINE
  5
75A
100
AcDbEntity
  8
5
 62
     2
100
AcDbLine
 10
-359.709994
 20
470.957703
 30
0.0
 11
-351.982588
 21
473.028255
 31
0.0
  0
LINE
  5
75B
100
AcDbEntity
  8
5
 62
     2
100
AcDbLine
 10
-351.982588
 20
468.88715
 30
0.0
 11
-351.982588
 21
473.028255
 31
0.0
  0
LINE
  5
75C
100
AcDbEntity
  8
5
 62
     2
100
AcDbLine
 10
-359.709994
 20
470.957703
 30
0.0
 11
-216.709994
 21
470.957703
 31
0.0
  0
LINE
  5
75D
100
AcDbEntity
  8
5
 62
     2
100
AcDbLine
 10
-216.709994
 20
470.957703
 30
0.0
 11
-224.437401
 21
473.028255
 31
0.0
  0
LINE
  5
75E
100
AcDbEntity
  8
5
 62
     2
100
AcDbLine
 10
-216.709994
 20
470.957703
 30
0.0
 11
-224.437401
 21
468.88715
 31
0.0
  0
LINE
  5
75F
100
AcDbEntity
  8
5
 62
     2
100
AcDbLine
 10
-224.437401
 20
473.028255
 30
0.0
 11
-224.437401
 21
468.88715
 31
0.0
  0
LINE
  5
760
100
AcDbEntity
  8
5
 62
     2
100
AcDbLine
 10
-216.709994
 20
398.071191
 30
0.0
 11
-216.709994
 21
474.957703
 31
0.0
  0
ENDBLK
  5
761
100
AcDbEntity
  8
5
100
AcDbBlockEnd
  0
BLOCK
  5
762
100
AcDbEntity
  8
5
100
AcDbBlockBegin
  2
*D1
 70
     1
 10
0.0
 20
0.0
 30
0.0
  3
*D1
  1

  0
TEXT
  5
763
100
AcDbEntity
  8
5
 62
     2
100
AcDbText
 10
-457.069994
 20
472.957703
 30
0.0
 40
13.2
  1
167
 41
1.4
 72
     5
 11
-433.045994
 21
472.957703
 31
0.0
100
AcDbText
  0
LINE
  5
764
100
AcDbEntity
  8
5
 62
     2
100
AcDbLine
 10
-526.709994
 20
266.143974
 30
0.0
 11
-526.709994
 21
474.957703
 31
0.0
  0
LINE
  5
765
100
AcDbEntity
  8
5
 62
     2
100
AcDbLine
 10
-526.709994
 20
470.957703
 30
0.0
 11
-518.982588
 21
468.88715
 31
0.0
  0
LINE
  5
766
100
AcDbEntity
  8
5
 62
     2
100
AcDbLine
 10
-526.709994
 20
470.957703
 30
0.0
 11
-518.982588
 21
473.028255
 31
0.0
  0
LINE
  5
767
100
AcDbEntity
  8
5
 62
     2
100
AcDbLine
 10
-518.982588
 20
468.88715
 30
0.0
 11
-518.982588
 21
473.028255
 31
0.0
  0
LINE
  5
768
100
AcDbEntity
  8
5
 62
     2
100
AcDbLine
 10
-526.709994
 20
470.957703
 30
0.0
 11
-359.709994
 21
470.957703
 31
0.0
  0
LINE
  5
769
100
AcDbEntity
  8
5
 62
     2
100
AcDbLine
 10
-359.709994
 20
470.957703
 30
0.0
 11
-367.437401
 21
473.028255
 31
0.0
  0
LINE
  5
76A
100
AcDbEntity
  8
5
 62
     2
100
AcDbLine
 10
-359.709994
 20
470.957703
 30
0.0
 11
-367.437401
 21
468.88715
 31
0.0
  0
LINE
  5
76B
100
AcDbEntity
  8
5
 62
     2
100
AcDbLine
 10
-367.437401
 20
473.028255
 30
0.0
 11
-367.437401
 21
468.88715
 31
0.0
  0
LINE
  5
76C
100
AcDbEntity
  8
5
 62
     2
100
AcDbLine
 10
-359.709994
 20
436.805696
 30
0.0
 11
-359.709994
 21
474.957703
 31
0.0
  0
ENDBLK
  5
76D
100
AcDbEntity
  8
5
100
AcDbBlockEnd
  0
BLOCK
  5
76E
100
AcDbEntity
  8
5
100
AcDbBlockBegin
  2
*D2
 70
     1
 10
0.0
 20
0.0
 30
0.0
  3
*D2
  1

  0
TEXT
  5
76F
100
AcDbEntity
  8
5
 62
     2
100
AcDbText
 10
-316.189994
 20
137.155548
 30
0.0
 40
13.2
  1
%%c100
 41
1.4
 72
     5
 11
-282.925994
 21
137.155548
 31
0.0
100
AcDbText
  0
LINE
  5
770
100
AcDbEntity
  8
5
 62
     2
100
AcDbLine
 10
-247.709994
 20
189.193974
 30
0.0
 11
-247.709994
 21
131.155548
 31
0.0
  0
LINE
  5
771
100
AcDbEntity
  8
5
 62
     2
100
AcDbLine
 10
-247.709994
 20
135.155548
 30
0.0
 11
-255.437401
 21
137.2261
 31
0.0
  0
LINE
  5
772
100
AcDbEntity
  8
5
 62
     2
100
AcDbLine
 10
-247.709994
 20
135.155548
 30
0.0
 11
-255.437401
 21
133.084996
 31
0.0
  0
LINE
  5
773
100
AcDbEntity
  8
5
 62
     2
100
AcDbLine
 10
-255.437401
 20
137.2261
 30
0.0
 11
-255.437401
 21
133.084996
 31
0.0
  0
LINE
  5
774
100
AcDbEntity
  8
5
 62
     2
100
AcDbLine
 10
-247.709994
 20
135.155548
 30
0.0
 11
-347.709994
 21
135.155548
 31
0.0
  0
LINE
  5
775
100
AcDbEntity
  8
5
 62
     2
100
AcDbLine
 10
-347.709994
 20
135.155548
 30
0.0
 11
-339.982588
 21
133.084996
 31
0.0
  0
LINE
  5
776
100
AcDbEntity
  8
5
 62
     2
100
AcDbLine
 10
-347.709994
 20
135.155548
 30
0.0
 11
-339.982588
 21
137.2261
 31
0.0
  0
LINE
  5
777
100
AcDbEntity
  8
5
 62
     2
100
AcDbLine
 10
-339.982588
 20
133.084996
 30
0.0
 11
-339.982588
 21
137.2261
 31
0.0
  0
LINE
  5
778
100
AcDbEntity
  8
5
 62
     2
100
AcDbLine
 10
-347.709994
 20
189.193974
 30
0.0
 11
-347.709994
 21
131.155548
 31
0.0
  0
ENDBLK
  5
779
100
AcDbEntity
  8
5
100
AcDbBlockEnd
  0
BLOCK
  5
77A
100
AcDbEntity
  8
5
100
AcDbBlockBegin
  2
*D3
 70
     1
 10
0.0
 20
0.0
 30
0.0
  3
*D3
  1

  0
TEXT
  5
77B
100
AcDbEntity
  8
5
 62
     2
100
AcDbText
 10
-154.970993
 20
248.283974
 30
0.0
 40
13.2
  1
154
 50
90.0
 41
1.4
 72
     5
 11
-154.970993
 21
272.307974
 31
0.0
100
AcDbText
  0
LINE
  5
77C
100
AcDbEntity
  8
5
 62
     2
100
AcDbLine
 10
-261.427427
 20
185.143974
 30
0.0
 11
-148.970993
 21
185.143974
 31
0.0
  0
LINE
  5
77D
100
AcDbEntity
  8
5
 62
     2
100
AcDbLine
 10
-152.970993
 20
185.143974
 30
0.0
 11
-150.900441
 21
192.871381
 31
0.0
  0
LINE
  5
77E
100
AcDbEntity
  8
5
 62
     2
100
AcDbLine
 10
-152.970993
 20
185.143974
 30
0.0
 11
-155.041545
 21
192.871381
 31
0.0
  0
LINE
  5
77F
100
AcDbEntity
  8
5
 62
     2
100
AcDbLine
 10
-150.900441
 20
192.871381
 30
0.0
 11
-155.041545
 21
192.871381
 31
0.0
  0
LINE
  5
780
100
AcDbEntity
  8
5
 62
     2
100
AcDbLine
 10
-152.970993
 20
185.143974
 30
0.0
 11
-152.970993
 21
339.143974
 31
0.0
  0
LINE
  5
781
100
AcDbEntity
  8
5
 62
     2
100
AcDbLine
 10
-152.970993
 20
339.143974
 30
0.0
 11
-155.041545
 21
331.416567
 31
0.0
  0
LINE
  5
782
100
AcDbEntity
  8
5
 62
     2
100
AcDbLine
 10
-152.970993
 20
339.143974
 30
0.0
 11
-150.900441
 21
331.416567
 31
0.0
  0
LINE
  5
783
100
AcDbEntity
  8
5
 62
     2
100
AcDbLine
 10
-155.041545
 20
331.416567
 30
0.0
 11
-150.900441
 21
331.416567
 31
0.0
  0
LINE
  5
784
100
AcDbEntity
  8
5
 62
     2
100
AcDbLine
 10
-200.023377
 20
339.143974
 30
0.0
 11
-148.970993
 21
339.143974
 31
0.0
  0
ENDBLK
  5
785
100
AcDbEntity
  8
5
100
AcDbBlockEnd
  0
BLOCK
  5
786
100
AcDbEntity
  8
5
100
AcDbBlockBegin
  2
*D4
 70
     1
 10
0.0
 20
0.0
 30
0.0
  3
*D4
  1

  0
TEXT
  5
787
100
AcDbEntity
  8
5
 62
     2
100
AcDbText
 10
-154.970993
 20
372.403974
 30
0.0
 40
13.2
  1
85
 50
90.0
 41
1.4
 72
     5
 11
-154.970993
 21
387.187974
 31
0.0
100
AcDbText
  0
LINE
  5
788
100
AcDbEntity
  8
5
 62
     2
100
AcDbLine
 10
-200.023377
 20
339.143974
 30
0.0
 11
-148.970993
 21
339.143974
 31
0.0
  0
LINE
  5
789
100
AcDbEntity
  8
5
 62
     2
100
AcDbLine
 10
-152.970993
 20
339.143974
 30
0.0
 11
-150.900441
 21
346.871381
 31
0.0
  0
LINE
  5
78A
100
AcDbEntity
  8
5
 62
     2
100
AcDbLine
 10
-152.970993
 20
339.143974
 30
0.0
 11
-155.041545
 21
346.871381
 31
0.0
  0
LINE
  5
78B
100
AcDbEntity
  8
5
 62
     2
100
AcDbLine
 10
-150.900441
 20
346.871381
 30
0.0
 11
-155.041545
 21
346.871381
 31
0.0
  0
LINE
  5
78C
100
AcDbEntity
  8
5
 62
     2
100
AcDbLine
 10
-152.970993
 20
339.143974
 30
0.0
 11
-152.970993
 21
424.143974
 31
0.0
  0
LINE
  5
78D
100
AcDbEntity
  8
5
 62
     2
100
AcDbLine
 10
-152.970993
 20
424.143974
 30
0.0
 11
-155.041545
 21
416.416567
 31
0.0
  0
LINE
  5
78E
100
AcDbEntity
  8
5
 62
     2
100
AcDbLine
 10
-152.970993
 20
424.143974
 30
0.0
 11
-150.900441
 21
416.416567
 31
0.0
  0
LINE
  5
78F
100
AcDbEntity
  8
5
 62
     2
100
AcDbLine
 10
-155.041545
 20
416.416567
 30
0.0
 11
-150.900441
 21
416.416567
 31
0.0
  0
LINE
  5
790
100
AcDbEntity
  8
5
 62
     2
100
AcDbLine
 10
-327.386494
 20
424.143974
 30
0.0
 11
-148.970993
 21
424.143974
 31
0.0
  0
ENDBLK
  5
791
100
AcDbEntity
  8
5
100
AcDbBlockEnd
  0
BLOCK
  5
792
100
AcDbEntity
  8
5
100
AcDbBlockBegin
  2
*D5
 70
     1
 10
0.0
 20
0.0
 30
0.0
  3
*D5
  1

  0
TEXT
  5
793
100
AcDbEntity
  8
5
 62
     2
100
AcDbText
 10
-77.506592
 20
-267.316026
 30
0.0
 40
13.2
  1
191
 50
90.0
 41
1.4
 72
     5
 11
-77.506592
 21
-243.292026
 31
0.0
100
AcDbText
  0
LINE
  5
794
100
AcDbEntity
  8
5
 62
     2
100
AcDbLine
 10
85.185116
 20
-348.956026
 30
0.0
 11
-79.506592
 21
-348.956026
 31
0.0
  0
LINE
  5
795
100
AcDbEntity
  8
5
 62
     2
100
AcDbLine
 10
-75.506592
 20
-348.956026
 30
0.0
 11
-73.436039
 21
-341.228619
 31
0.0
  0
LINE
  5
796
100
AcDbEntity
  8
5
 62
     2
100
AcDbLine
 10
-75.506592
 20
-348.956026
 30
0.0
 11
-77.577144
 21
-341.228619
 31
0.0
  0
LINE
  5
797
100
AcDbEntity
  8
5
 62
     2
100
AcDbLine
 10
-73.436039
 20
-341.228619
 30
0.0
 11
-77.577144
 21
-341.228619
 31
0.0
  0
LINE
  5
798
100
AcDbEntity
  8
5
 62
     2
100
AcDbLine
 10
-75.506592
 20
-348.956026
 30
0.0
 11
-75.506592
 21
-157.956026
 31
0.0
  0
LINE
  5
799
100
AcDbEntity
  8
5
 62
     2
100
AcDbLine
 10
-75.506592
 20
-157.956026
 30
0.0
 11
-77.577144
 21
-165.683433
 31
0.0
  0
LINE
  5
79A
100
AcDbEntity
  8
5
 62
     2
100
AcDbLine
 10
-75.506592
 20
-157.956026
 30
0.0
 11
-73.436039
 21
-165.683433
 31
0.0
  0
LINE
  5
79B
100
AcDbEntity
  8
5
 62
     2
100
AcDbLine
 10
-77.577144
 20
-165.683433
 30
0.0
 11
-73.436039
 21
-165.683433
 31
0.0
  0
LINE
  5
79C
100
AcDbEntity
  8
5
 62
     2
100
AcDbLine
 10
74.945448
 20
-157.956026
 30
0.0
 11
-79.506592
 21
-157.956026
 31
0.0
  0
ENDBLK
  5
79D
100
AcDbEntity
  8
5
100
AcDbBlockEnd
  0
BLOCK
  5
79E
100
AcDbEntity
  8
5
100
AcDbBlockBegin
  2
*D6
 70
     1
 10
0.0
 20
0.0
 30
0.0
  3
*D6
  1

  0
TEXT
  5
79F
100
AcDbEntity
  8
5
 62
     2
100
AcDbText
 10
-77.506592
 20
-421.166026
 30
0.0
 40
13.2
  1
117
 50
90.0
 41
1.4
 72
     5
 11
-77.506592
 21
-397.142026
 31
0.0
100
AcDbText
  0
LINE
  5
7A0
100
AcDbEntity
  8
5
 62
     2
100
AcDbLine
 10
120.945448
 20
-465.656026
 30
0.0
 11
-79.506592
 21
-465.656026
 31
0.0
  0
LINE
  5
7A1
100
AcDbEntity
  8
5
 62
     2
100
AcDbLine
 10
-75.506592
 20
-465.656026
 30
0.0
 11
-73.436039
 21
-457.928619
 31
0.0
  0
LINE
  5
7A2
100
AcDbEntity
  8
5
 62
     2
100
AcDbLine
 10
-75.506592
 20
-465.656026
 30
0.0
 11
-77.577144
 21
-457.928619
 31
0.0
  0
LINE
  5
7A3
100
AcDbEntity
  8
5
 62
     2
100
AcDbLine
 10
-73.436039
 20
-457.928619
 30
0.0
 11
-77.577144
 21
-457.928619
 31
0.0
  0
LINE
  5
7A4
100
AcDbEntity
  8
5
 62
     2
100
AcDbLine
 10
-75.506592
 20
-465.656026
 30
0.0
 11
-75.506592
 21
-348.956026
 31
0.0
  0
LINE
  5
7A5
100
AcDbEntity
  8
5
 62
     2
100
AcDbLine
 10
-75.506592
 20
-348.956026
 30
0.0
 11
-77.577144
 21
-356.683433
 31
0.0
  0
LINE
  5
7A6
100
AcDbEntity
  8
5
 62
     2
100
AcDbLine
 10
-75.506592
 20
-348.956026
 30
0.0
 11
-73.436039
 21
-356.683433
 31
0.0
  0
LINE
  5
7A7
100
AcDbEntity
  8
5
 62
     2
100
AcDbLine
 10
-77.577144
 20
-356.683433
 30
0.0
 11
-73.436039
 21
-356.683433
 31
0.0
  0
LINE
  5
7A8
100
AcDbEntity
  8
5
 62
     2
100
AcDbLine
 10
85.185116
 20
-348.956026
 30
0.0
 11
-79.506592
 21
-348.956026
 31
0.0
  0
ENDBLK
  5
7A9
100
AcDbEntity
  8
5
100
AcDbBlockEnd
  0
BLOCK
  5
7AA
100
AcDbEntity
  8
5
100
AcDbBlockBegin
  2
*D7
 70
     1
 10
0.0
 20
0.0
 30
0.0
  3
*D7
  1

  0
TEXT
  5
7AB
100
AcDbEntity
  8
5
 62
     2
100
AcDbText
 10
120.705448
 20
-505.395752
 30
0.0
 40
13.2
  1
56
 41
1.4
 72
     5
 11
135.489448
 21
-505.395752
 31
0.0
100
AcDbText
  0
LINE
  5
7AC
100
AcDbEntity
  8
5
 62
     2
100
AcDbLine
 10
101.945448
 20
-442.456026
 30
0.0
 11
101.945448
 21
-511.395752
 31
0.0
  0
LINE
  5
7AD
100
AcDbEntity
  8
5
 62
     2
100
AcDbLine
 10
101.945448
 20
-507.395752
 30
0.0
 11
109.672855
 21
-509.466304
 31
0.0
  0
LINE
  5
7AE
100
AcDbEntity
  8
5
 62
     2
100
AcDbLine
 10
101.945448
 20
-507.395752
 30
0.0
 11
109.672855
 21
-505.3252
 31
0.0
  0
LINE
  5
7AF
100
AcDbEntity
  8
5
 62
     2
100
AcDbLine
 10
109.672855
 20
-509.466304
 30
0.0
 11
109.672855
 21
-505.3252
 31
0.0
  0
LINE
  5
7B0
100
AcDbEntity
  8
5
 62
     2
100
AcDbLine
 10
101.945448
 20
-507.395752
 30
0.0
 11
157.945448
 21
-507.395752
 31
0.0
  0
LINE
  5
7B1
100
AcDbEntity
  8
5
 62
     2
100
AcDbLine
 10
157.945448
 20
-507.395752
 30
0.0
 11
150.218042
 21
-505.3252
 31
0.0
  0
LINE
  5
7B2
100
AcDbEntity
  8
5
 62
     2
100
AcDbLine
 10
157.945448
 20
-507.395752
 30
0.0
 11
150.218042
 21
-509.466304
 31
0.0
  0
LINE
  5
7B3
100
AcDbEntity
  8
5
 62
     2
100
AcDbLine
 10
150.218042
 20
-505.3252
 30
0.0
 11
150.218042
 21
-509.466304
 31
0.0
  0
LINE
  5
7B4
100
AcDbEntity
  8
5
 62
     2
100
AcDbLine
 10
157.945448
 20
-442.456026
 30
0.0
 11
157.945448
 21
-511.395752
 31
0.0
  0
ENDBLK
  5
7B5
100
AcDbEntity
  8
5
100
AcDbBlockEnd
  0
BLOCK
  5
7B6
100
AcDbEntity
  8
5
100
AcDbBlockBegin
  2
*D8
 70
     1
 10
0.0
 20
0.0
 30
0.0
  3
*D8
  1

  0
TEXT
  5
7B7
100
AcDbEntity
  8
5
 62
     2
100
AcDbText
 10
-77.506592
 20
-59.816026
 30
0.0
 40
13.2
  1
224
 50
90.0
 41
1.4
 72
     5
 11
-77.506592
 21
-35.792026
 31
0.0
100
AcDbText
  0
LINE
  5
7B8
100
AcDbEntity
  8
5
 62
     2
100
AcDbLine
 10
74.945448
 20
-157.956026
 30
0.0
 11
-79.506592
 21
-157.956026
 31
0.0
  0
LINE
  5
7B9
100
AcDbEntity
  8
5
 62
     2
100
AcDbLine
 10
-75.506592
 20
-157.956026
 30
0.0
 11
-73.436039
 21
-150.228619
 31
0.0
  0
LINE
  5
7BA
100
AcDbEntity
  8
5
 62
     2
100
AcDbLine
 10
-75.506592
 20
-157.956026
 30
0.0
 11
-77.577144
 21
-150.228619
 31
0.0
  0
LINE
  5
7BB
100
AcDbEntity
  8
5
 62
     2
100
AcDbLine
 10
-73.436039
 20
-150.228619
 30
0.0
 11
-77.577144
 21
-150.228619
 31
0.0
  0
LINE
  5
7BC
100
AcDbEntity
  8
5
 62
     2
100
AcDbLine
 10
-75.506592
 20
-157.956026
 30
0.0
 11
-75.506592
 21
66.043974
 31
0.0
  0
LINE
  5
7BD
100
AcDbEntity
  8
5
 62
     2
100
AcDbLine
 10
-75.506592
 20
66.043974
 30
0.0
 11
-77.577144
 21
58.316567
 31
0.0
  0
LINE
  5
7BE
100
AcDbEntity
  8
5
 62
     2
100
AcDbLine
 10
-75.506592
 20
66.043974
 30
0.0
 11
-73.436039
 21
58.316567
 31
0.0
  0
LINE
  5
7BF
100
AcDbEntity
  8
5
 62
     2
100
AcDbLine
 10
-77.577144
 20
58.316567
 30
0.0
 11
-73.436039
 21
58.316567
 31
0.0
  0
LINE
  5
7C0
100
AcDbEntity
  8
5
 62
     2
100
AcDbLine
 10
125.945448
 20
66.043974
 30
0.0
 11
-79.506592
 21
66.043974
 31
0.0
  0
ENDBLK
  5
7C1
100
AcDbEntity
  8
5
100
AcDbBlockEnd
  0
ENDSEC
  0
SECTION
  2
ENTITIES
  0
LINE
  5
2F
100
AcDbEntity
  8
1
  6
CENTER
 62
     2
100
AcDbLine
 10
-466.570901
 20
-348.956026
 30
0.0
 11
-251.918305
 21
-348.956026
 31
0.0
  0
LINE
  5
30
100
AcDbEntity
  8
1
  6
CENTER
 62
     2
100
AcDbLine
 10
89.185116
 20
-348.956026
 30
0.0
 11
173.360638
 21
-348.956026
 31
0.0
  0
LINE
  5
31
100
AcDbEntity
  8
1
100
AcDbLine
 10
-312.709994
 20
-171.956026
 30
0.0
 11
-406.709994
 21
-171.956026
 31
0.0
  0
LINE
  5
32
100
AcDbEntity
  8
1
100
AcDbLine
 10
-308.709994
 20
-167.956026
 30
0.0
 11
-308.709994
 21
-157.956026
 31
0.0
  0
LINE
  5
33
100
AcDbEntity
  8
1
100
AcDbLine
 10
-410.709994
 20
-167.956026
 30
0.0
 11
-410.709994
 21
-157.956026
 31
0.0
  0
LINE
  5
34
100
AcDbEntity
  8
1
100
AcDbLine
 10
-378.209994
 20
-179.956026
 30
0.0
 11
-378.209994
 21
-252.581756
 31
0.0
  0
LINE
  5
35
100
AcDbEntity
  8
1
100
AcDbLine
 10
-341.209994
 20
-179.956026
 30
0.0
 11
-341.209994
 21
-252.581756
 31
0.0
  0
LINE
  5
36
100
AcDbEntity
  8
1
100
AcDbLine
 10
-386.709994
 20
-456.956026
 30
0.0
 11
-332.709994
 21
-456.956026
 31
0.0
  0
LINE
  5
37
100
AcDbEntity
  8
1
100
AcDbLine
 10
-386.709994
 20
-460.156026
 30
0.0
 11
-386.709994
 21
-442.397184
 31
0.0
  0
LINE
  5
38
100
AcDbEntity
  8
1
100
AcDbLine
 10
-332.709994
 20
-460.156026
 30
0.0
 11
-332.709994
 21
-442.397184
 31
0.0
  0
LINE
  5
39
100
AcDbEntity
  8
1
100
AcDbLine
 10
180.945448
 20
-167.956026
 30
0.0
 11
180.945448
 21
-157.956026
 31
0.0
  0
LINE
  5
3A
100
AcDbEntity
  8
1
100
AcDbLine
 10
78.945448
 20
-167.956026
 30
0.0
 11
78.945448
 21
-157.956026
 31
0.0
  0
LINE
  5
3B
100
AcDbEntity
  8
1
100
AcDbLine
 10
111.445448
 20
-179.956026
 30
0.0
 11
111.445448
 21
-257.171235
 31
0.0
  0
LINE
  5
3C
100
AcDbEntity
  8
1
100
AcDbLine
 10
148.445448
 20
-179.956026
 30
0.0
 11
148.445448
 21
-257.171235
 31
0.0
  0
LINE
  5
3D
100
AcDbEntity
  8
1
100
AcDbLine
 10
-362.709994
 20
-174.956026
 30
0.0
 11
-362.709994
 21
-198.922922
 31
0.0
  0
LINE
  5
3E
100
AcDbEntity
  8
1
100
AcDbLine
 10
-356.709994
 20
-174.956026
 30
0.0
 11
-356.709994
 21
-198.922922
 31
0.0
  0
LINE
  5
3F
100
AcDbEntity
  8
1
100
AcDbLine
 10
111.945448
 20
-438.099556
 30
0.0
 11
111.945448
 21
-460.156026
 31
0.0
  0
LINE
  5
40
100
AcDbEntity
  8
1
100
AcDbLine
 10
147.945448
 20
-438.099556
 30
0.0
 11
147.945448
 21
-460.156026
 31
0.0
  0
LINE
  5
41
100
AcDbEntity
  8
1
100
AcDbLine
 10
111.945448
 20
-456.956026
 30
0.0
 11
147.945448
 21
-456.956026
 31
0.0
  0
LINE
  5
42
100
AcDbEntity
  8
1
100
AcDbLine
 10
126.945448
 20
-178.888077
 30
0.0
 11
126.945448
 21
-198.922922
 31
0.0
  0
LINE
  5
43
100
AcDbEntity
  8
1
100
AcDbLine
 10
132.945448
 20
-178.888077
 30
0.0
 11
132.945448
 21
-198.922922
 31
0.0
  0
LINE
  5
44
100
AcDbEntity
  8
1
100
AcDbLine
 10
82.945448
 20
-171.956026
 30
0.0
 11
176.945448
 21
-171.956026
 31
0.0
  0
LINE
  5
45
100
AcDbEntity
  8
1
100
AcDbLine
 10
126.445448
 20
-437.414333
 30
0.0
 11
126.445448
 21
-452.956026
 31
0.0
  0
LINE
  5
46
100
AcDbEntity
  8
1
100
AcDbLine
 10
133.445448
 20
-437.414333
 30
0.0
 11
133.445448
 21
-452.956026
 31
0.0
  0
LINE
  5
47
100
AcDbEntity
  8
1
  6
CENTER
 62
     2
100
AcDbLine
 10
-377.709994
 20
-449.658026
 30
0.0
 11
-377.709994
 21
-469.950934
 31
0.0
  0
LINE
  5
48
100
AcDbEntity
  8
1
  6
CENTER
 62
     2
100
AcDbLine
 10
-341.709994
 20
-449.658026
 30
0.0
 11
-341.709994
 21
-469.950934
 31
0.0
  0
LINE
  5
49
100
AcDbEntity
  8
1
  6
CENTER
 62
     2
100
AcDbLine
 10
-395.709994
 20
-149.344596
 30
0.0
 11
-395.709994
 21
-182.561789
 31
0.0
  0
LINE
  5
4A
100
AcDbEntity
  8
1
  6
CENTER
 62
     2
100
AcDbLine
 10
-323.709994
 20
-149.344596
 30
0.0
 11
-323.709994
 21
-182.561789
 31
0.0
  0
LINE
  5
4B
100
AcDbEntity
  8
1
  6
CENTER
 62
     2
100
AcDbLine
 10
93.945448
 20
-149.344596
 30
0.0
 11
93.945448
 21
-182.561789
 31
0.0
  0
LINE
  5
4C
100
AcDbEntity
  8
1
  6
CENTER
 62
     2
100
AcDbLine
 10
165.945448
 20
-149.344596
 30
0.0
 11
165.945448
 21
-182.561789
 31
0.0
  0
LINE
  5
4D
100
AcDbEntity
  8
1
100
AcDbLine
 10
120.945448
 20
-317.956026
 30
0.0
 11
138.945448
 21
-317.956026
 31
0.0
  0
LINE
  5
4E
100
AcDbEntity
  8
1
100
AcDbLine
 10
120.945448
 20
-379.956026
 30
0.0
 11
138.945448
 21
-379.956026
 31
0.0
  0
LINE
  5
4F
100
AcDbEntity
  8
1
100
AcDbLine
 10
120.945448
 20
-313.956026
 30
0.0
 11
138.945448
 21
-313.956026
 31
0.0
  0
LINE
  5
50
100
AcDbEntity
  8
1
100
AcDbLine
 10
120.945448
 20
-383.956026
 30
0.0
 11
138.945448
 21
-383.956026
 31
0.0
  0
LINE
  5
51
100
AcDbEntity
  8
1
100
AcDbLine
 10
144.945448
 20
-307.956026
 30
0.0
 11
144.945448
 21
-270.7342
 31
0.0
  0
LINE
  5
52
100
AcDbEntity
  8
1
100
AcDbLine
 10
114.945448
 20
-307.956026
 30
0.0
 11
114.945448
 21
-270.7342
 31
0.0
  0
LINE
  5
53
100
AcDbEntity
  8
1
100
AcDbLine
 10
114.945448
 20
-427.414333
 30
0.0
 11
114.945448
 21
-389.956026
 31
0.0
  0
LINE
  5
54
100
AcDbEntity
  8
1
100
AcDbLine
 10
114.945448
 20
-373.956026
 30
0.0
 11
114.945448
 21
-323.956026
 31
0.0
  0
LINE
  5
55
100
AcDbEntity
  8
1
100
AcDbLine
 10
144.945448
 20
-427.414333
 30
0.0
 11
144.945448
 21
-389.956026
 31
0.0
  0
LINE
  5
56
100
AcDbEntity
  8
1
100
AcDbLine
 10
144.945448
 20
-373.956026
 30
0.0
 11
144.945448
 21
-323.956026
 31
0.0
  0
ARC
  5
57
100
AcDbEntity
  8
1
100
AcDbCircle
 10
-406.709994
 20
-167.956026
 30
0.0
 40
4.0
100
AcDbArc
 50
180.0
 51
270.0
  0
ARC
  5
58
100
AcDbEntity
  8
1
100
AcDbCircle
 10
-312.709994
 20
-167.956026
 30
0.0
 40
4.0
100
AcDbArc
 50
270.0
 51
360.0
  0
ARC
  5
59
100
AcDbEntity
  8
1
100
AcDbCircle
 10
-333.209994
 20
-179.956026
 30
0.0
 40
8.0
100
AcDbArc
 50
90.0
 51
180.0
  0
ARC
  5
5A
100
AcDbEntity
  8
1
100
AcDbCircle
 10
-386.209994
 20
-179.956026
 30
0.0
 40
8.0
100
AcDbArc
 50
0.0
 51
90.0
  0
ARC
  5
5B
100
AcDbEntity
  8
1
100
AcDbCircle
 10
-311.209994
 20
-201.922922
 30
0.0
 40
30.0
100
AcDbArc
 50
92.528576
 51
180.0
  0
ARC
  5
5C
100
AcDbEntity
  8
1
100
AcDbCircle
 10
-408.209994
 20
-201.922922
 30
0.0
 40
30.0
100
AcDbArc
 50
0.0
 51
87.471424
  0
ARC
  5
5D
100
AcDbEntity
  8
1
100
AcDbCircle
 10
-353.709994
 20
-174.956026
 30
0.0
 40
3.0
100
AcDbArc
 50
90.0
 51
180.0
  0
ARC
  5
5E
100
AcDbEntity
  8
1
100
AcDbCircle
 10
-365.709994
 20
-174.956026
 30
0.0
 40
3.0
100
AcDbArc
 50
0.0
 51
90.0
  0
ARC
  5
5F
100
AcDbEntity
  8
1
100
AcDbCircle
 10
-365.709994
 20
-198.922922
 30
0.0
 40
3.0
100
AcDbArc
 50
270.0
 51
0.0
  0
ARC
  5
60
100
AcDbEntity
  8
1
100
AcDbCircle
 10
-353.709994
 20
-198.922922
 30
0.0
 40
3.0
100
AcDbArc
 50
180.0
 51
270.0
  0
CIRCLE
  5
61
100
AcDbEntity
  8
1
100
AcDbCircle
 10
-359.709994
 20
-348.956026
 30
0.0
 40
90.5
  0
CIRCLE
  5
62
100
AcDbEntity
  8
1
100
AcDbCircle
 10
-359.709994
 20
-348.956026
 30
0.0
 40
89.5
  0
ARC
  5
63
100
AcDbEntity
  8
1
100
AcDbCircle
 10
-331.209994
 20
-252.581756
 30
0.0
 40
10.0
100
AcDbArc
 50
180.0
 51
253.525888
  0
ARC
  5
64
100
AcDbEntity
  8
1
100
AcDbCircle
 10
-388.209994
 20
-252.581756
 30
0.0
 40
10.0
100
AcDbArc
 50
286.474112
 51
360.0
  0
ARC
  5
65
100
AcDbEntity
  8
1
100
AcDbCircle
 10
-359.709994
 20
-348.956026
 30
0.0
 40
127.0
100
AcDbArc
 50
102.006883
 51
110.636394
  0
ARC
  5
66
100
AcDbEntity
  8
1
100
AcDbCircle
 10
-359.709994
 20
-348.956026
 30
0.0
 40
127.0
100
AcDbArc
 50
69.363606
 51
77.993117
  0
ARC
  5
67
100
AcDbEntity
  8
1
100
AcDbCircle
 10
-388.209994
 20
-214.953228
 30
0.0
 40
10.0
100
AcDbArc
 50
282.006883
 51
360.0
  0
ARC
  5
68
100
AcDbEntity
  8
1
100
AcDbCircle
 10
-331.209994
 20
-214.953228
 30
0.0
 40
10.0
100
AcDbArc
 50
180.0
 51
257.993117
  0
LINE
  5
69
100
AcDbEntity
  8
1
100
AcDbLine
 10
-405.622431
 20
-238.113598
 30
0.0
 11
-406.75516
 21
-235.378949
 31
0.0
  0
LINE
  5
6A
100
AcDbEntity
  8
1
100
AcDbLine
 10
-313.797558
 20
-238.113598
 30
0.0
 11
-312.664829
 21
-235.378949
 31
0.0
  0
ARC
  5
6B
100
AcDbEntity
  8
1
100
AcDbCircle
 10
-316.360347
 20
-233.848215
 30
0.0
 40
4.0
100
AcDbArc
 50
337.5
 51
69.363606
  0
ARC
  5
6C
100
AcDbEntity
  8
1
100
AcDbCircle
 10
-403.059642
 20
-233.848215
 30
0.0
 40
4.0
100
AcDbArc
 50
110.636394
 51
202.5
  0
LINE
  5
6D
100
AcDbEntity
  8
1
100
AcDbLine
 10
-331.028234
 20
-251.948675
 30
0.0
 11
-331.028234
 21
-258.219804
 31
0.0
  0
LINE
  5
6E
100
AcDbEntity
  8
1
100
AcDbLine
 10
-388.391755
 20
-251.948675
 30
0.0
 11
-388.391755
 21
-258.219804
 31
0.0
  0
ARC
  5
6F
100
AcDbEntity
  8
1
100
AcDbCircle
 10
-319.528234
 20
-251.948675
 30
0.0
 40
11.5
100
AcDbArc
 50
82.455248
 51
180.0
  0
ARC
  5
70
100
AcDbEntity
  8
1
100
AcDbCircle
 10
-399.891755
 20
-251.948675
 30
0.0
 40
11.5
100
AcDbArc
 50
0.0
 51
97.544752
  0
ARC
  5
71
100
AcDbEntity
  8
1
100
AcDbCircle
 10
-317.493076
 20
-236.582865
 30
0.0
 40
4.0
100
AcDbArc
 50
262.455248
 51
337.5
  0
ARC
  5
72
100
AcDbEntity
  8
1
100
AcDbCircle
 10
-401.926913
 20
-236.582865
 30
0.0
 40
4.0
100
AcDbArc
 50
202.5
 51
277.544752
  0
ARC
  5
73
100
AcDbEntity
  8
1
100
AcDbCircle
 10
-324.028234
 20
-258.219804
 30
0.0
 40
7.0
100
AcDbArc
 50
180.0
 51
248.532908
  0
ARC
  5
74
100
AcDbEntity
  8
1
100
AcDbCircle
 10
-395.391755
 20
-258.219804
 30
0.0
 40
7.0
100
AcDbArc
 50
291.467092
 51
360.0
  0
ARC
  5
75
100
AcDbEntity
  8
1
100
AcDbCircle
 10
-322.709994
 20
-442.397184
 30
0.0
 40
10.0
100
AcDbArc
 50
111.602135
 51
180.0
  0
ARC
  5
76
100
AcDbEntity
  8
1
100
AcDbCircle
 10
-396.709994
 20
-442.397184
 30
0.0
 40
10.0
100
AcDbArc
 50
0.0
 51
68.397865
  0
LINE
  5
77
100
AcDbEntity
  8
1
100
AcDbLine
 10
-331.028234
 20
-445.963377
 30
0.0
 11
-331.028234
 21
-439.702329
 31
0.0
  0
LINE
  5
78
100
AcDbEntity
  8
1
100
AcDbLine
 10
-388.391755
 20
-445.963377
 30
0.0
 11
-388.391755
 21
-439.702329
 31
0.0
  0
ARC
  5
79
100
AcDbEntity
  8
1
100
AcDbCircle
 10
-319.528234
 20
-445.963377
 30
0.0
 40
11.5
100
AcDbArc
 50
180.0
 51
200.712095
  0
ARC
  5
7A
100
AcDbEntity
  8
1
100
AcDbCircle
 10
-399.891755
 20
-445.963377
 30
0.0
 40
11.5
100
AcDbArc
 50
339.287905
 51
360.0
  0
ARC
  5
7B
100
AcDbEntity
  8
1
100
AcDbCircle
 10
-324.028234
 20
-439.702329
 30
0.0
 40
7.0
100
AcDbArc
 50
116.066447
 51
180.0
  0
ARC
  5
7C
100
AcDbEntity
  8
1
100
AcDbCircle
 10
-395.391755
 20
-439.702329
 30
0.0
 40
7.0
100
AcDbArc
 50
0.0
 51
63.933553
  0
ARC
  5
7D
100
AcDbEntity
  8
1
100
AcDbCircle
 10
-329.709994
 20
-456.956026
 30
0.0
 40
3.0
100
AcDbArc
 50
128.071029
 51
180.0
  0
ARC
  5
7E
100
AcDbEntity
  8
1
100
AcDbCircle
 10
-389.709994
 20
-456.956026
 30
0.0
 40
3.0
100
AcDbArc
 50
0.0
 51
51.928971
  0
ARC
  5
7F
100
AcDbEntity
  8
1
100
AcDbCircle
 10
-334.02646
 20
-451.445298
 30
0.0
 40
4.0
100
AcDbArc
 50
308.071029
 51
20.712095
  0
ARC
  5
80
100
AcDbEntity
  8
1
100
AcDbCircle
 10
-385.393529
 20
-451.445298
 30
0.0
 40
4.0
100
AcDbArc
 50
159.287905
 51
231.928971
  0
LINE
  5
81
100
AcDbEntity
  8
1
100
AcDbLine
 10
-383.709994
 20
-453.956026
 30
0.0
 11
-335.709994
 21
-453.956026
 31
0.0
  0
ARC
  5
82
100
AcDbEntity
  8
1
100
AcDbCircle
 10
-335.709994
 20
-450.956026
 30
0.0
 40
3.0
100
AcDbArc
 50
270.0
 51
360.0
  0
ARC
  5
83
100
AcDbEntity
  8
1
100
AcDbCircle
 10
-383.709994
 20
-450.956026
 30
0.0
 40
3.0
100
AcDbArc
 50
180.0
 51
270.0
  0
LINE
  5
84
100
AcDbEntity
  8
1
100
AcDbLine
 10
-386.709994
 20
-457.756026
 30
0.0
 11
-332.709994
 21
-457.756026
 31
0.0
  0
LINE
  5
85
100
AcDbEntity
  8
1
100
AcDbLine
 10
-386.709994
 20
-460.156026
 30
0.0
 11
-332.709994
 21
-460.156026
 31
0.0
  0
LINE
  5
86
100
AcDbEntity
  8
1
100
AcDbLine
 10
-335.959994
 20
-461.656026
 30
0.0
 11
-335.959994
 21
-465.165278
 31
0.0
  0
LINE
  5
87
100
AcDbEntity
  8
1
100
AcDbLine
 10
-335.959994
 20
-465.165278
 30
0.0
 11
-336.809994
 21
-465.656026
 31
0.0
  0
LINE
  5
88
100
AcDbEntity
  8
1
100
AcDbLine
 10
-338.834994
 20
-461.656026
 30
0.0
 11
-338.834994
 21
-465.165278
 31
0.0
  0
ARC
  5
89
100
AcDbEntity
  8
1
100
AcDbCircle
 10
-337.397494
 20
-463.317323
 30
0.0
 40
2.341227
100
AcDbArc
 50
232.121121
 51
307.878879
  0
ARC
  5
8A
100
AcDbEntity
  8
1
100
AcDbCircle
 10
-341.709994
 20
-457.03355
 30
0.0
 40
8.625
100
AcDbArc
 50
250.528777
 51
289.471219
  0
LINE
  5
8B
100
AcDbEntity
  8
1
100
AcDbLine
 10
-347.459994
 20
-461.656026
 30
0.0
 11
-347.459994
 21
-465.165278
 31
0.0
  0
LINE
  5
8C
100
AcDbEntity
  8
1
100
AcDbLine
 10
-347.459994
 20
-465.165278
 30
0.0
 11
-346.609994
 21
-465.656026
 31
0.0
  0
LINE
  5
8D
100
AcDbEntity
  8
1
100
AcDbLine
 10
-346.609994
 20
-465.656026
 30
0.0
 11
-336.809994
 21
-465.656026
 31
0.0
  0
LINE
  5
8E
100
AcDbEntity
  8
1
100
AcDbLine
 10
-344.584994
 20
-461.656026
 30
0.0
 11
-344.584994
 21
-465.165278
 31
0.0
  0
ARC
  5
8F
100
AcDbEntity
  8
1
100
AcDbCircle
 10
-346.022494
 20
-463.317323
 30
0.0
 40
2.341227
100
AcDbArc
 50
232.121121
 51
307.878879
  0
LINE
  5
90
100
AcDbEntity
  8
1
100
AcDbLine
 10
-335.609994
 20
-460.156026
 30
0.0
 11
-335.609994
 21
-461.656026
 31
0.0
  0
LINE
  5
91
100
AcDbEntity
  8
1
100
AcDbLine
 10
-335.609994
 20
-461.656026
 30
0.0
 11
-347.809994
 21
-461.656026
 31
0.0
  0
LINE
  5
92
100
AcDbEntity
  8
1
100
AcDbLine
 10
-347.809994
 20
-461.656026
 30
0.0
 11
-347.809994
 21
-460.156026
 31
0.0
  0
LINE
  5
93
100
AcDbEntity
  8
1
100
AcDbLine
 10
-341.709994
 20
-461.656026
 30
0.0
 11
-342.209994
 21
-460.156026
 31
0.0
  0
LINE
  5
94
100
AcDbEntity
  8
1
100
AcDbLine
 10
-341.709994
 20
-460.156026
 30
0.0
 11
-341.209994
 21
-461.656026
 31
0.0
  0
LINE
  5
95
100
AcDbEntity
  8
1
100
AcDbLine
 10
-371.959994
 20
-461.656026
 30
0.0
 11
-371.959994
 21
-465.165278
 31
0.0
  0
LINE
  5
96
100
AcDbEntity
  8
1
100
AcDbLine
 10
-371.959994
 20
-465.165278
 30
0.0
 11
-372.809994
 21
-465.656026
 31
0.0
  0
LINE
  5
97
100
AcDbEntity
  8
1
100
AcDbLine
 10
-374.834994
 20
-461.656026
 30
0.0
 11
-374.834994
 21
-465.165278
 31
0.0
  0
ARC
  5
98
100
AcDbEntity
  8
1
100
AcDbCircle
 10
-373.397494
 20
-463.317323
 30
0.0
 40
2.341227
100
AcDbArc
 50
232.121121
 51
307.878879
  0
ARC
  5
99
100
AcDbEntity
  8
1
100
AcDbCircle
 10
-377.709994
 20
-457.03355
 30
0.0
 40
8.625
100
AcDbArc
 50
250.528777
 51
289.471219
  0
LINE
  5
9A
100
AcDbEntity
  8
1
100
AcDbLine
 10
-383.459994
 20
-461.656026
 30
0.0
 11
-383.459994
 21
-465.165278
 31
0.0
  0
LINE
  5
9B
100
AcDbEntity
  8
1
100
AcDbLine
 10
-383.459994
 20
-465.165278
 30
0.0
 11
-382.609994
 21
-465.656026
 31
0.0
  0
LINE
  5
9C
100
AcDbEntity
  8
1
100
AcDbLine
 10
-382.609994
 20
-465.656026
 30
0.0
 11
-372.809994
 21
-465.656026
 31
0.0
  0
LINE
  5
9D
100
AcDbEntity
  8
1
100
AcDbLine
 10
-380.584994
 20
-461.656026
 30
0.0
 11
-380.584994
 21
-465.165278
 31
0.0
  0
ARC
  5
9E
100
AcDbEntity
  8
1
100
AcDbCircle
 10
-382.022494
 20
-463.317323
 30
0.0
 40
2.341227
100
AcDbArc
 50
232.121121
 51
307.878879
  0
LINE
  5
9F
100
AcDbEntity
  8
1
100
AcDbLine
 10
-371.609994
 20
-460.156026
 30
0.0
 11
-371.609994
 21
-461.656026
 31
0.0
  0
LINE
  5
A0
100
AcDbEntity
  8
1
100
AcDbLine
 10
-371.609994
 20
-461.656026
 30
0.0
 11
-383.809994
 21
-461.656026
 31
0.0
  0
LINE
  5
A1
100
AcDbEntity
  8
1
100
AcDbLine
 10
-383.809994
 20
-461.656026
 30
0.0
 11
-383.809994
 21
-460.156026
 31
0.0
  0
LINE
  5
A2
100
AcDbEntity
  8
1
100
AcDbLine
 10
-377.709994
 20
-461.656026
 30
0.0
 11
-378.209994
 21
-460.156026
 31
0.0
  0
LINE
  5
A3
100
AcDbEntity
  8
1
100
AcDbLine
 10
-377.709994
 20
-460.156026
 30
0.0
 11
-377.209994
 21
-461.656026
 31
0.0
  0
CIRCLE
  5
A4
100
AcDbEntity
  8
1
100
AcDbCircle
 10
-359.709994
 20
-348.956026
 30
0.0
 40
81.1
  0
CIRCLE
  5
A5
100
AcDbEntity
  8
1
100
AcDbCircle
 10
-359.709994
 20
-348.956026
 30
0.0
 40
83.5
  0
CIRCLE
  5
A6
100
AcDbEntity
  8
1
100
AcDbCircle
 10
-359.709994
 20
-348.956026
 30
0.0
 40
69.95
  0
ARC
  5
A7
100
AcDbEntity
  8
1
100
AcDbCircle
 10
82.945448
 20
-167.956026
 30
0.0
 40
4.0
100
AcDbArc
 50
180.0
 51
270.0
  0
ARC
  5
A8
100
AcDbEntity
  8
1
100
AcDbCircle
 10
176.945448
 20
-167.956026
 30
0.0
 40
4.0
100
AcDbArc
 50
270.0
 51
360.0
  0
ARC
  5
A9
100
AcDbEntity
  8
1
100
AcDbCircle
 10
156.445448
 20
-179.956026
 30
0.0
 40
8.0
100
AcDbArc
 50
90.0
 51
180.0
  0
ARC
  5
AA
100
AcDbEntity
  8
1
100
AcDbCircle
 10
103.445448
 20
-179.956026
 30
0.0
 40
8.0
100
AcDbArc
 50
0.0
 51
90.0
  0
ARC
  5
AB
100
AcDbEntity
  8
1
100
AcDbCircle
 10
178.445448
 20
-201.922922
 30
0.0
 40
30.0
100
AcDbArc
 50
92.528576
 51
180.0
  0
ARC
  5
AC
100
AcDbEntity
  8
1
100
AcDbCircle
 10
81.445448
 20
-201.922922
 30
0.0
 40
30.0
100
AcDbArc
 50
0.0
 51
87.471424
  0
LINE
  5
AD
100
AcDbEntity
  8
1
100
AcDbLine
 10
125.945448
 20
-174.956026
 30
0.0
 11
125.945448
 21
-177.156026
 31
0.0
  0
LINE
  5
AE
100
AcDbEntity
  8
1
100
AcDbLine
 10
133.945448
 20
-174.956026
 30
0.0
 11
133.945448
 21
-177.156026
 31
0.0
  0
ARC
  5
AF
100
AcDbEntity
  8
1
100
AcDbCircle
 10
136.945448
 20
-174.956026
 30
0.0
 40
3.0
100
AcDbArc
 50
90.0
 51
180.0
  0
ARC
  5
B0
100
AcDbEntity
  8
1
100
AcDbCircle
 10
122.945448
 20
-174.956026
 30
0.0
 40
3.0
100
AcDbArc
 50
0.0
 51
90.0
  0
ARC
  5
B1
100
AcDbEntity
  8
1
100
AcDbCircle
 10
126.945448
 20
-177.156026
 30
0.0
 40
1.0
100
AcDbArc
 50
180.0
 51
240.0
  0
ARC
  5
B2
100
AcDbEntity
  8
1
100
AcDbCircle
 10
132.945448
 20
-177.156026
 30
0.0
 40
1.0
100
AcDbArc
 50
300.0
 51
0.0
  0
ARC
  5
B3
100
AcDbEntity
  8
1
100
AcDbCircle
 10
133.945448
 20
-178.888077
 30
0.0
 40
1.0
100
AcDbArc
 50
120.0
 51
180.0
  0
ARC
  5
B4
100
AcDbEntity
  8
1
100
AcDbCircle
 10
125.945448
 20
-178.888077
 30
0.0
 40
1.0
100
AcDbArc
 50
0.0
 51
60.0
  0
ARC
  5
B5
100
AcDbEntity
  8
1
100
AcDbCircle
 10
135.945448
 20
-198.922922
 30
0.0
 40
3.0
100
AcDbArc
 50
180.0
 51
270.0
  0
ARC
  5
B6
100
AcDbEntity
  8
1
100
AcDbCircle
 10
123.945448
 20
-198.922922
 30
0.0
 40
3.0
100
AcDbArc
 50
270.0
 51
360.0
  0
LINE
  5
B7
100
AcDbEntity
  8
1
100
AcDbLine
 10
-389.565937
 20
-178.156026
 30
0.0
 11
-378.415124
 21
-178.156026
 31
0.0
  0
LINE
  5
B8
100
AcDbEntity
  8
1
100
AcDbLine
 10
-341.004864
 20
-178.156026
 30
0.0
 11
-329.854052
 21
-178.156026
 31
0.0
  0
ARC
  5
B9
100
AcDbEntity
  8
1
100
AcDbCircle
 10
-329.854052
 20
-177.156026
 30
0.0
 40
1.0
100
AcDbArc
 50
270.0
 51
306.971752
  0
ARC
  5
BA
100
AcDbEntity
  8
1
100
AcDbCircle
 10
-389.565937
 20
-177.156026
 30
0.0
 40
1.0
100
AcDbArc
 50
233.028248
 51
270.0
  0
LINE
  5
BB
100
AcDbEntity
  8
1
100
AcDbLine
 10
157.945448
 20
-259.456026
 30
0.0
 11
157.945448
 21
-438.456026
 31
0.0
  0
LINE
  5
BC
100
AcDbEntity
  8
1
100
AcDbLine
 10
101.945448
 20
-259.456026
 30
0.0
 11
101.945448
 21
-438.456026
 31
0.0
  0
LINE
  5
BD
100
AcDbEntity
  8
1
100
AcDbLine
 10
157.945448
 20
-259.456026
 30
0.0
 11
156.945448
 21
-258.456026
 31
0.0
  0
LINE
  5
BE
100
AcDbEntity
  8
1
100
AcDbLine
 10
101.945448
 20
-259.456026
 30
0.0
 11
102.945448
 21
-258.456026
 31
0.0
  0
LINE
  5
BF
100
AcDbEntity
  8
1
100
AcDbLine
 10
101.945448
 20
-438.456026
 30
0.0
 11
102.945448
 21
-439.456026
 31
0.0
  0
LINE
  5
C0
100
AcDbEntity
  8
1
100
AcDbLine
 10
156.945448
 20
-439.456026
 30
0.0
 11
157.945448
 21
-438.456026
 31
0.0
  0
LINE
  5
C1
100
AcDbEntity
  8
1
100
AcDbLine
 10
156.945448
 20
-258.456026
 30
0.0
 11
156.945448
 21
-439.456026
 31
0.0
  0
LINE
  5
C2
100
AcDbEntity
  8
1
100
AcDbLine
 10
102.945448
 20
-258.456026
 30
0.0
 11
102.945448
 21
-439.456026
 31
0.0
  0
ARC
  5
C3
100
AcDbEntity
  8
1
100
AcDbCircle
 10
153.445448
 20
-253.456026
 30
0.0
 40
5.0
100
AcDbArc
 50
180.0
 51
270.0
  0
ARC
  5
C4
100
AcDbEntity
  8
1
100
AcDbCircle
 10
106.445448
 20
-253.456026
 30
0.0
 40
5.0
100
AcDbArc
 50
270.0
 51
360.0
  0
LINE
  5
C5
100
AcDbEntity
  8
1
100
AcDbLine
 10
102.945448
 20
-258.456026
 30
0.0
 11
106.445448
 21
-258.456026
 31
0.0
  0
LINE
  5
C6
100
AcDbEntity
  8
1
100
AcDbLine
 10
153.445448
 20
-258.456026
 30
0.0
 11
156.945448
 21
-258.456026
 31
0.0
  0
ARC
  5
C7
100
AcDbEntity
  8
1
100
AcDbCircle
 10
153.445448
 20
-257.171235
 30
0.0
 40
5.0
100
AcDbArc
 50
180.0
 51
270.0
  0
ARC
  5
C8
100
AcDbEntity
  8
1
100
AcDbCircle
 10
106.445448
 20
-257.171235
 30
0.0
 40
5.0
100
AcDbArc
 50
270.0
 51
360.0
  0
LINE
  5
C9
100
AcDbEntity
  8
1
100
AcDbLine
 10
126.445448
 20
-219.953228
 30
0.0
 11
126.445448
 21
-259.7342
 31
0.0
  0
LINE
  5
CA
100
AcDbEntity
  8
1
100
AcDbLine
 10
133.445448
 20
-219.953228
 30
0.0
 11
133.445448
 21
-259.7342
 31
0.0
  0
ARC
  5
CB
100
AcDbEntity
  8
1
100
AcDbCircle
 10
138.445448
 20
-219.953228
 30
0.0
 40
5.0
100
AcDbArc
 50
90.0
 51
180.0
  0
ARC
  5
CC
100
AcDbEntity
  8
1
100
AcDbCircle
 10
121.445448
 20
-219.953228
 30
0.0
 40
5.0
100
AcDbArc
 50
0.0
 51
90.0
  0
ARC
  5
CD
100
AcDbEntity
  8
1
100
AcDbCircle
 10
138.445448
 20
-259.7342
 30
0.0
 40
5.0
100
AcDbArc
 50
180.0
 51
270.0
  0
ARC
  5
CE
100
AcDbEntity
  8
1
100
AcDbCircle
 10
121.445448
 20
-259.7342
 30
0.0
 40
5.0
100
AcDbArc
 50
270.0
 51
0.0
  0
LINE
  5
CF
100
AcDbEntity
  8
1
100
AcDbLine
 10
128.445448
 20
-240.582865
 30
0.0
 11
131.445448
 21
-240.582865
 31
0.0
  0
LINE
  5
D0
100
AcDbEntity
  8
1
100
AcDbLine
 10
128.445448
 20
-231.623325
 30
0.0
 11
131.445448
 21
-231.623325
 31
0.0
  0
ARC
  5
D1
100
AcDbEntity
  8
1
100
AcDbCircle
 10
131.445448
 20
-238.582865
 30
0.0
 40
2.0
100
AcDbArc
 50
270.0
 51
360.0
  0
ARC
  5
D2
100
AcDbEntity
  8
1
100
AcDbCircle
 10
128.445448
 20
-238.582865
 30
0.0
 40
2.0
100
AcDbArc
 50
180.0
 51
270.0
  0
ARC
  5
D3
100
AcDbEntity
  8
1
100
AcDbCircle
 10
128.445448
 20
-233.623325
 30
0.0
 40
2.0
100
AcDbArc
 50
90.0
 51
180.0
  0
ARC
  5
D4
100
AcDbEntity
  8
1
100
AcDbCircle
 10
131.445448
 20
-233.623325
 30
0.0
 40
2.0
100
AcDbArc
 50
0.0
 51
90.0
  0
LINE
  5
D5
100
AcDbEntity
  8
1
100
AcDbLine
 10
133.445448
 20
-214.953228
 30
0.0
 11
126.445448
 21
-214.953228
 31
0.0
  0
LINE
  5
D6
100
AcDbEntity
  8
1
100
AcDbLine
 10
138.945448
 20
-264.7342
 30
0.0
 11
120.945448
 21
-264.7342
 31
0.0
  0
LINE
  5
D7
100
AcDbEntity
  8
1
100
AcDbLine
 10
132.945448
 20
-201.922922
 30
0.0
 11
126.945448
 21
-201.922922
 31
0.0
  0
ARC
  5
D8
100
AcDbEntity
  8
1
100
AcDbCircle
 10
106.945448
 20
-444.456026
 30
0.0
 40
5.0
100
AcDbArc
 50
360.0
 51
90.0
  0
ARC
  5
D9
100
AcDbEntity
  8
1
100
AcDbCircle
 10
152.945448
 20
-444.456026
 30
0.0
 40
5.0
100
AcDbArc
 50
90.0
 51
180.0
  0
LINE
  5
DA
100
AcDbEntity
  8
1
100
AcDbLine
 10
102.945448
 20
-439.456026
 30
0.0
 11
106.945448
 21
-439.456026
 31
0.0
  0
LINE
  5
DB
100
AcDbEntity
  8
1
100
AcDbLine
 10
152.945448
 20
-439.456026
 30
0.0
 11
156.945448
 21
-439.456026
 31
0.0
  0
ARC
  5
DC
100
AcDbEntity
  8
1
100
AcDbCircle
 10
152.945448
 20
-438.099556
 30
0.0
 40
5.0
100
AcDbArc
 50
90.0
 51
180.0
  0
ARC
  5
DD
100
AcDbEntity
  8
1
100
AcDbCircle
 10
106.945448
 20
-438.099556
 30
0.0
 40
5.0
100
AcDbArc
 50
360.0
 51
90.0
  0
ARC
  5
DE
100
AcDbEntity
  8
1
100
AcDbCircle
 10
144.945448
 20
-450.956026
 30
0.0
 40
3.0
100
AcDbArc
 50
270.0
 51
360.0
  0
ARC
  5
DF
100
AcDbEntity
  8
1
100
AcDbCircle
 10
114.945448
 20
-450.956026
 30
0.0
 40
3.0
100
AcDbArc
 50
180.0
 51
270.0
  0
ARC
  5
E0
100
AcDbEntity
  8
1
100
AcDbCircle
 10
137.445448
 20
-452.956026
 30
0.0
 40
4.0
100
AcDbArc
 50
180.0
 51
270.0
  0
ARC
  5
E1
100
AcDbEntity
  8
1
100
AcDbCircle
 10
122.445448
 20
-452.956026
 30
0.0
 40
4.0
100
AcDbArc
 50
270.0
 51
360.0
  0
LINE
  5
E2
100
AcDbEntity
  8
1
100
AcDbLine
 10
114.945448
 20
-453.956026
 30
0.0
 11
121.445448
 21
-453.956026
 31
0.0
  0
LINE
  5
E3
100
AcDbEntity
  8
1
100
AcDbLine
 10
138.445448
 20
-453.956026
 30
0.0
 11
144.945448
 21
-453.956026
 31
0.0
  0
LINE
  5
E4
100
AcDbEntity
  8
1
100
AcDbLine
 10
111.945448
 20
-433.414333
 30
0.0
 11
147.945448
 21
-433.414333
 31
0.0
  0
ARC
  5
E5
100
AcDbEntity
  8
1
100
AcDbCircle
 10
137.445448
 20
-437.414333
 30
0.0
 40
4.0
100
AcDbArc
 50
90.0
 51
180.0
  0
ARC
  5
E6
100
AcDbEntity
  8
1
100
AcDbCircle
 10
122.445448
 20
-437.414333
 30
0.0
 40
4.0
100
AcDbArc
 50
360.0
 51
90.0
  0
LINE
  5
E7
100
AcDbEntity
  8
1
100
AcDbLine
 10
111.945448
 20
-457.756026
 30
0.0
 11
147.945448
 21
-457.756026
 31
0.0
  0
LINE
  5
E8
100
AcDbEntity
  8
1
100
AcDbLine
 10
111.945448
 20
-460.156026
 30
0.0
 11
147.945448
 21
-460.156026
 31
0.0
  0
LINE
  5
E9
100
AcDbEntity
  8
1
100
AcDbLine
 10
134.945448
 20
-461.656026
 30
0.0
 11
134.945448
 21
-465.656026
 31
0.0
  0
LINE
  5
EA
100
AcDbEntity
  8
1
100
AcDbLine
 10
129.945448
 20
-461.656026
 30
0.0
 11
129.945448
 21
-465.165278
 31
0.0
  0
ARC
  5
EB
100
AcDbEntity
  8
1
100
AcDbCircle
 10
132.445448
 20
-459.042818
 30
0.0
 40
6.613208
100
AcDbArc
 50
247.788205
 51
292.211795
  0
LINE
  5
EC
100
AcDbEntity
  8
1
100
AcDbLine
 10
124.945448
 20
-461.656026
 30
0.0
 11
124.945448
 21
-465.656026
 31
0.0
  0
LINE
  5
ED
100
AcDbEntity
  8
1
100
AcDbLine
 10
124.945448
 20
-465.656026
 30
0.0
 11
134.945448
 21
-465.656026
 31
0.0
  0
ARC
  5
EE
100
AcDbEntity
  8
1
100
AcDbCircle
 10
127.445448
 20
-459.042818
 30
0.0
 40
6.613208
100
AcDbArc
 50
247.788205
 51
292.211795
  0
LINE
  5
EF
100
AcDbEntity
  8
1
100
AcDbLine
 10
136.045448
 20
-460.156026
 30
0.0
 11
136.045448
 21
-461.656026
 31
0.0
  0
LINE
  5
F0
100
AcDbEntity
  8
1
100
AcDbLine
 10
136.045448
 20
-461.656026
 30
0.0
 11
123.845448
 21
-461.656026
 31
0.0
  0
LINE
  5
F1
100
AcDbEntity
  8
1
100
AcDbLine
 10
123.845448
 20
-461.656026
 30
0.0
 11
123.845448
 21
-460.156026
 31
0.0
  0
ARC
  5
F2
100
AcDbEntity
  8
1
100
AcDbCircle
 10
138.945448
 20
-307.956026
 30
0.0
 40
6.0
100
AcDbArc
 50
270.0
 51
360.0
  0
ARC
  5
F3
100
AcDbEntity
  8
1
100
AcDbCircle
 10
120.945448
 20
-323.956026
 30
0.0
 40
6.0
100
AcDbArc
 50
90.0
 51
180.0
  0
ARC
  5
F4
100
AcDbEntity
  8
1
100
AcDbCircle
 10
138.945448
 20
-323.956026
 30
0.0
 40
6.0
100
AcDbArc
 50
0.0
 51
90.0
  0
ARC
  5
F5
100
AcDbEntity
  8
1
100
AcDbCircle
 10
120.945448
 20
-373.956026
 30
0.0
 40
6.0
100
AcDbArc
 50
180.0
 51
270.0
  0
ARC
  5
F6
100
AcDbEntity
  8
1
100
AcDbCircle
 10
138.945448
 20
-373.956026
 30
0.0
 40
6.0
100
AcDbArc
 50
270.0
 51
0.0
  0
ARC
  5
F7
100
AcDbEntity
  8
1
100
AcDbCircle
 10
120.945448
 20
-389.956026
 30
0.0
 40
6.0
100
AcDbArc
 50
90.0
 51
180.0
  0
ARC
  5
F8
100
AcDbEntity
  8
1
100
AcDbCircle
 10
138.945448
 20
-389.956026
 30
0.0
 40
6.0
100
AcDbArc
 50
0.0
 51
90.0
  0
ARC
  5
F9
100
AcDbEntity
  8
1
100
AcDbCircle
 10
138.945448
 20
-270.7342
 30
0.0
 40
6.0
100
AcDbArc
 50
0.0
 51
90.0
  0
ARC
  5
FA
100
AcDbEntity
  8
1
100
AcDbCircle
 10
120.945448
 20
-270.7342
 30
0.0
 40
6.0
100
AcDbArc
 50
90.0
 51
180.0
  0
ARC
  5
FB
100
AcDbEntity
  8
1
100
AcDbCircle
 10
138.945448
 20
-427.414333
 30
0.0
 40
6.0
100
AcDbArc
 50
270.0
 51
360.0
  0
ARC
  5
FC
100
AcDbEntity
  8
1
100
AcDbCircle
 10
120.945448
 20
-427.414333
 30
0.0
 40
6.0
100
AcDbArc
 50
180.0
 51
270.0
  0
LINE
  5
FD
100
AcDbEntity
  8
1
100
AcDbLine
 10
141.461948
 20
-306.582383
 30
0.0
 11
141.461948
 21
-285.00706
 31
0.0
  0
ARC
  5
FE
100
AcDbEntity
  8
1
100
AcDbCircle
 10
120.945448
 20
-307.956026
 30
0.0
 40
6.0
100
AcDbArc
 50
180.000003
 51
269.999998
  0
LINE
  5
FF
100
AcDbEntity
  8
1
100
AcDbLine
 10
118.428948
 20
-306.582383
 30
0.0
 11
118.428948
 21
-285.00706
 31
0.0
  0
LINE
  5
100
100
AcDbEntity
  8
1
100
AcDbLine
 10
118.428948
 20
-412.904992
 30
0.0
 11
118.428948
 21
-391.329669
 31
0.0
  0
LINE
  5
101
100
AcDbEntity
  8
1
100
AcDbLine
 10
118.428948
 20
-370.863769
 30
0.0
 11
118.428948
 21
-327.048284
 31
0.0
  0
LINE
  5
102
100
AcDbEntity
  8
1
100
AcDbLine
 10
141.461948
 20
-412.904992
 30
0.0
 11
141.461948
 21
-391.329669
 31
0.0
  0
LINE
  5
103
100
AcDbEntity
  8
1
100
AcDbLine
 10
141.461948
 20
-370.863768
 30
0.0
 11
141.461948
 21
-327.048284
 31
0.0
  0
ARC
  5
104
100
AcDbEntity
  8
1
100
AcDbCircle
 10
138.945448
 20
-327.048284
 30
0.0
 40
2.5165
100
AcDbArc
 50
0.0
 51
90.0
  0
ARC
  5
105
100
AcDbEntity
  8
1
100
AcDbCircle
 10
120.945448
 20
-327.048284
 30
0.0
 40
2.5165
100
AcDbArc
 50
90.0
 51
180.0
  0
ARC
  5
106
100
AcDbEntity
  8
1
100
AcDbCircle
 10
120.945448
 20
-370.863769
 30
0.0
 40
2.5165
100
AcDbArc
 50
180.0
 51
270.0
  0
ARC
  5
107
100
AcDbEntity
  8
1
100
AcDbCircle
 10
138.945448
 20
-370.863768
 30
0.0
 40
2.5165
100
AcDbArc
 50
270.0
 51
360.0
  0
ARC
  5
108
100
AcDbEntity
  8
1
100
AcDbCircle
 10
138.945448
 20
-391.329669
 30
0.0
 40
2.5165
100
AcDbArc
 50
0.0
 51
90.0
  0
ARC
  5
109
100
AcDbEntity
  8
1
100
AcDbCircle
 10
120.945448
 20
-391.329669
 30
0.0
 40
2.5165
100
AcDbArc
 50
90.0
 51
180.0
  0
ARC
  5
10A
100
AcDbEntity
  8
1
100
AcDbCircle
 10
138.945448
 20
-306.582383
 30
0.0
 40
2.5165
100
AcDbArc
 50
270.0
 51
360.0
  0
ARC
  5
10B
100
AcDbEntity
  8
1
100
AcDbCircle
 10
120.945448
 20
-306.582383
 30
0.0
 40
2.5165
100
AcDbArc
 50
180.0
 51
270.0
  0
ARC
  5
10C
100
AcDbEntity
  8
1
100
AcDbCircle
 10
120.945448
 20
-285.00706
 30
0.0
 40
2.5165
100
AcDbArc
 50
90.0
 51
180.0
  0
ARC
  5
10D
100
AcDbEntity
  8
1
100
AcDbCircle
 10
138.945448
 20
-285.00706
 30
0.0
 40
2.5165
100
AcDbArc
 50
0.0
 51
90.0
  0
ARC
  5
10E
100
AcDbEntity
  8
1
100
AcDbCircle
 10
120.945448
 20
-412.904992
 30
0.0
 40
2.5165
100
AcDbArc
 50
180.0
 51
270.0
  0
ARC
  5
10F
100
AcDbEntity
  8
1
100
AcDbCircle
 10
138.945448
 20
-412.904992
 30
0.0
 40
2.5165
100
AcDbArc
 50
270.0
 51
360.0
  0
CIRCLE
  5
110
100
AcDbEntity
  8
1
100
AcDbCircle
 10
-359.709994
 20
-348.956026
 30
0.0
 40
64.95
  0
LINE
  5
111
100
AcDbEntity
  8
1
100
AcDbLine
 10
100.570448
 20
-267.856026
 30
0.0
 11
100.570448
 21
-430.056026
 31
0.0
  0
LINE
  5
112
100
AcDbEntity
  8
1
100
AcDbLine
 10
159.320448
 20
-267.856026
 30
0.0
 11
159.320448
 21
-430.056026
 31
0.0
  0
LINE
  5
113
100
AcDbEntity
  8
1
100
AcDbLine
 10
159.320448
 20
-267.856026
 30
0.0
 11
158.233561
 21
-265.958914
 31
0.0
  0
LINE
  5
114
100
AcDbEntity
  8
1
100
AcDbLine
 10
100.570448
 20
-267.856026
 30
0.0
 11
101.657335
 21
-265.958914
 31
0.0
  0
ARC
  5
115
100
AcDbEntity
  8
1
100
AcDbCircle
 10
157.365875
 20
-266.456026
 30
0.0
 40
1.0
100
AcDbArc
 50
29.809114
 51
54.579452
  0
ARC
  5
116
100
AcDbEntity
  8
1
100
AcDbCircle
 10
102.525022
 20
-266.456026
 30
0.0
 40
1.0
100
AcDbArc
 50
125.420548
 51
150.190886
  0
LINE
  5
117
100
AcDbEntity
  8
1
100
AcDbLine
 10
159.320448
 20
-430.056026
 30
0.0
 11
158.233561
 21
-431.953138
 31
0.0
  0
LINE
  5
118
100
AcDbEntity
  8
1
100
AcDbLine
 10
100.570448
 20
-430.056026
 30
0.0
 11
101.657335
 21
-431.953138
 31
0.0
  0
ARC
  5
119
100
AcDbEntity
  8
1
100
AcDbCircle
 10
102.525022
 20
-431.456026
 30
0.0
 40
1.0
100
AcDbArc
 50
209.809114
 51
234.579452
  0
ARC
  5
11A
100
AcDbEntity
  8
1
100
AcDbCircle
 10
157.365875
 20
-431.456026
 30
0.0
 40
1.0
100
AcDbArc
 50
305.420548
 51
330.190886
  0
LINE
  5
11B
100
AcDbEntity
  8
1
100
AcDbLine
 10
111.445448
 20
-262.171235
 30
0.0
 11
121.445448
 21
-262.171235
 31
0.0
  0
LINE
  5
11C
100
AcDbEntity
  8
1
100
AcDbLine
 10
138.445448
 20
-262.171235
 30
0.0
 11
148.445448
 21
-262.171235
 31
0.0
  0
LINE
  5
11D
100
AcDbEntity
  8
1
100
AcDbLine
 10
-356.709994
 20
-201.922922
 30
0.0
 11
-362.709994
 21
-201.922922
 31
0.0
  0
CIRCLE
  5
11E
100
AcDbEntity
  8
1
  6
DASHED
100
AcDbCircle
 10
-395.709994
 20
375.143974
 30
0.0
 40
5.5
  0
CIRCLE
  5
11F
100
AcDbEntity
  8
1
  6
DASHED
100
AcDbCircle
 10
-323.709994
 20
375.143974
 30
0.0
 40
5.5
  0
CIRCLE
  5
120
100
AcDbEntity
  8
1
  6
DASHED
100
AcDbCircle
 10
-323.709994
 20
303.143974
 30
0.0
 40
5.5
  0
CIRCLE
  5
121
100
AcDbEntity
  8
1
  6
DASHED
100
AcDbCircle
 10
-395.709994
 20
303.143974
 30
0.0
 40
5.5
  0
LINE
  5
122
100
AcDbEntity
  8
1
  6
CENTER
 62
     2
100
AcDbLine
 10
-404.789086
 20
375.143974
 30
0.0
 11
-383.506371
 21
375.143974
 31
0.0
  0
LINE
  5
123
100
AcDbEntity
  8
1
  6
CENTER
 62
     2
100
AcDbLine
 10
-334.947304
 20
375.143974
 30
0.0
 11
-312.789422
 21
375.143974
 31
0.0
  0
LINE
  5
124
100
AcDbEntity
  8
1
  6
CENTER
 62
     2
100
AcDbLine
 10
-406.247704
 20
303.143974
 30
0.0
 11
-384.089806
 21
303.143974
 31
0.0
  0
LINE
  5
125
100
AcDbEntity
  8
1
  6
CENTER
 62
     2
100
AcDbLine
 10
-335.239052
 20
303.143974
 30
0.0
 11
-314.248055
 21
303.143974
 31
0.0
  0
LINE
  5
126
100
AcDbEntity
  8
1
  6
CENTER
 62
     2
100
AcDbLine
 10
-395.709994
 20
294.62895
 30
0.0
 11
-395.709994
 21
315.619986
 31
0.0
  0
LINE
  5
127
100
AcDbEntity
  8
1
  6
CENTER
 62
     2
100
AcDbLine
 10
-395.709994
 20
366.804548
 30
0.0
 11
-395.709994
 21
382.982054
 31
0.0
  0
LINE
  5
128
100
AcDbEntity
  8
1
  6
CENTER
 62
     2
100
AcDbLine
 10
-323.709994
 20
293.170324
 30
0.0
 11
-323.709994
 21
312.119238
 31
0.0
  0
LINE
  5
129
100
AcDbEntity
  8
1
  6
CENTER
 62
     2
100
AcDbLine
 10
-323.709994
 20
366.221113
 30
0.0
 11
-323.709994
 21
384.148924
 31
0.0
  0
LINE
  5
12A
100
AcDbEntity
  8
1
  6
DASHED
100
AcDbLine
 10
-293.080071
 20
350.660634
 30
0.0
 11
-308.709994
 21
350.660634
 31
0.0
  0
LINE
  5
12B
100
AcDbEntity
  8
1
  6
DASHED
100
AcDbLine
 10
-293.080071
 20
327.627313
 30
0.0
 11
-308.709994
 21
327.627313
 31
0.0
  0
ARC
  5
12C
100
AcDbEntity
  8
1
  6
DASHED
100
AcDbCircle
 10
-293.080071
 20
330.143974
 30
0.0
 40
2.51666
100
AcDbArc
 50
270.0
 51
0.0
  0
ARC
  5
12D
100
AcDbEntity
  8
1
  6
DASHED
100
AcDbCircle
 10
-293.080071
 20
348.143974
 30
0.0
 40
2.51666
100
AcDbArc
 50
0.0
 51
90.0
  0
LINE
  5
12E
100
AcDbEntity
  8
1
  6
DASHED
100
AcDbLine
 10
-279.342956
 20
353.391633
 30
0.0
 11
-290.563411
 21
350.660634
 31
0.0
  0
LINE
  5
12F
100
AcDbEntity
  8
1
  6
DASHED
100
AcDbLine
 10
-279.342956
 20
324.896315
 30
0.0
 11
-290.563411
 21
327.627313
 31
0.0
  0
LINE
  5
130
100
AcDbEntity
  8
1
  6
DASHED
100
AcDbLine
 10
-426.339917
 20
350.660634
 30
0.0
 11
-410.709994
 21
350.660634
 31
0.0
  0
LINE
  5
131
100
AcDbEntity
  8
1
  6
DASHED
100
AcDbLine
 10
-426.339917
 20
327.627313
 30
0.0
 11
-410.709994
 21
327.627313
 31
0.0
  0
ARC
  5
132
100
AcDbEntity
  8
1
  6
DASHED
100
AcDbCircle
 10
-426.339917
 20
330.143974
 30
0.0
 40
2.51666
100
AcDbArc
 50
180.0
 51
270.0
  0
ARC
  5
133
100
AcDbEntity
  8
1
  6
DASHED
100
AcDbCircle
 10
-426.339917
 20
348.143974
 30
0.0
 40
2.51666
100
AcDbArc
 50
90.0
 51
180.0
  0
LINE
  5
134
100
AcDbEntity
  8
1
  6
DASHED
100
AcDbLine
 10
-440.077033
 20
353.391633
 30
0.0
 11
-428.856578
 21
350.660634
 31
0.0
  0
LINE
  5
135
100
AcDbEntity
  8
1
  6
DASHED
100
AcDbLine
 10
-440.077033
 20
324.896315
 30
0.0
 11
-428.856578
 21
327.627313
 31
0.0
  0
LINE
  5
136
100
AcDbEntity
  8
1
  6
DASHED
100
AcDbLine
 10
-410.709994
 20
311.643974
 30
0.0
 11
-410.709994
 21
366.643974
 31
0.0
  0
LINE
  5
137
100
AcDbEntity
  8
1
  6
DASHED
100
AcDbLine
 10
-308.709994
 20
311.643974
 30
0.0
 11
-308.709994
 21
366.643974
 31
0.0
  0
LINE
  5
138
100
AcDbEntity
  8
1
  6
DASHED
100
AcDbLine
 10
-387.209994
 20
390.143974
 30
0.0
 11
-332.209994
 21
390.143974
 31
0.0
  0
LINE
  5
139
100
AcDbEntity
  8
1
  6
DASHED
100
AcDbLine
 10
-387.209994
 20
288.143974
 30
0.0
 11
-332.209994
 21
288.143974
 31
0.0
  0
ARC
  5
13A
100
AcDbEntity
  8
1
  6
DASHED
100
AcDbCircle
 10
-332.209994
 20
366.643974
 30
0.0
 40
23.5
100
AcDbArc
 50
0.0
 51
90.0
  0
ARC
  5
13B
100
AcDbEntity
  8
1
  6
DASHED
100
AcDbCircle
 10
-387.209994
 20
366.643974
 30
0.0
 40
23.5
100
AcDbArc
 50
90.0
 51
180.0
  0
ARC
  5
13C
100
AcDbEntity
  8
1
  6
DASHED
100
AcDbCircle
 10
-387.209994
 20
311.643974
 30
0.0
 40
23.5
100
AcDbArc
 50
180.0
 51
270.0
  0
ARC
  5
13D
100
AcDbEntity
  8
1
  6
DASHED
100
AcDbCircle
 10
-332.209994
 20
311.643974
 30
0.0
 40
23.5
100
AcDbArc
 50
270.0
 51
0.0
  0
LINE
  5
13E
100
AcDbEntity
  8
1
  6
DASHED
100
AcDbLine
 10
-269.209994
 20
366.143974
 30
0.0
 11
-270.209994
 21
367.143974
 31
0.0
  0
LINE
  5
13F
100
AcDbEntity
  8
1
  6
DASHED
100
AcDbLine
 10
-270.209994
 20
311.143974
 30
0.0
 11
-269.209994
 21
312.143974
 31
0.0
  0
LINE
  5
140
100
AcDbEntity
  8
1
  6
DASHED
100
AcDbLine
 10
-308.715314
 20
367.143974
 30
0.0
 11
-270.209994
 21
367.143974
 31
0.0
  0
LINE
  5
141
100
AcDbEntity
  8
1
  6
DASHED
100
AcDbLine
 10
-308.709994
 20
366.143974
 30
0.0
 11
-269.209994
 21
366.143974
 31
0.0
  0
LINE
  5
142
100
AcDbEntity
  8
1
  6
DASHED
100
AcDbLine
 10
-308.715314
 20
311.143974
 30
0.0
 11
-270.209994
 21
311.143974
 31
0.0
  0
LINE
  5
143
100
AcDbEntity
  8
1
  6
DASHED
100
AcDbLine
 10
-308.709994
 20
312.143974
 30
0.0
 11
-269.209994
 21
312.143974
 31
0.0
  0
LINE
  5
144
100
AcDbEntity
  8
1
  6
DASHED
100
AcDbLine
 10
-274.684998
 20
329.819143
 30
0.0
 11
-274.684998
 21
348.468805
 31
0.0
  0
LINE
  5
145
100
AcDbEntity
  8
1
  6
DASHED
100
AcDbLine
 10
-276.251921
 20
330.143974
 30
0.0
 11
-276.251921
 21
348.143974
 31
0.0
  0
LINE
  5
146
100
AcDbEntity
  8
1
  6
DASHED
100
AcDbLine
 10
-308.709994
 20
354.143974
 30
0.0
 11
-282.251921
 21
354.143974
 31
0.0
  0
LINE
  5
147
100
AcDbEntity
  8
1
  6
DASHED
100
AcDbLine
 10
-308.709994
 20
324.143974
 30
0.0
 11
-282.251921
 21
324.143974
 31
0.0
  0
ARC
  5
148
100
AcDbEntity
  8
1
  6
DASHED
100
AcDbCircle
 10
-282.251921
 20
348.143974
 30
0.0
 40
6.0
100
AcDbArc
 50
0.0
 51
90.0
  0
ARC
  5
149
100
AcDbEntity
  8
1
  6
DASHED
100
AcDbCircle
 10
-282.251921
 20
330.143974
 30
0.0
 40
6.0
100
AcDbArc
 50
270.0
 51
360.0
  0
LINE
  5
14A
100
AcDbEntity
  8
1
  6
DASHED
100
AcDbLine
 10
-290.563411
 20
330.143974
 30
0.0
 11
-290.563411
 21
348.143974
 31
0.0
  0
LINE
  5
14B
100
AcDbEntity
  8
1
  6
DASHED
100
AcDbLine
 10
-269.209994
 20
312.143974
 30
0.0
 11
-269.209994
 21
320.307339
 31
0.0
  0
LINE
  5
14C
100
AcDbEntity
  8
1
  6
DASHED
100
AcDbLine
 10
-269.209994
 20
357.980609
 30
0.0
 11
-269.209994
 21
366.143974
 31
0.0
  0
ARC
  5
14D
100
AcDbEntity
  8
1
  6
DASHED
100
AcDbCircle
 10
-274.209994
 20
357.980609
 30
0.0
 40
5.0
100
AcDbArc
 50
300.150455
 51
0.0
  0
ARC
  5
14E
100
AcDbEntity
  8
1
  6
DASHED
100
AcDbCircle
 10
-274.209994
 20
320.307339
 30
0.0
 40
5.0
100
AcDbArc
 50
0.0
 51
59.849545
  0
ARC
  5
14F
100
AcDbEntity
  8
1
  6
DASHED
100
AcDbCircle
 10
-268.684998
 20
348.468805
 30
0.0
 40
6.0
100
AcDbArc
 50
120.150455
 51
180.0
  0
ARC
  5
150
100
AcDbEntity
  8
1
  6
DASHED
100
AcDbCircle
 10
-268.684998
 20
329.819143
 30
0.0
 40
6.0
100
AcDbArc
 50
180.0
 51
239.849545
  0
LINE
  5
151
100
AcDbEntity
  8
1
  6
DASHED
100
AcDbLine
 10
-450.209994
 20
366.143974
 30
0.0
 11
-449.209994
 21
367.143974
 31
0.0
  0
LINE
  5
152
100
AcDbEntity
  8
1
  6
DASHED
100
AcDbLine
 10
-449.209994
 20
311.143974
 30
0.0
 11
-450.209994
 21
312.143974
 31
0.0
  0
LINE
  5
153
100
AcDbEntity
  8
1
  6
DASHED
100
AcDbLine
 10
-410.704675
 20
367.143974
 30
0.0
 11
-449.209994
 21
367.143974
 31
0.0
  0
LINE
  5
154
100
AcDbEntity
  8
1
  6
DASHED
100
AcDbLine
 10
-410.709994
 20
366.143974
 30
0.0
 11
-450.209994
 21
366.143974
 31
0.0
  0
LINE
  5
155
100
AcDbEntity
  8
1
  6
DASHED
100
AcDbLine
 10
-410.704675
 20
311.143974
 30
0.0
 11
-449.209994
 21
311.143974
 31
0.0
  0
LINE
  5
156
100
AcDbEntity
  8
1
  6
DASHED
100
AcDbLine
 10
-410.709994
 20
312.143974
 30
0.0
 11
-450.209994
 21
312.143974
 31
0.0
  0
LINE
  5
157
100
AcDbEntity
  8
1
  6
DASHED
100
AcDbLine
 10
-444.734991
 20
329.819143
 30
0.0
 11
-444.734991
 21
348.468805
 31
0.0
  0
LINE
  5
158
100
AcDbEntity
  8
1
  6
DASHED
100
AcDbLine
 10
-443.168068
 20
330.143974
 30
0.0
 11
-443.168068
 21
348.143974
 31
0.0
  0
LINE
  5
159
100
AcDbEntity
  8
1
  6
DASHED
100
AcDbLine
 10
-410.709994
 20
354.143974
 30
0.0
 11
-437.168068
 21
354.143974
 31
0.0
  0
LINE
  5
15A
100
AcDbEntity
  8
1
  6
DASHED
100
AcDbLine
 10
-410.709994
 20
324.143974
 30
0.0
 11
-437.168068
 21
324.143974
 31
0.0
  0
ARC
  5
15B
100
AcDbEntity
  8
1
  6
DASHED
100
AcDbCircle
 10
-437.168068
 20
348.143974
 30
0.0
 40
6.0
100
AcDbArc
 50
90.0
 51
180.0
  0
ARC
  5
15C
100
AcDbEntity
  8
1
  6
DASHED
100
AcDbCircle
 10
-437.168068
 20
330.143974
 30
0.0
 40
6.0
100
AcDbArc
 50
180.0
 51
270.0
  0
LINE
  5
15D
100
AcDbEntity
  8
1
  6
DASHED
100
AcDbLine
 10
-428.856578
 20
330.143974
 30
0.0
 11
-428.856578
 21
348.143974
 31
0.0
  0
LINE
  5
15E
100
AcDbEntity
  8
1
  6
DASHED
100
AcDbLine
 10
-450.209994
 20
312.143974
 30
0.0
 11
-450.209994
 21
320.307339
 31
0.0
  0
LINE
  5
15F
100
AcDbEntity
  8
1
  6
DASHED
100
AcDbLine
 10
-450.209994
 20
357.980609
 30
0.0
 11
-450.209994
 21
366.143974
 31
0.0
  0
ARC
  5
160
100
AcDbEntity
  8
1
  6
DASHED
100
AcDbCircle
 10
-445.209994
 20
357.980609
 30
0.0
 40
5.0
100
AcDbArc
 50
180.0
 51
239.849545
  0
ARC
  5
161
100
AcDbEntity
  8
1
  6
DASHED
100
AcDbCircle
 10
-445.209994
 20
320.307339
 30
0.0
 40
5.0
100
AcDbArc
 50
120.150455
 51
180.0
  0
ARC
  5
162
100
AcDbEntity
  8
1
  6
DASHED
100
AcDbCircle
 10
-450.734991
 20
348.468805
 30
0.0
 40
6.0
100
AcDbArc
 50
0.0
 51
59.849545
  0
ARC
  5
163
100
AcDbEntity
  8
1
  6
DASHED
100
AcDbCircle
 10
-450.734991
 20
329.819143
 30
0.0
 40
6.0
100
AcDbArc
 50
300.150455
 51
360.0
  0
LINE
  5
164
100
AcDbEntity
  8
1
  6
DASHED
100
AcDbLine
 10
-440.809994
 20
368.518974
 30
0.0
 11
-442.707106
 21
367.432087
 31
0.0
  0
LINE
  5
165
100
AcDbEntity
  8
1
  6
DASHED
100
AcDbLine
 10
-440.809994
 20
309.768974
 30
0.0
 11
-442.707106
 21
310.855861
 31
0.0
  0
ARC
  5
166
100
AcDbEntity
  8
1
  6
DASHED
100
AcDbCircle
 10
-442.209994
 20
366.5644
 30
0.0
 40
1.0
100
AcDbArc
 50
119.809114
 51
144.579452
  0
ARC
  5
167
100
AcDbEntity
  8
1
  6
DASHED
100
AcDbCircle
 10
-442.209994
 20
311.723547
 30
0.0
 40
1.0
100
AcDbArc
 50
215.420548
 51
240.190886
  0
LINE
  5
168
100
AcDbEntity
  8
1
  6
DASHED
100
AcDbLine
 10
-278.609994
 20
368.518974
 30
0.0
 11
-276.712882
 21
367.432087
 31
0.0
  0
LINE
  5
169
100
AcDbEntity
  8
1
  6
DASHED
100
AcDbLine
 10
-278.609994
 20
309.768974
 30
0.0
 11
-276.712882
 21
310.855861
 31
0.0
  0
ARC
  5
16A
100
AcDbEntity
  8
1
  6
DASHED
100
AcDbCircle
 10
-277.209994
 20
311.723547
 30
0.0
 40
1.0
100
AcDbArc
 50
299.809114
 51
324.579452
  0
ARC
  5
16B
100
AcDbEntity
  8
1
  6
DASHED
100
AcDbCircle
 10
-277.209994
 20
366.5644
 30
0.0
 40
1.0
100
AcDbArc
 50
35.420548
 51
60.190886
  0
LINE
  5
16C
100
AcDbEntity
  8
1
  6
DASHED
100
AcDbLine
 10
-440.809994
 20
368.518974
 30
0.0
 11
-410.635074
 21
368.518974
 31
0.0
  0
LINE
  5
16D
100
AcDbEntity
  8
1
  6
DASHED
100
AcDbLine
 10
-308.784914
 20
368.518974
 30
0.0
 11
-278.609994
 21
368.518974
 31
0.0
  0
LINE
  5
16E
100
AcDbEntity
  8
1
  6
DASHED
100
AcDbLine
 10
-440.809994
 20
309.768974
 30
0.0
 11
-410.635074
 21
309.768974
 31
0.0
  0
LINE
  5
16F
100
AcDbEntity
  8
1
  6
DASHED
100
AcDbLine
 10
-308.784914
 20
309.768974
 30
0.0
 11
-278.609994
 21
309.768974
 31
0.0
  0
LINE
  5
170
100
AcDbEntity
  8
1
100
AcDbLine
 10
120.945448
 20
-309.098883
 30
0.0
 11
138.945448
 21
-309.098883
 31
0.0
  0
LINE
  5
171
100
AcDbEntity
  8
1
100
AcDbLine
 10
120.945448
 20
-324.531784
 30
0.0
 11
138.945448
 21
-324.531784
 31
0.0
  0
LINE
  5
172
100
AcDbEntity
  8
1
100
AcDbLine
 10
120.945448
 20
-373.380269
 30
0.0
 11
138.945448
 21
-373.380269
 31
0.0
  0
LINE
  5
173
100
AcDbEntity
  8
1
100
AcDbLine
 10
120.945448
 20
-388.813169
 30
0.0
 11
138.945448
 21
-388.813169
 31
0.0
  0
LINE
  5
174
100
AcDbEntity
  8
1
100
AcDbLine
 10
143.469163
 20
-311.8976
 30
0.0
 11
141.461948
 21
-309.098883
 31
0.0
  0
LINE
  5
175
100
AcDbEntity
  8
1
100
AcDbLine
 10
116.421734
 20
-311.8976
 30
0.0
 11
118.428948
 21
-309.098883
 31
0.0
  0
LINE
  5
176
100
AcDbEntity
  8
1
100
AcDbLine
 10
116.187499
 20
-320.30063
 30
0.0
 11
118.428948
 21
-324.531784
 31
0.0
  0
LINE
  5
177
100
AcDbEntity
  8
1
100
AcDbLine
 10
143.703397
 20
-320.30063
 30
0.0
 11
141.461948
 21
-324.531784
 31
0.0
  0
LINE
  5
178
100
AcDbEntity
  8
1
100
AcDbLine
 10
143.703397
 20
-377.611422
 30
0.0
 11
141.461948
 21
-373.380269
 31
0.0
  0
LINE
  5
179
100
AcDbEntity
  8
1
100
AcDbLine
 10
118.428948
 20
-373.380269
 30
0.0
 11
116.187499
 21
-377.611422
 31
0.0
  0
LINE
  5
17A
100
AcDbEntity
  8
1
100
AcDbLine
 10
116.421734
 20
-386.014452
 30
0.0
 11
118.428948
 21
-388.813169
 31
0.0
  0
LINE
  5
17B
100
AcDbEntity
  8
1
100
AcDbLine
 10
141.461948
 20
-388.813169
 30
0.0
 11
143.469163
 21
-386.014452
 31
0.0
  0
LINE
  5
17C
100
AcDbEntity
  8
1
100
AcDbLine
 10
120.945448
 20
-282.49056
 30
0.0
 11
138.945448
 21
-282.49056
 31
0.0
  0
LINE
  5
17D
100
AcDbEntity
  8
1
100
AcDbLine
 10
120.945448
 20
-415.421492
 30
0.0
 11
138.945448
 21
-415.421492
 31
0.0
  0
LINE
  5
17E
100
AcDbEntity
  8
1
100
AcDbLine
 10
144.299604
 20
-268.026245
 30
0.0
 11
141.461948
 21
-282.49056
 31
0.0
  0
LINE
  5
17F
100
AcDbEntity
  8
1
100
AcDbLine
 10
115.591293
 20
-268.026245
 30
0.0
 11
118.428948
 21
-282.49056
 31
0.0
  0
LINE
  5
180
100
AcDbEntity
  8
1
100
AcDbLine
 10
141.461948
 20
-415.421492
 30
0.0
 11
144.305738
 21
-430.110126
 31
0.0
  0
LINE
  5
181
100
AcDbEntity
  8
1
100
AcDbLine
 10
115.585159
 20
-430.110126
 30
0.0
 11
118.428948
 21
-415.421492
 31
0.0
  0
ARC
  5
182
100
AcDbEntity
  8
1
100
AcDbCircle
 10
121.445448
 20
-257.171235
 30
0.0
 40
5.0
100
AcDbArc
 50
270.0
 51
360.0
  0
ARC
  5
183
100
AcDbEntity
  8
1
100
AcDbCircle
 10
138.445448
 20
-257.171235
 30
0.0
 40
5.0
100
AcDbArc
 50
180.0
 51
270.0
  0
ARC
  5
184
100
AcDbEntity
  8
1
100
AcDbCircle
 10
138.445448
 20
-448.956026
 30
0.0
 40
5.0
100
AcDbArc
 50
180.0
 51
270.0
  0
ARC
  5
185
100
AcDbEntity
  8
1
100
AcDbCircle
 10
121.445448
 20
-448.956026
 30
0.0
 40
5.0
100
AcDbArc
 50
270.0
 51
360.0
  0
LINE
  5
186
100
AcDbEntity
  8
1
  6
CENTER
 62
     2
100
AcDbLine
 10
-359.709994
 20
84.350754
 30
0.0
 11
-359.709994
 21
-474.972052
 31
0.0
  0
LINE
  5
187
100
AcDbEntity
  8
1
  6
CENTER
 62
     2
100
AcDbLine
 10
129.945448
 20
84.350754
 30
0.0
 11
129.945448
 21
-474.972052
 31
0.0
  0
LINE
  5
188
100
AcDbEntity
  8
1
100
AcDbLine
 10
-344.794309
 20
-409.706026
 30
0.0
 11
-344.264559
 21
-409.623736
 31
0.0
  0
LINE
  5
189
100
AcDbEntity
  8
1
100
AcDbLine
 10
-337.153719
 20
-402.457456
 30
0.0
 11
-337.130749
 21
-402.451326
 31
0.0
  0
LINE
  5
18A
100
AcDbEntity
  8
1
100
AcDbLine
 10
-337.130749
 20
-402.451326
 30
0.0
 11
-337.149344
 21
-402.462916
 31
0.0
  0
LINE
  5
18B
100
AcDbEntity
  8
1
100
AcDbLine
 10
-374.919384
 20
-409.667866
 30
0.0
 11
-374.658209
 21
-409.706026
 31
0.0
  0
LINE
  5
18C
100
AcDbEntity
  8
1
100
AcDbLine
 10
-343.363917
 20
-288.206026
 30
0.0
 11
-376.131717
 21
-288.206026
 31
0.0
  0
LINE
  5
18D
100
AcDbEntity
  8
1
100
AcDbLine
 10
-343.337934
 20
-409.706026
 30
0.0
 11
-376.082054
 21
-409.706026
 31
0.0
  0
ARC
  5
18E
100
AcDbEntity
  8
1
100
AcDbCircle
 10
-359.709994
 20
-345.996026
 30
0.0
 40
65.78
100
AcDbArc
 50
284.411905
 51
298.714138
  0
ARC
  5
18F
100
AcDbEntity
  8
1
100
AcDbCircle
 10
-359.709994
 20
-348.956026
 30
0.0
 40
63.2
100
AcDbArc
 50
300.003494
 51
59.996506
  0
ARC
  5
190
100
AcDbEntity
  8
1
100
AcDbCircle
 10
-359.709994
 20
-351.916026
 30
0.0
 40
65.78
100
AcDbArc
 50
61.285862
 51
75.744619
  0
LINE
  5
191
100
AcDbEntity
  8
1
100
AcDbLine
 10
-376.082054
 20
-409.706026
 30
0.0
 11
-343.337934
 21
-409.706026
 31
0.0
  0
ARC
  5
192
100
AcDbEntity
  8
1
100
AcDbCircle
 10
-359.709994
 20
-345.996026
 30
0.0
 40
65.78
100
AcDbArc
 50
241.285862
 51
255.588095
  0
ARC
  5
193
100
AcDbEntity
  8
1
100
AcDbCircle
 10
-359.709994
 20
-351.916026
 30
0.0
 40
65.78
100
AcDbArc
 50
104.411905
 51
118.714138
  0
LINE
  5
194
100
AcDbEntity
  8
1
100
AcDbLine
 10
-376.169108
 20
-288.206026
 30
0.0
 11
-343.337936
 21
-288.206026
 31
0.0
  0
ARC
  5
195
100
AcDbEntity
  8
1
100
AcDbCircle
 10
-359.709994
 20
-348.956026
 30
0.0
 40
63.2
100
AcDbArc
 50
120.003494
 51
239.996506
  0
LINE
  5
196
100
AcDbEntity
  8
1
100
AcDbLine
 10
-307.422383
 20
-324.265673
 30
0.0
 11
-308.881139
 21
-321.435621
 31
0.0
  0
LINE
  5
197
100
AcDbEntity
  8
1
100
AcDbLine
 10
-310.748926
 20
-321.376693
 30
0.0
 11
-309.280341
 21
-323.890872
 31
0.0
  0
LINE
  5
198
100
AcDbEntity
  8
1
100
AcDbLine
 10
-310.231629
 20
-325.391388
 30
0.0
 11
-361.410416
 21
-320.880195
 31
0.0
  0
LINE
  5
199
100
AcDbEntity
  8
1
100
AcDbLine
 10
-368.297115
 20
-321.153641
 30
0.0
 11
-308.387265
 21
-325.720947
 31
0.0
  0
LINE
  5
19A
100
AcDbEntity
  8
1
100
AcDbLine
 10
-341.161469
 20
-318.272571
 30
0.0
 11
-311.524603
 21
-320.884933
 31
0.0
  0
LINE
  5
19B
100
AcDbEntity
  8
1
100
AcDbLine
 10
-309.672328
 20
-320.898571
 30
0.0
 11
-340.027303
 21
-317.919368
 31
0.0
  0
ARC
  5
19C
100
AcDbEntity
  8
1
100
AcDbCircle
 10
-311.612408
 20
-321.881071
 30
0.0
 40
1.0
100
AcDbArc
 50
30.290086
 51
84.962643
  0
ARC
  5
19D
100
AcDbEntity
  8
1
100
AcDbCircle
 10
-309.770004
 20
-321.893789
 30
0.0
 40
1.0
100
AcDbArc
 50
27.268929
 51
84.394632
  0
ARC
  5
19E
100
AcDbEntity
  8
1
100
AcDbCircle
 10
-308.311249
 20
-324.723841
 30
0.0
 40
1.0
100
AcDbArc
 50
265.640413
 51
27.268929
  0
ARC
  5
19F
100
AcDbEntity
  8
1
100
AcDbCircle
 10
-310.143824
 20
-324.395251
 30
0.0
 40
1.0
100
AcDbArc
 50
264.962639
 51
30.290086
  0
LINE
  5
1A0
100
AcDbEntity
  8
1
100
AcDbLine
 10
-347.245894
 20
-310.410402
 30
0.0
 11
-347.245894
 21
-296.9325
 31
0.0
  0
ARC
  5
1A1
100
AcDbEntity
  8
1
100
AcDbCircle
 10
-336.270244
 20
-291.757886
 30
0.0
 40
26.962058
100
AcDbArc
 50
222.414985
 51
259.548018
  0
ARC
  5
1A2
100
AcDbEntity
  8
1
100
AcDbCircle
 10
-339.245894
 20
-309.957622
 30
0.0
 40
8.0
100
AcDbArc
 50
180.0
 51
264.394632
  0
ARC
  5
1A3
100
AcDbEntity
  8
1
100
AcDbCircle
 10
-360.795779
 20
-313.907232
 30
0.0
 40
7.0
100
AcDbArc
 50
180.0
 51
264.962639
  0
ARC
  5
1A4
100
AcDbEntity
  8
1
100
AcDbCircle
 10
-367.765004
 20
-314.173894
 30
0.0
 40
7.0
100
AcDbArc
 50
180.0
 51
265.640413
  0
ARC
  5
1A5
100
AcDbEntity
  8
1
100
AcDbCircle
 10
-348.745894
 20
-323.647056
 30
0.0
 40
1.0
100
AcDbArc
 50
85.640413
 51
180.0
  0
ARC
  5
1A6
100
AcDbEntity
  8
1
100
AcDbCircle
 10
-355.745894
 20
-323.113401
 30
0.0
 40
1.0
100
AcDbArc
 50
85.640413
 51
180.0
  0
ARC
  5
1A7
100
AcDbEntity
  8
1
100
AcDbCircle
 10
-363.674094
 20
-322.508984
 30
0.0
 40
1.0
100
AcDbArc
 50
0.0
 51
85.640413
  0
ARC
  5
1A8
100
AcDbEntity
  8
1
100
AcDbCircle
 10
-370.674094
 20
-321.626222
 30
0.0
 40
1.0
100
AcDbArc
 50
0.0
 51
68.676321
  0
LINE
  5
1A9
100
AcDbEntity
  8
1
100
AcDbLine
 10
-349.745894
 20
-323.647056
 30
0.0
 11
-349.745894
 21
-345.176511
 31
0.0
  0
LINE
  5
1AA
100
AcDbEntity
  8
1
100
AcDbLine
 10
-369.674094
 20
-321.626222
 30
0.0
 11
-369.674094
 21
-344.451275
 31
0.0
  0
LINE
  5
1AB
100
AcDbEntity
  8
1
100
AcDbLine
 10
-356.745894
 20
-323.113401
 30
0.0
 11
-356.745894
 21
-345.359736
 31
0.0
  0
LINE
  5
1AC
100
AcDbEntity
  8
1
100
AcDbLine
 10
-362.674094
 20
-322.508984
 30
0.0
 11
-362.674094
 21
-345.249204
 31
0.0
  0
LINE
  5
1AD
100
AcDbEntity
  8
1
100
AcDbLine
 10
-302.773112
 20
-346.678267
 30
0.0
 11
-348.706469
 21
-346.177001
 31
0.0
  0
LINE
  5
1AE
100
AcDbEntity
  8
1
100
AcDbLine
 10
-301.784024
 20
-350.233844
 30
0.0
 11
-301.784024
 21
-347.678208
 31
0.0
  0
LINE
  5
1AF
100
AcDbEntity
  8
1
100
AcDbLine
 10
-348.706469
 20
-351.735056
 30
0.0
 11
-302.773112
 21
-351.233785
 31
0.0
  0
LINE
  5
1B0
100
AcDbEntity
  8
1
100
AcDbLine
 10
-303.983354
 20
-351.143911
 30
0.0
 11
-366.502884
 21
-351.143911
 31
0.0
  0
LINE
  5
1B1
100
AcDbEntity
  8
1
100
AcDbLine
 10
-366.502884
 20
-346.768141
 30
0.0
 11
-303.983354
 21
-346.768141
 31
0.0
  0
LINE
  5
1B2
100
AcDbEntity
  8
1
100
AcDbLine
 10
-302.983354
 20
-350.143911
 30
0.0
 11
-302.983354
 21
-347.768141
 31
0.0
  0
ARC
  5
1B3
100
AcDbEntity
  8
1
100
AcDbCircle
 10
-302.784024
 20
-350.233844
 30
0.0
 40
1.0
100
AcDbArc
 50
270.625245
 51
360.0
  0
ARC
  5
1B4
100
AcDbEntity
  8
1
100
AcDbCircle
 10
-303.983354
 20
-350.143911
 30
0.0
 40
1.0
100
AcDbArc
 50
270.0
 51
360.0
  0
ARC
  5
1B5
100
AcDbEntity
  8
1
100
AcDbCircle
 10
-303.983354
 20
-347.768141
 30
0.0
 40
1.0
100
AcDbArc
 50
360.0
 51
90.0
  0
ARC
  5
1B6
100
AcDbEntity
  8
1
100
AcDbCircle
 10
-302.784024
 20
-347.678208
 30
0.0
 40
1.0
100
AcDbArc
 50
360.0
 51
89.374762
  0
LINE
  5
1B7
100
AcDbEntity
  8
1
100
AcDbLine
 10
-367.502884
 20
-350.143911
 30
0.0
 11
-367.502884
 21
-347.768141
 31
0.0
  0
LINE
  5
1B8
100
AcDbEntity
  8
1
100
AcDbLine
 10
-374.765004
 20
-346.451275
 30
0.0
 11
-374.765004
 21
-351.609146
 31
0.0
  0
ARC
  5
1B9
100
AcDbEntity
  8
1
100
AcDbCircle
 10
-366.502884
 20
-347.768141
 30
0.0
 40
1.0
100
AcDbArc
 50
90.0
 51
180.0
  0
ARC
  5
1BA
100
AcDbEntity
  8
1
100
AcDbCircle
 10
-366.502884
 20
-350.143911
 30
0.0
 40
1.0
100
AcDbArc
 50
180.0
 51
270.0
  0
LINE
  5
1BB
100
AcDbEntity
  8
1
100
AcDbLine
 10
-373.765004
 20
-345.451275
 30
0.0
 11
-370.674094
 21
-345.451275
 31
0.0
  0
ARC
  5
1BC
100
AcDbEntity
  8
1
100
AcDbCircle
 10
-373.765004
 20
-346.451275
 30
0.0
 40
1.0
100
AcDbArc
 50
90.0
 51
180.0
  0
ARC
  5
1BD
100
AcDbEntity
  8
1
100
AcDbCircle
 10
-370.674094
 20
-344.451275
 30
0.0
 40
1.0
100
AcDbArc
 50
270.0
 51
360.0
  0
LINE
  5
1BE
100
AcDbEntity
  8
1
100
AcDbLine
 10
-362.028647
 20
-346.392696
 30
0.0
 11
-356.049491
 21
-346.392696
 31
0.0
  0
LINE
  5
1BF
100
AcDbEntity
  8
1
100
AcDbLine
 10
-362.674094
 20
-346.392696
 30
0.0
 11
-369.674094
 21
-345.451275
 31
0.0
  0
LINE
  5
1C0
100
AcDbEntity
  8
1
100
AcDbLine
 10
-356.745894
 20
-346.392696
 30
0.0
 11
-349.745894
 21
-346.165658
 31
0.0
  0
ARC
  5
1C1
100
AcDbEntity
  8
1
100
AcDbCircle
 10
-348.745894
 20
-345.176511
 30
0.0
 40
1.0
100
AcDbArc
 50
180.0
 51
269.374762
  0
LINE
  5
1C2
100
AcDbEntity
  8
1
100
AcDbLine
 10
-356.175764
 20
-350.151366
 30
0.0
 11
-356.175764
 21
-347.760691
 31
0.0
  0
LINE
  5
1C3
100
AcDbEntity
  8
1
100
AcDbLine
 10
-374.765004
 20
-296.739369
 30
0.0
 11
-374.765004
 21
-314.173894
 31
0.0
  0
LINE
  5
1C4
100
AcDbEntity
  8
1
100
AcDbLine
 10
-367.795779
 20
-313.907232
 30
0.0
 11
-367.795779
 21
-296.883376
 31
0.0
  0
LINE
  5
1C5
100
AcDbEntity
  8
1
100
AcDbLine
 10
-373.682548
 20
-345.647561
 30
0.0
 11
-367.502884
 21
-346.768141
 31
0.0
  0
LINE
  5
1C6
100
AcDbEntity
  8
1
100
AcDbLine
 10
-303.344808
 20
-351.120078
 30
0.0
 11
-302.712053
 21
-351.1618
 31
0.0
  0
LINE
  5
1C7
100
AcDbEntity
  8
1
100
AcDbLine
 10
-303.344808
 20
-346.791974
 30
0.0
 11
-302.712053
 21
-346.750252
 31
0.0
  0
LINE
  5
1C8
100
AcDbEntity
  8
1
100
AcDbLine
 10
-307.422383
 20
-373.646379
 30
0.0
 11
-308.881139
 21
-376.476431
 31
0.0
  0
LINE
  5
1C9
100
AcDbEntity
  8
1
100
AcDbLine
 10
-310.748926
 20
-376.535359
 30
0.0
 11
-309.280341
 21
-374.02118
 31
0.0
  0
LINE
  5
1CA
100
AcDbEntity
  8
1
100
AcDbLine
 10
-310.231629
 20
-372.520664
 30
0.0
 11
-361.410416
 21
-377.031857
 31
0.0
  0
LINE
  5
1CB
100
AcDbEntity
  8
1
100
AcDbLine
 10
-368.297115
 20
-376.758412
 30
0.0
 11
-308.387265
 21
-372.191105
 31
0.0
  0
LINE
  5
1CC
100
AcDbEntity
  8
1
100
AcDbLine
 10
-341.161469
 20
-379.639481
 30
0.0
 11
-311.524603
 21
-377.027119
 31
0.0
  0
LINE
  5
1CD
100
AcDbEntity
  8
1
100
AcDbLine
 10
-309.672328
 20
-377.013481
 30
0.0
 11
-340.027303
 21
-379.992684
 31
0.0
  0
ARC
  5
1CE
100
AcDbEntity
  8
1
100
AcDbCircle
 10
-311.612408
 20
-376.030981
 30
0.0
 40
1.0
100
AcDbArc
 50
275.037357
 51
329.709914
  0
ARC
  5
1CF
100
AcDbEntity
  8
1
100
AcDbCircle
 10
-309.770004
 20
-376.018263
 30
0.0
 40
1.0
100
AcDbArc
 50
275.605368
 51
332.731071
  0
ARC
  5
1D0
100
AcDbEntity
  8
1
100
AcDbCircle
 10
-308.311249
 20
-373.188211
 30
0.0
 40
1.0
100
AcDbArc
 50
332.731071
 51
94.359587
  0
ARC
  5
1D1
100
AcDbEntity
  8
1
100
AcDbCircle
 10
-310.143824
 20
-373.516802
 30
0.0
 40
1.0
100
AcDbArc
 50
329.709914
 51
95.037361
  0
LINE
  5
1D2
100
AcDbEntity
  8
1
100
AcDbLine
 10
-347.245894
 20
-387.50165
 30
0.0
 11
-347.245894
 21
-400.979552
 31
0.0
  0
ARC
  5
1D3
100
AcDbEntity
  8
1
100
AcDbCircle
 10
-336.270244
 20
-406.154166
 30
0.0
 40
26.962058
100
AcDbArc
 50
100.451982
 51
137.585015
  0
ARC
  5
1D4
100
AcDbEntity
  8
1
100
AcDbCircle
 10
-339.245894
 20
-387.95443
 30
0.0
 40
8.0
100
AcDbArc
 50
95.605368
 51
180.0
  0
ARC
  5
1D5
100
AcDbEntity
  8
1
100
AcDbCircle
 10
-360.795779
 20
-384.00482
 30
0.0
 40
7.0
100
AcDbArc
 50
95.037361
 51
180.0
  0
ARC
  5
1D6
100
AcDbEntity
  8
1
100
AcDbCircle
 10
-367.765004
 20
-383.738158
 30
0.0
 40
7.0
100
AcDbArc
 50
94.359587
 51
180.0
  0
ARC
  5
1D7
100
AcDbEntity
  8
1
100
AcDbCircle
 10
-348.745894
 20
-374.264997
 30
0.0
 40
1.0
100
AcDbArc
 50
180.0
 51
274.359587
  0
ARC
  5
1D8
100
AcDbEntity
  8
1
100
AcDbCircle
 10
-355.745894
 20
-374.798651
 30
0.0
 40
1.0
100
AcDbArc
 50
180.0
 51
274.359587
  0
ARC
  5
1D9
100
AcDbEntity
  8
1
100
AcDbCircle
 10
-363.674094
 20
-375.403068
 30
0.0
 40
1.0
100
AcDbArc
 50
274.359587
 51
360.0
  0
ARC
  5
1DA
100
AcDbEntity
  8
1
100
AcDbCircle
 10
-370.674094
 20
-376.28583
 30
0.0
 40
1.0
100
AcDbArc
 50
291.323679
 51
360.0
  0
LINE
  5
1DB
100
AcDbEntity
  8
1
100
AcDbLine
 10
-349.745894
 20
-374.264997
 30
0.0
 11
-349.745894
 21
-352.735541
 31
0.0
  0
LINE
  5
1DC
100
AcDbEntity
  8
1
100
AcDbLine
 10
-369.674094
 20
-376.28583
 30
0.0
 11
-369.674094
 21
-353.460777
 31
0.0
  0
LINE
  5
1DD
100
AcDbEntity
  8
1
100
AcDbLine
 10
-356.745894
 20
-374.798651
 30
0.0
 11
-356.745894
 21
-352.552316
 31
0.0
  0
LINE
  5
1DE
100
AcDbEntity
  8
1
100
AcDbLine
 10
-362.674094
 20
-375.403068
 30
0.0
 11
-362.674094
 21
-352.662848
 31
0.0
  0
LINE
  5
1DF
100
AcDbEntity
  8
1
100
AcDbLine
 10
-374.765004
 20
-401.172683
 30
0.0
 11
-374.765004
 21
-383.738158
 31
0.0
  0
LINE
  5
1E0
100
AcDbEntity
  8
1
100
AcDbLine
 10
-367.795779
 20
-384.00482
 30
0.0
 11
-367.795779
 21
-401.028676
 31
0.0
  0
LINE
  5
1E1
100
AcDbEntity
  8
1
100
AcDbLine
 10
-373.682548
 20
-352.264491
 30
0.0
 11
-367.502884
 21
-351.143911
 31
0.0
  0
LINE
  5
1E2
100
AcDbEntity
  8
1
100
AcDbLine
 10
-362.674094
 20
-351.519356
 30
0.0
 11
-369.674094
 21
-352.460777
 31
0.0
  0
LINE
  5
1E3
100
AcDbEntity
  8
1
100
AcDbLine
 10
-373.765004
 20
-352.460777
 30
0.0
 11
-370.674094
 21
-352.460777
 31
0.0
  0
ARC
  5
1E4
100
AcDbEntity
  8
1
100
AcDbCircle
 10
-373.765004
 20
-351.460777
 30
0.0
 40
1.0
100
AcDbArc
 50
180.0
 51
270.0
  0
LINE
  5
1E5
100
AcDbEntity
  8
1
100
AcDbLine
 10
-311.009659
 20
-320.930323
 30
0.0
 11
-309.804459
 21
-320.944062
 31
0.0
  0
LINE
  5
1E6
100
AcDbEntity
  8
1
100
AcDbLine
 10
-308.304643
 20
-325.561244
 30
0.0
 11
-309.30567
 21
-325.387326
 31
0.0
  0
LINE
  5
1E7
100
AcDbEntity
  8
1
100
AcDbLine
 10
-309.372743
 20
-372.536379
 30
0.0
 11
-308.097711
 21
-372.314856
 31
0.0
  0
LINE
  5
1E8
100
AcDbEntity
  8
1
100
AcDbLine
 10
-348.441535
 20
-404.325796
 30
0.0
 11
-370.563117
 21
-404.325796
 31
0.0
  0
LINE
  5
1E9
100
AcDbEntity
  8
1
100
AcDbLine
 10
-346.758824
 20
-409.706026
 30
0.0
 11
-346.758824
 21
-405.028676
 31
0.0
  0
LINE
  5
1EA
100
AcDbEntity
  8
1
100
AcDbLine
 10
-372.661164
 20
-409.706026
 30
0.0
 11
-372.661164
 21
-405.028676
 31
0.0
  0
LINE
  5
1EB
100
AcDbEntity
  8
1
100
AcDbLine
 10
-370.661164
 20
-403.028676
 30
0.0
 11
-348.758824
 21
-403.028676
 31
0.0
  0
LINE
  5
1EC
100
AcDbEntity
  8
1
100
AcDbLine
 10
-337.130749
 20
-407.370266
 30
0.0
 11
-337.130749
 21
-403.47066
 31
0.0
  0
ARC
  5
1ED
100
AcDbEntity
  8
1
100
AcDbCircle
 10
-345.245894
 20
-400.979552
 30
0.0
 40
2.0
100
AcDbArc
 50
180.0
 51
261.774456
  0
ARC
  5
1EE
100
AcDbEntity
  8
1
100
AcDbCircle
 10
-342.556376
 20
-382.374347
 30
0.0
 40
20.798594
100
AcDbArc
 50
261.774456
 51
285.121397
  0
ARC
  5
1EF
100
AcDbEntity
  8
1
100
AcDbCircle
 10
-376.863613
 20
-382.374347
 30
0.0
 40
20.798594
100
AcDbArc
 50
254.878603
 51
270.300548
  0
LINE
  5
1F0
100
AcDbEntity
  8
1
100
AcDbLine
 10
-382.289239
 20
-407.370266
 30
0.0
 11
-382.289239
 21
-403.47066
 31
0.0
  0
ARC
  5
1F1
100
AcDbEntity
  8
1
100
AcDbCircle
 10
-376.765004
 20
-401.172683
 30
0.0
 40
2.0
100
AcDbArc
 50
270.300548
 51
360.0
  0
ARC
  5
1F2
100
AcDbEntity
  8
1
100
AcDbCircle
 10
-369.795779
 20
-401.028676
 30
0.0
 40
2.0
100
AcDbArc
 50
270.0
 51
360.0
  0
ARC
  5
1F3
100
AcDbEntity
  8
1
100
AcDbCircle
 10
-370.661164
 20
-532.038917
 30
0.0
 40
129.010241
100
AcDbArc
 50
90.0
 51
92.633715
  0
ARC
  5
1F4
100
AcDbEntity
  8
1
100
AcDbCircle
 10
-348.758824
 20
-532.038917
 30
0.0
 40
129.010241
100
AcDbArc
 50
87.366285
 51
90.0
  0
LINE
  5
1F5
100
AcDbEntity
  8
1
100
AcDbLine
 10
-348.441535
 20
-293.586256
 30
0.0
 11
-370.563117
 21
-293.586256
 31
0.0
  0
LINE
  5
1F6
100
AcDbEntity
  8
1
100
AcDbLine
 10
-346.758824
 20
-288.206026
 30
0.0
 11
-346.758824
 21
-292.883376
 31
0.0
  0
LINE
  5
1F7
100
AcDbEntity
  8
1
100
AcDbLine
 10
-372.661164
 20
-288.206026
 30
0.0
 11
-372.661164
 21
-292.883376
 31
0.0
  0
LINE
  5
1F8
100
AcDbEntity
  8
1
100
AcDbLine
 10
-370.661164
 20
-294.883376
 30
0.0
 11
-348.758824
 21
-294.883376
 31
0.0
  0
LINE
  5
1F9
100
AcDbEntity
  8
1
100
AcDbLine
 10
-337.130749
 20
-290.541786
 30
0.0
 11
-337.130749
 21
-294.441393
 31
0.0
  0
ARC
  5
1FA
100
AcDbEntity
  8
1
100
AcDbCircle
 10
-345.245894
 20
-296.9325
 30
0.0
 40
2.0
100
AcDbArc
 50
98.225544
 51
180.0
  0
ARC
  5
1FB
100
AcDbEntity
  8
1
100
AcDbCircle
 10
-342.556376
 20
-315.537705
 30
0.0
 40
20.798594
100
AcDbArc
 50
74.878603
 51
98.225544
  0
ARC
  5
1FC
100
AcDbEntity
  8
1
100
AcDbCircle
 10
-376.863613
 20
-315.537705
 30
0.0
 40
20.798594
100
AcDbArc
 50
89.699452
 51
105.121397
  0
LINE
  5
1FD
100
AcDbEntity
  8
1
100
AcDbLine
 10
-382.289239
 20
-290.541786
 30
0.0
 11
-382.289239
 21
-294.441393
 31
0.0
  0
ARC
  5
1FE
100
AcDbEntity
  8
1
100
AcDbCircle
 10
-376.765004
 20
-296.739369
 30
0.0
 40
2.0
100
AcDbArc
 50
0.0
 51
89.699452
  0
ARC
  5
1FF
100
AcDbEntity
  8
1
100
AcDbCircle
 10
-369.795779
 20
-296.883376
 30
0.0
 40
2.0
100
AcDbArc
 50
0.0
 51
90.0
  0
ARC
  5
200
100
AcDbEntity
  8
1
100
AcDbCircle
 10
-370.661164
 20
-165.873135
 30
0.0
 40
129.010241
100
AcDbArc
 50
267.366285
 51
270.0
  0
ARC
  5
201
100
AcDbEntity
  8
1
100
AcDbCircle
 10
-348.758824
 20
-165.873135
 30
0.0
 40
129.010241
100
AcDbArc
 50
270.0
 51
272.633715
  0
ARC
  5
202
100
AcDbEntity
  8
1
100
AcDbCircle
 10
-370.674094
 20
-353.460777
 30
0.0
 40
1.0
100
AcDbArc
 50
0.0
 51
90.0
  0
POINT
  5
203
100
AcDbEntity
  8
1
100
AcDbPoint
 10
-359.709994
 20
-348.956026
 30
0.0
  0
LINE
  5
204
100
AcDbEntity
  8
1
100
AcDbLine
 10
-350.569262
 20
-285.965793
 30
0.0
 11
-368.850726
 21
-285.965793
 31
0.0
  0
ARC
  5
205
100
AcDbEntity
  8
1
100
AcDbCircle
 10
-359.709994
 20
-348.956026
 30
0.0
 40
63.65
100
AcDbArc
 50
98.256755
 51
261.87937
  0
ARC
  5
206
100
AcDbEntity
  8
1
100
AcDbCircle
 10
-359.709994
 20
-348.956026
 30
0.0
 40
63.65
100
AcDbArc
 50
278.12063
 51
81.743245
  0
LINE
  5
207
100
AcDbEntity
  8
1
100
AcDbLine
 10
-368.701046
 20
-411.967799
 30
0.0
 11
-350.718942
 21
-411.967799
 31
0.0
  0
LINE
  5
208
100
AcDbEntity
  8
2
100
AcDbLine
 10
-272.709994
 20
379.143974
 30
0.0
 11
-272.709994
 21
305.143974
 31
0.0
  0
LINE
  5
209
100
AcDbEntity
  8
2
100
AcDbLine
 10
-428.709994
 20
392.143974
 30
0.0
 11
-280.709994
 21
392.143974
 31
0.0
  0
ARC
  5
20A
100
AcDbEntity
  8
2
100
AcDbCircle
 10
-280.709994
 20
386.143974
 30
0.0
 40
6.0
100
AcDbArc
 50
0.0
 51
90.0
  0
LINE
  5
20B
100
AcDbEntity
  8
2
100
AcDbLine
 10
-274.709994
 20
386.143974
 30
0.0
 11
-274.709994
 21
298.143974
 31
0.0
  0
LINE
  5
20C
100
AcDbEntity
  8
2
100
AcDbLine
 10
-434.709994
 20
298.143974
 30
0.0
 11
-434.709994
 21
386.143974
 31
0.0
  0
LINE
  5
20D
100
AcDbEntity
  8
2
100
AcDbLine
 10
-439.009146
 20
292.143974
 30
0.0
 11
-280.709994
 21
292.143974
 31
0.0
  0
ARC
  5
20E
100
AcDbEntity
  8
2
100
AcDbCircle
 10
-280.709994
 20
298.143974
 30
0.0
 40
6.0
100
AcDbArc
 50
270.0
 51
360.0
  0
ARC
  5
20F
100
AcDbEntity
  8
2
100
AcDbCircle
 10
-428.709994
 20
298.143974
 30
0.0
 40
6.0
100
AcDbArc
 50
180.0
 51
270.0
  0
LINE
  5
210
100
AcDbEntity
  8
2
100
AcDbLine
 10
-247.027051
 20
293.143974
 30
0.0
 11
-277.409994
 21
293.143974
 31
0.0
  0
LINE
  5
211
100
AcDbEntity
  8
2
100
AcDbLine
 10
-238.709994
 20
263.143974
 30
0.0
 11
-525.709994
 21
263.143974
 31
0.0
  0
LINE
  5
212
100
AcDbEntity
  8
2
100
AcDbLine
 10
-526.709994
 20
262.143974
 30
0.0
 11
-526.709994
 21
250.143974
 31
0.0
  0
LINE
  5
213
100
AcDbEntity
  8
2
100
AcDbLine
 10
-526.709994
 20
258.143974
 30
0.0
 11
-237.709994
 21
258.143974
 31
0.0
  0
LINE
  5
214
100
AcDbEntity
  8
2
100
AcDbLine
 10
-237.709994
 20
262.143974
 30
0.0
 11
-237.709994
 21
248.143974
 31
0.0
  0
LINE
  5
215
100
AcDbEntity
  8
2
100
AcDbLine
 10
-517.870233
 20
302.143974
 30
0.0
 11
-449.009146
 21
302.143974
 31
0.0
  0
LINE
  5
216
100
AcDbEntity
  8
2
100
AcDbLine
 10
-234.709994
 20
289.143974
 30
0.0
 11
-234.709994
 21
401.143974
 31
0.0
  0
LINE
  5
217
100
AcDbEntity
  8
2
100
AcDbLine
 10
-234.709994
 20
289.143974
 30
0.0
 11
-239.965036
 21
289.143974
 31
0.0
  0
LINE
  5
218
100
AcDbEntity
  8
2
100
AcDbLine
 10
-234.709994
 20
401.143974
 30
0.0
 11
-238.709994
 21
401.143974
 31
0.0
  0
ARC
  5
219
100
AcDbEntity
  8
2
100
AcDbCircle
 10
-238.709994
 20
400.143974
 30
0.0
 40
1.0
100
AcDbArc
 50
90.0
 51
180.0
  0
LINE
  5
21A
100
AcDbEntity
  8
2
100
AcDbLine
 10
-393.709994
 20
413.143974
 30
0.0
 11
-325.709994
 21
413.143974
 31
0.0
  0
LINE
  5
21B
100
AcDbEntity
  8
2
100
AcDbLine
 10
-310.709994
 20
416.143974
 30
0.0
 11
-284.709994
 21
416.143974
 31
0.0
  0
ARC
  5
21C
100
AcDbEntity
  8
2
100
AcDbCircle
 10
-517.709994
 20
398.143974
 30
0.0
 40
8.0
100
AcDbArc
 50
90.0
 51
270.0
  0
LINE
  5
21D
100
AcDbEntity
  8
2
100
AcDbLine
 10
-525.709994
 20
398.143974
 30
0.0
 11
-525.709994
 21
280.143974
 31
0.0
  0
LINE
  5
21E
100
AcDbEntity
  8
2
100
AcDbLine
 10
-517.709994
 20
406.143974
 30
0.0
 11
-507.35101
 21
406.143974
 31
0.0
  0
LINE
  5
21F
100
AcDbEntity
  8
2
100
AcDbLine
 10
-506.35101
 20
416.143974
 30
0.0
 11
-423.109994
 21
416.143974
 31
0.0
  0
LINE
  5
220
100
AcDbEntity
  8
2
100
AcDbLine
 10
-517.709994
 20
390.143974
 30
0.0
 11
-513.709994
 21
390.143974
 31
0.0
  0
ARC
  5
221
100
AcDbEntity
  8
2
100
AcDbCircle
 10
-517.709994
 20
280.143974
 30
0.0
 40
8.0
100
AcDbArc
 50
126.62486
 51
203.989742
  0
LINE
  5
222
100
AcDbEntity
  8
2
100
AcDbLine
 10
-510.709994
 20
398.143974
 30
0.0
 11
-510.709994
 21
307.143974
 31
0.0
  0
LINE
  5
223
100
AcDbEntity
  8
2
100
AcDbLine
 10
-422.068978
 20
406.143974
 30
0.0
 11
-394.709994
 21
406.143974
 31
0.0
  0
LINE
  5
224
100
AcDbEntity
  8
2
100
AcDbLine
 10
-324.709994
 20
406.143974
 30
0.0
 11
-313.709994
 21
406.143974
 31
0.0
  0
LINE
  5
225
100
AcDbEntity
  8
2
100
AcDbLine
 10
-281.709994
 20
406.143974
 30
0.0
 11
-275.709994
 21
406.143974
 31
0.0
  0
ARC
  5
226
100
AcDbEntity
  8
2
100
AcDbCircle
 10
-275.709994
 20
398.143974
 30
0.0
 40
8.0
100
AcDbArc
 50
0.0
 51
90.0
  0
ARC
  5
227
100
AcDbEntity
  8
2
100
AcDbCircle
 10
-240.709994
 20
399.143974
 30
0.0
 40
1.0
100
AcDbArc
 50
270.0
 51
360.0
  0
LINE
  5
228
100
AcDbEntity
  8
2
100
AcDbLine
 10
-240.709994
 20
398.143974
 30
0.0
 11
-272.977944
 21
398.143974
 31
0.0
  0
LINE
  5
229
100
AcDbEntity
  8
2
100
AcDbLine
 10
-494.259982
 20
-134.956026
 30
0.0
 11
-264.588103
 21
-134.956026
 31
0.0
  0
LINE
  5
22A
100
AcDbEntity
  8
2
100
AcDbLine
 10
-274.709994
 20
-3.956026
 30
0.0
 11
-434.709994
 21
-3.956026
 31
0.0
  0
LINE
  5
22B
100
AcDbEntity
  8
2
100
AcDbLine
 10
-274.709994
 20
-0.956026
 30
0.0
 11
-274.709994
 21
-16.334469
 31
0.0
  0
LINE
  5
22C
100
AcDbEntity
  8
2
100
AcDbLine
 10
-272.709994
 20
-6.956026
 30
0.0
 11
-272.709994
 21
-16.194616
 31
0.0
  0
LINE
  5
22D
100
AcDbEntity
  8
2
100
AcDbLine
 10
-267.709994
 20
-135.956026
 30
0.0
 11
-525.709994
 21
-135.956026
 31
0.0
  0
LINE
  5
22E
100
AcDbEntity
  8
2
100
AcDbLine
 10
-234.709994
 20
-133.956026
 30
0.0
 11
-238.709994
 21
-133.956026
 31
0.0
  0
ARC
  5
22F
100
AcDbEntity
  8
2
100
AcDbCircle
 10
-238.709994
 20
-132.956026
 30
0.0
 40
1.0
100
AcDbArc
 50
180.0
 51
270.0
  0
LINE
  5
230
100
AcDbEntity
  8
2
100
AcDbLine
 10
-234.709994
 20
-45.956026
 30
0.0
 11
-241.163074
 21
-45.956026
 31
0.0
  0
LINE
  5
231
100
AcDbEntity
  8
2
100
AcDbLine
 10
-239.709994
 20
-132.956026
 30
0.0
 11
-239.709994
 21
-102.369137
 31
0.0
  0
LINE
  5
232
100
AcDbEntity
  8
2
100
AcDbLine
 10
-239.709994
 20
-53.542915
 30
0.0
 11
-239.709994
 21
-45.956026
 31
0.0
  0
ARC
  5
233
100
AcDbEntity
  8
2
100
AcDbCircle
 10
-240.709994
 20
-131.956026
 30
0.0
 40
1.0
100
AcDbArc
 50
0.0
 51
90.0
  0
LINE
  5
234
100
AcDbEntity
  8
2
100
AcDbLine
 10
-240.709994
 20
-130.956026
 30
0.0
 11
-251.959994
 21
-130.956026
 31
0.0
  0
LINE
  5
235
100
AcDbEntity
  8
2
100
AcDbLine
 10
-240.709994
 20
-130.956026
 30
0.0
 11
-251.909994
 21
-130.956026
 31
0.0
  0
ARC
  5
236
100
AcDbEntity
  8
2
100
AcDbCircle
 10
-266.709994
 20
-135.956026
 30
0.0
 40
1.0
100
AcDbArc
 50
90.0
 51
180.0
  0
LINE
  5
237
100
AcDbEntity
  8
2
100
AcDbLine
 10
62.945448
 20
-135.956026
 30
0.0
 11
196.945448
 21
-135.956026
 31
0.0
  0
LINE
  5
238
100
AcDbEntity
  8
2
100
AcDbLine
 10
48.945448
 20
-16.054651
 30
0.0
 11
48.945448
 21
-134.956026
 31
0.0
  0
LINE
  5
239
100
AcDbEntity
  8
2
100
AcDbLine
 10
38.945448
 20
-134.956026
 30
0.0
 11
52.945448
 21
-134.956026
 31
0.0
  0
LINE
  5
23A
100
AcDbEntity
  8
2
100
AcDbLine
 10
53.945448
 20
-133.956026
 30
0.0
 11
53.945448
 21
-17.054651
 31
0.0
  0
LINE
  5
23B
100
AcDbEntity
  8
2
100
AcDbLine
 10
180.945448
 20
-157.956026
 30
0.0
 11
78.945448
 21
-157.956026
 31
0.0
  0
LINE
  5
23C
100
AcDbEntity
  8
2
100
AcDbLine
 10
196.195448
 20
-144.956026
 30
0.0
 11
63.695448
 21
-144.956026
 31
0.0
  0
LINE
  5
23D
100
AcDbEntity
  8
2
100
AcDbLine
 10
-287.709994
 20
209.143974
 30
0.0
 11
-307.709994
 21
209.143974
 31
0.0
  0
LINE
  5
23E
100
AcDbEntity
  8
2
100
AcDbLine
 10
-287.709994
 20
209.143974
 30
0.0
 11
-286.709994
 21
208.143974
 31
0.0
  0
LINE
  5
23F
100
AcDbEntity
  8
2
100
AcDbLine
 10
-286.709994
 20
201.193974
 30
0.0
 11
-286.709994
 21
208.143974
 31
0.0
  0
ARC
  5
240
100
AcDbEntity
  8
2
100
AcDbCircle
 10
-284.709994
 20
201.193974
 30
0.0
 40
2.0
100
AcDbArc
 50
180.0
 51
270.0
  0
ARC
  5
241
100
AcDbEntity
  8
2
100
AcDbCircle
 10
-253.709994
 20
193.193974
 30
0.0
 40
6.0
100
AcDbArc
 50
282.063826
 51
89.678732
  0
LINE
  5
242
100
AcDbEntity
  8
2
100
AcDbLine
 10
-289.209994
 20
199.193974
 30
0.0
 11
-286.159994
 21
199.193974
 31
0.0
  0
ARC
  5
243
100
AcDbEntity
  8
2
100
AcDbCircle
 10
-289.209994
 20
187.193974
 30
0.0
 40
12.0
100
AcDbArc
 50
90.0
 51
110.044444
  0
LINE
  5
244
100
AcDbEntity
  8
2
100
AcDbLine
 10
-269.409994
 20
199.193974
 30
0.0
 11
-266.109994
 21
199.193974
 31
0.0
  0
ARC
  5
245
100
AcDbEntity
  8
2
100
AcDbCircle
 10
-286.159994
 20
196.193974
 30
0.0
 40
3.0
100
AcDbArc
 50
0.0
 51
90.0
  0
ARC
  5
246
100
AcDbEntity
  8
2
100
AcDbCircle
 10
-288.709994
 20
197.193974
 30
0.0
 40
2.0
100
AcDbArc
 50
0.0
 51
90.0
  0
LINE
  5
247
100
AcDbEntity
  8
2
100
AcDbLine
 10
-329.992562
 20
185.143974
 30
0.0
 11
-265.427427
 21
185.143974
 31
0.0
  0
LINE
  5
248
100
AcDbEntity
  8
2
100
AcDbLine
 10
-250.991661
 20
193.193974
 30
0.0
 11
-260.204996
 21
193.193974
 31
0.0
  0
LINE
  5
249
100
AcDbEntity
  8
2
100
AcDbLine
 10
-264.868441
 20
193.193974
 30
0.0
 11
-282.159994
 21
193.193974
 31
0.0
  0
LINE
  5
24A
100
AcDbEntity
  8
2
100
AcDbLine
 10
-287.709994
 20
193.193974
 30
0.0
 11
-307.709994
 21
193.193974
 31
0.0
  0
LINE
  5
24B
100
AcDbEntity
  8
2
100
AcDbLine
 10
-286.709994
 20
194.193974
 30
0.0
 11
-286.709994
 21
197.193974
 31
0.0
  0
ARC
  5
24C
100
AcDbEntity
  8
2
100
AcDbCircle
 10
-287.709994
 20
194.193974
 30
0.0
 40
1.0
100
AcDbArc
 50
270.0
 51
360.0
  0
ARC
  5
24D
100
AcDbEntity
  8
2
100
AcDbCircle
 10
-297.709994
 20
210.443974
 30
0.0
 40
12.75
100
AcDbArc
 50
249.950024
 51
290.044444
  0
LINE
  5
24E
100
AcDbEntity
  8
2
100
AcDbLine
 10
-283.159994
 20
194.193974
 30
0.0
 11
-283.159994
 21
196.193974
 31
0.0
  0
ARC
  5
24F
100
AcDbEntity
  8
2
100
AcDbCircle
 10
-272.559994
 20
191.993974
 30
0.0
 40
9.0
100
AcDbArc
 50
15.962014
 51
39.79182
  0
ARC
  5
250
100
AcDbEntity
  8
2
100
AcDbCircle
 10
-269.959994
 20
191.993974
 30
0.0
 40
9.0
100
AcDbArc
 50
12.709033
 51
39.555556
  0
ARC
  5
251
100
AcDbEntity
  8
2
100
AcDbCircle
 10
-266.109994
 20
195.193974
 30
0.0
 40
4.0
100
AcDbArc
 50
39.555556
 51
90.0
  0
ARC
  5
252
100
AcDbEntity
  8
2
100
AcDbCircle
 10
-276.809994
 20
227.693974
 30
0.0
 40
30.0
100
AcDbArc
 50
255.130114
 51
270.0
  0
ARC
  5
253
100
AcDbEntity
  8
2
100
AcDbCircle
 10
-275.459994
 20
207.693974
 30
0.0
 40
10.0
100
AcDbArc
 50
270.0
 51
297.777778
  0
ARC
  5
254
100
AcDbEntity
  8
2
100
AcDbCircle
 10
-269.409994
 20
196.193974
 30
0.0
 40
3.0
100
AcDbArc
 50
90.0
 51
117.777778
  0
ARC
  5
255
100
AcDbEntity
  8
2
100
AcDbCircle
 10
-255.909994
 20
193.293974
 30
0.0
 40
6.0
100
AcDbArc
 50
10.36976
 51
70.754889
  0
ARC
  5
256
100
AcDbEntity
  8
2
100
AcDbCircle
 10
-255.009994
 20
193.343974
 30
0.0
 40
6.0
100
AcDbArc
 50
3.279341
 51
77.157379
  0
ARC
  5
257
100
AcDbEntity
  8
2
100
AcDbCircle
 10
-258.509994
 20
217.693974
 30
0.0
 40
20.0
100
AcDbArc
 50
255.003993
 51
270.0
  0
ARC
  5
258
100
AcDbEntity
  8
2
100
AcDbCircle
 10
-258.759994
 20
202.693974
 30
0.0
 40
5.0
100
AcDbArc
 50
270.0
 51
306.547676
  0
ARC
  5
259
100
AcDbEntity
  8
2
100
AcDbCircle
 10
-284.709994
 20
197.193974
 30
0.0
 40
2.0
100
AcDbArc
 50
35.562443
 51
90.0
  0
LINE
  5
25A
100
AcDbEntity
  8
2
100
AcDbLine
 10
-258.259994
 20
187.293974
 30
0.0
 11
-338.359994
 21
187.293974
 31
0.0
  0
LINE
  5
25B
100
AcDbEntity
  8
2
100
AcDbLine
 10
-276.809994
 20
197.693974
 30
0.0
 11
-275.459994
 21
197.693974
 31
0.0
  0
LINE
  5
25C
100
AcDbEntity
  8
2
100
AcDbLine
 10
-307.709994
 20
209.143974
 30
0.0
 11
-308.709994
 21
208.143974
 31
0.0
  0
LINE
  5
25D
100
AcDbEntity
  8
2
100
AcDbLine
 10
-308.709994
 20
201.193974
 30
0.0
 11
-308.709994
 21
208.143974
 31
0.0
  0
ARC
  5
25E
100
AcDbEntity
  8
2
100
AcDbCircle
 10
-310.709994
 20
201.193974
 30
0.0
 40
2.0
100
AcDbArc
 50
270.0
 51
360.0
  0
ARC
  5
25F
100
AcDbEntity
  8
2
100
AcDbCircle
 10
-341.709994
 20
193.193974
 30
0.0
 40
6.0
100
AcDbArc
 50
90.321268
 51
259.3
  0
LINE
  5
260
100
AcDbEntity
  8
2
100
AcDbLine
 10
-306.195276
 20
199.193974
 30
0.0
 11
-309.259994
 21
199.193974
 31
0.0
  0
LINE
  5
261
100
AcDbEntity
  8
2
100
AcDbLine
 10
-326.009994
 20
199.193974
 30
0.0
 11
-329.309994
 21
199.193974
 31
0.0
  0
ARC
  5
262
100
AcDbEntity
  8
2
100
AcDbCircle
 10
-309.259994
 20
196.193974
 30
0.0
 40
3.0
100
AcDbArc
 50
90.0
 51
180.0
  0
ARC
  5
263
100
AcDbEntity
  8
2
100
AcDbCircle
 10
-306.709994
 20
197.193974
 30
0.0
 40
2.0
100
AcDbArc
 50
90.0
 51
180.0
  0
LINE
  5
264
100
AcDbEntity
  8
2
100
AcDbLine
 10
-344.428327
 20
193.193974
 30
0.0
 11
-335.214993
 21
193.193974
 31
0.0
  0
LINE
  5
265
100
AcDbEntity
  8
2
100
AcDbLine
 10
-330.551548
 20
193.193974
 30
0.0
 11
-313.259994
 21
193.193974
 31
0.0
  0
LINE
  5
266
100
AcDbEntity
  8
2
100
AcDbLine
 10
-308.709994
 20
194.193974
 30
0.0
 11
-308.709994
 21
197.193974
 31
0.0
  0
ARC
  5
267
100
AcDbEntity
  8
2
100
AcDbCircle
 10
-307.709994
 20
194.193974
 30
0.0
 40
1.0
100
AcDbArc
 50
180.0
 51
270.0
  0
LINE
  5
268
100
AcDbEntity
  8
2
100
AcDbLine
 10
-312.259994
 20
194.193974
 30
0.0
 11
-312.259994
 21
196.193974
 31
0.0
  0
ARC
  5
269
100
AcDbEntity
  8
2
100
AcDbCircle
 10
-322.859994
 20
191.993974
 30
0.0
 40
9.0
100
AcDbArc
 50
140.208181
 51
164.037986
  0
ARC
  5
26A
100
AcDbEntity
  8
2
100
AcDbCircle
 10
-325.459994
 20
191.993974
 30
0.0
 40
9.0
100
AcDbArc
 50
140.444444
 51
167.290967
  0
ARC
  5
26B
100
AcDbEntity
  8
2
100
AcDbCircle
 10
-329.309994
 20
195.193974
 30
0.0
 40
4.0
100
AcDbArc
 50
90.0
 51
140.444444
  0
ARC
  5
26C
100
AcDbEntity
  8
2
100
AcDbCircle
 10
-318.609994
 20
227.693974
 30
0.0
 40
30.0
100
AcDbArc
 50
270.0
 51
284.869886
  0
ARC
  5
26D
100
AcDbEntity
  8
2
100
AcDbCircle
 10
-319.959994
 20
207.693974
 30
0.0
 40
10.0
100
AcDbArc
 50
242.222222
 51
270.0
  0
ARC
  5
26E
100
AcDbEntity
  8
2
100
AcDbCircle
 10
-326.009994
 20
196.193974
 30
0.0
 40
3.0
100
AcDbArc
 50
62.222222
 51
90.0
  0
ARC
  5
26F
100
AcDbEntity
  8
2
100
AcDbCircle
 10
-339.509994
 20
193.293974
 30
0.0
 40
6.0
100
AcDbArc
 50
109.245111
 51
169.63024
  0
ARC
  5
270
100
AcDbEntity
  8
2
100
AcDbCircle
 10
-340.409994
 20
193.343974
 30
0.0
 40
6.0
100
AcDbArc
 50
102.842621
 51
176.720659
  0
ARC
  5
271
100
AcDbEntity
  8
2
100
AcDbCircle
 10
-336.909994
 20
217.693974
 30
0.0
 40
20.0
100
AcDbArc
 50
270.0
 51
284.996007
  0
ARC
  5
272
100
AcDbEntity
  8
2
100
AcDbCircle
 10
-336.659994
 20
202.693974
 30
0.0
 40
5.0
100
AcDbArc
 50
233.452324
 51
270.0
  0
ARC
  5
273
100
AcDbEntity
  8
2
100
AcDbCircle
 10
-310.709994
 20
197.193974
 30
0.0
 40
2.0
100
AcDbArc
 50
90.0
 51
144.437557
  0
LINE
  5
274
100
AcDbEntity
  8
2
100
AcDbLine
 10
-318.609994
 20
197.693974
 30
0.0
 11
-319.959994
 21
197.693974
 31
0.0
  0
LINE
  5
275
100
AcDbEntity
  8
2
100
AcDbLine
 10
-286.709994
 20
208.143974
 30
0.0
 11
-308.709994
 21
208.143974
 31
0.0
  0
LINE
  5
276
100
AcDbEntity
  8
2
100
AcDbLine
 10
-308.209994
 20
199.843974
 30
0.0
 11
-287.309994
 21
199.843974
 31
0.0
  0
LINE
  5
277
100
AcDbEntity
  8
2
100
AcDbLine
 10
-303.709994
 20
212.143974
 30
0.0
 11
-303.709994
 21
209.143974
 31
0.0
  0
LINE
  5
278
100
AcDbEntity
  8
2
100
AcDbLine
 10
-291.709994
 20
209.143974
 30
0.0
 11
-291.709994
 21
212.143974
 31
0.0
  0
LINE
  5
279
100
AcDbEntity
  8
2
100
AcDbLine
 10
-0.054552
 20
-87.956026
 30
0.0
 11
-0.054552
 21
-67.956026
 31
0.0
  0
LINE
  5
27A
100
AcDbEntity
  8
2
100
AcDbLine
 10
-0.054552
 20
-87.956026
 30
0.0
 11
-1.054552
 21
-88.956026
 31
0.0
  0
LINE
  5
27B
100
AcDbEntity
  8
2
100
AcDbLine
 10
-0.054552
 20
-67.956026
 30
0.0
 11
-1.054552
 21
-66.956026
 31
0.0
  0
LINE
  5
27C
100
AcDbEntity
  8
2
100
AcDbLine
 10
-1.054552
 20
-88.956026
 30
0.0
 11
-1.054552
 21
-66.956026
 31
0.0
  0
LINE
  5
27D
100
AcDbEntity
  8
2
100
AcDbLine
 10
2.945448
 20
-71.956026
 30
0.0
 11
-0.054552
 21
-71.956026
 31
0.0
  0
LINE
  5
27E
100
AcDbEntity
  8
2
100
AcDbLine
 10
-0.054552
 20
-83.956026
 30
0.0
 11
2.945448
 21
-83.956026
 31
0.0
  0
LINE
  5
27F
100
AcDbEntity
  8
2
100
AcDbLine
 10
-264.809994
 20
375.143974
 30
0.0
 11
-264.809994
 21
349.143974
 31
0.0
  0
LINE
  5
280
100
AcDbEntity
  8
2
100
AcDbLine
 10
-269.809994
 20
377.155081
 30
0.0
 11
-269.809994
 21
347.132867
 31
0.0
  0
LINE
  5
281
100
AcDbEntity
  8
2
100
AcDbLine
 10
-265.971107
 20
347.132867
 30
0.0
 11
-269.809994
 21
347.132867
 31
0.0
  0
LINE
  5
282
100
AcDbEntity
  8
2
100
AcDbLine
 10
-265.971107
 20
354.63842
 30
0.0
 11
-269.809994
 21
354.63842
 31
0.0
  0
LINE
  5
283
100
AcDbEntity
  8
2
100
AcDbLine
 10
-265.971107
 20
369.649527
 30
0.0
 11
-269.809994
 21
369.649527
 31
0.0
  0
LINE
  5
284
100
AcDbEntity
  8
2
100
AcDbLine
 10
-265.971107
 20
377.155081
 30
0.0
 11
-269.809994
 21
377.155081
 31
0.0
  0
LINE
  5
285
100
AcDbEntity
  8
2
100
AcDbLine
 10
-264.809994
 20
349.143974
 30
0.0
 11
-265.971107
 21
347.132867
 31
0.0
  0
LINE
  5
286
100
AcDbEntity
  8
2
100
AcDbLine
 10
-264.809994
 20
375.143974
 30
0.0
 11
-265.971107
 21
377.155081
 31
0.0
  0
ARC
  5
287
100
AcDbEntity
  8
2
100
AcDbCircle
 10
-289.648881
 20
362.143974
 30
0.0
 40
24.838887
100
AcDbArc
 50
342.412046
 51
17.587954
  0
ARC
  5
288
100
AcDbEntity
  8
2
100
AcDbCircle
 10
-271.45513
 20
350.885644
 30
0.0
 40
6.645136
100
AcDbArc
 50
325.615736
 51
34.384264
  0
ARC
  5
289
100
AcDbEntity
  8
2
100
AcDbCircle
 10
-271.45513
 20
373.402304
 30
0.0
 40
6.645136
100
AcDbArc
 50
325.615736
 51
34.384264
  0
LINE
  5
28A
100
AcDbEntity
  8
2
100
AcDbLine
 10
-269.809994
 20
371.143974
 30
0.0
 11
-272.709994
 21
371.143974
 31
0.0
  0
LINE
  5
28B
100
AcDbEntity
  8
2
100
AcDbLine
 10
-272.709994
 20
353.143974
 30
0.0
 11
-269.809994
 21
353.143974
 31
0.0
  0
LINE
  5
28C
100
AcDbEntity
  8
2
100
AcDbLine
 10
-264.809994
 20
335.143974
 30
0.0
 11
-264.809994
 21
309.143974
 31
0.0
  0
LINE
  5
28D
100
AcDbEntity
  8
2
100
AcDbLine
 10
-269.809994
 20
337.155081
 30
0.0
 11
-269.809994
 21
307.132867
 31
0.0
  0
LINE
  5
28E
100
AcDbEntity
  8
2
100
AcDbLine
 10
-265.971107
 20
307.132867
 30
0.0
 11
-269.809994
 21
307.132867
 31
0.0
  0
LINE
  5
28F
100
AcDbEntity
  8
2
100
AcDbLine
 10
-265.971107
 20
314.63842
 30
0.0
 11
-269.809994
 21
314.63842
 31
0.0
  0
LINE
  5
290
100
AcDbEntity
  8
2
100
AcDbLine
 10
-265.971107
 20
329.649527
 30
0.0
 11
-269.809994
 21
329.649527
 31
0.0
  0
LINE
  5
291
100
AcDbEntity
  8
2
100
AcDbLine
 10
-265.971107
 20
337.155081
 30
0.0
 11
-269.809994
 21
337.155081
 31
0.0
  0
LINE
  5
292
100
AcDbEntity
  8
2
100
AcDbLine
 10
-264.809994
 20
309.143974
 30
0.0
 11
-265.971107
 21
307.132867
 31
0.0
  0
LINE
  5
293
100
AcDbEntity
  8
2
100
AcDbLine
 10
-264.809994
 20
335.143974
 30
0.0
 11
-265.971107
 21
337.155081
 31
0.0
  0
ARC
  5
294
100
AcDbEntity
  8
2
100
AcDbCircle
 10
-289.648881
 20
322.143974
 30
0.0
 40
24.838887
100
AcDbArc
 50
342.412046
 51
17.587954
  0
ARC
  5
295
100
AcDbEntity
  8
2
100
AcDbCircle
 10
-271.45513
 20
310.885644
 30
0.0
 40
6.645136
100
AcDbArc
 50
325.615736
 51
34.384264
  0
ARC
  5
296
100
AcDbEntity
  8
2
100
AcDbCircle
 10
-271.45513
 20
333.402304
 30
0.0
 40
6.645136
100
AcDbArc
 50
325.615736
 51
34.384264
  0
LINE
  5
297
100
AcDbEntity
  8
2
100
AcDbLine
 10
-269.809994
 20
331.143974
 30
0.0
 11
-272.709994
 21
331.143974
 31
0.0
  0
LINE
  5
298
100
AcDbEntity
  8
2
100
AcDbLine
 10
-272.709994
 20
313.143974
 30
0.0
 11
-269.809994
 21
313.143974
 31
0.0
  0
LINE
  5
299
100
AcDbEntity
  8
2
100
AcDbLine
 10
-264.709994
 20
-10.956026
 30
0.0
 11
-264.709994
 21
-16.392513
 31
0.0
  0
LINE
  5
29A
100
AcDbEntity
  8
2
100
AcDbLine
 10
-269.709994
 20
-10.956026
 30
0.0
 11
-269.709994
 21
-15.906757
 31
0.0
  0
LINE
  5
29B
100
AcDbEntity
  8
2
100
AcDbLine
 10
-264.709994
 20
-10.956026
 30
0.0
 11
-269.709994
 21
-10.956026
 31
0.0
  0
LINE
  5
29C
100
AcDbEntity
  8
2
100
AcDbLine
 10
-269.709994
 20
-14.956026
 30
0.0
 11
-272.709994
 21
-14.956026
 31
0.0
  0
ARC
  5
29D
100
AcDbEntity
  8
2
100
AcDbCircle
 10
-282.914161
 20
-17.456026
 30
0.0
 40
18.204167
100
AcDbArc
 50
3.368215
 51
20.919818
  0
CIRCLE
  5
29E
100
AcDbEntity
  8
2
100
AcDbCircle
 10
112.945448
 20
-23.956026
 30
0.0
 40
13.0
  0
LINE
  5
29F
100
AcDbEntity
  8
2
100
AcDbLine
 10
105.439895
 20
-10.956026
 30
0.0
 11
97.934341
 21
-23.956026
 31
0.0
  0
LINE
  5
2A0
100
AcDbEntity
  8
2
100
AcDbLine
 10
120.451002
 20
-10.956026
 30
0.0
 11
105.439895
 21
-10.956026
 31
0.0
  0
LINE
  5
2A1
100
AcDbEntity
  8
2
100
AcDbLine
 10
127.956555
 20
-23.956026
 30
0.0
 11
120.451002
 21
-10.956026
 31
0.0
  0
LINE
  5
2A2
100
AcDbEntity
  8
2
100
AcDbLine
 10
120.451002
 20
-36.956026
 30
0.0
 11
127.956555
 21
-23.956026
 31
0.0
  0
LINE
  5
2A3
100
AcDbEntity
  8
2
100
AcDbLine
 10
105.439895
 20
-36.956026
 30
0.0
 11
120.451002
 21
-36.956026
 31
0.0
  0
LINE
  5
2A4
100
AcDbEntity
  8
2
100
AcDbLine
 10
97.934341
 20
-23.956026
 30
0.0
 11
105.439895
 21
-36.956026
 31
0.0
  0
CIRCLE
  5
2A5
100
AcDbEntity
  8
2
100
AcDbCircle
 10
152.945448
 20
-23.956026
 30
0.0
 40
13.0
  0
LINE
  5
2A6
100
AcDbEntity
  8
2
100
AcDbLine
 10
145.439895
 20
-10.956026
 30
0.0
 11
137.934341
 21
-23.956026
 31
0.0
  0
LINE
  5
2A7
100
AcDbEntity
  8
2
100
AcDbLine
 10
160.451002
 20
-10.956026
 30
0.0
 11
145.439895
 21
-10.956026
 31
0.0
  0
LINE
  5
2A8
100
AcDbEntity
  8
2
100
AcDbLine
 10
167.956555
 20
-23.956026
 30
0.0
 11
160.451002
 21
-10.956026
 31
0.0
  0
LINE
  5
2A9
100
AcDbEntity
  8
2
100
AcDbLine
 10
160.451002
 20
-36.956026
 30
0.0
 11
167.956555
 21
-23.956026
 31
0.0
  0
LINE
  5
2AA
100
AcDbEntity
  8
2
100
AcDbLine
 10
145.439895
 20
-36.956026
 30
0.0
 11
160.451002
 21
-36.956026
 31
0.0
  0
LINE
  5
2AB
100
AcDbEntity
  8
2
100
AcDbLine
 10
137.934341
 20
-23.956026
 30
0.0
 11
145.439895
 21
-36.956026
 31
0.0
  0
ARC
  5
2AC
100
AcDbEntity
  8
2
100
AcDbCircle
 10
-428.709994
 20
386.143974
 30
0.0
 40
6.0
100
AcDbArc
 50
90.0
 51
180.0
  0
ARC
  5
2AD
100
AcDbEntity
  8
2
100
AcDbCircle
 10
-248.520638
 20
193.7158
 30
0.0
 40
0.5
100
AcDbArc
 50
183.279341
 51
259.2122
  0
ARC
  5
2AE
100
AcDbEntity
  8
2
100
AcDbCircle
 10
-250.991661
 20
194.193974
 30
0.0
 40
1.0
100
AcDbArc
 50
270.0
 51
10.36976
  0
ARC
  5
2AF
100
AcDbEntity
  8
2
100
AcDbCircle
 10
-260.204996
 20
194.193974
 30
0.0
 40
1.0
100
AcDbArc
 50
192.709033
 51
270.0
  0
ARC
  5
2B0
100
AcDbEntity
  8
2
100
AcDbCircle
 10
-248.801396
 20
192.24231
 30
0.0
 40
1.0
100
AcDbArc
 50
349.02779
 51
79.2122
  0
ARC
  5
2B1
100
AcDbEntity
  8
2
100
AcDbCircle
 10
-268.71812
 20
195.193974
 30
0.0
 40
4.0
100
AcDbArc
 50
39.79182
 51
90.0
  0
ARC
  5
2B2
100
AcDbEntity
  8
2
100
AcDbCircle
 10
-282.159994
 20
194.193974
 30
0.0
 40
1.0
100
AcDbArc
 50
180.0
 51
270.0
  0
ARC
  5
2B3
100
AcDbEntity
  8
2
100
AcDbCircle
 10
-264.868441
 20
194.193974
 30
0.0
 40
1.0
100
AcDbArc
 50
270.0
 51
15.962014
  0
ARC
  5
2B4
100
AcDbEntity
  8
2
100
AcDbCircle
 10
-346.899351
 20
193.7158
 30
0.0
 40
0.5
100
AcDbArc
 50
280.7878
 51
356.720659
  0
ARC
  5
2B5
100
AcDbEntity
  8
2
100
AcDbCircle
 10
-346.618592
 20
192.24231
 30
0.0
 40
1.0
100
AcDbArc
 50
100.7878
 51
190.97221
  0
ARC
  5
2B6
100
AcDbEntity
  8
2
100
AcDbCircle
 10
-344.428327
 20
194.193974
 30
0.0
 40
1.0
100
AcDbArc
 50
169.63024
 51
270.0
  0
ARC
  5
2B7
100
AcDbEntity
  8
2
100
AcDbCircle
 10
-335.214993
 20
194.193974
 30
0.0
 40
1.0
100
AcDbArc
 50
270.0
 51
347.290967
  0
ARC
  5
2B8
100
AcDbEntity
  8
2
100
AcDbCircle
 10
-326.701869
 20
195.193974
 30
0.0
 40
4.0
100
AcDbArc
 50
90.0
 51
140.208181
  0
ARC
  5
2B9
100
AcDbEntity
  8
2
100
AcDbCircle
 10
-313.259994
 20
194.193974
 30
0.0
 40
1.0
100
AcDbArc
 50
270.0
 51
360.0
  0
ARC
  5
2BA
100
AcDbEntity
  8
2
100
AcDbCircle
 10
-330.551548
 20
194.193974
 30
0.0
 40
1.0
100
AcDbArc
 50
164.037986
 51
270.0
  0
ARC
  5
2BB
100
AcDbEntity
  8
2
100
AcDbCircle
 10
-311.613822
 20
334.013789
 30
0.0
 40
150.0
100
AcDbArc
 50
257.936174
 51
262.962154
  0
ARC
  5
2BC
100
AcDbEntity
  8
2
100
AcDbCircle
 10
-283.806167
 20
334.013789
 30
0.0
 40
150.0
100
AcDbArc
 50
277.037846
 51
282.063826
  0
LINE
  5
2BD
100
AcDbEntity
  8
2
100
AcDbLine
 10
-8.004552
 20
-88.956026
 30
0.0
 11
-1.054552
 21
-88.956026
 31
0.0
  0
ARC
  5
2BE
100
AcDbEntity
  8
2
100
AcDbCircle
 10
-8.004552
 20
-90.956026
 30
0.0
 40
2.0
100
AcDbArc
 50
90.0
 51
180.0
  0
ARC
  5
2BF
100
AcDbEntity
  8
2
100
AcDbCircle
 10
-16.004552
 20
-121.956026
 30
0.0
 40
6.0
100
AcDbArc
 50
192.063826
 51
359.678732
  0
LINE
  5
2C0
100
AcDbEntity
  8
2
100
AcDbLine
 10
-10.004552
 20
-86.456026
 30
0.0
 11
-10.004552
 21
-89.506026
 31
0.0
  0
ARC
  5
2C1
100
AcDbEntity
  8
2
100
AcDbCircle
 10
-22.004552
 20
-86.456026
 30
0.0
 40
12.0
100
AcDbArc
 50
0.0
 51
20.044444
  0
LINE
  5
2C2
100
AcDbEntity
  8
2
100
AcDbLine
 10
-10.004552
 20
-106.256026
 30
0.0
 11
-10.004552
 21
-109.556026
 31
0.0
  0
ARC
  5
2C3
100
AcDbEntity
  8
2
100
AcDbCircle
 10
-13.004552
 20
-89.506026
 30
0.0
 40
3.0
100
AcDbArc
 50
270.0
 51
360.0
  0
ARC
  5
2C4
100
AcDbEntity
  8
2
100
AcDbCircle
 10
-12.004552
 20
-86.956026
 30
0.0
 40
2.0
100
AcDbArc
 50
270.0
 51
360.0
  0
LINE
  5
2C5
100
AcDbEntity
  8
2
100
AcDbLine
 10
-24.054552
 20
-45.673459
 30
0.0
 11
-24.054552
 21
-110.238593
 31
0.0
  0
LINE
  5
2C6
100
AcDbEntity
  8
2
100
AcDbLine
 10
-16.004552
 20
-124.674359
 30
0.0
 11
-16.004552
 21
-115.461025
 31
0.0
  0
LINE
  5
2C7
100
AcDbEntity
  8
2
100
AcDbLine
 10
-16.004552
 20
-110.79758
 30
0.0
 11
-16.004552
 21
-93.506026
 31
0.0
  0
LINE
  5
2C8
100
AcDbEntity
  8
2
100
AcDbLine
 10
-16.004552
 20
-87.956026
 30
0.0
 11
-16.004552
 21
-67.956026
 31
0.0
  0
LINE
  5
2C9
100
AcDbEntity
  8
2
100
AcDbLine
 10
-15.004552
 20
-88.956026
 30
0.0
 11
-12.004552
 21
-88.956026
 31
0.0
  0
ARC
  5
2CA
100
AcDbEntity
  8
2
100
AcDbCircle
 10
-15.004552
 20
-87.956026
 30
0.0
 40
1.0
100
AcDbArc
 50
180.0
 51
270.0
  0
ARC
  5
2CB
100
AcDbEntity
  8
2
100
AcDbCircle
 10
1.245448
 20
-77.956026
 30
0.0
 40
12.75
100
AcDbArc
 50
159.950024
 51
200.044444
  0
LINE
  5
2CC
100
AcDbEntity
  8
2
100
AcDbLine
 10
-15.004552
 20
-92.506026
 30
0.0
 11
-13.004552
 21
-92.506026
 31
0.0
  0
ARC
  5
2CD
100
AcDbEntity
  8
2
100
AcDbCircle
 10
-17.204552
 20
-103.106026
 30
0.0
 40
9.0
100
AcDbArc
 50
285.962014
 51
309.79182
  0
ARC
  5
2CE
100
AcDbEntity
  8
2
100
AcDbCircle
 10
-17.204552
 20
-105.706026
 30
0.0
 40
9.0
100
AcDbArc
 50
282.709033
 51
309.555556
  0
ARC
  5
2CF
100
AcDbEntity
  8
2
100
AcDbCircle
 10
-14.004552
 20
-109.556026
 30
0.0
 40
4.0
100
AcDbArc
 50
309.555556
 51
360.0
  0
ARC
  5
2D0
100
AcDbEntity
  8
2
100
AcDbCircle
 10
18.495448
 20
-98.856026
 30
0.0
 40
30.0
100
AcDbArc
 50
165.130114
 51
180.0
  0
ARC
  5
2D1
100
AcDbEntity
  8
2
100
AcDbCircle
 10
-1.504552
 20
-100.206026
 30
0.0
 40
10.0
100
AcDbArc
 50
180.0
 51
207.777778
  0
ARC
  5
2D2
100
AcDbEntity
  8
2
100
AcDbCircle
 10
-13.004552
 20
-106.256026
 30
0.0
 40
3.0
100
AcDbArc
 50
0.0
 51
27.777778
  0
ARC
  5
2D3
100
AcDbEntity
  8
2
100
AcDbCircle
 10
-15.904552
 20
-119.756026
 30
0.0
 40
6.0
100
AcDbArc
 50
280.36976
 51
340.754889
  0
ARC
  5
2D4
100
AcDbEntity
  8
2
100
AcDbCircle
 10
-15.854552
 20
-120.656026
 30
0.0
 40
6.0
100
AcDbArc
 50
273.279341
 51
347.157379
  0
ARC
  5
2D5
100
AcDbEntity
  8
2
100
AcDbCircle
 10
8.495448
 20
-117.156026
 30
0.0
 40
20.0
100
AcDbArc
 50
165.003993
 51
180.0
  0
ARC
  5
2D6
100
AcDbEntity
  8
2
100
AcDbCircle
 10
-6.504552
 20
-116.906026
 30
0.0
 40
5.0
100
AcDbArc
 50
180.0
 51
216.547676
  0
ARC
  5
2D7
100
AcDbEntity
  8
2
100
AcDbCircle
 10
-12.004552
 20
-90.956026
 30
0.0
 40
2.0
100
AcDbArc
 50
305.562443
 51
360.0
  0
LINE
  5
2D8
100
AcDbEntity
  8
2
100
AcDbLine
 10
-21.904552
 20
-117.406026
 30
0.0
 11
-21.904552
 21
-37.306026
 31
0.0
  0
LINE
  5
2D9
100
AcDbEntity
  8
2
100
AcDbLine
 10
-11.504552
 20
-98.856026
 30
0.0
 11
-11.504552
 21
-100.206026
 31
0.0
  0
LINE
  5
2DA
100
AcDbEntity
  8
2
100
AcDbLine
 10
-8.004552
 20
-66.956026
 30
0.0
 11
-1.054552
 21
-66.956026
 31
0.0
  0
ARC
  5
2DB
100
AcDbEntity
  8
2
100
AcDbCircle
 10
-8.004552
 20
-64.956026
 30
0.0
 40
2.0
100
AcDbArc
 50
180.0
 51
270.0
  0
ARC
  5
2DC
100
AcDbEntity
  8
2
100
AcDbCircle
 10
-16.004552
 20
-33.956026
 30
0.0
 40
6.0
100
AcDbArc
 50
0.321268
 51
169.3
  0
LINE
  5
2DD
100
AcDbEntity
  8
2
100
AcDbLine
 10
-10.004552
 20
-69.470745
 30
0.0
 11
-10.004552
 21
-66.406026
 31
0.0
  0
LINE
  5
2DE
100
AcDbEntity
  8
2
100
AcDbLine
 10
-10.004552
 20
-49.656026
 30
0.0
 11
-10.004552
 21
-46.356026
 31
0.0
  0
ARC
  5
2DF
100
AcDbEntity
  8
2
100
AcDbCircle
 10
-13.004552
 20
-66.406026
 30
0.0
 40
3.0
100
AcDbArc
 50
0.0
 51
90.0
  0
ARC
  5
2E0
100
AcDbEntity
  8
2
100
AcDbCircle
 10
-12.004552
 20
-68.956026
 30
0.0
 40
2.0
100
AcDbArc
 50
0.0
 51
90.0
  0
LINE
  5
2E1
100
AcDbEntity
  8
2
100
AcDbLine
 10
-16.004552
 20
-31.237693
 30
0.0
 11
-16.004552
 21
-40.451027
 31
0.0
  0
LINE
  5
2E2
100
AcDbEntity
  8
2
100
AcDbLine
 10
-16.004552
 20
-45.114472
 30
0.0
 11
-16.004552
 21
-62.406026
 31
0.0
  0
LINE
  5
2E3
100
AcDbEntity
  8
2
100
AcDbLine
 10
-15.004552
 20
-66.956026
 30
0.0
 11
-12.004552
 21
-66.956026
 31
0.0
  0
ARC
  5
2E4
100
AcDbEntity
  8
2
100
AcDbCircle
 10
-15.004552
 20
-67.956026
 30
0.0
 40
1.0
100
AcDbArc
 50
90.0
 51
180.0
  0
LINE
  5
2E5
100
AcDbEntity
  8
2
100
AcDbLine
 10
-15.004552
 20
-63.406026
 30
0.0
 11
-13.004552
 21
-63.406026
 31
0.0
  0
ARC
  5
2E6
100
AcDbEntity
  8
2
100
AcDbCircle
 10
-17.204552
 20
-52.806026
 30
0.0
 40
9.0
100
AcDbArc
 50
50.208181
 51
74.037986
  0
ARC
  5
2E7
100
AcDbEntity
  8
2
100
AcDbCircle
 10
-17.204552
 20
-50.206026
 30
0.0
 40
9.0
100
AcDbArc
 50
50.444444
 51
77.290967
  0
ARC
  5
2E8
100
AcDbEntity
  8
2
100
AcDbCircle
 10
-14.004552
 20
-46.356026
 30
0.0
 40
4.0
100
AcDbArc
 50
0.0
 51
50.444444
  0
ARC
  5
2E9
100
AcDbEntity
  8
2
100
AcDbCircle
 10
18.495448
 20
-57.056026
 30
0.0
 40
30.0
100
AcDbArc
 50
180.0
 51
194.869886
  0
ARC
  5
2EA
100
AcDbEntity
  8
2
100
AcDbCircle
 10
-1.504552
 20
-55.706026
 30
0.0
 40
10.0
100
AcDbArc
 50
152.222222
 51
180.0
  0
ARC
  5
2EB
100
AcDbEntity
  8
2
100
AcDbCircle
 10
-13.004552
 20
-49.656026
 30
0.0
 40
3.0
100
AcDbArc
 50
332.222222
 51
360.0
  0
ARC
  5
2EC
100
AcDbEntity
  8
2
100
AcDbCircle
 10
-15.904552
 20
-36.156026
 30
0.0
 40
6.0
100
AcDbArc
 50
19.245111
 51
79.63024
  0
ARC
  5
2ED
100
AcDbEntity
  8
2
100
AcDbCircle
 10
-15.854552
 20
-35.256026
 30
0.0
 40
6.0
100
AcDbArc
 50
12.842621
 51
86.720659
  0
ARC
  5
2EE
100
AcDbEntity
  8
2
100
AcDbCircle
 10
8.495448
 20
-38.756026
 30
0.0
 40
20.0
100
AcDbArc
 50
180.0
 51
194.996007
  0
ARC
  5
2EF
100
AcDbEntity
  8
2
100
AcDbCircle
 10
-6.504552
 20
-39.006026
 30
0.0
 40
5.0
100
AcDbArc
 50
143.452324
 51
180.0
  0
ARC
  5
2F0
100
AcDbEntity
  8
2
100
AcDbCircle
 10
-12.004552
 20
-64.956026
 30
0.0
 40
2.0
100
AcDbArc
 50
0.0
 51
54.437557
  0
LINE
  5
2F1
100
AcDbEntity
  8
2
100
AcDbLine
 10
-11.504552
 20
-57.056026
 30
0.0
 11
-11.504552
 21
-55.706026
 31
0.0
  0
LINE
  5
2F2
100
AcDbEntity
  8
2
100
AcDbLine
 10
-9.354552
 20
-67.456026
 30
0.0
 11
-9.354552
 21
-88.356026
 31
0.0
  0
ARC
  5
2F3
100
AcDbEntity
  8
2
100
AcDbCircle
 10
-15.482725
 20
-127.145382
 30
0.0
 40
0.5
100
AcDbArc
 50
93.279341
 51
169.2122
  0
ARC
  5
2F4
100
AcDbEntity
  8
2
100
AcDbCircle
 10
-15.004552
 20
-124.674359
 30
0.0
 40
1.0
100
AcDbArc
 50
180.0
 51
280.36976
  0
ARC
  5
2F5
100
AcDbEntity
  8
2
100
AcDbCircle
 10
-15.004552
 20
-115.461025
 30
0.0
 40
1.0
100
AcDbArc
 50
102.709033
 51
180.0
  0
ARC
  5
2F6
100
AcDbEntity
  8
2
100
AcDbCircle
 10
-16.956216
 20
-126.864624
 30
0.0
 40
1.0
100
AcDbArc
 50
259.02779
 51
349.2122
  0
ARC
  5
2F7
100
AcDbEntity
  8
2
100
AcDbCircle
 10
-14.004552
 20
-106.947901
 30
0.0
 40
4.0
100
AcDbArc
 50
309.79182
 51
360.0
  0
ARC
  5
2F8
100
AcDbEntity
  8
2
100
AcDbCircle
 10
-15.004552
 20
-93.506026
 30
0.0
 40
1.0
100
AcDbArc
 50
90.0
 51
180.0
  0
ARC
  5
2F9
100
AcDbEntity
  8
2
100
AcDbCircle
 10
-15.004552
 20
-110.79758
 30
0.0
 40
1.0
100
AcDbArc
 50
180.0
 51
285.962014
  0
ARC
  5
2FA
100
AcDbEntity
  8
2
100
AcDbCircle
 10
-15.482725
 20
-28.76667
 30
0.0
 40
0.5
100
AcDbArc
 50
190.7878
 51
266.720659
  0
ARC
  5
2FB
100
AcDbEntity
  8
2
100
AcDbCircle
 10
-16.956216
 20
-29.047428
 30
0.0
 40
1.0
100
AcDbArc
 50
10.7878
 51
100.97221
  0
ARC
  5
2FC
100
AcDbEntity
  8
2
100
AcDbCircle
 10
-15.004552
 20
-31.237693
 30
0.0
 40
1.0
100
AcDbArc
 50
79.63024
 51
180.0
  0
ARC
  5
2FD
100
AcDbEntity
  8
2
100
AcDbCircle
 10
-15.004552
 20
-40.451027
 30
0.0
 40
1.0
100
AcDbArc
 50
180.0
 51
257.290967
  0
ARC
  5
2FE
100
AcDbEntity
  8
2
100
AcDbCircle
 10
-14.004552
 20
-48.964152
 30
0.0
 40
4.0
100
AcDbArc
 50
0.0
 51
50.208181
  0
ARC
  5
2FF
100
AcDbEntity
  8
2
100
AcDbCircle
 10
-15.004552
 20
-62.406026
 30
0.0
 40
1.0
100
AcDbArc
 50
180.0
 51
270.0
  0
ARC
  5
300
100
AcDbEntity
  8
2
100
AcDbCircle
 10
-15.004552
 20
-45.114472
 30
0.0
 40
1.0
100
AcDbArc
 50
74.037986
 51
180.0
  0
ARC
  5
301
100
AcDbEntity
  8
2
100
AcDbCircle
 10
124.815264
 20
-64.052199
 30
0.0
 40
150.0
100
AcDbArc
 50
167.936174
 51
172.962154
  0
ARC
  5
302
100
AcDbEntity
  8
2
100
AcDbCircle
 10
124.815264
 20
-91.859853
 30
0.0
 40
150.0
100
AcDbArc
 50
187.037846
 51
192.063826
  0
ARC
  5
303
100
AcDbEntity
  8
2
100
AcDbCircle
 10
-22.004552
 20
-69.470745
 30
0.0
 40
12.0
100
AcDbArc
 50
339.950024
 51
360.0
  0
ARC
  5
304
100
AcDbEntity
  8
2
100
AcDbCircle
 10
-306.195276
 20
187.193974
 30
0.0
 40
12.0
100
AcDbArc
 50
69.950024
 51
90.0
  0
ARC
  5
305
100
AcDbEntity
  8
2
100
AcDbCircle
 10
-254.591554
 20
197.070443
 30
0.0
 40
2.0
100
AcDbArc
 50
70.754889
 51
126.547676
  0
LINE
  5
306
100
AcDbEntity
  8
2
100
AcDbLine
 10
-254.828595
 20
199.056346
 30
0.0
 11
-253.676351
 21
199.19388
 31
0.0
  0
ARC
  5
307
100
AcDbEntity
  8
2
100
AcDbCircle
 10
-340.828435
 20
197.070443
 30
0.0
 40
2.0
100
AcDbArc
 50
53.452324
 51
109.245111
  0
LINE
  5
308
100
AcDbEntity
  8
2
100
AcDbLine
 10
-341.743637
 20
199.19388
 30
0.0
 11
-340.591394
 21
199.056346
 31
0.0
  0
ARC
  5
309
100
AcDbEntity
  8
2
100
AcDbCircle
 10
-12.128083
 20
-34.837586
 30
0.0
 40
2.0
100
AcDbArc
 50
323.452324
 51
19.245111
  0
LINE
  5
30A
100
AcDbEntity
  8
2
100
AcDbLine
 10
-10.004646
 20
-33.922383
 30
0.0
 11
-10.14218
 21
-35.074627
 31
0.0
  0
ARC
  5
30B
100
AcDbEntity
  8
2
100
AcDbCircle
 10
-12.128083
 20
-121.074466
 30
0.0
 40
2.0
100
AcDbArc
 50
340.754889
 51
36.547676
  0
LINE
  5
30C
100
AcDbEntity
  8
2
100
AcDbLine
 10
-10.004646
 20
-121.989669
 30
0.0
 11
-10.14218
 21
-120.837425
 31
0.0
  0
LINE
  5
30D
100
AcDbEntity
  8
2
100
AcDbLine
 10
-273.709994
 20
380.143974
 30
0.0
 11
-241.709994
 21
380.143974
 31
0.0
  0
LINE
  5
30E
100
AcDbEntity
  8
2
100
AcDbLine
 10
-273.709994
 20
304.143974
 30
0.0
 11
-241.709994
 21
304.143974
 31
0.0
  0
LINE
  5
30F
100
AcDbEntity
  8
2
100
AcDbLine
 10
-239.709994
 20
289.143974
 30
0.0
 11
-239.709994
 21
302.143974
 31
0.0
  0
LINE
  5
310
100
AcDbEntity
  8
2
100
AcDbLine
 10
-239.709994
 20
382.143974
 30
0.0
 11
-239.709994
 21
400.143974
 31
0.0
  0
LINE
  5
311
100
AcDbEntity
  8
2
100
AcDbLine
 10
-434.252481
 20
399.143974
 30
0.0
 11
-274.709994
 21
399.143974
 31
0.0
  0
LINE
  5
312
100
AcDbEntity
  8
2
100
AcDbLine
 10
123.382948
 20
-88.756026
 30
0.0
 11
123.382948
 21
-93.706026
 31
0.0
  0
LINE
  5
313
100
AcDbEntity
  8
2
100
AcDbLine
 10
118.732948
 20
-87.481026
 30
0.0
 11
121.357948
 21
-86.206026
 31
0.0
  0
LINE
  5
314
100
AcDbEntity
  8
2
100
AcDbLine
 10
123.982948
 20
-87.481026
 30
0.0
 11
123.982948
 21
-86.206026
 31
0.0
  0
LINE
  5
315
100
AcDbEntity
  8
2
100
AcDbLine
 10
124.732948
 20
-89.623883
 30
0.0
 11
124.732948
 21
-91.563169
 31
0.0
  0
LINE
  5
316
100
AcDbEntity
  8
2
100
AcDbLine
 10
131.257948
 20
-89.623883
 30
0.0
 11
131.257948
 21
-91.563169
 31
0.0
  0
LINE
  5
317
100
AcDbEntity
  8
2
100
AcDbLine
 10
126.757948
 20
-89.602455
 30
0.0
 11
126.757948
 21
-91.584598
 31
0.0
  0
LINE
  5
318
100
AcDbEntity
  8
2
100
AcDbLine
 10
129.232948
 20
-89.602455
 30
0.0
 11
129.232948
 21
-91.584598
 31
0.0
  0
ARC
  5
319
100
AcDbEntity
  8
2
100
AcDbCircle
 10
126.875806
 20
-91.563169
 30
0.0
 40
2.142857
100
AcDbArc
 50
180.0
 51
270.0
  0
ARC
  5
31A
100
AcDbEntity
  8
2
100
AcDbCircle
 10
129.115091
 20
-91.563169
 30
0.0
 40
2.142857
100
AcDbArc
 50
270.0
 51
360.0
  0
ARC
  5
31B
100
AcDbEntity
  8
2
100
AcDbCircle
 10
126.875806
 20
-89.623883
 30
0.0
 40
2.142857
100
AcDbArc
 50
90.0
 51
180.0
  0
ARC
  5
31C
100
AcDbEntity
  8
2
100
AcDbCircle
 10
129.115091
 20
-89.623883
 30
0.0
 40
2.142857
100
AcDbArc
 50
360.0
 51
90.0
  0
ARC
  5
31D
100
AcDbEntity
  8
2
100
AcDbCircle
 10
127.829377
 20
-91.584598
 30
0.0
 40
1.071429
100
AcDbArc
 50
180.0
 51
270.0
  0
ARC
  5
31E
100
AcDbEntity
  8
2
100
AcDbCircle
 10
128.16152
 20
-91.584598
 30
0.0
 40
1.071429
100
AcDbArc
 50
270.0
 51
360.0
  0
ARC
  5
31F
100
AcDbEntity
  8
2
100
AcDbCircle
 10
128.16152
 20
-89.602455
 30
0.0
 40
1.071429
100
AcDbArc
 50
0.0
 51
90.0
  0
ARC
  5
320
100
AcDbEntity
  8
2
100
AcDbCircle
 10
127.829377
 20
-89.602455
 30
0.0
 40
1.071429
100
AcDbArc
 50
90.0
 51
180.0
  0
LINE
  5
321
100
AcDbEntity
  8
2
100
AcDbLine
 10
121.357948
 20
-93.706026
 30
0.0
 11
123.382948
 21
-93.706026
 31
0.0
  0
LINE
  5
322
100
AcDbEntity
  8
2
100
AcDbLine
 10
132.382948
 20
-87.481026
 30
0.0
 11
131.932948
 21
-93.706026
 31
0.0
  0
LINE
  5
323
100
AcDbEntity
  8
2
100
AcDbLine
 10
139.507948
 20
-87.481026
 30
0.0
 11
139.957948
 21
-93.706026
 31
0.0
  0
LINE
  5
324
100
AcDbEntity
  8
2
100
AcDbLine
 10
134.182948
 20
-88.531026
 30
0.0
 11
133.957948
 21
-93.706026
 31
0.0
  0
LINE
  5
325
100
AcDbEntity
  8
2
100
AcDbLine
 10
137.707948
 20
-88.531026
 30
0.0
 11
137.932948
 21
-93.706026
 31
0.0
  0
LINE
  5
326
100
AcDbEntity
  8
2
100
AcDbLine
 10
134.182948
 20
-88.531026
 30
0.0
 11
135.147234
 21
-93.706026
 31
0.0
  0
LINE
  5
327
100
AcDbEntity
  8
2
100
AcDbLine
 10
137.707948
 20
-88.531026
 30
0.0
 11
136.743663
 21
-93.706026
 31
0.0
  0
LINE
  5
328
100
AcDbEntity
  8
2
100
AcDbLine
 10
135.945448
 20
-91.209598
 30
0.0
 11
135.250684
 21
-87.481026
 31
0.0
  0
LINE
  5
329
100
AcDbEntity
  8
2
100
AcDbLine
 10
135.945448
 20
-91.209598
 30
0.0
 11
136.640213
 21
-87.481026
 31
0.0
  0
LINE
  5
32A
100
AcDbEntity
  8
2
100
AcDbLine
 10
126.875806
 20
-87.481026
 30
0.0
 11
129.115091
 21
-87.481026
 31
0.0
  0
LINE
  5
32B
100
AcDbEntity
  8
2
100
AcDbLine
 10
132.382948
 20
-87.481026
 30
0.0
 11
135.250684
 21
-87.481026
 31
0.0
  0
LINE
  5
32C
100
AcDbEntity
  8
2
100
AcDbLine
 10
126.875806
 20
-93.706026
 30
0.0
 11
129.115091
 21
-93.706026
 31
0.0
  0
LINE
  5
32D
100
AcDbEntity
  8
2
100
AcDbLine
 10
131.932948
 20
-93.706026
 30
0.0
 11
133.957948
 21
-93.706026
 31
0.0
  0
LINE
  5
32E
100
AcDbEntity
  8
2
100
AcDbLine
 10
135.147234
 20
-93.706026
 30
0.0
 11
136.743663
 21
-93.706026
 31
0.0
  0
ARC
  5
32F
100
AcDbEntity
  8
2
100
AcDbCircle
 10
142.775806
 20
-91.563169
 30
0.0
 40
2.142857
100
AcDbArc
 50
180.0
 51
270.0
  0
ARC
  5
330
100
AcDbEntity
  8
2
100
AcDbCircle
 10
145.015091
 20
-91.563169
 30
0.0
 40
2.142857
100
AcDbArc
 50
270.0
 51
360.0
  0
ARC
  5
331
100
AcDbEntity
  8
2
100
AcDbCircle
 10
144.06152
 20
-91.584598
 30
0.0
 40
1.071429
100
AcDbArc
 50
270.0
 51
360.0
  0
LINE
  5
332
100
AcDbEntity
  8
2
100
AcDbLine
 10
145.132948
 20
-89.602455
 30
0.0
 11
145.132948
 21
-91.584598
 31
0.0
  0
ARC
  5
333
100
AcDbEntity
  8
2
100
AcDbCircle
 10
143.729377
 20
-91.584598
 30
0.0
 40
1.071429
100
AcDbArc
 50
180.0
 51
270.0
  0
LINE
  5
334
100
AcDbEntity
  8
2
100
AcDbLine
 10
142.657948
 20
-89.602455
 30
0.0
 11
142.657948
 21
-91.584598
 31
0.0
  0
ARC
  5
335
100
AcDbEntity
  8
2
100
AcDbCircle
 10
144.06152
 20
-89.602455
 30
0.0
 40
1.071429
100
AcDbArc
 50
0.0
 51
90.0
  0
ARC
  5
336
100
AcDbEntity
  8
2
100
AcDbCircle
 10
143.729377
 20
-89.602455
 30
0.0
 40
1.071429
100
AcDbArc
 50
90.0
 51
180.0
  0
ARC
  5
337
100
AcDbEntity
  8
2
100
AcDbCircle
 10
142.775806
 20
-89.623883
 30
0.0
 40
2.142857
100
AcDbArc
 50
90.0
 51
180.0
  0
ARC
  5
338
100
AcDbEntity
  8
2
100
AcDbCircle
 10
145.015091
 20
-89.623883
 30
0.0
 40
2.142857
100
AcDbArc
 50
360.0
 51
90.0
  0
LINE
  5
339
100
AcDbEntity
  8
2
100
AcDbLine
 10
147.157948
 20
-89.623883
 30
0.0
 11
147.157948
 21
-91.563169
 31
0.0
  0
LINE
  5
33A
100
AcDbEntity
  8
2
100
AcDbLine
 10
128.16152
 20
-88.531026
 30
0.0
 11
127.829377
 21
-88.531026
 31
0.0
  0
LINE
  5
33B
100
AcDbEntity
  8
2
100
AcDbLine
 10
128.16152
 20
-92.656026
 30
0.0
 11
127.829377
 21
-92.656026
 31
0.0
  0
LINE
  5
33C
100
AcDbEntity
  8
2
100
AcDbLine
 10
143.729377
 20
-88.531026
 30
0.0
 11
144.06152
 21
-88.531026
 31
0.0
  0
LINE
  5
33D
100
AcDbEntity
  8
2
100
AcDbLine
 10
140.632948
 20
-89.623883
 30
0.0
 11
140.632948
 21
-91.563169
 31
0.0
  0
LINE
  5
33E
100
AcDbEntity
  8
2
100
AcDbLine
 10
136.640213
 20
-87.481026
 30
0.0
 11
139.507948
 21
-87.481026
 31
0.0
  0
LINE
  5
33F
100
AcDbEntity
  8
2
100
AcDbLine
 10
142.775806
 20
-87.481026
 30
0.0
 11
145.015091
 21
-87.481026
 31
0.0
  0
LINE
  5
340
100
AcDbEntity
  8
2
100
AcDbLine
 10
137.932948
 20
-93.706026
 30
0.0
 11
139.957948
 21
-93.706026
 31
0.0
  0
LINE
  5
341
100
AcDbEntity
  8
2
100
AcDbLine
 10
142.775806
 20
-93.706026
 30
0.0
 11
145.015091
 21
-93.706026
 31
0.0
  0
LINE
  5
342
100
AcDbEntity
  8
2
100
AcDbLine
 10
148.057948
 20
-87.631026
 30
0.0
 11
148.057948
 21
-93.556026
 31
0.0
  0
LINE
  5
343
100
AcDbEntity
  8
2
100
AcDbLine
 10
148.057948
 20
-87.631026
 30
0.0
 11
152.932948
 21
-87.631026
 31
0.0
  0
LINE
  5
344
100
AcDbEntity
  8
2
100
AcDbLine
 10
148.057948
 20
-93.556026
 30
0.0
 11
152.932948
 21
-93.556026
 31
0.0
  0
LINE
  5
345
100
AcDbEntity
  8
2
100
AcDbLine
 10
150.082948
 20
-92.431026
 30
0.0
 11
152.932948
 21
-92.431026
 31
0.0
  0
LINE
  5
346
100
AcDbEntity
  8
2
100
AcDbLine
 10
150.082948
 20
-88.756026
 30
0.0
 11
152.932948
 21
-88.756026
 31
0.0
  0
LINE
  5
347
100
AcDbEntity
  8
2
100
AcDbLine
 10
150.082948
 20
-91.156026
 30
0.0
 11
152.932948
 21
-91.156026
 31
0.0
  0
LINE
  5
348
100
AcDbEntity
  8
2
100
AcDbLine
 10
150.082948
 20
-90.031026
 30
0.0
 11
152.932948
 21
-90.031026
 31
0.0
  0
LINE
  5
349
100
AcDbEntity
  8
2
100
AcDbLine
 10
152.932948
 20
-88.756026
 30
0.0
 11
152.932948
 21
-87.631026
 31
0.0
  0
LINE
  5
34A
100
AcDbEntity
  8
2
100
AcDbLine
 10
152.932948
 20
-93.556026
 30
0.0
 11
152.932948
 21
-92.431026
 31
0.0
  0
LINE
  5
34B
100
AcDbEntity
  8
2
100
AcDbLine
 10
152.932948
 20
-91.156026
 30
0.0
 11
152.932948
 21
-90.031026
 31
0.0
  0
LINE
  5
34C
100
AcDbEntity
  8
2
100
AcDbLine
 10
150.082948
 20
-92.431026
 30
0.0
 11
150.082948
 21
-91.156026
 31
0.0
  0
LINE
  5
34D
100
AcDbEntity
  8
2
100
AcDbLine
 10
150.082948
 20
-90.031026
 30
0.0
 11
150.082948
 21
-88.756026
 31
0.0
  0
LINE
  5
34E
100
AcDbEntity
  8
2
100
AcDbLine
 10
118.732948
 20
-88.756026
 30
0.0
 11
123.382948
 21
-88.756026
 31
0.0
  0
LINE
  5
34F
100
AcDbEntity
  8
2
100
AcDbLine
 10
121.357948
 20
-86.206026
 30
0.0
 11
121.357948
 21
-93.706026
 31
0.0
  0
LINE
  5
350
100
AcDbEntity
  8
2
100
AcDbLine
 10
118.732948
 20
-90.031026
 30
0.0
 11
126.607948
 21
-86.206026
 31
0.0
  0
LINE
  5
351
100
AcDbEntity
  8
2
100
AcDbLine
 10
118.732948
 20
-86.206026
 30
0.0
 11
118.732948
 21
-90.031026
 31
0.0
  0
LINE
  5
352
100
AcDbEntity
  8
2
100
AcDbLine
 10
118.732948
 20
-88.756026
 30
0.0
 11
123.982948
 21
-86.206026
 31
0.0
  0
LINE
  5
353
100
AcDbEntity
  8
2
100
AcDbLine
 10
118.732948
 20
-86.206026
 30
0.0
 11
126.607948
 21
-86.206026
 31
0.0
  0
LINE
  5
354
100
AcDbEntity
  8
2
100
AcDbLine
 10
118.732948
 20
-87.481026
 30
0.0
 11
123.982948
 21
-87.481026
 31
0.0
  0
LINE
  5
355
100
AcDbEntity
  8
2
100
AcDbLine
 10
143.729377
 20
-92.656026
 30
0.0
 11
144.06152
 21
-92.656026
 31
0.0
  0
LINE
  5
356
100
AcDbEntity
  8
2
100
AcDbLine
 10
206.945448
 20
-121.956026
 30
0.0
 11
206.945448
 21
-100.456026
 31
0.0
  0
LINE
  5
357
100
AcDbEntity
  8
2
100
AcDbLine
 10
206.945448
 20
-90.956026
 30
0.0
 11
206.945448
 21
-35.956026
 31
0.0
  0
ARC
  5
358
100
AcDbEntity
  8
2
100
AcDbCircle
 10
-387.709994
 20
-77.956026
 30
0.0
 40
150.0
100
AcDbArc
 50
344.131079
 51
16.484205
  0
ARC
  5
359
100
AcDbEntity
  8
2
100
AcDbCircle
 10
-396.709994
 20
-82.956026
 30
0.0
 40
130.0
100
AcDbArc
 50
167.770243
 51
192.709033
  0
LINE
  5
35A
100
AcDbEntity
  8
2
100
AcDbLine
 10
-496.53329
 20
-31.845865
 30
0.0
 11
-271.648966
 21
-16.120422
 31
0.0
  0
ARC
  5
35B
100
AcDbEntity
  8
2
100
AcDbCircle
 10
-494.440595
 20
-61.772787
 30
0.0
 40
30.0
100
AcDbArc
 50
94.0
 51
167.770243
  0
ARC
  5
35C
100
AcDbEntity
  8
2
100
AcDbCircle
 10
-494.259982
 20
-104.956026
 30
0.0
 40
30.0
100
AcDbArc
 50
192.709033
 51
270.0
  0
ARC
  5
35D
100
AcDbEntity
  8
2
100
AcDbCircle
 10
-269.765541
 20
-43.054651
 30
0.0
 40
27.0
100
AcDbArc
 50
16.484205
 51
94.0
  0
ARC
  5
35E
100
AcDbEntity
  8
2
100
AcDbCircle
 10
-264.588103
 20
-112.956026
 30
0.0
 40
22.0
100
AcDbArc
 50
270.0
 51
344.131079
  0
CIRCLE
  5
35F
100
AcDbEntity
  8
2
100
AcDbCircle
 10
-297.709994
 20
-77.956026
 30
0.0
 40
50.0
  0
CIRCLE
  5
360
100
AcDbEntity
  8
2
100
AcDbCircle
 10
-297.709994
 20
-77.956026
 30
0.0
 40
32.5
  0
ARC
  5
361
100
AcDbEntity
  8
2
100
AcDbCircle
 10
-273.709994
 20
-6.956026
 30
0.0
 40
1.0
100
AcDbArc
 50
360.0
 51
90.0
  0
ARC
  5
362
100
AcDbEntity
  8
2
100
AcDbCircle
 10
-273.709994
 20
-4.956026
 30
0.0
 40
1.0
100
AcDbArc
 50
180.0
 51
270.0
  0
LINE
  5
363
100
AcDbEntity
  8
2
100
AcDbLine
 10
-361.709994
 20
53.543974
 30
0.0
 11
-361.709994
 21
45.243974
 31
0.0
  0
LINE
  5
364
100
AcDbEntity
  8
2
100
AcDbLine
 10
-357.709994
 20
53.543974
 30
0.0
 11
-357.709994
 21
45.243974
 31
0.0
  0
CIRCLE
  5
365
100
AcDbEntity
  8
2
100
AcDbCircle
 10
-359.709994
 20
339.143974
 30
0.0
 40
42.5
  0
LINE
  5
366
100
AcDbEntity
  8
2
100
AcDbLine
 10
-390.13219
 20
346.643974
 30
0.0
 11
-369.194947
 21
346.643974
 31
0.0
  0
LINE
  5
367
100
AcDbEntity
  8
2
100
AcDbLine
 10
-390.13219
 20
331.643974
 30
0.0
 11
-369.194947
 21
331.643974
 31
0.0
  0
LINE
  5
368
100
AcDbEntity
  8
2
100
AcDbLine
 10
-350.225042
 20
331.643974
 30
0.0
 11
-329.287798
 21
331.643974
 31
0.0
  0
LINE
  5
369
100
AcDbEntity
  8
2
100
AcDbLine
 10
-357.709994
 20
317.121499
 30
0.0
 11
-357.709994
 21
314.977882
 31
0.0
  0
LINE
  5
36A
100
AcDbEntity
  8
2
100
AcDbLine
 10
-361.709994
 20
317.121499
 30
0.0
 11
-361.709994
 21
314.977882
 31
0.0
  0
LINE
  5
36B
100
AcDbEntity
  8
2
100
AcDbLine
 10
-357.709994
 20
361.166449
 30
0.0
 11
-357.709994
 21
363.310066
 31
0.0
  0
LINE
  5
36C
100
AcDbEntity
  8
2
100
AcDbLine
 10
-361.709994
 20
361.166449
 30
0.0
 11
-361.709994
 21
363.310066
 31
0.0
  0
LINE
  5
36D
100
AcDbEntity
  8
2
100
AcDbLine
 10
-350.225042
 20
346.643974
 30
0.0
 11
-329.287798
 21
346.643974
 31
0.0
  0
LINE
  5
36E
100
AcDbEntity
  8
2
100
AcDbLine
 10
-434.709994
 20
-3.956026
 30
0.0
 11
-443.511596
 21
-28.138227
 31
0.0
  0
LINE
  5
36F
100
AcDbEntity
  8
2
100
AcDbLine
 10
-432.709994
 20
380.143974
 30
0.0
 11
-426.709994
 21
380.143974
 31
0.0
  0
LINE
  5
370
100
AcDbEntity
  8
2
100
AcDbLine
 10
-280.709994
 20
380.143974
 30
0.0
 11
-276.709994
 21
380.143974
 31
0.0
  0
LINE
  5
371
100
AcDbEntity
  8
2
100
AcDbLine
 10
-420.709994
 20
294.143974
 30
0.0
 11
-420.709994
 21
298.143974
 31
0.0
  0
LINE
  5
372
100
AcDbEntity
  8
2
100
AcDbLine
 10
-420.709994
 20
386.143974
 30
0.0
 11
-420.709994
 21
390.143974
 31
0.0
  0
LINE
  5
373
100
AcDbEntity
  8
2
100
AcDbLine
 10
-432.709994
 20
304.143974
 30
0.0
 11
-426.709994
 21
304.143974
 31
0.0
  0
LINE
  5
374
100
AcDbEntity
  8
2
100
AcDbLine
 10
-280.709994
 20
304.143974
 30
0.0
 11
-276.709994
 21
304.143974
 31
0.0
  0
LINE
  5
375
100
AcDbEntity
  8
2
100
AcDbLine
 10
-286.709994
 20
294.143974
 30
0.0
 11
-286.709994
 21
298.143974
 31
0.0
  0
LINE
  5
376
100
AcDbEntity
  8
2
100
AcDbLine
 10
-286.709994
 20
386.143974
 30
0.0
 11
-286.709994
 21
390.143974
 31
0.0
  0
ARC
  5
377
100
AcDbEntity
  8
2
100
AcDbCircle
 10
-280.709994
 20
386.143974
 30
0.0
 40
6.0
100
AcDbArc
 50
180.0
 51
270.0
  0
ARC
  5
378
100
AcDbEntity
  8
2
100
AcDbCircle
 10
-426.709994
 20
386.143974
 30
0.0
 40
6.0
100
AcDbArc
 50
270.0
 51
360.0
  0
ARC
  5
379
100
AcDbEntity
  8
2
100
AcDbCircle
 10
-426.709994
 20
298.143974
 30
0.0
 40
6.0
100
AcDbArc
 50
0.0
 51
90.0
  0
ARC
  5
37A
100
AcDbEntity
  8
2
100
AcDbCircle
 10
-280.709994
 20
298.143974
 30
0.0
 40
6.0
100
AcDbArc
 50
90.0
 51
180.0
  0
ARC
  5
37B
100
AcDbEntity
  8
2
100
AcDbCircle
 10
-359.709994
 20
32.043974
 30
0.0
 40
34.0
100
AcDbArc
 50
22.844739
 51
157.155261
  0
CIRCLE
  5
37C
100
AcDbEntity
  8
2
100
AcDbCircle
 10
-359.709994
 20
339.143974
 30
0.0
 40
31.33305
  0
ARC
  5
37D
100
AcDbEntity
  8
2
100
AcDbCircle
 10
-397.134604
 20
339.470823
 30
0.0
 40
45.0
100
AcDbArc
 50
12.236103
 51
30.645688
  0
ARC
  5
37E
100
AcDbEntity
  8
2
100
AcDbCircle
 10
-322.285385
 20
339.470823
 30
0.0
 40
45.0
100
AcDbArc
 50
149.354312
 51
167.763897
  0
ARC
  5
37F
100
AcDbEntity
  8
2
100
AcDbCircle
 10
-359.709994
 20
361.643974
 30
0.0
 40
1.5
100
AcDbArc
 50
30.645688
 51
149.354312
  0
ARC
  5
380
100
AcDbEntity
  8
2
100
AcDbCircle
 10
-350.225042
 20
349.643974
 30
0.0
 40
3.0
100
AcDbArc
 50
192.236103
 51
270.0
  0
ARC
  5
381
100
AcDbEntity
  8
2
100
AcDbCircle
 10
-369.194947
 20
349.643974
 30
0.0
 40
3.0
100
AcDbArc
 50
270.0
 51
347.763897
  0
ARC
  5
382
100
AcDbEntity
  8
2
100
AcDbCircle
 10
-397.134604
 20
338.817125
 30
0.0
 40
45.0
100
AcDbArc
 50
329.354312
 51
347.763897
  0
ARC
  5
383
100
AcDbEntity
  8
2
100
AcDbCircle
 10
-322.285385
 20
338.817125
 30
0.0
 40
45.0
100
AcDbArc
 50
192.236103
 51
210.645688
  0
ARC
  5
384
100
AcDbEntity
  8
2
100
AcDbCircle
 10
-359.709994
 20
316.643974
 30
0.0
 40
1.5
100
AcDbArc
 50
210.645688
 51
329.354312
  0
ARC
  5
385
100
AcDbEntity
  8
2
100
AcDbCircle
 10
-350.225042
 20
328.643974
 30
0.0
 40
3.0
100
AcDbArc
 50
90.0
 51
167.763897
  0
ARC
  5
386
100
AcDbEntity
  8
2
100
AcDbCircle
 10
-369.194947
 20
328.643974
 30
0.0
 40
3.0
100
AcDbArc
 50
12.236103
 51
90.0
  0
ARC
  5
387
100
AcDbEntity
  8
2
100
AcDbCircle
 10
-359.709994
 20
339.143974
 30
0.0
 40
24.248711
100
AcDbArc
 50
18.016736
 51
161.983264
  0
ARC
  5
388
100
AcDbEntity
  8
2
100
AcDbCircle
 10
-359.709994
 20
339.143974
 30
0.0
 40
24.248711
100
AcDbArc
 50
198.016736
 51
341.983264
  0
ARC
  5
389
100
AcDbEntity
  8
2
100
AcDbCircle
 10
-276.709994
 20
378.143974
 30
0.0
 40
2.0
100
AcDbArc
 50
0.0
 51
90.0
  0
ARC
  5
38A
100
AcDbEntity
  8
2
100
AcDbCircle
 10
-288.709994
 20
390.143974
 30
0.0
 40
2.0
100
AcDbArc
 50
0.0
 51
90.0
  0
ARC
  5
38B
100
AcDbEntity
  8
2
100
AcDbCircle
 10
-276.709994
 20
306.143974
 30
0.0
 40
2.0
100
AcDbArc
 50
270.0
 51
360.0
  0
ARC
  5
38C
100
AcDbEntity
  8
2
100
AcDbCircle
 10
-288.709994
 20
294.143974
 30
0.0
 40
2.0
100
AcDbArc
 50
270.0
 51
360.0
  0
ARC
  5
38D
100
AcDbEntity
  8
2
100
AcDbCircle
 10
-418.709994
 20
294.143974
 30
0.0
 40
2.0
100
AcDbArc
 50
180.0
 51
270.0
  0
ARC
  5
38E
100
AcDbEntity
  8
2
100
AcDbCircle
 10
-432.709994
 20
306.143974
 30
0.0
 40
2.0
100
AcDbArc
 50
180.0
 51
270.0
  0
ARC
  5
38F
100
AcDbEntity
  8
2
100
AcDbCircle
 10
-418.709994
 20
390.143974
 30
0.0
 40
2.0
100
AcDbArc
 50
90.0
 51
180.0
  0
ARC
  5
390
100
AcDbEntity
  8
2
100
AcDbCircle
 10
-432.709994
 20
378.143974
 30
0.0
 40
2.0
100
AcDbArc
 50
90.0
 51
180.0
  0
ARC
  5
391
100
AcDbEntity
  8
2
100
AcDbCircle
 10
-359.709994
 20
30.543974
 30
0.0
 40
28.0
100
AcDbArc
 50
34.712682
 51
81.884254
  0
ARC
  5
392
100
AcDbEntity
  8
2
100
AcDbCircle
 10
-359.709994
 20
30.543974
 30
0.0
 40
28.0
100
AcDbArc
 50
98.115746
 51
145.287318
  0
ARC
  5
393
100
AcDbEntity
  8
2
100
AcDbCircle
 10
-360.709994
 20
53.543974
 30
0.0
 40
1.0
100
AcDbArc
 50
90.0
 51
180.0
  0
ARC
  5
394
100
AcDbEntity
  8
2
100
AcDbCircle
 10
-358.709994
 20
53.543974
 30
0.0
 40
1.0
100
AcDbArc
 50
0.0
 51
90.0
  0
LINE
  5
395
100
AcDbEntity
  8
2
100
AcDbLine
 10
-360.709994
 20
54.543974
 30
0.0
 11
-360.345228
 21
54.543979
 31
0.0
  0
LINE
  5
396
100
AcDbEntity
  8
2
100
AcDbLine
 10
-359.074528
 20
54.544088
 30
0.0
 11
-358.709994
 21
54.543974
 31
0.0
  0
LINE
  5
397
100
AcDbEntity
  8
2
100
AcDbLine
 10
-368.525662
 20
316.554507
 30
0.0
 11
-366.526793
 21
321.380204
 31
0.0
  0
LINE
  5
398
100
AcDbEntity
  8
2
100
AcDbLine
 10
-351.969316
 20
356.52506
 30
0.0
 11
-349.970447
 21
361.350757
 31
0.0
  0
LINE
  5
399
100
AcDbEntity
  8
2
100
AcDbLine
 10
-369.449541
 20
316.937191
 30
0.0
 11
-367.450672
 21
321.762887
 31
0.0
  0
LINE
  5
39A
100
AcDbEntity
  8
2
100
AcDbLine
 10
-352.893196
 20
356.907744
 30
0.0
 11
-350.894327
 21
361.733441
 31
0.0
  0
LINE
  5
39B
100
AcDbEntity
  8
2
100
AcDbLine
 10
-376.499224
 20
321.647638
 30
0.0
 11
-372.805795
 21
325.341066
 31
0.0
  0
LINE
  5
39C
100
AcDbEntity
  8
2
100
AcDbLine
 10
-345.907087
 20
352.239775
 30
0.0
 11
-342.213658
 21
355.933203
 31
0.0
  0
LINE
  5
39D
100
AcDbEntity
  8
2
100
AcDbLine
 10
-377.20633
 20
322.354745
 30
0.0
 11
-373.512902
 21
326.048173
 31
0.0
  0
LINE
  5
39E
100
AcDbEntity
  8
2
100
AcDbLine
 10
-346.614193
 20
352.946882
 30
0.0
 11
-342.920765
 21
356.64031
 31
0.0
  0
LINE
  5
39F
100
AcDbEntity
  8
2
100
AcDbLine
 10
-381.916778
 20
329.404427
 30
0.0
 11
-377.091081
 21
331.403296
 31
0.0
  0
LINE
  5
3A0
100
AcDbEntity
  8
2
100
AcDbLine
 10
-340.29683
 20
346.643974
 30
0.0
 11
-337.120528
 21
347.959641
 31
0.0
  0
LINE
  5
3A1
100
AcDbEntity
  8
2
100
AcDbLine
 10
-382.299461
 20
330.328307
 30
0.0
 11
-379.123159
 21
331.643974
 31
0.0
  0
LINE
  5
3A2
100
AcDbEntity
  8
2
100
AcDbLine
 10
-342.328908
 20
346.884652
 30
0.0
 11
-337.503211
 21
348.883521
 31
0.0
  0
ARC
  5
3A3
100
AcDbEntity
  8
2
100
AcDbCircle
 10
-366.988732
 20
321.571546
 30
0.0
 40
0.5
100
AcDbArc
 50
337.5
 51
157.5
  0
ARC
  5
3A4
100
AcDbEntity
  8
2
100
AcDbCircle
 10
-373.159349
 20
325.69462
 30
0.0
 40
0.5
100
AcDbArc
 50
315.0
 51
135.0
  0
ARC
  5
3A5
100
AcDbEntity
  8
2
100
AcDbCircle
 10
-377.282422
 20
331.865236
 30
0.0
 40
0.5
100
AcDbArc
 50
292.5
 51
333.734975
  0
ARC
  5
3A6
100
AcDbEntity
  8
2
100
AcDbCircle
 10
-352.431256
 20
356.716402
 30
0.0
 40
0.5
100
AcDbArc
 50
157.5
 51
337.5
  0
ARC
  5
3A7
100
AcDbEntity
  8
2
100
AcDbCircle
 10
-346.26064
 20
352.593328
 30
0.0
 40
0.5
100
AcDbArc
 50
135.0
 51
315.0
  0
ARC
  5
3A8
100
AcDbEntity
  8
2
100
AcDbCircle
 10
-342.137566
 20
346.422712
 30
0.0
 40
0.5
100
AcDbArc
 50
112.5
 51
153.734975
  0
LINE
  5
3A9
100
AcDbEntity
  8
2
100
AcDbLine
 10
-342.90863
 20
330.29028
 30
0.0
 11
-340.886584
 21
329.452721
 31
0.0
  0
ARC
  5
3AA
100
AcDbEntity
  8
2
100
AcDbCircle
 10
-342.238879
 20
331.907201
 30
0.0
 40
1.750143
100
AcDbArc
 50
188.650293
 51
247.5
  0
ARC
  5
3AB
100
AcDbEntity
  8
2
100
AcDbCircle
 10
-340.216834
 20
331.069642
 30
0.0
 40
1.750143
100
AcDbArc
 50
247.5
 51
19.157293
  0
LINE
  5
3AC
100
AcDbEntity
  8
2
100
AcDbLine
 10
-376.511359
 20
347.997668
 30
0.0
 11
-378.533404
 21
348.835227
 31
0.0
  0
ARC
  5
3AD
100
AcDbEntity
  8
2
100
AcDbCircle
 10
-377.18111
 20
346.380747
 30
0.0
 40
1.750143
100
AcDbArc
 50
8.650293
 51
67.5
  0
ARC
  5
3AE
100
AcDbEntity
  8
2
100
AcDbCircle
 10
-379.203155
 20
347.218305
 30
0.0
 40
1.750143
100
AcDbArc
 50
67.5
 51
199.157293
  0
ARC
  5
3AF
100
AcDbEntity
  8
2
100
AcDbCircle
 10
-324.309599
 20
34.809603
 30
0.0
 40
45.274917
100
AcDbArc
 50
159.10214
 51
166.675437
  0
ARC
  5
3B0
100
AcDbEntity
  8
2
100
AcDbCircle
 10
-325.233479
 20
34.809603
 30
0.0
 40
45.274917
100
AcDbArc
 50
158.681079
 51
166.675437
  0
ARC
  5
3B1
100
AcDbEntity
  8
2
100
AcDbCircle
 10
-367.008831
 20
51.113027
 30
0.0
 40
0.430947
100
AcDbArc
 50
339.10214
 51
158.681079
  0
ARC
  5
3B2
100
AcDbEntity
  8
2
100
AcDbCircle
 10
-348.280065
 20
33.042722
 30
0.0
 40
30.472934
100
AcDbArc
 50
143.677597
 51
156.39704
  0
ARC
  5
3B3
100
AcDbEntity
  8
2
100
AcDbCircle
 10
-348.987172
 20
33.042722
 30
0.0
 40
30.472934
100
AcDbArc
 50
142.882669
 51
156.39704
  0
ARC
  5
3B4
100
AcDbEntity
  8
2
100
AcDbCircle
 10
-373.060346
 20
51.26057
 30
0.0
 40
0.283404
100
AcDbArc
 50
323.677597
 51
142.882669
  0
ARC
  5
3B5
100
AcDbEntity
  8
2
100
AcDbCircle
 10
-357.035653
 20
31.27584
 30
0.0
 40
28.197761
100
AcDbArc
 50
134.711482
 51
150.306296
  0
ARC
  5
3B6
100
AcDbEntity
  8
2
100
AcDbCircle
 10
-357.418336
 20
31.27584
 30
0.0
 40
28.197761
100
AcDbArc
 50
134.156238
 51
150.306296
  0
ARC
  5
3B7
100
AcDbEntity
  8
2
100
AcDbCircle
 10
-376.968069
 20
51.410017
 30
0.0
 40
0.133957
100
AcDbArc
 50
314.711482
 51
134.156238
  0
ARC
  5
3B8
100
AcDbEntity
  8
2
100
AcDbCircle
 10
-359.709994
 20
32.043974
 30
0.0
 40
33.162479
100
AcDbArc
 50
104.962752
 51
150.128593
  0
ARC
  5
3B9
100
AcDbEntity
  8
2
100
AcDbCircle
 10
-354.155446
 20
64.033837
 30
0.0
 40
10.0
100
AcDbArc
 50
202.238154
 51
227.992896
  0
ARC
  5
3BA
100
AcDbEntity
  8
2
100
AcDbCircle
 10
-367.497676
 20
61.18376
 30
0.0
 40
3.0
100
AcDbArc
 50
42.388379
 51
104.962752
  0
ARC
  5
3BB
100
AcDbEntity
  8
2
100
AcDbCircle
 10
-372.667821
 20
56.464692
 30
0.0
 40
10.0
100
AcDbArc
 50
22.238154
 51
42.388379
  0
ARC
  5
3BC
100
AcDbEntity
  8
2
100
AcDbCircle
 10
-365.264543
 20
64.033837
 30
0.0
 40
10.0
100
AcDbArc
 50
312.007104
 51
337.761846
  0
ARC
  5
3BD
100
AcDbEntity
  8
2
100
AcDbCircle
 10
-346.752168
 20
56.464692
 30
0.0
 40
10.0
100
AcDbArc
 50
137.611621
 51
157.761846
  0
ARC
  5
3BE
100
AcDbEntity
  8
2
100
AcDbCircle
 10
-351.922312
 20
61.18376
 30
0.0
 40
3.0
100
AcDbArc
 50
75.037248
 51
137.611621
  0
ARC
  5
3BF
100
AcDbEntity
  8
2
100
AcDbCircle
 10
-359.709994
 20
32.043974
 30
0.0
 40
33.162479
100
AcDbArc
 50
29.871407
 51
75.037248
  0
ARC
  5
3C0
100
AcDbEntity
  8
2
100
AcDbCircle
 10
-359.709994
 20
57.866424
 30
0.0
 40
1.7
100
AcDbArc
 50
227.992896
 51
312.007104
  0
ARC
  5
3C1
100
AcDbEntity
  8
2
100
AcDbCircle
 10
-359.235103
 20
31.221439
 30
0.0
 40
32.849358
100
AcDbArc
 50
105.470231
 51
147.621493
  0
ARC
  5
3C2
100
AcDbEntity
  8
2
100
AcDbCircle
 10
-353.201494
 20
64.142334
 30
0.0
 40
12.0
100
AcDbArc
 50
200.135943
 51
231.694293
  0
ARC
  5
3C3
100
AcDbEntity
  8
2
100
AcDbCircle
 10
-370.101306
 20
57.945857
 30
0.0
 40
6.0
100
AcDbArc
 50
20.135943
 51
48.747449
  0
ARC
  5
3C4
100
AcDbEntity
  8
2
100
AcDbCircle
 10
-367.463789
 20
60.953099
 30
0.0
 40
2.0
100
AcDbArc
 50
48.747449
 51
105.470231
  0
ARC
  5
3C5
100
AcDbEntity
  8
2
100
AcDbCircle
 10
-366.218495
 20
64.142334
 30
0.0
 40
12.0
100
AcDbArc
 50
308.305707
 51
339.864057
  0
ARC
  5
3C6
100
AcDbEntity
  8
2
100
AcDbCircle
 10
-349.318682
 20
57.945857
 30
0.0
 40
6.0
100
AcDbArc
 50
131.252551
 51
159.864057
  0
ARC
  5
3C7
100
AcDbEntity
  8
2
100
AcDbCircle
 10
-351.956199
 20
60.953099
 30
0.0
 40
2.0
100
AcDbArc
 50
74.529769
 51
131.252551
  0
ARC
  5
3C8
100
AcDbEntity
  8
2
100
AcDbCircle
 10
-360.184885
 20
31.221439
 30
0.0
 40
32.849358
100
AcDbArc
 50
32.378507
 51
74.529769
  0
ARC
  5
3C9
100
AcDbEntity
  8
2
100
AcDbCircle
 10
-359.709994
 20
55.902831
 30
0.0
 40
1.5
100
AcDbArc
 50
231.694293
 51
308.305707
  0
CIRCLE
  5
3CA
100
AcDbEntity
  8
2
100
AcDbCircle
 10
-280.709994
 20
298.143974
 30
0.0
 40
4.5
  0
CIRCLE
  5
3CB
100
AcDbEntity
  8
2
100
AcDbCircle
 10
-280.709994
 20
386.143974
 30
0.0
 40
4.5
  0
CIRCLE
  5
3CC
100
AcDbEntity
  8
2
100
AcDbCircle
 10
-426.709994
 20
298.143974
 30
0.0
 40
4.5
  0
CIRCLE
  5
3CD
100
AcDbEntity
  8
2
100
AcDbCircle
 10
-426.709994
 20
386.143974
 30
0.0
 40
4.5
  0
CIRCLE
  5
3CE
100
AcDbEntity
  8
2
100
AcDbCircle
 10
-333.19349
 20
312.62747
 30
0.0
 40
3.5
  0
CIRCLE
  5
3CF
100
AcDbEntity
  8
2
100
AcDbCircle
 10
-333.19349
 20
365.660478
 30
0.0
 40
3.5
  0
CIRCLE
  5
3D0
100
AcDbEntity
  8
2
100
AcDbCircle
 10
-386.226499
 20
312.62747
 30
0.0
 40
3.5
  0
CIRCLE
  5
3D1
100
AcDbEntity
  8
2
100
AcDbCircle
 10
-386.226499
 20
365.660478
 30
0.0
 40
3.5
  0
LINE
  5
3D2
100
AcDbEntity
  8
2
100
AcDbLine
 10
-329.39349
 20
46.243974
 30
0.0
 11
-336.99349
 21
46.243974
 31
0.0
  0
LINE
  5
3D3
100
AcDbEntity
  8
2
100
AcDbLine
 10
-329.39349
 20
46.243974
 30
0.0
 11
-329.39349
 21
45.243974
 31
0.0
  0
LINE
  5
3D4
100
AcDbEntity
  8
2
100
AcDbLine
 10
-336.99349
 20
46.243974
 30
0.0
 11
-336.99349
 21
45.243974
 31
0.0
  0
LINE
  5
3D5
100
AcDbEntity
  8
2
100
AcDbLine
 10
-329.69349
 20
47.222998
 30
0.0
 11
-329.69349
 21
46.243974
 31
0.0
  0
LINE
  5
3D6
100
AcDbEntity
  8
2
100
AcDbLine
 10
-336.69349
 20
47.222998
 30
0.0
 11
-336.69349
 21
46.243974
 31
0.0
  0
ARC
  5
3D7
100
AcDbEntity
  8
2
100
AcDbCircle
 10
-333.19349
 20
39.843974
 30
0.0
 40
9.0
100
AcDbArc
 50
73.39845
 51
106.60155
  0
ARC
  5
3D8
100
AcDbEntity
  8
2
100
AcDbCircle
 10
-330.99349
 20
47.222998
 30
0.0
 40
1.3
100
AcDbArc
 50
0.0
 51
73.39845
  0
ARC
  5
3D9
100
AcDbEntity
  8
2
100
AcDbCircle
 10
-335.39349
 20
47.222998
 30
0.0
 40
1.3
100
AcDbArc
 50
106.60155
 51
180.0
  0
LINE
  5
3DA
100
AcDbEntity
  8
2
100
AcDbLine
 10
-382.426499
 20
46.243974
 30
0.0
 11
-390.026499
 21
46.243974
 31
0.0
  0
LINE
  5
3DB
100
AcDbEntity
  8
2
100
AcDbLine
 10
-382.426499
 20
46.243974
 30
0.0
 11
-382.426499
 21
45.243974
 31
0.0
  0
LINE
  5
3DC
100
AcDbEntity
  8
2
100
AcDbLine
 10
-390.026499
 20
46.243974
 30
0.0
 11
-390.026499
 21
45.243974
 31
0.0
  0
LINE
  5
3DD
100
AcDbEntity
  8
2
100
AcDbLine
 10
-382.726499
 20
47.222998
 30
0.0
 11
-382.726499
 21
46.243974
 31
0.0
  0
LINE
  5
3DE
100
AcDbEntity
  8
2
100
AcDbLine
 10
-389.726499
 20
47.222998
 30
0.0
 11
-389.726499
 21
46.243974
 31
0.0
  0
ARC
  5
3DF
100
AcDbEntity
  8
2
100
AcDbCircle
 10
-386.226499
 20
39.843974
 30
0.0
 40
9.0
100
AcDbArc
 50
73.39845
 51
106.60155
  0
ARC
  5
3E0
100
AcDbEntity
  8
2
100
AcDbCircle
 10
-384.026499
 20
47.222998
 30
0.0
 40
1.3
100
AcDbArc
 50
0.0
 51
73.39845
  0
ARC
  5
3E1
100
AcDbEntity
  8
2
100
AcDbCircle
 10
-388.426499
 20
47.222998
 30
0.0
 40
1.3
100
AcDbArc
 50
106.60155
 51
180.0
  0
ARC
  5
3E2
100
AcDbEntity
  8
2
100
AcDbCircle
 10
129.945448
 20
32.043974
 30
0.0
 40
34.0
100
AcDbArc
 50
45.099128
 51
134.900872
  0
LINE
  5
3E3
100
AcDbEntity
  8
2
100
AcDbLine
 10
137.445443
 20
63.649459
 30
0.0
 11
137.445448
 21
45.243974
 31
0.0
  0
LINE
  5
3E4
100
AcDbEntity
  8
2
100
AcDbLine
 10
122.445448
 20
63.649459
 30
0.0
 11
122.445448
 21
45.243974
 31
0.0
  0
LINE
  5
3E5
100
AcDbEntity
  8
2
100
AcDbLine
 10
105.945448
 20
56.127163
 30
0.0
 11
105.945448
 21
54.401076
 31
0.0
  0
LINE
  5
3E6
100
AcDbEntity
  8
2
100
AcDbLine
 10
153.945448
 20
56.127163
 30
0.0
 11
153.945448
 21
54.401076
 31
0.0
  0
ARC
  5
3E7
100
AcDbEntity
  8
2
100
AcDbCircle
 10
129.945448
 20
34.043974
 30
0.0
 40
31.0
100
AcDbArc
 50
28.453097
 51
48.922243
  0
ARC
  5
3E8
100
AcDbEntity
  8
2
100
AcDbCircle
 10
129.945448
 20
34.043974
 30
0.0
 40
31.0
100
AcDbArc
 50
131.077757
 51
151.546903
  0
ARC
  5
3E9
100
AcDbEntity
  8
2
100
AcDbCircle
 10
129.945448
 20
30.543974
 30
0.0
 40
28.0
100
AcDbArc
 50
105.536794
 51
145.287318
  0
ARC
  5
3EA
100
AcDbEntity
  8
2
100
AcDbCircle
 10
129.945448
 20
30.543974
 30
0.0
 40
28.0
100
AcDbArc
 50
34.712682
 51
74.463206
  0
ARC
  5
3EB
100
AcDbEntity
  8
2
100
AcDbCircle
 10
94.545053
 20
34.809603
 30
0.0
 40
45.274917
100
AcDbArc
 50
13.324563
 51
18.638604
  0
ARC
  5
3EC
100
AcDbEntity
  8
2
100
AcDbCircle
 10
95.468933
 20
34.809603
 30
0.0
 40
45.274917
100
AcDbArc
 50
13.324563
 51
21.318921
  0
ARC
  5
3ED
100
AcDbEntity
  8
2
100
AcDbCircle
 10
137.244285
 20
51.113027
 30
0.0
 40
0.430947
100
AcDbArc
 50
21.318921
 51
62.173379
  0
ARC
  5
3EE
100
AcDbEntity
  8
2
100
AcDbCircle
 10
118.515519
 20
33.042722
 30
0.0
 40
30.472934
100
AcDbArc
 50
23.60296
 51
36.322403
  0
ARC
  5
3EF
100
AcDbEntity
  8
2
100
AcDbCircle
 10
119.222626
 20
33.042722
 30
0.0
 40
30.472934
100
AcDbArc
 50
23.60296
 51
37.117331
  0
ARC
  5
3F0
100
AcDbEntity
  8
2
100
AcDbCircle
 10
143.2958
 20
51.26057
 30
0.0
 40
0.283404
100
AcDbArc
 50
37.117331
 51
216.322403
  0
ARC
  5
3F1
100
AcDbEntity
  8
2
100
AcDbCircle
 10
127.271107
 20
31.27584
 30
0.0
 40
28.197761
100
AcDbArc
 50
29.693704
 51
45.288518
  0
ARC
  5
3F2
100
AcDbEntity
  8
2
100
AcDbCircle
 10
127.653791
 20
31.27584
 30
0.0
 40
28.197761
100
AcDbArc
 50
29.693704
 51
45.843762
  0
ARC
  5
3F3
100
AcDbEntity
  8
2
100
AcDbCircle
 10
147.203523
 20
51.410017
 30
0.0
 40
0.133957
100
AcDbArc
 50
45.843762
 51
225.288518
  0
ARC
  5
3F4
100
AcDbEntity
  8
2
100
AcDbCircle
 10
121.66166
 20
52.723005
 30
0.0
 40
11.430139
100
AcDbArc
 50
88.512215
 51
112.714662
  0
ARC
  5
3F5
100
AcDbEntity
  8
2
100
AcDbCircle
 10
121.945448
 20
63.649459
 30
0.0
 40
0.5
100
AcDbArc
 50
0.0
 51
88.512215
  0
ARC
  5
3F6
100
AcDbEntity
  8
2
100
AcDbCircle
 10
132.781822
 20
26.158501
 30
0.0
 40
40.228245
100
AcDbArc
 50
112.714662
 51
131.843847
  0
ARC
  5
3F7
100
AcDbEntity
  8
2
100
AcDbCircle
 10
123.151662
 20
45.827029
 30
0.0
 40
17.127052
100
AcDbArc
 50
93.791923
 51
118.737001
  0
ARC
  5
3F8
100
AcDbEntity
  8
2
100
AcDbCircle
 10
122.045448
 20
62.517462
 30
0.0
 40
0.4
100
AcDbArc
 50
0.0
 51
93.791923
  0
ARC
  5
3F9
100
AcDbEntity
  8
2
100
AcDbCircle
 10
136.864012
 20
20.819264
 30
0.0
 40
45.647515
100
AcDbArc
 50
118.737001
 51
132.635576
  0
ARC
  5
3FA
100
AcDbEntity
  8
2
100
AcDbCircle
 10
136.739234
 20
45.827029
 30
0.0
 40
17.127052
100
AcDbArc
 50
61.262999
 51
86.208077
  0
ARC
  5
3FB
100
AcDbEntity
  8
2
100
AcDbCircle
 10
123.026885
 20
20.819264
 30
0.0
 40
45.647515
100
AcDbArc
 50
47.364424
 51
61.262999
  0
ARC
  5
3FC
100
AcDbEntity
  8
2
100
AcDbCircle
 10
137.845448
 20
62.517462
 30
0.0
 40
0.4
100
AcDbArc
 50
86.208077
 51
180.0
  0
ARC
  5
3FD
100
AcDbEntity
  8
2
100
AcDbCircle
 10
137.945448
 20
63.649459
 30
0.0
 40
0.5
100
AcDbArc
 50
91.487785
 51
180.0
  0
ARC
  5
3FE
100
AcDbEntity
  8
2
100
AcDbCircle
 10
138.229237
 20
52.723005
 30
0.0
 40
11.430139
100
AcDbArc
 50
67.285338
 51
91.487785
  0
ARC
  5
3FF
100
AcDbEntity
  8
2
100
AcDbCircle
 10
127.109075
 20
26.158501
 30
0.0
 40
40.228245
100
AcDbArc
 50
48.156153
 51
67.285338
  0
LINE
  5
400
100
AcDbEntity
  8
2
100
AcDbLine
 10
107.228944
 20
46.243974
 30
0.0
 11
99.628944
 21
46.243974
 31
0.0
  0
LINE
  5
401
100
AcDbEntity
  8
2
100
AcDbLine
 10
107.228944
 20
46.243974
 30
0.0
 11
107.228944
 21
45.243974
 31
0.0
  0
LINE
  5
402
100
AcDbEntity
  8
2
100
AcDbLine
 10
99.628944
 20
46.243974
 30
0.0
 11
99.628944
 21
45.243974
 31
0.0
  0
LINE
  5
403
100
AcDbEntity
  8
2
100
AcDbLine
 10
106.928944
 20
47.222998
 30
0.0
 11
106.928944
 21
46.243974
 31
0.0
  0
LINE
  5
404
100
AcDbEntity
  8
2
100
AcDbLine
 10
99.928944
 20
47.222998
 30
0.0
 11
99.928944
 21
46.243974
 31
0.0
  0
ARC
  5
405
100
AcDbEntity
  8
2
100
AcDbCircle
 10
103.428944
 20
39.843974
 30
0.0
 40
9.0
100
AcDbArc
 50
73.39845
 51
106.60155
  0
ARC
  5
406
100
AcDbEntity
  8
2
100
AcDbCircle
 10
105.628944
 20
47.222998
 30
0.0
 40
1.3
100
AcDbArc
 50
0.0
 51
73.39845
  0
ARC
  5
407
100
AcDbEntity
  8
2
100
AcDbCircle
 10
101.228944
 20
47.222998
 30
0.0
 40
1.3
100
AcDbArc
 50
106.60155
 51
180.0
  0
LINE
  5
408
100
AcDbEntity
  8
2
100
AcDbLine
 10
160.261953
 20
46.243974
 30
0.0
 11
152.661953
 21
46.243974
 31
0.0
  0
LINE
  5
409
100
AcDbEntity
  8
2
100
AcDbLine
 10
160.261953
 20
46.243974
 30
0.0
 11
160.261953
 21
45.243974
 31
0.0
  0
LINE
  5
40A
100
AcDbEntity
  8
2
100
AcDbLine
 10
152.661953
 20
46.243974
 30
0.0
 11
152.661953
 21
45.243974
 31
0.0
  0
LINE
  5
40B
100
AcDbEntity
  8
2
100
AcDbLine
 10
159.961953
 20
47.222998
 30
0.0
 11
159.961953
 21
46.243974
 31
0.0
  0
LINE
  5
40C
100
AcDbEntity
  8
2
100
AcDbLine
 10
152.961953
 20
47.222998
 30
0.0
 11
152.961953
 21
46.243974
 31
0.0
  0
ARC
  5
40D
100
AcDbEntity
  8
2
100
AcDbCircle
 10
156.461953
 20
39.843974
 30
0.0
 40
9.0
100
AcDbArc
 50
73.39845
 51
106.60155
  0
ARC
  5
40E
100
AcDbEntity
  8
2
100
AcDbCircle
 10
158.661953
 20
47.222998
 30
0.0
 40
1.3
100
AcDbArc
 50
0.0
 51
73.39845
  0
ARC
  5
40F
100
AcDbEntity
  8
2
100
AcDbCircle
 10
154.261953
 20
47.222998
 30
0.0
 40
1.3
100
AcDbArc
 50
106.60155
 51
180.0
  0
ARC
  5
410
100
AcDbEntity
  8
2
100
AcDbCircle
 10
-238.709994
 20
262.143974
 30
0.0
 40
1.0
100
AcDbArc
 50
0.0
 51
90.0
  0
ARC
  5
411
100
AcDbEntity
  8
2
100
AcDbCircle
 10
-525.709994
 20
262.143974
 30
0.0
 40
1.0
100
AcDbArc
 50
90.0
 51
180.0
  0
LINE
  5
412
100
AcDbEntity
  8
2
100
AcDbLine
 10
-261.709994
 20
265.143974
 30
0.0
 11
-261.709994
 21
278.143974
 31
0.0
  0
LINE
  5
413
100
AcDbEntity
  8
2
100
AcDbLine
 10
-253.709994
 20
265.143974
 30
0.0
 11
-253.709994
 21
278.143974
 31
0.0
  0
LINE
  5
414
100
AcDbEntity
  8
2
100
AcDbLine
 10
-388.709994
 20
275.143974
 30
0.0
 11
-388.709994
 21
265.143974
 31
0.0
  0
LINE
  5
415
100
AcDbEntity
  8
2
100
AcDbLine
 10
-380.709994
 20
275.143974
 30
0.0
 11
-380.709994
 21
265.143974
 31
0.0
  0
ARC
  5
416
100
AcDbEntity
  8
2
100
AcDbCircle
 10
-257.709994
 20
278.143974
 30
0.0
 40
4.0
100
AcDbArc
 50
0.0
 51
180.0
  0
ARC
  5
417
100
AcDbEntity
  8
2
100
AcDbCircle
 10
-384.709994
 20
275.143974
 30
0.0
 40
4.0
100
AcDbArc
 50
0.0
 51
180.0
  0
ARC
  5
418
100
AcDbEntity
  8
2
100
AcDbCircle
 10
-251.709994
 20
265.143974
 30
0.0
 40
2.0
100
AcDbArc
 50
180.0
 51
270.0
  0
ARC
  5
419
100
AcDbEntity
  8
2
100
AcDbCircle
 10
-263.709994
 20
265.143974
 30
0.0
 40
2.0
100
AcDbArc
 50
270.0
 51
360.0
  0
ARC
  5
41A
100
AcDbEntity
  8
2
100
AcDbCircle
 10
-378.709994
 20
265.143974
 30
0.0
 40
2.0
100
AcDbArc
 50
180.0
 51
270.0
  0
ARC
  5
41B
100
AcDbEntity
  8
2
100
AcDbCircle
 10
-390.709994
 20
265.143974
 30
0.0
 40
2.0
100
AcDbArc
 50
270.0
 51
360.0
  0
ARC
  5
41C
100
AcDbEntity
  8
2
100
AcDbCircle
 10
-273.709994
 20
305.143974
 30
0.0
 40
1.0
100
AcDbArc
 50
270.0
 51
360.0
  0
ARC
  5
41D
100
AcDbEntity
  8
2
100
AcDbCircle
 10
-273.709994
 20
303.143974
 30
0.0
 40
1.0
100
AcDbArc
 50
90.0
 51
180.0
  0
ARC
  5
41E
100
AcDbEntity
  8
2
100
AcDbCircle
 10
-273.709994
 20
379.143974
 30
0.0
 40
1.0
100
AcDbArc
 50
0.0
 51
90.0
  0
ARC
  5
41F
100
AcDbEntity
  8
2
100
AcDbCircle
 10
-273.709994
 20
381.143974
 30
0.0
 40
1.0
100
AcDbArc
 50
180.0
 51
270.0
  0
LINE
  5
420
100
AcDbEntity
  8
2
100
AcDbLine
 10
112.945448
 20
-5.956026
 30
0.0
 11
152.945448
 21
-5.956026
 31
0.0
  0
ARC
  5
421
100
AcDbEntity
  8
2
100
AcDbCircle
 10
152.945448
 20
-23.956026
 30
0.0
 40
18.0
100
AcDbArc
 50
0.0
 51
90.0
  0
ARC
  5
422
100
AcDbEntity
  8
2
100
AcDbCircle
 10
112.945448
 20
-23.956026
 30
0.0
 40
18.0
100
AcDbArc
 50
90.0
 51
180.0
  0
ARC
  5
423
100
AcDbEntity
  8
2
100
AcDbCircle
 10
-241.709994
 20
382.143974
 30
0.0
 40
2.0
100
AcDbArc
 50
270.0
 51
360.0
  0
ARC
  5
424
100
AcDbEntity
  8
2
100
AcDbCircle
 10
-241.709994
 20
302.143974
 30
0.0
 40
2.0
100
AcDbArc
 50
0.0
 51
90.0
  0
LINE
  5
425
100
AcDbEntity
  8
2
100
AcDbLine
 10
-313.709994
 20
413.143974
 30
0.0
 11
-313.709994
 21
402.143974
 31
0.0
  0
LINE
  5
426
100
AcDbEntity
  8
2
100
AcDbLine
 10
-281.709994
 20
413.143974
 30
0.0
 11
-281.709994
 21
402.143974
 31
0.0
  0
ARC
  5
427
100
AcDbEntity
  8
2
100
AcDbCircle
 10
-310.709994
 20
413.143974
 30
0.0
 40
3.0
100
AcDbArc
 50
90.0
 51
180.0
  0
ARC
  5
428
100
AcDbEntity
  8
2
100
AcDbCircle
 10
-284.709994
 20
413.143974
 30
0.0
 40
3.0
100
AcDbArc
 50
0.0
 51
90.0
  0
ARC
  5
429
100
AcDbEntity
  8
2
100
AcDbCircle
 10
-278.709994
 20
402.143974
 30
0.0
 40
3.0
100
AcDbArc
 50
180.0
 51
270.0
  0
ARC
  5
42A
100
AcDbEntity
  8
2
100
AcDbCircle
 10
-316.709994
 20
402.143974
 30
0.0
 40
3.0
100
AcDbArc
 50
270.0
 51
360.0
  0
ARC
  5
42B
100
AcDbEntity
  8
2
100
AcDbCircle
 10
-272.977944
 20
399.143974
 30
0.0
 40
1.0
100
AcDbArc
 50
210.0
 51
270.0
  0
ARC
  5
42C
100
AcDbEntity
  8
2
100
AcDbCircle
 10
-274.709994
 20
398.143974
 30
0.0
 40
1.0
100
AcDbArc
 50
30.0
 51
90.0
  0
LINE
  5
42D
100
AcDbEntity
  8
2
100
AcDbLine
 10
-468.373695
 20
385.143974
 30
0.0
 11
-461.150688
 21
385.143974
 31
0.0
  0
LINE
  5
42E
100
AcDbEntity
  8
2
100
AcDbLine
 10
-474.675849
 20
404.143974
 30
0.0
 11
-474.675849
 21
415.143974
 31
0.0
  0
LINE
  5
42F
100
AcDbEntity
  8
2
100
AcDbLine
 10
-474.675849
 20
415.143974
 30
0.0
 11
-473.675849
 21
416.143974
 31
0.0
  0
LINE
  5
430
100
AcDbEntity
  8
2
100
AcDbLine
 10
-470.373695
 20
387.143974
 30
0.0
 11
-470.373695
 21
398.143974
 31
0.0
  0
LINE
  5
431
100
AcDbEntity
  8
2
100
AcDbLine
 10
-454.74414
 20
392.143974
 30
0.0
 11
-454.74414
 21
415.143974
 31
0.0
  0
LINE
  5
432
100
AcDbEntity
  8
2
100
AcDbLine
 10
-523.660329
 20
264.091638
 30
0.0
 11
-521.864751
 21
298.353318
 31
0.0
  0
ARC
  5
433
100
AcDbEntity
  8
2
100
AcDbCircle
 10
-517.870233
 20
298.143974
 30
0.0
 40
4.0
100
AcDbArc
 50
90.0
 51
177.0
  0
ARC
  5
434
100
AcDbEntity
  8
2
100
AcDbCircle
 10
-524.658959
 20
264.143974
 30
0.0
 40
1.0
100
AcDbArc
 50
270.0
 51
357.0
  0
LINE
  5
435
100
AcDbEntity
  8
2
100
AcDbLine
 10
-240.759659
 20
264.091638
 30
0.0
 11
-242.033903
 21
288.405654
 31
0.0
  0
ARC
  5
436
100
AcDbEntity
  8
2
100
AcDbCircle
 10
-239.76103
 20
264.143974
 30
0.0
 40
1.0
100
AcDbArc
 50
183.0
 51
270.0
  0
ARC
  5
437
100
AcDbEntity
  8
2
100
AcDbCircle
 10
-247.027051
 20
288.143974
 30
0.0
 40
5.0
100
AcDbArc
 50
3.0
 51
90.0
  0
ARC
  5
438
100
AcDbEntity
  8
2
100
AcDbCircle
 10
-239.965036
 20
287.143974
 30
0.0
 40
2.0
100
AcDbArc
 50
90.0
 51
183.0
  0
ARC
  5
439
100
AcDbEntity
  8
2
100
AcDbCircle
 10
-434.252481
 20
395.143974
 30
0.0
 40
4.0
100
AcDbArc
 50
90.0
 51
180.0
  0
LINE
  5
43A
100
AcDbEntity
  8
2
100
AcDbLine
 10
-454.74414
 20
415.143974
 30
0.0
 11
-455.74414
 21
416.143974
 31
0.0
  0
LINE
  5
43B
100
AcDbEntity
  8
2
100
AcDbLine
 10
-506.709994
 20
402.143974
 30
0.0
 11
-474.373695
 21
402.143974
 31
0.0
  0
ARC
  5
43C
100
AcDbEntity
  8
2
100
AcDbCircle
 10
-474.373695
 20
398.143974
 30
0.0
 40
4.0
100
AcDbArc
 50
0.0
 51
90.0
  0
LINE
  5
43D
100
AcDbEntity
  8
2
100
AcDbLine
 10
-493.624762
 20
305.143974
 30
0.0
 11
-493.624762
 21
317.143974
 31
0.0
  0
LINE
  5
43E
100
AcDbEntity
  8
2
100
AcDbLine
 10
-502.909994
 20
305.143974
 30
0.0
 11
-502.909994
 21
317.143974
 31
0.0
  0
LINE
  5
43F
100
AcDbEntity
  8
2
100
AcDbLine
 10
-500.909994
 20
319.143974
 30
0.0
 11
-495.624762
 21
319.143974
 31
0.0
  0
ARC
  5
440
100
AcDbEntity
  8
2
100
AcDbCircle
 10
-500.909994
 20
317.143974
 30
0.0
 40
2.0
100
AcDbArc
 50
90.0
 51
180.0
  0
ARC
  5
441
100
AcDbEntity
  8
2
100
AcDbCircle
 10
-495.624762
 20
317.143974
 30
0.0
 40
2.0
100
AcDbArc
 50
0.0
 51
90.0
  0
ARC
  5
442
100
AcDbEntity
  8
2
100
AcDbCircle
 10
-490.624762
 20
305.143974
 30
0.0
 40
3.0
100
AcDbArc
 50
180.0
 51
270.0
  0
ARC
  5
443
100
AcDbEntity
  8
2
100
AcDbCircle
 10
-505.909994
 20
305.143974
 30
0.0
 40
3.0
100
AcDbArc
 50
270.0
 51
360.0
  0
ARC
  5
444
100
AcDbEntity
  8
2
100
AcDbCircle
 10
-515.709994
 20
307.143974
 30
0.0
 40
5.0
100
AcDbArc
 50
270.0
 51
360.0
  0
ARC
  5
445
100
AcDbEntity
  8
2
100
AcDbCircle
 10
-513.709994
 20
387.143974
 30
0.0
 40
3.0
100
AcDbArc
 50
0.0
 51
90.0
  0
LINE
  5
446
100
AcDbEntity
  8
2
100
AcDbLine
 10
-507.35101
 20
403.531463
 30
0.0
 11
-507.35101
 21
415.143974
 31
0.0
  0
LINE
  5
447
100
AcDbEntity
  8
2
100
AcDbLine
 10
-506.35101
 20
416.143974
 30
0.0
 11
-507.35101
 21
415.143974
 31
0.0
  0
LINE
  5
448
100
AcDbEntity
  8
2
100
AcDbLine
 10
-422.068978
 20
401.143974
 30
0.0
 11
-422.068978
 21
415.143974
 31
0.0
  0
LINE
  5
449
100
AcDbEntity
  8
2
100
AcDbLine
 10
-423.068978
 20
416.143974
 30
0.0
 11
-422.068978
 21
415.143974
 31
0.0
  0
LINE
  5
44A
100
AcDbEntity
  8
2
100
AcDbLine
 10
-422.068978
 20
415.143974
 30
0.0
 11
-507.35101
 21
415.143974
 31
0.0
  0
ARC
  5
44B
100
AcDbEntity
  8
2
100
AcDbCircle
 10
-420.068978
 20
401.143974
 30
0.0
 40
2.0
100
AcDbArc
 50
180.0
 51
270.0
  0
ARC
  5
44C
100
AcDbEntity
  8
2
100
AcDbCircle
 10
-506.709994
 20
398.143974
 30
0.0
 40
4.0
100
AcDbArc
 50
90.0
 51
180.0
  0
ARC
  5
44D
100
AcDbEntity
  8
2
100
AcDbCircle
 10
-509.35101
 20
403.531463
 30
0.0
 40
2.0
100
AcDbArc
 50
296.114687
 51
360.0
  0
LINE
  5
44E
100
AcDbEntity
  8
2
100
AcDbLine
 10
-424.709994
 20
415.143974
 30
0.0
 11
-424.709994
 21
401.143974
 31
0.0
  0
LINE
  5
44F
100
AcDbEntity
  8
2
100
AcDbLine
 10
-504.709994
 20
415.143974
 30
0.0
 11
-504.709994
 21
404.143974
 31
0.0
  0
ARC
  5
450
100
AcDbEntity
  8
2
100
AcDbCircle
 10
-422.709994
 20
401.143974
 30
0.0
 40
2.0
100
AcDbArc
 50
180.0
 51
270.0
  0
ARC
  5
451
100
AcDbEntity
  8
2
100
AcDbCircle
 10
-506.709994
 20
404.143974
 30
0.0
 40
2.0
100
AcDbArc
 50
270.0
 51
360.0
  0
LINE
  5
452
100
AcDbEntity
  8
2
100
AcDbLine
 10
-424.709994
 20
415.143974
 30
0.0
 11
-425.709994
 21
416.143974
 31
0.0
  0
LINE
  5
453
100
AcDbEntity
  8
2
100
AcDbLine
 10
-504.709994
 20
415.143974
 30
0.0
 11
-503.709994
 21
416.143974
 31
0.0
  0
LINE
  5
454
100
AcDbEntity
  8
2
100
AcDbLine
 10
-394.709994
 20
412.143974
 30
0.0
 11
-394.709994
 21
401.143974
 31
0.0
  0
LINE
  5
455
100
AcDbEntity
  8
2
100
AcDbLine
 10
-324.709994
 20
401.143974
 30
0.0
 11
-324.709994
 21
412.143974
 31
0.0
  0
ARC
  5
456
100
AcDbEntity
  8
2
100
AcDbCircle
 10
-322.709994
 20
401.143974
 30
0.0
 40
2.0
100
AcDbArc
 50
180.0
 51
270.0
  0
ARC
  5
457
100
AcDbEntity
  8
2
100
AcDbCircle
 10
-396.709994
 20
401.143974
 30
0.0
 40
2.0
100
AcDbArc
 50
270.0
 51
360.0
  0
ARC
  5
458
100
AcDbEntity
  8
2
100
AcDbCircle
 10
-325.709994
 20
412.143974
 30
0.0
 40
1.0
100
AcDbArc
 50
0.0
 51
90.0
  0
ARC
  5
459
100
AcDbEntity
  8
2
100
AcDbCircle
 10
-393.709994
 20
412.143974
 30
0.0
 40
1.0
100
AcDbArc
 50
90.0
 51
180.0
  0
LINE
  5
45A
100
AcDbEntity
  8
2
100
AcDbLine
 10
-344.249386
 20
412.143974
 30
0.0
 11
-344.249386
 21
401.143974
 31
0.0
  0
LINE
  5
45B
100
AcDbEntity
  8
2
100
AcDbLine
 10
-375.170602
 20
412.143974
 30
0.0
 11
-375.170602
 21
401.143974
 31
0.0
  0
ARC
  5
45C
100
AcDbEntity
  8
2
100
AcDbCircle
 10
-346.249386
 20
401.143974
 30
0.0
 40
2.0
100
AcDbArc
 50
270.0
 51
360.0
  0
ARC
  5
45D
100
AcDbEntity
  8
2
100
AcDbCircle
 10
-373.170602
 20
401.143974
 30
0.0
 40
2.0
100
AcDbArc
 50
180.0
 51
270.0
  0
ARC
  5
45E
100
AcDbEntity
  8
2
100
AcDbCircle
 10
-343.249386
 20
412.143974
 30
0.0
 40
1.0
100
AcDbArc
 50
90.0
 51
180.0
  0
ARC
  5
45F
100
AcDbEntity
  8
2
100
AcDbCircle
 10
-376.170602
 20
412.143974
 30
0.0
 40
1.0
100
AcDbArc
 50
0.0
 51
90.0
  0
LINE
  5
460
100
AcDbEntity
  8
2
100
AcDbLine
 10
-331.386494
 20
424.143974
 30
0.0
 11
-330.709994
 21
423.467474
 31
0.0
  0
LINE
  5
461
100
AcDbEntity
  8
2
100
AcDbLine
 10
-330.709994
 20
423.467474
 30
0.0
 11
-330.709994
 21
419.643974
 31
0.0
  0
LINE
  5
462
100
AcDbEntity
  8
2
 62
     2
100
AcDbLine
 10
-331.386494
 20
424.143974
 30
0.0
 11
-331.386494
 21
419.643974
 31
0.0
  0
LINE
  5
463
100
AcDbEntity
  8
2
100
AcDbLine
 10
-331.386494
 20
424.143974
 30
0.0
 11
-338.033494
 21
424.143974
 31
0.0
  0
LINE
  5
464
100
AcDbEntity
  8
2
100
AcDbLine
 10
-338.033494
 20
424.143974
 30
0.0
 11
-338.709994
 21
423.467474
 31
0.0
  0
LINE
  5
465
100
AcDbEntity
  8
2
100
AcDbLine
 10
-338.709994
 20
423.467474
 30
0.0
 11
-330.709994
 21
423.467474
 31
0.0
  0
LINE
  5
466
100
AcDbEntity
  8
2
 62
     2
100
AcDbLine
 10
-338.033494
 20
424.143974
 30
0.0
 11
-338.033494
 21
419.643974
 31
0.0
  0
LINE
  5
467
100
AcDbEntity
  8
2
100
AcDbLine
 10
-338.709994
 20
423.467474
 30
0.0
 11
-338.709994
 21
419.643974
 31
0.0
  0
LINE
  5
468
100
AcDbEntity
  8
2
100
AcDbLine
 10
-342.209994
 20
413.143974
 30
0.0
 11
-342.209994
 21
418.922286
 31
0.0
  0
LINE
  5
469
100
AcDbEntity
  8
2
100
AcDbLine
 10
-342.209994
 20
418.922286
 30
0.0
 11
-340.959994
 21
419.643974
 31
0.0
  0
LINE
  5
46A
100
AcDbEntity
  8
2
100
AcDbLine
 10
-340.959994
 20
419.643974
 30
0.0
 11
-334.709994
 21
419.643974
 31
0.0
  0
LINE
  5
46B
100
AcDbEntity
  8
2
100
AcDbLine
 10
-338.459994
 20
413.143974
 30
0.0
 11
-338.459994
 21
418.922286
 31
0.0
  0
ARC
  5
46C
100
AcDbEntity
  8
2
100
AcDbCircle
 10
-340.334994
 20
416.51191
 30
0.0
 40
3.053774
100
AcDbArc
 50
52.121121
 51
127.878879
  0
ARC
  5
46D
100
AcDbEntity
  8
2
100
AcDbCircle
 10
-334.709994
 20
408.315684
 30
0.0
 40
11.25
100
AcDbArc
 50
90.0
 51
109.471221
  0
LINE
  5
46E
100
AcDbEntity
  8
2
100
AcDbLine
 10
-327.209994
 20
413.143974
 30
0.0
 11
-327.209994
 21
418.922286
 31
0.0
  0
LINE
  5
46F
100
AcDbEntity
  8
2
100
AcDbLine
 10
-327.209994
 20
418.922286
 30
0.0
 11
-328.459994
 21
419.643974
 31
0.0
  0
LINE
  5
470
100
AcDbEntity
  8
2
100
AcDbLine
 10
-328.459994
 20
419.643974
 30
0.0
 11
-334.709994
 21
419.643974
 31
0.0
  0
LINE
  5
471
100
AcDbEntity
  8
2
100
AcDbLine
 10
-330.959994
 20
413.143974
 30
0.0
 11
-330.959994
 21
418.922286
 31
0.0
  0
ARC
  5
472
100
AcDbEntity
  8
2
100
AcDbCircle
 10
-329.084994
 20
416.51191
 30
0.0
 40
3.053774
100
AcDbArc
 50
52.121121
 51
127.878879
  0
ARC
  5
473
100
AcDbEntity
  8
2
100
AcDbCircle
 10
-334.709994
 20
408.315684
 30
0.0
 40
11.25
100
AcDbArc
 50
70.528779
 51
90.0
  0
LINE
  5
474
100
AcDbEntity
  8
2
100
AcDbLine
 10
-381.386494
 20
424.143974
 30
0.0
 11
-380.709994
 21
423.467474
 31
0.0
  0
LINE
  5
475
100
AcDbEntity
  8
2
100
AcDbLine
 10
-380.709994
 20
423.467474
 30
0.0
 11
-380.709994
 21
419.643974
 31
0.0
  0
LINE
  5
476
100
AcDbEntity
  8
2
 62
     2
100
AcDbLine
 10
-381.386494
 20
424.143974
 30
0.0
 11
-381.386494
 21
419.643974
 31
0.0
  0
LINE
  5
477
100
AcDbEntity
  8
2
100
AcDbLine
 10
-381.386494
 20
424.143974
 30
0.0
 11
-388.033494
 21
424.143974
 31
0.0
  0
LINE
  5
478
100
AcDbEntity
  8
2
100
AcDbLine
 10
-388.033494
 20
424.143974
 30
0.0
 11
-388.709994
 21
423.467474
 31
0.0
  0
LINE
  5
479
100
AcDbEntity
  8
2
100
AcDbLine
 10
-388.709994
 20
423.467474
 30
0.0
 11
-380.709994
 21
423.467474
 31
0.0
  0
LINE
  5
47A
100
AcDbEntity
  8
2
 62
     2
100
AcDbLine
 10
-388.033494
 20
424.143974
 30
0.0
 11
-388.033494
 21
419.643974
 31
0.0
  0
LINE
  5
47B
100
AcDbEntity
  8
2
100
AcDbLine
 10
-388.709994
 20
423.467474
 30
0.0
 11
-388.709994
 21
419.643974
 31
0.0
  0
LINE
  5
47C
100
AcDbEntity
  8
2
100
AcDbLine
 10
-392.209994
 20
413.143974
 30
0.0
 11
-392.209994
 21
418.922286
 31
0.0
  0
LINE
  5
47D
100
AcDbEntity
  8
2
100
AcDbLine
 10
-392.209994
 20
418.922286
 30
0.0
 11
-390.959994
 21
419.643974
 31
0.0
  0
LINE
  5
47E
100
AcDbEntity
  8
2
100
AcDbLine
 10
-390.959994
 20
419.643974
 30
0.0
 11
-384.709994
 21
419.643974
 31
0.0
  0
LINE
  5
47F
100
AcDbEntity
  8
2
100
AcDbLine
 10
-388.459994
 20
413.143974
 30
0.0
 11
-388.459994
 21
418.922286
 31
0.0
  0
ARC
  5
480
100
AcDbEntity
  8
2
100
AcDbCircle
 10
-390.334994
 20
416.51191
 30
0.0
 40
3.053774
100
AcDbArc
 50
52.121121
 51
127.878879
  0
ARC
  5
481
100
AcDbEntity
  8
2
100
AcDbCircle
 10
-384.709994
 20
408.315684
 30
0.0
 40
11.25
100
AcDbArc
 50
90.0
 51
109.471221
  0
LINE
  5
482
100
AcDbEntity
  8
2
100
AcDbLine
 10
-377.209994
 20
413.143974
 30
0.0
 11
-377.209994
 21
418.922286
 31
0.0
  0
LINE
  5
483
100
AcDbEntity
  8
2
100
AcDbLine
 10
-377.209994
 20
418.922286
 30
0.0
 11
-378.459994
 21
419.643974
 31
0.0
  0
LINE
  5
484
100
AcDbEntity
  8
2
100
AcDbLine
 10
-378.459994
 20
419.643974
 30
0.0
 11
-384.709994
 21
419.643974
 31
0.0
  0
LINE
  5
485
100
AcDbEntity
  8
2
100
AcDbLine
 10
-380.959994
 20
413.143974
 30
0.0
 11
-380.959994
 21
418.922286
 31
0.0
  0
ARC
  5
486
100
AcDbEntity
  8
2
100
AcDbCircle
 10
-379.084994
 20
416.51191
 30
0.0
 40
3.053774
100
AcDbArc
 50
52.121121
 51
127.878879
  0
ARC
  5
487
100
AcDbEntity
  8
2
100
AcDbCircle
 10
-384.709994
 20
408.315684
 30
0.0
 40
11.25
100
AcDbArc
 50
70.528779
 51
90.0
  0
ARC
  5
488
100
AcDbEntity
  8
2
100
AcDbCircle
 10
-408.709994
 20
398.143974
 30
0.0
 40
8.0
100
AcDbArc
 50
17.457603
 51
162.542397
  0
ARC
  5
489
100
AcDbEntity
  8
2
100
AcDbCircle
 10
-399.170602
 20
401.143974
 30
0.0
 40
2.0
100
AcDbArc
 50
197.457603
 51
270.0
  0
ARC
  5
48A
100
AcDbEntity
  8
2
100
AcDbCircle
 10
-418.249386
 20
401.143974
 30
0.0
 40
2.0
100
AcDbArc
 50
270.0
 51
342.542397
  0
LINE
  5
48B
100
AcDbEntity
  8
2
100
AcDbLine
 10
-525.709994
 20
274.643974
 30
0.0
 11
-525.709994
 21
263.876025
 31
0.0
  0
ARC
  5
48C
100
AcDbEntity
  8
2
100
AcDbCircle
 10
-526.709994
 20
263.876025
 30
0.0
 40
1.0
100
AcDbArc
 50
300.0
 51
360.0
  0
ARC
  5
48D
100
AcDbEntity
  8
2
100
AcDbCircle
 10
-521.709994
 20
274.643974
 30
0.0
 40
4.0
100
AcDbArc
 50
107.416924
 51
180.0
  0
ARC
  5
48E
100
AcDbEntity
  8
2
100
AcDbCircle
 10
-439.009146
 20
298.143974
 30
0.0
 40
6.0
100
AcDbArc
 50
180.0
 51
270.0
  0
LINE
  5
48F
100
AcDbEntity
  8
2
100
AcDbLine
 10
-447.881612
 20
301.981768
 30
0.0
 11
-447.881612
 21
384.143974
 31
0.0
  0
ARC
  5
490
100
AcDbEntity
  8
2
100
AcDbCircle
 10
-468.373695
 20
387.143974
 30
0.0
 40
2.0
100
AcDbArc
 50
180.0
 51
270.0
  0
ARC
  5
491
100
AcDbEntity
  8
2
100
AcDbCircle
 10
-461.150688
 20
387.143974
 30
0.0
 40
2.0
100
AcDbArc
 50
270.0
 51
350.405932
  0
ARC
  5
492
100
AcDbEntity
  8
2
100
AcDbCircle
 10
-476.675849
 20
404.143974
 30
0.0
 40
2.0
100
AcDbArc
 50
270.0
 51
360.0
  0
LINE
  5
493
100
AcDbEntity
  8
2
100
AcDbLine
 10
-234.709994
 20
401.143974
 30
0.0
 11
-222.18706
 21
400.048359
 31
0.0
  0
LINE
  5
494
100
AcDbEntity
  8
2
100
AcDbLine
 10
-234.709994
 20
289.143974
 30
0.0
 11
-222.18706
 21
290.239589
 31
0.0
  0
LINE
  5
495
100
AcDbEntity
  8
2
100
AcDbLine
 10
-216.709994
 20
296.216757
 30
0.0
 11
-216.709994
 21
394.071191
 31
0.0
  0
ARC
  5
496
100
AcDbEntity
  8
2
100
AcDbCircle
 10
-222.709994
 20
394.071191
 30
0.0
 40
6.0
100
AcDbArc
 50
0.0
 51
85.0
  0
ARC
  5
497
100
AcDbEntity
  8
2
100
AcDbCircle
 10
-222.709994
 20
296.216757
 30
0.0
 40
6.0
100
AcDbArc
 50
275.0
 51
360.0
  0
LINE
  5
498
100
AcDbEntity
  8
2
100
AcDbLine
 10
-219.709994
 20
387.643974
 30
0.0
 11
-229.209994
 21
387.643974
 31
0.0
  0
LINE
  5
499
100
AcDbEntity
  8
2
100
AcDbLine
 10
-229.209994
 20
302.643974
 30
0.0
 11
-219.709994
 21
302.643974
 31
0.0
  0
LINE
  5
49A
100
AcDbEntity
  8
2
100
AcDbLine
 10
-229.709994
 20
290.039583
 30
0.0
 11
-229.709994
 21
302.143974
 31
0.0
  0
LINE
  5
49B
100
AcDbEntity
  8
2
100
AcDbLine
 10
-229.709994
 20
388.143974
 30
0.0
 11
-229.709994
 21
400.248365
 31
0.0
  0
ARC
  5
49C
100
AcDbEntity
  8
2
100
AcDbCircle
 10
-219.709994
 20
384.643974
 30
0.0
 40
3.0
100
AcDbArc
 50
0.0
 51
90.0
  0
ARC
  5
49D
100
AcDbEntity
  8
2
100
AcDbCircle
 10
-219.709994
 20
305.643974
 30
0.0
 40
3.0
100
AcDbArc
 50
270.0
 51
360.0
  0
ARC
  5
49E
100
AcDbEntity
  8
2
100
AcDbCircle
 10
-230.209994
 20
400.248365
 30
0.0
 40
0.5
100
AcDbArc
 50
0.0
 51
85.0
  0
ARC
  5
49F
100
AcDbEntity
  8
2
100
AcDbCircle
 10
-230.209994
 20
290.039583
 30
0.0
 40
0.5
100
AcDbArc
 50
275.0
 51
360.0
  0
ARC
  5
4A0
100
AcDbEntity
  8
2
100
AcDbCircle
 10
-229.209994
 20
388.143974
 30
0.0
 40
0.5
100
AcDbArc
 50
180.0
 51
270.0
  0
ARC
  5
4A1
100
AcDbEntity
  8
2
100
AcDbCircle
 10
-229.209994
 20
302.143974
 30
0.0
 40
0.5
100
AcDbArc
 50
90.0
 51
180.0
  0
LINE
  5
4A2
100
AcDbEntity
  8
2
100
AcDbLine
 10
-525.709994
 20
-117.956026
 30
0.0
 11
-525.709994
 21
-142.956026
 31
0.0
  0
LINE
  5
4A3
100
AcDbEntity
  8
2
100
AcDbLine
 10
-522.170553
 20
-115.956026
 30
0.0
 11
-523.709994
 21
-115.956026
 31
0.0
  0
ARC
  5
4A4
100
AcDbEntity
  8
2
100
AcDbCircle
 10
-523.709994
 20
-117.956026
 30
0.0
 40
2.0
100
AcDbArc
 50
90.0
 51
180.0
  0
LINE
  5
4A5
100
AcDbEntity
  8
2
100
AcDbLine
 10
-234.709994
 20
-45.956026
 30
0.0
 11
-222.18706
 21
-47.051641
 31
0.0
  0
LINE
  5
4A6
100
AcDbEntity
  8
2
100
AcDbLine
 10
-234.709994
 20
-133.956026
 30
0.0
 11
-222.18706
 21
-132.860411
 31
0.0
  0
LINE
  5
4A7
100
AcDbEntity
  8
2
100
AcDbLine
 10
-216.709994
 20
-53.028809
 30
0.0
 11
-216.709994
 21
-126.883243
 31
0.0
  0
ARC
  5
4A8
100
AcDbEntity
  8
2
100
AcDbCircle
 10
-222.709994
 20
-53.028809
 30
0.0
 40
6.0
100
AcDbArc
 50
0.0
 51
85.0
  0
ARC
  5
4A9
100
AcDbEntity
  8
2
100
AcDbCircle
 10
-222.709994
 20
-126.883243
 30
0.0
 40
6.0
100
AcDbArc
 50
275.0
 51
360.0
  0
LINE
  5
4AA
100
AcDbEntity
  8
2
100
AcDbLine
 10
-229.209994
 20
-59.456026
 30
0.0
 11
-219.709994
 21
-59.456026
 31
0.0
  0
LINE
  5
4AB
100
AcDbEntity
  8
2
100
AcDbLine
 10
-219.709994
 20
-120.456026
 30
0.0
 11
-229.209994
 21
-120.456026
 31
0.0
  0
LINE
  5
4AC
100
AcDbEntity
  8
2
100
AcDbLine
 10
-229.709994
 20
-133.060417
 30
0.0
 11
-229.709994
 21
-120.956026
 31
0.0
  0
LINE
  5
4AD
100
AcDbEntity
  8
2
100
AcDbLine
 10
-229.709994
 20
-58.956026
 30
0.0
 11
-229.709994
 21
-46.851635
 31
0.0
  0
ARC
  5
4AE
100
AcDbEntity
  8
2
100
AcDbCircle
 10
-219.709994
 20
-62.456026
 30
0.0
 40
3.0
100
AcDbArc
 50
0.0
 51
90.0
  0
ARC
  5
4AF
100
AcDbEntity
  8
2
100
AcDbCircle
 10
-219.709994
 20
-117.456026
 30
0.0
 40
3.0
100
AcDbArc
 50
270.0
 51
360.0
  0
ARC
  5
4B0
100
AcDbEntity
  8
2
100
AcDbCircle
 10
-230.209994
 20
-46.851635
 30
0.0
 40
0.5
100
AcDbArc
 50
0.0
 51
85.0
  0
ARC
  5
4B1
100
AcDbEntity
  8
2
100
AcDbCircle
 10
-230.209994
 20
-133.060417
 30
0.0
 40
0.5
100
AcDbArc
 50
275.0
 51
360.0
  0
ARC
  5
4B2
100
AcDbEntity
  8
2
100
AcDbCircle
 10
-229.209994
 20
-58.956026
 30
0.0
 40
0.5
100
AcDbArc
 50
180.0
 51
270.0
  0
ARC
  5
4B3
100
AcDbEntity
  8
2
100
AcDbCircle
 10
-229.209994
 20
-120.956026
 30
0.0
 40
0.5
100
AcDbArc
 50
90.0
 51
180.0
  0
LINE
  5
4B4
100
AcDbEntity
  8
2
100
AcDbLine
 10
-525.459994
 20
248.143974
 30
0.0
 11
-237.709994
 21
248.143974
 31
0.0
  0
LINE
  5
4B5
100
AcDbEntity
  8
2
100
AcDbLine
 10
-490.823243
 20
230.143974
 30
0.0
 11
-246.369715
 21
230.143974
 31
0.0
  0
LINE
  5
4B6
100
AcDbEntity
  8
2
100
AcDbLine
 10
-237.709994
 20
248.143974
 30
0.0
 11
-241.540086
 21
233.849879
 31
0.0
  0
ARC
  5
4B7
100
AcDbEntity
  8
2
100
AcDbCircle
 10
-246.369715
 20
235.143974
 30
0.0
 40
5.0
100
AcDbArc
 50
270.0
 51
345.0
  0
LINE
  5
4B8
100
AcDbEntity
  8
2
100
AcDbLine
 10
-495.15337
 20
232.643974
 30
0.0
 11
-503.236274
 21
246.643974
 31
0.0
  0
ARC
  5
4B9
100
AcDbEntity
  8
2
100
AcDbCircle
 10
-524.709994
 20
250.143974
 30
0.0
 40
2.0
100
AcDbArc
 50
180.0
 51
270.0
  0
ARC
  5
4BA
100
AcDbEntity
  8
2
100
AcDbCircle
 10
-296.834525
 20
-71.010988
 30
0.0
 40
53.0
100
AcDbArc
 50
82.815375
 51
97.894178
  0
ARC
  5
4BB
100
AcDbEntity
  8
2
100
AcDbCircle
 10
-453.709994
 20
-89.776026
 30
0.0
 40
40.0
100
AcDbArc
 50
99.899988
 51
268.765968
  0
ARC
  5
4BC
100
AcDbEntity
  8
2
100
AcDbCircle
 10
-297.709994
 20
-77.956026
 30
0.0
 40
55.176915
100
AcDbArc
 50
268.765968
 51
99.899988
  0
ARC
  5
4BD
100
AcDbEntity
  8
2
100
AcDbCircle
 10
-458.922299
 20
-89.776026
 30
0.0
 40
45.18
100
AcDbArc
 50
180.0
 51
270.0
  0
ARC
  5
4BE
100
AcDbEntity
  8
2
100
AcDbCircle
 10
-454.116859
 20
-89.776026
 30
0.0
 40
49.98544
100
AcDbArc
 50
97.894178
 51
180.0
  0
ARC
  5
4BF
100
AcDbEntity
  8
2
100
AcDbCircle
 10
-384.709994
 20
-31.026026
 30
0.0
 40
6.5
100
AcDbArc
 50
198.050649
 51
357.737707
  0
LINE
  5
4C0
100
AcDbEntity
  8
2
100
AcDbLine
 10
-460.982054
 20
-40.264277
 30
0.0
 11
-394.154464
 21
-30.998103
 31
0.0
  0
LINE
  5
4C1
100
AcDbEntity
  8
2
100
AcDbLine
 10
-375.62943
 20
-28.429461
 30
0.0
 11
-304.113752
 21
-18.513247
 31
0.0
  0
ARC
  5
4C2
100
AcDbEntity
  8
2
100
AcDbCircle
 10
-375.217399
 20
-31.401031
 30
0.0
 40
3.0
100
AcDbArc
 50
97.894178
 51
177.737707
  0
ARC
  5
4C3
100
AcDbEntity
  8
2
100
AcDbCircle
 10
-393.742433
 20
-33.969673
 30
0.0
 40
3.0
100
AcDbArc
 50
18.050649
 51
97.894178
  0
LINE
  5
4C4
100
AcDbEntity
  8
2
100
AcDbLine
 10
-378.209994
 20
-127.956026
 30
0.0
 11
-378.209994
 21
-131.956026
 31
0.0
  0
LINE
  5
4C5
100
AcDbEntity
  8
2
100
AcDbLine
 10
-391.209994
 20
-127.956026
 30
0.0
 11
-391.209994
 21
-131.956026
 31
0.0
  0
LINE
  5
4C6
100
AcDbEntity
  8
2
100
AcDbLine
 10
-454.571445
 20
-129.766749
 30
0.0
 11
-394.903177
 21
-131.052078
 31
0.0
  0
LINE
  5
4C7
100
AcDbEntity
  8
2
100
AcDbLine
 10
-374.646029
 20
-131.488442
 30
0.0
 11
-298.898298
 21
-133.120143
 31
0.0
  0
ARC
  5
4C8
100
AcDbEntity
  8
2
100
AcDbCircle
 10
-384.709994
 20
-127.956026
 30
0.0
 40
6.5
100
AcDbArc
 50
0.0
 51
180.0
  0
ARC
  5
4C9
100
AcDbEntity
  8
2
100
AcDbCircle
 10
-394.209994
 20
-131.956026
 30
0.0
 40
3.0
100
AcDbArc
 50
270.0
 51
360.0
  0
ARC
  5
4CA
100
AcDbEntity
  8
2
100
AcDbCircle
 10
-375.209994
 20
-131.956026
 30
0.0
 40
3.0
100
AcDbArc
 50
180.0
 51
270.0
  0
LINE
  5
4CB
100
AcDbEntity
  8
2
100
AcDbLine
 10
-460.58715
 20
-50.371652
 30
0.0
 11
-386.110357
 21
-37.373387
 31
0.0
  0
LINE
  5
4CC
100
AcDbEntity
  8
2
100
AcDbLine
 10
-381.242331
 20
-36.523781
 30
0.0
 11
-307.1965
 21
-23.600731
 31
0.0
  0
ARC
  5
4CD
100
AcDbEntity
  8
2
100
AcDbCircle
 10
-297.709994
 20
-77.956026
 30
0.0
 40
60.0
100
AcDbArc
 50
0.0
 51
46.799266
  0
ARC
  5
4CE
100
AcDbEntity
  8
2
100
AcDbCircle
 10
-297.709994
 20
-77.956026
 30
0.0
 40
60.0
100
AcDbArc
 50
56.98558
 51
82.815375
  0
ARC
  5
4CF
100
AcDbEntity
  8
2
100
AcDbCircle
 10
-257.709994
 20
-26.956026
 30
0.0
 40
6.5
100
AcDbArc
 50
199.707605
 51
264.077241
  0
ARC
  5
4D0
100
AcDbEntity
  8
2
100
AcDbCircle
 10
-258.690277
 20
-36.405314
 30
0.0
 40
3.0
100
AcDbArc
 50
46.799266
 51
84.077241
  0
ARC
  5
4D1
100
AcDbEntity
  8
2
100
AcDbCircle
 10
-266.653539
 20
-30.159618
 30
0.0
 40
3.0
100
AcDbArc
 50
19.707605
 51
56.98558
  0
ARC
  5
4D2
100
AcDbEntity
  8
2
100
AcDbCircle
 10
-294.709994
 20
-77.956026
 30
0.0
 40
57.0
100
AcDbArc
 50
270.0
 51
304.899005
  0
ARC
  5
4D3
100
AcDbEntity
  8
2
100
AcDbCircle
 10
-294.709994
 20
-77.956026
 30
0.0
 40
57.0
100
AcDbArc
 50
315.900804
 51
360.0
  0
ARC
  5
4D4
100
AcDbEntity
  8
2
100
AcDbCircle
 10
-254.709994
 20
-124.956026
 30
0.0
 40
6.5
100
AcDbArc
 50
97.382331
 51
163.417478
  0
ARC
  5
4D5
100
AcDbEntity
  8
2
100
AcDbCircle
 10
-255.930647
 20
-115.534773
 30
0.0
 40
3.0
100
AcDbArc
 50
277.382331
 51
315.900804
  0
ARC
  5
4D6
100
AcDbEntity
  8
2
100
AcDbCircle
 10
-263.814886
 20
-122.244764
 30
0.0
 40
3.0
100
AcDbArc
 50
304.899005
 51
343.417478
  0
ARC
  5
4D7
100
AcDbEntity
  8
2
100
AcDbCircle
 10
-297.709994
 20
-77.956026
 30
0.0
 40
22.2
100
AcDbArc
 50
20.571635
 51
163.0
  0
ARC
  5
4D8
100
AcDbEntity
  8
2
100
AcDbCircle
 10
-293.809994
 20
-77.956026
 30
0.0
 40
18.2
100
AcDbArc
 50
25.014065
 51
166.591995
  0
LINE
  5
4D9
100
AcDbEntity
  8
2
100
AcDbLine
 10
-279.599949
 20
-70.872017
 30
0.0
 11
-277.317081
 21
-70.260325
 31
0.0
  0
LINE
  5
4DA
100
AcDbEntity
  8
2
100
AcDbLine
 10
-276.925608
 20
-70.15543
 30
0.0
 11
-274.315397
 21
-69.456026
 31
0.0
  0
LINE
  5
4DB
100
AcDbEntity
  8
2
100
AcDbLine
 10
-275.509994
 20
-77.956026
 30
0.0
 11
-279.599949
 21
-70.872017
 31
0.0
  0
LINE
  5
4DC
100
AcDbEntity
  8
2
100
AcDbLine
 10
-275.509994
 20
-77.956026
 30
0.0
 11
-274.315397
 21
-69.456026
 31
0.0
  0
LINE
  5
4DD
100
AcDbEntity
  8
2
100
AcDbLine
 10
-311.513926
 20
-73.735741
 30
0.0
 11
-318.93996
 21
-71.465374
 31
0.0
  0
LINE
  5
4DE
100
AcDbEntity
  8
2
100
AcDbLine
 10
-458.209994
 20
-70.456026
 30
0.0
 11
-458.209994
 21
-87.956026
 31
0.0
  0
LINE
  5
4DF
100
AcDbEntity
  8
2
100
AcDbLine
 10
-446.543328
 20
-105.456026
 30
0.0
 11
-434.876661
 21
-105.456026
 31
0.0
  0
LINE
  5
4E0
100
AcDbEntity
  8
2
100
AcDbLine
 10
-458.209994
 20
-70.456026
 30
0.0
 11
-423.209994
 21
-70.456026
 31
0.0
  0
LINE
  5
4E1
100
AcDbEntity
  8
2
100
AcDbLine
 10
-458.209994
 20
-87.956026
 30
0.0
 11
-423.209994
 21
-70.456026
 31
0.0
  0
LINE
  5
4E2
100
AcDbEntity
  8
2
100
AcDbLine
 10
-446.543328
 20
-82.122693
 30
0.0
 11
-446.543328
 21
-105.456026
 31
0.0
  0
LINE
  5
4E3
100
AcDbEntity
  8
2
100
AcDbLine
 10
-434.876661
 20
-82.122693
 30
0.0
 11
-434.876661
 21
-105.456026
 31
0.0
  0
LINE
  5
4E4
100
AcDbEntity
  8
2
100
AcDbLine
 10
-458.209994
 20
-82.122693
 30
0.0
 11
-434.876661
 21
-82.122693
 31
0.0
  0
LINE
  5
4E5
100
AcDbEntity
  8
2
100
AcDbLine
 10
-434.876661
 20
-76.289359
 30
0.0
 11
-458.209994
 21
-76.289359
 31
0.0
  0
LINE
  5
4E6
100
AcDbEntity
  8
2
100
AcDbLine
 10
-434.876661
 20
-76.289359
 30
0.0
 11
-434.876661
 21
-70.456026
 31
0.0
  0
LINE
  5
4E7
100
AcDbEntity
  8
2
100
AcDbLine
 10
-446.543328
 20
-82.122693
 30
0.0
 11
-446.543328
 21
-70.456026
 31
0.0
  0
LINE
  5
4E8
100
AcDbEntity
  8
2
100
AcDbLine
 10
-434.876661
 20
-70.456026
 30
0.0
 11
-458.209994
 21
-82.122693
 31
0.0
  0
LINE
  5
4E9
100
AcDbEntity
  8
2
100
AcDbLine
 10
-446.543328
 20
-70.456026
 30
0.0
 11
-458.209994
 21
-76.289359
 31
0.0
  0
ARC
  5
4EA
100
AcDbEntity
  8
2
100
AcDbCircle
 10
-523.709994
 20
-142.956026
 30
0.0
 40
2.0
100
AcDbArc
 50
180.0
 51
270.0
  0
LINE
  5
4EB
100
AcDbEntity
  8
2
100
AcDbLine
 10
-410.709994
 20
-152.04457
 30
0.0
 11
-410.709994
 21
-157.956026
 31
0.0
  0
LINE
  5
4EC
100
AcDbEntity
  8
2
100
AcDbLine
 10
-308.709994
 20
-146.956026
 30
0.0
 11
-308.709994
 21
-157.956026
 31
0.0
  0
ARC
  5
4ED
100
AcDbEntity
  8
2
100
AcDbCircle
 10
-306.709994
 20
-146.956026
 30
0.0
 40
2.0
100
AcDbArc
 50
90.0
 51
180.0
  0
LINE
  5
4EE
100
AcDbEntity
  8
2
100
AcDbLine
 10
-267.709994
 20
-135.956026
 30
0.0
 11
-267.709994
 21
-142.956026
 31
0.0
  0
LINE
  5
4EF
100
AcDbEntity
  8
2
100
AcDbLine
 10
-268.459994
 20
-144.956026
 30
0.0
 11
-524.959994
 21
-144.956026
 31
0.0
  0
LINE
  5
4F0
100
AcDbEntity
  8
2
100
AcDbLine
 10
-410.709994
 20
-157.956026
 30
0.0
 11
-308.709994
 21
-157.956026
 31
0.0
  0
LINE
  5
4F1
100
AcDbEntity
  8
2
100
AcDbLine
 10
-434.709994
 20
-3.956026
 30
0.0
 11
-274.709994
 21
-3.956026
 31
0.0
  0
LINE
  5
4F2
100
AcDbEntity
  8
2
100
AcDbLine
 10
-234.709994
 20
-45.956026
 30
0.0
 11
-234.709994
 21
-133.956026
 31
0.0
  0
LINE
  5
4F3
100
AcDbEntity
  8
2
100
AcDbLine
 10
-315.873359
 20
224.143974
 30
0.0
 11
-279.546629
 21
224.143974
 31
0.0
  0
LINE
  5
4F4
100
AcDbEntity
  8
2
100
AcDbLine
 10
-310.17534
 20
212.143974
 30
0.0
 11
-285.244648
 21
212.143974
 31
0.0
  0
LINE
  5
4F5
100
AcDbEntity
  8
2
100
AcDbLine
 10
-283.312797
 20
213.626336
 30
0.0
 11
-280.885049
 21
222.686812
 31
0.0
  0
LINE
  5
4F6
100
AcDbEntity
  8
2
100
AcDbLine
 10
-274.717
 20
227.849879
 30
0.0
 11
-274.499497
 21
228.661612
 31
0.0
  0
LINE
  5
4F7
100
AcDbEntity
  8
2
100
AcDbLine
 10
-312.107192
 20
213.626336
 30
0.0
 11
-314.534939
 21
222.686812
 31
0.0
  0
LINE
  5
4F8
100
AcDbEntity
  8
2
100
AcDbLine
 10
-320.702989
 20
227.849879
 30
0.0
 11
-320.920492
 21
228.661612
 31
0.0
  0
ARC
  5
4F9
100
AcDbEntity
  8
2
100
AcDbCircle
 10
-279.546629
 20
229.143974
 30
0.0
 40
5.0
100
AcDbArc
 50
270.0
 51
345.0
  0
ARC
  5
4FA
100
AcDbEntity
  8
2
100
AcDbCircle
 10
-315.873359
 20
229.143974
 30
0.0
 40
5.0
100
AcDbArc
 50
195.0
 51
270.0
  0
ARC
  5
4FB
100
AcDbEntity
  8
2
100
AcDbCircle
 10
-285.244648
 20
214.143974
 30
0.0
 40
2.0
100
AcDbArc
 50
270.0
 51
345.0
  0
ARC
  5
4FC
100
AcDbEntity
  8
2
100
AcDbCircle
 10
-310.17534
 20
214.143974
 30
0.0
 40
2.0
100
AcDbArc
 50
195.0
 51
270.0
  0
ARC
  5
4FD
100
AcDbEntity
  8
2
100
AcDbCircle
 10
-278.953198
 20
222.169174
 30
0.0
 40
2.0
100
AcDbArc
 50
94.86314
 51
165.0
  0
ARC
  5
4FE
100
AcDbEntity
  8
2
100
AcDbCircle
 10
-272.567645
 20
228.143974
 30
0.0
 40
2.0
100
AcDbArc
 50
90.0
 51
165.0
  0
ARC
  5
4FF
100
AcDbEntity
  8
2
100
AcDbCircle
 10
-322.852343
 20
228.143974
 30
0.0
 40
2.0
100
AcDbArc
 50
15.0
 51
90.0
  0
ARC
  5
500
100
AcDbEntity
  8
2
100
AcDbCircle
 10
-316.466791
 20
222.169174
 30
0.0
 40
2.0
100
AcDbArc
 50
15.0
 51
85.13686
  0
ARC
  5
501
100
AcDbEntity
  8
2
100
AcDbCircle
 10
172.945448
 20
-43.956026
 30
0.0
 40
2.0
100
AcDbArc
 50
180.0
 51
270.0
  0
ARC
  5
502
100
AcDbEntity
  8
2
100
AcDbCircle
 10
92.945448
 20
-43.956026
 30
0.0
 40
2.0
100
AcDbArc
 50
270.0
 51
360.0
  0
ARC
  5
503
100
AcDbEntity
  8
2
100
AcDbCircle
 10
86.945448
 20
-52.956026
 30
0.0
 40
7.0
100
AcDbArc
 50
90.0
 51
180.0
  0
ARC
  5
504
100
AcDbEntity
  8
2
100
AcDbCircle
 10
184.945448
 20
-52.956026
 30
0.0
 40
7.0
100
AcDbArc
 50
0.0
 51
90.0
  0
ARC
  5
505
100
AcDbEntity
  8
2
100
AcDbCircle
 10
184.945448
 20
-126.956026
 30
0.0
 40
7.0
100
AcDbArc
 50
270.0
 51
360.0
  0
ARC
  5
506
100
AcDbEntity
  8
2
100
AcDbCircle
 10
86.945448
 20
-126.956026
 30
0.0
 40
7.0
100
AcDbArc
 50
180.0
 51
270.0
  0
LINE
  5
507
100
AcDbEntity
  8
2
100
AcDbLine
 10
165.945448
 20
-85.456026
 30
0.0
 11
165.945448
 21
-94.456026
 31
0.0
  0
LINE
  5
508
100
AcDbEntity
  8
2
100
AcDbLine
 10
105.945448
 20
-85.456026
 30
0.0
 11
105.945448
 21
-94.456026
 31
0.0
  0
ARC
  5
509
100
AcDbEntity
  8
2
100
AcDbCircle
 10
164.445448
 20
-85.456026
 30
0.0
 40
1.5
100
AcDbArc
 50
0.0
 51
90.0
  0
ARC
  5
50A
100
AcDbEntity
  8
2
100
AcDbCircle
 10
107.445448
 20
-85.456026
 30
0.0
 40
1.5
100
AcDbArc
 50
90.0
 51
180.0
  0
ARC
  5
50B
100
AcDbEntity
  8
2
100
AcDbCircle
 10
107.445448
 20
-94.456026
 30
0.0
 40
1.5
100
AcDbArc
 50
180.0
 51
270.0
  0
ARC
  5
50C
100
AcDbEntity
  8
2
100
AcDbCircle
 10
164.445448
 20
-94.456026
 30
0.0
 40
1.5
100
AcDbArc
 50
270.0
 51
360.0
  0
LINE
  5
50D
100
AcDbEntity
  8
2
100
AcDbLine
 10
82.945448
 20
-0.956026
 30
0.0
 11
82.945448
 21
-18.413136
 31
0.0
  0
LINE
  5
50E
100
AcDbEntity
  8
2
100
AcDbLine
 10
180.945448
 20
-9.956026
 30
0.0
 11
180.945448
 21
-45.956026
 31
0.0
  0
ARC
  5
50F
100
AcDbEntity
  8
2
100
AcDbCircle
 10
181.945448
 20
-7.956026
 30
0.0
 40
1.0
100
AcDbArc
 50
270.0
 51
360.0
  0
ARC
  5
510
100
AcDbEntity
  8
2
100
AcDbCircle
 10
181.945448
 20
-9.956026
 30
0.0
 40
1.0
100
AcDbArc
 50
90.0
 51
180.0
  0
LINE
  5
511
100
AcDbEntity
  8
2
100
AcDbLine
 10
-455.234609
 20
390.143974
 30
0.0
 11
-433.18213
 21
390.143974
 31
0.0
  0
ARC
  5
512
100
AcDbEntity
  8
2
100
AcDbCircle
 10
-441.881612
 20
384.143974
 30
0.0
 40
6.0
100
AcDbArc
 50
90.0
 51
180.0
  0
ARC
  5
513
100
AcDbEntity
  8
2
100
AcDbCircle
 10
-455.234609
 20
386.143974
 30
0.0
 40
4.0
100
AcDbArc
 50
90.0
 51
170.405932
  0
ARC
  5
514
100
AcDbEntity
  8
2
100
AcDbCircle
 10
-452.74414
 20
392.143974
 30
0.0
 40
2.0
100
AcDbArc
 50
180.0
 51
270.0
  0
LINE
  5
515
100
AcDbEntity
  8
2
100
AcDbLine
 10
-438.252481
 20
395.143974
 30
0.0
 11
-438.252481
 21
393.143974
 31
0.0
  0
ARC
  5
516
100
AcDbEntity
  8
2
100
AcDbCircle
 10
-441.252481
 20
393.143974
 30
0.0
 40
3.0
100
AcDbArc
 50
270.0
 51
360.0
  0
LINE
  5
517
100
AcDbEntity
  8
2
100
AcDbLine
 10
170.945448
 20
-23.956026
 30
0.0
 11
170.945448
 21
-43.956026
 31
0.0
  0
LINE
  5
518
100
AcDbEntity
  8
2
100
AcDbLine
 10
94.945448
 20
-23.956026
 30
0.0
 11
94.945448
 21
-43.956026
 31
0.0
  0
LINE
  5
519
100
AcDbEntity
  8
2
100
AcDbLine
 10
86.945448
 20
-45.956026
 30
0.0
 11
184.945448
 21
-45.956026
 31
0.0
  0
LINE
  5
51A
100
AcDbEntity
  8
2
100
AcDbLine
 10
79.945448
 20
-126.956026
 30
0.0
 11
79.945448
 21
-52.956026
 31
0.0
  0
LINE
  5
51B
100
AcDbEntity
  8
2
100
AcDbLine
 10
184.945448
 20
-133.956026
 30
0.0
 11
86.945448
 21
-133.956026
 31
0.0
  0
LINE
  5
51C
100
AcDbEntity
  8
2
100
AcDbLine
 10
191.945448
 20
-52.956026
 30
0.0
 11
191.945448
 21
-126.956026
 31
0.0
  0
LINE
  5
51D
100
AcDbEntity
  8
2
100
AcDbLine
 10
182.945448
 20
-3.956026
 30
0.0
 11
82.945448
 21
-3.956026
 31
0.0
  0
LINE
  5
51E
100
AcDbEntity
  8
2
100
AcDbLine
 10
182.945448
 20
-0.956026
 30
0.0
 11
182.945448
 21
-7.956026
 31
0.0
  0
LINE
  5
51F
100
AcDbEntity
  8
2
100
AcDbLine
 10
164.445448
 20
-83.956026
 30
0.0
 11
107.445448
 21
-83.956026
 31
0.0
  0
LINE
  5
520
100
AcDbEntity
  8
2
100
AcDbLine
 10
107.445448
 20
-95.956026
 30
0.0
 11
164.445448
 21
-95.956026
 31
0.0
  0
LINE
  5
521
100
AcDbEntity
  8
2
100
AcDbLine
 10
83.945448
 20
-26.371707
 30
0.0
 11
83.945448
 21
-42.956026
 31
0.0
  0
LINE
  5
522
100
AcDbEntity
  8
2
100
AcDbLine
 10
39.945448
 20
-16.054651
 30
0.0
 11
52.945448
 21
-16.054651
 31
0.0
  0
ARC
  5
523
100
AcDbEntity
  8
2
100
AcDbCircle
 10
52.945448
 20
-17.054651
 30
0.0
 40
1.0
100
AcDbArc
 50
0.0
 51
90.0
  0
ARC
  5
524
100
AcDbEntity
  8
2
100
AcDbCircle
 10
-269.709994
 20
-142.956026
 30
0.0
 40
2.0
100
AcDbArc
 50
270.0
 51
360.0
  0
LINE
  5
525
100
AcDbEntity
  8
2
100
AcDbLine
 10
54.893112
 20
-20.104316
 30
0.0
 11
79.207128
 21
-21.378559
 31
0.0
  0
ARC
  5
526
100
AcDbEntity
  8
2
100
AcDbCircle
 10
54.945448
 20
-19.105686
 30
0.0
 40
1.0
100
AcDbArc
 50
180.0
 51
267.0
  0
ARC
  5
527
100
AcDbEntity
  8
2
100
AcDbCircle
 10
78.945448
 20
-26.371707
 30
0.0
 40
5.0
100
AcDbArc
 50
360.0
 51
87.0
  0
ARC
  5
528
100
AcDbEntity
  8
2
100
AcDbCircle
 10
-449.009146
 20
298.143974
 30
0.0
 40
4.0
100
AcDbArc
 50
360.0
 51
90.0
  0
ARC
  5
529
100
AcDbEntity
  8
2
100
AcDbCircle
 10
86.945448
 20
-42.956026
 30
0.0
 40
3.0
100
AcDbArc
 50
180.0
 51
270.0
  0
LINE
  5
52A
100
AcDbEntity
  8
2
100
AcDbLine
 10
54.945448
 20
-130.956026
 30
0.0
 11
80.70045
 21
-130.956026
 31
0.0
  0
ARC
  5
52B
100
AcDbEntity
  8
2
100
AcDbCircle
 10
52.945448
 20
-133.956026
 30
0.0
 40
1.0
100
AcDbArc
 50
270.0
 51
360.0
  0
ARC
  5
52C
100
AcDbEntity
  8
2
100
AcDbCircle
 10
54.945448
 20
-131.956026
 30
0.0
 40
1.0
100
AcDbArc
 50
90.0
 51
180.0
  0
ARC
  5
52D
100
AcDbEntity
  8
2
100
AcDbCircle
 10
80.70045
 20
-131.956026
 30
0.0
 40
1.0
100
AcDbArc
 50
38.682187
 51
90.0
  0
LINE
  5
52E
100
AcDbEntity
  8
2
100
AcDbLine
 10
62.945448
 20
-131.956026
 30
0.0
 11
62.945448
 21
-142.956026
 31
0.0
  0
LINE
  5
52F
100
AcDbEntity
  8
2
100
AcDbLine
 10
196.945448
 20
-117.956026
 30
0.0
 11
196.945448
 21
-142.956026
 31
0.0
  0
ARC
  5
530
100
AcDbEntity
  8
2
100
AcDbCircle
 10
194.945448
 20
-142.956026
 30
0.0
 40
2.0
100
AcDbArc
 50
270.0
 51
360.0
  0
ARC
  5
531
100
AcDbEntity
  8
2
100
AcDbCircle
 10
64.945448
 20
-142.956026
 30
0.0
 40
2.0
100
AcDbArc
 50
180.0
 51
270.0
  0
ARC
  5
532
100
AcDbEntity
  8
2
100
AcDbCircle
 10
61.945448
 20
-131.956026
 30
0.0
 40
1.0
100
AcDbArc
 50
0.0
 51
90.0
  0
LINE
  5
533
100
AcDbEntity
  8
2
100
AcDbLine
 10
78.945448
 20
-146.956026
 30
0.0
 11
78.945448
 21
-157.956026
 31
0.0
  0
LINE
  5
534
100
AcDbEntity
  8
2
100
AcDbLine
 10
180.945448
 20
-146.956026
 30
0.0
 11
180.945448
 21
-157.956026
 31
0.0
  0
ARC
  5
535
100
AcDbEntity
  8
2
100
AcDbCircle
 10
182.945448
 20
-146.956026
 30
0.0
 40
2.0
100
AcDbArc
 50
128.682187
 51
180.0
  0
ARC
  5
536
100
AcDbEntity
  8
2
100
AcDbCircle
 10
76.945448
 20
-146.956026
 30
0.0
 40
2.0
100
AcDbArc
 50
0.0
 51
51.317813
  0
LINE
  5
537
100
AcDbEntity
  8
2
100
AcDbLine
 10
188.945448
 20
-59.456026
 30
0.0
 11
184.945448
 21
-59.456026
 31
0.0
  0
LINE
  5
538
100
AcDbEntity
  8
2
100
AcDbLine
 10
178.445448
 20
-52.956026
 30
0.0
 11
178.445448
 21
-48.956026
 31
0.0
  0
LINE
  5
539
100
AcDbEntity
  8
2
100
AcDbLine
 10
188.945448
 20
-120.456026
 30
0.0
 11
184.945448
 21
-120.456026
 31
0.0
  0
LINE
  5
53A
100
AcDbEntity
  8
2
100
AcDbLine
 10
178.445448
 20
-126.956026
 30
0.0
 11
178.445448
 21
-130.956026
 31
0.0
  0
LINE
  5
53B
100
AcDbEntity
  8
2
100
AcDbLine
 10
82.945448
 20
-120.456026
 30
0.0
 11
86.945448
 21
-120.456026
 31
0.0
  0
LINE
  5
53C
100
AcDbEntity
  8
2
100
AcDbLine
 10
93.445448
 20
-126.956026
 30
0.0
 11
93.445448
 21
-130.956026
 31
0.0
  0
LINE
  5
53D
100
AcDbEntity
  8
2
100
AcDbLine
 10
82.945448
 20
-59.456026
 30
0.0
 11
86.945448
 21
-59.456026
 31
0.0
  0
LINE
  5
53E
100
AcDbEntity
  8
2
100
AcDbLine
 10
93.445448
 20
-52.956026
 30
0.0
 11
93.445448
 21
-48.956026
 31
0.0
  0
ARC
  5
53F
100
AcDbEntity
  8
2
100
AcDbCircle
 10
175.445448
 20
-48.956026
 30
0.0
 40
3.0
100
AcDbArc
 50
0.0
 51
90.0
  0
ARC
  5
540
100
AcDbEntity
  8
2
100
AcDbCircle
 10
188.945448
 20
-62.456026
 30
0.0
 40
3.0
100
AcDbArc
 50
0.0
 51
90.0
  0
ARC
  5
541
100
AcDbEntity
  8
2
100
AcDbCircle
 10
188.945448
 20
-117.456026
 30
0.0
 40
3.0
100
AcDbArc
 50
270.0
 51
360.0
  0
ARC
  5
542
100
AcDbEntity
  8
2
100
AcDbCircle
 10
175.445448
 20
-130.956026
 30
0.0
 40
3.0
100
AcDbArc
 50
270.0
 51
360.0
  0
ARC
  5
543
100
AcDbEntity
  8
2
100
AcDbCircle
 10
96.445448
 20
-130.956026
 30
0.0
 40
3.0
100
AcDbArc
 50
180.0
 51
270.0
  0
ARC
  5
544
100
AcDbEntity
  8
2
100
AcDbCircle
 10
82.945448
 20
-117.456026
 30
0.0
 40
3.0
100
AcDbArc
 50
180.0
 51
270.0
  0
ARC
  5
545
100
AcDbEntity
  8
2
100
AcDbCircle
 10
82.945448
 20
-62.456026
 30
0.0
 40
3.0
100
AcDbArc
 50
90.0
 51
180.0
  0
ARC
  5
546
100
AcDbEntity
  8
2
100
AcDbCircle
 10
96.445448
 20
-48.956026
 30
0.0
 40
3.0
100
AcDbArc
 50
90.0
 51
180.0
  0
ARC
  5
547
100
AcDbEntity
  8
2
100
AcDbCircle
 10
184.945448
 20
-52.956026
 30
0.0
 40
6.5
100
AcDbArc
 50
180.0
 51
270.0
  0
ARC
  5
548
100
AcDbEntity
  8
2
100
AcDbCircle
 10
184.945448
 20
-126.956026
 30
0.0
 40
6.5
100
AcDbArc
 50
90.0
 51
180.0
  0
ARC
  5
549
100
AcDbEntity
  8
2
100
AcDbCircle
 10
86.945448
 20
-126.956026
 30
0.0
 40
6.5
100
AcDbArc
 50
360.0
 51
90.0
  0
ARC
  5
54A
100
AcDbEntity
  8
2
100
AcDbCircle
 10
86.945448
 20
-52.956026
 30
0.0
 40
6.5
100
AcDbArc
 50
270.0
 51
0.0
  0
LINE
  5
54B
100
AcDbEntity
  8
2
100
AcDbLine
 10
191.945448
 20
-115.956026
 30
0.0
 11
194.945448
 21
-115.956026
 31
0.0
  0
ARC
  5
54C
100
AcDbEntity
  8
2
100
AcDbCircle
 10
194.945448
 20
-117.956026
 30
0.0
 40
2.0
100
AcDbArc
 50
0.0
 51
90.0
  0
LINE
  5
54D
100
AcDbEntity
  8
2
100
AcDbLine
 10
191.945448
 20
-61.956026
 30
0.0
 11
203.945448
 21
-61.956026
 31
0.0
  0
LINE
  5
54E
100
AcDbEntity
  8
2
100
AcDbLine
 10
191.945448
 20
-93.956026
 30
0.0
 11
203.945448
 21
-93.956026
 31
0.0
  0
ARC
  5
54F
100
AcDbEntity
  8
2
100
AcDbCircle
 10
203.945448
 20
-90.956026
 30
0.0
 40
3.0
100
AcDbArc
 50
270.0
 51
360.0
  0
ARC
  5
550
100
AcDbEntity
  8
2
100
AcDbCircle
 10
203.945448
 20
-64.956026
 30
0.0
 40
3.0
100
AcDbArc
 50
0.0
 51
90.0
  0
LINE
  5
551
100
AcDbEntity
  8
2
100
AcDbLine
 10
196.945448
 20
-131.898227
 30
0.0
 11
206.8583
 21
-91.673866
 31
0.0
  0
LINE
  5
552
100
AcDbEntity
  8
2
100
AcDbLine
 10
180.945448
 20
-34.956026
 30
0.0
 11
205.945448
 21
-34.956026
 31
0.0
  0
LINE
  5
553
100
AcDbEntity
  8
2
100
AcDbLine
 10
205.945448
 20
-34.956026
 30
0.0
 11
206.945448
 21
-35.956026
 31
0.0
  0
LINE
  5
554
100
AcDbEntity
  8
2
100
AcDbLine
 10
199.149156
 20
-122.956026
 30
0.0
 11
205.945448
 21
-122.956026
 31
0.0
  0
LINE
  5
555
100
AcDbEntity
  8
2
100
AcDbLine
 10
205.945448
 20
-122.956026
 30
0.0
 11
206.945448
 21
-121.956026
 31
0.0
  0
LINE
  5
556
100
AcDbEntity
  8
2
100
AcDbLine
 10
180.945448
 20
-43.756026
 30
0.0
 11
205.945448
 21
-43.756026
 31
0.0
  0
LINE
  5
557
100
AcDbEntity
  8
2
100
AcDbLine
 10
205.945448
 20
-122.956026
 30
0.0
 11
205.945448
 21
-100.456026
 31
0.0
  0
LINE
  5
558
100
AcDbEntity
  8
2
100
AcDbLine
 10
205.945448
 20
-62.719958
 30
0.0
 11
205.945448
 21
-34.956026
 31
0.0
  0
LINE
  5
559
100
AcDbEntity
  8
2
100
AcDbLine
 10
205.945448
 20
-43.756026
 30
0.0
 11
206.945448
 21
-44.756026
 31
0.0
  0
LINE
  5
55A
100
AcDbEntity
  8
2
100
AcDbLine
 10
214.945448
 20
-97.279526
 30
0.0
 11
214.268948
 21
-97.956026
 31
0.0
  0
LINE
  5
55B
100
AcDbEntity
  8
2
100
AcDbLine
 10
214.268948
 20
-97.956026
 30
0.0
 11
210.445448
 21
-97.956026
 31
0.0
  0
LINE
  5
55C
100
AcDbEntity
  8
2
 62
     2
100
AcDbLine
 10
214.945448
 20
-97.279526
 30
0.0
 11
210.445448
 21
-97.279526
 31
0.0
  0
LINE
  5
55D
100
AcDbEntity
  8
2
100
AcDbLine
 10
214.945448
 20
-97.279526
 30
0.0
 11
214.945448
 21
-90.632526
 31
0.0
  0
LINE
  5
55E
100
AcDbEntity
  8
2
100
AcDbLine
 10
214.945448
 20
-90.632526
 30
0.0
 11
214.268948
 21
-89.956026
 31
0.0
  0
LINE
  5
55F
100
AcDbEntity
  8
2
100
AcDbLine
 10
214.268948
 20
-89.956026
 30
0.0
 11
210.408734
 21
-89.956026
 31
0.0
  0
LINE
  5
560
100
AcDbEntity
  8
2
100
AcDbLine
 10
214.268948
 20
-89.956026
 30
0.0
 11
214.268948
 21
-97.956026
 31
0.0
  0
LINE
  5
561
100
AcDbEntity
  8
2
 62
     2
100
AcDbLine
 10
214.945448
 20
-90.632526
 30
0.0
 11
210.445448
 21
-90.632526
 31
0.0
  0
LINE
  5
562
100
AcDbEntity
  8
2
100
AcDbLine
 10
206.945448
 20
-87.456026
 30
0.0
 11
210.445448
 21
-87.456026
 31
0.0
  0
ARC
  5
563
100
AcDbEntity
  8
2
100
AcDbCircle
 10
202.76669
 20
-90.706026
 30
0.0
 40
7.678759
100
AcDbArc
 50
334.96034
 51
25.03966
  0
LINE
  5
564
100
AcDbEntity
  8
2
100
AcDbLine
 10
204.694033
 20
-100.456026
 30
0.0
 11
210.445448
 21
-100.456026
 31
0.0
  0
LINE
  5
565
100
AcDbEntity
  8
2
100
AcDbLine
 10
210.445448
 20
-100.456026
 30
0.0
 11
210.445448
 21
-87.456026
 31
0.0
  0
LINE
  5
566
100
AcDbEntity
  8
2
100
AcDbLine
 10
206.295887
 20
-93.956026
 30
0.0
 11
209.723761
 21
-93.956026
 31
0.0
  0
ARC
  5
567
100
AcDbEntity
  8
2
100
AcDbCircle
 10
202.76669
 20
-97.206026
 30
0.0
 40
7.678759
100
AcDbArc
 50
334.96034
 51
25.03966
  0
ARC
  5
568
100
AcDbEntity
  8
2
100
AcDbCircle
 10
79.945448
 20
-18.413136
 30
0.0
 40
3.0
100
AcDbArc
 50
267.0
 51
360.0
  0
LINE
  5
569
100
AcDbEntity
  8
2
100
AcDbLine
 10
38.945448
 20
-17.054651
 30
0.0
 11
38.945448
 21
-133.956026
 31
0.0
  0
ARC
  5
56A
100
AcDbEntity
  8
2
100
AcDbCircle
 10
39.945448
 20
-17.054651
 30
0.0
 40
1.0
100
AcDbArc
 50
90.0
 51
180.0
  0
ARC
  5
56B
100
AcDbEntity
  8
2
100
AcDbCircle
 10
39.945448
 20
-133.956026
 30
0.0
 40
1.0
100
AcDbArc
 50
180.0
 51
270.0
  0
LINE
  5
56C
100
AcDbEntity
  8
2
100
AcDbLine
 10
20.945448
 20
-26.627083
 30
0.0
 11
20.945448
 21
-128.613773
 31
0.0
  0
LINE
  5
56D
100
AcDbEntity
  8
2
100
AcDbLine
 10
38.945448
 20
-18.010988
 30
0.0
 11
24.665128
 21
-21.793784
 31
0.0
  0
LINE
  5
56E
100
AcDbEntity
  8
2
100
AcDbLine
 10
38.945448
 20
-134.956026
 30
0.0
 11
25.441613
 21
-133.588324
 31
0.0
  0
ARC
  5
56F
100
AcDbEntity
  8
2
100
AcDbCircle
 10
25.945448
 20
-26.627083
 30
0.0
 40
5.0
100
AcDbArc
 50
104.836646
 51
180.0
  0
ARC
  5
570
100
AcDbEntity
  8
2
100
AcDbCircle
 10
25.945448
 20
-128.613773
 30
0.0
 40
5.0
100
AcDbArc
 50
180.0
 51
264.21666
  0
LINE
  5
571
100
AcDbEntity
  8
2
100
AcDbLine
 10
14.945448
 20
-59.792661
 30
0.0
 11
14.945448
 21
-96.119391
 31
0.0
  0
LINE
  5
572
100
AcDbEntity
  8
2
100
AcDbLine
 10
2.945448
 20
-65.49068
 30
0.0
 11
2.945448
 21
-90.421372
 31
0.0
  0
LINE
  5
573
100
AcDbEntity
  8
2
100
AcDbLine
 10
4.42781
 20
-63.558828
 30
0.0
 11
13.488286
 21
-61.131081
 31
0.0
  0
LINE
  5
574
100
AcDbEntity
  8
2
100
AcDbLine
 10
18.651353
 20
-54.963032
 30
0.0
 11
19.463086
 21
-54.745529
 31
0.0
  0
LINE
  5
575
100
AcDbEntity
  8
2
100
AcDbLine
 10
4.42781
 20
-92.353224
 30
0.0
 11
13.488286
 21
-94.780971
 31
0.0
  0
LINE
  5
576
100
AcDbEntity
  8
2
100
AcDbLine
 10
18.651353
 20
-100.94902
 30
0.0
 11
19.463086
 21
-101.166524
 31
0.0
  0
ARC
  5
577
100
AcDbEntity
  8
2
100
AcDbCircle
 10
19.945448
 20
-59.792661
 30
0.0
 40
5.0
100
AcDbArc
 50
105.0
 51
180.0
  0
ARC
  5
578
100
AcDbEntity
  8
2
100
AcDbCircle
 10
19.945448
 20
-96.119391
 30
0.0
 40
5.0
100
AcDbArc
 50
180.0
 51
255.0
  0
ARC
  5
579
100
AcDbEntity
  8
2
100
AcDbCircle
 10
4.945448
 20
-65.49068
 30
0.0
 40
2.0
100
AcDbArc
 50
105.0
 51
180.0
  0
ARC
  5
57A
100
AcDbEntity
  8
2
100
AcDbCircle
 10
4.945448
 20
-90.421372
 30
0.0
 40
2.0
100
AcDbArc
 50
180.0
 51
255.0
  0
ARC
  5
57B
100
AcDbEntity
  8
2
100
AcDbCircle
 10
18.945448
 20
-52.813677
 30
0.0
 40
2.0
100
AcDbArc
 50
285.0
 51
360.0
  0
ARC
  5
57C
100
AcDbEntity
  8
2
100
AcDbCircle
 10
18.945448
 20
-103.098375
 30
0.0
 40
2.0
100
AcDbArc
 50
0.0
 51
75.0
  0
ARC
  5
57D
100
AcDbEntity
  8
2
100
AcDbCircle
 10
12.970648
 20
-96.712823
 30
0.0
 40
2.0
100
AcDbArc
 50
4.86314
 51
75.0
  0
ARC
  5
57E
100
AcDbEntity
  8
2
100
AcDbCircle
 10
12.970648
 20
-59.19923
 30
0.0
 40
2.0
100
AcDbArc
 50
285.0
 51
355.13686
  0
LINE
  5
57F
100
AcDbEntity
  8
2
100
AcDbLine
 10
55.945448
 20
-22.956026
 30
0.0
 11
68.945448
 21
-22.956026
 31
0.0
  0
LINE
  5
580
100
AcDbEntity
  8
2
100
AcDbLine
 10
55.945448
 20
-30.956026
 30
0.0
 11
68.945448
 21
-30.956026
 31
0.0
  0
LINE
  5
581
100
AcDbEntity
  8
2
100
AcDbLine
 10
55.945448
 20
-120.956026
 30
0.0
 11
68.945448
 21
-120.956026
 31
0.0
  0
LINE
  5
582
100
AcDbEntity
  8
2
100
AcDbLine
 10
55.945448
 20
-128.956026
 30
0.0
 11
68.945448
 21
-128.956026
 31
0.0
  0
ARC
  5
583
100
AcDbEntity
  8
2
100
AcDbCircle
 10
68.945448
 20
-26.956026
 30
0.0
 40
4.0
100
AcDbArc
 50
270.0
 51
90.0
  0
ARC
  5
584
100
AcDbEntity
  8
2
100
AcDbCircle
 10
68.945448
 20
-124.956026
 30
0.0
 40
4.0
100
AcDbArc
 50
270.0
 51
90.0
  0
ARC
  5
585
100
AcDbEntity
  8
2
100
AcDbCircle
 10
55.945448
 20
-20.956026
 30
0.0
 40
2.0
100
AcDbArc
 50
180.0
 51
270.0
  0
ARC
  5
586
100
AcDbEntity
  8
2
100
AcDbCircle
 10
55.945448
 20
-32.956026
 30
0.0
 40
2.0
100
AcDbArc
 50
90.0
 51
180.0
  0
ARC
  5
587
100
AcDbEntity
  8
2
100
AcDbCircle
 10
55.945448
 20
-118.956026
 30
0.0
 40
2.0
100
AcDbArc
 50
180.0
 51
270.0
  0
ARC
  5
588
100
AcDbEntity
  8
2
100
AcDbCircle
 10
55.945448
 20
-130.956026
 30
0.0
 40
2.0
100
AcDbArc
 50
90.0
 51
180.0
  0
ARC
  5
589
100
AcDbEntity
  8
2
100
AcDbCircle
 10
-384.709994
 20
-127.956026
 30
0.0
 40
7.128574
100
AcDbArc
 50
0.0
 51
180.0
  0
LINE
  5
58A
100
AcDbEntity
  8
2
100
AcDbLine
 10
-377.58142
 20
-127.956026
 30
0.0
 11
-377.58142
 21
-128.489138
 31
0.0
  0
LINE
  5
58B
100
AcDbEntity
  8
2
100
AcDbLine
 10
-391.838568
 20
-127.956026
 30
0.0
 11
-391.838568
 21
-128.052774
 31
0.0
  0
ARC
  5
58C
100
AcDbEntity
  8
2
100
AcDbCircle
 10
-374.58142
 20
-128.489138
 30
0.0
 40
3.0
100
AcDbArc
 50
180.0
 51
268.765968
  0
ARC
  5
58D
100
AcDbEntity
  8
2
100
AcDbCircle
 10
-394.838568
 20
-128.052774
 30
0.0
 40
3.0
100
AcDbArc
 50
268.765968
 51
360.0
  0
LINE
  5
58E
100
AcDbEntity
  8
2
100
AcDbLine
 10
-378.588691
 20
236.44723
 30
0.0
 11
-378.588691
 21
248.143974
 31
0.0
  0
LINE
  5
58F
100
AcDbEntity
  8
2
100
AcDbLine
 10
-391.195204
 20
236.44723
 30
0.0
 11
-391.195204
 21
248.143974
 31
0.0
  0
ARC
  5
590
100
AcDbEntity
  8
2
100
AcDbCircle
 10
-384.891947
 20
236.44723
 30
0.0
 40
6.303256
100
AcDbArc
 50
180.0
 51
360.0
  0
ARC
  5
591
100
AcDbEntity
  8
2
100
AcDbCircle
 10
-505.83435
 20
245.143974
 30
0.0
 40
3.0
100
AcDbArc
 50
30.0
 51
90.0
  0
ARC
  5
592
100
AcDbEntity
  8
2
100
AcDbCircle
 10
-490.823243
 20
235.143974
 30
0.0
 40
5.0
100
AcDbArc
 50
210.0
 51
270.0
  0
CIRCLE
  5
593
100
AcDbEntity
  8
2
100
AcDbCircle
 10
-519.709994
 20
-82.956026
 30
0.0
 40
5.25
  0
CIRCLE
  5
594
100
AcDbEntity
  8
2
100
AcDbCircle
 10
-519.709994
 20
-82.956026
 30
0.0
 40
5.25
  0
CIRCLE
  5
595
100
AcDbEntity
  8
2
100
AcDbCircle
 10
-519.709994
 20
-82.956026
 30
0.0
 40
5.75
  0
CIRCLE
  5
596
100
AcDbEntity
  8
2
100
AcDbCircle
 10
-384.709994
 20
-31.026026
 30
0.0
 40
5.25
  0
CIRCLE
  5
597
100
AcDbEntity
  8
2
100
AcDbCircle
 10
-384.709994
 20
-31.026026
 30
0.0
 40
5.25
  0
CIRCLE
  5
598
100
AcDbEntity
  8
2
100
AcDbCircle
 10
-384.709994
 20
-31.026026
 30
0.0
 40
5.75
  0
CIRCLE
  5
599
100
AcDbEntity
  8
2
100
AcDbCircle
 10
-384.709994
 20
-127.956026
 30
0.0
 40
5.25
  0
CIRCLE
  5
59A
100
AcDbEntity
  8
2
100
AcDbCircle
 10
-384.709994
 20
-127.956026
 30
0.0
 40
5.25
  0
CIRCLE
  5
59B
100
AcDbEntity
  8
2
100
AcDbCircle
 10
-384.709994
 20
-127.956026
 30
0.0
 40
5.75
  0
CIRCLE
  5
59C
100
AcDbEntity
  8
2
100
AcDbCircle
 10
-257.709994
 20
-26.956026
 30
0.0
 40
5.25
  0
CIRCLE
  5
59D
100
AcDbEntity
  8
2
100
AcDbCircle
 10
-257.709994
 20
-26.956026
 30
0.0
 40
5.25
  0
CIRCLE
  5
59E
100
AcDbEntity
  8
2
100
AcDbCircle
 10
-257.709994
 20
-26.956026
 30
0.0
 40
5.75
  0
CIRCLE
  5
59F
100
AcDbEntity
  8
2
100
AcDbCircle
 10
-254.709994
 20
-124.956026
 30
0.0
 40
5.25
  0
CIRCLE
  5
5A0
100
AcDbEntity
  8
2
100
AcDbCircle
 10
-254.709994
 20
-124.956026
 30
0.0
 40
5.25
  0
CIRCLE
  5
5A1
100
AcDbEntity
  8
2
100
AcDbCircle
 10
-254.709994
 20
-124.956026
 30
0.0
 40
5.75
  0
CIRCLE
  5
5A2
100
AcDbEntity
  8
2
100
AcDbCircle
 10
86.945448
 20
-52.956026
 30
0.0
 40
5.25
  0
CIRCLE
  5
5A3
100
AcDbEntity
  8
2
100
AcDbCircle
 10
86.945448
 20
-52.956026
 30
0.0
 40
5.25
  0
CIRCLE
  5
5A4
100
AcDbEntity
  8
2
100
AcDbCircle
 10
86.945448
 20
-52.956026
 30
0.0
 40
5.75
  0
CIRCLE
  5
5A5
100
AcDbEntity
  8
2
100
AcDbCircle
 10
184.945448
 20
-52.956026
 30
0.0
 40
5.25
  0
CIRCLE
  5
5A6
100
AcDbEntity
  8
2
100
AcDbCircle
 10
184.945448
 20
-52.956026
 30
0.0
 40
5.25
  0
CIRCLE
  5
5A7
100
AcDbEntity
  8
2
100
AcDbCircle
 10
184.945448
 20
-52.956026
 30
0.0
 40
5.75
  0
CIRCLE
  5
5A8
100
AcDbEntity
  8
2
100
AcDbCircle
 10
86.945448
 20
-126.956026
 30
0.0
 40
5.25
  0
CIRCLE
  5
5A9
100
AcDbEntity
  8
2
100
AcDbCircle
 10
86.945448
 20
-126.956026
 30
0.0
 40
5.25
  0
CIRCLE
  5
5AA
100
AcDbEntity
  8
2
100
AcDbCircle
 10
86.945448
 20
-126.956026
 30
0.0
 40
5.75
  0
CIRCLE
  5
5AB
100
AcDbEntity
  8
2
100
AcDbCircle
 10
184.945448
 20
-126.956026
 30
0.0
 40
5.25
  0
CIRCLE
  5
5AC
100
AcDbEntity
  8
2
100
AcDbCircle
 10
184.945448
 20
-126.956026
 30
0.0
 40
5.25
  0
CIRCLE
  5
5AD
100
AcDbEntity
  8
2
100
AcDbCircle
 10
184.945448
 20
-126.956026
 30
0.0
 40
5.75
  0
LINE
  5
5AE
100
AcDbEntity
  8
2
100
AcDbLine
 10
-228.209994
 20
-132.706026
 30
0.0
 11
-228.209994
 21
-121.206026
 31
0.0
  0
LINE
  5
5AF
100
AcDbEntity
  8
2
100
AcDbLine
 10
-228.209994
 20
-121.206026
 30
0.0
 11
-229.709994
 21
-121.206026
 31
0.0
  0
LINE
  5
5B0
100
AcDbEntity
  8
2
100
AcDbLine
 10
-228.209994
 20
-132.706026
 30
0.0
 11
-229.709994
 21
-132.706026
 31
0.0
  0
LINE
  5
5B1
100
AcDbEntity
  8
2
100
AcDbLine
 10
-226.682978
 20
-121.706026
 30
0.0
 11
-228.209994
 21
-121.706026
 31
0.0
  0
LINE
  5
5B2
100
AcDbEntity
  8
2
100
AcDbLine
 10
-226.682978
 20
-132.206026
 30
0.0
 11
-228.209994
 21
-132.206026
 31
0.0
  0
ARC
  5
5B3
100
AcDbEntity
  8
2
100
AcDbCircle
 10
-238.309994
 20
-126.956026
 30
0.0
 40
14.0
100
AcDbArc
 50
343.927141
 51
16.072859
  0
ARC
  5
5B4
100
AcDbEntity
  8
2
100
AcDbCircle
 10
-226.682978
 20
-130.306026
 30
0.0
 40
1.9
100
AcDbArc
 50
270.0
 51
343.927141
  0
ARC
  5
5B5
100
AcDbEntity
  8
2
100
AcDbCircle
 10
-226.682978
 20
-123.606026
 30
0.0
 40
1.9
100
AcDbArc
 50
16.072859
 51
90.0
  0
LINE
  5
5B6
100
AcDbEntity
  8
2
100
AcDbLine
 10
-228.209994
 20
-58.706026
 30
0.0
 11
-228.209994
 21
-47.206026
 31
0.0
  0
LINE
  5
5B7
100
AcDbEntity
  8
2
100
AcDbLine
 10
-228.209994
 20
-47.206026
 30
0.0
 11
-229.709994
 21
-47.206026
 31
0.0
  0
LINE
  5
5B8
100
AcDbEntity
  8
2
100
AcDbLine
 10
-228.209994
 20
-58.706026
 30
0.0
 11
-229.709994
 21
-58.706026
 31
0.0
  0
LINE
  5
5B9
100
AcDbEntity
  8
2
100
AcDbLine
 10
-226.682978
 20
-47.706026
 30
0.0
 11
-228.209994
 21
-47.706026
 31
0.0
  0
LINE
  5
5BA
100
AcDbEntity
  8
2
100
AcDbLine
 10
-226.682978
 20
-58.206026
 30
0.0
 11
-228.209994
 21
-58.206026
 31
0.0
  0
ARC
  5
5BB
100
AcDbEntity
  8
2
100
AcDbCircle
 10
-238.309994
 20
-52.956026
 30
0.0
 40
14.0
100
AcDbArc
 50
343.927141
 51
16.072859
  0
ARC
  5
5BC
100
AcDbEntity
  8
2
100
AcDbCircle
 10
-226.682978
 20
-56.306026
 30
0.0
 40
1.9
100
AcDbArc
 50
270.0
 51
343.927141
  0
ARC
  5
5BD
100
AcDbEntity
  8
2
100
AcDbCircle
 10
-226.682978
 20
-49.606026
 30
0.0
 40
1.9
100
AcDbArc
 50
16.072859
 51
90.0
  0
LINE
  5
5BE
100
AcDbEntity
  8
2
100
AcDbLine
 10
-228.209994
 20
388.393974
 30
0.0
 11
-228.209994
 21
399.893974
 31
0.0
  0
LINE
  5
5BF
100
AcDbEntity
  8
2
100
AcDbLine
 10
-228.209994
 20
399.893974
 30
0.0
 11
-229.709994
 21
399.893974
 31
0.0
  0
LINE
  5
5C0
100
AcDbEntity
  8
2
100
AcDbLine
 10
-228.209994
 20
388.393974
 30
0.0
 11
-229.709994
 21
388.393974
 31
0.0
  0
LINE
  5
5C1
100
AcDbEntity
  8
2
100
AcDbLine
 10
-226.682978
 20
399.393974
 30
0.0
 11
-228.209994
 21
399.393974
 31
0.0
  0
LINE
  5
5C2
100
AcDbEntity
  8
2
100
AcDbLine
 10
-226.682978
 20
388.893974
 30
0.0
 11
-228.209994
 21
388.893974
 31
0.0
  0
ARC
  5
5C3
100
AcDbEntity
  8
2
100
AcDbCircle
 10
-238.309994
 20
394.143974
 30
0.0
 40
14.0
100
AcDbArc
 50
343.927141
 51
16.072859
  0
ARC
  5
5C4
100
AcDbEntity
  8
2
100
AcDbCircle
 10
-226.682978
 20
390.793974
 30
0.0
 40
1.9
100
AcDbArc
 50
270.0
 51
343.927141
  0
ARC
  5
5C5
100
AcDbEntity
  8
2
100
AcDbCircle
 10
-226.682978
 20
397.493974
 30
0.0
 40
1.9
100
AcDbArc
 50
16.072859
 51
90.0
  0
LINE
  5
5C6
100
AcDbEntity
  8
2
100
AcDbLine
 10
-228.209994
 20
290.393974
 30
0.0
 11
-228.209994
 21
301.893974
 31
0.0
  0
LINE
  5
5C7
100
AcDbEntity
  8
2
100
AcDbLine
 10
-228.209994
 20
301.893974
 30
0.0
 11
-229.709994
 21
301.893974
 31
0.0
  0
LINE
  5
5C8
100
AcDbEntity
  8
2
100
AcDbLine
 10
-228.209994
 20
290.393974
 30
0.0
 11
-229.709994
 21
290.393974
 31
0.0
  0
LINE
  5
5C9
100
AcDbEntity
  8
2
100
AcDbLine
 10
-226.682978
 20
301.393974
 30
0.0
 11
-228.209994
 21
301.393974
 31
0.0
  0
LINE
  5
5CA
100
AcDbEntity
  8
2
100
AcDbLine
 10
-226.682978
 20
290.893974
 30
0.0
 11
-228.209994
 21
290.893974
 31
0.0
  0
ARC
  5
5CB
100
AcDbEntity
  8
2
100
AcDbCircle
 10
-238.309994
 20
296.143974
 30
0.0
 40
14.0
100
AcDbArc
 50
343.927141
 51
16.072859
  0
ARC
  5
5CC
100
AcDbEntity
  8
2
100
AcDbCircle
 10
-226.682978
 20
292.793974
 30
0.0
 40
1.9
100
AcDbArc
 50
270.0
 51
343.927141
  0
ARC
  5
5CD
100
AcDbEntity
  8
2
100
AcDbCircle
 10
-226.682978
 20
299.493974
 30
0.0
 40
1.9
100
AcDbArc
 50
16.072859
 51
90.0
  0
LINE
  5
5CE
100
AcDbEntity
  8
2
100
AcDbLine
 10
-525.459994
 20
246.643974
 30
0.0
 11
-513.959994
 21
246.643974
 31
0.0
  0
LINE
  5
5CF
100
AcDbEntity
  8
2
100
AcDbLine
 10
-513.959994
 20
246.643974
 30
0.0
 11
-513.959994
 21
248.143974
 31
0.0
  0
LINE
  5
5D0
100
AcDbEntity
  8
2
100
AcDbLine
 10
-525.459994
 20
246.643974
 30
0.0
 11
-525.459994
 21
248.143974
 31
0.0
  0
LINE
  5
5D1
100
AcDbEntity
  8
2
100
AcDbLine
 10
-514.459994
 20
245.116958
 30
0.0
 11
-514.459994
 21
246.643974
 31
0.0
  0
LINE
  5
5D2
100
AcDbEntity
  8
2
100
AcDbLine
 10
-524.959994
 20
245.116958
 30
0.0
 11
-524.959994
 21
246.643974
 31
0.0
  0
ARC
  5
5D3
100
AcDbEntity
  8
2
100
AcDbCircle
 10
-519.709994
 20
256.743974
 30
0.0
 40
14.0
100
AcDbArc
 50
253.927141
 51
286.072859
  0
ARC
  5
5D4
100
AcDbEntity
  8
2
100
AcDbCircle
 10
-523.059994
 20
245.116958
 30
0.0
 40
1.9
100
AcDbArc
 50
180.0
 51
253.927141
  0
ARC
  5
5D5
100
AcDbEntity
  8
2
100
AcDbCircle
 10
-516.359994
 20
245.116958
 30
0.0
 40
1.9
100
AcDbArc
 50
286.072859
 51
360.0
  0
LINE
  5
5D6
100
AcDbEntity
  8
2
100
AcDbLine
 10
-390.459994
 20
246.643974
 30
0.0
 11
-378.959994
 21
246.643974
 31
0.0
  0
LINE
  5
5D7
100
AcDbEntity
  8
2
100
AcDbLine
 10
-378.959994
 20
246.643974
 30
0.0
 11
-378.959994
 21
248.143974
 31
0.0
  0
LINE
  5
5D8
100
AcDbEntity
  8
2
100
AcDbLine
 10
-390.459994
 20
246.643974
 30
0.0
 11
-390.459994
 21
248.143974
 31
0.0
  0
LINE
  5
5D9
100
AcDbEntity
  8
2
100
AcDbLine
 10
-379.459994
 20
245.116958
 30
0.0
 11
-379.459994
 21
246.643974
 31
0.0
  0
LINE
  5
5DA
100
AcDbEntity
  8
2
100
AcDbLine
 10
-389.959994
 20
245.116958
 30
0.0
 11
-389.959994
 21
246.643974
 31
0.0
  0
ARC
  5
5DB
100
AcDbEntity
  8
2
100
AcDbCircle
 10
-384.709994
 20
256.743974
 30
0.0
 40
14.0
100
AcDbArc
 50
253.927141
 51
286.072859
  0
ARC
  5
5DC
100
AcDbEntity
  8
2
100
AcDbCircle
 10
-388.059994
 20
245.116958
 30
0.0
 40
1.9
100
AcDbArc
 50
180.0
 51
253.927141
  0
ARC
  5
5DD
100
AcDbEntity
  8
2
100
AcDbCircle
 10
-381.359994
 20
245.116958
 30
0.0
 40
1.9
100
AcDbArc
 50
286.072859
 51
360.0
  0
LINE
  5
5DE
100
AcDbEntity
  8
2
100
AcDbLine
 10
-263.459994
 20
246.643974
 30
0.0
 11
-251.959994
 21
246.643974
 31
0.0
  0
LINE
  5
5DF
100
AcDbEntity
  8
2
100
AcDbLine
 10
-251.959994
 20
246.643974
 30
0.0
 11
-251.959994
 21
248.143974
 31
0.0
  0
LINE
  5
5E0
100
AcDbEntity
  8
2
100
AcDbLine
 10
-263.459994
 20
246.643974
 30
0.0
 11
-263.459994
 21
248.143974
 31
0.0
  0
LINE
  5
5E1
100
AcDbEntity
  8
2
100
AcDbLine
 10
-252.459994
 20
245.116958
 30
0.0
 11
-252.459994
 21
246.643974
 31
0.0
  0
LINE
  5
5E2
100
AcDbEntity
  8
2
100
AcDbLine
 10
-262.959994
 20
245.116958
 30
0.0
 11
-262.959994
 21
246.643974
 31
0.0
  0
ARC
  5
5E3
100
AcDbEntity
  8
2
100
AcDbCircle
 10
-257.709994
 20
256.743974
 30
0.0
 40
14.0
100
AcDbArc
 50
253.927141
 51
286.072859
  0
ARC
  5
5E4
100
AcDbEntity
  8
2
100
AcDbCircle
 10
-261.059994
 20
245.116958
 30
0.0
 40
1.9
100
AcDbArc
 50
180.0
 51
253.927141
  0
ARC
  5
5E5
100
AcDbEntity
  8
2
100
AcDbCircle
 10
-254.359994
 20
245.116958
 30
0.0
 40
1.9
100
AcDbArc
 50
286.072859
 51
360.0
  0
LINE
  5
5E6
100
AcDbEntity
  8
2
100
AcDbLine
 10
37.445448
 20
-32.706026
 30
0.0
 11
37.445448
 21
-21.206026
 31
0.0
  0
LINE
  5
5E7
100
AcDbEntity
  8
2
100
AcDbLine
 10
37.445448
 20
-21.206026
 30
0.0
 11
38.945448
 21
-21.206026
 31
0.0
  0
LINE
  5
5E8
100
AcDbEntity
  8
2
100
AcDbLine
 10
37.445448
 20
-32.706026
 30
0.0
 11
38.945448
 21
-32.706026
 31
0.0
  0
LINE
  5
5E9
100
AcDbEntity
  8
2
100
AcDbLine
 10
35.918432
 20
-21.706026
 30
0.0
 11
37.445448
 21
-21.706026
 31
0.0
  0
LINE
  5
5EA
100
AcDbEntity
  8
2
100
AcDbLine
 10
35.918432
 20
-32.206026
 30
0.0
 11
37.445448
 21
-32.206026
 31
0.0
  0
ARC
  5
5EB
100
AcDbEntity
  8
2
100
AcDbCircle
 10
47.545448
 20
-26.956026
 30
0.0
 40
14.0
100
AcDbArc
 50
163.927141
 51
196.072859
  0
ARC
  5
5EC
100
AcDbEntity
  8
2
100
AcDbCircle
 10
35.918432
 20
-30.306026
 30
0.0
 40
1.9
100
AcDbArc
 50
196.072859
 51
270.0
  0
ARC
  5
5ED
100
AcDbEntity
  8
2
100
AcDbCircle
 10
35.918432
 20
-23.606026
 30
0.0
 40
1.9
100
AcDbArc
 50
90.0
 51
163.927141
  0
LINE
  5
5EE
100
AcDbEntity
  8
2
100
AcDbLine
 10
37.445448
 20
-130.706026
 30
0.0
 11
37.445448
 21
-119.206026
 31
0.0
  0
LINE
  5
5EF
100
AcDbEntity
  8
2
100
AcDbLine
 10
37.445448
 20
-119.206026
 30
0.0
 11
38.945448
 21
-119.206026
 31
0.0
  0
LINE
  5
5F0
100
AcDbEntity
  8
2
100
AcDbLine
 10
37.445448
 20
-130.706026
 30
0.0
 11
38.945448
 21
-130.706026
 31
0.0
  0
LINE
  5
5F1
100
AcDbEntity
  8
2
100
AcDbLine
 10
35.918432
 20
-119.706026
 30
0.0
 11
37.445448
 21
-119.706026
 31
0.0
  0
LINE
  5
5F2
100
AcDbEntity
  8
2
100
AcDbLine
 10
35.918432
 20
-130.206026
 30
0.0
 11
37.445448
 21
-130.206026
 31
0.0
  0
ARC
  5
5F3
100
AcDbEntity
  8
2
100
AcDbCircle
 10
47.545448
 20
-124.956026
 30
0.0
 40
14.0
100
AcDbArc
 50
163.927141
 51
196.072859
  0
ARC
  5
5F4
100
AcDbEntity
  8
2
100
AcDbCircle
 10
35.918432
 20
-128.306026
 30
0.0
 40
1.9
100
AcDbArc
 50
196.072859
 51
270.0
  0
ARC
  5
5F5
100
AcDbEntity
  8
2
100
AcDbCircle
 10
35.918432
 20
-121.606026
 30
0.0
 40
1.9
100
AcDbArc
 50
90.0
 51
163.927141
  0
LINE
  5
5F6
100
AcDbEntity
  8
2
100
AcDbLine
 10
-510.459994
 20
-146.956026
 30
0.0
 11
-524.959994
 21
-146.956026
 31
0.0
  0
LINE
  5
5F7
100
AcDbEntity
  8
2
100
AcDbLine
 10
-510.459994
 20
-144.956026
 30
0.0
 11
-510.459994
 21
-146.956026
 31
0.0
  0
LINE
  5
5F8
100
AcDbEntity
  8
2
100
AcDbLine
 10
-524.959994
 20
-144.956026
 30
0.0
 11
-524.959994
 21
-146.956026
 31
0.0
  0
LINE
  5
5F9
100
AcDbEntity
  8
2
100
AcDbLine
 10
-510.709994
 20
-146.956026
 30
0.0
 11
-510.709994
 21
-148.914075
 31
0.0
  0
LINE
  5
5FA
100
AcDbEntity
  8
2
100
AcDbLine
 10
-524.709994
 20
-146.956026
 30
0.0
 11
-524.709994
 21
-148.914075
 31
0.0
  0
ARC
  5
5FB
100
AcDbEntity
  8
2
100
AcDbCircle
 10
-517.709994
 20
-134.156026
 30
0.0
 40
18.0
100
AcDbArc
 50
253.39845
 51
286.60155
  0
ARC
  5
5FC
100
AcDbEntity
  8
2
100
AcDbCircle
 10
-522.109994
 20
-148.914075
 30
0.0
 40
2.6
100
AcDbArc
 50
180.0
 51
253.39845
  0
ARC
  5
5FD
100
AcDbEntity
  8
2
100
AcDbCircle
 10
-513.309994
 20
-148.914075
 30
0.0
 40
2.6
100
AcDbArc
 50
286.60155
 51
360.0
  0
LINE
  5
5FE
100
AcDbEntity
  8
2
100
AcDbLine
 10
-401.459994
 20
-146.956026
 30
0.0
 11
-415.959994
 21
-146.956026
 31
0.0
  0
LINE
  5
5FF
100
AcDbEntity
  8
2
100
AcDbLine
 10
-401.459994
 20
-144.956026
 30
0.0
 11
-401.459994
 21
-146.956026
 31
0.0
  0
LINE
  5
600
100
AcDbEntity
  8
2
100
AcDbLine
 10
-415.959994
 20
-144.956026
 30
0.0
 11
-415.959994
 21
-146.956026
 31
0.0
  0
LINE
  5
601
100
AcDbEntity
  8
2
100
AcDbLine
 10
-401.709994
 20
-146.956026
 30
0.0
 11
-401.709994
 21
-148.914075
 31
0.0
  0
LINE
  5
602
100
AcDbEntity
  8
2
100
AcDbLine
 10
-415.709994
 20
-146.956026
 30
0.0
 11
-415.709994
 21
-148.914075
 31
0.0
  0
ARC
  5
603
100
AcDbEntity
  8
2
100
AcDbCircle
 10
-408.709994
 20
-134.156026
 30
0.0
 40
18.0
100
AcDbArc
 50
253.39845
 51
286.60155
  0
ARC
  5
604
100
AcDbEntity
  8
2
100
AcDbCircle
 10
-413.109994
 20
-148.914075
 30
0.0
 40
2.6
100
AcDbArc
 50
180.0
 51
253.39845
  0
ARC
  5
605
100
AcDbEntity
  8
2
100
AcDbCircle
 10
-404.309994
 20
-148.914075
 30
0.0
 40
2.6
100
AcDbArc
 50
286.60155
 51
360.0
  0
LINE
  5
606
100
AcDbEntity
  8
2
100
AcDbLine
 10
-268.459994
 20
-146.956026
 30
0.0
 11
-282.959994
 21
-146.956026
 31
0.0
  0
LINE
  5
607
100
AcDbEntity
  8
2
100
AcDbLine
 10
-268.459994
 20
-144.956026
 30
0.0
 11
-268.459994
 21
-146.956026
 31
0.0
  0
LINE
  5
608
100
AcDbEntity
  8
2
100
AcDbLine
 10
-282.959994
 20
-144.956026
 30
0.0
 11
-282.959994
 21
-146.956026
 31
0.0
  0
LINE
  5
609
100
AcDbEntity
  8
2
100
AcDbLine
 10
-268.709994
 20
-146.956026
 30
0.0
 11
-268.709994
 21
-148.914075
 31
0.0
  0
LINE
  5
60A
100
AcDbEntity
  8
2
100
AcDbLine
 10
-282.709994
 20
-146.956026
 30
0.0
 11
-282.709994
 21
-148.914075
 31
0.0
  0
ARC
  5
60B
100
AcDbEntity
  8
2
100
AcDbCircle
 10
-275.709994
 20
-134.156026
 30
0.0
 40
18.0
100
AcDbArc
 50
253.39845
 51
286.60155
  0
ARC
  5
60C
100
AcDbEntity
  8
2
100
AcDbCircle
 10
-280.109994
 20
-148.914075
 30
0.0
 40
2.6
100
AcDbArc
 50
180.0
 51
253.39845
  0
ARC
  5
60D
100
AcDbEntity
  8
2
100
AcDbCircle
 10
-271.309994
 20
-148.914075
 30
0.0
 40
2.6
100
AcDbArc
 50
286.60155
 51
360.0
  0
LINE
  5
60E
100
AcDbEntity
  8
2
100
AcDbLine
 10
78.195448
 20
-146.956026
 30
0.0
 11
63.695448
 21
-146.956026
 31
0.0
  0
LINE
  5
60F
100
AcDbEntity
  8
2
100
AcDbLine
 10
78.195448
 20
-144.956026
 30
0.0
 11
78.195448
 21
-146.956026
 31
0.0
  0
LINE
  5
610
100
AcDbEntity
  8
2
100
AcDbLine
 10
63.695448
 20
-144.956026
 30
0.0
 11
63.695448
 21
-146.956026
 31
0.0
  0
LINE
  5
611
100
AcDbEntity
  8
2
100
AcDbLine
 10
77.945448
 20
-146.956026
 30
0.0
 11
77.945448
 21
-148.914075
 31
0.0
  0
LINE
  5
612
100
AcDbEntity
  8
2
100
AcDbLine
 10
63.945448
 20
-146.956026
 30
0.0
 11
63.945448
 21
-148.914075
 31
0.0
  0
ARC
  5
613
100
AcDbEntity
  8
2
100
AcDbCircle
 10
70.945448
 20
-134.156026
 30
0.0
 40
18.0
100
AcDbArc
 50
253.39845
 51
286.60155
  0
ARC
  5
614
100
AcDbEntity
  8
2
100
AcDbCircle
 10
66.545448
 20
-148.914075
 30
0.0
 40
2.6
100
AcDbArc
 50
180.0
 51
253.39845
  0
ARC
  5
615
100
AcDbEntity
  8
2
100
AcDbCircle
 10
75.345448
 20
-148.914075
 30
0.0
 40
2.6
100
AcDbArc
 50
286.60155
 51
360.0
  0
LINE
  5
616
100
AcDbEntity
  8
2
100
AcDbLine
 10
196.195448
 20
-146.956026
 30
0.0
 11
181.695448
 21
-146.956026
 31
0.0
  0
LINE
  5
617
100
AcDbEntity
  8
2
100
AcDbLine
 10
196.195448
 20
-144.956026
 30
0.0
 11
196.195448
 21
-146.956026
 31
0.0
  0
LINE
  5
618
100
AcDbEntity
  8
2
100
AcDbLine
 10
181.695448
 20
-144.956026
 30
0.0
 11
181.695448
 21
-146.956026
 31
0.0
  0
LINE
  5
619
100
AcDbEntity
  8
2
100
AcDbLine
 10
195.945448
 20
-146.956026
 30
0.0
 11
195.945448
 21
-148.914075
 31
0.0
  0
LINE
  5
61A
100
AcDbEntity
  8
2
100
AcDbLine
 10
181.945448
 20
-146.956026
 30
0.0
 11
181.945448
 21
-148.914075
 31
0.0
  0
ARC
  5
61B
100
AcDbEntity
  8
2
100
AcDbCircle
 10
188.945448
 20
-134.156026
 30
0.0
 40
18.0
100
AcDbArc
 50
253.39845
 51
286.60155
  0
ARC
  5
61C
100
AcDbEntity
  8
2
100
AcDbCircle
 10
184.545448
 20
-148.914075
 30
0.0
 40
2.6
100
AcDbArc
 50
180.0
 51
253.39845
  0
ARC
  5
61D
100
AcDbEntity
  8
2
100
AcDbCircle
 10
193.345448
 20
-148.914075
 30
0.0
 40
2.6
100
AcDbArc
 50
286.60155
 51
360.0
  0
LINE
  5
61E
100
AcDbEntity
  8
2
  6
CENTER
 62
     2
100
AcDbLine
 10
-434.183647
 20
386.143974
 30
0.0
 11
-417.5341
 21
386.143974
 31
0.0
  0
LINE
  5
61F
100
AcDbEntity
  8
2
  6
CENTER
 62
     2
100
AcDbLine
 10
-289.815926
 20
386.143974
 30
0.0
 11
-271.38057
 21
386.143974
 31
0.0
  0
LINE
  5
620
100
AcDbEntity
  8
2
  6
CENTER
 62
     2
100
AcDbLine
 10
-426.709994
 20
291.049869
 30
0.0
 11
-426.709994
 21
306.06702
 31
0.0
  0
LINE
  5
621
100
AcDbEntity
  8
2
  6
CENTER
 62
     2
100
AcDbLine
 10
-426.709994
 20
378.704395
 30
0.0
 11
-426.709994
 21
394.047993
 31
0.0
  0
LINE
  5
622
100
AcDbEntity
  8
2
  6
CENTER
 62
     2
100
AcDbLine
 10
-433.36747
 20
298.143974
 30
0.0
 11
-419.492863
 21
298.143974
 31
0.0
  0
LINE
  5
623
100
AcDbEntity
  8
2
  6
CENTER
 62
     2
100
AcDbLine
 10
-290.058472
 20
298.143974
 30
0.0
 11
-271.865723
 21
298.143974
 31
0.0
  0
LINE
  5
624
100
AcDbEntity
  8
2
  6
CENTER
 62
     2
100
AcDbLine
 10
-280.709994
 20
289.375812
 30
0.0
 11
-280.709994
 21
306.84087
 31
0.0
  0
LINE
  5
625
100
AcDbEntity
  8
2
  6
CENTER
 62
     2
100
AcDbLine
 10
-280.709994
 20
376.943287
 30
0.0
 11
-280.709994
 21
394.165729
 31
0.0
  0
ARC
  5
626
100
AcDbEntity
  8
2
  6
CENTER
 62
     2
100
AcDbCircle
 10
-359.709994
 20
339.143974
 30
0.0
 40
37.5
100
AcDbArc
 50
126.361503
 51
143.885033
  0
ARC
  5
627
100
AcDbEntity
  8
2
  6
CENTER
 62
     2
100
AcDbCircle
 10
-359.709994
 20
339.143974
 30
0.0
 40
37.5
100
AcDbArc
 50
216.93331
 51
233.416879
  0
ARC
  5
628
100
AcDbEntity
  8
2
  6
CENTER
 62
     2
100
AcDbCircle
 10
-359.709994
 20
339.143974
 30
0.0
 40
37.5
100
AcDbArc
 50
306.278748
 51
323.822644
  0
ARC
  5
629
100
AcDbEntity
  8
2
  6
CENTER
 62
     2
100
AcDbCircle
 10
-359.709994
 20
339.143974
 30
0.0
 40
37.5
100
AcDbArc
 50
36.280641
 51
53.737219
  0
LINE
  5
62A
100
AcDbEntity
  8
2
  6
CENTER
 62
     2
100
AcDbLine
 10
-390.549281
 20
308.304688
 30
0.0
 11
-382.498681
 21
316.355288
 31
0.0
  0
LINE
  5
62B
100
AcDbEntity
  8
2
  6
CENTER
 62
     2
100
AcDbLine
 10
-337.319141
 20
361.534827
 30
0.0
 11
-328.772768
 21
370.081201
 31
0.0
  0
LINE
  5
62C
100
AcDbEntity
  8
2
  6
CENTER
 62
     2
100
AcDbLine
 10
-390.603614
 20
370.037593
 30
0.0
 11
-382.252621
 21
361.686601
 31
0.0
  0
LINE
  5
62D
100
AcDbEntity
  8
2
  6
CENTER
 62
     2
100
AcDbLine
 10
-337.137911
 20
316.57189
 30
0.0
 11
-329.006847
 21
308.440827
 31
0.0
  0
LINE
  5
62E
100
AcDbEntity
  8
2
  6
CENTER
 62
     2
100
AcDbLine
 10
-386.226499
 20
51.95942
 30
0.0
 11
-386.226499
 21
35.538995
 31
0.0
  0
LINE
  5
62F
100
AcDbEntity
  8
2
  6
CENTER
 62
     2
100
AcDbLine
 10
-333.19349
 20
52.389276
 30
0.0
 11
-333.19349
 21
35.538995
 31
0.0
  0
LINE
  5
630
100
AcDbEntity
  8
2
  6
CENTER
 62
     2
100
AcDbLine
 10
156.461953
 20
36.388791
 30
0.0
 11
156.461953
 21
52.000249
 31
0.0
  0
LINE
  5
631
100
AcDbEntity
  8
2
  6
CENTER
 62
     2
100
AcDbLine
 10
103.428944
 20
36.388791
 30
0.0
 11
103.428944
 21
53.39414
 31
0.0
  0
LINE
  5
632
100
AcDbEntity
  8
2
  6
CENTER
 62
     2
100
AcDbLine
 10
-537.709994
 20
339.143974
 30
0.0
 11
-204.023377
 21
339.143974
 31
0.0
  0
LINE
  5
633
100
AcDbEntity
  8
2
  6
CENTER
 62
     2
100
AcDbLine
 10
86.745448
 20
-23.956026
 30
0.0
 11
177.545448
 21
-23.956026
 31
0.0
  0
LINE
  5
634
100
AcDbEntity
  8
2
  6
CENTER
 62
     2
100
AcDbLine
 10
112.945448
 20
-1.656026
 30
0.0
 11
112.945448
 21
-41.656026
 31
0.0
  0
LINE
  5
635
100
AcDbEntity
  8
2
  6
CENTER
 62
     2
100
AcDbLine
 10
152.945448
 20
-1.656026
 30
0.0
 11
152.945448
 21
-41.656026
 31
0.0
  0
LINE
  5
636
100
AcDbEntity
  8
2
  6
CENTER
 62
     2
100
AcDbLine
 10
-384.709994
 20
431.413942
 30
0.0
 11
-384.709994
 21
402.443974
 31
0.0
  0
LINE
  5
637
100
AcDbEntity
  8
2
  6
CENTER
 62
     2
100
AcDbLine
 10
-334.709994
 20
402.193974
 30
0.0
 11
-334.709994
 21
431.413942
 31
0.0
  0
LINE
  5
638
100
AcDbEntity
  8
2
  6
CENTER
 62
     2
100
AcDbLine
 10
-359.709994
 20
432.805696
 30
0.0
 11
-359.709994
 21
219.043974
 31
0.0
  0
LINE
  5
639
100
AcDbEntity
  8
2
  6
CENTER
 62
     2
100
AcDbLine
 10
-297.709994
 20
422.293974
 30
0.0
 11
-297.709994
 21
166.641144
 31
0.0
  0
LINE
  5
63A
100
AcDbEntity
  8
2
  6
CENTER
 62
     2
100
AcDbLine
 10
-297.709994
 20
-11.906026
 30
0.0
 11
-297.709994
 21
-144.956026
 31
0.0
  0
LINE
  5
63B
100
AcDbEntity
  8
2
  6
CENTER
 62
     2
100
AcDbLine
 10
-257.709994
 20
-35.956026
 30
0.0
 11
-257.709994
 21
-19.056026
 31
0.0
  0
LINE
  5
63C
100
AcDbEntity
  8
2
  6
CENTER
 62
     2
100
AcDbLine
 10
-266.259994
 20
-26.956026
 30
0.0
 11
-247.709994
 21
-26.956026
 31
0.0
  0
LINE
  5
63D
100
AcDbEntity
  8
2
  6
CENTER
 62
     2
100
AcDbLine
 10
-254.709994
 20
-115.666136
 30
0.0
 11
-254.709994
 21
-134.53079
 31
0.0
  0
LINE
  5
63E
100
AcDbEntity
  8
2
  6
CENTER
 62
     2
100
AcDbLine
 10
-263.709994
 20
-124.956026
 30
0.0
 11
-245.809994
 21
-124.956026
 31
0.0
  0
LINE
  5
63F
100
AcDbEntity
  8
2
  6
CENTER
 62
     2
100
AcDbLine
 10
-528.181721
 20
-82.956026
 30
0.0
 11
-511.909994
 21
-82.956026
 31
0.0
  0
LINE
  5
640
100
AcDbEntity
  8
2
  6
CENTER
 62
     2
100
AcDbLine
 10
-384.709994
 20
-136.956026
 30
0.0
 11
-384.709994
 21
-118.906026
 31
0.0
  0
LINE
  5
641
100
AcDbEntity
  8
2
  6
CENTER
 62
     2
100
AcDbLine
 10
-393.709994
 20
-127.956026
 30
0.0
 11
-375.659994
 21
-127.956026
 31
0.0
  0
LINE
  5
642
100
AcDbEntity
  8
2
  6
CENTER
 62
     2
100
AcDbLine
 10
-384.709994
 20
-41.406026
 30
0.0
 11
-384.709994
 21
-21.856026
 31
0.0
  0
LINE
  5
643
100
AcDbEntity
  8
2
  6
CENTER
 62
     2
100
AcDbLine
 10
-542.809994
 20
-77.956026
 30
0.0
 11
-209.209994
 21
-77.956026
 31
0.0
  0
LINE
  5
644
100
AcDbEntity
  8
2
  6
CENTER
 62
     2
100
AcDbLine
 10
-517.709994
 20
-126.806026
 30
0.0
 11
-517.709994
 21
-157.446264
 31
0.0
  0
LINE
  5
645
100
AcDbEntity
  8
2
  6
CENTER
 62
     2
100
AcDbLine
 10
-37.309438
 20
-77.956026
 30
0.0
 11
218.181499
 21
-77.956026
 31
0.0
  0
LINE
  5
646
100
AcDbEntity
  8
2
  6
CENTER
 62
     2
100
AcDbLine
 10
86.945448
 20
-63.756026
 30
0.0
 11
86.945448
 21
-42.156026
 31
0.0
  0
LINE
  5
647
100
AcDbEntity
  8
2
  6
CENTER
 62
     2
100
AcDbLine
 10
76.145448
 20
-52.956026
 30
0.0
 11
97.745448
 21
-52.956026
 31
0.0
  0
LINE
  5
648
100
AcDbEntity
  8
2
  6
CENTER
 62
     2
100
AcDbLine
 10
86.945448
 20
-116.156026
 30
0.0
 11
86.945448
 21
-137.756026
 31
0.0
  0
LINE
  5
649
100
AcDbEntity
  8
2
  6
CENTER
 62
     2
100
AcDbLine
 10
76.145448
 20
-126.956026
 30
0.0
 11
97.745448
 21
-126.956026
 31
0.0
  0
LINE
  5
64A
100
AcDbEntity
  8
2
  6
CENTER
 62
     2
100
AcDbLine
 10
184.945448
 20
-63.756026
 30
0.0
 11
184.945448
 21
-42.156026
 31
0.0
  0
LINE
  5
64B
100
AcDbEntity
  8
2
  6
CENTER
 62
     2
100
AcDbLine
 10
195.745448
 20
-52.956026
 30
0.0
 11
174.145448
 21
-52.956026
 31
0.0
  0
LINE
  5
64C
100
AcDbEntity
  8
2
  6
CENTER
 62
     2
100
AcDbLine
 10
184.945448
 20
-116.156026
 30
0.0
 11
184.945448
 21
-137.756026
 31
0.0
  0
LINE
  5
64D
100
AcDbEntity
  8
2
  6
CENTER
 62
     2
100
AcDbLine
 10
195.745448
 20
-126.956026
 30
0.0
 11
174.145448
 21
-126.956026
 31
0.0
  0
LINE
  5
64E
100
AcDbEntity
  8
2
  6
CENTER
 62
     2
100
AcDbLine
 10
-408.709994
 20
-157.446264
 30
0.0
 11
-408.709994
 21
-126.806026
 31
0.0
  0
LINE
  5
64F
100
AcDbEntity
  8
2
  6
CENTER
 62
     2
100
AcDbLine
 10
-275.709994
 20
-126.806026
 30
0.0
 11
-275.709994
 21
-157.446264
 31
0.0
  0
LINE
  5
650
100
AcDbEntity
  8
2
  6
CENTER
 62
     2
100
AcDbLine
 10
70.945448
 20
-157.446264
 30
0.0
 11
70.945448
 21
-132.556026
 31
0.0
  0
LINE
  5
651
100
AcDbEntity
  8
2
  6
CENTER
 62
     2
100
AcDbLine
 10
188.945448
 20
-133.756026
 30
0.0
 11
188.945448
 21
-157.446264
 31
0.0
  0
LINE
  5
652
100
AcDbEntity
  8
2
  6
CENTER
 62
     2
100
AcDbLine
 10
-242.759994
 20
-52.956026
 30
0.0
 11
-219.759994
 21
-52.956026
 31
0.0
  0
LINE
  5
653
100
AcDbEntity
  8
2
  6
CENTER
 62
     2
100
AcDbLine
 10
-219.759994
 20
-126.956026
 30
0.0
 11
-242.759994
 21
-126.956026
 31
0.0
  0
LINE
  5
654
100
AcDbEntity
  8
2
  6
CENTER
 62
     2
100
AcDbLine
 10
-519.709994
 20
235.893974
 30
0.0
 11
-519.709994
 21
287.332552
 31
0.0
  0
LINE
  5
655
100
AcDbEntity
  8
2
  6
CENTER
 62
     2
100
AcDbLine
 10
-384.709994
 20
283.254152
 30
0.0
 11
-384.709994
 21
237.093974
 31
0.0
  0
LINE
  5
656
100
AcDbEntity
  8
2
  6
CENTER
 62
     2
100
AcDbLine
 10
-257.709994
 20
237.093974
 30
0.0
 11
-257.709994
 21
286.81354
 31
0.0
  0
LINE
  5
657
100
AcDbEntity
  8
2
  6
CENTER
 62
     2
100
AcDbLine
 10
-247.409994
 20
296.143974
 30
0.0
 11
-220.859994
 21
296.143974
 31
0.0
  0
LINE
  5
658
100
AcDbEntity
  8
2
  6
CENTER
 62
     2
100
AcDbLine
 10
-220.859994
 20
394.143974
 30
0.0
 11
-245.709994
 21
394.143974
 31
0.0
  0
LINE
  5
659
100
AcDbEntity
  8
2
  6
CENTER
 62
     2
100
AcDbLine
 10
-256.827316
 20
362.143974
 30
0.0
 11
-287.809994
 21
362.143974
 31
0.0
  0
LINE
  5
65A
100
AcDbEntity
  8
2
  6
CENTER
 62
     2
100
AcDbLine
 10
-289.648881
 20
322.143974
 30
0.0
 11
-256.827316
 21
322.143974
 31
0.0
  0
LINE
  5
65B
100
AcDbEntity
  8
2
  6
CENTER
 62
     2
100
AcDbLine
 10
209.723761
 20
-93.956026
 30
0.0
 11
222.595257
 21
-93.956026
 31
0.0
  0
LINE
  5
65C
100
AcDbEntity
  8
2
  6
CENTER
 62
     2
100
AcDbLine
 10
-395.333225
 20
-31.026026
 30
0.0
 11
-374.87373
 21
-31.026026
 31
0.0
  0
LINE
  5
65D
100
AcDbEntity
  8
2
  6
CENTER
 62
     2
100
AcDbLine
 10
-519.709994
 20
-75.233229
 30
0.0
 11
-519.709994
 21
-90.888857
 31
0.0
  0
LINE
  5
65E
100
AcDbEntity
  8
2
  6
CENTER
 62
     2
100
AcDbLine
 10
26.631145
 20
-26.956026
 30
0.0
 11
77.199383
 21
-26.956026
 31
0.0
  0
LINE
  5
65F
100
AcDbEntity
  8
2
  6
CENTER
 62
     2
100
AcDbLine
 10
27.101513
 20
-124.956026
 30
0.0
 11
77.017773
 21
-124.956026
 31
0.0
  0
LINE
  5
660
100
AcDbEntity
  8
2
100
AcDbLine
 10
38.945448
 20
-33.451551
 30
0.0
 11
35.471958
 21
-34.754774
 31
0.0
  0
LINE
  5
661
100
AcDbEntity
  8
2
100
AcDbLine
 10
-264.075895
 20
245.271509
 30
0.0
 11
-264.075895
 21
248.143974
 31
0.0
  0
ARC
  5
662
100
AcDbEntity
  8
2
100
AcDbCircle
 10
-260.77236
 20
245.271509
 30
0.0
 40
3.303535
100
AcDbArc
 50
180.0
 51
310.859891
  0
LINE
  5
663
100
AcDbEntity
  8
2
100
AcDbLine
 10
38.945448
 20
-118.456929
 30
0.0
 11
33.313363
 21
-116.560745
 31
0.0
  0
LINE
  5
664
100
AcDbEntity
  8
2
100
AcDbLine
 10
33.73669
 20
-122.649906
 30
0.0
 11
32.382815
 21
-122.292789
 31
0.0
  0
LINE
  5
665
100
AcDbEntity
  8
2
100
AcDbLine
 10
30.688173
 20
-118.683556
 30
0.0
 11
30.905881
 21
-120.586287
 31
0.0
  0
ARC
  5
666
100
AcDbEntity
  8
2
100
AcDbCircle
 10
32.892917
 20
-120.358933
 30
0.0
 40
2.0
100
AcDbArc
 50
186.527319
 51
255.223414
  0
ARC
  5
667
100
AcDbEntity
  8
2
100
AcDbCircle
 10
32.675209
 20
-118.456202
 30
0.0
 40
2.0
100
AcDbArc
 50
71.392894
 51
186.527319
  0
LINE
  5
668
100
AcDbEntity
  8
2
100
AcDbLine
 10
32.769397
 20
-31.755293
 30
0.0
 11
32.769397
 21
-32.882234
 31
0.0
  0
ARC
  5
669
100
AcDbEntity
  8
2
100
AcDbCircle
 10
34.769397
 20
-31.755293
 30
0.0
 40
2.0
100
AcDbArc
 50
116.623552
 51
180.0
  0
ARC
  5
66A
100
AcDbEntity
  8
2
100
AcDbCircle
 10
34.769397
 20
-32.882234
 30
0.0
 40
2.0
100
AcDbArc
 50
180.0
 51
290.565661
  0
LINE
  5
66B
100
AcDbEntity
  8
2
100
AcDbLine
 10
-521.831315
 20
-85.077346
 30
0.0
 11
-517.588674
 21
-80.834706
 31
0.0
  0
LINE
  5
66C
100
AcDbEntity
  8
2
100
AcDbLine
 10
-517.588674
 20
-85.077346
 30
0.0
 11
-521.831315
 21
-80.834706
 31
0.0
  0
LINE
  5
66D
100
AcDbEntity
  8
2
100
AcDbLine
 10
-386.831315
 20
-33.147346
 30
0.0
 11
-382.588674
 21
-28.904706
 31
0.0
  0
LINE
  5
66E
100
AcDbEntity
  8
2
100
AcDbLine
 10
-382.588674
 20
-33.147346
 30
0.0
 11
-386.831315
 21
-28.904706
 31
0.0
  0
LINE
  5
66F
100
AcDbEntity
  8
2
100
AcDbLine
 10
-386.831315
 20
-130.077346
 30
0.0
 11
-382.588674
 21
-125.834706
 31
0.0
  0
LINE
  5
670
100
AcDbEntity
  8
2
100
AcDbLine
 10
-382.588674
 20
-130.077346
 30
0.0
 11
-386.831315
 21
-125.834706
 31
0.0
  0
LINE
  5
671
100
AcDbEntity
  8
2
100
AcDbLine
 10
-259.831315
 20
-29.077346
 30
0.0
 11
-255.588674
 21
-24.834706
 31
0.0
  0
LINE
  5
672
100
AcDbEntity
  8
2
100
AcDbLine
 10
-255.588674
 20
-29.077346
 30
0.0
 11
-259.831315
 21
-24.834706
 31
0.0
  0
LINE
  5
673
100
AcDbEntity
  8
2
100
AcDbLine
 10
-256.831315
 20
-127.077346
 30
0.0
 11
-252.588674
 21
-122.834706
 31
0.0
  0
LINE
  5
674
100
AcDbEntity
  8
2
100
AcDbLine
 10
-252.588674
 20
-127.077346
 30
0.0
 11
-256.831315
 21
-122.834706
 31
0.0
  0
LINE
  5
675
100
AcDbEntity
  8
2
100
AcDbLine
 10
84.824128
 20
-55.077346
 30
0.0
 11
89.066769
 21
-50.834706
 31
0.0
  0
LINE
  5
676
100
AcDbEntity
  8
2
100
AcDbLine
 10
89.066769
 20
-55.077346
 30
0.0
 11
84.824128
 21
-50.834706
 31
0.0
  0
LINE
  5
677
100
AcDbEntity
  8
2
100
AcDbLine
 10
-282.831315
 20
384.022654
 30
0.0
 11
-278.588674
 21
388.265294
 31
0.0
  0
LINE
  5
678
100
AcDbEntity
  8
2
100
AcDbLine
 10
-278.588674
 20
384.022654
 30
0.0
 11
-282.831315
 21
388.265294
 31
0.0
  0
LINE
  5
679
100
AcDbEntity
  8
2
100
AcDbLine
 10
-335.29349
 20
365.660478
 30
0.0
 11
-331.09349
 21
365.660478
 31
0.0
  0
LINE
  5
67A
100
AcDbEntity
  8
2
100
AcDbLine
 10
-333.19349
 20
363.560478
 30
0.0
 11
-333.19349
 21
367.760478
 31
0.0
  0
LINE
  5
67B
100
AcDbEntity
  8
2
100
AcDbLine
 10
-388.326499
 20
365.660478
 30
0.0
 11
-384.126499
 21
365.660478
 31
0.0
  0
LINE
  5
67C
100
AcDbEntity
  8
2
100
AcDbLine
 10
-386.226499
 20
363.560478
 30
0.0
 11
-386.226499
 21
367.760478
 31
0.0
  0
LINE
  5
67D
100
AcDbEntity
  8
2
100
AcDbLine
 10
-335.29349
 20
312.62747
 30
0.0
 11
-331.09349
 21
312.62747
 31
0.0
  0
LINE
  5
67E
100
AcDbEntity
  8
2
100
AcDbLine
 10
-333.19349
 20
310.52747
 30
0.0
 11
-333.19349
 21
314.72747
 31
0.0
  0
LINE
  5
67F
100
AcDbEntity
  8
2
100
AcDbLine
 10
-388.326499
 20
312.62747
 30
0.0
 11
-384.126499
 21
312.62747
 31
0.0
  0
LINE
  5
680
100
AcDbEntity
  8
2
100
AcDbLine
 10
-386.226499
 20
310.52747
 30
0.0
 11
-386.226499
 21
314.72747
 31
0.0
  0
LINE
  5
681
100
AcDbEntity
  8
2
100
AcDbLine
 10
-282.831315
 20
296.022654
 30
0.0
 11
-278.588674
 21
300.265294
 31
0.0
  0
LINE
  5
682
100
AcDbEntity
  8
2
100
AcDbLine
 10
-278.588674
 20
296.022654
 30
0.0
 11
-282.831315
 21
300.265294
 31
0.0
  0
LINE
  5
683
100
AcDbEntity
  8
2
100
AcDbLine
 10
-428.831315
 20
384.022654
 30
0.0
 11
-424.588674
 21
388.265294
 31
0.0
  0
LINE
  5
684
100
AcDbEntity
  8
2
100
AcDbLine
 10
-424.588674
 20
384.022654
 30
0.0
 11
-428.831315
 21
388.265294
 31
0.0
  0
LINE
  5
685
100
AcDbEntity
  8
2
100
AcDbLine
 10
-428.831315
 20
296.022654
 30
0.0
 11
-424.588674
 21
300.265294
 31
0.0
  0
LINE
  5
686
100
AcDbEntity
  8
2
100
AcDbLine
 10
-424.588674
 20
296.022654
 30
0.0
 11
-428.831315
 21
300.265294
 31
0.0
  0
LINE
  5
687
100
AcDbEntity
  8
2
100
AcDbLine
 10
84.824128
 20
-129.077346
 30
0.0
 11
89.066769
 21
-124.834706
 31
0.0
  0
LINE
  5
688
100
AcDbEntity
  8
2
100
AcDbLine
 10
89.066769
 20
-129.077346
 30
0.0
 11
84.824128
 21
-124.834706
 31
0.0
  0
LINE
  5
689
100
AcDbEntity
  8
2
100
AcDbLine
 10
182.824128
 20
-55.077346
 30
0.0
 11
187.066769
 21
-50.834706
 31
0.0
  0
LINE
  5
68A
100
AcDbEntity
  8
2
100
AcDbLine
 10
187.066769
 20
-55.077346
 30
0.0
 11
182.824128
 21
-50.834706
 31
0.0
  0
LINE
  5
68B
100
AcDbEntity
  8
2
100
AcDbLine
 10
182.824128
 20
-129.077346
 30
0.0
 11
187.066769
 21
-124.834706
 31
0.0
  0
LINE
  5
68C
100
AcDbEntity
  8
2
100
AcDbLine
 10
187.066769
 20
-129.077346
 30
0.0
 11
182.824128
 21
-124.834706
 31
0.0
  0
TEXT
  5
68D
100
AcDbEntity
  8
2
100
AcDbText
 10
-354.290509
 20
316.1303
 30
0.0
 40
7.6
  1
Ｓ
 50
22.5
 72
     5
 11
-348.673321
 21
318.457015
 31
0.0
100
AcDbText
  0
TEXT
  5
68E
100
AcDbEntity
  8
2
100
AcDbText
 10
-365.12948
 20
362.157648
 30
0.0
 40
7.6
  1
Ｓ
 50
202.5
 72
     5
 11
-370.746667
 21
359.830932
 31
0.0
100
AcDbText
  0
TEXT
  5
68F
100
AcDbEntity
  8
2
100
AcDbText
 10
-353.465061
 20
44.451391
 30
0.0
 40
7.6
  1
Ｓ
 50
31.641
 72
     5
 11
-348.288843
 21
47.64093
 31
0.0
100
AcDbText
  0
TEXT
  5
690
100
AcDbEntity
  8
2
100
AcDbText
 10
-278.989575
 20
-78.97382
 30
0.0
 40
9.0
  1
Ｓ
 50
253.0
 72
     5
 11
-281.094651
 21
-85.859214
 31
0.0
100
AcDbText
  0
LINE
  5
691
100
AcDbEntity
  8
2
100
AcDbLine
 10
-402.209994
 20
44.043974
 30
0.0
 11
-317.209994
 21
44.043974
 31
0.0
  0
LINE
  5
692
100
AcDbEntity
  8
2
100
AcDbLine
 10
-317.209994
 20
45.243974
 30
0.0
 11
-317.209994
 21
42.043974
 31
0.0
  0
LINE
  5
693
100
AcDbEntity
  8
2
100
AcDbLine
 10
-402.209994
 20
45.243974
 30
0.0
 11
-402.209994
 21
42.043974
 31
0.0
  0
LINE
  5
694
100
AcDbEntity
  8
2
100
AcDbLine
 10
174.864246
 20
39.043974
 30
0.0
 11
91.026651
 21
39.043974
 31
0.0
  0
LINE
  5
695
100
AcDbEntity
  8
2
100
AcDbLine
 10
87.445448
 20
45.243974
 30
0.0
 11
87.445448
 21
38.592355
 31
0.0
  0
LINE
  5
696
100
AcDbEntity
  8
2
100
AcDbLine
 10
172.445448
 20
45.243974
 30
0.0
 11
172.445448
 21
42.022834
 31
0.0
  0
LINE
  5
697
100
AcDbEntity
  8
2
100
AcDbLine
 10
87.445448
 20
44.043974
 30
0.0
 11
172.445448
 21
44.043974
 31
0.0
  0
LINE
  5
698
100
AcDbEntity
  8
2
100
AcDbLine
 10
-287.372853
 20
39.043974
 30
0.0
 11
-409.648072
 21
39.043974
 31
0.0
  0
LINE
  5
699
100
AcDbEntity
  8
2
100
AcDbLine
 10
-286.709994
 20
36.043974
 30
0.0
 11
-286.709994
 21
5.043974
 31
0.0
  0
LINE
  5
69A
100
AcDbEntity
  8
2
100
AcDbLine
 10
-420.709994
 20
32.932472
 30
0.0
 11
-420.709994
 21
5.043974
 31
0.0
  0
LINE
  5
69B
100
AcDbEntity
  8
2
100
AcDbLine
 10
-432.189936
 20
4.043974
 30
0.0
 11
-421.709994
 21
4.043974
 31
0.0
  0
LINE
  5
69C
100
AcDbEntity
  8
2
100
AcDbLine
 10
-285.709994
 20
4.043974
 30
0.0
 11
-276.063769
 21
4.043974
 31
0.0
  0
ARC
  5
69D
100
AcDbEntity
  8
2
100
AcDbCircle
 10
-289.709994
 20
36.043974
 30
0.0
 40
3.0
100
AcDbArc
 50
0.0
 51
90.0
  0
ARC
  5
69E
100
AcDbEntity
  8
2
100
AcDbCircle
 10
-314.209994
 20
42.043974
 30
0.0
 40
3.0
100
AcDbArc
 50
180.0
 51
270.0
  0
ARC
  5
69F
100
AcDbEntity
  8
2
100
AcDbCircle
 10
-405.209994
 20
42.043974
 30
0.0
 40
3.0
100
AcDbArc
 50
270.0
 51
360.0
  0
LINE
  5
6A0
100
AcDbEntity
  8
2
100
AcDbLine
 10
87.445448
 20
45.243974
 30
0.0
 11
172.445448
 21
45.243974
 31
0.0
  0
LINE
  5
6A1
100
AcDbEntity
  8
2
100
AcDbLine
 10
-317.209994
 20
45.243974
 30
0.0
 11
-402.209994
 21
45.243974
 31
0.0
  0
LINE
  5
6A2
100
AcDbEntity
  8
2
100
AcDbLine
 10
170.945448
 20
36.043974
 30
0.0
 11
170.945448
 21
5.043974
 31
0.0
  0
LINE
  5
6A3
100
AcDbEntity
  8
2
100
AcDbLine
 10
94.945448
 20
36.043974
 30
0.0
 11
94.945448
 21
5.043974
 31
0.0
  0
LINE
  5
6A4
100
AcDbEntity
  8
2
100
AcDbLine
 10
84.299223
 20
4.043974
 30
0.0
 11
93.945448
 21
4.043974
 31
0.0
  0
LINE
  5
6A5
100
AcDbEntity
  8
2
100
AcDbLine
 10
171.945448
 20
4.043974
 30
0.0
 11
181.591674
 21
4.043974
 31
0.0
  0
ARC
  5
6A6
100
AcDbEntity
  8
2
100
AcDbCircle
 10
167.945448
 20
36.043974
 30
0.0
 40
3.0
100
AcDbArc
 50
0.0
 51
90.0
  0
ARC
  5
6A7
100
AcDbEntity
  8
2
100
AcDbCircle
 10
97.945448
 20
36.043974
 30
0.0
 40
3.0
100
AcDbArc
 50
90.0
 51
180.0
  0
LINE
  5
6A8
100
AcDbEntity
  8
2
  6
CENTER
 62
     2
100
AcDbLine
 10
-426.709994
 20
13.171422
 30
0.0
 11
-426.709994
 21
-3.744589
 31
0.0
  0
LINE
  5
6A9
100
AcDbEntity
  8
2
  6
CENTER
 62
     2
100
AcDbLine
 10
-280.709994
 20
13.171422
 30
0.0
 11
-280.709994
 21
-3.744589
 31
0.0
  0
LINE
  5
6AA
100
AcDbEntity
  8
2
  6
CENTER
 62
     2
100
AcDbLine
 10
176.945448
 20
13.171422
 30
0.0
 11
176.945448
 21
-3.30342
 31
0.0
  0
LINE
  5
6AB
100
AcDbEntity
  8
2
  6
CENTER
 62
     2
100
AcDbLine
 10
88.945448
 20
13.171422
 30
0.0
 11
88.945448
 21
-3.30342
 31
0.0
  0
LINE
  5
6AC
100
AcDbEntity
  8
2
100
AcDbLine
 10
-431.309994
 20
5.343974
 30
0.0
 11
-431.309994
 21
4.043974
 31
0.0
  0
LINE
  5
6AD
100
AcDbEntity
  8
2
100
AcDbLine
 10
-422.109994
 20
5.343974
 30
0.0
 11
-422.109994
 21
4.043974
 31
0.0
  0
LINE
  5
6AE
100
AcDbEntity
  8
2
100
AcDbLine
 10
-431.309994
 20
5.343974
 30
0.0
 11
-422.109994
 21
5.343974
 31
0.0
  0
LINE
  5
6AF
100
AcDbEntity
  8
2
100
AcDbLine
 10
-431.209994
 20
6.631466
 30
0.0
 11
-431.209994
 21
5.343974
 31
0.0
  0
LINE
  5
6B0
100
AcDbEntity
  8
2
100
AcDbLine
 10
-422.209994
 20
6.631466
 30
0.0
 11
-422.209994
 21
5.343974
 31
0.0
  0
ARC
  5
6B1
100
AcDbEntity
  8
2
100
AcDbCircle
 10
-426.709994
 20
-3.356026
 30
0.0
 40
12.0
100
AcDbArc
 50
73.808648
 51
106.191352
  0
ARC
  5
6B2
100
AcDbEntity
  8
2
100
AcDbCircle
 10
-429.609994
 20
6.631466
 30
0.0
 40
1.6
100
AcDbArc
 50
106.191352
 51
180.0
  0
ARC
  5
6B3
100
AcDbEntity
  8
2
100
AcDbCircle
 10
-423.809994
 20
6.631466
 30
0.0
 40
1.6
100
AcDbArc
 50
0.0
 51
73.808648
  0
LINE
  5
6B4
100
AcDbEntity
  8
2
100
AcDbLine
 10
-285.309994
 20
5.343974
 30
0.0
 11
-285.309994
 21
4.043974
 31
0.0
  0
LINE
  5
6B5
100
AcDbEntity
  8
2
100
AcDbLine
 10
-276.109994
 20
5.343974
 30
0.0
 11
-276.109994
 21
4.043974
 31
0.0
  0
LINE
  5
6B6
100
AcDbEntity
  8
2
100
AcDbLine
 10
-285.309994
 20
5.343974
 30
0.0
 11
-276.109994
 21
5.343974
 31
0.0
  0
LINE
  5
6B7
100
AcDbEntity
  8
2
100
AcDbLine
 10
-285.209994
 20
6.631466
 30
0.0
 11
-285.209994
 21
5.343974
 31
0.0
  0
LINE
  5
6B8
100
AcDbEntity
  8
2
100
AcDbLine
 10
-276.209994
 20
6.631466
 30
0.0
 11
-276.209994
 21
5.343974
 31
0.0
  0
ARC
  5
6B9
100
AcDbEntity
  8
2
100
AcDbCircle
 10
-280.709994
 20
-3.356026
 30
0.0
 40
12.0
100
AcDbArc
 50
73.808648
 51
106.191352
  0
ARC
  5
6BA
100
AcDbEntity
  8
2
100
AcDbCircle
 10
-283.609994
 20
6.631466
 30
0.0
 40
1.6
100
AcDbArc
 50
106.191352
 51
180.0
  0
ARC
  5
6BB
100
AcDbEntity
  8
2
100
AcDbCircle
 10
-277.809994
 20
6.631466
 30
0.0
 40
1.6
100
AcDbArc
 50
0.0
 51
73.808648
  0
LINE
  5
6BC
100
AcDbEntity
  8
2
100
AcDbLine
 10
84.345448
 20
5.343974
 30
0.0
 11
84.345448
 21
4.043974
 31
0.0
  0
LINE
  5
6BD
100
AcDbEntity
  8
2
100
AcDbLine
 10
93.545448
 20
5.343974
 30
0.0
 11
93.545448
 21
4.043974
 31
0.0
  0
LINE
  5
6BE
100
AcDbEntity
  8
2
100
AcDbLine
 10
84.345448
 20
5.343974
 30
0.0
 11
93.545448
 21
5.343974
 31
0.0
  0
LINE
  5
6BF
100
AcDbEntity
  8
2
100
AcDbLine
 10
84.445448
 20
6.631466
 30
0.0
 11
84.445448
 21
5.343974
 31
0.0
  0
LINE
  5
6C0
100
AcDbEntity
  8
2
100
AcDbLine
 10
93.445448
 20
6.631466
 30
0.0
 11
93.445448
 21
5.343974
 31
0.0
  0
ARC
  5
6C1
100
AcDbEntity
  8
2
100
AcDbCircle
 10
88.945448
 20
-3.356026
 30
0.0
 40
12.0
100
AcDbArc
 50
73.808648
 51
106.191352
  0
ARC
  5
6C2
100
AcDbEntity
  8
2
100
AcDbCircle
 10
86.045448
 20
6.631466
 30
0.0
 40
1.6
100
AcDbArc
 50
106.191352
 51
180.0
  0
ARC
  5
6C3
100
AcDbEntity
  8
2
100
AcDbCircle
 10
91.845448
 20
6.631466
 30
0.0
 40
1.6
100
AcDbArc
 50
0.0
 51
73.808648
  0
LINE
  5
6C4
100
AcDbEntity
  8
2
100
AcDbLine
 10
172.345448
 20
5.343974
 30
0.0
 11
172.345448
 21
4.043974
 31
0.0
  0
LINE
  5
6C5
100
AcDbEntity
  8
2
100
AcDbLine
 10
181.545448
 20
5.343974
 30
0.0
 11
181.545448
 21
4.043974
 31
0.0
  0
LINE
  5
6C6
100
AcDbEntity
  8
2
100
AcDbLine
 10
172.345448
 20
5.343974
 30
0.0
 11
181.545448
 21
5.343974
 31
0.0
  0
LINE
  5
6C7
100
AcDbEntity
  8
2
100
AcDbLine
 10
172.445448
 20
6.631466
 30
0.0
 11
172.445448
 21
5.343974
 31
0.0
  0
LINE
  5
6C8
100
AcDbEntity
  8
2
100
AcDbLine
 10
181.445448
 20
6.631466
 30
0.0
 11
181.445448
 21
5.343974
 31
0.0
  0
ARC
  5
6C9
100
AcDbEntity
  8
2
100
AcDbCircle
 10
176.945448
 20
-3.356026
 30
0.0
 40
12.0
100
AcDbArc
 50
73.808648
 51
106.191352
  0
ARC
  5
6CA
100
AcDbEntity
  8
2
100
AcDbCircle
 10
174.045448
 20
6.631466
 30
0.0
 40
1.6
100
AcDbArc
 50
106.191352
 51
180.0
  0
ARC
  5
6CB
100
AcDbEntity
  8
2
100
AcDbCircle
 10
179.845448
 20
6.631466
 30
0.0
 40
1.6
100
AcDbArc
 50
0.0
 51
73.808648
  0
LINE
  5
6CC
100
AcDbEntity
  8
2
100
AcDbLine
 10
-434.709994
 20
-3.956026
 30
0.0
 11
-434.709994
 21
-0.956026
 31
0.0
  0
LINE
  5
6CD
100
AcDbEntity
  8
2
100
AcDbLine
 10
-434.709994
 20
-0.956026
 30
0.0
 11
-423.743461
 21
29.174276
 31
0.0
  0
ARC
  5
6CE
100
AcDbEntity
  8
2
100
AcDbCircle
 10
-409.648072
 20
24.043974
 30
0.0
 40
15.0
100
AcDbArc
 50
90.0
 51
160.0
  0
ARC
  5
6CF
100
AcDbEntity
  8
2
100
AcDbCircle
 10
-285.709994
 20
5.043974
 30
0.0
 40
1.0
100
AcDbArc
 50
180.0
 51
270.0
  0
ARC
  5
6D0
100
AcDbEntity
  8
2
100
AcDbCircle
 10
-432.189936
 20
3.043974
 30
0.0
 40
1.0
100
AcDbArc
 50
90.0
 51
160.0
  0
ARC
  5
6D1
100
AcDbEntity
  8
2
100
AcDbCircle
 10
-421.709994
 20
5.043974
 30
0.0
 40
1.0
100
AcDbArc
 50
270.0
 51
360.0
  0
ARC
  5
6D2
100
AcDbEntity
  8
2
100
AcDbCircle
 10
-417.709994
 20
32.932472
 30
0.0
 40
3.0
100
AcDbArc
 50
132.208221
 51
180.0
  0
LINE
  5
6D3
100
AcDbEntity
  8
2
100
AcDbLine
 10
-420.151185
 20
297.643974
 30
0.0
 11
-420.151185
 21
386.643974
 31
0.0
  0
ARC
  5
6D4
100
AcDbEntity
  8
2
100
AcDbCircle
 10
171.945448
 20
5.043974
 30
0.0
 40
1.0
100
AcDbArc
 50
180.0
 51
270.0
  0
ARC
  5
6D5
100
AcDbEntity
  8
2
100
AcDbCircle
 10
93.945448
 20
5.043974
 30
0.0
 40
1.0
100
AcDbArc
 50
270.0
 51
360.0
  0
LINE
  5
6D6
100
AcDbEntity
  8
2
100
AcDbLine
 10
-434.709994
 20
-0.956026
 30
0.0
 11
-274.709994
 21
-0.956026
 31
0.0
  0
LINE
  5
6D7
100
AcDbEntity
  8
2
100
AcDbLine
 10
-274.709994
 20
-0.956026
 30
0.0
 11
-277.410906
 21
29.915531
 31
0.0
  0
ARC
  5
6D8
100
AcDbEntity
  8
2
100
AcDbCircle
 10
-287.372853
 20
29.043974
 30
0.0
 40
10.0
100
AcDbArc
 50
5.0
 51
90.0
  0
ARC
  5
6D9
100
AcDbEntity
  8
2
100
AcDbCircle
 10
-276.063769
 20
3.043974
 30
0.0
 40
1.0
100
AcDbArc
 50
5.0
 51
90.0
  0
LINE
  5
6DA
100
AcDbEntity
  8
2
100
AcDbLine
 10
-278.209541
 20
306.143974
 30
0.0
 11
-278.209541
 21
378.143974
 31
0.0
  0
LINE
  5
6DB
100
AcDbEntity
  8
2
100
AcDbLine
 10
182.945448
 20
-0.956026
 30
0.0
 11
82.945448
 21
-0.956026
 31
0.0
  0
LINE
  5
6DC
100
AcDbEntity
  8
2
100
AcDbLine
 10
182.945448
 20
-0.956026
 30
0.0
 11
179.845219
 21
34.479753
 31
0.0
  0
LINE
  5
6DD
100
AcDbEntity
  8
2
100
AcDbLine
 10
82.945448
 20
-0.956026
 30
0.0
 11
86.045677
 21
34.479753
 31
0.0
  0
ARC
  5
6DE
100
AcDbEntity
  8
2
100
AcDbCircle
 10
174.864246
 20
34.043974
 30
0.0
 40
5.0
100
AcDbArc
 50
5.0
 51
90.0
  0
ARC
  5
6DF
100
AcDbEntity
  8
2
100
AcDbCircle
 10
91.026651
 20
34.043974
 30
0.0
 40
5.0
100
AcDbArc
 50
90.0
 51
175.0
  0
ARC
  5
6E0
100
AcDbEntity
  8
2
100
AcDbCircle
 10
175.445448
 20
42.022834
 30
0.0
 40
3.0
100
AcDbArc
 50
180.0
 51
265.833774
  0
ARC
  5
6E1
100
AcDbEntity
  8
2
100
AcDbCircle
 10
84.445448
 20
38.592355
 30
0.0
 40
3.0
100
AcDbArc
 50
325.350986
 51
360.0
  0
ARC
  5
6E2
100
AcDbEntity
  8
2
100
AcDbCircle
 10
181.591674
 20
3.043974
 30
0.0
 40
1.0
100
AcDbArc
 50
5.0
 51
90.0
  0
ARC
  5
6E3
100
AcDbEntity
  8
2
100
AcDbCircle
 10
84.299223
 20
3.043974
 30
0.0
 40
1.0
100
AcDbArc
 50
90.0
 51
175.0
  0
LINE
  5
6E4
100
AcDbEntity
  8
2
100
AcDbLine
 10
-418.709994
 20
295.643974
 30
0.0
 11
-288.709994
 21
295.643974
 31
0.0
  0
LINE
  5
6E5
100
AcDbEntity
  8
2
100
AcDbLine
 10
-418.709994
 20
388.643974
 30
0.0
 11
-288.709994
 21
388.643974
 31
0.0
  0
DIMENSION
  5
6E6
100
AcDbEntity
  8
5
100
AcDbDimension
  2
*D0
 10
-216.709994
 20
470.957703
 30
0.0
 11
-288.209994
 21
479.557703
 31
0.0
  1
143
100
AcDbAlignedDimension
 13
-359.709994
 23
432.805696
 33
0.0
 14
-216.709994
 24
394.071191
 34
0.0
100
AcDbRotatedDimension
  0
DIMENSION
  5
6E7
100
AcDbEntity
  8
5
100
AcDbDimension
  2
*D1
 10
-359.709994
 20
470.957703
 30
0.0
 11
-443.209994
 21
479.557703
 31
0.0
  1
167
100
AcDbAlignedDimension
 13
-526.709994
 23
262.143974
 33
0.0
 14
-359.709994
 24
432.805696
 34
0.0
100
AcDbRotatedDimension
  0
DIMENSION
  5
6E8
100
AcDbEntity
  8
5
100
AcDbDimension
  2
*D2
 10
-347.709994
 20
135.155548
 30
0.0
 11
-297.709994
 21
143.755548
 31
0.0
 70
     1
  1
%%c100
100
AcDbAlignedDimension
 13
-247.709994
 23
193.193974
 33
0.0
 14
-347.709994
 24
193.193974
 34
0.0
  0
DIMENSION
  5
6E9
100
AcDbEntity
  8
5
100
AcDbDimension
  2
*D3
 10
-152.970993
 20
339.143974
 30
0.0
 11
-168.830993
 21
261.483974
 31
0.0
  1
154
100
AcDbAlignedDimension
 13
-265.427427
 23
185.143974
 33
0.0
 14
-204.023377
 24
339.143974
 34
0.0
 50
90.0
100
AcDbRotatedDimension
  0
DIMENSION
  5
6EA
100
AcDbEntity
  8
5
100
AcDbDimension
  2
*D4
 10
-152.970993
 20
424.143974
 30
0.0
 11
-164.210993
 21
385.603974
 31
0.0
  1
85
100
AcDbAlignedDimension
 13
-204.023377
 23
339.143974
 33
0.0
 14
-331.386494
 24
424.143974
 34
0.0
 50
90.0
100
AcDbRotatedDimension
  0
DIMENSION
  5
6EB
100
AcDbEntity
  8
5
100
AcDbDimension
  2
*D5
 10
-75.506592
 20
-157.956026
 30
0.0
 11
-91.366592
 21
-254.116026
 31
0.0
  1
191
100
AcDbAlignedDimension
 13
89.185116
 23
-348.956026
 33
0.0
 14
78.945448
 24
-157.956026
 34
0.0
 50
90.0
100
AcDbRotatedDimension
  0
DIMENSION
  5
6EC
100
AcDbEntity
  8
5
100
AcDbDimension
  2
*D6
 10
-75.506592
 20
-348.956026
 30
0.0
 11
-91.366592
 21
-407.966026
 31
0.0
  1
117
100
AcDbAlignedDimension
 13
124.945448
 23
-465.656026
 33
0.0
 14
89.185116
 24
-348.956026
 34
0.0
 50
90.0
100
AcDbRotatedDimension
  0
DIMENSION
  5
6ED
100
AcDbEntity
  8
5
100
AcDbDimension
  2
*D7
 10
157.945448
 20
-507.395752
 30
0.0
 11
129.945448
 21
-498.795752
 31
0.0
  1
56
100
AcDbAlignedDimension
 13
101.945448
 23
-438.456026
 33
0.0
 14
157.945448
 24
-438.456026
 34
0.0
100
AcDbRotatedDimension
  0
DIMENSION
  5
6EE
100
AcDbEntity
  8
5
100
AcDbDimension
  2
*D8
 10
-75.506592
 20
66.043974
 30
0.0
 11
-91.366592
 21
-46.616026
 31
0.0
  1
224
100
AcDbAlignedDimension
 13
78.945448
 23
-157.956026
 33
0.0
 14
129.945448
 24
66.043974
 34
0.0
 50
90.0
100
AcDbRotatedDimension
  0
TEXT
  5
6EF
100
AcDbEntity
  8
5
100
AcDbText
 10
503.953156
 20
-227.250519
 30
0.0
 40
20.0
  1
（コントロールユニット付）
 72
     5
 11
759.953156
 21
-227.250519
 31
0.0
100
AcDbText
  0
TEXT
  5
6F0
100
AcDbEntity
  8
5
100
AcDbText
 10
383.953156
 20
-199.250519
 30
0.0
 40
20.0
  1
駆動部・・・４Ｉ－２型 
 72
     5
 11
599.953156
 21
-199.250519
 31
0.0
100
AcDbText
  0
LINE
  5
6F1
100
AcDbEntity
  8
18
100
AcDbLine
 10
486.196304
 20
-272.862473
 30
0.0
 11
686.196304
 21
-272.862473
 31
0.0
  0
LINE
  5
6F2
100
AcDbEntity
  8
18
100
AcDbLine
 10
486.196304
 20
-352.862473
 30
0.0
 11
686.196304
 21
-352.862473
 31
0.0
  0
LINE
  5
6F3
100
AcDbEntity
  8
18
100
AcDbLine
 10
486.196304
 20
-372.862473
 30
0.0
 11
686.196304
 21
-372.862473
 31
0.0
  0
LINE
  5
6F4
100
AcDbEntity
  8
18
100
AcDbLine
 10
486.196304
 20
-392.862473
 30
0.0
 11
686.196304
 21
-392.862473
 31
0.0
  0
LINE
  5
6F5
100
AcDbEntity
  8
18
100
AcDbLine
 10
486.196304
 20
-272.862473
 30
0.0
 11
486.196304
 21
-392.862473
 31
0.0
  0
LINE
  5
6F6
100
AcDbEntity
  8
18
100
AcDbLine
 10
586.196304
 20
-272.862473
 30
0.0
 11
586.196304
 21
-372.862473
 31
0.0
  0
LINE
  5
6F7
100
AcDbEntity
  8
18
100
AcDbLine
 10
686.196304
 20
-272.862473
 30
0.0
 11
686.196304
 21
-392.862473
 31
0.0
  0
LINE
  5
6F8
100
AcDbEntity
  8
18
  6
CENTER
 62
     2
100
AcDbLine
 10
495.771698
 20
-310.429749
 30
0.0
 11
575.780792
 21
-310.429749
 31
0.0
  0
LINE
  5
6F9
100
AcDbEntity
  8
18
  6
CENTER
 62
     2
100
AcDbLine
 10
534.858978
 20
-289.765686
 30
0.0
 11
534.858978
 21
-333.585892
 31
0.0
  0
LINE
  5
6FA
100
AcDbEntity
  8
18
100
AcDbLine
 10
502.858978
 20
-296.429749
 30
0.0
 11
562.858978
 21
-296.429749
 31
0.0
  0
LINE
  5
6FB
100
AcDbEntity
  8
18
100
AcDbLine
 10
502.858978
 20
-324.429749
 30
0.0
 11
562.858978
 21
-324.429749
 31
0.0
  0
LINE
  5
6FC
100
AcDbEntity
  8
18
100
AcDbLine
 10
502.858978
 20
-296.429749
 30
0.0
 11
502.858978
 21
-328.429749
 31
0.0
  0
LINE
  5
6FD
100
AcDbEntity
  8
18
100
AcDbLine
 10
558.858978
 20
-296.429749
 30
0.0
 11
558.858978
 21
-324.429749
 31
0.0
  0
LINE
  5
6FE
100
AcDbEntity
  8
18
100
AcDbLine
 10
502.858978
 20
-328.429749
 30
0.0
 11
556.192312
 21
-328.429749
 31
0.0
  0
LINE
  5
6FF
100
AcDbEntity
  8
18
100
AcDbLine
 10
562.858978
 20
-296.429749
 30
0.0
 11
562.858978
 21
-324.429749
 31
0.0
  0
LINE
  5
700
100
AcDbEntity
  8
18
100
AcDbLine
 10
556.192312
 20
-324.429749
 30
0.0
 11
556.192312
 21
-328.429749
 31
0.0
  0
LINE
  5
701
100
AcDbEntity
  8
18
100
AcDbLine
 10
520.858978
 20
-298.429749
 30
0.0
 11
520.858978
 21
-322.429749
 31
0.0
  0
LINE
  5
702
100
AcDbEntity
  8
18
100
AcDbLine
 10
554.858978
 20
-298.429749
 30
0.0
 11
554.858978
 21
-322.429749
 31
0.0
  0
LINE
  5
703
100
AcDbEntity
  8
18
100
AcDbLine
 10
520.858978
 20
-298.429749
 30
0.0
 11
554.858978
 21
-298.429749
 31
0.0
  0
LINE
  5
704
100
AcDbEntity
  8
18
100
AcDbLine
 10
520.858978
 20
-322.429749
 30
0.0
 11
554.858978
 21
-322.429749
 31
0.0
  0
CIRCLE
  5
705
100
AcDbEntity
  8
18
100
AcDbCircle
 10
534.858978
 20
-310.429749
 30
0.0
 40
4.8
  0
LINE
  5
706
100
AcDbEntity
  8
18
  6
DASHED
100
AcDbLine
 10
512.858978
 20
-302.429749
 30
0.0
 11
556.858978
 21
-302.429749
 31
0.0
  0
LINE
  5
707
100
AcDbEntity
  8
18
  6
DASHED
100
AcDbLine
 10
512.858978
 20
-318.429749
 30
0.0
 11
556.858978
 21
-318.429749
 31
0.0
  0
LINE
  5
708
100
AcDbEntity
  8
18
  6
DASHED
100
AcDbLine
 10
556.858978
 20
-302.429749
 30
0.0
 11
556.858978
 21
-318.429749
 31
0.0
  0
LINE
  5
709
100
AcDbEntity
  8
18
  6
DASHED
100
AcDbLine
 10
512.858978
 20
-302.429749
 30
0.0
 11
512.858978
 21
-318.429749
 31
0.0
  0
LINE
  5
70A
100
AcDbEntity
  8
18
  6
CENTER
 62
     2
100
AcDbLine
 10
608.163971
 20
-310.55838
 30
0.0
 11
664.66674
 21
-310.55838
 31
0.0
  0
LINE
  5
70B
100
AcDbEntity
  8
18
  6
CENTER
 62
     2
100
AcDbLine
 10
545.525645
 20
-326.333473
 30
0.0
 11
545.525645
 21
-343.579697
 31
0.0
  0
LINE
  5
70C
100
AcDbEntity
  8
18
100
AcDbLine
 10
658.605682
 20
-299.891475
 30
0.0
 11
658.605682
 21
-292.063713
 31
0.0
  0
LINE
  5
70D
100
AcDbEntity
  8
18
100
AcDbLine
 10
658.605682
 20
-292.063713
 30
0.0
 11
660.605682
 21
-292.063713
 31
0.0
  0
LINE
  5
70E
100
AcDbEntity
  8
18
100
AcDbLine
 10
660.605682
 20
-299.891475
 30
0.0
 11
660.605682
 21
-292.063713
 31
0.0
  0
LINE
  5
70F
100
AcDbEntity
  8
18
100
AcDbLine
 10
658.605682
 20
-307.719236
 30
0.0
 11
660.605682
 21
-307.719236
 31
0.0
  0
LINE
  5
710
100
AcDbEntity
  8
18
  6
CENTER
 62
     2
100
AcDbLine
 10
634.605682
 20
-276.9154
 30
0.0
 11
634.605682
 21
-347.321533
 31
0.0
  0
LINE
  5
711
100
AcDbEntity
  8
18
100
AcDbLine
 10
620.605682
 20
-342.55838
 30
0.0
 11
620.605682
 21
-282.55838
 31
0.0
  0
LINE
  5
712
100
AcDbEntity
  8
18
100
AcDbLine
 10
648.605682
 20
-342.55838
 30
0.0
 11
648.605682
 21
-282.55838
 31
0.0
  0
LINE
  5
713
100
AcDbEntity
  8
18
100
AcDbLine
 10
620.605682
 20
-342.55838
 30
0.0
 11
652.605682
 21
-342.55838
 31
0.0
  0
LINE
  5
714
100
AcDbEntity
  8
18
100
AcDbLine
 10
620.605682
 20
-286.55838
 30
0.0
 11
648.605682
 21
-286.55838
 31
0.0
  0
LINE
  5
715
100
AcDbEntity
  8
18
100
AcDbLine
 10
652.605682
 20
-342.55838
 30
0.0
 11
652.605682
 21
-289.225047
 31
0.0
  0
LINE
  5
716
100
AcDbEntity
  8
18
100
AcDbLine
 10
620.605682
 20
-282.55838
 30
0.0
 11
648.605682
 21
-282.55838
 31
0.0
  0
LINE
  5
717
100
AcDbEntity
  8
18
100
AcDbLine
 10
648.605682
 20
-289.225047
 30
0.0
 11
652.605682
 21
-289.225047
 31
0.0
  0
LINE
  5
718
100
AcDbEntity
  8
18
100
AcDbLine
 10
622.605682
 20
-324.55838
 30
0.0
 11
646.605682
 21
-324.55838
 31
0.0
  0
LINE
  5
719
100
AcDbEntity
  8
18
100
AcDbLine
 10
622.605682
 20
-290.55838
 30
0.0
 11
646.605682
 21
-290.55838
 31
0.0
  0
LINE
  5
71A
100
AcDbEntity
  8
18
100
AcDbLine
 10
622.605682
 20
-324.55838
 30
0.0
 11
622.605682
 21
-290.55838
 31
0.0
  0
LINE
  5
71B
100
AcDbEntity
  8
18
100
AcDbLine
 10
646.605682
 20
-324.55838
 30
0.0
 11
646.605682
 21
-290.55838
 31
0.0
  0
CIRCLE
  5
71C
100
AcDbEntity
  8
18
100
AcDbCircle
 10
634.605682
 20
-310.55838
 30
0.0
 40
4.8
  0
LINE
  5
71D
100
AcDbEntity
  8
18
100
AcDbLine
 10
612.605682
 20
-302.55838
 30
0.0
 11
612.605682
 21
-318.55838
 31
0.0
  0
LINE
  5
71E
100
AcDbEntity
  8
18
  6
CENTER
 62
     2
100
AcDbLine
 10
650.509407
 20
-299.891713
 30
0.0
 11
668.918755
 21
-299.891713
 31
0.0
  0
LINE
  5
71F
100
AcDbEntity
  8
18
100
AcDbLine
 10
612.605682
 20
-302.55838
 30
0.0
 11
620.605682
 21
-302.55838
 31
0.0
  0
LINE
  5
720
100
AcDbEntity
  8
18
100
AcDbLine
 10
652.605682
 20
-318.55838
 30
0.0
 11
656.605682
 21
-318.55838
 31
0.0
  0
LINE
  5
721
100
AcDbEntity
  8
18
100
AcDbLine
 10
612.605682
 20
-318.55838
 30
0.0
 11
620.605682
 21
-318.55838
 31
0.0
  0
LINE
  5
722
100
AcDbEntity
  8
18
  6
DASHED
100
AcDbLine
 10
620.605682
 20
-318.55838
 30
0.0
 11
652.605682
 21
-318.55838
 31
0.0
  0
LINE
  5
723
100
AcDbEntity
  8
18
100
AcDbLine
 10
656.605682
 20
-309.719475
 30
0.0
 11
656.605682
 21
-318.55838
 31
0.0
  0
LINE
  5
724
100
AcDbEntity
  8
18
  6
DASHED
100
AcDbLine
 10
620.605682
 20
-302.55838
 30
0.0
 11
652.605682
 21
-302.55838
 31
0.0
  0
LINE
  5
725
100
AcDbEntity
  8
18
  6
DASHED
100
AcDbLine
 10
652.605682
 20
-302.55838
 30
0.0
 11
656.066296
 21
-302.55838
 31
0.0
  0
LINE
  5
726
100
AcDbEntity
  8
18
  6
DASHED
100
AcDbLine
 10
656.066296
 20
-302.55838
 30
0.0
 11
656.605682
 21
-302.55838
 31
0.0
  0
LINE
  5
727
100
AcDbEntity
  8
18
100
AcDbLine
 10
652.605682
 20
-293.494755
 30
0.0
 11
658.605682
 21
-296.292601
 31
0.0
  0
LINE
  5
728
100
AcDbEntity
  8
18
100
AcDbLine
 10
652.605682
 20
-306.288195
 30
0.0
 11
658.605682
 21
-303.490349
 31
0.0
  0
LINE
  5
729
100
AcDbEntity
  8
18
100
AcDbLine
 10
658.605682
 20
-299.891475
 30
0.0
 11
658.605682
 21
-307.719236
 31
0.0
  0
LINE
  5
72A
100
AcDbEntity
  8
18
100
AcDbLine
 10
660.605682
 20
-299.891475
 30
0.0
 11
660.605682
 21
-307.719236
 31
0.0
  0
LINE
  5
72B
100
AcDbEntity
  8
18
100
AcDbLine
 10
545.525406
 20
-334.429749
 30
0.0
 11
537.697645
 21
-334.429749
 31
0.0
  0
LINE
  5
72C
100
AcDbEntity
  8
18
100
AcDbLine
 10
537.697645
 20
-334.429749
 30
0.0
 11
537.697645
 21
-336.429749
 31
0.0
  0
LINE
  5
72D
100
AcDbEntity
  8
18
100
AcDbLine
 10
545.525406
 20
-336.429749
 30
0.0
 11
537.697645
 21
-336.429749
 31
0.0
  0
LINE
  5
72E
100
AcDbEntity
  8
18
100
AcDbLine
 10
553.353168
 20
-334.429749
 30
0.0
 11
553.353168
 21
-336.429749
 31
0.0
  0
LINE
  5
72F
100
AcDbEntity
  8
18
100
AcDbLine
 10
539.128686
 20
-328.429749
 30
0.0
 11
541.926532
 21
-334.429749
 31
0.0
  0
LINE
  5
730
100
AcDbEntity
  8
18
100
AcDbLine
 10
551.922126
 20
-328.429749
 30
0.0
 11
549.12428
 21
-334.429749
 31
0.0
  0
LINE
  5
731
100
AcDbEntity
  8
18
100
AcDbLine
 10
545.525406
 20
-334.429749
 30
0.0
 11
553.353168
 21
-334.429749
 31
0.0
  0
LINE
  5
732
100
AcDbEntity
  8
18
100
AcDbLine
 10
545.525406
 20
-336.429749
 30
0.0
 11
553.353168
 21
-336.429749
 31
0.0
  0
LINE
  5
733
100
AcDbEntity
  8
18
  6
DASHED
100
AcDbLine
 10
656.605682
 20
-302.55838
 30
0.0
 11
656.605682
 21
-304.422964
 31
0.0
  0
LINE
  5
734
100
AcDbEntity
  8
18
100
AcDbLine
 10
656.605682
 20
-303.756297
 30
0.0
 11
656.605682
 21
-303.804611
 31
0.0
  0
LINE
  5
735
100
AcDbEntity
  8
18
100
AcDbLine
 10
656.605682
 20
-304.422964
 30
0.0
 11
656.605682
 21
-310.260956
 31
0.0
  0
TEXT
  5
736
100
AcDbEntity
  8
18
100
AcDbText
 10
490.200317
 20
-533.161682
 30
0.0
 40
12.0
  1
１
 72
     5
 11
499.800317
 21
-533.161682
 31
0.0
100
AcDbText
  0
TEXT
  5
737
100
AcDbEntity
  8
18
100
AcDbText
 10
505.784058
 20
-547.782104
 30
0.0
 40
12.0
  1
４
 72
     5
 11
515.384058
 21
-547.782104
 31
0.0
100
AcDbText
  0
TEXT
  5
738
100
AcDbEntity
  8
18
100
AcDbText
 10
502.16481
 20
-386.997009
 30
0.0
 40
10.0
  1
ＡＣＴＵＡＴＯＲ　ＰＯＳＩＴＩＯＮ
 72
     5
 11
670.16481
 21
-386.997009
 31
0.0
100
AcDbText
  0
TEXT
  5
739
100
AcDbEntity
  8
18
100
AcDbText
 10
526.719254
 20
-368.150955
 30
0.0
 40
12.0
  1
Ａ
 72
     5
 11
536.319254
 21
-368.150955
 31
0.0
100
AcDbText
  0
TEXT
  5
73A
100
AcDbEntity
  8
18
100
AcDbText
 10
626.671463
 20
-368.471573
 30
0.0
 40
12.0
  1
Ｂ
 72
     5
 11
636.271463
 21
-368.471573
 31
0.0
100
AcDbText
  0
TEXT
  5
73B
100
AcDbEntity
  8
18
100
AcDbText
 10
491.416962
 20
-492.141052
 30
0.0
 40
12.0
  1
７００Ｇ－４ＩＡＳ　１２５Ａ
 72
     5
 11
657.016962
 21
-492.141052
 31
0.0
100
AcDbText
  0
TEXT
  5
73C
100
AcDbEntity
  8
18
100
AcDbText
 10
491.416962
 20
-508.141052
 30
0.0
 40
12.0
  1
標準仕様　ＪＩＳ　５，１０Ｋ
 72
     5
 11
657.016962
 21
-508.141052
 31
0.0
100
AcDbText
  0
TEXT
  5
73D
100
AcDbEntity
  8
18
100
AcDbText
 10
614.4
 20
-544.0
 30
0.0
 40
20.0
  1
Ｄ３－０３５４８
 72
     5
 11
770.4
 21
-544.0
 31
0.0
100
AcDbText
  0
TEXT
  5
73E
100
AcDbEntity
  8
18
100
AcDbText
 10
721.996399
 20
-508.416687
 30
0.0
 40
9.0
  1
′０４．　９．３
 72
     5
 11
792.196399
 21
-508.416687
 31
0.0
100
AcDbText
  0
LINE
  5
73F
100
AcDbEntity
  8
20
 62
     3
100
AcDbLine
 10
-720.0
 20
-554.0
 30
0.0
 11
800.0
 21
-554.0
 31
0.0
  0
LINE
  5
740
100
AcDbEntity
  8
20
 62
     3
100
AcDbLine
 10
-720.0
 20
528.0
 30
0.0
 11
800.0
 21
528.0
 31
0.0
  0
LINE
  5
741
100
AcDbEntity
  8
20
 62
     3
100
AcDbLine
 10
-720.0
 20
528.0
 30
0.0
 11
-720.0
 21
-554.0
 31
0.0
  0
LINE
  5
742
100
AcDbEntity
  8
20
 62
     3
100
AcDbLine
 10
800.0
 20
528.0
 30
0.0
 11
800.0
 21
-554.0
 31
0.0
  0
LINE
  5
743
100
AcDbEntity
  8
20
 62
     3
100
AcDbLine
 10
240.0
 20
-554.0
 30
0.0
 11
240.0
 21
-474.0
 31
0.0
  0
LINE
  5
744
100
AcDbEntity
  8
20
 62
     3
100
AcDbLine
 10
428.0
 20
-554.0
 30
0.0
 11
428.0
 21
-474.0
 31
0.0
  0
LINE
  5
745
100
AcDbEntity
  8
20
100
AcDbLine
 10
428.0
 20
-514.0
 30
0.0
 11
800.0
 21
-514.0
 31
0.0
  0
LINE
  5
746
100
AcDbEntity
  8
20
 62
     3
100
AcDbLine
 10
240.0
 20
-474.0
 30
0.0
 11
800.0
 21
-474.0
 31
0.0
  0
LINE
  5
747
100
AcDbEntity
  8
20
100
AcDbLine
 10
720.0
 20
-514.0
 30
0.0
 11
720.0
 21
-474.0
 31
0.0
  0
LINE
  5
748
100
AcDbEntity
  8
20
100
AcDbLine
 10
720.0
 20
-494.0
 30
0.0
 11
800.0
 21
-494.0
 31
0.0
  0
LINE
  5
749
100
AcDbEntity
  8
20
100
AcDbLine
 10
484.0
 20
-554.0
 30
0.0
 11
484.0
 21
-474.0
 31
0.0
  0
LINE
  5
74A
100
AcDbEntity
  8
20
100
AcDbLine
 10
524.0
 20
-554.0
 30
0.0
 11
524.0
 21
-514.0
 31
0.0
  0
LINE
  5
74B
100
AcDbEntity
  8
20
100
AcDbLine
 10
604.0
 20
-554.0
 30
0.0
 11
604.0
 21
-514.0
 31
0.0
  0
LINE
  5
74C
100
AcDbEntity
  8
20
100
AcDbLine
 10
494.913658
 20
-543.086342
 30
0.0
 11
511.593163
 21
-526.406837
 31
0.0
  0
TEXT
  5
74D
100
AcDbEntity
  8
20
100
AcDbText
 10
526.133316
 20
-529.987671
 30
0.0
 40
7.2
  1
ＤＲＡＷＩＮＧ　ＮＯ．
 72
     5
 11
603.893316
 21
-529.987671
 31
0.0
100
AcDbText
  0
TEXT
  5
74E
100
AcDbEntity
  8
20
100
AcDbText
 10
534.0
 20
-546.0
 30
0.0
 40
12.0
  1
図　　　番
 72
     5
 11
591.6
 21
-546.0
 31
0.0
100
AcDbText
  0
TEXT
  5
74F
100
AcDbEntity
  8
20
100
AcDbText
 10
744.0
 20
-488.0
 30
0.0
 40
8.0
  1
ＤＡＴＥ
 72
     5
 11
774.4
 21
-488.0
 31
0.0
100
AcDbText
  0
TEXT
  5
750
100
AcDbEntity
  8
20
100
AcDbText
 10
436.004284
 20
-531.844116
 30
0.0
 40
8.0
  1
ＳＣＡＬＥ
 72
     5
 11
474.404284
 21
-531.844116
 31
0.0
100
AcDbText
  0
TEXT
  5
751
100
AcDbEntity
  8
20
100
AcDbText
 10
432.0
 20
-546.0
 30
0.0
 40
12.0
  1
尺　　度
 72
     5
 11
477.6
 21
-546.0
 31
0.0
100
AcDbText
  0
TEXT
  5
752
100
AcDbEntity
  8
20
100
AcDbText
 10
430.004284
 20
-489.983539
 30
0.0
 40
8.0
  1
ＦＩＧ．ＮＯ．
 72
     5
 11
484.404284
 21
-489.983539
 31
0.0
100
AcDbText
  0
TEXT
  5
753
100
AcDbEntity
  8
20
100
AcDbText
 10
432.0
 20
-506.0
 30
0.0
 40
12.0
  1
名　　称
 72
     5
 11
477.6
 21
-506.0
 31
0.0
100
AcDbText
  0
TEXT
  5
754
100
AcDbEntity
  8
20
100
AcDbText
 10
242.2621
 20
-505.881012
 30
0.0
 40
9.2
  1
ＴＯＭＯＥ　ＶＡＬＶＥ　ＣＯ．，ＬＴＤ．
 72
     5
 11
424.4221
 21
-505.881012
 31
0.0
100
AcDbText
  0
TEXT
  5
755
100
AcDbEntity
  8
20
100
AcDbText
 10
270.0
 20
-533.159241
 30
0.0
 40
16.0
  1
巴バルブ株式会社
 72
     5
 11
394.8
 21
-533.159241
 31
0.0
100
AcDbText
  0
ENDSEC
  0
SECTION
  2
OBJECTS
  0
DICTIONARY
  5
7C2
100
AcDbDictionary
  3
ACAD_GROUP
350
7C3
  3
ACAD_MLINESTYLE
350
7C4
  0
DICTIONARY
  5
7C3
102
{ACAD_REACTORS
330
7C2
102
}
100
AcDbDictionary
  0
DICTIONARY
  5
7C4
102
{ACAD_REACTORS
330
7C2
102
}
100
AcDbDictionary
  3
STANDARD
350
7C5
  0
MLINESTYLE
  5
7C5
102
{ACAD_REACTORS
330
7C4
102
}
100
AcDbMlineStyle
  2
STANDARD
 70
     0
  3

 62
     0
 51
90.0
 52
90.0
 71
     2
 49
0.5
 62
   256
  6
BYLAYER
 49
-0.5
 62
   256
  6
BYLAYER
  0
ENDSEC
  0
EOF
