  0
SECTION
  2
HEADER
  9
$ACADVER
  1
AC1015
  9
$ACADMAINTVER
 70
    20
  9
$DWGCODEPAGE
  3
ANSI_932
  9
$INSBASE
 10
0.0
 20
0.0
 30
0.0
  9
$EXTMIN
 10
-720.0805623550905
 20
-554.065243769513
 30
-0.0015258207003583
  9
$EXTMAX
 10
800.0610390213095
 20
528.0523708533173
 30
0.0000000349246037
  9
$LIMMIN
 10
-840.0
 20
-594.0
  9
$LIMMAX
 10
840.0
 20
594.0
  9
$ORTHOMODE
 70
     0
  9
$REGENMODE
 70
     1
  9
$FILLMODE
 70
     1
  9
$QTEXTMODE
 70
     0
  9
$MIRRTEXT
 70
     1
  9
$LTSCALE
 40
1.0
  9
$ATTMODE
 70
     1
  9
$TEXTSIZE
 40
1.0
  9
$TRACEWID
 40
0.05
  9
$TEXTSTYLE
  7
STANDARD
  9
$CLAYER
  8
0
  9
$CELTYPE
  6
CONTINUOUS
  9
$CECOLOR
 62
   256
  9
$CELTSCALE
 40
1.0
  9
$DISPSILH
 70
     0
  9
$DIMSCALE
 40
4.0
  9
$DIMASZ
 40
0.18
  9
$DIMEXO
 40
0.0625
  9
$DIMDLI
 40
0.38
  9
$DIMRND
 40
0.0
  9
$DIMDLE
 40
0.0
  9
$DIMEXE
 40
0.18
  9
$DIMTP
 40
0.0
  9
$DIMTM
 40
0.0
  9
$DIMTXT
 40
0.18
  9
$DIMCEN
 40
0.09
  9
$DIMTSZ
 40
0.0
  9
$DIMTOL
 70
     0
  9
$DIMLIM
 70
     0
  9
$DIMTIH
 70
     1
  9
$DIMTOH
 70
     1
  9
$DIMSE1
 70
     0
  9
$DIMSE2
 70
     0
  9
$DIMTAD
 70
     1
  9
$DIMZIN
 70
     0
  9
$DIMBLK
  1

  9
$DIMASO
 70
     1
  9
$DIMSHO
 70
     1
  9
$DIMPOST
  1

  9
$DIMAPOST
  1

  9
$DIMALT
 70
     0
  9
$DIMALTD
 70
     2
  9
$DIMALTF
 40
25.4
  9
$DIMLFAC
 40
1.0
  9
$DIMTOFL
 70
     0
  9
$DIMTVP
 40
0.0
  9
$DIMTIX
 70
     0
  9
$DIMSOXD
 70
     0
  9
$DIMSAH
 70
     0
  9
$DIMBLK1
  1

  9
$DIMBLK2
  1

  9
$DIMSTYLE
  2
STANDARD
  9
$DIMCLRD
 70
     0
  9
$DIMCLRE
 70
     0
  9
$DIMCLRT
 70
     0
  9
$DIMTFAC
 40
1.0
  9
$DIMGAP
 40
0.09
  9
$DIMJUST
 70
     0
  9
$DIMSD1
 70
     0
  9
$DIMSD2
 70
     0
  9
$DIMTOLJ
 70
     1
  9
$DIMTZIN
 70
     0
  9
$DIMALTZ
 70
     0
  9
$DIMALTTZ
 70
     0
  9
$DIMUPT
 70
     0
  9
$DIMDEC
 70
     4
  9
$DIMTDEC
 70
     4
  9
$DIMALTU
 70
     2
  9
$DIMALTTD
 70
     2
  9
$DIMTXSTY
  7
STANDARD
  9
$DIMAUNIT
 70
     0
  9
$DIMADEC
 70
     0
  9
$DIMALTRND
 40
0.0
  9
$DIMAZIN
 70
     0
  9
$DIMDSEP
 70
    46
  9
$DIMATFIT
 70
     3
  9
$DIMFRAC
 70
     0
  9
$DIMLDRBLK
  1

  9
$DIMLUNIT
 70
     2
  9
$DIMLWD
 70
    -2
  9
$DIMLWE
 70
    -2
  9
$DIMTMOVE
 70
     0
  9
$LUNITS
 70
     2
  9
$LUPREC
 70
     4
  9
$SKETCHINC
 40
0.1
  9
$FILLETRAD
 40
0.0
  9
$AUNITS
 70
     0
  9
$AUPREC
 70
     0
  9
$MENU
  1
acad
  9
$ELEVATION
 40
0.0
  9
$PELEVATION
 40
0.0
  9
$THICKNESS
 40
0.0
  9
$LIMCHECK
 70
     0
  9
$CHAMFERA
 40
0.0
  9
$CHAMFERB
 40
0.0
  9
$CHAMFERC
 40
0.0
  9
$CHAMFERD
 40
0.0
  9
$SKPOLY
 70
     0
  9
$TDCREATE
 40
2450703.000000000
  9
$TDUCREATE
 40
2450702.625000000
  9
$TDUPDATE
 40
2456129.427175302
  9
$TDUUPDATE
 40
2456129.052175301
  9
$TDINDWG
 40
0.0036216667
  9
$TDUSRTIMER
 40
0.0036213079
  9
$USRTIMER
 70
     1
  9
$ANGBASE
 50
0.0
  9
$ANGDIR
 70
     0
  9
$PDMODE
 70
     0
  9
$PDSIZE
 40
0.0
  9
$PLINEWID
 40
0.0
  9
$SPLFRAME
 70
     0
  9
$SPLINETYPE
 70
     6
  9
$SPLINESEGS
 70
     8
  9
$HANDSEED
  5
866
  9
$SURFTAB1
 70
     6
  9
$SURFTAB2
 70
     6
  9
$SURFTYPE
 70
     6
  9
$SURFU
 70
     6
  9
$SURFV
 70
     6
  9
$UCSBASE
  2

  9
$UCSNAME
  2

  9
$UCSORG
 10
0.0
 20
0.0
 30
0.0
  9
$UCSXDIR
 10
1.0
 20
0.0
 30
0.0
  9
$UCSYDIR
 10
0.0
 20
1.0
 30
0.0
  9
$UCSORTHOREF
  2

  9
$UCSORTHOVIEW
 70
     0
  9
$UCSORGTOP
 10
0.0
 20
0.0
 30
0.0
  9
$UCSORGBOTTOM
 10
0.0
 20
0.0
 30
0.0
  9
$UCSORGLEFT
 10
0.0
 20
0.0
 30
0.0
  9
$UCSORGRIGHT
 10
0.0
 20
0.0
 30
0.0
  9
$UCSORGFRONT
 10
0.0
 20
0.0
 30
0.0
  9
$UCSORGBACK
 10
0.0
 20
0.0
 30
0.0
  9
$PUCSBASE
  2

  9
$PUCSNAME
  2

  9
$PUCSORG
 10
0.0
 20
0.0
 30
0.0
  9
$PUCSXDIR
 10
1.0
 20
0.0
 30
0.0
  9
$PUCSYDIR
 10
0.0
 20
1.0
 30
0.0
  9
$PUCSORTHOREF
  2

  9
$PUCSORTHOVIEW
 70
     0
  9
$PUCSORGTOP
 10
0.0
 20
0.0
 30
0.0
  9
$PUCSORGBOTTOM
 10
0.0
 20
0.0
 30
0.0
  9
$PUCSORGLEFT
 10
0.0
 20
0.0
 30
0.0
  9
$PUCSORGRIGHT
 10
0.0
 20
0.0
 30
0.0
  9
$PUCSORGFRONT
 10
0.0
 20
0.0
 30
0.0
  9
$PUCSORGBACK
 10
0.0
 20
0.0
 30
0.0
  9
$USERI1
 70
     0
  9
$USERI2
 70
     0
  9
$USERI3
 70
     0
  9
$USERI4
 70
     0
  9
$USERI5
 70
     0
  9
$USERR1
 40
0.0
  9
$USERR2
 40
0.0
  9
$USERR3
 40
0.0
  9
$USERR4
 40
0.0
  9
$USERR5
 40
0.0
  9
$WORLDVIEW
 70
     1
  9
$SHADEDGE
 70
     3
  9
$SHADEDIF
 70
    70
  9
$TILEMODE
 70
     1
  9
$MAXACTVP
 70
    16
  9
$PINSBASE
 10
0.0
 20
0.0
 30
0.0
  9
$PLIMCHECK
 70
     0
  9
$PEXTMIN
 10
1.000000000000000E+20
 20
1.000000000000000E+20
 30
1.000000000000000E+20
  9
$PEXTMAX
 10
-1.000000000000000E+20
 20
-1.000000000000000E+20
 30
-1.000000000000000E+20
  9
$PLIMMIN
 10
0.0
 20
0.0
  9
$PLIMMAX
 10
12.0
 20
9.0
  9
$UNITMODE
 70
     0
  9
$VISRETAIN
 70
     0
  9
$PLINEGEN
 70
     1
  9
$PSLTSCALE
 70
     0
  9
$TREEDEPTH
 70
  3020
  9
$CMLSTYLE
  2
STANDARD
  9
$CMLJUST
 70
     0
  9
$CMLSCALE
 40
1.0
  9
$PROXYGRAPHICS
 70
     1
  9
$MEASUREMENT
 70
     0
  9
$CELWEIGHT
370
    -1
  9
$ENDCAPS
280
     0
  9
$JOINSTYLE
280
     0
  9
$LWDISPLAY
290
     0
  9
$INSUNITS
 70
     0
  9
$HYPERLINKBASE
  1

  9
$STYLESHEET
  1
monochrome.ctb
  9
$XEDIT
290
     1
  9
$CEPSNTYPE
380
     0
  9
$PSTYLEMODE
290
     1
  9
$FINGERPRINTGUID
  2
{E6CE6541-541F-4A55-A28D-E7FEF82BD0BF}
  9
$VERSIONGUID
  2
{BCFDF926-B533-44AA-BC13-E40428EEA3A6}
  9
$EXTNAMES
290
     1
  9
$PSVPSCALE
 40
0.0
  9
$OLESTARTUP
290
     0
  0
ENDSEC
  0
SECTION
  2
CLASSES
  0
CLASS
  1
IMAGE
  2
AcDbRasterImage
  3
ISM
 90
    34943
280
     0
281
     1
  0
CLASS
  1
DICTIONARYVAR
  2
AcDbDictionaryVar
  3
ObjectDBX Classes
 90
        0
280
     0
281
     0
  0
CLASS
  1
RASTERVARIABLES
  2
AcDbRasterVariables
  3
ISM
 90
    32768
280
     0
281
     0
  0
CLASS
  1
IMAGEDEF
  2
AcDbRasterImageDef
  3
ISM
 90
    32768
280
     0
281
     0
  0
CLASS
  1
IMAGEDEF_REACTOR
  2
AcDbRasterImageDefReactor
  3
ISM
 90
    32769
280
     0
281
     0
  0
CLASS
  1
IDBUFFER
  2
AcDbIdBuffer
  3
ObjectDBX Classes
 90
    32768
280
     0
281
     0
  0
CLASS
  1
SPATIAL_FILTER
  2
AcDbSpatialFilter
  3
ObjectDBX Classes
 90
    32768
280
     0
281
     0
  0
CLASS
  1
SORTENTSTABLE
  2
AcDbSortentsTable
  3
ObjectDBX Classes
 90
    32768
280
     0
281
     0
  0
CLASS
  1
LAYER_INDEX
  2
AcDbLayerIndex
  3
ObjectDBX Classes
 90
    32768
280
     0
281
     0
  0
CLASS
  1
SPATIAL_INDEX
  2
AcDbSpatialIndex
  3
ObjectDBX Classes
 90
    32768
280
     0
281
     0
  0
CLASS
  1
OBJECT_PTR
  2
CAseDLPNTableRecord
  3
"ASE-LPNTableRecord"
 90
    32769
280
     0
281
     0
  0
CLASS
  1
LAYOUT
  2
AcDbLayout
  3
ObjectDBX Classes
 90
        0
280
     0
281
     0
  0
CLASS
  1
PLOTSETTINGS
  2
AcDbPlotSettings
  3
ObjectDBX Classes
 90
    32768
280
     0
281
     0
  0
CLASS
  1
ACDBDICTIONARYWDFLT
  2
AcDbDictionaryWithDefault
  3
ObjectDBX Classes
 90
        0
280
     0
281
     0
  0
CLASS
  1
ACDBPLACEHOLDER
  2
AcDbPlaceHolder
  3
ObjectDBX Classes
 90
        0
280
     0
281
     0
  0
CLASS
  1
VBA_PROJECT
  2
AcDbVbaProject
  3
acad
 90
    32768
280
     0
281
     0
  0
CLASS
  1
WIPEOUT
  2
AcDbWipeout
  3
"WipeOut|Product Desc: Object Enabler for WipeOut entity                        |Company: Autodesk, Inc.                        |WEB Address: www.autodesk.com"
 90
    34943
280
     0
281
     1
  0
CLASS
  1
WIPEOUTVARIABLES
  2
AcDbWipeoutVariables
  3
"WipeOut|Product Desc:     WipeOut Dbx Application|Company:          Autodesk, Inc.|WEB Address:      www.autodesk.com"
 90
    32768
280
     0
281
     0
  0
CLASS
  1
RTEXT
  2
RText
  3
RText|AutoCAD Express Tool|expresstools@autodesk.com
 90
    32768
280
     0
281
     1
  0
CLASS
  1
ARCALIGNEDTEXT
  2
AcDbArcAlignedText
  3
ATEXT|AutoCAD Express Tool|expresstools@autodesk.com
 90
    32768
280
     0
281
     1
  0
CLASS
  1
MATERIAL
  2
AcDbMaterial
  3
ObjectDBX Classes
 90
     1153
280
     0
281
     0
  0
CLASS
  1
VISUALSTYLE
  2
AcDbVisualStyle
  3
ObjectDBX Classes
 90
     4095
280
     0
281
     0
  0
CLASS
  1
TABLESTYLE
  2
AcDbTableStyle
  3
ObjectDBX Classes
 90
     4095
280
     0
281
     0
  0
CLASS
  1
SCALE
  2
AcDbScale
  3
ObjectDBX Classes
 90
     1153
280
     0
281
     0
  0
CLASS
  1
MLEADERSTYLE
  2
AcDbMLeaderStyle
  3
ACDB_MLEADERSTYLE_CLASS
 90
     4095
280
     0
281
     0
  0
CLASS
  1
CELLSTYLEMAP
  2
AcDbCellStyleMap
  3
ObjectDBX Classes
 90
     1152
280
     0
281
     0
  0
ENDSEC
  0
SECTION
  2
TABLES
  0
TABLE
  2
VPORT
  5
6
330
0
100
AcDbSymbolTable
 70
     1
  0
VPORT
  5
1B
330
6
100
AcDbSymbolTableRecord
100
AcDbViewportTableRecord
  2
*ACTIVE
 70
     0
 10
0.0
 20
0.0
 11
1.0
 21
1.0
 12
586.435352602559
 22
-86.41457367924227
 13
0.0
 23
0.0
 14
1.0
 24
1.0
 15
0.0
 25
0.0
 16
0.0
 26
0.0
 36
1.0
 17
0.0
 27
0.0
 37
0.0
 40
1338.374942350506
 41
2.258426966292134
 42
50.0
 43
0.0
 44
0.0
 50
0.0
 51
0.0
 71
     0
 72
   500
 73
     1
 74
     1
 75
     0
 76
     0
 77
     0
 78
     0
281
     0
 65
     1
110
0.0
120
0.0
130
0.0
111
1.0
121
0.0
131
0.0
112
0.0
122
1.0
132
0.0
 79
     0
146
0.0
  0
ENDTAB
  0
TABLE
  2
LTYPE
  5
3
330
0
100
AcDbSymbolTable
 70
     7
  0
LTYPE
  5
C
330
3
100
AcDbSymbolTableRecord
100
AcDbLinetypeTableRecord
  2
BYBLOCK
 70
     0
  3

 72
    65
 73
     0
 40
0.0
  0
LTYPE
  5
D
330
3
100
AcDbSymbolTableRecord
100
AcDbLinetypeTableRecord
  2
BYLAYER
 70
     0
  3

 72
    65
 73
     0
 40
0.0
  0
LTYPE
  5
E
330
3
100
AcDbSymbolTableRecord
100
AcDbLinetypeTableRecord
  2
CONTINUOUS
 70
     0
  3
Solid line
 72
    65
 73
     0
 40
0.0
  0
LTYPE
  5
F
330
3
100
AcDbSymbolTableRecord
100
AcDbLinetypeTableRecord
  2
DASHED
 70
     0
  3
__ __ __ __ __ __ __ __ __ __ __ __ __ __ __
 72
    65
 73
     2
 40
2.0
 49
1.199999999999999
 74
     0
 49
-0.8
 74
     0
  0
LTYPE
  5
10
330
3
100
AcDbSymbolTableRecord
100
AcDbLinetypeTableRecord
  2
CENTER
 70
     0
  3
____ _ ____ _ ____ _ ____ _ ____ _ ____ _ ____
 72
    65
 73
     4
 40
12.0
 49
9.0
 74
     0
 49
-1.0
 74
     0
 49
1.0
 74
     0
 49
-1.0
 74
     0
  0
LTYPE
  5
11
330
3
100
AcDbSymbolTableRecord
100
AcDbLinetypeTableRecord
  2
HIDDEN
 70
     0
  3
_ _ _ _ _ _ _ _ _ _ _ _ _ _ _ _ _ _ _ _ _ _ _
 72
    65
 73
     2
 40
3.2
 49
2.399999999999999
 74
     0
 49
-0.8
 74
     0
  0
LTYPE
  5
12
330
3
100
AcDbSymbolTableRecord
100
AcDbLinetypeTableRecord
  2
PHANTOM
 70
     0
  3
_____ _ _ _____ _ _ _____ _ _ _____ _ _ _____
 72
    65
 73
     6
 40
13.5
 49
9.0
 74
     0
 49
-1.0
 74
     0
 49
1.0
 74
     0
 49
-0.5
 74
     0
 49
1.0
 74
     0
 49
-1.0
 74
     0
  0
LTYPE
  5
13
330
3
100
AcDbSymbolTableRecord
100
AcDbLinetypeTableRecord
  2
DOT
 70
     0
  3
...............................................
 72
    65
 73
     2
 40
1.0
 49
0.5
 74
     0
 49
-0.5
 74
     0
  0
LTYPE
  5
14
330
3
100
AcDbSymbolTableRecord
100
AcDbLinetypeTableRecord
  2
DASHDOT
 70
     0
  3
__ . __ . __ . __ . __ . __ . __ . __ . __ . __
 72
    65
 73
     4
 40
8.0
 49
5.0
 74
     0
 49
-1.0
 74
     0
 49
1.0
 74
     0
 49
-1.0
 74
     0
  0
ENDTAB
  0
TABLE
  2
LAYER
  5
1
102
{ACAD_XDICTIONARY
360
837
102
}
330
0
100
AcDbSymbolTable
 70
     7
  0
LAYER
  5
15
102
{ACAD_XDICTIONARY
360
83C
102
}
330
1
100
AcDbSymbolTableRecord
100
AcDbLayerTableRecord
  2
0
 70
     0
 62
     7
  6
CONTINUOUS
370
    -3
390
7DD
  0
LAYER
  5
16
102
{ACAD_XDICTIONARY
360
83E
102
}
330
1
100
AcDbSymbolTableRecord
100
AcDbLayerTableRecord
  2
1
 70
     0
 62
     7
  6
CONTINUOUS
370
    -3
390
7DD
  0
LAYER
  5
17
102
{ACAD_XDICTIONARY
360
840
102
}
330
1
100
AcDbSymbolTableRecord
100
AcDbLayerTableRecord
  2
2
 70
     0
 62
     7
  6
CONTINUOUS
370
    -3
390
7DD
  0
LAYER
  5
18
102
{ACAD_XDICTIONARY
360
842
102
}
330
1
100
AcDbSymbolTableRecord
100
AcDbLayerTableRecord
  2
5
 70
     0
 62
     7
  6
CONTINUOUS
370
    -3
390
7DD
  0
LAYER
  5
19
102
{ACAD_XDICTIONARY
360
844
102
}
330
1
100
AcDbSymbolTableRecord
100
AcDbLayerTableRecord
  2
18
 70
     0
 62
     7
  6
CONTINUOUS
370
    -3
390
7DD
  0
LAYER
  5
1A
102
{ACAD_XDICTIONARY
360
846
102
}
330
1
100
AcDbSymbolTableRecord
100
AcDbLayerTableRecord
  2
20
 70
     0
 62
     7
  6
CONTINUOUS
370
    -3
390
7DD
  0
LAYER
  5
835
102
{ACAD_XDICTIONARY
360
848
102
}
330
1
100
AcDbSymbolTableRecord
100
AcDbLayerTableRecord
  2
DEF
 70
     1
 62
     7
  6
CONTINUOUS
370
    -3
390
7DD
1001
AcAecLayerStandard
1000

1000

  0
ENDTAB
  0
TABLE
  2
STYLE
  5
2
330
0
100
AcDbSymbolTable
 70
     2
  0
STYLE
  5
1D
330
2
100
AcDbSymbolTableRecord
100
AcDbTextStyleTableRecord
  2
STANDARD
 70
     0
 40
0.0
 41
1.0
 50
0.0
 71
     0
 42
1.0
  3
txt
  4
BIGFONT
  0
ENDTAB
  0
TABLE
  2
VIEW
  5
4
330
0
100
AcDbSymbolTable
 70
     0
  0
ENDTAB
  0
TABLE
  2
UCS
  5
5
330
0
100
AcDbSymbolTable
 70
     0
  0
ENDTAB
  0
TABLE
  2
APPID
  5
7
330
0
100
AcDbSymbolTable
 70
     4
  0
APPID
  5
1C
330
7
100
AcDbSymbolTableRecord
100
AcDbRegAppTableRecord
  2
ACAD
 70
     0
  0
APPID
  5
82F
330
7
100
AcDbSymbolTableRecord
100
AcDbRegAppTableRecord
  2
ACAD_MLEADERVER
 70
     0
  0
APPID
  5
836
330
7
100
AcDbSymbolTableRecord
100
AcDbRegAppTableRecord
  2
AcAecLayerStandard
 70
     0
  0
APPID
  5
84A
330
7
100
AcDbSymbolTableRecord
100
AcDbRegAppTableRecord
  2
ACAD_PSEXT
 70
     0
  0
ENDTAB
  0
TABLE
  2
DIMSTYLE
  5
8
330
0
100
AcDbSymbolTable
 70
     2
100
AcDbDimStyleTable
 71
     1
340
2E
  0
DIMSTYLE
105
2E
330
8
100
AcDbSymbolTableRecord
100
AcDbDimStyleTableRecord
  2
STANDARD
 70
     0
 40
4.0
 77
     1
340
1D
  0
ENDTAB
  0
TABLE
  2
BLOCK_RECORD
  5
29
330
0
100
AcDbSymbolTable
 70
    10
  0
BLOCK_RECORD
  5
27
330
29
100
AcDbSymbolTableRecord
100
AcDbBlockTableRecord
  2
*MODEL_SPACE
340
832
  0
BLOCK_RECORD
  5
28
330
29
100
AcDbSymbolTableRecord
100
AcDbBlockTableRecord
  2
*PAPER_SPACE
340
833
  0
BLOCK_RECORD
  5
1E
330
29
100
AcDbSymbolTableRecord
100
AcDbBlockTableRecord
  2
*D0
340
0
  0
BLOCK_RECORD
  5
1F
330
29
100
AcDbSymbolTableRecord
100
AcDbBlockTableRecord
  2
*D1
340
0
  0
BLOCK_RECORD
  5
20
330
29
100
AcDbSymbolTableRecord
100
AcDbBlockTableRecord
  2
*D2
340
0
  0
BLOCK_RECORD
  5
21
330
29
100
AcDbSymbolTableRecord
100
AcDbBlockTableRecord
  2
*D3
340
0
  0
BLOCK_RECORD
  5
22
330
29
100
AcDbSymbolTableRecord
100
AcDbBlockTableRecord
  2
*D4
340
0
  0
BLOCK_RECORD
  5
23
330
29
100
AcDbSymbolTableRecord
100
AcDbBlockTableRecord
  2
*D5
340
0
  0
BLOCK_RECORD
  5
24
330
29
100
AcDbSymbolTableRecord
100
AcDbBlockTableRecord
  2
*D6
340
0
  0
BLOCK_RECORD
  5
25
330
29
100
AcDbSymbolTableRecord
100
AcDbBlockTableRecord
  2
*D7
340
0
  0
BLOCK_RECORD
  5
26
330
29
100
AcDbSymbolTableRecord
100
AcDbBlockTableRecord
  2
*D8
340
0
  0
ENDTAB
  0
ENDSEC
  0
SECTION
  2
BLOCKS
  0
BLOCK
  5
2A
330
27
100
AcDbEntity
  8
0
100
AcDbBlockBegin
  2
*MODEL_SPACE
 70
     0
 10
0.0
 20
0.0
 30
0.0
  3
*MODEL_SPACE
  1

  0
ENDBLK
  5
2B
330
27
100
AcDbEntity
  8
0
100
AcDbBlockEnd
  0
BLOCK
  5
2C
330
28
100
AcDbEntity
 67
     1
  8
0
100
AcDbBlockBegin
  2
*PAPER_SPACE
 70
     0
 10
0.0
 20
0.0
 30
0.0
  3
*PAPER_SPACE
  1

  0
ENDBLK
  5
2D
330
28
100
AcDbEntity
 67
     1
  8
0
100
AcDbBlockEnd
  0
BLOCK
  5
765
330
1E
100
AcDbEntity
  8
5
100
AcDbBlockBegin
  2
*D0
 70
     1
 10
0.0
 20
0.0
 30
0.0
  3
*D0
  1

  0
TEXT
  5
766
330
1E
100
AcDbEntity
  8
5
 62
     2
100
AcDbText
 10
-302.069994
 20
479.957703
 30
0.0
 40
13.2
  1
143
 41
0.7800000000000002
 72
     5
 11
-278.045994
 21
479.957703
 31
0.0
100
AcDbText
  0
LINE
  5
767
330
1E
100
AcDbEntity
  8
5
 62
     2
100
AcDbLine
 10
-359.709994
 20
443.8056959999999
 30
0.0
 11
-359.709994
 21
481.957703
 31
0.0
  0
LINE
  5
768
330
1E
100
AcDbEntity
  8
5
 62
     2
100
AcDbLine
 10
-359.709994
 20
477.957703
 30
0.0
 11
-351.9825879999999
 21
475.88715
 31
0.0
  0
LINE
  5
769
330
1E
100
AcDbEntity
  8
5
 62
     2
100
AcDbLine
 10
-359.709994
 20
477.957703
 30
0.0
 11
-351.9825879999999
 21
480.028255
 31
0.0
  0
LINE
  5
76A
330
1E
100
AcDbEntity
  8
5
 62
     2
100
AcDbLine
 10
-351.9825879999999
 20
475.88715
 30
0.0
 11
-351.9825879999999
 21
480.028255
 31
0.0
  0
LINE
  5
76B
330
1E
100
AcDbEntity
  8
5
 62
     2
100
AcDbLine
 10
-359.709994
 20
477.957703
 30
0.0
 11
-216.709994
 21
477.957703
 31
0.0
  0
LINE
  5
76C
330
1E
100
AcDbEntity
  8
5
 62
     2
100
AcDbLine
 10
-216.709994
 20
477.957703
 30
0.0
 11
-224.437401
 21
480.028255
 31
0.0
  0
LINE
  5
76D
330
1E
100
AcDbEntity
  8
5
 62
     2
100
AcDbLine
 10
-216.709994
 20
477.957703
 30
0.0
 11
-224.437401
 21
475.88715
 31
0.0
  0
LINE
  5
76E
330
1E
100
AcDbEntity
  8
5
 62
     2
100
AcDbLine
 10
-224.437401
 20
480.028255
 30
0.0
 11
-224.437401
 21
475.88715
 31
0.0
  0
LINE
  5
76F
330
1E
100
AcDbEntity
  8
5
 62
     2
100
AcDbLine
 10
-216.709994
 20
405.071191
 30
0.0
 11
-216.709994
 21
481.957703
 31
0.0
  0
ENDBLK
  5
770
330
1E
100
AcDbEntity
  8
5
100
AcDbBlockEnd
  0
BLOCK
  5
771
330
1F
100
AcDbEntity
  8
5
100
AcDbBlockBegin
  2
*D1
 70
     1
 10
0.0
 20
0.0
 30
0.0
  3
*D1
  1

  0
TEXT
  5
772
330
1F
100
AcDbEntity
  8
5
 62
     2
100
AcDbText
 10
-457.069994
 20
479.957703
 30
0.0
 40
13.2
  1
167
 41
0.7800000000000002
 72
     5
 11
-433.045994
 21
479.957703
 31
0.0
100
AcDbText
  0
LINE
  5
773
330
1F
100
AcDbEntity
  8
5
 62
     2
100
AcDbLine
 10
-526.709994
 20
273.143974
 30
0.0
 11
-526.709994
 21
481.957703
 31
0.0
  0
LINE
  5
774
330
1F
100
AcDbEntity
  8
5
 62
     2
100
AcDbLine
 10
-526.709994
 20
477.957703
 30
0.0
 11
-518.9825879999999
 21
475.88715
 31
0.0
  0
LINE
  5
775
330
1F
100
AcDbEntity
  8
5
 62
     2
100
AcDbLine
 10
-526.709994
 20
477.957703
 30
0.0
 11
-518.9825879999999
 21
480.028255
 31
0.0
  0
LINE
  5
776
330
1F
100
AcDbEntity
  8
5
 62
     2
100
AcDbLine
 10
-518.9825879999999
 20
475.88715
 30
0.0
 11
-518.9825879999999
 21
480.028255
 31
0.0
  0
LINE
  5
777
330
1F
100
AcDbEntity
  8
5
 62
     2
100
AcDbLine
 10
-526.709994
 20
477.957703
 30
0.0
 11
-359.709994
 21
477.957703
 31
0.0
  0
LINE
  5
778
330
1F
100
AcDbEntity
  8
5
 62
     2
100
AcDbLine
 10
-359.709994
 20
477.957703
 30
0.0
 11
-367.437401
 21
480.028255
 31
0.0
  0
LINE
  5
779
330
1F
100
AcDbEntity
  8
5
 62
     2
100
AcDbLine
 10
-359.709994
 20
477.957703
 30
0.0
 11
-367.437401
 21
475.88715
 31
0.0
  0
LINE
  5
77A
330
1F
100
AcDbEntity
  8
5
 62
     2
100
AcDbLine
 10
-367.437401
 20
480.028255
 30
0.0
 11
-367.437401
 21
475.88715
 31
0.0
  0
LINE
  5
77B
330
1F
100
AcDbEntity
  8
5
 62
     2
100
AcDbLine
 10
-359.709994
 20
443.8056959999999
 30
0.0
 11
-359.709994
 21
481.957703
 31
0.0
  0
ENDBLK
  5
77C
330
1F
100
AcDbEntity
  8
5
100
AcDbBlockEnd
  0
BLOCK
  5
77D
330
20
100
AcDbEntity
  8
5
100
AcDbBlockBegin
  2
*D2
 70
     1
 10
0.0
 20
0.0
 30
0.0
  3
*D2
  1

  0
TEXT
  5
77E
330
20
100
AcDbEntity
  8
5
 62
     2
100
AcDbText
 10
-316.189994
 20
144.155548
 30
0.0
 40
13.2
  1
%%c100
 41
0.8400000000000003
 72
     5
 11
-282.925994
 21
144.155548
 31
0.0
100
AcDbText
  0
LINE
  5
77F
330
20
100
AcDbEntity
  8
5
 62
     2
100
AcDbLine
 10
-247.709994
 20
196.193974
 30
0.0
 11
-247.709994
 21
138.155548
 31
0.0
  0
LINE
  5
780
330
20
100
AcDbEntity
  8
5
 62
     2
100
AcDbLine
 10
-247.709994
 20
142.155548
 30
0.0
 11
-255.437401
 21
144.2261
 31
0.0
  0
LINE
  5
781
330
20
100
AcDbEntity
  8
5
 62
     2
100
AcDbLine
 10
-247.709994
 20
142.155548
 30
0.0
 11
-255.437401
 21
140.084996
 31
0.0
  0
LINE
  5
782
330
20
100
AcDbEntity
  8
5
 62
     2
100
AcDbLine
 10
-255.437401
 20
144.2261
 30
0.0
 11
-255.437401
 21
140.084996
 31
0.0
  0
LINE
  5
783
330
20
100
AcDbEntity
  8
5
 62
     2
100
AcDbLine
 10
-247.709994
 20
142.155548
 30
0.0
 11
-347.709994
 21
142.155548
 31
0.0
  0
LINE
  5
784
330
20
100
AcDbEntity
  8
5
 62
     2
100
AcDbLine
 10
-347.709994
 20
142.155548
 30
0.0
 11
-339.982588
 21
140.084996
 31
0.0
  0
LINE
  5
785
330
20
100
AcDbEntity
  8
5
 62
     2
100
AcDbLine
 10
-347.709994
 20
142.155548
 30
0.0
 11
-339.982588
 21
144.2261
 31
0.0
  0
LINE
  5
786
330
20
100
AcDbEntity
  8
5
 62
     2
100
AcDbLine
 10
-339.982588
 20
140.084996
 30
0.0
 11
-339.982588
 21
144.2261
 31
0.0
  0
LINE
  5
787
330
20
100
AcDbEntity
  8
5
 62
     2
100
AcDbLine
 10
-347.709994
 20
196.193974
 30
0.0
 11
-347.709994
 21
138.155548
 31
0.0
  0
ENDBLK
  5
788
330
20
100
AcDbEntity
  8
5
100
AcDbBlockEnd
  0
BLOCK
  5
789
330
21
100
AcDbEntity
  8
5
100
AcDbBlockBegin
  2
*D3
 70
     1
 10
0.0
 20
0.0
 30
0.0
  3
*D3
  1

  0
TEXT
  5
78A
330
21
100
AcDbEntity
  8
5
 62
     2
100
AcDbText
 10
-154.970993
 20
255.283974
 30
0.0
 40
13.2
  1
154
 50
90.0
 41
0.7799999999999993
 72
     5
 11
-154.970993
 21
279.307974
 31
0.0
100
AcDbText
  0
LINE
  5
78B
330
21
100
AcDbEntity
  8
5
 62
     2
100
AcDbLine
 10
-261.427427
 20
192.143974
 30
0.0
 11
-148.970993
 21
192.143974
 31
0.0
  0
LINE
  5
78C
330
21
100
AcDbEntity
  8
5
 62
     2
100
AcDbLine
 10
-152.970993
 20
192.143974
 30
0.0
 11
-150.900441
 21
199.871381
 31
0.0
  0
LINE
  5
78D
330
21
100
AcDbEntity
  8
5
 62
     2
100
AcDbLine
 10
-152.970993
 20
192.143974
 30
0.0
 11
-155.041545
 21
199.871381
 31
0.0
  0
LINE
  5
78E
330
21
100
AcDbEntity
  8
5
 62
     2
100
AcDbLine
 10
-150.900441
 20
199.871381
 30
0.0
 11
-155.041545
 21
199.871381
 31
0.0
  0
LINE
  5
78F
330
21
100
AcDbEntity
  8
5
 62
     2
100
AcDbLine
 10
-152.970993
 20
192.143974
 30
0.0
 11
-152.970993
 21
346.143974
 31
0.0
  0
LINE
  5
790
330
21
100
AcDbEntity
  8
5
 62
     2
100
AcDbLine
 10
-152.970993
 20
346.143974
 30
0.0
 11
-155.041545
 21
338.416567
 31
0.0
  0
LINE
  5
791
330
21
100
AcDbEntity
  8
5
 62
     2
100
AcDbLine
 10
-152.970993
 20
346.143974
 30
0.0
 11
-150.900441
 21
338.416567
 31
0.0
  0
LINE
  5
792
330
21
100
AcDbEntity
  8
5
 62
     2
100
AcDbLine
 10
-155.041545
 20
338.416567
 30
0.0
 11
-150.900441
 21
338.416567
 31
0.0
  0
LINE
  5
793
330
21
100
AcDbEntity
  8
5
 62
     2
100
AcDbLine
 10
-200.023377
 20
346.143974
 30
0.0
 11
-148.970993
 21
346.143974
 31
0.0
  0
ENDBLK
  5
794
330
21
100
AcDbEntity
  8
5
100
AcDbBlockEnd
  0
BLOCK
  5
795
330
22
100
AcDbEntity
  8
5
100
AcDbBlockBegin
  2
*D4
 70
     1
 10
0.0
 20
0.0
 30
0.0
  3
*D4
  1

  0
TEXT
  5
796
330
22
100
AcDbEntity
  8
5
 62
     2
100
AcDbText
 10
-154.970993
 20
379.403974
 30
0.0
 40
13.2
  1
85
 50
90.0
 41
0.6719999999999998
 72
     5
 11
-154.970993
 21
394.187974
 31
0.0
100
AcDbText
  0
LINE
  5
797
330
22
100
AcDbEntity
  8
5
 62
     2
100
AcDbLine
 10
-200.023377
 20
346.143974
 30
0.0
 11
-148.970993
 21
346.143974
 31
0.0
  0
LINE
  5
798
330
22
100
AcDbEntity
  8
5
 62
     2
100
AcDbLine
 10
-152.970993
 20
346.143974
 30
0.0
 11
-150.900441
 21
353.871381
 31
0.0
  0
LINE
  5
799
330
22
100
AcDbEntity
  8
5
 62
     2
100
AcDbLine
 10
-152.970993
 20
346.143974
 30
0.0
 11
-155.041545
 21
353.871381
 31
0.0
  0
LINE
  5
79A
330
22
100
AcDbEntity
  8
5
 62
     2
100
AcDbLine
 10
-150.900441
 20
353.871381
 30
0.0
 11
-155.041545
 21
353.871381
 31
0.0
  0
LINE
  5
79B
330
22
100
AcDbEntity
  8
5
 62
     2
100
AcDbLine
 10
-152.970993
 20
346.143974
 30
0.0
 11
-152.970993
 21
431.1439739999999
 31
0.0
  0
LINE
  5
79C
330
22
100
AcDbEntity
  8
5
 62
     2
100
AcDbLine
 10
-152.970993
 20
431.1439739999999
 30
0.0
 11
-155.041545
 21
423.416567
 31
0.0
  0
LINE
  5
79D
330
22
100
AcDbEntity
  8
5
 62
     2
100
AcDbLine
 10
-152.970993
 20
431.1439739999999
 30
0.0
 11
-150.900441
 21
423.416567
 31
0.0
  0
LINE
  5
79E
330
22
100
AcDbEntity
  8
5
 62
     2
100
AcDbLine
 10
-155.041545
 20
423.416567
 30
0.0
 11
-150.900441
 21
423.416567
 31
0.0
  0
LINE
  5
79F
330
22
100
AcDbEntity
  8
5
 62
     2
100
AcDbLine
 10
-327.386494
 20
431.1439739999999
 30
0.0
 11
-148.970993
 21
431.1439739999999
 31
0.0
  0
ENDBLK
  5
7A0
330
22
100
AcDbEntity
  8
5
100
AcDbBlockEnd
  0
BLOCK
  5
7A1
330
23
100
AcDbEntity
  8
5
100
AcDbBlockBegin
  2
*D5
 70
     1
 10
0.0
 20
0.0
 30
0.0
  3
*D5
  1

  0
TEXT
  5
7A2
330
23
100
AcDbEntity
  8
5
 62
     2
100
AcDbText
 10
-77.506592
 20
-262.816026
 30
0.0
 40
13.2
  1
202
 50
90.0
 41
0.7280000000000002
 72
     5
 11
-77.506592
 21
-238.792026
 31
0.0
100
AcDbText
  0
LINE
  5
7A3
330
23
100
AcDbEntity
  8
5
 62
     2
100
AcDbLine
 10
69.731898
 20
-349.9560259999999
 30
0.0
 11
-79.506592
 21
-349.9560259999999
 31
0.0
  0
LINE
  5
7A4
330
23
100
AcDbEntity
  8
5
 62
     2
100
AcDbLine
 10
-75.506592
 20
-349.9560259999999
 30
0.0
 11
-73.43603900000001
 21
-342.228619
 31
0.0
  0
LINE
  5
7A5
330
23
100
AcDbEntity
  8
5
 62
     2
100
AcDbLine
 10
-75.506592
 20
-349.9560259999999
 30
0.0
 11
-77.57714399999999
 21
-342.228619
 31
0.0
  0
LINE
  5
7A6
330
23
100
AcDbEntity
  8
5
 62
     2
100
AcDbLine
 10
-73.43603900000001
 20
-342.228619
 30
0.0
 11
-77.57714399999999
 21
-342.228619
 31
0.0
  0
LINE
  5
7A7
330
23
100
AcDbEntity
  8
5
 62
     2
100
AcDbLine
 10
-75.506592
 20
-349.9560259999999
 30
0.0
 11
-75.506592
 21
-147.956026
 31
0.0
  0
LINE
  5
7A8
330
23
100
AcDbEntity
  8
5
 62
     2
100
AcDbLine
 10
-75.506592
 20
-147.956026
 30
0.0
 11
-77.57714399999999
 21
-155.683433
 31
0.0
  0
LINE
  5
7A9
330
23
100
AcDbEntity
  8
5
 62
     2
100
AcDbLine
 10
-75.506592
 20
-147.956026
 30
0.0
 11
-73.43603900000001
 21
-155.683433
 31
0.0
  0
LINE
  5
7AA
330
23
100
AcDbEntity
  8
5
 62
     2
100
AcDbLine
 10
-77.57714399999999
 20
-155.683433
 30
0.0
 11
-73.43603900000001
 21
-155.683433
 31
0.0
  0
LINE
  5
7AB
330
23
100
AcDbEntity
  8
5
 62
     2
100
AcDbLine
 10
74.94544799999999
 20
-147.956026
 30
0.0
 11
-79.506592
 21
-147.956026
 31
0.0
  0
ENDBLK
  5
7AC
330
23
100
AcDbEntity
  8
5
100
AcDbBlockEnd
  0
BLOCK
  5
7AD
330
24
100
AcDbEntity
  8
5
100
AcDbBlockBegin
  2
*D6
 70
     1
 10
0.0
 20
0.0
 30
0.0
  3
*D6
  1

  0
TEXT
  5
7AE
330
24
100
AcDbEntity
  8
5
 62
     2
100
AcDbText
 10
-77.506592
 20
-430.666026
 30
0.0
 40
13.2
  1
134
 50
90.0
 41
0.7800000000000002
 72
     5
 11
-77.506592
 21
-406.642026
 31
0.0
100
AcDbText
  0
LINE
  5
7AF
330
24
100
AcDbEntity
  8
5
 62
     2
100
AcDbLine
 10
120.945448
 20
-483.6560259999999
 30
0.0
 11
-79.506592
 21
-483.6560259999999
 31
0.0
  0
LINE
  5
7B0
330
24
100
AcDbEntity
  8
5
 62
     2
100
AcDbLine
 10
-75.506592
 20
-483.6560259999999
 30
0.0
 11
-73.43603900000001
 21
-475.928619
 31
0.0
  0
LINE
  5
7B1
330
24
100
AcDbEntity
  8
5
 62
     2
100
AcDbLine
 10
-75.506592
 20
-483.6560259999999
 30
0.0
 11
-77.57714399999999
 21
-475.928619
 31
0.0
  0
LINE
  5
7B2
330
24
100
AcDbEntity
  8
5
 62
     2
100
AcDbLine
 10
-73.43603900000001
 20
-475.928619
 30
0.0
 11
-77.57714399999999
 21
-475.928619
 31
0.0
  0
LINE
  5
7B3
330
24
100
AcDbEntity
  8
5
 62
     2
100
AcDbLine
 10
-75.506592
 20
-483.6560259999999
 30
0.0
 11
-75.506592
 21
-349.9560259999999
 31
0.0
  0
LINE
  5
7B4
330
24
100
AcDbEntity
  8
5
 62
     2
100
AcDbLine
 10
-75.506592
 20
-349.9560259999999
 30
0.0
 11
-77.57714399999999
 21
-357.683433
 31
0.0
  0
LINE
  5
7B5
330
24
100
AcDbEntity
  8
5
 62
     2
100
AcDbLine
 10
-75.506592
 20
-349.9560259999999
 30
0.0
 11
-73.43603900000001
 21
-357.683433
 31
0.0
  0
LINE
  5
7B6
330
24
100
AcDbEntity
  8
5
 62
     2
100
AcDbLine
 10
-77.57714399999999
 20
-357.683433
 30
0.0
 11
-73.43603900000001
 21
-357.683433
 31
0.0
  0
LINE
  5
7B7
330
24
100
AcDbEntity
  8
5
 62
     2
100
AcDbLine
 10
69.731898
 20
-349.9560259999999
 30
0.0
 11
-79.506592
 21
-349.9560259999999
 31
0.0
  0
ENDBLK
  5
7B8
330
24
100
AcDbEntity
  8
5
100
AcDbBlockEnd
  0
BLOCK
  5
7B9
330
25
100
AcDbEntity
  8
5
100
AcDbBlockBegin
  2
*D7
 70
     1
 10
0.0
 20
0.0
 30
0.0
  3
*D7
  1

  0
TEXT
  5
7BA
330
25
100
AcDbEntity
  8
5
 62
     2
100
AcDbText
 10
120.705448
 20
-524.8621829999999
 30
0.0
 40
13.2
  1
56
 41
0.6720000000000005
 72
     5
 11
135.489448
 21
-524.8621829999999
 31
0.0
100
AcDbText
  0
LINE
  5
7BB
330
25
100
AcDbEntity
  8
5
 62
     2
100
AcDbLine
 10
101.945448
 20
-458.4560259999999
 30
0.0
 11
101.945448
 21
-530.8621829999999
 31
0.0
  0
LINE
  5
7BC
330
25
100
AcDbEntity
  8
5
 62
     2
100
AcDbLine
 10
101.945448
 20
-526.8621829999999
 30
0.0
 11
109.672855
 21
-528.9327349999999
 31
0.0
  0
LINE
  5
7BD
330
25
100
AcDbEntity
  8
5
 62
     2
100
AcDbLine
 10
101.945448
 20
-526.8621829999999
 30
0.0
 11
109.672855
 21
-524.7916299999999
 31
0.0
  0
LINE
  5
7BE
330
25
100
AcDbEntity
  8
5
 62
     2
100
AcDbLine
 10
109.672855
 20
-528.9327349999999
 30
0.0
 11
109.672855
 21
-524.7916299999999
 31
0.0
  0
LINE
  5
7BF
330
25
100
AcDbEntity
  8
5
 62
     2
100
AcDbLine
 10
101.945448
 20
-526.8621829999999
 30
0.0
 11
157.945448
 21
-526.8621829999999
 31
0.0
  0
LINE
  5
7C0
330
25
100
AcDbEntity
  8
5
 62
     2
100
AcDbLine
 10
157.945448
 20
-526.8621829999999
 30
0.0
 11
150.218042
 21
-524.7916299999999
 31
0.0
  0
LINE
  5
7C1
330
25
100
AcDbEntity
  8
5
 62
     2
100
AcDbLine
 10
157.945448
 20
-526.8621829999999
 30
0.0
 11
150.218042
 21
-528.9327349999999
 31
0.0
  0
LINE
  5
7C2
330
25
100
AcDbEntity
  8
5
 62
     2
100
AcDbLine
 10
150.218042
 20
-524.7916299999999
 30
0.0
 11
150.218042
 21
-528.9327349999999
 31
0.0
  0
LINE
  5
7C3
330
25
100
AcDbEntity
  8
5
 62
     2
100
AcDbLine
 10
157.945448
 20
-458.4560259999999
 30
0.0
 11
157.945448
 21
-530.8621829999999
 31
0.0
  0
ENDBLK
  5
7C4
330
25
100
AcDbEntity
  8
5
100
AcDbBlockEnd
  0
BLOCK
  5
7C5
330
26
100
AcDbEntity
  8
5
100
AcDbBlockBegin
  2
*D8
 70
     1
 10
0.0
 20
0.0
 30
0.0
  3
*D8
  1

  0
TEXT
  5
7C6
330
26
100
AcDbEntity
  8
5
 62
     2
100
AcDbText
 10
-77.506592
 20
-49.816026
 30
0.0
 40
13.2
  1
224
 50
90.0
 41
0.6825000000000002
 72
     5
 11
-77.506592
 21
-25.792026
 31
0.0
100
AcDbText
  0
LINE
  5
7C7
330
26
100
AcDbEntity
  8
5
 62
     2
100
AcDbLine
 10
74.94544799999999
 20
-147.956026
 30
0.0
 11
-79.506592
 21
-147.956026
 31
0.0
  0
LINE
  5
7C8
330
26
100
AcDbEntity
  8
5
 62
     2
100
AcDbLine
 10
-75.506592
 20
-147.956026
 30
0.0
 11
-73.43603900000001
 21
-140.228619
 31
0.0
  0
LINE
  5
7C9
330
26
100
AcDbEntity
  8
5
 62
     2
100
AcDbLine
 10
-75.506592
 20
-147.956026
 30
0.0
 11
-77.57714399999999
 21
-140.228619
 31
0.0
  0
LINE
  5
7CA
330
26
100
AcDbEntity
  8
5
 62
     2
100
AcDbLine
 10
-73.43603900000001
 20
-140.228619
 30
0.0
 11
-77.57714399999999
 21
-140.228619
 31
0.0
  0
LINE
  5
7CB
330
26
100
AcDbEntity
  8
5
 62
     2
100
AcDbLine
 10
-75.506592
 20
-147.956026
 30
0.0
 11
-75.506592
 21
76.043974
 31
0.0
  0
LINE
  5
7CC
330
26
100
AcDbEntity
  8
5
 62
     2
100
AcDbLine
 10
-75.506592
 20
76.043974
 30
0.0
 11
-77.57714399999999
 21
68.316567
 31
0.0
  0
LINE
  5
7CD
330
26
100
AcDbEntity
  8
5
 62
     2
100
AcDbLine
 10
-75.506592
 20
76.043974
 30
0.0
 11
-73.43603900000001
 21
68.316567
 31
0.0
  0
LINE
  5
7CE
330
26
100
AcDbEntity
  8
5
 62
     2
100
AcDbLine
 10
-77.57714399999999
 20
68.316567
 30
0.0
 11
-73.43603900000001
 21
68.316567
 31
0.0
  0
LINE
  5
7CF
330
26
100
AcDbEntity
  8
5
 62
     2
100
AcDbLine
 10
125.945448
 20
76.043974
 30
0.0
 11
-79.506592
 21
76.043974
 31
0.0
  0
ENDBLK
  5
7D0
330
26
100
AcDbEntity
  8
5
100
AcDbBlockEnd
  0
ENDSEC
  0
SECTION
  2
ENTITIES
  0
LINE
  5
2F
330
27
100
AcDbEntity
  8
1
  6
CENTER
 62
     2
100
AcDbLine
 10
-480.9424739999999
 20
-349.9560259999999
 30
0.0
 11
-232.043328
 21
-349.9560259999999
 31
0.0
  0
LINE
  5
30
330
27
100
AcDbEntity
  8
1
  6
CENTER
 62
     2
100
AcDbLine
 10
73.731898
 20
-349.9560259999999
 30
0.0
 11
187.457423
 21
-349.9560259999999
 31
0.0
  0
LINE
  5
31
330
27
100
AcDbEntity
  8
1
100
AcDbLine
 10
-406.709994
 20
-161.956026
 30
0.0
 11
-312.709994
 21
-161.956026
 31
0.0
  0
LINE
  5
32
330
27
100
AcDbEntity
  8
1
100
AcDbLine
 10
-410.709994
 20
-147.956026
 30
0.0
 11
-410.709994
 21
-157.956026
 31
0.0
  0
LINE
  5
33
330
27
100
AcDbEntity
  8
1
100
AcDbLine
 10
-308.709994
 20
-147.956026
 30
0.0
 11
-308.709994
 21
-157.956026
 31
0.0
  0
LINE
  5
34
330
27
100
AcDbEntity
  8
1
100
AcDbLine
 10
-378.709994
 20
-169.956026
 30
0.0
 11
-378.709994
 21
-238.155981
 31
0.0
  0
LINE
  5
35
330
27
100
AcDbEntity
  8
1
100
AcDbLine
 10
-340.709994
 20
-169.956026
 30
0.0
 11
-340.709994
 21
-238.155981
 31
0.0
  0
LINE
  5
36
330
27
100
AcDbEntity
  8
1
  6
CENTER
 62
     2
100
AcDbLine
 10
-395.709994
 20
-136.401794
 30
0.0
 11
-395.709994
 21
-174.36864
 31
0.0
  0
LINE
  5
37
330
27
100
AcDbEntity
  8
1
  6
CENTER
 62
     2
100
AcDbLine
 10
-323.709994
 20
-136.401794
 30
0.0
 11
-323.709994
 21
-174.36864
 31
0.0
  0
LINE
  5
38
330
27
100
AcDbEntity
  8
1
100
AcDbLine
 10
82.945448
 20
-161.956026
 30
0.0
 11
176.945448
 21
-161.956026
 31
0.0
  0
LINE
  5
39
330
27
100
AcDbEntity
  8
1
100
AcDbLine
 10
78.945448
 20
-147.956026
 30
0.0
 11
78.945448
 21
-157.956026
 31
0.0
  0
LINE
  5
3A
330
27
100
AcDbEntity
  8
1
100
AcDbLine
 10
180.945448
 20
-147.956026
 30
0.0
 11
180.945448
 21
-157.956026
 31
0.0
  0
LINE
  5
3B
330
27
100
AcDbEntity
  8
1
100
AcDbLine
 10
110.945448
 20
-169.956026
 30
0.0
 11
110.945448
 21
-242.835639
 31
0.0
  0
LINE
  5
3C
330
27
100
AcDbEntity
  8
1
100
AcDbLine
 10
148.945448
 20
-169.956026
 30
0.0
 11
148.945448
 21
-242.835639
 31
0.0
  0
LINE
  5
3D
330
27
100
AcDbEntity
  8
1
  6
CENTER
 62
     2
100
AcDbLine
 10
93.945448
 20
-136.401794
 30
0.0
 11
93.945448
 21
-174.36864
 31
0.0
  0
LINE
  5
3E
330
27
100
AcDbEntity
  8
1
  6
CENTER
 62
     2
100
AcDbLine
 10
165.945448
 20
-136.401794
 30
0.0
 11
165.945448
 21
-174.36864
 31
0.0
  0
LINE
  5
3F
330
27
100
AcDbEntity
  8
1
  6
DASHED
100
AcDbLine
 10
-387.209994
 20
397.143974
 30
0.0
 11
-332.209994
 21
397.143974
 31
0.0
  0
LINE
  5
40
330
27
100
AcDbEntity
  8
1
  6
DASHED
100
AcDbLine
 10
-387.209994
 20
295.143974
 30
0.0
 11
-332.209994
 21
295.143974
 31
0.0
  0
LINE
  5
41
330
27
100
AcDbEntity
  8
1
  6
DASHED
100
AcDbLine
 10
-410.709994
 20
318.643974
 30
0.0
 11
-410.709994
 21
373.643974
 31
0.0
  0
LINE
  5
42
330
27
100
AcDbEntity
  8
1
  6
DASHED
100
AcDbLine
 10
-308.709994
 20
318.643974
 30
0.0
 11
-308.709994
 21
373.643974
 31
0.0
  0
ARC
  5
43
330
27
100
AcDbEntity
  8
1
  6
DASHED
100
AcDbCircle
 10
-332.209994
 20
373.643974
 30
0.0
 40
23.5
100
AcDbArc
 50
0.0
 51
90.0
  0
ARC
  5
44
330
27
100
AcDbEntity
  8
1
  6
DASHED
100
AcDbCircle
 10
-387.209994
 20
373.643974
 30
0.0
 40
23.5
100
AcDbArc
 50
90.0
 51
180.0
  0
ARC
  5
45
330
27
100
AcDbEntity
  8
1
  6
DASHED
100
AcDbCircle
 10
-387.209994
 20
318.643974
 30
0.0
 40
23.5
100
AcDbArc
 50
180.0
 51
270.0
  0
ARC
  5
46
330
27
100
AcDbEntity
  8
1
  6
DASHED
100
AcDbCircle
 10
-332.209994
 20
318.643974
 30
0.0
 40
23.5
100
AcDbArc
 50
270.0
 51
360.0
  0
CIRCLE
  5
47
330
27
100
AcDbEntity
  8
1
  6
DASHED
100
AcDbCircle
 10
-323.709994
 20
382.143974
 30
0.0
 40
5.5
  0
CIRCLE
  5
48
330
27
100
AcDbEntity
  8
1
  6
DASHED
100
AcDbCircle
 10
-395.709994
 20
382.143974
 30
0.0
 40
5.5
  0
CIRCLE
  5
49
330
27
100
AcDbEntity
  8
1
  6
DASHED
100
AcDbCircle
 10
-395.709994
 20
310.143974
 30
0.0
 40
5.5
  0
CIRCLE
  5
4A
330
27
100
AcDbEntity
  8
1
  6
DASHED
100
AcDbCircle
 10
-323.709994
 20
310.143974
 30
0.0
 40
5.5
  0
LINE
  5
4B
330
27
100
AcDbEntity
  8
1
  6
CENTER
 62
     2
100
AcDbLine
 10
-323.709994
 20
298.447748
 30
0.0
 11
-323.709994
 21
324.203959
 31
0.0
  0
LINE
  5
4C
330
27
100
AcDbEntity
  8
1
  6
CENTER
 62
     2
100
AcDbLine
 10
-323.709994
 20
369.688288
 30
0.0
 11
-323.709994
 21
393.800409
 31
0.0
  0
LINE
  5
4D
330
27
100
AcDbEntity
  8
1
  6
CENTER
 62
     2
100
AcDbLine
 10
-395.709994
 20
298.447748
 30
0.0
 11
-395.709994
 21
324.203959
 31
0.0
  0
LINE
  5
4E
330
27
100
AcDbEntity
  8
1
  6
CENTER
 62
     2
100
AcDbLine
 10
-395.709994
 20
369.688288
 30
0.0
 11
-395.709994
 21
393.800409
 31
0.0
  0
LINE
  5
4F
330
27
100
AcDbEntity
  8
1
  6
CENTER
 62
     2
100
AcDbLine
 10
-407.346191
 20
382.143974
 30
0.0
 11
-382.156219
 21
382.143974
 31
0.0
  0
LINE
  5
50
330
27
100
AcDbEntity
  8
1
  6
CENTER
 62
     2
100
AcDbLine
 10
-336.15712
 20
382.143974
 30
0.0
 11
-311.879837
 21
382.143974
 31
0.0
  0
LINE
  5
51
330
27
100
AcDbEntity
  8
1
  6
CENTER
 62
     2
100
AcDbLine
 10
-407.346191
 20
310.143974
 30
0.0
 11
-382.156219
 21
310.143974
 31
0.0
  0
LINE
  5
52
330
27
100
AcDbEntity
  8
1
  6
CENTER
 62
     2
100
AcDbLine
 10
-336.15712
 20
310.143974
 30
0.0
 11
-311.879837
 21
310.143974
 31
0.0
  0
LINE
  5
53
330
27
100
AcDbEntity
  8
1
100
AcDbLine
 10
120.945448
 20
-320.54577
 30
0.0
 11
138.945448
 21
-320.54577
 31
0.0
  0
LINE
  5
54
330
27
100
AcDbEntity
  8
1
100
AcDbLine
 10
141.461948
 20
-376.849782
 30
0.0
 11
141.461948
 21
-323.06227
 31
0.0
  0
LINE
  5
55
330
27
100
AcDbEntity
  8
1
100
AcDbLine
 10
120.945448
 20
-379.366282
 30
0.0
 11
138.945448
 21
-379.366282
 31
0.0
  0
LINE
  5
56
330
27
100
AcDbEntity
  8
1
100
AcDbLine
 10
118.428948
 20
-376.849782
 30
0.0
 11
118.428948
 21
-323.06227
 31
0.0
  0
ARC
  5
57
330
27
100
AcDbEntity
  8
1
100
AcDbCircle
 10
120.945448
 20
-323.06227
 30
0.0
 40
2.5165
100
AcDbArc
 50
90.0
 51
180.0
  0
ARC
  5
58
330
27
100
AcDbEntity
  8
1
100
AcDbCircle
 10
138.945448
 20
-323.06227
 30
0.0
 40
2.5165
100
AcDbArc
 50
0.0
 51
90.0
  0
ARC
  5
59
330
27
100
AcDbEntity
  8
1
100
AcDbCircle
 10
138.945448
 20
-376.849782
 30
0.0
 40
2.5165
100
AcDbArc
 50
270.0
 51
360.0
  0
ARC
  5
5A
330
27
100
AcDbEntity
  8
1
100
AcDbCircle
 10
120.945448
 20
-376.849782
 30
0.0
 40
2.5165
100
AcDbArc
 50
180.0
 51
270.0
  0
LINE
  5
5B
330
27
100
AcDbEntity
  8
1
100
AcDbLine
 10
141.461948
 20
-320.54577
 30
0.0
 11
143.704959
 21
-316.302663
 31
0.0
  0
LINE
  5
5C
330
27
100
AcDbEntity
  8
1
100
AcDbLine
 10
116.185938
 20
-316.302663
 30
0.0
 11
118.428948
 21
-320.54577
 31
0.0
  0
LINE
  5
5D
330
27
100
AcDbEntity
  8
1
100
AcDbLine
 10
118.428948
 20
-379.366282
 30
0.0
 11
116.185938
 21
-383.609389
 31
0.0
  0
LINE
  5
5E
330
27
100
AcDbEntity
  8
1
100
AcDbLine
 10
143.704959
 20
-383.609389
 30
0.0
 11
141.461948
 21
-379.366282
 31
0.0
  0
LINE
  5
5F
330
27
100
AcDbEntity
  8
1
100
AcDbLine
 10
120.945448
 20
-269.207902
 30
0.0
 11
138.945448
 21
-269.207902
 31
0.0
  0
LINE
  5
60
330
27
100
AcDbEntity
  8
1
100
AcDbLine
 10
118.428948
 20
-302.317575
 30
0.0
 11
118.428948
 21
-271.724402
 31
0.0
  0
LINE
  5
61
330
27
100
AcDbEntity
  8
1
100
AcDbLine
 10
120.945448
 20
-304.834075
 30
0.0
 11
138.945448
 21
-304.834075
 31
0.0
  0
LINE
  5
62
330
27
100
AcDbEntity
  8
1
100
AcDbLine
 10
141.461948
 20
-302.317575
 30
0.0
 11
141.461948
 21
-271.724402
 31
0.0
  0
ARC
  5
63
330
27
100
AcDbEntity
  8
1
100
AcDbCircle
 10
138.945448
 20
-271.724402
 30
0.0
 40
2.5165
100
AcDbArc
 50
0.0
 51
90.0
  0
ARC
  5
64
330
27
100
AcDbEntity
  8
1
100
AcDbCircle
 10
120.945448
 20
-271.724402
 30
0.0
 40
2.5165
100
AcDbArc
 50
90.0
 51
180.0
  0
ARC
  5
65
330
27
100
AcDbEntity
  8
1
100
AcDbCircle
 10
120.945448
 20
-302.317575
 30
0.0
 40
2.5165
100
AcDbArc
 50
180.0
 51
270.0
  0
ARC
  5
66
330
27
100
AcDbEntity
  8
1
100
AcDbCircle
 10
138.945448
 20
-302.317575
 30
0.0
 40
2.5165
100
AcDbArc
 50
270.0
 51
360.0
  0
LINE
  5
67
330
27
100
AcDbEntity
  8
1
100
AcDbLine
 10
141.461948
 20
-269.207902
 30
0.0
 11
144.275571
 21
-255.578068
 31
0.0
  0
LINE
  5
68
330
27
100
AcDbEntity
  8
1
100
AcDbLine
 10
115.615326
 20
-255.578068
 30
0.0
 11
118.428948
 21
-269.207902
 31
0.0
  0
LINE
  5
69
330
27
100
AcDbEntity
  8
1
100
AcDbLine
 10
116.379075
 20
-307.848099
 30
0.0
 11
118.428948
 21
-304.834075
 31
0.0
  0
LINE
  5
6A
330
27
100
AcDbEntity
  8
1
100
AcDbLine
 10
143.511822
 20
-307.848099
 30
0.0
 11
141.461948
 21
-304.834075
 31
0.0
  0
LINE
  5
6B
330
27
100
AcDbEntity
  8
1
100
AcDbLine
 10
120.945448
 20
-395.077977
 30
0.0
 11
138.945448
 21
-395.077977
 31
0.0
  0
LINE
  5
6C
330
27
100
AcDbEntity
  8
1
100
AcDbLine
 10
118.428948
 20
-428.18765
 30
0.0
 11
118.428948
 21
-397.594477
 31
0.0
  0
LINE
  5
6D
330
27
100
AcDbEntity
  8
1
100
AcDbLine
 10
120.945448
 20
-430.70415
 30
0.0
 11
138.945448
 21
-430.70415
 31
0.0
  0
LINE
  5
6E
330
27
100
AcDbEntity
  8
1
100
AcDbLine
 10
141.461948
 20
-428.18765
 30
0.0
 11
141.461948
 21
-397.594477
 31
0.0
  0
ARC
  5
6F
330
27
100
AcDbEntity
  8
1
100
AcDbCircle
 10
138.945448
 20
-397.594477
 30
0.0
 40
2.5165
100
AcDbArc
 50
0.0
 51
90.0
  0
ARC
  5
70
330
27
100
AcDbEntity
  8
1
100
AcDbCircle
 10
120.945448
 20
-397.594477
 30
0.0
 40
2.5165
100
AcDbArc
 50
90.0
 51
180.0
  0
ARC
  5
71
330
27
100
AcDbEntity
  8
1
100
AcDbCircle
 10
120.945448
 20
-428.18765
 30
0.0
 40
2.5165
100
AcDbArc
 50
180.0
 51
270.0
  0
ARC
  5
72
330
27
100
AcDbEntity
  8
1
100
AcDbCircle
 10
138.945448
 20
-428.18765
 30
0.0
 40
2.5165
100
AcDbArc
 50
270.0
 51
360.0
  0
LINE
  5
73
330
27
100
AcDbEntity
  8
1
100
AcDbLine
 10
143.511822
 20
-392.063953
 30
0.0
 11
141.461948
 21
-395.077977
 31
0.0
  0
LINE
  5
74
330
27
100
AcDbEntity
  8
1
100
AcDbLine
 10
116.379075
 20
-392.063953
 30
0.0
 11
118.428948
 21
-395.077977
 31
0.0
  0
LINE
  5
75
330
27
100
AcDbEntity
  8
1
100
AcDbLine
 10
115.615326
 20
-444.333984
 30
0.0
 11
118.428948
 21
-430.70415
 31
0.0
  0
LINE
  5
76
330
27
100
AcDbEntity
  8
1
100
AcDbLine
 10
141.461948
 20
-430.70415
 30
0.0
 11
144.275571
 21
-444.333984
 31
0.0
  0
LINE
  5
77
330
27
100
AcDbEntity
  8
1
100
AcDbLine
 10
99.94544799999999
 20
-255.4060259999999
 30
0.0
 11
99.94544799999999
 21
-444.5060259999999
 31
0.0
  0
LINE
  5
78
330
27
100
AcDbEntity
  8
1
100
AcDbLine
 10
159.945448
 20
-255.4060259999999
 30
0.0
 11
159.945448
 21
-444.5060259999999
 31
0.0
  0
LINE
  5
79
330
27
100
AcDbEntity
  8
1
100
AcDbLine
 10
158.234416
 20
-252.454496
 30
0.0
 11
159.945448
 21
-255.4060259999999
 31
0.0
  0
LINE
  5
7A
330
27
100
AcDbEntity
  8
1
100
AcDbLine
 10
99.94544799999999
 20
-255.4060259999999
 30
0.0
 11
101.656481
 21
-252.454496
 31
0.0
  0
ARC
  5
7B
330
27
100
AcDbEntity
  8
1
100
AcDbCircle
 10
157.369276
 20
-252.956026
 30
0.0
 40
1.0
100
AcDbArc
 50
30.101305
 51
54.818241
  0
ARC
  5
7C
330
27
100
AcDbEntity
  8
1
100
AcDbCircle
 10
102.521621
 20
-252.956026
 30
0.0
 40
1.0
100
AcDbArc
 50
125.181759
 51
149.898695
  0
LINE
  5
7D
330
27
100
AcDbEntity
  8
1
100
AcDbLine
 10
159.945448
 20
-444.5060259999999
 30
0.0
 11
158.234416
 21
-447.4575569999999
 31
0.0
  0
LINE
  5
7E
330
27
100
AcDbEntity
  8
1
100
AcDbLine
 10
99.94544799999999
 20
-444.5060259999999
 30
0.0
 11
101.656481
 21
-447.4575569999999
 31
0.0
  0
ARC
  5
7F
330
27
100
AcDbEntity
  8
1
100
AcDbCircle
 10
157.369276
 20
-446.9560259999999
 30
0.0
 40
1.0
100
AcDbArc
 50
305.181759
 51
329.898695
  0
ARC
  5
80
330
27
100
AcDbEntity
  8
1
100
AcDbCircle
 10
102.521621
 20
-446.9560259999999
 30
0.0
 40
1.0
100
AcDbArc
 50
210.101305
 51
234.818241
  0
LINE
  5
81
330
27
100
AcDbEntity
  8
1
  6
DASHED
100
AcDbLine
 10
-457.211525
 20
374.432942
 30
0.0
 11
-454.259994
 21
376.143974
 31
0.0
  0
LINE
  5
82
330
27
100
AcDbEntity
  8
1
  6
DASHED
100
AcDbLine
 10
-454.259994
 20
316.143974
 30
0.0
 11
-457.211525
 21
317.855006
 31
0.0
  0
ARC
  5
83
330
27
100
AcDbEntity
  8
1
  6
DASHED
100
AcDbCircle
 10
-456.709994
 20
373.567802
 30
0.0
 40
1.0
100
AcDbArc
 50
120.101305
 51
144.818241
  0
ARC
  5
84
330
27
100
AcDbEntity
  8
1
  6
DASHED
100
AcDbCircle
 10
-456.709994
 20
318.720146
 30
0.0
 40
1.0
100
AcDbArc
 50
215.181759
 51
239.898695
  0
LINE
  5
85
330
27
100
AcDbEntity
  8
1
  6
DASHED
100
AcDbLine
 10
-265.159994
 20
376.143974
 30
0.0
 11
-262.208464
 21
374.432942
 31
0.0
  0
LINE
  5
86
330
27
100
AcDbEntity
  8
1
  6
DASHED
100
AcDbLine
 10
-265.159994
 20
316.143974
 30
0.0
 11
-262.208464
 21
317.855006
 31
0.0
  0
ARC
  5
87
330
27
100
AcDbEntity
  8
1
  6
DASHED
100
AcDbCircle
 10
-262.709994
 20
373.567802
 30
0.0
 40
1.0
100
AcDbArc
 50
35.181759
 51
59.898695
  0
ARC
  5
88
330
27
100
AcDbEntity
  8
1
  6
DASHED
100
AcDbCircle
 10
-262.709994
 20
318.720146
 30
0.0
 40
1.0
100
AcDbArc
 50
300.101305
 51
324.818241
  0
LINE
  5
89
330
27
100
AcDbEntity
  8
1
  6
DASHED
100
AcDbLine
 10
-454.259994
 20
376.143974
 30
0.0
 11
-410.576637
 21
376.143974
 31
0.0
  0
LINE
  5
8A
330
27
100
AcDbEntity
  8
1
  6
DASHED
100
AcDbLine
 10
-308.843351
 20
376.143974
 30
0.0
 11
-265.159994
 21
376.143974
 31
0.0
  0
LINE
  5
8B
330
27
100
AcDbEntity
  8
1
  6
DASHED
100
AcDbLine
 10
-454.259994
 20
316.143974
 30
0.0
 11
-410.576637
 21
316.143974
 31
0.0
  0
LINE
  5
8C
330
27
100
AcDbEntity
  8
1
  6
DASHED
100
AcDbLine
 10
-308.843351
 20
316.143974
 30
0.0
 11
-265.159994
 21
316.143974
 31
0.0
  0
ARC
  5
8D
330
27
100
AcDbEntity
  8
1
100
AcDbCircle
 10
-312.709994
 20
-157.956026
 30
0.0
 40
4.0
100
AcDbArc
 50
270.0
 51
360.0
  0
ARC
  5
8E
330
27
100
AcDbEntity
  8
1
100
AcDbCircle
 10
-406.709994
 20
-157.956026
 30
0.0
 40
4.0
100
AcDbArc
 50
180.0
 51
270.0
  0
ARC
  5
8F
330
27
100
AcDbEntity
  8
1
100
AcDbCircle
 10
-332.709994
 20
-169.956026
 30
0.0
 40
8.0
100
AcDbArc
 50
90.0
 51
180.0
  0
ARC
  5
90
330
27
100
AcDbEntity
  8
1
100
AcDbCircle
 10
-386.709994
 20
-169.956026
 30
0.0
 40
8.0
100
AcDbArc
 50
0.0
 51
90.0
  0
LINE
  5
91
330
27
100
AcDbEntity
  8
1
100
AcDbLine
 10
-356.709994
 20
-189.956026
 30
0.0
 11
-362.709994
 21
-189.956026
 31
0.0
  0
LINE
  5
92
330
27
100
AcDbEntity
  8
1
100
AcDbLine
 10
-362.709994
 20
-164.956026
 30
0.0
 11
-362.709994
 21
-186.956026
 31
0.0
  0
LINE
  5
93
330
27
100
AcDbEntity
  8
1
100
AcDbLine
 10
-356.709994
 20
-164.956026
 30
0.0
 11
-356.709994
 21
-186.956026
 31
0.0
  0
ARC
  5
94
330
27
100
AcDbEntity
  8
1
100
AcDbCircle
 10
-353.709994
 20
-164.956026
 30
0.0
 40
3.0
100
AcDbArc
 50
90.0
 51
180.0
  0
ARC
  5
95
330
27
100
AcDbEntity
  8
1
100
AcDbCircle
 10
-365.709994
 20
-164.956026
 30
0.0
 40
3.0
100
AcDbArc
 50
360.0
 51
90.0
  0
ARC
  5
96
330
27
100
AcDbEntity
  8
1
100
AcDbCircle
 10
-353.709994
 20
-186.956026
 30
0.0
 40
3.0
100
AcDbArc
 50
180.0
 51
270.0
  0
ARC
  5
97
330
27
100
AcDbEntity
  8
1
100
AcDbCircle
 10
-365.709994
 20
-186.956026
 30
0.0
 40
3.0
100
AcDbArc
 50
270.0
 51
360.0
  0
ARC
  5
98
330
27
100
AcDbEntity
  8
1
100
AcDbCircle
 10
-400.7099939999999
 20
-183.956026
 30
0.0
 40
22.0
100
AcDbArc
 50
360.0
 51
90.0
  0
ARC
  5
99
330
27
100
AcDbEntity
  8
1
100
AcDbCircle
 10
-318.709994
 20
-183.956026
 30
0.0
 40
22.0
100
AcDbArc
 50
90.0
 51
180.0
  0
LINE
  5
9A
330
27
100
AcDbEntity
  8
1
100
AcDbLine
 10
-385.001398
 20
-168.156026
 30
0.0
 11
-378.9151240000001
 21
-168.156026
 31
0.0
  0
LINE
  5
9B
330
27
100
AcDbEntity
  8
1
100
AcDbLine
 10
-340.504864
 20
-168.156026
 30
0.0
 11
-334.418591
 21
-168.156026
 31
0.0
  0
ARC
  5
9C
330
27
100
AcDbEntity
  8
1
100
AcDbCircle
 10
-334.418591
 20
-167.156026
 30
0.0
 40
1.0
100
AcDbArc
 50
270.0
 51
313.077144
  0
ARC
  5
9D
330
27
100
AcDbEntity
  8
1
100
AcDbCircle
 10
-385.001398
 20
-167.156026
 30
0.0
 40
1.0
100
AcDbArc
 50
226.922856
 51
270.0
  0
ARC
  5
9E
330
27
100
AcDbEntity
  8
1
100
AcDbCircle
 10
-330.709994
 20
-238.155981
 30
0.0
 40
10.0
100
AcDbArc
 50
180.0
 51
255.458437
  0
ARC
  5
9F
330
27
100
AcDbEntity
  8
1
100
AcDbCircle
 10
-388.709994
 20
-238.155981
 30
0.0
 40
10.0
100
AcDbArc
 50
284.541563
 51
360.0
  0
ARC
  5
A0
330
27
100
AcDbEntity
  8
1
100
AcDbCircle
 10
-359.709994
 20
-349.9560259999999
 30
0.0
 40
142.0
100
AcDbArc
 50
68.73669599999999
 51
79.001139
  0
ARC
  5
A1
330
27
100
AcDbEntity
  8
1
100
AcDbCircle
 10
-359.709994
 20
-349.9560259999999
 30
0.0
 40
142.0
100
AcDbArc
 50
100.998861
 51
111.263304
  0
LINE
  5
A2
330
27
100
AcDbEntity
  8
1
100
AcDbLine
 10
-411.347866
 20
-225.291176
 30
0.0
 11
-412.8906009999999
 21
-221.566684
 31
0.0
  0
LINE
  5
A3
330
27
100
AcDbEntity
  8
1
100
AcDbLine
 10
-308.072123
 20
-225.291176
 30
0.0
 11
-306.529388
 21
-221.566684
 31
0.0
  0
ARC
  5
A4
330
27
100
AcDbEntity
  8
1
100
AcDbCircle
 10
-313.50097
 20
-238.397573
 30
0.0
 40
11.5
100
AcDbArc
 50
79.44054399999998
 51
148.650117
  0
ARC
  5
A5
330
27
100
AcDbEntity
  8
1
100
AcDbCircle
 10
-314.744691
 20
-241.400181
 30
0.0
 40
12.0
100
AcDbArc
 50
148.650117
 51
247.5
  0
ARC
  5
A6
330
27
100
AcDbEntity
  8
1
100
AcDbCircle
 10
-404.6752979999999
 20
-241.400181
 30
0.0
 40
12.0
100
AcDbArc
 50
292.5
 51
31.34988300000001
  0
ARC
  5
A7
330
27
100
AcDbEntity
  8
1
100
AcDbCircle
 10
-405.9190189999999
 20
-238.397573
 30
0.0
 40
11.5
100
AcDbArc
 50
31.34988300000001
 51
100.559456
  0
LINE
  5
A8
330
27
100
AcDbEntity
  8
1
100
AcDbLine
 10
-323.322041
 20
-232.41455
 30
0.0
 11
-324.992765
 21
-235.157027
 31
0.0
  0
LINE
  5
A9
330
27
100
AcDbEntity
  8
1
100
AcDbLine
 10
-396.097947
 20
-232.41455
 30
0.0
 11
-394.427223
 21
-235.157027
 31
0.0
  0
ARC
  5
AA
330
27
100
AcDbEntity
  8
1
100
AcDbCircle
 10
-330.709994
 20
-200.748117
 30
0.0
 40
10.0
100
AcDbArc
 50
180.0
 51
259.001139
  0
ARC
  5
AB
330
27
100
AcDbEntity
  8
1
100
AcDbCircle
 10
-388.709994
 20
-200.748117
 30
0.0
 40
10.0
100
AcDbArc
 50
280.998861
 51
360.0
  0
ARC
  5
AC
330
27
100
AcDbEntity
  8
1
100
AcDbCircle
 10
-310.843761
 20
-224.143126
 30
0.0
 40
3.0
100
AcDbArc
 50
259.440544
 51
337.5
  0
ARC
  5
AD
330
27
100
AcDbEntity
  8
1
100
AcDbCircle
 10
-309.301026
 20
-220.418634
 30
0.0
 40
3.0
100
AcDbArc
 50
337.5
 51
68.73669599999999
  0
ARC
  5
AE
330
27
100
AcDbEntity
  8
1
100
AcDbCircle
 10
-410.118962
 20
-220.418634
 30
0.0
 40
3.0
100
AcDbArc
 50
111.263304
 51
202.5
  0
ARC
  5
AF
330
27
100
AcDbEntity
  8
1
100
AcDbCircle
 10
-408.576227
 20
-224.143126
 30
0.0
 40
3.0
100
AcDbArc
 50
202.5
 51
280.559456
  0
LINE
  5
B0
330
27
100
AcDbEntity
  8
1
100
AcDbLine
 10
-386.709994
 20
-474.9560259999999
 30
0.0
 11
-332.709994
 21
-474.9560259999999
 31
0.0
  0
LINE
  5
B1
330
27
100
AcDbEntity
  8
1
100
AcDbLine
 10
-386.709994
 20
-459.369234
 30
0.0
 11
-386.709994
 21
-478.156026
 31
0.0
  0
LINE
  5
B2
330
27
100
AcDbEntity
  8
1
100
AcDbLine
 10
-332.709994
 20
-459.369234
 30
0.0
 11
-332.709994
 21
-478.156026
 31
0.0
  0
ARC
  5
B3
330
27
100
AcDbEntity
  8
1
100
AcDbCircle
 10
-322.709994
 20
-459.369234
 30
0.0
 40
10.0
100
AcDbArc
 50
108.68387
 51
180.0
  0
ARC
  5
B4
330
27
100
AcDbEntity
  8
1
100
AcDbCircle
 10
-396.709994
 20
-459.369234
 30
0.0
 40
10.0
100
AcDbArc
 50
0.0
 51
71.31613
  0
LINE
  5
B5
330
27
100
AcDbEntity
  8
1
100
AcDbLine
 10
-383.709994
 20
-471.9560259999999
 30
0.0
 11
-335.709994
 21
-471.9560259999999
 31
0.0
  0
LINE
  5
B6
330
27
100
AcDbEntity
  8
1
100
AcDbLine
 10
-330.486451
 20
-471.3602299999999
 30
0.0
 11
-327.463504
 21
-470.5502329999999
 31
0.0
  0
LINE
  5
B7
330
27
100
AcDbEntity
  8
1
100
AcDbLine
 10
-388.933537
 20
-471.3602299999999
 30
0.0
 11
-391.956485
 21
-470.5502329999999
 31
0.0
  0
ARC
  5
B8
330
27
100
AcDbEntity
  8
1
100
AcDbCircle
 10
-329.709994
 20
-474.258007
 30
0.0
 40
3.0
100
AcDbArc
 50
105.0
 51
180.0
  0
ARC
  5
B9
330
27
100
AcDbEntity
  8
1
100
AcDbCircle
 10
-389.709994
 20
-474.258007
 30
0.0
 40
3.0
100
AcDbArc
 50
360.0
 51
75.0
  0
ARC
  5
BA
330
27
100
AcDbEntity
  8
1
100
AcDbCircle
 10
-335.709994
 20
-468.9560259999999
 30
0.0
 40
3.0
100
AcDbArc
 50
270.0
 51
360.0
  0
ARC
  5
BB
330
27
100
AcDbEntity
  8
1
100
AcDbCircle
 10
-383.709994
 20
-468.9560259999999
 30
0.0
 40
3.0
100
AcDbArc
 50
180.0
 51
270.0
  0
ARC
  5
BC
330
27
100
AcDbEntity
  8
1
100
AcDbCircle
 10
-314.744691
 20
-458.5118709999999
 30
0.0
 40
12.0
100
AcDbArc
 50
112.5
 51
210.724874
  0
ARC
  5
BD
330
27
100
AcDbEntity
  8
1
100
AcDbCircle
 10
-404.6752979999999
 20
-458.5118709999999
 30
0.0
 40
12.0
100
AcDbArc
 50
329.275126
 51
67.5
  0
ARC
  5
BE
330
27
100
AcDbEntity
  8
1
100
AcDbCircle
 10
-328.49878
 20
-466.68653
 30
0.0
 40
4.0
100
AcDbArc
 50
285.0
 51
30.724874
  0
ARC
  5
BF
330
27
100
AcDbEntity
  8
1
100
AcDbCircle
 10
-390.921209
 20
-466.68653
 30
0.0
 40
4.0
100
AcDbArc
 50
149.275126
 51
255.0
  0
LINE
  5
C0
330
27
100
AcDbEntity
  8
1
  6
CENTER
 62
     2
100
AcDbLine
 10
-377.709994
 20
-466.575782
 30
0.0
 11
-377.709994
 21
-489.339011
 31
0.0
  0
LINE
  5
C1
330
27
100
AcDbEntity
  8
1
  6
CENTER
 62
     2
100
AcDbLine
 10
-341.709994
 20
-466.575782
 30
0.0
 11
-341.709994
 21
-489.339011
 31
0.0
  0
LINE
  5
C2
330
27
100
AcDbEntity
  8
1
100
AcDbLine
 10
-386.709994
 20
-475.7560259999999
 30
0.0
 11
-332.709994
 21
-475.7560259999999
 31
0.0
  0
LINE
  5
C3
330
27
100
AcDbEntity
  8
1
100
AcDbLine
 10
-386.709994
 20
-478.156026
 30
0.0
 11
-332.709994
 21
-478.156026
 31
0.0
  0
LINE
  5
C4
330
27
100
AcDbEntity
  8
1
100
AcDbLine
 10
-335.959994
 20
-479.6560259999999
 30
0.0
 11
-335.959994
 21
-483.1652779999999
 31
0.0
  0
LINE
  5
C5
330
27
100
AcDbEntity
  8
1
100
AcDbLine
 10
-335.959994
 20
-483.1652779999999
 30
0.0
 11
-336.809994
 21
-483.6560259999999
 31
0.0
  0
LINE
  5
C6
330
27
100
AcDbEntity
  8
1
100
AcDbLine
 10
-338.834994
 20
-479.6560259999999
 30
0.0
 11
-338.834994
 21
-483.1652779999999
 31
0.0
  0
ARC
  5
C7
330
27
100
AcDbEntity
  8
1
100
AcDbCircle
 10
-337.397494
 20
-481.317323
 30
0.0
 40
2.341226999999999
100
AcDbArc
 50
232.121121
 51
307.878879
  0
ARC
  5
C8
330
27
100
AcDbEntity
  8
1
100
AcDbCircle
 10
-341.709994
 20
-475.03355
 30
0.0
 40
8.625
100
AcDbArc
 50
250.528777
 51
289.471219
  0
LINE
  5
C9
330
27
100
AcDbEntity
  8
1
100
AcDbLine
 10
-347.459994
 20
-479.6560259999999
 30
0.0
 11
-347.459994
 21
-483.1652779999999
 31
0.0
  0
LINE
  5
CA
330
27
100
AcDbEntity
  8
1
100
AcDbLine
 10
-347.459994
 20
-483.1652779999999
 30
0.0
 11
-346.609994
 21
-483.6560259999999
 31
0.0
  0
LINE
  5
CB
330
27
100
AcDbEntity
  8
1
100
AcDbLine
 10
-346.609994
 20
-483.6560259999999
 30
0.0
 11
-336.809994
 21
-483.6560259999999
 31
0.0
  0
LINE
  5
CC
330
27
100
AcDbEntity
  8
1
100
AcDbLine
 10
-344.584994
 20
-479.6560259999999
 30
0.0
 11
-344.584994
 21
-483.1652779999999
 31
0.0
  0
ARC
  5
CD
330
27
100
AcDbEntity
  8
1
100
AcDbCircle
 10
-346.022494
 20
-481.317323
 30
0.0
 40
2.341226999999999
100
AcDbArc
 50
232.121121
 51
307.878879
  0
LINE
  5
CE
330
27
100
AcDbEntity
  8
1
100
AcDbLine
 10
-335.609994
 20
-478.156026
 30
0.0
 11
-335.609994
 21
-479.6560259999999
 31
0.0
  0
LINE
  5
CF
330
27
100
AcDbEntity
  8
1
100
AcDbLine
 10
-335.609994
 20
-479.6560259999999
 30
0.0
 11
-347.809994
 21
-479.6560259999999
 31
0.0
  0
LINE
  5
D0
330
27
100
AcDbEntity
  8
1
100
AcDbLine
 10
-347.809994
 20
-479.6560259999999
 30
0.0
 11
-347.809994
 21
-478.156026
 31
0.0
  0
LINE
  5
D1
330
27
100
AcDbEntity
  8
1
100
AcDbLine
 10
-341.709994
 20
-479.6560259999999
 30
0.0
 11
-342.209994
 21
-478.156026
 31
0.0
  0
LINE
  5
D2
330
27
100
AcDbEntity
  8
1
100
AcDbLine
 10
-341.709994
 20
-478.156026
 30
0.0
 11
-341.209994
 21
-479.6560259999999
 31
0.0
  0
LINE
  5
D3
330
27
100
AcDbEntity
  8
1
100
AcDbLine
 10
-383.809994
 20
-479.6560259999999
 30
0.0
 11
-371.609994
 21
-479.6560259999999
 31
0.0
  0
LINE
  5
D4
330
27
100
AcDbEntity
  8
1
100
AcDbLine
 10
-371.959994
 20
-479.6560259999999
 30
0.0
 11
-371.959994
 21
-483.1652779999999
 31
0.0
  0
LINE
  5
D5
330
27
100
AcDbEntity
  8
1
100
AcDbLine
 10
-371.959994
 20
-483.1652779999999
 30
0.0
 11
-372.809994
 21
-483.6560259999999
 31
0.0
  0
LINE
  5
D6
330
27
100
AcDbEntity
  8
1
100
AcDbLine
 10
-374.834994
 20
-479.6560259999999
 30
0.0
 11
-374.834994
 21
-483.1652779999999
 31
0.0
  0
ARC
  5
D7
330
27
100
AcDbEntity
  8
1
100
AcDbCircle
 10
-373.397494
 20
-481.317323
 30
0.0
 40
2.341226999999999
100
AcDbArc
 50
232.121121
 51
307.878879
  0
ARC
  5
D8
330
27
100
AcDbEntity
  8
1
100
AcDbCircle
 10
-377.709994
 20
-475.03355
 30
0.0
 40
8.625
100
AcDbArc
 50
250.528777
 51
289.471219
  0
LINE
  5
D9
330
27
100
AcDbEntity
  8
1
100
AcDbLine
 10
-383.459994
 20
-479.6560259999999
 30
0.0
 11
-383.459994
 21
-483.1652779999999
 31
0.0
  0
LINE
  5
DA
330
27
100
AcDbEntity
  8
1
100
AcDbLine
 10
-383.459994
 20
-483.1652779999999
 30
0.0
 11
-382.609994
 21
-483.6560259999999
 31
0.0
  0
LINE
  5
DB
330
27
100
AcDbEntity
  8
1
100
AcDbLine
 10
-382.609994
 20
-483.6560259999999
 30
0.0
 11
-372.809994
 21
-483.6560259999999
 31
0.0
  0
LINE
  5
DC
330
27
100
AcDbEntity
  8
1
100
AcDbLine
 10
-380.584994
 20
-479.6560259999999
 30
0.0
 11
-380.584994
 21
-483.1652779999999
 31
0.0
  0
ARC
  5
DD
330
27
100
AcDbEntity
  8
1
100
AcDbCircle
 10
-382.022494
 20
-481.317323
 30
0.0
 40
2.341226999999999
100
AcDbArc
 50
232.121121
 51
307.878879
  0
LINE
  5
DE
330
27
100
AcDbEntity
  8
1
100
AcDbLine
 10
-371.609994
 20
-478.156026
 30
0.0
 11
-371.609994
 21
-479.6560259999999
 31
0.0
  0
LINE
  5
DF
330
27
100
AcDbEntity
  8
1
100
AcDbLine
 10
-383.809994
 20
-479.6560259999999
 30
0.0
 11
-383.809994
 21
-478.156026
 31
0.0
  0
LINE
  5
E0
330
27
100
AcDbEntity
  8
1
100
AcDbLine
 10
-377.709994
 20
-479.6560259999999
 30
0.0
 11
-378.209994
 21
-478.156026
 31
0.0
  0
LINE
  5
E1
330
27
100
AcDbEntity
  8
1
100
AcDbLine
 10
-377.709994
 20
-478.156026
 30
0.0
 11
-377.209994
 21
-479.6560259999999
 31
0.0
  0
ARC
  5
E2
330
27
100
AcDbEntity
  8
1
100
AcDbCircle
 10
176.945448
 20
-157.956026
 30
0.0
 40
4.0
100
AcDbArc
 50
270.0
 51
360.0
  0
ARC
  5
E3
330
27
100
AcDbEntity
  8
1
100
AcDbCircle
 10
82.945448
 20
-157.956026
 30
0.0
 40
4.0
100
AcDbArc
 50
180.0
 51
270.0
  0
ARC
  5
E4
330
27
100
AcDbEntity
  8
1
100
AcDbCircle
 10
156.945448
 20
-169.956026
 30
0.0
 40
8.0
100
AcDbArc
 50
90.0
 51
180.0
  0
ARC
  5
E5
330
27
100
AcDbEntity
  8
1
100
AcDbCircle
 10
102.945448
 20
-169.956026
 30
0.0
 40
8.0
100
AcDbArc
 50
0.0
 51
90.0
  0
LINE
  5
E6
330
27
100
AcDbEntity
  8
1
100
AcDbLine
 10
126.945448
 20
-168.888077
 30
0.0
 11
126.945448
 21
-180.956026
 31
0.0
  0
LINE
  5
E7
330
27
100
AcDbEntity
  8
1
100
AcDbLine
 10
132.945448
 20
-168.888077
 30
0.0
 11
132.945448
 21
-180.956026
 31
0.0
  0
LINE
  5
E8
330
27
100
AcDbEntity
  8
1
100
AcDbLine
 10
101.945448
 20
-245.456026
 30
0.0
 11
101.945448
 21
-454.4560259999999
 31
0.0
  0
LINE
  5
E9
330
27
100
AcDbEntity
  8
1
100
AcDbLine
 10
157.945448
 20
-245.456026
 30
0.0
 11
157.945448
 21
-454.4560259999999
 31
0.0
  0
LINE
  5
EA
330
27
100
AcDbEntity
  8
1
100
AcDbLine
 10
157.945448
 20
-245.456026
 30
0.0
 11
156.945448
 21
-244.456026
 31
0.0
  0
LINE
  5
EB
330
27
100
AcDbEntity
  8
1
100
AcDbLine
 10
101.945448
 20
-245.456026
 30
0.0
 11
102.945448
 21
-244.456026
 31
0.0
  0
LINE
  5
EC
330
27
100
AcDbEntity
  8
1
100
AcDbLine
 10
102.945448
 20
-455.4560259999999
 30
0.0
 11
101.945448
 21
-454.4560259999999
 31
0.0
  0
LINE
  5
ED
330
27
100
AcDbEntity
  8
1
100
AcDbLine
 10
156.945448
 20
-455.4560259999999
 30
0.0
 11
157.945448
 21
-454.4560259999999
 31
0.0
  0
LINE
  5
EE
330
27
100
AcDbEntity
  8
1
100
AcDbLine
 10
156.945448
 20
-244.456026
 30
0.0
 11
156.945448
 21
-455.4560259999999
 31
0.0
  0
LINE
  5
EF
330
27
100
AcDbEntity
  8
1
100
AcDbLine
 10
102.945448
 20
-244.456026
 30
0.0
 11
102.945448
 21
-455.4560259999999
 31
0.0
  0
ARC
  5
F0
330
27
100
AcDbEntity
  8
1
100
AcDbCircle
 10
153.945448
 20
-239.456026
 30
0.0
 40
5.0
100
AcDbArc
 50
180.0
 51
270.0
  0
ARC
  5
F1
330
27
100
AcDbEntity
  8
1
100
AcDbCircle
 10
105.945448
 20
-239.456026
 30
0.0
 40
5.0
100
AcDbArc
 50
270.0
 51
0.0
  0
LINE
  5
F2
330
27
100
AcDbEntity
  8
1
100
AcDbLine
 10
102.945448
 20
-244.456026
 30
0.0
 11
105.945448
 21
-244.456026
 31
0.0
  0
LINE
  5
F3
330
27
100
AcDbEntity
  8
1
100
AcDbLine
 10
153.945448
 20
-244.456026
 30
0.0
 11
156.945448
 21
-244.456026
 31
0.0
  0
ARC
  5
F4
330
27
100
AcDbEntity
  8
1
100
AcDbCircle
 10
153.945448
 20
-242.835639
 30
0.0
 40
5.0
100
AcDbArc
 50
180.0
 51
270.0
  0
ARC
  5
F5
330
27
100
AcDbEntity
  8
1
100
AcDbCircle
 10
105.945448
 20
-242.835639
 30
0.0
 40
5.0
100
AcDbArc
 50
270.0
 51
0.0
  0
ARC
  5
F6
330
27
100
AcDbEntity
  8
1
100
AcDbCircle
 10
176.945448
 20
-189.956026
 30
0.0
 40
28.0
100
AcDbArc
 50
90.0
 51
180.0
  0
ARC
  5
F7
330
27
100
AcDbEntity
  8
1
100
AcDbCircle
 10
82.945448
 20
-189.956026
 30
0.0
 40
28.0
100
AcDbArc
 50
0.0
 51
90.0
  0
LINE
  5
F8
330
27
100
AcDbEntity
  8
1
100
AcDbLine
 10
126.945448
 20
-183.956026
 30
0.0
 11
132.945448
 21
-183.956026
 31
0.0
  0
ARC
  5
F9
330
27
100
AcDbEntity
  8
1
100
AcDbCircle
 10
135.945448
 20
-180.956026
 30
0.0
 40
3.0
100
AcDbArc
 50
180.0
 51
270.0
  0
ARC
  5
FA
330
27
100
AcDbEntity
  8
1
100
AcDbCircle
 10
123.945448
 20
-180.956026
 30
0.0
 40
3.0
100
AcDbArc
 50
270.0
 51
0.0
  0
LINE
  5
FB
330
27
100
AcDbEntity
  8
1
100
AcDbLine
 10
125.945448
 20
-164.956026
 30
0.0
 11
125.945448
 21
-167.156026
 31
0.0
  0
LINE
  5
FC
330
27
100
AcDbEntity
  8
1
100
AcDbLine
 10
133.945448
 20
-164.956026
 30
0.0
 11
133.945448
 21
-167.156026
 31
0.0
  0
ARC
  5
FD
330
27
100
AcDbEntity
  8
1
100
AcDbCircle
 10
136.945448
 20
-164.956026
 30
0.0
 40
3.0
100
AcDbArc
 50
90.0
 51
180.0
  0
ARC
  5
FE
330
27
100
AcDbEntity
  8
1
100
AcDbCircle
 10
122.945448
 20
-164.956026
 30
0.0
 40
3.0
100
AcDbArc
 50
0.0
 51
90.0
  0
ARC
  5
FF
330
27
100
AcDbEntity
  8
1
100
AcDbCircle
 10
132.945448
 20
-167.156026
 30
0.0
 40
1.0
100
AcDbArc
 50
300.0
 51
360.0
  0
ARC
  5
100
330
27
100
AcDbEntity
  8
1
100
AcDbCircle
 10
126.945448
 20
-167.156026
 30
0.0
 40
1.0
100
AcDbArc
 50
180.0
 51
240.0
  0
ARC
  5
101
330
27
100
AcDbEntity
  8
1
100
AcDbCircle
 10
133.945448
 20
-168.888077
 30
0.0
 40
1.0
100
AcDbArc
 50
120.0
 51
180.0
  0
ARC
  5
102
330
27
100
AcDbEntity
  8
1
100
AcDbCircle
 10
125.945448
 20
-168.888077
 30
0.0
 40
1.0
100
AcDbArc
 50
0.0
 51
60.0
  0
LINE
  5
103
330
27
100
AcDbEntity
  8
1
100
AcDbLine
 10
111.945448
 20
-474.9560259999999
 30
0.0
 11
147.945448
 21
-474.9560259999999
 31
0.0
  0
LINE
  5
104
330
27
100
AcDbEntity
  8
1
100
AcDbLine
 10
111.945448
 20
-454.896229
 30
0.0
 11
111.945448
 21
-478.156026
 31
0.0
  0
LINE
  5
105
330
27
100
AcDbEntity
  8
1
100
AcDbLine
 10
147.945448
 20
-454.896229
 30
0.0
 11
147.945448
 21
-478.156026
 31
0.0
  0
ARC
  5
106
330
27
100
AcDbEntity
  8
1
100
AcDbCircle
 10
152.945448
 20
-460.4560259999999
 30
0.0
 40
5.0
100
AcDbArc
 50
90.0
 51
180.0
  0
ARC
  5
107
330
27
100
AcDbEntity
  8
1
100
AcDbCircle
 10
106.945448
 20
-460.4560259999999
 30
0.0
 40
5.0
100
AcDbArc
 50
0.0
 51
90.0
  0
LINE
  5
108
330
27
100
AcDbEntity
  8
1
100
AcDbLine
 10
102.945448
 20
-455.4560259999999
 30
0.0
 11
106.945448
 21
-455.4560259999999
 31
0.0
  0
LINE
  5
109
330
27
100
AcDbEntity
  8
1
100
AcDbLine
 10
152.945448
 20
-455.4560259999999
 30
0.0
 11
156.945448
 21
-455.4560259999999
 31
0.0
  0
ARC
  5
10A
330
27
100
AcDbEntity
  8
1
100
AcDbCircle
 10
152.945448
 20
-454.896229
 30
0.0
 40
5.0
100
AcDbArc
 50
90.0
 51
180.0
  0
ARC
  5
10B
330
27
100
AcDbEntity
  8
1
100
AcDbCircle
 10
106.945448
 20
-454.896229
 30
0.0
 40
5.0
100
AcDbArc
 50
0.0
 51
90.0
  0
LINE
  5
10C
330
27
100
AcDbEntity
  8
1
100
AcDbLine
 10
111.945448
 20
-475.7560259999999
 30
0.0
 11
147.945448
 21
-475.7560259999999
 31
0.0
  0
LINE
  5
10D
330
27
100
AcDbEntity
  8
1
100
AcDbLine
 10
111.945448
 20
-478.156026
 30
0.0
 11
147.945448
 21
-478.156026
 31
0.0
  0
LINE
  5
10E
330
27
100
AcDbEntity
  8
1
100
AcDbLine
 10
123.845448
 20
-479.6560259999999
 30
0.0
 11
136.045448
 21
-479.6560259999999
 31
0.0
  0
LINE
  5
10F
330
27
100
AcDbEntity
  8
1
100
AcDbLine
 10
134.945448
 20
-479.6560259999999
 30
0.0
 11
134.945448
 21
-483.6560259999999
 31
0.0
  0
LINE
  5
110
330
27
100
AcDbEntity
  8
1
100
AcDbLine
 10
129.945448
 20
-479.6560259999999
 30
0.0
 11
129.945448
 21
-483.1652779999999
 31
0.0
  0
ARC
  5
111
330
27
100
AcDbEntity
  8
1
100
AcDbCircle
 10
132.445448
 20
-477.0428179999999
 30
0.0
 40
6.613208
100
AcDbArc
 50
247.7882049999999
 51
292.211795
  0
LINE
  5
112
330
27
100
AcDbEntity
  8
1
100
AcDbLine
 10
124.945448
 20
-479.6560259999999
 30
0.0
 11
124.945448
 21
-483.6560259999999
 31
0.0
  0
LINE
  5
113
330
27
100
AcDbEntity
  8
1
100
AcDbLine
 10
124.945448
 20
-483.6560259999999
 30
0.0
 11
134.945448
 21
-483.6560259999999
 31
0.0
  0
ARC
  5
114
330
27
100
AcDbEntity
  8
1
100
AcDbCircle
 10
127.445448
 20
-477.0428179999999
 30
0.0
 40
6.613208
100
AcDbArc
 50
247.7882049999999
 51
292.211795
  0
LINE
  5
115
330
27
100
AcDbEntity
  8
1
100
AcDbLine
 10
136.045448
 20
-478.156026
 30
0.0
 11
136.045448
 21
-479.6560259999999
 31
0.0
  0
LINE
  5
116
330
27
100
AcDbEntity
  8
1
100
AcDbLine
 10
123.845448
 20
-479.6560259999999
 30
0.0
 11
123.845448
 21
-478.156026
 31
0.0
  0
CIRCLE
  5
117
330
27
100
AcDbEntity
  8
1
100
AcDbCircle
 10
-359.709994
 20
-349.9560259999999
 30
0.0
 40
105.5
  0
LINE
  5
118
330
27
100
AcDbEntity
  8
1
100
AcDbLine
 10
120.945448
 20
-309.956026
 30
0.0
 11
138.945448
 21
-309.956026
 31
0.0
  0
LINE
  5
119
330
27
100
AcDbEntity
  8
1
100
AcDbLine
 10
120.945448
 20
-313.956026
 30
0.0
 11
138.945448
 21
-313.956026
 31
0.0
  0
LINE
  5
11A
330
27
100
AcDbEntity
  8
1
100
AcDbLine
 10
120.945448
 20
-385.9560259999999
 30
0.0
 11
138.945448
 21
-385.9560259999999
 31
0.0
  0
LINE
  5
11B
330
27
100
AcDbEntity
  8
1
100
AcDbLine
 10
120.945448
 20
-389.9560259999999
 30
0.0
 11
138.945448
 21
-389.9560259999999
 31
0.0
  0
LINE
  5
11C
330
27
100
AcDbEntity
  8
1
100
AcDbLine
 10
144.945448
 20
-303.956026
 30
0.0
 11
144.945448
 21
-258.333027
 31
0.0
  0
LINE
  5
11D
330
27
100
AcDbEntity
  8
1
100
AcDbLine
 10
114.945448
 20
-303.956026
 30
0.0
 11
114.945448
 21
-258.333027
 31
0.0
  0
LINE
  5
11E
330
27
100
AcDbEntity
  8
1
100
AcDbLine
 10
144.945448
 20
-441.5790249999999
 30
0.0
 11
144.945448
 21
-395.9560259999999
 31
0.0
  0
LINE
  5
11F
330
27
100
AcDbEntity
  8
1
100
AcDbLine
 10
144.945448
 20
-379.956026
 30
0.0
 11
144.945448
 21
-319.956026
 31
0.0
  0
LINE
  5
120
330
27
100
AcDbEntity
  8
1
100
AcDbLine
 10
114.945448
 20
-441.5790249999999
 30
0.0
 11
114.945448
 21
-395.9560259999999
 31
0.0
  0
LINE
  5
121
330
27
100
AcDbEntity
  8
1
100
AcDbLine
 10
114.945448
 20
-379.956026
 30
0.0
 11
114.945448
 21
-319.956026
 31
0.0
  0
ARC
  5
122
330
27
100
AcDbEntity
  8
1
100
AcDbCircle
 10
138.945448
 20
-258.333027
 30
0.0
 40
6.0
100
AcDbArc
 50
0.0
 51
90.0
  0
ARC
  5
123
330
27
100
AcDbEntity
  8
1
100
AcDbCircle
 10
120.945448
 20
-258.333027
 30
0.0
 40
6.0
100
AcDbArc
 50
90.0
 51
180.0
  0
ARC
  5
124
330
27
100
AcDbEntity
  8
1
100
AcDbCircle
 10
120.945448
 20
-303.956026
 30
0.0
 40
6.0
100
AcDbArc
 50
180.0
 51
270.0
  0
ARC
  5
125
330
27
100
AcDbEntity
  8
1
100
AcDbCircle
 10
138.945448
 20
-303.956026
 30
0.0
 40
6.0
100
AcDbArc
 50
270.0
 51
0.0
  0
ARC
  5
126
330
27
100
AcDbEntity
  8
1
100
AcDbCircle
 10
138.945448
 20
-319.956026
 30
0.0
 40
6.0
100
AcDbArc
 50
0.0
 51
90.0
  0
ARC
  5
127
330
27
100
AcDbEntity
  8
1
100
AcDbCircle
 10
120.945448
 20
-319.956026
 30
0.0
 40
6.0
100
AcDbArc
 50
90.0
 51
180.0
  0
ARC
  5
128
330
27
100
AcDbEntity
  8
1
100
AcDbCircle
 10
120.945448
 20
-379.956026
 30
0.0
 40
6.0
100
AcDbArc
 50
180.0
 51
270.0
  0
ARC
  5
129
330
27
100
AcDbEntity
  8
1
100
AcDbCircle
 10
138.945448
 20
-379.956026
 30
0.0
 40
6.0
100
AcDbArc
 50
270.0
 51
360.0
  0
ARC
  5
12A
330
27
100
AcDbEntity
  8
1
100
AcDbCircle
 10
138.945448
 20
-395.9560259999999
 30
0.0
 40
6.0
100
AcDbArc
 50
0.0
 51
90.0
  0
ARC
  5
12B
330
27
100
AcDbEntity
  8
1
100
AcDbCircle
 10
120.945448
 20
-395.9560259999999
 30
0.0
 40
6.0
100
AcDbArc
 50
90.0
 51
180.0
  0
ARC
  5
12C
330
27
100
AcDbEntity
  8
1
100
AcDbCircle
 10
120.945448
 20
-441.5790249999999
 30
0.0
 40
6.0
100
AcDbArc
 50
180.0
 51
270.0
  0
ARC
  5
12D
330
27
100
AcDbEntity
  8
1
100
AcDbCircle
 10
138.945448
 20
-441.5790249999999
 30
0.0
 40
6.0
100
AcDbArc
 50
270.0
 51
360.0
  0
LINE
  5
12E
330
27
100
AcDbEntity
  8
1
100
AcDbLine
 10
125.945448
 20
-200.748117
 30
0.0
 11
133.945448
 21
-200.748117
 31
0.0
  0
LINE
  5
12F
330
27
100
AcDbEntity
  8
1
100
AcDbLine
 10
133.945448
 20
-470.258007
 30
0.0
 11
133.945448
 21
-451.579025
 31
0.0
  0
LINE
  5
130
330
27
100
AcDbEntity
  8
1
100
AcDbLine
 10
133.945448
 20
-248.333027
 30
0.0
 11
133.945448
 21
-204.748117
 31
0.0
  0
LINE
  5
131
330
27
100
AcDbEntity
  8
1
100
AcDbLine
 10
125.945448
 20
-470.258007
 30
0.0
 11
125.945448
 21
-451.579025
 31
0.0
  0
LINE
  5
132
330
27
100
AcDbEntity
  8
1
100
AcDbLine
 10
125.945448
 20
-248.333027
 30
0.0
 11
125.945448
 21
-204.748117
 31
0.0
  0
ARC
  5
133
330
27
100
AcDbEntity
  8
1
100
AcDbCircle
 10
121.945448
 20
-204.748117
 30
0.0
 40
4.0
100
AcDbArc
 50
0.0
 51
90.0
  0
ARC
  5
134
330
27
100
AcDbEntity
  8
1
100
AcDbCircle
 10
137.945448
 20
-204.748117
 30
0.0
 40
4.0
100
AcDbArc
 50
90.0
 51
180.0
  0
ARC
  5
135
330
27
100
AcDbEntity
  8
1
100
AcDbCircle
 10
137.945448
 20
-248.333027
 30
0.0
 40
4.0
100
AcDbArc
 50
180.0
 51
270.0
  0
ARC
  5
136
330
27
100
AcDbEntity
  8
1
100
AcDbCircle
 10
121.945448
 20
-248.333027
 30
0.0
 40
4.0
100
AcDbArc
 50
270.0
 51
360.0
  0
LINE
  5
137
330
27
100
AcDbEntity
  8
1
100
AcDbLine
 10
110.945448
 20
-247.835639
 30
0.0
 11
121.945448
 21
-247.835639
 31
0.0
  0
LINE
  5
138
330
27
100
AcDbEntity
  8
1
100
AcDbLine
 10
137.945448
 20
-247.835639
 30
0.0
 11
148.945448
 21
-247.835639
 31
0.0
  0
LINE
  5
139
330
27
100
AcDbEntity
  8
1
100
AcDbLine
 10
137.945448
 20
-252.333027
 30
0.0
 11
138.945448
 21
-252.333027
 31
0.0
  0
LINE
  5
13A
330
27
100
AcDbEntity
  8
1
100
AcDbLine
 10
120.945448
 20
-252.333027
 30
0.0
 11
121.945448
 21
-252.333027
 31
0.0
  0
LINE
  5
13B
330
27
100
AcDbEntity
  8
1
100
AcDbLine
 10
125.945448
 20
-252.333027
 30
0.0
 11
133.945448
 21
-252.333027
 31
0.0
  0
ARC
  5
13C
330
27
100
AcDbEntity
  8
1
100
AcDbCircle
 10
137.945448
 20
-243.835639
 30
0.0
 40
4.0
100
AcDbArc
 50
180.0
 51
270.0
  0
ARC
  5
13D
330
27
100
AcDbEntity
  8
1
100
AcDbCircle
 10
121.945448
 20
-243.835639
 30
0.0
 40
4.0
100
AcDbArc
 50
270.0
 51
360.0
  0
LINE
  5
13E
330
27
100
AcDbEntity
  8
1
100
AcDbLine
 10
127.945448
 20
-217.622863
 30
0.0
 11
131.945448
 21
-217.622863
 31
0.0
  0
LINE
  5
13F
330
27
100
AcDbEntity
  8
1
100
AcDbLine
 10
127.945448
 20
-227.1431259999999
 30
0.0
 11
131.945448
 21
-227.1431259999999
 31
0.0
  0
ARC
  5
140
330
27
100
AcDbEntity
  8
1
100
AcDbCircle
 10
131.945448
 20
-219.622863
 30
0.0
 40
2.0
100
AcDbArc
 50
0.0
 51
90.0
  0
ARC
  5
141
330
27
100
AcDbEntity
  8
1
100
AcDbCircle
 10
127.945448
 20
-219.622863
 30
0.0
 40
2.0
100
AcDbArc
 50
90.0
 51
180.0
  0
ARC
  5
142
330
27
100
AcDbEntity
  8
1
100
AcDbCircle
 10
127.945448
 20
-225.143126
 30
0.0
 40
2.0
100
AcDbArc
 50
180.0
 51
270.0
  0
ARC
  5
143
330
27
100
AcDbEntity
  8
1
100
AcDbCircle
 10
131.945448
 20
-225.143126
 30
0.0
 40
2.0
100
AcDbArc
 50
270.0
 51
360.0
  0
ARC
  5
144
330
27
100
AcDbEntity
  8
1
100
AcDbCircle
 10
137.945448
 20
-470.258007
 30
0.0
 40
4.0
100
AcDbArc
 50
180.0
 51
270.0
  0
ARC
  5
145
330
27
100
AcDbEntity
  8
1
100
AcDbCircle
 10
121.945448
 20
-470.258007
 30
0.0
 40
4.0
100
AcDbArc
 50
270.0
 51
0.0
  0
ARC
  5
146
330
27
100
AcDbEntity
  8
1
100
AcDbCircle
 10
137.945448
 20
-451.579025
 30
0.0
 40
4.0
100
AcDbArc
 50
90.0
 51
180.0
  0
ARC
  5
147
330
27
100
AcDbEntity
  8
1
100
AcDbCircle
 10
121.945448
 20
-451.579025
 30
0.0
 40
4.0
100
AcDbArc
 50
0.0
 51
90.0
  0
LINE
  5
148
330
27
100
AcDbEntity
  8
1
100
AcDbLine
 10
125.945448
 20
-474.258007
 30
0.0
 11
133.945448
 21
-474.258007
 31
0.0
  0
LINE
  5
149
330
27
100
AcDbEntity
  8
1
100
AcDbLine
 10
111.945448
 20
-449.896229
 30
0.0
 11
121.945448
 21
-449.896229
 31
0.0
  0
LINE
  5
14A
330
27
100
AcDbEntity
  8
1
100
AcDbLine
 10
137.945448
 20
-449.896229
 30
0.0
 11
147.945448
 21
-449.896229
 31
0.0
  0
LINE
  5
14B
330
27
100
AcDbEntity
  8
1
100
AcDbLine
 10
137.945448
 20
-447.579025
 30
0.0
 11
138.945448
 21
-447.579025
 31
0.0
  0
LINE
  5
14C
330
27
100
AcDbEntity
  8
1
100
AcDbLine
 10
120.945448
 20
-447.579025
 30
0.0
 11
121.945448
 21
-447.579025
 31
0.0
  0
LINE
  5
14D
330
27
100
AcDbEntity
  8
1
100
AcDbLine
 10
125.945448
 20
-447.579025
 30
0.0
 11
133.945448
 21
-447.579025
 31
0.0
  0
ARC
  5
14E
330
27
100
AcDbEntity
  8
1
100
AcDbCircle
 10
137.945448
 20
-453.8962289999999
 30
0.0
 40
4.0
100
AcDbArc
 50
90.0
 51
180.0
  0
ARC
  5
14F
330
27
100
AcDbEntity
  8
1
100
AcDbCircle
 10
121.945448
 20
-453.8962289999999
 30
0.0
 40
4.0
100
AcDbArc
 50
0.0
 51
90.0
  0
ARC
  5
150
330
27
100
AcDbEntity
  8
1
100
AcDbCircle
 10
144.945448
 20
-468.9560259999999
 30
0.0
 40
3.0
100
AcDbArc
 50
270.0
 51
360.0
  0
ARC
  5
151
330
27
100
AcDbEntity
  8
1
100
AcDbCircle
 10
114.945448
 20
-468.9560259999999
 30
0.0
 40
3.0
100
AcDbArc
 50
180.0
 51
270.0
  0
LINE
  5
152
330
27
100
AcDbEntity
  8
1
100
AcDbLine
 10
114.945448
 20
-471.9560259999999
 30
0.0
 11
121.945448
 21
-471.9560259999999
 31
0.0
  0
LINE
  5
153
330
27
100
AcDbEntity
  8
1
100
AcDbLine
 10
137.945448
 20
-471.9560259999999
 30
0.0
 11
144.945448
 21
-471.9560259999999
 31
0.0
  0
ARC
  5
154
330
27
100
AcDbEntity
  8
1
100
AcDbCircle
 10
137.945448
 20
-467.9560259999999
 30
0.0
 40
4.0
100
AcDbArc
 50
180.0
 51
270.0
  0
ARC
  5
155
330
27
100
AcDbEntity
  8
1
100
AcDbCircle
 10
121.945448
 20
-467.9560259999999
 30
0.0
 40
4.0
100
AcDbArc
 50
270.0
 51
360.0
  0
LINE
  5
156
330
27
100
AcDbEntity
  8
1
  6
DASHED
100
AcDbLine
 10
-308.715314
 20
374.143974
 30
0.0
 11
-255.209994
 21
374.143974
 31
0.0
  0
LINE
  5
157
330
27
100
AcDbEntity
  8
1
  6
DASHED
100
AcDbLine
 10
-308.715314
 20
318.143974
 30
0.0
 11
-255.209994
 21
318.143974
 31
0.0
  0
LINE
  5
158
330
27
100
AcDbEntity
  8
1
  6
DASHED
100
AcDbLine
 10
-254.209994
 20
373.143974
 30
0.0
 11
-255.209994
 21
374.143974
 31
0.0
  0
LINE
  5
159
330
27
100
AcDbEntity
  8
1
  6
DASHED
100
AcDbLine
 10
-255.209994
 20
318.143974
 30
0.0
 11
-254.209994
 21
319.143974
 31
0.0
  0
LINE
  5
15A
330
27
100
AcDbEntity
  8
1
  6
DASHED
100
AcDbLine
 10
-254.209994
 20
373.143974
 30
0.0
 11
-308.709994
 21
373.143974
 31
0.0
  0
LINE
  5
15B
330
27
100
AcDbEntity
  8
1
  6
DASHED
100
AcDbLine
 10
-254.209994
 20
319.143974
 30
0.0
 11
-308.709994
 21
319.143974
 31
0.0
  0
LINE
  5
15C
330
27
100
AcDbEntity
  8
1
  6
DASHED
100
AcDbLine
 10
-262.086995
 20
337.143974
 30
0.0
 11
-262.086995
 21
355.143974
 31
0.0
  0
LINE
  5
15D
330
27
100
AcDbEntity
  8
1
  6
DASHED
100
AcDbLine
 10
-260.5422069999999
 20
335.9099930000001
 30
0.0
 11
-260.5422069999999
 21
356.377955
 31
0.0
  0
LINE
  5
15E
330
27
100
AcDbEntity
  8
1
  6
DASHED
100
AcDbLine
 10
-308.709994
 20
361.143974
 30
0.0
 11
-268.086995
 21
361.143974
 31
0.0
  0
LINE
  5
15F
330
27
100
AcDbEntity
  8
1
  6
DASHED
100
AcDbLine
 10
-308.709994
 20
331.143974
 30
0.0
 11
-268.086995
 21
331.143974
 31
0.0
  0
ARC
  5
160
330
27
100
AcDbEntity
  8
1
  6
DASHED
100
AcDbCircle
 10
-268.086995
 20
355.143974
 30
0.0
 40
6.0
100
AcDbArc
 50
0.0
 51
90.0
  0
ARC
  5
161
330
27
100
AcDbEntity
  8
1
  6
DASHED
100
AcDbCircle
 10
-268.086995
 20
337.143974
 30
0.0
 40
6.0
100
AcDbArc
 50
270.0
 51
360.0
  0
LINE
  5
162
330
27
100
AcDbEntity
  8
1
  6
DASHED
100
AcDbLine
 10
-281.478531
 20
357.660634
 30
0.0
 11
-308.709994
 21
357.660634
 31
0.0
  0
LINE
  5
163
330
27
100
AcDbEntity
  8
1
  6
DASHED
100
AcDbLine
 10
-281.478531
 20
334.627313
 30
0.0
 11
-308.709994
 21
334.627313
 31
0.0
  0
LINE
  5
164
330
27
100
AcDbEntity
  8
1
  6
DASHED
100
AcDbLine
 10
-278.9618700000001
 20
337.143974
 30
0.0
 11
-278.9618700000001
 21
355.143974
 31
0.0
  0
ARC
  5
165
330
27
100
AcDbEntity
  8
1
  6
DASHED
100
AcDbCircle
 10
-281.478531
 20
355.143974
 30
0.0
 40
2.516659999999999
100
AcDbArc
 50
0.0
 51
90.0
  0
ARC
  5
166
330
27
100
AcDbEntity
  8
1
  6
DASHED
100
AcDbCircle
 10
-281.478531
 20
337.143974
 30
0.0
 40
2.516659999999999
100
AcDbArc
 50
270.0
 51
0.0
  0
LINE
  5
167
330
27
100
AcDbEntity
  8
1
  6
DASHED
100
AcDbLine
 10
-254.209994
 20
319.143974
 30
0.0
 11
-254.209994
 21
328.0746660000001
 31
0.0
  0
LINE
  5
168
330
27
100
AcDbEntity
  8
1
  6
DASHED
100
AcDbLine
 10
-254.209994
 20
364.213282
 30
0.0
 11
-254.209994
 21
373.143974
 31
0.0
  0
LINE
  5
169
330
27
100
AcDbEntity
  8
1
  6
DASHED
100
AcDbLine
 10
-265.332079
 20
360.474118
 30
0.0
 11
-278.9618700000001
 21
357.660634
 31
0.0
  0
LINE
  5
16A
330
27
100
AcDbEntity
  8
1
  6
DASHED
100
AcDbLine
 10
-265.332079
 20
331.81383
 30
0.0
 11
-278.9618700000001
 21
334.627313
 31
0.0
  0
LINE
  5
16B
330
27
100
AcDbEntity
  8
1
  6
DASHED
100
AcDbLine
 10
-257.174718
 20
360.349579
 30
0.0
 11
-257.577483
 21
360.241658
 31
0.0
  0
LINE
  5
16C
330
27
100
AcDbEntity
  8
1
  6
DASHED
100
AcDbLine
 10
-257.174718
 20
331.9383689999999
 30
0.0
 11
-257.577483
 21
332.04629
 31
0.0
  0
ARC
  5
16D
330
27
100
AcDbEntity
  8
1
  6
DASHED
100
AcDbCircle
 10
-258.209994
 20
364.213282
 30
0.0
 40
4.0
100
AcDbArc
 50
285.0
 51
360.0
  0
ARC
  5
16E
330
27
100
AcDbEntity
  8
1
  6
DASHED
100
AcDbCircle
 10
-258.209994
 20
328.0746660000001
 30
0.0
 40
4.0
100
AcDbArc
 50
0.0
 51
75.0
  0
ARC
  5
16F
330
27
100
AcDbEntity
  8
1
  6
DASHED
100
AcDbCircle
 10
-256.542207
 20
335.9099930000001
 30
0.0
 40
4.0
100
AcDbArc
 50
180.0
 51
255.0
  0
ARC
  5
170
330
27
100
AcDbEntity
  8
1
  6
DASHED
100
AcDbCircle
 10
-256.542207
 20
356.377955
 30
0.0
 40
4.0
100
AcDbArc
 50
105.0
 51
180.0
  0
LINE
  5
171
330
27
100
AcDbEntity
  8
1
  6
DASHED
100
AcDbLine
 10
-306.301026
 20
344.143974
 30
0.0
 11
-306.301026
 21
348.143974
 31
0.0
  0
LINE
  5
172
330
27
100
AcDbEntity
  8
1
  6
DASHED
100
AcDbLine
 10
-308.709994
 20
350.143974
 30
0.0
 11
-308.301026
 21
350.143974
 31
0.0
  0
LINE
  5
173
330
27
100
AcDbEntity
  8
1
  6
DASHED
100
AcDbLine
 10
-308.709994
 20
342.143974
 30
0.0
 11
-308.301026
 21
342.143974
 31
0.0
  0
ARC
  5
174
330
27
100
AcDbEntity
  8
1
  6
DASHED
100
AcDbCircle
 10
-308.301026
 20
348.143974
 30
0.0
 40
2.0
100
AcDbArc
 50
0.0
 51
90.0
  0
ARC
  5
175
330
27
100
AcDbEntity
  8
1
  6
DASHED
100
AcDbCircle
 10
-308.301026
 20
344.143974
 30
0.0
 40
2.0
100
AcDbArc
 50
270.0
 51
360.0
  0
CIRCLE
  5
176
330
27
100
AcDbEntity
  8
1
100
AcDbCircle
 10
-359.709994
 20
-349.9560259999999
 30
0.0
 40
104.5
  0
LINE
  5
177
330
27
100
AcDbEntity
  8
1
  6
DASHED
100
AcDbLine
 10
-410.704675
 20
374.143974
 30
0.0
 11
-464.209994
 21
374.143974
 31
0.0
  0
LINE
  5
178
330
27
100
AcDbEntity
  8
1
  6
DASHED
100
AcDbLine
 10
-410.704675
 20
318.143974
 30
0.0
 11
-464.209994
 21
318.143974
 31
0.0
  0
LINE
  5
179
330
27
100
AcDbEntity
  8
1
  6
DASHED
100
AcDbLine
 10
-465.209994
 20
373.143974
 30
0.0
 11
-464.209994
 21
374.143974
 31
0.0
  0
LINE
  5
17A
330
27
100
AcDbEntity
  8
1
  6
DASHED
100
AcDbLine
 10
-464.209994
 20
318.143974
 30
0.0
 11
-465.209994
 21
319.143974
 31
0.0
  0
LINE
  5
17B
330
27
100
AcDbEntity
  8
1
  6
DASHED
100
AcDbLine
 10
-465.209994
 20
373.143974
 30
0.0
 11
-410.709994
 21
373.143974
 31
0.0
  0
LINE
  5
17C
330
27
100
AcDbEntity
  8
1
  6
DASHED
100
AcDbLine
 10
-465.209994
 20
319.143974
 30
0.0
 11
-410.709994
 21
319.143974
 31
0.0
  0
LINE
  5
17D
330
27
100
AcDbEntity
  8
1
  6
DASHED
100
AcDbLine
 10
-457.332994
 20
337.143974
 30
0.0
 11
-457.332994
 21
355.143974
 31
0.0
  0
LINE
  5
17E
330
27
100
AcDbEntity
  8
1
  6
DASHED
100
AcDbLine
 10
-458.8777809999999
 20
335.9099930000001
 30
0.0
 11
-458.8777809999999
 21
356.377955
 31
0.0
  0
LINE
  5
17F
330
27
100
AcDbEntity
  8
1
  6
DASHED
100
AcDbLine
 10
-410.709994
 20
361.143974
 30
0.0
 11
-451.332994
 21
361.143974
 31
0.0
  0
LINE
  5
180
330
27
100
AcDbEntity
  8
1
  6
DASHED
100
AcDbLine
 10
-410.709994
 20
331.143974
 30
0.0
 11
-451.332994
 21
331.143974
 31
0.0
  0
ARC
  5
181
330
27
100
AcDbEntity
  8
1
  6
DASHED
100
AcDbCircle
 10
-451.332994
 20
355.143974
 30
0.0
 40
6.0
100
AcDbArc
 50
90.0
 51
180.0
  0
ARC
  5
182
330
27
100
AcDbEntity
  8
1
  6
DASHED
100
AcDbCircle
 10
-451.332994
 20
337.143974
 30
0.0
 40
6.0
100
AcDbArc
 50
180.0
 51
270.0
  0
LINE
  5
183
330
27
100
AcDbEntity
  8
1
  6
DASHED
100
AcDbLine
 10
-437.941458
 20
357.660634
 30
0.0
 11
-410.709994
 21
357.660634
 31
0.0
  0
LINE
  5
184
330
27
100
AcDbEntity
  8
1
  6
DASHED
100
AcDbLine
 10
-437.941458
 20
334.627313
 30
0.0
 11
-410.709994
 21
334.627313
 31
0.0
  0
LINE
  5
185
330
27
100
AcDbEntity
  8
1
  6
DASHED
100
AcDbLine
 10
-440.458118
 20
337.143974
 30
0.0
 11
-440.458118
 21
355.143974
 31
0.0
  0
ARC
  5
186
330
27
100
AcDbEntity
  8
1
  6
DASHED
100
AcDbCircle
 10
-437.941458
 20
355.143974
 30
0.0
 40
2.516659999999999
100
AcDbArc
 50
90.0
 51
180.0
  0
ARC
  5
187
330
27
100
AcDbEntity
  8
1
  6
DASHED
100
AcDbCircle
 10
-437.941458
 20
337.143974
 30
0.0
 40
2.516659999999999
100
AcDbArc
 50
180.0
 51
270.0
  0
LINE
  5
188
330
27
100
AcDbEntity
  8
1
  6
DASHED
100
AcDbLine
 10
-465.209994
 20
319.143974
 30
0.0
 11
-465.209994
 21
328.0746660000001
 31
0.0
  0
LINE
  5
189
330
27
100
AcDbEntity
  8
1
  6
DASHED
100
AcDbLine
 10
-465.209994
 20
364.213282
 30
0.0
 11
-465.209994
 21
373.143974
 31
0.0
  0
LINE
  5
18A
330
27
100
AcDbEntity
  8
1
  6
DASHED
100
AcDbLine
 10
-454.0879089999999
 20
360.474118
 30
0.0
 11
-440.458118
 21
357.660634
 31
0.0
  0
LINE
  5
18B
330
27
100
AcDbEntity
  8
1
  6
DASHED
100
AcDbLine
 10
-454.0879089999999
 20
331.81383
 30
0.0
 11
-440.458118
 21
334.627313
 31
0.0
  0
LINE
  5
18C
330
27
100
AcDbEntity
  8
1
  6
DASHED
100
AcDbLine
 10
-462.24527
 20
360.349579
 30
0.0
 11
-461.8425049999999
 21
360.241658
 31
0.0
  0
LINE
  5
18D
330
27
100
AcDbEntity
  8
1
  6
DASHED
100
AcDbLine
 10
-462.24527
 20
331.9383689999999
 30
0.0
 11
-461.8425049999999
 21
332.04629
 31
0.0
  0
ARC
  5
18E
330
27
100
AcDbEntity
  8
1
  6
DASHED
100
AcDbCircle
 10
-461.209994
 20
364.213282
 30
0.0
 40
4.0
100
AcDbArc
 50
180.0
 51
255.0
  0
ARC
  5
18F
330
27
100
AcDbEntity
  8
1
  6
DASHED
100
AcDbCircle
 10
-461.209994
 20
328.0746660000001
 30
0.0
 40
4.0
100
AcDbArc
 50
105.0
 51
180.0
  0
ARC
  5
190
330
27
100
AcDbEntity
  8
1
  6
DASHED
100
AcDbCircle
 10
-462.8777809999999
 20
335.9099930000001
 30
0.0
 40
4.0
100
AcDbArc
 50
285.0
 51
360.0
  0
ARC
  5
191
330
27
100
AcDbEntity
  8
1
  6
DASHED
100
AcDbCircle
 10
-462.8777809999999
 20
356.377955
 30
0.0
 40
4.0
100
AcDbArc
 50
360.0
 51
75.0
  0
LINE
  5
192
330
27
100
AcDbEntity
  8
1
  6
DASHED
100
AcDbLine
 10
-413.1189619999999
 20
344.143974
 30
0.0
 11
-413.1189619999999
 21
348.143974
 31
0.0
  0
LINE
  5
193
330
27
100
AcDbEntity
  8
1
  6
DASHED
100
AcDbLine
 10
-410.709994
 20
350.143974
 30
0.0
 11
-411.118962
 21
350.143974
 31
0.0
  0
LINE
  5
194
330
27
100
AcDbEntity
  8
1
  6
DASHED
100
AcDbLine
 10
-410.709994
 20
342.143974
 30
0.0
 11
-411.118962
 21
342.143974
 31
0.0
  0
ARC
  5
195
330
27
100
AcDbEntity
  8
1
  6
DASHED
100
AcDbCircle
 10
-411.118962
 20
348.143974
 30
0.0
 40
2.0
100
AcDbArc
 50
90.0
 51
180.0
  0
ARC
  5
196
330
27
100
AcDbEntity
  8
1
  6
DASHED
100
AcDbCircle
 10
-411.118962
 20
344.143974
 30
0.0
 40
2.0
100
AcDbArc
 50
180.0
 51
270.0
  0
CIRCLE
  5
197
330
27
100
AcDbEntity
  8
1
100
AcDbCircle
 10
-359.709994
 20
-349.9560259999999
 30
0.0
 40
98.0
  0
CIRCLE
  5
198
330
27
100
AcDbEntity
  8
1
100
AcDbCircle
 10
-359.709994
 20
-349.9560259999999
 30
0.0
 40
94.55
  0
CIRCLE
  5
199
330
27
100
AcDbEntity
  8
1
100
AcDbCircle
 10
-359.709994
 20
-349.9560259999999
 30
0.0
 40
82.24999999999999
  0
CIRCLE
  5
19A
330
27
100
AcDbEntity
  8
1
100
AcDbCircle
 10
-359.709994
 20
-349.9560259999999
 30
0.0
 40
76.75
  0
LINE
  5
19B
330
27
100
AcDbEntity
  8
1
  6
CENTER
 62
     2
100
AcDbLine
 10
-359.709994
 20
92.81955699999999
 30
0.0
 11
-359.709994
 21
-494.65142
 31
0.0
  0
LINE
  5
19C
330
27
100
AcDbEntity
  8
1
  6
CENTER
 62
     2
100
AcDbLine
 10
129.945448
 20
92.81955699999999
 30
0.0
 11
129.945448
 21
-494.65142
 31
0.0
  0
LINE
  5
19D
330
27
100
AcDbEntity
  8
1
100
AcDbLine
 10
-377.155665
 20
-276.856026
 30
0.0
 11
-342.935311
 21
-276.856026
 31
0.0
  0
LINE
  5
19E
330
27
100
AcDbEntity
  8
1
100
AcDbLine
 10
-377.155665
 20
-423.0560259999999
 30
0.0
 11
-342.935311
 21
-423.0560259999999
 31
0.0
  0
ARC
  5
19F
330
27
100
AcDbEntity
  8
1
100
AcDbCircle
 10
-359.709994
 20
-349.9560259999999
 30
0.0
 40
75.0
100
AcDbArc
 50
102.924238
 51
257.075762
  0
ARC
  5
1A0
330
27
100
AcDbEntity
  8
1
100
AcDbCircle
 10
-359.709994
 20
-349.9560259999999
 30
0.0
 40
75.0
100
AcDbArc
 50
282.924238
 51
77.075762
  0
LINE
  5
1A1
330
27
100
AcDbEntity
  8
1
100
AcDbLine
 10
-356.209994
 20
-378.702874
 30
0.0
 11
-356.209994
 21
-354.019352
 31
0.0
  0
LINE
  5
1A2
330
27
100
AcDbEntity
  8
1
100
AcDbLine
 10
-351.013842
 20
-378.248269
 30
0.0
 11
-351.013842
 21
-354.7060259999999
 31
0.0
  0
LINE
  5
1A3
330
27
100
AcDbEntity
  8
1
100
AcDbLine
 10
-291.652419
 20
-353.3083299999999
 30
0.0
 11
-296.289088
 21
-352.307202
 31
0.0
  0
LINE
  5
1A4
330
27
100
AcDbEntity
  8
1
100
AcDbLine
 10
-351.611364
 20
-353.545171
 30
0.0
 11
-355.604102
 21
-352.47031
 31
0.0
  0
LINE
  5
1A5
330
27
100
AcDbEntity
  8
1
100
AcDbLine
 10
-291.732517
 20
-353.706026
 30
0.0
 11
-350.577896
 21
-353.706026
 31
0.0
  0
LINE
  5
1A6
330
27
100
AcDbEntity
  8
1
100
AcDbLine
 10
-297.260137
 20
-352.307202
 30
0.0
 11
-367.210006
 21
-352.307202
 31
0.0
  0
ARC
  5
1A7
330
27
100
AcDbEntity
  8
1
100
AcDbCircle
 10
-359.709994
 20
-349.9560259999999
 30
0.0
 40
70.0
100
AcDbArc
 50
358.525313
 51
1.474687
  0
ARC
  5
1A8
330
27
100
AcDbEntity
  8
1
100
AcDbCircle
 10
-359.709994
 20
-349.9560259999999
 30
0.0
 40
63.464473
100
AcDbArc
 50
358.760532
 51
1.239468
  0
ARC
  5
1A9
330
27
100
AcDbEntity
  8
1
100
AcDbCircle
 10
-291.732517
 20
-351.706026
 30
0.0
 40
2.0
100
AcDbArc
 50
270.0
 51
358.525313
  0
ARC
  5
1AA
330
27
100
AcDbEntity
  8
1
100
AcDbCircle
 10
-297.260137
 20
-351.307202
 30
0.0
 40
1.0
100
AcDbArc
 50
270.0
 51
358.760532
  0
LINE
  5
1AB
330
27
100
AcDbEntity
  8
1
100
AcDbLine
 10
-384.207682
 20
-415.4560259999999
 30
0.0
 11
-379.265687
 21
-415.4560259999999
 31
0.0
  0
LINE
  5
1AC
330
27
100
AcDbEntity
  8
1
100
AcDbLine
 10
-335.212306
 20
-415.4560259999999
 30
0.0
 11
-340.154302
 21
-415.4560259999999
 31
0.0
  0
LINE
  5
1AD
330
27
100
AcDbEntity
  8
1
100
AcDbLine
 10
-368.406147
 20
-380.882584
 30
0.0
 11
-368.406147
 21
-354.019352
 31
0.0
  0
LINE
  5
1AE
330
27
100
AcDbEntity
  8
1
100
AcDbLine
 10
-363.209994
 20
-379.665249
 30
0.0
 11
-363.209994
 21
-354.019352
 31
0.0
  0
ARC
  5
1AF
330
27
100
AcDbEntity
  8
1
100
AcDbCircle
 10
-342.209994
 20
-413.49397
 30
0.0
 40
2.0
100
AcDbArc
 50
180.0
 51
231.317813
  0
ARC
  5
1B0
330
27
100
AcDbEntity
  8
1
100
AcDbCircle
 10
-344.709994
 20
-416.616469
 30
0.0
 40
2.0
100
AcDbArc
 50
0.0
 51
51.317813
  0
LINE
  5
1B1
330
27
100
AcDbEntity
  8
1
100
AcDbLine
 10
-346.124549
 20
-414.1466249999999
 30
0.0
 11
-371.48951
 21
-414.1466249999999
 31
0.0
  0
LINE
  5
1B2
330
27
100
AcDbEntity
  8
1
100
AcDbLine
 10
-344.709994
 20
-415.4560259999999
 30
0.0
 11
-373.023721
 21
-415.4560259999999
 31
0.0
  0
ARC
  5
1B3
330
27
100
AcDbEntity
  8
1
100
AcDbCircle
 10
-359.709994
 20
-531.1106549999999
 30
0.0
 40
109.20152
100
AcDbArc
 50
83.24238299999999
 51
96.75761700000002
  0
ARC
  5
1B4
330
27
100
AcDbEntity
  8
1
100
AcDbCircle
 10
-374.148211
 20
-409.2615649999999
 30
0.0
 40
13.5
100
AcDbArc
 50
256.317251
 51
276.757617
  0
ARC
  5
1B5
330
27
100
AcDbEntity
  8
1
100
AcDbCircle
 10
-345.271778
 20
-409.2615649999999
 30
0.0
 40
13.5
100
AcDbArc
 50
263.242383
 51
283.682749
  0
LINE
  5
1B6
330
27
100
AcDbEntity
  8
1
100
AcDbLine
 10
-353.6641
 20
-351.64055
 30
0.0
 11
-353.6641
 21
-348.425846
 31
0.0
  0
LINE
  5
1B7
330
27
100
AcDbEntity
  8
1
100
AcDbLine
 10
-353.564601
 20
-353.019352
 30
0.0
 11
-369.406147
 21
-353.019352
 31
0.0
  0
LINE
  5
1B8
330
27
100
AcDbEntity
  8
1
100
AcDbLine
 10
-356.209994
 20
-321.209178
 30
0.0
 11
-356.209994
 21
-345.8927
 31
0.0
  0
LINE
  5
1B9
330
27
100
AcDbEntity
  8
1
100
AcDbLine
 10
-351.013842
 20
-321.663783
 30
0.0
 11
-351.013842
 21
-345.206026
 31
0.0
  0
LINE
  5
1BA
330
27
100
AcDbEntity
  8
1
100
AcDbLine
 10
-351.611364
 20
-346.366881
 30
0.0
 11
-355.604102
 21
-347.441742
 31
0.0
  0
LINE
  5
1BB
330
27
100
AcDbEntity
  8
1
100
AcDbLine
 10
-291.732517
 20
-346.2060259999999
 30
0.0
 11
-350.577896
 21
-346.2060259999999
 31
0.0
  0
LINE
  5
1BC
330
27
100
AcDbEntity
  8
1
100
AcDbLine
 10
-297.260137
 20
-347.60485
 30
0.0
 11
-367.210006
 21
-347.60485
 31
0.0
  0
LINE
  5
1BD
330
27
100
AcDbEntity
  8
1
100
AcDbLine
 10
-299.2630660000001
 20
-316.480123
 30
0.0
 11
-342.384306
 21
-312.707503
 31
0.0
  0
LINE
  5
1BE
330
27
100
AcDbEntity
  8
1
100
AcDbLine
 10
-304.365057
 20
-322.158238
 30
0.0
 11
-360.40724
 21
-317.255182
 31
0.0
  0
LINE
  5
1BF
330
27
100
AcDbEntity
  8
1
100
AcDbLine
 10
-368.406147
 20
-319.029468
 30
0.0
 11
-368.406147
 21
-345.8927
 31
0.0
  0
LINE
  5
1C0
330
27
100
AcDbEntity
  8
1
100
AcDbLine
 10
-363.209994
 20
-320.246803
 30
0.0
 11
-363.209994
 21
-345.8927
 31
0.0
  0
LINE
  5
1C1
330
27
100
AcDbEntity
  8
1
100
AcDbLine
 10
-344.209994
 20
-286.304718
 30
0.0
 11
-344.209994
 21
-310.715114
 31
0.0
  0
LINE
  5
1C2
330
27
100
AcDbEntity
  8
1
100
AcDbLine
 10
-346.561623
 20
-285.765427
 30
0.0
 11
-369.682484
 21
-285.765427
 31
0.0
  0
LINE
  5
1C3
330
27
100
AcDbEntity
  8
1
100
AcDbLine
 10
-353.6641
 20
-348.271502
 30
0.0
 11
-353.6641
 21
-351.486206
 31
0.0
  0
LINE
  5
1C4
330
27
100
AcDbEntity
  8
1
100
AcDbLine
 10
-354.102822
 20
-346.8927
 30
0.0
 11
-369.214469
 21
-346.8927
 31
0.0
  0
ARC
  5
1C5
330
27
100
AcDbEntity
  8
1
100
AcDbCircle
 10
-346.405622
 20
-293.367588
 30
0.0
 40
20.315222
100
AcDbArc
 50
226.422272
 51
265.4244339999999
  0
LINE
  5
1C6
330
27
100
AcDbEntity
  8
1
100
AcDbLine
 10
-291.652419
 20
-346.603722
 30
0.0
 11
-296.289088
 21
-347.60485
 31
0.0
  0
LINE
  5
1C7
330
27
100
AcDbEntity
  8
1
100
AcDbLine
 10
-291.732517
 20
-346.2060259999999
 30
0.0
 11
-350.577896
 21
-346.2060259999999
 31
0.0
  0
LINE
  5
1C8
330
27
100
AcDbEntity
  8
1
100
AcDbLine
 10
-297.260137
 20
-347.60485
 30
0.0
 11
-368.209994
 21
-347.60485
 31
0.0
  0
LINE
  5
1C9
330
27
100
AcDbEntity
  8
1
100
AcDbLine
 10
-305.767188
 20
-317.315253
 30
0.0
 11
-348.026245
 21
-313.618065
 31
0.0
  0
LINE
  5
1CA
330
27
100
AcDbEntity
  8
1
100
AcDbLine
 10
-297.833106
 20
-324.133877
 30
0.0
 11
-367.90724
 21
-318.003185
 31
0.0
  0
ARC
  5
1CB
330
27
100
AcDbEntity
  8
1
100
AcDbCircle
 10
-359.709994
 20
-349.9560259999999
 30
0.0
 40
70.0
100
AcDbArc
 50
358.525313
 51
1.474687
  0
ARC
  5
1CC
330
27
100
AcDbEntity
  8
1
100
AcDbCircle
 10
-359.709994
 20
-349.9560259999999
 30
0.0
 40
63.464473
100
AcDbArc
 50
358.760532
 51
1.239468
  0
LINE
  5
1CD
330
27
100
AcDbEntity
  8
1
100
AcDbLine
 10
-300.1777029999999
 20
-316.796235
 30
0.0
 11
-304.481285
 21
-317.273974
 31
0.0
  0
LINE
  5
1CE
330
27
100
AcDbEntity
  8
1
100
AcDbLine
 10
-298.080324
 20
-323.493362
 30
0.0
 11
-302.581424
 21
-322.314285
 31
0.0
  0
ARC
  5
1CF
330
27
100
AcDbEntity
  8
1
100
AcDbCircle
 10
-359.709994
 20
-349.9560259999999
 30
0.0
 40
70.0
100
AcDbArc
 50
24.144376
 51
27.5804
  0
ARC
  5
1D0
330
27
100
AcDbEntity
  8
1
100
AcDbCircle
 10
-359.709994
 20
-349.9560259999999
 30
0.0
 40
63.464473
100
AcDbArc
 50
27.449444
 51
30.437703
  0
ARC
  5
1D1
330
27
100
AcDbEntity
  8
1
100
AcDbCircle
 10
-291.732517
 20
-348.2060259999999
 30
0.0
 40
2.0
100
AcDbArc
 50
1.474687
 51
90.0
  0
ARC
  5
1D2
330
27
100
AcDbEntity
  8
1
100
AcDbCircle
 10
-297.658794
 20
-322.141487
 30
0.0
 40
2.0
100
AcDbArc
 50
265.0
 51
24.144376
  0
ARC
  5
1D3
330
27
100
AcDbEntity
  8
1
100
AcDbCircle
 10
-299.437378
 20
-318.472512
 30
0.0
 40
2.0
100
AcDbArc
 50
27.5804
 51
85.0
  0
ARC
  5
1D4
330
27
100
AcDbEntity
  8
1
100
AcDbCircle
 10
-304.277901
 20
-321.162043
 30
0.0
 40
1.0
100
AcDbArc
 50
265.0
 51
27.449444
  0
ARC
  5
1D5
330
27
100
AcDbEntity
  8
1
100
AcDbCircle
 10
-305.854344
 20
-318.311448
 30
0.0
 40
1.0
100
AcDbArc
 50
30.437703
 51
85.0
  0
ARC
  5
1D6
330
27
100
AcDbEntity
  8
1
100
AcDbCircle
 10
-297.260137
 20
-348.60485
 30
0.0
 40
1.0
100
AcDbArc
 50
1.239468
 51
90.0
  0
LINE
  5
1D7
330
27
100
AcDbEntity
  8
1
100
AcDbLine
 10
-291.732517
 20
-353.706026
 30
0.0
 11
-350.577896
 21
-353.706026
 31
0.0
  0
LINE
  5
1D8
330
27
100
AcDbEntity
  8
1
100
AcDbLine
 10
-297.260137
 20
-352.307202
 30
0.0
 11
-368.209994
 21
-352.307202
 31
0.0
  0
LINE
  5
1D9
330
27
100
AcDbEntity
  8
1
100
AcDbLine
 10
-367.709994
 20
-290.870964
 30
0.0
 11
-367.709994
 21
-309.285625
 31
0.0
  0
ARC
  5
1DA
330
27
100
AcDbEntity
  8
1
100
AcDbCircle
 10
-359.709994
 20
-309.285625
 30
0.0
 40
8.0
100
AcDbArc
 50
180.0
 51
265.0
  0
LINE
  5
1DB
330
27
100
AcDbEntity
  8
1
100
AcDbLine
 10
-299.2630660000001
 20
-383.431929
 30
0.0
 11
-342.384306
 21
-387.2045490000001
 31
0.0
  0
LINE
  5
1DC
330
27
100
AcDbEntity
  8
1
100
AcDbLine
 10
-304.365057
 20
-377.753814
 30
0.0
 11
-360.40724
 21
-382.65687
 31
0.0
  0
LINE
  5
1DD
330
27
100
AcDbEntity
  8
1
100
AcDbLine
 10
-344.209994
 20
-413.49397
 30
0.0
 11
-344.209994
 21
-389.196938
 31
0.0
  0
ARC
  5
1DE
330
27
100
AcDbEntity
  8
1
100
AcDbCircle
 10
-346.405622
 20
-406.5444639999999
 30
0.0
 40
20.315222
100
AcDbArc
 50
94.57556600000001
 51
133.577728
  0
LINE
  5
1DF
330
27
100
AcDbEntity
  8
1
100
AcDbLine
 10
-305.767188
 20
-382.596799
 30
0.0
 11
-348.026245
 21
-386.293987
 31
0.0
  0
LINE
  5
1E0
330
27
100
AcDbEntity
  8
1
100
AcDbLine
 10
-297.833106
 20
-375.778175
 30
0.0
 11
-366.4891
 21
-381.784796
 31
0.0
  0
LINE
  5
1E1
330
27
100
AcDbEntity
  8
1
100
AcDbLine
 10
-300.1777029999999
 20
-383.115817
 30
0.0
 11
-304.481285
 21
-382.638078
 31
0.0
  0
LINE
  5
1E2
330
27
100
AcDbEntity
  8
1
100
AcDbLine
 10
-298.080324
 20
-376.41869
 30
0.0
 11
-302.581424
 21
-377.597767
 31
0.0
  0
ARC
  5
1E3
330
27
100
AcDbEntity
  8
1
100
AcDbCircle
 10
-359.709994
 20
-349.9560259999999
 30
0.0
 40
70.0
100
AcDbArc
 50
332.4196
 51
335.855624
  0
ARC
  5
1E4
330
27
100
AcDbEntity
  8
1
100
AcDbCircle
 10
-359.709994
 20
-349.9560259999999
 30
0.0
 40
63.464473
100
AcDbArc
 50
329.562297
 51
332.550556
  0
ARC
  5
1E5
330
27
100
AcDbEntity
  8
1
100
AcDbCircle
 10
-297.658794
 20
-377.770565
 30
0.0
 40
2.0
100
AcDbArc
 50
335.855624
 51
95.0
  0
ARC
  5
1E6
330
27
100
AcDbEntity
  8
1
100
AcDbCircle
 10
-299.437378
 20
-381.43954
 30
0.0
 40
2.0
100
AcDbArc
 50
275.0
 51
332.4196
  0
ARC
  5
1E7
330
27
100
AcDbEntity
  8
1
100
AcDbCircle
 10
-304.277901
 20
-378.750009
 30
0.0
 40
1.0
100
AcDbArc
 50
332.550556
 51
95.0
  0
ARC
  5
1E8
330
27
100
AcDbEntity
  8
1
100
AcDbCircle
 10
-305.854344
 20
-381.600604
 30
0.0
 40
1.0
100
AcDbArc
 50
275.0
 51
329.562297
  0
LINE
  5
1E9
330
27
100
AcDbEntity
  8
1
100
AcDbLine
 10
-367.709994
 20
-409.041088
 30
0.0
 11
-367.709994
 21
-390.626427
 31
0.0
  0
ARC
  5
1EA
330
27
100
AcDbEntity
  8
1
100
AcDbCircle
 10
-359.709994
 20
-390.626427
 30
0.0
 40
8.0
100
AcDbArc
 50
95.0
 51
180.0
  0
LINE
  5
1EB
330
27
100
AcDbEntity
  8
1
100
AcDbLine
 10
-384.207682
 20
-284.456026
 30
0.0
 11
-379.265687
 21
-284.456026
 31
0.0
  0
ARC
  5
1EC
330
27
100
AcDbEntity
  8
1
100
AcDbCircle
 10
-373.291854
 20
-283.295583
 30
0.0
 40
2.0
100
AcDbArc
 50
180.0
 51
231.317813
  0
LINE
  5
1ED
330
27
100
AcDbEntity
  8
1
100
AcDbLine
 10
-346.124549
 20
-285.765427
 30
0.0
 11
-371.823011
 21
-285.765427
 31
0.0
  0
LINE
  5
1EE
330
27
100
AcDbEntity
  8
1
100
AcDbLine
 10
-344.709994
 20
-284.456026
 30
0.0
 11
-373.291854
 21
-284.456026
 31
0.0
  0
LINE
  5
1EF
330
27
100
AcDbEntity
  8
1
100
AcDbLine
 10
-335.212306
 20
-284.456026
 30
0.0
 11
-340.154302
 21
-284.456026
 31
0.0
  0
ARC
  5
1F0
330
27
100
AcDbEntity
  8
1
100
AcDbCircle
 10
-344.709994
 20
-283.295583
 30
0.0
 40
2.0
100
AcDbArc
 50
308.682187
 51
360.0
  0
ARC
  5
1F1
330
27
100
AcDbEntity
  8
1
100
AcDbCircle
 10
-373.291854
 20
-416.616469
 30
0.0
 40
2.0
100
AcDbArc
 50
128.682187
 51
180.0
  0
LINE
  5
1F2
330
27
100
AcDbEntity
  8
1
100
AcDbLine
 10
-349.709994
 20
-288.844421
 30
0.0
 11
-349.709994
 21
-306.140107
 31
0.0
  0
ARC
  5
1F3
330
27
100
AcDbEntity
  8
1
100
AcDbCircle
 10
-341.709994
 20
-306.140107
 30
0.0
 40
8.0
100
AcDbArc
 50
180.0
 51
265.000001
  0
ARC
  5
1F4
330
27
100
AcDbEntity
  8
1
100
AcDbCircle
 10
-342.209994
 20
-310.715114
 30
0.0
 40
2.0
100
AcDbArc
 50
180.0
 51
264.999999
  0
ARC
  5
1F5
330
27
100
AcDbEntity
  8
1
100
AcDbCircle
 10
-349.013842
 20
-321.663783
 30
0.0
 40
2.0
100
AcDbArc
 50
85.0
 51
180.0
  0
ARC
  5
1F6
330
27
100
AcDbEntity
  8
1
100
AcDbCircle
 10
-354.209994
 20
-321.209178
 30
0.0
 40
2.0
100
AcDbArc
 50
85.0
 51
180.0
  0
ARC
  5
1F7
330
27
100
AcDbEntity
  8
1
100
AcDbCircle
 10
-365.209994
 20
-320.246803
 30
0.0
 40
2.0
100
AcDbArc
 50
0.0
 51
85.0
  0
LINE
  5
1F8
330
27
100
AcDbEntity
  8
1
100
AcDbLine
 10
-373.791854
 20
-310.157699
 30
0.0
 11
-373.791854
 21
-286.864868
 31
0.0
  0
ARC
  5
1F9
330
27
100
AcDbEntity
  8
1
100
AcDbCircle
 10
-365.791854
 20
-310.157699
 30
0.0
 40
8.0
100
AcDbArc
 50
180.0
 51
265.0
  0
ARC
  5
1FA
330
27
100
AcDbEntity
  8
1
100
AcDbCircle
 10
-370.406147
 20
-319.029468
 30
0.0
 40
2.0
100
AcDbArc
 50
0.0
 51
62.520621
  0
LINE
  5
1FB
330
27
100
AcDbEntity
  8
1
100
AcDbLine
 10
-373.791854
 20
-347.8927
 30
0.0
 11
-373.791854
 21
-352.019352
 31
0.0
  0
LINE
  5
1FC
330
27
100
AcDbEntity
  8
1
100
AcDbLine
 10
-369.406147
 20
-346.8927
 30
0.0
 11
-372.791854
 21
-346.8927
 31
0.0
  0
LINE
  5
1FD
330
27
100
AcDbEntity
  8
1
100
AcDbLine
 10
-372.698117
 20
-347.032243
 30
0.0
 11
-368.210006
 21
-347.60485
 31
0.0
  0
ARC
  5
1FE
330
27
100
AcDbEntity
  8
1
100
AcDbCircle
 10
-372.791854
 20
-347.8927
 30
0.0
 40
1.0
100
AcDbArc
 50
90.0
 51
180.0
  0
LINE
  5
1FF
330
27
100
AcDbEntity
  8
1
100
AcDbLine
 10
-368.210006
 20
-348.60485
 30
0.0
 11
-368.210006
 21
-351.307202
 31
0.0
  0
ARC
  5
200
330
27
100
AcDbEntity
  8
1
100
AcDbCircle
 10
-372.791854
 20
-352.019352
 30
0.0
 40
1.0
100
AcDbArc
 50
180.0
 51
270.0
  0
LINE
  5
201
330
27
100
AcDbEntity
  8
1
100
AcDbLine
 10
-372.698117
 20
-352.87981
 30
0.0
 11
-368.210006
 21
-352.307202
 31
0.0
  0
LINE
  5
202
330
27
100
AcDbEntity
  8
1
100
AcDbLine
 10
-369.709996
 20
-353.019352
 30
0.0
 11
-372.791854
 21
-353.019352
 31
0.0
  0
ARC
  5
203
330
27
100
AcDbEntity
  8
1
100
AcDbCircle
 10
-369.406147
 20
-345.8927
 30
0.0
 40
1.0
100
AcDbArc
 50
270.0
 51
360.0
  0
ARC
  5
204
330
27
100
AcDbEntity
  8
1
100
AcDbCircle
 10
-364.209994
 20
-345.8927
 30
0.0
 40
1.0
100
AcDbArc
 50
270.0
 51
360.0
  0
ARC
  5
205
330
27
100
AcDbEntity
  8
1
100
AcDbCircle
 10
-355.209994
 20
-345.8927
 30
0.0
 40
1.0
100
AcDbArc
 50
180.0
 51
270.0
  0
ARC
  5
206
330
27
100
AcDbEntity
  8
1
100
AcDbCircle
 10
-350.013842
 20
-345.206026
 30
0.0
 40
1.0
100
AcDbArc
 50
180.0
 51
270.0
  0
ARC
  5
207
330
27
100
AcDbEntity
  8
1
100
AcDbCircle
 10
-350.013842
 20
-354.7060259999999
 30
0.0
 40
1.0
100
AcDbArc
 50
90.0
 51
180.0
  0
ARC
  5
208
330
27
100
AcDbEntity
  8
1
100
AcDbCircle
 10
-364.209994
 20
-354.019352
 30
0.0
 40
1.0
100
AcDbArc
 50
0.0
 51
90.0
  0
ARC
  5
209
330
27
100
AcDbEntity
  8
1
100
AcDbCircle
 10
-369.406147
 20
-354.019352
 30
0.0
 40
1.0
100
AcDbArc
 50
0.0
 51
90.0
  0
ARC
  5
20A
330
27
100
AcDbEntity
  8
1
100
AcDbCircle
 10
-355.209994
 20
-354.019352
 30
0.0
 40
1.0
100
AcDbArc
 50
90.0
 51
180.0
  0
ARC
  5
20B
330
27
100
AcDbEntity
  8
1
100
AcDbCircle
 10
-367.210006
 20
-348.60485
 30
0.0
 40
1.0
100
AcDbArc
 50
90.0
 51
180.0
  0
ARC
  5
20C
330
27
100
AcDbEntity
  8
1
100
AcDbCircle
 10
-367.210006
 20
-351.307202
 30
0.0
 40
1.0
100
AcDbArc
 50
180.0
 51
270.0
  0
LINE
  5
20D
330
27
100
AcDbEntity
  8
1
100
AcDbLine
 10
-349.709994
 20
-411.067631
 30
0.0
 11
-349.709994
 21
-393.771945
 31
0.0
  0
ARC
  5
20E
330
27
100
AcDbEntity
  8
1
100
AcDbCircle
 10
-341.709994
 20
-393.771945
 30
0.0
 40
8.0
100
AcDbArc
 50
94.999999
 51
180.0
  0
ARC
  5
20F
330
27
100
AcDbEntity
  8
1
100
AcDbCircle
 10
-342.209994
 20
-389.196938
 30
0.0
 40
2.0
100
AcDbArc
 50
95.00000099999999
 51
180.0
  0
ARC
  5
210
330
27
100
AcDbEntity
  8
1
100
AcDbCircle
 10
-349.013842
 20
-378.248269
 30
0.0
 40
2.0
100
AcDbArc
 50
180.0
 51
275.0
  0
ARC
  5
211
330
27
100
AcDbEntity
  8
1
100
AcDbCircle
 10
-354.209994
 20
-378.702874
 30
0.0
 40
2.0
100
AcDbArc
 50
180.0
 51
275.0
  0
ARC
  5
212
330
27
100
AcDbEntity
  8
1
100
AcDbCircle
 10
-365.209994
 20
-379.665249
 30
0.0
 40
2.0
100
AcDbArc
 50
275.0
 51
360.0
  0
LINE
  5
213
330
27
100
AcDbEntity
  8
1
100
AcDbLine
 10
-373.791854
 20
-389.754354
 30
0.0
 11
-373.791854
 21
-411.986317
 31
0.0
  0
ARC
  5
214
330
27
100
AcDbEntity
  8
1
100
AcDbCircle
 10
-365.791854
 20
-389.754354
 30
0.0
 40
8.0
100
AcDbArc
 50
95.0
 51
180.0
  0
ARC
  5
215
330
27
100
AcDbEntity
  8
1
100
AcDbCircle
 10
-370.406147
 20
-380.882584
 30
0.0
 40
2.0
100
AcDbArc
 50
297.479379
 51
360.0
  0
POINT
  5
216
330
27
100
AcDbEntity
  8
1
100
AcDbPoint
 10
-359.709994
 20
-349.9560259999999
 30
0.0
  0
LINE
  5
217
330
27
100
AcDbEntity
  8
2
100
AcDbLine
 10
-272.709994
 20
386.143974
 30
0.0
 11
-272.709994
 21
312.143974
 31
0.0
  0
LINE
  5
218
330
27
100
AcDbEntity
  8
2
100
AcDbLine
 10
-428.709994
 20
399.143974
 30
0.0
 11
-280.709994
 21
399.143974
 31
0.0
  0
ARC
  5
219
330
27
100
AcDbEntity
  8
2
100
AcDbCircle
 10
-280.709994
 20
393.143974
 30
0.0
 40
6.0
100
AcDbArc
 50
0.0
 51
90.0
  0
LINE
  5
21A
330
27
100
AcDbEntity
  8
2
100
AcDbLine
 10
-274.709994
 20
393.143974
 30
0.0
 11
-274.709994
 21
305.143974
 31
0.0
  0
LINE
  5
21B
330
27
100
AcDbEntity
  8
2
100
AcDbLine
 10
-434.709994
 20
305.143974
 30
0.0
 11
-434.709994
 21
393.143974
 31
0.0
  0
LINE
  5
21C
330
27
100
AcDbEntity
  8
2
100
AcDbLine
 10
-439.0091459999999
 20
299.143974
 30
0.0
 11
-280.709994
 21
299.143974
 31
0.0
  0
ARC
  5
21D
330
27
100
AcDbEntity
  8
2
100
AcDbCircle
 10
-280.709994
 20
305.143974
 30
0.0
 40
6.0
100
AcDbArc
 50
270.0
 51
360.0
  0
ARC
  5
21E
330
27
100
AcDbEntity
  8
2
100
AcDbCircle
 10
-428.709994
 20
305.143974
 30
0.0
 40
6.0
100
AcDbArc
 50
180.0
 51
270.0
  0
LINE
  5
21F
330
27
100
AcDbEntity
  8
2
100
AcDbLine
 10
-247.027051
 20
300.143974
 30
0.0
 11
-277.409994
 21
300.143974
 31
0.0
  0
LINE
  5
220
330
27
100
AcDbEntity
  8
2
100
AcDbLine
 10
-238.709994
 20
270.143974
 30
0.0
 11
-525.709994
 21
270.143974
 31
0.0
  0
LINE
  5
221
330
27
100
AcDbEntity
  8
2
100
AcDbLine
 10
-526.709994
 20
269.143974
 30
0.0
 11
-526.709994
 21
257.143974
 31
0.0
  0
LINE
  5
222
330
27
100
AcDbEntity
  8
2
100
AcDbLine
 10
-526.709994
 20
265.143974
 30
0.0
 11
-237.709994
 21
265.143974
 31
0.0
  0
LINE
  5
223
330
27
100
AcDbEntity
  8
2
100
AcDbLine
 10
-237.709994
 20
269.143974
 30
0.0
 11
-237.709994
 21
255.143974
 31
0.0
  0
LINE
  5
224
330
27
100
AcDbEntity
  8
2
100
AcDbLine
 10
-517.870233
 20
309.143974
 30
0.0
 11
-449.009146
 21
309.143974
 31
0.0
  0
LINE
  5
225
330
27
100
AcDbEntity
  8
2
100
AcDbLine
 10
-234.709994
 20
296.143974
 30
0.0
 11
-234.709994
 21
408.143974
 31
0.0
  0
LINE
  5
226
330
27
100
AcDbEntity
  8
2
100
AcDbLine
 10
-234.709994
 20
296.143974
 30
0.0
 11
-239.965036
 21
296.143974
 31
0.0
  0
LINE
  5
227
330
27
100
AcDbEntity
  8
2
100
AcDbLine
 10
-234.709994
 20
408.143974
 30
0.0
 11
-238.709994
 21
408.143974
 31
0.0
  0
ARC
  5
228
330
27
100
AcDbEntity
  8
2
100
AcDbCircle
 10
-238.709994
 20
407.143974
 30
0.0
 40
1.0
100
AcDbArc
 50
90.0
 51
180.0
  0
LINE
  5
229
330
27
100
AcDbEntity
  8
2
100
AcDbLine
 10
-393.709994
 20
420.143974
 30
0.0
 11
-325.709994
 21
420.143974
 31
0.0
  0
LINE
  5
22A
330
27
100
AcDbEntity
  8
2
100
AcDbLine
 10
-310.709994
 20
423.1439739999999
 30
0.0
 11
-284.709994
 21
423.1439739999999
 31
0.0
  0
ARC
  5
22B
330
27
100
AcDbEntity
  8
2
100
AcDbCircle
 10
-517.709994
 20
405.143974
 30
0.0
 40
8.0
100
AcDbArc
 50
90.0
 51
270.0
  0
LINE
  5
22C
330
27
100
AcDbEntity
  8
2
100
AcDbLine
 10
-525.709994
 20
405.143974
 30
0.0
 11
-525.709994
 21
287.143974
 31
0.0
  0
LINE
  5
22D
330
27
100
AcDbEntity
  8
2
100
AcDbLine
 10
-517.709994
 20
413.143974
 30
0.0
 11
-507.35101
 21
413.143974
 31
0.0
  0
LINE
  5
22E
330
27
100
AcDbEntity
  8
2
100
AcDbLine
 10
-506.35101
 20
423.1439739999999
 30
0.0
 11
-423.109994
 21
423.1439739999999
 31
0.0
  0
LINE
  5
22F
330
27
100
AcDbEntity
  8
2
100
AcDbLine
 10
-517.709994
 20
397.143974
 30
0.0
 11
-513.709994
 21
397.143974
 31
0.0
  0
ARC
  5
230
330
27
100
AcDbEntity
  8
2
100
AcDbCircle
 10
-517.709994
 20
287.143974
 30
0.0
 40
8.0
100
AcDbArc
 50
126.62486
 51
203.989742
  0
LINE
  5
231
330
27
100
AcDbEntity
  8
2
100
AcDbLine
 10
-510.709994
 20
405.143974
 30
0.0
 11
-510.709994
 21
314.143974
 31
0.0
  0
LINE
  5
232
330
27
100
AcDbEntity
  8
2
100
AcDbLine
 10
-422.0689779999999
 20
413.143974
 30
0.0
 11
-394.709994
 21
413.143974
 31
0.0
  0
LINE
  5
233
330
27
100
AcDbEntity
  8
2
100
AcDbLine
 10
-324.709994
 20
413.143974
 30
0.0
 11
-313.709994
 21
413.143974
 31
0.0
  0
LINE
  5
234
330
27
100
AcDbEntity
  8
2
100
AcDbLine
 10
-281.709994
 20
413.143974
 30
0.0
 11
-275.709994
 21
413.143974
 31
0.0
  0
ARC
  5
235
330
27
100
AcDbEntity
  8
2
100
AcDbCircle
 10
-275.709994
 20
405.143974
 30
0.0
 40
8.0
100
AcDbArc
 50
0.0
 51
90.0
  0
ARC
  5
236
330
27
100
AcDbEntity
  8
2
100
AcDbCircle
 10
-240.709994
 20
406.1439739999999
 30
0.0
 40
1.0
100
AcDbArc
 50
270.0
 51
360.0
  0
LINE
  5
237
330
27
100
AcDbEntity
  8
2
100
AcDbLine
 10
-240.709994
 20
405.143974
 30
0.0
 11
-272.977944
 21
405.143974
 31
0.0
  0
LINE
  5
238
330
27
100
AcDbEntity
  8
2
100
AcDbLine
 10
-494.259982
 20
-124.956026
 30
0.0
 11
-264.588103
 21
-124.956026
 31
0.0
  0
LINE
  5
239
330
27
100
AcDbEntity
  8
2
100
AcDbLine
 10
-274.709994
 20
6.043973999999999
 30
0.0
 11
-434.709994
 21
6.043973999999999
 31
0.0
  0
LINE
  5
23A
330
27
100
AcDbEntity
  8
2
100
AcDbLine
 10
-274.709994
 20
9.043974
 30
0.0
 11
-274.709994
 21
-6.334469
 31
0.0
  0
LINE
  5
23B
330
27
100
AcDbEntity
  8
2
100
AcDbLine
 10
-272.709994
 20
3.043973999999999
 30
0.0
 11
-272.709994
 21
-6.194616
 31
0.0
  0
LINE
  5
23C
330
27
100
AcDbEntity
  8
2
100
AcDbLine
 10
-267.709994
 20
-125.956026
 30
0.0
 11
-525.709994
 21
-125.956026
 31
0.0
  0
LINE
  5
23D
330
27
100
AcDbEntity
  8
2
100
AcDbLine
 10
-234.709994
 20
-123.956026
 30
0.0
 11
-238.709994
 21
-123.956026
 31
0.0
  0
ARC
  5
23E
330
27
100
AcDbEntity
  8
2
100
AcDbCircle
 10
-238.709994
 20
-122.956026
 30
0.0
 40
1.0
100
AcDbArc
 50
180.0
 51
270.0
  0
LINE
  5
23F
330
27
100
AcDbEntity
  8
2
100
AcDbLine
 10
-234.709994
 20
-35.956026
 30
0.0
 11
-241.163074
 21
-35.956026
 31
0.0
  0
LINE
  5
240
330
27
100
AcDbEntity
  8
2
100
AcDbLine
 10
-239.709994
 20
-122.956026
 30
0.0
 11
-239.709994
 21
-92.369137
 31
0.0
  0
LINE
  5
241
330
27
100
AcDbEntity
  8
2
100
AcDbLine
 10
-239.709994
 20
-43.542915
 30
0.0
 11
-239.709994
 21
-35.956026
 31
0.0
  0
ARC
  5
242
330
27
100
AcDbEntity
  8
2
100
AcDbCircle
 10
-240.709994
 20
-121.956026
 30
0.0
 40
1.0
100
AcDbArc
 50
0.0
 51
90.0
  0
LINE
  5
243
330
27
100
AcDbEntity
  8
2
100
AcDbLine
 10
-240.709994
 20
-120.956026
 30
0.0
 11
-251.959994
 21
-120.956026
 31
0.0
  0
LINE
  5
244
330
27
100
AcDbEntity
  8
2
100
AcDbLine
 10
-240.709994
 20
-120.956026
 30
0.0
 11
-251.909994
 21
-120.956026
 31
0.0
  0
ARC
  5
245
330
27
100
AcDbEntity
  8
2
100
AcDbCircle
 10
-266.709994
 20
-125.956026
 30
0.0
 40
1.0
100
AcDbArc
 50
90.0
 51
180.0
  0
LINE
  5
246
330
27
100
AcDbEntity
  8
2
100
AcDbLine
 10
62.945448
 20
-125.956026
 30
0.0
 11
196.945448
 21
-125.956026
 31
0.0
  0
LINE
  5
247
330
27
100
AcDbEntity
  8
2
100
AcDbLine
 10
48.945448
 20
-6.054650999999999
 30
0.0
 11
48.945448
 21
-124.956026
 31
0.0
  0
LINE
  5
248
330
27
100
AcDbEntity
  8
2
100
AcDbLine
 10
38.945448
 20
-124.956026
 30
0.0
 11
52.945448
 21
-124.956026
 31
0.0
  0
LINE
  5
249
330
27
100
AcDbEntity
  8
2
100
AcDbLine
 10
53.945448
 20
-123.956026
 30
0.0
 11
53.945448
 21
-7.054650999999999
 31
0.0
  0
LINE
  5
24A
330
27
100
AcDbEntity
  8
2
100
AcDbLine
 10
180.945448
 20
-147.956026
 30
0.0
 11
78.945448
 21
-147.956026
 31
0.0
  0
LINE
  5
24B
330
27
100
AcDbEntity
  8
2
100
AcDbLine
 10
196.195448
 20
-134.956026
 30
0.0
 11
63.69544799999999
 21
-134.956026
 31
0.0
  0
LINE
  5
24C
330
27
100
AcDbEntity
  8
2
100
AcDbLine
 10
-287.709994
 20
216.143974
 30
0.0
 11
-307.709994
 21
216.143974
 31
0.0
  0
LINE
  5
24D
330
27
100
AcDbEntity
  8
2
100
AcDbLine
 10
-287.709994
 20
216.143974
 30
0.0
 11
-286.709994
 21
215.143974
 31
0.0
  0
LINE
  5
24E
330
27
100
AcDbEntity
  8
2
100
AcDbLine
 10
-286.709994
 20
208.193974
 30
0.0
 11
-286.709994
 21
215.143974
 31
0.0
  0
ARC
  5
24F
330
27
100
AcDbEntity
  8
2
100
AcDbCircle
 10
-284.709994
 20
208.193974
 30
0.0
 40
2.0
100
AcDbArc
 50
180.0
 51
270.0
  0
ARC
  5
250
330
27
100
AcDbEntity
  8
2
100
AcDbCircle
 10
-253.709994
 20
200.193974
 30
0.0
 40
6.0
100
AcDbArc
 50
282.063826
 51
89.67873199999999
  0
LINE
  5
251
330
27
100
AcDbEntity
  8
2
100
AcDbLine
 10
-289.209994
 20
206.193974
 30
0.0
 11
-286.159994
 21
206.193974
 31
0.0
  0
ARC
  5
252
330
27
100
AcDbEntity
  8
2
100
AcDbCircle
 10
-289.209994
 20
194.193974
 30
0.0
 40
12.0
100
AcDbArc
 50
90.0
 51
110.044444
  0
LINE
  5
253
330
27
100
AcDbEntity
  8
2
100
AcDbLine
 10
-269.409994
 20
206.193974
 30
0.0
 11
-266.109994
 21
206.193974
 31
0.0
  0
ARC
  5
254
330
27
100
AcDbEntity
  8
2
100
AcDbCircle
 10
-286.159994
 20
203.193974
 30
0.0
 40
3.0
100
AcDbArc
 50
0.0
 51
90.0
  0
ARC
  5
255
330
27
100
AcDbEntity
  8
2
100
AcDbCircle
 10
-288.709994
 20
204.193974
 30
0.0
 40
2.0
100
AcDbArc
 50
0.0
 51
90.0
  0
LINE
  5
256
330
27
100
AcDbEntity
  8
2
100
AcDbLine
 10
-329.992562
 20
192.143974
 30
0.0
 11
-265.427427
 21
192.143974
 31
0.0
  0
LINE
  5
257
330
27
100
AcDbEntity
  8
2
100
AcDbLine
 10
-250.991661
 20
200.193974
 30
0.0
 11
-260.204996
 21
200.193974
 31
0.0
  0
LINE
  5
258
330
27
100
AcDbEntity
  8
2
100
AcDbLine
 10
-264.868441
 20
200.193974
 30
0.0
 11
-282.159994
 21
200.193974
 31
0.0
  0
LINE
  5
259
330
27
100
AcDbEntity
  8
2
100
AcDbLine
 10
-287.709994
 20
200.193974
 30
0.0
 11
-307.709994
 21
200.193974
 31
0.0
  0
LINE
  5
25A
330
27
100
AcDbEntity
  8
2
100
AcDbLine
 10
-286.709994
 20
201.193974
 30
0.0
 11
-286.709994
 21
204.193974
 31
0.0
  0
ARC
  5
25B
330
27
100
AcDbEntity
  8
2
100
AcDbCircle
 10
-287.709994
 20
201.193974
 30
0.0
 40
1.0
100
AcDbArc
 50
270.0
 51
360.0
  0
ARC
  5
25C
330
27
100
AcDbEntity
  8
2
100
AcDbCircle
 10
-297.709994
 20
217.443974
 30
0.0
 40
12.75
100
AcDbArc
 50
249.950024
 51
290.044444
  0
LINE
  5
25D
330
27
100
AcDbEntity
  8
2
100
AcDbLine
 10
-283.159994
 20
201.193974
 30
0.0
 11
-283.159994
 21
203.193974
 31
0.0
  0
ARC
  5
25E
330
27
100
AcDbEntity
  8
2
100
AcDbCircle
 10
-272.559994
 20
198.993974
 30
0.0
 40
9.0
100
AcDbArc
 50
15.962014
 51
39.79182
  0
ARC
  5
25F
330
27
100
AcDbEntity
  8
2
100
AcDbCircle
 10
-269.959994
 20
198.993974
 30
0.0
 40
9.0
100
AcDbArc
 50
12.709033
 51
39.555556
  0
ARC
  5
260
330
27
100
AcDbEntity
  8
2
100
AcDbCircle
 10
-266.109994
 20
202.193974
 30
0.0
 40
4.0
100
AcDbArc
 50
39.555556
 51
90.0
  0
ARC
  5
261
330
27
100
AcDbEntity
  8
2
100
AcDbCircle
 10
-276.809994
 20
234.693974
 30
0.0
 40
30.0
100
AcDbArc
 50
255.130114
 51
270.0
  0
ARC
  5
262
330
27
100
AcDbEntity
  8
2
100
AcDbCircle
 10
-275.459994
 20
214.693974
 30
0.0
 40
10.0
100
AcDbArc
 50
270.0
 51
297.777778
  0
ARC
  5
263
330
27
100
AcDbEntity
  8
2
100
AcDbCircle
 10
-269.409994
 20
203.193974
 30
0.0
 40
3.0
100
AcDbArc
 50
90.0
 51
117.777778
  0
ARC
  5
264
330
27
100
AcDbEntity
  8
2
100
AcDbCircle
 10
-255.909994
 20
200.293974
 30
0.0
 40
6.0
100
AcDbArc
 50
10.36976
 51
70.754889
  0
ARC
  5
265
330
27
100
AcDbEntity
  8
2
100
AcDbCircle
 10
-255.009994
 20
200.343974
 30
0.0
 40
6.0
100
AcDbArc
 50
3.279341
 51
77.157379
  0
ARC
  5
266
330
27
100
AcDbEntity
  8
2
100
AcDbCircle
 10
-258.509994
 20
224.693974
 30
0.0
 40
20.0
100
AcDbArc
 50
255.003993
 51
270.0
  0
ARC
  5
267
330
27
100
AcDbEntity
  8
2
100
AcDbCircle
 10
-258.759994
 20
209.693974
 30
0.0
 40
5.0
100
AcDbArc
 50
270.0
 51
306.547676
  0
ARC
  5
268
330
27
100
AcDbEntity
  8
2
100
AcDbCircle
 10
-284.709994
 20
204.193974
 30
0.0
 40
2.0
100
AcDbArc
 50
35.562443
 51
90.0
  0
LINE
  5
269
330
27
100
AcDbEntity
  8
2
100
AcDbLine
 10
-258.259994
 20
194.293974
 30
0.0
 11
-338.359994
 21
194.293974
 31
0.0
  0
LINE
  5
26A
330
27
100
AcDbEntity
  8
2
100
AcDbLine
 10
-276.809994
 20
204.693974
 30
0.0
 11
-275.459994
 21
204.693974
 31
0.0
  0
LINE
  5
26B
330
27
100
AcDbEntity
  8
2
100
AcDbLine
 10
-307.709994
 20
216.143974
 30
0.0
 11
-308.709994
 21
215.143974
 31
0.0
  0
LINE
  5
26C
330
27
100
AcDbEntity
  8
2
100
AcDbLine
 10
-308.709994
 20
208.193974
 30
0.0
 11
-308.709994
 21
215.143974
 31
0.0
  0
ARC
  5
26D
330
27
100
AcDbEntity
  8
2
100
AcDbCircle
 10
-310.709994
 20
208.193974
 30
0.0
 40
2.0
100
AcDbArc
 50
270.0
 51
360.0
  0
ARC
  5
26E
330
27
100
AcDbEntity
  8
2
100
AcDbCircle
 10
-341.709994
 20
200.193974
 30
0.0
 40
6.0
100
AcDbArc
 50
90.321268
 51
259.3
  0
LINE
  5
26F
330
27
100
AcDbEntity
  8
2
100
AcDbLine
 10
-306.195276
 20
206.193974
 30
0.0
 11
-309.259994
 21
206.193974
 31
0.0
  0
LINE
  5
270
330
27
100
AcDbEntity
  8
2
100
AcDbLine
 10
-326.009994
 20
206.193974
 30
0.0
 11
-329.309994
 21
206.193974
 31
0.0
  0
ARC
  5
271
330
27
100
AcDbEntity
  8
2
100
AcDbCircle
 10
-309.259994
 20
203.193974
 30
0.0
 40
3.0
100
AcDbArc
 50
90.0
 51
180.0
  0
ARC
  5
272
330
27
100
AcDbEntity
  8
2
100
AcDbCircle
 10
-306.709994
 20
204.193974
 30
0.0
 40
2.0
100
AcDbArc
 50
90.0
 51
180.0
  0
LINE
  5
273
330
27
100
AcDbEntity
  8
2
100
AcDbLine
 10
-344.428327
 20
200.193974
 30
0.0
 11
-335.214993
 21
200.193974
 31
0.0
  0
LINE
  5
274
330
27
100
AcDbEntity
  8
2
100
AcDbLine
 10
-330.551548
 20
200.193974
 30
0.0
 11
-313.259994
 21
200.193974
 31
0.0
  0
LINE
  5
275
330
27
100
AcDbEntity
  8
2
100
AcDbLine
 10
-308.709994
 20
201.193974
 30
0.0
 11
-308.709994
 21
204.193974
 31
0.0
  0
ARC
  5
276
330
27
100
AcDbEntity
  8
2
100
AcDbCircle
 10
-307.709994
 20
201.193974
 30
0.0
 40
1.0
100
AcDbArc
 50
180.0
 51
270.0
  0
LINE
  5
277
330
27
100
AcDbEntity
  8
2
100
AcDbLine
 10
-312.259994
 20
201.193974
 30
0.0
 11
-312.259994
 21
203.193974
 31
0.0
  0
ARC
  5
278
330
27
100
AcDbEntity
  8
2
100
AcDbCircle
 10
-322.859994
 20
198.993974
 30
0.0
 40
9.0
100
AcDbArc
 50
140.208181
 51
164.037986
  0
ARC
  5
279
330
27
100
AcDbEntity
  8
2
100
AcDbCircle
 10
-325.459994
 20
198.993974
 30
0.0
 40
9.0
100
AcDbArc
 50
140.444444
 51
167.290967
  0
ARC
  5
27A
330
27
100
AcDbEntity
  8
2
100
AcDbCircle
 10
-329.309994
 20
202.193974
 30
0.0
 40
4.0
100
AcDbArc
 50
90.0
 51
140.444444
  0
ARC
  5
27B
330
27
100
AcDbEntity
  8
2
100
AcDbCircle
 10
-318.609994
 20
234.693974
 30
0.0
 40
30.0
100
AcDbArc
 50
270.0
 51
284.869886
  0
ARC
  5
27C
330
27
100
AcDbEntity
  8
2
100
AcDbCircle
 10
-319.959994
 20
214.693974
 30
0.0
 40
10.0
100
AcDbArc
 50
242.222222
 51
270.0
  0
ARC
  5
27D
330
27
100
AcDbEntity
  8
2
100
AcDbCircle
 10
-326.009994
 20
203.193974
 30
0.0
 40
3.0
100
AcDbArc
 50
62.222222
 51
90.0
  0
ARC
  5
27E
330
27
100
AcDbEntity
  8
2
100
AcDbCircle
 10
-339.509994
 20
200.293974
 30
0.0
 40
6.0
100
AcDbArc
 50
109.245111
 51
169.63024
  0
ARC
  5
27F
330
27
100
AcDbEntity
  8
2
100
AcDbCircle
 10
-340.409994
 20
200.343974
 30
0.0
 40
6.0
100
AcDbArc
 50
102.842621
 51
176.720659
  0
ARC
  5
280
330
27
100
AcDbEntity
  8
2
100
AcDbCircle
 10
-336.909994
 20
224.693974
 30
0.0
 40
20.0
100
AcDbArc
 50
270.0
 51
284.996007
  0
ARC
  5
281
330
27
100
AcDbEntity
  8
2
100
AcDbCircle
 10
-336.659994
 20
209.693974
 30
0.0
 40
5.0
100
AcDbArc
 50
233.452324
 51
270.0
  0
ARC
  5
282
330
27
100
AcDbEntity
  8
2
100
AcDbCircle
 10
-310.709994
 20
204.193974
 30
0.0
 40
2.0
100
AcDbArc
 50
90.0
 51
144.437557
  0
LINE
  5
283
330
27
100
AcDbEntity
  8
2
100
AcDbLine
 10
-318.609994
 20
204.693974
 30
0.0
 11
-319.959994
 21
204.693974
 31
0.0
  0
LINE
  5
284
330
27
100
AcDbEntity
  8
2
100
AcDbLine
 10
-286.709994
 20
215.143974
 30
0.0
 11
-308.709994
 21
215.143974
 31
0.0
  0
LINE
  5
285
330
27
100
AcDbEntity
  8
2
100
AcDbLine
 10
-308.209994
 20
206.843974
 30
0.0
 11
-287.309994
 21
206.843974
 31
0.0
  0
LINE
  5
286
330
27
100
AcDbEntity
  8
2
100
AcDbLine
 10
-303.709994
 20
219.143974
 30
0.0
 11
-303.709994
 21
216.143974
 31
0.0
  0
LINE
  5
287
330
27
100
AcDbEntity
  8
2
100
AcDbLine
 10
-291.709994
 20
216.143974
 30
0.0
 11
-291.709994
 21
219.143974
 31
0.0
  0
LINE
  5
288
330
27
100
AcDbEntity
  8
2
100
AcDbLine
 10
-0.054552
 20
-77.95602599999999
 30
0.0
 11
-0.054552
 21
-57.956026
 31
0.0
  0
LINE
  5
289
330
27
100
AcDbEntity
  8
2
100
AcDbLine
 10
-0.054552
 20
-77.95602599999999
 30
0.0
 11
-1.054551999999999
 21
-78.956026
 31
0.0
  0
LINE
  5
28A
330
27
100
AcDbEntity
  8
2
100
AcDbLine
 10
-0.054552
 20
-57.956026
 30
0.0
 11
-1.054551999999999
 21
-56.956026
 31
0.0
  0
LINE
  5
28B
330
27
100
AcDbEntity
  8
2
100
AcDbLine
 10
-1.054551999999999
 20
-78.956026
 30
0.0
 11
-1.054551999999999
 21
-56.956026
 31
0.0
  0
LINE
  5
28C
330
27
100
AcDbEntity
  8
2
100
AcDbLine
 10
2.945447999999999
 20
-61.956026
 30
0.0
 11
-0.054552
 21
-61.956026
 31
0.0
  0
LINE
  5
28D
330
27
100
AcDbEntity
  8
2
100
AcDbLine
 10
-0.054552
 20
-73.956026
 30
0.0
 11
2.945447999999999
 21
-73.956026
 31
0.0
  0
LINE
  5
28E
330
27
100
AcDbEntity
  8
2
100
AcDbLine
 10
-264.809994
 20
382.143974
 30
0.0
 11
-264.809994
 21
356.143974
 31
0.0
  0
LINE
  5
28F
330
27
100
AcDbEntity
  8
2
100
AcDbLine
 10
-269.809994
 20
384.155081
 30
0.0
 11
-269.809994
 21
354.132867
 31
0.0
  0
LINE
  5
290
330
27
100
AcDbEntity
  8
2
100
AcDbLine
 10
-265.971107
 20
354.132867
 30
0.0
 11
-269.809994
 21
354.132867
 31
0.0
  0
LINE
  5
291
330
27
100
AcDbEntity
  8
2
100
AcDbLine
 10
-265.971107
 20
361.63842
 30
0.0
 11
-269.809994
 21
361.63842
 31
0.0
  0
LINE
  5
292
330
27
100
AcDbEntity
  8
2
100
AcDbLine
 10
-265.971107
 20
376.649527
 30
0.0
 11
-269.809994
 21
376.649527
 31
0.0
  0
LINE
  5
293
330
27
100
AcDbEntity
  8
2
100
AcDbLine
 10
-265.971107
 20
384.155081
 30
0.0
 11
-269.809994
 21
384.155081
 31
0.0
  0
LINE
  5
294
330
27
100
AcDbEntity
  8
2
100
AcDbLine
 10
-264.809994
 20
356.143974
 30
0.0
 11
-265.971107
 21
354.132867
 31
0.0
  0
LINE
  5
295
330
27
100
AcDbEntity
  8
2
100
AcDbLine
 10
-264.809994
 20
382.143974
 30
0.0
 11
-265.971107
 21
384.155081
 31
0.0
  0
ARC
  5
296
330
27
100
AcDbEntity
  8
2
100
AcDbCircle
 10
-289.648881
 20
369.143974
 30
0.0
 40
24.838887
100
AcDbArc
 50
342.412046
 51
17.587954
  0
ARC
  5
297
330
27
100
AcDbEntity
  8
2
100
AcDbCircle
 10
-271.45513
 20
357.885644
 30
0.0
 40
6.645135999999999
100
AcDbArc
 50
325.615736
 51
34.384264
  0
ARC
  5
298
330
27
100
AcDbEntity
  8
2
100
AcDbCircle
 10
-271.45513
 20
380.402304
 30
0.0
 40
6.645135999999999
100
AcDbArc
 50
325.615736
 51
34.384264
  0
LINE
  5
299
330
27
100
AcDbEntity
  8
2
100
AcDbLine
 10
-269.809994
 20
378.143974
 30
0.0
 11
-272.709994
 21
378.143974
 31
0.0
  0
LINE
  5
29A
330
27
100
AcDbEntity
  8
2
100
AcDbLine
 10
-272.709994
 20
360.143974
 30
0.0
 11
-269.809994
 21
360.143974
 31
0.0
  0
LINE
  5
29B
330
27
100
AcDbEntity
  8
2
100
AcDbLine
 10
-264.809994
 20
342.143974
 30
0.0
 11
-264.809994
 21
316.143974
 31
0.0
  0
LINE
  5
29C
330
27
100
AcDbEntity
  8
2
100
AcDbLine
 10
-269.809994
 20
344.155081
 30
0.0
 11
-269.809994
 21
314.132867
 31
0.0
  0
LINE
  5
29D
330
27
100
AcDbEntity
  8
2
100
AcDbLine
 10
-265.971107
 20
314.132867
 30
0.0
 11
-269.809994
 21
314.132867
 31
0.0
  0
LINE
  5
29E
330
27
100
AcDbEntity
  8
2
100
AcDbLine
 10
-265.971107
 20
321.63842
 30
0.0
 11
-269.809994
 21
321.63842
 31
0.0
  0
LINE
  5
29F
330
27
100
AcDbEntity
  8
2
100
AcDbLine
 10
-265.971107
 20
336.649527
 30
0.0
 11
-269.809994
 21
336.649527
 31
0.0
  0
LINE
  5
2A0
330
27
100
AcDbEntity
  8
2
100
AcDbLine
 10
-265.971107
 20
344.155081
 30
0.0
 11
-269.809994
 21
344.155081
 31
0.0
  0
LINE
  5
2A1
330
27
100
AcDbEntity
  8
2
100
AcDbLine
 10
-264.809994
 20
316.143974
 30
0.0
 11
-265.971107
 21
314.132867
 31
0.0
  0
LINE
  5
2A2
330
27
100
AcDbEntity
  8
2
100
AcDbLine
 10
-264.809994
 20
342.143974
 30
0.0
 11
-265.971107
 21
344.155081
 31
0.0
  0
ARC
  5
2A3
330
27
100
AcDbEntity
  8
2
100
AcDbCircle
 10
-289.648881
 20
329.143974
 30
0.0
 40
24.838887
100
AcDbArc
 50
342.412046
 51
17.587954
  0
ARC
  5
2A4
330
27
100
AcDbEntity
  8
2
100
AcDbCircle
 10
-271.45513
 20
317.885644
 30
0.0
 40
6.645135999999999
100
AcDbArc
 50
325.615736
 51
34.384264
  0
ARC
  5
2A5
330
27
100
AcDbEntity
  8
2
100
AcDbCircle
 10
-271.45513
 20
340.402304
 30
0.0
 40
6.645135999999999
100
AcDbArc
 50
325.615736
 51
34.384264
  0
LINE
  5
2A6
330
27
100
AcDbEntity
  8
2
100
AcDbLine
 10
-269.809994
 20
338.143974
 30
0.0
 11
-272.709994
 21
338.143974
 31
0.0
  0
LINE
  5
2A7
330
27
100
AcDbEntity
  8
2
100
AcDbLine
 10
-272.709994
 20
320.143974
 30
0.0
 11
-269.809994
 21
320.143974
 31
0.0
  0
LINE
  5
2A8
330
27
100
AcDbEntity
  8
2
100
AcDbLine
 10
-264.709994
 20
-0.9560259999999999
 30
0.0
 11
-264.709994
 21
-6.392513
 31
0.0
  0
LINE
  5
2A9
330
27
100
AcDbEntity
  8
2
100
AcDbLine
 10
-269.709994
 20
-0.9560259999999999
 30
0.0
 11
-269.709994
 21
-5.906756999999999
 31
0.0
  0
LINE
  5
2AA
330
27
100
AcDbEntity
  8
2
100
AcDbLine
 10
-264.709994
 20
-0.9560259999999999
 30
0.0
 11
-269.709994
 21
-0.9560259999999999
 31
0.0
  0
LINE
  5
2AB
330
27
100
AcDbEntity
  8
2
100
AcDbLine
 10
-269.709994
 20
-4.956026
 30
0.0
 11
-272.709994
 21
-4.956026
 31
0.0
  0
ARC
  5
2AC
330
27
100
AcDbEntity
  8
2
100
AcDbCircle
 10
-282.914161
 20
-7.456025999999999
 30
0.0
 40
18.204167
100
AcDbArc
 50
3.368215
 51
20.919818
  0
CIRCLE
  5
2AD
330
27
100
AcDbEntity
  8
2
100
AcDbCircle
 10
112.945448
 20
-13.956026
 30
0.0
 40
13.0
  0
LINE
  5
2AE
330
27
100
AcDbEntity
  8
2
100
AcDbLine
 10
105.439895
 20
-0.9560259999999999
 30
0.0
 11
97.934341
 21
-13.956026
 31
0.0
  0
LINE
  5
2AF
330
27
100
AcDbEntity
  8
2
100
AcDbLine
 10
120.451002
 20
-0.9560259999999999
 30
0.0
 11
105.439895
 21
-0.9560259999999999
 31
0.0
  0
LINE
  5
2B0
330
27
100
AcDbEntity
  8
2
100
AcDbLine
 10
127.956555
 20
-13.956026
 30
0.0
 11
120.451002
 21
-0.9560259999999999
 31
0.0
  0
LINE
  5
2B1
330
27
100
AcDbEntity
  8
2
100
AcDbLine
 10
120.451002
 20
-26.956026
 30
0.0
 11
127.956555
 21
-13.956026
 31
0.0
  0
LINE
  5
2B2
330
27
100
AcDbEntity
  8
2
100
AcDbLine
 10
105.439895
 20
-26.956026
 30
0.0
 11
120.451002
 21
-26.956026
 31
0.0
  0
LINE
  5
2B3
330
27
100
AcDbEntity
  8
2
100
AcDbLine
 10
97.934341
 20
-13.956026
 30
0.0
 11
105.439895
 21
-26.956026
 31
0.0
  0
CIRCLE
  5
2B4
330
27
100
AcDbEntity
  8
2
100
AcDbCircle
 10
152.945448
 20
-13.956026
 30
0.0
 40
13.0
  0
LINE
  5
2B5
330
27
100
AcDbEntity
  8
2
100
AcDbLine
 10
145.439895
 20
-0.9560259999999999
 30
0.0
 11
137.934341
 21
-13.956026
 31
0.0
  0
LINE
  5
2B6
330
27
100
AcDbEntity
  8
2
100
AcDbLine
 10
160.451002
 20
-0.9560259999999999
 30
0.0
 11
145.439895
 21
-0.9560259999999999
 31
0.0
  0
LINE
  5
2B7
330
27
100
AcDbEntity
  8
2
100
AcDbLine
 10
167.956555
 20
-13.956026
 30
0.0
 11
160.451002
 21
-0.9560259999999999
 31
0.0
  0
LINE
  5
2B8
330
27
100
AcDbEntity
  8
2
100
AcDbLine
 10
160.451002
 20
-26.956026
 30
0.0
 11
167.956555
 21
-13.956026
 31
0.0
  0
LINE
  5
2B9
330
27
100
AcDbEntity
  8
2
100
AcDbLine
 10
145.439895
 20
-26.956026
 30
0.0
 11
160.451002
 21
-26.956026
 31
0.0
  0
LINE
  5
2BA
330
27
100
AcDbEntity
  8
2
100
AcDbLine
 10
137.934341
 20
-13.956026
 30
0.0
 11
145.439895
 21
-26.956026
 31
0.0
  0
ARC
  5
2BB
330
27
100
AcDbEntity
  8
2
100
AcDbCircle
 10
-428.709994
 20
393.143974
 30
0.0
 40
6.0
100
AcDbArc
 50
90.0
 51
180.0
  0
ARC
  5
2BC
330
27
100
AcDbEntity
  8
2
100
AcDbCircle
 10
-248.520638
 20
200.7158
 30
0.0
 40
0.5
100
AcDbArc
 50
183.279341
 51
259.2122
  0
ARC
  5
2BD
330
27
100
AcDbEntity
  8
2
100
AcDbCircle
 10
-250.991661
 20
201.193974
 30
0.0
 40
1.0
100
AcDbArc
 50
270.0
 51
10.36976
  0
ARC
  5
2BE
330
27
100
AcDbEntity
  8
2
100
AcDbCircle
 10
-260.204996
 20
201.193974
 30
0.0
 40
1.0
100
AcDbArc
 50
192.709033
 51
270.0
  0
ARC
  5
2BF
330
27
100
AcDbEntity
  8
2
100
AcDbCircle
 10
-248.801396
 20
199.24231
 30
0.0
 40
1.0
100
AcDbArc
 50
349.02779
 51
79.21219999999999
  0
ARC
  5
2C0
330
27
100
AcDbEntity
  8
2
100
AcDbCircle
 10
-268.71812
 20
202.193974
 30
0.0
 40
4.0
100
AcDbArc
 50
39.79182
 51
90.0
  0
ARC
  5
2C1
330
27
100
AcDbEntity
  8
2
100
AcDbCircle
 10
-282.159994
 20
201.193974
 30
0.0
 40
1.0
100
AcDbArc
 50
180.0
 51
270.0
  0
ARC
  5
2C2
330
27
100
AcDbEntity
  8
2
100
AcDbCircle
 10
-264.868441
 20
201.193974
 30
0.0
 40
1.0
100
AcDbArc
 50
270.0
 51
15.962014
  0
ARC
  5
2C3
330
27
100
AcDbEntity
  8
2
100
AcDbCircle
 10
-346.899351
 20
200.7158
 30
0.0
 40
0.5
100
AcDbArc
 50
280.7878
 51
356.720659
  0
ARC
  5
2C4
330
27
100
AcDbEntity
  8
2
100
AcDbCircle
 10
-346.618592
 20
199.24231
 30
0.0
 40
1.0
100
AcDbArc
 50
100.7878
 51
190.97221
  0
ARC
  5
2C5
330
27
100
AcDbEntity
  8
2
100
AcDbCircle
 10
-344.428327
 20
201.193974
 30
0.0
 40
1.0
100
AcDbArc
 50
169.63024
 51
270.0
  0
ARC
  5
2C6
330
27
100
AcDbEntity
  8
2
100
AcDbCircle
 10
-335.214993
 20
201.193974
 30
0.0
 40
1.0
100
AcDbArc
 50
270.0
 51
347.290967
  0
ARC
  5
2C7
330
27
100
AcDbEntity
  8
2
100
AcDbCircle
 10
-326.701869
 20
202.193974
 30
0.0
 40
4.0
100
AcDbArc
 50
90.0
 51
140.208181
  0
ARC
  5
2C8
330
27
100
AcDbEntity
  8
2
100
AcDbCircle
 10
-313.259994
 20
201.193974
 30
0.0
 40
1.0
100
AcDbArc
 50
270.0
 51
360.0
  0
ARC
  5
2C9
330
27
100
AcDbEntity
  8
2
100
AcDbCircle
 10
-330.551548
 20
201.193974
 30
0.0
 40
1.0
100
AcDbArc
 50
164.037986
 51
270.0
  0
ARC
  5
2CA
330
27
100
AcDbEntity
  8
2
100
AcDbCircle
 10
-311.613822
 20
341.0137890000001
 30
0.0
 40
150.0
100
AcDbArc
 50
257.936174
 51
262.962154
  0
ARC
  5
2CB
330
27
100
AcDbEntity
  8
2
100
AcDbCircle
 10
-283.806167
 20
341.0137890000001
 30
0.0
 40
150.0
100
AcDbArc
 50
277.037846
 51
282.063826
  0
LINE
  5
2CC
330
27
100
AcDbEntity
  8
2
100
AcDbLine
 10
-8.004552
 20
-78.956026
 30
0.0
 11
-1.054551999999999
 21
-78.956026
 31
0.0
  0
ARC
  5
2CD
330
27
100
AcDbEntity
  8
2
100
AcDbCircle
 10
-8.004552
 20
-80.95602599999999
 30
0.0
 40
2.0
100
AcDbArc
 50
90.0
 51
180.0
  0
ARC
  5
2CE
330
27
100
AcDbEntity
  8
2
100
AcDbCircle
 10
-16.004552
 20
-111.956026
 30
0.0
 40
6.0
100
AcDbArc
 50
192.063826
 51
359.678732
  0
LINE
  5
2CF
330
27
100
AcDbEntity
  8
2
100
AcDbLine
 10
-10.004552
 20
-76.456026
 30
0.0
 11
-10.004552
 21
-79.506026
 31
0.0
  0
ARC
  5
2D0
330
27
100
AcDbEntity
  8
2
100
AcDbCircle
 10
-22.004552
 20
-76.456026
 30
0.0
 40
12.0
100
AcDbArc
 50
0.0
 51
20.044444
  0
LINE
  5
2D1
330
27
100
AcDbEntity
  8
2
100
AcDbLine
 10
-10.004552
 20
-96.256026
 30
0.0
 11
-10.004552
 21
-99.556026
 31
0.0
  0
ARC
  5
2D2
330
27
100
AcDbEntity
  8
2
100
AcDbCircle
 10
-13.004552
 20
-79.506026
 30
0.0
 40
3.0
100
AcDbArc
 50
270.0
 51
360.0
  0
ARC
  5
2D3
330
27
100
AcDbEntity
  8
2
100
AcDbCircle
 10
-12.004552
 20
-76.95602599999999
 30
0.0
 40
2.0
100
AcDbArc
 50
270.0
 51
360.0
  0
LINE
  5
2D4
330
27
100
AcDbEntity
  8
2
100
AcDbLine
 10
-24.054552
 20
-35.673459
 30
0.0
 11
-24.054552
 21
-100.238593
 31
0.0
  0
LINE
  5
2D5
330
27
100
AcDbEntity
  8
2
100
AcDbLine
 10
-16.004552
 20
-114.674359
 30
0.0
 11
-16.004552
 21
-105.461025
 31
0.0
  0
LINE
  5
2D6
330
27
100
AcDbEntity
  8
2
100
AcDbLine
 10
-16.004552
 20
-100.79758
 30
0.0
 11
-16.004552
 21
-83.506026
 31
0.0
  0
LINE
  5
2D7
330
27
100
AcDbEntity
  8
2
100
AcDbLine
 10
-16.004552
 20
-77.95602599999999
 30
0.0
 11
-16.004552
 21
-57.956026
 31
0.0
  0
LINE
  5
2D8
330
27
100
AcDbEntity
  8
2
100
AcDbLine
 10
-15.004552
 20
-78.956026
 30
0.0
 11
-12.004552
 21
-78.956026
 31
0.0
  0
ARC
  5
2D9
330
27
100
AcDbEntity
  8
2
100
AcDbCircle
 10
-15.004552
 20
-77.95602599999999
 30
0.0
 40
1.0
100
AcDbArc
 50
180.0
 51
270.0
  0
ARC
  5
2DA
330
27
100
AcDbEntity
  8
2
100
AcDbCircle
 10
1.245447999999999
 20
-67.95602599999999
 30
0.0
 40
12.75
100
AcDbArc
 50
159.950024
 51
200.044444
  0
LINE
  5
2DB
330
27
100
AcDbEntity
  8
2
100
AcDbLine
 10
-15.004552
 20
-82.506026
 30
0.0
 11
-13.004552
 21
-82.506026
 31
0.0
  0
ARC
  5
2DC
330
27
100
AcDbEntity
  8
2
100
AcDbCircle
 10
-17.204552
 20
-93.10602600000001
 30
0.0
 40
9.0
100
AcDbArc
 50
285.962014
 51
309.79182
  0
ARC
  5
2DD
330
27
100
AcDbEntity
  8
2
100
AcDbCircle
 10
-17.204552
 20
-95.70602599999999
 30
0.0
 40
9.0
100
AcDbArc
 50
282.709033
 51
309.555556
  0
ARC
  5
2DE
330
27
100
AcDbEntity
  8
2
100
AcDbCircle
 10
-14.004552
 20
-99.556026
 30
0.0
 40
4.0
100
AcDbArc
 50
309.555556
 51
360.0
  0
ARC
  5
2DF
330
27
100
AcDbEntity
  8
2
100
AcDbCircle
 10
18.495448
 20
-88.856026
 30
0.0
 40
30.0
100
AcDbArc
 50
165.130114
 51
180.0
  0
ARC
  5
2E0
330
27
100
AcDbEntity
  8
2
100
AcDbCircle
 10
-1.504552
 20
-90.206026
 30
0.0
 40
10.0
100
AcDbArc
 50
180.0
 51
207.777778
  0
ARC
  5
2E1
330
27
100
AcDbEntity
  8
2
100
AcDbCircle
 10
-13.004552
 20
-96.256026
 30
0.0
 40
3.0
100
AcDbArc
 50
0.0
 51
27.777778
  0
ARC
  5
2E2
330
27
100
AcDbEntity
  8
2
100
AcDbCircle
 10
-15.904552
 20
-109.756026
 30
0.0
 40
6.0
100
AcDbArc
 50
280.36976
 51
340.754889
  0
ARC
  5
2E3
330
27
100
AcDbEntity
  8
2
100
AcDbCircle
 10
-15.854552
 20
-110.656026
 30
0.0
 40
6.0
100
AcDbArc
 50
273.279341
 51
347.157379
  0
ARC
  5
2E4
330
27
100
AcDbEntity
  8
2
100
AcDbCircle
 10
8.495447999999999
 20
-107.156026
 30
0.0
 40
20.0
100
AcDbArc
 50
165.003993
 51
180.0
  0
ARC
  5
2E5
330
27
100
AcDbEntity
  8
2
100
AcDbCircle
 10
-6.504551999999999
 20
-106.906026
 30
0.0
 40
5.0
100
AcDbArc
 50
180.0
 51
216.547676
  0
ARC
  5
2E6
330
27
100
AcDbEntity
  8
2
100
AcDbCircle
 10
-12.004552
 20
-80.95602599999999
 30
0.0
 40
2.0
100
AcDbArc
 50
305.562443
 51
360.0
  0
LINE
  5
2E7
330
27
100
AcDbEntity
  8
2
100
AcDbLine
 10
-21.904552
 20
-107.406026
 30
0.0
 11
-21.904552
 21
-27.306026
 31
0.0
  0
LINE
  5
2E8
330
27
100
AcDbEntity
  8
2
100
AcDbLine
 10
-11.504552
 20
-88.856026
 30
0.0
 11
-11.504552
 21
-90.206026
 31
0.0
  0
LINE
  5
2E9
330
27
100
AcDbEntity
  8
2
100
AcDbLine
 10
-8.004552
 20
-56.956026
 30
0.0
 11
-1.054551999999999
 21
-56.956026
 31
0.0
  0
ARC
  5
2EA
330
27
100
AcDbEntity
  8
2
100
AcDbCircle
 10
-8.004552
 20
-54.956026
 30
0.0
 40
2.0
100
AcDbArc
 50
180.0
 51
270.0
  0
ARC
  5
2EB
330
27
100
AcDbEntity
  8
2
100
AcDbCircle
 10
-16.004552
 20
-23.956026
 30
0.0
 40
6.0
100
AcDbArc
 50
0.321268
 51
169.3
  0
LINE
  5
2EC
330
27
100
AcDbEntity
  8
2
100
AcDbLine
 10
-10.004552
 20
-59.47074499999999
 30
0.0
 11
-10.004552
 21
-56.40602600000001
 31
0.0
  0
LINE
  5
2ED
330
27
100
AcDbEntity
  8
2
100
AcDbLine
 10
-10.004552
 20
-39.656026
 30
0.0
 11
-10.004552
 21
-36.356026
 31
0.0
  0
ARC
  5
2EE
330
27
100
AcDbEntity
  8
2
100
AcDbCircle
 10
-13.004552
 20
-56.40602600000001
 30
0.0
 40
3.0
100
AcDbArc
 50
0.0
 51
90.0
  0
ARC
  5
2EF
330
27
100
AcDbEntity
  8
2
100
AcDbCircle
 10
-12.004552
 20
-58.956026
 30
0.0
 40
2.0
100
AcDbArc
 50
0.0
 51
90.0
  0
LINE
  5
2F0
330
27
100
AcDbEntity
  8
2
100
AcDbLine
 10
-16.004552
 20
-21.237693
 30
0.0
 11
-16.004552
 21
-30.45102700000001
 31
0.0
  0
LINE
  5
2F1
330
27
100
AcDbEntity
  8
2
100
AcDbLine
 10
-16.004552
 20
-35.114472
 30
0.0
 11
-16.004552
 21
-52.406026
 31
0.0
  0
LINE
  5
2F2
330
27
100
AcDbEntity
  8
2
100
AcDbLine
 10
-15.004552
 20
-56.956026
 30
0.0
 11
-12.004552
 21
-56.956026
 31
0.0
  0
ARC
  5
2F3
330
27
100
AcDbEntity
  8
2
100
AcDbCircle
 10
-15.004552
 20
-57.956026
 30
0.0
 40
1.0
100
AcDbArc
 50
90.0
 51
180.0
  0
LINE
  5
2F4
330
27
100
AcDbEntity
  8
2
100
AcDbLine
 10
-15.004552
 20
-53.406026
 30
0.0
 11
-13.004552
 21
-53.406026
 31
0.0
  0
ARC
  5
2F5
330
27
100
AcDbEntity
  8
2
100
AcDbCircle
 10
-17.204552
 20
-42.806026
 30
0.0
 40
9.0
100
AcDbArc
 50
50.208181
 51
74.037986
  0
ARC
  5
2F6
330
27
100
AcDbEntity
  8
2
100
AcDbCircle
 10
-17.204552
 20
-40.206026
 30
0.0
 40
9.0
100
AcDbArc
 50
50.44444399999999
 51
77.29096700000001
  0
ARC
  5
2F7
330
27
100
AcDbEntity
  8
2
100
AcDbCircle
 10
-14.004552
 20
-36.356026
 30
0.0
 40
4.0
100
AcDbArc
 50
0.0
 51
50.44444399999999
  0
ARC
  5
2F8
330
27
100
AcDbEntity
  8
2
100
AcDbCircle
 10
18.495448
 20
-47.056026
 30
0.0
 40
30.0
100
AcDbArc
 50
180.0
 51
194.869886
  0
ARC
  5
2F9
330
27
100
AcDbEntity
  8
2
100
AcDbCircle
 10
-1.504552
 20
-45.70602599999999
 30
0.0
 40
10.0
100
AcDbArc
 50
152.222222
 51
180.0
  0
ARC
  5
2FA
330
27
100
AcDbEntity
  8
2
100
AcDbCircle
 10
-13.004552
 20
-39.656026
 30
0.0
 40
3.0
100
AcDbArc
 50
332.222222
 51
360.0
  0
ARC
  5
2FB
330
27
100
AcDbEntity
  8
2
100
AcDbCircle
 10
-15.904552
 20
-26.156026
 30
0.0
 40
6.0
100
AcDbArc
 50
19.245111
 51
79.63024
  0
ARC
  5
2FC
330
27
100
AcDbEntity
  8
2
100
AcDbCircle
 10
-15.854552
 20
-25.256026
 30
0.0
 40
6.0
100
AcDbArc
 50
12.842621
 51
86.72065899999999
  0
ARC
  5
2FD
330
27
100
AcDbEntity
  8
2
100
AcDbCircle
 10
8.495447999999999
 20
-28.756026
 30
0.0
 40
20.0
100
AcDbArc
 50
180.0
 51
194.996007
  0
ARC
  5
2FE
330
27
100
AcDbEntity
  8
2
100
AcDbCircle
 10
-6.504551999999999
 20
-29.006026
 30
0.0
 40
5.0
100
AcDbArc
 50
143.452324
 51
180.0
  0
ARC
  5
2FF
330
27
100
AcDbEntity
  8
2
100
AcDbCircle
 10
-12.004552
 20
-54.956026
 30
0.0
 40
2.0
100
AcDbArc
 50
0.0
 51
54.437557
  0
LINE
  5
300
330
27
100
AcDbEntity
  8
2
100
AcDbLine
 10
-11.504552
 20
-47.056026
 30
0.0
 11
-11.504552
 21
-45.70602599999999
 31
0.0
  0
LINE
  5
301
330
27
100
AcDbEntity
  8
2
100
AcDbLine
 10
-9.354551999999999
 20
-57.456026
 30
0.0
 11
-9.354551999999999
 21
-78.356026
 31
0.0
  0
ARC
  5
302
330
27
100
AcDbEntity
  8
2
100
AcDbCircle
 10
-15.482725
 20
-117.145382
 30
0.0
 40
0.5
100
AcDbArc
 50
93.279341
 51
169.2122
  0
ARC
  5
303
330
27
100
AcDbEntity
  8
2
100
AcDbCircle
 10
-15.004552
 20
-114.674359
 30
0.0
 40
1.0
100
AcDbArc
 50
180.0
 51
280.36976
  0
ARC
  5
304
330
27
100
AcDbEntity
  8
2
100
AcDbCircle
 10
-15.004552
 20
-105.461025
 30
0.0
 40
1.0
100
AcDbArc
 50
102.709033
 51
180.0
  0
ARC
  5
305
330
27
100
AcDbEntity
  8
2
100
AcDbCircle
 10
-16.956216
 20
-116.864624
 30
0.0
 40
1.0
100
AcDbArc
 50
259.02779
 51
349.2122
  0
ARC
  5
306
330
27
100
AcDbEntity
  8
2
100
AcDbCircle
 10
-14.004552
 20
-96.947901
 30
0.0
 40
4.0
100
AcDbArc
 50
309.79182
 51
360.0
  0
ARC
  5
307
330
27
100
AcDbEntity
  8
2
100
AcDbCircle
 10
-15.004552
 20
-83.506026
 30
0.0
 40
1.0
100
AcDbArc
 50
90.0
 51
180.0
  0
ARC
  5
308
330
27
100
AcDbEntity
  8
2
100
AcDbCircle
 10
-15.004552
 20
-100.79758
 30
0.0
 40
1.0
100
AcDbArc
 50
180.0
 51
285.962014
  0
ARC
  5
309
330
27
100
AcDbEntity
  8
2
100
AcDbCircle
 10
-15.482725
 20
-18.76667
 30
0.0
 40
0.5
100
AcDbArc
 50
190.7878
 51
266.720659
  0
ARC
  5
30A
330
27
100
AcDbEntity
  8
2
100
AcDbCircle
 10
-16.956216
 20
-19.047428
 30
0.0
 40
1.0
100
AcDbArc
 50
10.7878
 51
100.97221
  0
ARC
  5
30B
330
27
100
AcDbEntity
  8
2
100
AcDbCircle
 10
-15.004552
 20
-21.237693
 30
0.0
 40
1.0
100
AcDbArc
 50
79.63024
 51
180.0
  0
ARC
  5
30C
330
27
100
AcDbEntity
  8
2
100
AcDbCircle
 10
-15.004552
 20
-30.45102700000001
 30
0.0
 40
1.0
100
AcDbArc
 50
180.0
 51
257.290967
  0
ARC
  5
30D
330
27
100
AcDbEntity
  8
2
100
AcDbCircle
 10
-14.004552
 20
-38.964152
 30
0.0
 40
4.0
100
AcDbArc
 50
0.0
 51
50.208181
  0
ARC
  5
30E
330
27
100
AcDbEntity
  8
2
100
AcDbCircle
 10
-15.004552
 20
-52.406026
 30
0.0
 40
1.0
100
AcDbArc
 50
180.0
 51
270.0
  0
ARC
  5
30F
330
27
100
AcDbEntity
  8
2
100
AcDbCircle
 10
-15.004552
 20
-35.114472
 30
0.0
 40
1.0
100
AcDbArc
 50
74.037986
 51
180.0
  0
ARC
  5
310
330
27
100
AcDbEntity
  8
2
100
AcDbCircle
 10
124.815264
 20
-54.052199
 30
0.0
 40
150.0
100
AcDbArc
 50
167.936174
 51
172.962154
  0
ARC
  5
311
330
27
100
AcDbEntity
  8
2
100
AcDbCircle
 10
124.815264
 20
-81.859853
 30
0.0
 40
150.0
100
AcDbArc
 50
187.037846
 51
192.063826
  0
ARC
  5
312
330
27
100
AcDbEntity
  8
2
100
AcDbCircle
 10
-22.004552
 20
-59.47074499999999
 30
0.0
 40
12.0
100
AcDbArc
 50
339.950024
 51
360.0
  0
ARC
  5
313
330
27
100
AcDbEntity
  8
2
100
AcDbCircle
 10
-306.195276
 20
194.193974
 30
0.0
 40
12.0
100
AcDbArc
 50
69.950024
 51
90.0
  0
ARC
  5
314
330
27
100
AcDbEntity
  8
2
100
AcDbCircle
 10
-254.591554
 20
204.070443
 30
0.0
 40
2.0
100
AcDbArc
 50
70.754889
 51
126.547676
  0
LINE
  5
315
330
27
100
AcDbEntity
  8
2
100
AcDbLine
 10
-254.828595
 20
206.056346
 30
0.0
 11
-253.676351
 21
206.19388
 31
0.0
  0
ARC
  5
316
330
27
100
AcDbEntity
  8
2
100
AcDbCircle
 10
-340.828435
 20
204.070443
 30
0.0
 40
2.0
100
AcDbArc
 50
53.452324
 51
109.245111
  0
LINE
  5
317
330
27
100
AcDbEntity
  8
2
100
AcDbLine
 10
-341.743637
 20
206.19388
 30
0.0
 11
-340.591394
 21
206.056346
 31
0.0
  0
ARC
  5
318
330
27
100
AcDbEntity
  8
2
100
AcDbCircle
 10
-12.128083
 20
-24.837586
 30
0.0
 40
2.0
100
AcDbArc
 50
323.4523240000001
 51
19.245111
  0
LINE
  5
319
330
27
100
AcDbEntity
  8
2
100
AcDbLine
 10
-10.004646
 20
-23.922383
 30
0.0
 11
-10.14218
 21
-25.074627
 31
0.0
  0
ARC
  5
31A
330
27
100
AcDbEntity
  8
2
100
AcDbCircle
 10
-12.128083
 20
-111.074466
 30
0.0
 40
2.0
100
AcDbArc
 50
340.754889
 51
36.547676
  0
LINE
  5
31B
330
27
100
AcDbEntity
  8
2
100
AcDbLine
 10
-10.004646
 20
-111.989669
 30
0.0
 11
-10.14218
 21
-110.837425
 31
0.0
  0
LINE
  5
31C
330
27
100
AcDbEntity
  8
2
100
AcDbLine
 10
-273.709994
 20
387.143974
 30
0.0
 11
-241.709994
 21
387.143974
 31
0.0
  0
LINE
  5
31D
330
27
100
AcDbEntity
  8
2
100
AcDbLine
 10
-273.709994
 20
311.143974
 30
0.0
 11
-241.709994
 21
311.143974
 31
0.0
  0
LINE
  5
31E
330
27
100
AcDbEntity
  8
2
100
AcDbLine
 10
-239.709994
 20
296.143974
 30
0.0
 11
-239.709994
 21
309.143974
 31
0.0
  0
LINE
  5
31F
330
27
100
AcDbEntity
  8
2
100
AcDbLine
 10
-239.709994
 20
389.143974
 30
0.0
 11
-239.709994
 21
407.143974
 31
0.0
  0
LINE
  5
320
330
27
100
AcDbEntity
  8
2
100
AcDbLine
 10
-434.2524809999999
 20
406.1439739999999
 30
0.0
 11
-274.709994
 21
406.1439739999999
 31
0.0
  0
LINE
  5
321
330
27
100
AcDbEntity
  8
2
100
AcDbLine
 10
123.382948
 20
-78.756026
 30
0.0
 11
123.382948
 21
-83.70602599999999
 31
0.0
  0
LINE
  5
322
330
27
100
AcDbEntity
  8
2
100
AcDbLine
 10
118.732948
 20
-77.481026
 30
0.0
 11
121.357948
 21
-76.20602599999999
 31
0.0
  0
LINE
  5
323
330
27
100
AcDbEntity
  8
2
100
AcDbLine
 10
123.982948
 20
-77.481026
 30
0.0
 11
123.982948
 21
-76.20602599999999
 31
0.0
  0
LINE
  5
324
330
27
100
AcDbEntity
  8
2
100
AcDbLine
 10
124.732948
 20
-79.62388299999999
 30
0.0
 11
124.732948
 21
-81.56316899999998
 31
0.0
  0
LINE
  5
325
330
27
100
AcDbEntity
  8
2
100
AcDbLine
 10
131.257948
 20
-79.62388299999999
 30
0.0
 11
131.257948
 21
-81.56316899999998
 31
0.0
  0
LINE
  5
326
330
27
100
AcDbEntity
  8
2
100
AcDbLine
 10
126.757948
 20
-79.602455
 30
0.0
 11
126.757948
 21
-81.58459800000001
 31
0.0
  0
LINE
  5
327
330
27
100
AcDbEntity
  8
2
100
AcDbLine
 10
129.232948
 20
-79.602455
 30
0.0
 11
129.232948
 21
-81.58459800000001
 31
0.0
  0
ARC
  5
328
330
27
100
AcDbEntity
  8
2
100
AcDbCircle
 10
126.875806
 20
-81.56316899999998
 30
0.0
 40
2.142856999999999
100
AcDbArc
 50
180.0
 51
270.0
  0
ARC
  5
329
330
27
100
AcDbEntity
  8
2
100
AcDbCircle
 10
129.115091
 20
-81.56316899999998
 30
0.0
 40
2.142856999999999
100
AcDbArc
 50
270.0
 51
360.0
  0
ARC
  5
32A
330
27
100
AcDbEntity
  8
2
100
AcDbCircle
 10
126.875806
 20
-79.62388299999999
 30
0.0
 40
2.142856999999999
100
AcDbArc
 50
90.0
 51
180.0
  0
ARC
  5
32B
330
27
100
AcDbEntity
  8
2
100
AcDbCircle
 10
129.115091
 20
-79.62388299999999
 30
0.0
 40
2.142856999999999
100
AcDbArc
 50
360.0
 51
90.0
  0
ARC
  5
32C
330
27
100
AcDbEntity
  8
2
100
AcDbCircle
 10
127.829377
 20
-81.58459800000001
 30
0.0
 40
1.071429
100
AcDbArc
 50
180.0
 51
270.0
  0
ARC
  5
32D
330
27
100
AcDbEntity
  8
2
100
AcDbCircle
 10
128.16152
 20
-81.58459800000001
 30
0.0
 40
1.071429
100
AcDbArc
 50
270.0
 51
360.0
  0
ARC
  5
32E
330
27
100
AcDbEntity
  8
2
100
AcDbCircle
 10
128.16152
 20
-79.602455
 30
0.0
 40
1.071429
100
AcDbArc
 50
0.0
 51
90.0
  0
ARC
  5
32F
330
27
100
AcDbEntity
  8
2
100
AcDbCircle
 10
127.829377
 20
-79.602455
 30
0.0
 40
1.071429
100
AcDbArc
 50
90.0
 51
180.0
  0
LINE
  5
330
330
27
100
AcDbEntity
  8
2
100
AcDbLine
 10
121.357948
 20
-83.70602599999999
 30
0.0
 11
123.382948
 21
-83.70602599999999
 31
0.0
  0
LINE
  5
331
330
27
100
AcDbEntity
  8
2
100
AcDbLine
 10
132.382948
 20
-77.481026
 30
0.0
 11
131.932948
 21
-83.70602599999999
 31
0.0
  0
LINE
  5
332
330
27
100
AcDbEntity
  8
2
100
AcDbLine
 10
139.507948
 20
-77.481026
 30
0.0
 11
139.957948
 21
-83.70602599999999
 31
0.0
  0
LINE
  5
333
330
27
100
AcDbEntity
  8
2
100
AcDbLine
 10
134.182948
 20
-78.53102599999999
 30
0.0
 11
133.957948
 21
-83.70602599999999
 31
0.0
  0
LINE
  5
334
330
27
100
AcDbEntity
  8
2
100
AcDbLine
 10
137.707948
 20
-78.53102599999999
 30
0.0
 11
137.932948
 21
-83.70602599999999
 31
0.0
  0
LINE
  5
335
330
27
100
AcDbEntity
  8
2
100
AcDbLine
 10
134.182948
 20
-78.53102599999999
 30
0.0
 11
135.147234
 21
-83.70602599999999
 31
0.0
  0
LINE
  5
336
330
27
100
AcDbEntity
  8
2
100
AcDbLine
 10
137.707948
 20
-78.53102599999999
 30
0.0
 11
136.743663
 21
-83.70602599999999
 31
0.0
  0
LINE
  5
337
330
27
100
AcDbEntity
  8
2
100
AcDbLine
 10
135.945448
 20
-81.20959799999999
 30
0.0
 11
135.250684
 21
-77.481026
 31
0.0
  0
LINE
  5
338
330
27
100
AcDbEntity
  8
2
100
AcDbLine
 10
135.945448
 20
-81.20959799999999
 30
0.0
 11
136.640213
 21
-77.481026
 31
0.0
  0
LINE
  5
339
330
27
100
AcDbEntity
  8
2
100
AcDbLine
 10
126.875806
 20
-77.481026
 30
0.0
 11
129.115091
 21
-77.481026
 31
0.0
  0
LINE
  5
33A
330
27
100
AcDbEntity
  8
2
100
AcDbLine
 10
132.382948
 20
-77.481026
 30
0.0
 11
135.250684
 21
-77.481026
 31
0.0
  0
LINE
  5
33B
330
27
100
AcDbEntity
  8
2
100
AcDbLine
 10
126.875806
 20
-83.70602599999999
 30
0.0
 11
129.115091
 21
-83.70602599999999
 31
0.0
  0
LINE
  5
33C
330
27
100
AcDbEntity
  8
2
100
AcDbLine
 10
131.932948
 20
-83.70602599999999
 30
0.0
 11
133.957948
 21
-83.70602599999999
 31
0.0
  0
LINE
  5
33D
330
27
100
AcDbEntity
  8
2
100
AcDbLine
 10
135.147234
 20
-83.70602599999999
 30
0.0
 11
136.743663
 21
-83.70602599999999
 31
0.0
  0
ARC
  5
33E
330
27
100
AcDbEntity
  8
2
100
AcDbCircle
 10
142.775806
 20
-81.56316899999998
 30
0.0
 40
2.142856999999999
100
AcDbArc
 50
180.0
 51
270.0
  0
ARC
  5
33F
330
27
100
AcDbEntity
  8
2
100
AcDbCircle
 10
145.015091
 20
-81.56316899999998
 30
0.0
 40
2.142856999999999
100
AcDbArc
 50
270.0
 51
360.0
  0
ARC
  5
340
330
27
100
AcDbEntity
  8
2
100
AcDbCircle
 10
144.06152
 20
-81.58459800000001
 30
0.0
 40
1.071429
100
AcDbArc
 50
270.0
 51
360.0
  0
LINE
  5
341
330
27
100
AcDbEntity
  8
2
100
AcDbLine
 10
145.132948
 20
-79.602455
 30
0.0
 11
145.132948
 21
-81.58459800000001
 31
0.0
  0
ARC
  5
342
330
27
100
AcDbEntity
  8
2
100
AcDbCircle
 10
143.729377
 20
-81.58459800000001
 30
0.0
 40
1.071429
100
AcDbArc
 50
180.0
 51
270.0
  0
LINE
  5
343
330
27
100
AcDbEntity
  8
2
100
AcDbLine
 10
142.657948
 20
-79.602455
 30
0.0
 11
142.657948
 21
-81.58459800000001
 31
0.0
  0
ARC
  5
344
330
27
100
AcDbEntity
  8
2
100
AcDbCircle
 10
144.06152
 20
-79.602455
 30
0.0
 40
1.071429
100
AcDbArc
 50
0.0
 51
90.0
  0
ARC
  5
345
330
27
100
AcDbEntity
  8
2
100
AcDbCircle
 10
143.729377
 20
-79.602455
 30
0.0
 40
1.071429
100
AcDbArc
 50
90.0
 51
180.0
  0
ARC
  5
346
330
27
100
AcDbEntity
  8
2
100
AcDbCircle
 10
142.775806
 20
-79.62388299999999
 30
0.0
 40
2.142856999999999
100
AcDbArc
 50
90.0
 51
180.0
  0
ARC
  5
347
330
27
100
AcDbEntity
  8
2
100
AcDbCircle
 10
145.015091
 20
-79.62388299999999
 30
0.0
 40
2.142856999999999
100
AcDbArc
 50
360.0
 51
90.0
  0
LINE
  5
348
330
27
100
AcDbEntity
  8
2
100
AcDbLine
 10
147.157948
 20
-79.62388299999999
 30
0.0
 11
147.157948
 21
-81.56316899999998
 31
0.0
  0
LINE
  5
349
330
27
100
AcDbEntity
  8
2
100
AcDbLine
 10
128.16152
 20
-78.53102599999999
 30
0.0
 11
127.829377
 21
-78.53102599999999
 31
0.0
  0
LINE
  5
34A
330
27
100
AcDbEntity
  8
2
100
AcDbLine
 10
128.16152
 20
-82.65602599999999
 30
0.0
 11
127.829377
 21
-82.65602599999999
 31
0.0
  0
LINE
  5
34B
330
27
100
AcDbEntity
  8
2
100
AcDbLine
 10
143.729377
 20
-78.53102599999999
 30
0.0
 11
144.06152
 21
-78.53102599999999
 31
0.0
  0
LINE
  5
34C
330
27
100
AcDbEntity
  8
2
100
AcDbLine
 10
140.632948
 20
-79.62388299999999
 30
0.0
 11
140.632948
 21
-81.56316899999998
 31
0.0
  0
LINE
  5
34D
330
27
100
AcDbEntity
  8
2
100
AcDbLine
 10
136.640213
 20
-77.481026
 30
0.0
 11
139.507948
 21
-77.481026
 31
0.0
  0
LINE
  5
34E
330
27
100
AcDbEntity
  8
2
100
AcDbLine
 10
142.775806
 20
-77.481026
 30
0.0
 11
145.015091
 21
-77.481026
 31
0.0
  0
LINE
  5
34F
330
27
100
AcDbEntity
  8
2
100
AcDbLine
 10
137.932948
 20
-83.70602599999999
 30
0.0
 11
139.957948
 21
-83.70602599999999
 31
0.0
  0
LINE
  5
350
330
27
100
AcDbEntity
  8
2
100
AcDbLine
 10
142.775806
 20
-83.70602599999999
 30
0.0
 11
145.015091
 21
-83.70602599999999
 31
0.0
  0
LINE
  5
351
330
27
100
AcDbEntity
  8
2
100
AcDbLine
 10
148.057948
 20
-77.631026
 30
0.0
 11
148.057948
 21
-83.556026
 31
0.0
  0
LINE
  5
352
330
27
100
AcDbEntity
  8
2
100
AcDbLine
 10
148.057948
 20
-77.631026
 30
0.0
 11
152.932948
 21
-77.631026
 31
0.0
  0
LINE
  5
353
330
27
100
AcDbEntity
  8
2
100
AcDbLine
 10
148.057948
 20
-83.556026
 30
0.0
 11
152.932948
 21
-83.556026
 31
0.0
  0
LINE
  5
354
330
27
100
AcDbEntity
  8
2
100
AcDbLine
 10
150.082948
 20
-82.431026
 30
0.0
 11
152.932948
 21
-82.431026
 31
0.0
  0
LINE
  5
355
330
27
100
AcDbEntity
  8
2
100
AcDbLine
 10
150.082948
 20
-78.756026
 30
0.0
 11
152.932948
 21
-78.756026
 31
0.0
  0
LINE
  5
356
330
27
100
AcDbEntity
  8
2
100
AcDbLine
 10
150.082948
 20
-81.156026
 30
0.0
 11
152.932948
 21
-81.156026
 31
0.0
  0
LINE
  5
357
330
27
100
AcDbEntity
  8
2
100
AcDbLine
 10
150.082948
 20
-80.031026
 30
0.0
 11
152.932948
 21
-80.031026
 31
0.0
  0
LINE
  5
358
330
27
100
AcDbEntity
  8
2
100
AcDbLine
 10
152.932948
 20
-78.756026
 30
0.0
 11
152.932948
 21
-77.631026
 31
0.0
  0
LINE
  5
359
330
27
100
AcDbEntity
  8
2
100
AcDbLine
 10
152.932948
 20
-83.556026
 30
0.0
 11
152.932948
 21
-82.431026
 31
0.0
  0
LINE
  5
35A
330
27
100
AcDbEntity
  8
2
100
AcDbLine
 10
152.932948
 20
-81.156026
 30
0.0
 11
152.932948
 21
-80.031026
 31
0.0
  0
LINE
  5
35B
330
27
100
AcDbEntity
  8
2
100
AcDbLine
 10
150.082948
 20
-82.431026
 30
0.0
 11
150.082948
 21
-81.156026
 31
0.0
  0
LINE
  5
35C
330
27
100
AcDbEntity
  8
2
100
AcDbLine
 10
150.082948
 20
-80.031026
 30
0.0
 11
150.082948
 21
-78.756026
 31
0.0
  0
LINE
  5
35D
330
27
100
AcDbEntity
  8
2
100
AcDbLine
 10
118.732948
 20
-78.756026
 30
0.0
 11
123.382948
 21
-78.756026
 31
0.0
  0
LINE
  5
35E
330
27
100
AcDbEntity
  8
2
100
AcDbLine
 10
121.357948
 20
-76.20602599999999
 30
0.0
 11
121.357948
 21
-83.70602599999999
 31
0.0
  0
LINE
  5
35F
330
27
100
AcDbEntity
  8
2
100
AcDbLine
 10
118.732948
 20
-80.031026
 30
0.0
 11
126.607948
 21
-76.20602599999999
 31
0.0
  0
LINE
  5
360
330
27
100
AcDbEntity
  8
2
100
AcDbLine
 10
118.732948
 20
-76.20602599999999
 30
0.0
 11
118.732948
 21
-80.031026
 31
0.0
  0
LINE
  5
361
330
27
100
AcDbEntity
  8
2
100
AcDbLine
 10
118.732948
 20
-78.756026
 30
0.0
 11
123.982948
 21
-76.20602599999999
 31
0.0
  0
LINE
  5
362
330
27
100
AcDbEntity
  8
2
100
AcDbLine
 10
118.732948
 20
-76.20602599999999
 30
0.0
 11
126.607948
 21
-76.20602599999999
 31
0.0
  0
LINE
  5
363
330
27
100
AcDbEntity
  8
2
100
AcDbLine
 10
118.732948
 20
-77.481026
 30
0.0
 11
123.982948
 21
-77.481026
 31
0.0
  0
LINE
  5
364
330
27
100
AcDbEntity
  8
2
100
AcDbLine
 10
143.729377
 20
-82.65602599999999
 30
0.0
 11
144.06152
 21
-82.65602599999999
 31
0.0
  0
LINE
  5
365
330
27
100
AcDbEntity
  8
2
100
AcDbLine
 10
206.945448
 20
-111.956026
 30
0.0
 11
206.945448
 21
-90.456026
 31
0.0
  0
LINE
  5
366
330
27
100
AcDbEntity
  8
2
100
AcDbLine
 10
206.945448
 20
-80.95602599999999
 30
0.0
 11
206.945448
 21
-25.956026
 31
0.0
  0
ARC
  5
367
330
27
100
AcDbEntity
  8
2
100
AcDbCircle
 10
-387.709994
 20
-67.95602599999999
 30
0.0
 40
150.0
100
AcDbArc
 50
344.131079
 51
16.484205
  0
ARC
  5
368
330
27
100
AcDbEntity
  8
2
100
AcDbCircle
 10
-396.709994
 20
-72.95602599999999
 30
0.0
 40
130.0
100
AcDbArc
 50
167.770243
 51
192.709033
  0
LINE
  5
369
330
27
100
AcDbEntity
  8
2
100
AcDbLine
 10
-496.5332899999999
 20
-21.845865
 30
0.0
 11
-271.648966
 21
-6.120422
 31
0.0
  0
ARC
  5
36A
330
27
100
AcDbEntity
  8
2
100
AcDbCircle
 10
-494.440595
 20
-51.772787
 30
0.0
 40
30.0
100
AcDbArc
 50
94.0
 51
167.770243
  0
ARC
  5
36B
330
27
100
AcDbEntity
  8
2
100
AcDbCircle
 10
-494.259982
 20
-94.95602599999999
 30
0.0
 40
30.0
100
AcDbArc
 50
192.709033
 51
270.0
  0
ARC
  5
36C
330
27
100
AcDbEntity
  8
2
100
AcDbCircle
 10
-269.765541
 20
-33.054651
 30
0.0
 40
27.0
100
AcDbArc
 50
16.484205
 51
94.0
  0
ARC
  5
36D
330
27
100
AcDbEntity
  8
2
100
AcDbCircle
 10
-264.588103
 20
-102.956026
 30
0.0
 40
22.0
100
AcDbArc
 50
270.0
 51
344.131079
  0
CIRCLE
  5
36E
330
27
100
AcDbEntity
  8
2
100
AcDbCircle
 10
-297.709994
 20
-67.95602599999999
 30
0.0
 40
50.0
  0
CIRCLE
  5
36F
330
27
100
AcDbEntity
  8
2
100
AcDbCircle
 10
-297.709994
 20
-67.95602599999999
 30
0.0
 40
32.5
  0
ARC
  5
370
330
27
100
AcDbEntity
  8
2
100
AcDbCircle
 10
-273.709994
 20
3.043973999999999
 30
0.0
 40
1.0
100
AcDbArc
 50
360.0
 51
90.0
  0
ARC
  5
371
330
27
100
AcDbEntity
  8
2
100
AcDbCircle
 10
-273.709994
 20
5.043973999999999
 30
0.0
 40
1.0
100
AcDbArc
 50
180.0
 51
270.0
  0
LINE
  5
372
330
27
100
AcDbEntity
  8
2
100
AcDbLine
 10
-361.709994
 20
63.54397399999999
 30
0.0
 11
-361.709994
 21
55.243974
 31
0.0
  0
LINE
  5
373
330
27
100
AcDbEntity
  8
2
100
AcDbLine
 10
-357.709994
 20
63.54397399999999
 30
0.0
 11
-357.709994
 21
55.243974
 31
0.0
  0
CIRCLE
  5
374
330
27
100
AcDbEntity
  8
2
100
AcDbCircle
 10
-359.709994
 20
346.143974
 30
0.0
 40
42.5
  0
LINE
  5
375
330
27
100
AcDbEntity
  8
2
100
AcDbLine
 10
-390.13219
 20
353.643974
 30
0.0
 11
-369.194947
 21
353.643974
 31
0.0
  0
LINE
  5
376
330
27
100
AcDbEntity
  8
2
100
AcDbLine
 10
-390.13219
 20
338.643974
 30
0.0
 11
-369.194947
 21
338.643974
 31
0.0
  0
LINE
  5
377
330
27
100
AcDbEntity
  8
2
100
AcDbLine
 10
-350.225042
 20
338.643974
 30
0.0
 11
-329.287798
 21
338.643974
 31
0.0
  0
LINE
  5
378
330
27
100
AcDbEntity
  8
2
100
AcDbLine
 10
-357.709994
 20
324.121499
 30
0.0
 11
-357.709994
 21
321.977882
 31
0.0
  0
LINE
  5
379
330
27
100
AcDbEntity
  8
2
100
AcDbLine
 10
-361.709994
 20
324.121499
 30
0.0
 11
-361.709994
 21
321.977882
 31
0.0
  0
LINE
  5
37A
330
27
100
AcDbEntity
  8
2
100
AcDbLine
 10
-357.709994
 20
368.166449
 30
0.0
 11
-357.709994
 21
370.310066
 31
0.0
  0
LINE
  5
37B
330
27
100
AcDbEntity
  8
2
100
AcDbLine
 10
-361.709994
 20
368.166449
 30
0.0
 11
-361.709994
 21
370.310066
 31
0.0
  0
LINE
  5
37C
330
27
100
AcDbEntity
  8
2
100
AcDbLine
 10
-350.225042
 20
353.643974
 30
0.0
 11
-329.287798
 21
353.643974
 31
0.0
  0
LINE
  5
37D
330
27
100
AcDbEntity
  8
2
100
AcDbLine
 10
-434.709994
 20
6.043973999999999
 30
0.0
 11
-443.511596
 21
-18.138227
 31
0.0
  0
LINE
  5
37E
330
27
100
AcDbEntity
  8
2
100
AcDbLine
 10
-432.709994
 20
387.143974
 30
0.0
 11
-426.709994
 21
387.143974
 31
0.0
  0
LINE
  5
37F
330
27
100
AcDbEntity
  8
2
100
AcDbLine
 10
-280.709994
 20
387.143974
 30
0.0
 11
-276.709994
 21
387.143974
 31
0.0
  0
LINE
  5
380
330
27
100
AcDbEntity
  8
2
100
AcDbLine
 10
-420.709994
 20
301.143974
 30
0.0
 11
-420.709994
 21
305.143974
 31
0.0
  0
LINE
  5
381
330
27
100
AcDbEntity
  8
2
100
AcDbLine
 10
-420.709994
 20
393.143974
 30
0.0
 11
-420.709994
 21
397.143974
 31
0.0
  0
LINE
  5
382
330
27
100
AcDbEntity
  8
2
100
AcDbLine
 10
-432.709994
 20
311.143974
 30
0.0
 11
-426.709994
 21
311.143974
 31
0.0
  0
LINE
  5
383
330
27
100
AcDbEntity
  8
2
100
AcDbLine
 10
-280.709994
 20
311.143974
 30
0.0
 11
-276.709994
 21
311.143974
 31
0.0
  0
LINE
  5
384
330
27
100
AcDbEntity
  8
2
100
AcDbLine
 10
-286.709994
 20
301.143974
 30
0.0
 11
-286.709994
 21
305.143974
 31
0.0
  0
LINE
  5
385
330
27
100
AcDbEntity
  8
2
100
AcDbLine
 10
-286.709994
 20
393.143974
 30
0.0
 11
-286.709994
 21
397.143974
 31
0.0
  0
ARC
  5
386
330
27
100
AcDbEntity
  8
2
100
AcDbCircle
 10
-280.709994
 20
393.143974
 30
0.0
 40
6.0
100
AcDbArc
 50
180.0
 51
270.0
  0
ARC
  5
387
330
27
100
AcDbEntity
  8
2
100
AcDbCircle
 10
-426.709994
 20
393.143974
 30
0.0
 40
6.0
100
AcDbArc
 50
270.0
 51
360.0
  0
ARC
  5
388
330
27
100
AcDbEntity
  8
2
100
AcDbCircle
 10
-426.709994
 20
305.143974
 30
0.0
 40
6.0
100
AcDbArc
 50
0.0
 51
90.0
  0
ARC
  5
389
330
27
100
AcDbEntity
  8
2
100
AcDbCircle
 10
-280.709994
 20
305.143974
 30
0.0
 40
6.0
100
AcDbArc
 50
90.0
 51
180.0
  0
ARC
  5
38A
330
27
100
AcDbEntity
  8
2
100
AcDbCircle
 10
-359.709994
 20
42.043974
 30
0.0
 40
34.0
100
AcDbArc
 50
22.844739
 51
157.155261
  0
CIRCLE
  5
38B
330
27
100
AcDbEntity
  8
2
100
AcDbCircle
 10
-359.709994
 20
346.143974
 30
0.0
 40
31.33305
  0
ARC
  5
38C
330
27
100
AcDbEntity
  8
2
100
AcDbCircle
 10
-397.134604
 20
346.470823
 30
0.0
 40
45.0
100
AcDbArc
 50
12.236103
 51
30.645688
  0
ARC
  5
38D
330
27
100
AcDbEntity
  8
2
100
AcDbCircle
 10
-322.285385
 20
346.470823
 30
0.0
 40
45.0
100
AcDbArc
 50
149.354312
 51
167.763897
  0
ARC
  5
38E
330
27
100
AcDbEntity
  8
2
100
AcDbCircle
 10
-359.709994
 20
368.643974
 30
0.0
 40
1.5
100
AcDbArc
 50
30.645688
 51
149.354312
  0
ARC
  5
38F
330
27
100
AcDbEntity
  8
2
100
AcDbCircle
 10
-350.225042
 20
356.643974
 30
0.0
 40
3.0
100
AcDbArc
 50
192.236103
 51
270.0
  0
ARC
  5
390
330
27
100
AcDbEntity
  8
2
100
AcDbCircle
 10
-369.194947
 20
356.643974
 30
0.0
 40
3.0
100
AcDbArc
 50
270.0
 51
347.763897
  0
ARC
  5
391
330
27
100
AcDbEntity
  8
2
100
AcDbCircle
 10
-397.134604
 20
345.817125
 30
0.0
 40
45.0
100
AcDbArc
 50
329.354312
 51
347.763897
  0
ARC
  5
392
330
27
100
AcDbEntity
  8
2
100
AcDbCircle
 10
-322.285385
 20
345.817125
 30
0.0
 40
45.0
100
AcDbArc
 50
192.236103
 51
210.645688
  0
ARC
  5
393
330
27
100
AcDbEntity
  8
2
100
AcDbCircle
 10
-359.709994
 20
323.643974
 30
0.0
 40
1.5
100
AcDbArc
 50
210.645688
 51
329.354312
  0
ARC
  5
394
330
27
100
AcDbEntity
  8
2
100
AcDbCircle
 10
-350.225042
 20
335.643974
 30
0.0
 40
3.0
100
AcDbArc
 50
90.0
 51
167.763897
  0
ARC
  5
395
330
27
100
AcDbEntity
  8
2
100
AcDbCircle
 10
-369.194947
 20
335.643974
 30
0.0
 40
3.0
100
AcDbArc
 50
12.236103
 51
90.0
  0
ARC
  5
396
330
27
100
AcDbEntity
  8
2
100
AcDbCircle
 10
-359.709994
 20
346.143974
 30
0.0
 40
24.248711
100
AcDbArc
 50
18.016736
 51
161.983264
  0
ARC
  5
397
330
27
100
AcDbEntity
  8
2
100
AcDbCircle
 10
-359.709994
 20
346.143974
 30
0.0
 40
24.248711
100
AcDbArc
 50
198.016736
 51
341.983264
  0
ARC
  5
398
330
27
100
AcDbEntity
  8
2
100
AcDbCircle
 10
-276.709994
 20
385.143974
 30
0.0
 40
2.0
100
AcDbArc
 50
0.0
 51
90.0
  0
ARC
  5
399
330
27
100
AcDbEntity
  8
2
100
AcDbCircle
 10
-288.709994
 20
397.143974
 30
0.0
 40
2.0
100
AcDbArc
 50
0.0
 51
90.0
  0
ARC
  5
39A
330
27
100
AcDbEntity
  8
2
100
AcDbCircle
 10
-276.709994
 20
313.143974
 30
0.0
 40
2.0
100
AcDbArc
 50
270.0
 51
360.0
  0
ARC
  5
39B
330
27
100
AcDbEntity
  8
2
100
AcDbCircle
 10
-288.709994
 20
301.143974
 30
0.0
 40
2.0
100
AcDbArc
 50
270.0
 51
360.0
  0
ARC
  5
39C
330
27
100
AcDbEntity
  8
2
100
AcDbCircle
 10
-418.709994
 20
301.143974
 30
0.0
 40
2.0
100
AcDbArc
 50
180.0
 51
270.0
  0
ARC
  5
39D
330
27
100
AcDbEntity
  8
2
100
AcDbCircle
 10
-432.709994
 20
313.143974
 30
0.0
 40
2.0
100
AcDbArc
 50
180.0
 51
270.0
  0
ARC
  5
39E
330
27
100
AcDbEntity
  8
2
100
AcDbCircle
 10
-418.709994
 20
397.143974
 30
0.0
 40
2.0
100
AcDbArc
 50
90.0
 51
180.0
  0
ARC
  5
39F
330
27
100
AcDbEntity
  8
2
100
AcDbCircle
 10
-432.709994
 20
385.143974
 30
0.0
 40
2.0
100
AcDbArc
 50
90.0
 51
180.0
  0
ARC
  5
3A0
330
27
100
AcDbEntity
  8
2
100
AcDbCircle
 10
-359.709994
 20
40.543974
 30
0.0
 40
28.0
100
AcDbArc
 50
34.712682
 51
81.88425399999999
  0
ARC
  5
3A1
330
27
100
AcDbEntity
  8
2
100
AcDbCircle
 10
-359.709994
 20
40.543974
 30
0.0
 40
28.0
100
AcDbArc
 50
98.115746
 51
145.287318
  0
ARC
  5
3A2
330
27
100
AcDbEntity
  8
2
100
AcDbCircle
 10
-360.709994
 20
63.54397399999999
 30
0.0
 40
1.0
100
AcDbArc
 50
90.0
 51
180.0
  0
ARC
  5
3A3
330
27
100
AcDbEntity
  8
2
100
AcDbCircle
 10
-358.709994
 20
63.54397399999999
 30
0.0
 40
1.0
100
AcDbArc
 50
0.0
 51
90.0
  0
LINE
  5
3A4
330
27
100
AcDbEntity
  8
2
100
AcDbLine
 10
-360.709994
 20
64.54397400000001
 30
0.0
 11
-360.3452279999999
 21
64.543979
 31
0.0
  0
LINE
  5
3A5
330
27
100
AcDbEntity
  8
2
100
AcDbLine
 10
-359.074528
 20
64.544088
 30
0.0
 11
-358.709994
 21
64.54397400000001
 31
0.0
  0
LINE
  5
3A6
330
27
100
AcDbEntity
  8
2
100
AcDbLine
 10
-368.525662
 20
323.554507
 30
0.0
 11
-366.526793
 21
328.380204
 31
0.0
  0
LINE
  5
3A7
330
27
100
AcDbEntity
  8
2
100
AcDbLine
 10
-351.969316
 20
363.52506
 30
0.0
 11
-349.9704470000001
 21
368.350757
 31
0.0
  0
LINE
  5
3A8
330
27
100
AcDbEntity
  8
2
100
AcDbLine
 10
-369.449541
 20
323.937191
 30
0.0
 11
-367.450672
 21
328.762887
 31
0.0
  0
LINE
  5
3A9
330
27
100
AcDbEntity
  8
2
100
AcDbLine
 10
-352.893196
 20
363.907744
 30
0.0
 11
-350.894327
 21
368.733441
 31
0.0
  0
LINE
  5
3AA
330
27
100
AcDbEntity
  8
2
100
AcDbLine
 10
-376.499224
 20
328.647638
 30
0.0
 11
-372.8057950000001
 21
332.341066
 31
0.0
  0
LINE
  5
3AB
330
27
100
AcDbEntity
  8
2
100
AcDbLine
 10
-345.907087
 20
359.239775
 30
0.0
 11
-342.213658
 21
362.933203
 31
0.0
  0
LINE
  5
3AC
330
27
100
AcDbEntity
  8
2
100
AcDbLine
 10
-377.20633
 20
329.3547450000001
 30
0.0
 11
-373.512902
 21
333.048173
 31
0.0
  0
LINE
  5
3AD
330
27
100
AcDbEntity
  8
2
100
AcDbLine
 10
-346.614193
 20
359.946882
 30
0.0
 11
-342.920765
 21
363.64031
 31
0.0
  0
LINE
  5
3AE
330
27
100
AcDbEntity
  8
2
100
AcDbLine
 10
-381.916778
 20
336.404427
 30
0.0
 11
-377.091081
 21
338.403296
 31
0.0
  0
LINE
  5
3AF
330
27
100
AcDbEntity
  8
2
100
AcDbLine
 10
-340.29683
 20
353.643974
 30
0.0
 11
-337.120528
 21
354.959641
 31
0.0
  0
LINE
  5
3B0
330
27
100
AcDbEntity
  8
2
100
AcDbLine
 10
-382.299461
 20
337.328307
 30
0.0
 11
-379.123159
 21
338.643974
 31
0.0
  0
LINE
  5
3B1
330
27
100
AcDbEntity
  8
2
100
AcDbLine
 10
-342.328908
 20
353.884652
 30
0.0
 11
-337.503211
 21
355.883521
 31
0.0
  0
ARC
  5
3B2
330
27
100
AcDbEntity
  8
2
100
AcDbCircle
 10
-366.988732
 20
328.571546
 30
0.0
 40
0.5
100
AcDbArc
 50
337.5
 51
157.5
  0
ARC
  5
3B3
330
27
100
AcDbEntity
  8
2
100
AcDbCircle
 10
-373.159349
 20
332.69462
 30
0.0
 40
0.5
100
AcDbArc
 50
315.0
 51
135.0
  0
ARC
  5
3B4
330
27
100
AcDbEntity
  8
2
100
AcDbCircle
 10
-377.282422
 20
338.865236
 30
0.0
 40
0.5
100
AcDbArc
 50
292.5
 51
333.734975
  0
ARC
  5
3B5
330
27
100
AcDbEntity
  8
2
100
AcDbCircle
 10
-352.431256
 20
363.716402
 30
0.0
 40
0.5
100
AcDbArc
 50
157.5
 51
337.5
  0
ARC
  5
3B6
330
27
100
AcDbEntity
  8
2
100
AcDbCircle
 10
-346.26064
 20
359.593328
 30
0.0
 40
0.5
100
AcDbArc
 50
135.0
 51
315.0
  0
ARC
  5
3B7
330
27
100
AcDbEntity
  8
2
100
AcDbCircle
 10
-342.137566
 20
353.422712
 30
0.0
 40
0.5
100
AcDbArc
 50
112.5
 51
153.734975
  0
LINE
  5
3B8
330
27
100
AcDbEntity
  8
2
100
AcDbLine
 10
-342.90863
 20
337.29028
 30
0.0
 11
-340.886584
 21
336.452721
 31
0.0
  0
ARC
  5
3B9
330
27
100
AcDbEntity
  8
2
100
AcDbCircle
 10
-342.238879
 20
338.907201
 30
0.0
 40
1.750143
100
AcDbArc
 50
188.650293
 51
247.5
  0
ARC
  5
3BA
330
27
100
AcDbEntity
  8
2
100
AcDbCircle
 10
-340.216834
 20
338.069642
 30
0.0
 40
1.750143
100
AcDbArc
 50
247.5
 51
19.157293
  0
LINE
  5
3BB
330
27
100
AcDbEntity
  8
2
100
AcDbLine
 10
-376.511359
 20
354.997668
 30
0.0
 11
-378.533404
 21
355.835227
 31
0.0
  0
ARC
  5
3BC
330
27
100
AcDbEntity
  8
2
100
AcDbCircle
 10
-377.18111
 20
353.3807470000001
 30
0.0
 40
1.750143
100
AcDbArc
 50
8.650292999999999
 51
67.5
  0
ARC
  5
3BD
330
27
100
AcDbEntity
  8
2
100
AcDbCircle
 10
-379.203155
 20
354.218305
 30
0.0
 40
1.750143
100
AcDbArc
 50
67.5
 51
199.157293
  0
ARC
  5
3BE
330
27
100
AcDbEntity
  8
2
100
AcDbCircle
 10
-324.309599
 20
44.809603
 30
0.0
 40
45.27491699999999
100
AcDbArc
 50
159.10214
 51
166.675437
  0
ARC
  5
3BF
330
27
100
AcDbEntity
  8
2
100
AcDbCircle
 10
-325.233479
 20
44.809603
 30
0.0
 40
45.27491699999999
100
AcDbArc
 50
158.681079
 51
166.675437
  0
ARC
  5
3C0
330
27
100
AcDbEntity
  8
2
100
AcDbCircle
 10
-367.008831
 20
61.113027
 30
0.0
 40
0.4309470000000001
100
AcDbArc
 50
339.10214
 51
158.681079
  0
ARC
  5
3C1
330
27
100
AcDbEntity
  8
2
100
AcDbCircle
 10
-348.280065
 20
43.04272199999999
 30
0.0
 40
30.472934
100
AcDbArc
 50
143.677597
 51
156.39704
  0
ARC
  5
3C2
330
27
100
AcDbEntity
  8
2
100
AcDbCircle
 10
-348.987172
 20
43.04272199999999
 30
0.0
 40
30.472934
100
AcDbArc
 50
142.882669
 51
156.39704
  0
ARC
  5
3C3
330
27
100
AcDbEntity
  8
2
100
AcDbCircle
 10
-373.060346
 20
61.26056999999999
 30
0.0
 40
0.283404
100
AcDbArc
 50
323.677597
 51
142.882669
  0
ARC
  5
3C4
330
27
100
AcDbEntity
  8
2
100
AcDbCircle
 10
-357.035653
 20
41.27584
 30
0.0
 40
28.197761
100
AcDbArc
 50
134.711482
 51
150.306296
  0
ARC
  5
3C5
330
27
100
AcDbEntity
  8
2
100
AcDbCircle
 10
-357.418336
 20
41.27584
 30
0.0
 40
28.197761
100
AcDbArc
 50
134.156238
 51
150.306296
  0
ARC
  5
3C6
330
27
100
AcDbEntity
  8
2
100
AcDbCircle
 10
-376.968069
 20
61.410017
 30
0.0
 40
0.133957
100
AcDbArc
 50
314.711482
 51
134.156238
  0
ARC
  5
3C7
330
27
100
AcDbEntity
  8
2
100
AcDbCircle
 10
-359.709994
 20
42.043974
 30
0.0
 40
33.162479
100
AcDbArc
 50
104.962752
 51
150.128593
  0
ARC
  5
3C8
330
27
100
AcDbEntity
  8
2
100
AcDbCircle
 10
-354.155446
 20
74.033837
 30
0.0
 40
10.0
100
AcDbArc
 50
202.238154
 51
227.992896
  0
ARC
  5
3C9
330
27
100
AcDbEntity
  8
2
100
AcDbCircle
 10
-367.497676
 20
71.18375999999999
 30
0.0
 40
3.0
100
AcDbArc
 50
42.388379
 51
104.962752
  0
ARC
  5
3CA
330
27
100
AcDbEntity
  8
2
100
AcDbCircle
 10
-372.667821
 20
66.464692
 30
0.0
 40
10.0
100
AcDbArc
 50
22.238154
 51
42.388379
  0
ARC
  5
3CB
330
27
100
AcDbEntity
  8
2
100
AcDbCircle
 10
-365.264543
 20
74.033837
 30
0.0
 40
10.0
100
AcDbArc
 50
312.007104
 51
337.761846
  0
ARC
  5
3CC
330
27
100
AcDbEntity
  8
2
100
AcDbCircle
 10
-346.752168
 20
66.464692
 30
0.0
 40
10.0
100
AcDbArc
 50
137.611621
 51
157.761846
  0
ARC
  5
3CD
330
27
100
AcDbEntity
  8
2
100
AcDbCircle
 10
-351.922312
 20
71.18375999999999
 30
0.0
 40
3.0
100
AcDbArc
 50
75.03724799999999
 51
137.611621
  0
ARC
  5
3CE
330
27
100
AcDbEntity
  8
2
100
AcDbCircle
 10
-359.709994
 20
42.043974
 30
0.0
 40
33.162479
100
AcDbArc
 50
29.871407
 51
75.03724799999999
  0
ARC
  5
3CF
330
27
100
AcDbEntity
  8
2
100
AcDbCircle
 10
-359.709994
 20
67.86642399999999
 30
0.0
 40
1.7
100
AcDbArc
 50
227.992896
 51
312.007104
  0
ARC
  5
3D0
330
27
100
AcDbEntity
  8
2
100
AcDbCircle
 10
-359.235103
 20
41.221439
 30
0.0
 40
32.849358
100
AcDbArc
 50
105.470231
 51
147.621493
  0
ARC
  5
3D1
330
27
100
AcDbEntity
  8
2
100
AcDbCircle
 10
-353.201494
 20
74.14233399999999
 30
0.0
 40
12.0
100
AcDbArc
 50
200.135943
 51
231.694293
  0
ARC
  5
3D2
330
27
100
AcDbEntity
  8
2
100
AcDbCircle
 10
-370.101306
 20
67.94585699999998
 30
0.0
 40
6.0
100
AcDbArc
 50
20.135943
 51
48.74744899999999
  0
ARC
  5
3D3
330
27
100
AcDbEntity
  8
2
100
AcDbCircle
 10
-367.463789
 20
70.953099
 30
0.0
 40
2.0
100
AcDbArc
 50
48.74744899999999
 51
105.470231
  0
ARC
  5
3D4
330
27
100
AcDbEntity
  8
2
100
AcDbCircle
 10
-366.218495
 20
74.14233399999999
 30
0.0
 40
12.0
100
AcDbArc
 50
308.305707
 51
339.864057
  0
ARC
  5
3D5
330
27
100
AcDbEntity
  8
2
100
AcDbCircle
 10
-349.318682
 20
67.94585699999998
 30
0.0
 40
6.0
100
AcDbArc
 50
131.252551
 51
159.864057
  0
ARC
  5
3D6
330
27
100
AcDbEntity
  8
2
100
AcDbCircle
 10
-351.956199
 20
70.953099
 30
0.0
 40
2.0
100
AcDbArc
 50
74.52976899999999
 51
131.252551
  0
ARC
  5
3D7
330
27
100
AcDbEntity
  8
2
100
AcDbCircle
 10
-360.184885
 20
41.221439
 30
0.0
 40
32.849358
100
AcDbArc
 50
32.378507
 51
74.52976899999999
  0
ARC
  5
3D8
330
27
100
AcDbEntity
  8
2
100
AcDbCircle
 10
-359.709994
 20
65.902831
 30
0.0
 40
1.5
100
AcDbArc
 50
231.694293
 51
308.305707
  0
CIRCLE
  5
3D9
330
27
100
AcDbEntity
  8
2
100
AcDbCircle
 10
-280.709994
 20
305.143974
 30
0.0
 40
4.5
  0
CIRCLE
  5
3DA
330
27
100
AcDbEntity
  8
2
100
AcDbCircle
 10
-280.709994
 20
393.143974
 30
0.0
 40
4.5
  0
CIRCLE
  5
3DB
330
27
100
AcDbEntity
  8
2
100
AcDbCircle
 10
-426.709994
 20
305.143974
 30
0.0
 40
4.5
  0
CIRCLE
  5
3DC
330
27
100
AcDbEntity
  8
2
100
AcDbCircle
 10
-426.709994
 20
393.143974
 30
0.0
 40
4.5
  0
CIRCLE
  5
3DD
330
27
100
AcDbEntity
  8
2
100
AcDbCircle
 10
-333.19349
 20
319.62747
 30
0.0
 40
3.5
  0
CIRCLE
  5
3DE
330
27
100
AcDbEntity
  8
2
100
AcDbCircle
 10
-333.19349
 20
372.660478
 30
0.0
 40
3.5
  0
CIRCLE
  5
3DF
330
27
100
AcDbEntity
  8
2
100
AcDbCircle
 10
-386.226499
 20
319.62747
 30
0.0
 40
3.5
  0
CIRCLE
  5
3E0
330
27
100
AcDbEntity
  8
2
100
AcDbCircle
 10
-386.226499
 20
372.660478
 30
0.0
 40
3.5
  0
LINE
  5
3E1
330
27
100
AcDbEntity
  8
2
100
AcDbLine
 10
-329.39349
 20
56.243974
 30
0.0
 11
-336.99349
 21
56.243974
 31
0.0
  0
LINE
  5
3E2
330
27
100
AcDbEntity
  8
2
100
AcDbLine
 10
-329.39349
 20
56.243974
 30
0.0
 11
-329.39349
 21
55.243974
 31
0.0
  0
LINE
  5
3E3
330
27
100
AcDbEntity
  8
2
100
AcDbLine
 10
-336.99349
 20
56.243974
 30
0.0
 11
-336.99349
 21
55.243974
 31
0.0
  0
LINE
  5
3E4
330
27
100
AcDbEntity
  8
2
100
AcDbLine
 10
-329.69349
 20
57.222998
 30
0.0
 11
-329.69349
 21
56.243974
 31
0.0
  0
LINE
  5
3E5
330
27
100
AcDbEntity
  8
2
100
AcDbLine
 10
-336.69349
 20
57.222998
 30
0.0
 11
-336.69349
 21
56.243974
 31
0.0
  0
ARC
  5
3E6
330
27
100
AcDbEntity
  8
2
100
AcDbCircle
 10
-333.19349
 20
49.84397399999999
 30
0.0
 40
9.0
100
AcDbArc
 50
73.39845
 51
106.60155
  0
ARC
  5
3E7
330
27
100
AcDbEntity
  8
2
100
AcDbCircle
 10
-330.99349
 20
57.222998
 30
0.0
 40
1.3
100
AcDbArc
 50
0.0
 51
73.39845
  0
ARC
  5
3E8
330
27
100
AcDbEntity
  8
2
100
AcDbCircle
 10
-335.39349
 20
57.222998
 30
0.0
 40
1.3
100
AcDbArc
 50
106.60155
 51
180.0
  0
LINE
  5
3E9
330
27
100
AcDbEntity
  8
2
100
AcDbLine
 10
-382.4264990000001
 20
56.243974
 30
0.0
 11
-390.026499
 21
56.243974
 31
0.0
  0
LINE
  5
3EA
330
27
100
AcDbEntity
  8
2
100
AcDbLine
 10
-382.4264990000001
 20
56.243974
 30
0.0
 11
-382.4264990000001
 21
55.243974
 31
0.0
  0
LINE
  5
3EB
330
27
100
AcDbEntity
  8
2
100
AcDbLine
 10
-390.026499
 20
56.243974
 30
0.0
 11
-390.026499
 21
55.243974
 31
0.0
  0
LINE
  5
3EC
330
27
100
AcDbEntity
  8
2
100
AcDbLine
 10
-382.7264990000001
 20
57.222998
 30
0.0
 11
-382.7264990000001
 21
56.243974
 31
0.0
  0
LINE
  5
3ED
330
27
100
AcDbEntity
  8
2
100
AcDbLine
 10
-389.726499
 20
57.222998
 30
0.0
 11
-389.726499
 21
56.243974
 31
0.0
  0
ARC
  5
3EE
330
27
100
AcDbEntity
  8
2
100
AcDbCircle
 10
-386.226499
 20
49.84397399999999
 30
0.0
 40
9.0
100
AcDbArc
 50
73.39845
 51
106.60155
  0
ARC
  5
3EF
330
27
100
AcDbEntity
  8
2
100
AcDbCircle
 10
-384.026499
 20
57.222998
 30
0.0
 40
1.3
100
AcDbArc
 50
0.0
 51
73.39845
  0
ARC
  5
3F0
330
27
100
AcDbEntity
  8
2
100
AcDbCircle
 10
-388.4264990000001
 20
57.222998
 30
0.0
 40
1.3
100
AcDbArc
 50
106.60155
 51
180.0
  0
ARC
  5
3F1
330
27
100
AcDbEntity
  8
2
100
AcDbCircle
 10
129.945448
 20
42.043974
 30
0.0
 40
34.0
100
AcDbArc
 50
45.099128
 51
134.900872
  0
LINE
  5
3F2
330
27
100
AcDbEntity
  8
2
100
AcDbLine
 10
137.445443
 20
73.64945899999999
 30
0.0
 11
137.445448
 21
55.243974
 31
0.0
  0
LINE
  5
3F3
330
27
100
AcDbEntity
  8
2
100
AcDbLine
 10
122.445448
 20
73.64945899999999
 30
0.0
 11
122.445448
 21
55.243974
 31
0.0
  0
LINE
  5
3F4
330
27
100
AcDbEntity
  8
2
100
AcDbLine
 10
105.945448
 20
66.12716299999999
 30
0.0
 11
105.945448
 21
64.40107600000001
 31
0.0
  0
LINE
  5
3F5
330
27
100
AcDbEntity
  8
2
100
AcDbLine
 10
153.945448
 20
66.12716299999999
 30
0.0
 11
153.945448
 21
64.40107600000001
 31
0.0
  0
ARC
  5
3F6
330
27
100
AcDbEntity
  8
2
100
AcDbCircle
 10
129.945448
 20
44.04397399999999
 30
0.0
 40
31.0
100
AcDbArc
 50
28.45309699999999
 51
48.922243
  0
ARC
  5
3F7
330
27
100
AcDbEntity
  8
2
100
AcDbCircle
 10
129.945448
 20
44.04397399999999
 30
0.0
 40
31.0
100
AcDbArc
 50
131.077757
 51
151.546903
  0
ARC
  5
3F8
330
27
100
AcDbEntity
  8
2
100
AcDbCircle
 10
129.945448
 20
40.543974
 30
0.0
 40
28.0
100
AcDbArc
 50
105.536794
 51
145.287318
  0
ARC
  5
3F9
330
27
100
AcDbEntity
  8
2
100
AcDbCircle
 10
129.945448
 20
40.543974
 30
0.0
 40
28.0
100
AcDbArc
 50
34.712682
 51
74.46320599999999
  0
ARC
  5
3FA
330
27
100
AcDbEntity
  8
2
100
AcDbCircle
 10
94.54505299999999
 20
44.809603
 30
0.0
 40
45.27491699999999
100
AcDbArc
 50
13.324563
 51
18.638604
  0
ARC
  5
3FB
330
27
100
AcDbEntity
  8
2
100
AcDbCircle
 10
95.46893299999998
 20
44.809603
 30
0.0
 40
45.27491699999999
100
AcDbArc
 50
13.324563
 51
21.318921
  0
ARC
  5
3FC
330
27
100
AcDbEntity
  8
2
100
AcDbCircle
 10
137.244285
 20
61.113027
 30
0.0
 40
0.4309470000000001
100
AcDbArc
 50
21.318921
 51
62.173379
  0
ARC
  5
3FD
330
27
100
AcDbEntity
  8
2
100
AcDbCircle
 10
118.515519
 20
43.04272199999999
 30
0.0
 40
30.472934
100
AcDbArc
 50
23.60296
 51
36.322403
  0
ARC
  5
3FE
330
27
100
AcDbEntity
  8
2
100
AcDbCircle
 10
119.222626
 20
43.04272199999999
 30
0.0
 40
30.472934
100
AcDbArc
 50
23.60296
 51
37.117331
  0
ARC
  5
3FF
330
27
100
AcDbEntity
  8
2
100
AcDbCircle
 10
143.2958
 20
61.26056999999999
 30
0.0
 40
0.283404
100
AcDbArc
 50
37.117331
 51
216.322403
  0
ARC
  5
400
330
27
100
AcDbEntity
  8
2
100
AcDbCircle
 10
127.271107
 20
41.27584
 30
0.0
 40
28.197761
100
AcDbArc
 50
29.69370399999999
 51
45.28851799999999
  0
ARC
  5
401
330
27
100
AcDbEntity
  8
2
100
AcDbCircle
 10
127.653791
 20
41.27584
 30
0.0
 40
28.197761
100
AcDbArc
 50
29.69370399999999
 51
45.843762
  0
ARC
  5
402
330
27
100
AcDbEntity
  8
2
100
AcDbCircle
 10
147.203523
 20
61.410017
 30
0.0
 40
0.133957
100
AcDbArc
 50
45.843762
 51
225.288518
  0
ARC
  5
403
330
27
100
AcDbEntity
  8
2
100
AcDbCircle
 10
121.66166
 20
62.723005
 30
0.0
 40
11.430139
100
AcDbArc
 50
88.51221499999999
 51
112.714662
  0
ARC
  5
404
330
27
100
AcDbEntity
  8
2
100
AcDbCircle
 10
121.945448
 20
73.64945899999999
 30
0.0
 40
0.5
100
AcDbArc
 50
0.0
 51
88.51221499999999
  0
ARC
  5
405
330
27
100
AcDbEntity
  8
2
100
AcDbCircle
 10
132.781822
 20
36.158501
 30
0.0
 40
40.228245
100
AcDbArc
 50
112.714662
 51
131.843847
  0
ARC
  5
406
330
27
100
AcDbEntity
  8
2
100
AcDbCircle
 10
123.151662
 20
55.82702900000001
 30
0.0
 40
17.127052
100
AcDbArc
 50
93.79192299999999
 51
118.737001
  0
ARC
  5
407
330
27
100
AcDbEntity
  8
2
100
AcDbCircle
 10
122.045448
 20
72.51746199999999
 30
0.0
 40
0.4
100
AcDbArc
 50
0.0
 51
93.79192299999999
  0
ARC
  5
408
330
27
100
AcDbEntity
  8
2
100
AcDbCircle
 10
136.864012
 20
30.819264
 30
0.0
 40
45.647515
100
AcDbArc
 50
118.737001
 51
132.635576
  0
ARC
  5
409
330
27
100
AcDbEntity
  8
2
100
AcDbCircle
 10
136.739234
 20
55.82702900000001
 30
0.0
 40
17.127052
100
AcDbArc
 50
61.26299899999999
 51
86.208077
  0
ARC
  5
40A
330
27
100
AcDbEntity
  8
2
100
AcDbCircle
 10
123.026885
 20
30.819264
 30
0.0
 40
45.647515
100
AcDbArc
 50
47.364424
 51
61.26299899999999
  0
ARC
  5
40B
330
27
100
AcDbEntity
  8
2
100
AcDbCircle
 10
137.845448
 20
72.51746199999999
 30
0.0
 40
0.4
100
AcDbArc
 50
86.208077
 51
180.0
  0
ARC
  5
40C
330
27
100
AcDbEntity
  8
2
100
AcDbCircle
 10
137.945448
 20
73.64945899999999
 30
0.0
 40
0.5
100
AcDbArc
 50
91.487785
 51
180.0
  0
ARC
  5
40D
330
27
100
AcDbEntity
  8
2
100
AcDbCircle
 10
138.229237
 20
62.723005
 30
0.0
 40
11.430139
100
AcDbArc
 50
67.285338
 51
91.487785
  0
ARC
  5
40E
330
27
100
AcDbEntity
  8
2
100
AcDbCircle
 10
127.109075
 20
36.158501
 30
0.0
 40
40.228245
100
AcDbArc
 50
48.15615300000001
 51
67.285338
  0
LINE
  5
40F
330
27
100
AcDbEntity
  8
2
100
AcDbLine
 10
107.228944
 20
56.243974
 30
0.0
 11
99.62894399999999
 21
56.243974
 31
0.0
  0
LINE
  5
410
330
27
100
AcDbEntity
  8
2
100
AcDbLine
 10
107.228944
 20
56.243974
 30
0.0
 11
107.228944
 21
55.243974
 31
0.0
  0
LINE
  5
411
330
27
100
AcDbEntity
  8
2
100
AcDbLine
 10
99.62894399999999
 20
56.243974
 30
0.0
 11
99.62894399999999
 21
55.243974
 31
0.0
  0
LINE
  5
412
330
27
100
AcDbEntity
  8
2
100
AcDbLine
 10
106.928944
 20
57.222998
 30
0.0
 11
106.928944
 21
56.243974
 31
0.0
  0
LINE
  5
413
330
27
100
AcDbEntity
  8
2
100
AcDbLine
 10
99.928944
 20
57.222998
 30
0.0
 11
99.928944
 21
56.243974
 31
0.0
  0
ARC
  5
414
330
27
100
AcDbEntity
  8
2
100
AcDbCircle
 10
103.428944
 20
49.84397399999999
 30
0.0
 40
9.0
100
AcDbArc
 50
73.39845
 51
106.60155
  0
ARC
  5
415
330
27
100
AcDbEntity
  8
2
100
AcDbCircle
 10
105.628944
 20
57.222998
 30
0.0
 40
1.3
100
AcDbArc
 50
0.0
 51
73.39845
  0
ARC
  5
416
330
27
100
AcDbEntity
  8
2
100
AcDbCircle
 10
101.228944
 20
57.222998
 30
0.0
 40
1.3
100
AcDbArc
 50
106.60155
 51
180.0
  0
LINE
  5
417
330
27
100
AcDbEntity
  8
2
100
AcDbLine
 10
160.261953
 20
56.243974
 30
0.0
 11
152.661953
 21
56.243974
 31
0.0
  0
LINE
  5
418
330
27
100
AcDbEntity
  8
2
100
AcDbLine
 10
160.261953
 20
56.243974
 30
0.0
 11
160.261953
 21
55.243974
 31
0.0
  0
LINE
  5
419
330
27
100
AcDbEntity
  8
2
100
AcDbLine
 10
152.661953
 20
56.243974
 30
0.0
 11
152.661953
 21
55.243974
 31
0.0
  0
LINE
  5
41A
330
27
100
AcDbEntity
  8
2
100
AcDbLine
 10
159.961953
 20
57.222998
 30
0.0
 11
159.961953
 21
56.243974
 31
0.0
  0
LINE
  5
41B
330
27
100
AcDbEntity
  8
2
100
AcDbLine
 10
152.961953
 20
57.222998
 30
0.0
 11
152.961953
 21
56.243974
 31
0.0
  0
ARC
  5
41C
330
27
100
AcDbEntity
  8
2
100
AcDbCircle
 10
156.461953
 20
49.84397399999999
 30
0.0
 40
9.0
100
AcDbArc
 50
73.39845
 51
106.60155
  0
ARC
  5
41D
330
27
100
AcDbEntity
  8
2
100
AcDbCircle
 10
158.661953
 20
57.222998
 30
0.0
 40
1.3
100
AcDbArc
 50
0.0
 51
73.39845
  0
ARC
  5
41E
330
27
100
AcDbEntity
  8
2
100
AcDbCircle
 10
154.261953
 20
57.222998
 30
0.0
 40
1.3
100
AcDbArc
 50
106.60155
 51
180.0
  0
ARC
  5
41F
330
27
100
AcDbEntity
  8
2
100
AcDbCircle
 10
-238.709994
 20
269.143974
 30
0.0
 40
1.0
100
AcDbArc
 50
0.0
 51
90.0
  0
ARC
  5
420
330
27
100
AcDbEntity
  8
2
100
AcDbCircle
 10
-525.709994
 20
269.143974
 30
0.0
 40
1.0
100
AcDbArc
 50
90.0
 51
180.0
  0
LINE
  5
421
330
27
100
AcDbEntity
  8
2
100
AcDbLine
 10
-261.709994
 20
272.143974
 30
0.0
 11
-261.709994
 21
285.143974
 31
0.0
  0
LINE
  5
422
330
27
100
AcDbEntity
  8
2
100
AcDbLine
 10
-253.709994
 20
272.143974
 30
0.0
 11
-253.709994
 21
285.143974
 31
0.0
  0
LINE
  5
423
330
27
100
AcDbEntity
  8
2
100
AcDbLine
 10
-388.709994
 20
282.143974
 30
0.0
 11
-388.709994
 21
272.143974
 31
0.0
  0
LINE
  5
424
330
27
100
AcDbEntity
  8
2
100
AcDbLine
 10
-380.709994
 20
282.143974
 30
0.0
 11
-380.709994
 21
272.143974
 31
0.0
  0
ARC
  5
425
330
27
100
AcDbEntity
  8
2
100
AcDbCircle
 10
-257.709994
 20
285.143974
 30
0.0
 40
4.0
100
AcDbArc
 50
0.0
 51
180.0
  0
ARC
  5
426
330
27
100
AcDbEntity
  8
2
100
AcDbCircle
 10
-384.709994
 20
282.143974
 30
0.0
 40
4.0
100
AcDbArc
 50
0.0
 51
180.0
  0
ARC
  5
427
330
27
100
AcDbEntity
  8
2
100
AcDbCircle
 10
-251.709994
 20
272.143974
 30
0.0
 40
2.0
100
AcDbArc
 50
180.0
 51
270.0
  0
ARC
  5
428
330
27
100
AcDbEntity
  8
2
100
AcDbCircle
 10
-263.709994
 20
272.143974
 30
0.0
 40
2.0
100
AcDbArc
 50
270.0
 51
360.0
  0
ARC
  5
429
330
27
100
AcDbEntity
  8
2
100
AcDbCircle
 10
-378.709994
 20
272.143974
 30
0.0
 40
2.0
100
AcDbArc
 50
180.0
 51
270.0
  0
ARC
  5
42A
330
27
100
AcDbEntity
  8
2
100
AcDbCircle
 10
-390.709994
 20
272.143974
 30
0.0
 40
2.0
100
AcDbArc
 50
270.0
 51
360.0
  0
ARC
  5
42B
330
27
100
AcDbEntity
  8
2
100
AcDbCircle
 10
-273.709994
 20
312.143974
 30
0.0
 40
1.0
100
AcDbArc
 50
270.0
 51
360.0
  0
ARC
  5
42C
330
27
100
AcDbEntity
  8
2
100
AcDbCircle
 10
-273.709994
 20
310.143974
 30
0.0
 40
1.0
100
AcDbArc
 50
90.0
 51
180.0
  0
ARC
  5
42D
330
27
100
AcDbEntity
  8
2
100
AcDbCircle
 10
-273.709994
 20
386.143974
 30
0.0
 40
1.0
100
AcDbArc
 50
0.0
 51
90.0
  0
ARC
  5
42E
330
27
100
AcDbEntity
  8
2
100
AcDbCircle
 10
-273.709994
 20
388.143974
 30
0.0
 40
1.0
100
AcDbArc
 50
180.0
 51
270.0
  0
LINE
  5
42F
330
27
100
AcDbEntity
  8
2
100
AcDbLine
 10
112.945448
 20
4.043973999999999
 30
0.0
 11
152.945448
 21
4.043973999999999
 31
0.0
  0
ARC
  5
430
330
27
100
AcDbEntity
  8
2
100
AcDbCircle
 10
152.945448
 20
-13.956026
 30
0.0
 40
18.0
100
AcDbArc
 50
0.0
 51
90.0
  0
ARC
  5
431
330
27
100
AcDbEntity
  8
2
100
AcDbCircle
 10
112.945448
 20
-13.956026
 30
0.0
 40
18.0
100
AcDbArc
 50
90.0
 51
180.0
  0
ARC
  5
432
330
27
100
AcDbEntity
  8
2
100
AcDbCircle
 10
-241.709994
 20
389.143974
 30
0.0
 40
2.0
100
AcDbArc
 50
270.0
 51
360.0
  0
ARC
  5
433
330
27
100
AcDbEntity
  8
2
100
AcDbCircle
 10
-241.709994
 20
309.143974
 30
0.0
 40
2.0
100
AcDbArc
 50
0.0
 51
90.0
  0
LINE
  5
434
330
27
100
AcDbEntity
  8
2
100
AcDbLine
 10
-313.709994
 20
420.143974
 30
0.0
 11
-313.709994
 21
409.143974
 31
0.0
  0
LINE
  5
435
330
27
100
AcDbEntity
  8
2
100
AcDbLine
 10
-281.709994
 20
420.143974
 30
0.0
 11
-281.709994
 21
409.143974
 31
0.0
  0
ARC
  5
436
330
27
100
AcDbEntity
  8
2
100
AcDbCircle
 10
-310.709994
 20
420.143974
 30
0.0
 40
3.0
100
AcDbArc
 50
90.0
 51
180.0
  0
ARC
  5
437
330
27
100
AcDbEntity
  8
2
100
AcDbCircle
 10
-284.709994
 20
420.143974
 30
0.0
 40
3.0
100
AcDbArc
 50
0.0
 51
90.0
  0
ARC
  5
438
330
27
100
AcDbEntity
  8
2
100
AcDbCircle
 10
-278.709994
 20
409.143974
 30
0.0
 40
3.0
100
AcDbArc
 50
180.0
 51
270.0
  0
ARC
  5
439
330
27
100
AcDbEntity
  8
2
100
AcDbCircle
 10
-316.709994
 20
409.143974
 30
0.0
 40
3.0
100
AcDbArc
 50
270.0
 51
360.0
  0
ARC
  5
43A
330
27
100
AcDbEntity
  8
2
100
AcDbCircle
 10
-272.977944
 20
406.1439739999999
 30
0.0
 40
1.0
100
AcDbArc
 50
210.0
 51
270.0
  0
ARC
  5
43B
330
27
100
AcDbEntity
  8
2
100
AcDbCircle
 10
-274.709994
 20
405.143974
 30
0.0
 40
1.0
100
AcDbArc
 50
30.0
 51
90.0
  0
LINE
  5
43C
330
27
100
AcDbEntity
  8
2
100
AcDbLine
 10
-468.373695
 20
392.143974
 30
0.0
 11
-461.150688
 21
392.143974
 31
0.0
  0
LINE
  5
43D
330
27
100
AcDbEntity
  8
2
100
AcDbLine
 10
-474.675849
 20
411.1439739999999
 30
0.0
 11
-474.675849
 21
422.143974
 31
0.0
  0
LINE
  5
43E
330
27
100
AcDbEntity
  8
2
100
AcDbLine
 10
-474.675849
 20
422.143974
 30
0.0
 11
-473.675849
 21
423.1439739999999
 31
0.0
  0
LINE
  5
43F
330
27
100
AcDbEntity
  8
2
100
AcDbLine
 10
-470.3736949999999
 20
394.143974
 30
0.0
 11
-470.3736949999999
 21
405.143974
 31
0.0
  0
LINE
  5
440
330
27
100
AcDbEntity
  8
2
100
AcDbLine
 10
-454.74414
 20
399.143974
 30
0.0
 11
-454.74414
 21
422.143974
 31
0.0
  0
LINE
  5
441
330
27
100
AcDbEntity
  8
2
100
AcDbLine
 10
-523.660329
 20
271.091638
 30
0.0
 11
-521.8647509999999
 21
305.353318
 31
0.0
  0
ARC
  5
442
330
27
100
AcDbEntity
  8
2
100
AcDbCircle
 10
-517.870233
 20
305.143974
 30
0.0
 40
4.0
100
AcDbArc
 50
90.0
 51
177.0
  0
ARC
  5
443
330
27
100
AcDbEntity
  8
2
100
AcDbCircle
 10
-524.658959
 20
271.143974
 30
0.0
 40
1.0
100
AcDbArc
 50
270.0
 51
357.0
  0
LINE
  5
444
330
27
100
AcDbEntity
  8
2
100
AcDbLine
 10
-240.759659
 20
271.091638
 30
0.0
 11
-242.033903
 21
295.405654
 31
0.0
  0
ARC
  5
445
330
27
100
AcDbEntity
  8
2
100
AcDbCircle
 10
-239.76103
 20
271.143974
 30
0.0
 40
1.0
100
AcDbArc
 50
183.0
 51
270.0
  0
ARC
  5
446
330
27
100
AcDbEntity
  8
2
100
AcDbCircle
 10
-247.027051
 20
295.143974
 30
0.0
 40
5.0
100
AcDbArc
 50
3.0
 51
90.0
  0
ARC
  5
447
330
27
100
AcDbEntity
  8
2
100
AcDbCircle
 10
-239.965036
 20
294.143974
 30
0.0
 40
2.0
100
AcDbArc
 50
90.0
 51
183.0
  0
ARC
  5
448
330
27
100
AcDbEntity
  8
2
100
AcDbCircle
 10
-434.2524809999999
 20
402.1439739999999
 30
0.0
 40
4.0
100
AcDbArc
 50
90.0
 51
180.0
  0
LINE
  5
449
330
27
100
AcDbEntity
  8
2
100
AcDbLine
 10
-454.74414
 20
422.143974
 30
0.0
 11
-455.74414
 21
423.1439739999999
 31
0.0
  0
LINE
  5
44A
330
27
100
AcDbEntity
  8
2
100
AcDbLine
 10
-506.709994
 20
409.143974
 30
0.0
 11
-474.3736949999999
 21
409.143974
 31
0.0
  0
ARC
  5
44B
330
27
100
AcDbEntity
  8
2
100
AcDbCircle
 10
-474.3736949999999
 20
405.143974
 30
0.0
 40
4.0
100
AcDbArc
 50
0.0
 51
90.0
  0
LINE
  5
44C
330
27
100
AcDbEntity
  8
2
100
AcDbLine
 10
-493.624762
 20
312.143974
 30
0.0
 11
-493.624762
 21
324.143974
 31
0.0
  0
LINE
  5
44D
330
27
100
AcDbEntity
  8
2
100
AcDbLine
 10
-502.909994
 20
312.143974
 30
0.0
 11
-502.909994
 21
324.143974
 31
0.0
  0
LINE
  5
44E
330
27
100
AcDbEntity
  8
2
100
AcDbLine
 10
-500.909994
 20
326.143974
 30
0.0
 11
-495.624762
 21
326.143974
 31
0.0
  0
ARC
  5
44F
330
27
100
AcDbEntity
  8
2
100
AcDbCircle
 10
-500.909994
 20
324.143974
 30
0.0
 40
2.0
100
AcDbArc
 50
90.0
 51
180.0
  0
ARC
  5
450
330
27
100
AcDbEntity
  8
2
100
AcDbCircle
 10
-495.624762
 20
324.143974
 30
0.0
 40
2.0
100
AcDbArc
 50
0.0
 51
90.0
  0
ARC
  5
451
330
27
100
AcDbEntity
  8
2
100
AcDbCircle
 10
-490.624762
 20
312.143974
 30
0.0
 40
3.0
100
AcDbArc
 50
180.0
 51
270.0
  0
ARC
  5
452
330
27
100
AcDbEntity
  8
2
100
AcDbCircle
 10
-505.909994
 20
312.143974
 30
0.0
 40
3.0
100
AcDbArc
 50
270.0
 51
360.0
  0
ARC
  5
453
330
27
100
AcDbEntity
  8
2
100
AcDbCircle
 10
-515.7099940000001
 20
314.143974
 30
0.0
 40
5.0
100
AcDbArc
 50
270.0
 51
360.0
  0
ARC
  5
454
330
27
100
AcDbEntity
  8
2
100
AcDbCircle
 10
-513.709994
 20
394.143974
 30
0.0
 40
3.0
100
AcDbArc
 50
0.0
 51
90.0
  0
LINE
  5
455
330
27
100
AcDbEntity
  8
2
100
AcDbLine
 10
-507.35101
 20
410.5314629999999
 30
0.0
 11
-507.35101
 21
422.143974
 31
0.0
  0
LINE
  5
456
330
27
100
AcDbEntity
  8
2
100
AcDbLine
 10
-506.35101
 20
423.1439739999999
 30
0.0
 11
-507.35101
 21
422.143974
 31
0.0
  0
LINE
  5
457
330
27
100
AcDbEntity
  8
2
100
AcDbLine
 10
-422.0689779999999
 20
408.143974
 30
0.0
 11
-422.0689779999999
 21
422.143974
 31
0.0
  0
LINE
  5
458
330
27
100
AcDbEntity
  8
2
100
AcDbLine
 10
-423.068978
 20
423.1439739999999
 30
0.0
 11
-422.0689779999999
 21
422.143974
 31
0.0
  0
LINE
  5
459
330
27
100
AcDbEntity
  8
2
100
AcDbLine
 10
-422.0689779999999
 20
422.143974
 30
0.0
 11
-507.35101
 21
422.143974
 31
0.0
  0
ARC
  5
45A
330
27
100
AcDbEntity
  8
2
100
AcDbCircle
 10
-420.068978
 20
408.143974
 30
0.0
 40
2.0
100
AcDbArc
 50
180.0
 51
270.0
  0
ARC
  5
45B
330
27
100
AcDbEntity
  8
2
100
AcDbCircle
 10
-506.709994
 20
405.143974
 30
0.0
 40
4.0
100
AcDbArc
 50
90.0
 51
180.0
  0
ARC
  5
45C
330
27
100
AcDbEntity
  8
2
100
AcDbCircle
 10
-509.3510099999999
 20
410.5314629999999
 30
0.0
 40
2.0
100
AcDbArc
 50
296.114687
 51
360.0
  0
LINE
  5
45D
330
27
100
AcDbEntity
  8
2
100
AcDbLine
 10
-424.709994
 20
422.143974
 30
0.0
 11
-424.709994
 21
408.143974
 31
0.0
  0
LINE
  5
45E
330
27
100
AcDbEntity
  8
2
100
AcDbLine
 10
-504.709994
 20
422.143974
 30
0.0
 11
-504.709994
 21
411.1439739999999
 31
0.0
  0
ARC
  5
45F
330
27
100
AcDbEntity
  8
2
100
AcDbCircle
 10
-422.709994
 20
408.143974
 30
0.0
 40
2.0
100
AcDbArc
 50
180.0
 51
270.0
  0
ARC
  5
460
330
27
100
AcDbEntity
  8
2
100
AcDbCircle
 10
-506.709994
 20
411.1439739999999
 30
0.0
 40
2.0
100
AcDbArc
 50
270.0
 51
360.0
  0
LINE
  5
461
330
27
100
AcDbEntity
  8
2
100
AcDbLine
 10
-424.709994
 20
422.143974
 30
0.0
 11
-425.709994
 21
423.1439739999999
 31
0.0
  0
LINE
  5
462
330
27
100
AcDbEntity
  8
2
100
AcDbLine
 10
-504.709994
 20
422.143974
 30
0.0
 11
-503.709994
 21
423.1439739999999
 31
0.0
  0
LINE
  5
463
330
27
100
AcDbEntity
  8
2
100
AcDbLine
 10
-394.709994
 20
419.1439739999999
 30
0.0
 11
-394.709994
 21
408.143974
 31
0.0
  0
LINE
  5
464
330
27
100
AcDbEntity
  8
2
100
AcDbLine
 10
-324.709994
 20
408.143974
 30
0.0
 11
-324.709994
 21
419.1439739999999
 31
0.0
  0
ARC
  5
465
330
27
100
AcDbEntity
  8
2
100
AcDbCircle
 10
-322.709994
 20
408.143974
 30
0.0
 40
2.0
100
AcDbArc
 50
180.0
 51
270.0
  0
ARC
  5
466
330
27
100
AcDbEntity
  8
2
100
AcDbCircle
 10
-396.709994
 20
408.143974
 30
0.0
 40
2.0
100
AcDbArc
 50
270.0
 51
360.0
  0
ARC
  5
467
330
27
100
AcDbEntity
  8
2
100
AcDbCircle
 10
-325.709994
 20
419.1439739999999
 30
0.0
 40
1.0
100
AcDbArc
 50
0.0
 51
90.0
  0
ARC
  5
468
330
27
100
AcDbEntity
  8
2
100
AcDbCircle
 10
-393.709994
 20
419.1439739999999
 30
0.0
 40
1.0
100
AcDbArc
 50
90.0
 51
180.0
  0
LINE
  5
469
330
27
100
AcDbEntity
  8
2
100
AcDbLine
 10
-344.2493859999999
 20
419.1439739999999
 30
0.0
 11
-344.2493859999999
 21
408.143974
 31
0.0
  0
LINE
  5
46A
330
27
100
AcDbEntity
  8
2
100
AcDbLine
 10
-375.170602
 20
419.1439739999999
 30
0.0
 11
-375.170602
 21
408.143974
 31
0.0
  0
ARC
  5
46B
330
27
100
AcDbEntity
  8
2
100
AcDbCircle
 10
-346.2493859999999
 20
408.143974
 30
0.0
 40
2.0
100
AcDbArc
 50
270.0
 51
360.0
  0
ARC
  5
46C
330
27
100
AcDbEntity
  8
2
100
AcDbCircle
 10
-373.170602
 20
408.143974
 30
0.0
 40
2.0
100
AcDbArc
 50
180.0
 51
270.0
  0
ARC
  5
46D
330
27
100
AcDbEntity
  8
2
100
AcDbCircle
 10
-343.249386
 20
419.1439739999999
 30
0.0
 40
1.0
100
AcDbArc
 50
90.0
 51
180.0
  0
ARC
  5
46E
330
27
100
AcDbEntity
  8
2
100
AcDbCircle
 10
-376.170602
 20
419.1439739999999
 30
0.0
 40
1.0
100
AcDbArc
 50
0.0
 51
90.0
  0
LINE
  5
46F
330
27
100
AcDbEntity
  8
2
100
AcDbLine
 10
-331.386494
 20
431.1439739999999
 30
0.0
 11
-330.709994
 21
430.467474
 31
0.0
  0
LINE
  5
470
330
27
100
AcDbEntity
  8
2
100
AcDbLine
 10
-330.709994
 20
430.467474
 30
0.0
 11
-330.709994
 21
426.643974
 31
0.0
  0
LINE
  5
471
330
27
100
AcDbEntity
  8
2
 62
     2
100
AcDbLine
 10
-331.386494
 20
431.1439739999999
 30
0.0
 11
-331.386494
 21
426.643974
 31
0.0
  0
LINE
  5
472
330
27
100
AcDbEntity
  8
2
100
AcDbLine
 10
-331.386494
 20
431.1439739999999
 30
0.0
 11
-338.033494
 21
431.1439739999999
 31
0.0
  0
LINE
  5
473
330
27
100
AcDbEntity
  8
2
100
AcDbLine
 10
-338.033494
 20
431.1439739999999
 30
0.0
 11
-338.709994
 21
430.467474
 31
0.0
  0
LINE
  5
474
330
27
100
AcDbEntity
  8
2
100
AcDbLine
 10
-338.709994
 20
430.467474
 30
0.0
 11
-330.709994
 21
430.467474
 31
0.0
  0
LINE
  5
475
330
27
100
AcDbEntity
  8
2
 62
     2
100
AcDbLine
 10
-338.033494
 20
431.1439739999999
 30
0.0
 11
-338.033494
 21
426.643974
 31
0.0
  0
LINE
  5
476
330
27
100
AcDbEntity
  8
2
100
AcDbLine
 10
-338.709994
 20
430.467474
 30
0.0
 11
-338.709994
 21
426.643974
 31
0.0
  0
LINE
  5
477
330
27
100
AcDbEntity
  8
2
100
AcDbLine
 10
-342.209994
 20
420.143974
 30
0.0
 11
-342.209994
 21
425.922286
 31
0.0
  0
LINE
  5
478
330
27
100
AcDbEntity
  8
2
100
AcDbLine
 10
-342.209994
 20
425.922286
 30
0.0
 11
-340.959994
 21
426.643974
 31
0.0
  0
LINE
  5
479
330
27
100
AcDbEntity
  8
2
100
AcDbLine
 10
-340.959994
 20
426.643974
 30
0.0
 11
-334.709994
 21
426.643974
 31
0.0
  0
LINE
  5
47A
330
27
100
AcDbEntity
  8
2
100
AcDbLine
 10
-338.459994
 20
420.143974
 30
0.0
 11
-338.459994
 21
425.922286
 31
0.0
  0
ARC
  5
47B
330
27
100
AcDbEntity
  8
2
100
AcDbCircle
 10
-340.334994
 20
423.5119099999999
 30
0.0
 40
3.053774
100
AcDbArc
 50
52.121121
 51
127.878879
  0
ARC
  5
47C
330
27
100
AcDbEntity
  8
2
100
AcDbCircle
 10
-334.709994
 20
415.3156839999999
 30
0.0
 40
11.25
100
AcDbArc
 50
90.0
 51
109.471221
  0
LINE
  5
47D
330
27
100
AcDbEntity
  8
2
100
AcDbLine
 10
-327.209994
 20
420.143974
 30
0.0
 11
-327.209994
 21
425.922286
 31
0.0
  0
LINE
  5
47E
330
27
100
AcDbEntity
  8
2
100
AcDbLine
 10
-327.209994
 20
425.922286
 30
0.0
 11
-328.459994
 21
426.643974
 31
0.0
  0
LINE
  5
47F
330
27
100
AcDbEntity
  8
2
100
AcDbLine
 10
-328.459994
 20
426.643974
 30
0.0
 11
-334.709994
 21
426.643974
 31
0.0
  0
LINE
  5
480
330
27
100
AcDbEntity
  8
2
100
AcDbLine
 10
-330.959994
 20
420.143974
 30
0.0
 11
-330.959994
 21
425.922286
 31
0.0
  0
ARC
  5
481
330
27
100
AcDbEntity
  8
2
100
AcDbCircle
 10
-329.084994
 20
423.5119099999999
 30
0.0
 40
3.053774
100
AcDbArc
 50
52.121121
 51
127.878879
  0
ARC
  5
482
330
27
100
AcDbEntity
  8
2
100
AcDbCircle
 10
-334.709994
 20
415.3156839999999
 30
0.0
 40
11.25
100
AcDbArc
 50
70.528779
 51
90.0
  0
LINE
  5
483
330
27
100
AcDbEntity
  8
2
100
AcDbLine
 10
-381.386494
 20
431.1439739999999
 30
0.0
 11
-380.709994
 21
430.467474
 31
0.0
  0
LINE
  5
484
330
27
100
AcDbEntity
  8
2
100
AcDbLine
 10
-380.709994
 20
430.467474
 30
0.0
 11
-380.709994
 21
426.643974
 31
0.0
  0
LINE
  5
485
330
27
100
AcDbEntity
  8
2
 62
     2
100
AcDbLine
 10
-381.386494
 20
431.1439739999999
 30
0.0
 11
-381.386494
 21
426.643974
 31
0.0
  0
LINE
  5
486
330
27
100
AcDbEntity
  8
2
100
AcDbLine
 10
-381.386494
 20
431.1439739999999
 30
0.0
 11
-388.033494
 21
431.1439739999999
 31
0.0
  0
LINE
  5
487
330
27
100
AcDbEntity
  8
2
100
AcDbLine
 10
-388.033494
 20
431.1439739999999
 30
0.0
 11
-388.709994
 21
430.467474
 31
0.0
  0
LINE
  5
488
330
27
100
AcDbEntity
  8
2
100
AcDbLine
 10
-388.709994
 20
430.467474
 30
0.0
 11
-380.709994
 21
430.467474
 31
0.0
  0
LINE
  5
489
330
27
100
AcDbEntity
  8
2
 62
     2
100
AcDbLine
 10
-388.033494
 20
431.1439739999999
 30
0.0
 11
-388.033494
 21
426.643974
 31
0.0
  0
LINE
  5
48A
330
27
100
AcDbEntity
  8
2
100
AcDbLine
 10
-388.709994
 20
430.467474
 30
0.0
 11
-388.709994
 21
426.643974
 31
0.0
  0
LINE
  5
48B
330
27
100
AcDbEntity
  8
2
100
AcDbLine
 10
-392.209994
 20
420.143974
 30
0.0
 11
-392.209994
 21
425.922286
 31
0.0
  0
LINE
  5
48C
330
27
100
AcDbEntity
  8
2
100
AcDbLine
 10
-392.209994
 20
425.922286
 30
0.0
 11
-390.959994
 21
426.643974
 31
0.0
  0
LINE
  5
48D
330
27
100
AcDbEntity
  8
2
100
AcDbLine
 10
-390.959994
 20
426.643974
 30
0.0
 11
-384.709994
 21
426.643974
 31
0.0
  0
LINE
  5
48E
330
27
100
AcDbEntity
  8
2
100
AcDbLine
 10
-388.459994
 20
420.143974
 30
0.0
 11
-388.459994
 21
425.922286
 31
0.0
  0
ARC
  5
48F
330
27
100
AcDbEntity
  8
2
100
AcDbCircle
 10
-390.334994
 20
423.5119099999999
 30
0.0
 40
3.053774
100
AcDbArc
 50
52.121121
 51
127.878879
  0
ARC
  5
490
330
27
100
AcDbEntity
  8
2
100
AcDbCircle
 10
-384.709994
 20
415.3156839999999
 30
0.0
 40
11.25
100
AcDbArc
 50
90.0
 51
109.471221
  0
LINE
  5
491
330
27
100
AcDbEntity
  8
2
100
AcDbLine
 10
-377.209994
 20
420.143974
 30
0.0
 11
-377.209994
 21
425.922286
 31
0.0
  0
LINE
  5
492
330
27
100
AcDbEntity
  8
2
100
AcDbLine
 10
-377.209994
 20
425.922286
 30
0.0
 11
-378.459994
 21
426.643974
 31
0.0
  0
LINE
  5
493
330
27
100
AcDbEntity
  8
2
100
AcDbLine
 10
-378.459994
 20
426.643974
 30
0.0
 11
-384.709994
 21
426.643974
 31
0.0
  0
LINE
  5
494
330
27
100
AcDbEntity
  8
2
100
AcDbLine
 10
-380.959994
 20
420.143974
 30
0.0
 11
-380.959994
 21
425.922286
 31
0.0
  0
ARC
  5
495
330
27
100
AcDbEntity
  8
2
100
AcDbCircle
 10
-379.084994
 20
423.5119099999999
 30
0.0
 40
3.053774
100
AcDbArc
 50
52.121121
 51
127.878879
  0
ARC
  5
496
330
27
100
AcDbEntity
  8
2
100
AcDbCircle
 10
-384.709994
 20
415.3156839999999
 30
0.0
 40
11.25
100
AcDbArc
 50
70.528779
 51
90.0
  0
ARC
  5
497
330
27
100
AcDbEntity
  8
2
100
AcDbCircle
 10
-408.7099939999999
 20
405.143974
 30
0.0
 40
8.0
100
AcDbArc
 50
17.457603
 51
162.542397
  0
ARC
  5
498
330
27
100
AcDbEntity
  8
2
100
AcDbCircle
 10
-399.170602
 20
408.143974
 30
0.0
 40
2.0
100
AcDbArc
 50
197.457603
 51
270.0
  0
ARC
  5
499
330
27
100
AcDbEntity
  8
2
100
AcDbCircle
 10
-418.2493859999999
 20
408.143974
 30
0.0
 40
2.0
100
AcDbArc
 50
270.0
 51
342.542397
  0
LINE
  5
49A
330
27
100
AcDbEntity
  8
2
100
AcDbLine
 10
-525.709994
 20
281.643974
 30
0.0
 11
-525.709994
 21
270.876025
 31
0.0
  0
ARC
  5
49B
330
27
100
AcDbEntity
  8
2
100
AcDbCircle
 10
-526.709994
 20
270.876025
 30
0.0
 40
1.0
100
AcDbArc
 50
300.0
 51
360.0
  0
ARC
  5
49C
330
27
100
AcDbEntity
  8
2
100
AcDbCircle
 10
-521.709994
 20
281.643974
 30
0.0
 40
4.0
100
AcDbArc
 50
107.416924
 51
180.0
  0
ARC
  5
49D
330
27
100
AcDbEntity
  8
2
100
AcDbCircle
 10
-439.0091459999999
 20
305.143974
 30
0.0
 40
6.0
100
AcDbArc
 50
180.0
 51
270.0
  0
LINE
  5
49E
330
27
100
AcDbEntity
  8
2
100
AcDbLine
 10
-447.881612
 20
308.981768
 30
0.0
 11
-447.881612
 21
391.143974
 31
0.0
  0
ARC
  5
49F
330
27
100
AcDbEntity
  8
2
100
AcDbCircle
 10
-468.373695
 20
394.143974
 30
0.0
 40
2.0
100
AcDbArc
 50
180.0
 51
270.0
  0
ARC
  5
4A0
330
27
100
AcDbEntity
  8
2
100
AcDbCircle
 10
-461.150688
 20
394.143974
 30
0.0
 40
2.0
100
AcDbArc
 50
270.0
 51
350.405932
  0
ARC
  5
4A1
330
27
100
AcDbEntity
  8
2
100
AcDbCircle
 10
-476.6758489999999
 20
411.1439739999999
 30
0.0
 40
2.0
100
AcDbArc
 50
270.0
 51
360.0
  0
LINE
  5
4A2
330
27
100
AcDbEntity
  8
2
100
AcDbLine
 10
-234.709994
 20
408.143974
 30
0.0
 11
-222.18706
 21
407.048359
 31
0.0
  0
LINE
  5
4A3
330
27
100
AcDbEntity
  8
2
100
AcDbLine
 10
-234.709994
 20
296.143974
 30
0.0
 11
-222.18706
 21
297.2395890000001
 31
0.0
  0
LINE
  5
4A4
330
27
100
AcDbEntity
  8
2
100
AcDbLine
 10
-216.709994
 20
303.216757
 30
0.0
 11
-216.709994
 21
401.071191
 31
0.0
  0
ARC
  5
4A5
330
27
100
AcDbEntity
  8
2
100
AcDbCircle
 10
-222.709994
 20
401.071191
 30
0.0
 40
6.0
100
AcDbArc
 50
0.0
 51
85.0
  0
ARC
  5
4A6
330
27
100
AcDbEntity
  8
2
100
AcDbCircle
 10
-222.709994
 20
303.216757
 30
0.0
 40
6.0
100
AcDbArc
 50
275.0
 51
360.0
  0
LINE
  5
4A7
330
27
100
AcDbEntity
  8
2
100
AcDbLine
 10
-219.709994
 20
394.643974
 30
0.0
 11
-229.209994
 21
394.643974
 31
0.0
  0
LINE
  5
4A8
330
27
100
AcDbEntity
  8
2
100
AcDbLine
 10
-229.209994
 20
309.643974
 30
0.0
 11
-219.709994
 21
309.643974
 31
0.0
  0
LINE
  5
4A9
330
27
100
AcDbEntity
  8
2
100
AcDbLine
 10
-229.709994
 20
297.039583
 30
0.0
 11
-229.709994
 21
309.143974
 31
0.0
  0
LINE
  5
4AA
330
27
100
AcDbEntity
  8
2
100
AcDbLine
 10
-229.709994
 20
395.143974
 30
0.0
 11
-229.709994
 21
407.2483649999999
 31
0.0
  0
ARC
  5
4AB
330
27
100
AcDbEntity
  8
2
100
AcDbCircle
 10
-219.709994
 20
391.643974
 30
0.0
 40
3.0
100
AcDbArc
 50
0.0
 51
90.0
  0
ARC
  5
4AC
330
27
100
AcDbEntity
  8
2
100
AcDbCircle
 10
-219.709994
 20
312.643974
 30
0.0
 40
3.0
100
AcDbArc
 50
270.0
 51
360.0
  0
ARC
  5
4AD
330
27
100
AcDbEntity
  8
2
100
AcDbCircle
 10
-230.209994
 20
407.2483649999999
 30
0.0
 40
0.5
100
AcDbArc
 50
0.0
 51
85.0
  0
ARC
  5
4AE
330
27
100
AcDbEntity
  8
2
100
AcDbCircle
 10
-230.209994
 20
297.039583
 30
0.0
 40
0.5
100
AcDbArc
 50
275.0
 51
360.0
  0
ARC
  5
4AF
330
27
100
AcDbEntity
  8
2
100
AcDbCircle
 10
-229.209994
 20
395.143974
 30
0.0
 40
0.5
100
AcDbArc
 50
180.0
 51
270.0
  0
ARC
  5
4B0
330
27
100
AcDbEntity
  8
2
100
AcDbCircle
 10
-229.209994
 20
309.143974
 30
0.0
 40
0.5
100
AcDbArc
 50
90.0
 51
180.0
  0
LINE
  5
4B1
330
27
100
AcDbEntity
  8
2
100
AcDbLine
 10
-525.709994
 20
-107.956026
 30
0.0
 11
-525.709994
 21
-132.956026
 31
0.0
  0
LINE
  5
4B2
330
27
100
AcDbEntity
  8
2
100
AcDbLine
 10
-522.170553
 20
-105.956026
 30
0.0
 11
-523.709994
 21
-105.956026
 31
0.0
  0
ARC
  5
4B3
330
27
100
AcDbEntity
  8
2
100
AcDbCircle
 10
-523.709994
 20
-107.956026
 30
0.0
 40
2.0
100
AcDbArc
 50
90.0
 51
180.0
  0
LINE
  5
4B4
330
27
100
AcDbEntity
  8
2
100
AcDbLine
 10
-234.709994
 20
-35.956026
 30
0.0
 11
-222.18706
 21
-37.051641
 31
0.0
  0
LINE
  5
4B5
330
27
100
AcDbEntity
  8
2
100
AcDbLine
 10
-234.709994
 20
-123.956026
 30
0.0
 11
-222.18706
 21
-122.860411
 31
0.0
  0
LINE
  5
4B6
330
27
100
AcDbEntity
  8
2
100
AcDbLine
 10
-216.709994
 20
-43.028809
 30
0.0
 11
-216.709994
 21
-116.883243
 31
0.0
  0
ARC
  5
4B7
330
27
100
AcDbEntity
  8
2
100
AcDbCircle
 10
-222.709994
 20
-43.028809
 30
0.0
 40
6.0
100
AcDbArc
 50
0.0
 51
85.0
  0
ARC
  5
4B8
330
27
100
AcDbEntity
  8
2
100
AcDbCircle
 10
-222.709994
 20
-116.883243
 30
0.0
 40
6.0
100
AcDbArc
 50
275.0
 51
360.0
  0
LINE
  5
4B9
330
27
100
AcDbEntity
  8
2
100
AcDbLine
 10
-229.209994
 20
-49.456026
 30
0.0
 11
-219.709994
 21
-49.456026
 31
0.0
  0
LINE
  5
4BA
330
27
100
AcDbEntity
  8
2
100
AcDbLine
 10
-219.709994
 20
-110.456026
 30
0.0
 11
-229.209994
 21
-110.456026
 31
0.0
  0
LINE
  5
4BB
330
27
100
AcDbEntity
  8
2
100
AcDbLine
 10
-229.709994
 20
-123.060417
 30
0.0
 11
-229.709994
 21
-110.956026
 31
0.0
  0
LINE
  5
4BC
330
27
100
AcDbEntity
  8
2
100
AcDbLine
 10
-229.709994
 20
-48.956026
 30
0.0
 11
-229.709994
 21
-36.851635
 31
0.0
  0
ARC
  5
4BD
330
27
100
AcDbEntity
  8
2
100
AcDbCircle
 10
-219.709994
 20
-52.456026
 30
0.0
 40
3.0
100
AcDbArc
 50
0.0
 51
90.0
  0
ARC
  5
4BE
330
27
100
AcDbEntity
  8
2
100
AcDbCircle
 10
-219.709994
 20
-107.456026
 30
0.0
 40
3.0
100
AcDbArc
 50
270.0
 51
360.0
  0
ARC
  5
4BF
330
27
100
AcDbEntity
  8
2
100
AcDbCircle
 10
-230.209994
 20
-36.851635
 30
0.0
 40
0.5
100
AcDbArc
 50
0.0
 51
85.0
  0
ARC
  5
4C0
330
27
100
AcDbEntity
  8
2
100
AcDbCircle
 10
-230.209994
 20
-123.060417
 30
0.0
 40
0.5
100
AcDbArc
 50
275.0
 51
360.0
  0
ARC
  5
4C1
330
27
100
AcDbEntity
  8
2
100
AcDbCircle
 10
-229.209994
 20
-48.956026
 30
0.0
 40
0.5
100
AcDbArc
 50
180.0
 51
270.0
  0
ARC
  5
4C2
330
27
100
AcDbEntity
  8
2
100
AcDbCircle
 10
-229.209994
 20
-110.956026
 30
0.0
 40
0.5
100
AcDbArc
 50
90.0
 51
180.0
  0
LINE
  5
4C3
330
27
100
AcDbEntity
  8
2
100
AcDbLine
 10
-525.459994
 20
255.143974
 30
0.0
 11
-237.709994
 21
255.143974
 31
0.0
  0
LINE
  5
4C4
330
27
100
AcDbEntity
  8
2
100
AcDbLine
 10
-490.8232429999999
 20
237.143974
 30
0.0
 11
-246.369715
 21
237.143974
 31
0.0
  0
LINE
  5
4C5
330
27
100
AcDbEntity
  8
2
100
AcDbLine
 10
-237.709994
 20
255.143974
 30
0.0
 11
-241.540086
 21
240.849879
 31
0.0
  0
ARC
  5
4C6
330
27
100
AcDbEntity
  8
2
100
AcDbCircle
 10
-246.369715
 20
242.143974
 30
0.0
 40
5.0
100
AcDbArc
 50
270.0
 51
345.0
  0
LINE
  5
4C7
330
27
100
AcDbEntity
  8
2
100
AcDbLine
 10
-495.1533699999999
 20
239.643974
 30
0.0
 11
-503.236274
 21
253.643974
 31
0.0
  0
ARC
  5
4C8
330
27
100
AcDbEntity
  8
2
100
AcDbCircle
 10
-524.709994
 20
257.143974
 30
0.0
 40
2.0
100
AcDbArc
 50
180.0
 51
270.0
  0
ARC
  5
4C9
330
27
100
AcDbEntity
  8
2
100
AcDbCircle
 10
-296.834525
 20
-61.01098799999999
 30
0.0
 40
53.0
100
AcDbArc
 50
82.815375
 51
97.894178
  0
ARC
  5
4CA
330
27
100
AcDbEntity
  8
2
100
AcDbCircle
 10
-453.709994
 20
-79.776026
 30
0.0
 40
40.0
100
AcDbArc
 50
99.89998800000002
 51
268.765968
  0
ARC
  5
4CB
330
27
100
AcDbEntity
  8
2
100
AcDbCircle
 10
-297.709994
 20
-67.95602599999999
 30
0.0
 40
55.176915
100
AcDbArc
 50
268.765968
 51
99.89998800000002
  0
ARC
  5
4CC
330
27
100
AcDbEntity
  8
2
100
AcDbCircle
 10
-458.922299
 20
-79.776026
 30
0.0
 40
45.17999999999999
100
AcDbArc
 50
180.0
 51
270.0
  0
ARC
  5
4CD
330
27
100
AcDbEntity
  8
2
100
AcDbCircle
 10
-454.1168589999999
 20
-79.776026
 30
0.0
 40
49.98544
100
AcDbArc
 50
97.894178
 51
180.0
  0
ARC
  5
4CE
330
27
100
AcDbEntity
  8
2
100
AcDbCircle
 10
-384.709994
 20
-21.026026
 30
0.0
 40
6.5
100
AcDbArc
 50
198.050649
 51
357.737707
  0
LINE
  5
4CF
330
27
100
AcDbEntity
  8
2
100
AcDbLine
 10
-460.982054
 20
-30.26427700000001
 30
0.0
 11
-394.154464
 21
-20.998103
 31
0.0
  0
LINE
  5
4D0
330
27
100
AcDbEntity
  8
2
100
AcDbLine
 10
-375.6294299999999
 20
-18.429461
 30
0.0
 11
-304.113752
 21
-8.513246999999999
 31
0.0
  0
ARC
  5
4D1
330
27
100
AcDbEntity
  8
2
100
AcDbCircle
 10
-375.217399
 20
-21.401031
 30
0.0
 40
3.0
100
AcDbArc
 50
97.894178
 51
177.737707
  0
ARC
  5
4D2
330
27
100
AcDbEntity
  8
2
100
AcDbCircle
 10
-393.742433
 20
-23.969673
 30
0.0
 40
3.0
100
AcDbArc
 50
18.050649
 51
97.894178
  0
LINE
  5
4D3
330
27
100
AcDbEntity
  8
2
100
AcDbLine
 10
-378.209994
 20
-117.956026
 30
0.0
 11
-378.209994
 21
-121.956026
 31
0.0
  0
LINE
  5
4D4
330
27
100
AcDbEntity
  8
2
100
AcDbLine
 10
-391.209994
 20
-117.956026
 30
0.0
 11
-391.209994
 21
-121.956026
 31
0.0
  0
LINE
  5
4D5
330
27
100
AcDbEntity
  8
2
100
AcDbLine
 10
-454.571445
 20
-119.766749
 30
0.0
 11
-394.903177
 21
-121.052078
 31
0.0
  0
LINE
  5
4D6
330
27
100
AcDbEntity
  8
2
100
AcDbLine
 10
-374.646029
 20
-121.488442
 30
0.0
 11
-298.898298
 21
-123.120143
 31
0.0
  0
ARC
  5
4D7
330
27
100
AcDbEntity
  8
2
100
AcDbCircle
 10
-384.709994
 20
-117.956026
 30
0.0
 40
6.5
100
AcDbArc
 50
0.0
 51
180.0
  0
ARC
  5
4D8
330
27
100
AcDbEntity
  8
2
100
AcDbCircle
 10
-394.209994
 20
-121.956026
 30
0.0
 40
3.0
100
AcDbArc
 50
270.0
 51
360.0
  0
ARC
  5
4D9
330
27
100
AcDbEntity
  8
2
100
AcDbCircle
 10
-375.209994
 20
-121.956026
 30
0.0
 40
3.0
100
AcDbArc
 50
180.0
 51
270.0
  0
LINE
  5
4DA
330
27
100
AcDbEntity
  8
2
100
AcDbLine
 10
-460.58715
 20
-40.371652
 30
0.0
 11
-386.110357
 21
-27.373387
 31
0.0
  0
LINE
  5
4DB
330
27
100
AcDbEntity
  8
2
100
AcDbLine
 10
-381.242331
 20
-26.523781
 30
0.0
 11
-307.1965
 21
-13.600731
 31
0.0
  0
ARC
  5
4DC
330
27
100
AcDbEntity
  8
2
100
AcDbCircle
 10
-297.709994
 20
-67.95602599999999
 30
0.0
 40
60.0
100
AcDbArc
 50
0.0
 51
46.79926599999999
  0
ARC
  5
4DD
330
27
100
AcDbEntity
  8
2
100
AcDbCircle
 10
-297.709994
 20
-67.95602599999999
 30
0.0
 40
60.0
100
AcDbArc
 50
56.98558000000001
 51
82.815375
  0
ARC
  5
4DE
330
27
100
AcDbEntity
  8
2
100
AcDbCircle
 10
-257.709994
 20
-16.956026
 30
0.0
 40
6.5
100
AcDbArc
 50
199.707605
 51
264.077241
  0
ARC
  5
4DF
330
27
100
AcDbEntity
  8
2
100
AcDbCircle
 10
-258.690277
 20
-26.405314
 30
0.0
 40
3.0
100
AcDbArc
 50
46.79926599999999
 51
84.07724100000001
  0
ARC
  5
4E0
330
27
100
AcDbEntity
  8
2
100
AcDbCircle
 10
-266.653539
 20
-20.159618
 30
0.0
 40
3.0
100
AcDbArc
 50
19.707605
 51
56.98558000000001
  0
ARC
  5
4E1
330
27
100
AcDbEntity
  8
2
100
AcDbCircle
 10
-294.709994
 20
-67.95602599999999
 30
0.0
 40
57.0
100
AcDbArc
 50
270.0
 51
304.899005
  0
ARC
  5
4E2
330
27
100
AcDbEntity
  8
2
100
AcDbCircle
 10
-294.709994
 20
-67.95602599999999
 30
0.0
 40
57.0
100
AcDbArc
 50
315.900804
 51
360.0
  0
ARC
  5
4E3
330
27
100
AcDbEntity
  8
2
100
AcDbCircle
 10
-254.709994
 20
-114.956026
 30
0.0
 40
6.5
100
AcDbArc
 50
97.38233100000002
 51
163.417478
  0
ARC
  5
4E4
330
27
100
AcDbEntity
  8
2
100
AcDbCircle
 10
-255.930647
 20
-105.534773
 30
0.0
 40
3.0
100
AcDbArc
 50
277.382331
 51
315.900804
  0
ARC
  5
4E5
330
27
100
AcDbEntity
  8
2
100
AcDbCircle
 10
-263.814886
 20
-112.244764
 30
0.0
 40
3.0
100
AcDbArc
 50
304.899005
 51
343.417478
  0
ARC
  5
4E6
330
27
100
AcDbEntity
  8
2
100
AcDbCircle
 10
-297.709994
 20
-67.95602599999999
 30
0.0
 40
22.2
100
AcDbArc
 50
20.571635
 51
163.0
  0
ARC
  5
4E7
330
27
100
AcDbEntity
  8
2
100
AcDbCircle
 10
-293.809994
 20
-67.95602599999999
 30
0.0
 40
18.2
100
AcDbArc
 50
25.014065
 51
166.591995
  0
LINE
  5
4E8
330
27
100
AcDbEntity
  8
2
100
AcDbLine
 10
-279.599949
 20
-60.87201700000001
 30
0.0
 11
-277.317081
 21
-60.260325
 31
0.0
  0
LINE
  5
4E9
330
27
100
AcDbEntity
  8
2
100
AcDbLine
 10
-276.925608
 20
-60.15543
 30
0.0
 11
-274.315397
 21
-59.456026
 31
0.0
  0
LINE
  5
4EA
330
27
100
AcDbEntity
  8
2
100
AcDbLine
 10
-275.509994
 20
-67.95602599999999
 30
0.0
 11
-279.599949
 21
-60.87201700000001
 31
0.0
  0
LINE
  5
4EB
330
27
100
AcDbEntity
  8
2
100
AcDbLine
 10
-275.509994
 20
-67.95602599999999
 30
0.0
 11
-274.315397
 21
-59.456026
 31
0.0
  0
LINE
  5
4EC
330
27
100
AcDbEntity
  8
2
100
AcDbLine
 10
-311.513926
 20
-63.735741
 30
0.0
 11
-318.93996
 21
-61.46537399999999
 31
0.0
  0
LINE
  5
4ED
330
27
100
AcDbEntity
  8
2
100
AcDbLine
 10
-458.209994
 20
-60.456026
 30
0.0
 11
-458.209994
 21
-77.95602599999999
 31
0.0
  0
LINE
  5
4EE
330
27
100
AcDbEntity
  8
2
100
AcDbLine
 10
-446.543328
 20
-95.456026
 30
0.0
 11
-434.876661
 21
-95.456026
 31
0.0
  0
LINE
  5
4EF
330
27
100
AcDbEntity
  8
2
100
AcDbLine
 10
-458.209994
 20
-60.456026
 30
0.0
 11
-423.209994
 21
-60.456026
 31
0.0
  0
LINE
  5
4F0
330
27
100
AcDbEntity
  8
2
100
AcDbLine
 10
-458.209994
 20
-77.95602599999999
 30
0.0
 11
-423.209994
 21
-60.456026
 31
0.0
  0
LINE
  5
4F1
330
27
100
AcDbEntity
  8
2
100
AcDbLine
 10
-446.543328
 20
-72.12269299999999
 30
0.0
 11
-446.543328
 21
-95.456026
 31
0.0
  0
LINE
  5
4F2
330
27
100
AcDbEntity
  8
2
100
AcDbLine
 10
-434.876661
 20
-72.12269299999999
 30
0.0
 11
-434.876661
 21
-95.456026
 31
0.0
  0
LINE
  5
4F3
330
27
100
AcDbEntity
  8
2
100
AcDbLine
 10
-458.209994
 20
-72.12269299999999
 30
0.0
 11
-434.876661
 21
-72.12269299999999
 31
0.0
  0
LINE
  5
4F4
330
27
100
AcDbEntity
  8
2
100
AcDbLine
 10
-434.876661
 20
-66.28935899999999
 30
0.0
 11
-458.209994
 21
-66.28935899999999
 31
0.0
  0
LINE
  5
4F5
330
27
100
AcDbEntity
  8
2
100
AcDbLine
 10
-434.876661
 20
-66.28935899999999
 30
0.0
 11
-434.876661
 21
-60.456026
 31
0.0
  0
LINE
  5
4F6
330
27
100
AcDbEntity
  8
2
100
AcDbLine
 10
-446.543328
 20
-72.12269299999999
 30
0.0
 11
-446.543328
 21
-60.456026
 31
0.0
  0
LINE
  5
4F7
330
27
100
AcDbEntity
  8
2
100
AcDbLine
 10
-434.876661
 20
-60.456026
 30
0.0
 11
-458.209994
 21
-72.12269299999999
 31
0.0
  0
LINE
  5
4F8
330
27
100
AcDbEntity
  8
2
100
AcDbLine
 10
-446.543328
 20
-60.456026
 30
0.0
 11
-458.209994
 21
-66.28935899999999
 31
0.0
  0
ARC
  5
4F9
330
27
100
AcDbEntity
  8
2
100
AcDbCircle
 10
-523.709994
 20
-132.956026
 30
0.0
 40
2.0
100
AcDbArc
 50
180.0
 51
270.0
  0
LINE
  5
4FA
330
27
100
AcDbEntity
  8
2
100
AcDbLine
 10
-410.709994
 20
-142.04457
 30
0.0
 11
-410.709994
 21
-147.956026
 31
0.0
  0
LINE
  5
4FB
330
27
100
AcDbEntity
  8
2
100
AcDbLine
 10
-308.709994
 20
-136.956026
 30
0.0
 11
-308.709994
 21
-147.956026
 31
0.0
  0
ARC
  5
4FC
330
27
100
AcDbEntity
  8
2
100
AcDbCircle
 10
-306.709994
 20
-136.956026
 30
0.0
 40
2.0
100
AcDbArc
 50
90.0
 51
180.0
  0
LINE
  5
4FD
330
27
100
AcDbEntity
  8
2
100
AcDbLine
 10
-267.709994
 20
-125.956026
 30
0.0
 11
-267.709994
 21
-132.956026
 31
0.0
  0
LINE
  5
4FE
330
27
100
AcDbEntity
  8
2
100
AcDbLine
 10
-268.459994
 20
-134.956026
 30
0.0
 11
-524.959994
 21
-134.956026
 31
0.0
  0
LINE
  5
4FF
330
27
100
AcDbEntity
  8
2
100
AcDbLine
 10
-410.709994
 20
-147.956026
 30
0.0
 11
-308.709994
 21
-147.956026
 31
0.0
  0
LINE
  5
500
330
27
100
AcDbEntity
  8
2
100
AcDbLine
 10
-434.709994
 20
6.043973999999999
 30
0.0
 11
-274.709994
 21
6.043973999999999
 31
0.0
  0
LINE
  5
501
330
27
100
AcDbEntity
  8
2
100
AcDbLine
 10
-234.709994
 20
-35.956026
 30
0.0
 11
-234.709994
 21
-123.956026
 31
0.0
  0
LINE
  5
502
330
27
100
AcDbEntity
  8
2
100
AcDbLine
 10
-315.873359
 20
231.143974
 30
0.0
 11
-279.546629
 21
231.143974
 31
0.0
  0
LINE
  5
503
330
27
100
AcDbEntity
  8
2
100
AcDbLine
 10
-310.17534
 20
219.143974
 30
0.0
 11
-285.244648
 21
219.143974
 31
0.0
  0
LINE
  5
504
330
27
100
AcDbEntity
  8
2
100
AcDbLine
 10
-283.3127970000001
 20
220.626336
 30
0.0
 11
-280.8850490000001
 21
229.686812
 31
0.0
  0
LINE
  5
505
330
27
100
AcDbEntity
  8
2
100
AcDbLine
 10
-274.717
 20
234.849879
 30
0.0
 11
-274.499497
 21
235.661612
 31
0.0
  0
LINE
  5
506
330
27
100
AcDbEntity
  8
2
100
AcDbLine
 10
-312.107192
 20
220.626336
 30
0.0
 11
-314.534939
 21
229.686812
 31
0.0
  0
LINE
  5
507
330
27
100
AcDbEntity
  8
2
100
AcDbLine
 10
-320.702989
 20
234.849879
 30
0.0
 11
-320.920492
 21
235.661612
 31
0.0
  0
ARC
  5
508
330
27
100
AcDbEntity
  8
2
100
AcDbCircle
 10
-279.546629
 20
236.143974
 30
0.0
 40
5.0
100
AcDbArc
 50
270.0
 51
345.0
  0
ARC
  5
509
330
27
100
AcDbEntity
  8
2
100
AcDbCircle
 10
-315.873359
 20
236.143974
 30
0.0
 40
5.0
100
AcDbArc
 50
195.0
 51
270.0
  0
ARC
  5
50A
330
27
100
AcDbEntity
  8
2
100
AcDbCircle
 10
-285.244648
 20
221.143974
 30
0.0
 40
2.0
100
AcDbArc
 50
270.0
 51
345.0
  0
ARC
  5
50B
330
27
100
AcDbEntity
  8
2
100
AcDbCircle
 10
-310.17534
 20
221.143974
 30
0.0
 40
2.0
100
AcDbArc
 50
195.0
 51
270.0
  0
ARC
  5
50C
330
27
100
AcDbEntity
  8
2
100
AcDbCircle
 10
-278.953198
 20
229.169174
 30
0.0
 40
2.0
100
AcDbArc
 50
94.86314
 51
165.0
  0
ARC
  5
50D
330
27
100
AcDbEntity
  8
2
100
AcDbCircle
 10
-272.567645
 20
235.143974
 30
0.0
 40
2.0
100
AcDbArc
 50
90.0
 51
165.0
  0
ARC
  5
50E
330
27
100
AcDbEntity
  8
2
100
AcDbCircle
 10
-322.852343
 20
235.143974
 30
0.0
 40
2.0
100
AcDbArc
 50
15.0
 51
90.0
  0
ARC
  5
50F
330
27
100
AcDbEntity
  8
2
100
AcDbCircle
 10
-316.466791
 20
229.169174
 30
0.0
 40
2.0
100
AcDbArc
 50
15.0
 51
85.13685999999999
  0
ARC
  5
510
330
27
100
AcDbEntity
  8
2
100
AcDbCircle
 10
172.945448
 20
-33.956026
 30
0.0
 40
2.0
100
AcDbArc
 50
180.0
 51
270.0
  0
ARC
  5
511
330
27
100
AcDbEntity
  8
2
100
AcDbCircle
 10
92.945448
 20
-33.956026
 30
0.0
 40
2.0
100
AcDbArc
 50
270.0
 51
360.0
  0
ARC
  5
512
330
27
100
AcDbEntity
  8
2
100
AcDbCircle
 10
86.945448
 20
-42.956026
 30
0.0
 40
7.0
100
AcDbArc
 50
90.0
 51
180.0
  0
ARC
  5
513
330
27
100
AcDbEntity
  8
2
100
AcDbCircle
 10
184.945448
 20
-42.956026
 30
0.0
 40
7.0
100
AcDbArc
 50
0.0
 51
90.0
  0
ARC
  5
514
330
27
100
AcDbEntity
  8
2
100
AcDbCircle
 10
184.945448
 20
-116.956026
 30
0.0
 40
7.0
100
AcDbArc
 50
270.0
 51
360.0
  0
ARC
  5
515
330
27
100
AcDbEntity
  8
2
100
AcDbCircle
 10
86.945448
 20
-116.956026
 30
0.0
 40
7.0
100
AcDbArc
 50
180.0
 51
270.0
  0
LINE
  5
516
330
27
100
AcDbEntity
  8
2
100
AcDbLine
 10
165.945448
 20
-75.45602599999999
 30
0.0
 11
165.945448
 21
-84.45602599999999
 31
0.0
  0
LINE
  5
517
330
27
100
AcDbEntity
  8
2
100
AcDbLine
 10
105.945448
 20
-75.45602599999999
 30
0.0
 11
105.945448
 21
-84.45602599999999
 31
0.0
  0
ARC
  5
518
330
27
100
AcDbEntity
  8
2
100
AcDbCircle
 10
164.445448
 20
-75.45602599999999
 30
0.0
 40
1.5
100
AcDbArc
 50
0.0
 51
90.0
  0
ARC
  5
519
330
27
100
AcDbEntity
  8
2
100
AcDbCircle
 10
107.445448
 20
-75.45602599999999
 30
0.0
 40
1.5
100
AcDbArc
 50
90.0
 51
180.0
  0
ARC
  5
51A
330
27
100
AcDbEntity
  8
2
100
AcDbCircle
 10
107.445448
 20
-84.45602599999999
 30
0.0
 40
1.5
100
AcDbArc
 50
180.0
 51
270.0
  0
ARC
  5
51B
330
27
100
AcDbEntity
  8
2
100
AcDbCircle
 10
164.445448
 20
-84.45602599999999
 30
0.0
 40
1.5
100
AcDbArc
 50
270.0
 51
360.0
  0
LINE
  5
51C
330
27
100
AcDbEntity
  8
2
100
AcDbLine
 10
82.945448
 20
9.043974
 30
0.0
 11
82.945448
 21
-8.413135999999999
 31
0.0
  0
LINE
  5
51D
330
27
100
AcDbEntity
  8
2
100
AcDbLine
 10
180.945448
 20
0.043974
 30
0.0
 11
180.945448
 21
-35.956026
 31
0.0
  0
ARC
  5
51E
330
27
100
AcDbEntity
  8
2
100
AcDbCircle
 10
181.945448
 20
2.043973999999999
 30
0.0
 40
1.0
100
AcDbArc
 50
270.0
 51
360.0
  0
ARC
  5
51F
330
27
100
AcDbEntity
  8
2
100
AcDbCircle
 10
181.945448
 20
0.043974
 30
0.0
 40
1.0
100
AcDbArc
 50
90.0
 51
180.0
  0
LINE
  5
520
330
27
100
AcDbEntity
  8
2
100
AcDbLine
 10
-455.2346089999999
 20
397.143974
 30
0.0
 11
-433.1821299999999
 21
397.143974
 31
0.0
  0
ARC
  5
521
330
27
100
AcDbEntity
  8
2
100
AcDbCircle
 10
-441.881612
 20
391.143974
 30
0.0
 40
6.0
100
AcDbArc
 50
90.0
 51
180.0
  0
ARC
  5
522
330
27
100
AcDbEntity
  8
2
100
AcDbCircle
 10
-455.2346089999999
 20
393.143974
 30
0.0
 40
4.0
100
AcDbArc
 50
90.0
 51
170.405932
  0
ARC
  5
523
330
27
100
AcDbEntity
  8
2
100
AcDbCircle
 10
-452.7441399999999
 20
399.143974
 30
0.0
 40
2.0
100
AcDbArc
 50
180.0
 51
270.0
  0
LINE
  5
524
330
27
100
AcDbEntity
  8
2
100
AcDbLine
 10
-438.2524809999999
 20
402.1439739999999
 30
0.0
 11
-438.2524809999999
 21
400.143974
 31
0.0
  0
ARC
  5
525
330
27
100
AcDbEntity
  8
2
100
AcDbCircle
 10
-441.2524809999999
 20
400.143974
 30
0.0
 40
3.0
100
AcDbArc
 50
270.0
 51
360.0
  0
LINE
  5
526
330
27
100
AcDbEntity
  8
2
100
AcDbLine
 10
170.945448
 20
-13.956026
 30
0.0
 11
170.945448
 21
-33.956026
 31
0.0
  0
LINE
  5
527
330
27
100
AcDbEntity
  8
2
100
AcDbLine
 10
94.94544799999999
 20
-13.956026
 30
0.0
 11
94.94544799999999
 21
-33.956026
 31
0.0
  0
LINE
  5
528
330
27
100
AcDbEntity
  8
2
100
AcDbLine
 10
86.945448
 20
-35.956026
 30
0.0
 11
184.945448
 21
-35.956026
 31
0.0
  0
LINE
  5
529
330
27
100
AcDbEntity
  8
2
100
AcDbLine
 10
79.94544799999999
 20
-116.956026
 30
0.0
 11
79.94544799999999
 21
-42.956026
 31
0.0
  0
LINE
  5
52A
330
27
100
AcDbEntity
  8
2
100
AcDbLine
 10
184.945448
 20
-123.956026
 30
0.0
 11
86.945448
 21
-123.956026
 31
0.0
  0
LINE
  5
52B
330
27
100
AcDbEntity
  8
2
100
AcDbLine
 10
191.945448
 20
-42.956026
 30
0.0
 11
191.945448
 21
-116.956026
 31
0.0
  0
LINE
  5
52C
330
27
100
AcDbEntity
  8
2
100
AcDbLine
 10
182.945448
 20
6.043973999999999
 30
0.0
 11
82.945448
 21
6.043973999999999
 31
0.0
  0
LINE
  5
52D
330
27
100
AcDbEntity
  8
2
100
AcDbLine
 10
182.945448
 20
9.043974
 30
0.0
 11
182.945448
 21
2.043973999999999
 31
0.0
  0
LINE
  5
52E
330
27
100
AcDbEntity
  8
2
100
AcDbLine
 10
164.445448
 20
-73.956026
 30
0.0
 11
107.445448
 21
-73.956026
 31
0.0
  0
LINE
  5
52F
330
27
100
AcDbEntity
  8
2
100
AcDbLine
 10
107.445448
 20
-85.95602599999999
 30
0.0
 11
164.445448
 21
-85.95602599999999
 31
0.0
  0
LINE
  5
530
330
27
100
AcDbEntity
  8
2
100
AcDbLine
 10
83.945448
 20
-16.371707
 30
0.0
 11
83.945448
 21
-32.956026
 31
0.0
  0
LINE
  5
531
330
27
100
AcDbEntity
  8
2
100
AcDbLine
 10
39.945448
 20
-6.054650999999999
 30
0.0
 11
52.945448
 21
-6.054650999999999
 31
0.0
  0
ARC
  5
532
330
27
100
AcDbEntity
  8
2
100
AcDbCircle
 10
52.945448
 20
-7.054650999999999
 30
0.0
 40
1.0
100
AcDbArc
 50
0.0
 51
90.0
  0
ARC
  5
533
330
27
100
AcDbEntity
  8
2
100
AcDbCircle
 10
-269.709994
 20
-132.956026
 30
0.0
 40
2.0
100
AcDbArc
 50
270.0
 51
360.0
  0
LINE
  5
534
330
27
100
AcDbEntity
  8
2
100
AcDbLine
 10
54.893112
 20
-10.104316
 30
0.0
 11
79.207128
 21
-11.378559
 31
0.0
  0
ARC
  5
535
330
27
100
AcDbEntity
  8
2
100
AcDbCircle
 10
54.94544799999999
 20
-9.105686
 30
0.0
 40
1.0
100
AcDbArc
 50
180.0
 51
267.0
  0
ARC
  5
536
330
27
100
AcDbEntity
  8
2
100
AcDbCircle
 10
78.945448
 20
-16.371707
 30
0.0
 40
5.0
100
AcDbArc
 50
360.0
 51
87.0
  0
ARC
  5
537
330
27
100
AcDbEntity
  8
2
100
AcDbCircle
 10
-449.009146
 20
305.143974
 30
0.0
 40
4.0
100
AcDbArc
 50
360.0
 51
90.0
  0
ARC
  5
538
330
27
100
AcDbEntity
  8
2
100
AcDbCircle
 10
86.945448
 20
-32.956026
 30
0.0
 40
3.0
100
AcDbArc
 50
180.0
 51
270.0
  0
LINE
  5
539
330
27
100
AcDbEntity
  8
2
100
AcDbLine
 10
54.94544799999999
 20
-120.956026
 30
0.0
 11
80.70045
 21
-120.956026
 31
0.0
  0
ARC
  5
53A
330
27
100
AcDbEntity
  8
2
100
AcDbCircle
 10
52.945448
 20
-123.956026
 30
0.0
 40
1.0
100
AcDbArc
 50
270.0
 51
360.0
  0
ARC
  5
53B
330
27
100
AcDbEntity
  8
2
100
AcDbCircle
 10
54.94544799999999
 20
-121.956026
 30
0.0
 40
1.0
100
AcDbArc
 50
90.0
 51
180.0
  0
ARC
  5
53C
330
27
100
AcDbEntity
  8
2
100
AcDbCircle
 10
80.70045
 20
-121.956026
 30
0.0
 40
1.0
100
AcDbArc
 50
38.682187
 51
90.0
  0
LINE
  5
53D
330
27
100
AcDbEntity
  8
2
100
AcDbLine
 10
62.945448
 20
-121.956026
 30
0.0
 11
62.945448
 21
-132.956026
 31
0.0
  0
LINE
  5
53E
330
27
100
AcDbEntity
  8
2
100
AcDbLine
 10
196.945448
 20
-107.956026
 30
0.0
 11
196.945448
 21
-132.956026
 31
0.0
  0
ARC
  5
53F
330
27
100
AcDbEntity
  8
2
100
AcDbCircle
 10
194.945448
 20
-132.956026
 30
0.0
 40
2.0
100
AcDbArc
 50
270.0
 51
360.0
  0
ARC
  5
540
330
27
100
AcDbEntity
  8
2
100
AcDbCircle
 10
64.94544799999999
 20
-132.956026
 30
0.0
 40
2.0
100
AcDbArc
 50
180.0
 51
270.0
  0
ARC
  5
541
330
27
100
AcDbEntity
  8
2
100
AcDbCircle
 10
61.945448
 20
-121.956026
 30
0.0
 40
1.0
100
AcDbArc
 50
0.0
 51
90.0
  0
LINE
  5
542
330
27
100
AcDbEntity
  8
2
100
AcDbLine
 10
78.945448
 20
-136.956026
 30
0.0
 11
78.945448
 21
-147.956026
 31
0.0
  0
LINE
  5
543
330
27
100
AcDbEntity
  8
2
100
AcDbLine
 10
180.945448
 20
-136.956026
 30
0.0
 11
180.945448
 21
-147.956026
 31
0.0
  0
ARC
  5
544
330
27
100
AcDbEntity
  8
2
100
AcDbCircle
 10
182.945448
 20
-136.956026
 30
0.0
 40
2.0
100
AcDbArc
 50
128.682187
 51
180.0
  0
ARC
  5
545
330
27
100
AcDbEntity
  8
2
100
AcDbCircle
 10
76.945448
 20
-136.956026
 30
0.0
 40
2.0
100
AcDbArc
 50
0.0
 51
51.317813
  0
LINE
  5
546
330
27
100
AcDbEntity
  8
2
100
AcDbLine
 10
188.945448
 20
-49.456026
 30
0.0
 11
184.945448
 21
-49.456026
 31
0.0
  0
LINE
  5
547
330
27
100
AcDbEntity
  8
2
100
AcDbLine
 10
178.445448
 20
-42.956026
 30
0.0
 11
178.445448
 21
-38.956026
 31
0.0
  0
LINE
  5
548
330
27
100
AcDbEntity
  8
2
100
AcDbLine
 10
188.945448
 20
-110.456026
 30
0.0
 11
184.945448
 21
-110.456026
 31
0.0
  0
LINE
  5
549
330
27
100
AcDbEntity
  8
2
100
AcDbLine
 10
178.445448
 20
-116.956026
 30
0.0
 11
178.445448
 21
-120.956026
 31
0.0
  0
LINE
  5
54A
330
27
100
AcDbEntity
  8
2
100
AcDbLine
 10
82.945448
 20
-110.456026
 30
0.0
 11
86.945448
 21
-110.456026
 31
0.0
  0
LINE
  5
54B
330
27
100
AcDbEntity
  8
2
100
AcDbLine
 10
93.44544799999999
 20
-116.956026
 30
0.0
 11
93.44544799999999
 21
-120.956026
 31
0.0
  0
LINE
  5
54C
330
27
100
AcDbEntity
  8
2
100
AcDbLine
 10
82.945448
 20
-49.456026
 30
0.0
 11
86.945448
 21
-49.456026
 31
0.0
  0
LINE
  5
54D
330
27
100
AcDbEntity
  8
2
100
AcDbLine
 10
93.44544799999999
 20
-42.956026
 30
0.0
 11
93.44544799999999
 21
-38.956026
 31
0.0
  0
ARC
  5
54E
330
27
100
AcDbEntity
  8
2
100
AcDbCircle
 10
175.445448
 20
-38.956026
 30
0.0
 40
3.0
100
AcDbArc
 50
0.0
 51
90.0
  0
ARC
  5
54F
330
27
100
AcDbEntity
  8
2
100
AcDbCircle
 10
188.945448
 20
-52.456026
 30
0.0
 40
3.0
100
AcDbArc
 50
0.0
 51
90.0
  0
ARC
  5
550
330
27
100
AcDbEntity
  8
2
100
AcDbCircle
 10
188.945448
 20
-107.456026
 30
0.0
 40
3.0
100
AcDbArc
 50
270.0
 51
360.0
  0
ARC
  5
551
330
27
100
AcDbEntity
  8
2
100
AcDbCircle
 10
175.445448
 20
-120.956026
 30
0.0
 40
3.0
100
AcDbArc
 50
270.0
 51
360.0
  0
ARC
  5
552
330
27
100
AcDbEntity
  8
2
100
AcDbCircle
 10
96.445448
 20
-120.956026
 30
0.0
 40
3.0
100
AcDbArc
 50
180.0
 51
270.0
  0
ARC
  5
553
330
27
100
AcDbEntity
  8
2
100
AcDbCircle
 10
82.945448
 20
-107.456026
 30
0.0
 40
3.0
100
AcDbArc
 50
180.0
 51
270.0
  0
ARC
  5
554
330
27
100
AcDbEntity
  8
2
100
AcDbCircle
 10
82.945448
 20
-52.456026
 30
0.0
 40
3.0
100
AcDbArc
 50
90.0
 51
180.0
  0
ARC
  5
555
330
27
100
AcDbEntity
  8
2
100
AcDbCircle
 10
96.445448
 20
-38.956026
 30
0.0
 40
3.0
100
AcDbArc
 50
90.0
 51
180.0
  0
ARC
  5
556
330
27
100
AcDbEntity
  8
2
100
AcDbCircle
 10
184.945448
 20
-42.956026
 30
0.0
 40
6.5
100
AcDbArc
 50
180.0
 51
270.0
  0
ARC
  5
557
330
27
100
AcDbEntity
  8
2
100
AcDbCircle
 10
184.945448
 20
-116.956026
 30
0.0
 40
6.5
100
AcDbArc
 50
90.0
 51
180.0
  0
ARC
  5
558
330
27
100
AcDbEntity
  8
2
100
AcDbCircle
 10
86.945448
 20
-116.956026
 30
0.0
 40
6.5
100
AcDbArc
 50
360.0
 51
90.0
  0
ARC
  5
559
330
27
100
AcDbEntity
  8
2
100
AcDbCircle
 10
86.945448
 20
-42.956026
 30
0.0
 40
6.5
100
AcDbArc
 50
270.0
 51
0.0
  0
LINE
  5
55A
330
27
100
AcDbEntity
  8
2
100
AcDbLine
 10
191.945448
 20
-105.956026
 30
0.0
 11
194.945448
 21
-105.956026
 31
0.0
  0
ARC
  5
55B
330
27
100
AcDbEntity
  8
2
100
AcDbCircle
 10
194.945448
 20
-107.956026
 30
0.0
 40
2.0
100
AcDbArc
 50
0.0
 51
90.0
  0
LINE
  5
55C
330
27
100
AcDbEntity
  8
2
100
AcDbLine
 10
191.945448
 20
-51.956026
 30
0.0
 11
203.945448
 21
-51.956026
 31
0.0
  0
LINE
  5
55D
330
27
100
AcDbEntity
  8
2
100
AcDbLine
 10
191.945448
 20
-83.956026
 30
0.0
 11
203.945448
 21
-83.956026
 31
0.0
  0
ARC
  5
55E
330
27
100
AcDbEntity
  8
2
100
AcDbCircle
 10
203.945448
 20
-80.95602599999999
 30
0.0
 40
3.0
100
AcDbArc
 50
270.0
 51
360.0
  0
ARC
  5
55F
330
27
100
AcDbEntity
  8
2
100
AcDbCircle
 10
203.945448
 20
-54.956026
 30
0.0
 40
3.0
100
AcDbArc
 50
0.0
 51
90.0
  0
LINE
  5
560
330
27
100
AcDbEntity
  8
2
100
AcDbLine
 10
196.945448
 20
-121.898227
 30
0.0
 11
206.8583
 21
-81.673866
 31
0.0
  0
LINE
  5
561
330
27
100
AcDbEntity
  8
2
100
AcDbLine
 10
180.945448
 20
-24.956026
 30
0.0
 11
205.945448
 21
-24.956026
 31
0.0
  0
LINE
  5
562
330
27
100
AcDbEntity
  8
2
100
AcDbLine
 10
205.945448
 20
-24.956026
 30
0.0
 11
206.945448
 21
-25.956026
 31
0.0
  0
LINE
  5
563
330
27
100
AcDbEntity
  8
2
100
AcDbLine
 10
199.149156
 20
-112.956026
 30
0.0
 11
205.945448
 21
-112.956026
 31
0.0
  0
LINE
  5
564
330
27
100
AcDbEntity
  8
2
100
AcDbLine
 10
205.945448
 20
-112.956026
 30
0.0
 11
206.945448
 21
-111.956026
 31
0.0
  0
LINE
  5
565
330
27
100
AcDbEntity
  8
2
100
AcDbLine
 10
180.945448
 20
-33.756026
 30
0.0
 11
205.945448
 21
-33.756026
 31
0.0
  0
LINE
  5
566
330
27
100
AcDbEntity
  8
2
100
AcDbLine
 10
205.945448
 20
-112.956026
 30
0.0
 11
205.945448
 21
-90.456026
 31
0.0
  0
LINE
  5
567
330
27
100
AcDbEntity
  8
2
100
AcDbLine
 10
205.945448
 20
-52.719958
 30
0.0
 11
205.945448
 21
-24.956026
 31
0.0
  0
LINE
  5
568
330
27
100
AcDbEntity
  8
2
100
AcDbLine
 10
205.945448
 20
-33.756026
 30
0.0
 11
206.945448
 21
-34.756026
 31
0.0
  0
LINE
  5
569
330
27
100
AcDbEntity
  8
2
100
AcDbLine
 10
214.945448
 20
-87.279526
 30
0.0
 11
214.268948
 21
-87.956026
 31
0.0
  0
LINE
  5
56A
330
27
100
AcDbEntity
  8
2
100
AcDbLine
 10
214.268948
 20
-87.956026
 30
0.0
 11
210.445448
 21
-87.956026
 31
0.0
  0
LINE
  5
56B
330
27
100
AcDbEntity
  8
2
 62
     2
100
AcDbLine
 10
214.945448
 20
-87.279526
 30
0.0
 11
210.445448
 21
-87.279526
 31
0.0
  0
LINE
  5
56C
330
27
100
AcDbEntity
  8
2
100
AcDbLine
 10
214.945448
 20
-87.279526
 30
0.0
 11
214.945448
 21
-80.632526
 31
0.0
  0
LINE
  5
56D
330
27
100
AcDbEntity
  8
2
100
AcDbLine
 10
214.945448
 20
-80.632526
 30
0.0
 11
214.268948
 21
-79.95602599999999
 31
0.0
  0
LINE
  5
56E
330
27
100
AcDbEntity
  8
2
100
AcDbLine
 10
214.268948
 20
-79.95602599999999
 30
0.0
 11
210.408734
 21
-79.95602599999999
 31
0.0
  0
LINE
  5
56F
330
27
100
AcDbEntity
  8
2
100
AcDbLine
 10
214.268948
 20
-79.95602599999999
 30
0.0
 11
214.268948
 21
-87.956026
 31
0.0
  0
LINE
  5
570
330
27
100
AcDbEntity
  8
2
 62
     2
100
AcDbLine
 10
214.945448
 20
-80.632526
 30
0.0
 11
210.445448
 21
-80.632526
 31
0.0
  0
LINE
  5
571
330
27
100
AcDbEntity
  8
2
100
AcDbLine
 10
206.945448
 20
-77.45602599999999
 30
0.0
 11
210.445448
 21
-77.45602599999999
 31
0.0
  0
ARC
  5
572
330
27
100
AcDbEntity
  8
2
100
AcDbCircle
 10
202.76669
 20
-80.70602599999999
 30
0.0
 40
7.678758999999999
100
AcDbArc
 50
334.96034
 51
25.03966
  0
LINE
  5
573
330
27
100
AcDbEntity
  8
2
100
AcDbLine
 10
204.694033
 20
-90.456026
 30
0.0
 11
210.445448
 21
-90.456026
 31
0.0
  0
LINE
  5
574
330
27
100
AcDbEntity
  8
2
100
AcDbLine
 10
210.445448
 20
-90.456026
 30
0.0
 11
210.445448
 21
-77.45602599999999
 31
0.0
  0
LINE
  5
575
330
27
100
AcDbEntity
  8
2
100
AcDbLine
 10
206.295887
 20
-83.956026
 30
0.0
 11
209.723761
 21
-83.956026
 31
0.0
  0
ARC
  5
576
330
27
100
AcDbEntity
  8
2
100
AcDbCircle
 10
202.76669
 20
-87.20602599999999
 30
0.0
 40
7.678758999999999
100
AcDbArc
 50
334.96034
 51
25.03966
  0
ARC
  5
577
330
27
100
AcDbEntity
  8
2
100
AcDbCircle
 10
79.94544799999999
 20
-8.413135999999999
 30
0.0
 40
3.0
100
AcDbArc
 50
267.0
 51
360.0
  0
LINE
  5
578
330
27
100
AcDbEntity
  8
2
100
AcDbLine
 10
38.945448
 20
-7.054650999999999
 30
0.0
 11
38.945448
 21
-123.956026
 31
0.0
  0
ARC
  5
579
330
27
100
AcDbEntity
  8
2
100
AcDbCircle
 10
39.945448
 20
-7.054650999999999
 30
0.0
 40
1.0
100
AcDbArc
 50
90.0
 51
180.0
  0
ARC
  5
57A
330
27
100
AcDbEntity
  8
2
100
AcDbCircle
 10
39.945448
 20
-123.956026
 30
0.0
 40
1.0
100
AcDbArc
 50
180.0
 51
270.0
  0
LINE
  5
57B
330
27
100
AcDbEntity
  8
2
100
AcDbLine
 10
20.945448
 20
-16.627083
 30
0.0
 11
20.945448
 21
-118.613773
 31
0.0
  0
LINE
  5
57C
330
27
100
AcDbEntity
  8
2
100
AcDbLine
 10
38.945448
 20
-8.010988000000001
 30
0.0
 11
24.665128
 21
-11.793784
 31
0.0
  0
LINE
  5
57D
330
27
100
AcDbEntity
  8
2
100
AcDbLine
 10
38.945448
 20
-124.956026
 30
0.0
 11
25.441613
 21
-123.588324
 31
0.0
  0
ARC
  5
57E
330
27
100
AcDbEntity
  8
2
100
AcDbCircle
 10
25.945448
 20
-16.627083
 30
0.0
 40
5.0
100
AcDbArc
 50
104.836646
 51
180.0
  0
ARC
  5
57F
330
27
100
AcDbEntity
  8
2
100
AcDbCircle
 10
25.945448
 20
-118.613773
 30
0.0
 40
5.0
100
AcDbArc
 50
180.0
 51
264.21666
  0
LINE
  5
580
330
27
100
AcDbEntity
  8
2
100
AcDbLine
 10
14.945448
 20
-49.792661
 30
0.0
 11
14.945448
 21
-86.119391
 31
0.0
  0
LINE
  5
581
330
27
100
AcDbEntity
  8
2
100
AcDbLine
 10
2.945447999999999
 20
-55.49068
 30
0.0
 11
2.945447999999999
 21
-80.42137199999999
 31
0.0
  0
LINE
  5
582
330
27
100
AcDbEntity
  8
2
100
AcDbLine
 10
4.42781
 20
-53.558828
 30
0.0
 11
13.488286
 21
-51.131081
 31
0.0
  0
LINE
  5
583
330
27
100
AcDbEntity
  8
2
100
AcDbLine
 10
18.651353
 20
-44.96303199999999
 30
0.0
 11
19.463086
 21
-44.74552899999999
 31
0.0
  0
LINE
  5
584
330
27
100
AcDbEntity
  8
2
100
AcDbLine
 10
4.42781
 20
-82.35322399999999
 30
0.0
 11
13.488286
 21
-84.78097099999999
 31
0.0
  0
LINE
  5
585
330
27
100
AcDbEntity
  8
2
100
AcDbLine
 10
18.651353
 20
-90.94901999999999
 30
0.0
 11
19.463086
 21
-91.16652399999999
 31
0.0
  0
ARC
  5
586
330
27
100
AcDbEntity
  8
2
100
AcDbCircle
 10
19.945448
 20
-49.792661
 30
0.0
 40
5.0
100
AcDbArc
 50
105.0
 51
180.0
  0
ARC
  5
587
330
27
100
AcDbEntity
  8
2
100
AcDbCircle
 10
19.945448
 20
-86.119391
 30
0.0
 40
5.0
100
AcDbArc
 50
180.0
 51
255.0
  0
ARC
  5
588
330
27
100
AcDbEntity
  8
2
100
AcDbCircle
 10
4.945448
 20
-55.49068
 30
0.0
 40
2.0
100
AcDbArc
 50
105.0
 51
180.0
  0
ARC
  5
589
330
27
100
AcDbEntity
  8
2
100
AcDbCircle
 10
4.945448
 20
-80.42137199999999
 30
0.0
 40
2.0
100
AcDbArc
 50
180.0
 51
255.0
  0
ARC
  5
58A
330
27
100
AcDbEntity
  8
2
100
AcDbCircle
 10
18.945448
 20
-42.81367699999999
 30
0.0
 40
2.0
100
AcDbArc
 50
285.0
 51
360.0
  0
ARC
  5
58B
330
27
100
AcDbEntity
  8
2
100
AcDbCircle
 10
18.945448
 20
-93.098375
 30
0.0
 40
2.0
100
AcDbArc
 50
0.0
 51
75.0
  0
ARC
  5
58C
330
27
100
AcDbEntity
  8
2
100
AcDbCircle
 10
12.970648
 20
-86.71282299999999
 30
0.0
 40
2.0
100
AcDbArc
 50
4.86314
 51
75.0
  0
ARC
  5
58D
330
27
100
AcDbEntity
  8
2
100
AcDbCircle
 10
12.970648
 20
-49.19923
 30
0.0
 40
2.0
100
AcDbArc
 50
285.0
 51
355.13686
  0
LINE
  5
58E
330
27
100
AcDbEntity
  8
2
100
AcDbLine
 10
55.945448
 20
-12.956026
 30
0.0
 11
68.945448
 21
-12.956026
 31
0.0
  0
LINE
  5
58F
330
27
100
AcDbEntity
  8
2
100
AcDbLine
 10
55.945448
 20
-20.956026
 30
0.0
 11
68.945448
 21
-20.956026
 31
0.0
  0
LINE
  5
590
330
27
100
AcDbEntity
  8
2
100
AcDbLine
 10
55.945448
 20
-110.956026
 30
0.0
 11
68.945448
 21
-110.956026
 31
0.0
  0
LINE
  5
591
330
27
100
AcDbEntity
  8
2
100
AcDbLine
 10
55.945448
 20
-118.956026
 30
0.0
 11
68.945448
 21
-118.956026
 31
0.0
  0
ARC
  5
592
330
27
100
AcDbEntity
  8
2
100
AcDbCircle
 10
68.945448
 20
-16.956026
 30
0.0
 40
4.0
100
AcDbArc
 50
270.0
 51
90.0
  0
ARC
  5
593
330
27
100
AcDbEntity
  8
2
100
AcDbCircle
 10
68.945448
 20
-114.956026
 30
0.0
 40
4.0
100
AcDbArc
 50
270.0
 51
90.0
  0
ARC
  5
594
330
27
100
AcDbEntity
  8
2
100
AcDbCircle
 10
55.945448
 20
-10.956026
 30
0.0
 40
2.0
100
AcDbArc
 50
180.0
 51
270.0
  0
ARC
  5
595
330
27
100
AcDbEntity
  8
2
100
AcDbCircle
 10
55.945448
 20
-22.956026
 30
0.0
 40
2.0
100
AcDbArc
 50
90.0
 51
180.0
  0
ARC
  5
596
330
27
100
AcDbEntity
  8
2
100
AcDbCircle
 10
55.945448
 20
-108.956026
 30
0.0
 40
2.0
100
AcDbArc
 50
180.0
 51
270.0
  0
ARC
  5
597
330
27
100
AcDbEntity
  8
2
100
AcDbCircle
 10
55.945448
 20
-120.956026
 30
0.0
 40
2.0
100
AcDbArc
 50
90.0
 51
180.0
  0
ARC
  5
598
330
27
100
AcDbEntity
  8
2
100
AcDbCircle
 10
-384.709994
 20
-117.956026
 30
0.0
 40
7.128574
100
AcDbArc
 50
0.0
 51
180.0
  0
LINE
  5
599
330
27
100
AcDbEntity
  8
2
100
AcDbLine
 10
-377.5814200000001
 20
-117.956026
 30
0.0
 11
-377.5814200000001
 21
-118.489138
 31
0.0
  0
LINE
  5
59A
330
27
100
AcDbEntity
  8
2
100
AcDbLine
 10
-391.838568
 20
-117.956026
 30
0.0
 11
-391.838568
 21
-118.052774
 31
0.0
  0
ARC
  5
59B
330
27
100
AcDbEntity
  8
2
100
AcDbCircle
 10
-374.58142
 20
-118.489138
 30
0.0
 40
3.0
100
AcDbArc
 50
180.0
 51
268.765968
  0
ARC
  5
59C
330
27
100
AcDbEntity
  8
2
100
AcDbCircle
 10
-394.838568
 20
-118.052774
 30
0.0
 40
3.0
100
AcDbArc
 50
268.765968
 51
360.0
  0
LINE
  5
59D
330
27
100
AcDbEntity
  8
2
100
AcDbLine
 10
-378.588691
 20
243.44723
 30
0.0
 11
-378.588691
 21
255.143974
 31
0.0
  0
LINE
  5
59E
330
27
100
AcDbEntity
  8
2
100
AcDbLine
 10
-391.195204
 20
243.44723
 30
0.0
 11
-391.195204
 21
255.143974
 31
0.0
  0
ARC
  5
59F
330
27
100
AcDbEntity
  8
2
100
AcDbCircle
 10
-384.891947
 20
243.44723
 30
0.0
 40
6.303256
100
AcDbArc
 50
180.0
 51
360.0
  0
ARC
  5
5A0
330
27
100
AcDbEntity
  8
2
100
AcDbCircle
 10
-505.8343499999999
 20
252.143974
 30
0.0
 40
3.0
100
AcDbArc
 50
30.0
 51
90.0
  0
ARC
  5
5A1
330
27
100
AcDbEntity
  8
2
100
AcDbCircle
 10
-490.8232429999999
 20
242.143974
 30
0.0
 40
5.0
100
AcDbArc
 50
210.0
 51
270.0
  0
CIRCLE
  5
5A2
330
27
100
AcDbEntity
  8
2
100
AcDbCircle
 10
-519.709994
 20
-72.95602599999999
 30
0.0
 40
5.25
  0
CIRCLE
  5
5A3
330
27
100
AcDbEntity
  8
2
100
AcDbCircle
 10
-519.709994
 20
-72.95602599999999
 30
0.0
 40
5.25
  0
CIRCLE
  5
5A4
330
27
100
AcDbEntity
  8
2
100
AcDbCircle
 10
-519.709994
 20
-72.95602599999999
 30
0.0
 40
5.75
  0
CIRCLE
  5
5A5
330
27
100
AcDbEntity
  8
2
100
AcDbCircle
 10
-384.709994
 20
-21.026026
 30
0.0
 40
5.25
  0
CIRCLE
  5
5A6
330
27
100
AcDbEntity
  8
2
100
AcDbCircle
 10
-384.709994
 20
-21.026026
 30
0.0
 40
5.25
  0
CIRCLE
  5
5A7
330
27
100
AcDbEntity
  8
2
100
AcDbCircle
 10
-384.709994
 20
-21.026026
 30
0.0
 40
5.75
  0
CIRCLE
  5
5A8
330
27
100
AcDbEntity
  8
2
100
AcDbCircle
 10
-384.709994
 20
-117.956026
 30
0.0
 40
5.25
  0
CIRCLE
  5
5A9
330
27
100
AcDbEntity
  8
2
100
AcDbCircle
 10
-384.709994
 20
-117.956026
 30
0.0
 40
5.25
  0
CIRCLE
  5
5AA
330
27
100
AcDbEntity
  8
2
100
AcDbCircle
 10
-384.709994
 20
-117.956026
 30
0.0
 40
5.75
  0
CIRCLE
  5
5AB
330
27
100
AcDbEntity
  8
2
100
AcDbCircle
 10
-257.709994
 20
-16.956026
 30
0.0
 40
5.25
  0
CIRCLE
  5
5AC
330
27
100
AcDbEntity
  8
2
100
AcDbCircle
 10
-257.709994
 20
-16.956026
 30
0.0
 40
5.25
  0
CIRCLE
  5
5AD
330
27
100
AcDbEntity
  8
2
100
AcDbCircle
 10
-257.709994
 20
-16.956026
 30
0.0
 40
5.75
  0
CIRCLE
  5
5AE
330
27
100
AcDbEntity
  8
2
100
AcDbCircle
 10
-254.709994
 20
-114.956026
 30
0.0
 40
5.25
  0
CIRCLE
  5
5AF
330
27
100
AcDbEntity
  8
2
100
AcDbCircle
 10
-254.709994
 20
-114.956026
 30
0.0
 40
5.25
  0
CIRCLE
  5
5B0
330
27
100
AcDbEntity
  8
2
100
AcDbCircle
 10
-254.709994
 20
-114.956026
 30
0.0
 40
5.75
  0
CIRCLE
  5
5B1
330
27
100
AcDbEntity
  8
2
100
AcDbCircle
 10
86.945448
 20
-42.956026
 30
0.0
 40
5.25
  0
CIRCLE
  5
5B2
330
27
100
AcDbEntity
  8
2
100
AcDbCircle
 10
86.945448
 20
-42.956026
 30
0.0
 40
5.25
  0
CIRCLE
  5
5B3
330
27
100
AcDbEntity
  8
2
100
AcDbCircle
 10
86.945448
 20
-42.956026
 30
0.0
 40
5.75
  0
CIRCLE
  5
5B4
330
27
100
AcDbEntity
  8
2
100
AcDbCircle
 10
184.945448
 20
-42.956026
 30
0.0
 40
5.25
  0
CIRCLE
  5
5B5
330
27
100
AcDbEntity
  8
2
100
AcDbCircle
 10
184.945448
 20
-42.956026
 30
0.0
 40
5.25
  0
CIRCLE
  5
5B6
330
27
100
AcDbEntity
  8
2
100
AcDbCircle
 10
184.945448
 20
-42.956026
 30
0.0
 40
5.75
  0
CIRCLE
  5
5B7
330
27
100
AcDbEntity
  8
2
100
AcDbCircle
 10
86.945448
 20
-116.956026
 30
0.0
 40
5.25
  0
CIRCLE
  5
5B8
330
27
100
AcDbEntity
  8
2
100
AcDbCircle
 10
86.945448
 20
-116.956026
 30
0.0
 40
5.25
  0
CIRCLE
  5
5B9
330
27
100
AcDbEntity
  8
2
100
AcDbCircle
 10
86.945448
 20
-116.956026
 30
0.0
 40
5.75
  0
CIRCLE
  5
5BA
330
27
100
AcDbEntity
  8
2
100
AcDbCircle
 10
184.945448
 20
-116.956026
 30
0.0
 40
5.25
  0
CIRCLE
  5
5BB
330
27
100
AcDbEntity
  8
2
100
AcDbCircle
 10
184.945448
 20
-116.956026
 30
0.0
 40
5.25
  0
CIRCLE
  5
5BC
330
27
100
AcDbEntity
  8
2
100
AcDbCircle
 10
184.945448
 20
-116.956026
 30
0.0
 40
5.75
  0
LINE
  5
5BD
330
27
100
AcDbEntity
  8
2
100
AcDbLine
 10
-228.209994
 20
-122.706026
 30
0.0
 11
-228.209994
 21
-111.206026
 31
0.0
  0
LINE
  5
5BE
330
27
100
AcDbEntity
  8
2
100
AcDbLine
 10
-228.209994
 20
-111.206026
 30
0.0
 11
-229.709994
 21
-111.206026
 31
0.0
  0
LINE
  5
5BF
330
27
100
AcDbEntity
  8
2
100
AcDbLine
 10
-228.209994
 20
-122.706026
 30
0.0
 11
-229.709994
 21
-122.706026
 31
0.0
  0
LINE
  5
5C0
330
27
100
AcDbEntity
  8
2
100
AcDbLine
 10
-226.682978
 20
-111.706026
 30
0.0
 11
-228.209994
 21
-111.706026
 31
0.0
  0
LINE
  5
5C1
330
27
100
AcDbEntity
  8
2
100
AcDbLine
 10
-226.682978
 20
-122.206026
 30
0.0
 11
-228.209994
 21
-122.206026
 31
0.0
  0
ARC
  5
5C2
330
27
100
AcDbEntity
  8
2
100
AcDbCircle
 10
-238.309994
 20
-116.956026
 30
0.0
 40
14.0
100
AcDbArc
 50
343.927141
 51
16.072859
  0
ARC
  5
5C3
330
27
100
AcDbEntity
  8
2
100
AcDbCircle
 10
-226.682978
 20
-120.306026
 30
0.0
 40
1.9
100
AcDbArc
 50
270.0
 51
343.927141
  0
ARC
  5
5C4
330
27
100
AcDbEntity
  8
2
100
AcDbCircle
 10
-226.682978
 20
-113.606026
 30
0.0
 40
1.9
100
AcDbArc
 50
16.072859
 51
90.0
  0
LINE
  5
5C5
330
27
100
AcDbEntity
  8
2
100
AcDbLine
 10
-228.209994
 20
-48.706026
 30
0.0
 11
-228.209994
 21
-37.206026
 31
0.0
  0
LINE
  5
5C6
330
27
100
AcDbEntity
  8
2
100
AcDbLine
 10
-228.209994
 20
-37.206026
 30
0.0
 11
-229.709994
 21
-37.206026
 31
0.0
  0
LINE
  5
5C7
330
27
100
AcDbEntity
  8
2
100
AcDbLine
 10
-228.209994
 20
-48.706026
 30
0.0
 11
-229.709994
 21
-48.706026
 31
0.0
  0
LINE
  5
5C8
330
27
100
AcDbEntity
  8
2
100
AcDbLine
 10
-226.682978
 20
-37.706026
 30
0.0
 11
-228.209994
 21
-37.706026
 31
0.0
  0
LINE
  5
5C9
330
27
100
AcDbEntity
  8
2
100
AcDbLine
 10
-226.682978
 20
-48.206026
 30
0.0
 11
-228.209994
 21
-48.206026
 31
0.0
  0
ARC
  5
5CA
330
27
100
AcDbEntity
  8
2
100
AcDbCircle
 10
-238.309994
 20
-42.956026
 30
0.0
 40
14.0
100
AcDbArc
 50
343.927141
 51
16.072859
  0
ARC
  5
5CB
330
27
100
AcDbEntity
  8
2
100
AcDbCircle
 10
-226.682978
 20
-46.306026
 30
0.0
 40
1.9
100
AcDbArc
 50
270.0
 51
343.927141
  0
ARC
  5
5CC
330
27
100
AcDbEntity
  8
2
100
AcDbCircle
 10
-226.682978
 20
-39.606026
 30
0.0
 40
1.9
100
AcDbArc
 50
16.072859
 51
90.0
  0
LINE
  5
5CD
330
27
100
AcDbEntity
  8
2
100
AcDbLine
 10
-228.209994
 20
395.393974
 30
0.0
 11
-228.209994
 21
406.893974
 31
0.0
  0
LINE
  5
5CE
330
27
100
AcDbEntity
  8
2
100
AcDbLine
 10
-228.209994
 20
406.893974
 30
0.0
 11
-229.709994
 21
406.893974
 31
0.0
  0
LINE
  5
5CF
330
27
100
AcDbEntity
  8
2
100
AcDbLine
 10
-228.209994
 20
395.393974
 30
0.0
 11
-229.709994
 21
395.393974
 31
0.0
  0
LINE
  5
5D0
330
27
100
AcDbEntity
  8
2
100
AcDbLine
 10
-226.682978
 20
406.393974
 30
0.0
 11
-228.209994
 21
406.393974
 31
0.0
  0
LINE
  5
5D1
330
27
100
AcDbEntity
  8
2
100
AcDbLine
 10
-226.682978
 20
395.893974
 30
0.0
 11
-228.209994
 21
395.893974
 31
0.0
  0
ARC
  5
5D2
330
27
100
AcDbEntity
  8
2
100
AcDbCircle
 10
-238.309994
 20
401.143974
 30
0.0
 40
14.0
100
AcDbArc
 50
343.927141
 51
16.072859
  0
ARC
  5
5D3
330
27
100
AcDbEntity
  8
2
100
AcDbCircle
 10
-226.682978
 20
397.793974
 30
0.0
 40
1.9
100
AcDbArc
 50
270.0
 51
343.927141
  0
ARC
  5
5D4
330
27
100
AcDbEntity
  8
2
100
AcDbCircle
 10
-226.682978
 20
404.493974
 30
0.0
 40
1.9
100
AcDbArc
 50
16.072859
 51
90.0
  0
LINE
  5
5D5
330
27
100
AcDbEntity
  8
2
100
AcDbLine
 10
-228.209994
 20
297.393974
 30
0.0
 11
-228.209994
 21
308.893974
 31
0.0
  0
LINE
  5
5D6
330
27
100
AcDbEntity
  8
2
100
AcDbLine
 10
-228.209994
 20
308.893974
 30
0.0
 11
-229.709994
 21
308.893974
 31
0.0
  0
LINE
  5
5D7
330
27
100
AcDbEntity
  8
2
100
AcDbLine
 10
-228.209994
 20
297.393974
 30
0.0
 11
-229.709994
 21
297.393974
 31
0.0
  0
LINE
  5
5D8
330
27
100
AcDbEntity
  8
2
100
AcDbLine
 10
-226.682978
 20
308.393974
 30
0.0
 11
-228.209994
 21
308.393974
 31
0.0
  0
LINE
  5
5D9
330
27
100
AcDbEntity
  8
2
100
AcDbLine
 10
-226.682978
 20
297.893974
 30
0.0
 11
-228.209994
 21
297.893974
 31
0.0
  0
ARC
  5
5DA
330
27
100
AcDbEntity
  8
2
100
AcDbCircle
 10
-238.309994
 20
303.143974
 30
0.0
 40
14.0
100
AcDbArc
 50
343.927141
 51
16.072859
  0
ARC
  5
5DB
330
27
100
AcDbEntity
  8
2
100
AcDbCircle
 10
-226.682978
 20
299.7939740000001
 30
0.0
 40
1.9
100
AcDbArc
 50
270.0
 51
343.927141
  0
ARC
  5
5DC
330
27
100
AcDbEntity
  8
2
100
AcDbCircle
 10
-226.682978
 20
306.493974
 30
0.0
 40
1.9
100
AcDbArc
 50
16.072859
 51
90.0
  0
LINE
  5
5DD
330
27
100
AcDbEntity
  8
2
100
AcDbLine
 10
-525.459994
 20
253.643974
 30
0.0
 11
-513.959994
 21
253.643974
 31
0.0
  0
LINE
  5
5DE
330
27
100
AcDbEntity
  8
2
100
AcDbLine
 10
-513.959994
 20
253.643974
 30
0.0
 11
-513.959994
 21
255.143974
 31
0.0
  0
LINE
  5
5DF
330
27
100
AcDbEntity
  8
2
100
AcDbLine
 10
-525.459994
 20
253.643974
 30
0.0
 11
-525.459994
 21
255.143974
 31
0.0
  0
LINE
  5
5E0
330
27
100
AcDbEntity
  8
2
100
AcDbLine
 10
-514.459994
 20
252.116958
 30
0.0
 11
-514.459994
 21
253.643974
 31
0.0
  0
LINE
  5
5E1
330
27
100
AcDbEntity
  8
2
100
AcDbLine
 10
-524.959994
 20
252.116958
 30
0.0
 11
-524.959994
 21
253.643974
 31
0.0
  0
ARC
  5
5E2
330
27
100
AcDbEntity
  8
2
100
AcDbCircle
 10
-519.709994
 20
263.743974
 30
0.0
 40
14.0
100
AcDbArc
 50
253.927141
 51
286.072859
  0
ARC
  5
5E3
330
27
100
AcDbEntity
  8
2
100
AcDbCircle
 10
-523.0599940000001
 20
252.116958
 30
0.0
 40
1.9
100
AcDbArc
 50
180.0
 51
253.927141
  0
ARC
  5
5E4
330
27
100
AcDbEntity
  8
2
100
AcDbCircle
 10
-516.359994
 20
252.116958
 30
0.0
 40
1.9
100
AcDbArc
 50
286.072859
 51
360.0
  0
LINE
  5
5E5
330
27
100
AcDbEntity
  8
2
100
AcDbLine
 10
-390.459994
 20
253.643974
 30
0.0
 11
-378.959994
 21
253.643974
 31
0.0
  0
LINE
  5
5E6
330
27
100
AcDbEntity
  8
2
100
AcDbLine
 10
-378.959994
 20
253.643974
 30
0.0
 11
-378.959994
 21
255.143974
 31
0.0
  0
LINE
  5
5E7
330
27
100
AcDbEntity
  8
2
100
AcDbLine
 10
-390.459994
 20
253.643974
 30
0.0
 11
-390.459994
 21
255.143974
 31
0.0
  0
LINE
  5
5E8
330
27
100
AcDbEntity
  8
2
100
AcDbLine
 10
-379.459994
 20
252.116958
 30
0.0
 11
-379.459994
 21
253.643974
 31
0.0
  0
LINE
  5
5E9
330
27
100
AcDbEntity
  8
2
100
AcDbLine
 10
-389.959994
 20
252.116958
 30
0.0
 11
-389.959994
 21
253.643974
 31
0.0
  0
ARC
  5
5EA
330
27
100
AcDbEntity
  8
2
100
AcDbCircle
 10
-384.709994
 20
263.743974
 30
0.0
 40
14.0
100
AcDbArc
 50
253.927141
 51
286.072859
  0
ARC
  5
5EB
330
27
100
AcDbEntity
  8
2
100
AcDbCircle
 10
-388.059994
 20
252.116958
 30
0.0
 40
1.9
100
AcDbArc
 50
180.0
 51
253.927141
  0
ARC
  5
5EC
330
27
100
AcDbEntity
  8
2
100
AcDbCircle
 10
-381.3599939999999
 20
252.116958
 30
0.0
 40
1.9
100
AcDbArc
 50
286.072859
 51
360.0
  0
LINE
  5
5ED
330
27
100
AcDbEntity
  8
2
100
AcDbLine
 10
-263.459994
 20
253.643974
 30
0.0
 11
-251.959994
 21
253.643974
 31
0.0
  0
LINE
  5
5EE
330
27
100
AcDbEntity
  8
2
100
AcDbLine
 10
-251.959994
 20
253.643974
 30
0.0
 11
-251.959994
 21
255.143974
 31
0.0
  0
LINE
  5
5EF
330
27
100
AcDbEntity
  8
2
100
AcDbLine
 10
-263.459994
 20
253.643974
 30
0.0
 11
-263.459994
 21
255.143974
 31
0.0
  0
LINE
  5
5F0
330
27
100
AcDbEntity
  8
2
100
AcDbLine
 10
-252.459994
 20
252.116958
 30
0.0
 11
-252.459994
 21
253.643974
 31
0.0
  0
LINE
  5
5F1
330
27
100
AcDbEntity
  8
2
100
AcDbLine
 10
-262.959994
 20
252.116958
 30
0.0
 11
-262.959994
 21
253.643974
 31
0.0
  0
ARC
  5
5F2
330
27
100
AcDbEntity
  8
2
100
AcDbCircle
 10
-257.709994
 20
263.743974
 30
0.0
 40
14.0
100
AcDbArc
 50
253.927141
 51
286.072859
  0
ARC
  5
5F3
330
27
100
AcDbEntity
  8
2
100
AcDbCircle
 10
-261.059994
 20
252.116958
 30
0.0
 40
1.9
100
AcDbArc
 50
180.0
 51
253.927141
  0
ARC
  5
5F4
330
27
100
AcDbEntity
  8
2
100
AcDbCircle
 10
-254.359994
 20
252.116958
 30
0.0
 40
1.9
100
AcDbArc
 50
286.072859
 51
360.0
  0
LINE
  5
5F5
330
27
100
AcDbEntity
  8
2
100
AcDbLine
 10
37.445448
 20
-22.706026
 30
0.0
 11
37.445448
 21
-11.206026
 31
0.0
  0
LINE
  5
5F6
330
27
100
AcDbEntity
  8
2
100
AcDbLine
 10
37.445448
 20
-11.206026
 30
0.0
 11
38.945448
 21
-11.206026
 31
0.0
  0
LINE
  5
5F7
330
27
100
AcDbEntity
  8
2
100
AcDbLine
 10
37.445448
 20
-22.706026
 30
0.0
 11
38.945448
 21
-22.706026
 31
0.0
  0
LINE
  5
5F8
330
27
100
AcDbEntity
  8
2
100
AcDbLine
 10
35.918432
 20
-11.706026
 30
0.0
 11
37.445448
 21
-11.706026
 31
0.0
  0
LINE
  5
5F9
330
27
100
AcDbEntity
  8
2
100
AcDbLine
 10
35.918432
 20
-22.206026
 30
0.0
 11
37.445448
 21
-22.206026
 31
0.0
  0
ARC
  5
5FA
330
27
100
AcDbEntity
  8
2
100
AcDbCircle
 10
47.545448
 20
-16.956026
 30
0.0
 40
14.0
100
AcDbArc
 50
163.927141
 51
196.072859
  0
ARC
  5
5FB
330
27
100
AcDbEntity
  8
2
100
AcDbCircle
 10
35.918432
 20
-20.306026
 30
0.0
 40
1.9
100
AcDbArc
 50
196.072859
 51
270.0
  0
ARC
  5
5FC
330
27
100
AcDbEntity
  8
2
100
AcDbCircle
 10
35.918432
 20
-13.606026
 30
0.0
 40
1.9
100
AcDbArc
 50
90.0
 51
163.927141
  0
LINE
  5
5FD
330
27
100
AcDbEntity
  8
2
100
AcDbLine
 10
37.445448
 20
-120.706026
 30
0.0
 11
37.445448
 21
-109.206026
 31
0.0
  0
LINE
  5
5FE
330
27
100
AcDbEntity
  8
2
100
AcDbLine
 10
37.445448
 20
-109.206026
 30
0.0
 11
38.945448
 21
-109.206026
 31
0.0
  0
LINE
  5
5FF
330
27
100
AcDbEntity
  8
2
100
AcDbLine
 10
37.445448
 20
-120.706026
 30
0.0
 11
38.945448
 21
-120.706026
 31
0.0
  0
LINE
  5
600
330
27
100
AcDbEntity
  8
2
100
AcDbLine
 10
35.918432
 20
-109.706026
 30
0.0
 11
37.445448
 21
-109.706026
 31
0.0
  0
LINE
  5
601
330
27
100
AcDbEntity
  8
2
100
AcDbLine
 10
35.918432
 20
-120.206026
 30
0.0
 11
37.445448
 21
-120.206026
 31
0.0
  0
ARC
  5
602
330
27
100
AcDbEntity
  8
2
100
AcDbCircle
 10
47.545448
 20
-114.956026
 30
0.0
 40
14.0
100
AcDbArc
 50
163.927141
 51
196.072859
  0
ARC
  5
603
330
27
100
AcDbEntity
  8
2
100
AcDbCircle
 10
35.918432
 20
-118.306026
 30
0.0
 40
1.9
100
AcDbArc
 50
196.072859
 51
270.0
  0
ARC
  5
604
330
27
100
AcDbEntity
  8
2
100
AcDbCircle
 10
35.918432
 20
-111.606026
 30
0.0
 40
1.9
100
AcDbArc
 50
90.0
 51
163.927141
  0
LINE
  5
605
330
27
100
AcDbEntity
  8
2
100
AcDbLine
 10
-510.459994
 20
-136.956026
 30
0.0
 11
-524.959994
 21
-136.956026
 31
0.0
  0
LINE
  5
606
330
27
100
AcDbEntity
  8
2
100
AcDbLine
 10
-510.459994
 20
-134.956026
 30
0.0
 11
-510.459994
 21
-136.956026
 31
0.0
  0
LINE
  5
607
330
27
100
AcDbEntity
  8
2
100
AcDbLine
 10
-524.959994
 20
-134.956026
 30
0.0
 11
-524.959994
 21
-136.956026
 31
0.0
  0
LINE
  5
608
330
27
100
AcDbEntity
  8
2
100
AcDbLine
 10
-510.709994
 20
-136.956026
 30
0.0
 11
-510.709994
 21
-138.914075
 31
0.0
  0
LINE
  5
609
330
27
100
AcDbEntity
  8
2
100
AcDbLine
 10
-524.709994
 20
-136.956026
 30
0.0
 11
-524.709994
 21
-138.914075
 31
0.0
  0
ARC
  5
60A
330
27
100
AcDbEntity
  8
2
100
AcDbCircle
 10
-517.709994
 20
-124.156026
 30
0.0
 40
18.0
100
AcDbArc
 50
253.39845
 51
286.6015499999999
  0
ARC
  5
60B
330
27
100
AcDbEntity
  8
2
100
AcDbCircle
 10
-522.109994
 20
-138.914075
 30
0.0
 40
2.6
100
AcDbArc
 50
180.0
 51
253.39845
  0
ARC
  5
60C
330
27
100
AcDbEntity
  8
2
100
AcDbCircle
 10
-513.3099940000001
 20
-138.914075
 30
0.0
 40
2.6
100
AcDbArc
 50
286.6015499999999
 51
360.0
  0
LINE
  5
60D
330
27
100
AcDbEntity
  8
2
100
AcDbLine
 10
-401.459994
 20
-136.956026
 30
0.0
 11
-415.9599939999999
 21
-136.956026
 31
0.0
  0
LINE
  5
60E
330
27
100
AcDbEntity
  8
2
100
AcDbLine
 10
-401.459994
 20
-134.956026
 30
0.0
 11
-401.459994
 21
-136.956026
 31
0.0
  0
LINE
  5
60F
330
27
100
AcDbEntity
  8
2
100
AcDbLine
 10
-415.9599939999999
 20
-134.956026
 30
0.0
 11
-415.9599939999999
 21
-136.956026
 31
0.0
  0
LINE
  5
610
330
27
100
AcDbEntity
  8
2
100
AcDbLine
 10
-401.7099939999999
 20
-136.956026
 30
0.0
 11
-401.7099939999999
 21
-138.914075
 31
0.0
  0
LINE
  5
611
330
27
100
AcDbEntity
  8
2
100
AcDbLine
 10
-415.709994
 20
-136.956026
 30
0.0
 11
-415.709994
 21
-138.914075
 31
0.0
  0
ARC
  5
612
330
27
100
AcDbEntity
  8
2
100
AcDbCircle
 10
-408.7099939999999
 20
-124.156026
 30
0.0
 40
18.0
100
AcDbArc
 50
253.39845
 51
286.6015499999999
  0
ARC
  5
613
330
27
100
AcDbEntity
  8
2
100
AcDbCircle
 10
-413.1099939999999
 20
-138.914075
 30
0.0
 40
2.6
100
AcDbArc
 50
180.0
 51
253.39845
  0
ARC
  5
614
330
27
100
AcDbEntity
  8
2
100
AcDbCircle
 10
-404.309994
 20
-138.914075
 30
0.0
 40
2.6
100
AcDbArc
 50
286.6015499999999
 51
360.0
  0
LINE
  5
615
330
27
100
AcDbEntity
  8
2
100
AcDbLine
 10
-268.459994
 20
-136.956026
 30
0.0
 11
-282.959994
 21
-136.956026
 31
0.0
  0
LINE
  5
616
330
27
100
AcDbEntity
  8
2
100
AcDbLine
 10
-268.459994
 20
-134.956026
 30
0.0
 11
-268.459994
 21
-136.956026
 31
0.0
  0
LINE
  5
617
330
27
100
AcDbEntity
  8
2
100
AcDbLine
 10
-282.959994
 20
-134.956026
 30
0.0
 11
-282.959994
 21
-136.956026
 31
0.0
  0
LINE
  5
618
330
27
100
AcDbEntity
  8
2
100
AcDbLine
 10
-268.709994
 20
-136.956026
 30
0.0
 11
-268.709994
 21
-138.914075
 31
0.0
  0
LINE
  5
619
330
27
100
AcDbEntity
  8
2
100
AcDbLine
 10
-282.709994
 20
-136.956026
 30
0.0
 11
-282.709994
 21
-138.914075
 31
0.0
  0
ARC
  5
61A
330
27
100
AcDbEntity
  8
2
100
AcDbCircle
 10
-275.709994
 20
-124.156026
 30
0.0
 40
18.0
100
AcDbArc
 50
253.39845
 51
286.6015499999999
  0
ARC
  5
61B
330
27
100
AcDbEntity
  8
2
100
AcDbCircle
 10
-280.109994
 20
-138.914075
 30
0.0
 40
2.6
100
AcDbArc
 50
180.0
 51
253.39845
  0
ARC
  5
61C
330
27
100
AcDbEntity
  8
2
100
AcDbCircle
 10
-271.309994
 20
-138.914075
 30
0.0
 40
2.6
100
AcDbArc
 50
286.6015499999999
 51
360.0
  0
LINE
  5
61D
330
27
100
AcDbEntity
  8
2
100
AcDbLine
 10
78.195448
 20
-136.956026
 30
0.0
 11
63.69544799999999
 21
-136.956026
 31
0.0
  0
LINE
  5
61E
330
27
100
AcDbEntity
  8
2
100
AcDbLine
 10
78.195448
 20
-134.956026
 30
0.0
 11
78.195448
 21
-136.956026
 31
0.0
  0
LINE
  5
61F
330
27
100
AcDbEntity
  8
2
100
AcDbLine
 10
63.69544799999999
 20
-134.956026
 30
0.0
 11
63.69544799999999
 21
-136.956026
 31
0.0
  0
LINE
  5
620
330
27
100
AcDbEntity
  8
2
100
AcDbLine
 10
77.945448
 20
-136.956026
 30
0.0
 11
77.945448
 21
-138.914075
 31
0.0
  0
LINE
  5
621
330
27
100
AcDbEntity
  8
2
100
AcDbLine
 10
63.945448
 20
-136.956026
 30
0.0
 11
63.945448
 21
-138.914075
 31
0.0
  0
ARC
  5
622
330
27
100
AcDbEntity
  8
2
100
AcDbCircle
 10
70.945448
 20
-124.156026
 30
0.0
 40
18.0
100
AcDbArc
 50
253.39845
 51
286.6015499999999
  0
ARC
  5
623
330
27
100
AcDbEntity
  8
2
100
AcDbCircle
 10
66.545448
 20
-138.914075
 30
0.0
 40
2.6
100
AcDbArc
 50
180.0
 51
253.39845
  0
ARC
  5
624
330
27
100
AcDbEntity
  8
2
100
AcDbCircle
 10
75.345448
 20
-138.914075
 30
0.0
 40
2.6
100
AcDbArc
 50
286.6015499999999
 51
360.0
  0
LINE
  5
625
330
27
100
AcDbEntity
  8
2
100
AcDbLine
 10
196.195448
 20
-136.956026
 30
0.0
 11
181.695448
 21
-136.956026
 31
0.0
  0
LINE
  5
626
330
27
100
AcDbEntity
  8
2
100
AcDbLine
 10
196.195448
 20
-134.956026
 30
0.0
 11
196.195448
 21
-136.956026
 31
0.0
  0
LINE
  5
627
330
27
100
AcDbEntity
  8
2
100
AcDbLine
 10
181.695448
 20
-134.956026
 30
0.0
 11
181.695448
 21
-136.956026
 31
0.0
  0
LINE
  5
628
330
27
100
AcDbEntity
  8
2
100
AcDbLine
 10
195.945448
 20
-136.956026
 30
0.0
 11
195.945448
 21
-138.914075
 31
0.0
  0
LINE
  5
629
330
27
100
AcDbEntity
  8
2
100
AcDbLine
 10
181.945448
 20
-136.956026
 30
0.0
 11
181.945448
 21
-138.914075
 31
0.0
  0
ARC
  5
62A
330
27
100
AcDbEntity
  8
2
100
AcDbCircle
 10
188.945448
 20
-124.156026
 30
0.0
 40
18.0
100
AcDbArc
 50
253.39845
 51
286.6015499999999
  0
ARC
  5
62B
330
27
100
AcDbEntity
  8
2
100
AcDbCircle
 10
184.545448
 20
-138.914075
 30
0.0
 40
2.6
100
AcDbArc
 50
180.0
 51
253.39845
  0
ARC
  5
62C
330
27
100
AcDbEntity
  8
2
100
AcDbCircle
 10
193.345448
 20
-138.914075
 30
0.0
 40
2.6
100
AcDbArc
 50
286.6015499999999
 51
360.0
  0
LINE
  5
62D
330
27
100
AcDbEntity
  8
2
  6
CENTER
 62
     2
100
AcDbLine
 10
-434.1836469999999
 20
393.143974
 30
0.0
 11
-417.5341
 21
393.143974
 31
0.0
  0
LINE
  5
62E
330
27
100
AcDbEntity
  8
2
  6
CENTER
 62
     2
100
AcDbLine
 10
-289.815926
 20
393.143974
 30
0.0
 11
-271.38057
 21
393.143974
 31
0.0
  0
LINE
  5
62F
330
27
100
AcDbEntity
  8
2
  6
CENTER
 62
     2
100
AcDbLine
 10
-426.709994
 20
298.049869
 30
0.0
 11
-426.709994
 21
313.06702
 31
0.0
  0
LINE
  5
630
330
27
100
AcDbEntity
  8
2
  6
CENTER
 62
     2
100
AcDbLine
 10
-426.709994
 20
385.704395
 30
0.0
 11
-426.709994
 21
401.047993
 31
0.0
  0
LINE
  5
631
330
27
100
AcDbEntity
  8
2
  6
CENTER
 62
     2
100
AcDbLine
 10
-433.36747
 20
305.143974
 30
0.0
 11
-419.4928629999999
 21
305.143974
 31
0.0
  0
LINE
  5
632
330
27
100
AcDbEntity
  8
2
  6
CENTER
 62
     2
100
AcDbLine
 10
-290.058472
 20
305.143974
 30
0.0
 11
-271.865723
 21
305.143974
 31
0.0
  0
LINE
  5
633
330
27
100
AcDbEntity
  8
2
  6
CENTER
 62
     2
100
AcDbLine
 10
-280.709994
 20
296.375812
 30
0.0
 11
-280.709994
 21
313.84087
 31
0.0
  0
LINE
  5
634
330
27
100
AcDbEntity
  8
2
  6
CENTER
 62
     2
100
AcDbLine
 10
-280.709994
 20
383.943287
 30
0.0
 11
-280.709994
 21
401.165729
 31
0.0
  0
ARC
  5
635
330
27
100
AcDbEntity
  8
2
  6
CENTER
 62
     2
100
AcDbCircle
 10
-359.709994
 20
346.143974
 30
0.0
 40
37.5
100
AcDbArc
 50
126.361503
 51
143.885033
  0
ARC
  5
636
330
27
100
AcDbEntity
  8
2
  6
CENTER
 62
     2
100
AcDbCircle
 10
-359.709994
 20
346.143974
 30
0.0
 40
37.5
100
AcDbArc
 50
216.93331
 51
233.416879
  0
ARC
  5
637
330
27
100
AcDbEntity
  8
2
  6
CENTER
 62
     2
100
AcDbCircle
 10
-359.709994
 20
346.143974
 30
0.0
 40
37.5
100
AcDbArc
 50
306.278748
 51
323.822644
  0
ARC
  5
638
330
27
100
AcDbEntity
  8
2
  6
CENTER
 62
     2
100
AcDbCircle
 10
-359.709994
 20
346.143974
 30
0.0
 40
37.5
100
AcDbArc
 50
36.280641
 51
53.73721899999999
  0
LINE
  5
639
330
27
100
AcDbEntity
  8
2
  6
CENTER
 62
     2
100
AcDbLine
 10
-390.549281
 20
315.304688
 30
0.0
 11
-382.498681
 21
323.355288
 31
0.0
  0
LINE
  5
63A
330
27
100
AcDbEntity
  8
2
  6
CENTER
 62
     2
100
AcDbLine
 10
-337.319141
 20
368.534827
 30
0.0
 11
-328.7727680000001
 21
377.081201
 31
0.0
  0
LINE
  5
63B
330
27
100
AcDbEntity
  8
2
  6
CENTER
 62
     2
100
AcDbLine
 10
-390.603614
 20
377.037593
 30
0.0
 11
-382.252621
 21
368.686601
 31
0.0
  0
LINE
  5
63C
330
27
100
AcDbEntity
  8
2
  6
CENTER
 62
     2
100
AcDbLine
 10
-337.137911
 20
323.57189
 30
0.0
 11
-329.006847
 21
315.440827
 31
0.0
  0
LINE
  5
63D
330
27
100
AcDbEntity
  8
2
  6
CENTER
 62
     2
100
AcDbLine
 10
-386.226499
 20
61.95941999999999
 30
0.0
 11
-386.226499
 21
45.53899499999999
 31
0.0
  0
LINE
  5
63E
330
27
100
AcDbEntity
  8
2
  6
CENTER
 62
     2
100
AcDbLine
 10
-333.19349
 20
62.389276
 30
0.0
 11
-333.19349
 21
45.53899499999999
 31
0.0
  0
LINE
  5
63F
330
27
100
AcDbEntity
  8
2
  6
CENTER
 62
     2
100
AcDbLine
 10
156.461953
 20
46.38879099999999
 30
0.0
 11
156.461953
 21
62.00024899999999
 31
0.0
  0
LINE
  5
640
330
27
100
AcDbEntity
  8
2
  6
CENTER
 62
     2
100
AcDbLine
 10
103.428944
 20
46.38879099999999
 30
0.0
 11
103.428944
 21
63.39414
 31
0.0
  0
LINE
  5
641
330
27
100
AcDbEntity
  8
2
  6
CENTER
 62
     2
100
AcDbLine
 10
-537.709994
 20
346.143974
 30
0.0
 11
-204.023377
 21
346.143974
 31
0.0
  0
LINE
  5
642
330
27
100
AcDbEntity
  8
2
  6
CENTER
 62
     2
100
AcDbLine
 10
86.74544799999999
 20
-13.956026
 30
0.0
 11
177.545448
 21
-13.956026
 31
0.0
  0
LINE
  5
643
330
27
100
AcDbEntity
  8
2
  6
CENTER
 62
     2
100
AcDbLine
 10
112.945448
 20
8.343974000000001
 30
0.0
 11
112.945448
 21
-31.656026
 31
0.0
  0
LINE
  5
644
330
27
100
AcDbEntity
  8
2
  6
CENTER
 62
     2
100
AcDbLine
 10
152.945448
 20
8.343974000000001
 30
0.0
 11
152.945448
 21
-31.656026
 31
0.0
  0
LINE
  5
645
330
27
100
AcDbEntity
  8
2
  6
CENTER
 62
     2
100
AcDbLine
 10
-384.709994
 20
438.413942
 30
0.0
 11
-384.709994
 21
409.443974
 31
0.0
  0
LINE
  5
646
330
27
100
AcDbEntity
  8
2
  6
CENTER
 62
     2
100
AcDbLine
 10
-334.709994
 20
409.1939739999999
 30
0.0
 11
-334.709994
 21
438.413942
 31
0.0
  0
LINE
  5
647
330
27
100
AcDbEntity
  8
2
  6
CENTER
 62
     2
100
AcDbLine
 10
-359.709994
 20
439.8056959999999
 30
0.0
 11
-359.709994
 21
226.043974
 31
0.0
  0
LINE
  5
648
330
27
100
AcDbEntity
  8
2
  6
CENTER
 62
     2
100
AcDbLine
 10
-297.709994
 20
429.293974
 30
0.0
 11
-297.709994
 21
173.641144
 31
0.0
  0
LINE
  5
649
330
27
100
AcDbEntity
  8
2
  6
CENTER
 62
     2
100
AcDbLine
 10
-297.709994
 20
-1.906025999999999
 30
0.0
 11
-297.709994
 21
-134.956026
 31
0.0
  0
LINE
  5
64A
330
27
100
AcDbEntity
  8
2
  6
CENTER
 62
     2
100
AcDbLine
 10
-257.709994
 20
-25.956026
 30
0.0
 11
-257.709994
 21
-9.056025999999999
 31
0.0
  0
LINE
  5
64B
330
27
100
AcDbEntity
  8
2
  6
CENTER
 62
     2
100
AcDbLine
 10
-266.259994
 20
-16.956026
 30
0.0
 11
-247.709994
 21
-16.956026
 31
0.0
  0
LINE
  5
64C
330
27
100
AcDbEntity
  8
2
  6
CENTER
 62
     2
100
AcDbLine
 10
-254.709994
 20
-105.666136
 30
0.0
 11
-254.709994
 21
-124.53079
 31
0.0
  0
LINE
  5
64D
330
27
100
AcDbEntity
  8
2
  6
CENTER
 62
     2
100
AcDbLine
 10
-263.709994
 20
-114.956026
 30
0.0
 11
-245.809994
 21
-114.956026
 31
0.0
  0
LINE
  5
64E
330
27
100
AcDbEntity
  8
2
  6
CENTER
 62
     2
100
AcDbLine
 10
-528.181721
 20
-72.95602599999999
 30
0.0
 11
-511.909994
 21
-72.95602599999999
 31
0.0
  0
LINE
  5
64F
330
27
100
AcDbEntity
  8
2
  6
CENTER
 62
     2
100
AcDbLine
 10
-384.709994
 20
-126.956026
 30
0.0
 11
-384.709994
 21
-108.906026
 31
0.0
  0
LINE
  5
650
330
27
100
AcDbEntity
  8
2
  6
CENTER
 62
     2
100
AcDbLine
 10
-393.709994
 20
-117.956026
 30
0.0
 11
-375.659994
 21
-117.956026
 31
0.0
  0
LINE
  5
651
330
27
100
AcDbEntity
  8
2
  6
CENTER
 62
     2
100
AcDbLine
 10
-384.709994
 20
-31.406026
 30
0.0
 11
-384.709994
 21
-11.856026
 31
0.0
  0
LINE
  5
652
330
27
100
AcDbEntity
  8
2
  6
CENTER
 62
     2
100
AcDbLine
 10
-542.809994
 20
-67.95602599999999
 30
0.0
 11
-209.209994
 21
-67.95602599999999
 31
0.0
  0
LINE
  5
653
330
27
100
AcDbEntity
  8
2
  6
CENTER
 62
     2
100
AcDbLine
 10
-517.709994
 20
-116.806026
 30
0.0
 11
-517.709994
 21
-147.446264
 31
0.0
  0
LINE
  5
654
330
27
100
AcDbEntity
  8
2
  6
CENTER
 62
     2
100
AcDbLine
 10
-37.309438
 20
-67.95602599999999
 30
0.0
 11
218.181499
 21
-67.95602599999999
 31
0.0
  0
LINE
  5
655
330
27
100
AcDbEntity
  8
2
  6
CENTER
 62
     2
100
AcDbLine
 10
86.945448
 20
-53.756026
 30
0.0
 11
86.945448
 21
-32.156026
 31
0.0
  0
LINE
  5
656
330
27
100
AcDbEntity
  8
2
  6
CENTER
 62
     2
100
AcDbLine
 10
76.145448
 20
-42.956026
 30
0.0
 11
97.74544800000001
 21
-42.956026
 31
0.0
  0
LINE
  5
657
330
27
100
AcDbEntity
  8
2
  6
CENTER
 62
     2
100
AcDbLine
 10
86.945448
 20
-106.156026
 30
0.0
 11
86.945448
 21
-127.756026
 31
0.0
  0
LINE
  5
658
330
27
100
AcDbEntity
  8
2
  6
CENTER
 62
     2
100
AcDbLine
 10
76.145448
 20
-116.956026
 30
0.0
 11
97.74544800000001
 21
-116.956026
 31
0.0
  0
LINE
  5
659
330
27
100
AcDbEntity
  8
2
  6
CENTER
 62
     2
100
AcDbLine
 10
184.945448
 20
-53.756026
 30
0.0
 11
184.945448
 21
-32.156026
 31
0.0
  0
LINE
  5
65A
330
27
100
AcDbEntity
  8
2
  6
CENTER
 62
     2
100
AcDbLine
 10
195.745448
 20
-42.956026
 30
0.0
 11
174.1454479999999
 21
-42.956026
 31
0.0
  0
LINE
  5
65B
330
27
100
AcDbEntity
  8
2
  6
CENTER
 62
     2
100
AcDbLine
 10
184.945448
 20
-106.156026
 30
0.0
 11
184.945448
 21
-127.756026
 31
0.0
  0
LINE
  5
65C
330
27
100
AcDbEntity
  8
2
  6
CENTER
 62
     2
100
AcDbLine
 10
195.745448
 20
-116.956026
 30
0.0
 11
174.1454479999999
 21
-116.956026
 31
0.0
  0
LINE
  5
65D
330
27
100
AcDbEntity
  8
2
  6
CENTER
 62
     2
100
AcDbLine
 10
-408.7099939999999
 20
-147.446264
 30
0.0
 11
-408.7099939999999
 21
-116.806026
 31
0.0
  0
LINE
  5
65E
330
27
100
AcDbEntity
  8
2
  6
CENTER
 62
     2
100
AcDbLine
 10
-275.709994
 20
-116.806026
 30
0.0
 11
-275.709994
 21
-147.446264
 31
0.0
  0
LINE
  5
65F
330
27
100
AcDbEntity
  8
2
  6
CENTER
 62
     2
100
AcDbLine
 10
70.945448
 20
-147.446264
 30
0.0
 11
70.945448
 21
-122.556026
 31
0.0
  0
LINE
  5
660
330
27
100
AcDbEntity
  8
2
  6
CENTER
 62
     2
100
AcDbLine
 10
188.945448
 20
-123.756026
 30
0.0
 11
188.945448
 21
-147.446264
 31
0.0
  0
LINE
  5
661
330
27
100
AcDbEntity
  8
2
  6
CENTER
 62
     2
100
AcDbLine
 10
-242.759994
 20
-42.956026
 30
0.0
 11
-219.759994
 21
-42.956026
 31
0.0
  0
LINE
  5
662
330
27
100
AcDbEntity
  8
2
  6
CENTER
 62
     2
100
AcDbLine
 10
-219.759994
 20
-116.956026
 30
0.0
 11
-242.759994
 21
-116.956026
 31
0.0
  0
LINE
  5
663
330
27
100
AcDbEntity
  8
2
  6
CENTER
 62
     2
100
AcDbLine
 10
-519.709994
 20
242.893974
 30
0.0
 11
-519.709994
 21
294.332552
 31
0.0
  0
LINE
  5
664
330
27
100
AcDbEntity
  8
2
  6
CENTER
 62
     2
100
AcDbLine
 10
-384.709994
 20
290.254152
 30
0.0
 11
-384.709994
 21
244.0939740000001
 31
0.0
  0
LINE
  5
665
330
27
100
AcDbEntity
  8
2
  6
CENTER
 62
     2
100
AcDbLine
 10
-257.709994
 20
244.0939740000001
 30
0.0
 11
-257.709994
 21
293.81354
 31
0.0
  0
LINE
  5
666
330
27
100
AcDbEntity
  8
2
  6
CENTER
 62
     2
100
AcDbLine
 10
-247.409994
 20
303.143974
 30
0.0
 11
-220.859994
 21
303.143974
 31
0.0
  0
LINE
  5
667
330
27
100
AcDbEntity
  8
2
  6
CENTER
 62
     2
100
AcDbLine
 10
-220.859994
 20
401.143974
 30
0.0
 11
-245.709994
 21
401.143974
 31
0.0
  0
LINE
  5
668
330
27
100
AcDbEntity
  8
2
  6
CENTER
 62
     2
100
AcDbLine
 10
-256.827316
 20
369.143974
 30
0.0
 11
-287.809994
 21
369.143974
 31
0.0
  0
LINE
  5
669
330
27
100
AcDbEntity
  8
2
  6
CENTER
 62
     2
100
AcDbLine
 10
-289.648881
 20
329.143974
 30
0.0
 11
-256.827316
 21
329.143974
 31
0.0
  0
LINE
  5
66A
330
27
100
AcDbEntity
  8
2
  6
CENTER
 62
     2
100
AcDbLine
 10
209.723761
 20
-83.956026
 30
0.0
 11
222.595257
 21
-83.956026
 31
0.0
  0
LINE
  5
66B
330
27
100
AcDbEntity
  8
2
  6
CENTER
 62
     2
100
AcDbLine
 10
-395.333225
 20
-21.026026
 30
0.0
 11
-374.87373
 21
-21.026026
 31
0.0
  0
LINE
  5
66C
330
27
100
AcDbEntity
  8
2
  6
CENTER
 62
     2
100
AcDbLine
 10
-519.709994
 20
-65.23322900000001
 30
0.0
 11
-519.709994
 21
-80.888857
 31
0.0
  0
LINE
  5
66D
330
27
100
AcDbEntity
  8
2
  6
CENTER
 62
     2
100
AcDbLine
 10
26.631145
 20
-16.956026
 30
0.0
 11
77.19938299999999
 21
-16.956026
 31
0.0
  0
LINE
  5
66E
330
27
100
AcDbEntity
  8
2
  6
CENTER
 62
     2
100
AcDbLine
 10
27.101513
 20
-114.956026
 30
0.0
 11
77.01777299999999
 21
-114.956026
 31
0.0
  0
LINE
  5
66F
330
27
100
AcDbEntity
  8
2
100
AcDbLine
 10
38.945448
 20
-23.451551
 30
0.0
 11
35.471958
 21
-24.754774
 31
0.0
  0
LINE
  5
670
330
27
100
AcDbEntity
  8
2
100
AcDbLine
 10
-264.075895
 20
252.271509
 30
0.0
 11
-264.075895
 21
255.143974
 31
0.0
  0
ARC
  5
671
330
27
100
AcDbEntity
  8
2
100
AcDbCircle
 10
-260.77236
 20
252.271509
 30
0.0
 40
3.303534999999999
100
AcDbArc
 50
180.0
 51
310.859891
  0
LINE
  5
672
330
27
100
AcDbEntity
  8
2
100
AcDbLine
 10
38.945448
 20
-108.456929
 30
0.0
 11
33.313363
 21
-106.560745
 31
0.0
  0
LINE
  5
673
330
27
100
AcDbEntity
  8
2
100
AcDbLine
 10
33.73669
 20
-112.649906
 30
0.0
 11
32.382815
 21
-112.292789
 31
0.0
  0
LINE
  5
674
330
27
100
AcDbEntity
  8
2
100
AcDbLine
 10
30.688173
 20
-108.683556
 30
0.0
 11
30.905881
 21
-110.586287
 31
0.0
  0
ARC
  5
675
330
27
100
AcDbEntity
  8
2
100
AcDbCircle
 10
32.892917
 20
-110.358933
 30
0.0
 40
2.0
100
AcDbArc
 50
186.527319
 51
255.223414
  0
ARC
  5
676
330
27
100
AcDbEntity
  8
2
100
AcDbCircle
 10
32.675209
 20
-108.456202
 30
0.0
 40
2.0
100
AcDbArc
 50
71.392894
 51
186.527319
  0
LINE
  5
677
330
27
100
AcDbEntity
  8
2
100
AcDbLine
 10
32.769397
 20
-21.755293
 30
0.0
 11
32.769397
 21
-22.882234
 31
0.0
  0
ARC
  5
678
330
27
100
AcDbEntity
  8
2
100
AcDbCircle
 10
34.769397
 20
-21.755293
 30
0.0
 40
2.0
100
AcDbArc
 50
116.623552
 51
180.0
  0
ARC
  5
679
330
27
100
AcDbEntity
  8
2
100
AcDbCircle
 10
34.769397
 20
-22.882234
 30
0.0
 40
2.0
100
AcDbArc
 50
180.0
 51
290.565661
  0
LINE
  5
67A
330
27
100
AcDbEntity
  8
2
100
AcDbLine
 10
-521.831315
 20
-75.07734599999999
 30
0.0
 11
-517.588674
 21
-70.83470600000001
 31
0.0
  0
LINE
  5
67B
330
27
100
AcDbEntity
  8
2
100
AcDbLine
 10
-517.588674
 20
-75.07734599999999
 30
0.0
 11
-521.831315
 21
-70.83470600000001
 31
0.0
  0
LINE
  5
67C
330
27
100
AcDbEntity
  8
2
100
AcDbLine
 10
-386.831315
 20
-23.147346
 30
0.0
 11
-382.5886740000001
 21
-18.904706
 31
0.0
  0
LINE
  5
67D
330
27
100
AcDbEntity
  8
2
100
AcDbLine
 10
-382.5886740000001
 20
-23.147346
 30
0.0
 11
-386.831315
 21
-18.904706
 31
0.0
  0
LINE
  5
67E
330
27
100
AcDbEntity
  8
2
100
AcDbLine
 10
-386.831315
 20
-120.077346
 30
0.0
 11
-382.5886740000001
 21
-115.834706
 31
0.0
  0
LINE
  5
67F
330
27
100
AcDbEntity
  8
2
100
AcDbLine
 10
-382.5886740000001
 20
-120.077346
 30
0.0
 11
-386.831315
 21
-115.834706
 31
0.0
  0
LINE
  5
680
330
27
100
AcDbEntity
  8
2
100
AcDbLine
 10
-259.831315
 20
-19.077346
 30
0.0
 11
-255.588674
 21
-14.834706
 31
0.0
  0
LINE
  5
681
330
27
100
AcDbEntity
  8
2
100
AcDbLine
 10
-255.588674
 20
-19.077346
 30
0.0
 11
-259.831315
 21
-14.834706
 31
0.0
  0
LINE
  5
682
330
27
100
AcDbEntity
  8
2
100
AcDbLine
 10
-256.831315
 20
-117.077346
 30
0.0
 11
-252.588674
 21
-112.834706
 31
0.0
  0
LINE
  5
683
330
27
100
AcDbEntity
  8
2
100
AcDbLine
 10
-252.588674
 20
-117.077346
 30
0.0
 11
-256.831315
 21
-112.834706
 31
0.0
  0
LINE
  5
684
330
27
100
AcDbEntity
  8
2
100
AcDbLine
 10
84.824128
 20
-45.077346
 30
0.0
 11
89.06676899999999
 21
-40.834706
 31
0.0
  0
LINE
  5
685
330
27
100
AcDbEntity
  8
2
100
AcDbLine
 10
89.06676899999999
 20
-45.077346
 30
0.0
 11
84.824128
 21
-40.834706
 31
0.0
  0
LINE
  5
686
330
27
100
AcDbEntity
  8
2
100
AcDbLine
 10
-282.831315
 20
391.022654
 30
0.0
 11
-278.588674
 21
395.265294
 31
0.0
  0
LINE
  5
687
330
27
100
AcDbEntity
  8
2
100
AcDbLine
 10
-278.588674
 20
391.022654
 30
0.0
 11
-282.831315
 21
395.265294
 31
0.0
  0
LINE
  5
688
330
27
100
AcDbEntity
  8
2
100
AcDbLine
 10
-335.29349
 20
372.660478
 30
0.0
 11
-331.09349
 21
372.660478
 31
0.0
  0
LINE
  5
689
330
27
100
AcDbEntity
  8
2
100
AcDbLine
 10
-333.19349
 20
370.560478
 30
0.0
 11
-333.19349
 21
374.760478
 31
0.0
  0
LINE
  5
68A
330
27
100
AcDbEntity
  8
2
100
AcDbLine
 10
-388.326499
 20
372.660478
 30
0.0
 11
-384.126499
 21
372.660478
 31
0.0
  0
LINE
  5
68B
330
27
100
AcDbEntity
  8
2
100
AcDbLine
 10
-386.226499
 20
370.560478
 30
0.0
 11
-386.226499
 21
374.760478
 31
0.0
  0
LINE
  5
68C
330
27
100
AcDbEntity
  8
2
100
AcDbLine
 10
-335.29349
 20
319.62747
 30
0.0
 11
-331.09349
 21
319.62747
 31
0.0
  0
LINE
  5
68D
330
27
100
AcDbEntity
  8
2
100
AcDbLine
 10
-333.19349
 20
317.52747
 30
0.0
 11
-333.19349
 21
321.72747
 31
0.0
  0
LINE
  5
68E
330
27
100
AcDbEntity
  8
2
100
AcDbLine
 10
-388.326499
 20
319.62747
 30
0.0
 11
-384.126499
 21
319.62747
 31
0.0
  0
LINE
  5
68F
330
27
100
AcDbEntity
  8
2
100
AcDbLine
 10
-386.226499
 20
317.52747
 30
0.0
 11
-386.226499
 21
321.72747
 31
0.0
  0
LINE
  5
690
330
27
100
AcDbEntity
  8
2
100
AcDbLine
 10
-282.831315
 20
303.022654
 30
0.0
 11
-278.588674
 21
307.265294
 31
0.0
  0
LINE
  5
691
330
27
100
AcDbEntity
  8
2
100
AcDbLine
 10
-278.588674
 20
303.022654
 30
0.0
 11
-282.831315
 21
307.265294
 31
0.0
  0
LINE
  5
692
330
27
100
AcDbEntity
  8
2
100
AcDbLine
 10
-428.831315
 20
391.022654
 30
0.0
 11
-424.588674
 21
395.265294
 31
0.0
  0
LINE
  5
693
330
27
100
AcDbEntity
  8
2
100
AcDbLine
 10
-424.588674
 20
391.022654
 30
0.0
 11
-428.831315
 21
395.265294
 31
0.0
  0
LINE
  5
694
330
27
100
AcDbEntity
  8
2
100
AcDbLine
 10
-428.831315
 20
303.022654
 30
0.0
 11
-424.588674
 21
307.265294
 31
0.0
  0
LINE
  5
695
330
27
100
AcDbEntity
  8
2
100
AcDbLine
 10
-424.588674
 20
303.022654
 30
0.0
 11
-428.831315
 21
307.265294
 31
0.0
  0
LINE
  5
696
330
27
100
AcDbEntity
  8
2
100
AcDbLine
 10
84.824128
 20
-119.077346
 30
0.0
 11
89.06676899999999
 21
-114.834706
 31
0.0
  0
LINE
  5
697
330
27
100
AcDbEntity
  8
2
100
AcDbLine
 10
89.06676899999999
 20
-119.077346
 30
0.0
 11
84.824128
 21
-114.834706
 31
0.0
  0
LINE
  5
698
330
27
100
AcDbEntity
  8
2
100
AcDbLine
 10
182.824128
 20
-45.077346
 30
0.0
 11
187.066769
 21
-40.834706
 31
0.0
  0
LINE
  5
699
330
27
100
AcDbEntity
  8
2
100
AcDbLine
 10
187.066769
 20
-45.077346
 30
0.0
 11
182.824128
 21
-40.834706
 31
0.0
  0
LINE
  5
69A
330
27
100
AcDbEntity
  8
2
100
AcDbLine
 10
182.824128
 20
-119.077346
 30
0.0
 11
187.066769
 21
-114.834706
 31
0.0
  0
LINE
  5
69B
330
27
100
AcDbEntity
  8
2
100
AcDbLine
 10
187.066769
 20
-119.077346
 30
0.0
 11
182.824128
 21
-114.834706
 31
0.0
  0
TEXT
  5
69C
330
27
100
AcDbEntity
  8
2
100
AcDbText
 10
-354.290509
 20
323.1303
 30
0.0
 40
7.599999999999999
  1
Ｓ
 50
22.49999606475114
 41
1.000000050296608
 72
     5
 11
-348.673321
 21
325.457015
 31
0.0
100
AcDbText
  0
TEXT
  5
69D
330
27
100
AcDbEntity
  8
2
100
AcDbText
 10
-365.12948
 20
369.157648
 30
0.0
 40
7.599999999999999
  1
Ｓ
 50
202.5000083773406
 41
0.9999999612841003
 72
     5
 11
-370.746667
 21
366.830932
 31
0.0
100
AcDbText
  0
TEXT
  5
69E
330
27
100
AcDbEntity
  8
2
100
AcDbText
 10
-353.465061
 20
54.451391
 30
0.0
 40
7.599999999999999
  1
Ｓ
 50
31.64100225851586
 41
0.9999998893054781
 72
     5
 11
-348.288843
 21
57.64093
 31
0.0
100
AcDbText
  0
TEXT
  5
69F
330
27
100
AcDbEntity
  8
2
100
AcDbText
 10
-278.989575
 20
-68.97381999999999
 30
0.0
 40
9.0
  1
Ｓ
 50
253.0000015199621
 41
0.9999999566069826
 72
     5
 11
-281.094651
 21
-75.859214
 31
0.0
100
AcDbText
  0
LINE
  5
6A0
330
27
100
AcDbEntity
  8
2
100
AcDbLine
 10
-402.209994
 20
54.043974
 30
0.0
 11
-317.209994
 21
54.043974
 31
0.0
  0
LINE
  5
6A1
330
27
100
AcDbEntity
  8
2
100
AcDbLine
 10
-317.209994
 20
55.243974
 30
0.0
 11
-317.209994
 21
52.043974
 31
0.0
  0
LINE
  5
6A2
330
27
100
AcDbEntity
  8
2
100
AcDbLine
 10
-402.209994
 20
55.243974
 30
0.0
 11
-402.209994
 21
52.043974
 31
0.0
  0
LINE
  5
6A3
330
27
100
AcDbEntity
  8
2
100
AcDbLine
 10
174.864246
 20
49.043974
 30
0.0
 11
91.02665100000001
 21
49.043974
 31
0.0
  0
LINE
  5
6A4
330
27
100
AcDbEntity
  8
2
100
AcDbLine
 10
87.44544799999999
 20
55.243974
 30
0.0
 11
87.44544799999999
 21
48.592355
 31
0.0
  0
LINE
  5
6A5
330
27
100
AcDbEntity
  8
2
100
AcDbLine
 10
172.445448
 20
55.243974
 30
0.0
 11
172.445448
 21
52.022834
 31
0.0
  0
LINE
  5
6A6
330
27
100
AcDbEntity
  8
2
100
AcDbLine
 10
87.44544799999999
 20
54.043974
 30
0.0
 11
172.445448
 21
54.043974
 31
0.0
  0
LINE
  5
6A7
330
27
100
AcDbEntity
  8
2
100
AcDbLine
 10
-287.372853
 20
49.043974
 30
0.0
 11
-409.648072
 21
49.043974
 31
0.0
  0
LINE
  5
6A8
330
27
100
AcDbEntity
  8
2
100
AcDbLine
 10
-286.709994
 20
46.04397399999999
 30
0.0
 11
-286.709994
 21
15.043974
 31
0.0
  0
LINE
  5
6A9
330
27
100
AcDbEntity
  8
2
100
AcDbLine
 10
-420.709994
 20
42.93247199999999
 30
0.0
 11
-420.709994
 21
15.043974
 31
0.0
  0
LINE
  5
6AA
330
27
100
AcDbEntity
  8
2
100
AcDbLine
 10
-432.189936
 20
14.043974
 30
0.0
 11
-421.709994
 21
14.043974
 31
0.0
  0
LINE
  5
6AB
330
27
100
AcDbEntity
  8
2
100
AcDbLine
 10
-285.709994
 20
14.043974
 30
0.0
 11
-276.063769
 21
14.043974
 31
0.0
  0
ARC
  5
6AC
330
27
100
AcDbEntity
  8
2
100
AcDbCircle
 10
-289.709994
 20
46.04397399999999
 30
0.0
 40
3.0
100
AcDbArc
 50
0.0
 51
90.0
  0
ARC
  5
6AD
330
27
100
AcDbEntity
  8
2
100
AcDbCircle
 10
-314.209994
 20
52.043974
 30
0.0
 40
3.0
100
AcDbArc
 50
180.0
 51
270.0
  0
ARC
  5
6AE
330
27
100
AcDbEntity
  8
2
100
AcDbCircle
 10
-405.2099939999999
 20
52.043974
 30
0.0
 40
3.0
100
AcDbArc
 50
270.0
 51
360.0
  0
LINE
  5
6AF
330
27
100
AcDbEntity
  8
2
100
AcDbLine
 10
87.44544799999999
 20
55.243974
 30
0.0
 11
172.445448
 21
55.243974
 31
0.0
  0
LINE
  5
6B0
330
27
100
AcDbEntity
  8
2
100
AcDbLine
 10
-317.209994
 20
55.243974
 30
0.0
 11
-402.209994
 21
55.243974
 31
0.0
  0
LINE
  5
6B1
330
27
100
AcDbEntity
  8
2
100
AcDbLine
 10
170.945448
 20
46.04397399999999
 30
0.0
 11
170.945448
 21
15.043974
 31
0.0
  0
LINE
  5
6B2
330
27
100
AcDbEntity
  8
2
100
AcDbLine
 10
94.94544799999999
 20
46.04397399999999
 30
0.0
 11
94.94544799999999
 21
15.043974
 31
0.0
  0
LINE
  5
6B3
330
27
100
AcDbEntity
  8
2
100
AcDbLine
 10
84.29922299999999
 20
14.043974
 30
0.0
 11
93.945448
 21
14.043974
 31
0.0
  0
LINE
  5
6B4
330
27
100
AcDbEntity
  8
2
100
AcDbLine
 10
171.945448
 20
14.043974
 30
0.0
 11
181.591674
 21
14.043974
 31
0.0
  0
ARC
  5
6B5
330
27
100
AcDbEntity
  8
2
100
AcDbCircle
 10
167.945448
 20
46.04397399999999
 30
0.0
 40
3.0
100
AcDbArc
 50
0.0
 51
90.0
  0
ARC
  5
6B6
330
27
100
AcDbEntity
  8
2
100
AcDbCircle
 10
97.945448
 20
46.04397399999999
 30
0.0
 40
3.0
100
AcDbArc
 50
90.0
 51
180.0
  0
LINE
  5
6B7
330
27
100
AcDbEntity
  8
2
  6
CENTER
 62
     2
100
AcDbLine
 10
-426.709994
 20
23.171422
 30
0.0
 11
-426.709994
 21
6.255411
 31
0.0
  0
LINE
  5
6B8
330
27
100
AcDbEntity
  8
2
  6
CENTER
 62
     2
100
AcDbLine
 10
-280.709994
 20
23.171422
 30
0.0
 11
-280.709994
 21
6.255411
 31
0.0
  0
LINE
  5
6B9
330
27
100
AcDbEntity
  8
2
  6
CENTER
 62
     2
100
AcDbLine
 10
176.945448
 20
23.171422
 30
0.0
 11
176.945448
 21
6.696579999999999
 31
0.0
  0
LINE
  5
6BA
330
27
100
AcDbEntity
  8
2
  6
CENTER
 62
     2
100
AcDbLine
 10
88.945448
 20
23.171422
 30
0.0
 11
88.945448
 21
6.696579999999999
 31
0.0
  0
LINE
  5
6BB
330
27
100
AcDbEntity
  8
2
100
AcDbLine
 10
-431.3099939999999
 20
15.343974
 30
0.0
 11
-431.3099939999999
 21
14.043974
 31
0.0
  0
LINE
  5
6BC
330
27
100
AcDbEntity
  8
2
100
AcDbLine
 10
-422.109994
 20
15.343974
 30
0.0
 11
-422.109994
 21
14.043974
 31
0.0
  0
LINE
  5
6BD
330
27
100
AcDbEntity
  8
2
100
AcDbLine
 10
-431.3099939999999
 20
15.343974
 30
0.0
 11
-422.109994
 21
15.343974
 31
0.0
  0
LINE
  5
6BE
330
27
100
AcDbEntity
  8
2
100
AcDbLine
 10
-431.209994
 20
16.631466
 30
0.0
 11
-431.209994
 21
15.343974
 31
0.0
  0
LINE
  5
6BF
330
27
100
AcDbEntity
  8
2
100
AcDbLine
 10
-422.209994
 20
16.631466
 30
0.0
 11
-422.209994
 21
15.343974
 31
0.0
  0
ARC
  5
6C0
330
27
100
AcDbEntity
  8
2
100
AcDbCircle
 10
-426.709994
 20
6.643974
 30
0.0
 40
12.0
100
AcDbArc
 50
73.80864800000001
 51
106.191352
  0
ARC
  5
6C1
330
27
100
AcDbEntity
  8
2
100
AcDbCircle
 10
-429.609994
 20
16.631466
 30
0.0
 40
1.6
100
AcDbArc
 50
106.191352
 51
180.0
  0
ARC
  5
6C2
330
27
100
AcDbEntity
  8
2
100
AcDbCircle
 10
-423.809994
 20
16.631466
 30
0.0
 40
1.6
100
AcDbArc
 50
0.0
 51
73.80864800000001
  0
LINE
  5
6C3
330
27
100
AcDbEntity
  8
2
100
AcDbLine
 10
-285.309994
 20
15.343974
 30
0.0
 11
-285.309994
 21
14.043974
 31
0.0
  0
LINE
  5
6C4
330
27
100
AcDbEntity
  8
2
100
AcDbLine
 10
-276.109994
 20
15.343974
 30
0.0
 11
-276.109994
 21
14.043974
 31
0.0
  0
LINE
  5
6C5
330
27
100
AcDbEntity
  8
2
100
AcDbLine
 10
-285.309994
 20
15.343974
 30
0.0
 11
-276.109994
 21
15.343974
 31
0.0
  0
LINE
  5
6C6
330
27
100
AcDbEntity
  8
2
100
AcDbLine
 10
-285.209994
 20
16.631466
 30
0.0
 11
-285.209994
 21
15.343974
 31
0.0
  0
LINE
  5
6C7
330
27
100
AcDbEntity
  8
2
100
AcDbLine
 10
-276.209994
 20
16.631466
 30
0.0
 11
-276.209994
 21
15.343974
 31
0.0
  0
ARC
  5
6C8
330
27
100
AcDbEntity
  8
2
100
AcDbCircle
 10
-280.709994
 20
6.643974
 30
0.0
 40
12.0
100
AcDbArc
 50
73.80864800000001
 51
106.191352
  0
ARC
  5
6C9
330
27
100
AcDbEntity
  8
2
100
AcDbCircle
 10
-283.609994
 20
16.631466
 30
0.0
 40
1.6
100
AcDbArc
 50
106.191352
 51
180.0
  0
ARC
  5
6CA
330
27
100
AcDbEntity
  8
2
100
AcDbCircle
 10
-277.809994
 20
16.631466
 30
0.0
 40
1.6
100
AcDbArc
 50
0.0
 51
73.80864800000001
  0
LINE
  5
6CB
330
27
100
AcDbEntity
  8
2
100
AcDbLine
 10
84.34544800000001
 20
15.343974
 30
0.0
 11
84.34544800000001
 21
14.043974
 31
0.0
  0
LINE
  5
6CC
330
27
100
AcDbEntity
  8
2
100
AcDbLine
 10
93.54544799999999
 20
15.343974
 30
0.0
 11
93.54544799999999
 21
14.043974
 31
0.0
  0
LINE
  5
6CD
330
27
100
AcDbEntity
  8
2
100
AcDbLine
 10
84.34544800000001
 20
15.343974
 30
0.0
 11
93.54544799999999
 21
15.343974
 31
0.0
  0
LINE
  5
6CE
330
27
100
AcDbEntity
  8
2
100
AcDbLine
 10
84.445448
 20
16.631466
 30
0.0
 11
84.445448
 21
15.343974
 31
0.0
  0
LINE
  5
6CF
330
27
100
AcDbEntity
  8
2
100
AcDbLine
 10
93.44544799999999
 20
16.631466
 30
0.0
 11
93.44544799999999
 21
15.343974
 31
0.0
  0
ARC
  5
6D0
330
27
100
AcDbEntity
  8
2
100
AcDbCircle
 10
88.945448
 20
6.643974
 30
0.0
 40
12.0
100
AcDbArc
 50
73.80864800000001
 51
106.191352
  0
ARC
  5
6D1
330
27
100
AcDbEntity
  8
2
100
AcDbCircle
 10
86.04544799999999
 20
16.631466
 30
0.0
 40
1.6
100
AcDbArc
 50
106.191352
 51
180.0
  0
ARC
  5
6D2
330
27
100
AcDbEntity
  8
2
100
AcDbCircle
 10
91.84544800000001
 20
16.631466
 30
0.0
 40
1.6
100
AcDbArc
 50
0.0
 51
73.80864800000001
  0
LINE
  5
6D3
330
27
100
AcDbEntity
  8
2
100
AcDbLine
 10
172.345448
 20
15.343974
 30
0.0
 11
172.345448
 21
14.043974
 31
0.0
  0
LINE
  5
6D4
330
27
100
AcDbEntity
  8
2
100
AcDbLine
 10
181.545448
 20
15.343974
 30
0.0
 11
181.545448
 21
14.043974
 31
0.0
  0
LINE
  5
6D5
330
27
100
AcDbEntity
  8
2
100
AcDbLine
 10
172.345448
 20
15.343974
 30
0.0
 11
181.545448
 21
15.343974
 31
0.0
  0
LINE
  5
6D6
330
27
100
AcDbEntity
  8
2
100
AcDbLine
 10
172.445448
 20
16.631466
 30
0.0
 11
172.445448
 21
15.343974
 31
0.0
  0
LINE
  5
6D7
330
27
100
AcDbEntity
  8
2
100
AcDbLine
 10
181.445448
 20
16.631466
 30
0.0
 11
181.445448
 21
15.343974
 31
0.0
  0
ARC
  5
6D8
330
27
100
AcDbEntity
  8
2
100
AcDbCircle
 10
176.945448
 20
6.643974
 30
0.0
 40
12.0
100
AcDbArc
 50
73.80864800000001
 51
106.191352
  0
ARC
  5
6D9
330
27
100
AcDbEntity
  8
2
100
AcDbCircle
 10
174.045448
 20
16.631466
 30
0.0
 40
1.6
100
AcDbArc
 50
106.191352
 51
180.0
  0
ARC
  5
6DA
330
27
100
AcDbEntity
  8
2
100
AcDbCircle
 10
179.845448
 20
16.631466
 30
0.0
 40
1.6
100
AcDbArc
 50
0.0
 51
73.80864800000001
  0
LINE
  5
6DB
330
27
100
AcDbEntity
  8
2
100
AcDbLine
 10
-434.709994
 20
6.043973999999999
 30
0.0
 11
-434.709994
 21
9.043974
 31
0.0
  0
LINE
  5
6DC
330
27
100
AcDbEntity
  8
2
100
AcDbLine
 10
-434.709994
 20
9.043974
 30
0.0
 11
-423.743461
 21
39.174276
 31
0.0
  0
ARC
  5
6DD
330
27
100
AcDbEntity
  8
2
100
AcDbCircle
 10
-409.648072
 20
34.043974
 30
0.0
 40
15.0
100
AcDbArc
 50
90.0
 51
160.0
  0
ARC
  5
6DE
330
27
100
AcDbEntity
  8
2
100
AcDbCircle
 10
-285.709994
 20
15.043974
 30
0.0
 40
1.0
100
AcDbArc
 50
180.0
 51
270.0
  0
ARC
  5
6DF
330
27
100
AcDbEntity
  8
2
100
AcDbCircle
 10
-432.189936
 20
13.043974
 30
0.0
 40
1.0
100
AcDbArc
 50
90.0
 51
160.0
  0
ARC
  5
6E0
330
27
100
AcDbEntity
  8
2
100
AcDbCircle
 10
-421.709994
 20
15.043974
 30
0.0
 40
1.0
100
AcDbArc
 50
270.0
 51
360.0
  0
ARC
  5
6E1
330
27
100
AcDbEntity
  8
2
100
AcDbCircle
 10
-417.7099939999999
 20
42.93247199999999
 30
0.0
 40
3.0
100
AcDbArc
 50
132.208221
 51
180.0
  0
LINE
  5
6E2
330
27
100
AcDbEntity
  8
2
100
AcDbLine
 10
-420.1511849999999
 20
304.643974
 30
0.0
 11
-420.1511849999999
 21
393.643974
 31
0.0
  0
ARC
  5
6E3
330
27
100
AcDbEntity
  8
2
100
AcDbCircle
 10
171.945448
 20
15.043974
 30
0.0
 40
1.0
100
AcDbArc
 50
180.0
 51
270.0
  0
ARC
  5
6E4
330
27
100
AcDbEntity
  8
2
100
AcDbCircle
 10
93.945448
 20
15.043974
 30
0.0
 40
1.0
100
AcDbArc
 50
270.0
 51
360.0
  0
LINE
  5
6E5
330
27
100
AcDbEntity
  8
2
100
AcDbLine
 10
-434.709994
 20
9.043974
 30
0.0
 11
-274.709994
 21
9.043974
 31
0.0
  0
LINE
  5
6E6
330
27
100
AcDbEntity
  8
2
100
AcDbLine
 10
-274.709994
 20
9.043974
 30
0.0
 11
-277.410906
 21
39.915531
 31
0.0
  0
ARC
  5
6E7
330
27
100
AcDbEntity
  8
2
100
AcDbCircle
 10
-287.372853
 20
39.043974
 30
0.0
 40
10.0
100
AcDbArc
 50
5.0
 51
90.0
  0
ARC
  5
6E8
330
27
100
AcDbEntity
  8
2
100
AcDbCircle
 10
-276.063769
 20
13.043974
 30
0.0
 40
1.0
100
AcDbArc
 50
5.0
 51
90.0
  0
LINE
  5
6E9
330
27
100
AcDbEntity
  8
2
100
AcDbLine
 10
-278.209541
 20
313.143974
 30
0.0
 11
-278.209541
 21
385.143974
 31
0.0
  0
LINE
  5
6EA
330
27
100
AcDbEntity
  8
2
100
AcDbLine
 10
182.945448
 20
9.043974
 30
0.0
 11
82.945448
 21
9.043974
 31
0.0
  0
LINE
  5
6EB
330
27
100
AcDbEntity
  8
2
100
AcDbLine
 10
182.945448
 20
9.043974
 30
0.0
 11
179.845219
 21
44.479753
 31
0.0
  0
LINE
  5
6EC
330
27
100
AcDbEntity
  8
2
100
AcDbLine
 10
82.945448
 20
9.043974
 30
0.0
 11
86.045677
 21
44.479753
 31
0.0
  0
ARC
  5
6ED
330
27
100
AcDbEntity
  8
2
100
AcDbCircle
 10
174.864246
 20
44.04397399999999
 30
0.0
 40
5.0
100
AcDbArc
 50
5.0
 51
90.0
  0
ARC
  5
6EE
330
27
100
AcDbEntity
  8
2
100
AcDbCircle
 10
91.02665100000001
 20
44.04397399999999
 30
0.0
 40
5.0
100
AcDbArc
 50
90.0
 51
175.0
  0
ARC
  5
6EF
330
27
100
AcDbEntity
  8
2
100
AcDbCircle
 10
175.445448
 20
52.022834
 30
0.0
 40
3.0
100
AcDbArc
 50
180.0
 51
265.833774
  0
ARC
  5
6F0
330
27
100
AcDbEntity
  8
2
100
AcDbCircle
 10
84.445448
 20
48.592355
 30
0.0
 40
3.0
100
AcDbArc
 50
325.350986
 51
360.0
  0
ARC
  5
6F1
330
27
100
AcDbEntity
  8
2
100
AcDbCircle
 10
181.591674
 20
13.043974
 30
0.0
 40
1.0
100
AcDbArc
 50
5.0
 51
90.0
  0
ARC
  5
6F2
330
27
100
AcDbEntity
  8
2
100
AcDbCircle
 10
84.29922299999999
 20
13.043974
 30
0.0
 40
1.0
100
AcDbArc
 50
90.0
 51
175.0
  0
LINE
  5
6F3
330
27
100
AcDbEntity
  8
2
100
AcDbLine
 10
-418.709994
 20
302.643974
 30
0.0
 11
-288.709994
 21
302.643974
 31
0.0
  0
LINE
  5
6F4
330
27
100
AcDbEntity
  8
2
100
AcDbLine
 10
-418.709994
 20
395.643974
 30
0.0
 11
-288.709994
 21
395.643974
 31
0.0
  0
DIMENSION
  5
6F5
330
27
100
AcDbEntity
  8
5
100
AcDbDimension
  2
*D0
 10
-216.709994
 20
477.957703
 30
0.0
 11
-288.209994
 21
486.5577029999999
 31
0.0
  1
143
 71
     5
 42
-1.0
100
AcDbAlignedDimension
 13
-359.709994
 23
439.8056959999999
 33
0.0
 14
-216.709994
 24
401.071191
 34
0.0
100
AcDbRotatedDimension
  0
DIMENSION
  5
6F6
330
27
100
AcDbEntity
  8
5
100
AcDbDimension
  2
*D1
 10
-359.709994
 20
477.957703
 30
0.0
 11
-443.209994
 21
486.5577029999999
 31
0.0
  1
167
 71
     5
 42
-1.0
100
AcDbAlignedDimension
 13
-526.709994
 23
269.143974
 33
0.0
 14
-359.709994
 24
439.8056959999999
 34
0.0
100
AcDbRotatedDimension
  0
DIMENSION
  5
6F7
330
27
100
AcDbEntity
  8
5
100
AcDbDimension
  2
*D2
 10
-347.709994
 20
142.155548
 30
0.0
 11
-297.709994
 21
150.755548
 31
0.0
 70
     1
  1
%%c100
 71
     5
 42
-1.0
100
AcDbAlignedDimension
 13
-247.709994
 23
200.193974
 33
0.0
 14
-347.709994
 24
200.193974
 34
0.0
  0
DIMENSION
  5
6F8
330
27
100
AcDbEntity
  8
5
100
AcDbDimension
  2
*D3
 10
-152.970993
 20
346.143974
 30
0.0
 11
-168.830993
 21
268.4839740000001
 31
0.0
  1
154
 71
     5
 42
-1.0
100
AcDbAlignedDimension
 13
-265.427427
 23
192.143974
 33
0.0
 14
-204.023377
 24
346.143974
 34
0.0
 50
90.0
100
AcDbRotatedDimension
  0
DIMENSION
  5
6F9
330
27
100
AcDbEntity
  8
5
100
AcDbDimension
  2
*D4
 10
-152.970993
 20
431.1439739999999
 30
0.0
 11
-164.210993
 21
392.6039740000001
 31
0.0
  1
85
 71
     5
 42
-1.0
100
AcDbAlignedDimension
 13
-204.023377
 23
346.143974
 33
0.0
 14
-331.386494
 24
431.1439739999999
 34
0.0
 50
90.0
100
AcDbRotatedDimension
  0
DIMENSION
  5
6FA
330
27
100
AcDbEntity
  8
5
100
AcDbDimension
  2
*D5
 10
-75.506592
 20
-147.956026
 30
0.0
 11
-91.366592
 21
-249.616026
 31
0.0
  1
202
 71
     5
 42
-1.0
100
AcDbAlignedDimension
 13
73.731898
 23
-349.9560259999999
 33
0.0
 14
78.945448
 24
-147.956026
 34
0.0
 50
90.0
100
AcDbRotatedDimension
  0
DIMENSION
  5
6FB
330
27
100
AcDbEntity
  8
5
100
AcDbDimension
  2
*D6
 10
-75.506592
 20
-349.9560259999999
 30
0.0
 11
-91.366592
 21
-417.466026
 31
0.0
  1
134
 71
     5
 42
-1.0
100
AcDbAlignedDimension
 13
124.945448
 23
-483.6560259999999
 33
0.0
 14
73.731898
 24
-349.9560259999999
 34
0.0
 50
90.0
100
AcDbRotatedDimension
  0
DIMENSION
  5
6FC
330
27
100
AcDbEntity
  8
5
100
AcDbDimension
  2
*D7
 10
157.945448
 20
-526.8621829999999
 30
0.0
 11
129.945448
 21
-518.262183
 31
0.0
  1
56
 71
     5
 42
-1.0
100
AcDbAlignedDimension
 13
101.945448
 23
-454.4560259999999
 33
0.0
 14
157.945448
 24
-454.4560259999999
 34
0.0
100
AcDbRotatedDimension
  0
DIMENSION
  5
6FD
330
27
100
AcDbEntity
  8
5
100
AcDbDimension
  2
*D8
 10
-75.506592
 20
76.043974
 30
0.0
 11
-91.366592
 21
-36.616026
 31
0.0
  1
224
 71
     5
 42
-1.0
100
AcDbAlignedDimension
 13
78.945448
 23
-147.956026
 33
0.0
 14
129.945448
 24
76.043974
 34
0.0
 50
90.0
100
AcDbRotatedDimension
  0
TEXT
  5
6FE
330
27
100
AcDbEntity
  8
5
100
AcDbText
 10
503.9531559999999
 20
-227.250519
 30
0.0
 40
20.0
  1
（コントロールユニット付）
 41
0.864864864864865
 72
     5
 11
759.9531559999999
 21
-227.250519
 31
0.0
100
AcDbText
  0
TEXT
  5
6FF
330
27
100
AcDbEntity
  8
5
100
AcDbText
 10
383.953156
 20
-199.250519
 30
0.0
 40
20.0
  1
駆動部・・・４Ｉ－２型 
 41
0.7826086956521738
 72
     5
 11
599.9531559999999
 21
-199.250519
 31
0.0
100
AcDbText
  0
LINE
  5
700
330
27
100
AcDbEntity
  8
18
100
AcDbLine
 10
486.196304
 20
-272.862473
 30
0.0
 11
686.196304
 21
-272.862473
 31
0.0
  0
LINE
  5
701
330
27
100
AcDbEntity
  8
18
100
AcDbLine
 10
486.196304
 20
-352.862473
 30
0.0
 11
686.196304
 21
-352.862473
 31
0.0
  0
LINE
  5
702
330
27
100
AcDbEntity
  8
18
100
AcDbLine
 10
486.196304
 20
-372.862473
 30
0.0
 11
686.196304
 21
-372.862473
 31
0.0
  0
LINE
  5
703
330
27
100
AcDbEntity
  8
18
100
AcDbLine
 10
486.196304
 20
-392.862473
 30
0.0
 11
686.196304
 21
-392.862473
 31
0.0
  0
LINE
  5
704
330
27
100
AcDbEntity
  8
18
100
AcDbLine
 10
486.196304
 20
-272.862473
 30
0.0
 11
486.196304
 21
-392.862473
 31
0.0
  0
LINE
  5
705
330
27
100
AcDbEntity
  8
18
100
AcDbLine
 10
586.196304
 20
-272.862473
 30
0.0
 11
586.196304
 21
-372.862473
 31
0.0
  0
LINE
  5
706
330
27
100
AcDbEntity
  8
18
100
AcDbLine
 10
686.196304
 20
-272.862473
 30
0.0
 11
686.196304
 21
-392.862473
 31
0.0
  0
LINE
  5
707
330
27
100
AcDbEntity
  8
18
  6
CENTER
 62
     2
100
AcDbLine
 10
495.771698
 20
-310.429749
 30
0.0
 11
575.780792
 21
-310.429749
 31
0.0
  0
LINE
  5
708
330
27
100
AcDbEntity
  8
18
  6
CENTER
 62
     2
100
AcDbLine
 10
534.858978
 20
-289.765686
 30
0.0
 11
534.858978
 21
-333.585892
 31
0.0
  0
LINE
  5
709
330
27
100
AcDbEntity
  8
18
100
AcDbLine
 10
502.858978
 20
-296.429749
 30
0.0
 11
562.8589779999999
 21
-296.429749
 31
0.0
  0
LINE
  5
70A
330
27
100
AcDbEntity
  8
18
100
AcDbLine
 10
502.858978
 20
-324.429749
 30
0.0
 11
562.8589779999999
 21
-324.429749
 31
0.0
  0
LINE
  5
70B
330
27
100
AcDbEntity
  8
18
100
AcDbLine
 10
502.858978
 20
-296.429749
 30
0.0
 11
502.858978
 21
-328.429749
 31
0.0
  0
LINE
  5
70C
330
27
100
AcDbEntity
  8
18
100
AcDbLine
 10
558.8589779999999
 20
-296.429749
 30
0.0
 11
558.8589779999999
 21
-324.429749
 31
0.0
  0
LINE
  5
70D
330
27
100
AcDbEntity
  8
18
100
AcDbLine
 10
502.858978
 20
-328.429749
 30
0.0
 11
556.192312
 21
-328.429749
 31
0.0
  0
LINE
  5
70E
330
27
100
AcDbEntity
  8
18
100
AcDbLine
 10
562.8589779999999
 20
-296.429749
 30
0.0
 11
562.8589779999999
 21
-324.429749
 31
0.0
  0
LINE
  5
70F
330
27
100
AcDbEntity
  8
18
100
AcDbLine
 10
556.192312
 20
-324.429749
 30
0.0
 11
556.192312
 21
-328.429749
 31
0.0
  0
LINE
  5
710
330
27
100
AcDbEntity
  8
18
100
AcDbLine
 10
520.8589779999999
 20
-298.429749
 30
0.0
 11
520.8589779999999
 21
-322.429749
 31
0.0
  0
LINE
  5
711
330
27
100
AcDbEntity
  8
18
100
AcDbLine
 10
554.8589779999999
 20
-298.429749
 30
0.0
 11
554.8589779999999
 21
-322.429749
 31
0.0
  0
LINE
  5
712
330
27
100
AcDbEntity
  8
18
100
AcDbLine
 10
520.8589779999999
 20
-298.429749
 30
0.0
 11
554.8589779999999
 21
-298.429749
 31
0.0
  0
LINE
  5
713
330
27
100
AcDbEntity
  8
18
100
AcDbLine
 10
520.8589779999999
 20
-322.429749
 30
0.0
 11
554.8589779999999
 21
-322.429749
 31
0.0
  0
CIRCLE
  5
714
330
27
100
AcDbEntity
  8
18
100
AcDbCircle
 10
534.858978
 20
-310.429749
 30
0.0
 40
4.799999999999999
  0
LINE
  5
715
330
27
100
AcDbEntity
  8
18
  6
DASHED
100
AcDbLine
 10
512.8589779999999
 20
-302.429749
 30
0.0
 11
556.8589779999999
 21
-302.429749
 31
0.0
  0
LINE
  5
716
330
27
100
AcDbEntity
  8
18
  6
DASHED
100
AcDbLine
 10
512.8589779999999
 20
-318.429749
 30
0.0
 11
556.8589779999999
 21
-318.429749
 31
0.0
  0
LINE
  5
717
330
27
100
AcDbEntity
  8
18
  6
DASHED
100
AcDbLine
 10
556.8589779999999
 20
-302.429749
 30
0.0
 11
556.8589779999999
 21
-318.429749
 31
0.0
  0
LINE
  5
718
330
27
100
AcDbEntity
  8
18
  6
DASHED
100
AcDbLine
 10
512.8589779999999
 20
-302.429749
 30
0.0
 11
512.8589779999999
 21
-318.429749
 31
0.0
  0
LINE
  5
719
330
27
100
AcDbEntity
  8
18
  6
CENTER
 62
     2
100
AcDbLine
 10
608.1639709999999
 20
-310.55838
 30
0.0
 11
664.66674
 21
-310.55838
 31
0.0
  0
LINE
  5
71A
330
27
100
AcDbEntity
  8
18
  6
CENTER
 62
     2
100
AcDbLine
 10
545.525645
 20
-326.333473
 30
0.0
 11
545.525645
 21
-343.579697
 31
0.0
  0
LINE
  5
71B
330
27
100
AcDbEntity
  8
18
100
AcDbLine
 10
658.605682
 20
-299.891475
 30
0.0
 11
658.605682
 21
-292.063713
 31
0.0
  0
LINE
  5
71C
330
27
100
AcDbEntity
  8
18
100
AcDbLine
 10
658.605682
 20
-292.063713
 30
0.0
 11
660.605682
 21
-292.063713
 31
0.0
  0
LINE
  5
71D
330
27
100
AcDbEntity
  8
18
100
AcDbLine
 10
660.605682
 20
-299.891475
 30
0.0
 11
660.605682
 21
-292.063713
 31
0.0
  0
LINE
  5
71E
330
27
100
AcDbEntity
  8
18
100
AcDbLine
 10
658.605682
 20
-307.719236
 30
0.0
 11
660.605682
 21
-307.719236
 31
0.0
  0
LINE
  5
71F
330
27
100
AcDbEntity
  8
18
  6
CENTER
 62
     2
100
AcDbLine
 10
634.605682
 20
-276.9154
 30
0.0
 11
634.605682
 21
-347.321533
 31
0.0
  0
LINE
  5
720
330
27
100
AcDbEntity
  8
18
100
AcDbLine
 10
620.605682
 20
-342.55838
 30
0.0
 11
620.605682
 21
-282.55838
 31
0.0
  0
LINE
  5
721
330
27
100
AcDbEntity
  8
18
100
AcDbLine
 10
648.6056819999999
 20
-342.55838
 30
0.0
 11
648.6056819999999
 21
-282.55838
 31
0.0
  0
LINE
  5
722
330
27
100
AcDbEntity
  8
18
100
AcDbLine
 10
620.605682
 20
-342.55838
 30
0.0
 11
652.6056819999999
 21
-342.55838
 31
0.0
  0
LINE
  5
723
330
27
100
AcDbEntity
  8
18
100
AcDbLine
 10
620.605682
 20
-286.55838
 30
0.0
 11
648.6056819999999
 21
-286.55838
 31
0.0
  0
LINE
  5
724
330
27
100
AcDbEntity
  8
18
100
AcDbLine
 10
652.6056819999999
 20
-342.55838
 30
0.0
 11
652.6056819999999
 21
-289.225047
 31
0.0
  0
LINE
  5
725
330
27
100
AcDbEntity
  8
18
100
AcDbLine
 10
620.605682
 20
-282.55838
 30
0.0
 11
648.6056819999999
 21
-282.55838
 31
0.0
  0
LINE
  5
726
330
27
100
AcDbEntity
  8
18
100
AcDbLine
 10
648.6056819999999
 20
-289.225047
 30
0.0
 11
652.6056819999999
 21
-289.225047
 31
0.0
  0
LINE
  5
727
330
27
100
AcDbEntity
  8
18
100
AcDbLine
 10
622.605682
 20
-324.55838
 30
0.0
 11
646.605682
 21
-324.55838
 31
0.0
  0
LINE
  5
728
330
27
100
AcDbEntity
  8
18
100
AcDbLine
 10
622.605682
 20
-290.55838
 30
0.0
 11
646.605682
 21
-290.55838
 31
0.0
  0
LINE
  5
729
330
27
100
AcDbEntity
  8
18
100
AcDbLine
 10
622.605682
 20
-324.55838
 30
0.0
 11
622.605682
 21
-290.55838
 31
0.0
  0
LINE
  5
72A
330
27
100
AcDbEntity
  8
18
100
AcDbLine
 10
646.605682
 20
-324.55838
 30
0.0
 11
646.605682
 21
-290.55838
 31
0.0
  0
CIRCLE
  5
72B
330
27
100
AcDbEntity
  8
18
100
AcDbCircle
 10
634.605682
 20
-310.55838
 30
0.0
 40
4.799999999999999
  0
LINE
  5
72C
330
27
100
AcDbEntity
  8
18
100
AcDbLine
 10
612.605682
 20
-302.55838
 30
0.0
 11
612.605682
 21
-318.55838
 31
0.0
  0
LINE
  5
72D
330
27
100
AcDbEntity
  8
18
  6
CENTER
 62
     2
100
AcDbLine
 10
650.509407
 20
-299.891713
 30
0.0
 11
668.918755
 21
-299.891713
 31
0.0
  0
LINE
  5
72E
330
27
100
AcDbEntity
  8
18
100
AcDbLine
 10
612.605682
 20
-302.55838
 30
0.0
 11
620.605682
 21
-302.55838
 31
0.0
  0
LINE
  5
72F
330
27
100
AcDbEntity
  8
18
100
AcDbLine
 10
652.6056819999999
 20
-318.55838
 30
0.0
 11
656.605682
 21
-318.55838
 31
0.0
  0
LINE
  5
730
330
27
100
AcDbEntity
  8
18
100
AcDbLine
 10
612.605682
 20
-318.55838
 30
0.0
 11
620.605682
 21
-318.55838
 31
0.0
  0
LINE
  5
731
330
27
100
AcDbEntity
  8
18
  6
DASHED
100
AcDbLine
 10
620.605682
 20
-318.55838
 30
0.0
 11
652.6056819999999
 21
-318.55838
 31
0.0
  0
LINE
  5
732
330
27
100
AcDbEntity
  8
18
100
AcDbLine
 10
656.605682
 20
-309.719475
 30
0.0
 11
656.605682
 21
-318.55838
 31
0.0
  0
LINE
  5
733
330
27
100
AcDbEntity
  8
18
  6
DASHED
100
AcDbLine
 10
620.605682
 20
-302.55838
 30
0.0
 11
652.6056819999999
 21
-302.55838
 31
0.0
  0
LINE
  5
734
330
27
100
AcDbEntity
  8
18
  6
DASHED
100
AcDbLine
 10
652.6056819999999
 20
-302.55838
 30
0.0
 11
656.066296
 21
-302.55838
 31
0.0
  0
LINE
  5
735
330
27
100
AcDbEntity
  8
18
  6
DASHED
100
AcDbLine
 10
656.066296
 20
-302.55838
 30
0.0
 11
656.605682
 21
-302.55838
 31
0.0
  0
LINE
  5
736
330
27
100
AcDbEntity
  8
18
100
AcDbLine
 10
652.6056819999999
 20
-293.494755
 30
0.0
 11
658.605682
 21
-296.292601
 31
0.0
  0
LINE
  5
737
330
27
100
AcDbEntity
  8
18
100
AcDbLine
 10
652.6056819999999
 20
-306.288195
 30
0.0
 11
658.605682
 21
-303.490349
 31
0.0
  0
LINE
  5
738
330
27
100
AcDbEntity
  8
18
100
AcDbLine
 10
658.605682
 20
-299.891475
 30
0.0
 11
658.605682
 21
-307.719236
 31
0.0
  0
LINE
  5
739
330
27
100
AcDbEntity
  8
18
100
AcDbLine
 10
660.605682
 20
-299.891475
 30
0.0
 11
660.605682
 21
-307.719236
 31
0.0
  0
LINE
  5
73A
330
27
100
AcDbEntity
  8
18
100
AcDbLine
 10
545.5254059999999
 20
-334.429749
 30
0.0
 11
537.6976449999999
 21
-334.429749
 31
0.0
  0
LINE
  5
73B
330
27
100
AcDbEntity
  8
18
100
AcDbLine
 10
537.6976449999999
 20
-334.429749
 30
0.0
 11
537.6976449999999
 21
-336.429749
 31
0.0
  0
LINE
  5
73C
330
27
100
AcDbEntity
  8
18
100
AcDbLine
 10
545.5254059999999
 20
-336.429749
 30
0.0
 11
537.6976449999999
 21
-336.429749
 31
0.0
  0
LINE
  5
73D
330
27
100
AcDbEntity
  8
18
100
AcDbLine
 10
553.353168
 20
-334.429749
 30
0.0
 11
553.353168
 21
-336.429749
 31
0.0
  0
LINE
  5
73E
330
27
100
AcDbEntity
  8
18
100
AcDbLine
 10
539.128686
 20
-328.429749
 30
0.0
 11
541.926532
 21
-334.429749
 31
0.0
  0
LINE
  5
73F
330
27
100
AcDbEntity
  8
18
100
AcDbLine
 10
551.9221259999999
 20
-328.429749
 30
0.0
 11
549.12428
 21
-334.429749
 31
0.0
  0
LINE
  5
740
330
27
100
AcDbEntity
  8
18
100
AcDbLine
 10
545.5254059999999
 20
-334.429749
 30
0.0
 11
553.353168
 21
-334.429749
 31
0.0
  0
LINE
  5
741
330
27
100
AcDbEntity
  8
18
100
AcDbLine
 10
545.5254059999999
 20
-336.429749
 30
0.0
 11
553.353168
 21
-336.429749
 31
0.0
  0
LINE
  5
742
330
27
100
AcDbEntity
  8
18
  6
DASHED
100
AcDbLine
 10
656.605682
 20
-302.55838
 30
0.0
 11
656.605682
 21
-304.4229640000001
 31
0.0
  0
LINE
  5
743
330
27
100
AcDbEntity
  8
18
100
AcDbLine
 10
656.605682
 20
-303.756297
 30
0.0
 11
656.605682
 21
-303.804611
 31
0.0
  0
LINE
  5
744
330
27
100
AcDbEntity
  8
18
100
AcDbLine
 10
656.605682
 20
-304.4229640000001
 30
0.0
 11
656.605682
 21
-310.260956
 31
0.0
  0
TEXT
  5
745
330
27
100
AcDbEntity
  8
DEF
100
AcDbText
 10
490.2003169999999
 20
-533.161682
 30
0.0
 40
12.0
  1
１
 41
1.500000000000003
 72
     5
 11
499.800317
 21
-533.161682
 31
0.0
100
AcDbText
  0
TEXT
  5
746
330
27
100
AcDbEntity
  8
DEF
100
AcDbText
 10
505.784058
 20
-547.782104
 30
0.0
 40
12.0
  1
４
 72
     5
 11
515.3840579999999
 21
-547.782104
 31
0.0
100
AcDbText
  0
TEXT
  5
747
330
27
100
AcDbEntity
  8
18
100
AcDbText
 10
502.16481
 20
-386.997009
 30
0.0
 40
10.0
  1
ＡＣＴＵＡＴＯＲ　ＰＯＳＩＴＩＯＮ
 41
0.8372093023255812
 72
     5
 11
670.1648099999999
 21
-386.997009
 31
0.0
100
AcDbText
  0
TEXT
  5
748
330
27
100
AcDbEntity
  8
18
100
AcDbText
 10
526.7192539999999
 20
-368.1509549999999
 30
0.0
 40
12.0
  1
Ａ
 41
0.9230769230769253
 72
     5
 11
536.319254
 21
-368.1509549999999
 31
0.0
100
AcDbText
  0
TEXT
  5
749
330
27
100
AcDbEntity
  8
18
100
AcDbText
 10
626.671463
 20
-368.471573
 30
0.0
 40
12.0
  1
Ｂ
 72
     5
 11
636.271463
 21
-368.471573
 31
0.0
100
AcDbText
  0
TEXT
  5
74A
330
27
100
AcDbEntity
  8
18
100
AcDbText
 10
491.416962
 20
-492.1410519999999
 30
0.0
 40
12.0
  1
７００Ｇ－４ＩＡＳ　１５０Ａ
 41
0.8380566801619437
 72
     5
 11
657.016962
 21
-492.1410519999999
 31
0.0
100
AcDbText
  0
TEXT
  5
74B
330
27
100
AcDbEntity
  8
18
100
AcDbText
 10
491.416962
 20
-508.1410519999999
 30
0.0
 40
12.0
  1
標準仕様　ＪＩＳ　５，１０Ｋ
 41
0.8414634146341464
 72
     5
 11
657.016962
 21
-508.1410519999999
 31
0.0
100
AcDbText
  0
TEXT
  5
74C
330
27
100
AcDbEntity
  8
18
100
AcDbText
 10
721.996399
 20
-508.416687
 30
0.0
 40
9.0
  1
′０４．　９．４
 41
0.847826086956522
 72
     5
 11
792.196399
 21
-508.416687
 31
0.0
100
AcDbText
  0
TEXT
  5
74D
330
27
100
AcDbEntity
  8
18
100
AcDbText
 10
614.4
 20
-544.0
 30
0.0
 40
20.0
  1
Ｄ３－０３５４９
 41
0.8478260869565216
 72
     5
 11
770.3999999999999
 21
-544.0
 31
0.0
100
AcDbText
  0
LINE
  5
74E
330
27
100
AcDbEntity
  8
20
 62
     3
100
AcDbLine
 10
-720.0
 20
-554.0
 30
0.0
 11
800.0
 21
-554.0
 31
0.0
  0
LINE
  5
74F
330
27
100
AcDbEntity
  8
20
 62
     3
100
AcDbLine
 10
-720.0
 20
528.0
 30
0.0
 11
800.0
 21
528.0
 31
0.0
  0
LINE
  5
750
330
27
100
AcDbEntity
  8
20
 62
     3
100
AcDbLine
 10
-720.0
 20
528.0
 30
0.0
 11
-720.0
 21
-554.0
 31
0.0
  0
LINE
  5
751
330
27
100
AcDbEntity
  8
20
 62
     3
100
AcDbLine
 10
800.0
 20
528.0
 30
0.0
 11
800.0
 21
-554.0
 31
0.0
  0
LINE
  5
752
330
27
100
AcDbEntity
  8
20
 62
     3
100
AcDbLine
 10
240.0
 20
-554.0
 30
0.0
 11
240.0
 21
-474.0
 31
0.0
  0
LINE
  5
753
330
27
100
AcDbEntity
  8
20
 62
     3
100
AcDbLine
 10
428.0
 20
-554.0
 30
0.0
 11
428.0
 21
-474.0
 31
0.0
  0
LINE
  5
754
330
27
100
AcDbEntity
  8
20
100
AcDbLine
 10
428.0
 20
-514.0
 30
0.0
 11
800.0
 21
-514.0
 31
0.0
  0
LINE
  5
755
330
27
100
AcDbEntity
  8
20
 62
     3
100
AcDbLine
 10
240.0
 20
-474.0
 30
0.0
 11
800.0
 21
-474.0
 31
0.0
  0
LINE
  5
756
330
27
100
AcDbEntity
  8
20
100
AcDbLine
 10
720.0
 20
-514.0
 30
0.0
 11
720.0
 21
-474.0
 31
0.0
  0
LINE
  5
757
330
27
100
AcDbEntity
  8
20
100
AcDbLine
 10
720.0
 20
-494.0
 30
0.0
 11
800.0
 21
-494.0
 31
0.0
  0
LINE
  5
758
330
27
100
AcDbEntity
  8
20
100
AcDbLine
 10
484.0
 20
-554.0
 30
0.0
 11
484.0
 21
-474.0
 31
0.0
  0
LINE
  5
759
330
27
100
AcDbEntity
  8
20
100
AcDbLine
 10
524.0
 20
-554.0
 30
0.0
 11
524.0
 21
-514.0
 31
0.0
  0
LINE
  5
75A
330
27
100
AcDbEntity
  8
20
100
AcDbLine
 10
604.0
 20
-554.0
 30
0.0
 11
604.0
 21
-514.0
 31
0.0
  0
LINE
  5
75B
330
27
100
AcDbEntity
  8
20
100
AcDbLine
 10
494.913658
 20
-543.0863419999999
 30
0.0
 11
511.593163
 21
-526.406837
 31
0.0
  0
TEXT
  5
75C
330
27
100
AcDbEntity
  8
20
100
AcDbText
 10
526.133316
 20
-529.9876709999999
 30
0.0
 40
7.2
  1
ＤＲＡＷＩＮＧ　ＮＯ．
 41
0.880434782608696
 72
     5
 11
603.893316
 21
-529.9876709999999
 31
0.0
100
AcDbText
  0
TEXT
  5
75D
330
27
100
AcDbEntity
  8
20
100
AcDbText
 10
534.0
 20
-546.0
 30
0.0
 40
12.0
  1
図　　　番
 41
0.8372093023255818
 72
     5
 11
591.6
 21
-546.0
 31
0.0
100
AcDbText
  0
TEXT
  5
75E
330
27
100
AcDbEntity
  8
20
100
AcDbText
 10
744.0
 20
-488.0
 30
0.0
 40
8.0
  1
ＤＡＴＥ
 41
0.8769230769230761
 72
     5
 11
774.3999999999999
 21
-488.0
 31
0.0
100
AcDbText
  0
TEXT
  5
75F
330
27
100
AcDbEntity
  8
20
100
AcDbText
 10
436.004284
 20
-531.8441159999999
 30
0.0
 40
8.0
  1
ＳＣＡＬＥ
 41
0.8674698795180717
 72
     5
 11
474.4042839999999
 21
-531.8441159999999
 31
0.0
100
AcDbText
  0
TEXT
  5
760
330
27
100
AcDbEntity
  8
20
100
AcDbText
 10
432.0
 20
-546.0
 30
0.0
 40
12.0
  1
尺　　度
 41
0.8382352941176474
 72
     5
 11
477.6
 21
-546.0
 31
0.0
100
AcDbText
  0
TEXT
  5
761
330
27
100
AcDbEntity
  8
20
100
AcDbText
 10
430.0042839999999
 20
-489.9835389999999
 30
0.0
 40
8.0
  1
ＦＩＧ．ＮＯ．
 41
0.9107142857142854
 72
     5
 11
484.4042839999999
 21
-489.9835389999999
 31
0.0
100
AcDbText
  0
TEXT
  5
762
330
27
100
AcDbEntity
  8
20
100
AcDbText
 10
432.0
 20
-506.0
 30
0.0
 40
12.0
  1
名　　称
 41
0.8382352941176474
 72
     5
 11
477.6
 21
-506.0
 31
0.0
100
AcDbText
  0
TEXT
  5
763
330
27
100
AcDbEntity
  8
20
100
AcDbText
 10
242.2621
 20
-505.881012
 30
0.0
 40
9.199999999999999
  1
ＴＯＭＯＥ　ＶＡＬＶＥ　ＣＯ．，ＬＴＤ．
 41
0.8583815028901732
 72
     5
 11
424.4221
 21
-505.881012
 31
0.0
100
AcDbText
  0
TEXT
  5
764
330
27
100
AcDbEntity
  8
20
100
AcDbText
 10
270.0
 20
-533.159241
 30
0.0
 40
16.0
  1
巴バルブ株式会社
 41
0.8357142857142855
 72
     5
 11
394.8
 21
-533.159241
 31
0.0
100
AcDbText
  0
ENDSEC
  0
SECTION
  2
OBJECTS
  0
DICTIONARY
  5
7D1
330
0
100
AcDbDictionary
281
     1
  3
ACAD_COLOR
350
808
  3
ACAD_GROUP
350
7D2
  3
ACAD_LAYOUT
350
830
  3
ACAD_MATERIAL
350
7DE
  3
ACAD_MLEADERSTYLE
350
82D
  3
ACAD_MLINESTYLE
350
7D3
  3
ACAD_PLOTSETTINGS
350
831
  3
ACAD_PLOTSTYLENAME
350
7DC
  3
ACAD_SCALELIST
350
80B
  3
ACAD_TABLESTYLE
350
809
  3
ACAD_VISUALSTYLE
350
7F7
  3
ACDB_RECOMPOSE_DATA
350
85C
  3
AcDbVariableDictionary
350
853
  3
DWGPROPS
350
85D
  0
DICTIONARY
  5
837
330
1
100
AcDbDictionary
280
     1
281
     1
  3
ACAD_LAYERFILTERS
360
83B
  3
ACLYDICTIONARY
360
83A
  0
DICTIONARY
  5
83C
330
15
100
AcDbDictionary
280
     1
281
     1
  3
ADSK_XREC_LAYER_RECONCILED
360
83D
  0
DICTIONARY
  5
83E
330
16
100
AcDbDictionary
280
     1
281
     1
  3
ADSK_XREC_LAYER_RECONCILED
360
83F
  0
DICTIONARY
  5
840
330
17
100
AcDbDictionary
280
     1
281
     1
  3
ADSK_XREC_LAYER_RECONCILED
360
841
  0
DICTIONARY
  5
842
330
18
100
AcDbDictionary
280
     1
281
     1
  3
ADSK_XREC_LAYER_RECONCILED
360
843
  0
DICTIONARY
  5
844
330
19
100
AcDbDictionary
280
     1
281
     1
  3
ADSK_XREC_LAYER_RECONCILED
360
845
  0
DICTIONARY
  5
846
330
1A
100
AcDbDictionary
280
     1
281
     1
  3
ADSK_XREC_LAYER_RECONCILED
360
847
  0
DICTIONARY
  5
848
330
835
100
AcDbDictionary
280
     1
281
     1
  3
ADSK_XREC_LAYER_RECONCILED
360
849
  0
DICTIONARY
  5
808
102
{ACAD_REACTORS
330
7D1
102
}
330
7D1
100
AcDbDictionary
281
     1
  0
DICTIONARY
  5
7D2
102
{ACAD_REACTORS
330
7D1
102
}
330
7D1
100
AcDbDictionary
281
     1
  0
DICTIONARY
  5
830
102
{ACAD_REACTORS
330
7D1
102
}
330
7D1
100
AcDbDictionary
281
     1
  3
Model
350
832
  3
レイアウト1
350
833
  0
DICTIONARY
  5
7DE
102
{ACAD_REACTORS
330
7D1
102
}
330
7D1
100
AcDbDictionary
281
     1
  3
ByBlock
350
7E7
  3
ByLayer
350
7DF
  3
Global
350
7EF
  0
DICTIONARY
  5
82D
102
{ACAD_REACTORS
330
7D1
102
}
330
7D1
100
AcDbDictionary
281
     1
  3
Standard
350
82E
  0
DICTIONARY
  5
7D3
102
{ACAD_REACTORS
330
7D1
102
}
330
7D1
100
AcDbDictionary
281
     1
  3
STANDARD
350
7D4
  0
DICTIONARY
  5
831
102
{ACAD_REACTORS
330
7D1
102
}
330
7D1
100
AcDbDictionary
281
     1
  0
ACDBDICTIONARYWDFLT
  5
7DC
102
{ACAD_REACTORS
330
7D1
102
}
330
7D1
100
AcDbDictionary
281
     1
  3
Normal
350
7DD
100
AcDbDictionaryWithDefault
340
7DD
  0
DICTIONARY
  5
80B
102
{ACAD_REACTORS
330
7D1
102
}
330
7D1
100
AcDbDictionary
281
     1
  3
A0
350
80C
  3
A1
350
80D
  3
A2
350
80E
  3
A3
350
80F
  3
A4
350
810
  3
A5
350
811
  3
A6
350
812
  3
A7
350
813
  3
A8
350
814
  3
A9
350
815
  3
B0
350
816
  3
B1
350
817
  3
B2
350
818
  3
B3
350
819
  3
B4
350
81A
  3
B5
350
81B
  3
B6
350
81C
  3
B7
350
81D
  3
B8
350
81E
  3
B9
350
81F
  3
C0
350
820
  3
C1
350
821
  3
C2
350
822
  3
C3
350
823
  3
C4
350
824
  3
C5
350
825
  3
C6
350
826
  3
C7
350
827
  3
C8
350
828
  3
C9
350
829
  3
D0
350
82A
  3
D1
350
82B
  3
D2
350
82C
  0
DICTIONARY
  5
809
102
{ACAD_REACTORS
330
7D1
102
}
330
7D1
100
AcDbDictionary
281
     1
  3
Standard
350
80A
  0
DICTIONARY
  5
7F7
102
{ACAD_REACTORS
330
7D1
102
}
330
7D1
100
AcDbDictionary
281
     1
  3
2dWireframe
350
7FD
  3
3D Hidden
350
7FF
  3
3dWireframe
350
7FE
  3
Basic
350
7FC
  3
Brighten
350
803
  3
ColorChange
350
807
  3
Conceptual
350
800
  3
Dim
350
802
  3
Facepattern
350
806
  3
Flat
350
7F8
  3
FlatWithEdges
350
7F9
  3
Gouraud
350
7FA
  3
GouraudWithEdges
350
7FB
  3
Linepattern
350
805
  3
Realistic
350
801
  3
Thicken
350
804
  0
XRECORD
  5
85C
102
{ACAD_REACTORS
330
7D1
102
}
330
7D1
100
AcDbXrecord
280
     1
 90
        1
330
80A
  0
DICTIONARY
  5
853
102
{ACAD_REACTORS
330
7D1
102
}
330
7D1
100
AcDbDictionary
281
     1
  3
CANNOSCALE
350
856
  3
CMLEADERSTYLE
350
855
  3
CTABLESTYLE
350
854
  3
DIMASSOC
350
859
  3
INDEXCTL
350
858
  3
SORTENTS
350
857
  0
XRECORD
  5
85D
102
{ACAD_REACTORS
330
7D1
102
}
330
7D1
100
AcDbXrecord
280
     1
  1
DWGPROPS COOKIE
  2

  3

  4

  6

  7

  8
miyazaki-tomoko
  9

300
=
301
=
302
=
303
=
304
=
305
=
306
=
307
=
308
=
309
=
 40
0.0036216666666667
 41
2450703.0
 42
2456129.427175302
  1

 90
        0
  0
DICTIONARY
  5
83B
102
{ACAD_REACTORS
330
837
102
}
330
837
100
AcDbDictionary
281
     1
  0
DICTIONARY
  5
83A
102
{ACAD_REACTORS
330
837
102
}
330
837
100
AcDbDictionary
281
     1
1001
ACAD
1000
<All
  0
XRECORD
  5
83D
102
{ACAD_REACTORS
330
83C
102
}
330
83C
100
AcDbXrecord
280
     1
290
     1
  0
XRECORD
  5
83F
102
{ACAD_REACTORS
330
83E
102
}
330
83E
100
AcDbXrecord
280
     1
290
     1
  0
XRECORD
  5
841
102
{ACAD_REACTORS
330
840
102
}
330
840
100
AcDbXrecord
280
     1
290
     1
  0
XRECORD
  5
843
102
{ACAD_REACTORS
330
842
102
}
330
842
100
AcDbXrecord
280
     1
290
     1
  0
XRECORD
  5
845
102
{ACAD_REACTORS
330
844
102
}
330
844
100
AcDbXrecord
280
     1
290
     1
  0
XRECORD
  5
847
102
{ACAD_REACTORS
330
846
102
}
330
846
100
AcDbXrecord
280
     1
290
     1
  0
XRECORD
  5
849
102
{ACAD_REACTORS
330
848
102
}
330
848
100
AcDbXrecord
280
     1
290
     1
  0
LAYOUT
  5
832
102
{ACAD_XDICTIONARY
360
862
102
}
102
{ACAD_REACTORS
330
830
102
}
330
830
100
AcDbPlotSettings
  1

  2
none_device
  4
Letter_(8.50_x_11.00_Inches)
  6

 40
6.349999904632568
 41
6.349999904632568
 42
6.350006103515625
 43
6.350006103515625
 44
215.8999938964844
 45
279.3999938964844
 46
0.0
 47
0.0
 48
0.0
 49
0.0
140
0.0
141
0.0
142
1.0
143
287.8687807695806
 70
 11952
 72
     0
 73
     1
 74
     0
  7
monochrome.ctb
 75
     0
147
0.003473804965327
148
23491.84221623362
149
19192.29193930418
100
AcDbLayout
  1
Model
 70
     1
 71
     0
 10
0.0
 20
0.0
 11
12.0
 21
9.0
 12
0.0
 22
0.0
 32
0.0
 14
0.0
 24
0.0
 34
0.0
 15
0.0
 25
0.0
 35
0.0
146
0.0
 13
0.0
 23
0.0
 33
0.0
 16
1.0
 26
0.0
 36
0.0
 17
0.0
 27
1.0
 37
0.0
 76
     0
330
27
331
1B
1001
ACAD_PSEXT
1000
なし
1000
なし
1000
適切ではありません
1000
新しいプロッタ環境設定名を選択しない限り、レイアウトは印刷されません。
1070
     0
  0
LAYOUT
  5
833
102
{ACAD_XDICTIONARY
360
864
102
}
102
{ACAD_REACTORS
330
830
102
}
330
830
100
AcDbPlotSettings
  1

  2
EMP01
  4

  6

 40
0.0
 41
0.0
 42
0.0
 43
0.0
 44
0.0
 45
0.0
 46
0.0
 47
0.0
 48
0.0
 49
0.0
140
0.0
141
0.0
142
1.0
143
1.0
 70
   688
 72
     0
 73
     0
 74
     5
  7
monochrome.ctb
 75
    16
147
1.0
148
0.0
149
0.0
100
AcDbLayout
  1
レイアウト1
 70
     0
 71
     1
 10
0.0
 20
0.0
 11
12.0
 21
9.0
 12
0.0
 22
0.0
 32
0.0
 14
1.000000000000000E+20
 24
1.000000000000000E+20
 34
1.000000000000000E+20
 15
-1.000000000000000E+20
 25
-1.000000000000000E+20
 35
-1.000000000000000E+20
146
0.0
 13
0.0
 23
0.0
 33
0.0
 16
1.0
 26
0.0
 36
0.0
 17
0.0
 27
1.0
 37
0.0
 76
     0
330
28
  0
MATERIAL
  5
7E7
102
{ACAD_XDICTIONARY
360
7E8
102
}
102
{ACAD_REACTORS
330
7DE
102
}
330
7DE
100
AcDbMaterial
  1
ByBlock
 72
     0
 43
0.0208333333333333
 43
0.0
 43
0.0
 43
0.0
 43
0.0
 43
0.0208333333333333
 43
0.0
 43
0.0
 43
0.0
 43
0.0
 43
1.0
 43
0.0
 43
0.0
 43
0.0
 43
0.0
 43
1.0
 77
     0
 47
0.0208333333333333
 47
0.0
 47
0.0
 47
0.0
 47
0.0
 47
0.0208333333333333
 47
0.0
 47
0.0
 47
0.0
 47
0.0
 47
1.0
 47
0.0
 47
0.0
 47
0.0
 47
0.0
 47
1.0
171
     0
 49
0.0208333333333333
 49
0.0
 49
0.0
 49
0.0
 49
0.0
 49
0.0208333333333333
 49
0.0
 49
0.0
 49
0.0
 49
0.0
 49
1.0
 49
0.0
 49
0.0
 49
0.0
 49
0.0
 49
1.0
175
     0
142
0.0208333333333333
142
0.0
142
0.0
142
0.0
142
0.0
142
0.0208333333333333
142
0.0
142
0.0
142
0.0
142
0.0
142
1.0
142
0.0
142
0.0
142
0.0
142
0.0
142
1.0
179
     0
144
0.0208333333333333
144
0.0
144
0.0
144
0.0
144
0.0
144
0.0208333333333333
144
0.0
144
0.0
144
0.0
144
0.0
144
1.0
144
0.0
144
0.0
144
0.0
144
0.0
144
1.0
147
0.0208333333333333
147
0.0
147
0.0
147
0.0
147
0.0
147
0.0208333333333333
147
0.0
147
0.0
147
0.0
147
0.0
147
1.0
147
0.0
147
0.0
147
0.0
147
0.0
147
1.0
  0
MATERIAL
  5
7DF
102
{ACAD_XDICTIONARY
360
7E0
102
}
102
{ACAD_REACTORS
330
7DE
102
}
330
7DE
100
AcDbMaterial
  1
ByLayer
 72
     0
 43
0.0208333333333333
 43
0.0
 43
0.0
 43
0.0
 43
0.0
 43
0.0208333333333333
 43
0.0
 43
0.0
 43
0.0
 43
0.0
 43
1.0
 43
0.0
 43
0.0
 43
0.0
 43
0.0
 43
1.0
 77
     0
 47
0.0208333333333333
 47
0.0
 47
0.0
 47
0.0
 47
0.0
 47
0.0208333333333333
 47
0.0
 47
0.0
 47
0.0
 47
0.0
 47
1.0
 47
0.0
 47
0.0
 47
0.0
 47
0.0
 47
1.0
171
     0
 49
0.0208333333333333
 49
0.0
 49
0.0
 49
0.0
 49
0.0
 49
0.0208333333333333
 49
0.0
 49
0.0
 49
0.0
 49
0.0
 49
1.0
 49
0.0
 49
0.0
 49
0.0
 49
0.0
 49
1.0
175
     0
142
0.0208333333333333
142
0.0
142
0.0
142
0.0
142
0.0
142
0.0208333333333333
142
0.0
142
0.0
142
0.0
142
0.0
142
1.0
142
0.0
142
0.0
142
0.0
142
0.0
142
1.0
179
     0
144
0.0208333333333333
144
0.0
144
0.0
144
0.0
144
0.0
144
0.0208333333333333
144
0.0
144
0.0
144
0.0
144
0.0
144
1.0
144
0.0
144
0.0
144
0.0
144
0.0
144
1.0
147
0.0208333333333333
147
0.0
147
0.0
147
0.0
147
0.0
147
0.0208333333333333
147
0.0
147
0.0
147
0.0
147
0.0
147
1.0
147
0.0
147
0.0
147
0.0
147
0.0
147
1.0
  0
MATERIAL
  5
7EF
102
{ACAD_XDICTIONARY
360
7F0
102
}
102
{ACAD_REACTORS
330
7DE
102
}
330
7DE
100
AcDbMaterial
  1
Global
 72
     0
 43
0.0208333333333333
 43
0.0
 43
0.0
 43
0.0
 43
0.0
 43
0.0208333333333333
 43
0.0
 43
0.0
 43
0.0
 43
0.0
 43
1.0
 43
0.0
 43
0.0
 43
0.0
 43
0.0
 43
1.0
 77
     0
 47
0.0208333333333333
 47
0.0
 47
0.0
 47
0.0
 47
0.0
 47
0.0208333333333333
 47
0.0
 47
0.0
 47
0.0
 47
0.0
 47
1.0
 47
0.0
 47
0.0
 47
0.0
 47
0.0
 47
1.0
171
     0
 49
0.0208333333333333
 49
0.0
 49
0.0
 49
0.0
 49
0.0
 49
0.0208333333333333
 49
0.0
 49
0.0
 49
0.0
 49
0.0
 49
1.0
 49
0.0
 49
0.0
 49
0.0
 49
0.0
 49
1.0
175
     0
142
0.0208333333333333
142
0.0
142
0.0
142
0.0
142
0.0
142
0.0208333333333333
142
0.0
142
0.0
142
0.0
142
0.0
142
1.0
142
0.0
142
0.0
142
0.0
142
0.0
142
1.0
179
     0
144
0.0208333333333333
144
0.0
144
0.0
144
0.0
144
0.0
144
0.0208333333333333
144
0.0
144
0.0
144
0.0
144
0.0
144
1.0
144
0.0
144
0.0
144
0.0
144
0.0
144
1.0
147
0.0208333333333333
147
0.0
147
0.0
147
0.0
147
0.0
147
0.0208333333333333
147
0.0
147
0.0
147
0.0
147
0.0
147
1.0
147
0.0
147
0.0
147
0.0
147
0.0
147
1.0
  0
MLEADERSTYLE
  5
82E
102
{ACAD_REACTORS
330
82D
102
}
330
82D
100
AcDbMLeaderStyle
170
     2
171
     1
172
     0
 90
        2
 40
0.0
 41
0.0
173
     1
 91
-1056964608
340
C
 92
       -2
290
     1
 42
0.09
291
     1
 43
0.36
  3
Standard
 44
0.18
300

342
1D
174
     1
178
     6
175
     1
176
     0
 93
-1056964608
 45
0.18
292
     0
297
     0
 46
0.18
 94
-1056964608
 47
1.0
 49
1.0
140
1.0
293
     1
141
0.0
294
     1
177
     0
142
1.0
295
     0
296
     0
143
0.125
1001
ACAD_MLEADERVER
1070
     2
  0
MLINESTYLE
  5
7D4
102
{ACAD_REACTORS
330
7D3
102
}
330
7D3
100
AcDbMlineStyle
  2
STANDARD
 70
     0
  3

 62
     0
 51
90.0
 52
90.0
 71
     2
 49
0.5
 62
   256
  6
BYLAYER
 49
-0.5
 62
   256
  6
BYLAYER
  0
ACDBPLACEHOLDER
  5
7DD
102
{ACAD_REACTORS
330
7DC
102
}
330
7DC
  0
SCALE
  5
80C
102
{ACAD_REACTORS
330
80B
102
}
330
80B
100
AcDbScale
 70
     0
300
1:1
140
1.0
141
1.0
290
     1
  0
SCALE
  5
80D
102
{ACAD_REACTORS
330
80B
102
}
330
80B
100
AcDbScale
 70
     0
300
1:2
140
1.0
141
2.0
290
     0
  0
SCALE
  5
80E
102
{ACAD_REACTORS
330
80B
102
}
330
80B
100
AcDbScale
 70
     0
300
1:4
140
1.0
141
4.0
290
     0
  0
SCALE
  5
80F
102
{ACAD_REACTORS
330
80B
102
}
330
80B
100
AcDbScale
 70
     0
300
1:5
140
1.0
141
5.0
290
     0
  0
SCALE
  5
810
102
{ACAD_REACTORS
330
80B
102
}
330
80B
100
AcDbScale
 70
     0
300
1:8
140
1.0
141
8.0
290
     0
  0
SCALE
  5
811
102
{ACAD_REACTORS
330
80B
102
}
330
80B
100
AcDbScale
 70
     0
300
1:10
140
1.0
141
10.0
290
     0
  0
SCALE
  5
812
102
{ACAD_REACTORS
330
80B
102
}
330
80B
100
AcDbScale
 70
     0
300
1:16
140
1.0
141
16.0
290
     0
  0
SCALE
  5
813
102
{ACAD_REACTORS
330
80B
102
}
330
80B
100
AcDbScale
 70
     0
300
1:20
140
1.0
141
20.0
290
     0
  0
SCALE
  5
814
102
{ACAD_REACTORS
330
80B
102
}
330
80B
100
AcDbScale
 70
     0
300
1:30
140
1.0
141
30.0
290
     0
  0
SCALE
  5
815
102
{ACAD_REACTORS
330
80B
102
}
330
80B
100
AcDbScale
 70
     0
300
1:40
140
1.0
141
40.0
290
     0
  0
SCALE
  5
816
102
{ACAD_REACTORS
330
80B
102
}
330
80B
100
AcDbScale
 70
     0
300
1:50
140
1.0
141
50.0
290
     0
  0
SCALE
  5
817
102
{ACAD_REACTORS
330
80B
102
}
330
80B
100
AcDbScale
 70
     0
300
1:100
140
1.0
141
100.0
290
     0
  0
SCALE
  5
818
102
{ACAD_REACTORS
330
80B
102
}
330
80B
100
AcDbScale
 70
     0
300
2:1
140
2.0
141
1.0
290
     0
  0
SCALE
  5
819
102
{ACAD_REACTORS
330
80B
102
}
330
80B
100
AcDbScale
 70
     0
300
4:1
140
4.0
141
1.0
290
     0
  0
SCALE
  5
81A
102
{ACAD_REACTORS
330
80B
102
}
330
80B
100
AcDbScale
 70
     0
300
8:1
140
8.0
141
1.0
290
     0
  0
SCALE
  5
81B
102
{ACAD_REACTORS
330
80B
102
}
330
80B
100
AcDbScale
 70
     0
300
10:1
140
10.0
141
1.0
290
     0
  0
SCALE
  5
81C
102
{ACAD_REACTORS
330
80B
102
}
330
80B
100
AcDbScale
 70
     0
300
100:1
140
100.0
141
1.0
290
     0
  0
SCALE
  5
81D
102
{ACAD_REACTORS
330
80B
102
}
330
80B
100
AcDbScale
 70
     0
300
1/128" = 1'-0"
140
0.0078125
141
12.0
290
     0
  0
SCALE
  5
81E
102
{ACAD_REACTORS
330
80B
102
}
330
80B
100
AcDbScale
 70
     0
300
1/64" = 1'-0"
140
0.015625
141
12.0
290
     0
  0
SCALE
  5
81F
102
{ACAD_REACTORS
330
80B
102
}
330
80B
100
AcDbScale
 70
     0
300
1/32" = 1'-0"
140
0.03125
141
12.0
290
     0
  0
SCALE
  5
820
102
{ACAD_REACTORS
330
80B
102
}
330
80B
100
AcDbScale
 70
     0
300
1/16" = 1'-0"
140
0.0625
141
12.0
290
     0
  0
SCALE
  5
821
102
{ACAD_REACTORS
330
80B
102
}
330
80B
100
AcDbScale
 70
     0
300
3/32" = 1'-0"
140
0.09375
141
12.0
290
     0
  0
SCALE
  5
822
102
{ACAD_REACTORS
330
80B
102
}
330
80B
100
AcDbScale
 70
     0
300
1/8" = 1'-0"
140
0.125
141
12.0
290
     0
  0
SCALE
  5
823
102
{ACAD_REACTORS
330
80B
102
}
330
80B
100
AcDbScale
 70
     0
300
3/16" = 1'-0"
140
0.1875
141
12.0
290
     0
  0
SCALE
  5
824
102
{ACAD_REACTORS
330
80B
102
}
330
80B
100
AcDbScale
 70
     0
300
1/4" = 1'-0"
140
0.25
141
12.0
290
     0
  0
SCALE
  5
825
102
{ACAD_REACTORS
330
80B
102
}
330
80B
100
AcDbScale
 70
     0
300
3/8" = 1'-0"
140
0.375
141
12.0
290
     0
  0
SCALE
  5
826
102
{ACAD_REACTORS
330
80B
102
}
330
80B
100
AcDbScale
 70
     0
300
1/2" = 1'-0"
140
0.5
141
12.0
290
     0
  0
SCALE
  5
827
102
{ACAD_REACTORS
330
80B
102
}
330
80B
100
AcDbScale
 70
     0
300
3/4" = 1'-0"
140
0.75
141
12.0
290
     0
  0
SCALE
  5
828
102
{ACAD_REACTORS
330
80B
102
}
330
80B
100
AcDbScale
 70
     0
300
1" = 1'-0"
140
1.0
141
12.0
290
     0
  0
SCALE
  5
829
102
{ACAD_REACTORS
330
80B
102
}
330
80B
100
AcDbScale
 70
     0
300
1-1/2" = 1'-0"
140
1.5
141
12.0
290
     0
  0
SCALE
  5
82A
102
{ACAD_REACTORS
330
80B
102
}
330
80B
100
AcDbScale
 70
     0
300
3" = 1'-0"
140
3.0
141
12.0
290
     0
  0
SCALE
  5
82B
102
{ACAD_REACTORS
330
80B
102
}
330
80B
100
AcDbScale
 70
     0
300
6" = 1'-0"
140
6.0
141
12.0
290
     0
  0
SCALE
  5
82C
102
{ACAD_REACTORS
330
80B
102
}
330
80B
100
AcDbScale
 70
     0
300
1'-0" = 1'-0"
140
12.0
141
12.0
290
     0
  0
TABLESTYLE
  5
80A
102
{ACAD_XDICTIONARY
360
85A
102
}
102
{ACAD_REACTORS
330
809
102
}
330
809
100
AcDbTableStyle
  3
Standard
 70
     0
 71
     0
 40
0.06
 41
0.06
280
     0
281
     0
  7
STANDARD
140
0.18
170
     2
 62
     0
 63
     7
283
     0
274
    -2
284
     1
 64
     0
275
    -2
285
     1
 65
     0
276
    -2
286
     1
 66
     0
277
    -2
287
     1
 67
     0
278
    -2
288
     1
 68
     0
279
    -2
289
     1
 69
     0
  7
STANDARD
140
0.25
170
     5
 62
     0
 63
     7
283
     0
274
    -2
284
     1
 64
     0
275
    -2
285
     1
 65
     0
276
    -2
286
     1
 66
     0
277
    -2
287
     1
 67
     0
278
    -2
288
     1
 68
     0
279
    -2
289
     1
 69
     0
  7
STANDARD
140
0.18
170
     5
 62
     0
 63
     7
283
     0
274
    -2
284
     1
 64
     0
275
    -2
285
     1
 65
     0
276
    -2
286
     1
 66
     0
277
    -2
287
     1
 67
     0
278
    -2
288
     1
 68
     0
279
    -2
289
     1
 69
     0
  0
VISUALSTYLE
  5
7FD
102
{ACAD_REACTORS
330
7F7
102
}
330
7F7
100
AcDbVisualStyle
  2
2dWireframe
 70
     4
 71
     0
 72
     2
 73
     0
 90
        0
 40
-0.6
 41
-30.0
 62
     5
 63
     7
 74
     1
 91
        4
 64
     7
 65
   257
 75
     1
175
     1
 42
1.0
 92
        0
 66
   257
 43
1.0
 76
     1
 77
     6
 78
     2
 67
     7
 79
     5
170
     0
171
     0
290
     0
174
     0
 93
        1
 44
0.0
173
     0
291
     0
 45
0.0
1001
ACAD
1000
AcDbSavedByObjectVersion
1070
     0
  0
VISUALSTYLE
  5
7FF
102
{ACAD_REACTORS
330
7F7
102
}
330
7F7
100
AcDbVisualStyle
  2
3D Hidden
 70
     6
 71
     1
 72
     2
 73
     2
 90
        0
 40
-0.6
 41
-30.0
 62
     5
 63
     7
 74
     2
 91
        2
 64
     7
 65
   257
 75
     2
175
     1
 42
40.0
 92
        0
 66
   257
 43
1.0
 76
     1
 77
     6
 78
     2
 67
     7
 79
     3
170
     0
171
     0
290
     0
174
     0
 93
        1
 44
0.0
173
     0
291
     0
 45
0.0
1001
ACAD
1000
AcDbSavedByObjectVersion
1070
     0
  0
VISUALSTYLE
  5
7FE
102
{ACAD_REACTORS
330
7F7
102
}
330
7F7
100
AcDbVisualStyle
  2
3dWireframe
 70
     5
 71
     0
 72
     2
 73
     0
 90
        0
 40
-0.6
 41
-30.0
 62
     5
 63
     7
 74
     1
 91
        4
 64
     7
 65
   257
 75
     1
175
     1
 42
1.0
 92
        0
 66
   257
 43
1.0
 76
     1
 77
     6
 78
     2
 67
     7
 79
     5
170
     0
171
     0
290
     0
174
     0
 93
        1
 44
0.0
173
     0
291
     0
 45
0.0
1001
ACAD
1000
AcDbSavedByObjectVersion
1070
     0
  0
VISUALSTYLE
  5
7FC
102
{ACAD_REACTORS
330
7F7
102
}
330
7F7
100
AcDbVisualStyle
  2
Basic
 70
     7
 71
     1
 72
     0
 73
     1
 90
        0
 40
-0.6
 41
-30.0
 62
     5
 63
     7
 74
     0
 91
        4
 64
     7
 65
   257
 75
     1
175
     1
 42
1.0
 92
        8
 66
     7
 43
1.0
 76
     1
 77
     6
 78
     2
 67
     7
 79
     5
170
     0
171
     0
290
     0
174
     0
 93
        1
 44
0.0
173
     0
291
     1
 45
0.0
1001
ACAD
1000
AcDbSavedByObjectVersion
1070
     0
  0
VISUALSTYLE
  5
803
102
{ACAD_REACTORS
330
7F7
102
}
330
7F7
100
AcDbVisualStyle
  2
Brighten
 70
    12
 71
     2
 72
     2
 73
     0
 90
        0
 40
-0.6
 41
-30.0
 62
     5
 63
     7
 74
     1
 91
        4
 64
     7
 65
   257
 75
     1
175
     1
 42
1.0
 92
        8
 66
     7
 43
1.0
 76
     1
 77
     6
 78
     2
 67
     7
 79
     5
170
     0
171
     0
290
     0
174
     0
 93
        1
 44
50.0
173
     0
291
     1
 45
0.0
1001
ACAD
1000
AcDbSavedByObjectVersion
1070
     0
  0
VISUALSTYLE
  5
807
102
{ACAD_REACTORS
330
7F7
102
}
330
7F7
100
AcDbVisualStyle
  2
ColorChange
 70
    16
 71
     2
 72
     2
 73
     3
 90
        0
 40
-0.6
 41
-30.0
 62
     5
 63
     8
 74
     1
 91
        4
 64
     7
 65
   257
 75
     1
175
     1
 42
1.0
 92
        8
 66
     8
 43
1.0
 76
     1
 77
     6
 78
     2
 67
     7
 79
     5
170
     0
171
     0
290
     0
174
     0
 93
        1
 44
0.0
173
     0
291
     1
 45
0.0
1001
ACAD
1000
AcDbSavedByObjectVersion
1070
     0
  0
VISUALSTYLE
  5
800
102
{ACAD_REACTORS
330
7F7
102
}
330
7F7
100
AcDbVisualStyle
  2
Conceptual
 70
     9
 71
     3
 72
     2
 73
     0
 90
        0
 40
-0.6
 41
-30.0
 62
     5
 63
     7
 74
     2
 91
        2
 64
     7
 65
   257
 75
     1
175
     1
 42
40.0
 92
        8
 66
     7
 43
1.0
 76
     1
 77
     6
 78
     2
 67
     7
 79
     3
170
     0
171
     0
290
     0
174
     0
 93
        1
 44
0.0
173
     0
291
     0
 45
0.0
1001
ACAD
1000
AcDbSavedByObjectVersion
1070
     0
  0
VISUALSTYLE
  5
802
102
{ACAD_REACTORS
330
7F7
102
}
330
7F7
100
AcDbVisualStyle
  2
Dim
 70
    11
 71
     2
 72
     2
 73
     0
 90
        0
 40
-0.6
 41
-30.0
 62
     5
 63
     7
 74
     1
 91
        4
 64
     7
 65
   257
 75
     1
175
     1
 42
1.0
 92
        8
 66
     7
 43
1.0
 76
     1
 77
     6
 78
     2
 67
     7
 79
     5
170
     0
171
     0
290
     0
174
     0
 93
        1
 44
-50.0
173
     0
291
     1
 45
0.0
1001
ACAD
1000
AcDbSavedByObjectVersion
1070
     0
  0
VISUALSTYLE
  5
806
102
{ACAD_REACTORS
330
7F7
102
}
330
7F7
100
AcDbVisualStyle
  2
Facepattern
 70
    15
 71
     2
 72
     2
 73
     0
 90
        0
 40
-0.6
 41
-30.0
 62
     5
 63
     7
 74
     1
 91
        4
 64
     7
 65
   257
 75
     1
175
     1
 42
1.0
 92
        8
 66
     7
 43
1.0
 76
     1
 77
     6
 78
     2
 67
     7
 79
     5
170
     0
171
     0
290
     0
174
     0
 93
        1
 44
0.0
173
     0
291
     1
 45
0.0
1001
ACAD
1000
AcDbSavedByObjectVersion
1070
     0
  0
VISUALSTYLE
  5
7F8
102
{ACAD_REACTORS
330
7F7
102
}
330
7F7
100
AcDbVisualStyle
  2
Flat
 70
     0
 71
     2
 72
     1
 73
     1
 90
        2
 40
-0.6
 41
30.0
 62
     5
 63
     7
 74
     0
 91
        4
 64
     7
 65
   257
 75
     1
175
     1
 42
1.0
 92
        8
 66
     7
 43
1.0
 76
     1
 77
     6
 78
     2
 67
     7
 79
     5
170
     0
171
     0
290
     0
174
     0
 93
       13
 44
0.0
173
     0
291
     1
 45
0.0
1001
ACAD
1000
AcDbSavedByObjectVersion
1070
     0
  0
VISUALSTYLE
  5
7F9
102
{ACAD_REACTORS
330
7F7
102
}
330
7F7
100
AcDbVisualStyle
  2
FlatWithEdges
 70
     1
 71
     2
 72
     1
 73
     1
 90
        2
 40
-0.6
 41
30.0
 62
     5
 63
     7
 74
     1
 91
        4
 64
     7
 65
   257
 75
     1
175
     1
 42
1.0
 92
        0
 66
   257
 43
1.0
 76
     1
 77
     6
 78
     2
 67
     7
 79
     5
170
     0
171
     0
290
     0
174
     0
 93
       13
 44
0.0
173
     0
291
     1
 45
0.0
1001
ACAD
1000
AcDbSavedByObjectVersion
1070
     0
  0
VISUALSTYLE
  5
7FA
102
{ACAD_REACTORS
330
7F7
102
}
330
7F7
100
AcDbVisualStyle
  2
Gouraud
 70
     2
 71
     2
 72
     2
 73
     1
 90
        2
 40
-0.6
 41
30.0
 62
     5
 63
     7
 74
     0
 91
        4
 64
     7
 65
   257
 75
     1
175
     1
 42
1.0
 92
        0
 66
     7
 43
1.0
 76
     1
 77
     6
 78
     2
 67
     7
 79
     5
170
     0
171
     0
290
     0
174
     0
 93
       13
 44
0.0
173
     0
291
     1
 45
0.0
1001
ACAD
1000
AcDbSavedByObjectVersion
1070
     0
  0
VISUALSTYLE
  5
7FB
102
{ACAD_REACTORS
330
7F7
102
}
330
7F7
100
AcDbVisualStyle
  2
GouraudWithEdges
 70
     3
 71
     2
 72
     2
 73
     1
 90
        2
 40
-0.6
 41
30.0
 62
     5
 63
     7
 74
     1
 91
        4
 64
     7
 65
   257
 75
     1
175
     1
 42
1.0
 92
        0
 66
   257
 43
1.0
 76
     1
 77
     6
 78
     2
 67
     7
 79
     5
170
     0
171
     0
290
     0
174
     0
 93
       13
 44
0.0
173
     0
291
     1
 45
0.0
1001
ACAD
1000
AcDbSavedByObjectVersion
1070
     0
  0
VISUALSTYLE
  5
805
102
{ACAD_REACTORS
330
7F7
102
}
330
7F7
100
AcDbVisualStyle
  2
Linepattern
 70
    14
 71
     2
 72
     2
 73
     0
 90
        0
 40
-0.6
 41
-30.0
 62
     5
 63
     7
 74
     1
 91
        4
 64
     7
 65
   257
 75
     7
175
     7
 42
1.0
 92
        8
 66
     7
 43
1.0
 76
     1
 77
     6
 78
     2
 67
     7
 79
     5
170
     0
171
     0
290
     0
174
     0
 93
        1
 44
0.0
173
     0
291
     1
 45
0.0
1001
ACAD
1000
AcDbSavedByObjectVersion
1070
     0
  0
VISUALSTYLE
  5
801
102
{ACAD_REACTORS
330
7F7
102
}
330
7F7
100
AcDbVisualStyle
  2
Realistic
 70
     8
 71
     2
 72
     2
 73
     0
 90
        0
 40
-0.6
 41
-30.0
 62
     5
 63
     7
 74
     1
 91
        0
 64
     7
 65
   257
 75
     1
175
     1
 42
1.0
 92
        8
 66
     8
 43
1.0
 76
     1
 77
     6
 78
     2
 67
     7
 79
     5
170
     0
171
     0
290
     0
174
     0
 93
       13
 44
0.0
173
     0
291
     0
 45
0.0
1001
ACAD
1000
AcDbSavedByObjectVersion
1070
     0
  0
VISUALSTYLE
  5
804
102
{ACAD_REACTORS
330
7F7
102
}
330
7F7
100
AcDbVisualStyle
  2
Thicken
 70
    13
 71
     2
 72
     2
 73
     0
 90
        0
 40
-0.6
 41
-30.0
 62
     5
 63
     7
 74
     1
 91
        4
 64
     7
 65
   257
 75
     1
175
     1
 42
1.0
 92
       12
 66
     7
 43
1.0
 76
     1
 77
     6
 78
     2
 67
     7
 79
     5
170
     0
171
     0
290
     0
174
     0
 93
        1
 44
0.0
173
     0
291
     1
 45
0.0
1001
ACAD
1000
AcDbSavedByObjectVersion
1070
     0
  0
DICTIONARYVAR
  5
856
102
{ACAD_REACTORS
330
853
102
}
330
853
100
DictionaryVariables
280
     0
  1
1:1
  0
DICTIONARYVAR
  5
855
102
{ACAD_REACTORS
330
853
102
}
330
853
100
DictionaryVariables
280
     0
  1
STANDARD
  0
DICTIONARYVAR
  5
854
102
{ACAD_REACTORS
330
853
102
}
330
853
100
DictionaryVariables
280
     0
  1
STANDARD
  0
DICTIONARYVAR
  5
859
102
{ACAD_REACTORS
330
853
102
}
330
853
100
DictionaryVariables
280
     0
  1
1
  0
DICTIONARYVAR
  5
858
102
{ACAD_REACTORS
330
853
102
}
330
853
100
DictionaryVariables
280
     0
  1
0
  0
DICTIONARYVAR
  5
857
102
{ACAD_REACTORS
330
853
102
}
330
853
100
DictionaryVariables
280
     0
  1
127
  0
DICTIONARY
  5
862
330
832
100
AcDbDictionary
280
     1
281
     1
  3
ACAD_XREC_ROUNDTRIP
360
863
  0
DICTIONARY
  5
864
330
833
100
AcDbDictionary
280
     1
281
     1
  3
ACAD_XREC_ROUNDTRIP
360
865
  0
DICTIONARY
  5
7E8
330
7E7
100
AcDbDictionary
280
     1
281
     1
  3
ACAD_XREC_ROUNDTRIP
360
85F
  3
BUMPTILE
360
7EA
  3
DIFFUSETILE
360
7E9
  3
OPACITYTILE
360
7ED
  3
REFLECTIONTILE
360
7EC
  3
REFRACTIONTILE
360
7EE
  3
SPECULARTILE
360
7EB
  0
DICTIONARY
  5
7E0
330
7DF
100
AcDbDictionary
280
     1
281
     1
  3
ACAD_XREC_ROUNDTRIP
360
85E
  3
BUMPTILE
360
7E2
  3
DIFFUSETILE
360
7E1
  3
OPACITYTILE
360
7E5
  3
REFLECTIONTILE
360
7E4
  3
REFRACTIONTILE
360
7E6
  3
SPECULARTILE
360
7E3
  0
DICTIONARY
  5
7F0
330
7EF
100
AcDbDictionary
280
     1
281
     1
  3
ACAD_XREC_ROUNDTRIP
360
860
  3
BUMPTILE
360
7F2
  3
DIFFUSETILE
360
7F1
  3
OPACITYTILE
360
7F5
  3
REFLECTIONTILE
360
7F4
  3
REFRACTIONTILE
360
7F6
  3
SPECULARTILE
360
7F3
  0
DICTIONARY
  5
85A
330
80A
100
AcDbDictionary
280
     1
281
     1
  3
ACAD_ROUNDTRIP_2008_TABLESTYLE_CELLSTYLEMAP
360
85B
  3
ACAD_XREC_ROUNDTRIP
360
861
  0
XRECORD
  5
863
102
{ACAD_REACTORS
330
862
102
}
330
862
100
AcDbXrecord
280
     1
102
SHADEPLOT
 70
     0
102
SHADEPLOTRESLEVEL
 70
     2
102
SHADEPLOTCUSTOMDPI
 70
   300
  0
XRECORD
  5
865
102
{ACAD_REACTORS
330
864
102
}
330
864
100
AcDbXrecord
280
     1
102
SHADEPLOT
 70
     0
102
SHADEPLOTRESLEVEL
 70
     2
102
SHADEPLOTCUSTOMDPI
 70
   300
  0
XRECORD
  5
85F
102
{ACAD_REACTORS
330
7E8
102
}
330
7E8
100
AcDbXrecord
280
     1
102
MATERIAL
148
0.0
149
0.0
149
0.0
 93
        0
 94
      127
282
     0
 72
     0
 77
     0
171
     0
175
     0
179
     0
273
     0
  0
XRECORD
  5
7EA
102
{ACAD_REACTORS
330
7E8
102
}
330
7E8
100
AcDbXrecord
280
     1
270
     1
271
     1
  0
XRECORD
  5
7E9
102
{ACAD_REACTORS
330
7E8
102
}
330
7E8
100
AcDbXrecord
280
     1
270
     1
271
     1
  0
XRECORD
  5
7ED
102
{ACAD_REACTORS
330
7E8
102
}
330
7E8
100
AcDbXrecord
280
     1
270
     1
271
     1
  0
XRECORD
  5
7EC
102
{ACAD_REACTORS
330
7E8
102
}
330
7E8
100
AcDbXrecord
280
     1
270
     1
271
     1
  0
XRECORD
  5
7EE
102
{ACAD_REACTORS
330
7E8
102
}
330
7E8
100
AcDbXrecord
280
     1
270
     1
271
     1
  0
XRECORD
  5
7EB
102
{ACAD_REACTORS
330
7E8
102
}
330
7E8
100
AcDbXrecord
280
     1
270
     1
271
     1
  0
XRECORD
  5
85E
102
{ACAD_REACTORS
330
7E0
102
}
330
7E0
100
AcDbXrecord
280
     1
102
MATERIAL
148
0.0
149
0.0
149
0.0
 93
        0
 94
      127
282
     0
 72
     0
 77
     0
171
     0
175
     0
179
     0
273
     0
  0
XRECORD
  5
7E2
102
{ACAD_REACTORS
330
7E0
102
}
330
7E0
100
AcDbXrecord
280
     1
270
     1
271
     1
  0
XRECORD
  5
7E1
102
{ACAD_REACTORS
330
7E0
102
}
330
7E0
100
AcDbXrecord
280
     1
270
     1
271
     1
  0
XRECORD
  5
7E5
102
{ACAD_REACTORS
330
7E0
102
}
330
7E0
100
AcDbXrecord
280
     1
270
     1
271
     1
  0
XRECORD
  5
7E4
102
{ACAD_REACTORS
330
7E0
102
}
330
7E0
100
AcDbXrecord
280
     1
270
     1
271
     1
  0
XRECORD
  5
7E6
102
{ACAD_REACTORS
330
7E0
102
}
330
7E0
100
AcDbXrecord
280
     1
270
     1
271
     1
  0
XRECORD
  5
7E3
102
{ACAD_REACTORS
330
7E0
102
}
330
7E0
100
AcDbXrecord
280
     1
270
     1
271
     1
  0
XRECORD
  5
860
102
{ACAD_REACTORS
330
7F0
102
}
330
7F0
100
AcDbXrecord
280
     1
102
MATERIAL
148
0.0
149
0.0
149
0.0
 93
        0
 94
      127
282
     0
 72
     0
 77
     0
171
     0
175
     0
179
     0
273
     0
  0
XRECORD
  5
7F2
102
{ACAD_REACTORS
330
7F0
102
}
330
7F0
100
AcDbXrecord
280
     1
270
     1
271
     1
  0
XRECORD
  5
7F1
102
{ACAD_REACTORS
330
7F0
102
}
330
7F0
100
AcDbXrecord
280
     1
270
     1
271
     1
  0
XRECORD
  5
7F5
102
{ACAD_REACTORS
330
7F0
102
}
330
7F0
100
AcDbXrecord
280
     1
270
     1
271
     1
  0
XRECORD
  5
7F4
102
{ACAD_REACTORS
330
7F0
102
}
330
7F0
100
AcDbXrecord
280
     1
270
     1
271
     1
  0
XRECORD
  5
7F6
102
{ACAD_REACTORS
330
7F0
102
}
330
7F0
100
AcDbXrecord
280
     1
270
     1
271
     1
  0
XRECORD
  5
7F3
102
{ACAD_REACTORS
330
7F0
102
}
330
7F0
100
AcDbXrecord
280
     1
270
     1
271
     1
  0
CELLSTYLEMAP
  5
85B
102
{ACAD_REACTORS
330
85A
102
}
330
85A
100
AcDbCellStyleMap
 90
        3
300
CELLSTYLE
  1
TABLEFORMAT_BEGIN
 90
        5
170
     1
 91
        0
 92
    32768
 62
   257
 93
        1
300
CONTENTFORMAT
  1
CONTENTFORMAT_BEGIN
 90
        0
 91
        0
 92
      512
 93
        0
300

 40
0.0
140
1.0
 94
        5
 62
     0
340
1D
144
0.25
309
CONTENTFORMAT_END
171
     0
 94
        0
309
TABLEFORMAT_END
  1
CELLSTYLE_BEGIN
 90
        1
 91
        1
300
_TITLE
309
CELLSTYLE_END
300
CELLSTYLE
  1
TABLEFORMAT_BEGIN
 90
        5
170
     1
 91
        0
 92
        0
 62
   257
 93
        1
300
CONTENTFORMAT
  1
CONTENTFORMAT_BEGIN
 90
        0
 91
        0
 92
      512
 93
        0
300

 40
0.0
140
1.0
 94
        5
 62
     0
340
1D
144
0.18
309
CONTENTFORMAT_END
171
     0
 94
        0
309
TABLEFORMAT_END
  1
CELLSTYLE_BEGIN
 90
        2
 91
        1
300
_HEADER
309
CELLSTYLE_END
300
CELLSTYLE
  1
TABLEFORMAT_BEGIN
 90
        5
170
     1
 91
        0
 92
        0
 62
   257
 93
        1
300
CONTENTFORMAT
  1
CONTENTFORMAT_BEGIN
 90
        0
 91
        0
 92
      512
 93
        0
300

 40
0.0
140
1.0
 94
        2
 62
     0
340
1D
144
0.18
309
CONTENTFORMAT_END
171
     0
 94
        0
309
TABLEFORMAT_END
  1
CELLSTYLE_BEGIN
 90
        3
 91
        2
300
_DATA
309
CELLSTYLE_END
  0
XRECORD
  5
861
102
{ACAD_REACTORS
330
85A
102
}
330
85A
100
AcDbXrecord
280
     1
102
ACAD_ROUNDTRIP_PRE2007_TABLESTYLE
 90
      512
 91
        0
  1

 92
      512
 93
        0
  2

 94
      512
 95
        0
  3

  0
ENDSEC
  0
EOF
