  0
SECTION
  2
HEADER
  9
$ACADVER
  1
AC1012
  9
$DWGCODEPAGE
  3
ansi_932
  9
$INSBASE
 10
0.0
 20
0.0
 30
0.0
  9
$EXTMIN
 10
-420.0
 20
-297.0
 30
1.000000E+20
  9
$EXTMAX
 10
420.0
 20
297.0
 30
-1.000000E+20
  9
$LIMMIN
 10
-420.0
 20
-297.0
  9
$LIMMAX
 10
420.0
 20
297.0
  9
$ORTHOMODE
 70
     0
  9
$REGENMODE
 70
     1
  9
$FILLMODE
 70
     1
  9
$QTEXTMODE
 70
     0
  9
$MIRRTEXT
 70
     1
  9
$DRAGMODE
 70
     2
  9
$LTSCALE
 40
1.0
  9
$OSMODE
 70
     0
  9
$ATTMODE
 70
     1
  9
$TEXTSIZE
 40
0.2
  9
$TRACEWID
 40
0.05
  9
$TEXTSTYLE
  7
STANDARD
  9
$CLAYER
  8
0
  9
$CELTYPE
  6
CONTINUOUS
  9
$CECOLOR
 62
   256
  9
$CELTSCALE
 40
1.0
  9
$DELOBJ
 70
     1
  9
$DISPSILH
 70
     0
  9
$DIMSCALE
 40
2.0
  9
$DIMASZ
 40
0.18
  9
$DIMEXO
 40
0.0625
  9
$DIMDLI
 40
0.38
  9
$DIMRND
 40
0.0
  9
$DIMDLE
 40
0.0
  9
$DIMEXE
 40
0.18
  9
$DIMTP
 40
0.0
  9
$DIMTM
 40
0.0
  9
$DIMTXT
 40
0.18
  9
$DIMCEN
 40
0.09
  9
$DIMTSZ
 40
0.0
  9
$DIMTOL
 70
     0
  9
$DIMLIM
 70
     0
  9
$DIMTIH
 70
     1
  9
$DIMTOH
 70
     1
  9
$DIMSE1
 70
     0
  9
$DIMSE2
 70
     0
  9
$DIMTAD
 70
     1
  9
$DIMZIN
 70
     0
  9
$DIMBLK
  1

  9
$DIMASO
 70
     1
  9
$DIMSHO
 70
     1
  9
$DIMPOST
  1

  9
$DIMAPOST
  1

  9
$DIMALT
 70
     0
  9
$DIMALTD
 70
     2
  9
$DIMALTF
 40
25.4
  9
$DIMLFAC
 40
1.0
  9
$DIMTOFL
 70
     0
  9
$DIMTVP
 40
0.0
  9
$DIMTIX
 70
     0
  9
$DIMSOXD
 70
     0
  9
$DIMSAH
 70
     0
  9
$DIMBLK1
  1

  9
$DIMBLK2
  1

  9
$DIMSTYLE
  2
STANDARD
  9
$DIMCLRD
 70
     0
  9
$DIMCLRE
 70
     0
  9
$DIMCLRT
 70
     0
  9
$DIMTFAC
 40
1.0
  9
$DIMGAP
 40
0.09
  9
$DIMJUST
 70
     0
  9
$DIMSD1
 70
     0
  9
$DIMSD2
 70
     0
  9
$DIMTOLJ
 70
     1
  9
$DIMTZIN
 70
     0
  9
$DIMALTZ
 70
     0
  9
$DIMALTTZ
 70
     0
  9
$DIMFIT
 70
     3
  9
$DIMUPT
 70
     0
  9
$DIMUNIT
 70
     2
  9
$DIMDEC
 70
     4
  9
$DIMTDEC
 70
     4
  9
$DIMALTU
 70
     2
  9
$DIMALTTD
 70
     2
  9
$DIMTXSTY
  7
STANDARD
  9
$DIMAUNIT
 70
     0
  9
$LUNITS
 70
     2
  9
$LUPREC
 70
     4
  9
$SKETCHINC
 40
0.1
  9
$FILLETRAD
 40
0.0
  9
$AUNITS
 70
     0
  9
$AUPREC
 70
     0
  9
$MENU
  1
acad
  9
$ELEVATION
 40
0.0
  9
$PELEVATION
 40
0.0
  9
$THICKNESS
 40
0.0
  9
$LIMCHECK
 70
     0
  9
$BLIPMODE
 70
     1
  9
$CHAMFERA
 40
0.0
  9
$CHAMFERB
 40
0.0
  9
$CHAMFERC
 40
0.0
  9
$CHAMFERD
 40
0.0
  9
$SKPOLY
 70
     0
  9
$TDCREATE
 40
2450473.000000000
  9
$TDUPDATE
 40
0.000000000
  9
$TDINDWG
 40
0.0000000000
  9
$TDUSRTIMER
 40
0.0000000000
  9
$USRTIMER
 70
     1
  9
$ANGBASE
 50
0.0
  9
$ANGDIR
 70
     0
  9
$PDMODE
 70
     0
  9
$PDSIZE
 40
0.0
  9
$PLINEWID
 40
0.0
  9
$COORDS
 70
     0
  9
$SPLFRAME
 70
     0
  9
$SPLINETYPE
 70
     6
  9
$SPLINESEGS
 70
     8
  9
$ATTDIA
 70
     0
  9
$ATTREQ
 70
     1
  9
$HANDLING
 70
     1
  9
$HANDSEED
  5
D61
  9
$SURFTAB1
 70
     6
  9
$SURFTAB2
 70
     6
  9
$SURFTYPE
 70
     6
  9
$SURFU
 70
     6
  9
$SURFV
 70
     6
  9
$UCSNAME
  2

  9
$UCSORG
 10
0.0
 20
0.0
 30
0.0
  9
$UCSXDIR
 10
1.0
 20
0.0
 30
0.0
  9
$UCSYDIR
 10
0.0
 20
1.0
 30
0.0
  9
$PUCSNAME
  2

  9
$PUCSORG
 10
0.0
 20
0.0
 30
0.0
  9
$PUCSXDIR
 10
1.0
 20
0.0
 30
0.0
  9
$PUCSYDIR
 10
0.0
 20
1.0
 30
0.0
  9
$USERI1
 70
     0
  9
$USERI2
 70
     0
  9
$USERI3
 70
     0
  9
$USERI4
 70
     0
  9
$USERI5
 70
     0
  9
$USERR1
 40
0.0
  9
$USERR2
 40
0.0
  9
$USERR3
 40
0.0
  9
$USERR4
 40
0.0
  9
$USERR5
 40
0.0
  9
$WORLDVIEW
 70
     1
  9
$SHADEDGE
 70
     3
  9
$SHADEDIF
 70
    70
  9
$TILEMODE
 70
     1
  9
$MAXACTVP
 70
    16
  9
$PINSBASE
 10
0.0
 20
0.0
 30
0.0
  9
$PLIMCHECK
 70
     0
  9
$PEXTMIN
 10
1.000000E+20
 20
1.000000E+20
 30
1.000000E+20
  9
$PEXTMAX
 10
-1.000000E+20
 20
-1.000000E+20
 30
-1.000000E+20
  9
$PLIMMIN
 10
0.0
 20
0.0
  9
$PLIMMAX
 10
12.0
 20
9.0
  9
$UNITMODE
 70
     0
  9
$VISRETAIN
 70
     0
  9
$PLINEGEN
 70
     1
  9
$PSLTSCALE
 70
     0
  9
$TREEDEPTH
 70
  3020
  9
$PICKSTYLE
 70
     1
  9
$CMLSTYLE
  2
STANDARD
  9
$CMLJUST
 70
     0
  9
$CMLSCALE
 40
1.0
  9
$SAVEIMAGES
 70
     0
  0
ENDSEC
  0
SECTION
  2
CLASSES
  0
CLASS
  1
LWPOLYLINE
  2
AcDbPolyline
  3
"AutoCAD"
 90
    32768
280
     0
281
     1
  0
CLASS
  1
IMAGE
  2
AcDbRasterImage
  3
ISM
 90
    32895
280
     0
281
     1
  0
CLASS
  1
OLE2FRAME
  2
AcDbOle2Frame
  3
""
 90
    32768
280
     0
281
     1
  0
CLASS
  1
HATCH
  2
AcDbHatch
  3
"ACAD_SEDONA"
 90
    32768
280
     0
281
     1
  0
CLASS
  1
DICTIONARYVAR
  2
AcDbDictionaryVar
  3
"AutoCAD"
 90
    32768
280
     0
281
     0
  0
CLASS
  1
RASTERVARIABLES
  2
AcDbRasterVariables
  3
ISM
 90
    32768
280
     0
281
     0
  0
CLASS
  1
IMAGEDEF
  2
AcDbRasterImageDef
  3
ISM
 90
    32768
280
     0
281
     0
  0
CLASS
  1
IMAGEDEF_REACTOR
  2
AcDbRasterImageDefReactor
  3
ISM
 90
    32769
280
     0
281
     0
  0
CLASS
  1
IDBUFFER
  2
AcDbIdBuffer
  3
"Acad"
 90
    32768
280
     0
281
     0
  0
CLASS
  1
SPATIAL_FILTER
  2
AcDbSpatialFilter
  3
"Acad"
 90
    32768
280
     0
281
     0
  0
CLASS
  1
XRECORD
  2
AcDbXrecord
  3
"<Built In>"
 90
    32768
280
     0
281
     0
  0
CLASS
  1
SORTENTSTABLE
  2
AcDbSortentsTable
  3
"AutoCAD"
 90
    32768
280
     0
281
     0
  0
CLASS
  1
LAYER_INDEX
  2
AcDbLayerIndex
  3
"Acad"
 90
    32768
280
     0
281
     0
  0
CLASS
  1
SPATIAL_INDEX
  2
AcDbSpatialIndex
  3
"Acad"
 90
    32768
280
     0
281
     0
  0
CLASS
  1
OBJECT_PTR
  2
CAseDLPNTableRecord
  3
"ASE-LPNTableRecord"
 90
    32769
280
     0
281
     0
  0
CLASS
  1
LAYOUT
  2
AcDbLayout
  3
"AutoCAD 2000"
 90
    32768
280
     0
281
     0
  0
CLASS
  1
PLOTSETTINGS
  2
AcDbPlotSettings
  3
"AutoCAD 2000"
 90
    32768
280
     0
281
     0
  0
CLASS
  1
ACDBDICTIONARYWDFLT
  2
AcDbDictionaryWithDefault
  3
"AutoCAD 2000"
 90
    32768
280
     0
281
     0
  0
CLASS
  1
ACDBPLACEHOLDER
  2
AcDbPlaceHolder
  3
"AutoCAD 2000"
 90
    32768
280
     0
281
     0
  0
CLASS
  1
VBA_PROJECT
  2
AcDbVbaProject
  3
"acadvba"
 90
    32768
280
     0
281
     0
  0
CLASS
  1
WIPEOUT
  2
AcDbWipeout
  3
WipeOut|AutoCAD Express Tool|expresstools@autodesk.com
 90
    32895
280
     0
281
     1
  0
CLASS
  1
WIPEOUTVARIABLES
  2
AcDbWipeoutVariables
  3
WipeOut|AutoCAD Express Tool|expresstools@autodesk.com
 90
    32768
280
     0
281
     0
  0
CLASS
  1
RTEXT
  2
RText
  3
RText|AutoCAD Express Tool|expresstools@autodesk.com
 90
    32768
280
     0
281
     1
  0
CLASS
  1
ARCALIGNEDTEXT
  2
AcDbArcAlignedText
  3
ATEXT|AutoCAD Express Tool|expresstools@autodesk.com
 90
    32768
280
     0
281
     1
  0
ENDSEC
  0
SECTION
  2
TABLES
  0
TABLE
  2
VPORT
  5
6
100
AcDbSymbolTable
 70
     1
  0
VPORT
  5
1C
100
AcDbSymbolTableRecord
100
AcDbViewportTableRecord
  2
*ACTIVE
 70
     0
 10
0.0
 20
0.0
 11
1.0
 21
1.0
 12
0.0
 22
0.0
 13
0.0
 23
0.0
 14
1.0
 24
1.0
 15
0.0
 25
0.0
 16
0.0
 26
0.0
 36
1.0
 17
0.0
 27
0.0
 37
0.0
 40
594.0
 41
1.414141
 42
50.0
 43
0.0
 44
0.0
 50
0.0
 51
0.0
 71
     0
 72
   500
 73
     1
 74
     1
 75
     0
 76
     0
 77
     0
 78
     0
  0
ENDTAB
  0
TABLE
  2
LTYPE
  5
3
100
AcDbSymbolTable
 70
     9
  0
LTYPE
  5
C
100
AcDbSymbolTableRecord
100
AcDbLinetypeTableRecord
  2
BYBLOCK
 70
    64
  3

 72
    65
 73
     0
 40
0.0
  0
LTYPE
  5
D
100
AcDbSymbolTableRecord
100
AcDbLinetypeTableRecord
  2
BYLAYER
 70
    64
  3

 72
    65
 73
     0
 40
0.0
  0
LTYPE
  5
E
100
AcDbSymbolTableRecord
100
AcDbLinetypeTableRecord
  2
CONTINUOUS
 70
     0
  3
Solid line
 72
    65
 73
     0
 40
0.0
  0
LTYPE
  5
F
100
AcDbSymbolTableRecord
100
AcDbLinetypeTableRecord
  2
DASHED
 70
     0
  3
__ __ __ __ __ __ __ __ __ __ __ __ __ __ __
 72
    65
 73
     2
 40
2.0
 49
1.2
 74
     0
 49
-0.8
 74
     0
  0
LTYPE
  5
10
100
AcDbSymbolTableRecord
100
AcDbLinetypeTableRecord
  2
CENTER
 70
     0
  3
____ _ ____ _ ____ _ ____ _ ____ _ ____ _ ____
 72
    65
 73
     4
 40
12.0
 49
9.0
 74
     0
 49
-1.0
 74
     0
 49
1.0
 74
     0
 49
-1.0
 74
     0
  0
LTYPE
  5
11
100
AcDbSymbolTableRecord
100
AcDbLinetypeTableRecord
  2
HIDDEN
 70
     0
  3
_ _ _ _ _ _ _ _ _ _ _ _ _ _ _ _ _ _ _ _ _ _ _
 72
    65
 73
     2
 40
3.2
 49
2.4
 74
     0
 49
-0.8
 74
     0
  0
LTYPE
  5
12
100
AcDbSymbolTableRecord
100
AcDbLinetypeTableRecord
  2
PHANTOM
 70
     0
  3
_____ _ _ _____ _ _ _____ _ _ _____ _ _ _____
 72
    65
 73
     6
 40
13.5
 49
9.0
 74
     0
 49
-1.0
 74
     0
 49
1.0
 74
     0
 49
-0.5
 74
     0
 49
1.0
 74
     0
 49
-1.0
 74
     0
  0
LTYPE
  5
13
100
AcDbSymbolTableRecord
100
AcDbLinetypeTableRecord
  2
DOT
 70
     0
  3
...............................................
 72
    65
 73
     2
 40
1.0
 49
0.5
 74
     0
 49
-0.5
 74
     0
  0
LTYPE
  5
14
100
AcDbSymbolTableRecord
100
AcDbLinetypeTableRecord
  2
DASHDOT
 70
     0
  3
__ . __ . __ . __ . __ . __ . __ . __ . __ . __
 72
    65
 73
     4
 40
8.0
 49
5.0
 74
     0
 49
-1.0
 74
     0
 49
1.0
 74
     0
 49
-1.0
 74
     0
  0
ENDTAB
  0
TABLE
  2
LAYER
  5
1
100
AcDbSymbolTable
 70
     7
  0
LAYER
  5
15
100
AcDbSymbolTableRecord
100
AcDbLayerTableRecord
  2
0
 70
     0
 62
     7
  6
CONTINUOUS
  0
LAYER
  5
16
100
AcDbSymbolTableRecord
100
AcDbLayerTableRecord
  2
1
 70
     0
 62
     7
  6
CONTINUOUS
  0
LAYER
  5
17
100
AcDbSymbolTableRecord
100
AcDbLayerTableRecord
  2
2
 70
     0
 62
     7
  6
CONTINUOUS
  0
LAYER
  5
18
100
AcDbSymbolTableRecord
100
AcDbLayerTableRecord
  2
5
 70
     0
 62
     7
  6
CONTINUOUS
  0
LAYER
  5
19
100
AcDbSymbolTableRecord
100
AcDbLayerTableRecord
  2
13
 70
     0
 62
     7
  6
CONTINUOUS
  0
LAYER
  5
1A
100
AcDbSymbolTableRecord
100
AcDbLayerTableRecord
  2
18
 70
     0
 62
     7
  6
CONTINUOUS
  0
LAYER
  5
1B
100
AcDbSymbolTableRecord
100
AcDbLayerTableRecord
  2
20
 70
     0
 62
     7
  6
CONTINUOUS
  0
ENDTAB
  0
TABLE
  2
STYLE
  5
2
100
AcDbSymbolTable
 70
     1
  0
STYLE
  5
1E
100
AcDbSymbolTableRecord
100
AcDbTextStyleTableRecord
  2
STANDARD
 70
    64
 40
0.0
 41
1.0
 50
0.0
 71
     0
 42
1.0
  3
txt
  4
BIGFONT
  0
ENDTAB
  0
TABLE
  2
VIEW
  5
4
100
AcDbSymbolTable
 70
     0
  0
ENDTAB
  0
TABLE
  2
UCS
  5
5
100
AcDbSymbolTable
 70
     0
  0
ENDTAB
  0
TABLE
  2
APPID
  5
7
100
AcDbSymbolTable
 70
     1
  0
APPID
  5
1D
100
AcDbSymbolTableRecord
100
AcDbRegAppTableRecord
  2
ACAD
 70
     0
  0
ENDTAB
  0
TABLE
  2
DIMSTYLE
  5
8
100
AcDbSymbolTable
 70
     1
  0
DIMSTYLE
105
2E
100
AcDbSymbolTableRecord
100
AcDbDimStyleTableRecord
  2
STANDARD
 70
     0
  3

  4

  5

  6

  7

 40
2.0
 41
0.18
 42
0.0625
 43
0.38
 44
0.18
 45
0.0
 46
0.0
 47
0.0
 48
0.0
 71
     0
 72
     0
 73
     1
 74
     1
 75
     0
 76
     0
 77
     1
 78
     0
140
0.18
141
0.09
142
0.0
143
25.4
144
1.0
145
0.0
146
1.0
147
0.09
170
     0
171
     2
172
     0
173
     0
174
     0
175
     0
176
     0
177
     0
178
     0
270
     2
271
     4
272
     4
273
     2
274
     2
275
     0
280
     0
281
     0
282
     0
283
     1
284
     0
285
     0
286
     0
287
     3
288
     0
340
1E
  0
ENDTAB
  0
TABLE
  2
BLOCK_RECORD
  5
29
100
AcDbSymbolTable
 70
     8
  0
BLOCK_RECORD
  5
27
100
AcDbSymbolTableRecord
100
AcDbBlockTableRecord
  2
*MODEL_SPACE
  0
BLOCK_RECORD
  5
28
100
AcDbSymbolTableRecord
100
AcDbBlockTableRecord
  2
*PAPER_SPACE
  0
BLOCK_RECORD
  5
1F
100
AcDbSymbolTableRecord
100
AcDbBlockTableRecord
  2
*D0
  0
BLOCK_RECORD
  5
20
100
AcDbSymbolTableRecord
100
AcDbBlockTableRecord
  2
*D1
  0
BLOCK_RECORD
  5
21
100
AcDbSymbolTableRecord
100
AcDbBlockTableRecord
  2
*D2
  0
BLOCK_RECORD
  5
22
100
AcDbSymbolTableRecord
100
AcDbBlockTableRecord
  2
*D3
  0
BLOCK_RECORD
  5
23
100
AcDbSymbolTableRecord
100
AcDbBlockTableRecord
  2
*D4
  0
BLOCK_RECORD
  5
24
100
AcDbSymbolTableRecord
100
AcDbBlockTableRecord
  2
*D5
  0
BLOCK_RECORD
  5
25
100
AcDbSymbolTableRecord
100
AcDbBlockTableRecord
  2
*D6
  0
BLOCK_RECORD
  5
26
100
AcDbSymbolTableRecord
100
AcDbBlockTableRecord
  2
*D7
  0
ENDTAB
  0
ENDSEC
  0
SECTION
  2
BLOCKS
  0
BLOCK
  5
2A
100
AcDbEntity
  8
0
100
AcDbBlockBegin
  2
*MODEL_SPACE
 70
     0
 10
0.0
 20
0.0
 30
0.0
  3
*MODEL_SPACE
  1

  0
ENDBLK
  5
2B
100
AcDbEntity
  8
0
100
AcDbBlockEnd
  0
BLOCK
  5
2C
100
AcDbEntity
 67
     1
  8
0
100
AcDbBlockBegin
  2
*PAPER_SPACE
 70
     0
 10
0.0
 20
0.0
 30
0.0
  3
*PAPER_SPACE
  1

  0
ENDBLK
  5
2D
100
AcDbEntity
 67
     1
  8
0
100
AcDbBlockEnd
  0
BLOCK
  5
8CD
100
AcDbEntity
  8
5
100
AcDbBlockBegin
  2
*D0
 70
     1
 10
0.0
 20
0.0
 30
0.0
  3
*D0
  1

  0
TEXT
  5
8CE
100
AcDbEntity
  8
5
 62
     2
100
AcDbText
 10
-5.864883
 20
-3.375516
 30
0.0
 40
6.6
  1
24
 50
90.0
 41
1.4
 72
     5
 11
-5.864883
 21
4.016484
 31
0.0
100
AcDbText
  0
LINE
  5
8CF
100
AcDbEntity
  8
5
 62
     2
100
AcDbLine
 10
29.649359
 20
-10.755516
 30
0.0
 11
-6.864883
 21
-10.755516
 31
0.0
  0
LINE
  5
8D0
100
AcDbEntity
  8
5
 62
     2
100
AcDbLine
 10
-4.864883
 20
-10.755516
 30
0.0
 11
-3.829607
 21
-6.891813
 31
0.0
  0
LINE
  5
8D1
100
AcDbEntity
  8
5
 62
     2
100
AcDbLine
 10
-4.864883
 20
-10.755516
 30
0.0
 11
-5.90016
 21
-6.891813
 31
0.0
  0
LINE
  5
8D2
100
AcDbEntity
  8
5
 62
     2
100
AcDbLine
 10
-3.829607
 20
-6.891813
 30
0.0
 11
-5.90016
 21
-6.891813
 31
0.0
  0
LINE
  5
8D3
100
AcDbEntity
  8
5
 62
     2
100
AcDbLine
 10
-4.864883
 20
-10.755516
 30
0.0
 11
-4.864883
 21
13.244484
 31
0.0
  0
LINE
  5
8D4
100
AcDbEntity
  8
5
 62
     2
100
AcDbLine
 10
-4.864883
 20
13.244484
 30
0.0
 11
-5.90016
 21
9.380781
 31
0.0
  0
LINE
  5
8D5
100
AcDbEntity
  8
5
 62
     2
100
AcDbLine
 10
-4.864883
 20
13.244484
 30
0.0
 11
-3.829607
 21
9.380781
 31
0.0
  0
LINE
  5
8D6
100
AcDbEntity
  8
5
 62
     2
100
AcDbLine
 10
-5.90016
 20
9.380781
 30
0.0
 11
-3.829607
 21
9.380781
 31
0.0
  0
LINE
  5
8D7
100
AcDbEntity
  8
5
 62
     2
100
AcDbLine
 10
22.479799
 20
13.244484
 30
0.0
 11
-6.864883
 21
13.244484
 31
0.0
  0
ENDBLK
  5
8D8
100
AcDbEntity
  8
5
100
AcDbBlockEnd
  0
BLOCK
  5
8D9
100
AcDbEntity
  8
5
100
AcDbBlockBegin
  2
*D1
 70
     1
 10
0.0
 20
0.0
 30
0.0
  3
*D1
  1

  0
TEXT
  5
8DA
100
AcDbEntity
  8
5
 62
     2
100
AcDbText
 10
-77.092659
 20
6.314484
 30
0.0
 40
6.6
  1
%%c70
 50
90.0
 41
1.4
 72
     5
 11
-77.092659
 21
18.326484
 31
0.0
100
AcDbText
  0
LINE
  5
8DB
100
AcDbEntity
  8
5
 62
     2
100
AcDbLine
 10
-109.850641
 20
48.244484
 30
0.0
 11
-74.092659
 21
48.244484
 31
0.0
  0
LINE
  5
8DC
100
AcDbEntity
  8
5
 62
     2
100
AcDbLine
 10
-76.092659
 20
48.244484
 30
0.0
 11
-77.127935
 21
44.380781
 31
0.0
  0
LINE
  5
8DD
100
AcDbEntity
  8
5
 62
     2
100
AcDbLine
 10
-76.092659
 20
48.244484
 30
0.0
 11
-75.057383
 21
44.380781
 31
0.0
  0
LINE
  5
8DE
100
AcDbEntity
  8
5
 62
     2
100
AcDbLine
 10
-77.127935
 20
44.380781
 30
0.0
 11
-75.057383
 21
44.380781
 31
0.0
  0
LINE
  5
8DF
100
AcDbEntity
  8
5
 62
     2
100
AcDbLine
 10
-76.092659
 20
48.244484
 30
0.0
 11
-76.092659
 21
-21.755516
 31
0.0
  0
LINE
  5
8E0
100
AcDbEntity
  8
5
 62
     2
100
AcDbLine
 10
-76.092659
 20
-21.755516
 30
0.0
 11
-75.057383
 21
-17.891813
 31
0.0
  0
LINE
  5
8E1
100
AcDbEntity
  8
5
 62
     2
100
AcDbLine
 10
-76.092659
 20
-21.755516
 30
0.0
 11
-77.127935
 21
-17.891813
 31
0.0
  0
LINE
  5
8E2
100
AcDbEntity
  8
5
 62
     2
100
AcDbLine
 10
-75.057383
 20
-17.891813
 30
0.0
 11
-77.127935
 21
-17.891813
 31
0.0
  0
LINE
  5
8E3
100
AcDbEntity
  8
5
 62
     2
100
AcDbLine
 10
-109.850641
 20
-21.755516
 30
0.0
 11
-74.092659
 21
-21.755516
 31
0.0
  0
ENDBLK
  5
8E4
100
AcDbEntity
  8
5
100
AcDbBlockEnd
  0
BLOCK
  5
8E5
100
AcDbEntity
  8
5
100
AcDbBlockBegin
  2
*D2
 70
     1
 10
0.0
 20
0.0
 30
0.0
  3
*D2
  1

  0
TEXT
  5
8E6
100
AcDbEntity
  8
5
 62
     2
100
AcDbText
 10
-156.470641
 20
224.778763
 30
0.0
 40
6.6
  1
83
 41
1.4
 72
     5
 11
-149.078641
 21
224.778763
 31
0.0
100
AcDbText
  0
LINE
  5
8E7
100
AcDbEntity
  8
5
 62
     2
100
AcDbLine
 10
-193.350641
 20
197.902495
 30
0.0
 11
-193.350641
 21
225.778763
 31
0.0
  0
LINE
  5
8E8
100
AcDbEntity
  8
5
 62
     2
100
AcDbLine
 10
-193.350641
 20
223.778763
 30
0.0
 11
-189.486938
 21
222.743487
 31
0.0
  0
LINE
  5
8E9
100
AcDbEntity
  8
5
 62
     2
100
AcDbLine
 10
-193.350641
 20
223.778763
 30
0.0
 11
-189.486938
 21
224.814039
 31
0.0
  0
LINE
  5
8EA
100
AcDbEntity
  8
5
 62
     2
100
AcDbLine
 10
-189.486938
 20
222.743487
 30
0.0
 11
-189.486938
 21
224.814039
 31
0.0
  0
LINE
  5
8EB
100
AcDbEntity
  8
5
 62
     2
100
AcDbLine
 10
-193.350641
 20
223.778763
 30
0.0
 11
-110.350641
 21
223.778763
 31
0.0
  0
LINE
  5
8EC
100
AcDbEntity
  8
5
 62
     2
100
AcDbLine
 10
-110.350641
 20
223.778763
 30
0.0
 11
-114.214345
 21
224.814039
 31
0.0
  0
LINE
  5
8ED
100
AcDbEntity
  8
5
 62
     2
100
AcDbLine
 10
-110.350641
 20
223.778763
 30
0.0
 11
-114.214345
 21
222.743487
 31
0.0
  0
LINE
  5
8EE
100
AcDbEntity
  8
5
 62
     2
100
AcDbLine
 10
-114.214345
 20
224.814039
 30
0.0
 11
-114.214345
 21
222.743487
 31
0.0
  0
LINE
  5
8EF
100
AcDbEntity
  8
5
 62
     2
100
AcDbLine
 10
-110.350641
 20
200.058521
 30
0.0
 11
-110.350641
 21
225.778763
 31
0.0
  0
ENDBLK
  5
8F0
100
AcDbEntity
  8
5
100
AcDbBlockEnd
  0
BLOCK
  5
8F1
100
AcDbEntity
  8
5
100
AcDbBlockBegin
  2
*D3
 70
     1
 10
0.0
 20
0.0
 30
0.0
  3
*D3
  1

  0
TEXT
  5
8F2
100
AcDbEntity
  8
5
 62
     2
100
AcDbText
 10
-5.864883
 20
-86.685516
 30
0.0
 40
6.6
  1
138
 50
90.0
 41
1.4
 72
     5
 11
-5.864883
 21
-74.673516
 31
0.0
100
AcDbText
  0
LINE
  5
8F3
100
AcDbEntity
  8
5
 62
     2
100
AcDbLine
 10
31.175802
 20
-148.755516
 30
0.0
 11
-6.864883
 21
-148.755516
 31
0.0
  0
LINE
  5
8F4
100
AcDbEntity
  8
5
 62
     2
100
AcDbLine
 10
-4.864883
 20
-148.755516
 30
0.0
 11
-3.829607
 21
-144.891813
 31
0.0
  0
LINE
  5
8F5
100
AcDbEntity
  8
5
 62
     2
100
AcDbLine
 10
-4.864883
 20
-148.755516
 30
0.0
 11
-5.90016
 21
-144.891813
 31
0.0
  0
LINE
  5
8F6
100
AcDbEntity
  8
5
 62
     2
100
AcDbLine
 10
-3.829607
 20
-144.891813
 30
0.0
 11
-5.90016
 21
-144.891813
 31
0.0
  0
LINE
  5
8F7
100
AcDbEntity
  8
5
 62
     2
100
AcDbLine
 10
-4.864883
 20
-148.755516
 30
0.0
 11
-4.864883
 21
-10.755516
 31
0.0
  0
LINE
  5
8F8
100
AcDbEntity
  8
5
 62
     2
100
AcDbLine
 10
-4.864883
 20
-10.755516
 30
0.0
 11
-5.90016
 21
-14.619219
 31
0.0
  0
LINE
  5
8F9
100
AcDbEntity
  8
5
 62
     2
100
AcDbLine
 10
-4.864883
 20
-10.755516
 30
0.0
 11
-3.829607
 21
-14.619219
 31
0.0
  0
LINE
  5
8FA
100
AcDbEntity
  8
5
 62
     2
100
AcDbLine
 10
-5.90016
 20
-14.619219
 30
0.0
 11
-3.829607
 21
-14.619219
 31
0.0
  0
LINE
  5
8FB
100
AcDbEntity
  8
5
 62
     2
100
AcDbLine
 10
29.649359
 20
-10.755516
 30
0.0
 11
-6.864883
 21
-10.755516
 31
0.0
  0
ENDBLK
  5
8FC
100
AcDbEntity
  8
5
100
AcDbBlockEnd
  0
BLOCK
  5
8FD
100
AcDbEntity
  8
5
100
AcDbBlockBegin
  2
*D4
 70
     1
 10
0.0
 20
0.0
 30
0.0
  3
*D4
  1

  0
TEXT
  5
8FE
100
AcDbEntity
  8
5
 62
     2
100
AcDbText
 10
-5.864883
 20
-186.825516
 30
0.0
 40
6.6
  1
67
 50
90.0
 41
1.4
 72
     5
 11
-5.864883
 21
-179.433516
 31
0.0
100
AcDbText
  0
LINE
  5
8FF
100
AcDbEntity
  8
5
 62
     2
100
AcDbLine
 10
59.649359
 20
-215.655516
 30
0.0
 11
-6.864883
 21
-215.655516
 31
0.0
  0
LINE
  5
900
100
AcDbEntity
  8
5
 62
     2
100
AcDbLine
 10
-4.864883
 20
-215.655516
 30
0.0
 11
-3.829607
 21
-211.791813
 31
0.0
  0
LINE
  5
901
100
AcDbEntity
  8
5
 62
     2
100
AcDbLine
 10
-4.864883
 20
-215.655516
 30
0.0
 11
-5.90016
 21
-211.791813
 31
0.0
  0
LINE
  5
902
100
AcDbEntity
  8
5
 62
     2
100
AcDbLine
 10
-3.829607
 20
-211.791813
 30
0.0
 11
-5.90016
 21
-211.791813
 31
0.0
  0
LINE
  5
903
100
AcDbEntity
  8
5
 62
     2
100
AcDbLine
 10
-4.864883
 20
-215.655516
 30
0.0
 11
-4.864883
 21
-148.755516
 31
0.0
  0
LINE
  5
904
100
AcDbEntity
  8
5
 62
     2
100
AcDbLine
 10
-4.864883
 20
-148.755516
 30
0.0
 11
-5.90016
 21
-152.619219
 31
0.0
  0
LINE
  5
905
100
AcDbEntity
  8
5
 62
     2
100
AcDbLine
 10
-4.864883
 20
-148.755516
 30
0.0
 11
-3.829607
 21
-152.619219
 31
0.0
  0
LINE
  5
906
100
AcDbEntity
  8
5
 62
     2
100
AcDbLine
 10
-5.90016
 20
-152.619219
 30
0.0
 11
-3.829607
 21
-152.619219
 31
0.0
  0
LINE
  5
907
100
AcDbEntity
  8
5
 62
     2
100
AcDbLine
 10
31.175802
 20
-148.755516
 30
0.0
 11
-6.864883
 21
-148.755516
 31
0.0
  0
ENDBLK
  5
908
100
AcDbEntity
  8
5
100
AcDbBlockEnd
  0
BLOCK
  5
909
100
AcDbEntity
  8
5
100
AcDbBlockBegin
  2
*D5
 70
     1
 10
0.0
 20
0.0
 30
0.0
  3
*D5
  1

  0
TEXT
  5
90A
100
AcDbEntity
  8
5
 62
     2
100
AcDbText
 10
62.029359
 20
-242.601364
 30
0.0
 40
6.6
  1
43
 41
1.4
 72
     5
 11
69.421359
 21
-242.601364
 31
0.0
100
AcDbText
  0
LINE
  5
90B
100
AcDbEntity
  8
5
 62
     2
100
AcDbLine
 10
45.149359
 20
-194.755516
 30
0.0
 11
45.149359
 21
-245.601364
 31
0.0
  0
LINE
  5
90C
100
AcDbEntity
  8
5
 62
     2
100
AcDbLine
 10
45.149359
 20
-243.601364
 30
0.0
 11
49.013062
 21
-244.63664
 31
0.0
  0
LINE
  5
90D
100
AcDbEntity
  8
5
 62
     2
100
AcDbLine
 10
45.149359
 20
-243.601364
 30
0.0
 11
49.013062
 21
-242.566088
 31
0.0
  0
LINE
  5
90E
100
AcDbEntity
  8
5
 62
     2
100
AcDbLine
 10
49.013062
 20
-244.63664
 30
0.0
 11
49.013062
 21
-242.566088
 31
0.0
  0
LINE
  5
90F
100
AcDbEntity
  8
5
 62
     2
100
AcDbLine
 10
45.149359
 20
-243.601364
 30
0.0
 11
88.149359
 21
-243.601364
 31
0.0
  0
LINE
  5
910
100
AcDbEntity
  8
5
 62
     2
100
AcDbLine
 10
88.149359
 20
-243.601364
 30
0.0
 11
84.285655
 21
-242.566088
 31
0.0
  0
LINE
  5
911
100
AcDbEntity
  8
5
 62
     2
100
AcDbLine
 10
88.149359
 20
-243.601364
 30
0.0
 11
84.285655
 21
-244.63664
 31
0.0
  0
LINE
  5
912
100
AcDbEntity
  8
5
 62
     2
100
AcDbLine
 10
84.285655
 20
-242.566088
 30
0.0
 11
84.285655
 21
-244.63664
 31
0.0
  0
LINE
  5
913
100
AcDbEntity
  8
5
 62
     2
100
AcDbLine
 10
88.149359
 20
-194.755516
 30
0.0
 11
88.149359
 21
-245.601364
 31
0.0
  0
ENDBLK
  5
914
100
AcDbEntity
  8
5
100
AcDbBlockEnd
  0
BLOCK
  5
915
100
AcDbEntity
  8
5
100
AcDbBlockBegin
  2
*D6
 70
     1
 10
0.0
 20
0.0
 30
0.0
  3
*D6
  1

  0
TEXT
  5
916
100
AcDbEntity
  8
5
 62
     2
100
AcDbText
 10
-77.092659
 20
149.622823
 30
0.0
 40
6.6
  1
28
 50
90.0
 41
1.4
 72
     5
 11
-77.092659
 21
157.014822
 31
0.0
100
AcDbText
  0
LINE
  5
917
100
AcDbEntity
  8
5
 62
     2
100
AcDbLine
 10
-134.269854
 20
140.242823
 30
0.0
 11
-74.092659
 21
140.242823
 31
0.0
  0
LINE
  5
918
100
AcDbEntity
  8
5
 62
     2
100
AcDbLine
 10
-76.092659
 20
140.242823
 30
0.0
 11
-75.057383
 21
144.106526
 31
0.0
  0
LINE
  5
919
100
AcDbEntity
  8
5
 62
     2
100
AcDbLine
 10
-76.092659
 20
140.242823
 30
0.0
 11
-77.127935
 21
144.106526
 31
0.0
  0
LINE
  5
91A
100
AcDbEntity
  8
5
 62
     2
100
AcDbLine
 10
-75.057383
 20
144.106526
 30
0.0
 11
-77.127935
 21
144.106526
 31
0.0
  0
LINE
  5
91B
100
AcDbEntity
  8
5
 62
     2
100
AcDbLine
 10
-76.092659
 20
140.242823
 30
0.0
 11
-76.092659
 21
168.242823
 31
0.0
  0
LINE
  5
91C
100
AcDbEntity
  8
5
 62
     2
100
AcDbLine
 10
-76.092659
 20
168.242823
 30
0.0
 11
-77.127935
 21
164.379119
 31
0.0
  0
LINE
  5
91D
100
AcDbEntity
  8
5
 62
     2
100
AcDbLine
 10
-76.092659
 20
168.242823
 30
0.0
 11
-75.057383
 21
164.379119
 31
0.0
  0
LINE
  5
91E
100
AcDbEntity
  8
5
 62
     2
100
AcDbLine
 10
-77.127935
 20
164.379119
 30
0.0
 11
-75.057383
 21
164.379119
 31
0.0
  0
LINE
  5
91F
100
AcDbEntity
  8
5
 62
     2
100
AcDbLine
 10
-100.746653
 20
168.242823
 30
0.0
 11
-74.092659
 21
168.242823
 31
0.0
  0
ENDBLK
  5
920
100
AcDbEntity
  8
5
100
AcDbBlockEnd
  0
BLOCK
  5
921
100
AcDbEntity
  8
5
100
AcDbBlockBegin
  2
*D7
 70
     1
 10
0.0
 20
0.0
 30
0.0
  3
*D7
  1

  0
TEXT
  5
922
100
AcDbEntity
  8
5
 62
     2
100
AcDbText
 10
-77.092659
 20
118.122823
 30
0.0
 40
6.6
  1
35
 50
90.0
 41
1.4
 72
     5
 11
-77.092659
 21
125.514822
 31
0.0
100
AcDbText
  0
LINE
  5
923
100
AcDbEntity
  8
5
 62
     2
100
AcDbLine
 10
-166.350641
 20
105.242823
 30
0.0
 11
-74.092659
 21
105.242823
 31
0.0
  0
LINE
  5
924
100
AcDbEntity
  8
5
 62
     2
100
AcDbLine
 10
-76.092659
 20
105.242823
 30
0.0
 11
-75.057383
 21
109.106526
 31
0.0
  0
LINE
  5
925
100
AcDbEntity
  8
5
 62
     2
100
AcDbLine
 10
-76.092659
 20
105.242823
 30
0.0
 11
-77.127935
 21
109.106526
 31
0.0
  0
LINE
  5
926
100
AcDbEntity
  8
5
 62
     2
100
AcDbLine
 10
-75.057383
 20
109.106526
 30
0.0
 11
-77.127935
 21
109.106526
 31
0.0
  0
LINE
  5
927
100
AcDbEntity
  8
5
 62
     2
100
AcDbLine
 10
-76.092659
 20
105.242823
 30
0.0
 11
-76.092659
 21
140.242823
 31
0.0
  0
LINE
  5
928
100
AcDbEntity
  8
5
 62
     2
100
AcDbLine
 10
-76.092659
 20
140.242823
 30
0.0
 11
-77.127935
 21
136.379119
 31
0.0
  0
LINE
  5
929
100
AcDbEntity
  8
5
 62
     2
100
AcDbLine
 10
-76.092659
 20
140.242823
 30
0.0
 11
-75.057383
 21
136.379119
 31
0.0
  0
LINE
  5
92A
100
AcDbEntity
  8
5
 62
     2
100
AcDbLine
 10
-77.127935
 20
136.379119
 30
0.0
 11
-75.057383
 21
136.379119
 31
0.0
  0
LINE
  5
92B
100
AcDbEntity
  8
5
 62
     2
100
AcDbLine
 10
-134.269854
 20
140.242823
 30
0.0
 11
-74.092659
 21
140.242823
 31
0.0
  0
ENDBLK
  5
92C
100
AcDbEntity
  8
5
100
AcDbBlockEnd
  0
ENDSEC
  0
SECTION
  2
ENTITIES
  0
LINE
  5
2F
100
AcDbEntity
  8
1
  6
DASHED
100
AcDbLine
 10
-218.350641
 20
175.242823
 30
0.0
 11
-168.350641
 21
175.242823
 31
0.0
  0
LINE
  5
30
100
AcDbEntity
  8
1
  6
DASHED
100
AcDbLine
 10
-218.350641
 20
105.242823
 30
0.0
 11
-168.350641
 21
105.242823
 31
0.0
  0
LINE
  5
31
100
AcDbEntity
  8
1
  6
DASHED
100
AcDbLine
 10
-228.350641
 20
115.242823
 30
0.0
 11
-228.350641
 21
165.242823
 31
0.0
  0
LINE
  5
32
100
AcDbEntity
  8
1
  6
DASHED
100
AcDbLine
 10
-158.350641
 20
115.242823
 30
0.0
 11
-158.350641
 21
165.242823
 31
0.0
  0
ARC
  5
33
100
AcDbEntity
  8
1
  6
DASHED
100
AcDbCircle
 10
-218.350641
 20
115.242823
 30
0.0
 40
10.0
100
AcDbArc
 50
180.0
 51
270.0
  0
ARC
  5
34
100
AcDbEntity
  8
1
  6
DASHED
100
AcDbCircle
 10
-168.350641
 20
115.242823
 30
0.0
 40
10.0
100
AcDbArc
 50
270.0
 51
0.0
  0
ARC
  5
35
100
AcDbEntity
  8
1
  6
DASHED
100
AcDbCircle
 10
-168.350641
 20
165.242823
 30
0.0
 40
10.0
100
AcDbArc
 50
0.0
 51
90.0
  0
ARC
  5
36
100
AcDbEntity
  8
1
  6
DASHED
100
AcDbCircle
 10
-218.350641
 20
165.242823
 30
0.0
 40
10.0
100
AcDbArc
 50
90.0
 51
180.0
  0
CIRCLE
  5
37
100
AcDbEntity
  8
1
  6
DASHED
100
AcDbCircle
 10
-168.600641
 20
164.992823
 30
0.0
 40
4.5
  0
CIRCLE
  5
38
100
AcDbEntity
  8
1
  6
DASHED
100
AcDbCircle
 10
-168.600641
 20
115.492823
 30
0.0
 40
4.5
  0
CIRCLE
  5
39
100
AcDbEntity
  8
1
  6
DASHED
100
AcDbCircle
 10
-218.100641
 20
115.492823
 30
0.0
 40
4.5
  0
CIRCLE
  5
3A
100
AcDbEntity
  8
1
  6
DASHED
100
AcDbCircle
 10
-218.100641
 20
164.992823
 30
0.0
 40
4.5
  0
LINE
  5
3B
100
AcDbEntity
  8
1
  6
CENTER
 62
     2
100
AcDbLine
 10
-177.100641
 20
164.992823
 30
0.0
 11
-160.100641
 21
164.992823
 31
0.0
  0
LINE
  5
3C
100
AcDbEntity
  8
1
  6
CENTER
 62
     2
100
AcDbLine
 10
-168.600641
 20
156.492823
 30
0.0
 11
-168.600641
 21
173.492823
 31
0.0
  0
LINE
  5
3D
100
AcDbEntity
  8
1
  6
CENTER
 62
     2
100
AcDbLine
 10
-209.600641
 20
164.992823
 30
0.0
 11
-226.600641
 21
164.992823
 31
0.0
  0
LINE
  5
3E
100
AcDbEntity
  8
1
  6
CENTER
 62
     2
100
AcDbLine
 10
-218.100641
 20
156.492823
 30
0.0
 11
-218.100641
 21
173.492823
 31
0.0
  0
LINE
  5
3F
100
AcDbEntity
  8
1
  6
CENTER
 62
     2
100
AcDbLine
 10
-177.100641
 20
115.492823
 30
0.0
 11
-160.100641
 21
115.492823
 31
0.0
  0
LINE
  5
40
100
AcDbEntity
  8
1
  6
CENTER
 62
     2
100
AcDbLine
 10
-168.600641
 20
123.992823
 30
0.0
 11
-168.600641
 21
106.992823
 31
0.0
  0
LINE
  5
41
100
AcDbEntity
  8
1
  6
CENTER
 62
     2
100
AcDbLine
 10
-209.600641
 20
115.492823
 30
0.0
 11
-226.600641
 21
115.492823
 31
0.0
  0
LINE
  5
42
100
AcDbEntity
  8
1
  6
CENTER
 62
     2
100
AcDbLine
 10
-218.100641
 20
123.992823
 30
0.0
 11
-218.100641
 21
106.992823
 31
0.0
  0
LINE
  5
43
100
AcDbEntity
  8
1
  6
CENTER
 62
     2
100
AcDbLine
 10
-136.269854
 20
140.242823
 30
0.0
 11
-250.420519
 21
140.242823
 31
0.0
  0
LINE
  5
44
100
AcDbEntity
  8
1
  6
CENTER
 62
     2
100
AcDbLine
 10
-193.350641
 20
52.846763
 30
0.0
 11
-193.350641
 21
-227.584797
 31
0.0
  0
LINE
  5
45
100
AcDbEntity
  8
1
  6
CENTER
 62
     2
100
AcDbLine
 10
66.649359
 20
47.755444
 30
0.0
 11
66.649359
 21
-227.584797
 31
0.0
  0
LINE
  5
46
100
AcDbEntity
  8
1
  6
CENTER
 62
     2
100
AcDbLine
 10
-250.420519
 20
-148.755516
 30
0.0
 11
-136.269854
 21
-148.755516
 31
0.0
  0
LINE
  5
47
100
AcDbEntity
  8
1
  6
CENTER
 62
     2
100
AcDbLine
 10
33.175802
 20
-148.755516
 30
0.0
 11
97.929396
 21
-148.755516
 31
0.0
  0
LINE
  5
48
100
AcDbEntity
  8
1
100
AcDbLine
 10
-149.350641
 20
161.742823
 30
0.0
 11
-158.350641
 21
161.742823
 31
0.0
  0
LINE
  5
49
100
AcDbEntity
  8
1
100
AcDbLine
 10
-149.350641
 20
118.742823
 30
0.0
 11
-158.350641
 21
118.742823
 31
0.0
  0
LINE
  5
4A
100
AcDbEntity
  8
1
100
AcDbLine
 10
-148.350641
 20
160.742823
 30
0.0
 11
-149.350641
 21
161.742823
 31
0.0
  0
LINE
  5
4B
100
AcDbEntity
  8
1
100
AcDbLine
 10
-148.350641
 20
119.742823
 30
0.0
 11
-149.350641
 21
118.742823
 31
0.0
  0
LINE
  5
4C
100
AcDbEntity
  8
1
100
AcDbLine
 10
-148.350641
 20
160.742823
 30
0.0
 11
-158.350641
 21
160.742823
 31
0.0
  0
LINE
  5
4D
100
AcDbEntity
  8
1
100
AcDbLine
 10
-148.350641
 20
119.742823
 30
0.0
 11
-158.350641
 21
119.742823
 31
0.0
  0
LINE
  5
4E
100
AcDbEntity
  8
1
100
AcDbLine
 10
-148.350641
 20
119.742823
 30
0.0
 11
-148.350641
 21
127.173515
 31
0.0
  0
LINE
  5
4F
100
AcDbEntity
  8
1
100
AcDbLine
 10
-148.350641
 20
153.31213
 30
0.0
 11
-148.350641
 21
160.742823
 31
0.0
  0
LINE
  5
50
100
AcDbEntity
  8
1
100
AcDbLine
 10
63.649359
 20
-113.755516
 30
0.0
 11
63.649359
 21
-74.067869
 31
0.0
  0
LINE
  5
51
100
AcDbEntity
  8
1
100
AcDbLine
 10
69.649359
 20
-113.755516
 30
0.0
 11
69.649359
 21
-74.067869
 31
0.0
  0
LINE
  5
52
100
AcDbEntity
  8
1
100
AcDbLine
 10
59.756859
 20
-112.755516
 30
0.0
 11
60.649359
 21
-112.755516
 31
0.0
  0
LINE
  5
53
100
AcDbEntity
  8
1
100
AcDbLine
 10
72.649359
 20
-112.755516
 30
0.0
 11
73.541859
 21
-112.755516
 31
0.0
  0
ARC
  5
54
100
AcDbEntity
  8
1
100
AcDbCircle
 10
72.649359
 20
-109.755516
 30
0.0
 40
3.0
100
AcDbArc
 50
180.0
 51
270.0
  0
ARC
  5
55
100
AcDbEntity
  8
1
100
AcDbCircle
 10
60.649359
 20
-109.755516
 30
0.0
 40
3.0
100
AcDbArc
 50
270.0
 51
360.0
  0
LINE
  5
56
100
AcDbEntity
  8
1
100
AcDbLine
 10
63.649359
 20
-71.067869
 30
0.0
 11
69.649359
 21
-71.067869
 31
0.0
  0
ARC
  5
57
100
AcDbEntity
  8
1
100
AcDbCircle
 10
72.649359
 20
-74.067869
 30
0.0
 40
3.0
100
AcDbArc
 50
90.0
 51
180.0
  0
ARC
  5
58
100
AcDbEntity
  8
1
100
AcDbCircle
 10
60.649359
 20
-74.067869
 30
0.0
 40
3.0
100
AcDbArc
 50
0.0
 51
90.0
  0
LINE
  5
59
100
AcDbEntity
  8
1
100
AcDbLine
 10
63.649359
 20
-204.272887
 30
0.0
 11
63.649359
 21
-183.755516
 31
0.0
  0
LINE
  5
5A
100
AcDbEntity
  8
1
100
AcDbLine
 10
69.649359
 20
-204.272887
 30
0.0
 11
69.649359
 21
-183.755516
 31
0.0
  0
LINE
  5
5B
100
AcDbEntity
  8
1
100
AcDbLine
 10
59.864359
 20
-185.755516
 30
0.0
 11
60.649359
 21
-185.755516
 31
0.0
  0
LINE
  5
5C
100
AcDbEntity
  8
1
100
AcDbLine
 10
72.649359
 20
-185.755516
 30
0.0
 11
73.434359
 21
-185.755516
 31
0.0
  0
ARC
  5
5D
100
AcDbEntity
  8
1
100
AcDbCircle
 10
72.649359
 20
-188.755516
 30
0.0
 40
3.0
100
AcDbArc
 50
90.0
 51
180.0
  0
ARC
  5
5E
100
AcDbEntity
  8
1
100
AcDbCircle
 10
60.649359
 20
-188.755516
 30
0.0
 40
3.0
100
AcDbArc
 50
0.0
 51
90.0
  0
LINE
  5
5F
100
AcDbEntity
  8
1
100
AcDbLine
 10
76.860914
 20
-190.339204
 30
0.0
 11
75.041859
 21
-185.755516
 31
0.0
  0
LINE
  5
60
100
AcDbEntity
  8
1
100
AcDbLine
 10
56.437803
 20
-190.339204
 30
0.0
 11
58.256859
 21
-185.755516
 31
0.0
  0
ARC
  5
61
100
AcDbEntity
  8
1
100
AcDbCircle
 10
73.434359
 20
-184.148016
 30
0.0
 40
1.6075
100
AcDbArc
 50
270.0
 51
360.0
  0
ARC
  5
62
100
AcDbEntity
  8
1
100
AcDbCircle
 10
59.864359
 20
-184.148016
 30
0.0
 40
1.6075
100
AcDbArc
 50
180.0
 51
270.0
  0
LINE
  5
63
100
AcDbEntity
  8
1
100
AcDbLine
 10
65.649359
 20
-89.687142
 30
0.0
 11
67.649359
 21
-89.687142
 31
0.0
  0
LINE
  5
64
100
AcDbEntity
  8
1
100
AcDbLine
 10
65.649359
 20
-95.837242
 30
0.0
 11
67.649359
 21
-95.837242
 31
0.0
  0
ARC
  5
65
100
AcDbEntity
  8
1
100
AcDbCircle
 10
67.649359
 20
-91.687142
 30
0.0
 40
2.0
100
AcDbArc
 50
0.0
 51
90.0
  0
ARC
  5
66
100
AcDbEntity
  8
1
100
AcDbCircle
 10
65.649359
 20
-91.687142
 30
0.0
 40
2.0
100
AcDbArc
 50
90.0
 51
180.0
  0
ARC
  5
67
100
AcDbEntity
  8
1
100
AcDbCircle
 10
65.649359
 20
-93.837242
 30
0.0
 40
2.0
100
AcDbArc
 50
180.0
 51
270.0
  0
ARC
  5
68
100
AcDbEntity
  8
1
100
AcDbCircle
 10
67.649359
 20
-93.837242
 30
0.0
 40
2.0
100
AcDbArc
 50
270.0
 51
360.0
  0
ARC
  5
69
100
AcDbEntity
  8
1
100
AcDbCircle
 10
-152.350641
 20
153.31213
 30
0.0
 40
4.0
100
AcDbArc
 50
289.471221
 51
360.0
  0
ARC
  5
6A
100
AcDbEntity
  8
1
100
AcDbCircle
 10
-149.350641
 20
144.826849
 30
0.0
 40
5.0
100
AcDbArc
 50
109.471221
 51
180.0
  0
ARC
  5
6B
100
AcDbEntity
  8
1
100
AcDbCircle
 10
-152.350641
 20
127.173515
 30
0.0
 40
4.0
100
AcDbArc
 50
0.0
 51
70.528779
  0
ARC
  5
6C
100
AcDbEntity
  8
1
100
AcDbCircle
 10
-149.350641
 20
135.658796
 30
0.0
 40
5.0
100
AcDbArc
 50
180.0
 51
250.528779
  0
LINE
  5
6D
100
AcDbEntity
  8
1
100
AcDbLine
 10
-148.350641
 20
139.242823
 30
0.0
 11
-148.350641
 21
141.242823
 31
0.0
  0
LINE
  5
6E
100
AcDbEntity
  8
1
100
AcDbLine
 10
-150.350641
 20
143.242823
 30
0.0
 11
-158.350641
 21
143.242823
 31
0.0
  0
LINE
  5
6F
100
AcDbEntity
  8
1
100
AcDbLine
 10
-150.350641
 20
137.242823
 30
0.0
 11
-158.350641
 21
137.242823
 31
0.0
  0
ARC
  5
70
100
AcDbEntity
  8
1
100
AcDbCircle
 10
-150.350641
 20
141.242823
 30
0.0
 40
2.0
100
AcDbArc
 50
0.0
 51
90.0
  0
ARC
  5
71
100
AcDbEntity
  8
1
100
AcDbCircle
 10
-150.350641
 20
139.242823
 30
0.0
 40
2.0
100
AcDbArc
 50
270.0
 51
360.0
  0
LINE
  5
72
100
AcDbEntity
  8
1
100
AcDbLine
 10
-154.350641
 20
148.635323
 30
0.0
 11
-158.350641
 21
148.635323
 31
0.0
  0
LINE
  5
73
100
AcDbEntity
  8
1
100
AcDbLine
 10
-154.350641
 20
131.850323
 30
0.0
 11
-158.350641
 21
131.850323
 31
0.0
  0
CIRCLE
  5
74
100
AcDbEntity
  8
1
100
AcDbCircle
 10
-193.350641
 20
-148.755516
 30
0.0
 40
44.0
  0
CIRCLE
  5
75
100
AcDbEntity
  8
1
100
AcDbCircle
 10
-193.350641
 20
-148.755516
 30
0.0
 40
45.0
  0
LINE
  5
76
100
AcDbEntity
  8
1
100
AcDbLine
 10
-228.350641
 20
-18.755516
 30
0.0
 11
-228.350641
 21
-10.755516
 31
0.0
  0
LINE
  5
77
100
AcDbEntity
  8
1
100
AcDbLine
 10
-158.350641
 20
-18.755516
 30
0.0
 11
-158.350641
 21
-10.755516
 31
0.0
  0
LINE
  5
78
100
AcDbEntity
  8
1
100
AcDbLine
 10
-225.799379
 20
-22.755516
 30
0.0
 11
-160.901904
 21
-22.755516
 31
0.0
  0
ARC
  5
79
100
AcDbEntity
  8
1
100
AcDbCircle
 10
-224.350641
 20
-18.755516
 30
0.0
 40
4.0
100
AcDbArc
 50
180.0
 51
270.0
  0
ARC
  5
7A
100
AcDbEntity
  8
1
100
AcDbCircle
 10
-162.350641
 20
-18.755516
 30
0.0
 40
4.0
100
AcDbArc
 50
270.0
 51
360.0
  0
LINE
  5
7B
100
AcDbEntity
  8
1
100
AcDbLine
 10
-208.350641
 20
-99.765721
 30
0.0
 11
-208.350641
 21
-27.755516
 31
0.0
  0
LINE
  5
7C
100
AcDbEntity
  8
1
100
AcDbLine
 10
-178.350641
 20
-99.765721
 30
0.0
 11
-178.350641
 21
-27.755516
 31
0.0
  0
ARC
  5
7D
100
AcDbEntity
  8
1
100
AcDbCircle
 10
-173.350641
 20
-27.755516
 30
0.0
 40
5.0
100
AcDbArc
 50
126.174931
 51
180.0
  0
ARC
  5
7E
100
AcDbEntity
  8
1
100
AcDbCircle
 10
-213.350641
 20
-27.755516
 30
0.0
 40
5.0
100
AcDbArc
 50
0.0
 51
90.0
  0
ARC
  5
7F
100
AcDbEntity
  8
1
100
AcDbCircle
 10
-160.350641
 20
-40.664418
 30
0.0
 40
18.0
100
AcDbArc
 50
144.37681
 51
180.0
  0
ARC
  5
80
100
AcDbEntity
  8
1
100
AcDbCircle
 10
-226.350641
 20
-40.664418
 30
0.0
 40
18.0
100
AcDbArc
 50
0.0
 51
84.784091
  0
LINE
  5
81
100
AcDbEntity
  8
1
100
AcDbLine
 10
-190.350641
 20
-40.664418
 30
0.0
 11
-196.350641
 21
-40.664418
 31
0.0
  0
LINE
  5
82
100
AcDbEntity
  8
1
100
AcDbLine
 10
-196.350641
 20
-38.664418
 30
0.0
 11
-196.350641
 21
-24.755516
 31
0.0
  0
LINE
  5
83
100
AcDbEntity
  8
1
100
AcDbLine
 10
-190.350641
 20
-38.664418
 30
0.0
 11
-190.350641
 21
-24.755516
 31
0.0
  0
ARC
  5
84
100
AcDbEntity
  8
1
100
AcDbCircle
 10
-188.350641
 20
-24.755516
 30
0.0
 40
2.0
100
AcDbArc
 50
90.0
 51
180.0
  0
ARC
  5
85
100
AcDbEntity
  8
1
100
AcDbCircle
 10
-198.350641
 20
-24.755516
 30
0.0
 40
2.0
100
AcDbArc
 50
0.0
 51
90.0
  0
ARC
  5
86
100
AcDbEntity
  8
1
100
AcDbCircle
 10
-198.350641
 20
-38.664418
 30
0.0
 40
2.0
100
AcDbArc
 50
270.0
 51
360.0
  0
ARC
  5
87
100
AcDbEntity
  8
1
100
AcDbCircle
 10
-188.350641
 20
-38.664418
 30
0.0
 40
2.0
100
AcDbArc
 50
180.0
 51
270.0
  0
ARC
  5
88
100
AcDbEntity
  8
1
100
AcDbCircle
 10
-193.350641
 20
-163.755516
 30
0.0
 40
86.0
100
AcDbArc
 50
59.45837
 51
74.905213
  0
ARC
  5
89
100
AcDbEntity
  8
1
100
AcDbCircle
 10
-193.350641
 20
-163.755516
 30
0.0
 40
86.0
100
AcDbArc
 50
105.094787
 51
120.54163
  0
ARC
  5
8A
100
AcDbEntity
  8
1
100
AcDbCircle
 10
-168.350641
 20
-71.067869
 30
0.0
 40
10.0
100
AcDbArc
 50
180.0
 51
254.905213
  0
ARC
  5
8B
100
AcDbEntity
  8
1
100
AcDbCircle
 10
-218.350641
 20
-71.067869
 30
0.0
 40
10.0
100
AcDbArc
 50
285.094787
 51
360.0
  0
LINE
  5
8C
100
AcDbEntity
  8
1
100
AcDbLine
 10
-154.119058
 20
-97.053167
 30
0.0
 11
-156.162525
 21
-98.403813
 31
0.0
  0
LINE
  5
8D
100
AcDbEntity
  8
1
100
AcDbLine
 10
-159.189837
 20
-101.646181
 30
0.0
 11
-162.753011
 21
-107.935362
 31
0.0
  0
LINE
  5
8E
100
AcDbEntity
  8
1
100
AcDbLine
 10
-223.948272
 20
-107.935362
 30
0.0
 11
-227.511446
 21
-101.646181
 31
0.0
  0
LINE
  5
8F
100
AcDbEntity
  8
1
100
AcDbLine
 10
-230.538758
 20
-98.403813
 30
0.0
 11
-232.582224
 21
-97.053167
 31
0.0
  0
ARC
  5
90
100
AcDbEntity
  8
1
100
AcDbCircle
 10
-150.924234
 20
-106.329109
 30
0.0
 40
9.5
100
AcDbArc
 50
123.463041
 51
150.46601
  0
ARC
  5
91
100
AcDbEntity
  8
1
100
AcDbCircle
 10
-149.156467
 20
-104.561342
 30
0.0
 40
9.0
100
AcDbArc
 50
104.223541
 51
123.463041
  0
ARC
  5
92
100
AcDbEntity
  8
1
100
AcDbCircle
 10
-156.227535
 20
-111.63241
 30
0.0
 40
7.5
100
AcDbArc
 50
150.46601
 51
225.0
  0
ARC
  5
93
100
AcDbEntity
  8
1
100
AcDbCircle
 10
-230.473747
 20
-111.63241
 30
0.0
 40
7.5
100
AcDbArc
 50
315.0
 51
29.53399
  0
ARC
  5
94
100
AcDbEntity
  8
1
100
AcDbCircle
 10
-235.777048
 20
-106.329109
 30
0.0
 40
9.5
100
AcDbArc
 50
29.53399
 51
56.536959
  0
ARC
  5
95
100
AcDbEntity
  8
1
100
AcDbCircle
 10
-237.544815
 20
-104.561342
 30
0.0
 40
9.0
100
AcDbArc
 50
56.536959
 51
75.776459
  0
ARC
  5
96
100
AcDbEntity
  8
1
100
AcDbCircle
 10
-152.350641
 20
-91.959864
 30
0.0
 40
4.0
100
AcDbArc
 50
284.223541
 51
360.0
  0
ARC
  5
97
100
AcDbEntity
  8
1
100
AcDbCircle
 10
-234.350641
 20
-91.959864
 30
0.0
 40
4.0
100
AcDbArc
 50
180.0
 51
255.776459
  0
ARC
  5
98
100
AcDbEntity
  8
1
100
AcDbCircle
 10
-150.989475
 20
-91.959864
 30
0.0
 40
2.638833
100
AcDbArc
 50
0.0
 51
59.45837
  0
ARC
  5
99
100
AcDbEntity
  8
1
100
AcDbCircle
 10
-235.711808
 20
-91.959864
 30
0.0
 40
2.638833
100
AcDbArc
 50
120.54163
 51
180.0
  0
LINE
  5
9A
100
AcDbEntity
  8
1
100
AcDbLine
 10
-212.350641
 20
-207.755516
 30
0.0
 11
-174.350641
 21
-207.755516
 31
0.0
  0
ARC
  5
9B
100
AcDbEntity
  8
1
100
AcDbCircle
 10
-169.350641
 20
-192.618941
 30
0.0
 40
5.0
100
AcDbArc
 50
118.685402
 51
180.0
  0
ARC
  5
9C
100
AcDbEntity
  8
1
100
AcDbCircle
 10
-217.350641
 20
-192.618941
 30
0.0
 40
5.0
100
AcDbArc
 50
0.0
 51
61.314598
  0
LINE
  5
9D
100
AcDbEntity
  8
1
100
AcDbLine
 10
-209.350641
 20
-204.755516
 30
0.0
 11
-177.350641
 21
-204.755516
 31
0.0
  0
LINE
  5
9E
100
AcDbEntity
  8
1
100
AcDbLine
 10
-172.930946
 20
-204.37511
 30
0.0
 11
-162.315365
 21
-201.530674
 31
0.0
  0
LINE
  5
9F
100
AcDbEntity
  8
1
100
AcDbLine
 10
-213.770337
 20
-204.37511
 30
0.0
 11
-224.385917
 21
-201.530674
 31
0.0
  0
ARC
  5
A0
100
AcDbEntity
  8
1
100
AcDbCircle
 10
-177.350641
 20
-201.755516
 30
0.0
 40
3.0
100
AcDbArc
 50
270.0
 51
360.0
  0
ARC
  5
A1
100
AcDbEntity
  8
1
100
AcDbCircle
 10
-209.350641
 20
-201.755516
 30
0.0
 40
3.0
100
AcDbArc
 50
180.0
 51
270.0
  0
ARC
  5
A2
100
AcDbEntity
  8
1
100
AcDbCircle
 10
-171.350641
 20
-207.057497
 30
0.0
 40
3.0
100
AcDbArc
 50
105.0
 51
180.0
  0
ARC
  5
A3
100
AcDbEntity
  8
1
100
AcDbCircle
 10
-215.350641
 20
-207.057497
 30
0.0
 40
3.0
100
AcDbArc
 50
0.0
 51
75.0
  0
LINE
  5
A4
100
AcDbEntity
  8
1
100
AcDbLine
 10
-227.350641
 20
-197.66697
 30
0.0
 11
-227.350641
 21
-197.630521
 31
0.0
  0
LINE
  5
A5
100
AcDbEntity
  8
1
100
AcDbLine
 10
-159.350641
 20
-197.66697
 30
0.0
 11
-159.350641
 21
-197.630521
 31
0.0
  0
ARC
  5
A6
100
AcDbEntity
  8
1
100
AcDbCircle
 10
-163.350641
 20
-197.66697
 30
0.0
 40
4.0
100
AcDbArc
 50
285.0
 51
360.0
  0
ARC
  5
A7
100
AcDbEntity
  8
1
100
AcDbCircle
 10
-223.350641
 20
-197.66697
 30
0.0
 40
4.0
100
AcDbArc
 50
180.0
 51
255.0
  0
LINE
  5
A8
100
AcDbEntity
  8
1
100
AcDbLine
 10
-162.995302
 20
-189.110855
 30
0.0
 11
-159.947924
 21
-195.491567
 31
0.0
  0
LINE
  5
A9
100
AcDbEntity
  8
1
100
AcDbLine
 10
-223.70598
 20
-189.110855
 30
0.0
 11
-226.753359
 21
-195.491567
 31
0.0
  0
ARC
  5
AA
100
AcDbEntity
  8
1
100
AcDbCircle
 10
-156.227535
 20
-185.878622
 30
0.0
 40
7.5
100
AcDbArc
 50
135.0
 51
205.528779
  0
ARC
  5
AB
100
AcDbEntity
  8
1
100
AcDbCircle
 10
-150.924234
 20
-191.181923
 30
0.0
 40
10.0
100
AcDbArc
 50
205.528779
 51
207.426743
  0
ARC
  5
AC
100
AcDbEntity
  8
1
100
AcDbCircle
 10
-163.350641
 20
-197.630521
 30
0.0
 40
4.0
100
AcDbArc
 50
0.0
 51
27.426743
  0
ARC
  5
AD
100
AcDbEntity
  8
1
100
AcDbCircle
 10
-230.473747
 20
-185.878622
 30
0.0
 40
7.5
100
AcDbArc
 50
334.471221
 51
45.0
  0
ARC
  5
AE
100
AcDbEntity
  8
1
100
AcDbCircle
 10
-235.777048
 20
-191.181923
 30
0.0
 40
10.0
100
AcDbArc
 50
332.573257
 51
334.471221
  0
ARC
  5
AF
100
AcDbEntity
  8
1
100
AcDbCircle
 10
-223.350641
 20
-197.630521
 30
0.0
 40
4.0
100
AcDbArc
 50
152.573257
 51
180.0
  0
LINE
  5
B0
100
AcDbEntity
  8
1
100
AcDbLine
 10
-186.450641
 20
-211.655516
 30
0.0
 11
-174.250641
 21
-211.655516
 31
0.0
  0
LINE
  5
B1
100
AcDbEntity
  8
1
100
AcDbLine
 10
-174.600641
 20
-211.655516
 30
0.0
 11
-174.600641
 21
-215.164768
 31
0.0
  0
LINE
  5
B2
100
AcDbEntity
  8
1
100
AcDbLine
 10
-174.600641
 20
-215.164768
 30
0.0
 11
-175.450641
 21
-215.655516
 31
0.0
  0
LINE
  5
B3
100
AcDbEntity
  8
1
100
AcDbLine
 10
-177.475641
 20
-211.655516
 30
0.0
 11
-177.475641
 21
-215.164768
 31
0.0
  0
ARC
  5
B4
100
AcDbEntity
  8
1
100
AcDbCircle
 10
-176.038141
 20
-213.316813
 30
0.0
 40
2.341227
100
AcDbArc
 50
232.121121
 51
307.878879
  0
ARC
  5
B5
100
AcDbEntity
  8
1
100
AcDbCircle
 10
-180.350641
 20
-207.03304
 30
0.0
 40
8.625
100
AcDbArc
 50
250.528777
 51
289.471219
  0
LINE
  5
B6
100
AcDbEntity
  8
1
100
AcDbLine
 10
-186.100641
 20
-211.655516
 30
0.0
 11
-186.100641
 21
-215.164768
 31
0.0
  0
LINE
  5
B7
100
AcDbEntity
  8
1
100
AcDbLine
 10
-186.100641
 20
-215.164768
 30
0.0
 11
-185.250641
 21
-215.655516
 31
0.0
  0
LINE
  5
B8
100
AcDbEntity
  8
1
100
AcDbLine
 10
-185.250641
 20
-215.655516
 30
0.0
 11
-175.450641
 21
-215.655516
 31
0.0
  0
LINE
  5
B9
100
AcDbEntity
  8
1
100
AcDbLine
 10
-183.225641
 20
-211.655516
 30
0.0
 11
-183.225641
 21
-215.164768
 31
0.0
  0
ARC
  5
BA
100
AcDbEntity
  8
1
100
AcDbCircle
 10
-184.663141
 20
-213.316813
 30
0.0
 40
2.341227
100
AcDbArc
 50
232.121121
 51
307.878879
  0
LINE
  5
BB
100
AcDbEntity
  8
1
100
AcDbLine
 10
-174.250641
 20
-210.155516
 30
0.0
 11
-174.250641
 21
-211.655516
 31
0.0
  0
LINE
  5
BC
100
AcDbEntity
  8
1
100
AcDbLine
 10
-186.450641
 20
-211.655516
 30
0.0
 11
-186.450641
 21
-210.155516
 31
0.0
  0
LINE
  5
BD
100
AcDbEntity
  8
1
100
AcDbLine
 10
-180.350641
 20
-211.655516
 30
0.0
 11
-180.850641
 21
-210.155516
 31
0.0
  0
LINE
  5
BE
100
AcDbEntity
  8
1
100
AcDbLine
 10
-180.350641
 20
-210.155516
 30
0.0
 11
-179.850641
 21
-211.655516
 31
0.0
  0
LINE
  5
BF
100
AcDbEntity
  8
1
100
AcDbLine
 10
-212.450641
 20
-211.655516
 30
0.0
 11
-200.250641
 21
-211.655516
 31
0.0
  0
LINE
  5
C0
100
AcDbEntity
  8
1
100
AcDbLine
 10
-200.600641
 20
-211.655516
 30
0.0
 11
-200.600641
 21
-215.164768
 31
0.0
  0
LINE
  5
C1
100
AcDbEntity
  8
1
100
AcDbLine
 10
-200.600641
 20
-215.164768
 30
0.0
 11
-201.450641
 21
-215.655516
 31
0.0
  0
LINE
  5
C2
100
AcDbEntity
  8
1
100
AcDbLine
 10
-203.475641
 20
-211.655516
 30
0.0
 11
-203.475641
 21
-215.164768
 31
0.0
  0
ARC
  5
C3
100
AcDbEntity
  8
1
100
AcDbCircle
 10
-202.038141
 20
-213.316813
 30
0.0
 40
2.341227
100
AcDbArc
 50
232.121121
 51
307.878879
  0
ARC
  5
C4
100
AcDbEntity
  8
1
100
AcDbCircle
 10
-206.350641
 20
-207.03304
 30
0.0
 40
8.625
100
AcDbArc
 50
250.528777
 51
289.471219
  0
LINE
  5
C5
100
AcDbEntity
  8
1
100
AcDbLine
 10
-212.100641
 20
-211.655516
 30
0.0
 11
-212.100641
 21
-215.164768
 31
0.0
  0
LINE
  5
C6
100
AcDbEntity
  8
1
100
AcDbLine
 10
-212.100641
 20
-215.164768
 30
0.0
 11
-211.250641
 21
-215.655516
 31
0.0
  0
LINE
  5
C7
100
AcDbEntity
  8
1
100
AcDbLine
 10
-211.250641
 20
-215.655516
 30
0.0
 11
-201.450641
 21
-215.655516
 31
0.0
  0
LINE
  5
C8
100
AcDbEntity
  8
1
100
AcDbLine
 10
-209.225641
 20
-211.655516
 30
0.0
 11
-209.225641
 21
-215.164768
 31
0.0
  0
ARC
  5
C9
100
AcDbEntity
  8
1
100
AcDbCircle
 10
-210.663141
 20
-213.316813
 30
0.0
 40
2.341227
100
AcDbArc
 50
232.121121
 51
307.878879
  0
LINE
  5
CA
100
AcDbEntity
  8
1
100
AcDbLine
 10
-200.250641
 20
-210.155516
 30
0.0
 11
-200.250641
 21
-211.655516
 31
0.0
  0
LINE
  5
CB
100
AcDbEntity
  8
1
100
AcDbLine
 10
-212.450641
 20
-211.655516
 30
0.0
 11
-212.450641
 21
-210.155516
 31
0.0
  0
LINE
  5
CC
100
AcDbEntity
  8
1
100
AcDbLine
 10
-206.350641
 20
-211.655516
 30
0.0
 11
-206.850641
 21
-210.155516
 31
0.0
  0
LINE
  5
CD
100
AcDbEntity
  8
1
100
AcDbLine
 10
-206.350641
 20
-210.155516
 30
0.0
 11
-205.850641
 21
-211.655516
 31
0.0
  0
LINE
  5
CE
100
AcDbEntity
  8
1
  6
CENTER
 62
     2
100
AcDbLine
 10
-180.350641
 20
-200.735361
 30
0.0
 11
-180.350641
 21
-219.737818
 31
0.0
  0
ARC
  5
CF
100
AcDbEntity
  8
1
100
AcDbCircle
 10
-172.154489
 20
-207.272887
 30
0.0
 40
3.0
100
AcDbArc
 50
105.0
 51
180.0
  0
ARC
  5
D0
100
AcDbEntity
  8
1
100
AcDbCircle
 10
-214.546794
 20
-207.272887
 30
0.0
 40
3.0
100
AcDbArc
 50
360.0
 51
75.0
  0
LINE
  5
D1
100
AcDbEntity
  8
1
100
AcDbLine
 10
-212.350641
 20
-208.555516
 30
0.0
 11
-174.350641
 21
-208.555516
 31
0.0
  0
LINE
  5
D2
100
AcDbEntity
  8
1
100
AcDbLine
 10
-212.450641
 20
-210.155516
 30
0.0
 11
-174.250641
 21
-210.155516
 31
0.0
  0
LINE
  5
D3
100
AcDbEntity
  8
1
  6
CENTER
 62
     2
100
AcDbLine
 10
-206.350641
 20
-200.735361
 30
0.0
 11
-206.350641
 21
-219.737818
 31
0.0
  0
LINE
  5
D4
100
AcDbEntity
  8
1
100
AcDbLine
 10
-174.350641
 20
-210.155516
 30
0.0
 11
-174.350641
 21
-207.057497
 31
0.0
  0
LINE
  5
D5
100
AcDbEntity
  8
1
100
AcDbLine
 10
-174.350641
 20
-201.755516
 30
0.0
 11
-174.350641
 21
-192.618941
 31
0.0
  0
LINE
  5
D6
100
AcDbEntity
  8
1
100
AcDbLine
 10
-212.350641
 20
-210.155516
 30
0.0
 11
-212.350641
 21
-207.057497
 31
0.0
  0
LINE
  5
D7
100
AcDbEntity
  8
1
100
AcDbLine
 10
-212.350641
 20
-201.755516
 30
0.0
 11
-212.350641
 21
-192.618941
 31
0.0
  0
LINE
  5
D8
100
AcDbEntity
  8
1
100
AcDbLine
 10
31.649359
 20
-18.755516
 30
0.0
 11
31.649359
 21
-10.755516
 31
0.0
  0
LINE
  5
D9
100
AcDbEntity
  8
1
100
AcDbLine
 10
101.649359
 20
-18.755516
 30
0.0
 11
101.649359
 21
-10.755516
 31
0.0
  0
LINE
  5
DA
100
AcDbEntity
  8
1
100
AcDbLine
 10
34.200621
 20
-22.755516
 30
0.0
 11
99.098096
 21
-22.755516
 31
0.0
  0
ARC
  5
DB
100
AcDbEntity
  8
1
100
AcDbCircle
 10
35.649359
 20
-18.755516
 30
0.0
 40
4.0
100
AcDbArc
 50
180.0
 51
270.0
  0
ARC
  5
DC
100
AcDbEntity
  8
1
100
AcDbCircle
 10
97.649359
 20
-18.755516
 30
0.0
 40
4.0
100
AcDbArc
 50
270.0
 51
360.0
  0
LINE
  5
DD
100
AcDbEntity
  8
1
100
AcDbLine
 10
51.649359
 20
-103.672957
 30
0.0
 11
51.649359
 21
-27.755516
 31
0.0
  0
LINE
  5
DE
100
AcDbEntity
  8
1
100
AcDbLine
 10
81.649359
 20
-103.672957
 30
0.0
 11
81.649359
 21
-27.755516
 31
0.0
  0
ARC
  5
DF
100
AcDbEntity
  8
1
100
AcDbCircle
 10
86.649359
 20
-27.755516
 30
0.0
 40
5.0
100
AcDbArc
 50
90.0
 51
180.0
  0
ARC
  5
E0
100
AcDbEntity
  8
1
100
AcDbCircle
 10
46.649359
 20
-27.755516
 30
0.0
 40
5.0
100
AcDbArc
 50
0.0
 51
53.825069
  0
ARC
  5
E1
100
AcDbEntity
  8
1
100
AcDbCircle
 10
99.649359
 20
-40.664418
 30
0.0
 40
18.0
100
AcDbArc
 50
95.215909
 51
180.0
  0
ARC
  5
E2
100
AcDbEntity
  8
1
100
AcDbCircle
 10
33.649359
 20
-40.664418
 30
0.0
 40
18.0
100
AcDbArc
 50
0.0
 51
35.32912
  0
LINE
  5
E3
100
AcDbEntity
  8
1
100
AcDbLine
 10
69.649359
 20
-40.664418
 30
0.0
 11
63.649359
 21
-40.664418
 31
0.0
  0
LINE
  5
E4
100
AcDbEntity
  8
1
100
AcDbLine
 10
63.649359
 20
-38.664418
 30
0.0
 11
63.649359
 21
-24.755516
 31
0.0
  0
LINE
  5
E5
100
AcDbEntity
  8
1
100
AcDbLine
 10
69.649359
 20
-38.664418
 30
0.0
 11
69.649359
 21
-24.755516
 31
0.0
  0
ARC
  5
E6
100
AcDbEntity
  8
1
100
AcDbCircle
 10
71.649359
 20
-24.755516
 30
0.0
 40
2.0
100
AcDbArc
 50
90.0
 51
180.0
  0
ARC
  5
E7
100
AcDbEntity
  8
1
100
AcDbCircle
 10
61.649359
 20
-24.755516
 30
0.0
 40
2.0
100
AcDbArc
 50
0.0
 51
90.0
  0
ARC
  5
E8
100
AcDbEntity
  8
1
100
AcDbCircle
 10
61.649359
 20
-38.664418
 30
0.0
 40
2.0
100
AcDbArc
 50
270.0
 51
360.0
  0
ARC
  5
E9
100
AcDbEntity
  8
1
100
AcDbCircle
 10
71.649359
 20
-38.664418
 30
0.0
 40
2.0
100
AcDbArc
 50
180.0
 51
270.0
  0
LINE
  5
EA
100
AcDbEntity
  8
1
100
AcDbLine
 10
45.149359
 20
-192.755516
 30
0.0
 11
45.149359
 21
-104.755516
 31
0.0
  0
LINE
  5
EB
100
AcDbEntity
  8
1
100
AcDbLine
 10
88.149359
 20
-192.755516
 30
0.0
 11
88.149359
 21
-104.755516
 31
0.0
  0
LINE
  5
EC
100
AcDbEntity
  8
1
100
AcDbLine
 10
88.149359
 20
-104.755516
 30
0.0
 11
87.149359
 21
-103.755516
 31
0.0
  0
LINE
  5
ED
100
AcDbEntity
  8
1
100
AcDbLine
 10
45.149359
 20
-104.755516
 30
0.0
 11
46.149359
 21
-103.755516
 31
0.0
  0
LINE
  5
EE
100
AcDbEntity
  8
1
100
AcDbLine
 10
46.149359
 20
-193.755516
 30
0.0
 11
45.149359
 21
-192.755516
 31
0.0
  0
LINE
  5
EF
100
AcDbEntity
  8
1
100
AcDbLine
 10
87.149359
 20
-193.755516
 30
0.0
 11
88.149359
 21
-192.755516
 31
0.0
  0
LINE
  5
F0
100
AcDbEntity
  8
1
100
AcDbLine
 10
87.149359
 20
-103.755516
 30
0.0
 11
87.149359
 21
-193.755516
 31
0.0
  0
LINE
  5
F1
100
AcDbEntity
  8
1
100
AcDbLine
 10
46.149359
 20
-103.755516
 30
0.0
 11
46.149359
 21
-193.755516
 31
0.0
  0
ARC
  5
F2
100
AcDbEntity
  8
1
100
AcDbCircle
 10
46.649359
 20
-98.755516
 30
0.0
 40
5.0
100
AcDbArc
 50
270.0
 51
360.0
  0
ARC
  5
F3
100
AcDbEntity
  8
1
100
AcDbCircle
 10
86.649359
 20
-98.755516
 30
0.0
 40
5.0
100
AcDbArc
 50
180.0
 51
270.0
  0
LINE
  5
F4
100
AcDbEntity
  8
1
100
AcDbLine
 10
46.149359
 20
-103.755516
 30
0.0
 11
46.649359
 21
-103.755516
 31
0.0
  0
LINE
  5
F5
100
AcDbEntity
  8
1
100
AcDbLine
 10
86.649359
 20
-103.755516
 30
0.0
 11
87.149359
 21
-103.755516
 31
0.0
  0
LINE
  5
F6
100
AcDbEntity
  8
1
100
AcDbLine
 10
53.649359
 20
-210.155516
 30
0.0
 11
53.649359
 21
-192.232598
 31
0.0
  0
LINE
  5
F7
100
AcDbEntity
  8
1
100
AcDbLine
 10
79.649359
 20
-210.155516
 30
0.0
 11
79.649359
 21
-192.232598
 31
0.0
  0
LINE
  5
F8
100
AcDbEntity
  8
1
100
AcDbLine
 10
53.649359
 20
-207.755516
 30
0.0
 11
79.649359
 21
-207.755516
 31
0.0
  0
ARC
  5
F9
100
AcDbEntity
  8
1
100
AcDbCircle
 10
83.649359
 20
-197.755516
 30
0.0
 40
4.0
100
AcDbArc
 50
90.0
 51
180.0
  0
ARC
  5
FA
100
AcDbEntity
  8
1
100
AcDbCircle
 10
49.649359
 20
-197.755516
 30
0.0
 40
4.0
100
AcDbArc
 50
0.0
 51
90.0
  0
ARC
  5
FB
100
AcDbEntity
  8
1
100
AcDbCircle
 10
83.649359
 20
-192.232598
 30
0.0
 40
4.0
100
AcDbArc
 50
90.0
 51
180.0
  0
ARC
  5
FC
100
AcDbEntity
  8
1
100
AcDbCircle
 10
49.649359
 20
-192.232598
 30
0.0
 40
4.0
100
AcDbArc
 50
0.0
 51
90.0
  0
LINE
  5
FD
100
AcDbEntity
  8
1
100
AcDbLine
 10
46.149359
 20
-193.755516
 30
0.0
 11
49.649359
 21
-193.755516
 31
0.0
  0
LINE
  5
FE
100
AcDbEntity
  8
1
100
AcDbLine
 10
83.649359
 20
-193.755516
 30
0.0
 11
87.149359
 21
-193.755516
 31
0.0
  0
LINE
  5
FF
100
AcDbEntity
  8
1
100
AcDbLine
 10
71.649359
 20
-211.655516
 30
0.0
 11
71.649359
 21
-215.655516
 31
0.0
  0
LINE
  5
100
100
AcDbEntity
  8
1
100
AcDbLine
 10
66.649359
 20
-211.655516
 30
0.0
 11
66.649359
 21
-215.164768
 31
0.0
  0
ARC
  5
101
100
AcDbEntity
  8
1
100
AcDbCircle
 10
69.149359
 20
-209.042308
 30
0.0
 40
6.613208
100
AcDbArc
 50
247.788205
 51
292.211795
  0
LINE
  5
102
100
AcDbEntity
  8
1
100
AcDbLine
 10
61.649359
 20
-211.655516
 30
0.0
 11
61.649359
 21
-215.655516
 31
0.0
  0
LINE
  5
103
100
AcDbEntity
  8
1
100
AcDbLine
 10
61.649359
 20
-215.655516
 30
0.0
 11
71.649359
 21
-215.655516
 31
0.0
  0
ARC
  5
104
100
AcDbEntity
  8
1
100
AcDbCircle
 10
64.149359
 20
-209.042308
 30
0.0
 40
6.613208
100
AcDbArc
 50
247.788205
 51
292.211795
  0
LINE
  5
105
100
AcDbEntity
  8
1
100
AcDbLine
 10
72.749359
 20
-210.155516
 30
0.0
 11
72.749359
 21
-211.655516
 31
0.0
  0
LINE
  5
106
100
AcDbEntity
  8
1
100
AcDbLine
 10
72.749359
 20
-211.655516
 30
0.0
 11
60.549359
 21
-211.655516
 31
0.0
  0
LINE
  5
107
100
AcDbEntity
  8
1
100
AcDbLine
 10
60.549359
 20
-211.655516
 30
0.0
 11
60.549359
 21
-210.155516
 31
0.0
  0
LINE
  5
108
100
AcDbEntity
  8
1
100
AcDbLine
 10
53.649359
 20
-208.555516
 30
0.0
 11
79.649359
 21
-208.555516
 31
0.0
  0
LINE
  5
109
100
AcDbEntity
  8
1
100
AcDbLine
 10
53.649359
 20
-210.155516
 30
0.0
 11
79.649359
 21
-210.155516
 31
0.0
  0
LINE
  5
10A
100
AcDbEntity
  8
1
100
AcDbLine
 10
62.649359
 20
-119.755516
 30
0.0
 11
70.649359
 21
-119.755516
 31
0.0
  0
LINE
  5
10B
100
AcDbEntity
  8
1
100
AcDbLine
 10
62.649359
 20
-177.755516
 30
0.0
 11
70.649359
 21
-177.755516
 31
0.0
  0
LINE
  5
10C
100
AcDbEntity
  8
1
100
AcDbLine
 10
56.649359
 20
-171.755516
 30
0.0
 11
56.649359
 21
-125.755516
 31
0.0
  0
LINE
  5
10D
100
AcDbEntity
  8
1
100
AcDbLine
 10
76.649359
 20
-171.755516
 30
0.0
 11
76.649359
 21
-125.755516
 31
0.0
  0
ARC
  5
10E
100
AcDbEntity
  8
1
100
AcDbCircle
 10
70.649359
 20
-125.755516
 30
0.0
 40
6.0
100
AcDbArc
 50
0.0
 51
90.0
  0
ARC
  5
10F
100
AcDbEntity
  8
1
100
AcDbCircle
 10
62.649359
 20
-125.755516
 30
0.0
 40
6.0
100
AcDbArc
 50
90.0
 51
180.0
  0
ARC
  5
110
100
AcDbEntity
  8
1
100
AcDbCircle
 10
62.649359
 20
-171.755516
 30
0.0
 40
6.0
100
AcDbArc
 50
180.0
 51
270.0
  0
ARC
  5
111
100
AcDbEntity
  8
1
100
AcDbCircle
 10
70.649359
 20
-171.755516
 30
0.0
 40
6.0
100
AcDbArc
 50
270.0
 51
360.0
  0
LINE
  5
112
100
AcDbEntity
  8
1
100
AcDbLine
 10
63.649359
 20
-116.755516
 30
0.0
 11
69.649359
 21
-116.755516
 31
0.0
  0
LINE
  5
113
100
AcDbEntity
  8
1
100
AcDbLine
 10
63.649359
 20
-180.755516
 30
0.0
 11
69.649359
 21
-180.755516
 31
0.0
  0
LINE
  5
114
100
AcDbEntity
  8
1
100
AcDbLine
 10
76.649359
 20
-189.232598
 30
0.0
 11
76.649359
 21
-184.755516
 31
0.0
  0
LINE
  5
115
100
AcDbEntity
  8
1
100
AcDbLine
 10
76.649359
 20
-112.755516
 30
0.0
 11
76.649359
 21
-102.765721
 31
0.0
  0
LINE
  5
116
100
AcDbEntity
  8
1
100
AcDbLine
 10
56.649359
 20
-189.232598
 30
0.0
 11
56.649359
 21
-184.755516
 31
0.0
  0
LINE
  5
117
100
AcDbEntity
  8
1
100
AcDbLine
 10
56.649359
 20
-112.755516
 30
0.0
 11
56.649359
 21
-102.765721
 31
0.0
  0
ARC
  5
118
100
AcDbEntity
  8
1
100
AcDbCircle
 10
79.649359
 20
-189.232598
 30
0.0
 40
3.0
100
AcDbArc
 50
180.0
 51
270.0
  0
ARC
  5
119
100
AcDbEntity
  8
1
100
AcDbCircle
 10
53.649359
 20
-189.232598
 30
0.0
 40
3.0
100
AcDbArc
 50
270.0
 51
360.0
  0
LINE
  5
11A
100
AcDbEntity
  8
1
100
AcDbLine
 10
75.041859
 20
-169.487909
 30
0.0
 11
75.041859
 21
-128.023123
 31
0.0
  0
LINE
  5
11B
100
AcDbEntity
  8
1
100
AcDbLine
 10
58.256859
 20
-169.487909
 30
0.0
 11
58.256859
 21
-128.023123
 31
0.0
  0
LINE
  5
11C
100
AcDbEntity
  8
1
100
AcDbLine
 10
61.977859
 20
-124.302123
 30
0.0
 11
71.320859
 21
-124.302123
 31
0.0
  0
LINE
  5
11D
100
AcDbEntity
  8
1
100
AcDbLine
 10
61.977859
 20
-173.208909
 30
0.0
 11
71.320859
 21
-173.208909
 31
0.0
  0
ARC
  5
11E
100
AcDbEntity
  8
1
100
AcDbCircle
 10
71.320859
 20
-169.487909
 30
0.0
 40
3.721
100
AcDbArc
 50
270.0
 51
360.0
  0
ARC
  5
11F
100
AcDbEntity
  8
1
100
AcDbCircle
 10
61.977859
 20
-169.487909
 30
0.0
 40
3.721
100
AcDbArc
 50
180.0
 51
270.0
  0
ARC
  5
120
100
AcDbEntity
  8
1
100
AcDbCircle
 10
61.977859
 20
-128.023123
 30
0.0
 40
3.721
100
AcDbArc
 50
90.0
 51
180.0
  0
ARC
  5
121
100
AcDbEntity
  8
1
100
AcDbCircle
 10
71.320859
 20
-128.023123
 30
0.0
 40
3.721
100
AcDbArc
 50
0.0
 51
90.0
  0
LINE
  5
122
100
AcDbEntity
  8
1
100
AcDbLine
 10
75.041859
 20
-124.302123
 30
0.0
 11
75.682671
 21
-122.489668
 31
0.0
  0
LINE
  5
123
100
AcDbEntity
  8
1
100
AcDbLine
 10
57.616046
 20
-122.489668
 30
0.0
 11
58.256859
 21
-124.302123
 31
0.0
  0
LINE
  5
124
100
AcDbEntity
  8
1
100
AcDbLine
 10
58.256859
 20
-173.208909
 30
0.0
 11
57.616046
 21
-175.021365
 31
0.0
  0
LINE
  5
125
100
AcDbEntity
  8
1
100
AcDbLine
 10
75.682671
 20
-175.021365
 30
0.0
 11
75.041859
 21
-173.208909
 31
0.0
  0
ARC
  5
126
100
AcDbEntity
  8
1
100
AcDbCircle
 10
56.649359
 20
-201.755516
 30
0.0
 40
3.0
100
AcDbArc
 50
180.0
 51
270.0
  0
ARC
  5
127
100
AcDbEntity
  8
1
100
AcDbCircle
 10
76.649359
 20
-201.755516
 30
0.0
 40
3.0
100
AcDbArc
 50
270.0
 51
0.0
  0
LINE
  5
128
100
AcDbEntity
  8
1
100
AcDbLine
 10
56.649359
 20
-204.755516
 30
0.0
 11
60.649359
 21
-204.755516
 31
0.0
  0
LINE
  5
129
100
AcDbEntity
  8
1
100
AcDbLine
 10
72.649359
 20
-204.755516
 30
0.0
 11
76.649359
 21
-204.755516
 31
0.0
  0
LINE
  5
12A
100
AcDbEntity
  8
1
100
AcDbLine
 10
63.649359
 20
-207.272887
 30
0.0
 11
69.649359
 21
-207.272887
 31
0.0
  0
ARC
  5
12B
100
AcDbEntity
  8
1
100
AcDbCircle
 10
72.649359
 20
-204.272887
 30
0.0
 40
3.0
100
AcDbArc
 50
180.0
 51
270.0
  0
ARC
  5
12C
100
AcDbEntity
  8
1
100
AcDbCircle
 10
60.649359
 20
-204.272887
 30
0.0
 40
3.0
100
AcDbArc
 50
270.0
 51
360.0
  0
ARC
  5
12D
100
AcDbEntity
  8
1
100
AcDbCircle
 10
72.649359
 20
-201.755516
 30
0.0
 40
3.0
100
AcDbArc
 50
180.0
 51
270.0
  0
ARC
  5
12E
100
AcDbEntity
  8
1
100
AcDbCircle
 10
60.649359
 20
-201.755516
 30
0.0
 40
3.0
100
AcDbArc
 50
270.0
 51
360.0
  0
LINE
  5
12F
100
AcDbEntity
  8
1
100
AcDbLine
 10
65.649359
 20
-201.530674
 30
0.0
 11
67.649359
 21
-201.530674
 31
0.0
  0
ARC
  5
130
100
AcDbEntity
  8
1
100
AcDbCircle
 10
67.649359
 20
-199.530674
 30
0.0
 40
2.0
100
AcDbArc
 50
270.0
 51
360.0
  0
ARC
  5
131
100
AcDbEntity
  8
1
100
AcDbCircle
 10
65.649359
 20
-199.530674
 30
0.0
 40
2.0
100
AcDbArc
 50
180.0
 51
270.0
  0
LINE
  5
132
100
AcDbEntity
  8
1
100
AcDbLine
 10
-149.785617
 20
150.242823
 30
0.0
 11
-158.350641
 21
150.242823
 31
0.0
  0
LINE
  5
133
100
AcDbEntity
  8
1
100
AcDbLine
 10
-149.785617
 20
130.242823
 30
0.0
 11
-158.350641
 21
130.242823
 31
0.0
  0
LINE
  5
134
100
AcDbEntity
  8
1
100
AcDbLine
 10
-154.350641
 20
135.658796
 30
0.0
 11
-154.350641
 21
137.242823
 31
0.0
  0
LINE
  5
135
100
AcDbEntity
  8
1
100
AcDbLine
 10
-154.350641
 20
143.242823
 30
0.0
 11
-154.350641
 21
144.826849
 31
0.0
  0
LINE
  5
136
100
AcDbEntity
  8
1
100
AcDbLine
 10
-154.300641
 20
117.617823
 30
0.0
 11
-158.350641
 21
117.617823
 31
0.0
  0
LINE
  5
137
100
AcDbEntity
  8
1
100
AcDbLine
 10
-154.300641
 20
162.867823
 30
0.0
 11
-158.350641
 21
162.867823
 31
0.0
  0
LINE
  5
138
100
AcDbEntity
  8
1
100
AcDbLine
 10
-154.300641
 20
162.867823
 30
0.0
 11
-152.850919
 21
162.031444
 31
0.0
  0
LINE
  5
139
100
AcDbEntity
  8
1
100
AcDbLine
 10
-154.300641
 20
117.617823
 30
0.0
 11
-152.850919
 21
118.454201
 31
0.0
  0
ARC
  5
13A
100
AcDbEntity
  8
1
100
AcDbCircle
 10
-153.350641
 20
161.165259
 30
0.0
 40
1.0
100
AcDbArc
 50
35.279384
 51
60.018361
  0
ARC
  5
13B
100
AcDbEntity
  8
1
100
AcDbCircle
 10
-153.350641
 20
119.320386
 30
0.0
 40
1.0
100
AcDbArc
 50
299.981639
 51
324.720616
  0
LINE
  5
13C
100
AcDbEntity
  8
1
100
AcDbLine
 10
-237.350641
 20
161.742823
 30
0.0
 11
-228.350641
 21
161.742823
 31
0.0
  0
LINE
  5
13D
100
AcDbEntity
  8
1
100
AcDbLine
 10
-237.350641
 20
118.742823
 30
0.0
 11
-228.350641
 21
118.742823
 31
0.0
  0
LINE
  5
13E
100
AcDbEntity
  8
1
100
AcDbLine
 10
-238.350641
 20
160.742823
 30
0.0
 11
-237.350641
 21
161.742823
 31
0.0
  0
LINE
  5
13F
100
AcDbEntity
  8
1
100
AcDbLine
 10
-238.350641
 20
119.742823
 30
0.0
 11
-237.350641
 21
118.742823
 31
0.0
  0
LINE
  5
140
100
AcDbEntity
  8
1
100
AcDbLine
 10
-238.350641
 20
160.742823
 30
0.0
 11
-228.350641
 21
160.742823
 31
0.0
  0
LINE
  5
141
100
AcDbEntity
  8
1
100
AcDbLine
 10
-238.350641
 20
119.742823
 30
0.0
 11
-228.350641
 21
119.742823
 31
0.0
  0
LINE
  5
142
100
AcDbEntity
  8
1
100
AcDbLine
 10
-238.350641
 20
119.742823
 30
0.0
 11
-238.350641
 21
127.173515
 31
0.0
  0
LINE
  5
143
100
AcDbEntity
  8
1
100
AcDbLine
 10
-238.350641
 20
153.31213
 30
0.0
 11
-238.350641
 21
160.742823
 31
0.0
  0
ARC
  5
144
100
AcDbEntity
  8
1
100
AcDbCircle
 10
-234.350641
 20
153.31213
 30
0.0
 40
4.0
100
AcDbArc
 50
180.0
 51
250.528779
  0
ARC
  5
145
100
AcDbEntity
  8
1
100
AcDbCircle
 10
-237.350641
 20
144.826849
 30
0.0
 40
5.0
100
AcDbArc
 50
0.0
 51
70.528779
  0
ARC
  5
146
100
AcDbEntity
  8
1
100
AcDbCircle
 10
-234.350641
 20
127.173515
 30
0.0
 40
4.0
100
AcDbArc
 50
109.471221
 51
180.0
  0
ARC
  5
147
100
AcDbEntity
  8
1
100
AcDbCircle
 10
-237.350641
 20
135.658796
 30
0.0
 40
5.0
100
AcDbArc
 50
289.471221
 51
360.0
  0
LINE
  5
148
100
AcDbEntity
  8
1
100
AcDbLine
 10
-238.350641
 20
139.242823
 30
0.0
 11
-238.350641
 21
141.242823
 31
0.0
  0
LINE
  5
149
100
AcDbEntity
  8
1
100
AcDbLine
 10
-236.350641
 20
143.242823
 30
0.0
 11
-228.350641
 21
143.242823
 31
0.0
  0
LINE
  5
14A
100
AcDbEntity
  8
1
100
AcDbLine
 10
-236.350641
 20
137.242823
 30
0.0
 11
-228.350641
 21
137.242823
 31
0.0
  0
ARC
  5
14B
100
AcDbEntity
  8
1
100
AcDbCircle
 10
-236.350641
 20
141.242823
 30
0.0
 40
2.0
100
AcDbArc
 50
90.0
 51
180.0
  0
ARC
  5
14C
100
AcDbEntity
  8
1
100
AcDbCircle
 10
-236.350641
 20
139.242823
 30
0.0
 40
2.0
100
AcDbArc
 50
180.0
 51
270.0
  0
LINE
  5
14D
100
AcDbEntity
  8
1
100
AcDbLine
 10
-232.350641
 20
148.635323
 30
0.0
 11
-228.350641
 21
148.635323
 31
0.0
  0
LINE
  5
14E
100
AcDbEntity
  8
1
100
AcDbLine
 10
-232.350641
 20
131.850323
 30
0.0
 11
-228.350641
 21
131.850323
 31
0.0
  0
LINE
  5
14F
100
AcDbEntity
  8
1
100
AcDbLine
 10
-236.915665
 20
150.242823
 30
0.0
 11
-228.350641
 21
150.242823
 31
0.0
  0
LINE
  5
150
100
AcDbEntity
  8
1
100
AcDbLine
 10
-236.915665
 20
130.242823
 30
0.0
 11
-228.350641
 21
130.242823
 31
0.0
  0
LINE
  5
151
100
AcDbEntity
  8
1
100
AcDbLine
 10
-232.350641
 20
135.658796
 30
0.0
 11
-232.350641
 21
137.242823
 31
0.0
  0
LINE
  5
152
100
AcDbEntity
  8
1
100
AcDbLine
 10
-232.350641
 20
143.242823
 30
0.0
 11
-232.350641
 21
144.826849
 31
0.0
  0
LINE
  5
153
100
AcDbEntity
  8
1
100
AcDbLine
 10
-232.400641
 20
117.617823
 30
0.0
 11
-228.350641
 21
117.617823
 31
0.0
  0
LINE
  5
154
100
AcDbEntity
  8
1
100
AcDbLine
 10
-232.400641
 20
162.867823
 30
0.0
 11
-228.350641
 21
162.867823
 31
0.0
  0
LINE
  5
155
100
AcDbEntity
  8
1
100
AcDbLine
 10
-232.400641
 20
162.867823
 30
0.0
 11
-233.850364
 21
162.031444
 31
0.0
  0
LINE
  5
156
100
AcDbEntity
  8
1
100
AcDbLine
 10
-232.400641
 20
117.617823
 30
0.0
 11
-233.850364
 21
118.454201
 31
0.0
  0
ARC
  5
157
100
AcDbEntity
  8
1
100
AcDbCircle
 10
-233.350641
 20
161.165259
 30
0.0
 40
1.0
100
AcDbArc
 50
119.981639
 51
144.720616
  0
ARC
  5
158
100
AcDbEntity
  8
1
100
AcDbCircle
 10
-233.350641
 20
119.320386
 30
0.0
 40
1.0
100
AcDbArc
 50
215.279384
 51
240.018361
  0
LINE
  5
159
100
AcDbEntity
  8
1
100
AcDbLine
 10
44.024359
 20
-187.805516
 30
0.0
 11
44.024359
 21
-109.705516
 31
0.0
  0
LINE
  5
15A
100
AcDbEntity
  8
1
100
AcDbLine
 10
89.274359
 20
-187.805516
 30
0.0
 11
89.274359
 21
-109.705516
 31
0.0
  0
LINE
  5
15B
100
AcDbEntity
  8
1
100
AcDbLine
 10
89.274359
 20
-109.705516
 30
0.0
 11
88.43798
 21
-108.255794
 31
0.0
  0
LINE
  5
15C
100
AcDbEntity
  8
1
100
AcDbLine
 10
44.024359
 20
-109.705516
 30
0.0
 11
44.860737
 21
-108.255794
 31
0.0
  0
ARC
  5
15D
100
AcDbEntity
  8
1
100
AcDbCircle
 10
87.571795
 20
-108.755516
 30
0.0
 40
1.0
100
AcDbArc
 50
29.981639
 51
54.720616
  0
ARC
  5
15E
100
AcDbEntity
  8
1
100
AcDbCircle
 10
45.726923
 20
-108.755516
 30
0.0
 40
1.0
100
AcDbArc
 50
125.279384
 51
150.018361
  0
LINE
  5
15F
100
AcDbEntity
  8
1
100
AcDbLine
 10
89.274359
 20
-187.805516
 30
0.0
 11
88.43798
 21
-189.255239
 31
0.0
  0
LINE
  5
160
100
AcDbEntity
  8
1
100
AcDbLine
 10
44.024359
 20
-187.805516
 30
0.0
 11
44.860737
 21
-189.255239
 31
0.0
  0
ARC
  5
161
100
AcDbEntity
  8
1
100
AcDbCircle
 10
87.571795
 20
-188.755516
 30
0.0
 40
1.0
100
AcDbArc
 50
305.279384
 51
330.018361
  0
ARC
  5
162
100
AcDbEntity
  8
1
100
AcDbCircle
 10
45.726923
 20
-188.755516
 30
0.0
 40
1.0
100
AcDbArc
 50
209.981639
 51
234.720616
  0
CIRCLE
  5
163
100
AcDbEntity
  8
1
100
AcDbCircle
 10
-193.350641
 20
-148.755516
 30
0.0
 40
28.0
  0
CIRCLE
  5
164
100
AcDbEntity
  8
1
100
AcDbCircle
 10
-193.350641
 20
-148.755516
 30
0.0
 40
32.0
  0
CIRCLE
  5
165
100
AcDbEntity
  8
1
100
AcDbCircle
 10
-193.350641
 20
-148.755516
 30
0.0
 40
39.05
  0
CIRCLE
  5
166
100
AcDbEntity
  8
1
100
AcDbCircle
 10
-193.350641
 20
-148.755516
 30
0.0
 40
41.0
  0
ARC
  5
167
100
AcDbEntity
  8
1
100
AcDbCircle
 10
-168.350641
 20
-99.765721
 30
0.0
 40
10.0
100
AcDbArc
 50
180.0
 51
242.964308
  0
ARC
  5
168
100
AcDbEntity
  8
1
100
AcDbCircle
 10
-218.350641
 20
-99.765721
 30
0.0
 40
10.0
100
AcDbArc
 50
297.035692
 51
360.0
  0
ARC
  5
169
100
AcDbEntity
  8
1
100
AcDbCircle
 10
86.649359
 20
-103.672957
 30
0.0
 40
5.0
100
AcDbArc
 50
180.0
 51
270.0
  0
ARC
  5
16A
100
AcDbEntity
  8
1
100
AcDbCircle
 10
46.649359
 20
-103.672957
 30
0.0
 40
5.0
100
AcDbArc
 50
270.0
 51
360.0
  0
ARC
  5
16B
100
AcDbEntity
  8
1
100
AcDbCircle
 10
72.649359
 20
-184.755516
 30
0.0
 40
4.0
100
AcDbArc
 50
0.0
 51
90.0
  0
ARC
  5
16C
100
AcDbEntity
  8
1
100
AcDbCircle
 10
60.649359
 20
-184.755516
 30
0.0
 40
4.0
100
AcDbArc
 50
90.0
 51
180.0
  0
ARC
  5
16D
100
AcDbEntity
  8
1
100
AcDbCircle
 10
79.649359
 20
-185.232598
 30
0.0
 40
3.0
100
AcDbArc
 50
180.0
 51
270.0
  0
ARC
  5
16E
100
AcDbEntity
  8
1
100
AcDbCircle
 10
53.649359
 20
-185.232598
 30
0.0
 40
3.0
100
AcDbArc
 50
270.0
 51
360.0
  0
ARC
  5
16F
100
AcDbEntity
  8
1
100
AcDbCircle
 10
72.649359
 20
-183.755516
 30
0.0
 40
3.0
100
AcDbArc
 50
90.0
 51
180.0
  0
ARC
  5
170
100
AcDbEntity
  8
1
100
AcDbCircle
 10
60.649359
 20
-183.755516
 30
0.0
 40
3.0
100
AcDbArc
 50
0.0
 51
90.0
  0
LINE
  5
171
100
AcDbEntity
  8
1
100
AcDbLine
 10
75.041859
 20
-184.148016
 30
0.0
 11
75.041859
 21
-183.148016
 31
0.0
  0
LINE
  5
172
100
AcDbEntity
  8
1
100
AcDbLine
 10
58.256859
 20
-184.148016
 30
0.0
 11
58.256859
 21
-183.148016
 31
0.0
  0
ARC
  5
173
100
AcDbEntity
  8
1
100
AcDbCircle
 10
72.649359
 20
-183.148016
 30
0.0
 40
2.3925
100
AcDbArc
 50
0.0
 51
90.0
  0
ARC
  5
174
100
AcDbEntity
  8
1
100
AcDbCircle
 10
60.649359
 20
-183.148016
 30
0.0
 40
2.3925
100
AcDbArc
 50
90.0
 51
180.0
  0
ARC
  5
175
100
AcDbEntity
  8
1
100
AcDbCircle
 10
79.649359
 20
-102.765721
 30
0.0
 40
3.0
100
AcDbArc
 50
90.0
 51
180.0
  0
ARC
  5
176
100
AcDbEntity
  8
1
100
AcDbCircle
 10
53.649359
 20
-102.765721
 30
0.0
 40
3.0
100
AcDbArc
 50
360.0
 51
90.0
  0
LINE
  5
177
100
AcDbEntity
  8
1
100
AcDbLine
 10
51.649359
 20
-108.672957
 30
0.0
 11
53.649359
 21
-108.672957
 31
0.0
  0
LINE
  5
178
100
AcDbEntity
  8
1
100
AcDbLine
 10
79.649359
 20
-108.672957
 30
0.0
 11
81.649359
 21
-108.672957
 31
0.0
  0
ARC
  5
179
100
AcDbEntity
  8
1
100
AcDbCircle
 10
72.649359
 20
-113.755516
 30
0.0
 40
3.0
100
AcDbArc
 50
180.0
 51
270.0
  0
ARC
  5
17A
100
AcDbEntity
  8
1
100
AcDbCircle
 10
60.649359
 20
-113.755516
 30
0.0
 40
3.0
100
AcDbArc
 50
270.0
 51
360.0
  0
ARC
  5
17B
100
AcDbEntity
  8
1
100
AcDbCircle
 10
72.649359
 20
-112.755516
 30
0.0
 40
4.0
100
AcDbArc
 50
270.0
 51
360.0
  0
ARC
  5
17C
100
AcDbEntity
  8
1
100
AcDbCircle
 10
60.649359
 20
-112.755516
 30
0.0
 40
4.0
100
AcDbArc
 50
180.0
 51
270.0
  0
LINE
  5
17D
100
AcDbEntity
  8
1
100
AcDbLine
 10
75.041859
 20
-114.255516
 30
0.0
 11
75.041859
 21
-114.363016
 31
0.0
  0
LINE
  5
17E
100
AcDbEntity
  8
1
100
AcDbLine
 10
58.256859
 20
-114.255516
 30
0.0
 11
58.256859
 21
-114.363016
 31
0.0
  0
ARC
  5
17F
100
AcDbEntity
  8
1
100
AcDbCircle
 10
79.649359
 20
-111.672957
 30
0.0
 40
3.0
100
AcDbArc
 50
90.0
 51
180.0
  0
ARC
  5
180
100
AcDbEntity
  8
1
100
AcDbCircle
 10
53.649359
 20
-111.672957
 30
0.0
 40
3.0
100
AcDbArc
 50
360.0
 51
90.0
  0
ARC
  5
181
100
AcDbEntity
  8
1
100
AcDbCircle
 10
72.649359
 20
-114.363016
 30
0.0
 40
2.3925
100
AcDbArc
 50
270.0
 51
360.0
  0
ARC
  5
182
100
AcDbEntity
  8
1
100
AcDbCircle
 10
60.649359
 20
-114.363016
 30
0.0
 40
2.3925
100
AcDbArc
 50
180.0
 51
270.0
  0
LINE
  5
183
100
AcDbEntity
  8
1
100
AcDbLine
 10
76.685765
 20
-102.29977
 30
0.0
 11
75.041859
 21
-112.755516
 31
0.0
  0
LINE
  5
184
100
AcDbEntity
  8
1
100
AcDbLine
 10
56.612953
 20
-102.29977
 30
0.0
 11
58.256859
 21
-112.755516
 31
0.0
  0
ARC
  5
185
100
AcDbEntity
  8
1
100
AcDbCircle
 10
73.541859
 20
-114.255516
 30
0.0
 40
1.5
100
AcDbArc
 50
0.0
 51
90.0
  0
ARC
  5
186
100
AcDbEntity
  8
1
100
AcDbCircle
 10
59.756859
 20
-114.255516
 30
0.0
 40
1.5
100
AcDbArc
 50
90.0
 51
180.0
  0
LINE
  5
187
100
AcDbEntity
  8
2
  6
CENTER
 62
     2
100
AcDbLine
 10
-168.601904
 20
-36.359936
 30
0.0
 11
-168.601904
 21
-2.963518
 31
0.0
  0
LINE
  5
188
100
AcDbEntity
  8
2
  6
CENTER
 62
     2
100
AcDbLine
 10
41.900621
 20
-36.359936
 30
0.0
 11
41.900621
 21
-2.963518
 31
0.0
  0
LINE
  5
189
100
AcDbEntity
  8
2
100
AcDbLine
 10
-176.101904
 20
-24.755516
 30
0.0
 11
-176.101904
 21
-29.533828
 31
0.0
  0
LINE
  5
18A
100
AcDbEntity
  8
2
100
AcDbLine
 10
-176.101904
 20
-29.533828
 30
0.0
 11
-174.851904
 21
-30.255516
 31
0.0
  0
LINE
  5
18B
100
AcDbEntity
  8
2
100
AcDbLine
 10
-172.351904
 20
-24.755516
 30
0.0
 11
-172.351904
 21
-29.533828
 31
0.0
  0
ARC
  5
18C
100
AcDbEntity
  8
2
100
AcDbCircle
 10
-174.226904
 20
-27.123452
 30
0.0
 40
3.053774
100
AcDbArc
 50
232.121121
 51
307.878879
  0
ARC
  5
18D
100
AcDbEntity
  8
2
100
AcDbCircle
 10
-168.601904
 20
-18.927227
 30
0.0
 40
11.25
100
AcDbArc
 50
250.528781
 51
289.471223
  0
LINE
  5
18E
100
AcDbEntity
  8
2
100
AcDbLine
 10
-161.101904
 20
-24.755516
 30
0.0
 11
-161.101904
 21
-29.533828
 31
0.0
  0
LINE
  5
18F
100
AcDbEntity
  8
2
100
AcDbLine
 10
-161.101904
 20
-29.533828
 30
0.0
 11
-162.351904
 21
-30.255516
 31
0.0
  0
LINE
  5
190
100
AcDbEntity
  8
2
100
AcDbLine
 10
-162.351904
 20
-30.255516
 30
0.0
 11
-174.851904
 21
-30.255516
 31
0.0
  0
LINE
  5
191
100
AcDbEntity
  8
2
100
AcDbLine
 10
-164.851904
 20
-24.755516
 30
0.0
 11
-164.851904
 21
-29.533828
 31
0.0
  0
ARC
  5
192
100
AcDbEntity
  8
2
100
AcDbCircle
 10
-162.976904
 20
-27.123452
 30
0.0
 40
3.053774
100
AcDbArc
 50
232.121121
 51
307.878879
  0
LINE
  5
193
100
AcDbEntity
  8
2
100
AcDbLine
 10
-176.301904
 20
-22.755516
 30
0.0
 11
-176.301904
 21
-24.755516
 31
0.0
  0
LINE
  5
194
100
AcDbEntity
  8
2
100
AcDbLine
 10
-176.301904
 20
-24.755516
 30
0.0
 11
-160.901904
 21
-24.755516
 31
0.0
  0
LINE
  5
195
100
AcDbEntity
  8
2
100
AcDbLine
 10
-160.901904
 20
-24.755516
 30
0.0
 11
-160.901904
 21
-22.755516
 31
0.0
  0
LINE
  5
196
100
AcDbEntity
  8
2
100
AcDbLine
 10
-168.601904
 20
-24.755516
 30
0.0
 11
-168.101904
 21
-22.755516
 31
0.0
  0
LINE
  5
197
100
AcDbEntity
  8
2
100
AcDbLine
 10
-168.601904
 20
-22.755516
 30
0.0
 11
-169.101904
 21
-24.755516
 31
0.0
  0
LINE
  5
198
100
AcDbEntity
  8
2
100
AcDbLine
 10
34.200621
 20
-22.755516
 30
0.0
 11
34.200621
 21
-24.755516
 31
0.0
  0
LINE
  5
199
100
AcDbEntity
  8
2
100
AcDbLine
 10
34.200621
 20
-24.755516
 30
0.0
 11
49.600621
 21
-24.755516
 31
0.0
  0
LINE
  5
19A
100
AcDbEntity
  8
2
100
AcDbLine
 10
49.600621
 20
-24.755516
 30
0.0
 11
49.600621
 21
-22.755516
 31
0.0
  0
LINE
  5
19B
100
AcDbEntity
  8
2
100
AcDbLine
 10
35.400621
 20
-24.755516
 30
0.0
 11
35.400621
 21
-30.255516
 31
0.0
  0
LINE
  5
19C
100
AcDbEntity
  8
2
100
AcDbLine
 10
41.900621
 20
-24.755516
 30
0.0
 11
41.900621
 21
-29.533828
 31
0.0
  0
ARC
  5
19D
100
AcDbEntity
  8
2
100
AcDbCircle
 10
38.650621
 20
-22.576758
 30
0.0
 40
7.678759
100
AcDbArc
 50
244.96034
 51
295.03966
  0
LINE
  5
19E
100
AcDbEntity
  8
2
100
AcDbLine
 10
48.400621
 20
-24.755516
 30
0.0
 11
48.400621
 21
-30.255516
 31
0.0
  0
LINE
  5
19F
100
AcDbEntity
  8
2
100
AcDbLine
 10
48.400621
 20
-30.255516
 30
0.0
 11
35.400621
 21
-30.255516
 31
0.0
  0
ARC
  5
1A0
100
AcDbEntity
  8
2
100
AcDbCircle
 10
45.150621
 20
-22.576758
 30
0.0
 40
7.678759
100
AcDbArc
 50
244.96034
 51
295.03966
  0
CIRCLE
  5
1A1
100
AcDbEntity
  8
2
100
AcDbCircle
 10
-193.350641
 20
140.242823
 30
0.0
 40
11.0
  0
CIRCLE
  5
1A2
100
AcDbEntity
  8
2
100
AcDbCircle
 10
-193.350641
 20
140.242823
 30
0.0
 40
10.0
  0
ARC
  5
1A3
100
AcDbEntity
  8
2
100
AcDbCircle
 10
-193.350641
 20
140.242823
 30
0.0
 40
18.0
100
AcDbArc
 50
16.12762
 51
73.87238
  0
ARC
  5
1A4
100
AcDbEntity
  8
2
100
AcDbCircle
 10
-193.350641
 20
140.242823
 30
0.0
 40
18.0
100
AcDbArc
 50
106.12762
 51
343.87238
  0
LINE
  5
1A5
100
AcDbEntity
  8
2
100
AcDbLine
 10
-198.350641
 20
157.534439
 30
0.0
 11
-198.350641
 21
166.242823
 31
0.0
  0
LINE
  5
1A6
100
AcDbEntity
  8
2
100
AcDbLine
 10
-188.350641
 20
157.534439
 30
0.0
 11
-188.350641
 21
166.242823
 31
0.0
  0
LINE
  5
1A7
100
AcDbEntity
  8
2
100
AcDbLine
 10
-176.059025
 20
145.242823
 30
0.0
 11
-167.350641
 21
145.242823
 31
0.0
  0
LINE
  5
1A8
100
AcDbEntity
  8
2
100
AcDbLine
 10
-176.059025
 20
135.242823
 30
0.0
 11
-167.350641
 21
135.242823
 31
0.0
  0
LINE
  5
1A9
100
AcDbEntity
  8
2
100
AcDbLine
 10
-196.350641
 20
168.242823
 30
0.0
 11
-190.350641
 21
168.242823
 31
0.0
  0
LINE
  5
1AA
100
AcDbEntity
  8
2
100
AcDbLine
 10
-165.350641
 20
137.242823
 30
0.0
 11
-165.350641
 21
143.242823
 31
0.0
  0
ARC
  5
1AB
100
AcDbEntity
  8
2
100
AcDbCircle
 10
-167.350641
 20
143.242823
 30
0.0
 40
2.0
100
AcDbArc
 50
0.0
 51
90.0
  0
ARC
  5
1AC
100
AcDbEntity
  8
2
100
AcDbCircle
 10
-167.350641
 20
137.242823
 30
0.0
 40
2.0
100
AcDbArc
 50
270.0
 51
360.0
  0
ARC
  5
1AD
100
AcDbEntity
  8
2
100
AcDbCircle
 10
-190.350641
 20
166.242823
 30
0.0
 40
2.0
100
AcDbArc
 50
0.0
 51
90.0
  0
ARC
  5
1AE
100
AcDbEntity
  8
2
100
AcDbCircle
 10
-196.350641
 20
166.242823
 30
0.0
 40
2.0
100
AcDbArc
 50
90.0
 51
180.0
  0
ARC
  5
1AF
100
AcDbEntity
  8
2
100
AcDbCircle
 10
-193.350641
 20
140.242823
 30
0.0
 40
18.0
100
AcDbArc
 50
88.314587
 51
91.685413
  0
ARC
  5
1B0
100
AcDbEntity
  8
2
100
AcDbCircle
 10
-193.350641
 20
140.242823
 30
0.0
 40
18.0
100
AcDbArc
 50
358.314587
 51
1.685413
  0
LINE
  5
1B1
100
AcDbEntity
  8
2
100
AcDbLine
 10
-183.033987
 20
147.353846
 30
0.0
 11
-180.434233
 21
148.854815
 31
0.0
  0
LINE
  5
1B2
100
AcDbEntity
  8
2
100
AcDbLine
 10
-182.033987
 20
145.621795
 30
0.0
 11
-179.434233
 21
147.122764
 31
0.0
  0
LINE
  5
1B3
100
AcDbEntity
  8
2
100
AcDbLine
 10
-187.971669
 20
151.559476
 30
0.0
 11
-186.4707
 21
154.15923
 31
0.0
  0
LINE
  5
1B4
100
AcDbEntity
  8
2
100
AcDbLine
 10
-186.239618
 20
150.559476
 30
0.0
 11
-184.738649
 21
153.15923
 31
0.0
  0
ARC
  5
1B5
100
AcDbEntity
  8
2
100
AcDbCircle
 10
-193.350641
 20
140.242823
 30
0.0
 40
16.0
100
AcDbArc
 50
58.151428
 51
61.848572
  0
ARC
  5
1B6
100
AcDbEntity
  8
2
100
AcDbCircle
 10
-193.350641
 20
140.242823
 30
0.0
 40
16.0
100
AcDbArc
 50
28.151428
 51
31.848572
  0
ARC
  5
1B7
100
AcDbEntity
  8
2
100
AcDbCircle
 10
-193.350641
 20
140.242823
 30
0.0
 40
12.0
100
AcDbArc
 50
357.795772
 51
2.204228
  0
ARC
  5
1B8
100
AcDbEntity
  8
2
100
AcDbCircle
 10
-193.350641
 20
140.242823
 30
0.0
 40
12.0
100
AcDbArc
 50
27.707557
 51
32.292443
  0
ARC
  5
1B9
100
AcDbEntity
  8
2
100
AcDbCircle
 10
-193.350641
 20
140.242823
 30
0.0
 40
12.0
100
AcDbArc
 50
57.707557
 51
62.292443
  0
ARC
  5
1BA
100
AcDbEntity
  8
2
100
AcDbCircle
 10
-193.350641
 20
140.242823
 30
0.0
 40
12.0
100
AcDbArc
 50
87.795772
 51
92.204228
  0
LINE
  5
1BB
100
AcDbEntity
  8
2
100
AcDbLine
 10
-194.850641
 20
153.233204
 30
0.0
 11
-194.850641
 21
157.235468
 31
0.0
  0
LINE
  5
1BC
100
AcDbEntity
  8
2
100
AcDbLine
 10
-191.850641
 20
153.233204
 30
0.0
 11
-191.850641
 21
157.235468
 31
0.0
  0
LINE
  5
1BD
100
AcDbEntity
  8
2
100
AcDbLine
 10
-180.36026
 20
141.742823
 30
0.0
 11
-176.357996
 21
141.742823
 31
0.0
  0
LINE
  5
1BE
100
AcDbEntity
  8
2
100
AcDbLine
 10
-180.36026
 20
138.742823
 30
0.0
 11
-176.357996
 21
138.742823
 31
0.0
  0
ARC
  5
1BF
100
AcDbEntity
  8
2
100
AcDbCircle
 10
-180.36026
 20
140.742823
 30
0.0
 40
1.0
100
AcDbArc
 50
90.0
 51
182.204228
  0
ARC
  5
1C0
100
AcDbEntity
  8
2
100
AcDbCircle
 10
-180.36026
 20
139.742823
 30
0.0
 40
1.0
100
AcDbArc
 50
177.795772
 51
270.0
  0
ARC
  5
1C1
100
AcDbEntity
  8
2
100
AcDbCircle
 10
-176.357996
 20
139.742823
 30
0.0
 40
1.0
100
AcDbArc
 50
270.0
 51
358.314587
  0
ARC
  5
1C2
100
AcDbEntity
  8
2
100
AcDbCircle
 10
-176.357996
 20
140.742823
 30
0.0
 40
1.0
100
AcDbArc
 50
1.685413
 51
90.0
  0
ARC
  5
1C3
100
AcDbEntity
  8
2
100
AcDbCircle
 10
-192.850641
 20
157.235468
 30
0.0
 40
1.0
100
AcDbArc
 50
0.0
 51
88.314587
  0
ARC
  5
1C4
100
AcDbEntity
  8
2
100
AcDbCircle
 10
-193.850641
 20
157.235468
 30
0.0
 40
1.0
100
AcDbArc
 50
91.685413
 51
180.0
  0
ARC
  5
1C5
100
AcDbEntity
  8
2
100
AcDbCircle
 10
-193.850641
 20
153.233204
 30
0.0
 40
1.0
100
AcDbArc
 50
180.0
 51
272.204228
  0
ARC
  5
1C6
100
AcDbEntity
  8
2
100
AcDbCircle
 10
-192.850641
 20
153.233204
 30
0.0
 40
1.0
100
AcDbArc
 50
267.795772
 51
360.0
  0
ARC
  5
1C7
100
AcDbEntity
  8
2
100
AcDbCircle
 10
-182.283987
 20
146.054808
 30
0.0
 40
0.5
100
AcDbArc
 50
207.707557
 51
300.0
  0
ARC
  5
1C8
100
AcDbEntity
  8
2
100
AcDbCircle
 10
-182.783987
 20
146.920833
 30
0.0
 40
0.5
100
AcDbArc
 50
120.0
 51
212.292443
  0
ARC
  5
1C9
100
AcDbEntity
  8
2
100
AcDbCircle
 10
-179.684233
 20
147.555777
 30
0.0
 40
0.5
100
AcDbArc
 50
300.0
 51
28.151428
  0
ARC
  5
1CA
100
AcDbEntity
  8
2
100
AcDbCircle
 10
-180.184233
 20
148.421802
 30
0.0
 40
0.5
100
AcDbArc
 50
31.848572
 51
120.0
  0
ARC
  5
1CB
100
AcDbEntity
  8
2
100
AcDbCircle
 10
-186.672631
 20
150.809476
 30
0.0
 40
0.5
100
AcDbArc
 50
237.707557
 51
330.0
  0
ARC
  5
1CC
100
AcDbEntity
  8
2
100
AcDbCircle
 10
-187.538656
 20
151.309476
 30
0.0
 40
0.5
100
AcDbArc
 50
150.0
 51
242.292443
  0
ARC
  5
1CD
100
AcDbEntity
  8
2
100
AcDbCircle
 10
-186.037687
 20
153.90923
 30
0.0
 40
0.5
100
AcDbArc
 50
61.848572
 51
150.0
  0
ARC
  5
1CE
100
AcDbEntity
  8
2
100
AcDbCircle
 10
-185.171662
 20
153.40923
 30
0.0
 40
0.5
100
AcDbArc
 50
330.0
 51
58.151428
  0
ARC
  5
1CF
100
AcDbEntity
  8
2
100
AcDbCircle
 10
-193.350641
 20
140.242823
 30
0.0
 40
17.0
100
AcDbArc
 50
13.608961
 51
76.391039
  0
ARC
  5
1D0
100
AcDbEntity
  8
2
100
AcDbCircle
 10
-193.350641
 20
140.242823
 30
0.0
 40
17.0
100
AcDbArc
 50
103.608961
 51
346.391039
  0
LINE
  5
1D1
100
AcDbEntity
  8
2
100
AcDbLine
 10
-189.350641
 20
156.765534
 30
0.0
 11
-189.350641
 21
166.242823
 31
0.0
  0
LINE
  5
1D2
100
AcDbEntity
  8
2
100
AcDbLine
 10
-196.350641
 20
167.242823
 30
0.0
 11
-190.350641
 21
167.242823
 31
0.0
  0
LINE
  5
1D3
100
AcDbEntity
  8
2
100
AcDbLine
 10
-197.350641
 20
156.765534
 30
0.0
 11
-197.350641
 21
166.242823
 31
0.0
  0
LINE
  5
1D4
100
AcDbEntity
  8
2
100
AcDbLine
 10
-176.82793
 20
144.242823
 30
0.0
 11
-167.350641
 21
144.242823
 31
0.0
  0
LINE
  5
1D5
100
AcDbEntity
  8
2
100
AcDbLine
 10
-166.350641
 20
137.242823
 30
0.0
 11
-166.350641
 21
143.242823
 31
0.0
  0
LINE
  5
1D6
100
AcDbEntity
  8
2
100
AcDbLine
 10
-176.82793
 20
136.242823
 30
0.0
 11
-167.350641
 21
136.242823
 31
0.0
  0
ARC
  5
1D7
100
AcDbEntity
  8
2
100
AcDbCircle
 10
-167.350641
 20
143.242823
 30
0.0
 40
1.0
100
AcDbArc
 50
0.0
 51
90.0
  0
ARC
  5
1D8
100
AcDbEntity
  8
2
100
AcDbCircle
 10
-167.350641
 20
137.242823
 30
0.0
 40
1.0
100
AcDbArc
 50
270.0
 51
0.0
  0
ARC
  5
1D9
100
AcDbEntity
  8
2
100
AcDbCircle
 10
-190.350641
 20
166.242823
 30
0.0
 40
1.0
100
AcDbArc
 50
0.0
 51
90.0
  0
ARC
  5
1DA
100
AcDbEntity
  8
2
100
AcDbCircle
 10
-196.350641
 20
166.242823
 30
0.0
 40
1.0
100
AcDbArc
 50
90.0
 51
180.0
  0
LINE
  5
1DB
100
AcDbEntity
  8
2
100
AcDbLine
 10
-188.350641
 20
157.534439
 30
0.0
 11
-189.350641
 21
156.765534
 31
0.0
  0
LINE
  5
1DC
100
AcDbEntity
  8
2
100
AcDbLine
 10
-197.350641
 20
156.765534
 30
0.0
 11
-198.350641
 21
157.534439
 31
0.0
  0
LINE
  5
1DD
100
AcDbEntity
  8
2
100
AcDbLine
 10
-176.82793
 20
144.242823
 30
0.0
 11
-176.059025
 21
145.242823
 31
0.0
  0
LINE
  5
1DE
100
AcDbEntity
  8
2
100
AcDbLine
 10
-176.82793
 20
136.242823
 30
0.0
 11
-176.059025
 21
135.242823
 31
0.0
  0
LINE
  5
1DF
100
AcDbEntity
  8
2
100
AcDbLine
 10
-202.515793
 20
144.242823
 30
0.0
 11
-189.007971
 21
144.242823
 31
0.0
  0
LINE
  5
1E0
100
AcDbEntity
  8
2
100
AcDbLine
 10
-202.515793
 20
136.242823
 30
0.0
 11
-189.007971
 21
136.242823
 31
0.0
  0
LINE
  5
1E1
100
AcDbEntity
  8
2
100
AcDbLine
 10
-183.378806
 20
139.492823
 30
0.0
 11
-189.007971
 21
136.242823
 31
0.0
  0
LINE
  5
1E2
100
AcDbEntity
  8
2
100
AcDbLine
 10
-183.378806
 20
140.992823
 30
0.0
 11
-189.007971
 21
144.242823
 31
0.0
  0
LINE
  5
1E3
100
AcDbEntity
  8
2
100
AcDbLine
 10
-202.091276
 20
143.992823
 30
0.0
 11
-189.496862
 21
143.992823
 31
0.0
  0
LINE
  5
1E4
100
AcDbEntity
  8
2
100
AcDbLine
 10
-202.091276
 20
136.492823
 30
0.0
 11
-189.496862
 21
136.492823
 31
0.0
  0
ARC
  5
1E5
100
AcDbEntity
  8
2
100
AcDbCircle
 10
-193.350641
 20
140.242823
 30
0.0
 40
9.511109
100
AcDbArc
 50
156.779186
 51
203.220814
  0
ARC
  5
1E6
100
AcDbEntity
  8
2
100
AcDbCircle
 10
-193.350641
 20
140.242823
 30
0.0
 40
9.511109
100
AcDbArc
 50
356.952608
 51
3.047392
  0
LINE
  5
1E7
100
AcDbEntity
  8
2
100
AcDbLine
 10
-202.091276
 20
143.992823
 30
0.0
 11
-202.515793
 21
144.242823
 31
0.0
  0
LINE
  5
1E8
100
AcDbEntity
  8
2
100
AcDbLine
 10
-202.091276
 20
136.492823
 30
0.0
 11
-202.515793
 21
136.242823
 31
0.0
  0
LINE
  5
1E9
100
AcDbEntity
  8
2
100
AcDbLine
 10
-189.496862
 20
143.992823
 30
0.0
 11
-183.852982
 21
140.748452
 31
0.0
  0
LINE
  5
1EA
100
AcDbEntity
  8
2
100
AcDbLine
 10
-183.852982
 20
139.737193
 30
0.0
 11
-189.496862
 21
136.492823
 31
0.0
  0
LINE
  5
1EB
100
AcDbEntity
  8
2
100
AcDbLine
 10
-183.852982
 20
140.748452
 30
0.0
 11
-183.378806
 21
140.992823
 31
0.0
  0
LINE
  5
1EC
100
AcDbEntity
  8
2
100
AcDbLine
 10
-183.852982
 20
139.737193
 30
0.0
 11
-183.378806
 21
139.492823
 31
0.0
  0
LINE
  5
1ED
100
AcDbEntity
  8
2
100
AcDbLine
 10
-189.496862
 20
136.492823
 30
0.0
 11
-189.007971
 21
136.242823
 31
0.0
  0
LINE
  5
1EE
100
AcDbEntity
  8
2
100
AcDbLine
 10
-189.496862
 20
143.992823
 30
0.0
 11
-189.007971
 21
144.242823
 31
0.0
  0
LINE
  5
1EF
100
AcDbEntity
  8
2
  6
CENTER
 62
     2
100
AcDbLine
 10
-181.473308
 20
152.120156
 30
0.0
 11
-172.09217
 21
161.501294
 31
0.0
  0
LINE
  5
1F0
100
AcDbEntity
  8
2
  6
CENTER
 62
     2
100
AcDbLine
 10
-205.227974
 20
152.120156
 30
0.0
 11
-214.609112
 21
161.501294
 31
0.0
  0
LINE
  5
1F1
100
AcDbEntity
  8
2
  6
CENTER
 62
     2
100
AcDbLine
 10
-205.227974
 20
128.365489
 30
0.0
 11
-214.609112
 21
118.984352
 31
0.0
  0
ARC
  5
1F2
100
AcDbEntity
  8
2
100
AcDbCircle
 10
-199.541849
 20
172.685162
 30
0.0
 40
1.94234
100
AcDbArc
 50
270.0
 51
360.0
  0
ARC
  5
1F3
100
AcDbEntity
  8
2
100
AcDbCircle
 10
-201.571594
 20
174.44298
 30
0.0
 40
1.94234
100
AcDbArc
 50
90.0
 51
180.0
  0
ARC
  5
1F4
100
AcDbEntity
  8
2
100
AcDbCircle
 10
-200.707253
 20
172.665739
 30
0.0
 40
0.97117
100
AcDbArc
 50
180.0
 51
270.0
  0
ARC
  5
1F5
100
AcDbEntity
  8
2
100
AcDbCircle
 10
-200.40619
 20
174.462403
 30
0.0
 40
0.97117
100
AcDbArc
 50
0.0
 51
90.0
  0
LINE
  5
1F6
100
AcDbEntity
  8
2
100
AcDbLine
 10
-194.948216
 20
175.433573
 30
0.0
 11
-195.152161
 21
170.742823
 31
0.0
  0
LINE
  5
1F7
100
AcDbEntity
  8
2
100
AcDbLine
 10
-191.753067
 20
175.433573
 30
0.0
 11
-191.549121
 21
170.742823
 31
0.0
  0
LINE
  5
1F8
100
AcDbEntity
  8
2
100
AcDbLine
 10
-194.948216
 20
175.433573
 30
0.0
 11
-194.074163
 21
170.742823
 31
0.0
  0
LINE
  5
1F9
100
AcDbEntity
  8
2
100
AcDbLine
 10
-193.350641
 20
173.005648
 30
0.0
 11
-192.720889
 21
176.385319
 31
0.0
  0
LINE
  5
1FA
100
AcDbEntity
  8
2
100
AcDbLine
 10
-196.579781
 20
176.385319
 30
0.0
 11
-193.980394
 21
176.385319
 31
0.0
  0
LINE
  5
1FB
100
AcDbEntity
  8
2
100
AcDbLine
 10
-194.074163
 20
170.742823
 30
0.0
 11
-192.62712
 21
170.742823
 31
0.0
  0
ARC
  5
1FC
100
AcDbEntity
  8
2
100
AcDbCircle
 10
-185.129688
 20
172.685162
 30
0.0
 40
1.94234
100
AcDbArc
 50
270.0
 51
360.0
  0
ARC
  5
1FD
100
AcDbEntity
  8
2
100
AcDbCircle
 10
-185.99403
 20
172.665739
 30
0.0
 40
0.97117
100
AcDbArc
 50
270.0
 51
360.0
  0
LINE
  5
1FE
100
AcDbEntity
  8
2
100
AcDbLine
 10
-187.266262
 20
174.462403
 30
0.0
 11
-187.266262
 21
172.665739
 31
0.0
  0
ARC
  5
1FF
100
AcDbEntity
  8
2
100
AcDbCircle
 10
-187.159433
 20
174.44298
 30
0.0
 40
1.94234
100
AcDbArc
 50
90.0
 51
180.0
  0
LINE
  5
200
100
AcDbEntity
  8
2
100
AcDbLine
 10
-189.101773
 20
174.44298
 30
0.0
 11
-189.101773
 21
172.685162
 31
0.0
  0
LINE
  5
201
100
AcDbEntity
  8
2
100
AcDbLine
 10
-191.549121
 20
170.742823
 30
0.0
 11
-189.71361
 21
170.742823
 31
0.0
  0
LINE
  5
202
100
AcDbEntity
  8
2
100
AcDbLine
 10
-182.371566
 20
170.878786
 30
0.0
 11
-177.952743
 21
170.878786
 31
0.0
  0
LINE
  5
203
100
AcDbEntity
  8
2
100
AcDbLine
 10
-180.536055
 20
173.054207
 30
0.0
 11
-177.952743
 21
173.054207
 31
0.0
  0
LINE
  5
204
100
AcDbEntity
  8
2
100
AcDbLine
 10
-180.536055
 20
174.073935
 30
0.0
 11
-177.952743
 21
174.073935
 31
0.0
  0
LINE
  5
205
100
AcDbEntity
  8
2
100
AcDbLine
 10
-180.536055
 20
171.898515
 30
0.0
 11
-180.536055
 21
173.054207
 31
0.0
  0
LINE
  5
206
100
AcDbEntity
  8
2
100
AcDbLine
 10
-180.536055
 20
174.073935
 30
0.0
 11
-180.536055
 21
175.229627
 31
0.0
  0
LINE
  5
207
100
AcDbEntity
  8
2
100
AcDbLine
 10
-206.573119
 20
175.229627
 30
0.0
 11
-204.737608
 21
175.229627
 31
0.0
  0
LINE
  5
208
100
AcDbEntity
  8
2
100
AcDbLine
 10
-208.952485
 20
174.073935
 30
0.0
 11
-201.814387
 21
177.541011
 31
0.0
  0
LINE
  5
209
100
AcDbEntity
  8
2
100
AcDbLine
 10
-208.952485
 20
174.073935
 30
0.0
 11
-208.952485
 21
177.541011
 31
0.0
  0
LINE
  5
20A
100
AcDbEntity
  8
2
100
AcDbLine
 10
-204.737608
 20
175.229627
 30
0.0
 11
-204.737608
 21
170.742823
 31
0.0
  0
LINE
  5
20B
100
AcDbEntity
  8
2
100
AcDbLine
 10
-203.513934
 20
174.44298
 30
0.0
 11
-203.513934
 21
172.685162
 31
0.0
  0
LINE
  5
20C
100
AcDbEntity
  8
2
100
AcDbLine
 10
-197.599509
 20
174.44298
 30
0.0
 11
-197.599509
 21
172.685162
 31
0.0
  0
LINE
  5
20D
100
AcDbEntity
  8
2
100
AcDbLine
 10
-201.678423
 20
174.462403
 30
0.0
 11
-201.678423
 21
172.665739
 31
0.0
  0
LINE
  5
20E
100
AcDbEntity
  8
2
100
AcDbLine
 10
-199.43502
 20
174.462403
 30
0.0
 11
-199.43502
 21
172.665739
 31
0.0
  0
ARC
  5
20F
100
AcDbEntity
  8
2
100
AcDbCircle
 10
-201.571594
 20
172.685162
 30
0.0
 40
1.94234
100
AcDbArc
 50
180.0
 51
270.0
  0
ARC
  5
210
100
AcDbEntity
  8
2
100
AcDbCircle
 10
-199.541849
 20
174.44298
 30
0.0
 40
1.94234
100
AcDbArc
 50
360.0
 51
90.0
  0
ARC
  5
211
100
AcDbEntity
  8
2
100
AcDbCircle
 10
-200.40619
 20
172.665739
 30
0.0
 40
0.97117
100
AcDbArc
 50
270.0
 51
360.0
  0
ARC
  5
212
100
AcDbEntity
  8
2
100
AcDbCircle
 10
-200.707253
 20
174.462403
 30
0.0
 40
0.97117
100
AcDbArc
 50
90.0
 51
180.0
  0
LINE
  5
213
100
AcDbEntity
  8
2
100
AcDbLine
 10
-206.573119
 20
170.742823
 30
0.0
 11
-204.737608
 21
170.742823
 31
0.0
  0
LINE
  5
214
100
AcDbEntity
  8
2
100
AcDbLine
 10
-196.579781
 20
176.385319
 30
0.0
 11
-196.987672
 21
170.742823
 31
0.0
  0
LINE
  5
215
100
AcDbEntity
  8
2
100
AcDbLine
 10
-190.121501
 20
176.385319
 30
0.0
 11
-189.71361
 21
170.742823
 31
0.0
  0
LINE
  5
216
100
AcDbEntity
  8
2
100
AcDbLine
 10
-191.753067
 20
175.433573
 30
0.0
 11
-192.62712
 21
170.742823
 31
0.0
  0
LINE
  5
217
100
AcDbEntity
  8
2
100
AcDbLine
 10
-193.350641
 20
173.005648
 30
0.0
 11
-193.980394
 21
176.385319
 31
0.0
  0
LINE
  5
218
100
AcDbEntity
  8
2
100
AcDbLine
 10
-201.571594
 20
176.385319
 30
0.0
 11
-199.541849
 21
176.385319
 31
0.0
  0
LINE
  5
219
100
AcDbEntity
  8
2
100
AcDbLine
 10
-201.571594
 20
170.742823
 30
0.0
 11
-199.541849
 21
170.742823
 31
0.0
  0
LINE
  5
21A
100
AcDbEntity
  8
2
100
AcDbLine
 10
-196.987672
 20
170.742823
 30
0.0
 11
-195.152161
 21
170.742823
 31
0.0
  0
ARC
  5
21B
100
AcDbEntity
  8
2
100
AcDbCircle
 10
-187.159433
 20
172.685162
 30
0.0
 40
1.94234
100
AcDbArc
 50
180.0
 51
270.0
  0
LINE
  5
21C
100
AcDbEntity
  8
2
100
AcDbLine
 10
-185.02286
 20
174.462403
 30
0.0
 11
-185.02286
 21
172.665739
 31
0.0
  0
ARC
  5
21D
100
AcDbEntity
  8
2
100
AcDbCircle
 10
-186.295092
 20
172.665739
 30
0.0
 40
0.97117
100
AcDbArc
 50
180.0
 51
270.0
  0
ARC
  5
21E
100
AcDbEntity
  8
2
100
AcDbCircle
 10
-185.99403
 20
174.462403
 30
0.0
 40
0.97117
100
AcDbArc
 50
0.0
 51
90.0
  0
ARC
  5
21F
100
AcDbEntity
  8
2
100
AcDbCircle
 10
-186.295092
 20
174.462403
 30
0.0
 40
0.97117
100
AcDbArc
 50
90.0
 51
180.0
  0
ARC
  5
220
100
AcDbEntity
  8
2
100
AcDbCircle
 10
-185.129688
 20
174.44298
 30
0.0
 40
1.94234
100
AcDbArc
 50
360.0
 51
90.0
  0
LINE
  5
221
100
AcDbEntity
  8
2
100
AcDbLine
 10
-183.187349
 20
174.44298
 30
0.0
 11
-183.187349
 21
172.685162
 31
0.0
  0
LINE
  5
222
100
AcDbEntity
  8
2
100
AcDbLine
 10
-200.40619
 20
175.433573
 30
0.0
 11
-200.707253
 21
175.433573
 31
0.0
  0
LINE
  5
223
100
AcDbEntity
  8
2
100
AcDbLine
 10
-200.40619
 20
171.694569
 30
0.0
 11
-200.707253
 21
171.694569
 31
0.0
  0
LINE
  5
224
100
AcDbEntity
  8
2
100
AcDbLine
 10
-186.295092
 20
175.433573
 30
0.0
 11
-185.99403
 21
175.433573
 31
0.0
  0
LINE
  5
225
100
AcDbEntity
  8
2
100
AcDbLine
 10
-192.720889
 20
176.385319
 30
0.0
 11
-190.121501
 21
176.385319
 31
0.0
  0
LINE
  5
226
100
AcDbEntity
  8
2
100
AcDbLine
 10
-187.159433
 20
176.385319
 30
0.0
 11
-185.129688
 21
176.385319
 31
0.0
  0
LINE
  5
227
100
AcDbEntity
  8
2
100
AcDbLine
 10
-187.159433
 20
170.742823
 30
0.0
 11
-185.129688
 21
170.742823
 31
0.0
  0
LINE
  5
228
100
AcDbEntity
  8
2
100
AcDbLine
 10
-182.371566
 20
176.249356
 30
0.0
 11
-182.371566
 21
170.878786
 31
0.0
  0
LINE
  5
229
100
AcDbEntity
  8
2
100
AcDbLine
 10
-182.371566
 20
176.249356
 30
0.0
 11
-177.952743
 21
176.249356
 31
0.0
  0
LINE
  5
22A
100
AcDbEntity
  8
2
100
AcDbLine
 10
-180.536055
 20
171.898515
 30
0.0
 11
-177.952743
 21
171.898515
 31
0.0
  0
LINE
  5
22B
100
AcDbEntity
  8
2
100
AcDbLine
 10
-180.536055
 20
175.229627
 30
0.0
 11
-177.952743
 21
175.229627
 31
0.0
  0
LINE
  5
22C
100
AcDbEntity
  8
2
100
AcDbLine
 10
-177.952743
 20
175.229627
 30
0.0
 11
-177.952743
 21
176.249356
 31
0.0
  0
LINE
  5
22D
100
AcDbEntity
  8
2
100
AcDbLine
 10
-177.952743
 20
170.878786
 30
0.0
 11
-177.952743
 21
171.898515
 31
0.0
  0
LINE
  5
22E
100
AcDbEntity
  8
2
100
AcDbLine
 10
-177.952743
 20
173.054207
 30
0.0
 11
-177.952743
 21
174.073935
 31
0.0
  0
LINE
  5
22F
100
AcDbEntity
  8
2
100
AcDbLine
 10
-206.573119
 20
175.229627
 30
0.0
 11
-206.573119
 21
170.742823
 31
0.0
  0
LINE
  5
230
100
AcDbEntity
  8
2
100
AcDbLine
 10
-208.952485
 20
177.541011
 30
0.0
 11
-201.814387
 21
177.541011
 31
0.0
  0
LINE
  5
231
100
AcDbEntity
  8
2
100
AcDbLine
 10
-186.295092
 20
171.694569
 30
0.0
 11
-185.99403
 21
171.694569
 31
0.0
  0
LINE
  5
232
100
AcDbEntity
  8
2
100
AcDbLine
 10
-110.350641
 20
198.058521
 30
0.0
 11
-110.350641
 21
138.427124
 31
0.0
  0
LINE
  5
233
100
AcDbEntity
  8
2
100
AcDbLine
 10
-111.850641
 20
199.558521
 30
0.0
 11
-114.350641
 21
199.558521
 31
0.0
  0
LINE
  5
234
100
AcDbEntity
  8
2
100
AcDbLine
 10
-111.850641
 20
136.927124
 30
0.0
 11
-114.350641
 21
136.927124
 31
0.0
  0
ARC
  5
235
100
AcDbEntity
  8
2
100
AcDbCircle
 10
-111.850641
 20
198.058521
 30
0.0
 40
1.5
100
AcDbArc
 50
0.0
 51
90.0
  0
ARC
  5
236
100
AcDbEntity
  8
2
100
AcDbCircle
 10
-111.850641
 20
138.427124
 30
0.0
 40
1.5
100
AcDbArc
 50
270.0
 51
360.0
  0
LINE
  5
237
100
AcDbEntity
  8
2
100
AcDbLine
 10
-132.350641
 20
174.742823
 30
0.0
 11
-132.350641
 21
161.742823
 31
0.0
  0
LINE
  5
238
100
AcDbEntity
  8
2
100
AcDbLine
 10
-130.350641
 20
176.742823
 30
0.0
 11
-116.350641
 21
176.742823
 31
0.0
  0
LINE
  5
239
100
AcDbEntity
  8
2
100
AcDbLine
 10
-130.350641
 20
159.742823
 30
0.0
 11
-116.350641
 21
159.742823
 31
0.0
  0
ARC
  5
23A
100
AcDbEntity
  8
2
100
AcDbCircle
 10
-130.350641
 20
174.742823
 30
0.0
 40
2.0
100
AcDbArc
 50
90.0
 51
180.0
  0
ARC
  5
23B
100
AcDbEntity
  8
2
100
AcDbCircle
 10
-130.350641
 20
161.742823
 30
0.0
 40
2.0
100
AcDbArc
 50
180.0
 51
270.0
  0
LINE
  5
23C
100
AcDbEntity
  8
2
100
AcDbLine
 10
-118.350641
 20
195.558521
 30
0.0
 11
-118.350641
 21
192.082318
 31
0.0
  0
ARC
  5
23D
100
AcDbEntity
  8
2
100
AcDbCircle
 10
-114.350641
 20
195.558521
 30
0.0
 40
4.0
100
AcDbArc
 50
90.0
 51
180.0
  0
ARC
  5
23E
100
AcDbEntity
  8
2
100
AcDbCircle
 10
-114.350641
 20
192.082318
 30
0.0
 40
4.0
100
AcDbArc
 50
180.0
 51
244.623066
  0
ARC
  5
23F
100
AcDbEntity
  8
2
100
AcDbCircle
 10
-117.350641
 20
185.757763
 30
0.0
 40
3.0
100
AcDbArc
 50
0.0
 51
64.623066
  0
LINE
  5
240
100
AcDbEntity
  8
2
100
AcDbLine
 10
-111.850641
 20
189.961522
 30
0.0
 11
-114.350641
 21
189.961522
 31
0.0
  0
ARC
  5
241
100
AcDbEntity
  8
2
100
AcDbCircle
 10
-114.350641
 20
193.961522
 30
0.0
 40
4.0
100
AcDbArc
 50
180.0
 51
270.0
  0
ARC
  5
242
100
AcDbEntity
  8
2
100
AcDbCircle
 10
-116.350641
 20
178.742823
 30
0.0
 40
2.0
100
AcDbArc
 50
270.0
 51
360.0
  0
ARC
  5
243
100
AcDbEntity
  8
2
100
AcDbCircle
 10
-116.350641
 20
157.742823
 30
0.0
 40
2.0
100
AcDbArc
 50
0.0
 51
90.0
  0
LINE
  5
244
100
AcDbEntity
  8
2
100
AcDbLine
 10
-118.350641
 20
171.846614
 30
0.0
 11
-118.350641
 21
164.639032
 31
0.0
  0
ARC
  5
245
100
AcDbEntity
  8
2
100
AcDbCircle
 10
-114.350641
 20
171.846614
 30
0.0
 40
4.0
100
AcDbArc
 50
115.376934
 51
180.0
  0
ARC
  5
246
100
AcDbEntity
  8
2
100
AcDbCircle
 10
-114.350641
 20
164.639032
 30
0.0
 40
4.0
100
AcDbArc
 50
180.0
 51
244.623066
  0
ARC
  5
247
100
AcDbEntity
  8
2
100
AcDbCircle
 10
-117.350641
 20
178.171169
 30
0.0
 40
3.0
100
AcDbArc
 50
295.376934
 51
360.0
  0
ARC
  5
248
100
AcDbEntity
  8
2
100
AcDbCircle
 10
-117.350641
 20
158.314476
 30
0.0
 40
3.0
100
AcDbArc
 50
0.0
 51
64.623066
  0
LINE
  5
249
100
AcDbEntity
  8
2
100
AcDbLine
 10
-114.350641
 20
150.727882
 30
0.0
 11
-114.350641
 21
158.314476
 31
0.0
  0
LINE
  5
24A
100
AcDbEntity
  8
2
100
AcDbLine
 10
-114.350641
 20
178.171169
 30
0.0
 11
-114.350641
 21
185.757763
 31
0.0
  0
LINE
  5
24B
100
AcDbEntity
  8
2
100
AcDbLine
 10
-111.850641
 20
175.6359
 30
0.0
 11
-114.350641
 21
175.6359
 31
0.0
  0
LINE
  5
24C
100
AcDbEntity
  8
2
100
AcDbLine
 10
-111.850641
 20
160.849745
 30
0.0
 11
-114.350641
 21
160.849745
 31
0.0
  0
ARC
  5
24D
100
AcDbEntity
  8
2
100
AcDbCircle
 10
-114.350641
 20
171.6359
 30
0.0
 40
4.0
100
AcDbArc
 50
90.0
 51
180.0
  0
ARC
  5
24E
100
AcDbEntity
  8
2
100
AcDbCircle
 10
-114.350641
 20
164.849745
 30
0.0
 40
4.0
100
AcDbArc
 50
180.0
 51
270.0
  0
ARC
  5
24F
100
AcDbEntity
  8
2
100
AcDbCircle
 10
-111.850641
 20
174.1359
 30
0.0
 40
1.5
100
AcDbArc
 50
360.0
 51
90.0
  0
ARC
  5
250
100
AcDbEntity
  8
2
100
AcDbCircle
 10
-111.850641
 20
162.349745
 30
0.0
 40
1.5
100
AcDbArc
 50
270.0
 51
0.0
  0
LINE
  5
251
100
AcDbEntity
  8
2
100
AcDbLine
 10
-118.350641
 20
140.927124
 30
0.0
 11
-118.350641
 21
144.403327
 31
0.0
  0
ARC
  5
252
100
AcDbEntity
  8
2
100
AcDbCircle
 10
-114.350641
 20
140.927124
 30
0.0
 40
4.0
100
AcDbArc
 50
180.0
 51
270.0
  0
ARC
  5
253
100
AcDbEntity
  8
2
100
AcDbCircle
 10
-114.350641
 20
144.403327
 30
0.0
 40
4.0
100
AcDbArc
 50
115.376934
 51
180.0
  0
ARC
  5
254
100
AcDbEntity
  8
2
100
AcDbCircle
 10
-117.350641
 20
150.727882
 30
0.0
 40
3.0
100
AcDbArc
 50
295.376934
 51
360.0
  0
LINE
  5
255
100
AcDbEntity
  8
2
100
AcDbLine
 10
-111.850641
 20
146.524123
 30
0.0
 11
-114.350641
 21
146.524123
 31
0.0
  0
ARC
  5
256
100
AcDbEntity
  8
2
100
AcDbCircle
 10
-114.350641
 20
142.524123
 30
0.0
 40
4.0
100
AcDbArc
 50
90.0
 51
180.0
  0
LINE
  5
257
100
AcDbEntity
  8
2
100
AcDbLine
 10
-222.350641
 20
187.242823
 30
0.0
 11
-164.350641
 21
187.242823
 31
0.0
  0
LINE
  5
258
100
AcDbEntity
  8
2
100
AcDbLine
 10
-218.350641
 20
105.242823
 30
0.0
 11
-168.350641
 21
105.242823
 31
0.0
  0
LINE
  5
259
100
AcDbEntity
  8
2
100
AcDbLine
 10
-228.350641
 20
115.242823
 30
0.0
 11
-228.350641
 21
181.242823
 31
0.0
  0
LINE
  5
25A
100
AcDbEntity
  8
2
100
AcDbLine
 10
-158.350641
 20
115.242823
 30
0.0
 11
-158.350641
 21
181.242823
 31
0.0
  0
LINE
  5
25B
100
AcDbEntity
  8
2
100
AcDbLine
 10
-222.350641
 20
118.242823
 30
0.0
 11
-164.350641
 21
118.242823
 31
0.0
  0
ARC
  5
25C
100
AcDbEntity
  8
2
100
AcDbCircle
 10
-222.350641
 20
181.242823
 30
0.0
 40
6.0
100
AcDbArc
 50
90.0
 51
180.0
  0
ARC
  5
25D
100
AcDbEntity
  8
2
100
AcDbCircle
 10
-164.350641
 20
181.242823
 30
0.0
 40
6.0
100
AcDbArc
 50
0.0
 51
90.0
  0
ARC
  5
25E
100
AcDbEntity
  8
2
100
AcDbCircle
 10
-164.350641
 20
124.242823
 30
0.0
 40
6.0
100
AcDbArc
 50
270.0
 51
0.0
  0
ARC
  5
25F
100
AcDbEntity
  8
2
100
AcDbCircle
 10
-222.350641
 20
124.242823
 30
0.0
 40
6.0
100
AcDbArc
 50
180.0
 51
270.0
  0
ARC
  5
260
100
AcDbEntity
  8
2
100
AcDbCircle
 10
-168.350641
 20
115.242823
 30
0.0
 40
10.0
100
AcDbArc
 50
270.0
 51
360.0
  0
ARC
  5
261
100
AcDbEntity
  8
2
100
AcDbCircle
 10
-218.350641
 20
115.242823
 30
0.0
 40
10.0
100
AcDbArc
 50
180.0
 51
270.0
  0
CIRCLE
  5
262
100
AcDbEntity
  8
2
100
AcDbCircle
 10
-177.087185
 20
156.506278
 30
0.0
 40
4.0
  0
CIRCLE
  5
263
100
AcDbEntity
  8
2
100
AcDbCircle
 10
-209.614097
 20
156.506278
 30
0.0
 40
4.0
  0
CIRCLE
  5
264
100
AcDbEntity
  8
2
100
AcDbCircle
 10
-209.614097
 20
123.979367
 30
0.0
 40
4.0
  0
CIRCLE
  5
265
100
AcDbEntity
  8
2
100
AcDbCircle
 10
-177.087185
 20
156.506278
 30
0.0
 40
1.0
  0
CIRCLE
  5
266
100
AcDbEntity
  8
2
100
AcDbCircle
 10
-209.614097
 20
156.506278
 30
0.0
 40
1.0
  0
CIRCLE
  5
267
100
AcDbEntity
  8
2
100
AcDbCircle
 10
-209.614097
 20
123.979367
 30
0.0
 40
1.0
  0
LINE
  5
268
100
AcDbEntity
  8
2
100
AcDbLine
 10
-223.350641
 20
175.242823
 30
0.0
 11
-221.350641
 21
175.242823
 31
0.0
  0
LINE
  5
269
100
AcDbEntity
  8
2
100
AcDbLine
 10
-165.350641
 20
175.242823
 30
0.0
 11
-163.350641
 21
175.242823
 31
0.0
  0
LINE
  5
26A
100
AcDbEntity
  8
2
100
AcDbLine
 10
-216.350641
 20
123.242823
 30
0.0
 11
-216.350641
 21
125.242823
 31
0.0
  0
LINE
  5
26B
100
AcDbEntity
  8
2
100
AcDbLine
 10
-216.350641
 20
180.242823
 30
0.0
 11
-216.350641
 21
182.242823
 31
0.0
  0
LINE
  5
26C
100
AcDbEntity
  8
2
100
AcDbLine
 10
-170.350641
 20
123.242823
 30
0.0
 11
-170.350641
 21
125.242823
 31
0.0
  0
LINE
  5
26D
100
AcDbEntity
  8
2
100
AcDbLine
 10
-170.350641
 20
180.242823
 30
0.0
 11
-170.350641
 21
182.242823
 31
0.0
  0
LINE
  5
26E
100
AcDbEntity
  8
2
100
AcDbLine
 10
-223.350641
 20
130.242823
 30
0.0
 11
-221.350641
 21
130.242823
 31
0.0
  0
LINE
  5
26F
100
AcDbEntity
  8
2
100
AcDbLine
 10
-165.350641
 20
130.242823
 30
0.0
 11
-163.350641
 21
130.242823
 31
0.0
  0
ARC
  5
270
100
AcDbEntity
  8
2
100
AcDbCircle
 10
-165.350641
 20
125.242823
 30
0.0
 40
5.0
100
AcDbArc
 50
90.0
 51
180.0
  0
ARC
  5
271
100
AcDbEntity
  8
2
100
AcDbCircle
 10
-165.350641
 20
180.242823
 30
0.0
 40
5.0
100
AcDbArc
 50
180.0
 51
270.0
  0
ARC
  5
272
100
AcDbEntity
  8
2
100
AcDbCircle
 10
-221.350641
 20
180.242823
 30
0.0
 40
5.0
100
AcDbArc
 50
270.0
 51
360.0
  0
ARC
  5
273
100
AcDbEntity
  8
2
100
AcDbCircle
 10
-221.350641
 20
125.242823
 30
0.0
 40
5.0
100
AcDbArc
 50
0.0
 51
90.0
  0
ARC
  5
274
100
AcDbEntity
  8
2
100
AcDbCircle
 10
-163.350641
 20
170.242823
 30
0.0
 40
5.0
100
AcDbArc
 50
0.0
 51
90.0
  0
ARC
  5
275
100
AcDbEntity
  8
2
100
AcDbCircle
 10
-175.350641
 20
182.242823
 30
0.0
 40
5.0
100
AcDbArc
 50
0.0
 51
90.0
  0
ARC
  5
276
100
AcDbEntity
  8
2
100
AcDbCircle
 10
-211.350641
 20
182.242823
 30
0.0
 40
5.0
100
AcDbArc
 50
90.0
 51
180.0
  0
ARC
  5
277
100
AcDbEntity
  8
2
100
AcDbCircle
 10
-223.350641
 20
170.242823
 30
0.0
 40
5.0
100
AcDbArc
 50
90.0
 51
180.0
  0
ARC
  5
278
100
AcDbEntity
  8
2
100
AcDbCircle
 10
-223.350641
 20
135.242823
 30
0.0
 40
5.0
100
AcDbArc
 50
180.0
 51
270.0
  0
ARC
  5
279
100
AcDbEntity
  8
2
100
AcDbCircle
 10
-211.350641
 20
123.242823
 30
0.0
 40
5.0
100
AcDbArc
 50
180.0
 51
270.0
  0
ARC
  5
27A
100
AcDbEntity
  8
2
100
AcDbCircle
 10
-175.350641
 20
123.242823
 30
0.0
 40
5.0
100
AcDbArc
 50
270.0
 51
360.0
  0
ARC
  5
27B
100
AcDbEntity
  8
2
100
AcDbCircle
 10
-163.350641
 20
135.242823
 30
0.0
 40
5.0
100
AcDbArc
 50
270.0
 51
360.0
  0
CIRCLE
  5
27C
100
AcDbEntity
  8
2
100
AcDbCircle
 10
-164.350641
 20
124.242823
 30
0.0
 40
4.25
  0
CIRCLE
  5
27D
100
AcDbEntity
  8
2
100
AcDbCircle
 10
-164.350641
 20
124.242823
 30
0.0
 40
3.730385
  0
LINE
  5
27E
100
AcDbEntity
  8
2
100
AcDbLine
 10
-166.350641
 20
123.088122
 30
0.0
 11
-166.350641
 21
125.397523
 31
0.0
  0
LINE
  5
27F
100
AcDbEntity
  8
2
100
AcDbLine
 10
-162.350641
 20
123.088122
 30
0.0
 11
-162.350641
 21
125.397523
 31
0.0
  0
LINE
  5
280
100
AcDbEntity
  8
2
100
AcDbLine
 10
-164.350641
 20
121.933421
 30
0.0
 11
-166.350641
 21
123.088122
 31
0.0
  0
LINE
  5
281
100
AcDbEntity
  8
2
100
AcDbLine
 10
-162.350641
 20
125.397523
 30
0.0
 11
-164.350641
 21
126.552224
 31
0.0
  0
LINE
  5
282
100
AcDbEntity
  8
2
100
AcDbLine
 10
-162.350641
 20
123.088122
 30
0.0
 11
-164.350641
 21
121.933421
 31
0.0
  0
LINE
  5
283
100
AcDbEntity
  8
2
100
AcDbLine
 10
-164.350641
 20
126.552224
 30
0.0
 11
-166.350641
 21
125.397523
 31
0.0
  0
CIRCLE
  5
284
100
AcDbEntity
  8
2
100
AcDbCircle
 10
-222.350641
 20
124.242823
 30
0.0
 40
4.25
  0
CIRCLE
  5
285
100
AcDbEntity
  8
2
100
AcDbCircle
 10
-222.350641
 20
124.242823
 30
0.0
 40
3.730385
  0
LINE
  5
286
100
AcDbEntity
  8
2
100
AcDbLine
 10
-220.350641
 20
123.088122
 30
0.0
 11
-220.350641
 21
125.397523
 31
0.0
  0
LINE
  5
287
100
AcDbEntity
  8
2
100
AcDbLine
 10
-224.350641
 20
123.088122
 30
0.0
 11
-224.350641
 21
125.397523
 31
0.0
  0
LINE
  5
288
100
AcDbEntity
  8
2
100
AcDbLine
 10
-222.350641
 20
121.933421
 30
0.0
 11
-220.350641
 21
123.088122
 31
0.0
  0
LINE
  5
289
100
AcDbEntity
  8
2
100
AcDbLine
 10
-224.350641
 20
125.397523
 30
0.0
 11
-222.350641
 21
126.552224
 31
0.0
  0
LINE
  5
28A
100
AcDbEntity
  8
2
100
AcDbLine
 10
-224.350641
 20
123.088122
 30
0.0
 11
-222.350641
 21
121.933421
 31
0.0
  0
LINE
  5
28B
100
AcDbEntity
  8
2
100
AcDbLine
 10
-222.350641
 20
126.552224
 30
0.0
 11
-220.350641
 21
125.397523
 31
0.0
  0
CIRCLE
  5
28C
100
AcDbEntity
  8
2
100
AcDbCircle
 10
-164.350641
 20
181.242823
 30
0.0
 40
4.25
  0
CIRCLE
  5
28D
100
AcDbEntity
  8
2
100
AcDbCircle
 10
-164.350641
 20
181.242823
 30
0.0
 40
3.730385
  0
LINE
  5
28E
100
AcDbEntity
  8
2
100
AcDbLine
 10
-166.350641
 20
180.088122
 30
0.0
 11
-166.350641
 21
182.397523
 31
0.0
  0
LINE
  5
28F
100
AcDbEntity
  8
2
100
AcDbLine
 10
-162.350641
 20
180.088122
 30
0.0
 11
-162.350641
 21
182.397523
 31
0.0
  0
LINE
  5
290
100
AcDbEntity
  8
2
100
AcDbLine
 10
-164.350641
 20
178.933421
 30
0.0
 11
-166.350641
 21
180.088122
 31
0.0
  0
LINE
  5
291
100
AcDbEntity
  8
2
100
AcDbLine
 10
-162.350641
 20
182.397523
 30
0.0
 11
-164.350641
 21
183.552224
 31
0.0
  0
LINE
  5
292
100
AcDbEntity
  8
2
100
AcDbLine
 10
-162.350641
 20
180.088122
 30
0.0
 11
-164.350641
 21
178.933421
 31
0.0
  0
LINE
  5
293
100
AcDbEntity
  8
2
100
AcDbLine
 10
-164.350641
 20
183.552224
 30
0.0
 11
-166.350641
 21
182.397523
 31
0.0
  0
CIRCLE
  5
294
100
AcDbEntity
  8
2
100
AcDbCircle
 10
-222.350641
 20
181.242823
 30
0.0
 40
4.25
  0
CIRCLE
  5
295
100
AcDbEntity
  8
2
100
AcDbCircle
 10
-222.350641
 20
181.242823
 30
0.0
 40
3.730385
  0
LINE
  5
296
100
AcDbEntity
  8
2
100
AcDbLine
 10
-220.350641
 20
180.088122
 30
0.0
 11
-220.350641
 21
182.397523
 31
0.0
  0
LINE
  5
297
100
AcDbEntity
  8
2
100
AcDbLine
 10
-224.350641
 20
180.088122
 30
0.0
 11
-224.350641
 21
182.397523
 31
0.0
  0
LINE
  5
298
100
AcDbEntity
  8
2
100
AcDbLine
 10
-222.350641
 20
178.933421
 30
0.0
 11
-220.350641
 21
180.088122
 31
0.0
  0
LINE
  5
299
100
AcDbEntity
  8
2
100
AcDbLine
 10
-224.350641
 20
182.397523
 30
0.0
 11
-222.350641
 21
183.552224
 31
0.0
  0
LINE
  5
29A
100
AcDbEntity
  8
2
100
AcDbLine
 10
-224.350641
 20
180.088122
 30
0.0
 11
-222.350641
 21
178.933421
 31
0.0
  0
LINE
  5
29B
100
AcDbEntity
  8
2
100
AcDbLine
 10
-222.350641
 20
183.552224
 30
0.0
 11
-220.350641
 21
182.397523
 31
0.0
  0
LINE
  5
29C
100
AcDbEntity
  8
2
100
AcDbLine
 10
-208.850641
 20
180.242823
 30
0.0
 11
-177.850641
 21
180.242823
 31
0.0
  0
LINE
  5
29D
100
AcDbEntity
  8
2
100
AcDbLine
 10
-210.850641
 20
172.742823
 30
0.0
 11
-210.850641
 21
178.242823
 31
0.0
  0
LINE
  5
29E
100
AcDbEntity
  8
2
100
AcDbLine
 10
-175.850641
 20
172.742823
 30
0.0
 11
-175.850641
 21
178.242823
 31
0.0
  0
ARC
  5
29F
100
AcDbEntity
  8
2
100
AcDbCircle
 10
-177.850641
 20
178.242823
 30
0.0
 40
2.0
100
AcDbArc
 50
0.0
 51
90.0
  0
ARC
  5
2A0
100
AcDbEntity
  8
2
100
AcDbCircle
 10
-208.850641
 20
178.242823
 30
0.0
 40
2.0
100
AcDbArc
 50
90.0
 51
180.0
  0
LINE
  5
2A1
100
AcDbEntity
  8
2
100
AcDbLine
 10
-182.809641
 20
108.742823
 30
0.0
 11
-183.350641
 21
109.283823
 31
0.0
  0
LINE
  5
2A2
100
AcDbEntity
  8
2
100
AcDbLine
 10
-183.350641
 20
109.283823
 30
0.0
 11
-183.350641
 21
113.242823
 31
0.0
  0
LINE
  5
2A3
100
AcDbEntity
  8
2
100
AcDbLine
 10
-183.350641
 20
109.283823
 30
0.0
 11
-177.350641
 21
109.283823
 31
0.0
  0
LINE
  5
2A4
100
AcDbEntity
  8
2
 62
     2
100
AcDbLine
 10
-182.809641
 20
108.742823
 30
0.0
 11
-182.809641
 21
113.242823
 31
0.0
  0
LINE
  5
2A5
100
AcDbEntity
  8
2
100
AcDbLine
 10
-177.891641
 20
108.742823
 30
0.0
 11
-182.809641
 21
108.742823
 31
0.0
  0
LINE
  5
2A6
100
AcDbEntity
  8
2
100
AcDbLine
 10
-177.891641
 20
108.742823
 30
0.0
 11
-177.350641
 21
109.283823
 31
0.0
  0
LINE
  5
2A7
100
AcDbEntity
  8
2
100
AcDbLine
 10
-177.350641
 20
109.283823
 30
0.0
 11
-177.350641
 21
113.242823
 31
0.0
  0
LINE
  5
2A8
100
AcDbEntity
  8
2
 62
     2
100
AcDbLine
 10
-177.891641
 20
108.742823
 30
0.0
 11
-177.891641
 21
113.242823
 31
0.0
  0
LINE
  5
2A9
100
AcDbEntity
  8
2
100
AcDbLine
 10
-174.600641
 20
118.242823
 30
0.0
 11
-174.600641
 21
113.73357
 31
0.0
  0
LINE
  5
2AA
100
AcDbEntity
  8
2
100
AcDbLine
 10
-174.600641
 20
113.73357
 30
0.0
 11
-175.450641
 21
113.242823
 31
0.0
  0
LINE
  5
2AB
100
AcDbEntity
  8
2
100
AcDbLine
 10
-175.450641
 20
113.242823
 30
0.0
 11
-185.250641
 21
113.242823
 31
0.0
  0
LINE
  5
2AC
100
AcDbEntity
  8
2
100
AcDbLine
 10
-177.475641
 20
118.242823
 30
0.0
 11
-177.475641
 21
113.73357
 31
0.0
  0
ARC
  5
2AD
100
AcDbEntity
  8
2
100
AcDbCircle
 10
-176.038141
 20
115.581525
 30
0.0
 40
2.341227
100
AcDbArc
 50
232.121121
 51
307.878879
  0
LINE
  5
2AE
100
AcDbEntity
  8
2
100
AcDbLine
 10
-186.100641
 20
118.242823
 30
0.0
 11
-186.100641
 21
113.73357
 31
0.0
  0
LINE
  5
2AF
100
AcDbEntity
  8
2
100
AcDbLine
 10
-186.100641
 20
113.73357
 30
0.0
 11
-185.250641
 21
113.242823
 31
0.0
  0
LINE
  5
2B0
100
AcDbEntity
  8
2
100
AcDbLine
 10
-183.225641
 20
118.242823
 30
0.0
 11
-183.225641
 21
113.73357
 31
0.0
  0
ARC
  5
2B1
100
AcDbEntity
  8
2
100
AcDbCircle
 10
-184.663141
 20
115.581525
 30
0.0
 40
2.341227
100
AcDbArc
 50
232.121121
 51
307.878879
  0
ARC
  5
2B2
100
AcDbEntity
  8
2
100
AcDbCircle
 10
-180.350641
 20
121.865298
 30
0.0
 40
8.625
100
AcDbArc
 50
250.528777
 51
289.471219
  0
LINE
  5
2B3
100
AcDbEntity
  8
2
100
AcDbLine
 10
-158.350641
 20
172.742823
 30
0.0
 11
-132.350641
 21
172.742823
 31
0.0
  0
LINE
  5
2B4
100
AcDbEntity
  8
2
100
AcDbLine
 10
-158.350641
 20
163.742823
 30
0.0
 11
-132.350641
 21
163.742823
 31
0.0
  0
LINE
  5
2B5
100
AcDbEntity
  8
2
  6
CENTER
 62
     2
100
AcDbLine
 10
-193.350641
 20
95.441138
 30
0.0
 11
-193.350641
 21
195.902495
 31
0.0
  0
LINE
  5
2B6
100
AcDbEntity
  8
2
  6
CENTER
 62
     2
100
AcDbLine
 10
-233.582048
 20
168.242823
 30
0.0
 11
-102.746653
 21
168.242823
 31
0.0
  0
ARC
  5
2B7
100
AcDbEntity
  8
2
  6
CENTER
 62
     2
100
AcDbCircle
 10
-193.350641
 20
140.242823
 30
0.0
 40
23.0
100
AcDbArc
 50
28.920753
 51
61.696907
  0
ARC
  5
2B8
100
AcDbEntity
  8
2
  6
CENTER
 62
     2
100
AcDbCircle
 10
-193.350641
 20
140.242823
 30
0.0
 40
23.0
100
AcDbArc
 50
118.920753
 51
151.696907
  0
ARC
  5
2B9
100
AcDbEntity
  8
2
  6
CENTER
 62
     2
100
AcDbCircle
 10
-193.350641
 20
140.242823
 30
0.0
 40
23.0
100
AcDbArc
 50
208.920753
 51
241.696907
  0
LINE
  5
2BA
100
AcDbEntity
  8
2
  6
CENTER
 62
     2
100
AcDbLine
 10
-164.350641
 20
116.241454
 30
0.0
 11
-164.350641
 21
132.28321
 31
0.0
  0
LINE
  5
2BB
100
AcDbEntity
  8
2
  6
CENTER
 62
     2
100
AcDbLine
 10
-172.268419
 20
124.242823
 30
0.0
 11
-156.620554
 21
124.242823
 31
0.0
  0
LINE
  5
2BC
100
AcDbEntity
  8
2
  6
CENTER
 62
     2
100
AcDbLine
 10
-222.350641
 20
116.241454
 30
0.0
 11
-222.350641
 21
132.28321
 31
0.0
  0
LINE
  5
2BD
100
AcDbEntity
  8
2
  6
CENTER
 62
     2
100
AcDbLine
 10
-214.432863
 20
124.242823
 30
0.0
 11
-230.080729
 21
124.242823
 31
0.0
  0
LINE
  5
2BE
100
AcDbEntity
  8
2
  6
CENTER
 62
     2
100
AcDbLine
 10
-164.350641
 20
173.241454
 30
0.0
 11
-164.350641
 21
189.28321
 31
0.0
  0
LINE
  5
2BF
100
AcDbEntity
  8
2
  6
CENTER
 62
     2
100
AcDbLine
 10
-172.268419
 20
181.242823
 30
0.0
 11
-156.620554
 21
181.242823
 31
0.0
  0
LINE
  5
2C0
100
AcDbEntity
  8
2
  6
CENTER
 62
     2
100
AcDbLine
 10
-222.350641
 20
173.241454
 30
0.0
 11
-222.350641
 21
189.28321
 31
0.0
  0
LINE
  5
2C1
100
AcDbEntity
  8
2
  6
CENTER
 62
     2
100
AcDbLine
 10
-214.432863
 20
181.242823
 30
0.0
 11
-230.080729
 21
181.242823
 31
0.0
  0
LINE
  5
2C2
100
AcDbEntity
  8
2
  6
CENTER
 62
     2
100
AcDbLine
 10
-180.350641
 20
103.814887
 30
0.0
 11
-180.350641
 21
123.384032
 31
0.0
  0
LINE
  5
2C3
100
AcDbEntity
  8
2
100
AcDbLine
 10
-202.86175
 20
43.744484
 30
0.0
 11
-183.839532
 21
43.744484
 31
0.0
  0
LINE
  5
2C4
100
AcDbEntity
  8
2
100
AcDbLine
 10
-203.350641
 20
29.744484
 30
0.0
 11
-183.350641
 21
29.744484
 31
0.0
  0
LINE
  5
2C5
100
AcDbEntity
  8
2
100
AcDbLine
 10
-182.350641
 20
28.744484
 30
0.0
 11
-183.350641
 21
29.744484
 31
0.0
  0
LINE
  5
2C6
100
AcDbEntity
  8
2
100
AcDbLine
 10
-204.350641
 20
28.744484
 30
0.0
 11
-203.350641
 21
29.744484
 31
0.0
  0
LINE
  5
2C7
100
AcDbEntity
  8
2
100
AcDbLine
 10
-183.350641
 20
29.744484
 30
0.0
 11
-183.839532
 21
43.744484
 31
0.0
  0
LINE
  5
2C8
100
AcDbEntity
  8
2
100
AcDbLine
 10
-203.350641
 20
29.744484
 30
0.0
 11
-202.86175
 21
43.744484
 31
0.0
  0
LINE
  5
2C9
100
AcDbEntity
  8
2
100
AcDbLine
 10
-202.091276
 20
43.744484
 30
0.0
 11
-202.515793
 21
29.744484
 31
0.0
  0
LINE
  5
2CA
100
AcDbEntity
  8
2
100
AcDbLine
 10
-189.007971
 20
29.744484
 30
0.0
 11
-189.496862
 21
43.744484
 31
0.0
  0
CIRCLE
  5
2CB
100
AcDbEntity
  8
2
 62
     2
100
AcDbCircle
 10
-180.350641
 20
18.244484
 30
0.0
 40
2.459
  0
CIRCLE
  5
2CC
100
AcDbEntity
  8
2
100
AcDbCircle
 10
-180.350641
 20
18.244484
 30
0.0
 40
3.0
  0
LINE
  5
2CD
100
AcDbEntity
  8
2
100
AcDbLine
 10
-178.850641
 20
17.378458
 30
0.0
 11
-178.850641
 21
19.110509
 31
0.0
  0
LINE
  5
2CE
100
AcDbEntity
  8
2
100
AcDbLine
 10
-181.850641
 20
17.378458
 30
0.0
 11
-181.850641
 21
19.110509
 31
0.0
  0
LINE
  5
2CF
100
AcDbEntity
  8
2
100
AcDbLine
 10
-180.350641
 20
16.512433
 30
0.0
 11
-181.850641
 21
17.378458
 31
0.0
  0
LINE
  5
2D0
100
AcDbEntity
  8
2
100
AcDbLine
 10
-178.850641
 20
19.110509
 30
0.0
 11
-180.350641
 21
19.976535
 31
0.0
  0
LINE
  5
2D1
100
AcDbEntity
  8
2
100
AcDbLine
 10
-180.350641
 20
19.976535
 30
0.0
 11
-181.850641
 21
19.110509
 31
0.0
  0
LINE
  5
2D2
100
AcDbEntity
  8
2
100
AcDbLine
 10
-178.850641
 20
17.378458
 30
0.0
 11
-180.350641
 21
16.512433
 31
0.0
  0
LINE
  5
2D3
100
AcDbEntity
  8
2
  6
CENTER
 62
     2
100
AcDbLine
 10
-180.350641
 20
10.951194
 30
0.0
 11
-180.350641
 21
25.736083
 31
0.0
  0
LINE
  5
2D4
100
AcDbEntity
  8
2
  6
CENTER
 62
     2
100
AcDbLine
 10
-188.05707
 20
18.244484
 30
0.0
 11
-173.006716
 21
18.244484
 31
0.0
  0
LINE
  5
2D5
100
AcDbEntity
  8
2
  6
CENTER
 62
     2
100
AcDbLine
 10
-218.099379
 20
-36.359936
 30
0.0
 11
-218.099379
 21
-2.963518
 31
0.0
  0
LINE
  5
2D6
100
AcDbEntity
  8
2
100
AcDbLine
 10
-111.850641
 20
48.244484
 30
0.0
 11
-114.350641
 21
48.244484
 31
0.0
  0
ARC
  5
2D7
100
AcDbEntity
  8
2
100
AcDbCircle
 10
-111.850641
 20
46.744484
 30
0.0
 40
1.5
100
AcDbArc
 50
0.0
 51
90.0
  0
ARC
  5
2D8
100
AcDbEntity
  8
2
100
AcDbCircle
 10
-114.350641
 20
44.244484
 30
0.0
 40
4.0
100
AcDbArc
 50
90.0
 51
180.0
  0
LINE
  5
2D9
100
AcDbEntity
  8
2
100
AcDbLine
 10
-132.350641
 20
19.744484
 30
0.0
 11
-132.350641
 21
6.744484
 31
0.0
  0
LINE
  5
2DA
100
AcDbEntity
  8
2
100
AcDbLine
 10
-130.350641
 20
21.744484
 30
0.0
 11
-117.133071
 21
21.744484
 31
0.0
  0
LINE
  5
2DB
100
AcDbEntity
  8
2
100
AcDbLine
 10
-130.350641
 20
4.744484
 30
0.0
 11
-117.133071
 21
4.744484
 31
0.0
  0
ARC
  5
2DC
100
AcDbEntity
  8
2
100
AcDbCircle
 10
-130.350641
 20
6.744484
 30
0.0
 40
2.0
100
AcDbArc
 50
180.0
 51
270.0
  0
ARC
  5
2DD
100
AcDbEntity
  8
2
100
AcDbCircle
 10
-130.350641
 20
19.744484
 30
0.0
 40
2.0
100
AcDbArc
 50
90.0
 51
180.0
  0
LINE
  5
2DE
100
AcDbEntity
  8
2
100
AcDbLine
 10
-118.350641
 20
41.296453
 30
0.0
 11
-118.350641
 21
44.244484
 31
0.0
  0
ARC
  5
2DF
100
AcDbEntity
  8
2
100
AcDbCircle
 10
-117.350641
 20
36.697911
 30
0.0
 40
3.0
100
AcDbArc
 50
0.0
 51
82.036169
  0
ARC
  5
2E0
100
AcDbEntity
  8
2
100
AcDbCircle
 10
-116.707318
 20
41.296453
 30
0.0
 40
1.643323
100
AcDbArc
 50
90.0
 51
262.036169
  0
LINE
  5
2E1
100
AcDbEntity
  8
2
100
AcDbLine
 10
-116.707318
 20
42.939775
 30
0.0
 11
-111.850641
 21
42.939775
 31
0.0
  0
LINE
  5
2E2
100
AcDbEntity
  8
2
100
AcDbLine
 10
-111.850641
 20
34.494484
 30
0.0
 11
-114.350641
 21
34.494484
 31
0.0
  0
LINE
  5
2E3
100
AcDbEntity
  8
2
100
AcDbLine
 10
-118.350641
 20
30.494484
 30
0.0
 11
-118.350641
 21
24.618172
 31
0.0
  0
LINE
  5
2E4
100
AcDbEntity
  8
2
100
AcDbLine
 10
-114.350641
 20
36.697911
 30
0.0
 11
-114.350641
 21
34.494484
 31
0.0
  0
ARC
  5
2E5
100
AcDbEntity
  8
2
100
AcDbCircle
 10
-114.350641
 20
30.494484
 30
0.0
 40
4.0
100
AcDbArc
 50
90.0
 51
180.0
  0
ARC
  5
2E6
100
AcDbEntity
  8
2
100
AcDbCircle
 10
-114.350641
 20
24.618172
 30
0.0
 40
4.0
100
AcDbArc
 50
180.0
 51
244.623066
  0
ARC
  5
2E7
100
AcDbEntity
  8
2
100
AcDbCircle
 10
-117.350641
 20
18.293617
 30
0.0
 40
3.0
100
AcDbArc
 50
0.0
 51
64.623066
  0
ARC
  5
2E8
100
AcDbEntity
  8
2
100
AcDbCircle
 10
-111.850641
 20
32.994484
 30
0.0
 40
1.5
100
AcDbArc
 50
0.0
 51
90.0
  0
LINE
  5
2E9
100
AcDbEntity
  8
2
100
AcDbLine
 10
-110.350641
 20
-20.255516
 30
0.0
 11
-110.350641
 21
46.744484
 31
0.0
  0
LINE
  5
2EA
100
AcDbEntity
  8
2
100
AcDbLine
 10
-111.850641
 20
-21.755516
 30
0.0
 11
-114.350641
 21
-21.755516
 31
0.0
  0
ARC
  5
2EB
100
AcDbEntity
  8
2
100
AcDbCircle
 10
-111.850641
 20
-20.255516
 30
0.0
 40
1.5
100
AcDbArc
 50
270.0
 51
360.0
  0
ARC
  5
2EC
100
AcDbEntity
  8
2
100
AcDbCircle
 10
-114.350641
 20
-17.755516
 30
0.0
 40
4.0
100
AcDbArc
 50
180.0
 51
270.0
  0
LINE
  5
2ED
100
AcDbEntity
  8
2
100
AcDbLine
 10
-118.350641
 20
-14.807485
 30
0.0
 11
-118.350641
 21
-17.755516
 31
0.0
  0
ARC
  5
2EE
100
AcDbEntity
  8
2
100
AcDbCircle
 10
-117.350641
 20
-10.208943
 30
0.0
 40
3.0
100
AcDbArc
 50
277.963831
 51
360.0
  0
ARC
  5
2EF
100
AcDbEntity
  8
2
100
AcDbCircle
 10
-116.707318
 20
-14.807485
 30
0.0
 40
1.643323
100
AcDbArc
 50
97.963831
 51
270.0
  0
LINE
  5
2F0
100
AcDbEntity
  8
2
100
AcDbLine
 10
-116.707318
 20
-16.450808
 30
0.0
 11
-111.850641
 21
-16.450808
 31
0.0
  0
LINE
  5
2F1
100
AcDbEntity
  8
2
100
AcDbLine
 10
-111.850641
 20
-8.005516
 30
0.0
 11
-114.350641
 21
-8.005516
 31
0.0
  0
LINE
  5
2F2
100
AcDbEntity
  8
2
100
AcDbLine
 10
-118.350641
 20
-4.005516
 30
0.0
 11
-118.350641
 21
1.870796
 31
0.0
  0
LINE
  5
2F3
100
AcDbEntity
  8
2
100
AcDbLine
 10
-114.350641
 20
-10.208943
 30
0.0
 11
-114.350641
 21
-8.005516
 31
0.0
  0
LINE
  5
2F4
100
AcDbEntity
  8
2
100
AcDbLine
 10
-114.350641
 20
8.195351
 30
0.0
 11
-114.350641
 21
18.293617
 31
0.0
  0
ARC
  5
2F5
100
AcDbEntity
  8
2
100
AcDbCircle
 10
-114.350641
 20
-4.005516
 30
0.0
 40
4.0
100
AcDbArc
 50
180.0
 51
270.0
  0
ARC
  5
2F6
100
AcDbEntity
  8
2
100
AcDbCircle
 10
-114.350641
 20
1.870796
 30
0.0
 40
4.0
100
AcDbArc
 50
115.376934
 51
180.0
  0
ARC
  5
2F7
100
AcDbEntity
  8
2
100
AcDbCircle
 10
-117.350641
 20
8.195351
 30
0.0
 40
3.0
100
AcDbArc
 50
295.376934
 51
360.0
  0
ARC
  5
2F8
100
AcDbEntity
  8
2
100
AcDbCircle
 10
-111.850641
 20
-6.505516
 30
0.0
 40
1.5
100
AcDbArc
 50
270.0
 51
360.0
  0
LINE
  5
2F9
100
AcDbEntity
  8
2
100
AcDbLine
 10
-111.850641
 20
21.515385
 30
0.0
 11
-114.350641
 21
21.515385
 31
0.0
  0
ARC
  5
2FA
100
AcDbEntity
  8
2
100
AcDbCircle
 10
-114.350641
 20
25.515385
 30
0.0
 40
4.0
100
AcDbArc
 50
180.0
 51
270.0
  0
LINE
  5
2FB
100
AcDbEntity
  8
2
100
AcDbLine
 10
-111.850641
 20
4.973582
 30
0.0
 11
-114.350641
 21
4.973582
 31
0.0
  0
ARC
  5
2FC
100
AcDbEntity
  8
2
100
AcDbCircle
 10
-114.350641
 20
0.973582
 30
0.0
 40
4.0
100
AcDbArc
 50
90.0
 51
180.0
  0
ARC
  5
2FD
100
AcDbEntity
  8
2
100
AcDbCircle
 10
-111.850641
 20
3.473582
 30
0.0
 40
1.5
100
AcDbArc
 50
360.0
 51
90.0
  0
ARC
  5
2FE
100
AcDbEntity
  8
2
100
AcDbCircle
 10
-111.850641
 20
23.015385
 30
0.0
 40
1.5
100
AcDbArc
 50
270.0
 51
360.0
  0
LINE
  5
2FF
100
AcDbEntity
  8
2
100
AcDbLine
 10
-228.350641
 20
-10.755516
 30
0.0
 11
-158.350641
 21
-10.755516
 31
0.0
  0
LINE
  5
300
100
AcDbEntity
  8
2
100
AcDbLine
 10
-228.350641
 20
-10.755516
 30
0.0
 11
-228.350641
 21
24.744484
 31
0.0
  0
LINE
  5
301
100
AcDbEntity
  8
2
100
AcDbLine
 10
-158.350641
 20
-10.755516
 30
0.0
 11
-158.350641
 21
24.744484
 31
0.0
  0
LINE
  5
302
100
AcDbEntity
  8
2
100
AcDbLine
 10
-223.350641
 20
8.244484
 30
0.0
 11
-163.350641
 21
8.244484
 31
0.0
  0
ARC
  5
303
100
AcDbEntity
  8
2
100
AcDbCircle
 10
-163.350641
 20
3.244484
 30
0.0
 40
5.0
100
AcDbArc
 50
0.0
 51
90.0
  0
ARC
  5
304
100
AcDbEntity
  8
2
100
AcDbCircle
 10
-223.350641
 20
3.244484
 30
0.0
 40
5.0
100
AcDbArc
 50
90.0
 51
180.0
  0
ARC
  5
305
100
AcDbEntity
  8
2
100
AcDbCircle
 10
-161.350641
 20
24.744484
 30
0.0
 40
3.0
100
AcDbArc
 50
0.0
 51
90.0
  0
ARC
  5
306
100
AcDbEntity
  8
2
100
AcDbCircle
 10
-225.350641
 20
24.744484
 30
0.0
 40
3.0
100
AcDbArc
 50
90.0
 51
180.0
  0
LINE
  5
307
100
AcDbEntity
  8
2
100
AcDbLine
 10
-158.350641
 20
13.244484
 30
0.0
 11
-228.350641
 21
13.244484
 31
0.0
  0
CIRCLE
  5
308
100
AcDbEntity
  8
2
100
AcDbCircle
 10
-180.350641
 20
18.244484
 30
0.0
 40
4.9
  0
LINE
  5
309
100
AcDbEntity
  8
2
100
AcDbLine
 10
-183.237393
 20
23.244484
 30
0.0
 11
-177.46389
 21
23.244484
 31
0.0
  0
LINE
  5
30A
100
AcDbEntity
  8
2
100
AcDbLine
 10
-186.124144
 20
18.244484
 30
0.0
 11
-183.237393
 21
23.244484
 31
0.0
  0
LINE
  5
30B
100
AcDbEntity
  8
2
100
AcDbLine
 10
-183.237393
 20
13.244484
 30
0.0
 11
-186.124144
 21
18.244484
 31
0.0
  0
LINE
  5
30C
100
AcDbEntity
  8
2
100
AcDbLine
 10
-177.46389
 20
23.244484
 30
0.0
 11
-174.577139
 21
18.244484
 31
0.0
  0
LINE
  5
30D
100
AcDbEntity
  8
2
100
AcDbLine
 10
-174.577139
 20
18.244484
 30
0.0
 11
-177.46389
 21
13.244484
 31
0.0
  0
LINE
  5
30E
100
AcDbEntity
  8
2
100
AcDbLine
 10
-216.350641
 20
19.244484
 30
0.0
 11
-216.350641
 21
25.744484
 31
0.0
  0
LINE
  5
30F
100
AcDbEntity
  8
2
100
AcDbLine
 10
-170.350641
 20
19.244484
 30
0.0
 11
-170.350641
 21
25.744484
 31
0.0
  0
LINE
  5
310
100
AcDbEntity
  8
2
100
AcDbLine
 10
-227.350641
 20
18.244484
 30
0.0
 11
-211.350641
 21
18.244484
 31
0.0
  0
LINE
  5
311
100
AcDbEntity
  8
2
100
AcDbLine
 10
-174.577139
 20
18.244484
 30
0.0
 11
-159.350641
 21
18.244484
 31
0.0
  0
ARC
  5
312
100
AcDbEntity
  8
2
100
AcDbCircle
 10
-169.350641
 20
19.244484
 30
0.0
 40
1.0
100
AcDbArc
 50
180.0
 51
270.0
  0
ARC
  5
313
100
AcDbEntity
  8
2
100
AcDbCircle
 10
-217.350641
 20
19.244484
 30
0.0
 40
1.0
100
AcDbArc
 50
270.0
 51
360.0
  0
ARC
  5
314
100
AcDbEntity
  8
2
100
AcDbCircle
 10
-159.350641
 20
17.244484
 30
0.0
 40
1.0
100
AcDbArc
 50
0.0
 51
90.0
  0
ARC
  5
315
100
AcDbEntity
  8
2
100
AcDbCircle
 10
-227.350641
 20
17.244484
 30
0.0
 40
1.0
100
AcDbArc
 50
90.0
 51
180.0
  0
ARC
  5
316
100
AcDbEntity
  8
2
100
AcDbCircle
 10
-172.350641
 20
25.744484
 30
0.0
 40
2.0
100
AcDbArc
 50
0.0
 51
90.0
  0
ARC
  5
317
100
AcDbEntity
  8
2
100
AcDbCircle
 10
-214.350641
 20
25.744484
 30
0.0
 40
2.0
100
AcDbArc
 50
90.0
 51
180.0
  0
LINE
  5
318
100
AcDbEntity
  8
2
100
AcDbLine
 10
-166.350641
 20
28.744484
 30
0.0
 11
-205.614097
 21
28.744484
 31
0.0
  0
LINE
  5
319
100
AcDbEntity
  8
2
100
AcDbLine
 10
-166.350641
 20
28.744484
 30
0.0
 11
-165.350641
 21
27.744484
 31
0.0
  0
LINE
  5
31A
100
AcDbEntity
  8
2
100
AcDbLine
 10
-176.82793
 20
28.744484
 30
0.0
 11
-176.059025
 21
27.744484
 31
0.0
  0
LINE
  5
31B
100
AcDbEntity
  8
2
100
AcDbLine
 10
-206.114097
 20
30.744484
 30
0.0
 11
-213.114097
 21
30.744484
 31
0.0
  0
LINE
  5
31C
100
AcDbEntity
  8
2
100
AcDbLine
 10
-213.614097
 20
30.244484
 30
0.0
 11
-213.614097
 21
28.244484
 31
0.0
  0
LINE
  5
31D
100
AcDbEntity
  8
2
100
AcDbLine
 10
-205.614097
 20
30.244484
 30
0.0
 11
-205.614097
 21
28.244484
 31
0.0
  0
ARC
  5
31E
100
AcDbEntity
  8
2
100
AcDbCircle
 10
-213.114097
 20
30.244484
 30
0.0
 40
0.5
100
AcDbArc
 50
90.0
 51
180.0
  0
ARC
  5
31F
100
AcDbEntity
  8
2
100
AcDbCircle
 10
-206.114097
 20
30.244484
 30
0.0
 40
0.5
100
AcDbArc
 50
0.0
 51
90.0
  0
ARC
  5
320
100
AcDbEntity
  8
2
100
AcDbCircle
 10
-214.114097
 20
28.244484
 30
0.0
 40
0.5
100
AcDbArc
 50
270.0
 51
360.0
  0
ARC
  5
321
100
AcDbEntity
  8
2
100
AcDbCircle
 10
-205.114097
 20
28.244484
 30
0.0
 40
0.5
100
AcDbArc
 50
180.0
 51
270.0
  0
LINE
  5
322
100
AcDbEntity
  8
2
100
AcDbLine
 10
-180.587185
 20
30.744484
 30
0.0
 11
-173.587185
 21
30.744484
 31
0.0
  0
LINE
  5
323
100
AcDbEntity
  8
2
100
AcDbLine
 10
-173.087185
 20
30.244484
 30
0.0
 11
-173.087185
 21
28.744484
 31
0.0
  0
LINE
  5
324
100
AcDbEntity
  8
2
100
AcDbLine
 10
-181.087185
 20
30.244484
 30
0.0
 11
-181.087185
 21
28.744484
 31
0.0
  0
ARC
  5
325
100
AcDbEntity
  8
2
100
AcDbCircle
 10
-173.587185
 20
30.244484
 30
0.0
 40
0.5
100
AcDbArc
 50
0.0
 51
90.0
  0
ARC
  5
326
100
AcDbEntity
  8
2
100
AcDbCircle
 10
-180.587185
 20
30.244484
 30
0.0
 40
0.5
100
AcDbArc
 50
90.0
 51
180.0
  0
LINE
  5
327
100
AcDbEntity
  8
2
100
AcDbLine
 10
-218.100641
 20
18.244484
 30
0.0
 11
-218.100641
 21
22.944484
 31
0.0
  0
LINE
  5
328
100
AcDbEntity
  8
2
100
AcDbLine
 10
-218.100641
 20
22.944484
 30
0.0
 11
-218.620256
 21
23.244484
 31
0.0
  0
LINE
  5
329
100
AcDbEntity
  8
2
100
AcDbLine
 10
-218.100641
 20
22.944484
 30
0.0
 11
-226.600641
 21
22.944484
 31
0.0
  0
LINE
  5
32A
100
AcDbEntity
  8
2
100
AcDbLine
 10
-226.600641
 20
18.244484
 30
0.0
 11
-226.600641
 21
22.944484
 31
0.0
  0
LINE
  5
32B
100
AcDbEntity
  8
2
100
AcDbLine
 10
-226.600641
 20
22.944484
 30
0.0
 11
-226.081026
 21
23.244484
 31
0.0
  0
LINE
  5
32C
100
AcDbEntity
  8
2
100
AcDbLine
 10
-226.081026
 20
23.244484
 30
0.0
 11
-218.620256
 21
23.244484
 31
0.0
  0
LINE
  5
32D
100
AcDbEntity
  8
2
100
AcDbLine
 10
-168.600641
 20
18.244484
 30
0.0
 11
-168.600641
 21
22.944484
 31
0.0
  0
LINE
  5
32E
100
AcDbEntity
  8
2
100
AcDbLine
 10
-168.600641
 20
22.944484
 30
0.0
 11
-168.081026
 21
23.244484
 31
0.0
  0
LINE
  5
32F
100
AcDbEntity
  8
2
100
AcDbLine
 10
-168.600641
 20
22.944484
 30
0.0
 11
-160.100641
 21
22.944484
 31
0.0
  0
LINE
  5
330
100
AcDbEntity
  8
2
100
AcDbLine
 10
-160.100641
 20
18.244484
 30
0.0
 11
-160.100641
 21
22.944484
 31
0.0
  0
LINE
  5
331
100
AcDbEntity
  8
2
100
AcDbLine
 10
-160.100641
 20
22.944484
 30
0.0
 11
-160.620256
 21
23.244484
 31
0.0
  0
LINE
  5
332
100
AcDbEntity
  8
2
100
AcDbLine
 10
-160.620256
 20
23.244484
 30
0.0
 11
-168.081026
 21
23.244484
 31
0.0
  0
ARC
  5
333
100
AcDbEntity
  8
2
100
AcDbCircle
 10
-209.614097
 20
56.275745
 30
0.0
 40
28.810291
100
AcDbArc
 50
262.019314
 51
277.980686
  0
LINE
  5
334
100
AcDbEntity
  8
2
100
AcDbLine
 10
-225.350641
 20
27.744484
 30
0.0
 11
-214.114097
 21
27.744484
 31
0.0
  0
LINE
  5
335
100
AcDbEntity
  8
2
100
AcDbLine
 10
-205.114097
 20
27.744484
 30
0.0
 11
-161.350641
 21
27.744484
 31
0.0
  0
LINE
  5
336
100
AcDbEntity
  8
2
100
AcDbLine
 10
-158.350641
 20
17.744484
 30
0.0
 11
-132.350641
 21
17.744484
 31
0.0
  0
LINE
  5
337
100
AcDbEntity
  8
2
100
AcDbLine
 10
-158.350641
 20
8.744484
 30
0.0
 11
-132.350641
 21
8.744484
 31
0.0
  0
LINE
  5
338
100
AcDbEntity
  8
2
  6
CENTER
 62
     2
100
AcDbLine
 10
-102.746653
 20
13.244484
 30
0.0
 11
-238.616884
 21
13.244484
 31
0.0
  0
LINE
  5
339
100
AcDbEntity
  8
2
  6
CENTER
 62
     2
100
AcDbLine
 10
-209.614097
 20
33.022933
 30
0.0
 11
-209.614097
 21
25.622184
 31
0.0
  0
LINE
  5
33A
100
AcDbEntity
  8
2
  6
CENTER
 62
     2
100
AcDbLine
 10
-177.087185
 20
33.022933
 30
0.0
 11
-177.087185
 21
25.622184
 31
0.0
  0
LINE
  5
33B
100
AcDbEntity
  8
2
  6
CENTER
 62
     2
100
AcDbLine
 10
-164.350641
 20
11.351203
 30
0.0
 11
-164.350641
 21
26.186622
 31
0.0
  0
LINE
  5
33C
100
AcDbEntity
  8
2
  6
CENTER
 62
     2
100
AcDbLine
 10
-222.350641
 20
11.351203
 30
0.0
 11
-222.350641
 21
26.186622
 31
0.0
  0
LINE
  5
33D
100
AcDbEntity
  8
2
100
AcDbLine
 10
62.899359
 20
43.744484
 30
0.0
 11
70.399359
 21
43.744484
 31
0.0
  0
LINE
  5
33E
100
AcDbEntity
  8
2
100
AcDbLine
 10
56.649359
 20
29.744484
 30
0.0
 11
76.649359
 21
29.744484
 31
0.0
  0
LINE
  5
33F
100
AcDbEntity
  8
2
100
AcDbLine
 10
55.649359
 20
28.744484
 30
0.0
 11
56.649359
 21
29.744484
 31
0.0
  0
LINE
  5
340
100
AcDbEntity
  8
2
100
AcDbLine
 10
76.649359
 20
29.744484
 30
0.0
 11
77.649359
 21
28.744484
 31
0.0
  0
LINE
  5
341
100
AcDbEntity
  8
2
100
AcDbLine
 10
70.399359
 20
43.744484
 30
0.0
 11
70.649359
 21
29.744484
 31
0.0
  0
LINE
  5
342
100
AcDbEntity
  8
2
100
AcDbLine
 10
62.899359
 20
43.744484
 30
0.0
 11
62.649359
 21
29.744484
 31
0.0
  0
LINE
  5
343
100
AcDbEntity
  8
2
100
AcDbLine
 10
65.899359
 20
29.744484
 30
0.0
 11
66.149359
 21
43.744484
 31
0.0
  0
LINE
  5
344
100
AcDbEntity
  8
2
100
AcDbLine
 10
67.399359
 20
29.744484
 30
0.0
 11
67.149359
 21
43.744484
 31
0.0
  0
LINE
  5
345
100
AcDbEntity
  8
2
  6
CENTER
 62
     2
100
AcDbLine
 10
91.398096
 20
-36.359936
 30
0.0
 11
91.398096
 21
-2.963518
 31
0.0
  0
ARC
  5
346
100
AcDbEntity
  8
2
  6
PHANTOM
 62
     2
100
AcDbCircle
 10
115.462087
 20
49.293187
 30
0.0
 40
15.0
100
AcDbArc
 50
202.330113
 51
277.669887
  0
ARC
  5
347
100
AcDbEntity
  8
2
  6
PHANTOM
 62
     2
100
AcDbCircle
 10
73.83663
 20
49.293187
 30
0.0
 40
15.0
100
AcDbArc
 50
262.330113
 51
337.669887
  0
ARC
  5
348
100
AcDbEntity
  8
2
  6
PHANTOM
 62
     2
100
AcDbCircle
 10
53.023902
 20
13.244484
 30
0.0
 40
15.0
100
AcDbArc
 50
322.330113
 51
37.669887
  0
ARC
  5
349
100
AcDbEntity
  8
2
  6
PHANTOM
 62
     2
100
AcDbCircle
 10
73.83663
 20
-22.80422
 30
0.0
 40
15.0
100
AcDbArc
 50
22.330113
 51
97.669887
  0
ARC
  5
34A
100
AcDbEntity
  8
2
  6
PHANTOM
 62
     2
100
AcDbCircle
 10
115.462087
 20
-22.80422
 30
0.0
 40
15.0
100
AcDbArc
 50
82.330113
 51
157.669887
  0
ARC
  5
34B
100
AcDbEntity
  8
2
  6
PHANTOM
 62
     2
100
AcDbCircle
 10
136.274816
 20
13.244484
 30
0.0
 40
15.0
100
AcDbArc
 50
142.330113
 51
217.669887
  0
ARC
  5
34C
100
AcDbEntity
  8
2
  6
PHANTOM
 62
     2
100
AcDbCircle
 10
118.465057
 20
26.994484
 30
0.0
 40
7.5
100
AcDbArc
 50
322.330113
 51
97.669887
  0
ARC
  5
34D
100
AcDbEntity
  8
2
  6
PHANTOM
 62
     2
100
AcDbCircle
 10
94.649359
 20
40.744484
 30
0.0
 40
7.5
100
AcDbArc
 50
22.330113
 51
157.669887
  0
ARC
  5
34E
100
AcDbEntity
  8
2
  6
PHANTOM
 62
     2
100
AcDbCircle
 10
70.83366
 20
26.994484
 30
0.0
 40
7.5
100
AcDbArc
 50
82.330113
 51
217.669887
  0
ARC
  5
34F
100
AcDbEntity
  8
2
  6
PHANTOM
 62
     2
100
AcDbCircle
 10
70.83366
 20
-0.505516
 30
0.0
 40
7.5
100
AcDbArc
 50
142.330113
 51
277.669887
  0
ARC
  5
350
100
AcDbEntity
  8
2
  6
PHANTOM
 62
     2
100
AcDbCircle
 10
94.649359
 20
-14.255516
 30
0.0
 40
7.5
100
AcDbArc
 50
202.330113
 51
337.669887
  0
ARC
  5
351
100
AcDbEntity
  8
2
  6
PHANTOM
 62
     2
100
AcDbCircle
 10
118.465057
 20
-0.505516
 30
0.0
 40
7.5
100
AcDbArc
 50
262.330113
 51
37.669887
  0
LINE
  5
352
100
AcDbEntity
  8
2
100
AcDbLine
 10
31.649359
 20
-10.755516
 30
0.0
 11
101.649359
 21
-10.755516
 31
0.0
  0
LINE
  5
353
100
AcDbEntity
  8
2
100
AcDbLine
 10
31.649359
 20
3.244484
 30
0.0
 11
31.649359
 21
-10.755516
 31
0.0
  0
LINE
  5
354
100
AcDbEntity
  8
2
100
AcDbLine
 10
36.649359
 20
8.244484
 30
0.0
 11
50.649359
 21
8.244484
 31
0.0
  0
LINE
  5
355
100
AcDbEntity
  8
2
100
AcDbLine
 10
101.649359
 20
-3.255516
 30
0.0
 11
101.649359
 21
-10.755516
 31
0.0
  0
LINE
  5
356
100
AcDbEntity
  8
2
100
AcDbLine
 10
44.649359
 20
24.744484
 30
0.0
 11
44.649359
 21
11.244484
 31
0.0
  0
LINE
  5
357
100
AcDbEntity
  8
2
100
AcDbLine
 10
105.649359
 20
27.744484
 30
0.0
 11
47.649359
 21
27.744484
 31
0.0
  0
ARC
  5
358
100
AcDbEntity
  8
2
100
AcDbCircle
 10
47.649359
 20
24.744484
 30
0.0
 40
3.0
100
AcDbArc
 50
90.0
 51
180.0
  0
LINE
  5
359
100
AcDbEntity
  8
2
100
AcDbLine
 10
106.649359
 20
26.744484
 30
0.0
 11
106.649359
 21
26.205965
 31
0.0
  0
ARC
  5
35A
100
AcDbEntity
  8
2
100
AcDbCircle
 10
105.649359
 20
26.744484
 30
0.0
 40
1.0
100
AcDbArc
 50
0.0
 51
90.0
  0
ARC
  5
35B
100
AcDbEntity
  8
2
100
AcDbCircle
 10
107.649359
 20
26.205965
 30
0.0
 40
1.0
100
AcDbArc
 50
180.0
 51
236.743569
  0
LINE
  5
35C
100
AcDbEntity
  8
2
100
AcDbLine
 10
108.649359
 20
-0.255516
 30
0.0
 11
91.649359
 21
-0.255516
 31
0.0
  0
LINE
  5
35D
100
AcDbEntity
  8
2
100
AcDbLine
 10
113.649359
 20
13.244484
 30
0.0
 11
113.649359
 21
4.744484
 31
0.0
  0
ARC
  5
35E
100
AcDbEntity
  8
2
100
AcDbCircle
 10
108.649359
 20
4.744484
 30
0.0
 40
5.0
100
AcDbArc
 50
270.0
 51
360.0
  0
ARC
  5
35F
100
AcDbEntity
  8
2
100
AcDbCircle
 10
104.649359
 20
-3.255516
 30
0.0
 40
3.0
100
AcDbArc
 50
90.0
 51
180.0
  0
ARC
  5
360
100
AcDbEntity
  8
2
100
AcDbCircle
 10
36.649359
 20
3.244484
 30
0.0
 40
5.0
100
AcDbArc
 50
90.0
 51
180.0
  0
ARC
  5
361
100
AcDbEntity
  8
2
100
AcDbCircle
 10
41.649359
 20
11.244484
 30
0.0
 40
3.0
100
AcDbArc
 50
270.0
 51
360.0
  0
LINE
  5
362
100
AcDbEntity
  8
2
100
AcDbLine
 10
44.649359
 20
13.244484
 30
0.0
 11
113.649359
 21
13.244484
 31
0.0
  0
LINE
  5
363
100
AcDbEntity
  8
2
100
AcDbLine
 10
94.649359
 20
27.744484
 30
0.0
 11
93.649359
 21
28.744484
 31
0.0
  0
LINE
  5
364
100
AcDbEntity
  8
2
100
AcDbLine
 10
49.649359
 20
28.744484
 30
0.0
 11
48.649359
 21
27.744484
 31
0.0
  0
LINE
  5
365
100
AcDbEntity
  8
2
100
AcDbLine
 10
71.649359
 20
27.744484
 30
0.0
 11
70.649359
 21
28.744484
 31
0.0
  0
LINE
  5
366
100
AcDbEntity
  8
2
100
AcDbLine
 10
62.649359
 20
28.744484
 30
0.0
 11
61.649359
 21
27.744484
 31
0.0
  0
LINE
  5
367
100
AcDbEntity
  8
2
100
AcDbLine
 10
53.885903
 20
30.744484
 30
0.0
 11
46.885903
 21
30.744484
 31
0.0
  0
LINE
  5
368
100
AcDbEntity
  8
2
100
AcDbLine
 10
46.385903
 20
30.244484
 30
0.0
 11
46.385903
 21
27.767764
 31
0.0
  0
LINE
  5
369
100
AcDbEntity
  8
2
100
AcDbLine
 10
54.385903
 20
30.244484
 30
0.0
 11
54.385903
 21
28.744484
 31
0.0
  0
ARC
  5
36A
100
AcDbEntity
  8
2
100
AcDbCircle
 10
46.885903
 20
30.244484
 30
0.0
 40
0.5
100
AcDbArc
 50
90.0
 51
180.0
  0
ARC
  5
36B
100
AcDbEntity
  8
2
100
AcDbCircle
 10
53.885903
 20
30.244484
 30
0.0
 40
0.5
100
AcDbArc
 50
0.0
 51
90.0
  0
LINE
  5
36C
100
AcDbEntity
  8
2
100
AcDbLine
 10
79.412815
 20
30.744484
 30
0.0
 11
86.412815
 21
30.744484
 31
0.0
  0
LINE
  5
36D
100
AcDbEntity
  8
2
100
AcDbLine
 10
86.912815
 20
30.244484
 30
0.0
 11
86.912815
 21
28.244484
 31
0.0
  0
LINE
  5
36E
100
AcDbEntity
  8
2
100
AcDbLine
 10
78.912815
 20
30.244484
 30
0.0
 11
78.912815
 21
28.244484
 31
0.0
  0
ARC
  5
36F
100
AcDbEntity
  8
2
100
AcDbCircle
 10
86.412815
 20
30.244484
 30
0.0
 40
0.5
100
AcDbArc
 50
0.0
 51
90.0
  0
ARC
  5
370
100
AcDbEntity
  8
2
100
AcDbCircle
 10
79.412815
 20
30.244484
 30
0.0
 40
0.5
100
AcDbArc
 50
90.0
 51
180.0
  0
ARC
  5
371
100
AcDbEntity
  8
2
100
AcDbCircle
 10
87.412815
 20
28.244484
 30
0.0
 40
0.5
100
AcDbArc
 50
180.0
 51
270.0
  0
ARC
  5
372
100
AcDbEntity
  8
2
100
AcDbCircle
 10
78.412815
 20
28.244484
 30
0.0
 40
0.5
100
AcDbArc
 50
270.0
 51
360.0
  0
LINE
  5
373
100
AcDbEntity
  8
2
100
AcDbLine
 10
49.649359
 20
28.744484
 30
0.0
 11
78.912815
 21
28.744484
 31
0.0
  0
LINE
  5
374
100
AcDbEntity
  8
2
100
AcDbLine
 10
86.912815
 20
28.744484
 30
0.0
 11
93.649359
 21
28.744484
 31
0.0
  0
ARC
  5
375
100
AcDbEntity
  8
2
100
AcDbCircle
 10
45.885903
 20
27.767764
 30
0.0
 40
0.5
100
AcDbArc
 50
300.254682
 51
360.0
  0
LINE
  5
376
100
AcDbEntity
  8
2
100
AcDbLine
 10
56.649359
 20
25.744484
 30
0.0
 11
56.649359
 21
19.244484
 31
0.0
  0
LINE
  5
377
100
AcDbEntity
  8
2
100
AcDbLine
 10
101.649359
 20
21.744484
 30
0.0
 11
101.649359
 21
19.244484
 31
0.0
  0
ARC
  5
378
100
AcDbEntity
  8
2
100
AcDbCircle
 10
95.649359
 20
21.744484
 30
0.0
 40
6.0
100
AcDbArc
 50
0.0
 51
90.0
  0
LINE
  5
379
100
AcDbEntity
  8
2
100
AcDbLine
 10
96.649359
 20
18.244484
 30
0.0
 11
112.043156
 21
18.244484
 31
0.0
  0
ARC
  5
37A
100
AcDbEntity
  8
2
100
AcDbCircle
 10
102.649359
 20
19.244484
 30
0.0
 40
1.0
100
AcDbArc
 50
180.0
 51
270.0
  0
ARC
  5
37B
100
AcDbEntity
  8
2
100
AcDbCircle
 10
112.043156
 20
17.244484
 30
0.0
 40
1.0
100
AcDbArc
 50
17.235285
 51
90.0
  0
LINE
  5
37C
100
AcDbEntity
  8
2
100
AcDbLine
 10
45.649359
 20
18.244484
 30
0.0
 11
61.649359
 21
18.244484
 31
0.0
  0
ARC
  5
37D
100
AcDbEntity
  8
2
100
AcDbCircle
 10
45.649359
 20
17.244484
 30
0.0
 40
1.0
100
AcDbArc
 50
90.0
 51
180.0
  0
ARC
  5
37E
100
AcDbEntity
  8
2
100
AcDbCircle
 10
55.649359
 20
19.244484
 30
0.0
 40
1.0
100
AcDbArc
 50
270.0
 51
360.0
  0
ARC
  5
37F
100
AcDbEntity
  8
2
100
AcDbCircle
 10
58.649359
 20
25.744484
 30
0.0
 40
2.0
100
AcDbArc
 50
90.0
 51
180.0
  0
LINE
  5
380
100
AcDbEntity
  8
2
100
AcDbLine
 10
103.399359
 20
18.244484
 30
0.0
 11
103.399359
 21
22.944484
 31
0.0
  0
LINE
  5
381
100
AcDbEntity
  8
2
100
AcDbLine
 10
103.399359
 20
22.944484
 30
0.0
 11
103.918974
 21
23.244484
 31
0.0
  0
LINE
  5
382
100
AcDbEntity
  8
2
100
AcDbLine
 10
103.918974
 20
23.244484
 30
0.0
 11
111.379744
 21
23.244484
 31
0.0
  0
LINE
  5
383
100
AcDbEntity
  8
2
100
AcDbLine
 10
111.899359
 20
18.244484
 30
0.0
 11
111.899359
 21
22.944484
 31
0.0
  0
LINE
  5
384
100
AcDbEntity
  8
2
100
AcDbLine
 10
111.899359
 20
22.944484
 30
0.0
 11
111.379744
 21
23.244484
 31
0.0
  0
LINE
  5
385
100
AcDbEntity
  8
2
100
AcDbLine
 10
111.899359
 20
22.944484
 30
0.0
 11
103.399359
 21
22.944484
 31
0.0
  0
LINE
  5
386
100
AcDbEntity
  8
2
100
AcDbLine
 10
46.399359
 20
18.244484
 30
0.0
 11
46.399359
 21
22.944484
 31
0.0
  0
LINE
  5
387
100
AcDbEntity
  8
2
100
AcDbLine
 10
46.399359
 20
22.944484
 30
0.0
 11
46.918974
 21
23.244484
 31
0.0
  0
LINE
  5
388
100
AcDbEntity
  8
2
100
AcDbLine
 10
46.918974
 20
23.244484
 30
0.0
 11
54.379744
 21
23.244484
 31
0.0
  0
LINE
  5
389
100
AcDbEntity
  8
2
100
AcDbLine
 10
54.899359
 20
18.244484
 30
0.0
 11
54.899359
 21
22.944484
 31
0.0
  0
LINE
  5
38A
100
AcDbEntity
  8
2
100
AcDbLine
 10
54.899359
 20
22.944484
 30
0.0
 11
54.379744
 21
23.244484
 31
0.0
  0
LINE
  5
38B
100
AcDbEntity
  8
2
100
AcDbLine
 10
54.899359
 20
22.944484
 30
0.0
 11
46.399359
 21
22.944484
 31
0.0
  0
ARC
  5
38C
100
AcDbEntity
  8
2
100
AcDbCircle
 10
99.149359
 20
13.244484
 30
0.0
 40
14.5
100
AcDbArc
 50
0.0
 51
28.440718
  0
ARC
  5
38D
100
AcDbEntity
  8
2
100
AcDbCircle
 10
99.149359
 20
13.244484
 30
0.0
 40
14.5
100
AcDbArc
 50
43.602819
 51
90.0
  0
LINE
  5
38E
100
AcDbEntity
  8
2
100
AcDbLine
 10
35.149359
 20
20.703484
 30
0.0
 11
35.149359
 21
15.785484
 31
0.0
  0
LINE
  5
38F
100
AcDbEntity
  8
2
100
AcDbLine
 10
35.149359
 20
20.703484
 30
0.0
 11
35.690359
 21
21.244484
 31
0.0
  0
LINE
  5
390
100
AcDbEntity
  8
2
100
AcDbLine
 10
35.690359
 20
21.244484
 30
0.0
 11
39.649359
 21
21.244484
 31
0.0
  0
LINE
  5
391
100
AcDbEntity
  8
2
100
AcDbLine
 10
35.690359
 20
21.244484
 30
0.0
 11
35.690359
 21
15.244484
 31
0.0
  0
LINE
  5
392
100
AcDbEntity
  8
2
 62
     2
100
AcDbLine
 10
35.149359
 20
20.703484
 30
0.0
 11
39.649359
 21
20.703484
 31
0.0
  0
LINE
  5
393
100
AcDbEntity
  8
2
100
AcDbLine
 10
35.149359
 20
15.785484
 30
0.0
 11
35.690359
 21
15.244484
 31
0.0
  0
LINE
  5
394
100
AcDbEntity
  8
2
100
AcDbLine
 10
35.690359
 20
15.244484
 30
0.0
 11
39.649359
 21
15.244484
 31
0.0
  0
LINE
  5
395
100
AcDbEntity
  8
2
 62
     2
100
AcDbLine
 10
35.149359
 20
15.785484
 30
0.0
 11
39.649359
 21
15.785484
 31
0.0
  0
LINE
  5
396
100
AcDbEntity
  8
2
100
AcDbLine
 10
44.649359
 20
13.244484
 30
0.0
 11
39.649359
 21
13.244484
 31
0.0
  0
LINE
  5
397
100
AcDbEntity
  8
2
100
AcDbLine
 10
39.649359
 20
13.244484
 30
0.0
 11
39.649359
 21
23.244484
 31
0.0
  0
ARC
  5
398
100
AcDbEntity
  8
2
100
AcDbCircle
 10
46.262566
 20
15.744484
 30
0.0
 40
6.613208
100
AcDbArc
 50
157.788205
 51
202.211795
  0
LINE
  5
399
100
AcDbEntity
  8
2
100
AcDbLine
 10
44.649359
 20
23.244484
 30
0.0
 11
39.649359
 21
23.244484
 31
0.0
  0
LINE
  5
39A
100
AcDbEntity
  8
2
100
AcDbLine
 10
44.649359
 20
18.244484
 30
0.0
 11
40.140106
 21
18.244484
 31
0.0
  0
ARC
  5
39B
100
AcDbEntity
  8
2
100
AcDbCircle
 10
46.262566
 20
20.744484
 30
0.0
 40
6.613208
100
AcDbArc
 50
157.788205
 51
202.211795
  0
CIRCLE
  5
39C
100
AcDbEntity
  8
2
100
AcDbCircle
 10
94.649359
 20
13.244484
 30
0.0
 40
4.5
  0
LINE
  5
39D
100
AcDbEntity
  8
2
  6
CENTER
 62
     2
100
AcDbLine
 10
135.819409
 20
13.244484
 30
0.0
 11
24.479799
 21
13.244484
 31
0.0
  0
LINE
  5
39E
100
AcDbEntity
  8
2
  6
CENTER
 62
     2
100
AcDbLine
 10
94.649359
 20
54.414534
 30
0.0
 11
94.649359
 21
-27.925567
 31
0.0
  0
LINE
  5
39F
100
AcDbEntity
  8
2
  6
CENTER
 62
     2
100
AcDbLine
 10
45.649359
 20
18.244484
 30
0.0
 11
30.874109
 21
18.244484
 31
0.0
  0
LINE
  5
3A0
100
AcDbEntity
  8
2
  6
CENTER
 62
     2
100
AcDbLine
 10
50.385903
 20
33.022933
 30
0.0
 11
50.385903
 21
25.622184
 31
0.0
  0
LINE
  5
3A1
100
AcDbEntity
  8
2
  6
CENTER
 62
     2
100
AcDbLine
 10
82.912815
 20
33.022933
 30
0.0
 11
82.912815
 21
25.622184
 31
0.0
  0
LINE
  5
3A2
100
AcDbEntity
  8
2
  6
CENTER
 62
     2
100
AcDbLine
 10
107.649359
 20
26.186622
 30
0.0
 11
107.649359
 21
11.351203
 31
0.0
  0
LINE
  5
3A3
100
AcDbEntity
  8
2
  6
CENTER
 62
     2
100
AcDbLine
 10
50.649359
 20
26.186622
 30
0.0
 11
50.649359
 21
11.351203
 31
0.0
  0
TEXT
  5
3A4
100
AcDbEntity
  8
2
100
AcDbText
 10
-174.850641
 20
143.742823
 30
0.0
 40
7.0
  1
Ｓ
 50
270.0
 72
     5
 11
-174.850641
 21
138.142823
 31
0.0
100
AcDbText
  0
TEXT
  5
3A5
100
AcDbEntity
  8
2
100
AcDbText
 10
-196.850641
 20
158.742823
 30
0.0
 40
7.0
  1
Ｏ
 72
     5
 11
-191.250641
 21
158.742823
 31
0.0
100
AcDbText
  0
LINE
  5
3A6
100
AcDbEntity
  8
2
100
AcDbLine
 10
-225.599379
 20
-24.755516
 30
0.0
 11
-225.599379
 21
-29.533828
 31
0.0
  0
LINE
  5
3A7
100
AcDbEntity
  8
2
100
AcDbLine
 10
-225.599379
 20
-29.533828
 30
0.0
 11
-224.349379
 21
-30.255516
 31
0.0
  0
LINE
  5
3A8
100
AcDbEntity
  8
2
100
AcDbLine
 10
-221.849379
 20
-24.755516
 30
0.0
 11
-221.849379
 21
-29.533828
 31
0.0
  0
ARC
  5
3A9
100
AcDbEntity
  8
2
100
AcDbCircle
 10
-223.724379
 20
-27.123452
 30
0.0
 40
3.053774
100
AcDbArc
 50
232.121121
 51
307.878879
  0
ARC
  5
3AA
100
AcDbEntity
  8
2
100
AcDbCircle
 10
-218.099379
 20
-18.927227
 30
0.0
 40
11.25
100
AcDbArc
 50
250.528781
 51
289.471223
  0
LINE
  5
3AB
100
AcDbEntity
  8
2
100
AcDbLine
 10
-211.71907
 20
-30.180282
 30
0.0
 11
-211.849379
 21
-30.255516
 31
0.0
  0
LINE
  5
3AC
100
AcDbEntity
  8
2
100
AcDbLine
 10
-211.849379
 20
-30.255516
 30
0.0
 11
-224.349379
 21
-30.255516
 31
0.0
  0
LINE
  5
3AD
100
AcDbEntity
  8
2
100
AcDbLine
 10
-214.349379
 20
-27.24914
 30
0.0
 11
-214.349379
 21
-29.533828
 31
0.0
  0
ARC
  5
3AE
100
AcDbEntity
  8
2
100
AcDbCircle
 10
-212.474379
 20
-27.123452
 30
0.0
 40
3.053774
100
AcDbArc
 50
232.121121
 51
283.160627
  0
LINE
  5
3AF
100
AcDbEntity
  8
2
100
AcDbLine
 10
-225.799379
 20
-22.755516
 30
0.0
 11
-225.799379
 21
-24.755516
 31
0.0
  0
LINE
  5
3B0
100
AcDbEntity
  8
2
100
AcDbLine
 10
-225.799379
 20
-24.755516
 30
0.0
 11
-217.930022
 21
-24.755516
 31
0.0
  0
LINE
  5
3B1
100
AcDbEntity
  8
2
100
AcDbLine
 10
91.22874
 20
-24.755516
 30
0.0
 11
99.098096
 21
-24.755516
 31
0.0
  0
LINE
  5
3B2
100
AcDbEntity
  8
2
100
AcDbLine
 10
99.098096
 20
-24.755516
 30
0.0
 11
99.098096
 21
-22.755516
 31
0.0
  0
LINE
  5
3B3
100
AcDbEntity
  8
2
100
AcDbLine
 10
91.398096
 20
-24.755516
 30
0.0
 11
91.398096
 21
-29.533828
 31
0.0
  0
ARC
  5
3B4
100
AcDbEntity
  8
2
100
AcDbCircle
 10
88.148096
 20
-22.576758
 30
0.0
 40
7.678759
100
AcDbArc
 50
248.648343
 51
295.03966
  0
LINE
  5
3B5
100
AcDbEntity
  8
2
100
AcDbLine
 10
97.898096
 20
-24.755516
 30
0.0
 11
97.898096
 21
-30.255516
 31
0.0
  0
LINE
  5
3B6
100
AcDbEntity
  8
2
100
AcDbLine
 10
97.898096
 20
-30.255516
 30
0.0
 11
84.964171
 21
-30.255516
 31
0.0
  0
ARC
  5
3B7
100
AcDbEntity
  8
2
100
AcDbCircle
 10
94.648096
 20
-22.576758
 30
0.0
 40
7.678759
100
AcDbArc
 50
244.96034
 51
295.03966
  0
DIMENSION
  5
3B8
100
AcDbEntity
  8
5
100
AcDbDimension
  2
*D0
 10
-4.864883
 20
13.244484
 30
0.0
 11
-10.484883
 21
3.224484
 31
0.0
  1
24
100
AcDbAlignedDimension
 13
31.649359
 23
-10.755516
 33
0.0
 14
24.479799
 24
13.244484
 34
0.0
 50
90.0
100
AcDbRotatedDimension
  0
DIMENSION
  5
3B9
100
AcDbEntity
  8
5
100
AcDbDimension
  2
*D1
 10
-76.092659
 20
-21.755516
 30
0.0
 11
-84.022659
 21
12.914484
 31
0.0
 70
     1
  1
%%c70
100
AcDbAlignedDimension
 13
-111.850641
 23
48.244484
 33
0.0
 14
-111.850641
 24
-21.755516
 34
0.0
 50
270.0
  0
DIMENSION
  5
3BA
100
AcDbEntity
  8
5
100
AcDbDimension
  2
*D2
 10
-110.350641
 20
223.778763
 30
0.0
 11
-151.850641
 21
228.078763
 31
0.0
  1
83
100
AcDbAlignedDimension
 13
-193.350641
 23
195.902495
 33
0.0
 14
-110.350641
 24
198.058521
 34
0.0
100
AcDbRotatedDimension
  0
DIMENSION
  5
3BB
100
AcDbEntity
  8
5
100
AcDbDimension
  2
*D3
 10
-4.864883
 20
-10.755516
 30
0.0
 11
-12.794883
 21
-80.085516
 31
0.0
  1
138
100
AcDbAlignedDimension
 13
33.175802
 23
-148.755516
 33
0.0
 14
31.649359
 24
-10.755516
 34
0.0
 50
90.0
100
AcDbRotatedDimension
  0
DIMENSION
  5
3BC
100
AcDbEntity
  8
5
100
AcDbDimension
  2
*D4
 10
-4.864883
 20
-148.755516
 30
0.0
 11
-10.484883
 21
-180.225516
 31
0.0
  1
67
100
AcDbAlignedDimension
 13
61.649359
 23
-215.655516
 33
0.0
 14
33.175802
 24
-148.755516
 34
0.0
 50
90.0
100
AcDbRotatedDimension
  0
DIMENSION
  5
3BD
100
AcDbEntity
  8
5
100
AcDbDimension
  2
*D5
 10
88.149359
 20
-243.601364
 30
0.0
 11
66.649359
 21
-239.301364
 31
0.0
  1
43
100
AcDbAlignedDimension
 13
45.149359
 23
-192.755516
 33
0.0
 14
88.149359
 24
-192.755516
 34
0.0
100
AcDbRotatedDimension
  0
DIMENSION
  5
3BE
100
AcDbEntity
  8
5
100
AcDbDimension
  2
*D6
 10
-76.092659
 20
168.242823
 30
0.0
 11
-81.712659
 21
156.222823
 31
0.0
  1
28
100
AcDbAlignedDimension
 13
-136.269854
 23
140.242823
 33
0.0
 14
-102.746653
 24
168.242823
 34
0.0
 50
90.0
100
AcDbRotatedDimension
  0
DIMENSION
  5
3BF
100
AcDbEntity
  8
5
100
AcDbDimension
  2
*D7
 10
-76.092659
 20
140.242823
 30
0.0
 11
-81.712659
 21
124.722823
 31
0.0
  1
35
100
AcDbAlignedDimension
 13
-168.350641
 23
105.242823
 33
0.0
 14
-136.269854
 24
140.242823
 34
0.0
 50
90.0
100
AcDbRotatedDimension
  0
LINE
  5
3C0
100
AcDbEntity
  8
13
100
AcDbLine
 10
-195.314742
 20
-143.656236
 30
0.0
 11
-195.314742
 21
-158.8313
 31
0.0
  0
LINE
  5
3C1
100
AcDbEntity
  8
13
100
AcDbLine
 10
-194.314742
 20
-143.757039
 30
0.0
 11
-194.314742
 21
-158.753993
 31
0.0
  0
LINE
  5
3C2
100
AcDbEntity
  8
13
100
AcDbLine
 10
-192.386539
 20
-143.891017
 30
0.0
 11
-192.386539
 21
-158.620015
 31
0.0
  0
LINE
  5
3C3
100
AcDbEntity
  8
13
100
AcDbLine
 10
-191.386539
 20
-144.023188
 30
0.0
 11
-191.386539
 21
-158.487845
 31
0.0
  0
LINE
  5
3C4
100
AcDbEntity
  8
13
100
AcDbLine
 10
-171.612485
 20
-157.605035
 30
0.0
 11
-187.775985
 21
-158.753963
 31
0.0
  0
LINE
  5
3C5
100
AcDbEntity
  8
13
100
AcDbLine
 10
-187.775985
 20
-158.753963
 30
0.0
 11
-187.776977
 21
-158.744684
 31
0.0
  0
LINE
  5
3C6
100
AcDbEntity
  8
13
100
AcDbLine
 10
-201.894613
 20
-167.678166
 30
0.0
 11
-184.806668
 21
-167.678166
 31
0.0
  0
LINE
  5
3C7
100
AcDbEntity
  8
13
100
AcDbLine
 10
-181.733385
 20
-169.410217
 30
0.0
 11
-202.749011
 21
-169.410217
 31
0.0
  0
LINE
  5
3C8
100
AcDbEntity
  8
13
100
AcDbLine
 10
-209.488957
 20
-167.678166
 30
0.0
 11
-209.469123
 21
-167.681773
 31
0.0
  0
LINE
  5
3C9
100
AcDbEntity
  8
13
100
AcDbLine
 10
-209.474173
 20
-167.688275
 30
0.0
 11
-209.488957
 21
-167.678166
 31
0.0
  0
LINE
  5
3CA
100
AcDbEntity
  8
13
100
AcDbLine
 10
-204.390859
 20
-167.678166
 30
0.0
 11
-201.894613
 21
-167.678166
 31
0.0
  0
LINE
  5
3CB
100
AcDbEntity
  8
13
100
AcDbLine
 10
-203.925754
 20
-167.526886
 30
0.0
 11
-204.390859
 21
-167.678166
 31
0.0
  0
LINE
  5
3CC
100
AcDbEntity
  8
13
100
AcDbLine
 10
-202.749011
 20
-169.410217
 30
0.0
 11
-204.967896
 21
-169.410217
 31
0.0
  0
LINE
  5
3CD
100
AcDbEntity
  8
13
100
AcDbLine
 10
-203.132486
 20
-167.395358
 30
0.0
 11
-203.409475
 21
-167.407951
 31
0.0
  0
LINE
  5
3CE
100
AcDbEntity
  8
13
100
AcDbLine
 10
-203.409475
 20
-167.407951
 30
0.0
 11
-203.705904
 21
-167.462654
 31
0.0
  0
LINE
  5
3CF
100
AcDbEntity
  8
13
100
AcDbLine
 10
-203.705904
 20
-167.462654
 30
0.0
 11
-203.925754
 21
-167.526886
 31
0.0
  0
LINE
  5
3D0
100
AcDbEntity
  8
13
100
AcDbLine
 10
-202.828909
 20
-164.090067
 30
0.0
 11
-202.828909
 21
-166.677726
 31
0.0
  0
LINE
  5
3D1
100
AcDbEntity
  8
13
100
AcDbLine
 10
-177.232158
 20
-167.681773
 30
0.0
 11
-177.212324
 21
-167.678166
 31
0.0
  0
LINE
  5
3D2
100
AcDbEntity
  8
13
100
AcDbLine
 10
-177.212324
 20
-167.678166
 30
0.0
 11
-177.227108
 21
-167.688275
 31
0.0
  0
LINE
  5
3D3
100
AcDbEntity
  8
13
100
AcDbLine
 10
-174.228906
 20
-160.212668
 30
0.0
 11
-181.83219
 21
-160.884407
 31
0.0
  0
LINE
  5
3D4
100
AcDbEntity
  8
13
100
AcDbLine
 10
-191.459996
 20
-159.630903
 30
0.0
 11
-173.652861
 21
-158.057669
 31
0.0
  0
LINE
  5
3D5
100
AcDbEntity
  8
13
100
AcDbLine
 10
-197.643534
 20
-166.677726
 30
0.0
 11
-197.643534
 21
-164.425802
 31
0.0
  0
LINE
  5
3D6
100
AcDbEntity
  8
13
100
AcDbLine
 10
-194.280391
 20
-159.248378
 30
0.0
 11
-194.314742
 21
-158.753993
 31
0.0
  0
LINE
  5
3D7
100
AcDbEntity
  8
13
100
AcDbLine
 10
-191.134927
 20
-158.987355
 30
0.0
 11
-191.520761
 21
-159.037527
 31
0.0
  0
LINE
  5
3D8
100
AcDbEntity
  8
13
100
AcDbLine
 10
-191.520761
 20
-159.037527
 30
0.0
 11
-191.930429
 21
-159.080284
 31
0.0
  0
LINE
  5
3D9
100
AcDbEntity
  8
13
100
AcDbLine
 10
-191.930429
 20
-159.080284
 30
0.0
 11
-192.352187
 21
-159.114399
 31
0.0
  0
LINE
  5
3DA
100
AcDbEntity
  8
13
100
AcDbLine
 10
-191.757558
 20
-159.65638
 30
0.0
 11
-191.459996
 21
-159.630903
 31
0.0
  0
LINE
  5
3DB
100
AcDbEntity
  8
13
100
AcDbLine
 10
-192.352187
 20
-159.114399
 30
0.0
 11
-192.386539
 21
-158.620015
 31
0.0
  0
LINE
  5
3DC
100
AcDbEntity
  8
13
100
AcDbLine
 10
-192.169419
 20
-159.683673
 30
0.0
 11
-191.965225
 21
-159.67208
 31
0.0
  0
LINE
  5
3DD
100
AcDbEntity
  8
13
100
AcDbLine
 10
-191.965225
 20
-159.67208
 30
0.0
 11
-191.757558
 21
-159.65638
 31
0.0
  0
LINE
  5
3DE
100
AcDbEntity
  8
13
100
AcDbLine
 10
-184.806668
 20
-167.678166
 30
0.0
 11
-182.310422
 21
-167.678166
 31
0.0
  0
LINE
  5
3DF
100
AcDbEntity
  8
13
100
AcDbLine
 10
-181.83219
 20
-160.884407
 30
0.0
 11
-181.724238
 21
-160.893364
 31
0.0
  0
LINE
  5
3E0
100
AcDbEntity
  8
13
100
AcDbLine
 10
-181.821538
 20
-160.865391
 30
0.0
 11
-181.83219
 21
-160.884407
 31
0.0
  0
LINE
  5
3E1
100
AcDbEntity
  8
13
100
AcDbLine
 10
-173.175033
 20
-158.804316
 30
0.0
 11
-173.839084
 21
-159.963195
 31
0.0
  0
LINE
  5
3E2
100
AcDbEntity
  8
13
100
AcDbLine
 10
-179.899098
 20
-161.051281
 30
0.0
 11
-172.326144
 21
-160.275184
 31
0.0
  0
LINE
  5
3E3
100
AcDbEntity
  8
13
100
AcDbLine
 10
-171.925995
 20
-159.993401
 30
0.0
 11
-171.125911
 21
-158.319388
 31
0.0
  0
LINE
  5
3E4
100
AcDbEntity
  8
13
100
AcDbLine
 10
-202.749011
 20
-128.100815
 30
0.0
 11
-183.952271
 21
-128.100815
 31
0.0
  0
LINE
  5
3E5
100
AcDbEntity
  8
13
100
AcDbLine
 10
-202.828909
 20
-130.832866
 30
0.0
 11
-202.828909
 21
-138.420965
 31
0.0
  0
LINE
  5
3E6
100
AcDbEntity
  8
13
100
AcDbLine
 10
-203.251238
 20
-130.016596
 30
0.0
 11
-205.27432
 21
-129.690434
 31
0.0
  0
LINE
  5
3E7
100
AcDbEntity
  8
13
100
AcDbLine
 10
-205.27432
 20
-129.690434
 30
0.0
 11
-206.176119
 21
-129.613591
 31
0.0
  0
LINE
  5
3E8
100
AcDbEntity
  8
13
100
AcDbLine
 10
-206.176119
 20
-129.613591
 30
0.0
 11
-207.164167
 21
-129.598598
 31
0.0
  0
LINE
  5
3E9
100
AcDbEntity
  8
13
100
AcDbLine
 10
-207.164167
 20
-129.598598
 30
0.0
 11
-208.156243
 21
-129.652425
 31
0.0
  0
LINE
  5
3EA
100
AcDbEntity
  8
13
100
AcDbLine
 10
-208.156243
 20
-129.652425
 30
0.0
 11
-209.469123
 21
-129.829259
 31
0.0
  0
LINE
  5
3EB
100
AcDbEntity
  8
13
100
AcDbLine
 10
-209.469123
 20
-129.829259
 30
0.0
 11
-209.488957
 21
-129.832866
 31
0.0
  0
LINE
  5
3EC
100
AcDbEntity
  8
13
100
AcDbLine
 10
-209.488957
 20
-129.832866
 30
0.0
 11
-209.474173
 21
-129.822757
 31
0.0
  0
LINE
  5
3ED
100
AcDbEntity
  8
13
100
AcDbLine
 10
-209.474173
 20
-129.822757
 30
0.0
 11
-208.380982
 21
-129.151924
 31
0.0
  0
LINE
  5
3EE
100
AcDbEntity
  8
13
100
AcDbLine
 10
-208.380982
 20
-129.151924
 30
0.0
 11
-207.500146
 21
-128.720159
 31
0.0
  0
LINE
  5
3EF
100
AcDbEntity
  8
13
100
AcDbLine
 10
-207.500146
 20
-128.720159
 30
0.0
 11
-206.608938
 21
-128.3851
 31
0.0
  0
LINE
  5
3F0
100
AcDbEntity
  8
13
100
AcDbLine
 10
-206.608938
 20
-128.3851
 30
0.0
 11
-205.770846
 21
-128.176801
 31
0.0
  0
LINE
  5
3F1
100
AcDbEntity
  8
13
100
AcDbLine
 10
-205.770846
 20
-128.176801
 30
0.0
 11
-204.967896
 21
-128.100815
 31
0.0
  0
LINE
  5
3F2
100
AcDbEntity
  8
13
100
AcDbLine
 10
-204.967896
 20
-128.100815
 30
0.0
 11
-202.749011
 21
-128.100815
 31
0.0
  0
LINE
  5
3F3
100
AcDbEntity
  8
13
100
AcDbLine
 10
-184.932006
 20
-136.624719
 30
0.0
 11
-184.932006
 21
-130.832866
 31
0.0
  0
LINE
  5
3F4
100
AcDbEntity
  8
13
100
AcDbLine
 10
-185.541239
 20
-136.673822
 30
0.0
 11
-185.541239
 21
-130.832866
 31
0.0
  0
LINE
  5
3F5
100
AcDbEntity
  8
13
100
AcDbLine
 10
-197.643534
 20
-138.08523
 30
0.0
 11
-197.643534
 21
-130.832866
 31
0.0
  0
LINE
  5
3F6
100
AcDbEntity
  8
13
100
AcDbLine
 10
-181.83219
 20
-141.626625
 30
0.0
 11
-171.743038
 21
-142.517986
 31
0.0
  0
LINE
  5
3F7
100
AcDbEntity
  8
13
100
AcDbLine
 10
-187.775985
 20
-143.757069
 30
0.0
 11
-169.972314
 21
-145.022583
 31
0.0
  0
LINE
  5
3F8
100
AcDbEntity
  8
13
100
AcDbLine
 10
-171.563221
 20
-144.637979
 30
0.0
 11
-191.459996
 21
-142.880129
 31
0.0
  0
LINE
  5
3F9
100
AcDbEntity
  8
13
100
AcDbLine
 10
-194.280391
 20
-143.262654
 30
0.0
 11
-194.314742
 21
-143.757039
 31
0.0
  0
LINE
  5
3FA
100
AcDbEntity
  8
13
100
AcDbLine
 10
-192.352187
 20
-143.396633
 30
0.0
 11
-192.386539
 21
-143.891017
 31
0.0
  0
LINE
  5
3FB
100
AcDbEntity
  8
13
100
AcDbLine
 10
-187.776977
 20
-143.766348
 30
0.0
 11
-187.775985
 21
-143.757069
 31
0.0
  0
LINE
  5
3FC
100
AcDbEntity
  8
13
100
AcDbLine
 10
-170.191664
 20
-142.454596
 30
0.0
 11
-179.899098
 21
-141.459751
 31
0.0
  0
LINE
  5
3FD
100
AcDbEntity
  8
13
100
AcDbLine
 10
-169.446063
 20
-144.428365
 30
0.0
 11
-169.751839
 21
-142.856514
 31
0.0
  0
LINE
  5
3FE
100
AcDbEntity
  8
13
100
AcDbLine
 10
-171.300661
 20
-142.90014
 30
0.0
 11
-171.032838
 21
-144.024013
 31
0.0
  0
LINE
  5
3FF
100
AcDbEntity
  8
13
100
AcDbLine
 10
-177.212324
 20
-129.832866
 30
0.0
 11
-177.232158
 21
-129.829259
 31
0.0
  0
LINE
  5
400
100
AcDbEntity
  8
13
100
AcDbLine
 10
-177.227108
 20
-129.822757
 30
0.0
 11
-177.212324
 21
-129.832866
 31
0.0
  0
LINE
  5
401
100
AcDbEntity
  8
13
100
AcDbLine
 10
-182.310422
 20
-129.832866
 30
0.0
 11
-184.806668
 21
-129.832866
 31
0.0
  0
LINE
  5
402
100
AcDbEntity
  8
13
100
AcDbLine
 10
-183.952271
 20
-128.100815
 30
0.0
 11
-181.733385
 21
-128.100815
 31
0.0
  0
LINE
  5
403
100
AcDbEntity
  8
13
100
AcDbLine
 10
-184.806668
 20
-129.832866
 30
0.0
 11
-204.390859
 21
-129.832866
 31
0.0
  0
ARC
  5
404
100
AcDbEntity
  8
13
100
AcDbCircle
 10
-198.644908
 20
-130.832866
 30
0.0
 40
1.001374
100
AcDbArc
 50
0.0
 51
93.001862
  0
ARC
  5
405
100
AcDbEntity
  8
13
100
AcDbCircle
 10
-203.828909
 20
-130.832866
 30
0.0
 40
1.0
100
AcDbArc
 50
0.0
 51
90.0
  0
ARC
  5
406
100
AcDbEntity
  8
13
100
AcDbCircle
 10
-184.541239
 20
-130.832866
 30
0.0
 40
1.0
100
AcDbArc
 50
90.0
 51
180.0
  0
ARC
  5
407
100
AcDbEntity
  8
13
100
AcDbCircle
 10
-183.932006
 20
-130.832866
 30
0.0
 40
1.0
100
AcDbArc
 50
90.0
 51
180.0
  0
ARC
  5
408
100
AcDbEntity
  8
13
100
AcDbCircle
 10
-179.758835
 20
-143.506432
 30
0.0
 40
13.909601
100
AcDbArc
 50
79.450149
 51
100.570238
  0
ARC
  5
409
100
AcDbEntity
  8
13
100
AcDbCircle
 10
-182.839477
 20
-137.759355
 30
0.0
 40
9.721668
100
AcDbArc
 50
54.630473
 51
83.466974
  0
POLYLINE
  5
40A
100
AcDbEntity
  8
13
100
AcDb2dPolyline
 66
     1
 10
0.0
 20
0.0
 30
0.0
  0
VERTEX
  5
933
100
AcDbEntity
  8
13
100
AcDbVertex
100
AcDb2dVertex
 10
-185.541239
 20
-136.673822
 30
0.0
  0
VERTEX
  5
934
100
AcDbEntity
  8
13
100
AcDbVertex
100
AcDb2dVertex
 10
-185.538308
 20
-136.727817
 30
0.0
  0
VERTEX
  5
935
100
AcDbEntity
  8
13
100
AcDbVertex
100
AcDb2dVertex
 10
-185.535323
 20
-136.781806
 30
0.0
  0
VERTEX
  5
936
100
AcDbEntity
  8
13
100
AcDbVertex
100
AcDb2dVertex
 10
-185.532232
 20
-136.835784
 30
0.0
  0
VERTEX
  5
937
100
AcDbEntity
  8
13
100
AcDbVertex
100
AcDb2dVertex
 10
-185.521791
 20
-136.997587
 30
0.0
  0
VERTEX
  5
938
100
AcDbEntity
  8
13
100
AcDbVertex
100
AcDb2dVertex
 10
-185.508482
 20
-137.159073
 30
0.0
  0
VERTEX
  5
939
100
AcDbEntity
  8
13
100
AcDbVertex
100
AcDb2dVertex
 10
-185.50316
 20
-137.212804
 30
0.0
  0
VERTEX
  5
93A
100
AcDbEntity
  8
13
100
AcDbVertex
100
AcDb2dVertex
 10
-185.497307
 20
-137.266476
 30
0.0
  0
VERTEX
  5
93B
100
AcDbEntity
  8
13
100
AcDbVertex
100
AcDb2dVertex
 10
-185.49087
 20
-137.320083
 30
0.0
  0
VERTEX
  5
93C
100
AcDbEntity
  8
13
100
AcDbVertex
100
AcDb2dVertex
 10
-185.48382
 20
-137.373525
 30
0.0
  0
VERTEX
  5
93D
100
AcDbEntity
  8
13
100
AcDbVertex
100
AcDb2dVertex
 10
-185.47615
 20
-137.426892
 30
0.0
  0
VERTEX
  5
93E
100
AcDbEntity
  8
13
100
AcDbVertex
100
AcDb2dVertex
 10
-185.467874
 20
-137.48018
 30
0.0
  0
VERTEX
  5
93F
100
AcDbEntity
  8
13
100
AcDbVertex
100
AcDb2dVertex
 10
-185.43956
 20
-137.639525
 30
0.0
  0
VERTEX
  5
940
100
AcDbEntity
  8
13
100
AcDbVertex
100
AcDb2dVertex
 10
-185.406325
 20
-137.797999
 30
0.0
  0
VERTEX
  5
941
100
AcDbEntity
  8
13
100
AcDbVertex
100
AcDb2dVertex
 10
-185.394221
 20
-137.85061
 30
0.0
  0
VERTEX
  5
942
100
AcDbEntity
  8
13
100
AcDbVertex
100
AcDb2dVertex
 10
-185.38163
 20
-137.903105
 30
0.0
  0
VERTEX
  5
943
100
AcDbEntity
  8
13
100
AcDbVertex
100
AcDb2dVertex
 10
-185.368566
 20
-137.955482
 30
0.0
  0
VERTEX
  5
944
100
AcDbEntity
  8
13
100
AcDbVertex
100
AcDb2dVertex
 10
-185.355122
 20
-138.007427
 30
0.0
  0
VERTEX
  5
945
100
AcDbEntity
  8
13
100
AcDbVertex
100
AcDb2dVertex
 10
-185.341221
 20
-138.059245
 30
0.0
  0
VERTEX
  5
946
100
AcDbEntity
  8
13
100
AcDbVertex
100
AcDb2dVertex
 10
-185.326861
 20
-138.11093
 30
0.0
  0
VERTEX
  5
947
100
AcDbEntity
  8
13
100
AcDbVertex
100
AcDb2dVertex
 10
-185.280989
 20
-138.265146
 30
0.0
  0
VERTEX
  5
948
100
AcDbEntity
  8
13
100
AcDbVertex
100
AcDb2dVertex
 10
-185.230859
 20
-138.417994
 30
0.0
  0
VERTEX
  5
949
100
AcDbEntity
  8
13
100
AcDbVertex
100
AcDb2dVertex
 10
-185.213188
 20
-138.468616
 30
0.0
  0
VERTEX
  5
94A
100
AcDbEntity
  8
13
100
AcDbVertex
100
AcDb2dVertex
 10
-185.19503
 20
-138.519066
 30
0.0
  0
VERTEX
  5
94B
100
AcDbEntity
  8
13
100
AcDbVertex
100
AcDb2dVertex
 10
-185.176383
 20
-138.569339
 30
0.0
  0
VERTEX
  5
94C
100
AcDbEntity
  8
13
100
AcDbVertex
100
AcDb2dVertex
 10
-185.157433
 20
-138.618942
 30
0.0
  0
VERTEX
  5
94D
100
AcDbEntity
  8
13
100
AcDbVertex
100
AcDb2dVertex
 10
-185.138001
 20
-138.668362
 30
0.0
  0
VERTEX
  5
94E
100
AcDbEntity
  8
13
100
AcDbVertex
100
AcDb2dVertex
 10
-185.11809
 20
-138.717593
 30
0.0
  0
VERTEX
  5
94F
100
AcDbEntity
  8
13
100
AcDbVertex
100
AcDb2dVertex
 10
-185.05549
 20
-138.864102
 30
0.0
  0
VERTEX
  5
950
100
AcDbEntity
  8
13
100
AcDbVertex
100
AcDb2dVertex
 10
-184.988629
 20
-139.008729
 30
0.0
  0
VERTEX
  5
951
100
AcDbEntity
  8
13
100
AcDbVertex
100
AcDb2dVertex
 10
-184.965403
 20
-139.056496
 30
0.0
  0
VERTEX
  5
952
100
AcDbEntity
  8
13
100
AcDbVertex
100
AcDb2dVertex
 10
-184.94171
 20
-139.104033
 30
0.0
  0
VERTEX
  5
953
100
AcDbEntity
  8
13
100
AcDbVertex
100
AcDb2dVertex
 10
-184.917552
 20
-139.151335
 30
0.0
  0
VERTEX
  5
954
100
AcDbEntity
  8
13
100
AcDbVertex
100
AcDb2dVertex
 10
-184.885059
 20
-139.213208
 30
0.0
  0
VERTEX
  5
955
100
AcDbEntity
  8
13
100
AcDbVertex
100
AcDb2dVertex
 10
-184.851765
 20
-139.274653
 30
0.0
  0
VERTEX
  5
956
100
AcDbEntity
  8
13
100
AcDbVertex
100
AcDb2dVertex
 10
-184.817671
 20
-139.335656
 30
0.0
  0
VERTEX
  5
957
100
AcDbEntity
  8
13
100
AcDbVertex
100
AcDb2dVertex
 10
-184.710613
 20
-139.515891
 30
0.0
  0
VERTEX
  5
958
100
AcDbEntity
  8
13
100
AcDbVertex
100
AcDb2dVertex
 10
-184.67334
 20
-139.575
 30
0.0
  0
VERTEX
  5
959
100
AcDbEntity
  8
13
100
AcDbVertex
100
AcDb2dVertex
 10
-184.635276
 20
-139.633604
 30
0.0
  0
VERTEX
  5
95A
100
AcDbEntity
  8
13
100
AcDbVertex
100
AcDb2dVertex
 10
-184.596423
 20
-139.69169
 30
0.0
  0
VERTEX
  5
95B
100
AcDbEntity
  8
13
100
AcDbVertex
100
AcDb2dVertex
 10
-184.55742
 20
-139.748333
 30
0.0
  0
VERTEX
  5
95C
100
AcDbEntity
  8
13
100
AcDbVertex
100
AcDb2dVertex
 10
-184.517658
 20
-139.804449
 30
0.0
  0
VERTEX
  5
95D
100
AcDbEntity
  8
13
100
AcDbVertex
100
AcDb2dVertex
 10
-184.477141
 20
-139.860022
 30
0.0
  0
VERTEX
  5
95E
100
AcDbEntity
  8
13
100
AcDbVertex
100
AcDb2dVertex
 10
-184.351098
 20
-140.023354
 30
0.0
  0
VERTEX
  5
95F
100
AcDbEntity
  8
13
100
AcDbVertex
100
AcDb2dVertex
 10
-184.307598
 20
-140.076624
 30
0.0
  0
VERTEX
  5
960
100
AcDbEntity
  8
13
100
AcDbVertex
100
AcDb2dVertex
 10
-184.263363
 20
-140.129284
 30
0.0
  0
VERTEX
  5
961
100
AcDbEntity
  8
13
100
AcDbVertex
100
AcDb2dVertex
 10
-184.218394
 20
-140.18132
 30
0.0
  0
VERTEX
  5
962
100
AcDbEntity
  8
13
100
AcDbVertex
100
AcDb2dVertex
 10
-184.173516
 20
-140.231811
 30
0.0
  0
VERTEX
  5
963
100
AcDbEntity
  8
13
100
AcDbVertex
100
AcDb2dVertex
 10
-184.12794
 20
-140.281674
 30
0.0
  0
VERTEX
  5
964
100
AcDbEntity
  8
13
100
AcDbVertex
100
AcDb2dVertex
 10
-184.081672
 20
-140.330895
 30
0.0
  0
VERTEX
  5
965
100
AcDbEntity
  8
13
100
AcDbVertex
100
AcDb2dVertex
 10
-183.938765
 20
-140.474574
 30
0.0
  0
VERTEX
  5
966
100
AcDbEntity
  8
13
100
AcDbVertex
100
AcDb2dVertex
 10
-183.88978
 20
-140.521095
 30
0.0
  0
VERTEX
  5
967
100
AcDbEntity
  8
13
100
AcDbVertex
100
AcDb2dVertex
 10
-183.840129
 20
-140.566906
 30
0.0
  0
VERTEX
  5
968
100
AcDbEntity
  8
13
100
AcDbVertex
100
AcDb2dVertex
 10
-183.789818
 20
-140.611996
 30
0.0
  0
VERTEX
  5
969
100
AcDbEntity
  8
13
100
AcDbVertex
100
AcDb2dVertex
 10
-183.739806
 20
-140.655532
 30
0.0
  0
VERTEX
  5
96A
100
AcDbEntity
  8
13
100
AcDbVertex
100
AcDb2dVertex
 10
-183.689171
 20
-140.698344
 30
0.0
  0
VERTEX
  5
96B
100
AcDbEntity
  8
13
100
AcDbVertex
100
AcDb2dVertex
 10
-183.63792
 20
-140.740417
 30
0.0
  0
VERTEX
  5
96C
100
AcDbEntity
  8
13
100
AcDbVertex
100
AcDb2dVertex
 10
-183.480546
 20
-140.862049
 30
0.0
  0
VERTEX
  5
96D
100
AcDbEntity
  8
13
100
AcDbVertex
100
AcDb2dVertex
 10
-183.426906
 20
-140.901013
 30
0.0
  0
VERTEX
  5
96E
100
AcDbEntity
  8
13
100
AcDbVertex
100
AcDb2dVertex
 10
-183.372689
 20
-140.939161
 30
0.0
  0
VERTEX
  5
96F
100
AcDbEntity
  8
13
100
AcDbVertex
100
AcDb2dVertex
 10
-183.3179
 20
-140.976479
 30
0.0
  0
VERTEX
  5
970
100
AcDbEntity
  8
13
100
AcDbVertex
100
AcDb2dVertex
 10
-183.23619
 20
-141.029897
 30
0.0
  0
VERTEX
  5
971
100
AcDbEntity
  8
13
100
AcDbVertex
100
AcDb2dVertex
 10
-183.153295
 20
-141.081457
 30
0.0
  0
VERTEX
  5
972
100
AcDbEntity
  8
13
100
AcDbVertex
100
AcDb2dVertex
 10
-183.069249
 20
-141.131135
 30
0.0
  0
VERTEX
  5
973
100
AcDbEntity
  8
13
100
AcDbVertex
100
AcDb2dVertex
 10
-182.984089
 20
-141.178908
 30
0.0
  0
VERTEX
  5
974
100
AcDbEntity
  8
13
100
AcDbVertex
100
AcDb2dVertex
 10
-182.897851
 20
-141.224751
 30
0.0
  0
VERTEX
  5
975
100
AcDbEntity
  8
13
100
AcDbVertex
100
AcDb2dVertex
 10
-182.81057
 20
-141.268643
 30
0.0
  0
VERTEX
  5
976
100
AcDbEntity
  8
13
100
AcDbVertex
100
AcDb2dVertex
 10
-182.723741
 20
-141.309873
 30
0.0
  0
VERTEX
  5
977
100
AcDbEntity
  8
13
100
AcDbVertex
100
AcDb2dVertex
 10
-182.635977
 20
-141.349084
 30
0.0
  0
VERTEX
  5
978
100
AcDbEntity
  8
13
100
AcDbVertex
100
AcDb2dVertex
 10
-182.547317
 20
-141.386167
 30
0.0
  0
VERTEX
  5
979
100
AcDbEntity
  8
13
100
AcDbVertex
100
AcDb2dVertex
 10
-182.457801
 20
-141.421016
 30
0.0
  0
VERTEX
  5
97A
100
AcDbEntity
  8
13
100
AcDbVertex
100
AcDb2dVertex
 10
-182.367467
 20
-141.453522
 30
0.0
  0
VERTEX
  5
97B
100
AcDbEntity
  8
13
100
AcDbVertex
100
AcDb2dVertex
 10
-182.276356
 20
-141.483577
 30
0.0
  0
VERTEX
  5
97C
100
AcDbEntity
  8
13
100
AcDbVertex
100
AcDb2dVertex
 10
-182.166015
 20
-141.516405
 30
0.0
  0
VERTEX
  5
97D
100
AcDbEntity
  8
13
100
AcDbVertex
100
AcDb2dVertex
 10
-182.054786
 20
-141.54616
 30
0.0
  0
VERTEX
  5
97E
100
AcDbEntity
  8
13
100
AcDbVertex
100
AcDb2dVertex
 10
-181.942847
 20
-141.573455
 30
0.0
  0
VERTEX
  5
97F
100
AcDbEntity
  8
13
100
AcDbVertex
100
AcDb2dVertex
 10
-181.830377
 20
-141.598907
 30
0.0
  0
VERTEX
  5
980
100
AcDbEntity
  8
13
100
AcDbVertex
100
AcDb2dVertex
 10
-181.717551
 20
-141.623129
 30
0.0
  0
VERTEX
  5
981
100
AcDbEntity
  8
13
100
AcDbVertex
100
AcDb2dVertex
 10
-181.604547
 20
-141.646737
 30
0.0
  0
SEQEND
  5
982
100
AcDbEntity
  8
13
  0
POLYLINE
  5
45B
100
AcDbEntity
  8
13
100
AcDb2dPolyline
 66
     1
 10
0.0
 20
0.0
 30
0.0
  0
VERTEX
  5
983
100
AcDbEntity
  8
13
100
AcDbVertex
100
AcDb2dVertex
 10
-184.932006
 20
-136.624719
 30
0.0
  0
VERTEX
  5
984
100
AcDbEntity
  8
13
100
AcDbVertex
100
AcDb2dVertex
 10
-184.923229
 20
-136.663886
 30
0.0
  0
VERTEX
  5
985
100
AcDbEntity
  8
13
100
AcDbVertex
100
AcDb2dVertex
 10
-184.9144
 20
-136.703041
 30
0.0
  0
VERTEX
  5
986
100
AcDbEntity
  8
13
100
AcDbVertex
100
AcDb2dVertex
 10
-184.905467
 20
-136.742172
 30
0.0
  0
VERTEX
  5
987
100
AcDbEntity
  8
13
100
AcDbVertex
100
AcDb2dVertex
 10
-184.896378
 20
-136.781268
 30
0.0
  0
VERTEX
  5
988
100
AcDbEntity
  8
13
100
AcDbVertex
100
AcDb2dVertex
 10
-184.88708
 20
-136.820316
 30
0.0
  0
VERTEX
  5
989
100
AcDbEntity
  8
13
100
AcDbVertex
100
AcDb2dVertex
 10
-184.870771
 20
-136.886262
 30
0.0
  0
VERTEX
  5
98A
100
AcDbEntity
  8
13
100
AcDbVertex
100
AcDb2dVertex
 10
-184.853729
 20
-136.952033
 30
0.0
  0
VERTEX
  5
98B
100
AcDbEntity
  8
13
100
AcDbVertex
100
AcDb2dVertex
 10
-184.835964
 20
-137.017621
 30
0.0
  0
VERTEX
  5
98C
100
AcDbEntity
  8
13
100
AcDbVertex
100
AcDb2dVertex
 10
-184.778455
 20
-137.213238
 30
0.0
  0
VERTEX
  5
98D
100
AcDbEntity
  8
13
100
AcDbVertex
100
AcDb2dVertex
 10
-184.714862
 20
-137.407007
 30
0.0
  0
VERTEX
  5
98E
100
AcDbEntity
  8
13
100
AcDbVertex
100
AcDb2dVertex
 10
-184.692366
 20
-137.471158
 30
0.0
  0
VERTEX
  5
98F
100
AcDbEntity
  8
13
100
AcDbVertex
100
AcDb2dVertex
 10
-184.66924
 20
-137.53508
 30
0.0
  0
VERTEX
  5
990
100
AcDbEntity
  8
13
100
AcDbVertex
100
AcDb2dVertex
 10
-184.645496
 20
-137.598766
 30
0.0
  0
VERTEX
  5
991
100
AcDbEntity
  8
13
100
AcDbVertex
100
AcDb2dVertex
 10
-184.62257
 20
-137.65855
 30
0.0
  0
VERTEX
  5
992
100
AcDbEntity
  8
13
100
AcDbVertex
100
AcDb2dVertex
 10
-184.599117
 20
-137.718121
 30
0.0
  0
VERTEX
  5
993
100
AcDbEntity
  8
13
100
AcDbVertex
100
AcDb2dVertex
 10
-184.575149
 20
-137.777481
 30
0.0
  0
VERTEX
  5
994
100
AcDbEntity
  8
13
100
AcDbVertex
100
AcDb2dVertex
 10
-184.500269
 20
-137.954316
 30
0.0
  0
VERTEX
  5
995
100
AcDbEntity
  8
13
100
AcDbVertex
100
AcDb2dVertex
 10
-184.421172
 20
-138.129313
 30
0.0
  0
VERTEX
  5
996
100
AcDbEntity
  8
13
100
AcDbVertex
100
AcDb2dVertex
 10
-184.393924
 20
-138.187245
 30
0.0
  0
VERTEX
  5
997
100
AcDbEntity
  8
13
100
AcDbVertex
100
AcDb2dVertex
 10
-184.366255
 20
-138.24498
 30
0.0
  0
VERTEX
  5
998
100
AcDbEntity
  8
13
100
AcDbVertex
100
AcDb2dVertex
 10
-184.338175
 20
-138.302519
 30
0.0
  0
VERTEX
  5
999
100
AcDbEntity
  8
13
100
AcDbVertex
100
AcDb2dVertex
 10
-184.309341
 20
-138.360564
 30
0.0
  0
VERTEX
  5
99A
100
AcDbEntity
  8
13
100
AcDbVertex
100
AcDb2dVertex
 10
-184.280086
 20
-138.418398
 30
0.0
  0
VERTEX
  5
99B
100
AcDbEntity
  8
13
100
AcDbVertex
100
AcDb2dVertex
 10
-184.250397
 20
-138.476009
 30
0.0
  0
VERTEX
  5
99C
100
AcDbEntity
  8
13
100
AcDbVertex
100
AcDb2dVertex
 10
-184.158593
 20
-138.647385
 30
0.0
  0
VERTEX
  5
99D
100
AcDbEntity
  8
13
100
AcDbVertex
100
AcDb2dVertex
 10
-184.06241
 20
-138.816325
 30
0.0
  0
VERTEX
  5
99E
100
AcDbEntity
  8
13
100
AcDbVertex
100
AcDb2dVertex
 10
-184.029315
 20
-138.872041
 30
0.0
  0
VERTEX
  5
99F
100
AcDbEntity
  8
13
100
AcDbVertex
100
AcDb2dVertex
 10
-183.99568
 20
-138.927439
 30
0.0
  0
VERTEX
  5
9A0
100
AcDbEntity
  8
13
100
AcDbVertex
100
AcDb2dVertex
 10
-183.961494
 20
-138.982506
 30
0.0
  0
VERTEX
  5
9A1
100
AcDbEntity
  8
13
100
AcDbVertex
100
AcDb2dVertex
 10
-183.931225
 20
-139.030241
 30
0.0
  0
VERTEX
  5
9A2
100
AcDbEntity
  8
13
100
AcDbVertex
100
AcDb2dVertex
 10
-183.900518
 20
-139.077701
 30
0.0
  0
VERTEX
  5
9A3
100
AcDbEntity
  8
13
100
AcDbVertex
100
AcDb2dVertex
 10
-183.869363
 20
-139.124872
 30
0.0
  0
VERTEX
  5
9A4
100
AcDbEntity
  8
13
100
AcDbVertex
100
AcDb2dVertex
 10
-183.773128
 20
-139.264499
 30
0.0
  0
VERTEX
  5
9A5
100
AcDbEntity
  8
13
100
AcDbVertex
100
AcDb2dVertex
 10
-183.672553
 20
-139.400994
 30
0.0
  0
VERTEX
  5
9A6
100
AcDbEntity
  8
13
100
AcDbVertex
100
AcDb2dVertex
 10
-183.638023
 20
-139.445728
 30
0.0
  0
VERTEX
  5
9A7
100
AcDbEntity
  8
13
100
AcDbVertex
100
AcDb2dVertex
 10
-183.602974
 20
-139.490056
 30
0.0
  0
VERTEX
  5
9A8
100
AcDbEntity
  8
13
100
AcDbVertex
100
AcDb2dVertex
 10
-183.5674
 20
-139.533962
 30
0.0
  0
VERTEX
  5
9A9
100
AcDbEntity
  8
13
100
AcDbVertex
100
AcDb2dVertex
 10
-183.518541
 20
-139.592538
 30
0.0
  0
VERTEX
  5
9AA
100
AcDbEntity
  8
13
100
AcDbVertex
100
AcDb2dVertex
 10
-183.468732
 20
-139.650316
 30
0.0
  0
VERTEX
  5
9AB
100
AcDbEntity
  8
13
100
AcDbVertex
100
AcDb2dVertex
 10
-183.417999
 20
-139.707294
 30
0.0
  0
VERTEX
  5
9AC
100
AcDbEntity
  8
13
100
AcDbVertex
100
AcDb2dVertex
 10
-183.260505
 20
-139.873393
 30
0.0
  0
VERTEX
  5
9AD
100
AcDbEntity
  8
13
100
AcDbVertex
100
AcDb2dVertex
 10
-183.206326
 20
-139.927137
 30
0.0
  0
VERTEX
  5
9AE
100
AcDbEntity
  8
13
100
AcDbVertex
100
AcDb2dVertex
 10
-183.151348
 20
-139.980064
 30
0.0
  0
VERTEX
  5
9AF
100
AcDbEntity
  8
13
100
AcDbVertex
100
AcDb2dVertex
 10
-183.095596
 20
-140.032171
 30
0.0
  0
VERTEX
  5
9B0
100
AcDbEntity
  8
13
100
AcDbVertex
100
AcDb2dVertex
 10
-183.038348
 20
-140.084122
 30
0.0
  0
VERTEX
  5
9B1
100
AcDbEntity
  8
13
100
AcDbVertex
100
AcDb2dVertex
 10
-182.980345
 20
-140.135221
 30
0.0
  0
VERTEX
  5
9B2
100
AcDbEntity
  8
13
100
AcDbVertex
100
AcDb2dVertex
 10
-182.921601
 20
-140.185459
 30
0.0
  0
VERTEX
  5
9B3
100
AcDbEntity
  8
13
100
AcDbVertex
100
AcDb2dVertex
 10
-182.741061
 20
-140.330939
 30
0.0
  0
VERTEX
  5
9B4
100
AcDbEntity
  8
13
100
AcDbVertex
100
AcDb2dVertex
 10
-182.67949
 20
-140.377662
 30
0.0
  0
VERTEX
  5
9B5
100
AcDbEntity
  8
13
100
AcDbVertex
100
AcDb2dVertex
 10
-182.617247
 20
-140.423487
 30
0.0
  0
VERTEX
  5
9B6
100
AcDbEntity
  8
13
100
AcDbVertex
100
AcDb2dVertex
 10
-182.554345
 20
-140.468406
 30
0.0
  0
VERTEX
  5
9B7
100
AcDbEntity
  8
13
100
AcDbVertex
100
AcDb2dVertex
 10
-182.48997
 20
-140.512978
 30
0.0
  0
VERTEX
  5
9B8
100
AcDbEntity
  8
13
100
AcDbVertex
100
AcDb2dVertex
 10
-182.424949
 20
-140.556607
 30
0.0
  0
VERTEX
  5
9B9
100
AcDbEntity
  8
13
100
AcDbVertex
100
AcDb2dVertex
 10
-182.359299
 20
-140.599285
 30
0.0
  0
VERTEX
  5
9BA
100
AcDbEntity
  8
13
100
AcDbVertex
100
AcDb2dVertex
 10
-182.158743
 20
-140.721553
 30
0.0
  0
VERTEX
  5
9BB
100
AcDbEntity
  8
13
100
AcDbVertex
100
AcDb2dVertex
 10
-182.090745
 20
-140.760364
 30
0.0
  0
VERTEX
  5
9BC
100
AcDbEntity
  8
13
100
AcDbVertex
100
AcDb2dVertex
 10
-182.0222
 20
-140.798192
 30
0.0
  0
VERTEX
  5
9BD
100
AcDbEntity
  8
13
100
AcDbVertex
100
AcDb2dVertex
 10
-181.953126
 20
-140.835029
 30
0.0
  0
VERTEX
  5
9BE
100
AcDbEntity
  8
13
100
AcDbVertex
100
AcDb2dVertex
 10
-181.882706
 20
-140.871294
 30
0.0
  0
VERTEX
  5
9BF
100
AcDbEntity
  8
13
100
AcDbVertex
100
AcDb2dVertex
 10
-181.811777
 20
-140.906547
 30
0.0
  0
VERTEX
  5
9C0
100
AcDbEntity
  8
13
100
AcDbVertex
100
AcDb2dVertex
 10
-181.740357
 20
-140.940794
 30
0.0
  0
VERTEX
  5
9C1
100
AcDbEntity
  8
13
100
AcDbVertex
100
AcDb2dVertex
 10
-181.52332
 20
-141.037585
 30
0.0
  0
VERTEX
  5
9C2
100
AcDbEntity
  8
13
100
AcDbVertex
100
AcDb2dVertex
 10
-181.450105
 20
-141.067891
 30
0.0
  0
VERTEX
  5
9C3
100
AcDbEntity
  8
13
100
AcDbVertex
100
AcDb2dVertex
 10
-181.376482
 20
-141.097232
 30
0.0
  0
VERTEX
  5
9C4
100
AcDbEntity
  8
13
100
AcDbVertex
100
AcDb2dVertex
 10
-181.30247
 20
-141.125616
 30
0.0
  0
VERTEX
  5
9C5
100
AcDbEntity
  8
13
100
AcDbVertex
100
AcDb2dVertex
 10
-181.227325
 20
-141.153316
 30
0.0
  0
VERTEX
  5
9C6
100
AcDbEntity
  8
13
100
AcDbVertex
100
AcDb2dVertex
 10
-181.151811
 20
-141.180006
 30
0.0
  0
VERTEX
  5
9C7
100
AcDbEntity
  8
13
100
AcDbVertex
100
AcDb2dVertex
 10
-181.075937
 20
-141.205645
 30
0.0
  0
VERTEX
  5
9C8
100
AcDbEntity
  8
13
100
AcDbVertex
100
AcDb2dVertex
 10
-180.846274
 20
-141.275838
 30
0.0
  0
VERTEX
  5
9C9
100
AcDbEntity
  8
13
100
AcDbVertex
100
AcDb2dVertex
 10
-180.769074
 20
-141.296857
 30
0.0
  0
VERTEX
  5
9CA
100
AcDbEntity
  8
13
100
AcDbVertex
100
AcDb2dVertex
 10
-180.691571
 20
-141.316618
 30
0.0
  0
VERTEX
  5
9CB
100
AcDbEntity
  8
13
100
AcDbVertex
100
AcDb2dVertex
 10
-180.613774
 20
-141.33508
 30
0.0
  0
VERTEX
  5
9CC
100
AcDbEntity
  8
13
100
AcDbVertex
100
AcDb2dVertex
 10
-180.495647
 20
-141.36054
 30
0.0
  0
VERTEX
  5
9CD
100
AcDbEntity
  8
13
100
AcDbVertex
100
AcDb2dVertex
 10
-180.376982
 20
-141.383446
 30
0.0
  0
VERTEX
  5
9CE
100
AcDbEntity
  8
13
100
AcDbVertex
100
AcDb2dVertex
 10
-180.257888
 20
-141.404309
 30
0.0
  0
VERTEX
  5
9CF
100
AcDbEntity
  8
13
100
AcDbVertex
100
AcDb2dVertex
 10
-180.13847
 20
-141.423641
 30
0.0
  0
VERTEX
  5
9D0
100
AcDbEntity
  8
13
100
AcDbVertex
100
AcDb2dVertex
 10
-180.018838
 20
-141.441951
 30
0.0
  0
VERTEX
  5
9D1
100
AcDbEntity
  8
13
100
AcDbVertex
100
AcDb2dVertex
 10
-179.899098
 20
-141.459751
 30
0.0
  0
SEQEND
  5
9D2
100
AcDbEntity
  8
13
  0
POLYLINE
  5
4AC
100
AcDbEntity
  8
13
100
AcDb2dPolyline
 66
     1
 10
0.0
 20
0.0
 30
0.0
  0
VERTEX
  5
9D3
100
AcDbEntity
  8
13
100
AcDbVertex
100
AcDb2dVertex
 10
-181.83219
 20
-160.884407
 30
0.0
  0
VERTEX
  5
9D4
100
AcDbEntity
  8
13
100
AcDbVertex
100
AcDb2dVertex
 10
-181.976141
 20
-160.902958
 30
0.0
  0
VERTEX
  5
9D5
100
AcDbEntity
  8
13
100
AcDbVertex
100
AcDb2dVertex
 10
-182.120031
 20
-160.921813
 30
0.0
  0
VERTEX
  5
9D6
100
AcDbEntity
  8
13
100
AcDbVertex
100
AcDb2dVertex
 10
-182.263799
 20
-160.941274
 30
0.0
  0
VERTEX
  5
9D7
100
AcDbEntity
  8
13
100
AcDbVertex
100
AcDb2dVertex
 10
-182.693752
 20
-161.006331
 30
0.0
  0
VERTEX
  5
9D8
100
AcDbEntity
  8
13
100
AcDbVertex
100
AcDb2dVertex
 10
-182.836416
 20
-161.031252
 30
0.0
  0
VERTEX
  5
9D9
100
AcDbEntity
  8
13
100
AcDbVertex
100
AcDb2dVertex
 10
-182.978651
 20
-161.058296
 30
0.0
  0
VERTEX
  5
9DA
100
AcDbEntity
  8
13
100
AcDbVertex
100
AcDb2dVertex
 10
-183.120395
 20
-161.087766
 30
0.0
  0
VERTEX
  5
9DB
100
AcDbEntity
  8
13
100
AcDbVertex
100
AcDb2dVertex
 10
-183.261758
 20
-161.119932
 30
0.0
  0
VERTEX
  5
9DC
100
AcDbEntity
  8
13
100
AcDbVertex
100
AcDb2dVertex
 10
-183.402561
 20
-161.154702
 30
0.0
  0
VERTEX
  5
9DD
100
AcDbEntity
  8
13
100
AcDbVertex
100
AcDb2dVertex
 10
-183.542796
 20
-161.191944
 30
0.0
  0
VERTEX
  5
9DE
100
AcDbEntity
  8
13
100
AcDbVertex
100
AcDb2dVertex
 10
-183.960026
 20
-161.317177
 30
0.0
  0
VERTEX
  5
9DF
100
AcDbEntity
  8
13
100
AcDbVertex
100
AcDb2dVertex
 10
-184.09792
 20
-161.362984
 30
0.0
  0
VERTEX
  5
9E0
100
AcDbEntity
  8
13
100
AcDbVertex
100
AcDb2dVertex
 10
-184.23521
 20
-161.410601
 30
0.0
  0
VERTEX
  5
9E1
100
AcDbEntity
  8
13
100
AcDbVertex
100
AcDb2dVertex
 10
-184.371889
 20
-161.459897
 30
0.0
  0
VERTEX
  5
9E2
100
AcDbEntity
  8
13
100
AcDbVertex
100
AcDb2dVertex
 10
-184.526642
 20
-161.517883
 30
0.0
  0
VERTEX
  5
9E3
100
AcDbEntity
  8
13
100
AcDbVertex
100
AcDb2dVertex
 10
-184.680588
 20
-161.577842
 30
0.0
  0
VERTEX
  5
9E4
100
AcDbEntity
  8
13
100
AcDbVertex
100
AcDb2dVertex
 10
-184.83372
 20
-161.639742
 30
0.0
  0
VERTEX
  5
9E5
100
AcDbEntity
  8
13
100
AcDbVertex
100
AcDb2dVertex
 10
-185.28816
 20
-161.836796
 30
0.0
  0
VERTEX
  5
9E6
100
AcDbEntity
  8
13
100
AcDbVertex
100
AcDb2dVertex
 10
-185.437964
 20
-161.906166
 30
0.0
  0
VERTEX
  5
9E7
100
AcDbEntity
  8
13
100
AcDbVertex
100
AcDb2dVertex
 10
-185.586918
 20
-161.977329
 30
0.0
  0
VERTEX
  5
9E8
100
AcDbEntity
  8
13
100
AcDbVertex
100
AcDb2dVertex
 10
-185.735015
 20
-162.050255
 30
0.0
  0
VERTEX
  5
9E9
100
AcDbEntity
  8
13
100
AcDbVertex
100
AcDb2dVertex
 10
-185.882971
 20
-162.12528
 30
0.0
  0
VERTEX
  5
9EA
100
AcDbEntity
  8
13
100
AcDbVertex
100
AcDb2dVertex
 10
-186.030064
 20
-162.201997
 30
0.0
  0
VERTEX
  5
9EB
100
AcDbEntity
  8
13
100
AcDbVertex
100
AcDb2dVertex
 10
-186.176304
 20
-162.280349
 30
0.0
  0
VERTEX
  5
9EC
100
AcDbEntity
  8
13
100
AcDbVertex
100
AcDb2dVertex
 10
-186.610004
 20
-162.524634
 30
0.0
  0
VERTEX
  5
9ED
100
AcDbEntity
  8
13
100
AcDbVertex
100
AcDb2dVertex
 10
-186.75293
 20
-162.608945
 30
0.0
  0
VERTEX
  5
9EE
100
AcDbEntity
  8
13
100
AcDbVertex
100
AcDb2dVertex
 10
-186.895052
 20
-162.694602
 30
0.0
  0
VERTEX
  5
9EF
100
AcDbEntity
  8
13
100
AcDbVertex
100
AcDb2dVertex
 10
-187.03638
 20
-162.781546
 30
0.0
  0
VERTEX
  5
9F0
100
AcDbEntity
  8
13
100
AcDbVertex
100
AcDb2dVertex
 10
-187.247107
 20
-162.914387
 30
0.0
  0
VERTEX
  5
9F1
100
AcDbEntity
  8
13
100
AcDbVertex
100
AcDb2dVertex
 10
-187.45612
 20
-163.049866
 30
0.0
  0
VERTEX
  5
9F2
100
AcDbEntity
  8
13
100
AcDbVertex
100
AcDb2dVertex
 10
-187.663477
 20
-163.187851
 30
0.0
  0
VERTEX
  5
9F3
100
AcDbEntity
  8
13
100
AcDbVertex
100
AcDb2dVertex
 10
-187.869233
 20
-163.328208
 30
0.0
  0
VERTEX
  5
9F4
100
AcDbEntity
  8
13
100
AcDbVertex
100
AcDb2dVertex
 10
-188.073441
 20
-163.470804
 30
0.0
  0
VERTEX
  5
9F5
100
AcDbEntity
  8
13
100
AcDbVertex
100
AcDb2dVertex
 10
-188.276159
 20
-163.615506
 30
0.0
  0
VERTEX
  5
9F6
100
AcDbEntity
  8
13
100
AcDbVertex
100
AcDb2dVertex
 10
-188.484993
 20
-163.767745
 30
0.0
  0
VERTEX
  5
9F7
100
AcDbEntity
  8
13
100
AcDbVertex
100
AcDb2dVertex
 10
-188.692345
 20
-163.921991
 30
0.0
  0
VERTEX
  5
9F8
100
AcDbEntity
  8
13
100
AcDbVertex
100
AcDb2dVertex
 10
-188.898281
 20
-164.078125
 30
0.0
  0
VERTEX
  5
9F9
100
AcDbEntity
  8
13
100
AcDbVertex
100
AcDb2dVertex
 10
-189.102864
 20
-164.23603
 30
0.0
  0
VERTEX
  5
9FA
100
AcDbEntity
  8
13
100
AcDbVertex
100
AcDb2dVertex
 10
-189.30616
 20
-164.395587
 30
0.0
  0
VERTEX
  5
9FB
100
AcDbEntity
  8
13
100
AcDbVertex
100
AcDb2dVertex
 10
-189.508233
 20
-164.556679
 30
0.0
  0
VERTEX
  5
9FC
100
AcDbEntity
  8
13
100
AcDbVertex
100
AcDb2dVertex
 10
-189.706166
 20
-164.716756
 30
0.0
  0
VERTEX
  5
9FD
100
AcDbEntity
  8
13
100
AcDbVertex
100
AcDb2dVertex
 10
-189.903063
 20
-164.878096
 30
0.0
  0
VERTEX
  5
9FE
100
AcDbEntity
  8
13
100
AcDbVertex
100
AcDb2dVertex
 10
-190.099013
 20
-165.040585
 30
0.0
  0
VERTEX
  5
9FF
100
AcDbEntity
  8
13
100
AcDbVertex
100
AcDb2dVertex
 10
-190.682072
 20
-165.533823
 30
0.0
  0
VERTEX
  5
A00
100
AcDbEntity
  8
13
100
AcDbVertex
100
AcDb2dVertex
 10
-190.875123
 20
-165.699784
 30
0.0
  0
VERTEX
  5
A01
100
AcDbEntity
  8
13
100
AcDbVertex
100
AcDb2dVertex
 10
-191.067671
 20
-165.86633
 30
0.0
  0
VERTEX
  5
A02
100
AcDbEntity
  8
13
100
AcDbVertex
100
AcDb2dVertex
 10
-191.259805
 20
-166.033349
 30
0.0
  0
VERTEX
  5
A03
100
AcDbEntity
  8
13
100
AcDbVertex
100
AcDb2dVertex
 10
-191.262727
 20
-166.035894
 30
0.0
  0
VERTEX
  5
A04
100
AcDbEntity
  8
13
100
AcDbVertex
100
AcDb2dVertex
 10
-191.265648
 20
-166.038439
 30
0.0
  0
VERTEX
  5
A05
100
AcDbEntity
  8
13
100
AcDbVertex
100
AcDb2dVertex
 10
-191.26857
 20
-166.040985
 30
0.0
  0
SEQEND
  5
A06
100
AcDbEntity
  8
13
  0
POLYLINE
  5
4E1
100
AcDbEntity
  8
13
100
AcDb2dPolyline
 66
     1
 10
0.0
 20
0.0
 30
0.0
  0
VERTEX
  5
A07
100
AcDbEntity
  8
13
100
AcDbVertex
100
AcDb2dVertex
 10
-181.724238
 20
-160.893364
 30
0.0
  0
VERTEX
  5
A08
100
AcDbEntity
  8
13
100
AcDbVertex
100
AcDb2dVertex
 10
-181.770646
 20
-160.903159
 30
0.0
  0
VERTEX
  5
A09
100
AcDbEntity
  8
13
100
AcDbVertex
100
AcDb2dVertex
 10
-181.817038
 20
-160.913011
 30
0.0
  0
VERTEX
  5
A0A
100
AcDbEntity
  8
13
100
AcDbVertex
100
AcDb2dVertex
 10
-181.863396
 20
-160.92298
 30
0.0
  0
VERTEX
  5
A0B
100
AcDbEntity
  8
13
100
AcDbVertex
100
AcDb2dVertex
 10
-182.002102
 20
-160.954158
 30
0.0
  0
VERTEX
  5
A0C
100
AcDbEntity
  8
13
100
AcDbVertex
100
AcDb2dVertex
 10
-182.139906
 20
-160.988462
 30
0.0
  0
VERTEX
  5
A0D
100
AcDbEntity
  8
13
100
AcDbVertex
100
AcDb2dVertex
 10
-182.185562
 20
-161.000862
 30
0.0
  0
VERTEX
  5
A0E
100
AcDbEntity
  8
13
100
AcDbVertex
100
AcDb2dVertex
 10
-182.231051
 20
-161.01384
 30
0.0
  0
VERTEX
  5
A0F
100
AcDbEntity
  8
13
100
AcDbVertex
100
AcDb2dVertex
 10
-182.276356
 20
-161.027455
 30
0.0
  0
VERTEX
  5
A10
100
AcDbEntity
  8
13
100
AcDbVertex
100
AcDb2dVertex
 10
-182.32207
 20
-161.041949
 30
0.0
  0
VERTEX
  5
A11
100
AcDbEntity
  8
13
100
AcDbVertex
100
AcDb2dVertex
 10
-182.367576
 20
-161.057136
 30
0.0
  0
VERTEX
  5
A12
100
AcDbEntity
  8
13
100
AcDbVertex
100
AcDb2dVertex
 10
-182.41287
 20
-161.072993
 30
0.0
  0
VERTEX
  5
A13
100
AcDbEntity
  8
13
100
AcDbVertex
100
AcDb2dVertex
 10
-182.547458
 20
-161.124377
 30
0.0
  0
VERTEX
  5
A14
100
AcDbEntity
  8
13
100
AcDbVertex
100
AcDb2dVertex
 10
-182.680048
 20
-161.181034
 30
0.0
  0
VERTEX
  5
A15
100
AcDbEntity
  8
13
100
AcDbVertex
100
AcDb2dVertex
 10
-182.723789
 20
-161.200992
 30
0.0
  0
VERTEX
  5
A16
100
AcDbEntity
  8
13
100
AcDbVertex
100
AcDb2dVertex
 10
-182.767297
 20
-161.221451
 30
0.0
  0
VERTEX
  5
A17
100
AcDbEntity
  8
13
100
AcDbVertex
100
AcDb2dVertex
 10
-182.81057
 20
-161.242389
 30
0.0
  0
VERTEX
  5
A18
100
AcDbEntity
  8
13
100
AcDbVertex
100
AcDb2dVertex
 10
-182.854321
 20
-161.26415
 30
0.0
  0
VERTEX
  5
A19
100
AcDbEntity
  8
13
100
AcDbVertex
100
AcDb2dVertex
 10
-182.897821
 20
-161.286384
 30
0.0
  0
VERTEX
  5
A1A
100
AcDbEntity
  8
13
100
AcDbVertex
100
AcDb2dVertex
 10
-182.941065
 20
-161.30909
 30
0.0
  0
VERTEX
  5
A1B
100
AcDbEntity
  8
13
100
AcDbVertex
100
AcDb2dVertex
 10
-183.06921
 20
-161.380031
 30
0.0
  0
VERTEX
  5
A1C
100
AcDbEntity
  8
13
100
AcDbVertex
100
AcDb2dVertex
 10
-183.194868
 20
-161.455193
 30
0.0
  0
VERTEX
  5
A1D
100
AcDbEntity
  8
13
100
AcDbVertex
100
AcDb2dVertex
 10
-183.236177
 20
-161.481181
 30
0.0
  0
VERTEX
  5
A1E
100
AcDbEntity
  8
13
100
AcDbVertex
100
AcDb2dVertex
 10
-183.27719
 20
-161.507635
 30
0.0
  0
VERTEX
  5
A1F
100
AcDbEntity
  8
13
100
AcDbVertex
100
AcDb2dVertex
 10
-183.3179
 20
-161.534553
 30
0.0
  0
VERTEX
  5
A20
100
AcDbEntity
  8
13
100
AcDbVertex
100
AcDb2dVertex
 10
-183.35905
 20
-161.562446
 30
0.0
  0
VERTEX
  5
A21
100
AcDbEntity
  8
13
100
AcDbVertex
100
AcDb2dVertex
 10
-183.399878
 20
-161.590814
 30
0.0
  0
VERTEX
  5
A22
100
AcDbEntity
  8
13
100
AcDbVertex
100
AcDb2dVertex
 10
-183.440381
 20
-161.619649
 30
0.0
  0
VERTEX
  5
A23
100
AcDbEntity
  8
13
100
AcDbVertex
100
AcDb2dVertex
 10
-183.559915
 20
-161.708888
 30
0.0
  0
VERTEX
  5
A24
100
AcDbEntity
  8
13
100
AcDbVertex
100
AcDb2dVertex
 10
-183.676421
 20
-161.802081
 30
0.0
  0
VERTEX
  5
A25
100
AcDbEntity
  8
13
100
AcDbVertex
100
AcDb2dVertex
 10
-183.71457
 20
-161.83399
 30
0.0
  0
VERTEX
  5
A26
100
AcDbEntity
  8
13
100
AcDbVertex
100
AcDb2dVertex
 10
-183.75237
 20
-161.866311
 30
0.0
  0
VERTEX
  5
A27
100
AcDbEntity
  8
13
100
AcDbVertex
100
AcDb2dVertex
 10
-183.789818
 20
-161.899036
 30
0.0
  0
VERTEX
  5
A28
100
AcDbEntity
  8
13
100
AcDbVertex
100
AcDb2dVertex
 10
-183.827612
 20
-161.93279
 30
0.0
  0
VERTEX
  5
A29
100
AcDbEntity
  8
13
100
AcDbVertex
100
AcDb2dVertex
 10
-183.865036
 20
-161.96695
 30
0.0
  0
VERTEX
  5
A2A
100
AcDbEntity
  8
13
100
AcDbVertex
100
AcDb2dVertex
 10
-183.902086
 20
-162.001512
 30
0.0
  0
VERTEX
  5
A2B
100
AcDbEntity
  8
13
100
AcDbVertex
100
AcDb2dVertex
 10
-184.01098
 20
-162.107549
 30
0.0
  0
VERTEX
  5
A2C
100
AcDbEntity
  8
13
100
AcDbVertex
100
AcDb2dVertex
 10
-184.116437
 20
-162.216998
 30
0.0
  0
VERTEX
  5
A2D
100
AcDbEntity
  8
13
100
AcDbVertex
100
AcDb2dVertex
 10
-184.150814
 20
-162.254214
 30
0.0
  0
VERTEX
  5
A2E
100
AcDbEntity
  8
13
100
AcDbVertex
100
AcDb2dVertex
 10
-184.184801
 20
-162.291787
 30
0.0
  0
VERTEX
  5
A2F
100
AcDbEntity
  8
13
100
AcDbVertex
100
AcDb2dVertex
 10
-184.218394
 20
-162.329712
 30
0.0
  0
VERTEX
  5
A30
100
AcDbEntity
  8
13
100
AcDbVertex
100
AcDb2dVertex
 10
-184.245463
 20
-162.360857
 30
0.0
  0
VERTEX
  5
A31
100
AcDbEntity
  8
13
100
AcDbVertex
100
AcDb2dVertex
 10
-184.272269
 20
-162.392229
 30
0.0
  0
VERTEX
  5
A32
100
AcDbEntity
  8
13
100
AcDbVertex
100
AcDb2dVertex
 10
-184.29881
 20
-162.423825
 30
0.0
  0
VERTEX
  5
A33
100
AcDbEntity
  8
13
100
AcDbVertex
100
AcDb2dVertex
 10
-184.376842
 20
-162.519924
 30
0.0
  0
VERTEX
  5
A34
100
AcDbEntity
  8
13
100
AcDbVertex
100
AcDb2dVertex
 10
-184.452469
 20
-162.61793
 30
0.0
  0
VERTEX
  5
A35
100
AcDbEntity
  8
13
100
AcDbVertex
100
AcDb2dVertex
 10
-184.52567
 20
-162.717763
 30
0.0
  0
VERTEX
  5
A36
100
AcDbEntity
  8
13
100
AcDbVertex
100
AcDb2dVertex
 10
-184.549527
 20
-162.751432
 30
0.0
  0
VERTEX
  5
A37
100
AcDbEntity
  8
13
100
AcDbVertex
100
AcDb2dVertex
 10
-184.573112
 20
-162.785293
 30
0.0
  0
VERTEX
  5
A38
100
AcDbEntity
  8
13
100
AcDbVertex
100
AcDb2dVertex
 10
-184.596423
 20
-162.819342
 30
0.0
  0
VERTEX
  5
A39
100
AcDbEntity
  8
13
100
AcDbVertex
100
AcDb2dVertex
 10
-184.61983
 20
-162.854131
 30
0.0
  0
VERTEX
  5
A3A
100
AcDbEntity
  8
13
100
AcDbVertex
100
AcDb2dVertex
 10
-184.642953
 20
-162.889108
 30
0.0
  0
VERTEX
  5
A3B
100
AcDbEntity
  8
13
100
AcDbVertex
100
AcDb2dVertex
 10
-184.665793
 20
-162.924271
 30
0.0
  0
VERTEX
  5
A3C
100
AcDbEntity
  8
13
100
AcDbVertex
100
AcDb2dVertex
 10
-184.732602
 20
-163.030846
 30
0.0
  0
VERTEX
  5
A3D
100
AcDbEntity
  8
13
100
AcDbVertex
100
AcDb2dVertex
 10
-184.796839
 20
-163.138992
 30
0.0
  0
VERTEX
  5
A3E
100
AcDbEntity
  8
13
100
AcDbVertex
100
AcDb2dVertex
 10
-184.858493
 20
-163.248634
 30
0.0
  0
VERTEX
  5
A3F
100
AcDbEntity
  8
13
100
AcDbVertex
100
AcDb2dVertex
 10
-184.878468
 20
-163.285501
 30
0.0
  0
VERTEX
  5
A40
100
AcDbEntity
  8
13
100
AcDbVertex
100
AcDb2dVertex
 10
-184.898155
 20
-163.322523
 30
0.0
  0
VERTEX
  5
A41
100
AcDbEntity
  8
13
100
AcDbVertex
100
AcDb2dVertex
 10
-184.917552
 20
-163.359697
 30
0.0
  0
VERTEX
  5
A42
100
AcDbEntity
  8
13
100
AcDbVertex
100
AcDb2dVertex
 10
-184.936913
 20
-163.39752
 30
0.0
  0
VERTEX
  5
A43
100
AcDbEntity
  8
13
100
AcDbVertex
100
AcDb2dVertex
 10
-184.955976
 20
-163.435494
 30
0.0
  0
VERTEX
  5
A44
100
AcDbEntity
  8
13
100
AcDbVertex
100
AcDb2dVertex
 10
-184.97474
 20
-163.473616
 30
0.0
  0
VERTEX
  5
A45
100
AcDbEntity
  8
13
100
AcDbVertex
100
AcDb2dVertex
 10
-185.029235
 20
-163.588846
 30
0.0
  0
VERTEX
  5
A46
100
AcDbEntity
  8
13
100
AcDbVertex
100
AcDb2dVertex
 10
-185.081018
 20
-163.705316
 30
0.0
  0
VERTEX
  5
A47
100
AcDbEntity
  8
13
100
AcDbVertex
100
AcDb2dVertex
 10
-185.130074
 20
-163.822956
 30
0.0
  0
VERTEX
  5
A48
100
AcDbEntity
  8
13
100
AcDbVertex
100
AcDb2dVertex
 10
-185.145816
 20
-163.862417
 30
0.0
  0
VERTEX
  5
A49
100
AcDbEntity
  8
13
100
AcDbVertex
100
AcDb2dVertex
 10
-185.161253
 20
-163.901997
 30
0.0
  0
VERTEX
  5
A4A
100
AcDbEntity
  8
13
100
AcDbVertex
100
AcDb2dVertex
 10
-185.176383
 20
-163.941694
 30
0.0
  0
VERTEX
  5
A4B
100
AcDbEntity
  8
13
100
AcDbVertex
100
AcDb2dVertex
 10
-185.191351
 20
-163.981898
 30
0.0
  0
VERTEX
  5
A4C
100
AcDbEntity
  8
13
100
AcDbVertex
100
AcDb2dVertex
 10
-185.206008
 20
-164.022216
 30
0.0
  0
VERTEX
  5
A4D
100
AcDbEntity
  8
13
100
AcDbVertex
100
AcDb2dVertex
 10
-185.220352
 20
-164.062646
 30
0.0
  0
VERTEX
  5
A4E
100
AcDbEntity
  8
13
100
AcDbVertex
100
AcDb2dVertex
 10
-185.261529
 20
-164.184576
 30
0.0
  0
VERTEX
  5
A4F
100
AcDbEntity
  8
13
100
AcDbVertex
100
AcDb2dVertex
 10
-185.29994
 20
-164.307416
 30
0.0
  0
VERTEX
  5
A50
100
AcDbEntity
  8
13
100
AcDbVertex
100
AcDb2dVertex
 10
-185.33561
 20
-164.431097
 30
0.0
  0
VERTEX
  5
A51
100
AcDbEntity
  8
13
100
AcDbVertex
100
AcDb2dVertex
 10
-185.346896
 20
-164.472499
 30
0.0
  0
VERTEX
  5
A52
100
AcDbEntity
  8
13
100
AcDbVertex
100
AcDb2dVertex
 10
-185.357881
 20
-164.513984
 30
0.0
  0
VERTEX
  5
A53
100
AcDbEntity
  8
13
100
AcDbVertex
100
AcDb2dVertex
 10
-185.368566
 20
-164.55555
 30
0.0
  0
VERTEX
  5
A54
100
AcDbEntity
  8
13
100
AcDbVertex
100
AcDb2dVertex
 10
-185.381577
 20
-164.607927
 30
0.0
  0
VERTEX
  5
A55
100
AcDbEntity
  8
13
100
AcDbVertex
100
AcDb2dVertex
 10
-185.394105
 20
-164.660424
 30
0.0
  0
VERTEX
  5
A56
100
AcDbEntity
  8
13
100
AcDbVertex
100
AcDb2dVertex
 10
-185.406143
 20
-164.713034
 30
0.0
  0
VERTEX
  5
A57
100
AcDbEntity
  8
13
100
AcDbVertex
100
AcDb2dVertex
 10
-185.43922
 20
-164.87151
 30
0.0
  0
VERTEX
  5
A58
100
AcDbEntity
  8
13
100
AcDbVertex
100
AcDb2dVertex
 10
-185.467545
 20
-165.030855
 30
0.0
  0
VERTEX
  5
A59
100
AcDbEntity
  8
13
100
AcDbVertex
100
AcDb2dVertex
 10
-185.475888
 20
-165.084142
 30
0.0
  0
VERTEX
  5
A5A
100
AcDbEntity
  8
13
100
AcDbVertex
100
AcDb2dVertex
 10
-185.483666
 20
-165.137509
 30
0.0
  0
VERTEX
  5
A5B
100
AcDbEntity
  8
13
100
AcDbVertex
100
AcDb2dVertex
 10
-185.49087
 20
-165.190949
 30
0.0
  0
VERTEX
  5
A5C
100
AcDbEntity
  8
13
100
AcDbVertex
100
AcDb2dVertex
 10
-185.497509
 20
-165.244555
 30
0.0
  0
VERTEX
  5
A5D
100
AcDbEntity
  8
13
100
AcDbVertex
100
AcDb2dVertex
 10
-185.503595
 20
-165.298225
 30
0.0
  0
VERTEX
  5
A5E
100
AcDbEntity
  8
13
100
AcDbVertex
100
AcDb2dVertex
 10
-185.509161
 20
-165.351954
 30
0.0
  0
VERTEX
  5
A5F
100
AcDbEntity
  8
13
100
AcDbVertex
100
AcDb2dVertex
 10
-185.523065
 20
-165.513435
 30
0.0
  0
VERTEX
  5
A60
100
AcDbEntity
  8
13
100
AcDbVertex
100
AcDb2dVertex
 10
-185.533464
 20
-165.675239
 30
0.0
  0
VERTEX
  5
A61
100
AcDbEntity
  8
13
100
AcDbVertex
100
AcDb2dVertex
 10
-185.536304
 20
-165.729218
 30
0.0
  0
VERTEX
  5
A62
100
AcDbEntity
  8
13
100
AcDbVertex
100
AcDb2dVertex
 10
-185.538885
 20
-165.78321
 30
0.0
  0
VERTEX
  5
A63
100
AcDbEntity
  8
13
100
AcDbVertex
100
AcDb2dVertex
 10
-185.541239
 20
-165.83721
 30
0.0
  0
VERTEX
  5
A64
100
AcDbEntity
  8
13
100
AcDbVertex
100
AcDb2dVertex
 10
-185.543556
 20
-165.895918
 30
0.0
  0
VERTEX
  5
A65
100
AcDbEntity
  8
13
100
AcDbVertex
100
AcDb2dVertex
 10
-185.545539
 20
-165.954629
 30
0.0
  0
VERTEX
  5
A66
100
AcDbEntity
  8
13
100
AcDbVertex
100
AcDb2dVertex
 10
-185.547083
 20
-166.013343
 30
0.0
  0
VERTEX
  5
A67
100
AcDbEntity
  8
13
100
AcDbVertex
100
AcDb2dVertex
 10
-185.54803
 20
-166.189513
 30
0.0
  0
VERTEX
  5
A68
100
AcDbEntity
  8
13
100
AcDbVertex
100
AcDb2dVertex
 10
-185.546766
 20
-166.248248
 30
0.0
  0
VERTEX
  5
A69
100
AcDbEntity
  8
13
100
AcDbVertex
100
AcDb2dVertex
 10
-185.544538
 20
-166.30699
 30
0.0
  0
VERTEX
  5
A6A
100
AcDbEntity
  8
13
100
AcDbVertex
100
AcDb2dVertex
 10
-185.541239
 20
-166.365739
 30
0.0
  0
VERTEX
  5
A6B
100
AcDbEntity
  8
13
100
AcDbVertex
100
AcDb2dVertex
 10
-185.537263
 20
-166.418074
 30
0.0
  0
VERTEX
  5
A6C
100
AcDbEntity
  8
13
100
AcDbVertex
100
AcDb2dVertex
 10
-185.531979
 20
-166.470281
 30
0.0
  0
VERTEX
  5
A6D
100
AcDbEntity
  8
13
100
AcDbVertex
100
AcDb2dVertex
 10
-185.525014
 20
-166.522227
 30
0.0
  0
VERTEX
  5
A6E
100
AcDbEntity
  8
13
100
AcDbVertex
100
AcDb2dVertex
 10
-185.515992
 20
-166.573776
 30
0.0
  0
VERTEX
  5
A6F
100
AcDbEntity
  8
13
100
AcDbVertex
100
AcDb2dVertex
 10
-185.504539
 20
-166.624795
 30
0.0
  0
VERTEX
  5
A70
100
AcDbEntity
  8
13
100
AcDbVertex
100
AcDb2dVertex
 10
-185.496046
 20
-166.656214
 30
0.0
  0
VERTEX
  5
A71
100
AcDbEntity
  8
13
100
AcDbVertex
100
AcDb2dVertex
 10
-185.486519
 20
-166.687358
 30
0.0
  0
VERTEX
  5
A72
100
AcDbEntity
  8
13
100
AcDbVertex
100
AcDb2dVertex
 10
-185.476012
 20
-166.718208
 30
0.0
  0
VERTEX
  5
A73
100
AcDbEntity
  8
13
100
AcDbVertex
100
AcDb2dVertex
 10
-185.464578
 20
-166.748746
 30
0.0
  0
VERTEX
  5
A74
100
AcDbEntity
  8
13
100
AcDbVertex
100
AcDb2dVertex
 10
-185.444832
 20
-166.796062
 30
0.0
  0
VERTEX
  5
A75
100
AcDbEntity
  8
13
100
AcDbVertex
100
AcDb2dVertex
 10
-185.422957
 20
-166.842448
 30
0.0
  0
VERTEX
  5
A76
100
AcDbEntity
  8
13
100
AcDbVertex
100
AcDb2dVertex
 10
-185.398983
 20
-166.887789
 30
0.0
  0
VERTEX
  5
A77
100
AcDbEntity
  8
13
100
AcDbVertex
100
AcDb2dVertex
 10
-185.37294
 20
-166.931968
 30
0.0
  0
VERTEX
  5
A78
100
AcDbEntity
  8
13
100
AcDbVertex
100
AcDb2dVertex
 10
-185.34486
 20
-166.974872
 30
0.0
  0
VERTEX
  5
A79
100
AcDbEntity
  8
13
100
AcDbVertex
100
AcDb2dVertex
 10
-185.326672
 20
-167.000444
 30
0.0
  0
VERTEX
  5
A7A
100
AcDbEntity
  8
13
100
AcDbVertex
100
AcDb2dVertex
 10
-185.307688
 20
-167.025408
 30
0.0
  0
VERTEX
  5
A7B
100
AcDbEntity
  8
13
100
AcDbVertex
100
AcDb2dVertex
 10
-185.287865
 20
-167.049676
 30
0.0
  0
VERTEX
  5
A7C
100
AcDbEntity
  8
13
100
AcDbVertex
100
AcDb2dVertex
 10
-185.267161
 20
-167.07316
 30
0.0
  0
VERTEX
  5
A7D
100
AcDbEntity
  8
13
100
AcDbVertex
100
AcDb2dVertex
 10
-185.23875
 20
-167.102698
 30
0.0
  0
VERTEX
  5
A7E
100
AcDbEntity
  8
13
100
AcDbVertex
100
AcDb2dVertex
 10
-185.209281
 20
-167.13124
 30
0.0
  0
VERTEX
  5
A7F
100
AcDbEntity
  8
13
100
AcDbVertex
100
AcDb2dVertex
 10
-185.179284
 20
-167.159285
 30
0.0
  0
SEQEND
  5
A80
100
AcDbEntity
  8
13
  0
POLYLINE
  5
55C
100
AcDbEntity
  8
13
100
AcDb2dPolyline
 66
     1
 10
0.0
 20
0.0
 30
0.0
  0
VERTEX
  5
A81
100
AcDbEntity
  8
13
100
AcDbVertex
100
AcDb2dVertex
 10
-179.899098
 20
-161.051281
 30
0.0
  0
VERTEX
  5
A82
100
AcDbEntity
  8
13
100
AcDbVertex
100
AcDb2dVertex
 10
-179.947
 20
-161.058372
 30
0.0
  0
VERTEX
  5
A83
100
AcDbEntity
  8
13
100
AcDbVertex
100
AcDb2dVertex
 10
-179.994895
 20
-161.065497
 30
0.0
  0
VERTEX
  5
A84
100
AcDbEntity
  8
13
100
AcDbVertex
100
AcDb2dVertex
 10
-180.042777
 20
-161.072686
 30
0.0
  0
VERTEX
  5
A85
100
AcDbEntity
  8
13
100
AcDbVertex
100
AcDb2dVertex
 10
-180.186269
 20
-161.094973
 30
0.0
  0
VERTEX
  5
A86
100
AcDbEntity
  8
13
100
AcDbVertex
100
AcDb2dVertex
 10
-180.32939
 20
-161.119025
 30
0.0
  0
VERTEX
  5
A87
100
AcDbEntity
  8
13
100
AcDbVertex
100
AcDb2dVertex
 10
-180.471954
 20
-161.145724
 30
0.0
  0
VERTEX
  5
A88
100
AcDbEntity
  8
13
100
AcDbVertex
100
AcDb2dVertex
 10
-180.519319
 20
-161.155364
 30
0.0
  0
VERTEX
  5
A89
100
AcDbEntity
  8
13
100
AcDbVertex
100
AcDb2dVertex
 10
-180.566595
 20
-161.165429
 30
0.0
  0
VERTEX
  5
A8A
100
AcDbEntity
  8
13
100
AcDbVertex
100
AcDb2dVertex
 10
-180.613774
 20
-161.175952
 30
0.0
  0
VERTEX
  5
A8B
100
AcDbEntity
  8
13
100
AcDbVertex
100
AcDb2dVertex
 10
-180.660487
 20
-161.186871
 30
0.0
  0
VERTEX
  5
A8C
100
AcDbEntity
  8
13
100
AcDbVertex
100
AcDb2dVertex
 10
-180.707095
 20
-161.198264
 30
0.0
  0
VERTEX
  5
A8D
100
AcDbEntity
  8
13
100
AcDbVertex
100
AcDb2dVertex
 10
-180.753598
 20
-161.210121
 30
0.0
  0
VERTEX
  5
A8E
100
AcDbEntity
  8
13
100
AcDbVertex
100
AcDb2dVertex
 10
-180.892443
 20
-161.248393
 30
0.0
  0
VERTEX
  5
A8F
100
AcDbEntity
  8
13
100
AcDbVertex
100
AcDb2dVertex
 10
-181.030246
 20
-161.290526
 30
0.0
  0
VERTEX
  5
A90
100
AcDbEntity
  8
13
100
AcDbVertex
100
AcDb2dVertex
 10
-181.166943
 20
-161.336281
 30
0.0
  0
VERTEX
  5
A91
100
AcDbEntity
  8
13
100
AcDbVertex
100
AcDb2dVertex
 10
-181.212252
 20
-161.352296
 30
0.0
  0
VERTEX
  5
A92
100
AcDbEntity
  8
13
100
AcDbVertex
100
AcDb2dVertex
 10
-181.257428
 20
-161.368677
 30
0.0
  0
VERTEX
  5
A93
100
AcDbEntity
  8
13
100
AcDbVertex
100
AcDb2dVertex
 10
-181.30247
 20
-161.385416
 30
0.0
  0
VERTEX
  5
A94
100
AcDbEntity
  8
13
100
AcDbVertex
100
AcDb2dVertex
 10
-181.358015
 20
-161.406615
 30
0.0
  0
VERTEX
  5
A95
100
AcDbEntity
  8
13
100
AcDbVertex
100
AcDb2dVertex
 10
-181.413343
 20
-161.42835
 30
0.0
  0
VERTEX
  5
A96
100
AcDbEntity
  8
13
100
AcDbVertex
100
AcDb2dVertex
 10
-181.468447
 20
-161.450627
 30
0.0
  0
VERTEX
  5
A97
100
AcDbEntity
  8
13
100
AcDbVertex
100
AcDb2dVertex
 10
-181.632344
 20
-161.520735
 30
0.0
  0
VERTEX
  5
A98
100
AcDbEntity
  8
13
100
AcDbVertex
100
AcDb2dVertex
 10
-181.793967
 20
-161.59583
 30
0.0
  0
VERTEX
  5
A99
100
AcDbEntity
  8
13
100
AcDbVertex
100
AcDb2dVertex
 10
-181.847304
 20
-161.621986
 30
0.0
  0
VERTEX
  5
A9A
100
AcDbEntity
  8
13
100
AcDbVertex
100
AcDb2dVertex
 10
-181.900359
 20
-161.648709
 30
0.0
  0
VERTEX
  5
A9B
100
AcDbEntity
  8
13
100
AcDbVertex
100
AcDb2dVertex
 10
-181.953126
 20
-161.676003
 30
0.0
  0
VERTEX
  5
A9C
100
AcDbEntity
  8
13
100
AcDbVertex
100
AcDb2dVertex
 10
-182.004981
 20
-161.703538
 30
0.0
  0
VERTEX
  5
A9D
100
AcDbEntity
  8
13
100
AcDbVertex
100
AcDb2dVertex
 10
-182.05654
 20
-161.731631
 30
0.0
  0
VERTEX
  5
A9E
100
AcDbEntity
  8
13
100
AcDbVertex
100
AcDb2dVertex
 10
-182.107797
 20
-161.760279
 30
0.0
  0
VERTEX
  5
A9F
100
AcDbEntity
  8
13
100
AcDbVertex
100
AcDb2dVertex
 10
-182.259683
 20
-161.849525
 30
0.0
  0
VERTEX
  5
AA0
100
AcDbEntity
  8
13
100
AcDbVertex
100
AcDb2dVertex
 10
-182.408596
 20
-161.943666
 30
0.0
  0
VERTEX
  5
AA1
100
AcDbEntity
  8
13
100
AcDbVertex
100
AcDb2dVertex
 10
-182.45754
 20
-161.976121
 30
0.0
  0
VERTEX
  5
AA2
100
AcDbEntity
  8
13
100
AcDbVertex
100
AcDb2dVertex
 10
-182.506125
 20
-162.009109
 30
0.0
  0
VERTEX
  5
AA3
100
AcDbEntity
  8
13
100
AcDbVertex
100
AcDb2dVertex
 10
-182.554345
 20
-162.042626
 30
0.0
  0
VERTEX
  5
AA4
100
AcDbEntity
  8
13
100
AcDbVertex
100
AcDb2dVertex
 10
-182.601582
 20
-162.076231
 30
0.0
  0
VERTEX
  5
AA5
100
AcDbEntity
  8
13
100
AcDbVertex
100
AcDb2dVertex
 10
-182.64845
 20
-162.110347
 30
0.0
  0
VERTEX
  5
AA6
100
AcDbEntity
  8
13
100
AcDbVertex
100
AcDb2dVertex
 10
-182.694944
 20
-162.144969
 30
0.0
  0
VERTEX
  5
AA7
100
AcDbEntity
  8
13
100
AcDbVertex
100
AcDb2dVertex
 10
-182.832121
 20
-162.251848
 30
0.0
  0
VERTEX
  5
AA8
100
AcDbEntity
  8
13
100
AcDbVertex
100
AcDb2dVertex
 10
-182.965723
 20
-162.363174
 30
0.0
  0
VERTEX
  5
AA9
100
AcDbEntity
  8
13
100
AcDbVertex
100
AcDb2dVertex
 10
-183.009436
 20
-162.401256
 30
0.0
  0
VERTEX
  5
AAA
100
AcDbEntity
  8
13
100
AcDbVertex
100
AcDb2dVertex
 10
-183.052729
 20
-162.43982
 30
0.0
  0
VERTEX
  5
AAB
100
AcDbEntity
  8
13
100
AcDbVertex
100
AcDb2dVertex
 10
-183.095596
 20
-162.478861
 30
0.0
  0
VERTEX
  5
AAC
100
AcDbEntity
  8
13
100
AcDbVertex
100
AcDb2dVertex
 10
-183.137484
 20
-162.517863
 30
0.0
  0
VERTEX
  5
AAD
100
AcDbEntity
  8
13
100
AcDbVertex
100
AcDb2dVertex
 10
-183.178941
 20
-162.557326
 30
0.0
  0
VERTEX
  5
AAE
100
AcDbEntity
  8
13
100
AcDbVertex
100
AcDb2dVertex
 10
-183.219955
 20
-162.597249
 30
0.0
  0
VERTEX
  5
AAF
100
AcDbEntity
  8
13
100
AcDbVertex
100
AcDb2dVertex
 10
-183.340238
 20
-162.719768
 30
0.0
  0
VERTEX
  5
AB0
100
AcDbEntity
  8
13
100
AcDbVertex
100
AcDb2dVertex
 10
-183.456151
 20
-162.846385
 30
0.0
  0
VERTEX
  5
AB1
100
AcDbEntity
  8
13
100
AcDbVertex
100
AcDb2dVertex
 10
-183.493767
 20
-162.889497
 30
0.0
  0
VERTEX
  5
AB2
100
AcDbEntity
  8
13
100
AcDbVertex
100
AcDb2dVertex
 10
-183.530853
 20
-162.933059
 30
0.0
  0
VERTEX
  5
AB3
100
AcDbEntity
  8
13
100
AcDbVertex
100
AcDb2dVertex
 10
-183.5674
 20
-162.97707
 30
0.0
  0
VERTEX
  5
AB4
100
AcDbEntity
  8
13
100
AcDbVertex
100
AcDb2dVertex
 10
-183.602965
 20
-163.020984
 30
0.0
  0
VERTEX
  5
AB5
100
AcDbEntity
  8
13
100
AcDbVertex
100
AcDb2dVertex
 10
-183.638001
 20
-163.065319
 30
0.0
  0
VERTEX
  5
AB6
100
AcDbEntity
  8
13
100
AcDbVertex
100
AcDb2dVertex
 10
-183.67252
 20
-163.110061
 30
0.0
  0
VERTEX
  5
AB7
100
AcDbEntity
  8
13
100
AcDbVertex
100
AcDb2dVertex
 10
-183.773066
 20
-163.246577
 30
0.0
  0
VERTEX
  5
AB8
100
AcDbEntity
  8
13
100
AcDbVertex
100
AcDb2dVertex
 10
-183.869303
 20
-163.386203
 30
0.0
  0
VERTEX
  5
AB9
100
AcDbEntity
  8
13
100
AcDbVertex
100
AcDb2dVertex
 10
-183.90047
 20
-163.433365
 30
0.0
  0
VERTEX
  5
ABA
100
AcDbEntity
  8
13
100
AcDbVertex
100
AcDb2dVertex
 10
-183.931197
 20
-163.480811
 30
0.0
  0
VERTEX
  5
ABB
100
AcDbEntity
  8
13
100
AcDbVertex
100
AcDb2dVertex
 10
-183.961494
 20
-163.528526
 30
0.0
  0
VERTEX
  5
ABC
100
AcDbEntity
  8
13
100
AcDbVertex
100
AcDb2dVertex
 10
-183.988921
 20
-163.57253
 30
0.0
  0
VERTEX
  5
ABD
100
AcDbEntity
  8
13
100
AcDbVertex
100
AcDb2dVertex
 10
-184.015999
 20
-163.616742
 30
0.0
  0
VERTEX
  5
ABE
100
AcDbEntity
  8
13
100
AcDbVertex
100
AcDb2dVertex
 10
-184.042732
 20
-163.66116
 30
0.0
  0
VERTEX
  5
ABF
100
AcDbEntity
  8
13
100
AcDbVertex
100
AcDb2dVertex
 10
-184.120902
 20
-163.795596
 30
0.0
  0
VERTEX
  5
AC0
100
AcDbEntity
  8
13
100
AcDbVertex
100
AcDb2dVertex
 10
-184.196122
 20
-163.931714
 30
0.0
  0
VERTEX
  5
AC1
100
AcDbEntity
  8
13
100
AcDbVertex
100
AcDb2dVertex
 10
-184.268508
 20
-164.069393
 30
0.0
  0
VERTEX
  5
AC2
100
AcDbEntity
  8
13
100
AcDbVertex
100
AcDb2dVertex
 10
-184.292027
 20
-164.115612
 30
0.0
  0
VERTEX
  5
AC3
100
AcDbEntity
  8
13
100
AcDbVertex
100
AcDb2dVertex
 10
-184.315248
 20
-164.161987
 30
0.0
  0
VERTEX
  5
AC4
100
AcDbEntity
  8
13
100
AcDbVertex
100
AcDb2dVertex
 10
-184.338175
 20
-164.208513
 30
0.0
  0
VERTEX
  5
AC5
100
AcDbEntity
  8
13
100
AcDbVertex
100
AcDb2dVertex
 10
-184.360541
 20
-164.254619
 30
0.0
  0
VERTEX
  5
AC6
100
AcDbEntity
  8
13
100
AcDbVertex
100
AcDb2dVertex
 10
-184.382627
 20
-164.300864
 30
0.0
  0
VERTEX
  5
AC7
100
AcDbEntity
  8
13
100
AcDbVertex
100
AcDb2dVertex
 10
-184.404436
 20
-164.347241
 30
0.0
  0
VERTEX
  5
AC8
100
AcDbEntity
  8
13
100
AcDbVertex
100
AcDb2dVertex
 10
-184.468229
 20
-164.487119
 30
0.0
  0
VERTEX
  5
AC9
100
AcDbEntity
  8
13
100
AcDbVertex
100
AcDb2dVertex
 10
-184.529623
 20
-164.628008
 30
0.0
  0
VERTEX
  5
ACA
100
AcDbEntity
  8
13
100
AcDbVertex
100
AcDb2dVertex
 10
-184.588689
 20
-164.76977
 30
0.0
  0
VERTEX
  5
ACB
100
AcDbEntity
  8
13
100
AcDbVertex
100
AcDb2dVertex
 10
-184.607872
 20
-164.817194
 30
0.0
  0
VERTEX
  5
ACC
100
AcDbEntity
  8
13
100
AcDbVertex
100
AcDb2dVertex
 10
-184.626807
 20
-164.864694
 30
0.0
  0
VERTEX
  5
ACD
100
AcDbEntity
  8
13
100
AcDbVertex
100
AcDb2dVertex
 10
-184.645496
 20
-164.912266
 30
0.0
  0
VERTEX
  5
ACE
100
AcDbEntity
  8
13
100
AcDbVertex
100
AcDb2dVertex
 10
-184.669903
 20
-164.975492
 30
0.0
  0
VERTEX
  5
ACF
100
AcDbEntity
  8
13
100
AcDbVertex
100
AcDb2dVertex
 10
-184.693801
 20
-165.038876
 30
0.0
  0
VERTEX
  5
AD0
100
AcDbEntity
  8
13
100
AcDbVertex
100
AcDb2dVertex
 10
-184.71711
 20
-165.102461
 30
0.0
  0
VERTEX
  5
AD1
100
AcDbEntity
  8
13
100
AcDbVertex
100
AcDb2dVertex
 10
-184.782697
 20
-165.294843
 30
0.0
  0
VERTEX
  5
AD2
100
AcDbEntity
  8
13
100
AcDbVertex
100
AcDb2dVertex
 10
-184.840079
 20
-165.490548
 30
0.0
  0
VERTEX
  5
AD3
100
AcDbEntity
  8
13
100
AcDbVertex
100
AcDb2dVertex
 10
-184.857007
 20
-165.556719
 30
0.0
  0
VERTEX
  5
AD4
100
AcDbEntity
  8
13
100
AcDbVertex
100
AcDb2dVertex
 10
-184.872701
 20
-165.623428
 30
0.0
  0
VERTEX
  5
AD5
100
AcDbEntity
  8
13
100
AcDbVertex
100
AcDb2dVertex
 10
-184.88708
 20
-165.690716
 30
0.0
  0
VERTEX
  5
AD6
100
AcDbEntity
  8
13
100
AcDbVertex
100
AcDb2dVertex
 10
-184.900172
 20
-165.759327
 30
0.0
  0
VERTEX
  5
AD7
100
AcDbEntity
  8
13
100
AcDbVertex
100
AcDb2dVertex
 10
-184.91161
 20
-165.828429
 30
0.0
  0
VERTEX
  5
AD8
100
AcDbEntity
  8
13
100
AcDbVertex
100
AcDb2dVertex
 10
-184.921169
 20
-165.897876
 30
0.0
  0
VERTEX
  5
AD9
100
AcDbEntity
  8
13
100
AcDbVertex
100
AcDb2dVertex
 10
-184.936293
 20
-166.106841
 30
0.0
  0
VERTEX
  5
ADA
100
AcDbEntity
  8
13
100
AcDbVertex
100
AcDb2dVertex
 10
-184.926314
 20
-166.313696
 30
0.0
  0
VERTEX
  5
ADB
100
AcDbEntity
  8
13
100
AcDbVertex
100
AcDb2dVertex
 10
-184.916348
 20
-166.381502
 30
0.0
  0
VERTEX
  5
ADC
100
AcDbEntity
  8
13
100
AcDbVertex
100
AcDb2dVertex
 10
-184.902685
 20
-166.448493
 30
0.0
  0
VERTEX
  5
ADD
100
AcDbEntity
  8
13
100
AcDbVertex
100
AcDb2dVertex
 10
-184.885095
 20
-166.514525
 30
0.0
  0
VERTEX
  5
ADE
100
AcDbEntity
  8
13
100
AcDbVertex
100
AcDb2dVertex
 10
-184.875157
 20
-166.545969
 30
0.0
  0
VERTEX
  5
ADF
100
AcDbEntity
  8
13
100
AcDbVertex
100
AcDb2dVertex
 10
-184.864275
 20
-166.577167
 30
0.0
  0
VERTEX
  5
AE0
100
AcDbEntity
  8
13
100
AcDbVertex
100
AcDb2dVertex
 10
-184.852473
 20
-166.608131
 30
0.0
  0
VERTEX
  5
AE1
100
AcDbEntity
  8
13
100
AcDbVertex
100
AcDb2dVertex
 10
-184.839771
 20
-166.638871
 30
0.0
  0
VERTEX
  5
AE2
100
AcDbEntity
  8
13
100
AcDbVertex
100
AcDb2dVertex
 10
-184.812401
 20
-166.698265
 30
0.0
  0
VERTEX
  5
AE3
100
AcDbEntity
  8
13
100
AcDbVertex
100
AcDb2dVertex
 10
-184.781714
 20
-166.75628
 30
0.0
  0
VERTEX
  5
AE4
100
AcDbEntity
  8
13
100
AcDbVertex
100
AcDb2dVertex
 10
-184.747749
 20
-166.812351
 30
0.0
  0
VERTEX
  5
AE5
100
AcDbEntity
  8
13
100
AcDbVertex
100
AcDb2dVertex
 10
-184.710542
 20
-166.865912
 30
0.0
  0
VERTEX
  5
AE6
100
AcDbEntity
  8
13
100
AcDbVertex
100
AcDb2dVertex
 10
-184.670132
 20
-166.916399
 30
0.0
  0
VERTEX
  5
AE7
100
AcDbEntity
  8
13
100
AcDbVertex
100
AcDb2dVertex
 10
-184.626554
 20
-166.963244
 30
0.0
  0
VERTEX
  5
AE8
100
AcDbEntity
  8
13
100
AcDbVertex
100
AcDb2dVertex
 10
-184.6042
 20
-166.984692
 30
0.0
  0
VERTEX
  5
AE9
100
AcDbEntity
  8
13
100
AcDbVertex
100
AcDb2dVertex
 10
-184.581225
 20
-167.005718
 30
0.0
  0
VERTEX
  5
AEA
100
AcDbEntity
  8
13
100
AcDbVertex
100
AcDb2dVertex
 10
-184.557751
 20
-167.026897
 30
0.0
  0
VERTEX
  5
AEB
100
AcDbEntity
  8
13
100
AcDbVertex
100
AcDb2dVertex
 10
-184.533901
 20
-167.048808
 30
0.0
  0
VERTEX
  5
AEC
100
AcDbEntity
  8
13
100
AcDbVertex
100
AcDb2dVertex
 10
-184.510167
 20
-167.07106
 30
0.0
  0
VERTEX
  5
AED
100
AcDbEntity
  8
13
100
AcDbVertex
100
AcDb2dVertex
 10
-184.48574
 20
-167.092074
 30
0.0
  0
VERTEX
  5
AEE
100
AcDbEntity
  8
13
100
AcDbVertex
100
AcDb2dVertex
 10
-184.460175
 20
-167.109356
 30
0.0
  0
VERTEX
  5
AEF
100
AcDbEntity
  8
13
100
AcDbVertex
100
AcDb2dVertex
 10
-184.433023
 20
-167.120409
 30
0.0
  0
VERTEX
  5
AF0
100
AcDbEntity
  8
13
100
AcDbVertex
100
AcDb2dVertex
 10
-184.39595
 20
-167.123187
 30
0.0
  0
VERTEX
  5
AF1
100
AcDbEntity
  8
13
100
AcDbVertex
100
AcDb2dVertex
 10
-184.356697
 20
-167.116616
 30
0.0
  0
VERTEX
  5
AF2
100
AcDbEntity
  8
13
100
AcDbVertex
100
AcDb2dVertex
 10
-184.316354
 20
-167.10537
 30
0.0
  0
SEQEND
  5
AF3
100
AcDbEntity
  8
13
  0
POLYLINE
  5
5D0
100
AcDbEntity
  8
13
100
AcDb2dPolyline
 66
     1
 10
0.0
 20
0.0
 30
0.0
  0
VERTEX
  5
AF4
100
AcDbEntity
  8
13
100
AcDbVertex
100
AcDb2dVertex
 10
-202.828909
 20
-164.090067
 30
0.0
  0
VERTEX
  5
AF5
100
AcDbEntity
  8
13
100
AcDbVertex
100
AcDb2dVertex
 10
-202.825181
 20
-164.015074
 30
0.0
  0
VERTEX
  5
AF6
100
AcDbEntity
  8
13
100
AcDbVertex
100
AcDb2dVertex
 10
-202.821206
 20
-163.94012
 30
0.0
  0
VERTEX
  5
AF7
100
AcDbEntity
  8
13
100
AcDbVertex
100
AcDb2dVertex
 10
-202.81674
 20
-163.865243
 30
0.0
  0
VERTEX
  5
AF8
100
AcDbEntity
  8
13
100
AcDbVertex
100
AcDb2dVertex
 10
-202.797934
 20
-163.641472
 30
0.0
  0
VERTEX
  5
AF9
100
AcDbEntity
  8
13
100
AcDbVertex
100
AcDb2dVertex
 10
-202.789043
 20
-163.567297
 30
0.0
  0
VERTEX
  5
AFA
100
AcDbEntity
  8
13
100
AcDbVertex
100
AcDb2dVertex
 10
-202.778431
 20
-163.493395
 30
0.0
  0
VERTEX
  5
AFB
100
AcDbEntity
  8
13
100
AcDbVertex
100
AcDb2dVertex
 10
-202.765852
 20
-163.419805
 30
0.0
  0
VERTEX
  5
AFC
100
AcDbEntity
  8
13
100
AcDbVertex
100
AcDb2dVertex
 10
-202.75085
 20
-163.345329
 30
0.0
  0
VERTEX
  5
AFD
100
AcDbEntity
  8
13
100
AcDbVertex
100
AcDb2dVertex
 10
-202.733656
 20
-163.271251
 30
0.0
  0
VERTEX
  5
AFE
100
AcDbEntity
  8
13
100
AcDbVertex
100
AcDb2dVertex
 10
-202.714368
 20
-163.197606
 30
0.0
  0
VERTEX
  5
AFF
100
AcDbEntity
  8
13
100
AcDbVertex
100
AcDb2dVertex
 10
-202.64491
 20
-162.979632
 30
0.0
  0
VERTEX
  5
B00
100
AcDbEntity
  8
13
100
AcDbVertex
100
AcDb2dVertex
 10
-202.618215
 20
-162.908079
 30
0.0
  0
VERTEX
  5
B01
100
AcDbEntity
  8
13
100
AcDbVertex
100
AcDb2dVertex
 10
-202.589911
 20
-162.837138
 30
0.0
  0
VERTEX
  5
B02
100
AcDbEntity
  8
13
100
AcDbVertex
100
AcDb2dVertex
 10
-202.560094
 20
-162.766843
 30
0.0
  0
VERTEX
  5
B03
100
AcDbEntity
  8
13
100
AcDbVertex
100
AcDb2dVertex
 10
-202.527452
 20
-162.694201
 30
0.0
  0
VERTEX
  5
B04
100
AcDbEntity
  8
13
100
AcDbVertex
100
AcDb2dVertex
 10
-202.493293
 20
-162.622318
 30
0.0
  0
VERTEX
  5
B05
100
AcDbEntity
  8
13
100
AcDbVertex
100
AcDb2dVertex
 10
-202.457644
 20
-162.551212
 30
0.0
  0
VERTEX
  5
B06
100
AcDbEntity
  8
13
100
AcDbVertex
100
AcDb2dVertex
 10
-202.342005
 20
-162.342714
 30
0.0
  0
VERTEX
  5
B07
100
AcDbEntity
  8
13
100
AcDbVertex
100
AcDb2dVertex
 10
-202.300646
 20
-162.274875
 30
0.0
  0
VERTEX
  5
B08
100
AcDbEntity
  8
13
100
AcDbVertex
100
AcDb2dVertex
 10
-202.257925
 20
-162.207894
 30
0.0
  0
VERTEX
  5
B09
100
AcDbEntity
  8
13
100
AcDbVertex
100
AcDb2dVertex
 10
-202.213865
 20
-162.141787
 30
0.0
  0
VERTEX
  5
B0A
100
AcDbEntity
  8
13
100
AcDbVertex
100
AcDb2dVertex
 10
-202.164793
 20
-162.071363
 30
0.0
  0
VERTEX
  5
B0B
100
AcDbEntity
  8
13
100
AcDbVertex
100
AcDb2dVertex
 10
-202.114241
 20
-162.001979
 30
0.0
  0
VERTEX
  5
B0C
100
AcDbEntity
  8
13
100
AcDbVertex
100
AcDb2dVertex
 10
-202.062264
 20
-161.933638
 30
0.0
  0
VERTEX
  5
B0D
100
AcDbEntity
  8
13
100
AcDbVertex
100
AcDb2dVertex
 10
-201.898307
 20
-161.734891
 30
0.0
  0
VERTEX
  5
B0E
100
AcDbEntity
  8
13
100
AcDbVertex
100
AcDb2dVertex
 10
-201.841157
 20
-161.67074
 30
0.0
  0
VERTEX
  5
B0F
100
AcDbEntity
  8
13
100
AcDbVertex
100
AcDb2dVertex
 10
-201.782846
 20
-161.607642
 30
0.0
  0
VERTEX
  5
B10
100
AcDbEntity
  8
13
100
AcDbVertex
100
AcDb2dVertex
 10
-201.723428
 20
-161.545597
 30
0.0
  0
VERTEX
  5
B11
100
AcDbEntity
  8
13
100
AcDbVertex
100
AcDb2dVertex
 10
-201.675159
 20
-161.49675
 30
0.0
  0
VERTEX
  5
B12
100
AcDbEntity
  8
13
100
AcDbVertex
100
AcDb2dVertex
 10
-201.626231
 20
-161.448575
 30
0.0
  0
VERTEX
  5
B13
100
AcDbEntity
  8
13
100
AcDbVertex
100
AcDb2dVertex
 10
-201.576663
 20
-161.401071
 30
0.0
  0
VERTEX
  5
B14
100
AcDbEntity
  8
13
100
AcDbVertex
100
AcDb2dVertex
 10
-201.424272
 20
-161.262557
 30
0.0
  0
VERTEX
  5
B15
100
AcDbEntity
  8
13
100
AcDbVertex
100
AcDb2dVertex
 10
-201.2667
 20
-161.129991
 30
0.0
  0
VERTEX
  5
B16
100
AcDbEntity
  8
13
100
AcDbVertex
100
AcDb2dVertex
 10
-201.2131
 20
-161.087113
 30
0.0
  0
VERTEX
  5
B17
100
AcDbEntity
  8
13
100
AcDbVertex
100
AcDb2dVertex
 10
-201.15899
 20
-161.044886
 30
0.0
  0
VERTEX
  5
B18
100
AcDbEntity
  8
13
100
AcDbVertex
100
AcDb2dVertex
 10
-201.104386
 20
-161.003309
 30
0.0
  0
VERTEX
  5
B19
100
AcDbEntity
  8
13
100
AcDbVertex
100
AcDb2dVertex
 10
-201.045167
 20
-160.959344
 30
0.0
  0
VERTEX
  5
B1A
100
AcDbEntity
  8
13
100
AcDbVertex
100
AcDb2dVertex
 10
-200.985413
 20
-160.916117
 30
0.0
  0
VERTEX
  5
B1B
100
AcDbEntity
  8
13
100
AcDbVertex
100
AcDb2dVertex
 10
-200.925137
 20
-160.873622
 30
0.0
  0
VERTEX
  5
B1C
100
AcDbEntity
  8
13
100
AcDbVertex
100
AcDb2dVertex
 10
-200.741348
 20
-160.750439
 30
0.0
  0
VERTEX
  5
B1D
100
AcDbEntity
  8
13
100
AcDbVertex
100
AcDb2dVertex
 10
-200.553443
 20
-160.63354
 30
0.0
  0
VERTEX
  5
B1E
100
AcDbEntity
  8
13
100
AcDbVertex
100
AcDb2dVertex
 10
-200.489967
 20
-160.595933
 30
0.0
  0
VERTEX
  5
B1F
100
AcDbEntity
  8
13
100
AcDbVertex
100
AcDb2dVertex
 10
-200.426097
 20
-160.558991
 30
0.0
  0
VERTEX
  5
B20
100
AcDbEntity
  8
13
100
AcDbVertex
100
AcDb2dVertex
 10
-200.361848
 20
-160.522707
 30
0.0
  0
VERTEX
  5
B21
100
AcDbEntity
  8
13
100
AcDbVertex
100
AcDb2dVertex
 10
-200.269968
 20
-160.472292
 30
0.0
  0
VERTEX
  5
B22
100
AcDbEntity
  8
13
100
AcDbVertex
100
AcDb2dVertex
 10
-200.177375
 20
-160.423204
 30
0.0
  0
VERTEX
  5
B23
100
AcDbEntity
  8
13
100
AcDbVertex
100
AcDb2dVertex
 10
-200.084088
 20
-160.375461
 30
0.0
  0
VERTEX
  5
B24
100
AcDbEntity
  8
13
100
AcDbVertex
100
AcDb2dVertex
 10
-199.800261
 20
-160.240462
 30
0.0
  0
VERTEX
  5
B25
100
AcDbEntity
  8
13
100
AcDbVertex
100
AcDb2dVertex
 10
-199.704393
 20
-160.198262
 30
0.0
  0
VERTEX
  5
B26
100
AcDbEntity
  8
13
100
AcDbVertex
100
AcDb2dVertex
 10
-199.607928
 20
-160.157491
 30
0.0
  0
VERTEX
  5
B27
100
AcDbEntity
  8
13
100
AcDbVertex
100
AcDb2dVertex
 10
-199.510885
 20
-160.118164
 30
0.0
  0
VERTEX
  5
B28
100
AcDbEntity
  8
13
100
AcDbVertex
100
AcDb2dVertex
 10
-199.406626
 20
-160.077746
 30
0.0
  0
VERTEX
  5
B29
100
AcDbEntity
  8
13
100
AcDbVertex
100
AcDb2dVertex
 10
-199.301795
 20
-160.038843
 30
0.0
  0
VERTEX
  5
B2A
100
AcDbEntity
  8
13
100
AcDbVertex
100
AcDb2dVertex
 10
-199.196458
 20
-160.001302
 30
0.0
  0
VERTEX
  5
B2B
100
AcDbEntity
  8
13
100
AcDbVertex
100
AcDb2dVertex
 10
-198.878056
 20
-159.895318
 30
0.0
  0
VERTEX
  5
B2C
100
AcDbEntity
  8
13
100
AcDbVertex
100
AcDb2dVertex
 10
-198.771344
 20
-159.861694
 30
0.0
  0
VERTEX
  5
B2D
100
AcDbEntity
  8
13
100
AcDbVertex
100
AcDb2dVertex
 10
-198.664451
 20
-159.828666
 30
0.0
  0
VERTEX
  5
B2E
100
AcDbEntity
  8
13
100
AcDbVertex
100
AcDb2dVertex
 10
-198.557443
 20
-159.796083
 30
0.0
  0
VERTEX
  5
B2F
100
AcDbEntity
  8
13
100
AcDbVertex
100
AcDb2dVertex
 10
-198.448328
 20
-159.763218
 30
0.0
  0
VERTEX
  5
B30
100
AcDbEntity
  8
13
100
AcDbVertex
100
AcDb2dVertex
 10
-198.339122
 20
-159.730737
 30
0.0
  0
VERTEX
  5
B31
100
AcDbEntity
  8
13
100
AcDbVertex
100
AcDb2dVertex
 10
-198.229787
 20
-159.69872
 30
0.0
  0
VERTEX
  5
B32
100
AcDbEntity
  8
13
100
AcDbVertex
100
AcDb2dVertex
 10
-198.120285
 20
-159.66725
 30
0.0
  0
VERTEX
  5
B33
100
AcDbEntity
  8
13
100
AcDbVertex
100
AcDb2dVertex
 10
-198.010576
 20
-159.636407
 30
0.0
  0
VERTEX
  5
B34
100
AcDbEntity
  8
13
100
AcDbVertex
100
AcDb2dVertex
 10
-197.900623
 20
-159.606272
 30
0.0
  0
VERTEX
  5
B35
100
AcDbEntity
  8
13
100
AcDbVertex
100
AcDb2dVertex
 10
-197.771533
 20
-159.572049
 30
0.0
  0
VERTEX
  5
B36
100
AcDbEntity
  8
13
100
AcDbVertex
100
AcDb2dVertex
 10
-197.642029
 20
-159.539329
 30
0.0
  0
VERTEX
  5
B37
100
AcDbEntity
  8
13
100
AcDbVertex
100
AcDb2dVertex
 10
-197.512086
 20
-159.508535
 30
0.0
  0
VERTEX
  5
B38
100
AcDbEntity
  8
13
100
AcDbVertex
100
AcDb2dVertex
 10
-197.381679
 20
-159.480085
 30
0.0
  0
VERTEX
  5
B39
100
AcDbEntity
  8
13
100
AcDbVertex
100
AcDb2dVertex
 10
-197.250781
 20
-159.454403
 30
0.0
  0
VERTEX
  5
B3A
100
AcDbEntity
  8
13
100
AcDbVertex
100
AcDb2dVertex
 10
-197.119368
 20
-159.431908
 30
0.0
  0
SEQEND
  5
B3B
100
AcDbEntity
  8
13
  0
POLYLINE
  5
619
100
AcDbEntity
  8
13
100
AcDb2dPolyline
 66
     1
 10
0.0
 20
0.0
 30
0.0
  0
VERTEX
  5
B3C
100
AcDbEntity
  8
13
100
AcDbVertex
100
AcDb2dVertex
 10
-192.169419
 20
-159.683673
 30
0.0
  0
VERTEX
  5
B3D
100
AcDbEntity
  8
13
100
AcDbVertex
100
AcDb2dVertex
 10
-192.214357
 20
-159.686989
 30
0.0
  0
VERTEX
  5
B3E
100
AcDbEntity
  8
13
100
AcDbVertex
100
AcDb2dVertex
 10
-192.259287
 20
-159.690363
 30
0.0
  0
VERTEX
  5
B3F
100
AcDbEntity
  8
13
100
AcDbVertex
100
AcDb2dVertex
 10
-192.304202
 20
-159.693854
 30
0.0
  0
VERTEX
  5
B40
100
AcDbEntity
  8
13
100
AcDbVertex
100
AcDb2dVertex
 10
-192.438778
 20
-159.705616
 30
0.0
  0
VERTEX
  5
B41
100
AcDbEntity
  8
13
100
AcDbVertex
100
AcDb2dVertex
 10
-192.483555
 20
-159.710162
 30
0.0
  0
VERTEX
  5
B42
100
AcDbEntity
  8
13
100
AcDbVertex
100
AcDb2dVertex
 10
-192.528279
 20
-159.715117
 30
0.0
  0
VERTEX
  5
B43
100
AcDbEntity
  8
13
100
AcDbVertex
100
AcDb2dVertex
 10
-192.572942
 20
-159.720541
 30
0.0
  0
VERTEX
  5
B44
100
AcDbEntity
  8
13
100
AcDbVertex
100
AcDb2dVertex
 10
-192.635586
 20
-159.72903
 30
0.0
  0
VERTEX
  5
B45
100
AcDbEntity
  8
13
100
AcDbVertex
100
AcDb2dVertex
 10
-192.698097
 20
-159.738499
 30
0.0
  0
VERTEX
  5
B46
100
AcDbEntity
  8
13
100
AcDbVertex
100
AcDb2dVertex
 10
-192.760478
 20
-159.748888
 30
0.0
  0
VERTEX
  5
B47
100
AcDbEntity
  8
13
100
AcDbVertex
100
AcDb2dVertex
 10
-192.946863
 20
-159.784971
 30
0.0
  0
VERTEX
  5
B48
100
AcDbEntity
  8
13
100
AcDbVertex
100
AcDb2dVertex
 10
-193.132167
 20
-159.827162
 30
0.0
  0
VERTEX
  5
B49
100
AcDbEntity
  8
13
100
AcDbVertex
100
AcDb2dVertex
 10
-193.193707
 20
-159.842301
 30
0.0
  0
VERTEX
  5
B4A
100
AcDbEntity
  8
13
100
AcDbVertex
100
AcDb2dVertex
 10
-193.255138
 20
-159.857877
 30
0.0
  0
VERTEX
  5
B4B
100
AcDbEntity
  8
13
100
AcDbVertex
100
AcDb2dVertex
 10
-193.316461
 20
-159.873829
 30
0.0
  0
VERTEX
  5
B4C
100
AcDbEntity
  8
13
100
AcDbVertex
100
AcDb2dVertex
 10
-193.370361
 20
-159.888146
 30
0.0
  0
VERTEX
  5
B4D
100
AcDbEntity
  8
13
100
AcDbVertex
100
AcDb2dVertex
 10
-193.424175
 20
-159.902723
 30
0.0
  0
VERTEX
  5
B4E
100
AcDbEntity
  8
13
100
AcDbVertex
100
AcDb2dVertex
 10
-193.4779
 20
-159.917573
 30
0.0
  0
VERTEX
  5
B4F
100
AcDbEntity
  8
13
100
AcDbVertex
100
AcDb2dVertex
 10
-193.638486
 20
-159.963908
 30
0.0
  0
VERTEX
  5
B50
100
AcDbEntity
  8
13
100
AcDbVertex
100
AcDb2dVertex
 10
-193.798098
 20
-160.013218
 30
0.0
  0
VERTEX
  5
B51
100
AcDbEntity
  8
13
100
AcDbVertex
100
AcDb2dVertex
 10
-193.851064
 20
-160.030382
 30
0.0
  0
VERTEX
  5
B52
100
AcDbEntity
  8
13
100
AcDbVertex
100
AcDb2dVertex
 10
-193.903904
 20
-160.047934
 30
0.0
  0
VERTEX
  5
B53
100
AcDbEntity
  8
13
100
AcDbVertex
100
AcDb2dVertex
 10
-193.956613
 20
-160.065888
 30
0.0
  0
VERTEX
  5
B54
100
AcDbEntity
  8
13
100
AcDbVertex
100
AcDb2dVertex
 10
-194.008547
 20
-160.084029
 30
0.0
  0
VERTEX
  5
B55
100
AcDbEntity
  8
13
100
AcDbVertex
100
AcDb2dVertex
 10
-194.060345
 20
-160.102574
 30
0.0
  0
VERTEX
  5
B56
100
AcDbEntity
  8
13
100
AcDbVertex
100
AcDb2dVertex
 10
-194.112003
 20
-160.121521
 30
0.0
  0
VERTEX
  5
B57
100
AcDbEntity
  8
13
100
AcDbVertex
100
AcDb2dVertex
 10
-194.266108
 20
-160.180759
 30
0.0
  0
VERTEX
  5
B58
100
AcDbEntity
  8
13
100
AcDbVertex
100
AcDb2dVertex
 10
-194.418833
 20
-160.24355
 30
0.0
  0
VERTEX
  5
B59
100
AcDbEntity
  8
13
100
AcDbVertex
100
AcDb2dVertex
 10
-194.469418
 20
-160.265261
 30
0.0
  0
VERTEX
  5
B5A
100
AcDbEntity
  8
13
100
AcDbVertex
100
AcDb2dVertex
 10
-194.519836
 20
-160.28736
 30
0.0
  0
VERTEX
  5
B5B
100
AcDbEntity
  8
13
100
AcDbVertex
100
AcDb2dVertex
 10
-194.570082
 20
-160.309845
 30
0.0
  0
VERTEX
  5
B5C
100
AcDbEntity
  8
13
100
AcDbVertex
100
AcDb2dVertex
 10
-194.622641
 20
-160.333862
 30
0.0
  0
VERTEX
  5
B5D
100
AcDbEntity
  8
13
100
AcDbVertex
100
AcDb2dVertex
 10
-194.675002
 20
-160.358305
 30
0.0
  0
VERTEX
  5
B5E
100
AcDbEntity
  8
13
100
AcDbVertex
100
AcDb2dVertex
 10
-194.72716
 20
-160.383175
 30
0.0
  0
VERTEX
  5
B5F
100
AcDbEntity
  8
13
100
AcDbVertex
100
AcDb2dVertex
 10
-194.882357
 20
-160.460372
 30
0.0
  0
VERTEX
  5
B60
100
AcDbEntity
  8
13
100
AcDbVertex
100
AcDb2dVertex
 10
-195.035521
 20
-160.541498
 30
0.0
  0
VERTEX
  5
B61
100
AcDbEntity
  8
13
100
AcDbVertex
100
AcDb2dVertex
 10
-195.086099
 20
-160.569423
 30
0.0
  0
VERTEX
  5
B62
100
AcDbEntity
  8
13
100
AcDbVertex
100
AcDb2dVertex
 10
-195.136428
 20
-160.597794
 30
0.0
  0
VERTEX
  5
B63
100
AcDbEntity
  8
13
100
AcDbVertex
100
AcDb2dVertex
 10
-195.186504
 20
-160.626613
 30
0.0
  0
VERTEX
  5
B64
100
AcDbEntity
  8
13
100
AcDbVertex
100
AcDb2dVertex
 10
-195.248168
 20
-160.662932
 30
0.0
  0
VERTEX
  5
B65
100
AcDbEntity
  8
13
100
AcDbVertex
100
AcDb2dVertex
 10
-195.309422
 20
-160.699944
 30
0.0
  0
VERTEX
  5
B66
100
AcDbEntity
  8
13
100
AcDbVertex
100
AcDb2dVertex
 10
-195.370252
 20
-160.737649
 30
0.0
  0
VERTEX
  5
B67
100
AcDbEntity
  8
13
100
AcDbVertex
100
AcDb2dVertex
 10
-195.550073
 20
-160.854945
 30
0.0
  0
VERTEX
  5
B68
100
AcDbEntity
  8
13
100
AcDbVertex
100
AcDb2dVertex
 10
-195.60908
 20
-160.895442
 30
0.0
  0
VERTEX
  5
B69
100
AcDbEntity
  8
13
100
AcDbVertex
100
AcDb2dVertex
 10
-195.667599
 20
-160.936641
 30
0.0
  0
VERTEX
  5
B6A
100
AcDbEntity
  8
13
100
AcDbVertex
100
AcDb2dVertex
 10
-195.725616
 20
-160.978544
 30
0.0
  0
VERTEX
  5
B6B
100
AcDbEntity
  8
13
100
AcDbVertex
100
AcDb2dVertex
 10
-195.778874
 20
-161.01797
 30
0.0
  0
VERTEX
  5
B6C
100
AcDbEntity
  8
13
100
AcDbVertex
100
AcDb2dVertex
 10
-195.831678
 20
-161.058001
 30
0.0
  0
VERTEX
  5
B6D
100
AcDbEntity
  8
13
100
AcDbVertex
100
AcDb2dVertex
 10
-195.884015
 20
-161.098642
 30
0.0
  0
VERTEX
  5
B6E
100
AcDbEntity
  8
13
100
AcDbVertex
100
AcDb2dVertex
 10
-196.038092
 20
-161.224229
 30
0.0
  0
VERTEX
  5
B6F
100
AcDbEntity
  8
13
100
AcDbVertex
100
AcDb2dVertex
 10
-196.088429
 20
-161.26732
 30
0.0
  0
VERTEX
  5
B70
100
AcDbEntity
  8
13
100
AcDbVertex
100
AcDb2dVertex
 10
-196.138233
 20
-161.311028
 30
0.0
  0
VERTEX
  5
B71
100
AcDbEntity
  8
13
100
AcDbVertex
100
AcDb2dVertex
 10
-196.187491
 20
-161.355355
 30
0.0
  0
VERTEX
  5
B72
100
AcDbEntity
  8
13
100
AcDbVertex
100
AcDb2dVertex
 10
-196.238287
 20
-161.402264
 30
0.0
  0
VERTEX
  5
B73
100
AcDbEntity
  8
13
100
AcDbVertex
100
AcDb2dVertex
 10
-196.288458
 20
-161.449845
 30
0.0
  0
VERTEX
  5
B74
100
AcDbEntity
  8
13
100
AcDbVertex
100
AcDb2dVertex
 10
-196.337988
 20
-161.498096
 30
0.0
  0
VERTEX
  5
B75
100
AcDbEntity
  8
13
100
AcDbVertex
100
AcDb2dVertex
 10
-196.48257
 20
-161.646831
 30
0.0
  0
VERTEX
  5
B76
100
AcDbEntity
  8
13
100
AcDbVertex
100
AcDb2dVertex
 10
-196.529374
 20
-161.697727
 30
0.0
  0
VERTEX
  5
B77
100
AcDbEntity
  8
13
100
AcDbVertex
100
AcDb2dVertex
 10
-196.575456
 20
-161.749276
 30
0.0
  0
VERTEX
  5
B78
100
AcDbEntity
  8
13
100
AcDbVertex
100
AcDb2dVertex
 10
-196.620801
 20
-161.801475
 30
0.0
  0
VERTEX
  5
B79
100
AcDbEntity
  8
13
100
AcDbVertex
100
AcDb2dVertex
 10
-196.66344
 20
-161.851974
 30
0.0
  0
VERTEX
  5
B7A
100
AcDbEntity
  8
13
100
AcDbVertex
100
AcDb2dVertex
 10
-196.705375
 20
-161.90306
 30
0.0
  0
VERTEX
  5
B7B
100
AcDbEntity
  8
13
100
AcDbVertex
100
AcDb2dVertex
 10
-196.746592
 20
-161.954726
 30
0.0
  0
VERTEX
  5
B7C
100
AcDbEntity
  8
13
100
AcDbVertex
100
AcDb2dVertex
 10
-196.865797
 20
-162.113156
 30
0.0
  0
VERTEX
  5
B7D
100
AcDbEntity
  8
13
100
AcDbVertex
100
AcDb2dVertex
 10
-196.904002
 20
-162.167094
 30
0.0
  0
VERTEX
  5
B7E
100
AcDbEntity
  8
13
100
AcDbVertex
100
AcDb2dVertex
 10
-196.941417
 20
-162.221586
 30
0.0
  0
VERTEX
  5
B7F
100
AcDbEntity
  8
13
100
AcDbVertex
100
AcDb2dVertex
 10
-196.978028
 20
-162.276627
 30
0.0
  0
VERTEX
  5
B80
100
AcDbEntity
  8
13
100
AcDbVertex
100
AcDb2dVertex
 10
-197.029292
 20
-162.356818
 30
0.0
  0
VERTEX
  5
B81
100
AcDbEntity
  8
13
100
AcDbVertex
100
AcDb2dVertex
 10
-197.078803
 20
-162.438106
 30
0.0
  0
VERTEX
  5
B82
100
AcDbEntity
  8
13
100
AcDbVertex
100
AcDb2dVertex
 10
-197.126503
 20
-162.520463
 30
0.0
  0
VERTEX
  5
B83
100
AcDbEntity
  8
13
100
AcDbVertex
100
AcDb2dVertex
 10
-197.172336
 20
-162.603857
 30
0.0
  0
VERTEX
  5
B84
100
AcDbEntity
  8
13
100
AcDbVertex
100
AcDb2dVertex
 10
-197.216243
 20
-162.688259
 30
0.0
  0
VERTEX
  5
B85
100
AcDbEntity
  8
13
100
AcDbVertex
100
AcDb2dVertex
 10
-197.258167
 20
-162.773638
 30
0.0
  0
VERTEX
  5
B86
100
AcDbEntity
  8
13
100
AcDbVertex
100
AcDb2dVertex
 10
-197.288777
 20
-162.839386
 30
0.0
  0
VERTEX
  5
B87
100
AcDbEntity
  8
13
100
AcDbVertex
100
AcDb2dVertex
 10
-197.31821
 20
-162.905666
 30
0.0
  0
VERTEX
  5
B88
100
AcDbEntity
  8
13
100
AcDbVertex
100
AcDb2dVertex
 10
-197.346479
 20
-162.972458
 30
0.0
  0
VERTEX
  5
B89
100
AcDbEntity
  8
13
100
AcDbVertex
100
AcDb2dVertex
 10
-197.373595
 20
-163.039743
 30
0.0
  0
VERTEX
  5
B8A
100
AcDbEntity
  8
13
100
AcDbVertex
100
AcDb2dVertex
 10
-197.399568
 20
-163.107502
 30
0.0
  0
VERTEX
  5
B8B
100
AcDbEntity
  8
13
100
AcDbVertex
100
AcDb2dVertex
 10
-197.424409
 20
-163.175715
 30
0.0
  0
VERTEX
  5
B8C
100
AcDbEntity
  8
13
100
AcDbVertex
100
AcDb2dVertex
 10
-197.44776
 20
-163.243323
 30
0.0
  0
VERTEX
  5
B8D
100
AcDbEntity
  8
13
100
AcDbVertex
100
AcDb2dVertex
 10
-197.46991
 20
-163.311337
 30
0.0
  0
VERTEX
  5
B8E
100
AcDbEntity
  8
13
100
AcDbVertex
100
AcDb2dVertex
 10
-197.490748
 20
-163.37974
 30
0.0
  0
VERTEX
  5
B8F
100
AcDbEntity
  8
13
100
AcDbVertex
100
AcDb2dVertex
 10
-197.510159
 20
-163.448517
 30
0.0
  0
VERTEX
  5
B90
100
AcDbEntity
  8
13
100
AcDbVertex
100
AcDb2dVertex
 10
-197.528032
 20
-163.517652
 30
0.0
  0
VERTEX
  5
B91
100
AcDbEntity
  8
13
100
AcDbVertex
100
AcDb2dVertex
 10
-197.544251
 20
-163.587128
 30
0.0
  0
VERTEX
  5
B92
100
AcDbEntity
  8
13
100
AcDbVertex
100
AcDb2dVertex
 10
-197.562959
 20
-163.6789
 30
0.0
  0
VERTEX
  5
B93
100
AcDbEntity
  8
13
100
AcDbVertex
100
AcDb2dVertex
 10
-197.578958
 20
-163.771171
 30
0.0
  0
VERTEX
  5
B94
100
AcDbEntity
  8
13
100
AcDbVertex
100
AcDb2dVertex
 10
-197.592586
 20
-163.863879
 30
0.0
  0
VERTEX
  5
B95
100
AcDbEntity
  8
13
100
AcDbVertex
100
AcDb2dVertex
 10
-197.622632
 20
-164.143998
 30
0.0
  0
VERTEX
  5
B96
100
AcDbEntity
  8
13
100
AcDbVertex
100
AcDb2dVertex
 10
-197.630164
 20
-164.237829
 30
0.0
  0
VERTEX
  5
B97
100
AcDbEntity
  8
13
100
AcDbVertex
100
AcDb2dVertex
 10
-197.637019
 20
-164.331784
 30
0.0
  0
VERTEX
  5
B98
100
AcDbEntity
  8
13
100
AcDbVertex
100
AcDb2dVertex
 10
-197.643534
 20
-164.425802
 30
0.0
  0
SEQEND
  5
B99
100
AcDbEntity
  8
13
  0
ARC
  5
678
100
AcDbEntity
  8
13
100
AcDbCircle
 10
-171.577034
 20
-158.103777
 30
0.0
 40
0.5
100
AcDbArc
 50
334.454813
 51
94.06584
  0
ARC
  5
679
100
AcDbEntity
  8
13
100
AcDbCircle
 10
-174.272909
 20
-159.714608
 30
0.0
 40
0.5
100
AcDbArc
 50
275.048892
 51
330.186789
  0
ARC
  5
67A
100
AcDbEntity
  8
13
100
AcDbCircle
 10
-173.608859
 20
-158.555729
 30
0.0
 40
0.5
100
AcDbArc
 50
330.186789
 51
95.048887
  0
ARC
  5
67B
100
AcDbEntity
  8
13
100
AcDbCircle
 10
-172.377118
 20
-159.777789
 30
0.0
 40
0.5
100
AcDbArc
 50
275.851398
 51
334.454813
  0
ARC
  5
67C
100
AcDbEntity
  8
13
100
AcDbCircle
 10
-171.787041
 20
-143.016046
 30
0.0
 40
0.5
100
AcDbArc
 50
13.403796
 51
84.951114
  0
ARC
  5
67D
100
AcDbEntity
  8
13
100
AcDbCircle
 10
-171.519218
 20
-144.139919
 30
0.0
 40
0.5
100
AcDbArc
 50
264.951114
 51
13.403796
  0
ARC
  5
67E
100
AcDbEntity
  8
13
100
AcDbCircle
 10
-169.936862
 20
-144.523842
 30
0.0
 40
0.5
100
AcDbArc
 50
265.934161
 51
11.008403
  0
ARC
  5
67F
100
AcDbEntity
  8
13
100
AcDbCircle
 10
-170.242639
 20
-142.951991
 30
0.0
 40
0.5
100
AcDbArc
 50
11.008403
 51
84.148599
  0
ARC
  5
680
100
AcDbEntity
  8
13
100
AcDbCircle
 10
-206.942397
 20
-154.281556
 30
0.0
 40
13.637431
100
AcDbArc
 50
259.236902
 51
280.783484
  0
ARC
  5
681
100
AcDbEntity
  8
13
100
AcDbCircle
 10
-204.098911
 20
-160.370934
 30
0.0
 40
9.080957
100
AcDbArc
 50
233.588661
 51
264.508786
  0
ARC
  5
682
100
AcDbEntity
  8
13
100
AcDbCircle
 10
-179.758835
 20
-154.004601
 30
0.0
 40
13.909601
100
AcDbArc
 50
259.429762
 51
280.549851
  0
ARC
  5
683
100
AcDbEntity
  8
13
100
AcDbCircle
 10
-181.733385
 20
-162.640484
 30
0.0
 40
6.769733
100
AcDbArc
 50
270.0
 51
311.902552
  0
ARC
  5
684
100
AcDbEntity
  8
13
100
AcDbCircle
 10
-198.644908
 20
-166.677726
 30
0.0
 40
1.001374
100
AcDbArc
 50
266.997655
 51
359.999517
  0
ARC
  5
685
100
AcDbEntity
  8
13
100
AcDbCircle
 10
-203.828909
 20
-166.677726
 30
0.0
 40
1.0
100
AcDbArc
 50
269.999517
 51
359.999517
  0
LINE
  5
686
100
AcDbEntity
  8
13
100
AcDbLine
 10
-171.384174
 20
-142.549692
 30
0.0
 11
-170.245767
 21
-142.507932
 31
0.0
  0
LINE
  5
687
100
AcDbEntity
  8
13
100
AcDbLine
 10
-171.106595
 20
-144.643093
 30
0.0
 11
-169.932452
 21
-144.923126
 31
0.0
  0
LINE
  5
688
100
AcDbEntity
  8
13
100
AcDbLine
 10
-173.127263
 20
-158.068003
 30
0.0
 11
-171.463682
 21
-157.700559
 31
0.0
  0
LINE
  5
689
100
AcDbEntity
  8
13
100
AcDbLine
 10
-173.878044
 20
-160.192382
 30
0.0
 11
-172.388451
 21
-160.236471
 31
0.0
  0
LINE
  5
68A
100
AcDbEntity
  8
13
100
AcDbLine
 10
-192.174435
 20
-142.828706
 30
0.0
 11
-191.459996
 21
-142.880129
 31
0.0
  0
POLYLINE
  5
68B
100
AcDbEntity
  8
13
100
AcDb2dPolyline
 66
     1
 10
0.0
 20
0.0
 30
0.0
  0
VERTEX
  5
B9A
100
AcDbEntity
  8
13
100
AcDbVertex
100
AcDb2dVertex
 10
-195.318057
 20
-158.830751
 30
0.0
  0
VERTEX
  5
B9B
100
AcDbEntity
  8
13
100
AcDbVertex
100
AcDb2dVertex
 10
-195.318386
 20
-158.840948
 30
0.0
  0
VERTEX
  5
B9C
100
AcDbEntity
  8
13
100
AcDbVertex
100
AcDb2dVertex
 10
-195.318785
 20
-158.851156
 30
0.0
  0
VERTEX
  5
B9D
100
AcDbEntity
  8
13
100
AcDbVertex
100
AcDb2dVertex
 10
-195.31926
 20
-158.861375
 30
0.0
  0
VERTEX
  5
B9E
100
AcDbEntity
  8
13
100
AcDbVertex
100
AcDb2dVertex
 10
-195.319816
 20
-158.871606
 30
0.0
  0
VERTEX
  5
B9F
100
AcDbEntity
  8
13
100
AcDbVertex
100
AcDb2dVertex
 10
-195.320459
 20
-158.88185
 30
0.0
  0
VERTEX
  5
BA0
100
AcDbEntity
  8
13
100
AcDbVertex
100
AcDb2dVertex
 10
-195.322262
 20
-158.905028
 30
0.0
  0
VERTEX
  5
BA1
100
AcDbEntity
  8
13
100
AcDbVertex
100
AcDb2dVertex
 10
-195.324618
 20
-158.928202
 30
0.0
  0
VERTEX
  5
BA2
100
AcDbEntity
  8
13
100
AcDbVertex
100
AcDb2dVertex
 10
-195.327611
 20
-158.951299
 30
0.0
  0
VERTEX
  5
BA3
100
AcDbEntity
  8
13
100
AcDbVertex
100
AcDb2dVertex
 10
-195.34126
 20
-159.019383
 30
0.0
  0
VERTEX
  5
BA4
100
AcDbEntity
  8
13
100
AcDbVertex
100
AcDb2dVertex
 10
-195.347646
 20
-159.041428
 30
0.0
  0
VERTEX
  5
BA5
100
AcDbEntity
  8
13
100
AcDbVertex
100
AcDb2dVertex
 10
-195.35509
 20
-159.063025
 30
0.0
  0
VERTEX
  5
BA6
100
AcDbEntity
  8
13
100
AcDbVertex
100
AcDb2dVertex
 10
-195.363678
 20
-159.084099
 30
0.0
  0
VERTEX
  5
BA7
100
AcDbEntity
  8
13
100
AcDbVertex
100
AcDb2dVertex
 10
-195.383257
 20
-159.122689
 30
0.0
  0
VERTEX
  5
BA8
100
AcDbEntity
  8
13
100
AcDbVertex
100
AcDb2dVertex
 10
-195.406398
 20
-159.159545
 30
0.0
  0
VERTEX
  5
BA9
100
AcDbEntity
  8
13
100
AcDbVertex
100
AcDb2dVertex
 10
-195.43221
 20
-159.195102
 30
0.0
  0
VERTEX
  5
BAA
100
AcDbEntity
  8
13
100
AcDbVertex
100
AcDb2dVertex
 10
-195.459803
 20
-159.229792
 30
0.0
  0
VERTEX
  5
BAB
100
AcDbEntity
  8
13
100
AcDbVertex
100
AcDb2dVertex
 10
-195.488287
 20
-159.264048
 30
0.0
  0
SEQEND
  5
BAC
100
AcDbEntity
  8
13
  0
POLYLINE
  5
69F
100
AcDbEntity
  8
13
100
AcDb2dPolyline
 66
     1
 10
0.0
 20
0.0
 30
0.0
  0
VERTEX
  5
BAD
100
AcDbEntity
  8
13
100
AcDbVertex
100
AcDb2dVertex
 10
-195.319411
 20
-143.646718
 30
0.0
  0
VERTEX
  5
BAE
100
AcDbEntity
  8
13
100
AcDbVertex
100
AcDb2dVertex
 10
-195.319601
 20
-143.643213
 30
0.0
  0
VERTEX
  5
BAF
100
AcDbEntity
  8
13
100
AcDbVertex
100
AcDb2dVertex
 10
-195.3198
 20
-143.639706
 30
0.0
  0
VERTEX
  5
BB0
100
AcDbEntity
  8
13
100
AcDbVertex
100
AcDb2dVertex
 10
-195.320009
 20
-143.636198
 30
0.0
  0
VERTEX
  5
BB1
100
AcDbEntity
  8
13
100
AcDbVertex
100
AcDb2dVertex
 10
-195.320229
 20
-143.632688
 30
0.0
  0
VERTEX
  5
BB2
100
AcDbEntity
  8
13
100
AcDbVertex
100
AcDb2dVertex
 10
-195.320459
 20
-143.629177
 30
0.0
  0
VERTEX
  5
BB3
100
AcDbEntity
  8
13
100
AcDbVertex
100
AcDb2dVertex
 10
-195.323365
 20
-143.594407
 30
0.0
  0
VERTEX
  5
BB4
100
AcDbEntity
  8
13
100
AcDbVertex
100
AcDb2dVertex
 10
-195.327611
 20
-143.559728
 30
0.0
  0
VERTEX
  5
BB5
100
AcDbEntity
  8
13
100
AcDbVertex
100
AcDb2dVertex
 10
-195.333481
 20
-143.52539
 30
0.0
  0
VERTEX
  5
BB6
100
AcDbEntity
  8
13
100
AcDbVertex
100
AcDb2dVertex
 10
-195.34126
 20
-143.491644
 30
0.0
  0
VERTEX
  5
BB7
100
AcDbEntity
  8
13
100
AcDbVertex
100
AcDb2dVertex
 10
-195.351231
 20
-143.45874
 30
0.0
  0
VERTEX
  5
BB8
100
AcDbEntity
  8
13
100
AcDbVertex
100
AcDb2dVertex
 10
-195.363678
 20
-143.426928
 30
0.0
  0
VERTEX
  5
BB9
100
AcDbEntity
  8
13
100
AcDbVertex
100
AcDb2dVertex
 10
-195.388743
 20
-143.378978
 30
0.0
  0
VERTEX
  5
BBA
100
AcDbEntity
  8
13
100
AcDbVertex
100
AcDb2dVertex
 10
-195.419025
 20
-143.333568
 30
0.0
  0
VERTEX
  5
BBB
100
AcDbEntity
  8
13
100
AcDbVertex
100
AcDb2dVertex
 10
-195.452787
 20
-143.28985
 30
0.0
  0
VERTEX
  5
BBC
100
AcDbEntity
  8
13
100
AcDbVertex
100
AcDb2dVertex
 10
-195.488287
 20
-143.246979
 30
0.0
  0
SEQEND
  5
BBD
100
AcDbEntity
  8
13
  0
POLYLINE
  5
6B1
100
AcDbEntity
  8
13
100
AcDb2dPolyline
 66
     1
 10
0.0
 20
0.0
 30
0.0
  0
VERTEX
  5
BBE
100
AcDbEntity
  8
13
100
AcDbVertex
100
AcDb2dVertex
 10
-191.343931
 20
-136.405811
 30
0.0
  0
VERTEX
  5
BBF
100
AcDbEntity
  8
13
100
AcDbVertex
100
AcDb2dVertex
 10
-191.278469
 20
-136.478047
 30
0.0
  0
VERTEX
  5
BC0
100
AcDbEntity
  8
13
100
AcDbVertex
100
AcDb2dVertex
 10
-191.212858
 20
-136.550117
 30
0.0
  0
VERTEX
  5
BC1
100
AcDbEntity
  8
13
100
AcDbVertex
100
AcDb2dVertex
 10
-191.146952
 20
-136.621854
 30
0.0
  0
VERTEX
  5
BC2
100
AcDbEntity
  8
13
100
AcDbVertex
100
AcDb2dVertex
 10
-190.945985
 20
-136.833404
 30
0.0
  0
VERTEX
  5
BC3
100
AcDbEntity
  8
13
100
AcDbVertex
100
AcDb2dVertex
 10
-190.87742
 20
-136.902145
 30
0.0
  0
VERTEX
  5
BC4
100
AcDbEntity
  8
13
100
AcDbVertex
100
AcDb2dVertex
 10
-190.807822
 20
-136.969721
 30
0.0
  0
VERTEX
  5
BC5
100
AcDbEntity
  8
13
100
AcDbVertex
100
AcDb2dVertex
 10
-190.737041
 20
-137.035966
 30
0.0
  0
VERTEX
  5
BC6
100
AcDbEntity
  8
13
100
AcDbVertex
100
AcDb2dVertex
 10
-190.642003
 20
-137.120882
 30
0.0
  0
VERTEX
  5
BC7
100
AcDbEntity
  8
13
100
AcDbVertex
100
AcDb2dVertex
 10
-190.544887
 20
-137.203454
 30
0.0
  0
VERTEX
  5
BC8
100
AcDbEntity
  8
13
100
AcDbVertex
100
AcDb2dVertex
 10
-190.445915
 20
-137.283928
 30
0.0
  0
VERTEX
  5
BC9
100
AcDbEntity
  8
13
100
AcDbVertex
100
AcDb2dVertex
 10
-190.140081
 20
-137.515217
 30
0.0
  0
VERTEX
  5
BCA
100
AcDbEntity
  8
13
100
AcDbVertex
100
AcDb2dVertex
 10
-189.825525
 20
-137.736478
 30
0.0
  0
VERTEX
  5
BCB
100
AcDbEntity
  8
13
100
AcDbVertex
100
AcDb2dVertex
 10
-189.71977
 20
-137.809151
 30
0.0
  0
VERTEX
  5
BCC
100
AcDbEntity
  8
13
100
AcDbVertex
100
AcDb2dVertex
 10
-189.613932
 20
-137.881694
 30
0.0
  0
VERTEX
  5
BCD
100
AcDbEntity
  8
13
100
AcDbVertex
100
AcDb2dVertex
 10
-189.508233
 20
-137.954353
 30
0.0
  0
VERTEX
  5
BCE
100
AcDbEntity
  8
13
100
AcDbVertex
100
AcDb2dVertex
 10
-189.401751
 20
-138.028131
 30
0.0
  0
VERTEX
  5
BCF
100
AcDbEntity
  8
13
100
AcDbVertex
100
AcDb2dVertex
 10
-189.295711
 20
-138.102388
 30
0.0
  0
VERTEX
  5
BD0
100
AcDbEntity
  8
13
100
AcDbVertex
100
AcDb2dVertex
 10
-189.190191
 20
-138.177235
 30
0.0
  0
VERTEX
  5
BD1
100
AcDbEntity
  8
13
100
AcDbVertex
100
AcDb2dVertex
 10
-188.877485
 20
-138.406412
 30
0.0
  0
VERTEX
  5
BD2
100
AcDbEntity
  8
13
100
AcDbVertex
100
AcDb2dVertex
 10
-188.572135
 20
-138.644853
 30
0.0
  0
VERTEX
  5
BD3
100
AcDbEntity
  8
13
100
AcDbVertex
100
AcDb2dVertex
 10
-188.472335
 20
-138.726905
 30
0.0
  0
VERTEX
  5
BD4
100
AcDbEntity
  8
13
100
AcDbVertex
100
AcDb2dVertex
 10
-188.373652
 20
-138.810426
 30
0.0
  0
VERTEX
  5
BD5
100
AcDbEntity
  8
13
100
AcDbVertex
100
AcDb2dVertex
 10
-188.276159
 20
-138.895526
 30
0.0
  0
VERTEX
  5
BD6
100
AcDbEntity
  8
13
100
AcDbVertex
100
AcDb2dVertex
 10
-188.150358
 20
-139.00906
 30
0.0
  0
VERTEX
  5
BD7
100
AcDbEntity
  8
13
100
AcDbVertex
100
AcDb2dVertex
 10
-188.025518
 20
-139.123806
 30
0.0
  0
VERTEX
  5
BD8
100
AcDbEntity
  8
13
100
AcDbVertex
100
AcDb2dVertex
 10
-187.900438
 20
-139.23809
 30
0.0
  0
VERTEX
  5
BD9
100
AcDbEntity
  8
13
100
AcDbVertex
100
AcDb2dVertex
 10
-187.773915
 20
-139.350234
 30
0.0
  0
VERTEX
  5
BDA
100
AcDbEntity
  8
13
100
AcDbVertex
100
AcDb2dVertex
 10
-187.644747
 20
-139.458563
 30
0.0
  0
VERTEX
  5
BDB
100
AcDbEntity
  8
13
100
AcDbVertex
100
AcDb2dVertex
 10
-187.51173
 20
-139.561402
 30
0.0
  0
VERTEX
  5
BDC
100
AcDbEntity
  8
13
100
AcDbVertex
100
AcDb2dVertex
 10
-187.387918
 20
-139.648243
 30
0.0
  0
VERTEX
  5
BDD
100
AcDbEntity
  8
13
100
AcDbVertex
100
AcDb2dVertex
 10
-187.26055
 20
-139.730042
 30
0.0
  0
VERTEX
  5
BDE
100
AcDbEntity
  8
13
100
AcDbVertex
100
AcDb2dVertex
 10
-187.130165
 20
-139.807567
 30
0.0
  0
VERTEX
  5
BDF
100
AcDbEntity
  8
13
100
AcDbVertex
100
AcDb2dVertex
 10
-186.726306
 20
-140.022183
 30
0.0
  0
VERTEX
  5
BE0
100
AcDbEntity
  8
13
100
AcDbVertex
100
AcDb2dVertex
 10
-186.589248
 20
-140.090295
 30
0.0
  0
VERTEX
  5
BE1
100
AcDbEntity
  8
13
100
AcDbVertex
100
AcDb2dVertex
 10
-186.451869
 20
-140.157972
 30
0.0
  0
VERTEX
  5
BE2
100
AcDbEntity
  8
13
100
AcDbVertex
100
AcDb2dVertex
 10
-186.314709
 20
-140.225984
 30
0.0
  0
VERTEX
  5
BE3
100
AcDbEntity
  8
13
100
AcDbVertex
100
AcDb2dVertex
 10
-186.156116
 20
-140.306144
 30
0.0
  0
VERTEX
  5
BE4
100
AcDbEntity
  8
13
100
AcDbVertex
100
AcDb2dVertex
 10
-185.998219
 20
-140.387149
 30
0.0
  0
VERTEX
  5
BE5
100
AcDbEntity
  8
13
100
AcDbVertex
100
AcDb2dVertex
 10
-185.84069
 20
-140.468355
 30
0.0
  0
VERTEX
  5
BE6
100
AcDbEntity
  8
13
100
AcDbVertex
100
AcDb2dVertex
 10
-185.367042
 20
-140.70675
 30
0.0
  0
VERTEX
  5
BE7
100
AcDbEntity
  8
13
100
AcDbVertex
100
AcDb2dVertex
 10
-185.207715
 20
-140.782329
 30
0.0
  0
VERTEX
  5
BE8
100
AcDbEntity
  8
13
100
AcDbVertex
100
AcDb2dVertex
 10
-185.04712
 20
-140.854893
 30
0.0
  0
VERTEX
  5
BE9
100
AcDbEntity
  8
13
100
AcDbVertex
100
AcDb2dVertex
 10
-184.88493
 20
-140.923799
 30
0.0
  0
VERTEX
  5
BEA
100
AcDbEntity
  8
13
100
AcDbVertex
100
AcDb2dVertex
 10
-184.743233
 20
-140.980015
 30
0.0
  0
VERTEX
  5
BEB
100
AcDbEntity
  8
13
100
AcDbVertex
100
AcDb2dVertex
 10
-184.600207
 20
-141.033146
 30
0.0
  0
VERTEX
  5
BEC
100
AcDbEntity
  8
13
100
AcDbVertex
100
AcDb2dVertex
 10
-184.455959
 20
-141.083321
 30
0.0
  0
VERTEX
  5
BED
100
AcDbEntity
  8
13
100
AcDbVertex
100
AcDb2dVertex
 10
-184.016952
 20
-141.217408
 30
0.0
  0
VERTEX
  5
BEE
100
AcDbEntity
  8
13
100
AcDbVertex
100
AcDb2dVertex
 10
-183.5708
 20
-141.329557
 30
0.0
  0
VERTEX
  5
BEF
100
AcDbEntity
  8
13
100
AcDbVertex
100
AcDb2dVertex
 10
-183.420995
 20
-141.36267
 30
0.0
  0
VERTEX
  5
BF0
100
AcDbEntity
  8
13
100
AcDbVertex
100
AcDb2dVertex
 10
-183.270824
 20
-141.393863
 30
0.0
  0
VERTEX
  5
BF1
100
AcDbEntity
  8
13
100
AcDbVertex
100
AcDb2dVertex
 10
-183.120395
 20
-141.423267
 30
0.0
  0
VERTEX
  5
BF2
100
AcDbEntity
  8
13
100
AcDbVertex
100
AcDb2dVertex
 10
-182.906162
 20
-141.462291
 30
0.0
  0
VERTEX
  5
BF3
100
AcDbEntity
  8
13
100
AcDbVertex
100
AcDb2dVertex
 10
-182.691673
 20
-141.498516
 30
0.0
  0
VERTEX
  5
BF4
100
AcDbEntity
  8
13
100
AcDbVertex
100
AcDb2dVertex
 10
-182.476981
 20
-141.532503
 30
0.0
  0
VERTEX
  5
BF5
100
AcDbEntity
  8
13
100
AcDbVertex
100
AcDb2dVertex
 10
-182.262136
 20
-141.56481
 30
0.0
  0
VERTEX
  5
BF6
100
AcDbEntity
  8
13
100
AcDbVertex
100
AcDb2dVertex
 10
-182.047189
 20
-141.595997
 30
0.0
  0
VERTEX
  5
BF7
100
AcDbEntity
  8
13
100
AcDbVertex
100
AcDb2dVertex
 10
-181.83219
 20
-141.626625
 30
0.0
  0
SEQEND
  5
BF8
100
AcDbEntity
  8
13
  0
POLYLINE
  5
6ED
100
AcDbEntity
  8
13
100
AcDb2dPolyline
 66
     1
 10
0.0
 20
0.0
 30
0.0
  0
VERTEX
  5
BF9
100
AcDbEntity
  8
13
100
AcDbVertex
100
AcDb2dVertex
 10
-197.643534
 20
-138.08523
 30
0.0
  0
VERTEX
  5
BFA
100
AcDbEntity
  8
13
100
AcDbVertex
100
AcDb2dVertex
 10
-197.638464
 20
-138.155715
 30
0.0
  0
VERTEX
  5
BFB
100
AcDbEntity
  8
13
100
AcDbVertex
100
AcDb2dVertex
 10
-197.63326
 20
-138.226174
 30
0.0
  0
VERTEX
  5
BFC
100
AcDbEntity
  8
13
100
AcDbVertex
100
AcDb2dVertex
 10
-197.627786
 20
-138.296584
 30
0.0
  0
VERTEX
  5
BFD
100
AcDbEntity
  8
13
100
AcDbVertex
100
AcDb2dVertex
 10
-197.608409
 20
-138.507266
 30
0.0
  0
VERTEX
  5
BFE
100
AcDbEntity
  8
13
100
AcDbVertex
100
AcDb2dVertex
 10
-197.581773
 20
-138.716603
 30
0.0
  0
VERTEX
  5
BFF
100
AcDbEntity
  8
13
100
AcDbVertex
100
AcDb2dVertex
 10
-197.570653
 20
-138.785967
 30
0.0
  0
VERTEX
  5
C00
100
AcDbEntity
  8
13
100
AcDbVertex
100
AcDb2dVertex
 10
-197.55819
 20
-138.855082
 30
0.0
  0
VERTEX
  5
C01
100
AcDbEntity
  8
13
100
AcDbVertex
100
AcDb2dVertex
 10
-197.544248
 20
-138.923923
 30
0.0
  0
VERTEX
  5
C02
100
AcDbEntity
  8
13
100
AcDbVertex
100
AcDb2dVertex
 10
-197.528381
 20
-138.993905
 30
0.0
  0
VERTEX
  5
C03
100
AcDbEntity
  8
13
100
AcDbVertex
100
AcDb2dVertex
 10
-197.510885
 20
-139.063554
 30
0.0
  0
VERTEX
  5
C04
100
AcDbEntity
  8
13
100
AcDbVertex
100
AcDb2dVertex
 10
-197.491815
 20
-139.132853
 30
0.0
  0
VERTEX
  5
C05
100
AcDbEntity
  8
13
100
AcDbVertex
100
AcDb2dVertex
 10
-197.425693
 20
-139.338436
 30
0.0
  0
VERTEX
  5
C06
100
AcDbEntity
  8
13
100
AcDbVertex
100
AcDb2dVertex
 10
-197.347328
 20
-139.540131
 30
0.0
  0
VERTEX
  5
C07
100
AcDbEntity
  8
13
100
AcDbVertex
100
AcDb2dVertex
 10
-197.318736
 20
-139.606404
 30
0.0
  0
VERTEX
  5
C08
100
AcDbEntity
  8
13
100
AcDbVertex
100
AcDb2dVertex
 10
-197.288998
 20
-139.672166
 30
0.0
  0
VERTEX
  5
C09
100
AcDbEntity
  8
13
100
AcDbVertex
100
AcDb2dVertex
 10
-197.258167
 20
-139.737394
 30
0.0
  0
VERTEX
  5
C0A
100
AcDbEntity
  8
13
100
AcDbVertex
100
AcDb2dVertex
 10
-197.226235
 20
-139.802182
 30
0.0
  0
VERTEX
  5
C0B
100
AcDbEntity
  8
13
100
AcDbVertex
100
AcDb2dVertex
 10
-197.19327
 20
-139.866404
 30
0.0
  0
VERTEX
  5
C0C
100
AcDbEntity
  8
13
100
AcDbVertex
100
AcDb2dVertex
 10
-197.159282
 20
-139.93005
 30
0.0
  0
VERTEX
  5
C0D
100
AcDbEntity
  8
13
100
AcDbVertex
100
AcDb2dVertex
 10
-197.05128
 20
-140.117427
 30
0.0
  0
VERTEX
  5
C0E
100
AcDbEntity
  8
13
100
AcDbVertex
100
AcDb2dVertex
 10
-196.934423
 20
-140.299237
 30
0.0
  0
VERTEX
  5
C0F
100
AcDbEntity
  8
13
100
AcDbVertex
100
AcDb2dVertex
 10
-196.89355
 20
-140.358553
 30
0.0
  0
VERTEX
  5
C10
100
AcDbEntity
  8
13
100
AcDbVertex
100
AcDb2dVertex
 10
-196.851731
 20
-140.417208
 30
0.0
  0
VERTEX
  5
C11
100
AcDbEntity
  8
13
100
AcDbVertex
100
AcDb2dVertex
 10
-196.808978
 20
-140.475191
 30
0.0
  0
VERTEX
  5
C12
100
AcDbEntity
  8
13
100
AcDbVertex
100
AcDb2dVertex
 10
-196.762347
 20
-140.536303
 30
0.0
  0
VERTEX
  5
C13
100
AcDbEntity
  8
13
100
AcDbVertex
100
AcDb2dVertex
 10
-196.71469
 20
-140.596632
 30
0.0
  0
VERTEX
  5
C14
100
AcDbEntity
  8
13
100
AcDbVertex
100
AcDb2dVertex
 10
-196.666032
 20
-140.656173
 30
0.0
  0
VERTEX
  5
C15
100
AcDbEntity
  8
13
100
AcDbVertex
100
AcDb2dVertex
 10
-196.514326
 20
-140.830013
 30
0.0
  0
VERTEX
  5
C16
100
AcDbEntity
  8
13
100
AcDbVertex
100
AcDb2dVertex
 10
-196.354574
 20
-140.996564
 30
0.0
  0
VERTEX
  5
C17
100
AcDbEntity
  8
13
100
AcDbVertex
100
AcDb2dVertex
 10
-196.299659
 20
-141.050435
 30
0.0
  0
VERTEX
  5
C18
100
AcDbEntity
  8
13
100
AcDbVertex
100
AcDb2dVertex
 10
-196.243956
 20
-141.103475
 30
0.0
  0
VERTEX
  5
C19
100
AcDbEntity
  8
13
100
AcDbVertex
100
AcDb2dVertex
 10
-196.187491
 20
-141.155677
 30
0.0
  0
VERTEX
  5
C1A
100
AcDbEntity
  8
13
100
AcDbVertex
100
AcDb2dVertex
 10
-196.1382
 20
-141.200024
 30
0.0
  0
VERTEX
  5
C1B
100
AcDbEntity
  8
13
100
AcDbVertex
100
AcDb2dVertex
 10
-196.088374
 20
-141.243746
 30
0.0
  0
VERTEX
  5
C1C
100
AcDbEntity
  8
13
100
AcDbVertex
100
AcDb2dVertex
 10
-196.038025
 20
-141.286846
 30
0.0
  0
VERTEX
  5
C1D
100
AcDbEntity
  8
13
100
AcDbVertex
100
AcDb2dVertex
 10
-195.883952
 20
-141.412436
 30
0.0
  0
VERTEX
  5
C1E
100
AcDbEntity
  8
13
100
AcDbVertex
100
AcDb2dVertex
 10
-195.831624
 20
-141.453071
 30
0.0
  0
VERTEX
  5
C1F
100
AcDbEntity
  8
13
100
AcDbVertex
100
AcDb2dVertex
 10
-195.778831
 20
-141.493094
 30
0.0
  0
VERTEX
  5
C20
100
AcDbEntity
  8
13
100
AcDbVertex
100
AcDb2dVertex
 10
-195.725584
 20
-141.53251
 30
0.0
  0
VERTEX
  5
C21
100
AcDbEntity
  8
13
100
AcDbVertex
100
AcDb2dVertex
 10
-195.638389
 20
-141.595079
 30
0.0
  0
VERTEX
  5
C22
100
AcDbEntity
  8
13
100
AcDbVertex
100
AcDb2dVertex
 10
-195.550075
 20
-141.656069
 30
0.0
  0
VERTEX
  5
C23
100
AcDbEntity
  8
13
100
AcDbVertex
100
AcDb2dVertex
 10
-195.460685
 20
-141.715489
 30
0.0
  0
VERTEX
  5
C24
100
AcDbEntity
  8
13
100
AcDbVertex
100
AcDb2dVertex
 10
-195.370259
 20
-141.773351
 30
0.0
  0
VERTEX
  5
C25
100
AcDbEntity
  8
13
100
AcDbVertex
100
AcDb2dVertex
 10
-195.278841
 20
-141.829664
 30
0.0
  0
VERTEX
  5
C26
100
AcDbEntity
  8
13
100
AcDbVertex
100
AcDb2dVertex
 10
-195.186471
 20
-141.884439
 30
0.0
  0
VERTEX
  5
C27
100
AcDbEntity
  8
13
100
AcDbVertex
100
AcDb2dVertex
 10
-195.101151
 20
-141.933221
 30
0.0
  0
VERTEX
  5
C28
100
AcDbEntity
  8
13
100
AcDbVertex
100
AcDb2dVertex
 10
-195.015098
 20
-141.980726
 30
0.0
  0
VERTEX
  5
C29
100
AcDbEntity
  8
13
100
AcDbVertex
100
AcDb2dVertex
 10
-194.928339
 20
-142.026957
 30
0.0
  0
VERTEX
  5
C2A
100
AcDbEntity
  8
13
100
AcDbVertex
100
AcDb2dVertex
 10
-194.664112
 20
-142.158034
 30
0.0
  0
VERTEX
  5
C2B
100
AcDbEntity
  8
13
100
AcDbVertex
100
AcDb2dVertex
 10
-194.394546
 20
-142.27774
 30
0.0
  0
VERTEX
  5
C2C
100
AcDbEntity
  8
13
100
AcDbVertex
100
AcDb2dVertex
 10
-194.303634
 20
-142.315128
 30
0.0
  0
VERTEX
  5
C2D
100
AcDbEntity
  8
13
100
AcDbVertex
100
AcDb2dVertex
 10
-194.212241
 20
-142.351263
 30
0.0
  0
VERTEX
  5
C2E
100
AcDbEntity
  8
13
100
AcDbVertex
100
AcDb2dVertex
 10
-194.120395
 20
-142.386147
 30
0.0
  0
VERTEX
  5
C2F
100
AcDbEntity
  8
13
100
AcDbVertex
100
AcDb2dVertex
 10
-194.035779
 20
-142.417052
 30
0.0
  0
VERTEX
  5
C30
100
AcDbEntity
  8
13
100
AcDbVertex
100
AcDb2dVertex
 10
-193.95082
 20
-142.446944
 30
0.0
  0
VERTEX
  5
C31
100
AcDbEntity
  8
13
100
AcDbVertex
100
AcDb2dVertex
 10
-193.865531
 20
-142.47586
 30
0.0
  0
VERTEX
  5
C32
100
AcDbEntity
  8
13
100
AcDbVertex
100
AcDb2dVertex
 10
-193.779928
 20
-142.503837
 30
0.0
  0
VERTEX
  5
C33
100
AcDbEntity
  8
13
100
AcDbVertex
100
AcDb2dVertex
 10
-193.694023
 20
-142.530913
 30
0.0
  0
VERTEX
  5
C34
100
AcDbEntity
  8
13
100
AcDbVertex
100
AcDb2dVertex
 10
-193.607831
 20
-142.557123
 30
0.0
  0
VERTEX
  5
C35
100
AcDbEntity
  8
13
100
AcDbVertex
100
AcDb2dVertex
 10
-193.51706
 20
-142.583711
 30
0.0
  0
VERTEX
  5
C36
100
AcDbEntity
  8
13
100
AcDbVertex
100
AcDb2dVertex
 10
-193.425979
 20
-142.609218
 30
0.0
  0
VERTEX
  5
C37
100
AcDbEntity
  8
13
100
AcDbVertex
100
AcDb2dVertex
 10
-193.33458
 20
-142.633475
 30
0.0
  0
VERTEX
  5
C38
100
AcDbEntity
  8
13
100
AcDbVertex
100
AcDb2dVertex
 10
-193.242852
 20
-142.656315
 30
0.0
  0
VERTEX
  5
C39
100
AcDbEntity
  8
13
100
AcDbVertex
100
AcDb2dVertex
 10
-193.150788
 20
-142.677569
 30
0.0
  0
VERTEX
  5
C3A
100
AcDbEntity
  8
13
100
AcDbVertex
100
AcDb2dVertex
 10
-193.042932
 20
-142.700229
 30
0.0
  0
VERTEX
  5
C3B
100
AcDbEntity
  8
13
100
AcDbVertex
100
AcDb2dVertex
 10
-192.934658
 20
-142.720766
 30
0.0
  0
VERTEX
  5
C3C
100
AcDbEntity
  8
13
100
AcDbVertex
100
AcDb2dVertex
 10
-192.826017
 20
-142.739444
 30
0.0
  0
VERTEX
  5
C3D
100
AcDbEntity
  8
13
100
AcDbVertex
100
AcDb2dVertex
 10
-192.498417
 20
-142.786986
 30
0.0
  0
VERTEX
  5
C3E
100
AcDbEntity
  8
13
100
AcDbVertex
100
AcDb2dVertex
 10
-192.388834
 20
-142.800887
 30
0.0
  0
VERTEX
  5
C3F
100
AcDbEntity
  8
13
100
AcDbVertex
100
AcDb2dVertex
 10
-192.279145
 20
-142.814257
 30
0.0
  0
VERTEX
  5
C40
100
AcDbEntity
  8
13
100
AcDbVertex
100
AcDb2dVertex
 10
-192.169404
 20
-142.827361
 30
0.0
  0
SEQEND
  5
C41
100
AcDbEntity
  8
13
  0
POLYLINE
  5
737
100
AcDbEntity
  8
13
100
AcDb2dPolyline
 66
     1
 10
0.0
 20
0.0
 30
0.0
  0
VERTEX
  5
C42
100
AcDbEntity
  8
13
100
AcDbVertex
100
AcDb2dVertex
 10
-202.828909
 20
-138.420965
 30
0.0
  0
VERTEX
  5
C43
100
AcDbEntity
  8
13
100
AcDbVertex
100
AcDb2dVertex
 10
-202.82518
 20
-138.495956
 30
0.0
  0
VERTEX
  5
C44
100
AcDbEntity
  8
13
100
AcDbVertex
100
AcDb2dVertex
 10
-202.821205
 20
-138.570907
 30
0.0
  0
VERTEX
  5
C45
100
AcDbEntity
  8
13
100
AcDbVertex
100
AcDb2dVertex
 10
-202.816738
 20
-138.645781
 30
0.0
  0
VERTEX
  5
C46
100
AcDbEntity
  8
13
100
AcDbVertex
100
AcDb2dVertex
 10
-202.797932
 20
-138.869545
 30
0.0
  0
VERTEX
  5
C47
100
AcDbEntity
  8
13
100
AcDbVertex
100
AcDb2dVertex
 10
-202.789041
 20
-138.943718
 30
0.0
  0
VERTEX
  5
C48
100
AcDbEntity
  8
13
100
AcDbVertex
100
AcDb2dVertex
 10
-202.77843
 20
-139.017617
 30
0.0
  0
VERTEX
  5
C49
100
AcDbEntity
  8
13
100
AcDbVertex
100
AcDb2dVertex
 10
-202.765853
 20
-139.091205
 30
0.0
  0
VERTEX
  5
C4A
100
AcDbEntity
  8
13
100
AcDbVertex
100
AcDb2dVertex
 10
-202.750852
 20
-139.165684
 30
0.0
  0
VERTEX
  5
C4B
100
AcDbEntity
  8
13
100
AcDbVertex
100
AcDb2dVertex
 10
-202.733659
 20
-139.239765
 30
0.0
  0
VERTEX
  5
C4C
100
AcDbEntity
  8
13
100
AcDbVertex
100
AcDb2dVertex
 10
-202.714372
 20
-139.313412
 30
0.0
  0
VERTEX
  5
C4D
100
AcDbEntity
  8
13
100
AcDbVertex
100
AcDb2dVertex
 10
-202.644915
 20
-139.531393
 30
0.0
  0
VERTEX
  5
C4E
100
AcDbEntity
  8
13
100
AcDbVertex
100
AcDb2dVertex
 10
-202.61822
 20
-139.602949
 30
0.0
  0
VERTEX
  5
C4F
100
AcDbEntity
  8
13
100
AcDbVertex
100
AcDb2dVertex
 10
-202.589914
 20
-139.673893
 30
0.0
  0
VERTEX
  5
C50
100
AcDbEntity
  8
13
100
AcDbVertex
100
AcDb2dVertex
 10
-202.560094
 20
-139.744189
 30
0.0
  0
VERTEX
  5
C51
100
AcDbEntity
  8
13
100
AcDbVertex
100
AcDb2dVertex
 10
-202.527451
 20
-139.816826
 30
0.0
  0
VERTEX
  5
C52
100
AcDbEntity
  8
13
100
AcDbVertex
100
AcDb2dVertex
 10
-202.493291
 20
-139.888704
 30
0.0
  0
VERTEX
  5
C53
100
AcDbEntity
  8
13
100
AcDbVertex
100
AcDb2dVertex
 10
-202.457641
 20
-139.959805
 30
0.0
  0
VERTEX
  5
C54
100
AcDbEntity
  8
13
100
AcDbVertex
100
AcDb2dVertex
 10
-202.342005
 20
-140.168289
 30
0.0
  0
VERTEX
  5
C55
100
AcDbEntity
  8
13
100
AcDbVertex
100
AcDb2dVertex
 10
-202.300653
 20
-140.236123
 30
0.0
  0
VERTEX
  5
C56
100
AcDbEntity
  8
13
100
AcDbVertex
100
AcDb2dVertex
 10
-202.25794
 20
-140.3031
 30
0.0
  0
VERTEX
  5
C57
100
AcDbEntity
  8
13
100
AcDbVertex
100
AcDb2dVertex
 10
-202.213893
 20
-140.369204
 30
0.0
  0
VERTEX
  5
C58
100
AcDbEntity
  8
13
100
AcDbVertex
100
AcDb2dVertex
 10
-202.164832
 20
-140.439635
 30
0.0
  0
VERTEX
  5
C59
100
AcDbEntity
  8
13
100
AcDbVertex
100
AcDb2dVertex
 10
-202.114295
 20
-140.509025
 30
0.0
  0
VERTEX
  5
C5A
100
AcDbEntity
  8
13
100
AcDbVertex
100
AcDb2dVertex
 10
-202.062331
 20
-140.577372
 30
0.0
  0
VERTEX
  5
C5B
100
AcDbEntity
  8
13
100
AcDbVertex
100
AcDb2dVertex
 10
-201.898388
 20
-140.776135
 30
0.0
  0
VERTEX
  5
C5C
100
AcDbEntity
  8
13
100
AcDbVertex
100
AcDb2dVertex
 10
-201.841225
 20
-140.840289
 30
0.0
  0
VERTEX
  5
C5D
100
AcDbEntity
  8
13
100
AcDbVertex
100
AcDb2dVertex
 10
-201.782888
 20
-140.90339
 30
0.0
  0
VERTEX
  5
C5E
100
AcDbEntity
  8
13
100
AcDbVertex
100
AcDb2dVertex
 10
-201.723428
 20
-140.965435
 30
0.0
  0
VERTEX
  5
C5F
100
AcDbEntity
  8
13
100
AcDbVertex
100
AcDb2dVertex
 10
-201.643086
 20
-141.045928
 30
0.0
  0
VERTEX
  5
C60
100
AcDbEntity
  8
13
100
AcDbVertex
100
AcDb2dVertex
 10
-201.560938
 20
-141.124586
 30
0.0
  0
VERTEX
  5
C61
100
AcDbEntity
  8
13
100
AcDbVertex
100
AcDb2dVertex
 10
-201.477058
 20
-141.201427
 30
0.0
  0
VERTEX
  5
C62
100
AcDbEntity
  8
13
100
AcDbVertex
100
AcDb2dVertex
 10
-201.215748
 20
-141.421227
 30
0.0
  0
VERTEX
  5
C63
100
AcDbEntity
  8
13
100
AcDbVertex
100
AcDb2dVertex
 10
-200.941468
 20
-141.62532
 30
0.0
  0
VERTEX
  5
C64
100
AcDbEntity
  8
13
100
AcDbVertex
100
AcDb2dVertex
 10
-200.656187
 20
-141.814187
 30
0.0
  0
VERTEX
  5
C65
100
AcDbEntity
  8
13
100
AcDbVertex
100
AcDb2dVertex
 10
-200.558988
 20
-141.873844
 30
0.0
  0
VERTEX
  5
C66
100
AcDbEntity
  8
13
100
AcDbVertex
100
AcDb2dVertex
 10
-200.460859
 20
-141.93188
 30
0.0
  0
VERTEX
  5
C67
100
AcDbEntity
  8
13
100
AcDbVertex
100
AcDb2dVertex
 10
-200.361872
 20
-141.988314
 30
0.0
  0
VERTEX
  5
C68
100
AcDbEntity
  8
13
100
AcDbVertex
100
AcDb2dVertex
 10
-200.269887
 20
-142.038944
 30
0.0
  0
VERTEX
  5
C69
100
AcDbEntity
  8
13
100
AcDbVertex
100
AcDb2dVertex
 10
-200.177243
 20
-142.088204
 30
0.0
  0
VERTEX
  5
C6A
100
AcDbEntity
  8
13
100
AcDbVertex
100
AcDb2dVertex
 10
-200.083947
 20
-142.136074
 30
0.0
  0
VERTEX
  5
C6B
100
AcDbEntity
  8
13
100
AcDbVertex
100
AcDb2dVertex
 10
-199.800224
 20
-142.271119
 30
0.0
  0
VERTEX
  5
C6C
100
AcDbEntity
  8
13
100
AcDbVertex
100
AcDb2dVertex
 10
-199.704398
 20
-142.313206
 30
0.0
  0
VERTEX
  5
C6D
100
AcDbEntity
  8
13
100
AcDbVertex
100
AcDb2dVertex
 10
-199.607959
 20
-142.353793
 30
0.0
  0
VERTEX
  5
C6E
100
AcDbEntity
  8
13
100
AcDbVertex
100
AcDb2dVertex
 10
-199.510915
 20
-142.392857
 30
0.0
  0
VERTEX
  5
C6F
100
AcDbEntity
  8
13
100
AcDbVertex
100
AcDb2dVertex
 10
-199.406608
 20
-142.432917
 30
0.0
  0
VERTEX
  5
C70
100
AcDbEntity
  8
13
100
AcDbVertex
100
AcDb2dVertex
 10
-199.301701
 20
-142.471424
 30
0.0
  0
VERTEX
  5
C71
100
AcDbEntity
  8
13
100
AcDbVertex
100
AcDb2dVertex
 10
-199.196275
 20
-142.508585
 30
0.0
  0
VERTEX
  5
C72
100
AcDbEntity
  8
13
100
AcDbVertex
100
AcDb2dVertex
 10
-198.877703
 20
-142.614079
 30
0.0
  0
VERTEX
  5
C73
100
AcDbEntity
  8
13
100
AcDbVertex
100
AcDb2dVertex
 10
-198.771018
 20
-142.647941
 30
0.0
  0
VERTEX
  5
C74
100
AcDbEntity
  8
13
100
AcDbVertex
100
AcDb2dVertex
 10
-198.664223
 20
-142.681499
 30
0.0
  0
VERTEX
  5
C75
100
AcDbEntity
  8
13
100
AcDbVertex
100
AcDb2dVertex
 10
-198.557399
 20
-142.714962
 30
0.0
  0
VERTEX
  5
C76
100
AcDbEntity
  8
13
100
AcDbVertex
100
AcDb2dVertex
 10
-198.461846
 20
-142.744937
 30
0.0
  0
VERTEX
  5
C77
100
AcDbEntity
  8
13
100
AcDbVertex
100
AcDb2dVertex
 10
-198.366286
 20
-142.774833
 30
0.0
  0
VERTEX
  5
C78
100
AcDbEntity
  8
13
100
AcDbVertex
100
AcDb2dVertex
 10
-198.27067
 20
-142.804477
 30
0.0
  0
VERTEX
  5
C79
100
AcDbEntity
  8
13
100
AcDbVertex
100
AcDb2dVertex
 10
-197.982996
 20
-142.8902
 30
0.0
  0
VERTEX
  5
C7A
100
AcDbEntity
  8
13
100
AcDbVertex
100
AcDb2dVertex
 10
-197.886666
 20
-142.917136
 30
0.0
  0
VERTEX
  5
C7B
100
AcDbEntity
  8
13
100
AcDbVertex
100
AcDb2dVertex
 10
-197.790036
 20
-142.942969
 30
0.0
  0
VERTEX
  5
C7C
100
AcDbEntity
  8
13
100
AcDbVertex
100
AcDb2dVertex
 10
-197.693056
 20
-142.967529
 30
0.0
  0
VERTEX
  5
C7D
100
AcDbEntity
  8
13
100
AcDbVertex
100
AcDb2dVertex
 10
-197.55343
 20
-143.000228
 30
0.0
  0
VERTEX
  5
C7E
100
AcDbEntity
  8
13
100
AcDbVertex
100
AcDb2dVertex
 10
-197.413076
 20
-143.029879
 30
0.0
  0
VERTEX
  5
C7F
100
AcDbEntity
  8
13
100
AcDbVertex
100
AcDb2dVertex
 10
-197.272081
 20
-143.056397
 30
0.0
  0
VERTEX
  5
C80
100
AcDbEntity
  8
13
100
AcDbVertex
100
AcDb2dVertex
 10
-197.130536
 20
-143.079698
 30
0.0
  0
SEQEND
  5
C81
100
AcDbEntity
  8
13
  0
POLYLINE
  5
778
100
AcDbEntity
  8
13
100
AcDb2dPolyline
 66
     1
 10
0.0
 20
0.0
 30
0.0
  0
VERTEX
  5
C82
100
AcDbEntity
  8
13
100
AcDbVertex
100
AcDb2dVertex
 10
-187.775985
 20
-158.753963
 30
0.0
  0
VERTEX
  5
C83
100
AcDbEntity
  8
13
100
AcDbVertex
100
AcDb2dVertex
 10
-187.878076
 20
-158.758044
 30
0.0
  0
VERTEX
  5
C84
100
AcDbEntity
  8
13
100
AcDbVertex
100
AcDb2dVertex
 10
-187.980164
 20
-158.762141
 30
0.0
  0
VERTEX
  5
C85
100
AcDbEntity
  8
13
100
AcDbVertex
100
AcDb2dVertex
 10
-188.082249
 20
-158.766271
 30
0.0
  0
VERTEX
  5
C86
100
AcDbEntity
  8
13
100
AcDbVertex
100
AcDb2dVertex
 10
-188.388468
 20
-158.779025
 30
0.0
  0
VERTEX
  5
C87
100
AcDbEntity
  8
13
100
AcDbVertex
100
AcDb2dVertex
 10
-188.694597
 20
-158.792669
 30
0.0
  0
VERTEX
  5
C88
100
AcDbEntity
  8
13
100
AcDbVertex
100
AcDb2dVertex
 10
-189.000589
 20
-158.80765
 30
0.0
  0
VERTEX
  5
C89
100
AcDbEntity
  8
13
100
AcDbVertex
100
AcDb2dVertex
 10
-189.3064
 20
-158.824413
 30
0.0
  0
VERTEX
  5
C8A
100
AcDbEntity
  8
13
100
AcDbVertex
100
AcDb2dVertex
 10
-189.611985
 20
-158.843403
 30
0.0
  0
VERTEX
  5
C8B
100
AcDbEntity
  8
13
100
AcDbVertex
100
AcDb2dVertex
 10
-189.917298
 20
-158.865066
 30
0.0
  0
VERTEX
  5
C8C
100
AcDbEntity
  8
13
100
AcDbVertex
100
AcDb2dVertex
 10
-190.222294
 20
-158.889847
 30
0.0
  0
VERTEX
  5
C8D
100
AcDbEntity
  8
13
100
AcDbVertex
100
AcDb2dVertex
 10
-190.526928
 20
-158.918192
 30
0.0
  0
VERTEX
  5
C8E
100
AcDbEntity
  8
13
100
AcDbVertex
100
AcDb2dVertex
 10
-190.831154
 20
-158.950546
 30
0.0
  0
VERTEX
  5
C8F
100
AcDbEntity
  8
13
100
AcDbVertex
100
AcDb2dVertex
 10
-190.932464
 20
-158.962299
 30
0.0
  0
VERTEX
  5
C90
100
AcDbEntity
  8
13
100
AcDbVertex
100
AcDb2dVertex
 10
-191.033723
 20
-158.974563
 30
0.0
  0
VERTEX
  5
C91
100
AcDbEntity
  8
13
100
AcDbVertex
100
AcDb2dVertex
 10
-191.134927
 20
-158.987355
 30
0.0
  0
VERTEX
  5
C92
100
AcDbEntity
  8
13
100
AcDbVertex
100
AcDb2dVertex
 10
-191.199222
 20
-158.99575
 30
0.0
  0
VERTEX
  5
C93
100
AcDbEntity
  8
13
100
AcDbVertex
100
AcDb2dVertex
 10
-191.263506
 20
-159.004265
 30
0.0
  0
VERTEX
  5
C94
100
AcDbEntity
  8
13
100
AcDbVertex
100
AcDb2dVertex
 10
-191.32779
 20
-159.0128
 30
0.0
  0
VERTEX
  5
C95
100
AcDbEntity
  8
13
100
AcDbVertex
100
AcDb2dVertex
 10
-191.392087
 20
-159.021255
 30
0.0
  0
VERTEX
  5
C96
100
AcDbEntity
  8
13
100
AcDbVertex
100
AcDb2dVertex
 10
-191.456407
 20
-159.029531
 30
0.0
  0
VERTEX
  5
C97
100
AcDbEntity
  8
13
100
AcDbVertex
100
AcDb2dVertex
 10
-191.520761
 20
-159.037527
 30
0.0
  0
VERTEX
  5
C98
100
AcDbEntity
  8
13
100
AcDbVertex
100
AcDb2dVertex
 10
-191.588936
 20
-159.0456
 30
0.0
  0
VERTEX
  5
C99
100
AcDbEntity
  8
13
100
AcDbVertex
100
AcDb2dVertex
 10
-191.657159
 20
-159.053268
 30
0.0
  0
VERTEX
  5
C9A
100
AcDbEntity
  8
13
100
AcDbVertex
100
AcDb2dVertex
 10
-191.725424
 20
-159.06055
 30
0.0
  0
VERTEX
  5
C9B
100
AcDbEntity
  8
13
100
AcDbVertex
100
AcDb2dVertex
 10
-191.793727
 20
-159.067467
 30
0.0
  0
VERTEX
  5
C9C
100
AcDbEntity
  8
13
100
AcDbVertex
100
AcDb2dVertex
 10
-191.862064
 20
-159.074039
 30
0.0
  0
VERTEX
  5
C9D
100
AcDbEntity
  8
13
100
AcDbVertex
100
AcDb2dVertex
 10
-191.930429
 20
-159.080284
 30
0.0
  0
VERTEX
  5
C9E
100
AcDbEntity
  8
13
100
AcDbVertex
100
AcDb2dVertex
 10
-192.01474
 20
-159.087577
 30
0.0
  0
VERTEX
  5
C9F
100
AcDbEntity
  8
13
100
AcDbVertex
100
AcDb2dVertex
 10
-192.099079
 20
-159.09452
 30
0.0
  0
VERTEX
  5
CA0
100
AcDbEntity
  8
13
100
AcDbVertex
100
AcDb2dVertex
 10
-192.183439
 20
-159.101228
 30
0.0
  0
VERTEX
  5
CA1
100
AcDbEntity
  8
13
100
AcDbVertex
100
AcDb2dVertex
 10
-192.267811
 20
-159.107816
 30
0.0
  0
VERTEX
  5
CA2
100
AcDbEntity
  8
13
100
AcDbVertex
100
AcDb2dVertex
 10
-192.352187
 20
-159.114399
 30
0.0
  0
VERTEX
  5
CA3
100
AcDbEntity
  8
13
100
AcDbVertex
100
AcDb2dVertex
 10
-192.464499
 20
-159.1233
 30
0.0
  0
VERTEX
  5
CA4
100
AcDbEntity
  8
13
100
AcDbVertex
100
AcDb2dVertex
 10
-192.576805
 20
-159.132355
 30
0.0
  0
VERTEX
  5
CA5
100
AcDbEntity
  8
13
100
AcDbVertex
100
AcDb2dVertex
 10
-192.689108
 20
-159.141521
 30
0.0
  0
VERTEX
  5
CA6
100
AcDbEntity
  8
13
100
AcDbVertex
100
AcDb2dVertex
 10
-193.026018
 20
-159.169279
 30
0.0
  0
VERTEX
  5
CA7
100
AcDbEntity
  8
13
100
AcDbVertex
100
AcDb2dVertex
 10
-193.362965
 20
-159.19655
 30
0.0
  0
VERTEX
  5
CA8
100
AcDbEntity
  8
13
100
AcDbVertex
100
AcDb2dVertex
 10
-193.7
 20
-159.222216
 30
0.0
  0
VERTEX
  5
CA9
100
AcDbEntity
  8
13
100
AcDbVertex
100
AcDb2dVertex
 10
-194.037172
 20
-159.245156
 30
0.0
  0
VERTEX
  5
CAA
100
AcDbEntity
  8
13
100
AcDbVertex
100
AcDb2dVertex
 10
-194.374532
 20
-159.26425
 30
0.0
  0
VERTEX
  5
CAB
100
AcDbEntity
  8
13
100
AcDbVertex
100
AcDb2dVertex
 10
-194.487036
 20
-159.269566
 30
0.0
  0
VERTEX
  5
CAC
100
AcDbEntity
  8
13
100
AcDbVertex
100
AcDb2dVertex
 10
-194.599567
 20
-159.274289
 30
0.0
  0
VERTEX
  5
CAD
100
AcDbEntity
  8
13
100
AcDbVertex
100
AcDb2dVertex
 10
-194.712129
 20
-159.278377
 30
0.0
  0
VERTEX
  5
CAE
100
AcDbEntity
  8
13
100
AcDbVertex
100
AcDb2dVertex
 10
-194.792043
 20
-159.28087
 30
0.0
  0
VERTEX
  5
CAF
100
AcDbEntity
  8
13
100
AcDbVertex
100
AcDb2dVertex
 10
-194.87197
 20
-159.283003
 30
0.0
  0
VERTEX
  5
CB0
100
AcDbEntity
  8
13
100
AcDbVertex
100
AcDb2dVertex
 10
-194.95191
 20
-159.284756
 30
0.0
  0
VERTEX
  5
CB1
100
AcDbEntity
  8
13
100
AcDbVertex
100
AcDb2dVertex
 10
-195.031859
 20
-159.286111
 30
0.0
  0
VERTEX
  5
CB2
100
AcDbEntity
  8
13
100
AcDbVertex
100
AcDb2dVertex
 10
-195.111817
 20
-159.287047
 30
0.0
  0
VERTEX
  5
CB3
100
AcDbEntity
  8
13
100
AcDbVertex
100
AcDb2dVertex
 10
-195.188994
 20
-159.287579
 30
0.0
  0
VERTEX
  5
CB4
100
AcDbEntity
  8
13
100
AcDbVertex
100
AcDb2dVertex
 10
-195.266171
 20
-159.287947
 30
0.0
  0
VERTEX
  5
CB5
100
AcDbEntity
  8
13
100
AcDbVertex
100
AcDb2dVertex
 10
-195.343343
 20
-159.288393
 30
0.0
  0
VERTEX
  5
CB6
100
AcDbEntity
  8
13
100
AcDbVertex
100
AcDb2dVertex
 10
-195.420505
 20
-159.28916
 30
0.0
  0
VERTEX
  5
CB7
100
AcDbEntity
  8
13
100
AcDbVertex
100
AcDb2dVertex
 10
-195.497651
 20
-159.290492
 30
0.0
  0
VERTEX
  5
CB8
100
AcDbEntity
  8
13
100
AcDbVertex
100
AcDb2dVertex
 10
-195.651541
 20
-159.295418
 30
0.0
  0
VERTEX
  5
CB9
100
AcDbEntity
  8
13
100
AcDbVertex
100
AcDb2dVertex
 10
-195.805337
 20
-159.303167
 30
0.0
  0
VERTEX
  5
CBA
100
AcDbEntity
  8
13
100
AcDbVertex
100
AcDb2dVertex
 10
-195.959032
 20
-159.313347
 30
0.0
  0
VERTEX
  5
CBB
100
AcDbEntity
  8
13
100
AcDbVertex
100
AcDb2dVertex
 10
-196.112618
 20
-159.325564
 30
0.0
  0
VERTEX
  5
CBC
100
AcDbEntity
  8
13
100
AcDbVertex
100
AcDb2dVertex
 10
-196.266085
 20
-159.339427
 30
0.0
  0
VERTEX
  5
CBD
100
AcDbEntity
  8
13
100
AcDbVertex
100
AcDb2dVertex
 10
-196.419425
 20
-159.354541
 30
0.0
  0
VERTEX
  5
CBE
100
AcDbEntity
  8
13
100
AcDbVertex
100
AcDb2dVertex
 10
-196.559549
 20
-159.369152
 30
0.0
  0
VERTEX
  5
CBF
100
AcDbEntity
  8
13
100
AcDbVertex
100
AcDb2dVertex
 10
-196.699582
 20
-159.384338
 30
0.0
  0
VERTEX
  5
CC0
100
AcDbEntity
  8
13
100
AcDbVertex
100
AcDb2dVertex
 10
-196.839547
 20
-159.399955
 30
0.0
  0
VERTEX
  5
CC1
100
AcDbEntity
  8
13
100
AcDbVertex
100
AcDb2dVertex
 10
-196.979467
 20
-159.415859
 30
0.0
  0
VERTEX
  5
CC2
100
AcDbEntity
  8
13
100
AcDbVertex
100
AcDb2dVertex
 10
-197.119364
 20
-159.431907
 30
0.0
  0
SEQEND
  5
CC3
100
AcDbEntity
  8
13
  0
POLYLINE
  5
7BB
100
AcDbEntity
  8
13
100
AcDb2dPolyline
 66
     1
 10
0.0
 20
0.0
 30
0.0
  0
VERTEX
  5
CC4
100
AcDbEntity
  8
13
100
AcDbVertex
100
AcDb2dVertex
 10
-187.775985
 20
-143.757069
 30
0.0
  0
VERTEX
  5
CC5
100
AcDbEntity
  8
13
100
AcDbVertex
100
AcDb2dVertex
 10
-187.878076
 20
-143.752988
 30
0.0
  0
VERTEX
  5
CC6
100
AcDbEntity
  8
13
100
AcDbVertex
100
AcDb2dVertex
 10
-187.980164
 20
-143.748891
 30
0.0
  0
VERTEX
  5
CC7
100
AcDbEntity
  8
13
100
AcDbVertex
100
AcDb2dVertex
 10
-188.082249
 20
-143.744761
 30
0.0
  0
VERTEX
  5
CC8
100
AcDbEntity
  8
13
100
AcDbVertex
100
AcDb2dVertex
 10
-188.388468
 20
-143.732007
 30
0.0
  0
VERTEX
  5
CC9
100
AcDbEntity
  8
13
100
AcDbVertex
100
AcDb2dVertex
 10
-188.694597
 20
-143.718363
 30
0.0
  0
VERTEX
  5
CCA
100
AcDbEntity
  8
13
100
AcDbVertex
100
AcDb2dVertex
 10
-189.000589
 20
-143.703382
 30
0.0
  0
VERTEX
  5
CCB
100
AcDbEntity
  8
13
100
AcDbVertex
100
AcDb2dVertex
 10
-189.3064
 20
-143.686619
 30
0.0
  0
VERTEX
  5
CCC
100
AcDbEntity
  8
13
100
AcDbVertex
100
AcDb2dVertex
 10
-189.611985
 20
-143.667629
 30
0.0
  0
VERTEX
  5
CCD
100
AcDbEntity
  8
13
100
AcDbVertex
100
AcDb2dVertex
 10
-189.917298
 20
-143.645966
 30
0.0
  0
VERTEX
  5
CCE
100
AcDbEntity
  8
13
100
AcDbVertex
100
AcDb2dVertex
 10
-190.222294
 20
-143.621185
 30
0.0
  0
VERTEX
  5
CCF
100
AcDbEntity
  8
13
100
AcDbVertex
100
AcDb2dVertex
 10
-190.526928
 20
-143.59284
 30
0.0
  0
VERTEX
  5
CD0
100
AcDbEntity
  8
13
100
AcDbVertex
100
AcDb2dVertex
 10
-190.831154
 20
-143.560486
 30
0.0
  0
VERTEX
  5
CD1
100
AcDbEntity
  8
13
100
AcDbVertex
100
AcDb2dVertex
 10
-190.932464
 20
-143.548733
 30
0.0
  0
VERTEX
  5
CD2
100
AcDbEntity
  8
13
100
AcDbVertex
100
AcDb2dVertex
 10
-191.033723
 20
-143.536469
 30
0.0
  0
VERTEX
  5
CD3
100
AcDbEntity
  8
13
100
AcDbVertex
100
AcDb2dVertex
 10
-191.134927
 20
-143.523677
 30
0.0
  0
VERTEX
  5
CD4
100
AcDbEntity
  8
13
100
AcDbVertex
100
AcDb2dVertex
 10
-191.199222
 20
-143.515282
 30
0.0
  0
VERTEX
  5
CD5
100
AcDbEntity
  8
13
100
AcDbVertex
100
AcDb2dVertex
 10
-191.263506
 20
-143.506767
 30
0.0
  0
VERTEX
  5
CD6
100
AcDbEntity
  8
13
100
AcDbVertex
100
AcDb2dVertex
 10
-191.32779
 20
-143.498232
 30
0.0
  0
VERTEX
  5
CD7
100
AcDbEntity
  8
13
100
AcDbVertex
100
AcDb2dVertex
 10
-191.392087
 20
-143.489777
 30
0.0
  0
VERTEX
  5
CD8
100
AcDbEntity
  8
13
100
AcDbVertex
100
AcDb2dVertex
 10
-191.456407
 20
-143.481501
 30
0.0
  0
VERTEX
  5
CD9
100
AcDbEntity
  8
13
100
AcDbVertex
100
AcDb2dVertex
 10
-191.520761
 20
-143.473505
 30
0.0
  0
VERTEX
  5
CDA
100
AcDbEntity
  8
13
100
AcDbVertex
100
AcDb2dVertex
 10
-191.588936
 20
-143.465432
 30
0.0
  0
VERTEX
  5
CDB
100
AcDbEntity
  8
13
100
AcDbVertex
100
AcDb2dVertex
 10
-191.657159
 20
-143.457764
 30
0.0
  0
VERTEX
  5
CDC
100
AcDbEntity
  8
13
100
AcDbVertex
100
AcDb2dVertex
 10
-191.725424
 20
-143.450482
 30
0.0
  0
VERTEX
  5
CDD
100
AcDbEntity
  8
13
100
AcDbVertex
100
AcDb2dVertex
 10
-191.793727
 20
-143.443565
 30
0.0
  0
VERTEX
  5
CDE
100
AcDbEntity
  8
13
100
AcDbVertex
100
AcDb2dVertex
 10
-191.862064
 20
-143.436993
 30
0.0
  0
VERTEX
  5
CDF
100
AcDbEntity
  8
13
100
AcDbVertex
100
AcDb2dVertex
 10
-191.930429
 20
-143.430748
 30
0.0
  0
VERTEX
  5
CE0
100
AcDbEntity
  8
13
100
AcDbVertex
100
AcDb2dVertex
 10
-192.01474
 20
-143.423455
 30
0.0
  0
VERTEX
  5
CE1
100
AcDbEntity
  8
13
100
AcDbVertex
100
AcDb2dVertex
 10
-192.099079
 20
-143.416512
 30
0.0
  0
VERTEX
  5
CE2
100
AcDbEntity
  8
13
100
AcDbVertex
100
AcDb2dVertex
 10
-192.183439
 20
-143.409804
 30
0.0
  0
VERTEX
  5
CE3
100
AcDbEntity
  8
13
100
AcDbVertex
100
AcDb2dVertex
 10
-192.267811
 20
-143.403216
 30
0.0
  0
VERTEX
  5
CE4
100
AcDbEntity
  8
13
100
AcDbVertex
100
AcDb2dVertex
 10
-192.352187
 20
-143.396633
 30
0.0
  0
VERTEX
  5
CE5
100
AcDbEntity
  8
13
100
AcDbVertex
100
AcDb2dVertex
 10
-192.464499
 20
-143.387732
 30
0.0
  0
VERTEX
  5
CE6
100
AcDbEntity
  8
13
100
AcDbVertex
100
AcDb2dVertex
 10
-192.576805
 20
-143.378677
 30
0.0
  0
VERTEX
  5
CE7
100
AcDbEntity
  8
13
100
AcDbVertex
100
AcDb2dVertex
 10
-192.689108
 20
-143.369511
 30
0.0
  0
VERTEX
  5
CE8
100
AcDbEntity
  8
13
100
AcDbVertex
100
AcDb2dVertex
 10
-193.026018
 20
-143.341753
 30
0.0
  0
VERTEX
  5
CE9
100
AcDbEntity
  8
13
100
AcDbVertex
100
AcDb2dVertex
 10
-193.362965
 20
-143.314482
 30
0.0
  0
VERTEX
  5
CEA
100
AcDbEntity
  8
13
100
AcDbVertex
100
AcDb2dVertex
 10
-193.7
 20
-143.288816
 30
0.0
  0
VERTEX
  5
CEB
100
AcDbEntity
  8
13
100
AcDbVertex
100
AcDb2dVertex
 10
-194.037172
 20
-143.265876
 30
0.0
  0
VERTEX
  5
CEC
100
AcDbEntity
  8
13
100
AcDbVertex
100
AcDb2dVertex
 10
-194.374532
 20
-143.246782
 30
0.0
  0
VERTEX
  5
CED
100
AcDbEntity
  8
13
100
AcDbVertex
100
AcDb2dVertex
 10
-194.487036
 20
-143.241466
 30
0.0
  0
VERTEX
  5
CEE
100
AcDbEntity
  8
13
100
AcDbVertex
100
AcDb2dVertex
 10
-194.599567
 20
-143.236743
 30
0.0
  0
VERTEX
  5
CEF
100
AcDbEntity
  8
13
100
AcDbVertex
100
AcDb2dVertex
 10
-194.712129
 20
-143.232655
 30
0.0
  0
VERTEX
  5
CF0
100
AcDbEntity
  8
13
100
AcDbVertex
100
AcDb2dVertex
 10
-194.792043
 20
-143.230162
 30
0.0
  0
VERTEX
  5
CF1
100
AcDbEntity
  8
13
100
AcDbVertex
100
AcDb2dVertex
 10
-194.87197
 20
-143.228029
 30
0.0
  0
VERTEX
  5
CF2
100
AcDbEntity
  8
13
100
AcDbVertex
100
AcDb2dVertex
 10
-194.95191
 20
-143.226276
 30
0.0
  0
VERTEX
  5
CF3
100
AcDbEntity
  8
13
100
AcDbVertex
100
AcDb2dVertex
 10
-195.031859
 20
-143.224921
 30
0.0
  0
VERTEX
  5
CF4
100
AcDbEntity
  8
13
100
AcDbVertex
100
AcDb2dVertex
 10
-195.111817
 20
-143.223985
 30
0.0
  0
VERTEX
  5
CF5
100
AcDbEntity
  8
13
100
AcDbVertex
100
AcDb2dVertex
 10
-195.188994
 20
-143.223453
 30
0.0
  0
VERTEX
  5
CF6
100
AcDbEntity
  8
13
100
AcDbVertex
100
AcDb2dVertex
 10
-195.266171
 20
-143.223085
 30
0.0
  0
VERTEX
  5
CF7
100
AcDbEntity
  8
13
100
AcDbVertex
100
AcDb2dVertex
 10
-195.343343
 20
-143.222639
 30
0.0
  0
VERTEX
  5
CF8
100
AcDbEntity
  8
13
100
AcDbVertex
100
AcDb2dVertex
 10
-195.420505
 20
-143.221872
 30
0.0
  0
VERTEX
  5
CF9
100
AcDbEntity
  8
13
100
AcDbVertex
100
AcDb2dVertex
 10
-195.497651
 20
-143.22054
 30
0.0
  0
VERTEX
  5
CFA
100
AcDbEntity
  8
13
100
AcDbVertex
100
AcDb2dVertex
 10
-195.651541
 20
-143.215614
 30
0.0
  0
VERTEX
  5
CFB
100
AcDbEntity
  8
13
100
AcDbVertex
100
AcDb2dVertex
 10
-195.805337
 20
-143.207865
 30
0.0
  0
VERTEX
  5
CFC
100
AcDbEntity
  8
13
100
AcDbVertex
100
AcDb2dVertex
 10
-195.959032
 20
-143.197685
 30
0.0
  0
VERTEX
  5
CFD
100
AcDbEntity
  8
13
100
AcDbVertex
100
AcDb2dVertex
 10
-196.112618
 20
-143.185468
 30
0.0
  0
VERTEX
  5
CFE
100
AcDbEntity
  8
13
100
AcDbVertex
100
AcDb2dVertex
 10
-196.266085
 20
-143.171605
 30
0.0
  0
VERTEX
  5
CFF
100
AcDbEntity
  8
13
100
AcDbVertex
100
AcDb2dVertex
 10
-196.419425
 20
-143.156491
 30
0.0
  0
VERTEX
  5
D00
100
AcDbEntity
  8
13
100
AcDbVertex
100
AcDb2dVertex
 10
-196.559549
 20
-143.14188
 30
0.0
  0
VERTEX
  5
D01
100
AcDbEntity
  8
13
100
AcDbVertex
100
AcDb2dVertex
 10
-196.699582
 20
-143.126694
 30
0.0
  0
VERTEX
  5
D02
100
AcDbEntity
  8
13
100
AcDbVertex
100
AcDb2dVertex
 10
-196.839547
 20
-143.111077
 30
0.0
  0
VERTEX
  5
D03
100
AcDbEntity
  8
13
100
AcDbVertex
100
AcDb2dVertex
 10
-196.979467
 20
-143.095173
 30
0.0
  0
VERTEX
  5
D04
100
AcDbEntity
  8
13
100
AcDbVertex
100
AcDb2dVertex
 10
-197.119364
 20
-143.079125
 30
0.0
  0
SEQEND
  5
D05
100
AcDbEntity
  8
13
  0
POLYLINE
  5
7FE
100
AcDbEntity
  8
13
100
AcDb2dPolyline
 66
     1
 10
0.0
 20
0.0
 30
0.0
  0
VERTEX
  5
D06
100
AcDbEntity
  8
13
100
AcDbVertex
100
AcDb2dVertex
 10
-191.386539
 20
-158.487845
 30
0.0
  0
VERTEX
  5
D07
100
AcDbEntity
  8
13
100
AcDbVertex
100
AcDb2dVertex
 10
-191.386365
 20
-158.496917
 30
0.0
  0
VERTEX
  5
D08
100
AcDbEntity
  8
13
100
AcDbVertex
100
AcDb2dVertex
 10
-191.386186
 20
-158.505988
 30
0.0
  0
VERTEX
  5
D09
100
AcDbEntity
  8
13
100
AcDbVertex
100
AcDb2dVertex
 10
-191.385998
 20
-158.515061
 30
0.0
  0
VERTEX
  5
D0A
100
AcDbEntity
  8
13
100
AcDbVertex
100
AcDb2dVertex
 10
-191.385326
 20
-158.542283
 30
0.0
  0
VERTEX
  5
D0B
100
AcDbEntity
  8
13
100
AcDbVertex
100
AcDb2dVertex
 10
-191.384393
 20
-158.56952
 30
0.0
  0
VERTEX
  5
D0C
100
AcDbEntity
  8
13
100
AcDbVertex
100
AcDb2dVertex
 10
-191.383068
 20
-158.596777
 30
0.0
  0
VERTEX
  5
D0D
100
AcDbEntity
  8
13
100
AcDbVertex
100
AcDb2dVertex
 10
-191.382517
 20
-158.605869
 30
0.0
  0
VERTEX
  5
D0E
100
AcDbEntity
  8
13
100
AcDbVertex
100
AcDb2dVertex
 10
-191.381903
 20
-158.614964
 30
0.0
  0
VERTEX
  5
D0F
100
AcDbEntity
  8
13
100
AcDbVertex
100
AcDb2dVertex
 10
-191.381222
 20
-158.624063
 30
0.0
  0
VERTEX
  5
D10
100
AcDbEntity
  8
13
100
AcDbVertex
100
AcDb2dVertex
 10
-191.380402
 20
-158.633876
 30
0.0
  0
VERTEX
  5
D11
100
AcDbEntity
  8
13
100
AcDbVertex
100
AcDb2dVertex
 10
-191.37947
 20
-158.643682
 30
0.0
  0
VERTEX
  5
D12
100
AcDbEntity
  8
13
100
AcDbVertex
100
AcDb2dVertex
 10
-191.378397
 20
-158.65347
 30
0.0
  0
VERTEX
  5
D13
100
AcDbEntity
  8
13
100
AcDbVertex
100
AcDb2dVertex
 10
-191.374061
 20
-158.68261
 30
0.0
  0
VERTEX
  5
D14
100
AcDbEntity
  8
13
100
AcDbVertex
100
AcDb2dVertex
 10
-191.372149
 20
-158.69221
 30
0.0
  0
VERTEX
  5
D15
100
AcDbEntity
  8
13
100
AcDbVertex
100
AcDb2dVertex
 10
-191.369957
 20
-158.701736
 30
0.0
  0
VERTEX
  5
D16
100
AcDbEntity
  8
13
100
AcDbVertex
100
AcDb2dVertex
 10
-191.367458
 20
-158.711175
 30
0.0
  0
VERTEX
  5
D17
100
AcDbEntity
  8
13
100
AcDbVertex
100
AcDb2dVertex
 10
-191.364966
 20
-158.719473
 30
0.0
  0
VERTEX
  5
D18
100
AcDbEntity
  8
13
100
AcDbVertex
100
AcDb2dVertex
 10
-191.362226
 20
-158.727695
 30
0.0
  0
VERTEX
  5
D19
100
AcDbEntity
  8
13
100
AcDbVertex
100
AcDb2dVertex
 10
-191.359254
 20
-158.735846
 30
0.0
  0
VERTEX
  5
D1A
100
AcDbEntity
  8
13
100
AcDbVertex
100
AcDb2dVertex
 10
-191.349108
 20
-158.759892
 30
0.0
  0
VERTEX
  5
D1B
100
AcDbEntity
  8
13
100
AcDbVertex
100
AcDb2dVertex
 10
-191.337458
 20
-158.783382
 30
0.0
  0
VERTEX
  5
D1C
100
AcDbEntity
  8
13
100
AcDbVertex
100
AcDb2dVertex
 10
-191.32474
 20
-158.806385
 30
0.0
  0
VERTEX
  5
D1D
100
AcDbEntity
  8
13
100
AcDbVertex
100
AcDb2dVertex
 10
-191.320339
 20
-158.813957
 30
0.0
  0
VERTEX
  5
D1E
100
AcDbEntity
  8
13
100
AcDbVertex
100
AcDb2dVertex
 10
-191.315884
 20
-158.821484
 30
0.0
  0
VERTEX
  5
D1F
100
AcDbEntity
  8
13
100
AcDbVertex
100
AcDb2dVertex
 10
-191.311391
 20
-158.828971
 30
0.0
  0
VERTEX
  5
D20
100
AcDbEntity
  8
13
100
AcDbVertex
100
AcDb2dVertex
 10
-191.304995
 20
-158.839484
 30
0.0
  0
VERTEX
  5
D21
100
AcDbEntity
  8
13
100
AcDbVertex
100
AcDb2dVertex
 10
-191.298517
 20
-158.849913
 30
0.0
  0
VERTEX
  5
D22
100
AcDbEntity
  8
13
100
AcDbVertex
100
AcDb2dVertex
 10
-191.291919
 20
-158.860253
 30
0.0
  0
VERTEX
  5
D23
100
AcDbEntity
  8
13
100
AcDbVertex
100
AcDb2dVertex
 10
-191.28516
 20
-158.870497
 30
0.0
  0
VERTEX
  5
D24
100
AcDbEntity
  8
13
100
AcDbVertex
100
AcDb2dVertex
 10
-191.278203
 20
-158.88064
 30
0.0
  0
VERTEX
  5
D25
100
AcDbEntity
  8
13
100
AcDbVertex
100
AcDb2dVertex
 10
-191.271009
 20
-158.890675
 30
0.0
  0
VERTEX
  5
D26
100
AcDbEntity
  8
13
100
AcDbVertex
100
AcDb2dVertex
 10
-191.264436
 20
-158.899416
 30
0.0
  0
VERTEX
  5
D27
100
AcDbEntity
  8
13
100
AcDbVertex
100
AcDb2dVertex
 10
-191.257613
 20
-158.907979
 30
0.0
  0
VERTEX
  5
D28
100
AcDbEntity
  8
13
100
AcDbVertex
100
AcDb2dVertex
 10
-191.250504
 20
-158.916274
 30
0.0
  0
VERTEX
  5
D29
100
AcDbEntity
  8
13
100
AcDbVertex
100
AcDb2dVertex
 10
-191.243075
 20
-158.924212
 30
0.0
  0
VERTEX
  5
D2A
100
AcDbEntity
  8
13
100
AcDbVertex
100
AcDb2dVertex
 10
-191.235291
 20
-158.931702
 30
0.0
  0
VERTEX
  5
D2B
100
AcDbEntity
  8
13
100
AcDbVertex
100
AcDb2dVertex
 10
-191.227116
 20
-158.938656
 30
0.0
  0
VERTEX
  5
D2C
100
AcDbEntity
  8
13
100
AcDbVertex
100
AcDb2dVertex
 10
-191.211694
 20
-158.949484
 30
0.0
  0
VERTEX
  5
D2D
100
AcDbEntity
  8
13
100
AcDbVertex
100
AcDb2dVertex
 10
-191.195165
 20
-158.958684
 30
0.0
  0
VERTEX
  5
D2E
100
AcDbEntity
  8
13
100
AcDbVertex
100
AcDb2dVertex
 10
-191.177752
 20
-158.966584
 30
0.0
  0
VERTEX
  5
D2F
100
AcDbEntity
  8
13
100
AcDbVertex
100
AcDb2dVertex
 10
-191.159676
 20
-158.973508
 30
0.0
  0
VERTEX
  5
D30
100
AcDbEntity
  8
13
100
AcDbVertex
100
AcDb2dVertex
 10
-191.141157
 20
-158.979781
 30
0.0
  0
VERTEX
  5
D31
100
AcDbEntity
  8
13
100
AcDbVertex
100
AcDb2dVertex
 10
-191.122418
 20
-158.985728
 30
0.0
  0
SEQEND
  5
D32
100
AcDbEntity
  8
13
  0
POLYLINE
  5
82C
100
AcDbEntity
  8
13
100
AcDb2dPolyline
 66
     1
 10
0.0
 20
0.0
 30
0.0
  0
VERTEX
  5
D33
100
AcDbEntity
  8
13
100
AcDbVertex
100
AcDb2dVertex
 10
-191.386539
 20
-144.023187
 30
0.0
  0
VERTEX
  5
D34
100
AcDbEntity
  8
13
100
AcDbVertex
100
AcDb2dVertex
 10
-191.386365
 20
-144.014115
 30
0.0
  0
VERTEX
  5
D35
100
AcDbEntity
  8
13
100
AcDbVertex
100
AcDb2dVertex
 10
-191.386186
 20
-144.005044
 30
0.0
  0
VERTEX
  5
D36
100
AcDbEntity
  8
13
100
AcDbVertex
100
AcDb2dVertex
 10
-191.385998
 20
-143.995971
 30
0.0
  0
VERTEX
  5
D37
100
AcDbEntity
  8
13
100
AcDbVertex
100
AcDb2dVertex
 10
-191.385326
 20
-143.968749
 30
0.0
  0
VERTEX
  5
D38
100
AcDbEntity
  8
13
100
AcDbVertex
100
AcDb2dVertex
 10
-191.384393
 20
-143.941512
 30
0.0
  0
VERTEX
  5
D39
100
AcDbEntity
  8
13
100
AcDbVertex
100
AcDb2dVertex
 10
-191.383068
 20
-143.914255
 30
0.0
  0
VERTEX
  5
D3A
100
AcDbEntity
  8
13
100
AcDbVertex
100
AcDb2dVertex
 10
-191.382517
 20
-143.905163
 30
0.0
  0
VERTEX
  5
D3B
100
AcDbEntity
  8
13
100
AcDbVertex
100
AcDb2dVertex
 10
-191.381903
 20
-143.896068
 30
0.0
  0
VERTEX
  5
D3C
100
AcDbEntity
  8
13
100
AcDbVertex
100
AcDb2dVertex
 10
-191.381222
 20
-143.886969
 30
0.0
  0
VERTEX
  5
D3D
100
AcDbEntity
  8
13
100
AcDbVertex
100
AcDb2dVertex
 10
-191.380402
 20
-143.877156
 30
0.0
  0
VERTEX
  5
D3E
100
AcDbEntity
  8
13
100
AcDbVertex
100
AcDb2dVertex
 10
-191.37947
 20
-143.86735
 30
0.0
  0
VERTEX
  5
D3F
100
AcDbEntity
  8
13
100
AcDbVertex
100
AcDb2dVertex
 10
-191.378397
 20
-143.857562
 30
0.0
  0
VERTEX
  5
D40
100
AcDbEntity
  8
13
100
AcDbVertex
100
AcDb2dVertex
 10
-191.374061
 20
-143.828422
 30
0.0
  0
VERTEX
  5
D41
100
AcDbEntity
  8
13
100
AcDbVertex
100
AcDb2dVertex
 10
-191.372149
 20
-143.818822
 30
0.0
  0
VERTEX
  5
D42
100
AcDbEntity
  8
13
100
AcDbVertex
100
AcDb2dVertex
 10
-191.369957
 20
-143.809296
 30
0.0
  0
VERTEX
  5
D43
100
AcDbEntity
  8
13
100
AcDbVertex
100
AcDb2dVertex
 10
-191.367458
 20
-143.799857
 30
0.0
  0
VERTEX
  5
D44
100
AcDbEntity
  8
13
100
AcDbVertex
100
AcDb2dVertex
 10
-191.364966
 20
-143.791559
 30
0.0
  0
VERTEX
  5
D45
100
AcDbEntity
  8
13
100
AcDbVertex
100
AcDb2dVertex
 10
-191.362226
 20
-143.783337
 30
0.0
  0
VERTEX
  5
D46
100
AcDbEntity
  8
13
100
AcDbVertex
100
AcDb2dVertex
 10
-191.359254
 20
-143.775186
 30
0.0
  0
VERTEX
  5
D47
100
AcDbEntity
  8
13
100
AcDbVertex
100
AcDb2dVertex
 10
-191.349108
 20
-143.75114
 30
0.0
  0
VERTEX
  5
D48
100
AcDbEntity
  8
13
100
AcDbVertex
100
AcDb2dVertex
 10
-191.337458
 20
-143.72765
 30
0.0
  0
VERTEX
  5
D49
100
AcDbEntity
  8
13
100
AcDbVertex
100
AcDb2dVertex
 10
-191.32474
 20
-143.704647
 30
0.0
  0
VERTEX
  5
D4A
100
AcDbEntity
  8
13
100
AcDbVertex
100
AcDb2dVertex
 10
-191.320339
 20
-143.697075
 30
0.0
  0
VERTEX
  5
D4B
100
AcDbEntity
  8
13
100
AcDbVertex
100
AcDb2dVertex
 10
-191.315884
 20
-143.689548
 30
0.0
  0
VERTEX
  5
D4C
100
AcDbEntity
  8
13
100
AcDbVertex
100
AcDb2dVertex
 10
-191.311391
 20
-143.682061
 30
0.0
  0
VERTEX
  5
D4D
100
AcDbEntity
  8
13
100
AcDbVertex
100
AcDb2dVertex
 10
-191.304995
 20
-143.671548
 30
0.0
  0
VERTEX
  5
D4E
100
AcDbEntity
  8
13
100
AcDbVertex
100
AcDb2dVertex
 10
-191.298517
 20
-143.661119
 30
0.0
  0
VERTEX
  5
D4F
100
AcDbEntity
  8
13
100
AcDbVertex
100
AcDb2dVertex
 10
-191.291919
 20
-143.650779
 30
0.0
  0
VERTEX
  5
D50
100
AcDbEntity
  8
13
100
AcDbVertex
100
AcDb2dVertex
 10
-191.28516
 20
-143.640535
 30
0.0
  0
VERTEX
  5
D51
100
AcDbEntity
  8
13
100
AcDbVertex
100
AcDb2dVertex
 10
-191.278203
 20
-143.630392
 30
0.0
  0
VERTEX
  5
D52
100
AcDbEntity
  8
13
100
AcDbVertex
100
AcDb2dVertex
 10
-191.271009
 20
-143.620357
 30
0.0
  0
VERTEX
  5
D53
100
AcDbEntity
  8
13
100
AcDbVertex
100
AcDb2dVertex
 10
-191.264436
 20
-143.611616
 30
0.0
  0
VERTEX
  5
D54
100
AcDbEntity
  8
13
100
AcDbVertex
100
AcDb2dVertex
 10
-191.257613
 20
-143.603053
 30
0.0
  0
VERTEX
  5
D55
100
AcDbEntity
  8
13
100
AcDbVertex
100
AcDb2dVertex
 10
-191.250504
 20
-143.594758
 30
0.0
  0
VERTEX
  5
D56
100
AcDbEntity
  8
13
100
AcDbVertex
100
AcDb2dVertex
 10
-191.243075
 20
-143.58682
 30
0.0
  0
VERTEX
  5
D57
100
AcDbEntity
  8
13
100
AcDbVertex
100
AcDb2dVertex
 10
-191.235291
 20
-143.57933
 30
0.0
  0
VERTEX
  5
D58
100
AcDbEntity
  8
13
100
AcDbVertex
100
AcDb2dVertex
 10
-191.227116
 20
-143.572376
 30
0.0
  0
VERTEX
  5
D59
100
AcDbEntity
  8
13
100
AcDbVertex
100
AcDb2dVertex
 10
-191.211694
 20
-143.561548
 30
0.0
  0
VERTEX
  5
D5A
100
AcDbEntity
  8
13
100
AcDbVertex
100
AcDb2dVertex
 10
-191.195165
 20
-143.552348
 30
0.0
  0
VERTEX
  5
D5B
100
AcDbEntity
  8
13
100
AcDbVertex
100
AcDb2dVertex
 10
-191.177752
 20
-143.544448
 30
0.0
  0
VERTEX
  5
D5C
100
AcDbEntity
  8
13
100
AcDbVertex
100
AcDb2dVertex
 10
-191.159676
 20
-143.537524
 30
0.0
  0
VERTEX
  5
D5D
100
AcDbEntity
  8
13
100
AcDbVertex
100
AcDb2dVertex
 10
-191.141157
 20
-143.531251
 30
0.0
  0
VERTEX
  5
D5E
100
AcDbEntity
  8
13
100
AcDbVertex
100
AcDb2dVertex
 10
-191.122418
 20
-143.525304
 30
0.0
  0
SEQEND
  5
D5F
100
AcDbEntity
  8
13
  0
LINE
  5
85A
100
AcDbEntity
  8
13
100
AcDbLine
 10
-181.733385
 20
-127.66261
 30
0.0
 11
-181.733385
 21
-125.213849
 31
0.0
  0
LINE
  5
85B
100
AcDbEntity
  8
13
100
AcDbLine
 10
-204.967897
 20
-127.66261
 30
0.0
 11
-204.967897
 21
-125.213849
 31
0.0
  0
LINE
  5
85C
100
AcDbEntity
  8
13
100
AcDbLine
 10
-181.733385
 20
-169.848014
 30
0.0
 11
-181.733385
 21
-172.296775
 31
0.0
  0
LINE
  5
85D
100
AcDbEntity
  8
13
100
AcDbLine
 10
-204.967897
 20
-169.848014
 30
0.0
 11
-204.967897
 21
-172.296775
 31
0.0
  0
LINE
  5
85E
100
AcDbEntity
  8
13
100
AcDbLine
 10
-204.718508
 20
-125.20549
 30
0.0
 11
-181.982464
 21
-125.205532
 31
0.0
  0
LINE
  5
85F
100
AcDbEntity
  8
13
100
AcDbLine
 10
-204.718721
 20
-172.305123
 30
0.0
 11
-181.982389
 21
-172.305068
 31
0.0
  0
ARC
  5
860
100
AcDbEntity
  8
13
100
AcDbCircle
 10
-193.350641
 20
-148.755312
 30
0.0
 40
26.15
100
AcDbArc
 50
115.767219
 51
244.232781
  0
ARC
  5
861
100
AcDbEntity
  8
13
100
AcDbCircle
 10
-193.350641
 20
-148.755312
 30
0.0
 40
26.15
100
AcDbArc
 50
295.767702
 51
64.232298
  0
POINT
  5
862
100
AcDbEntity
  8
13
100
AcDbPoint
 10
-193.350641
 20
-148.755516
 30
0.0
  0
TEXT
  5
863
100
AcDbEntity
  8
18
100
AcDbText
 10
244.289261
 20
-266.527985
 30
0.0
 40
6.0
  1
１
 72
     5
 11
249.089261
 21
-266.527985
 31
0.0
100
AcDbText
  0
TEXT
  5
864
100
AcDbEntity
  8
18
100
AcDbText
 10
253.082458
 20
-274.202026
 30
0.0
 40
6.0
  1
２
 72
     5
 11
257.882458
 21
-274.202026
 31
0.0
100
AcDbText
  0
TEXT
  5
865
100
AcDbEntity
  8
18
100
AcDbText
 10
245.708481
 20
-246.070526
 30
0.0
 40
6.0
  1
７００Ｇ－２ＩＡＳ　５０Ａ
 72
     5
 11
322.508481
 21
-246.070526
 31
0.0
100
AcDbText
  0
TEXT
  5
866
100
AcDbEntity
  8
18
100
AcDbText
 10
245.708481
 20
-254.070526
 30
0.0
 40
6.0
  1
標準仕様　ＪＩＳ　５，１０Ｋ
 72
     5
 11
328.508481
 21
-254.070526
 31
0.0
100
AcDbText
  0
TEXT
  5
867
100
AcDbEntity
  8
18
100
AcDbText
 10
307.2
 20
-272.0
 30
0.0
 40
10.0
  1
Ｄ３－０３６１０
 72
     5
 11
385.2
 21
-272.0
 31
0.0
100
AcDbText
  0
TEXT
  5
868
100
AcDbEntity
  8
18
100
AcDbText
 10
360.316223
 20
-253.771606
 30
0.0
 40
4.0
  1
２００４．１２．２０
 72
     5
 11
399.516223
 21
-253.771606
 31
0.0
100
AcDbText
  0
LINE
  5
869
100
AcDbEntity
  8
18
100
AcDbLine
 10
243.098152
 20
-136.431236
 30
0.0
 11
343.098152
 21
-136.431236
 31
0.0
  0
LINE
  5
86A
100
AcDbEntity
  8
18
100
AcDbLine
 10
243.098152
 20
-176.431236
 30
0.0
 11
343.098152
 21
-176.431236
 31
0.0
  0
LINE
  5
86B
100
AcDbEntity
  8
18
100
AcDbLine
 10
243.098152
 20
-186.431236
 30
0.0
 11
343.098152
 21
-186.431236
 31
0.0
  0
LINE
  5
86C
100
AcDbEntity
  8
18
100
AcDbLine
 10
243.098152
 20
-196.431236
 30
0.0
 11
343.098152
 21
-196.431236
 31
0.0
  0
LINE
  5
86D
100
AcDbEntity
  8
18
100
AcDbLine
 10
243.098152
 20
-136.431236
 30
0.0
 11
243.098152
 21
-196.431236
 31
0.0
  0
LINE
  5
86E
100
AcDbEntity
  8
18
100
AcDbLine
 10
293.098152
 20
-136.431236
 30
0.0
 11
293.098152
 21
-186.431236
 31
0.0
  0
LINE
  5
86F
100
AcDbEntity
  8
18
100
AcDbLine
 10
343.098152
 20
-136.431236
 30
0.0
 11
343.098152
 21
-196.431236
 31
0.0
  0
TEXT
  5
870
100
AcDbEntity
  8
18
100
AcDbText
 10
263.359627
 20
-184.075478
 30
0.0
 40
6.0
  1
A
 72
     5
 11
268.159627
 21
-184.075478
 31
0.0
100
AcDbText
  0
TEXT
  5
871
100
AcDbEntity
  8
18
100
AcDbText
 10
313.359627
 20
-184.075478
 30
0.0
 40
6.0
  1
B
 72
     5
 11
318.159627
 21
-184.075478
 31
0.0
100
AcDbText
  0
LINE
  5
872
100
AcDbEntity
  8
18
  6
CENTER
 62
     2
100
AcDbLine
 10
250.914742
 20
-163.586777
 30
0.0
 11
280.736214
 21
-163.586777
 31
0.0
  0
LINE
  5
873
100
AcDbEntity
  8
18
  6
CENTER
 62
     2
100
AcDbLine
 10
265.960518
 20
-149.71386
 30
0.0
 11
265.960518
 21
-171.186554
 31
0.0
  0
LINE
  5
874
100
AcDbEntity
  8
18
100
AcDbLine
 10
278.960518
 20
-159.986777
 30
0.0
 11
278.960518
 21
-167.186777
 31
0.0
  0
LINE
  5
875
100
AcDbEntity
  8
18
100
AcDbLine
 10
252.960518
 20
-159.986777
 30
0.0
 11
252.960518
 21
-167.186777
 31
0.0
  0
LINE
  5
876
100
AcDbEntity
  8
18
100
AcDbLine
 10
261.353995
 20
-151.586777
 30
0.0
 11
272.560518
 21
-151.586777
 31
0.0
  0
LINE
  5
877
100
AcDbEntity
  8
18
100
AcDbLine
 10
272.760518
 20
-155.586777
 30
0.0
 11
283.107002
 21
-155.586777
 31
0.0
  0
LINE
  5
878
100
AcDbEntity
  8
18
100
AcDbLine
 10
283.107002
 20
-148.786777
 30
0.0
 11
283.107002
 21
-160.386777
 31
0.0
  0
LINE
  5
879
100
AcDbEntity
  8
18
100
AcDbLine
 10
285.507002
 20
-148.786777
 30
0.0
 11
285.507002
 21
-160.386777
 31
0.0
  0
LINE
  5
87A
100
AcDbEntity
  8
18
100
AcDbLine
 10
272.760518
 20
-153.586777
 30
0.0
 11
283.107002
 21
-153.586777
 31
0.0
  0
LINE
  5
87B
100
AcDbEntity
  8
18
100
AcDbLine
 10
271.458505
 20
-157.586777
 30
0.0
 11
272.560518
 21
-157.586777
 31
0.0
  0
ARC
  5
87C
100
AcDbEntity
  8
18
100
AcDbCircle
 10
265.960518
 20
-163.586777
 30
0.0
 40
6.0
100
AcDbArc
 50
167.624033
 51
5.0
  0
LINE
  5
87D
100
AcDbEntity
  8
18
100
AcDbLine
 10
253.360518
 20
-159.586777
 30
0.0
 11
260.287554
 21
-159.586777
 31
0.0
  0
LINE
  5
87E
100
AcDbEntity
  8
18
100
AcDbLine
 10
271.633482
 20
-159.586777
 30
0.0
 11
278.560518
 21
-159.586777
 31
0.0
  0
LINE
  5
87F
100
AcDbEntity
  8
18
100
AcDbLine
 10
253.360518
 20
-167.586777
 30
0.0
 11
261.488382
 21
-167.586777
 31
0.0
  0
LINE
  5
880
100
AcDbEntity
  8
18
100
AcDbLine
 10
270.432654
 20
-167.586777
 30
0.0
 11
278.560518
 21
-167.586777
 31
0.0
  0
LINE
  5
881
100
AcDbEntity
  8
18
100
AcDbLine
 10
263.225559
 20
-162.986777
 30
0.0
 11
268.695477
 21
-162.986777
 31
0.0
  0
LINE
  5
882
100
AcDbEntity
  8
18
100
AcDbLine
 10
263.225559
 20
-164.186777
 30
0.0
 11
268.695477
 21
-164.186777
 31
0.0
  0
ARC
  5
883
100
AcDbEntity
  8
18
100
AcDbCircle
 10
284.307002
 20
-148.786777
 30
0.0
 40
1.2
100
AcDbArc
 50
0.0
 51
180.0
  0
ARC
  5
884
100
AcDbEntity
  8
18
100
AcDbCircle
 10
284.307002
 20
-160.386777
 30
0.0
 40
1.2
100
AcDbArc
 50
180.0
 51
360.0
  0
LINE
  5
885
100
AcDbEntity
  8
18
100
AcDbLine
 10
259.98335
 20
-163.063842
 30
0.0
 11
260.955517
 21
-151.951914
 31
0.0
  0
LINE
  5
886
100
AcDbEntity
  8
18
100
AcDbLine
 10
271.937686
 20
-163.063842
 30
0.0
 11
270.965518
 21
-151.951914
 31
0.0
  0
LINE
  5
887
100
AcDbEntity
  8
18
100
AcDbLine
 10
272.760518
 20
-157.386777
 30
0.0
 11
272.760518
 21
-151.786777
 31
0.0
  0
TEXT
  5
888
100
AcDbEntity
  8
18
100
AcDbText
 10
263.174342
 20
-160.548553
 30
0.0
 40
3.0
  1
O
 72
     5
 11
265.574342
 21
-160.548553
 31
0.0
100
AcDbText
  0
TEXT
  5
889
100
AcDbEntity
  8
18
100
AcDbText
 10
271.73683
 20
-166.309218
 30
0.0
 40
3.0
  1
S
 50
90.0
 72
     5
 11
271.73683
 21
-163.909218
 31
0.0
100
AcDbText
  0
ARC
  5
88A
100
AcDbEntity
  8
18
100
AcDbCircle
 10
261.353995
 20
-151.986777
 30
0.0
 40
0.4
100
AcDbArc
 50
90.0
 51
175.0
  0
ARC
  5
88B
100
AcDbEntity
  8
18
100
AcDbCircle
 10
270.56704
 20
-151.986777
 30
0.0
 40
0.4
100
AcDbArc
 50
5.0
 51
90.0
  0
ARC
  5
88C
100
AcDbEntity
  8
18
100
AcDbCircle
 10
253.360518
 20
-159.986777
 30
0.0
 40
0.4
100
AcDbArc
 50
90.0
 51
180.0
  0
ARC
  5
88D
100
AcDbEntity
  8
18
100
AcDbCircle
 10
253.360518
 20
-167.186777
 30
0.0
 40
0.4
100
AcDbArc
 50
180.0
 51
270.0
  0
ARC
  5
88E
100
AcDbEntity
  8
18
100
AcDbCircle
 10
278.560518
 20
-159.986777
 30
0.0
 40
0.4
100
AcDbArc
 50
0.0
 51
90.0
  0
ARC
  5
88F
100
AcDbEntity
  8
18
100
AcDbCircle
 10
278.560518
 20
-167.186777
 30
0.0
 40
0.4
100
AcDbArc
 50
270.0
 51
360.0
  0
ARC
  5
890
100
AcDbEntity
  8
18
100
AcDbCircle
 10
272.560518
 20
-151.786777
 30
0.0
 40
0.2
100
AcDbArc
 50
0.0
 51
90.0
  0
ARC
  5
891
100
AcDbEntity
  8
18
100
AcDbCircle
 10
272.560518
 20
-157.386777
 30
0.0
 40
0.2
100
AcDbArc
 50
270.0
 51
360.0
  0
LINE
  5
892
100
AcDbEntity
  8
18
  6
CENTER
 62
     2
100
AcDbLine
 10
315.960518
 20
-141.240761
 30
0.0
 11
315.960518
 21
-160.088753
 31
0.0
  0
LINE
  5
893
100
AcDbEntity
  8
18
  6
CENTER
 62
     2
100
AcDbLine
 10
329.833435
 20
-150.586777
 30
0.0
 11
301.055275
 21
-150.586777
 31
0.0
  0
LINE
  5
894
100
AcDbEntity
  8
18
100
AcDbLine
 10
327.960518
 20
-145.980254
 30
0.0
 11
327.960518
 21
-157.186777
 31
0.0
  0
LINE
  5
895
100
AcDbEntity
  8
18
100
AcDbLine
 10
323.960518
 20
-157.386777
 30
0.0
 11
323.960518
 21
-167.733261
 31
0.0
  0
LINE
  5
896
100
AcDbEntity
  8
18
100
AcDbLine
 10
330.760518
 20
-167.733261
 30
0.0
 11
319.160518
 21
-167.733261
 31
0.0
  0
LINE
  5
897
100
AcDbEntity
  8
18
100
AcDbLine
 10
330.760518
 20
-170.133261
 30
0.0
 11
319.160518
 21
-170.133261
 31
0.0
  0
LINE
  5
898
100
AcDbEntity
  8
18
100
AcDbLine
 10
325.960518
 20
-157.386777
 30
0.0
 11
325.960518
 21
-167.733261
 31
0.0
  0
LINE
  5
899
100
AcDbEntity
  8
18
100
AcDbLine
 10
321.960518
 20
-156.084764
 30
0.0
 11
321.960518
 21
-157.186777
 31
0.0
  0
ARC
  5
89A
100
AcDbEntity
  8
18
100
AcDbCircle
 10
315.960518
 20
-150.586777
 30
0.0
 40
6.0
100
AcDbArc
 50
77.624033
 51
275.0
  0
LINE
  5
89B
100
AcDbEntity
  8
18
100
AcDbLine
 10
316.560518
 20
-147.851818
 30
0.0
 11
316.560518
 21
-153.321736
 31
0.0
  0
LINE
  5
89C
100
AcDbEntity
  8
18
100
AcDbLine
 10
315.360518
 20
-147.851818
 30
0.0
 11
315.360518
 21
-153.321736
 31
0.0
  0
ARC
  5
89D
100
AcDbEntity
  8
18
100
AcDbCircle
 10
330.760518
 20
-168.933261
 30
0.0
 40
1.2
100
AcDbArc
 50
270.0
 51
90.0
  0
ARC
  5
89E
100
AcDbEntity
  8
18
100
AcDbCircle
 10
319.160518
 20
-168.933261
 30
0.0
 40
1.2
100
AcDbArc
 50
90.0
 51
270.0
  0
LINE
  5
89F
100
AcDbEntity
  8
18
100
AcDbLine
 10
316.483452
 20
-144.609609
 30
0.0
 11
327.59538
 21
-145.581776
 31
0.0
  0
LINE
  5
8A0
100
AcDbEntity
  8
18
100
AcDbLine
 10
316.483452
 20
-156.563945
 30
0.0
 11
327.59538
 21
-155.591777
 31
0.0
  0
LINE
  5
8A1
100
AcDbEntity
  8
18
100
AcDbLine
 10
322.160518
 20
-157.386777
 30
0.0
 11
327.760518
 21
-157.386777
 31
0.0
  0
TEXT
  5
8A2
100
AcDbEntity
  8
18
100
AcDbText
 10
318.798741
 20
-147.800601
 30
0.0
 40
3.0
  1
O
 50
270.0
 72
     5
 11
318.798741
 21
-150.200601
 31
0.0
100
AcDbText
  0
TEXT
  5
8A3
100
AcDbEntity
  8
18
100
AcDbText
 10
313.238077
 20
-156.363089
 30
0.0
 40
3.0
  1
S
 72
     5
 11
315.638077
 21
-156.363089
 31
0.0
100
AcDbText
  0
ARC
  5
8A4
100
AcDbEntity
  8
18
100
AcDbCircle
 10
327.560518
 20
-145.980254
 30
0.0
 40
0.4
100
AcDbArc
 50
0.0
 51
85.0
  0
ARC
  5
8A5
100
AcDbEntity
  8
18
100
AcDbCircle
 10
327.560518
 20
-155.193299
 30
0.0
 40
0.4
100
AcDbArc
 50
275.0
 51
360.0
  0
ARC
  5
8A6
100
AcDbEntity
  8
18
100
AcDbCircle
 10
327.760518
 20
-157.186777
 30
0.0
 40
0.2
100
AcDbArc
 50
270.0
 51
360.0
  0
ARC
  5
8A7
100
AcDbEntity
  8
18
100
AcDbCircle
 10
322.160518
 20
-157.186777
 30
0.0
 40
0.2
100
AcDbArc
 50
180.0
 51
270.0
  0
LINE
  5
8A8
100
AcDbEntity
  8
18
100
AcDbLine
 10
303.360518
 20
-146.586777
 30
0.0
 11
311.488382
 21
-146.586777
 31
0.0
  0
LINE
  5
8A9
100
AcDbEntity
  8
18
100
AcDbLine
 10
303.360518
 20
-154.586777
 30
0.0
 11
311.488382
 21
-154.586777
 31
0.0
  0
LINE
  5
8AA
100
AcDbEntity
  8
18
100
AcDbLine
 10
327.960518
 20
-154.586777
 30
0.0
 11
328.560518
 21
-154.586777
 31
0.0
  0
LINE
  5
8AB
100
AcDbEntity
  8
18
100
AcDbLine
 10
327.960518
 20
-146.586777
 30
0.0
 11
328.560518
 21
-146.586777
 31
0.0
  0
LINE
  5
8AC
100
AcDbEntity
  8
18
100
AcDbLine
 10
328.960518
 20
-146.986777
 30
0.0
 11
328.960518
 21
-154.186777
 31
0.0
  0
LINE
  5
8AD
100
AcDbEntity
  8
18
100
AcDbLine
 10
302.960518
 20
-146.986777
 30
0.0
 11
302.960518
 21
-154.186777
 31
0.0
  0
ARC
  5
8AE
100
AcDbEntity
  8
18
100
AcDbCircle
 10
303.360518
 20
-146.986777
 30
0.0
 40
0.4
100
AcDbArc
 50
90.0
 51
180.0
  0
ARC
  5
8AF
100
AcDbEntity
  8
18
100
AcDbCircle
 10
303.360518
 20
-154.186777
 30
0.0
 40
0.4
100
AcDbArc
 50
180.0
 51
270.0
  0
ARC
  5
8B0
100
AcDbEntity
  8
18
100
AcDbCircle
 10
328.560518
 20
-154.186777
 30
0.0
 40
0.4
100
AcDbArc
 50
270.0
 51
360.0
  0
ARC
  5
8B1
100
AcDbEntity
  8
18
100
AcDbCircle
 10
328.560518
 20
-146.986777
 30
0.0
 40
0.4
100
AcDbArc
 50
0.0
 51
90.0
  0
CIRCLE
  5
8B2
100
AcDbEntity
  8
18
100
AcDbCircle
 10
265.960518
 20
-163.586777
 30
0.0
 40
2.8
  0
CIRCLE
  5
8B3
100
AcDbEntity
  8
18
100
AcDbCircle
 10
315.960518
 20
-150.586777
 30
0.0
 40
2.8
  0
POINT
  5
8B4
100
AcDbEntity
  8
18
100
AcDbPoint
 10
243.098152
 20
-136.431236
 30
0.0
  0
TEXT
  5
8B5
100
AcDbEntity
  8
18
100
AcDbText
 10
255.59333
 20
-194.456385
 30
0.0
 40
6.0
  1
駆 動 部 取 付 方 向
 72
     5
 11
332.39333
 21
-194.456385
 31
0.0
100
AcDbText
  0
LINE
  5
8B6
100
AcDbEntity
  8
20
 62
     3
100
AcDbLine
 10
-360.0
 20
-277.0
 30
0.0
 11
400.0
 21
-277.0
 31
0.0
  0
LINE
  5
8B7
100
AcDbEntity
  8
20
 62
     3
100
AcDbLine
 10
-360.0
 20
264.0
 30
0.0
 11
400.0
 21
264.0
 31
0.0
  0
LINE
  5
8B8
100
AcDbEntity
  8
20
 62
     3
100
AcDbLine
 10
-360.0
 20
264.0
 30
0.0
 11
-360.0
 21
-277.0
 31
0.0
  0
LINE
  5
8B9
100
AcDbEntity
  8
20
 62
     3
100
AcDbLine
 10
400.0
 20
264.0
 30
0.0
 11
400.0
 21
-277.0
 31
0.0
  0
LINE
  5
8BA
100
AcDbEntity
  8
20
 62
     3
100
AcDbLine
 10
120.0
 20
-277.0
 30
0.0
 11
120.0
 21
-237.0
 31
0.0
  0
LINE
  5
8BB
100
AcDbEntity
  8
20
 62
     3
100
AcDbLine
 10
214.0
 20
-277.0
 30
0.0
 11
214.0
 21
-237.0
 31
0.0
  0
LINE
  5
8BC
100
AcDbEntity
  8
20
100
AcDbLine
 10
214.0
 20
-257.0
 30
0.0
 11
400.0
 21
-257.0
 31
0.0
  0
LINE
  5
8BD
100
AcDbEntity
  8
20
 62
     3
100
AcDbLine
 10
120.0
 20
-237.0
 30
0.0
 11
400.0
 21
-237.0
 31
0.0
  0
LINE
  5
8BE
100
AcDbEntity
  8
20
100
AcDbLine
 10
360.0
 20
-257.0
 30
0.0
 11
360.0
 21
-237.0
 31
0.0
  0
LINE
  5
8BF
100
AcDbEntity
  8
20
100
AcDbLine
 10
360.0
 20
-247.0
 30
0.0
 11
400.0
 21
-247.0
 31
0.0
  0
LINE
  5
8C0
100
AcDbEntity
  8
20
100
AcDbLine
 10
242.0
 20
-277.0
 30
0.0
 11
242.0
 21
-237.0
 31
0.0
  0
LINE
  5
8C1
100
AcDbEntity
  8
20
100
AcDbLine
 10
262.0
 20
-277.0
 30
0.0
 11
262.0
 21
-257.0
 31
0.0
  0
LINE
  5
8C2
100
AcDbEntity
  8
20
100
AcDbLine
 10
302.0
 20
-277.0
 30
0.0
 11
302.0
 21
-257.0
 31
0.0
  0
LINE
  5
8C3
100
AcDbEntity
  8
20
100
AcDbLine
 10
247.456829
 20
-271.543171
 30
0.0
 11
255.796581
 21
-263.203419
 31
0.0
  0
TEXT
  5
8C4
100
AcDbEntity
  8
20
100
AcDbText
 10
263.066658
 20
-264.993835
 30
0.0
 40
3.6
  1
ＤＲＡＷＩＮＧ　ＮＯ．
 72
     5
 11
301.946658
 21
-264.993835
 31
0.0
100
AcDbText
  0
TEXT
  5
8C5
100
AcDbEntity
  8
20
100
AcDbText
 10
267.0
 20
-273.0
 30
0.0
 40
6.0
  1
図　　　番
 72
     5
 11
295.8
 21
-273.0
 31
0.0
100
AcDbText
  0
TEXT
  5
8C6
100
AcDbEntity
  8
20
100
AcDbText
 10
372.0
 20
-244.0
 30
0.0
 40
4.0
  1
ＤＡＴＥ
 72
     5
 11
387.2
 21
-244.0
 31
0.0
100
AcDbText
  0
TEXT
  5
8C7
100
AcDbEntity
  8
20
100
AcDbText
 10
218.002142
 20
-265.922058
 30
0.0
 40
4.0
  1
ＳＣＡＬＥ
 72
     5
 11
237.202142
 21
-265.922058
 31
0.0
100
AcDbText
  0
TEXT
  5
8C8
100
AcDbEntity
  8
20
100
AcDbText
 10
216.0
 20
-273.0
 30
0.0
 40
6.0
  1
尺　　度
 72
     5
 11
238.8
 21
-273.0
 31
0.0
100
AcDbText
  0
TEXT
  5
8C9
100
AcDbEntity
  8
20
100
AcDbText
 10
215.002142
 20
-244.991769
 30
0.0
 40
4.0
  1
ＦＩＧ．ＮＯ．
 72
     5
 11
242.202142
 21
-244.991769
 31
0.0
100
AcDbText
  0
TEXT
  5
8CA
100
AcDbEntity
  8
20
100
AcDbText
 10
216.0
 20
-253.0
 30
0.0
 40
6.0
  1
名　　称
 72
     5
 11
238.8
 21
-253.0
 31
0.0
100
AcDbText
  0
TEXT
  5
8CB
100
AcDbEntity
  8
20
100
AcDbText
 10
121.13105
 20
-252.940506
 30
0.0
 40
4.6
  1
ＴＯＭＯＥ　ＶＡＬＶＥ　ＣＯ．，ＬＴＤ．
 72
     5
 11
212.21105
 21
-252.940506
 31
0.0
100
AcDbText
  0
TEXT
  5
8CC
100
AcDbEntity
  8
20
100
AcDbText
 10
135.0
 20
-266.57962
 30
0.0
 40
8.0
  1
巴バルブ株式会社
 72
     5
 11
197.4
 21
-266.57962
 31
0.0
100
AcDbText
  0
ENDSEC
  0
SECTION
  2
OBJECTS
  0
DICTIONARY
  5
92D
100
AcDbDictionary
  3
ACAD_GROUP
350
92E
  3
ACAD_MLINESTYLE
350
92F
  0
DICTIONARY
  5
92E
102
{ACAD_REACTORS
330
92D
102
}
100
AcDbDictionary
  0
DICTIONARY
  5
92F
102
{ACAD_REACTORS
330
92D
102
}
100
AcDbDictionary
  3
STANDARD
350
930
  0
MLINESTYLE
  5
930
102
{ACAD_REACTORS
330
92F
102
}
100
AcDbMlineStyle
  2
STANDARD
 70
     0
  3

 62
     0
 51
90.0
 52
90.0
 71
     2
 49
0.5
 62
   256
  6
BYLAYER
 49
-0.5
 62
   256
  6
BYLAYER
  0
ENDSEC
  0
EOF
