  0
SECTION
  2
HEADER
  9
$ACADVER
  1
AC1012
  9
$DWGCODEPAGE
  3
ansi_932
  9
$INSBASE
 10
0.0
 20
0.0
 30
0.0
  9
$EXTMIN
 10
-420.0
 20
-297.0
 30
1.000000E+20
  9
$EXTMAX
 10
420.0
 20
297.0
 30
-1.000000E+20
  9
$LIMMIN
 10
-420.0
 20
-297.0
  9
$LIMMAX
 10
420.0
 20
297.0
  9
$ORTHOMODE
 70
     0
  9
$REGENMODE
 70
     1
  9
$FILLMODE
 70
     1
  9
$QTEXTMODE
 70
     0
  9
$MIRRTEXT
 70
     1
  9
$DRAGMODE
 70
     2
  9
$LTSCALE
 40
1.0
  9
$OSMODE
 70
     0
  9
$ATTMODE
 70
     1
  9
$TEXTSIZE
 40
0.2
  9
$TRACEWID
 40
0.05
  9
$TEXTSTYLE
  7
STANDARD
  9
$CLAYER
  8
0
  9
$CELTYPE
  6
CONTINUOUS
  9
$CECOLOR
 62
   256
  9
$CELTSCALE
 40
1.0
  9
$DELOBJ
 70
     1
  9
$DISPSILH
 70
     0
  9
$DIMSCALE
 40
2.0
  9
$DIMASZ
 40
0.18
  9
$DIMEXO
 40
0.0625
  9
$DIMDLI
 40
0.38
  9
$DIMRND
 40
0.0
  9
$DIMDLE
 40
0.0
  9
$DIMEXE
 40
0.18
  9
$DIMTP
 40
0.0
  9
$DIMTM
 40
0.0
  9
$DIMTXT
 40
0.18
  9
$DIMCEN
 40
0.09
  9
$DIMTSZ
 40
0.0
  9
$DIMTOL
 70
     0
  9
$DIMLIM
 70
     0
  9
$DIMTIH
 70
     1
  9
$DIMTOH
 70
     1
  9
$DIMSE1
 70
     0
  9
$DIMSE2
 70
     0
  9
$DIMTAD
 70
     1
  9
$DIMZIN
 70
     0
  9
$DIMBLK
  1

  9
$DIMASO
 70
     1
  9
$DIMSHO
 70
     1
  9
$DIMPOST
  1

  9
$DIMAPOST
  1

  9
$DIMALT
 70
     0
  9
$DIMALTD
 70
     2
  9
$DIMALTF
 40
25.4
  9
$DIMLFAC
 40
1.0
  9
$DIMTOFL
 70
     0
  9
$DIMTVP
 40
0.0
  9
$DIMTIX
 70
     0
  9
$DIMSOXD
 70
     0
  9
$DIMSAH
 70
     0
  9
$DIMBLK1
  1

  9
$DIMBLK2
  1

  9
$DIMSTYLE
  2
STANDARD
  9
$DIMCLRD
 70
     0
  9
$DIMCLRE
 70
     0
  9
$DIMCLRT
 70
     0
  9
$DIMTFAC
 40
1.0
  9
$DIMGAP
 40
0.09
  9
$DIMJUST
 70
     0
  9
$DIMSD1
 70
     0
  9
$DIMSD2
 70
     0
  9
$DIMTOLJ
 70
     1
  9
$DIMTZIN
 70
     0
  9
$DIMALTZ
 70
     0
  9
$DIMALTTZ
 70
     0
  9
$DIMFIT
 70
     3
  9
$DIMUPT
 70
     0
  9
$DIMUNIT
 70
     2
  9
$DIMDEC
 70
     4
  9
$DIMTDEC
 70
     4
  9
$DIMALTU
 70
     2
  9
$DIMALTTD
 70
     2
  9
$DIMTXSTY
  7
STANDARD
  9
$DIMAUNIT
 70
     0
  9
$LUNITS
 70
     2
  9
$LUPREC
 70
     4
  9
$SKETCHINC
 40
0.1
  9
$FILLETRAD
 40
0.0
  9
$AUNITS
 70
     0
  9
$AUPREC
 70
     0
  9
$MENU
  1
acad
  9
$ELEVATION
 40
0.0
  9
$PELEVATION
 40
0.0
  9
$THICKNESS
 40
0.0
  9
$LIMCHECK
 70
     0
  9
$BLIPMODE
 70
     1
  9
$CHAMFERA
 40
0.0
  9
$CHAMFERB
 40
0.0
  9
$CHAMFERC
 40
0.0
  9
$CHAMFERD
 40
0.0
  9
$SKPOLY
 70
     0
  9
$TDCREATE
 40
2450473.000000000
  9
$TDUPDATE
 40
0.000000000
  9
$TDINDWG
 40
0.0000000000
  9
$TDUSRTIMER
 40
0.0000000000
  9
$USRTIMER
 70
     1
  9
$ANGBASE
 50
0.0
  9
$ANGDIR
 70
     0
  9
$PDMODE
 70
     0
  9
$PDSIZE
 40
0.0
  9
$PLINEWID
 40
0.0
  9
$COORDS
 70
     0
  9
$SPLFRAME
 70
     0
  9
$SPLINETYPE
 70
     6
  9
$SPLINESEGS
 70
     8
  9
$ATTDIA
 70
     0
  9
$ATTREQ
 70
     1
  9
$HANDLING
 70
     1
  9
$HANDSEED
  5
50E
  9
$SURFTAB1
 70
     6
  9
$SURFTAB2
 70
     6
  9
$SURFTYPE
 70
     6
  9
$SURFU
 70
     6
  9
$SURFV
 70
     6
  9
$UCSNAME
  2

  9
$UCSORG
 10
0.0
 20
0.0
 30
0.0
  9
$UCSXDIR
 10
1.0
 20
0.0
 30
0.0
  9
$UCSYDIR
 10
0.0
 20
1.0
 30
0.0
  9
$PUCSNAME
  2

  9
$PUCSORG
 10
0.0
 20
0.0
 30
0.0
  9
$PUCSXDIR
 10
1.0
 20
0.0
 30
0.0
  9
$PUCSYDIR
 10
0.0
 20
1.0
 30
0.0
  9
$USERI1
 70
     0
  9
$USERI2
 70
     0
  9
$USERI3
 70
     0
  9
$USERI4
 70
     0
  9
$USERI5
 70
     0
  9
$USERR1
 40
0.0
  9
$USERR2
 40
0.0
  9
$USERR3
 40
0.0
  9
$USERR4
 40
0.0
  9
$USERR5
 40
0.0
  9
$WORLDVIEW
 70
     1
  9
$SHADEDGE
 70
     3
  9
$SHADEDIF
 70
    70
  9
$TILEMODE
 70
     1
  9
$MAXACTVP
 70
    16
  9
$PINSBASE
 10
0.0
 20
0.0
 30
0.0
  9
$PLIMCHECK
 70
     0
  9
$PEXTMIN
 10
1.000000E+20
 20
1.000000E+20
 30
1.000000E+20
  9
$PEXTMAX
 10
-1.000000E+20
 20
-1.000000E+20
 30
-1.000000E+20
  9
$PLIMMIN
 10
0.0
 20
0.0
  9
$PLIMMAX
 10
12.0
 20
9.0
  9
$UNITMODE
 70
     0
  9
$VISRETAIN
 70
     0
  9
$PLINEGEN
 70
     1
  9
$PSLTSCALE
 70
     0
  9
$TREEDEPTH
 70
  3020
  9
$PICKSTYLE
 70
     1
  9
$CMLSTYLE
  2
STANDARD
  9
$CMLJUST
 70
     0
  9
$CMLSCALE
 40
1.0
  9
$SAVEIMAGES
 70
     0
  0
ENDSEC
  0
SECTION
  2
CLASSES
  0
CLASS
  1
LWPOLYLINE
  2
AcDbPolyline
  3
"AutoCAD"
 90
    32768
280
     0
281
     1
  0
CLASS
  1
IMAGE
  2
AcDbRasterImage
  3
ISM
 90
    32895
280
     0
281
     1
  0
CLASS
  1
OLE2FRAME
  2
AcDbOle2Frame
  3
""
 90
    32768
280
     0
281
     1
  0
CLASS
  1
HATCH
  2
AcDbHatch
  3
"ACAD_SEDONA"
 90
    32768
280
     0
281
     1
  0
CLASS
  1
DICTIONARYVAR
  2
AcDbDictionaryVar
  3
"AutoCAD"
 90
    32768
280
     0
281
     0
  0
CLASS
  1
RASTERVARIABLES
  2
AcDbRasterVariables
  3
ISM
 90
    32768
280
     0
281
     0
  0
CLASS
  1
IMAGEDEF
  2
AcDbRasterImageDef
  3
ISM
 90
    32768
280
     0
281
     0
  0
CLASS
  1
IMAGEDEF_REACTOR
  2
AcDbRasterImageDefReactor
  3
ISM
 90
    32769
280
     0
281
     0
  0
CLASS
  1
IDBUFFER
  2
AcDbIdBuffer
  3
"Acad"
 90
    32768
280
     0
281
     0
  0
CLASS
  1
SPATIAL_FILTER
  2
AcDbSpatialFilter
  3
"Acad"
 90
    32768
280
     0
281
     0
  0
CLASS
  1
XRECORD
  2
AcDbXrecord
  3
"<Built In>"
 90
    32768
280
     0
281
     0
  0
CLASS
  1
SORTENTSTABLE
  2
AcDbSortentsTable
  3
"AutoCAD"
 90
    32768
280
     0
281
     0
  0
CLASS
  1
LAYER_INDEX
  2
AcDbLayerIndex
  3
"Acad"
 90
    32768
280
     0
281
     0
  0
CLASS
  1
SPATIAL_INDEX
  2
AcDbSpatialIndex
  3
"Acad"
 90
    32768
280
     0
281
     0
  0
CLASS
  1
OBJECT_PTR
  2
CAseDLPNTableRecord
  3
"ASE-LPNTableRecord"
 90
    32769
280
     0
281
     0
  0
CLASS
  1
LAYOUT
  2
AcDbLayout
  3
"AutoCAD 2000"
 90
    32768
280
     0
281
     0
  0
CLASS
  1
PLOTSETTINGS
  2
AcDbPlotSettings
  3
"AutoCAD 2000"
 90
    32768
280
     0
281
     0
  0
CLASS
  1
ACDBDICTIONARYWDFLT
  2
AcDbDictionaryWithDefault
  3
"AutoCAD 2000"
 90
    32768
280
     0
281
     0
  0
CLASS
  1
ACDBPLACEHOLDER
  2
AcDbPlaceHolder
  3
"AutoCAD 2000"
 90
    32768
280
     0
281
     0
  0
CLASS
  1
VBA_PROJECT
  2
AcDbVbaProject
  3
"acadvba"
 90
    32768
280
     0
281
     0
  0
CLASS
  1
WIPEOUT
  2
AcDbWipeout
  3
WipeOut|AutoCAD Express Tool|expresstools@autodesk.com
 90
    32895
280
     0
281
     1
  0
CLASS
  1
WIPEOUTVARIABLES
  2
AcDbWipeoutVariables
  3
WipeOut|AutoCAD Express Tool|expresstools@autodesk.com
 90
    32768
280
     0
281
     0
  0
CLASS
  1
RTEXT
  2
RText
  3
RText|AutoCAD Express Tool|expresstools@autodesk.com
 90
    32768
280
     0
281
     1
  0
CLASS
  1
ARCALIGNEDTEXT
  2
AcDbArcAlignedText
  3
ATEXT|AutoCAD Express Tool|expresstools@autodesk.com
 90
    32768
280
     0
281
     1
  0
ENDSEC
  0
SECTION
  2
TABLES
  0
TABLE
  2
VPORT
  5
6
100
AcDbSymbolTable
 70
     1
  0
VPORT
  5
1C
100
AcDbSymbolTableRecord
100
AcDbViewportTableRecord
  2
*ACTIVE
 70
     0
 10
0.0
 20
0.0
 11
1.0
 21
1.0
 12
0.0
 22
0.0
 13
0.0
 23
0.0
 14
1.0
 24
1.0
 15
0.0
 25
0.0
 16
0.0
 26
0.0
 36
1.0
 17
0.0
 27
0.0
 37
0.0
 40
594.0
 41
1.414141
 42
50.0
 43
0.0
 44
0.0
 50
0.0
 51
0.0
 71
     0
 72
   500
 73
     1
 74
     1
 75
     0
 76
     0
 77
     0
 78
     0
  0
ENDTAB
  0
TABLE
  2
LTYPE
  5
3
100
AcDbSymbolTable
 70
     9
  0
LTYPE
  5
C
100
AcDbSymbolTableRecord
100
AcDbLinetypeTableRecord
  2
BYBLOCK
 70
    64
  3

 72
    65
 73
     0
 40
0.0
  0
LTYPE
  5
D
100
AcDbSymbolTableRecord
100
AcDbLinetypeTableRecord
  2
BYLAYER
 70
    64
  3

 72
    65
 73
     0
 40
0.0
  0
LTYPE
  5
E
100
AcDbSymbolTableRecord
100
AcDbLinetypeTableRecord
  2
CONTINUOUS
 70
     0
  3
Solid line
 72
    65
 73
     0
 40
0.0
  0
LTYPE
  5
F
100
AcDbSymbolTableRecord
100
AcDbLinetypeTableRecord
  2
DASHED
 70
     0
  3
__ __ __ __ __ __ __ __ __ __ __ __ __ __ __
 72
    65
 73
     2
 40
2.0
 49
1.2
 74
     0
 49
-0.8
 74
     0
  0
LTYPE
  5
10
100
AcDbSymbolTableRecord
100
AcDbLinetypeTableRecord
  2
CENTER
 70
     0
  3
____ _ ____ _ ____ _ ____ _ ____ _ ____ _ ____
 72
    65
 73
     4
 40
12.0
 49
9.0
 74
     0
 49
-1.0
 74
     0
 49
1.0
 74
     0
 49
-1.0
 74
     0
  0
LTYPE
  5
11
100
AcDbSymbolTableRecord
100
AcDbLinetypeTableRecord
  2
HIDDEN
 70
     0
  3
_ _ _ _ _ _ _ _ _ _ _ _ _ _ _ _ _ _ _ _ _ _ _
 72
    65
 73
     2
 40
3.2
 49
2.4
 74
     0
 49
-0.8
 74
     0
  0
LTYPE
  5
12
100
AcDbSymbolTableRecord
100
AcDbLinetypeTableRecord
  2
PHANTOM
 70
     0
  3
_____ _ _ _____ _ _ _____ _ _ _____ _ _ _____
 72
    65
 73
     6
 40
13.5
 49
9.0
 74
     0
 49
-1.0
 74
     0
 49
1.0
 74
     0
 49
-0.5
 74
     0
 49
1.0
 74
     0
 49
-1.0
 74
     0
  0
LTYPE
  5
13
100
AcDbSymbolTableRecord
100
AcDbLinetypeTableRecord
  2
DOT
 70
     0
  3
...............................................
 72
    65
 73
     2
 40
1.0
 49
0.5
 74
     0
 49
-0.5
 74
     0
  0
LTYPE
  5
14
100
AcDbSymbolTableRecord
100
AcDbLinetypeTableRecord
  2
DASHDOT
 70
     0
  3
__ . __ . __ . __ . __ . __ . __ . __ . __ . __
 72
    65
 73
     4
 40
8.0
 49
5.0
 74
     0
 49
-1.0
 74
     0
 49
1.0
 74
     0
 49
-1.0
 74
     0
  0
ENDTAB
  0
TABLE
  2
LAYER
  5
1
100
AcDbSymbolTable
 70
     7
  0
LAYER
  5
15
100
AcDbSymbolTableRecord
100
AcDbLayerTableRecord
  2
0
 70
     0
 62
     7
  6
CONTINUOUS
  0
LAYER
  5
16
100
AcDbSymbolTableRecord
100
AcDbLayerTableRecord
  2
1
 70
     0
 62
     7
  6
CONTINUOUS
  0
LAYER
  5
17
100
AcDbSymbolTableRecord
100
AcDbLayerTableRecord
  2
2
 70
     0
 62
     7
  6
CONTINUOUS
  0
LAYER
  5
18
100
AcDbSymbolTableRecord
100
AcDbLayerTableRecord
  2
5
 70
     0
 62
     7
  6
CONTINUOUS
  0
LAYER
  5
19
100
AcDbSymbolTableRecord
100
AcDbLayerTableRecord
  2
13
 70
     0
 62
     7
  6
CONTINUOUS
  0
LAYER
  5
1A
100
AcDbSymbolTableRecord
100
AcDbLayerTableRecord
  2
18
 70
     0
 62
     7
  6
CONTINUOUS
  0
LAYER
  5
1B
100
AcDbSymbolTableRecord
100
AcDbLayerTableRecord
  2
20
 70
     0
 62
     7
  6
CONTINUOUS
  0
ENDTAB
  0
TABLE
  2
STYLE
  5
2
100
AcDbSymbolTable
 70
     1
  0
STYLE
  5
1E
100
AcDbSymbolTableRecord
100
AcDbTextStyleTableRecord
  2
STANDARD
 70
    64
 40
0.0
 41
1.0
 50
0.0
 71
     0
 42
1.0
  3
txt
  4
BIGFONT
  0
ENDTAB
  0
TABLE
  2
VIEW
  5
4
100
AcDbSymbolTable
 70
     0
  0
ENDTAB
  0
TABLE
  2
UCS
  5
5
100
AcDbSymbolTable
 70
     0
  0
ENDTAB
  0
TABLE
  2
APPID
  5
7
100
AcDbSymbolTable
 70
     1
  0
APPID
  5
1D
100
AcDbSymbolTableRecord
100
AcDbRegAppTableRecord
  2
ACAD
 70
     0
  0
ENDTAB
  0
TABLE
  2
DIMSTYLE
  5
8
100
AcDbSymbolTable
 70
     1
  0
DIMSTYLE
105
2E
100
AcDbSymbolTableRecord
100
AcDbDimStyleTableRecord
  2
STANDARD
 70
     0
  3

  4

  5

  6

  7

 40
2.0
 41
0.18
 42
0.0625
 43
0.38
 44
0.18
 45
0.0
 46
0.0
 47
0.0
 48
0.0
 71
     0
 72
     0
 73
     1
 74
     1
 75
     0
 76
     0
 77
     1
 78
     0
140
0.18
141
0.09
142
0.0
143
25.4
144
1.0
145
0.0
146
1.0
147
0.09
170
     0
171
     2
172
     0
173
     0
174
     0
175
     0
176
     0
177
     0
178
     0
270
     2
271
     4
272
     4
273
     2
274
     2
275
     0
280
     0
281
     0
282
     0
283
     1
284
     0
285
     0
286
     0
287
     3
288
     0
340
1E
  0
ENDTAB
  0
TABLE
  2
BLOCK_RECORD
  5
29
100
AcDbSymbolTable
 70
     8
  0
BLOCK_RECORD
  5
27
100
AcDbSymbolTableRecord
100
AcDbBlockTableRecord
  2
*MODEL_SPACE
  0
BLOCK_RECORD
  5
28
100
AcDbSymbolTableRecord
100
AcDbBlockTableRecord
  2
*PAPER_SPACE
  0
BLOCK_RECORD
  5
1F
100
AcDbSymbolTableRecord
100
AcDbBlockTableRecord
  2
*D0
  0
BLOCK_RECORD
  5
20
100
AcDbSymbolTableRecord
100
AcDbBlockTableRecord
  2
*D1
  0
BLOCK_RECORD
  5
21
100
AcDbSymbolTableRecord
100
AcDbBlockTableRecord
  2
*D2
  0
BLOCK_RECORD
  5
22
100
AcDbSymbolTableRecord
100
AcDbBlockTableRecord
  2
*D3
  0
BLOCK_RECORD
  5
23
100
AcDbSymbolTableRecord
100
AcDbBlockTableRecord
  2
*D4
  0
BLOCK_RECORD
  5
24
100
AcDbSymbolTableRecord
100
AcDbBlockTableRecord
  2
*D5
  0
BLOCK_RECORD
  5
25
100
AcDbSymbolTableRecord
100
AcDbBlockTableRecord
  2
*D6
  0
BLOCK_RECORD
  5
26
100
AcDbSymbolTableRecord
100
AcDbBlockTableRecord
  2
*D7
  0
ENDTAB
  0
ENDSEC
  0
SECTION
  2
BLOCKS
  0
BLOCK
  5
2A
100
AcDbEntity
  8
0
100
AcDbBlockBegin
  2
*MODEL_SPACE
 70
     0
 10
0.0
 20
0.0
 30
0.0
  3
*MODEL_SPACE
  1

  0
ENDBLK
  5
2B
100
AcDbEntity
  8
0
100
AcDbBlockEnd
  0
BLOCK
  5
2C
100
AcDbEntity
 67
     1
  8
0
100
AcDbBlockBegin
  2
*PAPER_SPACE
 70
     0
 10
0.0
 20
0.0
 30
0.0
  3
*PAPER_SPACE
  1

  0
ENDBLK
  5
2D
100
AcDbEntity
 67
     1
  8
0
100
AcDbBlockEnd
  0
BLOCK
  5
4A7
100
AcDbEntity
  8
5
100
AcDbBlockBegin
  2
*D0
 70
     1
 10
0.0
 20
0.0
 30
0.0
  3
*D0
  1

  0
TEXT
  5
4A8
100
AcDbEntity
  8
5
 62
     2
100
AcDbText
 10
-5.864883
 20
10.624484
 30
0.0
 40
6.6
  1
24
 50
90.0
 41
1.4
 72
     5
 11
-5.864883
 21
18.016484
 31
0.0
100
AcDbText
  0
LINE
  5
4A9
100
AcDbEntity
  8
5
 62
     2
100
AcDbLine
 10
29.649359
 20
3.244484
 30
0.0
 11
-6.864883
 21
3.244484
 31
0.0
  0
LINE
  5
4AA
100
AcDbEntity
  8
5
 62
     2
100
AcDbLine
 10
-4.864883
 20
3.244484
 30
0.0
 11
-3.829607
 21
7.108187
 31
0.0
  0
LINE
  5
4AB
100
AcDbEntity
  8
5
 62
     2
100
AcDbLine
 10
-4.864883
 20
3.244484
 30
0.0
 11
-5.90016
 21
7.108187
 31
0.0
  0
LINE
  5
4AC
100
AcDbEntity
  8
5
 62
     2
100
AcDbLine
 10
-3.829607
 20
7.108187
 30
0.0
 11
-5.90016
 21
7.108187
 31
0.0
  0
LINE
  5
4AD
100
AcDbEntity
  8
5
 62
     2
100
AcDbLine
 10
-4.864883
 20
3.244484
 30
0.0
 11
-4.864883
 21
27.244484
 31
0.0
  0
LINE
  5
4AE
100
AcDbEntity
  8
5
 62
     2
100
AcDbLine
 10
-4.864883
 20
27.244484
 30
0.0
 11
-5.90016
 21
23.380781
 31
0.0
  0
LINE
  5
4AF
100
AcDbEntity
  8
5
 62
     2
100
AcDbLine
 10
-4.864883
 20
27.244484
 30
0.0
 11
-3.829607
 21
23.380781
 31
0.0
  0
LINE
  5
4B0
100
AcDbEntity
  8
5
 62
     2
100
AcDbLine
 10
-5.90016
 20
23.380781
 30
0.0
 11
-3.829607
 21
23.380781
 31
0.0
  0
LINE
  5
4B1
100
AcDbEntity
  8
5
 62
     2
100
AcDbLine
 10
22.479799
 20
27.244484
 30
0.0
 11
-6.864883
 21
27.244484
 31
0.0
  0
ENDBLK
  5
4B2
100
AcDbEntity
  8
5
100
AcDbBlockEnd
  0
BLOCK
  5
4B3
100
AcDbEntity
  8
5
100
AcDbBlockBegin
  2
*D1
 70
     1
 10
0.0
 20
0.0
 30
0.0
  3
*D1
  1

  0
TEXT
  5
4B4
100
AcDbEntity
  8
5
 62
     2
100
AcDbText
 10
-77.092659
 20
20.314484
 30
0.0
 40
6.6
  1
%%c70
 50
90.0
 41
1.4
 72
     5
 11
-77.092659
 21
32.326484
 31
0.0
100
AcDbText
  0
LINE
  5
4B5
100
AcDbEntity
  8
5
 62
     2
100
AcDbLine
 10
-109.850641
 20
62.244484
 30
0.0
 11
-74.092659
 21
62.244484
 31
0.0
  0
LINE
  5
4B6
100
AcDbEntity
  8
5
 62
     2
100
AcDbLine
 10
-76.092659
 20
62.244484
 30
0.0
 11
-77.127935
 21
58.380781
 31
0.0
  0
LINE
  5
4B7
100
AcDbEntity
  8
5
 62
     2
100
AcDbLine
 10
-76.092659
 20
62.244484
 30
0.0
 11
-75.057383
 21
58.380781
 31
0.0
  0
LINE
  5
4B8
100
AcDbEntity
  8
5
 62
     2
100
AcDbLine
 10
-77.127935
 20
58.380781
 30
0.0
 11
-75.057383
 21
58.380781
 31
0.0
  0
LINE
  5
4B9
100
AcDbEntity
  8
5
 62
     2
100
AcDbLine
 10
-76.092659
 20
62.244484
 30
0.0
 11
-76.092659
 21
-7.755516
 31
0.0
  0
LINE
  5
4BA
100
AcDbEntity
  8
5
 62
     2
100
AcDbLine
 10
-76.092659
 20
-7.755516
 30
0.0
 11
-75.057383
 21
-3.891813
 31
0.0
  0
LINE
  5
4BB
100
AcDbEntity
  8
5
 62
     2
100
AcDbLine
 10
-76.092659
 20
-7.755516
 30
0.0
 11
-77.127935
 21
-3.891813
 31
0.0
  0
LINE
  5
4BC
100
AcDbEntity
  8
5
 62
     2
100
AcDbLine
 10
-75.057383
 20
-3.891813
 30
0.0
 11
-77.127935
 21
-3.891813
 31
0.0
  0
LINE
  5
4BD
100
AcDbEntity
  8
5
 62
     2
100
AcDbLine
 10
-109.850641
 20
-7.755516
 30
0.0
 11
-74.092659
 21
-7.755516
 31
0.0
  0
ENDBLK
  5
4BE
100
AcDbEntity
  8
5
100
AcDbBlockEnd
  0
BLOCK
  5
4BF
100
AcDbEntity
  8
5
100
AcDbBlockBegin
  2
*D2
 70
     1
 10
0.0
 20
0.0
 30
0.0
  3
*D2
  1

  0
TEXT
  5
4C0
100
AcDbEntity
  8
5
 62
     2
100
AcDbText
 10
-156.470641
 20
234.712646
 30
0.0
 40
6.6
  1
83
 41
1.4
 72
     5
 11
-149.078641
 21
234.712646
 31
0.0
100
AcDbText
  0
LINE
  5
4C1
100
AcDbEntity
  8
5
 62
     2
100
AcDbLine
 10
-193.350641
 20
211.902495
 30
0.0
 11
-193.350641
 21
235.712646
 31
0.0
  0
LINE
  5
4C2
100
AcDbEntity
  8
5
 62
     2
100
AcDbLine
 10
-193.350641
 20
233.712646
 30
0.0
 11
-189.486938
 21
232.67737
 31
0.0
  0
LINE
  5
4C3
100
AcDbEntity
  8
5
 62
     2
100
AcDbLine
 10
-193.350641
 20
233.712646
 30
0.0
 11
-189.486938
 21
234.747923
 31
0.0
  0
LINE
  5
4C4
100
AcDbEntity
  8
5
 62
     2
100
AcDbLine
 10
-189.486938
 20
232.67737
 30
0.0
 11
-189.486938
 21
234.747923
 31
0.0
  0
LINE
  5
4C5
100
AcDbEntity
  8
5
 62
     2
100
AcDbLine
 10
-193.350641
 20
233.712646
 30
0.0
 11
-110.350641
 21
233.712646
 31
0.0
  0
LINE
  5
4C6
100
AcDbEntity
  8
5
 62
     2
100
AcDbLine
 10
-110.350641
 20
233.712646
 30
0.0
 11
-114.214345
 21
234.747923
 31
0.0
  0
LINE
  5
4C7
100
AcDbEntity
  8
5
 62
     2
100
AcDbLine
 10
-110.350641
 20
233.712646
 30
0.0
 11
-114.214345
 21
232.67737
 31
0.0
  0
LINE
  5
4C8
100
AcDbEntity
  8
5
 62
     2
100
AcDbLine
 10
-114.214345
 20
234.747923
 30
0.0
 11
-114.214345
 21
232.67737
 31
0.0
  0
LINE
  5
4C9
100
AcDbEntity
  8
5
 62
     2
100
AcDbLine
 10
-110.350641
 20
214.058521
 30
0.0
 11
-110.350641
 21
235.712646
 31
0.0
  0
ENDBLK
  5
4CA
100
AcDbEntity
  8
5
100
AcDbBlockEnd
  0
BLOCK
  5
4CB
100
AcDbEntity
  8
5
100
AcDbBlockBegin
  2
*D3
 70
     1
 10
0.0
 20
0.0
 30
0.0
  3
*D3
  1

  0
TEXT
  5
4CC
100
AcDbEntity
  8
5
 62
     2
100
AcDbText
 10
-5.864883
 20
-79.185516
 30
0.0
 40
6.6
  1
151
 50
90.0
 41
1.4
 72
     5
 11
-5.864883
 21
-67.173516
 31
0.0
100
AcDbText
  0
LINE
  5
4CD
100
AcDbEntity
  8
5
 62
     2
100
AcDbLine
 10
27.243649
 20
-147.755516
 30
0.0
 11
-6.864883
 21
-147.755516
 31
0.0
  0
LINE
  5
4CE
100
AcDbEntity
  8
5
 62
     2
100
AcDbLine
 10
-4.864883
 20
-147.755516
 30
0.0
 11
-3.829607
 21
-143.891813
 31
0.0
  0
LINE
  5
4CF
100
AcDbEntity
  8
5
 62
     2
100
AcDbLine
 10
-4.864883
 20
-147.755516
 30
0.0
 11
-5.90016
 21
-143.891813
 31
0.0
  0
LINE
  5
4D0
100
AcDbEntity
  8
5
 62
     2
100
AcDbLine
 10
-3.829607
 20
-143.891813
 30
0.0
 11
-5.90016
 21
-143.891813
 31
0.0
  0
LINE
  5
4D1
100
AcDbEntity
  8
5
 62
     2
100
AcDbLine
 10
-4.864883
 20
-147.755516
 30
0.0
 11
-4.864883
 21
3.244484
 31
0.0
  0
LINE
  5
4D2
100
AcDbEntity
  8
5
 62
     2
100
AcDbLine
 10
-4.864883
 20
3.244484
 30
0.0
 11
-5.90016
 21
-0.619219
 31
0.0
  0
LINE
  5
4D3
100
AcDbEntity
  8
5
 62
     2
100
AcDbLine
 10
-4.864883
 20
3.244484
 30
0.0
 11
-3.829607
 21
-0.619219
 31
0.0
  0
LINE
  5
4D4
100
AcDbEntity
  8
5
 62
     2
100
AcDbLine
 10
-5.90016
 20
-0.619219
 30
0.0
 11
-3.829607
 21
-0.619219
 31
0.0
  0
LINE
  5
4D5
100
AcDbEntity
  8
5
 62
     2
100
AcDbLine
 10
29.649359
 20
3.244484
 30
0.0
 11
-6.864883
 21
3.244484
 31
0.0
  0
ENDBLK
  5
4D6
100
AcDbEntity
  8
5
100
AcDbBlockEnd
  0
BLOCK
  5
4D7
100
AcDbEntity
  8
5
100
AcDbBlockBegin
  2
*D4
 70
     1
 10
0.0
 20
0.0
 30
0.0
  3
*D4
  1

  0
TEXT
  5
4D8
100
AcDbEntity
  8
5
 62
     2
100
AcDbText
 10
-5.864883
 20
-191.325516
 30
0.0
 40
6.6
  1
78
 50
90.0
 41
1.4
 72
     5
 11
-5.864883
 21
-183.933516
 31
0.0
100
AcDbText
  0
LINE
  5
4D9
100
AcDbEntity
  8
5
 62
     2
100
AcDbLine
 10
59.649359
 20
-225.655516
 30
0.0
 11
-6.864883
 21
-225.655516
 31
0.0
  0
LINE
  5
4DA
100
AcDbEntity
  8
5
 62
     2
100
AcDbLine
 10
-4.864883
 20
-225.655516
 30
0.0
 11
-3.829607
 21
-221.791813
 31
0.0
  0
LINE
  5
4DB
100
AcDbEntity
  8
5
 62
     2
100
AcDbLine
 10
-4.864883
 20
-225.655516
 30
0.0
 11
-5.90016
 21
-221.791813
 31
0.0
  0
LINE
  5
4DC
100
AcDbEntity
  8
5
 62
     2
100
AcDbLine
 10
-3.829607
 20
-221.791813
 30
0.0
 11
-5.90016
 21
-221.791813
 31
0.0
  0
LINE
  5
4DD
100
AcDbEntity
  8
5
 62
     2
100
AcDbLine
 10
-4.864883
 20
-225.655516
 30
0.0
 11
-4.864883
 21
-147.755516
 31
0.0
  0
LINE
  5
4DE
100
AcDbEntity
  8
5
 62
     2
100
AcDbLine
 10
-4.864883
 20
-147.755516
 30
0.0
 11
-5.90016
 21
-151.619219
 31
0.0
  0
LINE
  5
4DF
100
AcDbEntity
  8
5
 62
     2
100
AcDbLine
 10
-4.864883
 20
-147.755516
 30
0.0
 11
-3.829607
 21
-151.619219
 31
0.0
  0
LINE
  5
4E0
100
AcDbEntity
  8
5
 62
     2
100
AcDbLine
 10
-5.90016
 20
-151.619219
 30
0.0
 11
-3.829607
 21
-151.619219
 31
0.0
  0
LINE
  5
4E1
100
AcDbEntity
  8
5
 62
     2
100
AcDbLine
 10
27.243649
 20
-147.755516
 30
0.0
 11
-6.864883
 21
-147.755516
 31
0.0
  0
ENDBLK
  5
4E2
100
AcDbEntity
  8
5
100
AcDbBlockEnd
  0
BLOCK
  5
4E3
100
AcDbEntity
  8
5
100
AcDbBlockBegin
  2
*D5
 70
     1
 10
0.0
 20
0.0
 30
0.0
  3
*D5
  1

  0
TEXT
  5
4E4
100
AcDbEntity
  8
5
 62
     2
100
AcDbText
 10
62.029359
 20
-251.294403
 30
0.0
 40
6.6
  1
46
 41
1.4
 72
     5
 11
69.421359
 21
-251.294403
 31
0.0
100
AcDbText
  0
LINE
  5
4E5
100
AcDbEntity
  8
5
 62
     2
100
AcDbLine
 10
43.649359
 20
-206.255516
 30
0.0
 11
43.649359
 21
-254.294403
 31
0.0
  0
LINE
  5
4E6
100
AcDbEntity
  8
5
 62
     2
100
AcDbLine
 10
43.649359
 20
-252.294403
 30
0.0
 11
47.513062
 21
-253.329679
 31
0.0
  0
LINE
  5
4E7
100
AcDbEntity
  8
5
 62
     2
100
AcDbLine
 10
43.649359
 20
-252.294403
 30
0.0
 11
47.513062
 21
-251.259127
 31
0.0
  0
LINE
  5
4E8
100
AcDbEntity
  8
5
 62
     2
100
AcDbLine
 10
47.513062
 20
-253.329679
 30
0.0
 11
47.513062
 21
-251.259127
 31
0.0
  0
LINE
  5
4E9
100
AcDbEntity
  8
5
 62
     2
100
AcDbLine
 10
43.649359
 20
-252.294403
 30
0.0
 11
89.649359
 21
-252.294403
 31
0.0
  0
LINE
  5
4EA
100
AcDbEntity
  8
5
 62
     2
100
AcDbLine
 10
89.649359
 20
-252.294403
 30
0.0
 11
85.785655
 21
-251.259127
 31
0.0
  0
LINE
  5
4EB
100
AcDbEntity
  8
5
 62
     2
100
AcDbLine
 10
89.649359
 20
-252.294403
 30
0.0
 11
85.785655
 21
-253.329679
 31
0.0
  0
LINE
  5
4EC
100
AcDbEntity
  8
5
 62
     2
100
AcDbLine
 10
85.785655
 20
-251.259127
 30
0.0
 11
85.785655
 21
-253.329679
 31
0.0
  0
LINE
  5
4ED
100
AcDbEntity
  8
5
 62
     2
100
AcDbLine
 10
89.649359
 20
-206.255516
 30
0.0
 11
89.649359
 21
-254.294403
 31
0.0
  0
ENDBLK
  5
4EE
100
AcDbEntity
  8
5
100
AcDbBlockEnd
  0
BLOCK
  5
4EF
100
AcDbEntity
  8
5
100
AcDbBlockBegin
  2
*D6
 70
     1
 10
0.0
 20
0.0
 30
0.0
  3
*D6
  1

  0
TEXT
  5
4F0
100
AcDbEntity
  8
5
 62
     2
100
AcDbText
 10
-77.092659
 20
163.622823
 30
0.0
 40
6.6
  1
28
 50
90.0
 41
1.4
 72
     5
 11
-77.092659
 21
171.014822
 31
0.0
100
AcDbText
  0
LINE
  5
4F1
100
AcDbEntity
  8
5
 62
     2
100
AcDbLine
 10
-119.026062
 20
154.242823
 30
0.0
 11
-74.092659
 21
154.242823
 31
0.0
  0
LINE
  5
4F2
100
AcDbEntity
  8
5
 62
     2
100
AcDbLine
 10
-76.092659
 20
154.242823
 30
0.0
 11
-75.057383
 21
158.106526
 31
0.0
  0
LINE
  5
4F3
100
AcDbEntity
  8
5
 62
     2
100
AcDbLine
 10
-76.092659
 20
154.242823
 30
0.0
 11
-77.127935
 21
158.106526
 31
0.0
  0
LINE
  5
4F4
100
AcDbEntity
  8
5
 62
     2
100
AcDbLine
 10
-75.057383
 20
158.106526
 30
0.0
 11
-77.127935
 21
158.106526
 31
0.0
  0
LINE
  5
4F5
100
AcDbEntity
  8
5
 62
     2
100
AcDbLine
 10
-76.092659
 20
154.242823
 30
0.0
 11
-76.092659
 21
182.242823
 31
0.0
  0
LINE
  5
4F6
100
AcDbEntity
  8
5
 62
     2
100
AcDbLine
 10
-76.092659
 20
182.242823
 30
0.0
 11
-77.127935
 21
178.379119
 31
0.0
  0
LINE
  5
4F7
100
AcDbEntity
  8
5
 62
     2
100
AcDbLine
 10
-76.092659
 20
182.242823
 30
0.0
 11
-75.057383
 21
178.379119
 31
0.0
  0
LINE
  5
4F8
100
AcDbEntity
  8
5
 62
     2
100
AcDbLine
 10
-77.127935
 20
178.379119
 30
0.0
 11
-75.057383
 21
178.379119
 31
0.0
  0
LINE
  5
4F9
100
AcDbEntity
  8
5
 62
     2
100
AcDbLine
 10
-100.746653
 20
182.242823
 30
0.0
 11
-74.092659
 21
182.242823
 31
0.0
  0
ENDBLK
  5
4FA
100
AcDbEntity
  8
5
100
AcDbBlockEnd
  0
BLOCK
  5
4FB
100
AcDbEntity
  8
5
100
AcDbBlockBegin
  2
*D7
 70
     1
 10
0.0
 20
0.0
 30
0.0
  3
*D7
  1

  0
TEXT
  5
4FC
100
AcDbEntity
  8
5
 62
     2
100
AcDbText
 10
-77.092659
 20
132.122823
 30
0.0
 40
6.6
  1
35
 50
90.0
 41
1.4
 72
     5
 11
-77.092659
 21
139.514822
 31
0.0
100
AcDbText
  0
LINE
  5
4FD
100
AcDbEntity
  8
5
 62
     2
100
AcDbLine
 10
-166.350641
 20
119.242823
 30
0.0
 11
-74.092659
 21
119.242823
 31
0.0
  0
LINE
  5
4FE
100
AcDbEntity
  8
5
 62
     2
100
AcDbLine
 10
-76.092659
 20
119.242823
 30
0.0
 11
-75.057383
 21
123.106526
 31
0.0
  0
LINE
  5
4FF
100
AcDbEntity
  8
5
 62
     2
100
AcDbLine
 10
-76.092659
 20
119.242823
 30
0.0
 11
-77.127935
 21
123.106526
 31
0.0
  0
LINE
  5
500
100
AcDbEntity
  8
5
 62
     2
100
AcDbLine
 10
-75.057383
 20
123.106526
 30
0.0
 11
-77.127935
 21
123.106526
 31
0.0
  0
LINE
  5
501
100
AcDbEntity
  8
5
 62
     2
100
AcDbLine
 10
-76.092659
 20
119.242823
 30
0.0
 11
-76.092659
 21
154.242823
 31
0.0
  0
LINE
  5
502
100
AcDbEntity
  8
5
 62
     2
100
AcDbLine
 10
-76.092659
 20
154.242823
 30
0.0
 11
-77.127935
 21
150.379119
 31
0.0
  0
LINE
  5
503
100
AcDbEntity
  8
5
 62
     2
100
AcDbLine
 10
-76.092659
 20
154.242823
 30
0.0
 11
-75.057383
 21
150.379119
 31
0.0
  0
LINE
  5
504
100
AcDbEntity
  8
5
 62
     2
100
AcDbLine
 10
-77.127935
 20
150.379119
 30
0.0
 11
-75.057383
 21
150.379119
 31
0.0
  0
LINE
  5
505
100
AcDbEntity
  8
5
 62
     2
100
AcDbLine
 10
-119.026062
 20
154.242823
 30
0.0
 11
-74.092659
 21
154.242823
 31
0.0
  0
ENDBLK
  5
506
100
AcDbEntity
  8
5
100
AcDbBlockEnd
  0
ENDSEC
  0
SECTION
  2
ENTITIES
  0
LINE
  5
2F
100
AcDbEntity
  8
1
  6
DASHED
100
AcDbLine
 10
-218.350641
 20
189.242823
 30
0.0
 11
-168.350641
 21
189.242823
 31
0.0
  0
LINE
  5
30
100
AcDbEntity
  8
1
  6
DASHED
100
AcDbLine
 10
-218.350641
 20
119.242823
 30
0.0
 11
-168.350641
 21
119.242823
 31
0.0
  0
LINE
  5
31
100
AcDbEntity
  8
1
  6
DASHED
100
AcDbLine
 10
-228.350641
 20
129.242823
 30
0.0
 11
-228.350641
 21
179.242823
 31
0.0
  0
LINE
  5
32
100
AcDbEntity
  8
1
  6
DASHED
100
AcDbLine
 10
-158.350641
 20
129.242823
 30
0.0
 11
-158.350641
 21
179.242823
 31
0.0
  0
ARC
  5
33
100
AcDbEntity
  8
1
  6
DASHED
100
AcDbCircle
 10
-218.350641
 20
129.242823
 30
0.0
 40
10.0
100
AcDbArc
 50
180.0
 51
270.0
  0
ARC
  5
34
100
AcDbEntity
  8
1
  6
DASHED
100
AcDbCircle
 10
-168.350641
 20
129.242823
 30
0.0
 40
10.0
100
AcDbArc
 50
270.0
 51
0.0
  0
ARC
  5
35
100
AcDbEntity
  8
1
  6
DASHED
100
AcDbCircle
 10
-168.350641
 20
179.242823
 30
0.0
 40
10.0
100
AcDbArc
 50
0.0
 51
90.0
  0
ARC
  5
36
100
AcDbEntity
  8
1
  6
DASHED
100
AcDbCircle
 10
-218.350641
 20
179.242823
 30
0.0
 40
10.0
100
AcDbArc
 50
90.0
 51
180.0
  0
CIRCLE
  5
37
100
AcDbEntity
  8
1
  6
DASHED
100
AcDbCircle
 10
-168.600641
 20
178.992823
 30
0.0
 40
4.5
  0
CIRCLE
  5
38
100
AcDbEntity
  8
1
  6
DASHED
100
AcDbCircle
 10
-168.600641
 20
129.492823
 30
0.0
 40
4.5
  0
CIRCLE
  5
39
100
AcDbEntity
  8
1
  6
DASHED
100
AcDbCircle
 10
-218.100641
 20
129.492823
 30
0.0
 40
4.5
  0
CIRCLE
  5
3A
100
AcDbEntity
  8
1
  6
DASHED
100
AcDbCircle
 10
-218.100641
 20
178.992823
 30
0.0
 40
4.5
  0
LINE
  5
3B
100
AcDbEntity
  8
1
  6
CENTER
 62
     2
100
AcDbLine
 10
-177.100641
 20
178.992823
 30
0.0
 11
-160.100641
 21
178.992823
 31
0.0
  0
LINE
  5
3C
100
AcDbEntity
  8
1
  6
CENTER
 62
     2
100
AcDbLine
 10
-168.600641
 20
170.492823
 30
0.0
 11
-168.600641
 21
187.492823
 31
0.0
  0
LINE
  5
3D
100
AcDbEntity
  8
1
  6
CENTER
 62
     2
100
AcDbLine
 10
-209.600641
 20
178.992823
 30
0.0
 11
-226.600641
 21
178.992823
 31
0.0
  0
LINE
  5
3E
100
AcDbEntity
  8
1
  6
CENTER
 62
     2
100
AcDbLine
 10
-218.100641
 20
170.492823
 30
0.0
 11
-218.100641
 21
187.492823
 31
0.0
  0
LINE
  5
3F
100
AcDbEntity
  8
1
  6
CENTER
 62
     2
100
AcDbLine
 10
-177.100641
 20
129.492823
 30
0.0
 11
-160.100641
 21
129.492823
 31
0.0
  0
LINE
  5
40
100
AcDbEntity
  8
1
  6
CENTER
 62
     2
100
AcDbLine
 10
-168.600641
 20
137.992823
 30
0.0
 11
-168.600641
 21
120.992823
 31
0.0
  0
LINE
  5
41
100
AcDbEntity
  8
1
  6
CENTER
 62
     2
100
AcDbLine
 10
-209.600641
 20
129.492823
 30
0.0
 11
-226.600641
 21
129.492823
 31
0.0
  0
LINE
  5
42
100
AcDbEntity
  8
1
  6
CENTER
 62
     2
100
AcDbLine
 10
-218.100641
 20
137.992823
 30
0.0
 11
-218.100641
 21
120.992823
 31
0.0
  0
LINE
  5
43
100
AcDbEntity
  8
1
  6
CENTER
 62
     2
100
AcDbLine
 10
-121.026062
 20
154.242823
 30
0.0
 11
-265.470497
 21
154.242823
 31
0.0
  0
LINE
  5
44
100
AcDbEntity
  8
1
  6
CENTER
 62
     2
100
AcDbLine
 10
-193.350641
 20
66.846763
 30
0.0
 11
-193.350641
 21
-236.687769
 31
0.0
  0
LINE
  5
45
100
AcDbEntity
  8
1
  6
CENTER
 62
     2
100
AcDbLine
 10
66.649359
 20
66.846763
 30
0.0
 11
66.649359
 21
-236.687769
 31
0.0
  0
LINE
  5
46
100
AcDbEntity
  8
1
  6
CENTER
 62
     2
100
AcDbLine
 10
-265.470497
 20
-147.755516
 30
0.0
 11
-121.026062
 21
-147.755516
 31
0.0
  0
LINE
  5
47
100
AcDbEntity
  8
1
  6
CENTER
 62
     2
100
AcDbLine
 10
29.243649
 20
-147.755516
 30
0.0
 11
103.252026
 21
-147.755516
 31
0.0
  0
LINE
  5
48
100
AcDbEntity
  8
1
100
AcDbLine
 10
-186.450641
 20
-221.655516
 30
0.0
 11
-174.250641
 21
-221.655516
 31
0.0
  0
LINE
  5
49
100
AcDbEntity
  8
1
100
AcDbLine
 10
-174.600641
 20
-221.655516
 30
0.0
 11
-174.600641
 21
-225.164768
 31
0.0
  0
LINE
  5
4A
100
AcDbEntity
  8
1
100
AcDbLine
 10
-174.600641
 20
-225.164768
 30
0.0
 11
-175.450641
 21
-225.655516
 31
0.0
  0
LINE
  5
4B
100
AcDbEntity
  8
1
100
AcDbLine
 10
-177.475641
 20
-221.655516
 30
0.0
 11
-177.475641
 21
-225.164768
 31
0.0
  0
ARC
  5
4C
100
AcDbEntity
  8
1
100
AcDbCircle
 10
-176.038141
 20
-223.316813
 30
0.0
 40
2.341227
100
AcDbArc
 50
232.121121
 51
307.878879
  0
ARC
  5
4D
100
AcDbEntity
  8
1
100
AcDbCircle
 10
-180.350641
 20
-217.03304
 30
0.0
 40
8.625
100
AcDbArc
 50
250.528777
 51
289.471219
  0
LINE
  5
4E
100
AcDbEntity
  8
1
100
AcDbLine
 10
-186.100641
 20
-221.655516
 30
0.0
 11
-186.100641
 21
-225.164768
 31
0.0
  0
LINE
  5
4F
100
AcDbEntity
  8
1
100
AcDbLine
 10
-186.100641
 20
-225.164768
 30
0.0
 11
-185.250641
 21
-225.655516
 31
0.0
  0
LINE
  5
50
100
AcDbEntity
  8
1
100
AcDbLine
 10
-185.250641
 20
-225.655516
 30
0.0
 11
-175.450641
 21
-225.655516
 31
0.0
  0
LINE
  5
51
100
AcDbEntity
  8
1
100
AcDbLine
 10
-183.225641
 20
-221.655516
 30
0.0
 11
-183.225641
 21
-225.164768
 31
0.0
  0
ARC
  5
52
100
AcDbEntity
  8
1
100
AcDbCircle
 10
-184.663141
 20
-223.316813
 30
0.0
 40
2.341227
100
AcDbArc
 50
232.121121
 51
307.878879
  0
LINE
  5
53
100
AcDbEntity
  8
1
100
AcDbLine
 10
-174.250641
 20
-220.155516
 30
0.0
 11
-174.250641
 21
-221.655516
 31
0.0
  0
LINE
  5
54
100
AcDbEntity
  8
1
100
AcDbLine
 10
-186.450641
 20
-221.655516
 30
0.0
 11
-186.450641
 21
-220.155516
 31
0.0
  0
LINE
  5
55
100
AcDbEntity
  8
1
100
AcDbLine
 10
-180.350641
 20
-221.655516
 30
0.0
 11
-180.850641
 21
-220.155516
 31
0.0
  0
LINE
  5
56
100
AcDbEntity
  8
1
100
AcDbLine
 10
-180.350641
 20
-220.155516
 30
0.0
 11
-179.850641
 21
-221.655516
 31
0.0
  0
LINE
  5
57
100
AcDbEntity
  8
1
100
AcDbLine
 10
-212.450641
 20
-221.655516
 30
0.0
 11
-200.250641
 21
-221.655516
 31
0.0
  0
LINE
  5
58
100
AcDbEntity
  8
1
100
AcDbLine
 10
-200.600641
 20
-221.655516
 30
0.0
 11
-200.600641
 21
-225.164768
 31
0.0
  0
LINE
  5
59
100
AcDbEntity
  8
1
100
AcDbLine
 10
-200.600641
 20
-225.164768
 30
0.0
 11
-201.450641
 21
-225.655516
 31
0.0
  0
LINE
  5
5A
100
AcDbEntity
  8
1
100
AcDbLine
 10
-203.475641
 20
-221.655516
 30
0.0
 11
-203.475641
 21
-225.164768
 31
0.0
  0
ARC
  5
5B
100
AcDbEntity
  8
1
100
AcDbCircle
 10
-202.038141
 20
-223.316813
 30
0.0
 40
2.341227
100
AcDbArc
 50
232.121121
 51
307.878879
  0
ARC
  5
5C
100
AcDbEntity
  8
1
100
AcDbCircle
 10
-206.350641
 20
-217.03304
 30
0.0
 40
8.625
100
AcDbArc
 50
250.528777
 51
289.471219
  0
LINE
  5
5D
100
AcDbEntity
  8
1
100
AcDbLine
 10
-212.100641
 20
-221.655516
 30
0.0
 11
-212.100641
 21
-225.164768
 31
0.0
  0
LINE
  5
5E
100
AcDbEntity
  8
1
100
AcDbLine
 10
-212.100641
 20
-225.164768
 30
0.0
 11
-211.250641
 21
-225.655516
 31
0.0
  0
LINE
  5
5F
100
AcDbEntity
  8
1
100
AcDbLine
 10
-211.250641
 20
-225.655516
 30
0.0
 11
-201.450641
 21
-225.655516
 31
0.0
  0
LINE
  5
60
100
AcDbEntity
  8
1
100
AcDbLine
 10
-209.225641
 20
-221.655516
 30
0.0
 11
-209.225641
 21
-225.164768
 31
0.0
  0
ARC
  5
61
100
AcDbEntity
  8
1
100
AcDbCircle
 10
-210.663141
 20
-223.316813
 30
0.0
 40
2.341227
100
AcDbArc
 50
232.121121
 51
307.878879
  0
LINE
  5
62
100
AcDbEntity
  8
1
100
AcDbLine
 10
-200.250641
 20
-220.155516
 30
0.0
 11
-200.250641
 21
-221.655516
 31
0.0
  0
LINE
  5
63
100
AcDbEntity
  8
1
100
AcDbLine
 10
-212.450641
 20
-221.655516
 30
0.0
 11
-212.450641
 21
-220.155516
 31
0.0
  0
LINE
  5
64
100
AcDbEntity
  8
1
100
AcDbLine
 10
-206.350641
 20
-221.655516
 30
0.0
 11
-206.850641
 21
-220.155516
 31
0.0
  0
LINE
  5
65
100
AcDbEntity
  8
1
100
AcDbLine
 10
-206.350641
 20
-220.155516
 30
0.0
 11
-205.850641
 21
-221.655516
 31
0.0
  0
LINE
  5
66
100
AcDbEntity
  8
1
100
AcDbLine
 10
71.649359
 20
-221.655516
 30
0.0
 11
71.649359
 21
-225.655516
 31
0.0
  0
LINE
  5
67
100
AcDbEntity
  8
1
100
AcDbLine
 10
66.649359
 20
-221.655516
 30
0.0
 11
66.649359
 21
-225.164768
 31
0.0
  0
ARC
  5
68
100
AcDbEntity
  8
1
100
AcDbCircle
 10
69.149359
 20
-219.042308
 30
0.0
 40
6.613208
100
AcDbArc
 50
247.788205
 51
292.211795
  0
LINE
  5
69
100
AcDbEntity
  8
1
100
AcDbLine
 10
61.649359
 20
-221.655516
 30
0.0
 11
61.649359
 21
-225.655516
 31
0.0
  0
LINE
  5
6A
100
AcDbEntity
  8
1
100
AcDbLine
 10
61.649359
 20
-225.655516
 30
0.0
 11
71.649359
 21
-225.655516
 31
0.0
  0
ARC
  5
6B
100
AcDbEntity
  8
1
100
AcDbCircle
 10
64.149359
 20
-219.042308
 30
0.0
 40
6.613208
100
AcDbArc
 50
247.788205
 51
292.211795
  0
LINE
  5
6C
100
AcDbEntity
  8
1
100
AcDbLine
 10
72.749359
 20
-220.155516
 30
0.0
 11
72.749359
 21
-221.655516
 31
0.0
  0
LINE
  5
6D
100
AcDbEntity
  8
1
100
AcDbLine
 10
72.749359
 20
-221.655516
 30
0.0
 11
60.549359
 21
-221.655516
 31
0.0
  0
LINE
  5
6E
100
AcDbEntity
  8
1
100
AcDbLine
 10
60.549359
 20
-221.655516
 30
0.0
 11
60.549359
 21
-220.155516
 31
0.0
  0
LINE
  5
6F
100
AcDbEntity
  8
1
100
AcDbLine
 10
-158.350641
 20
177.242823
 30
0.0
 11
-136.850641
 21
177.242823
 31
0.0
  0
LINE
  5
70
100
AcDbEntity
  8
1
100
AcDbLine
 10
-158.350641
 20
131.242823
 30
0.0
 11
-136.850641
 21
131.242823
 31
0.0
  0
LINE
  5
71
100
AcDbEntity
  8
1
100
AcDbLine
 10
-136.850641
 20
177.242823
 30
0.0
 11
-135.850641
 21
176.242823
 31
0.0
  0
LINE
  5
72
100
AcDbEntity
  8
1
100
AcDbLine
 10
-135.850641
 20
132.242823
 30
0.0
 11
-136.850641
 21
131.242823
 31
0.0
  0
LINE
  5
73
100
AcDbEntity
  8
1
100
AcDbLine
 10
-135.850641
 20
176.242823
 30
0.0
 11
-158.350641
 21
176.242823
 31
0.0
  0
LINE
  5
74
100
AcDbEntity
  8
1
100
AcDbLine
 10
-135.850641
 20
132.242823
 30
0.0
 11
-158.350641
 21
132.242823
 31
0.0
  0
LINE
  5
75
100
AcDbEntity
  8
1
100
AcDbLine
 10
-144.196847
 20
165.742823
 30
0.0
 11
-137.644361
 21
165.742823
 31
0.0
  0
LINE
  5
76
100
AcDbEntity
  8
1
100
AcDbLine
 10
-144.196847
 20
142.742823
 30
0.0
 11
-137.644361
 21
142.742823
 31
0.0
  0
ARC
  5
77
100
AcDbEntity
  8
1
100
AcDbCircle
 10
-144.196847
 20
159.742823
 30
0.0
 40
6.0
100
AcDbArc
 50
90.0
 51
180.0
  0
ARC
  5
78
100
AcDbEntity
  8
1
100
AcDbCircle
 10
-144.196847
 20
148.742823
 30
0.0
 40
6.0
100
AcDbArc
 50
180.0
 51
270.0
  0
ARC
  5
79
100
AcDbEntity
  8
1
100
AcDbCircle
 10
-159.036252
 20
148.742823
 30
0.0
 40
6.0
100
AcDbArc
 50
276.56143
 51
360.0
  0
ARC
  5
7A
100
AcDbEntity
  8
1
100
AcDbCircle
 10
-159.036252
 20
159.742823
 30
0.0
 40
6.0
100
AcDbArc
 50
0.0
 51
83.43857
  0
LINE
  5
7B
100
AcDbEntity
  8
1
100
AcDbLine
 10
-139.556546
 20
164.749828
 30
0.0
 11
-144.144736
 21
163.520426
 31
0.0
  0
LINE
  5
7C
100
AcDbEntity
  8
1
100
AcDbLine
 10
-139.556546
 20
143.735817
 30
0.0
 11
-144.144736
 21
144.965219
 31
0.0
  0
LINE
  5
7D
100
AcDbEntity
  8
1
100
AcDbLine
 10
-135.850641
 20
132.242823
 30
0.0
 11
-135.850641
 21
138.906188
 31
0.0
  0
LINE
  5
7E
100
AcDbEntity
  8
1
100
AcDbLine
 10
-135.850641
 20
169.579457
 30
0.0
 11
-135.850641
 21
176.242823
 31
0.0
  0
ARC
  5
7F
100
AcDbEntity
  8
1
100
AcDbCircle
 10
-142.850641
 20
158.690797
 30
0.0
 40
5.0
100
AcDbArc
 50
105.0
 51
180.0
  0
ARC
  5
80
100
AcDbEntity
  8
1
100
AcDbCircle
 10
-142.850641
 20
149.794848
 30
0.0
 40
5.0
100
AcDbArc
 50
180.0
 51
255.0
  0
ARC
  5
81
100
AcDbEntity
  8
1
100
AcDbCircle
 10
-140.850641
 20
169.579457
 30
0.0
 40
5.0
100
AcDbArc
 50
285.0
 51
0.0
  0
ARC
  5
82
100
AcDbEntity
  8
1
100
AcDbCircle
 10
-140.850641
 20
138.906188
 30
0.0
 40
5.0
100
AcDbArc
 50
360.0
 51
75.0
  0
LINE
  5
83
100
AcDbEntity
  8
1
100
AcDbLine
 10
74.933859
 20
-103.971016
 30
0.0
 11
74.933859
 21
-101.592016
 31
0.0
  0
LINE
  5
84
100
AcDbEntity
  8
1
100
AcDbLine
 10
58.364859
 20
-103.971016
 30
0.0
 11
58.364859
 21
-101.592016
 31
0.0
  0
LINE
  5
85
100
AcDbEntity
  8
1
100
AcDbLine
 10
62.201359
 20
-118.022843
 30
0.0
 11
71.097359
 21
-118.022843
 31
0.0
  0
LINE
  5
86
100
AcDbEntity
  8
1
100
AcDbLine
 10
74.933859
 20
-173.651689
 30
0.0
 11
74.933859
 21
-121.859343
 31
0.0
  0
LINE
  5
87
100
AcDbEntity
  8
1
100
AcDbLine
 10
62.201359
 20
-177.488189
 30
0.0
 11
71.097359
 21
-177.488189
 31
0.0
  0
LINE
  5
88
100
AcDbEntity
  8
1
100
AcDbLine
 10
58.364859
 20
-173.651689
 30
0.0
 11
58.364859
 21
-121.859343
 31
0.0
  0
ARC
  5
89
100
AcDbEntity
  8
1
100
AcDbCircle
 10
62.201359
 20
-121.859343
 30
0.0
 40
3.8365
100
AcDbArc
 50
90.0
 51
180.0
  0
ARC
  5
8A
100
AcDbEntity
  8
1
100
AcDbCircle
 10
71.097359
 20
-121.859343
 30
0.0
 40
3.8365
100
AcDbArc
 50
0.0
 51
90.0
  0
ARC
  5
8B
100
AcDbEntity
  8
1
100
AcDbCircle
 10
71.097359
 20
-173.651689
 30
0.0
 40
3.8365
100
AcDbArc
 50
270.0
 51
360.0
  0
ARC
  5
8C
100
AcDbEntity
  8
1
100
AcDbCircle
 10
62.201359
 20
-173.651689
 30
0.0
 40
3.8365
100
AcDbArc
 50
180.0
 51
270.0
  0
LINE
  5
8D
100
AcDbEntity
  8
1
100
AcDbLine
 10
77.121737
 20
-112.397621
 30
0.0
 11
74.933859
 21
-118.022843
 31
0.0
  0
LINE
  5
8E
100
AcDbEntity
  8
1
100
AcDbLine
 10
56.176981
 20
-112.397621
 30
0.0
 11
58.364859
 21
-118.022843
 31
0.0
  0
LINE
  5
8F
100
AcDbEntity
  8
1
100
AcDbLine
 10
56.176981
 20
-183.113411
 30
0.0
 11
58.364859
 21
-177.488189
 31
0.0
  0
LINE
  5
90
100
AcDbEntity
  8
1
100
AcDbLine
 10
74.933859
 20
-177.488189
 30
0.0
 11
77.121737
 21
-183.113411
 31
0.0
  0
ARC
  5
91
100
AcDbEntity
  8
1
100
AcDbCircle
 10
72.149359
 20
-103.971016
 30
0.0
 40
2.7845
100
AcDbArc
 50
270.0
 51
360.0
  0
ARC
  5
92
100
AcDbEntity
  8
1
100
AcDbCircle
 10
61.149359
 20
-103.971016
 30
0.0
 40
2.7845
100
AcDbArc
 50
180.0
 51
270.0
  0
ARC
  5
93
100
AcDbEntity
  8
1
100
AcDbCircle
 10
62.201359
 20
-101.592016
 30
0.0
 40
3.8365
100
AcDbArc
 50
103.121499
 51
180.0
  0
ARC
  5
94
100
AcDbEntity
  8
1
100
AcDbCircle
 10
71.097359
 20
-101.592016
 30
0.0
 40
3.8365
100
AcDbArc
 50
0.0
 51
76.878501
  0
ARC
  5
95
100
AcDbEntity
  8
1
100
AcDbCircle
 10
72.649359
 20
-94.934011
 30
0.0
 40
3.0
100
AcDbArc
 50
180.0
 51
256.878501
  0
ARC
  5
96
100
AcDbEntity
  8
1
100
AcDbCircle
 10
60.649359
 20
-94.934011
 30
0.0
 40
3.0
100
AcDbArc
 50
283.121499
 51
360.0
  0
LINE
  5
97
100
AcDbEntity
  8
1
100
AcDbLine
 10
78.488196
 20
-90.27666
 30
0.0
 11
74.933859
 21
-97.755516
 31
0.0
  0
LINE
  5
98
100
AcDbEntity
  8
1
100
AcDbLine
 10
54.810522
 20
-90.27666
 30
0.0
 11
58.364859
 21
-97.755516
 31
0.0
  0
LINE
  5
99
100
AcDbEntity
  8
1
100
AcDbLine
 10
60.580359
 20
-193.755516
 30
0.0
 11
60.649359
 21
-193.755516
 31
0.0
  0
LINE
  5
9A
100
AcDbEntity
  8
1
100
AcDbLine
 10
72.649359
 20
-193.755516
 30
0.0
 11
72.718359
 21
-193.755516
 31
0.0
  0
LINE
  5
9B
100
AcDbEntity
  8
1
100
AcDbLine
 10
42.524359
 20
-196.305516
 30
0.0
 11
42.524359
 21
-99.205516
 31
0.0
  0
LINE
  5
9C
100
AcDbEntity
  8
1
100
AcDbLine
 10
90.774359
 20
-196.305516
 30
0.0
 11
90.774359
 21
-99.205516
 31
0.0
  0
LINE
  5
9D
100
AcDbEntity
  8
1
100
AcDbLine
 10
90.774359
 20
-99.205516
 30
0.0
 11
89.93798
 21
-97.755794
 31
0.0
  0
ARC
  5
9E
100
AcDbEntity
  8
1
100
AcDbCircle
 10
89.071795
 20
-98.255516
 30
0.0
 40
1.0
100
AcDbArc
 50
29.981639
 51
54.720616
  0
LINE
  5
9F
100
AcDbEntity
  8
1
100
AcDbLine
 10
42.524359
 20
-99.205516
 30
0.0
 11
43.360737
 21
-97.755794
 31
0.0
  0
ARC
  5
A0
100
AcDbEntity
  8
1
100
AcDbCircle
 10
44.226923
 20
-98.255516
 30
0.0
 40
1.0
100
AcDbArc
 50
125.279384
 51
150.018361
  0
LINE
  5
A1
100
AcDbEntity
  8
1
100
AcDbLine
 10
90.774359
 20
-196.305516
 30
0.0
 11
89.93798
 21
-197.755239
 31
0.0
  0
LINE
  5
A2
100
AcDbEntity
  8
1
100
AcDbLine
 10
42.524359
 20
-196.305516
 30
0.0
 11
43.360737
 21
-197.755239
 31
0.0
  0
ARC
  5
A3
100
AcDbEntity
  8
1
100
AcDbCircle
 10
89.071795
 20
-197.255516
 30
0.0
 40
1.0
100
AcDbArc
 50
305.279384
 51
330.018361
  0
ARC
  5
A4
100
AcDbEntity
  8
1
100
AcDbCircle
 10
44.226923
 20
-197.255516
 30
0.0
 40
1.0
100
AcDbArc
 50
209.981639
 51
234.720616
  0
LINE
  5
A5
100
AcDbEntity
  8
1
100
AcDbLine
 10
-144.800641
 20
130.117823
 30
0.0
 11
-158.350641
 21
130.117823
 31
0.0
  0
LINE
  5
A6
100
AcDbEntity
  8
1
  6
DASHED
100
AcDbLine
 10
-144.800641
 20
178.367823
 30
0.0
 11
-158.350641
 21
178.367823
 31
0.0
  0
LINE
  5
A7
100
AcDbEntity
  8
1
100
AcDbLine
 10
-144.800641
 20
130.117823
 30
0.0
 11
-143.350919
 21
130.954201
 31
0.0
  0
ARC
  5
A8
100
AcDbEntity
  8
1
100
AcDbCircle
 10
-143.850641
 20
176.665259
 30
0.0
 40
1.0
100
AcDbArc
 50
35.279384
 51
60.018361
  0
ARC
  5
A9
100
AcDbEntity
  8
1
100
AcDbCircle
 10
-143.850641
 20
131.820386
 30
0.0
 40
1.0
100
AcDbArc
 50
299.981639
 51
324.720616
  0
LINE
  5
AA
100
AcDbEntity
  8
1
100
AcDbLine
 10
-156.324057
 20
165.094832
 30
0.0
 11
-158.350641
 21
164.695414
 31
0.0
  0
LINE
  5
AB
100
AcDbEntity
  8
1
100
AcDbLine
 10
-147.850641
 20
149.794848
 30
0.0
 11
-147.850641
 21
151.242823
 31
0.0
  0
LINE
  5
AC
100
AcDbEntity
  8
1
100
AcDbLine
 10
-147.850641
 20
157.242823
 30
0.0
 11
-147.850641
 21
158.690797
 31
0.0
  0
LINE
  5
AD
100
AcDbEntity
  8
1
100
AcDbLine
 10
-150.196847
 20
148.742823
 30
0.0
 11
-150.196847
 21
151.242823
 31
0.0
  0
LINE
  5
AE
100
AcDbEntity
  8
1
100
AcDbLine
 10
-150.196847
 20
157.242823
 30
0.0
 11
-150.196847
 21
159.742823
 31
0.0
  0
LINE
  5
AF
100
AcDbEntity
  8
1
100
AcDbLine
 10
-153.036252
 20
148.742823
 30
0.0
 11
-153.036252
 21
151.242823
 31
0.0
  0
LINE
  5
B0
100
AcDbEntity
  8
1
100
AcDbLine
 10
-153.036252
 20
157.242823
 30
0.0
 11
-153.036252
 21
159.742823
 31
0.0
  0
LINE
  5
B1
100
AcDbEntity
  8
1
100
AcDbLine
 10
-156.324057
 20
143.390814
 30
0.0
 11
-158.350641
 21
143.790231
 31
0.0
  0
LINE
  5
B2
100
AcDbEntity
  8
1
100
AcDbLine
 10
-228.350641
 20
177.242823
 30
0.0
 11
-249.850641
 21
177.242823
 31
0.0
  0
LINE
  5
B3
100
AcDbEntity
  8
1
100
AcDbLine
 10
-228.350641
 20
131.242823
 30
0.0
 11
-249.850641
 21
131.242823
 31
0.0
  0
LINE
  5
B4
100
AcDbEntity
  8
1
100
AcDbLine
 10
-249.850641
 20
177.242823
 30
0.0
 11
-250.850641
 21
176.242823
 31
0.0
  0
LINE
  5
B5
100
AcDbEntity
  8
1
100
AcDbLine
 10
-250.850641
 20
132.242823
 30
0.0
 11
-249.850641
 21
131.242823
 31
0.0
  0
LINE
  5
B6
100
AcDbEntity
  8
1
100
AcDbLine
 10
-250.850641
 20
176.242823
 30
0.0
 11
-228.350641
 21
176.242823
 31
0.0
  0
LINE
  5
B7
100
AcDbEntity
  8
1
100
AcDbLine
 10
-250.850641
 20
132.242823
 30
0.0
 11
-228.350641
 21
132.242823
 31
0.0
  0
LINE
  5
B8
100
AcDbEntity
  8
1
100
AcDbLine
 10
-242.504436
 20
165.742823
 30
0.0
 11
-249.056921
 21
165.742823
 31
0.0
  0
LINE
  5
B9
100
AcDbEntity
  8
1
100
AcDbLine
 10
-242.504436
 20
142.742823
 30
0.0
 11
-249.056921
 21
142.742823
 31
0.0
  0
ARC
  5
BA
100
AcDbEntity
  8
1
100
AcDbCircle
 10
-242.504436
 20
159.742823
 30
0.0
 40
6.0
100
AcDbArc
 50
0.0
 51
90.0
  0
ARC
  5
BB
100
AcDbEntity
  8
1
100
AcDbCircle
 10
-242.504436
 20
148.742823
 30
0.0
 40
6.0
100
AcDbArc
 50
270.0
 51
360.0
  0
ARC
  5
BC
100
AcDbEntity
  8
1
100
AcDbCircle
 10
-227.665031
 20
148.742823
 30
0.0
 40
6.0
100
AcDbArc
 50
180.0
 51
263.43857
  0
ARC
  5
BD
100
AcDbEntity
  8
1
100
AcDbCircle
 10
-227.665031
 20
159.742823
 30
0.0
 40
6.0
100
AcDbArc
 50
96.56143
 51
180.0
  0
LINE
  5
BE
100
AcDbEntity
  8
1
100
AcDbLine
 10
-247.144736
 20
164.749828
 30
0.0
 11
-242.556546
 21
163.520426
 31
0.0
  0
LINE
  5
BF
100
AcDbEntity
  8
1
100
AcDbLine
 10
-247.144736
 20
143.735817
 30
0.0
 11
-242.556546
 21
144.965219
 31
0.0
  0
LINE
  5
C0
100
AcDbEntity
  8
1
100
AcDbLine
 10
-250.850641
 20
132.242823
 30
0.0
 11
-250.850641
 21
138.906188
 31
0.0
  0
LINE
  5
C1
100
AcDbEntity
  8
1
100
AcDbLine
 10
-250.850641
 20
169.579457
 30
0.0
 11
-250.850641
 21
176.242823
 31
0.0
  0
ARC
  5
C2
100
AcDbEntity
  8
1
100
AcDbCircle
 10
-243.850641
 20
158.690797
 30
0.0
 40
5.0
100
AcDbArc
 50
0.0
 51
75.0
  0
ARC
  5
C3
100
AcDbEntity
  8
1
100
AcDbCircle
 10
-243.850641
 20
149.794848
 30
0.0
 40
5.0
100
AcDbArc
 50
285.0
 51
360.0
  0
ARC
  5
C4
100
AcDbEntity
  8
1
100
AcDbCircle
 10
-245.850641
 20
169.579457
 30
0.0
 40
5.0
100
AcDbArc
 50
180.0
 51
255.0
  0
ARC
  5
C5
100
AcDbEntity
  8
1
100
AcDbCircle
 10
-245.850641
 20
138.906188
 30
0.0
 40
5.0
100
AcDbArc
 50
105.0
 51
180.0
  0
LINE
  5
C6
100
AcDbEntity
  8
1
100
AcDbLine
 10
-241.900641
 20
130.117823
 30
0.0
 11
-228.350641
 21
130.117823
 31
0.0
  0
LINE
  5
C7
100
AcDbEntity
  8
1
100
AcDbLine
 10
-241.900641
 20
178.367823
 30
0.0
 11
-228.350641
 21
178.367823
 31
0.0
  0
LINE
  5
C8
100
AcDbEntity
  8
1
100
AcDbLine
 10
-241.900641
 20
178.367823
 30
0.0
 11
-243.350364
 21
177.531444
 31
0.0
  0
LINE
  5
C9
100
AcDbEntity
  8
1
100
AcDbLine
 10
-241.900641
 20
130.117823
 30
0.0
 11
-243.350364
 21
130.954201
 31
0.0
  0
ARC
  5
CA
100
AcDbEntity
  8
1
100
AcDbCircle
 10
-242.850641
 20
176.665259
 30
0.0
 40
1.0
100
AcDbArc
 50
119.981639
 51
144.720616
  0
ARC
  5
CB
100
AcDbEntity
  8
1
100
AcDbCircle
 10
-242.850641
 20
131.820386
 30
0.0
 40
1.0
100
AcDbArc
 50
215.279384
 51
240.018361
  0
LINE
  5
CC
100
AcDbEntity
  8
1
100
AcDbLine
 10
-230.377225
 20
165.094832
 30
0.0
 11
-228.350641
 21
164.695414
 31
0.0
  0
LINE
  5
CD
100
AcDbEntity
  8
1
100
AcDbLine
 10
-238.850641
 20
149.794848
 30
0.0
 11
-238.850641
 21
151.242823
 31
0.0
  0
LINE
  5
CE
100
AcDbEntity
  8
1
100
AcDbLine
 10
-236.504436
 20
148.742823
 30
0.0
 11
-236.504436
 21
151.242823
 31
0.0
  0
LINE
  5
CF
100
AcDbEntity
  8
1
100
AcDbLine
 10
-236.504436
 20
157.242823
 30
0.0
 11
-236.504436
 21
159.742823
 31
0.0
  0
LINE
  5
D0
100
AcDbEntity
  8
1
100
AcDbLine
 10
-233.665031
 20
148.742823
 30
0.0
 11
-233.665031
 21
151.242823
 31
0.0
  0
LINE
  5
D1
100
AcDbEntity
  8
1
100
AcDbLine
 10
-233.665031
 20
157.242823
 30
0.0
 11
-233.665031
 21
159.742823
 31
0.0
  0
LINE
  5
D2
100
AcDbEntity
  8
1
100
AcDbLine
 10
-230.377225
 20
143.390814
 30
0.0
 11
-228.350641
 21
143.790231
 31
0.0
  0
LINE
  5
D3
100
AcDbEntity
  8
1
100
AcDbLine
 10
-158.350641
 20
-4.755516
 30
0.0
 11
-158.350641
 21
3.244484
 31
0.0
  0
LINE
  5
D4
100
AcDbEntity
  8
1
100
AcDbLine
 10
-228.350641
 20
-4.755516
 30
0.0
 11
-228.350641
 21
3.244484
 31
0.0
  0
LINE
  5
D5
100
AcDbEntity
  8
1
100
AcDbLine
 10
-225.799379
 20
-8.755516
 30
0.0
 11
-160.901904
 21
-8.755516
 31
0.0
  0
ARC
  5
D6
100
AcDbEntity
  8
1
100
AcDbCircle
 10
-162.350641
 20
-4.755516
 30
0.0
 40
4.0
100
AcDbArc
 50
270.0
 51
360.0
  0
ARC
  5
D7
100
AcDbEntity
  8
1
100
AcDbCircle
 10
-224.350641
 20
-4.755516
 30
0.0
 40
4.0
100
AcDbArc
 50
180.0
 51
270.0
  0
LINE
  5
D8
100
AcDbEntity
  8
1
100
AcDbLine
 10
-208.350641
 20
-88.54192
 30
0.0
 11
-208.350641
 21
-13.755516
 31
0.0
  0
LINE
  5
D9
100
AcDbEntity
  8
1
100
AcDbLine
 10
-178.350641
 20
-88.54192
 30
0.0
 11
-178.350641
 21
-13.755516
 31
0.0
  0
ARC
  5
DA
100
AcDbEntity
  8
1
100
AcDbCircle
 10
-173.350641
 20
-13.755516
 30
0.0
 40
5.0
100
AcDbArc
 50
126.174931
 51
180.0
  0
ARC
  5
DB
100
AcDbEntity
  8
1
100
AcDbCircle
 10
-213.350641
 20
-13.755516
 30
0.0
 40
5.0
100
AcDbArc
 50
0.0
 51
90.0
  0
ARC
  5
DC
100
AcDbEntity
  8
1
100
AcDbCircle
 10
-160.350641
 20
-26.664418
 30
0.0
 40
18.0
100
AcDbArc
 50
144.37681
 51
180.0
  0
ARC
  5
DD
100
AcDbEntity
  8
1
100
AcDbCircle
 10
-226.350641
 20
-26.664418
 30
0.0
 40
18.0
100
AcDbArc
 50
0.0
 51
84.784091
  0
LINE
  5
DE
100
AcDbEntity
  8
1
100
AcDbLine
 10
-190.350641
 20
-26.664418
 30
0.0
 11
-196.350641
 21
-26.664418
 31
0.0
  0
LINE
  5
DF
100
AcDbEntity
  8
1
100
AcDbLine
 10
-196.350641
 20
-24.664418
 30
0.0
 11
-196.350641
 21
-10.755516
 31
0.0
  0
LINE
  5
E0
100
AcDbEntity
  8
1
100
AcDbLine
 10
-190.350641
 20
-24.664418
 30
0.0
 11
-190.350641
 21
-10.755516
 31
0.0
  0
ARC
  5
E1
100
AcDbEntity
  8
1
100
AcDbCircle
 10
-188.350641
 20
-10.755516
 30
0.0
 40
2.0
100
AcDbArc
 50
90.0
 51
180.0
  0
ARC
  5
E2
100
AcDbEntity
  8
1
100
AcDbCircle
 10
-198.350641
 20
-10.755516
 30
0.0
 40
2.0
100
AcDbArc
 50
0.0
 51
90.0
  0
ARC
  5
E3
100
AcDbEntity
  8
1
100
AcDbCircle
 10
-198.350641
 20
-24.664418
 30
0.0
 40
2.0
100
AcDbArc
 50
270.0
 51
360.0
  0
ARC
  5
E4
100
AcDbEntity
  8
1
100
AcDbCircle
 10
-188.350641
 20
-24.664418
 30
0.0
 40
2.0
100
AcDbArc
 50
180.0
 51
270.0
  0
CIRCLE
  5
E5
100
AcDbEntity
  8
1
100
AcDbCircle
 10
-193.350641
 20
-147.755516
 30
0.0
 40
57.5
  0
ARC
  5
E6
100
AcDbEntity
  8
1
100
AcDbCircle
 10
-173.350641
 20
-88.54192
 30
0.0
 40
5.0
100
AcDbArc
 50
180.0
 51
251.337075
  0
ARC
  5
E7
100
AcDbEntity
  8
1
100
AcDbCircle
 10
-213.350641
 20
-88.54192
 30
0.0
 40
5.0
100
AcDbArc
 50
288.662925
 51
360.0
  0
ARC
  5
E8
100
AcDbEntity
  8
1
100
AcDbCircle
 10
-193.350641
 20
-162.755516
 30
0.0
 40
96.0
100
AcDbArc
 50
58.325851
 51
76.358323
  0
ARC
  5
E9
100
AcDbEntity
  8
1
100
AcDbCircle
 10
-193.350641
 20
-162.755516
 30
0.0
 40
96.0
100
AcDbArc
 50
103.641677
 51
121.674149
  0
ARC
  5
EA
100
AcDbEntity
  8
1
100
AcDbCircle
 10
-168.350641
 20
-59.745808
 30
0.0
 40
10.0
100
AcDbArc
 50
180.0
 51
256.358323
  0
ARC
  5
EB
100
AcDbEntity
  8
1
100
AcDbCircle
 10
-218.350641
 20
-59.745808
 30
0.0
 40
10.0
100
AcDbArc
 50
283.641677
 51
360.0
  0
ARC
  5
EC
100
AcDbEntity
  8
1
100
AcDbCircle
 10
-147.3887
 20
-101.793575
 30
0.0
 40
7.5
100
AcDbArc
 50
158.578178
 51
225.0
  0
ARC
  5
ED
100
AcDbEntity
  8
1
100
AcDbCircle
 10
-143.853167
 20
-98.258041
 30
0.0
 40
9.5
100
AcDbArc
 50
123.463041
 51
158.578178
  0
ARC
  5
EE
100
AcDbEntity
  8
1
100
AcDbCircle
 10
-142.0854
 20
-96.490275
 30
0.0
 40
9.0
100
AcDbArc
 50
104.546902
 51
123.463041
  0
LINE
  5
EF
100
AcDbEntity
  8
1
100
AcDbLine
 10
-147.04799
 20
-88.982099
 30
0.0
 11
-149.091457
 21
-90.332746
 31
0.0
  0
LINE
  5
F0
100
AcDbEntity
  8
1
100
AcDbLine
 10
-152.696876
 20
-94.788344
 30
0.0
 11
-154.370576
 21
-99.05434
 31
0.0
  0
ARC
  5
F1
100
AcDbEntity
  8
1
100
AcDbCircle
 10
-145.350641
 20
-83.907024
 30
0.0
 40
4.0
100
AcDbArc
 50
284.546902
 51
360.0
  0
ARC
  5
F2
100
AcDbEntity
  8
1
100
AcDbCircle
 10
-144.701951
 20
-83.907024
 30
0.0
 40
3.35131
100
AcDbArc
 50
0.0
 51
58.325851
  0
ARC
  5
F3
100
AcDbEntity
  8
1
100
AcDbCircle
 10
-239.312582
 20
-101.793575
 30
0.0
 40
7.5
100
AcDbArc
 50
315.0
 51
21.421822
  0
ARC
  5
F4
100
AcDbEntity
  8
1
100
AcDbCircle
 10
-242.848116
 20
-98.258041
 30
0.0
 40
9.5
100
AcDbArc
 50
21.421822
 51
56.536959
  0
ARC
  5
F5
100
AcDbEntity
  8
1
100
AcDbCircle
 10
-244.615883
 20
-96.490275
 30
0.0
 40
9.0
100
AcDbArc
 50
56.536959
 51
75.453098
  0
LINE
  5
F6
100
AcDbEntity
  8
1
100
AcDbLine
 10
-239.653292
 20
-88.982099
 30
0.0
 11
-237.609826
 21
-90.332746
 31
0.0
  0
LINE
  5
F7
100
AcDbEntity
  8
1
100
AcDbLine
 10
-234.004407
 20
-94.788344
 30
0.0
 11
-232.330706
 21
-99.05434
 31
0.0
  0
ARC
  5
F8
100
AcDbEntity
  8
1
100
AcDbCircle
 10
-241.350641
 20
-83.907024
 30
0.0
 40
4.0
100
AcDbArc
 50
180.0
 51
255.453098
  0
ARC
  5
F9
100
AcDbEntity
  8
1
100
AcDbCircle
 10
-241.999331
 20
-83.907024
 30
0.0
 40
3.35131
100
AcDbArc
 50
121.674149
 51
180.0
  0
LINE
  5
FA
100
AcDbEntity
  8
1
100
AcDbLine
 10
-212.350641
 20
-217.755516
 30
0.0
 11
-174.350641
 21
-217.755516
 31
0.0
  0
ARC
  5
FB
100
AcDbEntity
  8
1
100
AcDbCircle
 10
-169.350641
 20
-205.463834
 30
0.0
 40
5.0
100
AcDbArc
 50
112.581673
 51
180.0
  0
ARC
  5
FC
100
AcDbEntity
  8
1
100
AcDbCircle
 10
-217.350641
 20
-205.463834
 30
0.0
 40
5.0
100
AcDbArc
 50
0.0
 51
67.418327
  0
LINE
  5
FD
100
AcDbEntity
  8
1
100
AcDbLine
 10
-209.350641
 20
-214.755516
 30
0.0
 11
-177.350641
 21
-214.755516
 31
0.0
  0
LINE
  5
FE
100
AcDbEntity
  8
1
100
AcDbLine
 10
-172.930946
 20
-214.37511
 30
0.0
 11
-153.815365
 21
-209.253106
 31
0.0
  0
LINE
  5
FF
100
AcDbEntity
  8
1
100
AcDbLine
 10
-213.770337
 20
-214.37511
 30
0.0
 11
-232.885917
 21
-209.253106
 31
0.0
  0
ARC
  5
100
100
AcDbEntity
  8
1
100
AcDbCircle
 10
-177.350641
 20
-211.755516
 30
0.0
 40
3.0
100
AcDbArc
 50
270.0
 51
360.0
  0
ARC
  5
101
100
AcDbEntity
  8
1
100
AcDbCircle
 10
-209.350641
 20
-211.755516
 30
0.0
 40
3.0
100
AcDbArc
 50
180.0
 51
270.0
  0
LINE
  5
102
100
AcDbEntity
  8
1
100
AcDbLine
 10
-235.850641
 20
-205.389402
 30
0.0
 11
-235.850641
 21
-205.082777
 31
0.0
  0
LINE
  5
103
100
AcDbEntity
  8
1
100
AcDbLine
 10
-150.850641
 20
-205.389402
 30
0.0
 11
-150.850641
 21
-205.082777
 31
0.0
  0
LINE
  5
104
100
AcDbEntity
  8
1
100
AcDbLine
 10
-154.370576
 20
-196.456692
 30
0.0
 11
-152.696876
 21
-200.722689
 31
0.0
  0
ARC
  5
105
100
AcDbEntity
  8
1
100
AcDbCircle
 10
-147.3887
 20
-193.717457
 30
0.0
 40
7.5
100
AcDbArc
 50
135.0
 51
201.421822
  0
ARC
  5
106
100
AcDbEntity
  8
1
100
AcDbCircle
 10
-143.853167
 20
-197.252991
 30
0.0
 40
9.5
100
AcDbArc
 50
201.421822
 51
215.449428
  0
ARC
  5
107
100
AcDbEntity
  8
1
100
AcDbCircle
 10
-154.850641
 20
-205.082777
 30
0.0
 40
4.0
100
AcDbArc
 50
0.0
 51
35.449428
  0
ARC
  5
108
100
AcDbEntity
  8
1
100
AcDbCircle
 10
-154.850641
 20
-205.389402
 30
0.0
 40
4.0
100
AcDbArc
 50
285.0
 51
360.0
  0
LINE
  5
109
100
AcDbEntity
  8
1
100
AcDbLine
 10
-232.330706
 20
-196.456692
 30
0.0
 11
-234.004407
 21
-200.722689
 31
0.0
  0
ARC
  5
10A
100
AcDbEntity
  8
1
100
AcDbCircle
 10
-239.312582
 20
-193.717457
 30
0.0
 40
7.5
100
AcDbArc
 50
338.578178
 51
45.0
  0
ARC
  5
10B
100
AcDbEntity
  8
1
100
AcDbCircle
 10
-242.848116
 20
-197.252991
 30
0.0
 40
9.5
100
AcDbArc
 50
324.550572
 51
338.578178
  0
ARC
  5
10C
100
AcDbEntity
  8
1
100
AcDbCircle
 10
-231.850641
 20
-205.082777
 30
0.0
 40
4.0
100
AcDbArc
 50
144.550572
 51
180.0
  0
ARC
  5
10D
100
AcDbEntity
  8
1
100
AcDbCircle
 10
-231.850641
 20
-205.389402
 30
0.0
 40
4.0
100
AcDbArc
 50
180.0
 51
255.0
  0
ARC
  5
10E
100
AcDbEntity
  8
1
100
AcDbCircle
 10
-171.350641
 20
-217.057497
 30
0.0
 40
3.0
100
AcDbArc
 50
105.0
 51
180.0
  0
ARC
  5
10F
100
AcDbEntity
  8
1
100
AcDbCircle
 10
-215.350641
 20
-217.057497
 30
0.0
 40
3.0
100
AcDbArc
 50
0.0
 51
75.0
  0
LINE
  5
110
100
AcDbEntity
  8
1
  6
CENTER
 62
     2
100
AcDbLine
 10
-206.350641
 20
-210.735361
 30
0.0
 11
-206.350641
 21
-229.737818
 31
0.0
  0
LINE
  5
111
100
AcDbEntity
  8
1
  6
CENTER
 62
     2
100
AcDbLine
 10
-180.350641
 20
-210.735361
 30
0.0
 11
-180.350641
 21
-229.737818
 31
0.0
  0
ARC
  5
112
100
AcDbEntity
  8
1
100
AcDbCircle
 10
-172.154489
 20
-217.272887
 30
0.0
 40
3.0
100
AcDbArc
 50
105.0
 51
180.0
  0
LINE
  5
113
100
AcDbEntity
  8
1
100
AcDbLine
 10
-174.350641
 20
-220.155516
 30
0.0
 11
-174.350641
 21
-217.057497
 31
0.0
  0
LINE
  5
114
100
AcDbEntity
  8
1
100
AcDbLine
 10
-174.350641
 20
-211.755516
 30
0.0
 11
-174.350641
 21
-205.463834
 31
0.0
  0
ARC
  5
115
100
AcDbEntity
  8
1
100
AcDbCircle
 10
-214.546794
 20
-217.272887
 30
0.0
 40
3.0
100
AcDbArc
 50
360.0
 51
75.0
  0
LINE
  5
116
100
AcDbEntity
  8
1
100
AcDbLine
 10
-212.350641
 20
-220.155516
 30
0.0
 11
-212.350641
 21
-217.057497
 31
0.0
  0
LINE
  5
117
100
AcDbEntity
  8
1
100
AcDbLine
 10
-212.350641
 20
-211.755516
 30
0.0
 11
-212.350641
 21
-205.463834
 31
0.0
  0
LINE
  5
118
100
AcDbEntity
  8
1
100
AcDbLine
 10
-212.350641
 20
-218.555516
 30
0.0
 11
-174.350641
 21
-218.555516
 31
0.0
  0
LINE
  5
119
100
AcDbEntity
  8
1
100
AcDbLine
 10
-212.450641
 20
-220.155516
 30
0.0
 11
-174.250641
 21
-220.155516
 31
0.0
  0
LINE
  5
11A
100
AcDbEntity
  8
1
100
AcDbLine
 10
101.649359
 20
-4.755516
 30
0.0
 11
101.649359
 21
3.244484
 31
0.0
  0
LINE
  5
11B
100
AcDbEntity
  8
1
100
AcDbLine
 10
31.649359
 20
-4.755516
 30
0.0
 11
31.649359
 21
3.244484
 31
0.0
  0
LINE
  5
11C
100
AcDbEntity
  8
1
100
AcDbLine
 10
34.200621
 20
-8.755516
 30
0.0
 11
99.098096
 21
-8.755516
 31
0.0
  0
ARC
  5
11D
100
AcDbEntity
  8
1
100
AcDbCircle
 10
97.649359
 20
-4.755516
 30
0.0
 40
4.0
100
AcDbArc
 50
270.0
 51
360.0
  0
ARC
  5
11E
100
AcDbEntity
  8
1
100
AcDbCircle
 10
35.649359
 20
-4.755516
 30
0.0
 40
4.0
100
AcDbArc
 50
180.0
 51
270.0
  0
LINE
  5
11F
100
AcDbEntity
  8
1
100
AcDbLine
 10
51.649359
 20
-88.279007
 30
0.0
 11
51.649359
 21
-13.755516
 31
0.0
  0
LINE
  5
120
100
AcDbEntity
  8
1
100
AcDbLine
 10
81.649359
 20
-88.279007
 30
0.0
 11
81.649359
 21
-13.755516
 31
0.0
  0
ARC
  5
121
100
AcDbEntity
  8
1
100
AcDbCircle
 10
86.649359
 20
-13.755516
 30
0.0
 40
5.0
100
AcDbArc
 50
90.0
 51
180.0
  0
ARC
  5
122
100
AcDbEntity
  8
1
100
AcDbCircle
 10
46.649359
 20
-13.755516
 30
0.0
 40
5.0
100
AcDbArc
 50
0.0
 51
53.825069
  0
ARC
  5
123
100
AcDbEntity
  8
1
100
AcDbCircle
 10
99.649359
 20
-26.664418
 30
0.0
 40
18.0
100
AcDbArc
 50
95.215909
 51
180.0
  0
ARC
  5
124
100
AcDbEntity
  8
1
100
AcDbCircle
 10
33.649359
 20
-26.664418
 30
0.0
 40
18.0
100
AcDbArc
 50
0.0
 51
35.32912
  0
LINE
  5
125
100
AcDbEntity
  8
1
100
AcDbLine
 10
69.649359
 20
-26.664418
 30
0.0
 11
63.649359
 21
-26.664418
 31
0.0
  0
LINE
  5
126
100
AcDbEntity
  8
1
100
AcDbLine
 10
63.649359
 20
-24.664418
 30
0.0
 11
63.649359
 21
-10.755516
 31
0.0
  0
LINE
  5
127
100
AcDbEntity
  8
1
100
AcDbLine
 10
69.649359
 20
-24.664418
 30
0.0
 11
69.649359
 21
-10.755516
 31
0.0
  0
ARC
  5
128
100
AcDbEntity
  8
1
100
AcDbCircle
 10
71.649359
 20
-10.755516
 30
0.0
 40
2.0
100
AcDbArc
 50
90.0
 51
180.0
  0
ARC
  5
129
100
AcDbEntity
  8
1
100
AcDbCircle
 10
61.649359
 20
-10.755516
 30
0.0
 40
2.0
100
AcDbArc
 50
0.0
 51
90.0
  0
ARC
  5
12A
100
AcDbEntity
  8
1
100
AcDbCircle
 10
61.649359
 20
-24.664418
 30
0.0
 40
2.0
100
AcDbArc
 50
270.0
 51
360.0
  0
ARC
  5
12B
100
AcDbEntity
  8
1
100
AcDbCircle
 10
71.649359
 20
-24.664418
 30
0.0
 40
2.0
100
AcDbArc
 50
180.0
 51
270.0
  0
ARC
  5
12C
100
AcDbEntity
  8
1
100
AcDbCircle
 10
86.649359
 20
-85.255516
 30
0.0
 40
5.0
100
AcDbArc
 50
180.0
 51
270.0
  0
ARC
  5
12D
100
AcDbEntity
  8
1
100
AcDbCircle
 10
46.649359
 20
-85.255516
 30
0.0
 40
5.0
100
AcDbArc
 50
270.0
 51
0.0
  0
LINE
  5
12E
100
AcDbEntity
  8
1
100
AcDbLine
 10
88.649359
 20
-90.255516
 30
0.0
 11
88.649359
 21
-205.255516
 31
0.0
  0
LINE
  5
12F
100
AcDbEntity
  8
1
100
AcDbLine
 10
44.649359
 20
-90.255516
 30
0.0
 11
44.649359
 21
-205.255516
 31
0.0
  0
LINE
  5
130
100
AcDbEntity
  8
1
100
AcDbLine
 10
43.649359
 20
-204.255516
 30
0.0
 11
43.649359
 21
-91.255516
 31
0.0
  0
LINE
  5
131
100
AcDbEntity
  8
1
100
AcDbLine
 10
89.649359
 20
-204.255516
 30
0.0
 11
89.649359
 21
-91.255516
 31
0.0
  0
LINE
  5
132
100
AcDbEntity
  8
1
100
AcDbLine
 10
44.649359
 20
-90.255516
 30
0.0
 11
43.649359
 21
-91.255516
 31
0.0
  0
LINE
  5
133
100
AcDbEntity
  8
1
100
AcDbLine
 10
89.649359
 20
-91.255516
 30
0.0
 11
88.649359
 21
-90.255516
 31
0.0
  0
LINE
  5
134
100
AcDbEntity
  8
1
100
AcDbLine
 10
89.649359
 20
-204.255516
 30
0.0
 11
88.649359
 21
-205.255516
 31
0.0
  0
LINE
  5
135
100
AcDbEntity
  8
1
100
AcDbLine
 10
44.649359
 20
-205.255516
 30
0.0
 11
43.649359
 21
-204.255516
 31
0.0
  0
ARC
  5
136
100
AcDbEntity
  8
1
100
AcDbCircle
 10
86.649359
 20
-88.279007
 30
0.0
 40
5.0
100
AcDbArc
 50
180.0
 51
270.0
  0
ARC
  5
137
100
AcDbEntity
  8
1
100
AcDbCircle
 10
46.649359
 20
-88.279007
 30
0.0
 40
5.0
100
AcDbArc
 50
270.0
 51
360.0
  0
LINE
  5
138
100
AcDbEntity
  8
1
100
AcDbLine
 10
44.649359
 20
-90.255516
 30
0.0
 11
46.649359
 21
-90.255516
 31
0.0
  0
LINE
  5
139
100
AcDbEntity
  8
1
100
AcDbLine
 10
86.649359
 20
-90.255516
 30
0.0
 11
88.649359
 21
-90.255516
 31
0.0
  0
LINE
  5
13A
100
AcDbEntity
  8
1
100
AcDbLine
 10
53.649359
 20
-217.755516
 30
0.0
 11
79.649359
 21
-217.755516
 31
0.0
  0
LINE
  5
13B
100
AcDbEntity
  8
1
100
AcDbLine
 10
53.649359
 20
-220.155516
 30
0.0
 11
53.649359
 21
-204.847169
 31
0.0
  0
LINE
  5
13C
100
AcDbEntity
  8
1
100
AcDbLine
 10
79.649359
 20
-220.155516
 30
0.0
 11
79.649359
 21
-204.847169
 31
0.0
  0
ARC
  5
13D
100
AcDbEntity
  8
1
100
AcDbCircle
 10
83.649359
 20
-209.255516
 30
0.0
 40
4.0
100
AcDbArc
 50
90.0
 51
180.0
  0
ARC
  5
13E
100
AcDbEntity
  8
1
100
AcDbCircle
 10
49.649359
 20
-209.255516
 30
0.0
 40
4.0
100
AcDbArc
 50
0.0
 51
90.0
  0
ARC
  5
13F
100
AcDbEntity
  8
1
100
AcDbCircle
 10
83.649359
 20
-204.847169
 30
0.0
 40
4.0
100
AcDbArc
 50
90.0
 51
180.0
  0
ARC
  5
140
100
AcDbEntity
  8
1
100
AcDbCircle
 10
49.649359
 20
-204.847169
 30
0.0
 40
4.0
100
AcDbArc
 50
0.0
 51
90.0
  0
LINE
  5
141
100
AcDbEntity
  8
1
100
AcDbLine
 10
44.649359
 20
-205.255516
 30
0.0
 11
49.649359
 21
-205.255516
 31
0.0
  0
LINE
  5
142
100
AcDbEntity
  8
1
100
AcDbLine
 10
83.649359
 20
-205.255516
 30
0.0
 11
88.649359
 21
-205.255516
 31
0.0
  0
LINE
  5
143
100
AcDbEntity
  8
1
100
AcDbLine
 10
53.649359
 20
-218.555516
 30
0.0
 11
79.649359
 21
-218.555516
 31
0.0
  0
LINE
  5
144
100
AcDbEntity
  8
1
100
AcDbLine
 10
53.649359
 20
-220.155516
 30
0.0
 11
79.649359
 21
-220.155516
 31
0.0
  0
LINE
  5
145
100
AcDbEntity
  8
1
100
AcDbLine
 10
55.149359
 20
-179.755516
 30
0.0
 11
55.149359
 21
-115.755516
 31
0.0
  0
LINE
  5
146
100
AcDbEntity
  8
1
100
AcDbLine
 10
78.149359
 20
-179.755516
 30
0.0
 11
78.149359
 21
-115.755516
 31
0.0
  0
LINE
  5
147
100
AcDbEntity
  8
1
100
AcDbLine
 10
61.149359
 20
-109.755516
 30
0.0
 11
72.149359
 21
-109.755516
 31
0.0
  0
LINE
  5
148
100
AcDbEntity
  8
1
100
AcDbLine
 10
61.149359
 20
-185.755516
 30
0.0
 11
72.149359
 21
-185.755516
 31
0.0
  0
ARC
  5
149
100
AcDbEntity
  8
1
100
AcDbCircle
 10
61.149359
 20
-115.755516
 30
0.0
 40
6.0
100
AcDbArc
 50
90.0
 51
180.0
  0
ARC
  5
14A
100
AcDbEntity
  8
1
100
AcDbCircle
 10
72.149359
 20
-115.755516
 30
0.0
 40
6.0
100
AcDbArc
 50
0.0
 51
90.0
  0
ARC
  5
14B
100
AcDbEntity
  8
1
100
AcDbCircle
 10
61.149359
 20
-179.755516
 30
0.0
 40
6.0
100
AcDbArc
 50
180.0
 51
270.0
  0
ARC
  5
14C
100
AcDbEntity
  8
1
100
AcDbCircle
 10
72.149359
 20
-179.755516
 30
0.0
 40
6.0
100
AcDbArc
 50
270.0
 51
360.0
  0
LINE
  5
14D
100
AcDbEntity
  8
1
100
AcDbLine
 10
63.649359
 20
-188.755516
 30
0.0
 11
69.649359
 21
-188.755516
 31
0.0
  0
LINE
  5
14E
100
AcDbEntity
  8
1
100
AcDbLine
 10
63.649359
 20
-59.745808
 30
0.0
 11
69.649359
 21
-59.745808
 31
0.0
  0
LINE
  5
14F
100
AcDbEntity
  8
1
100
AcDbLine
 10
63.649359
 20
-104.255516
 30
0.0
 11
63.649359
 21
-62.745808
 31
0.0
  0
LINE
  5
150
100
AcDbEntity
  8
1
100
AcDbLine
 10
69.649359
 20
-104.255516
 30
0.0
 11
69.649359
 21
-62.745808
 31
0.0
  0
ARC
  5
151
100
AcDbEntity
  8
1
100
AcDbCircle
 10
60.649359
 20
-62.745808
 30
0.0
 40
3.0
100
AcDbArc
 50
0.0
 51
90.0
  0
ARC
  5
152
100
AcDbEntity
  8
1
100
AcDbCircle
 10
72.649359
 20
-62.745808
 30
0.0
 40
3.0
100
AcDbArc
 50
90.0
 51
180.0
  0
LINE
  5
153
100
AcDbEntity
  8
1
100
AcDbLine
 10
63.649359
 20
-106.755516
 30
0.0
 11
69.649359
 21
-106.755516
 31
0.0
  0
LINE
  5
154
100
AcDbEntity
  8
1
100
AcDbLine
 10
55.149359
 20
-91.779007
 30
0.0
 11
55.149359
 21
-100.755516
 31
0.0
  0
LINE
  5
155
100
AcDbEntity
  8
1
100
AcDbLine
 10
78.149359
 20
-100.755516
 30
0.0
 11
78.149359
 21
-91.779007
 31
0.0
  0
ARC
  5
156
100
AcDbEntity
  8
1
100
AcDbCircle
 10
72.149359
 20
-100.755516
 30
0.0
 40
6.0
100
AcDbArc
 50
270.0
 51
360.0
  0
ARC
  5
157
100
AcDbEntity
  8
1
100
AcDbCircle
 10
61.149359
 20
-100.755516
 30
0.0
 40
6.0
100
AcDbArc
 50
180.0
 51
270.0
  0
ARC
  5
158
100
AcDbEntity
  8
1
100
AcDbCircle
 10
72.149359
 20
-104.255516
 30
0.0
 40
2.5
100
AcDbArc
 50
180.0
 51
270.0
  0
ARC
  5
159
100
AcDbEntity
  8
1
100
AcDbCircle
 10
61.149359
 20
-104.255516
 30
0.0
 40
2.5
100
AcDbArc
 50
270.0
 51
360.0
  0
LINE
  5
15A
100
AcDbEntity
  8
1
100
AcDbLine
 10
65.649359
 20
-81.054898
 30
0.0
 11
67.649359
 21
-81.054898
 31
0.0
  0
LINE
  5
15B
100
AcDbEntity
  8
1
100
AcDbLine
 10
65.649359
 20
-87.778793
 30
0.0
 11
67.649359
 21
-87.778793
 31
0.0
  0
ARC
  5
15C
100
AcDbEntity
  8
1
100
AcDbCircle
 10
67.649359
 20
-83.054898
 30
0.0
 40
2.0
100
AcDbArc
 50
0.0
 51
90.0
  0
ARC
  5
15D
100
AcDbEntity
  8
1
100
AcDbCircle
 10
65.649359
 20
-83.054898
 30
0.0
 40
2.0
100
AcDbArc
 50
90.0
 51
180.0
  0
ARC
  5
15E
100
AcDbEntity
  8
1
100
AcDbCircle
 10
65.649359
 20
-85.778793
 30
0.0
 40
2.0
100
AcDbArc
 50
180.0
 51
270.0
  0
ARC
  5
15F
100
AcDbEntity
  8
1
100
AcDbCircle
 10
67.649359
 20
-85.778793
 30
0.0
 40
2.0
100
AcDbArc
 50
270.0
 51
0.0
  0
ARC
  5
160
100
AcDbEntity
  8
1
100
AcDbCircle
 10
81.649359
 20
-91.779007
 30
0.0
 40
3.5
100
AcDbArc
 50
90.0
 51
180.0
  0
ARC
  5
161
100
AcDbEntity
  8
1
100
AcDbCircle
 10
51.649359
 20
-91.779007
 30
0.0
 40
3.5
100
AcDbArc
 50
0.0
 51
90.0
  0
LINE
  5
162
100
AcDbEntity
  8
1
100
AcDbLine
 10
55.149359
 20
-203.347169
 30
0.0
 11
55.149359
 21
-194.755516
 31
0.0
  0
LINE
  5
163
100
AcDbEntity
  8
1
100
AcDbLine
 10
78.149359
 20
-203.347169
 30
0.0
 11
78.149359
 21
-194.755516
 31
0.0
  0
ARC
  5
164
100
AcDbEntity
  8
1
100
AcDbCircle
 10
72.149359
 20
-194.755516
 30
0.0
 40
6.0
100
AcDbArc
 50
0.0
 51
90.0
  0
ARC
  5
165
100
AcDbEntity
  8
1
100
AcDbCircle
 10
61.149359
 20
-194.755516
 30
0.0
 40
6.0
100
AcDbArc
 50
90.0
 51
180.0
  0
ARC
  5
166
100
AcDbEntity
  8
1
100
AcDbCircle
 10
79.649359
 20
-203.347169
 30
0.0
 40
1.5
100
AcDbArc
 50
180.0
 51
270.0
  0
ARC
  5
167
100
AcDbEntity
  8
1
100
AcDbCircle
 10
53.649359
 20
-203.347169
 30
0.0
 40
1.5
100
AcDbArc
 50
270.0
 51
360.0
  0
LINE
  5
168
100
AcDbEntity
  8
1
100
AcDbLine
 10
69.649359
 20
-214.272887
 30
0.0
 11
69.649359
 21
-191.255516
 31
0.0
  0
LINE
  5
169
100
AcDbEntity
  8
1
100
AcDbLine
 10
63.649359
 20
-214.272887
 30
0.0
 11
63.649359
 21
-191.255516
 31
0.0
  0
ARC
  5
16A
100
AcDbEntity
  8
1
100
AcDbCircle
 10
72.149359
 20
-191.255516
 30
0.0
 40
2.5
100
AcDbArc
 50
90.0
 51
180.0
  0
ARC
  5
16B
100
AcDbEntity
  8
1
100
AcDbCircle
 10
61.149359
 20
-191.255516
 30
0.0
 40
2.5
100
AcDbArc
 50
0.0
 51
90.0
  0
ARC
  5
16C
100
AcDbEntity
  8
1
100
AcDbCircle
 10
72.149359
 20
-191.540016
 30
0.0
 40
2.7845
100
AcDbArc
 50
0.0
 51
90.0
  0
ARC
  5
16D
100
AcDbEntity
  8
1
100
AcDbCircle
 10
61.149359
 20
-191.540016
 30
0.0
 40
2.7845
100
AcDbArc
 50
90.0
 51
180.0
  0
ARC
  5
16E
100
AcDbEntity
  8
1
100
AcDbCircle
 10
72.649359
 20
-196.755516
 30
0.0
 40
3.0
100
AcDbArc
 50
90.0
 51
180.0
  0
ARC
  5
16F
100
AcDbEntity
  8
1
100
AcDbCircle
 10
60.649359
 20
-196.755516
 30
0.0
 40
3.0
100
AcDbArc
 50
0.0
 51
90.0
  0
ARC
  5
170
100
AcDbEntity
  8
1
100
AcDbCircle
 10
72.718359
 20
-191.540016
 30
0.0
 40
2.2155
100
AcDbArc
 50
270.0
 51
360.0
  0
ARC
  5
171
100
AcDbEntity
  8
1
100
AcDbCircle
 10
60.580359
 20
-191.540016
 30
0.0
 40
2.2155
100
AcDbArc
 50
180.0
 51
270.0
  0
LINE
  5
172
100
AcDbEntity
  8
1
100
AcDbLine
 10
78.223685
 20
-203.813488
 30
0.0
 11
74.933859
 21
-193.755516
 31
0.0
  0
LINE
  5
173
100
AcDbEntity
  8
1
100
AcDbLine
 10
55.075033
 20
-203.813488
 30
0.0
 11
58.364859
 21
-193.755516
 31
0.0
  0
ARC
  5
174
100
AcDbEntity
  8
1
100
AcDbCircle
 10
76.649359
 20
-211.755516
 30
0.0
 40
3.0
100
AcDbArc
 50
270.0
 51
360.0
  0
ARC
  5
175
100
AcDbEntity
  8
1
100
AcDbCircle
 10
56.649359
 20
-211.755516
 30
0.0
 40
3.0
100
AcDbArc
 50
180.0
 51
270.0
  0
LINE
  5
176
100
AcDbEntity
  8
1
100
AcDbLine
 10
56.649359
 20
-214.755516
 30
0.0
 11
60.649359
 21
-214.755516
 31
0.0
  0
LINE
  5
177
100
AcDbEntity
  8
1
100
AcDbLine
 10
72.649359
 20
-214.755516
 30
0.0
 11
76.649359
 21
-214.755516
 31
0.0
  0
LINE
  5
178
100
AcDbEntity
  8
1
100
AcDbLine
 10
63.649359
 20
-217.272887
 30
0.0
 11
69.649359
 21
-217.272887
 31
0.0
  0
ARC
  5
179
100
AcDbEntity
  8
1
100
AcDbCircle
 10
72.649359
 20
-214.272887
 30
0.0
 40
3.0
100
AcDbArc
 50
180.0
 51
270.0
  0
ARC
  5
17A
100
AcDbEntity
  8
1
100
AcDbCircle
 10
60.649359
 20
-214.272887
 30
0.0
 40
3.0
100
AcDbArc
 50
270.0
 51
360.0
  0
ARC
  5
17B
100
AcDbEntity
  8
1
100
AcDbCircle
 10
72.649359
 20
-211.755516
 30
0.0
 40
3.0
100
AcDbArc
 50
180.0
 51
270.0
  0
ARC
  5
17C
100
AcDbEntity
  8
1
100
AcDbCircle
 10
60.649359
 20
-211.755516
 30
0.0
 40
3.0
100
AcDbArc
 50
270.0
 51
360.0
  0
LINE
  5
17D
100
AcDbEntity
  8
1
100
AcDbLine
 10
65.649359
 20
-209.253106
 30
0.0
 11
67.649359
 21
-209.253106
 31
0.0
  0
ARC
  5
17E
100
AcDbEntity
  8
1
100
AcDbCircle
 10
67.649359
 20
-207.253106
 30
0.0
 40
2.0
100
AcDbArc
 50
270.0
 51
360.0
  0
ARC
  5
17F
100
AcDbEntity
  8
1
100
AcDbCircle
 10
65.649359
 20
-207.253106
 30
0.0
 40
2.0
100
AcDbArc
 50
180.0
 51
270.0
  0
CIRCLE
  5
180
100
AcDbEntity
  8
1
100
AcDbCircle
 10
-193.350641
 20
-147.755516
 30
0.0
 40
56.5
  0
LINE
  5
181
100
AcDbEntity
  8
1
100
AcDbLine
 10
-141.350641
 20
153.242823
 30
0.0
 11
-141.350641
 21
155.242823
 31
0.0
  0
LINE
  5
182
100
AcDbEntity
  8
1
100
AcDbLine
 10
-158.350641
 20
157.242823
 30
0.0
 11
-143.350641
 21
157.242823
 31
0.0
  0
LINE
  5
183
100
AcDbEntity
  8
1
100
AcDbLine
 10
-158.350641
 20
151.242823
 30
0.0
 11
-143.350641
 21
151.242823
 31
0.0
  0
ARC
  5
184
100
AcDbEntity
  8
1
100
AcDbCircle
 10
-143.350641
 20
155.242823
 30
0.0
 40
2.0
100
AcDbArc
 50
0.0
 51
90.0
  0
ARC
  5
185
100
AcDbEntity
  8
1
100
AcDbCircle
 10
-143.350641
 20
153.242823
 30
0.0
 40
2.0
100
AcDbArc
 50
270.0
 51
360.0
  0
LINE
  5
186
100
AcDbEntity
  8
1
100
AcDbLine
 10
-245.350641
 20
153.242823
 30
0.0
 11
-245.350641
 21
155.242823
 31
0.0
  0
LINE
  5
187
100
AcDbEntity
  8
1
100
AcDbLine
 10
-228.350641
 20
157.242823
 30
0.0
 11
-243.350641
 21
157.242823
 31
0.0
  0
LINE
  5
188
100
AcDbEntity
  8
1
100
AcDbLine
 10
-228.350641
 20
151.242823
 30
0.0
 11
-243.350641
 21
151.242823
 31
0.0
  0
ARC
  5
189
100
AcDbEntity
  8
1
100
AcDbCircle
 10
-243.350641
 20
155.242823
 30
0.0
 40
2.0
100
AcDbArc
 50
90.0
 51
180.0
  0
ARC
  5
18A
100
AcDbEntity
  8
1
100
AcDbCircle
 10
-243.350641
 20
153.242823
 30
0.0
 40
2.0
100
AcDbArc
 50
180.0
 51
270.0
  0
CIRCLE
  5
18B
100
AcDbEntity
  8
1
100
AcDbCircle
 10
-193.350641
 20
-147.755516
 30
0.0
 40
34.5
  0
CIRCLE
  5
18C
100
AcDbEntity
  8
1
100
AcDbCircle
 10
-193.350641
 20
-147.755516
 30
0.0
 40
38.5
  0
CIRCLE
  5
18D
100
AcDbEntity
  8
1
100
AcDbCircle
 10
-193.350641
 20
-147.755516
 30
0.0
 40
48.55
  0
CIRCLE
  5
18E
100
AcDbEntity
  8
1
100
AcDbCircle
 10
-193.350641
 20
-147.755516
 30
0.0
 40
50.5
  0
LINE
  5
18F
100
AcDbEntity
  8
1
100
AcDbLine
 10
-238.850641
 20
162.527323
 30
0.0
 11
-237.189687
 21
162.527323
 31
0.0
  0
LINE
  5
190
100
AcDbEntity
  8
1
100
AcDbLine
 10
-149.511596
 20
162.527323
 30
0.0
 11
-147.850641
 21
162.527323
 31
0.0
  0
LINE
  5
191
100
AcDbEntity
  8
1
100
AcDbLine
 10
-149.511596
 20
145.958323
 30
0.0
 11
-147.850641
 21
145.958323
 31
0.0
  0
LINE
  5
192
100
AcDbEntity
  8
1
100
AcDbLine
 10
-238.850641
 20
145.958323
 30
0.0
 11
-237.189687
 21
145.958323
 31
0.0
  0
LINE
  5
193
100
AcDbEntity
  8
1
100
AcDbLine
 10
-238.850641
 20
158.690797
 30
0.0
 11
-238.850641
 21
157.242823
 31
0.0
  0
LINE
  5
194
100
AcDbEntity
  8
1
  6
DASHED
100
AcDbLine
 10
-144.800641
 20
178.367823
 30
0.0
 11
-143.717308
 21
177.742823
 31
0.0
  0
LINE
  5
195
100
AcDbEntity
  8
1
100
AcDbLine
 10
-143.717308
 20
177.742823
 30
0.0
 11
-143.350919
 21
177.531444
 31
0.0
  0
LINE
  5
196
100
AcDbEntity
  8
2
  6
CENTER
 62
     2
100
AcDbLine
 10
-168.601904
 20
-22.359936
 30
0.0
 11
-168.601904
 21
11.036482
 31
0.0
  0
LINE
  5
197
100
AcDbEntity
  8
2
  6
CENTER
 62
     2
100
AcDbLine
 10
41.900621
 20
-22.359936
 30
0.0
 11
41.900621
 21
11.036482
 31
0.0
  0
LINE
  5
198
100
AcDbEntity
  8
2
100
AcDbLine
 10
-176.101904
 20
-10.755516
 30
0.0
 11
-176.101904
 21
-15.533828
 31
0.0
  0
LINE
  5
199
100
AcDbEntity
  8
2
100
AcDbLine
 10
-176.101904
 20
-15.533828
 30
0.0
 11
-174.851904
 21
-16.255516
 31
0.0
  0
LINE
  5
19A
100
AcDbEntity
  8
2
100
AcDbLine
 10
-172.351904
 20
-10.755516
 30
0.0
 11
-172.351904
 21
-15.533828
 31
0.0
  0
ARC
  5
19B
100
AcDbEntity
  8
2
100
AcDbCircle
 10
-174.226904
 20
-13.123452
 30
0.0
 40
3.053774
100
AcDbArc
 50
232.121121
 51
307.878879
  0
ARC
  5
19C
100
AcDbEntity
  8
2
100
AcDbCircle
 10
-168.601904
 20
-4.927227
 30
0.0
 40
11.25
100
AcDbArc
 50
250.528781
 51
289.471223
  0
LINE
  5
19D
100
AcDbEntity
  8
2
100
AcDbLine
 10
-161.101904
 20
-10.755516
 30
0.0
 11
-161.101904
 21
-15.533828
 31
0.0
  0
LINE
  5
19E
100
AcDbEntity
  8
2
100
AcDbLine
 10
-161.101904
 20
-15.533828
 30
0.0
 11
-162.351904
 21
-16.255516
 31
0.0
  0
LINE
  5
19F
100
AcDbEntity
  8
2
100
AcDbLine
 10
-162.351904
 20
-16.255516
 30
0.0
 11
-174.851904
 21
-16.255516
 31
0.0
  0
LINE
  5
1A0
100
AcDbEntity
  8
2
100
AcDbLine
 10
-164.851904
 20
-10.755516
 30
0.0
 11
-164.851904
 21
-15.533828
 31
0.0
  0
ARC
  5
1A1
100
AcDbEntity
  8
2
100
AcDbCircle
 10
-162.976904
 20
-13.123452
 30
0.0
 40
3.053774
100
AcDbArc
 50
232.121121
 51
307.878879
  0
LINE
  5
1A2
100
AcDbEntity
  8
2
100
AcDbLine
 10
-176.301904
 20
-8.755516
 30
0.0
 11
-176.301904
 21
-10.755516
 31
0.0
  0
LINE
  5
1A3
100
AcDbEntity
  8
2
100
AcDbLine
 10
-176.301904
 20
-10.755516
 30
0.0
 11
-160.901904
 21
-10.755516
 31
0.0
  0
LINE
  5
1A4
100
AcDbEntity
  8
2
100
AcDbLine
 10
-160.901904
 20
-10.755516
 30
0.0
 11
-160.901904
 21
-8.755516
 31
0.0
  0
LINE
  5
1A5
100
AcDbEntity
  8
2
100
AcDbLine
 10
-168.601904
 20
-10.755516
 30
0.0
 11
-168.101904
 21
-8.755516
 31
0.0
  0
LINE
  5
1A6
100
AcDbEntity
  8
2
100
AcDbLine
 10
-168.601904
 20
-8.755516
 30
0.0
 11
-169.101904
 21
-10.755516
 31
0.0
  0
LINE
  5
1A7
100
AcDbEntity
  8
2
100
AcDbLine
 10
34.200621
 20
-8.755516
 30
0.0
 11
34.200621
 21
-10.755516
 31
0.0
  0
LINE
  5
1A8
100
AcDbEntity
  8
2
100
AcDbLine
 10
34.200621
 20
-10.755516
 30
0.0
 11
49.600621
 21
-10.755516
 31
0.0
  0
LINE
  5
1A9
100
AcDbEntity
  8
2
100
AcDbLine
 10
49.600621
 20
-10.755516
 30
0.0
 11
49.600621
 21
-8.755516
 31
0.0
  0
LINE
  5
1AA
100
AcDbEntity
  8
2
100
AcDbLine
 10
35.400621
 20
-10.755516
 30
0.0
 11
35.400621
 21
-16.255516
 31
0.0
  0
LINE
  5
1AB
100
AcDbEntity
  8
2
100
AcDbLine
 10
41.900621
 20
-10.755516
 30
0.0
 11
41.900621
 21
-15.533828
 31
0.0
  0
ARC
  5
1AC
100
AcDbEntity
  8
2
100
AcDbCircle
 10
38.650621
 20
-8.576758
 30
0.0
 40
7.678759
100
AcDbArc
 50
244.96034
 51
295.03966
  0
LINE
  5
1AD
100
AcDbEntity
  8
2
100
AcDbLine
 10
48.400621
 20
-10.755516
 30
0.0
 11
48.400621
 21
-16.255516
 31
0.0
  0
LINE
  5
1AE
100
AcDbEntity
  8
2
100
AcDbLine
 10
48.400621
 20
-16.255516
 30
0.0
 11
35.400621
 21
-16.255516
 31
0.0
  0
ARC
  5
1AF
100
AcDbEntity
  8
2
100
AcDbCircle
 10
45.150621
 20
-8.576758
 30
0.0
 40
7.678759
100
AcDbArc
 50
244.96034
 51
295.03966
  0
CIRCLE
  5
1B0
100
AcDbEntity
  8
2
100
AcDbCircle
 10
-193.350641
 20
154.242823
 30
0.0
 40
11.0
  0
CIRCLE
  5
1B1
100
AcDbEntity
  8
2
100
AcDbCircle
 10
-193.350641
 20
154.242823
 30
0.0
 40
10.0
  0
ARC
  5
1B2
100
AcDbEntity
  8
2
100
AcDbCircle
 10
-193.350641
 20
154.242823
 30
0.0
 40
18.0
100
AcDbArc
 50
16.12762
 51
73.87238
  0
ARC
  5
1B3
100
AcDbEntity
  8
2
100
AcDbCircle
 10
-193.350641
 20
154.242823
 30
0.0
 40
18.0
100
AcDbArc
 50
106.12762
 51
343.87238
  0
LINE
  5
1B4
100
AcDbEntity
  8
2
100
AcDbLine
 10
-198.350641
 20
171.534439
 30
0.0
 11
-198.350641
 21
180.242823
 31
0.0
  0
LINE
  5
1B5
100
AcDbEntity
  8
2
100
AcDbLine
 10
-188.350641
 20
171.534439
 30
0.0
 11
-188.350641
 21
180.242823
 31
0.0
  0
LINE
  5
1B6
100
AcDbEntity
  8
2
100
AcDbLine
 10
-176.059025
 20
159.242823
 30
0.0
 11
-167.350641
 21
159.242823
 31
0.0
  0
LINE
  5
1B7
100
AcDbEntity
  8
2
100
AcDbLine
 10
-176.059025
 20
149.242823
 30
0.0
 11
-167.350641
 21
149.242823
 31
0.0
  0
LINE
  5
1B8
100
AcDbEntity
  8
2
100
AcDbLine
 10
-196.350641
 20
182.242823
 30
0.0
 11
-190.350641
 21
182.242823
 31
0.0
  0
LINE
  5
1B9
100
AcDbEntity
  8
2
100
AcDbLine
 10
-165.350641
 20
151.242823
 30
0.0
 11
-165.350641
 21
157.242823
 31
0.0
  0
ARC
  5
1BA
100
AcDbEntity
  8
2
100
AcDbCircle
 10
-167.350641
 20
157.242823
 30
0.0
 40
2.0
100
AcDbArc
 50
0.0
 51
90.0
  0
ARC
  5
1BB
100
AcDbEntity
  8
2
100
AcDbCircle
 10
-167.350641
 20
151.242823
 30
0.0
 40
2.0
100
AcDbArc
 50
270.0
 51
360.0
  0
ARC
  5
1BC
100
AcDbEntity
  8
2
100
AcDbCircle
 10
-190.350641
 20
180.242823
 30
0.0
 40
2.0
100
AcDbArc
 50
0.0
 51
90.0
  0
ARC
  5
1BD
100
AcDbEntity
  8
2
100
AcDbCircle
 10
-196.350641
 20
180.242823
 30
0.0
 40
2.0
100
AcDbArc
 50
90.0
 51
180.0
  0
ARC
  5
1BE
100
AcDbEntity
  8
2
100
AcDbCircle
 10
-193.350641
 20
154.242823
 30
0.0
 40
18.0
100
AcDbArc
 50
88.314587
 51
91.685413
  0
ARC
  5
1BF
100
AcDbEntity
  8
2
100
AcDbCircle
 10
-193.350641
 20
154.242823
 30
0.0
 40
18.0
100
AcDbArc
 50
358.314587
 51
1.685413
  0
LINE
  5
1C0
100
AcDbEntity
  8
2
100
AcDbLine
 10
-183.033987
 20
161.353846
 30
0.0
 11
-180.434233
 21
162.854815
 31
0.0
  0
LINE
  5
1C1
100
AcDbEntity
  8
2
100
AcDbLine
 10
-182.033987
 20
159.621795
 30
0.0
 11
-179.434233
 21
161.122764
 31
0.0
  0
LINE
  5
1C2
100
AcDbEntity
  8
2
100
AcDbLine
 10
-187.971669
 20
165.559476
 30
0.0
 11
-186.4707
 21
168.15923
 31
0.0
  0
LINE
  5
1C3
100
AcDbEntity
  8
2
100
AcDbLine
 10
-186.239618
 20
164.559476
 30
0.0
 11
-184.738649
 21
167.15923
 31
0.0
  0
ARC
  5
1C4
100
AcDbEntity
  8
2
100
AcDbCircle
 10
-193.350641
 20
154.242823
 30
0.0
 40
16.0
100
AcDbArc
 50
58.151428
 51
61.848572
  0
ARC
  5
1C5
100
AcDbEntity
  8
2
100
AcDbCircle
 10
-193.350641
 20
154.242823
 30
0.0
 40
16.0
100
AcDbArc
 50
28.151428
 51
31.848572
  0
ARC
  5
1C6
100
AcDbEntity
  8
2
100
AcDbCircle
 10
-193.350641
 20
154.242823
 30
0.0
 40
12.0
100
AcDbArc
 50
357.795772
 51
2.204228
  0
ARC
  5
1C7
100
AcDbEntity
  8
2
100
AcDbCircle
 10
-193.350641
 20
154.242823
 30
0.0
 40
12.0
100
AcDbArc
 50
27.707557
 51
32.292443
  0
ARC
  5
1C8
100
AcDbEntity
  8
2
100
AcDbCircle
 10
-193.350641
 20
154.242823
 30
0.0
 40
12.0
100
AcDbArc
 50
57.707557
 51
62.292443
  0
ARC
  5
1C9
100
AcDbEntity
  8
2
100
AcDbCircle
 10
-193.350641
 20
154.242823
 30
0.0
 40
12.0
100
AcDbArc
 50
87.795772
 51
92.204228
  0
LINE
  5
1CA
100
AcDbEntity
  8
2
100
AcDbLine
 10
-194.850641
 20
167.233204
 30
0.0
 11
-194.850641
 21
171.235468
 31
0.0
  0
LINE
  5
1CB
100
AcDbEntity
  8
2
100
AcDbLine
 10
-191.850641
 20
167.233204
 30
0.0
 11
-191.850641
 21
171.235468
 31
0.0
  0
LINE
  5
1CC
100
AcDbEntity
  8
2
100
AcDbLine
 10
-180.36026
 20
155.742823
 30
0.0
 11
-176.357996
 21
155.742823
 31
0.0
  0
LINE
  5
1CD
100
AcDbEntity
  8
2
100
AcDbLine
 10
-180.36026
 20
152.742823
 30
0.0
 11
-176.357996
 21
152.742823
 31
0.0
  0
ARC
  5
1CE
100
AcDbEntity
  8
2
100
AcDbCircle
 10
-180.36026
 20
154.742823
 30
0.0
 40
1.0
100
AcDbArc
 50
90.0
 51
182.204228
  0
ARC
  5
1CF
100
AcDbEntity
  8
2
100
AcDbCircle
 10
-180.36026
 20
153.742823
 30
0.0
 40
1.0
100
AcDbArc
 50
177.795772
 51
270.0
  0
ARC
  5
1D0
100
AcDbEntity
  8
2
100
AcDbCircle
 10
-176.357996
 20
153.742823
 30
0.0
 40
1.0
100
AcDbArc
 50
270.0
 51
358.314587
  0
ARC
  5
1D1
100
AcDbEntity
  8
2
100
AcDbCircle
 10
-176.357996
 20
154.742823
 30
0.0
 40
1.0
100
AcDbArc
 50
1.685413
 51
90.0
  0
ARC
  5
1D2
100
AcDbEntity
  8
2
100
AcDbCircle
 10
-192.850641
 20
171.235468
 30
0.0
 40
1.0
100
AcDbArc
 50
0.0
 51
88.314587
  0
ARC
  5
1D3
100
AcDbEntity
  8
2
100
AcDbCircle
 10
-193.850641
 20
171.235468
 30
0.0
 40
1.0
100
AcDbArc
 50
91.685413
 51
180.0
  0
ARC
  5
1D4
100
AcDbEntity
  8
2
100
AcDbCircle
 10
-193.850641
 20
167.233204
 30
0.0
 40
1.0
100
AcDbArc
 50
180.0
 51
272.204228
  0
ARC
  5
1D5
100
AcDbEntity
  8
2
100
AcDbCircle
 10
-192.850641
 20
167.233204
 30
0.0
 40
1.0
100
AcDbArc
 50
267.795772
 51
360.0
  0
ARC
  5
1D6
100
AcDbEntity
  8
2
100
AcDbCircle
 10
-182.283987
 20
160.054808
 30
0.0
 40
0.5
100
AcDbArc
 50
207.707557
 51
300.0
  0
ARC
  5
1D7
100
AcDbEntity
  8
2
100
AcDbCircle
 10
-182.783987
 20
160.920833
 30
0.0
 40
0.5
100
AcDbArc
 50
120.0
 51
212.292443
  0
ARC
  5
1D8
100
AcDbEntity
  8
2
100
AcDbCircle
 10
-179.684233
 20
161.555777
 30
0.0
 40
0.5
100
AcDbArc
 50
300.0
 51
28.151428
  0
ARC
  5
1D9
100
AcDbEntity
  8
2
100
AcDbCircle
 10
-180.184233
 20
162.421802
 30
0.0
 40
0.5
100
AcDbArc
 50
31.848572
 51
120.0
  0
ARC
  5
1DA
100
AcDbEntity
  8
2
100
AcDbCircle
 10
-186.672631
 20
164.809476
 30
0.0
 40
0.5
100
AcDbArc
 50
237.707557
 51
330.0
  0
ARC
  5
1DB
100
AcDbEntity
  8
2
100
AcDbCircle
 10
-187.538656
 20
165.309476
 30
0.0
 40
0.5
100
AcDbArc
 50
150.0
 51
242.292443
  0
ARC
  5
1DC
100
AcDbEntity
  8
2
100
AcDbCircle
 10
-186.037687
 20
167.90923
 30
0.0
 40
0.5
100
AcDbArc
 50
61.848572
 51
150.0
  0
ARC
  5
1DD
100
AcDbEntity
  8
2
100
AcDbCircle
 10
-185.171662
 20
167.40923
 30
0.0
 40
0.5
100
AcDbArc
 50
330.0
 51
58.151428
  0
ARC
  5
1DE
100
AcDbEntity
  8
2
100
AcDbCircle
 10
-193.350641
 20
154.242823
 30
0.0
 40
17.0
100
AcDbArc
 50
13.608961
 51
76.391039
  0
ARC
  5
1DF
100
AcDbEntity
  8
2
100
AcDbCircle
 10
-193.350641
 20
154.242823
 30
0.0
 40
17.0
100
AcDbArc
 50
103.608961
 51
346.391039
  0
LINE
  5
1E0
100
AcDbEntity
  8
2
100
AcDbLine
 10
-189.350641
 20
170.765534
 30
0.0
 11
-189.350641
 21
180.242823
 31
0.0
  0
LINE
  5
1E1
100
AcDbEntity
  8
2
100
AcDbLine
 10
-196.350641
 20
181.242823
 30
0.0
 11
-190.350641
 21
181.242823
 31
0.0
  0
LINE
  5
1E2
100
AcDbEntity
  8
2
100
AcDbLine
 10
-197.350641
 20
170.765534
 30
0.0
 11
-197.350641
 21
180.242823
 31
0.0
  0
LINE
  5
1E3
100
AcDbEntity
  8
2
100
AcDbLine
 10
-176.82793
 20
158.242823
 30
0.0
 11
-167.350641
 21
158.242823
 31
0.0
  0
LINE
  5
1E4
100
AcDbEntity
  8
2
100
AcDbLine
 10
-166.350641
 20
151.242823
 30
0.0
 11
-166.350641
 21
157.242823
 31
0.0
  0
LINE
  5
1E5
100
AcDbEntity
  8
2
100
AcDbLine
 10
-176.82793
 20
150.242823
 30
0.0
 11
-167.350641
 21
150.242823
 31
0.0
  0
ARC
  5
1E6
100
AcDbEntity
  8
2
100
AcDbCircle
 10
-167.350641
 20
157.242823
 30
0.0
 40
1.0
100
AcDbArc
 50
0.0
 51
90.0
  0
ARC
  5
1E7
100
AcDbEntity
  8
2
100
AcDbCircle
 10
-167.350641
 20
151.242823
 30
0.0
 40
1.0
100
AcDbArc
 50
270.0
 51
0.0
  0
ARC
  5
1E8
100
AcDbEntity
  8
2
100
AcDbCircle
 10
-190.350641
 20
180.242823
 30
0.0
 40
1.0
100
AcDbArc
 50
0.0
 51
90.0
  0
ARC
  5
1E9
100
AcDbEntity
  8
2
100
AcDbCircle
 10
-196.350641
 20
180.242823
 30
0.0
 40
1.0
100
AcDbArc
 50
90.0
 51
180.0
  0
LINE
  5
1EA
100
AcDbEntity
  8
2
100
AcDbLine
 10
-188.350641
 20
171.534439
 30
0.0
 11
-189.350641
 21
170.765534
 31
0.0
  0
LINE
  5
1EB
100
AcDbEntity
  8
2
100
AcDbLine
 10
-197.350641
 20
170.765534
 30
0.0
 11
-198.350641
 21
171.534439
 31
0.0
  0
LINE
  5
1EC
100
AcDbEntity
  8
2
100
AcDbLine
 10
-176.82793
 20
158.242823
 30
0.0
 11
-176.059025
 21
159.242823
 31
0.0
  0
LINE
  5
1ED
100
AcDbEntity
  8
2
100
AcDbLine
 10
-176.82793
 20
150.242823
 30
0.0
 11
-176.059025
 21
149.242823
 31
0.0
  0
LINE
  5
1EE
100
AcDbEntity
  8
2
100
AcDbLine
 10
-202.515793
 20
158.242823
 30
0.0
 11
-189.007971
 21
158.242823
 31
0.0
  0
LINE
  5
1EF
100
AcDbEntity
  8
2
100
AcDbLine
 10
-202.515793
 20
150.242823
 30
0.0
 11
-189.007971
 21
150.242823
 31
0.0
  0
LINE
  5
1F0
100
AcDbEntity
  8
2
100
AcDbLine
 10
-183.378806
 20
153.492823
 30
0.0
 11
-189.007971
 21
150.242823
 31
0.0
  0
LINE
  5
1F1
100
AcDbEntity
  8
2
100
AcDbLine
 10
-183.378806
 20
154.992823
 30
0.0
 11
-189.007971
 21
158.242823
 31
0.0
  0
LINE
  5
1F2
100
AcDbEntity
  8
2
100
AcDbLine
 10
-202.091276
 20
157.992823
 30
0.0
 11
-189.496862
 21
157.992823
 31
0.0
  0
LINE
  5
1F3
100
AcDbEntity
  8
2
100
AcDbLine
 10
-202.091276
 20
150.492823
 30
0.0
 11
-189.496862
 21
150.492823
 31
0.0
  0
ARC
  5
1F4
100
AcDbEntity
  8
2
100
AcDbCircle
 10
-193.350641
 20
154.242823
 30
0.0
 40
9.511109
100
AcDbArc
 50
156.779186
 51
203.220814
  0
ARC
  5
1F5
100
AcDbEntity
  8
2
100
AcDbCircle
 10
-193.350641
 20
154.242823
 30
0.0
 40
9.511109
100
AcDbArc
 50
356.952608
 51
3.047392
  0
LINE
  5
1F6
100
AcDbEntity
  8
2
100
AcDbLine
 10
-202.091276
 20
157.992823
 30
0.0
 11
-202.515793
 21
158.242823
 31
0.0
  0
LINE
  5
1F7
100
AcDbEntity
  8
2
100
AcDbLine
 10
-202.091276
 20
150.492823
 30
0.0
 11
-202.515793
 21
150.242823
 31
0.0
  0
LINE
  5
1F8
100
AcDbEntity
  8
2
100
AcDbLine
 10
-189.496862
 20
157.992823
 30
0.0
 11
-183.852982
 21
154.748452
 31
0.0
  0
LINE
  5
1F9
100
AcDbEntity
  8
2
100
AcDbLine
 10
-183.852982
 20
153.737193
 30
0.0
 11
-189.496862
 21
150.492823
 31
0.0
  0
LINE
  5
1FA
100
AcDbEntity
  8
2
100
AcDbLine
 10
-183.852982
 20
154.748452
 30
0.0
 11
-183.378806
 21
154.992823
 31
0.0
  0
LINE
  5
1FB
100
AcDbEntity
  8
2
100
AcDbLine
 10
-183.852982
 20
153.737193
 30
0.0
 11
-183.378806
 21
153.492823
 31
0.0
  0
LINE
  5
1FC
100
AcDbEntity
  8
2
100
AcDbLine
 10
-189.496862
 20
150.492823
 30
0.0
 11
-189.007971
 21
150.242823
 31
0.0
  0
LINE
  5
1FD
100
AcDbEntity
  8
2
100
AcDbLine
 10
-189.496862
 20
157.992823
 30
0.0
 11
-189.007971
 21
158.242823
 31
0.0
  0
LINE
  5
1FE
100
AcDbEntity
  8
2
  6
CENTER
 62
     2
100
AcDbLine
 10
-181.473308
 20
166.120156
 30
0.0
 11
-172.09217
 21
175.501294
 31
0.0
  0
LINE
  5
1FF
100
AcDbEntity
  8
2
  6
CENTER
 62
     2
100
AcDbLine
 10
-205.227974
 20
166.120156
 30
0.0
 11
-214.609112
 21
175.501294
 31
0.0
  0
LINE
  5
200
100
AcDbEntity
  8
2
  6
CENTER
 62
     2
100
AcDbLine
 10
-205.227974
 20
142.365489
 30
0.0
 11
-214.609112
 21
132.984352
 31
0.0
  0
ARC
  5
201
100
AcDbEntity
  8
2
100
AcDbCircle
 10
-199.541849
 20
186.685162
 30
0.0
 40
1.94234
100
AcDbArc
 50
270.0
 51
360.0
  0
ARC
  5
202
100
AcDbEntity
  8
2
100
AcDbCircle
 10
-201.571594
 20
188.44298
 30
0.0
 40
1.94234
100
AcDbArc
 50
90.0
 51
180.0
  0
ARC
  5
203
100
AcDbEntity
  8
2
100
AcDbCircle
 10
-200.707253
 20
186.665739
 30
0.0
 40
0.97117
100
AcDbArc
 50
180.0
 51
270.0
  0
ARC
  5
204
100
AcDbEntity
  8
2
100
AcDbCircle
 10
-200.40619
 20
188.462403
 30
0.0
 40
0.97117
100
AcDbArc
 50
0.0
 51
90.0
  0
LINE
  5
205
100
AcDbEntity
  8
2
100
AcDbLine
 10
-194.948216
 20
189.433573
 30
0.0
 11
-195.152161
 21
184.742823
 31
0.0
  0
LINE
  5
206
100
AcDbEntity
  8
2
100
AcDbLine
 10
-191.753067
 20
189.433573
 30
0.0
 11
-191.549121
 21
184.742823
 31
0.0
  0
LINE
  5
207
100
AcDbEntity
  8
2
100
AcDbLine
 10
-194.948216
 20
189.433573
 30
0.0
 11
-194.074163
 21
184.742823
 31
0.0
  0
LINE
  5
208
100
AcDbEntity
  8
2
100
AcDbLine
 10
-193.350641
 20
187.005648
 30
0.0
 11
-192.720889
 21
190.385319
 31
0.0
  0
LINE
  5
209
100
AcDbEntity
  8
2
100
AcDbLine
 10
-196.579781
 20
190.385319
 30
0.0
 11
-193.980394
 21
190.385319
 31
0.0
  0
LINE
  5
20A
100
AcDbEntity
  8
2
100
AcDbLine
 10
-194.074163
 20
184.742823
 30
0.0
 11
-192.62712
 21
184.742823
 31
0.0
  0
ARC
  5
20B
100
AcDbEntity
  8
2
100
AcDbCircle
 10
-185.129688
 20
186.685162
 30
0.0
 40
1.94234
100
AcDbArc
 50
270.0
 51
360.0
  0
ARC
  5
20C
100
AcDbEntity
  8
2
100
AcDbCircle
 10
-185.99403
 20
186.665739
 30
0.0
 40
0.97117
100
AcDbArc
 50
270.0
 51
360.0
  0
LINE
  5
20D
100
AcDbEntity
  8
2
100
AcDbLine
 10
-187.266262
 20
188.462403
 30
0.0
 11
-187.266262
 21
186.665739
 31
0.0
  0
ARC
  5
20E
100
AcDbEntity
  8
2
100
AcDbCircle
 10
-187.159433
 20
188.44298
 30
0.0
 40
1.94234
100
AcDbArc
 50
90.0
 51
180.0
  0
LINE
  5
20F
100
AcDbEntity
  8
2
100
AcDbLine
 10
-189.101773
 20
188.44298
 30
0.0
 11
-189.101773
 21
186.685162
 31
0.0
  0
LINE
  5
210
100
AcDbEntity
  8
2
100
AcDbLine
 10
-191.549121
 20
184.742823
 30
0.0
 11
-189.71361
 21
184.742823
 31
0.0
  0
LINE
  5
211
100
AcDbEntity
  8
2
100
AcDbLine
 10
-182.371566
 20
184.878786
 30
0.0
 11
-177.952743
 21
184.878786
 31
0.0
  0
LINE
  5
212
100
AcDbEntity
  8
2
100
AcDbLine
 10
-180.536055
 20
187.054207
 30
0.0
 11
-177.952743
 21
187.054207
 31
0.0
  0
LINE
  5
213
100
AcDbEntity
  8
2
100
AcDbLine
 10
-180.536055
 20
188.073935
 30
0.0
 11
-177.952743
 21
188.073935
 31
0.0
  0
LINE
  5
214
100
AcDbEntity
  8
2
100
AcDbLine
 10
-180.536055
 20
185.898515
 30
0.0
 11
-180.536055
 21
187.054207
 31
0.0
  0
LINE
  5
215
100
AcDbEntity
  8
2
100
AcDbLine
 10
-180.536055
 20
188.073935
 30
0.0
 11
-180.536055
 21
189.229627
 31
0.0
  0
LINE
  5
216
100
AcDbEntity
  8
2
100
AcDbLine
 10
-206.573119
 20
189.229627
 30
0.0
 11
-204.737608
 21
189.229627
 31
0.0
  0
LINE
  5
217
100
AcDbEntity
  8
2
100
AcDbLine
 10
-208.952485
 20
188.073935
 30
0.0
 11
-201.814387
 21
191.541011
 31
0.0
  0
LINE
  5
218
100
AcDbEntity
  8
2
100
AcDbLine
 10
-208.952485
 20
188.073935
 30
0.0
 11
-208.952485
 21
191.541011
 31
0.0
  0
LINE
  5
219
100
AcDbEntity
  8
2
100
AcDbLine
 10
-204.737608
 20
189.229627
 30
0.0
 11
-204.737608
 21
184.742823
 31
0.0
  0
LINE
  5
21A
100
AcDbEntity
  8
2
100
AcDbLine
 10
-203.513934
 20
188.44298
 30
0.0
 11
-203.513934
 21
186.685162
 31
0.0
  0
LINE
  5
21B
100
AcDbEntity
  8
2
100
AcDbLine
 10
-197.599509
 20
188.44298
 30
0.0
 11
-197.599509
 21
186.685162
 31
0.0
  0
LINE
  5
21C
100
AcDbEntity
  8
2
100
AcDbLine
 10
-201.678423
 20
188.462403
 30
0.0
 11
-201.678423
 21
186.665739
 31
0.0
  0
LINE
  5
21D
100
AcDbEntity
  8
2
100
AcDbLine
 10
-199.43502
 20
188.462403
 30
0.0
 11
-199.43502
 21
186.665739
 31
0.0
  0
ARC
  5
21E
100
AcDbEntity
  8
2
100
AcDbCircle
 10
-201.571594
 20
186.685162
 30
0.0
 40
1.94234
100
AcDbArc
 50
180.0
 51
270.0
  0
ARC
  5
21F
100
AcDbEntity
  8
2
100
AcDbCircle
 10
-199.541849
 20
188.44298
 30
0.0
 40
1.94234
100
AcDbArc
 50
360.0
 51
90.0
  0
ARC
  5
220
100
AcDbEntity
  8
2
100
AcDbCircle
 10
-200.40619
 20
186.665739
 30
0.0
 40
0.97117
100
AcDbArc
 50
270.0
 51
360.0
  0
ARC
  5
221
100
AcDbEntity
  8
2
100
AcDbCircle
 10
-200.707253
 20
188.462403
 30
0.0
 40
0.97117
100
AcDbArc
 50
90.0
 51
180.0
  0
LINE
  5
222
100
AcDbEntity
  8
2
100
AcDbLine
 10
-206.573119
 20
184.742823
 30
0.0
 11
-204.737608
 21
184.742823
 31
0.0
  0
LINE
  5
223
100
AcDbEntity
  8
2
100
AcDbLine
 10
-196.579781
 20
190.385319
 30
0.0
 11
-196.987672
 21
184.742823
 31
0.0
  0
LINE
  5
224
100
AcDbEntity
  8
2
100
AcDbLine
 10
-190.121501
 20
190.385319
 30
0.0
 11
-189.71361
 21
184.742823
 31
0.0
  0
LINE
  5
225
100
AcDbEntity
  8
2
100
AcDbLine
 10
-191.753067
 20
189.433573
 30
0.0
 11
-192.62712
 21
184.742823
 31
0.0
  0
LINE
  5
226
100
AcDbEntity
  8
2
100
AcDbLine
 10
-193.350641
 20
187.005648
 30
0.0
 11
-193.980394
 21
190.385319
 31
0.0
  0
LINE
  5
227
100
AcDbEntity
  8
2
100
AcDbLine
 10
-201.571594
 20
190.385319
 30
0.0
 11
-199.541849
 21
190.385319
 31
0.0
  0
LINE
  5
228
100
AcDbEntity
  8
2
100
AcDbLine
 10
-201.571594
 20
184.742823
 30
0.0
 11
-199.541849
 21
184.742823
 31
0.0
  0
LINE
  5
229
100
AcDbEntity
  8
2
100
AcDbLine
 10
-196.987672
 20
184.742823
 30
0.0
 11
-195.152161
 21
184.742823
 31
0.0
  0
ARC
  5
22A
100
AcDbEntity
  8
2
100
AcDbCircle
 10
-187.159433
 20
186.685162
 30
0.0
 40
1.94234
100
AcDbArc
 50
180.0
 51
270.0
  0
LINE
  5
22B
100
AcDbEntity
  8
2
100
AcDbLine
 10
-185.02286
 20
188.462403
 30
0.0
 11
-185.02286
 21
186.665739
 31
0.0
  0
ARC
  5
22C
100
AcDbEntity
  8
2
100
AcDbCircle
 10
-186.295092
 20
186.665739
 30
0.0
 40
0.97117
100
AcDbArc
 50
180.0
 51
270.0
  0
ARC
  5
22D
100
AcDbEntity
  8
2
100
AcDbCircle
 10
-185.99403
 20
188.462403
 30
0.0
 40
0.97117
100
AcDbArc
 50
0.0
 51
90.0
  0
ARC
  5
22E
100
AcDbEntity
  8
2
100
AcDbCircle
 10
-186.295092
 20
188.462403
 30
0.0
 40
0.97117
100
AcDbArc
 50
90.0
 51
180.0
  0
ARC
  5
22F
100
AcDbEntity
  8
2
100
AcDbCircle
 10
-185.129688
 20
188.44298
 30
0.0
 40
1.94234
100
AcDbArc
 50
360.0
 51
90.0
  0
LINE
  5
230
100
AcDbEntity
  8
2
100
AcDbLine
 10
-183.187349
 20
188.44298
 30
0.0
 11
-183.187349
 21
186.685162
 31
0.0
  0
LINE
  5
231
100
AcDbEntity
  8
2
100
AcDbLine
 10
-200.40619
 20
189.433573
 30
0.0
 11
-200.707253
 21
189.433573
 31
0.0
  0
LINE
  5
232
100
AcDbEntity
  8
2
100
AcDbLine
 10
-200.40619
 20
185.694569
 30
0.0
 11
-200.707253
 21
185.694569
 31
0.0
  0
LINE
  5
233
100
AcDbEntity
  8
2
100
AcDbLine
 10
-186.295092
 20
189.433573
 30
0.0
 11
-185.99403
 21
189.433573
 31
0.0
  0
LINE
  5
234
100
AcDbEntity
  8
2
100
AcDbLine
 10
-192.720889
 20
190.385319
 30
0.0
 11
-190.121501
 21
190.385319
 31
0.0
  0
LINE
  5
235
100
AcDbEntity
  8
2
100
AcDbLine
 10
-187.159433
 20
190.385319
 30
0.0
 11
-185.129688
 21
190.385319
 31
0.0
  0
LINE
  5
236
100
AcDbEntity
  8
2
100
AcDbLine
 10
-187.159433
 20
184.742823
 30
0.0
 11
-185.129688
 21
184.742823
 31
0.0
  0
LINE
  5
237
100
AcDbEntity
  8
2
100
AcDbLine
 10
-182.371566
 20
190.249356
 30
0.0
 11
-182.371566
 21
184.878786
 31
0.0
  0
LINE
  5
238
100
AcDbEntity
  8
2
100
AcDbLine
 10
-182.371566
 20
190.249356
 30
0.0
 11
-177.952743
 21
190.249356
 31
0.0
  0
LINE
  5
239
100
AcDbEntity
  8
2
100
AcDbLine
 10
-180.536055
 20
185.898515
 30
0.0
 11
-177.952743
 21
185.898515
 31
0.0
  0
LINE
  5
23A
100
AcDbEntity
  8
2
100
AcDbLine
 10
-180.536055
 20
189.229627
 30
0.0
 11
-177.952743
 21
189.229627
 31
0.0
  0
LINE
  5
23B
100
AcDbEntity
  8
2
100
AcDbLine
 10
-177.952743
 20
189.229627
 30
0.0
 11
-177.952743
 21
190.249356
 31
0.0
  0
LINE
  5
23C
100
AcDbEntity
  8
2
100
AcDbLine
 10
-177.952743
 20
184.878786
 30
0.0
 11
-177.952743
 21
185.898515
 31
0.0
  0
LINE
  5
23D
100
AcDbEntity
  8
2
100
AcDbLine
 10
-177.952743
 20
187.054207
 30
0.0
 11
-177.952743
 21
188.073935
 31
0.0
  0
LINE
  5
23E
100
AcDbEntity
  8
2
100
AcDbLine
 10
-206.573119
 20
189.229627
 30
0.0
 11
-206.573119
 21
184.742823
 31
0.0
  0
LINE
  5
23F
100
AcDbEntity
  8
2
100
AcDbLine
 10
-208.952485
 20
191.541011
 30
0.0
 11
-201.814387
 21
191.541011
 31
0.0
  0
LINE
  5
240
100
AcDbEntity
  8
2
100
AcDbLine
 10
-186.295092
 20
185.694569
 30
0.0
 11
-185.99403
 21
185.694569
 31
0.0
  0
LINE
  5
241
100
AcDbEntity
  8
2
100
AcDbLine
 10
-110.350641
 20
212.058521
 30
0.0
 11
-110.350641
 21
152.427124
 31
0.0
  0
LINE
  5
242
100
AcDbEntity
  8
2
100
AcDbLine
 10
-111.850641
 20
213.558521
 30
0.0
 11
-114.350641
 21
213.558521
 31
0.0
  0
LINE
  5
243
100
AcDbEntity
  8
2
100
AcDbLine
 10
-111.850641
 20
150.927124
 30
0.0
 11
-114.350641
 21
150.927124
 31
0.0
  0
ARC
  5
244
100
AcDbEntity
  8
2
100
AcDbCircle
 10
-111.850641
 20
212.058521
 30
0.0
 40
1.5
100
AcDbArc
 50
0.0
 51
90.0
  0
ARC
  5
245
100
AcDbEntity
  8
2
100
AcDbCircle
 10
-111.850641
 20
152.427124
 30
0.0
 40
1.5
100
AcDbArc
 50
270.0
 51
360.0
  0
LINE
  5
246
100
AcDbEntity
  8
2
100
AcDbLine
 10
-132.350641
 20
188.742823
 30
0.0
 11
-132.350641
 21
175.742823
 31
0.0
  0
LINE
  5
247
100
AcDbEntity
  8
2
100
AcDbLine
 10
-130.350641
 20
190.742823
 30
0.0
 11
-116.350641
 21
190.742823
 31
0.0
  0
LINE
  5
248
100
AcDbEntity
  8
2
100
AcDbLine
 10
-130.350641
 20
173.742823
 30
0.0
 11
-116.350641
 21
173.742823
 31
0.0
  0
ARC
  5
249
100
AcDbEntity
  8
2
100
AcDbCircle
 10
-130.350641
 20
188.742823
 30
0.0
 40
2.0
100
AcDbArc
 50
90.0
 51
180.0
  0
ARC
  5
24A
100
AcDbEntity
  8
2
100
AcDbCircle
 10
-130.350641
 20
175.742823
 30
0.0
 40
2.0
100
AcDbArc
 50
180.0
 51
270.0
  0
LINE
  5
24B
100
AcDbEntity
  8
2
100
AcDbLine
 10
-118.350641
 20
209.558521
 30
0.0
 11
-118.350641
 21
206.082318
 31
0.0
  0
ARC
  5
24C
100
AcDbEntity
  8
2
100
AcDbCircle
 10
-114.350641
 20
209.558521
 30
0.0
 40
4.0
100
AcDbArc
 50
90.0
 51
180.0
  0
ARC
  5
24D
100
AcDbEntity
  8
2
100
AcDbCircle
 10
-114.350641
 20
206.082318
 30
0.0
 40
4.0
100
AcDbArc
 50
180.0
 51
244.623066
  0
ARC
  5
24E
100
AcDbEntity
  8
2
100
AcDbCircle
 10
-117.350641
 20
199.757763
 30
0.0
 40
3.0
100
AcDbArc
 50
0.0
 51
64.623066
  0
LINE
  5
24F
100
AcDbEntity
  8
2
100
AcDbLine
 10
-111.850641
 20
203.961522
 30
0.0
 11
-114.350641
 21
203.961522
 31
0.0
  0
ARC
  5
250
100
AcDbEntity
  8
2
100
AcDbCircle
 10
-114.350641
 20
207.961522
 30
0.0
 40
4.0
100
AcDbArc
 50
180.0
 51
270.0
  0
ARC
  5
251
100
AcDbEntity
  8
2
100
AcDbCircle
 10
-116.350641
 20
192.742823
 30
0.0
 40
2.0
100
AcDbArc
 50
270.0
 51
360.0
  0
ARC
  5
252
100
AcDbEntity
  8
2
100
AcDbCircle
 10
-116.350641
 20
171.742823
 30
0.0
 40
2.0
100
AcDbArc
 50
0.0
 51
90.0
  0
LINE
  5
253
100
AcDbEntity
  8
2
100
AcDbLine
 10
-118.350641
 20
185.846614
 30
0.0
 11
-118.350641
 21
178.639032
 31
0.0
  0
ARC
  5
254
100
AcDbEntity
  8
2
100
AcDbCircle
 10
-114.350641
 20
185.846614
 30
0.0
 40
4.0
100
AcDbArc
 50
115.376934
 51
180.0
  0
ARC
  5
255
100
AcDbEntity
  8
2
100
AcDbCircle
 10
-114.350641
 20
178.639032
 30
0.0
 40
4.0
100
AcDbArc
 50
180.0
 51
244.623066
  0
ARC
  5
256
100
AcDbEntity
  8
2
100
AcDbCircle
 10
-117.350641
 20
192.171169
 30
0.0
 40
3.0
100
AcDbArc
 50
295.376934
 51
360.0
  0
ARC
  5
257
100
AcDbEntity
  8
2
100
AcDbCircle
 10
-117.350641
 20
172.314476
 30
0.0
 40
3.0
100
AcDbArc
 50
0.0
 51
64.623066
  0
LINE
  5
258
100
AcDbEntity
  8
2
100
AcDbLine
 10
-114.350641
 20
164.727882
 30
0.0
 11
-114.350641
 21
172.314476
 31
0.0
  0
LINE
  5
259
100
AcDbEntity
  8
2
100
AcDbLine
 10
-114.350641
 20
192.171169
 30
0.0
 11
-114.350641
 21
199.757763
 31
0.0
  0
LINE
  5
25A
100
AcDbEntity
  8
2
100
AcDbLine
 10
-111.850641
 20
189.6359
 30
0.0
 11
-114.350641
 21
189.6359
 31
0.0
  0
LINE
  5
25B
100
AcDbEntity
  8
2
100
AcDbLine
 10
-111.850641
 20
174.849745
 30
0.0
 11
-114.350641
 21
174.849745
 31
0.0
  0
ARC
  5
25C
100
AcDbEntity
  8
2
100
AcDbCircle
 10
-114.350641
 20
185.6359
 30
0.0
 40
4.0
100
AcDbArc
 50
90.0
 51
180.0
  0
ARC
  5
25D
100
AcDbEntity
  8
2
100
AcDbCircle
 10
-114.350641
 20
178.849745
 30
0.0
 40
4.0
100
AcDbArc
 50
180.0
 51
270.0
  0
ARC
  5
25E
100
AcDbEntity
  8
2
100
AcDbCircle
 10
-111.850641
 20
188.1359
 30
0.0
 40
1.5
100
AcDbArc
 50
360.0
 51
90.0
  0
ARC
  5
25F
100
AcDbEntity
  8
2
100
AcDbCircle
 10
-111.850641
 20
176.349745
 30
0.0
 40
1.5
100
AcDbArc
 50
270.0
 51
0.0
  0
LINE
  5
260
100
AcDbEntity
  8
2
100
AcDbLine
 10
-118.350641
 20
154.927124
 30
0.0
 11
-118.350641
 21
158.403327
 31
0.0
  0
ARC
  5
261
100
AcDbEntity
  8
2
100
AcDbCircle
 10
-114.350641
 20
154.927124
 30
0.0
 40
4.0
100
AcDbArc
 50
180.0
 51
270.0
  0
ARC
  5
262
100
AcDbEntity
  8
2
100
AcDbCircle
 10
-114.350641
 20
158.403327
 30
0.0
 40
4.0
100
AcDbArc
 50
115.376934
 51
180.0
  0
ARC
  5
263
100
AcDbEntity
  8
2
100
AcDbCircle
 10
-117.350641
 20
164.727882
 30
0.0
 40
3.0
100
AcDbArc
 50
295.376934
 51
360.0
  0
LINE
  5
264
100
AcDbEntity
  8
2
100
AcDbLine
 10
-111.850641
 20
160.524123
 30
0.0
 11
-114.350641
 21
160.524123
 31
0.0
  0
ARC
  5
265
100
AcDbEntity
  8
2
100
AcDbCircle
 10
-114.350641
 20
156.524123
 30
0.0
 40
4.0
100
AcDbArc
 50
90.0
 51
180.0
  0
LINE
  5
266
100
AcDbEntity
  8
2
100
AcDbLine
 10
-222.350641
 20
201.242823
 30
0.0
 11
-164.350641
 21
201.242823
 31
0.0
  0
LINE
  5
267
100
AcDbEntity
  8
2
100
AcDbLine
 10
-218.350641
 20
119.242823
 30
0.0
 11
-168.350641
 21
119.242823
 31
0.0
  0
LINE
  5
268
100
AcDbEntity
  8
2
100
AcDbLine
 10
-228.350641
 20
129.242823
 30
0.0
 11
-228.350641
 21
195.242823
 31
0.0
  0
LINE
  5
269
100
AcDbEntity
  8
2
100
AcDbLine
 10
-158.350641
 20
129.242823
 30
0.0
 11
-158.350641
 21
195.242823
 31
0.0
  0
LINE
  5
26A
100
AcDbEntity
  8
2
100
AcDbLine
 10
-222.350641
 20
132.242823
 30
0.0
 11
-164.350641
 21
132.242823
 31
0.0
  0
ARC
  5
26B
100
AcDbEntity
  8
2
100
AcDbCircle
 10
-222.350641
 20
195.242823
 30
0.0
 40
6.0
100
AcDbArc
 50
90.0
 51
180.0
  0
ARC
  5
26C
100
AcDbEntity
  8
2
100
AcDbCircle
 10
-164.350641
 20
195.242823
 30
0.0
 40
6.0
100
AcDbArc
 50
0.0
 51
90.0
  0
ARC
  5
26D
100
AcDbEntity
  8
2
100
AcDbCircle
 10
-164.350641
 20
138.242823
 30
0.0
 40
6.0
100
AcDbArc
 50
270.0
 51
0.0
  0
ARC
  5
26E
100
AcDbEntity
  8
2
100
AcDbCircle
 10
-222.350641
 20
138.242823
 30
0.0
 40
6.0
100
AcDbArc
 50
180.0
 51
270.0
  0
ARC
  5
26F
100
AcDbEntity
  8
2
100
AcDbCircle
 10
-168.350641
 20
129.242823
 30
0.0
 40
10.0
100
AcDbArc
 50
270.0
 51
360.0
  0
ARC
  5
270
100
AcDbEntity
  8
2
100
AcDbCircle
 10
-218.350641
 20
129.242823
 30
0.0
 40
10.0
100
AcDbArc
 50
180.0
 51
270.0
  0
CIRCLE
  5
271
100
AcDbEntity
  8
2
100
AcDbCircle
 10
-177.087185
 20
170.506278
 30
0.0
 40
4.0
  0
CIRCLE
  5
272
100
AcDbEntity
  8
2
100
AcDbCircle
 10
-209.614097
 20
170.506278
 30
0.0
 40
4.0
  0
CIRCLE
  5
273
100
AcDbEntity
  8
2
100
AcDbCircle
 10
-209.614097
 20
137.979367
 30
0.0
 40
4.0
  0
CIRCLE
  5
274
100
AcDbEntity
  8
2
100
AcDbCircle
 10
-177.087185
 20
170.506278
 30
0.0
 40
1.0
  0
CIRCLE
  5
275
100
AcDbEntity
  8
2
100
AcDbCircle
 10
-209.614097
 20
170.506278
 30
0.0
 40
1.0
  0
CIRCLE
  5
276
100
AcDbEntity
  8
2
100
AcDbCircle
 10
-209.614097
 20
137.979367
 30
0.0
 40
1.0
  0
LINE
  5
277
100
AcDbEntity
  8
2
100
AcDbLine
 10
-223.350641
 20
189.242823
 30
0.0
 11
-221.350641
 21
189.242823
 31
0.0
  0
LINE
  5
278
100
AcDbEntity
  8
2
100
AcDbLine
 10
-165.350641
 20
189.242823
 30
0.0
 11
-163.350641
 21
189.242823
 31
0.0
  0
LINE
  5
279
100
AcDbEntity
  8
2
100
AcDbLine
 10
-216.350641
 20
137.242823
 30
0.0
 11
-216.350641
 21
139.242823
 31
0.0
  0
LINE
  5
27A
100
AcDbEntity
  8
2
100
AcDbLine
 10
-216.350641
 20
194.242823
 30
0.0
 11
-216.350641
 21
196.242823
 31
0.0
  0
LINE
  5
27B
100
AcDbEntity
  8
2
100
AcDbLine
 10
-170.350641
 20
137.242823
 30
0.0
 11
-170.350641
 21
139.242823
 31
0.0
  0
LINE
  5
27C
100
AcDbEntity
  8
2
100
AcDbLine
 10
-170.350641
 20
194.242823
 30
0.0
 11
-170.350641
 21
196.242823
 31
0.0
  0
LINE
  5
27D
100
AcDbEntity
  8
2
100
AcDbLine
 10
-223.350641
 20
144.242823
 30
0.0
 11
-221.350641
 21
144.242823
 31
0.0
  0
LINE
  5
27E
100
AcDbEntity
  8
2
100
AcDbLine
 10
-165.350641
 20
144.242823
 30
0.0
 11
-163.350641
 21
144.242823
 31
0.0
  0
ARC
  5
27F
100
AcDbEntity
  8
2
100
AcDbCircle
 10
-165.350641
 20
139.242823
 30
0.0
 40
5.0
100
AcDbArc
 50
90.0
 51
180.0
  0
ARC
  5
280
100
AcDbEntity
  8
2
100
AcDbCircle
 10
-165.350641
 20
194.242823
 30
0.0
 40
5.0
100
AcDbArc
 50
180.0
 51
270.0
  0
ARC
  5
281
100
AcDbEntity
  8
2
100
AcDbCircle
 10
-221.350641
 20
194.242823
 30
0.0
 40
5.0
100
AcDbArc
 50
270.0
 51
360.0
  0
ARC
  5
282
100
AcDbEntity
  8
2
100
AcDbCircle
 10
-221.350641
 20
139.242823
 30
0.0
 40
5.0
100
AcDbArc
 50
0.0
 51
90.0
  0
ARC
  5
283
100
AcDbEntity
  8
2
100
AcDbCircle
 10
-163.350641
 20
184.242823
 30
0.0
 40
5.0
100
AcDbArc
 50
0.0
 51
90.0
  0
ARC
  5
284
100
AcDbEntity
  8
2
100
AcDbCircle
 10
-175.350641
 20
196.242823
 30
0.0
 40
5.0
100
AcDbArc
 50
0.0
 51
90.0
  0
ARC
  5
285
100
AcDbEntity
  8
2
100
AcDbCircle
 10
-211.350641
 20
196.242823
 30
0.0
 40
5.0
100
AcDbArc
 50
90.0
 51
180.0
  0
ARC
  5
286
100
AcDbEntity
  8
2
100
AcDbCircle
 10
-223.350641
 20
184.242823
 30
0.0
 40
5.0
100
AcDbArc
 50
90.0
 51
180.0
  0
ARC
  5
287
100
AcDbEntity
  8
2
100
AcDbCircle
 10
-223.350641
 20
149.242823
 30
0.0
 40
5.0
100
AcDbArc
 50
180.0
 51
270.0
  0
ARC
  5
288
100
AcDbEntity
  8
2
100
AcDbCircle
 10
-211.350641
 20
137.242823
 30
0.0
 40
5.0
100
AcDbArc
 50
180.0
 51
270.0
  0
ARC
  5
289
100
AcDbEntity
  8
2
100
AcDbCircle
 10
-175.350641
 20
137.242823
 30
0.0
 40
5.0
100
AcDbArc
 50
270.0
 51
360.0
  0
ARC
  5
28A
100
AcDbEntity
  8
2
100
AcDbCircle
 10
-163.350641
 20
149.242823
 30
0.0
 40
5.0
100
AcDbArc
 50
270.0
 51
360.0
  0
CIRCLE
  5
28B
100
AcDbEntity
  8
2
100
AcDbCircle
 10
-164.350641
 20
138.242823
 30
0.0
 40
4.25
  0
CIRCLE
  5
28C
100
AcDbEntity
  8
2
100
AcDbCircle
 10
-164.350641
 20
138.242823
 30
0.0
 40
3.730385
  0
LINE
  5
28D
100
AcDbEntity
  8
2
100
AcDbLine
 10
-166.350641
 20
137.088122
 30
0.0
 11
-166.350641
 21
139.397523
 31
0.0
  0
LINE
  5
28E
100
AcDbEntity
  8
2
100
AcDbLine
 10
-162.350641
 20
137.088122
 30
0.0
 11
-162.350641
 21
139.397523
 31
0.0
  0
LINE
  5
28F
100
AcDbEntity
  8
2
100
AcDbLine
 10
-164.350641
 20
135.933421
 30
0.0
 11
-166.350641
 21
137.088122
 31
0.0
  0
LINE
  5
290
100
AcDbEntity
  8
2
100
AcDbLine
 10
-162.350641
 20
139.397523
 30
0.0
 11
-164.350641
 21
140.552224
 31
0.0
  0
LINE
  5
291
100
AcDbEntity
  8
2
100
AcDbLine
 10
-162.350641
 20
137.088122
 30
0.0
 11
-164.350641
 21
135.933421
 31
0.0
  0
LINE
  5
292
100
AcDbEntity
  8
2
100
AcDbLine
 10
-164.350641
 20
140.552224
 30
0.0
 11
-166.350641
 21
139.397523
 31
0.0
  0
CIRCLE
  5
293
100
AcDbEntity
  8
2
100
AcDbCircle
 10
-222.350641
 20
138.242823
 30
0.0
 40
4.25
  0
CIRCLE
  5
294
100
AcDbEntity
  8
2
100
AcDbCircle
 10
-222.350641
 20
138.242823
 30
0.0
 40
3.730385
  0
LINE
  5
295
100
AcDbEntity
  8
2
100
AcDbLine
 10
-220.350641
 20
137.088122
 30
0.0
 11
-220.350641
 21
139.397523
 31
0.0
  0
LINE
  5
296
100
AcDbEntity
  8
2
100
AcDbLine
 10
-224.350641
 20
137.088122
 30
0.0
 11
-224.350641
 21
139.397523
 31
0.0
  0
LINE
  5
297
100
AcDbEntity
  8
2
100
AcDbLine
 10
-222.350641
 20
135.933421
 30
0.0
 11
-220.350641
 21
137.088122
 31
0.0
  0
LINE
  5
298
100
AcDbEntity
  8
2
100
AcDbLine
 10
-224.350641
 20
139.397523
 30
0.0
 11
-222.350641
 21
140.552224
 31
0.0
  0
LINE
  5
299
100
AcDbEntity
  8
2
100
AcDbLine
 10
-224.350641
 20
137.088122
 30
0.0
 11
-222.350641
 21
135.933421
 31
0.0
  0
LINE
  5
29A
100
AcDbEntity
  8
2
100
AcDbLine
 10
-222.350641
 20
140.552224
 30
0.0
 11
-220.350641
 21
139.397523
 31
0.0
  0
CIRCLE
  5
29B
100
AcDbEntity
  8
2
100
AcDbCircle
 10
-164.350641
 20
195.242823
 30
0.0
 40
4.25
  0
CIRCLE
  5
29C
100
AcDbEntity
  8
2
100
AcDbCircle
 10
-164.350641
 20
195.242823
 30
0.0
 40
3.730385
  0
LINE
  5
29D
100
AcDbEntity
  8
2
100
AcDbLine
 10
-166.350641
 20
194.088122
 30
0.0
 11
-166.350641
 21
196.397523
 31
0.0
  0
LINE
  5
29E
100
AcDbEntity
  8
2
100
AcDbLine
 10
-162.350641
 20
194.088122
 30
0.0
 11
-162.350641
 21
196.397523
 31
0.0
  0
LINE
  5
29F
100
AcDbEntity
  8
2
100
AcDbLine
 10
-164.350641
 20
192.933421
 30
0.0
 11
-166.350641
 21
194.088122
 31
0.0
  0
LINE
  5
2A0
100
AcDbEntity
  8
2
100
AcDbLine
 10
-162.350641
 20
196.397523
 30
0.0
 11
-164.350641
 21
197.552224
 31
0.0
  0
LINE
  5
2A1
100
AcDbEntity
  8
2
100
AcDbLine
 10
-162.350641
 20
194.088122
 30
0.0
 11
-164.350641
 21
192.933421
 31
0.0
  0
LINE
  5
2A2
100
AcDbEntity
  8
2
100
AcDbLine
 10
-164.350641
 20
197.552224
 30
0.0
 11
-166.350641
 21
196.397523
 31
0.0
  0
CIRCLE
  5
2A3
100
AcDbEntity
  8
2
100
AcDbCircle
 10
-222.350641
 20
195.242823
 30
0.0
 40
4.25
  0
CIRCLE
  5
2A4
100
AcDbEntity
  8
2
100
AcDbCircle
 10
-222.350641
 20
195.242823
 30
0.0
 40
3.730385
  0
LINE
  5
2A5
100
AcDbEntity
  8
2
100
AcDbLine
 10
-220.350641
 20
194.088122
 30
0.0
 11
-220.350641
 21
196.397523
 31
0.0
  0
LINE
  5
2A6
100
AcDbEntity
  8
2
100
AcDbLine
 10
-224.350641
 20
194.088122
 30
0.0
 11
-224.350641
 21
196.397523
 31
0.0
  0
LINE
  5
2A7
100
AcDbEntity
  8
2
100
AcDbLine
 10
-222.350641
 20
192.933421
 30
0.0
 11
-220.350641
 21
194.088122
 31
0.0
  0
LINE
  5
2A8
100
AcDbEntity
  8
2
100
AcDbLine
 10
-224.350641
 20
196.397523
 30
0.0
 11
-222.350641
 21
197.552224
 31
0.0
  0
LINE
  5
2A9
100
AcDbEntity
  8
2
100
AcDbLine
 10
-224.350641
 20
194.088122
 30
0.0
 11
-222.350641
 21
192.933421
 31
0.0
  0
LINE
  5
2AA
100
AcDbEntity
  8
2
100
AcDbLine
 10
-222.350641
 20
197.552224
 30
0.0
 11
-220.350641
 21
196.397523
 31
0.0
  0
LINE
  5
2AB
100
AcDbEntity
  8
2
100
AcDbLine
 10
-208.850641
 20
194.242823
 30
0.0
 11
-177.850641
 21
194.242823
 31
0.0
  0
LINE
  5
2AC
100
AcDbEntity
  8
2
100
AcDbLine
 10
-210.850641
 20
186.742823
 30
0.0
 11
-210.850641
 21
192.242823
 31
0.0
  0
LINE
  5
2AD
100
AcDbEntity
  8
2
100
AcDbLine
 10
-175.850641
 20
186.742823
 30
0.0
 11
-175.850641
 21
192.242823
 31
0.0
  0
ARC
  5
2AE
100
AcDbEntity
  8
2
100
AcDbCircle
 10
-177.850641
 20
192.242823
 30
0.0
 40
2.0
100
AcDbArc
 50
0.0
 51
90.0
  0
ARC
  5
2AF
100
AcDbEntity
  8
2
100
AcDbCircle
 10
-208.850641
 20
192.242823
 30
0.0
 40
2.0
100
AcDbArc
 50
90.0
 51
180.0
  0
LINE
  5
2B0
100
AcDbEntity
  8
2
100
AcDbLine
 10
-182.809641
 20
122.742823
 30
0.0
 11
-183.350641
 21
123.283823
 31
0.0
  0
LINE
  5
2B1
100
AcDbEntity
  8
2
100
AcDbLine
 10
-183.350641
 20
123.283823
 30
0.0
 11
-183.350641
 21
127.242823
 31
0.0
  0
LINE
  5
2B2
100
AcDbEntity
  8
2
100
AcDbLine
 10
-183.350641
 20
123.283823
 30
0.0
 11
-177.350641
 21
123.283823
 31
0.0
  0
LINE
  5
2B3
100
AcDbEntity
  8
2
 62
     2
100
AcDbLine
 10
-182.809641
 20
122.742823
 30
0.0
 11
-182.809641
 21
127.242823
 31
0.0
  0
LINE
  5
2B4
100
AcDbEntity
  8
2
100
AcDbLine
 10
-177.891641
 20
122.742823
 30
0.0
 11
-182.809641
 21
122.742823
 31
0.0
  0
LINE
  5
2B5
100
AcDbEntity
  8
2
100
AcDbLine
 10
-177.891641
 20
122.742823
 30
0.0
 11
-177.350641
 21
123.283823
 31
0.0
  0
LINE
  5
2B6
100
AcDbEntity
  8
2
100
AcDbLine
 10
-177.350641
 20
123.283823
 30
0.0
 11
-177.350641
 21
127.242823
 31
0.0
  0
LINE
  5
2B7
100
AcDbEntity
  8
2
 62
     2
100
AcDbLine
 10
-177.891641
 20
122.742823
 30
0.0
 11
-177.891641
 21
127.242823
 31
0.0
  0
LINE
  5
2B8
100
AcDbEntity
  8
2
100
AcDbLine
 10
-174.600641
 20
132.242823
 30
0.0
 11
-174.600641
 21
127.73357
 31
0.0
  0
LINE
  5
2B9
100
AcDbEntity
  8
2
100
AcDbLine
 10
-174.600641
 20
127.73357
 30
0.0
 11
-175.450641
 21
127.242823
 31
0.0
  0
LINE
  5
2BA
100
AcDbEntity
  8
2
100
AcDbLine
 10
-175.450641
 20
127.242823
 30
0.0
 11
-185.250641
 21
127.242823
 31
0.0
  0
LINE
  5
2BB
100
AcDbEntity
  8
2
100
AcDbLine
 10
-177.475641
 20
132.242823
 30
0.0
 11
-177.475641
 21
127.73357
 31
0.0
  0
ARC
  5
2BC
100
AcDbEntity
  8
2
100
AcDbCircle
 10
-176.038141
 20
129.581525
 30
0.0
 40
2.341227
100
AcDbArc
 50
232.121121
 51
307.878879
  0
LINE
  5
2BD
100
AcDbEntity
  8
2
100
AcDbLine
 10
-186.100641
 20
132.242823
 30
0.0
 11
-186.100641
 21
127.73357
 31
0.0
  0
LINE
  5
2BE
100
AcDbEntity
  8
2
100
AcDbLine
 10
-186.100641
 20
127.73357
 30
0.0
 11
-185.250641
 21
127.242823
 31
0.0
  0
LINE
  5
2BF
100
AcDbEntity
  8
2
100
AcDbLine
 10
-183.225641
 20
132.242823
 30
0.0
 11
-183.225641
 21
127.73357
 31
0.0
  0
ARC
  5
2C0
100
AcDbEntity
  8
2
100
AcDbCircle
 10
-184.663141
 20
129.581525
 30
0.0
 40
2.341227
100
AcDbArc
 50
232.121121
 51
307.878879
  0
ARC
  5
2C1
100
AcDbEntity
  8
2
100
AcDbCircle
 10
-180.350641
 20
135.865298
 30
0.0
 40
8.625
100
AcDbArc
 50
250.528777
 51
289.471219
  0
LINE
  5
2C2
100
AcDbEntity
  8
2
100
AcDbLine
 10
-158.350641
 20
186.742823
 30
0.0
 11
-132.350641
 21
186.742823
 31
0.0
  0
LINE
  5
2C3
100
AcDbEntity
  8
2
100
AcDbLine
 10
-158.350641
 20
177.742823
 30
0.0
 11
-132.350641
 21
177.742823
 31
0.0
  0
LINE
  5
2C4
100
AcDbEntity
  8
2
  6
CENTER
 62
     2
100
AcDbLine
 10
-193.350641
 20
109.441138
 30
0.0
 11
-193.350641
 21
209.902495
 31
0.0
  0
LINE
  5
2C5
100
AcDbEntity
  8
2
  6
CENTER
 62
     2
100
AcDbLine
 10
-233.582048
 20
182.242823
 30
0.0
 11
-102.746653
 21
182.242823
 31
0.0
  0
ARC
  5
2C6
100
AcDbEntity
  8
2
  6
CENTER
 62
     2
100
AcDbCircle
 10
-193.350641
 20
154.242823
 30
0.0
 40
23.0
100
AcDbArc
 50
28.920753
 51
61.696907
  0
ARC
  5
2C7
100
AcDbEntity
  8
2
  6
CENTER
 62
     2
100
AcDbCircle
 10
-193.350641
 20
154.242823
 30
0.0
 40
23.0
100
AcDbArc
 50
118.920753
 51
151.696907
  0
ARC
  5
2C8
100
AcDbEntity
  8
2
  6
CENTER
 62
     2
100
AcDbCircle
 10
-193.350641
 20
154.242823
 30
0.0
 40
23.0
100
AcDbArc
 50
208.920753
 51
241.696907
  0
LINE
  5
2C9
100
AcDbEntity
  8
2
  6
CENTER
 62
     2
100
AcDbLine
 10
-164.350641
 20
130.241454
 30
0.0
 11
-164.350641
 21
146.28321
 31
0.0
  0
LINE
  5
2CA
100
AcDbEntity
  8
2
  6
CENTER
 62
     2
100
AcDbLine
 10
-172.268419
 20
138.242823
 30
0.0
 11
-156.620554
 21
138.242823
 31
0.0
  0
LINE
  5
2CB
100
AcDbEntity
  8
2
  6
CENTER
 62
     2
100
AcDbLine
 10
-222.350641
 20
130.241454
 30
0.0
 11
-222.350641
 21
146.28321
 31
0.0
  0
LINE
  5
2CC
100
AcDbEntity
  8
2
  6
CENTER
 62
     2
100
AcDbLine
 10
-214.432863
 20
138.242823
 30
0.0
 11
-230.080729
 21
138.242823
 31
0.0
  0
LINE
  5
2CD
100
AcDbEntity
  8
2
  6
CENTER
 62
     2
100
AcDbLine
 10
-164.350641
 20
187.241454
 30
0.0
 11
-164.350641
 21
203.28321
 31
0.0
  0
LINE
  5
2CE
100
AcDbEntity
  8
2
  6
CENTER
 62
     2
100
AcDbLine
 10
-172.268419
 20
195.242823
 30
0.0
 11
-156.620554
 21
195.242823
 31
0.0
  0
LINE
  5
2CF
100
AcDbEntity
  8
2
  6
CENTER
 62
     2
100
AcDbLine
 10
-222.350641
 20
187.241454
 30
0.0
 11
-222.350641
 21
203.28321
 31
0.0
  0
LINE
  5
2D0
100
AcDbEntity
  8
2
  6
CENTER
 62
     2
100
AcDbLine
 10
-214.432863
 20
195.242823
 30
0.0
 11
-230.080729
 21
195.242823
 31
0.0
  0
LINE
  5
2D1
100
AcDbEntity
  8
2
  6
CENTER
 62
     2
100
AcDbLine
 10
-180.350641
 20
117.814887
 30
0.0
 11
-180.350641
 21
137.384032
 31
0.0
  0
LINE
  5
2D2
100
AcDbEntity
  8
2
100
AcDbLine
 10
-202.86175
 20
57.744484
 30
0.0
 11
-183.839532
 21
57.744484
 31
0.0
  0
LINE
  5
2D3
100
AcDbEntity
  8
2
100
AcDbLine
 10
-203.350641
 20
43.744484
 30
0.0
 11
-183.350641
 21
43.744484
 31
0.0
  0
LINE
  5
2D4
100
AcDbEntity
  8
2
100
AcDbLine
 10
-182.350641
 20
42.744484
 30
0.0
 11
-183.350641
 21
43.744484
 31
0.0
  0
LINE
  5
2D5
100
AcDbEntity
  8
2
100
AcDbLine
 10
-204.350641
 20
42.744484
 30
0.0
 11
-203.350641
 21
43.744484
 31
0.0
  0
LINE
  5
2D6
100
AcDbEntity
  8
2
100
AcDbLine
 10
-183.350641
 20
43.744484
 30
0.0
 11
-183.839532
 21
57.744484
 31
0.0
  0
LINE
  5
2D7
100
AcDbEntity
  8
2
100
AcDbLine
 10
-203.350641
 20
43.744484
 30
0.0
 11
-202.86175
 21
57.744484
 31
0.0
  0
LINE
  5
2D8
100
AcDbEntity
  8
2
100
AcDbLine
 10
-202.091276
 20
57.744484
 30
0.0
 11
-202.515793
 21
43.744484
 31
0.0
  0
LINE
  5
2D9
100
AcDbEntity
  8
2
100
AcDbLine
 10
-189.007971
 20
43.744484
 30
0.0
 11
-189.496862
 21
57.744484
 31
0.0
  0
CIRCLE
  5
2DA
100
AcDbEntity
  8
2
 62
     2
100
AcDbCircle
 10
-180.350641
 20
32.244484
 30
0.0
 40
2.459
  0
CIRCLE
  5
2DB
100
AcDbEntity
  8
2
100
AcDbCircle
 10
-180.350641
 20
32.244484
 30
0.0
 40
3.0
  0
LINE
  5
2DC
100
AcDbEntity
  8
2
100
AcDbLine
 10
-178.850641
 20
31.378458
 30
0.0
 11
-178.850641
 21
33.110509
 31
0.0
  0
LINE
  5
2DD
100
AcDbEntity
  8
2
100
AcDbLine
 10
-181.850641
 20
31.378458
 30
0.0
 11
-181.850641
 21
33.110509
 31
0.0
  0
LINE
  5
2DE
100
AcDbEntity
  8
2
100
AcDbLine
 10
-180.350641
 20
30.512433
 30
0.0
 11
-181.850641
 21
31.378458
 31
0.0
  0
LINE
  5
2DF
100
AcDbEntity
  8
2
100
AcDbLine
 10
-178.850641
 20
33.110509
 30
0.0
 11
-180.350641
 21
33.976535
 31
0.0
  0
LINE
  5
2E0
100
AcDbEntity
  8
2
100
AcDbLine
 10
-180.350641
 20
33.976535
 30
0.0
 11
-181.850641
 21
33.110509
 31
0.0
  0
LINE
  5
2E1
100
AcDbEntity
  8
2
100
AcDbLine
 10
-178.850641
 20
31.378458
 30
0.0
 11
-180.350641
 21
30.512433
 31
0.0
  0
LINE
  5
2E2
100
AcDbEntity
  8
2
  6
CENTER
 62
     2
100
AcDbLine
 10
-180.350641
 20
24.951194
 30
0.0
 11
-180.350641
 21
39.736083
 31
0.0
  0
LINE
  5
2E3
100
AcDbEntity
  8
2
  6
CENTER
 62
     2
100
AcDbLine
 10
-188.05707
 20
32.244484
 30
0.0
 11
-173.006716
 21
32.244484
 31
0.0
  0
LINE
  5
2E4
100
AcDbEntity
  8
2
  6
CENTER
 62
     2
100
AcDbLine
 10
-218.099379
 20
-22.359936
 30
0.0
 11
-218.099379
 21
11.036482
 31
0.0
  0
LINE
  5
2E5
100
AcDbEntity
  8
2
100
AcDbLine
 10
-111.850641
 20
62.244484
 30
0.0
 11
-114.350641
 21
62.244484
 31
0.0
  0
ARC
  5
2E6
100
AcDbEntity
  8
2
100
AcDbCircle
 10
-111.850641
 20
60.744484
 30
0.0
 40
1.5
100
AcDbArc
 50
0.0
 51
90.0
  0
ARC
  5
2E7
100
AcDbEntity
  8
2
100
AcDbCircle
 10
-114.350641
 20
58.244484
 30
0.0
 40
4.0
100
AcDbArc
 50
90.0
 51
180.0
  0
LINE
  5
2E8
100
AcDbEntity
  8
2
100
AcDbLine
 10
-132.350641
 20
33.744484
 30
0.0
 11
-132.350641
 21
20.744484
 31
0.0
  0
LINE
  5
2E9
100
AcDbEntity
  8
2
100
AcDbLine
 10
-130.350641
 20
35.744484
 30
0.0
 11
-117.133071
 21
35.744484
 31
0.0
  0
LINE
  5
2EA
100
AcDbEntity
  8
2
100
AcDbLine
 10
-130.350641
 20
18.744484
 30
0.0
 11
-117.133071
 21
18.744484
 31
0.0
  0
ARC
  5
2EB
100
AcDbEntity
  8
2
100
AcDbCircle
 10
-130.350641
 20
20.744484
 30
0.0
 40
2.0
100
AcDbArc
 50
180.0
 51
270.0
  0
ARC
  5
2EC
100
AcDbEntity
  8
2
100
AcDbCircle
 10
-130.350641
 20
33.744484
 30
0.0
 40
2.0
100
AcDbArc
 50
90.0
 51
180.0
  0
LINE
  5
2ED
100
AcDbEntity
  8
2
100
AcDbLine
 10
-118.350641
 20
55.296453
 30
0.0
 11
-118.350641
 21
58.244484
 31
0.0
  0
ARC
  5
2EE
100
AcDbEntity
  8
2
100
AcDbCircle
 10
-117.350641
 20
50.697911
 30
0.0
 40
3.0
100
AcDbArc
 50
0.0
 51
82.036169
  0
ARC
  5
2EF
100
AcDbEntity
  8
2
100
AcDbCircle
 10
-116.707318
 20
55.296453
 30
0.0
 40
1.643323
100
AcDbArc
 50
90.0
 51
262.036169
  0
LINE
  5
2F0
100
AcDbEntity
  8
2
100
AcDbLine
 10
-116.707318
 20
56.939775
 30
0.0
 11
-111.850641
 21
56.939775
 31
0.0
  0
LINE
  5
2F1
100
AcDbEntity
  8
2
100
AcDbLine
 10
-111.850641
 20
48.494484
 30
0.0
 11
-114.350641
 21
48.494484
 31
0.0
  0
LINE
  5
2F2
100
AcDbEntity
  8
2
100
AcDbLine
 10
-118.350641
 20
44.494484
 30
0.0
 11
-118.350641
 21
38.618172
 31
0.0
  0
LINE
  5
2F3
100
AcDbEntity
  8
2
100
AcDbLine
 10
-114.350641
 20
50.697911
 30
0.0
 11
-114.350641
 21
48.494484
 31
0.0
  0
ARC
  5
2F4
100
AcDbEntity
  8
2
100
AcDbCircle
 10
-114.350641
 20
44.494484
 30
0.0
 40
4.0
100
AcDbArc
 50
90.0
 51
180.0
  0
ARC
  5
2F5
100
AcDbEntity
  8
2
100
AcDbCircle
 10
-114.350641
 20
38.618172
 30
0.0
 40
4.0
100
AcDbArc
 50
180.0
 51
244.623066
  0
ARC
  5
2F6
100
AcDbEntity
  8
2
100
AcDbCircle
 10
-117.350641
 20
32.293617
 30
0.0
 40
3.0
100
AcDbArc
 50
0.0
 51
64.623066
  0
ARC
  5
2F7
100
AcDbEntity
  8
2
100
AcDbCircle
 10
-111.850641
 20
46.994484
 30
0.0
 40
1.5
100
AcDbArc
 50
0.0
 51
90.0
  0
LINE
  5
2F8
100
AcDbEntity
  8
2
100
AcDbLine
 10
-110.350641
 20
-6.255516
 30
0.0
 11
-110.350641
 21
60.744484
 31
0.0
  0
LINE
  5
2F9
100
AcDbEntity
  8
2
100
AcDbLine
 10
-111.850641
 20
-7.755516
 30
0.0
 11
-114.350641
 21
-7.755516
 31
0.0
  0
ARC
  5
2FA
100
AcDbEntity
  8
2
100
AcDbCircle
 10
-111.850641
 20
-6.255516
 30
0.0
 40
1.5
100
AcDbArc
 50
270.0
 51
360.0
  0
ARC
  5
2FB
100
AcDbEntity
  8
2
100
AcDbCircle
 10
-114.350641
 20
-3.755516
 30
0.0
 40
4.0
100
AcDbArc
 50
180.0
 51
270.0
  0
LINE
  5
2FC
100
AcDbEntity
  8
2
100
AcDbLine
 10
-118.350641
 20
-0.807485
 30
0.0
 11
-118.350641
 21
-3.755516
 31
0.0
  0
ARC
  5
2FD
100
AcDbEntity
  8
2
100
AcDbCircle
 10
-117.350641
 20
3.791057
 30
0.0
 40
3.0
100
AcDbArc
 50
277.963831
 51
360.0
  0
ARC
  5
2FE
100
AcDbEntity
  8
2
100
AcDbCircle
 10
-116.707318
 20
-0.807485
 30
0.0
 40
1.643323
100
AcDbArc
 50
97.963831
 51
270.0
  0
LINE
  5
2FF
100
AcDbEntity
  8
2
100
AcDbLine
 10
-116.707318
 20
-2.450808
 30
0.0
 11
-111.850641
 21
-2.450808
 31
0.0
  0
LINE
  5
300
100
AcDbEntity
  8
2
100
AcDbLine
 10
-111.850641
 20
5.994484
 30
0.0
 11
-114.350641
 21
5.994484
 31
0.0
  0
LINE
  5
301
100
AcDbEntity
  8
2
100
AcDbLine
 10
-118.350641
 20
9.994484
 30
0.0
 11
-118.350641
 21
15.870796
 31
0.0
  0
LINE
  5
302
100
AcDbEntity
  8
2
100
AcDbLine
 10
-114.350641
 20
3.791057
 30
0.0
 11
-114.350641
 21
5.994484
 31
0.0
  0
LINE
  5
303
100
AcDbEntity
  8
2
100
AcDbLine
 10
-114.350641
 20
22.195351
 30
0.0
 11
-114.350641
 21
32.293617
 31
0.0
  0
ARC
  5
304
100
AcDbEntity
  8
2
100
AcDbCircle
 10
-114.350641
 20
9.994484
 30
0.0
 40
4.0
100
AcDbArc
 50
180.0
 51
270.0
  0
ARC
  5
305
100
AcDbEntity
  8
2
100
AcDbCircle
 10
-114.350641
 20
15.870796
 30
0.0
 40
4.0
100
AcDbArc
 50
115.376934
 51
180.0
  0
ARC
  5
306
100
AcDbEntity
  8
2
100
AcDbCircle
 10
-117.350641
 20
22.195351
 30
0.0
 40
3.0
100
AcDbArc
 50
295.376934
 51
360.0
  0
ARC
  5
307
100
AcDbEntity
  8
2
100
AcDbCircle
 10
-111.850641
 20
7.494484
 30
0.0
 40
1.5
100
AcDbArc
 50
270.0
 51
360.0
  0
LINE
  5
308
100
AcDbEntity
  8
2
100
AcDbLine
 10
-111.850641
 20
35.515385
 30
0.0
 11
-114.350641
 21
35.515385
 31
0.0
  0
ARC
  5
309
100
AcDbEntity
  8
2
100
AcDbCircle
 10
-114.350641
 20
39.515385
 30
0.0
 40
4.0
100
AcDbArc
 50
180.0
 51
270.0
  0
LINE
  5
30A
100
AcDbEntity
  8
2
100
AcDbLine
 10
-111.850641
 20
18.973582
 30
0.0
 11
-114.350641
 21
18.973582
 31
0.0
  0
ARC
  5
30B
100
AcDbEntity
  8
2
100
AcDbCircle
 10
-114.350641
 20
14.973582
 30
0.0
 40
4.0
100
AcDbArc
 50
90.0
 51
180.0
  0
ARC
  5
30C
100
AcDbEntity
  8
2
100
AcDbCircle
 10
-111.850641
 20
17.473582
 30
0.0
 40
1.5
100
AcDbArc
 50
360.0
 51
90.0
  0
ARC
  5
30D
100
AcDbEntity
  8
2
100
AcDbCircle
 10
-111.850641
 20
37.015385
 30
0.0
 40
1.5
100
AcDbArc
 50
270.0
 51
360.0
  0
LINE
  5
30E
100
AcDbEntity
  8
2
100
AcDbLine
 10
-228.350641
 20
3.244484
 30
0.0
 11
-158.350641
 21
3.244484
 31
0.0
  0
LINE
  5
30F
100
AcDbEntity
  8
2
100
AcDbLine
 10
-228.350641
 20
3.244484
 30
0.0
 11
-228.350641
 21
38.744484
 31
0.0
  0
LINE
  5
310
100
AcDbEntity
  8
2
100
AcDbLine
 10
-158.350641
 20
3.244484
 30
0.0
 11
-158.350641
 21
38.744484
 31
0.0
  0
LINE
  5
311
100
AcDbEntity
  8
2
100
AcDbLine
 10
-223.350641
 20
22.244484
 30
0.0
 11
-163.350641
 21
22.244484
 31
0.0
  0
ARC
  5
312
100
AcDbEntity
  8
2
100
AcDbCircle
 10
-163.350641
 20
17.244484
 30
0.0
 40
5.0
100
AcDbArc
 50
0.0
 51
90.0
  0
ARC
  5
313
100
AcDbEntity
  8
2
100
AcDbCircle
 10
-223.350641
 20
17.244484
 30
0.0
 40
5.0
100
AcDbArc
 50
90.0
 51
180.0
  0
ARC
  5
314
100
AcDbEntity
  8
2
100
AcDbCircle
 10
-161.350641
 20
38.744484
 30
0.0
 40
3.0
100
AcDbArc
 50
0.0
 51
90.0
  0
ARC
  5
315
100
AcDbEntity
  8
2
100
AcDbCircle
 10
-225.350641
 20
38.744484
 30
0.0
 40
3.0
100
AcDbArc
 50
90.0
 51
180.0
  0
LINE
  5
316
100
AcDbEntity
  8
2
100
AcDbLine
 10
-158.350641
 20
27.244484
 30
0.0
 11
-228.350641
 21
27.244484
 31
0.0
  0
CIRCLE
  5
317
100
AcDbEntity
  8
2
100
AcDbCircle
 10
-180.350641
 20
32.244484
 30
0.0
 40
4.9
  0
LINE
  5
318
100
AcDbEntity
  8
2
100
AcDbLine
 10
-183.237393
 20
37.244484
 30
0.0
 11
-177.46389
 21
37.244484
 31
0.0
  0
LINE
  5
319
100
AcDbEntity
  8
2
100
AcDbLine
 10
-186.124144
 20
32.244484
 30
0.0
 11
-183.237393
 21
37.244484
 31
0.0
  0
LINE
  5
31A
100
AcDbEntity
  8
2
100
AcDbLine
 10
-183.237393
 20
27.244484
 30
0.0
 11
-186.124144
 21
32.244484
 31
0.0
  0
LINE
  5
31B
100
AcDbEntity
  8
2
100
AcDbLine
 10
-177.46389
 20
37.244484
 30
0.0
 11
-174.577139
 21
32.244484
 31
0.0
  0
LINE
  5
31C
100
AcDbEntity
  8
2
100
AcDbLine
 10
-174.577139
 20
32.244484
 30
0.0
 11
-177.46389
 21
27.244484
 31
0.0
  0
LINE
  5
31D
100
AcDbEntity
  8
2
100
AcDbLine
 10
-216.350641
 20
33.244484
 30
0.0
 11
-216.350641
 21
39.744484
 31
0.0
  0
LINE
  5
31E
100
AcDbEntity
  8
2
100
AcDbLine
 10
-170.350641
 20
33.244484
 30
0.0
 11
-170.350641
 21
39.744484
 31
0.0
  0
LINE
  5
31F
100
AcDbEntity
  8
2
100
AcDbLine
 10
-227.350641
 20
32.244484
 30
0.0
 11
-211.350641
 21
32.244484
 31
0.0
  0
LINE
  5
320
100
AcDbEntity
  8
2
100
AcDbLine
 10
-174.577139
 20
32.244484
 30
0.0
 11
-159.350641
 21
32.244484
 31
0.0
  0
ARC
  5
321
100
AcDbEntity
  8
2
100
AcDbCircle
 10
-169.350641
 20
33.244484
 30
0.0
 40
1.0
100
AcDbArc
 50
180.0
 51
270.0
  0
ARC
  5
322
100
AcDbEntity
  8
2
100
AcDbCircle
 10
-217.350641
 20
33.244484
 30
0.0
 40
1.0
100
AcDbArc
 50
270.0
 51
360.0
  0
ARC
  5
323
100
AcDbEntity
  8
2
100
AcDbCircle
 10
-159.350641
 20
31.244484
 30
0.0
 40
1.0
100
AcDbArc
 50
0.0
 51
90.0
  0
ARC
  5
324
100
AcDbEntity
  8
2
100
AcDbCircle
 10
-227.350641
 20
31.244484
 30
0.0
 40
1.0
100
AcDbArc
 50
90.0
 51
180.0
  0
ARC
  5
325
100
AcDbEntity
  8
2
100
AcDbCircle
 10
-172.350641
 20
39.744484
 30
0.0
 40
2.0
100
AcDbArc
 50
0.0
 51
90.0
  0
ARC
  5
326
100
AcDbEntity
  8
2
100
AcDbCircle
 10
-214.350641
 20
39.744484
 30
0.0
 40
2.0
100
AcDbArc
 50
90.0
 51
180.0
  0
LINE
  5
327
100
AcDbEntity
  8
2
100
AcDbLine
 10
-166.350641
 20
42.744484
 30
0.0
 11
-205.614097
 21
42.744484
 31
0.0
  0
LINE
  5
328
100
AcDbEntity
  8
2
100
AcDbLine
 10
-166.350641
 20
42.744484
 30
0.0
 11
-165.350641
 21
41.744484
 31
0.0
  0
LINE
  5
329
100
AcDbEntity
  8
2
100
AcDbLine
 10
-176.82793
 20
42.744484
 30
0.0
 11
-176.059025
 21
41.744484
 31
0.0
  0
LINE
  5
32A
100
AcDbEntity
  8
2
100
AcDbLine
 10
-206.114097
 20
44.744484
 30
0.0
 11
-213.114097
 21
44.744484
 31
0.0
  0
LINE
  5
32B
100
AcDbEntity
  8
2
100
AcDbLine
 10
-213.614097
 20
44.244484
 30
0.0
 11
-213.614097
 21
42.244484
 31
0.0
  0
LINE
  5
32C
100
AcDbEntity
  8
2
100
AcDbLine
 10
-205.614097
 20
44.244484
 30
0.0
 11
-205.614097
 21
42.244484
 31
0.0
  0
ARC
  5
32D
100
AcDbEntity
  8
2
100
AcDbCircle
 10
-213.114097
 20
44.244484
 30
0.0
 40
0.5
100
AcDbArc
 50
90.0
 51
180.0
  0
ARC
  5
32E
100
AcDbEntity
  8
2
100
AcDbCircle
 10
-206.114097
 20
44.244484
 30
0.0
 40
0.5
100
AcDbArc
 50
0.0
 51
90.0
  0
ARC
  5
32F
100
AcDbEntity
  8
2
100
AcDbCircle
 10
-214.114097
 20
42.244484
 30
0.0
 40
0.5
100
AcDbArc
 50
270.0
 51
360.0
  0
ARC
  5
330
100
AcDbEntity
  8
2
100
AcDbCircle
 10
-205.114097
 20
42.244484
 30
0.0
 40
0.5
100
AcDbArc
 50
180.0
 51
270.0
  0
LINE
  5
331
100
AcDbEntity
  8
2
100
AcDbLine
 10
-180.587185
 20
44.744484
 30
0.0
 11
-173.587185
 21
44.744484
 31
0.0
  0
LINE
  5
332
100
AcDbEntity
  8
2
100
AcDbLine
 10
-173.087185
 20
44.244484
 30
0.0
 11
-173.087185
 21
42.744484
 31
0.0
  0
LINE
  5
333
100
AcDbEntity
  8
2
100
AcDbLine
 10
-181.087185
 20
44.244484
 30
0.0
 11
-181.087185
 21
42.744484
 31
0.0
  0
ARC
  5
334
100
AcDbEntity
  8
2
100
AcDbCircle
 10
-173.587185
 20
44.244484
 30
0.0
 40
0.5
100
AcDbArc
 50
0.0
 51
90.0
  0
ARC
  5
335
100
AcDbEntity
  8
2
100
AcDbCircle
 10
-180.587185
 20
44.244484
 30
0.0
 40
0.5
100
AcDbArc
 50
90.0
 51
180.0
  0
LINE
  5
336
100
AcDbEntity
  8
2
100
AcDbLine
 10
-218.100641
 20
32.244484
 30
0.0
 11
-218.100641
 21
36.944484
 31
0.0
  0
LINE
  5
337
100
AcDbEntity
  8
2
100
AcDbLine
 10
-218.100641
 20
36.944484
 30
0.0
 11
-218.620256
 21
37.244484
 31
0.0
  0
LINE
  5
338
100
AcDbEntity
  8
2
100
AcDbLine
 10
-218.100641
 20
36.944484
 30
0.0
 11
-226.600641
 21
36.944484
 31
0.0
  0
LINE
  5
339
100
AcDbEntity
  8
2
100
AcDbLine
 10
-226.600641
 20
32.244484
 30
0.0
 11
-226.600641
 21
36.944484
 31
0.0
  0
LINE
  5
33A
100
AcDbEntity
  8
2
100
AcDbLine
 10
-226.600641
 20
36.944484
 30
0.0
 11
-226.081026
 21
37.244484
 31
0.0
  0
LINE
  5
33B
100
AcDbEntity
  8
2
100
AcDbLine
 10
-226.081026
 20
37.244484
 30
0.0
 11
-218.620256
 21
37.244484
 31
0.0
  0
LINE
  5
33C
100
AcDbEntity
  8
2
100
AcDbLine
 10
-168.600641
 20
32.244484
 30
0.0
 11
-168.600641
 21
36.944484
 31
0.0
  0
LINE
  5
33D
100
AcDbEntity
  8
2
100
AcDbLine
 10
-168.600641
 20
36.944484
 30
0.0
 11
-168.081026
 21
37.244484
 31
0.0
  0
LINE
  5
33E
100
AcDbEntity
  8
2
100
AcDbLine
 10
-168.600641
 20
36.944484
 30
0.0
 11
-160.100641
 21
36.944484
 31
0.0
  0
LINE
  5
33F
100
AcDbEntity
  8
2
100
AcDbLine
 10
-160.100641
 20
32.244484
 30
0.0
 11
-160.100641
 21
36.944484
 31
0.0
  0
LINE
  5
340
100
AcDbEntity
  8
2
100
AcDbLine
 10
-160.100641
 20
36.944484
 30
0.0
 11
-160.620256
 21
37.244484
 31
0.0
  0
LINE
  5
341
100
AcDbEntity
  8
2
100
AcDbLine
 10
-160.620256
 20
37.244484
 30
0.0
 11
-168.081026
 21
37.244484
 31
0.0
  0
ARC
  5
342
100
AcDbEntity
  8
2
100
AcDbCircle
 10
-209.614097
 20
70.275745
 30
0.0
 40
28.810291
100
AcDbArc
 50
262.019314
 51
277.980686
  0
LINE
  5
343
100
AcDbEntity
  8
2
100
AcDbLine
 10
-225.350641
 20
41.744484
 30
0.0
 11
-214.114097
 21
41.744484
 31
0.0
  0
LINE
  5
344
100
AcDbEntity
  8
2
100
AcDbLine
 10
-205.114097
 20
41.744484
 30
0.0
 11
-161.350641
 21
41.744484
 31
0.0
  0
LINE
  5
345
100
AcDbEntity
  8
2
100
AcDbLine
 10
-158.350641
 20
31.744484
 30
0.0
 11
-132.350641
 21
31.744484
 31
0.0
  0
LINE
  5
346
100
AcDbEntity
  8
2
100
AcDbLine
 10
-158.350641
 20
22.744484
 30
0.0
 11
-132.350641
 21
22.744484
 31
0.0
  0
LINE
  5
347
100
AcDbEntity
  8
2
  6
CENTER
 62
     2
100
AcDbLine
 10
-102.746653
 20
27.244484
 30
0.0
 11
-238.616884
 21
27.244484
 31
0.0
  0
LINE
  5
348
100
AcDbEntity
  8
2
  6
CENTER
 62
     2
100
AcDbLine
 10
-209.614097
 20
47.022933
 30
0.0
 11
-209.614097
 21
39.622184
 31
0.0
  0
LINE
  5
349
100
AcDbEntity
  8
2
  6
CENTER
 62
     2
100
AcDbLine
 10
-177.087185
 20
47.022933
 30
0.0
 11
-177.087185
 21
39.622184
 31
0.0
  0
LINE
  5
34A
100
AcDbEntity
  8
2
  6
CENTER
 62
     2
100
AcDbLine
 10
-164.350641
 20
25.351203
 30
0.0
 11
-164.350641
 21
40.186622
 31
0.0
  0
LINE
  5
34B
100
AcDbEntity
  8
2
  6
CENTER
 62
     2
100
AcDbLine
 10
-222.350641
 20
25.351203
 30
0.0
 11
-222.350641
 21
40.186622
 31
0.0
  0
LINE
  5
34C
100
AcDbEntity
  8
2
100
AcDbLine
 10
62.899359
 20
57.744484
 30
0.0
 11
70.399359
 21
57.744484
 31
0.0
  0
LINE
  5
34D
100
AcDbEntity
  8
2
100
AcDbLine
 10
56.649359
 20
43.744484
 30
0.0
 11
76.649359
 21
43.744484
 31
0.0
  0
LINE
  5
34E
100
AcDbEntity
  8
2
100
AcDbLine
 10
55.649359
 20
42.744484
 30
0.0
 11
56.649359
 21
43.744484
 31
0.0
  0
LINE
  5
34F
100
AcDbEntity
  8
2
100
AcDbLine
 10
76.649359
 20
43.744484
 30
0.0
 11
77.649359
 21
42.744484
 31
0.0
  0
LINE
  5
350
100
AcDbEntity
  8
2
100
AcDbLine
 10
70.399359
 20
57.744484
 30
0.0
 11
70.649359
 21
43.744484
 31
0.0
  0
LINE
  5
351
100
AcDbEntity
  8
2
100
AcDbLine
 10
62.899359
 20
57.744484
 30
0.0
 11
62.649359
 21
43.744484
 31
0.0
  0
LINE
  5
352
100
AcDbEntity
  8
2
100
AcDbLine
 10
65.899359
 20
43.744484
 30
0.0
 11
66.149359
 21
57.744484
 31
0.0
  0
LINE
  5
353
100
AcDbEntity
  8
2
100
AcDbLine
 10
67.399359
 20
43.744484
 30
0.0
 11
67.149359
 21
57.744484
 31
0.0
  0
LINE
  5
354
100
AcDbEntity
  8
2
  6
CENTER
 62
     2
100
AcDbLine
 10
91.398096
 20
-22.359936
 30
0.0
 11
91.398096
 21
11.036482
 31
0.0
  0
ARC
  5
355
100
AcDbEntity
  8
2
  6
PHANTOM
 62
     2
100
AcDbCircle
 10
115.462087
 20
63.293187
 30
0.0
 40
15.0
100
AcDbArc
 50
202.330113
 51
277.669887
  0
ARC
  5
356
100
AcDbEntity
  8
2
  6
PHANTOM
 62
     2
100
AcDbCircle
 10
73.83663
 20
63.293187
 30
0.0
 40
15.0
100
AcDbArc
 50
262.330113
 51
337.669887
  0
ARC
  5
357
100
AcDbEntity
  8
2
  6
PHANTOM
 62
     2
100
AcDbCircle
 10
53.023902
 20
27.244484
 30
0.0
 40
15.0
100
AcDbArc
 50
322.330113
 51
37.669887
  0
ARC
  5
358
100
AcDbEntity
  8
2
  6
PHANTOM
 62
     2
100
AcDbCircle
 10
73.83663
 20
-8.80422
 30
0.0
 40
15.0
100
AcDbArc
 50
22.330113
 51
97.669887
  0
ARC
  5
359
100
AcDbEntity
  8
2
  6
PHANTOM
 62
     2
100
AcDbCircle
 10
115.462087
 20
-8.80422
 30
0.0
 40
15.0
100
AcDbArc
 50
82.330113
 51
157.669887
  0
ARC
  5
35A
100
AcDbEntity
  8
2
  6
PHANTOM
 62
     2
100
AcDbCircle
 10
136.274816
 20
27.244484
 30
0.0
 40
15.0
100
AcDbArc
 50
142.330113
 51
217.669887
  0
ARC
  5
35B
100
AcDbEntity
  8
2
  6
PHANTOM
 62
     2
100
AcDbCircle
 10
118.465057
 20
40.994484
 30
0.0
 40
7.5
100
AcDbArc
 50
322.330113
 51
97.669887
  0
ARC
  5
35C
100
AcDbEntity
  8
2
  6
PHANTOM
 62
     2
100
AcDbCircle
 10
94.649359
 20
54.744484
 30
0.0
 40
7.5
100
AcDbArc
 50
22.330113
 51
157.669887
  0
ARC
  5
35D
100
AcDbEntity
  8
2
  6
PHANTOM
 62
     2
100
AcDbCircle
 10
70.83366
 20
40.994484
 30
0.0
 40
7.5
100
AcDbArc
 50
82.330113
 51
217.669887
  0
ARC
  5
35E
100
AcDbEntity
  8
2
  6
PHANTOM
 62
     2
100
AcDbCircle
 10
70.83366
 20
13.494484
 30
0.0
 40
7.5
100
AcDbArc
 50
142.330113
 51
277.669887
  0
ARC
  5
35F
100
AcDbEntity
  8
2
  6
PHANTOM
 62
     2
100
AcDbCircle
 10
94.649359
 20
-0.255516
 30
0.0
 40
7.5
100
AcDbArc
 50
202.330113
 51
337.669887
  0
ARC
  5
360
100
AcDbEntity
  8
2
  6
PHANTOM
 62
     2
100
AcDbCircle
 10
118.465057
 20
13.494484
 30
0.0
 40
7.5
100
AcDbArc
 50
262.330113
 51
37.669887
  0
LINE
  5
361
100
AcDbEntity
  8
2
100
AcDbLine
 10
31.649359
 20
3.244484
 30
0.0
 11
101.649359
 21
3.244484
 31
0.0
  0
LINE
  5
362
100
AcDbEntity
  8
2
100
AcDbLine
 10
31.649359
 20
17.244484
 30
0.0
 11
31.649359
 21
3.244484
 31
0.0
  0
LINE
  5
363
100
AcDbEntity
  8
2
100
AcDbLine
 10
36.649359
 20
22.244484
 30
0.0
 11
50.649359
 21
22.244484
 31
0.0
  0
LINE
  5
364
100
AcDbEntity
  8
2
100
AcDbLine
 10
101.649359
 20
10.744484
 30
0.0
 11
101.649359
 21
3.244484
 31
0.0
  0
LINE
  5
365
100
AcDbEntity
  8
2
100
AcDbLine
 10
44.649359
 20
38.744484
 30
0.0
 11
44.649359
 21
25.244484
 31
0.0
  0
LINE
  5
366
100
AcDbEntity
  8
2
100
AcDbLine
 10
105.649359
 20
41.744484
 30
0.0
 11
47.649359
 21
41.744484
 31
0.0
  0
ARC
  5
367
100
AcDbEntity
  8
2
100
AcDbCircle
 10
47.649359
 20
38.744484
 30
0.0
 40
3.0
100
AcDbArc
 50
90.0
 51
180.0
  0
LINE
  5
368
100
AcDbEntity
  8
2
100
AcDbLine
 10
106.649359
 20
40.744484
 30
0.0
 11
106.649359
 21
40.205965
 31
0.0
  0
ARC
  5
369
100
AcDbEntity
  8
2
100
AcDbCircle
 10
105.649359
 20
40.744484
 30
0.0
 40
1.0
100
AcDbArc
 50
0.0
 51
90.0
  0
ARC
  5
36A
100
AcDbEntity
  8
2
100
AcDbCircle
 10
107.649359
 20
40.205965
 30
0.0
 40
1.0
100
AcDbArc
 50
180.0
 51
236.743569
  0
LINE
  5
36B
100
AcDbEntity
  8
2
100
AcDbLine
 10
108.649359
 20
13.744484
 30
0.0
 11
91.649359
 21
13.744484
 31
0.0
  0
LINE
  5
36C
100
AcDbEntity
  8
2
100
AcDbLine
 10
113.649359
 20
27.244484
 30
0.0
 11
113.649359
 21
18.744484
 31
0.0
  0
ARC
  5
36D
100
AcDbEntity
  8
2
100
AcDbCircle
 10
108.649359
 20
18.744484
 30
0.0
 40
5.0
100
AcDbArc
 50
270.0
 51
360.0
  0
ARC
  5
36E
100
AcDbEntity
  8
2
100
AcDbCircle
 10
104.649359
 20
10.744484
 30
0.0
 40
3.0
100
AcDbArc
 50
90.0
 51
180.0
  0
ARC
  5
36F
100
AcDbEntity
  8
2
100
AcDbCircle
 10
36.649359
 20
17.244484
 30
0.0
 40
5.0
100
AcDbArc
 50
90.0
 51
180.0
  0
ARC
  5
370
100
AcDbEntity
  8
2
100
AcDbCircle
 10
41.649359
 20
25.244484
 30
0.0
 40
3.0
100
AcDbArc
 50
270.0
 51
360.0
  0
LINE
  5
371
100
AcDbEntity
  8
2
100
AcDbLine
 10
44.649359
 20
27.244484
 30
0.0
 11
113.649359
 21
27.244484
 31
0.0
  0
LINE
  5
372
100
AcDbEntity
  8
2
100
AcDbLine
 10
94.649359
 20
41.744484
 30
0.0
 11
93.649359
 21
42.744484
 31
0.0
  0
LINE
  5
373
100
AcDbEntity
  8
2
100
AcDbLine
 10
49.649359
 20
42.744484
 30
0.0
 11
48.649359
 21
41.744484
 31
0.0
  0
LINE
  5
374
100
AcDbEntity
  8
2
100
AcDbLine
 10
71.649359
 20
41.744484
 30
0.0
 11
70.649359
 21
42.744484
 31
0.0
  0
LINE
  5
375
100
AcDbEntity
  8
2
100
AcDbLine
 10
62.649359
 20
42.744484
 30
0.0
 11
61.649359
 21
41.744484
 31
0.0
  0
LINE
  5
376
100
AcDbEntity
  8
2
100
AcDbLine
 10
53.885903
 20
44.744484
 30
0.0
 11
46.885903
 21
44.744484
 31
0.0
  0
LINE
  5
377
100
AcDbEntity
  8
2
100
AcDbLine
 10
46.385903
 20
44.244484
 30
0.0
 11
46.385903
 21
41.767764
 31
0.0
  0
LINE
  5
378
100
AcDbEntity
  8
2
100
AcDbLine
 10
54.385903
 20
44.244484
 30
0.0
 11
54.385903
 21
42.744484
 31
0.0
  0
ARC
  5
379
100
AcDbEntity
  8
2
100
AcDbCircle
 10
46.885903
 20
44.244484
 30
0.0
 40
0.5
100
AcDbArc
 50
90.0
 51
180.0
  0
ARC
  5
37A
100
AcDbEntity
  8
2
100
AcDbCircle
 10
53.885903
 20
44.244484
 30
0.0
 40
0.5
100
AcDbArc
 50
0.0
 51
90.0
  0
LINE
  5
37B
100
AcDbEntity
  8
2
100
AcDbLine
 10
79.412815
 20
44.744484
 30
0.0
 11
86.412815
 21
44.744484
 31
0.0
  0
LINE
  5
37C
100
AcDbEntity
  8
2
100
AcDbLine
 10
86.912815
 20
44.244484
 30
0.0
 11
86.912815
 21
42.244484
 31
0.0
  0
LINE
  5
37D
100
AcDbEntity
  8
2
100
AcDbLine
 10
78.912815
 20
44.244484
 30
0.0
 11
78.912815
 21
42.244484
 31
0.0
  0
ARC
  5
37E
100
AcDbEntity
  8
2
100
AcDbCircle
 10
86.412815
 20
44.244484
 30
0.0
 40
0.5
100
AcDbArc
 50
0.0
 51
90.0
  0
ARC
  5
37F
100
AcDbEntity
  8
2
100
AcDbCircle
 10
79.412815
 20
44.244484
 30
0.0
 40
0.5
100
AcDbArc
 50
90.0
 51
180.0
  0
ARC
  5
380
100
AcDbEntity
  8
2
100
AcDbCircle
 10
87.412815
 20
42.244484
 30
0.0
 40
0.5
100
AcDbArc
 50
180.0
 51
270.0
  0
ARC
  5
381
100
AcDbEntity
  8
2
100
AcDbCircle
 10
78.412815
 20
42.244484
 30
0.0
 40
0.5
100
AcDbArc
 50
270.0
 51
360.0
  0
LINE
  5
382
100
AcDbEntity
  8
2
100
AcDbLine
 10
49.649359
 20
42.744484
 30
0.0
 11
78.912815
 21
42.744484
 31
0.0
  0
LINE
  5
383
100
AcDbEntity
  8
2
100
AcDbLine
 10
86.912815
 20
42.744484
 30
0.0
 11
93.649359
 21
42.744484
 31
0.0
  0
ARC
  5
384
100
AcDbEntity
  8
2
100
AcDbCircle
 10
45.885903
 20
41.767764
 30
0.0
 40
0.5
100
AcDbArc
 50
300.254682
 51
360.0
  0
LINE
  5
385
100
AcDbEntity
  8
2
100
AcDbLine
 10
56.649359
 20
39.744484
 30
0.0
 11
56.649359
 21
33.244484
 31
0.0
  0
LINE
  5
386
100
AcDbEntity
  8
2
100
AcDbLine
 10
101.649359
 20
35.744484
 30
0.0
 11
101.649359
 21
33.244484
 31
0.0
  0
ARC
  5
387
100
AcDbEntity
  8
2
100
AcDbCircle
 10
95.649359
 20
35.744484
 30
0.0
 40
6.0
100
AcDbArc
 50
0.0
 51
90.0
  0
LINE
  5
388
100
AcDbEntity
  8
2
100
AcDbLine
 10
96.649359
 20
32.244484
 30
0.0
 11
112.043156
 21
32.244484
 31
0.0
  0
ARC
  5
389
100
AcDbEntity
  8
2
100
AcDbCircle
 10
102.649359
 20
33.244484
 30
0.0
 40
1.0
100
AcDbArc
 50
180.0
 51
270.0
  0
ARC
  5
38A
100
AcDbEntity
  8
2
100
AcDbCircle
 10
112.043156
 20
31.244484
 30
0.0
 40
1.0
100
AcDbArc
 50
17.235285
 51
90.0
  0
LINE
  5
38B
100
AcDbEntity
  8
2
100
AcDbLine
 10
45.649359
 20
32.244484
 30
0.0
 11
61.649359
 21
32.244484
 31
0.0
  0
ARC
  5
38C
100
AcDbEntity
  8
2
100
AcDbCircle
 10
45.649359
 20
31.244484
 30
0.0
 40
1.0
100
AcDbArc
 50
90.0
 51
180.0
  0
ARC
  5
38D
100
AcDbEntity
  8
2
100
AcDbCircle
 10
55.649359
 20
33.244484
 30
0.0
 40
1.0
100
AcDbArc
 50
270.0
 51
360.0
  0
ARC
  5
38E
100
AcDbEntity
  8
2
100
AcDbCircle
 10
58.649359
 20
39.744484
 30
0.0
 40
2.0
100
AcDbArc
 50
90.0
 51
180.0
  0
LINE
  5
38F
100
AcDbEntity
  8
2
100
AcDbLine
 10
103.399359
 20
32.244484
 30
0.0
 11
103.399359
 21
36.944484
 31
0.0
  0
LINE
  5
390
100
AcDbEntity
  8
2
100
AcDbLine
 10
103.399359
 20
36.944484
 30
0.0
 11
103.918974
 21
37.244484
 31
0.0
  0
LINE
  5
391
100
AcDbEntity
  8
2
100
AcDbLine
 10
103.918974
 20
37.244484
 30
0.0
 11
111.379744
 21
37.244484
 31
0.0
  0
LINE
  5
392
100
AcDbEntity
  8
2
100
AcDbLine
 10
111.899359
 20
32.244484
 30
0.0
 11
111.899359
 21
36.944484
 31
0.0
  0
LINE
  5
393
100
AcDbEntity
  8
2
100
AcDbLine
 10
111.899359
 20
36.944484
 30
0.0
 11
111.379744
 21
37.244484
 31
0.0
  0
LINE
  5
394
100
AcDbEntity
  8
2
100
AcDbLine
 10
111.899359
 20
36.944484
 30
0.0
 11
103.399359
 21
36.944484
 31
0.0
  0
LINE
  5
395
100
AcDbEntity
  8
2
100
AcDbLine
 10
46.399359
 20
32.244484
 30
0.0
 11
46.399359
 21
36.944484
 31
0.0
  0
LINE
  5
396
100
AcDbEntity
  8
2
100
AcDbLine
 10
46.399359
 20
36.944484
 30
0.0
 11
46.918974
 21
37.244484
 31
0.0
  0
LINE
  5
397
100
AcDbEntity
  8
2
100
AcDbLine
 10
46.918974
 20
37.244484
 30
0.0
 11
54.379744
 21
37.244484
 31
0.0
  0
LINE
  5
398
100
AcDbEntity
  8
2
100
AcDbLine
 10
54.899359
 20
32.244484
 30
0.0
 11
54.899359
 21
36.944484
 31
0.0
  0
LINE
  5
399
100
AcDbEntity
  8
2
100
AcDbLine
 10
54.899359
 20
36.944484
 30
0.0
 11
54.379744
 21
37.244484
 31
0.0
  0
LINE
  5
39A
100
AcDbEntity
  8
2
100
AcDbLine
 10
54.899359
 20
36.944484
 30
0.0
 11
46.399359
 21
36.944484
 31
0.0
  0
ARC
  5
39B
100
AcDbEntity
  8
2
100
AcDbCircle
 10
99.149359
 20
27.244484
 30
0.0
 40
14.5
100
AcDbArc
 50
0.0
 51
28.440718
  0
ARC
  5
39C
100
AcDbEntity
  8
2
100
AcDbCircle
 10
99.149359
 20
27.244484
 30
0.0
 40
14.5
100
AcDbArc
 50
43.602819
 51
90.0
  0
LINE
  5
39D
100
AcDbEntity
  8
2
100
AcDbLine
 10
35.149359
 20
34.703484
 30
0.0
 11
35.149359
 21
29.785484
 31
0.0
  0
LINE
  5
39E
100
AcDbEntity
  8
2
100
AcDbLine
 10
35.149359
 20
34.703484
 30
0.0
 11
35.690359
 21
35.244484
 31
0.0
  0
LINE
  5
39F
100
AcDbEntity
  8
2
100
AcDbLine
 10
35.690359
 20
35.244484
 30
0.0
 11
39.649359
 21
35.244484
 31
0.0
  0
LINE
  5
3A0
100
AcDbEntity
  8
2
100
AcDbLine
 10
35.690359
 20
35.244484
 30
0.0
 11
35.690359
 21
29.244484
 31
0.0
  0
LINE
  5
3A1
100
AcDbEntity
  8
2
 62
     2
100
AcDbLine
 10
35.149359
 20
34.703484
 30
0.0
 11
39.649359
 21
34.703484
 31
0.0
  0
LINE
  5
3A2
100
AcDbEntity
  8
2
100
AcDbLine
 10
35.149359
 20
29.785484
 30
0.0
 11
35.690359
 21
29.244484
 31
0.0
  0
LINE
  5
3A3
100
AcDbEntity
  8
2
100
AcDbLine
 10
35.690359
 20
29.244484
 30
0.0
 11
39.649359
 21
29.244484
 31
0.0
  0
LINE
  5
3A4
100
AcDbEntity
  8
2
 62
     2
100
AcDbLine
 10
35.149359
 20
29.785484
 30
0.0
 11
39.649359
 21
29.785484
 31
0.0
  0
LINE
  5
3A5
100
AcDbEntity
  8
2
100
AcDbLine
 10
44.649359
 20
27.244484
 30
0.0
 11
39.649359
 21
27.244484
 31
0.0
  0
LINE
  5
3A6
100
AcDbEntity
  8
2
100
AcDbLine
 10
39.649359
 20
27.244484
 30
0.0
 11
39.649359
 21
37.244484
 31
0.0
  0
ARC
  5
3A7
100
AcDbEntity
  8
2
100
AcDbCircle
 10
46.262566
 20
29.744484
 30
0.0
 40
6.613208
100
AcDbArc
 50
157.788205
 51
202.211795
  0
LINE
  5
3A8
100
AcDbEntity
  8
2
100
AcDbLine
 10
44.649359
 20
37.244484
 30
0.0
 11
39.649359
 21
37.244484
 31
0.0
  0
LINE
  5
3A9
100
AcDbEntity
  8
2
100
AcDbLine
 10
44.649359
 20
32.244484
 30
0.0
 11
40.140106
 21
32.244484
 31
0.0
  0
ARC
  5
3AA
100
AcDbEntity
  8
2
100
AcDbCircle
 10
46.262566
 20
34.744484
 30
0.0
 40
6.613208
100
AcDbArc
 50
157.788205
 51
202.211795
  0
CIRCLE
  5
3AB
100
AcDbEntity
  8
2
100
AcDbCircle
 10
94.649359
 20
27.244484
 30
0.0
 40
4.5
  0
LINE
  5
3AC
100
AcDbEntity
  8
2
  6
CENTER
 62
     2
100
AcDbLine
 10
135.819409
 20
27.244484
 30
0.0
 11
24.479799
 21
27.244484
 31
0.0
  0
LINE
  5
3AD
100
AcDbEntity
  8
2
  6
CENTER
 62
     2
100
AcDbLine
 10
94.649359
 20
68.414534
 30
0.0
 11
94.649359
 21
-13.925567
 31
0.0
  0
LINE
  5
3AE
100
AcDbEntity
  8
2
  6
CENTER
 62
     2
100
AcDbLine
 10
45.649359
 20
32.244484
 30
0.0
 11
30.874109
 21
32.244484
 31
0.0
  0
LINE
  5
3AF
100
AcDbEntity
  8
2
  6
CENTER
 62
     2
100
AcDbLine
 10
50.385903
 20
47.022933
 30
0.0
 11
50.385903
 21
39.622184
 31
0.0
  0
LINE
  5
3B0
100
AcDbEntity
  8
2
  6
CENTER
 62
     2
100
AcDbLine
 10
82.912815
 20
47.022933
 30
0.0
 11
82.912815
 21
39.622184
 31
0.0
  0
LINE
  5
3B1
100
AcDbEntity
  8
2
  6
CENTER
 62
     2
100
AcDbLine
 10
107.649359
 20
40.186622
 30
0.0
 11
107.649359
 21
25.351203
 31
0.0
  0
LINE
  5
3B2
100
AcDbEntity
  8
2
  6
CENTER
 62
     2
100
AcDbLine
 10
50.649359
 20
40.186622
 30
0.0
 11
50.649359
 21
25.351203
 31
0.0
  0
TEXT
  5
3B3
100
AcDbEntity
  8
2
100
AcDbText
 10
-174.850641
 20
157.742823
 30
0.0
 40
7.0
  1
Ｓ
 50
270.0
 72
     5
 11
-174.850641
 21
152.142823
 31
0.0
100
AcDbText
  0
TEXT
  5
3B4
100
AcDbEntity
  8
2
100
AcDbText
 10
-196.850641
 20
172.742823
 30
0.0
 40
7.0
  1
Ｏ
 72
     5
 11
-191.250641
 21
172.742823
 31
0.0
100
AcDbText
  0
LINE
  5
3B5
100
AcDbEntity
  8
2
100
AcDbLine
 10
-225.599379
 20
-10.755516
 30
0.0
 11
-225.599379
 21
-15.533828
 31
0.0
  0
LINE
  5
3B6
100
AcDbEntity
  8
2
100
AcDbLine
 10
-225.599379
 20
-15.533828
 30
0.0
 11
-224.349379
 21
-16.255516
 31
0.0
  0
LINE
  5
3B7
100
AcDbEntity
  8
2
100
AcDbLine
 10
-221.849379
 20
-10.755516
 30
0.0
 11
-221.849379
 21
-15.533828
 31
0.0
  0
ARC
  5
3B8
100
AcDbEntity
  8
2
100
AcDbCircle
 10
-223.724379
 20
-13.123452
 30
0.0
 40
3.053774
100
AcDbArc
 50
232.121121
 51
307.878879
  0
ARC
  5
3B9
100
AcDbEntity
  8
2
100
AcDbCircle
 10
-218.099379
 20
-4.927227
 30
0.0
 40
11.25
100
AcDbArc
 50
250.528781
 51
289.471223
  0
LINE
  5
3BA
100
AcDbEntity
  8
2
100
AcDbLine
 10
-211.71907
 20
-16.180282
 30
0.0
 11
-211.849379
 21
-16.255516
 31
0.0
  0
LINE
  5
3BB
100
AcDbEntity
  8
2
100
AcDbLine
 10
-211.849379
 20
-16.255516
 30
0.0
 11
-224.349379
 21
-16.255516
 31
0.0
  0
LINE
  5
3BC
100
AcDbEntity
  8
2
100
AcDbLine
 10
-214.349379
 20
-13.24914
 30
0.0
 11
-214.349379
 21
-15.533828
 31
0.0
  0
ARC
  5
3BD
100
AcDbEntity
  8
2
100
AcDbCircle
 10
-212.474379
 20
-13.123452
 30
0.0
 40
3.053774
100
AcDbArc
 50
232.121121
 51
283.160627
  0
LINE
  5
3BE
100
AcDbEntity
  8
2
100
AcDbLine
 10
-225.799379
 20
-8.755516
 30
0.0
 11
-225.799379
 21
-10.755516
 31
0.0
  0
LINE
  5
3BF
100
AcDbEntity
  8
2
100
AcDbLine
 10
-225.799379
 20
-10.755516
 30
0.0
 11
-217.930022
 21
-10.755516
 31
0.0
  0
LINE
  5
3C0
100
AcDbEntity
  8
2
100
AcDbLine
 10
91.22874
 20
-10.755516
 30
0.0
 11
99.098096
 21
-10.755516
 31
0.0
  0
LINE
  5
3C1
100
AcDbEntity
  8
2
100
AcDbLine
 10
99.098096
 20
-10.755516
 30
0.0
 11
99.098096
 21
-8.755516
 31
0.0
  0
LINE
  5
3C2
100
AcDbEntity
  8
2
100
AcDbLine
 10
91.398096
 20
-10.755516
 30
0.0
 11
91.398096
 21
-15.533828
 31
0.0
  0
ARC
  5
3C3
100
AcDbEntity
  8
2
100
AcDbCircle
 10
88.148096
 20
-8.576758
 30
0.0
 40
7.678759
100
AcDbArc
 50
248.648343
 51
295.03966
  0
LINE
  5
3C4
100
AcDbEntity
  8
2
100
AcDbLine
 10
97.898096
 20
-10.755516
 30
0.0
 11
97.898096
 21
-16.255516
 31
0.0
  0
LINE
  5
3C5
100
AcDbEntity
  8
2
100
AcDbLine
 10
97.898096
 20
-16.255516
 30
0.0
 11
84.964171
 21
-16.255516
 31
0.0
  0
ARC
  5
3C6
100
AcDbEntity
  8
2
100
AcDbCircle
 10
94.648096
 20
-8.576758
 30
0.0
 40
7.678759
100
AcDbArc
 50
244.96034
 51
295.03966
  0
DIMENSION
  5
3C7
100
AcDbEntity
  8
5
100
AcDbDimension
  2
*D0
 10
-4.864883
 20
27.244484
 30
0.0
 11
-10.484883
 21
17.224484
 31
0.0
  1
24
100
AcDbAlignedDimension
 13
31.649359
 23
3.244484
 33
0.0
 14
24.479799
 24
27.244484
 34
0.0
 50
90.0
100
AcDbRotatedDimension
  0
DIMENSION
  5
3C8
100
AcDbEntity
  8
5
100
AcDbDimension
  2
*D1
 10
-76.092659
 20
-7.755516
 30
0.0
 11
-84.022659
 21
26.914484
 31
0.0
 70
     1
  1
%%c70
100
AcDbAlignedDimension
 13
-111.850641
 23
62.244484
 33
0.0
 14
-111.850641
 24
-7.755516
 34
0.0
 50
270.0
  0
DIMENSION
  5
3C9
100
AcDbEntity
  8
5
100
AcDbDimension
  2
*D2
 10
-110.350641
 20
233.712646
 30
0.0
 11
-151.850641
 21
238.012646
 31
0.0
  1
83
100
AcDbAlignedDimension
 13
-193.350641
 23
209.902495
 33
0.0
 14
-110.350641
 24
212.058521
 34
0.0
100
AcDbRotatedDimension
  0
DIMENSION
  5
3CA
100
AcDbEntity
  8
5
100
AcDbDimension
  2
*D3
 10
-4.864883
 20
3.244484
 30
0.0
 11
-12.794883
 21
-72.585516
 31
0.0
  1
151
100
AcDbAlignedDimension
 13
29.243649
 23
-147.755516
 33
0.0
 14
31.649359
 24
3.244484
 34
0.0
 50
90.0
100
AcDbRotatedDimension
  0
DIMENSION
  5
3CB
100
AcDbEntity
  8
5
100
AcDbDimension
  2
*D4
 10
-4.864883
 20
-147.755516
 30
0.0
 11
-10.484883
 21
-184.725516
 31
0.0
  1
78
100
AcDbAlignedDimension
 13
61.649359
 23
-225.655516
 33
0.0
 14
29.243649
 24
-147.755516
 34
0.0
 50
90.0
100
AcDbRotatedDimension
  0
DIMENSION
  5
3CC
100
AcDbEntity
  8
5
100
AcDbDimension
  2
*D5
 10
89.649359
 20
-252.294403
 30
0.0
 11
66.649359
 21
-247.994403
 31
0.0
  1
46
100
AcDbAlignedDimension
 13
43.649359
 23
-204.255516
 33
0.0
 14
89.649359
 24
-204.255516
 34
0.0
100
AcDbRotatedDimension
  0
DIMENSION
  5
3CD
100
AcDbEntity
  8
5
100
AcDbDimension
  2
*D6
 10
-76.092659
 20
182.242823
 30
0.0
 11
-81.712659
 21
170.222823
 31
0.0
  1
28
100
AcDbAlignedDimension
 13
-121.026062
 23
154.242823
 33
0.0
 14
-102.746653
 24
182.242823
 34
0.0
 50
90.0
100
AcDbRotatedDimension
  0
DIMENSION
  5
3CE
100
AcDbEntity
  8
5
100
AcDbDimension
  2
*D7
 10
-76.092659
 20
154.242823
 30
0.0
 11
-81.712659
 21
138.722823
 31
0.0
  1
35
100
AcDbAlignedDimension
 13
-168.350641
 23
119.242823
 33
0.0
 14
-121.026062
 24
154.242823
 34
0.0
 50
90.0
100
AcDbRotatedDimension
  0
LINE
  5
3CF
100
AcDbEntity
  8
13
100
AcDbLine
 10
-196.997091
 20
-148.955516
 30
0.0
 11
-164.959269
 21
-148.955516
 31
0.0
  0
LINE
  5
3D0
100
AcDbEntity
  8
13
100
AcDbLine
 10
-196.997091
 20
-146.555516
 30
0.0
 11
-164.959269
 21
-146.555516
 31
0.0
  0
LINE
  5
3D1
100
AcDbEntity
  8
13
100
AcDbLine
 10
-190.047887
 20
-137.249054
 30
0.0
 11
-166.437671
 21
-139.31468
 31
0.0
  0
LINE
  5
3D2
100
AcDbEntity
  8
13
100
AcDbLine
 10
-185.166689
 20
-135.266935
 30
0.0
 11
-166.875971
 21
-136.867166
 31
0.0
  0
ARC
  5
3D3
100
AcDbEntity
  8
13
100
AcDbCircle
 10
-193.350641
 20
-147.755516
 30
0.0
 40
30.5
100
AcDbArc
 50
17.426809
 51
20.401612
  0
LINE
  5
3D4
100
AcDbEntity
  8
13
100
AcDbLine
 10
-201.667011
 20
-146.055516
 30
0.0
 11
-163.858948
 21
-146.055516
 31
0.0
  0
LINE
  5
3D5
100
AcDbEntity
  8
13
100
AcDbLine
 10
-201.667011
 20
-149.455516
 30
0.0
 11
-163.858948
 21
-149.455516
 31
0.0
  0
ARC
  5
3D6
100
AcDbEntity
  8
13
100
AcDbCircle
 10
-164.959269
 20
-147.055516
 30
0.0
 40
0.5
100
AcDbArc
 50
1.412363
 51
90.0
  0
ARC
  5
3D7
100
AcDbEntity
  8
13
100
AcDbCircle
 10
-164.959269
 20
-148.455516
 30
0.0
 40
0.5
100
AcDbArc
 50
270.0
 51
358.587637
  0
ARC
  5
3D8
100
AcDbEntity
  8
13
100
AcDbCircle
 10
-163.858948
 20
-147.055516
 30
0.0
 40
1.0
100
AcDbArc
 50
1.359688
 51
90.0
  0
ARC
  5
3D9
100
AcDbEntity
  8
13
100
AcDbCircle
 10
-163.858948
 20
-148.455516
 30
0.0
 40
1.0
100
AcDbArc
 50
270.0
 51
358.640312
  0
LINE
  5
3DA
100
AcDbEntity
  8
13
100
AcDbLine
 10
-164.475565
 20
-146.555516
 30
0.0
 11
-163.473095
 21
-146.237778
 31
0.0
  0
LINE
  5
3DB
100
AcDbEntity
  8
13
100
AcDbLine
 10
-164.475565
 20
-148.955516
 30
0.0
 11
-163.474911
 21
-149.272679
 31
0.0
  0
ARC
  5
3DC
100
AcDbEntity
  8
13
100
AcDbCircle
 10
-193.350641
 20
-147.755516
 30
0.0
 40
28.9
100
AcDbArc
 50
18.345794
 51
21.460147
  0
LINE
  5
3DD
100
AcDbEntity
  8
13
100
AcDbLine
 10
-195.698451
 20
-137.256603
 30
0.0
 11
-165.291838
 21
-139.916837
 31
0.0
  0
LINE
  5
3DE
100
AcDbEntity
  8
13
100
AcDbLine
 10
-180.547887
 20
-135.169118
 30
0.0
 11
-165.613956
 21
-136.475668
 31
0.0
  0
ARC
  5
3DF
100
AcDbEntity
  8
13
100
AcDbCircle
 10
-166.919549
 20
-137.365263
 30
0.0
 40
0.5
100
AcDbArc
 50
21.460147
 51
85.0
  0
ARC
  5
3E0
100
AcDbEntity
  8
13
100
AcDbCircle
 10
-166.394094
 20
-138.816582
 30
0.0
 40
0.5
100
AcDbArc
 50
265.0
 51
18.345794
  0
ARC
  5
3E1
100
AcDbEntity
  8
13
100
AcDbCircle
 10
-165.701112
 20
-137.471863
 30
0.0
 40
1.0
100
AcDbArc
 50
20.401612
 51
85.0
  0
ARC
  5
3E2
100
AcDbEntity
  8
13
100
AcDbCircle
 10
-165.204682
 20
-138.920642
 30
0.0
 40
1.0
100
AcDbArc
 50
265.0
 51
17.426809
  0
LINE
  5
3E3
100
AcDbEntity
  8
13
100
AcDbLine
 10
-165.583535
 20
-136.666653
 30
0.0
 11
-166.381051
 21
-136.850567
 31
0.0
  0
LINE
  5
3E4
100
AcDbEntity
  8
13
100
AcDbLine
 10
-165.838635
 20
-139.326992
 30
0.0
 11
-164.973567
 21
-139.637471
 31
0.0
  0
ARC
  5
3E5
100
AcDbEntity
  8
13
100
AcDbCircle
 10
-188.850641
 20
-138.859529
 30
0.0
 40
1.0
100
AcDbArc
 50
85.0
 51
180.0
  0
ARC
  5
3E6
100
AcDbEntity
  8
13
100
AcDbCircle
 10
-190.350641
 20
-138.728296
 30
0.0
 40
1.0
100
AcDbArc
 50
85.0
 51
180.0
  0
ARC
  5
3E7
100
AcDbEntity
  8
13
100
AcDbCircle
 10
-188.850641
 20
-145.055516
 30
0.0
 40
1.0
100
AcDbArc
 50
180.0
 51
270.0
  0
ARC
  5
3E8
100
AcDbEntity
  8
13
100
AcDbCircle
 10
-190.350641
 20
-145.055516
 30
0.0
 40
1.0
100
AcDbArc
 50
180.0
 51
270.0
  0
LINE
  5
3E9
100
AcDbEntity
  8
13
100
AcDbLine
 10
-189.850641
 20
-145.055516
 30
0.0
 11
-189.850641
 21
-138.859529
 31
0.0
  0
LINE
  5
3EA
100
AcDbEntity
  8
13
100
AcDbLine
 10
-191.350641
 20
-145.055516
 30
0.0
 11
-191.350641
 21
-138.728296
 31
0.0
  0
LINE
  5
3EB
100
AcDbEntity
  8
13
100
AcDbLine
 10
-190.047887
 20
-161.261979
 30
0.0
 11
-167.676073
 21
-159.304699
 31
0.0
  0
LINE
  5
3EC
100
AcDbEntity
  8
13
100
AcDbLine
 10
-185.166689
 20
-163.244097
 30
0.0
 11
-168.330326
 21
-161.771106
 31
0.0
  0
ARC
  5
3ED
100
AcDbEntity
  8
13
100
AcDbCircle
 10
-193.350641
 20
-147.755516
 30
0.0
 40
30.5
100
AcDbArc
 50
332.976403
 51
336.130855
  0
ARC
  5
3EE
100
AcDbEntity
  8
13
100
AcDbCircle
 10
-193.350641
 20
-147.755516
 30
0.0
 40
30.5
100
AcDbArc
 50
358.640312
 51
1.359688
  0
ARC
  5
3EF
100
AcDbEntity
  8
13
100
AcDbCircle
 10
-193.350641
 20
-147.755516
 30
0.0
 40
28.9
100
AcDbArc
 50
331.577602
 51
334.899964
  0
ARC
  5
3F0
100
AcDbEntity
  8
13
100
AcDbCircle
 10
-193.350641
 20
-147.755516
 30
0.0
 40
28.9
100
AcDbArc
 50
358.587637
 51
1.412363
  0
LINE
  5
3F1
100
AcDbEntity
  8
13
100
AcDbLine
 10
-195.698451
 20
-161.254429
 30
0.0
 11
-166.460873
 21
-158.696473
 31
0.0
  0
LINE
  5
3F2
100
AcDbEntity
  8
13
100
AcDbLine
 10
-180.547887
 20
-163.341914
 30
0.0
 11
-166.984311
 21
-162.155255
 31
0.0
  0
ARC
  5
3F3
100
AcDbEntity
  8
13
100
AcDbCircle
 10
-166.373717
 20
-159.692667
 30
0.0
 40
1.0
100
AcDbArc
 50
336.130855
 51
95.0
  0
ARC
  5
3F4
100
AcDbEntity
  8
13
100
AcDbCircle
 10
-167.071467
 20
-161.15906
 30
0.0
 40
1.0
100
AcDbArc
 50
275.0
 51
332.976403
  0
ARC
  5
3F5
100
AcDbEntity
  8
13
100
AcDbCircle
 10
-167.632495
 20
-159.802796
 30
0.0
 40
0.5
100
AcDbArc
 50
334.899964
 51
95.0
  0
ARC
  5
3F6
100
AcDbEntity
  8
13
100
AcDbCircle
 10
-168.373904
 20
-161.273009
 30
0.0
 40
0.5
100
AcDbArc
 50
275.0
 51
331.577602
  0
LINE
  5
3F7
100
AcDbEntity
  8
13
100
AcDbLine
 10
-167.688947
 20
-161.830731
 30
0.0
 11
-167.009166
 21
-161.981169
 31
0.0
  0
LINE
  5
3F8
100
AcDbEntity
  8
13
100
AcDbLine
 10
-166.975819
 20
-159.280938
 30
0.0
 11
-166.023446
 21
-158.958654
 31
0.0
  0
LINE
  5
3F9
100
AcDbEntity
  8
13
100
AcDbLine
 10
-191.350641
 20
-150.455516
 30
0.0
 11
-191.350641
 21
-159.782737
 31
0.0
  0
LINE
  5
3FA
100
AcDbEntity
  8
13
100
AcDbLine
 10
-189.850641
 20
-150.455516
 30
0.0
 11
-189.850641
 21
-159.651504
 31
0.0
  0
ARC
  5
3FB
100
AcDbEntity
  8
13
100
AcDbCircle
 10
-188.850641
 20
-150.455516
 30
0.0
 40
1.0
100
AcDbArc
 50
90.0
 51
180.0
  0
ARC
  5
3FC
100
AcDbEntity
  8
13
100
AcDbCircle
 10
-190.350641
 20
-150.455516
 30
0.0
 40
1.0
100
AcDbArc
 50
90.0
 51
180.0
  0
ARC
  5
3FD
100
AcDbEntity
  8
13
100
AcDbCircle
 10
-188.850641
 20
-159.651504
 30
0.0
 40
1.0
100
AcDbArc
 50
180.0
 51
275.0
  0
ARC
  5
3FE
100
AcDbEntity
  8
13
100
AcDbCircle
 10
-190.350641
 20
-159.782737
 30
0.0
 40
1.0
100
AcDbArc
 50
180.0
 51
275.0
  0
LINE
  5
3FF
100
AcDbEntity
  8
13
100
AcDbLine
 10
-184.612905
 20
-127.482826
 30
0.0
 11
-184.612905
 21
-125.355516
 31
0.0
  0
ARC
  5
400
100
AcDbEntity
  8
13
100
AcDbCircle
 10
-184.469443
 20
-127.297378
 30
0.0
 40
8.0
100
AcDbArc
 50
180.0
 51
265.0
  0
ARC
  5
401
100
AcDbEntity
  8
13
100
AcDbCircle
 10
-176.612905
 20
-127.482826
 30
0.0
 40
8.0
100
AcDbArc
 50
180.0
 51
265.0
  0
ARC
  5
402
100
AcDbEntity
  8
13
100
AcDbCircle
 10
-179.850641
 20
-127.199561
 30
0.0
 40
8.0
100
AcDbArc
 50
180.0
 51
265.0
  0
LINE
  5
403
100
AcDbEntity
  8
13
100
AcDbLine
 10
-183.612905
 20
-123.355516
 30
0.0
 11
-183.597687
 21
-123.355516
 31
0.0
  0
LINE
  5
404
100
AcDbEntity
  8
13
100
AcDbLine
 10
-180.777973
 20
-123.355516
 30
0.0
 11
-193.350641
 21
-123.355516
 31
0.0
  0
LINE
  5
405
100
AcDbEntity
  8
13
100
AcDbLine
 10
-177.568481
 20
-122.056694
 30
0.0
 11
-177.568481
 21
-119.116148
 31
0.0
  0
ARC
  5
406
100
AcDbEntity
  8
13
100
AcDbCircle
 10
-193.350641
 20
-195.763333
 30
0.0
 40
74.107816
100
AcDbArc
 50
77.704001
 51
90.0
  0
ARC
  5
407
100
AcDbEntity
  8
13
100
AcDbCircle
 10
-182.612905
 20
-125.355516
 30
0.0
 40
2.0
100
AcDbArc
 50
90.0
 51
180.0
  0
LINE
  5
408
100
AcDbEntity
  8
13
100
AcDbLine
 10
-183.612905
 20
-172.155516
 30
0.0
 11
-183.597687
 21
-172.155516
 31
0.0
  0
LINE
  5
409
100
AcDbEntity
  8
13
100
AcDbLine
 10
-180.777973
 20
-172.155516
 30
0.0
 11
-193.350641
 21
-172.155516
 31
0.0
  0
LINE
  5
40A
100
AcDbEntity
  8
13
100
AcDbLine
 10
-177.568481
 20
-173.454339
 30
0.0
 11
-177.568481
 21
-176.394885
 31
0.0
  0
ARC
  5
40B
100
AcDbEntity
  8
13
100
AcDbCircle
 10
-193.350641
 20
-99.7477
 30
0.0
 40
74.107816
100
AcDbArc
 50
270.0
 51
282.295999
  0
ARC
  5
40C
100
AcDbEntity
  8
13
100
AcDbCircle
 10
-182.612905
 20
-170.155516
 30
0.0
 40
2.0
100
AcDbArc
 50
180.0
 51
270.0
  0
ARC
  5
40D
100
AcDbEntity
  8
13
100
AcDbCircle
 10
-184.469443
 20
-171.213655
 30
0.0
 40
8.0
100
AcDbArc
 50
95.0
 51
180.0
  0
ARC
  5
40E
100
AcDbEntity
  8
13
100
AcDbCircle
 10
-179.850641
 20
-171.311472
 30
0.0
 40
8.0
100
AcDbArc
 50
95.0
 51
180.0
  0
ARC
  5
40F
100
AcDbEntity
  8
13
100
AcDbCircle
 10
-177.56528
 20
-170.155516
 30
0.0
 40
7.047626
100
AcDbArc
 50
95.0
 51
180.0
  0
ARC
  5
410
100
AcDbEntity
  8
13
100
AcDbCircle
 10
-197.850641
 20
-145.055516
 30
0.0
 40
1.0
100
AcDbArc
 50
270.0
 51
360.0
  0
ARC
  5
411
100
AcDbEntity
  8
13
100
AcDbCircle
 10
-196.350641
 20
-145.055516
 30
0.0
 40
1.0
100
AcDbArc
 50
270.0
 51
0.0
  0
LINE
  5
412
100
AcDbEntity
  8
13
100
AcDbLine
 10
-196.850641
 20
-145.055516
 30
0.0
 11
-196.850641
 21
-137.824066
 31
0.0
  0
LINE
  5
413
100
AcDbEntity
  8
13
100
AcDbLine
 10
-195.350641
 20
-145.055516
 30
0.0
 11
-195.350641
 21
-138.185305
 31
0.0
  0
LINE
  5
414
100
AcDbEntity
  8
13
100
AcDbLine
 10
-195.350641
 20
-150.455516
 30
0.0
 11
-195.350641
 21
-160.325727
 31
0.0
  0
LINE
  5
415
100
AcDbEntity
  8
13
100
AcDbLine
 10
-196.850641
 20
-150.455516
 30
0.0
 11
-196.850641
 21
-160.686967
 31
0.0
  0
ARC
  5
416
100
AcDbEntity
  8
13
100
AcDbCircle
 10
-197.850641
 20
-150.455516
 30
0.0
 40
1.0
100
AcDbArc
 50
0.0
 51
90.0
  0
ARC
  5
417
100
AcDbEntity
  8
13
100
AcDbCircle
 10
-196.350641
 20
-150.455516
 30
0.0
 40
1.0
100
AcDbArc
 50
0.0
 51
90.0
  0
LINE
  5
418
100
AcDbEntity
  8
13
100
AcDbLine
 10
-203.088377
 20
-123.355516
 30
0.0
 11
-203.103596
 21
-123.355516
 31
0.0
  0
LINE
  5
419
100
AcDbEntity
  8
13
100
AcDbLine
 10
-205.923309
 20
-123.355516
 30
0.0
 11
-193.350641
 21
-123.355516
 31
0.0
  0
LINE
  5
41A
100
AcDbEntity
  8
13
100
AcDbLine
 10
-209.132801
 20
-122.056694
 30
0.0
 11
-209.132801
 21
-119.116148
 31
0.0
  0
ARC
  5
41B
100
AcDbEntity
  8
13
100
AcDbCircle
 10
-193.350641
 20
-195.763333
 30
0.0
 40
74.107816
100
AcDbArc
 50
90.0
 51
102.295999
  0
LINE
  5
41C
100
AcDbEntity
  8
13
100
AcDbLine
 10
-203.088377
 20
-172.155516
 30
0.0
 11
-203.103596
 21
-172.155516
 31
0.0
  0
LINE
  5
41D
100
AcDbEntity
  8
13
100
AcDbLine
 10
-205.923309
 20
-172.155516
 30
0.0
 11
-193.350641
 21
-172.155516
 31
0.0
  0
LINE
  5
41E
100
AcDbEntity
  8
13
100
AcDbLine
 10
-209.132801
 20
-173.454339
 30
0.0
 11
-209.132801
 21
-176.394885
 31
0.0
  0
ARC
  5
41F
100
AcDbEntity
  8
13
100
AcDbCircle
 10
-193.350641
 20
-99.7477
 30
0.0
 40
74.107816
100
AcDbArc
 50
257.704001
 51
270.0
  0
LINE
  5
420
100
AcDbEntity
  8
13
100
AcDbLine
 10
-197.497091
 20
-148.455516
 30
0.0
 11
-197.497091
 21
-147.055516
 31
0.0
  0
LINE
  5
421
100
AcDbEntity
  8
13
100
AcDbLine
 10
-202.167011
 20
-146.555516
 30
0.0
 11
-202.167011
 21
-148.955516
 31
0.0
  0
ARC
  5
422
100
AcDbEntity
  8
13
100
AcDbCircle
 10
-196.997091
 20
-147.055516
 30
0.0
 40
0.5
100
AcDbArc
 50
90.0
 51
180.0
  0
ARC
  5
423
100
AcDbEntity
  8
13
100
AcDbCircle
 10
-196.997091
 20
-148.455516
 30
0.0
 40
0.5
100
AcDbArc
 50
180.0
 51
270.0
  0
ARC
  5
424
100
AcDbEntity
  8
13
100
AcDbCircle
 10
-201.667011
 20
-146.555516
 30
0.0
 40
0.5
100
AcDbArc
 50
90.0
 51
180.0
  0
ARC
  5
425
100
AcDbEntity
  8
13
100
AcDbCircle
 10
-201.667011
 20
-148.955516
 30
0.0
 40
0.5
100
AcDbArc
 50
180.0
 51
270.0
  0
LINE
  5
426
100
AcDbEntity
  8
13
100
AcDbLine
 10
-197.556611
 20
-146.549144
 30
0.0
 11
-201.517003
 21
-146.125111
 31
0.0
  0
LINE
  5
427
100
AcDbEntity
  8
13
100
AcDbLine
 10
-197.556611
 20
-148.961889
 30
0.0
 11
-201.517003
 21
-149.385921
 31
0.0
  0
LINE
  5
428
100
AcDbEntity
  8
13
100
AcDbLine
 10
-203.001205
 20
-125.355516
 30
0.0
 11
-203.001205
 21
-129.287046
 31
0.0
  0
LINE
  5
429
100
AcDbEntity
  8
13
100
AcDbLine
 10
-203.001205
 20
-170.155516
 30
0.0
 11
-203.001205
 21
-169.223987
 31
0.0
  0
LINE
  5
42A
100
AcDbEntity
  8
13
100
AcDbLine
 10
-197.350641
 20
-129.279496
 30
0.0
 11
-197.350641
 21
-125.355516
 31
0.0
  0
ARC
  5
42B
100
AcDbEntity
  8
13
100
AcDbCircle
 10
-189.350641
 20
-129.279496
 30
0.0
 40
8.0
100
AcDbArc
 50
180.0
 51
265.0
  0
ARC
  5
42C
100
AcDbEntity
  8
13
100
AcDbCircle
 10
-195.001205
 20
-129.287046
 30
0.0
 40
8.0
100
AcDbArc
 50
180.0
 51
265.0
  0
ARC
  5
42D
100
AcDbEntity
  8
13
100
AcDbCircle
 10
-205.001205
 20
-125.355516
 30
0.0
 40
2.0
100
AcDbArc
 50
0.0
 51
90.0
  0
ARC
  5
42E
100
AcDbEntity
  8
13
100
AcDbCircle
 10
-199.350641
 20
-125.355516
 30
0.0
 40
2.0
100
AcDbArc
 50
0.0
 51
90.0
  0
ARC
  5
42F
100
AcDbEntity
  8
13
100
AcDbCircle
 10
-196.350641
 20
-138.185305
 30
0.0
 40
1.0
100
AcDbArc
 50
0.0
 51
81.376703
  0
ARC
  5
430
100
AcDbEntity
  8
13
100
AcDbCircle
 10
-197.850641
 20
-137.824066
 30
0.0
 40
1.0
100
AcDbArc
 50
0.0
 51
71.542325
  0
LINE
  5
431
100
AcDbEntity
  8
13
100
AcDbLine
 10
-197.350641
 20
-169.231536
 30
0.0
 11
-197.350641
 21
-170.155516
 31
0.0
  0
ARC
  5
432
100
AcDbEntity
  8
13
100
AcDbCircle
 10
-205.001205
 20
-170.155516
 30
0.0
 40
2.0
100
AcDbArc
 50
270.0
 51
360.0
  0
ARC
  5
433
100
AcDbEntity
  8
13
100
AcDbCircle
 10
-199.350641
 20
-170.155516
 30
0.0
 40
2.0
100
AcDbArc
 50
270.0
 51
360.0
  0
ARC
  5
434
100
AcDbEntity
  8
13
100
AcDbCircle
 10
-189.350641
 20
-169.231536
 30
0.0
 40
8.0
100
AcDbArc
 50
95.0
 51
180.0
  0
ARC
  5
435
100
AcDbEntity
  8
13
100
AcDbCircle
 10
-195.001205
 20
-169.223987
 30
0.0
 40
8.0
100
AcDbArc
 50
95.0
 51
180.0
  0
ARC
  5
436
100
AcDbEntity
  8
13
100
AcDbCircle
 10
-197.850641
 20
-160.686967
 30
0.0
 40
1.0
100
AcDbArc
 50
288.457675
 51
360.0
  0
ARC
  5
437
100
AcDbEntity
  8
13
100
AcDbCircle
 10
-196.350641
 20
-160.325727
 30
0.0
 40
1.0
100
AcDbArc
 50
278.623297
 51
360.0
  0
ARC
  5
438
100
AcDbEntity
  8
13
100
AcDbCircle
 10
-193.350641
 20
-147.755516
 30
0.0
 40
32.7
100
AcDbArc
 50
111.617562
 51
248.382438
  0
LINE
  5
439
100
AcDbEntity
  8
13
100
AcDbLine
 10
-205.397633
 20
-117.355516
 30
0.0
 11
-181.30365
 21
-117.355516
 31
0.0
  0
ARC
  5
43A
100
AcDbEntity
  8
13
100
AcDbCircle
 10
-193.350641
 20
-147.755516
 30
0.0
 40
32.7
100
AcDbArc
 50
291.617562
 51
68.382438
  0
LINE
  5
43B
100
AcDbEntity
  8
13
100
AcDbLine
 10
-205.397633
 20
-178.155516
 30
0.0
 11
-181.30365
 21
-178.155516
 31
0.0
  0
POINT
  5
43C
100
AcDbEntity
  8
13
100
AcDbPoint
 10
-193.350641
 20
-147.755516
 30
0.0
  0
TEXT
  5
43D
100
AcDbEntity
  8
18
100
AcDbText
 10
244.289261
 20
-266.527985
 30
0.0
 40
6.0
  1
１
 72
     5
 11
249.089261
 21
-266.527985
 31
0.0
100
AcDbText
  0
TEXT
  5
43E
100
AcDbEntity
  8
18
100
AcDbText
 10
253.082458
 20
-274.202026
 30
0.0
 40
6.0
  1
２
 72
     5
 11
257.882458
 21
-274.202026
 31
0.0
100
AcDbText
  0
TEXT
  5
43F
100
AcDbEntity
  8
18
100
AcDbText
 10
245.708481
 20
-246.070526
 30
0.0
 40
6.0
  1
７００Ｇ－２ＩＡＳ　６５Ａ
 72
     5
 11
322.508481
 21
-246.070526
 31
0.0
100
AcDbText
  0
TEXT
  5
440
100
AcDbEntity
  8
18
100
AcDbText
 10
245.708481
 20
-254.070526
 30
0.0
 40
6.0
  1
標準仕様　ＪＩＳ　５，１０Ｋ
 72
     5
 11
328.508481
 21
-254.070526
 31
0.0
100
AcDbText
  0
LINE
  5
441
100
AcDbEntity
  8
18
100
AcDbLine
 10
243.098152
 20
-136.431236
 30
0.0
 11
343.098152
 21
-136.431236
 31
0.0
  0
LINE
  5
442
100
AcDbEntity
  8
18
100
AcDbLine
 10
243.098152
 20
-176.431236
 30
0.0
 11
343.098152
 21
-176.431236
 31
0.0
  0
LINE
  5
443
100
AcDbEntity
  8
18
100
AcDbLine
 10
243.098152
 20
-186.431236
 30
0.0
 11
343.098152
 21
-186.431236
 31
0.0
  0
LINE
  5
444
100
AcDbEntity
  8
18
100
AcDbLine
 10
243.098152
 20
-196.431236
 30
0.0
 11
343.098152
 21
-196.431236
 31
0.0
  0
LINE
  5
445
100
AcDbEntity
  8
18
100
AcDbLine
 10
243.098152
 20
-136.431236
 30
0.0
 11
243.098152
 21
-196.431236
 31
0.0
  0
LINE
  5
446
100
AcDbEntity
  8
18
100
AcDbLine
 10
293.098152
 20
-136.431236
 30
0.0
 11
293.098152
 21
-186.431236
 31
0.0
  0
LINE
  5
447
100
AcDbEntity
  8
18
100
AcDbLine
 10
343.098152
 20
-136.431236
 30
0.0
 11
343.098152
 21
-196.431236
 31
0.0
  0
TEXT
  5
448
100
AcDbEntity
  8
18
100
AcDbText
 10
263.359627
 20
-184.075478
 30
0.0
 40
6.0
  1
A
 72
     5
 11
268.159627
 21
-184.075478
 31
0.0
100
AcDbText
  0
TEXT
  5
449
100
AcDbEntity
  8
18
100
AcDbText
 10
313.359627
 20
-184.075478
 30
0.0
 40
6.0
  1
B
 72
     5
 11
318.159627
 21
-184.075478
 31
0.0
100
AcDbText
  0
LINE
  5
44A
100
AcDbEntity
  8
18
  6
CENTER
 62
     2
100
AcDbLine
 10
250.914742
 20
-163.586777
 30
0.0
 11
280.736214
 21
-163.586777
 31
0.0
  0
LINE
  5
44B
100
AcDbEntity
  8
18
  6
CENTER
 62
     2
100
AcDbLine
 10
265.960518
 20
-149.71386
 30
0.0
 11
265.960518
 21
-171.186554
 31
0.0
  0
LINE
  5
44C
100
AcDbEntity
  8
18
100
AcDbLine
 10
278.960518
 20
-159.986777
 30
0.0
 11
278.960518
 21
-167.186777
 31
0.0
  0
LINE
  5
44D
100
AcDbEntity
  8
18
100
AcDbLine
 10
252.960518
 20
-159.986777
 30
0.0
 11
252.960518
 21
-167.186777
 31
0.0
  0
LINE
  5
44E
100
AcDbEntity
  8
18
100
AcDbLine
 10
261.353995
 20
-151.586777
 30
0.0
 11
272.560518
 21
-151.586777
 31
0.0
  0
LINE
  5
44F
100
AcDbEntity
  8
18
100
AcDbLine
 10
272.760518
 20
-155.586777
 30
0.0
 11
283.107002
 21
-155.586777
 31
0.0
  0
LINE
  5
450
100
AcDbEntity
  8
18
100
AcDbLine
 10
283.107002
 20
-148.786777
 30
0.0
 11
283.107002
 21
-160.386777
 31
0.0
  0
LINE
  5
451
100
AcDbEntity
  8
18
100
AcDbLine
 10
285.507002
 20
-148.786777
 30
0.0
 11
285.507002
 21
-160.386777
 31
0.0
  0
LINE
  5
452
100
AcDbEntity
  8
18
100
AcDbLine
 10
272.760518
 20
-153.586777
 30
0.0
 11
283.107002
 21
-153.586777
 31
0.0
  0
LINE
  5
453
100
AcDbEntity
  8
18
100
AcDbLine
 10
271.458505
 20
-157.586777
 30
0.0
 11
272.560518
 21
-157.586777
 31
0.0
  0
ARC
  5
454
100
AcDbEntity
  8
18
100
AcDbCircle
 10
265.960518
 20
-163.586777
 30
0.0
 40
6.0
100
AcDbArc
 50
167.624033
 51
5.0
  0
LINE
  5
455
100
AcDbEntity
  8
18
100
AcDbLine
 10
253.360518
 20
-159.586777
 30
0.0
 11
260.287554
 21
-159.586777
 31
0.0
  0
LINE
  5
456
100
AcDbEntity
  8
18
100
AcDbLine
 10
271.633482
 20
-159.586777
 30
0.0
 11
278.560518
 21
-159.586777
 31
0.0
  0
LINE
  5
457
100
AcDbEntity
  8
18
100
AcDbLine
 10
253.360518
 20
-167.586777
 30
0.0
 11
261.488382
 21
-167.586777
 31
0.0
  0
LINE
  5
458
100
AcDbEntity
  8
18
100
AcDbLine
 10
270.432654
 20
-167.586777
 30
0.0
 11
278.560518
 21
-167.586777
 31
0.0
  0
LINE
  5
459
100
AcDbEntity
  8
18
100
AcDbLine
 10
263.225559
 20
-162.986777
 30
0.0
 11
268.695477
 21
-162.986777
 31
0.0
  0
LINE
  5
45A
100
AcDbEntity
  8
18
100
AcDbLine
 10
263.225559
 20
-164.186777
 30
0.0
 11
268.695477
 21
-164.186777
 31
0.0
  0
ARC
  5
45B
100
AcDbEntity
  8
18
100
AcDbCircle
 10
284.307002
 20
-148.786777
 30
0.0
 40
1.2
100
AcDbArc
 50
0.0
 51
180.0
  0
ARC
  5
45C
100
AcDbEntity
  8
18
100
AcDbCircle
 10
284.307002
 20
-160.386777
 30
0.0
 40
1.2
100
AcDbArc
 50
180.0
 51
360.0
  0
LINE
  5
45D
100
AcDbEntity
  8
18
100
AcDbLine
 10
259.98335
 20
-163.063842
 30
0.0
 11
260.955517
 21
-151.951914
 31
0.0
  0
LINE
  5
45E
100
AcDbEntity
  8
18
100
AcDbLine
 10
271.937686
 20
-163.063842
 30
0.0
 11
270.965518
 21
-151.951914
 31
0.0
  0
LINE
  5
45F
100
AcDbEntity
  8
18
100
AcDbLine
 10
272.760518
 20
-157.386777
 30
0.0
 11
272.760518
 21
-151.786777
 31
0.0
  0
TEXT
  5
460
100
AcDbEntity
  8
18
100
AcDbText
 10
263.174342
 20
-160.548553
 30
0.0
 40
3.0
  1
O
 72
     5
 11
265.574342
 21
-160.548553
 31
0.0
100
AcDbText
  0
TEXT
  5
461
100
AcDbEntity
  8
18
100
AcDbText
 10
271.73683
 20
-166.309218
 30
0.0
 40
3.0
  1
S
 50
90.0
 72
     5
 11
271.73683
 21
-163.909218
 31
0.0
100
AcDbText
  0
ARC
  5
462
100
AcDbEntity
  8
18
100
AcDbCircle
 10
261.353995
 20
-151.986777
 30
0.0
 40
0.4
100
AcDbArc
 50
90.0
 51
175.0
  0
ARC
  5
463
100
AcDbEntity
  8
18
100
AcDbCircle
 10
270.56704
 20
-151.986777
 30
0.0
 40
0.4
100
AcDbArc
 50
5.0
 51
90.0
  0
ARC
  5
464
100
AcDbEntity
  8
18
100
AcDbCircle
 10
253.360518
 20
-159.986777
 30
0.0
 40
0.4
100
AcDbArc
 50
90.0
 51
180.0
  0
ARC
  5
465
100
AcDbEntity
  8
18
100
AcDbCircle
 10
253.360518
 20
-167.186777
 30
0.0
 40
0.4
100
AcDbArc
 50
180.0
 51
270.0
  0
ARC
  5
466
100
AcDbEntity
  8
18
100
AcDbCircle
 10
278.560518
 20
-159.986777
 30
0.0
 40
0.4
100
AcDbArc
 50
0.0
 51
90.0
  0
ARC
  5
467
100
AcDbEntity
  8
18
100
AcDbCircle
 10
278.560518
 20
-167.186777
 30
0.0
 40
0.4
100
AcDbArc
 50
270.0
 51
360.0
  0
ARC
  5
468
100
AcDbEntity
  8
18
100
AcDbCircle
 10
272.560518
 20
-151.786777
 30
0.0
 40
0.2
100
AcDbArc
 50
0.0
 51
90.0
  0
ARC
  5
469
100
AcDbEntity
  8
18
100
AcDbCircle
 10
272.560518
 20
-157.386777
 30
0.0
 40
0.2
100
AcDbArc
 50
270.0
 51
360.0
  0
LINE
  5
46A
100
AcDbEntity
  8
18
  6
CENTER
 62
     2
100
AcDbLine
 10
315.960518
 20
-141.240761
 30
0.0
 11
315.960518
 21
-160.088753
 31
0.0
  0
LINE
  5
46B
100
AcDbEntity
  8
18
  6
CENTER
 62
     2
100
AcDbLine
 10
329.833435
 20
-150.586777
 30
0.0
 11
301.055275
 21
-150.586777
 31
0.0
  0
LINE
  5
46C
100
AcDbEntity
  8
18
100
AcDbLine
 10
327.960518
 20
-145.980254
 30
0.0
 11
327.960518
 21
-157.186777
 31
0.0
  0
LINE
  5
46D
100
AcDbEntity
  8
18
100
AcDbLine
 10
323.960518
 20
-157.386777
 30
0.0
 11
323.960518
 21
-167.733261
 31
0.0
  0
LINE
  5
46E
100
AcDbEntity
  8
18
100
AcDbLine
 10
330.760518
 20
-167.733261
 30
0.0
 11
319.160518
 21
-167.733261
 31
0.0
  0
LINE
  5
46F
100
AcDbEntity
  8
18
100
AcDbLine
 10
330.760518
 20
-170.133261
 30
0.0
 11
319.160518
 21
-170.133261
 31
0.0
  0
LINE
  5
470
100
AcDbEntity
  8
18
100
AcDbLine
 10
325.960518
 20
-157.386777
 30
0.0
 11
325.960518
 21
-167.733261
 31
0.0
  0
LINE
  5
471
100
AcDbEntity
  8
18
100
AcDbLine
 10
321.960518
 20
-156.084764
 30
0.0
 11
321.960518
 21
-157.186777
 31
0.0
  0
ARC
  5
472
100
AcDbEntity
  8
18
100
AcDbCircle
 10
315.960518
 20
-150.586777
 30
0.0
 40
6.0
100
AcDbArc
 50
77.624033
 51
275.0
  0
LINE
  5
473
100
AcDbEntity
  8
18
100
AcDbLine
 10
316.560518
 20
-147.851818
 30
0.0
 11
316.560518
 21
-153.321736
 31
0.0
  0
LINE
  5
474
100
AcDbEntity
  8
18
100
AcDbLine
 10
315.360518
 20
-147.851818
 30
0.0
 11
315.360518
 21
-153.321736
 31
0.0
  0
ARC
  5
475
100
AcDbEntity
  8
18
100
AcDbCircle
 10
330.760518
 20
-168.933261
 30
0.0
 40
1.2
100
AcDbArc
 50
270.0
 51
90.0
  0
ARC
  5
476
100
AcDbEntity
  8
18
100
AcDbCircle
 10
319.160518
 20
-168.933261
 30
0.0
 40
1.2
100
AcDbArc
 50
90.0
 51
270.0
  0
LINE
  5
477
100
AcDbEntity
  8
18
100
AcDbLine
 10
316.483452
 20
-144.609609
 30
0.0
 11
327.59538
 21
-145.581776
 31
0.0
  0
LINE
  5
478
100
AcDbEntity
  8
18
100
AcDbLine
 10
316.483452
 20
-156.563945
 30
0.0
 11
327.59538
 21
-155.591777
 31
0.0
  0
LINE
  5
479
100
AcDbEntity
  8
18
100
AcDbLine
 10
322.160518
 20
-157.386777
 30
0.0
 11
327.760518
 21
-157.386777
 31
0.0
  0
TEXT
  5
47A
100
AcDbEntity
  8
18
100
AcDbText
 10
318.798741
 20
-147.800601
 30
0.0
 40
3.0
  1
O
 50
270.0
 72
     5
 11
318.798741
 21
-150.200601
 31
0.0
100
AcDbText
  0
TEXT
  5
47B
100
AcDbEntity
  8
18
100
AcDbText
 10
313.238077
 20
-156.363089
 30
0.0
 40
3.0
  1
S
 72
     5
 11
315.638077
 21
-156.363089
 31
0.0
100
AcDbText
  0
ARC
  5
47C
100
AcDbEntity
  8
18
100
AcDbCircle
 10
327.560518
 20
-145.980254
 30
0.0
 40
0.4
100
AcDbArc
 50
0.0
 51
85.0
  0
ARC
  5
47D
100
AcDbEntity
  8
18
100
AcDbCircle
 10
327.560518
 20
-155.193299
 30
0.0
 40
0.4
100
AcDbArc
 50
275.0
 51
360.0
  0
ARC
  5
47E
100
AcDbEntity
  8
18
100
AcDbCircle
 10
327.760518
 20
-157.186777
 30
0.0
 40
0.2
100
AcDbArc
 50
270.0
 51
360.0
  0
ARC
  5
47F
100
AcDbEntity
  8
18
100
AcDbCircle
 10
322.160518
 20
-157.186777
 30
0.0
 40
0.2
100
AcDbArc
 50
180.0
 51
270.0
  0
LINE
  5
480
100
AcDbEntity
  8
18
100
AcDbLine
 10
303.360518
 20
-146.586777
 30
0.0
 11
311.488382
 21
-146.586777
 31
0.0
  0
LINE
  5
481
100
AcDbEntity
  8
18
100
AcDbLine
 10
303.360518
 20
-154.586777
 30
0.0
 11
311.488382
 21
-154.586777
 31
0.0
  0
LINE
  5
482
100
AcDbEntity
  8
18
100
AcDbLine
 10
327.960518
 20
-154.586777
 30
0.0
 11
328.560518
 21
-154.586777
 31
0.0
  0
LINE
  5
483
100
AcDbEntity
  8
18
100
AcDbLine
 10
327.960518
 20
-146.586777
 30
0.0
 11
328.560518
 21
-146.586777
 31
0.0
  0
LINE
  5
484
100
AcDbEntity
  8
18
100
AcDbLine
 10
328.960518
 20
-146.986777
 30
0.0
 11
328.960518
 21
-154.186777
 31
0.0
  0
LINE
  5
485
100
AcDbEntity
  8
18
100
AcDbLine
 10
302.960518
 20
-146.986777
 30
0.0
 11
302.960518
 21
-154.186777
 31
0.0
  0
ARC
  5
486
100
AcDbEntity
  8
18
100
AcDbCircle
 10
303.360518
 20
-146.986777
 30
0.0
 40
0.4
100
AcDbArc
 50
90.0
 51
180.0
  0
ARC
  5
487
100
AcDbEntity
  8
18
100
AcDbCircle
 10
303.360518
 20
-154.186777
 30
0.0
 40
0.4
100
AcDbArc
 50
180.0
 51
270.0
  0
ARC
  5
488
100
AcDbEntity
  8
18
100
AcDbCircle
 10
328.560518
 20
-154.186777
 30
0.0
 40
0.4
100
AcDbArc
 50
270.0
 51
360.0
  0
ARC
  5
489
100
AcDbEntity
  8
18
100
AcDbCircle
 10
328.560518
 20
-146.986777
 30
0.0
 40
0.4
100
AcDbArc
 50
0.0
 51
90.0
  0
CIRCLE
  5
48A
100
AcDbEntity
  8
18
100
AcDbCircle
 10
265.960518
 20
-163.586777
 30
0.0
 40
2.8
  0
CIRCLE
  5
48B
100
AcDbEntity
  8
18
100
AcDbCircle
 10
315.960518
 20
-150.586777
 30
0.0
 40
2.8
  0
POINT
  5
48C
100
AcDbEntity
  8
18
100
AcDbPoint
 10
243.098152
 20
-136.431236
 30
0.0
  0
TEXT
  5
48D
100
AcDbEntity
  8
18
100
AcDbText
 10
255.59333
 20
-194.456385
 30
0.0
 40
6.0
  1
駆 動 部 取 付 方 向
 72
     5
 11
332.39333
 21
-194.456385
 31
0.0
100
AcDbText
  0
TEXT
  5
48E
100
AcDbEntity
  8
18
100
AcDbText
 10
307.2
 20
-272.0
 30
0.0
 40
10.0
  1
Ｄ３－０３６１１
 72
     5
 11
385.2
 21
-272.0
 31
0.0
100
AcDbText
  0
TEXT
  5
48F
100
AcDbEntity
  8
18
100
AcDbText
 10
360.316223
 20
-253.771606
 30
0.0
 40
4.0
  1
２００４．１２．２０
 72
     5
 11
399.516223
 21
-253.771606
 31
0.0
100
AcDbText
  0
LINE
  5
490
100
AcDbEntity
  8
20
 62
     3
100
AcDbLine
 10
-360.0
 20
-277.0
 30
0.0
 11
400.0
 21
-277.0
 31
0.0
  0
LINE
  5
491
100
AcDbEntity
  8
20
 62
     3
100
AcDbLine
 10
-360.0
 20
264.0
 30
0.0
 11
400.0
 21
264.0
 31
0.0
  0
LINE
  5
492
100
AcDbEntity
  8
20
 62
     3
100
AcDbLine
 10
-360.0
 20
264.0
 30
0.0
 11
-360.0
 21
-277.0
 31
0.0
  0
LINE
  5
493
100
AcDbEntity
  8
20
 62
     3
100
AcDbLine
 10
400.0
 20
264.0
 30
0.0
 11
400.0
 21
-277.0
 31
0.0
  0
LINE
  5
494
100
AcDbEntity
  8
20
 62
     3
100
AcDbLine
 10
120.0
 20
-277.0
 30
0.0
 11
120.0
 21
-237.0
 31
0.0
  0
LINE
  5
495
100
AcDbEntity
  8
20
 62
     3
100
AcDbLine
 10
214.0
 20
-277.0
 30
0.0
 11
214.0
 21
-237.0
 31
0.0
  0
LINE
  5
496
100
AcDbEntity
  8
20
100
AcDbLine
 10
214.0
 20
-257.0
 30
0.0
 11
400.0
 21
-257.0
 31
0.0
  0
LINE
  5
497
100
AcDbEntity
  8
20
 62
     3
100
AcDbLine
 10
120.0
 20
-237.0
 30
0.0
 11
400.0
 21
-237.0
 31
0.0
  0
LINE
  5
498
100
AcDbEntity
  8
20
100
AcDbLine
 10
360.0
 20
-257.0
 30
0.0
 11
360.0
 21
-237.0
 31
0.0
  0
LINE
  5
499
100
AcDbEntity
  8
20
100
AcDbLine
 10
360.0
 20
-247.0
 30
0.0
 11
400.0
 21
-247.0
 31
0.0
  0
LINE
  5
49A
100
AcDbEntity
  8
20
100
AcDbLine
 10
242.0
 20
-277.0
 30
0.0
 11
242.0
 21
-237.0
 31
0.0
  0
LINE
  5
49B
100
AcDbEntity
  8
20
100
AcDbLine
 10
262.0
 20
-277.0
 30
0.0
 11
262.0
 21
-257.0
 31
0.0
  0
LINE
  5
49C
100
AcDbEntity
  8
20
100
AcDbLine
 10
302.0
 20
-277.0
 30
0.0
 11
302.0
 21
-257.0
 31
0.0
  0
LINE
  5
49D
100
AcDbEntity
  8
20
100
AcDbLine
 10
247.456829
 20
-271.543171
 30
0.0
 11
255.796581
 21
-263.203419
 31
0.0
  0
TEXT
  5
49E
100
AcDbEntity
  8
20
100
AcDbText
 10
263.066658
 20
-264.993835
 30
0.0
 40
3.6
  1
ＤＲＡＷＩＮＧ　ＮＯ．
 72
     5
 11
301.946658
 21
-264.993835
 31
0.0
100
AcDbText
  0
TEXT
  5
49F
100
AcDbEntity
  8
20
100
AcDbText
 10
267.0
 20
-273.0
 30
0.0
 40
6.0
  1
図　　　番
 72
     5
 11
295.8
 21
-273.0
 31
0.0
100
AcDbText
  0
TEXT
  5
4A0
100
AcDbEntity
  8
20
100
AcDbText
 10
372.0
 20
-244.0
 30
0.0
 40
4.0
  1
ＤＡＴＥ
 72
     5
 11
387.2
 21
-244.0
 31
0.0
100
AcDbText
  0
TEXT
  5
4A1
100
AcDbEntity
  8
20
100
AcDbText
 10
218.002142
 20
-265.922058
 30
0.0
 40
4.0
  1
ＳＣＡＬＥ
 72
     5
 11
237.202142
 21
-265.922058
 31
0.0
100
AcDbText
  0
TEXT
  5
4A2
100
AcDbEntity
  8
20
100
AcDbText
 10
216.0
 20
-273.0
 30
0.0
 40
6.0
  1
尺　　度
 72
     5
 11
238.8
 21
-273.0
 31
0.0
100
AcDbText
  0
TEXT
  5
4A3
100
AcDbEntity
  8
20
100
AcDbText
 10
215.002142
 20
-244.991769
 30
0.0
 40
4.0
  1
ＦＩＧ．ＮＯ．
 72
     5
 11
242.202142
 21
-244.991769
 31
0.0
100
AcDbText
  0
TEXT
  5
4A4
100
AcDbEntity
  8
20
100
AcDbText
 10
216.0
 20
-253.0
 30
0.0
 40
6.0
  1
名　　称
 72
     5
 11
238.8
 21
-253.0
 31
0.0
100
AcDbText
  0
TEXT
  5
4A5
100
AcDbEntity
  8
20
100
AcDbText
 10
121.13105
 20
-252.940506
 30
0.0
 40
4.6
  1
ＴＯＭＯＥ　ＶＡＬＶＥ　ＣＯ．，ＬＴＤ．
 72
     5
 11
212.21105
 21
-252.940506
 31
0.0
100
AcDbText
  0
TEXT
  5
4A6
100
AcDbEntity
  8
20
100
AcDbText
 10
135.0
 20
-266.57962
 30
0.0
 40
8.0
  1
巴バルブ株式会社
 72
     5
 11
197.4
 21
-266.57962
 31
0.0
100
AcDbText
  0
ENDSEC
  0
SECTION
  2
OBJECTS
  0
DICTIONARY
  5
507
100
AcDbDictionary
  3
ACAD_GROUP
350
508
  3
ACAD_MLINESTYLE
350
509
  0
DICTIONARY
  5
508
102
{ACAD_REACTORS
330
507
102
}
100
AcDbDictionary
  0
DICTIONARY
  5
509
102
{ACAD_REACTORS
330
507
102
}
100
AcDbDictionary
  3
STANDARD
350
50A
  0
MLINESTYLE
  5
50A
102
{ACAD_REACTORS
330
509
102
}
100
AcDbMlineStyle
  2
STANDARD
 70
     0
  3

 62
     0
 51
90.0
 52
90.0
 71
     2
 49
0.5
 62
   256
  6
BYLAYER
 49
-0.5
 62
   256
  6
BYLAYER
  0
ENDSEC
  0
EOF
