  0
SECTION
  2
HEADER
  9
$ACADVER
  1
AC1012
  9
$DWGCODEPAGE
  3
ansi_932
  9
$INSBASE
 10
0.0
 20
0.0
 30
0.0
  9
$EXTMIN
 10
-420.0
 20
-297.0
 30
1.000000E+20
  9
$EXTMAX
 10
420.0
 20
297.0
 30
-1.000000E+20
  9
$LIMMIN
 10
-420.0
 20
-297.0
  9
$LIMMAX
 10
420.0
 20
297.0
  9
$ORTHOMODE
 70
     0
  9
$REGENMODE
 70
     1
  9
$FILLMODE
 70
     1
  9
$QTEXTMODE
 70
     0
  9
$MIRRTEXT
 70
     1
  9
$DRAGMODE
 70
     2
  9
$LTSCALE
 40
1.0
  9
$OSMODE
 70
     0
  9
$ATTMODE
 70
     1
  9
$TEXTSIZE
 40
0.2
  9
$TRACEWID
 40
0.05
  9
$TEXTSTYLE
  7
STANDARD
  9
$CLAYER
  8
0
  9
$CELTYPE
  6
CONTINUOUS
  9
$CECOLOR
 62
   256
  9
$CELTSCALE
 40
1.0
  9
$DELOBJ
 70
     1
  9
$DISPSILH
 70
     0
  9
$DIMSCALE
 40
2.0
  9
$DIMASZ
 40
0.18
  9
$DIMEXO
 40
0.0625
  9
$DIMDLI
 40
0.38
  9
$DIMRND
 40
0.0
  9
$DIMDLE
 40
0.0
  9
$DIMEXE
 40
0.18
  9
$DIMTP
 40
0.0
  9
$DIMTM
 40
0.0
  9
$DIMTXT
 40
0.18
  9
$DIMCEN
 40
0.09
  9
$DIMTSZ
 40
0.0
  9
$DIMTOL
 70
     0
  9
$DIMLIM
 70
     0
  9
$DIMTIH
 70
     1
  9
$DIMTOH
 70
     1
  9
$DIMSE1
 70
     0
  9
$DIMSE2
 70
     0
  9
$DIMTAD
 70
     1
  9
$DIMZIN
 70
     0
  9
$DIMBLK
  1

  9
$DIMASO
 70
     1
  9
$DIMSHO
 70
     1
  9
$DIMPOST
  1

  9
$DIMAPOST
  1

  9
$DIMALT
 70
     0
  9
$DIMALTD
 70
     2
  9
$DIMALTF
 40
25.4
  9
$DIMLFAC
 40
1.0
  9
$DIMTOFL
 70
     0
  9
$DIMTVP
 40
0.0
  9
$DIMTIX
 70
     0
  9
$DIMSOXD
 70
     0
  9
$DIMSAH
 70
     0
  9
$DIMBLK1
  1

  9
$DIMBLK2
  1

  9
$DIMSTYLE
  2
STANDARD
  9
$DIMCLRD
 70
     0
  9
$DIMCLRE
 70
     0
  9
$DIMCLRT
 70
     0
  9
$DIMTFAC
 40
1.0
  9
$DIMGAP
 40
0.09
  9
$DIMJUST
 70
     0
  9
$DIMSD1
 70
     0
  9
$DIMSD2
 70
     0
  9
$DIMTOLJ
 70
     1
  9
$DIMTZIN
 70
     0
  9
$DIMALTZ
 70
     0
  9
$DIMALTTZ
 70
     0
  9
$DIMFIT
 70
     3
  9
$DIMUPT
 70
     0
  9
$DIMUNIT
 70
     2
  9
$DIMDEC
 70
     4
  9
$DIMTDEC
 70
     4
  9
$DIMALTU
 70
     2
  9
$DIMALTTD
 70
     2
  9
$DIMTXSTY
  7
STANDARD
  9
$DIMAUNIT
 70
     0
  9
$LUNITS
 70
     2
  9
$LUPREC
 70
     4
  9
$SKETCHINC
 40
0.1
  9
$FILLETRAD
 40
0.0
  9
$AUNITS
 70
     0
  9
$AUPREC
 70
     0
  9
$MENU
  1
acad
  9
$ELEVATION
 40
0.0
  9
$PELEVATION
 40
0.0
  9
$THICKNESS
 40
0.0
  9
$LIMCHECK
 70
     0
  9
$BLIPMODE
 70
     1
  9
$CHAMFERA
 40
0.0
  9
$CHAMFERB
 40
0.0
  9
$CHAMFERC
 40
0.0
  9
$CHAMFERD
 40
0.0
  9
$SKPOLY
 70
     0
  9
$TDCREATE
 40
2451676.000000000
  9
$TDUPDATE
 40
0.000000000
  9
$TDINDWG
 40
0.0000000000
  9
$TDUSRTIMER
 40
0.0000000000
  9
$USRTIMER
 70
     1
  9
$ANGBASE
 50
0.0
  9
$ANGDIR
 70
     0
  9
$PDMODE
 70
     0
  9
$PDSIZE
 40
0.0
  9
$PLINEWID
 40
0.0
  9
$COORDS
 70
     0
  9
$SPLFRAME
 70
     0
  9
$SPLINETYPE
 70
     6
  9
$SPLINESEGS
 70
     8
  9
$ATTDIA
 70
     0
  9
$ATTREQ
 70
     1
  9
$HANDLING
 70
     1
  9
$HANDSEED
  5
522
  9
$SURFTAB1
 70
     6
  9
$SURFTAB2
 70
     6
  9
$SURFTYPE
 70
     6
  9
$SURFU
 70
     6
  9
$SURFV
 70
     6
  9
$UCSNAME
  2

  9
$UCSORG
 10
0.0
 20
0.0
 30
0.0
  9
$UCSXDIR
 10
1.0
 20
0.0
 30
0.0
  9
$UCSYDIR
 10
0.0
 20
1.0
 30
0.0
  9
$PUCSNAME
  2

  9
$PUCSORG
 10
0.0
 20
0.0
 30
0.0
  9
$PUCSXDIR
 10
1.0
 20
0.0
 30
0.0
  9
$PUCSYDIR
 10
0.0
 20
1.0
 30
0.0
  9
$USERI1
 70
     0
  9
$USERI2
 70
     0
  9
$USERI3
 70
     0
  9
$USERI4
 70
     0
  9
$USERI5
 70
     0
  9
$USERR1
 40
0.0
  9
$USERR2
 40
0.0
  9
$USERR3
 40
0.0
  9
$USERR4
 40
0.0
  9
$USERR5
 40
0.0
  9
$WORLDVIEW
 70
     1
  9
$SHADEDGE
 70
     3
  9
$SHADEDIF
 70
    70
  9
$TILEMODE
 70
     1
  9
$MAXACTVP
 70
    16
  9
$PINSBASE
 10
0.0
 20
0.0
 30
0.0
  9
$PLIMCHECK
 70
     0
  9
$PEXTMIN
 10
1.000000E+20
 20
1.000000E+20
 30
1.000000E+20
  9
$PEXTMAX
 10
-1.000000E+20
 20
-1.000000E+20
 30
-1.000000E+20
  9
$PLIMMIN
 10
0.0
 20
0.0
  9
$PLIMMAX
 10
12.0
 20
9.0
  9
$UNITMODE
 70
     0
  9
$VISRETAIN
 70
     0
  9
$PLINEGEN
 70
     1
  9
$PSLTSCALE
 70
     0
  9
$TREEDEPTH
 70
  3020
  9
$PICKSTYLE
 70
     1
  9
$CMLSTYLE
  2
STANDARD
  9
$CMLJUST
 70
     0
  9
$CMLSCALE
 40
1.0
  9
$SAVEIMAGES
 70
     0
  0
ENDSEC
  0
SECTION
  2
CLASSES
  0
CLASS
  1
LWPOLYLINE
  2
AcDbPolyline
  3
"AutoCAD"
 90
    32768
280
     0
281
     1
  0
CLASS
  1
IMAGE
  2
AcDbRasterImage
  3
ISM
 90
    32895
280
     0
281
     1
  0
CLASS
  1
OLE2FRAME
  2
AcDbOle2Frame
  3
""
 90
    32768
280
     0
281
     1
  0
CLASS
  1
HATCH
  2
AcDbHatch
  3
"ACAD_SEDONA"
 90
    32768
280
     0
281
     1
  0
CLASS
  1
DICTIONARYVAR
  2
AcDbDictionaryVar
  3
"AutoCAD"
 90
    32768
280
     0
281
     0
  0
CLASS
  1
RASTERVARIABLES
  2
AcDbRasterVariables
  3
ISM
 90
    32768
280
     0
281
     0
  0
CLASS
  1
IMAGEDEF
  2
AcDbRasterImageDef
  3
ISM
 90
    32768
280
     0
281
     0
  0
CLASS
  1
IMAGEDEF_REACTOR
  2
AcDbRasterImageDefReactor
  3
ISM
 90
    32769
280
     0
281
     0
  0
CLASS
  1
IDBUFFER
  2
AcDbIdBuffer
  3
"Acad"
 90
    32768
280
     0
281
     0
  0
CLASS
  1
SPATIAL_FILTER
  2
AcDbSpatialFilter
  3
"Acad"
 90
    32768
280
     0
281
     0
  0
CLASS
  1
XRECORD
  2
AcDbXrecord
  3
"<Built In>"
 90
    32768
280
     0
281
     0
  0
CLASS
  1
SORTENTSTABLE
  2
AcDbSortentsTable
  3
"AutoCAD"
 90
    32768
280
     0
281
     0
  0
CLASS
  1
LAYER_INDEX
  2
AcDbLayerIndex
  3
"Acad"
 90
    32768
280
     0
281
     0
  0
CLASS
  1
SPATIAL_INDEX
  2
AcDbSpatialIndex
  3
"Acad"
 90
    32768
280
     0
281
     0
  0
CLASS
  1
OBJECT_PTR
  2
CAseDLPNTableRecord
  3
"ASE-LPNTableRecord"
 90
    32769
280
     0
281
     0
  0
CLASS
  1
LAYOUT
  2
AcDbLayout
  3
"AutoCAD 2000"
 90
    32768
280
     0
281
     0
  0
CLASS
  1
PLOTSETTINGS
  2
AcDbPlotSettings
  3
"AutoCAD 2000"
 90
    32768
280
     0
281
     0
  0
CLASS
  1
ACDBDICTIONARYWDFLT
  2
AcDbDictionaryWithDefault
  3
"AutoCAD 2000"
 90
    32768
280
     0
281
     0
  0
CLASS
  1
ACDBPLACEHOLDER
  2
AcDbPlaceHolder
  3
"AutoCAD 2000"
 90
    32768
280
     0
281
     0
  0
CLASS
  1
VBA_PROJECT
  2
AcDbVbaProject
  3
"acadvba"
 90
    32768
280
     0
281
     0
  0
CLASS
  1
WIPEOUT
  2
AcDbWipeout
  3
WipeOut|AutoCAD Express Tool|expresstools@autodesk.com
 90
    32895
280
     0
281
     1
  0
CLASS
  1
WIPEOUTVARIABLES
  2
AcDbWipeoutVariables
  3
WipeOut|AutoCAD Express Tool|expresstools@autodesk.com
 90
    32768
280
     0
281
     0
  0
CLASS
  1
RTEXT
  2
RText
  3
RText|AutoCAD Express Tool|expresstools@autodesk.com
 90
    32768
280
     0
281
     1
  0
CLASS
  1
ARCALIGNEDTEXT
  2
AcDbArcAlignedText
  3
ATEXT|AutoCAD Express Tool|expresstools@autodesk.com
 90
    32768
280
     0
281
     1
  0
ENDSEC
  0
SECTION
  2
TABLES
  0
TABLE
  2
VPORT
  5
6
100
AcDbSymbolTable
 70
     1
  0
VPORT
  5
1C
100
AcDbSymbolTableRecord
100
AcDbViewportTableRecord
  2
*ACTIVE
 70
     0
 10
0.0
 20
0.0
 11
1.0
 21
1.0
 12
0.0
 22
0.0
 13
0.0
 23
0.0
 14
1.0
 24
1.0
 15
0.0
 25
0.0
 16
0.0
 26
0.0
 36
1.0
 17
0.0
 27
0.0
 37
0.0
 40
594.0
 41
1.414141
 42
50.0
 43
0.0
 44
0.0
 50
0.0
 51
0.0
 71
     0
 72
   500
 73
     1
 74
     1
 75
     0
 76
     0
 77
     0
 78
     0
  0
ENDTAB
  0
TABLE
  2
LTYPE
  5
3
100
AcDbSymbolTable
 70
     9
  0
LTYPE
  5
C
100
AcDbSymbolTableRecord
100
AcDbLinetypeTableRecord
  2
BYBLOCK
 70
    64
  3

 72
    65
 73
     0
 40
0.0
  0
LTYPE
  5
D
100
AcDbSymbolTableRecord
100
AcDbLinetypeTableRecord
  2
BYLAYER
 70
    64
  3

 72
    65
 73
     0
 40
0.0
  0
LTYPE
  5
E
100
AcDbSymbolTableRecord
100
AcDbLinetypeTableRecord
  2
CONTINUOUS
 70
     0
  3
Solid line
 72
    65
 73
     0
 40
0.0
  0
LTYPE
  5
F
100
AcDbSymbolTableRecord
100
AcDbLinetypeTableRecord
  2
DASHED
 70
     0
  3
__ __ __ __ __ __ __ __ __ __ __ __ __ __ __
 72
    65
 73
     2
 40
2.0
 49
1.2
 74
     0
 49
-0.8
 74
     0
  0
LTYPE
  5
10
100
AcDbSymbolTableRecord
100
AcDbLinetypeTableRecord
  2
CENTER
 70
     0
  3
____ _ ____ _ ____ _ ____ _ ____ _ ____ _ ____
 72
    65
 73
     4
 40
12.0
 49
9.0
 74
     0
 49
-1.0
 74
     0
 49
1.0
 74
     0
 49
-1.0
 74
     0
  0
LTYPE
  5
11
100
AcDbSymbolTableRecord
100
AcDbLinetypeTableRecord
  2
HIDDEN
 70
     0
  3
_ _ _ _ _ _ _ _ _ _ _ _ _ _ _ _ _ _ _ _ _ _ _
 72
    65
 73
     2
 40
3.2
 49
2.4
 74
     0
 49
-0.8
 74
     0
  0
LTYPE
  5
12
100
AcDbSymbolTableRecord
100
AcDbLinetypeTableRecord
  2
PHANTOM
 70
     0
  3
_____ _ _ _____ _ _ _____ _ _ _____ _ _ _____
 72
    65
 73
     6
 40
13.5
 49
9.0
 74
     0
 49
-1.0
 74
     0
 49
1.0
 74
     0
 49
-0.5
 74
     0
 49
1.0
 74
     0
 49
-1.0
 74
     0
  0
LTYPE
  5
13
100
AcDbSymbolTableRecord
100
AcDbLinetypeTableRecord
  2
DOT
 70
     0
  3
...............................................
 72
    65
 73
     2
 40
1.0
 49
0.5
 74
     0
 49
-0.5
 74
     0
  0
LTYPE
  5
14
100
AcDbSymbolTableRecord
100
AcDbLinetypeTableRecord
  2
DASHDOT
 70
     0
  3
__ . __ . __ . __ . __ . __ . __ . __ . __ . __
 72
    65
 73
     4
 40
8.0
 49
5.0
 74
     0
 49
-1.0
 74
     0
 49
1.0
 74
     0
 49
-1.0
 74
     0
  0
ENDTAB
  0
TABLE
  2
LAYER
  5
1
100
AcDbSymbolTable
 70
     7
  0
LAYER
  5
15
100
AcDbSymbolTableRecord
100
AcDbLayerTableRecord
  2
0
 70
     0
 62
     7
  6
CONTINUOUS
  0
LAYER
  5
16
100
AcDbSymbolTableRecord
100
AcDbLayerTableRecord
  2
1
 70
     0
 62
     7
  6
CONTINUOUS
  0
LAYER
  5
17
100
AcDbSymbolTableRecord
100
AcDbLayerTableRecord
  2
2
 70
     0
 62
     7
  6
CONTINUOUS
  0
LAYER
  5
18
100
AcDbSymbolTableRecord
100
AcDbLayerTableRecord
  2
5
 70
     0
 62
     7
  6
CONTINUOUS
  0
LAYER
  5
19
100
AcDbSymbolTableRecord
100
AcDbLayerTableRecord
  2
13
 70
     0
 62
     7
  6
CONTINUOUS
  0
LAYER
  5
1A
100
AcDbSymbolTableRecord
100
AcDbLayerTableRecord
  2
18
 70
     0
 62
     7
  6
CONTINUOUS
  0
LAYER
  5
1B
100
AcDbSymbolTableRecord
100
AcDbLayerTableRecord
  2
20
 70
     0
 62
     7
  6
CONTINUOUS
  0
ENDTAB
  0
TABLE
  2
STYLE
  5
2
100
AcDbSymbolTable
 70
     1
  0
STYLE
  5
1E
100
AcDbSymbolTableRecord
100
AcDbTextStyleTableRecord
  2
STANDARD
 70
    64
 40
0.0
 41
1.0
 50
0.0
 71
     0
 42
1.0
  3
txt
  4
BIGFONT
  0
ENDTAB
  0
TABLE
  2
VIEW
  5
4
100
AcDbSymbolTable
 70
     0
  0
ENDTAB
  0
TABLE
  2
UCS
  5
5
100
AcDbSymbolTable
 70
     0
  0
ENDTAB
  0
TABLE
  2
APPID
  5
7
100
AcDbSymbolTable
 70
     1
  0
APPID
  5
1D
100
AcDbSymbolTableRecord
100
AcDbRegAppTableRecord
  2
ACAD
 70
     0
  0
ENDTAB
  0
TABLE
  2
DIMSTYLE
  5
8
100
AcDbSymbolTable
 70
     1
  0
DIMSTYLE
105
2E
100
AcDbSymbolTableRecord
100
AcDbDimStyleTableRecord
  2
STANDARD
 70
     0
  3

  4

  5

  6

  7

 40
2.0
 41
0.18
 42
0.0625
 43
0.38
 44
0.18
 45
0.0
 46
0.0
 47
0.0
 48
0.0
 71
     0
 72
     0
 73
     1
 74
     1
 75
     0
 76
     0
 77
     1
 78
     0
140
0.18
141
0.09
142
0.0
143
25.4
144
1.0
145
0.0
146
1.0
147
0.09
170
     0
171
     2
172
     0
173
     0
174
     0
175
     0
176
     0
177
     0
178
     0
270
     2
271
     4
272
     4
273
     2
274
     2
275
     0
280
     0
281
     0
282
     0
283
     1
284
     0
285
     0
286
     0
287
     3
288
     0
340
1E
  0
ENDTAB
  0
TABLE
  2
BLOCK_RECORD
  5
29
100
AcDbSymbolTable
 70
     8
  0
BLOCK_RECORD
  5
27
100
AcDbSymbolTableRecord
100
AcDbBlockTableRecord
  2
*MODEL_SPACE
  0
BLOCK_RECORD
  5
28
100
AcDbSymbolTableRecord
100
AcDbBlockTableRecord
  2
*PAPER_SPACE
  0
BLOCK_RECORD
  5
1F
100
AcDbSymbolTableRecord
100
AcDbBlockTableRecord
  2
*D0
  0
BLOCK_RECORD
  5
20
100
AcDbSymbolTableRecord
100
AcDbBlockTableRecord
  2
*D1
  0
BLOCK_RECORD
  5
21
100
AcDbSymbolTableRecord
100
AcDbBlockTableRecord
  2
*D2
  0
BLOCK_RECORD
  5
22
100
AcDbSymbolTableRecord
100
AcDbBlockTableRecord
  2
*D3
  0
BLOCK_RECORD
  5
23
100
AcDbSymbolTableRecord
100
AcDbBlockTableRecord
  2
*D4
  0
BLOCK_RECORD
  5
24
100
AcDbSymbolTableRecord
100
AcDbBlockTableRecord
  2
*D5
  0
BLOCK_RECORD
  5
25
100
AcDbSymbolTableRecord
100
AcDbBlockTableRecord
  2
*D6
  0
BLOCK_RECORD
  5
26
100
AcDbSymbolTableRecord
100
AcDbBlockTableRecord
  2
*D7
  0
ENDTAB
  0
ENDSEC
  0
SECTION
  2
BLOCKS
  0
BLOCK
  5
2A
100
AcDbEntity
  8
0
100
AcDbBlockBegin
  2
*MODEL_SPACE
 70
     0
 10
0.0
 20
0.0
 30
0.0
  3
*MODEL_SPACE
  1

  0
ENDBLK
  5
2B
100
AcDbEntity
  8
0
100
AcDbBlockEnd
  0
BLOCK
  5
2C
100
AcDbEntity
 67
     1
  8
0
100
AcDbBlockBegin
  2
*PAPER_SPACE
 70
     0
 10
0.0
 20
0.0
 30
0.0
  3
*PAPER_SPACE
  1

  0
ENDBLK
  5
2D
100
AcDbEntity
 67
     1
  8
0
100
AcDbBlockEnd
  0
BLOCK
  5
4BB
100
AcDbEntity
  8
5
100
AcDbBlockBegin
  2
*D0
 70
     1
 10
0.0
 20
0.0
 30
0.0
  3
*D0
  1

  0
TEXT
  5
4BC
100
AcDbEntity
  8
5
 62
     2
100
AcDbText
 10
-3.970615
 20
7.996396
 30
0.0
 40
6.6
  1
27
 50
90.0
 41
1.4
 72
     5
 11
-3.970615
 21
15.388396
 31
0.0
100
AcDbText
  0
LINE
  5
4BD
100
AcDbEntity
  8
5
 62
     2
100
AcDbLine
 10
28.336377
 20
-0.883604
 30
0.0
 11
-4.970615
 21
-0.883604
 31
0.0
  0
LINE
  5
4BE
100
AcDbEntity
  8
5
 62
     2
100
AcDbLine
 10
-2.970615
 20
-0.883604
 30
0.0
 11
-1.935339
 21
2.980099
 31
0.0
  0
LINE
  5
4BF
100
AcDbEntity
  8
5
 62
     2
100
AcDbLine
 10
-2.970615
 20
-0.883604
 30
0.0
 11
-4.005892
 21
2.980099
 31
0.0
  0
LINE
  5
4C0
100
AcDbEntity
  8
5
 62
     2
100
AcDbLine
 10
-1.935339
 20
2.980099
 30
0.0
 11
-4.005892
 21
2.980099
 31
0.0
  0
LINE
  5
4C1
100
AcDbEntity
  8
5
 62
     2
100
AcDbLine
 10
-2.970615
 20
-0.883604
 30
0.0
 11
-2.970615
 21
26.116396
 31
0.0
  0
LINE
  5
4C2
100
AcDbEntity
  8
5
 62
     2
100
AcDbLine
 10
-2.970615
 20
26.116396
 30
0.0
 11
-4.005892
 21
22.252692
 31
0.0
  0
LINE
  5
4C3
100
AcDbEntity
  8
5
 62
     2
100
AcDbLine
 10
-2.970615
 20
26.116396
 30
0.0
 11
-1.935339
 21
22.252692
 31
0.0
  0
LINE
  5
4C4
100
AcDbEntity
  8
5
 62
     2
100
AcDbLine
 10
-4.005892
 20
22.252692
 30
0.0
 11
-1.935339
 21
22.252692
 31
0.0
  0
LINE
  5
4C5
100
AcDbEntity
  8
5
 62
     2
100
AcDbLine
 10
14.039725
 20
26.116396
 30
0.0
 11
-4.970615
 21
26.116396
 31
0.0
  0
ENDBLK
  5
4C6
100
AcDbEntity
  8
5
100
AcDbBlockEnd
  0
BLOCK
  5
4C7
100
AcDbEntity
  8
5
100
AcDbBlockBegin
  2
*D1
 70
     1
 10
0.0
 20
0.0
 30
0.0
  3
*D1
  1

  0
TEXT
  5
4C8
100
AcDbEntity
  8
5
 62
     2
100
AcDbText
 10
-3.970615
 20
-85.813604
 30
0.0
 40
6.6
  1
156
 50
90.0
 41
1.4
 72
     5
 11
-3.970615
 21
-73.801604
 31
0.0
100
AcDbText
  0
LINE
  5
4C9
100
AcDbEntity
  8
5
 62
     2
100
AcDbLine
 10
25.353516
 20
-156.883604
 30
0.0
 11
-4.970615
 21
-156.883604
 31
0.0
  0
LINE
  5
4CA
100
AcDbEntity
  8
5
 62
     2
100
AcDbLine
 10
-2.970615
 20
-156.883604
 30
0.0
 11
-1.935339
 21
-153.019901
 31
0.0
  0
LINE
  5
4CB
100
AcDbEntity
  8
5
 62
     2
100
AcDbLine
 10
-2.970615
 20
-156.883604
 30
0.0
 11
-4.005892
 21
-153.019901
 31
0.0
  0
LINE
  5
4CC
100
AcDbEntity
  8
5
 62
     2
100
AcDbLine
 10
-1.935339
 20
-153.019901
 30
0.0
 11
-4.005892
 21
-153.019901
 31
0.0
  0
LINE
  5
4CD
100
AcDbEntity
  8
5
 62
     2
100
AcDbLine
 10
-2.970615
 20
-156.883604
 30
0.0
 11
-2.970615
 21
-0.883604
 31
0.0
  0
LINE
  5
4CE
100
AcDbEntity
  8
5
 62
     2
100
AcDbLine
 10
-2.970615
 20
-0.883604
 30
0.0
 11
-4.005892
 21
-4.747308
 31
0.0
  0
LINE
  5
4CF
100
AcDbEntity
  8
5
 62
     2
100
AcDbLine
 10
-2.970615
 20
-0.883604
 30
0.0
 11
-1.935339
 21
-4.747308
 31
0.0
  0
LINE
  5
4D0
100
AcDbEntity
  8
5
 62
     2
100
AcDbLine
 10
-4.005892
 20
-4.747308
 30
0.0
 11
-1.935339
 21
-4.747308
 31
0.0
  0
LINE
  5
4D1
100
AcDbEntity
  8
5
 62
     2
100
AcDbLine
 10
28.336377
 20
-0.883604
 30
0.0
 11
-4.970615
 21
-0.883604
 31
0.0
  0
ENDBLK
  5
4D2
100
AcDbEntity
  8
5
100
AcDbBlockEnd
  0
BLOCK
  5
4D3
100
AcDbEntity
  8
5
100
AcDbBlockBegin
  2
*D2
 70
     1
 10
0.0
 20
0.0
 30
0.0
  3
*D2
  1

  0
TEXT
  5
4D4
100
AcDbEntity
  8
5
 62
     2
100
AcDbText
 10
-3.970615
 20
-203.953604
 30
0.0
 40
6.6
  1
85
 50
90.0
 41
1.4
 72
     5
 11
-3.970615
 21
-196.561604
 31
0.0
100
AcDbText
  0
LINE
  5
4D5
100
AcDbEntity
  8
5
 62
     2
100
AcDbLine
 10
59.593516
 20
-241.783604
 30
0.0
 11
-4.970615
 21
-241.783604
 31
0.0
  0
LINE
  5
4D6
100
AcDbEntity
  8
5
 62
     2
100
AcDbLine
 10
-2.970615
 20
-241.783604
 30
0.0
 11
-1.935339
 21
-237.919901
 31
0.0
  0
LINE
  5
4D7
100
AcDbEntity
  8
5
 62
     2
100
AcDbLine
 10
-2.970615
 20
-241.783604
 30
0.0
 11
-4.005892
 21
-237.919901
 31
0.0
  0
LINE
  5
4D8
100
AcDbEntity
  8
5
 62
     2
100
AcDbLine
 10
-1.935339
 20
-237.919901
 30
0.0
 11
-4.005892
 21
-237.919901
 31
0.0
  0
LINE
  5
4D9
100
AcDbEntity
  8
5
 62
     2
100
AcDbLine
 10
-2.970615
 20
-241.783604
 30
0.0
 11
-2.970615
 21
-156.883604
 31
0.0
  0
LINE
  5
4DA
100
AcDbEntity
  8
5
 62
     2
100
AcDbLine
 10
-2.970615
 20
-156.883604
 30
0.0
 11
-4.005892
 21
-160.747308
 31
0.0
  0
LINE
  5
4DB
100
AcDbEntity
  8
5
 62
     2
100
AcDbLine
 10
-2.970615
 20
-156.883604
 30
0.0
 11
-1.935339
 21
-160.747308
 31
0.0
  0
LINE
  5
4DC
100
AcDbEntity
  8
5
 62
     2
100
AcDbLine
 10
-4.005892
 20
-160.747308
 30
0.0
 11
-1.935339
 21
-160.747308
 31
0.0
  0
LINE
  5
4DD
100
AcDbEntity
  8
5
 62
     2
100
AcDbLine
 10
25.353516
 20
-156.883604
 30
0.0
 11
-4.970615
 21
-156.883604
 31
0.0
  0
ENDBLK
  5
4DE
100
AcDbEntity
  8
5
100
AcDbBlockEnd
  0
BLOCK
  5
4DF
100
AcDbEntity
  8
5
100
AcDbBlockBegin
  2
*D3
 70
     1
 10
0.0
 20
0.0
 30
0.0
  3
*D3
  1

  0
TEXT
  5
4E0
100
AcDbEntity
  8
5
 62
     2
100
AcDbText
 10
61.973516
 20
-264.230255
 30
0.0
 40
6.6
  1
46
 41
1.4
 72
     5
 11
69.365516
 21
-264.230255
 31
0.0
100
AcDbText
  0
LINE
  5
4E1
100
AcDbEntity
  8
5
 62
     2
100
AcDbLine
 10
43.593516
 20
-220.883604
 30
0.0
 11
43.593516
 21
-267.230255
 31
0.0
  0
LINE
  5
4E2
100
AcDbEntity
  8
5
 62
     2
100
AcDbLine
 10
43.593516
 20
-265.230255
 30
0.0
 11
47.457219
 21
-266.265531
 31
0.0
  0
LINE
  5
4E3
100
AcDbEntity
  8
5
 62
     2
100
AcDbLine
 10
43.593516
 20
-265.230255
 30
0.0
 11
47.457219
 21
-264.194979
 31
0.0
  0
LINE
  5
4E4
100
AcDbEntity
  8
5
 62
     2
100
AcDbLine
 10
47.457219
 20
-266.265531
 30
0.0
 11
47.457219
 21
-264.194979
 31
0.0
  0
LINE
  5
4E5
100
AcDbEntity
  8
5
 62
     2
100
AcDbLine
 10
43.593516
 20
-265.230255
 30
0.0
 11
89.593516
 21
-265.230255
 31
0.0
  0
LINE
  5
4E6
100
AcDbEntity
  8
5
 62
     2
100
AcDbLine
 10
89.593516
 20
-265.230255
 30
0.0
 11
85.729813
 21
-264.194979
 31
0.0
  0
LINE
  5
4E7
100
AcDbEntity
  8
5
 62
     2
100
AcDbLine
 10
89.593516
 20
-265.230255
 30
0.0
 11
85.729813
 21
-266.265531
 31
0.0
  0
LINE
  5
4E8
100
AcDbEntity
  8
5
 62
     2
100
AcDbLine
 10
85.729813
 20
-264.194979
 30
0.0
 11
85.729813
 21
-266.265531
 31
0.0
  0
LINE
  5
4E9
100
AcDbEntity
  8
5
 62
     2
100
AcDbLine
 10
89.593516
 20
-220.883604
 30
0.0
 11
89.593516
 21
-267.230255
 31
0.0
  0
ENDBLK
  5
4EA
100
AcDbEntity
  8
5
100
AcDbBlockEnd
  0
BLOCK
  5
4EB
100
AcDbEntity
  8
5
100
AcDbBlockBegin
  2
*D4
 70
     1
 10
0.0
 20
0.0
 30
0.0
  3
*D4
  1

  0
TEXT
  5
4EC
100
AcDbEntity
  8
5
 62
     2
100
AcDbText
 10
-43.85321
 20
160.683062
 30
0.0
 40
6.0
  1
46
 50
90.0
 41
1.4
 72
     5
 11
-43.85321
 21
167.403062
 31
0.0
100
AcDbText
  0
LINE
  5
4ED
100
AcDbEntity
  8
5
 62
     2
100
AcDbLine
 10
-133.706484
 20
141.883062
 30
0.0
 11
-40.85321
 21
141.883062
 31
0.0
  0
LINE
  5
4EE
100
AcDbEntity
  8
5
 62
     2
100
AcDbLine
 10
-42.85321
 20
141.883062
 30
0.0
 11
-41.817934
 21
145.746766
 31
0.0
  0
LINE
  5
4EF
100
AcDbEntity
  8
5
 62
     2
100
AcDbLine
 10
-42.85321
 20
141.883062
 30
0.0
 11
-43.888487
 21
145.746766
 31
0.0
  0
LINE
  5
4F0
100
AcDbEntity
  8
5
 62
     2
100
AcDbLine
 10
-41.817934
 20
145.746766
 30
0.0
 11
-43.888487
 21
145.746766
 31
0.0
  0
LINE
  5
4F1
100
AcDbEntity
  8
5
 62
     2
100
AcDbLine
 10
-42.85321
 20
141.883062
 30
0.0
 11
-42.85321
 21
187.883062
 31
0.0
  0
LINE
  5
4F2
100
AcDbEntity
  8
5
 62
     2
100
AcDbLine
 10
-42.85321
 20
187.883062
 30
0.0
 11
-43.888487
 21
184.019359
 31
0.0
  0
LINE
  5
4F3
100
AcDbEntity
  8
5
 62
     2
100
AcDbLine
 10
-42.85321
 20
187.883062
 30
0.0
 11
-41.817934
 21
184.019359
 31
0.0
  0
LINE
  5
4F4
100
AcDbEntity
  8
5
 62
     2
100
AcDbLine
 10
-43.888487
 20
184.019359
 30
0.0
 11
-41.817934
 21
184.019359
 31
0.0
  0
LINE
  5
4F5
100
AcDbEntity
  8
5
 62
     2
100
AcDbLine
 10
-62.836597
 20
187.883062
 30
0.0
 11
-40.85321
 21
187.883062
 31
0.0
  0
ENDBLK
  5
4F6
100
AcDbEntity
  8
5
100
AcDbBlockEnd
  0
BLOCK
  5
4F7
100
AcDbEntity
  8
5
100
AcDbBlockBegin
  2
*D5
 70
     1
 10
0.0
 20
0.0
 30
0.0
  3
*D5
  1

  0
TEXT
  5
4F8
100
AcDbEntity
  8
5
 62
     2
100
AcDbText
 10
-43.85321
 20
113.683062
 30
0.0
 40
6.0
  1
48
 50
90.0
 41
1.4
 72
     5
 11
-43.85321
 21
120.403062
 31
0.0
100
AcDbText
  0
LINE
  5
4F9
100
AcDbEntity
  8
5
 62
     2
100
AcDbLine
 10
-193.647484
 20
93.883062
 30
0.0
 11
-40.85321
 21
93.883062
 31
0.0
  0
LINE
  5
4FA
100
AcDbEntity
  8
5
 62
     2
100
AcDbLine
 10
-42.85321
 20
93.883062
 30
0.0
 11
-41.817934
 21
97.746766
 31
0.0
  0
LINE
  5
4FB
100
AcDbEntity
  8
5
 62
     2
100
AcDbLine
 10
-42.85321
 20
93.883062
 30
0.0
 11
-43.888487
 21
97.746766
 31
0.0
  0
LINE
  5
4FC
100
AcDbEntity
  8
5
 62
     2
100
AcDbLine
 10
-41.817934
 20
97.746766
 30
0.0
 11
-43.888487
 21
97.746766
 31
0.0
  0
LINE
  5
4FD
100
AcDbEntity
  8
5
 62
     2
100
AcDbLine
 10
-42.85321
 20
93.883062
 30
0.0
 11
-42.85321
 21
141.883062
 31
0.0
  0
LINE
  5
4FE
100
AcDbEntity
  8
5
 62
     2
100
AcDbLine
 10
-42.85321
 20
141.883062
 30
0.0
 11
-43.888487
 21
138.019359
 31
0.0
  0
LINE
  5
4FF
100
AcDbEntity
  8
5
 62
     2
100
AcDbLine
 10
-42.85321
 20
141.883062
 30
0.0
 11
-41.817934
 21
138.019359
 31
0.0
  0
LINE
  5
500
100
AcDbEntity
  8
5
 62
     2
100
AcDbLine
 10
-43.888487
 20
138.019359
 30
0.0
 11
-41.817934
 21
138.019359
 31
0.0
  0
LINE
  5
501
100
AcDbEntity
  8
5
 62
     2
100
AcDbLine
 10
-133.706484
 20
141.883062
 30
0.0
 11
-40.85321
 21
141.883062
 31
0.0
  0
ENDBLK
  5
502
100
AcDbEntity
  8
5
100
AcDbBlockEnd
  0
BLOCK
  5
503
100
AcDbEntity
  8
5
100
AcDbBlockBegin
  2
*D6
 70
     1
 10
0.0
 20
0.0
 30
0.0
  3
*D6
  1

  0
TEXT
  5
504
100
AcDbEntity
  8
5
 62
     2
100
AcDbText
 10
-151.911484
 20
248.77652
 30
0.0
 40
6.6
  1
146
 41
1.4
 72
     5
 11
-139.899484
 21
248.77652
 31
0.0
100
AcDbText
  0
LINE
  5
505
100
AcDbEntity
  8
5
 62
     2
100
AcDbLine
 10
-218.106484
 20
221.477519
 30
0.0
 11
-218.106484
 21
249.77652
 31
0.0
  0
LINE
  5
506
100
AcDbEntity
  8
5
 62
     2
100
AcDbLine
 10
-218.106484
 20
247.77652
 30
0.0
 11
-214.242781
 21
246.741244
 31
0.0
  0
LINE
  5
507
100
AcDbEntity
  8
5
 62
     2
100
AcDbLine
 10
-218.106484
 20
247.77652
 30
0.0
 11
-214.242781
 21
248.811796
 31
0.0
  0
LINE
  5
508
100
AcDbEntity
  8
5
 62
     2
100
AcDbLine
 10
-214.242781
 20
246.741244
 30
0.0
 11
-214.242781
 21
248.811796
 31
0.0
  0
LINE
  5
509
100
AcDbEntity
  8
5
 62
     2
100
AcDbLine
 10
-218.106484
 20
247.77652
 30
0.0
 11
-71.856484
 21
247.77652
 31
0.0
  0
LINE
  5
50A
100
AcDbEntity
  8
5
 62
     2
100
AcDbLine
 10
-71.856484
 20
247.77652
 30
0.0
 11
-75.720187
 21
248.811796
 31
0.0
  0
LINE
  5
50B
100
AcDbEntity
  8
5
 62
     2
100
AcDbLine
 10
-71.856484
 20
247.77652
 30
0.0
 11
-75.720187
 21
246.741244
 31
0.0
  0
LINE
  5
50C
100
AcDbEntity
  8
5
 62
     2
100
AcDbLine
 10
-75.720187
 20
248.811796
 30
0.0
 11
-75.720187
 21
246.741244
 31
0.0
  0
LINE
  5
50D
100
AcDbEntity
  8
5
 62
     2
100
AcDbLine
 10
-71.856484
 20
236.627625
 30
0.0
 11
-71.856484
 21
249.77652
 31
0.0
  0
ENDBLK
  5
50E
100
AcDbEntity
  8
5
100
AcDbBlockEnd
  0
BLOCK
  5
50F
100
AcDbEntity
  8
5
100
AcDbBlockBegin
  2
*D7
 70
     1
 10
0.0
 20
0.0
 30
0.0
  3
*D7
  1

  0
TEXT
  5
510
100
AcDbEntity
  8
5
 62
     2
100
AcDbText
 10
-43.85321
 20
16.876396
 30
0.0
 40
6.6
  1
%%c100
 50
90.0
 41
1.4
 72
     5
 11
-43.85321
 21
33.508396
 31
0.0
100
AcDbText
  0
LINE
  5
511
100
AcDbEntity
  8
5
 62
     2
100
AcDbLine
 10
-75.856484
 20
76.116396
 30
0.0
 11
-40.85321
 21
76.116396
 31
0.0
  0
LINE
  5
512
100
AcDbEntity
  8
5
 62
     2
100
AcDbLine
 10
-42.85321
 20
76.116396
 30
0.0
 11
-43.888487
 21
72.252692
 31
0.0
  0
LINE
  5
513
100
AcDbEntity
  8
5
 62
     2
100
AcDbLine
 10
-42.85321
 20
76.116396
 30
0.0
 11
-41.817934
 21
72.252692
 31
0.0
  0
LINE
  5
514
100
AcDbEntity
  8
5
 62
     2
100
AcDbLine
 10
-43.888487
 20
72.252692
 30
0.0
 11
-41.817934
 21
72.252692
 31
0.0
  0
LINE
  5
515
100
AcDbEntity
  8
5
 62
     2
100
AcDbLine
 10
-42.85321
 20
76.116396
 30
0.0
 11
-42.85321
 21
-23.883604
 31
0.0
  0
LINE
  5
516
100
AcDbEntity
  8
5
 62
     2
100
AcDbLine
 10
-42.85321
 20
-23.883604
 30
0.0
 11
-41.817934
 21
-20.019901
 31
0.0
  0
LINE
  5
517
100
AcDbEntity
  8
5
 62
     2
100
AcDbLine
 10
-42.85321
 20
-23.883604
 30
0.0
 11
-43.888487
 21
-20.019901
 31
0.0
  0
LINE
  5
518
100
AcDbEntity
  8
5
 62
     2
100
AcDbLine
 10
-41.817934
 20
-20.019901
 30
0.0
 11
-43.888487
 21
-20.019901
 31
0.0
  0
LINE
  5
519
100
AcDbEntity
  8
5
 62
     2
100
AcDbLine
 10
-75.856484
 20
-23.883604
 30
0.0
 11
-40.85321
 21
-23.883604
 31
0.0
  0
ENDBLK
  5
51A
100
AcDbEntity
  8
5
100
AcDbBlockEnd
  0
ENDSEC
  0
SECTION
  2
ENTITIES
  0
LINE
  5
2F
100
AcDbEntity
  8
1
  6
CENTER
 62
     2
100
AcDbLine
 10
-135.706484
 20
141.883062
 30
0.0
 11
-297.395411
 21
141.883062
 31
0.0
  0
LINE
  5
30
100
AcDbEntity
  8
1
  6
CENTER
 62
     2
100
AcDbLine
 10
-218.106484
 20
69.532296
 30
0.0
 11
-218.106484
 21
-252.403604
 31
0.0
  0
LINE
  5
31
100
AcDbEntity
  8
1
  6
CENTER
 62
     2
100
AcDbLine
 10
66.593516
 20
69.532296
 30
0.0
 11
66.593516
 21
-252.403604
 31
0.0
  0
LINE
  5
32
100
AcDbEntity
  8
1
  6
DASHED
100
AcDbLine
 10
-193.106484
 20
176.883062
 30
0.0
 11
-243.106484
 21
176.883062
 31
0.0
  0
LINE
  5
33
100
AcDbEntity
  8
1
  6
DASHED
100
AcDbLine
 10
-193.106484
 20
106.883062
 30
0.0
 11
-243.106484
 21
106.883062
 31
0.0
  0
LINE
  5
34
100
AcDbEntity
  8
1
  6
DASHED
100
AcDbLine
 10
-253.106484
 20
116.883062
 30
0.0
 11
-253.106484
 21
166.883062
 31
0.0
  0
LINE
  5
35
100
AcDbEntity
  8
1
  6
DASHED
100
AcDbLine
 10
-183.106484
 20
116.883062
 30
0.0
 11
-183.106484
 21
166.883062
 31
0.0
  0
ARC
  5
36
100
AcDbEntity
  8
1
  6
DASHED
100
AcDbCircle
 10
-193.106484
 20
166.883062
 30
0.0
 40
10.0
100
AcDbArc
 50
0.0
 51
90.0
  0
ARC
  5
37
100
AcDbEntity
  8
1
  6
DASHED
100
AcDbCircle
 10
-243.106484
 20
166.883062
 30
0.0
 40
10.0
100
AcDbArc
 50
90.0
 51
180.0
  0
ARC
  5
38
100
AcDbEntity
  8
1
  6
DASHED
100
AcDbCircle
 10
-243.106484
 20
116.883062
 30
0.0
 40
10.0
100
AcDbArc
 50
180.0
 51
270.0
  0
ARC
  5
39
100
AcDbEntity
  8
1
  6
DASHED
100
AcDbCircle
 10
-193.106484
 20
116.883062
 30
0.0
 40
10.0
100
AcDbArc
 50
270.0
 51
360.0
  0
CIRCLE
  5
3A
100
AcDbEntity
  8
1
  6
DASHED
100
AcDbCircle
 10
-193.356484
 20
166.633062
 30
0.0
 40
4.5
  0
CIRCLE
  5
3B
100
AcDbEntity
  8
1
  6
DASHED
100
AcDbCircle
 10
-242.856484
 20
166.633062
 30
0.0
 40
4.5
  0
CIRCLE
  5
3C
100
AcDbEntity
  8
1
  6
DASHED
100
AcDbCircle
 10
-242.856484
 20
117.133062
 30
0.0
 40
4.5
  0
CIRCLE
  5
3D
100
AcDbEntity
  8
1
  6
DASHED
100
AcDbCircle
 10
-193.356484
 20
117.133062
 30
0.0
 40
4.5
  0
LINE
  5
3E
100
AcDbEntity
  8
1
  6
CENTER
 62
     2
100
AcDbLine
 10
-201.856484
 20
166.633062
 30
0.0
 11
-184.856484
 21
166.633062
 31
0.0
  0
LINE
  5
3F
100
AcDbEntity
  8
1
  6
CENTER
 62
     2
100
AcDbLine
 10
-193.356484
 20
158.133062
 30
0.0
 11
-193.356484
 21
175.133062
 31
0.0
  0
LINE
  5
40
100
AcDbEntity
  8
1
  6
CENTER
 62
     2
100
AcDbLine
 10
-234.356484
 20
166.633062
 30
0.0
 11
-251.356484
 21
166.633062
 31
0.0
  0
LINE
  5
41
100
AcDbEntity
  8
1
  6
CENTER
 62
     2
100
AcDbLine
 10
-242.856484
 20
158.133062
 30
0.0
 11
-242.856484
 21
175.133062
 31
0.0
  0
LINE
  5
42
100
AcDbEntity
  8
1
  6
CENTER
 62
     2
100
AcDbLine
 10
-201.856484
 20
117.133062
 30
0.0
 11
-184.856484
 21
117.133062
 31
0.0
  0
LINE
  5
43
100
AcDbEntity
  8
1
  6
CENTER
 62
     2
100
AcDbLine
 10
-193.356484
 20
125.633062
 30
0.0
 11
-193.356484
 21
108.633062
 31
0.0
  0
LINE
  5
44
100
AcDbEntity
  8
1
  6
CENTER
 62
     2
100
AcDbLine
 10
-234.356484
 20
117.133062
 30
0.0
 11
-251.356484
 21
117.133062
 31
0.0
  0
LINE
  5
45
100
AcDbEntity
  8
1
  6
CENTER
 62
     2
100
AcDbLine
 10
-242.856484
 20
125.633062
 30
0.0
 11
-242.856484
 21
108.633062
 31
0.0
  0
LINE
  5
46
100
AcDbEntity
  8
1
  6
CENTER
 62
     2
100
AcDbLine
 10
-287.337616
 20
-156.883604
 30
0.0
 11
-147.910065
 21
-156.883604
 31
0.0
  0
LINE
  5
47
100
AcDbEntity
  8
1
  6
CENTER
 62
     2
100
AcDbLine
 10
27.353516
 20
-156.883604
 30
0.0
 11
103.537756
 21
-156.883604
 31
0.0
  0
LINE
  5
48
100
AcDbEntity
  8
1
100
AcDbLine
 10
-185.657747
 20
-12.883604
 30
0.0
 11
-250.555221
 21
-12.883604
 31
0.0
  0
LINE
  5
49
100
AcDbEntity
  8
1
100
AcDbLine
 10
-253.106484
 20
-0.883604
 30
0.0
 11
-253.106484
 21
-8.883604
 31
0.0
  0
LINE
  5
4A
100
AcDbEntity
  8
1
100
AcDbLine
 10
-183.106484
 20
-0.883604
 30
0.0
 11
-183.106484
 21
-8.883604
 31
0.0
  0
LINE
  5
4B
100
AcDbEntity
  8
1
100
AcDbLine
 10
-234.106484
 20
-20.883604
 30
0.0
 11
-234.106484
 21
-88.670702
 31
0.0
  0
LINE
  5
4C
100
AcDbEntity
  8
1
100
AcDbLine
 10
-202.106484
 20
-20.883604
 30
0.0
 11
-202.106484
 21
-88.670702
 31
0.0
  0
LINE
  5
4D
100
AcDbEntity
  8
1
100
AcDbLine
 10
-211.206484
 20
-237.783604
 30
0.0
 11
-199.006484
 21
-237.783604
 31
0.0
  0
LINE
  5
4E
100
AcDbEntity
  8
1
100
AcDbLine
 10
-199.356484
 20
-237.783604
 30
0.0
 11
-199.356484
 21
-241.292856
 31
0.0
  0
LINE
  5
4F
100
AcDbEntity
  8
1
100
AcDbLine
 10
-199.356484
 20
-241.292856
 30
0.0
 11
-200.206484
 21
-241.783604
 31
0.0
  0
LINE
  5
50
100
AcDbEntity
  8
1
100
AcDbLine
 10
-200.206484
 20
-241.783604
 30
0.0
 11
-210.006484
 21
-241.783604
 31
0.0
  0
LINE
  5
51
100
AcDbEntity
  8
1
100
AcDbLine
 10
-202.231484
 20
-237.783604
 30
0.0
 11
-202.231484
 21
-241.292856
 31
0.0
  0
ARC
  5
52
100
AcDbEntity
  8
1
100
AcDbCircle
 10
-200.793984
 20
-239.444901
 30
0.0
 40
2.341227
100
AcDbArc
 50
232.121121
 51
307.878879
  0
LINE
  5
53
100
AcDbEntity
  8
1
100
AcDbLine
 10
-210.856484
 20
-237.783604
 30
0.0
 11
-210.856484
 21
-241.292856
 31
0.0
  0
LINE
  5
54
100
AcDbEntity
  8
1
100
AcDbLine
 10
-210.856484
 20
-241.292856
 30
0.0
 11
-210.006484
 21
-241.783604
 31
0.0
  0
LINE
  5
55
100
AcDbEntity
  8
1
100
AcDbLine
 10
-207.981484
 20
-237.783604
 30
0.0
 11
-207.981484
 21
-241.292856
 31
0.0
  0
ARC
  5
56
100
AcDbEntity
  8
1
100
AcDbCircle
 10
-209.418984
 20
-239.444901
 30
0.0
 40
2.341227
100
AcDbArc
 50
232.121121
 51
307.878879
  0
ARC
  5
57
100
AcDbEntity
  8
1
100
AcDbCircle
 10
-205.106484
 20
-233.161128
 30
0.0
 40
8.625
100
AcDbArc
 50
250.528777
 51
289.471219
  0
LINE
  5
58
100
AcDbEntity
  8
1
100
AcDbLine
 10
-199.006484
 20
-236.283604
 30
0.0
 11
-199.006484
 21
-237.783604
 31
0.0
  0
LINE
  5
59
100
AcDbEntity
  8
1
100
AcDbLine
 10
-211.206484
 20
-237.783604
 30
0.0
 11
-211.206484
 21
-236.283604
 31
0.0
  0
LINE
  5
5A
100
AcDbEntity
  8
1
100
AcDbLine
 10
-205.106484
 20
-237.783604
 30
0.0
 11
-205.606484
 21
-236.283604
 31
0.0
  0
LINE
  5
5B
100
AcDbEntity
  8
1
100
AcDbLine
 10
-205.106484
 20
-236.283604
 30
0.0
 11
-204.606484
 21
-237.783604
 31
0.0
  0
LINE
  5
5C
100
AcDbEntity
  8
1
100
AcDbLine
 10
-237.206484
 20
-237.783604
 30
0.0
 11
-225.006484
 21
-237.783604
 31
0.0
  0
LINE
  5
5D
100
AcDbEntity
  8
1
100
AcDbLine
 10
-225.356484
 20
-237.783604
 30
0.0
 11
-225.356484
 21
-241.292856
 31
0.0
  0
LINE
  5
5E
100
AcDbEntity
  8
1
100
AcDbLine
 10
-225.356484
 20
-241.292856
 30
0.0
 11
-226.206484
 21
-241.783604
 31
0.0
  0
LINE
  5
5F
100
AcDbEntity
  8
1
100
AcDbLine
 10
-228.231484
 20
-237.783604
 30
0.0
 11
-228.231484
 21
-241.292856
 31
0.0
  0
ARC
  5
60
100
AcDbEntity
  8
1
100
AcDbCircle
 10
-226.793984
 20
-239.444901
 30
0.0
 40
2.341227
100
AcDbArc
 50
232.121121
 51
307.878879
  0
ARC
  5
61
100
AcDbEntity
  8
1
100
AcDbCircle
 10
-231.106484
 20
-233.161128
 30
0.0
 40
8.625
100
AcDbArc
 50
250.528777
 51
289.471219
  0
LINE
  5
62
100
AcDbEntity
  8
1
100
AcDbLine
 10
-236.856484
 20
-237.783604
 30
0.0
 11
-236.856484
 21
-241.292856
 31
0.0
  0
LINE
  5
63
100
AcDbEntity
  8
1
100
AcDbLine
 10
-236.856484
 20
-241.292856
 30
0.0
 11
-236.006484
 21
-241.783604
 31
0.0
  0
LINE
  5
64
100
AcDbEntity
  8
1
100
AcDbLine
 10
-236.006484
 20
-241.783604
 30
0.0
 11
-226.206484
 21
-241.783604
 31
0.0
  0
LINE
  5
65
100
AcDbEntity
  8
1
100
AcDbLine
 10
-233.981484
 20
-237.783604
 30
0.0
 11
-233.981484
 21
-241.292856
 31
0.0
  0
ARC
  5
66
100
AcDbEntity
  8
1
100
AcDbCircle
 10
-235.418984
 20
-239.444901
 30
0.0
 40
2.341227
100
AcDbArc
 50
232.121121
 51
307.878879
  0
LINE
  5
67
100
AcDbEntity
  8
1
100
AcDbLine
 10
-225.006484
 20
-236.283604
 30
0.0
 11
-225.006484
 21
-237.783604
 31
0.0
  0
LINE
  5
68
100
AcDbEntity
  8
1
100
AcDbLine
 10
-237.206484
 20
-237.783604
 30
0.0
 11
-237.206484
 21
-236.283604
 31
0.0
  0
LINE
  5
69
100
AcDbEntity
  8
1
100
AcDbLine
 10
-231.106484
 20
-237.783604
 30
0.0
 11
-231.606484
 21
-236.283604
 31
0.0
  0
LINE
  5
6A
100
AcDbEntity
  8
1
100
AcDbLine
 10
-231.106484
 20
-236.283604
 30
0.0
 11
-230.606484
 21
-237.783604
 31
0.0
  0
LINE
  5
6B
100
AcDbEntity
  8
1
100
AcDbLine
 10
99.042253
 20
-12.883604
 30
0.0
 11
34.144779
 21
-12.883604
 31
0.0
  0
LINE
  5
6C
100
AcDbEntity
  8
1
100
AcDbLine
 10
31.593516
 20
-0.883604
 30
0.0
 11
31.593516
 21
-8.883604
 31
0.0
  0
LINE
  5
6D
100
AcDbEntity
  8
1
100
AcDbLine
 10
101.593516
 20
-0.883604
 30
0.0
 11
101.593516
 21
-8.883604
 31
0.0
  0
LINE
  5
6E
100
AcDbEntity
  8
1
100
AcDbLine
 10
50.593516
 20
-20.883604
 30
0.0
 11
50.593516
 21
-94.014935
 31
0.0
  0
LINE
  5
6F
100
AcDbEntity
  8
1
100
AcDbLine
 10
82.593516
 20
-20.883604
 30
0.0
 11
82.593516
 21
-94.014935
 31
0.0
  0
LINE
  5
70
100
AcDbEntity
  8
1
100
AcDbLine
 10
60.493516
 20
-237.783604
 30
0.0
 11
72.693516
 21
-237.783604
 31
0.0
  0
LINE
  5
71
100
AcDbEntity
  8
1
100
AcDbLine
 10
71.593516
 20
-237.783604
 30
0.0
 11
71.593516
 21
-241.783604
 31
0.0
  0
ARC
  5
72
100
AcDbEntity
  8
1
100
AcDbCircle
 10
69.093516
 20
-235.170396
 30
0.0
 40
6.613208
100
AcDbArc
 50
247.788205
 51
292.211795
  0
LINE
  5
73
100
AcDbEntity
  8
1
100
AcDbLine
 10
61.593516
 20
-237.783604
 30
0.0
 11
61.593516
 21
-241.783604
 31
0.0
  0
LINE
  5
74
100
AcDbEntity
  8
1
100
AcDbLine
 10
61.593516
 20
-241.783604
 30
0.0
 11
71.593516
 21
-241.783604
 31
0.0
  0
LINE
  5
75
100
AcDbEntity
  8
1
100
AcDbLine
 10
66.593516
 20
-237.783604
 30
0.0
 11
66.593516
 21
-241.292856
 31
0.0
  0
ARC
  5
76
100
AcDbEntity
  8
1
100
AcDbCircle
 10
64.093516
 20
-235.170396
 30
0.0
 40
6.613208
100
AcDbArc
 50
247.788205
 51
292.211795
  0
LINE
  5
77
100
AcDbEntity
  8
1
100
AcDbLine
 10
72.693516
 20
-236.283604
 30
0.0
 11
72.693516
 21
-237.783604
 31
0.0
  0
LINE
  5
78
100
AcDbEntity
  8
1
100
AcDbLine
 10
60.493516
 20
-237.783604
 30
0.0
 11
60.493516
 21
-236.283604
 31
0.0
  0
LINE
  5
79
100
AcDbEntity
  8
1
100
AcDbLine
 10
56.593516
 20
-230.883604
 30
0.0
 11
76.593516
 21
-230.883604
 31
0.0
  0
ARC
  5
7A
100
AcDbEntity
  8
1
100
AcDbCircle
 10
76.593516
 20
-227.883604
 30
0.0
 40
3.0
100
AcDbArc
 50
270.0
 51
360.0
  0
ARC
  5
7B
100
AcDbEntity
  8
1
100
AcDbCircle
 10
56.593516
 20
-227.883604
 30
0.0
 40
3.0
100
AcDbArc
 50
180.0
 51
270.0
  0
LINE
  5
7C
100
AcDbEntity
  8
1
100
AcDbLine
 10
75.182016
 20
-178.006969
 30
0.0
 11
75.182016
 21
-135.76024
 31
0.0
  0
LINE
  5
7D
100
AcDbEntity
  8
1
100
AcDbLine
 10
58.005016
 20
-178.006969
 30
0.0
 11
58.005016
 21
-135.76024
 31
0.0
  0
LINE
  5
7E
100
AcDbEntity
  8
1
100
AcDbLine
 10
75.969068
 20
-118.989033
 30
0.0
 11
75.182016
 21
-118.071104
 31
0.0
  0
LINE
  5
7F
100
AcDbEntity
  8
1
100
AcDbLine
 10
57.217964
 20
-118.989033
 30
0.0
 11
58.005016
 21
-118.071104
 31
0.0
  0
LINE
  5
80
100
AcDbEntity
  8
1
100
AcDbLine
 10
76.994228
 20
-101.275186
 30
0.0
 11
75.182016
 21
-111.133988
 31
0.0
  0
LINE
  5
81
100
AcDbEntity
  8
1
100
AcDbLine
 10
56.192804
 20
-101.275186
 30
0.0
 11
58.005016
 21
-111.133988
 31
0.0
  0
ARC
  5
82
100
AcDbEntity
  8
1
100
AcDbCircle
 10
71.713458
 20
-114.602546
 30
0.0
 40
3.468558
100
AcDbArc
 50
270.0
 51
77.681338
  0
ARC
  5
83
100
AcDbEntity
  8
1
100
AcDbCircle
 10
61.473574
 20
-114.602546
 30
0.0
 40
3.468558
100
AcDbArc
 50
102.318662
 51
270.0
  0
LINE
  5
84
100
AcDbEntity
  8
1
100
AcDbLine
 10
61.473574
 20
-118.071104
 30
0.0
 11
71.713458
 21
-118.071104
 31
0.0
  0
LINE
  5
85
100
AcDbEntity
  8
1
100
AcDbLine
 10
61.593516
 20
-132.17174
 30
0.0
 11
71.593516
 21
-132.17174
 31
0.0
  0
ARC
  5
86
100
AcDbEntity
  8
1
100
AcDbCircle
 10
71.593516
 20
-135.76024
 30
0.0
 40
3.5885
100
AcDbArc
 50
0.0
 51
90.0
  0
ARC
  5
87
100
AcDbEntity
  8
1
100
AcDbCircle
 10
61.593516
 20
-135.76024
 30
0.0
 40
3.5885
100
AcDbArc
 50
90.0
 51
180.0
  0
LINE
  5
88
100
AcDbEntity
  8
1
100
AcDbLine
 10
61.593516
 20
-181.595469
 30
0.0
 11
71.593516
 21
-181.595469
 31
0.0
  0
ARC
  5
89
100
AcDbEntity
  8
1
100
AcDbCircle
 10
71.593516
 20
-178.006969
 30
0.0
 40
3.5885
100
AcDbArc
 50
270.0
 51
360.0
  0
ARC
  5
8A
100
AcDbEntity
  8
1
100
AcDbCircle
 10
61.593516
 20
-178.006969
 30
0.0
 40
3.5885
100
AcDbArc
 50
180.0
 51
270.0
  0
LINE
  5
8B
100
AcDbEntity
  8
1
100
AcDbLine
 10
75.182016
 20
-132.17174
 30
0.0
 11
76.667703
 21
-127.681633
 31
0.0
  0
LINE
  5
8C
100
AcDbEntity
  8
1
100
AcDbLine
 10
58.005016
 20
-132.17174
 30
0.0
 11
56.519328
 21
-127.681633
 31
0.0
  0
LINE
  5
8D
100
AcDbEntity
  8
1
100
AcDbLine
 10
56.519328
 20
-186.085575
 30
0.0
 11
58.005016
 21
-181.595469
 31
0.0
  0
LINE
  5
8E
100
AcDbEntity
  8
1
100
AcDbLine
 10
75.182016
 20
-181.595469
 30
0.0
 11
76.667703
 21
-186.085575
 31
0.0
  0
LINE
  5
8F
100
AcDbEntity
  8
1
100
AcDbLine
 10
75.969068
 20
-194.778176
 30
0.0
 11
75.182016
 21
-195.696104
 31
0.0
  0
LINE
  5
90
100
AcDbEntity
  8
1
100
AcDbLine
 10
57.217964
 20
-194.778176
 30
0.0
 11
58.005016
 21
-195.696104
 31
0.0
  0
LINE
  5
91
100
AcDbEntity
  8
1
100
AcDbLine
 10
56.190267
 20
-212.563772
 30
0.0
 11
58.005016
 21
-202.63322
 31
0.0
  0
LINE
  5
92
100
AcDbEntity
  8
1
100
AcDbLine
 10
76.996765
 20
-212.563772
 30
0.0
 11
75.182016
 21
-202.63322
 31
0.0
  0
ARC
  5
93
100
AcDbEntity
  8
1
100
AcDbCircle
 10
61.473574
 20
-199.164662
 30
0.0
 40
3.468558
100
AcDbArc
 50
90.0
 51
257.681338
  0
ARC
  5
94
100
AcDbEntity
  8
1
100
AcDbCircle
 10
71.713458
 20
-199.164662
 30
0.0
 40
3.468558
100
AcDbArc
 50
282.318662
 51
90.0
  0
LINE
  5
95
100
AcDbEntity
  8
1
100
AcDbLine
 10
61.473574
 20
-195.696104
 30
0.0
 11
71.713458
 21
-195.696104
 31
0.0
  0
LINE
  5
96
100
AcDbEntity
  8
1
100
AcDbLine
 10
42.468516
 20
-100.833604
 30
0.0
 11
42.468516
 21
-212.933604
 31
0.0
  0
LINE
  5
97
100
AcDbEntity
  8
1
100
AcDbLine
 10
90.718516
 20
-100.833604
 30
0.0
 11
90.718516
 21
-212.933604
 31
0.0
  0
LINE
  5
98
100
AcDbEntity
  8
1
100
AcDbLine
 10
90.718516
 20
-100.833604
 30
0.0
 11
89.882138
 21
-99.383882
 31
0.0
  0
LINE
  5
99
100
AcDbEntity
  8
1
100
AcDbLine
 10
42.468516
 20
-100.833604
 30
0.0
 11
43.304894
 21
-99.383882
 31
0.0
  0
ARC
  5
9A
100
AcDbEntity
  8
1
100
AcDbCircle
 10
89.015952
 20
-99.883604
 30
0.0
 40
1.0
100
AcDbArc
 50
29.981639
 51
54.720616
  0
ARC
  5
9B
100
AcDbEntity
  8
1
100
AcDbCircle
 10
44.17108
 20
-99.883604
 30
0.0
 40
1.0
100
AcDbArc
 50
125.279384
 51
150.018361
  0
LINE
  5
9C
100
AcDbEntity
  8
1
100
AcDbLine
 10
90.718516
 20
-212.933604
 30
0.0
 11
89.882138
 21
-214.383327
 31
0.0
  0
LINE
  5
9D
100
AcDbEntity
  8
1
100
AcDbLine
 10
42.468516
 20
-212.933604
 30
0.0
 11
43.304894
 21
-214.383327
 31
0.0
  0
ARC
  5
9E
100
AcDbEntity
  8
1
100
AcDbCircle
 10
89.015952
 20
-213.883604
 30
0.0
 40
1.0
100
AcDbArc
 50
305.279384
 51
330.018361
  0
ARC
  5
9F
100
AcDbEntity
  8
1
100
AcDbCircle
 10
44.17108
 20
-213.883604
 30
0.0
 40
1.0
100
AcDbArc
 50
209.981639
 51
234.720616
  0
LINE
  5
A0
100
AcDbEntity
  8
1
100
AcDbLine
 10
-274.156484
 20
166.008062
 30
0.0
 11
-275.606207
 21
165.171684
 31
0.0
  0
LINE
  5
A1
100
AcDbEntity
  8
1
100
AcDbLine
 10
-274.156484
 20
117.758062
 30
0.0
 11
-275.606207
 21
118.594441
 31
0.0
  0
ARC
  5
A2
100
AcDbEntity
  8
1
100
AcDbCircle
 10
-275.106484
 20
164.305499
 30
0.0
 40
1.0
100
AcDbArc
 50
119.981639
 51
144.720616
  0
ARC
  5
A3
100
AcDbEntity
  8
1
100
AcDbCircle
 10
-275.106484
 20
119.460626
 30
0.0
 40
1.0
100
AcDbArc
 50
215.279384
 51
240.018361
  0
LINE
  5
A4
100
AcDbEntity
  8
1
100
AcDbLine
 10
-162.056484
 20
166.008062
 30
0.0
 11
-160.606762
 21
165.171684
 31
0.0
  0
LINE
  5
A5
100
AcDbEntity
  8
1
100
AcDbLine
 10
-162.056484
 20
117.758062
 30
0.0
 11
-160.606762
 21
118.594441
 31
0.0
  0
ARC
  5
A6
100
AcDbEntity
  8
1
100
AcDbCircle
 10
-161.106484
 20
164.305499
 30
0.0
 40
1.0
100
AcDbArc
 50
35.279384
 51
60.018361
  0
ARC
  5
A7
100
AcDbEntity
  8
1
100
AcDbCircle
 10
-161.106484
 20
119.460626
 30
0.0
 40
1.0
100
AcDbArc
 50
299.981639
 51
324.720616
  0
ARC
  5
A8
100
AcDbEntity
  8
1
100
AcDbCircle
 10
-249.106484
 20
-8.883604
 30
0.0
 40
4.0
100
AcDbArc
 50
180.0
 51
270.0
  0
ARC
  5
A9
100
AcDbEntity
  8
1
100
AcDbCircle
 10
-187.106484
 20
-8.883604
 30
0.0
 40
4.0
100
AcDbArc
 50
270.0
 51
0.0
  0
ARC
  5
AA
100
AcDbEntity
  8
1
100
AcDbCircle
 10
-194.106484
 20
-20.883604
 30
0.0
 40
8.0
100
AcDbArc
 50
90.0
 51
180.0
  0
ARC
  5
AB
100
AcDbEntity
  8
1
100
AcDbCircle
 10
-242.106484
 20
-20.883604
 30
0.0
 40
8.0
100
AcDbArc
 50
0.0
 51
32.444893
  0
ARC
  5
AC
100
AcDbEntity
  8
1
100
AcDbCircle
 10
-184.106484
 20
-30.678099
 30
0.0
 40
18.0
100
AcDbArc
 50
97.83748
 51
180.0
  0
ARC
  5
AD
100
AcDbEntity
  8
1
100
AcDbCircle
 10
-252.106484
 20
-30.678099
 30
0.0
 40
18.0
100
AcDbArc
 50
0.0
 51
34.883969
  0
LINE
  5
AE
100
AcDbEntity
  8
1
100
AcDbLine
 10
-214.606484
 20
-30.678099
 30
0.0
 11
-221.606484
 21
-30.678099
 31
0.0
  0
LINE
  5
AF
100
AcDbEntity
  8
1
100
AcDbLine
 10
-221.606484
 20
-15.883604
 30
0.0
 11
-221.606484
 21
-27.678099
 31
0.0
  0
LINE
  5
B0
100
AcDbEntity
  8
1
100
AcDbLine
 10
-214.606484
 20
-15.883604
 30
0.0
 11
-214.606484
 21
-27.678099
 31
0.0
  0
ARC
  5
B1
100
AcDbEntity
  8
1
100
AcDbCircle
 10
-211.606484
 20
-15.883604
 30
0.0
 40
3.0
100
AcDbArc
 50
90.0
 51
180.0
  0
ARC
  5
B2
100
AcDbEntity
  8
1
100
AcDbCircle
 10
-224.606484
 20
-15.883604
 30
0.0
 40
3.0
100
AcDbArc
 50
360.0
 51
90.0
  0
ARC
  5
B3
100
AcDbEntity
  8
1
100
AcDbCircle
 10
-224.606484
 20
-27.678099
 30
0.0
 40
3.0
100
AcDbArc
 50
270.0
 51
0.0
  0
ARC
  5
B4
100
AcDbEntity
  8
1
100
AcDbCircle
 10
-211.606484
 20
-27.678099
 30
0.0
 40
3.0
100
AcDbArc
 50
180.0
 51
270.0
  0
ARC
  5
B5
100
AcDbEntity
  8
1
100
AcDbCircle
 10
-192.106484
 20
-88.670702
 30
0.0
 40
10.0
100
AcDbArc
 50
180.0
 51
249.135176
  0
ARC
  5
B6
100
AcDbEntity
  8
1
100
AcDbCircle
 10
-244.106484
 20
-88.670702
 30
0.0
 40
10.0
100
AcDbArc
 50
290.864824
 51
360.0
  0
ARC
  5
B7
100
AcDbEntity
  8
1
100
AcDbCircle
 10
-218.106484
 20
-151.883604
 30
0.0
 40
90.0
100
AcDbArc
 50
68.89028
 51
74.929938
  0
ARC
  5
B8
100
AcDbEntity
  8
1
100
AcDbCircle
 10
-218.106484
 20
-151.883604
 30
0.0
 40
90.0
100
AcDbArc
 50
105.070062
 51
111.10972
  0
ARC
  5
B9
100
AcDbEntity
  8
1
100
AcDbCircle
 10
-192.106484
 20
-55.322743
 30
0.0
 40
10.0
100
AcDbArc
 50
180.0
 51
254.929938
  0
ARC
  5
BA
100
AcDbEntity
  8
1
100
AcDbCircle
 10
-244.106484
 20
-55.322743
 30
0.0
 40
10.0
100
AcDbArc
 50
285.070062
 51
360.0
  0
LINE
  5
BB
100
AcDbEntity
  8
1
100
AcDbLine
 10
-251.741984
 20
-75.680324
 30
0.0
 11
-252.775338
 21
-73.185587
 31
0.0
  0
LINE
  5
BC
100
AcDbEntity
  8
1
100
AcDbLine
 10
-184.470984
 20
-75.680324
 30
0.0
 11
-183.43763
 21
-73.185587
 31
0.0
  0
ARC
  5
BD
100
AcDbEntity
  8
1
100
AcDbCircle
 10
-218.106484
 20
-156.883604
 30
0.0
 40
65.5
100
AcDbArc
 50
65.592531
 51
67.5
  0
ARC
  5
BE
100
AcDbEntity
  8
1
100
AcDbCircle
 10
-218.106484
 20
-156.883604
 30
0.0
 40
65.5
100
AcDbArc
 50
112.5
 51
114.407469
  0
ARC
  5
BF
100
AcDbEntity
  8
1
100
AcDbCircle
 10
-189.405227
 20
-87.592639
 30
0.0
 40
9.5
100
AcDbArc
 50
84.735285
 51
247.5
  0
ARC
  5
C0
100
AcDbEntity
  8
1
100
AcDbCircle
 10
-246.807742
 20
-87.592639
 30
0.0
 40
9.5
100
AcDbArc
 50
292.5
 51
95.264715
  0
ARC
  5
C1
100
AcDbEntity
  8
1
100
AcDbCircle
 10
-187.133148
 20
-71.654853
 30
0.0
 40
4.0
100
AcDbArc
 50
337.5
 51
68.89028
  0
ARC
  5
C2
100
AcDbEntity
  8
1
100
AcDbCircle
 10
-188.166502
 20
-74.14959
 30
0.0
 40
4.0
100
AcDbArc
 50
264.735285
 51
337.5
  0
ARC
  5
C3
100
AcDbEntity
  8
1
100
AcDbCircle
 10
-249.07982
 20
-71.654853
 30
0.0
 40
4.0
100
AcDbArc
 50
111.10972
 51
202.5
  0
ARC
  5
C4
100
AcDbEntity
  8
1
100
AcDbCircle
 10
-248.046466
 20
-74.14959
 30
0.0
 40
4.0
100
AcDbArc
 50
202.5
 51
275.264715
  0
ARC
  5
C5
100
AcDbEntity
  8
1
100
AcDbCircle
 10
-193.106484
 20
-101.790501
 30
0.0
 40
5.0
100
AcDbArc
 50
3.562471
 51
65.592531
  0
ARC
  5
C6
100
AcDbEntity
  8
1
100
AcDbCircle
 10
-243.106484
 20
-101.790501
 30
0.0
 40
5.0
100
AcDbArc
 50
114.407469
 51
176.437529
  0
LINE
  5
C7
100
AcDbEntity
  8
1
100
AcDbLine
 10
-237.106484
 20
-233.883604
 30
0.0
 11
-199.106484
 21
-233.883604
 31
0.0
  0
LINE
  5
C8
100
AcDbEntity
  8
1
100
AcDbLine
 10
-237.106484
 20
-220.507499
 30
0.0
 11
-237.106484
 21
-236.283604
 31
0.0
  0
LINE
  5
C9
100
AcDbEntity
  8
1
100
AcDbLine
 10
-199.106484
 20
-220.507499
 30
0.0
 11
-199.106484
 21
-236.283604
 31
0.0
  0
ARC
  5
CA
100
AcDbEntity
  8
1
100
AcDbCircle
 10
-194.106484
 20
-220.507499
 30
0.0
 40
5.0
100
AcDbArc
 50
110.667316
 51
180.0
  0
ARC
  5
CB
100
AcDbEntity
  8
1
100
AcDbCircle
 10
-242.106484
 20
-220.507499
 30
0.0
 40
5.0
100
AcDbArc
 50
0.0
 51
69.332684
  0
LINE
  5
CC
100
AcDbEntity
  8
1
100
AcDbLine
 10
-234.106484
 20
-230.883604
 30
0.0
 11
-202.106484
 21
-230.883604
 31
0.0
  0
ARC
  5
CD
100
AcDbEntity
  8
1
100
AcDbCircle
 10
-202.106484
 20
-227.883604
 30
0.0
 40
3.0
100
AcDbArc
 50
270.0
 51
360.0
  0
ARC
  5
CE
100
AcDbEntity
  8
1
100
AcDbCircle
 10
-234.106484
 20
-227.883604
 30
0.0
 40
3.0
100
AcDbArc
 50
180.0
 51
270.0
  0
ARC
  5
CF
100
AcDbEntity
  8
1
100
AcDbCircle
 10
-218.106484
 20
-156.883604
 30
0.0
 40
65.5
100
AcDbArc
 50
244.405448
 51
247.666317
  0
ARC
  5
D0
100
AcDbEntity
  8
1
100
AcDbCircle
 10
-218.106484
 20
-156.883604
 30
0.0
 40
65.5
100
AcDbArc
 50
292.333683
 51
295.594552
  0
ARC
  5
D1
100
AcDbEntity
  8
1
100
AcDbCircle
 10
-189.606484
 20
-226.257591
 30
0.0
 40
9.5
100
AcDbArc
 50
112.333683
 51
180.0
  0
ARC
  5
D2
100
AcDbEntity
  8
1
100
AcDbCircle
 10
-246.606484
 20
-226.257591
 30
0.0
 40
9.5
100
AcDbArc
 50
0.0
 51
67.666317
  0
LINE
  5
D3
100
AcDbEntity
  8
1
100
AcDbLine
 10
-248.106484
 20
-212.28216
 30
0.0
 11
-248.106484
 21
-213.250705
 31
0.0
  0
LINE
  5
D4
100
AcDbEntity
  8
1
100
AcDbLine
 10
-188.106484
 20
-212.28216
 30
0.0
 11
-188.106484
 21
-213.250705
 31
0.0
  0
ARC
  5
D5
100
AcDbEntity
  8
1
100
AcDbCircle
 10
-191.106484
 20
-213.250705
 30
0.0
 40
3.0
100
AcDbArc
 50
295.594552
 51
360.0
  0
ARC
  5
D6
100
AcDbEntity
  8
1
100
AcDbCircle
 10
-245.106484
 20
-213.250705
 30
0.0
 40
3.0
100
AcDbArc
 50
180.0
 51
244.405448
  0
LINE
  5
D7
100
AcDbEntity
  8
1
  6
CENTER
 62
     2
100
AcDbLine
 10
-205.106484
 20
-225.739996
 30
0.0
 11
-205.106484
 21
-245.900396
 31
0.0
  0
LINE
  5
D8
100
AcDbEntity
  8
1
  6
CENTER
 62
     2
100
AcDbLine
 10
-231.106484
 20
-225.739996
 30
0.0
 11
-231.106484
 21
-245.900396
 31
0.0
  0
LINE
  5
D9
100
AcDbEntity
  8
1
100
AcDbLine
 10
-237.106484
 20
-234.683604
 30
0.0
 11
-199.106484
 21
-234.683604
 31
0.0
  0
LINE
  5
DA
100
AcDbEntity
  8
1
100
AcDbLine
 10
-237.206484
 20
-236.283604
 30
0.0
 11
-199.006484
 21
-236.283604
 31
0.0
  0
ARC
  5
DB
100
AcDbEntity
  8
1
100
AcDbCircle
 10
35.593516
 20
-8.883604
 30
0.0
 40
4.0
100
AcDbArc
 50
180.0
 51
270.0
  0
ARC
  5
DC
100
AcDbEntity
  8
1
100
AcDbCircle
 10
97.593516
 20
-8.883604
 30
0.0
 40
4.0
100
AcDbArc
 50
270.0
 51
0.0
  0
ARC
  5
DD
100
AcDbEntity
  8
1
100
AcDbCircle
 10
90.593516
 20
-20.883604
 30
0.0
 40
8.0
100
AcDbArc
 50
135.964383
 51
180.0
  0
ARC
  5
DE
100
AcDbEntity
  8
1
100
AcDbCircle
 10
42.593516
 20
-20.883604
 30
0.0
 40
8.0
100
AcDbArc
 50
0.0
 51
90.0
  0
ARC
  5
DF
100
AcDbEntity
  8
1
100
AcDbCircle
 10
100.593516
 20
-30.678099
 30
0.0
 40
18.0
100
AcDbArc
 50
145.116031
 51
180.0
  0
ARC
  5
E0
100
AcDbEntity
  8
1
100
AcDbCircle
 10
32.593516
 20
-30.678099
 30
0.0
 40
18.0
100
AcDbArc
 50
0.0
 51
82.16252
  0
LINE
  5
E1
100
AcDbEntity
  8
1
100
AcDbLine
 10
70.093516
 20
-30.678099
 30
0.0
 11
63.093516
 21
-30.678099
 31
0.0
  0
LINE
  5
E2
100
AcDbEntity
  8
1
100
AcDbLine
 10
63.093516
 20
-15.883604
 30
0.0
 11
63.093516
 21
-27.678099
 31
0.0
  0
LINE
  5
E3
100
AcDbEntity
  8
1
100
AcDbLine
 10
70.093516
 20
-15.883604
 30
0.0
 11
70.093516
 21
-27.678099
 31
0.0
  0
ARC
  5
E4
100
AcDbEntity
  8
1
100
AcDbCircle
 10
73.093516
 20
-15.883604
 30
0.0
 40
3.0
100
AcDbArc
 50
90.0
 51
180.0
  0
ARC
  5
E5
100
AcDbEntity
  8
1
100
AcDbCircle
 10
60.093516
 20
-15.883604
 30
0.0
 40
3.0
100
AcDbArc
 50
360.0
 51
90.0
  0
ARC
  5
E6
100
AcDbEntity
  8
1
100
AcDbCircle
 10
60.093516
 20
-27.678099
 30
0.0
 40
3.0
100
AcDbArc
 50
270.0
 51
0.0
  0
ARC
  5
E7
100
AcDbEntity
  8
1
100
AcDbCircle
 10
73.093516
 20
-27.678099
 30
0.0
 40
3.0
100
AcDbArc
 50
180.0
 51
270.0
  0
LINE
  5
E8
100
AcDbEntity
  8
1
100
AcDbLine
 10
43.593516
 20
-94.883604
 30
0.0
 11
43.593516
 21
-218.883604
 31
0.0
  0
LINE
  5
E9
100
AcDbEntity
  8
1
100
AcDbLine
 10
89.593516
 20
-94.883604
 30
0.0
 11
89.593516
 21
-218.883604
 31
0.0
  0
LINE
  5
EA
100
AcDbEntity
  8
1
100
AcDbLine
 10
43.593516
 20
-218.883604
 30
0.0
 11
44.593516
 21
-219.883604
 31
0.0
  0
LINE
  5
EB
100
AcDbEntity
  8
1
100
AcDbLine
 10
89.593516
 20
-218.883604
 30
0.0
 11
88.593516
 21
-219.883604
 31
0.0
  0
LINE
  5
EC
100
AcDbEntity
  8
1
100
AcDbLine
 10
89.593516
 20
-94.883604
 30
0.0
 11
88.593516
 21
-93.883604
 31
0.0
  0
LINE
  5
ED
100
AcDbEntity
  8
1
100
AcDbLine
 10
43.593516
 20
-94.883604
 30
0.0
 11
44.593516
 21
-93.883604
 31
0.0
  0
LINE
  5
EE
100
AcDbEntity
  8
1
100
AcDbLine
 10
44.593516
 20
-93.883604
 30
0.0
 11
44.593516
 21
-219.883604
 31
0.0
  0
LINE
  5
EF
100
AcDbEntity
  8
1
100
AcDbLine
 10
88.593516
 20
-93.883604
 30
0.0
 11
88.593516
 21
-219.883604
 31
0.0
  0
ARC
  5
F0
100
AcDbEntity
  8
1
100
AcDbCircle
 10
86.593516
 20
-89.883604
 30
0.0
 40
4.0
100
AcDbArc
 50
180.0
 51
270.0
  0
ARC
  5
F1
100
AcDbEntity
  8
1
100
AcDbCircle
 10
46.593516
 20
-89.883604
 30
0.0
 40
4.0
100
AcDbArc
 50
270.0
 51
360.0
  0
LINE
  5
F2
100
AcDbEntity
  8
1
100
AcDbLine
 10
86.593516
 20
-93.883604
 30
0.0
 11
88.593516
 21
-93.883604
 31
0.0
  0
LINE
  5
F3
100
AcDbEntity
  8
1
100
AcDbLine
 10
44.593516
 20
-93.883604
 30
0.0
 11
46.593516
 21
-93.883604
 31
0.0
  0
ARC
  5
F4
100
AcDbEntity
  8
1
100
AcDbCircle
 10
46.593516
 20
-94.014935
 30
0.0
 40
4.0
100
AcDbArc
 50
270.0
 51
360.0
  0
ARC
  5
F5
100
AcDbEntity
  8
1
100
AcDbCircle
 10
86.593516
 20
-94.014935
 30
0.0
 40
4.0
100
AcDbArc
 50
180.0
 51
270.0
  0
LINE
  5
F6
100
AcDbEntity
  8
1
100
AcDbLine
 10
53.593516
 20
-233.883604
 30
0.0
 11
79.593516
 21
-233.883604
 31
0.0
  0
LINE
  5
F7
100
AcDbEntity
  8
1
100
AcDbLine
 10
53.593516
 20
-219.829272
 30
0.0
 11
53.593516
 21
-236.283604
 31
0.0
  0
LINE
  5
F8
100
AcDbEntity
  8
1
100
AcDbLine
 10
79.593516
 20
-219.829272
 30
0.0
 11
79.593516
 21
-236.283604
 31
0.0
  0
ARC
  5
F9
100
AcDbEntity
  8
1
100
AcDbCircle
 10
83.593516
 20
-223.883604
 30
0.0
 40
4.0
100
AcDbArc
 50
90.0
 51
180.0
  0
ARC
  5
FA
100
AcDbEntity
  8
1
100
AcDbCircle
 10
49.593516
 20
-223.883604
 30
0.0
 40
4.0
100
AcDbArc
 50
0.0
 51
90.0
  0
LINE
  5
FB
100
AcDbEntity
  8
1
100
AcDbLine
 10
44.593516
 20
-219.883604
 30
0.0
 11
49.593516
 21
-219.883604
 31
0.0
  0
LINE
  5
FC
100
AcDbEntity
  8
1
100
AcDbLine
 10
83.593516
 20
-219.883604
 30
0.0
 11
88.593516
 21
-219.883604
 31
0.0
  0
ARC
  5
FD
100
AcDbEntity
  8
1
100
AcDbCircle
 10
83.593516
 20
-219.829272
 30
0.0
 40
4.0
100
AcDbArc
 50
90.0
 51
180.0
  0
ARC
  5
FE
100
AcDbEntity
  8
1
100
AcDbCircle
 10
49.593516
 20
-219.829272
 30
0.0
 40
4.0
100
AcDbArc
 50
0.0
 51
90.0
  0
LINE
  5
FF
100
AcDbEntity
  8
1
100
AcDbLine
 10
53.593516
 20
-234.683604
 30
0.0
 11
79.593516
 21
-234.683604
 31
0.0
  0
LINE
  5
100
100
AcDbEntity
  8
1
100
AcDbLine
 10
53.593516
 20
-236.283604
 30
0.0
 11
79.593516
 21
-236.283604
 31
0.0
  0
LINE
  5
101
100
AcDbEntity
  8
1
100
AcDbLine
 10
-155.106484
 20
163.883062
 30
0.0
 11
-156.106484
 21
164.883062
 31
0.0
  0
LINE
  5
102
100
AcDbEntity
  8
1
100
AcDbLine
 10
-155.106484
 20
119.883062
 30
0.0
 11
-156.106484
 21
118.883062
 31
0.0
  0
LINE
  5
103
100
AcDbEntity
  8
1
100
AcDbLine
 10
61.593516
 20
-120.883604
 30
0.0
 11
71.593516
 21
-120.883604
 31
0.0
  0
LINE
  5
104
100
AcDbEntity
  8
1
100
AcDbLine
 10
61.593516
 20
-124.883604
 30
0.0
 11
71.593516
 21
-124.883604
 31
0.0
  0
LINE
  5
105
100
AcDbEntity
  8
1
100
AcDbLine
 10
61.593516
 20
-188.883604
 30
0.0
 11
71.593516
 21
-188.883604
 31
0.0
  0
LINE
  5
106
100
AcDbEntity
  8
1
100
AcDbLine
 10
61.593516
 20
-192.883604
 30
0.0
 11
71.593516
 21
-192.883604
 31
0.0
  0
LINE
  5
107
100
AcDbEntity
  8
1
100
AcDbLine
 10
77.593516
 20
-114.883604
 30
0.0
 11
77.593516
 21
-103.889055
 31
0.0
  0
LINE
  5
108
100
AcDbEntity
  8
1
100
AcDbLine
 10
55.593516
 20
-114.883604
 30
0.0
 11
55.593516
 21
-103.889055
 31
0.0
  0
LINE
  5
109
100
AcDbEntity
  8
1
100
AcDbLine
 10
77.593516
 20
-209.955152
 30
0.0
 11
77.593516
 21
-198.883604
 31
0.0
  0
LINE
  5
10A
100
AcDbEntity
  8
1
100
AcDbLine
 10
77.593516
 20
-182.883604
 30
0.0
 11
77.593516
 21
-130.883604
 31
0.0
  0
LINE
  5
10B
100
AcDbEntity
  8
1
100
AcDbLine
 10
55.593516
 20
-209.955152
 30
0.0
 11
55.593516
 21
-198.883604
 31
0.0
  0
LINE
  5
10C
100
AcDbEntity
  8
1
100
AcDbLine
 10
55.593516
 20
-182.883604
 30
0.0
 11
55.593516
 21
-130.883604
 31
0.0
  0
ARC
  5
10D
100
AcDbEntity
  8
1
100
AcDbCircle
 10
61.593516
 20
-130.883604
 30
0.0
 40
6.0
100
AcDbArc
 50
90.0
 51
180.0
  0
ARC
  5
10E
100
AcDbEntity
  8
1
100
AcDbCircle
 10
71.593516
 20
-130.883604
 30
0.0
 40
6.0
100
AcDbArc
 50
0.0
 51
90.0
  0
ARC
  5
10F
100
AcDbEntity
  8
1
100
AcDbCircle
 10
71.593516
 20
-182.883604
 30
0.0
 40
6.0
100
AcDbArc
 50
270.0
 51
360.0
  0
ARC
  5
110
100
AcDbEntity
  8
1
100
AcDbCircle
 10
61.593516
 20
-182.883604
 30
0.0
 40
6.0
100
AcDbArc
 50
180.0
 51
270.0
  0
ARC
  5
111
100
AcDbEntity
  8
1
100
AcDbCircle
 10
61.593516
 20
-198.883604
 30
0.0
 40
6.0
100
AcDbArc
 50
90.0
 51
180.0
  0
ARC
  5
112
100
AcDbEntity
  8
1
100
AcDbCircle
 10
71.593516
 20
-198.883604
 30
0.0
 40
6.0
100
AcDbArc
 50
0.0
 51
90.0
  0
ARC
  5
113
100
AcDbEntity
  8
1
100
AcDbCircle
 10
71.593516
 20
-114.883604
 30
0.0
 40
6.0
100
AcDbArc
 50
270.0
 51
360.0
  0
ARC
  5
114
100
AcDbEntity
  8
1
100
AcDbCircle
 10
61.593516
 20
-114.883604
 30
0.0
 40
6.0
100
AcDbArc
 50
180.0
 51
270.0
  0
CIRCLE
  5
115
100
AcDbEntity
  8
1
100
AcDbCircle
 10
-218.106484
 20
-156.883604
 30
0.0
 40
63.0
  0
LINE
  5
116
100
AcDbEntity
  8
1
100
AcDbLine
 10
-163.83863
 20
136.883062
 30
0.0
 11
-163.83863
 21
146.883062
 31
0.0
  0
LINE
  5
117
100
AcDbEntity
  8
1
100
AcDbLine
 10
-166.40542
 20
136.883062
 30
0.0
 11
-166.40542
 21
146.883062
 31
0.0
  0
ARC
  5
118
100
AcDbEntity
  8
1
100
AcDbCircle
 10
-172.40542
 20
146.883062
 30
0.0
 40
6.0
100
AcDbArc
 50
0.0
 51
90.0
  0
ARC
  5
119
100
AcDbEntity
  8
1
100
AcDbCircle
 10
-172.40542
 20
136.883062
 30
0.0
 40
6.0
100
AcDbArc
 50
270.0
 51
360.0
  0
LINE
  5
11A
100
AcDbEntity
  8
1
100
AcDbLine
 10
-158.812389
 20
151.890068
 30
0.0
 11
-159.659398
 21
151.663113
 31
0.0
  0
LINE
  5
11B
100
AcDbEntity
  8
1
100
AcDbLine
 10
-158.812389
 20
131.876057
 30
0.0
 11
-159.659398
 21
132.103012
 31
0.0
  0
ARC
  5
11C
100
AcDbEntity
  8
1
100
AcDbCircle
 10
-157.83863
 20
136.883062
 30
0.0
 40
6.0
100
AcDbArc
 50
180.0
 51
189.755138
  0
LINE
  5
11D
100
AcDbEntity
  8
1
100
AcDbLine
 10
-155.106484
 20
119.883062
 30
0.0
 11
-155.106484
 21
127.046428
 31
0.0
  0
LINE
  5
11E
100
AcDbEntity
  8
1
100
AcDbLine
 10
-155.106484
 20
156.719697
 30
0.0
 11
-155.106484
 21
163.883062
 31
0.0
  0
ARC
  5
11F
100
AcDbEntity
  8
1
100
AcDbCircle
 10
-160.106484
 20
156.719697
 30
0.0
 40
5.0
100
AcDbArc
 50
285.0
 51
0.0
  0
ARC
  5
120
100
AcDbEntity
  8
1
100
AcDbCircle
 10
-160.106484
 20
127.046428
 30
0.0
 40
5.0
100
AcDbArc
 50
0.0
 51
75.0
  0
ARC
  5
121
100
AcDbEntity
  8
1
100
AcDbCircle
 10
-158.106484
 20
145.867558
 30
0.0
 40
6.0
100
AcDbArc
 50
105.0
 51
160.202999
  0
ARC
  5
122
100
AcDbEntity
  8
1
100
AcDbCircle
 10
-158.106484
 20
137.898567
 30
0.0
 40
6.0
100
AcDbArc
 50
199.797001
 51
255.0
  0
LINE
  5
123
100
AcDbEntity
  8
1
  6
DASHED
100
AcDbLine
 10
-180.561979
 20
136.883062
 30
0.0
 11
-180.561979
 21
146.883062
 31
0.0
  0
ARC
  5
124
100
AcDbEntity
  8
1
  6
DASHED
100
AcDbCircle
 10
-184.150437
 20
146.883062
 30
0.0
 40
3.588457
100
AcDbArc
 50
360.0
 51
73.086983
  0
ARC
  5
125
100
AcDbEntity
  8
1
  6
DASHED
100
AcDbCircle
 10
-184.150437
 20
136.883062
 30
0.0
 40
3.588457
100
AcDbArc
 50
286.913017
 51
360.0
  0
ARC
  5
126
100
AcDbEntity
  8
1
100
AcDbCircle
 10
-157.83863
 20
146.883062
 30
0.0
 40
6.0
100
AcDbArc
 50
170.244862
 51
180.0
  0
LINE
  5
127
100
AcDbEntity
  8
1
100
AcDbLine
 10
63.093516
 20
-55.322743
 30
0.0
 11
70.093516
 21
-55.322743
 31
0.0
  0
LINE
  5
128
100
AcDbEntity
  8
1
100
AcDbLine
 10
63.093516
 20
-114.729868
 30
0.0
 11
70.093516
 21
-114.729868
 31
0.0
  0
LINE
  5
129
100
AcDbEntity
  8
1
100
AcDbLine
 10
63.093516
 20
-58.322743
 30
0.0
 11
63.093516
 21
-111.729868
 31
0.0
  0
LINE
  5
12A
100
AcDbEntity
  8
1
100
AcDbLine
 10
70.093516
 20
-58.322743
 30
0.0
 11
70.093516
 21
-111.729868
 31
0.0
  0
LINE
  5
12B
100
AcDbEntity
  8
1
100
AcDbLine
 10
50.593516
 20
-98.014935
 30
0.0
 11
60.093516
 21
-98.014935
 31
0.0
  0
LINE
  5
12C
100
AcDbEntity
  8
1
100
AcDbLine
 10
73.093516
 20
-98.014935
 30
0.0
 11
82.593516
 21
-98.014935
 31
0.0
  0
ARC
  5
12D
100
AcDbEntity
  8
1
100
AcDbCircle
 10
73.093516
 20
-95.014935
 30
0.0
 40
3.0
100
AcDbArc
 50
180.0
 51
270.0
  0
ARC
  5
12E
100
AcDbEntity
  8
1
100
AcDbCircle
 10
60.093516
 20
-95.014935
 30
0.0
 40
3.0
100
AcDbArc
 50
270.0
 51
360.0
  0
ARC
  5
12F
100
AcDbEntity
  8
1
100
AcDbCircle
 10
71.593516
 20
-103.889055
 30
0.0
 40
6.0
100
AcDbArc
 50
0.0
 51
80.405932
  0
ARC
  5
130
100
AcDbEntity
  8
1
100
AcDbCircle
 10
61.593516
 20
-103.889055
 30
0.0
 40
6.0
100
AcDbArc
 50
99.594068
 51
180.0
  0
ARC
  5
131
100
AcDbEntity
  8
1
100
AcDbCircle
 10
73.093516
 20
-58.322743
 30
0.0
 40
3.0
100
AcDbArc
 50
90.0
 51
180.0
  0
ARC
  5
132
100
AcDbEntity
  8
1
100
AcDbCircle
 10
60.093516
 20
-58.322743
 30
0.0
 40
3.0
100
AcDbArc
 50
0.0
 51
90.0
  0
ARC
  5
133
100
AcDbEntity
  8
1
100
AcDbCircle
 10
73.093516
 20
-108.28292
 30
0.0
 40
3.0
100
AcDbArc
 50
180.0
 51
257.681338
  0
ARC
  5
134
100
AcDbEntity
  8
1
100
AcDbCircle
 10
60.093516
 20
-108.28292
 30
0.0
 40
3.0
100
AcDbArc
 50
282.318662
 51
360.0
  0
ARC
  5
135
100
AcDbEntity
  8
1
100
AcDbCircle
 10
73.093516
 20
-111.729868
 30
0.0
 40
3.0
100
AcDbArc
 50
180.0
 51
270.0
  0
ARC
  5
136
100
AcDbEntity
  8
1
100
AcDbCircle
 10
60.093516
 20
-111.729868
 30
0.0
 40
3.0
100
AcDbArc
 50
270.0
 51
360.0
  0
LINE
  5
137
100
AcDbEntity
  8
1
100
AcDbLine
 10
66.093516
 20
-78.14959
 30
0.0
 11
67.093516
 21
-78.14959
 31
0.0
  0
LINE
  5
138
100
AcDbEntity
  8
1
100
AcDbLine
 10
66.093516
 20
-67.923283
 30
0.0
 11
67.093516
 21
-67.923283
 31
0.0
  0
LINE
  5
139
100
AcDbEntity
  8
1
100
AcDbLine
 10
66.093516
 20
-97.237352
 30
0.0
 11
67.093516
 21
-97.237352
 31
0.0
  0
ARC
  5
13A
100
AcDbEntity
  8
1
100
AcDbCircle
 10
67.093516
 20
-70.923283
 30
0.0
 40
3.0
100
AcDbArc
 50
0.0
 51
90.0
  0
ARC
  5
13B
100
AcDbEntity
  8
1
100
AcDbCircle
 10
66.093516
 20
-70.923283
 30
0.0
 40
3.0
100
AcDbArc
 50
90.0
 51
180.0
  0
ARC
  5
13C
100
AcDbEntity
  8
1
100
AcDbCircle
 10
66.093516
 20
-75.14959
 30
0.0
 40
3.0
100
AcDbArc
 50
180.0
 51
270.0
  0
ARC
  5
13D
100
AcDbEntity
  8
1
100
AcDbCircle
 10
67.093516
 20
-75.14959
 30
0.0
 40
3.0
100
AcDbArc
 50
270.0
 51
360.0
  0
ARC
  5
13E
100
AcDbEntity
  8
1
100
AcDbCircle
 10
67.093516
 20
-100.237352
 30
0.0
 40
3.0
100
AcDbArc
 50
0.0
 51
90.0
  0
ARC
  5
13F
100
AcDbEntity
  8
1
100
AcDbCircle
 10
66.093516
 20
-100.237352
 30
0.0
 40
3.0
100
AcDbArc
 50
90.0
 51
180.0
  0
LINE
  5
140
100
AcDbEntity
  8
1
100
AcDbLine
 10
63.093516
 20
-226.257591
 30
0.0
 11
70.093516
 21
-226.257591
 31
0.0
  0
LINE
  5
141
100
AcDbEntity
  8
1
100
AcDbLine
 10
63.093516
 20
-197.703263
 30
0.0
 11
70.093516
 21
-197.703263
 31
0.0
  0
LINE
  5
142
100
AcDbEntity
  8
1
100
AcDbLine
 10
63.093516
 20
-200.703263
 30
0.0
 11
63.093516
 21
-223.257591
 31
0.0
  0
LINE
  5
143
100
AcDbEntity
  8
1
100
AcDbLine
 10
70.093516
 20
-200.703263
 30
0.0
 11
70.093516
 21
-223.257591
 31
0.0
  0
ARC
  5
144
100
AcDbEntity
  8
1
100
AcDbCircle
 10
73.093516
 20
-223.257591
 30
0.0
 40
3.0
100
AcDbArc
 50
180.0
 51
270.0
  0
ARC
  5
145
100
AcDbEntity
  8
1
100
AcDbCircle
 10
60.093516
 20
-223.257591
 30
0.0
 40
3.0
100
AcDbArc
 50
270.0
 51
360.0
  0
ARC
  5
146
100
AcDbEntity
  8
1
100
AcDbCircle
 10
73.093516
 20
-200.703263
 30
0.0
 40
3.0
100
AcDbArc
 50
90.0
 51
180.0
  0
ARC
  5
147
100
AcDbEntity
  8
1
100
AcDbCircle
 10
60.093516
 20
-200.703263
 30
0.0
 40
3.0
100
AcDbArc
 50
360.0
 51
90.0
  0
LINE
  5
148
100
AcDbEntity
  8
1
100
AcDbLine
 10
53.593516
 20
-215.829272
 30
0.0
 11
60.093516
 21
-215.829272
 31
0.0
  0
LINE
  5
149
100
AcDbEntity
  8
1
100
AcDbLine
 10
73.093516
 20
-215.829272
 30
0.0
 11
79.593516
 21
-215.829272
 31
0.0
  0
ARC
  5
14A
100
AcDbEntity
  8
1
100
AcDbCircle
 10
73.093516
 20
-218.829272
 30
0.0
 40
3.0
100
AcDbArc
 50
90.0
 51
180.0
  0
ARC
  5
14B
100
AcDbEntity
  8
1
100
AcDbCircle
 10
60.093516
 20
-218.829272
 30
0.0
 40
3.0
100
AcDbArc
 50
0.0
 51
90.0
  0
ARC
  5
14C
100
AcDbEntity
  8
1
100
AcDbCircle
 10
73.093516
 20
-205.484289
 30
0.0
 40
3.0
100
AcDbArc
 50
102.318662
 51
180.0
  0
ARC
  5
14D
100
AcDbEntity
  8
1
100
AcDbCircle
 10
60.093516
 20
-205.484289
 30
0.0
 40
3.0
100
AcDbArc
 50
0.0
 51
77.681338
  0
ARC
  5
14E
100
AcDbEntity
  8
1
100
AcDbCircle
 10
71.593516
 20
-209.955152
 30
0.0
 40
6.0
100
AcDbArc
 50
279.594068
 51
360.0
  0
ARC
  5
14F
100
AcDbEntity
  8
1
100
AcDbCircle
 10
61.593516
 20
-209.955152
 30
0.0
 40
6.0
100
AcDbArc
 50
180.0
 51
260.405932
  0
LINE
  5
150
100
AcDbEntity
  8
1
100
AcDbLine
 10
66.093516
 20
-215.956325
 30
0.0
 11
67.093516
 21
-215.956325
 31
0.0
  0
ARC
  5
151
100
AcDbEntity
  8
1
100
AcDbCircle
 10
67.093516
 20
-212.956325
 30
0.0
 40
3.0
100
AcDbArc
 50
270.0
 51
360.0
  0
ARC
  5
152
100
AcDbEntity
  8
1
100
AcDbCircle
 10
66.093516
 20
-212.956325
 30
0.0
 40
3.0
100
AcDbArc
 50
180.0
 51
270.0
  0
CIRCLE
  5
153
100
AcDbEntity
  8
1
100
AcDbCircle
 10
-218.106484
 20
-156.883604
 30
0.0
 40
62.0
  0
LINE
  5
154
100
AcDbEntity
  8
1
100
AcDbLine
 10
-281.106484
 20
163.883062
 30
0.0
 11
-280.106484
 21
164.883062
 31
0.0
  0
LINE
  5
155
100
AcDbEntity
  8
1
100
AcDbLine
 10
-281.106484
 20
119.883062
 30
0.0
 11
-280.106484
 21
118.883062
 31
0.0
  0
LINE
  5
156
100
AcDbEntity
  8
1
100
AcDbLine
 10
-272.374338
 20
136.883062
 30
0.0
 11
-272.374338
 21
146.883062
 31
0.0
  0
LINE
  5
157
100
AcDbEntity
  8
1
100
AcDbLine
 10
-269.807548
 20
136.883062
 30
0.0
 11
-269.807548
 21
146.883062
 31
0.0
  0
ARC
  5
158
100
AcDbEntity
  8
1
100
AcDbCircle
 10
-263.807548
 20
146.883062
 30
0.0
 40
6.0
100
AcDbArc
 50
90.0
 51
180.0
  0
ARC
  5
159
100
AcDbEntity
  8
1
100
AcDbCircle
 10
-263.807548
 20
136.883062
 30
0.0
 40
6.0
100
AcDbArc
 50
180.0
 51
270.0
  0
LINE
  5
15A
100
AcDbEntity
  8
1
100
AcDbLine
 10
-277.400579
 20
151.890068
 30
0.0
 11
-276.55357
 21
151.663113
 31
0.0
  0
LINE
  5
15B
100
AcDbEntity
  8
1
100
AcDbLine
 10
-277.400579
 20
131.876057
 30
0.0
 11
-276.55357
 21
132.103012
 31
0.0
  0
ARC
  5
15C
100
AcDbEntity
  8
1
100
AcDbCircle
 10
-278.374338
 20
136.883062
 30
0.0
 40
6.0
100
AcDbArc
 50
350.244862
 51
360.0
  0
LINE
  5
15D
100
AcDbEntity
  8
1
100
AcDbLine
 10
-281.106484
 20
119.883062
 30
0.0
 11
-281.106484
 21
127.046428
 31
0.0
  0
LINE
  5
15E
100
AcDbEntity
  8
1
100
AcDbLine
 10
-281.106484
 20
156.719697
 30
0.0
 11
-281.106484
 21
163.883062
 31
0.0
  0
ARC
  5
15F
100
AcDbEntity
  8
1
100
AcDbCircle
 10
-276.106484
 20
156.719697
 30
0.0
 40
5.0
100
AcDbArc
 50
180.0
 51
255.0
  0
ARC
  5
160
100
AcDbEntity
  8
1
100
AcDbCircle
 10
-276.106484
 20
127.046428
 30
0.0
 40
5.0
100
AcDbArc
 50
105.0
 51
180.0
  0
ARC
  5
161
100
AcDbEntity
  8
1
100
AcDbCircle
 10
-278.106484
 20
145.867558
 30
0.0
 40
6.0
100
AcDbArc
 50
19.797001
 51
75.0
  0
ARC
  5
162
100
AcDbEntity
  8
1
100
AcDbCircle
 10
-278.106484
 20
137.898567
 30
0.0
 40
6.0
100
AcDbArc
 50
285.0
 51
340.202999
  0
LINE
  5
163
100
AcDbEntity
  8
1
  6
DASHED
100
AcDbLine
 10
-255.650989
 20
136.883062
 30
0.0
 11
-255.650989
 21
146.883062
 31
0.0
  0
ARC
  5
164
100
AcDbEntity
  8
1
  6
DASHED
100
AcDbCircle
 10
-252.062532
 20
146.883062
 30
0.0
 40
3.588457
100
AcDbArc
 50
106.913017
 51
180.0
  0
ARC
  5
165
100
AcDbEntity
  8
1
  6
DASHED
100
AcDbCircle
 10
-252.062532
 20
136.883062
 30
0.0
 40
3.588457
100
AcDbArc
 50
180.0
 51
253.086983
  0
ARC
  5
166
100
AcDbEntity
  8
1
100
AcDbCircle
 10
-278.374338
 20
146.883062
 30
0.0
 40
6.0
100
AcDbArc
 50
0.0
 51
9.755138
  0
CIRCLE
  5
167
100
AcDbEntity
  8
1
100
AcDbCircle
 10
-218.106484
 20
-156.883604
 30
0.0
 40
58.0
  0
CIRCLE
  5
168
100
AcDbEntity
  8
1
100
AcDbCircle
 10
-218.106484
 20
-156.883604
 30
0.0
 40
56.05
  0
CIRCLE
  5
169
100
AcDbEntity
  8
1
100
AcDbCircle
 10
-218.106484
 20
-156.883604
 30
0.0
 40
46.0
  0
CIRCLE
  5
16A
100
AcDbEntity
  8
1
100
AcDbCircle
 10
-218.106484
 20
-156.883604
 30
0.0
 40
42.0
  0
LINE
  5
16B
100
AcDbEntity
  8
1
100
AcDbLine
 10
-274.156484
 20
166.008062
 30
0.0
 11
-259.677728
 21
166.008062
 31
0.0
  0
LINE
  5
16C
100
AcDbEntity
  8
1
  6
DASHED
100
AcDbLine
 10
-259.677728
 20
166.008062
 30
0.0
 11
-253.106484
 21
166.008062
 31
0.0
  0
LINE
  5
16D
100
AcDbEntity
  8
1
100
AcDbLine
 10
-280.106484
 20
164.883062
 30
0.0
 11
-259.775282
 21
164.883062
 31
0.0
  0
LINE
  5
16E
100
AcDbEntity
  8
1
  6
DASHED
100
AcDbLine
 10
-259.775282
 20
164.883062
 30
0.0
 11
-253.106484
 21
164.883062
 31
0.0
  0
LINE
  5
16F
100
AcDbEntity
  8
1
100
AcDbLine
 10
-281.106484
 20
163.883062
 30
0.0
 11
-259.861997
 21
163.883062
 31
0.0
  0
LINE
  5
170
100
AcDbEntity
  8
1
  6
DASHED
100
AcDbLine
 10
-259.861997
 20
163.883062
 30
0.0
 11
-253.106484
 21
163.883062
 31
0.0
  0
LINE
  5
171
100
AcDbEntity
  8
1
100
AcDbLine
 10
-263.807548
 20
152.883062
 30
0.0
 11
-260.815862
 21
152.883062
 31
0.0
  0
LINE
  5
172
100
AcDbEntity
  8
1
  6
DASHED
100
AcDbLine
 10
-260.815862
 20
152.883062
 30
0.0
 11
-253.106484
 21
152.883062
 31
0.0
  0
LINE
  5
173
100
AcDbEntity
  8
1
100
AcDbLine
 10
-266.386873
 20
152.300357
 30
0.0
 11
-260.946751
 21
151.373643
 31
0.0
  0
LINE
  5
174
100
AcDbEntity
  8
1
  6
DASHED
100
AcDbLine
 10
-260.946751
 20
151.373643
 30
0.0
 11
-255.650989
 21
150.47152
 31
0.0
  0
LINE
  5
175
100
AcDbEntity
  8
1
100
AcDbLine
 10
-266.386873
 20
131.465768
 30
0.0
 11
-260.572754
 21
132.456192
 31
0.0
  0
LINE
  5
176
100
AcDbEntity
  8
1
  6
DASHED
100
AcDbLine
 10
-260.572754
 20
132.456192
 30
0.0
 11
-255.650989
 21
133.294605
 31
0.0
  0
LINE
  5
177
100
AcDbEntity
  8
1
100
AcDbLine
 10
-263.807548
 20
130.883062
 30
0.0
 11
-260.192705
 21
130.883062
 31
0.0
  0
LINE
  5
178
100
AcDbEntity
  8
1
  6
DASHED
100
AcDbLine
 10
-260.192705
 20
130.883062
 30
0.0
 11
-253.106484
 21
130.883062
 31
0.0
  0
LINE
  5
179
100
AcDbEntity
  8
1
100
AcDbLine
 10
-281.106484
 20
119.883062
 30
0.0
 11
-256.155805
 21
119.883062
 31
0.0
  0
LINE
  5
17A
100
AcDbEntity
  8
1
  6
DASHED
100
AcDbLine
 10
-256.155805
 20
119.883062
 30
0.0
 11
-253.106484
 21
119.883062
 31
0.0
  0
LINE
  5
17B
100
AcDbEntity
  8
1
100
AcDbLine
 10
-280.106484
 20
118.883062
 30
0.0
 11
-255.755528
 21
118.883062
 31
0.0
  0
LINE
  5
17C
100
AcDbEntity
  8
1
  6
DASHED
100
AcDbLine
 10
-255.755528
 20
118.883062
 30
0.0
 11
-253.106484
 21
118.883062
 31
0.0
  0
LINE
  5
17D
100
AcDbEntity
  8
1
100
AcDbLine
 10
-274.156484
 20
117.758062
 30
0.0
 11
-255.305217
 21
117.758062
 31
0.0
  0
LINE
  5
17E
100
AcDbEntity
  8
1
  6
DASHED
100
AcDbLine
 10
-255.305217
 20
117.758062
 30
0.0
 11
-253.106484
 21
117.758062
 31
0.0
  0
LINE
  5
17F
100
AcDbEntity
  8
1
  6
DASHED
100
AcDbLine
 10
-183.106484
 20
166.008062
 30
0.0
 11
-176.53524
 21
166.008062
 31
0.0
  0
LINE
  5
180
100
AcDbEntity
  8
1
100
AcDbLine
 10
-176.53524
 20
166.008062
 30
0.0
 11
-162.056484
 21
166.008062
 31
0.0
  0
LINE
  5
181
100
AcDbEntity
  8
1
100
AcDbLine
 10
-156.106484
 20
164.883062
 30
0.0
 11
-176.437686
 21
164.883062
 31
0.0
  0
LINE
  5
182
100
AcDbEntity
  8
1
  6
DASHED
100
AcDbLine
 10
-176.437686
 20
164.883062
 30
0.0
 11
-183.106484
 21
164.883062
 31
0.0
  0
LINE
  5
183
100
AcDbEntity
  8
1
100
AcDbLine
 10
-155.106484
 20
163.883062
 30
0.0
 11
-176.350971
 21
163.883062
 31
0.0
  0
LINE
  5
184
100
AcDbEntity
  8
1
  6
DASHED
100
AcDbLine
 10
-176.350971
 20
163.883062
 30
0.0
 11
-183.106484
 21
163.883062
 31
0.0
  0
LINE
  5
185
100
AcDbEntity
  8
1
100
AcDbLine
 10
-172.40542
 20
152.883062
 30
0.0
 11
-175.397106
 21
152.883062
 31
0.0
  0
LINE
  5
186
100
AcDbEntity
  8
1
  6
DASHED
100
AcDbLine
 10
-175.397106
 20
152.883062
 30
0.0
 11
-183.106484
 21
152.883062
 31
0.0
  0
LINE
  5
187
100
AcDbEntity
  8
1
100
AcDbLine
 10
-169.826095
 20
152.300357
 30
0.0
 11
-175.266217
 21
151.373643
 31
0.0
  0
LINE
  5
188
100
AcDbEntity
  8
1
  6
DASHED
100
AcDbLine
 10
-175.266217
 20
151.373643
 30
0.0
 11
-180.561979
 21
150.47152
 31
0.0
  0
LINE
  5
189
100
AcDbEntity
  8
1
100
AcDbLine
 10
-169.826095
 20
131.465768
 30
0.0
 11
-175.640214
 21
132.456192
 31
0.0
  0
LINE
  5
18A
100
AcDbEntity
  8
1
  6
DASHED
100
AcDbLine
 10
-175.640214
 20
132.456192
 30
0.0
 11
-180.561979
 21
133.294605
 31
0.0
  0
LINE
  5
18B
100
AcDbEntity
  8
1
100
AcDbLine
 10
-172.40542
 20
130.883062
 30
0.0
 11
-176.020263
 21
130.883062
 31
0.0
  0
LINE
  5
18C
100
AcDbEntity
  8
1
  6
DASHED
100
AcDbLine
 10
-176.020263
 20
130.883062
 30
0.0
 11
-183.106484
 21
130.883062
 31
0.0
  0
LINE
  5
18D
100
AcDbEntity
  8
1
100
AcDbLine
 10
-155.106484
 20
119.883062
 30
0.0
 11
-180.057164
 21
119.883062
 31
0.0
  0
LINE
  5
18E
100
AcDbEntity
  8
1
  6
DASHED
100
AcDbLine
 10
-180.057164
 20
119.883062
 30
0.0
 11
-183.106484
 21
119.883062
 31
0.0
  0
LINE
  5
18F
100
AcDbEntity
  8
1
100
AcDbLine
 10
-156.106484
 20
118.883062
 30
0.0
 11
-180.45744
 21
118.883062
 31
0.0
  0
LINE
  5
190
100
AcDbEntity
  8
1
  6
DASHED
100
AcDbLine
 10
-180.45744
 20
118.883062
 30
0.0
 11
-183.106484
 21
118.883062
 31
0.0
  0
LINE
  5
191
100
AcDbEntity
  8
1
  6
DASHED
100
AcDbLine
 10
-183.106484
 20
117.758062
 30
0.0
 11
-180.907751
 21
117.758062
 31
0.0
  0
LINE
  5
192
100
AcDbEntity
  8
1
100
AcDbLine
 10
-180.907751
 20
117.758062
 30
0.0
 11
-162.056484
 21
117.758062
 31
0.0
  0
LINE
  5
193
100
AcDbEntity
  8
2
  6
CENTER
 62
     2
100
AcDbLine
 10
-242.855221
 20
-26.316396
 30
0.0
 11
-242.855221
 21
10.199105
 31
0.0
  0
LINE
  5
194
100
AcDbEntity
  8
2
  6
CENTER
 62
     2
100
AcDbLine
 10
-193.357747
 20
-26.316396
 30
0.0
 11
-193.357747
 21
10.199105
 31
0.0
  0
LINE
  5
195
100
AcDbEntity
  8
2
  6
CENTER
 62
     2
100
AcDbLine
 10
41.844779
 20
-26.316396
 30
0.0
 11
41.844779
 21
10.199105
 31
0.0
  0
LINE
  5
196
100
AcDbEntity
  8
2
  6
CENTER
 62
     2
100
AcDbLine
 10
91.342253
 20
-26.316396
 30
0.0
 11
91.342253
 21
10.199105
 31
0.0
  0
LINE
  5
197
100
AcDbEntity
  8
2
100
AcDbLine
 10
-235.355221
 20
-14.883604
 30
0.0
 11
-235.355221
 21
-19.661916
 31
0.0
  0
LINE
  5
198
100
AcDbEntity
  8
2
100
AcDbLine
 10
-235.355221
 20
-19.661916
 30
0.0
 11
-236.605221
 21
-20.383604
 31
0.0
  0
LINE
  5
199
100
AcDbEntity
  8
2
100
AcDbLine
 10
-239.105221
 20
-14.883604
 30
0.0
 11
-239.105221
 21
-19.661916
 31
0.0
  0
ARC
  5
19A
100
AcDbEntity
  8
2
100
AcDbCircle
 10
-237.230221
 20
-17.25154
 30
0.0
 40
3.053774
100
AcDbArc
 50
232.121121
 51
307.878879
  0
ARC
  5
19B
100
AcDbEntity
  8
2
100
AcDbCircle
 10
-242.855221
 20
-9.055315
 30
0.0
 40
11.25
100
AcDbArc
 50
250.528777
 51
289.471219
  0
LINE
  5
19C
100
AcDbEntity
  8
2
100
AcDbLine
 10
-250.355221
 20
-14.883604
 30
0.0
 11
-250.355221
 21
-19.661916
 31
0.0
  0
LINE
  5
19D
100
AcDbEntity
  8
2
100
AcDbLine
 10
-250.355221
 20
-19.661916
 30
0.0
 11
-249.105221
 21
-20.383604
 31
0.0
  0
LINE
  5
19E
100
AcDbEntity
  8
2
100
AcDbLine
 10
-249.105221
 20
-20.383604
 30
0.0
 11
-236.605221
 21
-20.383604
 31
0.0
  0
LINE
  5
19F
100
AcDbEntity
  8
2
100
AcDbLine
 10
-246.605221
 20
-14.883604
 30
0.0
 11
-246.605221
 21
-19.661916
 31
0.0
  0
ARC
  5
1A0
100
AcDbEntity
  8
2
100
AcDbCircle
 10
-248.480221
 20
-17.25154
 30
0.0
 40
3.053774
100
AcDbArc
 50
232.121121
 51
307.878879
  0
LINE
  5
1A1
100
AcDbEntity
  8
2
100
AcDbLine
 10
-235.155221
 20
-12.883604
 30
0.0
 11
-235.155221
 21
-14.883604
 31
0.0
  0
LINE
  5
1A2
100
AcDbEntity
  8
2
100
AcDbLine
 10
-235.155221
 20
-14.883604
 30
0.0
 11
-250.555221
 21
-14.883604
 31
0.0
  0
LINE
  5
1A3
100
AcDbEntity
  8
2
100
AcDbLine
 10
-250.555221
 20
-14.883604
 30
0.0
 11
-250.555221
 21
-12.883604
 31
0.0
  0
LINE
  5
1A4
100
AcDbEntity
  8
2
100
AcDbLine
 10
-242.855221
 20
-14.883604
 30
0.0
 11
-243.355221
 21
-12.883604
 31
0.0
  0
LINE
  5
1A5
100
AcDbEntity
  8
2
100
AcDbLine
 10
-242.855221
 20
-12.883604
 30
0.0
 11
-242.355221
 21
-14.883604
 31
0.0
  0
LINE
  5
1A6
100
AcDbEntity
  8
2
100
AcDbLine
 10
97.842253
 20
-14.883604
 30
0.0
 11
97.842253
 21
-20.383604
 31
0.0
  0
LINE
  5
1A7
100
AcDbEntity
  8
2
100
AcDbLine
 10
91.342253
 20
-14.883604
 30
0.0
 11
91.342253
 21
-19.661916
 31
0.0
  0
ARC
  5
1A8
100
AcDbEntity
  8
2
100
AcDbCircle
 10
94.592253
 20
-12.704846
 30
0.0
 40
7.678759
100
AcDbArc
 50
244.96034
 51
295.03966
  0
LINE
  5
1A9
100
AcDbEntity
  8
2
100
AcDbLine
 10
84.842253
 20
-14.883604
 30
0.0
 11
84.842253
 21
-20.383604
 31
0.0
  0
LINE
  5
1AA
100
AcDbEntity
  8
2
100
AcDbLine
 10
84.842253
 20
-20.383604
 30
0.0
 11
97.842253
 21
-20.383604
 31
0.0
  0
ARC
  5
1AB
100
AcDbEntity
  8
2
100
AcDbCircle
 10
88.092253
 20
-12.704846
 30
0.0
 40
7.678759
100
AcDbArc
 50
244.96034
 51
295.03966
  0
LINE
  5
1AC
100
AcDbEntity
  8
2
100
AcDbLine
 10
99.042253
 20
-12.883604
 30
0.0
 11
99.042253
 21
-14.883604
 31
0.0
  0
LINE
  5
1AD
100
AcDbEntity
  8
2
100
AcDbLine
 10
99.042253
 20
-14.883604
 30
0.0
 11
83.642253
 21
-14.883604
 31
0.0
  0
LINE
  5
1AE
100
AcDbEntity
  8
2
100
AcDbLine
 10
83.642253
 20
-14.883604
 30
0.0
 11
83.642253
 21
-12.883604
 31
0.0
  0
CIRCLE
  5
1AF
100
AcDbEntity
  8
2
100
AcDbCircle
 10
-218.106484
 20
141.883062
 30
0.0
 40
11.0
  0
CIRCLE
  5
1B0
100
AcDbEntity
  8
2
100
AcDbCircle
 10
-193.357747
 20
166.6318
 30
0.0
 40
5.0
  0
LINE
  5
1B1
100
AcDbEntity
  8
2
  6
CENTER
 62
     2
100
AcDbLine
 10
-199.109757
 20
160.879789
 30
0.0
 11
-187.890755
 21
172.098791
 31
0.0
  0
ARC
  5
1B2
100
AcDbEntity
  8
2
  6
CENTER
 62
     2
100
AcDbCircle
 10
-218.106484
 20
141.883062
 30
0.0
 40
35.0
100
AcDbArc
 50
31.294005
 51
58.05225
  0
CIRCLE
  5
1B3
100
AcDbEntity
  8
2
100
AcDbCircle
 10
-242.855221
 20
166.6318
 30
0.0
 40
5.0
  0
LINE
  5
1B4
100
AcDbEntity
  8
2
  6
CENTER
 62
     2
100
AcDbLine
 10
-237.103211
 20
160.879789
 30
0.0
 11
-248.322213
 21
172.098791
 31
0.0
  0
ARC
  5
1B5
100
AcDbEntity
  8
2
  6
CENTER
 62
     2
100
AcDbCircle
 10
-218.106484
 20
141.883062
 30
0.0
 40
35.0
100
AcDbArc
 50
121.294005
 51
148.05225
  0
CIRCLE
  5
1B6
100
AcDbEntity
  8
2
100
AcDbCircle
 10
-242.855221
 20
117.134325
 30
0.0
 40
5.0
  0
LINE
  5
1B7
100
AcDbEntity
  8
2
  6
CENTER
 62
     2
100
AcDbLine
 10
-237.103211
 20
122.886335
 30
0.0
 11
-248.322213
 21
111.667334
 31
0.0
  0
ARC
  5
1B8
100
AcDbEntity
  8
2
  6
CENTER
 62
     2
100
AcDbCircle
 10
-218.106484
 20
141.883062
 30
0.0
 40
35.0
100
AcDbArc
 50
211.294005
 51
238.05225
  0
CIRCLE
  5
1B9
100
AcDbEntity
  8
2
100
AcDbCircle
 10
-193.357747
 20
117.134325
 30
0.0
 40
5.0
  0
LINE
  5
1BA
100
AcDbEntity
  8
2
  6
CENTER
 62
     2
100
AcDbLine
 10
-199.109757
 20
122.886335
 30
0.0
 11
-187.890755
 21
111.667334
 31
0.0
  0
ARC
  5
1BB
100
AcDbEntity
  8
2
  6
CENTER
 62
     2
100
AcDbCircle
 10
-218.106484
 20
141.883062
 30
0.0
 40
35.0
100
AcDbArc
 50
301.294005
 51
328.05225
  0
LINE
  5
1BC
100
AcDbEntity
  8
2
100
AcDbLine
 10
-261.606484
 20
26.116396
 30
0.0
 11
-174.606484
 21
26.116396
 31
0.0
  0
LINE
  5
1BD
100
AcDbEntity
  8
2
  6
CENTER
 62
     2
100
AcDbLine
 10
112.593516
 20
86.049851
 30
0.0
 11
112.593516
 21
-33.744033
 31
0.0
  0
LINE
  5
1BE
100
AcDbEntity
  8
2
100
AcDbLine
 10
29.393516
 20
26.116396
 30
0.0
 11
133.593516
 21
26.116396
 31
0.0
  0
CIRCLE
  5
1BF
100
AcDbEntity
  8
2
100
AcDbCircle
 10
112.593516
 20
26.116396
 30
0.0
 40
4.9
  0
LINE
  5
1C0
100
AcDbEntity
  8
2
100
AcDbLine
 10
106.843516
 20
26.116396
 30
0.0
 11
109.718516
 21
31.096042
 31
0.0
  0
LINE
  5
1C1
100
AcDbEntity
  8
2
100
AcDbLine
 10
109.718516
 20
31.096042
 30
0.0
 11
115.468516
 21
31.096042
 31
0.0
  0
LINE
  5
1C2
100
AcDbEntity
  8
2
100
AcDbLine
 10
115.468516
 20
31.096042
 30
0.0
 11
118.343516
 21
26.116396
 31
0.0
  0
LINE
  5
1C3
100
AcDbEntity
  8
2
100
AcDbLine
 10
118.343516
 20
26.116396
 30
0.0
 11
115.468516
 21
21.13675
 31
0.0
  0
LINE
  5
1C4
100
AcDbEntity
  8
2
100
AcDbLine
 10
115.468516
 20
21.13675
 30
0.0
 11
109.718516
 21
21.13675
 31
0.0
  0
LINE
  5
1C5
100
AcDbEntity
  8
2
100
AcDbLine
 10
109.718516
 20
21.13675
 30
0.0
 11
106.843516
 21
26.116396
 31
0.0
  0
CIRCLE
  5
1C6
100
AcDbEntity
  8
2
100
AcDbCircle
 10
112.593516
 20
26.116396
 30
0.0
 40
6.1
  0
CIRCLE
  5
1C7
100
AcDbEntity
  8
2
100
AcDbCircle
 10
-218.106484
 20
141.883062
 30
0.0
 40
10.0
  0
LINE
  5
1C8
100
AcDbEntity
  8
2
  6
CENTER
 62
     2
100
AcDbLine
 10
-218.106484
 20
96.122184
 30
0.0
 11
-218.106484
 21
219.477519
 31
0.0
  0
LINE
  5
1C9
100
AcDbEntity
  8
2
  6
CENTER
 62
     2
100
AcDbLine
 10
-271.714509
 20
187.883062
 30
0.0
 11
-64.836597
 21
187.883062
 31
0.0
  0
LINE
  5
1CA
100
AcDbEntity
  8
2
  6
CENTER
 62
     2
100
AcDbLine
 10
-64.836597
 20
26.116396
 30
0.0
 11
-273.391846
 21
26.116396
 31
0.0
  0
LINE
  5
1CB
100
AcDbEntity
  8
2
  6
CENTER
 62
     2
100
AcDbLine
 10
175.303687
 20
26.116396
 30
0.0
 11
16.039725
 21
26.116396
 31
0.0
  0
CIRCLE
  5
1CC
100
AcDbEntity
  8
2
100
AcDbCircle
 10
112.593516
 20
26.116396
 30
0.0
 40
6.25
  0
ARC
  5
1CD
100
AcDbEntity
  8
2
100
AcDbCircle
 10
-218.106484
 20
141.883062
 30
0.0
 40
18.0
100
AcDbArc
 50
16.12762
 51
73.87238
  0
ARC
  5
1CE
100
AcDbEntity
  8
2
100
AcDbCircle
 10
-218.106484
 20
141.883062
 30
0.0
 40
18.0
100
AcDbArc
 50
106.12762
 51
343.87238
  0
LINE
  5
1CF
100
AcDbEntity
  8
2
100
AcDbLine
 10
-188.506484
 20
208.883062
 30
0.0
 11
-247.706484
 21
208.883062
 31
0.0
  0
LINE
  5
1D0
100
AcDbEntity
  8
2
100
AcDbLine
 10
-179.540132
 20
200.660579
 30
0.0
 11
-174.769116
 21
145.641061
 31
0.0
  0
LINE
  5
1D1
100
AcDbEntity
  8
2
100
AcDbLine
 10
-256.672836
 20
200.660579
 30
0.0
 11
-261.443852
 21
145.641061
 31
0.0
  0
ARC
  5
1D2
100
AcDbEntity
  8
2
100
AcDbCircle
 10
-188.506484
 20
199.883062
 30
0.0
 40
9.0
100
AcDbArc
 50
4.956004
 51
90.0
  0
ARC
  5
1D3
100
AcDbEntity
  8
2
100
AcDbCircle
 10
-247.706484
 20
199.883062
 30
0.0
 40
9.0
100
AcDbArc
 50
90.0
 51
175.043996
  0
LINE
  5
1D4
100
AcDbEntity
  8
2
100
AcDbLine
 10
-177.721597
 20
125.71795
 30
0.0
 11
-182.894214
 21
112.795333
 31
0.0
  0
LINE
  5
1D5
100
AcDbEntity
  8
2
100
AcDbLine
 10
-258.491372
 20
125.71795
 30
0.0
 11
-253.318755
 21
112.795333
 31
0.0
  0
ARC
  5
1D6
100
AcDbEntity
  8
2
100
AcDbCircle
 10
-218.106484
 20
141.883062
 30
0.0
 40
43.5
100
AcDbArc
 50
175.043996
 51
201.815054
  0
ARC
  5
1D7
100
AcDbEntity
  8
2
100
AcDbCircle
 10
-218.106484
 20
141.883062
 30
0.0
 40
43.5
100
AcDbArc
 50
338.184946
 51
4.956004
  0
ARC
  5
1D8
100
AcDbEntity
  8
2
100
AcDbCircle
 10
-193.106484
 20
116.883062
 30
0.0
 40
11.0
100
AcDbArc
 50
270.0
 51
338.184946
  0
ARC
  5
1D9
100
AcDbEntity
  8
2
100
AcDbCircle
 10
-243.106484
 20
116.883062
 30
0.0
 40
11.0
100
AcDbArc
 50
201.815054
 51
270.0
  0
LINE
  5
1DA
100
AcDbEntity
  8
2
100
AcDbLine
 10
-243.106484
 20
105.883062
 30
0.0
 11
-223.561757
 21
105.883062
 31
0.0
  0
LINE
  5
1DB
100
AcDbEntity
  8
2
100
AcDbLine
 10
-212.651211
 20
105.883062
 30
0.0
 11
-191.106484
 21
105.883062
 31
0.0
  0
ARC
  5
1DC
100
AcDbEntity
  8
2
100
AcDbCircle
 10
-218.106484
 20
112.683062
 30
0.0
 40
8.0
100
AcDbArc
 50
245.188368
 51
294.811632
  0
ARC
  5
1DD
100
AcDbEntity
  8
2
100
AcDbCircle
 10
-212.651211
 20
100.883062
 30
0.0
 40
5.0
100
AcDbArc
 50
90.0
 51
114.811632
  0
ARC
  5
1DE
100
AcDbEntity
  8
2
100
AcDbCircle
 10
-223.561757
 20
100.883062
 30
0.0
 40
5.0
100
AcDbArc
 50
65.188368
 51
90.0
  0
LINE
  5
1DF
100
AcDbEntity
  8
2
100
AcDbLine
 10
-223.106484
 20
159.174679
 30
0.0
 11
-223.106484
 21
169.883062
 31
0.0
  0
LINE
  5
1E0
100
AcDbEntity
  8
2
100
AcDbLine
 10
-213.106484
 20
159.174679
 30
0.0
 11
-213.106484
 21
169.883062
 31
0.0
  0
LINE
  5
1E1
100
AcDbEntity
  8
2
100
AcDbLine
 10
-200.814868
 20
146.883062
 30
0.0
 11
-190.106484
 21
146.883062
 31
0.0
  0
LINE
  5
1E2
100
AcDbEntity
  8
2
100
AcDbLine
 10
-200.814868
 20
136.883062
 30
0.0
 11
-190.106484
 21
136.883062
 31
0.0
  0
LINE
  5
1E3
100
AcDbEntity
  8
2
100
AcDbLine
 10
-221.106484
 20
171.883062
 30
0.0
 11
-215.106484
 21
171.883062
 31
0.0
  0
LINE
  5
1E4
100
AcDbEntity
  8
2
100
AcDbLine
 10
-188.106484
 20
138.883062
 30
0.0
 11
-188.106484
 21
144.883062
 31
0.0
  0
ARC
  5
1E5
100
AcDbEntity
  8
2
100
AcDbCircle
 10
-190.106484
 20
144.883062
 30
0.0
 40
2.0
100
AcDbArc
 50
0.0
 51
90.0
  0
ARC
  5
1E6
100
AcDbEntity
  8
2
100
AcDbCircle
 10
-190.106484
 20
138.883062
 30
0.0
 40
2.0
100
AcDbArc
 50
270.0
 51
360.0
  0
ARC
  5
1E7
100
AcDbEntity
  8
2
100
AcDbCircle
 10
-215.106484
 20
169.883062
 30
0.0
 40
2.0
100
AcDbArc
 50
0.0
 51
90.0
  0
ARC
  5
1E8
100
AcDbEntity
  8
2
100
AcDbCircle
 10
-221.106484
 20
169.883062
 30
0.0
 40
2.0
100
AcDbArc
 50
90.0
 51
180.0
  0
ARC
  5
1E9
100
AcDbEntity
  8
2
100
AcDbCircle
 10
-218.106484
 20
141.883062
 30
0.0
 40
18.0
100
AcDbArc
 50
88.314587
 51
91.685413
  0
ARC
  5
1EA
100
AcDbEntity
  8
2
100
AcDbCircle
 10
-218.106484
 20
141.883062
 30
0.0
 40
18.0
100
AcDbArc
 50
358.314587
 51
1.685413
  0
LINE
  5
1EB
100
AcDbEntity
  8
2
100
AcDbLine
 10
-207.78983
 20
148.994086
 30
0.0
 11
-205.190076
 21
150.495055
 31
0.0
  0
LINE
  5
1EC
100
AcDbEntity
  8
2
100
AcDbLine
 10
-206.78983
 20
147.262035
 30
0.0
 11
-204.190076
 21
148.763004
 31
0.0
  0
LINE
  5
1ED
100
AcDbEntity
  8
2
100
AcDbLine
 10
-212.727512
 20
153.199716
 30
0.0
 11
-211.226543
 21
155.79947
 31
0.0
  0
LINE
  5
1EE
100
AcDbEntity
  8
2
100
AcDbLine
 10
-210.995461
 20
152.199716
 30
0.0
 11
-209.494492
 21
154.79947
 31
0.0
  0
ARC
  5
1EF
100
AcDbEntity
  8
2
100
AcDbCircle
 10
-218.106484
 20
141.883062
 30
0.0
 40
16.0
100
AcDbArc
 50
58.151428
 51
61.848572
  0
ARC
  5
1F0
100
AcDbEntity
  8
2
100
AcDbCircle
 10
-218.106484
 20
141.883062
 30
0.0
 40
16.0
100
AcDbArc
 50
28.151428
 51
31.848572
  0
ARC
  5
1F1
100
AcDbEntity
  8
2
100
AcDbCircle
 10
-218.106484
 20
141.883062
 30
0.0
 40
12.0
100
AcDbArc
 50
357.795772
 51
2.204228
  0
ARC
  5
1F2
100
AcDbEntity
  8
2
100
AcDbCircle
 10
-218.106484
 20
141.883062
 30
0.0
 40
12.0
100
AcDbArc
 50
27.707557
 51
32.292443
  0
ARC
  5
1F3
100
AcDbEntity
  8
2
100
AcDbCircle
 10
-218.106484
 20
141.883062
 30
0.0
 40
12.0
100
AcDbArc
 50
57.707557
 51
62.292443
  0
ARC
  5
1F4
100
AcDbEntity
  8
2
100
AcDbCircle
 10
-218.106484
 20
141.883062
 30
0.0
 40
12.0
100
AcDbArc
 50
87.795772
 51
92.204228
  0
LINE
  5
1F5
100
AcDbEntity
  8
2
100
AcDbLine
 10
-219.606484
 20
154.873444
 30
0.0
 11
-219.606484
 21
158.875708
 31
0.0
  0
LINE
  5
1F6
100
AcDbEntity
  8
2
100
AcDbLine
 10
-216.606484
 20
154.873444
 30
0.0
 11
-216.606484
 21
158.875708
 31
0.0
  0
LINE
  5
1F7
100
AcDbEntity
  8
2
100
AcDbLine
 10
-205.116103
 20
143.383062
 30
0.0
 11
-201.113839
 21
143.383062
 31
0.0
  0
LINE
  5
1F8
100
AcDbEntity
  8
2
100
AcDbLine
 10
-205.116103
 20
140.383062
 30
0.0
 11
-201.113839
 21
140.383062
 31
0.0
  0
ARC
  5
1F9
100
AcDbEntity
  8
2
100
AcDbCircle
 10
-205.116103
 20
142.383062
 30
0.0
 40
1.0
100
AcDbArc
 50
90.0
 51
182.204228
  0
ARC
  5
1FA
100
AcDbEntity
  8
2
100
AcDbCircle
 10
-205.116103
 20
141.383062
 30
0.0
 40
1.0
100
AcDbArc
 50
177.795772
 51
270.0
  0
ARC
  5
1FB
100
AcDbEntity
  8
2
100
AcDbCircle
 10
-201.113839
 20
141.383062
 30
0.0
 40
1.0
100
AcDbArc
 50
270.0
 51
358.314587
  0
ARC
  5
1FC
100
AcDbEntity
  8
2
100
AcDbCircle
 10
-201.113839
 20
142.383062
 30
0.0
 40
1.0
100
AcDbArc
 50
1.685413
 51
90.0
  0
ARC
  5
1FD
100
AcDbEntity
  8
2
100
AcDbCircle
 10
-217.606484
 20
158.875708
 30
0.0
 40
1.0
100
AcDbArc
 50
0.0
 51
88.314587
  0
ARC
  5
1FE
100
AcDbEntity
  8
2
100
AcDbCircle
 10
-218.606484
 20
158.875708
 30
0.0
 40
1.0
100
AcDbArc
 50
91.685413
 51
180.0
  0
ARC
  5
1FF
100
AcDbEntity
  8
2
100
AcDbCircle
 10
-218.606484
 20
154.873444
 30
0.0
 40
1.0
100
AcDbArc
 50
180.0
 51
272.204228
  0
ARC
  5
200
100
AcDbEntity
  8
2
100
AcDbCircle
 10
-217.606484
 20
154.873444
 30
0.0
 40
1.0
100
AcDbArc
 50
267.795772
 51
360.0
  0
ARC
  5
201
100
AcDbEntity
  8
2
100
AcDbCircle
 10
-207.03983
 20
147.695048
 30
0.0
 40
0.5
100
AcDbArc
 50
207.707557
 51
300.0
  0
ARC
  5
202
100
AcDbEntity
  8
2
100
AcDbCircle
 10
-207.53983
 20
148.561073
 30
0.0
 40
0.5
100
AcDbArc
 50
120.0
 51
212.292443
  0
ARC
  5
203
100
AcDbEntity
  8
2
100
AcDbCircle
 10
-204.440076
 20
149.196016
 30
0.0
 40
0.5
100
AcDbArc
 50
300.0
 51
28.151428
  0
ARC
  5
204
100
AcDbEntity
  8
2
100
AcDbCircle
 10
-204.940076
 20
150.062042
 30
0.0
 40
0.5
100
AcDbArc
 50
31.848572
 51
120.0
  0
ARC
  5
205
100
AcDbEntity
  8
2
100
AcDbCircle
 10
-211.428473
 20
152.449716
 30
0.0
 40
0.5
100
AcDbArc
 50
237.707557
 51
330.0
  0
ARC
  5
206
100
AcDbEntity
  8
2
100
AcDbCircle
 10
-212.294499
 20
152.949716
 30
0.0
 40
0.5
100
AcDbArc
 50
150.0
 51
242.292443
  0
ARC
  5
207
100
AcDbEntity
  8
2
100
AcDbCircle
 10
-210.79353
 20
155.54947
 30
0.0
 40
0.5
100
AcDbArc
 50
61.848572
 51
150.0
  0
ARC
  5
208
100
AcDbEntity
  8
2
100
AcDbCircle
 10
-209.927505
 20
155.04947
 30
0.0
 40
0.5
100
AcDbArc
 50
330.0
 51
58.151428
  0
ARC
  5
209
100
AcDbEntity
  8
2
100
AcDbCircle
 10
-218.106484
 20
141.883062
 30
0.0
 40
17.0
100
AcDbArc
 50
13.608961
 51
76.391039
  0
ARC
  5
20A
100
AcDbEntity
  8
2
100
AcDbCircle
 10
-218.106484
 20
141.883062
 30
0.0
 40
17.0
100
AcDbArc
 50
103.608961
 51
346.391039
  0
LINE
  5
20B
100
AcDbEntity
  8
2
100
AcDbLine
 10
-214.106484
 20
158.405774
 30
0.0
 11
-214.106484
 21
169.883062
 31
0.0
  0
LINE
  5
20C
100
AcDbEntity
  8
2
100
AcDbLine
 10
-221.106484
 20
170.883062
 30
0.0
 11
-215.106484
 21
170.883062
 31
0.0
  0
LINE
  5
20D
100
AcDbEntity
  8
2
100
AcDbLine
 10
-222.106484
 20
158.405774
 30
0.0
 11
-222.106484
 21
169.883062
 31
0.0
  0
LINE
  5
20E
100
AcDbEntity
  8
2
100
AcDbLine
 10
-201.583773
 20
145.883062
 30
0.0
 11
-190.106484
 21
145.883062
 31
0.0
  0
LINE
  5
20F
100
AcDbEntity
  8
2
100
AcDbLine
 10
-189.106484
 20
138.883062
 30
0.0
 11
-189.106484
 21
144.883062
 31
0.0
  0
LINE
  5
210
100
AcDbEntity
  8
2
100
AcDbLine
 10
-201.583773
 20
137.883062
 30
0.0
 11
-190.106484
 21
137.883062
 31
0.0
  0
ARC
  5
211
100
AcDbEntity
  8
2
100
AcDbCircle
 10
-190.106484
 20
144.883062
 30
0.0
 40
1.0
100
AcDbArc
 50
0.0
 51
90.0
  0
ARC
  5
212
100
AcDbEntity
  8
2
100
AcDbCircle
 10
-190.106484
 20
138.883062
 30
0.0
 40
1.0
100
AcDbArc
 50
270.0
 51
0.0
  0
ARC
  5
213
100
AcDbEntity
  8
2
100
AcDbCircle
 10
-215.106484
 20
169.883062
 30
0.0
 40
1.0
100
AcDbArc
 50
0.0
 51
90.0
  0
ARC
  5
214
100
AcDbEntity
  8
2
100
AcDbCircle
 10
-221.106484
 20
169.883062
 30
0.0
 40
1.0
100
AcDbArc
 50
90.0
 51
180.0
  0
ARC
  5
215
100
AcDbEntity
  8
2
100
AcDbCircle
 10
-225.392138
 20
180.868758
 30
0.0
 40
2.285695
100
AcDbArc
 50
270.0
 51
360.0
  0
ARC
  5
216
100
AcDbEntity
  8
2
100
AcDbCircle
 10
-227.780689
 20
182.937312
 30
0.0
 40
2.285695
100
AcDbArc
 50
90.0
 51
180.0
  0
ARC
  5
217
100
AcDbEntity
  8
2
100
AcDbCircle
 10
-226.763555
 20
180.845901
 30
0.0
 40
1.142848
100
AcDbArc
 50
180.0
 51
270.0
  0
ARC
  5
218
100
AcDbEntity
  8
2
100
AcDbCircle
 10
-226.409272
 20
182.960169
 30
0.0
 40
1.142848
100
AcDbArc
 50
0.0
 51
90.0
  0
LINE
  5
219
100
AcDbEntity
  8
2
100
AcDbLine
 10
-219.986468
 20
184.103016
 30
0.0
 11
-220.226466
 21
178.583062
 31
0.0
  0
LINE
  5
21A
100
AcDbEntity
  8
2
100
AcDbLine
 10
-216.2265
 20
184.103016
 30
0.0
 11
-215.986502
 21
178.583062
 31
0.0
  0
LINE
  5
21B
100
AcDbEntity
  8
2
100
AcDbLine
 10
-219.986468
 20
184.103016
 30
0.0
 11
-218.957906
 21
178.583062
 31
0.0
  0
LINE
  5
21C
100
AcDbEntity
  8
2
100
AcDbLine
 10
-218.106484
 20
181.245897
 30
0.0
 11
-217.365408
 21
185.223007
 31
0.0
  0
LINE
  5
21D
100
AcDbEntity
  8
2
100
AcDbLine
 10
-221.906452
 20
185.223007
 30
0.0
 11
-218.847561
 21
185.223007
 31
0.0
  0
LINE
  5
21E
100
AcDbEntity
  8
2
100
AcDbLine
 10
-218.957906
 20
178.583062
 30
0.0
 11
-217.255063
 21
178.583062
 31
0.0
  0
ARC
  5
21F
100
AcDbEntity
  8
2
100
AcDbCircle
 10
-208.432279
 20
180.868758
 30
0.0
 40
2.285695
100
AcDbArc
 50
270.0
 51
360.0
  0
ARC
  5
220
100
AcDbEntity
  8
2
100
AcDbCircle
 10
-209.449413
 20
180.845901
 30
0.0
 40
1.142848
100
AcDbArc
 50
270.0
 51
360.0
  0
LINE
  5
221
100
AcDbEntity
  8
2
100
AcDbLine
 10
-210.946544
 20
182.960169
 30
0.0
 11
-210.946544
 21
180.845901
 31
0.0
  0
ARC
  5
222
100
AcDbEntity
  8
2
100
AcDbCircle
 10
-210.820831
 20
182.937312
 30
0.0
 40
2.285695
100
AcDbArc
 50
90.0
 51
180.0
  0
LINE
  5
223
100
AcDbEntity
  8
2
100
AcDbLine
 10
-213.106526
 20
182.937312
 30
0.0
 11
-213.106526
 21
180.868758
 31
0.0
  0
LINE
  5
224
100
AcDbEntity
  8
2
100
AcDbLine
 10
-215.986502
 20
178.583062
 30
0.0
 11
-213.82652
 21
178.583062
 31
0.0
  0
LINE
  5
225
100
AcDbEntity
  8
2
100
AcDbLine
 10
-205.186592
 20
178.743061
 30
0.0
 11
-199.986635
 21
178.743061
 31
0.0
  0
LINE
  5
226
100
AcDbEntity
  8
2
100
AcDbLine
 10
-203.02661
 20
181.30304
 30
0.0
 11
-199.986635
 21
181.30304
 31
0.0
  0
LINE
  5
227
100
AcDbEntity
  8
2
100
AcDbLine
 10
-203.02661
 20
182.50303
 30
0.0
 11
-199.986635
 21
182.50303
 31
0.0
  0
LINE
  5
228
100
AcDbEntity
  8
2
100
AcDbLine
 10
-203.02661
 20
179.943051
 30
0.0
 11
-203.02661
 21
181.30304
 31
0.0
  0
LINE
  5
229
100
AcDbEntity
  8
2
100
AcDbLine
 10
-203.02661
 20
182.50303
 30
0.0
 11
-203.02661
 21
183.863018
 31
0.0
  0
LINE
  5
22A
100
AcDbEntity
  8
2
100
AcDbLine
 10
-233.666354
 20
183.863018
 30
0.0
 11
-231.506372
 21
183.863018
 31
0.0
  0
LINE
  5
22B
100
AcDbEntity
  8
2
100
AcDbLine
 10
-236.466331
 20
182.50303
 30
0.0
 11
-228.066401
 21
186.582996
 31
0.0
  0
LINE
  5
22C
100
AcDbEntity
  8
2
100
AcDbLine
 10
-236.466331
 20
182.50303
 30
0.0
 11
-236.466331
 21
186.582996
 31
0.0
  0
LINE
  5
22D
100
AcDbEntity
  8
2
100
AcDbLine
 10
-231.506372
 20
183.863018
 30
0.0
 11
-231.506372
 21
178.583062
 31
0.0
  0
LINE
  5
22E
100
AcDbEntity
  8
2
100
AcDbLine
 10
-230.066384
 20
182.937312
 30
0.0
 11
-230.066384
 21
180.868758
 31
0.0
  0
LINE
  5
22F
100
AcDbEntity
  8
2
100
AcDbLine
 10
-223.106442
 20
182.937312
 30
0.0
 11
-223.106442
 21
180.868758
 31
0.0
  0
LINE
  5
230
100
AcDbEntity
  8
2
100
AcDbLine
 10
-227.906402
 20
182.960169
 30
0.0
 11
-227.906402
 21
180.845901
 31
0.0
  0
LINE
  5
231
100
AcDbEntity
  8
2
100
AcDbLine
 10
-225.266424
 20
182.960169
 30
0.0
 11
-225.266424
 21
180.845901
 31
0.0
  0
ARC
  5
232
100
AcDbEntity
  8
2
100
AcDbCircle
 10
-227.780689
 20
180.868758
 30
0.0
 40
2.285695
100
AcDbArc
 50
180.0
 51
270.0
  0
ARC
  5
233
100
AcDbEntity
  8
2
100
AcDbCircle
 10
-225.392138
 20
182.937312
 30
0.0
 40
2.285695
100
AcDbArc
 50
360.0
 51
90.0
  0
ARC
  5
234
100
AcDbEntity
  8
2
100
AcDbCircle
 10
-226.409272
 20
180.845901
 30
0.0
 40
1.142848
100
AcDbArc
 50
270.0
 51
360.0
  0
ARC
  5
235
100
AcDbEntity
  8
2
100
AcDbCircle
 10
-226.763555
 20
182.960169
 30
0.0
 40
1.142848
100
AcDbArc
 50
90.0
 51
180.0
  0
LINE
  5
236
100
AcDbEntity
  8
2
100
AcDbLine
 10
-233.666354
 20
178.583062
 30
0.0
 11
-231.506372
 21
178.583062
 31
0.0
  0
LINE
  5
237
100
AcDbEntity
  8
2
100
AcDbLine
 10
-221.906452
 20
185.223007
 30
0.0
 11
-222.386448
 21
178.583062
 31
0.0
  0
LINE
  5
238
100
AcDbEntity
  8
2
100
AcDbLine
 10
-214.306516
 20
185.223007
 30
0.0
 11
-213.82652
 21
178.583062
 31
0.0
  0
LINE
  5
239
100
AcDbEntity
  8
2
100
AcDbLine
 10
-216.2265
 20
184.103016
 30
0.0
 11
-217.255063
 21
178.583062
 31
0.0
  0
LINE
  5
23A
100
AcDbEntity
  8
2
100
AcDbLine
 10
-218.106484
 20
181.245897
 30
0.0
 11
-218.847561
 21
185.223007
 31
0.0
  0
LINE
  5
23B
100
AcDbEntity
  8
2
100
AcDbLine
 10
-227.780689
 20
185.223007
 30
0.0
 11
-225.392138
 21
185.223007
 31
0.0
  0
LINE
  5
23C
100
AcDbEntity
  8
2
100
AcDbLine
 10
-227.780689
 20
178.583062
 30
0.0
 11
-225.392138
 21
178.583062
 31
0.0
  0
LINE
  5
23D
100
AcDbEntity
  8
2
100
AcDbLine
 10
-222.386448
 20
178.583062
 30
0.0
 11
-220.226466
 21
178.583062
 31
0.0
  0
ARC
  5
23E
100
AcDbEntity
  8
2
100
AcDbCircle
 10
-210.820831
 20
180.868758
 30
0.0
 40
2.285695
100
AcDbArc
 50
180.0
 51
270.0
  0
LINE
  5
23F
100
AcDbEntity
  8
2
100
AcDbLine
 10
-208.306566
 20
182.960169
 30
0.0
 11
-208.306566
 21
180.845901
 31
0.0
  0
ARC
  5
240
100
AcDbEntity
  8
2
100
AcDbCircle
 10
-209.803696
 20
180.845901
 30
0.0
 40
1.142848
100
AcDbArc
 50
180.0
 51
270.0
  0
ARC
  5
241
100
AcDbEntity
  8
2
100
AcDbCircle
 10
-209.449413
 20
182.960169
 30
0.0
 40
1.142848
100
AcDbArc
 50
0.0
 51
90.0
  0
ARC
  5
242
100
AcDbEntity
  8
2
100
AcDbCircle
 10
-209.803696
 20
182.960169
 30
0.0
 40
1.142848
100
AcDbArc
 50
90.0
 51
180.0
  0
ARC
  5
243
100
AcDbEntity
  8
2
100
AcDbCircle
 10
-208.432279
 20
182.937312
 30
0.0
 40
2.285695
100
AcDbArc
 50
360.0
 51
90.0
  0
LINE
  5
244
100
AcDbEntity
  8
2
100
AcDbLine
 10
-206.146584
 20
182.937312
 30
0.0
 11
-206.146584
 21
180.868758
 31
0.0
  0
LINE
  5
245
100
AcDbEntity
  8
2
100
AcDbLine
 10
-226.409272
 20
184.103016
 30
0.0
 11
-226.763555
 21
184.103016
 31
0.0
  0
LINE
  5
246
100
AcDbEntity
  8
2
100
AcDbLine
 10
-226.409272
 20
179.703053
 30
0.0
 11
-226.763555
 21
179.703053
 31
0.0
  0
LINE
  5
247
100
AcDbEntity
  8
2
100
AcDbLine
 10
-209.803696
 20
184.103016
 30
0.0
 11
-209.449413
 21
184.103016
 31
0.0
  0
LINE
  5
248
100
AcDbEntity
  8
2
100
AcDbLine
 10
-217.365408
 20
185.223007
 30
0.0
 11
-214.306516
 21
185.223007
 31
0.0
  0
LINE
  5
249
100
AcDbEntity
  8
2
100
AcDbLine
 10
-210.820831
 20
185.223007
 30
0.0
 11
-208.432279
 21
185.223007
 31
0.0
  0
LINE
  5
24A
100
AcDbEntity
  8
2
100
AcDbLine
 10
-210.820831
 20
178.583062
 30
0.0
 11
-208.432279
 21
178.583062
 31
0.0
  0
LINE
  5
24B
100
AcDbEntity
  8
2
100
AcDbLine
 10
-205.186592
 20
185.063008
 30
0.0
 11
-205.186592
 21
178.743061
 31
0.0
  0
LINE
  5
24C
100
AcDbEntity
  8
2
100
AcDbLine
 10
-205.186592
 20
185.063008
 30
0.0
 11
-199.986635
 21
185.063008
 31
0.0
  0
LINE
  5
24D
100
AcDbEntity
  8
2
100
AcDbLine
 10
-203.02661
 20
179.943051
 30
0.0
 11
-199.986635
 21
179.943051
 31
0.0
  0
LINE
  5
24E
100
AcDbEntity
  8
2
100
AcDbLine
 10
-203.02661
 20
183.863018
 30
0.0
 11
-199.986635
 21
183.863018
 31
0.0
  0
LINE
  5
24F
100
AcDbEntity
  8
2
100
AcDbLine
 10
-199.986635
 20
183.863018
 30
0.0
 11
-199.986635
 21
185.063008
 31
0.0
  0
LINE
  5
250
100
AcDbEntity
  8
2
100
AcDbLine
 10
-199.986635
 20
178.743061
 30
0.0
 11
-199.986635
 21
179.943051
 31
0.0
  0
LINE
  5
251
100
AcDbEntity
  8
2
100
AcDbLine
 10
-199.986635
 20
181.30304
 30
0.0
 11
-199.986635
 21
182.50303
 31
0.0
  0
LINE
  5
252
100
AcDbEntity
  8
2
100
AcDbLine
 10
-233.666354
 20
183.863018
 30
0.0
 11
-233.666354
 21
178.583062
 31
0.0
  0
LINE
  5
253
100
AcDbEntity
  8
2
100
AcDbLine
 10
-236.466331
 20
186.582996
 30
0.0
 11
-228.066401
 21
186.582996
 31
0.0
  0
LINE
  5
254
100
AcDbEntity
  8
2
100
AcDbLine
 10
-209.803696
 20
179.703053
 30
0.0
 11
-209.449413
 21
179.703053
 31
0.0
  0
LINE
  5
255
100
AcDbEntity
  8
2
100
AcDbLine
 10
-253.147638
 20
47.116396
 30
0.0
 11
-183.065331
 21
47.116396
 31
0.0
  0
LINE
  5
256
100
AcDbEntity
  8
2
100
AcDbLine
 10
-174.606484
 20
26.116396
 30
0.0
 11
-175.070204
 21
39.395592
 31
0.0
  0
LINE
  5
257
100
AcDbEntity
  8
2
100
AcDbLine
 10
-261.606484
 20
26.116396
 30
0.0
 11
-261.142764
 21
39.395592
 31
0.0
  0
ARC
  5
258
100
AcDbEntity
  8
2
100
AcDbCircle
 10
-183.065331
 20
39.116396
 30
0.0
 40
8.0
100
AcDbArc
 50
2.0
 51
90.0
  0
ARC
  5
259
100
AcDbEntity
  8
2
100
AcDbCircle
 10
-253.147638
 20
39.116396
 30
0.0
 40
8.0
100
AcDbArc
 50
90.0
 51
178.0
  0
LINE
  5
25A
100
AcDbEntity
  8
2
100
AcDbLine
 10
-235.106484
 20
48.116396
 30
0.0
 11
-188.857747
 21
48.116396
 31
0.0
  0
LINE
  5
25B
100
AcDbEntity
  8
2
100
AcDbLine
 10
-235.106484
 20
48.116396
 30
0.0
 11
-236.106484
 21
47.116396
 31
0.0
  0
LINE
  5
25C
100
AcDbEntity
  8
2
100
AcDbLine
 10
-201.583773
 20
48.116396
 30
0.0
 11
-200.814868
 21
47.116396
 31
0.0
  0
LINE
  5
25D
100
AcDbEntity
  8
2
100
AcDbLine
 10
-213.106484
 20
159.174679
 30
0.0
 11
-214.106484
 21
158.405774
 31
0.0
  0
LINE
  5
25E
100
AcDbEntity
  8
2
100
AcDbLine
 10
-222.106484
 20
158.405774
 30
0.0
 11
-223.106484
 21
159.174679
 31
0.0
  0
LINE
  5
25F
100
AcDbEntity
  8
2
100
AcDbLine
 10
-201.583773
 20
145.883062
 30
0.0
 11
-200.814868
 21
146.883062
 31
0.0
  0
LINE
  5
260
100
AcDbEntity
  8
2
100
AcDbLine
 10
-201.583773
 20
137.883062
 30
0.0
 11
-200.814868
 21
136.883062
 31
0.0
  0
LINE
  5
261
100
AcDbEntity
  8
2
  6
CENTER
 62
     2
100
AcDbLine
 10
-242.855221
 20
53.801141
 30
0.0
 11
-242.855221
 21
41.232789
 31
0.0
  0
LINE
  5
262
100
AcDbEntity
  8
2
  6
CENTER
 62
     2
100
AcDbLine
 10
-193.357747
 20
53.801141
 30
0.0
 11
-193.357747
 21
41.232789
 31
0.0
  0
LINE
  5
263
100
AcDbEntity
  8
2
100
AcDbLine
 10
-247.355221
 20
48.116396
 30
0.0
 11
-238.355221
 21
48.116396
 31
0.0
  0
ARC
  5
264
100
AcDbEntity
  8
2
100
AcDbCircle
 10
-238.355221
 20
47.616396
 30
0.0
 40
0.5
100
AcDbArc
 50
0.0
 51
90.0
  0
ARC
  5
265
100
AcDbEntity
  8
2
100
AcDbCircle
 10
-247.355221
 20
47.616396
 30
0.0
 40
0.5
100
AcDbArc
 50
90.0
 51
180.0
  0
ARC
  5
266
100
AcDbEntity
  8
2
100
AcDbCircle
 10
-237.355221
 20
47.616396
 30
0.0
 40
0.5
100
AcDbArc
 50
180.0
 51
270.0
  0
ARC
  5
267
100
AcDbEntity
  8
2
100
AcDbCircle
 10
-248.355221
 20
47.616396
 30
0.0
 40
0.5
100
AcDbArc
 50
270.0
 51
360.0
  0
ARC
  5
268
100
AcDbEntity
  8
2
100
AcDbCircle
 10
-188.857747
 20
47.616396
 30
0.0
 40
0.5
100
AcDbArc
 50
0.0
 51
90.0
  0
ARC
  5
269
100
AcDbEntity
  8
2
100
AcDbCircle
 10
-197.857747
 20
47.616396
 30
0.0
 40
0.5
100
AcDbArc
 50
90.0
 51
180.0
  0
ARC
  5
26A
100
AcDbEntity
  8
2
100
AcDbCircle
 10
-187.857747
 20
47.616396
 30
0.0
 40
0.5
100
AcDbArc
 50
180.0
 51
270.0
  0
ARC
  5
26B
100
AcDbEntity
  8
2
100
AcDbCircle
 10
-198.857747
 20
47.616396
 30
0.0
 40
0.5
100
AcDbArc
 50
270.0
 51
360.0
  0
LINE
  5
26C
100
AcDbEntity
  8
2
100
AcDbLine
 10
-223.561757
 20
26.116396
 30
0.0
 11
-222.895825
 21
45.186195
 31
0.0
  0
LINE
  5
26D
100
AcDbEntity
  8
2
100
AcDbLine
 10
-212.651211
 20
26.116396
 30
0.0
 11
-213.317144
 21
45.186195
 31
0.0
  0
LINE
  5
26E
100
AcDbEntity
  8
2
100
AcDbLine
 10
-227.617593
 20
63.116396
 30
0.0
 11
-208.595375
 21
63.116396
 31
0.0
  0
LINE
  5
26F
100
AcDbEntity
  8
2
100
AcDbLine
 10
-228.106484
 20
49.116396
 30
0.0
 11
-208.106484
 21
49.116396
 31
0.0
  0
LINE
  5
270
100
AcDbEntity
  8
2
100
AcDbLine
 10
-207.106484
 20
48.116396
 30
0.0
 11
-208.106484
 21
49.116396
 31
0.0
  0
LINE
  5
271
100
AcDbEntity
  8
2
100
AcDbLine
 10
-229.106484
 20
48.116396
 30
0.0
 11
-228.106484
 21
49.116396
 31
0.0
  0
LINE
  5
272
100
AcDbEntity
  8
2
100
AcDbLine
 10
-208.106484
 20
49.116396
 30
0.0
 11
-208.595375
 21
63.116396
 31
0.0
  0
LINE
  5
273
100
AcDbEntity
  8
2
100
AcDbLine
 10
-228.106484
 20
49.116396
 30
0.0
 11
-227.617593
 21
63.116396
 31
0.0
  0
LINE
  5
274
100
AcDbEntity
  8
2
100
AcDbLine
 10
-227.271636
 20
145.883062
 30
0.0
 11
-213.763814
 21
145.883062
 31
0.0
  0
LINE
  5
275
100
AcDbEntity
  8
2
100
AcDbLine
 10
-227.271636
 20
137.883062
 30
0.0
 11
-213.763814
 21
137.883062
 31
0.0
  0
LINE
  5
276
100
AcDbEntity
  8
2
100
AcDbLine
 10
-208.134649
 20
141.133062
 30
0.0
 11
-213.763814
 21
137.883062
 31
0.0
  0
LINE
  5
277
100
AcDbEntity
  8
2
100
AcDbLine
 10
-208.134649
 20
142.633062
 30
0.0
 11
-213.763814
 21
145.883062
 31
0.0
  0
LINE
  5
278
100
AcDbEntity
  8
2
100
AcDbLine
 10
-226.847119
 20
145.633062
 30
0.0
 11
-214.252705
 21
145.633062
 31
0.0
  0
LINE
  5
279
100
AcDbEntity
  8
2
100
AcDbLine
 10
-226.847119
 20
138.133062
 30
0.0
 11
-214.252705
 21
138.133062
 31
0.0
  0
ARC
  5
27A
100
AcDbEntity
  8
2
100
AcDbCircle
 10
-218.106484
 20
141.883062
 30
0.0
 40
9.511109
100
AcDbArc
 50
156.779186
 51
203.220814
  0
ARC
  5
27B
100
AcDbEntity
  8
2
100
AcDbCircle
 10
-218.106484
 20
141.883062
 30
0.0
 40
9.511109
100
AcDbArc
 50
356.952608
 51
3.047392
  0
LINE
  5
27C
100
AcDbEntity
  8
2
100
AcDbLine
 10
-226.847119
 20
145.633062
 30
0.0
 11
-227.271636
 21
145.883062
 31
0.0
  0
LINE
  5
27D
100
AcDbEntity
  8
2
100
AcDbLine
 10
-226.847119
 20
138.133062
 30
0.0
 11
-227.271636
 21
137.883062
 31
0.0
  0
LINE
  5
27E
100
AcDbEntity
  8
2
100
AcDbLine
 10
-226.847119
 20
63.116396
 30
0.0
 11
-227.271636
 21
49.116396
 31
0.0
  0
LINE
  5
27F
100
AcDbEntity
  8
2
100
AcDbLine
 10
-213.763814
 20
49.116396
 30
0.0
 11
-214.252705
 21
63.116396
 31
0.0
  0
LINE
  5
280
100
AcDbEntity
  8
2
100
AcDbLine
 10
-214.252705
 20
145.633062
 30
0.0
 11
-208.608825
 21
142.388692
 31
0.0
  0
LINE
  5
281
100
AcDbEntity
  8
2
100
AcDbLine
 10
-208.608825
 20
141.377433
 30
0.0
 11
-214.252705
 21
138.133062
 31
0.0
  0
LINE
  5
282
100
AcDbEntity
  8
2
100
AcDbLine
 10
-208.608825
 20
142.388692
 30
0.0
 11
-208.134649
 21
142.633062
 31
0.0
  0
LINE
  5
283
100
AcDbEntity
  8
2
100
AcDbLine
 10
-208.608825
 20
141.377433
 30
0.0
 11
-208.134649
 21
141.133062
 31
0.0
  0
LINE
  5
284
100
AcDbEntity
  8
2
100
AcDbLine
 10
-214.252705
 20
138.133062
 30
0.0
 11
-213.763814
 21
137.883062
 31
0.0
  0
LINE
  5
285
100
AcDbEntity
  8
2
100
AcDbLine
 10
-214.252705
 20
145.633062
 30
0.0
 11
-213.763814
 21
145.883062
 31
0.0
  0
LINE
  5
286
100
AcDbEntity
  8
2
100
AcDbLine
 10
-259.106484
 20
-0.883604
 30
0.0
 11
-177.106484
 21
-0.883604
 31
0.0
  0
LINE
  5
287
100
AcDbEntity
  8
2
100
AcDbLine
 10
-253.106484
 20
-0.883604
 30
0.0
 11
-253.106484
 21
4.616396
 31
0.0
  0
LINE
  5
288
100
AcDbEntity
  8
2
100
AcDbLine
 10
-183.106484
 20
-0.883604
 30
0.0
 11
-183.106484
 21
4.616396
 31
0.0
  0
LINE
  5
289
100
AcDbEntity
  8
2
100
AcDbLine
 10
-259.106484
 20
-0.883604
 30
0.0
 11
-259.106484
 21
4.616396
 31
0.0
  0
LINE
  5
28A
100
AcDbEntity
  8
2
100
AcDbLine
 10
-177.106484
 20
-0.883604
 30
0.0
 11
-177.106484
 21
4.616396
 31
0.0
  0
ARC
  5
28B
100
AcDbEntity
  8
2
100
AcDbCircle
 10
-176.606484
 20
4.616396
 30
0.0
 40
0.5
100
AcDbArc
 50
90.0
 51
180.0
  0
ARC
  5
28C
100
AcDbEntity
  8
2
100
AcDbCircle
 10
-259.606484
 20
4.616396
 30
0.0
 40
0.5
100
AcDbArc
 50
0.0
 51
90.0
  0
ARC
  5
28D
100
AcDbEntity
  8
2
100
AcDbCircle
 10
-253.606484
 20
4.616396
 30
0.0
 40
0.5
100
AcDbArc
 50
0.0
 51
90.0
  0
ARC
  5
28E
100
AcDbEntity
  8
2
100
AcDbCircle
 10
-182.606484
 20
4.616396
 30
0.0
 40
0.5
100
AcDbArc
 50
90.0
 51
180.0
  0
LINE
  5
28F
100
AcDbEntity
  8
2
100
AcDbLine
 10
-174.606484
 20
26.116396
 30
0.0
 11
-175.322969
 21
5.598946
 31
0.0
  0
LINE
  5
290
100
AcDbEntity
  8
2
100
AcDbLine
 10
-261.606484
 20
26.116396
 30
0.0
 11
-260.889999
 21
5.598946
 31
0.0
  0
ARC
  5
291
100
AcDbEntity
  8
2
100
AcDbCircle
 10
-260.390304
 20
5.616396
 30
0.0
 40
0.5
100
AcDbArc
 50
182.0
 51
270.0
  0
ARC
  5
292
100
AcDbEntity
  8
2
100
AcDbCircle
 10
-175.822665
 20
5.616396
 30
0.0
 40
0.5
100
AcDbArc
 50
270.0
 51
358.0
  0
LINE
  5
293
100
AcDbEntity
  8
2
100
AcDbLine
 10
-212.651211
 20
26.116396
 30
0.0
 11
-213.384548
 21
5.116396
 31
0.0
  0
LINE
  5
294
100
AcDbEntity
  8
2
100
AcDbLine
 10
-223.561757
 20
26.116396
 30
0.0
 11
-222.828421
 21
5.116396
 31
0.0
  0
ARC
  5
295
100
AcDbEntity
  8
2
100
AcDbCircle
 10
-215.315925
 20
45.116396
 30
0.0
 40
2.0
100
AcDbArc
 50
2.0
 51
90.0
  0
ARC
  5
296
100
AcDbEntity
  8
2
100
AcDbCircle
 10
-220.897043
 20
45.116396
 30
0.0
 40
2.0
100
AcDbArc
 50
90.0
 51
178.0
  0
LINE
  5
297
100
AcDbEntity
  8
2
100
AcDbLine
 10
-211.62065
 20
4.633846
 30
0.0
 11
-211.813324
 21
-0.883604
 31
0.0
  0
LINE
  5
298
100
AcDbEntity
  8
2
100
AcDbLine
 10
-224.592318
 20
4.633846
 30
0.0
 11
-224.399644
 21
-0.883604
 31
0.0
  0
ARC
  5
299
100
AcDbEntity
  8
2
100
AcDbCircle
 10
-211.120955
 20
4.616396
 30
0.0
 40
0.5
100
AcDbArc
 50
90.0
 51
178.0
  0
ARC
  5
29A
100
AcDbEntity
  8
2
100
AcDbCircle
 10
-225.092013
 20
4.616396
 30
0.0
 40
0.5
100
AcDbArc
 50
2.0
 51
90.0
  0
LINE
  5
29B
100
AcDbEntity
  8
2
  6
CENTER
 62
     2
100
AcDbLine
 10
-198.106484
 20
10.10431
 30
0.0
 11
-198.106484
 21
27.653657
 31
0.0
  0
LINE
  5
29C
100
AcDbEntity
  8
2
  6
CENTER
 62
     2
100
AcDbLine
 10
-206.292344
 20
19.116396
 30
0.0
 11
-189.07071
 21
19.116396
 31
0.0
  0
LINE
  5
29D
100
AcDbEntity
  8
2
100
AcDbLine
 10
-191.106484
 20
19.116396
 30
0.0
 11
-191.106484
 21
26.116396
 31
0.0
  0
LINE
  5
29E
100
AcDbEntity
  8
2
100
AcDbLine
 10
-205.106484
 20
19.116396
 30
0.0
 11
-205.106484
 21
26.116396
 31
0.0
  0
ARC
  5
29F
100
AcDbEntity
  8
2
100
AcDbCircle
 10
-198.106484
 20
19.116396
 30
0.0
 40
7.0
100
AcDbArc
 50
180.0
 51
360.0
  0
CIRCLE
  5
2A0
100
AcDbEntity
  8
2
 62
     2
100
AcDbCircle
 10
-198.106484
 20
19.116396
 30
0.0
 40
2.459
  0
CIRCLE
  5
2A1
100
AcDbEntity
  8
2
100
AcDbCircle
 10
-198.106484
 20
19.116396
 30
0.0
 40
4.9
  0
CIRCLE
  5
2A2
100
AcDbEntity
  8
2
100
AcDbCircle
 10
-198.106484
 20
19.116396
 30
0.0
 40
3.0
  0
LINE
  5
2A3
100
AcDbEntity
  8
2
100
AcDbLine
 10
-200.993236
 20
24.116396
 30
0.0
 11
-195.219733
 21
24.116396
 31
0.0
  0
LINE
  5
2A4
100
AcDbEntity
  8
2
100
AcDbLine
 10
-200.993236
 20
14.116396
 30
0.0
 11
-195.219733
 21
14.116396
 31
0.0
  0
LINE
  5
2A5
100
AcDbEntity
  8
2
100
AcDbLine
 10
-203.879987
 20
19.116396
 30
0.0
 11
-200.993236
 21
24.116396
 31
0.0
  0
LINE
  5
2A6
100
AcDbEntity
  8
2
100
AcDbLine
 10
-195.219733
 20
14.116396
 30
0.0
 11
-192.332981
 21
19.116396
 31
0.0
  0
LINE
  5
2A7
100
AcDbEntity
  8
2
100
AcDbLine
 10
-200.993236
 20
14.116396
 30
0.0
 11
-203.879987
 21
19.116396
 31
0.0
  0
LINE
  5
2A8
100
AcDbEntity
  8
2
100
AcDbLine
 10
-192.332981
 20
19.116396
 30
0.0
 11
-195.219733
 21
24.116396
 31
0.0
  0
LINE
  5
2A9
100
AcDbEntity
  8
2
100
AcDbLine
 10
-196.606484
 20
18.25037
 30
0.0
 11
-196.606484
 21
19.982421
 31
0.0
  0
LINE
  5
2AA
100
AcDbEntity
  8
2
100
AcDbLine
 10
-199.606484
 20
18.25037
 30
0.0
 11
-199.606484
 21
19.982421
 31
0.0
  0
LINE
  5
2AB
100
AcDbEntity
  8
2
100
AcDbLine
 10
-198.106484
 20
17.384345
 30
0.0
 11
-199.606484
 21
18.25037
 31
0.0
  0
LINE
  5
2AC
100
AcDbEntity
  8
2
100
AcDbLine
 10
-196.606484
 20
19.982421
 30
0.0
 11
-198.106484
 21
20.848447
 31
0.0
  0
LINE
  5
2AD
100
AcDbEntity
  8
2
100
AcDbLine
 10
-198.106484
 20
20.848447
 30
0.0
 11
-199.606484
 21
19.982421
 31
0.0
  0
LINE
  5
2AE
100
AcDbEntity
  8
2
100
AcDbLine
 10
-196.606484
 20
18.25037
 30
0.0
 11
-198.106484
 21
17.384345
 31
0.0
  0
LINE
  5
2AF
100
AcDbEntity
  8
2
100
AcDbLine
 10
112.593516
 20
47.116396
 30
0.0
 11
39.052362
 21
47.116396
 31
0.0
  0
ARC
  5
2B0
100
AcDbEntity
  8
2
100
AcDbCircle
 10
112.593516
 20
26.116396
 30
0.0
 40
21.0
100
AcDbArc
 50
270.0
 51
90.0
  0
LINE
  5
2B1
100
AcDbEntity
  8
2
100
AcDbLine
 10
29.393516
 20
26.116396
 30
0.0
 11
29.857236
 21
39.395592
 31
0.0
  0
ARC
  5
2B2
100
AcDbEntity
  8
2
100
AcDbCircle
 10
37.852362
 20
39.116396
 30
0.0
 40
8.0
100
AcDbArc
 50
97.346261
 51
178.0
  0
LINE
  5
2B3
100
AcDbEntity
  8
2
100
AcDbLine
 10
30.593516
 20
26.116396
 30
0.0
 11
31.057236
 21
39.395592
 31
0.0
  0
ARC
  5
2B4
100
AcDbEntity
  8
2
100
AcDbCircle
 10
39.052362
 20
39.116396
 30
0.0
 40
8.0
100
AcDbArc
 50
90.0
 51
178.0
  0
LINE
  5
2B5
100
AcDbEntity
  8
2
100
AcDbLine
 10
49.593516
 20
48.116396
 30
0.0
 11
95.842253
 21
48.116396
 31
0.0
  0
LINE
  5
2B6
100
AcDbEntity
  8
2
100
AcDbLine
 10
49.593516
 20
48.116396
 30
0.0
 11
48.593516
 21
47.116396
 31
0.0
  0
LINE
  5
2B7
100
AcDbEntity
  8
2
100
AcDbLine
 10
83.116227
 20
48.116396
 30
0.0
 11
83.885132
 21
47.116396
 31
0.0
  0
LINE
  5
2B8
100
AcDbEntity
  8
2
  6
CENTER
 62
     2
100
AcDbLine
 10
41.844779
 20
53.801141
 30
0.0
 11
41.844779
 21
41.232789
 31
0.0
  0
LINE
  5
2B9
100
AcDbEntity
  8
2
  6
CENTER
 62
     2
100
AcDbLine
 10
91.342253
 20
53.801141
 30
0.0
 11
91.342253
 21
41.232789
 31
0.0
  0
LINE
  5
2BA
100
AcDbEntity
  8
2
100
AcDbLine
 10
37.344779
 20
48.116396
 30
0.0
 11
46.344779
 21
48.116396
 31
0.0
  0
ARC
  5
2BB
100
AcDbEntity
  8
2
100
AcDbCircle
 10
46.344779
 20
47.616396
 30
0.0
 40
0.5
100
AcDbArc
 50
0.0
 51
90.0
  0
ARC
  5
2BC
100
AcDbEntity
  8
2
100
AcDbCircle
 10
37.344779
 20
47.616396
 30
0.0
 40
0.5
100
AcDbArc
 50
90.0
 51
180.0
  0
ARC
  5
2BD
100
AcDbEntity
  8
2
100
AcDbCircle
 10
47.344779
 20
47.616396
 30
0.0
 40
0.5
100
AcDbArc
 50
180.0
 51
270.0
  0
ARC
  5
2BE
100
AcDbEntity
  8
2
100
AcDbCircle
 10
95.842253
 20
47.616396
 30
0.0
 40
0.5
100
AcDbArc
 50
0.0
 51
90.0
  0
ARC
  5
2BF
100
AcDbEntity
  8
2
100
AcDbCircle
 10
86.842253
 20
47.616396
 30
0.0
 40
0.5
100
AcDbArc
 50
90.0
 51
180.0
  0
ARC
  5
2C0
100
AcDbEntity
  8
2
100
AcDbCircle
 10
96.842253
 20
47.616396
 30
0.0
 40
0.5
100
AcDbArc
 50
180.0
 51
270.0
  0
ARC
  5
2C1
100
AcDbEntity
  8
2
100
AcDbCircle
 10
85.842253
 20
47.616396
 30
0.0
 40
0.5
100
AcDbArc
 50
270.0
 51
360.0
  0
LINE
  5
2C2
100
AcDbEntity
  8
2
100
AcDbLine
 10
71.593516
 20
47.116396
 30
0.0
 11
70.593516
 21
48.116396
 31
0.0
  0
LINE
  5
2C3
100
AcDbEntity
  8
2
100
AcDbLine
 10
61.593516
 20
47.116396
 30
0.0
 11
62.593516
 21
48.116396
 31
0.0
  0
LINE
  5
2C4
100
AcDbEntity
  8
2
100
AcDbLine
 10
30.336377
 20
-0.883604
 30
0.0
 11
101.593516
 21
-0.883604
 31
0.0
  0
LINE
  5
2C5
100
AcDbEntity
  8
2
100
AcDbLine
 10
30.593516
 20
26.116396
 30
0.0
 11
31.310001
 21
5.598946
 31
0.0
  0
LINE
  5
2C6
100
AcDbEntity
  8
2
100
AcDbLine
 10
31.593516
 20
4.918481
 30
0.0
 11
31.593516
 21
-0.883604
 31
0.0
  0
LINE
  5
2C7
100
AcDbEntity
  8
2
100
AcDbLine
 10
-260.390304
 20
5.116396
 30
0.0
 11
-222.828421
 21
5.116396
 31
0.0
  0
LINE
  5
2C8
100
AcDbEntity
  8
2
100
AcDbLine
 10
-213.384548
 20
5.116396
 30
0.0
 11
-175.822665
 21
5.116396
 31
0.0
  0
ARC
  5
2C9
100
AcDbEntity
  8
2
100
AcDbCircle
 10
31.809696
 20
5.616396
 30
0.0
 40
0.5
100
AcDbArc
 50
182.0
 51
270.0
  0
ARC
  5
2CA
100
AcDbEntity
  8
2
100
AcDbCircle
 10
31.093516
 20
4.918481
 30
0.0
 40
0.5
100
AcDbArc
 50
0.0
 51
44.259967
  0
LINE
  5
2CB
100
AcDbEntity
  8
2
100
AcDbLine
 10
36.844779
 20
47.616396
 30
0.0
 11
36.844779
 21
47.173628
 31
0.0
  0
ARC
  5
2CC
100
AcDbEntity
  8
2
100
AcDbCircle
 10
36.344779
 20
47.173628
 30
0.0
 40
0.5
100
AcDbArc
 50
288.574608
 51
360.0
  0
LINE
  5
2CD
100
AcDbEntity
  8
2
100
AcDbLine
 10
101.593516
 20
2.116396
 30
0.0
 11
101.593516
 21
-0.883604
 31
0.0
  0
ARC
  5
2CE
100
AcDbEntity
  8
2
100
AcDbCircle
 10
104.593516
 20
2.116396
 30
0.0
 40
3.0
100
AcDbArc
 50
90.0
 51
180.0
  0
LINE
  5
2CF
100
AcDbEntity
  8
2
100
AcDbLine
 10
62.843516
 20
63.116396
 30
0.0
 11
70.343516
 21
63.116396
 31
0.0
  0
LINE
  5
2D0
100
AcDbEntity
  8
2
100
AcDbLine
 10
56.593516
 20
49.116396
 30
0.0
 11
76.593516
 21
49.116396
 31
0.0
  0
LINE
  5
2D1
100
AcDbEntity
  8
2
100
AcDbLine
 10
55.593516
 20
48.116396
 30
0.0
 11
56.593516
 21
49.116396
 31
0.0
  0
LINE
  5
2D2
100
AcDbEntity
  8
2
100
AcDbLine
 10
76.593516
 20
49.116396
 30
0.0
 11
77.593516
 21
48.116396
 31
0.0
  0
LINE
  5
2D3
100
AcDbEntity
  8
2
100
AcDbLine
 10
70.343516
 20
63.116396
 30
0.0
 11
70.593516
 21
49.116396
 31
0.0
  0
LINE
  5
2D4
100
AcDbEntity
  8
2
100
AcDbLine
 10
62.843516
 20
63.116396
 30
0.0
 11
62.593516
 21
49.116396
 31
0.0
  0
LINE
  5
2D5
100
AcDbEntity
  8
2
100
AcDbLine
 10
65.843516
 20
49.116396
 30
0.0
 11
66.093516
 21
63.116396
 31
0.0
  0
LINE
  5
2D6
100
AcDbEntity
  8
2
100
AcDbLine
 10
67.343516
 20
49.116396
 30
0.0
 11
67.093516
 21
63.116396
 31
0.0
  0
LINE
  5
2D7
100
AcDbEntity
  8
2
100
AcDbLine
 10
78.593516
 20
4.616396
 30
0.0
 11
78.593516
 21
-0.883604
 31
0.0
  0
LINE
  5
2D8
100
AcDbEntity
  8
2
100
AcDbLine
 10
54.593516
 20
4.616396
 30
0.0
 11
54.593516
 21
-0.883604
 31
0.0
  0
ARC
  5
2D9
100
AcDbEntity
  8
2
100
AcDbCircle
 10
79.093516
 20
4.616396
 30
0.0
 40
0.5
100
AcDbArc
 50
90.0
 51
180.0
  0
ARC
  5
2DA
100
AcDbEntity
  8
2
100
AcDbCircle
 10
54.093516
 20
4.616396
 30
0.0
 40
0.5
100
AcDbArc
 50
0.0
 51
90.0
  0
LINE
  5
2DB
100
AcDbEntity
  8
2
  6
CENTER
 62
     2
100
AcDbLine
 10
98.093516
 20
27.80771
 30
0.0
 11
98.093516
 21
11.856889
 31
0.0
  0
LINE
  5
2DC
100
AcDbEntity
  8
2
100
AcDbLine
 10
103.110367
 20
20.633846
 30
0.0
 11
103.618546
 21
6.081496
 31
0.0
  0
LINE
  5
2DD
100
AcDbEntity
  8
2
100
AcDbLine
 10
93.076665
 20
20.633846
 30
0.0
 11
92.325259
 21
-0.883604
 31
0.0
  0
LINE
  5
2DE
100
AcDbEntity
  8
2
100
AcDbLine
 10
93.57636
 20
21.116396
 30
0.0
 11
102.610671
 21
21.116396
 31
0.0
  0
LINE
  5
2DF
100
AcDbEntity
  8
2
100
AcDbLine
 10
121.57636
 20
21.116396
 30
0.0
 11
132.189434
 21
21.116396
 31
0.0
  0
ARC
  5
2E0
100
AcDbEntity
  8
2
100
AcDbCircle
 10
102.610671
 20
20.616396
 30
0.0
 40
0.5
100
AcDbArc
 50
2.0
 51
90.0
  0
ARC
  5
2E1
100
AcDbEntity
  8
2
100
AcDbCircle
 10
93.57636
 20
20.616396
 30
0.0
 40
0.5
100
AcDbArc
 50
90.0
 51
178.0
  0
ARC
  5
2E2
100
AcDbEntity
  8
2
100
AcDbCircle
 10
104.617937
 20
6.116396
 30
0.0
 40
1.0
100
AcDbArc
 50
182.0
 51
270.0
  0
ARC
  5
2E3
100
AcDbEntity
  8
2
100
AcDbCircle
 10
91.569095
 20
6.116396
 30
0.0
 40
1.0
100
AcDbArc
 50
270.0
 51
358.0
  0
LINE
  5
2E4
100
AcDbEntity
  8
2
100
AcDbLine
 10
31.809696
 20
5.116396
 30
0.0
 11
91.569095
 21
5.116396
 31
0.0
  0
LINE
  5
2E5
100
AcDbEntity
  8
2
100
AcDbLine
 10
104.593516
 20
5.116396
 30
0.0
 11
112.593516
 21
5.116396
 31
0.0
  0
LINE
  5
2E6
100
AcDbEntity
  8
2
  6
CENTER
 62
     2
100
AcDbLine
 10
126.093516
 20
27.80771
 30
0.0
 11
126.093516
 21
11.856889
 31
0.0
  0
LINE
  5
2E7
100
AcDbEntity
  8
2
100
AcDbLine
 10
121.076665
 20
20.633846
 30
0.0
 11
120.612922
 21
7.353993
 31
0.0
  0
ARC
  5
2E8
100
AcDbEntity
  8
2
100
AcDbCircle
 10
119.613531
 20
7.388892
 30
0.0
 40
1.0
100
AcDbArc
 50
290.548539
 51
358.0
  0
ARC
  5
2E9
100
AcDbEntity
  8
2
100
AcDbCircle
 10
132.189434
 20
22.116396
 30
0.0
 40
1.0
100
AcDbArc
 50
270.0
 51
348.463041
  0
ARC
  5
2EA
100
AcDbEntity
  8
2
100
AcDbCircle
 10
121.57636
 20
20.616396
 30
0.0
 40
0.5
100
AcDbArc
 50
90.0
 51
178.0
  0
LINE
  5
2EB
100
AcDbEntity
  8
2
100
AcDbLine
 10
102.343516
 20
21.116396
 30
0.0
 11
102.343516
 21
16.416396
 31
0.0
  0
LINE
  5
2EC
100
AcDbEntity
  8
2
100
AcDbLine
 10
102.343516
 20
16.416396
 30
0.0
 11
101.823901
 21
16.116396
 31
0.0
  0
LINE
  5
2ED
100
AcDbEntity
  8
2
100
AcDbLine
 10
102.343516
 20
16.416396
 30
0.0
 11
93.843516
 21
16.416396
 31
0.0
  0
LINE
  5
2EE
100
AcDbEntity
  8
2
100
AcDbLine
 10
93.843516
 20
21.116396
 30
0.0
 11
93.843516
 21
16.416396
 31
0.0
  0
LINE
  5
2EF
100
AcDbEntity
  8
2
100
AcDbLine
 10
93.843516
 20
16.416396
 30
0.0
 11
94.363131
 21
16.116396
 31
0.0
  0
LINE
  5
2F0
100
AcDbEntity
  8
2
100
AcDbLine
 10
94.363131
 20
16.116396
 30
0.0
 11
101.823901
 21
16.116396
 31
0.0
  0
LINE
  5
2F1
100
AcDbEntity
  8
2
100
AcDbLine
 10
130.343516
 20
21.116396
 30
0.0
 11
130.343516
 21
16.416396
 31
0.0
  0
LINE
  5
2F2
100
AcDbEntity
  8
2
100
AcDbLine
 10
130.343516
 20
16.416396
 30
0.0
 11
129.823901
 21
16.116396
 31
0.0
  0
LINE
  5
2F3
100
AcDbEntity
  8
2
100
AcDbLine
 10
130.343516
 20
16.416396
 30
0.0
 11
121.843516
 21
16.416396
 31
0.0
  0
LINE
  5
2F4
100
AcDbEntity
  8
2
100
AcDbLine
 10
121.843516
 20
21.116396
 30
0.0
 11
121.843516
 21
16.416396
 31
0.0
  0
LINE
  5
2F5
100
AcDbEntity
  8
2
100
AcDbLine
 10
121.843516
 20
16.416396
 30
0.0
 11
122.363131
 21
16.116396
 31
0.0
  0
LINE
  5
2F6
100
AcDbEntity
  8
2
100
AcDbLine
 10
122.363131
 20
16.116396
 30
0.0
 11
129.823901
 21
16.116396
 31
0.0
  0
LINE
  5
2F7
100
AcDbEntity
  8
2
100
AcDbLine
 10
30.593516
 20
12.116396
 30
0.0
 11
31.082407
 21
12.116396
 31
0.0
  0
LINE
  5
2F8
100
AcDbEntity
  8
2
100
AcDbLine
 10
30.593516
 20
26.116396
 30
0.0
 11
30.593516
 21
12.116396
 31
0.0
  0
LINE
  5
2F9
100
AcDbEntity
  8
2
  6
CENTER
 62
     2
100
AcDbLine
 10
37.765372
 20
19.116396
 30
0.0
 11
14.623198
 21
19.116396
 31
0.0
  0
LINE
  5
2FA
100
AcDbEntity
  8
2
100
AcDbLine
 10
30.593516
 20
14.116396
 30
0.0
 11
25.593516
 21
14.116396
 31
0.0
  0
LINE
  5
2FB
100
AcDbEntity
  8
2
100
AcDbLine
 10
25.593516
 20
14.116396
 30
0.0
 11
25.593516
 21
24.116396
 31
0.0
  0
ARC
  5
2FC
100
AcDbEntity
  8
2
100
AcDbCircle
 10
32.206724
 20
16.616396
 30
0.0
 40
6.613208
100
AcDbArc
 50
157.788205
 51
202.211795
  0
LINE
  5
2FD
100
AcDbEntity
  8
2
100
AcDbLine
 10
30.593516
 20
24.116396
 30
0.0
 11
25.593516
 21
24.116396
 31
0.0
  0
LINE
  5
2FE
100
AcDbEntity
  8
2
100
AcDbLine
 10
30.593516
 20
19.116396
 30
0.0
 11
26.084264
 21
19.116396
 31
0.0
  0
ARC
  5
2FF
100
AcDbEntity
  8
2
100
AcDbCircle
 10
32.206724
 20
21.616396
 30
0.0
 40
6.613208
100
AcDbArc
 50
157.788205
 51
202.211795
  0
LINE
  5
300
100
AcDbEntity
  8
2
100
AcDbLine
 10
29.393516
 20
26.116396
 30
0.0
 11
29.463357
 21
24.116396
 31
0.0
  0
LINE
  5
301
100
AcDbEntity
  8
2
100
AcDbLine
 10
29.812565
 20
14.116396
 30
0.0
 11
30.336377
 21
-0.883604
 31
0.0
  0
LINE
  5
302
100
AcDbEntity
  8
2
100
AcDbLine
 10
18.593516
 20
21.575396
 30
0.0
 11
18.593516
 21
16.657396
 31
0.0
  0
LINE
  5
303
100
AcDbEntity
  8
2
100
AcDbLine
 10
18.593516
 20
21.575396
 30
0.0
 11
19.134516
 21
22.116396
 31
0.0
  0
LINE
  5
304
100
AcDbEntity
  8
2
100
AcDbLine
 10
19.134516
 20
22.116396
 30
0.0
 11
25.593516
 21
22.116396
 31
0.0
  0
LINE
  5
305
100
AcDbEntity
  8
2
100
AcDbLine
 10
19.134516
 20
22.116396
 30
0.0
 11
19.134516
 21
16.116396
 31
0.0
  0
LINE
  5
306
100
AcDbEntity
  8
2
 62
     2
100
AcDbLine
 10
18.593516
 20
21.575396
 30
0.0
 11
25.593516
 21
21.575396
 31
0.0
  0
LINE
  5
307
100
AcDbEntity
  8
2
100
AcDbLine
 10
18.593516
 20
16.657396
 30
0.0
 11
19.134516
 21
16.116396
 31
0.0
  0
LINE
  5
308
100
AcDbEntity
  8
2
100
AcDbLine
 10
19.134516
 20
16.116396
 30
0.0
 11
25.593516
 21
16.116396
 31
0.0
  0
LINE
  5
309
100
AcDbEntity
  8
2
 62
     2
100
AcDbLine
 10
18.593516
 20
16.657396
 30
0.0
 11
25.593516
 21
16.657396
 31
0.0
  0
LINE
  5
30A
100
AcDbEntity
  8
2
  6
CENTER
 62
     2
100
AcDbLine
 10
-198.106484
 20
109.452582
 30
0.0
 11
-198.106484
 21
89.912745
 31
0.0
  0
LINE
  5
30B
100
AcDbEntity
  8
2
100
AcDbLine
 10
-200.565484
 20
93.883062
 30
0.0
 11
-195.647484
 21
93.883062
 31
0.0
  0
LINE
  5
30C
100
AcDbEntity
  8
2
100
AcDbLine
 10
-200.565484
 20
93.883062
 30
0.0
 11
-201.106484
 21
94.424062
 31
0.0
  0
LINE
  5
30D
100
AcDbEntity
  8
2
100
AcDbLine
 10
-201.106484
 20
94.424062
 30
0.0
 11
-201.106484
 21
100.883062
 31
0.0
  0
LINE
  5
30E
100
AcDbEntity
  8
2
100
AcDbLine
 10
-201.106484
 20
94.424062
 30
0.0
 11
-195.106484
 21
94.424062
 31
0.0
  0
LINE
  5
30F
100
AcDbEntity
  8
2
 62
     2
100
AcDbLine
 10
-200.565484
 20
93.883062
 30
0.0
 11
-200.565484
 21
100.883062
 31
0.0
  0
LINE
  5
310
100
AcDbEntity
  8
2
100
AcDbLine
 10
-195.647484
 20
93.883062
 30
0.0
 11
-195.106484
 21
94.424062
 31
0.0
  0
LINE
  5
311
100
AcDbEntity
  8
2
100
AcDbLine
 10
-195.106484
 20
94.424062
 30
0.0
 11
-195.106484
 21
100.883062
 31
0.0
  0
LINE
  5
312
100
AcDbEntity
  8
2
 62
     2
100
AcDbLine
 10
-195.647484
 20
93.883062
 30
0.0
 11
-195.647484
 21
100.883062
 31
0.0
  0
LINE
  5
313
100
AcDbEntity
  8
2
100
AcDbLine
 10
-191.106484
 20
106.066409
 30
0.0
 11
-191.106484
 21
105.883062
 31
0.0
  0
LINE
  5
314
100
AcDbEntity
  8
2
100
AcDbLine
 10
-192.356484
 20
105.883062
 30
0.0
 11
-192.356484
 21
101.37381
 31
0.0
  0
LINE
  5
315
100
AcDbEntity
  8
2
100
AcDbLine
 10
-192.356484
 20
101.37381
 30
0.0
 11
-193.206484
 21
100.883062
 31
0.0
  0
LINE
  5
316
100
AcDbEntity
  8
2
100
AcDbLine
 10
-195.231484
 20
105.883062
 30
0.0
 11
-195.231484
 21
101.37381
 31
0.0
  0
ARC
  5
317
100
AcDbEntity
  8
2
100
AcDbCircle
 10
-193.793984
 20
103.221765
 30
0.0
 40
2.341227
100
AcDbArc
 50
232.121121
 51
307.878879
  0
ARC
  5
318
100
AcDbEntity
  8
2
100
AcDbCircle
 10
-198.106484
 20
109.505538
 30
0.0
 40
8.625
100
AcDbArc
 50
250.528777
 51
289.471219
  0
LINE
  5
319
100
AcDbEntity
  8
2
100
AcDbLine
 10
-203.856484
 20
105.883062
 30
0.0
 11
-203.856484
 21
101.37381
 31
0.0
  0
LINE
  5
31A
100
AcDbEntity
  8
2
100
AcDbLine
 10
-203.856484
 20
101.37381
 30
0.0
 11
-203.006484
 21
100.883062
 31
0.0
  0
LINE
  5
31B
100
AcDbEntity
  8
2
100
AcDbLine
 10
-203.006484
 20
100.883062
 30
0.0
 11
-193.206484
 21
100.883062
 31
0.0
  0
LINE
  5
31C
100
AcDbEntity
  8
2
100
AcDbLine
 10
-200.981484
 20
105.883062
 30
0.0
 11
-200.981484
 21
101.37381
 31
0.0
  0
ARC
  5
31D
100
AcDbEntity
  8
2
100
AcDbCircle
 10
-202.418984
 20
103.221765
 30
0.0
 40
2.341227
100
AcDbArc
 50
232.121121
 51
307.878879
  0
TEXT
  5
31E
100
AcDbEntity
  8
2
100
AcDbText
 10
-199.606484
 20
146.883062
 30
0.0
 40
10.0
  1
Ｓ
 50
270.0
 72
     5
 11
-199.606484
 21
138.883062
 31
0.0
100
AcDbText
  0
TEXT
  5
31F
100
AcDbEntity
  8
2
100
AcDbText
 10
-223.106484
 20
160.383062
 30
0.0
 40
10.0
  1
Ｏ
 72
     5
 11
-215.106484
 21
160.383062
 31
0.0
100
AcDbText
  0
LINE
  5
320
100
AcDbEntity
  8
2
100
AcDbLine
 10
-185.857747
 20
-14.883604
 30
0.0
 11
-185.857747
 21
-19.661916
 31
0.0
  0
LINE
  5
321
100
AcDbEntity
  8
2
100
AcDbLine
 10
-185.857747
 20
-19.661916
 30
0.0
 11
-187.107747
 21
-20.383604
 31
0.0
  0
LINE
  5
322
100
AcDbEntity
  8
2
100
AcDbLine
 10
-189.607747
 20
-14.883604
 30
0.0
 11
-189.607747
 21
-19.661916
 31
0.0
  0
ARC
  5
323
100
AcDbEntity
  8
2
100
AcDbCircle
 10
-187.732747
 20
-17.25154
 30
0.0
 40
3.053774
100
AcDbArc
 50
232.121121
 51
307.878879
  0
ARC
  5
324
100
AcDbEntity
  8
2
100
AcDbCircle
 10
-193.357747
 20
-9.055315
 30
0.0
 40
11.25
100
AcDbArc
 50
250.528779
 51
289.471219
  0
LINE
  5
325
100
AcDbEntity
  8
2
100
AcDbLine
 10
-198.872099
 20
-20.383604
 30
0.0
 11
-187.107747
 21
-20.383604
 31
0.0
  0
ARC
  5
326
100
AcDbEntity
  8
2
100
AcDbCircle
 10
-198.982747
 20
-17.25154
 30
0.0
 40
3.053774
100
AcDbArc
 50
273.169347
 51
307.878879
  0
LINE
  5
327
100
AcDbEntity
  8
2
100
AcDbLine
 10
-185.657747
 20
-12.883604
 30
0.0
 11
-185.657747
 21
-14.883604
 31
0.0
  0
LINE
  5
328
100
AcDbEntity
  8
2
100
AcDbLine
 10
-185.657747
 20
-14.883604
 30
0.0
 11
-192.739788
 21
-14.883604
 31
0.0
  0
LINE
  5
329
100
AcDbEntity
  8
2
100
AcDbLine
 10
41.844779
 20
-15.237434
 30
0.0
 11
41.844779
 21
-19.661916
 31
0.0
  0
ARC
  5
32A
100
AcDbEntity
  8
2
100
AcDbCircle
 10
45.094779
 20
-12.704846
 30
0.0
 40
7.678759
100
AcDbArc
 50
244.96034
 51
285.587684
  0
LINE
  5
32B
100
AcDbEntity
  8
2
100
AcDbLine
 10
35.344779
 20
-14.883604
 30
0.0
 11
35.344779
 21
-20.383604
 31
0.0
  0
LINE
  5
32C
100
AcDbEntity
  8
2
100
AcDbLine
 10
35.344779
 20
-20.383604
 30
0.0
 11
47.359131
 21
-20.383604
 31
0.0
  0
ARC
  5
32D
100
AcDbEntity
  8
2
100
AcDbCircle
 10
38.594779
 20
-12.704846
 30
0.0
 40
7.678759
100
AcDbArc
 50
244.96034
 51
295.03966
  0
LINE
  5
32E
100
AcDbEntity
  8
2
100
AcDbLine
 10
41.22682
 20
-14.883604
 30
0.0
 11
34.144779
 21
-14.883604
 31
0.0
  0
LINE
  5
32F
100
AcDbEntity
  8
2
100
AcDbLine
 10
34.144779
 20
-14.883604
 30
0.0
 11
34.144779
 21
-12.883604
 31
0.0
  0
LINE
  5
330
100
AcDbEntity
  8
2
100
AcDbLine
 10
-197.107747
 20
-18.229518
 30
0.0
 11
-197.107747
 21
-19.661916
 31
0.0
  0
CIRCLE
  5
331
100
AcDbEntity
  8
2
  6
PHANTOM
 62
     2
100
AcDbCircle
 10
112.593516
 20
26.116396
 30
0.0
 40
50.0
  0
LINE
  5
332
100
AcDbEntity
  8
2
  6
PHANTOM
 62
     2
100
AcDbLine
 10
119.912337
 20
64.92116
 30
0.0
 11
120.605019
 21
50.374833
 31
0.0
  0
LINE
  5
333
100
AcDbEntity
  8
2
  6
PHANTOM
 62
     2
100
AcDbLine
 10
105.274695
 20
64.92116
 30
0.0
 11
104.582013
 21
50.374833
 31
0.0
  0
LINE
  5
334
100
AcDbEntity
  8
2
  6
PHANTOM
 62
     2
100
AcDbLine
 10
75.328194
 20
13.052299
 30
0.0
 11
87.579341
 21
20.925342
 31
0.0
  0
LINE
  5
335
100
AcDbEntity
  8
2
  6
PHANTOM
 62
     2
100
AcDbLine
 10
82.647015
 20
0.375729
 30
0.0
 11
95.590844
 21
7.049012
 31
0.0
  0
LINE
  5
336
100
AcDbEntity
  8
2
  6
PHANTOM
 62
     2
100
AcDbLine
 10
142.540017
 20
0.375729
 30
0.0
 11
129.596187
 21
7.049012
 31
0.0
  0
LINE
  5
337
100
AcDbEntity
  8
2
  6
PHANTOM
 62
     2
100
AcDbLine
 10
149.858838
 20
13.052299
 30
0.0
 11
137.60769
 21
20.925342
 31
0.0
  0
CIRCLE
  5
338
100
AcDbEntity
  8
2
  6
PHANTOM
 62
     2
100
AcDbCircle
 10
112.593516
 20
26.116396
 30
0.0
 40
23.5
  0
ARC
  5
339
100
AcDbEntity
  8
2
  6
PHANTOM
 62
     2
100
AcDbCircle
 10
124.101057
 20
50.541311
 30
0.0
 40
3.5
100
AcDbArc
 50
182.726311
 51
244.773025
  0
ARC
  5
33A
100
AcDbEntity
  8
2
  6
PHANTOM
 62
     2
100
AcDbCircle
 10
101.085974
 20
50.541311
 30
0.0
 40
3.5
100
AcDbArc
 50
295.226975
 51
357.273689
  0
ARC
  5
33B
100
AcDbEntity
  8
2
  6
PHANTOM
 62
     2
100
AcDbCircle
 10
85.687148
 20
23.869761
 30
0.0
 40
3.5
100
AcDbArc
 50
302.726311
 51
4.773025
  0
ARC
  5
33C
100
AcDbEntity
  8
2
  6
PHANTOM
 62
     2
100
AcDbCircle
 10
97.194689
 20
3.938115
 30
0.0
 40
3.5
100
AcDbArc
 50
55.226975
 51
117.273689
  0
ARC
  5
33D
100
AcDbEntity
  8
2
  6
PHANTOM
 62
     2
100
AcDbCircle
 10
127.992342
 20
3.938115
 30
0.0
 40
3.5
100
AcDbArc
 50
62.726311
 51
124.773025
  0
ARC
  5
33E
100
AcDbEntity
  8
2
  6
PHANTOM
 62
     2
100
AcDbCircle
 10
139.499884
 20
23.869761
 30
0.0
 40
3.5
100
AcDbArc
 50
175.226975
 51
237.273689
  0
CIRCLE
  5
33F
100
AcDbEntity
  8
2
  6
PHANTOM
 62
     2
100
AcDbCircle
 10
112.593516
 20
26.116396
 30
0.0
 40
20.5
  0
ARC
  5
340
100
AcDbEntity
  8
2
  6
PHANTOM
 62
     2
100
AcDbCircle
 10
112.593516
 20
26.116396
 30
0.0
 40
42.0
100
AcDbArc
 50
80.134313
 51
99.865687
  0
ARC
  5
341
100
AcDbEntity
  8
2
  6
PHANTOM
 62
     2
100
AcDbCircle
 10
112.593516
 20
26.116396
 30
0.0
 40
42.0
100
AcDbArc
 50
103.468688
 51
196.531312
  0
ARC
  5
342
100
AcDbEntity
  8
2
  6
PHANTOM
 62
     2
100
AcDbCircle
 10
112.593516
 20
26.116396
 30
0.0
 40
42.0
100
AcDbArc
 50
200.134313
 51
219.865687
  0
ARC
  5
343
100
AcDbEntity
  8
2
  6
PHANTOM
 62
     2
100
AcDbCircle
 10
112.593516
 20
26.116396
 30
0.0
 40
42.0
100
AcDbArc
 50
223.468688
 51
316.531312
  0
ARC
  5
344
100
AcDbEntity
  8
2
  6
PHANTOM
 62
     2
100
AcDbCircle
 10
112.593516
 20
26.116396
 30
0.0
 40
42.0
100
AcDbArc
 50
320.134313
 51
339.865687
  0
ARC
  5
345
100
AcDbEntity
  8
2
  6
PHANTOM
 62
     2
100
AcDbCircle
 10
112.593516
 20
26.116396
 30
0.0
 40
42.0
100
AcDbArc
 50
343.468688
 51
76.531312
  0
ARC
  5
346
100
AcDbEntity
  8
2
  6
PHANTOM
 62
     2
100
AcDbCircle
 10
121.910073
 20
65.01629
 30
0.0
 40
2.0
100
AcDbArc
 50
76.531312
 51
182.726311
  0
ARC
  5
347
100
AcDbEntity
  8
2
  6
PHANTOM
 62
     2
100
AcDbCircle
 10
103.276959
 20
65.01629
 30
0.0
 40
2.0
100
AcDbArc
 50
357.273689
 51
103.468688
  0
ARC
  5
348
100
AcDbEntity
  8
2
  6
PHANTOM
 62
     2
100
AcDbCircle
 10
74.246941
 20
14.734824
 30
0.0
 40
2.0
100
AcDbArc
 50
196.531312
 51
302.726311
  0
ARC
  5
349
100
AcDbEntity
  8
2
  6
PHANTOM
 62
     2
100
AcDbCircle
 10
83.563498
 20
-1.401926
 30
0.0
 40
2.0
100
AcDbArc
 50
117.273689
 51
223.468688
  0
ARC
  5
34A
100
AcDbEntity
  8
2
  6
PHANTOM
 62
     2
100
AcDbCircle
 10
141.623534
 20
-1.401926
 30
0.0
 40
2.0
100
AcDbArc
 50
316.531312
 51
62.726311
  0
ARC
  5
34B
100
AcDbEntity
  8
2
  6
PHANTOM
 62
     2
100
AcDbCircle
 10
150.940091
 20
14.734824
 30
0.0
 40
2.0
100
AcDbArc
 50
237.273689
 51
343.468688
  0
LINE
  5
34C
100
AcDbEntity
  8
2
100
AcDbLine
 10
-178.95242
 20
193.883062
 30
0.0
 11
-95.106484
 21
193.883062
 31
0.0
  0
LINE
  5
34D
100
AcDbEntity
  8
2
100
AcDbLine
 10
-177.91184
 20
181.883062
 30
0.0
 11
-95.106484
 21
181.883062
 31
0.0
  0
LINE
  5
34E
100
AcDbEntity
  8
2
100
AcDbLine
 10
-95.106484
 20
175.883062
 30
0.0
 11
-95.106484
 21
199.883062
 31
0.0
  0
LINE
  5
34F
100
AcDbEntity
  8
2
100
AcDbLine
 10
-71.856484
 20
234.627625
 30
0.0
 11
-71.856484
 21
141.1385
 31
0.0
  0
ARC
  5
350
100
AcDbEntity
  8
2
100
AcDbCircle
 10
-87.106484
 20
184.883062
 30
0.0
 40
17.0
100
AcDbArc
 50
100.615108
 51
118.072487
  0
ARC
  5
351
100
AcDbEntity
  8
2
100
AcDbCircle
 10
-87.106484
 20
190.883062
 30
0.0
 40
17.0
100
AcDbArc
 50
241.927513
 51
259.384892
  0
LINE
  5
352
100
AcDbEntity
  8
2
100
AcDbLine
 10
-88.606484
 20
164.938969
 30
0.0
 11
-88.606484
 21
210.827156
 31
0.0
  0
LINE
  5
353
100
AcDbEntity
  8
2
100
AcDbLine
 10
-83.856484
 20
211.631999
 30
0.0
 11
-87.554148
 21
211.825786
 31
0.0
  0
ARC
  5
354
100
AcDbEntity
  8
2
100
AcDbCircle
 10
-87.606484
 20
210.827156
 30
0.0
 40
1.0
100
AcDbArc
 50
87.0
 51
180.0
  0
ARC
  5
355
100
AcDbEntity
  8
2
100
AcDbCircle
 10
-90.606484
 20
203.557912
 30
0.0
 40
2.0
100
AcDbArc
 50
280.615108
 51
360.0
  0
ARC
  5
356
100
AcDbEntity
  8
2
100
AcDbCircle
 10
-87.606484
 20
164.938969
 30
0.0
 40
1.0
100
AcDbArc
 50
180.0
 51
273.0
  0
ARC
  5
357
100
AcDbEntity
  8
2
100
AcDbCircle
 10
-90.606484
 20
172.208213
 30
0.0
 40
2.0
100
AcDbArc
 50
0.0
 51
79.384892
  0
ARC
  5
358
100
AcDbEntity
  8
2
100
AcDbCircle
 10
-77.856484
 20
228.883062
 30
0.0
 40
9.0
100
AcDbArc
 50
55.150095
 51
124.849905
  0
ARC
  5
359
100
AcDbEntity
  8
2
100
AcDbCircle
 10
-73.856484
 20
234.627625
 30
0.0
 40
2.0
100
AcDbArc
 50
0.0
 51
55.150095
  0
ARC
  5
35A
100
AcDbEntity
  8
2
100
AcDbCircle
 10
-81.856484
 20
234.627625
 30
0.0
 40
2.0
100
AcDbArc
 50
124.849905
 51
180.0
  0
ARC
  5
35B
100
AcDbEntity
  8
2
100
AcDbCircle
 10
-80.856484
 20
193.955033
 30
0.0
 40
3.0
100
AcDbArc
 50
180.0
 51
216.461943
  0
ARC
  5
35C
100
AcDbEntity
  8
2
100
AcDbCircle
 10
-89.717272
 20
204.663343
 30
0.0
 40
7.860788
100
AcDbArc
 50
324.671624
 51
360.0
  0
ARC
  5
35D
100
AcDbEntity
  8
2
100
AcDbCircle
 10
-87.128187
 20
204.663343
 30
0.0
 40
5.271703
100
AcDbArc
 50
0.0
 51
40.693192
  0
LINE
  5
35E
100
AcDbEntity
  8
2
100
AcDbLine
 10
-83.856484
 20
193.955033
 30
0.0
 11
-83.856484
 21
198.382964
 31
0.0
  0
ARC
  5
35F
100
AcDbEntity
  8
2
100
AcDbCircle
 10
-80.856484
 20
198.382964
 30
0.0
 40
3.0
100
AcDbArc
 50
144.671624
 51
180.0
  0
ARC
  5
360
100
AcDbEntity
  8
2
100
AcDbCircle
 10
-80.856484
 20
210.056562
 30
0.0
 40
3.0
100
AcDbArc
 50
180.0
 51
220.693192
  0
ARC
  5
361
100
AcDbEntity
  8
2
100
AcDbCircle
 10
-87.556264
 20
203.273969
 30
0.0
 40
5.69978
100
AcDbArc
 50
6.435205
 51
39.636311
  0
ARC
  5
362
100
AcDbEntity
  8
2
100
AcDbCircle
 10
-80.856484
 20
208.823664
 30
0.0
 40
3.0
100
AcDbArc
 50
180.0
 51
219.636311
  0
ARC
  5
363
100
AcDbEntity
  8
2
100
AcDbCircle
 10
-88.757794
 20
219.419674
 30
0.0
 40
6.90131
100
AcDbArc
 50
320.833506
 51
360.0
  0
ARC
  5
364
100
AcDbEntity
  8
2
100
AcDbCircle
 10
-84.791085
 20
219.419674
 30
0.0
 40
2.934601
100
AcDbArc
 50
0.0
 51
53.508843
  0
LINE
  5
365
100
AcDbEntity
  8
2
100
AcDbLine
 10
-83.856484
 20
208.823664
 30
0.0
 11
-83.856484
 21
213.79782
 31
0.0
  0
ARC
  5
366
100
AcDbEntity
  8
2
100
AcDbCircle
 10
-81.856484
 20
213.79782
 30
0.0
 40
2.0
100
AcDbArc
 50
140.833506
 51
180.0
  0
ARC
  5
367
100
AcDbEntity
  8
2
100
AcDbCircle
 10
-81.856484
 20
223.386839
 30
0.0
 40
2.0
100
AcDbArc
 50
180.0
 51
233.508843
  0
ARC
  5
368
100
AcDbEntity
  8
2
100
AcDbCircle
 10
-85.82323
 20
216.808505
 30
0.0
 40
3.966745
100
AcDbArc
 50
16.447827
 51
48.332334
  0
ARC
  5
369
100
AcDbEntity
  8
2
100
AcDbCircle
 10
-81.856484
 20
221.265744
 30
0.0
 40
2.0
100
AcDbArc
 50
180.0
 51
228.332334
  0
ARC
  5
36A
100
AcDbEntity
  8
2
100
AcDbCircle
 10
-86.644206
 20
230.372224
 30
0.0
 40
4.787721
100
AcDbArc
 50
310.877267
 51
360.0
  0
LINE
  5
36B
100
AcDbEntity
  8
2
100
AcDbLine
 10
-83.856484
 20
221.265744
 30
0.0
 11
-83.856484
 21
225.996052
 31
0.0
  0
ARC
  5
36C
100
AcDbEntity
  8
2
100
AcDbCircle
 10
-82.856484
 20
225.996052
 30
0.0
 40
1.0
100
AcDbArc
 50
130.877267
 51
180.0
  0
ARC
  5
36D
100
AcDbEntity
  8
2
100
AcDbCircle
 10
-82.995952
 20
230.372224
 30
0.0
 40
1.139468
100
AcDbArc
 50
0.0
 51
102.703645
  0
ARC
  5
36E
100
AcDbEntity
  8
2
100
AcDbCircle
 10
-83.356484
 20
231.971558
 30
0.0
 40
0.5
100
AcDbArc
 50
180.0
 51
282.703645
  0
ARC
  5
36F
100
AcDbEntity
  8
2
100
AcDbCircle
 10
-83.999675
 20
226.854206
 30
0.0
 40
2.143191
100
AcDbArc
 50
40.095799
 51
68.672153
  0
ARC
  5
370
100
AcDbEntity
  8
2
100
AcDbCircle
 10
-82.856484
 20
229.782134
 30
0.0
 40
1.0
100
AcDbArc
 50
180.0
 51
248.672153
  0
ARC
  5
371
100
AcDbEntity
  8
2
100
AcDbCircle
 10
-84.365479
 20
236.199954
 30
0.0
 40
2.508995
100
AcDbArc
 50
289.592372
 51
360.0
  0
LINE
  5
372
100
AcDbEntity
  8
2
100
AcDbLine
 10
-83.856484
 20
229.782134
 30
0.0
 11
-83.856484
 21
234.627625
 31
0.0
  0
ARC
  5
373
100
AcDbEntity
  8
2
100
AcDbCircle
 10
-83.356484
 20
233.365174
 30
0.0
 40
0.5
100
AcDbArc
 50
109.592372
 51
180.0
  0
ARC
  5
374
100
AcDbEntity
  8
2
100
AcDbCircle
 10
-81.985696
 20
236.199954
 30
0.0
 40
0.129212
100
AcDbArc
 50
0.0
 51
90.0
  0
ARC
  5
375
100
AcDbEntity
  8
2
100
AcDbCircle
 10
-81.985696
 20
234.245184
 30
0.0
 40
2.083982
100
AcDbArc
 50
90.0
 51
143.832151
  0
LINE
  5
376
100
AcDbEntity
  8
2
100
AcDbLine
 10
-83.856484
 20
164.134126
 30
0.0
 11
-87.554148
 21
163.940339
 31
0.0
  0
ARC
  5
377
100
AcDbEntity
  8
2
100
AcDbCircle
 10
-77.856484
 20
146.883062
 30
0.0
 40
9.0
100
AcDbArc
 50
235.150095
 51
304.849905
  0
ARC
  5
378
100
AcDbEntity
  8
2
100
AcDbCircle
 10
-73.856484
 20
141.1385
 30
0.0
 40
2.0
100
AcDbArc
 50
304.849905
 51
360.0
  0
ARC
  5
379
100
AcDbEntity
  8
2
100
AcDbCircle
 10
-81.856484
 20
141.1385
 30
0.0
 40
2.0
100
AcDbArc
 50
180.0
 51
235.150095
  0
ARC
  5
37A
100
AcDbEntity
  8
2
100
AcDbCircle
 10
-89.07369
 20
187.883062
 30
0.0
 40
7.217206
100
AcDbArc
 50
323.538056
 51
36.461944
  0
ARC
  5
37B
100
AcDbEntity
  8
2
100
AcDbCircle
 10
-80.856484
 20
181.811092
 30
0.0
 40
3.0
100
AcDbArc
 50
143.538057
 51
180.0
  0
ARC
  5
37C
100
AcDbEntity
  8
2
100
AcDbCircle
 10
-89.717272
 20
171.102782
 30
0.0
 40
7.860788
100
AcDbArc
 50
0.0
 51
35.328376
  0
ARC
  5
37D
100
AcDbEntity
  8
2
100
AcDbCircle
 10
-87.128187
 20
171.102782
 30
0.0
 40
5.271703
100
AcDbArc
 50
319.306808
 51
360.0
  0
LINE
  5
37E
100
AcDbEntity
  8
2
100
AcDbLine
 10
-83.856484
 20
181.811092
 30
0.0
 11
-83.856484
 21
177.38316
 31
0.0
  0
ARC
  5
37F
100
AcDbEntity
  8
2
100
AcDbCircle
 10
-80.856484
 20
177.38316
 30
0.0
 40
3.0
100
AcDbArc
 50
180.0
 51
215.328376
  0
ARC
  5
380
100
AcDbEntity
  8
2
100
AcDbCircle
 10
-80.856484
 20
165.709563
 30
0.0
 40
3.0
100
AcDbArc
 50
139.306808
 51
180.0
  0
ARC
  5
381
100
AcDbEntity
  8
2
100
AcDbCircle
 10
-87.556264
 20
172.492156
 30
0.0
 40
5.69978
100
AcDbArc
 50
320.363689
 51
353.564795
  0
ARC
  5
382
100
AcDbEntity
  8
2
100
AcDbCircle
 10
-80.856484
 20
166.942461
 30
0.0
 40
3.0
100
AcDbArc
 50
140.363689
 51
180.0
  0
ARC
  5
383
100
AcDbEntity
  8
2
100
AcDbCircle
 10
-88.757794
 20
156.346451
 30
0.0
 40
6.90131
100
AcDbArc
 50
0.0
 51
39.166494
  0
ARC
  5
384
100
AcDbEntity
  8
2
100
AcDbCircle
 10
-84.791085
 20
156.346451
 30
0.0
 40
2.934601
100
AcDbArc
 50
306.491157
 51
360.0
  0
LINE
  5
385
100
AcDbEntity
  8
2
100
AcDbLine
 10
-83.856484
 20
166.942461
 30
0.0
 11
-83.856484
 21
161.968305
 31
0.0
  0
ARC
  5
386
100
AcDbEntity
  8
2
100
AcDbCircle
 10
-81.856484
 20
161.968305
 30
0.0
 40
2.0
100
AcDbArc
 50
180.0
 51
219.166494
  0
ARC
  5
387
100
AcDbEntity
  8
2
100
AcDbCircle
 10
-81.856484
 20
152.379285
 30
0.0
 40
2.0
100
AcDbArc
 50
126.491157
 51
180.0
  0
ARC
  5
388
100
AcDbEntity
  8
2
100
AcDbCircle
 10
-85.82323
 20
158.95762
 30
0.0
 40
3.966745
100
AcDbArc
 50
311.667666
 51
343.552173
  0
ARC
  5
389
100
AcDbEntity
  8
2
100
AcDbCircle
 10
-81.856484
 20
154.500381
 30
0.0
 40
2.0
100
AcDbArc
 50
131.667666
 51
180.0
  0
ARC
  5
38A
100
AcDbEntity
  8
2
100
AcDbCircle
 10
-86.644206
 20
145.393901
 30
0.0
 40
4.787721
100
AcDbArc
 50
0.0
 51
49.122733
  0
LINE
  5
38B
100
AcDbEntity
  8
2
100
AcDbLine
 10
-83.856484
 20
154.500381
 30
0.0
 11
-83.856484
 21
149.770073
 31
0.0
  0
ARC
  5
38C
100
AcDbEntity
  8
2
100
AcDbCircle
 10
-82.856484
 20
149.770073
 30
0.0
 40
1.0
100
AcDbArc
 50
180.0
 51
229.122733
  0
ARC
  5
38D
100
AcDbEntity
  8
2
100
AcDbCircle
 10
-82.995952
 20
145.393901
 30
0.0
 40
1.139468
100
AcDbArc
 50
257.296355
 51
360.0
  0
ARC
  5
38E
100
AcDbEntity
  8
2
100
AcDbCircle
 10
-83.356484
 20
143.794567
 30
0.0
 40
0.5
100
AcDbArc
 50
77.296355
 51
180.0
  0
ARC
  5
38F
100
AcDbEntity
  8
2
100
AcDbCircle
 10
-83.999675
 20
148.911919
 30
0.0
 40
2.143191
100
AcDbArc
 50
291.327847
 51
319.904201
  0
ARC
  5
390
100
AcDbEntity
  8
2
100
AcDbCircle
 10
-82.856484
 20
145.983991
 30
0.0
 40
1.0
100
AcDbArc
 50
111.327847
 51
180.0
  0
ARC
  5
391
100
AcDbEntity
  8
2
100
AcDbCircle
 10
-84.365479
 20
139.566171
 30
0.0
 40
2.508995
100
AcDbArc
 50
0.0
 51
70.407628
  0
LINE
  5
392
100
AcDbEntity
  8
2
100
AcDbLine
 10
-83.856484
 20
145.983991
 30
0.0
 11
-83.856484
 21
141.1385
 31
0.0
  0
ARC
  5
393
100
AcDbEntity
  8
2
100
AcDbCircle
 10
-83.356484
 20
142.400951
 30
0.0
 40
0.5
100
AcDbArc
 50
180.0
 51
250.407628
  0
ARC
  5
394
100
AcDbEntity
  8
2
100
AcDbCircle
 10
-81.985696
 20
139.566171
 30
0.0
 40
0.129212
100
AcDbArc
 50
270.0
 51
360.0
  0
ARC
  5
395
100
AcDbEntity
  8
2
100
AcDbCircle
 10
-81.985696
 20
141.520941
 30
0.0
 40
2.083982
100
AcDbArc
 50
216.167849
 51
270.0
  0
LINE
  5
396
100
AcDbEntity
  8
2
100
AcDbLine
 10
-83.579324
 20
183.070513
 30
0.0
 11
-83.579324
 21
192.695612
 31
0.0
  0
LINE
  5
397
100
AcDbEntity
  8
2
100
AcDbLine
 10
-174.816009
 20
32.116396
 30
0.0
 11
-95.106484
 21
32.116396
 31
0.0
  0
LINE
  5
398
100
AcDbEntity
  8
2
100
AcDbLine
 10
-174.816009
 20
20.116396
 30
0.0
 11
-95.106484
 21
20.116396
 31
0.0
  0
LINE
  5
399
100
AcDbEntity
  8
2
100
AcDbLine
 10
-95.106484
 20
14.116396
 30
0.0
 11
-95.106484
 21
38.116396
 31
0.0
  0
LINE
  5
39A
100
AcDbEntity
  8
2
100
AcDbLine
 10
-71.856484
 20
72.860958
 30
0.0
 11
-71.856484
 21
-20.628167
 31
0.0
  0
ARC
  5
39B
100
AcDbEntity
  8
2
100
AcDbCircle
 10
-87.106484
 20
23.116396
 30
0.0
 40
17.0
100
AcDbArc
 50
100.615108
 51
118.072487
  0
ARC
  5
39C
100
AcDbEntity
  8
2
100
AcDbCircle
 10
-87.106484
 20
29.116396
 30
0.0
 40
17.0
100
AcDbArc
 50
241.927513
 51
259.384892
  0
LINE
  5
39D
100
AcDbEntity
  8
2
100
AcDbLine
 10
-88.606484
 20
3.172302
 30
0.0
 11
-88.606484
 21
49.06049
 31
0.0
  0
LINE
  5
39E
100
AcDbEntity
  8
2
100
AcDbLine
 10
-85.022344
 20
49.926433
 30
0.0
 11
-87.554148
 21
50.059119
 31
0.0
  0
ARC
  5
39F
100
AcDbEntity
  8
2
100
AcDbCircle
 10
-87.606484
 20
49.06049
 30
0.0
 40
1.0
100
AcDbArc
 50
87.0
 51
180.0
  0
ARC
  5
3A0
100
AcDbEntity
  8
2
100
AcDbCircle
 10
-90.606484
 20
41.791245
 30
0.0
 40
2.0
100
AcDbArc
 50
280.615108
 51
360.0
  0
ARC
  5
3A1
100
AcDbEntity
  8
2
100
AcDbCircle
 10
-87.606484
 20
3.172302
 30
0.0
 40
1.0
100
AcDbArc
 50
180.0
 51
273.0
  0
ARC
  5
3A2
100
AcDbEntity
  8
2
100
AcDbCircle
 10
-90.606484
 20
10.441546
 30
0.0
 40
2.0
100
AcDbArc
 50
0.0
 51
79.384892
  0
ARC
  5
3A3
100
AcDbEntity
  8
2
100
AcDbCircle
 10
-77.856484
 20
67.116396
 30
0.0
 40
9.0
100
AcDbArc
 50
55.150095
 51
106.60155
  0
ARC
  5
3A4
100
AcDbEntity
  8
2
100
AcDbCircle
 10
-73.856484
 20
72.860958
 30
0.0
 40
2.0
100
AcDbArc
 50
0.0
 51
55.150095
  0
ARC
  5
3A5
100
AcDbEntity
  8
2
100
AcDbCircle
 10
-79.856484
 20
73.8246
 30
0.0
 40
2.0
100
AcDbArc
 50
106.60155
 51
138.6508
  0
ARC
  5
3A6
100
AcDbEntity
  8
2
100
AcDbCircle
 10
-88.217079
 20
34.635967
 30
0.0
 40
6.360594
100
AcDbArc
 50
0.0
 51
38.15537
  0
ARC
  5
3A7
100
AcDbEntity
  8
2
100
AcDbCircle
 10
-89.594702
 20
34.635967
 30
0.0
 40
7.738218
100
AcDbArc
 50
324.463888
 51
360.0
  0
ARC
  5
3A8
100
AcDbEntity
  8
2
100
AcDbCircle
 10
-80.856484
 20
40.418906
 30
0.0
 40
3.0
100
AcDbArc
 50
180.0
 51
218.15537
  0
ARC
  5
3A9
100
AcDbEntity
  8
2
100
AcDbCircle
 10
-80.856484
 20
28.394744
 30
0.0
 40
3.0
100
AcDbArc
 50
144.463888
 51
180.0
  0
ARC
  5
3AA
100
AcDbEntity
  8
2
100
AcDbCircle
 10
-88.122392
 20
33.930564
 30
0.0
 40
6.265907
100
AcDbArc
 50
3.056458
 51
38.357409
  0
ARC
  5
3AB
100
AcDbEntity
  8
2
100
AcDbCircle
 10
-80.856484
 20
39.680662
 30
0.0
 40
3.0
100
AcDbArc
 50
180.0
 51
218.357409
  0
ARC
  5
3AC
100
AcDbEntity
  8
2
100
AcDbCircle
 10
-89.426617
 20
50.647525
 30
0.0
 40
7.570133
100
AcDbArc
 50
324.172956
 51
360.0
  0
ARC
  5
3AD
100
AcDbEntity
  8
2
100
AcDbCircle
 10
-85.938352
 20
50.647525
 30
0.0
 40
4.081868
100
AcDbArc
 50
0.0
 51
47.843833
  0
LINE
  5
3AE
100
AcDbEntity
  8
2
100
AcDbLine
 10
-83.856484
 20
39.680662
 30
0.0
 11
-83.856484
 21
44.460398
 31
0.0
  0
ARC
  5
3AF
100
AcDbEntity
  8
2
100
AcDbCircle
 10
-80.856484
 20
44.460398
 30
0.0
 40
3.0
100
AcDbArc
 50
144.172956
 51
180.0
  0
ARC
  5
3B0
100
AcDbEntity
  8
2
100
AcDbCircle
 10
-81.856484
 20
55.156124
 30
0.0
 40
2.0
100
AcDbArc
 50
180.0
 51
227.843833
  0
ARC
  5
3B1
100
AcDbEntity
  8
2
100
AcDbCircle
 10
-86.757773
 20
48.616396
 30
0.0
 40
4.901289
100
AcDbArc
 50
10.638807
 51
44.748885
  0
ARC
  5
3B2
100
AcDbEntity
  8
2
100
AcDbCircle
 10
-81.856484
 20
53.47491
 30
0.0
 40
2.0
100
AcDbArc
 50
180.0
 51
224.748885
  0
ARC
  5
3B3
100
AcDbEntity
  8
2
100
AcDbCircle
 10
-83.824763
 20
63.700266
 30
0.0
 40
1.968279
100
AcDbArc
 50
0.0
 51
70.961165
  0
ARC
  5
3B4
100
AcDbEntity
  8
2
100
AcDbCircle
 10
-87.791472
 20
63.700266
 30
0.0
 40
5.934988
100
AcDbArc
 50
318.413261
 51
360.0
  0
LINE
  5
3B5
100
AcDbEntity
  8
2
100
AcDbLine
 10
-83.856484
 20
53.47491
 30
0.0
 11
-83.856484
 21
58.433393
 31
0.0
  0
ARC
  5
3B6
100
AcDbEntity
  8
2
100
AcDbCircle
 10
-81.856484
 20
58.433393
 30
0.0
 40
2.0
100
AcDbArc
 50
138.413261
 51
180.0
  0
ARC
  5
3B7
100
AcDbEntity
  8
2
100
AcDbCircle
 10
-82.856484
 20
66.506173
 30
0.0
 40
1.0
100
AcDbArc
 50
180.0
 51
250.961165
  0
ARC
  5
3B8
100
AcDbEntity
  8
2
100
AcDbCircle
 10
-84.865352
 20
60.588396
 30
0.0
 40
3.008868
100
AcDbArc
 50
25.280978
 51
59.926798
  0
ARC
  5
3B9
100
AcDbEntity
  8
2
100
AcDbCircle
 10
-82.856484
 20
64.057614
 30
0.0
 40
1.0
100
AcDbArc
 50
180.0
 51
239.926798
  0
ARC
  5
3BA
100
AcDbEntity
  8
2
100
AcDbCircle
 10
-85.45437
 20
72.219837
 30
0.0
 40
3.597886
100
AcDbArc
 50
304.403497
 51
360.0
  0
LINE
  5
3BB
100
AcDbEntity
  8
2
100
AcDbLine
 10
-83.856485
 20
64.057614
 30
0.0
 11
-83.8562
 21
68.426218
 31
0.0
  0
LINE
  5
3BC
100
AcDbEntity
  8
2
100
AcDbLine
 10
-83.857059
 20
70.749597
 30
0.0
 11
-83.856419
 21
73.100205
 31
0.0
  0
ARC
  5
3BD
100
AcDbEntity
  8
2
100
AcDbCircle
 10
-82.856485
 20
68.426218
 30
0.0
 40
1.0
100
AcDbArc
 50
124.403497
 51
180.0
  0
ARC
  5
3BE
100
AcDbEntity
  8
2
100
AcDbCircle
 10
-82.369405
 20
72.219837
 30
0.0
 40
0.51292
100
AcDbArc
 50
0.0
 51
90.0
  0
ARC
  5
3BF
100
AcDbEntity
  8
2
100
AcDbCircle
 10
-82.369405
 20
69.170992
 30
0.0
 40
3.561766
100
AcDbArc
 50
90.0
 51
114.677644
  0
ARC
  5
3C0
100
AcDbEntity
  8
2
100
AcDbCircle
 10
-83.233624
 20
68.402564
 30
0.0
 40
1.37714
100
AcDbArc
 50
74.225124
 51
80.871457
  0
ARC
  5
3C1
100
AcDbEntity
  8
2
100
AcDbCircle
 10
-82.856491
 20
70.749597
 30
0.0
 40
1.0
100
AcDbArc
 50
180.0
 51
260.871457
  0
ARC
  5
3C2
100
AcDbEntity
  8
2
100
AcDbCircle
 10
-77.856389
 20
66.85496
 30
0.0
 40
9.0
100
AcDbArc
 50
112.895675
 51
128.682467
  0
ARC
  5
3C3
100
AcDbEntity
  8
2
100
AcDbCircle
 10
-82.856419
 20
73.099933
 30
0.0
 40
1.0
100
AcDbArc
 50
128.682467
 51
179.984414
  0
LINE
  5
3C4
100
AcDbEntity
  8
2
100
AcDbLine
 10
-81.993623
 20
2.465087
 30
0.0
 11
-87.554148
 21
2.173672
 31
0.0
  0
ARC
  5
3C5
100
AcDbEntity
  8
2
100
AcDbCircle
 10
-77.856484
 20
-14.883604
 30
0.0
 40
9.0
100
AcDbArc
 50
253.39845
 51
304.849905
  0
ARC
  5
3C6
100
AcDbEntity
  8
2
100
AcDbCircle
 10
-73.856484
 20
-20.628167
 30
0.0
 40
2.0
100
AcDbArc
 50
304.849905
 51
360.0
  0
ARC
  5
3C7
100
AcDbEntity
  8
2
100
AcDbCircle
 10
-79.856484
 20
-21.591808
 30
0.0
 40
2.0
100
AcDbArc
 50
221.3492
 51
253.39845
  0
ARC
  5
3C8
100
AcDbEntity
  8
2
100
AcDbCircle
 10
-88.217079
 20
17.596824
 30
0.0
 40
6.360594
100
AcDbArc
 50
321.84463
 51
360.0
  0
ARC
  5
3C9
100
AcDbEntity
  8
2
100
AcDbCircle
 10
-89.594702
 20
17.596824
 30
0.0
 40
7.738218
100
AcDbArc
 50
0.0
 51
35.536112
  0
LINE
  5
3CA
100
AcDbEntity
  8
2
100
AcDbLine
 10
-83.856484
 20
23.838048
 30
0.0
 11
-83.856484
 21
28.394744
 31
0.0
  0
ARC
  5
3CB
100
AcDbEntity
  8
2
100
AcDbCircle
 10
-80.856484
 20
11.813886
 30
0.0
 40
3.0
100
AcDbArc
 50
141.84463
 51
180.0
  0
ARC
  5
3CC
100
AcDbEntity
  8
2
100
AcDbCircle
 10
-80.856484
 20
23.838048
 30
0.0
 40
3.0
100
AcDbArc
 50
180.0
 51
215.536112
  0
ARC
  5
3CD
100
AcDbEntity
  8
2
100
AcDbCircle
 10
-88.122392
 20
18.302228
 30
0.0
 40
6.265907
100
AcDbArc
 50
321.642591
 51
356.943542
  0
ARC
  5
3CE
100
AcDbEntity
  8
2
100
AcDbCircle
 10
-80.856484
 20
12.55213
 30
0.0
 40
3.0
100
AcDbArc
 50
141.642591
 51
180.0
  0
ARC
  5
3CF
100
AcDbEntity
  8
2
100
AcDbCircle
 10
-89.426617
 20
1.585267
 30
0.0
 40
7.570133
100
AcDbArc
 50
0.0
 51
35.827044
  0
ARC
  5
3D0
100
AcDbEntity
  8
2
100
AcDbCircle
 10
-85.938352
 20
1.585267
 30
0.0
 40
4.081868
100
AcDbArc
 50
312.156167
 51
360.0
  0
LINE
  5
3D1
100
AcDbEntity
  8
2
100
AcDbLine
 10
-83.856484
 20
12.55213
 30
0.0
 11
-83.856484
 21
7.772393
 31
0.0
  0
ARC
  5
3D2
100
AcDbEntity
  8
2
100
AcDbCircle
 10
-80.856484
 20
7.772393
 30
0.0
 40
3.0
100
AcDbArc
 50
180.0
 51
215.827044
  0
ARC
  5
3D3
100
AcDbEntity
  8
2
100
AcDbCircle
 10
-81.856484
 20
-2.923333
 30
0.0
 40
2.0
100
AcDbArc
 50
132.156167
 51
180.0
  0
ARC
  5
3D4
100
AcDbEntity
  8
2
100
AcDbCircle
 10
-86.757773
 20
3.616396
 30
0.0
 40
4.901289
100
AcDbArc
 50
315.251115
 51
349.361193
  0
ARC
  5
3D5
100
AcDbEntity
  8
2
100
AcDbCircle
 10
-81.856484
 20
-1.242118
 30
0.0
 40
2.0
100
AcDbArc
 50
135.251115
 51
180.0
  0
ARC
  5
3D6
100
AcDbEntity
  8
2
100
AcDbCircle
 10
-83.824763
 20
-11.467474
 30
0.0
 40
1.968279
100
AcDbArc
 50
289.038835
 51
360.0
  0
ARC
  5
3D7
100
AcDbEntity
  8
2
100
AcDbCircle
 10
-87.791472
 20
-11.467474
 30
0.0
 40
5.934988
100
AcDbArc
 50
0.0
 51
41.586739
  0
LINE
  5
3D8
100
AcDbEntity
  8
2
100
AcDbLine
 10
-83.856484
 20
-1.242118
 30
0.0
 11
-83.856484
 21
-6.200601
 31
0.0
  0
ARC
  5
3D9
100
AcDbEntity
  8
2
100
AcDbCircle
 10
-81.856484
 20
-6.200601
 30
0.0
 40
2.0
100
AcDbArc
 50
180.0
 51
221.586739
  0
ARC
  5
3DA
100
AcDbEntity
  8
2
100
AcDbCircle
 10
-82.856484
 20
-14.273382
 30
0.0
 40
1.0
100
AcDbArc
 50
109.038835
 51
180.0
  0
ARC
  5
3DB
100
AcDbEntity
  8
2
100
AcDbCircle
 10
-84.865352
 20
-8.355604
 30
0.0
 40
3.008868
100
AcDbArc
 50
300.073202
 51
334.719022
  0
ARC
  5
3DC
100
AcDbEntity
  8
2
100
AcDbCircle
 10
-82.856484
 20
-11.824822
 30
0.0
 40
1.0
100
AcDbArc
 50
120.073202
 51
180.0
  0
ARC
  5
3DD
100
AcDbEntity
  8
2
100
AcDbCircle
 10
-85.45437
 20
-19.987046
 30
0.0
 40
3.597886
100
AcDbArc
 50
0.0
 51
55.596503
  0
LINE
  5
3DE
100
AcDbEntity
  8
2
100
AcDbLine
 10
-83.856485
 20
-11.824822
 30
0.0
 11
-83.8562
 21
-16.193427
 31
0.0
  0
LINE
  5
3DF
100
AcDbEntity
  8
2
100
AcDbLine
 10
-83.857059
 20
-18.516805
 30
0.0
 11
-83.856419
 21
-20.867414
 31
0.0
  0
ARC
  5
3E0
100
AcDbEntity
  8
2
100
AcDbCircle
 10
-82.856485
 20
-16.193427
 30
0.0
 40
1.0
100
AcDbArc
 50
180.0
 51
235.596503
  0
ARC
  5
3E1
100
AcDbEntity
  8
2
100
AcDbCircle
 10
-82.369405
 20
-19.987046
 30
0.0
 40
0.51292
100
AcDbArc
 50
270.0
 51
360.0
  0
ARC
  5
3E2
100
AcDbEntity
  8
2
100
AcDbCircle
 10
-82.369405
 20
-16.9382
 30
0.0
 40
3.561766
100
AcDbArc
 50
245.322356
 51
270.0
  0
ARC
  5
3E3
100
AcDbEntity
  8
2
100
AcDbCircle
 10
-83.233624
 20
-16.169772
 30
0.0
 40
1.37714
100
AcDbArc
 50
279.128543
 51
285.774876
  0
ARC
  5
3E4
100
AcDbEntity
  8
2
100
AcDbCircle
 10
-82.856491
 20
-18.516805
 30
0.0
 40
1.0
100
AcDbArc
 50
99.128543
 51
180.0
  0
ARC
  5
3E5
100
AcDbEntity
  8
2
100
AcDbCircle
 10
-77.856389
 20
-14.622168
 30
0.0
 40
9.0
100
AcDbArc
 50
231.317533
 51
247.104325
  0
ARC
  5
3E6
100
AcDbEntity
  8
2
100
AcDbCircle
 10
-82.856419
 20
-20.867142
 30
0.0
 40
1.0
100
AcDbArc
 50
180.015586
 51
231.317533
  0
LINE
  5
3E7
100
AcDbEntity
  8
2
100
AcDbLine
 10
-83.579324
 20
21.352453
 30
0.0
 11
-83.579324
 21
13.81155
 31
0.0
  0
LINE
  5
3E8
100
AcDbEntity
  8
2
100
AcDbLine
 10
-82.05558
 20
19.340857
 30
0.0
 11
-83.173582
 21
20.816806
 31
0.0
  0
ARC
  5
3E9
100
AcDbEntity
  8
2
100
AcDbCircle
 10
-81.579324
 20
22.024425
 30
0.0
 40
2.0
100
AcDbArc
 50
180.0
 51
217.143214
  0
LINE
  5
3EA
100
AcDbEntity
  8
2
100
AcDbLine
 10
-82.128995
 20
48.634662
 30
0.0
 11
-84.053572
 21
48.634662
 31
0.0
  0
LINE
  5
3EB
100
AcDbEntity
  8
2
100
AcDbLine
 10
-82.887823
 20
51.624072
 30
0.0
 11
-83.557007
 21
49.908037
 31
0.0
  0
ARC
  5
3EC
100
AcDbEntity
  8
2
100
AcDbCircle
 10
-84.917672
 20
51.923692
 30
0.0
 40
2.0
100
AcDbArc
 50
267.0
 51
338.696229
  0
ARC
  5
3ED
100
AcDbEntity
  8
2
100
AcDbCircle
 10
-85.420342
 20
50.634662
 30
0.0
 40
2.0
100
AcDbArc
 50
270.0
 51
338.696229
  0
DIMENSION
  5
3EE
100
AcDbEntity
  8
5
100
AcDbDimension
  2
*D0
 10
-2.970615
 20
26.116396
 30
0.0
 11
-8.590615
 21
14.596396
 31
0.0
  1
27
100
AcDbAlignedDimension
 13
30.336377
 23
-0.883604
 33
0.0
 14
16.039725
 24
26.116396
 34
0.0
 50
90.0
100
AcDbRotatedDimension
  0
DIMENSION
  5
3EF
100
AcDbEntity
  8
5
100
AcDbDimension
  2
*D1
 10
-2.970615
 20
-0.883604
 30
0.0
 11
-10.900615
 21
-79.213604
 31
0.0
  1
156
100
AcDbAlignedDimension
 13
27.353516
 23
-156.883604
 33
0.0
 14
30.336377
 24
-0.883604
 34
0.0
 50
90.0
100
AcDbRotatedDimension
  0
DIMENSION
  5
3F0
100
AcDbEntity
  8
5
100
AcDbDimension
  2
*D2
 10
-2.970615
 20
-156.883604
 30
0.0
 11
-8.590615
 21
-197.353604
 31
0.0
  1
85
100
AcDbAlignedDimension
 13
61.593516
 23
-241.783604
 33
0.0
 14
27.353516
 24
-156.883604
 34
0.0
 50
90.0
100
AcDbRotatedDimension
  0
DIMENSION
  5
3F1
100
AcDbEntity
  8
5
100
AcDbDimension
  2
*D3
 10
89.593516
 20
-265.230255
 30
0.0
 11
66.593516
 21
-260.930255
 31
0.0
  1
46
100
AcDbAlignedDimension
 13
43.593516
 23
-218.883604
 33
0.0
 14
89.593516
 24
-218.883604
 34
0.0
100
AcDbRotatedDimension
  0
DIMENSION
  5
3F2
100
AcDbEntity
  8
5
100
AcDbDimension
  2
*D4
 10
-42.85321
 20
187.883062
 30
0.0
 11
-48.05321
 21
166.683062
 31
0.0
  1
46
100
AcDbAlignedDimension
 13
-135.706484
 23
141.883062
 33
0.0
 14
-64.836597
 24
187.883062
 34
0.0
 50
90.0
100
AcDbRotatedDimension
  0
DIMENSION
  5
3F3
100
AcDbEntity
  8
5
100
AcDbDimension
  2
*D5
 10
-42.85321
 20
141.883062
 30
0.0
 11
-48.05321
 21
119.683062
 31
0.0
  1
48
100
AcDbAlignedDimension
 13
-195.647484
 23
93.883062
 33
0.0
 14
-135.706484
 24
141.883062
 34
0.0
 50
90.0
100
AcDbRotatedDimension
  0
DIMENSION
  5
3F4
100
AcDbEntity
  8
5
100
AcDbDimension
  2
*D6
 10
-71.856484
 20
247.77652
 30
0.0
 11
-144.981484
 21
252.07652
 31
0.0
  1
146
100
AcDbAlignedDimension
 13
-218.106484
 23
219.477519
 33
0.0
 14
-71.856484
 24
234.627625
 34
0.0
100
AcDbRotatedDimension
  0
DIMENSION
  5
3F5
100
AcDbEntity
  8
5
100
AcDbDimension
  2
*D7
 10
-42.85321
 20
-23.883604
 30
0.0
 11
-53.09321
 21
23.476396
 31
0.0
 70
     1
  1
%%c100
100
AcDbAlignedDimension
 13
-77.856484
 23
76.116396
 33
0.0
 14
-77.856484
 24
-23.883604
 34
0.0
 50
270.0
  0
ARC
  5
3F6
100
AcDbEntity
  8
13
100
AcDbCircle
 10
-181.606484
 20
-156.415859
 30
0.0
 40
1.0
100
AcDbArc
 50
0.0
 51
89.344923
  0
ARC
  5
3F7
100
AcDbEntity
  8
13
100
AcDbCircle
 10
-181.606484
 20
-157.351348
 30
0.0
 40
1.0
100
AcDbArc
 50
270.655077
 51
360.0
  0
ARC
  5
3F8
100
AcDbEntity
  8
13
100
AcDbCircle
 10
-182.853071
 20
-157.263425
 30
0.0
 40
1.0
100
AcDbArc
 50
270.0
 51
360.0
  0
ARC
  5
3F9
100
AcDbEntity
  8
13
100
AcDbCircle
 10
-182.853071
 20
-156.503783
 30
0.0
 40
1.0
100
AcDbArc
 50
0.0
 51
90.0
  0
LINE
  5
3FA
100
AcDbEntity
  8
13
100
AcDbLine
 10
-216.106484
 20
-143.867603
 30
0.0
 11
-216.106484
 21
-154.035918
 31
0.0
  0
LINE
  5
3FB
100
AcDbEntity
  8
13
100
AcDbLine
 10
-214.579964
 20
-154.042709
 30
0.0
 11
-214.579964
 21
-143.980429
 31
0.0
  0
LINE
  5
3FC
100
AcDbEntity
  8
13
100
AcDbLine
 10
-181.595051
 20
-155.415925
 30
0.0
 11
-227.477569
 21
-154.894535
 31
0.0
  0
LINE
  5
3FD
100
AcDbEntity
  8
13
100
AcDbLine
 10
-227.477569
 20
-158.872672
 30
0.0
 11
-181.595051
 21
-158.351283
 31
0.0
  0
ARC
  5
3FE
100
AcDbEntity
  8
13
100
AcDbCircle
 10
-227.489002
 20
-155.89447
 30
0.0
 40
1.0
100
AcDbArc
 50
89.344923
 51
180.0
  0
ARC
  5
3FF
100
AcDbEntity
  8
13
100
AcDbCircle
 10
-227.489002
 20
-157.872738
 30
0.0
 40
1.0
100
AcDbArc
 50
180.0
 51
270.655077
  0
LINE
  5
400
100
AcDbEntity
  8
13
100
AcDbLine
 10
-228.489002
 20
-155.89447
 30
0.0
 11
-228.489002
 21
-157.872738
 31
0.0
  0
LINE
  5
401
100
AcDbEntity
  8
13
100
AcDbLine
 10
-223.399377
 20
-157.263425
 30
0.0
 11
-223.399377
 21
-156.503783
 31
0.0
  0
ARC
  5
402
100
AcDbEntity
  8
13
100
AcDbCircle
 10
-222.399377
 20
-156.503783
 30
0.0
 40
1.0
100
AcDbArc
 50
90.0
 51
180.0
  0
ARC
  5
403
100
AcDbEntity
  8
13
100
AcDbCircle
 10
-222.399377
 20
-157.263425
 30
0.0
 40
1.0
100
AcDbArc
 50
180.0
 51
270.0
  0
LINE
  5
404
100
AcDbEntity
  8
13
100
AcDbLine
 10
-227.728835
 20
-154.975693
 30
0.0
 11
-223.399377
 21
-155.503783
 31
0.0
  0
LINE
  5
405
100
AcDbEntity
  8
13
100
AcDbLine
 10
-222.399377
 20
-155.503783
 30
0.0
 11
-182.853071
 21
-155.503783
 31
0.0
  0
ARC
  5
406
100
AcDbEntity
  8
13
100
AcDbCircle
 10
-219.800538
 20
-156.883674
 30
0.0
 40
5.435331
100
AcDbArc
 50
345.294623
 51
14.708504
  0
LINE
  5
407
100
AcDbEntity
  8
13
100
AcDbLine
 10
-220.106484
 20
-143.571963
 30
0.0
 11
-220.106484
 21
-153.967315
 31
0.0
  0
LINE
  5
408
100
AcDbEntity
  8
13
100
AcDbLine
 10
-221.633004
 20
-153.949861
 30
0.0
 11
-221.633004
 21
-143.4542
 31
0.0
  0
ARC
  5
409
100
AcDbEntity
  8
13
100
AcDbCircle
 10
-222.633004
 20
-153.949861
 30
0.0
 40
1.0
100
AcDbArc
 50
269.344923
 51
0.0
  0
ARC
  5
40A
100
AcDbEntity
  8
13
100
AcDbCircle
 10
-221.106484
 20
-153.967315
 30
0.0
 40
1.0
100
AcDbArc
 50
269.344923
 51
360.0
  0
ARC
  5
40B
100
AcDbEntity
  8
13
100
AcDbCircle
 10
-215.106484
 20
-154.035918
 30
0.0
 40
1.0
100
AcDbArc
 50
180.0
 51
269.344923
  0
ARC
  5
40C
100
AcDbEntity
  8
13
100
AcDbCircle
 10
-213.579964
 20
-154.042709
 30
0.0
 40
1.0
100
AcDbArc
 50
180.0
 51
269.038431
  0
LINE
  5
40D
100
AcDbEntity
  8
13
100
AcDbLine
 10
-222.399377
 20
-158.263425
 30
0.0
 11
-182.853071
 21
-158.263425
 31
0.0
  0
LINE
  5
40E
100
AcDbEntity
  8
13
100
AcDbLine
 10
-227.728835
 20
-158.791515
 30
0.0
 11
-223.399377
 21
-158.263425
 31
0.0
  0
ARC
  5
40F
100
AcDbEntity
  8
13
100
AcDbCircle
 10
-222.633004
 20
-159.817347
 30
0.0
 40
1.0
100
AcDbArc
 50
360.0
 51
90.655077
  0
ARC
  5
410
100
AcDbEntity
  8
13
100
AcDbCircle
 10
-221.106484
 20
-159.799893
 30
0.0
 40
1.0
100
AcDbArc
 50
0.0
 51
90.655077
  0
ARC
  5
411
100
AcDbEntity
  8
13
100
AcDbCircle
 10
-215.106484
 20
-159.731291
 30
0.0
 40
1.0
100
AcDbArc
 50
90.655077
 51
180.0
  0
ARC
  5
412
100
AcDbEntity
  8
13
100
AcDbCircle
 10
-213.579964
 20
-159.7245
 30
0.0
 40
1.0
100
AcDbArc
 50
90.961569
 51
180.0
  0
LINE
  5
413
100
AcDbEntity
  8
13
100
AcDbLine
 10
-221.633004
 20
-159.817347
 30
0.0
 11
-221.633004
 21
-174.313008
 31
0.0
  0
LINE
  5
414
100
AcDbEntity
  8
13
100
AcDbLine
 10
-185.266074
 20
-146.067867
 30
0.0
 11
-214.373855
 21
-143.490791
 31
0.0
  0
LINE
  5
415
100
AcDbEntity
  8
13
100
AcDbLine
 10
-221.913271
 20
-143.438424
 30
0.0
 11
-183.576691
 21
-146.271881
 31
0.0
  0
LINE
  5
416
100
AcDbEntity
  8
13
100
AcDbLine
 10
-182.563991
 20
-144.931735
 30
0.0
 11
-182.885377
 21
-144.051114
 31
0.0
  0
LINE
  5
417
100
AcDbEntity
  8
13
100
AcDbLine
 10
-183.724692
 20
-143.398971
 30
0.0
 11
-200.841821
 21
-141.688129
 31
0.0
  0
LINE
  5
418
100
AcDbEntity
  8
13
100
AcDbLine
 10
-201.844075
 20
-141.839657
 30
0.0
 11
-185.408562
 21
-143.294786
 31
0.0
  0
LINE
  5
419
100
AcDbEntity
  8
13
100
AcDbLine
 10
-184.570965
 20
-143.912845
 30
0.0
 11
-184.252096
 21
-144.693719
 31
0.0
  0
ARC
  5
41A
100
AcDbEntity
  8
13
100
AcDbCircle
 10
-185.496753
 20
-144.290889
 30
0.0
 40
1.0
100
AcDbArc
 50
22.212617
 51
84.940474
  0
ARC
  5
41B
100
AcDbEntity
  8
13
100
AcDbCircle
 10
-185.177883
 20
-145.071764
 30
0.0
 40
1.0
100
AcDbArc
 50
264.940474
 51
22.212617
  0
ARC
  5
41C
100
AcDbEntity
  8
13
100
AcDbCircle
 10
-183.503386
 20
-145.274571
 30
0.0
 40
1.0
100
AcDbArc
 50
265.796147
 51
20.049778
  0
ARC
  5
41D
100
AcDbEntity
  8
13
100
AcDbCircle
 10
-183.824772
 20
-144.39395
 30
0.0
 40
1.0
100
AcDbArc
 50
20.049778
 51
84.256204
  0
ARC
  5
41E
100
AcDbEntity
  8
13
100
AcDbCircle
 10
-200.489459
 20
-126.539416
 30
0.0
 40
15.36009
100
AcDbArc
 50
208.439909
 51
264.940474
  0
LINE
  5
41F
100
AcDbEntity
  8
13
100
AcDbLine
 10
-223.106484
 20
-128.593004
 30
0.0
 11
-223.106484
 21
-133.950854
 31
0.0
  0
ARC
  5
420
100
AcDbEntity
  8
13
100
AcDbCircle
 10
-213.529231
 20
-133.950854
 30
0.0
 40
9.577253
100
AcDbArc
 50
180.0
 51
264.940474
  0
LINE
  5
421
100
AcDbEntity
  8
13
100
AcDbLine
 10
-229.3236
 20
-135.460185
 30
0.0
 11
-229.3236
 21
-128.214922
 31
0.0
  0
ARC
  5
422
100
AcDbEntity
  8
13
100
AcDbCircle
 10
-221.3236
 20
-135.460185
 30
0.0
 40
8.0
100
AcDbArc
 50
180.0
 51
265.772954
  0
LINE
  5
423
100
AcDbEntity
  8
13
100
AcDbLine
 10
-223.106484
 20
-128.593004
 30
0.0
 11
-223.106484
 21
-133.950854
 31
0.0
  0
LINE
  5
424
100
AcDbEntity
  8
13
100
AcDbLine
 10
-208.046192
 20
-133.727791
 30
0.0
 11
-208.046192
 21
-128.593004
 31
0.0
  0
ARC
  5
425
100
AcDbEntity
  8
13
100
AcDbCircle
 10
-200.046192
 20
-133.727791
 30
0.0
 40
8.0
100
AcDbArc
 50
180.0
 51
264.292292
  0
LINE
  5
426
100
AcDbEntity
  8
13
100
AcDbLine
 10
-231.308836
 20
-124.283604
 30
0.0
 11
-205.210249
 21
-124.283604
 31
0.0
  0
LINE
  5
427
100
AcDbEntity
  8
13
100
AcDbLine
 10
-206.966185
 20
-126.593004
 30
0.0
 11
-229.3236
 21
-126.593004
 31
0.0
  0
ARC
  5
428
100
AcDbEntity
  8
13
100
AcDbCircle
 10
-206.046192
 20
-128.593004
 30
0.0
 40
2.0
100
AcDbArc
 50
90.0
 51
180.0
  0
ARC
  5
429
100
AcDbEntity
  8
13
100
AcDbCircle
 10
-225.106484
 20
-128.593004
 30
0.0
 40
2.0
100
AcDbArc
 50
0.0
 51
90.0
  0
LINE
  5
42A
100
AcDbEntity
  8
13
100
AcDbLine
 10
-232.153393
 20
-120.573609
 30
0.0
 11
-232.153393
 21
-124.593004
 31
0.0
  0
ARC
  5
42B
100
AcDbEntity
  8
13
100
AcDbCircle
 10
-230.153393
 20
-124.593004
 30
0.0
 40
2.0
100
AcDbArc
 50
180.0
 51
270.0
  0
ARC
  5
42C
100
AcDbEntity
  8
13
100
AcDbCircle
 10
-231.3236
 20
-128.214922
 30
0.0
 40
2.0
100
AcDbArc
 50
0.0
 51
54.189707
  0
LINE
  5
42D
100
AcDbEntity
  8
13
100
AcDbLine
 10
-204.059575
 20
-120.005463
 30
0.0
 11
-204.059575
 21
-124.593004
 31
0.0
  0
ARC
  5
42E
100
AcDbEntity
  8
13
100
AcDbCircle
 10
-206.059575
 20
-124.593004
 30
0.0
 40
2.0
100
AcDbArc
 50
270.0
 51
360.0
  0
LINE
  5
42F
100
AcDbEntity
  8
13
100
AcDbLine
 10
-216.106484
 20
-173.899605
 30
0.0
 11
-216.106484
 21
-159.731291
 31
0.0
  0
LINE
  5
430
100
AcDbEntity
  8
13
100
AcDbLine
 10
-214.579964
 20
-159.7245
 30
0.0
 11
-214.579964
 21
-173.78678
 31
0.0
  0
LINE
  5
431
100
AcDbEntity
  8
13
100
AcDbLine
 10
-220.106484
 20
-174.195245
 30
0.0
 11
-220.106484
 21
-159.799893
 31
0.0
  0
LINE
  5
432
100
AcDbEntity
  8
13
100
AcDbLine
 10
-185.266074
 20
-171.699341
 30
0.0
 11
-214.373855
 21
-174.276417
 31
0.0
  0
LINE
  5
433
100
AcDbEntity
  8
13
100
AcDbLine
 10
-221.913271
 20
-174.328785
 30
0.0
 11
-183.576691
 21
-171.495328
 31
0.0
  0
LINE
  5
434
100
AcDbEntity
  8
13
100
AcDbLine
 10
-182.563991
 20
-172.835474
 30
0.0
 11
-182.885377
 21
-173.716094
 31
0.0
  0
LINE
  5
435
100
AcDbEntity
  8
13
100
AcDbLine
 10
-183.724692
 20
-174.368237
 30
0.0
 11
-200.841821
 21
-176.07908
 31
0.0
  0
LINE
  5
436
100
AcDbEntity
  8
13
100
AcDbLine
 10
-201.844075
 20
-175.927551
 30
0.0
 11
-185.408562
 21
-174.472423
 31
0.0
  0
LINE
  5
437
100
AcDbEntity
  8
13
100
AcDbLine
 10
-184.570965
 20
-173.854364
 30
0.0
 11
-184.252096
 21
-173.073489
 31
0.0
  0
ARC
  5
438
100
AcDbEntity
  8
13
100
AcDbCircle
 10
-185.496753
 20
-173.476319
 30
0.0
 40
1.0
100
AcDbArc
 50
275.059526
 51
337.787383
  0
ARC
  5
439
100
AcDbEntity
  8
13
100
AcDbCircle
 10
-185.177883
 20
-172.695445
 30
0.0
 40
1.0
100
AcDbArc
 50
337.787383
 51
95.059526
  0
ARC
  5
43A
100
AcDbEntity
  8
13
100
AcDbCircle
 10
-183.503386
 20
-172.492637
 30
0.0
 40
1.0
100
AcDbArc
 50
339.950223
 51
94.203853
  0
ARC
  5
43B
100
AcDbEntity
  8
13
100
AcDbCircle
 10
-183.824772
 20
-173.373258
 30
0.0
 40
1.0
100
AcDbArc
 50
275.743796
 51
339.950223
  0
ARC
  5
43C
100
AcDbEntity
  8
13
100
AcDbCircle
 10
-200.489459
 20
-191.227793
 30
0.0
 40
15.36009
100
AcDbArc
 50
95.059526
 51
151.560091
  0
ARC
  5
43D
100
AcDbEntity
  8
13
100
AcDbCircle
 10
-213.529231
 20
-183.816354
 30
0.0
 40
9.577253
100
AcDbArc
 50
95.059526
 51
180.0
  0
LINE
  5
43E
100
AcDbEntity
  8
13
100
AcDbLine
 10
-229.3236
 20
-182.307023
 30
0.0
 11
-229.3236
 21
-185.552287
 31
0.0
  0
ARC
  5
43F
100
AcDbEntity
  8
13
100
AcDbCircle
 10
-221.3236
 20
-182.307023
 30
0.0
 40
8.0
100
AcDbArc
 50
94.227046
 51
180.0
  0
LINE
  5
440
100
AcDbEntity
  8
13
100
AcDbLine
 10
-223.106484
 20
-185.174204
 30
0.0
 11
-223.106484
 21
-183.816354
 31
0.0
  0
LINE
  5
441
100
AcDbEntity
  8
13
100
AcDbLine
 10
-208.046192
 20
-184.039417
 30
0.0
 11
-208.046192
 21
-185.174204
 31
0.0
  0
ARC
  5
442
100
AcDbEntity
  8
13
100
AcDbCircle
 10
-200.046192
 20
-184.039417
 30
0.0
 40
8.0
100
AcDbArc
 50
95.707708
 51
180.0
  0
LINE
  5
443
100
AcDbEntity
  8
13
100
AcDbLine
 10
-231.308836
 20
-189.483604
 30
0.0
 11
-205.210249
 21
-189.483604
 31
0.0
  0
LINE
  5
444
100
AcDbEntity
  8
13
100
AcDbLine
 10
-206.966185
 20
-187.174204
 30
0.0
 11
-229.3236
 21
-187.174204
 31
0.0
  0
ARC
  5
445
100
AcDbEntity
  8
13
100
AcDbCircle
 10
-206.046192
 20
-185.174204
 30
0.0
 40
2.0
100
AcDbArc
 50
180.0
 51
270.0
  0
ARC
  5
446
100
AcDbEntity
  8
13
100
AcDbCircle
 10
-225.106484
 20
-185.174204
 30
0.0
 40
2.0
100
AcDbArc
 50
270.0
 51
360.0
  0
LINE
  5
447
100
AcDbEntity
  8
13
100
AcDbLine
 10
-232.153393
 20
-192.905861
 30
0.0
 11
-232.153393
 21
-189.174204
 31
0.0
  0
ARC
  5
448
100
AcDbEntity
  8
13
100
AcDbCircle
 10
-230.153393
 20
-189.174204
 30
0.0
 40
2.0
100
AcDbArc
 50
90.0
 51
180.0
  0
ARC
  5
449
100
AcDbEntity
  8
13
100
AcDbCircle
 10
-231.3236
 20
-185.552287
 30
0.0
 40
2.0
100
AcDbArc
 50
305.810293
 51
360.0
  0
LINE
  5
44A
100
AcDbEntity
  8
13
100
AcDbLine
 10
-204.059575
 20
-192.7687
 30
0.0
 11
-204.059575
 21
-189.174204
 31
0.0
  0
ARC
  5
44B
100
AcDbEntity
  8
13
100
AcDbCircle
 10
-206.059575
 20
-189.174204
 30
0.0
 40
2.0
100
AcDbArc
 50
0.0
 51
90.0
  0
ARC
  5
44C
100
AcDbEntity
  8
13
100
AcDbCircle
 10
-218.106484
 20
-156.883604
 30
0.0
 40
40.1
100
AcDbArc
 50
289.923301
 51
70.076699
  0
LINE
  5
44D
100
AcDbEntity
  8
13
100
AcDbLine
 10
-204.441931
 20
-119.183604
 30
0.0
 11
-231.771037
 21
-119.183604
 31
0.0
  0
ARC
  5
44E
100
AcDbEntity
  8
13
100
AcDbCircle
 10
-218.106484
 20
-156.883604
 30
0.0
 40
40.1
100
AcDbArc
 50
109.923301
 51
250.076699
  0
LINE
  5
44F
100
AcDbEntity
  8
13
100
AcDbLine
 10
-204.441931
 20
-194.583604
 30
0.0
 11
-231.771037
 21
-194.583604
 31
0.0
  0
POINT
  5
450
100
AcDbEntity
  8
13
100
AcDbPoint
 10
-218.106484
 20
-156.883604
 30
0.0
  0
TEXT
  5
451
100
AcDbEntity
  8
18
100
AcDbText
 10
244.289261
 20
-266.527985
 30
0.0
 40
6.0
  1
１
 72
     5
 11
249.089261
 21
-266.527985
 31
0.0
100
AcDbText
  0
TEXT
  5
452
100
AcDbEntity
  8
18
100
AcDbText
 10
253.082458
 20
-274.202026
 30
0.0
 40
6.0
  1
２
 72
     5
 11
257.882458
 21
-274.202026
 31
0.0
100
AcDbText
  0
TEXT
  5
453
100
AcDbEntity
  8
18
100
AcDbText
 10
245.708481
 20
-246.070526
 30
0.0
 40
6.0
  1
７００Ｇ－２ＩＡＳ　８０Ａ
 72
     5
 11
322.508481
 21
-246.070526
 31
0.0
100
AcDbText
  0
TEXT
  5
454
100
AcDbEntity
  8
18
100
AcDbText
 10
245.708481
 20
-254.070526
 30
0.0
 40
6.0
  1
標準仕様　ＪＩＳ　５，１０Ｋ
 72
     5
 11
328.508481
 21
-254.070526
 31
0.0
100
AcDbText
  0
TEXT
  5
455
100
AcDbEntity
  8
18
100
AcDbText
 10
307.2
 20
-272.0
 30
0.0
 40
10.0
  1
Ｄ３－０３６１２
 72
     5
 11
385.2
 21
-272.0
 31
0.0
100
AcDbText
  0
TEXT
  5
456
100
AcDbEntity
  8
18
100
AcDbText
 10
360.316223
 20
-253.771606
 30
0.0
 40
4.0
  1
２００４．１２．２０
 72
     5
 11
399.516223
 21
-253.771606
 31
0.0
100
AcDbText
  0
LINE
  5
457
100
AcDbEntity
  8
18
100
AcDbLine
 10
243.098152
 20
-136.431236
 30
0.0
 11
343.098152
 21
-136.431236
 31
0.0
  0
LINE
  5
458
100
AcDbEntity
  8
18
100
AcDbLine
 10
243.098152
 20
-176.431236
 30
0.0
 11
343.098152
 21
-176.431236
 31
0.0
  0
LINE
  5
459
100
AcDbEntity
  8
18
100
AcDbLine
 10
243.098152
 20
-186.431236
 30
0.0
 11
343.098152
 21
-186.431236
 31
0.0
  0
LINE
  5
45A
100
AcDbEntity
  8
18
100
AcDbLine
 10
243.098152
 20
-196.431236
 30
0.0
 11
343.098152
 21
-196.431236
 31
0.0
  0
LINE
  5
45B
100
AcDbEntity
  8
18
100
AcDbLine
 10
243.098152
 20
-136.431236
 30
0.0
 11
243.098152
 21
-196.431236
 31
0.0
  0
LINE
  5
45C
100
AcDbEntity
  8
18
100
AcDbLine
 10
293.098152
 20
-136.431236
 30
0.0
 11
293.098152
 21
-186.431236
 31
0.0
  0
LINE
  5
45D
100
AcDbEntity
  8
18
100
AcDbLine
 10
343.098152
 20
-136.431236
 30
0.0
 11
343.098152
 21
-196.431236
 31
0.0
  0
TEXT
  5
45E
100
AcDbEntity
  8
18
100
AcDbText
 10
263.359627
 20
-184.075478
 30
0.0
 40
6.0
  1
A
 72
     5
 11
268.159627
 21
-184.075478
 31
0.0
100
AcDbText
  0
TEXT
  5
45F
100
AcDbEntity
  8
18
100
AcDbText
 10
313.359627
 20
-184.075478
 30
0.0
 40
6.0
  1
B
 72
     5
 11
318.159627
 21
-184.075478
 31
0.0
100
AcDbText
  0
LINE
  5
460
100
AcDbEntity
  8
18
  6
CENTER
 62
     2
100
AcDbLine
 10
250.914742
 20
-163.586777
 30
0.0
 11
280.736214
 21
-163.586777
 31
0.0
  0
LINE
  5
461
100
AcDbEntity
  8
18
  6
CENTER
 62
     2
100
AcDbLine
 10
265.960518
 20
-149.71386
 30
0.0
 11
265.960518
 21
-171.186554
 31
0.0
  0
LINE
  5
462
100
AcDbEntity
  8
18
100
AcDbLine
 10
278.960518
 20
-159.986777
 30
0.0
 11
278.960518
 21
-167.186777
 31
0.0
  0
LINE
  5
463
100
AcDbEntity
  8
18
100
AcDbLine
 10
252.960518
 20
-159.986777
 30
0.0
 11
252.960518
 21
-167.186777
 31
0.0
  0
LINE
  5
464
100
AcDbEntity
  8
18
100
AcDbLine
 10
261.353995
 20
-151.586777
 30
0.0
 11
272.560518
 21
-151.586777
 31
0.0
  0
LINE
  5
465
100
AcDbEntity
  8
18
100
AcDbLine
 10
272.760518
 20
-155.586777
 30
0.0
 11
283.107002
 21
-155.586777
 31
0.0
  0
LINE
  5
466
100
AcDbEntity
  8
18
100
AcDbLine
 10
283.107002
 20
-148.786777
 30
0.0
 11
283.107002
 21
-160.386777
 31
0.0
  0
LINE
  5
467
100
AcDbEntity
  8
18
100
AcDbLine
 10
285.507002
 20
-148.786777
 30
0.0
 11
285.507002
 21
-160.386777
 31
0.0
  0
LINE
  5
468
100
AcDbEntity
  8
18
100
AcDbLine
 10
272.760518
 20
-153.586777
 30
0.0
 11
283.107002
 21
-153.586777
 31
0.0
  0
LINE
  5
469
100
AcDbEntity
  8
18
100
AcDbLine
 10
271.458505
 20
-157.586777
 30
0.0
 11
272.560518
 21
-157.586777
 31
0.0
  0
ARC
  5
46A
100
AcDbEntity
  8
18
100
AcDbCircle
 10
265.960518
 20
-163.586777
 30
0.0
 40
6.0
100
AcDbArc
 50
167.624033
 51
5.0
  0
LINE
  5
46B
100
AcDbEntity
  8
18
100
AcDbLine
 10
253.360518
 20
-159.586777
 30
0.0
 11
260.287554
 21
-159.586777
 31
0.0
  0
LINE
  5
46C
100
AcDbEntity
  8
18
100
AcDbLine
 10
271.633482
 20
-159.586777
 30
0.0
 11
278.560518
 21
-159.586777
 31
0.0
  0
LINE
  5
46D
100
AcDbEntity
  8
18
100
AcDbLine
 10
253.360518
 20
-167.586777
 30
0.0
 11
261.488382
 21
-167.586777
 31
0.0
  0
LINE
  5
46E
100
AcDbEntity
  8
18
100
AcDbLine
 10
270.432654
 20
-167.586777
 30
0.0
 11
278.560518
 21
-167.586777
 31
0.0
  0
LINE
  5
46F
100
AcDbEntity
  8
18
100
AcDbLine
 10
263.225559
 20
-162.986777
 30
0.0
 11
268.695477
 21
-162.986777
 31
0.0
  0
LINE
  5
470
100
AcDbEntity
  8
18
100
AcDbLine
 10
263.225559
 20
-164.186777
 30
0.0
 11
268.695477
 21
-164.186777
 31
0.0
  0
ARC
  5
471
100
AcDbEntity
  8
18
100
AcDbCircle
 10
284.307002
 20
-148.786777
 30
0.0
 40
1.2
100
AcDbArc
 50
0.0
 51
180.0
  0
ARC
  5
472
100
AcDbEntity
  8
18
100
AcDbCircle
 10
284.307002
 20
-160.386777
 30
0.0
 40
1.2
100
AcDbArc
 50
180.0
 51
360.0
  0
LINE
  5
473
100
AcDbEntity
  8
18
100
AcDbLine
 10
259.98335
 20
-163.063842
 30
0.0
 11
260.955517
 21
-151.951914
 31
0.0
  0
LINE
  5
474
100
AcDbEntity
  8
18
100
AcDbLine
 10
271.937686
 20
-163.063842
 30
0.0
 11
270.965518
 21
-151.951914
 31
0.0
  0
LINE
  5
475
100
AcDbEntity
  8
18
100
AcDbLine
 10
272.760518
 20
-157.386777
 30
0.0
 11
272.760518
 21
-151.786777
 31
0.0
  0
TEXT
  5
476
100
AcDbEntity
  8
18
100
AcDbText
 10
263.174342
 20
-160.548553
 30
0.0
 40
3.0
  1
O
 72
     5
 11
265.574342
 21
-160.548553
 31
0.0
100
AcDbText
  0
TEXT
  5
477
100
AcDbEntity
  8
18
100
AcDbText
 10
271.73683
 20
-166.309218
 30
0.0
 40
3.0
  1
S
 50
90.0
 72
     5
 11
271.73683
 21
-163.909218
 31
0.0
100
AcDbText
  0
ARC
  5
478
100
AcDbEntity
  8
18
100
AcDbCircle
 10
261.353995
 20
-151.986777
 30
0.0
 40
0.4
100
AcDbArc
 50
90.0
 51
175.0
  0
ARC
  5
479
100
AcDbEntity
  8
18
100
AcDbCircle
 10
270.56704
 20
-151.986777
 30
0.0
 40
0.4
100
AcDbArc
 50
5.0
 51
90.0
  0
ARC
  5
47A
100
AcDbEntity
  8
18
100
AcDbCircle
 10
253.360518
 20
-159.986777
 30
0.0
 40
0.4
100
AcDbArc
 50
90.0
 51
180.0
  0
ARC
  5
47B
100
AcDbEntity
  8
18
100
AcDbCircle
 10
253.360518
 20
-167.186777
 30
0.0
 40
0.4
100
AcDbArc
 50
180.0
 51
270.0
  0
ARC
  5
47C
100
AcDbEntity
  8
18
100
AcDbCircle
 10
278.560518
 20
-159.986777
 30
0.0
 40
0.4
100
AcDbArc
 50
0.0
 51
90.0
  0
ARC
  5
47D
100
AcDbEntity
  8
18
100
AcDbCircle
 10
278.560518
 20
-167.186777
 30
0.0
 40
0.4
100
AcDbArc
 50
270.0
 51
360.0
  0
ARC
  5
47E
100
AcDbEntity
  8
18
100
AcDbCircle
 10
272.560518
 20
-151.786777
 30
0.0
 40
0.2
100
AcDbArc
 50
0.0
 51
90.0
  0
ARC
  5
47F
100
AcDbEntity
  8
18
100
AcDbCircle
 10
272.560518
 20
-157.386777
 30
0.0
 40
0.2
100
AcDbArc
 50
270.0
 51
360.0
  0
LINE
  5
480
100
AcDbEntity
  8
18
  6
CENTER
 62
     2
100
AcDbLine
 10
315.960518
 20
-141.240761
 30
0.0
 11
315.960518
 21
-160.088753
 31
0.0
  0
LINE
  5
481
100
AcDbEntity
  8
18
  6
CENTER
 62
     2
100
AcDbLine
 10
329.833435
 20
-150.586777
 30
0.0
 11
301.055275
 21
-150.586777
 31
0.0
  0
LINE
  5
482
100
AcDbEntity
  8
18
100
AcDbLine
 10
327.960518
 20
-145.980254
 30
0.0
 11
327.960518
 21
-157.186777
 31
0.0
  0
LINE
  5
483
100
AcDbEntity
  8
18
100
AcDbLine
 10
323.960518
 20
-157.386777
 30
0.0
 11
323.960518
 21
-167.733261
 31
0.0
  0
LINE
  5
484
100
AcDbEntity
  8
18
100
AcDbLine
 10
330.760518
 20
-167.733261
 30
0.0
 11
319.160518
 21
-167.733261
 31
0.0
  0
LINE
  5
485
100
AcDbEntity
  8
18
100
AcDbLine
 10
330.760518
 20
-170.133261
 30
0.0
 11
319.160518
 21
-170.133261
 31
0.0
  0
LINE
  5
486
100
AcDbEntity
  8
18
100
AcDbLine
 10
325.960518
 20
-157.386777
 30
0.0
 11
325.960518
 21
-167.733261
 31
0.0
  0
LINE
  5
487
100
AcDbEntity
  8
18
100
AcDbLine
 10
321.960518
 20
-156.084764
 30
0.0
 11
321.960518
 21
-157.186777
 31
0.0
  0
ARC
  5
488
100
AcDbEntity
  8
18
100
AcDbCircle
 10
315.960518
 20
-150.586777
 30
0.0
 40
6.0
100
AcDbArc
 50
77.624033
 51
275.0
  0
LINE
  5
489
100
AcDbEntity
  8
18
100
AcDbLine
 10
316.560518
 20
-147.851818
 30
0.0
 11
316.560518
 21
-153.321736
 31
0.0
  0
LINE
  5
48A
100
AcDbEntity
  8
18
100
AcDbLine
 10
315.360518
 20
-147.851818
 30
0.0
 11
315.360518
 21
-153.321736
 31
0.0
  0
ARC
  5
48B
100
AcDbEntity
  8
18
100
AcDbCircle
 10
330.760518
 20
-168.933261
 30
0.0
 40
1.2
100
AcDbArc
 50
270.0
 51
90.0
  0
ARC
  5
48C
100
AcDbEntity
  8
18
100
AcDbCircle
 10
319.160518
 20
-168.933261
 30
0.0
 40
1.2
100
AcDbArc
 50
90.0
 51
270.0
  0
LINE
  5
48D
100
AcDbEntity
  8
18
100
AcDbLine
 10
316.483452
 20
-144.609609
 30
0.0
 11
327.59538
 21
-145.581776
 31
0.0
  0
LINE
  5
48E
100
AcDbEntity
  8
18
100
AcDbLine
 10
316.483452
 20
-156.563945
 30
0.0
 11
327.59538
 21
-155.591777
 31
0.0
  0
LINE
  5
48F
100
AcDbEntity
  8
18
100
AcDbLine
 10
322.160518
 20
-157.386777
 30
0.0
 11
327.760518
 21
-157.386777
 31
0.0
  0
TEXT
  5
490
100
AcDbEntity
  8
18
100
AcDbText
 10
318.798741
 20
-147.800601
 30
0.0
 40
3.0
  1
O
 50
270.0
 72
     5
 11
318.798741
 21
-150.200601
 31
0.0
100
AcDbText
  0
TEXT
  5
491
100
AcDbEntity
  8
18
100
AcDbText
 10
313.238077
 20
-156.363089
 30
0.0
 40
3.0
  1
S
 72
     5
 11
315.638077
 21
-156.363089
 31
0.0
100
AcDbText
  0
ARC
  5
492
100
AcDbEntity
  8
18
100
AcDbCircle
 10
327.560518
 20
-145.980254
 30
0.0
 40
0.4
100
AcDbArc
 50
0.0
 51
85.0
  0
ARC
  5
493
100
AcDbEntity
  8
18
100
AcDbCircle
 10
327.560518
 20
-155.193299
 30
0.0
 40
0.4
100
AcDbArc
 50
275.0
 51
360.0
  0
ARC
  5
494
100
AcDbEntity
  8
18
100
AcDbCircle
 10
327.760518
 20
-157.186777
 30
0.0
 40
0.2
100
AcDbArc
 50
270.0
 51
360.0
  0
ARC
  5
495
100
AcDbEntity
  8
18
100
AcDbCircle
 10
322.160518
 20
-157.186777
 30
0.0
 40
0.2
100
AcDbArc
 50
180.0
 51
270.0
  0
LINE
  5
496
100
AcDbEntity
  8
18
100
AcDbLine
 10
303.360518
 20
-146.586777
 30
0.0
 11
311.488382
 21
-146.586777
 31
0.0
  0
LINE
  5
497
100
AcDbEntity
  8
18
100
AcDbLine
 10
303.360518
 20
-154.586777
 30
0.0
 11
311.488382
 21
-154.586777
 31
0.0
  0
LINE
  5
498
100
AcDbEntity
  8
18
100
AcDbLine
 10
327.960518
 20
-154.586777
 30
0.0
 11
328.560518
 21
-154.586777
 31
0.0
  0
LINE
  5
499
100
AcDbEntity
  8
18
100
AcDbLine
 10
327.960518
 20
-146.586777
 30
0.0
 11
328.560518
 21
-146.586777
 31
0.0
  0
LINE
  5
49A
100
AcDbEntity
  8
18
100
AcDbLine
 10
328.960518
 20
-146.986777
 30
0.0
 11
328.960518
 21
-154.186777
 31
0.0
  0
LINE
  5
49B
100
AcDbEntity
  8
18
100
AcDbLine
 10
302.960518
 20
-146.986777
 30
0.0
 11
302.960518
 21
-154.186777
 31
0.0
  0
ARC
  5
49C
100
AcDbEntity
  8
18
100
AcDbCircle
 10
303.360518
 20
-146.986777
 30
0.0
 40
0.4
100
AcDbArc
 50
90.0
 51
180.0
  0
ARC
  5
49D
100
AcDbEntity
  8
18
100
AcDbCircle
 10
303.360518
 20
-154.186777
 30
0.0
 40
0.4
100
AcDbArc
 50
180.0
 51
270.0
  0
ARC
  5
49E
100
AcDbEntity
  8
18
100
AcDbCircle
 10
328.560518
 20
-154.186777
 30
0.0
 40
0.4
100
AcDbArc
 50
270.0
 51
360.0
  0
ARC
  5
49F
100
AcDbEntity
  8
18
100
AcDbCircle
 10
328.560518
 20
-146.986777
 30
0.0
 40
0.4
100
AcDbArc
 50
0.0
 51
90.0
  0
CIRCLE
  5
4A0
100
AcDbEntity
  8
18
100
AcDbCircle
 10
265.960518
 20
-163.586777
 30
0.0
 40
2.8
  0
CIRCLE
  5
4A1
100
AcDbEntity
  8
18
100
AcDbCircle
 10
315.960518
 20
-150.586777
 30
0.0
 40
2.8
  0
POINT
  5
4A2
100
AcDbEntity
  8
18
100
AcDbPoint
 10
243.098152
 20
-136.431236
 30
0.0
  0
TEXT
  5
4A3
100
AcDbEntity
  8
18
100
AcDbText
 10
255.59333
 20
-194.456385
 30
0.0
 40
6.0
  1
駆 動 部 取 付 方 向
 72
     5
 11
332.39333
 21
-194.456385
 31
0.0
100
AcDbText
  0
LINE
  5
4A4
100
AcDbEntity
  8
20
 62
     3
100
AcDbLine
 10
-360.0
 20
-277.0
 30
0.0
 11
400.0
 21
-277.0
 31
0.0
  0
LINE
  5
4A5
100
AcDbEntity
  8
20
 62
     3
100
AcDbLine
 10
-360.0
 20
264.0
 30
0.0
 11
400.0
 21
264.0
 31
0.0
  0
LINE
  5
4A6
100
AcDbEntity
  8
20
 62
     3
100
AcDbLine
 10
-360.0
 20
264.0
 30
0.0
 11
-360.0
 21
-277.0
 31
0.0
  0
LINE
  5
4A7
100
AcDbEntity
  8
20
 62
     3
100
AcDbLine
 10
400.0
 20
264.0
 30
0.0
 11
400.0
 21
-277.0
 31
0.0
  0
LINE
  5
4A8
100
AcDbEntity
  8
20
 62
     3
100
AcDbLine
 10
120.0
 20
-277.0
 30
0.0
 11
120.0
 21
-237.0
 31
0.0
  0
LINE
  5
4A9
100
AcDbEntity
  8
20
 62
     3
100
AcDbLine
 10
214.0
 20
-277.0
 30
0.0
 11
214.0
 21
-237.0
 31
0.0
  0
LINE
  5
4AA
100
AcDbEntity
  8
20
100
AcDbLine
 10
214.0
 20
-257.0
 30
0.0
 11
400.0
 21
-257.0
 31
0.0
  0
LINE
  5
4AB
100
AcDbEntity
  8
20
 62
     3
100
AcDbLine
 10
120.0
 20
-237.0
 30
0.0
 11
400.0
 21
-237.0
 31
0.0
  0
LINE
  5
4AC
100
AcDbEntity
  8
20
100
AcDbLine
 10
360.0
 20
-257.0
 30
0.0
 11
360.0
 21
-237.0
 31
0.0
  0
LINE
  5
4AD
100
AcDbEntity
  8
20
100
AcDbLine
 10
360.0
 20
-247.0
 30
0.0
 11
400.0
 21
-247.0
 31
0.0
  0
LINE
  5
4AE
100
AcDbEntity
  8
20
100
AcDbLine
 10
242.0
 20
-277.0
 30
0.0
 11
242.0
 21
-237.0
 31
0.0
  0
LINE
  5
4AF
100
AcDbEntity
  8
20
100
AcDbLine
 10
262.0
 20
-277.0
 30
0.0
 11
262.0
 21
-257.0
 31
0.0
  0
LINE
  5
4B0
100
AcDbEntity
  8
20
100
AcDbLine
 10
302.0
 20
-277.0
 30
0.0
 11
302.0
 21
-257.0
 31
0.0
  0
LINE
  5
4B1
100
AcDbEntity
  8
20
100
AcDbLine
 10
247.456829
 20
-271.543171
 30
0.0
 11
255.796581
 21
-263.203419
 31
0.0
  0
TEXT
  5
4B2
100
AcDbEntity
  8
20
100
AcDbText
 10
263.066658
 20
-264.993835
 30
0.0
 40
3.6
  1
ＤＲＡＷＩＮＧ　ＮＯ．
 72
     5
 11
301.946658
 21
-264.993835
 31
0.0
100
AcDbText
  0
TEXT
  5
4B3
100
AcDbEntity
  8
20
100
AcDbText
 10
267.0
 20
-273.0
 30
0.0
 40
6.0
  1
図　　　番
 72
     5
 11
295.8
 21
-273.0
 31
0.0
100
AcDbText
  0
TEXT
  5
4B4
100
AcDbEntity
  8
20
100
AcDbText
 10
372.0
 20
-244.0
 30
0.0
 40
4.0
  1
ＤＡＴＥ
 72
     5
 11
387.2
 21
-244.0
 31
0.0
100
AcDbText
  0
TEXT
  5
4B5
100
AcDbEntity
  8
20
100
AcDbText
 10
218.002142
 20
-265.922058
 30
0.0
 40
4.0
  1
ＳＣＡＬＥ
 72
     5
 11
237.202142
 21
-265.922058
 31
0.0
100
AcDbText
  0
TEXT
  5
4B6
100
AcDbEntity
  8
20
100
AcDbText
 10
216.0
 20
-273.0
 30
0.0
 40
6.0
  1
尺　　度
 72
     5
 11
238.8
 21
-273.0
 31
0.0
100
AcDbText
  0
TEXT
  5
4B7
100
AcDbEntity
  8
20
100
AcDbText
 10
215.002142
 20
-244.991769
 30
0.0
 40
4.0
  1
ＦＩＧ．ＮＯ．
 72
     5
 11
242.202142
 21
-244.991769
 31
0.0
100
AcDbText
  0
TEXT
  5
4B8
100
AcDbEntity
  8
20
100
AcDbText
 10
216.0
 20
-253.0
 30
0.0
 40
6.0
  1
名　　称
 72
     5
 11
238.8
 21
-253.0
 31
0.0
100
AcDbText
  0
TEXT
  5
4B9
100
AcDbEntity
  8
20
100
AcDbText
 10
121.13105
 20
-252.940506
 30
0.0
 40
4.6
  1
ＴＯＭＯＥ　ＶＡＬＶＥ　ＣＯ．，ＬＴＤ．
 72
     5
 11
212.21105
 21
-252.940506
 31
0.0
100
AcDbText
  0
TEXT
  5
4BA
100
AcDbEntity
  8
20
100
AcDbText
 10
135.0
 20
-266.57962
 30
0.0
 40
8.0
  1
巴バルブ株式会社
 72
     5
 11
197.4
 21
-266.57962
 31
0.0
100
AcDbText
  0
ENDSEC
  0
SECTION
  2
OBJECTS
  0
DICTIONARY
  5
51B
100
AcDbDictionary
  3
ACAD_GROUP
350
51C
  3
ACAD_MLINESTYLE
350
51D
  0
DICTIONARY
  5
51C
102
{ACAD_REACTORS
330
51B
102
}
100
AcDbDictionary
  0
DICTIONARY
  5
51D
102
{ACAD_REACTORS
330
51B
102
}
100
AcDbDictionary
  3
STANDARD
350
51E
  0
MLINESTYLE
  5
51E
102
{ACAD_REACTORS
330
51D
102
}
100
AcDbMlineStyle
  2
STANDARD
 70
     0
  3

 62
     0
 51
90.0
 52
90.0
 71
     2
 49
0.5
 62
   256
  6
BYLAYER
 49
-0.5
 62
   256
  6
BYLAYER
  0
ENDSEC
  0
EOF
